  0
SECTION
  2
HEADER
  9
$ACADVER
  1
AC1015
  9
$ACADMAINTVER
 70
     6
  9
$DWGCODEPAGE
  3
ANSI_1252
  9
$INSBASE
 10
0.0
 20
0.0
 30
0.0
  9
$EXTMIN
 10
78.63563305771771
 20
46.55338004323249
 30
-0.0000000000000053
  9
$EXTMAX
 10
100.1422791142301
 20
62.18092347465177
 30
0.0000000000000099
  9
$LIMMIN
 10
0.0
 20
0.0
  9
$LIMMAX
 10
18.0
 20
12.0
  9
$ORTHOMODE
 70
     0
  9
$REGENMODE
 70
     1
  9
$FILLMODE
 70
     1
  9
$QTEXTMODE
 70
     0
  9
$MIRRTEXT
 70
     1
  9
$LTSCALE
 40
1.333333333333333
  9
$ATTMODE
 70
     1
  9
$TEXTSIZE
 40
0.125
  9
$TRACEWID
 40
0.05
  9
$TEXTSTYLE
  7
STANDARD
  9
$CLAYER
  8
0
  9
$CELTYPE
  6
BYLAYER
  9
$CECOLOR
 62
   256
  9
$CELTSCALE
 40
1.0
  9
$DISPSILH
 70
     0
  9
$DIMSCALE
 40
1.0
  9
$DIMASZ
 40
0.18
  9
$DIMEXO
 40
0.0625
  9
$DIMDLI
 40
0.38
  9
$DIMRND
 40
0.0
  9
$DIMDLE
 40
0.0
  9
$DIMEXE
 40
0.1
  9
$DIMTP
 40
0.0
  9
$DIMTM
 40
0.0
  9
$DIMTXT
 40
0.125
  9
$DIMCEN
 40
0.03
  9
$DIMTSZ
 40
0.0
  9
$DIMTOL
 70
     0
  9
$DIMLIM
 70
     0
  9
$DIMTIH
 70
     1
  9
$DIMTOH
 70
     1
  9
$DIMSE1
 70
     0
  9
$DIMSE2
 70
     0
  9
$DIMTAD
 70
     0
  9
$DIMZIN
 70
     0
  9
$DIMBLK
  1

  9
$DIMASO
 70
     1
  9
$DIMSHO
 70
     1
  9
$DIMPOST
  1

  9
$DIMAPOST
  1

  9
$DIMALT
 70
     0
  9
$DIMALTD
 70
     2
  9
$DIMALTF
 40
25.4
  9
$DIMLFAC
 40
1.0
  9
$DIMTOFL
 70
     0
  9
$DIMTVP
 40
0.0
  9
$DIMTIX
 70
     0
  9
$DIMSOXD
 70
     0
  9
$DIMSAH
 70
     0
  9
$DIMBLK1
  1

  9
$DIMBLK2
  1

  9
$DIMSTYLE
  2
STANDARD_WS
  9
$DIMCLRD
 70
     1
  9
$DIMCLRE
 70
     1
  9
$DIMCLRT
 70
     4
  9
$DIMTFAC
 40
1.0
  9
$DIMGAP
 40
0.09
  9
$DIMJUST
 70
     0
  9
$DIMSD1
 70
     0
  9
$DIMSD2
 70
     0
  9
$DIMTOLJ
 70
     1
  9
$DIMTZIN
 70
     0
  9
$DIMALTZ
 70
     0
  9
$DIMALTTZ
 70
     0
  9
$DIMUPT
 70
     0
  9
$DIMDEC
 70
     3
  9
$DIMTDEC
 70
     3
  9
$DIMALTU
 70
     2
  9
$DIMALTTD
 70
     2
  9
$DIMTXSTY
  7
STANDARD
  9
$DIMAUNIT
 70
     0
  9
$DIMADEC
 70
     0
  9
$DIMALTRND
 40
0.0
  9
$DIMAZIN
 70
     0
  9
$DIMDSEP
 70
    46
  9
$DIMATFIT
 70
     3
  9
$DIMFRAC
 70
     0
  9
$DIMLDRBLK
  1

  9
$DIMLUNIT
 70
     2
  9
$DIMLWD
 70
    -2
  9
$DIMLWE
 70
    -2
  9
$DIMTMOVE
 70
     0
  9
$LUNITS
 70
     2
  9
$LUPREC
 70
     4
  9
$SKETCHINC
 40
0.1
  9
$FILLETRAD
 40
0.4970000000000001
  9
$AUNITS
 70
     0
  9
$AUPREC
 70
     2
  9
$MENU
  1
.
  9
$ELEVATION
 40
0.0
  9
$PELEVATION
 40
0.0
  9
$THICKNESS
 40
0.0
  9
$LIMCHECK
 70
     0
  9
$CHAMFERA
 40
0.0
  9
$CHAMFERB
 40
0.0
  9
$CHAMFERC
 40
1.333333333333333
  9
$CHAMFERD
 40
0.0
  9
$SKPOLY
 70
     1
  9
$TDCREATE
 40
2451003.539755671
  9
$TDUCREATE
 40
2451003.706422338
  9
$TDUPDATE
 40
2453906.515404722
  9
$TDUUPDATE
 40
2453906.682071388
  9
$TDINDWG
 40
1.2780722917
  9
$TDUSRTIMER
 40
1.2780722917
  9
$USRTIMER
 70
     1
  9
$ANGBASE
 50
0.0
  9
$ANGDIR
 70
     0
  9
$PDMODE
 70
     0
  9
$PDSIZE
 40
0.0
  9
$PLINEWID
 40
0.02
  9
$SPLFRAME
 70
     0
  9
$SPLINETYPE
 70
     6
  9
$SPLINESEGS
 70
     8
  9
$HANDSEED
  5
5768
  9
$SURFTAB1
 70
     6
  9
$SURFTAB2
 70
     6
  9
$SURFTYPE
 70
     6
  9
$SURFU
 70
     6
  9
$SURFV
 70
     6
  9
$UCSBASE
  2

  9
$UCSNAME
  2

  9
$UCSORG
 10
0.0
 20
0.0
 30
0.0
  9
$UCSXDIR
 10
1.0
 20
0.0
 30
0.0
  9
$UCSYDIR
 10
0.0
 20
1.0
 30
0.0
  9
$UCSORTHOREF
  2

  9
$UCSORTHOVIEW
 70
     0
  9
$UCSORGTOP
 10
0.0
 20
0.0
 30
0.0
  9
$UCSORGBOTTOM
 10
0.0
 20
0.0
 30
0.0
  9
$UCSORGLEFT
 10
0.0
 20
0.0
 30
0.0
  9
$UCSORGRIGHT
 10
0.0
 20
0.0
 30
0.0
  9
$UCSORGFRONT
 10
0.0
 20
0.0
 30
0.0
  9
$UCSORGBACK
 10
0.0
 20
0.0
 30
0.0
  9
$PUCSBASE
  2

  9
$PUCSNAME
  2

  9
$PUCSORG
 10
0.0
 20
0.0
 30
0.0
  9
$PUCSXDIR
 10
1.0
 20
0.0
 30
0.0
  9
$PUCSYDIR
 10
0.0
 20
1.0
 30
0.0
  9
$PUCSORTHOREF
  2

  9
$PUCSORTHOVIEW
 70
     0
  9
$PUCSORGTOP
 10
0.0
 20
0.0
 30
0.0
  9
$PUCSORGBOTTOM
 10
0.0
 20
0.0
 30
0.0
  9
$PUCSORGLEFT
 10
0.0
 20
0.0
 30
0.0
  9
$PUCSORGRIGHT
 10
0.0
 20
0.0
 30
0.0
  9
$PUCSORGFRONT
 10
0.0
 20
0.0
 30
0.0
  9
$PUCSORGBACK
 10
0.0
 20
0.0
 30
0.0
  9
$USERI1
 70
     0
  9
$USERI2
 70
     0
  9
$USERI3
 70
     0
  9
$USERI4
 70
     0
  9
$USERI5
 70
     0
  9
$USERR1
 40
0.0
  9
$USERR2
 40
0.0
  9
$USERR3
 40
0.0
  9
$USERR4
 40
0.0
  9
$USERR5
 40
0.0
  9
$WORLDVIEW
 70
     1
  9
$SHADEDGE
 70
     3
  9
$SHADEDIF
 70
    70
  9
$TILEMODE
 70
     1
  9
$MAXACTVP
 70
    48
  9
$PINSBASE
 10
0.0
 20
0.0
 30
0.0
  9
$PLIMCHECK
 70
     0
  9
$PEXTMIN
 10
1.000000000000000E+20
 20
1.000000000000000E+20
 30
1.000000000000000E+20
  9
$PEXTMAX
 10
-1.000000000000000E+20
 20
-1.000000000000000E+20
 30
-1.000000000000000E+20
  9
$PLIMMIN
 10
0.0
 20
0.0
  9
$PLIMMAX
 10
12.0
 20
9.0
  9
$UNITMODE
 70
     0
  9
$VISRETAIN
 70
     1
  9
$PLINEGEN
 70
     0
  9
$PSLTSCALE
 70
     1
  9
$TREEDEPTH
 70
  3020
  9
$CMLSTYLE
  2
STANDARD
  9
$CMLJUST
 70
     0
  9
$CMLSCALE
 40
1.0
  9
$PROXYGRAPHICS
 70
     1
  9
$MEASUREMENT
 70
     0
  9
$CELWEIGHT
370
    -1
  9
$ENDCAPS
280
     0
  9
$JOINSTYLE
280
     0
  9
$LWDISPLAY
290
     0
  9
$INSUNITS
 70
     0
  9
$HYPERLINKBASE
  1

  9
$STYLESHEET
  1
monochrome.ctb
  9
$XEDIT
290
     1
  9
$CEPSNTYPE
380
     0
  9
$PSTYLEMODE
290
     1
  9
$FINGERPRINTGUID
  2
{A90102E6-6CF6-11D8-BFD3-00B0D0230E80}
  9
$VERSIONGUID
  2
{1A413F73-EA8D-470C-ACBA-67148F6045C0}
  9
$EXTNAMES
290
     1
  9
$PSVPSCALE
 40
0.0
  9
$OLESTARTUP
290
     0
  0
ENDSEC
  0
SECTION
  2
CLASSES
  0
CLASS
  1
DICTIONARYVAR
  2
AcDbDictionaryVar
  3
AutoCAD 2000
 90
        0
280
     0
281
     0
  0
CLASS
  1
LWPOLYLINE
  2
AcDbPolyline
  3
AutoCAD 2000
 90
    32768
280
     0
281
     1
  0
CLASS
  1
HATCH
  2
AcDbHatch
  3
AutoCAD 2000
 90
    32768
280
     0
281
     1
  0
CLASS
  1
ACDBDICTIONARYWDFLT
  2
AcDbDictionaryWithDefault
  3
AutoCAD 2000
 90
        0
280
     0
281
     0
  0
CLASS
  1
ACDBPLACEHOLDER
  2
AcDbPlaceHolder
  3
AutoCAD 2000
 90
        0
280
     0
281
     0
  0
CLASS
  1
LAYOUT
  2
AcDbLayout
  3
AutoCAD 2000
 90
        0
280
     0
281
     0
  0
CLASS
  1
LONG_TRANSACTION
  2
AcDbLongTransaction
  3
AutoCAD 2000
 90
    32768
280
     0
281
     0
  0
CLASS
  1
LWPOLYLINE
  2
AcDbPolyline
  3
AutoCAD 2000
 90
    32768
280
     0
281
     1
  0
CLASS
  1
HATCH
  2
AcDbHatch
  3
AutoCAD 2000
 90
    32768
280
     0
281
     1
  0
CLASS
  1
XRECORD
  2
AcDbXrecord
  3
AutoCAD 2000
 90
    32768
280
     0
281
     0
  0
ENDSEC
  0
SECTION
  2
TABLES
  0
TABLE
  2
VPORT
  5
8
330
0
100
AcDbSymbolTable
 70
     3
  0
VPORT
  5
5767
330
8
100
AcDbSymbolTableRecord
100
AcDbViewportTableRecord
  2
*Active
 70
     0
 10
0.0
 20
0.0
 11
1.0
 21
1.0
 12
89.38895608597391
 22
54.36715175894213
 13
0.0
 23
0.0
 14
0.7
 24
0.7
 15
0.7
 25
0.7
 16
0.0
 26
0.0
 36
1.0
 17
0.0
 27
0.0
 37
0.0
 40
15.79262311555398
 41
1.767195767195767
 42
50.0
 43
0.0
 44
0.0
 50
0.0
 51
0.0
 71
     0
 72
   100
 73
     1
 74
     0
 75
     0
 76
     0
 77
     0
 78
     0
281
     0
 65
     1
110
0.0
120
0.0
130
0.0
111
1.0
121
0.0
131
0.0
112
0.0
122
1.0
132
0.0
 79
     0
146
0.0
  0
ENDTAB
  0
TABLE
  2
LTYPE
  5
5
330
0
100
AcDbSymbolTable
 70
     3
  0
LTYPE
  5
13
330
5
100
AcDbSymbolTableRecord
100
AcDbLinetypeTableRecord
  2
BYBLOCK
 70
     0
  3

 72
    65
 73
     0
 40
0.0
  0
LTYPE
  5
14
330
5
100
AcDbSymbolTableRecord
100
AcDbLinetypeTableRecord
  2
BYLAYER
 70
     0
  3

 72
    65
 73
     0
 40
0.0
  0
LTYPE
  5
15
330
5
100
AcDbSymbolTableRecord
100
AcDbLinetypeTableRecord
  2
CONTINUOUS
 70
     0
  3
Solid line
 72
    65
 73
     0
 40
0.0
  0
LTYPE
  5
66
330
5
100
AcDbSymbolTableRecord
100
AcDbLinetypeTableRecord
  2
HIDDEN2
 70
     0
  3
Hidden (.5x) _ _ _ _ _ _ _ _ _ _ _ _ _ _ _ _ _
 72
    65
 73
     2
 40
0.1875
 49
0.125
 74
     0
 49
-0.0625
 74
     0
  0
LTYPE
  5
2EDF
330
5
100
AcDbSymbolTableRecord
100
AcDbLinetypeTableRecord
  2
CENTER2
 70
     0
  3
Center (.5x) ___ _ ___ _ ___ _ ___ _ ___ _ ___
 72
    65
 73
     4
 40
1.125
 49
0.75
 74
     0
 49
-0.125
 74
     0
 49
0.125
 74
     0
 49
-0.125
 74
     0
  0
ENDTAB
  0
TABLE
  2
LAYER
  5
2
330
0
100
AcDbSymbolTable
 70
     7
  0
LAYER
  5
F
330
2
100
AcDbSymbolTableRecord
100
AcDbLayerTableRecord
  2
0
 70
     0
 62
     7
  6
CONTINUOUS
370
    -3
390
55FD
  0
LAYER
  5
262
330
2
100
AcDbSymbolTableRecord
100
AcDbLayerTableRecord
  2
DEFPOINTS
 70
     0
 62
     7
  6
CONTINUOUS
290
     0
370
    -3
390
55FD
  0
LAYER
  5
4931
330
2
100
AcDbSymbolTableRecord
100
AcDbLayerTableRecord
  2
JB-65B
 70
     0
 62
    14
  6
CONTINUOUS
370
    -3
390
55FD
  0
LAYER
  5
4E19
330
2
100
AcDbSymbolTableRecord
100
AcDbLayerTableRecord
  2
JB-65C
 70
     0
 62
    14
  6
CONTINUOUS
370
    -3
390
55FD
  0
LAYER
  5
527E
330
2
100
AcDbSymbolTableRecord
100
AcDbLayerTableRecord
  2
JB-65EP
 70
     0
 62
    14
  6
CONTINUOUS
370
    -3
390
55FD
  0
LAYER
  5
5650
330
2
100
AcDbSymbolTableRecord
100
AcDbLayerTableRecord
  2
TITLE
 70
     0
 62
     8
  6
CONTINUOUS
370
    -3
390
55FD
  0
LAYER
  5
5651
330
2
100
AcDbSymbolTableRecord
100
AcDbLayerTableRecord
  2
TEXT
 70
     0
 62
     1
  6
CONTINUOUS
370
    -3
390
55FD
  0
ENDTAB
  0
TABLE
  2
STYLE
  5
3
330
0
100
AcDbSymbolTable
 70
     5
  0
STYLE
  5
10
330
3
100
AcDbSymbolTableRecord
100
AcDbTextStyleTableRecord
  2
STANDARD
 70
     0
 40
0.125
 41
1.0
 50
0.0
 71
     0
 42
0.125
  3
ARIAL.TTF
  4

1001
ACAD
1000
Arial
1071
       34
  0
STYLE
  5
67
330
3
100
AcDbSymbolTableRecord
100
AcDbTextStyleTableRecord
  2
ROMANS
 70
     0
 40
0.125
 41
1.0
 50
0.0
 71
     0
 42
0.125
  3
romab___.ttf
  4

1001
ACAD
1000
Romantic
1071
 33554946
  0
STYLE
  5
68
330
3
100
AcDbSymbolTableRecord
100
AcDbTextStyleTableRecord
  2
SANSSERIFBOLDOBLIQUE
 70
     0
 40
0.125
 41
1.074999999999999
 50
0.0
 71
     0
 42
1.199999999999999
  3
sasbo___.pfb
  4

  0
STYLE
  5
5584
330
3
100
AcDbSymbolTableRecord
100
AcDbTextStyleTableRecord
  2

 70
     1
 40
0.0
 41
1.0
 50
0.0
 71
     0
 42
0.125
  3
ltypeshp.shx
  4

  0
STYLE
  5
5652
330
3
100
AcDbSymbolTableRecord
100
AcDbTextStyleTableRecord
  2
TXT
 70
     0
 40
0.0
 41
0.75
 50
0.0
 71
     0
 42
0.125
  3
txt
  4

  0
ENDTAB
  0
TABLE
  2
VIEW
  5
6
330
0
100
AcDbSymbolTable
 70
     0
  0
ENDTAB
  0
TABLE
  2
UCS
  5
7
330
0
100
AcDbSymbolTable
 70
     0
  0
ENDTAB
  0
TABLE
  2
APPID
  5
9
330
0
100
AcDbSymbolTable
 70
     1
  0
APPID
  5
11
330
9
100
AcDbSymbolTableRecord
100
AcDbRegAppTableRecord
  2
ACAD
 70
     0
  0
ENDTAB
  0
TABLE
  2
DIMSTYLE
  5
A
330
0
100
AcDbSymbolTable
 70
    12
100
AcDbDimStyleTable
 71
     1
340
4E
  0
DIMSTYLE
105
1D
330
A
100
AcDbSymbolTableRecord
100
AcDbDimStyleTableRecord
  2
STANDARD
 70
     0
340
10
  0
DIMSTYLE
105
4E
102
{ACAD_REACTORS
330
524B
330
534D
330
5367
330
5375
330
5383
330
53D9
330
53E7
330
53F5
330
5403
330
5471
330
548B
330
54D0
330
54FE
330
5700
330
571A
330
5728
330
5746
330
5754
102
}
330
A
100
AcDbSymbolTableRecord
100
AcDbDimStyleTableRecord
  2
STANDARD_WS
 70
     0
 44
0.1
140
0.125
141
0.03
176
     1
177
     1
178
     4
271
     3
272
     3
340
10
  0
DIMSTYLE
105
3F28
102
{ACAD_REACTORS
330
54E8
102
}
330
A
100
AcDbSymbolTableRecord
100
AcDbDimStyleTableRecord
  2
STANDARD_WS$3
 70
     0
 44
0.1
140
0.125
141
0.0
176
     1
177
     1
178
     4
271
     3
272
     3
340
10
  0
DIMSTYLE
105
5585
330
A
100
AcDbSymbolTableRecord
100
AcDbDimStyleTableRecord
  2
LITTLE
 70
     0
 41
0.09
 42
0.03
 43
0.18
 44
0.03
140
0.05
141
0.03
147
0.04
176
     1
177
     1
178
     4
271
     3
272
     3
275
     1
340
10
  0
DIMSTYLE
105
5586
330
A
100
AcDbSymbolTableRecord
100
AcDbDimStyleTableRecord
  2
LITTLE$3
 70
     0
 41
0.09
 42
0.03
 43
0.18
 44
0.03
140
0.05
141
0.0
147
0.04
176
     1
177
     1
178
     4
271
     3
272
     3
275
     1
340
10
  0
DIMSTYLE
105
5587
330
A
100
AcDbSymbolTableRecord
100
AcDbDimStyleTableRecord
  2
LITTLE$4
 70
     0
 41
0.09
 42
0.03
 43
0.18
 44
0.03
140
0.05
141
0.0
147
0.04
176
     1
177
     1
178
     4
271
     3
272
     3
275
     1
340
10
  0
DIMSTYLE
105
5588
330
A
100
AcDbSymbolTableRecord
100
AcDbDimStyleTableRecord
  2
LITTLE$0
 70
     0
 41
0.09
 42
0.03
 43
0.18
 44
0.03
140
0.05
141
0.03
147
0.04
176
     1
177
     1
178
     4
271
     3
272
     3
275
     1
340
10
  0
DIMSTYLE
105
5589
330
A
100
AcDbSymbolTableRecord
100
AcDbDimStyleTableRecord
  2
STANDARD$4
 70
     0
 44
0.1
140
0.125
141
0.0
176
     1
177
     1
178
     4
271
     3
272
     3
275
     1
340
10
  0
DIMSTYLE
105
558A
330
A
100
AcDbSymbolTableRecord
100
AcDbDimStyleTableRecord
  2
STANDARD$3
 70
     0
 44
0.1
140
0.125
141
0.0
176
     1
177
     1
178
     4
271
     3
272
     3
275
     1
340
10
  0
DIMSTYLE
105
558B
330
A
100
AcDbSymbolTableRecord
100
AcDbDimStyleTableRecord
  2
STANDARD$7
 70
     0
 44
0.1
140
0.125
141
0.03
176
     1
177
     1
178
     4
271
     3
272
     3
275
     1
288
     1
340
10
  0
DIMSTYLE
105
558C
330
A
100
AcDbSymbolTableRecord
100
AcDbDimStyleTableRecord
  2
LITTLE$7
 70
     0
 41
0.09
 42
0.03
 43
0.18
 44
0.03
140
0.05
141
0.03
147
0.04
176
     1
177
     1
178
     4
271
     3
272
     3
275
     1
288
     1
340
10
  0
DIMSTYLE
105
5653
330
A
100
AcDbSymbolTableRecord
100
AcDbDimStyleTableRecord
  2
23NSTD
 70
     0
 44
0.09
140
0.125
271
     3
272
     3
289
     1
340
5652
  0
ENDTAB
  0
TABLE
  2
BLOCK_RECORD
  5
1
330
0
100
AcDbSymbolTable
 70
    27
  0
BLOCK_RECORD
  5
19
102
{ACAD_XDICTIONARY
360
562E
102
}
330
1
100
AcDbSymbolTableRecord
100
AcDbBlockTableRecord
  2
*MODEL_SPACE
340
5600
  0
BLOCK_RECORD
  5
16
102
{ACAD_XDICTIONARY
360
562C
102
}
330
1
100
AcDbSymbolTableRecord
100
AcDbBlockTableRecord
  2
*PAPER_SPACE
340
5601
  0
BLOCK_RECORD
  5
2E6B
330
1
100
AcDbSymbolTableRecord
100
AcDbBlockTableRecord
  2
CL
340
0
102
{BLKREFS
331
5084
331
5085
331
55A6
331
55A9
102
}
  0
BLOCK_RECORD
  5
4B37
330
1
100
AcDbSymbolTableRecord
100
AcDbBlockTableRecord
  2
_DOT
340
0
  0
BLOCK_RECORD
  5
523E
330
1
100
AcDbSymbolTableRecord
100
AcDbBlockTableRecord
  2
*D2
340
0
  0
BLOCK_RECORD
  5
5340
330
1
100
AcDbSymbolTableRecord
100
AcDbBlockTableRecord
  2
*D3
340
0
  0
BLOCK_RECORD
  5
535A
330
1
100
AcDbSymbolTableRecord
100
AcDbBlockTableRecord
  2
*D4
340
0
  0
BLOCK_RECORD
  5
5368
330
1
100
AcDbSymbolTableRecord
100
AcDbBlockTableRecord
  2
*D5
340
0
  0
BLOCK_RECORD
  5
5376
330
1
100
AcDbSymbolTableRecord
100
AcDbBlockTableRecord
  2
*D6
340
0
  0
BLOCK_RECORD
  5
53CC
330
1
100
AcDbSymbolTableRecord
100
AcDbBlockTableRecord
  2
*D7
340
0
  0
BLOCK_RECORD
  5
53DA
330
1
100
AcDbSymbolTableRecord
100
AcDbBlockTableRecord
  2
*D8
340
0
  0
BLOCK_RECORD
  5
53E8
330
1
100
AcDbSymbolTableRecord
100
AcDbBlockTableRecord
  2
*D9
340
0
  0
BLOCK_RECORD
  5
53F6
330
1
100
AcDbSymbolTableRecord
100
AcDbBlockTableRecord
  2
*D10
340
0
  0
BLOCK_RECORD
  5
5464
330
1
100
AcDbSymbolTableRecord
100
AcDbBlockTableRecord
  2
*D11
340
0
  0
BLOCK_RECORD
  5
547E
330
1
100
AcDbSymbolTableRecord
100
AcDbBlockTableRecord
  2
*D12
340
0
  0
BLOCK_RECORD
  5
54C2
330
1
100
AcDbSymbolTableRecord
100
AcDbBlockTableRecord
  2
*D13
340
0
  0
BLOCK_RECORD
  5
54DF
330
1
100
AcDbSymbolTableRecord
100
AcDbBlockTableRecord
  2
*D14
340
0
  0
BLOCK_RECORD
  5
54F1
330
1
100
AcDbSymbolTableRecord
100
AcDbBlockTableRecord
  2
*D15
340
0
  0
BLOCK_RECORD
  5
5518
330
1
100
AcDbSymbolTableRecord
100
AcDbBlockTableRecord
  2
REVGRID
340
0
102
{BLKREFS
331
55AC
102
}
  0
BLOCK_RECORD
  5
552A
330
1
100
AcDbSymbolTableRecord
100
AcDbBlockTableRecord
  2
POLYCASELOGO
340
0
102
{BLKREFS
331
556B
102
}
  0
BLOCK_RECORD
  5
555B
330
1
100
AcDbSymbolTableRecord
100
AcDbBlockTableRecord
  2
TITLEBLK
340
0
102
{BLKREFS
331
55AE
102
}
  0
BLOCK_RECORD
  5
558D
330
1
100
AcDbSymbolTableRecord
100
AcDbBlockTableRecord
  2
B-SIZE
340
0
  0
BLOCK_RECORD
  5
55F1
330
1
100
AcDbSymbolTableRecord
100
AcDbBlockTableRecord
  2
A$C5CD5734E
340
0
  0
BLOCK_RECORD
  5
5654
330
1
100
AcDbSymbolTableRecord
100
AcDbBlockTableRecord
  2
C
340
0
102
{BLKREFS
331
56B9
102
}
  0
BLOCK_RECORD
  5
5701
330
1
100
AcDbSymbolTableRecord
100
AcDbBlockTableRecord
  2
*D22
340
0
  0
BLOCK_RECORD
  5
571B
330
1
100
AcDbSymbolTableRecord
100
AcDbBlockTableRecord
  2
*D23
340
0
  0
BLOCK_RECORD
  5
5729
330
1
100
AcDbSymbolTableRecord
100
AcDbBlockTableRecord
  2
*D24
340
0
  0
BLOCK_RECORD
  5
5747
330
1
100
AcDbSymbolTableRecord
100
AcDbBlockTableRecord
  2
*D25
340
0
  0
BLOCK_RECORD
  5
5755
330
1
100
AcDbSymbolTableRecord
100
AcDbBlockTableRecord
  2
*D26
340
0
  0
ENDTAB
  0
ENDSEC
  0
SECTION
  2
BLOCKS
  0
BLOCK
  5
1A
330
19
100
AcDbEntity
  8
0
100
AcDbBlockBegin
  2
*MODEL_SPACE
 70
     0
 10
0.0
 20
0.0
 30
0.0
  3
*MODEL_SPACE
  1

  0
ENDBLK
  5
1B
330
19
100
AcDbEntity
  8
0
100
AcDbBlockEnd
  0
BLOCK
  5
17
330
16
100
AcDbEntity
 67
     1
  8
0
100
AcDbBlockBegin
  2
*PAPER_SPACE
 70
     0
 10
0.0
 20
0.0
 30
0.0
  3
*PAPER_SPACE
  1

  0
ENDBLK
  5
18
330
16
100
AcDbEntity
 67
     1
  8
0
100
AcDbBlockEnd
  0
BLOCK
  5
2E6E
330
2E6B
100
AcDbEntity
  8
0
100
AcDbBlockBegin
  2
CL
 70
     0
 10
0.0
 20
0.0
 30
0.0
  3
CL
  1

  0
TEXT
  5
2E6C
330
2E6B
100
AcDbEntity
  8
0
 62
     4
100
AcDbText
 10
-0.0446487846840817
 20
-0.0006419411893219
 30
0.0
 40
0.125
  1
C
100
AcDbText
  0
TEXT
  5
2E6D
330
2E6B
100
AcDbEntity
  8
0
 62
     4
100
AcDbText
 10
0.0023360547861877
 20
-0.065809302625766
 30
0.0
 40
0.125
  1
L
100
AcDbText
  0
ENDBLK
  5
2E6F
330
2E6B
100
AcDbEntity
  8
0
100
AcDbBlockEnd
  0
BLOCK
  5
4B38
330
4B37
100
AcDbEntity
  8
0
100
AcDbBlockBegin
  2
_DOT
 70
     0
 10
0.0
 20
0.0
 30
0.0
  3
_DOT
  1

  0
LWPOLYLINE
  5
4B39
330
4B37
100
AcDbEntity
  8
0
  6
ByBlock
 62
     0
100
AcDbPolyline
 90
        2
 70
     1
 43
0.5
 10
-0.25
 20
0.0
 42
1.0
 10
0.25
 20
0.0
 42
1.0
  0
LINE
  5
4B3D
330
4B37
100
AcDbEntity
  8
0
  6
ByBlock
 62
     0
100
AcDbLine
 10
-0.5
 20
0.0
 30
0.0
 11
-1.0
 21
0.0
 31
0.0
  0
ENDBLK
  5
4B3E
330
4B37
100
AcDbEntity
  8
0
100
AcDbBlockEnd
  0
BLOCK
  5
54FF
330
523E
100
AcDbEntity
  8
0
100
AcDbBlockBegin
  2
*D2
 70
     1
 10
0.0
 20
0.0
 30
0.0
  3
*D2
  1

  0
LINE
  5
5500
330
523E
100
AcDbEntity
  8
0
  6
ByBlock
 62
     1
100
AcDbLine
 10
58.48729400037137
 20
49.47350869474957
 30
0.0
 11
60.46158608995195
 21
49.47350869474957
 31
0.0
  0
LINE
  5
5501
330
523E
100
AcDbEntity
  8
0
  6
ByBlock
 62
     1
100
AcDbLine
 10
58.83416283127956
 20
47.83350869474957
 30
0.0
 11
60.46158608995195
 21
47.83350869474957
 31
0.0
  0
LINE
  5
5502
330
523E
100
AcDbEntity
  8
0
  6
ByBlock
 62
     1
100
AcDbLine
 10
60.36158608995195
 20
49.29350869474958
 30
0.0
 11
60.36158608995195
 21
48.80733031821478
 31
0.0
  0
LINE
  5
5503
330
523E
100
AcDbEntity
  8
0
  6
ByBlock
 62
     1
100
AcDbLine
 10
60.36158608995195
 20
48.01350869474957
 30
0.0
 11
60.36158608995195
 21
48.49968707128436
 31
0.0
  0
SOLID
  5
5504
330
523E
100
AcDbEntity
  8
0
  6
ByBlock
 62
     1
100
AcDbTrace
 10
60.33158608995194
 20
49.29350869474958
 30
0.0
 11
60.39158608995195
 21
49.29350869474958
 31
0.0
 12
60.36158608995195
 22
49.47350869474957
 32
0.0
 13
60.36158608995195
 23
49.47350869474957
 33
0.0
  0
SOLID
  5
5505
330
523E
100
AcDbEntity
  8
0
  6
ByBlock
 62
     1
100
AcDbTrace
 10
60.33158608995194
 20
48.01350869474957
 30
0.0
 11
60.39158608995195
 21
48.01350869474957
 31
0.0
 12
60.36158608995195
 22
47.83350869474957
 32
0.0
 13
60.36158608995195
 23
47.83350869474957
 33
0.0
  0
MTEXT
  5
5506
330
523E
100
AcDbEntity
  8
0
  6
ByBlock
 62
     4
100
AcDbMText
 10
60.36158608995195
 20
48.65350869474957
 30
0.0
 40
0.125
 41
0.0
 71
     5
 72
     1
  1
\A1;1.64
 73
     1
 44
1.0
1001
ACAD
1000
MTEXTBEGIN
1070
    73
1070
     1
1070
    44
1040
1.0
1070
    74
1070
     0
1000
MTEXTEND
  0
POINT
  5
5507
330
523E
100
AcDbEntity
  8
DEFPOINTS
  6
ByBlock
 62
     0
100
AcDbPoint
 10
58.42479400037137
 20
49.47350869474957
 30
0.0
  0
POINT
  5
5508
330
523E
100
AcDbEntity
  8
DEFPOINTS
  6
ByBlock
 62
     0
100
AcDbPoint
 10
58.77166283127955
 20
47.83350869474957
 30
0.0
  0
POINT
  5
5509
330
523E
100
AcDbEntity
  8
DEFPOINTS
  6
ByBlock
 62
     0
100
AcDbPoint
 10
60.36158608995195
 20
47.83350869474957
 30
0.0
  0
ENDBLK
  5
550A
330
523E
100
AcDbEntity
  8
0
100
AcDbBlockEnd
  0
BLOCK
  5
5390
330
5340
100
AcDbEntity
  8
0
100
AcDbBlockBegin
  2
*D3
 70
     1
 10
0.0
 20
0.0
 30
0.0
  3
*D3
  1

  0
LINE
  5
5391
330
5340
100
AcDbEntity
  8
0
  6
ByBlock
 62
     1
100
AcDbLine
 10
59.26818716077956
 20
58.97039429234296
 30
0.0
 11
59.26818716077956
 21
60.95486262374012
 31
0.0
  0
LINE
  5
5392
330
5340
100
AcDbEntity
  8
0
  6
ByBlock
 62
     1
100
AcDbLine
 10
53.00818716077957
 20
58.97039429234296
 30
0.0
 11
53.00818716077957
 21
60.95486262374012
 31
0.0
  0
LINE
  5
5393
330
5340
100
AcDbEntity
  8
0
  6
ByBlock
 62
     1
100
AcDbLine
 10
59.08818716077956
 20
60.85486262374011
 30
0.0
 11
56.43922058506333
 21
60.85486262374011
 31
0.0
  0
LINE
  5
5394
330
5340
100
AcDbEntity
  8
0
  6
ByBlock
 62
     1
100
AcDbLine
 10
53.18818716077957
 20
60.85486262374011
 30
0.0
 11
55.8371537364958
 21
60.85486262374011
 31
0.0
  0
SOLID
  5
5395
330
5340
100
AcDbEntity
  8
0
  6
ByBlock
 62
     1
100
AcDbTrace
 10
59.08818716077956
 20
60.88486262374011
 30
0.0
 11
59.08818716077956
 21
60.82486262374011
 31
0.0
 12
59.26818716077956
 22
60.85486262374011
 32
0.0
 13
59.26818716077956
 23
60.85486262374011
 33
0.0
  0
SOLID
  5
5396
330
5340
100
AcDbEntity
  8
0
  6
ByBlock
 62
     1
100
AcDbTrace
 10
53.18818716077957
 20
60.88486262374011
 30
0.0
 11
53.18818716077957
 21
60.82486262374011
 31
0.0
 12
53.00818716077957
 22
60.85486262374011
 32
0.0
 13
53.00818716077957
 23
60.85486262374011
 33
0.0
  0
MTEXT
  5
5397
330
5340
100
AcDbEntity
  8
0
  6
ByBlock
 62
     4
100
AcDbMText
 10
56.13818716077957
 20
60.85486262374011
 30
0.0
 40
0.125
 41
0.0
 71
     5
 72
     1
  1
\A1;6.260
 73
     1
 44
1.0
1001
ACAD
1000
MTEXTBEGIN
1070
    73
1070
     1
1070
    44
1040
1.0
1070
    74
1070
     0
1000
MTEXTEND
  0
POINT
  5
5398
330
5340
100
AcDbEntity
  8
DEFPOINTS
  6
ByBlock
 62
     0
100
AcDbPoint
 10
59.26818716077956
 20
58.90789429234295
 30
0.0
  0
POINT
  5
5399
330
5340
100
AcDbEntity
  8
DEFPOINTS
  6
ByBlock
 62
     0
100
AcDbPoint
 10
53.00818716077957
 20
58.90789429234295
 30
0.0
  0
POINT
  5
539A
330
5340
100
AcDbEntity
  8
DEFPOINTS
  6
ByBlock
 62
     0
100
AcDbPoint
 10
53.00818716077957
 20
60.85486262374011
 30
0.0
  0
ENDBLK
  5
539B
330
5340
100
AcDbEntity
  8
0
100
AcDbBlockEnd
  0
BLOCK
  5
53C0
330
535A
100
AcDbEntity
  8
0
100
AcDbBlockBegin
  2
*D4
 70
     1
 10
0.0
 20
0.0
 30
0.0
  3
*D4
  1

  0
LINE
  5
53C1
330
535A
100
AcDbEntity
  8
0
  6
ByBlock
 62
     1
100
AcDbLine
 10
59.01318716077956
 20
58.65359091609895
 30
0.0
 11
59.01318716077956
 21
60.47383332490809
 31
0.0
  0
LINE
  5
53C2
330
535A
100
AcDbEntity
  8
0
  6
ByBlock
 62
     1
100
AcDbLine
 10
53.26318716077956
 20
58.65359091609895
 30
0.0
 11
53.26318716077956
 21
60.47383332490809
 31
0.0
  0
LINE
  5
53C3
330
535A
100
AcDbEntity
  8
0
  6
ByBlock
 62
     1
100
AcDbLine
 10
58.83318716077956
 20
60.3738333249081
 30
0.0
 11
56.60305926173454
 21
60.3738333249081
 31
0.0
  0
LINE
  5
53C4
330
535A
100
AcDbEntity
  8
0
  6
ByBlock
 62
     1
100
AcDbLine
 10
53.44318716077957
 20
60.3738333249081
 30
0.0
 11
55.67331505982458
 21
60.3738333249081
 31
0.0
  0
SOLID
  5
53C5
330
535A
100
AcDbEntity
  8
0
  6
ByBlock
 62
     1
100
AcDbTrace
 10
58.83318716077956
 20
60.4038333249081
 30
0.0
 11
58.83318716077956
 21
60.3438333249081
 31
0.0
 12
59.01318716077956
 22
60.3738333249081
 32
0.0
 13
59.01318716077956
 23
60.3738333249081
 33
0.0
  0
SOLID
  5
53C6
330
535A
100
AcDbEntity
  8
0
  6
ByBlock
 62
     1
100
AcDbTrace
 10
53.44318716077957
 20
60.4038333249081
 30
0.0
 11
53.44318716077957
 21
60.3438333249081
 31
0.0
 12
53.26318716077956
 22
60.3738333249081
 32
0.0
 13
53.26318716077956
 23
60.3738333249081
 33
0.0
  0
MTEXT
  5
53C7
330
535A
100
AcDbEntity
  8
0
  6
ByBlock
 62
     4
100
AcDbMText
 10
56.13818716077957
 20
60.3738333249081
 30
0.0
 40
0.125
 41
0.0
 71
     5
 72
     1
  1
\A1;5.750\P(2 PLCS.)
 73
     1
 44
1.0
1001
ACAD
1000
MTEXTBEGIN
1070
    73
1070
     1
1070
    44
1040
1.0
1070
    74
1070
     0
1000
MTEXTEND
  0
POINT
  5
53C8
330
535A
100
AcDbEntity
  8
DEFPOINTS
  6
ByBlock
 62
     0
100
AcDbPoint
 10
59.01318716077956
 20
58.59109091609894
 30
0.0
  0
POINT
  5
53C9
330
535A
100
AcDbEntity
  8
DEFPOINTS
  6
ByBlock
 62
     0
100
AcDbPoint
 10
53.26318716077956
 20
58.59109091609894
 30
0.0
  0
POINT
  5
53CA
330
535A
100
AcDbEntity
  8
DEFPOINTS
  6
ByBlock
 62
     0
100
AcDbPoint
 10
53.26318716077956
 20
60.3738333249081
 30
0.0
  0
ENDBLK
  5
53CB
330
535A
100
AcDbEntity
  8
0
100
AcDbBlockEnd
  0
BLOCK
  5
53A8
330
5368
100
AcDbEntity
  8
0
100
AcDbBlockBegin
  2
*D5
 70
     1
 10
0.0
 20
0.0
 30
0.0
  3
*D5
  1

  0
LINE
  5
53A9
330
5368
100
AcDbEntity
  8
0
  6
ByBlock
 62
     1
100
AcDbLine
 10
58.64318716077956
 20
58.40359091590546
 30
0.0
 11
58.64318716077956
 21
60.04390027308162
 31
0.0
  0
LINE
  5
53AA
330
5368
100
AcDbEntity
  8
0
  6
ByBlock
 62
     1
100
AcDbLine
 10
53.63318716077957
 20
58.40359091590546
 30
0.0
 11
53.63318716077957
 21
60.04390027308162
 31
0.0
  0
LINE
  5
53AB
330
5368
100
AcDbEntity
  8
0
  6
ByBlock
 62
     1
100
AcDbLine
 10
58.46318716077956
 20
59.94390027308162
 30
0.0
 11
56.60305926173454
 21
59.94390027308162
 31
0.0
  0
LINE
  5
53AC
330
5368
100
AcDbEntity
  8
0
  6
ByBlock
 62
     1
100
AcDbLine
 10
53.81318716077957
 20
59.94390027308162
 30
0.0
 11
55.67331505982458
 21
59.94390027308162
 31
0.0
  0
SOLID
  5
53AD
330
5368
100
AcDbEntity
  8
0
  6
ByBlock
 62
     1
100
AcDbTrace
 10
58.46318716077956
 20
59.97390027308163
 30
0.0
 11
58.46318716077956
 21
59.91390027308162
 31
0.0
 12
58.64318716077956
 22
59.94390027308162
 32
0.0
 13
58.64318716077956
 23
59.94390027308162
 33
0.0
  0
SOLID
  5
53AE
330
5368
100
AcDbEntity
  8
0
  6
ByBlock
 62
     1
100
AcDbTrace
 10
53.81318716077957
 20
59.97390027308163
 30
0.0
 11
53.81318716077957
 21
59.91390027308162
 31
0.0
 12
53.63318716077957
 22
59.94390027308162
 32
0.0
 13
53.63318716077957
 23
59.94390027308162
 33
0.0
  0
MTEXT
  5
53AF
330
5368
100
AcDbEntity
  8
0
  6
ByBlock
 62
     4
100
AcDbMText
 10
56.13818716077957
 20
59.94390027308162
 30
0.0
 40
0.125
 41
0.0
 71
     5
 72
     1
  1
\A1;\fArial|b0|i0|c0|p32;5.010\P(3 PLCS.)
 73
     1
 44
1.0
1001
ACAD
1000
MTEXTBEGIN
1070
    73
1070
     1
1070
    44
1040
1.0
1070
    74
1070
     0
1000
MTEXTEND
  0
POINT
  5
53B0
330
5368
100
AcDbEntity
  8
DEFPOINTS
  6
ByBlock
 62
     0
100
AcDbPoint
 10
58.64318716077956
 20
58.34109091590545
 30
0.0
  0
POINT
  5
53B1
330
5368
100
AcDbEntity
  8
DEFPOINTS
  6
ByBlock
 62
     0
100
AcDbPoint
 10
53.63318716077957
 20
58.34109091590545
 30
0.0
  0
POINT
  5
53B2
330
5368
100
AcDbEntity
  8
DEFPOINTS
  6
ByBlock
 62
     0
100
AcDbPoint
 10
53.63318716077957
 20
59.94390027308162
 30
0.0
  0
ENDBLK
  5
53B3
330
5368
100
AcDbEntity
  8
0
100
AcDbBlockEnd
  0
BLOCK
  5
53B4
330
5376
100
AcDbEntity
  8
0
100
AcDbBlockBegin
  2
*D6
 70
     1
 10
0.0
 20
0.0
 30
0.0
  3
*D6
  1

  0
LINE
  5
53B5
330
5376
100
AcDbEntity
  8
0
  6
ByBlock
 62
     1
100
AcDbLine
 10
54.00818716077956
 20
58.02559091590547
 30
0.0
 11
54.00818716077956
 21
59.58082778031764
 31
0.0
  0
LINE
  5
53B6
330
5376
100
AcDbEntity
  8
0
  6
ByBlock
 62
     1
100
AcDbLine
 10
58.26818716077956
 20
58.02559091590547
 30
0.0
 11
58.26818716077956
 21
59.58082778031764
 31
0.0
  0
LINE
  5
53B7
330
5376
100
AcDbEntity
  8
0
  6
ByBlock
 62
     1
100
AcDbLine
 10
54.18818716077955
 20
59.48082778031764
 30
0.0
 11
55.67331505982458
 21
59.48082778031764
 31
0.0
  0
LINE
  5
53B8
330
5376
100
AcDbEntity
  8
0
  6
ByBlock
 62
     1
100
AcDbLine
 10
58.08818716077956
 20
59.48082778031764
 30
0.0
 11
56.60305926173453
 21
59.48082778031764
 31
0.0
  0
SOLID
  5
53B9
330
5376
100
AcDbEntity
  8
0
  6
ByBlock
 62
     1
100
AcDbTrace
 10
54.18818716077955
 20
59.51082778031764
 30
0.0
 11
54.18818716077955
 21
59.45082778031764
 31
0.0
 12
54.00818716077956
 22
59.48082778031764
 32
0.0
 13
54.00818716077956
 23
59.48082778031764
 33
0.0
  0
SOLID
  5
53BA
330
5376
100
AcDbEntity
  8
0
  6
ByBlock
 62
     1
100
AcDbTrace
 10
58.08818716077956
 20
59.51082778031764
 30
0.0
 11
58.08818716077956
 21
59.45082778031764
 31
0.0
 12
58.26818716077956
 22
59.48082778031764
 32
0.0
 13
58.26818716077956
 23
59.48082778031764
 33
0.0
  0
MTEXT
  5
53BB
330
5376
100
AcDbEntity
  8
0
  6
ByBlock
 62
     4
100
AcDbMText
 10
56.13818716077956
 20
59.48082778031764
 30
0.0
 40
0.125
 41
0.0
 71
     5
 72
     1
  1
\A1;\fArial|b0|i0|c0|p32;4.260\P(3 PLCS.)
 73
     1
 44
1.0
1001
ACAD
1000
MTEXTBEGIN
1070
    73
1070
     1
1070
    44
1040
1.0
1070
    74
1070
     0
1000
MTEXTEND
  0
POINT
  5
53BC
330
5376
100
AcDbEntity
  8
DEFPOINTS
  6
ByBlock
 62
     0
100
AcDbPoint
 10
54.00818716077956
 20
57.96309091590547
 30
0.0
  0
POINT
  5
53BD
330
5376
100
AcDbEntity
  8
DEFPOINTS
  6
ByBlock
 62
     0
100
AcDbPoint
 10
58.26818716077956
 20
57.96309091590547
 30
0.0
  0
POINT
  5
53BE
330
5376
100
AcDbEntity
  8
DEFPOINTS
  6
ByBlock
 62
     0
100
AcDbPoint
 10
58.26818716077956
 20
59.48082778031764
 30
0.0
  0
ENDBLK
  5
53BF
330
5376
100
AcDbEntity
  8
0
100
AcDbBlockEnd
  0
BLOCK
  5
53CD
330
53CC
100
AcDbEntity
  8
0
100
AcDbBlockBegin
  2
*D7
 70
     1
 10
0.0
 20
0.0
 30
0.0
  3
*D7
  1

  0
LINE
  5
53CE
330
53CC
100
AcDbEntity
  8
0
  6
ByBlock
 62
     1
100
AcDbLine
 10
53.13188378434206
 20
59.09409091590545
 30
0.0
 11
49.1682382437801
 21
59.09409091590545
 31
0.0
  0
LINE
  5
53CF
330
53CC
100
AcDbEntity
  8
0
  6
ByBlock
 62
     1
100
AcDbLine
 10
53.13188378434206
 20
52.32809091590546
 30
0.0
 11
49.1682382437801
 21
52.32809091590546
 31
0.0
  0
LINE
  5
53D0
330
53CC
100
AcDbEntity
  8
0
  6
ByBlock
 62
     1
100
AcDbLine
 10
49.2682382437801
 20
58.91409091590546
 30
0.0
 11
49.2682382437801
 21
55.86491253937067
 31
0.0
  0
LINE
  5
53D1
330
53CC
100
AcDbEntity
  8
0
  6
ByBlock
 62
     1
100
AcDbLine
 10
49.2682382437801
 20
52.50809091590546
 30
0.0
 11
49.2682382437801
 21
55.55726929244024
 31
0.0
  0
SOLID
  5
53D2
330
53CC
100
AcDbEntity
  8
0
  6
ByBlock
 62
     1
100
AcDbTrace
 10
49.2382382437801
 20
58.91409091590546
 30
0.0
 11
49.29823824378011
 21
58.91409091590546
 31
0.0
 12
49.2682382437801
 22
59.09409091590545
 32
0.0
 13
49.2682382437801
 23
59.09409091590545
 33
0.0
  0
SOLID
  5
53D3
330
53CC
100
AcDbEntity
  8
0
  6
ByBlock
 62
     1
100
AcDbTrace
 10
49.23823824378009
 20
52.50809091590546
 30
0.0
 11
49.2982382437801
 21
52.50809091590546
 31
0.0
 12
49.2682382437801
 22
52.32809091590546
 32
0.0
 13
49.2682382437801
 23
52.32809091590546
 33
0.0
  0
MTEXT
  5
53D4
330
53CC
100
AcDbEntity
  8
0
  6
ByBlock
 62
     4
100
AcDbMText
 10
49.2682382437801
 20
55.71109091590546
 30
0.0
 40
0.125
 41
0.0
 71
     5
 72
     1
  1
\A1;6.766
 73
     1
 44
1.0
1001
ACAD
1000
MTEXTBEGIN
1070
    73
1070
     1
1070
    44
1040
1.0
1070
    74
1070
     0
1000
MTEXTEND
  0
POINT
  5
53D5
330
53CC
100
AcDbEntity
  8
DEFPOINTS
  6
ByBlock
 62
     0
100
AcDbPoint
 10
53.19438378434206
 20
59.09409091590545
 30
0.0
  0
POINT
  5
53D6
330
53CC
100
AcDbEntity
  8
DEFPOINTS
  6
ByBlock
 62
     0
100
AcDbPoint
 10
53.19438378434206
 20
52.32809091590546
 30
0.0
  0
POINT
  5
53D7
330
53CC
100
AcDbEntity
  8
DEFPOINTS
  6
ByBlock
 62
     0
100
AcDbPoint
 10
49.2682382437801
 20
52.32809091590546
 30
0.0
  0
ENDBLK
  5
53D8
330
53CC
100
AcDbEntity
  8
0
100
AcDbBlockEnd
  0
BLOCK
  5
544C
330
53DA
100
AcDbEntity
  8
0
100
AcDbBlockBegin
  2
*D8
 70
     1
 10
0.0
 20
0.0
 30
0.0
  3
*D8
  1

  0
LINE
  5
544D
330
53DA
100
AcDbEntity
  8
0
  6
ByBlock
 62
     1
100
AcDbLine
 10
53.20068716077955
 20
58.59109091590545
 30
0.0
 11
50.26947578838529
 21
58.59109091590545
 31
0.0
  0
LINE
  5
544E
330
53DA
100
AcDbEntity
  8
0
  6
ByBlock
 62
     1
100
AcDbLine
 10
53.20068716077955
 20
52.83109091590546
 30
0.0
 11
50.26947578838528
 21
52.83109091590546
 31
0.0
  0
LINE
  5
544F
330
53DA
100
AcDbEntity
  8
0
  6
ByBlock
 62
     1
100
AcDbLine
 10
50.36947578838529
 20
58.41109091590546
 30
0.0
 11
50.36947578838528
 21
55.98991253937067
 31
0.0
  0
LINE
  5
5450
330
53DA
100
AcDbEntity
  8
0
  6
ByBlock
 62
     1
100
AcDbLine
 10
50.36947578838528
 20
53.01109091590546
 30
0.0
 11
50.36947578838528
 21
55.43226929244024
 31
0.0
  0
SOLID
  5
5451
330
53DA
100
AcDbEntity
  8
0
  6
ByBlock
 62
     1
100
AcDbTrace
 10
50.33947578838529
 20
58.41109091590546
 30
0.0
 11
50.39947578838529
 21
58.41109091590546
 31
0.0
 12
50.36947578838529
 22
58.59109091590545
 32
0.0
 13
50.36947578838529
 23
58.59109091590545
 33
0.0
  0
SOLID
  5
5452
330
53DA
100
AcDbEntity
  8
0
  6
ByBlock
 62
     1
100
AcDbTrace
 10
50.33947578838528
 20
53.01109091590546
 30
0.0
 11
50.39947578838528
 21
53.01109091590546
 31
0.0
 12
50.36947578838528
 22
52.83109091590546
 32
0.0
 13
50.36947578838528
 23
52.83109091590546
 33
0.0
  0
MTEXT
  5
5453
330
53DA
100
AcDbEntity
  8
0
  6
ByBlock
 62
     4
100
AcDbMText
 10
50.36947578838528
 20
55.71109091590546
 30
0.0
 40
0.125
 41
0.0
 71
     5
 72
     1
  1
\A1;\fArial|b0|i0|c0|p32;5.760\P(2 PLCS.)
 73
     1
 44
1.0
1001
ACAD
1000
MTEXTBEGIN
1070
    73
1070
     1
1070
    44
1040
1.0
1070
    74
1070
     0
1000
MTEXTEND
  0
POINT
  5
5454
330
53DA
100
AcDbEntity
  8
DEFPOINTS
  6
ByBlock
 62
     0
100
AcDbPoint
 10
53.26318716077955
 20
58.59109091590545
 30
0.0
  0
POINT
  5
5455
330
53DA
100
AcDbEntity
  8
DEFPOINTS
  6
ByBlock
 62
     0
100
AcDbPoint
 10
53.26318716077955
 20
52.83109091590546
 30
0.0
  0
POINT
  5
5456
330
53DA
100
AcDbEntity
  8
DEFPOINTS
  6
ByBlock
 62
     0
100
AcDbPoint
 10
50.36947578838528
 20
52.83109091590546
 30
0.0
  0
ENDBLK
  5
5457
330
53DA
100
AcDbEntity
  8
0
100
AcDbBlockEnd
  0
BLOCK
  5
5458
330
53E8
100
AcDbEntity
  8
0
100
AcDbBlockBegin
  2
*D9
 70
     1
 10
0.0
 20
0.0
 30
0.0
  3
*D9
  1

  0
LINE
  5
5459
330
53E8
100
AcDbEntity
  8
0
  6
ByBlock
 62
     1
100
AcDbLine
 10
53.57068716077957
 20
58.34109091590545
 30
0.0
 11
51.24011428155383
 21
58.34109091590545
 31
0.0
  0
LINE
  5
545A
330
53E8
100
AcDbEntity
  8
0
  6
ByBlock
 62
     1
100
AcDbLine
 10
53.57068716077957
 20
53.08109091590546
 30
0.0
 11
51.24011428155382
 21
53.08109091590546
 31
0.0
  0
LINE
  5
545B
330
53E8
100
AcDbEntity
  8
0
  6
ByBlock
 62
     1
100
AcDbLine
 10
51.34011428155383
 20
58.16109091590545
 30
0.0
 11
51.34011428155382
 21
55.98991253937067
 31
0.0
  0
LINE
  5
545C
330
53E8
100
AcDbEntity
  8
0
  6
ByBlock
 62
     1
100
AcDbLine
 10
51.34011428155382
 20
53.26109091590546
 30
0.0
 11
51.34011428155382
 21
55.43226929244024
 31
0.0
  0
SOLID
  5
545D
330
53E8
100
AcDbEntity
  8
0
  6
ByBlock
 62
     1
100
AcDbTrace
 10
51.31011428155383
 20
58.16109091590545
 30
0.0
 11
51.37011428155383
 21
58.16109091590545
 31
0.0
 12
51.34011428155383
 22
58.34109091590545
 32
0.0
 13
51.34011428155383
 23
58.34109091590545
 33
0.0
  0
SOLID
  5
545E
330
53E8
100
AcDbEntity
  8
0
  6
ByBlock
 62
     1
100
AcDbTrace
 10
51.31011428155382
 20
53.26109091590546
 30
0.0
 11
51.37011428155382
 21
53.26109091590546
 31
0.0
 12
51.34011428155382
 22
53.08109091590546
 32
0.0
 13
51.34011428155382
 23
53.08109091590546
 33
0.0
  0
MTEXT
  5
545F
330
53E8
100
AcDbEntity
  8
0
  6
ByBlock
 62
     4
100
AcDbMText
 10
51.34011428155382
 20
55.71109091590546
 30
0.0
 40
0.125
 41
0.0
 71
     5
 72
     1
  1
\A1;\fArial|b0|i0|c0|p32;5.260\P(2 PLCS.)
 73
     1
 44
1.0
1001
ACAD
1000
MTEXTBEGIN
1070
    73
1070
     1
1070
    44
1040
1.0
1070
    74
1070
     0
1000
MTEXTEND
  0
POINT
  5
5460
330
53E8
100
AcDbEntity
  8
DEFPOINTS
  6
ByBlock
 62
     0
100
AcDbPoint
 10
53.63318716077957
 20
58.34109091590545
 30
0.0
  0
POINT
  5
5461
330
53E8
100
AcDbEntity
  8
DEFPOINTS
  6
ByBlock
 62
     0
100
AcDbPoint
 10
53.63318716077957
 20
53.08109091590546
 30
0.0
  0
POINT
  5
5462
330
53E8
100
AcDbEntity
  8
DEFPOINTS
  6
ByBlock
 62
     0
100
AcDbPoint
 10
51.34011428155382
 20
53.08109091590546
 30
0.0
  0
ENDBLK
  5
5463
330
53E8
100
AcDbEntity
  8
0
100
AcDbBlockEnd
  0
BLOCK
  5
541C
330
53F6
100
AcDbEntity
  8
0
100
AcDbBlockBegin
  2
*D10
 70
     1
 10
0.0
 20
0.0
 30
0.0
  3
*D10
  1

  0
LINE
  5
541D
330
53F6
100
AcDbEntity
  8
0
  6
ByBlock
 62
     1
100
AcDbLine
 10
53.94568716077955
 20
53.45909091590545
 30
0.0
 11
52.13308329099723
 21
53.45909091590545
 31
0.0
  0
LINE
  5
541E
330
53F6
100
AcDbEntity
  8
0
  6
ByBlock
 62
     1
100
AcDbLine
 10
53.94568716077955
 20
57.96309091590547
 30
0.0
 11
52.13308329099723
 21
57.96309091590547
 31
0.0
  0
LINE
  5
541F
330
53F6
100
AcDbEntity
  8
0
  6
ByBlock
 62
     1
100
AcDbLine
 10
52.23308329099722
 20
53.63909091590545
 30
0.0
 11
52.23308329099722
 21
55.43226929244024
 31
0.0
  0
LINE
  5
5420
330
53F6
100
AcDbEntity
  8
0
  6
ByBlock
 62
     1
100
AcDbLine
 10
52.23308329099722
 20
57.78309091590546
 30
0.0
 11
52.23308329099722
 21
55.98991253937067
 31
0.0
  0
SOLID
  5
5421
330
53F6
100
AcDbEntity
  8
0
  6
ByBlock
 62
     1
100
AcDbTrace
 10
52.20308329099722
 20
53.63909091590545
 30
0.0
 11
52.26308329099722
 21
53.63909091590545
 31
0.0
 12
52.23308329099722
 22
53.45909091590545
 32
0.0
 13
52.23308329099722
 23
53.45909091590545
 33
0.0
  0
SOLID
  5
5422
330
53F6
100
AcDbEntity
  8
0
  6
ByBlock
 62
     1
100
AcDbTrace
 10
52.20308329099722
 20
57.78309091590546
 30
0.0
 11
52.26308329099722
 21
57.78309091590546
 31
0.0
 12
52.23308329099722
 22
57.96309091590547
 32
0.0
 13
52.23308329099722
 23
57.96309091590547
 33
0.0
  0
MTEXT
  5
5423
330
53F6
100
AcDbEntity
  8
0
  6
ByBlock
 62
     4
100
AcDbMText
 10
52.23308329099722
 20
55.71109091590546
 30
0.0
 40
0.125
 41
0.0
 71
     5
 72
     1
  1
\A1;\fArial|b0|i0|c0|p32;4.504\P(2 PLCS.)
 73
     1
 44
1.0
1001
ACAD
1000
MTEXTBEGIN
1070
    73
1070
     1
1070
    44
1040
1.0
1070
    74
1070
     0
1000
MTEXTEND
  0
POINT
  5
5424
330
53F6
100
AcDbEntity
  8
DEFPOINTS
  6
ByBlock
 62
     0
100
AcDbPoint
 10
54.00818716077956
 20
53.45909091590545
 30
0.0
  0
POINT
  5
5425
330
53F6
100
AcDbEntity
  8
DEFPOINTS
  6
ByBlock
 62
     0
100
AcDbPoint
 10
54.00818716077956
 20
57.96309091590547
 30
0.0
  0
POINT
  5
5426
330
53F6
100
AcDbEntity
  8
DEFPOINTS
  6
ByBlock
 62
     0
100
AcDbPoint
 10
52.23308329099722
 20
57.96309091590547
 30
0.0
  0
ENDBLK
  5
5427
330
53F6
100
AcDbEntity
  8
0
100
AcDbBlockEnd
  0
BLOCK
  5
5472
330
5464
100
AcDbEntity
  8
0
100
AcDbBlockBegin
  2
*D11
 70
     1
 10
0.0
 20
0.0
 30
0.0
  3
*D11
  1

  0
LINE
  5
5473
330
5464
100
AcDbEntity
  8
0
  6
ByBlock
 62
     1
100
AcDbLine
 10
58.46968716077956
 20
58.85609091590547
 30
0.0
 11
60.10756579692482
 21
58.85609091590547
 31
0.0
  0
LINE
  5
5474
330
5464
100
AcDbEntity
  8
0
  6
ByBlock
 62
     1
100
AcDbLine
 10
58.46968716077956
 20
52.56609091590546
 30
0.0
 11
60.10756579692481
 21
52.56609091590546
 31
0.0
  0
LINE
  5
5475
330
5464
100
AcDbEntity
  8
0
  6
ByBlock
 62
     1
100
AcDbLine
 10
60.00756579692481
 20
58.67609091590547
 30
0.0
 11
60.00756579692481
 21
55.86491253937068
 31
0.0
  0
LINE
  5
5476
330
5464
100
AcDbEntity
  8
0
  6
ByBlock
 62
     1
100
AcDbLine
 10
60.00756579692481
 20
52.74609091590546
 30
0.0
 11
60.00756579692481
 21
55.55726929244025
 31
0.0
  0
SOLID
  5
5477
330
5464
100
AcDbEntity
  8
0
  6
ByBlock
 62
     1
100
AcDbTrace
 10
59.97756579692481
 20
58.67609091590547
 30
0.0
 11
60.03756579692481
 21
58.67609091590547
 31
0.0
 12
60.00756579692481
 22
58.85609091590547
 32
0.0
 13
60.00756579692481
 23
58.85609091590547
 33
0.0
  0
SOLID
  5
5478
330
5464
100
AcDbEntity
  8
0
  6
ByBlock
 62
     1
100
AcDbTrace
 10
59.97756579692481
 20
52.74609091590546
 30
0.0
 11
60.03756579692481
 21
52.74609091590546
 31
0.0
 12
60.00756579692481
 22
52.56609091590546
 32
0.0
 13
60.00756579692481
 23
52.56609091590546
 33
0.0
  0
MTEXT
  5
5479
330
5464
100
AcDbEntity
  8
0
  6
ByBlock
 62
     4
100
AcDbMText
 10
60.00756579692481
 20
55.71109091590546
 30
0.0
 40
0.125
 41
0.0
 71
     5
 72
     1
  1
\A1;6.290
 73
     1
 44
1.0
1001
ACAD
1000
MTEXTBEGIN
1070
    73
1070
     1
1070
    44
1040
1.0
1070
    74
1070
     0
1000
MTEXTEND
  0
POINT
  5
547A
330
5464
100
AcDbEntity
  8
DEFPOINTS
  6
ByBlock
 62
     0
100
AcDbPoint
 10
58.40718716077955
 20
58.85609091590547
 30
0.0
  0
POINT
  5
547B
330
5464
100
AcDbEntity
  8
DEFPOINTS
  6
ByBlock
 62
     0
100
AcDbPoint
 10
58.40718716077955
 20
52.56609091590546
 30
0.0
  0
POINT
  5
547C
330
5464
100
AcDbEntity
  8
DEFPOINTS
  6
ByBlock
 62
     0
100
AcDbPoint
 10
60.00756579692481
 20
52.56609091590546
 30
0.0
  0
ENDBLK
  5
547D
330
5464
100
AcDbEntity
  8
0
100
AcDbBlockEnd
  0
BLOCK
  5
547F
330
547E
100
AcDbEntity
  8
0
100
AcDbBlockBegin
  2
*D12
 70
     1
 10
0.0
 20
0.0
 30
0.0
  3
*D12
  1

  0
LINE
  5
5480
330
547E
100
AcDbEntity
  8
0
  6
ByBlock
 62
     1
100
AcDbLine
 10
58.40718716077955
 20
52.50359091590546
 30
0.0
 11
58.40718716077955
 21
51.52957010337784
 31
0.0
  0
LINE
  5
5481
330
547E
100
AcDbEntity
  8
0
  6
ByBlock
 62
     1
100
AcDbLine
 10
53.86918716077957
 20
52.50359091590546
 30
0.0
 11
53.86918716077957
 21
51.52957010337784
 31
0.0
  0
LINE
  5
5482
330
547E
100
AcDbEntity
  8
0
  6
ByBlock
 62
     1
100
AcDbLine
 10
58.22718716077956
 20
51.62957010337784
 30
0.0
 11
56.44173593294873
 21
51.62957010337784
 31
0.0
  0
LINE
  5
5483
330
547E
100
AcDbEntity
  8
0
  6
ByBlock
 62
     1
100
AcDbLine
 10
54.04918716077958
 20
51.62957010337784
 30
0.0
 11
55.8346383886104
 21
51.62957010337784
 31
0.0
  0
SOLID
  5
5484
330
547E
100
AcDbEntity
  8
0
  6
ByBlock
 62
     1
100
AcDbTrace
 10
58.22718716077956
 20
51.65957010337784
 30
0.0
 11
58.22718716077956
 21
51.59957010337784
 31
0.0
 12
58.40718716077955
 22
51.62957010337784
 32
0.0
 13
58.40718716077955
 23
51.62957010337784
 33
0.0
  0
SOLID
  5
5485
330
547E
100
AcDbEntity
  8
0
  6
ByBlock
 62
     1
100
AcDbTrace
 10
54.04918716077958
 20
51.65957010337784
 30
0.0
 11
54.04918716077958
 21
51.59957010337784
 31
0.0
 12
53.86918716077957
 22
51.62957010337784
 32
0.0
 13
53.86918716077957
 23
51.62957010337784
 33
0.0
  0
MTEXT
  5
5486
330
547E
100
AcDbEntity
  8
0
  6
ByBlock
 62
     4
100
AcDbMText
 10
56.13818716077957
 20
51.62957010337784
 30
0.0
 40
0.125
 41
0.0
 71
     5
 72
     1
  1
\A1;4.538
 73
     1
 44
1.0
1001
ACAD
1000
MTEXTBEGIN
1070
    73
1070
     1
1070
    44
1040
1.0
1070
    74
1070
     0
1000
MTEXTEND
  0
POINT
  5
5487
330
547E
100
AcDbEntity
  8
DEFPOINTS
  6
ByBlock
 62
     0
100
AcDbPoint
 10
58.40718716077955
 20
52.56609091590546
 30
0.0
  0
POINT
  5
5488
330
547E
100
AcDbEntity
  8
DEFPOINTS
  6
ByBlock
 62
     0
100
AcDbPoint
 10
53.86918716077957
 20
52.56609091590546
 30
0.0
  0
POINT
  5
5489
330
547E
100
AcDbEntity
  8
DEFPOINTS
  6
ByBlock
 62
     0
100
AcDbPoint
 10
53.86918716077957
 20
51.62957010337784
 30
0.0
  0
ENDBLK
  5
548A
330
547E
100
AcDbEntity
  8
0
100
AcDbBlockEnd
  0
BLOCK
  5
54D1
330
54C2
100
AcDbEntity
  8
0
100
AcDbBlockBegin
  2
*D13
 70
     1
 10
0.0
 20
0.0
 30
0.0
  3
*D13
  1

  0
LINE
  5
54D2
330
54C2
100
AcDbEntity
  8
0
  6
ByBlock
 62
     1
100
AcDbLine
 10
53.47684406250407
 20
48.18380660930857
 30
0.0
 11
51.93672117317421
 21
48.18380660930857
 31
0.0
  0
LINE
  5
54D3
330
54C2
100
AcDbEntity
  8
0
  6
ByBlock
 62
     1
100
AcDbLine
 10
53.47248029627202
 20
47.93380660930857
 30
0.0
 11
51.93672117317421
 21
47.93380660930857
 31
0.0
  0
LINE
  5
54D4
330
54C2
100
AcDbEntity
  8
0
  6
ByBlock
 62
     1
100
AcDbLine
 10
52.03672117317421
 20
48.36380660930857
 30
0.0
 11
52.03672117317421
 21
48.54380660930857
 31
0.0
  0
LINE
  5
54D5
330
54C2
100
AcDbEntity
  8
0
  6
ByBlock
 62
     1
100
AcDbLine
 10
52.03672117317421
 20
47.75380660930857
 30
0.0
 11
52.03672117317421
 21
47.57380660930857
 31
0.0
  0
LINE
  5
54D6
330
54C2
100
AcDbEntity
  8
0
  6
ByBlock
 62
     1
100
AcDbLine
 10
52.03672117317421
 20
47.57380660930857
 30
0.0
 11
51.85672117317421
 21
47.57380660930857
 31
0.0
  0
SOLID
  5
54D7
330
54C2
100
AcDbEntity
  8
0
  6
ByBlock
 62
     1
100
AcDbTrace
 10
52.00672117317421
 20
48.36380660930857
 30
0.0
 11
52.06672117317421
 21
48.36380660930857
 31
0.0
 12
52.03672117317421
 22
48.18380660930857
 32
0.0
 13
52.03672117317421
 23
48.18380660930857
 33
0.0
  0
SOLID
  5
54D8
330
54C2
100
AcDbEntity
  8
0
  6
ByBlock
 62
     1
100
AcDbTrace
 10
52.00672117317421
 20
47.75380660930857
 30
0.0
 11
52.06672117317421
 21
47.75380660930857
 31
0.0
 12
52.03672117317421
 22
47.93380660930857
 32
0.0
 13
52.03672117317421
 23
47.93380660930857
 33
0.0
  0
MTEXT
  5
54D9
330
54C2
100
AcDbEntity
  8
0
  6
ByBlock
 62
     4
100
AcDbMText
 10
50.69010964520696
 20
47.57380660930857
 30
0.0
 40
0.125
 41
0.0
 71
     5
 72
     1
  1
\A1;\fArial|b0|i0|c0|p32;0.250 MTG. BOSS HEIGHT\P(6 PLCS. ON COVER)\P(6 PLCS. ON BASE)
 73
     1
 44
1.0
1001
ACAD
1000
MTEXTBEGIN
1070
    73
1070
     1
1070
    44
1040
1.0
1070
    74
1070
     0
1000
MTEXTEND
  0
POINT
  5
54DA
330
54C2
100
AcDbEntity
  8
DEFPOINTS
  6
ByBlock
 62
     0
100
AcDbPoint
 10
53.53934406250407
 20
48.18380660930857
 30
0.0
  0
POINT
  5
54DB
330
54C2
100
AcDbEntity
  8
DEFPOINTS
  6
ByBlock
 62
     0
100
AcDbPoint
 10
53.53498029627203
 20
47.93380660930857
 30
0.0
  0
POINT
  5
54DC
330
54C2
100
AcDbEntity
  8
DEFPOINTS
  6
ByBlock
 62
     0
100
AcDbPoint
 10
52.03672117317421
 20
47.93380660930857
 30
0.0
  0
ENDBLK
  5
54DD
330
54C2
100
AcDbEntity
  8
0
100
AcDbBlockEnd
  0
BLOCK
  5
54E9
330
54DF
100
AcDbEntity
  8
0
100
AcDbBlockBegin
  2
*D14
 70
     1
 10
0.0
 20
0.0
 30
0.0
  3
*D14
  1

  0
LINE
  5
54EA
330
54DF
100
AcDbEntity
  8
0
  6
ByBlock
 62
     1
100
AcDbLine
 10
60.16815307802889
 20
59.78774423298581
 30
0.0
 11
59.98815307802888
 21
59.78774423298581
 31
0.0
  0
LINE
  5
54EB
330
54DF
100
AcDbEntity
  8
0
  6
ByBlock
 62
     1
100
AcDbLine
 10
59.98815307802888
 20
59.78774423298581
 30
0.0
 11
58.82964642399195
 21
58.54164760523644
 31
0.0
  0
MTEXT
  5
54EC
330
54DF
100
AcDbEntity
  8
0
  6
ByBlock
 62
     4
100
AcDbMText
 10
60.74510737543679
 20
59.78774423298581
 30
0.0
 40
0.125
 41
0.0
 71
     5
 72
     1
  1
\A1;\U+22050.188 O.D.\P\U+22050.090 I.D.\P(12 PLCS.)
 73
     1
 44
1.0
1001
ACAD
1000
MTEXTBEGIN
1070
    73
1070
     1
1070
    44
1040
1.0
1070
    74
1070
     0
1000
MTEXTEND
  0
SOLID
  5
54ED
330
54DF
100
AcDbEntity
  8
0
  6
ByBlock
 62
     1
100
AcDbTrace
 10
58.80767508084757
 20
58.56207455019726
 30
0.0
 11
58.85161776713633
 21
58.52122066027564
 31
0.0
 12
58.70708475422707
 22
58.40981954637019
 32
0.0
 13
58.70708475422707
 23
58.40981954637019
 33
0.0
  0
POINT
  5
54EE
330
54DF
100
AcDbEntity
  8
DEFPOINTS
  6
ByBlock
 62
     0
100
AcDbPoint
 10
58.70708475422707
 20
58.40981954637019
 30
0.0
  0
POINT
  5
54EF
330
54DF
100
AcDbEntity
  8
DEFPOINTS
  6
ByBlock
 62
     0
100
AcDbPoint
 10
58.57928956733204
 20
58.27236228544069
 30
0.0
  0
ENDBLK
  5
54F0
330
54DF
100
AcDbEntity
  8
0
100
AcDbBlockEnd
  0
BLOCK
  5
54F2
330
54F1
100
AcDbEntity
  8
0
100
AcDbBlockBegin
  2
*D15
 70
     1
 10
0.0
 20
0.0
 30
0.0
  3
*D15
  1

  0
LINE
  5
54F3
330
54F1
100
AcDbEntity
  8
0
  6
ByBlock
 62
     1
100
AcDbLine
 10
58.50457322812335
 20
49.34350869474958
 30
0.0
 11
59.84439556034246
 21
49.34350869474958
 31
0.0
  0
LINE
  5
54F4
330
54F1
100
AcDbEntity
  8
0
  6
ByBlock
 62
     1
100
AcDbLine
 10
58.83416283127956
 20
47.93380660930857
 30
0.0
 11
59.84439556034246
 21
47.93380660930857
 31
0.0
  0
LINE
  5
54F5
330
54F1
100
AcDbEntity
  8
0
  6
ByBlock
 62
     1
100
AcDbLine
 10
59.74439556034245
 20
49.16350869474957
 30
0.0
 11
59.74439556034245
 21
48.79247927549428
 31
0.0
  0
LINE
  5
54F6
330
54F1
100
AcDbEntity
  8
0
  6
ByBlock
 62
     1
100
AcDbLine
 10
59.74439556034245
 20
48.11380660930858
 30
0.0
 11
59.74439556034245
 21
48.48483602856386
 31
0.0
  0
SOLID
  5
54F7
330
54F1
100
AcDbEntity
  8
0
  6
ByBlock
 62
     1
100
AcDbTrace
 10
59.71439556034245
 20
49.16350869474957
 30
0.0
 11
59.77439556034245
 21
49.16350869474957
 31
0.0
 12
59.74439556034245
 22
49.34350869474958
 32
0.0
 13
59.74439556034245
 23
49.34350869474958
 33
0.0
  0
SOLID
  5
54F8
330
54F1
100
AcDbEntity
  8
0
  6
ByBlock
 62
     1
100
AcDbTrace
 10
59.71439556034245
 20
48.11380660930858
 30
0.0
 11
59.77439556034245
 21
48.11380660930858
 31
0.0
 12
59.74439556034245
 22
47.93380660930857
 32
0.0
 13
59.74439556034245
 23
47.93380660930857
 33
0.0
  0
MTEXT
  5
54F9
330
54F1
100
AcDbEntity
  8
0
  6
ByBlock
 62
     4
100
AcDbMText
 10
59.74439556034245
 20
48.63865765202907
 30
0.0
 40
0.125
 41
0.0
 71
     5
 72
     1
  1
\A1;1.410
 73
     1
 44
1.0
1001
ACAD
1000
MTEXTBEGIN
1070
    73
1070
     1
1070
    44
1040
1.0
1070
    74
1070
     0
1000
MTEXTEND
  0
POINT
  5
54FA
330
54F1
100
AcDbEntity
  8
DEFPOINTS
  6
ByBlock
 62
     0
100
AcDbPoint
 10
58.44207322812335
 20
49.34350869474958
 30
0.0
  0
POINT
  5
54FB
330
54F1
100
AcDbEntity
  8
DEFPOINTS
  6
ByBlock
 62
     0
100
AcDbPoint
 10
58.77166283127955
 20
47.93380660930857
 30
0.0
  0
POINT
  5
54FC
330
54F1
100
AcDbEntity
  8
DEFPOINTS
  6
ByBlock
 62
     0
100
AcDbPoint
 10
59.74439556034245
 20
47.93380660930857
 30
0.0
  0
ENDBLK
  5
54FD
330
54F1
100
AcDbEntity
  8
0
100
AcDbBlockEnd
  0
BLOCK
  5
5528
330
5518
100
AcDbEntity
  8
0
100
AcDbBlockBegin
  2
REVGRID
 70
     0
 10
0.0
 20
0.0
 30
0.0
  3
REVGRID
  1

  0
LWPOLYLINE
  5
5519
330
5518
100
AcDbEntity
  8
0
 62
    14
100
AcDbPolyline
 90
        2
 70
     0
 43
0.02
 10
-5.199999999999999
 20
0.199999999999998
 10
0.0
 20
0.1999999999999864
  0
LINE
  5
551A
330
5518
100
AcDbEntity
  8
0
 62
    14
100
AcDbLine
 10
-5.199999999999999
 20
0.3999999999999975
 30
0.0
 11
0.0
 21
0.3999999999999888
 31
0.0
  0
LINE
  5
551B
330
5518
100
AcDbEntity
  8
0
 62
    14
100
AcDbLine
 10
-5.199999999999999
 20
0.5999999999999966
 30
0.0
 11
0.0
 21
0.5999999999999849
 31
0.0
  0
LINE
  5
551C
330
5518
100
AcDbEntity
  8
0
 62
    14
100
AcDbLine
 10
-5.199999999999999
 20
0.7999999999999964
 30
0.0
 11
0.0
 21
0.7999999999999849
 31
0.0
  0
LINE
  5
551D
330
5518
100
AcDbEntity
  8
0
 62
    14
100
AcDbLine
 10
-5.199999999999999
 20
0.9999999999999964
 30
0.0
 11
0.0
 21
0.999999999999985
 31
0.0
  0
LWPOLYLINE
  5
551E
330
5518
100
AcDbEntity
  8
0
 62
    14
100
AcDbPolyline
 90
        3
 70
     0
 43
0.02
 10
-5.199999999999999
 20
0.0000000000000023
 10
-5.199999999999999
 20
1.199999999999997
 10
0.0
 20
1.199999999999986
  0
LWPOLYLINE
  5
551F
330
5518
100
AcDbEntity
  8
0
 62
    14
100
AcDbPolyline
 90
        2
 70
     0
 43
0.0
 10
-4.899999999999999
 20
-0.0000000000000088
 10
-4.899999999999999
 20
1.199999999999993
  0
TEXT
  5
5520
330
5518
100
AcDbEntity
  8
0
 62
     4
100
AcDbText
 10
-5.176267910328195
 20
0.0487971290527042
 30
0.0
 40
0.09
  1
REV
 72
     1
 11
-5.047008019468713
 21
0.0487971290527042
 31
0.0
100
AcDbText
  0
TEXT
  5
5521
330
5518
100
AcDbEntity
  8
0
 62
     4
100
AcDbText
 10
-3.704618008185539
 20
0.048797129052709
 30
0.0
 40
0.09
  1
DESCRIPTION
 72
     1
 11
-3.275
 21
0.048797129052709
 31
0.0
100
AcDbText
  0
LWPOLYLINE
  5
5522
330
5518
100
AcDbEntity
  8
0
 62
    14
100
AcDbPolyline
 90
        2
 70
     0
 43
0.0
 10
-1.650000000000002
 20
-0.000000000000016
 10
-1.650000000000002
 20
1.199999999999979
  0
LWPOLYLINE
  5
5523
330
5518
100
AcDbEntity
  8
0
 62
    14
100
AcDbPolyline
 90
        2
 70
     0
 43
0.0
 10
-1.100000000000001
 20
-0.0000000000000107
 10
-1.100000000000001
 20
1.199999999999984
  0
LWPOLYLINE
  5
5524
330
5518
100
AcDbEntity
  8
0
 62
    14
100
AcDbPolyline
 90
        2
 70
     0
 43
0.0
 10
-0.5500000000000007
 20
-0.0000000000000053
 10
-0.5500000000000007
 20
1.19999999999999
  0
TEXT
  5
5525
330
5518
100
AcDbEntity
  8
0
 62
     4
100
AcDbText
 10
-0.9547365324291515
 20
0.048797129052695
 30
0.0
 40
0.09
  1
CHK
 72
     1
 11
-0.8220080194687149
 21
0.048797129052695
 31
0.0
100
AcDbText
  0
TEXT
  5
5526
330
5518
100
AcDbEntity
  8
0
 62
     4
100
AcDbText
 10
-1.455868865307733
 20
0.0487971290526897
 30
0.0
 40
0.09
  1
BY
 72
     1
 11
-1.372008019468715
 21
0.0487971290526897
 31
0.0
100
AcDbText
  0
TEXT
  5
5527
330
5518
100
AcDbEntity
  8
0
 62
     4
100
AcDbText
 10
-0.4396683196051399
 20
0.0487971290527003
 30
0.0
 40
0.09
  1
DATE
 72
     1
 11
-0.2720080194687142
 21
0.0487971290527003
 31
0.0
100
AcDbText
  0
ENDBLK
  5
5529
330
5518
100
AcDbEntity
  8
0
100
AcDbBlockEnd
  0
BLOCK
  5
5559
330
552A
100
AcDbEntity
  8
0
100
AcDbBlockBegin
  2
POLYCASELOGO
 70
     0
 10
0.0
 20
0.0
 30
0.0
  3
POLYCASELOGO
  1

  0
TEXT
  5
552B
330
552A
100
AcDbEntity
  8
0
  6
Continuous
 62
     5
100
AcDbText
 10
0.5543786009275298
 20
0.2596875577735744
 30
0.0
 40
0.2560714469563737
  1
POLYCASE
 41
1.074999999999999
  7
SANSSERIFBOLDOBLIQUE
100
AcDbText
  0
LWPOLYLINE
  5
552C
330
552A
100
AcDbEntity
  8
0
 62
     5
100
AcDbPolyline
 90
        2
 70
     0
 43
0.0283704365880094
 10
0.5653711824815968
 20
0.0874383236000913
 10
2.515371182481596
 20
0.0874383236000913
  0
TEXT
  5
552D
330
552A
100
AcDbEntity
  8
0
 62
     5
100
AcDbText
 10
0.5605156599830235
 20
0.1323139789410757
 30
0.0
 40
0.075654497568025
  1
YOUR PERFECT FIT
 41
1.8
  7
ROMANS
100
AcDbText
  0
ARC
  5
552E
330
552A
100
AcDbEntity
  8
0
  6
Continuous
 62
     5
100
AcDbCircle
 10
0.3887432458373094
 20
0.3774800182460627
 30
0.0
 40
0.031265452549206
100
AcDbArc
 50
266.7706331822096
 51
34.98953924178366
  0
ARC
  5
552F
330
552A
100
AcDbEntity
  8
0
  6
Continuous
 62
     5
100
AcDbCircle
 10
0.416855386687077
 20
0.3701236067504201
 30
0.0
 40
0.037429262845715
100
AcDbArc
 50
284.5083814713476
 51
357.5532058373056
  0
HATCH
  5
5530
330
552A
100
AcDbEntity
  8
0
 62
     5
100
AcDbHatch
 10
0.0
 20
0.0
 30
0.0
210
0.0
220
0.0
230
1.0
  2
ANSI37
 70
     0
 71
     0
 91
        1
 92
        1
 93
       11
 72
     2
 10
0.2931730151761709
 20
0.2945838597867372
 40
0.1588767169960905
 50
44.89452214437227
 51
75.72101642693887
 73
     1
 72
     1
 10
0.3323589335387709
 20
0.4485522818918409
 11
0.3265929222653341
 21
0.4668852408125282
 72
     2
 10
0.2969666889642948
 20
0.2837087256641109
 40
0.1855568629868643
 50
279.1872322025628
 51
321.2114153013091
 73
     0
 72
     2
 10
0.391360930001218
 20
0.3614695140686965
 40
0.0632842065627897
 50
322.5501373864274
 51
353.5982204382204
 73
     0
 72
     2
 10
0.4168553866870788
 20
0.3701236067504183
 40
0.037429262845715
 50
2.446794162694425
 51
75.49161852865238
 73
     0
 72
     2
 10
0.3842397376361806
 20
0.451177177154813
 40
0.1245798445307902
 50
70.3013609867947
 51
93.48971079086757
 73
     0
 72
     2
 10
0.3785106583832878
 20
0.5442257936888897
 40
0.2174053638482186
 50
90.4886177031712
 51
92.08518751394512
 73
     0
 72
     1
 10
0.3706002871579663
 20
0.3269643883333746
 11
0.3647966485473173
 21
0.345416982890306
 72
     2
 10
0.368138231815232
 20
0.5488074975796167
 40
0.2034179629342476
 50
269.0587496435967
 51
275.3152451116762
 73
     1
 72
     2
 10
0.3887432458373094
 20
0.3774800182460609
 40
0.031265452549206
 50
266.7706331822096
 51
394.9895392417836
 73
     1
 72
     2
 10
0.3624406169004164
 20
0.364725498726969
 40
0.060306102378538
 50
30.58307632047512
 51
44.13489854844378
 73
     1
 97
        0
 75
     0
 76
     1
 52
0.0
 41
0.0453750276742311
 77
     0
 78
     2
 53
45.0
 43
-3.289467215457912
 44
-3.001277648028757
 45
-0.004010623720622
 46
0.004010623720622
 79
     0
 53
135.0
 43
-3.289467215457912
 44
-3.001277648028757
 45
-0.004010623720622
 46
-0.004010623720622
 79
     0
 98
        1
 10
-3.289467215457912
 20
-3.001277648028757
  0
HATCH
  5
5531
330
552A
100
AcDbEntity
  8
0
 62
     5
100
AcDbHatch
 10
0.0
 20
0.0
 30
0.0
210
0.0
220
0.0
230
1.0
  2
ANSI37
 70
     0
 71
     0
 91
        1
 92
        1
 93
        4
 72
     2
 10
0.368138231815232
 20
0.5488074975796167
 40
0.2034179629342476
 50
241.2725538880669
 51
261.6978642764231
 73
     1
 72
     1
 10
0.3387660844240354
 20
0.3475212720152516
 11
0.3444315302060072
 21
0.3295080597853945
 72
     2
 10
0.3785106583832878
 20
0.5442257936888897
 40
0.2174053638482186
 50
99.0185280917996
 51
114.1854177949883
 73
     0
 72
     1
 10
0.2894416637327222
 20
0.3459033128101137
 11
0.2703666862890426
 21
0.3704270263117728
 97
        0
 75
     0
 76
     1
 52
0.0
 41
0.0453750276742311
 77
     0
 78
     2
 53
45.0
 43
-3.289467215457912
 44
-3.001277648028757
 45
-0.004010623720622
 46
0.004010623720622
 79
     0
 53
135.0
 43
-3.289467215457912
 44
-3.001277648028757
 45
-0.004010623720622
 46
-0.004010623720622
 79
     0
 98
        1
 10
-3.289467215457912
 20
-3.001277648028757
  0
ARC
  5
5532
330
552A
100
AcDbEntity
  8
0
 62
     5
100
AcDbCircle
 10
-1.004282102263919
 20
-0.757961875977971
 30
0.0
 40
1.684093940752742
100
AcDbArc
 50
34.18447411692975
 51
41.30254825040066
  0
ARC
  5
5533
330
552A
100
AcDbEntity
  8
0
  6
Continuous
 62
     5
100
AcDbCircle
 10
0.3785106583832878
 20
0.5442257936888933
 30
0.0
 40
0.2174053638482186
100
AcDbArc
 50
245.8145822050116
 51
260.9814719082004
  0
HATCH
  5
5534
330
552A
100
AcDbEntity
  8
0
 62
     5
100
AcDbHatch
 10
0.0
 20
0.0
 30
0.0
210
0.0
220
0.0
230
1.0
  2
ANSI37
 70
     0
 71
     0
 91
        1
 92
       33
 93
       10
 72
     1
 10
0.3444315302060072
 20
0.329508059785395
 11
0.3706002871579646
 21
0.3269643883333757
 72
     2
 10
-1.004282102263919
 20
-0.7579618759779727
 40
1.684093940752742
 50
34.18447411692975
 51
41.30254825040066
 73
     1
 72
     2
 10
-1.13904507603075
 20
-0.7417938831336617
 40
1.760202787403546
 50
28.95584779356306
 51
37.65348787016842
 73
     1
 72
     1
 10
0.3444315302060072
 20
0.329508059785395
 11
0.3888557381376909
 21
0.1882618602077355
 72
     1
 10
0.3706002871579663
 20
0.3269643883333746
 11
0.4387571520870335
 21
0.1102605100973615
 72
     1
 10
0.254542153127181
 20
0.3334867720960002
 11
0.2608678370467192
 21
0.3535992030196624
 72
     2
 10
-1.004282102263919
 20
-0.7579618759779727
 40
1.684093940752742
 50
28.16790426947593
 51
31.03859275647719
 73
     1
 72
     1
 10
0.4198612308673102
 20
0.0755952402932767
 11
0.4803612677662859
 21
0.0370264667701803
 72
     2
 10
-1.13904507603075
 20
-0.7417938831336617
 40
1.760202787403546
 50
27.66959516185725
 51
28.05942494817616
 73
     1
 72
     1
 10
0.4011201161180545
 20
0.1103827615101878
 11
0.4142638285818255
 21
0.0861827467505974
 97
        0
 75
     0
 76
     1
 52
0.0
 41
0.0453750276742311
 77
     0
 78
     2
 53
45.0
 43
-3.289467215457912
 44
-3.001277648028757
 45
-0.004010623720622
 46
0.004010623720622
 79
     0
 53
135.0
 43
-3.289467215457912
 44
-3.001277648028757
 45
-0.004010623720622
 46
-0.004010623720622
 79
     0
 98
        1
 10
-3.289467215457912
 20
-3.001277648028757
  0
HATCH
  5
5535
330
552A
100
AcDbEntity
  8
0
 62
     5
100
AcDbHatch
 10
0.0
 20
0.0
 30
0.0
210
0.0
220
0.0
230
1.0
  2
ANSI37
 70
     0
 71
     0
 91
        1
 92
        1
 93
        6
 72
     1
 10
0.1843723433461601
 20
0.1103827615101878
 11
0.4011201161180545
 21
0.1103827615101878
 72
     1
 10
0.4011201161180545
 20
0.1103827615101878
 11
0.4142638285818255
 21
0.0861827467505974
 72
     1
 10
0.4142638285818255
 20
0.0861827467505965
 11
0.1513923171281082
 21
0.0861827467505974
 72
     1
 10
0.15139231712811
 20
0.0861827467505965
 11
0.2364303266177767
 21
0.3565600076920983
 72
     1
 10
0.2364303266177767
 20
0.3565600076920994
 11
0.2545421531271828
 21
0.3334867720959997
 72
     1
 10
0.254542153127181
 20
0.3334867720960002
 11
0.1843723433461584
 21
0.1103827615101873
 97
        0
 75
     0
 76
     1
 52
0.0
 41
0.0453750276742311
 77
     0
 78
     2
 53
45.0
 43
-3.289467215457912
 44
-3.001277648028757
 45
-0.004010623720622
 46
0.004010623720622
 79
     0
 53
135.0
 43
-3.289467215457912
 44
-3.001277648028757
 45
-0.004010623720622
 46
-0.004010623720622
 79
     0
 98
        1
 10
-3.289467215457912
 20
-3.001277648028757
  0
LINE
  5
5536
330
552A
100
AcDbEntity
  8
0
 62
     5
100
AcDbLine
 10
0.236430326617775
 20
0.3565600076921012
 30
0.0
 11
0.15139231712811
 21
0.0861827467505982
 31
0.0
  0
HATCH
  5
5537
330
552A
100
AcDbEntity
  8
0
 62
     5
100
AcDbHatch
 10
0.0
 20
0.0
 30
0.0
210
0.0
220
0.0
230
1.0
  2
ANSI37
 70
     0
 71
     0
 91
        1
 92
        1
 93
       14
 72
     1
 10
0.2988611570693607
 20
0.5550580327176516
 11
0.3265929222653288
 21
0.4668852408125276
 72
     1
 10
0.3265929222653323
 20
0.4668852408125268
 11
0.3323589335387691
 21
0.4485522818918395
 72
     1
 10
0.3323589335387709
 20
0.4485522818918409
 11
0.3647966485473173
 21
0.3454169828903064
 72
     1
 10
0.3647966485473173
 20
0.3454169828903062
 11
0.3706002871579646
 21
0.3269643883333748
 72
     1
 10
0.3706002871579663
 20
0.3269643883333746
 11
0.3444315302060072
 21
0.3295080597853939
 72
     1
 10
0.3444315302060072
 20
0.329508059785395
 11
0.3387660844240354
 21
0.3475212720152521
 72
     1
 10
0.3387660844240354
 20
0.3475212720152516
 11
0.2988611570693624
 21
0.474398476937804
 72
     1
 10
0.2988611570693607
 20
0.4743984769378056
 11
0.2608678370467192
 21
0.3535992030196637
 72
     1
 10
0.260867837046721
 20
0.3535992030196624
 11
0.254542153127181
 21
0.3334867720960002
 72
     1
 10
0.254542153127181
 20
0.3334867720960002
 11
0.236430326617775
 21
0.3565600076920998
 72
     1
 10
0.2364303266177767
 20
0.3565600076920994
 11
0.242103905929854
 21
0.3745990803766492
 72
     1
 10
0.242103905929854
 20
0.3745990803766492
 11
0.2689368903660263
 21
0.4599142103788421
 72
     1
 10
0.2689368903660245
 20
0.4599142103788428
 11
0.2739367623135447
 21
0.4758112391350588
 72
     1
 10
0.2739367623135447
 20
0.4758112391350587
 11
0.2988611570693624
 21
0.5550580327176525
 97
        0
 75
     0
 76
     1
 52
0.0
 41
0.0453750276742311
 77
     0
 78
     2
 53
45.0
 43
-3.289467215457912
 44
-3.001277648028757
 45
-0.004010623720622
 46
0.004010623720622
 79
     0
 53
135.0
 43
-3.289467215457912
 44
-3.001277648028757
 45
-0.004010623720622
 46
-0.004010623720622
 79
     0
 98
        1
 10
-3.289467215457912
 20
-3.001277648028757
  0
LINE
  5
5538
330
552A
100
AcDbEntity
  8
0
 62
     5
100
AcDbLine
 10
0.1843723433461601
 20
0.1103827615101895
 30
0.0
 11
0.4011201161180545
 21
0.1103827615101895
 31
0.0
  0
LINE
  5
5539
330
552A
100
AcDbEntity
  8
0
 62
     5
100
AcDbLine
 10
0.15139231712811
 20
0.0861827467505982
 30
0.0
 11
0.4142638285818255
 21
0.0861827467505982
 31
0.0
  0
ARC
  5
553A
330
552A
100
AcDbEntity
  8
0
 62
     5
100
AcDbCircle
 10
-1.13904507603075
 20
-0.7417938831336599
 30
0.0
 40
1.760202787403546
100
AcDbArc
 50
28.95584779356306
 51
37.65348787016842
  0
LINE
  5
553B
330
552A
100
AcDbEntity
  8
0
 62
     5
100
AcDbLine
 10
0.254542153127181
 20
0.333486772096002
 30
0.0
 11
0.1843723433461601
 21
0.1103827615101895
 31
0.0
  0
LINE
  5
553C
330
552A
100
AcDbEntity
  8
0
 62
     5
100
AcDbLine
 10
0.3706002871579646
 20
0.3269643883333746
 30
0.0
 11
0.4387571520870335
 21
0.1102605100973619
 31
0.0
  0
LINE
  5
553D
330
552A
100
AcDbEntity
  8
0
 62
     5
100
AcDbLine
 10
0.4198612308673102
 20
0.0755952402932785
 30
0.0
 11
0.4803612677662859
 21
0.0370264667701807
 31
0.0
  0
LINE
  5
553E
330
552A
100
AcDbEntity
  8
0
 62
     5
100
AcDbLine
 10
0.4011201161180527
 20
0.1103827615101895
 30
0.0
 11
0.4142638285818255
 21
0.0861827467505982
 31
0.0
  0
ARC
  5
553F
330
552A
100
AcDbEntity
  8
0
 62
     5
100
AcDbCircle
 10
-1.13904507603075
 20
-0.7417938831336599
 30
0.0
 40
1.760202787403546
100
AcDbArc
 50
27.66959516185725
 51
28.05942494817616
  0
ARC
  5
5540
330
552A
100
AcDbEntity
  8
0
 62
     5
100
AcDbCircle
 10
-1.004282102263919
 20
-0.757961875977971
 30
0.0
 40
1.684093940752742
100
AcDbArc
 50
28.16790426947593
 51
31.03859275647719
  0
ARC
  5
5541
330
552A
100
AcDbEntity
  8
0
  6
Continuous
 62
     5
100
AcDbCircle
 10
0.3785106583832878
 20
0.5442257936888933
 30
0.0
 40
0.2174053638482186
100
AcDbArc
 50
267.9148124860548
 51
269.5113822968287
  0
ARC
  5
5542
330
552A
100
AcDbEntity
  8
0
  6
Continuous
 62
     5
100
AcDbCircle
 10
0.3842397376361806
 20
0.451177177154813
 30
0.0
 40
0.1245798445307902
100
AcDbArc
 50
266.5102892091324
 51
289.6986390132052
  0
LINE
  5
5543
330
552A
100
AcDbEntity
  8
0
 62
     5
100
AcDbLine
 10
0.3444315302060072
 20
0.329508059785395
 30
0.0
 11
0.3888557381376909
 21
0.1882618602077368
 31
0.0
  0
HATCH
  5
5544
330
552A
100
AcDbEntity
  8
0
 62
     5
100
AcDbHatch
 10
0.0
 20
0.0
 30
0.0
210
0.0
220
0.0
230
1.0
  2
ANSI37
 70
     0
 71
     0
 91
        1
 92
        1
 93
        3
 72
     1
 10
0.242103905929854
 20
0.3745990803766492
 11
0.2364303266177767
 21
0.3565600076920994
 72
     2
 10
-1.13904507603075
 20
-0.7417938831336617
 40
1.760202787403546
 50
38.60830081639222
 51
47.20214679696134
 73
     1
 72
     2
 10
-1.004282102263919
 20
-0.7579618759779727
 40
1.684093940752742
 50
309.0573044417869
 51
317.7393318345313
 73
     0
 97
        0
 75
     0
 76
     1
 52
0.0
 41
0.0453750276742311
 77
     0
 78
     2
 53
45.0
 43
-3.289467215457912
 44
-3.001277648028757
 45
-0.004010623720622
 46
0.004010623720622
 79
     0
 53
135.0
 43
-3.289467215457912
 44
-3.001277648028757
 45
-0.004010623720622
 46
-0.004010623720622
 79
     0
 98
        1
 10
-3.289467215457912
 20
-3.001277648028757
  0
ARC
  5
5545
330
552A
100
AcDbEntity
  8
0
 62
     5
100
AcDbCircle
 10
-1.13904507603075
 20
-0.7417938831336599
 30
0.0
 40
1.760202787403546
100
AcDbArc
 50
38.60830081639222
 51
47.20214679696134
  0
ARC
  5
5546
330
552A
100
AcDbEntity
  8
0
 62
     5
100
AcDbCircle
 10
-1.004282102263919
 20
-0.757961875977971
 30
0.0
 40
1.684093940752742
100
AcDbArc
 50
42.26066816546867
 51
50.9426955582131
  0
ARC
  5
5547
330
552A
100
AcDbEntity
  8
0
  6
Continuous
 62
     5
100
AcDbCircle
 10
0.368138231815232
 20
0.5488074975796185
 30
0.0
 40
0.2034179629342476
100
AcDbArc
 50
241.2725538880669
 51
261.6978642764231
  0
ARC
  5
5548
330
552A
100
AcDbEntity
  8
0
  6
Continuous
 62
     5
100
AcDbCircle
 10
0.296966688964293
 20
0.2837087256641126
 30
0.0
 40
0.1855568629868643
100
AcDbArc
 50
38.78858469869091
 51
80.81276779743708
  0
LINE
  5
5549
330
552A
100
AcDbEntity
  8
0
 62
     5
100
AcDbLine
 10
0.2988611570693607
 20
0.4743984769378056
 30
0.0
 11
0.3387660844240354
 21
0.3475212720152516
 31
0.0
  0
LINE
  5
554A
330
552A
100
AcDbEntity
  8
0
 62
     5
100
AcDbLine
 10
0.2988611570693607
 20
0.5550580327176551
 30
0.0
 11
0.3265929222653288
 21
0.4668852408125286
 31
0.0
  0
LINE
  5
554B
330
552A
100
AcDbEntity
  8
0
 62
     5
100
AcDbLine
 10
0.2988611570693607
 20
0.5550580327176551
 30
0.0
 11
0.2739367623135447
 21
0.4758112391350604
 31
0.0
  0
HATCH
  5
554C
330
552A
100
AcDbEntity
  8
0
 62
     5
100
AcDbHatch
 10
0.0
 20
0.0
 30
0.0
210
0.0
220
0.0
230
1.0
  2
ANSI37
 70
     0
 71
     0
 91
        1
 92
        1
 93
        4
 72
     1
 10
0.2739367623135447
 20
0.4758112391350587
 11
0.2689368903660245
 21
0.4599142103788426
 72
     2
 10
0.2614843996869069
 20
0.4001510777290509
 40
0.0602260046943093
 50
82.89188209876458
 51
145.8760929220745
 73
     1
 72
     1
 10
0.2116277271373637
 20
0.4339369304447463
 11
0.1901760796845497
 21
0.4553973803790768
 72
     2
 10
0.2578538046943688
 20
0.3597543333174435
 40
0.1171659801893835
 50
234.7164937370072
 51
277.8896979387382
 73
     0
 97
        0
 75
     0
 76
     1
 52
0.0
 41
0.0453750276742311
 77
     0
 78
     2
 53
45.0
 43
-3.289467215457912
 44
-3.001277648028757
 45
-0.004010623720622
 46
0.004010623720622
 79
     0
 53
135.0
 43
-3.289467215457912
 44
-3.001277648028757
 45
-0.004010623720622
 46
-0.004010623720622
 79
     0
 98
        1
 10
-3.289467215457912
 20
-3.001277648028757
  0
ARC
  5
554D
330
552A
100
AcDbEntity
  8
0
  6
Continuous
 62
     5
100
AcDbCircle
 10
0.2578538046943688
 20
0.3597543333174453
 30
0.0
 40
0.1171659801893835
100
AcDbArc
 50
82.11030206126171
 51
125.2835062629927
  0
ARC
  5
554E
330
552A
100
AcDbEntity
  8
0
  6
Continuous
 62
     5
100
AcDbCircle
 10
0.2614843996869052
 20
0.4001510777290545
 30
0.0
 40
0.0602260046943093
100
AcDbArc
 50
82.89188209876458
 51
145.8760929220745
  0
LINE
  5
554F
330
552A
100
AcDbEntity
  8
0
  6
Continuous
 62
     5
100
AcDbLine
 10
0.2116277271373619
 20
0.4339369304447498
 30
0.0
 11
0.190176079684548
 21
0.4553973803790772
 31
0.0
  0
LINE
  5
5550
330
552A
100
AcDbEntity
  8
0
 62
     5
100
AcDbLine
 10
0.2689368903660263
 20
0.4599142103788428
 30
0.0
 11
0.242103905929854
 21
0.374599080376651
 31
0.0
  0
LINE
  5
5551
330
552A
100
AcDbEntity
  8
0
  6
Continuous
 62
     5
100
AcDbLine
 10
0.2703666862890408
 20
0.3704270263117717
 30
0.0
 11
0.2894416637327204
 21
0.3459033128101137
 31
0.0
  0
LINE
  5
5552
330
552A
100
AcDbEntity
  8
0
 62
     5
100
AcDbLine
 10
0.2988611570693607
 20
0.4743984769378056
 30
0.0
 11
0.2608678370467192
 21
0.3535992030196642
 31
0.0
  0
LINE
  5
5553
330
552A
100
AcDbEntity
  8
0
 62
     5
100
AcDbLine
 10
0.3323589335387691
 20
0.4485522818918409
 30
0.0
 11
0.3647966485473173
 21
0.3454169828903062
 31
0.0
  0
ARC
  5
5554
330
552A
100
AcDbEntity
  8
0
  6
Continuous
 62
     5
100
AcDbCircle
 10
0.368138231815232
 20
0.5488074975796185
 30
0.0
 40
0.2034179629342476
100
AcDbArc
 50
269.0587496435967
 51
275.3152451116762
  0
ARC
  5
5555
330
552A
100
AcDbEntity
  8
0
  6
Continuous
 62
     5
100
AcDbCircle
 10
0.3624406169004164
 20
0.3647254987269708
 30
0.0
 40
0.060306102378538
100
AcDbArc
 50
30.58307632047512
 51
44.13489854844378
  0
ARC
  5
5556
330
552A
100
AcDbEntity
  8
0
  6
Continuous
 62
     5
100
AcDbCircle
 10
0.2931730151761673
 20
0.2945838597867389
 30
0.0
 40
0.1588767169960905
100
AcDbArc
 50
44.89452214437227
 51
75.72101642693887
  0
ARC
  5
5557
330
552A
100
AcDbEntity
  8
0
  6
Continuous
 62
     5
100
AcDbCircle
 10
0.391360930001218
 20
0.3614695140686965
 30
0.0
 40
0.0632842065627897
100
AcDbArc
 50
6.401779561779607
 51
37.44986261357257
  0
TEXT
  5
5558
330
552A
100
AcDbEntity
  8
0
 62
     5
100
AcDbText
 10
2.608221457526555
 20
0.5412305374466282
 30
0.0
 40
0.0283704365880094
  1
TM
 41
1.399999999999999
  7
ROMANS
100
AcDbText
  0
ENDBLK
  5
555A
330
552A
100
AcDbEntity
  8
0
100
AcDbBlockEnd
  0
BLOCK
  5
5582
330
555B
100
AcDbEntity
  8
0
100
AcDbBlockBegin
  2
TITLEBLK
 70
     2
 10
0.0
 20
0.0
 30
0.0
  3
TITLEBLK
  1

  0
ATTDEF
  5
555C
330
555B
100
AcDbEntity
  8
0
 62
     4
100
AcDbText
 10
-2.199883038560267
 20
0.93
 30
0.0
 40
0.09
  1
M.M.T.
 72
     1
 11
-2.00514906857391
 21
0.9750000000000001
 31
0.0
100
AcDbAttributeDefinition
  3
Drawn by
  2
DRWN_BY
 70
     8
 74
     2
  0
ATTDEF
  5
555D
330
555B
100
AcDbEntity
  8
0
 62
     4
100
AcDbText
 10
-1.335696500023342
 20
0.93
 30
0.0
 40
0.09
  1

 72
     1
 11
-1.335696500023342
 21
0.9750000000000001
 31
0.0
100
AcDbAttributeDefinition
  3
Approved by
  2
APPRV_BY
 70
     8
 74
     2
  0
ATTDEF
  5
555E
330
555B
100
AcDbEntity
  8
0
 62
     4
100
AcDbText
 10
-0.911750510193495
 20
0.93
 30
0.0
 40
0.09
  1
FULL
 72
     1
 11
-0.7629681091020899
 21
0.9750000000000001
 31
0.0
100
AcDbAttributeDefinition
  3
Drawing Scale
  2
SCALE
 70
     8
 74
     2
  0
ATTDEF
  5
555F
330
555B
100
AcDbEntity
  8
0
 62
     4
100
AcDbText
 10
-0.500609627175169
 20
0.93
 30
0.0
 40
0.09
  1
mm/dd/yy
 72
     1
 11
-0.2324206776526587
 21
0.9750000000000001
 31
0.0
100
AcDbAttributeDefinition
  3
Date Drawn
  2
DATE
 70
     8
 74
     2
  0
ATTDEF
  5
5560
330
555B
100
AcDbEntity
  8
0
 62
     4
100
AcDbText
 10
-1.777654052137822
 20
0.6299999999999998
 30
0.0
 40
0.09
  1
-
 72
     1
 11
-1.756688840678068
 21
0.6749999999999998
 31
0.0
100
AcDbAttributeDefinition
  3
Job Number (Base)
  2
JOB_NUMBER
 70
     8
 74
     2
  0
ATTDEF
  5
5561
330
555B
100
AcDbEntity
  8
0
 62
     4
100
AcDbText
 10
-0.5776540521378232
 20
0.6299999999999998
 30
0.0
 40
0.09
  1
-
 72
     1
 11
-0.5566888406780688
 21
0.6749999999999998
 31
0.0
100
AcDbAttributeDefinition
  3
Product (Base)
  2
PRODUCT
 70
     8
 74
     2
  0
ATTDEF
  5
5562
330
555B
100
AcDbEntity
  8
0
 62
     4
100
AcDbText
 10
-1.777654052137822
 20
0.4799999999999998
 30
0.0
 40
0.09
  1
-
 72
     1
 11
-1.756688840678068
 21
0.5249999999999999
 31
0.0
100
AcDbAttributeDefinition
  3
Job Number (Cover)
  2
JOB_NUMBER
 70
     8
 74
     2
  0
ATTDEF
  5
5563
330
555B
100
AcDbEntity
  8
0
 62
     4
100
AcDbText
 10
-0.5776540521378232
 20
0.4799999999999998
 30
0.0
 40
0.09
  1
-
 72
     1
 11
-0.5566888406780688
 21
0.5249999999999999
 31
0.0
100
AcDbAttributeDefinition
  3
Product (Cover)
  2
PRODUCT
 70
     8
 74
     2
  0
ATTDEF
  5
5564
330
555B
100
AcDbEntity
  8
0
 62
     4
100
AcDbText
 10
-2.299397734766415
 20
0.1965997167108784
 30
0.0
 40
0.09
  1

100
AcDbAttributeDefinition
  3
Customer Name
  2
CUSTOMER_NAME
 70
     8
  0
ATTDEF
  5
5565
330
555B
100
AcDbEntity
  8
0
 62
     4
100
AcDbText
 10
-1.896803912600208
 20
0.0273723706496532
 30
0.0
 40
0.09
  1
Secondary Operations Drawing
100
AcDbAttributeDefinition
  3
Drawing Title
  2
DRAWING_TITLE
 70
     8
  0
ATTDEF
  5
5566
330
555B
100
AcDbEntity
  8
0
 62
     4
100
AcDbText
 10
-1.576525129900442
 20
1.261252546324116
 30
0.0
 40
0.12
  1
Page 1 of 1
 72
     1
 11
-1.156688840678068
 21
1.321252546324116
 31
0.0
100
AcDbAttributeDefinition
  3
Page ? OF ?
  2
PAGES
 70
     8
 74
     2
  0
ATTDEF
  5
5567
330
555B
100
AcDbEntity
  8
0
 62
     4
100
AcDbText
 10
-5.179716405494941
 20
0.226026458281394
 30
0.0
 40
0.09
  1
X.XX %%P.010
 72
     1
 11
-4.864869884348966
 21
0.226026458281394
 31
0.0
100
AcDbAttributeDefinition
  3
2 Place Decimal Tolerance
  2
TOLERANCE
 70
     8
  0
ATTDEF
  5
5568
330
555B
100
AcDbEntity
  8
0
 62
     4
100
AcDbText
 10
-5.222137960747328
 20
0.0814493777902621
 30
0.0
 40
0.09
  1
X.XXX %%P.005
 72
     1
 11
-4.864869884348966
 21
0.0814493777902621
 31
0.0
100
AcDbAttributeDefinition
  3
3 Place Deimal Tolerance
  2
TOLERANCE
 70
     8
  0
LWPOLYLINE
  5
5569
330
555B
100
AcDbEntity
  8
0
 62
    14
100
AcDbPolyline
 90
        2
 70
     0
 43
0.02
 10
-5.3
 20
1.199999999999999
 10
-0.0000000000000018
 20
1.199999999999999
  0
LWPOLYLINE
  5
556A
330
555B
100
AcDbEntity
  8
0
 62
    14
100
AcDbPolyline
 90
        2
 70
     0
 43
0.02
 10
-5.3
 20
0.5999999999999997
 10
-2.4
 20
0.5999999999999997
  0
INSERT
  5
556B
330
555B
100
AcDbEntity
  8
0
100
AcDbBlockReference
  2
POLYCASELOGO
 10
-5.234970677598697
 20
0.5999999999999996
 30
0.0
  0
LWPOLYLINE
  5
556C
330
555B
100
AcDbEntity
  8
0
 62
    14
100
AcDbPolyline
 90
        2
 70
     0
 43
0.02
 10
-4.4
 20
0.3499999999999996
 10
-2.4
 20
0.3499999999999996
  0
MTEXT
  5
556D
330
555B
100
AcDbEntity
  8
0
100
AcDbMText
 10
-4.374358606929241
 20
0.3247194075175938
 30
0.0
 40
0.05
 41
2.0
 71
     1
 72
     5
  1
\C4;THIS DRAWING AND THE INFORMATION CONTAINED ARE THE PROPERTY OF PLYCASE AND IT IS NOT TO BE REPRODUCED, COPIED OR USED IN ANY WAY DETRIMENTAL TO THE INTEREST OF POLYCASE.
 73
     1
 44
1.0
1001
ACAD
1000
MTEXTBEGIN
1070
    73
1070
     1
1070
    44
1040
1.0
1070
    74
1070
     0
1000
MTEXTEND
  0
MTEXT
  5
556E
330
555B
100
AcDbEntity
  8
0
100
AcDbMText
 10
-3.420035318937893
 20
0.4756805368882859
 30
0.0
 40
0.05
 41
2.0
 71
     5
 72
     5
  1
{\C4;1305 CHESTER IND. PARKWAY  AVON, OHIO 44011 U.S.A.\PPH# 1-800-248-1233, 440-934-0444  FAX# 440-934-0088}
 73
     1
 44
1.0
1001
ACAD
1000
MTEXTBEGIN
1070
    73
1070
     1
1070
    44
1040
1.0
1070
    74
1070
     0
1000
MTEXTEND
  0
MTEXT
  5
556F
330
555B
100
AcDbEntity
  8
0
100
AcDbMText
 10
-4.864869884348966
 20
0.4448402454957234
 30
0.0
 40
0.05
 41
1.241999999999999
 71
     5
 72
     5
  1
\C4;TOLERANCES UNLESS\POTHERWISE SPECIFIED
 73
     1
 44
1.0
1001
ACAD
1000
MTEXTBEGIN
1070
    73
1070
     1
1070
    44
1040
1.0
1070
    74
1070
     0
1000
MTEXTEND
  0
LWPOLYLINE
  5
5570
330
555B
100
AcDbEntity
  8
0
 62
    14
100
AcDbPolyline
 90
        2
 70
     0
 43
0.02
 10
-5.3
 20
0.0000000000000003
 10
-5.3
 20
1.199999999999999
  0
LWPOLYLINE
  5
5571
330
555B
100
AcDbEntity
  8
0
 62
    14
100
AcDbPolyline
 90
        2
 70
     0
 43
0.02
 10
-4.4
 20
0.0000000000000002
 10
-4.4
 20
0.5999999999999997
  0
LWPOLYLINE
  5
5572
330
555B
100
AcDbEntity
  8
0
 62
    14
100
AcDbPolyline
 90
        2
 70
     0
 43
0.02
 10
-2.4
 20
0.149999999999999
 10
-0.0000000000000018
 20
0.149999999999999
  0
LWPOLYLINE
  5
5573
330
555B
100
AcDbEntity
  8
0
 62
    14
100
AcDbPolyline
 90
        2
 70
     0
 43
0.02
 10
-2.4
 20
0.9000000000000005
 10
-0.0000000000000018
 20
0.9000000000000005
  0
LWPOLYLINE
  5
5574
330
555B
100
AcDbEntity
  8
0
 62
    14
100
AcDbPolyline
 90
        2
 70
     0
 43
0.02
 10
-2.4
 20
0.4499999999999997
 10
-0.0000000000000018
 20
0.4499999999999997
  0
LWPOLYLINE
  5
5575
330
555B
100
AcDbEntity
  8
0
 62
    14
100
AcDbPolyline
 90
        2
 70
     0
 43
0.02
 10
-2.4
 20
0.0
 10
-2.4
 20
1.199999999999999
  0
TEXT
  5
5576
330
555B
100
AcDbEntity
  8
0
 62
     4
100
AcDbText
 10
-2.303074675751723
 20
0.0273723706496532
 30
0.0
 40
0.09
  1
TITLE:
100
AcDbText
  0
TEXT
  5
5577
330
555B
100
AcDbEntity
  8
0
 62
     4
100
AcDbText
 10
-2.303074675751723
 20
0.3157031656057045
 30
0.0
 40
0.09
  1
CUSTOMER:
100
AcDbText
  0
TEXT
  5
5578
330
555B
100
AcDbEntity
  8
0
 62
     4
100
AcDbText
 10
-1.57771128246307
 20
1.065703165605704
 30
0.0
 40
0.09
  1
APP. BY
100
AcDbText
  0
TEXT
  5
5579
330
555B
100
AcDbEntity
  8
0
 62
     4
100
AcDbText
 10
-2.305458981304663
 20
0.7657031656057036
 30
0.0
 40
0.09
  1
JOB NO:
100
AcDbText
  0
TEXT
  5
557A
330
555B
100
AcDbEntity
  8
0
 62
     4
100
AcDbText
 10
-2.304227624677977
 20
1.065703165605704
 30
0.0
 40
0.09
  1
DRWN BY
100
AcDbText
  0
LWPOLYLINE
  5
557B
330
555B
100
AcDbEntity
  8
0
 62
    14
100
AcDbPolyline
 90
        2
 70
     0
 43
0.02
 10
-1.696920455791685
 20
0.9000000000000005
 10
-1.696920455791685
 20
1.199999999999999
  0
TEXT
  5
557C
330
555B
100
AcDbEntity
  8
0
 62
     4
100
AcDbText
 10
-1.105458981304664
 20
0.7657031656057036
 30
0.0
 40
0.09
  1
PRODUCT:
100
AcDbText
  0
LWPOLYLINE
  5
557D
330
555B
100
AcDbEntity
  8
0
 62
    14
100
AcDbPolyline
 90
        2
 70
     0
 43
0.02
 10
-1.200000000000001
 20
0.4499999999999997
 10
-1.200000000000001
 20
0.9000000000000005
  0
TEXT
  5
557E
330
555B
100
AcDbEntity
  8
0
 62
     4
100
AcDbText
 10
-0.9841713932981347
 20
1.065703165605704
 30
0.0
 40
0.09
  1
SCALE:
 72
     1
 11
-0.7605527029843558
 21
1.065703165605704
 31
0.0
100
AcDbText
  0
LWPOLYLINE
  5
557F
330
555B
100
AcDbEntity
  8
0
 62
    14
100
AcDbPolyline
 90
        2
 70
     0
 43
0.02
 10
-1.061094862898864
 20
0.9000000000000005
 10
-1.061094862898864
 20
1.199999999999999
  0
LWPOLYLINE
  5
5580
330
555B
100
AcDbEntity
  8
0
 62
    14
100
AcDbPolyline
 90
        2
 70
     0
 43
0.02
 10
-0.551463673949181
 20
0.9000000000000005
 10
-0.551463673949181
 20
1.199999999999999
  0
TEXT
  5
5581
330
555B
100
AcDbEntity
  8
0
 62
     4
100
AcDbText
 10
-0.3944934674764495
 20
1.065703165605704
 30
0.0
 40
0.09
  1
DATE:
 72
     1
 11
-0.2093672737520293
 21
1.065703165605704
 31
0.0
100
AcDbText
  0
ENDBLK
  5
5583
330
555B
100
AcDbEntity
  8
0
100
AcDbBlockEnd
  0
BLOCK
  5
55BD
330
558D
100
AcDbEntity
  8
0
100
AcDbBlockBegin
  2
B-SIZE
 70
     0
 10
0.0
 20
0.0
 30
0.0
  3
B-SIZE
  1

  0
MTEXT
  5
558E
330
558D
100
AcDbEntity
  8
0
 62
     4
100
AcDbMText
 10
-0.8570336689668316
 20
67.4671197253598
 30
0.0
 40
0.125
 41
0.0
 71
     6
 72
     1
  1
\A1;
 73
     1
 44
1.0
1001
ACAD
1000
MTEXTBEGIN
1070
    73
1070
     1
1070
    44
1040
1.0
1070
    74
1070
     0
1000
MTEXTEND
  0
MTEXT
  5
558F
330
558D
100
AcDbEntity
  8
0
 62
     4
100
AcDbMText
 10
-2.015100724569212
 20
67.79148780027966
 30
0.0
 40
0.125
 41
0.0
 71
     4
 72
     1
  1
\A1;
 73
     1
 44
1.0
1001
ACAD
1000
MTEXTBEGIN
1070
    73
1070
     1
1070
    44
1040
1.0
1070
    74
1070
     0
1000
MTEXTEND
  0
MTEXT
  5
5590
330
558D
100
AcDbEntity
  8
0
 62
     4
100
AcDbMText
 10
-6.091926682906855
 20
65.3336474358754
 30
0.0
 40
0.125
 41
0.0
 71
     6
 72
     1
  1
\A1;
 73
     1
 44
1.0
1001
ACAD
1000
MTEXTBEGIN
1070
    73
1070
     1
1070
    44
1040
1.0
1070
    74
1070
     0
1000
MTEXTEND
  0
MTEXT
  5
5591
330
558D
100
AcDbEntity
  8
0
 62
     4
100
AcDbMText
 10
-5.587880456161553
 20
64.78799918167474
 30
0.0
 40
0.125
 41
0.0
 71
     6
 72
     1
  1
\A1;
 73
     1
 44
1.0
1001
ACAD
1000
MTEXTBEGIN
1070
    73
1070
     1
1070
    44
1040
1.0
1070
    74
1070
     0
1000
MTEXTEND
  0
MTEXT
  5
5592
330
558D
100
AcDbEntity
  8
0
 62
     4
100
AcDbMText
 10
-5.959973487149692
 20
63.54426384598022
 30
0.0
 40
0.125
 41
0.0
 71
     6
 72
     1
  1
\A1;
 73
     1
 44
1.0
1001
ACAD
1000
MTEXTBEGIN
1070
    73
1070
     1
1070
    44
1040
1.0
1070
    74
1070
     0
1000
MTEXTEND
  0
MTEXT
  5
5593
330
558D
100
AcDbEntity
  8
0
 62
     4
100
AcDbMText
 10
-5.907254284497835
 20
63.29358492132218
 30
0.0
 40
0.125
 41
0.0
 71
     6
 72
     1
  1
\A1;
 73
     1
 44
1.0
1001
ACAD
1000
MTEXTBEGIN
1070
    73
1070
     1
1070
    44
1040
1.0
1070
    74
1070
     0
1000
MTEXTEND
  0
MTEXT
  5
5594
330
558D
100
AcDbEntity
  8
0
 62
     4
100
AcDbMText
 10
8.853714375528472
 20
51.92441435155942
 30
0.0
 40
0.125
 41
0.0
 71
     6
 72
     1
  1
\A1;
 73
     1
 44
1.0
1001
ACAD
1000
MTEXTBEGIN
1070
    73
1070
     1
1070
    44
1040
1.0
1070
    74
1070
     0
1000
MTEXTEND
  0
MTEXT
  5
5595
330
558D
100
AcDbEntity
  8
0
 62
     4
100
AcDbMText
 10
14.83870373717059
 20
49.97370191900953
 30
0.0
 40
0.125
 41
0.0
 71
     4
 72
     1
  1
\A1;
 73
     1
 44
1.0
1001
ACAD
1000
MTEXTBEGIN
1070
    73
1070
     1
1070
    44
1040
1.0
1070
    74
1070
     0
1000
MTEXTEND
  0
MTEXT
  5
5596
330
558D
100
AcDbEntity
  8
0
 62
     4
100
AcDbMText
 10
-11.83150703266406
 20
44.53165929598728
 30
0.0
 40
0.125
 41
0.0
 71
     4
 72
     1
  1
\A1;
 73
     1
 44
1.0
1001
ACAD
1000
MTEXTBEGIN
1070
    73
1070
     1
1070
    44
1040
1.0
1070
    74
1070
     0
1000
MTEXTEND
  0
MTEXT
  5
5597
330
558D
100
AcDbEntity
  8
0
 62
     4
100
AcDbMText
 10
-15.77258932311332
 20
40.77755492596499
 30
0.0
 40
0.125
 41
0.0
 71
     6
 72
     1
  1
\A1;
 73
     1
 44
1.0
1001
ACAD
1000
MTEXTBEGIN
1070
    73
1070
     1
1070
    44
1040
1.0
1070
    74
1070
     0
1000
MTEXTEND
  0
MTEXT
  5
5598
330
558D
100
AcDbEntity
  8
0
 62
     4
100
AcDbMText
 10
-15.4576345334646
 20
41.52804832460016
 30
0.0
 40
0.125
 41
0.0
 71
     6
 72
     1
  1
\A1;
 73
     1
 44
1.0
1001
ACAD
1000
MTEXTBEGIN
1070
    73
1070
     1
1070
    44
1040
1.0
1070
    74
1070
     0
1000
MTEXTEND
  0
MTEXT
  5
5599
330
558D
100
AcDbEntity
  8
0
 62
     4
100
AcDbMText
 10
-15.88565000716195
 20
42.0767961868691
 30
0.0
 40
0.125
 41
0.0
 71
     6
 72
     1
  1
\A1;
 73
     1
 44
1.0
1001
ACAD
1000
MTEXTBEGIN
1070
    73
1070
     1
1070
    44
1040
1.0
1070
    74
1070
     0
1000
MTEXTEND
  0
MTEXT
  5
559A
330
558D
100
AcDbEntity
  8
0
 62
     4
100
AcDbMText
 10
-7.422913639482967
 20
43.73250221593379
 30
0.0
 40
0.125
 41
0.0
 71
     6
 72
     1
  1
\A1;
 73
     1
 44
1.0
1001
ACAD
1000
MTEXTBEGIN
1070
    73
1070
     1
1070
    44
1040
1.0
1070
    74
1070
     0
1000
MTEXTEND
  0
MTEXT
  5
559B
330
558D
100
AcDbEntity
  8
0
 62
     4
100
AcDbMText
 10
-1.55073435664244
 20
41.79545023057957
 30
0.0
 40
0.125
 41
0.0
 71
     4
 72
     1
  1
\A1;
 73
     1
 44
1.0
1001
ACAD
1000
MTEXTBEGIN
1070
    73
1070
     1
1070
    44
1040
1.0
1070
    74
1070
     0
1000
MTEXTEND
  0
MTEXT
  5
559C
330
558D
100
AcDbEntity
  8
0
 62
     5
100
AcDbMText
 10
-11.54583188566252
 20
44.45584176503877
 30
0.0
 40
0.125
 41
0.0
 71
     4
 72
     1
  1
\A1;
 73
     1
 44
1.0
1001
ACAD
1000
MTEXTBEGIN
1070
    73
1070
     1
1070
    44
1040
1.0
1070
    74
1070
     0
1000
MTEXTEND
  0
MTEXT
  5
559D
330
558D
100
AcDbEntity
  8
0
 62
     5
100
AcDbMText
 10
-15.63418743486616
 20
41.83876579128194
 30
0.0
 40
0.125
 41
0.0
 71
     6
 72
     1
  1
\A1;
 73
     1
 44
1.0
1001
ACAD
1000
MTEXTBEGIN
1070
    73
1070
     1
1070
    44
1040
1.0
1070
    74
1070
     0
1000
MTEXTEND
  0
MTEXT
  5
559E
330
558D
100
AcDbEntity
  8
0
 62
     5
100
AcDbMText
 10
-15.3672110556729
 20
41.19168246713974
 30
0.0
 40
0.125
 41
0.0
 71
     6
 72
     1
  1
\A1;
 73
     1
 44
1.0
1001
ACAD
1000
MTEXTBEGIN
1070
    73
1070
     1
1070
    44
1040
1.0
1070
    74
1070
     0
1000
MTEXTEND
  0
MTEXT
  5
559F
330
558D
100
AcDbEntity
  8
0
 62
     5
100
AcDbMText
 10
-15.64469883475312
 20
40.48043223583092
 30
0.0
 40
0.125
 41
0.0
 71
     6
 72
     1
  1
\A1;
 73
     1
 44
1.0
1001
ACAD
1000
MTEXTBEGIN
1070
    73
1070
     1
1070
    44
1040
1.0
1070
    74
1070
     0
1000
MTEXTEND
  0
MTEXT
  5
55A0
330
558D
100
AcDbEntity
  8
0
 62
     5
100
AcDbMText
 10
-15.67338167340203
 20
39.45555614419905
 30
0.0
 40
0.125
 41
0.0
 71
     6
 72
     1
  1
\A1;
 73
     1
 44
1.0
1001
ACAD
1000
MTEXTBEGIN
1070
    73
1070
     1
1070
    44
1040
1.0
1070
    74
1070
     0
1000
MTEXTEND
  0
MTEXT
  5
55A1
330
558D
100
AcDbEntity
  8
0
 62
     5
100
AcDbMText
 10
-7.435930437192151
 20
43.97887613045535
 30
0.0
 40
0.125
 41
0.0
 71
     6
 72
     1
  1
\A1;
 73
     1
 44
1.0
1001
ACAD
1000
MTEXTBEGIN
1070
    73
1070
     1
1070
    44
1040
1.0
1070
    74
1070
     0
1000
MTEXTEND
  0
MTEXT
  5
55A2
330
558D
100
AcDbEntity
  8
0
 62
     5
100
AcDbMText
 10
-1.580568950739053
 20
41.60014115011655
 30
0.0
 40
0.125
 41
0.0
 71
     4
 72
     1
  1
\A1;
 73
     1
 44
1.0
1001
ACAD
1000
MTEXTBEGIN
1070
    73
1070
     1
1070
    44
1040
1.0
1070
    74
1070
     0
1000
MTEXTEND
  0
MTEXT
  5
55A3
330
558D
100
AcDbEntity
  8
0
 62
     5
100
AcDbMText
 10
-6.179934397015937
 20
37.79672558496987
 30
0.0
 40
0.125
 41
0.0
 71
     4
 72
     1
  1
\A1;
 73
     1
 44
1.0
1001
ACAD
1000
MTEXTBEGIN
1070
    73
1070
     1
1070
    44
1040
1.0
1070
    74
1070
     0
1000
MTEXTEND
  0
MTEXT
  5
55A4
330
558D
100
AcDbEntity
  8
0
 62
     4
100
AcDbMText
 10
4.99845743837621
 20
7.229241988369494
 30
0.0
 40
0.125
 41
0.0
 71
     4
 72
     1
  1
\A1;
 73
     1
 44
1.0
1001
ACAD
1000
MTEXTBEGIN
1070
    73
1070
     1
1070
    44
1040
1.0
1070
    74
1070
     0
1000
MTEXTEND
  0
LINE
  5
55A5
330
558D
100
AcDbEntity
  8
0
  6
CENTER2
 62
     1
100
AcDbLine
 10
-3.599833914503739
 20
3.624307464718229
 30
0.0
 11
-0.5998339145037399
 21
3.624307464718229
 31
0.0
  0
INSERT
  5
55A6
330
558D
100
AcDbEntity
  8
0
100
AcDbBlockReference
  2
CL
 10
-3.599833914503739
 20
3.624307464718229
 30
0.0
  0
LINE
  5
55A7
330
558D
100
AcDbEntity
  8
0
100
AcDbLine
 10
-3.49983391450374
 20
3.878802038714465
 30
0.0
 11
-3.49983391450374
 21
3.256437695068329
 31
0.0
  0
LINE
  5
55A8
330
558D
100
AcDbEntity
  8
0
  6
CENTER2
 62
     1
100
AcDbLine
 10
-2.132380614585112
 20
5.090989553251216
 30
0.0
 11
-2.132380614585112
 21
2.090989553251216
 31
0.0
  0
INSERT
  5
55A9
330
558D
100
AcDbEntity
  8
0
100
AcDbBlockReference
  2
CL
 10
-2.132380614585112
 20
5.090989553251216
 30
0.0
  0
LINE
  5
55AA
330
558D
100
AcDbEntity
  8
0
100
AcDbLine
 10
-2.550786743797533
 20
4.990989553251217
 30
0.0
 11
-1.640337966636525
 21
4.990989553251217
 31
0.0
  0
LWPOLYLINE
  5
55AB
330
558D
100
AcDbEntity
  8
0
 62
    14
100
AcDbPolyline
 90
        4
 70
     1
 43
0.02
 10
16.0
 20
-0.0000000000000039
 10
16.0
 20
10.0
 10
0.0000000000000004
 20
10.0
 10
0.0
 20
0.0
  0
INSERT
  5
55AC
330
558D
100
AcDbEntity
  8
0
100
AcDbBlockReference
  2
REVGRID
 10
10.7
 20
-0.0000000000000036
 30
0.0
  0
MTEXT
  5
55AD
330
558D
100
AcDbEntity
  8
0
100
AcDbMText
 10
10.96382434871027
 20
2.040989277911819
 30
0.0
 40
0.125
 41
4.8822
 71
     1
 72
     5
  1
{\C4;NOTES:\P  1) ALL UNMARKED RADII 1/32" UNLESS OTHERWISE SPECIFIED.}
 73
     1
 44
1.0
1001
ACAD
1000
MTEXTBEGIN
1070
    73
1070
     1
1070
    44
1040
1.0
1070
    74
1070
     0
1000
MTEXTEND
  0
INSERT
  5
55AE
330
558D
100
AcDbEntity
  8
0
100
AcDbBlockReference
 66
     1
  2
TITLEBLK
 10
16.0
 20
-0.0000000000000039
 30
0.0
  0
ATTRIB
  5
55AF
330
55AE
100
AcDbEntity
  8
0
 62
     4
100
AcDbText
 10
13.7993188713988
 20
0.9299999999999963
 30
0.0
 40
0.09
  1
M.M.T.
 72
     1
 11
13.99485093142609
 21
0.9749999999999962
 31
0.0
100
AcDbAttribute
  2
DRWN_BY
 70
     8
 74
     2
  0
ATTRIB
  5
55B0
330
55AE
100
AcDbEntity
  8
0
 62
     4
100
AcDbText
 10
14.66430349997665
 20
0.9299999999999963
 30
0.0
 40
0.09
  1

 72
     1
 11
14.66430349997665
 21
0.9749999999999962
 31
0.0
100
AcDbAttribute
  2
APPRV_BY
 70
     8
 74
     2
  0
ATTRIB
  5
55B1
330
55AE
100
AcDbEntity
  8
0
 62
     4
100
AcDbText
 10
15.08330747070691
 20
0.9299999999999963
 30
0.0
 40
0.09
  1
FULL
 72
     1
 11
15.23703189089791
 21
0.9749999999999962
 31
0.0
100
AcDbAttribute
  2
SCALE
 70
     8
 74
     2
  0
ATTRIB
  5
55B2
330
55AE
100
AcDbEntity
  8
0
 62
     4
100
AcDbText
 10
15.49512366068294
 20
0.9299999999999963
 30
0.0
 40
0.09
  1
mm/dd/yy
 72
     1
 11
15.76757932234734
 21
0.9749999999999962
 31
0.0
100
AcDbAttribute
  2
DATE
 70
     8
 74
     2
  0
ATTRIB
  5
55B3
330
55AE
100
AcDbEntity
  8
0
 62
     4
100
AcDbText
 10
14.22237664363298
 20
0.6299999999999958
 30
0.0
 40
0.09
  1
-
 72
     1
 11
14.24331115932193
 21
0.6749999999999959
 31
0.0
100
AcDbAttribute
  2
JOB_NUMBER
 70
     8
 74
     2
  0
ATTRIB
  5
55B4
330
55AE
100
AcDbEntity
  8
0
 62
     4
100
AcDbText
 10
15.42237664363298
 20
0.6299999999999958
 30
0.0
 40
0.09
  1
-
 72
     1
 11
15.44331115932193
 21
0.6749999999999959
 31
0.0
100
AcDbAttribute
  2
PRODUCT
 70
     8
 74
     2
  0
ATTRIB
  5
55B5
330
55AE
100
AcDbEntity
  8
0
 62
     4
100
AcDbText
 10
14.22237664363298
 20
0.4799999999999959
 30
0.0
 40
0.09
  1
-
 72
     1
 11
14.24331115932193
 21
0.524999999999996
 31
0.0
100
AcDbAttribute
  2
JOB_NUMBER
 70
     8
 74
     2
  0
ATTRIB
  5
55B6
330
55AE
100
AcDbEntity
  8
0
 62
     4
100
AcDbText
 10
15.42237664363298
 20
0.4799999999999959
 30
0.0
 40
0.09
  1
-
 72
     1
 11
15.44331115932193
 21
0.524999999999996
 31
0.0
100
AcDbAttribute
  2
PRODUCT
 70
     8
 74
     2
  0
ATTRIB
  5
55B7
330
55AE
100
AcDbEntity
  8
0
 62
     4
100
AcDbText
 10
13.70060226523358
 20
0.1965997167108745
 30
0.0
 40
0.09
  1

100
AcDbAttribute
  2
CUSTOMER_NAME
 70
     8
  0
ATTRIB
  5
55B8
330
55AE
100
AcDbEntity
  8
0
 62
     4
100
AcDbText
 10
14.10319608739979
 20
0.0273723706496492
 30
0.0
 40
0.09
  1
Secondary Operations Drawing
100
AcDbAttribute
  2
DRAWING_TITLE
 70
     8
  0
ATTRIB
  5
55B9
330
55AE
100
AcDbEntity
  8
0
 62
     4
100
AcDbText
 10
14.41455263271893
 20
1.261252546324112
 30
0.0
 40
0.12
  1
Page 1 of 1
 72
     1
 11
14.84331115932193
 21
1.321252546324112
 31
0.0
100
AcDbAttribute
  2
PAGES
 70
     8
 74
     2
  0
ATTRIB
  5
55BA
330
55AE
100
AcDbEntity
  8
0
 62
     4
100
AcDbText
 10
10.81755167090342
 20
0.2260264582813901
 30
0.0
 40
0.09
  1
X.XX %%P.010
 72
     1
 11
11.13513011565103
 21
0.2260264582813901
 31
0.0
100
AcDbAttribute
  2
TOLERANCE
 70
     8
  0
ATTRIB
  5
55BB
330
55AE
100
AcDbEntity
  8
0
 62
     4
100
AcDbText
 10
10.77562124798391
 20
0.0814493777902582
 30
0.0
 40
0.09
  1
X.XXX %%P.005
 72
     1
 11
11.13513011565103
 21
0.0814493777902582
 31
0.0
100
AcDbAttribute
  2
TOLERANCE
 70
     8
  0
SEQEND
  5
55BC
330
55AE
100
AcDbEntity
  8
0
  0
ENDBLK
  5
55BE
330
558D
100
AcDbEntity
  8
0
100
AcDbBlockEnd
  0
BLOCK
  5
55F3
330
55F1
100
AcDbEntity
  8
0
100
AcDbBlockBegin
  2
A$C5CD5734E
 70
     0
 10
0.0
 20
0.0
 30
0.0
  3
A$C5CD5734E
  1

  0
MTEXT
  5
55F2
330
55F1
100
AcDbEntity
  8
0
100
AcDbMText
 10
0.0719850082122946
 20
0.8366442136831331
 30
0.0
 40
0.125
 41
4.067415307028848
 71
     1
 72
     5
  1
\L\C4;NOTES:\P\l  1) PC BOARD BOSSES WILL ACCCEPT A \P      #4 X 1/4" THREAD FORMING SCREW\P\fArial|b1|i0|c0|p34;  (SCREWS AVAILABLE FROM POLYCASE)
 73
     1
 44
1.0
1001
ACAD
1000
MTEXTBEGIN
1070
    73
1070
     1
1070
    44
1040
1.0
1070
    74
1070
     0
1000
MTEXTEND
  0
ENDBLK
  5
55F4
330
55F1
100
AcDbEntity
  8
0
100
AcDbBlockEnd
  0
BLOCK
  5
56B6
330
5654
100
AcDbEntity
  8
0
100
AcDbBlockBegin
  2
C
 70
     2
 10
0.0
 20
0.0
 30
0.0
  3
C
  1

  0
ATTDEF
  5
5655
330
5654
100
AcDbEntity
  8
TEXT
100
AcDbText
 10
16.47785051577857
 20
0.5394050456177202
 30
0.0
 40
0.125
  1

 41
0.75
  7
TXT
 72
     1
 11
16.47785051577857
 21
0.5394050456177202
 31
0.0
100
AcDbAttributeDefinition
  3
ENTER INITIALS
  2
NAME
 70
     4
  0
ATTDEF
  5
5656
330
5654
100
AcDbEntity
  8
TEXT
100
AcDbText
 10
17.17323597631695
 20
0.5394050456177202
 30
0.0
 40
0.125
  1

 41
0.75
  7
TXT
 72
     1
 11
17.17323597631695
 21
0.5394050456177202
 31
0.0
100
AcDbAttributeDefinition
  3
ENTER DATE
  2
DATE
 70
     4
  0
ATTDEF
  5
5657
330
5654
100
AcDbEntity
  8
TEXT
100
AcDbText
 10
20.4336228000444
 20
0.7106068173304485
 30
0.0
 40
0.125
  1

 41
0.75
  7
TXT
 72
     1
 11
20.4336228000444
 21
0.7106068173304485
 31
0.0
100
AcDbAttributeDefinition
  3
ENTER TITLE LINE #1
  2
TITLE1
 70
     4
  0
ATTDEF
  5
5658
330
5654
100
AcDbEntity
  8
TEXT
100
AcDbText
 10
20.3867478000444
 20
0.4994773512041509
 30
0.0
 40
0.125
  1
 
 41
0.75
  7
TXT
 72
     1
 11
20.4336228000444
 21
0.4994773512041509
 31
0.0
100
AcDbAttributeDefinition
  3
ENTER TITLE LINE #2
  2
TITLE2
 70
     4
  0
ATTDEF
  5
5659
330
5654
100
AcDbEntity
  8
TEXT
100
AcDbText
 10
20.57174758838052
 20
0.1062243331644149
 30
0.0
 40
0.156
  1
 
 41
0.75
  7
TXT
 72
     1
 11
20.63024758838051
 21
0.1062243331644149
 31
0.0
100
AcDbAttributeDefinition
  3
ENTER PART #
  2
PART
 70
     4
  0
ATTDEF
  5
565A
330
5654
100
AcDbEntity
  8
TEXT
100
AcDbText
 10
20.63024758838051
 20
15.30264083603648
 30
0.0
 40
0.156
  1

 41
0.75
  7
TXT
 72
     1
 11
20.63024758838051
 21
15.30264083603648
 31
0.0
100
AcDbAttributeDefinition
  3
ENTER PART #
  2
PART
 70
     4
  0
ATTDEF
  5
565B
330
5654
100
AcDbEntity
  8
TEXT
100
AcDbText
 10
12.05689760415074
 20
1.182012335097561
 30
0.0
 40
0.125
  1

 41
4.93641642638573
  7
TXT
 72
     5
 11
15.96489394170611
 21
1.182012335097561
 31
0.0
100
AcDbAttributeDefinition
  3
ENTER CUT SIZE
  2
CUTSIZE
 70
     4
  0
ATTDEF
  5
565C
330
5654
100
AcDbEntity
  8
TEXT
100
AcDbText
 10
12.19437068912895
 20
0.2867788269611924
 30
0.0
 40
0.125
  1

 41
0.75
  7
TXT
 72
     1
 11
12.19437068912895
 21
0.2867788269611924
 31
0.0
100
AcDbAttributeDefinition
  3
ENTER QUANTITY
  2
QTY
 70
     4
  0
ATTDEF
  5
565D
330
5654
100
AcDbEntity
  8
TEXT
100
AcDbText
 10
13.13905420252699
 20
0.2867788269611924
 30
0.0
 40
0.125
  1

 41
0.75
  7
TXT
 72
     1
 11
13.13905420252699
 21
0.2867788269611924
 31
0.0
100
AcDbAttributeDefinition
  3
ENTER "USED ON" PART #
  2
USED
 70
     4
  0
ATTDEF
  5
565E
330
5654
100
AcDbEntity
  8
TEXT
100
AcDbText
 10
16.72398122291403
 20
0.9555323710702353
 30
0.0
 40
0.125
  1
AS NOTED
 41
0.75
  7
TXT
 72
     1
 11
17.08335622291403
 21
0.9555323710702353
 31
0.0
100
AcDbAttributeDefinition
  3
ENTER MATERIAL
  2
MAT
 70
     4
  0
ATTDEF
  5
565F
330
5654
100
AcDbEntity
  8
TEXT
100
AcDbText
 10
16.70835622291403
 20
0.7436542078606632
 30
0.0
 40
0.125
  1
SEE SPEC.
 41
0.75
  7
TXT
 72
     1
 11
17.08335622291403
 21
0.7436542078606632
 31
0.0
100
AcDbAttributeDefinition
  3
ENTER FINISH
  2
FINISH
 70
     4
  0
LINE
  5
5660
330
5654
100
AcDbEntity
  8
TITLE
100
AcDbLine
 10
0.0
 20
0.0
 30
0.0
 11
21.49999999999999
 21
0.0
 31
0.0
  0
LINE
  5
5661
330
5654
100
AcDbEntity
  8
TITLE
100
AcDbLine
 10
0.0
 20
15.625
 30
0.0
 11
0.0
 21
0.0
 31
0.0
  0
LINE
  5
5662
330
5654
100
AcDbEntity
  8
TITLE
100
AcDbLine
 10
12.01999999999999
 20
1.377
 30
0.0
 11
12.01999999999999
 21
-0.0000000000000004
 31
0.0
  0
LINE
  5
5663
330
5654
100
AcDbEntity
  8
TITLE
100
AcDbLine
 10
19.6875
 20
14.9375
 30
0.0
 11
19.6875
 21
15.1875
 31
0.0
  0
TEXT
  5
5664
330
5654
100
AcDbEntity
  8
TITLE
100
AcDbText
 10
19.1875
 20
15.4375
 30
0.0
 40
0.09375
  1
DWG.
  7
TXT
100
AcDbText
  0
TEXT
  5
5665
330
5654
100
AcDbEntity
  8
TITLE
100
AcDbText
 10
19.17928468339757
 20
15.02367246868617
 30
0.0
 40
0.09375
  1
ISSUE
  7
TXT
100
AcDbText
  0
LINE
  5
5666
330
5654
100
AcDbEntity
  8
TITLE
100
AcDbLine
 10
19.0625
 20
14.9375
 30
0.0
 11
19.0625
 21
15.625
 31
0.0
  0
TEXT
  5
5667
330
5654
100
AcDbEntity
  8
TITLE
100
AcDbText
 10
19.1875
 20
15.28125
 30
0.0
 40
0.09375
  1
NO.
  7
TXT
100
AcDbText
  0
LINE
  5
5668
330
5654
100
AcDbEntity
  8
TITLE
100
AcDbLine
 10
19.0625
 20
14.9375
 30
0.0
 11
21.49999999999999
 21
14.9375
 31
0.0
  0
LINE
  5
5669
330
5654
100
AcDbEntity
  8
TITLE
100
AcDbLine
 10
19.0625
 20
15.1875
 30
0.0
 11
21.49999999999999
 21
15.1875
 31
0.0
  0
TEXT
  5
566A
330
5654
100
AcDbEntity
  8
TITLE
100
AcDbText
 10
20.12324012267808
 20
15.02584779209924
 30
0.0
 40
0.09375
  1
REVISIONS
  7
TXT
100
AcDbText
  0
TEXT
  5
566B
330
5654
100
AcDbEntity
  8
TITLE
100
AcDbText
 10
19.4375
 20
0.9903543852819179
 30
0.0
 40
0.09375
  1
NAME:
  7
TXT
100
AcDbText
  0
TEXT
  5
566C
330
5654
100
AcDbEntity
  8
TITLE
100
AcDbText
 10
19.4375
 20
0.0631657164931343
 30
0.0
 40
0.0938
  1
NO.
  7
TXT
100
AcDbText
  0
TEXT
  5
566D
330
5654
100
AcDbEntity
  8
TITLE
100
AcDbText
 10
19.4375
 20
0.2194990498264686
 30
0.0
 40
0.0938
  1
DWG.
  7
TXT
100
AcDbText
  0
LINE
  5
566E
330
5654
100
AcDbEntity
  8
TITLE
100
AcDbLine
 10
19.36724560008882
 20
-0.0000000000000004
 30
0.0
 11
19.36724560008882
 21
1.127
 31
0.0
  0
LINE
  5
566F
330
5654
100
AcDbEntity
  8
TITLE
100
AcDbLine
 10
18.4365
 20
1.127
 30
0.0
 11
18.4365
 21
1.377
 31
0.0
  0
LINE
  5
5670
330
5654
100
AcDbEntity
  8
TITLE
100
AcDbLine
 10
18.63673299114847
 20
0.8590073451518431
 30
0.0
 11
18.66976251320413
 21
0.8590073451518431
 31
0.0
  0
ARC
  5
5671
330
5654
100
AcDbEntity
  8
TITLE
100
AcDbCircle
 10
18.66976251320413
 20
0.7660701812170974
 30
0.0
 40
0.0929371639347451
100
AcDbArc
 50
0.0
 51
90.0
  0
LINE
  5
5672
330
5654
100
AcDbEntity
  8
TITLE
100
AcDbLine
 10
18.71386129933556
 20
0.7328783369546899
 30
0.0
 11
18.67256370982726
 21
0.7328783369546899
 31
0.0
  0
LINE
  5
5673
330
5654
100
AcDbEntity
  8
TITLE
100
AcDbLine
 10
18.63673299114847
 20
0.5934725910525716
 30
0.0
 11
18.66976251320413
 21
0.5934725910525716
 31
0.0
  0
ARC
  5
5674
330
5654
100
AcDbEntity
  8
TITLE
100
AcDbCircle
 10
18.66976251320413
 20
0.6864097549873174
 30
0.0
 40
0.0929371639347451
100
AcDbArc
 50
270.0
 51
0.0
  0
LINE
  5
5675
330
5654
100
AcDbEntity
  8
TITLE
100
AcDbLine
 10
18.71386129933556
 20
0.7196015992497254
 30
0.0
 11
18.67256370982726
 21
0.7196015992497254
 31
0.0
  0
LINE
  5
5676
330
5654
100
AcDbEntity
  8
TITLE
100
AcDbLine
 10
18.63673299114847
 20
0.5934725910525716
 30
0.0
 11
18.63673299114847
 21
0.8590073451518431
 31
0.0
  0
LINE
  5
5677
330
5654
100
AcDbEntity
  8
TITLE
100
AcDbLine
 10
18.67256370982726
 20
0.7196015992497254
 30
0.0
 11
18.67256370982726
 21
0.7328783369546899
 31
0.0
  0
LINE
  5
5678
330
5654
100
AcDbEntity
  8
TITLE
100
AcDbLine
 10
18.76269967713888
 20
0.6864097549873174
 30
0.0
 11
18.76269967713888
 21
0.7660701812170974
 31
0.0
  0
LINE
  5
5679
330
5654
100
AcDbEntity
  8
TITLE
100
AcDbLine
 10
18.71386129933556
 20
0.7196015992497254
 30
0.0
 11
18.71386129933556
 21
0.7328783369546899
 31
0.0
  0
LINE
  5
567A
330
5654
100
AcDbEntity
  8
TITLE
100
AcDbLine
 10
18.53388478947083
 20
0.8590073451518431
 30
0.0
 11
18.58242241159558
 21
0.8590073451518431
 31
0.0
  0
LINE
  5
567B
330
5654
100
AcDbEntity
  8
TITLE
100
AcDbLine
 10
18.46223401395335
 20
0.8590073451518431
 30
0.0
 11
18.5107716360781
 21
0.8590073451518431
 31
0.0
  0
ARC
  5
567C
330
5654
100
AcDbEntity
  8
TITLE
100
AcDbCircle
 10
18.52404837378307
 20
0.6367964281680929
 30
0.0
 40
0.0132767377049636
100
AcDbArc
 50
180.0
 51
262.5557159022863
  0
ARC
  5
567D
330
5654
100
AcDbEntity
  8
TITLE
100
AcDbCircle
 10
18.52060805176588
 20
0.6367964281680929
 30
0.0
 40
0.0132767377049636
100
AcDbArc
 50
277.4442840977136
 51
0.0
  0
ARC
  5
567E
330
5654
100
AcDbEntity
  8
TITLE
100
AcDbCircle
 10
18.56582648946438
 20
0.6100685131837765
 30
0.0
 40
0.0165959221312045
100
AcDbArc
 50
270.0
 51
0.0
  0
ARC
  5
567F
330
5654
100
AcDbEntity
  8
TITLE
100
AcDbCircle
 10
18.47882993608456
 20
0.6100685131837765
 30
0.0
 40
0.0165959221312045
100
AcDbArc
 50
180.0
 51
270.0
  0
LINE
  5
5680
330
5654
100
AcDbEntity
  8
TITLE
100
AcDbLine
 10
18.47882993608456
 20
0.5934725910525716
 30
0.0
 11
18.56582648946438
 21
0.5934725910525716
 31
0.0
  0
LINE
  5
5681
330
5654
100
AcDbEntity
  8
TITLE
100
AcDbLine
 10
18.5107716360781
 20
0.6367964281680929
 30
0.0
 11
18.5107716360781
 21
0.8590073451518431
 31
0.0
  0
LINE
  5
5682
330
5654
100
AcDbEntity
  8
TITLE
100
AcDbLine
 10
18.53388478947083
 20
0.6367964281680929
 30
0.0
 11
18.53388478947083
 21
0.8590073451518431
 31
0.0
  0
LINE
  5
5683
330
5654
100
AcDbEntity
  8
TITLE
100
AcDbLine
 10
18.46223401395335
 20
0.6100685131837765
 30
0.0
 11
18.46223401395335
 21
0.8590073451518431
 31
0.0
  0
LINE
  5
5684
330
5654
100
AcDbEntity
  8
TITLE
100
AcDbLine
 10
18.58242241159558
 20
0.6100685131837765
 30
0.0
 11
18.58242241159558
 21
0.8590073451518431
 31
0.0
  0
LINE
  5
5685
330
5654
100
AcDbEntity
  8
TITLE
100
AcDbLine
 10
18.36284745436459
 20
0.7328783369546899
 30
0.0
 11
18.29004102117746
 21
0.7328783369546899
 31
0.0
  0
LINE
  5
5686
330
5654
100
AcDbEntity
  8
TITLE
100
AcDbLine
 10
18.27732878681146
 20
0.8590073451518431
 30
0.0
 11
18.36284745436459
 21
0.8590073451518431
 31
0.0
  0
LINE
  5
5687
330
5654
100
AcDbEntity
  8
TITLE
100
AcDbLine
 10
18.29004102117746
 20
0.7196015992497254
 30
0.0
 11
18.29004102117746
 21
0.7262399681022083
 31
0.0
  0
LINE
  5
5688
330
5654
100
AcDbEntity
  8
TITLE
100
AcDbLine
 10
18.27732878681146
 20
0.5934725910525716
 30
0.0
 11
18.36284745436459
 21
0.5934725910525716
 31
0.0
  0
LINE
  5
5689
330
5654
100
AcDbEntity
  8
TITLE
100
AcDbLine
 10
18.36284745436459
 20
0.7196015992497254
 30
0.0
 11
18.29004102117746
 21
0.7196015992497254
 31
0.0
  0
LINE
  5
568A
330
5654
100
AcDbEntity
  8
TITLE
100
AcDbLine
 10
18.27732878681146
 20
0.5934725910525716
 30
0.0
 11
18.27732878681146
 21
0.8590073451518431
 31
0.0
  0
LINE
  5
568B
330
5654
100
AcDbEntity
  8
TITLE
100
AcDbLine
 10
18.29004102117746
 20
0.7328783369546899
 30
0.0
 11
18.29004102117746
 21
0.7262399681022083
 31
0.0
  0
ARC
  5
568C
330
5654
100
AcDbEntity
  8
TITLE
100
AcDbCircle
 10
18.36284745436459
 20
0.7959428410532668
 30
0.0
 40
0.063064504098577
100
AcDbArc
 50
270.0
 51
90.0
  0
ARC
  5
568D
330
5654
100
AcDbEntity
  8
TITLE
100
AcDbCircle
 10
18.36284745436459
 20
0.6565370951511494
 30
0.0
 40
0.063064504098577
100
AcDbArc
 50
270.0
 51
90.00000000000003
  0
TEXT
  5
568E
330
5654
100
AcDbEntity
  8
TITLE
100
AcDbText
 10
17.37549999999999
 20
1.197740762992484
 30
0.0
 40
0.09375
  1
PART NO.
  7
TXT
100
AcDbText
  0
TEXT
  5
568F
330
5654
100
AcDbEntity
  8
TITLE
100
AcDbText
 10
17.70237987390002
 20
0.9755983592151281
 30
0.0
 40
0.09375
  1
SCALE:
  7
TXT
100
AcDbText
  0
LINE
  5
5690
330
5654
100
AcDbEntity
  8
TITLE
100
AcDbLine
 10
17.66353790782162
 20
-0.0000000000000004
 30
0.0
 11
17.66353790782162
 21
1.127
 31
0.0
  0
TEXT
  5
5691
330
5654
100
AcDbEntity
  8
TITLE
100
AcDbText
 10
17.76389543567033
 20
0.1249999999999996
 30
0.0
 40
0.09375
  1
WILLOUGHBY, OHIO
  7
TXT
100
AcDbText
  0
TEXT
  5
5692
330
5654
100
AcDbEntity
  8
TITLE
100
AcDbText
 10
17.70461451425917
 20
0.3749999999999996
 30
0.0
 40
0.09375
  1
BUD INDUSTRIES, INC.
  7
TXT
100
AcDbText
  0
LINE
  5
5693
330
5654
100
AcDbEntity
  8
TITLE
100
AcDbLine
 10
19.36724560008882
 20
0.3819999999999992
 30
0.0
 11
21.49999999999999
 21
0.3819999999999992
 31
0.0
  0
TEXT
  5
5694
330
5654
100
AcDbEntity
  8
TITLE
100
AcDbText
 10
19.50244590285365
 20
1.197740762992484
 30
0.0
 40
0.09375
  1
DESCRIPTION
  7
TXT
100
AcDbText
  0
LINE
  5
5695
330
5654
100
AcDbEntity
  8
TITLE
100
AcDbLine
 10
16.93749999999999
 20
1.127
 30
0.0
 11
16.9375
 21
1.377
 31
0.0
  0
LINE
  5
5696
330
5654
100
AcDbEntity
  8
TITLE
100
AcDbLine
 10
16.41929648007106
 20
1.127
 30
0.0
 11
16.41929648007106
 21
1.377
 31
0.0
  0
TEXT
  5
5697
330
5654
100
AcDbEntity
  8
TITLE
100
AcDbText
 10
16.4708473600533
 20
1.197740762992484
 30
0.0
 40
0.09375
  1
REQ'D.
  7
TXT
100
AcDbText
  0
TEXT
  5
5698
330
5654
100
AcDbEntity
  8
TITLE
100
AcDbText
 10
16.06299999999999
 20
0.9728772779084607
 30
0.0
 40
0.09375
  1
MAT:
  7
TXT
100
AcDbText
  0
TEXT
  5
5699
330
5654
100
AcDbEntity
  8
TITLE
100
AcDbText
 10
16.05657245370309
 20
1.199407818911626
 30
0.0
 40
0.09375
  1
ITEM
  7
TXT
100
AcDbText
  0
TEXT
  5
569A
330
5654
100
AcDbEntity
  8
TITLE
100
AcDbText
 10
16.06299999999999
 20
0.3124999999999996
 30
0.0
 40
0.09375
  1
CH.
  7
TXT
100
AcDbText
  0
TEXT
  5
569B
330
5654
100
AcDbEntity
  8
TITLE
100
AcDbText
 10
16.06299999999999
 20
0.5693740809498898
 30
0.0
 40
0.09375
  1
DR.
  7
TXT
100
AcDbText
  0
TEXT
  5
569C
330
5654
100
AcDbEntity
  8
TITLE
100
AcDbText
 10
16.06299999999999
 20
0.7741181638829385
 30
0.0
 40
0.09375
  1
FINISH:
  7
TXT
100
AcDbText
  0
TEXT
  5
569D
330
5654
100
AcDbEntity
  8
TITLE
100
AcDbText
 10
16.06299999999999
 20
0.0624999999999996
 30
0.0
 40
0.09375
  1
APP.
  7
TXT
100
AcDbText
  0
LINE
  5
569E
330
5654
100
AcDbEntity
  8
TITLE
100
AcDbLine
 10
16.6977560980471
 20
-0.0000000000000004
 30
0.0
 11
16.69775609804711
 21
0.709000000000001
 31
0.0
  0
LINE
  5
569F
330
5654
100
AcDbEntity
  8
TITLE
100
AcDbLine
 10
16.00049999999999
 20
-0.0000000000000004
 30
0.0
 11
16.00049999999999
 21
1.377
 31
0.0
  0
TEXT
  5
56A0
330
5654
100
AcDbEntity
  8
TITLE
100
AcDbText
 10
14.04590599630992
 20
0.9520717565666277
 30
0.0
 40
0.1117888355610499
  1
%%uTOLERANCES:
  7
TXT
100
AcDbText
  0
TEXT
  5
56A1
330
5654
100
AcDbEntity
  8
TITLE
100
AcDbText
 10
14.09148536758392
 20
0.2344895723568654
 30
0.0
 40
0.0772424143690822
  1
    SURFACES
  7
TXT
100
AcDbText
  0
TEXT
  5
56A2
330
5654
100
AcDbEntity
  8
TITLE
100
AcDbText
 10
13.99371994674778
 20
0.7494390014840789
 30
0.0
 40
0.0772424143690822
  1
%%p.005 BETWEEN HOLE CENTERS
  7
TXT
100
AcDbText
  0
TEXT
  5
56A3
330
5654
100
AcDbEntity
  8
TITLE
100
AcDbText
 10
13.99371994674778
 20
0.6207016442022755
 30
0.0
 40
0.0772424143690822
  1
%%p.015 FROM SHEARED EDGE
  7
TXT
100
AcDbText
  0
TEXT
  5
56A4
330
5654
100
AcDbEntity
  8
TITLE
100
AcDbText
 10
13.99371994674778
 20
0.4919642869204704
 30
0.0
 40
0.0772424143690822
  1
%%p.032 FROM A BENT SURFACE
  7
TXT
100
AcDbText
  0
TEXT
  5
56A5
330
5654
100
AcDbEntity
  8
TITLE
100
AcDbText
 10
13.99864980528381
 20
0.0564750904941671
 30
0.0
 40
0.0772424143690822
  1
UNLESS OTHERWISE SPECIFIED
  7
TXT
100
AcDbText
  0
TEXT
  5
56A6
330
5654
100
AcDbEntity
  8
TITLE
100
AcDbText
 10
13.99371994674778
 20
0.363226929638667
 30
0.0
 40
0.0772424143690822
  1
%%p.063 BETWEEN ASSEMBLED
  7
TXT
100
AcDbText
  0
LINE
  5
56A7
330
5654
100
AcDbEntity
  8
TITLE
100
AcDbLine
 10
12.39499999999999
 20
0.0000000000000013
 30
0.0
 11
12.39499999999999
 21
0.2499999999999996
 31
0.0
  0
TEXT
  5
56A8
330
5654
100
AcDbEntity
  8
TITLE
100
AcDbText
 10
12.81725974114937
 20
0.0776282744477839
 30
0.0
 40
0.09375
  1
USED ON
  7
TXT
100
AcDbText
  0
LINE
  5
56A9
330
5654
100
AcDbEntity
  8
TITLE
100
AcDbLine
 10
13.92249999999999
 20
0.0000000000000013
 30
0.0
 11
13.92249999999999
 21
1.127
 31
0.0
  0
LINE
  5
56AA
330
5654
100
AcDbEntity
  8
TITLE
100
AcDbLine
 10
12.01999999999999
 20
0.2499999999999996
 30
0.0
 11
13.92249999999999
 21
0.2499999999999996
 31
0.0
  0
LINE
  5
56AB
330
5654
100
AcDbEntity
  8
TITLE
100
AcDbLine
 10
13.92249999999999
 20
1.127
 30
0.0
 11
12.01999999999999
 21
1.127
 31
0.0
  0
TEXT
  5
56AC
330
5654
100
AcDbEntity
  8
TITLE
100
AcDbText
 10
12.07174918381226
 20
0.0776282744477839
 30
0.0
 40
0.09375
  1
QTY.
  7
TXT
100
AcDbText
  0
LINE
  5
56AD
330
5654
100
AcDbEntity
  8
TITLE
100
AcDbLine
 10
16.00049999999999
 20
1.377
 30
0.0
 11
12.01999999999999
 21
1.377
 31
0.0
  0
LINE
  5
56AE
330
5654
100
AcDbEntity
  8
TITLE
100
AcDbLine
 10
16.00049999999999
 20
1.377
 30
0.0
 11
21.49999999999999
 21
1.377
 31
0.0
  0
LINE
  5
56AF
330
5654
100
AcDbEntity
  8
TITLE
100
AcDbLine
 10
13.92249999999999
 20
1.127
 30
0.0
 11
21.49999999999999
 21
1.127
 31
0.0
  0
LINE
  5
56B0
330
5654
100
AcDbEntity
  8
TITLE
100
AcDbLine
 10
16.00049999999999
 20
0.9180000000000006
 30
0.0
 11
19.36724560008882
 21
0.9180000000000006
 31
0.0
  0
LINE
  5
56B1
330
5654
100
AcDbEntity
  8
TITLE
100
AcDbLine
 10
16.00049999999999
 20
0.2499999999999996
 30
0.0
 11
17.66353790782162
 21
0.2499999999999996
 31
0.0
  0
LINE
  5
56B2
330
5654
100
AcDbEntity
  8
TITLE
100
AcDbLine
 10
16.00049999999999
 20
0.709000000000001
 30
0.0
 11
17.66353790782162
 21
0.709000000000001
 31
0.0
  0
LINE
  5
56B3
330
5654
100
AcDbEntity
  8
TITLE
100
AcDbLine
 10
16.00049999999999
 20
0.4999999999999996
 30
0.0
 11
17.66353790782162
 21
0.4999999999999996
 31
0.0
  0
LINE
  5
56B4
330
5654
100
AcDbEntity
  8
TITLE
100
AcDbLine
 10
21.49999999999999
 20
15.625
 30
0.0
 11
21.49999999999999
 21
0.0
 31
0.0
  0
LINE
  5
56B5
330
5654
100
AcDbEntity
  8
TITLE
100
AcDbLine
 10
0.0
 20
15.625
 30
0.0
 11
21.49999999999999
 21
15.625
 31
0.0
  0
ENDBLK
  5
56B7
330
5654
100
AcDbEntity
  8
0
100
AcDbBlockEnd
  0
BLOCK
  5
570C
330
5701
100
AcDbEntity
  8
0
100
AcDbBlockBegin
  2
*D22
 70
     1
 10
0.0
 20
0.0
 30
0.0
  3
*D22
  1

  0
LINE
  5
5702
330
5701
100
AcDbEntity
  8
0
 62
     1
370
    -2
100
AcDbLine
 10
87.33636341243432
 20
48.66635123037347
 30
0.0
 11
87.33636341243432
 21
50.0266351535756
 31
0.0
  0
LINE
  5
5703
330
5701
100
AcDbEntity
  8
0
 62
     1
370
    -2
100
AcDbLine
 10
84.73752031415884
 20
49.62677631608475
 30
0.0
 11
84.73752031415884
 21
50.0266351535756
 31
0.0
  0
LINE
  5
5704
330
5701
100
AcDbEntity
  8
0
 62
     1
370
    -2
100
AcDbLine
 10
87.15636341243431
 20
49.92663515357559
 30
0.0
 11
86.33904111295553
 21
49.92663515357559
 31
0.0
  0
LINE
  5
5705
330
5701
100
AcDbEntity
  8
0
 62
     1
370
    -2
100
AcDbLine
 10
84.91752031415884
 20
49.92663515357559
 30
0.0
 11
85.73484261363764
 21
49.92663515357559
 31
0.0
  0
SOLID
  5
5706
330
5701
100
AcDbEntity
  8
0
 62
     1
100
AcDbTrace
 10
87.15636341243431
 20
49.95663515357559
 30
0.0
 11
87.15636341243431
 21
49.89663515357559
 31
0.0
 12
87.33636341243432
 22
49.92663515357559
 32
0.0
 13
87.33636341243432
 23
49.92663515357559
 33
0.0
  0
SOLID
  5
5707
330
5701
100
AcDbEntity
  8
0
 62
     1
100
AcDbTrace
 10
84.91752031415884
 20
49.95663515357559
 30
0.0
 11
84.91752031415884
 21
49.89663515357559
 31
0.0
 12
84.73752031415884
 22
49.92663515357559
 32
0.0
 13
84.73752031415884
 23
49.92663515357559
 33
0.0
  0
MTEXT
  5
5708
330
5701
100
AcDbEntity
  8
0
 62
     4
100
AcDbMText
 10
86.0369418632966
 20
49.92663515357559
 30
0.0
 40
0.125
 41
0.0
 71
     5
 72
     1
  1
\A1;2.599
 73
     1
 44
1.0
  0
POINT
  5
5709
330
5701
100
AcDbEntity
  8
DEFPOINTS
 62
     0
100
AcDbPoint
 10
87.33636341243432
 20
48.60385123037347
 30
0.0
  0
POINT
  5
570A
330
5701
100
AcDbEntity
  8
DEFPOINTS
 62
     0
100
AcDbPoint
 10
84.73752031415884
 20
49.56427631608476
 30
0.0
  0
POINT
  5
570B
330
5701
100
AcDbEntity
  8
DEFPOINTS
 62
     0
100
AcDbPoint
 10
84.73752031415884
 20
49.92663515357559
 30
0.0
  0
ENDBLK
  5
570D
330
5701
100
AcDbEntity
  8
0
100
AcDbBlockEnd
  0
BLOCK
  5
5726
330
571B
100
AcDbEntity
  8
0
100
AcDbBlockBegin
  2
*D23
 70
     1
 10
0.0
 20
0.0
 30
0.0
  3
*D23
  1

  0
LINE
  5
571C
330
571B
100
AcDbEntity
  8
0
 62
     1
370
    -2
100
AcDbLine
 10
84.64936341243433
 20
49.50177631608478
 30
0.0
 11
84.64936341243433
 21
48.62568659462537
 31
0.0
  0
LINE
  5
571D
330
571B
100
AcDbEntity
  8
0
 62
     1
370
    -2
100
AcDbLine
 10
90.02336341243433
 20
49.50177631608475
 30
0.0
 11
90.02336341243433
 21
48.62568659462537
 31
0.0
  0
LINE
  5
571E
330
571B
100
AcDbEntity
  8
0
 62
     1
370
    -2
100
AcDbLine
 10
84.82936341243433
 20
48.72568659462537
 30
0.0
 11
87.03571368528562
 21
48.72568659462537
 31
0.0
  0
LINE
  5
571F
330
571B
100
AcDbEntity
  8
0
 62
     1
370
    -2
100
AcDbLine
 10
89.84336341243432
 20
48.72568659462537
 30
0.0
 11
87.63701313958305
 21
48.72568659462537
 31
0.0
  0
SOLID
  5
5720
330
571B
100
AcDbEntity
  8
0
 62
     1
100
AcDbTrace
 10
84.82936341243433
 20
48.75568659462537
 30
0.0
 11
84.82936341243433
 21
48.69568659462537
 31
0.0
 12
84.64936341243433
 22
48.72568659462537
 32
0.0
 13
84.64936341243433
 23
48.72568659462537
 33
0.0
  0
SOLID
  5
5721
330
571B
100
AcDbEntity
  8
0
 62
     1
100
AcDbTrace
 10
89.84336341243432
 20
48.75568659462537
 30
0.0
 11
89.84336341243432
 21
48.69568659462537
 31
0.0
 12
90.02336341243433
 22
48.72568659462537
 32
0.0
 13
90.02336341243433
 23
48.72568659462537
 33
0.0
  0
MTEXT
  5
5722
330
571B
100
AcDbEntity
  8
0
 62
     4
100
AcDbMText
 10
87.33636341243434
 20
48.72568659462537
 30
0.0
 40
0.125
 41
0.0
 71
     5
 72
     1
  1
\A1;5.374
 73
     1
 44
1.0
  0
POINT
  5
5723
330
571B
100
AcDbEntity
  8
DEFPOINTS
 62
     0
100
AcDbPoint
 10
84.64936341243433
 20
49.56427631608478
 30
0.0
  0
POINT
  5
5724
330
571B
100
AcDbEntity
  8
DEFPOINTS
 62
     0
100
AcDbPoint
 10
90.02336341243433
 20
49.56427631608475
 30
0.0
  0
POINT
  5
5725
330
571B
100
AcDbEntity
  8
DEFPOINTS
 62
     0
100
AcDbPoint
 10
90.02336341243433
 20
48.72568659462537
 30
0.0
  0
ENDBLK
  5
5727
330
571B
100
AcDbEntity
  8
0
100
AcDbBlockEnd
  0
BLOCK
  5
5734
330
5729
100
AcDbEntity
  8
0
100
AcDbBlockBegin
  2
*D24
 70
     1
 10
0.0
 20
0.0
 30
0.0
  3
*D24
  1

  0
LINE
  5
572A
330
5729
100
AcDbEntity
  8
0
 62
     1
370
    -2
100
AcDbLine
 10
84.96136341243433
 20
50.53647840152576
 30
0.0
 11
84.96136341243433
 21
51.22758371252582
 31
0.0
  0
LINE
  5
572B
330
5729
100
AcDbEntity
  8
0
 62
     1
370
    -2
100
AcDbLine
 10
89.71136341243433
 20
50.53647840152576
 30
0.0
 11
89.71136341243433
 21
51.22758371252582
 31
0.0
  0
LINE
  5
572C
330
5729
100
AcDbEntity
  8
0
 62
     1
370
    -2
100
AcDbLine
 10
85.14136341243434
 20
51.12758371252581
 30
0.0
 11
87.03315570438521
 21
51.12758371252581
 31
0.0
  0
LINE
  5
572D
330
5729
100
AcDbEntity
  8
0
 62
     1
370
    -2
100
AcDbLine
 10
89.53136341243432
 20
51.12758371252581
 30
0.0
 11
87.63957112048343
 21
51.12758371252581
 31
0.0
  0
SOLID
  5
572E
330
5729
100
AcDbEntity
  8
0
 62
     1
100
AcDbTrace
 10
85.14136341243434
 20
51.15758371252582
 30
0.0
 11
85.14136341243434
 21
51.09758371252581
 31
0.0
 12
84.96136341243433
 22
51.12758371252581
 32
0.0
 13
84.96136341243433
 23
51.12758371252581
 33
0.0
  0
SOLID
  5
572F
330
5729
100
AcDbEntity
  8
0
 62
     1
100
AcDbTrace
 10
89.53136341243432
 20
51.15758371252582
 30
0.0
 11
89.53136341243432
 21
51.09758371252581
 31
0.0
 12
89.71136341243433
 22
51.12758371252581
 32
0.0
 13
89.71136341243433
 23
51.12758371252581
 33
0.0
  0
MTEXT
  5
5730
330
5729
100
AcDbEntity
  8
0
 62
     4
100
AcDbMText
 10
87.33636341243432
 20
51.12758371252581
 30
0.0
 40
0.125
 41
0.0
 71
     5
 72
     1
  1
\A1;4.750
 73
     1
 44
1.0
  0
POINT
  5
5731
330
5729
100
AcDbEntity
  8
DEFPOINTS
 62
     0
100
AcDbPoint
 10
84.96136341243433
 20
50.47397840152576
 30
0.0
  0
POINT
  5
5732
330
5729
100
AcDbEntity
  8
DEFPOINTS
 62
     0
100
AcDbPoint
 10
89.71136341243433
 20
50.47397840152576
 30
0.0
  0
POINT
  5
5733
330
5729
100
AcDbEntity
  8
DEFPOINTS
 62
     0
100
AcDbPoint
 10
89.71136341243433
 20
51.12758371252581
 30
0.0
  0
ENDBLK
  5
5735
330
5729
100
AcDbEntity
  8
0
100
AcDbBlockEnd
  0
BLOCK
  5
5752
330
5747
100
AcDbEntity
  8
0
100
AcDbBlockBegin
  2
*D25
 70
     1
 10
0.0
 20
0.0
 30
0.0
  3
*D25
  1

  0
LINE
  5
5748
330
5747
100
AcDbEntity
  8
0
 62
     1
370
    -2
100
AcDbLine
 10
94.0031555603438
 20
58.84049642369403
 30
0.0
 11
93.0179981005364
 21
58.84049642369403
 31
0.0
  0
LINE
  5
5749
330
5747
100
AcDbEntity
  8
0
 62
     1
370
    -2
100
AcDbLine
 10
94.00315556034378
 20
52.54449642369404
 30
0.0
 11
93.0179981005364
 21
52.54449642369404
 31
0.0
  0
LINE
  5
574A
330
5747
100
AcDbEntity
  8
0
 62
     1
370
    -2
100
AcDbLine
 10
93.1179981005364
 20
58.66049642369404
 30
0.0
 11
93.1179981005364
 21
55.84631804715924
 31
0.0
  0
LINE
  5
574B
330
5747
100
AcDbEntity
  8
0
 62
     1
370
    -2
100
AcDbLine
 10
93.1179981005364
 20
52.72449642369403
 30
0.0
 11
93.1179981005364
 21
55.53867480022882
 31
0.0
  0
SOLID
  5
574C
330
5747
100
AcDbEntity
  8
0
 62
     1
100
AcDbTrace
 10
93.0879981005364
 20
58.66049642369404
 30
0.0
 11
93.1479981005364
 21
58.66049642369404
 31
0.0
 12
93.1179981005364
 22
58.84049642369403
 32
0.0
 13
93.1179981005364
 23
58.84049642369403
 33
0.0
  0
SOLID
  5
574D
330
5747
100
AcDbEntity
  8
0
 62
     1
100
AcDbTrace
 10
93.0879981005364
 20
52.72449642369403
 30
0.0
 11
93.1479981005364
 21
52.72449642369403
 31
0.0
 12
93.1179981005364
 22
52.54449642369404
 32
0.0
 13
93.1179981005364
 23
52.54449642369404
 33
0.0
  0
MTEXT
  5
574E
330
5747
100
AcDbEntity
  8
0
 62
     4
100
AcDbMText
 10
93.11799810053638
 20
55.69249642369404
 30
0.0
 40
0.125
 41
0.0
 71
     5
 72
     1
  1
\A1;6.296
 73
     1
 44
1.0
  0
POINT
  5
574F
330
5747
100
AcDbEntity
  8
DEFPOINTS
 62
     0
100
AcDbPoint
 10
94.06565556034379
 20
58.84049642369403
 30
0.0
  0
POINT
  5
5750
330
5747
100
AcDbEntity
  8
DEFPOINTS
 62
     0
100
AcDbPoint
 10
94.06565556034378
 20
52.54449642369404
 30
0.0
  0
POINT
  5
5751
330
5747
100
AcDbEntity
  8
DEFPOINTS
 62
     0
100
AcDbPoint
 10
93.1179981005364
 20
52.54449642369404
 30
0.0
  0
ENDBLK
  5
5753
330
5747
100
AcDbEntity
  8
0
100
AcDbBlockEnd
  0
BLOCK
  5
5760
330
5755
100
AcDbEntity
  8
0
100
AcDbBlockBegin
  2
*D26
 70
     1
 10
0.0
 20
0.0
 30
0.0
  3
*D26
  1

  0
LINE
  5
5756
330
5755
100
AcDbEntity
  8
0
 62
     1
370
    -2
100
AcDbLine
 10
95.03785764578479
 20
58.84049642369402
 30
0.0
 11
95.99404581772517
 21
58.84049642369402
 31
0.0
  0
LINE
  5
5757
330
5755
100
AcDbEntity
  8
0
 62
     1
370
    -2
100
AcDbLine
 10
95.03785764578479
 20
52.54449642369403
 30
0.0
 11
95.99404581772517
 21
52.54449642369403
 31
0.0
  0
LINE
  5
5758
330
5755
100
AcDbEntity
  8
0
 62
     1
370
    -2
100
AcDbLine
 10
95.89404581772518
 20
58.66049642369402
 30
0.0
 11
95.89404581772518
 21
55.84631804715924
 31
0.0
  0
LINE
  5
5759
330
5755
100
AcDbEntity
  8
0
 62
     1
370
    -2
100
AcDbLine
 10
95.89404581772518
 20
52.72449642369402
 30
0.0
 11
95.89404581772518
 21
55.53867480022881
 31
0.0
  0
SOLID
  5
575A
330
5755
100
AcDbEntity
  8
0
 62
     1
100
AcDbTrace
 10
95.86404581772518
 20
58.66049642369402
 30
0.0
 11
95.92404581772518
 21
58.66049642369402
 31
0.0
 12
95.89404581772518
 22
58.84049642369402
 32
0.0
 13
95.89404581772518
 23
58.84049642369402
 33
0.0
  0
SOLID
  5
575B
330
5755
100
AcDbEntity
  8
0
 62
     1
100
AcDbTrace
 10
95.86404581772518
 20
52.72449642369402
 30
0.0
 11
95.92404581772518
 21
52.72449642369402
 31
0.0
 12
95.89404581772518
 22
52.54449642369403
 32
0.0
 13
95.89404581772518
 23
52.54449642369403
 33
0.0
  0
MTEXT
  5
575C
330
5755
100
AcDbEntity
  8
0
 62
     4
100
AcDbMText
 10
95.89404581772518
 20
55.69249642369404
 30
0.0
 40
0.125
 41
0.0
 71
     5
 72
     1
  1
\A1;6.296
 73
     1
 44
1.0
  0
POINT
  5
575D
330
5755
100
AcDbEntity
  8
DEFPOINTS
 62
     0
100
AcDbPoint
 10
94.97535764578479
 20
58.84049642369402
 30
0.0
  0
POINT
  5
575E
330
5755
100
AcDbEntity
  8
DEFPOINTS
 62
     0
100
AcDbPoint
 10
94.97535764578477
 20
52.54449642369403
 30
0.0
  0
POINT
  5
575F
330
5755
100
AcDbEntity
  8
DEFPOINTS
 62
     0
100
AcDbPoint
 10
95.89404581772518
 20
52.54449642369403
 30
0.0
  0
ENDBLK
  5
5761
330
5755
100
AcDbEntity
  8
0
100
AcDbBlockEnd
  0
ENDSEC
  0
SECTION
  2
ENTITIES
  0
MTEXT
  5
1B9F
330
19
100
AcDbEntity
  8
0
 62
     4
100
AcDbMText
 10
9.899042505138194
 20
7.797816396439145
 30
0.0
 40
0.125
 41
0.0
 71
     4
 72
     1
  1
\A1;
 73
     1
 44
1.0
1001
ACAD
1000
MTEXTBEGIN
1070
    73
1070
     1
1070
    44
1040
1.0
1070
    74
1070
     0
1000
MTEXTEND
  0
MTEXT
  5
1CE4
330
19
100
AcDbEntity
  8
0
 62
     4
100
AcDbMText
 10
12.89254718568397
 20
20.7979334242222
 30
0.0
 40
0.125
 41
0.0
 71
     4
 72
     1
  1
\A1;
 73
     1
 44
1.0
1001
ACAD
1000
MTEXTBEGIN
1070
    73
1070
     1
1070
    44
1040
1.0
1070
    74
1070
     0
1000
MTEXTEND
  0
MTEXT
  5
2CEE
330
19
100
AcDbEntity
  8
0
 62
     4
100
AcDbMText
 10
9.890399818237622
 20
8.918457966797902
 30
0.0
 40
0.125
 41
0.0
 71
     4
 72
     1
  1
\A1;
 73
     1
 44
1.0
1001
ACAD
1000
MTEXTBEGIN
1070
    73
1070
     1
1070
    44
1040
1.0
1070
    74
1070
     0
1000
MTEXTEND
  0
MTEXT
  5
3116
330
19
100
AcDbEntity
  8
0
 62
     4
100
AcDbMText
 10
35.81221690290858
 20
104.6524265605371
 30
0.0
 40
0.125
 41
0.0
 71
     6
 72
     1
  1
\A1;
 73
     1
 44
1.0
1001
ACAD
1000
MTEXTBEGIN
1070
    73
1070
     1
1070
    44
1040
1.0
1070
    74
1070
     0
1000
MTEXTEND
  0
MTEXT
  5
3117
330
19
100
AcDbEntity
  8
0
 62
     4
100
AcDbMText
 10
34.6541498473062
 20
104.976794635457
 30
0.0
 40
0.125
 41
0.0
 71
     4
 72
     1
  1
\A1;
 73
     1
 44
1.0
1001
ACAD
1000
MTEXTBEGIN
1070
    73
1070
     1
1070
    44
1040
1.0
1070
    74
1070
     0
1000
MTEXTEND
  0
MTEXT
  5
3118
330
19
100
AcDbEntity
  8
0
 62
     4
100
AcDbMText
 10
30.57732388896855
 20
102.5189542710527
 30
0.0
 40
0.125
 41
0.0
 71
     6
 72
     1
  1
\A1;
 73
     1
 44
1.0
1001
ACAD
1000
MTEXTBEGIN
1070
    73
1070
     1
1070
    44
1040
1.0
1070
    74
1070
     0
1000
MTEXTEND
  0
MTEXT
  5
3119
330
19
100
AcDbEntity
  8
0
 62
     4
100
AcDbMText
 10
31.08137011571386
 20
101.973306016852
 30
0.0
 40
0.125
 41
0.0
 71
     6
 72
     1
  1
\A1;
 73
     1
 44
1.0
1001
ACAD
1000
MTEXTBEGIN
1070
    73
1070
     1
1070
    44
1040
1.0
1070
    74
1070
     0
1000
MTEXTEND
  0
MTEXT
  5
311A
330
19
100
AcDbEntity
  8
0
 62
     4
100
AcDbMText
 10
30.70927708472572
 20
100.7295706811575
 30
0.0
 40
0.125
 41
0.0
 71
     6
 72
     1
  1
\A1;
 73
     1
 44
1.0
1001
ACAD
1000
MTEXTBEGIN
1070
    73
1070
     1
1070
    44
1040
1.0
1070
    74
1070
     0
1000
MTEXTEND
  0
MTEXT
  5
311B
330
19
100
AcDbEntity
  8
0
 62
     4
100
AcDbMText
 10
30.76199628737757
 20
100.4788917564995
 30
0.0
 40
0.125
 41
0.0
 71
     6
 72
     1
  1
\A1;
 73
     1
 44
1.0
1001
ACAD
1000
MTEXTBEGIN
1070
    73
1070
     1
1070
    44
1040
1.0
1070
    74
1070
     0
1000
MTEXTEND
  0
MTEXT
  5
311C
330
19
100
AcDbEntity
  8
0
 62
     4
100
AcDbMText
 10
45.52296494740388
 20
89.10972118673678
 30
0.0
 40
0.125
 41
0.0
 71
     6
 72
     1
  1
\A1;
 73
     1
 44
1.0
1001
ACAD
1000
MTEXTBEGIN
1070
    73
1070
     1
1070
    44
1040
1.0
1070
    74
1070
     0
1000
MTEXTEND
  0
MTEXT
  5
311D
330
19
100
AcDbEntity
  8
0
 62
     4
100
AcDbMText
 10
51.507954309046
 20
87.15900875418688
 30
0.0
 40
0.125
 41
0.0
 71
     4
 72
     1
  1
\A1;
 73
     1
 44
1.0
1001
ACAD
1000
MTEXTBEGIN
1070
    73
1070
     1
1070
    44
1040
1.0
1070
    74
1070
     0
1000
MTEXTEND
  0
MTEXT
  5
311E
330
19
100
AcDbEntity
  8
0
 62
     4
100
AcDbMText
 10
24.83774353921135
 20
81.71696613116465
 30
0.0
 40
0.125
 41
0.0
 71
     4
 72
     1
  1
\A1;
 73
     1
 44
1.0
1001
ACAD
1000
MTEXTBEGIN
1070
    73
1070
     1
1070
    44
1040
1.0
1070
    74
1070
     0
1000
MTEXTEND
  0
MTEXT
  5
311F
330
19
100
AcDbEntity
  8
0
 62
     4
100
AcDbMText
 10
20.89666124876208
 20
77.96286176114233
 30
0.0
 40
0.125
 41
0.0
 71
     6
 72
     1
  1
\A1;
 73
     1
 44
1.0
1001
ACAD
1000
MTEXTBEGIN
1070
    73
1070
     1
1070
    44
1040
1.0
1070
    74
1070
     0
1000
MTEXTEND
  0
MTEXT
  5
3120
330
19
100
AcDbEntity
  8
0
 62
     4
100
AcDbMText
 10
21.2116160384108
 20
78.71335515977751
 30
0.0
 40
0.125
 41
0.0
 71
     6
 72
     1
  1
\A1;
 73
     1
 44
1.0
1001
ACAD
1000
MTEXTBEGIN
1070
    73
1070
     1
1070
    44
1040
1.0
1070
    74
1070
     0
1000
MTEXTEND
  0
MTEXT
  5
3121
330
19
100
AcDbEntity
  8
0
 62
     4
100
AcDbMText
 10
20.78360056471346
 20
79.26210302204644
 30
0.0
 40
0.125
 41
0.0
 71
     6
 72
     1
  1
\A1;
 73
     1
 44
1.0
1001
ACAD
1000
MTEXTBEGIN
1070
    73
1070
     1
1070
    44
1040
1.0
1070
    74
1070
     0
1000
MTEXTEND
  0
MTEXT
  5
3122
330
19
100
AcDbEntity
  8
0
 62
     4
100
AcDbMText
 10
29.24633693239244
 20
80.91780905111113
 30
0.0
 40
0.125
 41
0.0
 71
     6
 72
     1
  1
\A1;
 73
     1
 44
1.0
1001
ACAD
1000
MTEXTBEGIN
1070
    73
1070
     1
1070
    44
1040
1.0
1070
    74
1070
     0
1000
MTEXTEND
  0
MTEXT
  5
3123
330
19
100
AcDbEntity
  8
0
 62
     4
100
AcDbMText
 10
35.11851621523297
 20
78.98075706575692
 30
0.0
 40
0.125
 41
0.0
 71
     4
 72
     1
  1
\A1;
 73
     1
 44
1.0
1001
ACAD
1000
MTEXTBEGIN
1070
    73
1070
     1
1070
    44
1040
1.0
1070
    74
1070
     0
1000
MTEXTEND
  0
MTEXT
  5
3124
330
19
100
AcDbEntity
  8
0
 62
     5
100
AcDbMText
 10
25.12341868621288
 20
81.6411486002161
 30
0.0
 40
0.125
 41
0.0
 71
     4
 72
     1
  1
\A1;
 73
     1
 44
1.0
1001
ACAD
1000
MTEXTBEGIN
1070
    73
1070
     1
1070
    44
1040
1.0
1070
    74
1070
     0
1000
MTEXTEND
  0
MTEXT
  5
3125
330
19
100
AcDbEntity
  8
0
 62
     5
100
AcDbMText
 10
21.03506313700924
 20
79.02407262645929
 30
0.0
 40
0.125
 41
0.0
 71
     6
 72
     1
  1
\A1;
 73
     1
 44
1.0
1001
ACAD
1000
MTEXTBEGIN
1070
    73
1070
     1
1070
    44
1040
1.0
1070
    74
1070
     0
1000
MTEXTEND
  0
MTEXT
  5
3126
330
19
100
AcDbEntity
  8
0
 62
     5
100
AcDbMText
 10
21.30203951620251
 20
78.37698930231709
 30
0.0
 40
0.125
 41
0.0
 71
     6
 72
     1
  1
\A1;
 73
     1
 44
1.0
1001
ACAD
1000
MTEXTBEGIN
1070
    73
1070
     1
1070
    44
1040
1.0
1070
    74
1070
     0
1000
MTEXTEND
  0
MTEXT
  5
3127
330
19
100
AcDbEntity
  8
0
 62
     5
100
AcDbMText
 10
21.02455173712229
 20
77.66573907100826
 30
0.0
 40
0.125
 41
0.0
 71
     6
 72
     1
  1
\A1;
 73
     1
 44
1.0
1001
ACAD
1000
MTEXTBEGIN
1070
    73
1070
     1
1070
    44
1040
1.0
1070
    74
1070
     0
1000
MTEXTEND
  0
MTEXT
  5
3128
330
19
100
AcDbEntity
  8
0
 62
     5
100
AcDbMText
 10
20.99586889847338
 20
76.6408629793764
 30
0.0
 40
0.125
 41
0.0
 71
     6
 72
     1
  1
\A1;
 73
     1
 44
1.0
1001
ACAD
1000
MTEXTBEGIN
1070
    73
1070
     1
1070
    44
1040
1.0
1070
    74
1070
     0
1000
MTEXTEND
  0
MTEXT
  5
3129
330
19
100
AcDbEntity
  8
0
 62
     5
100
AcDbMText
 10
29.23332013468326
 20
81.16418296563269
 30
0.0
 40
0.125
 41
0.0
 71
     6
 72
     1
  1
\A1;
 73
     1
 44
1.0
1001
ACAD
1000
MTEXTBEGIN
1070
    73
1070
     1
1070
    44
1040
1.0
1070
    74
1070
     0
1000
MTEXTEND
  0
MTEXT
  5
312A
330
19
100
AcDbEntity
  8
0
 62
     5
100
AcDbMText
 10
35.08868162113635
 20
78.78544798529389
 30
0.0
 40
0.125
 41
0.0
 71
     4
 72
     1
  1
\A1;
 73
     1
 44
1.0
1001
ACAD
1000
MTEXTBEGIN
1070
    73
1070
     1
1070
    44
1040
1.0
1070
    74
1070
     0
1000
MTEXTEND
  0
MTEXT
  5
312B
330
19
100
AcDbEntity
  8
0
 62
     5
100
AcDbMText
 10
30.48931617485947
 20
74.98203242014722
 30
0.0
 40
0.125
 41
0.0
 71
     4
 72
     1
  1
\A1;
 73
     1
 44
1.0
1001
ACAD
1000
MTEXTBEGIN
1070
    73
1070
     1
1070
    44
1040
1.0
1070
    74
1070
     0
1000
MTEXTEND
  0
MTEXT
  5
312C
330
19
100
AcDbEntity
  8
0
 62
     4
100
AcDbMText
 10
41.66770801025162
 20
44.41454882354683
 30
0.0
 40
0.125
 41
0.0
 71
     4
 72
     1
  1
\A1;
 73
     1
 44
1.0
1001
ACAD
1000
MTEXTBEGIN
1070
    73
1070
     1
1070
    44
1040
1.0
1070
    74
1070
     0
1000
MTEXTEND
  0
MTEXT
  5
3446
330
19
100
AcDbEntity
  8
0
 62
     4
100
AcDbMText
 10
65.06170487187334
 20
90.55286773149353
 30
0.0
 40
0.125
 41
0.0
 71
     6
 72
     1
  1
\A1;
 73
     1
 44
1.0
1001
ACAD
1000
MTEXTBEGIN
1070
    73
1070
     1
1070
    44
1040
1.0
1070
    74
1070
     0
1000
MTEXTEND
  0
MTEXT
  5
3447
330
19
100
AcDbEntity
  8
0
 62
     4
100
AcDbMText
 10
63.90363781627096
 20
90.87723580641341
 30
0.0
 40
0.125
 41
0.0
 71
     4
 72
     1
  1
\A1;
 73
     1
 44
1.0
1001
ACAD
1000
MTEXTBEGIN
1070
    73
1070
     1
1070
    44
1040
1.0
1070
    74
1070
     0
1000
MTEXTEND
  0
MTEXT
  5
3448
330
19
100
AcDbEntity
  8
0
 62
     4
100
AcDbMText
 10
59.82681185793332
 20
88.41939544200915
 30
0.0
 40
0.125
 41
0.0
 71
     6
 72
     1
  1
\A1;
 73
     1
 44
1.0
1001
ACAD
1000
MTEXTBEGIN
1070
    73
1070
     1
1070
    44
1040
1.0
1070
    74
1070
     0
1000
MTEXTEND
  0
MTEXT
  5
3449
330
19
100
AcDbEntity
  8
0
 62
     4
100
AcDbMText
 10
60.33085808467862
 20
87.87374718780849
 30
0.0
 40
0.125
 41
0.0
 71
     6
 72
     1
  1
\A1;
 73
     1
 44
1.0
1001
ACAD
1000
MTEXTBEGIN
1070
    73
1070
     1
1070
    44
1040
1.0
1070
    74
1070
     0
1000
MTEXTEND
  0
MTEXT
  5
344A
330
19
100
AcDbEntity
  8
0
 62
     4
100
AcDbMText
 10
59.95876505369047
 20
86.63001185211397
 30
0.0
 40
0.125
 41
0.0
 71
     6
 72
     1
  1
\A1;
 73
     1
 44
1.0
1001
ACAD
1000
MTEXTBEGIN
1070
    73
1070
     1
1070
    44
1040
1.0
1070
    74
1070
     0
1000
MTEXTEND
  0
MTEXT
  5
344B
330
19
100
AcDbEntity
  8
0
 62
     4
100
AcDbMText
 10
60.01148425634234
 20
86.37933292745591
 30
0.0
 40
0.125
 41
0.0
 71
     6
 72
     1
  1
\A1;
 73
     1
 44
1.0
1001
ACAD
1000
MTEXTBEGIN
1070
    73
1070
     1
1070
    44
1040
1.0
1070
    74
1070
     0
1000
MTEXTEND
  0
MTEXT
  5
344C
330
19
100
AcDbEntity
  8
0
 62
     4
100
AcDbMText
 10
74.77245291636865
 20
75.01016235769316
 30
0.0
 40
0.125
 41
0.0
 71
     6
 72
     1
  1
\A1;
 73
     1
 44
1.0
1001
ACAD
1000
MTEXTBEGIN
1070
    73
1070
     1
1070
    44
1040
1.0
1070
    74
1070
     0
1000
MTEXTEND
  0
MTEXT
  5
344D
330
19
100
AcDbEntity
  8
0
 62
     4
100
AcDbMText
 10
80.75744227801076
 20
73.05944992514326
 30
0.0
 40
0.125
 41
0.0
 71
     4
 72
     1
  1
\A1;
 73
     1
 44
1.0
1001
ACAD
1000
MTEXTBEGIN
1070
    73
1070
     1
1070
    44
1040
1.0
1070
    74
1070
     0
1000
MTEXTEND
  0
MTEXT
  5
344E
330
19
100
AcDbEntity
  8
0
 62
     4
100
AcDbMText
 10
54.08723150817611
 20
67.61740730212102
 30
0.0
 40
0.125
 41
0.0
 71
     4
 72
     1
  1
\A1;
 73
     1
 44
1.0
1001
ACAD
1000
MTEXTBEGIN
1070
    73
1070
     1
1070
    44
1040
1.0
1070
    74
1070
     0
1000
MTEXTEND
  0
MTEXT
  5
344F
330
19
100
AcDbEntity
  8
0
 62
     4
100
AcDbMText
 10
50.14614921772684
 20
63.86330293209873
 30
0.0
 40
0.125
 41
0.0
 71
     6
 72
     1
  1
\A1;
 73
     1
 44
1.0
1001
ACAD
1000
MTEXTBEGIN
1070
    73
1070
     1
1070
    44
1040
1.0
1070
    74
1070
     0
1000
MTEXTEND
  0
MTEXT
  5
3450
330
19
100
AcDbEntity
  8
0
 62
     4
100
AcDbMText
 10
50.46110400737557
 20
64.61379633073391
 30
0.0
 40
0.125
 41
0.0
 71
     6
 72
     1
  1
\A1;
 73
     1
 44
1.0
1001
ACAD
1000
MTEXTBEGIN
1070
    73
1070
     1
1070
    44
1040
1.0
1070
    74
1070
     0
1000
MTEXTEND
  0
MTEXT
  5
3451
330
19
100
AcDbEntity
  8
0
 62
     4
100
AcDbMText
 10
50.03308853367822
 20
65.16254419300285
 30
0.0
 40
0.125
 41
0.0
 71
     6
 72
     1
  1
\A1;
 73
     1
 44
1.0
1001
ACAD
1000
MTEXTBEGIN
1070
    73
1070
     1
1070
    44
1040
1.0
1070
    74
1070
     0
1000
MTEXTEND
  0
MTEXT
  5
3452
330
19
100
AcDbEntity
  8
0
 62
     4
100
AcDbMText
 10
58.4958249013572
 20
66.81825022206753
 30
0.0
 40
0.125
 41
0.0
 71
     6
 72
     1
  1
\A1;
 73
     1
 44
1.0
1001
ACAD
1000
MTEXTBEGIN
1070
    73
1070
     1
1070
    44
1040
1.0
1070
    74
1070
     0
1000
MTEXTEND
  0
MTEXT
  5
3453
330
19
100
AcDbEntity
  8
0
 62
     4
100
AcDbMText
 10
64.36800418419773
 20
64.88119823671332
 30
0.0
 40
0.125
 41
0.0
 71
     4
 72
     1
  1
\A1;
 73
     1
 44
1.0
1001
ACAD
1000
MTEXTBEGIN
1070
    73
1070
     1
1070
    44
1040
1.0
1070
    74
1070
     0
1000
MTEXTEND
  0
MTEXT
  5
3454
330
19
100
AcDbEntity
  8
0
 62
     5
100
AcDbMText
 10
54.37290665517764
 20
67.54158977117251
 30
0.0
 40
0.125
 41
0.0
 71
     4
 72
     1
  1
\A1;
 73
     1
 44
1.0
1001
ACAD
1000
MTEXTBEGIN
1070
    73
1070
     1
1070
    44
1040
1.0
1070
    74
1070
     0
1000
MTEXTEND
  0
MTEXT
  5
3455
330
19
100
AcDbEntity
  8
0
 62
     5
100
AcDbMText
 10
50.284551105974
 20
64.92451379741568
 30
0.0
 40
0.125
 41
0.0
 71
     6
 72
     1
  1
\A1;
 73
     1
 44
1.0
1001
ACAD
1000
MTEXTBEGIN
1070
    73
1070
     1
1070
    44
1040
1.0
1070
    74
1070
     0
1000
MTEXTEND
  0
MTEXT
  5
3456
330
19
100
AcDbEntity
  8
0
 62
     5
100
AcDbMText
 10
50.55152748516727
 20
64.27743047327348
 30
0.0
 40
0.125
 41
0.0
 71
     6
 72
     1
  1
\A1;
 73
     1
 44
1.0
1001
ACAD
1000
MTEXTBEGIN
1070
    73
1070
     1
1070
    44
1040
1.0
1070
    74
1070
     0
1000
MTEXTEND
  0
MTEXT
  5
3457
330
19
100
AcDbEntity
  8
0
 62
     5
100
AcDbMText
 10
50.27403970608705
 20
63.56618024196466
 30
0.0
 40
0.125
 41
0.0
 71
     6
 72
     1
  1
\A1;
 73
     1
 44
1.0
1001
ACAD
1000
MTEXTBEGIN
1070
    73
1070
     1
1070
    44
1040
1.0
1070
    74
1070
     0
1000
MTEXTEND
  0
MTEXT
  5
3458
330
19
100
AcDbEntity
  8
0
 62
     5
100
AcDbMText
 10
50.24535686743814
 20
62.54130415033279
 30
0.0
 40
0.125
 41
0.0
 71
     6
 72
     1
  1
\A1;
 73
     1
 44
1.0
1001
ACAD
1000
MTEXTBEGIN
1070
    73
1070
     1
1070
    44
1040
1.0
1070
    74
1070
     0
1000
MTEXTEND
  0
MTEXT
  5
3459
330
19
100
AcDbEntity
  8
0
 62
     5
100
AcDbMText
 10
58.48280810364801
 20
67.06462413658909
 30
0.0
 40
0.125
 41
0.0
 71
     6
 72
     1
  1
\A1;
 73
     1
 44
1.0
1001
ACAD
1000
MTEXTBEGIN
1070
    73
1070
     1
1070
    44
1040
1.0
1070
    74
1070
     0
1000
MTEXTEND
  0
MTEXT
  5
345A
330
19
100
AcDbEntity
  8
0
 62
     5
100
AcDbMText
 10
64.33816959010112
 20
64.6858891562503
 30
0.0
 40
0.125
 41
0.0
 71
     4
 72
     1
  1
\A1;
 73
     1
 44
1.0
1001
ACAD
1000
MTEXTBEGIN
1070
    73
1070
     1
1070
    44
1040
1.0
1070
    74
1070
     0
1000
MTEXTEND
  0
MTEXT
  5
345B
330
19
100
AcDbEntity
  8
0
 62
     5
100
AcDbMText
 10
59.73880414382423
 20
60.88247359110361
 30
0.0
 40
0.125
 41
0.0
 71
     4
 72
     1
  1
\A1;
 73
     1
 44
1.0
1001
ACAD
1000
MTEXTBEGIN
1070
    73
1070
     1
1070
    44
1040
1.0
1070
    74
1070
     0
1000
MTEXTEND
  0
MTEXT
  5
345C
330
19
100
AcDbEntity
  8
0
 62
     4
100
AcDbMText
 10
70.91719597921638
 20
30.31498999450323
 30
0.0
 40
0.125
 41
0.0
 71
     4
 72
     1
  1
\A1;
 73
     1
 44
1.0
1001
ACAD
1000
MTEXTBEGIN
1070
    73
1070
     1
1070
    44
1040
1.0
1070
    74
1070
     0
1000
MTEXTEND
  0
MTEXT
  5
3543
330
19
100
AcDbEntity
  8
0
 62
     4
100
AcDbMText
 10
48.53820631571469
 20
91.10255304380071
 30
0.0
 40
0.125
 41
0.0
 71
     6
 72
     1
  1
\A1;
 73
     1
 44
1.0
1001
ACAD
1000
MTEXTBEGIN
1070
    73
1070
     1
1070
    44
1040
1.0
1070
    74
1070
     0
1000
MTEXTEND
  0
MTEXT
  5
3544
330
19
100
AcDbEntity
  8
0
 62
     4
100
AcDbMText
 10
47.38013926011231
 20
91.42692111872058
 30
0.0
 40
0.125
 41
0.0
 71
     4
 72
     1
  1
\A1;
 73
     1
 44
1.0
1001
ACAD
1000
MTEXTBEGIN
1070
    73
1070
     1
1070
    44
1040
1.0
1070
    74
1070
     0
1000
MTEXTEND
  0
MTEXT
  5
3545
330
19
100
AcDbEntity
  8
0
 62
     4
100
AcDbMText
 10
43.30331330177467
 20
88.96908075431632
 30
0.0
 40
0.125
 41
0.0
 71
     6
 72
     1
  1
\A1;
 73
     1
 44
1.0
1001
ACAD
1000
MTEXTBEGIN
1070
    73
1070
     1
1070
    44
1040
1.0
1070
    74
1070
     0
1000
MTEXTEND
  0
MTEXT
  5
3546
330
19
100
AcDbEntity
  8
0
 62
     4
100
AcDbMText
 10
43.80735952851997
 20
88.42343250011566
 30
0.0
 40
0.125
 41
0.0
 71
     6
 72
     1
  1
\A1;
 73
     1
 44
1.0
1001
ACAD
1000
MTEXTBEGIN
1070
    73
1070
     1
1070
    44
1040
1.0
1070
    74
1070
     0
1000
MTEXTEND
  0
MTEXT
  5
3547
330
19
100
AcDbEntity
  8
0
 62
     4
100
AcDbMText
 10
43.43526649753183
 20
87.17969716442114
 30
0.0
 40
0.125
 41
0.0
 71
     6
 72
     1
  1
\A1;
 73
     1
 44
1.0
1001
ACAD
1000
MTEXTBEGIN
1070
    73
1070
     1
1070
    44
1040
1.0
1070
    74
1070
     0
1000
MTEXTEND
  0
MTEXT
  5
3548
330
19
100
AcDbEntity
  8
0
 62
     4
100
AcDbMText
 10
43.48798570018369
 20
86.9290182397631
 30
0.0
 40
0.125
 41
0.0
 71
     6
 72
     1
  1
\A1;
 73
     1
 44
1.0
1001
ACAD
1000
MTEXTBEGIN
1070
    73
1070
     1
1070
    44
1040
1.0
1070
    74
1070
     0
1000
MTEXTEND
  0
MTEXT
  5
3549
330
19
100
AcDbEntity
  8
0
 62
     4
100
AcDbMText
 10
58.24895436021
 20
75.55984767000035
 30
0.0
 40
0.125
 41
0.0
 71
     6
 72
     1
  1
\A1;
 73
     1
 44
1.0
1001
ACAD
1000
MTEXTBEGIN
1070
    73
1070
     1
1070
    44
1040
1.0
1070
    74
1070
     0
1000
MTEXTEND
  0
MTEXT
  5
354A
330
19
100
AcDbEntity
  8
0
 62
     4
100
AcDbMText
 10
64.23394372185211
 20
73.60913523745046
 30
0.0
 40
0.125
 41
0.0
 71
     4
 72
     1
  1
\A1;
 73
     1
 44
1.0
1001
ACAD
1000
MTEXTBEGIN
1070
    73
1070
     1
1070
    44
1040
1.0
1070
    74
1070
     0
1000
MTEXTEND
  0
MTEXT
  5
354B
330
19
100
AcDbEntity
  8
0
 62
     4
100
AcDbMText
 10
37.56373295201747
 20
68.16709261442821
 30
0.0
 40
0.125
 41
0.0
 71
     4
 72
     1
  1
\A1;
 73
     1
 44
1.0
1001
ACAD
1000
MTEXTBEGIN
1070
    73
1070
     1
1070
    44
1040
1.0
1070
    74
1070
     0
1000
MTEXTEND
  0
MTEXT
  5
354C
330
19
100
AcDbEntity
  8
0
 62
     4
100
AcDbMText
 10
33.6226506615682
 20
64.41298824440591
 30
0.0
 40
0.125
 41
0.0
 71
     6
 72
     1
  1
\A1;
 73
     1
 44
1.0
1001
ACAD
1000
MTEXTBEGIN
1070
    73
1070
     1
1070
    44
1040
1.0
1070
    74
1070
     0
1000
MTEXTEND
  0
MTEXT
  5
354D
330
19
100
AcDbEntity
  8
0
 62
     4
100
AcDbMText
 10
33.93760545121692
 20
65.16348164304108
 30
0.0
 40
0.125
 41
0.0
 71
     6
 72
     1
  1
\A1;
 73
     1
 44
1.0
1001
ACAD
1000
MTEXTBEGIN
1070
    73
1070
     1
1070
    44
1040
1.0
1070
    74
1070
     0
1000
MTEXTEND
  0
MTEXT
  5
354E
330
19
100
AcDbEntity
  8
0
 62
     4
100
AcDbMText
 10
33.50958997751957
 20
65.71222950531002
 30
0.0
 40
0.125
 41
0.0
 71
     6
 72
     1
  1
\A1;
 73
     1
 44
1.0
1001
ACAD
1000
MTEXTBEGIN
1070
    73
1070
     1
1070
    44
1040
1.0
1070
    74
1070
     0
1000
MTEXTEND
  0
MTEXT
  5
354F
330
19
100
AcDbEntity
  8
0
 62
     4
100
AcDbMText
 10
41.97232634519855
 20
67.36793553437471
 30
0.0
 40
0.125
 41
0.0
 71
     6
 72
     1
  1
\A1;
 73
     1
 44
1.0
1001
ACAD
1000
MTEXTBEGIN
1070
    73
1070
     1
1070
    44
1040
1.0
1070
    74
1070
     0
1000
MTEXTEND
  0
MTEXT
  5
3550
330
19
100
AcDbEntity
  8
0
 62
     4
100
AcDbMText
 10
47.84450562803908
 20
65.43088354902049
 30
0.0
 40
0.125
 41
0.0
 71
     4
 72
     1
  1
\A1;
 73
     1
 44
1.0
1001
ACAD
1000
MTEXTBEGIN
1070
    73
1070
     1
1070
    44
1040
1.0
1070
    74
1070
     0
1000
MTEXTEND
  0
MTEXT
  5
3551
330
19
100
AcDbEntity
  8
0
 62
     5
100
AcDbMText
 10
37.849408099019
 20
68.09127508347969
 30
0.0
 40
0.125
 41
0.0
 71
     4
 72
     1
  1
\A1;
 73
     1
 44
1.0
1001
ACAD
1000
MTEXTBEGIN
1070
    73
1070
     1
1070
    44
1040
1.0
1070
    74
1070
     0
1000
MTEXTEND
  0
MTEXT
  5
3552
330
19
100
AcDbEntity
  8
0
 62
     5
100
AcDbMText
 10
33.76105254981536
 20
65.47419910972286
 30
0.0
 40
0.125
 41
0.0
 71
     6
 72
     1
  1
\A1;
 73
     1
 44
1.0
1001
ACAD
1000
MTEXTBEGIN
1070
    73
1070
     1
1070
    44
1040
1.0
1070
    74
1070
     0
1000
MTEXTEND
  0
MTEXT
  5
3553
330
19
100
AcDbEntity
  8
0
 62
     5
100
AcDbMText
 10
34.02802892900862
 20
64.82711578558066
 30
0.0
 40
0.125
 41
0.0
 71
     6
 72
     1
  1
\A1;
 73
     1
 44
1.0
1001
ACAD
1000
MTEXTBEGIN
1070
    73
1070
     1
1070
    44
1040
1.0
1070
    74
1070
     0
1000
MTEXTEND
  0
MTEXT
  5
3554
330
19
100
AcDbEntity
  8
0
 62
     5
100
AcDbMText
 10
33.7505411499284
 20
64.11586555427184
 30
0.0
 40
0.125
 41
0.0
 71
     6
 72
     1
  1
\A1;
 73
     1
 44
1.0
1001
ACAD
1000
MTEXTBEGIN
1070
    73
1070
     1
1070
    44
1040
1.0
1070
    74
1070
     0
1000
MTEXTEND
  0
MTEXT
  5
3555
330
19
100
AcDbEntity
  8
0
 62
     5
100
AcDbMText
 10
33.7218583112795
 20
63.09098946263997
 30
0.0
 40
0.125
 41
0.0
 71
     6
 72
     1
  1
\A1;
 73
     1
 44
1.0
1001
ACAD
1000
MTEXTBEGIN
1070
    73
1070
     1
1070
    44
1040
1.0
1070
    74
1070
     0
1000
MTEXTEND
  0
MTEXT
  5
3556
330
19
100
AcDbEntity
  8
0
 62
     5
100
AcDbMText
 10
41.95930954748937
 20
67.61430944889626
 30
0.0
 40
0.125
 41
0.0
 71
     6
 72
     1
  1
\A1;
 73
     1
 44
1.0
1001
ACAD
1000
MTEXTBEGIN
1070
    73
1070
     1
1070
    44
1040
1.0
1070
    74
1070
     0
1000
MTEXTEND
  0
MTEXT
  5
3557
330
19
100
AcDbEntity
  8
0
 62
     5
100
AcDbMText
 10
47.81467103394247
 20
65.23557446855747
 30
0.0
 40
0.125
 41
0.0
 71
     4
 72
     1
  1
\A1;
 73
     1
 44
1.0
1001
ACAD
1000
MTEXTBEGIN
1070
    73
1070
     1
1070
    44
1040
1.0
1070
    74
1070
     0
1000
MTEXTEND
  0
MTEXT
  5
3558
330
19
100
AcDbEntity
  8
0
 62
     5
100
AcDbMText
 10
43.21530558766559
 20
61.43215890341079
 30
0.0
 40
0.125
 41
0.0
 71
     4
 72
     1
  1
\A1;
 73
     1
 44
1.0
1001
ACAD
1000
MTEXTBEGIN
1070
    73
1070
     1
1070
    44
1040
1.0
1070
    74
1070
     0
1000
MTEXTEND
  0
MTEXT
  5
3559
330
19
100
AcDbEntity
  8
0
 62
     4
100
AcDbMText
 10
54.39369742305774
 20
30.86467530681041
 30
0.0
 40
0.125
 41
0.0
 71
     4
 72
     1
  1
\A1;
 73
     1
 44
1.0
1001
ACAD
1000
MTEXTBEGIN
1070
    73
1070
     1
1070
    44
1040
1.0
1070
    74
1070
     0
1000
MTEXTEND
  0
CIRCLE
  5
463E
330
19
100
AcDbEntity
  8
JB-65B
  6
HIDDEN2
 62
     4
100
AcDbCircle
 10
84.83136341243435
 20
58.32249642369403
 30
0.0
 40
0.0938430982755
  0
CIRCLE
  5
463F
330
19
100
AcDbEntity
  8
JB-65B
  6
HIDDEN2
 62
     4
100
AcDbCircle
 10
84.83136341243435
 20
55.69249642369404
 30
0.0
 40
0.0938430982755
  0
CIRCLE
  5
4640
330
19
100
AcDbEntity
  8
JB-65B
  6
HIDDEN2
 62
     4
100
AcDbCircle
 10
84.83136341243435
 20
53.06249642369404
 30
0.0
 40
0.0938430982755
  0
LINE
  5
4641
330
19
100
AcDbEntity
  8
0
  6
CENTER2
 62
     1
100
AcDbLine
 10
90.56636341243432
 20
55.69249642369404
 30
0.0
 11
84.10636341243435
 21
55.69249642369404
 31
0.0
  0
LINE
  5
4647
330
19
100
AcDbEntity
  8
JB-65B
  6
HIDDEN2
 62
     4
100
AcDbLine
 10
84.32282001669474
 20
58.93944875741103
 30
0.0
 11
90.34990680817394
 21
58.93944875741104
 31
0.0
  0
LINE
  5
4648
330
19
100
AcDbEntity
  8
JB-65B
  6
HIDDEN2
 62
     4
100
AcDbLine
 10
84.36078247890883
 20
58.97122631449903
 30
0.0
 11
90.31194434595983
 21
58.97122631449903
 31
0.0
  0
LINE
  5
4649
330
19
100
AcDbEntity
  8
JB-65B
100
AcDbLine
 10
84.39256003599684
 20
59.07549642369403
 30
0.0
 11
90.28016678887183
 21
59.07549642369403
 31
0.0
  0
LINE
  5
464A
330
19
100
AcDbEntity
  8
JB-65B
  6
HIDDEN2
 62
     4
100
AcDbLine
 10
84.39256003599682
 20
59.02485094208504
 30
0.0
 11
90.28016678887183
 21
59.02485094208504
 31
0.0
  0
LINE
  5
464B
330
19
100
AcDbEntity
  8
JB-65B
 62
    14
100
AcDbLine
 10
84.70288774193432
 20
49.21397840152575
 30
0.0
 11
89.96983908293433
 21
49.21397840152575
 31
0.0
  0
LINE
  5
464C
330
19
100
AcDbEntity
  8
JB-65B
100
AcDbLine
 10
84.39256003599684
 20
52.30949642369404
 30
0.0
 11
90.28016678887183
 21
52.30949642369404
 31
0.0
  0
LINE
  5
464D
330
19
100
AcDbEntity
  8
JB-65B
  6
HIDDEN2
 62
     4
100
AcDbLine
 10
84.39256003599684
 20
52.36014190530304
 30
0.0
 11
90.28016678887183
 21
52.36014190530304
 31
0.0
  0
LINE
  5
464E
330
19
100
AcDbEntity
  8
JB-65B
  6
HIDDEN2
 62
     4
100
AcDbLine
 10
84.36078247890883
 20
52.41376653288904
 30
0.0
 11
90.31194434595983
 21
52.41376653288904
 31
0.0
  0
LINE
  5
464F
330
19
100
AcDbEntity
  8
JB-65B
  6
HIDDEN2
 62
     4
100
AcDbLine
 10
84.32282001669475
 20
52.44554408997704
 30
0.0
 11
90.34990680817394
 21
52.44554408997704
 31
0.0
  0
LINE
  5
4650
330
19
100
AcDbEntity
  8
JB-65B
  6
HIDDEN2
 62
     4
100
AcDbLine
 10
84.70288774193432
 20
49.31427631608475
 30
0.0
 11
89.96983908293433
 21
49.31427631608475
 31
0.0
  0
LINE
  5
4651
330
19
100
AcDbEntity
  8
JB-65B
 62
    14
100
AcDbLine
 10
84.70288774193432
 20
49.40017502508826
 30
0.0
 11
89.96983908293433
 21
49.40017502508826
 31
0.0
  0
LINE
  5
4652
330
19
100
AcDbEntity
  8
JB-65B
  6
HIDDEN2
 62
     4
100
AcDbLine
 10
84.70288774193432
 20
49.36839746800025
 30
0.0
 11
89.96983908293433
 21
49.36839746800025
 31
0.0
  0
LINE
  5
4654
330
19
100
AcDbEntity
  8
JB-65B
 62
    14
100
AcDbLine
 10
84.20636341243435
 20
49.71050273102576
 30
0.0
 11
84.20636341243435
 21
49.72040273102575
 31
0.0
  0
LWPOLYLINE
  5
4656
330
19
100
AcDbEntity
  8
JB-65B
  6
HIDDEN2
 62
     4
100
AcDbPolyline
 90
        2
 70
     0
 43
0.0
 10
84.58896774517791
 20
49.71078002844669
 10
84.59353135610198
 20
49.44933093370875
  0
ARC
  5
4657
330
19
100
AcDbEntity
  8
JB-65B
  6
HIDDEN2
 62
     4
100
AcDbCircle
 10
84.57308138657184
 20
49.71050273102576
 30
0.0
 40
0.015888778544
100
AcDbArc
 50
90.0
 51
180.0
  0
LINE
  5
4658
330
19
100
AcDbEntity
  8
JB-65B
  6
HIDDEN2
 62
     4
100
AcDbLine
 10
84.53663735704948
 20
49.44933093370875
 30
0.0
 11
84.5352793371372
 21
49.44933093370875
 31
0.0
  0
LINE
  5
4659
330
19
100
AcDbEntity
  8
JB-65B
  6
HIDDEN2
 62
     4
100
AcDbLine
 10
84.34964543829684
 20
49.72639150956974
 30
0.0
 11
84.57308138657184
 21
49.72639150956975
 31
0.0
  0
LINE
  5
465A
330
19
100
AcDbEntity
  8
JB-65B
  6
HIDDEN2
 62
     4
100
AcDbLine
 10
84.78617969844988
 20
49.56427631608475
 30
0.0
 11
84.78836141539751
 21
49.31427631608475
 31
0.0
  0
LINE
  5
465B
330
19
100
AcDbEntity
  8
JB-65B
  6
HIDDEN2
 62
     4
100
AcDbLine
 10
84.87654712641889
 20
49.56427631608475
 30
0.0
 11
84.87436540947117
 21
49.31427631608475
 31
0.0
  0
LINE
  5
465F
330
19
100
AcDbEntity
  8
JB-65B
 62
    14
100
AcDbLine
 10
84.20636341243435
 20
49.72040273102575
 30
0.0
 11
84.39256003599686
 21
49.72040273102575
 31
0.0
  0
ARC
  5
4660
330
19
100
AcDbEntity
  8
JB-65B
  6
HIDDEN2
 62
     4
100
AcDbCircle
 10
84.57308138657184
 20
49.71050273102576
 30
0.0
 40
0.015888778544
100
AcDbArc
 50
0.0
 51
90.0
  0
LINE
  5
4661
330
19
100
AcDbEntity
  8
JB-65B
  6
HIDDEN2
 62
     4
100
AcDbLine
 10
84.39256003599684
 20
49.71050273102576
 30
0.0
 11
84.39256003599684
 21
49.78197174788376
 31
0.0
  0
LINE
  5
4662
330
19
100
AcDbEntity
  8
JB-65B
  6
HIDDEN2
 62
     4
100
AcDbLine
 10
84.33375907969077
 20
49.71078002844669
 30
0.0
 11
84.33135102257821
 21
49.57282252886475
 31
0.0
  0
ARC
  5
4663
330
19
100
AcDbEntity
  8
JB-65B
  6
HIDDEN2
 62
     4
100
AcDbCircle
 10
84.34964543829684
 20
49.71050273102576
 30
0.0
 40
0.015888778544
100
AcDbArc
 50
0.0000000000008142
 51
180.0000000000007
  0
LINE
  5
4664
330
19
100
AcDbEntity
  8
JB-65B
  6
HIDDEN2
 62
     4
100
AcDbLine
 10
84.36078247890883
 20
49.71050273102576
 30
0.0
 11
84.36078247890883
 21
49.78197174788376
 31
0.0
  0
LINE
  5
4665
330
19
100
AcDbEntity
  8
JB-65B
  6
HIDDEN2
 62
     4
100
AcDbLine
 10
84.30666132699334
 20
49.71050273102576
 30
0.0
 11
84.30666132699334
 21
49.78197174788376
 31
0.0
  0
LINE
  5
4666
330
19
100
AcDbEntity
  8
JB-65B
  6
HIDDEN2
 62
     4
100
AcDbLine
 10
84.25700889404334
 20
49.78197174788376
 30
0.0
 11
84.25700889404334
 21
49.72040273102575
 31
0.0
  0
LINE
  5
4667
330
19
100
AcDbEntity
  8
JB-65B
  6
HIDDEN2
 62
     4
100
AcDbLine
 10
84.39256003599684
 20
49.78197174788376
 30
0.0
 11
84.25700889404334
 21
49.78197174788376
 31
0.0
  0
LINE
  5
4668
330
19
100
AcDbEntity
  8
JB-65B
  6
HIDDEN2
 62
     4
100
AcDbLine
 10
84.36553421684084
 20
49.71050273102576
 30
0.0
 11
84.55719260802785
 21
49.71050273102576
 31
0.0
  0
LINE
  5
466A
330
19
100
AcDbEntity
  8
JB-65B
  6
HIDDEN2
 62
     4
100
AcDbLine
 10
84.5777363021609
 20
49.3764516085896
 30
0.0
 11
84.5777363021609
 21
49.23000972701003
 31
0.0
  0
LINE
  5
466B
330
19
100
AcDbEntity
  8
JB-65B
  6
HIDDEN2
 62
     4
100
AcDbLine
 10
84.34499052270778
 20
49.3764516085896
 30
0.0
 11
84.34499052270778
 21
49.36634289860001
 31
0.0
  0
LINE
  5
466C
330
19
100
AcDbEntity
  8
JB-65B
  6
HIDDEN2
 62
     4
100
AcDbLine
 10
84.63663650074789
 20
49.44933093370876
 30
0.0
 11
84.40516844860765
 21
49.44933093370875
 31
0.0
  0
LINE
  5
466D
330
19
100
AcDbEntity
  8
JB-65B
  6
HIDDEN2
 62
     4
100
AcDbLine
 10
84.54487902690576
 20
49.41424957999048
 30
0.0
 11
84.37784779796293
 21
49.4142495799905
 31
0.0
  0
LINE
  5
466E
330
19
100
AcDbEntity
  8
JB-65B
  6
HIDDEN2
 62
     4
100
AcDbLine
 10
84.54487902690576
 20
49.41424957999048
 30
0.0
 11
84.5777363021609
 21
49.3764516085896
 31
0.0
  0
LINE
  5
466F
330
19
100
AcDbEntity
  8
JB-65B
  6
HIDDEN2
 62
     4
100
AcDbLine
 10
84.34499052270778
 20
49.3764516085896
 30
0.0
 11
84.5777363021609
 21
49.3764516085896
 31
0.0
  0
LINE
  5
4670
330
19
100
AcDbEntity
  8
JB-65B
  6
HIDDEN2
 62
     4
100
AcDbLine
 10
84.37784779796293
 20
49.4142495799905
 30
0.0
 11
84.34499052270778
 21
49.3764516085896
 31
0.0
  0
LINE
  5
4671
330
19
100
AcDbEntity
  8
JB-65B
  6
HIDDEN2
 62
     4
100
AcDbLine
 10
84.63888744304547
 20
49.32037453584422
 30
0.0
 11
84.63663650074787
 21
49.44933093370875
 31
0.0
  0
ARC
  5
4672
330
19
100
AcDbEntity
  8
JB-65B
  6
HIDDEN2
 62
     4
100
AcDbCircle
 10
84.70288774193432
 20
49.71050273102576
 30
0.0
 40
0.396226414941
100
AcDbArc
 50
180.0
 51
270.0
  0
ARC
  5
4673
330
19
100
AcDbEntity
  8
JB-65B
  6
HIDDEN2
 62
     4
100
AcDbCircle
 10
84.70288774193432
 20
49.71050273102576
 30
0.0
 40
0.3421052630255001
100
AcDbArc
 50
180.0
 51
270.0
  0
ARC
  5
4674
330
19
100
AcDbEntity
  8
JB-65B
 62
    14
100
AcDbCircle
 10
84.70288774193432
 20
49.71050273102576
 30
0.0
 40
0.3103277059375
100
AcDbArc
 50
180.0
 51
270.0
  0
LINE
  5
4675
330
19
100
AcDbEntity
  8
JB-65B
  6
HIDDEN2
 62
     4
100
AcDbLine
 10
84.51896023465634
 20
49.71050273102576
 30
0.0
 11
84.54487902690576
 21
49.41424957999048
 31
0.0
  0
LINE
  5
4676
330
19
100
AcDbEntity
  8
JB-65B
  6
HIDDEN2
 62
     4
100
AcDbLine
 10
84.40376659021234
 20
49.71050273102576
 30
0.0
 11
84.37784779796293
 21
49.4142495799905
 31
0.0
  0
ARC
  5
4677
330
19
100
AcDbEntity
  8
JB-65B
 62
    14
100
AcDbCircle
 10
84.70288774193432
 20
49.71050273102576
 30
0.0
 40
0.4965243295000001
100
AcDbArc
 50
180.0
 51
270.0
  0
CIRCLE
  5
4678
330
19
100
AcDbEntity
  8
JB-65B
  6
HIDDEN2
 62
     4
100
AcDbCircle
 10
84.83136341243435
 20
55.69249642369404
 30
0.0
 40
0.0451837139845
  0
LINE
  5
467A
330
19
100
AcDbEntity
  8
JB-65B
100
AcDbLine
 10
84.20636341243435
 20
52.49569304725653
 30
0.0
 11
84.20636341243435
 21
58.88929980013154
 31
0.0
  0
LINE
  5
467B
330
19
100
AcDbEntity
  8
JB-65B
  6
HIDDEN2
 62
     4
100
AcDbLine
 10
84.25700889404334
 20
52.49569304725653
 30
0.0
 11
84.25700889404334
 21
58.88929980013154
 31
0.0
  0
LINE
  5
467C
330
19
100
AcDbEntity
  8
JB-65B
  6
HIDDEN2
 62
     4
100
AcDbLine
 10
84.30666132699334
 20
52.49569304725653
 30
0.0
 11
84.30666132699334
 21
58.88929980013154
 31
0.0
  0
CIRCLE
  5
467D
330
19
100
AcDbEntity
  8
JB-65B
  6
HIDDEN2
 62
     4
100
AcDbCircle
 10
84.46136341243434
 20
52.81249642350054
 30
0.0
 40
0.0575968222219981
  0
CIRCLE
  5
467E
330
19
100
AcDbEntity
  8
JB-65B
  6
HIDDEN2
 62
     4
100
AcDbCircle
 10
84.46136341243434
 20
52.81249642350054
 30
0.0
 40
0.1321679436676421
  0
CIRCLE
  5
467F
330
19
100
AcDbEntity
  8
JB-65B
  6
HIDDEN2
 62
     4
100
AcDbCircle
 10
84.46136341243434
 20
52.81249642350054
 30
0.0
 40
0.095829195593499
  0
CIRCLE
  5
4680
330
19
100
AcDbEntity
  8
JB-65B
  6
HIDDEN2
 62
     4
100
AcDbCircle
 10
84.46136341243434
 20
52.81249642350054
 30
0.0
 40
0.1163728897265607
  0
ARC
  5
4681
330
19
100
AcDbEntity
  8
JB-65B
  6
HIDDEN2
 62
     4
100
AcDbCircle
 10
84.46136341243434
 20
52.81249642350054
 30
0.0
 40
0.1752730883135043
100
AcDbArc
 50
253.0170660770219
 51
106.982933922978
  0
CIRCLE
  5
4682
330
19
100
AcDbEntity
  8
JB-65B
  6
HIDDEN2
 62
     4
100
AcDbCircle
 10
84.83136341243435
 20
53.06249642369404
 30
0.0
 40
0.0451837139845
  0
LINE
  5
4683
330
19
100
AcDbEntity
  8
JB-65B
  6
HIDDEN2
 62
     4
100
AcDbLine
 10
84.39256003599684
 20
52.44554408997704
 30
0.0
 11
84.39256003599684
 21
52.41376653288904
 31
0.0
  0
ARC
  5
4684
330
19
100
AcDbEntity
  8
JB-65B
  6
HIDDEN2
 62
     4
100
AcDbCircle
 10
84.39256003599684
 20
52.49569304725653
 30
0.0
 40
0.0858987090035
100
AcDbArc
 50
180.0
 51
215.7193212773174
  0
LINE
  5
4685
330
19
100
AcDbEntity
  8
JB-65B
  6
HIDDEN2
 62
     4
100
AcDbLine
 10
84.39256003599684
 20
52.36014190530304
 30
0.0
 11
84.39256003599684
 21
52.30949642369404
 31
0.0
  0
ARC
  5
4686
330
19
100
AcDbEntity
  8
JB-65B
  6
HIDDEN2
 62
     4
100
AcDbCircle
 10
84.39256003599684
 20
52.49569304725653
 30
0.0
 40
0.1355511419535
100
AcDbArc
 50
180.0
 51
270.0
  0
ARC
  5
4687
330
19
100
AcDbEntity
  8
JB-65B
100
AcDbCircle
 10
84.39256003599684
 20
52.49569304725653
 30
0.0
 40
0.1861966235625
100
AcDbArc
 50
180.0
 51
270.0
  0
LINE
  5
4688
330
19
100
AcDbEntity
  8
JB-65B
  6
HIDDEN2
 62
     4
100
AcDbLine
 10
84.36078247890883
 20
52.41376653288904
 30
0.0
 11
84.36078247890883
 21
52.36391938163849
 31
0.0
  0
CIRCLE
  5
468A
330
19
100
AcDbEntity
  8
JB-65B
  6
HIDDEN2
 62
     4
100
AcDbCircle
 10
84.83136341243435
 20
58.32249642369403
 30
0.0
 40
0.0451837139845
  0
ARC
  5
468B
330
19
100
AcDbEntity
  8
JB-65B
100
AcDbCircle
 10
84.39256003599682
 20
58.88929980013152
 30
0.0
 40
0.1861966235625
100
AcDbArc
 50
90.00000000000007
 51
180.0
  0
ARC
  5
468C
330
19
100
AcDbEntity
  8
JB-65B
  6
HIDDEN2
 62
     4
100
AcDbCircle
 10
84.39256003599682
 20
58.88929980013152
 30
0.0
 40
0.0858987090035
100
AcDbArc
 50
144.2806787226825
 51
180.0
  0
ARC
  5
468D
330
19
100
AcDbEntity
  8
JB-65B
  6
HIDDEN2
 62
     4
100
AcDbCircle
 10
84.39256003599682
 20
58.88929980013152
 30
0.0
 40
0.1355511419535
100
AcDbArc
 50
90.00000000000007
 51
180.0
  0
LINE
  5
468E
330
19
100
AcDbEntity
  8
JB-65B
  6
HIDDEN2
 62
     4
100
AcDbLine
 10
84.39256003599682
 20
59.02485094208504
 30
0.0
 11
84.39256003599682
 21
59.07549642369403
 31
0.0
  0
LINE
  5
468F
330
19
100
AcDbEntity
  8
JB-65B
  6
HIDDEN2
 62
     4
100
AcDbLine
 10
84.39256003599682
 20
58.93944875741103
 30
0.0
 11
84.39256003599682
 21
58.97122631449903
 31
0.0
  0
LINE
  5
4690
330
19
100
AcDbEntity
  8
JB-65B
  6
HIDDEN2
 62
     4
100
AcDbLine
 10
84.36078247890883
 20
58.97122631449903
 30
0.0
 11
84.36078247890883
 21
59.02107346574957
 31
0.0
  0
ARC
  5
4691
330
19
100
AcDbEntity
  8
JB-65B
  6
HIDDEN2
 62
     4
100
AcDbCircle
 10
84.46136341243434
 20
58.57249642388753
 30
0.0
 40
0.1752730883135043
100
AcDbArc
 50
253.0170660770219
 51
106.982933922978
  0
CIRCLE
  5
4692
330
19
100
AcDbEntity
  8
JB-65B
  6
HIDDEN2
 62
     4
100
AcDbCircle
 10
84.46136341243434
 20
58.57249642388753
 30
0.0
 40
0.0575968222219981
  0
CIRCLE
  5
4693
330
19
100
AcDbEntity
  8
JB-65B
  6
HIDDEN2
 62
     4
100
AcDbCircle
 10
84.46136341243434
 20
58.57249642388753
 30
0.0
 40
0.1163728897265607
  0
CIRCLE
  5
4694
330
19
100
AcDbEntity
  8
JB-65B
  6
HIDDEN2
 62
     4
100
AcDbCircle
 10
84.46136341243434
 20
58.57249642388753
 30
0.0
 40
0.095829195593499
  0
CIRCLE
  5
4695
330
19
100
AcDbEntity
  8
JB-65B
  6
HIDDEN2
 62
     4
100
AcDbCircle
 10
84.46136341243434
 20
58.57249642388753
 30
0.0
 40
0.1321679436676421
  0
ARC
  5
46A5
330
19
100
AcDbEntity
  8
JB-65B
 62
    14
100
AcDbCircle
 10
89.96983908293435
 20
49.71050273102576
 30
0.0
 40
0.4965243295000001
100
AcDbArc
 50
270.0
 51
0.0
  0
ARC
  5
46A6
330
19
100
AcDbEntity
  8
JB-65B
 62
    14
100
AcDbCircle
 10
89.96983908293435
 20
49.71050273102576
 30
0.0
 40
0.3103277059375
100
AcDbArc
 50
270.0
 51
0.0
  0
ARC
  5
46A7
330
19
100
AcDbEntity
  8
JB-65B
  6
HIDDEN2
 62
     4
100
AcDbCircle
 10
89.96983908293435
 20
49.71050273102576
 30
0.0
 40
0.3421052630255001
100
AcDbArc
 50
270.0
 51
0.0
  0
ARC
  5
46A8
330
19
100
AcDbEntity
  8
JB-65B
  6
HIDDEN2
 62
     4
100
AcDbCircle
 10
89.96983908293435
 20
49.71050273102576
 30
0.0
 40
0.396226414941
100
AcDbArc
 50
270.0
 51
0.0
  0
LWPOLYLINE
  5
46A9
330
19
100
AcDbEntity
  8
JB-65B
  6
HIDDEN2
 62
     4
100
AcDbPolyline
 90
        4
 70
     0
 43
0.0
 10
86.32136341243434
 20
49.21397840152575
 10
86.32136341243434
 20
49.22397840152576
 10
88.35136341243433
 20
49.22397840152576
 10
88.35136341243433
 20
49.21397840152575
  0
LWPOLYLINE
  5
46AA
330
19
100
AcDbEntity
  8
JB-65B
  6
HIDDEN2
 62
     4
100
AcDbPolyline
 90
        4
 70
     0
 43
0.0
 10
84.89886341243433
 20
49.21397840152575
 10
84.89886341243433
 20
49.22397840152576
 10
85.39886341243434
 20
49.22397840152576
 10
85.39886341243434
 20
49.21397840152575
  0
LWPOLYLINE
  5
46AC
330
19
100
AcDbEntity
  8
JB-65B
  6
HIDDEN2
 62
     4
100
AcDbPolyline
 90
        4
 70
     0
 43
0.0
 10
89.7738634124343
 20
49.21397840152575
 10
89.7738634124343
 20
49.22397840152576
 10
89.27386341243431
 20
49.22397840152576
 10
89.27386341243431
 20
49.21397840152575
  0
LINE
  5
46B0
330
19
100
AcDbEntity
  8
JB-65B
  6
HIDDEN2
 62
     4
100
AcDbLine
 10
89.88654712641876
 20
49.56427631608475
 30
0.0
 11
89.88436540947112
 21
49.31427631608475
 31
0.0
  0
LINE
  5
46B1
330
19
100
AcDbEntity
  8
JB-65B
  6
HIDDEN2
 62
     4
100
AcDbLine
 10
89.79617969844976
 20
49.56427631608475
 30
0.0
 11
89.79836141539747
 21
49.31427631608475
 31
0.0
  0
LINE
  5
46B4
330
19
100
AcDbEntity
  8
JB-65B
  6
HIDDEN2
 62
     4
100
AcDbLine
 10
90.03383938182317
 20
49.32037453584422
 30
0.0
 11
90.03609032412077
 21
49.44933093370875
 31
0.0
  0
LINE
  5
46B6
330
19
100
AcDbEntity
  8
JB-65B
 62
    14
100
AcDbLine
 10
90.46636341243434
 20
49.71050273102576
 30
0.0
 11
90.46636341243434
 21
49.72040273102575
 31
0.0
  0
ARC
  5
46B7
330
19
100
AcDbEntity
  8
JB-65B
  6
HIDDEN2
 62
     4
100
AcDbCircle
 10
90.3230813865718
 20
49.71050273102576
 30
0.0
 40
0.015888778544
100
AcDbArc
 50
359.9999999999992
 51
179.9999999999991
  0
LINE
  5
46B8
330
19
100
AcDbEntity
  8
JB-65B
  6
HIDDEN2
 62
     4
100
AcDbLine
 10
90.3230813865718
 20
49.72639150956975
 30
0.0
 11
90.28016678887182
 21
49.72639150956975
 31
0.0
  0
LINE
  5
46B9
330
19
100
AcDbEntity
  8
JB-65B
  6
HIDDEN2
 62
     4
100
AcDbLine
 10
90.33896774517787
 20
49.71078002844669
 30
0.0
 11
90.34137580229042
 21
49.57282252886475
 31
0.0
  0
LINE
  5
46BA
330
19
100
AcDbEntity
  8
JB-65B
  6
HIDDEN2
 62
     4
100
AcDbLine
 10
90.32773630216087
 20
49.3764516085896
 30
0.0
 11
90.32773630216087
 21
49.36634289860001
 31
0.0
  0
LINE
  5
46BB
330
19
100
AcDbEntity
  8
JB-65B
  6
HIDDEN2
 62
     4
100
AcDbLine
 10
90.29487902690572
 20
49.4142495799905
 30
0.0
 11
90.32773630216087
 21
49.3764516085896
 31
0.0
  0
LINE
  5
46BC
330
19
100
AcDbEntity
  8
JB-65B
  6
HIDDEN2
 62
     4
100
AcDbLine
 10
90.2689602346563
 20
49.71050273102576
 30
0.0
 11
90.29487902690572
 21
49.4142495799905
 31
0.0
  0
LINE
  5
46BD
330
19
100
AcDbEntity
  8
JB-65B
  6
HIDDEN2
 62
     4
100
AcDbLine
 10
90.03609032412077
 20
49.44933093370875
 30
0.0
 11
90.26755837626101
 21
49.44933093370875
 31
0.0
  0
LINE
  5
46BE
330
19
100
AcDbEntity
  8
JB-65B
  6
HIDDEN2
 62
     4
100
AcDbLine
 10
90.12784779796289
 20
49.41424957999048
 30
0.0
 11
90.29487902690572
 21
49.4142495799905
 31
0.0
  0
LINE
  5
46BF
330
19
100
AcDbEntity
  8
JB-65B
  6
HIDDEN2
 62
     4
100
AcDbLine
 10
90.09499052270774
 20
49.3764516085896
 30
0.0
 11
90.09499052270774
 21
49.23000972701003
 31
0.0
  0
LINE
  5
46C0
330
19
100
AcDbEntity
  8
JB-65B
  6
HIDDEN2
 62
     4
100
AcDbLine
 10
90.32773630216087
 20
49.3764516085896
 30
0.0
 11
90.09499052270774
 21
49.3764516085896
 31
0.0
  0
LINE
  5
46C1
330
19
100
AcDbEntity
  8
JB-65B
  6
HIDDEN2
 62
     4
100
AcDbLine
 10
90.12784779796289
 20
49.41424957999048
 30
0.0
 11
90.09499052270774
 21
49.3764516085896
 31
0.0
  0
ARC
  5
46C2
330
19
100
AcDbEntity
  8
JB-65B
  6
HIDDEN2
 62
     4
100
AcDbCircle
 10
90.0996454382968
 20
49.71050273102576
 30
0.0
 40
0.015888778544
100
AcDbArc
 50
90.0
 51
180.0
  0
ARC
  5
46C3
330
19
100
AcDbEntity
  8
JB-65B
  6
HIDDEN2
 62
     4
100
AcDbCircle
 10
90.0996454382968
 20
49.71050273102576
 30
0.0
 40
0.015888778544
100
AcDbArc
 50
0.000000000000007
 51
90.0
  0
LINE
  5
46C4
330
19
100
AcDbEntity
  8
JB-65B
  6
HIDDEN2
 62
     4
100
AcDbLine
 10
90.30719260802781
 20
49.71050273102576
 30
0.0
 11
90.1155342168408
 21
49.71050273102576
 31
0.0
  0
LWPOLYLINE
  5
46C5
330
19
100
AcDbEntity
  8
JB-65B
  6
HIDDEN2
 62
     4
100
AcDbPolyline
 90
        2
 70
     0
 43
0.0
 10
90.08375907969073
 20
49.71078002844669
 10
90.07919546876665
 20
49.44933093370875
  0
LINE
  5
46C6
330
19
100
AcDbEntity
  8
JB-65B
  6
HIDDEN2
 62
     4
100
AcDbLine
 10
90.1537665902123
 20
49.71050273102576
 30
0.0
 11
90.12784779796289
 21
49.41424957999048
 31
0.0
  0
LINE
  5
46C7
330
19
100
AcDbEntity
  8
JB-65B
  6
HIDDEN2
 62
     4
100
AcDbLine
 10
90.2801667888718
 20
49.72639150956975
 30
0.0
 11
90.0996454382968
 21
49.72639150956975
 31
0.0
  0
LINE
  5
46C8
330
19
100
AcDbEntity
  8
JB-65B
 62
    14
100
AcDbLine
 10
90.46636341243434
 20
49.72040273102575
 30
0.0
 11
90.28016678887185
 21
49.72040273102575
 31
0.0
  0
LINE
  5
46C9
330
19
100
AcDbEntity
  8
JB-65B
  6
HIDDEN2
 62
     4
100
AcDbLine
 10
90.28016678887183
 20
49.78197174788376
 30
0.0
 11
90.41571793082534
 21
49.78197174788376
 31
0.0
  0
LINE
  5
46CA
330
19
100
AcDbEntity
  8
JB-65B
  6
HIDDEN2
 62
     4
100
AcDbLine
 10
90.41571793082534
 20
49.78197174788376
 30
0.0
 11
90.41571793082534
 21
49.72040273102575
 31
0.0
  0
LINE
  5
46CB
330
19
100
AcDbEntity
  8
JB-65B
  6
HIDDEN2
 62
     4
100
AcDbLine
 10
90.36606549787533
 20
49.71050273102576
 30
0.0
 11
90.36606549787533
 21
49.78197174788376
 31
0.0
  0
LINE
  5
46CC
330
19
100
AcDbEntity
  8
JB-65B
  6
HIDDEN2
 62
     4
100
AcDbLine
 10
90.31194434595983
 20
49.71050273102576
 30
0.0
 11
90.31194434595983
 21
49.78197174788376
 31
0.0
  0
LINE
  5
46CD
330
19
100
AcDbEntity
  8
JB-65B
  6
HIDDEN2
 62
     4
100
AcDbLine
 10
90.28016678887183
 20
49.71050273102576
 30
0.0
 11
90.28016678887183
 21
49.78197174788376
 31
0.0
  0
ARC
  5
46CE
330
19
100
AcDbEntity
  8
JB-65B
  6
HIDDEN2
 62
     4
100
AcDbCircle
 10
90.21136341243433
 20
52.81249642350054
 30
0.0
 40
0.1752730883135043
100
AcDbArc
 50
73.01706607702199
 51
286.982933922978
  0
ARC
  5
46CF
330
19
100
AcDbEntity
  8
JB-65B
  6
HIDDEN2
 62
     4
100
AcDbCircle
 10
90.21136341243433
 20
58.57249642388753
 30
0.0
 40
0.1752730883135043
100
AcDbArc
 50
73.01706607702199
 51
286.982933922978
  0
LWPOLYLINE
  5
46D1
330
19
100
AcDbEntity
  8
JB-65B
  6
HIDDEN2
 62
     4
100
AcDbPolyline
 90
        4
 70
     1
 43
0.0
 10
86.32136341243434
 20
57.20749642369402
 10
88.35136341243433
 20
57.20749642369404
 10
88.35136341243433
 20
54.17749642369404
 10
86.32136341243434
 20
54.17749642369402
  0
CIRCLE
  5
46D2
330
19
100
AcDbEntity
  8
JB-65B
  6
HIDDEN2
 62
     4
100
AcDbCircle
 10
89.84136341243432
 20
55.69249642369404
 30
0.0
 40
0.0938430982755
  0
CIRCLE
  5
46D3
330
19
100
AcDbEntity
  8
JB-65B
  6
HIDDEN2
 62
     4
100
AcDbCircle
 10
89.84136341243432
 20
55.69249642369404
 30
0.0
 40
0.0451837139845
  0
CIRCLE
  5
46DA
330
19
100
AcDbEntity
  8
JB-65B
  6
HIDDEN2
 62
     4
100
AcDbCircle
 10
85.14886341243434
 20
52.94249642369404
 30
0.0
 40
0.25
  0
CIRCLE
  5
46DF
330
19
100
AcDbEntity
  8
JB-65B
  6
HIDDEN2
 62
     4
100
AcDbCircle
 10
89.52386341243434
 20
52.94249642369404
 30
0.0
 40
0.25
  0
CIRCLE
  5
46E0
330
19
100
AcDbEntity
  8
JB-65B
  6
HIDDEN2
 62
     4
100
AcDbCircle
 10
89.84136341243432
 20
53.06249642369404
 30
0.0
 40
0.0938430982755
  0
CIRCLE
  5
46E1
330
19
100
AcDbEntity
  8
JB-65B
  6
HIDDEN2
 62
     4
100
AcDbCircle
 10
89.84136341243432
 20
53.06249642369404
 30
0.0
 40
0.0451837139845
  0
CIRCLE
  5
46E7
330
19
100
AcDbEntity
  8
JB-65B
  6
HIDDEN2
 62
     4
100
AcDbCircle
 10
85.14886341243434
 20
58.44249642369404
 30
0.0
 40
0.25
  0
CIRCLE
  5
46E8
330
19
100
AcDbEntity
  8
JB-65B
  6
HIDDEN2
 62
     4
100
AcDbCircle
 10
85.14886341243434
 20
58.44249642369404
 30
0.0
 40
0.25
  0
CIRCLE
  5
46E9
330
19
100
AcDbEntity
  8
JB-65B
  6
HIDDEN2
 62
     4
100
AcDbCircle
 10
89.52386341243434
 20
58.44249642369404
 30
0.0
 40
0.25
  0
CIRCLE
  5
46EA
330
19
100
AcDbEntity
  8
JB-65B
  6
HIDDEN2
 62
     4
100
AcDbCircle
 10
89.84136341243432
 20
58.32249642369403
 30
0.0
 40
0.0938430982755
  0
CIRCLE
  5
46EB
330
19
100
AcDbEntity
  8
JB-65B
  6
HIDDEN2
 62
     4
100
AcDbCircle
 10
89.84136341243432
 20
58.32249642369403
 30
0.0
 40
0.0451837139845
  0
LINE
  5
46EE
330
19
100
AcDbEntity
  8
JB-65B
100
AcDbLine
 10
90.46636341243432
 20
52.49569304725653
 30
0.0
 11
90.46636341243432
 21
58.88929980013154
 31
0.0
  0
LINE
  5
46EF
330
19
100
AcDbEntity
  8
JB-65B
  6
HIDDEN2
 62
     4
100
AcDbLine
 10
90.41571793082534
 20
52.49569304725653
 30
0.0
 11
90.41571793082534
 21
58.88929980013154
 31
0.0
  0
LINE
  5
46F0
330
19
100
AcDbEntity
  8
JB-65B
  6
HIDDEN2
 62
     4
100
AcDbLine
 10
90.36606549787533
 20
52.49569304725653
 30
0.0
 11
90.36606549787533
 21
58.88929980013154
 31
0.0
  0
CIRCLE
  5
46F1
330
19
100
AcDbEntity
  8
JB-65B
  6
HIDDEN2
 62
     4
100
AcDbCircle
 10
90.21136341243433
 20
52.81249642350054
 30
0.0
 40
0.1163728897265607
  0
CIRCLE
  5
46F2
330
19
100
AcDbEntity
  8
JB-65B
  6
HIDDEN2
 62
     4
100
AcDbCircle
 10
90.21136341243433
 20
52.81249642350054
 30
0.0
 40
0.095829195593499
  0
CIRCLE
  5
46F3
330
19
100
AcDbEntity
  8
JB-65B
  6
HIDDEN2
 62
     4
100
AcDbCircle
 10
90.21136341243433
 20
52.81249642350054
 30
0.0
 40
0.1321679436676421
  0
CIRCLE
  5
46F4
330
19
100
AcDbEntity
  8
JB-65B
  6
HIDDEN2
 62
     4
100
AcDbCircle
 10
90.21136341243433
 20
52.81249642350054
 30
0.0
 40
0.0575968222219981
  0
LINE
  5
46F5
330
19
100
AcDbEntity
  8
JB-65B
  6
HIDDEN2
 62
     4
100
AcDbLine
 10
90.28016678887183
 20
52.44554408997704
 30
0.0
 11
90.28016678887183
 21
52.41376653288904
 31
0.0
  0
ARC
  5
46F6
330
19
100
AcDbEntity
  8
JB-65B
  6
HIDDEN2
 62
     4
100
AcDbCircle
 10
90.28016678887183
 20
52.49569304725653
 30
0.0
 40
0.0858987090035
100
AcDbArc
 50
324.2806787226825
 51
0.0
  0
LINE
  5
46F7
330
19
100
AcDbEntity
  8
JB-65B
  6
HIDDEN2
 62
     4
100
AcDbLine
 10
90.28016678887183
 20
52.36014190530304
 30
0.0
 11
90.28016678887183
 21
52.30949642369404
 31
0.0
  0
ARC
  5
46F8
330
19
100
AcDbEntity
  8
JB-65B
100
AcDbCircle
 10
90.28016678887183
 20
52.49569304725653
 30
0.0
 40
0.1861966235625
100
AcDbArc
 50
270.0
 51
0.0
  0
ARC
  5
46F9
330
19
100
AcDbEntity
  8
JB-65B
  6
HIDDEN2
 62
     4
100
AcDbCircle
 10
90.28016678887183
 20
52.49569304725653
 30
0.0
 40
0.1355511419535
100
AcDbArc
 50
270.0
 51
0.0
  0
LINE
  5
46FA
330
19
100
AcDbEntity
  8
JB-65B
  6
HIDDEN2
 62
     4
100
AcDbLine
 10
90.31194434595983
 20
52.41376653288904
 30
0.0
 11
90.31194434595983
 21
52.36391938163849
 31
0.0
  0
CIRCLE
  5
46FB
330
19
100
AcDbEntity
  8
JB-65B
  6
HIDDEN2
 62
     4
100
AcDbCircle
 10
90.21136341243433
 20
58.57249642388753
 30
0.0
 40
0.0575968222219981
  0
CIRCLE
  5
46FC
330
19
100
AcDbEntity
  8
JB-65B
  6
HIDDEN2
 62
     4
100
AcDbCircle
 10
90.21136341243433
 20
58.57249642388753
 30
0.0
 40
0.1321679436676421
  0
CIRCLE
  5
46FD
330
19
100
AcDbEntity
  8
JB-65B
  6
HIDDEN2
 62
     4
100
AcDbCircle
 10
90.21136341243433
 20
58.57249642388753
 30
0.0
 40
0.095829195593499
  0
CIRCLE
  5
46FE
330
19
100
AcDbEntity
  8
JB-65B
  6
HIDDEN2
 62
     4
100
AcDbCircle
 10
90.21136341243433
 20
58.57249642388753
 30
0.0
 40
0.1163728897265607
  0
ARC
  5
46FF
330
19
100
AcDbEntity
  8
JB-65B
  6
HIDDEN2
 62
     4
100
AcDbCircle
 10
90.28016678887183
 20
58.88929980013154
 30
0.0
 40
0.0858987090035
100
AcDbArc
 50
0.0000000000000806
 51
35.71932127731758
  0
ARC
  5
4700
330
19
100
AcDbEntity
  8
JB-65B
100
AcDbCircle
 10
90.28016678887183
 20
58.88929980013154
 30
0.0
 40
0.1861966235625
100
AcDbArc
 50
0.0000000000000806
 51
90.00000000000007
  0
ARC
  5
4701
330
19
100
AcDbEntity
  8
JB-65B
  6
HIDDEN2
 62
     4
100
AcDbCircle
 10
90.28016678887183
 20
58.88929980013154
 30
0.0
 40
0.1355511419535
100
AcDbArc
 50
0.0000000000000806
 51
90.00000000000007
  0
LINE
  5
4702
330
19
100
AcDbEntity
  8
JB-65B
100
AcDbLine
 10
90.28016678887183
 20
59.02485094208504
 30
0.0
 11
90.28016678887183
 21
59.07549642369403
 31
0.0
  0
LINE
  5
4703
330
19
100
AcDbEntity
  8
JB-65B
  6
HIDDEN2
 62
     4
100
AcDbLine
 10
90.28016678887183
 20
58.93944875741104
 30
0.0
 11
90.28016678887183
 21
58.97122631449903
 31
0.0
  0
LINE
  5
4704
330
19
100
AcDbEntity
  8
JB-65B
  6
HIDDEN2
 62
     4
100
AcDbLine
 10
90.31194434595983
 20
58.97122631449903
 30
0.0
 11
90.31194434595983
 21
59.02107346574958
 31
0.0
  0
LWPOLYLINE
  5
4706
330
19
100
AcDbEntity
  8
JB-65B
  6
HIDDEN2
 62
     4
100
AcDbPolyline
 90
        4
 70
     0
 43
0.0
 10
95.32565556034381
 20
57.20749642369404
 10
95.31565556034379
 20
57.20749642369404
 10
95.31565556034378
 20
54.17749642369404
 10
95.32565556034379
 20
54.17749642369404
  0
LWPOLYLINE
  5
4707
330
19
100
AcDbEntity
  8
JB-65B
  6
HIDDEN2
 62
     4
100
AcDbPolyline
 90
        4
 70
     0
 43
0.0
 10
95.2253576457848
 20
55.59428955918647
 10
94.97535764578479
 20
55.59865332541853
 10
94.97535764578479
 20
55.78633952196954
 10
95.2253576457848
 20
55.7907032882016
  0
LINE
  5
4708
330
19
100
AcDbEntity
  8
JB-65B
100
AcDbLine
 10
95.32565556034379
 20
52.49569304725653
 30
0.0
 11
95.32565556034381
 21
58.88774816160185
 31
0.0
  0
LINE
  5
4709
330
19
100
AcDbEntity
  8
JB-65B
  6
HIDDEN2
 62
     4
100
AcDbLine
 10
95.2253576457848
 20
52.49569304725653
 30
0.0
 11
95.2253576457848
 21
58.88774816160185
 31
0.0
  0
LINE
  5
470A
330
19
100
AcDbEntity
  8
JB-65B
100
AcDbLine
 10
94.8192312308438
 20
52.30949642369404
 30
0.0
 11
94.8192312308438
 21
59.07549642369403
 31
0.0
  0
LINE
  5
470B
330
19
100
AcDbEntity
  8
JB-65C
  6
HIDDEN2
 62
     4
100
AcDbLine
 10
94.75766221398579
 20
52.36014190530304
 30
0.0
 11
94.75766221398579
 21
59.02485094208504
 31
0.0
  0
LWPOLYLINE
  5
470C
330
19
100
AcDbEntity
  8
JB-65B
  6
HIDDEN2
 62
     4
100
AcDbPolyline
 90
        2
 70
     0
 43
0.0
 10
94.82885393342286
 20
52.9401007562441
 10
95.0903030281608
 20
52.94466436716819
  0
LWPOLYLINE
  5
470D
330
19
100
AcDbEntity
  8
JB-65B
  6
HIDDEN2
 62
     4
100
AcDbPolyline
 90
        2
 70
     0
 43
0.0
 10
94.82885393342286
 20
52.68489209075697
 10
95.0903030281608
 20
52.68032847983291
  0
LWPOLYLINE
  5
470E
330
19
100
AcDbEntity
  8
JB-65B
  6
HIDDEN2
 62
     4
100
AcDbPolyline
 90
        4
 70
     0
 43
0.0
 10
94.82913123084379
 20
52.87009324572254
 10
95.12538438187906
 20
52.89601203797196
 10
95.16318235327995
 20
52.92886931322711
 10
95.25999048598489
 20
52.92886931322711
  0
LWPOLYLINE
  5
470F
330
19
100
AcDbEntity
  8
JB-65B
  6
HIDDEN2
 62
     4
100
AcDbPolyline
 90
        4
 70
     0
 43
0.0
 10
94.82913123084379
 20
52.75489960127853
 10
95.12538438187906
 20
52.72898080902912
 10
95.16318235327995
 20
52.69612353377398
 10
95.25999048598489
 20
52.69612353377398
  0
LWPOLYLINE
  5
4710
330
19
100
AcDbEntity
  8
JB-65B
  6
HIDDEN2
 62
     4
100
AcDbPolyline
 90
        4
 70
     0
 43
0.0
 10
95.2253576457848
 20
52.99012689893352
 10
95.0903030281608
 20
52.98776951181405
 10
95.0903030281608
 20
52.63722333518704
 10
95.2253576457848
 20
52.63486594806756
  0
LWPOLYLINE
  5
4711
330
19
100
AcDbEntity
  8
JB-65B
  6
HIDDEN2
 62
     4
100
AcDbPolyline
 90
        4
 70
     0
 43
0.0
 10
95.32565556034379
 20
52.69249642369404
 10
95.31565556034378
 20
52.69249642369404
 10
95.31565556034378
 20
53.19249642369404
 10
95.32565556034379
 20
53.19249642369404
  0
LINE
  5
4712
330
19
100
AcDbEntity
  8
JB-65B
  6
HIDDEN2
 62
     4
100
AcDbLine
 10
94.97535764578479
 20
53.10768013767854
 30
0.0
 11
95.2253576457848
 21
53.10549842073086
 31
0.0
  0
LINE
  5
4713
330
19
100
AcDbEntity
  8
JB-65B
  6
HIDDEN2
 62
     4
100
AcDbLine
 10
94.97535764578479
 20
53.01731270970954
 30
0.0
 11
95.2253576457848
 21
53.01949442665722
 31
0.0
  0
LWPOLYLINE
  5
4714
330
19
100
AcDbEntity
  8
JB-65B
  6
HIDDEN2
 62
     4
100
AcDbPolyline
 90
        4
 70
     0
 43
0.0
 10
95.2253576457848
 20
53.1607032882016
 10
94.97535764578479
 20
53.15633952196954
 10
94.97535764578479
 20
52.96865332541854
 10
95.2253576457848
 20
52.96428955918648
  0
LINE
  5
4715
330
19
100
AcDbEntity
  8
JB-65B
  6
HIDDEN2
 62
     4
100
AcDbLine
 10
95.31565556034767
 20
53.55284895549003
 30
0.0
 11
95.32565556034379
 21
53.55284895549003
 31
0.0
  0
LINE
  5
4716
330
19
100
AcDbEntity
  8
JB-65C
  6
HIDDEN2
 62
     4
100
AcDbLine
 10
94.75766221398579
 20
52.41376653288904
 30
0.0
 11
95.17123649386929
 21
52.41376653288904
 31
0.0
  0
LINE
  5
4717
330
19
100
AcDbEntity
  8
JB-65C
  6
HIDDEN2
 62
     4
100
AcDbLine
 10
94.75766221398579
 20
52.44554408997704
 30
0.0
 11
95.20919895608349
 21
52.44554408997704
 31
0.0
  0
ARC
  5
4718
330
19
100
AcDbEntity
  8
JB-65B
  6
HIDDEN2
 62
     4
100
AcDbCircle
 10
94.82913123084379
 20
52.92421439763804
 30
0.0
 40
0.015888778544
100
AcDbArc
 50
89.9999999999992
 51
269.9999999999992
  0
ARC
  5
4719
330
19
100
AcDbEntity
  8
JB-65B
  6
HIDDEN2
 62
     4
100
AcDbCircle
 10
94.82913123084379
 20
52.70077844936304
 30
0.0
 40
0.015888778544
100
AcDbArc
 50
90.00000000000081
 51
270.0000000000008
  0
LINE
  5
471A
330
19
100
AcDbEntity
  8
JB-65B
  6
HIDDEN2
 62
     4
100
AcDbLine
 10
94.81324245229979
 20
52.92421439763804
 30
0.0
 11
94.81324245229979
 21
52.70077844936304
 31
0.0
  0
ARC
  5
471B
330
19
100
AcDbEntity
  8
JB-65B
  6
HIDDEN2
 62
     4
100
AcDbCircle
 10
95.1394589367813
 20
52.49569304725653
 30
0.0
 40
0.0858987090035
100
AcDbArc
 50
324.2806787227116
 51
0.0
  0
LWPOLYLINE
  5
471C
330
19
100
AcDbEntity
  8
JB-65B
  6
HIDDEN2
 62
     4
100
AcDbPolyline
 90
        9
 70
     0
 43
0.0
 10
95.25999048598489
 20
52.69612353377397
 42
0.1988238758394351
 10
95.27564190986478
 20
52.70260344419916
 42
0.0985165631676871
 10
95.29409853590866
 20
52.73020836402861
 42
0.0557847379721551
 10
95.30418712330678
 20
52.76509719242189
 42
0.042533619294729
 10
95.30822655277319
 20
52.81249642350053
 42
0.0425336192947518
 10
95.30418712330677
 20
52.85989565457921
 42
0.055784737972141
 10
95.29409853590866
 20
52.89478448297247
 42
0.0985165631677464
 10
95.27564190986476
 20
52.92238940280192
 42
0.1988238758394179
 10
95.25999048598489
 20
52.92886931322709
  0
LINE
  5
471D
330
19
100
AcDbEntity
  8
JB-65B
  6
HIDDEN2
 62
     4
100
AcDbLine
 10
95.1394589367813
 20
52.41376653288904
 30
0.0
 11
95.1394589367813
 21
52.44554408997704
 31
0.0
  0
LINE
  5
471E
330
19
100
AcDbEntity
  8
JB-65B
  6
HIDDEN2
 62
     4
100
AcDbLine
 10
95.12538438187906
 20
52.72898080902912
 30
0.0
 11
95.12538438187906
 21
52.89601203797196
 31
0.0
  0
LINE
  5
471F
330
19
100
AcDbEntity
  8
JB-65B
  6
HIDDEN2
 62
     4
100
AcDbLine
 10
95.16318235327995
 20
52.92886931322711
 30
0.0
 11
95.16318235327995
 21
52.69612353377398
 31
0.0
  0
LWPOLYLINE
  5
4720
330
19
100
AcDbEntity
  8
JB-65B
  6
HIDDEN2
 62
     4
100
AcDbPolyline
 90
        9
 70
     0
 43
0.0
 10
95.25999048598489
 20
52.92886931322711
 42
0.1209709035530626
 10
95.2258364690001
 20
52.92048330817959
 42
0.1051387393195321
 10
95.19476567130665
 20
52.89478448297247
 42
0.0884806234010302
 10
95.17505241996692
 20
52.85815609196936
 42
0.0794751588725295
 10
95.16774866846365
 20
52.81249642350053
 42
0.0794751588724977
 10
95.17505241996692
 20
52.76683675503171
 42
0.0884806234010123
 10
95.19476567130665
 20
52.73020836402861
 42
0.1051387393195156
 10
95.2258364690001
 20
52.70450953882148
 42
0.1209709035530374
 10
95.25999048598489
 20
52.69612353377397
  0
LINE
  5
4721
330
19
100
AcDbEntity
  8
JB-65B
  6
HIDDEN2
 62
     4
100
AcDbLine
 10
95.1394589367813
 20
52.30949642369401
 30
0.0
 11
95.1394589367813
 21
52.36014190530304
 31
0.0
  0
LINE
  5
4722
330
19
100
AcDbEntity
  8
JB-65B
100
AcDbLine
 10
94.8192312308438
 20
52.30949642369404
 30
0.0
 11
95.1394589367813
 21
52.30949642369404
 31
0.0
  0
LINE
  5
4723
330
19
100
AcDbEntity
  8
JB-65B
  6
HIDDEN2
 62
     4
100
AcDbLine
 10
94.81923123084378
 20
52.36014190530304
 30
0.0
 11
95.17123649386929
 21
52.36014190530304
 31
0.0
  0
LINE
  5
4724
330
19
100
AcDbEntity
  8
JB-65C
  6
HIDDEN2
 62
     4
100
AcDbLine
 10
94.75766221398579
 20
52.36014190530304
 30
0.0
 11
94.8192312308438
 21
52.36014190530304
 31
0.0
  0
ARC
  5
4725
330
19
100
AcDbEntity
  8
JB-65B
100
AcDbCircle
 10
95.1394589367813
 20
52.49569304725653
 30
0.0
 40
0.1861966235625
100
AcDbArc
 50
269.9999999999996
 51
0.0
  0
LINE
  5
4726
330
19
100
AcDbEntity
  8
JB-65B
  6
HIDDEN2
 62
     4
100
AcDbLine
 10
95.17123649386929
 20
52.36014190530304
 30
0.0
 11
95.17123649386929
 21
52.41376653288904
 31
0.0
  0
LINE
  5
4727
330
19
100
AcDbEntity
  8
JB-65B
  6
HIDDEN2
 62
     4
100
AcDbLine
 10
94.97535764578479
 20
55.64731270970954
 30
0.0
 11
95.2253576457848
 21
55.64949442665721
 31
0.0
  0
LINE
  5
4729
330
19
100
AcDbEntity
  8
JB-65B
  6
HIDDEN2
 62
     4
100
AcDbLine
 10
94.97535764578479
 20
55.73768013767853
 30
0.0
 11
95.2253576457848
 21
55.73549842073086
 31
0.0
  0
LWPOLYLINE
  5
472A
330
19
100
AcDbEntity
  8
JB-65B
  6
HIDDEN2
 62
     4
100
AcDbPolyline
 90
        9
 70
     0
 43
0.0
 10
95.25999048598489
 20
58.6888693136141
 42
-0.1988238758394351
 10
95.27564190986478
 20
58.68238940318891
 42
-0.0985165631676871
 10
95.29409853590866
 20
58.65478448335946
 42
-0.0557847379721551
 10
95.30418712330678
 20
58.61989565496618
 42
-0.042533619294729
 10
95.30822655277319
 20
58.57249642388755
 42
-0.0425336192947518
 10
95.30418712330677
 20
58.52509719280887
 42
-0.055784737972141
 10
95.29409853590866
 20
58.4902083644156
 42
-0.0985165631677464
 10
95.27564190986476
 20
58.46260344458615
 42
-0.1988238758394179
 10
95.25999048598489
 20
58.45612353416098
  0
LINE
  5
472B
330
19
100
AcDbEntity
  8
JB-65B
  6
HIDDEN2
 62
     4
100
AcDbLine
 10
95.12538438187906
 20
58.65601203835895
 30
0.0
 11
95.12538438187906
 21
58.48898080941612
 31
0.0
  0
LINE
  5
472C
330
19
100
AcDbEntity
  8
JB-65B
  6
HIDDEN2
 62
     4
100
AcDbLine
 10
95.16318235327995
 20
58.45612353416097
 30
0.0
 11
95.16318235327995
 21
58.68886931361409
 31
0.0
  0
LWPOLYLINE
  5
472D
330
19
100
AcDbEntity
  8
JB-65B
  6
HIDDEN2
 62
     4
100
AcDbPolyline
 90
        9
 70
     0
 43
0.0
 10
95.25999048598489
 20
58.45612353416097
 42
-0.1209709035530626
 10
95.2258364690001
 20
58.46450953920849
 42
-0.1051387393195321
 10
95.19476567130665
 20
58.4902083644156
 42
-0.0884806234010302
 10
95.17505241996692
 20
58.52683675541872
 42
-0.0794751588725295
 10
95.16774866846365
 20
58.57249642388755
 42
-0.0794751588724977
 10
95.17505241996692
 20
58.61815609235636
 42
-0.0884806234010123
 10
95.19476567130665
 20
58.65478448335946
 42
-0.1051387393195155
 10
95.2258364690001
 20
58.68048330856659
 42
-0.1209709035530373
 10
95.25999048598489
 20
58.6888693136141
  0
LWPOLYLINE
  5
472E
330
19
100
AcDbEntity
  8
JB-65B
  6
HIDDEN2
 62
     4
100
AcDbPolyline
 90
        4
 70
     0
 43
0.0
 10
95.2253576457848
 20
58.39486594845455
 10
95.0903030281608
 20
58.39722333557403
 10
95.0903030281608
 20
58.74776951220103
 10
95.2253576457848
 20
58.75012689932052
  0
ARC
  5
472F
330
19
100
AcDbEntity
  8
JB-65B
  6
HIDDEN2
 62
     4
100
AcDbCircle
 10
94.82913123084379
 20
58.46077844975003
 30
0.0
 40
0.015888778544
100
AcDbArc
 50
90.00000000000081
 51
270.0000000000008
  0
ARC
  5
4730
330
19
100
AcDbEntity
  8
JB-65B
  6
HIDDEN2
 62
     4
100
AcDbCircle
 10
94.82913123084379
 20
58.68421439802503
 30
0.0
 40
0.015888778544
100
AcDbArc
 50
89.9999999999992
 51
269.9999999999992
  0
LINE
  5
4731
330
19
100
AcDbEntity
  8
JB-65B
  6
HIDDEN2
 62
     4
100
AcDbLine
 10
94.81324245229979
 20
58.46077844975003
 30
0.0
 11
94.81324245229979
 21
58.68421439802503
 31
0.0
  0
LWPOLYLINE
  5
4732
330
19
100
AcDbEntity
  8
JB-65B
  6
HIDDEN2
 62
     4
100
AcDbPolyline
 90
        4
 70
     0
 43
0.0
 10
94.82913123084379
 20
58.63009324610954
 10
95.12538438187906
 20
58.65601203835895
 10
95.16318235327995
 20
58.68886931361409
 10
95.25999048598489
 20
58.68886931361409
  0
LWPOLYLINE
  5
4733
330
19
100
AcDbEntity
  8
JB-65B
  6
HIDDEN2
 62
     4
100
AcDbPolyline
 90
        4
 70
     0
 43
0.0
 10
94.82913123084379
 20
58.51489960166553
 10
95.12538438187906
 20
58.48898080941612
 10
95.16318235327995
 20
58.45612353416097
 10
95.25999048598489
 20
58.45612353416097
  0
LWPOLYLINE
  5
4734
330
19
100
AcDbEntity
  8
JB-65B
  6
HIDDEN2
 62
     4
100
AcDbPolyline
 90
        2
 70
     0
 43
0.0
 10
94.82885393342286
 20
58.7001007566311
 10
95.0903030281608
 20
58.70466436755517
  0
LWPOLYLINE
  5
4735
330
19
100
AcDbEntity
  8
JB-65B
  6
HIDDEN2
 62
     4
100
AcDbPolyline
 90
        2
 70
     0
 43
0.0
 10
94.82885393342286
 20
58.44489209114397
 10
95.0903030281608
 20
58.44032848021988
  0
LWPOLYLINE
  5
4736
330
19
100
AcDbEntity
  8
JB-65B
  6
HIDDEN2
 62
     4
100
AcDbPolyline
 90
        4
 70
     0
 43
0.0
 10
95.32565556034379
 20
58.69249642369403
 10
95.31565556034378
 20
58.69249642369403
 10
95.31565556034378
 20
58.19249642369404
 10
95.32565556034379
 20
58.19249642369404
  0
LWPOLYLINE
  5
4737
330
19
100
AcDbEntity
  8
JB-65B
  6
HIDDEN2
 62
     4
100
AcDbPolyline
 90
        4
 70
     0
 43
0.0
 10
95.2253576457848
 20
58.22428955918647
 10
94.97535764578479
 20
58.22865332541853
 10
94.97535764578479
 20
58.41633952196954
 10
95.2253576457848
 20
58.4207032882016
  0
LINE
  5
4738
330
19
100
AcDbEntity
  8
JB-65B
  6
HIDDEN2
 62
     4
100
AcDbLine
 10
94.97535764578479
 20
58.27731270970954
 30
0.0
 11
95.2253576457848
 21
58.27949442665721
 31
0.0
  0
LINE
  5
4739
330
19
100
AcDbEntity
  8
JB-65B
  6
HIDDEN2
 62
     4
100
AcDbLine
 10
94.97535764578479
 20
58.36768013767853
 30
0.0
 11
95.2253576457848
 21
58.36549842073086
 31
0.0
  0
ARC
  5
473A
330
19
100
AcDbEntity
  8
JB-65B
  6
HIDDEN2
 62
     4
100
AcDbCircle
 10
95.13945893678132
 20
58.88929980013154
 30
0.0
 40
0.0858987090035
100
AcDbArc
 50
359.9999999999992
 51
35.71932127728763
  0
ARC
  5
473B
330
19
100
AcDbEntity
  8
JB-65B
100
AcDbCircle
 10
95.13945893678132
 20
58.88929980013154
 30
0.0
 40
0.1861966235625
100
AcDbArc
 50
359.9999999999992
 51
89.99999999999962
  0
POINT
  5
473C
330
19
100
AcDbEntity
  8
JB-65B
  6
ByBlock
 62
     0
100
AcDbPoint
 10
95.2253576457848
 20
58.88774816160185
 30
0.0
  0
LINE
  5
473D
330
19
100
AcDbEntity
  8
JB-65C
  6
HIDDEN2
 62
     4
100
AcDbLine
 10
94.81923123084383
 20
59.02485094208504
 30
0.0
 11
95.17123649386933
 21
59.02485094208504
 31
0.0
  0
LINE
  5
473E
330
19
100
AcDbEntity
  8
JB-65B
100
AcDbLine
 10
94.81923123084383
 20
59.07549642369403
 30
0.0
 11
95.13945893678132
 21
59.07549642369403
 31
0.0
  0
LINE
  5
473F
330
19
100
AcDbEntity
  8
JB-65B
  6
HIDDEN2
 62
     4
100
AcDbLine
 10
94.75766221398583
 20
58.97122631449903
 30
0.0
 11
95.17123649386933
 21
58.97122631449903
 31
0.0
  0
LINE
  5
4740
330
19
100
AcDbEntity
  8
JB-65B
  6
HIDDEN2
 62
     4
100
AcDbLine
 10
94.75766221398583
 20
58.93944875741104
 30
0.0
 11
95.20919895608351
 21
58.93944875741103
 31
0.0
  0
LINE
  5
4741
330
19
100
AcDbEntity
  8
JB-65C
  6
HIDDEN2
 62
     4
100
AcDbLine
 10
94.75766221398583
 20
59.02485094208504
 30
0.0
 11
94.81923123084383
 21
59.02485094208504
 31
0.0
  0
LINE
  5
4742
330
19
100
AcDbEntity
  8
JB-65B
  6
HIDDEN2
 62
     4
100
AcDbLine
 10
95.17123649386933
 20
59.02485094208504
 30
0.0
 11
95.17123649386933
 21
58.97122631449903
 31
0.0
  0
LINE
  5
4743
330
19
100
AcDbEntity
  8
JB-65B
  6
HIDDEN2
 62
     4
100
AcDbLine
 10
95.13945893678132
 20
58.97122631449903
 30
0.0
 11
95.13945893678132
 21
58.93944875741104
 31
0.0
  0
LINE
  5
4744
330
19
100
AcDbEntity
  8
JB-65B
  6
HIDDEN2
 62
     4
100
AcDbLine
 10
95.13945893678132
 20
59.07549642369406
 30
0.0
 11
95.13945893678133
 21
59.02485094208504
 31
0.0
  0
MTEXT
  5
4904
330
19
100
AcDbEntity
  8
0
 62
     4
100
AcDbMText
 10
25.44649056276481
 20
132.2637948317192
 30
0.0
 40
0.125
 41
0.0
 71
     6
 72
     1
  1
\A1;
 73
     1
 44
1.0
1001
ACAD
1000
MTEXTBEGIN
1070
    73
1070
     1
1070
    44
1040
1.0
1070
    74
1070
     0
1000
MTEXTEND
  0
MTEXT
  5
4905
330
19
100
AcDbEntity
  8
0
 62
     4
100
AcDbMText
 10
24.28842350716243
 20
132.5881629066391
 30
0.0
 40
0.125
 41
0.0
 71
     4
 72
     1
  1
\A1;
 73
     1
 44
1.0
1001
ACAD
1000
MTEXTBEGIN
1070
    73
1070
     1
1070
    44
1040
1.0
1070
    74
1070
     0
1000
MTEXTEND
  0
MTEXT
  5
4906
330
19
100
AcDbEntity
  8
0
 62
     4
100
AcDbMText
 10
20.21159754882479
 20
130.1303225422348
 30
0.0
 40
0.125
 41
0.0
 71
     6
 72
     1
  1
\A1;
 73
     1
 44
1.0
1001
ACAD
1000
MTEXTBEGIN
1070
    73
1070
     1
1070
    44
1040
1.0
1070
    74
1070
     0
1000
MTEXTEND
  0
MTEXT
  5
4907
330
19
100
AcDbEntity
  8
0
 62
     4
100
AcDbMText
 10
20.71564377557009
 20
129.5846742880342
 30
0.0
 40
0.125
 41
0.0
 71
     6
 72
     1
  1
\A1;
 73
     1
 44
1.0
1001
ACAD
1000
MTEXTBEGIN
1070
    73
1070
     1
1070
    44
1040
1.0
1070
    74
1070
     0
1000
MTEXTEND
  0
MTEXT
  5
4908
330
19
100
AcDbEntity
  8
0
 62
     4
100
AcDbMText
 10
20.34355074458195
 20
128.3409389523397
 30
0.0
 40
0.125
 41
0.0
 71
     6
 72
     1
  1
\A1;
 73
     1
 44
1.0
1001
ACAD
1000
MTEXTBEGIN
1070
    73
1070
     1
1070
    44
1040
1.0
1070
    74
1070
     0
1000
MTEXTEND
  0
MTEXT
  5
4909
330
19
100
AcDbEntity
  8
0
 62
     4
100
AcDbMText
 10
20.39626994723381
 20
128.0902600276816
 30
0.0
 40
0.125
 41
0.0
 71
     6
 72
     1
  1
\A1;
 73
     1
 44
1.0
1001
ACAD
1000
MTEXTBEGIN
1070
    73
1070
     1
1070
    44
1040
1.0
1070
    74
1070
     0
1000
MTEXTEND
  0
MTEXT
  5
490A
330
19
100
AcDbEntity
  8
0
 62
     4
100
AcDbMText
 10
35.15723860726012
 20
116.7210894579189
 30
0.0
 40
0.125
 41
0.0
 71
     6
 72
     1
  1
\A1;
 73
     1
 44
1.0
1001
ACAD
1000
MTEXTBEGIN
1070
    73
1070
     1
1070
    44
1040
1.0
1070
    74
1070
     0
1000
MTEXTEND
  0
MTEXT
  5
490B
330
19
100
AcDbEntity
  8
0
 62
     4
100
AcDbMText
 10
41.14222796890223
 20
114.770377025369
 30
0.0
 40
0.125
 41
0.0
 71
     4
 72
     1
  1
\A1;
 73
     1
 44
1.0
1001
ACAD
1000
MTEXTBEGIN
1070
    73
1070
     1
1070
    44
1040
1.0
1070
    74
1070
     0
1000
MTEXTEND
  0
MTEXT
  5
490C
330
19
100
AcDbEntity
  8
0
 62
     4
100
AcDbMText
 10
14.47201719906758
 20
109.3283344023467
 30
0.0
 40
0.125
 41
0.0
 71
     4
 72
     1
  1
\A1;
 73
     1
 44
1.0
1001
ACAD
1000
MTEXTBEGIN
1070
    73
1070
     1
1070
    44
1040
1.0
1070
    74
1070
     0
1000
MTEXTEND
  0
MTEXT
  5
490D
330
19
100
AcDbEntity
  8
0
 62
     4
100
AcDbMText
 10
10.53093490861832
 20
105.5742300323244
 30
0.0
 40
0.125
 41
0.0
 71
     6
 72
     1
  1
\A1;
 73
     1
 44
1.0
1001
ACAD
1000
MTEXTBEGIN
1070
    73
1070
     1
1070
    44
1040
1.0
1070
    74
1070
     0
1000
MTEXTEND
  0
MTEXT
  5
490E
330
19
100
AcDbEntity
  8
0
 62
     4
100
AcDbMText
 10
10.84588969826704
 20
106.3247234309596
 30
0.0
 40
0.125
 41
0.0
 71
     6
 72
     1
  1
\A1;
 73
     1
 44
1.0
1001
ACAD
1000
MTEXTBEGIN
1070
    73
1070
     1
1070
    44
1040
1.0
1070
    74
1070
     0
1000
MTEXTEND
  0
MTEXT
  5
490F
330
19
100
AcDbEntity
  8
0
 62
     4
100
AcDbMText
 10
10.41787422456969
 20
106.8734712932285
 30
0.0
 40
0.125
 41
0.0
 71
     6
 72
     1
  1
\A1;
 73
     1
 44
1.0
1001
ACAD
1000
MTEXTBEGIN
1070
    73
1070
     1
1070
    44
1040
1.0
1070
    74
1070
     0
1000
MTEXTEND
  0
MTEXT
  5
4910
330
19
100
AcDbEntity
  8
0
 62
     4
100
AcDbMText
 10
18.88061059224868
 20
108.5291773222932
 30
0.0
 40
0.125
 41
0.0
 71
     6
 72
     1
  1
\A1;
 73
     1
 44
1.0
1001
ACAD
1000
MTEXTBEGIN
1070
    73
1070
     1
1070
    44
1040
1.0
1070
    74
1070
     0
1000
MTEXTEND
  0
MTEXT
  5
4911
330
19
100
AcDbEntity
  8
0
 62
     4
100
AcDbMText
 10
24.7527898750892
 20
106.592125336939
 30
0.0
 40
0.125
 41
0.0
 71
     4
 72
     1
  1
\A1;
 73
     1
 44
1.0
1001
ACAD
1000
MTEXTBEGIN
1070
    73
1070
     1
1070
    44
1040
1.0
1070
    74
1070
     0
1000
MTEXTEND
  0
MTEXT
  5
4912
330
19
100
AcDbEntity
  8
0
 62
     5
100
AcDbMText
 10
14.75769234606912
 20
109.2525168713982
 30
0.0
 40
0.125
 41
0.0
 71
     4
 72
     1
  1
\A1;
 73
     1
 44
1.0
1001
ACAD
1000
MTEXTBEGIN
1070
    73
1070
     1
1070
    44
1040
1.0
1070
    74
1070
     0
1000
MTEXTEND
  0
MTEXT
  5
4913
330
19
100
AcDbEntity
  8
0
 62
     5
100
AcDbMText
 10
10.66933679686548
 20
106.6354408976414
 30
0.0
 40
0.125
 41
0.0
 71
     6
 72
     1
  1
\A1;
 73
     1
 44
1.0
1001
ACAD
1000
MTEXTBEGIN
1070
    73
1070
     1
1070
    44
1040
1.0
1070
    74
1070
     0
1000
MTEXTEND
  0
MTEXT
  5
4914
330
19
100
AcDbEntity
  8
0
 62
     5
100
AcDbMText
 10
10.93631317605874
 20
105.9883575734992
 30
0.0
 40
0.125
 41
0.0
 71
     6
 72
     1
  1
\A1;
 73
     1
 44
1.0
1001
ACAD
1000
MTEXTBEGIN
1070
    73
1070
     1
1070
    44
1040
1.0
1070
    74
1070
     0
1000
MTEXTEND
  0
MTEXT
  5
4915
330
19
100
AcDbEntity
  8
0
 62
     5
100
AcDbMText
 10
10.65882539697852
 20
105.2771073421904
 30
0.0
 40
0.125
 41
0.0
 71
     6
 72
     1
  1
\A1;
 73
     1
 44
1.0
1001
ACAD
1000
MTEXTBEGIN
1070
    73
1070
     1
1070
    44
1040
1.0
1070
    74
1070
     0
1000
MTEXTEND
  0
MTEXT
  5
4916
330
19
100
AcDbEntity
  8
0
 62
     5
100
AcDbMText
 10
10.63014255832961
 20
104.2522312505585
 30
0.0
 40
0.125
 41
0.0
 71
     6
 72
     1
  1
\A1;
 73
     1
 44
1.0
1001
ACAD
1000
MTEXTBEGIN
1070
    73
1070
     1
1070
    44
1040
1.0
1070
    74
1070
     0
1000
MTEXTEND
  0
MTEXT
  5
4917
330
19
100
AcDbEntity
  8
0
 62
     5
100
AcDbMText
 10
18.86759379453949
 20
108.7755512368148
 30
0.0
 40
0.125
 41
0.0
 71
     6
 72
     1
  1
\A1;
 73
     1
 44
1.0
1001
ACAD
1000
MTEXTBEGIN
1070
    73
1070
     1
1070
    44
1040
1.0
1070
    74
1070
     0
1000
MTEXTEND
  0
MTEXT
  5
4918
330
19
100
AcDbEntity
  8
0
 62
     5
100
AcDbMText
 10
24.72295528099259
 20
106.396816256476
 30
0.0
 40
0.125
 41
0.0
 71
     4
 72
     1
  1
\A1;
 73
     1
 44
1.0
1001
ACAD
1000
MTEXTBEGIN
1070
    73
1070
     1
1070
    44
1040
1.0
1070
    74
1070
     0
1000
MTEXTEND
  0
MTEXT
  5
4919
330
19
100
AcDbEntity
  8
0
 62
     5
100
AcDbMText
 10
20.12358983471571
 20
102.5934006913293
 30
0.0
 40
0.125
 41
0.0
 71
     4
 72
     1
  1
\A1;
 73
     1
 44
1.0
1001
ACAD
1000
MTEXTBEGIN
1070
    73
1070
     1
1070
    44
1040
1.0
1070
    74
1070
     0
1000
MTEXTEND
  0
MTEXT
  5
491A
330
19
100
AcDbEntity
  8
0
 62
     4
100
AcDbMText
 10
31.30198167010785
 20
72.02591709472898
 30
0.0
 40
0.125
 41
0.0
 71
     4
 72
     1
  1
\A1;
 73
     1
 44
1.0
1001
ACAD
1000
MTEXTBEGIN
1070
    73
1070
     1
1070
    44
1040
1.0
1070
    74
1070
     0
1000
MTEXTEND
  0
MTEXT
  5
4B43
330
19
100
AcDbEntity
  8
0
 62
     4
100
AcDbMText
 10
53.68167558080161
 20
51.57619261210535
 30
0.0
 40
0.125
 41
0.0
 71
     6
 72
     1
  1
\A1;
 73
     1
 44
1.0
1001
ACAD
1000
MTEXTBEGIN
1070
    73
1070
     1
1070
    44
1040
1.0
1070
    74
1070
     0
1000
MTEXTEND
  0
MTEXT
  5
4F58
330
19
100
AcDbEntity
  8
0
 62
     4
100
AcDbMText
 10
82.60430274885825
 20
53.73075433622965
 30
0.0
 40
0.125
 41
0.0
 71
     4
 72
     1
  1
\A1;
 73
     1
 44
1.0
1001
ACAD
1000
MTEXTBEGIN
1070
    73
1070
     1
1070
    44
1040
1.0
1070
    74
1070
     0
1000
MTEXTEND
  0
MTEXT
  5
4F59
330
19
100
AcDbEntity
  8
0
 62
     4
100
AcDbMText
 10
85.59780742940402
 20
66.73087136401271
 30
0.0
 40
0.125
 41
0.0
 71
     4
 72
     1
  1
\A1;
 73
     1
 44
1.0
1001
ACAD
1000
MTEXTBEGIN
1070
    73
1070
     1
1070
    44
1040
1.0
1070
    74
1070
     0
1000
MTEXTEND
  0
MTEXT
  5
4F5A
330
19
100
AcDbEntity
  8
0
 62
     4
100
AcDbMText
 10
82.59566006195766
 20
54.85139590658841
 30
0.0
 40
0.125
 41
0.0
 71
     4
 72
     1
  1
\A1;
 73
     1
 44
1.0
1001
ACAD
1000
MTEXTBEGIN
1070
    73
1070
     1
1070
    44
1040
1.0
1070
    74
1070
     0
1000
MTEXTEND
  0
LINE
  5
4F5E
330
19
100
AcDbEntity
  8
JB-65C
100
AcDbLine
 10
84.39256003599682
 20
59.07549642369405
 30
0.0
 11
90.28016678887182
 21
59.07549642369405
 31
0.0
  0
LINE
  5
4F5F
330
19
100
AcDbEntity
  8
JB-65C
  6
HIDDEN2
 62
     4
100
AcDbLine
 10
84.36078247890883
 20
58.97122631449905
 30
0.0
 11
90.31194434595981
 21
58.97122631449905
 31
0.0
  0
LINE
  5
4F60
330
19
100
AcDbEntity
  8
JB-65C
  6
HIDDEN2
 62
     4
100
AcDbLine
 10
84.32282001669474
 20
58.93944875741103
 30
0.0
 11
90.34990680817394
 21
58.93944875741105
 31
0.0
  0
LINE
  5
4F61
330
19
100
AcDbEntity
  8
JB-65C
  6
HIDDEN2
 62
     4
100
AcDbLine
 10
84.38411912172531
 20
59.02485094208502
 30
0.0
 11
90.28860770314334
 21
59.02485094208505
 31
0.0
  0
LINE
  5
4F62
330
19
100
AcDbEntity
  8
JB-65C
100
AcDbLine
 10
89.62297025202614
 20
50.85397840152575
 30
0.0
 11
85.04975657284251
 21
50.85397840152575
 31
0.0
  0
LINE
  5
4F63
330
19
100
AcDbEntity
  8
JB-65C
100
AcDbLine
 10
89.62297025202614
 20
50.66778177796326
 30
0.0
 11
85.04975657284251
 21
50.66778177796326
 31
0.0
  0
LINE
  5
4F64
330
19
100
AcDbEntity
  8
JB-65C
  6
HIDDEN2
 62
     4
100
AcDbLine
 10
89.62297025202614
 20
50.69955933505126
 30
0.0
 11
85.04975657284251
 21
50.69955933505124
 31
0.0
  0
LINE
  5
4F65
330
19
100
AcDbEntity
  8
JB-65C
  6
HIDDEN2
 62
     4
100
AcDbLine
 10
84.32282001669474
 20
52.44554408997704
 30
0.0
 11
90.34990680817394
 21
52.44554408997704
 31
0.0
  0
LINE
  5
4F66
330
19
100
AcDbEntity
  8
JB-65C
  6
HIDDEN2
 62
     4
100
AcDbLine
 10
84.36078247890883
 20
52.41376653288902
 30
0.0
 11
90.31194434595985
 21
52.41376653288902
 31
0.0
  0
LINE
  5
4F67
330
19
100
AcDbEntity
  8
JB-65C
  6
HIDDEN2
 62
     4
100
AcDbLine
 10
84.38411912172533
 20
52.36014190530302
 30
0.0
 11
90.28860770314334
 21
52.36014190530302
 31
0.0
  0
LINE
  5
4F68
330
19
100
AcDbEntity
  8
JB-65C
100
AcDbLine
 10
84.39256003599682
 20
52.30949642369402
 30
0.0
 11
90.28016678887182
 21
52.30949642369402
 31
0.0
  0
LINE
  5
4F6C
330
19
100
AcDbEntity
  8
JB-65C
  6
HIDDEN2
 62
     4
100
AcDbLine
 10
84.25502279672533
 20
52.48923823030303
 30
0.0
 11
84.25502279672533
 21
58.89575461708504
 31
0.0
  0
LINE
  5
4F6D
330
19
100
AcDbEntity
  8
JB-65C
100
AcDbLine
 10
84.20636341243433
 20
52.49569304725653
 30
0.0
 11
84.20636341243433
 21
58.88929980013156
 31
0.0
  0
LINE
  5
4F6E
330
19
100
AcDbEntity
  8
JB-65C
  6
HIDDEN2
 62
     4
100
AcDbLine
 10
84.30666132699334
 20
52.49569304725653
 30
0.0
 11
84.30666132699334
 21
58.88929980013156
 31
0.0
  0
LINE
  5
4F6F
330
19
100
AcDbEntity
  8
JB-65C
100
AcDbLine
 10
93.68565556034381
 20
52.4949172279917
 30
0.0
 11
93.68565556034381
 21
58.88852398086668
 31
0.0
  0
LINE
  5
4F70
330
19
100
AcDbEntity
  8
JB-65C
100
AcDbLine
 10
94.79765556034379
 20
52.30872060442918
 30
0.0
 11
94.79765556034379
 21
59.07472060442919
 31
0.0
  0
LINE
  5
4F71
330
19
100
AcDbEntity
  8
JB-65C
  6
HIDDEN2
 62
     4
100
AcDbLine
 10
94.76687105191478
 20
52.35936608603821
 30
0.0
 11
94.76687105191478
 21
59.02407512282017
 31
0.0
  0
LINE
  5
4F72
330
19
100
AcDbEntity
  8
JB-65C
100
AcDbLine
 10
94.79765556034379
 20
52.30872060442918
 30
0.0
 11
93.87185218390632
 21
52.30872060442918
 31
0.0
  0
LINE
  5
4F73
330
19
100
AcDbEntity
  8
JB-65C
  6
HIDDEN2
 62
     4
100
AcDbLine
 10
94.79765556034379
 20
52.35936608603821
 30
0.0
 11
93.84007462681831
 21
52.35936608603821
 31
0.0
  0
LINE
  5
4F74
330
19
100
AcDbEntity
  8
JB-65C
  6
HIDDEN2
 62
     4
100
AcDbLine
 10
94.76687105191478
 20
52.41299071362418
 30
0.0
 11
93.84007462681831
 21
52.41299071362419
 31
0.0
  0
LINE
  5
4F75
330
19
100
AcDbEntity
  8
JB-65C
  6
HIDDEN2
 62
     4
100
AcDbLine
 10
94.76687105191478
 20
52.4447682707122
 30
0.0
 11
93.83115556034381
 21
52.4447682707122
 31
0.0
  0
ARC
  5
4F76
330
19
100
AcDbEntity
  8
JB-65C
100
AcDbCircle
 10
93.87185218390632
 20
52.4949172279917
 30
0.0
 40
0.1861966235625
100
AcDbArc
 50
180.0
 51
270.0
  0
LINE
  5
4F77
330
19
100
AcDbEntity
  8
JB-65C
  6
HIDDEN2
 62
     4
100
AcDbLine
 10
93.84007462681831
 20
52.41299071362419
 30
0.0
 11
93.84007462681831
 21
52.35936608603821
 31
0.0
  0
LINE
  5
4F78
330
19
100
AcDbEntity
  8
JB-65C
  6
HIDDEN2
 62
     4
100
AcDbLine
 10
93.87185218390632
 20
52.35936608603821
 30
0.0
 11
93.87185218390632
 21
52.30872060442918
 31
0.0
  0
LINE
  5
4F79
330
19
100
AcDbEntity
  8
JB-65C
  6
HIDDEN2
 62
     4
100
AcDbLine
 10
93.87185218390632
 20
52.41299071362419
 30
0.0
 11
93.87185218390632
 21
52.4447682707122
 31
0.0
  0
LINE
  5
4F7A
330
19
100
AcDbEntity
  8
JB-65C
100
AcDbLine
 10
93.9339177250938
 20
52.8167206042357
 30
0.0
 11
93.96540296480386
 21
52.8302001394837
 31
0.0
  0
LINE
  5
4F7B
330
19
100
AcDbEntity
  8
JB-65C
100
AcDbLine
 10
94.47840070760372
 20
52.8302001394837
 30
0.0
 11
94.53041213695936
 21
52.8167206042357
 31
0.0
  0
LINE
  5
4F7C
330
19
100
AcDbEntity
  8
JB-65C
  6
HIDDEN2
 62
     4
100
AcDbLine
 10
84.36752031415881
 20
49.71597840152575
 30
0.0
 11
84.36324630473157
 21
49.9608362376219
 31
0.0
  0
ARC
  5
4F7D
330
19
100
AcDbEntity
  8
JB-65C
  6
HIDDEN2
 62
     4
100
AcDbCircle
 10
84.70288774193432
 20
49.75665963333075
 30
0.0
 40
0.3421052630255001
100
AcDbArc
 50
149.9999999999998
 51
177.3020267606009
  0
ARC
  5
4F7E
330
19
100
AcDbEntity
  8
JB-65C
100
AcDbCircle
 10
84.70288774193432
 20
49.75665963333075
 30
0.0
 40
0.3103277059375
100
AcDbArc
 50
149.9999999999998
 51
179.9999999999998
  0
ARC
  5
4F7F
330
19
100
AcDbEntity
  8
JB-65C
  6
HIDDEN2
 62
     4
100
AcDbCircle
 10
84.70288774193432
 20
49.75665963333075
 30
0.0
 40
0.396226414941
100
AcDbArc
 50
149.9999999999998
 51
177.6707661647362
  0
ARC
  5
4F80
330
19
100
AcDbEntity
  8
JB-65C
100
AcDbCircle
 10
84.70288774193432
 20
49.75665963333075
 30
0.0
 40
0.4965243295000001
100
AcDbArc
 50
149.9999999999998
 51
179.9999999999998
  0
LINE
  5
4F81
330
19
100
AcDbEntity
  8
JB-65C
  6
HIDDEN2
 62
     4
100
AcDbLine
 10
84.35974560094496
 20
49.95477284080125
 30
0.0
 11
84.68953128519187
 21
50.52597840152576
 31
0.0
  0
LINE
  5
4F82
330
19
100
AcDbEntity
  8
JB-65C
100
AcDbLine
 10
84.27288505899028
 20
50.00492179808076
 30
0.0
 11
84.61975388989847
 21
50.60571623677576
 31
0.0
  0
ARC
  5
4F83
330
19
100
AcDbEntity
  8
JB-65C
  6
HIDDEN2
 62
     4
100
AcDbCircle
 10
85.04975657284251
 20
50.35745407202576
 30
0.0
 40
0.3421052630255001
100
AcDbArc
 50
89.99999999999991
 51
149.9999999999998
  0
ARC
  5
4F84
330
19
100
AcDbEntity
  8
JB-65C
100
AcDbCircle
 10
85.04975657284251
 20
50.35745407202576
 30
0.0
 40
0.3103277059375
100
AcDbArc
 50
89.99999999999991
 51
149.9999999999998
  0
ARC
  5
4F85
330
19
100
AcDbEntity
  8
JB-65C
100
AcDbCircle
 10
85.04975657284251
 20
50.35745407202576
 30
0.0
 40
0.4965243295000001
100
AcDbArc
 50
89.99999999999991
 51
149.9999999999998
  0
LINE
  5
4F86
330
19
100
AcDbEntity
  8
JB-65C
  6
HIDDEN2
 62
     4
100
AcDbLine
 10
84.40661589338589
 20
49.9277122648435
 30
0.0
 11
84.75348472429406
 21
50.52850670353851
 31
0.0
  0
LINE
  5
4F87
330
19
100
AcDbEntity
  8
JB-65C
100
AcDbLine
 10
84.43413606509428
 20
49.91182348629951
 30
0.0
 11
84.78100489600249
 21
50.51261792499452
 31
0.0
  0
ARC
  5
4F88
330
19
100
AcDbEntity
  8
JB-65C
  6
HIDDEN2
 62
     4
100
AcDbCircle
 10
84.38411912172533
 20
52.48923823030303
 30
0.0
 40
0.129096325
100
AcDbArc
 50
180.0
 51
270.0
  0
ARC
  5
4F89
330
19
100
AcDbEntity
  8
JB-65C
100
AcDbCircle
 10
84.39256003599682
 20
52.49569304725653
 30
0.0
 40
0.1861966235625
100
AcDbArc
 50
180.0
 51
270.0
  0
LINE
  5
4F8A
330
19
100
AcDbEntity
  8
JB-65C
100
AcDbLine
 10
84.20636341243431
 20
49.74197840152574
 30
0.0
 11
84.39256003599684
 21
49.74197840152574
 31
0.0
  0
LINE
  5
4F8B
330
19
100
AcDbEntity
  8
JB-65C
  6
HIDDEN2
 62
     4
100
AcDbLine
 10
84.25502279672532
 20
49.77276290995475
 30
0.0
 11
84.39409072265917
 21
49.77276290995475
 31
0.0
  0
LINE
  5
4F8C
330
19
100
AcDbEntity
  8
JB-65C
100
AcDbLine
 10
84.36078247890883
 20
52.41376653288902
 30
0.0
 11
84.36078247890883
 21
52.36226869761681
 31
0.0
  0
ARC
  5
4F8D
330
19
100
AcDbEntity
  8
JB-65C
100
AcDbCircle
 10
84.39256003599682
 20
52.49569304725653
 30
0.0
 40
0.0858987090035
100
AcDbArc
 50
180.0
 51
215.7193212773174
  0
LINE
  5
4F8E
330
19
100
AcDbEntity
  8
JB-65C
  6
HIDDEN2
 62
     4
100
AcDbLine
 10
84.25502279672532
 20
49.74197840152574
 30
0.0
 11
84.25502279672532
 21
49.77276290995475
 31
0.0
  0
LINE
  5
4F8F
330
19
100
AcDbEntity
  8
JB-65C
  6
HIDDEN2
 62
     4
100
AcDbLine
 10
84.39256003599682
 20
52.44554408997704
 30
0.0
 11
84.39256003599682
 21
52.41376653288902
 31
0.0
  0
LINE
  5
4F90
330
19
100
AcDbEntity
  8
JB-65C
  6
HIDDEN2
 62
     4
100
AcDbLine
 10
84.39256003599682
 20
52.36014190530302
 30
0.0
 11
84.39256003599682
 21
52.30949642369402
 31
0.0
  0
LINE
  5
4F91
330
19
100
AcDbEntity
  8
JB-65C
100
AcDbLine
 10
84.57290903274675
 20
52.83097595874855
 30
0.0
 11
84.61975388989849
 21
52.81749642350054
 31
0.0
  0
LWPOLYLINE
  5
4F92
330
19
100
AcDbEntity
  8
JB-65C
  6
HIDDEN2
 62
     4
100
AcDbPolyline
 90
       16
 70
     1
 43
0.0
 10
94.41794416550315
 20
58.47100320282136
 42
-0.0570336043824872
 10
94.34559302390779
 20
58.47928302847619
 42
-0.0707479349482362
 10
94.29074543774424
 20
58.50050264676882
 42
-0.1062580074245512
 10
94.24958472595646
 20
58.5367587983424
 42
-0.1605958272241693
 10
94.23805799958987
 20
58.57172060442919
 42
-0.1605958272241693
 10
94.24958472595646
 20
58.60668241051598
 42
-0.1062580074245512
 10
94.29074543774424
 20
58.64293856208957
 42
-0.0707479349482458
 10
94.34559302390779
 20
58.66415818038219
 42
-0.0570336043824894
 10
94.41794416550315
 20
58.67243800603701
 42
-0.0613061794465907
 10
94.4847934981621
 20
58.66421052912811
 42
-0.0746372058441798
 10
94.53597227667827
 20
58.64293856208957
 42
-0.1069792445843398
 10
94.57384840845405
 20
58.60722195575464
 42
-0.1515408478524677
 10
94.58486112106829
 20
58.57172060442919
 42
-0.1515408478524554
 10
94.57384840845405
 20
58.53621925310377
 42
-0.1069792445843337
 10
94.53597227667827
 20
58.50050264676882
 42
-0.0746372058441755
 10
94.4847934981621
 20
58.47923067973029
 42
-0.0613061794465806
  0
LINE
  5
4F93
330
19
100
AcDbEntity
  8
JB-65C
  6
HIDDEN2
 62
     4
100
AcDbLine
 10
94.76687105191478
 20
58.93867293814619
 30
0.0
 11
93.83115556034381
 21
58.93867293814619
 31
0.0
  0
LINE
  5
4F94
330
19
100
AcDbEntity
  8
JB-65C
  6
HIDDEN2
 62
     4
100
AcDbLine
 10
94.76687105191478
 20
58.97045049523417
 30
0.0
 11
93.84007462681829
 21
58.97045049523417
 31
0.0
  0
LINE
  5
4F95
330
19
100
AcDbEntity
  8
JB-65C
  6
HIDDEN2
 62
     4
100
AcDbLine
 10
94.79765556034379
 20
59.02407512282017
 30
0.0
 11
93.84007462681829
 21
59.02407512282017
 31
0.0
  0
LINE
  5
4F96
330
19
100
AcDbEntity
  8
JB-65C
100
AcDbLine
 10
94.79765556034379
 20
59.07472060442919
 30
0.0
 11
93.8718521839063
 21
59.07472060442917
 31
0.0
  0
LINE
  5
4F98
330
19
100
AcDbEntity
  8
JB-65C
  6
HIDDEN2
 62
     4
100
AcDbLine
 10
93.8718521839063
 20
59.02407512282017
 30
0.0
 11
93.8718521839063
 21
59.07472060442917
 31
0.0
  0
ARC
  5
4F99
330
19
100
AcDbEntity
  8
JB-65C
100
AcDbCircle
 10
93.8718521839063
 20
58.88852398086668
 30
0.0
 40
0.1861966235625
100
AcDbArc
 50
90.00000000000019
 51
180.0000000000002
  0
LINE
  5
4F9A
330
19
100
AcDbEntity
  8
JB-65C
  6
HIDDEN2
 62
     4
100
AcDbLine
 10
93.84007462681829
 20
58.97045049523417
 30
0.0
 11
93.84007462681829
 21
59.02407512282017
 31
0.0
  0
LINE
  5
4F9B
330
19
100
AcDbEntity
  8
JB-65C
  6
HIDDEN2
 62
     4
100
AcDbLine
 10
93.8718521839063
 20
58.97045049523417
 30
0.0
 11
93.8718521839063
 21
58.93867293814619
 31
0.0
  0
LINE
  5
4F9C
330
19
100
AcDbEntity
  8
JB-65C
100
AcDbLine
 10
93.9339177250938
 20
58.56672060462269
 30
0.0
 11
93.96540296480386
 21
58.55324106937468
 31
0.0
  0
LINE
  5
4F9D
330
19
100
AcDbEntity
  8
JB-65C
  6
HIDDEN2
 62
     4
100
AcDbLine
 10
94.79765556034379
 20
58.66600424218403
 30
0.0
 11
94.41794416550315
 21
58.67243800603701
 31
0.0
  0
LINE
  5
4F9E
330
19
100
AcDbEntity
  8
JB-65C
  6
HIDDEN2
 62
     4
100
AcDbLine
 10
94.79765556034379
 20
58.47743696667437
 30
0.0
 11
94.41794416550315
 21
58.47100320282136
 31
0.0
  0
LINE
  5
4F9F
330
19
100
AcDbEntity
  8
JB-65C
100
AcDbLine
 10
94.47840070760372
 20
58.55324106937468
 30
0.0
 11
94.53041213695936
 21
58.56672060462269
 31
0.0
  0
ARC
  5
4FA0
330
19
100
AcDbEntity
  8
JB-65C
100
AcDbCircle
 10
84.39256003599682
 20
58.88929980013152
 30
0.0
 40
0.1861966235625
100
AcDbArc
 50
90.00000000000007
 51
180.0000000000001
  0
ARC
  5
4FA1
330
19
100
AcDbEntity
  8
JB-65C
  6
HIDDEN2
 62
     4
100
AcDbCircle
 10
84.38411912172531
 20
58.89575461708504
 30
0.0
 40
0.129096325
100
AcDbArc
 50
90.00000000000007
 51
180.0000000000001
  0
CIRCLE
  5
4FA2
330
19
100
AcDbEntity
  8
JB-65C
  6
HIDDEN2
 62
     4
100
AcDbCircle
 10
84.46136341243432
 20
58.57249642369403
 30
0.0
 40
0.0938430982755
  0
ARC
  5
4FA3
330
19
100
AcDbEntity
  8
JB-65C
  6
HIDDEN2
 62
     4
100
AcDbCircle
 10
84.39256003599682
 20
58.88929980013152
 30
0.0
 40
0.0858987090035
100
AcDbArc
 50
144.2806787226826
 51
180.0000000000001
  0
LINE
  5
4FA4
330
19
100
AcDbEntity
  8
JB-65C
  6
HIDDEN2
 62
     4
100
AcDbLine
 10
84.36078247890883
 20
58.97122631449905
 30
0.0
 11
84.36078247890883
 21
59.02272414977126
 31
0.0
  0
LINE
  5
4FA5
330
19
100
AcDbEntity
  8
JB-65C
  6
HIDDEN2
 62
     4
100
AcDbLine
 10
84.39256003599682
 20
59.02485094208502
 30
0.0
 11
84.39256003599682
 21
59.07549642369405
 31
0.0
  0
LINE
  5
4FA6
330
19
100
AcDbEntity
  8
JB-65C
  6
HIDDEN2
 62
     4
100
AcDbLine
 10
84.39256003599682
 20
58.93944875741103
 30
0.0
 11
84.39256003599682
 21
58.97122631449905
 31
0.0
  0
LINE
  5
4FA7
330
19
100
AcDbEntity
  8
JB-65C
100
AcDbLine
 10
84.57290903274675
 20
58.55401688863953
 30
0.0
 11
84.61975388989847
 21
58.56749642388753
 31
0.0
  0
CIRCLE
  5
4FA8
330
19
100
AcDbEntity
  8
JB-65C
  6
HIDDEN2
 62
     4
100
AcDbCircle
 10
84.46136341243432
 20
58.57249642369403
 30
0.0
 40
0.0451837139845
  0
LINE
  5
4FA9
330
19
100
AcDbEntity
  8
JB-65C
  6
HIDDEN2
 62
     4
100
AcDbLine
 10
90.36606549787533
 20
52.49569304725653
 30
0.0
 11
90.36606549787533
 21
58.88929980013156
 31
0.0
  0
LINE
  5
4FAA
330
19
100
AcDbEntity
  8
JB-65C
100
AcDbLine
 10
90.46636341243434
 20
52.49569304725653
 30
0.0
 11
90.46636341243434
 21
58.88929980013156
 31
0.0
  0
LINE
  5
4FAB
330
19
100
AcDbEntity
  8
JB-65C
  6
HIDDEN2
 62
     4
100
AcDbLine
 10
90.41770402814334
 20
52.48923823030303
 30
0.0
 11
90.41770402814334
 21
58.89575461708504
 31
0.0
  0
LINE
  5
4FAC
330
19
100
AcDbEntity
  8
JB-65C
100
AcDbLine
 10
90.09981779212189
 20
52.83097595874855
 30
0.0
 11
90.05297293497019
 21
52.81749642350054
 31
0.0
  0
ARC
  5
4FAD
330
19
100
AcDbEntity
  8
JB-65C
  6
HIDDEN2
 62
     4
100
AcDbCircle
 10
90.28860770314334
 20
52.48923823030303
 30
0.0
 40
0.129096325
100
AcDbArc
 50
270.0
 51
0.0
  0
ARC
  5
4FAE
330
19
100
AcDbEntity
  8
JB-65C
  6
HIDDEN2
 62
     4
100
AcDbCircle
 10
90.28016678887182
 20
52.49569304725653
 30
0.0
 40
0.0858987090035
100
AcDbArc
 50
324.2806787226825
 51
0.0
  0
LINE
  5
4FAF
330
19
100
AcDbEntity
  8
JB-65C
  6
HIDDEN2
 62
     4
100
AcDbLine
 10
90.28016678887182
 20
52.36014190530302
 30
0.0
 11
90.28016678887182
 21
52.30949642369402
 31
0.0
  0
LINE
  5
4FB0
330
19
100
AcDbEntity
  8
JB-65C
  6
HIDDEN2
 62
     4
100
AcDbLine
 10
90.31194434595985
 20
52.41376653288902
 30
0.0
 11
90.31194434595981
 21
52.36226869761681
 31
0.0
  0
LINE
  5
4FB1
330
19
100
AcDbEntity
  8
JB-65C
  6
HIDDEN2
 62
     4
100
AcDbLine
 10
90.28016678887182
 20
52.44554408997704
 30
0.0
 11
90.28016678887182
 21
52.41376653288902
 31
0.0
  0
ARC
  5
4FB2
330
19
100
AcDbEntity
  8
JB-65C
100
AcDbCircle
 10
90.28016678887182
 20
52.49569304725653
 30
0.0
 40
0.1861966235625
100
AcDbArc
 50
270.0
 51
0.0
  0
LINE
  5
4FB3
330
19
100
AcDbEntity
  8
JB-65C
100
AcDbLine
 10
90.09981779212189
 20
58.55401688863953
 30
0.0
 11
90.05297293497019
 21
58.56749642388753
 31
0.0
  0
ARC
  5
4FB4
330
19
100
AcDbEntity
  8
JB-65C
100
AcDbCircle
 10
90.28016678887182
 20
58.88929980013156
 30
0.0
 40
0.1861966235625
100
AcDbArc
 50
0.0000000000000911
 51
90.00000000000007
  0
LINE
  5
4FB5
330
19
100
AcDbEntity
  8
JB-65C
  6
HIDDEN2
 62
     4
100
AcDbLine
 10
90.28016678887182
 20
59.02485094208505
 30
0.0
 11
90.28016678887182
 21
59.07549642369405
 31
0.0
  0
LINE
  5
4FB6
330
19
100
AcDbEntity
  8
JB-65C
  6
HIDDEN2
 62
     4
100
AcDbLine
 10
90.28016678887182
 20
58.93944875741105
 30
0.0
 11
90.28016678887182
 21
58.97122631449905
 31
0.0
  0
ARC
  5
4FB7
330
19
100
AcDbEntity
  8
JB-65C
  6
HIDDEN2
 62
     4
100
AcDbCircle
 10
90.28016678887182
 20
58.88929980013156
 30
0.0
 40
0.0858987090035
100
AcDbArc
 50
0.0000000000000911
 51
35.71932127731759
  0
ARC
  5
4FB8
330
19
100
AcDbEntity
  8
JB-65C
  6
HIDDEN2
 62
     4
100
AcDbCircle
 10
90.28860770314334
 20
58.89575461708504
 30
0.0
 40
0.129096325
100
AcDbArc
 50
0.0000000000000911
 51
90.00000000000007
  0
LINE
  5
4FB9
330
19
100
AcDbEntity
  8
JB-65C
  6
HIDDEN2
 62
     4
100
AcDbLine
 10
90.31194434595981
 20
58.97122631449905
 30
0.0
 11
90.31194434595981
 21
59.02272414977129
 31
0.0
  0
MTEXT
  5
4FBA
330
19
100
AcDbEntity
  8
0
 62
     4
100
AcDbMText
 10
108.5174771466286
 20
150.5853645003276
 30
0.0
 40
0.125
 41
0.0
 71
     6
 72
     1
  1
\A1;
 73
     1
 44
1.0
1001
ACAD
1000
MTEXTBEGIN
1070
    73
1070
     1
1070
    44
1040
1.0
1070
    74
1070
     0
1000
MTEXTEND
  0
MTEXT
  5
4FBB
330
19
100
AcDbEntity
  8
0
 62
     4
100
AcDbMText
 10
107.3594100910262
 20
150.9097325752475
 30
0.0
 40
0.125
 41
0.0
 71
     4
 72
     1
  1
\A1;
 73
     1
 44
1.0
1001
ACAD
1000
MTEXTBEGIN
1070
    73
1070
     1
1070
    44
1040
1.0
1070
    74
1070
     0
1000
MTEXTEND
  0
MTEXT
  5
4FBC
330
19
100
AcDbEntity
  8
0
 62
     4
100
AcDbMText
 10
103.2825841326886
 20
148.4518922108432
 30
0.0
 40
0.125
 41
0.0
 71
     6
 72
     1
  1
\A1;
 73
     1
 44
1.0
1001
ACAD
1000
MTEXTBEGIN
1070
    73
1070
     1
1070
    44
1040
1.0
1070
    74
1070
     0
1000
MTEXTEND
  0
MTEXT
  5
4FBD
330
19
100
AcDbEntity
  8
0
 62
     4
100
AcDbMText
 10
103.7866303594338
 20
147.9062439566425
 30
0.0
 40
0.125
 41
0.0
 71
     6
 72
     1
  1
\A1;
 73
     1
 44
1.0
1001
ACAD
1000
MTEXTBEGIN
1070
    73
1070
     1
1070
    44
1040
1.0
1070
    74
1070
     0
1000
MTEXTEND
  0
MTEXT
  5
4FBE
330
19
100
AcDbEntity
  8
0
 62
     4
100
AcDbMText
 10
103.4145373284457
 20
146.662508620948
 30
0.0
 40
0.125
 41
0.0
 71
     6
 72
     1
  1
\A1;
 73
     1
 44
1.0
1001
ACAD
1000
MTEXTBEGIN
1070
    73
1070
     1
1070
    44
1040
1.0
1070
    74
1070
     0
1000
MTEXTEND
  0
MTEXT
  5
4FBF
330
19
100
AcDbEntity
  8
0
 62
     4
100
AcDbMText
 10
103.4672565310976
 20
146.41182969629
 30
0.0
 40
0.125
 41
0.0
 71
     6
 72
     1
  1
\A1;
 73
     1
 44
1.0
1001
ACAD
1000
MTEXTBEGIN
1070
    73
1070
     1
1070
    44
1040
1.0
1070
    74
1070
     0
1000
MTEXTEND
  0
MTEXT
  5
4FC0
330
19
100
AcDbEntity
  8
0
 62
     4
100
AcDbMText
 10
118.2282251911239
 20
135.0426591265272
 30
0.0
 40
0.125
 41
0.0
 71
     6
 72
     1
  1
\A1;
 73
     1
 44
1.0
1001
ACAD
1000
MTEXTBEGIN
1070
    73
1070
     1
1070
    44
1040
1.0
1070
    74
1070
     0
1000
MTEXTEND
  0
MTEXT
  5
4FC1
330
19
100
AcDbEntity
  8
0
 62
     4
100
AcDbMText
 10
124.213214552766
 20
133.0919466939773
 30
0.0
 40
0.125
 41
0.0
 71
     4
 72
     1
  1
\A1;
 73
     1
 44
1.0
1001
ACAD
1000
MTEXTBEGIN
1070
    73
1070
     1
1070
    44
1040
1.0
1070
    74
1070
     0
1000
MTEXTEND
  0
MTEXT
  5
4FC2
330
19
100
AcDbEntity
  8
0
 62
     4
100
AcDbMText
 10
97.54300378293141
 20
127.6499040709551
 30
0.0
 40
0.125
 41
0.0
 71
     4
 72
     1
  1
\A1;
 73
     1
 44
1.0
1001
ACAD
1000
MTEXTBEGIN
1070
    73
1070
     1
1070
    44
1040
1.0
1070
    74
1070
     0
1000
MTEXTEND
  0
MTEXT
  5
4FC3
330
19
100
AcDbEntity
  8
0
 62
     4
100
AcDbMText
 10
93.60192149248213
 20
123.8957997009328
 30
0.0
 40
0.125
 41
0.0
 71
     6
 72
     1
  1
\A1;
 73
     1
 44
1.0
1001
ACAD
1000
MTEXTBEGIN
1070
    73
1070
     1
1070
    44
1040
1.0
1070
    74
1070
     0
1000
MTEXTEND
  0
MTEXT
  5
4FC4
330
19
100
AcDbEntity
  8
0
 62
     4
100
AcDbMText
 10
93.91687628213086
 20
124.646293099568
 30
0.0
 40
0.125
 41
0.0
 71
     6
 72
     1
  1
\A1;
 73
     1
 44
1.0
1001
ACAD
1000
MTEXTBEGIN
1070
    73
1070
     1
1070
    44
1040
1.0
1070
    74
1070
     0
1000
MTEXTEND
  0
MTEXT
  5
4FC5
330
19
100
AcDbEntity
  8
0
 62
     4
100
AcDbMText
 10
93.48886080843351
 20
125.1950409618369
 30
0.0
 40
0.125
 41
0.0
 71
     6
 72
     1
  1
\A1;
 73
     1
 44
1.0
1001
ACAD
1000
MTEXTBEGIN
1070
    73
1070
     1
1070
    44
1040
1.0
1070
    74
1070
     0
1000
MTEXTEND
  0
MTEXT
  5
4FC6
330
19
100
AcDbEntity
  8
0
 62
     4
100
AcDbMText
 10
101.9515971761125
 20
126.8507469909016
 30
0.0
 40
0.125
 41
0.0
 71
     6
 72
     1
  1
\A1;
 73
     1
 44
1.0
1001
ACAD
1000
MTEXTBEGIN
1070
    73
1070
     1
1070
    44
1040
1.0
1070
    74
1070
     0
1000
MTEXTEND
  0
MTEXT
  5
4FC7
330
19
100
AcDbEntity
  8
0
 62
     4
100
AcDbMText
 10
107.823776458953
 20
124.9136950055474
 30
0.0
 40
0.125
 41
0.0
 71
     4
 72
     1
  1
\A1;
 73
     1
 44
1.0
1001
ACAD
1000
MTEXTBEGIN
1070
    73
1070
     1
1070
    44
1040
1.0
1070
    74
1070
     0
1000
MTEXTEND
  0
MTEXT
  5
4FC8
330
19
100
AcDbEntity
  8
0
 62
     5
100
AcDbMText
 10
97.82867892993294
 20
127.5740865400066
 30
0.0
 40
0.125
 41
0.0
 71
     4
 72
     1
  1
\A1;
 73
     1
 44
1.0
1001
ACAD
1000
MTEXTBEGIN
1070
    73
1070
     1
1070
    44
1040
1.0
1070
    74
1070
     0
1000
MTEXTEND
  0
MTEXT
  5
4FC9
330
19
100
AcDbEntity
  8
0
 62
     5
100
AcDbMText
 10
93.74032338072929
 20
124.9570105662497
 30
0.0
 40
0.125
 41
0.0
 71
     6
 72
     1
  1
\A1;
 73
     1
 44
1.0
1001
ACAD
1000
MTEXTBEGIN
1070
    73
1070
     1
1070
    44
1040
1.0
1070
    74
1070
     0
1000
MTEXTEND
  0
MTEXT
  5
4FCA
330
19
100
AcDbEntity
  8
0
 62
     5
100
AcDbMText
 10
94.00729975992256
 20
124.3099272421075
 30
0.0
 40
0.125
 41
0.0
 71
     6
 72
     1
  1
\A1;
 73
     1
 44
1.0
1001
ACAD
1000
MTEXTBEGIN
1070
    73
1070
     1
1070
    44
1040
1.0
1070
    74
1070
     0
1000
MTEXTEND
  0
MTEXT
  5
4FCB
330
19
100
AcDbEntity
  8
0
 62
     5
100
AcDbMText
 10
93.72981198084232
 20
123.5986770107987
 30
0.0
 40
0.125
 41
0.0
 71
     6
 72
     1
  1
\A1;
 73
     1
 44
1.0
1001
ACAD
1000
MTEXTBEGIN
1070
    73
1070
     1
1070
    44
1040
1.0
1070
    74
1070
     0
1000
MTEXTEND
  0
MTEXT
  5
4FCC
330
19
100
AcDbEntity
  8
0
 62
     5
100
AcDbMText
 10
93.70112914219342
 20
122.5738009191668
 30
0.0
 40
0.125
 41
0.0
 71
     6
 72
     1
  1
\A1;
 73
     1
 44
1.0
1001
ACAD
1000
MTEXTBEGIN
1070
    73
1070
     1
1070
    44
1040
1.0
1070
    74
1070
     0
1000
MTEXTEND
  0
MTEXT
  5
4FCD
330
19
100
AcDbEntity
  8
0
 62
     5
100
AcDbMText
 10
101.9385803784033
 20
127.0971209054231
 30
0.0
 40
0.125
 41
0.0
 71
     6
 72
     1
  1
\A1;
 73
     1
 44
1.0
1001
ACAD
1000
MTEXTBEGIN
1070
    73
1070
     1
1070
    44
1040
1.0
1070
    74
1070
     0
1000
MTEXTEND
  0
MTEXT
  5
4FCE
330
19
100
AcDbEntity
  8
0
 62
     5
100
AcDbMText
 10
107.7939418648564
 20
124.7183859250844
 30
0.0
 40
0.125
 41
0.0
 71
     4
 72
     1
  1
\A1;
 73
     1
 44
1.0
1001
ACAD
1000
MTEXTBEGIN
1070
    73
1070
     1
1070
    44
1040
1.0
1070
    74
1070
     0
1000
MTEXTEND
  0
MTEXT
  5
4FCF
330
19
100
AcDbEntity
  8
0
 62
     5
100
AcDbMText
 10
103.1945764185795
 20
120.9149703599377
 30
0.0
 40
0.125
 41
0.0
 71
     4
 72
     1
  1
\A1;
 73
     1
 44
1.0
1001
ACAD
1000
MTEXTBEGIN
1070
    73
1070
     1
1070
    44
1040
1.0
1070
    74
1070
     0
1000
MTEXTEND
  0
MTEXT
  5
4FD0
330
19
100
AcDbEntity
  8
0
 62
     4
100
AcDbMText
 10
114.3729682539716
 20
90.34748676333734
 30
0.0
 40
0.125
 41
0.0
 71
     4
 72
     1
  1
\A1;
 73
     1
 44
1.0
1001
ACAD
1000
MTEXTBEGIN
1070
    73
1070
     1
1070
    44
1040
1.0
1070
    74
1070
     0
1000
MTEXTEND
  0
MTEXT
  5
4FDF
330
19
100
AcDbEntity
  8
0
 62
     4
100
AcDbMText
 10
137.7669651155933
 20
136.485805671284
 30
0.0
 40
0.125
 41
0.0
 71
     6
 72
     1
  1
\A1;
 73
     1
 44
1.0
1001
ACAD
1000
MTEXTBEGIN
1070
    73
1070
     1
1070
    44
1040
1.0
1070
    74
1070
     0
1000
MTEXTEND
  0
MTEXT
  5
4FE0
330
19
100
AcDbEntity
  8
0
 62
     4
100
AcDbMText
 10
136.608898059991
 20
136.8101737462039
 30
0.0
 40
0.125
 41
0.0
 71
     4
 72
     1
  1
\A1;
 73
     1
 44
1.0
1001
ACAD
1000
MTEXTBEGIN
1070
    73
1070
     1
1070
    44
1040
1.0
1070
    74
1070
     0
1000
MTEXTEND
  0
MTEXT
  5
4FE1
330
19
100
AcDbEntity
  8
0
 62
     4
100
AcDbMText
 10
132.5320721016533
 20
134.3523333817996
 30
0.0
 40
0.125
 41
0.0
 71
     6
 72
     1
  1
\A1;
 73
     1
 44
1.0
1001
ACAD
1000
MTEXTBEGIN
1070
    73
1070
     1
1070
    44
1040
1.0
1070
    74
1070
     0
1000
MTEXTEND
  0
MTEXT
  5
4FE2
330
19
100
AcDbEntity
  8
0
 62
     4
100
AcDbMText
 10
133.0361183283986
 20
133.8066851275989
 30
0.0
 40
0.125
 41
0.0
 71
     6
 72
     1
  1
\A1;
 73
     1
 44
1.0
1001
ACAD
1000
MTEXTBEGIN
1070
    73
1070
     1
1070
    44
1040
1.0
1070
    74
1070
     0
1000
MTEXTEND
  0
MTEXT
  5
4FE3
330
19
100
AcDbEntity
  8
0
 62
     4
100
AcDbMText
 10
132.6640252974105
 20
132.5629497919044
 30
0.0
 40
0.125
 41
0.0
 71
     6
 72
     1
  1
\A1;
 73
     1
 44
1.0
1001
ACAD
1000
MTEXTBEGIN
1070
    73
1070
     1
1070
    44
1040
1.0
1070
    74
1070
     0
1000
MTEXTEND
  0
MTEXT
  5
4FE4
330
19
100
AcDbEntity
  8
0
 62
     4
100
AcDbMText
 10
132.7167445000623
 20
132.3122708672464
 30
0.0
 40
0.125
 41
0.0
 71
     6
 72
     1
  1
\A1;
 73
     1
 44
1.0
1001
ACAD
1000
MTEXTBEGIN
1070
    73
1070
     1
1070
    44
1040
1.0
1070
    74
1070
     0
1000
MTEXTEND
  0
MTEXT
  5
4FE5
330
19
100
AcDbEntity
  8
0
 62
     4
100
AcDbMText
 10
147.4777131600886
 20
120.9431002974836
 30
0.0
 40
0.125
 41
0.0
 71
     6
 72
     1
  1
\A1;
 73
     1
 44
1.0
1001
ACAD
1000
MTEXTBEGIN
1070
    73
1070
     1
1070
    44
1040
1.0
1070
    74
1070
     0
1000
MTEXTEND
  0
MTEXT
  5
4FE6
330
19
100
AcDbEntity
  8
0
 62
     4
100
AcDbMText
 10
153.4627025217308
 20
118.9923878649337
 30
0.0
 40
0.125
 41
0.0
 71
     4
 72
     1
  1
\A1;
 73
     1
 44
1.0
1001
ACAD
1000
MTEXTBEGIN
1070
    73
1070
     1
1070
    44
1040
1.0
1070
    74
1070
     0
1000
MTEXTEND
  0
MTEXT
  5
4FE7
330
19
100
AcDbEntity
  8
0
 62
     4
100
AcDbMText
 10
126.7924917518961
 20
113.5503452419115
 30
0.0
 40
0.125
 41
0.0
 71
     4
 72
     1
  1
\A1;
 73
     1
 44
1.0
1001
ACAD
1000
MTEXTBEGIN
1070
    73
1070
     1
1070
    44
1040
1.0
1070
    74
1070
     0
1000
MTEXTEND
  0
MTEXT
  5
4FE8
330
19
100
AcDbEntity
  8
0
 62
     4
100
AcDbMText
 10
122.8514094614469
 20
109.7962408718892
 30
0.0
 40
0.125
 41
0.0
 71
     6
 72
     1
  1
\A1;
 73
     1
 44
1.0
1001
ACAD
1000
MTEXTBEGIN
1070
    73
1070
     1
1070
    44
1040
1.0
1070
    74
1070
     0
1000
MTEXTEND
  0
MTEXT
  5
4FE9
330
19
100
AcDbEntity
  8
0
 62
     4
100
AcDbMText
 10
123.1663642510956
 20
110.5467342705244
 30
0.0
 40
0.125
 41
0.0
 71
     6
 72
     1
  1
\A1;
 73
     1
 44
1.0
1001
ACAD
1000
MTEXTBEGIN
1070
    73
1070
     1
1070
    44
1040
1.0
1070
    74
1070
     0
1000
MTEXTEND
  0
MTEXT
  5
4FEA
330
19
100
AcDbEntity
  8
0
 62
     4
100
AcDbMText
 10
122.7383487773982
 20
111.0954821327933
 30
0.0
 40
0.125
 41
0.0
 71
     6
 72
     1
  1
\A1;
 73
     1
 44
1.0
1001
ACAD
1000
MTEXTBEGIN
1070
    73
1070
     1
1070
    44
1040
1.0
1070
    74
1070
     0
1000
MTEXTEND
  0
MTEXT
  5
4FEB
330
19
100
AcDbEntity
  8
0
 62
     4
100
AcDbMText
 10
131.2010851450772
 20
112.751188161858
 30
0.0
 40
0.125
 41
0.0
 71
     6
 72
     1
  1
\A1;
 73
     1
 44
1.0
1001
ACAD
1000
MTEXTBEGIN
1070
    73
1070
     1
1070
    44
1040
1.0
1070
    74
1070
     0
1000
MTEXTEND
  0
MTEXT
  5
4FEC
330
19
100
AcDbEntity
  8
0
 62
     4
100
AcDbMText
 10
137.0732644279177
 20
110.8141361765038
 30
0.0
 40
0.125
 41
0.0
 71
     4
 72
     1
  1
\A1;
 73
     1
 44
1.0
1001
ACAD
1000
MTEXTBEGIN
1070
    73
1070
     1
1070
    44
1040
1.0
1070
    74
1070
     0
1000
MTEXTEND
  0
MTEXT
  5
4FED
330
19
100
AcDbEntity
  8
0
 62
     5
100
AcDbMText
 10
127.0781668988977
 20
113.474527710963
 30
0.0
 40
0.125
 41
0.0
 71
     4
 72
     1
  1
\A1;
 73
     1
 44
1.0
1001
ACAD
1000
MTEXTBEGIN
1070
    73
1070
     1
1070
    44
1040
1.0
1070
    74
1070
     0
1000
MTEXTEND
  0
MTEXT
  5
4FEE
330
19
100
AcDbEntity
  8
0
 62
     5
100
AcDbMText
 10
122.989811349694
 20
110.8574517372062
 30
0.0
 40
0.125
 41
0.0
 71
     6
 72
     1
  1
\A1;
 73
     1
 44
1.0
1001
ACAD
1000
MTEXTBEGIN
1070
    73
1070
     1
1070
    44
1040
1.0
1070
    74
1070
     0
1000
MTEXTEND
  0
MTEXT
  5
4FEF
330
19
100
AcDbEntity
  8
0
 62
     5
100
AcDbMText
 10
123.2567877288873
 20
110.2103684130639
 30
0.0
 40
0.125
 41
0.0
 71
     6
 72
     1
  1
\A1;
 73
     1
 44
1.0
1001
ACAD
1000
MTEXTBEGIN
1070
    73
1070
     1
1070
    44
1040
1.0
1070
    74
1070
     0
1000
MTEXTEND
  0
MTEXT
  5
4FF0
330
19
100
AcDbEntity
  8
0
 62
     5
100
AcDbMText
 10
122.979299949807
 20
109.4991181817551
 30
0.0
 40
0.125
 41
0.0
 71
     6
 72
     1
  1
\A1;
 73
     1
 44
1.0
1001
ACAD
1000
MTEXTBEGIN
1070
    73
1070
     1
1070
    44
1040
1.0
1070
    74
1070
     0
1000
MTEXTEND
  0
MTEXT
  5
4FF1
330
19
100
AcDbEntity
  8
0
 62
     5
100
AcDbMText
 10
122.9506171111581
 20
108.4742420901233
 30
0.0
 40
0.125
 41
0.0
 71
     6
 72
     1
  1
\A1;
 73
     1
 44
1.0
1001
ACAD
1000
MTEXTBEGIN
1070
    73
1070
     1
1070
    44
1040
1.0
1070
    74
1070
     0
1000
MTEXTEND
  0
MTEXT
  5
4FF2
330
19
100
AcDbEntity
  8
0
 62
     5
100
AcDbMText
 10
131.188068347368
 20
112.9975620763795
 30
0.0
 40
0.125
 41
0.0
 71
     6
 72
     1
  1
\A1;
 73
     1
 44
1.0
1001
ACAD
1000
MTEXTBEGIN
1070
    73
1070
     1
1070
    44
1040
1.0
1070
    74
1070
     0
1000
MTEXTEND
  0
MTEXT
  5
4FF3
330
19
100
AcDbEntity
  8
0
 62
     5
100
AcDbMText
 10
137.0434298338211
 20
110.6188270960408
 30
0.0
 40
0.125
 41
0.0
 71
     4
 72
     1
  1
\A1;
 73
     1
 44
1.0
1001
ACAD
1000
MTEXTBEGIN
1070
    73
1070
     1
1070
    44
1040
1.0
1070
    74
1070
     0
1000
MTEXTEND
  0
MTEXT
  5
4FF4
330
19
100
AcDbEntity
  8
0
 62
     5
100
AcDbMText
 10
132.4440643875442
 20
106.8154115308941
 30
0.0
 40
0.125
 41
0.0
 71
     4
 72
     1
  1
\A1;
 73
     1
 44
1.0
1001
ACAD
1000
MTEXTBEGIN
1070
    73
1070
     1
1070
    44
1040
1.0
1070
    74
1070
     0
1000
MTEXTEND
  0
MTEXT
  5
4FF5
330
19
100
AcDbEntity
  8
0
 62
     4
100
AcDbMText
 10
143.6224562229364
 20
76.24792793429374
 30
0.0
 40
0.125
 41
0.0
 71
     4
 72
     1
  1
\A1;
 73
     1
 44
1.0
1001
ACAD
1000
MTEXTBEGIN
1070
    73
1070
     1
1070
    44
1040
1.0
1070
    74
1070
     0
1000
MTEXTEND
  0
MTEXT
  5
4FF6
330
19
100
AcDbEntity
  8
0
 62
     4
100
AcDbMText
 10
121.2434665594347
 20
137.0354909835912
 30
0.0
 40
0.125
 41
0.0
 71
     6
 72
     1
  1
\A1;
 73
     1
 44
1.0
1001
ACAD
1000
MTEXTBEGIN
1070
    73
1070
     1
1070
    44
1040
1.0
1070
    74
1070
     0
1000
MTEXTEND
  0
MTEXT
  5
4FF7
330
19
100
AcDbEntity
  8
0
 62
     4
100
AcDbMText
 10
120.0853995038323
 20
137.359859058511
 30
0.0
 40
0.125
 41
0.0
 71
     4
 72
     1
  1
\A1;
 73
     1
 44
1.0
1001
ACAD
1000
MTEXTBEGIN
1070
    73
1070
     1
1070
    44
1040
1.0
1070
    74
1070
     0
1000
MTEXTEND
  0
MTEXT
  5
4FF8
330
19
100
AcDbEntity
  8
0
 62
     4
100
AcDbMText
 10
116.0085735454947
 20
134.9020186941068
 30
0.0
 40
0.125
 41
0.0
 71
     6
 72
     1
  1
\A1;
 73
     1
 44
1.0
1001
ACAD
1000
MTEXTBEGIN
1070
    73
1070
     1
1070
    44
1040
1.0
1070
    74
1070
     0
1000
MTEXTEND
  0
MTEXT
  5
4FF9
330
19
100
AcDbEntity
  8
0
 62
     4
100
AcDbMText
 10
116.51261977224
 20
134.3563704399061
 30
0.0
 40
0.125
 41
0.0
 71
     6
 72
     1
  1
\A1;
 73
     1
 44
1.0
1001
ACAD
1000
MTEXTBEGIN
1070
    73
1070
     1
1070
    44
1040
1.0
1070
    74
1070
     0
1000
MTEXTEND
  0
MTEXT
  5
4FFA
330
19
100
AcDbEntity
  8
0
 62
     4
100
AcDbMText
 10
116.1405267412518
 20
133.1126351042116
 30
0.0
 40
0.125
 41
0.0
 71
     6
 72
     1
  1
\A1;
 73
     1
 44
1.0
1001
ACAD
1000
MTEXTBEGIN
1070
    73
1070
     1
1070
    44
1040
1.0
1070
    74
1070
     0
1000
MTEXTEND
  0
MTEXT
  5
4FFB
330
19
100
AcDbEntity
  8
0
 62
     4
100
AcDbMText
 10
116.1932459439037
 20
132.8619561795536
 30
0.0
 40
0.125
 41
0.0
 71
     6
 72
     1
  1
\A1;
 73
     1
 44
1.0
1001
ACAD
1000
MTEXTBEGIN
1070
    73
1070
     1
1070
    44
1040
1.0
1070
    74
1070
     0
1000
MTEXTEND
  0
MTEXT
  5
4FFC
330
19
100
AcDbEntity
  8
0
 62
     4
100
AcDbMText
 10
130.95421460393
 20
121.4927856097908
 30
0.0
 40
0.125
 41
0.0
 71
     6
 72
     1
  1
\A1;
 73
     1
 44
1.0
1001
ACAD
1000
MTEXTBEGIN
1070
    73
1070
     1
1070
    44
1040
1.0
1070
    74
1070
     0
1000
MTEXTEND
  0
MTEXT
  5
4FFD
330
19
100
AcDbEntity
  8
0
 62
     4
100
AcDbMText
 10
136.9392039655721
 20
119.5420731772409
 30
0.0
 40
0.125
 41
0.0
 71
     4
 72
     1
  1
\A1;
 73
     1
 44
1.0
1001
ACAD
1000
MTEXTBEGIN
1070
    73
1070
     1
1070
    44
1040
1.0
1070
    74
1070
     0
1000
MTEXTEND
  0
MTEXT
  5
4FFE
330
19
100
AcDbEntity
  8
0
 62
     4
100
AcDbMText
 10
110.2689931957375
 20
114.1000305542187
 30
0.0
 40
0.125
 41
0.0
 71
     4
 72
     1
  1
\A1;
 73
     1
 44
1.0
1001
ACAD
1000
MTEXTBEGIN
1070
    73
1070
     1
1070
    44
1040
1.0
1070
    74
1070
     0
1000
MTEXTEND
  0
MTEXT
  5
4FFF
330
19
100
AcDbEntity
  8
0
 62
     4
100
AcDbMText
 10
106.3279109052882
 20
110.3459261841964
 30
0.0
 40
0.125
 41
0.0
 71
     6
 72
     1
  1
\A1;
 73
     1
 44
1.0
1001
ACAD
1000
MTEXTBEGIN
1070
    73
1070
     1
1070
    44
1040
1.0
1070
    74
1070
     0
1000
MTEXTEND
  0
MTEXT
  5
5000
330
19
100
AcDbEntity
  8
0
 62
     4
100
AcDbMText
 10
106.6428656949369
 20
111.0964195828315
 30
0.0
 40
0.125
 41
0.0
 71
     6
 72
     1
  1
\A1;
 73
     1
 44
1.0
1001
ACAD
1000
MTEXTBEGIN
1070
    73
1070
     1
1070
    44
1040
1.0
1070
    74
1070
     0
1000
MTEXTEND
  0
MTEXT
  5
5001
330
19
100
AcDbEntity
  8
0
 62
     4
100
AcDbMText
 10
106.2148502212396
 20
111.6451674451005
 30
0.0
 40
0.125
 41
0.0
 71
     6
 72
     1
  1
\A1;
 73
     1
 44
1.0
1001
ACAD
1000
MTEXTBEGIN
1070
    73
1070
     1
1070
    44
1040
1.0
1070
    74
1070
     0
1000
MTEXTEND
  0
MTEXT
  5
5002
330
19
100
AcDbEntity
  8
0
 62
     4
100
AcDbMText
 10
114.6775865889186
 20
113.3008734741652
 30
0.0
 40
0.125
 41
0.0
 71
     6
 72
     1
  1
\A1;
 73
     1
 44
1.0
1001
ACAD
1000
MTEXTBEGIN
1070
    73
1070
     1
1070
    44
1040
1.0
1070
    74
1070
     0
1000
MTEXTEND
  0
MTEXT
  5
5003
330
19
100
AcDbEntity
  8
0
 62
     4
100
AcDbMText
 10
120.5497658717591
 20
111.363821488811
 30
0.0
 40
0.125
 41
0.0
 71
     4
 72
     1
  1
\A1;
 73
     1
 44
1.0
1001
ACAD
1000
MTEXTBEGIN
1070
    73
1070
     1
1070
    44
1040
1.0
1070
    74
1070
     0
1000
MTEXTEND
  0
MTEXT
  5
5004
330
19
100
AcDbEntity
  8
0
 62
     5
100
AcDbMText
 10
110.554668342739
 20
114.0242130232701
 30
0.0
 40
0.125
 41
0.0
 71
     4
 72
     1
  1
\A1;
 73
     1
 44
1.0
1001
ACAD
1000
MTEXTBEGIN
1070
    73
1070
     1
1070
    44
1040
1.0
1070
    74
1070
     0
1000
MTEXTEND
  0
MTEXT
  5
5005
330
19
100
AcDbEntity
  8
0
 62
     5
100
AcDbMText
 10
106.4663127935354
 20
111.4071370495133
 30
0.0
 40
0.125
 41
0.0
 71
     6
 72
     1
  1
\A1;
 73
     1
 44
1.0
1001
ACAD
1000
MTEXTBEGIN
1070
    73
1070
     1
1070
    44
1040
1.0
1070
    74
1070
     0
1000
MTEXTEND
  0
MTEXT
  5
5006
330
19
100
AcDbEntity
  8
0
 62
     5
100
AcDbMText
 10
106.7332891727286
 20
110.7600537253711
 30
0.0
 40
0.125
 41
0.0
 71
     6
 72
     1
  1
\A1;
 73
     1
 44
1.0
1001
ACAD
1000
MTEXTBEGIN
1070
    73
1070
     1
1070
    44
1040
1.0
1070
    74
1070
     0
1000
MTEXTEND
  0
MTEXT
  5
5007
330
19
100
AcDbEntity
  8
0
 62
     5
100
AcDbMText
 10
106.4558013936484
 20
110.0488034940623
 30
0.0
 40
0.125
 41
0.0
 71
     6
 72
     1
  1
\A1;
 73
     1
 44
1.0
1001
ACAD
1000
MTEXTBEGIN
1070
    73
1070
     1
1070
    44
1040
1.0
1070
    74
1070
     0
1000
MTEXTEND
  0
MTEXT
  5
5008
330
19
100
AcDbEntity
  8
0
 62
     5
100
AcDbMText
 10
106.4271185549995
 20
109.0239274024304
 30
0.0
 40
0.125
 41
0.0
 71
     6
 72
     1
  1
\A1;
 73
     1
 44
1.0
1001
ACAD
1000
MTEXTBEGIN
1070
    73
1070
     1
1070
    44
1040
1.0
1070
    74
1070
     0
1000
MTEXTEND
  0
MTEXT
  5
5009
330
19
100
AcDbEntity
  8
0
 62
     5
100
AcDbMText
 10
114.6645697912094
 20
113.5472473886867
 30
0.0
 40
0.125
 41
0.0
 71
     6
 72
     1
  1
\A1;
 73
     1
 44
1.0
1001
ACAD
1000
MTEXTBEGIN
1070
    73
1070
     1
1070
    44
1040
1.0
1070
    74
1070
     0
1000
MTEXTEND
  0
MTEXT
  5
500A
330
19
100
AcDbEntity
  8
0
 62
     5
100
AcDbMText
 10
120.5199312776625
 20
111.1685124083479
 30
0.0
 40
0.125
 41
0.0
 71
     4
 72
     1
  1
\A1;
 73
     1
 44
1.0
1001
ACAD
1000
MTEXTBEGIN
1070
    73
1070
     1
1070
    44
1040
1.0
1070
    74
1070
     0
1000
MTEXTEND
  0
MTEXT
  5
500B
330
19
100
AcDbEntity
  8
0
 62
     5
100
AcDbMText
 10
115.9205658313856
 20
107.3650968432013
 30
0.0
 40
0.125
 41
0.0
 71
     4
 72
     1
  1
\A1;
 73
     1
 44
1.0
1001
ACAD
1000
MTEXTBEGIN
1070
    73
1070
     1
1070
    44
1040
1.0
1070
    74
1070
     0
1000
MTEXTEND
  0
MTEXT
  5
500C
330
19
100
AcDbEntity
  8
0
 62
     4
100
AcDbMText
 10
127.0989576667777
 20
76.79761324660091
 30
0.0
 40
0.125
 41
0.0
 71
     4
 72
     1
  1
\A1;
 73
     1
 44
1.0
1001
ACAD
1000
MTEXTBEGIN
1070
    73
1070
     1
1070
    44
1040
1.0
1070
    74
1070
     0
1000
MTEXTEND
  0
CIRCLE
  5
5011
330
19
100
AcDbEntity
  8
JB-65C
  6
HIDDEN2
 62
     4
100
AcDbCircle
 10
85.20636341243433
 20
57.94449642369404
 30
0.0
 40
0.094
  0
CIRCLE
  5
5012
330
19
100
AcDbEntity
  8
JB-65C
  6
HIDDEN2
 62
     4
100
AcDbCircle
 10
85.20636341243433
 20
57.94449642369404
 30
0.0
 40
0.045
  0
LINE
  5
5013
330
19
100
AcDbEntity
  8
JB-65C
  6
CENTER2
 62
     1
100
AcDbLine
 10
87.33636341243432
 20
59.17549642369404
 30
0.0
 11
87.33636341243432
 21
52.20949642369403
 31
0.0
  0
LINE
  5
5016
330
19
100
AcDbEntity
  8
JB-65C
100
AcDbLine
 10
84.20636341243431
 20
49.75665963333075
 30
0.0
 11
84.20636341243431
 21
49.74197840152574
 31
0.0
  0
LINE
  5
5017
330
19
100
AcDbEntity
  8
JB-65C
100
AcDbLine
 10
84.3925600359968
 20
49.75665963333075
 30
0.0
 11
84.39256003599684
 21
49.74197840152574
 31
0.0
  0
LWPOLYLINE
  5
5018
330
19
100
AcDbEntity
  8
JB-65C
  6
HIDDEN2
 62
     4
100
AcDbPolyline
 90
        4
 70
     0
 43
0.0
 10
84.41617969844982
 20
49.71597840152575
 10
84.4220552431806
 20
50.05258813371277
 10
84.50067158168801
 20
50.05258813371276
 10
84.50654712641881
 20
49.71597840152575
  0
LWPOLYLINE
  5
501B
330
19
100
AcDbEntity
  8
JB-65C
100
AcDbPolyline
 90
        6
 70
     1
 43
0.0
 10
84.27536768063779
 20
58.56749642388753
 10
84.61975388989849
 20
58.56749642388753
 10
84.61975388989849
 20
52.81749642350054
 10
84.27536768063779
 20
52.81749642350054
 10
84.27672964784759
 20
52.83097595874855
 10
84.27672964784759
 20
58.55401688863953
  0
LWPOLYLINE
  5
501C
330
19
100
AcDbEntity
  8
JB-65C
100
AcDbPolyline
 90
        4
 70
     0
 43
0.0
 10
84.27672964784759
 20
52.83097595874855
 10
84.57290903274675
 20
52.83097595874855
 10
84.57290903274675
 20
58.55401688863953
 10
84.27672964784758
 20
58.55401688863953
  0
LWPOLYLINE
  5
501D
330
19
100
AcDbEntity
  8
JB-65C
100
AcDbPolyline
 90
        6
 70
     1
 43
0.0
 10
90.39599717702108
 20
52.83097595874855
 10
90.39735914423088
 20
52.81749642350054
 10
90.05297293497019
 20
52.81749642350054
 10
90.05297293497019
 20
58.56749642388753
 10
90.39735914423088
 20
58.56749642388753
 10
90.39599717702108
 20
58.55401688863953
  0
LWPOLYLINE
  5
501E
330
19
100
AcDbEntity
  8
JB-65C
100
AcDbPolyline
 90
        4
 70
     0
 43
0.0
 10
90.39599717702108
 20
58.55401688863953
 10
90.09981779212189
 20
58.55401688863953
 10
90.09981779212189
 20
52.83097595874855
 10
90.39599717702108
 20
52.83097595874855
  0
CIRCLE
  5
501F
330
19
100
AcDbEntity
  8
JB-65C
  6
HIDDEN2
 62
     4
100
AcDbCircle
 10
84.46136341243432
 20
52.81249642369404
 30
0.0
 40
0.0938430982755
  0
CIRCLE
  5
5020
330
19
100
AcDbEntity
  8
JB-65C
  6
HIDDEN2
 62
     4
100
AcDbCircle
 10
84.46136341243432
 20
52.81249642369404
 30
0.0
 40
0.0451837139845
  0
CIRCLE
  5
5021
330
19
100
AcDbEntity
  8
JB-65C
  6
HIDDEN2
 62
     4
100
AcDbCircle
 10
90.21136341243435
 20
58.57249642369403
 30
0.0
 40
0.0938430982755
  0
CIRCLE
  5
5022
330
19
100
AcDbEntity
  8
JB-65C
  6
HIDDEN2
 62
     4
100
AcDbCircle
 10
90.21136341243435
 20
58.57249642369403
 30
0.0
 40
0.0451837139845
  0
LWPOLYLINE
  5
5024
330
19
100
AcDbEntity
  8
JB-65C
  6
HIDDEN2
 62
     4
100
AcDbPolyline
 90
        4
 70
     0
 43
0.0
 10
94.8236555603438
 20
58.61690431841369
 10
94.48704582815677
 20
58.61123618908964
 10
94.48704582815677
 20
58.53220501976874
 10
94.8236555603438
 20
58.52653689044469
  0
LWPOLYLINE
  5
5025
330
19
100
AcDbEntity
  8
JB-65C
  6
HIDDEN2
 62
     4
100
AcDbPolyline
 90
        4
 70
     0
 43
0.0
 10
94.79765556034379
 20
58.47743696667437
 10
94.8236555603438
 20
58.47787750615369
 10
94.82365556034379
 20
58.66556370270469
 10
94.79765556034379
 20
58.66600424218403
  0
LWPOLYLINE
  5
5026
330
19
100
AcDbEntity
  8
JB-65C
  6
HIDDEN2
 62
     4
100
AcDbPolyline
 90
        4
 70
     0
 43
0.0
 10
94.79765556034379
 20
52.90600424218401
 10
94.8236555603438
 20
52.90556370270469
 10
94.82365556034379
 20
52.7178775061537
 10
94.79765556034379
 20
52.71743696667435
  0
LWPOLYLINE
  5
5027
330
19
100
AcDbEntity
  8
JB-65C
  6
HIDDEN2
 62
     4
100
AcDbPolyline
 90
        4
 70
     0
 43
0.0
 10
94.8236555603438
 20
52.76653689044469
 10
94.48704582815677
 20
52.77220501976874
 10
94.48704582815677
 20
52.85123618908965
 10
94.8236555603438
 20
52.8569043184137
  0
LINE
  5
5028
330
19
100
AcDbEntity
  8
JB-65C
  6
HIDDEN2
 62
     4
100
AcDbLine
 10
94.79765556034379
 20
52.71743696667435
 30
0.0
 11
94.41794416550315
 21
52.71100320282137
 31
0.0
  0
LINE
  5
5029
330
19
100
AcDbEntity
  8
JB-65C
  6
HIDDEN2
 62
     4
100
AcDbLine
 10
94.79765556034379
 20
52.90600424218401
 30
0.0
 11
94.41794416550315
 21
52.91243800603702
 31
0.0
  0
LWPOLYLINE
  5
502A
330
19
100
AcDbEntity
  8
JB-65C
  6
HIDDEN2
 62
     4
100
AcDbPolyline
 90
       16
 70
     1
 43
0.0
 10
94.41794416550315
 20
52.91243800603702
 42
0.0570336043824872
 10
94.34559302390779
 20
52.90415818038219
 42
0.0707479349482362
 10
94.29074543774424
 20
52.88293856208956
 42
0.1062580074245512
 10
94.24958472595646
 20
52.84668241051598
 42
0.1605958272241693
 10
94.23805799958987
 20
52.81172060442919
 42
0.1605958272241693
 10
94.24958472595646
 20
52.7767587983424
 42
0.1062580074245512
 10
94.29074543774424
 20
52.74050264676882
 42
0.0707479349482458
 10
94.34559302390779
 20
52.71928302847619
 42
0.0570336043824894
 10
94.41794416550315
 20
52.71100320282137
 42
0.0613061794465907
 10
94.4847934981621
 20
52.71923067973027
 42
0.0746372058441798
 10
94.53597227667827
 20
52.74050264676882
 42
0.1069792445843398
 10
94.57384840845405
 20
52.77621925310374
 42
0.1515408478524677
 10
94.58486112106829
 20
52.81172060442919
 42
0.1515408478524554
 10
94.57384840845405
 20
52.84722195575461
 42
0.1069792445843337
 10
94.53597227667827
 20
52.88293856208956
 42
0.0746372058441755
 10
94.4847934981621
 20
52.90421052912809
 42
0.0613061794465806
  0
LWPOLYLINE
  5
502B
330
19
100
AcDbEntity
  8
JB-65C
  6
HIDDEN2
 62
     4
100
AcDbPolyline
 90
        2
 70
     0
 43
0.0
 10
84.5552065107098
 20
49.71597840152575
 10
84.5655982381403
 20
50.3113200672956
  0
LINE
  5
502C
330
19
100
AcDbEntity
  8
JB-65C
100
AcDbLine
 10
90.39984176587836
 20
50.00492179808076
 30
0.0
 11
90.05297293497017
 21
50.60571623677576
 31
0.0
  0
LINE
  5
502D
330
19
100
AcDbEntity
  8
JB-65C
100
AcDbLine
 10
90.46636341243432
 20
49.74197840152574
 30
0.0
 11
90.28016678887183
 21
49.74197840152574
 31
0.0
  0
LINE
  5
502E
330
19
100
AcDbEntity
  8
JB-65C
  6
HIDDEN2
 62
     4
100
AcDbLine
 10
90.41770402814334
 20
49.77276290995475
 30
0.0
 11
90.27863610220947
 21
49.77276290995475
 31
0.0
  0
ARC
  5
502F
330
19
100
AcDbEntity
  8
JB-65C
  6
HIDDEN2
 62
     4
100
AcDbCircle
 10
89.96983908293433
 20
49.75665963333075
 30
0.0
 40
0.396226414941
100
AcDbArc
 50
2.329233835263852
 51
30.00000000000013
  0
ARC
  5
5030
330
19
100
AcDbEntity
  8
JB-65C
100
AcDbCircle
 10
89.96983908293433
 20
49.75665963333075
 30
0.0
 40
0.4965243295000001
100
AcDbArc
 50
0.0000000000001158
 51
30.00000000000013
  0
LINE
  5
5031
330
19
100
AcDbEntity
  8
JB-65C
  6
HIDDEN2
 62
     4
100
AcDbLine
 10
90.41770402814334
 20
49.74197840152574
 30
0.0
 11
90.41770402814334
 21
49.77276290995475
 31
0.0
  0
LINE
  5
5032
330
19
100
AcDbEntity
  8
JB-65C
100
AcDbLine
 10
90.46636341243432
 20
49.75665963333075
 30
0.0
 11
90.46636341243432
 21
49.74197840152574
 31
0.0
  0
LINE
  5
5034
330
19
100
AcDbEntity
  8
JB-65C
  6
HIDDEN2
 62
     4
100
AcDbLine
 10
90.31298122392369
 20
49.95477284080125
 30
0.0
 11
89.98319553967675
 21
50.52597840152576
 31
0.0
  0
LINE
  5
5035
330
19
100
AcDbEntity
  8
JB-65C
  6
HIDDEN2
 62
     4
100
AcDbLine
 10
90.26611093148275
 20
49.9277122648435
 30
0.0
 11
89.9192421005746
 21
50.52850670353851
 31
0.0
  0
LINE
  5
5036
330
19
100
AcDbEntity
  8
JB-65C
100
AcDbLine
 10
90.23859075977435
 20
49.91182348629951
 30
0.0
 11
89.89172192886616
 21
50.51261792499452
 31
0.0
  0
LWPOLYLINE
  5
5037
330
19
100
AcDbEntity
  8
JB-65C
  6
HIDDEN2
 62
     4
100
AcDbPolyline
 90
        2
 70
     0
 43
0.0
 10
90.11752031415886
 20
49.71597840152575
 10
90.10712858672835
 20
50.3113200672956
  0
LINE
  5
5038
330
19
100
AcDbEntity
  8
JB-65C
  6
HIDDEN2
 62
     4
100
AcDbLine
 10
90.30566034239797
 20
49.74197840152574
 30
0.0
 11
90.30948052013711
 21
49.9608362376219
 31
0.0
  0
LWPOLYLINE
  5
5039
330
19
100
AcDbEntity
  8
JB-65C
  6
HIDDEN2
 62
     4
100
AcDbPolyline
 90
        4
 70
     0
 43
0.0
 10
90.25654712641884
 20
49.71597840152575
 10
90.25067158168804
 20
50.05258813371277
 10
90.17205524318063
 20
50.05258813371276
 10
90.16617969844984
 20
49.71597840152575
  0
ARC
  5
503A
330
19
100
AcDbEntity
  8
JB-65C
100
AcDbCircle
 10
89.96983908293433
 20
49.75665963333075
 30
0.0
 40
0.3103277059375
100
AcDbArc
 50
0.0000000000001158
 51
30.00000000000013
  0
ARC
  5
503B
330
19
100
AcDbEntity
  8
JB-65C
  6
HIDDEN2
 62
     4
100
AcDbCircle
 10
89.96983908293433
 20
49.75665963333075
 30
0.0
 40
0.3421052630255001
100
AcDbArc
 50
2.697973239399078
 51
30.00000000000013
  0
LINE
  5
503C
330
19
100
AcDbEntity
  8
JB-65C
100
AcDbLine
 10
90.28016678887183
 20
49.75665963333075
 30
0.0
 11
90.28016678887183
 21
49.74197840152574
 31
0.0
  0
ARC
  5
503D
330
19
100
AcDbEntity
  8
JB-65C
  6
HIDDEN2
 62
     4
100
AcDbCircle
 10
89.62297025202614
 20
50.35745407202576
 30
0.0
 40
0.3421052630255001
100
AcDbArc
 50
30.00000000000013
 51
90.00000000000012
  0
ARC
  5
503E
330
19
100
AcDbEntity
  8
JB-65C
100
AcDbCircle
 10
89.62297025202614
 20
50.35745407202576
 30
0.0
 40
0.3103277059375
100
AcDbArc
 50
30.00000000000013
 51
90.00000000000012
  0
ARC
  5
503F
330
19
100
AcDbEntity
  8
JB-65C
100
AcDbCircle
 10
89.62297025202614
 20
50.35745407202576
 30
0.0
 40
0.4965243295000001
100
AcDbArc
 50
30.00000000000013
 51
90.00000000000012
  0
LWPOLYLINE
  5
5040
330
19
100
AcDbEntity
  8
JB-65C
100
AcDbPolyline
 90
        4
 70
     1
 43
0.0
 10
85.06736341243435
 20
52.54749642369404
 10
89.60536341243432
 20
52.54749642369404
 10
89.60536341243432
 20
58.83749642369405
 10
85.06736341243435
 20
58.83749642369405
  0
LWPOLYLINE
  5
5041
330
19
100
AcDbEntity
  8
JB-65C
100
AcDbPolyline
 90
        4
 70
     1
 43
0.0
 10
85.09836341243435
 20
52.57849642369404
 10
89.57436341243434
 20
52.57849642369404
 10
89.57436341243434
 20
58.80649642369404
 10
85.09836341243435
 20
58.80649642369404
  0
LWPOLYLINE
  5
5042
330
19
100
AcDbEntity
  8
JB-65C
  6
HIDDEN2
 62
     4
100
AcDbPolyline
 90
        4
 70
     0
 43
0.0
 10
93.68565556034381
 20
58.8367206044292
 10
93.69565556034379
 20
58.8367206044292
 10
93.69565556034379
 20
52.54672060442921
 10
93.68565556034381
 20
52.5467206044292
  0
LINE
  5
5043
330
19
100
AcDbEntity
  8
JB-65C
  6
HIDDEN2
 62
     4
100
AcDbLine
 10
93.69565556034379
 20
58.80572060442919
 30
0.0
 11
93.68565556034381
 21
58.80572060442919
 31
0.0
  0
LINE
  5
5044
330
19
100
AcDbEntity
  8
JB-65C
  6
HIDDEN2
 62
     4
100
AcDbLine
 10
93.69565556034379
 20
52.57772060442919
 30
0.0
 11
93.68565556034381
 21
52.57772060442919
 31
0.0
  0
LINE
  5
5045
330
19
100
AcDbEntity
  8
JB-65C
  6
HIDDEN2
 62
     4
100
AcDbLine
 10
85.09836341243433
 20
50.84397840152575
 30
0.0
 11
85.09836341243433
 21
50.85397840152575
 31
0.0
  0
LINE
  5
5046
330
19
100
AcDbEntity
  8
JB-65C
  6
HIDDEN2
 62
     4
100
AcDbLine
 10
89.57436341243434
 20
50.84397840152575
 30
0.0
 11
89.57436341243434
 21
50.85397840152575
 31
0.0
  0
LWPOLYLINE
  5
5047
330
19
100
AcDbEntity
  8
JB-65C
  6
HIDDEN2
 62
     4
100
AcDbPolyline
 90
        4
 70
     0
 43
0.0
 10
89.60536341243431
 20
50.85397840152575
 10
89.60536341243431
 20
50.84397840152575
 10
85.06736341243433
 20
50.84397840152575
 10
85.06736341243433
 20
50.85397840152575
  0
CIRCLE
  5
5048
330
19
100
AcDbEntity
  8
JB-65C
  6
HIDDEN2
 62
     4
100
AcDbCircle
 10
89.46636341243433
 20
57.94449642369404
 30
0.0
 40
0.094
  0
CIRCLE
  5
5049
330
19
100
AcDbEntity
  8
JB-65C
  6
HIDDEN2
 62
     4
100
AcDbCircle
 10
89.46636341243433
 20
57.94449642369404
 30
0.0
 40
0.045
  0
CIRCLE
  5
504A
330
19
100
AcDbEntity
  8
JB-65C
  6
HIDDEN2
 62
     4
100
AcDbCircle
 10
90.21136341243431
 20
52.81249642369404
 30
0.0
 40
0.0938430982755
  0
CIRCLE
  5
504B
330
19
100
AcDbEntity
  8
JB-65C
  6
HIDDEN2
 62
     4
100
AcDbCircle
 10
90.21136341243431
 20
52.81249642369404
 30
0.0
 40
0.0451837139845
  0
CIRCLE
  5
504C
330
19
100
AcDbEntity
  8
JB-65C
  6
HIDDEN2
 62
     4
100
AcDbCircle
 10
89.46636341243433
 20
53.44049642369403
 30
0.0
 40
0.094
  0
CIRCLE
  5
504D
330
19
100
AcDbEntity
  8
JB-65C
  6
HIDDEN2
 62
     4
100
AcDbCircle
 10
89.46636341243433
 20
53.44049642369403
 30
0.0
 40
0.045
  0
CIRCLE
  5
504E
330
19
100
AcDbEntity
  8
JB-65C
  6
HIDDEN2
 62
     4
100
AcDbCircle
 10
85.20636341243433
 20
53.44049642369403
 30
0.0
 40
0.094
  0
CIRCLE
  5
504F
330
19
100
AcDbEntity
  8
JB-65C
  6
HIDDEN2
 62
     4
100
AcDbCircle
 10
85.20636341243433
 20
53.44049642369403
 30
0.0
 40
0.045
  0
CIRCLE
  5
5050
330
19
100
AcDbEntity
  8
JB-65C
  6
HIDDEN2
 62
     4
100
AcDbCircle
 10
85.20636341243433
 20
55.69249642369404
 30
0.0
 40
0.094
  0
CIRCLE
  5
5051
330
19
100
AcDbEntity
  8
JB-65C
  6
HIDDEN2
 62
     4
100
AcDbCircle
 10
85.20636341243433
 20
55.69249642369404
 30
0.0
 40
0.045
  0
CIRCLE
  5
5052
330
19
100
AcDbEntity
  8
JB-65C
  6
HIDDEN2
 62
     4
100
AcDbCircle
 10
89.46636341243435
 20
55.69249642369404
 30
0.0
 40
0.094
  0
CIRCLE
  5
5053
330
19
100
AcDbEntity
  8
JB-65C
  6
HIDDEN2
 62
     4
100
AcDbCircle
 10
89.46636341243435
 20
55.69249642369404
 30
0.0
 40
0.045
  0
LINE
  5
5054
330
19
100
AcDbEntity
  8
JB-65C
  6
HIDDEN2
 62
     4
100
AcDbLine
 10
94.06565556034379
 20
57.89872060442919
 30
0.0
 11
93.81565556034379
 21
57.90308437066125
 31
0.0
  0
LINE
  5
5055
330
19
100
AcDbEntity
  8
JB-65C
  6
HIDDEN2
 62
     4
100
AcDbLine
 10
89.64024947977813
 20
50.72397840152575
 30
0.0
 11
85.0324773450905
 21
50.72397840152575
 31
0.0
  0
ARC
  5
5056
330
19
100
AcDbEntity
  8
JB-65C
  6
HIDDEN2
 62
     4
100
AcDbCircle
 10
85.0324773450905
 20
50.32797840152575
 30
0.0
 40
0.396
100
AcDbArc
 50
90.00000000000003
 51
149.9999999999995
  0
ARC
  5
5057
330
19
100
AcDbEntity
  8
JB-65C
  6
HIDDEN2
 62
     4
100
AcDbCircle
 10
89.64024947977813
 20
50.32797840152575
 30
0.0
 40
0.396
100
AcDbArc
 50
30.00000000000043
 51
89.99999999999991
  0
LINE
  5
5058
330
19
100
AcDbEntity
  8
JB-65C
  6
HIDDEN2
 62
     4
100
AcDbLine
 10
93.81565556034379
 20
52.4602682707122
 30
0.0
 11
93.81565556034379
 21
58.92317293814618
 31
0.0
  0
ARC
  5
5059
330
19
100
AcDbEntity
  8
JB-65C
  6
HIDDEN2
 62
     4
100
AcDbCircle
 10
93.83115556034381
 20
52.4602682707122
 30
0.0
 40
0.0155
100
AcDbArc
 50
180.0
 51
270.0
  0
ARC
  5
505A
330
19
100
AcDbEntity
  8
JB-65C
  6
HIDDEN2
 62
     4
100
AcDbCircle
 10
93.83115556034381
 20
58.92317293814618
 30
0.0
 40
0.0155
100
AcDbArc
 50
90.00000000000044
 51
179.9999999999999
  0
LINE
  5
505B
330
19
100
AcDbEntity
  8
JB-65C
  6
HIDDEN2
 62
     4
100
AcDbLine
 10
85.16136341243432
 20
50.47397840152576
 30
0.0
 11
85.16572717866637
 21
50.72397840152575
 31
0.0
  0
LINE
  5
505D
330
19
100
AcDbEntity
  8
JB-65C
  6
HIDDEN2
 62
     4
100
AcDbLine
 10
85.25136341243433
 20
50.47397840152576
 30
0.0
 11
85.24699964620229
 21
50.72397840152575
 31
0.0
  0
LINE
  5
5060
330
19
100
AcDbEntity
  8
JB-65C
  6
HIDDEN2
 62
     4
100
AcDbLine
 10
89.51136341243431
 20
50.47397840152576
 30
0.0
 11
89.50699964620227
 21
50.72397840152575
 31
0.0
  0
LINE
  5
5061
330
19
100
AcDbEntity
  8
JB-65C
  6
HIDDEN2
 62
     4
100
AcDbLine
 10
89.42136341243431
 20
50.47397840152576
 30
0.0
 11
89.42572717866637
 21
50.72397840152575
 31
0.0
  0
LINE
  5
5065
330
19
100
AcDbEntity
  8
JB-65C
  6
HIDDEN2
 62
     4
100
AcDbLine
 10
94.06565556034379
 20
57.98872060442919
 30
0.0
 11
93.81565556034379
 21
57.98435683819715
 31
0.0
  0
LWPOLYLINE
  5
5066
330
19
100
AcDbEntity
  8
JB-65C
  6
HIDDEN2
 62
     4
100
AcDbPolyline
 90
        4
 70
     0
 43
0.0
 10
93.81565556034379
 20
57.84535683819713
 10
94.06565556034379
 20
57.84972060442919
 10
94.06565556034379
 20
58.0377206044292
 10
93.81565556034379
 20
58.04208437066124
  0
LWPOLYLINE
  5
5067
330
19
100
AcDbEntity
  8
JB-65C
  6
HIDDEN2
 62
     4
100
AcDbPolyline
 90
        4
 70
     0
 43
0.0
 10
93.81565556034379
 20
53.53808437066125
 10
94.06565556034379
 20
53.53372060442919
 10
94.06565556034379
 20
53.34572060442919
 10
93.81565556034379
 20
53.34135683819714
  0
LINE
  5
5068
330
19
100
AcDbEntity
  8
JB-65C
  6
HIDDEN2
 62
     4
100
AcDbLine
 10
94.06565556034379
 20
53.39472060442919
 30
0.0
 11
93.81565556034379
 21
53.39908437066124
 31
0.0
  0
LINE
  5
5069
330
19
100
AcDbEntity
  8
JB-65C
  6
HIDDEN2
 62
     4
100
AcDbLine
 10
94.06565556034379
 20
53.4847206044292
 30
0.0
 11
93.81565556034379
 21
53.48035683819714
 31
0.0
  0
LWPOLYLINE
  5
506A
330
19
100
AcDbEntity
  8
JB-65C
  6
HIDDEN2
 62
     4
100
AcDbPolyline
 90
        4
 70
     0
 43
0.0
 10
93.81565556034379
 20
55.59335683819714
 10
94.06565556034379
 20
55.5977206044292
 10
94.06565556034379
 20
55.78572060442919
 10
93.81565556034379
 20
55.79008437066125
  0
LINE
  5
506B
330
19
100
AcDbEntity
  8
JB-65C
  6
HIDDEN2
 62
     4
100
AcDbLine
 10
94.06565556034379
 20
55.7367206044292
 30
0.0
 11
93.81565556034379
 21
55.73235683819714
 31
0.0
  0
LINE
  5
506C
330
19
100
AcDbEntity
  8
JB-65C
  6
HIDDEN2
 62
     4
100
AcDbLine
 10
94.06565556034379
 20
55.64672060442919
 30
0.0
 11
93.81565556034379
 21
55.65108437066125
 31
0.0
  0
MTEXT
  5
506D
330
19
100
AcDbEntity
  8
0
 62
     4
100
AcDbMText
 10
131.1955589662698
 20
166.1522604668243
 30
0.0
 40
0.125
 41
0.0
 71
     6
 72
     1
  1
\A1;
 73
     1
 44
1.0
1001
ACAD
1000
MTEXTBEGIN
1070
    73
1070
     1
1070
    44
1040
1.0
1070
    74
1070
     0
1000
MTEXTEND
  0
MTEXT
  5
506E
330
19
100
AcDbEntity
  8
0
 62
     4
100
AcDbMText
 10
130.0374919106674
 20
166.4766285417442
 30
0.0
 40
0.125
 41
0.0
 71
     4
 72
     1
  1
\A1;
 73
     1
 44
1.0
1001
ACAD
1000
MTEXTBEGIN
1070
    73
1070
     1
1070
    44
1040
1.0
1070
    74
1070
     0
1000
MTEXTEND
  0
MTEXT
  5
506F
330
19
100
AcDbEntity
  8
0
 62
     4
100
AcDbMText
 10
125.9606659523298
 20
164.0187881773399
 30
0.0
 40
0.125
 41
0.0
 71
     6
 72
     1
  1
\A1;
 73
     1
 44
1.0
1001
ACAD
1000
MTEXTBEGIN
1070
    73
1070
     1
1070
    44
1040
1.0
1070
    74
1070
     0
1000
MTEXTEND
  0
MTEXT
  5
5070
330
19
100
AcDbEntity
  8
0
 62
     4
100
AcDbMText
 10
126.4647121790751
 20
163.4731399231393
 30
0.0
 40
0.125
 41
0.0
 71
     6
 72
     1
  1
\A1;
 73
     1
 44
1.0
1001
ACAD
1000
MTEXTBEGIN
1070
    73
1070
     1
1070
    44
1040
1.0
1070
    74
1070
     0
1000
MTEXTEND
  0
MTEXT
  5
5071
330
19
100
AcDbEntity
  8
0
 62
     4
100
AcDbMText
 10
126.092619148087
 20
162.2294045874447
 30
0.0
 40
0.125
 41
0.0
 71
     6
 72
     1
  1
\A1;
 73
     1
 44
1.0
1001
ACAD
1000
MTEXTBEGIN
1070
    73
1070
     1
1070
    44
1040
1.0
1070
    74
1070
     0
1000
MTEXTEND
  0
MTEXT
  5
5072
330
19
100
AcDbEntity
  8
0
 62
     4
100
AcDbMText
 10
126.1453383507388
 20
161.9787256627867
 30
0.0
 40
0.125
 41
0.0
 71
     6
 72
     1
  1
\A1;
 73
     1
 44
1.0
1001
ACAD
1000
MTEXTBEGIN
1070
    73
1070
     1
1070
    44
1040
1.0
1070
    74
1070
     0
1000
MTEXTEND
  0
MTEXT
  5
5073
330
19
100
AcDbEntity
  8
0
 62
     4
100
AcDbMText
 10
140.9063070107651
 20
150.6095550930239
 30
0.0
 40
0.125
 41
0.0
 71
     6
 72
     1
  1
\A1;
 73
     1
 44
1.0
1001
ACAD
1000
MTEXTBEGIN
1070
    73
1070
     1
1070
    44
1040
1.0
1070
    74
1070
     0
1000
MTEXTEND
  0
MTEXT
  5
5074
330
19
100
AcDbEntity
  8
0
 62
     4
100
AcDbMText
 10
146.8912963724072
 20
148.658842660474
 30
0.0
 40
0.125
 41
0.0
 71
     4
 72
     1
  1
\A1;
 73
     1
 44
1.0
1001
ACAD
1000
MTEXTBEGIN
1070
    73
1070
     1
1070
    44
1040
1.0
1070
    74
1070
     0
1000
MTEXTEND
  0
MTEXT
  5
5075
330
19
100
AcDbEntity
  8
0
 62
     4
100
AcDbMText
 10
120.2210856025726
 20
143.2168000374518
 30
0.0
 40
0.125
 41
0.0
 71
     4
 72
     1
  1
\A1;
 73
     1
 44
1.0
1001
ACAD
1000
MTEXTBEGIN
1070
    73
1070
     1
1070
    44
1040
1.0
1070
    74
1070
     0
1000
MTEXTEND
  0
MTEXT
  5
5076
330
19
100
AcDbEntity
  8
0
 62
     4
100
AcDbMText
 10
116.2800033121233
 20
139.4626956674295
 30
0.0
 40
0.125
 41
0.0
 71
     6
 72
     1
  1
\A1;
 73
     1
 44
1.0
1001
ACAD
1000
MTEXTBEGIN
1070
    73
1070
     1
1070
    44
1040
1.0
1070
    74
1070
     0
1000
MTEXTEND
  0
MTEXT
  5
5077
330
19
100
AcDbEntity
  8
0
 62
     4
100
AcDbMText
 10
116.594958101772
 20
140.2131890660647
 30
0.0
 40
0.125
 41
0.0
 71
     6
 72
     1
  1
\A1;
 73
     1
 44
1.0
1001
ACAD
1000
MTEXTBEGIN
1070
    73
1070
     1
1070
    44
1040
1.0
1070
    74
1070
     0
1000
MTEXTEND
  0
MTEXT
  5
5078
330
19
100
AcDbEntity
  8
0
 62
     4
100
AcDbMText
 10
116.1669426280747
 20
140.7619369283336
 30
0.0
 40
0.125
 41
0.0
 71
     6
 72
     1
  1
\A1;
 73
     1
 44
1.0
1001
ACAD
1000
MTEXTBEGIN
1070
    73
1070
     1
1070
    44
1040
1.0
1070
    74
1070
     0
1000
MTEXTEND
  0
MTEXT
  5
5079
330
19
100
AcDbEntity
  8
0
 62
     4
100
AcDbMText
 10
124.6296789957537
 20
142.4176429573983
 30
0.0
 40
0.125
 41
0.0
 71
     6
 72
     1
  1
\A1;
 73
     1
 44
1.0
1001
ACAD
1000
MTEXTBEGIN
1070
    73
1070
     1
1070
    44
1040
1.0
1070
    74
1070
     0
1000
MTEXTEND
  0
MTEXT
  5
507A
330
19
100
AcDbEntity
  8
0
 62
     4
100
AcDbMText
 10
130.5018582785942
 20
140.4805909720441
 30
0.0
 40
0.125
 41
0.0
 71
     4
 72
     1
  1
\A1;
 73
     1
 44
1.0
1001
ACAD
1000
MTEXTBEGIN
1070
    73
1070
     1
1070
    44
1040
1.0
1070
    74
1070
     0
1000
MTEXTEND
  0
MTEXT
  5
507B
330
19
100
AcDbEntity
  8
0
 62
     5
100
AcDbMText
 10
120.5067607495741
 20
143.1409825065032
 30
0.0
 40
0.125
 41
0.0
 71
     4
 72
     1
  1
\A1;
 73
     1
 44
1.0
1001
ACAD
1000
MTEXTBEGIN
1070
    73
1070
     1
1070
    44
1040
1.0
1070
    74
1070
     0
1000
MTEXTEND
  0
MTEXT
  5
507C
330
19
100
AcDbEntity
  8
0
 62
     5
100
AcDbMText
 10
116.4184052003705
 20
140.5239065327464
 30
0.0
 40
0.125
 41
0.0
 71
     6
 72
     1
  1
\A1;
 73
     1
 44
1.0
1001
ACAD
1000
MTEXTBEGIN
1070
    73
1070
     1
1070
    44
1040
1.0
1070
    74
1070
     0
1000
MTEXTEND
  0
MTEXT
  5
507D
330
19
100
AcDbEntity
  8
0
 62
     5
100
AcDbMText
 10
116.6853815795638
 20
139.8768232086042
 30
0.0
 40
0.125
 41
0.0
 71
     6
 72
     1
  1
\A1;
 73
     1
 44
1.0
1001
ACAD
1000
MTEXTBEGIN
1070
    73
1070
     1
1070
    44
1040
1.0
1070
    74
1070
     0
1000
MTEXTEND
  0
MTEXT
  5
507E
330
19
100
AcDbEntity
  8
0
 62
     5
100
AcDbMText
 10
116.4078938004835
 20
139.1655729772954
 30
0.0
 40
0.125
 41
0.0
 71
     6
 72
     1
  1
\A1;
 73
     1
 44
1.0
1001
ACAD
1000
MTEXTBEGIN
1070
    73
1070
     1
1070
    44
1040
1.0
1070
    74
1070
     0
1000
MTEXTEND
  0
MTEXT
  5
507F
330
19
100
AcDbEntity
  8
0
 62
     5
100
AcDbMText
 10
116.3792109618346
 20
138.1406968856635
 30
0.0
 40
0.125
 41
0.0
 71
     6
 72
     1
  1
\A1;
 73
     1
 44
1.0
1001
ACAD
1000
MTEXTBEGIN
1070
    73
1070
     1
1070
    44
1040
1.0
1070
    74
1070
     0
1000
MTEXTEND
  0
MTEXT
  5
5080
330
19
100
AcDbEntity
  8
0
 62
     5
100
AcDbMText
 10
124.6166621980445
 20
142.6640168719198
 30
0.0
 40
0.125
 41
0.0
 71
     6
 72
     1
  1
\A1;
 73
     1
 44
1.0
1001
ACAD
1000
MTEXTBEGIN
1070
    73
1070
     1
1070
    44
1040
1.0
1070
    74
1070
     0
1000
MTEXTEND
  0
MTEXT
  5
5081
330
19
100
AcDbEntity
  8
0
 62
     5
100
AcDbMText
 10
130.4720236844976
 20
140.285281891581
 30
0.0
 40
0.125
 41
0.0
 71
     4
 72
     1
  1
\A1;
 73
     1
 44
1.0
1001
ACAD
1000
MTEXTBEGIN
1070
    73
1070
     1
1070
    44
1040
1.0
1070
    74
1070
     0
1000
MTEXTEND
  0
MTEXT
  5
5082
330
19
100
AcDbEntity
  8
0
 62
     5
100
AcDbMText
 10
125.8726582382207
 20
136.4818663264344
 30
0.0
 40
0.125
 41
0.0
 71
     4
 72
     1
  1
\A1;
 73
     1
 44
1.0
1001
ACAD
1000
MTEXTBEGIN
1070
    73
1070
     1
1070
    44
1040
1.0
1070
    74
1070
     0
1000
MTEXTEND
  0
MTEXT
  5
5083
330
19
100
AcDbEntity
  8
0
 62
     4
100
AcDbMText
 10
137.0510500736129
 20
105.914382729834
 30
0.0
 40
0.125
 41
0.0
 71
     4
 72
     1
  1
\A1;
 73
     1
 44
1.0
1001
ACAD
1000
MTEXTBEGIN
1070
    73
1070
     1
1070
    44
1040
1.0
1070
    74
1070
     0
1000
MTEXTEND
  0
INSERT
  5
5084
330
19
100
AcDbEntity
  8
JB-65C
100
AcDbBlockReference
  2
CL
 10
87.33636341243432
 20
59.17549642369404
 30
0.0
  0
INSERT
  5
5085
330
19
100
AcDbEntity
  8
JB-65C
100
AcDbBlockReference
  2
CL
 10
84.10636341243433
 20
55.69249642369404
 30
0.0
  0
LWPOLYLINE
  5
5086
330
19
100
AcDbEntity
  8
JB-65C
100
AcDbPolyline
 90
        4
 70
     1
 43
0.0
 10
94.53041213695936
 20
52.8167206042357
 10
94.53041213695936
 20
58.56672060462269
 10
93.9339177250938
 20
58.56672060462269
 10
93.9339177250938
 20
52.8167206042357
  0
LWPOLYLINE
  5
5087
330
19
100
AcDbEntity
  8
JB-65C
100
AcDbPolyline
 90
        4
 70
     1
 43
0.0
 10
93.96540296480386
 20
58.55324106937468
 10
93.96540296480386
 20
52.8302001394837
 10
94.47840070760372
 20
52.8302001394837
 10
94.47840070760372
 20
58.55324106937468
  0
LWPOLYLINE
  5
5088
330
19
100
AcDbEntity
  8
JB-65C
100
AcDbPolyline
 90
        4
 70
     0
 43
0.0
 10
84.27536768063777
 20
50.0092218249102
 10
84.27672964784759
 20
50.06123325426583
 10
84.57290903274676
 20
50.57423099706568
 10
84.61727126825095
 20
50.60141620994632
  0
LWPOLYLINE
  5
5089
330
19
100
AcDbEntity
  8
JB-65C
100
AcDbPolyline
 90
        4
 70
     0
 43
0.0
 10
90.39735914423088
 20
50.0092218249102
 10
90.39599717702106
 20
50.06123325426583
 10
90.09981779212187
 20
50.57423099706568
 10
90.05545555661768
 20
50.60141620994632
  0
DIMENSION
  5
524B
330
19
100
AcDbEntity
  8
0
100
AcDbDimension
  2
*D2
 10
91.55976234160673
 20
49.21397840152575
 30
0.0
 11
91.55976234160673
 21
52.89717950196263
 31
0.0
 12
31.19817625165477
 22
1.380469706776182
 32
0.0
 70
    32
 71
     5
 42
-1.0
  3
STANDARD_WS
100
AcDbAlignedDimension
 13
89.62297025202614
 23
50.85397840152576
 33
0.0
 14
89.96983908293433
 24
49.21397840152575
 34
0.0
 50
90.0
100
AcDbRotatedDimension
1001
ACAD
1000
DSTYLE
1002
{
1070
   271
1070
     2
1002
}
  0
MTEXT
  5
52D2
330
19
100
AcDbEntity
  8
0
 62
     4
100
AcDbMText
 10
10.70837548378358
 20
24.90629105899165
 30
0.0
 40
0.125
 41
0.0
 71
     4
 72
     1
  1
\A1;
 73
     1
 44
1.0
1001
ACAD
1000
MTEXTBEGIN
1070
    73
1070
     1
1070
    44
1040
1.0
1070
    74
1070
     0
1000
MTEXTEND
  0
MTEXT
  5
52D3
330
19
100
AcDbEntity
  8
0
 62
     4
100
AcDbMText
 10
13.70188016432936
 20
37.90640808677471
 30
0.0
 40
0.125
 41
0.0
 71
     4
 72
     1
  1
\A1;
 73
     1
 44
1.0
1001
ACAD
1000
MTEXTBEGIN
1070
    73
1070
     1
1070
    44
1040
1.0
1070
    74
1070
     0
1000
MTEXTEND
  0
MTEXT
  5
52D4
330
19
100
AcDbEntity
  8
0
 62
     4
100
AcDbMText
 10
10.699732796883
 20
26.02693262935041
 30
0.0
 40
0.125
 41
0.0
 71
     4
 72
     1
  1
\A1;
 73
     1
 44
1.0
1001
ACAD
1000
MTEXTBEGIN
1070
    73
1070
     1
1070
    44
1040
1.0
1070
    74
1070
     0
1000
MTEXTEND
  0
MTEXT
  5
52D5
330
19
100
AcDbEntity
  8
0
 62
     4
100
AcDbMText
 10
36.62154988155396
 20
121.7609012230896
 30
0.0
 40
0.125
 41
0.0
 71
     6
 72
     1
  1
\A1;
 73
     1
 44
1.0
1001
ACAD
1000
MTEXTBEGIN
1070
    73
1070
     1
1070
    44
1040
1.0
1070
    74
1070
     0
1000
MTEXTEND
  0
MTEXT
  5
52D6
330
19
100
AcDbEntity
  8
0
 62
     4
100
AcDbMText
 10
35.46348282595158
 20
122.0852692980095
 30
0.0
 40
0.125
 41
0.0
 71
     4
 72
     1
  1
\A1;
 73
     1
 44
1.0
1001
ACAD
1000
MTEXTBEGIN
1070
    73
1070
     1
1070
    44
1040
1.0
1070
    74
1070
     0
1000
MTEXTEND
  0
MTEXT
  5
52D7
330
19
100
AcDbEntity
  8
0
 62
     4
100
AcDbMText
 10
31.38665686761394
 20
119.6274289336052
 30
0.0
 40
0.125
 41
0.0
 71
     6
 72
     1
  1
\A1;
 73
     1
 44
1.0
1001
ACAD
1000
MTEXTBEGIN
1070
    73
1070
     1
1070
    44
1040
1.0
1070
    74
1070
     0
1000
MTEXTEND
  0
MTEXT
  5
52D8
330
19
100
AcDbEntity
  8
0
 62
     4
100
AcDbMText
 10
31.89070309435924
 20
119.0817806794046
 30
0.0
 40
0.125
 41
0.0
 71
     6
 72
     1
  1
\A1;
 73
     1
 44
1.0
1001
ACAD
1000
MTEXTBEGIN
1070
    73
1070
     1
1070
    44
1040
1.0
1070
    74
1070
     0
1000
MTEXTEND
  0
MTEXT
  5
52D9
330
19
100
AcDbEntity
  8
0
 62
     4
100
AcDbMText
 10
31.5186100633711
 20
117.83804534371
 30
0.0
 40
0.125
 41
0.0
 71
     6
 72
     1
  1
\A1;
 73
     1
 44
1.0
1001
ACAD
1000
MTEXTBEGIN
1070
    73
1070
     1
1070
    44
1040
1.0
1070
    74
1070
     0
1000
MTEXTEND
  0
MTEXT
  5
52DA
330
19
100
AcDbEntity
  8
0
 62
     4
100
AcDbMText
 10
31.57132926602296
 20
117.587366419052
 30
0.0
 40
0.125
 41
0.0
 71
     6
 72
     1
  1
\A1;
 73
     1
 44
1.0
1001
ACAD
1000
MTEXTBEGIN
1070
    73
1070
     1
1070
    44
1040
1.0
1070
    74
1070
     0
1000
MTEXTEND
  0
MTEXT
  5
52DB
330
19
100
AcDbEntity
  8
0
 62
     4
100
AcDbMText
 10
46.33229792604927
 20
106.2181958492892
 30
0.0
 40
0.125
 41
0.0
 71
     6
 72
     1
  1
\A1;
 73
     1
 44
1.0
1001
ACAD
1000
MTEXTBEGIN
1070
    73
1070
     1
1070
    44
1040
1.0
1070
    74
1070
     0
1000
MTEXTEND
  0
MTEXT
  5
52DC
330
19
100
AcDbEntity
  8
0
 62
     4
100
AcDbMText
 10
52.31728728769138
 20
104.2674834167393
 30
0.0
 40
0.125
 41
0.0
 71
     4
 72
     1
  1
\A1;
 73
     1
 44
1.0
1001
ACAD
1000
MTEXTBEGIN
1070
    73
1070
     1
1070
    44
1040
1.0
1070
    74
1070
     0
1000
MTEXTEND
  0
MTEXT
  5
52DD
330
19
100
AcDbEntity
  8
0
 62
     4
100
AcDbMText
 10
25.64707651785674
 20
98.82544079371715
 30
0.0
 40
0.125
 41
0.0
 71
     4
 72
     1
  1
\A1;
 73
     1
 44
1.0
1001
ACAD
1000
MTEXTBEGIN
1070
    73
1070
     1
1070
    44
1040
1.0
1070
    74
1070
     0
1000
MTEXTEND
  0
MTEXT
  5
52DE
330
19
100
AcDbEntity
  8
0
 62
     4
100
AcDbMText
 10
21.70599422740747
 20
95.07133642369485
 30
0.0
 40
0.125
 41
0.0
 71
     6
 72
     1
  1
\A1;
 73
     1
 44
1.0
1001
ACAD
1000
MTEXTBEGIN
1070
    73
1070
     1
1070
    44
1040
1.0
1070
    74
1070
     0
1000
MTEXTEND
  0
MTEXT
  5
52DF
330
19
100
AcDbEntity
  8
0
 62
     4
100
AcDbMText
 10
22.02094901705619
 20
95.82182982233002
 30
0.0
 40
0.125
 41
0.0
 71
     6
 72
     1
  1
\A1;
 73
     1
 44
1.0
1001
ACAD
1000
MTEXTBEGIN
1070
    73
1070
     1
1070
    44
1040
1.0
1070
    74
1070
     0
1000
MTEXTEND
  0
MTEXT
  5
52E0
330
19
100
AcDbEntity
  8
0
 62
     4
100
AcDbMText
 10
21.59293354335884
 20
96.37057768459897
 30
0.0
 40
0.125
 41
0.0
 71
     6
 72
     1
  1
\A1;
 73
     1
 44
1.0
1001
ACAD
1000
MTEXTBEGIN
1070
    73
1070
     1
1070
    44
1040
1.0
1070
    74
1070
     0
1000
MTEXTEND
  0
MTEXT
  5
52E1
330
19
100
AcDbEntity
  8
0
 62
     4
100
AcDbMText
 10
30.05566991103783
 20
98.02628371366365
 30
0.0
 40
0.125
 41
0.0
 71
     6
 72
     1
  1
\A1;
 73
     1
 44
1.0
1001
ACAD
1000
MTEXTBEGIN
1070
    73
1070
     1
1070
    44
1040
1.0
1070
    74
1070
     0
1000
MTEXTEND
  0
MTEXT
  5
52E2
330
19
100
AcDbEntity
  8
0
 62
     4
100
AcDbMText
 10
35.92784919387836
 20
96.08923172830943
 30
0.0
 40
0.125
 41
0.0
 71
     4
 72
     1
  1
\A1;
 73
     1
 44
1.0
1001
ACAD
1000
MTEXTBEGIN
1070
    73
1070
     1
1070
    44
1040
1.0
1070
    74
1070
     0
1000
MTEXTEND
  0
MTEXT
  5
52E3
330
19
100
AcDbEntity
  8
0
 62
     5
100
AcDbMText
 10
25.93275166485827
 20
98.74962326276863
 30
0.0
 40
0.125
 41
0.0
 71
     4
 72
     1
  1
\A1;
 73
     1
 44
1.0
1001
ACAD
1000
MTEXTBEGIN
1070
    73
1070
     1
1070
    44
1040
1.0
1070
    74
1070
     0
1000
MTEXTEND
  0
MTEXT
  5
52E4
330
19
100
AcDbEntity
  8
0
 62
     5
100
AcDbMText
 10
21.84439611565463
 20
96.1325472890118
 30
0.0
 40
0.125
 41
0.0
 71
     6
 72
     1
  1
\A1;
 73
     1
 44
1.0
1001
ACAD
1000
MTEXTBEGIN
1070
    73
1070
     1
1070
    44
1040
1.0
1070
    74
1070
     0
1000
MTEXTEND
  0
MTEXT
  5
52E5
330
19
100
AcDbEntity
  8
0
 62
     5
100
AcDbMText
 10
22.1113724948479
 20
95.4854639648696
 30
0.0
 40
0.125
 41
0.0
 71
     6
 72
     1
  1
\A1;
 73
     1
 44
1.0
1001
ACAD
1000
MTEXTBEGIN
1070
    73
1070
     1
1070
    44
1040
1.0
1070
    74
1070
     0
1000
MTEXTEND
  0
MTEXT
  5
52E6
330
19
100
AcDbEntity
  8
0
 62
     5
100
AcDbMText
 10
21.83388471576767
 20
94.77421373356078
 30
0.0
 40
0.125
 41
0.0
 71
     6
 72
     1
  1
\A1;
 73
     1
 44
1.0
1001
ACAD
1000
MTEXTBEGIN
1070
    73
1070
     1
1070
    44
1040
1.0
1070
    74
1070
     0
1000
MTEXTEND
  0
MTEXT
  5
52E7
330
19
100
AcDbEntity
  8
0
 62
     5
100
AcDbMText
 10
21.80520187711877
 20
93.7493376419289
 30
0.0
 40
0.125
 41
0.0
 71
     6
 72
     1
  1
\A1;
 73
     1
 44
1.0
1001
ACAD
1000
MTEXTBEGIN
1070
    73
1070
     1
1070
    44
1040
1.0
1070
    74
1070
     0
1000
MTEXTEND
  0
MTEXT
  5
52E8
330
19
100
AcDbEntity
  8
0
 62
     5
100
AcDbMText
 10
30.04265311332865
 20
98.2726576281852
 30
0.0
 40
0.125
 41
0.0
 71
     6
 72
     1
  1
\A1;
 73
     1
 44
1.0
1001
ACAD
1000
MTEXTBEGIN
1070
    73
1070
     1
1070
    44
1040
1.0
1070
    74
1070
     0
1000
MTEXTEND
  0
MTEXT
  5
52E9
330
19
100
AcDbEntity
  8
0
 62
     5
100
AcDbMText
 10
35.89801459978174
 20
95.8939226478464
 30
0.0
 40
0.125
 41
0.0
 71
     4
 72
     1
  1
\A1;
 73
     1
 44
1.0
1001
ACAD
1000
MTEXTBEGIN
1070
    73
1070
     1
1070
    44
1040
1.0
1070
    74
1070
     0
1000
MTEXTEND
  0
MTEXT
  5
52EA
330
19
100
AcDbEntity
  8
0
 62
     5
100
AcDbMText
 10
31.29864915350486
 20
92.09050708269973
 30
0.0
 40
0.125
 41
0.0
 71
     4
 72
     1
  1
\A1;
 73
     1
 44
1.0
1001
ACAD
1000
MTEXTBEGIN
1070
    73
1070
     1
1070
    44
1040
1.0
1070
    74
1070
     0
1000
MTEXTEND
  0
MTEXT
  5
52EB
330
19
100
AcDbEntity
  8
0
 62
     4
100
AcDbMText
 10
42.47704098889701
 20
61.52302348609935
 30
0.0
 40
0.125
 41
0.0
 71
     4
 72
     1
  1
\A1;
 73
     1
 44
1.0
1001
ACAD
1000
MTEXTBEGIN
1070
    73
1070
     1
1070
    44
1040
1.0
1070
    74
1070
     0
1000
MTEXTEND
  0
MTEXT
  5
52EC
330
19
100
AcDbEntity
  8
0
 62
     4
100
AcDbMText
 10
65.87103785051873
 20
107.661342394046
 30
0.0
 40
0.125
 41
0.0
 71
     6
 72
     1
  1
\A1;
 73
     1
 44
1.0
1001
ACAD
1000
MTEXTBEGIN
1070
    73
1070
     1
1070
    44
1040
1.0
1070
    74
1070
     0
1000
MTEXTEND
  0
MTEXT
  5
52ED
330
19
100
AcDbEntity
  8
0
 62
     4
100
AcDbMText
 10
64.71297079491634
 20
107.9857104689659
 30
0.0
 40
0.125
 41
0.0
 71
     4
 72
     1
  1
\A1;
 73
     1
 44
1.0
1001
ACAD
1000
MTEXTBEGIN
1070
    73
1070
     1
1070
    44
1040
1.0
1070
    74
1070
     0
1000
MTEXTEND
  0
MTEXT
  5
52EE
330
19
100
AcDbEntity
  8
0
 62
     4
100
AcDbMText
 10
60.6361448365787
 20
105.5278701045616
 30
0.0
 40
0.125
 41
0.0
 71
     6
 72
     1
  1
\A1;
 73
     1
 44
1.0
1001
ACAD
1000
MTEXTBEGIN
1070
    73
1070
     1
1070
    44
1040
1.0
1070
    74
1070
     0
1000
MTEXTEND
  0
MTEXT
  5
52EF
330
19
100
AcDbEntity
  8
0
 62
     4
100
AcDbMText
 10
61.140191063324
 20
104.982221850361
 30
0.0
 40
0.125
 41
0.0
 71
     6
 72
     1
  1
\A1;
 73
     1
 44
1.0
1001
ACAD
1000
MTEXTBEGIN
1070
    73
1070
     1
1070
    44
1040
1.0
1070
    74
1070
     0
1000
MTEXTEND
  0
MTEXT
  5
52F0
330
19
100
AcDbEntity
  8
0
 62
     4
100
AcDbMText
 10
60.76809803233587
 20
103.7384865146664
 30
0.0
 40
0.125
 41
0.0
 71
     6
 72
     1
  1
\A1;
 73
     1
 44
1.0
1001
ACAD
1000
MTEXTBEGIN
1070
    73
1070
     1
1070
    44
1040
1.0
1070
    74
1070
     0
1000
MTEXTEND
  0
MTEXT
  5
52F1
330
19
100
AcDbEntity
  8
0
 62
     4
100
AcDbMText
 10
60.82081723498772
 20
103.4878075900084
 30
0.0
 40
0.125
 41
0.0
 71
     6
 72
     1
  1
\A1;
 73
     1
 44
1.0
1001
ACAD
1000
MTEXTBEGIN
1070
    73
1070
     1
1070
    44
1040
1.0
1070
    74
1070
     0
1000
MTEXTEND
  0
MTEXT
  5
52F2
330
19
100
AcDbEntity
  8
0
 62
     4
100
AcDbMText
 10
75.58178589501403
 20
92.11863702024567
 30
0.0
 40
0.125
 41
0.0
 71
     6
 72
     1
  1
\A1;
 73
     1
 44
1.0
1001
ACAD
1000
MTEXTBEGIN
1070
    73
1070
     1
1070
    44
1040
1.0
1070
    74
1070
     0
1000
MTEXTEND
  0
MTEXT
  5
52F3
330
19
100
AcDbEntity
  8
0
 62
     4
100
AcDbMText
 10
81.56677525665614
 20
90.16792458769577
 30
0.0
 40
0.125
 41
0.0
 71
     4
 72
     1
  1
\A1;
 73
     1
 44
1.0
1001
ACAD
1000
MTEXTBEGIN
1070
    73
1070
     1
1070
    44
1040
1.0
1070
    74
1070
     0
1000
MTEXTEND
  0
MTEXT
  5
52F4
330
19
100
AcDbEntity
  8
0
 62
     4
100
AcDbMText
 10
54.8965644868215
 20
84.72588196467354
 30
0.0
 40
0.125
 41
0.0
 71
     4
 72
     1
  1
\A1;
 73
     1
 44
1.0
1001
ACAD
1000
MTEXTBEGIN
1070
    73
1070
     1
1070
    44
1040
1.0
1070
    74
1070
     0
1000
MTEXTEND
  0
MTEXT
  5
52F5
330
19
100
AcDbEntity
  8
0
 62
     4
100
AcDbMText
 10
50.95548219637223
 20
80.97177759465123
 30
0.0
 40
0.125
 41
0.0
 71
     6
 72
     1
  1
\A1;
 73
     1
 44
1.0
1001
ACAD
1000
MTEXTBEGIN
1070
    73
1070
     1
1070
    44
1040
1.0
1070
    74
1070
     0
1000
MTEXTEND
  0
MTEXT
  5
52F6
330
19
100
AcDbEntity
  8
0
 62
     4
100
AcDbMText
 10
51.27043698602095
 20
81.72227099328642
 30
0.0
 40
0.125
 41
0.0
 71
     6
 72
     1
  1
\A1;
 73
     1
 44
1.0
1001
ACAD
1000
MTEXTBEGIN
1070
    73
1070
     1
1070
    44
1040
1.0
1070
    74
1070
     0
1000
MTEXTEND
  0
MTEXT
  5
52F7
330
19
100
AcDbEntity
  8
0
 62
     4
100
AcDbMText
 10
50.8424215123236
 20
82.27101885555535
 30
0.0
 40
0.125
 41
0.0
 71
     6
 72
     1
  1
\A1;
 73
     1
 44
1.0
1001
ACAD
1000
MTEXTBEGIN
1070
    73
1070
     1
1070
    44
1040
1.0
1070
    74
1070
     0
1000
MTEXTEND
  0
MTEXT
  5
52F8
330
19
100
AcDbEntity
  8
0
 62
     4
100
AcDbMText
 10
59.30515788000259
 20
83.92672488462004
 30
0.0
 40
0.125
 41
0.0
 71
     6
 72
     1
  1
\A1;
 73
     1
 44
1.0
1001
ACAD
1000
MTEXTBEGIN
1070
    73
1070
     1
1070
    44
1040
1.0
1070
    74
1070
     0
1000
MTEXTEND
  0
MTEXT
  5
52F9
330
19
100
AcDbEntity
  8
0
 62
     4
100
AcDbMText
 10
65.17733716284311
 20
81.98967289926583
 30
0.0
 40
0.125
 41
0.0
 71
     4
 72
     1
  1
\A1;
 73
     1
 44
1.0
1001
ACAD
1000
MTEXTBEGIN
1070
    73
1070
     1
1070
    44
1040
1.0
1070
    74
1070
     0
1000
MTEXTEND
  0
MTEXT
  5
52FA
330
19
100
AcDbEntity
  8
0
 62
     5
100
AcDbMText
 10
55.18223963382303
 20
84.65006443372502
 30
0.0
 40
0.125
 41
0.0
 71
     4
 72
     1
  1
\A1;
 73
     1
 44
1.0
1001
ACAD
1000
MTEXTBEGIN
1070
    73
1070
     1
1070
    44
1040
1.0
1070
    74
1070
     0
1000
MTEXTEND
  0
MTEXT
  5
52FB
330
19
100
AcDbEntity
  8
0
 62
     5
100
AcDbMText
 10
51.09388408461938
 20
82.03298845996819
 30
0.0
 40
0.125
 41
0.0
 71
     6
 72
     1
  1
\A1;
 73
     1
 44
1.0
1001
ACAD
1000
MTEXTBEGIN
1070
    73
1070
     1
1070
    44
1040
1.0
1070
    74
1070
     0
1000
MTEXTEND
  0
MTEXT
  5
52FC
330
19
100
AcDbEntity
  8
0
 62
     5
100
AcDbMText
 10
51.36086046381265
 20
81.38590513582599
 30
0.0
 40
0.125
 41
0.0
 71
     6
 72
     1
  1
\A1;
 73
     1
 44
1.0
1001
ACAD
1000
MTEXTBEGIN
1070
    73
1070
     1
1070
    44
1040
1.0
1070
    74
1070
     0
1000
MTEXTEND
  0
MTEXT
  5
52FD
330
19
100
AcDbEntity
  8
0
 62
     5
100
AcDbMText
 10
51.08337268473243
 20
80.67465490451716
 30
0.0
 40
0.125
 41
0.0
 71
     6
 72
     1
  1
\A1;
 73
     1
 44
1.0
1001
ACAD
1000
MTEXTBEGIN
1070
    73
1070
     1
1070
    44
1040
1.0
1070
    74
1070
     0
1000
MTEXTEND
  0
MTEXT
  5
52FE
330
19
100
AcDbEntity
  8
0
 62
     5
100
AcDbMText
 10
51.05468984608353
 20
79.6497788128853
 30
0.0
 40
0.125
 41
0.0
 71
     6
 72
     1
  1
\A1;
 73
     1
 44
1.0
1001
ACAD
1000
MTEXTBEGIN
1070
    73
1070
     1
1070
    44
1040
1.0
1070
    74
1070
     0
1000
MTEXTEND
  0
MTEXT
  5
52FF
330
19
100
AcDbEntity
  8
0
 62
     5
100
AcDbMText
 10
59.29214108229341
 20
84.1730987991416
 30
0.0
 40
0.125
 41
0.0
 71
     6
 72
     1
  1
\A1;
 73
     1
 44
1.0
1001
ACAD
1000
MTEXTBEGIN
1070
    73
1070
     1
1070
    44
1040
1.0
1070
    74
1070
     0
1000
MTEXTEND
  0
MTEXT
  5
5300
330
19
100
AcDbEntity
  8
0
 62
     5
100
AcDbMText
 10
65.1475025687465
 20
81.79436381880281
 30
0.0
 40
0.125
 41
0.0
 71
     4
 72
     1
  1
\A1;
 73
     1
 44
1.0
1001
ACAD
1000
MTEXTBEGIN
1070
    73
1070
     1
1070
    44
1040
1.0
1070
    74
1070
     0
1000
MTEXTEND
  0
MTEXT
  5
5301
330
19
100
AcDbEntity
  8
0
 62
     5
100
AcDbMText
 10
60.54813712246962
 20
77.99094825365613
 30
0.0
 40
0.125
 41
0.0
 71
     4
 72
     1
  1
\A1;
 73
     1
 44
1.0
1001
ACAD
1000
MTEXTBEGIN
1070
    73
1070
     1
1070
    44
1040
1.0
1070
    74
1070
     0
1000
MTEXTEND
  0
MTEXT
  5
5302
330
19
100
AcDbEntity
  8
0
 62
     4
100
AcDbMText
 10
71.72652895786177
 20
47.42346465705574
 30
0.0
 40
0.125
 41
0.0
 71
     4
 72
     1
  1
\A1;
 73
     1
 44
1.0
1001
ACAD
1000
MTEXTBEGIN
1070
    73
1070
     1
1070
    44
1040
1.0
1070
    74
1070
     0
1000
MTEXTEND
  0
MTEXT
  5
5303
330
19
100
AcDbEntity
  8
0
 62
     4
100
AcDbMText
 10
49.34753929436008
 20
108.2110277063532
 30
0.0
 40
0.125
 41
0.0
 71
     6
 72
     1
  1
\A1;
 73
     1
 44
1.0
1001
ACAD
1000
MTEXTBEGIN
1070
    73
1070
     1
1070
    44
1040
1.0
1070
    74
1070
     0
1000
MTEXTEND
  0
MTEXT
  5
5304
330
19
100
AcDbEntity
  8
0
 62
     4
100
AcDbMText
 10
48.1894722387577
 20
108.535395781273
 30
0.0
 40
0.125
 41
0.0
 71
     4
 72
     1
  1
\A1;
 73
     1
 44
1.0
1001
ACAD
1000
MTEXTBEGIN
1070
    73
1070
     1
1070
    44
1040
1.0
1070
    74
1070
     0
1000
MTEXTEND
  0
MTEXT
  5
5305
330
19
100
AcDbEntity
  8
0
 62
     4
100
AcDbMText
 10
44.11264628042006
 20
106.0775554168688
 30
0.0
 40
0.125
 41
0.0
 71
     6
 72
     1
  1
\A1;
 73
     1
 44
1.0
1001
ACAD
1000
MTEXTBEGIN
1070
    73
1070
     1
1070
    44
1040
1.0
1070
    74
1070
     0
1000
MTEXTEND
  0
MTEXT
  5
5306
330
19
100
AcDbEntity
  8
0
 62
     4
100
AcDbMText
 10
44.61669250716536
 20
105.5319071626681
 30
0.0
 40
0.125
 41
0.0
 71
     6
 72
     1
  1
\A1;
 73
     1
 44
1.0
1001
ACAD
1000
MTEXTBEGIN
1070
    73
1070
     1
1070
    44
1040
1.0
1070
    74
1070
     0
1000
MTEXTEND
  0
MTEXT
  5
5307
330
19
100
AcDbEntity
  8
0
 62
     4
100
AcDbMText
 10
44.24459947617722
 20
104.2881718269736
 30
0.0
 40
0.125
 41
0.0
 71
     6
 72
     1
  1
\A1;
 73
     1
 44
1.0
1001
ACAD
1000
MTEXTBEGIN
1070
    73
1070
     1
1070
    44
1040
1.0
1070
    74
1070
     0
1000
MTEXTEND
  0
MTEXT
  5
5308
330
19
100
AcDbEntity
  8
0
 62
     4
100
AcDbMText
 10
44.29731867882908
 20
104.0374929023156
 30
0.0
 40
0.125
 41
0.0
 71
     6
 72
     1
  1
\A1;
 73
     1
 44
1.0
1001
ACAD
1000
MTEXTBEGIN
1070
    73
1070
     1
1070
    44
1040
1.0
1070
    74
1070
     0
1000
MTEXTEND
  0
MTEXT
  5
5309
330
19
100
AcDbEntity
  8
0
 62
     4
100
AcDbMText
 10
59.05828733885538
 20
92.66832233255286
 30
0.0
 40
0.125
 41
0.0
 71
     6
 72
     1
  1
\A1;
 73
     1
 44
1.0
1001
ACAD
1000
MTEXTBEGIN
1070
    73
1070
     1
1070
    44
1040
1.0
1070
    74
1070
     0
1000
MTEXTEND
  0
MTEXT
  5
530A
330
19
100
AcDbEntity
  8
0
 62
     4
100
AcDbMText
 10
65.0432767004975
 20
90.71760990000298
 30
0.0
 40
0.125
 41
0.0
 71
     4
 72
     1
  1
\A1;
 73
     1
 44
1.0
1001
ACAD
1000
MTEXTBEGIN
1070
    73
1070
     1
1070
    44
1040
1.0
1070
    74
1070
     0
1000
MTEXTEND
  0
MTEXT
  5
530B
330
19
100
AcDbEntity
  8
0
 62
     4
100
AcDbMText
 10
38.37306593066285
 20
85.27556727698073
 30
0.0
 40
0.125
 41
0.0
 71
     4
 72
     1
  1
\A1;
 73
     1
 44
1.0
1001
ACAD
1000
MTEXTBEGIN
1070
    73
1070
     1
1070
    44
1040
1.0
1070
    74
1070
     0
1000
MTEXTEND
  0
MTEXT
  5
530C
330
19
100
AcDbEntity
  8
0
 62
     4
100
AcDbMText
 10
34.43198364021359
 20
81.52146290695842
 30
0.0
 40
0.125
 41
0.0
 71
     6
 72
     1
  1
\A1;
 73
     1
 44
1.0
1001
ACAD
1000
MTEXTBEGIN
1070
    73
1070
     1
1070
    44
1040
1.0
1070
    74
1070
     0
1000
MTEXTEND
  0
MTEXT
  5
530D
330
19
100
AcDbEntity
  8
0
 62
     4
100
AcDbMText
 10
34.74693842986231
 20
82.27195630559359
 30
0.0
 40
0.125
 41
0.0
 71
     6
 72
     1
  1
\A1;
 73
     1
 44
1.0
1001
ACAD
1000
MTEXTBEGIN
1070
    73
1070
     1
1070
    44
1040
1.0
1070
    74
1070
     0
1000
MTEXTEND
  0
MTEXT
  5
530E
330
19
100
AcDbEntity
  8
0
 62
     4
100
AcDbMText
 10
34.31892295616496
 20
82.82070416786252
 30
0.0
 40
0.125
 41
0.0
 71
     6
 72
     1
  1
\A1;
 73
     1
 44
1.0
1001
ACAD
1000
MTEXTBEGIN
1070
    73
1070
     1
1070
    44
1040
1.0
1070
    74
1070
     0
1000
MTEXTEND
  0
MTEXT
  5
530F
330
19
100
AcDbEntity
  8
0
 62
     4
100
AcDbMText
 10
42.78165932384395
 20
84.47641019692722
 30
0.0
 40
0.125
 41
0.0
 71
     6
 72
     1
  1
\A1;
 73
     1
 44
1.0
1001
ACAD
1000
MTEXTBEGIN
1070
    73
1070
     1
1070
    44
1040
1.0
1070
    74
1070
     0
1000
MTEXTEND
  0
MTEXT
  5
5310
330
19
100
AcDbEntity
  8
0
 62
     4
100
AcDbMText
 10
48.65383860668448
 20
82.539358211573
 30
0.0
 40
0.125
 41
0.0
 71
     4
 72
     1
  1
\A1;
 73
     1
 44
1.0
1001
ACAD
1000
MTEXTBEGIN
1070
    73
1070
     1
1070
    44
1040
1.0
1070
    74
1070
     0
1000
MTEXTEND
  0
MTEXT
  5
5311
330
19
100
AcDbEntity
  8
0
 62
     5
100
AcDbMText
 10
38.65874107766439
 20
85.1997497460322
 30
0.0
 40
0.125
 41
0.0
 71
     4
 72
     1
  1
\A1;
 73
     1
 44
1.0
1001
ACAD
1000
MTEXTBEGIN
1070
    73
1070
     1
1070
    44
1040
1.0
1070
    74
1070
     0
1000
MTEXTEND
  0
MTEXT
  5
5312
330
19
100
AcDbEntity
  8
0
 62
     5
100
AcDbMText
 10
34.57038552846074
 20
82.58267377227538
 30
0.0
 40
0.125
 41
0.0
 71
     6
 72
     1
  1
\A1;
 73
     1
 44
1.0
1001
ACAD
1000
MTEXTBEGIN
1070
    73
1070
     1
1070
    44
1040
1.0
1070
    74
1070
     0
1000
MTEXTEND
  0
MTEXT
  5
5313
330
19
100
AcDbEntity
  8
0
 62
     5
100
AcDbMText
 10
34.83736190765401
 20
81.93559044813317
 30
0.0
 40
0.125
 41
0.0
 71
     6
 72
     1
  1
\A1;
 73
     1
 44
1.0
1001
ACAD
1000
MTEXTBEGIN
1070
    73
1070
     1
1070
    44
1040
1.0
1070
    74
1070
     0
1000
MTEXTEND
  0
MTEXT
  5
5314
330
19
100
AcDbEntity
  8
0
 62
     5
100
AcDbMText
 10
34.55987412857378
 20
81.22434021682435
 30
0.0
 40
0.125
 41
0.0
 71
     6
 72
     1
  1
\A1;
 73
     1
 44
1.0
1001
ACAD
1000
MTEXTBEGIN
1070
    73
1070
     1
1070
    44
1040
1.0
1070
    74
1070
     0
1000
MTEXTEND
  0
MTEXT
  5
5315
330
19
100
AcDbEntity
  8
0
 62
     5
100
AcDbMText
 10
34.53119128992488
 20
80.19946412519248
 30
0.0
 40
0.125
 41
0.0
 71
     6
 72
     1
  1
\A1;
 73
     1
 44
1.0
1001
ACAD
1000
MTEXTBEGIN
1070
    73
1070
     1
1070
    44
1040
1.0
1070
    74
1070
     0
1000
MTEXTEND
  0
MTEXT
  5
5316
330
19
100
AcDbEntity
  8
0
 62
     5
100
AcDbMText
 10
42.76864252613476
 20
84.72278411144877
 30
0.0
 40
0.125
 41
0.0
 71
     6
 72
     1
  1
\A1;
 73
     1
 44
1.0
1001
ACAD
1000
MTEXTBEGIN
1070
    73
1070
     1
1070
    44
1040
1.0
1070
    74
1070
     0
1000
MTEXTEND
  0
MTEXT
  5
5317
330
19
100
AcDbEntity
  8
0
 62
     5
100
AcDbMText
 10
48.62400401258786
 20
82.34404913110997
 30
0.0
 40
0.125
 41
0.0
 71
     4
 72
     1
  1
\A1;
 73
     1
 44
1.0
1001
ACAD
1000
MTEXTBEGIN
1070
    73
1070
     1
1070
    44
1040
1.0
1070
    74
1070
     0
1000
MTEXTEND
  0
MTEXT
  5
5318
330
19
100
AcDbEntity
  8
0
 62
     5
100
AcDbMText
 10
44.02463856631097
 20
78.54063356596331
 30
0.0
 40
0.125
 41
0.0
 71
     4
 72
     1
  1
\A1;
 73
     1
 44
1.0
1001
ACAD
1000
MTEXTBEGIN
1070
    73
1070
     1
1070
    44
1040
1.0
1070
    74
1070
     0
1000
MTEXTEND
  0
MTEXT
  5
5319
330
19
100
AcDbEntity
  8
0
 62
     4
100
AcDbMText
 10
55.20303040170312
 20
47.97314996936292
 30
0.0
 40
0.125
 41
0.0
 71
     4
 72
     1
  1
\A1;
 73
     1
 44
1.0
1001
ACAD
1000
MTEXTBEGIN
1070
    73
1070
     1
1070
    44
1040
1.0
1070
    74
1070
     0
1000
MTEXTEND
  0
LWPOLYLINE
  5
531A
330
19
100
AcDbEntity
  8
JB-65EP
  6
HIDDEN2
 62
     4
100
AcDbPolyline
 90
        8
 70
     1
 43
0.0
 10
89.96636341243434
 20
49.37797840152576
 10
84.70636341243434
 20
49.37797840152574
 42
-0.5773502691896288
 10
84.41191477514763
 20
49.88797840152574
 10
84.77680014527544
 20
50.51997840152574
 42
-0.2679491924311231
 10
85.07124878256215
 20
50.68997840152574
 10
89.60147804230649
 20
50.68997840152574
 42
-0.2679491924311232
 10
89.89592667959319
 20
50.51997840152574
 10
90.26081204972104
 20
49.88797840152574
 42
-0.5773502691896289
  0
LWPOLYLINE
  5
531B
330
19
100
AcDbEntity
  8
JB-65EP
100
AcDbPolyline
 90
        8
 70
     1
 43
0.0
 10
89.96636341243434
 20
49.43497840152576
 10
84.70636341243434
 20
49.43497840152574
 42
-0.5773502691896453
 10
84.46127822316332
 20
49.85947840152574
 10
84.82616359329117
 20
50.49147840152574
 42
-0.2679491924311142
 10
85.07124878256215
 20
50.63297840152574
 10
89.60147804230649
 20
50.63297840152574
 42
-0.2679491924311259
 10
89.8465632315775
 20
50.49147840152574
 10
90.21144860170531
 20
49.85947840152574
 42
-0.5773502691896065
  0
LWPOLYLINE
  5
5328
330
19
100
AcDbEntity
  8
JB-65C
  6
HIDDEN2
 62
     4
100
AcDbPolyline
 90
        4
 70
     0
 43
0.0
 10
89.36799964620226
 20
50.72397840152575
 10
89.37236341243432
 20
50.47397840152576
 10
89.56036341243432
 20
50.47397840152576
 10
89.56472717866637
 20
50.72397840152575
  0
LWPOLYLINE
  5
5329
330
19
100
AcDbEntity
  8
JB-65C
  6
HIDDEN2
 62
     4
100
AcDbPolyline
 90
        4
 70
     0
 43
0.0
 10
85.30472717866638
 20
50.72397840152575
 10
85.30036341243434
 20
50.47397840152576
 10
85.11236341243431
 20
50.47397840152576
 10
85.10799964620227
 20
50.72397840152575
  0
LWPOLYLINE
  5
532D
330
19
100
AcDbEntity
  8
JB-65B
  6
HIDDEN2
 62
     4
100
AcDbPolyline
 90
        4
 70
     0
 43
0.0
 10
89.74315654792675
 20
49.31427631608475
 10
89.7475203141588
 20
49.56427631608476
 10
89.93520651070983
 20
49.56427631608475
 10
89.93957027694184
 20
49.31427631608475
  0
LWPOLYLINE
  5
5331
330
19
100
AcDbEntity
  8
JB-65B
  6
HIDDEN2
 62
     4
100
AcDbPolyline
 90
        4
 70
     0
 43
0.0
 10
84.7331565479268
 20
49.31427631608475
 10
84.73752031415884
 20
49.56427631608476
 10
84.92520651070984
 20
49.56427631608475
 10
84.92957027694188
 20
49.31427631608475
  0
LINE
  5
5334
330
19
100
AcDbEntity
  8
JB-65C
  6
HIDDEN2
 62
     4
100
AcDbLine
 10
84.36752031415881
 20
49.71597840152575
 30
0.0
 11
84.55520651070981
 21
49.71597840152575
 31
0.0
  0
LINE
  5
5336
330
19
100
AcDbEntity
  8
JB-65C
  6
HIDDEN2
 62
     4
100
AcDbLine
 10
90.30566034239797
 20
49.74197840152574
 30
0.0
 11
90.30520651070984
 21
49.71597840152575
 31
0.0
  0
LINE
  5
5337
330
19
100
AcDbEntity
  8
JB-65C
  6
HIDDEN2
 62
     4
100
AcDbLine
 10
90.30520651070984
 20
49.71597840152575
 30
0.0
 11
90.11752031415884
 21
49.71597840152575
 31
0.0
  0
DIMENSION
  5
534D
330
19
100
AcDbEntity
  8
0
100
AcDbDimension
  2
*D3
 10
84.20636341243435
 20
60.8362681315287
 30
0.0
 11
87.33636341243434
 21
60.8362681315287
 31
0.0
 12
31.19817625165477
 22
-0.0185944922114203
 32
0.0
 70
   160
 71
     5
 42
-1.0
  3
STANDARD_WS
100
AcDbAlignedDimension
 13
90.46636341243432
 23
58.88929980013154
 33
0.0
 14
84.20636341243435
 24
58.88929980013154
 34
0.0
100
AcDbRotatedDimension
1001
ACAD
1000
DSTYLE
1002
{
1002
}
  0
DIMENSION
  5
5367
330
19
100
AcDbEntity
  8
0
100
AcDbDimension
  2
*D4
 10
84.46136341243434
 20
60.35523883269668
 30
0.0
 11
87.33636341243434
 21
60.35523883269668
 31
0.0
 12
31.19817625165477
 22
-0.0185944922114203
 32
0.0
 70
   160
  1
<>\P(2 PLCS.)
 71
     5
 42
-1.0
  3
STANDARD_WS
100
AcDbAlignedDimension
 13
90.21136341243433
 23
58.57249642388753
 33
0.0
 14
84.46136341243434
 24
58.57249642388753
 34
0.0
100
AcDbRotatedDimension
  0
DIMENSION
  5
5375
330
19
100
AcDbEntity
  8
0
100
AcDbDimension
  2
*D5
 10
84.83136341243435
 20
59.9253057808702
 30
0.0
 11
87.33636341243434
 21
59.9253057808702
 31
0.0
 12
31.19817625165477
 22
-0.0185944922114203
 32
0.0
 70
   160
  1
\fArial|b0|i0|c0|p32;<>\P(3 PLCS.)
 71
     5
 42
-1.0
  3
STANDARD_WS
100
AcDbAlignedDimension
 13
89.84136341243432
 23
58.32249642369403
 33
0.0
 14
84.83136341243435
 24
58.32249642369403
 34
0.0
100
AcDbRotatedDimension
  0
DIMENSION
  5
5383
330
19
100
AcDbEntity
  8
0
100
AcDbDimension
  2
*D6
 10
89.46636341243433
 20
59.46223328810622
 30
0.0
 11
87.33636341243434
 21
62.3254343885431
 31
0.0
 12
31.19817625165477
 22
-0.0185944922114203
 32
0.0
 70
    32
  1
\fArial|b0|i0|c0|p32;<>\P(3 PLCS.)
 71
     5
 42
-1.0
  3
STANDARD_WS
100
AcDbAlignedDimension
 13
85.20636341243433
 23
57.94449642369404
 33
0.0
 14
89.46636341243433
 24
57.94449642369404
 34
0.0
100
AcDbRotatedDimension
  0
DIMENSION
  5
53D9
330
19
100
AcDbEntity
  8
0
100
AcDbDimension
  2
*D7
 10
80.46641449543486
 20
52.30949642369404
 30
0.0
 11
80.46641449543486
 21
58.55569752413092
 31
0.0
 12
31.19817625165477
 22
-0.0185944922114203
 32
0.0
 70
    32
 71
     5
 42
-1.0
  3
STANDARD_WS
100
AcDbAlignedDimension
 13
84.39256003599684
 23
59.07549642369403
 33
0.0
 14
84.39256003599684
 24
52.30949642369404
 34
0.0
 50
90.0
100
AcDbRotatedDimension
  0
DIMENSION
  5
53E7
330
19
100
AcDbEntity
  8
0
100
AcDbDimension
  2
*D8
 10
81.56765204004006
 20
52.81249642369404
 30
0.0
 11
81.56765204004006
 21
58.55569752413092
 31
0.0
 12
31.19817625165477
 22
-0.0185944922114203
 32
0.0
 70
    32
  1
\fArial|b0|i0|c0|p32;<>\P(2 PLCS.)
 71
     5
 42
-1.0
  3
STANDARD_WS
100
AcDbAlignedDimension
 13
84.46136341243432
 23
58.57249642369403
 33
0.0
 14
84.46136341243432
 24
52.81249642369404
 34
0.0
 50
90.0
100
AcDbRotatedDimension
  0
DIMENSION
  5
53F5
330
19
100
AcDbEntity
  8
0
100
AcDbDimension
  2
*D9
 10
82.5382905332086
 20
53.06249642369404
 30
0.0
 11
82.5382905332086
 21
58.55569752413092
 31
0.0
 12
31.19817625165477
 22
-0.0185944922114203
 32
0.0
 70
    32
  1
\fArial|b0|i0|c0|p32;<>\P(2 PLCS.)
 71
     5
 42
-1.0
  3
STANDARD_WS
100
AcDbAlignedDimension
 13
84.83136341243435
 23
58.32249642369403
 33
0.0
 14
84.83136341243435
 24
53.06249642369404
 34
0.0
 50
90.0
100
AcDbRotatedDimension
  0
DIMENSION
  5
5403
330
19
100
AcDbEntity
  8
0
100
AcDbDimension
  2
*D10
 10
83.431259542652
 20
57.94449642369404
 30
0.0
 11
83.431259542652
 21
58.55569752413092
 31
0.0
 12
31.19817625165477
 22
-0.0185944922114203
 32
0.0
 70
    32
  1
\fArial|b0|i0|c0|p32;<>\P(2 PLCS.)
 71
     5
 42
-1.0
  3
STANDARD_WS
100
AcDbAlignedDimension
 13
85.20636341243433
 23
53.44049642369403
 33
0.0
 14
85.20636341243433
 24
57.94449642369404
 34
0.0
 50
90.0
100
AcDbRotatedDimension
  0
DIMENSION
  5
5471
330
19
100
AcDbEntity
  8
0
100
AcDbDimension
  2
*D11
 10
91.20574204857957
 20
52.54749642369404
 30
0.0
 11
91.20574204857957
 21
58.55569752413092
 31
0.0
 12
31.19817625165477
 22
-0.0185944922114203
 32
0.0
 70
    32
 71
     5
 42
-1.0
  3
STANDARD_WS
100
AcDbAlignedDimension
 13
89.60536341243432
 23
58.83749642369405
 33
0.0
 14
89.60536341243432
 24
52.54749642369404
 34
0.0
 50
90.0
100
AcDbRotatedDimension
  0
DIMENSION
  5
548B
330
19
100
AcDbEntity
  8
0
100
AcDbDimension
  2
*D12
 10
85.06736341243435
 20
51.61097561116642
 30
0.0
 11
87.33636341243434
 21
54.4741767116033
 31
0.0
 12
31.19817625165477
 22
-0.0185944922114203
 32
0.0
 70
    32
 71
     5
 42
-1.0
  3
STANDARD_WS
100
AcDbAlignedDimension
 13
89.60536341243432
 23
52.54749642369404
 33
0.0
 14
85.06736341243435
 24
52.54749642369404
 34
0.0
100
AcDbRotatedDimension
  0
DIMENSION
  5
54D0
330
19
100
AcDbEntity
  8
0
100
AcDbDimension
  2
*D13
 10
83.23489742482898
 20
49.31427631608475
 30
0.0
 11
81.88828589686172
 21
51.81747741652164
 31
0.0
 12
31.19817625165477
 22
1.380469706776182
 32
0.0
 70
    32
  1
\fArial|b0|i0|c0|p32;<> MTG. BOSS HEIGHT\P(6 PLCS. ON COVER)\P(6 PLCS. ON BASE)
 71
     5
 42
-1.0
  3
STANDARD_WS
100
AcDbAlignedDimension
 13
84.73752031415884
 23
49.56427631608476
 33
0.0
 14
84.7331565479268
 24
49.31427631608475
 34
0.0
 50
90.0
100
AcDbRotatedDimension
  0
DIMENSION
  5
54E8
330
19
100
AcDbEntity
  8
0
100
AcDbDimension
  2
*D14
 10
89.77746581898681
 20
58.25376779322928
 30
0.0
 11
91.94328362709157
 21
59.76914974077438
 31
0.0
 12
31.19817625165477
 22
-0.0185944922114203
 32
0.0
 70
   163
  1
<> O.D.\P%%C0.090 I.D.\P(12 PLCS.)
 71
     5
 42
-1.0
  3
STANDARD_WS$3
100
AcDbDiametricDimension
 15
89.90526100588184
 25
58.39122505415876
 35
0.0
 40
0.0
1001
ACAD
1000
DSTYLE
1002
{
1070
   288
1070
     1
1002
}
  0
DIMENSION
  5
54FE
330
19
100
AcDbEntity
  8
0
100
AcDbDimension
  2
*D15
 10
90.94257181199722
 20
49.31427631608475
 30
0.0
 11
90.94257181199722
 21
52.88232845924214
 31
0.0
 12
31.19817625165477
 22
1.380469706776182
 32
0.0
 70
    32
 71
     5
 42
-1.0
  3
STANDARD_WS
100
AcDbAlignedDimension
 13
89.64024947977813
 23
50.72397840152575
 33
0.0
 14
89.96983908293433
 24
49.31427631608475
 34
0.0
 50
90.0
100
AcDbRotatedDimension
  0
LEADER
  5
5514
330
19
100
AcDbEntity
  8
0
 62
     1
100
AcDbLeader
  3
STANDARD_WS
 73
     0
 40
0.1292633015006821
 41
1.543912005457025
 76
     3
 10
89.096226533029
 20
53.04992123054169
 30
0.0
 10
92.12620880542035
 20
51.23741001858434
 30
0.0
 10
92.44515428929735
 20
51.23741001858434
 30
0.0
340
5515
1001
ACAD
1000
DSTYLE
1002
{
1070
     6
1000
DOT
1070
   173
1070
     1
1070
   341
1005
4B37
1070
   343
1005
4B37
1070
   344
1005
4B37
1002
}
  0
MTEXT
  5
5515
102
{ACAD_REACTORS
330
5514
102
}
330
19
100
AcDbEntity
  8
0
 62
     4
100
AcDbMText
 10
92.53515428929736
 20
51.23741001858434
 30
0.0
 40
0.125
 41
0.0
 71
     4
 72
     1
  1
TEXTURED FLUSH
 73
     1
 44
1.0
1001
ACAD
1000
MTEXTBEGIN
1070
    73
1070
     1
1070
    44
1040
1.0
1070
    74
1070
     0
1000
MTEXTEND
  0
MTEXT
  5
55C1
330
19
100
AcDbEntity
  8
0
 62
     4
100
AcDbMText
 10
78.84281473490805
 20
115.1840571995835
 30
0.0
 40
0.125
 41
0.0
 71
     6
 72
     1
  1
\A1;
 73
     1
 44
1.0
1001
ACAD
1000
MTEXTBEGIN
1070
    73
1070
     1
1070
    44
1040
1.0
1070
    74
1070
     0
1000
MTEXTEND
  0
MTEXT
  5
55C2
330
19
100
AcDbEntity
  8
0
 62
     4
100
AcDbMText
 10
77.68474767930567
 20
115.5084252745034
 30
0.0
 40
0.125
 41
0.0
 71
     4
 72
     1
  1
\A1;
 73
     1
 44
1.0
1001
ACAD
1000
MTEXTBEGIN
1070
    73
1070
     1
1070
    44
1040
1.0
1070
    74
1070
     0
1000
MTEXTEND
  0
MTEXT
  5
55C3
330
19
100
AcDbEntity
  8
0
 62
     4
100
AcDbMText
 10
73.60792172096802
 20
113.0505849100991
 30
0.0
 40
0.125
 41
0.0
 71
     6
 72
     1
  1
\A1;
 73
     1
 44
1.0
1001
ACAD
1000
MTEXTBEGIN
1070
    73
1070
     1
1070
    44
1040
1.0
1070
    74
1070
     0
1000
MTEXTEND
  0
MTEXT
  5
55C4
330
19
100
AcDbEntity
  8
0
 62
     4
100
AcDbMText
 10
74.11196794771332
 20
112.5049366558985
 30
0.0
 40
0.125
 41
0.0
 71
     6
 72
     1
  1
\A1;
 73
     1
 44
1.0
1001
ACAD
1000
MTEXTBEGIN
1070
    73
1070
     1
1070
    44
1040
1.0
1070
    74
1070
     0
1000
MTEXTEND
  0
MTEXT
  5
55C5
330
19
100
AcDbEntity
  8
0
 62
     4
100
AcDbMText
 10
73.73987491672519
 20
111.261201320204
 30
0.0
 40
0.125
 41
0.0
 71
     6
 72
     1
  1
\A1;
 73
     1
 44
1.0
1001
ACAD
1000
MTEXTBEGIN
1070
    73
1070
     1
1070
    44
1040
1.0
1070
    74
1070
     0
1000
MTEXTEND
  0
MTEXT
  5
55C6
330
19
100
AcDbEntity
  8
0
 62
     4
100
AcDbMText
 10
73.79259411937704
 20
111.0105223955459
 30
0.0
 40
0.125
 41
0.0
 71
     6
 72
     1
  1
\A1;
 73
     1
 44
1.0
1001
ACAD
1000
MTEXTBEGIN
1070
    73
1070
     1
1070
    44
1040
1.0
1070
    74
1070
     0
1000
MTEXTEND
  0
MTEXT
  5
55C7
330
19
100
AcDbEntity
  8
0
 62
     4
100
AcDbMText
 10
88.55356277940336
 20
99.64135182578321
 30
0.0
 40
0.125
 41
0.0
 71
     6
 72
     1
  1
\A1;
 73
     1
 44
1.0
1001
ACAD
1000
MTEXTBEGIN
1070
    73
1070
     1
1070
    44
1040
1.0
1070
    74
1070
     0
1000
MTEXTEND
  0
MTEXT
  5
55C8
330
19
100
AcDbEntity
  8
0
 62
     4
100
AcDbMText
 10
94.53855214104548
 20
97.69063939323331
 30
0.0
 40
0.125
 41
0.0
 71
     4
 72
     1
  1
\A1;
 73
     1
 44
1.0
1001
ACAD
1000
MTEXTBEGIN
1070
    73
1070
     1
1070
    44
1040
1.0
1070
    74
1070
     0
1000
MTEXTEND
  0
MTEXT
  5
55C9
330
19
100
AcDbEntity
  8
0
 62
     4
100
AcDbMText
 10
67.86834137121082
 20
92.24859677021106
 30
0.0
 40
0.125
 41
0.0
 71
     4
 72
     1
  1
\A1;
 73
     1
 44
1.0
1001
ACAD
1000
MTEXTBEGIN
1070
    73
1070
     1
1070
    44
1040
1.0
1070
    74
1070
     0
1000
MTEXTEND
  0
MTEXT
  5
55CA
330
19
100
AcDbEntity
  8
0
 62
     4
100
AcDbMText
 10
63.92725908076156
 20
88.49449240018875
 30
0.0
 40
0.125
 41
0.0
 71
     6
 72
     1
  1
\A1;
 73
     1
 44
1.0
1001
ACAD
1000
MTEXTBEGIN
1070
    73
1070
     1
1070
    44
1040
1.0
1070
    74
1070
     0
1000
MTEXTEND
  0
MTEXT
  5
55CB
330
19
100
AcDbEntity
  8
0
 62
     4
100
AcDbMText
 10
64.24221387041028
 20
89.24498579882394
 30
0.0
 40
0.125
 41
0.0
 71
     6
 72
     1
  1
\A1;
 73
     1
 44
1.0
1001
ACAD
1000
MTEXTBEGIN
1070
    73
1070
     1
1070
    44
1040
1.0
1070
    74
1070
     0
1000
MTEXTEND
  0
MTEXT
  5
55CC
330
19
100
AcDbEntity
  8
0
 62
     4
100
AcDbMText
 10
63.81419839671292
 20
89.79373366109287
 30
0.0
 40
0.125
 41
0.0
 71
     6
 72
     1
  1
\A1;
 73
     1
 44
1.0
1001
ACAD
1000
MTEXTBEGIN
1070
    73
1070
     1
1070
    44
1040
1.0
1070
    74
1070
     0
1000
MTEXTEND
  0
MTEXT
  5
55CD
330
19
100
AcDbEntity
  8
0
 62
     4
100
AcDbMText
 10
72.27693476439191
 20
91.44943969015756
 30
0.0
 40
0.125
 41
0.0
 71
     6
 72
     1
  1
\A1;
 73
     1
 44
1.0
1001
ACAD
1000
MTEXTBEGIN
1070
    73
1070
     1
1070
    44
1040
1.0
1070
    74
1070
     0
1000
MTEXTEND
  0
MTEXT
  5
55CE
330
19
100
AcDbEntity
  8
0
 62
     4
100
AcDbMText
 10
78.14911404723244
 20
89.51238770480335
 30
0.0
 40
0.125
 41
0.0
 71
     4
 72
     1
  1
\A1;
 73
     1
 44
1.0
1001
ACAD
1000
MTEXTBEGIN
1070
    73
1070
     1
1070
    44
1040
1.0
1070
    74
1070
     0
1000
MTEXTEND
  0
MTEXT
  5
55CF
330
19
100
AcDbEntity
  8
0
 62
     5
100
AcDbMText
 10
68.15401651821236
 20
92.17277923926253
 30
0.0
 40
0.125
 41
0.0
 71
     4
 72
     1
  1
\A1;
 73
     1
 44
1.0
1001
ACAD
1000
MTEXTBEGIN
1070
    73
1070
     1
1070
    44
1040
1.0
1070
    74
1070
     0
1000
MTEXTEND
  0
MTEXT
  5
55D0
330
19
100
AcDbEntity
  8
0
 62
     5
100
AcDbMText
 10
64.06566096900871
 20
89.55570326550571
 30
0.0
 40
0.125
 41
0.0
 71
     6
 72
     1
  1
\A1;
 73
     1
 44
1.0
1001
ACAD
1000
MTEXTBEGIN
1070
    73
1070
     1
1070
    44
1040
1.0
1070
    74
1070
     0
1000
MTEXTEND
  0
MTEXT
  5
55D1
330
19
100
AcDbEntity
  8
0
 62
     5
100
AcDbMText
 10
64.33263734820198
 20
88.90861994136351
 30
0.0
 40
0.125
 41
0.0
 71
     6
 72
     1
  1
\A1;
 73
     1
 44
1.0
1001
ACAD
1000
MTEXTBEGIN
1070
    73
1070
     1
1070
    44
1040
1.0
1070
    74
1070
     0
1000
MTEXTEND
  0
MTEXT
  5
55D2
330
19
100
AcDbEntity
  8
0
 62
     5
100
AcDbMText
 10
64.05514956912175
 20
88.19736971005468
 30
0.0
 40
0.125
 41
0.0
 71
     6
 72
     1
  1
\A1;
 73
     1
 44
1.0
1001
ACAD
1000
MTEXTBEGIN
1070
    73
1070
     1
1070
    44
1040
1.0
1070
    74
1070
     0
1000
MTEXTEND
  0
MTEXT
  5
55D3
330
19
100
AcDbEntity
  8
0
 62
     5
100
AcDbMText
 10
64.02646673047285
 20
87.17249361842283
 30
0.0
 40
0.125
 41
0.0
 71
     6
 72
     1
  1
\A1;
 73
     1
 44
1.0
1001
ACAD
1000
MTEXTBEGIN
1070
    73
1070
     1
1070
    44
1040
1.0
1070
    74
1070
     0
1000
MTEXTEND
  0
MTEXT
  5
55D4
330
19
100
AcDbEntity
  8
0
 62
     5
100
AcDbMText
 10
72.26391796668273
 20
91.69581360467912
 30
0.0
 40
0.125
 41
0.0
 71
     6
 72
     1
  1
\A1;
 73
     1
 44
1.0
1001
ACAD
1000
MTEXTBEGIN
1070
    73
1070
     1
1070
    44
1040
1.0
1070
    74
1070
     0
1000
MTEXTEND
  0
MTEXT
  5
55D5
330
19
100
AcDbEntity
  8
0
 62
     5
100
AcDbMText
 10
78.11927945313583
 20
89.31707862434032
 30
0.0
 40
0.125
 41
0.0
 71
     4
 72
     1
  1
\A1;
 73
     1
 44
1.0
1001
ACAD
1000
MTEXTBEGIN
1070
    73
1070
     1
1070
    44
1040
1.0
1070
    74
1070
     0
1000
MTEXTEND
  0
MTEXT
  5
55D6
330
19
100
AcDbEntity
  8
0
 62
     5
100
AcDbMText
 10
73.51991400685894
 20
85.51366305919364
 30
0.0
 40
0.125
 41
0.0
 71
     4
 72
     1
  1
\A1;
 73
     1
 44
1.0
1001
ACAD
1000
MTEXTBEGIN
1070
    73
1070
     1
1070
    44
1040
1.0
1070
    74
1070
     0
1000
MTEXTEND
  0
MTEXT
  5
55D7
330
19
100
AcDbEntity
  8
0
 62
     4
100
AcDbMText
 10
84.69830584225109
 20
54.94617946259326
 30
0.0
 40
0.125
 41
0.0
 71
     4
 72
     1
  1
\A1;
 73
     1
 44
1.0
1001
ACAD
1000
MTEXTBEGIN
1070
    73
1070
     1
1070
    44
1040
1.0
1070
    74
1070
     0
1000
MTEXTEND
  0
INSERT
  5
56B9
330
19
100
AcDbEntity
  8
0
100
AcDbBlockReference
 66
     1
  2
C
 10
78.63745253453155
 20
46.55562379512031
 30
0.0
  0
ATTRIB
  5
56BA
330
56B9
100
AcDbEntity
  8
TEXT
100
AcDbText
 10
95.03717805031014
 20
47.09502884073803
 30
0.0
 40
0.125
  1
DP
 41
0.75
  7
TXT
 72
     1
 11
95.11530305031014
 21
47.09502884073803
 31
0.0
100
AcDbAttribute
  2
NAME
 70
     4
  0
ATTRIB
  5
56BB
330
56B9
100
AcDbEntity
  8
TEXT
100
AcDbText
 10
95.50600101084851
 20
47.09502884073803
 30
0.0
 40
0.125
  1
5-24-05
 41
0.75
  7
TXT
 72
     1
 11
95.8106885108485
 21
47.09502884073803
 31
0.0
100
AcDbAttribute
  2
DATE
 70
     4
  0
ATTRIB
  5
56BC
330
56B9
100
AcDbEntity
  8
TEXT
100
AcDbText
 10
98.25857533457595
 20
47.26623061245076
 30
0.0
 40
0.125
  1
PLASTICASE STYLE G
 41
0.75
  7
TXT
 72
     1
 11
99.07107533457596
 21
47.26623061245076
 31
0.0
100
AcDbAttribute
  2
TITLE1
 70
     4
  0
ATTRIB
  5
56BD
330
56B9
100
AcDbEntity
  8
TEXT
100
AcDbText
 10
99.02420033457595
 20
47.05510114632446
 30
0.0
 40
0.125
  1
 
 41
0.75
  7
TXT
 72
     1
 11
99.07107533457596
 21
47.05510114632446
 31
0.0
100
AcDbAttribute
  2
TITLE2
 70
     4
  0
ATTRIB
  5
56BE
330
56B9
100
AcDbEntity
  8
TEXT
100
AcDbText
 10
98.85820012291206
 20
46.66184812828472
 30
0.0
 40
0.156
  1
PC-11565
 41
0.75
  7
TXT
 72
     1
 11
99.26770012291207
 21
46.66184812828472
 31
0.0
100
AcDbAttribute
  2
PART
 70
     4
  0
ATTRIB
  5
56BF
330
56B9
100
AcDbEntity
  8
TEXT
100
AcDbText
 10
98.85820012291206
 20
61.85826463115679
 30
0.0
 40
0.156
  1
PC-11565
 41
0.75
  7
TXT
 72
     1
 11
99.26770012291207
 21
61.85826463115679
 31
0.0
100
AcDbAttribute
  2
PART
 70
     4
  0
ATTRIB
  5
56C0
330
56B9
100
AcDbEntity
  8
TEXT
100
AcDbText
 10
90.69435013868229
 20
47.73763613021787
 30
0.0
 40
0.125
  1

 41
4.93641642638573
  7
TXT
 72
     5
 11
94.60234647623765
 21
47.73763613021787
 31
0.0
100
AcDbAttribute
  2
CUTSIZE
 70
     4
  0
ATTRIB
  5
56C1
330
56B9
100
AcDbEntity
  8
TEXT
100
AcDbText
 10
90.83182322366049
 20
46.8424026220815
 30
0.0
 40
0.125
  1

 41
0.75
  7
TXT
 72
     1
 11
90.83182322366049
 21
46.8424026220815
 31
0.0
100
AcDbAttribute
  2
QTY
 70
     4
  0
ATTRIB
  5
56C2
330
56B9
100
AcDbEntity
  8
TEXT
100
AcDbText
 10
91.77650673705853
 20
46.8424026220815
 30
0.0
 40
0.125
  1

 41
0.75
  7
TXT
 72
     1
 11
91.77650673705853
 21
46.8424026220815
 31
0.0
100
AcDbAttribute
  2
USED
 70
     4
  0
ATTRIB
  5
56C3
330
56B9
100
AcDbEntity
  8
TEXT
100
AcDbText
 10
95.36143375744558
 20
47.51115616619054
 30
0.0
 40
0.125
  1
AS NOTED
 41
0.75
  7
TXT
 72
     1
 11
95.72080875744559
 21
47.51115616619054
 31
0.0
100
AcDbAttribute
  2
MAT
 70
     4
  0
ATTRIB
  5
56C4
330
56B9
100
AcDbEntity
  8
TEXT
100
AcDbText
 10
95.34580875744557
 20
47.29927800298098
 30
0.0
 40
0.125
  1
SEE SPEC.
 41
0.75
  7
TXT
 72
     1
 11
95.72080875744559
 21
47.29927800298098
 31
0.0
100
AcDbAttribute
  2
FINISH
 70
     4
  0
SEQEND
  5
56C5
330
56B9
100
AcDbEntity
  8
0
  0
MTEXT
  5
56F4
330
19
100
AcDbEntity
  8
0
100
AcDbMText
 10
96.22212441285199
 20
50.43328215629768
 30
0.0
 40
0.125
 41
4.8822
 71
     1
 72
     5
  3
{\C4;NOTES:\P  1) PC BOARD BOSSES WILL ACCEPT A\P      #4 X 1/4" THREAD FORMING SCREW\P  2) MATERIAL: ABS - UL94-5VA\P  3) FINISH: BLACK TEXTURE\P  4) INCLUDES (4) #4-24 x 5/8 HI-LOW\P      THREAD FORMING, CSK, OVAL HEAD,\P      PHILLIPS DRIVE SCREWS
  1
 FOR\P      ATTACHING BODY TO COVER\P      (MAX TORQUE 4.5 IN-LBS)}
 73
     1
 44
1.0
1001
ACAD
1000
MTEXTBEGIN
1070
    73
1070
     1
1070
    44
1040
1.0
1070
    74
1070
     0
1000
MTEXTEND
  0
LINE
  5
570F
330
19
100
AcDbEntity
  8
0
  6
HIDDEN2
 62
     3
100
AcDbLine
 10
84.64936341243433
 20
49.62627631608476
 30
0.0
 11
84.64936341243433
 21
49.56427631608478
 31
0.0
  0
LINE
  5
5710
330
19
100
AcDbEntity
  8
0
  6
HIDDEN2
 62
     3
100
AcDbLine
 10
90.02336341243433
 20
49.62627631608474
 30
0.0
 11
90.02336341243431
 21
49.56427631608475
 31
0.0
  0
LINE
  5
5712
330
19
100
AcDbEntity
  8
0
  6
HIDDEN2
 62
     3
100
AcDbLine
 10
84.96136341243431
 20
50.47397840152576
 30
0.0
 11
84.96136341243429
 21
50.41197840152577
 31
0.0
  0
LINE
  5
5713
330
19
100
AcDbEntity
  8
0
  6
HIDDEN2
 62
     3
100
AcDbLine
 10
89.71136341243433
 20
50.47397840152576
 30
0.0
 11
89.71136341243431
 21
50.41197840152577
 31
0.0
  0
LINE
  5
5714
330
19
100
AcDbEntity
  8
0
  6
HIDDEN2
 62
     3
100
AcDbLine
 10
84.96136341243433
 20
50.47397840152576
 30
0.0
 11
89.71136341243433
 21
50.47397840152576
 31
0.0
  0
LINE
  5
5715
330
19
100
AcDbEntity
  8
0
  6
HIDDEN2
 62
     3
100
AcDbLine
 10
84.64936341243433
 20
49.56427631608477
 30
0.0
 11
90.02336341243433
 21
49.56427631608475
 31
0.0
  0
LINE
  5
5716
330
19
100
AcDbEntity
  8
0
  6
HIDDEN2
 62
     3
100
AcDbLine
 10
84.96136341243433
 20
50.41197840152577
 30
0.0
 11
89.71136341243433
 21
50.41197840152577
 31
0.0
  0
LINE
  5
5717
330
19
100
AcDbEntity
  8
0
  6
HIDDEN2
 62
     3
100
AcDbLine
 10
84.64936341243433
 20
49.62627631608476
 30
0.0
 11
90.02336341243433
 21
49.62627631608475
 31
0.0
  0
DIMENSION
  5
571A
330
19
100
AcDbEntity
  8
0
100
AcDbDimension
  2
*D23
 10
90.02336341243433
 20
48.72568659462537
 30
0.0
 11
87.33636341243434
 21
48.72568659462537
 31
0.0
 70
    32
 71
     5
 42
5.374000000000009
  3
STANDARD_WS
100
AcDbAlignedDimension
 13
84.64936341243433
 23
49.56427631608478
 33
0.0
 14
90.02336341243433
 24
49.56427631608475
 34
0.0
100
AcDbRotatedDimension
  0
DIMENSION
  5
5728
330
19
100
AcDbEntity
  8
0
100
AcDbDimension
  2
*D24
 10
89.71136341243433
 20
51.12758371252581
 30
0.0
 11
87.33636341243432
 21
51.12758371252581
 31
0.0
 70
    32
 71
     5
 42
4.75
  3
STANDARD_WS
100
AcDbAlignedDimension
 13
84.96136341243433
 23
50.47397840152576
 33
0.0
 14
89.71136341243433
 24
50.47397840152576
 34
0.0
100
AcDbRotatedDimension
  0
LEADER
  5
5736
330
19
100
AcDbEntity
  8
0
100
AcDbLeader
  3
STANDARD_WS
 73
     0
 40
0.3745168258299227
 41
2.078700545702591
 76
     3
 10
84.96136341243431
 20
50.47397840152576
 30
0.0
 10
84.13637640970961
 20
51.29194488510606
 30
0.0
 10
84.03168030670139
 20
51.29194488510606
 30
0.0
340
5737
213
0.0
223
0.0625
233
0.0
1001
ACAD
1000
DSTYLE
1002
{
1070
   147
1040
0.09
1070
    77
1070
     0
1002
}
  0
MTEXT
  5
5737
102
{ACAD_REACTORS
330
5736
102
}
330
19
100
AcDbEntity
  8
0
 62
     4
100
AcDbMText
 10
83.94168030670138
 20
51.22944488510606
 30
0.0
 40
0.125
 41
0.0
 71
     9
 72
     1
  1
APPROX PCB SIZE\P(BOARD NOT INCLUDED)
 73
     1
 44
1.0
  0
LEADER
  5
5738
330
19
100
AcDbEntity
  8
0
100
AcDbLeader
  3
STANDARD_WS
 73
     0
 40
0.3745168258299227
 41
2.078700545702591
 76
     3
 10
90.02336341243431
 20
49.56427631608475
 30
0.0
 10
90.73222940395025
 20
48.58238898895447
 30
0.0
 10
90.86833433786095
 20
48.59285058038512
 30
0.0
340
5739
213
0.0
223
-0.0625
233
0.0
1001
ACAD
1000
DSTYLE
1002
{
1070
   147
1040
0.09
1070
    77
1070
     0
1002
}
  0
MTEXT
  5
5739
102
{ACAD_REACTORS
330
5738
102
}
330
19
100
AcDbEntity
  8
0
 62
     4
100
AcDbMText
 10
90.95833433786095
 20
48.65535058038512
 30
0.0
 40
0.125
 41
0.0
 71
     1
 72
     1
  1
\A1;APPROX PCB SIZE\P(BOARD NOT INCLUDED)
 73
     1
 44
1.0
  0
LINE
  5
573A
330
19
100
AcDbEntity
  8
0
  6
HIDDEN2
 62
     3
100
AcDbLine
 10
94.06565556034379
 20
58.84049642369403
 30
0.0
 11
94.06565556034378
 21
52.54449642369404
 31
0.0
  0
LINE
  5
573C
330
19
100
AcDbEntity
  8
0
  6
HIDDEN2
 62
     3
100
AcDbLine
 10
94.97535764578477
 20
52.54449642369403
 30
0.0
 11
94.97535764578479
 21
58.84049642369404
 31
0.0
  0
LINE
  5
573F
330
19
100
AcDbEntity
  8
0
  6
HIDDEN2
 62
     3
100
AcDbLine
 10
94.06565556034379
 20
58.84049642369403
 30
0.0
 11
94.12765556034381
 21
58.84049642369403
 31
0.0
  0
LINE
  5
5740
330
19
100
AcDbEntity
  8
0
  6
HIDDEN2
 62
     3
100
AcDbLine
 10
94.06565556034378
 20
52.54449642369403
 30
0.0
 11
94.12765556034377
 21
52.54449642369403
 31
0.0
  0
LINE
  5
5742
330
19
100
AcDbEntity
  8
0
  6
HIDDEN2
 62
     3
100
AcDbLine
 10
94.12765556034379
 20
58.84049642369403
 30
0.0
 11
94.12765556034377
 21
52.54449642369404
 31
0.0
  0
LINE
  5
5743
330
19
100
AcDbEntity
  8
0
  6
HIDDEN2
 62
     3
100
AcDbLine
 10
94.91335764578478
 20
52.54449642369403
 30
0.0
 11
94.91335764578479
 21
58.84049642369404
 31
0.0
  0
LINE
  5
5744
330
19
100
AcDbEntity
  8
0
  6
HIDDEN2
 62
     3
100
AcDbLine
 10
94.91335764578478
 20
52.54449642369404
 30
0.0
 11
94.97535764578477
 21
52.54449642369403
 31
0.0
  0
LINE
  5
5745
330
19
100
AcDbEntity
  8
0
  6
HIDDEN2
 62
     3
100
AcDbLine
 10
94.91335764578479
 20
58.84049642369403
 30
0.0
 11
94.97535764578477
 21
58.84049642369402
 31
0.0
  0
DIMENSION
  5
5746
330
19
100
AcDbEntity
  8
0
100
AcDbDimension
  2
*D25
 10
93.1179981005364
 20
52.54449642369404
 30
0.0
 11
93.11799810053638
 21
55.69249642369404
 31
0.0
 70
    32
 71
     5
 42
6.295999999999999
  3
STANDARD_WS
100
AcDbAlignedDimension
 13
94.06565556034379
 23
58.84049642369403
 33
0.0
 14
94.06565556034378
 24
52.54449642369404
 34
0.0
 50
90.0
100
AcDbRotatedDimension
  0
DIMENSION
  5
5754
330
19
100
AcDbEntity
  8
0
100
AcDbDimension
  2
*D26
 10
95.89404581772518
 20
52.54449642369403
 30
0.0
 11
95.89404581772518
 21
55.69249642369404
 31
0.0
 70
    32
 71
     5
 42
6.295999999999992
  3
STANDARD_WS
100
AcDbAlignedDimension
 13
94.97535764578479
 23
58.84049642369402
 33
0.0
 14
94.97535764578477
 24
52.54449642369403
 34
0.0
 50
90.0
100
AcDbRotatedDimension
  0
LEADER
  5
5762
330
19
100
AcDbEntity
  8
0
100
AcDbLeader
  3
STANDARD_WS
 73
     0
 40
0.3745168258299227
 41
2.078700545702591
 76
     3
 10
94.97535764578477
 20
58.84049642369402
 30
0.0
 10
95.8299586650431
 20
59.66900172911397
 30
0.0
 10
95.98907527462694
 20
59.65840207129645
 30
0.0
340
5763
213
0.0
223
-0.0625
233
0.0
1001
ACAD
1000
DSTYLE
1002
{
1070
   147
1040
0.09
1070
    77
1070
     0
1002
}
  0
MTEXT
  5
5763
102
{ACAD_REACTORS
330
5762
102
}
330
19
100
AcDbEntity
  8
0
 62
     4
100
AcDbMText
 10
96.07907527462694
 20
59.72090207129645
 30
0.0
 40
0.125
 41
0.0
 71
     1
 72
     1
  1
\A1;APPROX PXCB SIZE\P(BOARD NOT INCLUDED)
 73
     1
 44
1.0
  0
LEADER
  5
5764
330
19
100
AcDbEntity
  8
0
100
AcDbLeader
  3
STANDARD_WS
 73
     0
 40
0.3745168258299227
 41
2.078700545702591
 76
     3
 10
94.12765556034379
 20
58.84049642369403
 30
0.0
 10
94.85071915792529
 20
60.50519364599693
 30
0.0
 10
94.97486622501037
 20
60.50519364599693
 30
0.0
340
5765
213
0.0
223
-0.0625
233
0.0
1001
ACAD
1000
DSTYLE
1002
{
1070
   147
1040
0.09
1070
    77
1070
     0
1002
}
  0
MTEXT
  5
5765
102
{ACAD_REACTORS
330
5764
102
}
330
19
100
AcDbEntity
  8
0
 62
     4
100
AcDbMText
 10
95.06486622501038
 20
60.56769364599694
 30
0.0
 40
0.125
 41
0.0
 71
     1
 72
     1
  1
\A1;APPROX PCB SIZE\P(BOARD NOT INCLUDED)
 73
     1
 44
1.0
  0
ENDSEC
  0
SECTION
  2
OBJECTS
  0
DICTIONARY
  5
C
330
0
100
AcDbDictionary
281
     1
  3
ACAD_COLOR
350
5637
  3
ACAD_GROUP
350
D
  3
ACAD_LAYOUT
350
55FE
  3
ACAD_MATERIAL
350
5636
  3
ACAD_MLINESTYLE
350
E
  3
ACAD_PLOTSETTINGS
350
55FF
  3
ACAD_PLOTSTYLENAME
350
55FC
  3
ACDBVARIABLEDICTIONARY
350
4C
  0
DICTIONARY
  5
562E
330
19
100
AcDbDictionary
280
     1
281
     1
  3
ACAD_LAYOUTSELFREF
360
562F
  0
DICTIONARY
  5
562C
330
16
100
AcDbDictionary
280
     1
281
     1
  3
ACAD_LAYOUTSELFREF
360
562D
  0
DICTIONARY
  5
5637
102
{ACAD_REACTORS
330
C
102
}
330
C
100
AcDbDictionary
281
     1
  0
DICTIONARY
  5
D
102
{ACAD_REACTORS
330
C
102
}
330
C
100
AcDbDictionary
281
     1
  0
DICTIONARY
  5
55FE
102
{ACAD_REACTORS
330
C
102
}
330
C
100
AcDbDictionary
281
     1
  3
Layout1
350
5601
  3
Model
350
5600
  0
DICTIONARY
  5
5636
102
{ACAD_REACTORS
330
C
102
}
330
C
100
AcDbDictionary
281
     1
  0
DICTIONARY
  5
E
102
{ACAD_REACTORS
330
C
102
}
330
C
100
AcDbDictionary
281
     1
  3
STANDARD
350
1C
  0
DICTIONARY
  5
55FF
102
{ACAD_REACTORS
330
C
102
}
330
C
100
AcDbDictionary
281
     1
  0
ACDBDICTIONARYWDFLT
  5
55FC
102
{ACAD_REACTORS
330
C
102
}
330
C
100
AcDbDictionary
281
     1
  3
Normal
350
55FD
100
AcDbDictionaryWithDefault
340
55FD
  0
DICTIONARY
  5
4C
102
{ACAD_REACTORS
330
C
102
}
330
C
100
AcDbDictionary
281
     1
  3
DIMADEC
350
4D
  3
DIMASSOC
350
5634
  3
PROJECTNAME
350
5647
  0
XRECORD
  5
562F
102
{ACAD_REACTORS
330
562E
102
}
330
562E
100
AcDbXrecord
280
     1
340
19
  0
XRECORD
  5
562D
102
{ACAD_REACTORS
330
562C
102
}
330
562C
100
AcDbXrecord
280
     1
340
16
  0
LAYOUT
  5
5601
102
{ACAD_XDICTIONARY
360
5645
102
}
102
{ACAD_REACTORS
330
55FE
102
}
330
55FE
100
AcDbPlotSettings
  1

  2
HP LaserJet 5000 Series PCL 6
  4

  6

 40
0.0
 41
0.0
 42
0.0
 43
0.0
 44
0.0
 45
0.0
 46
0.0
 47
0.0
 48
0.0
 49
0.0
140
0.0
141
0.0
142
1.0
143
1.0
 70
   688
 72
     0
 73
     0
 74
     5
  7
monochrome.ctb
 75
    16
147
1.0
148
0.0
149
0.0
100
AcDbLayout
  1
Layout1
 70
     1
 71
     1
 10
0.0
 20
0.0
 11
12.0
 21
9.0
 12
0.0
 22
0.0
 32
0.0
 14
1.000000000000000E+20
 24
1.000000000000000E+20
 34
1.000000000000000E+20
 15
-1.000000000000000E+20
 25
-1.000000000000000E+20
 35
-1.000000000000000E+20
146
0.0
 13
0.0
 23
0.0
 33
0.0
 16
1.0
 26
0.0
 36
0.0
 17
0.0
 27
1.0
 37
0.0
 76
     0
330
16
  0
LAYOUT
  5
5600
102
{ACAD_XDICTIONARY
360
5643
102
}
102
{ACAD_REACTORS
330
55FE
102
}
330
55FE
100
AcDbPlotSettings
  1

  2
RW-470 WP.pc3
  4
User135
  6

 40
3.174999952316284
 41
3.174999952316284
 42
3.17498779296875
 43
3.17498779296875
 44
558.7999877929687
 45
431.7999877929687
 46
0.0
 47
11.93799999999999
 48
0.0
 49
0.0
140
0.0
141
0.0
142
1.0
143
0.9888263979280221
 70
 11956
 72
     0
 73
     0
 74
     1
  7
monochrome.ctb
 75
     0
147
1.011299862236071
148
-1997.375550687638
149
-1182.473892363437
100
AcDbLayout
  1
Model
 70
     1
 71
     0
 10
0.0
 20
0.0
 11
12.0
 21
9.0
 12
0.0
 22
0.0
 32
0.0
 14
0.0
 24
0.0
 34
0.0
 15
0.0
 25
0.0
 35
0.0
146
0.0
 13
0.0
 23
0.0
 33
0.0
 16
1.0
 26
0.0
 36
0.0
 17
0.0
 27
1.0
 37
0.0
 76
     0
330
19
  0
MLINESTYLE
  5
1C
102
{ACAD_REACTORS
330
E
102
}
330
E
100
AcDbMlineStyle
  2
STANDARD
 70
     0
  3

 62
     0
 51
90.0
 52
90.0
 71
     2
 49
0.5
 62
   256
  6
BYLAYER
 49
-0.5
 62
   256
  6
BYLAYER
  0
ACDBPLACEHOLDER
  5
55FD
102
{ACAD_REACTORS
330
55FC
102
}
330
55FC
  0
DICTIONARYVAR
  5
4D
102
{ACAD_REACTORS
330
4C
102
}
330
4C
100
DictionaryVariables
280
     0
  1
2
  0
DICTIONARYVAR
  5
5634
102
{ACAD_REACTORS
330
4C
102
}
330
4C
100
DictionaryVariables
280
     0
  1
1
  0
DICTIONARYVAR
  5
5647
102
{ACAD_REACTORS
330
4C
102
}
330
4C
100
DictionaryVariables
280
     0
  1

  0
DICTIONARY
  5
5645
330
5601
100
AcDbDictionary
280
     1
281
     1
  3
ACAD_XREC_ROUNDTRIP
360
5646
  0
DICTIONARY
  5
5643
330
5600
100
AcDbDictionary
280
     1
281
     1
  3
ACAD_XREC_ROUNDTRIP
360
5644
  0
XRECORD
  5
5646
102
{ACAD_REACTORS
330
5645
102
}
330
5645
100
AcDbXrecord
280
     1
102
SHADEPLOT
 70
     0
102
SHADEPLOTRESLEVEL
 70
     2
102
SHADEPLOTCUSTOMDPI
 70
   300
  0
XRECORD
  5
5644
102
{ACAD_REACTORS
330
5643
102
}
330
5643
100
AcDbXrecord
280
     1
102
SHADEPLOT
 70
     0
102
SHADEPLOTRESLEVEL
 70
     2
102
SHADEPLOTCUSTOMDPI
 70
   300
  0
ENDSEC
  0
EOF
