  0
SECTION
  2
HEADER
  9
$ACADVER
  1
AC1009
  9
$INSBASE
 10
0.0
 20
0.0
 30
0.0
  9
$EXTMIN
 10
0.0
 20
0.0
 30
0.0
  9
$EXTMAX
 10
31.0
 20
20.24
 30
0.0
  9
$LIMMIN
 10
0.0
 20
0.0
  9
$LIMMAX
 10
41.0
 20
32.0
  9
$ORTHOMODE
 70
     1
  9
$REGENMODE
 70
     1
  9
$FILLMODE
 70
     1
  9
$QTEXTMODE
 70
     0
  9
$MIRRTEXT
 70
     0
  9
$DRAGMODE
 70
     2
  9
$LTSCALE
 40
0.5
  9
$OSMODE
 70
     0
  9
$ATTMODE
 70
     1
  9
$TEXTSIZE
 40
0.375
  9
$TRACEWID
 40
0.05
  9
$TEXTSTYLE
  7
TXT
  9
$CLAYER
  8
OBJECT
  9
$CELTYPE
  6
BYLAYER
  9
$CECOLOR
 62
   256
  9
$DIMSCALE
 40
2.0
  9
$DIMASZ
 40
0.18
  9
$DIMEXO
 40
0.063
  9
$DIMDLI
 40
0.281
  9
$DIMRND
 40
0.0
  9
$DIMDLE
 40
0.0
  9
$DIMEXE
 40
0.093
  9
$DIMTP
 40
0.0
  9
$DIMTM
 40
0.0
  9
$DIMTXT
 40
0.125
  9
$DIMCEN
 40
0.09
  9
$DIMTSZ
 40
0.0
  9
$DIMTOL
 70
     0
  9
$DIMLIM
 70
     0
  9
$DIMTIH
 70
     1
  9
$DIMTOH
 70
     1
  9
$DIMSE1
 70
     0
  9
$DIMSE2
 70
     0
  9
$DIMTAD
 70
     0
  9
$DIMZIN
 70
     0
  9
$DIMBLK
  1

  9
$DIMASO
 70
     1
  9
$DIMSHO
 70
     1
  9
$DIMPOST
  1

  9
$DIMAPOST
  1

  9
$DIMALT
 70
     0
  9
$DIMALTD
 70
     2
  9
$DIMALTF
 40
25.4
  9
$DIMLFAC
 40
1.0
  9
$DIMTOFL
 70
     0
  9
$DIMTVP
 40
0.0
  9
$DIMTIX
 70
     0
  9
$DIMSOXD
 70
     0
  9
$DIMSAH
 70
     0
  9
$DIMBLK1
  1

  9
$DIMBLK2
  1

  9
$DIMSTYLE
  2
23NSTD
  9
$DIMCLRD
 70
     0
  9
$DIMCLRE
 70
     0
  9
$DIMCLRT
 70
     0
  9
$DIMTFAC
 40
1.0
  9
$DIMGAP
 40
0.09
  9
$LUNITS
 70
     2
  9
$LUPREC
 70
     3
  9
$SKETCHINC
 40
0.1
  9
$FILLETRAD
 40
0.0
  9
$AUNITS
 70
     0
  9
$AUPREC
 70
     0
  9
$MENU
  1
acad
  9
$ELEVATION
 40
0.0
  9
$PELEVATION
 40
0.0
  9
$THICKNESS
 40
0.0
  9
$LIMCHECK
 70
     0
  9
$BLIPMODE
 70
     0
  9
$CHAMFERA
 40
0.0
  9
$CHAMFERB
 40
0.0
  9
$SKPOLY
 70
     0
  9
$TDCREATE
 40
2451085.403158101
  9
$TDUPDATE
 40
2451197.313124189
  9
$TDINDWG
 40
0.0473593750
  9
$TDUSRTIMER
 40
0.0473593750
  9
$USRTIMER
 70
     1
  9
$ANGBASE
 50
0.0
  9
$ANGDIR
 70
     0
  9
$PDMODE
 70
     0
  9
$PDSIZE
 40
0.0
  9
$PLINEWID
 40
0.0
  9
$COORDS
 70
     0
  9
$SPLFRAME
 70
     0
  9
$SPLINETYPE
 70
     6
  9
$SPLINESEGS
 70
     8
  9
$ATTDIA
 70
     1
  9
$ATTREQ
 70
     0
  9
$HANDLING
 70
     0
  9
$HANDSEED
  5
0
  9
$SURFTAB1
 70
     6
  9
$SURFTAB2
 70
     6
  9
$SURFTYPE
 70
     6
  9
$SURFU
 70
     6
  9
$SURFV
 70
     6
  9
$UCSNAME
  2

  9
$UCSORG
 10
0.0
 20
0.0
 30
0.0
  9
$UCSXDIR
 10
1.0
 20
0.0
 30
0.0
  9
$UCSYDIR
 10
0.0
 20
1.0
 30
0.0
  9
$PUCSNAME
  2

  9
$PUCSORG
 10
0.0
 20
0.0
 30
0.0
  9
$PUCSXDIR
 10
1.0
 20
0.0
 30
0.0
  9
$PUCSYDIR
 10
0.0
 20
1.0
 30
0.0
  9
$USERI1
 70
     0
  9
$USERI2
 70
     0
  9
$USERI3
 70
     0
  9
$USERI4
 70
     0
  9
$USERI5
 70
     0
  9
$USERR1
 40
0.0
  9
$USERR2
 40
0.0
  9
$USERR3
 40
0.0
  9
$USERR4
 40
0.0
  9
$USERR5
 40
0.0
  9
$WORLDVIEW
 70
     1
  9
$SHADEDGE
 70
     3
  9
$SHADEDIF
 70
    70
  9
$TILEMODE
 70
     1
  9
$MAXACTVP
 70
    16
  9
$PINSBASE
 10
0.0
 20
0.0
 30
0.0
  9
$PLIMCHECK
 70
     0
  9
$PEXTMIN
 10
1.000000E+20
 20
1.000000E+20
 30
1.000000E+20
  9
$PEXTMAX
 10
-1.000000E+20
 20
-1.000000E+20
 30
-1.000000E+20
  9
$PLIMMIN
 10
0.0
 20
0.0
  9
$PLIMMAX
 10
12.0
 20
9.0
  9
$UNITMODE
 70
     0
  9
$VISRETAIN
 70
     0
  9
$PLINEGEN
 70
     0
  9
$PSLTSCALE
 70
     0
  9
$TREEDEPTH
 70
  3020
  9
$DWGCODEPAGE
  3
ascii
  0
ENDSEC
  0
SECTION
  2
TABLES
  0
TABLE
  2
VPORT
 70
     2
  0
VPORT
  2
*ACTIVE
 70
     0
 10
0.0
 20
0.0
 11
1.0
 21
1.0
 12
15.5
 22
11.377487
 13
0.0
 23
0.0
 14
1.0
 24
1.0
 15
0.0
 25
0.0
 16
0.0
 26
0.0
 36
1.0
 17
0.0
 27
0.0
 37
0.0
 40
22.754974
 41
1.36234
 42
50.0
 43
0.0
 44
0.0
 50
0.0
 51
0.0
 71
     0
 72
  5000
 73
     1
 74
     0
 75
     0
 76
     0
 77
     0
 78
     0
  0
ENDTAB
  0
TABLE
  2
LTYPE
 70
     7
  0
LTYPE
  2
CONTINUOUS
 70
    64
  3
Solid line
 72
    65
 73
     0
 40
0.0
  0
LTYPE
  2
CENTER
 70
    64
  3
____ _ ____ _ ____ _ ____ _ ____ _ ____ _ ____ 
 72
    65
 73
     4
 40
2.0
 49
1.25
 49
-0.25
 49
0.25
 49
-0.25
  0
LTYPE
  2
PHANTOM
 70
    64
  3
______  __  __  ______  __  __  ______  __  __ 
 72
    65
 73
     6
 40
2.5
 49
1.25
 49
-0.25
 49
0.25
 49
-0.25
 49
0.25
 49
-0.25
  0
LTYPE
  2
HIDDEN
 70
    64
  3
__ __ __ __ __ __ __ __ __ __ __ __ __ __ __ __
 72
    65
 73
     2
 40
0.375
 49
0.25
 49
-0.125
  0
LTYPE
  2
HIDDEN2
 70
     0
  3
_ _ _ _ _ _ _ _ _ _ _ _ _ _ _ _ _ _ _ _ _ _ _ _
 72
    65
 73
     2
 40
0.1875
 49
0.125
 49
-0.0625
  0
LTYPE
  2
CENTER2
 70
     0
  3
___ _ ___ _ ___ _ ___ _ ___ _ ___ _ ___ _ ___ _
 72
    65
 73
     4
 40
1.125
 49
0.75
 49
-0.125
 49
0.125
 49
-0.125
  0
LTYPE
  2
PHANTOM2
 70
     0
  3
___ _ _ ___ _ _ ___ _ _ ___ _ _ ___ _ _ ___ _ _
 72
    65
 73
     6
 40
1.25
 49
0.625
 49
-0.125
 49
0.125
 49
-0.125
 49
0.125
 49
-0.125
  0
ENDTAB
  0
TABLE
  2
LAYER
 70
    13
  0
LAYER
  2
0
 70
    64
 62
     7
  6
CONTINUOUS
  0
LAYER
  2
TEXT
 70
    64
 62
     7
  6
CONTINUOUS
  0
LAYER
  2
TITLE
 70
    64
 62
     7
  6
CONTINUOUS
  0
LAYER
  2
DIM
 70
    64
 62
     7
  6
CONTINUOUS
  0
LAYER
  2
CENTER
 70
    64
 62
     7
  6
CENTER
  0
LAYER
  2
OBJECT
 70
    64
 62
     7
  6
CONTINUOUS
  0
LAYER
  2
DEFPOINTS
 70
    64
 62
     7
  6
CONTINUOUS
  0
LAYER
  2
BEND
 70
    64
 62
     7
  6
PHANTOM
  0
LAYER
  2
HIDDEN
 70
    64
 62
     7
  6
HIDDEN
  0
LAYER
  2
BASE
 70
    64
 62
     7
  6
CONTINUOUS
  0
LAYER
  2
BASE-HID
 70
    64
 62
     7
  6
HIDDEN
  0
LAYER
  2
COVER
 70
    64
 62
     7
  6
CONTINUOUS
  0
LAYER
  2
COVER-HID
 70
    64
 62
     7
  6
HIDDEN
  0
ENDTAB
  0
TABLE
  2
STYLE
 70
     2
  0
STYLE
  2
STANDARD
 70
    64
 40
0.0
 41
1.0
 50
0.0
 71
     0
 42
0.18
  3
txt
  4

  0
STYLE
  2
TXT
 70
    64
 40
0.0
 41
0.75
 50
0.0
 71
     0
 42
0.375
  3
txt
  4

  0
ENDTAB
  0
TABLE
  2
VIEW
 70
     0
  0
ENDTAB
  0
TABLE
  2
UCS
 70
     0
  0
ENDTAB
  0
TABLE
  2
APPID
 70
     1
  0
APPID
  2
ACAD
 70
    64
  0
ENDTAB
  0
TABLE
  2
DIMSTYLE
 70
     2
  0
DIMSTYLE
  2
23NSTD
 70
    64
  3

  4

  5

  6

  7

 40
2.0
 41
0.18
 42
0.063
 43
0.281
 44
0.093
 45
0.0
 46
0.0
 47
0.0
 48
0.0
140
0.125
141
0.09
142
0.0
143
25.4
144
1.0
145
0.0
146
1.0
147
0.09
 71
     0
 72
     0
 73
     1
 74
     1
 75
     0
 76
     0
 77
     0
 78
     0
170
     0
171
     2
172
     0
173
     0
174
     0
175
     0
176
     0
177
     0
178
     0
  0
DIMSTYLE
  2
23NSTDI
 70
    64
  3

  4

  5

  6

  7

 40
2.0
 41
0.18
 42
0.063
 43
0.281
 44
0.093
 45
0.0
 46
0.0
 47
0.0
 48
0.0
140
0.125
141
0.09
142
0.0
143
25.4
144
1.0
145
0.0
146
1.0
147
0.09
 71
     0
 72
     0
 73
     1
 74
     1
 75
     0
 76
     0
 77
     0
 78
     0
170
     0
171
     2
172
     0
173
     0
174
     1
175
     0
176
     0
177
     0
178
     0
  0
ENDTAB
  0
ENDSEC
  0
SECTION
  2
BLOCKS
  0
BLOCK
  8
0
  2
*X0
 70
    65
 10
0.0
 20
0.0
 30
0.0
  3
*X
  0
LINE
  8
0
 62
     0
 10
4.831168
 20
10.907867
 30
0.0
 11
4.955499
 21
11.032198
 31
0.0
  0
LINE
  8
0
 62
     0
 10
4.831168
 20
11.018353
 30
0.0
 11
4.955499
 21
11.142683
 31
0.0
  0
LINE
  8
0
 62
     0
 10
4.831168
 20
11.128838
 30
0.0
 11
4.955499
 21
11.253169
 31
0.0
  0
LINE
  8
0
 62
     0
 10
4.831168
 20
11.239323
 30
0.0
 11
4.955499
 21
11.363654
 31
0.0
  0
LINE
  8
0
 62
     0
 10
4.831168
 20
11.349809
 30
0.0
 11
4.955499
 21
11.474139
 31
0.0
  0
LINE
  8
0
 62
     0
 10
4.831168
 20
11.460294
 30
0.0
 11
4.955499
 21
11.584625
 31
0.0
  0
LINE
  8
0
 62
     0
 10
4.831168
 20
11.57078
 30
0.0
 11
4.955499
 21
11.69511
 31
0.0
  0
LINE
  8
0
 62
     0
 10
4.831168
 20
11.681265
 30
0.0
 11
4.955499
 21
11.805596
 31
0.0
  0
LINE
  8
0
 62
     0
 10
4.831168
 20
11.791751
 30
0.0
 11
4.955499
 21
11.916081
 31
0.0
  0
LINE
  8
0
 62
     0
 10
4.831168
 20
11.902236
 30
0.0
 11
5.00668
 21
12.077748
 31
0.0
  0
LINE
  8
0
 62
     0
 10
4.831168
 20
12.012721
 30
0.0
 11
4.93116
 21
12.112713
 31
0.0
  0
LINE
  8
0
 62
     0
 10
4.840587
 20
12.132625
 30
0.0
 11
4.909771
 21
12.201809
 31
0.0
  0
LINE
  8
0
 62
     0
 10
4.922806
 20
12.32533
 30
0.0
 11
4.99608
 21
12.398605
 31
0.0
  0
LINE
  8
0
 62
     0
 10
5.663007
 20
13.949414
 30
0.0
 11
5.709201
 21
13.995608
 31
0.0
  0
LINE
  8
0
 62
     0
 10
5.868788
 20
14.155196
 30
0.0
 11
5.909052
 21
14.19546
 31
0.0
  0
LINE
  8
0
 62
     0
 10
5.695172
 20
14.092065
 30
0.0
 11
5.991272
 21
14.388165
 31
0.0
  0
LINE
  8
0
 62
     0
 10
5.889262
 20
14.39664
 30
0.0
 11
5.973087
 21
14.480466
 31
0.0
  0
LINE
  8
0
 62
     0
 10
5.83803
 20
14.455894
 30
0.0
 11
5.921547
 21
14.53941
 31
0.0
  0
LINE
  8
0
 62
     0
 10
5.783752
 20
14.512101
 30
0.0
 11
5.867194
 21
14.595544
 31
0.0
  0
LINE
  8
0
 62
     0
 10
5.70476
 20
14.543595
 30
0.0
 11
5.810038
 21
14.648872
 31
0.0
  0
LINE
  8
0
 62
     0
 10
5.594275
 20
14.543595
 30
0.0
 11
5.750061
 21
14.699382
 31
0.0
  0
LINE
  8
0
 62
     0
 10
5.483789
 20
14.543595
 30
0.0
 11
5.687229
 21
14.747034
 31
0.0
  0
LINE
  8
0
 62
     0
 10
5.373304
 20
14.543595
 30
0.0
 11
5.621478
 21
14.791769
 31
0.0
  0
LINE
  8
0
 62
     0
 10
5.262819
 20
14.543595
 30
0.0
 11
5.552723
 21
14.833499
 31
0.0
  0
LINE
  8
0
 62
     0
 10
5.152333
 20
14.543595
 30
0.0
 11
5.252979
 21
14.644241
 31
0.0
  0
LINE
  8
0
 62
     0
 10
5.346556
 20
14.737818
 30
0.0
 11
5.480844
 21
14.872106
 31
0.0
  0
LINE
  8
0
 62
     0
 10
5.041848
 20
14.543595
 30
0.0
 11
5.142493
 21
14.644241
 31
0.0
  0
LINE
  8
0
 62
     0
 10
5.236478
 20
14.738225
 30
0.0
 11
5.405688
 21
14.907436
 31
0.0
  0
LINE
  8
0
 62
     0
 10
4.931362
 20
14.543595
 30
0.0
 11
5.032008
 21
14.644241
 31
0.0
  0
LINE
  8
0
 62
     0
 10
5.23454
 20
14.846773
 30
0.0
 11
5.327058
 21
14.939291
 31
0.0
  0
LINE
  8
0
 62
     0
 10
5.125992
 20
14.738225
 30
0.0
 11
5.226638
 21
14.838871
 31
0.0
  0
LINE
  8
0
 62
     0
 10
4.820877
 20
14.543595
 30
0.0
 11
4.921522
 21
14.644241
 31
0.0
  0
LINE
  8
0
 62
     0
 10
5.149298
 20
14.872017
 30
0.0
 11
5.244701
 21
14.967419
 31
0.0
  0
LINE
  8
0
 62
     0
 10
5.015507
 20
14.738225
 30
0.0
 11
5.116153
 21
14.838871
 31
0.0
  0
LINE
  8
0
 62
     0
 10
4.710391
 20
14.543595
 30
0.0
 11
4.811037
 21
14.644241
 31
0.0
  0
LINE
  8
0
 62
     0
 10
5.059329
 20
14.892533
 30
0.0
 11
5.158292
 21
14.991495
 31
0.0
  0
LINE
  8
0
 62
     0
 10
4.905021
 20
14.738225
 30
0.0
 11
5.005667
 21
14.838871
 31
0.0
  0
LINE
  8
0
 62
     0
 10
4.63468
 20
14.578369
 30
0.0
 11
4.700552
 21
14.644241
 31
0.0
  0
LINE
  8
0
 62
     0
 10
4.964012
 20
14.907701
 30
0.0
 11
5.067408
 21
15.011097
 31
0.0
  0
LINE
  8
0
 62
     0
 10
4.794536
 20
14.738225
 30
0.0
 11
4.895182
 21
14.838871
 31
0.0
  0
LINE
  8
0
 62
     0
 10
4.529578
 20
14.583752
 30
0.0
 11
4.590066
 21
14.644241
 31
0.0
  0
LINE
  8
0
 62
     0
 10
4.862487
 20
14.916662
 30
0.0
 11
4.97149
 21
15.025665
 31
0.0
  0
LINE
  8
0
 62
     0
 10
4.684051
 20
14.738225
 30
0.0
 11
4.784696
 21
14.838871
 31
0.0
  0
LINE
  8
0
 62
     0
 10
4.419093
 20
14.583752
 30
0.0
 11
4.479581
 21
14.644241
 31
0.0
  0
LINE
  8
0
 62
     0
 10
4.753738
 20
14.918398
 30
0.0
 11
4.869781
 21
15.034441
 31
0.0
  0
LINE
  8
0
 62
     0
 10
4.573565
 20
14.738225
 30
0.0
 11
4.674211
 21
14.838871
 31
0.0
  0
LINE
  8
0
 62
     0
 10
4.46308
 20
14.738225
 30
0.0
 11
4.563725
 21
14.838871
 31
0.0
  0
LINE
  8
0
 62
     0
 10
4.643253
 20
14.918398
 30
0.0
 11
4.761363
 21
15.036509
 31
0.0
  0
LINE
  8
0
 62
     0
 10
4.416128
 20
14.801759
 30
0.0
 11
4.45324
 21
14.838871
 31
0.0
  0
LINE
  8
0
 62
     0
 10
4.532767
 20
14.918398
 30
0.0
 11
4.650878
 21
15.036509
 31
0.0
  0
LINE
  8
0
 62
     0
 10
4.422282
 20
14.918398
 30
0.0
 11
4.540392
 21
15.036509
 31
0.0
  0
LINE
  8
0
 62
     0
 10
4.364947
 20
14.971549
 30
0.0
 11
4.384907
 21
14.991509
 31
0.0
  0
LINE
  8
0
 62
     0
 10
4.416128
 20
15.02273
 30
0.0
 11
4.429907
 21
15.036509
 31
0.0
  0
LINE
  8
0
 62
     0
 10
4.831168
 20
10.797382
 30
0.0
 11
4.955499
 21
10.921712
 31
0.0
  0
LINE
  8
0
 62
     0
 10
4.831168
 20
10.686896
 30
0.0
 11
4.955499
 21
10.811227
 31
0.0
  0
LINE
  8
0
 62
     0
 10
4.831168
 20
10.576411
 30
0.0
 11
4.955499
 21
10.700741
 31
0.0
  0
LINE
  8
0
 62
     0
 10
4.831168
 20
10.465925
 30
0.0
 11
4.955499
 21
10.590256
 31
0.0
  0
LINE
  8
0
 62
     0
 10
4.831168
 20
10.35544
 30
0.0
 11
4.955499
 21
10.479771
 31
0.0
  0
LINE
  8
0
 62
     0
 10
4.831168
 20
10.244954
 30
0.0
 11
4.955499
 21
10.369285
 31
0.0
  0
LINE
  8
0
 62
     0
 10
4.831168
 20
10.134469
 30
0.0
 11
4.955499
 21
10.2588
 31
0.0
  0
LINE
  8
0
 62
     0
 10
4.831168
 20
10.023984
 30
0.0
 11
4.955499
 21
10.148314
 31
0.0
  0
LINE
  8
0
 62
     0
 10
4.831168
 20
9.913498
 30
0.0
 11
4.955499
 21
10.037829
 31
0.0
  0
LINE
  8
0
 62
     0
 10
4.831168
 20
9.803013
 30
0.0
 11
4.955499
 21
9.927343
 31
0.0
  0
LINE
  8
0
 62
     0
 10
4.831168
 20
9.692527
 30
0.0
 11
4.955499
 21
9.816858
 31
0.0
  0
LINE
  8
0
 62
     0
 10
4.831168
 20
9.582042
 30
0.0
 11
4.955499
 21
9.706372
 31
0.0
  0
LINE
  8
0
 62
     0
 10
4.831168
 20
9.471556
 30
0.0
 11
4.955499
 21
9.595887
 31
0.0
  0
LINE
  8
0
 62
     0
 10
4.831168
 20
9.361071
 30
0.0
 11
4.955499
 21
9.485402
 31
0.0
  0
LINE
  8
0
 62
     0
 10
4.831168
 20
9.250586
 30
0.0
 11
4.955499
 21
9.374916
 31
0.0
  0
LINE
  8
0
 62
     0
 10
4.831168
 20
9.1401
 30
0.0
 11
4.955499
 21
9.264431
 31
0.0
  0
LINE
  8
0
 62
     0
 10
4.831168
 20
9.029615
 30
0.0
 11
4.955499
 21
9.153945
 31
0.0
  0
LINE
  8
0
 62
     0
 10
4.831168
 20
8.919129
 30
0.0
 11
4.955499
 21
9.04346
 31
0.0
  0
LINE
  8
0
 62
     0
 10
4.831168
 20
8.808644
 30
0.0
 11
4.955499
 21
8.932974
 31
0.0
  0
LINE
  8
0
 62
     0
 10
4.831168
 20
8.698158
 30
0.0
 11
4.955499
 21
8.822489
 31
0.0
  0
LINE
  8
0
 62
     0
 10
4.831168
 20
8.587673
 30
0.0
 11
4.955499
 21
8.712004
 31
0.0
  0
LINE
  8
0
 62
     0
 10
4.831168
 20
8.477188
 30
0.0
 11
4.955499
 21
8.601518
 31
0.0
  0
LINE
  8
0
 62
     0
 10
4.416128
 20
7.951662
 30
0.0
 11
4.452939
 21
7.988473
 31
0.0
  0
LINE
  8
0
 62
     0
 10
4.831168
 20
8.366702
 30
0.0
 11
4.955499
 21
8.491033
 31
0.0
  0
LINE
  8
0
 62
     0
 10
4.462779
 20
7.887828
 30
0.0
 11
4.563425
 21
7.988473
 31
0.0
  0
LINE
  8
0
 62
     0
 10
4.831168
 20
8.256217
 30
0.0
 11
4.955499
 21
8.380547
 31
0.0
  0
LINE
  8
0
 62
     0
 10
4.416128
 20
7.730691
 30
0.0
 11
4.47928
 21
7.793843
 31
0.0
  0
LINE
  8
0
 62
     0
 10
4.831168
 20
8.145731
 30
0.0
 11
4.955499
 21
8.270062
 31
0.0
  0
LINE
  8
0
 62
     0
 10
4.573265
 20
7.887828
 30
0.0
 11
4.67391
 21
7.988473
 31
0.0
  0
LINE
  8
0
 62
     0
 10
4.386482
 20
7.59056
 30
0.0
 11
4.459592
 21
7.66367
 31
0.0
  0
LINE
  8
0
 62
     0
 10
4.831168
 20
8.035246
 30
0.0
 11
4.955499
 21
8.159576
 31
0.0
  0
LINE
  8
0
 62
     0
 10
4.48912
 20
7.693198
 30
0.0
 11
4.589766
 21
7.793843
 31
0.0
  0
LINE
  8
0
 62
     0
 10
4.68375
 20
7.887828
 30
0.0
 11
4.784396
 21
7.988473
 31
0.0
  0
LINE
  8
0
 62
     0
 10
4.451968
 20
7.54556
 30
0.0
 11
4.570078
 21
7.66367
 31
0.0
  0
LINE
  8
0
 62
     0
 10
4.790144
 20
7.883737
 30
0.0
 11
4.955499
 21
8.049091
 31
0.0
  0
LINE
  8
0
 62
     0
 10
4.599605
 20
7.693198
 30
0.0
 11
4.700251
 21
7.793843
 31
0.0
  0
LINE
  8
0
 62
     0
 10
4.562453
 20
7.54556
 30
0.0
 11
4.680563
 21
7.66367
 31
0.0
  0
LINE
  8
0
 62
     0
 10
4.710091
 20
7.693198
 30
0.0
 11
4.955499
 21
7.938606
 31
0.0
  0
LINE
  8
0
 62
     0
 10
4.672938
 20
7.54556
 30
0.0
 11
4.791049
 21
7.66367
 31
0.0
  0
LINE
  8
0
 62
     0
 10
4.820576
 20
7.693198
 30
0.0
 11
4.955499
 21
7.82812
 31
0.0
  0
LINE
  8
0
 62
     0
 10
4.783424
 20
7.54556
 30
0.0
 11
5.00668
 21
7.768816
 31
0.0
  0
LINE
  8
0
 62
     0
 10
4.893909
 20
7.54556
 30
0.0
 11
5.00668
 21
7.65833
 31
0.0
  0
ENDBLK
  8
0
  0
BLOCK
  8
0
  2
*X1
 70
    65
 10
0.0
 20
0.0
 30
0.0
  3
*X
  0
LINE
  8
0
 62
     0
 10
3.68668
 20
10.757748
 30
0.0
 11
3.781168
 21
10.852236
 31
0.0
  0
LINE
  8
0
 62
     0
 10
3.68668
 20
10.868233
 30
0.0
 11
3.781168
 21
10.962721
 31
0.0
  0
LINE
  8
0
 62
     0
 10
3.68668
 20
10.978719
 30
0.0
 11
3.781168
 21
11.073207
 31
0.0
  0
LINE
  8
0
 62
     0
 10
3.68668
 20
11.089204
 30
0.0
 11
3.781168
 21
11.183692
 31
0.0
  0
LINE
  8
0
 62
     0
 10
3.68668
 20
11.199689
 30
0.0
 11
3.781168
 21
11.294178
 31
0.0
  0
LINE
  8
0
 62
     0
 10
3.68668
 20
11.310175
 30
0.0
 11
3.781168
 21
11.404663
 31
0.0
  0
LINE
  8
0
 62
     0
 10
3.932445
 20
11.55594
 30
0.0
 11
4.005563
 21
11.629058
 31
0.0
  0
LINE
  8
0
 62
     0
 10
3.68668
 20
11.42066
 30
0.0
 11
3.781168
 21
11.515149
 31
0.0
  0
LINE
  8
0
 62
     0
 10
3.985062
 20
11.719042
 30
0.0
 11
4.017389
 21
11.751369
 31
0.0
  0
LINE
  8
0
 62
     0
 10
3.821959
 20
11.55594
 30
0.0
 11
3.895078
 21
11.629058
 31
0.0
  0
LINE
  8
0
 62
     0
 10
3.68668
 20
11.531146
 30
0.0
 11
3.784592
 21
11.629058
 31
0.0
  0
LINE
  8
0
 62
     0
 10
3.874576
 20
11.719042
 30
0.0
 11
3.947695
 21
11.79216
 31
0.0
  0
LINE
  8
0
 62
     0
 10
3.68668
 20
11.641631
 30
0.0
 11
3.837209
 21
11.79216
 31
0.0
  0
LINE
  8
0
 62
     0
 10
3.68668
 20
11.752117
 30
0.0
 11
3.781168
 21
11.846605
 31
0.0
  0
LINE
  8
0
 62
     0
 10
3.68668
 20
11.862602
 30
0.0
 11
3.781168
 21
11.95709
 31
0.0
  0
LINE
  8
0
 62
     0
 10
3.68668
 20
11.973088
 30
0.0
 11
3.781168
 21
12.067576
 31
0.0
  0
LINE
  8
0
 62
     0
 10
3.68668
 20
12.083573
 30
0.0
 11
3.781168
 21
12.178061
 31
0.0
  0
LINE
  8
0
 62
     0
 10
3.68668
 20
12.194058
 30
0.0
 11
3.781168
 21
12.288547
 31
0.0
  0
LINE
  8
0
 62
     0
 10
3.68668
 20
12.304544
 30
0.0
 11
3.781168
 21
12.399032
 31
0.0
  0
LINE
  8
0
 62
     0
 10
4.006439
 20
12.624303
 30
0.0
 11
4.017389
 21
12.635253
 31
0.0
  0
LINE
  8
0
 62
     0
 10
3.68668
 20
12.415029
 30
0.0
 11
3.781168
 21
12.509518
 31
0.0
  0
LINE
  8
0
 62
     0
 10
3.895953
 20
12.624303
 30
0.0
 11
3.969071
 21
12.697421
 31
0.0
  0
LINE
  8
0
 62
     0
 10
3.68668
 20
12.525515
 30
0.0
 11
3.781168
 21
12.620003
 31
0.0
  0
LINE
  8
0
 62
     0
 10
4.563815
 20
13.402649
 30
0.0
 11
4.63468
 21
13.473515
 31
0.0
  0
LINE
  8
0
 62
     0
 10
3.785468
 20
12.624303
 30
0.0
 11
3.858586
 21
12.697421
 31
0.0
  0
LINE
  8
0
 62
     0
 10
3.94857
 20
12.787405
 30
0.0
 11
4.017389
 21
12.856224
 31
0.0
  0
LINE
  8
0
 62
     0
 10
3.68668
 20
12.636
 30
0.0
 11
3.781168
 21
12.730488
 31
0.0
  0
LINE
  8
0
 62
     0
 10
4.56868
 20
13.518
 30
0.0
 11
4.63468
 21
13.584
 31
0.0
  0
LINE
  8
0
 62
     0
 10
3.838085
 20
12.787405
 30
0.0
 11
3.911203
 21
12.860523
 31
0.0
  0
LINE
  8
0
 62
     0
 10
4.453329
 20
13.402649
 30
0.0
 11
4.519329
 21
13.468649
 31
0.0
  0
LINE
  8
0
 62
     0
 10
3.68668
 20
12.746486
 30
0.0
 11
3.800718
 21
12.860523
 31
0.0
  0
LINE
  8
0
 62
     0
 10
4.56868
 20
13.628486
 30
0.0
 11
4.63468
 21
13.694486
 31
0.0
  0
LINE
  8
0
 62
     0
 10
4.342844
 20
13.402649
 30
0.0
 11
4.408844
 21
13.468649
 31
0.0
  0
LINE
  8
0
 62
     0
 10
3.68668
 20
12.856971
 30
0.0
 11
3.781168
 21
12.951459
 31
0.0
  0
LINE
  8
0
 62
     0
 10
4.56868
 20
13.738971
 30
0.0
 11
4.63468
 21
13.804971
 31
0.0
  0
LINE
  8
0
 62
     0
 10
4.232358
 20
13.402649
 30
0.0
 11
4.298358
 21
13.468649
 31
0.0
  0
LINE
  8
0
 62
     0
 10
3.68668
 20
12.967456
 30
0.0
 11
3.754656
 21
13.035433
 31
0.0
  0
LINE
  8
0
 62
     0
 10
4.56868
 20
13.849456
 30
0.0
 11
4.63468
 21
13.915456
 31
0.0
  0
LINE
  8
0
 62
     0
 10
4.121873
 20
13.402649
 30
0.0
 11
4.187873
 21
13.468649
 31
0.0
  0
LINE
  8
0
 62
     0
 10
3.68668
 20
13.077942
 30
0.0
 11
3.754656
 21
13.145918
 31
0.0
  0
LINE
  8
0
 62
     0
 10
4.56868
 20
13.959942
 30
0.0
 11
4.63468
 21
14.025942
 31
0.0
  0
LINE
  8
0
 62
     0
 10
3.787388
 20
13.178649
 30
0.0
 11
3.80768
 21
13.198942
 31
0.0
  0
LINE
  8
0
 62
     0
 10
4.011388
 20
13.402649
 30
0.0
 11
4.077388
 21
13.468649
 31
0.0
  0
LINE
  8
0
 62
     0
 10
3.68668
 20
13.188427
 30
0.0
 11
3.754656
 21
13.256404
 31
0.0
  0
LINE
  8
0
 62
     0
 10
4.56868
 20
14.070427
 30
0.0
 11
4.63468
 21
14.136427
 31
0.0
  0
LINE
  8
0
 62
     0
 10
3.781168
 20
13.282916
 30
0.0
 11
3.80768
 21
13.309427
 31
0.0
  0
LINE
  8
0
 62
     0
 10
3.900902
 20
13.402649
 30
0.0
 11
3.966902
 21
13.468649
 31
0.0
  0
LINE
  8
0
 62
     0
 10
3.68668
 20
13.298913
 30
0.0
 11
3.754656
 21
13.366889
 31
0.0
  0
LINE
  8
0
 62
     0
 10
4.56868
 20
14.180913
 30
0.0
 11
4.63468
 21
14.246913
 31
0.0
  0
LINE
  8
0
 62
     0
 10
3.781168
 20
13.393401
 30
0.0
 11
3.80768
 21
13.419913
 31
0.0
  0
LINE
  8
0
 62
     0
 10
3.834192
 20
13.446425
 30
0.0
 11
3.856417
 21
13.468649
 31
0.0
  0
LINE
  8
0
 62
     0
 10
3.68668
 20
13.409398
 30
0.0
 11
3.68879
 21
13.411509
 31
0.0
  0
LINE
  8
0
 62
     0
 10
4.56868
 20
14.291398
 30
0.0
 11
4.63468
 21
14.357398
 31
0.0
  0
LINE
  8
0
 62
     0
 10
3.68879
 20
13.411509
 30
0.0
 11
3.781168
 21
13.503886
 31
0.0
  0
LINE
  8
0
 62
     0
 10
3.68668
 20
13.519884
 30
0.0
 11
3.781168
 21
13.614372
 31
0.0
  0
LINE
  8
0
 62
     0
 10
4.56868
 20
14.401884
 30
0.0
 11
4.63468
 21
14.467884
 31
0.0
  0
LINE
  8
0
 62
     0
 10
3.68668
 20
13.630369
 30
0.0
 11
3.781168
 21
13.724857
 31
0.0
  0
LINE
  8
0
 62
     0
 10
4.56868
 20
14.512369
 30
0.0
 11
4.63468
 21
14.578369
 31
0.0
  0
LINE
  8
0
 62
     0
 10
3.68668
 20
13.740854
 30
0.0
 11
3.781168
 21
13.835343
 31
0.0
  0
LINE
  8
0
 62
     0
 10
4.463578
 20
14.517752
 30
0.0
 11
4.529578
 21
14.583752
 31
0.0
  0
LINE
  8
0
 62
     0
 10
3.68668
 20
13.85134
 30
0.0
 11
3.781168
 21
13.945828
 31
0.0
  0
LINE
  8
0
 62
     0
 10
4.353093
 20
14.517752
 30
0.0
 11
4.419093
 21
14.583752
 31
0.0
  0
LINE
  8
0
 62
     0
 10
3.68668
 20
13.961825
 30
0.0
 11
3.781168
 21
14.056314
 31
0.0
  0
LINE
  8
0
 62
     0
 10
4.242607
 20
14.517752
 30
0.0
 11
4.308607
 21
14.583752
 31
0.0
  0
LINE
  8
0
 62
     0
 10
3.68668
 20
14.072311
 30
0.0
 11
3.781168
 21
14.166799
 31
0.0
  0
LINE
  8
0
 62
     0
 10
4.155216
 20
14.540847
 30
0.0
 11
4.221216
 21
14.606847
 31
0.0
  0
LINE
  8
0
 62
     0
 10
3.68668
 20
14.182796
 30
0.0
 11
3.781168
 21
14.277284
 31
0.0
  0
LINE
  8
0
 62
     0
 10
4.155216
 20
14.651332
 30
0.0
 11
4.221216
 21
14.717332
 31
0.0
  0
LINE
  8
0
 62
     0
 10
3.68668
 20
14.293282
 30
0.0
 11
3.781168
 21
14.38777
 31
0.0
  0
LINE
  8
0
 62
     0
 10
4.392907
 20
14.999509
 30
0.0
 11
4.403216
 21
15.009817
 31
0.0
  0
LINE
  8
0
 62
     0
 10
4.155216
 20
14.761817
 30
0.0
 11
4.221216
 21
14.827817
 31
0.0
  0
LINE
  8
0
 62
     0
 10
4.311797
 20
14.918398
 30
0.0
 11
4.344216
 21
14.950817
 31
0.0
  0
LINE
  8
0
 62
     0
 10
3.68668
 20
14.403767
 30
0.0
 11
3.781168
 21
14.498255
 31
0.0
  0
LINE
  8
0
 62
     0
 10
4.155216
 20
14.872303
 30
0.0
 11
4.319421
 21
15.036509
 31
0.0
  0
LINE
  8
0
 62
     0
 10
3.68668
 20
14.514253
 30
0.0
 11
3.781168
 21
14.608741
 31
0.0
  0
LINE
  8
0
 62
     0
 10
4.155216
 20
14.982788
 30
0.0
 11
4.208936
 21
15.036509
 31
0.0
  0
LINE
  8
0
 62
     0
 10
4.090826
 20
14.918398
 30
0.0
 11
4.14268
 21
14.970253
 31
0.0
  0
LINE
  8
0
 62
     0
 10
3.68668
 20
14.624738
 30
0.0
 11
3.781168
 21
14.719226
 31
0.0
  0
LINE
  8
0
 62
     0
 10
3.98034
 20
14.918398
 30
0.0
 11
4.098451
 21
15.036509
 31
0.0
  0
LINE
  8
0
 62
     0
 10
3.68668
 20
14.735223
 30
0.0
 11
3.781168
 21
14.829712
 31
0.0
  0
LINE
  8
0
 62
     0
 10
3.869855
 20
14.918398
 30
0.0
 11
3.987965
 21
15.036509
 31
0.0
  0
LINE
  8
0
 62
     0
 10
3.692249
 20
14.851278
 30
0.0
 11
3.871911
 21
15.03094
 31
0.0
  0
LINE
  8
0
 62
     0
 10
3.68668
 20
10.647262
 30
0.0
 11
3.781168
 21
10.741751
 31
0.0
  0
LINE
  8
0
 62
     0
 10
3.68668
 20
10.536777
 30
0.0
 11
3.781168
 21
10.631265
 31
0.0
  0
LINE
  8
0
 62
     0
 10
3.68668
 20
10.426291
 30
0.0
 11
3.781168
 21
10.52078
 31
0.0
  0
LINE
  8
0
 62
     0
 10
3.68668
 20
10.315806
 30
0.0
 11
3.781168
 21
10.410294
 31
0.0
  0
LINE
  8
0
 62
     0
 10
3.68668
 20
10.205321
 30
0.0
 11
3.781168
 21
10.299809
 31
0.0
  0
LINE
  8
0
 62
     0
 10
3.68668
 20
10.094835
 30
0.0
 11
3.781168
 21
10.189323
 31
0.0
  0
LINE
  8
0
 62
     0
 10
3.68668
 20
9.98435
 30
0.0
 11
3.781168
 21
10.078838
 31
0.0
  0
LINE
  8
0
 62
     0
 10
3.68668
 20
9.873864
 30
0.0
 11
3.781168
 21
9.968353
 31
0.0
  0
LINE
  8
0
 62
     0
 10
3.68668
 20
9.763379
 30
0.0
 11
3.781168
 21
9.857867
 31
0.0
  0
LINE
  8
0
 62
     0
 10
3.68668
 20
9.652893
 30
0.0
 11
3.781168
 21
9.747382
 31
0.0
  0
LINE
  8
0
 62
     0
 10
3.68668
 20
9.542408
 30
0.0
 11
3.781168
 21
9.636896
 31
0.0
  0
LINE
  8
0
 62
     0
 10
3.68668
 20
9.431923
 30
0.0
 11
3.781168
 21
9.526411
 31
0.0
  0
LINE
  8
0
 62
     0
 10
3.68668
 20
9.321437
 30
0.0
 11
3.781168
 21
9.415925
 31
0.0
  0
LINE
  8
0
 62
     0
 10
3.68668
 20
9.210952
 30
0.0
 11
3.781168
 21
9.30544
 31
0.0
  0
LINE
  8
0
 62
     0
 10
3.68668
 20
9.100466
 30
0.0
 11
3.781168
 21
9.194954
 31
0.0
  0
LINE
  8
0
 62
     0
 10
3.68668
 20
8.989981
 30
0.0
 11
3.781168
 21
9.084469
 31
0.0
  0
LINE
  8
0
 62
     0
 10
3.68668
 20
8.879495
 30
0.0
 11
3.781168
 21
8.973984
 31
0.0
  0
LINE
  8
0
 62
     0
 10
3.68668
 20
8.76901
 30
0.0
 11
3.781168
 21
8.863498
 31
0.0
  0
LINE
  8
0
 62
     0
 10
3.68668
 20
8.658524
 30
0.0
 11
3.781168
 21
8.753013
 31
0.0
  0
LINE
  8
0
 62
     0
 10
3.68668
 20
8.548039
 30
0.0
 11
3.781168
 21
8.642527
 31
0.0
  0
LINE
  8
0
 62
     0
 10
3.68668
 20
8.437554
 30
0.0
 11
3.781168
 21
8.532042
 31
0.0
  0
LINE
  8
0
 62
     0
 10
3.68668
 20
8.327068
 30
0.0
 11
3.781168
 21
8.421556
 31
0.0
  0
LINE
  8
0
 62
     0
 10
3.68668
 20
8.216583
 30
0.0
 11
3.842429
 21
8.372332
 31
0.0
  0
LINE
  8
0
 62
     0
 10
3.68668
 20
8.106097
 30
0.0
 11
3.789812
 21
8.209229
 31
0.0
  0
LINE
  8
0
 62
     0
 10
3.879796
 20
8.299214
 30
0.0
 11
3.952914
 21
8.372332
 31
0.0
  0
LINE
  8
0
 62
     0
 10
3.68668
 20
7.995612
 30
0.0
 11
3.781168
 21
8.0901
 31
0.0
  0
LINE
  8
0
 62
     0
 10
3.990282
 20
8.299214
 30
0.0
 11
4.017389
 21
8.326321
 31
0.0
  0
LINE
  8
0
 62
     0
 10
3.827179
 20
8.136111
 30
0.0
 11
3.900297
 21
8.209229
 31
0.0
  0
LINE
  8
0
 62
     0
 10
3.755889
 20
7.954335
 30
0.0
 11
3.790027
 21
7.988473
 31
0.0
  0
LINE
  8
0
 62
     0
 10
3.937665
 20
8.136111
 30
0.0
 11
4.010783
 21
8.209229
 31
0.0
  0
LINE
  8
0
 62
     0
 10
3.815867
 20
7.903828
 30
0.0
 11
3.900512
 21
7.988473
 31
0.0
  0
LINE
  8
0
 62
     0
 10
3.707449
 20
7.684925
 30
0.0
 11
3.74986
 21
7.727335
 31
0.0
  0
LINE
  8
0
 62
     0
 10
3.926352
 20
7.903828
 30
0.0
 11
4.010998
 21
7.988473
 31
0.0
  0
LINE
  8
0
 62
     0
 10
3.78068
 20
7.758156
 30
0.0
 11
3.800368
 21
7.777843
 31
0.0
  0
LINE
  8
0
 62
     0
 10
3.751861
 20
7.618852
 30
0.0
 11
3.79668
 21
7.66367
 31
0.0
  0
LINE
  8
0
 62
     0
 10
4.036837
 20
7.903828
 30
0.0
 11
4.121483
 21
7.988473
 31
0.0
  0
LINE
  8
0
 62
     0
 10
3.826207
 20
7.693198
 30
0.0
 11
3.910853
 21
7.777843
 31
0.0
  0
LINE
  8
0
 62
     0
 10
3.815091
 20
7.571596
 30
0.0
 11
3.907165
 21
7.66367
 31
0.0
  0
LINE
  8
0
 62
     0
 10
4.147323
 20
7.903828
 30
0.0
 11
4.231969
 21
7.988473
 31
0.0
  0
LINE
  8
0
 62
     0
 10
3.936693
 20
7.693198
 30
0.0
 11
4.021339
 21
7.777843
 31
0.0
  0
LINE
  8
0
 62
     0
 10
3.900596
 20
7.546615
 30
0.0
 11
4.017651
 21
7.66367
 31
0.0
  0
LINE
  8
0
 62
     0
 10
4.257808
 20
7.903828
 30
0.0
 11
4.342454
 21
7.988473
 31
0.0
  0
LINE
  8
0
 62
     0
 10
4.047178
 20
7.693198
 30
0.0
 11
4.131824
 21
7.777843
 31
0.0
  0
LINE
  8
0
 62
     0
 10
4.010026
 20
7.54556
 30
0.0
 11
4.128136
 21
7.66367
 31
0.0
  0
LINE
  8
0
 62
     0
 10
4.368294
 20
7.903828
 30
0.0
 11
4.403216
 21
7.93875
 31
0.0
  0
LINE
  8
0
 62
     0
 10
4.157664
 20
7.693198
 30
0.0
 11
4.242309
 21
7.777843
 31
0.0
  0
LINE
  8
0
 62
     0
 10
4.120511
 20
7.54556
 30
0.0
 11
4.238622
 21
7.66367
 31
0.0
  0
LINE
  8
0
 62
     0
 10
4.268149
 20
7.693198
 30
0.0
 11
4.352795
 21
7.777843
 31
0.0
  0
LINE
  8
0
 62
     0
 10
4.230997
 20
7.54556
 30
0.0
 11
4.349107
 21
7.66367
 31
0.0
  0
LINE
  8
0
 62
     0
 10
4.378635
 20
7.693198
 30
0.0
 11
4.403216
 21
7.717779
 31
0.0
  0
LINE
  8
0
 62
     0
 10
4.341482
 20
7.54556
 30
0.0
 11
4.378482
 21
7.58256
 31
0.0
  0
ENDBLK
  8
0
  0
BLOCK
  8
0
  2
*D2
 70
    65
 10
0.0
 20
0.0
 30
0.0
  3
*D
  0
LINE
  8
0
  6
BYBLOCK
 62
     0
 10
3.663222
 20
35.209936
 30
0.0
 11
1.752222
 21
35.209936
 31
0.0
  0
LINE
  8
0
  6
BYBLOCK
 62
     0
 10
3.663222
 20
34.028833
 30
0.0
 11
1.752222
 21
34.028833
 31
0.0
  0
LINE
  8
0
  6
BYBLOCK
 62
     0
 10
1.938222
 20
35.569936
 30
0.0
 11
1.938222
 21
35.929936
 31
0.0
  0
LINE
  8
0
  6
BYBLOCK
 62
     0
 10
1.938222
 20
33.668833
 30
0.0
 11
1.938222
 21
33.308833
 31
0.0
  0
SOLID
  8
0
  6
BYBLOCK
 62
     0
 10
1.878222
 20
35.569936
 30
0.0
 11
1.998222
 21
35.569936
 31
0.0
 12
1.938222
 22
35.209936
 32
0.0
 13
1.938222
 23
35.209936
 33
0.0
  0
SOLID
  8
0
  6
BYBLOCK
 62
     0
 10
1.878222
 20
33.668833
 30
0.0
 11
1.998222
 21
33.668833
 31
0.0
 12
1.938222
 22
34.028833
 32
0.0
 13
1.938222
 23
34.028833
 33
0.0
  0
TEXT
  8
0
  6
BYBLOCK
 62
     0
 10
1.656972
 20
34.494385
 30
0.0
 40
0.25
  1
1.181
 41
0.75
  7
TXT
 72
     1
 11
1.938222
 21
34.619385
 31
0.0
 73
     2
  0
POINT
  8
DEFPOINTS
  6
BYBLOCK
 62
     0
 10
3.789222
 20
35.209936
 30
0.0
  0
POINT
  8
DEFPOINTS
  6
BYBLOCK
 62
     0
 10
3.789222
 20
34.028833
 30
0.0
  0
POINT
  8
DEFPOINTS
  6
BYBLOCK
 62
     0
 10
1.938222
 20
34.028833
 30
0.0
  0
ENDBLK
  8
0
  0
BLOCK
  8
0
  2
*D3
 70
    65
 10
0.0
 20
0.0
 30
0.0
  3
*D
  0
LINE
  8
0
  6
BYBLOCK
 62
     0
 10
19.700359
 20
27.938376
 30
0.0
 11
18.794492
 21
27.021476
 31
0.0
  0
LINE
  8
0
  6
BYBLOCK
 62
     0
 10
18.794492
 20
27.021476
 30
0.0
 11
18.434492
 21
27.021476
 31
0.0
  0
SOLID
  8
0
  6
BYBLOCK
 62
     0
 10
19.743042
 20
27.896207
 30
0.0
 11
19.657677
 21
27.980544
 31
0.0
 12
19.953372
 22
28.19447
 32
0.0
 13
19.953372
 23
28.19447
 33
0.0
  0
LINE
  8
0
  6
BYBLOCK
 62
     0
 10
19.828712
 20
28.250484
 30
0.0
 11
20.188712
 21
28.250484
 31
0.0
  0
LINE
  8
0
  6
BYBLOCK
 62
     0
 10
20.008712
 20
28.070484
 30
0.0
 11
20.008712
 21
28.430484
 31
0.0
  0
TEXT
  8
0
  6
BYBLOCK
 62
     0
 10
17.379492
 20
26.896476
 30
0.0
 40
0.25
  1
R0.079
 41
0.75
  7
TXT
 72
     1
 11
17.816992
 21
27.021476
 31
0.0
 73
     2
  0
POINT
  8
DEFPOINTS
  6
BYBLOCK
 62
     0
 10
19.953372
 20
28.19447
 30
0.0
  0
POINT
  8
DEFPOINTS
  6
BYBLOCK
 62
     0
 10
20.008712
 20
28.250484
 30
0.0
  0
ENDBLK
  8
0
  0
BLOCK
  8
0
  2
*D4
 70
    65
 10
0.0
 20
0.0
 30
0.0
  3
*D
  0
LINE
  8
0
  6
BYBLOCK
 62
     0
 10
10.878513
 20
28.360704
 30
0.0
 11
10.878513
 21
27.024244
 31
0.0
  0
LINE
  8
0
  6
BYBLOCK
 62
     0
 10
10.610108
 20
28.281964
 30
0.0
 11
10.610108
 21
27.024244
 31
0.0
  0
LINE
  8
0
  6
BYBLOCK
 62
     0
 10
11.238513
 20
27.210244
 30
0.0
 11
11.598513
 21
27.210244
 31
0.0
  0
LINE
  8
0
  6
BYBLOCK
 62
     0
 10
10.250108
 20
27.210244
 30
0.0
 11
9.890108
 21
27.210244
 31
0.0
  0
SOLID
  8
0
  6
BYBLOCK
 62
     0
 10
11.238513
 20
27.270244
 30
0.0
 11
11.238513
 21
27.150244
 31
0.0
 12
10.878513
 22
27.210244
 32
0.0
 13
10.878513
 23
27.210244
 33
0.0
  0
SOLID
  8
0
  6
BYBLOCK
 62
     0
 10
10.250108
 20
27.270244
 30
0.0
 11
10.250108
 21
27.150244
 31
0.0
 12
10.610108
 22
27.210244
 32
0.0
 13
10.610108
 23
27.210244
 33
0.0
  0
TEXT
  8
0
  6
BYBLOCK
 62
     0
 10
8.991358
 20
27.085244
 30
0.0
 40
0.25
  1
0.268
 41
0.75
  7
TXT
 72
     1
 11
9.350733
 21
27.210244
 31
0.0
 73
     2
  0
POINT
  8
DEFPOINTS
  6
BYBLOCK
 62
     0
 10
10.878513
 20
28.486704
 30
0.0
  0
POINT
  8
DEFPOINTS
  6
BYBLOCK
 62
     0
 10
10.610108
 20
28.407964
 30
0.0
  0
POINT
  8
DEFPOINTS
  6
BYBLOCK
 62
     0
 10
10.610108
 20
27.210244
 30
0.0
  0
ENDBLK
  8
0
  0
BLOCK
  8
0
  2
*D5
 70
    65
 10
0.0
 20
0.0
 30
0.0
  3
*D
  0
LINE
  8
0
  6
BYBLOCK
 62
     0
 10
10.878513
 20
28.360704
 30
0.0
 11
10.878513
 21
27.024244
 31
0.0
  0
LINE
  8
0
  6
BYBLOCK
 62
     0
 10
14.483878
 20
28.360704
 30
0.0
 11
14.483878
 21
27.024244
 31
0.0
  0
LINE
  8
0
  6
BYBLOCK
 62
     0
 10
11.238513
 20
27.210244
 30
0.0
 11
12.04807
 21
27.210244
 31
0.0
  0
LINE
  8
0
  6
BYBLOCK
 62
     0
 10
14.123878
 20
27.210244
 30
0.0
 11
13.31432
 21
27.210244
 31
0.0
  0
SOLID
  8
0
  6
BYBLOCK
 62
     0
 10
11.238513
 20
27.270244
 30
0.0
 11
11.238513
 21
27.150244
 31
0.0
 12
10.878513
 22
27.210244
 32
0.0
 13
10.878513
 23
27.210244
 33
0.0
  0
SOLID
  8
0
  6
BYBLOCK
 62
     0
 10
14.123878
 20
27.270244
 30
0.0
 11
14.123878
 21
27.150244
 31
0.0
 12
14.483878
 22
27.210244
 32
0.0
 13
14.483878
 23
27.210244
 33
0.0
  0
TEXT
  8
0
  6
BYBLOCK
 62
     0
 10
12.22807
 20
27.085244
 30
0.0
 40
0.25
  1
*
 41
0.75
  7
TXT
 72
     1
 11
12.29057
 21
27.210244
 31
0.0
 73
     2
  0
TEXT
  8
0
  6
BYBLOCK
 62
     0
 10
12.41557
 20
27.085244
 30
0.0
 40
0.25
  1
3.605
 41
0.75
  7
TXT
 72
     1
 11
12.774945
 21
27.210244
 31
0.0
 73
     2
  0
POINT
  8
DEFPOINTS
  6
BYBLOCK
 62
     0
 10
10.878513
 20
28.486704
 30
0.0
  0
POINT
  8
DEFPOINTS
  6
BYBLOCK
 62
     0
 10
14.483878
 20
28.486704
 30
0.0
  0
POINT
  8
DEFPOINTS
  6
BYBLOCK
 62
     0
 10
14.483878
 20
27.210244
 30
0.0
  0
ENDBLK
  8
0
  0
BLOCK
  8
0
  2
*D6
 70
    65
 10
0.0
 20
0.0
 30
0.0
  3
*D
  0
LINE
  8
0
  6
BYBLOCK
 62
     0
 10
4.727819
 20
42.611201
 30
0.0
 11
5.987268
 21
42.611201
 31
0.0
  0
LINE
  8
0
  6
BYBLOCK
 62
     0
 10
4.727819
 20
41.666318
 30
0.0
 11
5.987268
 21
41.666318
 31
0.0
  0
LINE
  8
0
  6
BYBLOCK
 62
     0
 10
5.801268
 20
42.971201
 30
0.0
 11
5.801268
 21
43.331201
 31
0.0
  0
LINE
  8
0
  6
BYBLOCK
 62
     0
 10
5.801268
 20
41.306318
 30
0.0
 11
5.801268
 21
40.946318
 31
0.0
  0
SOLID
  8
0
  6
BYBLOCK
 62
     0
 10
5.741268
 20
42.971201
 30
0.0
 11
5.861268
 21
42.971201
 31
0.0
 12
5.801268
 22
42.611201
 32
0.0
 13
5.801268
 23
42.611201
 33
0.0
  0
SOLID
  8
0
  6
BYBLOCK
 62
     0
 10
5.741268
 20
41.306318
 30
0.0
 11
5.861268
 21
41.306318
 31
0.0
 12
5.801268
 22
41.666318
 32
0.0
 13
5.801268
 23
41.666318
 33
0.0
  0
TEXT
  8
0
  6
BYBLOCK
 62
     0
 10
5.441893
 20
42.013759
 30
0.0
 40
0.25
  1
0.945
 41
0.75
  7
TXT
 72
     1
 11
5.801268
 21
42.138759
 31
0.0
 73
     2
  0
POINT
  8
DEFPOINTS
  6
BYBLOCK
 62
     0
 10
4.601819
 20
42.611201
 30
0.0
  0
POINT
  8
DEFPOINTS
  6
BYBLOCK
 62
     0
 10
4.601819
 20
41.666318
 30
0.0
  0
POINT
  8
DEFPOINTS
  6
BYBLOCK
 62
     0
 10
5.801268
 20
41.666318
 30
0.0
  0
ENDBLK
  8
0
  0
BLOCK
  8
0
  2
*D7
 70
    65
 10
0.0
 20
0.0
 30
0.0
  3
*D
  0
LINE
  8
0
  6
BYBLOCK
 62
     0
 10
19.435311
 20
40.884806
 30
0.0
 11
19.435311
 21
40.284806
 31
0.0
  0
LINE
  8
0
  6
BYBLOCK
 62
     0
 10
15.998301
 20
40.884806
 30
0.0
 11
15.998301
 21
40.284806
 31
0.0
  0
LINE
  8
0
  6
BYBLOCK
 62
     0
 10
19.075311
 20
40.470806
 30
0.0
 11
18.271806
 21
40.470806
 31
0.0
  0
LINE
  8
0
  6
BYBLOCK
 62
     0
 10
16.358301
 20
40.470806
 30
0.0
 11
17.161806
 21
40.470806
 31
0.0
  0
SOLID
  8
0
  6
BYBLOCK
 62
     0
 10
19.075311
 20
40.530806
 30
0.0
 11
19.075311
 21
40.410806
 31
0.0
 12
19.435311
 22
40.470806
 32
0.0
 13
19.435311
 23
40.470806
 33
0.0
  0
SOLID
  8
0
  6
BYBLOCK
 62
     0
 10
16.358301
 20
40.530806
 30
0.0
 11
16.358301
 21
40.410806
 31
0.0
 12
15.998301
 22
40.470806
 32
0.0
 13
15.998301
 23
40.470806
 33
0.0
  0
TEXT
  8
0
  6
BYBLOCK
 62
     0
 10
17.341806
 20
40.345806
 30
0.0
 40
0.25
  1
3.437
 41
0.75
  7
TXT
 72
     1
 11
17.716806
 21
40.470806
 31
0.0
 73
     2
  0
POINT
  8
DEFPOINTS
  6
BYBLOCK
 62
     0
 10
19.435311
 20
41.010806
 30
0.0
  0
POINT
  8
DEFPOINTS
  6
BYBLOCK
 62
     0
 10
15.998301
 20
41.010806
 30
0.0
  0
POINT
  8
DEFPOINTS
  6
BYBLOCK
 62
     0
 10
15.998301
 20
40.470806
 30
0.0
  0
ENDBLK
  8
0
  0
BLOCK
  8
0
  2
*D8
 70
    65
 10
0.0
 20
0.0
 30
0.0
  3
*D
  0
LINE
  8
0
  6
BYBLOCK
 62
     0
 10
3.669582
 20
28.353519
 30
0.0
 11
1.752222
 21
28.353519
 31
0.0
  0
LINE
  8
0
  6
BYBLOCK
 62
     0
 10
3.663222
 20
28.580519
 30
0.0
 11
1.752222
 21
28.580519
 31
0.0
  0
LINE
  8
0
  6
BYBLOCK
 62
     0
 10
1.938222
 20
27.993519
 30
0.0
 11
1.938222
 21
27.633519
 31
0.0
  0
LINE
  8
0
  6
BYBLOCK
 62
     0
 10
1.938222
 20
28.940519
 30
0.0
 11
1.938222
 21
29.300519
 31
0.0
  0
LINE
  8
0
  6
BYBLOCK
 62
     0
 10
1.938222
 20
29.300519
 30
0.0
 11
2.298222
 21
29.300519
 31
0.0
  0
SOLID
  8
0
  6
BYBLOCK
 62
     0
 10
1.878222
 20
27.993519
 30
0.0
 11
1.998222
 21
27.993519
 31
0.0
 12
1.938222
 22
28.353519
 32
0.0
 13
1.938222
 23
28.353519
 33
0.0
  0
SOLID
  8
0
  6
BYBLOCK
 62
     0
 10
1.878222
 20
28.940519
 30
0.0
 11
1.998222
 21
28.940519
 31
0.0
 12
1.938222
 22
28.580519
 32
0.0
 13
1.938222
 23
28.580519
 33
0.0
  0
TEXT
  8
0
  6
BYBLOCK
 62
     0
 10
2.478222
 20
29.175519
 30
0.0
 40
0.25
  1
0.227
 41
0.75
  7
TXT
 72
     1
 11
2.837597
 21
29.300519
 31
0.0
 73
     2
  0
POINT
  8
DEFPOINTS
  6
BYBLOCK
 62
     0
 10
3.795582
 20
28.353519
 30
0.0
  0
POINT
  8
DEFPOINTS
  6
BYBLOCK
 62
     0
 10
3.789222
 20
28.580519
 30
0.0
  0
POINT
  8
DEFPOINTS
  6
BYBLOCK
 62
     0
 10
1.938222
 20
28.580519
 30
0.0
  0
ENDBLK
  8
0
  0
BLOCK
  8
0
  2
*D9
 70
    65
 10
0.0
 20
0.0
 30
0.0
  3
*D
  0
LINE
  8
0
  6
BYBLOCK
 62
     0
 10
5.058041
 20
28.315704
 30
0.0
 11
5.058041
 21
27.024244
 31
0.0
  0
LINE
  8
0
  6
BYBLOCK
 62
     0
 10
5.109222
 20
28.124484
 30
0.0
 11
5.109222
 21
27.024244
 31
0.0
  0
LINE
  8
0
  6
BYBLOCK
 62
     0
 10
4.698041
 20
27.210244
 30
0.0
 11
4.338041
 21
27.210244
 31
0.0
  0
LINE
  8
0
  6
BYBLOCK
 62
     0
 10
5.469222
 20
27.210244
 30
0.0
 11
5.829222
 21
27.210244
 31
0.0
  0
SOLID
  8
0
  6
BYBLOCK
 62
     0
 10
4.698041
 20
27.270244
 30
0.0
 11
4.698041
 21
27.150244
 31
0.0
 12
5.058041
 22
27.210244
 32
0.0
 13
5.058041
 23
27.210244
 33
0.0
  0
SOLID
  8
0
  6
BYBLOCK
 62
     0
 10
5.469222
 20
27.270244
 30
0.0
 11
5.469222
 21
27.150244
 31
0.0
 12
5.109222
 22
27.210244
 32
0.0
 13
5.109222
 23
27.210244
 33
0.0
  0
TEXT
  8
0
  6
BYBLOCK
 62
     0
 10
6.009222
 20
27.085244
 30
0.0
 40
0.25
  1
0.051
 41
0.75
  7
TXT
 72
     1
 11
6.321722
 21
27.210244
 31
0.0
 73
     2
  0
POINT
  8
DEFPOINTS
  6
BYBLOCK
 62
     0
 10
5.058041
 20
28.441704
 30
0.0
  0
POINT
  8
DEFPOINTS
  6
BYBLOCK
 62
     0
 10
5.109222
 20
28.250484
 30
0.0
  0
POINT
  8
DEFPOINTS
  6
BYBLOCK
 62
     0
 10
5.109222
 20
27.210244
 30
0.0
  0
ENDBLK
  8
0
  0
BLOCK
  8
0
  2
*D10
 70
    65
 10
0.0
 20
0.0
 30
0.0
  3
*D
  0
LINE
  8
0
  6
BYBLOCK
 62
     0
 10
3.757711
 20
32.182124
 30
0.0
 11
1.752222
 21
32.182124
 31
0.0
  0
LINE
  8
0
  6
BYBLOCK
 62
     0
 10
3.757711
 20
32.418344
 30
0.0
 11
1.752222
 21
32.418344
 31
0.0
  0
LINE
  8
0
  6
BYBLOCK
 62
     0
 10
1.938222
 20
31.822124
 30
0.0
 11
1.938222
 21
31.462124
 31
0.0
  0
LINE
  8
0
  6
BYBLOCK
 62
     0
 10
1.938222
 20
32.778344
 30
0.0
 11
1.938222
 21
33.138344
 31
0.0
  0
LINE
  8
0
  6
BYBLOCK
 62
     0
 10
1.938222
 20
33.138344
 30
0.0
 11
2.298222
 21
33.138344
 31
0.0
  0
SOLID
  8
0
  6
BYBLOCK
 62
     0
 10
1.878222
 20
31.822124
 30
0.0
 11
1.998222
 21
31.822124
 31
0.0
 12
1.938222
 22
32.182124
 32
0.0
 13
1.938222
 23
32.182124
 33
0.0
  0
SOLID
  8
0
  6
BYBLOCK
 62
     0
 10
1.878222
 20
32.778344
 30
0.0
 11
1.998222
 21
32.778344
 31
0.0
 12
1.938222
 22
32.418344
 32
0.0
 13
1.938222
 23
32.418344
 33
0.0
  0
TEXT
  8
0
  6
BYBLOCK
 62
     0
 10
2.478222
 20
33.013344
 30
0.0
 40
0.25
  1
0.236
 41
0.75
  7
TXT
 72
     1
 11
2.837597
 21
33.138344
 31
0.0
 73
     2
  0
POINT
  8
DEFPOINTS
  6
BYBLOCK
 62
     0
 10
3.883711
 20
32.182124
 30
0.0
  0
POINT
  8
DEFPOINTS
  6
BYBLOCK
 62
     0
 10
3.883711
 20
32.418344
 30
0.0
  0
POINT
  8
DEFPOINTS
  6
BYBLOCK
 62
     0
 10
1.938222
 20
32.418344
 30
0.0
  0
ENDBLK
  8
0
  0
BLOCK
  8
0
  2
*D11
 70
    65
 10
0.0
 20
0.0
 30
0.0
  3
*D
  0
LINE
  8
0
  6
BYBLOCK
 62
     0
 10
19.803972
 20
32.706675
 30
0.0
 11
19.134073
 21
32.706675
 31
0.0
  0
LINE
  8
0
  6
BYBLOCK
 62
     0
 10
19.882712
 20
28.171744
 30
0.0
 11
19.134073
 21
28.171744
 31
0.0
  0
LINE
  8
0
  6
BYBLOCK
 62
     0
 10
19.320073
 20
32.346675
 30
0.0
 11
19.320073
 21
30.744209
 31
0.0
  0
LINE
  8
0
  6
BYBLOCK
 62
     0
 10
19.320073
 20
28.531744
 30
0.0
 11
19.320073
 21
30.134209
 31
0.0
  0
SOLID
  8
0
  6
BYBLOCK
 62
     0
 10
19.260073
 20
32.346675
 30
0.0
 11
19.380073
 21
32.346675
 31
0.0
 12
19.320073
 22
32.706675
 32
0.0
 13
19.320073
 23
32.706675
 33
0.0
  0
SOLID
  8
0
  6
BYBLOCK
 62
     0
 10
19.260073
 20
28.531744
 30
0.0
 11
19.380073
 21
28.531744
 31
0.0
 12
19.320073
 22
28.171744
 32
0.0
 13
19.320073
 23
28.171744
 33
0.0
  0
TEXT
  8
0
  6
BYBLOCK
 62
     0
 10
18.945073
 20
30.314209
 30
0.0
 40
0.25
  1
4.535
 41
0.75
  7
TXT
 72
     1
 11
19.320073
 21
30.439209
 31
0.0
 73
     2
  0
POINT
  8
DEFPOINTS
  6
BYBLOCK
 62
     0
 10
19.929972
 20
32.706675
 30
0.0
  0
POINT
  8
DEFPOINTS
  6
BYBLOCK
 62
     0
 10
20.008712
 20
28.171744
 30
0.0
  0
POINT
  8
DEFPOINTS
  6
BYBLOCK
 62
     0
 10
19.320073
 20
28.171744
 30
0.0
  0
ENDBLK
  8
0
  0
BLOCK
  8
0
  2
*D12
 70
    65
 10
0.0
 20
0.0
 30
0.0
  3
*D
  0
LINE
  8
0
  6
BYBLOCK
 62
     0
 10
21.249972
 20
35.552472
 30
0.0
 11
21.249972
 21
36.388692
 31
0.0
  0
LINE
  8
0
  6
BYBLOCK
 62
     0
 10
18.937972
 20
35.173836
 30
0.0
 11
18.937972
 21
36.388692
 31
0.0
  0
LINE
  8
0
  6
BYBLOCK
 62
     0
 10
20.889972
 20
36.202692
 30
0.0
 11
20.617722
 21
36.202692
 31
0.0
  0
LINE
  8
0
  6
BYBLOCK
 62
     0
 10
19.297972
 20
36.202692
 30
0.0
 11
19.570222
 21
36.202692
 31
0.0
  0
SOLID
  8
0
  6
BYBLOCK
 62
     0
 10
20.889972
 20
36.262692
 30
0.0
 11
20.889972
 21
36.142692
 31
0.0
 12
21.249972
 22
36.202692
 32
0.0
 13
21.249972
 23
36.202692
 33
0.0
  0
SOLID
  8
0
  6
BYBLOCK
 62
     0
 10
19.297972
 20
36.262692
 30
0.0
 11
19.297972
 21
36.142692
 31
0.0
 12
18.937972
 22
36.202692
 32
0.0
 13
18.937972
 23
36.202692
 33
0.0
  0
TEXT
  8
0
  6
BYBLOCK
 62
     0
 10
19.750222
 20
36.077692
 30
0.0
 40
0.25
  1
2.312
 41
0.75
  7
TXT
 72
     1
 11
20.093972
 21
36.202692
 31
0.0
 73
     2
  0
POINT
  8
DEFPOINTS
  6
BYBLOCK
 62
     0
 10
21.249972
 20
35.426472
 30
0.0
  0
POINT
  8
DEFPOINTS
  6
BYBLOCK
 62
     0
 10
18.937972
 20
35.047836
 30
0.0
  0
POINT
  8
DEFPOINTS
  6
BYBLOCK
 62
     0
 10
18.937972
 20
36.202692
 30
0.0
  0
ENDBLK
  8
0
  0
BLOCK
  8
0
  2
*D13
 70
    65
 10
0.0
 20
0.0
 30
0.0
  3
*D
  0
LINE
  8
0
  6
BYBLOCK
 62
     0
 10
5.189391
 20
33.01492
 30
0.0
 11
6.059053
 21
32.645484
 31
0.0
  0
LINE
  8
0
  6
BYBLOCK
 62
     0
 10
5.830627
 20
34.517842
 30
0.0
 11
6.697927
 21
34.149409
 31
0.0
  0
LINE
  8
0
  6
BYBLOCK
 62
     0
 10
5.747104
 20
32.386865
 30
0.0
 11
5.606348
 21
32.055523
 31
0.0
  0
LINE
  8
0
  6
BYBLOCK
 62
     0
 10
6.667489
 20
34.553475
 30
0.0
 11
6.808245
 21
34.884817
 31
0.0
  0
SOLID
  8
0
  6
BYBLOCK
 62
     0
 10
5.69188
 20
32.410324
 30
0.0
 11
5.802328
 21
32.363406
 31
0.0
 12
5.88786
 22
32.718208
 32
0.0
 13
5.88786
 23
32.718208
 33
0.0
  0
SOLID
  8
0
  6
BYBLOCK
 62
     0
 10
6.612266
 20
34.576934
 30
0.0
 11
6.722713
 21
34.530016
 31
0.0
 12
6.526734
 22
34.222132
 32
0.0
 13
6.526734
 23
34.222132
 33
0.0
  0
TEXT
  8
0
  6
BYBLOCK
 62
     0
 10
5.863547
 20
33.34517
 30
0.0
 40
0.25
  1
1.634
 41
0.75
  7
TXT
 72
     1
 11
6.207297
 21
33.47017
 31
0.0
 73
     2
  0
POINT
  8
DEFPOINTS
  6
BYBLOCK
 62
     0
 10
5.073421
 20
33.064185
 30
0.0
  0
POINT
  8
DEFPOINTS
  6
BYBLOCK
 62
     0
 10
5.714657
 20
34.567106
 30
0.0
  0
POINT
  8
DEFPOINTS
  6
BYBLOCK
 62
     0
 10
6.526734
 20
34.222132
 30
0.0
  0
ENDBLK
  8
0
  0
BLOCK
  8
0
  2
*D14
 70
    65
 10
0.0
 20
0.0
 30
0.0
  3
*D
  0
LINE
  8
0
  6
BYBLOCK
 62
     0
 10
3.757222
 20
28.289854
 30
0.0
 11
1.104584
 21
28.289854
 31
0.0
  0
LINE
  8
0
  6
BYBLOCK
 62
     0
 10
3.757711
 20
35.544582
 30
0.0
 11
1.104584
 21
35.544582
 31
0.0
  0
LINE
  8
0
  6
BYBLOCK
 62
     0
 10
1.290584
 20
28.649854
 30
0.0
 11
1.290584
 21
30.835781
 31
0.0
  0
LINE
  8
0
  6
BYBLOCK
 62
     0
 10
1.290584
 20
35.184582
 30
0.0
 11
1.290584
 21
31.445781
 31
0.0
  0
SOLID
  8
0
  6
BYBLOCK
 62
     0
 10
1.230584
 20
28.649854
 30
0.0
 11
1.350584
 21
28.649854
 31
0.0
 12
1.290584
 22
28.289854
 32
0.0
 13
1.290584
 23
28.289854
 33
0.0
  0
SOLID
  8
0
  6
BYBLOCK
 62
     0
 10
1.230584
 20
35.184582
 30
0.0
 11
1.350584
 21
35.184582
 31
0.0
 12
1.290584
 22
35.544582
 32
0.0
 13
1.290584
 23
35.544582
 33
0.0
  0
TEXT
  8
0
  6
BYBLOCK
 62
     0
 10
1.134334
 20
31.015781
 30
0.0
 40
0.25
  1
 INSIDE
 41
0.75
  7
TXT
 72
     1
 11
1.696834
 21
31.140781
 31
0.0
 73
     2
  0
TEXT
  8
0
  6
BYBLOCK
 62
     0
 10
0.321834
 20
31.015781
 30
0.0
 40
0.25
  1
7.255
 41
0.75
  7
TXT
 72
     1
 11
0.696834
 21
31.140781
 31
0.0
 73
     2
  0
POINT
  8
DEFPOINTS
  6
BYBLOCK
 62
     0
 10
3.883222
 20
28.289854
 30
0.0
  0
POINT
  8
DEFPOINTS
  6
BYBLOCK
 62
     0
 10
3.883711
 20
35.544582
 30
0.0
  0
POINT
  8
DEFPOINTS
  6
BYBLOCK
 62
     0
 10
1.290584
 20
35.544582
 30
0.0
  0
ENDBLK
  8
0
  0
BLOCK
  8
0
  2
*D15
 70
    65
 10
0.0
 20
0.0
 30
0.0
  3
*D
  0
ARC
  8
0
  6
BYBLOCK
 62
     0
 10
19.929972
 20
32.706675
 30
0.0
 40
1.421466
 50
127.655774
 51
179.181048
  0
ARC
  8
0
  6
BYBLOCK
 62
     0
 10
19.929972
 20
32.706675
 30
0.0
 40
1.421466
 50
204.509338
 51
255.450226
  0
SOLID
  8
0
  6
BYBLOCK
 62
     0
 10
19.031231
 20
33.883804
 30
0.0
 11
19.09192
 21
33.780282
 31
0.0
 12
19.372141
 22
34.014112
 32
0.0
 13
19.372141
 23
34.014112
 33
0.0
  0
SOLID
  8
0
  6
BYBLOCK
 62
     0
 10
19.580468
 20
31.390313
 30
0.0
 11
19.565272
 21
31.271279
 31
0.0
 12
19.929972
 22
31.285209
 32
0.0
 13
19.929972
 23
31.285209
 33
0.0
  0
TEXT
  8
0
  6
BYBLOCK
 62
     0
 10
18.256055
 20
32.296992
 30
0.0
 40
0.25
  1
155%%D
 41
0.75
  7
TXT
 72
     1
 11
18.537305
 21
32.421992
 31
0.0
 73
     2
  0
POINT
  8
DEFPOINTS
  6
BYBLOCK
 62
     0
 10
18.620055
 20
33.258656
 30
0.0
  0
POINT
  8
DEFPOINTS
  6
BYBLOCK
 62
     0
 10
19.929972
 20
28.250484
 30
0.0
  0
POINT
  8
DEFPOINTS
  6
BYBLOCK
 62
     0
 10
19.929972
 20
32.706675
 30
0.0
  0
POINT
  8
DEFPOINTS
  6
BYBLOCK
 62
     0
 10
18.943833
 20
35.017975
 30
0.0
  0
POINT
  8
DEFPOINTS
  6
BYBLOCK
 62
     0
 10
19.929972
 20
32.706675
 30
0.0
  0
ENDBLK
  8
0
  0
BLOCK
  8
0
  2
*D16
 70
    65
 10
0.0
 20
0.0
 30
0.0
  3
*D
  0
LINE
  8
0
  6
BYBLOCK
 62
     0
 10
23.285907
 20
16.173228
 30
0.0
 11
23.285907
 21
15.503275
 31
0.0
  0
LINE
  8
0
  6
BYBLOCK
 62
     0
 10
23.197907
 20
16.103275
 30
0.0
 11
23.197907
 21
15.503275
 31
0.0
  0
LINE
  8
0
  6
BYBLOCK
 62
     0
 10
23.645907
 20
15.689275
 30
0.0
 11
24.005907
 21
15.689275
 31
0.0
  0
LINE
  8
0
  6
BYBLOCK
 62
     0
 10
22.837907
 20
15.689275
 30
0.0
 11
22.477907
 21
15.689275
 31
0.0
  0
SOLID
  8
0
  6
BYBLOCK
 62
     0
 10
23.645907
 20
15.749275
 30
0.0
 11
23.645907
 21
15.629275
 31
0.0
 12
23.285907
 22
15.689275
 32
0.0
 13
23.285907
 23
15.689275
 33
0.0
  0
SOLID
  8
0
  6
BYBLOCK
 62
     0
 10
22.837907
 20
15.749275
 30
0.0
 11
22.837907
 21
15.629275
 31
0.0
 12
23.197907
 22
15.689275
 32
0.0
 13
23.197907
 23
15.689275
 33
0.0
  0
TEXT
  8
0
  6
BYBLOCK
 62
     0
 10
21.610407
 20
15.564275
 30
0.0
 40
0.25
  1
0.088
 41
0.75
  7
TXT
 72
     1
 11
21.954157
 21
15.689275
 31
0.0
 73
     2
  0
POINT
  8
DEFPOINTS
  6
BYBLOCK
 62
     0
 10
23.285907
 20
16.299228
 30
0.0
  0
POINT
  8
DEFPOINTS
  6
BYBLOCK
 62
     0
 10
23.197907
 20
16.229275
 30
0.0
  0
POINT
  8
DEFPOINTS
  6
BYBLOCK
 62
     0
 10
23.197907
 20
15.689275
 30
0.0
  0
ENDBLK
  8
0
  0
BLOCK
  8
0
  2
*D17
 70
    65
 10
0.0
 20
0.0
 30
0.0
  3
*D
  0
LINE
  8
0
  6
BYBLOCK
 62
     0
 10
4.727819
 20
16.884787
 30
0.0
 11
6.778842
 21
16.884787
 31
0.0
  0
LINE
  8
0
  6
BYBLOCK
 62
     0
 10
5.387268
 20
16.229275
 30
0.0
 11
6.778842
 21
16.229275
 31
0.0
  0
LINE
  8
0
  6
BYBLOCK
 62
     0
 10
6.592842
 20
17.244787
 30
0.0
 11
6.592842
 21
17.604787
 31
0.0
  0
LINE
  8
0
  6
BYBLOCK
 62
     0
 10
6.592842
 20
15.869275
 30
0.0
 11
6.592842
 21
15.509275
 31
0.0
  0
SOLID
  8
0
  6
BYBLOCK
 62
     0
 10
6.532842
 20
17.244787
 30
0.0
 11
6.652842
 21
17.244787
 31
0.0
 12
6.592842
 22
16.884787
 32
0.0
 13
6.592842
 23
16.884787
 33
0.0
  0
SOLID
  8
0
  6
BYBLOCK
 62
     0
 10
6.532842
 20
15.869275
 30
0.0
 11
6.652842
 21
15.869275
 31
0.0
 12
6.592842
 22
16.229275
 32
0.0
 13
6.592842
 23
16.229275
 33
0.0
  0
TEXT
  8
0
  6
BYBLOCK
 62
     0
 10
6.233467
 20
16.432031
 30
0.0
 40
0.25
  1
0.656
 41
0.75
  7
TXT
 72
     1
 11
6.592842
 21
16.557031
 31
0.0
 73
     2
  0
POINT
  8
DEFPOINTS
  6
BYBLOCK
 62
     0
 10
4.601819
 20
16.884787
 30
0.0
  0
POINT
  8
DEFPOINTS
  6
BYBLOCK
 62
     0
 10
5.261268
 20
16.229275
 30
0.0
  0
POINT
  8
DEFPOINTS
  6
BYBLOCK
 62
     0
 10
6.592842
 20
16.229275
 30
0.0
  0
ENDBLK
  8
0
  0
BLOCK
  8
0
  2
*D18
 70
    65
 10
0.0
 20
0.0
 30
0.0
  3
*D
  0
LINE
  8
0
  6
BYBLOCK
 62
     0
 10
5.387268
 20
18.485182
 30
0.0
 11
7.536398
 21
18.485182
 31
0.0
  0
LINE
  8
0
  6
BYBLOCK
 62
     0
 10
5.387268
 20
16.229275
 30
0.0
 11
7.536398
 21
16.229275
 31
0.0
  0
LINE
  8
0
  6
BYBLOCK
 62
     0
 10
7.350398
 20
18.125182
 30
0.0
 11
7.350398
 21
17.662228
 31
0.0
  0
LINE
  8
0
  6
BYBLOCK
 62
     0
 10
7.350398
 20
16.589275
 30
0.0
 11
7.350398
 21
17.052228
 31
0.0
  0
SOLID
  8
0
  6
BYBLOCK
 62
     0
 10
7.290398
 20
18.125182
 30
0.0
 11
7.410398
 21
18.125182
 31
0.0
 12
7.350398
 22
18.485182
 32
0.0
 13
7.350398
 23
18.485182
 33
0.0
  0
SOLID
  8
0
  6
BYBLOCK
 62
     0
 10
7.290398
 20
16.589275
 30
0.0
 11
7.410398
 21
16.589275
 31
0.0
 12
7.350398
 22
16.229275
 32
0.0
 13
7.350398
 23
16.229275
 33
0.0
  0
TEXT
  8
0
  6
BYBLOCK
 62
     0
 10
6.975398
 20
17.232228
 30
0.0
 40
0.25
  1
2.256
 41
0.75
  7
TXT
 72
     1
 11
7.350398
 21
17.357228
 31
0.0
 73
     2
  0
POINT
  8
DEFPOINTS
  6
BYBLOCK
 62
     0
 10
5.261268
 20
18.485182
 30
0.0
  0
POINT
  8
DEFPOINTS
  6
BYBLOCK
 62
     0
 10
5.261268
 20
16.229275
 30
0.0
  0
POINT
  8
DEFPOINTS
  6
BYBLOCK
 62
     0
 10
7.350398
 20
16.229275
 30
0.0
  0
ENDBLK
  8
0
  0
BLOCK
  8
0
  2
*D19
 70
    65
 10
0.0
 20
0.0
 30
0.0
  3
*D
  0
LINE
  8
0
  6
BYBLOCK
 62
     0
 10
2.483708
 20
16.758787
 30
0.0
 11
2.483708
 21
15.503275
 31
0.0
  0
LINE
  8
0
  6
BYBLOCK
 62
     0
 10
4.601819
 20
16.758787
 30
0.0
 11
4.601819
 21
15.503275
 31
0.0
  0
LINE
  8
0
  6
BYBLOCK
 62
     0
 10
2.843708
 20
15.689275
 30
0.0
 11
3.050263
 21
15.689275
 31
0.0
  0
LINE
  8
0
  6
BYBLOCK
 62
     0
 10
4.241819
 20
15.689275
 30
0.0
 11
4.035263
 21
15.689275
 31
0.0
  0
SOLID
  8
0
  6
BYBLOCK
 62
     0
 10
2.843708
 20
15.749275
 30
0.0
 11
2.843708
 21
15.629275
 31
0.0
 12
2.483708
 22
15.689275
 32
0.0
 13
2.483708
 23
15.689275
 33
0.0
  0
SOLID
  8
0
  6
BYBLOCK
 62
     0
 10
4.241819
 20
15.749275
 30
0.0
 11
4.241819
 21
15.629275
 31
0.0
 12
4.601819
 22
15.689275
 32
0.0
 13
4.601819
 23
15.689275
 33
0.0
  0
TEXT
  8
0
  6
BYBLOCK
 62
     0
 10
3.230263
 20
15.564275
 30
0.0
 40
0.25
  1
2.118
 41
0.75
  7
TXT
 72
     1
 11
3.542763
 21
15.689275
 31
0.0
 73
     2
  0
POINT
  8
DEFPOINTS
  6
BYBLOCK
 62
     0
 10
2.483708
 20
16.884787
 30
0.0
  0
POINT
  8
DEFPOINTS
  6
BYBLOCK
 62
     0
 10
4.601819
 20
16.884787
 30
0.0
  0
POINT
  8
DEFPOINTS
  6
BYBLOCK
 62
     0
 10
4.601819
 20
15.689275
 30
0.0
  0
ENDBLK
  8
0
  0
BLOCK
  8
0
  2
*D20
 70
    65
 10
0.0
 20
0.0
 30
0.0
  3
*D
  0
LINE
  8
0
  6
BYBLOCK
 62
     0
 10
2.483708
 20
16.758787
 30
0.0
 11
2.483708
 21
15.503275
 31
0.0
  0
LINE
  8
0
  6
BYBLOCK
 62
     0
 10
1.824259
 20
16.103275
 30
0.0
 11
1.824259
 21
15.503275
 31
0.0
  0
LINE
  8
0
  6
BYBLOCK
 62
     0
 10
2.843708
 20
15.689275
 30
0.0
 11
3.203708
 21
15.689275
 31
0.0
  0
LINE
  8
0
  6
BYBLOCK
 62
     0
 10
1.464259
 20
15.689275
 30
0.0
 11
1.104259
 21
15.689275
 31
0.0
  0
SOLID
  8
0
  6
BYBLOCK
 62
     0
 10
2.843708
 20
15.749275
 30
0.0
 11
2.843708
 21
15.629275
 31
0.0
 12
2.483708
 22
15.689275
 32
0.0
 13
2.483708
 23
15.689275
 33
0.0
  0
SOLID
  8
0
  6
BYBLOCK
 62
     0
 10
1.464259
 20
15.749275
 30
0.0
 11
1.464259
 21
15.629275
 31
0.0
 12
1.824259
 22
15.689275
 32
0.0
 13
1.824259
 23
15.689275
 33
0.0
  0
TEXT
  8
0
  6
BYBLOCK
 62
     0
 10
0.205509
 20
15.564275
 30
0.0
 40
0.25
  1
0.659
 41
0.75
  7
TXT
 72
     1
 11
0.564884
 21
15.689275
 31
0.0
 73
     2
  0
POINT
  8
DEFPOINTS
  6
BYBLOCK
 62
     0
 10
2.483708
 20
16.884787
 30
0.0
  0
POINT
  8
DEFPOINTS
  6
BYBLOCK
 62
     0
 10
1.824259
 20
16.229275
 30
0.0
  0
POINT
  8
DEFPOINTS
  6
BYBLOCK
 62
     0
 10
1.824259
 20
15.689275
 30
0.0
  0
ENDBLK
  8
0
  0
BLOCK
  8
0
  2
*D21
 70
    65
 10
0.0
 20
0.0
 30
0.0
  3
*D
  0
LINE
  8
0
  6
BYBLOCK
 62
     0
 10
8.655926
 20
16.173228
 30
0.0
 11
8.655926
 21
15.503275
 31
0.0
  0
LINE
  8
0
  6
BYBLOCK
 62
     0
 10
8.567926
 20
16.103275
 30
0.0
 11
8.567926
 21
15.503275
 31
0.0
  0
LINE
  8
0
  6
BYBLOCK
 62
     0
 10
9.015926
 20
15.689275
 30
0.0
 11
9.375926
 21
15.689275
 31
0.0
  0
LINE
  8
0
  6
BYBLOCK
 62
     0
 10
8.207926
 20
15.689275
 30
0.0
 11
7.847926
 21
15.689275
 31
0.0
  0
SOLID
  8
0
  6
BYBLOCK
 62
     0
 10
9.015926
 20
15.749275
 30
0.0
 11
9.015926
 21
15.629275
 31
0.0
 12
8.655926
 22
15.689275
 32
0.0
 13
8.655926
 23
15.689275
 33
0.0
  0
SOLID
  8
0
  6
BYBLOCK
 62
     0
 10
8.207926
 20
15.749275
 30
0.0
 11
8.207926
 21
15.629275
 31
0.0
 12
8.567926
 22
15.689275
 32
0.0
 13
8.567926
 23
15.689275
 33
0.0
  0
TEXT
  8
0
  6
BYBLOCK
 62
     0
 10
6.980426
 20
15.564275
 30
0.0
 40
0.25
  1
0.088
 41
0.75
  7
TXT
 72
     1
 11
7.324176
 21
15.689275
 31
0.0
 73
     2
  0
POINT
  8
DEFPOINTS
  6
BYBLOCK
 62
     0
 10
8.655926
 20
16.299228
 30
0.0
  0
POINT
  8
DEFPOINTS
  6
BYBLOCK
 62
     0
 10
8.567926
 20
16.229275
 30
0.0
  0
POINT
  8
DEFPOINTS
  6
BYBLOCK
 62
     0
 10
8.567926
 20
15.689275
 30
0.0
  0
ENDBLK
  8
0
  0
BLOCK
  8
0
  2
*D22
 70
    65
 10
0.0
 20
0.0
 30
0.0
  3
*D
  0
LINE
  8
0
  6
BYBLOCK
 62
     0
 10
5.018687
 20
5.047894
 30
0.0
 11
7.564979
 21
5.047894
 31
0.0
  0
LINE
  8
0
  6
BYBLOCK
 62
     0
 10
5.018687
 20
4.953909
 30
0.0
 11
7.564979
 21
4.953909
 31
0.0
  0
LINE
  8
0
  6
BYBLOCK
 62
     0
 10
7.378979
 20
5.407894
 30
0.0
 11
7.378979
 21
5.767894
 31
0.0
  0
LINE
  8
0
  6
BYBLOCK
 62
     0
 10
7.378979
 20
4.593909
 30
0.0
 11
7.378979
 21
4.233909
 31
0.0
  0
LINE
  8
0
  6
BYBLOCK
 62
     0
 10
7.378979
 20
4.233909
 30
0.0
 11
7.018979
 21
4.233909
 31
0.0
  0
SOLID
  8
0
  6
BYBLOCK
 62
     0
 10
7.318979
 20
5.407894
 30
0.0
 11
7.438979
 21
5.407894
 31
0.0
 12
7.378979
 22
5.047894
 32
0.0
 13
7.378979
 23
5.047894
 33
0.0
  0
SOLID
  8
0
  6
BYBLOCK
 62
     0
 10
7.318979
 20
4.593909
 30
0.0
 11
7.438979
 21
4.593909
 31
0.0
 12
7.378979
 22
4.953909
 32
0.0
 13
7.378979
 23
4.953909
 33
0.0
  0
TEXT
  8
0
  6
BYBLOCK
 62
     0
 10
6.151479
 20
4.108909
 30
0.0
 40
0.25
  1
0.094
 41
0.75
  7
TXT
 72
     1
 11
6.495229
 21
4.233909
 31
0.0
 73
     2
  0
POINT
  8
DEFPOINTS
  6
BYBLOCK
 62
     0
 10
4.892687
 20
5.047894
 30
0.0
  0
POINT
  8
DEFPOINTS
  6
BYBLOCK
 62
     0
 10
4.892687
 20
4.953909
 30
0.0
  0
POINT
  8
DEFPOINTS
  6
BYBLOCK
 62
     0
 10
7.378979
 20
4.953909
 30
0.0
  0
ENDBLK
  8
0
  0
BLOCK
  8
0
  2
*D23
 70
    65
 10
0.0
 20
0.0
 30
0.0
  3
*D
  0
LINE
  8
0
  6
BYBLOCK
 62
     0
 10
5.059711
 20
4.853264
 30
0.0
 11
5.998072
 21
4.853264
 31
0.0
  0
LINE
  8
0
  6
BYBLOCK
 62
     0
 10
5.059711
 20
5.148539
 30
0.0
 11
5.998072
 21
5.148539
 31
0.0
  0
LINE
  8
0
  6
BYBLOCK
 62
     0
 10
5.812072
 20
4.493264
 30
0.0
 11
5.812072
 21
4.133264
 31
0.0
  0
LINE
  8
0
  6
BYBLOCK
 62
     0
 10
5.812072
 20
5.508539
 30
0.0
 11
5.812072
 21
5.868539
 31
0.0
  0
LINE
  8
0
  6
BYBLOCK
 62
     0
 10
5.812072
 20
5.868539
 30
0.0
 11
6.172072
 21
5.868539
 31
0.0
  0
SOLID
  8
0
  6
BYBLOCK
 62
     0
 10
5.752072
 20
4.493264
 30
0.0
 11
5.872072
 21
4.493264
 31
0.0
 12
5.812072
 22
4.853264
 32
0.0
 13
5.812072
 23
4.853264
 33
0.0
  0
SOLID
  8
0
  6
BYBLOCK
 62
     0
 10
5.752072
 20
5.508539
 30
0.0
 11
5.872072
 21
5.508539
 31
0.0
 12
5.812072
 22
5.148539
 32
0.0
 13
5.812072
 23
5.148539
 33
0.0
  0
TEXT
  8
0
  6
BYBLOCK
 62
     0
 10
6.352072
 20
5.743539
 30
0.0
 40
0.25
  1
0.295
 41
0.75
  7
TXT
 72
     1
 11
6.711447
 21
5.868539
 31
0.0
 73
     2
  0
POINT
  8
DEFPOINTS
  6
BYBLOCK
 62
     0
 10
4.933711
 20
4.853264
 30
0.0
  0
POINT
  8
DEFPOINTS
  6
BYBLOCK
 62
     0
 10
4.933711
 20
5.148539
 30
0.0
  0
POINT
  8
DEFPOINTS
  6
BYBLOCK
 62
     0
 10
5.812072
 20
5.148539
 30
0.0
  0
ENDBLK
  8
0
  0
BLOCK
  8
0
  2
*D24
 70
    65
 10
0.0
 20
0.0
 30
0.0
  3
*D
  0
LINE
  8
0
  6
BYBLOCK
 62
     0
 10
3.757222
 20
5.063894
 30
0.0
 11
3.156279
 21
5.063894
 31
0.0
  0
LINE
  8
0
  6
BYBLOCK
 62
     0
 10
3.757222
 20
4.937909
 30
0.0
 11
3.156279
 21
4.937909
 31
0.0
  0
LINE
  8
0
  6
BYBLOCK
 62
     0
 10
3.342279
 20
5.423894
 30
0.0
 11
3.342279
 21
5.783894
 31
0.0
  0
LINE
  8
0
  6
BYBLOCK
 62
     0
 10
3.342279
 20
4.577909
 30
0.0
 11
3.342279
 21
4.217909
 31
0.0
  0
LINE
  8
0
  6
BYBLOCK
 62
     0
 10
3.342279
 20
4.217909
 30
0.0
 11
2.982279
 21
4.217909
 31
0.0
  0
SOLID
  8
0
  6
BYBLOCK
 62
     0
 10
3.282279
 20
5.423894
 30
0.0
 11
3.402279
 21
5.423894
 31
0.0
 12
3.342279
 22
5.063894
 32
0.0
 13
3.342279
 23
5.063894
 33
0.0
  0
SOLID
  8
0
  6
BYBLOCK
 62
     0
 10
3.282279
 20
4.577909
 30
0.0
 11
3.402279
 21
4.577909
 31
0.0
 12
3.342279
 22
4.937909
 32
0.0
 13
3.342279
 23
4.937909
 33
0.0
  0
TEXT
  8
0
  6
BYBLOCK
 62
     0
 10
2.146029
 20
4.092909
 30
0.0
 40
0.25
  1
0.126
 41
0.75
  7
TXT
 72
     1
 11
2.474154
 21
4.217909
 31
0.0
 73
     2
  0
POINT
  8
DEFPOINTS
  6
BYBLOCK
 62
     0
 10
3.883222
 20
5.063894
 30
0.0
  0
POINT
  8
DEFPOINTS
  6
BYBLOCK
 62
     0
 10
3.883222
 20
4.937909
 30
0.0
  0
POINT
  8
DEFPOINTS
  6
BYBLOCK
 62
     0
 10
3.342279
 20
4.937909
 30
0.0
  0
ENDBLK
  8
0
  0
BLOCK
  8
0
  2
*D25
 70
    65
 10
0.0
 20
0.0
 30
0.0
  3
*D
  0
LINE
  8
0
  6
BYBLOCK
 62
     0
 10
3.757711
 20
8.879108
 30
0.0
 11
3.156279
 21
8.879108
 31
0.0
  0
LINE
  8
0
  6
BYBLOCK
 62
     0
 10
3.757711
 20
8.789124
 30
0.0
 11
3.156279
 21
8.789124
 31
0.0
  0
LINE
  8
0
  6
BYBLOCK
 62
     0
 10
3.342279
 20
9.239108
 30
0.0
 11
3.342279
 21
9.599108
 31
0.0
  0
LINE
  8
0
  6
BYBLOCK
 62
     0
 10
3.342279
 20
8.429124
 30
0.0
 11
3.342279
 21
8.069124
 31
0.0
  0
LINE
  8
0
  6
BYBLOCK
 62
     0
 10
3.342279
 20
8.069124
 30
0.0
 11
2.982279
 21
8.069124
 31
0.0
  0
SOLID
  8
0
  6
BYBLOCK
 62
     0
 10
3.282279
 20
9.239108
 30
0.0
 11
3.402279
 21
9.239108
 31
0.0
 12
3.342279
 22
8.879108
 32
0.0
 13
3.342279
 23
8.879108
 33
0.0
  0
SOLID
  8
0
  6
BYBLOCK
 62
     0
 10
3.282279
 20
8.429124
 30
0.0
 11
3.402279
 21
8.429124
 31
0.0
 12
3.342279
 22
8.789124
 32
0.0
 13
3.342279
 23
8.789124
 33
0.0
  0
TEXT
  8
0
  6
BYBLOCK
 62
     0
 10
2.146029
 20
7.944124
 30
0.0
 40
0.25
  1
0.090
 41
0.75
  7
TXT
 72
     1
 11
2.474154
 21
8.069124
 31
0.0
 73
     2
  0
POINT
  8
DEFPOINTS
  6
BYBLOCK
 62
     0
 10
3.883711
 20
8.879108
 30
0.0
  0
POINT
  8
DEFPOINTS
  6
BYBLOCK
 62
     0
 10
3.883711
 20
8.789124
 30
0.0
  0
POINT
  8
DEFPOINTS
  6
BYBLOCK
 62
     0
 10
3.342279
 20
8.789124
 30
0.0
  0
ENDBLK
  8
0
  0
BLOCK
  8
0
  2
*D26
 70
    65
 10
0.0
 20
0.0
 30
0.0
  3
*D
  0
LINE
  8
0
  6
BYBLOCK
 62
     0
 10
5.225115
 20
9.191111
 30
0.0
 11
7.305416
 21
8.30353
 31
0.0
  0
LINE
  8
0
  6
BYBLOCK
 62
     0
 10
6.113984
 20
11.27443
 30
0.0
 11
8.194285
 21
10.386849
 31
0.0
  0
LINE
  8
0
  6
BYBLOCK
 62
     0
 10
7.275613
 20
8.707643
 30
0.0
 11
7.44864
 21
9.113182
 31
0.0
  0
LINE
  8
0
  6
BYBLOCK
 62
     0
 10
7.88193
 20
10.128721
 30
0.0
 11
7.708903
 21
9.723182
 31
0.0
  0
SOLID
  8
0
  6
BYBLOCK
 62
     0
 10
7.220426
 20
8.731189
 30
0.0
 11
7.3308
 21
8.684097
 31
0.0
 12
7.134337
 22
8.376522
 32
0.0
 13
7.134337
 23
8.376522
 33
0.0
  0
SOLID
  8
0
  6
BYBLOCK
 62
     0
 10
7.826743
 20
10.152267
 30
0.0
 11
7.937117
 21
10.105175
 31
0.0
 12
8.023206
 22
10.459841
 32
0.0
 13
8.023206
 23
10.459841
 33
0.0
  0
TEXT
  8
0
  6
BYBLOCK
 62
     0
 10
7.203771
 20
9.293182
 30
0.0
 40
0.25
  1
2.265
 41
0.75
  7
TXT
 72
     1
 11
7.578771
 21
9.418182
 31
0.0
 73
     2
  0
POINT
  8
DEFPOINTS
  6
BYBLOCK
 62
     0
 10
5.109222
 20
9.240557
 30
0.0
  0
POINT
  8
DEFPOINTS
  6
BYBLOCK
 62
     0
 10
5.998091
 20
11.323877
 30
0.0
  0
POINT
  8
DEFPOINTS
  6
BYBLOCK
 62
     0
 10
8.023206
 20
10.459841
 30
0.0
  0
ENDBLK
  8
0
  0
BLOCK
  8
0
  2
*D27
 70
    65
 10
0.0
 20
0.0
 30
0.0
  3
*D
  0
LINE
  8
0
  6
BYBLOCK
 62
     0
 10
5.830627
 20
11.051724
 30
0.0
 11
7.370455
 21
10.397598
 31
0.0
  0
LINE
  8
0
  6
BYBLOCK
 62
     0
 10
6.113575
 20
11.273474
 30
0.0
 11
7.493509
 21
10.687272
 31
0.0
  0
LINE
  8
0
  6
BYBLOCK
 62
     0
 10
7.058505
 20
10.13898
 30
0.0
 11
6.91775
 21
9.807637
 31
0.0
  0
LINE
  8
0
  6
BYBLOCK
 62
     0
 10
7.463071
 20
11.091338
 30
0.0
 11
7.603827
 21
11.422681
 31
0.0
  0
LINE
  8
0
  6
BYBLOCK
 62
     0
 10
7.603827
 20
11.422681
 30
0.0
 11
7.963827
 21
11.422681
 31
0.0
  0
SOLID
  8
0
  6
BYBLOCK
 62
     0
 10
7.003282
 20
10.162439
 30
0.0
 11
7.113729
 21
10.11552
 31
0.0
 12
7.199261
 22
10.470322
 32
0.0
 13
7.199261
 23
10.470322
 33
0.0
  0
SOLID
  8
0
  6
BYBLOCK
 62
     0
 10
7.407848
 20
11.114798
 30
0.0
 11
7.518295
 21
11.067879
 31
0.0
 12
7.322316
 22
10.759996
 32
0.0
 13
7.322316
 23
10.759996
 33
0.0
  0
TEXT
  8
0
  6
BYBLOCK
 62
     0
 10
8.143827
 20
11.297681
 30
0.0
 40
0.25
  1
0.315
 41
0.75
  7
TXT
 72
     1
 11
8.471952
 21
11.422681
 31
0.0
 73
     2
  0
POINT
  8
DEFPOINTS
  6
BYBLOCK
 62
     0
 10
5.714657
 20
11.100988
 30
0.0
  0
POINT
  8
DEFPOINTS
  6
BYBLOCK
 62
     0
 10
5.997606
 20
11.322739
 30
0.0
  0
POINT
  8
DEFPOINTS
  6
BYBLOCK
 62
     0
 10
7.322316
 20
10.759996
 30
0.0
  0
ENDBLK
  8
0
  0
BLOCK
  8
0
  2
*D28
 70
    65
 10
0.0
 20
0.0
 30
0.0
  3
*D
  0
LINE
  8
0
  6
BYBLOCK
 62
     0
 10
3.663222
 20
11.743819
 30
0.0
 11
2.407722
 21
11.743819
 31
0.0
  0
LINE
  8
0
  6
BYBLOCK
 62
     0
 10
3.894687
 20
12.196575
 30
0.0
 11
2.407722
 21
12.196575
 31
0.0
  0
LINE
  8
0
  6
BYBLOCK
 62
     0
 10
2.593722
 20
11.383819
 30
0.0
 11
2.593722
 21
11.023819
 31
0.0
  0
LINE
  8
0
  6
BYBLOCK
 62
     0
 10
2.593722
 20
12.556575
 30
0.0
 11
2.593722
 21
12.916575
 31
0.0
  0
SOLID
  8
0
  6
BYBLOCK
 62
     0
 10
2.533722
 20
11.383819
 30
0.0
 11
2.653722
 21
11.383819
 31
0.0
 12
2.593722
 22
11.743819
 32
0.0
 13
2.593722
 23
11.743819
 33
0.0
  0
SOLID
  8
0
  6
BYBLOCK
 62
     0
 10
2.533722
 20
12.556575
 30
0.0
 11
2.653722
 21
12.556575
 31
0.0
 12
2.593722
 22
12.196575
 32
0.0
 13
2.593722
 23
12.196575
 33
0.0
  0
TEXT
  8
0
  6
BYBLOCK
 62
     0
 10
1.529211
 20
12.780781
 30
0.0
 40
0.25
  1
0.453
 41
0.75
  7
TXT
 72
     1
 11
1.888586
 21
12.905781
 31
0.0
 73
     2
  0
POINT
  8
DEFPOINTS
  6
BYBLOCK
 62
     0
 10
3.789222
 20
11.743819
 30
0.0
  0
POINT
  8
DEFPOINTS
  6
BYBLOCK
 62
     0
 10
4.020687
 20
12.196575
 30
0.0
  0
POINT
  8
DEFPOINTS
  6
BYBLOCK
 62
     0
 10
2.593722
 20
12.196575
 30
0.0
  0
ENDBLK
  8
0
  0
BLOCK
  8
0
  2
*D29
 70
    65
 10
0.0
 20
0.0
 30
0.0
  3
*D
  0
LINE
  8
0
  6
BYBLOCK
 62
     0
 10
14.642063
 20
4.705626
 30
0.0
 11
17.065598
 21
4.705626
 31
0.0
  0
LINE
  8
0
  6
BYBLOCK
 62
     0
 10
14.642063
 20
12.196575
 30
0.0
 11
17.065598
 21
12.196575
 31
0.0
  0
LINE
  8
0
  6
BYBLOCK
 62
     0
 10
16.879598
 20
5.065626
 30
0.0
 11
16.879598
 21
8.1461
 31
0.0
  0
LINE
  8
0
  6
BYBLOCK
 62
     0
 10
16.879598
 20
11.836575
 30
0.0
 11
16.879598
 21
8.7561
 31
0.0
  0
SOLID
  8
0
  6
BYBLOCK
 62
     0
 10
16.819598
 20
5.065626
 30
0.0
 11
16.939598
 21
5.065626
 31
0.0
 12
16.879598
 22
4.705626
 32
0.0
 13
16.879598
 23
4.705626
 33
0.0
  0
SOLID
  8
0
  6
BYBLOCK
 62
     0
 10
16.819598
 20
11.836575
 30
0.0
 11
16.939598
 21
11.836575
 31
0.0
 12
16.879598
 22
12.196575
 32
0.0
 13
16.879598
 23
12.196575
 33
0.0
  0
TEXT
  8
0
  6
BYBLOCK
 62
     0
 10
16.535848
 20
8.3261
 30
0.0
 40
0.25
  1
7.491
 41
0.75
  7
TXT
 72
     1
 11
16.879598
 21
8.4511
 31
0.0
 73
     2
  0
POINT
  8
DEFPOINTS
  6
BYBLOCK
 62
     0
 10
14.516063
 20
4.705626
 30
0.0
  0
POINT
  8
DEFPOINTS
  6
BYBLOCK
 62
     0
 10
14.516063
 20
12.196575
 30
0.0
  0
POINT
  8
DEFPOINTS
  6
BYBLOCK
 62
     0
 10
16.879598
 20
12.196575
 30
0.0
  0
ENDBLK
  8
0
  0
BLOCK
  8
0
  2
*D30
 70
    65
 10
0.0
 20
0.0
 30
0.0
  3
*D
  0
LINE
  8
0
  6
BYBLOCK
 62
     0
 10
14.609878
 20
4.975587
 30
0.0
 11
15.754598
 21
4.975587
 31
0.0
  0
LINE
  8
0
  6
BYBLOCK
 62
     0
 10
14.609878
 20
9.174502
 30
0.0
 11
15.754598
 21
9.174502
 31
0.0
  0
LINE
  8
0
  6
BYBLOCK
 62
     0
 10
15.568598
 20
5.335587
 30
0.0
 11
15.568598
 21
6.770044
 31
0.0
  0
LINE
  8
0
  6
BYBLOCK
 62
     0
 10
15.568598
 20
8.814502
 30
0.0
 11
15.568598
 21
7.380044
 31
0.0
  0
SOLID
  8
0
  6
BYBLOCK
 62
     0
 10
15.508598
 20
5.335587
 30
0.0
 11
15.628598
 21
5.335587
 31
0.0
 12
15.568598
 22
4.975587
 32
0.0
 13
15.568598
 23
4.975587
 33
0.0
  0
SOLID
  8
0
  6
BYBLOCK
 62
     0
 10
15.508598
 20
8.814502
 30
0.0
 11
15.628598
 21
8.814502
 31
0.0
 12
15.568598
 22
9.174502
 32
0.0
 13
15.568598
 23
9.174502
 33
0.0
  0
TEXT
  8
0
  6
BYBLOCK
 62
     0
 10
15.131098
 20
6.950044
 30
0.0
 40
0.25
  1
*
 41
0.75
  7
TXT
 72
     1
 11
15.193598
 21
7.075044
 31
0.0
 73
     2
  0
TEXT
  8
0
  6
BYBLOCK
 62
     0
 10
15.318598
 20
6.950044
 30
0.0
 40
0.25
  1
4.199
 41
0.75
  7
TXT
 72
     1
 11
15.662348
 21
7.075044
 31
0.0
 73
     2
  0
POINT
  8
DEFPOINTS
  6
BYBLOCK
 62
     0
 10
14.483878
 20
4.975587
 30
0.0
  0
POINT
  8
DEFPOINTS
  6
BYBLOCK
 62
     0
 10
14.483878
 20
9.174502
 30
0.0
  0
POINT
  8
DEFPOINTS
  6
BYBLOCK
 62
     0
 10
15.568598
 20
9.174502
 30
0.0
  0
ENDBLK
  8
0
  0
BLOCK
  8
0
  2
*D31
 70
    65
 10
0.0
 20
0.0
 30
0.0
  3
*D
  0
LINE
  8
0
  6
BYBLOCK
 62
     0
 10
14.609878
 20
4.975587
 30
0.0
 11
16.405667
 21
4.975587
 31
0.0
  0
LINE
  8
0
  6
BYBLOCK
 62
     0
 10
14.642063
 20
4.705626
 30
0.0
 11
16.405667
 21
4.705626
 31
0.0
  0
LINE
  8
0
  6
BYBLOCK
 62
     0
 10
16.219667
 20
5.335587
 30
0.0
 11
16.219667
 21
5.695587
 31
0.0
  0
LINE
  8
0
  6
BYBLOCK
 62
     0
 10
16.219667
 20
4.345626
 30
0.0
 11
16.219667
 21
3.985626
 31
0.0
  0
LINE
  8
0
  6
BYBLOCK
 62
     0
 10
16.219667
 20
3.985626
 30
0.0
 11
15.859667
 21
3.985626
 31
0.0
  0
SOLID
  8
0
  6
BYBLOCK
 62
     0
 10
16.159667
 20
5.335587
 30
0.0
 11
16.279667
 21
5.335587
 31
0.0
 12
16.219667
 22
4.975587
 32
0.0
 13
16.219667
 23
4.975587
 33
0.0
  0
SOLID
  8
0
  6
BYBLOCK
 62
     0
 10
16.159667
 20
4.345626
 30
0.0
 11
16.279667
 21
4.345626
 31
0.0
 12
16.219667
 22
4.705626
 32
0.0
 13
16.219667
 23
4.705626
 33
0.0
  0
TEXT
  8
0
  6
BYBLOCK
 62
     0
 10
14.992167
 20
3.860626
 30
0.0
 40
0.25
  1
0.270
 41
0.75
  7
TXT
 72
     1
 11
15.335917
 21
3.985626
 31
0.0
 73
     2
  0
POINT
  8
DEFPOINTS
  6
BYBLOCK
 62
     0
 10
14.483878
 20
4.975587
 30
0.0
  0
POINT
  8
DEFPOINTS
  6
BYBLOCK
 62
     0
 10
14.516063
 20
4.705626
 30
0.0
  0
POINT
  8
DEFPOINTS
  6
BYBLOCK
 62
     0
 10
16.219667
 20
4.705626
 30
0.0
  0
ENDBLK
  8
0
  0
BLOCK
  8
0
  2
*D32
 70
    65
 10
0.0
 20
0.0
 30
0.0
  3
*D
  0
LINE
  8
0
  6
BYBLOCK
 62
     0
 10
5.488004
 20
16.459548
 30
0.0
 11
5.488004
 21
15.315371
 31
0.0
  0
LINE
  8
0
  6
BYBLOCK
 62
     0
 10
2.050994
 20
16.459548
 30
0.0
 11
2.050994
 21
15.315371
 31
0.0
  0
LINE
  8
0
  6
BYBLOCK
 62
     0
 10
5.128004
 20
15.501371
 30
0.0
 11
4.324499
 21
15.501371
 31
0.0
  0
LINE
  8
0
  6
BYBLOCK
 62
     0
 10
2.410994
 20
15.501371
 30
0.0
 11
3.214499
 21
15.501371
 31
0.0
  0
SOLID
  8
0
  6
BYBLOCK
 62
     0
 10
5.128004
 20
15.561371
 30
0.0
 11
5.128004
 21
15.441371
 31
0.0
 12
5.488004
 22
15.501371
 32
0.0
 13
5.488004
 23
15.501371
 33
0.0
  0
SOLID
  8
0
  6
BYBLOCK
 62
     0
 10
2.410994
 20
15.561371
 30
0.0
 11
2.410994
 21
15.441371
 31
0.0
 12
2.050994
 22
15.501371
 32
0.0
 13
2.050994
 23
15.501371
 33
0.0
  0
TEXT
  8
0
  6
BYBLOCK
 62
     0
 10
3.394499
 20
15.376371
 30
0.0
 40
0.25
  1
3.437
 41
0.75
  7
TXT
 72
     1
 11
3.769499
 21
15.501371
 31
0.0
 73
     2
  0
POINT
  8
DEFPOINTS
  6
BYBLOCK
 62
     0
 10
5.488004
 20
16.585548
 30
0.0
  0
POINT
  8
DEFPOINTS
  6
BYBLOCK
 62
     0
 10
2.050994
 20
16.585548
 30
0.0
  0
POINT
  8
DEFPOINTS
  6
BYBLOCK
 62
     0
 10
2.050994
 20
15.501371
 30
0.0
  0
ENDBLK
  8
0
  0
BLOCK
  8
0
  2
*D33
 70
    65
 10
0.0
 20
0.0
 30
0.0
  3
*D
  0
LINE
  8
0
  6
BYBLOCK
 62
     0
 10
8.962661
 20
16.806001
 30
0.0
 11
8.962661
 21
15.315371
 31
0.0
  0
LINE
  8
0
  6
BYBLOCK
 62
     0
 10
8.794661
 20
16.459548
 30
0.0
 11
8.794661
 21
15.315371
 31
0.0
  0
LINE
  8
0
  6
BYBLOCK
 62
     0
 10
9.322661
 20
15.501371
 30
0.0
 11
9.682661
 21
15.501371
 31
0.0
  0
LINE
  8
0
  6
BYBLOCK
 62
     0
 10
8.434661
 20
15.501371
 30
0.0
 11
8.074661
 21
15.501371
 31
0.0
  0
SOLID
  8
0
  6
BYBLOCK
 62
     0
 10
9.322661
 20
15.561371
 30
0.0
 11
9.322661
 21
15.441371
 31
0.0
 12
8.962661
 22
15.501371
 32
0.0
 13
8.962661
 23
15.501371
 33
0.0
  0
SOLID
  8
0
  6
BYBLOCK
 62
     0
 10
8.434661
 20
15.561371
 30
0.0
 11
8.434661
 21
15.441371
 31
0.0
 12
8.794661
 22
15.501371
 32
0.0
 13
8.794661
 23
15.501371
 33
0.0
  0
TEXT
  8
0
  6
BYBLOCK
 62
     0
 10
7.238411
 20
15.376371
 30
0.0
 40
0.25
  1
0.168
 41
0.75
  7
TXT
 72
     1
 11
7.566536
 21
15.501371
 31
0.0
 73
     2
  0
POINT
  8
DEFPOINTS
  6
BYBLOCK
 62
     0
 10
8.962661
 20
16.932001
 30
0.0
  0
POINT
  8
DEFPOINTS
  6
BYBLOCK
 62
     0
 10
8.794661
 20
16.585548
 30
0.0
  0
POINT
  8
DEFPOINTS
  6
BYBLOCK
 62
     0
 10
8.794661
 20
15.501371
 30
0.0
  0
ENDBLK
  8
0
  0
BLOCK
  8
0
  2
*D34
 70
    65
 10
0.0
 20
0.0
 30
0.0
  3
*D
  0
LINE
  8
0
  6
BYBLOCK
 62
     0
 10
23.365907
 20
16.806001
 30
0.0
 11
23.365907
 21
15.315371
 31
0.0
  0
LINE
  8
0
  6
BYBLOCK
 62
     0
 10
23.197907
 20
16.459548
 30
0.0
 11
23.197907
 21
15.315371
 31
0.0
  0
LINE
  8
0
  6
BYBLOCK
 62
     0
 10
23.725907
 20
15.501371
 30
0.0
 11
24.085907
 21
15.501371
 31
0.0
  0
LINE
  8
0
  6
BYBLOCK
 62
     0
 10
22.837907
 20
15.501371
 30
0.0
 11
22.477907
 21
15.501371
 31
0.0
  0
SOLID
  8
0
  6
BYBLOCK
 62
     0
 10
23.725907
 20
15.561371
 30
0.0
 11
23.725907
 21
15.441371
 31
0.0
 12
23.365907
 22
15.501371
 32
0.0
 13
23.365907
 23
15.501371
 33
0.0
  0
SOLID
  8
0
  6
BYBLOCK
 62
     0
 10
22.837907
 20
15.561371
 30
0.0
 11
22.837907
 21
15.441371
 31
0.0
 12
23.197907
 22
15.501371
 32
0.0
 13
23.197907
 23
15.501371
 33
0.0
  0
TEXT
  8
0
  6
BYBLOCK
 62
     0
 10
21.641657
 20
15.376371
 30
0.0
 40
0.25
  1
0.168
 41
0.75
  7
TXT
 72
     1
 11
21.969782
 21
15.501371
 31
0.0
 73
     2
  0
POINT
  8
DEFPOINTS
  6
BYBLOCK
 62
     0
 10
23.365907
 20
16.932001
 30
0.0
  0
POINT
  8
DEFPOINTS
  6
BYBLOCK
 62
     0
 10
23.197907
 20
16.585548
 30
0.0
  0
POINT
  8
DEFPOINTS
  6
BYBLOCK
 62
     0
 10
23.197907
 20
15.501371
 30
0.0
  0
ENDBLK
  8
0
  0
BLOCK
  8
0
  2
*D35
 70
    65
 10
0.0
 20
0.0
 30
0.0
  3
*D
  0
LINE
  8
0
  6
BYBLOCK
 62
     0
 10
20.725498
 20
18.841454
 30
0.0
 11
21.401121
 21
18.841454
 31
0.0
  0
LINE
  8
0
  6
BYBLOCK
 62
     0
 10
20.725498
 20
16.585548
 30
0.0
 11
21.401121
 21
16.585548
 31
0.0
  0
LINE
  8
0
  6
BYBLOCK
 62
     0
 10
21.215121
 20
18.481454
 30
0.0
 11
21.215121
 21
18.018501
 31
0.0
  0
LINE
  8
0
  6
BYBLOCK
 62
     0
 10
21.215121
 20
16.945548
 30
0.0
 11
21.215121
 21
17.408501
 31
0.0
  0
SOLID
  8
0
  6
BYBLOCK
 62
     0
 10
21.155121
 20
18.481454
 30
0.0
 11
21.275121
 21
18.481454
 31
0.0
 12
21.215121
 22
18.841454
 32
0.0
 13
21.215121
 23
18.841454
 33
0.0
  0
SOLID
  8
0
  6
BYBLOCK
 62
     0
 10
21.155121
 20
16.945548
 30
0.0
 11
21.275121
 21
16.945548
 31
0.0
 12
21.215121
 22
16.585548
 32
0.0
 13
21.215121
 23
16.585548
 33
0.0
  0
TEXT
  8
0
  6
BYBLOCK
 62
     0
 10
20.840121
 20
17.588501
 30
0.0
 40
0.25
  1
2.256
 41
0.75
  7
TXT
 72
     1
 11
21.215121
 21
17.713501
 31
0.0
 73
     2
  0
POINT
  8
DEFPOINTS
  6
BYBLOCK
 62
     0
 10
20.599498
 20
18.841454
 30
0.0
  0
POINT
  8
DEFPOINTS
  6
BYBLOCK
 62
     0
 10
20.599498
 20
16.585548
 30
0.0
  0
POINT
  8
DEFPOINTS
  6
BYBLOCK
 62
     0
 10
21.215121
 20
16.585548
 30
0.0
  0
ENDBLK
  8
0
  0
BLOCK
  8
0
  2
*D36
 70
    65
 10
0.0
 20
0.0
 30
0.0
  3
*D
  0
LINE
  8
0
  6
BYBLOCK
 62
     0
 10
14.44662
 20
5.485187
 30
0.0
 11
14.44662
 21
3.697913
 31
0.0
  0
LINE
  8
0
  6
BYBLOCK
 62
     0
 10
10.304445
 20
5.485187
 30
0.0
 11
10.304445
 21
3.697913
 31
0.0
  0
LINE
  8
0
  6
BYBLOCK
 62
     0
 10
14.08662
 20
3.883913
 30
0.0
 11
12.899282
 21
3.883913
 31
0.0
  0
LINE
  8
0
  6
BYBLOCK
 62
     0
 10
10.664445
 20
3.883913
 30
0.0
 11
11.851782
 21
3.883913
 31
0.0
  0
SOLID
  8
0
  6
BYBLOCK
 62
     0
 10
14.08662
 20
3.943913
 30
0.0
 11
14.08662
 21
3.823913
 31
0.0
 12
14.44662
 22
3.883913
 32
0.0
 13
14.44662
 23
3.883913
 33
0.0
  0
SOLID
  8
0
  6
BYBLOCK
 62
     0
 10
10.664445
 20
3.943913
 30
0.0
 11
10.664445
 21
3.823913
 31
0.0
 12
10.304445
 22
3.883913
 32
0.0
 13
10.304445
 23
3.883913
 33
0.0
  0
TEXT
  8
0
  6
BYBLOCK
 62
     0
 10
12.031782
 20
3.758913
 30
0.0
 40
0.25
  1
4.142
 41
0.75
  7
TXT
 72
     1
 11
12.375532
 21
3.883913
 31
0.0
 73
     2
  0
POINT
  8
DEFPOINTS
  6
BYBLOCK
 62
     0
 10
14.44662
 20
5.611187
 30
0.0
  0
POINT
  8
DEFPOINTS
  6
BYBLOCK
 62
     0
 10
10.304445
 20
5.611187
 30
0.0
  0
POINT
  8
DEFPOINTS
  6
BYBLOCK
 62
     0
 10
10.304445
 20
3.883913
 30
0.0
  0
ENDBLK
  8
0
  0
BLOCK
  8
0
  2
*D37
 70
    65
 10
0.0
 20
0.0
 30
0.0
  3
*D
  0
LINE
  8
0
  6
BYBLOCK
 62
     0
 10
19.216479
 20
5.327706
 30
0.0
 11
19.216479
 21
4.227466
 31
0.0
  0
LINE
  8
0
  6
BYBLOCK
 62
     0
 10
19.807031
 20
5.248966
 30
0.0
 11
19.807031
 21
4.227466
 31
0.0
  0
LINE
  8
0
  6
BYBLOCK
 62
     0
 10
18.856479
 20
4.413466
 30
0.0
 11
18.496479
 21
4.413466
 31
0.0
  0
LINE
  8
0
  6
BYBLOCK
 62
     0
 10
20.167031
 20
4.413466
 30
0.0
 11
20.527031
 21
4.413466
 31
0.0
  0
SOLID
  8
0
  6
BYBLOCK
 62
     0
 10
18.856479
 20
4.473466
 30
0.0
 11
18.856479
 21
4.353466
 31
0.0
 12
19.216479
 22
4.413466
 32
0.0
 13
19.216479
 23
4.413466
 33
0.0
  0
SOLID
  8
0
  6
BYBLOCK
 62
     0
 10
20.167031
 20
4.473466
 30
0.0
 11
20.167031
 21
4.353466
 31
0.0
 12
19.807031
 22
4.413466
 32
0.0
 13
19.807031
 23
4.413466
 33
0.0
  0
TEXT
  8
0
  6
BYBLOCK
 62
     0
 10
20.707031
 20
4.288466
 30
0.0
 40
0.25
  1
0.591
 41
0.75
  7
TXT
 72
     1
 11
21.035156
 21
4.413466
 31
0.0
 73
     2
  0
POINT
  8
DEFPOINTS
  6
BYBLOCK
 62
     0
 10
19.216479
 20
5.453706
 30
0.0
  0
POINT
  8
DEFPOINTS
  6
BYBLOCK
 62
     0
 10
19.807031
 20
5.374966
 30
0.0
  0
POINT
  8
DEFPOINTS
  6
BYBLOCK
 62
     0
 10
19.807031
 20
4.413466
 30
0.0
  0
ENDBLK
  8
0
  0
BLOCK
  8
0
  2
*D38
 70
    65
 10
0.0
 20
0.0
 30
0.0
  3
*D
  0
LINE
  8
0
  6
BYBLOCK
 62
     0
 10
24.335915
 20
5.409242
 30
0.0
 11
24.335915
 21
4.227466
 31
0.0
  0
LINE
  8
0
  6
BYBLOCK
 62
     0
 10
27.839854
 20
5.409242
 30
0.0
 11
27.839854
 21
4.227466
 31
0.0
  0
LINE
  8
0
  6
BYBLOCK
 62
     0
 10
24.695915
 20
4.413466
 30
0.0
 11
25.548509
 21
4.413466
 31
0.0
  0
LINE
  8
0
  6
BYBLOCK
 62
     0
 10
27.479854
 20
4.413466
 30
0.0
 11
26.627259
 21
4.413466
 31
0.0
  0
SOLID
  8
0
  6
BYBLOCK
 62
     0
 10
24.695915
 20
4.473466
 30
0.0
 11
24.695915
 21
4.353466
 31
0.0
 12
24.335915
 22
4.413466
 32
0.0
 13
24.335915
 23
4.413466
 33
0.0
  0
SOLID
  8
0
  6
BYBLOCK
 62
     0
 10
27.479854
 20
4.473466
 30
0.0
 11
27.479854
 21
4.353466
 31
0.0
 12
27.839854
 22
4.413466
 32
0.0
 13
27.839854
 23
4.413466
 33
0.0
  0
TEXT
  8
0
  6
BYBLOCK
 62
     0
 10
25.728509
 20
4.288466
 30
0.0
 40
0.25
  1
3.504
 41
0.75
  7
TXT
 72
     1
 11
26.087884
 21
4.413466
 31
0.0
 73
     2
  0
POINT
  8
DEFPOINTS
  6
BYBLOCK
 62
     0
 10
24.335915
 20
5.535242
 30
0.0
  0
POINT
  8
DEFPOINTS
  6
BYBLOCK
 62
     0
 10
27.839854
 20
5.535242
 30
0.0
  0
POINT
  8
DEFPOINTS
  6
BYBLOCK
 62
     0
 10
27.839854
 20
4.413466
 30
0.0
  0
ENDBLK
  8
0
  0
BLOCK
  8
0
  2
*D39
 70
    65
 10
0.0
 20
0.0
 30
0.0
  3
*D
  0
LINE
  8
0
  6
BYBLOCK
 62
     0
 10
24.335915
 20
5.409242
 30
0.0
 11
24.335915
 21
4.227466
 31
0.0
  0
LINE
  8
0
  6
BYBLOCK
 62
     0
 10
24.016797
 20
5.513966
 30
0.0
 11
24.016797
 21
4.227466
 31
0.0
  0
LINE
  8
0
  6
BYBLOCK
 62
     0
 10
24.695915
 20
4.413466
 30
0.0
 11
25.055915
 21
4.413466
 31
0.0
  0
LINE
  8
0
  6
BYBLOCK
 62
     0
 10
23.656797
 20
4.413466
 30
0.0
 11
23.296797
 21
4.413466
 31
0.0
  0
SOLID
  8
0
  6
BYBLOCK
 62
     0
 10
24.695915
 20
4.473466
 30
0.0
 11
24.695915
 21
4.353466
 31
0.0
 12
24.335915
 22
4.413466
 32
0.0
 13
24.335915
 23
4.413466
 33
0.0
  0
SOLID
  8
0
  6
BYBLOCK
 62
     0
 10
23.656797
 20
4.473466
 30
0.0
 11
23.656797
 21
4.353466
 31
0.0
 12
24.016797
 22
4.413466
 32
0.0
 13
24.016797
 23
4.413466
 33
0.0
  0
TEXT
  8
0
  6
BYBLOCK
 62
     0
 10
22.460547
 20
4.288466
 30
0.0
 40
0.25
  1
0.319
 41
0.75
  7
TXT
 72
     1
 11
22.788672
 21
4.413466
 31
0.0
 73
     2
  0
POINT
  8
DEFPOINTS
  6
BYBLOCK
 62
     0
 10
24.335915
 20
5.535242
 30
0.0
  0
POINT
  8
DEFPOINTS
  6
BYBLOCK
 62
     0
 10
24.016797
 20
5.639966
 30
0.0
  0
POINT
  8
DEFPOINTS
  6
BYBLOCK
 62
     0
 10
24.016797
 20
4.413466
 30
0.0
  0
ENDBLK
  8
0
  0
BLOCK
  8
0
  2
*D40
 70
    65
 10
0.0
 20
0.0
 30
0.0
  3
*D
  0
LINE
  8
0
  6
BYBLOCK
 62
     0
 10
19.819944
 20
5.248966
 30
0.0
 11
19.819944
 21
4.705469
 31
0.0
  0
LINE
  8
0
  6
BYBLOCK
 62
     0
 10
20.536479
 20
5.485187
 30
0.0
 11
20.536479
 21
4.705469
 31
0.0
  0
LINE
  8
0
  6
BYBLOCK
 62
     0
 10
19.459944
 20
4.891469
 30
0.0
 11
19.099944
 21
4.891469
 31
0.0
  0
LINE
  8
0
  6
BYBLOCK
 62
     0
 10
20.896479
 20
4.891469
 30
0.0
 11
21.256479
 21
4.891469
 31
0.0
  0
SOLID
  8
0
  6
BYBLOCK
 62
     0
 10
19.459944
 20
4.951469
 30
0.0
 11
19.459944
 21
4.831469
 31
0.0
 12
19.819944
 22
4.891469
 32
0.0
 13
19.819944
 23
4.891469
 33
0.0
  0
SOLID
  8
0
  6
BYBLOCK
 62
     0
 10
20.896479
 20
4.951469
 30
0.0
 11
20.896479
 21
4.831469
 31
0.0
 12
20.536479
 22
4.891469
 32
0.0
 13
20.536479
 23
4.891469
 33
0.0
  0
TEXT
  8
0
  6
BYBLOCK
 62
     0
 10
21.436479
 20
4.766469
 30
0.0
 40
0.25
  1
0.717
 41
0.75
  7
TXT
 72
     1
 11
21.764604
 21
4.891469
 31
0.0
 73
     2
  0
POINT
  8
DEFPOINTS
  6
BYBLOCK
 62
     0
 10
19.819944
 20
5.374966
 30
0.0
  0
POINT
  8
DEFPOINTS
  6
BYBLOCK
 62
     0
 10
20.536479
 20
5.611187
 30
0.0
  0
POINT
  8
DEFPOINTS
  6
BYBLOCK
 62
     0
 10
20.536479
 20
4.891469
 30
0.0
  0
ENDBLK
  8
0
  0
BLOCK
  8
0
  2
*D41
 70
    65
 10
0.0
 20
0.0
 30
0.0
  3
*D
  0
LINE
  8
0
  6
BYBLOCK
 62
     0
 10
19.216479
 20
5.327706
 30
0.0
 11
19.216479
 21
3.697913
 31
0.0
  0
LINE
  8
0
  6
BYBLOCK
 62
     0
 10
20.536479
 20
5.485187
 30
0.0
 11
20.536479
 21
3.697913
 31
0.0
  0
LINE
  8
0
  6
BYBLOCK
 62
     0
 10
18.856479
 20
3.883913
 30
0.0
 11
18.496479
 21
3.883913
 31
0.0
  0
LINE
  8
0
  6
BYBLOCK
 62
     0
 10
20.896479
 20
3.883913
 30
0.0
 11
21.256479
 21
3.883913
 31
0.0
  0
SOLID
  8
0
  6
BYBLOCK
 62
     0
 10
18.856479
 20
3.943913
 30
0.0
 11
18.856479
 21
3.823913
 31
0.0
 12
19.216479
 22
3.883913
 32
0.0
 13
19.216479
 23
3.883913
 33
0.0
  0
SOLID
  8
0
  6
BYBLOCK
 62
     0
 10
20.896479
 20
3.943913
 30
0.0
 11
20.896479
 21
3.823913
 31
0.0
 12
20.536479
 22
3.883913
 32
0.0
 13
20.536479
 23
3.883913
 33
0.0
  0
TEXT
  8
0
  6
BYBLOCK
 62
     0
 10
19.548354
 20
3.758913
 30
0.0
 40
0.25
  1
1.320
 41
0.75
  7
TXT
 72
     1
 11
19.876479
 21
3.883913
 31
0.0
 73
     2
  0
POINT
  8
DEFPOINTS
  6
BYBLOCK
 62
     0
 10
19.216479
 20
5.453706
 30
0.0
  0
POINT
  8
DEFPOINTS
  6
BYBLOCK
 62
     0
 10
20.536479
 20
5.611187
 30
0.0
  0
POINT
  8
DEFPOINTS
  6
BYBLOCK
 62
     0
 10
20.536479
 20
3.883913
 30
0.0
  0
ENDBLK
  8
0
  0
BLOCK
  8
0
  2
*D42
 70
    65
 10
0.0
 20
0.0
 30
0.0
  3
*D
  0
LINE
  8
0
  6
BYBLOCK
 62
     0
 10
4.119931
 20
5.839517
 30
0.0
 11
4.119931
 21
3.136406
 31
0.0
  0
LINE
  8
0
  6
BYBLOCK
 62
     0
 10
3.789222
 20
5.485187
 30
0.0
 11
3.789222
 21
3.136406
 31
0.0
  0
LINE
  8
0
  6
BYBLOCK
 62
     0
 10
4.479931
 20
3.322406
 30
0.0
 11
4.839931
 21
3.322406
 31
0.0
  0
LINE
  8
0
  6
BYBLOCK
 62
     0
 10
3.429222
 20
3.322406
 30
0.0
 11
3.069222
 21
3.322406
 31
0.0
  0
SOLID
  8
0
  6
BYBLOCK
 62
     0
 10
4.479931
 20
3.382406
 30
0.0
 11
4.479931
 21
3.262406
 31
0.0
 12
4.119931
 22
3.322406
 32
0.0
 13
4.119931
 23
3.322406
 33
0.0
  0
SOLID
  8
0
  6
BYBLOCK
 62
     0
 10
3.429222
 20
3.382406
 30
0.0
 11
3.429222
 21
3.262406
 31
0.0
 12
3.789222
 22
3.322406
 32
0.0
 13
3.789222
 23
3.322406
 33
0.0
  0
TEXT
  8
0
  6
BYBLOCK
 62
     0
 10
2.232972
 20
3.197406
 30
0.0
 40
0.25
  1
0.331
 41
0.75
  7
TXT
 72
     1
 11
2.561097
 21
3.322406
 31
0.0
 73
     2
  0
POINT
  8
DEFPOINTS
  6
BYBLOCK
 62
     0
 10
4.119931
 20
5.965517
 30
0.0
  0
POINT
  8
DEFPOINTS
  6
BYBLOCK
 62
     0
 10
3.789222
 20
5.611187
 30
0.0
  0
POINT
  8
DEFPOINTS
  6
BYBLOCK
 62
     0
 10
3.789222
 20
3.322406
 30
0.0
  0
ENDBLK
  8
0
  0
BLOCK
  8
0
  2
*D43
 70
    65
 10
0.0
 20
0.0
 30
0.0
  3
*D
  0
LINE
  8
0
  6
BYBLOCK
 62
     0
 10
3.883222
 20
5.430742
 30
0.0
 11
3.883222
 21
3.697913
 31
0.0
  0
LINE
  8
0
  6
BYBLOCK
 62
     0
 10
3.789222
 20
5.485187
 30
0.0
 11
3.789222
 21
3.697913
 31
0.0
  0
LINE
  8
0
  6
BYBLOCK
 62
     0
 10
4.243222
 20
3.883913
 30
0.0
 11
4.603222
 21
3.883913
 31
0.0
  0
LINE
  8
0
  6
BYBLOCK
 62
     0
 10
3.429222
 20
3.883913
 30
0.0
 11
3.069222
 21
3.883913
 31
0.0
  0
SOLID
  8
0
  6
BYBLOCK
 62
     0
 10
4.243222
 20
3.943913
 30
0.0
 11
4.243222
 21
3.823913
 31
0.0
 12
3.883222
 22
3.883913
 32
0.0
 13
3.883222
 23
3.883913
 33
0.0
  0
SOLID
  8
0
  6
BYBLOCK
 62
     0
 10
3.429222
 20
3.943913
 30
0.0
 11
3.429222
 21
3.823913
 31
0.0
 12
3.789222
 22
3.883913
 32
0.0
 13
3.789222
 23
3.883913
 33
0.0
  0
TEXT
  8
0
  6
BYBLOCK
 62
     0
 10
2.201722
 20
3.758913
 30
0.0
 40
0.25
  1
0.094
 41
0.75
  7
TXT
 72
     1
 11
2.545472
 21
3.883913
 31
0.0
 73
     2
  0
POINT
  8
DEFPOINTS
  6
BYBLOCK
 62
     0
 10
3.883222
 20
5.556742
 30
0.0
  0
POINT
  8
DEFPOINTS
  6
BYBLOCK
 62
     0
 10
3.789222
 20
5.611187
 30
0.0
  0
POINT
  8
DEFPOINTS
  6
BYBLOCK
 62
     0
 10
3.789222
 20
3.883913
 30
0.0
  0
ENDBLK
  8
0
  0
BLOCK
  8
0
  2
*D44
 70
    65
 10
0.0
 20
0.0
 30
0.0
  3
*D
  0
LINE
  8
0
  6
BYBLOCK
 62
     0
 10
4.933711
 20
5.392076
 30
0.0
 11
4.933711
 21
2.569785
 31
0.0
  0
LINE
  8
0
  6
BYBLOCK
 62
     0
 10
3.883711
 20
5.392076
 30
0.0
 11
3.883711
 21
2.569785
 31
0.0
  0
LINE
  8
0
  6
BYBLOCK
 62
     0
 10
5.293711
 20
2.755785
 30
0.0
 11
5.653711
 21
2.755785
 31
0.0
  0
LINE
  8
0
  6
BYBLOCK
 62
     0
 10
3.523711
 20
2.755785
 30
0.0
 11
3.163711
 21
2.755785
 31
0.0
  0
SOLID
  8
0
  6
BYBLOCK
 62
     0
 10
5.293711
 20
2.815785
 30
0.0
 11
5.293711
 21
2.695785
 31
0.0
 12
4.933711
 22
2.755785
 32
0.0
 13
4.933711
 23
2.755785
 33
0.0
  0
SOLID
  8
0
  6
BYBLOCK
 62
     0
 10
3.523711
 20
2.815785
 30
0.0
 11
3.523711
 21
2.695785
 31
0.0
 12
3.883711
 22
2.755785
 32
0.0
 13
3.883711
 23
2.755785
 33
0.0
  0
TEXT
  8
0
  6
BYBLOCK
 62
     0
 10
1.858711
 20
2.630785
 30
0.0
 40
0.25
  1
 INSIDE
 41
0.75
  7
TXT
 72
     1
 11
2.421211
 21
2.755785
 31
0.0
 73
     2
  0
TEXT
  8
0
  6
BYBLOCK
 62
     0
 10
1.171211
 20
2.630785
 30
0.0
 40
0.25
  1
1.050
 41
0.75
  7
TXT
 72
     1
 11
1.483711
 21
2.755785
 31
0.0
 73
     2
  0
POINT
  8
DEFPOINTS
  6
BYBLOCK
 62
     0
 10
4.933711
 20
5.518076
 30
0.0
  0
POINT
  8
DEFPOINTS
  6
BYBLOCK
 62
     0
 10
3.883711
 20
5.518076
 30
0.0
  0
POINT
  8
DEFPOINTS
  6
BYBLOCK
 62
     0
 10
3.883711
 20
2.755785
 30
0.0
  0
ENDBLK
  8
0
  0
BLOCK
  8
0
  2
*D45
 70
    65
 10
0.0
 20
0.0
 30
0.0
  3
*D
  0
LINE
  8
0
  6
BYBLOCK
 62
     0
 10
28.100854
 20
5.670242
 30
0.0
 11
29.718133
 21
5.670242
 31
0.0
  0
LINE
  8
0
  6
BYBLOCK
 62
     0
 10
28.034752
 20
5.374966
 30
0.0
 11
29.718133
 21
5.374966
 31
0.0
  0
LINE
  8
0
  6
BYBLOCK
 62
     0
 10
29.532133
 20
6.030242
 30
0.0
 11
29.532133
 21
6.390242
 31
0.0
  0
LINE
  8
0
  6
BYBLOCK
 62
     0
 10
29.532133
 20
5.014966
 30
0.0
 11
29.532133
 21
4.654966
 31
0.0
  0
LINE
  8
0
  6
BYBLOCK
 62
     0
 10
29.532133
 20
4.654966
 30
0.0
 11
29.172133
 21
4.654966
 31
0.0
  0
SOLID
  8
0
  6
BYBLOCK
 62
     0
 10
29.472133
 20
6.030242
 30
0.0
 11
29.592133
 21
6.030242
 31
0.0
 12
29.532133
 22
5.670242
 32
0.0
 13
29.532133
 23
5.670242
 33
0.0
  0
SOLID
  8
0
  6
BYBLOCK
 62
     0
 10
29.472133
 20
5.014966
 30
0.0
 11
29.592133
 21
5.014966
 31
0.0
 12
29.532133
 22
5.374966
 32
0.0
 13
29.532133
 23
5.374966
 33
0.0
  0
TEXT
  8
0
  6
BYBLOCK
 62
     0
 10
28.273383
 20
4.529966
 30
0.0
 40
0.25
  1
0.295
 41
0.75
  7
TXT
 72
     1
 11
28.632758
 21
4.654966
 31
0.0
 73
     2
  0
POINT
  8
DEFPOINTS
  6
BYBLOCK
 62
     0
 10
27.974854
 20
5.670242
 30
0.0
  0
POINT
  8
DEFPOINTS
  6
BYBLOCK
 62
     0
 10
27.908752
 20
5.374966
 30
0.0
  0
POINT
  8
DEFPOINTS
  6
BYBLOCK
 62
     0
 10
29.532133
 20
5.374966
 30
0.0
  0
ENDBLK
  8
0
  0
BLOCK
  8
0
  2
*D46
 70
    65
 10
0.0
 20
0.0
 30
0.0
  3
*D
  0
LINE
  8
0
  6
BYBLOCK
 62
     0
 10
28.100854
 20
5.670242
 30
0.0
 11
29.718133
 21
5.670242
 31
0.0
  0
LINE
  8
0
  6
BYBLOCK
 62
     0
 10
28.100854
 20
12.520639
 30
0.0
 11
29.718133
 21
12.520639
 31
0.0
  0
LINE
  8
0
  6
BYBLOCK
 62
     0
 10
29.532133
 20
6.030242
 30
0.0
 11
29.532133
 21
8.79044
 31
0.0
  0
LINE
  8
0
  6
BYBLOCK
 62
     0
 10
29.532133
 20
12.160639
 30
0.0
 11
29.532133
 21
9.40044
 31
0.0
  0
SOLID
  8
0
  6
BYBLOCK
 62
     0
 10
29.472133
 20
6.030242
 30
0.0
 11
29.592133
 21
6.030242
 31
0.0
 12
29.532133
 22
5.670242
 32
0.0
 13
29.532133
 23
5.670242
 33
0.0
  0
SOLID
  8
0
  6
BYBLOCK
 62
     0
 10
29.472133
 20
12.160639
 30
0.0
 11
29.592133
 21
12.160639
 31
0.0
 12
29.532133
 22
12.520639
 32
0.0
 13
29.532133
 23
12.520639
 33
0.0
  0
TEXT
  8
0
  6
BYBLOCK
 62
     0
 10
29.172758
 20
8.97044
 30
0.0
 40
0.25
  1
6.850
 41
0.75
  7
TXT
 72
     1
 11
29.532133
 21
9.09544
 31
0.0
 73
     2
  0
POINT
  8
DEFPOINTS
  6
BYBLOCK
 62
     0
 10
27.974854
 20
5.670242
 30
0.0
  0
POINT
  8
DEFPOINTS
  6
BYBLOCK
 62
     0
 10
27.974854
 20
12.520639
 30
0.0
  0
POINT
  8
DEFPOINTS
  6
BYBLOCK
 62
     0
 10
29.532133
 20
12.520639
 30
0.0
  0
ENDBLK
  8
0
  0
BLOCK
  8
0
  2
*D47
 70
    65
 10
0.0
 20
0.0
 30
0.0
  3
*D
  0
LINE
  8
0
  6
BYBLOCK
 62
     0
 10
27.414672
 20
11.232056
 30
0.0
 11
29.062633
 21
11.232056
 31
0.0
  0
LINE
  8
0
  6
BYBLOCK
 62
     0
 10
28.034752
 20
12.865915
 30
0.0
 11
29.062633
 21
12.865915
 31
0.0
  0
LINE
  8
0
  6
BYBLOCK
 62
     0
 10
28.876633
 20
10.872056
 30
0.0
 11
28.876633
 21
10.512056
 31
0.0
  0
LINE
  8
0
  6
BYBLOCK
 62
     0
 10
28.876633
 20
13.225915
 30
0.0
 11
28.876633
 21
13.585915
 31
0.0
  0
SOLID
  8
0
  6
BYBLOCK
 62
     0
 10
28.816633
 20
10.872056
 30
0.0
 11
28.936633
 21
10.872056
 31
0.0
 12
28.876633
 22
11.232056
 32
0.0
 13
28.876633
 23
11.232056
 33
0.0
  0
SOLID
  8
0
  6
BYBLOCK
 62
     0
 10
28.816633
 20
13.225915
 30
0.0
 11
28.936633
 21
13.225915
 31
0.0
 12
28.876633
 22
12.865915
 32
0.0
 13
28.876633
 23
12.865915
 33
0.0
  0
TEXT
  8
0
  6
BYBLOCK
 62
     0
 10
28.532883
 20
11.923985
 30
0.0
 40
0.25
  1
1.634
 41
0.75
  7
TXT
 72
     1
 11
28.876633
 21
12.048985
 31
0.0
 73
     2
  0
POINT
  8
DEFPOINTS
  6
BYBLOCK
 62
     0
 10
27.288672
 20
11.232056
 30
0.0
  0
POINT
  8
DEFPOINTS
  6
BYBLOCK
 62
     0
 10
27.908752
 20
12.865915
 30
0.0
  0
POINT
  8
DEFPOINTS
  6
BYBLOCK
 62
     0
 10
28.876633
 20
12.865915
 30
0.0
  0
ENDBLK
  8
0
  0
BLOCK
  8
0
  2
*D48
 70
    65
 10
0.0
 20
0.0
 30
0.0
  3
*D
  0
LINE
  8
0
  6
BYBLOCK
 62
     0
 10
26.087884
 20
10.503122
 30
0.0
 11
26.087884
 21
13.397218
 31
0.0
  0
LINE
  8
0
  6
BYBLOCK
 62
     0
 10
24.414655
 20
9.434759
 30
0.0
 11
24.414655
 21
13.397218
 31
0.0
  0
LINE
  8
0
  6
BYBLOCK
 62
     0
 10
26.447884
 20
13.211218
 30
0.0
 11
26.807884
 21
13.211218
 31
0.0
  0
LINE
  8
0
  6
BYBLOCK
 62
     0
 10
24.054655
 20
13.211218
 30
0.0
 11
23.694655
 21
13.211218
 31
0.0
  0
SOLID
  8
0
  6
BYBLOCK
 62
     0
 10
26.447884
 20
13.271218
 30
0.0
 11
26.447884
 21
13.151218
 31
0.0
 12
26.087884
 22
13.211218
 32
0.0
 13
26.087884
 23
13.211218
 33
0.0
  0
SOLID
  8
0
  6
BYBLOCK
 62
     0
 10
24.054655
 20
13.271218
 30
0.0
 11
24.054655
 21
13.151218
 31
0.0
 12
24.414655
 22
13.211218
 32
0.0
 13
24.414655
 23
13.211218
 33
0.0
  0
TEXT
  8
0
  6
BYBLOCK
 62
     0
 10
22.827155
 20
13.086218
 30
0.0
 40
0.25
  1
1.673
 41
0.75
  7
TXT
 72
     1
 11
23.170905
 21
13.211218
 31
0.0
 73
     2
  0
POINT
  8
DEFPOINTS
  6
BYBLOCK
 62
     0
 10
26.087884
 20
10.377122
 30
0.0
  0
POINT
  8
DEFPOINTS
  6
BYBLOCK
 62
     0
 10
24.414655
 20
9.308759
 30
0.0
  0
POINT
  8
DEFPOINTS
  6
BYBLOCK
 62
     0
 10
24.414655
 20
13.211218
 30
0.0
  0
ENDBLK
  8
0
  0
BLOCK
  8
0
  2
*D49
 70
    65
 10
0.0
 20
0.0
 30
0.0
  3
*D
  0
LINE
  8
0
  6
BYBLOCK
 62
     0
 10
24.414655
 20
9.434759
 30
0.0
 11
24.414655
 21
13.978938
 31
0.0
  0
LINE
  8
0
  6
BYBLOCK
 62
     0
 10
24.016797
 20
12.532218
 30
0.0
 11
24.016797
 21
13.978938
 31
0.0
  0
LINE
  8
0
  6
BYBLOCK
 62
     0
 10
24.774655
 20
13.792938
 30
0.0
 11
25.134655
 21
13.792938
 31
0.0
  0
LINE
  8
0
  6
BYBLOCK
 62
     0
 10
23.656797
 20
13.792938
 30
0.0
 11
23.296797
 21
13.792938
 31
0.0
  0
SOLID
  8
0
  6
BYBLOCK
 62
     0
 10
24.774655
 20
13.852938
 30
0.0
 11
24.774655
 21
13.732938
 31
0.0
 12
24.414655
 22
13.792938
 32
0.0
 13
24.414655
 23
13.792938
 33
0.0
  0
SOLID
  8
0
  6
BYBLOCK
 62
     0
 10
23.656797
 20
13.852938
 30
0.0
 11
23.656797
 21
13.732938
 31
0.0
 12
24.016797
 22
13.792938
 32
0.0
 13
24.016797
 23
13.792938
 33
0.0
  0
TEXT
  8
0
  6
BYBLOCK
 62
     0
 10
22.398047
 20
13.667938
 30
0.0
 40
0.25
  1
0.398
 41
0.75
  7
TXT
 72
     1
 11
22.757422
 21
13.792938
 31
0.0
 73
     2
  0
POINT
  8
DEFPOINTS
  6
BYBLOCK
 62
     0
 10
24.414655
 20
9.308759
 30
0.0
  0
POINT
  8
DEFPOINTS
  6
BYBLOCK
 62
     0
 10
24.016797
 20
12.406218
 30
0.0
  0
POINT
  8
DEFPOINTS
  6
BYBLOCK
 62
     0
 10
24.016797
 20
13.792938
 30
0.0
  0
ENDBLK
  8
0
  0
BLOCK
  8
0
  2
*D50
 70
    65
 10
0.0
 20
0.0
 30
0.0
  3
*D
  0
LINE
  8
0
  6
BYBLOCK
 62
     0
 10
24.414655
 20
9.434759
 30
0.0
 11
24.414655
 21
13.978938
 31
0.0
  0
LINE
  8
0
  6
BYBLOCK
 62
     0
 10
27.761114
 20
9.434759
 30
0.0
 11
27.761114
 21
13.978938
 31
0.0
  0
LINE
  8
0
  6
BYBLOCK
 62
     0
 10
24.774655
 20
13.792938
 30
0.0
 11
25.532884
 21
13.792938
 31
0.0
  0
LINE
  8
0
  6
BYBLOCK
 62
     0
 10
27.401114
 20
13.792938
 30
0.0
 11
26.642884
 21
13.792938
 31
0.0
  0
SOLID
  8
0
  6
BYBLOCK
 62
     0
 10
24.774655
 20
13.852938
 30
0.0
 11
24.774655
 21
13.732938
 31
0.0
 12
24.414655
 22
13.792938
 32
0.0
 13
24.414655
 23
13.792938
 33
0.0
  0
SOLID
  8
0
  6
BYBLOCK
 62
     0
 10
27.401114
 20
13.852938
 30
0.0
 11
27.401114
 21
13.732938
 31
0.0
 12
27.761114
 22
13.792938
 32
0.0
 13
27.761114
 23
13.792938
 33
0.0
  0
TEXT
  8
0
  6
BYBLOCK
 62
     0
 10
25.712884
 20
13.667938
 30
0.0
 40
0.25
  1
3.346
 41
0.75
  7
TXT
 72
     1
 11
26.087884
 21
13.792938
 31
0.0
 73
     2
  0
POINT
  8
DEFPOINTS
  6
BYBLOCK
 62
     0
 10
24.414655
 20
9.308759
 30
0.0
  0
POINT
  8
DEFPOINTS
  6
BYBLOCK
 62
     0
 10
27.761114
 20
9.308759
 30
0.0
  0
POINT
  8
DEFPOINTS
  6
BYBLOCK
 62
     0
 10
27.761114
 20
13.792938
 30
0.0
  0
ENDBLK
  8
0
  0
BLOCK
  8
0
  2
*D51
 70
    65
 10
0.0
 20
0.0
 30
0.0
  3
*D
  0
LINE
  8
0
  6
BYBLOCK
 62
     0
 10
24.288655
 20
5.888931
 30
0.0
 11
22.986685
 21
5.888931
 31
0.0
  0
LINE
  8
0
  6
BYBLOCK
 62
     0
 10
24.155797
 20
5.180269
 30
0.0
 11
22.986685
 21
5.180269
 31
0.0
  0
LINE
  8
0
  6
BYBLOCK
 62
     0
 10
23.172685
 20
6.248931
 30
0.0
 11
23.172685
 21
6.608931
 31
0.0
  0
LINE
  8
0
  6
BYBLOCK
 62
     0
 10
23.172685
 20
4.820269
 30
0.0
 11
23.172685
 21
4.460269
 31
0.0
  0
SOLID
  8
0
  6
BYBLOCK
 62
     0
 10
23.112685
 20
6.248931
 30
0.0
 11
23.232685
 21
6.248931
 31
0.0
 12
23.172685
 22
5.888931
 32
0.0
 13
23.172685
 23
5.888931
 33
0.0
  0
SOLID
  8
0
  6
BYBLOCK
 62
     0
 10
23.112685
 20
4.820269
 30
0.0
 11
23.232685
 21
4.820269
 31
0.0
 12
23.172685
 22
5.180269
 32
0.0
 13
23.172685
 23
5.180269
 33
0.0
  0
TEXT
  8
0
  6
BYBLOCK
 62
     0
 10
22.828935
 20
5.4096
 30
0.0
 40
0.25
  1
0.709
 41
0.75
  7
TXT
 72
     1
 11
23.172685
 21
5.5346
 31
0.0
 73
     2
  0
POINT
  8
DEFPOINTS
  6
BYBLOCK
 62
     0
 10
24.414655
 20
5.888931
 30
0.0
  0
POINT
  8
DEFPOINTS
  6
BYBLOCK
 62
     0
 10
24.281797
 20
5.180269
 30
0.0
  0
POINT
  8
DEFPOINTS
  6
BYBLOCK
 62
     0
 10
23.172685
 20
5.180269
 30
0.0
  0
ENDBLK
  8
0
  0
BLOCK
  8
0
  2
*D52
 70
    65
 10
0.0
 20
0.0
 30
0.0
  3
*D
  0
LINE
  8
0
  6
BYBLOCK
 62
     0
 10
25.961884
 20
10.377122
 30
0.0
 11
22.986685
 21
10.377122
 31
0.0
  0
LINE
  8
0
  6
BYBLOCK
 62
     0
 10
24.288655
 20
9.308759
 30
0.0
 11
22.986685
 21
9.308759
 31
0.0
  0
LINE
  8
0
  6
BYBLOCK
 62
     0
 10
23.172685
 20
10.737122
 30
0.0
 11
23.172685
 21
11.097122
 31
0.0
  0
LINE
  8
0
  6
BYBLOCK
 62
     0
 10
23.172685
 20
8.948759
 30
0.0
 11
23.172685
 21
8.588759
 31
0.0
  0
SOLID
  8
0
  6
BYBLOCK
 62
     0
 10
23.112685
 20
10.737122
 30
0.0
 11
23.232685
 21
10.737122
 31
0.0
 12
23.172685
 22
10.377122
 32
0.0
 13
23.172685
 23
10.377122
 33
0.0
  0
SOLID
  8
0
  6
BYBLOCK
 62
     0
 10
23.112685
 20
8.948759
 30
0.0
 11
23.232685
 21
8.948759
 31
0.0
 12
23.172685
 22
9.308759
 32
0.0
 13
23.172685
 23
9.308759
 33
0.0
  0
TEXT
  8
0
  6
BYBLOCK
 62
     0
 10
22.84456
 20
9.717941
 30
0.0
 40
0.25
  1
1.068
 41
0.75
  7
TXT
 72
     1
 11
23.172685
 21
9.842941
 31
0.0
 73
     2
  0
POINT
  8
DEFPOINTS
  6
BYBLOCK
 62
     0
 10
26.087884
 20
10.377122
 30
0.0
  0
POINT
  8
DEFPOINTS
  6
BYBLOCK
 62
     0
 10
24.414655
 20
9.308759
 30
0.0
  0
POINT
  8
DEFPOINTS
  6
BYBLOCK
 62
     0
 10
23.172685
 20
9.308759
 30
0.0
  0
ENDBLK
  8
0
  0
BLOCK
  8
0
  2
*D53
 70
    65
 10
0.0
 20
0.0
 30
0.0
  3
*D
  0
LINE
  8
0
  6
BYBLOCK
 62
     0
 10
24.288655
 20
9.308759
 30
0.0
 11
22.986685
 21
9.308759
 31
0.0
  0
LINE
  8
0
  6
BYBLOCK
 62
     0
 10
24.288655
 20
5.888931
 30
0.0
 11
22.986685
 21
5.888931
 31
0.0
  0
LINE
  8
0
  6
BYBLOCK
 62
     0
 10
23.172685
 20
8.948759
 30
0.0
 11
23.172685
 21
7.903845
 31
0.0
  0
LINE
  8
0
  6
BYBLOCK
 62
     0
 10
23.172685
 20
6.248931
 30
0.0
 11
23.172685
 21
7.293845
 31
0.0
  0
SOLID
  8
0
  6
BYBLOCK
 62
     0
 10
23.112685
 20
8.948759
 30
0.0
 11
23.232685
 21
8.948759
 31
0.0
 12
23.172685
 22
9.308759
 32
0.0
 13
23.172685
 23
9.308759
 33
0.0
  0
SOLID
  8
0
  6
BYBLOCK
 62
     0
 10
23.112685
 20
6.248931
 30
0.0
 11
23.232685
 21
6.248931
 31
0.0
 12
23.172685
 22
5.888931
 32
0.0
 13
23.172685
 23
5.888931
 33
0.0
  0
TEXT
  8
0
  6
BYBLOCK
 62
     0
 10
22.81331
 20
7.473845
 30
0.0
 40
0.25
  1
3.420
 41
0.75
  7
TXT
 72
     1
 11
23.172685
 21
7.598845
 31
0.0
 73
     2
  0
POINT
  8
DEFPOINTS
  6
BYBLOCK
 62
     0
 10
24.414655
 20
9.308759
 30
0.0
  0
POINT
  8
DEFPOINTS
  6
BYBLOCK
 62
     0
 10
24.414655
 20
5.888931
 30
0.0
  0
POINT
  8
DEFPOINTS
  6
BYBLOCK
 62
     0
 10
23.172685
 20
5.888931
 30
0.0
  0
ENDBLK
  8
0
  0
BLOCK
  8
0
  2
*D54
 70
    65
 10
0.0
 20
0.0
 30
0.0
  3
*D
  0
LINE
  8
0
  6
BYBLOCK
 62
     0
 10
10.414665
 20
5.180269
 30
0.0
 11
9.387759
 21
5.180269
 31
0.0
  0
LINE
  8
0
  6
BYBLOCK
 62
     0
 10
10.974988
 20
9.884747
 30
0.0
 11
9.387759
 21
9.884747
 31
0.0
  0
LINE
  8
0
  6
BYBLOCK
 62
     0
 10
9.573759
 20
5.540269
 30
0.0
 11
9.573759
 21
7.227508
 31
0.0
  0
LINE
  8
0
  6
BYBLOCK
 62
     0
 10
9.573759
 20
9.524747
 30
0.0
 11
9.573759
 21
7.837508
 31
0.0
  0
SOLID
  8
0
  6
BYBLOCK
 62
     0
 10
9.513759
 20
5.540269
 30
0.0
 11
9.633759
 21
5.540269
 31
0.0
 12
9.573759
 22
5.180269
 32
0.0
 13
9.573759
 23
5.180269
 33
0.0
  0
SOLID
  8
0
  6
BYBLOCK
 62
     0
 10
9.513759
 20
9.524747
 30
0.0
 11
9.633759
 21
9.524747
 31
0.0
 12
9.573759
 22
9.884747
 32
0.0
 13
9.573759
 23
9.884747
 33
0.0
  0
TEXT
  8
0
  6
BYBLOCK
 62
     0
 10
9.214384
 20
7.407508
 30
0.0
 40
0.25
  1
4.704
 41
0.75
  7
TXT
 72
     1
 11
9.573759
 21
7.532508
 31
0.0
 73
     2
  0
POINT
  8
DEFPOINTS
  6
BYBLOCK
 62
     0
 10
10.540665
 20
5.180269
 30
0.0
  0
POINT
  8
DEFPOINTS
  6
BYBLOCK
 62
     0
 10
11.100988
 20
9.884747
 30
0.0
  0
POINT
  8
DEFPOINTS
  6
BYBLOCK
 62
     0
 10
9.573759
 20
9.884747
 30
0.0
  0
ENDBLK
  8
0
  0
BLOCK
  8
0
  2
*D55
 70
    65
 10
0.0
 20
0.0
 30
0.0
  3
*D
  0
LINE
  8
0
  6
BYBLOCK
 62
     0
 10
10.960988
 20
9.884747
 30
0.0
 11
9.387759
 21
9.884747
 31
0.0
  0
LINE
  8
0
  6
BYBLOCK
 62
     0
 10
10.960988
 20
11.678546
 30
0.0
 11
9.387759
 21
11.678546
 31
0.0
  0
LINE
  8
0
  6
BYBLOCK
 62
     0
 10
9.573759
 20
10.244747
 30
0.0
 11
9.573759
 21
10.476646
 31
0.0
  0
LINE
  8
0
  6
BYBLOCK
 62
     0
 10
9.573759
 20
11.318546
 30
0.0
 11
9.573759
 21
11.086646
 31
0.0
  0
SOLID
  8
0
  6
BYBLOCK
 62
     0
 10
9.513759
 20
10.244747
 30
0.0
 11
9.633759
 21
10.244747
 31
0.0
 12
9.573759
 22
9.884747
 32
0.0
 13
9.573759
 23
9.884747
 33
0.0
  0
SOLID
  8
0
  6
BYBLOCK
 62
     0
 10
9.513759
 20
11.318546
 30
0.0
 11
9.633759
 21
11.318546
 31
0.0
 12
9.573759
 22
11.678546
 32
0.0
 13
9.573759
 23
11.678546
 33
0.0
  0
TEXT
  8
0
  6
BYBLOCK
 62
     0
 10
9.230009
 20
10.656646
 30
0.0
 40
0.25
  1
1.794
 41
0.75
  7
TXT
 72
     1
 11
9.573759
 21
10.781646
 31
0.0
 73
     2
  0
POINT
  8
DEFPOINTS
  6
BYBLOCK
 62
     0
 10
11.086988
 20
9.884747
 30
0.0
  0
POINT
  8
DEFPOINTS
  6
BYBLOCK
 62
     0
 10
11.086988
 20
11.678546
 30
0.0
  0
POINT
  8
DEFPOINTS
  6
BYBLOCK
 62
     0
 10
9.573759
 20
11.678546
 30
0.0
  0
ENDBLK
  8
0
  0
BLOCK
  8
0
  2
*D57
 70
    65
 10
0.0
 20
0.0
 30
0.0
  3
*D
  0
LINE
  8
0
  6
BYBLOCK
 62
     0
 10
10.69046
 20
11.697558
 30
0.0
 11
10.69046
 21
13.948516
 31
0.0
  0
LINE
  8
0
  6
BYBLOCK
 62
     0
 10
10.304445
 20
12.532218
 30
0.0
 11
10.304445
 21
13.948516
 31
0.0
  0
LINE
  8
0
  6
BYBLOCK
 62
     0
 10
11.05046
 20
13.762516
 30
0.0
 11
11.41046
 21
13.762516
 31
0.0
  0
LINE
  8
0
  6
BYBLOCK
 62
     0
 10
9.944445
 20
13.762516
 30
0.0
 11
9.584445
 21
13.762516
 31
0.0
  0
SOLID
  8
0
  6
BYBLOCK
 62
     0
 10
11.05046
 20
13.822516
 30
0.0
 11
11.05046
 21
13.702516
 31
0.0
 12
10.69046
 22
13.762516
 32
0.0
 13
10.69046
 23
13.762516
 33
0.0
  0
SOLID
  8
0
  6
BYBLOCK
 62
     0
 10
9.944445
 20
13.822516
 30
0.0
 11
9.944445
 21
13.702516
 31
0.0
 12
10.304445
 22
13.762516
 32
0.0
 13
10.304445
 23
13.762516
 33
0.0
  0
TEXT
  8
0
  6
BYBLOCK
 62
     0
 10
8.685695
 20
13.637516
 30
0.0
 40
0.25
  1
0.386
 41
0.75
  7
TXT
 72
     1
 11
9.04507
 21
13.762516
 31
0.0
 73
     2
  0
POINT
  8
DEFPOINTS
  6
BYBLOCK
 62
     0
 10
10.69046
 20
11.571558
 30
0.0
  0
POINT
  8
DEFPOINTS
  6
BYBLOCK
 62
     0
 10
10.304445
 20
12.406218
 30
0.0
  0
POINT
  8
DEFPOINTS
  6
BYBLOCK
 62
     0
 10
10.304445
 20
13.762516
 30
0.0
  0
ENDBLK
  8
0
  0
BLOCK
  8
0
  2
*D58
 70
    65
 10
0.0
 20
0.0
 30
0.0
  3
*D
  0
LINE
  8
0
  6
BYBLOCK
 62
     0
 10
10.69046
 20
11.680641
 30
0.0
 11
10.69046
 21
13.948516
 31
0.0
  0
LINE
  8
0
  6
BYBLOCK
 62
     0
 10
14.060604
 20
11.680641
 30
0.0
 11
14.060604
 21
13.948516
 31
0.0
  0
LINE
  8
0
  6
BYBLOCK
 62
     0
 10
11.05046
 20
13.762516
 30
0.0
 11
11.836157
 21
13.762516
 31
0.0
  0
LINE
  8
0
  6
BYBLOCK
 62
     0
 10
13.700604
 20
13.762516
 30
0.0
 11
12.914907
 21
13.762516
 31
0.0
  0
SOLID
  8
0
  6
BYBLOCK
 62
     0
 10
11.05046
 20
13.822516
 30
0.0
 11
11.05046
 21
13.702516
 31
0.0
 12
10.69046
 22
13.762516
 32
0.0
 13
10.69046
 23
13.762516
 33
0.0
  0
SOLID
  8
0
  6
BYBLOCK
 62
     0
 10
13.700604
 20
13.822516
 30
0.0
 11
13.700604
 21
13.702516
 31
0.0
 12
14.060604
 22
13.762516
 32
0.0
 13
14.060604
 23
13.762516
 33
0.0
  0
TEXT
  8
0
  6
BYBLOCK
 62
     0
 10
12.016157
 20
13.637516
 30
0.0
 40
0.25
  1
3.370
 41
0.75
  7
TXT
 72
     1
 11
12.375532
 21
13.762516
 31
0.0
 73
     2
  0
POINT
  8
DEFPOINTS
  6
BYBLOCK
 62
     0
 10
10.69046
 20
11.554641
 30
0.0
  0
POINT
  8
DEFPOINTS
  6
BYBLOCK
 62
     0
 10
14.060604
 20
11.554641
 30
0.0
  0
POINT
  8
DEFPOINTS
  6
BYBLOCK
 62
     0
 10
14.060604
 20
13.762516
 30
0.0
  0
ENDBLK
  8
0
  0
BLOCK
  8
0
  2
*D60
 70
    65
 10
0.0
 20
0.0
 30
0.0
  3
*D
  0
LINE
  8
0
  6
BYBLOCK
 62
     0
 10
4.737222
 20
12.344462
 30
0.0
 11
4.737222
 21
13.397218
 31
0.0
  0
LINE
  8
0
  6
BYBLOCK
 62
     0
 10
3.789222
 20
12.560997
 30
0.0
 11
3.789222
 21
13.397218
 31
0.0
  0
LINE
  8
0
  6
BYBLOCK
 62
     0
 10
5.097222
 20
13.211218
 30
0.0
 11
5.457222
 21
13.211218
 31
0.0
  0
LINE
  8
0
  6
BYBLOCK
 62
     0
 10
3.429222
 20
13.211218
 30
0.0
 11
3.069222
 21
13.211218
 31
0.0
  0
SOLID
  8
0
  6
BYBLOCK
 62
     0
 10
5.097222
 20
13.271218
 30
0.0
 11
5.097222
 21
13.151218
 31
0.0
 12
4.737222
 22
13.211218
 32
0.0
 13
4.737222
 23
13.211218
 33
0.0
  0
SOLID
  8
0
  6
BYBLOCK
 62
     0
 10
3.429222
 20
13.271218
 30
0.0
 11
3.429222
 21
13.151218
 31
0.0
 12
3.789222
 22
13.211218
 32
0.0
 13
3.789222
 23
13.211218
 33
0.0
  0
TEXT
  8
0
  6
BYBLOCK
 62
     0
 10
3.903847
 20
13.086218
 30
0.0
 40
0.25
  1
0.948
 41
0.75
  7
TXT
 72
     1
 11
4.263222
 21
13.211218
 31
0.0
 73
     2
  0
POINT
  8
DEFPOINTS
  6
BYBLOCK
 62
     0
 10
4.737222
 20
12.218462
 30
0.0
  0
POINT
  8
DEFPOINTS
  6
BYBLOCK
 62
     0
 10
3.789222
 20
12.434997
 30
0.0
  0
POINT
  8
DEFPOINTS
  6
BYBLOCK
 62
     0
 10
3.789222
 20
13.211218
 30
0.0
  0
ENDBLK
  8
0
  0
BLOCK
  8
0
  2
*D61
 70
    65
 10
0.0
 20
0.0
 30
0.0
  3
*D
  0
LINE
  8
0
  6
BYBLOCK
 62
     0
 10
24.893884
 20
12.797218
 30
0.0
 11
24.893884
 21
14.508125
 31
0.0
  0
LINE
  8
0
  6
BYBLOCK
 62
     0
 10
27.281884
 20
12.797218
 30
0.0
 11
27.281884
 21
14.508125
 31
0.0
  0
LINE
  8
0
  6
BYBLOCK
 62
     0
 10
25.253884
 20
14.322125
 30
0.0
 11
25.532884
 21
14.322125
 31
0.0
  0
LINE
  8
0
  6
BYBLOCK
 62
     0
 10
26.921884
 20
14.322125
 30
0.0
 11
26.642884
 21
14.322125
 31
0.0
  0
SOLID
  8
0
  6
BYBLOCK
 62
     0
 10
25.253884
 20
14.382125
 30
0.0
 11
25.253884
 21
14.262125
 31
0.0
 12
24.893884
 22
14.322125
 32
0.0
 13
24.893884
 23
14.322125
 33
0.0
  0
SOLID
  8
0
  6
BYBLOCK
 62
     0
 10
26.921884
 20
14.382125
 30
0.0
 11
26.921884
 21
14.262125
 31
0.0
 12
27.281884
 22
14.322125
 32
0.0
 13
27.281884
 23
14.322125
 33
0.0
  0
TEXT
  8
0
  6
BYBLOCK
 62
     0
 10
25.712884
 20
14.197125
 30
0.0
 40
0.25
  1
2.388
 41
0.75
  7
TXT
 72
     1
 11
26.087884
 21
14.322125
 31
0.0
 73
     2
  0
POINT
  8
DEFPOINTS
  6
BYBLOCK
 62
     0
 10
24.893884
 20
12.671218
 30
0.0
  0
POINT
  8
DEFPOINTS
  6
BYBLOCK
 62
     0
 10
27.281884
 20
12.671218
 30
0.0
  0
POINT
  8
DEFPOINTS
  6
BYBLOCK
 62
     0
 10
27.281884
 20
14.322125
 30
0.0
  0
ENDBLK
  8
0
  0
BLOCK
  8
0
  2
*D62
 70
    65
 10
0.0
 20
0.0
 30
0.0
  3
*D
  0
LINE
  8
0
  6
BYBLOCK
 62
     0
 10
24.894884
 20
12.797218
 30
0.0
 11
24.894884
 21
14.508125
 31
0.0
  0
LINE
  8
0
  6
BYBLOCK
 62
     0
 10
24.016797
 20
12.532218
 30
0.0
 11
24.016797
 21
14.508125
 31
0.0
  0
LINE
  8
0
  6
BYBLOCK
 62
     0
 10
25.254884
 20
14.322125
 30
0.0
 11
25.614884
 21
14.322125
 31
0.0
  0
LINE
  8
0
  6
BYBLOCK
 62
     0
 10
23.656797
 20
14.322125
 30
0.0
 11
23.296797
 21
14.322125
 31
0.0
  0
SOLID
  8
0
  6
BYBLOCK
 62
     0
 10
25.254884
 20
14.382125
 30
0.0
 11
25.254884
 21
14.262125
 31
0.0
 12
24.894884
 22
14.322125
 32
0.0
 13
24.894884
 23
14.322125
 33
0.0
  0
SOLID
  8
0
  6
BYBLOCK
 62
     0
 10
23.656797
 20
14.382125
 30
0.0
 11
23.656797
 21
14.262125
 31
0.0
 12
24.016797
 22
14.322125
 32
0.0
 13
24.016797
 23
14.322125
 33
0.0
  0
TEXT
  8
0
  6
BYBLOCK
 62
     0
 10
24.096466
 20
14.197125
 30
0.0
 40
0.25
  1
0.878
 41
0.75
  7
TXT
 72
     1
 11
24.455841
 21
14.322125
 31
0.0
 73
     2
  0
POINT
  8
DEFPOINTS
  6
BYBLOCK
 62
     0
 10
24.894884
 20
12.671218
 30
0.0
  0
POINT
  8
DEFPOINTS
  6
BYBLOCK
 62
     0
 10
24.016797
 20
12.406218
 30
0.0
  0
POINT
  8
DEFPOINTS
  6
BYBLOCK
 62
     0
 10
24.016797
 20
14.322125
 30
0.0
  0
ENDBLK
  8
0
  0
BLOCK
  8
0
  2
*D63
 70
    65
 10
0.0
 20
0.0
 30
0.0
  3
*D
  0
LINE
  8
0
  6
BYBLOCK
 62
     0
 10
20.753461
 20
13.031067
 30
0.0
 11
21.905381
 21
14.559304
 31
0.0
  0
LINE
  8
0
  6
BYBLOCK
 62
     0
 10
21.905381
 20
14.559304
 30
0.0
 11
22.265381
 21
14.559304
 31
0.0
  0
SOLID
  8
0
  6
BYBLOCK
 62
     0
 10
20.801374
 20
12.994952
 30
0.0
 11
20.705547
 21
13.067182
 31
0.0
 12
20.53677
 22
12.743586
 32
0.0
 13
20.53677
 23
12.743586
 33
0.0
  0
LINE
  8
0
  6
BYBLOCK
 62
     0
 10
20.136137
 20
12.450876
 30
0.0
 11
20.496137
 21
12.450876
 31
0.0
  0
LINE
  8
0
  6
BYBLOCK
 62
     0
 10
20.316137
 20
12.270876
 30
0.0
 11
20.316137
 21
12.630876
 31
0.0
  0
TEXT
  8
0
  6
BYBLOCK
 62
     0
 10
22.445381
 20
14.434304
 30
0.0
 40
0.25
  1
R0.265 TYP.
 41
0.75
  7
TXT
 72
     1
 11
23.304756
 21
14.559304
 31
0.0
 73
     2
  0
POINT
  8
DEFPOINTS
  6
BYBLOCK
 62
     0
 10
20.53677
 20
12.743586
 30
0.0
  0
POINT
  8
DEFPOINTS
  6
BYBLOCK
 62
     0
 10
20.316137
 20
12.450876
 30
0.0
  0
ENDBLK
  8
0
  0
BLOCK
  8
0
  2
*D64
 70
    65
 10
0.0
 20
0.0
 30
0.0
  3
*D
  0
LINE
  8
0
  6
BYBLOCK
 62
     0
 10
11.221988
 20
11.923546
 30
0.0
 11
11.221988
 21
15.079833
 31
0.0
  0
LINE
  8
0
  6
BYBLOCK
 62
     0
 10
10.304445
 20
12.532218
 30
0.0
 11
10.304445
 21
15.079833
 31
0.0
  0
LINE
  8
0
  6
BYBLOCK
 62
     0
 10
11.581988
 20
14.893833
 30
0.0
 11
11.941988
 21
14.893833
 31
0.0
  0
LINE
  8
0
  6
BYBLOCK
 62
     0
 10
9.944445
 20
14.893833
 30
0.0
 11
9.584445
 21
14.893833
 31
0.0
  0
SOLID
  8
0
  6
BYBLOCK
 62
     0
 10
11.581988
 20
14.953833
 30
0.0
 11
11.581988
 21
14.833833
 31
0.0
 12
11.221988
 22
14.893833
 32
0.0
 13
11.221988
 23
14.893833
 33
0.0
  0
SOLID
  8
0
  6
BYBLOCK
 62
     0
 10
9.944445
 20
14.953833
 30
0.0
 11
9.944445
 21
14.833833
 31
0.0
 12
10.304445
 22
14.893833
 32
0.0
 13
10.304445
 23
14.893833
 33
0.0
  0
TEXT
  8
0
  6
BYBLOCK
 62
     0
 10
10.435091
 20
14.768833
 30
0.0
 40
0.25
  1
0.918
 41
0.75
  7
TXT
 72
     1
 11
10.763216
 21
14.893833
 31
0.0
 73
     2
  0
POINT
  8
DEFPOINTS
  6
BYBLOCK
 62
     0
 10
11.221988
 20
11.797546
 30
0.0
  0
POINT
  8
DEFPOINTS
  6
BYBLOCK
 62
     0
 10
10.304445
 20
12.406218
 30
0.0
  0
POINT
  8
DEFPOINTS
  6
BYBLOCK
 62
     0
 10
10.304445
 20
14.893833
 30
0.0
  0
ENDBLK
  8
0
  0
BLOCK
  8
0
  2
*D65
 70
    65
 10
0.0
 20
0.0
 30
0.0
  3
*D
  0
LINE
  8
0
  6
BYBLOCK
 62
     0
 10
11.221988
 20
11.923546
 30
0.0
 11
11.221988
 21
15.079833
 31
0.0
  0
LINE
  8
0
  6
BYBLOCK
 62
     0
 10
13.529076
 20
11.923546
 30
0.0
 11
13.529076
 21
15.079833
 31
0.0
  0
LINE
  8
0
  6
BYBLOCK
 62
     0
 10
11.581988
 20
14.893833
 30
0.0
 11
11.836157
 21
14.893833
 31
0.0
  0
LINE
  8
0
  6
BYBLOCK
 62
     0
 10
13.169076
 20
14.893833
 30
0.0
 11
12.914907
 21
14.893833
 31
0.0
  0
SOLID
  8
0
  6
BYBLOCK
 62
     0
 10
11.581988
 20
14.953833
 30
0.0
 11
11.581988
 21
14.833833
 31
0.0
 12
11.221988
 22
14.893833
 32
0.0
 13
11.221988
 23
14.893833
 33
0.0
  0
SOLID
  8
0
  6
BYBLOCK
 62
     0
 10
13.169076
 20
14.953833
 30
0.0
 11
13.169076
 21
14.833833
 31
0.0
 12
13.529076
 22
14.893833
 32
0.0
 13
13.529076
 23
14.893833
 33
0.0
  0
TEXT
  8
0
  6
BYBLOCK
 62
     0
 10
12.016157
 20
14.768833
 30
0.0
 40
0.25
  1
2.307
 41
0.75
  7
TXT
 72
     1
 11
12.375532
 21
14.893833
 31
0.0
 73
     2
  0
POINT
  8
DEFPOINTS
  6
BYBLOCK
 62
     0
 10
11.221988
 20
11.797546
 30
0.0
  0
POINT
  8
DEFPOINTS
  6
BYBLOCK
 62
     0
 10
13.529076
 20
11.797546
 30
0.0
  0
POINT
  8
DEFPOINTS
  6
BYBLOCK
 62
     0
 10
13.529076
 20
14.893833
 30
0.0
  0
ENDBLK
  8
0
  0
BLOCK
  8
0
  2
*D70
 70
    65
 10
0.0
 20
0.0
 30
0.0
  3
*D
  0
LINE
  8
0
  6
BYBLOCK
 62
     0
 10
3.883711
 20
12.679108
 30
0.0
 11
3.883711
 21
13.955003
 31
0.0
  0
LINE
  8
0
  6
BYBLOCK
 62
     0
 10
5.999311
 20
12.148089
 30
0.0
 11
5.999311
 21
13.955003
 31
0.0
  0
LINE
  8
0
  6
BYBLOCK
 62
     0
 10
3.523711
 20
13.769003
 30
0.0
 11
3.163711
 21
13.769003
 31
0.0
  0
LINE
  8
0
  6
BYBLOCK
 62
     0
 10
6.359311
 20
13.769003
 30
0.0
 11
6.719311
 21
13.769003
 31
0.0
  0
SOLID
  8
0
  6
BYBLOCK
 62
     0
 10
3.523711
 20
13.829003
 30
0.0
 11
3.523711
 21
13.709003
 31
0.0
 12
3.883711
 22
13.769003
 32
0.0
 13
3.883711
 23
13.769003
 33
0.0
  0
SOLID
  8
0
  6
BYBLOCK
 62
     0
 10
6.359311
 20
13.829003
 30
0.0
 11
6.359311
 21
13.709003
 31
0.0
 12
5.999311
 22
13.769003
 32
0.0
 13
5.999311
 23
13.769003
 33
0.0
  0
TEXT
  8
0
  6
BYBLOCK
 62
     0
 10
4.722761
 20
13.644003
 30
0.0
 40
0.25
  1
 INSIDE
 41
0.75
  7
TXT
 72
     1
 11
5.285261
 21
13.769003
 31
0.0
 73
     2
  0
TEXT
  8
0
  6
BYBLOCK
 62
     0
 10
4.035261
 20
13.644003
 30
0.0
 40
0.25
  1
2.116
 41
0.75
  7
TXT
 72
     1
 11
4.347761
 21
13.769003
 31
0.0
 73
     2
  0
POINT
  8
DEFPOINTS
  6
BYBLOCK
 62
     0
 10
3.883711
 20
12.553108
 30
0.0
  0
POINT
  8
DEFPOINTS
  6
BYBLOCK
 62
     0
 10
5.999311
 20
12.022089
 30
0.0
  0
POINT
  8
DEFPOINTS
  6
BYBLOCK
 62
     0
 10
5.999311
 20
13.769003
 30
0.0
  0
ENDBLK
  8
0
  0
BLOCK
  8
0
  2
*D71
 70
    65
 10
0.0
 20
0.0
 30
0.0
  3
*D
  0
LINE
  8
0
  6
BYBLOCK
 62
     0
 10
10.422555
 20
12.560997
 30
0.0
 11
10.422555
 21
14.541899
 31
0.0
  0
LINE
  8
0
  6
BYBLOCK
 62
     0
 10
14.32851
 20
12.560997
 30
0.0
 11
14.32851
 21
14.541899
 31
0.0
  0
LINE
  8
0
  6
BYBLOCK
 62
     0
 10
10.782555
 20
14.355899
 30
0.0
 11
11.242407
 21
14.355899
 31
0.0
  0
LINE
  8
0
  6
BYBLOCK
 62
     0
 10
13.96851
 20
14.355899
 30
0.0
 11
13.508657
 21
14.355899
 31
0.0
  0
SOLID
  8
0
  6
BYBLOCK
 62
     0
 10
10.782555
 20
14.415899
 30
0.0
 11
10.782555
 21
14.295899
 31
0.0
 12
10.422555
 22
14.355899
 32
0.0
 13
10.422555
 23
14.355899
 33
0.0
  0
SOLID
  8
0
  6
BYBLOCK
 62
     0
 10
13.96851
 20
14.415899
 30
0.0
 11
13.96851
 21
14.295899
 31
0.0
 12
14.32851
 22
14.355899
 32
0.0
 13
14.32851
 23
14.355899
 33
0.0
  0
TEXT
  8
0
  6
BYBLOCK
 62
     0
 10
12.203657
 20
14.230899
 30
0.0
 40
0.25
  1
 INSIDE
 41
0.75
  7
TXT
 72
     1
 11
12.766157
 21
14.355899
 31
0.0
 73
     2
  0
TEXT
  8
0
  6
BYBLOCK
 62
     0
 10
11.422407
 20
14.230899
 30
0.0
 40
0.25
  1
3.906
 41
0.75
  7
TXT
 72
     1
 11
11.781782
 21
14.355899
 31
0.0
 73
     2
  0
POINT
  8
DEFPOINTS
  6
BYBLOCK
 62
     0
 10
10.422555
 20
12.434997
 30
0.0
  0
POINT
  8
DEFPOINTS
  6
BYBLOCK
 62
     0
 10
14.32851
 20
12.434997
 30
0.0
  0
POINT
  8
DEFPOINTS
  6
BYBLOCK
 62
     0
 10
14.32851
 20
14.355899
 30
0.0
  0
ENDBLK
  8
0
  0
ENDSEC
  0
SECTION
  2
ENTITIES
  0
TEXT
  8
DIM
 10
22.382365
 20
61.21225
 30
0.0
 40
0.166625
  1

  0
TEXT
  8
DIM
 10
26.975864
 20
60.846462
 30
0.0
 40
0.166625
  1

  0
TEXT
  8
DIM
 10
36.275917
 20
61.21225
 30
0.0
 40
0.166625
  1

  0
TEXT
  8
DIM
 10
40.869416
 20
60.846462
 30
0.0
 40
0.166625
  1

  0
TEXT
  8
DIM
 10
41.194416
 20
49.286887
 30
0.0
 40
0.166625
  1

  0
TEXT
  8
DIM
 10
38.422382
 20
49.707002
 30
0.0
 40
0.166625
  1

  0
TEXT
  8
DIM
 10
40.002286
 20
59.689825
 30
0.0
 40
0.166625
  1

  0
TEXT
  8
DIM
 10
33.232365
 20
41.73625
 30
0.0
 40
0.166625
  1

  0
TEXT
  8
DIM
 10
37.825864
 20
41.370462
 30
0.0
 40
0.166625
  1

  0
TEXT
  8
DIM
 10
47.125917
 20
41.73625
 30
0.0
 40
0.166625
  1

  0
TEXT
  8
DIM
 10
51.719416
 20
41.370462
 30
0.0
 40
0.166625
  1

  0
TEXT
  8
DIM
 10
52.044416
 20
29.810887
 30
0.0
 40
0.166625
  1

  0
TEXT
  8
DIM
 10
49.272382
 20
30.231002
 30
0.0
 40
0.166625
  1

  0
TEXT
  8
DIM
 10
50.852286
 20
40.213825
 30
0.0
 40
0.166625
  1

  0
TEXT
  8
DIM
 10
21.827153
 20
68.38177
 30
0.0
 40
0.166625
  1

  0
TEXT
  8
DIM
 10
26.420653
 20
68.015982
 30
0.0
 40
0.166625
  1

  0
TEXT
  8
DIM
 10
35.720705
 20
68.38177
 30
0.0
 40
0.166625
  1

  0
TEXT
  8
DIM
 10
40.314205
 20
68.015982
 30
0.0
 40
0.166625
  1

  0
TEXT
  8
DIM
 10
40.639205
 20
56.456407
 30
0.0
 40
0.166625
  1

  0
TEXT
  8
DIM
 10
37.867171
 20
56.876522
 30
0.0
 40
0.166625
  1

  0
TEXT
  8
DIM
 10
39.447075
 20
66.859345
 30
0.0
 40
0.166625
  1

  0
TEXT
  8
DIM
 10
32.677153
 20
48.90577
 30
0.0
 40
0.166625
  1

  0
TEXT
  8
DIM
 10
37.270653
 20
48.539982
 30
0.0
 40
0.166625
  1

  0
TEXT
  8
DIM
 10
46.570705
 20
48.90577
 30
0.0
 40
0.166625
  1

  0
TEXT
  8
DIM
 10
51.164205
 20
48.539982
 30
0.0
 40
0.166625
  1

  0
TEXT
  8
DIM
 10
51.489205
 20
36.980407
 30
0.0
 40
0.166625
  1

  0
TEXT
  8
DIM
 10
48.717171
 20
37.400522
 30
0.0
 40
0.166625
  1

  0
TEXT
  8
DIM
 10
50.297075
 20
47.383345
 30
0.0
 40
0.166625
  1

  0
LINE
  8
TITLE
 10
0.124
 20
19.28
 30
0.0
 11
30.876
 21
19.28
 31
0.0
  0
POLYLINE
  8
TITLE
 66
     1
 10
0.0
 20
0.0
 30
0.0
 70
     1
  0
VERTEX
  8
TITLE
 10
31.0
 20
20.24
 30
0.0
  0
VERTEX
  8
TITLE
 10
31.0
 20
0.0
 30
0.0
  0
VERTEX
  8
TITLE
 10
0.0
 20
0.0
 30
0.0
  0
VERTEX
  8
TITLE
 10
0.0
 20
20.24
 30
0.0
  0
SEQEND
  8
TITLE
  0
POLYLINE
  8
TITLE
 66
     1
 10
0.0
 20
0.0
 30
0.0
 70
     1
  0
VERTEX
  8
TITLE
 10
30.876
 20
20.116
 30
0.0
  0
VERTEX
  8
TITLE
 10
30.876
 20
0.124
 30
0.0
  0
VERTEX
  8
TITLE
 10
0.124
 20
0.124
 30
0.0
  0
VERTEX
  8
TITLE
 10
0.124
 20
20.116
 30
0.0
  0
SEQEND
  8
TITLE
  0
TEXT
  8
TEXT
 10
0.415667
 20
19.360158
 30
0.0
 40
0.25
  1
NAME
  7
TXT
 72
     1
 11
0.874
 21
19.360158
 31
0.0
  0
TEXT
  8
TEXT
 10
0.415667
 20
19.776825
 30
0.0
 40
0.25
  1
PART
  7
TXT
 72
     1
 11
0.874
 21
19.776825
 31
0.0
  0
LINE
  8
TITLE
 10
1.624
 20
19.28
 30
0.0
 11
1.624
 21
20.116
 31
0.0
  0
TEXT
  8
TEXT
 10
15.853667
 20
19.776825
 30
0.0
 40
0.25
  1
PART
  7
TXT
 72
     1
 11
16.312
 21
19.776825
 31
0.0
  0
TEXT
  8
TEXT
 10
16.062
 20
19.360158
 30
0.0
 40
0.25
  1
No.
  7
TXT
 72
     1
 11
16.312
 21
19.360158
 31
0.0
  0
LINE
  8
TITLE
 10
15.562
 20
20.116
 30
0.0
 11
15.562
 21
19.28
 31
0.0
  0
LINE
  8
TITLE
 10
15.438
 20
20.116
 30
0.0
 11
15.438
 21
19.28
 31
0.0
  0
LINE
  8
TITLE
 10
17.062
 20
20.116
 30
0.0
 11
17.062
 21
19.28
 31
0.0
  0
TEXT
  8
TEXT
 10
22.844
 20
19.5105
 30
0.0
 40
0.375
  1
PSP-11572
 41
0.75
  7
TXT
 72
     4
 11
23.969
 21
19.698
 31
0.0
  0
TEXT
  8
TEXT
 10
2.06225
 20
19.5105
 30
0.0
 40
0.375
  1
PLASTIBOX  (STYLE "G")  WITH BATTERY COMPARTMENT
 41
0.75
  7
TXT
 72
     4
 11
8.531
 21
19.698
 31
0.0
  0
LINE
  8
BASE-HID
 62
     7
 10
26.865217
 20
11.103359
 30
0.0
 11
26.865217
 21
11.037359
 31
0.0
  0
LINE
  8
BASE-HID
 62
     7
 10
26.414217
 20
11.103359
 30
0.0
 11
26.414217
 21
11.037359
 31
0.0
  0
LINE
  8
BASE-HID
 62
     7
 10
25.841717
 20
11.188359
 30
0.0
 11
25.841717
 21
11.037359
 31
0.0
  0
LINE
  8
BASE-HID
 62
     7
 10
26.143717
 20
11.188359
 30
0.0
 11
26.143717
 21
11.037359
 31
0.0
  0
LINE
  8
BASE-HID
 62
     7
 10
27.135717
 20
11.188359
 30
0.0
 11
27.135717
 21
11.037359
 31
0.0
  0
LINE
  8
BASE-HID
 62
     7
 10
27.437717
 20
11.188359
 30
0.0
 11
27.437717
 21
11.037359
 31
0.0
  0
LINE
  8
CENTER
 62
     7
 10
28.391686
 20
5.705045
 30
0.0
 11
28.391686
 21
12.146442
 31
0.0
  0
LINE
  8
CENTER
 62
     7
 10
24.887747
 20
5.705045
 30
0.0
 11
24.887747
 21
12.146442
 31
0.0
  0
POLYLINE
  8
BASE-HID
 62
     7
 66
     1
 10
0.0
 20
0.0
 30
0.0
  0
VERTEX
  8
BASE-HID
 62
     7
 10
25.504929
 20
11.25691
 30
0.0
  0
VERTEX
  8
BASE-HID
 62
     7
 10
25.504929
 20
11.103359
 30
0.0
  0
VERTEX
  8
BASE-HID
 62
     7
 10
25.841717
 20
11.103359
 30
0.0
  0
SEQEND
  8
BASE-HID
 62
     7
  0
POLYLINE
  8
BASE-HID
 62
     7
 66
     1
 10
0.0
 20
0.0
 30
0.0
  0
VERTEX
  8
BASE-HID
 62
     7
 10
27.774505
 20
12.152462
 30
0.0
  0
VERTEX
  8
BASE-HID
 62
     7
 10
25.504929
 20
12.152462
 30
0.0
  0
VERTEX
  8
BASE-HID
 62
     7
 10
25.504929
 20
11.99891
 30
0.0
  0
SEQEND
  8
BASE-HID
 62
     7
  0
LINE
  8
CENTER
 62
     7
 10
28.162186
 20
12.325942
 30
0.0
 11
25.117247
 21
12.325942
 31
0.0
  0
CIRCLE
  8
BASE
 62
     7
 10
24.887747
 20
12.325942
 30
0.0
 40
0.062992
  0
CIRCLE
  8
BASE-HID
 62
     7
 10
24.887747
 20
12.325942
 30
0.0
 40
0.147638
  0
LINE
  8
BASE
 62
     7
 10
25.445717
 20
12.671218
 30
0.0
 11
25.445717
 21
12.553108
 31
0.0
  0
LINE
  8
BASE-HID
 62
     7
 10
25.573717
 20
11.57391
 30
0.0
 11
25.573717
 21
11.68191
 31
0.0
  0
LINE
  8
BASE-HID
 62
     7
 10
25.609717
 20
11.68191
 30
0.0
 11
25.609717
 21
11.57391
 31
0.0
  0
POLYLINE
  8
BASE-HID
 62
     7
 66
     1
 10
0.0
 20
0.0
 30
0.0
  0
VERTEX
  8
BASE-HID
 62
     7
 10
25.504929
 20
11.80191
 30
0.0
  0
VERTEX
  8
BASE-HID
 62
     7
 10
25.504929
 20
11.45391
 30
0.0
  0
SEQEND
  8
BASE-HID
 62
     7
  0
LINE
  8
BASE-HID
 62
     7
 10
25.504929
 20
11.80191
 30
0.0
 11
25.504929
 21
11.99891
 31
0.0
  0
POLYLINE
  8
BASE-HID
 62
     7
 66
     1
 10
0.0
 20
0.0
 30
0.0
  0
VERTEX
  8
BASE-HID
 62
     7
 10
25.564929
 20
11.99891
 30
0.0
  0
VERTEX
  8
BASE-HID
 62
     7
 10
25.564929
 20
11.80191
 30
0.0
  0
SEQEND
  8
BASE-HID
 62
     7
  0
LINE
  8
BASE-HID
 62
     7
 10
25.504929
 20
12.134462
 30
0.0
 11
25.573717
 21
12.134462
 31
0.0
  0
LINE
  8
BASE-HID
 62
     7
 10
25.504929
 20
11.99891
 30
0.0
 11
25.564929
 21
11.99891
 31
0.0
  0
LINE
  8
BASE-HID
 62
     7
 10
25.573717
 20
12.152462
 30
0.0
 11
25.573717
 21
12.098462
 31
0.0
  0
LINE
  8
BASE-HID
 62
     7
 10
25.609717
 20
12.152462
 30
0.0
 11
25.609717
 21
12.098462
 31
0.0
  0
LINE
  8
BASE-HID
 62
     7
 10
25.573717
 20
12.098462
 30
0.0
 11
25.609717
 21
12.098462
 31
0.0
  0
LINE
  8
BASE-HID
 62
     7
 10
25.504929
 20
11.64591
 30
0.0
 11
25.573717
 21
11.64591
 31
0.0
  0
LINE
  8
BASE-HID
 62
     7
 10
25.504929
 20
11.80191
 30
0.0
 11
25.564929
 21
11.80191
 31
0.0
  0
LINE
  8
BASE-HID
 62
     7
 10
25.573717
 20
11.68191
 30
0.0
 11
25.609717
 21
11.68191
 31
0.0
  0
LINE
  8
BASE-HID
 62
     7
 10
25.504929
 20
11.25691
 30
0.0
 11
25.504929
 21
11.45391
 31
0.0
  0
POLYLINE
  8
BASE-HID
 62
     7
 66
     1
 10
0.0
 20
0.0
 30
0.0
  0
VERTEX
  8
BASE-HID
 62
     7
 10
25.564929
 20
11.45391
 30
0.0
  0
VERTEX
  8
BASE-HID
 62
     7
 10
25.564929
 20
11.25691
 30
0.0
  0
SEQEND
  8
BASE-HID
 62
     7
  0
LINE
  8
BASE-HID
 62
     7
 10
25.504929
 20
11.60991
 30
0.0
 11
25.573717
 21
11.60991
 31
0.0
  0
LINE
  8
BASE-HID
 62
     7
 10
25.504929
 20
11.45391
 30
0.0
 11
25.564929
 21
11.45391
 31
0.0
  0
LINE
  8
BASE-HID
 62
     7
 10
25.573717
 20
11.57391
 30
0.0
 11
25.609717
 21
11.57391
 31
0.0
  0
LINE
  8
BASE-HID
 62
     7
 10
25.504929
 20
11.121359
 30
0.0
 11
25.573717
 21
11.121359
 31
0.0
  0
LINE
  8
BASE-HID
 62
     7
 10
25.504929
 20
11.25691
 30
0.0
 11
25.564929
 21
11.25691
 31
0.0
  0
LINE
  8
BASE-HID
 62
     7
 10
25.573717
 20
11.103359
 30
0.0
 11
25.573717
 21
11.157359
 31
0.0
  0
LINE
  8
BASE-HID
 62
     7
 10
25.609717
 20
11.157359
 30
0.0
 11
25.609717
 21
11.103359
 31
0.0
  0
LINE
  8
BASE-HID
 62
     7
 10
25.573717
 20
11.157359
 30
0.0
 11
25.609717
 21
11.157359
 31
0.0
  0
POLYLINE
  8
BASE-HID
 62
     7
 66
     1
 10
0.0
 20
0.0
 30
0.0
  0
VERTEX
  8
BASE-HID
 62
     7
 10
27.437717
 20
11.103359
 30
0.0
  0
VERTEX
  8
BASE-HID
 62
     7
 10
27.774505
 20
11.103359
 30
0.0
  0
VERTEX
  8
BASE-HID
 62
     7
 10
27.774505
 20
11.25691
 30
0.0
  0
SEQEND
  8
BASE-HID
 62
     7
  0
POLYLINE
  8
BASE-HID
 62
     7
 66
     1
 10
0.0
 20
0.0
 30
0.0
  0
VERTEX
  8
BASE-HID
 62
     7
 10
26.143717
 20
11.103359
 30
0.0
  0
VERTEX
  8
BASE-HID
 62
     7
 10
27.135717
 20
11.103359
 30
0.0
  0
SEQEND
  8
BASE-HID
 62
     7
  0
LINE
  8
BASE-HID
 62
     7
 10
26.143717
 20
11.103359
 30
0.0
 11
25.841717
 21
11.103359
 31
0.0
  0
POLYLINE
  8
BASE-HID
 62
     7
 66
     1
 10
0.0
 20
0.0
 30
0.0
  0
VERTEX
  8
BASE-HID
 62
     7
 10
25.841717
 20
11.188359
 30
0.0
  0
VERTEX
  8
BASE-HID
 62
     7
 10
26.143717
 20
11.188359
 30
0.0
  0
SEQEND
  8
BASE-HID
 62
     7
  0
LINE
  8
BASE-HID
 62
     7
 10
27.135717
 20
11.103359
 30
0.0
 11
27.437717
 21
11.103359
 31
0.0
  0
POLYLINE
  8
BASE-HID
 62
     7
 66
     1
 10
0.0
 20
0.0
 30
0.0
  0
VERTEX
  8
BASE-HID
 62
     7
 10
27.135717
 20
11.188359
 30
0.0
  0
VERTEX
  8
BASE-HID
 62
     7
 10
27.437717
 20
11.188359
 30
0.0
  0
SEQEND
  8
BASE-HID
 62
     7
  0
CIRCLE
  8
BASE-HID
 62
     7
 10
28.391686
 20
12.325942
 30
0.0
 40
0.147638
  0
LINE
  8
BASE
 62
     7
 10
27.833717
 20
12.671218
 30
0.0
 11
27.833717
 21
12.553108
 31
0.0
  0
CIRCLE
  8
BASE
 62
     7
 10
28.391686
 20
12.325942
 30
0.0
 40
0.062992
  0
LINE
  8
BASE-HID
 62
     7
 10
27.669717
 20
11.68191
 30
0.0
 11
27.669717
 21
11.57391
 31
0.0
  0
LINE
  8
BASE-HID
 62
     7
 10
27.705717
 20
11.57391
 30
0.0
 11
27.705717
 21
11.68191
 31
0.0
  0
POLYLINE
  8
BASE-HID
 62
     7
 66
     1
 10
0.0
 20
0.0
 30
0.0
  0
VERTEX
  8
BASE-HID
 62
     7
 10
27.774505
 20
11.45391
 30
0.0
  0
VERTEX
  8
BASE-HID
 62
     7
 10
27.774505
 20
11.80191
 30
0.0
  0
SEQEND
  8
BASE-HID
 62
     7
  0
LINE
  8
BASE-HID
 62
     7
 10
27.774505
 20
11.80191
 30
0.0
 11
27.774505
 21
11.99891
 31
0.0
  0
POLYLINE
  8
BASE-HID
 62
     7
 66
     1
 10
0.0
 20
0.0
 30
0.0
  0
VERTEX
  8
BASE-HID
 62
     7
 10
27.714505
 20
11.80191
 30
0.0
  0
VERTEX
  8
BASE-HID
 62
     7
 10
27.714505
 20
11.99891
 30
0.0
  0
SEQEND
  8
BASE-HID
 62
     7
  0
LINE
  8
BASE-HID
 62
     7
 10
27.705717
 20
12.098462
 30
0.0
 11
27.669717
 21
12.098462
 31
0.0
  0
LINE
  8
BASE-HID
 62
     7
 10
27.669717
 20
12.152462
 30
0.0
 11
27.669717
 21
12.098462
 31
0.0
  0
LINE
  8
BASE-HID
 62
     7
 10
27.705717
 20
12.152462
 30
0.0
 11
27.705717
 21
12.098462
 31
0.0
  0
LINE
  8
BASE-HID
 62
     7
 10
27.774505
 20
12.134462
 30
0.0
 11
27.705717
 21
12.134462
 31
0.0
  0
LINE
  8
BASE-HID
 62
     7
 10
27.714505
 20
11.99891
 30
0.0
 11
27.774505
 21
11.99891
 31
0.0
  0
POLYLINE
  8
BASE-HID
 62
     7
 66
     1
 10
0.0
 20
0.0
 30
0.0
  0
VERTEX
  8
BASE-HID
 62
     7
 10
27.774505
 20
11.99891
 30
0.0
  0
VERTEX
  8
BASE-HID
 62
     7
 10
27.774505
 20
12.152462
 30
0.0
  0
SEQEND
  8
BASE-HID
 62
     7
  0
LINE
  8
BASE-HID
 62
     7
 10
27.705717
 20
11.68191
 30
0.0
 11
27.669717
 21
11.68191
 31
0.0
  0
LINE
  8
BASE-HID
 62
     7
 10
27.774505
 20
11.64591
 30
0.0
 11
27.705717
 21
11.64591
 31
0.0
  0
LINE
  8
BASE-HID
 62
     7
 10
27.714505
 20
11.80191
 30
0.0
 11
27.774505
 21
11.80191
 31
0.0
  0
LINE
  8
BASE-HID
 62
     7
 10
27.774505
 20
11.25691
 30
0.0
 11
27.774505
 21
11.45391
 31
0.0
  0
POLYLINE
  8
BASE-HID
 62
     7
 66
     1
 10
0.0
 20
0.0
 30
0.0
  0
VERTEX
  8
BASE-HID
 62
     7
 10
27.714505
 20
11.25691
 30
0.0
  0
VERTEX
  8
BASE-HID
 62
     7
 10
27.714505
 20
11.45391
 30
0.0
  0
SEQEND
  8
BASE-HID
 62
     7
  0
LINE
  8
BASE-HID
 62
     7
 10
27.705717
 20
11.57391
 30
0.0
 11
27.669717
 21
11.57391
 31
0.0
  0
LINE
  8
BASE-HID
 62
     7
 10
27.774505
 20
11.60991
 30
0.0
 11
27.705717
 21
11.60991
 31
0.0
  0
LINE
  8
BASE-HID
 62
     7
 10
27.714505
 20
11.45391
 30
0.0
 11
27.774505
 21
11.45391
 31
0.0
  0
LINE
  8
BASE-HID
 62
     7
 10
27.705717
 20
11.157359
 30
0.0
 11
27.669717
 21
11.157359
 31
0.0
  0
LINE
  8
BASE-HID
 62
     7
 10
27.669717
 20
11.157359
 30
0.0
 11
27.669717
 21
11.103359
 31
0.0
  0
LINE
  8
BASE-HID
 62
     7
 10
27.705717
 20
11.103359
 30
0.0
 11
27.705717
 21
11.157359
 31
0.0
  0
LINE
  8
BASE-HID
 62
     7
 10
27.774505
 20
11.121359
 30
0.0
 11
27.705717
 21
11.121359
 31
0.0
  0
LINE
  8
BASE-HID
 62
     7
 10
27.714505
 20
11.25691
 30
0.0
 11
27.774505
 21
11.25691
 31
0.0
  0
CIRCLE
  8
BASE-HID
 62
     7
 10
24.966488
 20
9.308759
 30
0.0
 40
0.11811
  0
CIRCLE
  8
BASE-HID
 62
     7
 10
24.966488
 20
9.308759
 30
0.0
 40
0.045
  0
POLYLINE
  8
BASE-HID
 62
     7
 66
     1
 10
0.0
 20
0.0
 30
0.0
  0
VERTEX
  8
BASE-HID
 62
     7
 10
26.414217
 20
10.944359
 30
0.0
  0
VERTEX
  8
BASE-HID
 62
     7
 10
26.865217
 20
10.944359
 30
0.0
  0
SEQEND
  8
BASE-HID
 62
     7
  0
POLYLINE
  8
BASE-HID
 62
     7
 66
     1
 10
0.0
 20
0.0
 30
0.0
  0
VERTEX
  8
BASE-HID
 62
     7
 10
26.414217
 20
10.991359
 30
0.0
  0
VERTEX
  8
BASE-HID
 62
     7
 10
26.865217
 20
10.991359
 30
0.0
  0
SEQEND
  8
BASE-HID
 62
     7
  0
POLYLINE
  8
BASE-HID
 62
     7
 66
     1
 10
0.0
 20
0.0
 30
0.0
  0
VERTEX
  8
BASE-HID
 62
     7
 10
26.414217
 20
10.813359
 30
0.0
  0
VERTEX
  8
BASE-HID
 62
     7
 10
26.865217
 20
10.813359
 30
0.0
  0
SEQEND
  8
BASE-HID
 62
     7
  0
POLYLINE
  8
BASE-HID
 62
     7
 66
     1
 10
0.0
 20
0.0
 30
0.0
  0
VERTEX
  8
BASE-HID
 62
     7
 10
26.414217
 20
10.657359
 30
0.0
  0
VERTEX
  8
BASE-HID
 62
     7
 10
26.865217
 20
10.657359
 30
0.0
  0
SEQEND
  8
BASE-HID
 62
     7
  0
CIRCLE
  8
BASE-HID
 62
     7
 10
26.639717
 20
10.377122
 30
0.0
 40
0.045
  0
CIRCLE
  8
BASE-HID
 62
     7
 10
26.639717
 20
10.377122
 30
0.0
 40
0.11811
  0
LINE
  8
BASE-HID
 62
     7
 10
26.414217
 20
11.037359
 30
0.0
 11
26.414217
 21
10.657359
 31
0.0
  0
LINE
  8
BASE-HID
 62
     7
 10
26.865217
 20
11.037359
 30
0.0
 11
26.865217
 21
10.657359
 31
0.0
  0
CIRCLE
  8
BASE-HID
 62
     7
 10
28.312946
 20
9.308759
 30
0.0
 40
0.11811
  0
CIRCLE
  8
BASE-HID
 62
     7
 10
28.312946
 20
9.308759
 30
0.0
 40
0.045
  0
LINE
  8
CENTER
 62
     7
 10
28.162186
 20
5.475545
 30
0.0
 11
25.117247
 21
5.475545
 31
0.0
  0
CIRCLE
  8
BASE-HID
 62
     7
 10
24.966488
 20
5.888931
 30
0.0
 40
0.11811
  0
CIRCLE
  8
BASE
 62
     7
 10
24.887747
 20
5.475545
 30
0.0
 40
0.062992
  0
CIRCLE
  8
BASE-HID
 62
     7
 10
24.887747
 20
5.475545
 30
0.0
 40
0.147638
  0
CIRCLE
  8
BASE-HID
 62
     7
 10
24.966488
 20
5.888931
 30
0.0
 40
0.045
  0
CIRCLE
  8
BASE-HID
 62
     7
 10
28.391686
 20
5.475545
 30
0.0
 40
0.147638
  0
CIRCLE
  8
BASE-HID
 62
     7
 10
28.312946
 20
5.888931
 30
0.0
 40
0.045
  0
CIRCLE
  8
BASE-HID
 62
     7
 10
28.312946
 20
5.888931
 30
0.0
 40
0.11811
  0
CIRCLE
  8
BASE
 62
     7
 10
28.391686
 20
5.475545
 30
0.0
 40
0.062992
  0
CIRCLE
  8
BASE
 62
     7
 10
28.391686
 20
12.325942
 30
0.0
 40
0.1135
  0
CIRCLE
  8
BASE
 62
     7
 10
28.391686
 20
5.475545
 30
0.0
 40
0.1135
  0
CIRCLE
  8
BASE
 62
     7
 10
24.887747
 20
5.475545
 30
0.0
 40
0.1135
  0
CIRCLE
  8
BASE
 62
     7
 10
24.887747
 20
12.325942
 30
0.0
 40
0.1135
  0
LINE
  8
BASE
 62
     7
 10
27.832717
 20
11.046218
 30
0.0
 11
27.832717
 21
12.671218
 31
0.0
  0
LINE
  8
BASE
 62
     7
 10
25.446717
 20
11.046218
 30
0.0
 11
25.446717
 21
12.671218
 31
0.0
  0
LINE
  8
BASE
 62
     7
 10
27.832717
 20
11.046218
 30
0.0
 11
25.446717
 21
11.046218
 31
0.0
  0
LINE
  8
BASE-HID
 62
     7
 10
27.840505
 20
12.218462
 30
0.0
 11
25.438929
 21
12.218462
 31
0.0
  0
LINE
  8
BASE
 62
     7
 10
25.438929
 20
12.553108
 30
0.0
 11
25.438929
 21
11.037359
 31
0.0
  0
LINE
  8
BASE
 62
     7
 10
25.438929
 20
11.037359
 30
0.0
 11
27.840505
 21
11.037359
 31
0.0
  0
LINE
  8
BASE
 62
     7
 10
27.840505
 20
11.037359
 30
0.0
 11
27.840505
 21
12.553108
 31
0.0
  0
LINE
  8
BASE
 62
     7
 10
26.992717
 20
11.122218
 30
0.0
 11
26.286717
 21
11.122218
 31
0.0
  0
LINE
  8
BASE
 62
     7
 10
26.286717
 20
11.122218
 30
0.0
 11
26.286717
 21
11.579218
 31
0.0
  0
LINE
  8
BASE
 62
     7
 10
26.992717
 20
11.122218
 30
0.0
 11
26.992717
 21
11.579218
 31
0.0
  0
LINE
  8
BASE
 62
     7
 10
26.992717
 20
11.579218
 30
0.0
 11
26.286717
 21
11.579218
 31
0.0
  0
LINE
  8
BASE
 62
     7
 10
26.344717
 20
11.167218
 30
0.0
 11
26.344717
 21
11.191218
 31
0.0
  0
LINE
  8
BASE
 62
     7
 10
26.934717
 20
11.167218
 30
0.0
 11
26.934717
 21
11.191218
 31
0.0
  0
LINE
  8
BASE
 62
     7
 10
26.934717
 20
11.167218
 30
0.0
 11
26.344717
 21
11.167218
 31
0.0
  0
LINE
  8
BASE
 62
     7
 10
26.934717
 20
11.191218
 30
0.0
 11
26.344717
 21
11.191218
 31
0.0
  0
LINE
  8
BASE
 62
     7
 10
26.934717
 20
11.260218
 30
0.0
 11
26.344717
 21
11.260218
 31
0.0
  0
LINE
  8
BASE
 62
     7
 10
26.934717
 20
11.236218
 30
0.0
 11
26.344717
 21
11.236218
 31
0.0
  0
LINE
  8
BASE
 62
     7
 10
26.934717
 20
11.305218
 30
0.0
 11
26.344717
 21
11.305218
 31
0.0
  0
LINE
  8
BASE
 62
     7
 10
26.934717
 20
11.329218
 30
0.0
 11
26.344717
 21
11.329218
 31
0.0
  0
LINE
  8
BASE
 62
     7
 10
26.344717
 20
11.236218
 30
0.0
 11
26.344717
 21
11.260218
 31
0.0
  0
LINE
  8
BASE
 62
     7
 10
26.344717
 20
11.305218
 30
0.0
 11
26.344717
 21
11.329218
 31
0.0
  0
LINE
  8
BASE
 62
     7
 10
26.934717
 20
11.305218
 30
0.0
 11
26.934717
 21
11.329218
 31
0.0
  0
LINE
  8
BASE
 62
     7
 10
26.934717
 20
11.236218
 30
0.0
 11
26.934717
 21
11.260218
 31
0.0
  0
LINE
  8
BASE
 62
     7
 10
26.707717
 20
11.374218
 30
0.0
 11
26.571717
 21
11.374218
 31
0.0
  0
LINE
  8
BASE
 62
     7
 10
26.707717
 20
11.374218
 30
0.0
 11
26.639717
 21
11.534218
 31
0.0
  0
LINE
  8
BASE
 62
     7
 10
26.639717
 20
11.534218
 30
0.0
 11
26.571717
 21
11.374218
 31
0.0
  0
LINE
  8
BASE-HID
 62
     7
 10
19.588479
 20
11.188359
 30
0.0
 11
19.654479
 21
11.188359
 31
0.0
  0
LINE
  8
BASE-HID
 62
     7
 10
19.588479
 20
11.45391
 30
0.0
 11
19.654479
 21
11.45391
 31
0.0
  0
LINE
  8
BASE-HID
 62
     7
 10
19.588479
 20
11.25691
 30
0.0
 11
19.654479
 21
11.25691
 31
0.0
  0
LINE
  8
BASE-HID
 62
     7
 10
19.588479
 20
11.99891
 30
0.0
 11
19.654479
 21
11.99891
 31
0.0
  0
LINE
  8
BASE-HID
 62
     7
 10
19.588479
 20
11.80191
 30
0.0
 11
19.654479
 21
11.80191
 31
0.0
  0
LINE
  8
BASE-HID
 62
     7
 10
19.588479
 20
11.037359
 30
0.0
 11
19.588479
 21
12.218462
 31
0.0
  0
LINE
  8
BASE-HID
 62
     7
 10
19.877479
 20
11.037359
 30
0.0
 11
19.877479
 21
11.103359
 31
0.0
  0
LINE
  8
BASE-HID
 62
     7
 10
20.441991
 20
5.298379
 30
0.0
 11
20.441991
 21
12.553108
 31
0.0
  0
LINE
  8
BASE-HID
 62
     7
 10
20.001944
 20
12.218462
 30
0.0
 11
20.001944
 21
12.671218
 31
0.0
  0
LINE
  8
BASE-HID
 62
     7
 10
20.067944
 20
12.152462
 30
0.0
 11
20.067944
 21
12.671218
 31
0.0
  0
LINE
  8
BASE-HID
 62
     7
 10
20.536479
 20
12.439442
 30
0.0
 11
20.442479
 21
12.439442
 31
0.0
  0
LINE
  8
BASE-HID
 62
     7
 10
20.530119
 20
12.212442
 30
0.0
 11
20.442479
 21
12.212442
 31
0.0
  0
LINE
  8
BASE-HID
 62
     7
 10
19.819944
 20
12.178304
 30
0.0
 11
20.441991
 21
12.178304
 31
0.0
  0
LINE
  8
BASE-HID
 62
     7
 10
19.819944
 20
12.26295
 30
0.0
 11
20.442479
 21
12.26295
 31
0.0
  0
LINE
  8
BASE-HID
 62
     7
 10
19.819944
 20
12.388934
 30
0.0
 11
20.442479
 21
12.388934
 31
0.0
  0
LINE
  8
BASE-HID
 62
     7
 10
19.819944
 20
12.47358
 30
0.0
 11
20.441991
 21
12.47358
 31
0.0
  0
LINE
  8
BASE-HID
 62
     7
 10
19.819944
 20
12.553108
 30
0.0
 11
20.441991
 21
12.553108
 31
0.0
  0
LINE
  8
BASE-HID
 62
     7
 10
20.080479
 20
12.671218
 30
0.0
 11
20.080479
 21
12.553108
 31
0.0
  0
LINE
  8
BASE-HID
 62
     7
 10
20.442479
 20
12.262442
 30
0.0
 11
20.442479
 21
12.489442
 31
0.0
  0
LINE
  8
BASE-HID
 62
     7
 10
20.441991
 20
11.046218
 30
0.0
 11
20.536479
 21
11.046218
 31
0.0
  0
LINE
  8
BASE-HID
 62
     7
 10
20.220479
 20
11.60891
 30
0.0
 11
20.220479
 21
11.64691
 31
0.0
  0
LINE
  8
BASE-HID
 62
     7
 10
19.654479
 20
11.103359
 30
0.0
 11
19.654479
 21
12.152462
 31
0.0
  0
LINE
  8
BASE-HID
 62
     7
 10
20.220479
 20
12.134462
 30
0.0
 11
19.654479
 21
12.134462
 31
0.0
  0
LINE
  8
BASE-HID
 62
     7
 10
20.185479
 20
12.098462
 30
0.0
 11
19.654479
 21
12.098462
 31
0.0
  0
LINE
  8
BASE-HID
 62
     7
 10
20.220479
 20
11.64591
 30
0.0
 11
19.654479
 21
11.64591
 31
0.0
  0
LINE
  8
BASE-HID
 62
     7
 10
20.185479
 20
11.68191
 30
0.0
 11
19.654479
 21
11.68191
 31
0.0
  0
LINE
  8
BASE-HID
 62
     7
 10
20.220479
 20
12.152462
 30
0.0
 11
19.654479
 21
12.152462
 31
0.0
  0
LINE
  8
BASE-HID
 62
     7
 10
20.001944
 20
12.218462
 30
0.0
 11
19.588479
 21
12.218462
 31
0.0
  0
LINE
  8
BASE-HID
 62
     7
 10
20.220479
 20
12.133462
 30
0.0
 11
20.220479
 21
12.152462
 31
0.0
  0
LINE
  8
BASE-HID
 62
     7
 10
20.185479
 20
11.157359
 30
0.0
 11
19.654479
 21
11.157359
 31
0.0
  0
LINE
  8
BASE-HID
 62
     7
 10
20.220479
 20
11.121359
 30
0.0
 11
19.654479
 21
11.121359
 31
0.0
  0
LINE
  8
BASE-HID
 62
     7
 10
20.220479
 20
11.60991
 30
0.0
 11
19.654479
 21
11.60991
 31
0.0
  0
LINE
  8
BASE-HID
 62
     7
 10
20.185479
 20
11.57391
 30
0.0
 11
19.654479
 21
11.57391
 31
0.0
  0
LINE
  8
BASE-HID
 62
     7
 10
19.654479
 20
11.103359
 30
0.0
 11
20.441991
 21
11.103359
 31
0.0
  0
LINE
  8
BASE-HID
 62
     7
 10
20.220479
 20
11.103359
 30
0.0
 11
20.220479
 21
11.122359
 31
0.0
  0
LINE
  8
BASE-HID
 62
     7
 10
20.20577
 20
10.259012
 30
0.0
 11
20.20577
 21
10.495232
 31
0.0
  0
LINE
  8
BASE-HID
 62
     7
 10
20.441991
 20
11.037359
 30
0.0
 11
19.588479
 21
11.037359
 31
0.0
  0
POLYLINE
  8
BASE-HID
 62
     7
 66
     1
 10
0.0
 20
0.0
 30
0.0
  0
VERTEX
  8
BASE-HID
 62
     7
 10
20.415479
 20
11.037359
 30
0.0
  0
VERTEX
  8
BASE-HID
 62
     7
 10
20.415479
 20
10.674218
 30
0.0
 42
-0.414214
  0
SEQEND
  8
BASE-HID
 62
     7
  0
LINE
  8
BASE-HID
 62
     7
 10
20.20577
 20
10.495232
 30
0.0
 11
20.441991
 21
10.495232
 31
0.0
  0
LINE
  8
BASE-HID
 62
     7
 10
20.415479
 20
10.674218
 30
0.0
 11
20.441991
 21
10.674218
 31
0.0
  0
LINE
  8
BASE-HID
 62
     7
 10
20.20577
 20
10.259012
 30
0.0
 11
20.441991
 21
10.259012
 31
0.0
  0
LINE
  8
BASE-HID
 62
     7
 10
20.20577
 20
9.190649
 30
0.0
 11
20.20577
 21
9.42687
 31
0.0
  0
LINE
  8
BASE-HID
 62
     7
 10
20.20577
 20
9.42687
 30
0.0
 11
20.441991
 21
9.42687
 31
0.0
  0
LINE
  8
BASE-HID
 62
     7
 10
20.20577
 20
9.190649
 30
0.0
 11
20.441991
 21
9.190649
 31
0.0
  0
LINE
  8
BASE-HID
 62
     7
 10
20.530119
 20
5.362045
 30
0.0
 11
20.442479
 21
5.362045
 31
0.0
  0
LINE
  8
BASE-HID
 62
     7
 10
20.536479
 20
5.589045
 30
0.0
 11
20.442479
 21
5.589045
 31
0.0
  0
LINE
  8
BASE-HID
 62
     7
 10
20.20577
 20
5.77082
 30
0.0
 11
20.20577
 21
6.007041
 31
0.0
  0
LINE
  8
BASE-HID
 62
     7
 10
20.20577
 20
6.007041
 30
0.0
 11
20.441991
 21
6.007041
 31
0.0
  0
LINE
  8
BASE-HID
 62
     7
 10
20.20577
 20
5.77082
 30
0.0
 11
20.441991
 21
5.77082
 31
0.0
  0
LINE
  8
BASE-HID
 62
     7
 10
19.819944
 20
5.538537
 30
0.0
 11
20.442479
 21
5.538537
 31
0.0
  0
LINE
  8
BASE-HID
 62
     7
 10
19.819944
 20
5.412553
 30
0.0
 11
20.442479
 21
5.412553
 31
0.0
  0
LINE
  8
BASE-HID
 62
     7
 10
19.819944
 20
5.623183
 30
0.0
 11
20.441991
 21
5.623183
 31
0.0
  0
LINE
  8
BASE-HID
 62
     7
 10
19.819944
 20
5.327907
 30
0.0
 11
20.441991
 21
5.327907
 31
0.0
  0
LINE
  8
BASE-HID
 62
     7
 10
19.819944
 20
5.298379
 30
0.0
 11
20.441991
 21
5.298379
 31
0.0
  0
LINE
  8
BASE-HID
 62
     7
 10
20.442479
 20
5.362045
 30
0.0
 11
20.442479
 21
5.589045
 31
0.0
  0
POLYLINE
  8
BASE-HID
 62
     7
 66
     1
 10
0.0
 20
0.0
 30
0.0
 70
     1
  0
VERTEX
  8
BASE-HID
 62
     7
 10
25.368717
 20
5.217269
 30
0.0
  0
VERTEX
  8
BASE-HID
 62
     7
 10
25.368717
 20
5.267269
 30
0.0
  0
VERTEX
  8
BASE-HID
 62
     7
 10
27.910717
 20
5.267269
 30
0.0
  0
VERTEX
  8
BASE-HID
 62
     7
 10
27.910717
 20
5.217269
 30
0.0
  0
SEQEND
  8
BASE-HID
 62
     7
  0
POLYLINE
  8
BASE-HID
 62
     7
 66
     1
 10
0.0
 20
0.0
 30
0.0
 70
     1
  0
VERTEX
  8
BASE-HID
 62
     7
 10
24.605629
 20
12.269743
 30
0.0
  0
VERTEX
  8
BASE-HID
 62
     7
 10
24.655629
 20
12.269743
 30
0.0
  0
VERTEX
  8
BASE-HID
 62
     7
 10
24.655629
 20
5.565743
 30
0.0
  0
VERTEX
  8
BASE-HID
 62
     7
 10
24.605629
 20
5.565743
 30
0.0
  0
SEQEND
  8
BASE-HID
 62
     7
  0
POLYLINE
  8
BASE-HID
 62
     7
 66
     1
 10
0.0
 20
0.0
 30
0.0
 70
     1
  0
VERTEX
  8
BASE-HID
 62
     7
 10
27.910717
 20
12.584218
 30
0.0
  0
VERTEX
  8
BASE-HID
 62
     7
 10
27.910717
 20
12.634218
 30
0.0
  0
VERTEX
  8
BASE-HID
 62
     7
 10
25.368717
 20
12.634218
 30
0.0
  0
VERTEX
  8
BASE-HID
 62
     7
 10
25.368717
 20
12.584218
 30
0.0
  0
SEQEND
  8
BASE-HID
 62
     7
  0
POLYLINE
  8
BASE-HID
 62
     7
 66
     1
 10
0.0
 20
0.0
 30
0.0
 70
     1
  0
VERTEX
  8
BASE-HID
 62
     7
 10
28.623805
 20
5.565743
 30
0.0
  0
VERTEX
  8
BASE-HID
 62
     7
 10
28.673805
 20
5.565743
 30
0.0
  0
VERTEX
  8
BASE-HID
 62
     7
 10
28.673805
 20
12.269743
 30
0.0
  0
VERTEX
  8
BASE-HID
 62
     7
 10
28.623805
 20
12.269743
 30
0.0
  0
SEQEND
  8
BASE-HID
 62
     7
  0
POLYLINE
  8
BASE
 62
     7
 66
     1
 10
0.0
 20
0.0
 30
0.0
 70
     1
  0
VERTEX
  8
BASE
 62
     7
 10
24.998717
 20
5.793359
 30
0.0
  0
VERTEX
  8
BASE
 62
     7
 10
24.998717
 20
9.823359
 30
0.0
  0
VERTEX
  8
BASE
 62
     7
 10
28.280717
 20
9.823359
 30
0.0
  0
VERTEX
  8
BASE
 62
     7
 10
28.280717
 20
5.793359
 30
0.0
  0
SEQEND
  8
BASE
 62
     7
  0
POLYLINE
  8
BASE
 62
     7
 66
     1
 10
0.0
 20
0.0
 30
0.0
 70
     1
  0
VERTEX
  8
BASE
 62
     7
 10
24.956717
 20
5.751359
 30
0.0
  0
VERTEX
  8
BASE
 62
     7
 10
24.956717
 20
9.865359
 30
0.0
  0
VERTEX
  8
BASE
 62
     7
 10
28.322717
 20
9.865359
 30
0.0
  0
VERTEX
  8
BASE
 62
     7
 10
28.322717
 20
5.751359
 30
0.0
  0
SEQEND
  8
BASE
 62
     7
  0
DIMENSION
  8
DIM
 62
     7
  2
*D61
 10
27.833717
 20
14.322125
 30
0.0
 11
26.639717
 21
14.322125
 31
0.0
 12
0.551832
 22
0.0
 32
0.0
 13
25.445717
 23
12.671218
 33
0.0
 14
27.833717
 24
12.671218
 34
0.0
  3
23NSTD
  0
DIMENSION
  8
DIM
 62
     7
  2
*D47
 10
29.428466
 20
12.671218
 30
0.0
 11
29.428466
 21
11.854288
 31
0.0
 12
0.551832
 22
-0.194697
 32
0.0
 13
27.840505
 23
11.037359
 33
0.0
 14
28.460584
 24
12.671218
 34
0.0
 50
90.0
  3
23NSTDI
  0
DIMENSION
  8
DIM
 62
     7
  2
*D38
 10
28.391686
 20
4.218769
 30
0.0
 11
26.639717
 21
4.218769
 31
0.0
 12
0.551832
 22
-0.194697
 32
0.0
 13
24.887747
 23
5.340545
 33
0.0
 14
28.391686
 24
5.340545
 34
0.0
  3
23NSTD
  0
DIMENSION
  8
DIM
 62
     7
  2
*D45
 10
30.083966
 20
5.180269
 30
0.0
 11
29.184591
 21
4.460269
 31
0.0
 12
0.551832
 22
-0.194697
 32
0.0
 13
28.526686
 23
5.475545
 33
0.0
 14
28.460584
 24
5.180269
 34
0.0
 50
90.0
  3
23NSTD
  0
DIMENSION
  8
DIM
 62
     7
  2
*D46
 10
30.083966
 20
12.325942
 30
0.0
 11
30.083966
 21
8.900743
 31
0.0
 12
0.551832
 22
-0.194697
 32
0.0
 13
28.526686
 23
5.475545
 33
0.0
 14
28.526686
 24
12.325942
 34
0.0
 50
90.0
  3
23NSTD
  0
DIMENSION
  8
DIM
 62
     7
  2
*D40
 10
20.536479
 20
4.696772
 30
0.0
 11
21.764604
 21
4.696772
 31
0.0
 12
0.0
 22
-0.194697
 32
0.0
 13
19.819944
 23
5.180269
 33
0.0
 14
20.536479
 24
5.41649
 34
0.0
  3
23NSTD
  0
LINE
  8
BASE-HID
 62
     7
 10
19.819944
 20
5.565743
 30
0.0
 11
19.878944
 21
5.565743
 31
0.0
  0
LINE
  8
BASE-HID
 62
     7
 10
19.878944
 20
5.565743
 30
0.0
 11
19.878944
 21
12.269743
 31
0.0
  0
LINE
  8
BASE-HID
 62
     7
 10
19.878944
 20
5.217269
 30
0.0
 11
19.878944
 21
5.267269
 31
0.0
  0
LINE
  8
BASE-HID
 62
     7
 10
19.878944
 20
5.267269
 30
0.0
 11
19.819944
 21
5.267269
 31
0.0
  0
LINE
  8
BASE-HID
 62
     7
 10
19.819944
 20
5.217269
 30
0.0
 11
19.878944
 21
5.217269
 31
0.0
  0
LINE
  8
BASE-HID
 62
     7
 10
19.819944
 20
12.269743
 30
0.0
 11
19.878944
 21
12.269743
 31
0.0
  0
LINE
  8
BASE-HID
 62
     7
 10
19.878944
 20
12.634218
 30
0.0
 11
19.878944
 21
12.584218
 31
0.0
  0
LINE
  8
BASE-HID
 62
     7
 10
19.819944
 20
12.634218
 30
0.0
 11
19.878944
 21
12.634218
 31
0.0
  0
LINE
  8
BASE-HID
 62
     7
 10
19.878944
 20
12.584218
 30
0.0
 11
19.819944
 21
12.584218
 31
0.0
  0
LINE
  8
BASE
 62
     7
 10
4.119931
 20
5.77082
 30
0.0
 11
4.119931
 21
6.007041
 31
0.0
  0
LINE
  8
BASE
 62
     7
 10
4.446758
 20
5.217269
 30
0.0
 11
4.446758
 21
5.267269
 31
0.0
  0
LINE
  8
BASE
 62
     7
 10
4.505758
 20
5.217269
 30
0.0
 11
4.446758
 21
5.217269
 31
0.0
  0
LINE
  8
BASE
 62
     7
 10
4.446758
 20
5.267269
 30
0.0
 11
4.505758
 21
5.267269
 31
0.0
  0
LINE
  8
BASE
 62
     7
 10
4.119931
 20
5.77082
 30
0.0
 11
3.883711
 21
5.77082
 31
0.0
  0
LINE
  8
BASE
 62
     7
 10
4.505758
 20
5.538537
 30
0.0
 11
3.883222
 21
5.538537
 31
0.0
  0
LINE
  8
BASE
 62
     7
 10
4.505758
 20
5.412553
 30
0.0
 11
3.883222
 21
5.412553
 31
0.0
  0
LINE
  8
BASE
 62
     7
 10
4.505758
 20
5.623183
 30
0.0
 11
3.883711
 21
5.623183
 31
0.0
  0
LINE
  8
BASE
 62
     7
 10
4.505758
 20
5.327907
 30
0.0
 11
3.883222
 21
5.327907
 31
0.0
  0
LINE
  8
BASE
 62
     7
 10
3.795582
 20
5.362045
 30
0.0
 11
3.883222
 21
5.362045
 31
0.0
  0
LINE
  8
BASE
 62
     7
 10
3.789222
 20
5.589045
 30
0.0
 11
3.883222
 21
5.589045
 31
0.0
  0
LINE
  8
BASE
 62
     7
 10
3.883222
 20
5.298379
 30
0.0
 11
3.883222
 21
5.327907
 31
0.0
  0
LINE
  8
BASE
 62
     7
 10
4.119931
 20
6.007041
 30
0.0
 11
3.883711
 21
6.007041
 31
0.0
  0
LINE
  8
BASE
 62
     7
 10
4.119931
 20
9.42687
 30
0.0
 11
3.883711
 21
9.42687
 31
0.0
  0
LINE
  8
BASE
 62
     7
 10
4.119931
 20
9.190649
 30
0.0
 11
3.883711
 21
9.190649
 31
0.0
  0
LINE
  8
BASE
 62
     7
 10
4.119931
 20
9.190649
 30
0.0
 11
4.119931
 21
9.42687
 31
0.0
  0
LINE
  8
BASE
 62
     7
 10
4.119931
 20
10.495232
 30
0.0
 11
3.883711
 21
10.495232
 31
0.0
  0
LINE
  8
BASE
 62
     7
 10
4.119931
 20
10.259012
 30
0.0
 11
3.883711
 21
10.259012
 31
0.0
  0
LINE
  8
BASE
 62
     7
 10
4.119931
 20
10.259012
 30
0.0
 11
4.119931
 21
10.495232
 31
0.0
  0
LINE
  8
BASE
 62
     7
 10
4.671222
 20
11.103359
 30
0.0
 11
4.671222
 21
12.152462
 31
0.0
  0
LINE
  8
BASE
 62
     7
 10
4.737222
 20
11.037359
 30
0.0
 11
4.737222
 21
12.218462
 31
0.0
  0
LINE
  8
BASE
 62
     7
 10
4.737222
 20
11.037359
 30
0.0
 11
3.910222
 21
11.037359
 31
0.0
  0
LINE
  8
BASE
 62
     7
 10
4.140222
 20
11.157359
 30
0.0
 11
4.671222
 21
11.157359
 31
0.0
  0
LINE
  8
BASE
 62
     7
 10
4.140222
 20
11.57391
 30
0.0
 11
4.671222
 21
11.57391
 31
0.0
  0
LINE
  8
BASE
 62
     7
 10
4.140222
 20
11.68191
 30
0.0
 11
4.671222
 21
11.68191
 31
0.0
  0
LINE
  8
BASE
 62
     7
 10
4.671222
 20
11.103359
 30
0.0
 11
3.883711
 21
11.103359
 31
0.0
  0
LINE
  8
BASE
 62
     7
 10
4.105222
 20
11.103359
 30
0.0
 11
4.105222
 21
11.122359
 31
0.0
  0
LINE
  8
BASE
 62
     7
 10
3.883711
 20
11.046218
 30
0.0
 11
3.789222
 21
11.046218
 31
0.0
  0
LINE
  8
BASE
 62
     7
 10
4.105222
 20
11.60891
 30
0.0
 11
4.105222
 21
11.64691
 31
0.0
  0
LINE
  8
BASE
 62
     7
 10
4.323758
 20
12.218462
 30
0.0
 11
4.737222
 21
12.218462
 31
0.0
  0
LINE
  8
BASE
 62
     7
 10
4.140222
 20
12.098462
 30
0.0
 11
4.671222
 21
12.098462
 31
0.0
  0
LINE
  8
BASE
 62
     7
 10
4.105222
 20
12.152462
 30
0.0
 11
4.671222
 21
12.152462
 31
0.0
  0
LINE
  8
BASE
 62
     7
 10
4.323758
 20
12.218462
 30
0.0
 11
4.323758
 21
12.553108
 31
0.0
  0
LINE
  8
BASE
 62
     7
 10
4.257758
 20
12.152462
 30
0.0
 11
4.257758
 21
12.671218
 31
0.0
  0
LINE
  8
BASE
 62
     7
 10
4.505758
 20
12.228304
 30
0.0
 11
4.323758
 21
12.228304
 31
0.0
  0
LINE
  8
BASE
 62
     7
 10
4.105222
 20
12.133462
 30
0.0
 11
4.105222
 21
12.152462
 31
0.0
  0
LINE
  8
BASE
 62
     7
 10
4.505758
 20
12.52358
 30
0.0
 11
4.323758
 21
12.52358
 31
0.0
  0
LINE
  8
BASE
 62
     7
 10
4.446758
 20
12.584218
 30
0.0
 11
4.505758
 21
12.584218
 31
0.0
  0
LINE
  8
BASE
 62
     7
 10
4.505758
 20
12.634218
 30
0.0
 11
4.446758
 21
12.634218
 31
0.0
  0
LINE
  8
BASE
 62
     7
 10
4.446758
 20
12.634218
 30
0.0
 11
4.446758
 21
12.584218
 31
0.0
  0
LINE
  8
BASE
 62
     7
 10
4.245222
 20
12.671218
 30
0.0
 11
4.245222
 21
12.553108
 31
0.0
  0
DIMENSION
  8
DIM
 62
     7
  2
*D63
 10
20.316137
 20
12.450876
 30
0.0
 11
23.304756
 21
14.559304
 31
0.0
 70
     4
  1
R0.265 TYP.
 15
20.53677
 25
12.743586
 35
0.0
 40
2.273747
  3
23NSTD
  0
LINE
  8
BASE
 62
     7
 10
3.883711
 20
6.007041
 30
0.0
 11
3.883711
 21
9.190649
 31
0.0
  0
LINE
  8
BASE
 62
     7
 10
3.883711
 20
5.843939
 30
0.0
 11
3.883711
 21
5.933923
 31
0.0
  0
LINE
  8
BASE
 62
     7
 10
3.883711
 20
5.623183
 30
0.0
 11
3.883711
 21
5.77082
 31
0.0
  0
LINE
  8
BASE
 62
     7
 10
3.883711
 20
9.263767
 30
0.0
 11
3.883711
 21
9.353751
 31
0.0
  0
LINE
  8
BASE
 62
     7
 10
3.883711
 20
9.42687
 30
0.0
 11
3.883711
 21
10.259012
 31
0.0
  0
LINE
  8
BASE
 62
     7
 10
3.883711
 20
10.33213
 30
0.0
 11
3.883711
 21
10.422114
 31
0.0
  0
LINE
  8
BASE
 62
     7
 10
3.883711
 20
10.495232
 30
0.0
 11
3.883711
 21
10.813359
 31
0.0
  0
LINE
  8
BASE
 62
     7
 10
4.257758
 20
12.228304
 30
0.0
 11
3.883711
 21
12.228304
 31
0.0
  0
LINE
  8
BASE
 62
     7
 10
4.257758
 20
12.52358
 30
0.0
 11
3.883711
 21
12.52358
 31
0.0
  0
POLYLINE
  8
BASE
 62
     7
 66
     1
 10
0.0
 20
0.0
 30
0.0
  0
VERTEX
  8
BASE
 62
     7
 10
3.936734
 20
11.103359
 30
0.0
  0
VERTEX
  8
BASE
 62
     7
 10
3.936734
 20
11.037359
 30
0.0
 42
0.414214
  0
SEQEND
  8
BASE
 62
     7
  0
LINE
  8
BASE
 62
     7
 10
3.910222
 20
11.079089
 30
0.0
 11
3.883711
 21
11.079089
 31
0.0
  0
LINE
  8
BASE
 62
     7
 10
3.910222
 20
11.079089
 30
0.0
 11
3.910222
 21
10.813359
 31
0.0
  0
LINE
  8
BASE
 62
     7
 10
3.883711
 20
11.079089
 30
0.0
 11
3.883711
 21
12.553108
 31
0.0
  0
LINE
  8
BASE
 62
     7
 10
3.910222
 20
10.813359
 30
0.0
 11
3.857199
 21
10.813359
 31
0.0
  0
LINE
  8
BASE
 62
     7
 10
3.883711
 20
10.657359
 30
0.0
 11
3.857199
 21
10.657359
 31
0.0
  0
LINE
  8
BASE
 62
     7
 10
3.857199
 20
10.657359
 30
0.0
 11
3.857199
 21
10.944359
 31
0.0
  0
POLYLINE
  8
BASE
 62
     7
 66
     1
 10
0.0
 20
0.0
 30
0.0
  0
VERTEX
  8
BASE
 62
     7
 10
3.883711
 20
10.991359
 30
0.0
  0
VERTEX
  8
BASE
 62
     7
 10
3.857199
 20
10.991359
 30
0.0
  0
SEQEND
  8
BASE
 62
     7
  0
POLYLINE
  8
BASE
 62
     7
 66
     1
 10
0.0
 20
0.0
 30
0.0
  0
VERTEX
  8
BASE
 62
     7
 10
3.883711
 20
10.944359
 30
0.0
  0
VERTEX
  8
BASE
 62
     7
 10
3.857199
 20
10.944359
 30
0.0
  0
SEQEND
  8
BASE
 62
     7
  0
POLYLINE
  8
BASE
 62
     7
 66
     1
 10
0.0
 20
0.0
 30
0.0
  0
VERTEX
  8
BASE
 62
     7
 10
3.883711
 20
10.860359
 30
0.0
  0
VERTEX
  8
BASE
 62
     7
 10
3.857199
 20
10.860359
 30
0.0
  0
SEQEND
  8
BASE
 62
     7
  0
LINE
  8
BASE
 62
     7
 10
3.883711
 20
10.860359
 30
0.0
 11
3.883711
 21
11.046218
 31
0.0
  0
LINE
  8
BASE
 62
     7
 10
3.857199
 20
10.991359
 30
0.0
 11
3.857199
 21
11.046218
 31
0.0
  0
ARC
  8
BASE
 62
     7
 10
4.140222
 20
11.64691
 30
0.0
 40
0.035
 50
90.0
 51
180.0
  0
ARC
  8
BASE
 62
     7
 10
4.140222
 20
11.60891
 30
0.0
 40
0.035
 50
180.0
 51
270.0
  0
ARC
  8
BASE
 62
     7
 10
4.140222
 20
11.122359
 30
0.0
 40
0.035
 50
90.0
 51
180.0
  0
ARC
  8
BASE
 62
     7
 10
4.140222
 20
12.133462
 30
0.0
 40
0.035
 50
180.0
 51
270.0
  0
ARC
  8
BASE-HID
 62
     7
 10
20.185479
 20
11.122359
 30
0.0
 40
0.035
 50
0.0
 51
90.0
  0
ARC
  8
BASE-HID
 62
     7
 10
20.185479
 20
11.64691
 30
0.0
 40
0.035
 50
0.0
 51
90.0
  0
ARC
  8
BASE-HID
 62
     7
 10
20.185479
 20
11.60891
 30
0.0
 40
0.035
 50
270.0
 51
0.0
  0
ARC
  8
BASE-HID
 62
     7
 10
20.185479
 20
12.133462
 30
0.0
 40
0.035
 50
270.0
 51
360.0
  0
LINE
  8
BASE
 62
     7
 10
4.257758
 20
12.218462
 30
0.0
 11
3.883711
 21
12.218462
 31
0.0
  0
DIMENSION
  8
DIM
 62
     7
  2
*D28
 10
2.593722
 20
12.671218
 30
0.0
 11
1.888586
 21
13.380424
 31
0.0
 12
0.0
 22
0.474643
 32
0.0
 70
   128
 13
3.789222
 23
12.218462
 33
0.0
 14
4.020687
 24
12.671218
 34
0.0
 50
270.0
  3
23NSTDI
  0
DIMENSION
  8
DIM
 62
     7
  2
*D2
 10
1.938222
 20
11.037359
 30
0.0
 11
1.938222
 21
11.62791
 31
0.0
 12
0.0
 22
-22.991475
 32
0.0
 13
3.789222
 23
12.218462
 33
0.0
 14
3.789222
 24
11.037359
 34
0.0
 50
270.0
  3
23NSTDI
  0
DIMENSION
  8
DIM
 62
     7
  2
*D60
 10
3.789222
 20
13.211218
 30
0.0
 11
4.263222
 21
13.211218
 31
0.0
 13
4.737222
 23
12.218462
 33
0.0
 14
3.789222
 24
12.434997
 34
0.0
  3
23NSTDI
  0
LINE
  8
CENTER
 62
     7
 10
24.752747
 20
5.475545
 30
0.0
 11
25.022747
 21
5.475545
 31
0.0
  0
LINE
  8
CENTER
 62
     7
 10
24.887747
 20
5.340545
 30
0.0
 11
24.887747
 21
5.610545
 31
0.0
  0
LINE
  8
CENTER
 62
     7
 10
28.256686
 20
5.475545
 30
0.0
 11
28.526686
 21
5.475545
 31
0.0
  0
LINE
  8
CENTER
 62
     7
 10
28.391686
 20
5.340545
 30
0.0
 11
28.391686
 21
5.610545
 31
0.0
  0
LINE
  8
CENTER
 62
     7
 10
28.256686
 20
12.325942
 30
0.0
 11
28.526686
 21
12.325942
 31
0.0
  0
LINE
  8
CENTER
 62
     7
 10
28.391686
 20
12.190942
 30
0.0
 11
28.391686
 21
12.460942
 31
0.0
  0
LINE
  8
CENTER
 62
     7
 10
24.752747
 20
12.325942
 30
0.0
 11
25.022747
 21
12.325942
 31
0.0
  0
LINE
  8
CENTER
 62
     7
 10
24.887747
 20
12.190942
 30
0.0
 11
24.887747
 21
12.460942
 31
0.0
  0
TEXT
  8
TEXT
 62
     7
 10
23.596461
 20
3.267935
 30
0.0
 40
0.25
  1
MATERIAL - HIGH-IMPACT ABS
 41
0.75
  7
TXT
  0
TEXT
  8
TEXT
 62
     7
 10
23.596461
 20
2.851268
 30
0.0
 40
0.25
  1
COLOR - BLACK
 41
0.75
  7
TXT
  0
TEXT
  8
TEXT
 62
     7
 10
23.596461
 20
2.434602
 30
0.0
 40
0.25
  1
      - LIGHT GRAY
 41
0.75
  7
TXT
  0
TEXT
  8
TEXT
 62
     7
 10
23.596461
 20
2.017935
 30
0.0
 40
0.25
  1
FINISH - TEXTURED BODY WITH
 41
0.75
  7
TXT
  0
TEXT
  8
TEXT
 62
     7
 10
3.162666
 20
1.846845
 30
0.0
 40
0.312
  1
%%USECTION "A-A"
 41
0.75
  7
TXT
 72
     1
 11
4.531566
 21
1.846845
 31
0.0
  0
LINE
  8
COVER
 62
     7
 10
19.29522
 20
5.180269
 30
0.0
 11
19.807031
 21
5.180269
 31
0.0
  0
LINE
  8
COVER
 62
     7
 10
10.57285
 20
5.45023
 30
0.0
 11
14.178214
 21
5.45023
 31
0.0
  0
LINE
  8
COVER
 62
     7
 10
10.57285
 20
9.649145
 30
0.0
 11
14.178214
 21
9.649145
 31
0.0
  0
LINE
  8
COVER
 62
     7
 10
19.807031
 20
5.180269
 30
0.0
 11
19.807031
 21
12.671218
 31
0.0
  0
LINE
  8
COVER
 62
     7
 10
14.178214
 20
5.45023
 30
0.0
 11
14.178214
 21
9.649145
 31
0.0
  0
LINE
  8
COVER
 62
     7
 10
10.57285
 20
5.45023
 30
0.0
 11
10.57285
 21
9.649145
 31
0.0
  0
LINE
  8
COVER
 62
     7
 10
19.418299
 20
12.671218
 30
0.0
 11
19.807031
 21
12.671218
 31
0.0
  0
LINE
  8
COVER
 62
     7
 10
19.216479
 20
5.259009
 30
0.0
 11
19.216479
 21
9.715201
 31
0.0
  0
ARC
  8
COVER
 62
     7
 10
19.29522
 20
5.259009
 30
0.0
 40
0.07874
 50
180.0
 51
270.0
  0
LINE
  8
COVER-HID
 62
     7
 10
19.216479
 20
5.45023
 30
0.0
 11
19.26766
 21
5.45023
 31
0.0
  0
LINE
  8
COVER-HID
 62
     7
 10
19.216479
 20
9.649145
 30
0.0
 11
19.26766
 21
9.649145
 31
0.0
  0
LINE
  8
COVER-HID
 62
     7
 10
19.26766
 20
5.45023
 30
0.0
 11
19.26766
 21
9.649145
 31
0.0
  0
LINE
  8
COVER
 62
     7
 10
19.216479
 20
9.715201
 30
0.0
 11
18.23034
 21
12.0265
 31
0.0
  0
LINE
  8
COVER-HID
 62
     7
 10
19.391991
 20
5.298379
 30
0.0
 11
19.807031
 21
5.298379
 31
0.0
  0
LINE
  8
COVER-HID
 62
     7
 10
19.458658
 20
12.553108
 30
0.0
 11
19.807031
 21
12.553108
 31
0.0
  0
LINE
  8
COVER-HID
 62
     7
 10
19.216479
 20
9.715201
 30
0.0
 11
19.296145
 21
9.749191
 31
0.0
  0
LINE
  8
COVER-HID
 62
     7
 10
19.296145
 20
9.749191
 30
0.0
 11
18.435277
 21
11.766883
 31
0.0
  0
LINE
  8
COVER-HID
 62
     7
 10
19.391991
 20
9.74526
 30
0.0
 11
18.498532
 21
11.839337
 31
0.0
  0
LINE
  8
COVER-HID
 62
     7
 10
19.858212
 20
5.690395
 30
0.0
 11
19.858212
 21
12.158092
 31
0.0
  0
LINE
  8
COVER-HID
 62
     7
 10
19.807031
 20
5.690395
 30
0.0
 11
19.858212
 21
5.690395
 31
0.0
  0
LINE
  8
COVER-HID
 62
     7
 10
19.807031
 20
12.158092
 30
0.0
 11
19.858212
 21
12.158092
 31
0.0
  0
LINE
  8
COVER
 62
     7
 10
14.44662
 20
9.715201
 30
0.0
 11
10.304445
 21
9.715201
 31
0.0
  0
LINE
  8
COVER
 62
     7
 10
14.060604
 20
9.751805
 30
0.0
 11
10.69046
 21
9.751805
 31
0.0
  0
LINE
  8
COVER
 62
     7
 10
14.060604
 20
9.982583
 30
0.0
 11
10.69046
 21
9.982583
 31
0.0
  0
LINE
  8
COVER
 62
     7
 10
14.060604
 20
10.07271
 30
0.0
 11
10.69046
 21
10.07271
 31
0.0
  0
LINE
  8
COVER
 62
     7
 10
14.060604
 20
11.575632
 30
0.0
 11
10.69046
 21
11.575632
 31
0.0
  0
LINE
  8
COVER
 62
     7
 10
14.060604
 20
11.592549
 30
0.0
 11
10.69046
 21
11.592549
 31
0.0
  0
LINE
  8
COVER
 62
     7
 10
14.098006
 20
11.766883
 30
0.0
 11
10.653059
 21
11.766883
 31
0.0
  0
LINE
  8
COVER
 62
     7
 10
14.060604
 20
11.592549
 30
0.0
 11
14.060604
 21
9.751805
 31
0.0
  0
LINE
  8
COVER
 62
     7
 10
10.69046
 20
11.592549
 30
0.0
 11
10.69046
 21
9.751805
 31
0.0
  0
LINE
  8
COVER
 62
     7
 10
10.653059
 20
11.797382
 30
0.0
 11
10.653059
 21
9.715201
 31
0.0
  0
LINE
  8
COVER
 62
     7
 10
14.098006
 20
11.797382
 30
0.0
 11
14.098006
 21
9.715201
 31
0.0
  0
LINE
  8
CENTER
 62
     7
 10
13.299576
 20
9.884747
 30
0.0
 11
11.451488
 21
9.884747
 31
0.0
  0
LINE
  8
CENTER
 62
     7
 10
13.299576
 20
11.678546
 30
0.0
 11
11.451488
 21
11.678546
 31
0.0
  0
LINE
  8
CENTER
 62
     7
 10
13.529076
 20
11.433046
 30
0.0
 11
13.529076
 21
10.122247
 31
0.0
  0
LINE
  8
CENTER
 62
     7
 10
11.221988
 20
11.433046
 30
0.0
 11
11.221988
 21
10.122247
 31
0.0
  0
CIRCLE
  8
COVER
 62
     7
 10
13.529076
 20
9.884747
 30
0.0
 40
0.048228
  0
CIRCLE
  8
COVER
 62
     7
 10
13.529076
 20
11.678546
 30
0.0
 40
0.048228
  0
CIRCLE
  8
COVER
 62
     7
 10
11.221988
 20
11.678546
 30
0.0
 40
0.048228
  0
CIRCLE
  8
COVER
 62
     7
 10
11.221988
 20
9.884747
 30
0.0
 40
0.048228
  0
LINE
  8
COVER-HID
 62
     7
 10
19.258886
 20
9.836519
 30
0.0
 11
19.353055
 21
9.836519
 31
0.0
  0
LINE
  8
COVER-HID
 62
     7
 10
19.217732
 20
9.932975
 30
0.0
 11
19.3119
 21
9.932975
 31
0.0
  0
LINE
  8
COVER-HID
 62
     7
 10
18.45239
 20
11.726774
 30
0.0
 11
18.546558
 21
11.726774
 31
0.0
  0
LINE
  8
COVER-HID
 62
     7
 10
18.493544
 20
11.630317
 30
0.0
 11
18.587712
 21
11.630317
 31
0.0
  0
LINE
  8
CENTER
 62
     7
 10
19.012056
 20
9.884747
 30
0.0
 11
19.542025
 21
9.884747
 31
0.0
  0
LINE
  8
CENTER
 62
     7
 10
18.186785
 20
11.678546
 30
0.0
 11
18.716754
 21
11.678546
 31
0.0
  0
CIRCLE
  8
COVER-HID
 62
     7
 10
14.127502
 20
5.475545
 30
0.0
 40
0.062992
  0
CIRCLE
  8
COVER-HID
 62
     7
 10
14.127502
 20
5.475545
 30
0.0
 40
0.147638
  0
CIRCLE
  8
COVER-HID
 62
     7
 10
10.623563
 20
5.475545
 30
0.0
 40
0.147638
  0
CIRCLE
  8
COVER-HID
 62
     7
 10
10.623563
 20
5.475545
 30
0.0
 40
0.062992
  0
CIRCLE
  8
COVER-HID
 62
     7
 10
10.623563
 20
12.325942
 30
0.0
 40
0.147638
  0
CIRCLE
  8
COVER-HID
 62
     7
 10
10.623563
 20
12.325942
 30
0.0
 40
0.062992
  0
CIRCLE
  8
COVER-HID
 62
     7
 10
14.127502
 20
12.325942
 30
0.0
 40
0.147638
  0
CIRCLE
  8
COVER-HID
 62
     7
 10
14.127502
 20
12.325942
 30
0.0
 40
0.062992
  0
POLYLINE
  8
COVER-HID
 62
     7
 66
     1
 10
0.0
 20
0.0
 30
0.0
 70
     1
  0
VERTEX
  8
COVER-HID
 62
     7
 10
14.210399
 20
5.298379
 30
0.0
  0
VERTEX
  8
COVER-HID
 62
     7
 10
10.540665
 20
5.298379
 30
0.0
 42
-0.414214
  0
VERTEX
  8
COVER-HID
 62
     7
 10
10.422555
 20
5.41649
 30
0.0
  0
VERTEX
  8
COVER-HID
 62
     7
 10
10.422555
 20
12.434997
 30
0.0
 42
-0.414214
  0
VERTEX
  8
COVER-HID
 62
     7
 10
10.540665
 20
12.553108
 30
0.0
  0
VERTEX
  8
COVER-HID
 62
     7
 10
14.210399
 20
12.553108
 30
0.0
 42
-0.414214
  0
VERTEX
  8
COVER-HID
 62
     7
 10
14.32851
 20
12.434997
 30
0.0
  0
VERTEX
  8
COVER-HID
 62
     7
 10
14.32851
 20
5.41649
 30
0.0
 42
-0.414214
  0
SEQEND
  8
COVER-HID
 62
     7
  0
LINE
  8
COVER-HID
 62
     7
 10
19.391991
 20
5.327907
 30
0.0
 11
19.807031
 21
5.327907
 31
0.0
  0
LINE
  8
COVER-HID
 62
     7
 10
19.391991
 20
5.623183
 30
0.0
 11
19.807031
 21
5.623183
 31
0.0
  0
LINE
  8
COVER-HID
 62
     7
 10
18.47259
 20
12.178304
 30
0.0
 11
19.807031
 21
12.178304
 31
0.0
  0
LINE
  8
COVER-HID
 62
     7
 10
18.965383
 20
12.47358
 30
0.0
 11
19.807031
 21
12.47358
 31
0.0
  0
LINE
  8
COVER-HID
 62
     7
 10
13.549532
 20
12.626218
 30
0.0
 11
13.549532
 21
12.593218
 31
0.0
  0
POLYLINE
  8
COVER-HID
 62
     7
 66
     1
 10
0.0
 20
0.0
 30
0.0
  0
VERTEX
  8
COVER-HID
 62
     7
 10
11.201532
 20
12.593218
 30
0.0
  0
VERTEX
  8
COVER-HID
 62
     7
 10
13.549532
 20
12.593218
 30
0.0
 42
-0.414214
  0
SEQEND
  8
COVER-HID
 62
     7
  0
POLYLINE
  8
COVER-HID
 62
     7
 66
     1
 10
0.0
 20
0.0
 30
0.0
  0
VERTEX
  8
COVER-HID
 62
     7
 10
11.201532
 20
12.626218
 30
0.0
  0
VERTEX
  8
COVER-HID
 62
     7
 10
13.549532
 20
12.626218
 30
0.0
 42
-0.414214
  0
SEQEND
  8
COVER-HID
 62
     7
  0
POLYLINE
  8
COVER-HID
 62
     7
 66
     1
 10
0.0
 20
0.0
 30
0.0
  0
VERTEX
  8
COVER-HID
 62
     7
 10
13.549532
 20
5.258269
 30
0.0
  0
VERTEX
  8
COVER-HID
 62
     7
 10
11.201532
 20
5.258269
 30
0.0
 42
-0.414214
  0
SEQEND
  8
COVER-HID
 62
     7
  0
POLYLINE
  8
COVER-HID
 62
     7
 66
     1
 10
0.0
 20
0.0
 30
0.0
  0
VERTEX
  8
COVER-HID
 62
     7
 10
10.382445
 20
5.690395
 30
0.0
  0
VERTEX
  8
COVER-HID
 62
     7
 10
10.382445
 20
12.158092
 30
0.0
 42
-0.413509
  0
SEQEND
  8
COVER-HID
 62
     7
  0
POLYLINE
  8
COVER-HID
 62
     7
 66
     1
 10
0.0
 20
0.0
 30
0.0
  0
VERTEX
  8
COVER-HID
 62
     7
 10
13.549532
 20
5.225269
 30
0.0
  0
VERTEX
  8
COVER-HID
 62
     7
 10
11.201532
 20
5.225269
 30
0.0
 42
-0.414214
  0
SEQEND
  8
COVER-HID
 62
     7
  0
POLYLINE
  8
COVER-HID
 62
     7
 66
     1
 10
0.0
 20
0.0
 30
0.0
  0
VERTEX
  8
COVER-HID
 62
     7
 10
10.349445
 20
5.690395
 30
0.0
  0
VERTEX
  8
COVER-HID
 62
     7
 10
10.349445
 20
12.158092
 30
0.0
 42
-0.413509
  0
SEQEND
  8
COVER-HID
 62
     7
  0
LINE
  8
COVER-HID
 62
     7
 10
13.549532
 20
5.258269
 30
0.0
 11
13.549532
 21
5.225269
 31
0.0
  0
LINE
  8
COVER-HID
 62
     7
 10
10.382445
 20
12.158092
 30
0.0
 11
10.349445
 21
12.158092
 31
0.0
  0
LINE
  8
COVER-HID
 62
     7
 10
11.201532
 20
5.258269
 30
0.0
 11
11.201532
 21
5.225269
 31
0.0
  0
LINE
  8
COVER-HID
 62
     7
 10
10.382445
 20
5.690395
 30
0.0
 11
10.349445
 21
5.690395
 31
0.0
  0
LINE
  8
COVER-HID
 62
     7
 10
19.858212
 20
12.626218
 30
0.0
 11
19.858212
 21
12.593218
 31
0.0
  0
LINE
  8
COVER-HID
 62
     7
 10
19.858212
 20
5.258269
 30
0.0
 11
19.858212
 21
5.225269
 31
0.0
  0
POLYLINE
  8
COVER-HID
 62
     7
 66
     1
 10
0.0
 20
0.0
 30
0.0
  0
VERTEX
  8
COVER-HID
 62
     7
 10
19.858212
 20
5.225269
 30
0.0
  0
VERTEX
  8
COVER-HID
 62
     7
 10
19.807031
 20
5.225269
 30
0.0
 42
-0.414214
  0
SEQEND
  8
COVER-HID
 62
     7
  0
POLYLINE
  8
COVER-HID
 62
     7
 66
     1
 10
0.0
 20
0.0
 30
0.0
  0
VERTEX
  8
COVER-HID
 62
     7
 10
19.858212
 20
5.258269
 30
0.0
  0
VERTEX
  8
COVER-HID
 62
     7
 10
19.807031
 20
5.258269
 30
0.0
 42
-0.414214
  0
SEQEND
  8
COVER-HID
 62
     7
  0
POLYLINE
  8
COVER-HID
 62
     7
 66
     1
 10
0.0
 20
0.0
 30
0.0
  0
VERTEX
  8
COVER-HID
 62
     7
 10
19.807031
 20
12.626218
 30
0.0
  0
VERTEX
  8
COVER-HID
 62
     7
 10
19.858212
 20
12.626218
 30
0.0
 42
-0.414214
  0
SEQEND
  8
COVER-HID
 62
     7
  0
POLYLINE
  8
COVER-HID
 62
     7
 66
     1
 10
0.0
 20
0.0
 30
0.0
  0
VERTEX
  8
COVER-HID
 62
     7
 10
19.807031
 20
12.593218
 30
0.0
  0
VERTEX
  8
COVER-HID
 62
     7
 10
19.858212
 20
12.593218
 30
0.0
 42
-0.414214
  0
SEQEND
  8
COVER-HID
 62
     7
  0
DIMENSION
  8
DIM
 62
     7
  2
*D37
 10
19.807031
 20
4.218769
 30
0.0
 11
21.035156
 21
4.218769
 31
0.0
 12
0.0
 22
-0.194697
 32
0.0
 13
19.216479
 23
5.259009
 33
0.0
 14
19.807031
 24
5.180269
 34
0.0
  3
23NSTD
  0
DIMENSION
  8
DIM
 62
     7
  2
*D3
 10
19.29522
 20
5.259009
 30
0.0
 11
17.103499
 21
4.030001
 31
0.0
 12
-0.713493
 22
-22.991475
 32
0.0
 70
     4
 15
19.23988
 25
5.202995
 35
0.0
 40
1.648915
  3
23NSTD
  0
DIMENSION
  8
DIM
 62
     7
  2
*D4
 10
10.304445
 20
4.218769
 30
0.0
 11
9.04507
 21
4.218769
 31
0.0
 12
-0.305663
 22
-22.991475
 32
0.0
 13
10.57285
 23
5.49523
 33
0.0
 14
10.304445
 24
5.41649
 34
0.0
  3
23NSTD
  0
DIMENSION
  8
DIM
 62
     7
  2
*D5
 10
14.178214
 20
4.218769
 30
0.0
 11
12.375532
 21
4.218769
 31
0.0
 12
-0.305663
 22
-22.991475
 32
0.0
  1
*<>
 13
10.57285
 23
5.49523
 33
0.0
 14
14.178214
 24
5.49523
 34
0.0
  3
23NSTD
  0
DIMENSION
  8
DIM
 62
     7
  2
*D30
 10
15.262934
 20
9.649145
 30
0.0
 11
15.262934
 21
7.549688
 31
0.0
 12
-0.305663
 22
0.474643
 32
0.0
  1
*<>
 13
14.178214
 23
5.45023
 33
0.0
 14
14.178214
 24
9.649145
 34
0.0
 50
90.0
  3
23NSTD
  0
LINE
  8
COVER
 62
     7
 10
4.933711
 20
5.298379
 30
0.0
 11
4.933711
 21
5.327907
 31
0.0
  0
LINE
  8
COVER
 62
     7
 10
5.058041
 20
5.45023
 30
0.0
 11
5.058041
 21
9.649145
 31
0.0
  0
LINE
  8
COVER
 62
     7
 10
5.109222
 20
5.259009
 30
0.0
 11
5.109222
 21
9.715201
 31
0.0
  0
LINE
  8
COVER
 62
     7
 10
4.518671
 20
5.180269
 30
0.0
 11
4.518671
 21
5.225269
 31
0.0
  0
LINE
  8
COVER
 62
     7
 10
5.030482
 20
5.180269
 30
0.0
 11
4.518671
 21
5.180269
 31
0.0
  0
ARC
  8
COVER
 62
     7
 10
5.030482
 20
5.259009
 30
0.0
 40
0.07874
 50
270.0
 51
0.0
  0
LINE
  8
COVER
 62
     7
 10
5.109222
 20
5.45023
 30
0.0
 11
5.058041
 21
5.45023
 31
0.0
  0
LINE
  8
COVER
 62
     7
 10
4.933711
 20
5.327907
 30
0.0
 11
4.518671
 21
5.327907
 31
0.0
  0
LINE
  8
COVER
 62
     7
 10
4.46749
 20
5.258269
 30
0.0
 11
4.46749
 21
5.225269
 31
0.0
  0
POLYLINE
  8
COVER
 62
     7
 66
     1
 10
0.0
 20
0.0
 30
0.0
  0
VERTEX
  8
COVER
 62
     7
 10
4.46749
 20
5.225269
 30
0.0
  0
VERTEX
  8
COVER
 62
     7
 10
4.518671
 20
5.225269
 30
0.0
 42
0.414214
  0
SEQEND
  8
COVER
 62
     7
  0
POLYLINE
  8
COVER
 62
     7
 66
     1
 10
0.0
 20
0.0
 30
0.0
  0
VERTEX
  8
COVER
 62
     7
 10
4.46749
 20
5.258269
 30
0.0
  0
VERTEX
  8
COVER
 62
     7
 10
4.518671
 20
5.258269
 30
0.0
 42
0.414214
  0
SEQEND
  8
COVER
 62
     7
  0
LINE
  8
COVER
 62
     7
 10
4.933711
 20
5.623183
 30
0.0
 11
4.518671
 21
5.623183
 31
0.0
  0
LINE
  8
COVER
 62
     7
 10
5.109222
 20
9.649145
 30
0.0
 11
5.058041
 21
9.649145
 31
0.0
  0
LINE
  8
COVER
 62
     7
 10
4.46749
 20
12.626218
 30
0.0
 11
4.46749
 21
12.593218
 31
0.0
  0
POLYLINE
  8
COVER
 62
     7
 66
     1
 10
0.0
 20
0.0
 30
0.0
  0
VERTEX
  8
COVER
 62
     7
 10
4.518671
 20
12.626218
 30
0.0
  0
VERTEX
  8
COVER
 62
     7
 10
4.46749
 20
12.626218
 30
0.0
 42
0.414214
  0
SEQEND
  8
COVER
 62
     7
  0
POLYLINE
  8
COVER
 62
     7
 66
     1
 10
0.0
 20
0.0
 30
0.0
  0
VERTEX
  8
COVER
 62
     7
 10
4.518671
 20
12.593218
 30
0.0
  0
VERTEX
  8
COVER
 62
     7
 10
4.46749
 20
12.593218
 30
0.0
 42
0.414214
  0
SEQEND
  8
COVER
 62
     7
  0
LINE
  8
COVER
 62
     7
 10
4.518671
 20
12.626218
 30
0.0
 11
4.518671
 21
12.671218
 31
0.0
  0
LINE
  8
COVER
 62
     7
 10
4.892687
 20
5.428553
 30
0.0
 11
4.892687
 21
5.522537
 31
0.0
  0
LINE
  8
COVER
 62
     7
 10
4.518671
 20
5.258269
 30
0.0
 11
4.518671
 21
11.037359
 31
0.0
  0
DIMENSION
  8
DIM
 62
     7
  2
*D54
 10
9.573759
 20
9.884747
 30
0.0
 11
9.573759
 21
7.532508
 31
0.0
 13
10.540665
 23
5.180269
 33
0.0
 14
11.100988
 24
9.884747
 34
0.0
 50
90.0
  3
23NSTD
  0
DIMENSION
  8
DIM
 62
     7
  2
*D55
 10
9.573759
 20
11.678546
 30
0.0
 11
9.573759
 21
10.781646
 31
0.0
 13
11.086988
 23
9.884747
 33
0.0
 14
11.086988
 24
11.678546
 34
0.0
 50
90.0
  3
23NSTD
  0
DIMENSION
  8
DIM
 62
     7
  2
*D65
 10
13.529076
 20
14.893833
 30
0.0
 11
12.375532
 21
14.893833
 31
0.0
 13
11.221988
 23
11.797546
 33
0.0
 14
13.529076
 24
11.797546
 34
0.0
  3
23NSTD
  0
LINE
  8
CENTER
 62
     7
 10
11.086988
 20
9.884747
 30
0.0
 11
11.356988
 21
9.884747
 31
0.0
  0
LINE
  8
CENTER
 62
     7
 10
11.221988
 20
9.749747
 30
0.0
 11
11.221988
 21
10.019747
 31
0.0
  0
LINE
  8
CENTER
 62
     7
 10
11.086988
 20
11.678546
 30
0.0
 11
11.356988
 21
11.678546
 31
0.0
  0
LINE
  8
CENTER
 62
     7
 10
11.221988
 20
11.527546
 30
0.0
 11
11.221988
 21
11.797546
 31
0.0
  0
LINE
  8
CENTER
 62
     7
 10
13.394076
 20
11.678546
 30
0.0
 11
13.664076
 21
11.678546
 31
0.0
  0
LINE
  8
CENTER
 62
     7
 10
13.529076
 20
11.527546
 30
0.0
 11
13.529076
 21
11.797546
 31
0.0
  0
LINE
  8
CENTER
 62
     7
 10
13.394076
 20
9.884747
 30
0.0
 11
13.664076
 21
9.884747
 31
0.0
  0
LINE
  8
CENTER
 62
     7
 10
13.529076
 20
9.749747
 30
0.0
 11
13.529076
 21
10.019747
 31
0.0
  0
POLYLINE
  8
BEND
 62
     7
 66
     1
 10
0.0
 20
0.0
 30
0.0
 41
0.126563
  0
VERTEX
  8
BEND
 62
     7
 10
14.901093
 20
13.346218
 30
0.0
 41
0.10125
  0
VERTEX
  8
BEND
 62
     7
 10
14.631093
 20
13.346218
 30
0.0
 41
0.0
  0
VERTEX
  8
BEND
 62
     7
 10
12.903041
 20
13.346218
 30
0.0
 41
0.0
  0
SEQEND
  8
BEND
 62
     7
  0
POLYLINE
  8
BEND
 62
     7
 66
     1
 10
0.0
 20
0.0
 30
0.0
 41
0.126563
  0
VERTEX
  8
BEND
 62
     7
 10
13.804685
 20
4.74982
 30
0.0
 41
0.10125
  0
VERTEX
  8
BEND
 62
     7
 10
13.534685
 20
4.74982
 30
0.0
 41
0.0
  0
VERTEX
  8
BEND
 62
     7
 10
12.903041
 20
4.74982
 30
0.0
 41
0.0
  0
SEQEND
  8
BEND
 62
     7
  0
TEXT
  8
BEND
 62
     7
 10
13.569268
 20
4.368061
 30
0.0
 40
0.25
  1
A
 41
0.75
  7
TXT
 72
     4
 11
13.631768
 21
4.493061
 31
0.0
  0
TEXT
  8
BEND
 62
     7
 10
14.627693
 20
13.468428
 30
0.0
 40
0.25
  1
A
 41
0.75
  7
TXT
 72
     4
 11
14.690193
 21
13.593428
 31
0.0
  0
POLYLINE
  8
OBJECT
 62
     7
 66
     1
 10
0.0
 20
0.0
 30
0.0
 70
     1
  0
VERTEX
  8
OBJECT
 62
     7
 10
2.050994
 20
16.682896
 30
0.0
  0
VERTEX
  8
OBJECT
 62
     7
 10
2.050994
 20
18.938803
 30
0.0
  0
VERTEX
  8
OBJECT
 62
     7
 10
5.488004
 20
18.938803
 30
0.0
  0
VERTEX
  8
OBJECT
 62
     7
 10
5.488004
 20
16.682896
 30
0.0
  0
SEQEND
  8
OBJECT
 62
     7
  0
LINE
  8
OBJECT
 62
     7
 10
2.710443
 20
18.283291
 30
0.0
 11
4.828555
 21
18.283291
 31
0.0
  0
LINE
  8
OBJECT
 62
     7
 10
2.710443
 20
17.338408
 30
0.0
 11
4.828555
 21
17.338408
 31
0.0
  0
LINE
  8
OBJECT
 62
     7
 10
4.828555
 20
18.283291
 30
0.0
 11
4.828555
 21
17.338408
 31
0.0
  0
LINE
  8
OBJECT
 62
     7
 10
2.710443
 20
18.283291
 30
0.0
 11
2.710443
 21
17.338408
 31
0.0
  0
LINE
  8
OBJECT
 62
     7
 10
2.63564
 20
18.358094
 30
0.0
 11
2.63564
 21
17.263605
 31
0.0
  0
LINE
  8
OBJECT
 62
     7
 10
4.903358
 20
18.358094
 30
0.0
 11
4.903358
 21
17.263605
 31
0.0
  0
LINE
  8
OBJECT
 62
     7
 10
2.63564
 20
17.263605
 30
0.0
 11
4.903358
 21
17.263605
 31
0.0
  0
LINE
  8
OBJECT
 62
     7
 10
2.63564
 20
18.358094
 30
0.0
 11
4.903358
 21
18.358094
 31
0.0
  0
LINE
  8
OBJECT
 62
     7
 10
2.710443
 20
17.338408
 30
0.0
 11
2.63564
 21
17.263605
 31
0.0
  0
LINE
  8
OBJECT
 62
     7
 10
4.828555
 20
17.338408
 30
0.0
 11
4.903358
 21
17.263605
 31
0.0
  0
LINE
  8
OBJECT
 62
     7
 10
4.828555
 20
18.283291
 30
0.0
 11
4.903358
 21
18.358094
 31
0.0
  0
LINE
  8
OBJECT
 62
     7
 10
2.710443
 20
18.283291
 30
0.0
 11
2.63564
 21
18.358094
 31
0.0
  0
LINE
  8
OBJECT
 62
     7
 10
8.794661
 20
18.938803
 30
0.0
 11
8.794661
 21
16.682896
 31
0.0
  0
LINE
  8
OBJECT
 62
     7
 10
8.882661
 20
18.86885
 30
0.0
 11
8.882661
 21
16.75285
 31
0.0
  0
LINE
  8
HIDDEN
 62
     7
 10
8.794661
 20
17.263605
 30
0.0
 11
8.882661
 21
17.338408
 31
0.0
  0
LINE
  8
HIDDEN
 62
     7
 10
8.882661
 20
18.283291
 30
0.0
 11
8.794661
 21
18.358094
 31
0.0
  0
LINE
  8
HIDDEN
 62
     7
 10
2.63564
 20
15.076173
 30
0.0
 11
2.710443
 21
14.988173
 31
0.0
  0
LINE
  8
OBJECT
 62
     7
 10
5.488004
 20
14.988173
 30
0.0
 11
2.050994
 21
14.988173
 31
0.0
  0
LINE
  8
OBJECT
 62
     7
 10
5.488004
 20
15.076173
 30
0.0
 11
2.050994
 21
15.076173
 31
0.0
  0
LINE
  8
HIDDEN
 62
     7
 10
4.828555
 20
14.988173
 30
0.0
 11
4.903358
 21
15.076173
 31
0.0
  0
LINE
  8
OBJECT
 62
     7
 10
8.794661
 20
18.938803
 30
0.0
 11
8.882661
 21
18.86885
 31
0.0
  0
LINE
  8
OBJECT
 62
     7
 10
8.882661
 20
16.75285
 30
0.0
 11
8.794661
 21
16.682896
 31
0.0
  0
LINE
  8
OBJECT
 62
     7
 10
5.488004
 20
15.076173
 30
0.0
 11
5.488004
 21
14.988173
 31
0.0
  0
LINE
  8
OBJECT
 62
     7
 10
2.050994
 20
15.076173
 30
0.0
 11
2.050994
 21
14.988173
 31
0.0
  0
LINE
  8
OBJECT
 62
     7
 10
8.882661
 20
18.59235
 30
0.0
 11
8.962661
 21
18.59235
 31
0.0
  0
LINE
  8
OBJECT
 62
     7
 10
8.882661
 20
17.02935
 30
0.0
 11
8.962661
 21
17.02935
 31
0.0
  0
LINE
  8
OBJECT
 62
     7
 10
2.340999
 20
14.988173
 30
0.0
 11
2.340999
 21
14.908173
 31
0.0
  0
LINE
  8
OBJECT
 62
     7
 10
5.197999
 20
14.988173
 30
0.0
 11
5.197999
 21
14.908173
 31
0.0
  0
LINE
  8
HIDDEN
 62
     7
 10
8.882661
 20
17.08935
 30
0.0
 11
8.962661
 21
17.08935
 31
0.0
  0
LINE
  8
HIDDEN
 62
     7
 10
2.400999
 20
14.988173
 30
0.0
 11
2.400999
 21
14.908173
 31
0.0
  0
LINE
  8
HIDDEN
 62
     7
 10
8.882661
 20
18.53235
 30
0.0
 11
8.962661
 21
18.53235
 31
0.0
  0
LINE
  8
HIDDEN
 62
     7
 10
5.137999
 20
14.988173
 30
0.0
 11
5.137999
 21
14.908173
 31
0.0
  0
LINE
  8
OBJECT
 62
     7
 10
13.482338
 20
18.59235
 30
0.0
 11
13.482338
 21
17.02935
 31
0.0
  0
LINE
  8
OBJECT
 62
     7
 10
13.422338
 20
18.53235
 30
0.0
 11
13.422338
 21
17.08935
 31
0.0
  0
LINE
  8
OBJECT
 62
     7
 10
10.625338
 20
18.59235
 30
0.0
 11
10.625338
 21
17.02935
 31
0.0
  0
LINE
  8
OBJECT
 62
     7
 10
10.685338
 20
18.53235
 30
0.0
 11
10.685338
 21
17.08935
 31
0.0
  0
POLYLINE
  8
OBJECT
 62
     7
 66
     1
 10
0.0
 20
0.0
 30
0.0
 70
     1
  0
VERTEX
  8
OBJECT
 62
     7
 10
10.335333
 20
16.682896
 30
0.0
  0
VERTEX
  8
OBJECT
 62
     7
 10
10.335333
 20
18.938803
 30
0.0
  0
VERTEX
  8
OBJECT
 62
     7
 10
13.772343
 20
18.938803
 30
0.0
  0
VERTEX
  8
OBJECT
 62
     7
 10
13.772343
 20
16.682896
 30
0.0
  0
SEQEND
  8
OBJECT
 62
     7
  0
LINE
  8
OBJECT
 62
     7
 10
10.625338
 20
17.02935
 30
0.0
 11
13.482338
 21
17.02935
 31
0.0
  0
LINE
  8
OBJECT
 62
     7
 10
10.685338
 20
17.08935
 30
0.0
 11
13.422338
 21
17.08935
 31
0.0
  0
LINE
  8
OBJECT
 62
     7
 10
10.994782
 20
18.283291
 30
0.0
 11
13.112894
 21
18.283291
 31
0.0
  0
LINE
  8
OBJECT
 62
     7
 10
10.994782
 20
17.338408
 30
0.0
 11
13.112894
 21
17.338408
 31
0.0
  0
LINE
  8
OBJECT
 62
     7
 10
10.625338
 20
18.59235
 30
0.0
 11
13.482338
 21
18.59235
 31
0.0
  0
LINE
  8
OBJECT
 62
     7
 10
10.685338
 20
18.53235
 30
0.0
 11
13.422338
 21
18.53235
 31
0.0
  0
LINE
  8
OBJECT
 62
     7
 10
10.994782
 20
18.283291
 30
0.0
 11
10.994782
 21
17.338408
 31
0.0
  0
LINE
  8
OBJECT
 62
     7
 10
13.112894
 20
18.283291
 30
0.0
 11
13.112894
 21
17.338408
 31
0.0
  0
LINE
  8
OBJECT
 62
     7
 10
5.197999
 20
14.908173
 30
0.0
 11
2.340999
 21
14.908173
 31
0.0
  0
LINE
  8
OBJECT
 62
     7
 10
8.962661
 20
18.59235
 30
0.0
 11
8.962661
 21
17.02935
 31
0.0
  0
LINE
  8
OBJECT
 62
     7
 10
10.335333
 20
18.86885
 30
0.0
 11
13.772343
 21
18.86885
 31
0.0
  0
LINE
  8
OBJECT
 62
     7
 10
10.335333
 20
16.75285
 30
0.0
 11
13.772343
 21
16.75285
 31
0.0
  0
DIMENSION
  8
DIM
 62
     7
  2
*D21
 10
8.794661
 20
16.142896
 30
0.0
 11
7.550911
 21
16.142896
 31
0.0
 12
0.226736
 22
0.453621
 32
0.0
 13
8.882661
 23
16.75285
 33
0.0
 14
8.794661
 24
16.682896
 34
0.0
  3
23NSTD
  0
DIMENSION
  8
DIM
 62
     7
  2
*D33
 10
8.794661
 20
15.598719
 30
0.0
 11
7.566536
 21
15.598719
 31
0.0
 12
0.0
 22
0.097348
 32
0.0
 13
8.962661
 23
17.02935
 33
0.0
 14
8.794661
 24
16.682896
 34
0.0
  3
23NSTD
  0
DIMENSION
  8
DIM
 62
     7
  2
*D19
 10
4.828555
 20
16.142896
 30
0.0
 11
3.769499
 21
16.142896
 31
0.0
 12
0.226736
 22
0.453621
 32
0.0
 13
2.710443
 23
17.338408
 33
0.0
 14
4.828555
 24
17.338408
 34
0.0
  3
23NSTD
  0
DIMENSION
  8
DIM
  2
*D20
 10
2.050994
 20
16.142896
 30
0.0
 11
0.791619
 21
16.142896
 31
0.0
 12
0.226736
 22
0.453621
 32
0.0
 13
2.710443
 23
17.338408
 33
0.0
 14
2.050994
 24
16.682896
 34
0.0
  3
23NSTD
  0
DIMENSION
  8
DIM
 62
     7
  2
*D32
 10
2.050994
 20
15.598719
 30
0.0
 11
3.769499
 21
15.598719
 31
0.0
 12
0.0
 22
0.097348
 32
0.0
 13
5.488004
 23
16.682896
 33
0.0
 14
2.050994
 24
16.682896
 34
0.0
  3
23NSTD
  0
DIMENSION
  8
DIM
 62
     7
  2
*D17
 10
6.819578
 20
16.682896
 30
0.0
 11
6.819578
 21
17.010652
 31
0.0
 12
0.226736
 22
0.453621
 32
0.0
 13
4.828555
 23
17.338408
 33
0.0
 14
5.488004
 24
16.682896
 34
0.0
 50
90.0
  3
23NSTDI
  0
DIMENSION
  8
DIM
 62
     7
  2
*D6
 10
6.028004
 20
17.338408
 30
0.0
 11
6.028004
 21
17.81085
 31
0.0
 12
0.226736
 22
-24.32791
 32
0.0
 13
4.828555
 23
18.283291
 33
0.0
 14
4.828555
 24
17.338408
 34
0.0
 50
90.0
  3
23NSTDI
  0
DIMENSION
  8
DIM
 62
     7
  2
*D18
 10
7.577133
 20
16.682896
 30
0.0
 11
7.577133
 21
17.81085
 31
0.0
 12
0.226736
 22
0.453621
 32
0.0
 13
5.488004
 23
18.938803
 33
0.0
 14
5.488004
 24
16.682896
 34
0.0
 50
90.0
  3
23NSTD
  0
POLYLINE
  8
OBJECT
 62
     7
 66
     1
 10
0.0
 20
0.0
 30
0.0
 70
     1
  0
VERTEX
  8
OBJECT
 62
     7
 10
16.341306
 20
16.682896
 30
0.0
  0
VERTEX
  8
OBJECT
 62
     7
 10
16.341306
 20
18.938803
 30
0.0
  0
VERTEX
  8
OBJECT
 62
     7
 10
19.778316
 20
18.938803
 30
0.0
  0
VERTEX
  8
OBJECT
 62
     7
 10
19.778316
 20
16.682896
 30
0.0
  0
SEQEND
  8
OBJECT
 62
     7
  0
LINE
  8
OBJECT
 62
     7
 10
22.376726
 20
18.938803
 30
0.0
 11
22.376726
 21
16.682896
 31
0.0
  0
LINE
  8
OBJECT
 62
     7
 10
22.464726
 20
18.86885
 30
0.0
 11
22.464726
 21
16.75285
 31
0.0
  0
LINE
  8
OBJECT
 62
     7
 10
19.778316
 20
14.988173
 30
0.0
 11
16.341306
 21
14.988173
 31
0.0
  0
LINE
  8
OBJECT
 62
     7
 10
19.778316
 20
15.076173
 30
0.0
 11
16.341306
 21
15.076173
 31
0.0
  0
LINE
  8
OBJECT
 62
     7
 10
22.376726
 20
18.938803
 30
0.0
 11
22.464726
 21
18.86885
 31
0.0
  0
LINE
  8
OBJECT
 62
     7
 10
22.464726
 20
16.75285
 30
0.0
 11
22.376726
 21
16.682896
 31
0.0
  0
LINE
  8
OBJECT
 62
     7
 10
19.778316
 20
15.076173
 30
0.0
 11
19.778316
 21
14.988173
 31
0.0
  0
LINE
  8
OBJECT
 62
     7
 10
16.341306
 20
15.076173
 30
0.0
 11
16.341306
 21
14.988173
 31
0.0
  0
LINE
  8
OBJECT
 62
     7
 10
22.464726
 20
18.59235
 30
0.0
 11
22.544726
 21
18.59235
 31
0.0
  0
LINE
  8
OBJECT
 62
     7
 10
22.464726
 20
17.02935
 30
0.0
 11
22.544726
 21
17.02935
 31
0.0
  0
LINE
  8
OBJECT
 62
     7
 10
16.631311
 20
14.988173
 30
0.0
 11
16.631311
 21
14.908173
 31
0.0
  0
LINE
  8
OBJECT
 62
     7
 10
19.488311
 20
14.988173
 30
0.0
 11
19.488311
 21
14.908173
 31
0.0
  0
LINE
  8
HIDDEN
 62
     7
 10
22.464726
 20
17.08935
 30
0.0
 11
22.544726
 21
17.08935
 31
0.0
  0
LINE
  8
HIDDEN
 62
     7
 10
16.691311
 20
14.988173
 30
0.0
 11
16.691311
 21
14.908173
 31
0.0
  0
LINE
  8
HIDDEN
 62
     7
 10
22.464726
 20
18.53235
 30
0.0
 11
22.544726
 21
18.53235
 31
0.0
  0
LINE
  8
HIDDEN
 62
     7
 10
19.428311
 20
14.988173
 30
0.0
 11
19.428311
 21
14.908173
 31
0.0
  0
LINE
  8
OBJECT
 62
     7
 10
27.923494
 20
18.59235
 30
0.0
 11
27.923494
 21
17.02935
 31
0.0
  0
LINE
  8
OBJECT
 62
     7
 10
27.863494
 20
18.53235
 30
0.0
 11
27.863494
 21
17.08935
 31
0.0
  0
LINE
  8
OBJECT
 62
     7
 10
25.066494
 20
18.59235
 30
0.0
 11
25.066494
 21
17.02935
 31
0.0
  0
LINE
  8
OBJECT
 62
     7
 10
25.126494
 20
18.53235
 30
0.0
 11
25.126494
 21
17.08935
 31
0.0
  0
POLYLINE
  8
OBJECT
 62
     7
 66
     1
 10
0.0
 20
0.0
 30
0.0
 70
     1
  0
VERTEX
  8
OBJECT
 62
     7
 10
24.776489
 20
16.682896
 30
0.0
  0
VERTEX
  8
OBJECT
 62
     7
 10
24.776489
 20
18.938803
 30
0.0
  0
VERTEX
  8
OBJECT
 62
     7
 10
28.213499
 20
18.938803
 30
0.0
  0
VERTEX
  8
OBJECT
 62
     7
 10
28.213499
 20
16.682896
 30
0.0
  0
SEQEND
  8
OBJECT
 62
     7
  0
LINE
  8
OBJECT
 62
     7
 10
25.066494
 20
17.02935
 30
0.0
 11
27.923494
 21
17.02935
 31
0.0
  0
LINE
  8
OBJECT
 62
     7
 10
25.126494
 20
17.08935
 30
0.0
 11
27.863494
 21
17.08935
 31
0.0
  0
LINE
  8
OBJECT
 62
     7
 10
25.066494
 20
18.59235
 30
0.0
 11
27.923494
 21
18.59235
 31
0.0
  0
LINE
  8
OBJECT
 62
     7
 10
25.126494
 20
18.53235
 30
0.0
 11
27.863494
 21
18.53235
 31
0.0
  0
LINE
  8
OBJECT
 62
     7
 10
19.488311
 20
14.908173
 30
0.0
 11
16.631311
 21
14.908173
 31
0.0
  0
LINE
  8
OBJECT
 62
     7
 10
22.544726
 20
18.59235
 30
0.0
 11
22.544726
 21
17.02935
 31
0.0
  0
LINE
  8
OBJECT
 62
     7
 10
24.776489
 20
18.86885
 30
0.0
 11
28.213499
 21
18.86885
 31
0.0
  0
LINE
  8
OBJECT
 62
     7
 10
24.776489
 20
16.75285
 30
0.0
 11
28.213499
 21
16.75285
 31
0.0
  0
DIMENSION
  8
DIM
 62
     7
  2
*D16
 10
22.376726
 20
16.142896
 30
0.0
 11
21.132976
 21
16.142896
 31
0.0
 12
-0.821181
 22
0.453621
 32
0.0
 13
22.464726
 23
16.75285
 33
0.0
 14
22.376726
 24
16.682896
 34
0.0
  3
23NSTD
  0
DIMENSION
  8
DIM
 62
     7
  2
*D34
 10
22.376726
 20
15.598719
 30
0.0
 11
21.148601
 21
15.598719
 31
0.0
 12
-0.821181
 22
0.097348
 32
0.0
 13
22.544726
 23
17.02935
 33
0.0
 14
22.376726
 24
16.682896
 34
0.0
  3
23NSTD
  0
DIMENSION
  8
DIM
 62
     7
  2
*D7
 10
16.341306
 20
16.142896
 30
0.0
 11
18.059811
 21
16.142896
 31
0.0
 12
0.343005
 22
-24.32791
 32
0.0
 13
19.778316
 23
16.682896
 33
0.0
 14
16.341306
 24
16.682896
 34
0.0
  3
23NSTD
  0
DIMENSION
  8
DIM
 62
     7
  2
*D35
 10
20.39394
 20
16.682896
 30
0.0
 11
20.39394
 21
17.81085
 31
0.0
 12
-0.821181
 22
0.097348
 32
0.0
 13
19.778316
 23
18.938803
 33
0.0
 14
19.778316
 24
16.682896
 34
0.0
 50
90.0
  3
23NSTD
  0
TEXT
  8
TEXT
 62
     7
 10
23.596461
 20
1.613185
 30
0.0
 40
0.25
  1
         SMOOTH TOP INSERT AREA
 41
0.75
  7
TXT
  0
TEXT
  8
TEXT
 62
     7
 10
23.596461
 20
1.196518
 30
0.0
 40
0.25
  1
* - SMOOTH AREA
 41
0.75
  7
TXT
  0
DIMENSION
  8
DIM
 62
     7
  2
*D41
 10
20.536479
 20
3.689216
 30
0.0
 11
19.876479
 21
3.689216
 31
0.0
 12
0.0
 22
-0.194697
 32
0.0
 13
19.216479
 23
5.259009
 33
0.0
 14
20.536479
 24
5.41649
 34
0.0
  3
23NSTDI
  0
DIMENSION
  8
DIM
 62
     7
  2
*D29
 10
16.573934
 20
12.671218
 30
0.0
 11
16.573934
 21
8.925743
 31
0.0
 12
-0.305663
 22
0.474643
 32
0.0
 13
14.210399
 23
5.180269
 33
0.0
 14
14.210399
 24
12.671218
 34
0.0
 50
90.0
  3
23NSTDI
  0
DIMENSION
  8
DIM
 62
     7
  2
*D58
 10
14.060604
 20
13.762516
 30
0.0
 11
12.375532
 21
13.762516
 31
0.0
 13
10.69046
 23
11.554641
 33
0.0
 14
14.060604
 24
11.554641
 34
0.0
  3
23NSTD
  0
DIMENSION
  8
DIM
 62
     7
  2
*D36
 10
10.304445
 20
3.689216
 30
0.0
 11
12.375532
 21
3.689216
 31
0.0
 12
0.0
 22
-0.194697
 32
0.0
 13
14.44662
 23
5.41649
 33
0.0
 14
10.304445
 24
5.41649
 34
0.0
  3
23NSTD
  0
LINE
  8
COVER
 62
     7
 10
4.518671
 20
12.218462
 30
0.0
 11
4.518671
 21
12.593218
 31
0.0
  0
POLYLINE
  8
BASE
 62
     7
 66
     1
 10
0.0
 20
0.0
 30
0.0
  0
VERTEX
  8
BASE
 62
     7
 10
4.505758
 20
12.218462
 30
0.0
  0
VERTEX
  8
BASE
 62
     7
 10
4.505758
 20
12.593218
 30
0.0
  0
SEQEND
  8
BASE
 62
     7
  0
POLYLINE
  8
BASE
 62
     7
 66
     1
 10
0.0
 20
0.0
 30
0.0
  0
VERTEX
  8
BASE
 62
     7
 10
4.505758
 20
12.626218
 30
0.0
  0
VERTEX
  8
BASE
 62
     7
 10
4.505758
 20
12.671218
 30
0.0
  0
VERTEX
  8
BASE
 62
     7
 10
4.025443
 20
12.671218
 30
0.0
 42
0.414214
  0
VERTEX
  8
BASE
 62
     7
 10
3.789222
 20
12.434997
 30
0.0
  0
VERTEX
  8
BASE
 62
     7
 10
3.789222
 20
5.41649
 30
0.0
 42
0.414214
  0
VERTEX
  8
BASE
 62
     7
 10
4.025443
 20
5.180269
 30
0.0
  0
VERTEX
  8
BASE
 62
     7
 10
4.505758
 20
5.180269
 30
0.0
  0
SEQEND
  8
BASE
 62
     7
  0
POLYLINE
  8
BASE
 62
     7
 66
     1
 10
0.0
 20
0.0
 30
0.0
  0
VERTEX
  8
BASE
 62
     7
 10
4.505758
 20
5.180269
 30
0.0
  0
VERTEX
  8
BASE
 62
     7
 10
4.505758
 20
5.225269
 30
0.0
  0
SEQEND
  8
BASE
 62
     7
  0
POLYLINE
  8
BASE
 62
     7
 66
     1
 10
0.0
 20
0.0
 30
0.0
  0
VERTEX
  8
BASE
 62
     7
 10
4.505758
 20
5.258269
 30
0.0
  0
VERTEX
  8
BASE
 62
     7
 10
4.505758
 20
11.037359
 30
0.0
  0
SEQEND
  8
BASE
 62
     7
  0
DIMENSION
  8
DIM
 62
     7
  2
*D43
 10
3.789222
 20
3.689216
 30
0.0
 11
2.545472
 21
3.689216
 31
0.0
 12
0.0
 22
-0.194697
 32
0.0
 13
3.883222
 23
5.362045
 33
0.0
 14
3.789222
 24
5.41649
 34
0.0
  3
23NSTD
  0
DIMENSION
  8
DIM
 62
     7
  2
*D8
 10
1.938222
 20
5.589045
 30
0.0
 11
2.837597
 21
6.309045
 31
0.0
 12
0.0
 22
-22.991475
 32
0.0
 13
3.795582
 23
5.362045
 33
0.0
 14
3.789222
 24
5.589045
 34
0.0
 50
90.0
  3
23NSTD
  0
DIMENSION
  8
DIM
 62
     7
  2
*D24
 10
3.342279
 20
5.412553
 30
0.0
 11
2.474154
 21
4.692553
 31
0.0
 12
0.0
 22
0.474643
 32
0.0
 13
3.883222
 23
5.538537
 33
0.0
 14
3.883222
 24
5.412553
 34
0.0
 50
90.0
  3
23NSTD
  0
DIMENSION
  8
DIM
 62
     7
  2
*D22
 10
7.378979
 20
5.428553
 30
0.0
 11
6.495229
 21
4.708553
 31
0.0
 12
0.0
 22
0.474643
 32
0.0
 13
4.892687
 23
5.522537
 33
0.0
 14
4.892687
 24
5.428553
 34
0.0
 50
90.0
  3
23NSTD
  0
DIMENSION
  8
DIM
 62
     7
  2
*D23
 10
5.812072
 20
5.623183
 30
0.0
 11
6.711447
 21
6.343183
 31
0.0
 12
0.0
 22
0.474643
 32
0.0
 13
4.933711
 23
5.327907
 33
0.0
 14
4.933711
 24
5.623183
 34
0.0
 50
90.0
  3
23NSTD
  0
DIMENSION
  8
DIM
 62
     7
  2
*D44
 10
3.883711
 20
2.561088
 30
0.0
 11
2.077461
 21
2.561088
 31
0.0
 12
0.0
 22
-0.194697
 32
0.0
  1
<> INSIDE
 13
4.933711
 23
5.323379
 33
0.0
 14
3.883711
 24
5.323379
 34
0.0
  3
23NSTD
  0
DIMENSION
  8
DIM
 62
     7
  2
*D9
 10
5.109222
 20
4.218769
 30
0.0
 11
6.321722
 21
4.218769
 31
0.0
 12
0.0
 22
-22.991475
 32
0.0
 13
5.058041
 23
5.45023
 33
0.0
 14
5.109222
 24
5.259009
 34
0.0
  3
23NSTD
  0
DIMENSION
  8
DIM
 62
     7
  2
*D42
 10
3.789222
 20
3.127709
 30
0.0
 11
2.561097
 21
3.127709
 31
0.0
 12
0.0
 22
-0.194697
 32
0.0
 13
4.119931
 23
5.77082
 33
0.0
 14
3.789222
 24
5.41649
 34
0.0
  3
23NSTD
  0
DIMENSION
  8
DIM
 62
     7
  2
*D25
 10
3.342279
 20
9.263767
 30
0.0
 11
2.474154
 21
8.543767
 31
0.0
 12
0.0
 22
0.474643
 32
0.0
 13
3.883711
 23
9.353751
 33
0.0
 14
3.883711
 24
9.263767
 34
0.0
 50
90.0
  3
23NSTD
  0
DIMENSION
  8
DIM
 62
     7
  2
*D10
 10
1.938222
 20
9.42687
 30
0.0
 11
2.837597
 21
10.14687
 31
0.0
 12
0.0
 22
-22.991475
 32
0.0
 13
3.883711
 23
9.190649
 33
0.0
 14
3.883711
 24
9.42687
 34
0.0
 50
90.0
  3
23NSTD
  0
CIRCLE
  8
BASE
 62
     7
 10
12.375532
 20
10.377122
 30
0.0
 40
0.045
  0
CIRCLE
  8
BASE
 62
     7
 10
12.375532
 20
10.377122
 30
0.0
 40
0.11811
  0
POLYLINE
  8
BEND
 62
     7
 66
     1
 10
0.0
 20
0.0
 30
0.0
  0
VERTEX
  8
BEND
 62
     7
 10
12.903041
 20
4.74982
 30
0.0
  0
VERTEX
  8
BEND
 62
     7
 10
12.903041
 20
5.316994
 30
0.0
  0
VERTEX
  8
BEND
 62
     7
 10
14.141502
 20
5.316994
 30
0.0
  0
VERTEX
  8
BEND
 62
     7
 10
14.141502
 20
5.708635
 30
0.0
  0
VERTEX
  8
BEND
 62
     7
 10
14.062761
 20
5.708635
 30
0.0
  0
VERTEX
  8
BEND
 62
     7
 10
14.062761
 20
9.508328
 30
0.0
  0
VERTEX
  8
BEND
 62
     7
 10
13.529076
 20
9.508328
 30
0.0
  0
VERTEX
  8
BEND
 62
     7
 10
13.529076
 20
10.144717
 30
0.0
  0
VERTEX
  8
BEND
 62
     7
 10
12.375532
 20
10.144717
 30
0.0
  0
VERTEX
  8
BEND
 62
     7
 10
12.375532
 20
11.284736
 30
0.0
  0
VERTEX
  8
BEND
 62
     7
 10
13.529076
 20
11.284736
 30
0.0
  0
VERTEX
  8
BEND
 62
     7
 10
13.529076
 20
12.063054
 30
0.0
  0
VERTEX
  8
BEND
 62
     7
 10
14.141502
 20
12.063054
 30
0.0
  0
VERTEX
  8
BEND
 62
     7
 10
14.141502
 20
12.534493
 30
0.0
  0
VERTEX
  8
BEND
 62
     7
 10
12.903041
 20
12.534493
 30
0.0
  0
VERTEX
  8
BEND
 62
     7
 10
12.903041
 20
13.346218
 30
0.0
  0
SEQEND
  8
BEND
 62
     7
  0
LINE
  8
BASE
 62
     7
 10
12.150032
 20
11.037359
 30
0.0
 11
12.150032
 21
10.657359
 31
0.0
  0
LINE
  8
BASE
 62
     7
 10
12.601032
 20
11.037359
 30
0.0
 11
12.601032
 21
10.657359
 31
0.0
  0
POLYLINE
  8
BASE
 62
     7
 66
     1
 10
0.0
 20
0.0
 30
0.0
  0
VERTEX
  8
BASE
 62
     7
 10
12.601032
 20
10.813359
 30
0.0
  0
VERTEX
  8
BASE
 62
     7
 10
12.150032
 20
10.813359
 30
0.0
  0
SEQEND
  8
BASE
 62
     7
  0
POLYLINE
  8
BASE
 62
     7
 66
     1
 10
0.0
 20
0.0
 30
0.0
  0
VERTEX
  8
BASE
 62
     7
 10
12.601032
 20
10.657359
 30
0.0
  0
VERTEX
  8
BASE
 62
     7
 10
12.150032
 20
10.657359
 30
0.0
  0
SEQEND
  8
BASE
 62
     7
  0
POLYLINE
  8
BASE-HID
 62
     7
 66
     1
 10
0.0
 20
0.0
 30
0.0
  0
VERTEX
  8
BASE-HID
 62
     7
 10
12.601032
 20
10.991359
 30
0.0
  0
VERTEX
  8
BASE-HID
 62
     7
 10
12.150032
 20
10.991359
 30
0.0
  0
SEQEND
  8
BASE-HID
 62
     7
  0
POLYLINE
  8
BASE-HID
 62
     7
 66
     1
 10
0.0
 20
0.0
 30
0.0
  0
VERTEX
  8
BASE-HID
 62
     7
 10
12.601032
 20
10.944359
 30
0.0
  0
VERTEX
  8
BASE-HID
 62
     7
 10
12.150032
 20
10.944359
 30
0.0
  0
SEQEND
  8
BASE-HID
 62
     7
  0
POLYLINE
  8
BASE-HID
 62
     7
 66
     1
 10
0.0
 20
0.0
 30
0.0
  0
VERTEX
  8
BASE-HID
 62
     7
 10
12.871532
 20
11.103359
 30
0.0
  0
VERTEX
  8
BASE-HID
 62
     7
 10
11.879532
 20
11.103359
 30
0.0
  0
SEQEND
  8
BASE-HID
 62
     7
  0
POLYLINE
  8
BASE-HID
 62
     7
 66
     1
 10
0.0
 20
0.0
 30
0.0
  0
VERTEX
  8
BASE-HID
 62
     7
 10
11.577532
 20
11.103359
 30
0.0
  0
VERTEX
  8
BASE-HID
 62
     7
 10
11.240744
 20
11.103359
 30
0.0
  0
VERTEX
  8
BASE-HID
 62
     7
 10
11.240744
 20
11.25691
 30
0.0
  0
SEQEND
  8
BASE-HID
 62
     7
  0
LINE
  8
BASE
 62
     7
 10
11.240744
 20
11.25691
 30
0.0
 11
11.240744
 21
11.45391
 31
0.0
  0
POLYLINE
  8
BASE
 62
     7
 66
     1
 10
0.0
 20
0.0
 30
0.0
  0
VERTEX
  8
BASE
 62
     7
 10
11.300744
 20
11.25691
 30
0.0
  0
VERTEX
  8
BASE
 62
     7
 10
11.300744
 20
11.45391
 30
0.0
  0
SEQEND
  8
BASE
 62
     7
  0
LINE
  8
BASE-HID
 62
     7
 10
11.309532
 20
11.157359
 30
0.0
 11
11.345532
 21
11.157359
 31
0.0
  0
LINE
  8
BASE-HID
 62
     7
 10
11.345532
 20
11.157359
 30
0.0
 11
11.345532
 21
11.103359
 31
0.0
  0
LINE
  8
BASE-HID
 62
     7
 10
11.309532
 20
11.103359
 30
0.0
 11
11.309532
 21
11.157359
 31
0.0
  0
LINE
  8
BASE-HID
 62
     7
 10
11.240744
 20
11.121359
 30
0.0
 11
11.309532
 21
11.121359
 31
0.0
  0
LINE
  8
BASE
 62
     7
 10
11.300744
 20
11.25691
 30
0.0
 11
11.240744
 21
11.25691
 31
0.0
  0
LINE
  8
BASE
 62
     7
 10
11.300744
 20
11.45391
 30
0.0
 11
11.240744
 21
11.45391
 31
0.0
  0
LINE
  8
BASE
 62
     7
 10
11.879532
 20
11.188359
 30
0.0
 11
11.879532
 21
11.037359
 31
0.0
  0
LINE
  8
BASE
 62
     7
 10
11.577532
 20
11.188359
 30
0.0
 11
11.577532
 21
11.037359
 31
0.0
  0
LINE
  8
BASE
 62
     7
 10
11.879532
 20
11.103359
 30
0.0
 11
11.577532
 21
11.103359
 31
0.0
  0
POLYLINE
  8
BASE
 62
     7
 66
     1
 10
0.0
 20
0.0
 30
0.0
  0
VERTEX
  8
BASE
 62
     7
 10
11.879532
 20
11.188359
 30
0.0
  0
VERTEX
  8
BASE
 62
     7
 10
11.577532
 20
11.188359
 30
0.0
  0
SEQEND
  8
BASE
 62
     7
  0
LINE
  8
BASE-HID
 62
     7
 10
12.150032
 20
11.103359
 30
0.0
 11
12.150032
 21
11.037359
 31
0.0
  0
LINE
  8
BASE-HID
 62
     7
 10
13.51032
 20
11.45391
 30
0.0
 11
13.45032
 21
11.45391
 31
0.0
  0
LINE
  8
BASE-HID
 62
     7
 10
13.51032
 20
11.121359
 30
0.0
 11
13.441532
 21
11.121359
 31
0.0
  0
LINE
  8
BASE
 62
     7
 10
13.51032
 20
11.25691
 30
0.0
 11
13.45032
 21
11.25691
 31
0.0
  0
POLYLINE
  8
BASE-HID
 62
     7
 66
     1
 10
0.0
 20
0.0
 30
0.0
  0
VERTEX
  8
BASE-HID
 62
     7
 10
13.51032
 20
11.25691
 30
0.0
  0
VERTEX
  8
BASE-HID
 62
     7
 10
13.51032
 20
11.103359
 30
0.0
  0
VERTEX
  8
BASE-HID
 62
     7
 10
13.173532
 20
11.103359
 30
0.0
  0
SEQEND
  8
BASE-HID
 62
     7
  0
POLYLINE
  8
BASE
 62
     7
 66
     1
 10
0.0
 20
0.0
 30
0.0
  0
VERTEX
  8
BASE
 62
     7
 10
13.45032
 20
11.45391
 30
0.0
  0
VERTEX
  8
BASE
 62
     7
 10
13.45032
 20
11.25691
 30
0.0
  0
SEQEND
  8
BASE
 62
     7
  0
LINE
  8
BASE
 62
     7
 10
12.871532
 20
11.103359
 30
0.0
 11
13.173532
 21
11.103359
 31
0.0
  0
POLYLINE
  8
BASE
 62
     7
 66
     1
 10
0.0
 20
0.0
 30
0.0
  0
VERTEX
  8
BASE
 62
     7
 10
13.173532
 20
11.188359
 30
0.0
  0
VERTEX
  8
BASE
 62
     7
 10
12.871532
 20
11.188359
 30
0.0
  0
SEQEND
  8
BASE
 62
     7
  0
LINE
  8
BASE
 62
     7
 10
12.871532
 20
11.188359
 30
0.0
 11
12.871532
 21
11.037359
 31
0.0
  0
LINE
  8
BASE-HID
 62
     7
 10
12.601032
 20
11.103359
 30
0.0
 11
12.601032
 21
11.037359
 31
0.0
  0
LINE
  8
BASE-HID
 62
     7
 10
13.441532
 20
11.103359
 30
0.0
 11
13.441532
 21
11.157359
 31
0.0
  0
LINE
  8
BASE-HID
 62
     7
 10
13.405532
 20
11.157359
 30
0.0
 11
13.405532
 21
11.103359
 31
0.0
  0
LINE
  8
BASE
 62
     7
 10
13.173532
 20
11.188359
 30
0.0
 11
13.173532
 21
11.037359
 31
0.0
  0
LINE
  8
BASE-HID
 62
     7
 10
13.441532
 20
11.157359
 30
0.0
 11
13.405532
 21
11.157359
 31
0.0
  0
LINE
  8
BASE
 62
     7
 10
13.51032
 20
11.25691
 30
0.0
 11
13.51032
 21
11.45391
 31
0.0
  0
LINE
  8
COVER-HID
 62
     7
 10
11.201532
 20
12.626218
 30
0.0
 11
11.201532
 21
12.593218
 31
0.0
  0
LINE
  8
BASE
 62
     7
 10
4.737222
 20
11.25691
 30
0.0
 11
4.671222
 21
11.25691
 31
0.0
  0
POLYLINE
  8
DIM
 62
     7
 66
     1
 10
0.0
 20
0.0
 30
0.0
 41
0.135
  0
VERTEX
  8
DIM
 62
     7
 10
4.737649
 20
11.841344
 30
0.0
  0
VERTEX
  8
DIM
 62
     7
 10
4.956693
 20
12.127036
 30
0.0
 41
0.0
  0
VERTEX
  8
DIM
 62
     7
 10
5.924606
 20
13.405489
 30
0.0
 41
0.0
  0
VERTEX
  8
DIM
 62
     7
 10
6.284606
 20
13.405489
 30
0.0
 41
0.0
  0
SEQEND
  8
DIM
 62
     7
  0
TEXT
  8
DIM
 62
     7
 10
6.464606
 20
13.280489
 30
0.0
 40
0.25
  1
BATTERY
 41
0.75
  7
TXT
 11
6.464606
 21
13.405489
 31
0.0
 73
     2
  0
TEXT
  8
DIM
 62
     7
 10
6.464606
 20
12.863823
 30
0.0
 40
0.25
  1
COMPARTMENT
 41
0.75
  7
TXT
 11
6.464606
 21
12.988823
 31
0.0
 73
     2
  0
TEXT
  8
TEXT
 10
10.733632
 20
0.35872
 30
0.0
 40
0.312
  1
%%UBASE AND COVER
 41
0.75
  7
TXT
 72
     1
 11
12.375532
 21
0.35872
 31
0.0
  0
TEXT
  8
TEXT
 62
     7
 10
8.330663
 20
14.93799
 30
0.0
 40
0.312
  1
%%UPANEL
 41
0.75
  7
TXT
 72
     1
 11
8.880563
 21
14.93799
 31
0.0
  0
TEXT
  8
TEXT
 62
     7
 10
21.280003
 20
14.925352
 30
0.0
 40
0.312
  1
%%USOLID PANEL
 41
0.75
  7
TXT
 72
     1
 11
22.492903
 21
14.925352
 31
0.0
  0
TEXT
  8
TEXT
 62
     7
 10
23.596461
 20
0.791768
 30
0.0
 40
0.25
  1
(4) M3 x 25.4mm SCREWS INCLUDED.
 41
0.75
  7
TXT
  0
LINE
  8
COVER
 62
     7
 10
4.892687
 20
5.428553
 30
0.0
 11
4.518671
 21
5.428553
 31
0.0
  0
LINE
  8
COVER
 62
     7
 10
4.892687
 20
5.522537
 30
0.0
 11
4.518671
 21
5.522537
 31
0.0
  0
LINE
  8
COVER-HID
 62
     7
 10
18.876604
 20
12.27895
 30
0.0
 11
19.807031
 21
12.27895
 31
0.0
  0
LINE
  8
COVER-HID
 62
     7
 10
18.876604
 20
12.372934
 30
0.0
 11
19.807031
 21
12.372934
 31
0.0
  0
LINE
  8
COVER-HID
 62
     7
 10
18.876604
 20
12.372934
 30
0.0
 11
18.876604
 21
12.27895
 31
0.0
  0
LINE
  8
COVER-HID
 62
     7
 10
19.433015
 20
5.428553
 30
0.0
 11
19.807031
 21
5.428553
 31
0.0
  0
LINE
  8
COVER-HID
 62
     7
 10
19.433015
 20
5.522537
 30
0.0
 11
19.807031
 21
5.522537
 31
0.0
  0
LINE
  8
COVER-HID
 62
     7
 10
19.433015
 20
5.428553
 30
0.0
 11
19.433015
 21
5.522537
 31
0.0
  0
LINE
  8
BASE-HID
 62
     7
 10
20.20577
 20
10.422114
 30
0.0
 11
20.441991
 21
10.422114
 31
0.0
  0
LINE
  8
BASE-HID
 62
     7
 10
20.20577
 20
10.33213
 30
0.0
 11
20.441991
 21
10.33213
 31
0.0
  0
LINE
  8
BASE-HID
 62
     7
 10
20.20577
 20
9.353751
 30
0.0
 11
20.441991
 21
9.353751
 31
0.0
  0
LINE
  8
BASE-HID
 62
     7
 10
20.20577
 20
9.263767
 30
0.0
 11
20.441991
 21
9.263767
 31
0.0
  0
LINE
  8
BASE-HID
 62
     7
 10
20.20577
 20
5.933923
 30
0.0
 11
20.441991
 21
5.933923
 31
0.0
  0
LINE
  8
BASE-HID
 62
     7
 10
20.20577
 20
5.843939
 30
0.0
 11
20.441991
 21
5.843939
 31
0.0
  0
LINE
  8
BASE
 62
     7
 10
4.119931
 20
10.422114
 30
0.0
 11
3.883711
 21
10.422114
 31
0.0
  0
LINE
  8
BASE
 62
     7
 10
4.119931
 20
10.33213
 30
0.0
 11
3.883711
 21
10.33213
 31
0.0
  0
LINE
  8
BASE
 62
     7
 10
4.119931
 20
9.353751
 30
0.0
 11
3.883711
 21
9.353751
 31
0.0
  0
LINE
  8
BASE
 62
     7
 10
4.119931
 20
5.933923
 30
0.0
 11
3.883711
 21
5.933923
 31
0.0
  0
LINE
  8
BASE
 62
     7
 10
4.119931
 20
5.843939
 30
0.0
 11
3.883711
 21
5.843939
 31
0.0
  0
LINE
  8
BASE
 62
     7
 10
4.119931
 20
9.263767
 30
0.0
 11
3.883711
 21
9.263767
 31
0.0
  0
TEXT
  8
TEXT
 10
23.596461
 20
0.387018
 30
0.0
 40
0.25
  1
ALL DIMENSIONS HAVE %%P0.015 TOLERANCE.
 41
0.75
  7
TXT
  0
TEXT
  8
TEXT
 62
     7
 10
0.747444
 20
0.740202
 30
0.0
 40
0.25
  1
BATTERY COMPARTMENT CAN BE PLACED UNDER
 41
0.75
  7
TXT
  0
TEXT
  8
TEXT
 10
0.747444
 20
0.323535
 30
0.0
 40
0.25
  1
  DISPLAY AREA (AS SHOWN) OR UNDER KEYPAD AREA.
 41
0.75
  7
TXT
  0
DIMENSION
  8
DIM
 62
     7
  2
*D31
 10
15.914004
 20
5.180269
 30
0.0
 11
15.030254
 21
4.460269
 31
0.0
 12
-0.305663
 22
0.474643
 32
0.0
 13
14.178214
 23
5.45023
 33
0.0
 14
14.210399
 24
5.180269
 34
0.0
 50
90.0
  3
23NSTD
  0
DIMENSION
  8
DIM
 62
     7
  2
*D11
 10
18.606581
 20
5.180269
 30
0.0
 11
18.606581
 21
7.447735
 31
0.0
 12
-0.713493
 22
-22.991475
 32
0.0
 13
19.216479
 23
9.715201
 33
0.0
 14
19.29522
 24
5.180269
 34
0.0
 50
90.0
  3
23NSTDI
  0
ARC
  8
COVER
 62
     7
 10
18.303479
 20
12.056361
 30
0.0
 40
0.079
 50
134.949721
 51
203.106
  0
ARC
  8
COVER
 62
     7
 10
19.434852
 20
11.131216
 30
0.0
 40
1.540091
 50
89.38415
 51
140.430646
  0
ARC
  8
COVER-HID
 62
     7
 10
19.434852
 20
11.131216
 30
0.0
 40
1.422091
 50
89.040833
 51
141.21107
  0
DIMENSION
  8
DIM
 62
     7
  2
*D12
 10
18.224479
 20
13.211218
 30
0.0
 11
19.380479
 21
13.211218
 31
0.0
 12
-0.713493
 22
-22.991475
 32
0.0
 13
20.536479
 23
12.434997
 33
0.0
 14
18.224479
 24
12.056361
 34
0.0
  3
23NSTDI
  0
LINE
  8
COVER
 62
     7
 10
14.18162
 20
5.180269
 30
0.0
 11
10.569445
 21
5.180269
 31
0.0
  0
LINE
  8
COVER
 62
     7
 10
10.304445
 20
5.445269
 30
0.0
 11
10.304445
 21
12.406218
 31
0.0
  0
LINE
  8
COVER
 62
     7
 10
10.569445
 20
12.671218
 30
0.0
 11
14.18162
 21
12.671218
 31
0.0
  0
LINE
  8
COVER
 62
     7
 10
14.44662
 20
12.406218
 30
0.0
 11
14.44662
 21
5.445269
 31
0.0
  0
ARC
  8
COVER
 62
     7
 10
10.569445
 20
12.406218
 30
0.0
 40
0.265
 50
90.0
 51
180.0
  0
ARC
  8
COVER
 62
     7
 10
14.18162
 20
12.406218
 30
0.0
 40
0.265
 50
0.0
 51
90.0
  0
ARC
  8
COVER
 62
     7
 10
14.18162
 20
5.445269
 30
0.0
 40
0.265
 50
270.0
 51
0.0
  0
ARC
  8
COVER
 62
     7
 10
10.569445
 20
5.445269
 30
0.0
 40
0.265
 50
180.0
 51
270.0
  0
LINE
  8
BASE
 62
     7
 10
19.819944
 20
5.180269
 30
0.0
 11
19.819944
 21
12.671218
 31
0.0
  0
LINE
  8
BASE
 62
     7
 10
19.819944
 20
12.671218
 30
0.0
 11
20.271479
 21
12.671218
 31
0.0
  0
LINE
  8
BASE
 62
     7
 10
20.536479
 20
12.406218
 30
0.0
 11
20.536479
 21
5.41649
 31
0.0
  0
ARC
  8
BASE
 62
     7
 10
20.300259
 20
5.41649
 30
0.0
 40
0.236221
 50
270.0
 51
0.0
  0
LINE
  8
BASE
 62
     7
 10
20.300259
 20
5.180269
 30
0.0
 11
19.819944
 21
5.180269
 31
0.0
  0
ARC
  8
BASE
 62
     7
 10
20.271479
 20
12.406218
 30
0.0
 40
0.265
 50
0.0
 51
90.0
  0
DIMENSION
  8
DIM
 62
     7
  2
*D57
 10
10.304445
 20
13.762516
 30
0.0
 11
9.04507
 21
13.762516
 31
0.0
 13
10.69046
 23
11.571558
 33
0.0
 14
10.304445
 24
12.406218
 34
0.0
  3
23NSTD
  0
DIMENSION
  8
DIM
 62
     7
  2
*D64
 10
10.304445
 20
14.893833
 30
0.0
 11
10.763216
 21
14.893833
 31
0.0
 13
11.221988
 23
11.797546
 33
0.0
 14
10.304445
 24
12.406218
 34
0.0
  3
23NSTDI
  0
LINE
  8
COVER
 62
     7
 10
14.098006
 20
11.797382
 30
0.0
 11
10.653059
 21
11.797382
 31
0.0
  0
LINE
  8
COVER-HID
 62
     7
 10
18.435277
 20
11.766883
 30
0.0
 11
18.328096
 21
11.797382
 31
0.0
  0
LINE
  8
COVER-HID
 62
     7
 10
19.391991
 20
5.298379
 30
0.0
 11
19.391991
 21
9.74526
 31
0.0
  0
LINE
  8
BASE
 62
     7
 10
24.833629
 20
5.180269
 30
0.0
 11
28.445805
 21
5.180269
 31
0.0
  0
LINE
  8
BASE
 62
     7
 10
28.710805
 20
5.445269
 30
0.0
 11
28.710805
 21
12.406218
 31
0.0
  0
LINE
  8
BASE
 62
     7
 10
28.445805
 20
12.671218
 30
0.0
 11
24.833629
 21
12.671218
 31
0.0
  0
LINE
  8
BASE
 62
     7
 10
24.568629
 20
12.406218
 30
0.0
 11
24.568629
 21
5.445269
 31
0.0
  0
ARC
  8
BASE
 62
     7
 10
24.833629
 20
12.406218
 30
0.0
 40
0.265
 50
90.0
 51
180.0
  0
ARC
  8
BASE
 62
     7
 10
28.445805
 20
12.406218
 30
0.0
 40
0.265
 50
0.0
 51
90.0
  0
ARC
  8
BASE
 62
     7
 10
28.445805
 20
5.445269
 30
0.0
 40
0.265
 50
270.0
 51
0.0
  0
ARC
  8
BASE
 62
     7
 10
24.833629
 20
5.445269
 30
0.0
 40
0.265
 50
180.0
 51
270.0
  0
LINE
  8
BASE-HID
 62
     7
 10
24.80485
 20
5.298379
 30
0.0
 11
28.474584
 21
5.298379
 31
0.0
  0
ARC
  8
BASE-HID
 62
     7
 10
28.474584
 20
5.41649
 30
0.0
 40
0.11811
 50
270.0
 51
0.0
  0
LINE
  8
BASE-HID
 62
     7
 10
28.592694
 20
5.41649
 30
0.0
 11
28.592694
 21
12.434997
 31
0.0
  0
ARC
  8
BASE-HID
 62
     7
 10
28.474584
 20
12.434997
 30
0.0
 40
0.11811
 50
360.0
 51
90.0
  0
LINE
  8
BASE-HID
 62
     7
 10
28.474584
 20
12.553108
 30
0.0
 11
24.80485
 21
12.553108
 31
0.0
  0
ARC
  8
BASE-HID
 62
     7
 10
24.80485
 20
12.434997
 30
0.0
 40
0.11811
 50
90.0
 51
180.0
  0
LINE
  8
BASE-HID
 62
     7
 10
24.686739
 20
12.434997
 30
0.0
 11
24.686739
 21
5.41649
 31
0.0
  0
ARC
  8
BASE-HID
 62
     7
 10
24.80485
 20
5.41649
 30
0.0
 40
0.11811
 50
180.0
 51
270.0
  0
DIMENSION
  8
DIM
 62
     7
  2
*D62
 10
24.568629
 20
14.322125
 30
0.0
 11
25.007673
 21
14.322125
 31
0.0
 12
0.551832
 22
0.0
 32
0.0
 13
25.446717
 23
12.671218
 33
0.0
 14
24.568629
 24
12.406218
 34
0.0
  3
23NSTDI
  0
DIMENSION
  8
DIM
 62
     7
  2
*D39
 10
24.568629
 20
4.218769
 30
0.0
 11
23.340504
 21
4.218769
 31
0.0
 12
0.551832
 22
-0.194697
 32
0.0
 13
24.887747
 23
5.340545
 33
0.0
 14
24.568629
 24
5.445269
 34
0.0
  3
23NSTD
  0
LINE
  8
COVER-HID
 62
     7
 10
18.498532
 20
11.839337
 30
0.0
 11
18.391351
 21
11.869836
 31
0.0
  0
LINE
  8
COVER-HID
 62
     7
 10
18.391351
 20
11.869836
 30
0.0
 11
18.326391
 21
12.022089
 31
0.0
  0
LINE
  8
COVER
 62
     7
 10
4.933711
 20
5.623183
 30
0.0
 11
4.933711
 21
9.74526
 31
0.0
  0
ARC
  8
COVER
 62
     7
 10
4.890849
 20
11.131216
 30
0.0
 40
1.422091
 50
38.78893
 51
47.417345
  0
ARC
  8
COVER
 62
     7
 10
4.890849
 20
11.131216
 30
0.0
 40
1.540091
 50
39.569354
 51
90.61585
  0
LINE
  8
COVER
 62
     7
 10
5.853112
 20
12.178304
 30
0.0
 11
4.737222
 21
12.178304
 31
0.0
  0
LINE
  8
COVER
 62
     7
 10
5.360318
 20
12.47358
 30
0.0
 11
4.518671
 21
12.47358
 31
0.0
  0
LINE
  8
COVER
 62
     7
 10
5.449098
 20
12.372934
 30
0.0
 11
4.518671
 21
12.372934
 31
0.0
  0
LINE
  8
COVER
 62
     7
 10
5.449098
 20
12.27895
 30
0.0
 11
4.518671
 21
12.27895
 31
0.0
  0
LINE
  8
COVER
 62
     7
 10
5.449098
 20
12.372934
 30
0.0
 11
5.449098
 21
12.27895
 31
0.0
  0
LINE
  8
COVER
 62
     7
 10
4.867044
 20
12.553108
 30
0.0
 11
4.518671
 21
12.553108
 31
0.0
  0
LINE
  8
COVER
 62
     7
 10
4.907403
 20
12.671218
 30
0.0
 11
4.518671
 21
12.671218
 31
0.0
  0
LINE
  8
COVER
 62
     7
 10
5.934351
 20
11.869836
 30
0.0
 11
5.999311
 21
12.022089
 31
0.0
  0
LINE
  8
COVER
 62
     7
 10
5.890425
 20
11.766883
 30
0.0
 11
5.997606
 21
11.797382
 31
0.0
  0
LINE
  8
CENTER
 62
     7
 10
6.138917
 20
11.678546
 30
0.0
 11
5.608947
 21
11.678546
 31
0.0
  0
ARC
  8
COVER
 62
     7
 10
6.022222
 20
12.056361
 30
0.0
 40
0.079
 50
336.894
 51
45.050279
  0
LINE
  8
COVER
 62
     7
 10
5.827169
 20
11.839337
 30
0.0
 11
5.934351
 21
11.869836
 31
0.0
  0
LINE
  8
COVER
 62
     7
 10
5.714657
 20
11.575632
 30
0.0
 11
5.816043
 21
11.592549
 31
0.0
  0
LINE
  8
COVER
 62
     7
 10
5.832158
 20
11.630317
 30
0.0
 11
5.737989
 21
11.630317
 31
0.0
  0
LINE
  8
COVER
 62
     7
 10
5.873312
 20
11.726774
 30
0.0
 11
5.779143
 21
11.726774
 31
0.0
  0
LINE
  8
COVER
 62
     7
 10
5.109222
 20
9.715201
 30
0.0
 11
6.095361
 21
12.0265
 31
0.0
  0
LINE
  8
COVER
 62
     7
 10
5.029556
 20
9.749191
 30
0.0
 11
5.890425
 21
11.766883
 31
0.0
  0
LINE
  8
COVER
 62
     7
 10
4.933711
 20
9.74526
 30
0.0
 11
5.827169
 21
11.839337
 31
0.0
  0
LINE
  8
CENTER
 62
     7
 10
5.313646
 20
9.884747
 30
0.0
 11
4.783677
 21
9.884747
 31
0.0
  0
LINE
  8
COVER
 62
     7
 10
5.066816
 20
9.836519
 30
0.0
 11
4.972647
 21
9.836519
 31
0.0
  0
LINE
  8
COVER
 62
     7
 10
5.10797
 20
9.932975
 30
0.0
 11
5.013801
 21
9.932975
 31
0.0
  0
LINE
  8
COVER
 62
     7
 10
5.129912
 20
9.984402
 30
0.0
 11
5.073421
 21
10.07271
 31
0.0
  0
LINE
  8
COVER
 62
     7
 10
5.109222
 20
9.715201
 30
0.0
 11
5.029556
 21
9.749191
 31
0.0
  0
ARC
  8
COVER
 62
     7
 10
4.890849
 20
11.131216
 30
0.0
 40
1.422091
 50
70.723579
 51
90.959167
  0
DIMENSION
  8
DIM
 62
     7
  2
*D26
 10
8.023206
 20
10.934485
 30
0.0
 11
7.578771
 21
9.892825
 31
0.0
 12
0.0
 22
0.474643
 32
0.0
 70
     1
 13
5.109222
 23
9.715201
 33
0.0
 14
5.998091
 24
11.79852
 34
0.0
  3
23NSTDI
  0
DIMENSION
  8
DIM
 62
     7
  2
*D27
 10
7.322316
 20
11.234639
 30
0.0
 11
8.471952
 21
11.897324
 31
0.0
 12
0.0
 22
0.474643
 32
0.0
 13
5.714657
 23
11.575632
 33
0.0
 14
5.997606
 24
11.797382
 34
0.0
 50
66.984
  3
23NSTD
  0
DIMENSION
  8
DIM
 62
     7
  2
*D13
 10
6.526734
 20
11.230658
 30
0.0
 11
6.207297
 21
10.478695
 31
0.0
 12
0.0
 22
-22.991475
 32
0.0
 13
5.073421
 23
10.07271
 33
0.0
 14
5.714657
 24
11.575632
 34
0.0
 50
66.984
  3
23NSTDI
  0
LINE
  8
COVER-HID
 62
     7
 10
18.611045
 20
11.575632
 30
0.0
 11
18.509658
 21
11.592549
 31
0.0
  0
LINE
  8
COVER-HID
 62
     7
 10
19.19579
 20
9.984402
 30
0.0
 11
19.252281
 21
10.07271
 31
0.0
  0
LINE
  8
BASE
 62
     7
 10
4.505758
 20
12.553108
 30
0.0
 11
4.323758
 21
12.553108
 31
0.0
  0
LINE
  8
COVER
 62
     7
 10
4.933711
 20
5.298379
 30
0.0
 11
4.518671
 21
5.298379
 31
0.0
  0
LINE
  8
BASE
 62
     7
 10
4.505758
 20
5.298379
 30
0.0
 11
3.883222
 21
5.298379
 31
0.0
  0
LINE
  8
BASE
 62
     7
 10
3.883222
 20
5.362045
 30
0.0
 11
3.883222
 21
5.589045
 31
0.0
  0
LINE
  8
BASE
 62
     7
 10
4.257758
 20
12.553108
 30
0.0
 11
3.883711
 21
12.553108
 31
0.0
  0
DIMENSION
  8
DIM
  2
*D14
 10
1.290584
 20
12.553108
 30
0.0
 11
1.290584
 21
8.149306
 31
0.0
 12
0.0
 22
-22.991475
 32
0.0
 70
   128
  1
<> INSIDE
 13
3.883222
 23
5.298379
 33
0.0
 14
3.883711
 24
12.553108
 34
0.0
 50
90.0
  3
23NSTD
  0
INSERT
  8
COVER
 62
     7
  2
*X0
 10
0.102542
 20
-2.365291
 30
0.0
1001
ACAD
1000
HATCH
1002
{
1070
    16
1000
ANSI31
1040
0.625
1040
0.0
1002
}
  0
INSERT
  8
BASE
 62
     7
  2
*X1
 10
0.102542
 20
-2.365291
 30
0.0
1001
ACAD
1000
HATCH
1002
{
1070
    16
1000
ANSI31
1040
0.625
1040
0.0
1002
}
  0
LINE
  8
COVER
 62
     7
 10
10.304445
 20
1.729832
 30
0.0
 11
10.304445
 21
3.232888
 31
0.0
  0
LINE
  8
COVER
 62
     7
 10
14.44662
 20
3.232888
 30
0.0
 11
14.44662
 21
1.729832
 31
0.0
  0
LINE
  8
COVER-HID
 62
     7
 10
14.32851
 20
3.210472
 30
0.0
 11
10.422555
 21
3.210472
 31
0.0
  0
LINE
  8
COVER
 62
     7
 10
14.110006
 20
3.101586
 30
0.0
 11
10.641059
 21
3.101586
 31
0.0
  0
LINE
  8
COVER
 62
     7
 10
14.110006
 20
3.208767
 30
0.0
 11
10.641059
 21
3.208767
 31
0.0
  0
LINE
  8
COVER
 62
     7
 10
14.072604
 20
2.925818
 30
0.0
 11
10.67846
 21
2.925818
 31
0.0
  0
LINE
  8
COVER
 62
     7
 10
14.072604
 20
3.027205
 30
0.0
 11
10.67846
 21
3.027205
 31
0.0
  0
POLYLINE
  8
BASE
 62
     7
 66
     1
 10
0.0
 20
0.0
 30
0.0
 70
     1
  0
VERTEX
  8
BASE
 62
     7
 10
14.44662
 20
1.71692
 30
0.0
  0
VERTEX
  8
BASE
 62
     7
 10
10.304445
 20
1.71692
 30
0.0
  0
VERTEX
  8
BASE
 62
     7
 10
10.304445
 20
1.236604
 30
0.0
 42
0.414214
  0
VERTEX
  8
BASE
 62
     7
 10
10.540665
 20
1.000384
 30
0.0
  0
VERTEX
  8
BASE
 62
     7
 10
14.210399
 20
1.000384
 30
0.0
 42
0.414214
  0
VERTEX
  8
BASE
 62
     7
 10
14.44662
 20
1.236604
 30
0.0
  0
SEQEND
  8
BASE
 62
     7
  0
LINE
  8
COVER-HID
 62
     7
 10
14.178214
 20
2.269203
 30
0.0
 11
10.57285
 21
2.269203
 31
0.0
  0
LINE
  8
BASE-HID
 62
     7
 10
14.32851
 20
1.094872
 30
0.0
 11
10.422555
 21
1.094872
 31
0.0
  0
LINE
  8
COVER
 62
     7
 10
14.36762
 20
2.320384
 30
0.0
 11
10.383445
 21
2.320384
 31
0.0
  0
LINE
  8
COVER
 62
     7
 10
14.44662
 20
1.729832
 30
0.0
 11
10.304445
 21
1.729832
 31
0.0
  0
LINE
  8
COVER
 62
     7
 10
14.072604
 20
2.341073
 30
0.0
 11
10.67846
 21
2.341073
 31
0.0
  0
LINE
  8
COVER-HID
 62
     7
 10
14.32851
 20
2.144872
 30
0.0
 11
10.422555
 21
2.144872
 31
0.0
  0
LINE
  8
BASE-HID
 62
     7
 10
10.747437
 20
1.331093
 30
0.0
 11
10.747437
 21
1.094872
 31
0.0
  0
LINE
  8
BASE-HID
 62
     7
 10
10.657452
 20
1.331093
 30
0.0
 11
10.657452
 21
1.094872
 31
0.0
  0
LINE
  8
BASE-HID
 62
     7
 10
10.584334
 20
1.331093
 30
0.0
 11
10.584334
 21
1.094872
 31
0.0
  0
LINE
  8
BASE-HID
 62
     7
 10
10.820555
 20
1.331093
 30
0.0
 11
10.820555
 21
1.094872
 31
0.0
  0
LINE
  8
BASE-HID
 62
     7
 10
10.662712
 20
1.71692
 30
0.0
 11
10.662712
 21
1.094384
 31
0.0
  0
LINE
  8
BASE-HID
 62
     7
 10
10.747358
 20
1.71692
 30
0.0
 11
10.747358
 21
1.094872
 31
0.0
  0
LINE
  8
BASE-HID
 62
     7
 10
10.536728
 20
1.71692
 30
0.0
 11
10.536728
 21
1.094384
 31
0.0
  0
LINE
  8
BASE-HID
 62
     7
 10
10.422555
 20
1.71692
 30
0.0
 11
10.422555
 21
1.094872
 31
0.0
  0
LINE
  8
BASE-HID
 62
     7
 10
10.452082
 20
1.71692
 30
0.0
 11
10.452082
 21
1.094872
 31
0.0
  0
POLYLINE
  8
BASE-HID
 62
     7
 66
     1
 10
0.0
 20
0.0
 30
0.0
  0
VERTEX
  8
BASE-HID
 62
     7
 10
10.496063
 20
1.004633
 30
0.0
  0
VERTEX
  8
BASE-HID
 62
     7
 10
10.496063
 20
1.094384
 30
0.0
  0
VERTEX
  8
BASE-HID
 62
     7
 10
10.723063
 20
1.094384
 30
0.0
  0
VERTEX
  8
BASE-HID
 62
     7
 10
10.723063
 20
1.000384
 30
0.0
  0
SEQEND
  8
BASE-HID
 62
     7
  0
LINE
  8
COVER-HID
 62
     7
 10
10.422555
 20
1.729832
 30
0.0
 11
10.422555
 21
3.210472
 31
0.0
  0
LINE
  8
COVER-HID
 62
     7
 10
10.461925
 20
3.064273
 30
0.0
 11
10.461925
 21
1.729832
 31
0.0
  0
ARC
  8
COVER
 62
     7
 10
10.383445
 20
2.241384
 30
0.0
 40
0.079
 50
90.0
 51
180.0
  0
LINE
  8
COVER-HID
 62
     7
 10
10.672555
 20
2.66026
 30
0.0
 11
10.672555
 21
1.729832
 31
0.0
  0
LINE
  8
COVER-HID
 62
     7
 10
10.546571
 20
2.66026
 30
0.0
 11
10.546571
 21
1.729832
 31
0.0
  0
LINE
  8
COVER-HID
 62
     7
 10
10.757201
 20
2.341073
 30
0.0
 11
10.757201
 21
1.729832
 31
0.0
  0
LINE
  8
COVER-HID
 62
     7
 10
10.382445
 20
1.678651
 30
0.0
 11
10.349445
 21
1.678651
 31
0.0
  0
POLYLINE
  8
COVER-HID
 62
     7
 66
     1
 10
0.0
 20
0.0
 30
0.0
  0
VERTEX
  8
COVER-HID
 62
     7
 10
10.382445
 20
1.678651
 30
0.0
  0
VERTEX
  8
COVER-HID
 62
     7
 10
10.382445
 20
1.729832
 30
0.0
 42
-0.414214
  0
SEQEND
  8
COVER-HID
 62
     7
  0
POLYLINE
  8
COVER-HID
 62
     7
 66
     1
 10
0.0
 20
0.0
 30
0.0
  0
VERTEX
  8
COVER-HID
 62
     7
 10
10.349445
 20
1.678651
 30
0.0
  0
VERTEX
  8
COVER-HID
 62
     7
 10
10.349445
 20
1.729832
 30
0.0
 42
-0.414214
  0
SEQEND
  8
COVER-HID
 62
     7
  0
POLYLINE
  8
BASE-HID
 62
     7
 66
     1
 10
0.0
 20
0.0
 30
0.0
  0
VERTEX
  8
BASE-HID
 62
     7
 10
10.341445
 20
1.65792
 30
0.0
  0
VERTEX
  8
BASE-HID
 62
     7
 10
10.391445
 20
1.65792
 30
0.0
  0
VERTEX
  8
BASE-HID
 62
     7
 10
10.391445
 20
1.71692
 30
0.0
  0
SEQEND
  8
BASE-HID
 62
     7
  0
POLYLINE
  8
BASE-HID
 62
     7
 66
     1
 10
0.0
 20
0.0
 30
0.0
  0
VERTEX
  8
BASE-HID
 62
     7
 10
10.341445
 20
1.71692
 30
0.0
  0
VERTEX
  8
BASE-HID
 62
     7
 10
10.341445
 20
1.65792
 30
0.0
  0
SEQEND
  8
BASE-HID
 62
     7
  0
LINE
  8
BASE-HID
 62
     7
 10
10.820555
 20
1.331093
 30
0.0
 11
10.584334
 21
1.331093
 31
0.0
  0
LINE
  8
COVER
 62
     7
 10
10.757201
 20
2.925818
 30
0.0
 11
10.757201
 21
2.341073
 31
0.0
  0
LINE
  8
COVER
 62
     7
 10
10.67846
 20
3.027205
 30
0.0
 11
10.67846
 21
2.320384
 31
0.0
  0
LINE
  8
COVER
 62
     7
 10
10.641059
 20
3.208767
 30
0.0
 11
10.641059
 21
2.320384
 31
0.0
  0
LINE
  8
COVER-HID
 62
     7
 10
10.57285
 20
2.320384
 30
0.0
 11
10.57285
 21
2.269203
 31
0.0
  0
LINE
  8
COVER-HID
 62
     7
 10
10.757201
 20
3.064273
 30
0.0
 11
10.757201
 21
2.925818
 31
0.0
  0
LINE
  8
COVER-HID
 62
     7
 10
10.672555
 20
2.66026
 30
0.0
 11
10.546571
 21
2.66026
 31
0.0
  0
LINE
  8
BASE-HID
 62
     7
 10
12.420524
 20
1.331093
 30
0.0
 11
12.420524
 21
1.094872
 31
0.0
  0
LINE
  8
BASE-HID
 62
     7
 10
12.33054
 20
1.331093
 30
0.0
 11
12.33054
 21
1.094872
 31
0.0
  0
LINE
  8
BASE-HID
 62
     7
 10
11.182532
 20
1.000384
 30
0.0
 11
11.182532
 21
1.456384
 31
0.0
  0
LINE
  8
BASE-HID
 62
     7
 10
13.568532
 20
1.000384
 30
0.0
 11
13.568532
 21
1.456384
 31
0.0
  0
LINE
  8
BASE-HID
 62
     7
 10
13.441532
 20
1.316384
 30
0.0
 11
13.441532
 21
1.882384
 31
0.0
  0
LINE
  8
BASE-HID
 62
     7
 10
11.309532
 20
1.316384
 30
0.0
 11
11.309532
 21
1.882384
 31
0.0
  0
LINE
  8
BASE-HID
 62
     7
 10
11.345532
 20
1.316384
 30
0.0
 11
11.345532
 21
1.882384
 31
0.0
  0
LINE
  8
BASE-HID
 62
     7
 10
13.405532
 20
1.316384
 30
0.0
 11
13.405532
 21
1.882384
 31
0.0
  0
LINE
  8
BASE-HID
 62
     7
 10
11.174744
 20
1.948384
 30
0.0
 11
11.174744
 21
1.094872
 31
0.0
  0
LINE
  8
BASE-HID
 62
     7
 10
13.57632
 20
1.948384
 30
0.0
 11
13.57632
 21
1.094872
 31
0.0
  0
LINE
  8
BASE-HID
 62
     7
 10
13.512532
 20
1.948384
 30
0.0
 11
13.512532
 21
1.094872
 31
0.0
  0
LINE
  8
BASE-HID
 62
     7
 10
11.238532
 20
1.094872
 30
0.0
 11
11.238532
 21
1.948384
 31
0.0
  0
LINE
  8
BASE-HID
 62
     7
 10
13.569532
 20
1.000384
 30
0.0
 11
13.569532
 21
1.46892
 31
0.0
  0
LINE
  8
BASE-HID
 62
     7
 10
11.181532
 20
1.000384
 30
0.0
 11
11.181532
 21
1.46892
 31
0.0
  0
LINE
  8
BASE-HID
 62
     7
 10
12.257422
 20
1.331093
 30
0.0
 11
12.257422
 21
1.192872
 31
0.0
  0
LINE
  8
BASE-HID
 62
     7
 10
12.493643
 20
1.331093
 30
0.0
 11
12.493643
 21
1.192872
 31
0.0
  0
LINE
  8
BASE-HID
 62
     7
 10
12.150032
 20
1.192872
 30
0.0
 11
12.601032
 21
1.192872
 31
0.0
  0
LINE
  8
BASE-HID
 62
     7
 10
11.238532
 20
1.316384
 30
0.0
 11
11.345532
 21
1.316384
 31
0.0
  0
LINE
  8
BASE-HID
 62
     7
 10
12.150032
 20
1.094872
 30
0.0
 11
12.150032
 21
1.192872
 31
0.0
  0
LINE
  8
BASE-HID
 62
     7
 10
12.601032
 20
1.094872
 30
0.0
 11
12.601032
 21
1.192872
 31
0.0
  0
LINE
  8
BASE-HID
 62
     7
 10
13.405532
 20
1.316384
 30
0.0
 11
13.512532
 21
1.316384
 31
0.0
  0
LINE
  8
COVER-HID
 62
     7
 10
13.549532
 20
1.678651
 30
0.0
 11
11.201532
 21
1.678651
 31
0.0
  0
LINE
  8
BASE-HID
 62
     7
 10
11.182532
 20
1.456384
 30
0.0
 11
13.568532
 21
1.456384
 31
0.0
  0
LINE
  8
BASE-HID
 62
     7
 10
11.181532
 20
1.46892
 30
0.0
 11
13.569532
 21
1.46892
 31
0.0
  0
LINE
  8
BASE-HID
 62
     7
 10
11.238532
 20
1.882384
 30
0.0
 11
13.512532
 21
1.882384
 31
0.0
  0
LINE
  8
BASE-HID
 62
     7
 10
11.174744
 20
1.948384
 30
0.0
 11
13.57632
 21
1.948384
 31
0.0
  0
LINE
  8
BASE-HID
 62
     7
 10
12.493643
 20
1.331093
 30
0.0
 11
12.257422
 21
1.331093
 31
0.0
  0
POLYLINE
  8
BASE-HID
 62
     7
 66
     1
 10
0.0
 20
0.0
 30
0.0
  0
VERTEX
  8
BASE-HID
 62
     7
 10
13.646532
 20
1.71692
 30
0.0
  0
VERTEX
  8
BASE-HID
 62
     7
 10
13.646532
 20
1.65792
 30
0.0
  0
VERTEX
  8
BASE-HID
 62
     7
 10
11.104532
 20
1.65792
 30
0.0
  0
VERTEX
  8
BASE-HID
 62
     7
 10
11.104532
 20
1.71692
 30
0.0
  0
SEQEND
  8
BASE-HID
 62
     7
  0
LINE
  8
BASE-HID
 62
     7
 10
11.577532
 20
1.659384
 30
0.0
 11
11.879532
 21
1.659384
 31
0.0
  0
LINE
  8
BASE-HID
 62
     7
 10
11.577532
 20
1.659384
 30
0.0
 11
11.577532
 21
1.948384
 31
0.0
  0
LINE
  8
COVER-HID
 62
     7
 10
11.201532
 20
1.729832
 30
0.0
 11
11.201532
 21
1.678651
 31
0.0
  0
LINE
  8
BASE-HID
 62
     7
 10
11.300744
 20
1.948384
 30
0.0
 11
11.300744
 21
1.882384
 31
0.0
  0
LINE
  8
BASE-HID
 62
     7
 10
11.879532
 20
1.659384
 30
0.0
 11
11.879532
 21
1.948384
 31
0.0
  0
LINE
  8
BASE-HID
 62
     7
 10
12.871532
 20
1.659384
 30
0.0
 11
13.173532
 21
1.659384
 31
0.0
  0
LINE
  8
BASE-HID
 62
     7
 10
12.871532
 20
1.659384
 30
0.0
 11
12.871532
 21
1.948384
 31
0.0
  0
LINE
  8
BASE-HID
 62
     7
 10
13.173532
 20
1.659384
 30
0.0
 11
13.173532
 21
1.948384
 31
0.0
  0
LINE
  8
COVER-HID
 62
     7
 10
13.549532
 20
1.729832
 30
0.0
 11
13.549532
 21
1.678651
 31
0.0
  0
LINE
  8
BASE-HID
 62
     7
 10
13.45032
 20
1.948384
 30
0.0
 11
13.45032
 21
1.882384
 31
0.0
  0
LINE
  8
BASE-HID
 62
     7
 10
14.093437
 20
1.331093
 30
0.0
 11
14.093437
 21
1.094872
 31
0.0
  0
LINE
  8
BASE-HID
 62
     7
 10
14.003452
 20
1.331093
 30
0.0
 11
14.003452
 21
1.094872
 31
0.0
  0
LINE
  8
BASE-HID
 62
     7
 10
13.930334
 20
1.331093
 30
0.0
 11
13.930334
 21
1.094872
 31
0.0
  0
LINE
  8
BASE-HID
 62
     7
 10
14.166555
 20
1.331093
 30
0.0
 11
14.166555
 21
1.094872
 31
0.0
  0
LINE
  8
BASE-HID
 62
     7
 10
14.088352
 20
1.71692
 30
0.0
 11
14.088352
 21
1.094384
 31
0.0
  0
LINE
  8
BASE-HID
 62
     7
 10
14.214336
 20
1.71692
 30
0.0
 11
14.214336
 21
1.094384
 31
0.0
  0
LINE
  8
BASE-HID
 62
     7
 10
14.003706
 20
1.71692
 30
0.0
 11
14.003706
 21
1.094872
 31
0.0
  0
LINE
  8
BASE-HID
 62
     7
 10
14.32851
 20
1.71692
 30
0.0
 11
14.32851
 21
1.094872
 31
0.0
  0
LINE
  8
BASE-HID
 62
     7
 10
14.298982
 20
1.71692
 30
0.0
 11
14.298982
 21
1.094872
 31
0.0
  0
POLYLINE
  8
BASE-HID
 62
     7
 66
     1
 10
0.0
 20
0.0
 30
0.0
  0
VERTEX
  8
BASE-HID
 62
     7
 10
14.255002
 20
1.004633
 30
0.0
  0
VERTEX
  8
BASE-HID
 62
     7
 10
14.255002
 20
1.094384
 30
0.0
  0
VERTEX
  8
BASE-HID
 62
     7
 10
14.028002
 20
1.094384
 30
0.0
  0
VERTEX
  8
BASE-HID
 62
     7
 10
14.028002
 20
1.000384
 30
0.0
  0
SEQEND
  8
BASE-HID
 62
     7
  0
LINE
  8
COVER-HID
 62
     7
 10
14.32851
 20
1.729832
 30
0.0
 11
14.32851
 21
3.210472
 31
0.0
  0
LINE
  8
COVER-HID
 62
     7
 10
14.28914
 20
3.064273
 30
0.0
 11
14.28914
 21
1.729832
 31
0.0
  0
ARC
  8
COVER
 62
     7
 10
14.36762
 20
2.241384
 30
0.0
 40
0.079
 50
360.0
 51
90.0
  0
LINE
  8
COVER-HID
 62
     7
 10
14.07851
 20
2.66026
 30
0.0
 11
14.07851
 21
1.729832
 31
0.0
  0
LINE
  8
COVER-HID
 62
     7
 10
14.204494
 20
2.66026
 30
0.0
 11
14.204494
 21
1.729832
 31
0.0
  0
LINE
  8
COVER-HID
 62
     7
 10
13.993864
 20
2.341073
 30
0.0
 11
13.993864
 21
1.729832
 31
0.0
  0
LINE
  8
BASE-HID
 62
     7
 10
14.166555
 20
1.331093
 30
0.0
 11
13.930334
 21
1.331093
 31
0.0
  0
POLYLINE
  8
COVER-HID
 62
     7
 66
     1
 10
0.0
 20
0.0
 30
0.0
  0
VERTEX
  8
COVER-HID
 62
     7
 10
14.40162
 20
1.729832
 30
0.0
  0
VERTEX
  8
COVER-HID
 62
     7
 10
14.40162
 20
1.678651
 30
0.0
 42
-0.414214
  0
SEQEND
  8
COVER-HID
 62
     7
  0
POLYLINE
  8
COVER-HID
 62
     7
 66
     1
 10
0.0
 20
0.0
 30
0.0
  0
VERTEX
  8
COVER-HID
 62
     7
 10
14.36862
 20
1.729832
 30
0.0
  0
VERTEX
  8
COVER-HID
 62
     7
 10
14.36862
 20
1.678651
 30
0.0
 42
-0.414214
  0
SEQEND
  8
COVER-HID
 62
     7
  0
LINE
  8
COVER-HID
 62
     7
 10
14.40162
 20
1.678651
 30
0.0
 11
14.36862
 21
1.678651
 31
0.0
  0
POLYLINE
  8
BASE-HID
 62
     7
 66
     1
 10
0.0
 20
0.0
 30
0.0
  0
VERTEX
  8
BASE-HID
 62
     7
 10
14.40962
 20
1.71692
 30
0.0
  0
VERTEX
  8
BASE-HID
 62
     7
 10
14.40962
 20
1.65792
 30
0.0
  0
VERTEX
  8
BASE-HID
 62
     7
 10
14.35962
 20
1.65792
 30
0.0
  0
VERTEX
  8
BASE-HID
 62
     7
 10
14.35962
 20
1.71692
 30
0.0
  0
SEQEND
  8
BASE-HID
 62
     7
  0
LINE
  8
COVER
 62
     7
 10
13.993864
 20
2.925818
 30
0.0
 11
13.993864
 21
2.341073
 31
0.0
  0
LINE
  8
COVER
 62
     7
 10
14.072604
 20
3.027205
 30
0.0
 11
14.072604
 21
2.320384
 31
0.0
  0
LINE
  8
COVER
 62
     7
 10
14.110006
 20
3.208767
 30
0.0
 11
14.110006
 21
2.320384
 31
0.0
  0
LINE
  8
COVER-HID
 62
     7
 10
14.178214
 20
2.320384
 30
0.0
 11
14.178214
 21
2.269203
 31
0.0
  0
LINE
  8
COVER-HID
 62
     7
 10
13.993864
 20
3.064273
 30
0.0
 11
13.993864
 21
2.925818
 31
0.0
  0
LINE
  8
COVER-HID
 62
     7
 10
14.07851
 20
2.66026
 30
0.0
 11
14.204494
 21
2.66026
 31
0.0
  0
LINE
  8
COVER
 62
     7
 10
14.36762
 20
3.311888
 30
0.0
 11
10.383445
 21
3.311888
 31
0.0
  0
ARC
  8
COVER
 62
     7
 10
10.383445
 20
3.232888
 30
0.0
 40
0.079
 50
90.0
 51
180.0
  0
ARC
  8
COVER
 62
     7
 10
14.36762
 20
3.232888
 30
0.0
 40
0.079
 50
360.0
 51
90.0
  0
LINE
  8
COVER-HID
 62
     7
 10
13.993864
 20
3.064273
 30
0.0
 11
14.28914
 21
3.064273
 31
0.0
  0
LINE
  8
COVER-HID
 62
     7
 10
10.461925
 20
3.064273
 30
0.0
 11
10.757201
 21
3.064273
 31
0.0
  0
LINE
  8
COVER-HID
 62
     7
 10
14.36862
 20
5.690395
 30
0.0
 11
14.40162
 21
5.690395
 31
0.0
  0
POLYLINE
  8
COVER-HID
 62
     7
 66
     1
 10
0.0
 20
0.0
 30
0.0
  0
VERTEX
  8
COVER-HID
 62
     7
 10
14.40162
 20
5.690395
 30
0.0
  0
VERTEX
  8
COVER-HID
 62
     7
 10
14.40162
 20
12.158092
 30
0.0
 42
0.413509
  0
SEQEND
  8
COVER-HID
 62
     7
  0
POLYLINE
  8
COVER-HID
 62
     7
 66
     1
 10
0.0
 20
0.0
 30
0.0
  0
VERTEX
  8
COVER-HID
 62
     7
 10
14.36862
 20
5.690395
 30
0.0
  0
VERTEX
  8
COVER-HID
 62
     7
 10
14.36862
 20
12.158092
 30
0.0
 42
0.413509
  0
SEQEND
  8
COVER-HID
 62
     7
  0
LINE
  8
COVER-HID
 62
     7
 10
14.36862
 20
12.158092
 30
0.0
 11
14.40162
 21
12.158092
 31
0.0
  0
DIMENSION
  8
DIM
 62
     7
  2
*D15
 10
19.216479
 20
9.715201
 30
0.0
 11
17.823813
 21
9.430517
 31
0.0
 12
-0.713493
 22
-22.991475
 32
0.0
 70
     2
  1
155%%D
 13
19.216479
 23
9.715201
 33
0.0
 14
18.23034
 24
12.0265
 34
0.0
 15
19.216479
 25
5.259009
 35
0.0
 16
17.906563
 26
10.267182
 36
0.0
  3
23NSTD
  0
POLYLINE
  8
BASE-HID
 62
     7
 66
     1
 10
0.0
 20
0.0
 30
0.0
  0
VERTEX
  8
BASE-HID
 62
     7
 10
11.240744
 20
11.45391
 30
0.0
  0
VERTEX
  8
BASE-HID
 62
     7
 10
11.240744
 20
11.575632
 30
0.0
  0
SEQEND
  8
BASE-HID
 62
     7
  0
POLYLINE
  8
BASE
 62
     7
 66
     1
 10
0.0
 20
0.0
 30
0.0
  0
VERTEX
  8
BASE
 62
     7
 10
13.57632
 20
11.575632
 30
0.0
  0
VERTEX
  8
BASE
 62
     7
 10
13.57632
 20
11.037359
 30
0.0
  0
VERTEX
  8
BASE
 62
     7
 10
11.174744
 20
11.037359
 30
0.0
  0
VERTEX
  8
BASE
 62
     7
 10
11.174744
 20
11.575632
 30
0.0
  0
SEQEND
  8
BASE
 62
     7
  0
POLYLINE
  8
BASE-HID
 62
     7
 66
     1
 10
0.0
 20
0.0
 30
0.0
  0
VERTEX
  8
BASE-HID
 62
     7
 10
13.51032
 20
11.575632
 30
0.0
  0
VERTEX
  8
BASE-HID
 62
     7
 10
13.51032
 20
11.45391
 30
0.0
  0
SEQEND
  8
BASE-HID
 62
     7
  0
LINE
  8
COVER-HID
 62
     7
 10
14.204494
 20
2.103832
 30
0.0
 11
14.07851
 21
2.103832
 31
0.0
  0
LINE
  8
COVER-HID
 62
     7
 10
10.672555
 20
2.103832
 30
0.0
 11
10.546571
 21
2.103832
 31
0.0
  0
LINE
  8
DIM
 62
     7
 10
2.593722
 20
13.391218
 30
0.0
 11
2.331082
 21
13.391218
 31
0.0
  0
TEXT
  8
TEXT
 62
     7
 10
0.747444
 20
1.219119
 30
0.0
 40
0.25
  1
%%UNOTE:
 41
0.75
  7
TXT
  0
DIMENSION
  8
DIM
 62
     7
  2
*D52
 10
23.724518
 20
9.308759
 30
0.0
 11
23.724518
 21
9.842941
 31
0.0
 12
0.551832
 22
0.0
 32
0.0
 13
26.639717
 23
10.377122
 33
0.0
 14
24.966488
 24
9.308759
 34
0.0
 50
90.0
  3
23NSTDI
  0
DIMENSION
  8
DIM
 62
     7
  2
*D53
 10
23.724518
 20
5.888931
 30
0.0
 11
23.724518
 21
7.598845
 31
0.0
 12
0.551832
 22
0.0
 32
0.0
 13
24.966488
 23
9.308759
 33
0.0
 14
24.966488
 24
5.888931
 34
0.0
 50
90.0
  3
23NSTD
  0
DIMENSION
  8
DIM
 62
     7
  2
*D51
 10
23.724518
 20
5.180269
 30
0.0
 11
23.724518
 21
5.5346
 31
0.0
 12
0.551832
 22
0.0
 32
0.0
 13
24.966488
 23
5.888931
 33
0.0
 14
24.833629
 24
5.180269
 34
0.0
 50
90.0
  3
23NSTDI
  0
DIMENSION
  8
DIM
 62
     7
  2
*D48
 10
24.966488
 20
13.211218
 30
0.0
 11
23.722738
 21
13.211218
 31
0.0
 12
0.551832
 22
0.0
 32
0.0
 13
26.639717
 23
10.377122
 33
0.0
 14
24.966488
 24
9.308759
 34
0.0
  3
23NSTD
  0
DIMENSION
  8
DIM
 62
     7
  2
*D49
 10
24.568629
 20
13.792938
 30
0.0
 11
23.309254
 21
13.792938
 31
0.0
 12
0.551832
 22
0.0
 32
0.0
 13
24.966488
 23
9.308759
 33
0.0
 14
24.568629
 24
12.406218
 34
0.0
  3
23NSTD
  0
DIMENSION
  8
DIM
 62
     7
  2
*D50
 10
28.312946
 20
13.792938
 30
0.0
 11
26.639717
 21
13.792938
 31
0.0
 12
0.551832
 22
0.0
 32
0.0
 13
24.966488
 23
9.308759
 33
0.0
 14
28.312946
 24
9.308759
 34
0.0
  3
23NSTD
  0
DIMENSION
  8
DIM
 62
     7
  2
*D71
 10
14.32851
 20
14.355899
 30
0.0
 11
12.375532
 21
14.355899
 31
0.0
  1
<> INSIDE
 13
10.422555
 23
12.434997
 33
0.0
 14
14.32851
 24
12.434997
 34
0.0
  3
23NSTD
  0
DIMENSION
  8
DIM
 62
     7
  2
*D70
 10
5.999311
 20
13.769003
 30
0.0
 11
4.941511
 21
13.769003
 31
0.0
  1
<> INSIDE
 13
3.883711
 23
12.553108
 33
0.0
 14
5.999311
 24
12.022089
 34
0.0
  3
23NSTDI
  0
ENDSEC
  0
EOF
