  0
SECTION
  2
HEADER
  9
$ACADVER
  1
AC1015
  9
$ACADMAINTVER
 70
     6
  9
$DWGCODEPAGE
  3
ANSI_1252
  9
$INSBASE
 10
0.0
 20
0.0
 30
0.0
  9
$EXTMIN
 10
-0.0007939918925786
 20
-0.0011897181939382
 30
-0.000000000000013
  9
$EXTMAX
 10
10.60022833845281
 20
15.66083518106737
 30
0.0000000000000023
  9
$LIMMIN
 10
0.0
 20
0.0
  9
$LIMMAX
 10
10.6
 20
15.65999999999999
  9
$ORTHOMODE
 70
     1
  9
$REGENMODE
 70
     1
  9
$FILLMODE
 70
     1
  9
$QTEXTMODE
 70
     0
  9
$MIRRTEXT
 70
     0
  9
$LTSCALE
 40
1.0
  9
$ATTMODE
 70
     1
  9
$TEXTSIZE
 40
0.25
  9
$TRACEWID
 40
0.05
  9
$TEXTSTYLE
  7
TXT
  9
$CLAYER
  8
0
  9
$CELTYPE
  6
ByLayer
  9
$CECOLOR
 62
   256
  9
$CELTSCALE
 40
1.0
  9
$DISPSILH
 70
     0
  9
$DIMSCALE
 40
1.0
  9
$DIMASZ
 40
0.18
  9
$DIMEXO
 40
0.0625
  9
$DIMDLI
 40
0.38
  9
$DIMRND
 40
0.0
  9
$DIMDLE
 40
0.0
  9
$DIMEXE
 40
0.18
  9
$DIMTP
 40
0.0
  9
$DIMTM
 40
0.0
  9
$DIMTXT
 40
0.18
  9
$DIMCEN
 40
0.09
  9
$DIMTSZ
 40
0.0
  9
$DIMTOL
 70
     0
  9
$DIMLIM
 70
     0
  9
$DIMTIH
 70
     1
  9
$DIMTOH
 70
     1
  9
$DIMSE1
 70
     0
  9
$DIMSE2
 70
     0
  9
$DIMTAD
 70
     0
  9
$DIMZIN
 70
     0
  9
$DIMBLK
  1

  9
$DIMASO
 70
     1
  9
$DIMSHO
 70
     1
  9
$DIMPOST
  1

  9
$DIMAPOST
  1

  9
$DIMALT
 70
     0
  9
$DIMALTD
 70
     2
  9
$DIMALTF
 40
25.4
  9
$DIMLFAC
 40
1.0
  9
$DIMTOFL
 70
     0
  9
$DIMTVP
 40
0.0
  9
$DIMTIX
 70
     0
  9
$DIMSOXD
 70
     0
  9
$DIMSAH
 70
     0
  9
$DIMBLK1
  1

  9
$DIMBLK2
  1

  9
$DIMSTYLE
  2
Standard
  9
$DIMCLRD
 70
     0
  9
$DIMCLRE
 70
     0
  9
$DIMCLRT
 70
     0
  9
$DIMTFAC
 40
1.0
  9
$DIMGAP
 40
0.09
  9
$DIMJUST
 70
     0
  9
$DIMSD1
 70
     0
  9
$DIMSD2
 70
     0
  9
$DIMTOLJ
 70
     1
  9
$DIMTZIN
 70
     0
  9
$DIMALTZ
 70
     0
  9
$DIMALTTZ
 70
     0
  9
$DIMUPT
 70
     1
  9
$DIMDEC
 70
     4
  9
$DIMTDEC
 70
     4
  9
$DIMALTU
 70
     2
  9
$DIMALTTD
 70
     2
  9
$DIMTXSTY
  7
TXT
  9
$DIMAUNIT
 70
     0
  9
$DIMADEC
 70
     0
  9
$DIMALTRND
 40
0.0
  9
$DIMAZIN
 70
     0
  9
$DIMDSEP
 70
    46
  9
$DIMATFIT
 70
     3
  9
$DIMFRAC
 70
     0
  9
$DIMLDRBLK
  1

  9
$DIMLUNIT
 70
     2
  9
$DIMLWD
 70
    -2
  9
$DIMLWE
 70
    -2
  9
$DIMTMOVE
 70
     0
  9
$LUNITS
 70
     2
  9
$LUPREC
 70
     3
  9
$SKETCHINC
 40
0.1
  9
$FILLETRAD
 40
0.0
  9
$AUNITS
 70
     0
  9
$AUPREC
 70
     0
  9
$MENU
  1
acad
  9
$ELEVATION
 40
0.0
  9
$PELEVATION
 40
0.0
  9
$THICKNESS
 40
0.0
  9
$LIMCHECK
 70
     0
  9
$CHAMFERA
 40
0.0
  9
$CHAMFERB
 40
0.0
  9
$CHAMFERC
 40
0.0
  9
$CHAMFERD
 40
0.0
  9
$SKPOLY
 70
     0
  9
$TDCREATE
 40
2448653.561880786
  9
$TDUCREATE
 40
2448653.770214120
  9
$TDUPDATE
 40
2453725.397233507
  9
$TDUUPDATE
 40
2453725.605566840
  9
$TDINDWG
 40
0.2463659028
  9
$TDUSRTIMER
 40
0.2463659028
  9
$USRTIMER
 70
     1
  9
$ANGBASE
 50
0.0
  9
$ANGDIR
 70
     0
  9
$PDMODE
 70
     0
  9
$PDSIZE
 40
0.0
  9
$PLINEWID
 40
0.0
  9
$SPLFRAME
 70
     0
  9
$SPLINETYPE
 70
     6
  9
$SPLINESEGS
 70
     8
  9
$HANDSEED
  5
A25
  9
$SURFTAB1
 70
     6
  9
$SURFTAB2
 70
     6
  9
$SURFTYPE
 70
     6
  9
$SURFU
 70
     6
  9
$SURFV
 70
     6
  9
$UCSBASE
  2

  9
$UCSNAME
  2

  9
$UCSORG
 10
0.0
 20
0.0
 30
0.0
  9
$UCSXDIR
 10
1.0
 20
0.0
 30
0.0
  9
$UCSYDIR
 10
0.0
 20
1.0
 30
0.0
  9
$UCSORTHOREF
  2

  9
$UCSORTHOVIEW
 70
     0
  9
$UCSORGTOP
 10
0.0
 20
0.0
 30
0.0
  9
$UCSORGBOTTOM
 10
0.0
 20
0.0
 30
0.0
  9
$UCSORGLEFT
 10
0.0
 20
0.0
 30
0.0
  9
$UCSORGRIGHT
 10
0.0
 20
0.0
 30
0.0
  9
$UCSORGFRONT
 10
0.0
 20
0.0
 30
0.0
  9
$UCSORGBACK
 10
0.0
 20
0.0
 30
0.0
  9
$PUCSBASE
  2

  9
$PUCSNAME
  2

  9
$PUCSORG
 10
0.0
 20
0.0
 30
0.0
  9
$PUCSXDIR
 10
1.0
 20
0.0
 30
0.0
  9
$PUCSYDIR
 10
0.0
 20
1.0
 30
0.0
  9
$PUCSORTHOREF
  2

  9
$PUCSORTHOVIEW
 70
     0
  9
$PUCSORGTOP
 10
0.0
 20
0.0
 30
0.0
  9
$PUCSORGBOTTOM
 10
0.0
 20
0.0
 30
0.0
  9
$PUCSORGLEFT
 10
0.0
 20
0.0
 30
0.0
  9
$PUCSORGRIGHT
 10
0.0
 20
0.0
 30
0.0
  9
$PUCSORGFRONT
 10
0.0
 20
0.0
 30
0.0
  9
$PUCSORGBACK
 10
0.0
 20
0.0
 30
0.0
  9
$USERI1
 70
     0
  9
$USERI2
 70
     0
  9
$USERI3
 70
     0
  9
$USERI4
 70
     0
  9
$USERI5
 70
     0
  9
$USERR1
 40
0.0
  9
$USERR2
 40
0.0
  9
$USERR3
 40
0.0
  9
$USERR4
 40
0.0
  9
$USERR5
 40
0.0
  9
$WORLDVIEW
 70
     1
  9
$SHADEDGE
 70
     3
  9
$SHADEDIF
 70
    70
  9
$TILEMODE
 70
     1
  9
$MAXACTVP
 70
    16
  9
$PINSBASE
 10
0.0
 20
0.0
 30
0.0
  9
$PLIMCHECK
 70
     0
  9
$PEXTMIN
 10
1.000000000000000E+20
 20
1.000000000000000E+20
 30
1.000000000000000E+20
  9
$PEXTMAX
 10
-1.000000000000000E+20
 20
-1.000000000000000E+20
 30
-1.000000000000000E+20
  9
$PLIMMIN
 10
0.0
 20
0.0
  9
$PLIMMAX
 10
12.0
 20
9.0
  9
$UNITMODE
 70
     0
  9
$VISRETAIN
 70
     0
  9
$PLINEGEN
 70
     0
  9
$PSLTSCALE
 70
     0
  9
$TREEDEPTH
 70
  3020
  9
$CMLSTYLE
  2
Standard
  9
$CMLJUST
 70
     0
  9
$CMLSCALE
 40
1.0
  9
$PROXYGRAPHICS
 70
     1
  9
$MEASUREMENT
 70
     0
  9
$CELWEIGHT
370
    -1
  9
$ENDCAPS
280
     0
  9
$JOINSTYLE
280
     0
  9
$LWDISPLAY
290
     0
  9
$INSUNITS
 70
     0
  9
$HYPERLINKBASE
  1

  9
$STYLESHEET
  1
monochrome.ctb
  9
$XEDIT
290
     1
  9
$CEPSNTYPE
380
     0
  9
$PSTYLEMODE
290
     1
  9
$FINGERPRINTGUID
  2
{D892DE92-8BE2-11D3-80BA-00C04F604D1B}
  9
$VERSIONGUID
  2
{36AF3A26-1AE6-421E-91A2-40D04338259B}
  9
$EXTNAMES
290
     1
  9
$PSVPSCALE
 40
0.0
  9
$OLESTARTUP
290
     0
  0
ENDSEC
  0
SECTION
  2
CLASSES
  0
CLASS
  1
ACDBDICTIONARYWDFLT
  2
AcDbDictionaryWithDefault
  3
AutoCAD 2000
 90
        0
280
     0
281
     0
  0
CLASS
  1
ACDBPLACEHOLDER
  2
AcDbPlaceHolder
  3
AutoCAD 2000
 90
        0
280
     0
281
     0
  0
CLASS
  1
LAYOUT
  2
AcDbLayout
  3
AutoCAD 2000
 90
        0
280
     0
281
     0
  0
CLASS
  1
DICTIONARYVAR
  2
AcDbDictionaryVar
  3
AutoCAD 2000
 90
        0
280
     0
281
     0
  0
ENDSEC
  0
SECTION
  2
TABLES
  0
TABLE
  2
VPORT
  5
8
330
0
100
AcDbSymbolTable
 70
    13
  0
VPORT
  5
A24
330
8
100
AcDbSymbolTableRecord
100
AcDbViewportTableRecord
  2
*Active
 70
     0
 10
0.0
 20
0.0
 11
1.0
 21
1.0
 12
5.299717173280116
 22
7.829822731436717
 13
0.0
 23
0.0
 14
1.0
 24
1.0
 15
0.25
 25
0.25
 16
0.0
 26
0.0
 36
1.0
 17
0.0
 27
0.0
 37
0.0
 40
15.86804076737847
 41
1.767195767195767
 42
50.0
 43
0.0
 44
0.0
 50
0.0
 51
0.0
 71
     0
 72
   100
 73
     1
 74
     0
 75
     0
 76
     0
 77
     0
 78
     0
281
     0
 65
     1
110
0.0
120
0.0
130
0.0
111
1.0
121
0.0
131
0.0
112
0.0
122
1.0
132
0.0
 79
     0
146
0.0
  0
ENDTAB
  0
TABLE
  2
LTYPE
  5
5
330
0
100
AcDbSymbolTable
 70
     3
  0
LTYPE
  5
13
330
5
100
AcDbSymbolTableRecord
100
AcDbLinetypeTableRecord
  2
ByBlock
 70
     0
  3

 72
    65
 73
     0
 40
0.0
  0
LTYPE
  5
14
330
5
100
AcDbSymbolTableRecord
100
AcDbLinetypeTableRecord
  2
ByLayer
 70
     0
  3

 72
    65
 73
     0
 40
0.0
  0
LTYPE
  5
15
330
5
100
AcDbSymbolTableRecord
100
AcDbLinetypeTableRecord
  2
CONTINUOUS
 70
     0
  3
Solid line
 72
    65
 73
     0
 40
0.0
  0
LTYPE
  5
226
330
5
100
AcDbSymbolTableRecord
100
AcDbLinetypeTableRecord
  2
CENTER2
 70
     0
  3
Center (.5x) ___ _ ___ _ ___ _ ___ _ ___ _ ___
 72
    65
 73
     4
 40
1.125
 49
0.75
 74
     0
 49
-0.125
 74
     0
 49
0.125
 74
     0
 49
-0.125
 74
     0
  0
LTYPE
  5
227
330
5
100
AcDbSymbolTableRecord
100
AcDbLinetypeTableRecord
  2
HIDDEN2
 70
     0
  3
Hidden (.5x) _ _ _ _ _ _ _ _ _ _ _ _ _ _ _ _ _
 72
    65
 73
     2
 40
0.1875
 49
0.125
 74
     0
 49
-0.0625
 74
     0
  0
ENDTAB
  0
TABLE
  2
LAYER
  5
2
330
0
100
AcDbSymbolTable
 70
     8
  0
LAYER
  5
10
330
2
100
AcDbSymbolTableRecord
100
AcDbLayerTableRecord
  2
0
 70
     0
 62
     7
  6
CONTINUOUS
370
    -3
390
F
  0
LAYER
  5
23
330
2
100
AcDbSymbolTableRecord
100
AcDbLayerTableRecord
  2
TEXT
 70
     0
 62
     1
  6
CONTINUOUS
370
    -3
390
F
  0
LAYER
  5
24
330
2
100
AcDbSymbolTableRecord
100
AcDbLayerTableRecord
  2
TITLE
 70
     0
 62
     8
  6
CONTINUOUS
370
    -3
390
F
  0
LAYER
  5
59
330
2
100
AcDbSymbolTableRecord
100
AcDbLayerTableRecord
  2
Defpoints
 70
     0
 62
     7
  6
CONTINUOUS
290
     0
370
    -3
390
F
  0
LAYER
  5
228
330
2
100
AcDbSymbolTableRecord
100
AcDbLayerTableRecord
  2
SL-42B
 70
     0
 62
     7
  6
CONTINUOUS
370
    -3
390
232
  0
LAYER
  5
229
330
2
100
AcDbSymbolTableRecord
100
AcDbLayerTableRecord
  2
SL-42C
 70
     0
 62
     7
  6
CONTINUOUS
370
    -3
390
232
  0
LAYER
  5
22A
330
2
100
AcDbSymbolTableRecord
100
AcDbLayerTableRecord
  2
OBJECT
 70
     0
 62
     7
  6
CONTINUOUS
370
    -3
390
F
  0
LAYER
  5
22B
330
2
100
AcDbSymbolTableRecord
100
AcDbLayerTableRecord
  2
DIM
 70
     0
 62
     2
  6
CONTINUOUS
370
    -3
390
F
  0
ENDTAB
  0
TABLE
  2
STYLE
  5
3
330
0
100
AcDbSymbolTable
 70
     4
  0
STYLE
  5
11
330
3
100
AcDbSymbolTableRecord
100
AcDbTextStyleTableRecord
  2
TXT
 70
     0
 40
0.0
 41
0.75
 50
0.0
 71
     0
 42
0.25
  3
TXT.shx
  4

  0
STYLE
  5
25
330
3
100
AcDbSymbolTableRecord
100
AcDbTextStyleTableRecord
  2
Standard
 70
     0
 40
0.2
 41
1.0
 50
0.0
 71
     0
 42
0.2
  3
txt
  4

  0
STYLE
  5
22C
330
3
100
AcDbSymbolTableRecord
100
AcDbTextStyleTableRecord
  2
ROMANS
 70
     0
 40
0.125
 41
1.0
 50
0.0
 71
     0
 42
0.125
  3
romab___.ttf
  4

1001
ACAD
1000
Romantic
1071
 33554946
  0
STYLE
  5
22D
330
3
100
AcDbSymbolTableRecord
100
AcDbTextStyleTableRecord
  2
SANSSERIFBOLDOBLIQUE
 70
     0
 40
0.125
 41
1.074999999999999
 50
0.0
 71
     0
 42
1.199999999999999
  3
sasbo___.pfb
  4

  0
ENDTAB
  0
TABLE
  2
VIEW
  5
6
330
0
100
AcDbSymbolTable
 70
     0
  0
ENDTAB
  0
TABLE
  2
UCS
  5
7
330
0
100
AcDbSymbolTable
 70
     0
  0
ENDTAB
  0
TABLE
  2
APPID
  5
9
330
0
100
AcDbSymbolTable
 70
     1
  0
APPID
  5
12
330
9
100
AcDbSymbolTableRecord
100
AcDbRegAppTableRecord
  2
ACAD
 70
     0
  0
ENDTAB
  0
TABLE
  2
DIMSTYLE
  5
A
330
0
100
AcDbSymbolTable
 70
     5
100
AcDbDimStyleTable
 71
     1
340
3C
  0
DIMSTYLE
105
3C
102
{ACAD_REACTORS
330
502
330
5A3
330
5A4
330
5B8
330
5B9
330
5BA
330
5BB
330
5BC
330
5BD
330
5C5
330
79F
330
91E
102
}
330
A
100
AcDbSymbolTableRecord
100
AcDbDimStyleTableRecord
  2
Standard
 70
     0
288
     1
340
11
  0
DIMSTYLE
105
22E
330
A
100
AcDbSymbolTableRecord
100
AcDbDimStyleTableRecord
  2
STANDARD$4
 70
     0
 44
0.1
140
0.125
141
0.0
176
     1
177
     1
178
     4
271
     3
272
     1
275
     1
288
     1
340
25
  0
DIMSTYLE
105
22F
102
{ACAD_REACTORS
330
3F1
102
}
330
A
100
AcDbSymbolTableRecord
100
AcDbDimStyleTableRecord
  2
STANDARD$3
 70
     0
 44
0.1
140
0.125
141
0.0
176
     1
177
     1
178
     4
271
     3
272
     1
275
     1
288
     1
340
25
  0
DIMSTYLE
105
230
102
{ACAD_REACTORS
330
5B6
330
3E9
102
}
330
A
100
AcDbSymbolTableRecord
100
AcDbDimStyleTableRecord
  2
STANDARD$7
 70
     0
 44
0.1
140
0.125
141
0.03
176
     1
177
     1
178
     4
271
     3
272
     1
275
     1
288
     1
340
25
  0
DIMSTYLE
105
231
330
A
100
AcDbSymbolTableRecord
100
AcDbDimStyleTableRecord
  2
DIM
 70
     0
 40
2.0
 42
0.063
 43
0.281
 44
0.093
140
0.125
271
     3
272
     3
289
     2
340
11
  0
ENDTAB
  0
TABLE
  2
BLOCK_RECORD
  5
1
330
0
100
AcDbSymbolTable
 70
    37
  0
BLOCK_RECORD
  5
1E
330
1
100
AcDbSymbolTableRecord
100
AcDbBlockTableRecord
  2
*Model_Space
340
21
  0
BLOCK_RECORD
  5
1A
330
1
100
AcDbSymbolTableRecord
100
AcDbBlockTableRecord
  2
*Paper_Space
340
1D
  0
BLOCK_RECORD
  5
AC
330
1
100
AcDbSymbolTableRecord
100
AcDbBlockTableRecord
  2
POLYCASELOGO
340
0
102
{BLKREFS
331
F7
102
}
  0
BLOCK_RECORD
  5
DD
330
1
100
AcDbSymbolTableRecord
100
AcDbBlockTableRecord
  2
REVGRID
340
0
  0
BLOCK_RECORD
  5
EC
330
1
100
AcDbSymbolTableRecord
100
AcDbBlockTableRecord
  2
TITLEBLK
340
0
  0
BLOCK_RECORD
  5
11B
330
1
100
AcDbSymbolTableRecord
100
AcDbBlockTableRecord
  2
CL
340
0
102
{BLKREFS
331
309
331
313
331
31C
331
344
331
4D6
331
4E0
331
4E9
331
511
102
}
  0
BLOCK_RECORD
  5
120
330
1
100
AcDbSymbolTableRecord
100
AcDbBlockTableRecord
  2
_DOT
340
0
  0
BLOCK_RECORD
  5
125
330
1
100
AcDbSymbolTableRecord
100
AcDbBlockTableRecord
  2
*D5
340
0
  0
BLOCK_RECORD
  5
132
330
1
100
AcDbSymbolTableRecord
100
AcDbBlockTableRecord
  2
B
340
0
102
{BLKREFS
331
3C9
102
}
  0
BLOCK_RECORD
  5
196
330
1
100
AcDbSymbolTableRecord
100
AcDbBlockTableRecord
  2
*D7
340
0
  0
BLOCK_RECORD
  5
1A3
330
1
100
AcDbSymbolTableRecord
100
AcDbBlockTableRecord
  2
*D8
340
0
  0
BLOCK_RECORD
  5
1B0
330
1
100
AcDbSymbolTableRecord
100
AcDbBlockTableRecord
  2
BOMCHART
340
0
102
{BLKREFS
331
3D8
331
3DE
331
3F2
102
}
  0
BLOCK_RECORD
  5
1BC
330
1
100
AcDbSymbolTableRecord
100
AcDbBlockTableRecord
  2
BALLOON
340
0
  0
BLOCK_RECORD
  5
1C1
330
1
100
AcDbSymbolTableRecord
100
AcDbBlockTableRecord
  2
*D11
340
0
  0
BLOCK_RECORD
  5
1CE
330
1
100
AcDbSymbolTableRecord
100
AcDbBlockTableRecord
  2
*D12
340
0
  0
BLOCK_RECORD
  5
1DB
330
1
100
AcDbSymbolTableRecord
100
AcDbBlockTableRecord
  2
*D13
340
0
  0
BLOCK_RECORD
  5
1E8
330
1
100
AcDbSymbolTableRecord
100
AcDbBlockTableRecord
  2
*D14
340
0
  0
BLOCK_RECORD
  5
1F5
330
1
100
AcDbSymbolTableRecord
100
AcDbBlockTableRecord
  2
*D15
340
0
  0
BLOCK_RECORD
  5
202
330
1
100
AcDbSymbolTableRecord
100
AcDbBlockTableRecord
  2
*D16
340
0
  0
BLOCK_RECORD
  5
20F
330
1
100
AcDbSymbolTableRecord
100
AcDbBlockTableRecord
  2
*D17
340
0
  0
BLOCK_RECORD
  5
218
330
1
100
AcDbSymbolTableRecord
100
AcDbBlockTableRecord
  2
*D18
340
0
  0
BLOCK_RECORD
  5
233
330
1
100
AcDbSymbolTableRecord
100
AcDbBlockTableRecord
  2
PT-11642
340
0
  0
BLOCK_RECORD
  5
5C9
330
1
100
AcDbSymbolTableRecord
100
AcDbBlockTableRecord
  2
*D20
340
0
  0
BLOCK_RECORD
  5
5D6
330
1
100
AcDbSymbolTableRecord
100
AcDbBlockTableRecord
  2
*D21
340
0
  0
BLOCK_RECORD
  5
5E3
330
1
100
AcDbSymbolTableRecord
100
AcDbBlockTableRecord
  2
*D22
340
0
  0
BLOCK_RECORD
  5
5F0
330
1
100
AcDbSymbolTableRecord
100
AcDbBlockTableRecord
  2
*D23
340
0
  0
BLOCK_RECORD
  5
5FD
330
1
100
AcDbSymbolTableRecord
100
AcDbBlockTableRecord
  2
*D24
340
0
  0
BLOCK_RECORD
  5
60A
330
1
100
AcDbSymbolTableRecord
100
AcDbBlockTableRecord
  2
*D25
340
0
  0
BLOCK_RECORD
  5
617
330
1
100
AcDbSymbolTableRecord
100
AcDbBlockTableRecord
  2
*D26
340
0
  0
BLOCK_RECORD
  5
624
330
1
100
AcDbSymbolTableRecord
100
AcDbBlockTableRecord
  2
*D27
340
0
  0
BLOCK_RECORD
  5
631
330
1
100
AcDbSymbolTableRecord
100
AcDbBlockTableRecord
  2
*D28
340
0
  0
BLOCK_RECORD
  5
647
330
1
100
AcDbSymbolTableRecord
100
AcDbBlockTableRecord
  2
*D29
340
0
  0
BLOCK_RECORD
  5
7A0
330
1
100
AcDbSymbolTableRecord
100
AcDbBlockTableRecord
  2
*D30
340
0
  0
BLOCK_RECORD
  5
91F
330
1
100
AcDbSymbolTableRecord
100
AcDbBlockTableRecord
  2
*D31
340
0
  0
BLOCK_RECORD
  5
9EF
330
1
100
AcDbSymbolTableRecord
100
AcDbBlockTableRecord
  2
A$C31977B81
340
0
  0
ENDTAB
  0
ENDSEC
  0
SECTION
  2
BLOCKS
  0
BLOCK
  5
28
330
1E
100
AcDbEntity
  8
0
100
AcDbBlockBegin
  2
*Model_Space
 70
     0
 10
0.0
 20
0.0
 30
0.0
  3
*Model_Space
  1

  0
ENDBLK
  5
29
330
1E
100
AcDbEntity
  8
0
100
AcDbBlockEnd
  0
BLOCK
  5
26
330
1A
100
AcDbEntity
 67
     1
  8
0
100
AcDbBlockBegin
  2
*Paper_Space
 70
     0
 10
0.0
 20
0.0
 30
0.0
  3
*Paper_Space
  1

  0
ENDBLK
  5
27
330
1A
100
AcDbEntity
 67
     1
  8
0
100
AcDbBlockEnd
  0
BLOCK
  5
DB
330
AC
100
AcDbEntity
  8
0
100
AcDbBlockBegin
  2
POLYCASELOGO
 70
     0
 10
0.0
 20
0.0
 30
0.0
  3
POLYCASELOGO
  1

  0
TEXT
  5
AD
330
AC
100
AcDbEntity
  8
0
  6
Continuous
 62
     5
100
AcDbText
 10
0.5543786009275298
 20
0.2596875577735744
 30
0.0
 40
0.2560714469563737
  1
POLYCASE
 41
1.074999999999999
  7
SANSSERIFBOLDOBLIQUE
100
AcDbText
  0
LWPOLYLINE
  5
AE
330
AC
100
AcDbEntity
  8
0
 62
     5
100
AcDbPolyline
 90
        2
 70
     0
 43
0.0283704365880094
 10
0.5653711824815968
 20
0.0874383236000913
 10
2.515371182481596
 20
0.0874383236000913
  0
TEXT
  5
AF
330
AC
100
AcDbEntity
  8
0
 62
     5
100
AcDbText
 10
0.5605156599830235
 20
0.1323139789410757
 30
0.0
 40
0.075654497568025
  1
YOUR PERFECT FIT
 41
1.8
  7
ROMANS
100
AcDbText
  0
ARC
  5
B0
330
AC
100
AcDbEntity
  8
0
  6
Continuous
 62
     5
100
AcDbCircle
 10
0.3887432458373094
 20
0.3774800182460627
 30
0.0
 40
0.031265452549206
100
AcDbArc
 50
266.7706331822096
 51
34.98953924178366
  0
ARC
  5
B1
330
AC
100
AcDbEntity
  8
0
  6
Continuous
 62
     5
100
AcDbCircle
 10
0.416855386687077
 20
0.3701236067504201
 30
0.0
 40
0.037429262845715
100
AcDbArc
 50
284.5083814713476
 51
357.5532058373056
  0
HATCH
  5
B2
330
AC
100
AcDbEntity
  8
0
 62
     5
100
AcDbHatch
 10
0.0
 20
0.0
 30
0.0
210
0.0
220
0.0
230
1.0
  2
ANSI37
 70
     0
 71
     0
 91
        1
 92
        1
 93
       11
 72
     2
 10
0.2931730151761709
 20
0.2945838597867372
 40
0.1588767169960905
 50
44.89452214437227
 51
75.72101642693887
 73
     1
 72
     1
 10
0.3323589335387709
 20
0.4485522818918409
 11
0.3265929222653341
 21
0.4668852408125282
 72
     2
 10
0.2969666889642948
 20
0.2837087256641109
 40
0.1855568629868643
 50
279.1872322025628
 51
321.2114153013091
 73
     0
 72
     2
 10
0.391360930001218
 20
0.3614695140686965
 40
0.0632842065627897
 50
322.5501373864274
 51
353.5982204382204
 73
     0
 72
     2
 10
0.4168553866870788
 20
0.3701236067504183
 40
0.037429262845715
 50
2.446794162694425
 51
75.49161852865238
 73
     0
 72
     2
 10
0.3842397376361806
 20
0.451177177154813
 40
0.1245798445307902
 50
70.3013609867947
 51
93.48971079086757
 73
     0
 72
     2
 10
0.3785106583832878
 20
0.5442257936888897
 40
0.2174053638482186
 50
90.4886177031712
 51
92.08518751394512
 73
     0
 72
     1
 10
0.3706002871579663
 20
0.3269643883333746
 11
0.3647966485473173
 21
0.345416982890306
 72
     2
 10
0.368138231815232
 20
0.5488074975796167
 40
0.2034179629342476
 50
269.0587496435967
 51
275.3152451116762
 73
     1
 72
     2
 10
0.3887432458373094
 20
0.3774800182460609
 40
0.031265452549206
 50
266.7706331822096
 51
394.9895392417836
 73
     1
 72
     2
 10
0.3624406169004164
 20
0.364725498726969
 40
0.060306102378538
 50
30.58307632047512
 51
44.13489854844378
 73
     1
 97
        0
 75
     0
 76
     1
 52
0.0
 41
0.0453750276742311
 77
     0
 78
     2
 53
45.0
 43
-3.289467215457912
 44
-3.001277648028757
 45
-0.004010623720622
 46
0.004010623720622
 79
     0
 53
135.0
 43
-3.289467215457912
 44
-3.001277648028757
 45
-0.004010623720622
 46
-0.004010623720622
 79
     0
 98
        1
 10
-3.289467215457912
 20
-3.001277648028757
  0
HATCH
  5
B3
330
AC
100
AcDbEntity
  8
0
 62
     5
100
AcDbHatch
 10
0.0
 20
0.0
 30
0.0
210
0.0
220
0.0
230
1.0
  2
ANSI37
 70
     0
 71
     0
 91
        1
 92
        1
 93
        4
 72
     2
 10
0.368138231815232
 20
0.5488074975796167
 40
0.2034179629342476
 50
241.2725538880669
 51
261.6978642764231
 73
     1
 72
     1
 10
0.3387660844240354
 20
0.3475212720152516
 11
0.3444315302060072
 21
0.3295080597853945
 72
     2
 10
0.3785106583832878
 20
0.5442257936888897
 40
0.2174053638482186
 50
99.0185280917996
 51
114.1854177949883
 73
     0
 72
     1
 10
0.2894416637327222
 20
0.3459033128101137
 11
0.2703666862890426
 21
0.3704270263117728
 97
        0
 75
     0
 76
     1
 52
0.0
 41
0.0453750276742311
 77
     0
 78
     2
 53
45.0
 43
-3.289467215457912
 44
-3.001277648028757
 45
-0.004010623720622
 46
0.004010623720622
 79
     0
 53
135.0
 43
-3.289467215457912
 44
-3.001277648028757
 45
-0.004010623720622
 46
-0.004010623720622
 79
     0
 98
        1
 10
-3.289467215457912
 20
-3.001277648028757
  0
ARC
  5
B4
330
AC
100
AcDbEntity
  8
0
 62
     5
100
AcDbCircle
 10
-1.004282102263919
 20
-0.757961875977971
 30
0.0
 40
1.684093940752742
100
AcDbArc
 50
34.18447411692975
 51
41.30254825040066
  0
ARC
  5
B5
330
AC
100
AcDbEntity
  8
0
  6
Continuous
 62
     5
100
AcDbCircle
 10
0.3785106583832878
 20
0.5442257936888933
 30
0.0
 40
0.2174053638482186
100
AcDbArc
 50
245.8145822050116
 51
260.9814719082004
  0
HATCH
  5
B6
330
AC
100
AcDbEntity
  8
0
 62
     5
100
AcDbHatch
 10
0.0
 20
0.0
 30
0.0
210
0.0
220
0.0
230
1.0
  2
ANSI37
 70
     0
 71
     0
 91
        1
 92
       33
 93
       10
 72
     1
 10
0.3444315302060072
 20
0.329508059785395
 11
0.3706002871579646
 21
0.3269643883333757
 72
     2
 10
-1.004282102263919
 20
-0.7579618759779727
 40
1.684093940752742
 50
34.18447411692975
 51
41.30254825040066
 73
     1
 72
     2
 10
-1.13904507603075
 20
-0.7417938831336617
 40
1.760202787403546
 50
28.95584779356306
 51
37.65348787016842
 73
     1
 72
     1
 10
0.3444315302060072
 20
0.329508059785395
 11
0.3888557381376909
 21
0.1882618602077355
 72
     1
 10
0.3706002871579663
 20
0.3269643883333746
 11
0.4387571520870335
 21
0.1102605100973615
 72
     1
 10
0.254542153127181
 20
0.3334867720960002
 11
0.2608678370467192
 21
0.3535992030196624
 72
     2
 10
-1.004282102263919
 20
-0.7579618759779727
 40
1.684093940752742
 50
28.16790426947593
 51
31.03859275647719
 73
     1
 72
     1
 10
0.4198612308673102
 20
0.0755952402932767
 11
0.4803612677662859
 21
0.0370264667701803
 72
     2
 10
-1.13904507603075
 20
-0.7417938831336617
 40
1.760202787403546
 50
27.66959516185725
 51
28.05942494817616
 73
     1
 72
     1
 10
0.4011201161180545
 20
0.1103827615101878
 11
0.4142638285818255
 21
0.0861827467505974
 97
        0
 75
     0
 76
     1
 52
0.0
 41
0.0453750276742311
 77
     0
 78
     2
 53
45.0
 43
-3.289467215457912
 44
-3.001277648028757
 45
-0.004010623720622
 46
0.004010623720622
 79
     0
 53
135.0
 43
-3.289467215457912
 44
-3.001277648028757
 45
-0.004010623720622
 46
-0.004010623720622
 79
     0
 98
        1
 10
-3.289467215457912
 20
-3.001277648028757
  0
HATCH
  5
B7
330
AC
100
AcDbEntity
  8
0
 62
     5
100
AcDbHatch
 10
0.0
 20
0.0
 30
0.0
210
0.0
220
0.0
230
1.0
  2
ANSI37
 70
     0
 71
     0
 91
        1
 92
        1
 93
        6
 72
     1
 10
0.1843723433461601
 20
0.1103827615101878
 11
0.4011201161180545
 21
0.1103827615101878
 72
     1
 10
0.4011201161180545
 20
0.1103827615101878
 11
0.4142638285818255
 21
0.0861827467505974
 72
     1
 10
0.4142638285818255
 20
0.0861827467505965
 11
0.1513923171281082
 21
0.0861827467505974
 72
     1
 10
0.15139231712811
 20
0.0861827467505965
 11
0.2364303266177767
 21
0.3565600076920983
 72
     1
 10
0.2364303266177767
 20
0.3565600076920994
 11
0.2545421531271828
 21
0.3334867720959997
 72
     1
 10
0.254542153127181
 20
0.3334867720960002
 11
0.1843723433461584
 21
0.1103827615101873
 97
        0
 75
     0
 76
     1
 52
0.0
 41
0.0453750276742311
 77
     0
 78
     2
 53
45.0
 43
-3.289467215457912
 44
-3.001277648028757
 45
-0.004010623720622
 46
0.004010623720622
 79
     0
 53
135.0
 43
-3.289467215457912
 44
-3.001277648028757
 45
-0.004010623720622
 46
-0.004010623720622
 79
     0
 98
        1
 10
-3.289467215457912
 20
-3.001277648028757
  0
LINE
  5
B8
330
AC
100
AcDbEntity
  8
0
 62
     5
100
AcDbLine
 10
0.236430326617775
 20
0.3565600076921012
 30
0.0
 11
0.15139231712811
 21
0.0861827467505982
 31
0.0
  0
HATCH
  5
B9
330
AC
100
AcDbEntity
  8
0
 62
     5
100
AcDbHatch
 10
0.0
 20
0.0
 30
0.0
210
0.0
220
0.0
230
1.0
  2
ANSI37
 70
     0
 71
     0
 91
        1
 92
        1
 93
       14
 72
     1
 10
0.2988611570693607
 20
0.5550580327176516
 11
0.3265929222653288
 21
0.4668852408125276
 72
     1
 10
0.3265929222653323
 20
0.4668852408125268
 11
0.3323589335387691
 21
0.4485522818918395
 72
     1
 10
0.3323589335387709
 20
0.4485522818918409
 11
0.3647966485473173
 21
0.3454169828903064
 72
     1
 10
0.3647966485473173
 20
0.3454169828903062
 11
0.3706002871579646
 21
0.3269643883333748
 72
     1
 10
0.3706002871579663
 20
0.3269643883333746
 11
0.3444315302060072
 21
0.3295080597853939
 72
     1
 10
0.3444315302060072
 20
0.329508059785395
 11
0.3387660844240354
 21
0.3475212720152521
 72
     1
 10
0.3387660844240354
 20
0.3475212720152516
 11
0.2988611570693624
 21
0.474398476937804
 72
     1
 10
0.2988611570693607
 20
0.4743984769378056
 11
0.2608678370467192
 21
0.3535992030196637
 72
     1
 10
0.260867837046721
 20
0.3535992030196624
 11
0.254542153127181
 21
0.3334867720960002
 72
     1
 10
0.254542153127181
 20
0.3334867720960002
 11
0.236430326617775
 21
0.3565600076920998
 72
     1
 10
0.2364303266177767
 20
0.3565600076920994
 11
0.242103905929854
 21
0.3745990803766492
 72
     1
 10
0.242103905929854
 20
0.3745990803766492
 11
0.2689368903660263
 21
0.4599142103788421
 72
     1
 10
0.2689368903660245
 20
0.4599142103788428
 11
0.2739367623135447
 21
0.4758112391350588
 72
     1
 10
0.2739367623135447
 20
0.4758112391350587
 11
0.2988611570693624
 21
0.5550580327176525
 97
        0
 75
     0
 76
     1
 52
0.0
 41
0.0453750276742311
 77
     0
 78
     2
 53
45.0
 43
-3.289467215457912
 44
-3.001277648028757
 45
-0.004010623720622
 46
0.004010623720622
 79
     0
 53
135.0
 43
-3.289467215457912
 44
-3.001277648028757
 45
-0.004010623720622
 46
-0.004010623720622
 79
     0
 98
        1
 10
-3.289467215457912
 20
-3.001277648028757
  0
LINE
  5
BA
330
AC
100
AcDbEntity
  8
0
 62
     5
100
AcDbLine
 10
0.1843723433461601
 20
0.1103827615101895
 30
0.0
 11
0.4011201161180545
 21
0.1103827615101895
 31
0.0
  0
LINE
  5
BB
330
AC
100
AcDbEntity
  8
0
 62
     5
100
AcDbLine
 10
0.15139231712811
 20
0.0861827467505982
 30
0.0
 11
0.4142638285818255
 21
0.0861827467505982
 31
0.0
  0
ARC
  5
BC
330
AC
100
AcDbEntity
  8
0
 62
     5
100
AcDbCircle
 10
-1.13904507603075
 20
-0.7417938831336599
 30
0.0
 40
1.760202787403546
100
AcDbArc
 50
28.95584779356306
 51
37.65348787016842
  0
LINE
  5
BD
330
AC
100
AcDbEntity
  8
0
 62
     5
100
AcDbLine
 10
0.254542153127181
 20
0.333486772096002
 30
0.0
 11
0.1843723433461601
 21
0.1103827615101895
 31
0.0
  0
LINE
  5
BE
330
AC
100
AcDbEntity
  8
0
 62
     5
100
AcDbLine
 10
0.3706002871579646
 20
0.3269643883333746
 30
0.0
 11
0.4387571520870335
 21
0.1102605100973619
 31
0.0
  0
LINE
  5
BF
330
AC
100
AcDbEntity
  8
0
 62
     5
100
AcDbLine
 10
0.4198612308673102
 20
0.0755952402932785
 30
0.0
 11
0.4803612677662859
 21
0.0370264667701807
 31
0.0
  0
LINE
  5
C0
330
AC
100
AcDbEntity
  8
0
 62
     5
100
AcDbLine
 10
0.4011201161180527
 20
0.1103827615101895
 30
0.0
 11
0.4142638285818255
 21
0.0861827467505982
 31
0.0
  0
ARC
  5
C1
330
AC
100
AcDbEntity
  8
0
 62
     5
100
AcDbCircle
 10
-1.13904507603075
 20
-0.7417938831336599
 30
0.0
 40
1.760202787403546
100
AcDbArc
 50
27.66959516185725
 51
28.05942494817616
  0
ARC
  5
C2
330
AC
100
AcDbEntity
  8
0
 62
     5
100
AcDbCircle
 10
-1.004282102263919
 20
-0.757961875977971
 30
0.0
 40
1.684093940752742
100
AcDbArc
 50
28.16790426947593
 51
31.03859275647719
  0
ARC
  5
C3
330
AC
100
AcDbEntity
  8
0
  6
Continuous
 62
     5
100
AcDbCircle
 10
0.3785106583832878
 20
0.5442257936888933
 30
0.0
 40
0.2174053638482186
100
AcDbArc
 50
267.9148124860548
 51
269.5113822968287
  0
ARC
  5
C4
330
AC
100
AcDbEntity
  8
0
  6
Continuous
 62
     5
100
AcDbCircle
 10
0.3842397376361806
 20
0.451177177154813
 30
0.0
 40
0.1245798445307902
100
AcDbArc
 50
266.5102892091324
 51
289.6986390132052
  0
LINE
  5
C5
330
AC
100
AcDbEntity
  8
0
 62
     5
100
AcDbLine
 10
0.3444315302060072
 20
0.329508059785395
 30
0.0
 11
0.3888557381376909
 21
0.1882618602077368
 31
0.0
  0
HATCH
  5
C6
330
AC
100
AcDbEntity
  8
0
 62
     5
100
AcDbHatch
 10
0.0
 20
0.0
 30
0.0
210
0.0
220
0.0
230
1.0
  2
ANSI37
 70
     0
 71
     0
 91
        1
 92
        1
 93
        3
 72
     1
 10
0.242103905929854
 20
0.3745990803766492
 11
0.2364303266177767
 21
0.3565600076920994
 72
     2
 10
-1.13904507603075
 20
-0.7417938831336617
 40
1.760202787403546
 50
38.60830081639222
 51
47.20214679696134
 73
     1
 72
     2
 10
-1.004282102263919
 20
-0.7579618759779727
 40
1.684093940752742
 50
309.0573044417869
 51
317.7393318345313
 73
     0
 97
        0
 75
     0
 76
     1
 52
0.0
 41
0.0453750276742311
 77
     0
 78
     2
 53
45.0
 43
-3.289467215457912
 44
-3.001277648028757
 45
-0.004010623720622
 46
0.004010623720622
 79
     0
 53
135.0
 43
-3.289467215457912
 44
-3.001277648028757
 45
-0.004010623720622
 46
-0.004010623720622
 79
     0
 98
        1
 10
-3.289467215457912
 20
-3.001277648028757
  0
ARC
  5
C7
330
AC
100
AcDbEntity
  8
0
 62
     5
100
AcDbCircle
 10
-1.13904507603075
 20
-0.7417938831336599
 30
0.0
 40
1.760202787403546
100
AcDbArc
 50
38.60830081639222
 51
47.20214679696134
  0
ARC
  5
C8
330
AC
100
AcDbEntity
  8
0
 62
     5
100
AcDbCircle
 10
-1.004282102263919
 20
-0.757961875977971
 30
0.0
 40
1.684093940752742
100
AcDbArc
 50
42.26066816546867
 51
50.9426955582131
  0
ARC
  5
C9
330
AC
100
AcDbEntity
  8
0
  6
Continuous
 62
     5
100
AcDbCircle
 10
0.368138231815232
 20
0.5488074975796185
 30
0.0
 40
0.2034179629342476
100
AcDbArc
 50
241.2725538880669
 51
261.6978642764231
  0
ARC
  5
CA
330
AC
100
AcDbEntity
  8
0
  6
Continuous
 62
     5
100
AcDbCircle
 10
0.296966688964293
 20
0.2837087256641126
 30
0.0
 40
0.1855568629868643
100
AcDbArc
 50
38.78858469869091
 51
80.81276779743708
  0
LINE
  5
CB
330
AC
100
AcDbEntity
  8
0
 62
     5
100
AcDbLine
 10
0.2988611570693607
 20
0.4743984769378056
 30
0.0
 11
0.3387660844240354
 21
0.3475212720152516
 31
0.0
  0
LINE
  5
CC
330
AC
100
AcDbEntity
  8
0
 62
     5
100
AcDbLine
 10
0.2988611570693607
 20
0.5550580327176551
 30
0.0
 11
0.3265929222653288
 21
0.4668852408125286
 31
0.0
  0
LINE
  5
CD
330
AC
100
AcDbEntity
  8
0
 62
     5
100
AcDbLine
 10
0.2988611570693607
 20
0.5550580327176551
 30
0.0
 11
0.2739367623135447
 21
0.4758112391350604
 31
0.0
  0
HATCH
  5
CE
330
AC
100
AcDbEntity
  8
0
 62
     5
100
AcDbHatch
 10
0.0
 20
0.0
 30
0.0
210
0.0
220
0.0
230
1.0
  2
ANSI37
 70
     0
 71
     0
 91
        1
 92
        1
 93
        4
 72
     1
 10
0.2739367623135447
 20
0.4758112391350587
 11
0.2689368903660245
 21
0.4599142103788426
 72
     2
 10
0.2614843996869069
 20
0.4001510777290509
 40
0.0602260046943093
 50
82.89188209876458
 51
145.8760929220745
 73
     1
 72
     1
 10
0.2116277271373637
 20
0.4339369304447463
 11
0.1901760796845497
 21
0.4553973803790768
 72
     2
 10
0.2578538046943688
 20
0.3597543333174435
 40
0.1171659801893835
 50
234.7164937370072
 51
277.8896979387382
 73
     0
 97
        0
 75
     0
 76
     1
 52
0.0
 41
0.0453750276742311
 77
     0
 78
     2
 53
45.0
 43
-3.289467215457912
 44
-3.001277648028757
 45
-0.004010623720622
 46
0.004010623720622
 79
     0
 53
135.0
 43
-3.289467215457912
 44
-3.001277648028757
 45
-0.004010623720622
 46
-0.004010623720622
 79
     0
 98
        1
 10
-3.289467215457912
 20
-3.001277648028757
  0
ARC
  5
CF
330
AC
100
AcDbEntity
  8
0
  6
Continuous
 62
     5
100
AcDbCircle
 10
0.2578538046943688
 20
0.3597543333174453
 30
0.0
 40
0.1171659801893835
100
AcDbArc
 50
82.11030206126171
 51
125.2835062629927
  0
ARC
  5
D0
330
AC
100
AcDbEntity
  8
0
  6
Continuous
 62
     5
100
AcDbCircle
 10
0.2614843996869052
 20
0.4001510777290545
 30
0.0
 40
0.0602260046943093
100
AcDbArc
 50
82.89188209876458
 51
145.8760929220745
  0
LINE
  5
D1
330
AC
100
AcDbEntity
  8
0
  6
Continuous
 62
     5
100
AcDbLine
 10
0.2116277271373619
 20
0.4339369304447498
 30
0.0
 11
0.190176079684548
 21
0.4553973803790772
 31
0.0
  0
LINE
  5
D2
330
AC
100
AcDbEntity
  8
0
 62
     5
100
AcDbLine
 10
0.2689368903660263
 20
0.4599142103788428
 30
0.0
 11
0.242103905929854
 21
0.374599080376651
 31
0.0
  0
LINE
  5
D3
330
AC
100
AcDbEntity
  8
0
  6
Continuous
 62
     5
100
AcDbLine
 10
0.2703666862890408
 20
0.3704270263117717
 30
0.0
 11
0.2894416637327204
 21
0.3459033128101137
 31
0.0
  0
LINE
  5
D4
330
AC
100
AcDbEntity
  8
0
 62
     5
100
AcDbLine
 10
0.2988611570693607
 20
0.4743984769378056
 30
0.0
 11
0.2608678370467192
 21
0.3535992030196642
 31
0.0
  0
LINE
  5
D5
330
AC
100
AcDbEntity
  8
0
 62
     5
100
AcDbLine
 10
0.3323589335387691
 20
0.4485522818918409
 30
0.0
 11
0.3647966485473173
 21
0.3454169828903062
 31
0.0
  0
ARC
  5
D6
330
AC
100
AcDbEntity
  8
0
  6
Continuous
 62
     5
100
AcDbCircle
 10
0.368138231815232
 20
0.5488074975796185
 30
0.0
 40
0.2034179629342476
100
AcDbArc
 50
269.0587496435967
 51
275.3152451116762
  0
ARC
  5
D7
330
AC
100
AcDbEntity
  8
0
  6
Continuous
 62
     5
100
AcDbCircle
 10
0.3624406169004164
 20
0.3647254987269708
 30
0.0
 40
0.060306102378538
100
AcDbArc
 50
30.58307632047512
 51
44.13489854844378
  0
ARC
  5
D8
330
AC
100
AcDbEntity
  8
0
  6
Continuous
 62
     5
100
AcDbCircle
 10
0.2931730151761673
 20
0.2945838597867389
 30
0.0
 40
0.1588767169960905
100
AcDbArc
 50
44.89452214437227
 51
75.72101642693887
  0
ARC
  5
D9
330
AC
100
AcDbEntity
  8
0
  6
Continuous
 62
     5
100
AcDbCircle
 10
0.391360930001218
 20
0.3614695140686965
 30
0.0
 40
0.0632842065627897
100
AcDbArc
 50
6.401779561779607
 51
37.44986261357257
  0
TEXT
  5
DA
330
AC
100
AcDbEntity
  8
0
 62
     5
100
AcDbText
 10
2.608221457526555
 20
0.5412305374466282
 30
0.0
 40
0.0283704365880094
  1
TM
 41
1.399999999999999
  7
ROMANS
100
AcDbText
  0
ENDBLK
  5
DC
330
AC
100
AcDbEntity
  8
0
100
AcDbBlockEnd
  0
BLOCK
  5
EA
330
DD
100
AcDbEntity
  8
0
100
AcDbBlockBegin
  2
REVGRID
 70
     0
 10
0.0
 20
0.0
 30
0.0
  3
REVGRID
  1

  0
LINE
  5
DE
330
DD
100
AcDbEntity
  8
0
 62
    14
100
AcDbLine
 10
-3.569497213012034
 20
0.6000000000000015
 30
0.0
 11
0.0
 21
0.5999999999999936
 31
0.0
  0
LINE
  5
DF
330
DD
100
AcDbEntity
  8
0
 62
    14
100
AcDbLine
 10
-3.569497213012034
 20
0.4000000000000022
 30
0.0
 11
0.0
 21
0.3999999999999961
 31
0.0
  0
LINE
  5
E0
330
DD
100
AcDbEntity
  8
0
 62
    14
100
AcDbLine
 10
-3.569497213012034
 20
0.8000000000000014
 30
0.0
 11
0.0000000000000009
 21
0.7999999999999936
 31
0.0
  0
LINE
  5
E1
330
DD
100
AcDbEntity
  8
0
 62
    14
100
AcDbLine
 10
-3.569497213012034
 20
1.000000000000001
 30
0.0
 11
0.0000000000000018
 21
0.9999999999999934
 31
0.0
  0
LWPOLYLINE
  5
E2
330
DD
100
AcDbEntity
  8
0
 62
    14
100
AcDbPolyline
 90
        2
 70
     0
 43
0.02
 10
-3.569497213012034
 20
1.200000000000002
 10
0.0
 20
1.199999999999994
  0
TEXT
  5
E3
330
DD
100
AcDbEntity
  8
0
 62
     4
100
AcDbText
 10
-2.359748606506017
 20
0.048797129052713
 30
0.0
 40
0.09
  1
DESCRIPTION
  7
Standard
 72
     1
 11
-1.909748606506017
 21
0.048797129052713
 31
0.0
100
AcDbText
  0
LWPOLYLINE
  5
E4
330
DD
100
AcDbEntity
  8
0
 62
    14
100
AcDbPolyline
 90
        2
 70
     0
 43
0.02
 10
-3.569497213012034
 20
0.2000000000000028
 10
0.0
 20
0.1999999999999948
  0
LWPOLYLINE
  5
E5
330
DD
100
AcDbEntity
  8
0
 62
    14
100
AcDbPolyline
 90
        2
 70
     0
 43
0.02
 10
-3.569497213012034
 20
0.0
 10
-3.569497213012034
 20
1.200000000000002
  0
TEXT
  5
E6
330
DD
100
AcDbEntity
  8
0
 62
     4
100
AcDbText
 10
-3.551505232480748
 20
0.048797129052713
 30
0.0
 40
0.09
  1
REV
  7
Standard
 72
     1
 11
-3.416505232480748
 21
0.048797129052713
 31
0.0
100
AcDbText
  0
LWPOLYLINE
  5
E7
330
DD
100
AcDbEntity
  8
0
 62
    14
100
AcDbPolyline
 90
        2
 70
     0
 43
0.0
 10
-3.269497213012034
 20
0.0000000000000001
 10
-3.269497213012034
 20
1.200000000000002
  0
LWPOLYLINE
  5
E8
330
DD
100
AcDbEntity
  8
0
 62
    14
100
AcDbPolyline
 90
        2
 70
     0
 43
0.0
 10
-0.5500000000000007
 20
0.0000000000000001
 10
-0.5500000000000007
 20
1.199999999999995
  0
TEXT
  5
E9
330
DD
100
AcDbEntity
  8
0
 62
     4
100
AcDbText
 10
-0.4370080194687143
 20
0.0487971290527057
 30
0.0
 40
0.09
  1
DATE
  7
Standard
 72
     1
 11
-0.2720080194687142
 21
0.0487971290527057
 31
0.0
100
AcDbText
  0
ENDBLK
  5
EB
330
DD
100
AcDbEntity
  8
0
100
AcDbBlockEnd
  0
BLOCK
  5
119
330
EC
100
AcDbEntity
  8
0
100
AcDbBlockBegin
  2
TITLEBLK
 70
     2
 10
0.0
 20
0.0
 30
0.0
  3
TITLEBLK
  1

  0
ATTDEF
  5
ED
330
EC
100
AcDbEntity
  8
0
 62
     4
100
AcDbText
 10
-2.213460227895843
 20
0.93
 30
0.0
 40
0.09
  1
M.M.T.
  7
Standard
 72
     1
 11
-2.048460227895843
 21
0.9750000000000001
 31
0.0
100
AcDbAttributeDefinition
  3
Drawn by
  2
DRWN_BY
 70
     4
 74
     2
  0
ATTDEF
  5
EE
330
EC
100
AcDbEntity
  8
0
 62
     4
100
AcDbText
 10
-1.379007659345274
 20
0.93
 30
0.0
 40
0.09
  1

  7
Standard
 72
     1
 11
-1.379007659345274
 21
0.9750000000000001
 31
0.0
100
AcDbAttributeDefinition
  3
Approved by
  2
APPRV_BY
 70
     4
 74
     2
  0
ATTDEF
  5
EF
330
EC
100
AcDbEntity
  8
0
 62
     4
100
AcDbText
 10
-0.9712792684240225
 20
0.93
 30
0.0
 40
0.09
  1
FULL
  7
Standard
 72
     1
 11
-0.8062792684240225
 21
0.9750000000000001
 31
0.0
100
AcDbAttributeDefinition
  3
Drawing Scale
  2
SCALE
 70
     4
 74
     2
  0
ATTDEF
  5
F0
330
EC
100
AcDbEntity
  8
0
 62
     4
100
AcDbText
 10
-0.6207318369745916
 20
0.93
 30
0.0
 40
0.09
  1
mm/dd/yy
  7
Standard
 72
     1
 11
-0.2757318369745914
 21
0.9750000000000001
 31
0.0
100
AcDbAttributeDefinition
  3
Date Drawn
  2
DATE
 70
     4
 74
     2
  0
ATTDEF
  5
F1
330
EC
100
AcDbEntity
  8
0
 62
     4
100
AcDbText
 10
-1.83
 20
0.6299999999999998
 30
0.0
 40
0.09
  1
-
  7
Standard
 72
     1
 11
-1.8
 21
0.6749999999999998
 31
0.0
100
AcDbAttributeDefinition
  3
Job Number (Base)
  2
JOB_NUMBER
 70
     4
 74
     2
  0
ATTDEF
  5
F2
330
EC
100
AcDbEntity
  8
0
 62
     4
100
AcDbText
 10
-0.6300000000000015
 20
0.6299999999999998
 30
0.0
 40
0.09
  1
-
  7
Standard
 72
     1
 11
-0.6000000000000015
 21
0.6749999999999998
 31
0.0
100
AcDbAttributeDefinition
  3
Product (Base)
  2
PRODUCT
 70
     4
 74
     2
  0
ATTDEF
  5
F3
330
EC
100
AcDbEntity
  8
0
 62
     4
100
AcDbText
 10
-1.83
 20
0.4799999999999998
 30
0.0
 40
0.09
  1
-
  7
Standard
 72
     1
 11
-1.8
 21
0.5249999999999999
 31
0.0
100
AcDbAttributeDefinition
  3
Job Number (Cover)
  2
JOB_NUMBER
 70
     4
 74
     2
  0
ATTDEF
  5
F4
330
EC
100
AcDbEntity
  8
0
 62
     4
100
AcDbText
 10
-0.6300000000000015
 20
0.4799999999999998
 30
0.0
 40
0.09
  1
-
  7
Standard
 72
     1
 11
-0.6000000000000015
 21
0.5249999999999999
 31
0.0
100
AcDbAttributeDefinition
  3
Product (Cover)
  2
PRODUCT
 70
     4
 74
     2
  0
ATTDEF
  5
F5
330
EC
100
AcDbEntity
  8
0
 62
     4
100
AcDbText
 10
-2.342708894088348
 20
0.1965997167108784
 30
0.0
 40
0.09
  1

  7
Standard
100
AcDbAttributeDefinition
  3
Customer Name
  2
CUSTOMER_NAME
 70
     4
  0
ATTDEF
  5
F6
330
EC
100
AcDbEntity
  8
0
 62
     4
100
AcDbText
 10
-1.940115071922141
 20
0.0273723706496532
 30
0.0
 40
0.09
  1
Secondary Operations Drawing
  7
Standard
100
AcDbAttributeDefinition
  3
Drawing Title
  2
DRAWING_TITLE
 70
     4
  0
INSERT
  5
F7
330
EC
100
AcDbEntity
  8
0
100
AcDbBlockReference
  2
POLYCASELOGO
 10
-7.330502786987967
 20
0.5999999999999996
 30
0.0
  0
LWPOLYLINE
  5
F8
330
EC
100
AcDbEntity
  8
0
 62
    14
100
AcDbPolyline
 90
        2
 70
     0
 43
0.02
 10
-7.330502786987967
 20
0.5999999999999997
 10
-2.4
 20
0.5999999999999997
  0
LWPOLYLINE
  5
F9
330
EC
100
AcDbEntity
  8
0
 62
    14
100
AcDbPolyline
 90
        2
 70
     0
 43
0.02
 10
-7.330502786987967
 20
1.199999999999999
 10
-0.0000000000000018
 20
1.199999999999999
  0
TEXT
  5
FA
330
EC
100
AcDbEntity
  8
0
 62
     4
100
AcDbText
 10
-7.361188538168629
 20
0.3303521534159193
 30
0.0
 40
0.09
  1
OTHERWISE SPECIFIED
  7
Standard
 72
     1
 11
-6.551188538168629
 21
0.3303521534159193
 31
0.0
100
AcDbText
  0
LWPOLYLINE
  5
FB
330
EC
100
AcDbEntity
  8
0
 62
    14
100
AcDbPolyline
 90
        2
 70
     0
 43
0.02
 10
-7.330502786987967
 20
0.0
 10
-7.330502786987967
 20
1.199999999999999
  0
TEXT
  5
FC
330
EC
100
AcDbEntity
  8
0
 62
     4
100
AcDbText
 10
-5.728663197201941
 20
0.0382015110144847
 30
0.0
 40
0.09
  1
WAY DETRIMENTAL TO THE INTEREST OF POLYCASE
  7
Standard
100
AcDbText
  0
TEXT
  5
FD
330
EC
100
AcDbEntity
  8
0
 62
     4
100
AcDbText
 10
-5.728663197201941
 20
0.3273556719967486
 30
0.0
 40
0.09
  1
ARE THE PROPERTY OF POLYCASE AND IT IS NOT
  7
Standard
100
AcDbText
  0
TEXT
  5
FE
330
EC
100
AcDbEntity
  8
0
 62
     4
100
AcDbText
 10
-5.728663197201941
 20
0.4719327524878806
 30
0.0
 40
0.09
  1
THIS DRAWING AND THE INFORMATION CONTAINED
  7
Standard
100
AcDbText
  0
TEXT
  5
FF
330
EC
100
AcDbEntity
  8
0
 62
     4
100
AcDbText
 10
-4.548497687984482
 20
0.9240225636355036
 30
0.0
 40
0.09
  1
AVON, OHIO 44011-1083 U.S.A.
  7
Standard
 72
     1
 11
-3.475997687984483
 21
0.9240225636355036
 31
0.0
100
AcDbText
  0
TEXT
  5
100
330
EC
100
AcDbEntity
  8
0
 62
     4
100
AcDbText
 10
-4.833497687984483
 20
0.7794454831443715
 30
0.0
 40
0.09
  1
PH#: 1-800-248-1233, 440-934-0444
  7
Standard
 72
     1
 11
-3.475997687984483
 21
0.7794454831443715
 31
0.0
100
AcDbText
  0
TEXT
  5
101
330
EC
100
AcDbEntity
  8
0
 62
     4
100
AcDbText
 10
-4.533497687984483
 20
1.068599644126635
 30
0.0
 40
0.09
  1
1305 CHESTER IND. PARKWAY
  7
Standard
 72
     1
 11
-3.475997687984483
 21
1.068599644126635
 31
0.0
100
AcDbText
  0
TEXT
  5
102
330
EC
100
AcDbEntity
  8
0
 62
     4
100
AcDbText
 10
-5.728663197201941
 20
0.1827785915056166
 30
0.0
 40
0.09
  1
TO BE REPRODUCED, COPIED OR USED IN ANY
  7
Standard
100
AcDbText
  0
TEXT
  5
103
330
EC
100
AcDbEntity
  8
0
 62
     4
100
AcDbText
 10
-6.993688538168629
 20
0.0411979924336537
 30
0.0
 40
0.09
  1
X.XXX=%%P0.005
  7
Standard
 72
     1
 11
-6.551188538168629
 21
0.0411979924336537
 31
0.0
100
AcDbText
  0
LWPOLYLINE
  5
104
330
EC
100
AcDbEntity
  8
0
 62
    14
100
AcDbPolyline
 90
        2
 70
     0
 43
0.02
 10
-5.77559494829334
 20
0.0
 10
-5.77559494829334
 20
0.5999999999999997
  0
TEXT
  5
105
330
EC
100
AcDbEntity
  8
0
 62
     4
100
AcDbText
 10
-7.301188538168629
 20
0.4749292339070513
 30
0.0
 40
0.09
  1
TOLERANCES UNLESS
  7
Standard
 72
     1
 11
-6.551188538168629
 21
0.4749292339070513
 31
0.0
100
AcDbText
  0
TEXT
  5
106
330
EC
100
AcDbEntity
  8
0
 62
     4
100
AcDbText
 10
-6.933688538168629
 20
0.1857750729247856
 30
0.0
 40
0.09
  1
X.XX=%%P0.010
  7
Standard
 72
     1
 11
-6.551188538168629
 21
0.1857750729247856
 31
0.0
100
AcDbText
  0
TEXT
  5
107
330
EC
100
AcDbEntity
  8
0
 62
     4
100
AcDbText
 10
-4.218497687984482
 20
0.6348684026532378
 30
0.0
 40
0.09
  1
FAX#: 440-934-0088
  7
Standard
 72
     1
 11
-3.475997687984483
 21
0.6348684026532378
 31
0.0
100
AcDbText
  0
LWPOLYLINE
  5
108
330
EC
100
AcDbEntity
  8
0
 62
    14
100
AcDbPolyline
 90
        2
 70
     0
 43
0.02
 10
-4.548596719643201
 20
0.5999999999999997
 10
-4.548596719643201
 20
1.199999999999999
  0
LWPOLYLINE
  5
109
330
EC
100
AcDbEntity
  8
0
 62
    14
100
AcDbPolyline
 90
        2
 70
     0
 43
0.02
 10
-2.4
 20
0.4499999999999997
 10
-0.0000000000000018
 20
0.4499999999999997
  0
LWPOLYLINE
  5
10A
330
EC
100
AcDbEntity
  8
0
 62
    14
100
AcDbPolyline
 90
        2
 70
     0
 43
0.02
 10
-2.4
 20
0.9000000000000005
 10
-0.0000000000000018
 20
0.9000000000000005
  0
LWPOLYLINE
  5
10B
330
EC
100
AcDbEntity
  8
0
 62
    14
100
AcDbPolyline
 90
        2
 70
     0
 43
0.02
 10
-2.4
 20
0.149999999999999
 10
-0.0000000000000018
 20
0.149999999999999
  0
TEXT
  5
10C
330
EC
100
AcDbEntity
  8
0
 62
     4
100
AcDbText
 10
-0.432678433073962
 20
1.065703165605704
 30
0.0
 40
0.09
  1
DATE:
  7
Standard
 72
     1
 11
-0.252678433073962
 21
1.065703165605704
 31
0.0
100
AcDbText
  0
TEXT
  5
10D
330
EC
100
AcDbEntity
  8
0
 62
     4
100
AcDbText
 10
-2.346385835073656
 20
0.0273723706496532
 30
0.0
 40
0.09
  1
TITLE:
  7
Standard
100
AcDbText
  0
LWPOLYLINE
  5
10E
330
EC
100
AcDbEntity
  8
0
 62
    14
100
AcDbPolyline
 90
        2
 70
     0
 43
0.02
 10
-2.4
 20
0.0
 10
-2.4
 20
1.199999999999999
  0
TEXT
  5
10F
330
EC
100
AcDbEntity
  8
0
 62
     4
100
AcDbText
 10
-1.621022441785003
 20
1.065703165605704
 30
0.0
 40
0.09
  1
APP. BY
  7
Standard
100
AcDbText
  0
TEXT
  5
110
330
EC
100
AcDbEntity
  8
0
 62
     4
100
AcDbText
 10
-2.346385835073656
 20
0.3157031656057046
 30
0.0
 40
0.09
  1
CUSTOMER:
  7
Standard
100
AcDbText
  0
TEXT
  5
111
330
EC
100
AcDbEntity
  8
0
 62
     4
100
AcDbText
 10
-2.348770140626596
 20
0.7657031656057036
 30
0.0
 40
0.09
  1
JOB NO:
  7
Standard
100
AcDbText
  0
TEXT
  5
112
330
EC
100
AcDbEntity
  8
0
 62
     4
100
AcDbText
 10
-2.34753878399991
 20
1.065703165605704
 30
0.0
 40
0.09
  1
DRWN BY
  7
Standard
100
AcDbText
  0
LWPOLYLINE
  5
113
330
EC
100
AcDbEntity
  8
0
 62
    14
100
AcDbPolyline
 90
        2
 70
     0
 43
0.02
 10
-1.696920455791685
 20
0.9000000000000005
 10
-1.696920455791685
 20
1.199999999999999
  0
LWPOLYLINE
  5
114
330
EC
100
AcDbEntity
  8
0
 62
    14
100
AcDbPolyline
 90
        2
 70
     0
 43
0.02
 10
-1.200000000000001
 20
0.4499999999999997
 10
-1.200000000000001
 20
0.9000000000000005
  0
TEXT
  5
115
330
EC
100
AcDbEntity
  8
0
 62
     4
100
AcDbText
 10
-1.148770140626597
 20
0.7657031656057036
 30
0.0
 40
0.09
  1
PRODUCT:
  7
Standard
100
AcDbText
  0
TEXT
  5
116
330
EC
100
AcDbEntity
  8
0
 62
     4
100
AcDbText
 10
-1.028863862306288
 20
1.065703165605704
 30
0.0
 40
0.09
  1
SCALE:
  7
Standard
 72
     1
 11
-0.8038638623062883
 21
1.065703165605704
 31
0.0
100
AcDbText
  0
LWPOLYLINE
  5
117
330
EC
100
AcDbEntity
  8
0
 62
    14
100
AcDbPolyline
 90
        2
 70
     0
 43
0.02
 10
-1.061094862898864
 20
0.9000000000000005
 10
-1.061094862898864
 20
1.199999999999999
  0
LWPOLYLINE
  5
118
330
EC
100
AcDbEntity
  8
0
 62
    14
100
AcDbPolyline
 90
        2
 70
     0
 43
0.02
 10
-0.551463673949181
 20
0.9000000000000005
 10
-0.551463673949181
 20
1.199999999999999
  0
ENDBLK
  5
11A
330
EC
100
AcDbEntity
  8
0
100
AcDbBlockEnd
  0
BLOCK
  5
11E
330
11B
100
AcDbEntity
  8
0
100
AcDbBlockBegin
  2
CL
 70
     0
 10
0.0
 20
0.0
 30
0.0
  3
CL
  1

  0
TEXT
  5
11C
330
11B
100
AcDbEntity
  8
0
 62
     4
100
AcDbText
 10
-0.0446487846840817
 20
-0.0006419411893219
 30
0.0
 40
0.125
  1
C
  7
Standard
100
AcDbText
  0
TEXT
  5
11D
330
11B
100
AcDbEntity
  8
0
 62
     4
100
AcDbText
 10
0.0023360547861877
 20
-0.065809302625766
 30
0.0
 40
0.125
  1
L
  7
Standard
100
AcDbText
  0
ENDBLK
  5
11F
330
11B
100
AcDbEntity
  8
0
100
AcDbBlockEnd
  0
BLOCK
  5
123
330
120
100
AcDbEntity
  8
0
100
AcDbBlockBegin
  2
_DOT
 70
     0
 10
0.0
 20
0.0
 30
0.0
  3
_DOT
  1

  0
LWPOLYLINE
  5
121
330
120
100
AcDbEntity
  8
0
  6
ByBlock
 62
     0
380
     1
100
AcDbPolyline
 90
        2
 70
     1
 43
0.5
 10
-0.25
 20
0.0
 42
1.0
 10
0.25
 20
0.0
 42
1.0
  0
LINE
  5
122
330
120
100
AcDbEntity
  8
0
  6
ByBlock
 62
     0
380
     1
100
AcDbLine
 10
-0.5
 20
0.0
 30
0.0
 11
-1.0
 21
0.0
 31
0.0
  0
ENDBLK
  5
124
330
120
100
AcDbEntity
  8
0
100
AcDbBlockEnd
  0
BLOCK
  5
130
330
125
100
AcDbEntity
  8
0
100
AcDbBlockBegin
  2
*D5
 70
     1
 10
0.0
 20
0.0
 30
0.0
  3
*D5
  1

  0
LINE
  5
126
330
125
100
AcDbEntity
  8
0
 62
     1
370
    -2
100
AcDbLine
 10
7.913168315718451
 20
3.921655652115509
 30
0.0
 11
9.948807042031683
 21
3.921655652115508
 31
0.0
  0
LINE
  5
127
330
125
100
AcDbEntity
  8
0
 62
     1
370
    -2
100
AcDbLine
 10
7.891871886380354
 20
2.671655652115516
 30
0.0
 11
9.948807042031683
 21
2.671655652115515
 31
0.0
  0
LINE
  5
128
330
125
100
AcDbEntity
  8
0
 62
     1
370
    -2
100
AcDbLine
 10
9.848807042031683
 20
3.741655652115508
 30
0.0
 11
9.848807042031683
 21
3.450477275580723
 31
0.0
  0
LINE
  5
129
330
125
100
AcDbEntity
  8
0
 62
     1
370
    -2
100
AcDbLine
 10
9.848807042031683
 20
2.851655652115515
 30
0.0
 11
9.848807042031683
 21
3.1428340286503
 31
0.0
  0
SOLID
  5
12A
330
125
100
AcDbEntity
  8
0
 62
     1
100
AcDbTrace
 10
9.818807042031684
 20
3.741655652115508
 30
0.0
 11
9.878807042031683
 21
3.741655652115508
 31
0.0
 12
9.848807042031683
 22
3.921655652115508
 32
0.0
 13
9.848807042031683
 23
3.921655652115508
 33
0.0
  0
SOLID
  5
12B
330
125
100
AcDbEntity
  8
0
 62
     1
100
AcDbTrace
 10
9.818807042031684
 20
2.851655652115515
 30
0.0
 11
9.878807042031683
 21
2.851655652115515
 31
0.0
 12
9.848807042031683
 22
2.671655652115515
 32
0.0
 13
9.848807042031683
 23
2.671655652115515
 33
0.0
  0
MTEXT
  5
12C
330
125
100
AcDbEntity
  8
0
 62
     4
100
AcDbMText
 10
9.848807042031683
 20
3.296655652115513
 30
0.0
 40
0.125
 41
0.0
 71
     5
 72
     1
  1
\A1;1.250
  7
Standard
 73
     1
 44
1.0
  0
POINT
  5
12D
330
125
100
AcDbEntity
  8
Defpoints
 62
     0
100
AcDbPoint
 10
7.788168315718451
 20
3.921655652115509
 30
0.0
  0
POINT
  5
12E
330
125
100
AcDbEntity
  8
Defpoints
 62
     0
100
AcDbPoint
 10
7.766871886380354
 20
2.671655652115516
 30
0.0
  0
POINT
  5
12F
330
125
100
AcDbEntity
  8
Defpoints
 62
     0
100
AcDbPoint
 10
9.848807042031683
 20
2.671655652115515
 30
0.0
  0
ENDBLK
  5
131
330
125
100
AcDbEntity
  8
0
100
AcDbBlockEnd
  0
BLOCK
  5
194
330
132
100
AcDbEntity
  8
0
100
AcDbBlockBegin
  2
B
 70
     2
 10
0.0
 20
0.0
 30
0.0
  3
B
  1

  0
ATTDEF
  5
133
330
132
100
AcDbEntity
  8
TEXT
100
AcDbText
 10
11.57785051577858
 20
0.5394050456177202
 30
0.0
 40
0.125
  1

 41
0.75
 72
     1
 11
11.57785051577858
 21
0.5394050456177202
 31
0.0
100
AcDbAttributeDefinition
  3
ENTER INITIALS
  2
NAME
 70
     4
  0
ATTDEF
  5
134
330
132
100
AcDbEntity
  8
TEXT
100
AcDbText
 10
12.27323597631695
 20
0.5394050456177202
 30
0.0
 40
0.125
  1

 41
0.75
 72
     1
 11
12.27323597631695
 21
0.5394050456177202
 31
0.0
100
AcDbAttributeDefinition
  3
ENTER DATE
  2
DATE
 70
     4
  0
ATTDEF
  5
135
330
132
100
AcDbEntity
  8
TEXT
100
AcDbText
 10
15.53362280004441
 20
0.7382877313450514
 30
0.0
 40
0.125
  1

 41
0.75
 72
     1
 11
15.53362280004441
 21
0.7382877313450514
 31
0.0
100
AcDbAttributeDefinition
  3
ENTER TITLE LINE #1
  2
TITLE1
 70
     4
  0
ATTDEF
  5
136
330
132
100
AcDbEntity
  8
TEXT
100
AcDbText
 10
15.48674780004441
 20
0.5109922890761207
 30
0.0
 40
0.125
  1
 
 41
0.75
 72
     1
 11
15.53362280004441
 21
0.5109922890761207
 31
0.0
100
AcDbAttributeDefinition
  3
ENTER TITLE LINE #2
  2
TITLE2
 70
     4
  0
ATTDEF
  5
137
330
132
100
AcDbEntity
  8
TEXT
100
AcDbText
 10
15.66691965511983
 20
0.1181742385894946
 30
0.0
 40
0.156
  1
 
 41
0.75
 72
     1
 11
15.72541965511983
 21
0.1181742385894946
 31
0.0
100
AcDbAttributeDefinition
  3
ENTER PART #
  2
PART
 70
     4
  0
ATTDEF
  5
138
330
132
100
AcDbEntity
  8
TEXT
100
AcDbText
 10
15.72541965511983
 20
9.337640836036475
 30
0.0
 40
0.156
  1

 41
0.75
 72
     1
 11
15.72541965511983
 21
9.337640836036475
 31
0.0
100
AcDbAttributeDefinition
  3
ENTER PART #
  2
PART
 70
     4
  0
ATTDEF
  5
139
330
132
100
AcDbEntity
  8
TEXT
100
AcDbText
 10
7.156897604150746
 20
1.182012335097561
 30
0.0
 40
0.125
  1

 41
4.93641642638573
 72
     5
 11
11.06489394170611
 21
1.182012335097561
 31
0.0
100
AcDbAttributeDefinition
  3
ENTER CUT SIZE
  2
CUTSIZE
 70
     4
  0
ATTDEF
  5
13A
330
132
100
AcDbEntity
  8
TEXT
100
AcDbText
 10
7.324173832727304
 20
0.2867788269611924
 30
0.0
 40
0.125
  1

 41
0.75
 72
     1
 11
7.324173832727304
 21
0.2867788269611924
 31
0.0
100
AcDbAttributeDefinition
  3
ENTER QUANTITY
  2
QTY
 70
     4
  0
ATTDEF
  5
13B
330
132
100
AcDbEntity
  8
TEXT
100
AcDbText
 10
8.239054202526999
 20
0.2867788269611924
 30
0.0
 40
0.125
  1

 41
0.75
 72
     1
 11
8.239054202526999
 21
0.2867788269611924
 31
0.0
100
AcDbAttributeDefinition
  3
ENTER "USED ON" PART #
  2
USED
 70
     4
  0
ATTDEF
  5
13C
330
132
100
AcDbEntity
  8
TEXT
100
AcDbText
 10
11.82398122291403
 20
0.9555323710702353
 30
0.0
 40
0.125
  1
AS NOTED
 41
0.75
 72
     1
 11
12.18335622291403
 21
0.9555323710702353
 31
0.0
100
AcDbAttributeDefinition
  3
ENTER MATERIAL
  2
MAT
 70
     4
  0
ATTDEF
  5
13D
330
132
100
AcDbEntity
  8
TEXT
100
AcDbText
 10
11.80835622291403
 20
0.7436542078606632
 30
0.0
 40
0.125
  1
SEE SPEC.
 41
0.75
 72
     1
 11
12.18335622291403
 21
0.7436542078606632
 31
0.0
100
AcDbAttributeDefinition
  3
ENTER FINISH
  2
FINISH
 70
     4
  0
LINE
  5
13E
330
132
100
AcDbEntity
  8
TITLE
100
AcDbLine
 10
0.0
 20
9.660000000000001
 30
0.0
 11
0.0
 21
0.0
 31
0.0
  0
LINE
  5
13F
330
132
100
AcDbEntity
  8
TITLE
100
AcDbLine
 10
0.0
 20
0.0
 30
0.0
 11
16.6
 21
0.0
 31
0.0
  0
LINE
  5
140
330
132
100
AcDbEntity
  8
TITLE
100
AcDbLine
 10
7.119999999999997
 20
1.377
 30
0.0
 11
7.119999999999997
 21
-0.0000000000000004
 31
0.0
  0
LINE
  5
141
330
132
100
AcDbEntity
  8
TITLE
100
AcDbLine
 10
14.7875
 20
8.972499999999998
 30
0.0
 11
14.7875
 21
9.222499999999998
 31
0.0
  0
TEXT
  5
142
330
132
100
AcDbEntity
  8
TITLE
100
AcDbText
 10
14.2875
 20
9.472499999999998
 30
0.0
 40
0.09375
  1
DWG.
100
AcDbText
  0
TEXT
  5
143
330
132
100
AcDbEntity
  8
TITLE
100
AcDbText
 10
14.27928468339758
 20
9.058672468686173
 30
0.0
 40
0.09375
  1
ISSUE
100
AcDbText
  0
LINE
  5
144
330
132
100
AcDbEntity
  8
TITLE
100
AcDbLine
 10
14.1625
 20
8.972499999999998
 30
0.0
 11
14.1625
 21
9.659999999999998
 31
0.0
  0
TEXT
  5
145
330
132
100
AcDbEntity
  8
TITLE
100
AcDbText
 10
14.2875
 20
9.316249999999998
 30
0.0
 40
0.09375
  1
NO.
100
AcDbText
  0
LINE
  5
146
330
132
100
AcDbEntity
  8
TITLE
100
AcDbLine
 10
14.1625
 20
8.972499999999998
 30
0.0
 11
16.6
 21
8.972499999999998
 31
0.0
  0
LINE
  5
147
330
132
100
AcDbEntity
  8
TITLE
100
AcDbLine
 10
14.1625
 20
9.222499999999998
 30
0.0
 11
16.6
 21
9.222499999999998
 31
0.0
  0
TEXT
  5
148
330
132
100
AcDbEntity
  8
TITLE
100
AcDbText
 10
15.22324012267809
 20
9.06084779209924
 30
0.0
 40
0.09375
  1
REVISIONS
100
AcDbText
  0
TEXT
  5
149
330
132
100
AcDbEntity
  8
TITLE
100
AcDbText
 10
14.5375
 20
0.9903543852819179
 30
0.0
 40
0.09375
  1
NAME:
100
AcDbText
  0
TEXT
  5
14A
330
132
100
AcDbEntity
  8
TITLE
100
AcDbText
 10
14.5375
 20
0.0631657164931343
 30
0.0
 40
0.0938
  1
NO.
100
AcDbText
  0
TEXT
  5
14B
330
132
100
AcDbEntity
  8
TITLE
100
AcDbText
 10
14.5375
 20
0.2194990498264686
 30
0.0
 40
0.0938
  1
DWG.
100
AcDbText
  0
LINE
  5
14C
330
132
100
AcDbEntity
  8
TITLE
100
AcDbLine
 10
14.46724560008883
 20
-0.0000000000000004
 30
0.0
 11
14.46724560008883
 21
1.127
 31
0.0
  0
LINE
  5
14D
330
132
100
AcDbEntity
  8
TITLE
100
AcDbLine
 10
13.5365
 20
1.127
 30
0.0
 11
13.5365
 21
1.377
 31
0.0
  0
LINE
  5
14E
330
132
100
AcDbEntity
  8
TITLE
100
AcDbLine
 10
13.73673299114846
 20
0.8590073451518431
 30
0.0
 11
13.76976251320413
 21
0.8590073451518431
 31
0.0
  0
ARC
  5
14F
330
132
100
AcDbEntity
  8
TITLE
100
AcDbCircle
 10
13.76976251320413
 20
0.7660701812170974
 30
0.0
 40
0.0929371639347451
100
AcDbArc
 50
0.0
 51
90.0
  0
LINE
  5
150
330
132
100
AcDbEntity
  8
TITLE
100
AcDbLine
 10
13.81386129933556
 20
0.7328783369546899
 30
0.0
 11
13.77256370982727
 21
0.7328783369546899
 31
0.0
  0
LINE
  5
151
330
132
100
AcDbEntity
  8
TITLE
100
AcDbLine
 10
13.73673299114846
 20
0.5934725910525716
 30
0.0
 11
13.76976251320413
 21
0.5934725910525716
 31
0.0
  0
ARC
  5
152
330
132
100
AcDbEntity
  8
TITLE
100
AcDbCircle
 10
13.76976251320413
 20
0.6864097549873174
 30
0.0
 40
0.0929371639347451
100
AcDbArc
 50
270.0
 51
0.0
  0
LINE
  5
153
330
132
100
AcDbEntity
  8
TITLE
100
AcDbLine
 10
13.81386129933556
 20
0.7196015992497254
 30
0.0
 11
13.77256370982727
 21
0.7196015992497254
 31
0.0
  0
LINE
  5
154
330
132
100
AcDbEntity
  8
TITLE
100
AcDbLine
 10
13.73673299114846
 20
0.5934725910525716
 30
0.0
 11
13.73673299114846
 21
0.8590073451518431
 31
0.0
  0
LINE
  5
155
330
132
100
AcDbEntity
  8
TITLE
100
AcDbLine
 10
13.77256370982727
 20
0.7196015992497254
 30
0.0
 11
13.77256370982727
 21
0.7328783369546899
 31
0.0
  0
LINE
  5
156
330
132
100
AcDbEntity
  8
TITLE
100
AcDbLine
 10
13.86269967713888
 20
0.6864097549873174
 30
0.0
 11
13.86269967713888
 21
0.7660701812170974
 31
0.0
  0
LINE
  5
157
330
132
100
AcDbEntity
  8
TITLE
100
AcDbLine
 10
13.81386129933556
 20
0.7196015992497254
 30
0.0
 11
13.81386129933556
 21
0.7328783369546899
 31
0.0
  0
LINE
  5
158
330
132
100
AcDbEntity
  8
TITLE
100
AcDbLine
 10
13.63388478947084
 20
0.8590073451518431
 30
0.0
 11
13.68242241159558
 21
0.8590073451518431
 31
0.0
  0
LINE
  5
159
330
132
100
AcDbEntity
  8
TITLE
100
AcDbLine
 10
13.56223401395335
 20
0.8590073451518431
 30
0.0
 11
13.6107716360781
 21
0.8590073451518431
 31
0.0
  0
ARC
  5
15A
330
132
100
AcDbEntity
  8
TITLE
100
AcDbCircle
 10
13.62404837378307
 20
0.6367964281680929
 30
0.0
 40
0.0132767377049636
100
AcDbArc
 50
180.0
 51
262.5557159022863
  0
ARC
  5
15B
330
132
100
AcDbEntity
  8
TITLE
100
AcDbCircle
 10
13.62060805176588
 20
0.6367964281680929
 30
0.0
 40
0.0132767377049636
100
AcDbArc
 50
277.4442840977136
 51
0.0
  0
ARC
  5
15C
330
132
100
AcDbEntity
  8
TITLE
100
AcDbCircle
 10
13.66582648946438
 20
0.6100685131837765
 30
0.0
 40
0.0165959221312045
100
AcDbArc
 50
270.0
 51
0.0
  0
ARC
  5
15D
330
132
100
AcDbEntity
  8
TITLE
100
AcDbCircle
 10
13.57882993608456
 20
0.6100685131837765
 30
0.0
 40
0.0165959221312045
100
AcDbArc
 50
180.0
 51
270.0
  0
LINE
  5
15E
330
132
100
AcDbEntity
  8
TITLE
100
AcDbLine
 10
13.57882993608456
 20
0.5934725910525716
 30
0.0
 11
13.66582648946438
 21
0.5934725910525716
 31
0.0
  0
LINE
  5
15F
330
132
100
AcDbEntity
  8
TITLE
100
AcDbLine
 10
13.6107716360781
 20
0.6367964281680929
 30
0.0
 11
13.6107716360781
 21
0.8590073451518431
 31
0.0
  0
LINE
  5
160
330
132
100
AcDbEntity
  8
TITLE
100
AcDbLine
 10
13.63388478947084
 20
0.6367964281680929
 30
0.0
 11
13.63388478947084
 21
0.8590073451518431
 31
0.0
  0
LINE
  5
161
330
132
100
AcDbEntity
  8
TITLE
100
AcDbLine
 10
13.56223401395335
 20
0.6100685131837765
 30
0.0
 11
13.56223401395335
 21
0.8590073451518431
 31
0.0
  0
LINE
  5
162
330
132
100
AcDbEntity
  8
TITLE
100
AcDbLine
 10
13.68242241159558
 20
0.6100685131837765
 30
0.0
 11
13.68242241159558
 21
0.8590073451518431
 31
0.0
  0
LINE
  5
163
330
132
100
AcDbEntity
  8
TITLE
100
AcDbLine
 10
13.46284745436459
 20
0.7328783369546899
 30
0.0
 11
13.39004102117747
 21
0.7328783369546899
 31
0.0
  0
LINE
  5
164
330
132
100
AcDbEntity
  8
TITLE
100
AcDbLine
 10
13.37732878681146
 20
0.8590073451518431
 30
0.0
 11
13.46284745436459
 21
0.8590073451518431
 31
0.0
  0
LINE
  5
165
330
132
100
AcDbEntity
  8
TITLE
100
AcDbLine
 10
13.39004102117747
 20
0.7196015992497254
 30
0.0
 11
13.39004102117747
 21
0.7262399681022083
 31
0.0
  0
LINE
  5
166
330
132
100
AcDbEntity
  8
TITLE
100
AcDbLine
 10
13.37732878681146
 20
0.5934725910525716
 30
0.0
 11
13.46284745436459
 21
0.5934725910525716
 31
0.0
  0
LINE
  5
167
330
132
100
AcDbEntity
  8
TITLE
100
AcDbLine
 10
13.46284745436459
 20
0.7196015992497254
 30
0.0
 11
13.39004102117747
 21
0.7196015992497254
 31
0.0
  0
LINE
  5
168
330
132
100
AcDbEntity
  8
TITLE
100
AcDbLine
 10
13.37732878681146
 20
0.5934725910525716
 30
0.0
 11
13.37732878681146
 21
0.8590073451518431
 31
0.0
  0
LINE
  5
169
330
132
100
AcDbEntity
  8
TITLE
100
AcDbLine
 10
13.39004102117747
 20
0.7328783369546899
 30
0.0
 11
13.39004102117747
 21
0.7262399681022083
 31
0.0
  0
ARC
  5
16A
330
132
100
AcDbEntity
  8
TITLE
100
AcDbCircle
 10
13.46284745436459
 20
0.7959428410532668
 30
0.0
 40
0.063064504098577
100
AcDbArc
 50
270.0
 51
90.0
  0
ARC
  5
16B
330
132
100
AcDbEntity
  8
TITLE
100
AcDbCircle
 10
13.46284745436459
 20
0.6565370951511494
 30
0.0
 40
0.063064504098577
100
AcDbArc
 50
270.0
 51
90.00000000000003
  0
TEXT
  5
16C
330
132
100
AcDbEntity
  8
TITLE
100
AcDbText
 10
12.4755
 20
1.197740762992484
 30
0.0
 40
0.09375
  1
PART NO.
100
AcDbText
  0
TEXT
  5
16D
330
132
100
AcDbEntity
  8
TITLE
100
AcDbText
 10
12.80237987390002
 20
0.9755983592151281
 30
0.0
 40
0.09375
  1
SCALE:
100
AcDbText
  0
LINE
  5
16E
330
132
100
AcDbEntity
  8
TITLE
100
AcDbLine
 10
12.76353790782162
 20
-0.0000000000000004
 30
0.0
 11
12.76353790782162
 21
1.127
 31
0.0
  0
TEXT
  5
16F
330
132
100
AcDbEntity
  8
TITLE
100
AcDbText
 10
12.86389543567033
 20
0.1249999999999996
 30
0.0
 40
0.09375
  1
WILLOUGHBY, OHIO
100
AcDbText
  0
TEXT
  5
170
330
132
100
AcDbEntity
  8
TITLE
100
AcDbText
 10
12.80461451425917
 20
0.3749999999999996
 30
0.0
 40
0.09375
  1
BUD INDUSTRIES, INC.
100
AcDbText
  0
LINE
  5
171
330
132
100
AcDbEntity
  8
TITLE
100
AcDbLine
 10
14.46724560008883
 20
0.3819999999999992
 30
0.0
 11
16.59999999999999
 21
0.3819999999999992
 31
0.0
  0
TEXT
  5
172
330
132
100
AcDbEntity
  8
TITLE
100
AcDbText
 10
14.60244590285365
 20
1.197740762992484
 30
0.0
 40
0.09375
  1
DESCRIPTION
100
AcDbText
  0
LINE
  5
173
330
132
100
AcDbEntity
  8
TITLE
100
AcDbLine
 10
12.03749999999999
 20
1.127
 30
0.0
 11
12.0375
 21
1.377
 31
0.0
  0
LINE
  5
174
330
132
100
AcDbEntity
  8
TITLE
100
AcDbLine
 10
11.51929648007106
 20
1.127
 30
0.0
 11
11.51929648007106
 21
1.377
 31
0.0
  0
TEXT
  5
175
330
132
100
AcDbEntity
  8
TITLE
100
AcDbText
 10
11.5708473600533
 20
1.197740762992484
 30
0.0
 40
0.09375
  1
REQ'D.
100
AcDbText
  0
TEXT
  5
176
330
132
100
AcDbEntity
  8
TITLE
100
AcDbText
 10
11.163
 20
0.9728772779084607
 30
0.0
 40
0.09375
  1
MAT:
100
AcDbText
  0
TEXT
  5
177
330
132
100
AcDbEntity
  8
TITLE
100
AcDbText
 10
11.15657245370309
 20
1.199407818911626
 30
0.0
 40
0.09375
  1
ITEM
100
AcDbText
  0
TEXT
  5
178
330
132
100
AcDbEntity
  8
TITLE
100
AcDbText
 10
11.163
 20
0.3124999999999996
 30
0.0
 40
0.09375
  1
CH.
100
AcDbText
  0
TEXT
  5
179
330
132
100
AcDbEntity
  8
TITLE
100
AcDbText
 10
11.163
 20
0.5693740809498898
 30
0.0
 40
0.09375
  1
DR.
100
AcDbText
  0
TEXT
  5
17A
330
132
100
AcDbEntity
  8
TITLE
100
AcDbText
 10
11.163
 20
0.7741181638829385
 30
0.0
 40
0.09375
  1
FINISH:
100
AcDbText
  0
TEXT
  5
17B
330
132
100
AcDbEntity
  8
TITLE
100
AcDbText
 10
11.163
 20
0.0624999999999996
 30
0.0
 40
0.09375
  1
APP.
100
AcDbText
  0
LINE
  5
17C
330
132
100
AcDbEntity
  8
TITLE
100
AcDbLine
 10
11.7977560980471
 20
-0.0000000000000004
 30
0.0
 11
11.79775609804711
 21
0.709000000000001
 31
0.0
  0
LINE
  5
17D
330
132
100
AcDbEntity
  8
TITLE
100
AcDbLine
 10
11.10049999999999
 20
-0.0000000000000004
 30
0.0
 11
11.10049999999999
 21
1.377
 31
0.0
  0
TEXT
  5
17E
330
132
100
AcDbEntity
  8
TITLE
100
AcDbText
 10
9.145905996309931
 20
0.9520717565666277
 30
0.0
 40
0.1117888355610499
  1
%%uTOLERANCES:
100
AcDbText
  0
TEXT
  5
17F
330
132
100
AcDbEntity
  8
TITLE
100
AcDbText
 10
9.191485367583922
 20
0.2344895723568654
 30
0.0
 40
0.0772424143690822
  1
    SURFACES
100
AcDbText
  0
TEXT
  5
180
330
132
100
AcDbEntity
  8
TITLE
100
AcDbText
 10
9.093719946747782
 20
0.7494390014840789
 30
0.0
 40
0.0772424143690822
  1
%%p.005 BETWEEN HOLE CENTERS
100
AcDbText
  0
TEXT
  5
181
330
132
100
AcDbEntity
  8
TITLE
100
AcDbText
 10
9.093719946747782
 20
0.6207016442022755
 30
0.0
 40
0.0772424143690822
  1
%%p.015 FROM SHEARED EDGE
100
AcDbText
  0
TEXT
  5
182
330
132
100
AcDbEntity
  8
TITLE
100
AcDbText
 10
9.093719946747782
 20
0.4919642869204704
 30
0.0
 40
0.0772424143690822
  1
%%p.032 FROM A BENT SURFACE
100
AcDbText
  0
TEXT
  5
183
330
132
100
AcDbEntity
  8
TITLE
100
AcDbText
 10
9.098649805283812
 20
0.0564750904941671
 30
0.0
 40
0.0772424143690822
  1
UNLESS OTHERWISE SPECIFIED
100
AcDbText
  0
TEXT
  5
184
330
132
100
AcDbEntity
  8
TITLE
100
AcDbText
 10
9.093719946747782
 20
0.363226929638667
 30
0.0
 40
0.0772424143690822
  1
%%p.063 BETWEEN ASSEMBLED
100
AcDbText
  0
LINE
  5
185
330
132
100
AcDbEntity
  8
TITLE
100
AcDbLine
 10
7.494999999999997
 20
0.0000000000000013
 30
0.0
 11
7.494999999999997
 21
0.2499999999999996
 31
0.0
  0
TEXT
  5
186
330
132
100
AcDbEntity
  8
TITLE
100
AcDbText
 10
7.917259741149376
 20
0.0776282744477839
 30
0.0
 40
0.09375
  1
USED ON
100
AcDbText
  0
LINE
  5
187
330
132
100
AcDbEntity
  8
TITLE
100
AcDbLine
 10
9.0225
 20
0.0000000000000013
 30
0.0
 11
9.0225
 21
1.127
 31
0.0
  0
LINE
  5
188
330
132
100
AcDbEntity
  8
TITLE
100
AcDbLine
 10
7.119999999999997
 20
0.2499999999999996
 30
0.0
 11
9.0225
 21
0.2499999999999996
 31
0.0
  0
LINE
  5
189
330
132
100
AcDbEntity
  8
TITLE
100
AcDbLine
 10
9.0225
 20
1.127
 30
0.0
 11
7.119999999999997
 21
1.127
 31
0.0
  0
TEXT
  5
18A
330
132
100
AcDbEntity
  8
TITLE
100
AcDbText
 10
7.171749183812263
 20
0.0776282744477839
 30
0.0
 40
0.09375
  1
QTY.
100
AcDbText
  0
LINE
  5
18B
330
132
100
AcDbEntity
  8
TITLE
100
AcDbLine
 10
11.10049999999999
 20
1.377
 30
0.0
 11
7.119999999999997
 21
1.377
 31
0.0
  0
LINE
  5
18C
330
132
100
AcDbEntity
  8
TITLE
100
AcDbLine
 10
11.10049999999999
 20
1.377
 30
0.0
 11
16.59999999999999
 21
1.377
 31
0.0
  0
LINE
  5
18D
330
132
100
AcDbEntity
  8
TITLE
100
AcDbLine
 10
9.0225
 20
1.127
 30
0.0
 11
16.59999999999999
 21
1.127
 31
0.0
  0
LINE
  5
18E
330
132
100
AcDbEntity
  8
TITLE
100
AcDbLine
 10
11.10049999999999
 20
0.9180000000000006
 30
0.0
 11
14.46724560008883
 21
0.9180000000000006
 31
0.0
  0
LINE
  5
18F
330
132
100
AcDbEntity
  8
TITLE
100
AcDbLine
 10
11.10049999999999
 20
0.2499999999999996
 30
0.0
 11
12.76353790782162
 21
0.2499999999999996
 31
0.0
  0
LINE
  5
190
330
132
100
AcDbEntity
  8
TITLE
100
AcDbLine
 10
11.10049999999999
 20
0.709000000000001
 30
0.0
 11
12.76353790782162
 21
0.709000000000001
 31
0.0
  0
LINE
  5
191
330
132
100
AcDbEntity
  8
TITLE
100
AcDbLine
 10
11.10049999999999
 20
0.4999999999999996
 30
0.0
 11
12.76353790782162
 21
0.4999999999999996
 31
0.0
  0
LINE
  5
192
330
132
100
AcDbEntity
  8
TITLE
100
AcDbLine
 10
16.6
 20
9.659999999999998
 30
0.0
 11
16.6
 21
0.0
 31
0.0
  0
LINE
  5
193
330
132
100
AcDbEntity
  8
TITLE
100
AcDbLine
 10
0.0
 20
9.660000000000001
 30
0.0
 11
16.6
 21
9.659999999999998
 31
0.0
  0
ENDBLK
  5
195
330
132
100
AcDbEntity
  8
0
100
AcDbBlockEnd
  0
BLOCK
  5
1A1
330
196
100
AcDbEntity
  8
0
100
AcDbBlockBegin
  2
*D7
 70
     1
 10
0.0
 20
0.0
 30
0.0
  3
*D7
  1

  0
LINE
  5
197
330
196
100
AcDbEntity
  8
0
 62
     1
370
    -2
100
AcDbLine
 10
3.794224403958947
 20
6.277056496898081
 30
0.0
 11
3.794224403958947
 21
4.394831933451735
 31
0.0
  0
LINE
  5
198
330
196
100
AcDbEntity
  8
0
 62
     1
370
    -2
100
AcDbLine
 10
8.044224403958949
 20
6.277056496898081
 30
0.0
 11
8.044224403958949
 21
4.394831933451735
 31
0.0
  0
LINE
  5
199
330
196
100
AcDbEntity
  8
0
 62
     1
370
    -2
100
AcDbLine
 10
3.974224403958947
 20
4.494831933451735
 30
0.0
 11
5.616016695909835
 21
4.494831933451735
 31
0.0
  0
LINE
  5
19A
330
196
100
AcDbEntity
  8
0
 62
     1
370
    -2
100
AcDbLine
 10
7.864224403958949
 20
4.494831933451735
 30
0.0
 11
6.222432112008061
 21
4.494831933451735
 31
0.0
  0
SOLID
  5
19B
330
196
100
AcDbEntity
  8
0
 62
     1
100
AcDbTrace
 10
3.974224403958947
 20
4.524831933451735
 30
0.0
 11
3.974224403958947
 21
4.464831933451734
 31
0.0
 12
3.794224403958947
 22
4.494831933451735
 32
0.0
 13
3.794224403958947
 23
4.494831933451735
 33
0.0
  0
SOLID
  5
19C
330
196
100
AcDbEntity
  8
0
 62
     1
100
AcDbTrace
 10
7.864224403958949
 20
4.524831933451735
 30
0.0
 11
7.864224403958949
 21
4.464831933451734
 31
0.0
 12
8.044224403958949
 22
4.494831933451735
 32
0.0
 13
8.044224403958949
 23
4.494831933451735
 33
0.0
  0
MTEXT
  5
19D
330
196
100
AcDbEntity
  8
0
 62
     4
100
AcDbMText
 10
5.919224403958948
 20
4.494831933451735
 30
0.0
 40
0.125
 41
0.0
 71
     5
 72
     1
  1
\A1;4.250
  7
Standard
 73
     1
 44
1.0
  0
POINT
  5
19E
330
196
100
AcDbEntity
  8
Defpoints
 62
     0
100
AcDbPoint
 10
3.794224403958947
 20
6.402056496898081
 30
0.0
  0
POINT
  5
19F
330
196
100
AcDbEntity
  8
Defpoints
 62
     0
100
AcDbPoint
 10
8.044224403958949
 20
6.402056496898081
 30
0.0
  0
POINT
  5
1A0
330
196
100
AcDbEntity
  8
Defpoints
 62
     0
100
AcDbPoint
 10
8.044224403958949
 20
4.494831933451735
 30
0.0
  0
ENDBLK
  5
1A2
330
196
100
AcDbEntity
  8
0
100
AcDbBlockEnd
  0
BLOCK
  5
1AE
330
1A3
100
AcDbEntity
  8
0
100
AcDbBlockBegin
  2
*D8
 70
     1
 10
0.0
 20
0.0
 30
0.0
  3
*D8
  1

  0
LINE
  5
1A4
330
1A3
100
AcDbEntity
  8
0
 62
     1
370
    -2
100
AcDbLine
 10
7.794224403958944
 20
8.652056496898088
 30
0.0
 11
10.5537278162899
 21
8.652056496898088
 31
0.0
  0
LINE
  5
1A5
330
1A3
100
AcDbEntity
  8
0
 62
     1
370
    -2
100
AcDbLine
 10
7.794224403958949
 20
6.027056496898088
 30
0.0
 11
10.5537278162899
 21
6.027056496898087
 31
0.0
  0
LINE
  5
1A6
330
1A3
100
AcDbEntity
  8
0
 62
     1
370
    -2
100
AcDbLine
 10
10.4537278162899
 20
8.472056496898089
 30
0.0
 11
10.4537278162899
 21
7.493378120363299
 31
0.0
  0
LINE
  5
1A7
330
1A3
100
AcDbEntity
  8
0
 62
     1
370
    -2
100
AcDbLine
 10
10.4537278162899
 20
6.207056496898087
 30
0.0
 11
10.4537278162899
 21
7.185734873432876
 31
0.0
  0
SOLID
  5
1A8
330
1A3
100
AcDbEntity
  8
0
 62
     1
100
AcDbTrace
 10
10.4237278162899
 20
8.472056496898089
 30
0.0
 11
10.4837278162899
 21
8.472056496898089
 31
0.0
 12
10.4537278162899
 22
8.652056496898088
 32
0.0
 13
10.4537278162899
 23
8.652056496898088
 33
0.0
  0
SOLID
  5
1A9
330
1A3
100
AcDbEntity
  8
0
 62
     1
100
AcDbTrace
 10
10.4237278162899
 20
6.207056496898087
 30
0.0
 11
10.4837278162899
 21
6.207056496898087
 31
0.0
 12
10.4537278162899
 22
6.027056496898087
 32
0.0
 13
10.4537278162899
 23
6.027056496898087
 33
0.0
  0
MTEXT
  5
1AA
330
1A3
100
AcDbEntity
  8
0
 62
     4
100
AcDbMText
 10
10.4537278162899
 20
7.339556496898089
 30
0.0
 40
0.125
 41
0.0
 71
     5
 72
     1
  1
\A1;2.625
  7
Standard
 73
     1
 44
1.0
  0
POINT
  5
1AB
330
1A3
100
AcDbEntity
  8
Defpoints
 62
     0
100
AcDbPoint
 10
7.669224403958944
 20
8.652056496898088
 30
0.0
  0
POINT
  5
1AC
330
1A3
100
AcDbEntity
  8
Defpoints
 62
     0
100
AcDbPoint
 10
7.669224403958949
 20
6.027056496898088
 30
0.0
  0
POINT
  5
1AD
330
1A3
100
AcDbEntity
  8
Defpoints
 62
     0
100
AcDbPoint
 10
10.4537278162899
 20
6.027056496898087
 30
0.0
  0
ENDBLK
  5
1AF
330
1A3
100
AcDbEntity
  8
0
100
AcDbBlockEnd
  0
BLOCK
  5
1BA
330
1B0
100
AcDbEntity
  8
0
100
AcDbBlockBegin
  2
BOMCHART
 70
     2
 10
0.0
 20
0.0
 30
0.0
  3
BOMCHART
  1

  0
ATTDEF
  5
1B1
330
1B0
100
AcDbEntity
  8
TEXT
100
AcDbText
 10
0.1850047915522488
 20
0.0408368854588388
 30
0.0
 40
0.125
  1

 41
0.75
 72
     1
 11
0.1850047915522488
 21
0.0408368854588388
 31
0.0
100
AcDbAttributeDefinition
  3
ENTER ITEM #
  2
ITEM
 70
     4
  0
ATTDEF
  5
1B2
330
1B0
100
AcDbEntity
  8
TEXT
100
AcDbText
 10
0.6509603552463279
 20
0.0408368854588388
 30
0.0
 40
0.125
  1

 41
0.75
 72
     1
 11
0.6509603552463279
 21
0.0408368854588388
 31
0.0
100
AcDbAttributeDefinition
  3
ENTER # REQUIRED
  2
#REQ'D.
 70
     4
  0
ATTDEF
  5
1B3
330
1B0
100
AcDbEntity
  8
TEXT
100
AcDbText
 10
1.664236312030812
 20
0.0408368854588388
 30
0.0
 40
0.125
  1

 41
0.75
 72
     1
 11
1.664236312030812
 21
0.0408368854588388
 31
0.0
100
AcDbAttributeDefinition
  3
ENTER PART #
  2
PART#
 70
     4
  0
ATTDEF
  5
1B4
330
1B0
100
AcDbEntity
  8
TEXT
100
AcDbText
 10
2.538435176707622
 20
0.0408368854588388
 30
0.0
 40
0.125
  1

 41
0.75
100
AcDbAttributeDefinition
  3
ENTER PART DESCRIPTION
  2
DESCRIPTION
 70
     4
  0
LINE
  5
1B5
330
1B0
100
AcDbEntity
  8
TITLE
100
AcDbLine
 10
0.0
 20
0.208
 30
0.0
 11
5.499499999999997
 21
0.208
 31
0.0
  0
LINE
  5
1B6
330
1B0
100
AcDbEntity
  8
TITLE
100
AcDbLine
 10
0.0
 20
0.0
 30
0.0
 11
0.0
 21
0.208
 31
0.0
  0
LINE
  5
1B7
330
1B0
100
AcDbEntity
  8
TITLE
100
AcDbLine
 10
0.4187964800710642
 20
0.0
 30
0.0
 11
0.4187964800710642
 21
0.208
 31
0.0
  0
LINE
  5
1B8
330
1B0
100
AcDbEntity
  8
TITLE
100
AcDbLine
 10
0.9370000000000029
 20
0.0
 30
0.0
 11
0.9370000000000029
 21
0.208
 31
0.0
  0
LINE
  5
1B9
330
1B0
100
AcDbEntity
  8
TITLE
100
AcDbLine
 10
2.436000000000001
 20
0.0
 30
0.0
 11
2.436000000000001
 21
0.208
 31
0.0
  0
ENDBLK
  5
1BB
330
1B0
100
AcDbEntity
  8
0
100
AcDbBlockEnd
  0
BLOCK
  5
1BF
330
1BC
100
AcDbEntity
  8
0
100
AcDbBlockBegin
  2
BALLOON
 70
     0
 10
0.0
 20
0.0
 30
0.0
  3
BALLOON
  1

  0
LWPOLYLINE
  5
1BD
330
1BC
100
AcDbEntity
  8
DIM
100
AcDbPolyline
 90
        5
 70
     0
 10
0.0
 20
0.0
 40
0.0
 41
0.067499999949375
 10
0.1718445098154422
 20
0.0535673818446507
 40
0.0
 41
0.0
 10
0.4614882291982783
 20
0.1438551410040729
 40
0.0
 41
0.0
 42
-1.0
 10
0.8194976246471131
 20
0.2554538531804293
 40
0.0
 41
0.0
 42
-1.0
 10
0.4614882291982783
 20
0.1438551410040729
 40
0.0
 41
0.0
 42
-2.882889103494703
  0
TEXT
  5
1BE
330
1BC
100
AcDbEntity
  8
DIM
100
AcDbText
 10
0.6248679269344145
 20
0.1371544971391261
 30
0.0
 40
0.12499999990625
  1
1
 41
0.75
 72
     4
 11
0.6404929269226957
 21
0.1996544970922511
 31
0.0
100
AcDbText
  0
ENDBLK
  5
1C0
330
1BC
100
AcDbEntity
  8
0
100
AcDbBlockEnd
  0
BLOCK
  5
1CC
330
1C1
100
AcDbEntity
  8
0
100
AcDbBlockBegin
  2
*D11
 70
     1
 10
0.0
 20
0.0
 30
0.0
  3
*D11
  1

  0
LINE
  5
1C2
330
1C1
100
AcDbEntity
  8
0
 62
     1
370
    -2
100
AcDbLine
 10
7.544224403958949
 20
8.027056496898088
 30
0.0
 11
9.050303847563363
 21
8.027056496898088
 31
0.0
  0
LINE
  5
1C3
330
1C1
100
AcDbEntity
  8
0
 62
     1
370
    -2
100
AcDbLine
 10
7.544224403958949
 20
6.652056496898081
 30
0.0
 11
9.050303847563363
 21
6.652056496898081
 31
0.0
  0
LINE
  5
1C4
330
1C1
100
AcDbEntity
  8
0
 62
     1
370
    -2
100
AcDbLine
 10
8.950303847563363
 20
7.847056496898089
 30
0.0
 11
8.950303847563363
 21
7.74651900713968
 31
0.0
  0
LINE
  5
1C5
330
1C1
100
AcDbEntity
  8
0
 62
     1
370
    -2
100
AcDbLine
 10
8.950303847563363
 20
6.832056496898081
 30
0.0
 11
8.950303847563363
 21
7.438790494179244
 31
0.0
  0
SOLID
  5
1C6
330
1C1
100
AcDbEntity
  8
0
 62
     1
100
AcDbTrace
 10
8.920303847563364
 20
7.847056496898089
 30
0.0
 11
8.980303847563362
 21
7.847056496898089
 31
0.0
 12
8.950303847563363
 22
8.027056496898088
 32
0.0
 13
8.950303847563363
 23
8.027056496898088
 33
0.0
  0
SOLID
  5
1C7
330
1C1
100
AcDbEntity
  8
0
 62
     1
100
AcDbTrace
 10
8.920303847563364
 20
6.832056496898081
 30
0.0
 11
8.980303847563362
 21
6.832056496898081
 31
0.0
 12
8.950303847563363
 22
6.652056496898081
 32
0.0
 13
8.950303847563363
 23
6.652056496898081
 33
0.0
  0
MTEXT
  5
1C8
330
1C1
100
AcDbEntity
  8
0
 62
     4
100
AcDbMText
 10
8.950303847563361
 20
7.592654750659463
 30
0.0
 40
0.125
 41
0.0
 71
     5
 72
     1
  1
\A1;1.375
  7
Standard
 73
     1
 44
1.0
  0
POINT
  5
1C9
330
1C1
100
AcDbEntity
  8
Defpoints
 62
     0
100
AcDbPoint
 10
7.419224403958949
 20
8.027056496898088
 30
0.0
  0
POINT
  5
1CA
330
1C1
100
AcDbEntity
  8
Defpoints
 62
     0
100
AcDbPoint
 10
7.419224403958949
 20
6.652056496898081
 30
0.0
  0
POINT
  5
1CB
330
1C1
100
AcDbEntity
  8
Defpoints
 62
     0
100
AcDbPoint
 10
8.950303847563363
 20
6.652056496898081
 30
0.0
  0
ENDBLK
  5
1CD
330
1C1
100
AcDbEntity
  8
0
100
AcDbBlockEnd
  0
BLOCK
  5
1D9
330
1CE
100
AcDbEntity
  8
0
100
AcDbBlockBegin
  2
*D12
 70
     1
 10
0.0
 20
0.0
 30
0.0
  3
*D12
  1

  0
LINE
  5
1CF
330
1CE
100
AcDbEntity
  8
0
 62
     1
370
    -2
100
AcDbLine
 10
4.419224403958956
 20
6.527056496898081
 30
0.0
 11
4.419224403958956
 21
5.278422439083881
 31
0.0
  0
LINE
  5
1D0
330
1CE
100
AcDbEntity
  8
0
 62
     1
370
    -2
100
AcDbLine
 10
7.419224403958949
 20
6.527056496898081
 30
0.0
 11
7.419224403958949
 21
5.278422439083881
 31
0.0
  0
LINE
  5
1D1
330
1CE
100
AcDbEntity
  8
0
 62
     1
370
    -2
100
AcDbLine
 10
4.599224403958956
 20
5.37842243908388
 30
0.0
 11
5.625914029066086
 21
5.37842243908388
 31
0.0
  0
LINE
  5
1D2
330
1CE
100
AcDbEntity
  8
0
 62
     1
370
    -2
100
AcDbLine
 10
7.239224403958949
 20
5.37842243908388
 30
0.0
 11
6.227213483363494
 21
5.37842243908388
 31
0.0
  0
SOLID
  5
1D3
330
1CE
100
AcDbEntity
  8
0
 62
     1
100
AcDbTrace
 10
4.599224403958956
 20
5.408422439083881
 30
0.0
 11
4.599224403958956
 21
5.34842243908388
 31
0.0
 12
4.419224403958956
 22
5.37842243908388
 32
0.0
 13
4.419224403958956
 23
5.37842243908388
 33
0.0
  0
SOLID
  5
1D4
330
1CE
100
AcDbEntity
  8
0
 62
     1
100
AcDbTrace
 10
7.239224403958949
 20
5.408422439083881
 30
0.0
 11
7.239224403958949
 21
5.34842243908388
 31
0.0
 12
7.419224403958949
 22
5.37842243908388
 32
0.0
 13
7.419224403958949
 23
5.37842243908388
 33
0.0
  0
MTEXT
  5
1D5
330
1CE
100
AcDbEntity
  8
0
 62
     4
100
AcDbMText
 10
5.92656375621479
 20
5.37842243908388
 30
0.0
 40
0.125
 41
0.0
 71
     5
 72
     1
  1
\A1;3.000
  7
Standard
 73
     1
 44
1.0
  0
POINT
  5
1D6
330
1CE
100
AcDbEntity
  8
Defpoints
 62
     0
100
AcDbPoint
 10
4.419224403958956
 20
6.652056496898081
 30
0.0
  0
POINT
  5
1D7
330
1CE
100
AcDbEntity
  8
Defpoints
 62
     0
100
AcDbPoint
 10
7.419224403958949
 20
6.652056496898081
 30
0.0
  0
POINT
  5
1D8
330
1CE
100
AcDbEntity
  8
Defpoints
 62
     0
100
AcDbPoint
 10
7.419224403958949
 20
5.37842243908388
 30
0.0
  0
ENDBLK
  5
1DA
330
1CE
100
AcDbEntity
  8
0
100
AcDbBlockEnd
  0
BLOCK
  5
1E6
330
1DB
100
AcDbEntity
  8
0
100
AcDbBlockBegin
  2
*D13
 70
     1
 10
0.0
 20
0.0
 30
0.0
  3
*D13
  1

  0
LINE
  5
1DC
330
1DB
100
AcDbEntity
  8
0
 62
     1
370
    -2
100
AcDbLine
 10
4.16922440395896
 20
6.277056496898095
 30
0.0
 11
4.16922440395896
 21
4.848007089242374
 31
0.0
  0
LINE
  5
1DD
330
1DB
100
AcDbEntity
  8
0
 62
     1
370
    -2
100
AcDbLine
 10
7.66922440395896
 20
6.277056496898081
 30
0.0
 11
7.66922440395896
 21
4.848007089242374
 31
0.0
  0
LINE
  5
1DE
330
1DB
100
AcDbEntity
  8
0
 62
     1
370
    -2
100
AcDbLine
 10
4.34922440395896
 20
4.948007089242373
 30
0.0
 11
5.625914029066086
 21
4.948007089242373
 31
0.0
  0
LINE
  5
1DF
330
1DB
100
AcDbEntity
  8
0
 62
     1
370
    -2
100
AcDbLine
 10
7.48922440395896
 20
4.948007089242373
 30
0.0
 11
6.227213483363494
 21
4.948007089242373
 31
0.0
  0
SOLID
  5
1E0
330
1DB
100
AcDbEntity
  8
0
 62
     1
100
AcDbTrace
 10
4.34922440395896
 20
4.978007089242374
 30
0.0
 11
4.34922440395896
 21
4.918007089242373
 31
0.0
 12
4.16922440395896
 22
4.948007089242373
 32
0.0
 13
4.16922440395896
 23
4.948007089242373
 33
0.0
  0
SOLID
  5
1E1
330
1DB
100
AcDbEntity
  8
0
 62
     1
100
AcDbTrace
 10
7.48922440395896
 20
4.978007089242374
 30
0.0
 11
7.48922440395896
 21
4.918007089242373
 31
0.0
 12
7.66922440395896
 22
4.948007089242373
 32
0.0
 13
7.66922440395896
 23
4.948007089242373
 33
0.0
  0
MTEXT
  5
1E2
330
1DB
100
AcDbEntity
  8
0
 62
     4
100
AcDbMText
 10
5.92656375621479
 20
4.948007089242373
 30
0.0
 40
0.125
 41
0.0
 71
     5
 72
     1
  1
\A1;3.500
  7
Standard
 73
     1
 44
1.0
  0
POINT
  5
1E3
330
1DB
100
AcDbEntity
  8
Defpoints
 62
     0
100
AcDbPoint
 10
4.16922440395896
 20
6.402056496898095
 30
0.0
  0
POINT
  5
1E4
330
1DB
100
AcDbEntity
  8
Defpoints
 62
     0
100
AcDbPoint
 10
7.66922440395896
 20
6.402056496898081
 30
0.0
  0
POINT
  5
1E5
330
1DB
100
AcDbEntity
  8
Defpoints
 62
     0
100
AcDbPoint
 10
7.66922440395896
 20
4.948007089242373
 30
0.0
  0
ENDBLK
  5
1E7
330
1DB
100
AcDbEntity
  8
0
100
AcDbBlockEnd
  0
BLOCK
  5
1F3
330
1E8
100
AcDbEntity
  8
0
100
AcDbBlockBegin
  2
*D14
 70
     1
 10
0.0
 20
0.0
 30
0.0
  3
*D14
  1

  0
LINE
  5
1E9
330
1E8
100
AcDbEntity
  8
0
 62
     1
370
    -2
100
AcDbLine
 10
7.794224403958946
 20
8.277056496898074
 30
0.0
 11
9.721002274490253
 21
8.277056496898074
 31
0.0
  0
LINE
  5
1EA
330
1E8
100
AcDbEntity
  8
0
 62
     1
370
    -2
100
AcDbLine
 10
7.794224403958946
 20
6.402056496898095
 30
0.0
 11
9.721002274490253
 21
6.402056496898095
 31
0.0
  0
LINE
  5
1EB
330
1E8
100
AcDbEntity
  8
0
 62
     1
370
    -2
100
AcDbLine
 10
9.621002274490253
 20
8.097056496898074
 30
0.0
 11
9.621002274490253
 21
7.491410891417585
 31
0.0
  0
LINE
  5
1EC
330
1E8
100
AcDbEntity
  8
0
 62
     1
370
    -2
100
AcDbLine
 10
9.621002274490253
 20
6.582056496898095
 30
0.0
 11
9.621002274490253
 21
7.183767644487161
 31
0.0
  0
SOLID
  5
1ED
330
1E8
100
AcDbEntity
  8
0
 62
     1
100
AcDbTrace
 10
9.591002274490254
 20
8.097056496898074
 30
0.0
 11
9.651002274490252
 21
8.097056496898074
 31
0.0
 12
9.621002274490253
 22
8.277056496898074
 32
0.0
 13
9.621002274490253
 23
8.277056496898074
 33
0.0
  0
SOLID
  5
1EE
330
1E8
100
AcDbEntity
  8
0
 62
     1
100
AcDbTrace
 10
9.591002274490254
 20
6.582056496898095
 30
0.0
 11
9.651002274490252
 21
6.582056496898095
 31
0.0
 12
9.621002274490253
 22
6.402056496898095
 32
0.0
 13
9.621002274490253
 23
6.402056496898095
 33
0.0
  0
MTEXT
  5
1EF
330
1E8
100
AcDbEntity
  8
0
 62
     4
100
AcDbMText
 10
9.621002274490251
 20
7.337589267952374
 30
0.0
 40
0.125
 41
0.0
 71
     5
 72
     1
  1
\A1;1.875
  7
Standard
 73
     1
 44
1.0
  0
POINT
  5
1F0
330
1E8
100
AcDbEntity
  8
Defpoints
 62
     0
100
AcDbPoint
 10
7.669224403958946
 20
8.277056496898074
 30
0.0
  0
POINT
  5
1F1
330
1E8
100
AcDbEntity
  8
Defpoints
 62
     0
100
AcDbPoint
 10
7.669224403958946
 20
6.402056496898095
 30
0.0
  0
POINT
  5
1F2
330
1E8
100
AcDbEntity
  8
Defpoints
 62
     0
100
AcDbPoint
 10
9.621002274490253
 20
6.402056496898095
 30
0.0
  0
ENDBLK
  5
1F4
330
1E8
100
AcDbEntity
  8
0
100
AcDbBlockEnd
  0
BLOCK
  5
200
330
1F5
100
AcDbEntity
  8
0
100
AcDbBlockBegin
  2
*D15
 70
     1
 10
0.0
 20
0.0
 30
0.0
  3
*D15
  1

  0
LINE
  5
1F6
330
1F5
100
AcDbEntity
  8
0
 62
     1
370
    -2
100
AcDbLine
 10
4.279224403958952
 20
8.167056496898085
 30
0.0
 11
2.364988720296739
 21
8.167056496898087
 31
0.0
  0
LINE
  5
1F7
330
1F5
100
AcDbEntity
  8
0
 62
     1
370
    -2
100
AcDbLine
 10
4.294224403958956
 20
6.512056496898084
 30
0.0
 11
2.364988720296738
 21
6.512056496898084
 31
0.0
  0
LINE
  5
1F8
330
1F5
100
AcDbEntity
  8
0
 62
     1
370
    -2
100
AcDbLine
 10
2.464988720296739
 20
7.987056496898087
 30
0.0
 11
2.464988720296739
 21
7.505487034591498
 31
0.0
  0
LINE
  5
1F9
330
1F5
100
AcDbEntity
  8
0
 62
     1
370
    -2
100
AcDbLine
 10
2.464988720296738
 20
6.692056496898084
 30
0.0
 11
2.464988720296739
 21
7.197843787661074
 31
0.0
  0
SOLID
  5
1FA
330
1F5
100
AcDbEntity
  8
0
 62
     1
100
AcDbTrace
 10
2.434988720296739
 20
7.987056496898087
 30
0.0
 11
2.494988720296738
 21
7.987056496898087
 31
0.0
 12
2.464988720296739
 22
8.167056496898087
 32
0.0
 13
2.464988720296739
 23
8.167056496898087
 33
0.0
  0
SOLID
  5
1FB
330
1F5
100
AcDbEntity
  8
0
 62
     1
100
AcDbTrace
 10
2.434988720296738
 20
6.692056496898084
 30
0.0
 11
2.494988720296738
 21
6.692056496898084
 31
0.0
 12
2.464988720296738
 22
6.512056496898084
 32
0.0
 13
2.464988720296738
 23
6.512056496898084
 33
0.0
  0
MTEXT
  5
1FC
330
1F5
100
AcDbEntity
  8
0
 62
     4
100
AcDbMText
 10
2.464988720296737
 20
7.351665411126287
 30
0.0
 40
0.125
 41
0.0
 71
     5
 72
     1
  1
\A1;1.655
  7
Standard
 73
     1
 44
1.0
  0
POINT
  5
1FD
330
1F5
100
AcDbEntity
  8
Defpoints
 62
     0
100
AcDbPoint
 10
4.404224403958952
 20
8.167056496898085
 30
0.0
  0
POINT
  5
1FE
330
1F5
100
AcDbEntity
  8
Defpoints
 62
     0
100
AcDbPoint
 10
4.419224403958956
 20
6.512056496898084
 30
0.0
  0
POINT
  5
1FF
330
1F5
100
AcDbEntity
  8
Defpoints
 62
     0
100
AcDbPoint
 10
2.464988720296738
 20
6.512056496898084
 30
0.0
  0
ENDBLK
  5
201
330
1F5
100
AcDbEntity
  8
0
100
AcDbBlockEnd
  0
BLOCK
  5
20D
330
202
100
AcDbEntity
  8
0
100
AcDbBlockBegin
  2
*D16
 70
     1
 10
0.0
 20
0.0
 30
0.0
  3
*D16
  1

  0
LINE
  5
203
330
202
100
AcDbEntity
  8
0
 62
     1
370
    -2
100
AcDbLine
 10
4.279224403958952
 20
8.167056496898085
 30
0.0
 11
4.279224403958952
 21
9.684304501055381
 31
0.0
  0
LINE
  5
204
330
202
100
AcDbEntity
  8
0
 62
     1
370
    -2
100
AcDbLine
 10
7.55922440395895
 20
8.167056496898085
 30
0.0
 11
7.55922440395895
 21
9.684304501055381
 31
0.0
  0
LINE
  5
205
330
202
100
AcDbEntity
  8
0
 62
     1
370
    -2
100
AcDbLine
 10
4.459224403958952
 20
9.584304501055381
 30
0.0
 11
5.568250806090878
 21
9.584304501055381
 31
0.0
  0
LINE
  5
206
330
202
100
AcDbEntity
  8
0
 62
     1
370
    -2
100
AcDbLine
 10
7.37922440395895
 20
9.584304501055381
 30
0.0
 11
6.169550260388286
 21
9.584304501055381
 31
0.0
  0
SOLID
  5
207
330
202
100
AcDbEntity
  8
0
 62
     1
100
AcDbTrace
 10
4.459224403958952
 20
9.61430450105538
 30
0.0
 11
4.459224403958952
 21
9.554304501055382
 31
0.0
 12
4.279224403958952
 22
9.584304501055381
 32
0.0
 13
4.279224403958952
 23
9.584304501055381
 33
0.0
  0
SOLID
  5
208
330
202
100
AcDbEntity
  8
0
 62
     1
100
AcDbTrace
 10
7.37922440395895
 20
9.61430450105538
 30
0.0
 11
7.37922440395895
 21
9.554304501055382
 31
0.0
 12
7.55922440395895
 22
9.584304501055381
 32
0.0
 13
7.55922440395895
 23
9.584304501055381
 33
0.0
  0
MTEXT
  5
209
330
202
100
AcDbEntity
  8
0
 62
     4
100
AcDbMText
 10
5.868900533239582
 20
9.584304501055381
 30
0.0
 40
0.125
 41
0.0
 71
     5
 72
     1
  1
\A1;3.280
  7
Standard
 73
     1
 44
1.0
  0
POINT
  5
20A
330
202
100
AcDbEntity
  8
Defpoints
 62
     0
100
AcDbPoint
 10
4.279224403958952
 20
8.042056496898085
 30
0.0
  0
POINT
  5
20B
330
202
100
AcDbEntity
  8
Defpoints
 62
     0
100
AcDbPoint
 10
7.55922440395895
 20
8.042056496898085
 30
0.0
  0
POINT
  5
20C
330
202
100
AcDbEntity
  8
Defpoints
 62
     0
100
AcDbPoint
 10
7.55922440395895
 20
9.584304501055381
 30
0.0
  0
ENDBLK
  5
20E
330
202
100
AcDbEntity
  8
0
100
AcDbBlockEnd
  0
BLOCK
  5
216
330
20F
100
AcDbEntity
  8
0
100
AcDbBlockBegin
  2
*D17
 70
     1
 10
0.0
 20
0.0
 30
0.0
  3
*D17
  1

  0
LINE
  5
210
330
20F
100
AcDbEntity
  8
0
 62
     1
370
    -2
100
AcDbLine
 10
8.390412497696113
 20
5.240674245485934
 30
0.0
 11
8.210412497696113
 21
5.240674245485934
 31
0.0
  0
LINE
  5
211
330
20F
100
AcDbEntity
  8
0
 62
     1
370
    -2
100
AcDbLine
 10
8.210412497696113
 20
5.240674245485934
 30
0.0
 11
7.553206655431366
 21
6.413048638679187
 31
0.0
  0
MTEXT
  5
212
330
20F
100
AcDbEntity
  8
0
 62
     4
100
AcDbMText
 10
8.913862361270464
 20
5.240674245485933
 30
0.0
 40
0.125
 41
0.0
 71
     5
 72
     1
  1
\A1;%%c0.090 ID\P\U+22050.188 OD\P(4 PLCS)
  7
Standard
 73
     1
 44
1.0
  0
SOLID
  5
213
330
20F
100
AcDbEntity
  8
0
 62
     1
100
AcDbTrace
 10
7.579375399031975
 20
6.427718228256459
 30
0.0
 11
7.527037911830757
 21
6.398379049101916
 31
0.0
 12
7.465189117967735
 22
6.570061100282838
 32
0.0
 13
7.465189117967735
 23
6.570061100282838
 33
0.0
  0
POINT
  5
214
330
20F
100
AcDbEntity
  8
Defpoints
 62
     0
100
AcDbPoint
 10
7.465189117967735
 20
6.570061100282838
 30
0.0
  0
POINT
  5
215
330
20F
100
AcDbEntity
  8
Defpoints
 62
     0
100
AcDbPoint
 10
7.373259689950162
 20
6.734051893513319
 30
0.0
  0
ENDBLK
  5
217
330
20F
100
AcDbEntity
  8
0
100
AcDbBlockEnd
  0
BLOCK
  5
224
330
218
100
AcDbEntity
  8
0
100
AcDbBlockBegin
  2
*D18
 70
     1
 10
0.0
 20
0.0
 30
0.0
  3
*D18
  1

  0
LINE
  5
219
330
218
100
AcDbEntity
  8
0
 62
     1
370
    -2
100
AcDbLine
 10
4.450224403958941
 20
3.021655652115517
 30
0.0
 11
4.848716903967131
 21
3.021655652115517
 31
0.0
  0
LINE
  5
21A
330
218
100
AcDbEntity
  8
0
 62
     1
370
    -2
100
AcDbLine
 10
4.445860637726894
 20
2.771655652115517
 30
0.0
 11
4.848716903967131
 21
2.771655652115517
 31
0.0
  0
LINE
  5
21B
330
218
100
AcDbEntity
  8
0
 62
     1
370
    -2
100
AcDbLine
 10
4.748716903967132
 20
3.201655652115517
 30
0.0
 11
4.748716903967132
 21
3.381655652115517
 31
0.0
  0
LINE
  5
21C
330
218
100
AcDbEntity
  8
0
 62
     1
370
    -2
100
AcDbLine
 10
4.748716903967132
 20
2.591655652115517
 30
0.0
 11
4.748716903967132
 21
2.411655652115517
 31
0.0
  0
LINE
  5
21D
330
218
100
AcDbEntity
  8
0
 62
     1
370
    -2
100
AcDbLine
 10
4.748716903967132
 20
2.411655652115517
 30
0.0
 11
4.568716903967132
 21
2.411655652115517
 31
0.0
  0
SOLID
  5
21E
330
218
100
AcDbEntity
  8
0
 62
     1
100
AcDbTrace
 10
4.718716903967131
 20
3.201655652115517
 30
0.0
 11
4.778716903967132
 21
3.201655652115517
 31
0.0
 12
4.748716903967132
 22
3.021655652115517
 32
0.0
 13
4.748716903967132
 23
3.021655652115517
 33
0.0
  0
SOLID
  5
21F
330
218
100
AcDbEntity
  8
0
 62
     1
100
AcDbTrace
 10
4.718716903967131
 20
2.591655652115517
 30
0.0
 11
4.778716903967132
 21
2.591655652115517
 31
0.0
 12
4.748716903967132
 22
2.771655652115517
 32
0.0
 13
4.748716903967132
 23
2.771655652115517
 33
0.0
  0
MTEXT
  5
220
330
218
100
AcDbEntity
  8
0
 62
     4
100
AcDbMText
 10
4.26802454380342
 20
2.411655652115518
 30
0.0
 40
0.125
 41
0.0
 71
     5
 72
     1
  1
\A1;0.250
  7
Standard
 73
     1
 44
1.0
  0
POINT
  5
221
330
218
100
AcDbEntity
  8
Defpoints
 62
     0
100
AcDbPoint
 10
4.325224403958941
 20
3.021655652115517
 30
0.0
  0
POINT
  5
222
330
218
100
AcDbEntity
  8
Defpoints
 62
     0
100
AcDbPoint
 10
4.320860637726894
 20
2.771655652115517
 30
0.0
  0
POINT
  5
223
330
218
100
AcDbEntity
  8
Defpoints
 62
     0
100
AcDbPoint
 10
4.748716903967132
 20
2.771655652115517
 30
0.0
  0
ENDBLK
  5
225
330
218
100
AcDbEntity
  8
0
100
AcDbBlockEnd
  0
BLOCK
  5
3FC
330
233
100
AcDbEntity
  8
0
100
AcDbBlockBegin
  2
PT-11642
 70
     0
 10
0.0
 20
0.0
 30
0.0
  3
PT-11642
  1

  0
MTEXT
  5
234
330
233
100
AcDbEntity
  8
0
 62
     4
100
AcDbMText
 10
-0.8070336689668316
 20
67.51711972535979
 30
0.0
 40
0.125
 41
0.0
 71
     6
 72
     1
  1
\A1;
  7
Standard
 73
     1
 44
1.0
  0
MTEXT
  5
235
330
233
100
AcDbEntity
  8
0
 62
     4
100
AcDbMText
 10
-1.965100724569212
 20
67.84148780027966
 30
0.0
 40
0.125
 41
0.0
 71
     4
 72
     1
  1
\A1;
  7
Standard
 73
     1
 44
1.0
  0
MTEXT
  5
236
330
233
100
AcDbEntity
  8
0
 62
     4
100
AcDbMText
 10
-6.041926682906855
 20
65.3836474358754
 30
0.0
 40
0.125
 41
0.0
 71
     6
 72
     1
  1
\A1;
  7
Standard
 73
     1
 44
1.0
  0
MTEXT
  5
237
330
233
100
AcDbEntity
  8
0
 62
     4
100
AcDbMText
 10
-5.537880456161553
 20
64.83799918167474
 30
0.0
 40
0.125
 41
0.0
 71
     6
 72
     1
  1
\A1;
  7
Standard
 73
     1
 44
1.0
  0
MTEXT
  5
238
330
233
100
AcDbEntity
  8
0
 62
     4
100
AcDbMText
 10
-5.909973487149692
 20
63.59426384598022
 30
0.0
 40
0.125
 41
0.0
 71
     6
 72
     1
  1
\A1;
  7
Standard
 73
     1
 44
1.0
  0
MTEXT
  5
239
330
233
100
AcDbEntity
  8
0
 62
     4
100
AcDbMText
 10
-5.857254284497835
 20
63.34358492132217
 30
0.0
 40
0.125
 41
0.0
 71
     6
 72
     1
  1
\A1;
  7
Standard
 73
     1
 44
1.0
  0
MTEXT
  5
23A
330
233
100
AcDbEntity
  8
0
 62
     4
100
AcDbMText
 10
8.903714375528473
 20
51.97441435155942
 30
0.0
 40
0.125
 41
0.0
 71
     6
 72
     1
  1
\A1;
  7
Standard
 73
     1
 44
1.0
  0
MTEXT
  5
23B
330
233
100
AcDbEntity
  8
0
 62
     4
100
AcDbMText
 10
14.88870373717059
 20
50.02370191900953
 30
0.0
 40
0.125
 41
0.0
 71
     4
 72
     1
  1
\A1;
  7
Standard
 73
     1
 44
1.0
  0
MTEXT
  5
23C
330
233
100
AcDbEntity
  8
0
 62
     4
100
AcDbMText
 10
-11.78150703266406
 20
44.58165929598728
 30
0.0
 40
0.125
 41
0.0
 71
     4
 72
     1
  1
\A1;
  7
Standard
 73
     1
 44
1.0
  0
MTEXT
  5
23D
330
233
100
AcDbEntity
  8
0
 62
     4
100
AcDbMText
 10
-15.72258932311332
 20
40.82755492596499
 30
0.0
 40
0.125
 41
0.0
 71
     6
 72
     1
  1
\A1;
  7
Standard
 73
     1
 44
1.0
  0
MTEXT
  5
23E
330
233
100
AcDbEntity
  8
0
 62
     4
100
AcDbMText
 10
-15.4076345334646
 20
41.57804832460016
 30
0.0
 40
0.125
 41
0.0
 71
     6
 72
     1
  1
\A1;
  7
Standard
 73
     1
 44
1.0
  0
MTEXT
  5
23F
330
233
100
AcDbEntity
  8
0
 62
     4
100
AcDbMText
 10
-15.83565000716195
 20
42.1267961868691
 30
0.0
 40
0.125
 41
0.0
 71
     6
 72
     1
  1
\A1;
  7
Standard
 73
     1
 44
1.0
  0
MTEXT
  5
240
330
233
100
AcDbEntity
  8
0
 62
     4
100
AcDbMText
 10
-7.372913639482967
 20
43.78250221593378
 30
0.0
 40
0.125
 41
0.0
 71
     6
 72
     1
  1
\A1;
  7
Standard
 73
     1
 44
1.0
  0
MTEXT
  5
241
330
233
100
AcDbEntity
  8
0
 62
     4
100
AcDbMText
 10
-1.50073435664244
 20
41.84545023057957
 30
0.0
 40
0.125
 41
0.0
 71
     4
 72
     1
  1
\A1;
  7
Standard
 73
     1
 44
1.0
  0
MTEXT
  5
242
330
233
100
AcDbEntity
  8
0
 62
     5
100
AcDbMText
 10
-11.49583188566252
 20
44.50584176503876
 30
0.0
 40
0.125
 41
0.0
 71
     4
 72
     1
  1
\A1;
  7
Standard
 73
     1
 44
1.0
  0
MTEXT
  5
243
330
233
100
AcDbEntity
  8
0
 62
     5
100
AcDbMText
 10
-15.58418743486616
 20
41.88876579128193
 30
0.0
 40
0.125
 41
0.0
 71
     6
 72
     1
  1
\A1;
  7
Standard
 73
     1
 44
1.0
  0
MTEXT
  5
244
330
233
100
AcDbEntity
  8
0
 62
     5
100
AcDbMText
 10
-15.3172110556729
 20
41.24168246713973
 30
0.0
 40
0.125
 41
0.0
 71
     6
 72
     1
  1
\A1;
  7
Standard
 73
     1
 44
1.0
  0
MTEXT
  5
245
330
233
100
AcDbEntity
  8
0
 62
     5
100
AcDbMText
 10
-15.59469883475312
 20
40.53043223583091
 30
0.0
 40
0.125
 41
0.0
 71
     6
 72
     1
  1
\A1;
  7
Standard
 73
     1
 44
1.0
  0
MTEXT
  5
246
330
233
100
AcDbEntity
  8
0
 62
     5
100
AcDbMText
 10
-15.62338167340203
 20
39.50555614419904
 30
0.0
 40
0.125
 41
0.0
 71
     6
 72
     1
  1
\A1;
  7
Standard
 73
     1
 44
1.0
  0
MTEXT
  5
247
330
233
100
AcDbEntity
  8
0
 62
     5
100
AcDbMText
 10
-7.385930437192151
 20
44.02887613045534
 30
0.0
 40
0.125
 41
0.0
 71
     6
 72
     1
  1
\A1;
  7
Standard
 73
     1
 44
1.0
  0
MTEXT
  5
248
330
233
100
AcDbEntity
  8
0
 62
     5
100
AcDbMText
 10
-1.530568950739053
 20
41.65014115011655
 30
0.0
 40
0.125
 41
0.0
 71
     4
 72
     1
  1
\A1;
  7
Standard
 73
     1
 44
1.0
  0
MTEXT
  5
249
330
233
100
AcDbEntity
  8
0
 62
     5
100
AcDbMText
 10
-6.129934397015937
 20
37.84672558496987
 30
0.0
 40
0.125
 41
0.0
 71
     4
 72
     1
  1
\A1;
  7
Standard
 73
     1
 44
1.0
  0
MTEXT
  5
24A
330
233
100
AcDbEntity
  8
0
 62
     4
100
AcDbMText
 10
5.048457438376209
 20
7.279241988369494
 30
0.0
 40
0.125
 41
0.0
 71
     4
 72
     1
  1
\A1;
  7
Standard
 73
     1
 44
1.0
  0
MTEXT
  5
24B
330
233
100
AcDbEntity
  8
0
 62
     4
100
AcDbMText
 10
31.39501476040504
 20
101.4315803903305
 30
0.0
 40
0.125
 41
0.0
 71
     6
 72
     1
  1
\A1;
  7
Standard
 73
     1
 44
1.0
  0
MTEXT
  5
24C
330
233
100
AcDbEntity
  8
0
 62
     4
100
AcDbMText
 10
30.23694770480266
 20
101.7559484652504
 30
0.0
 40
0.125
 41
0.0
 71
     4
 72
     1
  1
\A1;
  7
Standard
 73
     1
 44
1.0
  0
MTEXT
  5
24D
330
233
100
AcDbEntity
  8
0
 62
     4
100
AcDbMText
 10
26.16012174646501
 20
99.29810810084614
 30
0.0
 40
0.125
 41
0.0
 71
     6
 72
     1
  1
\A1;
  7
Standard
 73
     1
 44
1.0
  0
MTEXT
  5
24E
330
233
100
AcDbEntity
  8
0
 62
     4
100
AcDbMText
 10
26.66416797321032
 20
98.75245984664548
 30
0.0
 40
0.125
 41
0.0
 71
     6
 72
     1
  1
\A1;
  7
Standard
 73
     1
 44
1.0
  0
MTEXT
  5
24F
330
233
100
AcDbEntity
  8
0
 62
     4
100
AcDbMText
 10
26.29207494222217
 20
97.50872451095096
 30
0.0
 40
0.125
 41
0.0
 71
     6
 72
     1
  1
\A1;
  7
Standard
 73
     1
 44
1.0
  0
MTEXT
  5
250
330
233
100
AcDbEntity
  8
0
 62
     4
100
AcDbMText
 10
26.34479414487403
 20
97.25804558629292
 30
0.0
 40
0.125
 41
0.0
 71
     6
 72
     1
  1
\A1;
  7
Standard
 73
     1
 44
1.0
  0
MTEXT
  5
251
330
233
100
AcDbEntity
  8
0
 62
     4
100
AcDbMText
 10
41.10576280490034
 20
85.88887501653017
 30
0.0
 40
0.125
 41
0.0
 71
     6
 72
     1
  1
\A1;
  7
Standard
 73
     1
 44
1.0
  0
MTEXT
  5
252
330
233
100
AcDbEntity
  8
0
 62
     4
100
AcDbMText
 10
47.09075216654245
 20
83.93816258398027
 30
0.0
 40
0.125
 41
0.0
 71
     4
 72
     1
  1
\A1;
  7
Standard
 73
     1
 44
1.0
  0
MTEXT
  5
253
330
233
100
AcDbEntity
  8
0
 62
     4
100
AcDbMText
 10
20.42054139670781
 20
78.49611996095802
 30
0.0
 40
0.125
 41
0.0
 71
     4
 72
     1
  1
\A1;
  7
Standard
 73
     1
 44
1.0
  0
MTEXT
  5
254
330
233
100
AcDbEntity
  8
0
 62
     4
100
AcDbMText
 10
16.47945910625854
 20
74.74201559093572
 30
0.0
 40
0.125
 41
0.0
 71
     6
 72
     1
  1
\A1;
  7
Standard
 73
     1
 44
1.0
  0
MTEXT
  5
255
330
233
100
AcDbEntity
  8
0
 62
     4
100
AcDbMText
 10
16.79441389590726
 20
75.49250898957089
 30
0.0
 40
0.125
 41
0.0
 71
     6
 72
     1
  1
\A1;
  7
Standard
 73
     1
 44
1.0
  0
MTEXT
  5
256
330
233
100
AcDbEntity
  8
0
 62
     4
100
AcDbMText
 10
16.36639842220992
 20
76.04125685183984
 30
0.0
 40
0.125
 41
0.0
 71
     6
 72
     1
  1
\A1;
  7
Standard
 73
     1
 44
1.0
  0
MTEXT
  5
257
330
233
100
AcDbEntity
  8
0
 62
     4
100
AcDbMText
 10
24.8291347898889
 20
77.69696288090452
 30
0.0
 40
0.125
 41
0.0
 71
     6
 72
     1
  1
\A1;
  7
Standard
 73
     1
 44
1.0
  0
MTEXT
  5
258
330
233
100
AcDbEntity
  8
0
 62
     4
100
AcDbMText
 10
30.70131407272943
 20
75.75991089555031
 30
0.0
 40
0.125
 41
0.0
 71
     4
 72
     1
  1
\A1;
  7
Standard
 73
     1
 44
1.0
  0
MTEXT
  5
259
330
233
100
AcDbEntity
  8
0
 62
     5
100
AcDbMText
 10
20.70621654370934
 20
78.4203024300095
 30
0.0
 40
0.125
 41
0.0
 71
     4
 72
     1
  1
\A1;
  7
Standard
 73
     1
 44
1.0
  0
MTEXT
  5
25A
330
233
100
AcDbEntity
  8
0
 62
     5
100
AcDbMText
 10
16.6178609945057
 20
75.80322645625267
 30
0.0
 40
0.125
 41
0.0
 71
     6
 72
     1
  1
\A1;
  7
Standard
 73
     1
 44
1.0
  0
MTEXT
  5
25B
330
233
100
AcDbEntity
  8
0
 62
     5
100
AcDbMText
 10
16.88483737369897
 20
75.15614313211047
 30
0.0
 40
0.125
 41
0.0
 71
     6
 72
     1
  1
\A1;
  7
Standard
 73
     1
 44
1.0
  0
MTEXT
  5
25C
330
233
100
AcDbEntity
  8
0
 62
     5
100
AcDbMText
 10
16.60734959461874
 20
74.44489290080165
 30
0.0
 40
0.125
 41
0.0
 71
     6
 72
     1
  1
\A1;
  7
Standard
 73
     1
 44
1.0
  0
MTEXT
  5
25D
330
233
100
AcDbEntity
  8
0
 62
     5
100
AcDbMText
 10
16.57866675596984
 20
73.42001680916978
 30
0.0
 40
0.125
 41
0.0
 71
     6
 72
     1
  1
\A1;
  7
Standard
 73
     1
 44
1.0
  0
MTEXT
  5
25E
330
233
100
AcDbEntity
  8
0
 62
     5
100
AcDbMText
 10
24.81611799217972
 20
77.94333679542607
 30
0.0
 40
0.125
 41
0.0
 71
     6
 72
     1
  1
\A1;
  7
Standard
 73
     1
 44
1.0
  0
MTEXT
  5
25F
330
233
100
AcDbEntity
  8
0
 62
     5
100
AcDbMText
 10
30.67147947863281
 20
75.56460181508729
 30
0.0
 40
0.125
 41
0.0
 71
     4
 72
     1
  1
\A1;
  7
Standard
 73
     1
 44
1.0
  0
MTEXT
  5
260
330
233
100
AcDbEntity
  8
0
 62
     5
100
AcDbMText
 10
26.07211403235593
 20
71.7611862499406
 30
0.0
 40
0.125
 41
0.0
 71
     4
 72
     1
  1
\A1;
  7
Standard
 73
     1
 44
1.0
  0
MTEXT
  5
261
330
233
100
AcDbEntity
  8
0
 62
     4
100
AcDbMText
 10
37.25050586774808
 20
41.19370265334022
 30
0.0
 40
0.125
 41
0.0
 71
     4
 72
     1
  1
\A1;
  7
Standard
 73
     1
 44
1.0
  0
MTEXT
  5
262
330
233
100
AcDbEntity
  8
0
 62
     4
100
AcDbMText
 10
52.49179025705924
 20
106.2546685718837
 30
0.0
 40
0.125
 41
0.0
 71
     6
 72
     1
  1
\A1;
  7
Standard
 73
     1
 44
1.0
  0
MTEXT
  5
263
330
233
100
AcDbEntity
  8
0
 62
     4
100
AcDbMText
 10
51.33372320145686
 20
106.5790366468035
 30
0.0
 40
0.125
 41
0.0
 71
     4
 72
     1
  1
\A1;
  7
Standard
 73
     1
 44
1.0
  0
MTEXT
  5
264
330
233
100
AcDbEntity
  8
0
 62
     4
100
AcDbMText
 10
47.25689724311922
 20
104.1211962823993
 30
0.0
 40
0.125
 41
0.0
 71
     6
 72
     1
  1
\A1;
  7
Standard
 73
     1
 44
1.0
  0
MTEXT
  5
265
330
233
100
AcDbEntity
  8
0
 62
     4
100
AcDbMText
 10
47.76094346986452
 20
103.5755480281986
 30
0.0
 40
0.125
 41
0.0
 71
     6
 72
     1
  1
\A1;
  7
Standard
 73
     1
 44
1.0
  0
MTEXT
  5
266
330
233
100
AcDbEntity
  8
0
 62
     4
100
AcDbMText
 10
47.38885043887638
 20
102.3318126925041
 30
0.0
 40
0.125
 41
0.0
 71
     6
 72
     1
  1
\A1;
  7
Standard
 73
     1
 44
1.0
  0
MTEXT
  5
267
330
233
100
AcDbEntity
  8
0
 62
     4
100
AcDbMText
 10
47.44156964152824
 20
102.081133767846
 30
0.0
 40
0.125
 41
0.0
 71
     6
 72
     1
  1
\A1;
  7
Standard
 73
     1
 44
1.0
  0
MTEXT
  5
268
330
233
100
AcDbEntity
  8
0
 62
     4
100
AcDbMText
 10
62.20253830155455
 20
90.71196319808334
 30
0.0
 40
0.125
 41
0.0
 71
     6
 72
     1
  1
\A1;
  7
Standard
 73
     1
 44
1.0
  0
MTEXT
  5
269
330
233
100
AcDbEntity
  8
0
 62
     4
100
AcDbMText
 10
68.18752766319666
 20
88.76125076553345
 30
0.0
 40
0.125
 41
0.0
 71
     4
 72
     1
  1
\A1;
  7
Standard
 73
     1
 44
1.0
  0
MTEXT
  5
26A
330
233
100
AcDbEntity
  8
0
 62
     4
100
AcDbMText
 10
41.51731689336201
 20
83.3192081425112
 30
0.0
 40
0.125
 41
0.0
 71
     4
 72
     1
  1
\A1;
  7
Standard
 73
     1
 44
1.0
  0
MTEXT
  5
26B
330
233
100
AcDbEntity
  8
0
 62
     4
100
AcDbMText
 10
37.57623460291275
 20
79.56510377248889
 30
0.0
 40
0.125
 41
0.0
 71
     6
 72
     1
  1
\A1;
  7
Standard
 73
     1
 44
1.0
  0
MTEXT
  5
26C
330
233
100
AcDbEntity
  8
0
 62
     4
100
AcDbMText
 10
37.89118939256147
 20
80.31559717112406
 30
0.0
 40
0.125
 41
0.0
 71
     6
 72
     1
  1
\A1;
  7
Standard
 73
     1
 44
1.0
  0
MTEXT
  5
26D
330
233
100
AcDbEntity
  8
0
 62
     4
100
AcDbMText
 10
37.46317391886412
 20
80.86434503339301
 30
0.0
 40
0.125
 41
0.0
 71
     6
 72
     1
  1
\A1;
  7
Standard
 73
     1
 44
1.0
  0
MTEXT
  5
26E
330
233
100
AcDbEntity
  8
0
 62
     4
100
AcDbMText
 10
45.9259102865431
 20
82.52005106245769
 30
0.0
 40
0.125
 41
0.0
 71
     6
 72
     1
  1
\A1;
  7
Standard
 73
     1
 44
1.0
  0
MTEXT
  5
26F
330
233
100
AcDbEntity
  8
0
 62
     4
100
AcDbMText
 10
51.79808956938363
 20
80.58299907710347
 30
0.0
 40
0.125
 41
0.0
 71
     4
 72
     1
  1
\A1;
  7
Standard
 73
     1
 44
1.0
  0
MTEXT
  5
270
330
233
100
AcDbEntity
  8
0
 62
     5
100
AcDbMText
 10
41.80299204036354
 20
83.24339061156267
 30
0.0
 40
0.125
 41
0.0
 71
     4
 72
     1
  1
\A1;
  7
Standard
 73
     1
 44
1.0
  0
MTEXT
  5
271
330
233
100
AcDbEntity
  8
0
 62
     5
100
AcDbMText
 10
37.7146364911599
 20
80.62631463780585
 30
0.0
 40
0.125
 41
0.0
 71
     6
 72
     1
  1
\A1;
  7
Standard
 73
     1
 44
1.0
  0
MTEXT
  5
272
330
233
100
AcDbEntity
  8
0
 62
     5
100
AcDbMText
 10
37.98161287035317
 20
79.97923131366365
 30
0.0
 40
0.125
 41
0.0
 71
     6
 72
     1
  1
\A1;
  7
Standard
 73
     1
 44
1.0
  0
MTEXT
  5
273
330
233
100
AcDbEntity
  8
0
 62
     5
100
AcDbMText
 10
37.70412509127295
 20
79.26798108235482
 30
0.0
 40
0.125
 41
0.0
 71
     6
 72
     1
  1
\A1;
  7
Standard
 73
     1
 44
1.0
  0
MTEXT
  5
274
330
233
100
AcDbEntity
  8
0
 62
     5
100
AcDbMText
 10
37.67544225262404
 20
78.24310499072296
 30
0.0
 40
0.125
 41
0.0
 71
     6
 72
     1
  1
\A1;
  7
Standard
 73
     1
 44
1.0
  0
MTEXT
  5
275
330
233
100
AcDbEntity
  8
0
 62
     5
100
AcDbMText
 10
45.91289348883392
 20
82.76642497697926
 30
0.0
 40
0.125
 41
0.0
 71
     6
 72
     1
  1
\A1;
  7
Standard
 73
     1
 44
1.0
  0
MTEXT
  5
276
330
233
100
AcDbEntity
  8
0
 62
     5
100
AcDbMText
 10
51.76825497528702
 20
80.38768999664046
 30
0.0
 40
0.125
 41
0.0
 71
     4
 72
     1
  1
\A1;
  7
Standard
 73
     1
 44
1.0
  0
MTEXT
  5
277
330
233
100
AcDbEntity
  8
0
 62
     5
100
AcDbMText
 10
47.16888952901014
 20
76.58427443149378
 30
0.0
 40
0.125
 41
0.0
 71
     4
 72
     1
  1
\A1;
  7
Standard
 73
     1
 44
1.0
  0
MTEXT
  5
278
330
233
100
AcDbEntity
  8
0
 62
     4
100
AcDbMText
 10
58.34728136440229
 20
46.01679083489339
 30
0.0
 40
0.125
 41
0.0
 71
     4
 72
     1
  1
\A1;
  7
Standard
 73
     1
 44
1.0
  0
MTEXT
  5
279
330
233
100
AcDbEntity
  8
0
 62
     4
100
AcDbMText
 10
84.69383868643111
 20
140.1691292368544
 30
0.0
 40
0.125
 41
0.0
 71
     6
 72
     1
  1
\A1;
  7
Standard
 73
     1
 44
1.0
  0
MTEXT
  5
27A
330
233
100
AcDbEntity
  8
0
 62
     4
100
AcDbMText
 10
83.53577163082873
 20
140.4934973117743
 30
0.0
 40
0.125
 41
0.0
 71
     4
 72
     1
  1
\A1;
  7
Standard
 73
     1
 44
1.0
  0
MTEXT
  5
27B
330
233
100
AcDbEntity
  8
0
 62
     4
100
AcDbMText
 10
79.45894567249109
 20
138.03565694737
 30
0.0
 40
0.125
 41
0.0
 71
     6
 72
     1
  1
\A1;
  7
Standard
 73
     1
 44
1.0
  0
MTEXT
  5
27C
330
233
100
AcDbEntity
  8
0
 62
     4
100
AcDbMText
 10
79.96299189923639
 20
137.4900086931693
 30
0.0
 40
0.125
 41
0.0
 71
     6
 72
     1
  1
\A1;
  7
Standard
 73
     1
 44
1.0
  0
MTEXT
  5
27D
330
233
100
AcDbEntity
  8
0
 62
     4
100
AcDbMText
 10
79.59089886824824
 20
136.2462733574748
 30
0.0
 40
0.125
 41
0.0
 71
     6
 72
     1
  1
\A1;
  7
Standard
 73
     1
 44
1.0
  0
MTEXT
  5
27E
330
233
100
AcDbEntity
  8
0
 62
     4
100
AcDbMText
 10
79.64361807090011
 20
135.9955944328168
 30
0.0
 40
0.125
 41
0.0
 71
     6
 72
     1
  1
\A1;
  7
Standard
 73
     1
 44
1.0
  0
MTEXT
  5
27F
330
233
100
AcDbEntity
  8
0
 62
     4
100
AcDbMText
 10
94.4045867309264
 20
124.626423863054
 30
0.0
 40
0.125
 41
0.0
 71
     6
 72
     1
  1
\A1;
  7
Standard
 73
     1
 44
1.0
  0
MTEXT
  5
280
330
233
100
AcDbEntity
  8
0
 62
     4
100
AcDbMText
 10
100.3895760925685
 20
122.6757114305041
 30
0.0
 40
0.125
 41
0.0
 71
     4
 72
     1
  1
\A1;
  7
Standard
 73
     1
 44
1.0
  0
MTEXT
  5
281
330
233
100
AcDbEntity
  8
0
 62
     4
100
AcDbMText
 10
73.71936532273389
 20
117.2336688074819
 30
0.0
 40
0.125
 41
0.0
 71
     4
 72
     1
  1
\A1;
  7
Standard
 73
     1
 44
1.0
  0
MTEXT
  5
282
330
233
100
AcDbEntity
  8
0
 62
     4
100
AcDbMText
 10
69.77828303228462
 20
113.4795644374596
 30
0.0
 40
0.125
 41
0.0
 71
     6
 72
     1
  1
\A1;
  7
Standard
 73
     1
 44
1.0
  0
MTEXT
  5
283
330
233
100
AcDbEntity
  8
0
 62
     4
100
AcDbMText
 10
70.09323782193334
 20
114.2300578360948
 30
0.0
 40
0.125
 41
0.0
 71
     6
 72
     1
  1
\A1;
  7
Standard
 73
     1
 44
1.0
  0
MTEXT
  5
284
330
233
100
AcDbEntity
  8
0
 62
     4
100
AcDbMText
 10
69.665222348236
 20
114.7788056983637
 30
0.0
 40
0.125
 41
0.0
 71
     6
 72
     1
  1
\A1;
  7
Standard
 73
     1
 44
1.0
  0
MTEXT
  5
285
330
233
100
AcDbEntity
  8
0
 62
     4
100
AcDbMText
 10
78.12795871591498
 20
116.4345117274284
 30
0.0
 40
0.125
 41
0.0
 71
     6
 72
     1
  1
\A1;
  7
Standard
 73
     1
 44
1.0
  0
MTEXT
  5
286
330
233
100
AcDbEntity
  8
0
 62
     4
100
AcDbMText
 10
84.0001379987555
 20
114.4974597420742
 30
0.0
 40
0.125
 41
0.0
 71
     4
 72
     1
  1
\A1;
  7
Standard
 73
     1
 44
1.0
  0
MTEXT
  5
287
330
233
100
AcDbEntity
  8
0
 62
     5
100
AcDbMText
 10
74.00504046973542
 20
117.1578512765334
 30
0.0
 40
0.125
 41
0.0
 71
     4
 72
     1
  1
\A1;
  7
Standard
 73
     1
 44
1.0
  0
MTEXT
  5
288
330
233
100
AcDbEntity
  8
0
 62
     5
100
AcDbMText
 10
69.91668492053178
 20
114.5407753027765
 30
0.0
 40
0.125
 41
0.0
 71
     6
 72
     1
  1
\A1;
  7
Standard
 73
     1
 44
1.0
  0
MTEXT
  5
289
330
233
100
AcDbEntity
  8
0
 62
     5
100
AcDbMText
 10
70.18366129972505
 20
113.8936919786343
 30
0.0
 40
0.125
 41
0.0
 71
     6
 72
     1
  1
\A1;
  7
Standard
 73
     1
 44
1.0
  0
MTEXT
  5
28A
330
233
100
AcDbEntity
  8
0
 62
     5
100
AcDbMText
 10
69.90617352064481
 20
113.1824417473255
 30
0.0
 40
0.125
 41
0.0
 71
     6
 72
     1
  1
\A1;
  7
Standard
 73
     1
 44
1.0
  0
MTEXT
  5
28B
330
233
100
AcDbEntity
  8
0
 62
     5
100
AcDbMText
 10
69.8774906819959
 20
112.1575656556936
 30
0.0
 40
0.125
 41
0.0
 71
     6
 72
     1
  1
\A1;
  7
Standard
 73
     1
 44
1.0
  0
MTEXT
  5
28C
330
233
100
AcDbEntity
  8
0
 62
     5
100
AcDbMText
 10
78.1149419182058
 20
116.6808856419499
 30
0.0
 40
0.125
 41
0.0
 71
     6
 72
     1
  1
\A1;
  7
Standard
 73
     1
 44
1.0
  0
MTEXT
  5
28D
330
233
100
AcDbEntity
  8
0
 62
     5
100
AcDbMText
 10
83.97030340465889
 20
114.3021506616112
 30
0.0
 40
0.125
 41
0.0
 71
     4
 72
     1
  1
\A1;
  7
Standard
 73
     1
 44
1.0
  0
MTEXT
  5
28E
330
233
100
AcDbEntity
  8
0
 62
     5
100
AcDbMText
 10
79.370937958382
 20
110.4987350964645
 30
0.0
 40
0.125
 41
0.0
 71
     4
 72
     1
  1
\A1;
  7
Standard
 73
     1
 44
1.0
  0
MTEXT
  5
28F
330
233
100
AcDbEntity
  8
0
 62
     4
100
AcDbMText
 10
90.54932979377415
 20
79.93125149986413
 30
0.0
 40
0.125
 41
0.0
 71
     4
 72
     1
  1
\A1;
  7
Standard
 73
     1
 44
1.0
  0
MTEXT
  5
290
330
233
100
AcDbEntity
  8
0
 62
     4
100
AcDbMText
 10
64.39164729354153
 20
75.50842324156405
 30
0.0
 40
0.125
 41
0.0
 71
     6
 72
     1
  1
\A1;
  7
Standard
 73
     1
 44
1.0
  0
MTEXT
  5
291
330
233
100
AcDbEntity
  8
0
 62
     4
100
AcDbMText
 10
63.23358023793916
 20
75.83279131648392
 30
0.0
 40
0.125
 41
0.0
 71
     4
 72
     1
  1
\A1;
  7
Standard
 73
     1
 44
1.0
  0
MTEXT
  5
292
330
233
100
AcDbEntity
  8
0
 62
     4
100
AcDbMText
 10
59.15675427960152
 20
73.37495095207966
 30
0.0
 40
0.125
 41
0.0
 71
     6
 72
     1
  1
\A1;
  7
Standard
 73
     1
 44
1.0
  0
MTEXT
  5
293
330
233
100
AcDbEntity
  8
0
 62
     4
100
AcDbMText
 10
59.66080050634682
 20
72.829302697879
 30
0.0
 40
0.125
 41
0.0
 71
     6
 72
     1
  1
\A1;
  7
Standard
 73
     1
 44
1.0
  0
MTEXT
  5
294
330
233
100
AcDbEntity
  8
0
 62
     4
100
AcDbMText
 10
59.28870747535868
 20
71.58556736218447
 30
0.0
 40
0.125
 41
0.0
 71
     6
 72
     1
  1
\A1;
  7
Standard
 73
     1
 44
1.0
  0
MTEXT
  5
295
330
233
100
AcDbEntity
  8
0
 62
     4
100
AcDbMText
 10
59.34142667801054
 20
71.33488843752643
 30
0.0
 40
0.125
 41
0.0
 71
     6
 72
     1
  1
\A1;
  7
Standard
 73
     1
 44
1.0
  0
MTEXT
  5
296
330
233
100
AcDbEntity
  8
0
 62
     4
100
AcDbMText
 10
74.10239533803684
 20
59.96571786776367
 30
0.0
 40
0.125
 41
0.0
 71
     6
 72
     1
  1
\A1;
  7
Standard
 73
     1
 44
1.0
  0
MTEXT
  5
297
330
233
100
AcDbEntity
  8
0
 62
     4
100
AcDbMText
 10
80.08738469967896
 20
58.01500543521378
 30
0.0
 40
0.125
 41
0.0
 71
     4
 72
     1
  1
\A1;
  7
Standard
 73
     1
 44
1.0
  0
MTEXT
  5
298
330
233
100
AcDbEntity
  8
0
 62
     4
100
AcDbMText
 10
53.41717392984431
 20
52.57296281219154
 30
0.0
 40
0.125
 41
0.0
 71
     4
 72
     1
  1
\A1;
  7
Standard
 73
     1
 44
1.0
  0
MTEXT
  5
299
330
233
100
AcDbEntity
  8
0
 62
     4
100
AcDbMText
 10
49.47609163939505
 20
48.81885844216924
 30
0.0
 40
0.125
 41
0.0
 71
     6
 72
     1
  1
\A1;
  7
Standard
 73
     1
 44
1.0
  0
MTEXT
  5
29A
330
233
100
AcDbEntity
  8
0
 62
     4
100
AcDbMText
 10
49.79104642904378
 20
49.56935184080442
 30
0.0
 40
0.125
 41
0.0
 71
     6
 72
     1
  1
\A1;
  7
Standard
 73
     1
 44
1.0
  0
MTEXT
  5
29B
330
233
100
AcDbEntity
  8
0
 62
     4
100
AcDbMText
 10
49.36303095534642
 20
50.11809970307336
 30
0.0
 40
0.125
 41
0.0
 71
     6
 72
     1
  1
\A1;
  7
Standard
 73
     1
 44
1.0
  0
MTEXT
  5
29C
330
233
100
AcDbEntity
  8
0
 62
     4
100
AcDbMText
 10
57.8257673230254
 20
51.77380573213804
 30
0.0
 40
0.125
 41
0.0
 71
     6
 72
     1
  1
\A1;
  7
Standard
 73
     1
 44
1.0
  0
MTEXT
  5
29D
330
233
100
AcDbEntity
  8
0
 62
     4
100
AcDbMText
 10
63.69794660586594
 20
49.83675374678383
 30
0.0
 40
0.125
 41
0.0
 71
     4
 72
     1
  1
\A1;
  7
Standard
 73
     1
 44
1.0
  0
MTEXT
  5
29E
330
233
100
AcDbEntity
  8
0
 62
     5
100
AcDbMText
 10
53.70284907684585
 20
52.49714528124302
 30
0.0
 40
0.125
 41
0.0
 71
     4
 72
     1
  1
\A1;
  7
Standard
 73
     1
 44
1.0
  0
MTEXT
  5
29F
330
233
100
AcDbEntity
  8
0
 62
     5
100
AcDbMText
 10
49.61449352764221
 20
49.88006930748619
 30
0.0
 40
0.125
 41
0.0
 71
     6
 72
     1
  1
\A1;
  7
Standard
 73
     1
 44
1.0
  0
MTEXT
  5
2A0
330
233
100
AcDbEntity
  8
0
 62
     5
100
AcDbMText
 10
49.88146990683548
 20
49.23298598334399
 30
0.0
 40
0.125
 41
0.0
 71
     6
 72
     1
  1
\A1;
  7
Standard
 73
     1
 44
1.0
  0
MTEXT
  5
2A1
330
233
100
AcDbEntity
  8
0
 62
     5
100
AcDbMText
 10
49.60398212775525
 20
48.52173575203517
 30
0.0
 40
0.125
 41
0.0
 71
     6
 72
     1
  1
\A1;
  7
Standard
 73
     1
 44
1.0
  0
MTEXT
  5
2A2
330
233
100
AcDbEntity
  8
0
 62
     5
100
AcDbMText
 10
49.57529928910634
 20
47.4968596604033
 30
0.0
 40
0.125
 41
0.0
 71
     6
 72
     1
  1
\A1;
  7
Standard
 73
     1
 44
1.0
  0
MTEXT
  5
2A3
330
233
100
AcDbEntity
  8
0
 62
     5
100
AcDbMText
 10
57.81275052531622
 20
52.0201796466596
 30
0.0
 40
0.125
 41
0.0
 71
     6
 72
     1
  1
\A1;
  7
Standard
 73
     1
 44
1.0
  0
MTEXT
  5
2A4
330
233
100
AcDbEntity
  8
0
 62
     5
100
AcDbMText
 10
63.66811201176933
 20
49.64144466632081
 30
0.0
 40
0.125
 41
0.0
 71
     4
 72
     1
  1
\A1;
  7
Standard
 73
     1
 44
1.0
  0
MTEXT
  5
2A5
330
233
100
AcDbEntity
  8
0
 62
     5
100
AcDbMText
 10
59.06874656549244
 20
45.83802910117412
 30
0.0
 40
0.125
 41
0.0
 71
     4
 72
     1
  1
\A1;
  7
Standard
 73
     1
 44
1.0
  0
MTEXT
  5
2A6
330
233
100
AcDbEntity
  8
0
 62
     4
100
AcDbMText
 10
70.24713840088458
 20
15.27054550457375
 30
0.0
 40
0.125
 41
0.0
 71
     4
 72
     1
  1
\A1;
  7
Standard
 73
     1
 44
1.0
  0
MTEXT
  5
2A7
330
233
100
AcDbEntity
  8
0
 62
     4
100
AcDbMText
 10
-0.7978928445078076
 20
79.44746483241772
 30
0.0
 40
0.125
 41
0.0
 71
     6
 72
     1
  1
\A1;
  7
Standard
 73
     1
 44
1.0
  0
MTEXT
  5
2A8
330
233
100
AcDbEntity
  8
0
 62
     4
100
AcDbMText
 10
-1.955959900110187
 20
79.77183290733759
 30
0.0
 40
0.125
 41
0.0
 71
     4
 72
     1
  1
\A1;
  7
Standard
 73
     1
 44
1.0
  0
MTEXT
  5
2A9
330
233
100
AcDbEntity
  8
0
 62
     4
100
AcDbMText
 10
-6.032785858447831
 20
77.31399254293333
 30
0.0
 40
0.125
 41
0.0
 71
     6
 72
     1
  1
\A1;
  7
Standard
 73
     1
 44
1.0
  0
MTEXT
  5
2AA
330
233
100
AcDbEntity
  8
0
 62
     4
100
AcDbMText
 10
-5.528739631702529
 20
76.76834428873269
 30
0.0
 40
0.125
 41
0.0
 71
     6
 72
     1
  1
\A1;
  7
Standard
 73
     1
 44
1.0
  0
MTEXT
  5
2AB
330
233
100
AcDbEntity
  8
0
 62
     4
100
AcDbMText
 10
-5.900832662690668
 20
75.52460895303815
 30
0.0
 40
0.125
 41
0.0
 71
     6
 72
     1
  1
\A1;
  7
Standard
 73
     1
 44
1.0
  0
MTEXT
  5
2AC
330
233
100
AcDbEntity
  8
0
 62
     4
100
AcDbMText
 10
-5.848113460038811
 20
75.2739300283801
 30
0.0
 40
0.125
 41
0.0
 71
     6
 72
     1
  1
\A1;
  7
Standard
 73
     1
 44
1.0
  0
MTEXT
  5
2AD
330
233
100
AcDbEntity
  8
0
 62
     4
100
AcDbMText
 10
8.912855199987497
 20
63.90475945861736
 30
0.0
 40
0.125
 41
0.0
 71
     6
 72
     1
  1
\A1;
  7
Standard
 73
     1
 44
1.0
  0
MTEXT
  5
2AE
330
233
100
AcDbEntity
  8
0
 62
     4
100
AcDbMText
 10
14.89784456162961
 20
61.95404702606747
 30
0.0
 40
0.125
 41
0.0
 71
     4
 72
     1
  1
\A1;
  7
Standard
 73
     1
 44
1.0
  0
MTEXT
  5
2AF
330
233
100
AcDbEntity
  8
0
 62
     4
100
AcDbMText
 10
-11.77236620820503
 20
56.51200440304522
 30
0.0
 40
0.125
 41
0.0
 71
     4
 72
     1
  1
\A1;
  7
Standard
 73
     1
 44
1.0
  0
MTEXT
  5
2B0
330
233
100
AcDbEntity
  8
0
 62
     4
100
AcDbMText
 10
-15.7134484986543
 20
52.75790003302293
 30
0.0
 40
0.125
 41
0.0
 71
     6
 72
     1
  1
\A1;
  7
Standard
 73
     1
 44
1.0
  0
MTEXT
  5
2B1
330
233
100
AcDbEntity
  8
0
 62
     4
100
AcDbMText
 10
-15.39849370900557
 20
53.5083934316581
 30
0.0
 40
0.125
 41
0.0
 71
     6
 72
     1
  1
\A1;
  7
Standard
 73
     1
 44
1.0
  0
MTEXT
  5
2B2
330
233
100
AcDbEntity
  8
0
 62
     4
100
AcDbMText
 10
-15.82650918270292
 20
54.05714129392704
 30
0.0
 40
0.125
 41
0.0
 71
     6
 72
     1
  1
\A1;
  7
Standard
 73
     1
 44
1.0
  0
MTEXT
  5
2B3
330
233
100
AcDbEntity
  8
0
 62
     4
100
AcDbMText
 10
-7.363772815023943
 20
55.71284732299172
 30
0.0
 40
0.125
 41
0.0
 71
     6
 72
     1
  1
\A1;
  7
Standard
 73
     1
 44
1.0
  0
MTEXT
  5
2B4
330
233
100
AcDbEntity
  8
0
 62
     4
100
AcDbMText
 10
-1.491593532183416
 20
53.77579533763751
 30
0.0
 40
0.125
 41
0.0
 71
     4
 72
     1
  1
\A1;
  7
Standard
 73
     1
 44
1.0
  0
MTEXT
  5
2B5
330
233
100
AcDbEntity
  8
0
 62
     5
100
AcDbMText
 10
-11.4866910612035
 20
56.4361868720967
 30
0.0
 40
0.125
 41
0.0
 71
     4
 72
     1
  1
\A1;
  7
Standard
 73
     1
 44
1.0
  0
MTEXT
  5
2B6
330
233
100
AcDbEntity
  8
0
 62
     5
100
AcDbMText
 10
-15.57504661040714
 20
53.81911089833987
 30
0.0
 40
0.125
 41
0.0
 71
     6
 72
     1
  1
\A1;
  7
Standard
 73
     1
 44
1.0
  0
MTEXT
  5
2B7
330
233
100
AcDbEntity
  8
0
 62
     5
100
AcDbMText
 10
-15.30807023121387
 20
53.17202757419767
 30
0.0
 40
0.125
 41
0.0
 71
     6
 72
     1
  1
\A1;
  7
Standard
 73
     1
 44
1.0
  0
MTEXT
  5
2B8
330
233
100
AcDbEntity
  8
0
 62
     5
100
AcDbMText
 10
-15.5855580102941
 20
52.46077734288885
 30
0.0
 40
0.125
 41
0.0
 71
     6
 72
     1
  1
\A1;
  7
Standard
 73
     1
 44
1.0
  0
MTEXT
  5
2B9
330
233
100
AcDbEntity
  8
0
 62
     5
100
AcDbMText
 10
-15.614240848943
 20
51.43590125125698
 30
0.0
 40
0.125
 41
0.0
 71
     6
 72
     1
  1
\A1;
  7
Standard
 73
     1
 44
1.0
  0
MTEXT
  5
2BA
330
233
100
AcDbEntity
  8
0
 62
     5
100
AcDbMText
 10
-7.376789612733127
 20
55.95922123751329
 30
0.0
 40
0.125
 41
0.0
 71
     6
 72
     1
  1
\A1;
  7
Standard
 73
     1
 44
1.0
  0
MTEXT
  5
2BB
330
233
100
AcDbEntity
  8
0
 62
     5
100
AcDbMText
 10
-1.521428126280029
 20
53.58048625717449
 30
0.0
 40
0.125
 41
0.0
 71
     4
 72
     1
  1
\A1;
  7
Standard
 73
     1
 44
1.0
  0
MTEXT
  5
2BC
330
233
100
AcDbEntity
  8
0
 62
     5
100
AcDbMText
 10
-6.120793572556913
 20
49.77707069202781
 30
0.0
 40
0.125
 41
0.0
 71
     4
 72
     1
  1
\A1;
  7
Standard
 73
     1
 44
1.0
  0
MTEXT
  5
2BD
330
233
100
AcDbEntity
  8
0
 62
     4
100
AcDbMText
 10
5.057598262835234
 20
19.20958709542743
 30
0.0
 40
0.125
 41
0.0
 71
     4
 72
     1
  1
\A1;
  7
Standard
 73
     1
 44
1.0
  0
MTEXT
  5
2BE
330
233
100
AcDbEntity
  8
0
 62
     4
100
AcDbMText
 10
31.40415558486406
 20
113.3619254973884
 30
0.0
 40
0.125
 41
0.0
 71
     6
 72
     1
  1
\A1;
  7
Standard
 73
     1
 44
1.0
  0
MTEXT
  5
2BF
330
233
100
AcDbEntity
  8
0
 62
     4
100
AcDbMText
 10
30.24608852926168
 20
113.6862935723083
 30
0.0
 40
0.125
 41
0.0
 71
     4
 72
     1
  1
\A1;
  7
Standard
 73
     1
 44
1.0
  0
MTEXT
  5
2C0
330
233
100
AcDbEntity
  8
0
 62
     4
100
AcDbMText
 10
26.16926257092404
 20
111.228453207904
 30
0.0
 40
0.125
 41
0.0
 71
     6
 72
     1
  1
\A1;
  7
Standard
 73
     1
 44
1.0
  0
MTEXT
  5
2C1
330
233
100
AcDbEntity
  8
0
 62
     4
100
AcDbMText
 10
26.67330879766934
 20
110.6828049537034
 30
0.0
 40
0.125
 41
0.0
 71
     6
 72
     1
  1
\A1;
  7
Standard
 73
     1
 44
1.0
  0
MTEXT
  5
2C2
330
233
100
AcDbEntity
  8
0
 62
     4
100
AcDbMText
 10
26.3012157666812
 20
109.4390696180088
 30
0.0
 40
0.125
 41
0.0
 71
     6
 72
     1
  1
\A1;
  7
Standard
 73
     1
 44
1.0
  0
MTEXT
  5
2C3
330
233
100
AcDbEntity
  8
0
 62
     4
100
AcDbMText
 10
26.35393496933306
 20
109.1883906933508
 30
0.0
 40
0.125
 41
0.0
 71
     6
 72
     1
  1
\A1;
  7
Standard
 73
     1
 44
1.0
  0
MTEXT
  5
2C4
330
233
100
AcDbEntity
  8
0
 62
     4
100
AcDbMText
 10
41.11490362935937
 20
97.81922012358812
 30
0.0
 40
0.125
 41
0.0
 71
     6
 72
     1
  1
\A1;
  7
Standard
 73
     1
 44
1.0
  0
MTEXT
  5
2C5
330
233
100
AcDbEntity
  8
0
 62
     4
100
AcDbMText
 10
47.09989299100148
 20
95.86850769103822
 30
0.0
 40
0.125
 41
0.0
 71
     4
 72
     1
  1
\A1;
  7
Standard
 73
     1
 44
1.0
  0
MTEXT
  5
2C6
330
233
100
AcDbEntity
  8
0
 62
     4
100
AcDbMText
 10
20.42968222116683
 20
90.42646506801597
 30
0.0
 40
0.125
 41
0.0
 71
     4
 72
     1
  1
\A1;
  7
Standard
 73
     1
 44
1.0
  0
MTEXT
  5
2C7
330
233
100
AcDbEntity
  8
0
 62
     4
100
AcDbMText
 10
16.48859993071757
 20
86.67236069799367
 30
0.0
 40
0.125
 41
0.0
 71
     6
 72
     1
  1
\A1;
  7
Standard
 73
     1
 44
1.0
  0
MTEXT
  5
2C8
330
233
100
AcDbEntity
  8
0
 62
     4
100
AcDbMText
 10
16.80355472036629
 20
87.42285409662883
 30
0.0
 40
0.125
 41
0.0
 71
     6
 72
     1
  1
\A1;
  7
Standard
 73
     1
 44
1.0
  0
MTEXT
  5
2C9
330
233
100
AcDbEntity
  8
0
 62
     4
100
AcDbMText
 10
16.37553924666894
 20
87.97160195889777
 30
0.0
 40
0.125
 41
0.0
 71
     6
 72
     1
  1
\A1;
  7
Standard
 73
     1
 44
1.0
  0
MTEXT
  5
2CA
330
233
100
AcDbEntity
  8
0
 62
     4
100
AcDbMText
 10
24.83827561434793
 20
89.62730798796247
 30
0.0
 40
0.125
 41
0.0
 71
     6
 72
     1
  1
\A1;
  7
Standard
 73
     1
 44
1.0
  0
MTEXT
  5
2CB
330
233
100
AcDbEntity
  8
0
 62
     4
100
AcDbMText
 10
30.71045489718845
 20
87.69025600260823
 30
0.0
 40
0.125
 41
0.0
 71
     4
 72
     1
  1
\A1;
  7
Standard
 73
     1
 44
1.0
  0
MTEXT
  5
2CC
330
233
100
AcDbEntity
  8
0
 62
     5
100
AcDbMText
 10
20.71535736816837
 20
90.35064753706743
 30
0.0
 40
0.125
 41
0.0
 71
     4
 72
     1
  1
\A1;
  7
Standard
 73
     1
 44
1.0
  0
MTEXT
  5
2CD
330
233
100
AcDbEntity
  8
0
 62
     5
100
AcDbMText
 10
16.62700181896473
 20
87.73357156331062
 30
0.0
 40
0.125
 41
0.0
 71
     6
 72
     1
  1
\A1;
  7
Standard
 73
     1
 44
1.0
  0
MTEXT
  5
2CE
330
233
100
AcDbEntity
  8
0
 62
     5
100
AcDbMText
 10
16.89397819815799
 20
87.0864882391684
 30
0.0
 40
0.125
 41
0.0
 71
     6
 72
     1
  1
\A1;
  7
Standard
 73
     1
 44
1.0
  0
MTEXT
  5
2CF
330
233
100
AcDbEntity
  8
0
 62
     5
100
AcDbMText
 10
16.61649041907777
 20
86.3752380078596
 30
0.0
 40
0.125
 41
0.0
 71
     6
 72
     1
  1
\A1;
  7
Standard
 73
     1
 44
1.0
  0
MTEXT
  5
2D0
330
233
100
AcDbEntity
  8
0
 62
     5
100
AcDbMText
 10
16.58780758042886
 20
85.3503619162277
 30
0.0
 40
0.125
 41
0.0
 71
     6
 72
     1
  1
\A1;
  7
Standard
 73
     1
 44
1.0
  0
MTEXT
  5
2D1
330
233
100
AcDbEntity
  8
0
 62
     5
100
AcDbMText
 10
24.82525881663874
 20
89.87368190248401
 30
0.0
 40
0.125
 41
0.0
 71
     6
 72
     1
  1
\A1;
  7
Standard
 73
     1
 44
1.0
  0
MTEXT
  5
2D2
330
233
100
AcDbEntity
  8
0
 62
     5
100
AcDbMText
 10
30.68062030309184
 20
87.49494692214524
 30
0.0
 40
0.125
 41
0.0
 71
     4
 72
     1
  1
\A1;
  7
Standard
 73
     1
 44
1.0
  0
MTEXT
  5
2D3
330
233
100
AcDbEntity
  8
0
 62
     5
100
AcDbMText
 10
26.08125485681496
 20
83.69153135699855
 30
0.0
 40
0.125
 41
0.0
 71
     4
 72
     1
  1
\A1;
  7
Standard
 73
     1
 44
1.0
  0
MTEXT
  5
2D4
330
233
100
AcDbEntity
  8
0
 62
     4
100
AcDbMText
 10
37.2596466922071
 20
53.12404776039816
 30
0.0
 40
0.125
 41
0.0
 71
     4
 72
     1
  1
\A1;
  7
Standard
 73
     1
 44
1.0
  0
MTEXT
  5
2D5
330
233
100
AcDbEntity
  8
0
 62
     4
100
AcDbMText
 10
-0.8478928445078047
 20
79.39746483241774
 30
0.0
 40
0.125
 41
0.0
 71
     6
 72
     1
  1
\A1;
  7
Standard
 73
     1
 44
1.0
  0
MTEXT
  5
2D6
330
233
100
AcDbEntity
  8
0
 62
     4
100
AcDbMText
 10
-2.005959900110185
 20
79.72183290733761
 30
0.0
 40
0.125
 41
0.0
 71
     4
 72
     1
  1
\A1;
  7
Standard
 73
     1
 44
1.0
  0
MTEXT
  5
2D7
330
233
100
AcDbEntity
  8
0
 62
     4
100
AcDbMText
 10
-6.082785858447828
 20
77.26399254293335
 30
0.0
 40
0.125
 41
0.0
 71
     6
 72
     1
  1
\A1;
  7
Standard
 73
     1
 44
1.0
  0
MTEXT
  5
2D8
330
233
100
AcDbEntity
  8
0
 62
     4
100
AcDbMText
 10
-5.578739631702526
 20
76.71834428873268
 30
0.0
 40
0.125
 41
0.0
 71
     6
 72
     1
  1
\A1;
  7
Standard
 73
     1
 44
1.0
  0
MTEXT
  5
2D9
330
233
100
AcDbEntity
  8
0
 62
     4
100
AcDbMText
 10
-5.950832662690666
 20
75.47460895303817
 30
0.0
 40
0.125
 41
0.0
 71
     6
 72
     1
  1
\A1;
  7
Standard
 73
     1
 44
1.0
  0
MTEXT
  5
2DA
330
233
100
AcDbEntity
  8
0
 62
     4
100
AcDbMText
 10
-5.898113460038808
 20
75.22393002838012
 30
0.0
 40
0.125
 41
0.0
 71
     6
 72
     1
  1
\A1;
  7
Standard
 73
     1
 44
1.0
  0
MTEXT
  5
2DB
330
233
100
AcDbEntity
  8
0
 62
     4
100
AcDbMText
 10
8.8628551999875
 20
63.85475945861736
 30
0.0
 40
0.125
 41
0.0
 71
     6
 72
     1
  1
\A1;
  7
Standard
 73
     1
 44
1.0
  0
MTEXT
  5
2DC
330
233
100
AcDbEntity
  8
0
 62
     4
100
AcDbMText
 10
14.84784456162961
 20
61.90404702606747
 30
0.0
 40
0.125
 41
0.0
 71
     4
 72
     1
  1
\A1;
  7
Standard
 73
     1
 44
1.0
  0
MTEXT
  5
2DD
330
233
100
AcDbEntity
  8
0
 62
     4
100
AcDbMText
 10
-11.82236620820503
 20
56.46200440304522
 30
0.0
 40
0.125
 41
0.0
 71
     4
 72
     1
  1
\A1;
  7
Standard
 73
     1
 44
1.0
  0
MTEXT
  5
2DE
330
233
100
AcDbEntity
  8
0
 62
     4
100
AcDbMText
 10
-15.7634484986543
 20
52.70790003302293
 30
0.0
 40
0.125
 41
0.0
 71
     6
 72
     1
  1
\A1;
  7
Standard
 73
     1
 44
1.0
  0
MTEXT
  5
2DF
330
233
100
AcDbEntity
  8
0
 62
     4
100
AcDbMText
 10
-15.44849370900557
 20
53.4583934316581
 30
0.0
 40
0.125
 41
0.0
 71
     6
 72
     1
  1
\A1;
  7
Standard
 73
     1
 44
1.0
  0
MTEXT
  5
2E0
330
233
100
AcDbEntity
  8
0
 62
     4
100
AcDbMText
 10
-15.87650918270292
 20
54.00714129392704
 30
0.0
 40
0.125
 41
0.0
 71
     6
 72
     1
  1
\A1;
  7
Standard
 73
     1
 44
1.0
  0
MTEXT
  5
2E1
330
233
100
AcDbEntity
  8
0
 62
     4
100
AcDbMText
 10
-7.41377281502394
 20
55.66284732299173
 30
0.0
 40
0.125
 41
0.0
 71
     6
 72
     1
  1
\A1;
  7
Standard
 73
     1
 44
1.0
  0
MTEXT
  5
2E2
330
233
100
AcDbEntity
  8
0
 62
     4
100
AcDbMText
 10
-1.541593532183413
 20
53.72579533763751
 30
0.0
 40
0.125
 41
0.0
 71
     4
 72
     1
  1
\A1;
  7
Standard
 73
     1
 44
1.0
  0
MTEXT
  5
2E3
330
233
100
AcDbEntity
  8
0
 62
     5
100
AcDbMText
 10
-11.53669106120349
 20
56.38618687209671
 30
0.0
 40
0.125
 41
0.0
 71
     4
 72
     1
  1
\A1;
  7
Standard
 73
     1
 44
1.0
  0
MTEXT
  5
2E4
330
233
100
AcDbEntity
  8
0
 62
     5
100
AcDbMText
 10
-15.62504661040714
 20
53.76911089833988
 30
0.0
 40
0.125
 41
0.0
 71
     6
 72
     1
  1
\A1;
  7
Standard
 73
     1
 44
1.0
  0
MTEXT
  5
2E5
330
233
100
AcDbEntity
  8
0
 62
     5
100
AcDbMText
 10
-15.35807023121387
 20
53.12202757419768
 30
0.0
 40
0.125
 41
0.0
 71
     6
 72
     1
  1
\A1;
  7
Standard
 73
     1
 44
1.0
  0
MTEXT
  5
2E6
330
233
100
AcDbEntity
  8
0
 62
     5
100
AcDbMText
 10
-15.63555801029409
 20
52.41077734288886
 30
0.0
 40
0.125
 41
0.0
 71
     6
 72
     1
  1
\A1;
  7
Standard
 73
     1
 44
1.0
  0
MTEXT
  5
2E7
330
233
100
AcDbEntity
  8
0
 62
     5
100
AcDbMText
 10
-15.664240848943
 20
51.38590125125698
 30
0.0
 40
0.125
 41
0.0
 71
     6
 72
     1
  1
\A1;
  7
Standard
 73
     1
 44
1.0
  0
MTEXT
  5
2E8
330
233
100
AcDbEntity
  8
0
 62
     5
100
AcDbMText
 10
-7.426789612733124
 20
55.90922123751329
 30
0.0
 40
0.125
 41
0.0
 71
     6
 72
     1
  1
\A1;
  7
Standard
 73
     1
 44
1.0
  0
MTEXT
  5
2E9
330
233
100
AcDbEntity
  8
0
 62
     5
100
AcDbMText
 10
-1.571428126280026
 20
53.53048625717449
 30
0.0
 40
0.125
 41
0.0
 71
     4
 72
     1
  1
\A1;
  7
Standard
 73
     1
 44
1.0
  0
MTEXT
  5
2EA
330
233
100
AcDbEntity
  8
0
 62
     5
100
AcDbMText
 10
-6.17079357255691
 20
49.72707069202781
 30
0.0
 40
0.125
 41
0.0
 71
     4
 72
     1
  1
\A1;
  7
Standard
 73
     1
 44
1.0
  0
MTEXT
  5
2EB
330
233
100
AcDbEntity
  8
0
 62
     4
100
AcDbMText
 10
5.007598262835236
 20
19.15958709542743
 30
0.0
 40
0.125
 41
0.0
 71
     4
 72
     1
  1
\A1;
  7
Standard
 73
     1
 44
1.0
  0
MTEXT
  5
2EC
330
233
100
AcDbEntity
  8
0
 62
     4
100
AcDbMText
 10
15.79428062654479
 20
91.69837042963033
 30
0.0
 40
0.125
 41
0.0
 71
     6
 72
     1
  1
\A1;
  7
Standard
 73
     1
 44
1.0
  0
MTEXT
  5
2ED
330
233
100
AcDbEntity
  8
0
 62
     4
100
AcDbMText
 10
14.63621357094241
 20
92.0227385045502
 30
0.0
 40
0.125
 41
0.0
 71
     4
 72
     1
  1
\A1;
  7
Standard
 73
     1
 44
1.0
  0
MTEXT
  5
2EE
330
233
100
AcDbEntity
  8
0
 62
     4
100
AcDbMText
 10
10.55938761260477
 20
89.56489814014593
 30
0.0
 40
0.125
 41
0.0
 71
     6
 72
     1
  1
\A1;
  7
Standard
 73
     1
 44
1.0
  0
MTEXT
  5
2EF
330
233
100
AcDbEntity
  8
0
 62
     4
100
AcDbMText
 10
11.06343383935007
 20
89.01924988594528
 30
0.0
 40
0.125
 41
0.0
 71
     6
 72
     1
  1
\A1;
  7
Standard
 73
     1
 44
1.0
  0
MTEXT
  5
2F0
330
233
100
AcDbEntity
  8
0
 62
     4
100
AcDbMText
 10
10.69134080836193
 20
87.77551455025076
 30
0.0
 40
0.125
 41
0.0
 71
     6
 72
     1
  1
\A1;
  7
Standard
 73
     1
 44
1.0
  0
MTEXT
  5
2F1
330
233
100
AcDbEntity
  8
0
 62
     4
100
AcDbMText
 10
10.74406001101379
 20
87.52483562559271
 30
0.0
 40
0.125
 41
0.0
 71
     6
 72
     1
  1
\A1;
  7
Standard
 73
     1
 44
1.0
  0
MTEXT
  5
2F2
330
233
100
AcDbEntity
  8
0
 62
     4
100
AcDbMText
 10
25.5050286710401
 20
76.15566505582996
 30
0.0
 40
0.125
 41
0.0
 71
     6
 72
     1
  1
\A1;
  7
Standard
 73
     1
 44
1.0
  0
MTEXT
  5
2F3
330
233
100
AcDbEntity
  8
0
 62
     4
100
AcDbMText
 10
31.49001803268222
 20
74.20495262328007
 30
0.0
 40
0.125
 41
0.0
 71
     4
 72
     1
  1
\A1;
  7
Standard
 73
     1
 44
1.0
  0
MTEXT
  5
2F4
330
233
100
AcDbEntity
  8
0
 62
     4
100
AcDbMText
 10
4.81980726284757
 20
68.76291000025782
 30
0.0
 40
0.125
 41
0.0
 71
     4
 72
     1
  1
\A1;
  7
Standard
 73
     1
 44
1.0
  0
MTEXT
  5
2F5
330
233
100
AcDbEntity
  8
0
 62
     4
100
AcDbMText
 10
0.8787249723983023
 20
65.00880563023551
 30
0.0
 40
0.125
 41
0.0
 71
     6
 72
     1
  1
\A1;
  7
Standard
 73
     1
 44
1.0
  0
MTEXT
  5
2F6
330
233
100
AcDbEntity
  8
0
 62
     4
100
AcDbMText
 10
1.193679762047027
 20
65.75929902887068
 30
0.0
 40
0.125
 41
0.0
 71
     6
 72
     1
  1
\A1;
  7
Standard
 73
     1
 44
1.0
  0
MTEXT
  5
2F7
330
233
100
AcDbEntity
  8
0
 62
     4
100
AcDbMText
 10
0.7656642883496759
 20
66.30804689113964
 30
0.0
 40
0.125
 41
0.0
 71
     6
 72
     1
  1
\A1;
  7
Standard
 73
     1
 44
1.0
  0
MTEXT
  5
2F8
330
233
100
AcDbEntity
  8
0
 62
     4
100
AcDbMText
 10
9.228400656028661
 20
67.96375292020432
 30
0.0
 40
0.125
 41
0.0
 71
     6
 72
     1
  1
\A1;
  7
Standard
 73
     1
 44
1.0
  0
MTEXT
  5
2F9
330
233
100
AcDbEntity
  8
0
 62
     4
100
AcDbMText
 10
15.10057993886919
 20
66.02670093485011
 30
0.0
 40
0.125
 41
0.0
 71
     4
 72
     1
  1
\A1;
  7
Standard
 73
     1
 44
1.0
  0
MTEXT
  5
2FA
330
233
100
AcDbEntity
  8
0
 62
     5
100
AcDbMText
 10
5.105482409849104
 20
68.6870924693093
 30
0.0
 40
0.125
 41
0.0
 71
     4
 72
     1
  1
\A1;
  7
Standard
 73
     1
 44
1.0
  0
MTEXT
  5
2FB
330
233
100
AcDbEntity
  8
0
 62
     5
100
AcDbMText
 10
1.017126860645461
 20
66.07001649555247
 30
0.0
 40
0.125
 41
0.0
 71
     6
 72
     1
  1
\A1;
  7
Standard
 73
     1
 44
1.0
  0
MTEXT
  5
2FC
330
233
100
AcDbEntity
  8
0
 62
     5
100
AcDbMText
 10
1.28410323983873
 20
65.42293317141028
 30
0.0
 40
0.125
 41
0.0
 71
     6
 72
     1
  1
\A1;
  7
Standard
 73
     1
 44
1.0
  0
MTEXT
  5
2FD
330
233
100
AcDbEntity
  8
0
 62
     5
100
AcDbMText
 10
1.006615460758503
 20
64.71168294010144
 30
0.0
 40
0.125
 41
0.0
 71
     6
 72
     1
  1
\A1;
  7
Standard
 73
     1
 44
1.0
  0
MTEXT
  5
2FE
330
233
100
AcDbEntity
  8
0
 62
     5
100
AcDbMText
 10
0.9779326221095985
 20
63.68680684846958
 30
0.0
 40
0.125
 41
0.0
 71
     6
 72
     1
  1
\A1;
  7
Standard
 73
     1
 44
1.0
  0
MTEXT
  5
2FF
330
233
100
AcDbEntity
  8
0
 62
     5
100
AcDbMText
 10
9.215383858319476
 20
68.21012683472588
 30
0.0
 40
0.125
 41
0.0
 71
     6
 72
     1
  1
\A1;
  7
Standard
 73
     1
 44
1.0
  0
MTEXT
  5
300
330
233
100
AcDbEntity
  8
0
 62
     5
100
AcDbMText
 10
15.07074534477257
 20
65.83139185438708
 30
0.0
 40
0.125
 41
0.0
 71
     4
 72
     1
  1
\A1;
  7
Standard
 73
     1
 44
1.0
  0
MTEXT
  5
301
330
233
100
AcDbEntity
  8
0
 62
     5
100
AcDbMText
 10
10.47137989849569
 20
62.02797628924041
 30
0.0
 40
0.125
 41
0.0
 71
     4
 72
     1
  1
\A1;
  7
Standard
 73
     1
 44
1.0
  0
MTEXT
  5
302
330
233
100
AcDbEntity
  8
0
 62
     4
100
AcDbMText
 10
21.64977173388784
 20
31.46049269264002
 30
0.0
 40
0.125
 41
0.0
 71
     4
 72
     1
  1
\A1;
  7
Standard
 73
     1
 44
1.0
  0
LINE
  5
303
330
233
100
AcDbEntity
  8
SL-42B
  6
CENTER2
 62
     1
100
AcDbLine
 10
8.704224403958956
 20
7.339556496898085
 30
0.0
 11
3.134224403958951
 21
7.339556496898085
 31
0.0
  0
LWPOLYLINE
  5
304
330
233
100
AcDbEntity
  8
SL-42B
  6
HIDDEN2
 62
     4
100
AcDbPolyline
 90
        8
 70
     1
 43
0.0
 10
4.169224403958949
 20
8.598056496898086
 10
7.669224403958956
 20
8.598056496898086
 42
-0.4142135623730951
 10
7.990224403958954
 20
8.277056496898088
 10
7.990224403958956
 20
6.402056496898081
 42
-0.4142135623730951
 10
7.669224403958956
 20
6.081056496898083
 10
4.169224403958949
 20
6.081056496898083
 42
-0.4142135623730951
 10
3.848224403958949
 20
6.402056496898081
 10
3.848224403958949
 20
8.277056496898088
 42
-0.4142135623730951
  0
LWPOLYLINE
  5
305
330
233
100
AcDbEntity
  8
SL-42B
  6
HIDDEN2
 62
     4
100
AcDbPolyline
 90
        8
 70
     1
 43
0.0
 10
4.169224403958949
 20
8.5504329697608
 10
7.669224403958956
 20
8.550432969760796
 42
-0.4142135623730951
 10
7.942600876821668
 20
8.277056496898088
 10
7.942600876821668
 20
6.402056496898081
 42
-0.4142135623730951
 10
7.669224403958956
 20
6.12868002403537
 10
4.169224403958949
 20
6.12868002403537
 42
-0.4142135623730956
 10
3.895847931096238
 20
6.402056496898081
 10
3.895847931096238
 20
8.277056496898088
 42
-0.4142135623730955
  0
LWPOLYLINE
  5
306
330
233
100
AcDbEntity
  8
SL-42B
100
AcDbPolyline
 90
        8
 70
     1
 43
0.0
 10
4.169224403958947
 20
8.652056496898088
 10
7.669224403958944
 20
8.652056496898088
 42
-0.4142135623730951
 10
8.044224403958944
 20
8.277056496898088
 10
8.044224403958944
 20
6.402056496898081
 42
-0.4142135623730961
 10
7.669224403958944
 20
6.027056496898081
 10
4.169224403958947
 20
6.027056496898081
 42
-0.4142135623730952
 10
3.794224403958947
 20
6.402056496898081
 10
3.794224403958947
 20
8.277056496898088
 42
-0.4142135623730951
  0
CIRCLE
  5
307
330
233
100
AcDbEntity
  8
SL-42B
  6
HIDDEN2
 62
     4
100
AcDbCircle
 10
4.16922440395896
 20
6.402056496898095
 30
0.0
 40
0.0450000000000088
  0
CIRCLE
  5
308
330
233
100
AcDbEntity
  8
SL-42B
  6
HIDDEN2
 62
     4
100
AcDbCircle
 10
4.16922440395896
 20
6.402056496898095
 30
0.0
 40
0.0940000000000012
  0
INSERT
  5
309
330
233
100
AcDbEntity
  8
SL-42B
100
AcDbBlockReference
  2
CL
 10
3.134224403958951
 20
7.339556496898085
 30
0.0
  0
CIRCLE
  5
30A
330
233
100
AcDbEntity
  8
SL-42B
  6
HIDDEN2
 62
     4
100
AcDbCircle
 10
4.16922440395896
 20
8.277056496898074
 30
0.0
 40
0.0940000000000012
  0
CIRCLE
  5
30B
330
233
100
AcDbEntity
  8
SL-42B
  6
HIDDEN2
 62
     4
100
AcDbCircle
 10
4.16922440395896
 20
8.277056496898074
 30
0.0
 40
0.0450000000000088
  0
LINE
  5
30C
330
233
100
AcDbEntity
  8
SL-42B
  6
CENTER2
 62
     1
100
AcDbLine
 10
5.919224403958953
 20
5.92705649689808
 30
0.0
 11
5.919224403958953
 21
8.75205649689809
 31
0.0
  0
CIRCLE
  5
30D
330
233
100
AcDbEntity
  8
SL-42B
  6
HIDDEN2
 62
     4
100
AcDbCircle
 10
4.419224403958956
 20
6.652056496898081
 30
0.0
 40
0.0449999999999946
  0
CIRCLE
  5
30E
330
233
100
AcDbEntity
  8
SL-42B
  6
HIDDEN2
 62
     4
100
AcDbCircle
 10
4.419224403958956
 20
6.652056496898081
 30
0.0
 40
0.094
  0
CIRCLE
  5
30F
330
233
100
AcDbEntity
  8
SL-42B
  6
HIDDEN2
 62
     4
100
AcDbCircle
 10
7.419224403958949
 20
6.652056496898081
 30
0.0
 40
0.0449999999999946
  0
CIRCLE
  5
310
330
233
100
AcDbEntity
  8
SL-42B
  6
HIDDEN2
 62
     4
100
AcDbCircle
 10
7.419224403958949
 20
6.652056496898081
 30
0.0
 40
0.094
  0
CIRCLE
  5
311
330
233
100
AcDbEntity
  8
SL-42B
  6
HIDDEN2
 62
     4
100
AcDbCircle
 10
7.669224403958946
 20
6.402056496898095
 30
0.0
 40
0.0940000000000012
  0
CIRCLE
  5
312
330
233
100
AcDbEntity
  8
SL-42B
  6
HIDDEN2
 62
     4
100
AcDbCircle
 10
7.669224403958946
 20
6.402056496898095
 30
0.0
 40
0.0450000000000088
  0
INSERT
  5
313
330
233
100
AcDbEntity
  8
SL-42B
100
AcDbBlockReference
  2
CL
 10
5.919224403958953
 20
8.75205649689809
 30
0.0
  0
CIRCLE
  5
314
330
233
100
AcDbEntity
  8
SL-42B
  6
HIDDEN2
 62
     4
100
AcDbCircle
 10
4.419224403958956
 20
8.027056496898088
 30
0.0
 40
0.0449999999999946
  0
CIRCLE
  5
315
330
233
100
AcDbEntity
  8
SL-42B
  6
HIDDEN2
 62
     4
100
AcDbCircle
 10
4.419224403958956
 20
8.027056496898088
 30
0.0
 40
0.094
  0
CIRCLE
  5
316
330
233
100
AcDbEntity
  8
Defpoints
 62
     4
100
AcDbCircle
 10
5.919224403958953
 20
8.277056496898074
 30
0.0
 40
0.0625
  0
CIRCLE
  5
317
330
233
100
AcDbEntity
  8
SL-42B
  6
HIDDEN2
 62
     4
100
AcDbCircle
 10
7.669224403958946
 20
8.277056496898074
 30
0.0
 40
0.0940000000000012
  0
CIRCLE
  5
318
330
233
100
AcDbEntity
  8
SL-42B
  6
HIDDEN2
 62
     4
100
AcDbCircle
 10
7.419224403958949
 20
8.027056496898088
 30
0.0
 40
0.094
  0
CIRCLE
  5
319
330
233
100
AcDbEntity
  8
SL-42B
  6
HIDDEN2
 62
     4
100
AcDbCircle
 10
7.419224403958949
 20
8.027056496898088
 30
0.0
 40
0.0449999999999946
  0
CIRCLE
  5
31A
330
233
100
AcDbEntity
  8
SL-42B
  6
HIDDEN2
 62
     4
100
AcDbCircle
 10
7.669224403958946
 20
8.277056496898074
 30
0.0
 40
0.0450000000000088
  0
LINE
  5
31B
330
233
100
AcDbEntity
  8
SL-42B
  6
CENTER2
 62
     1
 48
0.5
100
AcDbLine
 10
11.97701584665822
 20
7.339556496898085
 30
0.0
 11
13.31701584665822
 21
7.339556496898085
 31
0.0
  0
INSERT
  5
31C
330
233
100
AcDbEntity
  8
SL-42B
100
AcDbBlockReference
  2
CL
 10
12.29510521911509
 20
7.339556496898085
 30
0.0
  0
LINE
  5
31D
330
233
100
AcDbEntity
  8
SL-42B
  6
HIDDEN2
 62
     4
100
AcDbLine
 10
12.58309436335207
 20
6.081056496898083
 30
0.0
 11
12.58309436335207
 21
8.598056496898086
 31
0.0
  0
LINE
  5
31E
330
233
100
AcDbEntity
  8
SL-42B
100
AcDbLine
 10
12.52109436335208
 20
6.027056496898081
 30
0.0
 11
12.52109436335208
 21
8.652056496898074
 31
0.0
  0
LINE
  5
31F
330
233
100
AcDbEntity
  8
SL-42B
100
AcDbLine
 10
13.27509436335208
 20
6.290339899491668
 30
0.0
 11
13.27509436335208
 21
8.388773094304509
 31
0.0
  0
LINE
  5
320
330
233
100
AcDbEntity
  8
SL-42B
  6
HIDDEN2
 62
     4
100
AcDbLine
 10
13.17509436335208
 20
6.265951698469541
 30
0.0
 11
13.17509436335209
 21
8.413161295326629
 31
0.0
  0
LWPOLYLINE
  5
321
330
233
100
AcDbEntity
  8
SL-42B
  6
HIDDEN2
 62
     4
100
AcDbPolyline
 90
        4
 70
     0
 43
0.0
 10
13.17509436335208
 20
6.553692730666034
 10
12.92509436335208
 20
6.55805649689808
 10
12.92509436335208
 20
6.746056496898082
 10
13.17509436335208
 20
6.750420263130143
  0
LINE
  5
322
330
233
100
AcDbEntity
  8
SL-42B
  6
HIDDEN2
 62
     4
100
AcDbLine
 10
12.92509436335208
 20
6.607056496898087
 30
0.0
 11
13.17509436335208
 21
6.604874779950412
 31
0.0
  0
LWPOLYLINE
  5
323
330
233
100
AcDbEntity
  8
SL-42B
  6
HIDDEN2
 62
     4
100
AcDbPolyline
 90
        4
 70
     0
 43
0.0
 10
13.17509436335208
 20
6.296640884435026
 10
12.52109436335208
 20
6.308056496898098
 10
12.52109436335208
 20
6.4960564968981
 10
13.17509436335208
 20
6.507472109361158
  0
ARC
  5
324
330
233
100
AcDbEntity
  8
SL-42B
100
AcDbCircle
 10
13.02509436335208
 20
6.290339899491668
 30
0.0
 40
0.25
100
AcDbArc
 50
271.5000000000002
 51
0.0
  0
ARC
  5
325
330
233
100
AcDbEntity
  8
SL-42B
  6
HIDDEN2
 62
     4
100
AcDbCircle
 10
13.05009436335208
 20
6.265951698469541
 30
0.0
 40
0.125
100
AcDbArc
 50
271.5000000000002
 51
359.9999999999999
  0
LINE
  5
326
330
233
100
AcDbEntity
  8
SL-42B
100
AcDbLine
 10
12.52109436335208
 20
6.027056496898081
 30
0.0
 11
13.03163860042905
 21
6.040425568247782
 31
0.0
  0
LINE
  5
327
330
233
100
AcDbEntity
  8
SL-42B
  6
HIDDEN2
 62
     4
100
AcDbLine
 10
12.52109436335208
 20
6.081056496898083
 30
0.0
 11
12.58309436335207
 21
6.081056496898083
 31
0.0
  0
LWPOLYLINE
  5
328
330
233
100
AcDbEntity
  8
SL-42B
  6
HIDDEN2
 62
     4
100
AcDbPolyline
 90
        4
 70
     0
 43
0.0
 10
12.52109436335208
 20
6.447056496898094
 10
13.02107532488417
 20
6.442693229148909
 10
13.02107532488417
 20
6.361419764647274
 10
12.52109436335208
 20
6.35705649689809
  0
LINE
  5
329
330
233
100
AcDbEntity
  8
SL-42B
  6
HIDDEN2
 62
     4
100
AcDbLine
 10
12.58309436335207
 20
6.12868002403537
 30
0.0
 11
13.05336648189056
 21
6.140994532847594
 31
0.0
  0
LINE
  5
32A
330
233
100
AcDbEntity
  8
SL-42B
  6
HIDDEN2
 62
     4
100
AcDbLine
 10
12.92509436335208
 20
6.69705649689809
 30
0.0
 11
13.17509436335208
 21
6.699238213845779
 31
0.0
  0
ARC
  5
32B
330
233
100
AcDbEntity
  8
SL-42B
  6
HIDDEN2
 62
     4
100
AcDbCircle
 10
13.05009436335208
 20
8.413161295326629
 30
0.0
 40
0.125
100
AcDbArc
 50
0.0
 51
88.49999999999972
  0
LWPOLYLINE
  5
32C
330
233
100
AcDbEntity
  8
SL-42B
  6
HIDDEN2
 62
     4
100
AcDbPolyline
 90
        4
 70
     0
 43
0.0
 10
13.17509436335208
 20
8.125420263130136
 10
12.92509436335208
 20
8.12105649689809
 10
12.92509436335208
 20
7.933056496898087
 10
13.17509436335208
 20
7.928692730666027
  0
LINE
  5
32D
330
233
100
AcDbEntity
  8
SL-42B
  6
HIDDEN2
 62
     4
100
AcDbLine
 10
12.92509436335208
 20
8.072056496898083
 30
0.0
 11
13.17509436335208
 21
8.074238213845758
 31
0.0
  0
LINE
  5
32E
330
233
100
AcDbEntity
  8
SL-42B
  6
HIDDEN2
 62
     4
100
AcDbLine
 10
12.92509436335208
 20
7.98205649689808
 30
0.0
 11
13.17509436335208
 21
7.979874779950391
 31
0.0
  0
LWPOLYLINE
  5
32F
330
233
100
AcDbEntity
  8
SL-42B
  6
HIDDEN2
 62
     4
100
AcDbPolyline
 90
        4
 70
     0
 43
0.0
 10
13.17509436335208
 20
8.382472109361147
 10
12.52109436335208
 20
8.371056496898075
 10
12.52109436335208
 20
8.183056496898073
 10
13.17509436335208
 20
8.171640884435015
  0
ARC
  5
330
330
233
100
AcDbEntity
  8
SL-42B
100
AcDbCircle
 10
13.02509436335208
 20
8.388773094304509
 30
0.0
 40
0.25
100
AcDbArc
 50
0.0
 51
88.49999999999976
  0
LINE
  5
331
330
233
100
AcDbEntity
  8
SL-42B
100
AcDbLine
 10
12.52109436335208
 20
8.652056496898088
 30
0.0
 11
13.03163860042905
 21
8.638687425548388
 31
0.0
  0
LINE
  5
332
330
233
100
AcDbEntity
  8
SL-42B
  6
HIDDEN2
 62
     4
100
AcDbLine
 10
12.58309436335207
 20
8.5504329697608
 30
0.0
 11
13.05336648189057
 21
8.538118460948576
 31
0.0
  0
LWPOLYLINE
  5
333
330
233
100
AcDbEntity
  8
SL-42B
  6
HIDDEN2
 62
     4
100
AcDbPolyline
 90
        4
 70
     0
 43
0.0
 10
12.52109436335208
 20
8.23205649689808
 10
13.02107532488417
 20
8.236419764647264
 10
13.02107532488417
 20
8.317693229148899
 10
12.52109436335208
 20
8.322056496898083
  0
LINE
  5
334
330
233
100
AcDbEntity
  8
SL-42B
  6
HIDDEN2
 62
     4
100
AcDbLine
 10
12.52109436335208
 20
8.598056496898086
 30
0.0
 11
12.58309436335207
 21
8.598056496898086
 31
0.0
  0
DIMENSION
  5
335
330
233
100
AcDbEntity
  8
0
100
AcDbDimension
  2
*D5
 10
9.848807042031683
 20
2.671655652115515
 30
0.0
 11
9.848807042031683
 21
3.296655652115513
 31
0.0
 70
    32
 71
     5
 42
1.249999999999992
  3
Standard
100
AcDbAlignedDimension
 13
7.788168315718451
 23
3.921655652115509
 33
0.0
 14
7.766871886380354
 24
2.671655652115516
 34
0.0
 50
90.0
100
AcDbRotatedDimension
1001
ACAD
1000
DSTYLE
1002
{
1070
    42
1040
0.125
1070
   272
1070
     3
1002
}
  0
LINE
  5
336
330
233
100
AcDbEntity
  8
SL-42B
100
AcDbLine
 10
4.057507806552527
 20
2.671655652115516
 30
0.0
 11
7.780941001365365
 21
2.671655652115516
 31
0.0
  0
LWPOLYLINE
  5
337
330
233
100
AcDbEntity
  8
SL-42B
  6
HIDDEN2
 62
     4
100
AcDbPolyline
 90
        4
 70
     0
 43
0.0
 10
4.320860637726894
 20
2.771655652115517
 10
4.325224403958941
 20
3.021655652115517
 10
4.513224403958943
 20
3.021655652115517
 10
4.517588170191004
 20
2.771655652115517
  0
LINE
  5
338
330
233
100
AcDbEntity
  8
SL-42B
  6
HIDDEN2
 62
     4
100
AcDbLine
 10
4.033119605530401
 20
2.771655652115514
 30
0.0
 11
7.80532920238749
 21
2.771655652115517
 31
0.0
  0
LINE
  5
339
330
233
100
AcDbEntity
  8
SL-42B
  6
HIDDEN2
 62
     4
100
AcDbLine
 10
3.848224403958942
 20
3.363655652115516
 30
0.0
 11
7.990224403958951
 21
3.363655652115516
 31
0.0
  0
LINE
  5
33A
330
233
100
AcDbEntity
  8
SL-42B
100
AcDbLine
 10
3.79422440395894
 20
3.425655652115517
 30
0.0
 11
8.044224403958939
 21
3.425655652115517
 31
0.0
  0
LINE
  5
33B
330
233
100
AcDbEntity
  8
SL-42B
  6
HIDDEN2
 62
     4
100
AcDbLine
 10
4.464224403958937
 20
3.021655652115517
 30
0.0
 11
4.462042687011233
 21
2.771655652115517
 31
0.0
  0
LINE
  5
33C
330
233
100
AcDbEntity
  8
SL-42B
  6
HIDDEN2
 62
     4
100
AcDbLine
 10
4.374224403958947
 20
3.021655652115517
 30
0.0
 11
4.376406120906651
 21
2.771655652115517
 31
0.0
  0
ARC
  5
33D
330
233
100
AcDbEntity
  8
SL-42B
  6
HIDDEN2
 62
     4
100
AcDbCircle
 10
4.033119605530401
 20
2.896655652115514
 30
0.0
 40
0.125
100
AcDbArc
 50
181.5000000000002
 51
270.0
  0
ARC
  5
33E
330
233
100
AcDbEntity
  8
SL-42B
100
AcDbCircle
 10
4.057507806552527
 20
2.921655652115516
 30
0.0
 40
0.25
100
AcDbArc
 50
181.5000000000002
 51
270.0
  0
LWPOLYLINE
  5
33F
330
233
100
AcDbEntity
  8
SL-42B
  6
HIDDEN2
 62
     4
100
AcDbPolyline
 90
        4
 70
     0
 43
0.0
 10
4.063808791495887
 20
2.771655652115514
 10
4.075224403958959
 20
3.425655652115517
 10
4.263224403958961
 20
3.425655652115517
 10
4.274640016422019
 20
2.771655652115514
  0
LINE
  5
340
330
233
100
AcDbEntity
  8
SL-42B
  6
HIDDEN2
 62
     4
100
AcDbLine
 10
3.848224403958942
 20
3.425655652115517
 30
0.0
 11
3.848224403958942
 21
3.363655652115516
 31
0.0
  0
LWPOLYLINE
  5
341
330
233
100
AcDbEntity
  8
SL-42B
  6
HIDDEN2
 62
     4
100
AcDbPolyline
 90
        4
 70
     0
 43
0.0
 10
4.214224403958954
 20
3.425655652115517
 10
4.20986113620977
 20
2.925674690583432
 10
4.128587671708135
 20
2.925674690583432
 10
4.124224403958951
 20
3.425655652115517
  0
LINE
  5
342
330
233
100
AcDbEntity
  8
SL-42B
100
AcDbLine
 10
3.79422440395894
 20
3.425655652115517
 30
0.0
 11
3.807593475308641
 21
2.915111415038546
 31
0.0
  0
LINE
  5
343
330
233
100
AcDbEntity
  8
SL-42B
  6
HIDDEN2
 62
     4
100
AcDbLine
 10
3.895847931096231
 20
3.363655652115516
 30
0.0
 11
3.908162439908455
 21
2.893383533577031
 31
0.0
  0
INSERT
  5
344
330
233
100
AcDbEntity
  8
SL-42B
100
AcDbBlockReference
  2
CL
 10
5.919224403958946
 20
3.5735752119211
 30
0.0
  0
LINE
  5
345
330
233
100
AcDbEntity
  8
SL-42B
  6
CENTER2
 62
     1
 48
0.5
100
AcDbLine
 10
5.919224403958946
 20
3.911655652115514
 30
0.0
 11
5.919224403958946
 21
2.571655652115521
 31
0.0
  0
ARC
  5
346
330
233
100
AcDbEntity
  8
SL-42B
  6
HIDDEN2
 62
     4
100
AcDbCircle
 10
7.80532920238749
 20
2.896655652115517
 30
0.0
 40
0.125
100
AcDbArc
 50
270.0
 51
358.4999999999997
  0
LWPOLYLINE
  5
347
330
233
100
AcDbEntity
  8
SL-42B
  6
HIDDEN2
 62
     4
100
AcDbPolyline
 90
        4
 70
     0
 43
0.0
 10
7.517588170190997
 20
2.771655652115517
 10
7.51322440395895
 20
3.021655652115517
 10
7.325224403958948
 20
3.021655652115517
 10
7.320860637726887
 20
2.771655652115517
  0
LINE
  5
348
330
233
100
AcDbEntity
  8
SL-42B
  6
HIDDEN2
 62
     4
100
AcDbLine
 10
7.374224403958955
 20
3.021655652115517
 30
0.0
 11
7.376406120906658
 21
2.771655652115517
 31
0.0
  0
LINE
  5
349
330
233
100
AcDbEntity
  8
SL-42B
  6
HIDDEN2
 62
     4
100
AcDbLine
 10
7.464224403958944
 20
3.021655652115517
 30
0.0
 11
7.462042687011241
 21
2.771655652115517
 31
0.0
  0
ARC
  5
34A
330
233
100
AcDbEntity
  8
SL-42B
100
AcDbCircle
 10
7.780941001365365
 20
2.921655652115516
 30
0.0
 40
0.25
100
AcDbArc
 50
270.0
 51
358.4999999999997
  0
LWPOLYLINE
  5
34B
330
233
100
AcDbEntity
  8
SL-42B
  6
HIDDEN2
 62
     4
100
AcDbPolyline
 90
        4
 70
     0
 43
0.0
 10
7.774640016422004
 20
2.771655652115517
 10
7.763224403958933
 20
3.425655652115517
 10
7.57522440395893
 20
3.425655652115517
 10
7.563808791495873
 20
2.771655652115517
  0
LINE
  5
34C
330
233
100
AcDbEntity
  8
SL-42B
  6
HIDDEN2
 62
     4
100
AcDbLine
 10
7.990224403958951
 20
3.425655652115517
 30
0.0
 11
7.990224403958951
 21
3.363655652115516
 31
0.0
  0
LINE
  5
34D
330
233
100
AcDbEntity
  8
SL-42B
100
AcDbLine
 10
8.044224403958953
 20
3.425655652115517
 30
0.0
 11
8.030855332609252
 21
2.91511141503855
 31
0.0
  0
LWPOLYLINE
  5
34E
330
233
100
AcDbEntity
  8
SL-42B
  6
HIDDEN2
 62
     4
100
AcDbPolyline
 90
        4
 70
     0
 43
0.0
 10
7.624224403958937
 20
3.425655652115517
 10
7.628587671708121
 20
2.925674690583432
 10
7.709861136209756
 20
2.925674690583432
 10
7.71422440395894
 20
3.425655652115517
  0
LINE
  5
34F
330
233
100
AcDbEntity
  8
SL-42B
  6
HIDDEN2
 62
     4
100
AcDbLine
 10
7.942600876821661
 20
3.363655652115516
 30
0.0
 11
7.930286368009433
 21
2.893383533577034
 31
0.0
  0
LWPOLYLINE
  5
350
330
233
100
AcDbEntity
  8
SL-42C
100
AcDbPolyline
 90
        8
 70
     1
 43
0.0
 10
7.434224403958953
 20
6.543056496898087
 10
4.404224403958952
 20
6.543056496898087
 42
-0.4142135623730841
 10
4.310224403958955
 20
6.637056496898084
 10
4.310224403958955
 20
8.042056496898085
 42
-0.414213562373084
 10
4.404224403958952
 20
8.136056496898087
 10
7.43422440395895
 20
8.136056496898087
 42
-0.4142135623730951
 10
7.528224403958951
 20
8.042056496898085
 10
7.528224403958954
 20
6.637056496898088
 42
-0.4142135623730951
  0
LWPOLYLINE
  5
351
330
233
100
AcDbEntity
  8
SL-42C
100
AcDbPolyline
 90
        8
 70
     1
 43
0.0
 10
7.559224403958953
 20
6.637056496898088
 42
-0.4142135623730951
 10
7.434224403958953
 20
6.512056496898088
 10
4.404224403958952
 20
6.512056496898084
 42
-0.4142135623730951
 10
4.279224403958952
 20
6.637056496898084
 10
4.279224403958952
 20
8.042056496898085
 42
-0.4142135623730951
 10
4.404224403958952
 20
8.167056496898085
 10
7.43422440395895
 20
8.167056496898085
 42
-0.4142135623730951
 10
7.55922440395895
 20
8.042056496898085
  0
LINE
  5
352
330
233
100
AcDbEntity
  8
SL-42C
100
AcDbLine
 10
7.669224403958949
 20
8.652056496898081
 30
0.0
 11
4.169224403958956
 21
8.652056496898081
 31
0.0
  0
LINE
  5
353
330
233
100
AcDbEntity
  8
SL-42C
  6
HIDDEN2
 62
     4
100
AcDbLine
 10
7.669224403958949
 20
8.59605649689807
 30
0.0
 11
4.169224403958956
 21
8.59605649689807
 31
0.0
  0
LINE
  5
354
330
233
100
AcDbEntity
  8
SL-42C
  6
HIDDEN2
 62
     4
100
AcDbLine
 10
7.669224403958949
 20
8.553417991962485
 30
0.0
 11
4.169224403958956
 21
8.553417991962485
 31
0.0
  0
LINE
  5
355
330
233
100
AcDbEntity
  8
SL-42C
100
AcDbLine
 10
4.169224403958956
 20
6.027056496898088
 30
0.0
 11
7.669224403958949
 21
6.027056496898088
 31
0.0
  0
LINE
  5
356
330
233
100
AcDbEntity
  8
SL-42C
  6
HIDDEN2
 62
     4
100
AcDbLine
 10
4.169224403958956
 20
6.0830564968981
 30
0.0
 11
7.669224403958949
 21
6.0830564968981
 31
0.0
  0
LINE
  5
357
330
233
100
AcDbEntity
  8
SL-42C
  6
HIDDEN2
 62
     4
100
AcDbLine
 10
4.169224403958956
 20
6.125695001833685
 30
0.0
 11
7.669224403958949
 21
6.125695001833685
 31
0.0
  0
LINE
  5
358
330
233
100
AcDbEntity
  8
SL-42C
100
AcDbLine
 10
3.794224403958956
 20
8.277056496898081
 30
0.0
 11
3.794224403958956
 21
6.402056496898088
 31
0.0
  0
LINE
  5
359
330
233
100
AcDbEntity
  8
SL-42C
  6
HIDDEN2
 62
     4
100
AcDbLine
 10
3.850224403958968
 20
8.277056496898081
 30
0.0
 11
3.850224403958968
 21
6.402056496898088
 31
0.0
  0
LINE
  5
35A
330
233
100
AcDbEntity
  8
SL-42C
  6
HIDDEN2
 62
     4
100
AcDbLine
 10
3.892862908894553
 20
8.277056496898081
 30
0.0
 11
3.892862908894553
 21
6.402056496898088
 31
0.0
  0
CIRCLE
  5
35B
330
233
100
AcDbEntity
  8
SL-42C
100
AcDbCircle
 10
4.169224403958946
 20
6.402056496898081
 30
0.0
 40
0.0575968222219956
  0
CIRCLE
  5
35C
330
233
100
AcDbEntity
  8
SL-42C
  6
HIDDEN2
 62
     4
100
AcDbCircle
 10
4.169224403958946
 20
6.402056496898081
 30
0.0
 40
0.1000000000000014
  0
CIRCLE
  5
35D
330
233
100
AcDbEntity
  8
SL-42C
100
AcDbCircle
 10
4.169224403958946
 20
6.402056496898081
 30
0.0
 40
0.127748774442054
  0
LWPOLYLINE
  5
35E
330
233
100
AcDbEntity
  8
SL-42C
  6
HIDDEN2
 62
     4
100
AcDbPolyline
 90
        2
 70
     1
 43
0.0
 10
3.955995483405526
 20
6.317754563600834
 42
5.249201043697456
 10
3.955995483405526
 20
6.486358430195329
  0
ARC
  5
35F
330
233
100
AcDbEntity
  8
SL-42C
  6
HIDDEN2
 62
     4
100
AcDbCircle
 10
4.169224403958956
 20
6.402056496898088
 30
0.0
 40
0.2763614950644033
100
AcDbArc
 50
180.0
 51
270.0
  0
ARC
  5
360
330
233
100
AcDbEntity
  8
SL-42C
100
AcDbCircle
 10
4.169224403958956
 20
6.402056496898088
 30
0.0
 40
0.375
100
AcDbArc
 50
180.0
 51
270.0
  0
ARC
  5
361
330
233
100
AcDbEntity
  8
SL-42C
  6
HIDDEN2
 62
     4
100
AcDbCircle
 10
4.169224403958956
 20
6.402056496898088
 30
0.0
 40
0.3189999999999884
100
AcDbArc
 50
180.0
 51
270.0
  0
LWPOLYLINE
  5
362
330
233
100
AcDbEntity
  8
SL-42C
  6
HIDDEN2
 62
     4
100
AcDbPolyline
 90
        2
 70
     1
 43
0.0
 10
3.955995483405526
 20
6.317754563600834
 42
5.249201043697456
 10
3.955995483405526
 20
6.486358430195329
  0
CIRCLE
  5
363
330
233
100
AcDbEntity
  8
SL-42C
100
AcDbCircle
 10
4.169224403958946
 20
6.402056496898081
 30
0.0
 40
0.127748774442054
  0
CIRCLE
  5
364
330
233
100
AcDbEntity
  8
SL-42C
  6
HIDDEN2
 62
     4
100
AcDbCircle
 10
4.169224403958946
 20
6.402056496898081
 30
0.0
 40
0.1000000000000014
  0
CIRCLE
  5
365
330
233
100
AcDbEntity
  8
SL-42C
100
AcDbCircle
 10
4.169224403958946
 20
6.402056496898081
 30
0.0
 40
0.0575968222219956
  0
POINT
  5
366
330
233
100
AcDbEntity
  8
Defpoints
  6
ByBlock
 62
     0
380
     1
100
AcDbPoint
 10
4.279224403958952
 20
6.637056496898084
 30
0.0
  0
POINT
  5
367
330
233
100
AcDbEntity
  8
Defpoints
  6
ByBlock
 62
     0
380
     1
100
AcDbPoint
 10
4.169224403958946
 20
6.402056496898081
 30
0.0
  0
LWPOLYLINE
  5
368
330
233
100
AcDbEntity
  8
SL-42C
  6
HIDDEN2
 62
     4
100
AcDbPolyline
 90
        2
 70
     1
 43
0.0
 10
3.955995483405526
 20
8.361358430195336
 42
-5.249201043697456
 10
3.955995483405526
 20
8.192754563600841
  0
LWPOLYLINE
  5
369
330
233
100
AcDbEntity
  8
SL-42C
  6
HIDDEN2
 62
     4
100
AcDbPolyline
 90
        2
 70
     1
 43
0.0
 10
3.955995483405526
 20
8.361358430195336
 42
-5.249201043697456
 10
3.955995483405526
 20
8.192754563600841
  0
ARC
  5
36A
330
233
100
AcDbEntity
  8
SL-42C
100
AcDbCircle
 10
4.169224403958956
 20
8.277056496898081
 30
0.0
 40
0.375
100
AcDbArc
 50
90.0
 51
180.0
  0
ARC
  5
36B
330
233
100
AcDbEntity
  8
SL-42C
  6
HIDDEN2
 62
     4
100
AcDbCircle
 10
4.169224403958956
 20
8.277056496898081
 30
0.0
 40
0.3189999999999884
100
AcDbArc
 50
90.0
 51
180.0
  0
ARC
  5
36C
330
233
100
AcDbEntity
  8
SL-42C
  6
HIDDEN2
 62
     4
100
AcDbCircle
 10
4.169224403958956
 20
8.277056496898081
 30
0.0
 40
0.2763614950644033
100
AcDbArc
 50
90.0
 51
180.0
  0
CIRCLE
  5
36D
330
233
100
AcDbEntity
  8
SL-42C
100
AcDbCircle
 10
4.169224403958946
 20
8.277056496898088
 30
0.0
 40
0.127748774442054
  0
CIRCLE
  5
36E
330
233
100
AcDbEntity
  8
SL-42C
  6
HIDDEN2
 62
     4
100
AcDbCircle
 10
4.169224403958946
 20
8.277056496898088
 30
0.0
 40
0.1000000000000014
  0
CIRCLE
  5
36F
330
233
100
AcDbEntity
  8
SL-42C
100
AcDbCircle
 10
4.169224403958946
 20
8.277056496898088
 30
0.0
 40
0.0575968222219956
  0
CIRCLE
  5
370
330
233
100
AcDbEntity
  8
SL-42C
100
AcDbCircle
 10
4.169224403958946
 20
8.277056496898088
 30
0.0
 40
0.0575968222219956
  0
CIRCLE
  5
371
330
233
100
AcDbEntity
  8
SL-42C
  6
HIDDEN2
 62
     4
100
AcDbCircle
 10
4.169224403958946
 20
8.277056496898088
 30
0.0
 40
0.1000000000000014
  0
CIRCLE
  5
372
330
233
100
AcDbEntity
  8
SL-42C
100
AcDbCircle
 10
4.169224403958946
 20
8.277056496898088
 30
0.0
 40
0.127748774442054
  0
LINE
  5
373
330
233
100
AcDbEntity
  8
SL-42C
100
AcDbLine
 10
8.044224403958949
 20
6.402056496898088
 30
0.0
 11
8.044224403958949
 21
8.277056496898081
 31
0.0
  0
LINE
  5
374
330
233
100
AcDbEntity
  8
SL-42C
  6
HIDDEN2
 62
     4
100
AcDbLine
 10
7.988224403958938
 20
6.402056496898088
 30
0.0
 11
7.988224403958938
 21
8.277056496898081
 31
0.0
  0
LINE
  5
375
330
233
100
AcDbEntity
  8
SL-42C
  6
HIDDEN2
 62
     4
100
AcDbLine
 10
7.945585899023349
 20
6.402056496898088
 30
0.0
 11
7.945585899023352
 21
8.277056496898081
 31
0.0
  0
CIRCLE
  5
376
330
233
100
AcDbEntity
  8
SL-42C
100
AcDbCircle
 10
7.66922440395896
 20
6.402056496898081
 30
0.0
 40
0.0575968222219956
  0
CIRCLE
  5
377
330
233
100
AcDbEntity
  8
SL-42C
  6
HIDDEN2
 62
     4
100
AcDbCircle
 10
7.66922440395896
 20
6.402056496898081
 30
0.0
 40
0.1000000000000014
  0
CIRCLE
  5
378
330
233
100
AcDbEntity
  8
SL-42C
100
AcDbCircle
 10
7.66922440395896
 20
6.402056496898081
 30
0.0
 40
0.127748774442054
  0
LWPOLYLINE
  5
379
330
233
100
AcDbEntity
  8
SL-42C
  6
HIDDEN2
 62
     4
100
AcDbPolyline
 90
        2
 70
     1
 43
0.0
 10
7.882453324512379
 20
6.317754563600834
 42
-5.249201043697456
 10
7.882453324512379
 20
6.486358430195329
  0
LWPOLYLINE
  5
37A
330
233
100
AcDbEntity
  8
SL-42C
  6
HIDDEN2
 62
     4
100
AcDbPolyline
 90
        2
 70
     1
 43
0.0
 10
7.882453324512379
 20
6.317754563600834
 42
-5.249201043697456
 10
7.882453324512379
 20
6.486358430195329
  0
CIRCLE
  5
37B
330
233
100
AcDbEntity
  8
SL-42C
100
AcDbCircle
 10
7.66922440395896
 20
6.402056496898081
 30
0.0
 40
0.127748774442054
  0
CIRCLE
  5
37C
330
233
100
AcDbEntity
  8
SL-42C
  6
HIDDEN2
 62
     4
100
AcDbCircle
 10
7.66922440395896
 20
6.402056496898081
 30
0.0
 40
0.1000000000000014
  0
CIRCLE
  5
37D
330
233
100
AcDbEntity
  8
SL-42C
100
AcDbCircle
 10
7.66922440395896
 20
6.402056496898081
 30
0.0
 40
0.0575968222219956
  0
ARC
  5
37E
330
233
100
AcDbEntity
  8
SL-42C
  6
HIDDEN2
 62
     4
100
AcDbCircle
 10
7.669224403958946
 20
6.402056496898088
 30
0.0
 40
0.2763614950644033
100
AcDbArc
 50
270.0000000000007
 51
0.0
  0
ARC
  5
37F
330
233
100
AcDbEntity
  8
SL-42C
100
AcDbCircle
 10
7.669224403958949
 20
6.402056496898088
 30
0.0
 40
0.375
100
AcDbArc
 50
270.0
 51
0.0
  0
ARC
  5
380
330
233
100
AcDbEntity
  8
SL-42C
  6
HIDDEN2
 62
     4
100
AcDbCircle
 10
7.669224403958949
 20
6.402056496898088
 30
0.0
 40
0.3189999999999884
100
AcDbArc
 50
270.0
 51
0.0
  0
POINT
  5
381
330
233
100
AcDbEntity
  8
Defpoints
  6
ByBlock
 62
     0
380
     1
100
AcDbPoint
 10
7.559224403958953
 20
6.637056496898088
 30
0.0
  0
POINT
  5
382
330
233
100
AcDbEntity
  8
Defpoints
  6
ByBlock
 62
     0
380
     1
100
AcDbPoint
 10
7.66922440395896
 20
6.402056496898081
 30
0.0
  0
LWPOLYLINE
  5
383
330
233
100
AcDbEntity
  8
SL-42C
  6
HIDDEN2
 62
     4
100
AcDbPolyline
 90
        2
 70
     1
 43
0.0
 10
7.882453324512379
 20
8.361358430195336
 42
5.249201043697456
 10
7.882453324512379
 20
8.192754563600841
  0
LWPOLYLINE
  5
384
330
233
100
AcDbEntity
  8
SL-42C
  6
HIDDEN2
 62
     4
100
AcDbPolyline
 90
        2
 70
     1
 43
0.0
 10
7.882453324512379
 20
8.361358430195336
 42
5.249201043697456
 10
7.882453324512379
 20
8.192754563600841
  0
ARC
  5
385
330
233
100
AcDbEntity
  8
SL-42C
  6
HIDDEN2
 62
     4
100
AcDbCircle
 10
7.669224403958949
 20
8.277056496898081
 30
0.0
 40
0.2763614950644033
100
AcDbArc
 50
0.0
 51
90.0
  0
ARC
  5
386
330
233
100
AcDbEntity
  8
SL-42C
100
AcDbCircle
 10
7.669224403958949
 20
8.277056496898081
 30
0.0
 40
0.375
100
AcDbArc
 50
0.0
 51
90.0
  0
ARC
  5
387
330
233
100
AcDbEntity
  8
SL-42C
  6
HIDDEN2
 62
     4
100
AcDbCircle
 10
7.669224403958949
 20
8.277056496898081
 30
0.0
 40
0.3189999999999884
100
AcDbArc
 50
0.0
 51
90.0
  0
CIRCLE
  5
388
330
233
100
AcDbEntity
  8
SL-42C
100
AcDbCircle
 10
7.66922440395896
 20
8.277056496898088
 30
0.0
 40
0.127748774442054
  0
CIRCLE
  5
389
330
233
100
AcDbEntity
  8
SL-42C
  6
HIDDEN2
 62
     4
100
AcDbCircle
 10
7.66922440395896
 20
8.277056496898088
 30
0.0
 40
0.1000000000000014
  0
CIRCLE
  5
38A
330
233
100
AcDbEntity
  8
SL-42C
100
AcDbCircle
 10
7.66922440395896
 20
8.277056496898088
 30
0.0
 40
0.0575968222219956
  0
CIRCLE
  5
38B
330
233
100
AcDbEntity
  8
SL-42C
100
AcDbCircle
 10
7.66922440395896
 20
8.277056496898088
 30
0.0
 40
0.0575968222219956
  0
CIRCLE
  5
38C
330
233
100
AcDbEntity
  8
SL-42C
  6
HIDDEN2
 62
     4
100
AcDbCircle
 10
7.66922440395896
 20
8.277056496898088
 30
0.0
 40
0.1000000000000014
  0
CIRCLE
  5
38D
330
233
100
AcDbEntity
  8
SL-42C
100
AcDbCircle
 10
7.66922440395896
 20
8.277056496898088
 30
0.0
 40
0.127748774442054
  0
LINE
  5
38E
330
233
100
AcDbEntity
  8
SL-42C
  6
HIDDEN2
 62
     4
100
AcDbLine
 10
7.814963782175897
 20
3.811655652115523
 30
0.0
 11
4.023485025742001
 21
3.811655652115516
 31
0.0
  0
LINE
  5
38F
330
233
100
AcDbEntity
  8
SL-42C
100
AcDbLine
 10
7.788168315718451
 20
3.921655652115509
 30
0.0
 11
4.050280492199448
 21
3.921655652115516
 31
0.0
  0
LWPOLYLINE
  5
390
330
233
100
AcDbEntity
  8
SL-42C
  6
HIDDEN2
 62
     4
100
AcDbPolyline
 90
        4
 70
     0
 43
0.0
 10
4.279224403958945
 20
3.921655652115516
 10
4.279224403958945
 20
3.911655652115518
 10
7.559224403958957
 20
3.911655652115518
 10
7.559224403958943
 20
3.921655652115516
  0
LINE
  5
391
330
233
100
AcDbEntity
  8
SL-42C
100
AcDbLine
 10
8.044224403958942
 20
3.443655652115516
 30
0.0
 11
3.794224403958949
 21
3.443655652115512
 31
0.0
  0
LWPOLYLINE
  5
392
330
233
100
AcDbEntity
  8
SL-42C
  6
HIDDEN2
 62
     4
100
AcDbPolyline
 90
        5
 70
     0
 43
0.0
 10
4.226821226180934
 20
3.426655652115516
 10
4.233534756228184
 20
3.683035021063756
 10
4.283424999743946
 20
3.739813284729149
 10
4.287909625515773
 20
3.911074233477682
 10
4.297104760381735
 20
3.921652026127636
  0
LINE
  5
393
330
233
100
AcDbEntity
  8
SL-42C
100
AcDbLine
 10
3.794224403958949
 20
3.443655652115516
 30
0.0
 11
3.800366160955558
 21
3.678199889192489
 31
0.0
  0
LWPOLYLINE
  5
394
330
233
100
AcDbEntity
  8
SL-42C
  6
HIDDEN2
 62
     4
100
AcDbPolyline
 90
        5
 70
     0
 43
0.0
 10
4.111627581736943
 20
3.426655652115516
 10
4.104914051689707
 20
3.683035021063763
 10
4.05502380817396
 20
3.739813284729135
 10
4.050539182402129
 20
3.911074233477682
 10
4.041475718571348
 20
3.921500555928579
  0
LWPOLYLINE
  5
395
330
233
100
AcDbEntity
  8
SL-42C
  6
HIDDEN2
 62
     4
100
AcDbPolyline
 90
        6
 70
     0
 43
0.0
 10
3.955995483405519
 20
3.791870487928787
 10
4.051952481408878
 20
3.673655652115518
 10
4.069224403958944
 20
3.426655652115516
 10
4.269224403958947
 20
3.426655652115516
 10
4.286496326509013
 20
3.673655652115518
 10
4.398513279655144
 20
3.811655652115516
  0
LINE
  5
396
330
233
100
AcDbEntity
  8
SL-42C
  6
HIDDEN2
 62
     4
100
AcDbLine
 10
3.89850406384745
 20
3.688837202920181
 30
0.0
 11
3.892862908894549
 21
3.365655652115516
 31
0.0
  0
ARC
  5
397
330
233
100
AcDbEntity
  8
SL-42C
  6
HIDDEN2
 62
     4
100
AcDbCircle
 10
4.023485025742001
 20
3.686655652115516
 30
0.0
 40
0.125
100
AcDbArc
 50
90.00000000000005
 51
178.9999999999992
  0
ARC
  5
398
330
233
100
AcDbEntity
  8
SL-42C
100
AcDbCircle
 10
4.050280492199448
 20
3.671655652115516
 30
0.0
 40
0.25
100
AcDbArc
 50
89.99999999999998
 51
178.499999999999
  0
LINE
  5
399
330
233
100
AcDbEntity
  8
SL-42C
  6
HIDDEN2
 62
     4
100
AcDbLine
 10
4.310224403958947
 20
3.921655652115509
 30
0.0
 11
4.310224403958947
 21
3.911655652115518
 31
0.0
  0
LINE
  5
39A
330
233
100
AcDbEntity
  8
SL-42C
  6
HIDDEN2
 62
     4
100
AcDbLine
 10
4.050539182402129
 20
3.911074233477682
 30
0.0
 11
4.287909625515773
 21
3.911074233477682
 31
0.0
  0
LINE
  5
39B
330
233
100
AcDbEntity
  8
SL-42C
  6
HIDDEN2
 62
     4
100
AcDbLine
 10
4.286496326509013
 20
3.673655652115518
 30
0.0
 11
4.051952481408878
 21
3.673655652115518
 31
0.0
  0
LINE
  5
39C
330
233
100
AcDbEntity
  8
SL-42C
  6
HIDDEN2
 62
     4
100
AcDbLine
 10
4.233534756228184
 20
3.683035021063756
 30
0.0
 11
4.104914051689707
 21
3.683035021063763
 31
0.0
  0
LINE
  5
39D
330
233
100
AcDbEntity
  8
SL-42C
  6
HIDDEN2
 62
     4
100
AcDbLine
 10
4.05502380817396
 20
3.739813284729135
 30
0.0
 11
4.283424999743946
 21
3.739813284729149
 31
0.0
  0
LINE
  5
39E
330
233
100
AcDbEntity
  8
SL-42C
100
AcDbLine
 10
8.044224403958949
 20
3.443655652115516
 30
0.0
 11
8.03808264696234
 21
3.678199889192489
 31
0.0
  0
LWPOLYLINE
  5
39F
330
233
100
AcDbEntity
  8
SL-42C
  6
HIDDEN2
 62
     4
100
AcDbPolyline
 90
        5
 70
     0
 43
0.0
 10
7.611627581736964
 20
3.426655652115516
 10
7.604914051689714
 20
3.683035021063756
 10
7.555023808173952
 20
3.739813284729149
 10
7.550539182402125
 20
3.911074233477682
 10
7.541344047536163
 20
3.921652026127636
  0
LWPOLYLINE
  5
3A0
330
233
100
AcDbEntity
  8
SL-42C
  6
HIDDEN2
 62
     4
100
AcDbPolyline
 90
        5
 70
     0
 43
0.0
 10
7.726821226180955
 20
3.426655652115516
 10
7.733534756228191
 20
3.683035021063763
 10
7.783424999743939
 20
3.739813284729135
 10
7.787909625515769
 20
3.911074233477682
 10
7.79697308934655
 20
3.921500555928579
  0
LWPOLYLINE
  5
3A1
330
233
100
AcDbEntity
  8
SL-42C
  6
HIDDEN2
 62
     4
100
AcDbPolyline
 90
        6
 70
     0
 43
0.0
 10
7.882453324512379
 20
3.791870487928787
 10
7.78649632650902
 20
3.673655652115518
 10
7.769224403958954
 20
3.426655652115516
 10
7.569224403958951
 20
3.426655652115516
 10
7.551952481408886
 20
3.673655652115518
 10
7.439935528262754
 20
3.811655652115516
  0
LINE
  5
3A2
330
233
100
AcDbEntity
  8
SL-42C
  6
HIDDEN2
 62
     4
100
AcDbLine
 10
7.939944744070448
 20
3.688837202920181
 30
0.0
 11
7.945585899023349
 21
3.365655652115516
 31
0.0
  0
ARC
  5
3A3
330
233
100
AcDbEntity
  8
SL-42C
  6
HIDDEN2
 62
     4
100
AcDbCircle
 10
7.814963782175897
 20
3.686655652115523
 30
0.0
 40
0.125
100
AcDbArc
 50
1.000000000000637
 51
90.00000000000005
  0
ARC
  5
3A4
330
233
100
AcDbEntity
  8
SL-42C
100
AcDbCircle
 10
7.788168315718451
 20
3.671655652115509
 30
0.0
 40
0.25
100
AcDbArc
 50
1.500000000001585
 51
89.99999999999998
  0
LINE
  5
3A5
330
233
100
AcDbEntity
  8
SL-42C
  6
HIDDEN2
 62
     4
100
AcDbLine
 10
7.528224403958944
 20
3.921655652115509
 30
0.0
 11
7.528224403958944
 21
3.911655652115518
 31
0.0
  0
LINE
  5
3A6
330
233
100
AcDbEntity
  8
SL-42C
  6
HIDDEN2
 62
     4
100
AcDbLine
 10
7.787909625515769
 20
3.911074233477682
 30
0.0
 11
7.550539182402125
 21
3.911074233477682
 31
0.0
  0
LINE
  5
3A7
330
233
100
AcDbEntity
  8
SL-42C
  6
HIDDEN2
 62
     4
100
AcDbLine
 10
7.783424999743939
 20
3.739813284729135
 30
0.0
 11
7.555023808173952
 21
3.739813284729149
 31
0.0
  0
LINE
  5
3A8
330
233
100
AcDbEntity
  8
SL-42C
  6
HIDDEN2
 62
     4
100
AcDbLine
 10
7.604914051689714
 20
3.683035021063756
 30
0.0
 11
7.733534756228191
 21
3.683035021063763
 31
0.0
  0
LINE
  5
3A9
330
233
100
AcDbEntity
  8
SL-42C
  6
HIDDEN2
 62
     4
100
AcDbLine
 10
7.551952481408886
 20
3.673655652115518
 30
0.0
 11
7.78649632650902
 21
3.673655652115518
 31
0.0
  0
LWPOLYLINE
  5
3AA
330
233
100
AcDbEntity
  8
SL-42C
  6
HIDDEN2
 62
     4
100
AcDbPolyline
 90
        4
 70
     0
 43
0.0
 10
12.02509436335208
 20
6.512056496898088
 10
12.03509436335207
 20
6.512056496898088
 10
12.03509436335207
 20
8.167056496898096
 10
12.02509436335208
 20
8.167056496898082
  0
LINE
  5
3AB
330
233
100
AcDbEntity
  8
SL-42C
100
AcDbLine
 10
12.02509436335208
 20
8.39600040865759
 30
0.0
 11
12.02509436335208
 21
6.283112585138587
 31
0.0
  0
LINE
  5
3AC
330
233
100
AcDbEntity
  8
SL-42C
  6
HIDDEN2
 62
     4
100
AcDbLine
 10
12.13509436335207
 20
8.42279587511504
 30
0.0
 11
12.13509436335207
 21
6.25631711868114
 31
0.0
  0
LINE
  5
3AD
330
233
100
AcDbEntity
  8
SL-42C
100
AcDbLine
 10
12.50309436335208
 20
8.652056496898081
 30
0.0
 11
12.50309436335208
 21
6.027056496898088
 31
0.0
  0
LWPOLYLINE
  5
3AE
330
233
100
AcDbEntity
  8
SL-42C
  6
HIDDEN2
 62
     4
100
AcDbPolyline
 90
        5
 70
     0
 43
0.0
 10
12.52009436335208
 20
6.459653319120073
 10
12.26371499440384
 20
6.466366849167323
 10
12.20693673073844
 20
6.516257092683085
 10
12.03567578198991
 20
6.520741718454912
 10
12.02509798933996
 20
6.529936853320874
  0
ARC
  5
3AF
330
233
100
AcDbEntity
  8
SL-42C
  6
HIDDEN2
 62
     4
100
AcDbCircle
 10
12.26009436335207
 20
6.256317118681144
 30
0.0
 40
0.125
100
AcDbArc
 50
180.0
 51
268.9999999999991
  0
ARC
  5
3B0
330
233
100
AcDbEntity
  8
SL-42C
100
AcDbCircle
 10
12.27509436335207
 20
6.283112585138587
 30
0.0
 40
0.25
100
AcDbArc
 50
179.9999999999999
 51
268.499999999999
  0
LWPOLYLINE
  5
3B1
330
233
100
AcDbEntity
  8
SL-42C
  6
HIDDEN2
 62
     4
100
AcDbPolyline
 90
        5
 70
     0
 43
0.0
 10
12.52009436335208
 20
6.344459674676082
 10
12.26371499440383
 20
6.337746144628846
 10
12.20693673073846
 20
6.287855901113099
 10
12.03567578198991
 20
6.283371275341268
 10
12.02524945953902
 20
6.274307811510487
  0
LWPOLYLINE
  5
3B2
330
233
100
AcDbEntity
  8
SL-42C
  6
HIDDEN2
 62
     4
100
AcDbPolyline
 90
        6
 70
     0
 43
0.0
 10
12.15487952753881
 20
6.188827576344658
 10
12.27309436335207
 20
6.284784574348018
 10
12.52009436335208
 20
6.302056496898083
 10
12.52009436335208
 20
6.502056496898086
 10
12.27309436335207
 20
6.519328419448152
 10
12.13509436335208
 20
6.631345372594287
  0
LINE
  5
3B3
330
233
100
AcDbEntity
  8
SL-42C
  6
HIDDEN2
 62
     4
100
AcDbLine
 10
12.20693673073846
 20
6.287855901113099
 30
0.0
 11
12.20693673073844
 21
6.516257092683085
 31
0.0
  0
LINE
  5
3B4
330
233
100
AcDbEntity
  8
SL-42C
  6
HIDDEN2
 62
     4
100
AcDbLine
 10
12.03567578198991
 20
6.283371275341268
 30
0.0
 11
12.03567578198991
 21
6.520741718454912
 31
0.0
  0
LINE
  5
3B5
330
233
100
AcDbEntity
  8
SL-42C
  6
HIDDEN2
 62
     4
100
AcDbLine
 10
12.02509436335208
 20
6.543056496898087
 30
0.0
 11
12.03509436335208
 21
6.543056496898087
 31
0.0
  0
LINE
  5
3B6
330
233
100
AcDbEntity
  8
SL-42C
  6
HIDDEN2
 62
     4
100
AcDbLine
 10
12.26371499440383
 20
6.466366849167323
 30
0.0
 11
12.26371499440383
 21
6.337746144628846
 31
0.0
  0
LINE
  5
3B7
330
233
100
AcDbEntity
  8
SL-42C
  6
HIDDEN2
 62
     4
100
AcDbLine
 10
12.27309436335207
 20
6.519328419448152
 30
0.0
 11
12.27309436335207
 21
6.284784574348018
 31
0.0
  0
LINE
  5
3B8
330
233
100
AcDbEntity
  8
SL-42C
  6
HIDDEN2
 62
     4
100
AcDbLine
 10
12.25791281254742
 20
6.13133615678659
 30
0.0
 11
12.58109436335207
 21
6.125695001833689
 31
0.0
  0
LINE
  5
3B9
330
233
100
AcDbEntity
  8
SL-42C
100
AcDbLine
 10
12.50309436335208
 20
6.027056496898088
 30
0.0
 11
12.2685501262751
 21
6.033198253894697
 31
0.0
  0
ARC
  5
3BA
330
233
100
AcDbEntity
  8
SL-42C
  6
HIDDEN2
 62
     4
100
AcDbCircle
 10
12.26009436335207
 20
8.42279587511504
 30
0.0
 40
0.125
100
AcDbArc
 50
91.00000000000063
 51
180.0
  0
ARC
  5
3BB
330
233
100
AcDbEntity
  8
SL-42C
100
AcDbCircle
 10
12.27509436335208
 20
8.39600040865759
 30
0.0
 40
0.25
100
AcDbArc
 50
91.5000000000016
 51
179.9999999999999
  0
LWPOLYLINE
  5
3BC
330
233
100
AcDbEntity
  8
SL-42C
  6
HIDDEN2
 62
     4
100
AcDbPolyline
 90
        6
 70
     0
 43
0.0
 10
12.15487952753881
 20
8.490285417451522
 10
12.27309436335207
 20
8.394328419448159
 10
12.52009436335208
 20
8.377056496898093
 10
12.52009436335208
 20
8.17705649689809
 10
12.27309436335207
 20
8.159784574348025
 10
12.13509436335208
 20
8.047767621201897
  0
LWPOLYLINE
  5
3BD
330
233
100
AcDbEntity
  8
SL-42C
  6
HIDDEN2
 62
     4
100
AcDbPolyline
 90
        5
 70
     0
 43
0.0
 10
12.52009436335208
 20
8.334653319120095
 10
12.26371499440383
 20
8.34136684916733
 10
12.20693673073846
 20
8.391257092683078
 10
12.03567578198991
 20
8.395741718454912
 10
12.02524945953902
 20
8.40480518228569
  0
LWPOLYLINE
  5
3BE
330
233
100
AcDbEntity
  8
SL-42C
  6
HIDDEN2
 62
     4
100
AcDbPolyline
 90
        5
 70
     0
 43
0.0
 10
12.52009436335208
 20
8.219459674676103
 10
12.26371499440384
 20
8.212746144628853
 10
12.20693673073844
 20
8.162855901113092
 10
12.03567578198991
 20
8.158371275341265
 10
12.02509798933996
 20
8.149176140475303
  0
LINE
  5
3BF
330
233
100
AcDbEntity
  8
SL-42C
  6
HIDDEN2
 62
     4
100
AcDbLine
 10
12.20693673073846
 20
8.391257092683078
 30
0.0
 11
12.20693673073844
 21
8.162855901113092
 31
0.0
  0
LINE
  5
3C0
330
233
100
AcDbEntity
  8
SL-42C
  6
HIDDEN2
 62
     4
100
AcDbLine
 10
12.02509436335208
 20
8.136056496898083
 30
0.0
 11
12.03509436335208
 21
8.136056496898083
 31
0.0
  0
LINE
  5
3C1
330
233
100
AcDbEntity
  8
SL-42C
  6
HIDDEN2
 62
     4
100
AcDbLine
 10
12.03567578198992
 20
8.395741718454912
 30
0.0
 11
12.03567578198991
 21
8.158371275341265
 31
0.0
  0
LINE
  5
3C2
330
233
100
AcDbEntity
  8
SL-42C
  6
HIDDEN2
 62
     4
100
AcDbLine
 10
12.26371499440383
 20
8.212746144628853
 30
0.0
 11
12.26371499440383
 21
8.34136684916733
 31
0.0
  0
LINE
  5
3C3
330
233
100
AcDbEntity
  8
SL-42C
  6
HIDDEN2
 62
     4
100
AcDbLine
 10
12.27309436335207
 20
8.159784574348025
 30
0.0
 11
12.27309436335207
 21
8.394328419448159
 31
0.0
  0
LINE
  5
3C4
330
233
100
AcDbEntity
  8
SL-42C
100
AcDbLine
 10
12.50309436335208
 20
8.652056496898088
 30
0.0
 11
12.26855012627511
 21
8.645914739901479
 31
0.0
  0
LINE
  5
3C5
330
233
100
AcDbEntity
  8
SL-42C
  6
HIDDEN2
 62
     4
100
AcDbLine
 10
12.25791281254741
 20
8.547776837009587
 30
0.0
 11
12.58109436335207
 21
8.553417991962488
 31
0.0
  0
LWPOLYLINE
  5
3C6
330
233
100
AcDbEntity
  8
SL-42C
  6
HIDDEN2
 62
     4
100
AcDbPolyline
 90
        4
 70
     0
 43
0.0
 10
7.98822440395893
 20
3.443655652115516
 10
7.98822440395893
 20
3.365655652115516
 10
3.850224403958961
 20
3.365655652115516
 10
3.850224403958961
 20
3.443655652115516
  0
LWPOLYLINE
  5
3C7
330
233
100
AcDbEntity
  8
SL-42C
  6
HIDDEN2
 62
     4
100
AcDbPolyline
 90
        4
 70
     0
 43
0.0
 10
12.50309436335208
 20
8.59605649689807
 10
12.58109436335207
 20
8.59605649689807
 10
12.58109436335207
 20
6.0830564968981
 10
12.50309436335208
 20
6.0830564968981
  0
MTEXT
  5
3C8
330
233
100
AcDbEntity
  8
0
 62
     4
100
AcDbMText
 10
-15.79315445544438
 20
13.9116528913783
 30
0.0
 40
0.125
 41
0.0
 71
     6
 72
     1
  1
\A1;
  7
Standard
 73
     1
 44
1.0
  0
INSERT
  5
3C9
330
233
100
AcDbEntity
  8
0
100
AcDbBlockReference
 66
     1
  2
B
 10
0.3429433337039995
 20
0.5
 30
0.0
  0
ATTRIB
  5
3CA
330
3C9
100
AcDbEntity
  8
TEXT
100
AcDbText
 10
11.79579384948258
 20
1.03940504561772
 30
0.0
 40
0.125
  1
GNT
 41
0.75
 72
     1
 11
11.92079384948258
 21
1.03940504561772
 31
0.0
100
AcDbAttribute
  2
NAME
 70
     4
  0
ATTRIB
  5
3CB
330
3C9
100
AcDbEntity
  8
TEXT
100
AcDbText
 10
12.38961681002095
 20
1.03940504561772
 30
0.0
 40
0.125
  1
8/1/01
 41
0.75
 72
     1
 11
12.61617931002095
 21
1.03940504561772
 31
0.0
100
AcDbAttribute
  2
DATE
 70
     4
  0
ATTRIB
  5
3CC
330
3C9
100
AcDbEntity
  8
TEXT
100
AcDbText
 10
15.48594113374841
 20
1.238287731345051
 30
0.0
 40
0.125
  1
PLASTIBOX
 41
0.75
 72
     1
 11
15.87656613374841
 21
1.238287731345051
 31
0.0
100
AcDbAttribute
  2
TITLE1
 70
     4
  0
ATTRIB
  5
3CD
330
3C9
100
AcDbEntity
  8
TEXT
100
AcDbText
 10
15.82969113374841
 20
1.01099228907612
 30
0.0
 40
0.125
  1
 
 41
0.75
 72
     1
 11
15.87656613374841
 21
1.01099228907612
 31
0.0
100
AcDbAttribute
  2
TITLE2
 70
     4
  0
ATTRIB
  5
3CE
330
3C9
100
AcDbEntity
  8
TEXT
100
AcDbText
 10
15.65886298882383
 20
0.6181742385894946
 30
0.0
 40
0.156
  1
PT-11642
 41
0.75
 72
     1
 11
16.06836298882383
 21
0.6181742385894946
 31
0.0
100
AcDbAttribute
  2
PART
 70
     4
  0
ATTRIB
  5
3CF
330
3C9
100
AcDbEntity
  8
TEXT
100
AcDbText
 10
15.65886298882383
 20
9.837640836036475
 30
0.0
 40
0.156
  1
PT-11642
 41
0.75
 72
     1
 11
16.06836298882383
 21
9.837640836036475
 31
0.0
100
AcDbAttribute
  2
PART
 70
     4
  0
ATTRIB
  5
3D0
330
3C9
100
AcDbEntity
  8
TEXT
100
AcDbText
 10
7.499840937854745
 20
1.682012335097561
 30
0.0
 40
0.125
  1

 41
4.93641642638573
 72
     5
 11
11.40783727541011
 21
1.682012335097561
 31
0.0
100
AcDbAttribute
  2
CUTSIZE
 70
     4
  0
ATTRIB
  5
3D1
330
3C9
100
AcDbEntity
  8
TEXT
100
AcDbText
 10
7.620242166431303
 20
0.7867788269611924
 30
0.0
 40
0.125
  1
 
 41
0.75
 72
     1
 11
7.667117166431303
 21
0.7867788269611924
 31
0.0
100
AcDbAttribute
  2
QTY
 70
     4
  0
ATTRIB
  5
3D2
330
3C9
100
AcDbEntity
  8
TEXT
100
AcDbText
 10
8.535122536230998
 20
0.7867788269611924
 30
0.0
 40
0.125
  1
 
 41
0.75
 72
     1
 11
8.581997536230998
 21
0.7867788269611924
 31
0.0
100
AcDbAttribute
  2
USED
 70
     4
  0
ATTRIB
  5
3D3
330
3C9
100
AcDbEntity
  8
TEXT
100
AcDbText
 10
12.16692455661803
 20
1.455532371070235
 30
0.0
 40
0.125
  1
AS NOTED
 41
0.75
 72
     1
 11
12.52629955661803
 21
1.455532371070235
 31
0.0
100
AcDbAttribute
  2
MAT
 70
     4
  0
ATTRIB
  5
3D4
330
3C9
100
AcDbEntity
  8
TEXT
100
AcDbText
 10
12.15129955661803
 20
1.243654207860663
 30
0.0
 40
0.125
  1
SEE SPEC.
 41
0.75
 72
     1
 11
12.52629955661803
 21
1.243654207860663
 31
0.0
100
AcDbAttribute
  2
FINISH
 70
     4
  0
SEQEND
  5
3D5
330
3C9
100
AcDbEntity
  8
0
  0
DIMENSION
  5
3D6
330
233
100
AcDbEntity
  8
0
100
AcDbDimension
  2
*D7
 10
8.044224403958949
 20
4.494831933451735
 30
0.0
 11
5.919224403958948
 21
4.494831933451735
 31
0.0
 70
    32
 71
     5
 42
4.250000000000001
  3
Standard
100
AcDbAlignedDimension
 13
3.794224403958947
 23
6.402056496898081
 33
0.0
 14
8.044224403958949
 24
6.402056496898081
 34
0.0
100
AcDbRotatedDimension
1001
ACAD
1000
DSTYLE
1002
{
1070
    42
1040
0.125
1070
   272
1070
     3
1002
}
  0
DIMENSION
  5
3D7
330
233
100
AcDbEntity
  8
0
100
AcDbDimension
  2
*D8
 10
10.4537278162899
 20
6.027056496898087
 30
0.0
 11
10.4537278162899
 21
7.339556496898089
 31
0.0
 70
    32
 71
     5
 42
2.625
  3
Standard
100
AcDbAlignedDimension
 13
7.669224403958944
 23
8.652056496898088
 33
0.0
 14
7.669224403958949
 24
6.027056496898088
 34
0.0
 50
90.0
100
AcDbRotatedDimension
1001
ACAD
1000
DSTYLE
1002
{
1070
    42
1040
0.125
1070
   272
1070
     3
1002
}
  0
INSERT
  5
3D8
330
233
100
AcDbEntity
  8
0
100
AcDbBlockReference
 66
     1
  2
BOMCHART
 10
11.44344333370399
 20
1.877
 30
0.0
  0
ATTRIB
  5
3D9
330
3D8
100
AcDbEntity
  8
TEXT
100
AcDbText
 10
11.61282312525624
 20
1.917836885458839
 30
0.0
 40
0.125
  1
1
 41
0.75
 72
     1
 11
11.62844812525624
 21
1.917836885458839
 31
0.0
100
AcDbAttribute
  2
ITEM
 70
     4
  0
ATTRIB
  5
3DA
330
3D8
100
AcDbEntity
  8
TEXT
100
AcDbText
 10
12.07877868895032
 20
1.917836885458839
 30
0.0
 40
0.125
  1
1
 41
0.75
 72
     1
 11
12.09440368895032
 21
1.917836885458839
 31
0.0
100
AcDbAttribute
  2
#REQ'D.
 70
     4
  0
ATTRIB
  5
3DB
330
3D8
100
AcDbEntity
  8
TEXT
100
AcDbText
 10
12.82642964573481
 20
1.917836885458839
 30
0.0
 40
0.125
  1
11642-B
 41
0.75
 72
     1
 11
13.10767964573481
 21
1.917836885458839
 31
0.0
100
AcDbAttribute
  2
PART#
 70
     4
  0
ATTRIB
  5
3DC
330
3D8
100
AcDbEntity
  8
TEXT
100
AcDbText
 10
13.98187851041162
 20
1.917836885458839
 30
0.0
 40
0.125
  1
BODY
 41
0.75
100
AcDbAttribute
  2
DESCRIPTION
 70
     4
  0
SEQEND
  5
3DD
330
3D8
100
AcDbEntity
  8
0
  0
INSERT
  5
3DE
330
233
100
AcDbEntity
  8
0
100
AcDbBlockReference
 66
     1
  2
BOMCHART
 10
11.44344333370399
 20
2.084999999999999
 30
0.0
  0
ATTRIB
  5
3DF
330
3DE
100
AcDbEntity
  8
TEXT
100
AcDbText
 10
11.59719812525624
 20
2.125836885458838
 30
0.0
 40
0.125
  1
2
 41
0.75
 72
     1
 11
11.62844812525624
 21
2.125836885458838
 31
0.0
100
AcDbAttribute
  2
ITEM
 70
     4
  0
ATTRIB
  5
3E0
330
3DE
100
AcDbEntity
  8
TEXT
100
AcDbText
 10
12.07877868895032
 20
2.125836885458838
 30
0.0
 40
0.125
  1
1
 41
0.75
 72
     1
 11
12.09440368895032
 21
2.125836885458838
 31
0.0
100
AcDbAttribute
  2
#REQ'D.
 70
     4
  0
ATTRIB
  5
3E1
330
3DE
100
AcDbEntity
  8
TEXT
100
AcDbText
 10
12.82642964573481
 20
2.125836885458838
 30
0.0
 40
0.125
  1
11642-C
 41
0.75
 72
     1
 11
13.10767964573481
 21
2.125836885458838
 31
0.0
100
AcDbAttribute
  2
PART#
 70
     4
  0
ATTRIB
  5
3E2
330
3DE
100
AcDbEntity
  8
TEXT
100
AcDbText
 10
13.98187851041162
 20
2.125836885458838
 30
0.0
 40
0.125
  1
COVER
 41
0.75
100
AcDbAttribute
  2
DESCRIPTION
 70
     4
  0
SEQEND
  5
3E3
330
3DE
100
AcDbEntity
  8
0
  0
LWPOLYLINE
  5
3E4
330
233
100
AcDbEntity
  8
DIM
100
AcDbPolyline
 90
        5
 70
     0
 10
8.033774493359421
 20
3.026589666527876
 40
0.0
 41
0.067499999949375
 10
8.205619003174863
 20
3.080157048372527
 40
0.0
 41
0.0
 10
8.495262722557701
 20
3.170444807531949
 40
0.0
 41
0.0
 42
-1.0
 10
8.853272118006534
 20
3.282043519708305
 40
0.0
 41
0.0
 42
-1.0
 10
8.495262722557701
 20
3.170444807531949
 40
0.0
 41
0.0
 42
-2.882889103494703
  0
TEXT
  5
3E5
330
233
100
AcDbEntity
  8
DIM
100
AcDbText
 10
8.658642420293835
 20
3.163744163667002
 30
0.0
 40
0.12499999990625
  1
1
 41
0.75
 72
     4
 11
8.674267420282117
 21
3.226244163620127
 31
0.0
100
AcDbText
  0
LWPOLYLINE
  5
3E6
330
233
100
AcDbEntity
  8
DIM
100
AcDbPolyline
 90
        5
 70
     0
 10
8.042058654809574
 20
3.49337967801995
 40
0.0
 41
0.067499999949375
 10
8.213903164625016
 20
3.546947059864601
 40
0.0
 41
0.0
 10
8.503546884007853
 20
3.637234819024023
 40
0.0
 41
0.0
 42
-1.0
 10
8.861556279456687
 20
3.748833531200379
 40
0.0
 41
0.0
 42
-1.0
 10
8.503546884007853
 20
3.637234819024023
 40
0.0
 41
0.0
 42
-2.882889103494703
  0
TEXT
  5
3E7
330
233
100
AcDbEntity
  8
DIM
100
AcDbText
 10
8.651301581755706
 20
3.630534175159076
 30
0.0
 40
0.12499999990625
  1
2
 41
0.75
 72
     4
 11
8.682551581732269
 21
3.693034175112201
 31
0.0
100
AcDbText
  0
TEXT
  5
3E8
330
233
100
AcDbEntity
  8
TEXT
 62
     4
100
AcDbText
 10
4.010386964800126
 20
2.14240185714334
 30
0.0
 40
0.125
  1
(4 PLCS)
  7
Standard
100
AcDbText
  0
LEADER
  5
3E9
330
233
100
AcDbEntity
  8
0
100
AcDbLeader
  3
STANDARD$7
 73
     0
 40
0.125
 41
1.708333333333333
 76
     3
 10
6.635025532792596
 20
7.893895900744741
 30
0.0
 10
7.855736085524021
 20
9.294099142113612
 30
0.0
 10
8.081793603052773
 20
9.294099142113612
 30
0.0
340
3EA
213
0.0
223
-0.0625
233
0.0
1001
ACAD
1000
DSTYLE
1002
{
1070
   341
1005
120
1070
   147
1040
0.09
1070
    77
1070
     0
1070
    42
1040
0.125
1070
   272
1070
     3
1002
}
  0
MTEXT
  5
3EA
102
{ACAD_REACTORS
330
3E9
102
}
330
233
100
AcDbEntity
  8
0
 62
     4
100
AcDbMText
 10
8.171793603052773
 20
9.356599142113612
 30
0.0
 40
0.125
 41
0.0
 71
     1
 72
     1
  1
\A1;TEXTURED FLUSH
  7
Standard
 73
     1
 44
1.0
  0
DIMENSION
  5
3EB
330
233
100
AcDbEntity
  8
0
100
AcDbDimension
  2
*D11
 10
8.950303847563363
 20
6.652056496898081
 30
0.0
 11
8.950303847563361
 21
7.592654750659463
 31
0.0
 70
   160
 71
     5
 42
1.375000000000007
  3
Standard
100
AcDbAlignedDimension
 13
7.419224403958949
 23
8.027056496898088
 33
0.0
 14
7.419224403958949
 24
6.652056496898081
 34
0.0
 50
90.0
100
AcDbRotatedDimension
1001
ACAD
1000
DSTYLE
1002
{
1070
    42
1040
0.125
1070
   272
1070
     3
1070
   288
1070
     1
1002
}
  0
DIMENSION
  5
3EC
330
233
100
AcDbEntity
  8
0
100
AcDbDimension
  2
*D12
 10
7.419224403958949
 20
5.37842243908388
 30
0.0
 11
5.92656375621479
 21
5.37842243908388
 31
0.0
 70
   160
 71
     5
 42
2.999999999999992
  3
Standard
100
AcDbAlignedDimension
 13
4.419224403958956
 23
6.652056496898081
 33
0.0
 14
7.419224403958949
 24
6.652056496898081
 34
0.0
100
AcDbRotatedDimension
1001
ACAD
1000
DSTYLE
1002
{
1070
    42
1040
0.125
1070
   272
1070
     3
1070
   288
1070
     1
1002
}
  0
DIMENSION
  5
3ED
330
233
100
AcDbEntity
  8
0
100
AcDbDimension
  2
*D13
 10
7.66922440395896
 20
4.948007089242373
 30
0.0
 11
5.92656375621479
 21
4.948007089242373
 31
0.0
 70
   160
 71
     5
 42
3.5
  3
Standard
100
AcDbAlignedDimension
 13
4.16922440395896
 23
6.402056496898095
 33
0.0
 14
7.66922440395896
 24
6.402056496898081
 34
0.0
100
AcDbRotatedDimension
1001
ACAD
1000
DSTYLE
1002
{
1070
    42
1040
0.125
1070
   272
1070
     3
1070
   288
1070
     1
1002
}
  0
DIMENSION
  5
3EE
330
233
100
AcDbEntity
  8
0
100
AcDbDimension
  2
*D14
 10
9.621002274490253
 20
6.402056496898095
 30
0.0
 11
9.621002274490251
 21
7.337589267952374
 31
0.0
 70
   160
 71
     5
 42
1.874999999999978
  3
Standard
100
AcDbAlignedDimension
 13
7.669224403958946
 23
8.277056496898074
 33
0.0
 14
7.669224403958946
 24
6.402056496898095
 34
0.0
 50
90.0
100
AcDbRotatedDimension
1001
ACAD
1000
DSTYLE
1002
{
1070
    42
1040
0.125
1070
   272
1070
     3
1070
   288
1070
     1
1002
}
  0
DIMENSION
  5
3EF
330
233
100
AcDbEntity
  8
0
100
AcDbDimension
  2
*D15
 10
2.464988720296738
 20
6.512056496898084
 30
0.0
 11
2.464988720296737
 21
7.351665411126287
 31
0.0
 70
   160
 71
     5
 42
1.655000000000002
  3
Standard
100
AcDbAlignedDimension
 13
4.404224403958952
 23
8.167056496898085
 33
0.0
 14
4.419224403958956
 24
6.512056496898084
 34
0.0
 50
90.0
100
AcDbRotatedDimension
1001
ACAD
1000
DSTYLE
1002
{
1070
    42
1040
0.125
1070
   272
1070
     3
1070
   288
1070
     1
1002
}
  0
DIMENSION
  5
3F0
330
233
100
AcDbEntity
  8
0
100
AcDbDimension
  2
*D16
 10
7.55922440395895
 20
9.584304501055381
 30
0.0
 11
5.868900533239582
 21
9.584304501055381
 31
0.0
 70
   160
 71
     5
 42
3.279999999999997
  3
Standard
100
AcDbAlignedDimension
 13
4.279224403958952
 23
8.042056496898085
 33
0.0
 14
7.55922440395895
 24
8.042056496898085
 34
0.0
100
AcDbRotatedDimension
1001
ACAD
1000
DSTYLE
1002
{
1070
    42
1040
0.125
1070
   272
1070
     3
1070
   288
1070
     1
1002
}
  0
DIMENSION
  5
3F1
330
233
100
AcDbEntity
  8
0
100
AcDbDimension
  2
*D17
 10
7.373259689950162
 20
6.734051893513319
 30
0.0
 11
8.913862361270464
 21
5.240674245485933
 31
0.0
 70
   163
  1
%%c0.090 ID\P<> OD\P(4 PLCS)
 71
     5
 42
0.1880000000000002
  3
STANDARD$3
100
AcDbDiametricDimension
 15
7.465189117967735
 25
6.570061100282838
 35
0.0
 40
0.0
1001
ACAD
1000
DSTYLE
1002
{
1070
    42
1040
0.125
1070
   272
1070
     3
1070
   288
1070
     1
1002
}
  0
INSERT
  5
3F2
330
233
100
AcDbEntity
  8
0
100
AcDbBlockReference
 66
     1
  2
BOMCHART
 10
11.44344333370399
 20
2.293
 30
0.0
  0
ATTRIB
  5
3F3
330
3F2
100
AcDbEntity
  8
TEXT
100
AcDbText
 10
11.59719812525624
 20
2.333836885458838
 30
0.0
 40
0.125
  1
3
 41
0.75
 72
     1
 11
11.62844812525624
 21
2.333836885458838
 31
0.0
100
AcDbAttribute
  2
ITEM
 70
     4
  0
ATTRIB
  5
3F4
330
3F2
100
AcDbEntity
  8
TEXT
100
AcDbText
 10
12.07877868895032
 20
2.333836885458838
 30
0.0
 40
0.125
  1
1
 41
0.75
 72
     1
 11
12.09440368895032
 21
2.333836885458838
 31
0.0
100
AcDbAttribute
  2
#REQ'D.
 70
     4
  0
ATTRIB
  5
3F5
330
3F2
100
AcDbEntity
  8
TEXT
100
AcDbText
 10
12.76392964573481
 20
2.333836885458838
 30
0.0
 40
0.125
  1
11642-HW
 41
0.75
 72
     1
 11
13.10767964573481
 21
2.333836885458838
 31
0.0
100
AcDbAttribute
  2
PART#
 70
     4
  0
ATTRIB
  5
3F6
330
3F2
100
AcDbEntity
  8
TEXT
100
AcDbText
 10
13.98187851041162
 20
2.333836885458838
 30
0.0
 40
0.125
  1
HARDWARE KIT       (NOT SHOWN)
 41
0.75
100
AcDbAttribute
  2
DESCRIPTION
 70
     4
  0
SEQEND
  5
3F7
330
3F2
100
AcDbEntity
  8
0
  0
DIMENSION
  5
3F8
330
233
100
AcDbEntity
  8
0
100
AcDbDimension
  2
*D18
 10
4.748716903967132
 20
2.771655652115517
 30
0.0
 11
4.26802454380342
 21
2.411655652115518
 31
0.0
 70
   160
 71
     5
 42
0.25
  3
Standard
100
AcDbAlignedDimension
 13
4.325224403958941
 23
3.021655652115517
 33
0.0
 14
4.320860637726894
 24
2.771655652115517
 34
0.0
 50
90.0
100
AcDbRotatedDimension
1001
ACAD
1000
DSTYLE
1002
{
1070
    42
1040
0.125
1070
   272
1070
     3
1070
   288
1070
     1
1002
}
  0
MTEXT
  5
3F9
330
233
100
AcDbEntity
  8
0
100
AcDbMText
 10
11.70299291010432
 20
4.573676710697409
 30
0.0
 40
0.125
 41
0.0
 71
     1
 72
     5
  3
NOTES:\P1) MATERIAL;  ABS THERMOPLASTIC  (UL94-5VA RATED)\P2) FINISH;  BODY & COVER TEXTURED (OUTSIDE SURFACE)\P3) COLOR;  BLACK\P4) TOLERANCES:   X.XX = +/- 0.01\P                              X.XXX = +/- 0.005\P                              UNLESS 
  1
OTHERWISE SPECIFIED
  7
Standard
 73
     1
 44
1.0
  0
LINE
  5
3FA
330
233
100
AcDbEntity
  8
0
100
AcDbLine
 10
9.365443333704
 20
1.627
 30
0.0
 11
11.44344333370399
 21
0.5
 31
0.0
  0
LINE
  5
3FB
330
233
100
AcDbEntity
  8
0
100
AcDbLine
 10
11.44344333370399
 20
1.627
 30
0.0
 11
9.365443333704
 21
0.5000000000000014
 31
0.0
  0
ENDBLK
  5
3FD
330
233
100
AcDbEntity
  8
0
100
AcDbBlockEnd
  0
BLOCK
  5
5D4
330
5C9
100
AcDbEntity
  8
0
100
AcDbBlockBegin
  2
*D20
 70
     1
 10
0.0
 20
0.0
 30
0.0
  3
*D20
  1

  0
LINE
  5
937
330
5C9
100
AcDbEntity
  8
0
 62
     0
370
    -2
100
AcDbLine
 10
5.63318867831478
 20
8.343104379977697
 30
0.0
 11
7.105116429207239
 21
8.343104379977697
 31
0.0
  0
LINE
  5
938
330
5C9
100
AcDbEntity
  8
0
 62
     0
370
    -2
100
AcDbLine
 10
5.611892248976683
 20
7.093104379977704
 30
0.0
 11
7.105116429207239
 21
7.093104379977703
 31
0.0
  0
LINE
  5
939
330
5C9
100
AcDbEntity
  8
0
 62
     0
370
    -2
100
AcDbLine
 10
6.925116429207239
 20
8.163104379977697
 30
0.0
 11
6.925116429207239
 21
7.8981043799777
 31
0.0
  0
LINE
  5
93A
330
5C9
100
AcDbEntity
  8
0
 62
     0
370
    -2
100
AcDbLine
 10
6.925116429207239
 20
7.273104379977703
 30
0.0
 11
6.925116429207239
 21
7.538104379977701
 31
0.0
  0
SOLID
  5
93B
330
5C9
100
AcDbEntity
  8
0
 62
     0
100
AcDbTrace
 10
6.895116429207239
 20
8.163104379977697
 30
0.0
 11
6.955116429207239
 21
8.163104379977697
 31
0.0
 12
6.925116429207239
 22
8.343104379977697
 32
0.0
 13
6.925116429207239
 23
8.343104379977697
 33
0.0
  0
SOLID
  5
93C
330
5C9
100
AcDbEntity
  8
0
 62
     0
100
AcDbTrace
 10
6.895116429207239
 20
7.273104379977703
 30
0.0
 11
6.955116429207239
 21
7.273104379977703
 31
0.0
 12
6.925116429207239
 22
7.093104379977703
 32
0.0
 13
6.925116429207239
 23
7.093104379977703
 33
0.0
  0
MTEXT
  5
93D
330
5C9
100
AcDbEntity
  8
0
 62
     0
100
AcDbMText
 10
6.925116429207238
 20
7.718104379977702
 30
0.0
 40
0.18
 41
0.0
 71
     5
 72
     1
  1
\A1;C
 73
     1
 44
1.0
  0
POINT
  5
93E
330
5C9
100
AcDbEntity
  8
Defpoints
 62
     0
100
AcDbPoint
 10
5.50818867831478
 20
8.343104379977697
 30
0.0
  0
POINT
  5
93F
330
5C9
100
AcDbEntity
  8
Defpoints
 62
     0
100
AcDbPoint
 10
5.486892248976683
 20
7.093104379977704
 30
0.0
  0
POINT
  5
940
330
5C9
100
AcDbEntity
  8
Defpoints
 62
     0
100
AcDbPoint
 10
6.925116429207239
 20
7.093104379977703
 30
0.0
  0
ENDBLK
  5
5D5
330
5C9
100
AcDbEntity
  8
0
100
AcDbBlockEnd
  0
BLOCK
  5
5E1
330
5D6
100
AcDbEntity
  8
0
100
AcDbBlockBegin
  2
*D21
 70
     1
 10
0.0
 20
0.0
 30
0.0
  3
*D21
  1

  0
LINE
  5
89A
330
5D6
100
AcDbEntity
  8
0
 62
     0
370
    -2
100
AcDbLine
 10
1.514244766555277
 20
10.82712311697112
 30
0.0
 11
1.514244766555277
 21
8.864898553524778
 31
0.0
  0
LINE
  5
89B
330
5D6
100
AcDbEntity
  8
0
 62
     0
370
    -2
100
AcDbLine
 10
5.764244766555279
 20
10.82712311697112
 30
0.0
 11
5.764244766555279
 21
8.864898553524778
 31
0.0
  0
LINE
  5
89C
330
5D6
100
AcDbEntity
  8
0
 62
     0
370
    -2
100
AcDbLine
 10
1.694244766555277
 20
9.044898553524777
 30
0.0
 11
3.504244766555278
 21
9.044898553524777
 31
0.0
  0
LINE
  5
89D
330
5D6
100
AcDbEntity
  8
0
 62
     0
370
    -2
100
AcDbLine
 10
5.584244766555279
 20
9.044898553524777
 30
0.0
 11
3.774244766555278
 21
9.044898553524777
 31
0.0
  0
SOLID
  5
89E
330
5D6
100
AcDbEntity
  8
0
 62
     0
100
AcDbTrace
 10
1.694244766555277
 20
9.074898553524777
 30
0.0
 11
1.694244766555277
 21
9.014898553524778
 31
0.0
 12
1.514244766555277
 22
9.044898553524777
 32
0.0
 13
1.514244766555277
 23
9.044898553524777
 33
0.0
  0
SOLID
  5
89F
330
5D6
100
AcDbEntity
  8
0
 62
     0
100
AcDbTrace
 10
5.584244766555279
 20
9.074898553524777
 30
0.0
 11
5.584244766555279
 21
9.014898553524778
 31
0.0
 12
5.764244766555279
 22
9.044898553524777
 32
0.0
 13
5.764244766555279
 23
9.044898553524777
 33
0.0
  0
MTEXT
  5
8A0
330
5D6
100
AcDbEntity
  8
0
 62
     0
100
AcDbMText
 10
3.639244766555278
 20
9.044898553524777
 30
0.0
 40
0.18
 41
0.0
 71
     5
 72
     1
  1
\A1;A
 73
     1
 44
1.0
  0
POINT
  5
8A1
330
5D6
100
AcDbEntity
  8
Defpoints
 62
     0
100
AcDbPoint
 10
1.514244766555277
 20
10.95212311697112
 30
0.0
  0
POINT
  5
8A2
330
5D6
100
AcDbEntity
  8
Defpoints
 62
     0
100
AcDbPoint
 10
5.764244766555279
 20
10.95212311697112
 30
0.0
  0
POINT
  5
8A3
330
5D6
100
AcDbEntity
  8
Defpoints
 62
     0
100
AcDbPoint
 10
5.764244766555279
 20
9.044898553524777
 30
0.0
  0
ENDBLK
  5
5E2
330
5D6
100
AcDbEntity
  8
0
100
AcDbBlockEnd
  0
BLOCK
  5
5EE
330
5E3
100
AcDbEntity
  8
0
100
AcDbBlockBegin
  2
*D22
 70
     1
 10
0.0
 20
0.0
 30
0.0
  3
*D22
  1

  0
LINE
  5
8E1
330
5E3
100
AcDbEntity
  8
0
 62
     0
370
    -2
100
AcDbLine
 10
5.514244766555274
 20
13.20212311697113
 30
0.0
 11
7.672171864388972
 21
13.20212311697113
 31
0.0
  0
LINE
  5
8E2
330
5E3
100
AcDbEntity
  8
0
 62
     0
370
    -2
100
AcDbLine
 10
5.514244766555279
 20
10.57712311697113
 30
0.0
 11
7.672171864388972
 21
10.57712311697113
 31
0.0
  0
LINE
  5
8E3
330
5E3
100
AcDbEntity
  8
0
 62
     0
370
    -2
100
AcDbLine
 10
7.492171864388971
 20
13.02212311697113
 30
0.0
 11
7.492171864388971
 21
12.06962311697113
 31
0.0
  0
LINE
  5
8E4
330
5E3
100
AcDbEntity
  8
0
 62
     0
370
    -2
100
AcDbLine
 10
7.492171864388971
 20
10.75712311697113
 30
0.0
 11
7.492171864388971
 21
11.70962311697113
 31
0.0
  0
SOLID
  5
8E5
330
5E3
100
AcDbEntity
  8
0
 62
     0
100
AcDbTrace
 10
7.462171864388971
 20
13.02212311697113
 30
0.0
 11
7.522171864388972
 21
13.02212311697113
 31
0.0
 12
7.492171864388971
 22
13.20212311697113
 32
0.0
 13
7.492171864388971
 23
13.20212311697113
 33
0.0
  0
SOLID
  5
8E6
330
5E3
100
AcDbEntity
  8
0
 62
     0
100
AcDbTrace
 10
7.462171864388971
 20
10.75712311697113
 30
0.0
 11
7.522171864388972
 21
10.75712311697113
 31
0.0
 12
7.492171864388971
 22
10.57712311697113
 32
0.0
 13
7.492171864388971
 23
10.57712311697113
 33
0.0
  0
MTEXT
  5
8E7
330
5E3
100
AcDbEntity
  8
0
 62
     0
100
AcDbMText
 10
7.49217186438897
 20
11.88962311697113
 30
0.0
 40
0.18
 41
0.0
 71
     5
 72
     1
  1
\A1;B
 73
     1
 44
1.0
  0
POINT
  5
8E8
330
5E3
100
AcDbEntity
  8
Defpoints
 62
     0
100
AcDbPoint
 10
5.389244766555274
 20
13.20212311697113
 30
0.0
  0
POINT
  5
8E9
330
5E3
100
AcDbEntity
  8
Defpoints
 62
     0
100
AcDbPoint
 10
5.389244766555279
 20
10.57712311697113
 30
0.0
  0
POINT
  5
8EA
330
5E3
100
AcDbEntity
  8
Defpoints
 62
     0
100
AcDbPoint
 10
7.492171864388971
 20
10.57712311697113
 30
0.0
  0
ENDBLK
  5
5EF
330
5E3
100
AcDbEntity
  8
0
100
AcDbBlockEnd
  0
BLOCK
  5
5FB
330
5F0
100
AcDbEntity
  8
0
100
AcDbBlockBegin
  2
*D23
 70
     1
 10
0.0
 20
0.0
 30
0.0
  3
*D23
  1

  0
LINE
  5
886
330
5F0
100
AcDbEntity
  8
0
 62
     0
370
    -2
100
AcDbLine
 10
5.264244766555279
 20
12.57712311697113
 30
0.0
 11
6.59179526328142
 21
12.57712311697113
 31
0.0
  0
LINE
  5
887
330
5F0
100
AcDbEntity
  8
0
 62
     0
370
    -2
100
AcDbLine
 10
5.264244766555279
 20
11.20212311697112
 30
0.0
 11
6.59179526328142
 21
11.20212311697112
 31
0.0
  0
LINE
  5
888
330
5F0
100
AcDbEntity
  8
0
 62
     0
370
    -2
100
AcDbLine
 10
6.411795263281421
 20
12.39712311697113
 30
0.0
 11
6.411795263281421
 21
12.3227213707325
 31
0.0
  0
LINE
  5
889
330
5F0
100
AcDbEntity
  8
0
 62
     0
370
    -2
100
AcDbLine
 10
6.411795263281421
 20
11.38212311697112
 30
0.0
 11
6.411795263281421
 21
11.9627213707325
 31
0.0
  0
SOLID
  5
88A
330
5F0
100
AcDbEntity
  8
0
 62
     0
100
AcDbTrace
 10
6.38179526328142
 20
12.39712311697113
 30
0.0
 11
6.441795263281421
 21
12.39712311697113
 31
0.0
 12
6.411795263281421
 22
12.57712311697113
 32
0.0
 13
6.411795263281421
 23
12.57712311697113
 33
0.0
  0
SOLID
  5
88B
330
5F0
100
AcDbEntity
  8
0
 62
     0
100
AcDbTrace
 10
6.38179526328142
 20
11.38212311697112
 30
0.0
 11
6.441795263281421
 21
11.38212311697112
 31
0.0
 12
6.411795263281421
 22
11.20212311697112
 32
0.0
 13
6.411795263281421
 23
11.20212311697112
 33
0.0
  0
MTEXT
  5
88C
330
5F0
100
AcDbEntity
  8
0
 62
     0
100
AcDbMText
 10
6.411795263281419
 20
12.1427213707325
 30
0.0
 40
0.18
 41
0.0
 71
     5
 72
     1
  1
\A1;K
 73
     1
 44
1.0
  0
POINT
  5
88D
330
5F0
100
AcDbEntity
  8
Defpoints
 62
     0
100
AcDbPoint
 10
5.139244766555279
 20
12.57712311697113
 30
0.0
  0
POINT
  5
88E
330
5F0
100
AcDbEntity
  8
Defpoints
 62
     0
100
AcDbPoint
 10
5.139244766555279
 20
11.20212311697112
 30
0.0
  0
POINT
  5
88F
330
5F0
100
AcDbEntity
  8
Defpoints
 62
     0
100
AcDbPoint
 10
6.411795263281421
 20
11.20212311697112
 30
0.0
  0
ENDBLK
  5
5FC
330
5F0
100
AcDbEntity
  8
0
100
AcDbBlockEnd
  0
BLOCK
  5
608
330
5FD
100
AcDbEntity
  8
0
100
AcDbBlockBegin
  2
*D24
 70
     1
 10
0.0
 20
0.0
 30
0.0
  3
*D24
  1

  0
LINE
  5
8C3
330
5FD
100
AcDbEntity
  8
0
 62
     0
370
    -2
100
AcDbLine
 10
2.139244766555286
 20
11.07712311697112
 30
0.0
 11
2.139244766555286
 21
9.748489059156923
 31
0.0
  0
LINE
  5
8C4
330
5FD
100
AcDbEntity
  8
0
 62
     0
370
    -2
100
AcDbLine
 10
5.139244766555279
 20
11.07712311697112
 30
0.0
 11
5.139244766555279
 21
9.748489059156923
 31
0.0
  0
LINE
  5
8C5
330
5FD
100
AcDbEntity
  8
0
 62
     0
370
    -2
100
AcDbLine
 10
2.319244766555286
 20
9.928489059156923
 30
0.0
 11
3.51158411881112
 21
9.928489059156923
 31
0.0
  0
LINE
  5
8C6
330
5FD
100
AcDbEntity
  8
0
 62
     0
370
    -2
100
AcDbLine
 10
4.959244766555279
 20
9.928489059156923
 30
0.0
 11
3.781584118811119
 21
9.928489059156923
 31
0.0
  0
SOLID
  5
8C7
330
5FD
100
AcDbEntity
  8
0
 62
     0
100
AcDbTrace
 10
2.319244766555286
 20
9.958489059156923
 30
0.0
 11
2.319244766555286
 21
9.898489059156924
 31
0.0
 12
2.139244766555286
 22
9.928489059156923
 32
0.0
 13
2.139244766555286
 23
9.928489059156923
 33
0.0
  0
SOLID
  5
8C8
330
5FD
100
AcDbEntity
  8
0
 62
     0
100
AcDbTrace
 10
4.959244766555279
 20
9.958489059156923
 30
0.0
 11
4.959244766555279
 21
9.898489059156924
 31
0.0
 12
5.139244766555279
 22
9.928489059156923
 32
0.0
 13
5.139244766555279
 23
9.928489059156923
 33
0.0
  0
MTEXT
  5
8C9
330
5FD
100
AcDbEntity
  8
0
 62
     0
100
AcDbMText
 10
3.646584118811119
 20
9.928489059156923
 30
0.0
 40
0.18
 41
0.0
 71
     5
 72
     1
  1
\A1;J
 73
     1
 44
1.0
  0
POINT
  5
8CA
330
5FD
100
AcDbEntity
  8
Defpoints
 62
     0
100
AcDbPoint
 10
2.139244766555286
 20
11.20212311697112
 30
0.0
  0
POINT
  5
8CB
330
5FD
100
AcDbEntity
  8
Defpoints
 62
     0
100
AcDbPoint
 10
5.139244766555279
 20
11.20212311697112
 30
0.0
  0
POINT
  5
8CC
330
5FD
100
AcDbEntity
  8
Defpoints
 62
     0
100
AcDbPoint
 10
5.139244766555279
 20
9.928489059156923
 30
0.0
  0
ENDBLK
  5
609
330
5FD
100
AcDbEntity
  8
0
100
AcDbBlockEnd
  0
BLOCK
  5
615
330
60A
100
AcDbEntity
  8
0
100
AcDbBlockBegin
  2
*D25
 70
     1
 10
0.0
 20
0.0
 30
0.0
  3
*D25
  1

  0
LINE
  5
890
330
60A
100
AcDbEntity
  8
0
 62
     0
370
    -2
100
AcDbLine
 10
1.88924476655529
 20
10.82712311697114
 30
0.0
 11
1.88924476655529
 21
9.318073709315417
 31
0.0
  0
LINE
  5
891
330
60A
100
AcDbEntity
  8
0
 62
     0
370
    -2
100
AcDbLine
 10
5.38924476655529
 20
10.82712311697112
 30
0.0
 11
5.38924476655529
 21
9.318073709315417
 31
0.0
  0
LINE
  5
892
330
60A
100
AcDbEntity
  8
0
 62
     0
370
    -2
100
AcDbLine
 10
2.06924476655529
 20
9.498073709315416
 30
0.0
 11
3.51158411881112
 21
9.498073709315416
 31
0.0
  0
LINE
  5
893
330
60A
100
AcDbEntity
  8
0
 62
     0
370
    -2
100
AcDbLine
 10
5.20924476655529
 20
9.498073709315416
 30
0.0
 11
3.781584118811119
 21
9.498073709315416
 31
0.0
  0
SOLID
  5
894
330
60A
100
AcDbEntity
  8
0
 62
     0
100
AcDbTrace
 10
2.06924476655529
 20
9.528073709315416
 30
0.0
 11
2.06924476655529
 21
9.468073709315417
 31
0.0
 12
1.88924476655529
 22
9.498073709315416
 32
0.0
 13
1.88924476655529
 23
9.498073709315416
 33
0.0
  0
SOLID
  5
895
330
60A
100
AcDbEntity
  8
0
 62
     0
100
AcDbTrace
 10
5.20924476655529
 20
9.528073709315416
 30
0.0
 11
5.20924476655529
 21
9.468073709315417
 31
0.0
 12
5.38924476655529
 22
9.498073709315416
 32
0.0
 13
5.38924476655529
 23
9.498073709315416
 33
0.0
  0
MTEXT
  5
896
330
60A
100
AcDbEntity
  8
0
 62
     0
100
AcDbMText
 10
3.646584118811119
 20
9.498073709315416
 30
0.0
 40
0.18
 41
0.0
 71
     5
 72
     1
  1
\A1;E
 73
     1
 44
1.0
  0
POINT
  5
897
330
60A
100
AcDbEntity
  8
Defpoints
 62
     0
100
AcDbPoint
 10
1.88924476655529
 20
10.95212311697113
 30
0.0
  0
POINT
  5
898
330
60A
100
AcDbEntity
  8
Defpoints
 62
     0
100
AcDbPoint
 10
5.38924476655529
 20
10.95212311697112
 30
0.0
  0
POINT
  5
899
330
60A
100
AcDbEntity
  8
Defpoints
 62
     0
100
AcDbPoint
 10
5.38924476655529
 20
9.498073709315416
 30
0.0
  0
ENDBLK
  5
616
330
60A
100
AcDbEntity
  8
0
100
AcDbBlockEnd
  0
BLOCK
  5
622
330
617
100
AcDbEntity
  8
0
100
AcDbBlockBegin
  2
*D26
 70
     1
 10
0.0
 20
0.0
 30
0.0
  3
*D26
  1

  0
LINE
  5
8EB
330
617
100
AcDbEntity
  8
0
 62
     0
370
    -2
100
AcDbLine
 10
5.514244766555275
 20
12.82712311697111
 30
0.0
 11
7.097975269467591
 21
12.82712311697111
 31
0.0
  0
LINE
  5
8EC
330
617
100
AcDbEntity
  8
0
 62
     0
370
    -2
100
AcDbLine
 10
5.514244766555275
 20
10.95212311697113
 30
0.0
 11
7.097975269467591
 21
10.95212311697113
 31
0.0
  0
LINE
  5
8ED
330
617
100
AcDbEntity
  8
0
 62
     0
370
    -2
100
AcDbLine
 10
6.917975269467591
 20
12.64712311697111
 30
0.0
 11
6.917975269467591
 21
12.06765588802541
 31
0.0
  0
LINE
  5
8EE
330
617
100
AcDbEntity
  8
0
 62
     0
370
    -2
100
AcDbLine
 10
6.917975269467591
 20
11.13212311697113
 30
0.0
 11
6.917975269467591
 21
11.70765588802541
 31
0.0
  0
SOLID
  5
8EF
330
617
100
AcDbEntity
  8
0
 62
     0
100
AcDbTrace
 10
6.887975269467591
 20
12.64712311697111
 30
0.0
 11
6.947975269467591
 21
12.64712311697111
 31
0.0
 12
6.917975269467591
 22
12.82712311697111
 32
0.0
 13
6.917975269467591
 23
12.82712311697111
 33
0.0
  0
SOLID
  5
8F0
330
617
100
AcDbEntity
  8
0
 62
     0
100
AcDbTrace
 10
6.887975269467591
 20
11.13212311697113
 30
0.0
 11
6.947975269467591
 21
11.13212311697113
 31
0.0
 12
6.917975269467591
 22
10.95212311697113
 32
0.0
 13
6.917975269467591
 23
10.95212311697113
 33
0.0
  0
MTEXT
  5
8F1
330
617
100
AcDbEntity
  8
0
 62
     0
100
AcDbMText
 10
6.917975269467589
 20
11.88765588802541
 30
0.0
 40
0.18
 41
0.0
 71
     5
 72
     1
  1
\A1;F
 73
     1
 44
1.0
  0
POINT
  5
8F2
330
617
100
AcDbEntity
  8
Defpoints
 62
     0
100
AcDbPoint
 10
5.389244766555275
 20
12.82712311697111
 30
0.0
  0
POINT
  5
8F3
330
617
100
AcDbEntity
  8
Defpoints
 62
     0
100
AcDbPoint
 10
5.389244766555275
 20
10.95212311697113
 30
0.0
  0
POINT
  5
8F4
330
617
100
AcDbEntity
  8
Defpoints
 62
     0
100
AcDbPoint
 10
6.917975269467591
 20
10.95212311697113
 30
0.0
  0
ENDBLK
  5
623
330
617
100
AcDbEntity
  8
0
100
AcDbBlockEnd
  0
BLOCK
  5
62F
330
624
100
AcDbEntity
  8
0
100
AcDbBlockBegin
  2
*D27
 70
     1
 10
0.0
 20
0.0
 30
0.0
  3
*D27
  1

  0
LINE
  5
8AF
330
624
100
AcDbEntity
  8
0
 62
     0
370
    -2
100
AcDbLine
 10
1.999244766555282
 20
12.71712311697112
 30
0.0
 11
0.605714202533564
 21
12.71712311697112
 31
0.0
  0
LINE
  5
8B0
330
624
100
AcDbEntity
  8
0
 62
     0
370
    -2
100
AcDbLine
 10
2.014244766555286
 20
11.06212311697112
 30
0.0
 11
0.6057142025335636
 21
11.06212311697112
 31
0.0
  0
LINE
  5
8B1
330
624
100
AcDbEntity
  8
0
 62
     0
370
    -2
100
AcDbLine
 10
0.7857142025335639
 20
12.53712311697112
 30
0.0
 11
0.7857142025335638
 21
12.08173203119933
 31
0.0
  0
LINE
  5
8B2
330
624
100
AcDbEntity
  8
0
 62
     0
370
    -2
100
AcDbLine
 10
0.7857142025335637
 20
11.24212311697112
 30
0.0
 11
0.7857142025335638
 21
11.72173203119933
 31
0.0
  0
SOLID
  5
8B3
330
624
100
AcDbEntity
  8
0
 62
     0
100
AcDbTrace
 10
0.755714202533564
 20
12.53712311697112
 30
0.0
 11
0.8157142025335639
 21
12.53712311697112
 31
0.0
 12
0.7857142025335639
 22
12.71712311697112
 32
0.0
 13
0.7857142025335639
 23
12.71712311697112
 33
0.0
  0
SOLID
  5
8B4
330
624
100
AcDbEntity
  8
0
 62
     0
100
AcDbTrace
 10
0.7557142025335636
 20
11.24212311697112
 30
0.0
 11
0.8157142025335636
 21
11.24212311697112
 31
0.0
 12
0.7857142025335637
 22
11.06212311697112
 32
0.0
 13
0.7857142025335637
 23
11.06212311697112
 33
0.0
  0
MTEXT
  5
8B5
330
624
100
AcDbEntity
  8
0
 62
     0
100
AcDbMText
 10
0.785714202533562
 20
11.90173203119933
 30
0.0
 40
0.18
 41
0.0
 71
     5
 72
     1
  1
\A1;G
 73
     1
 44
1.0
  0
POINT
  5
8B6
330
624
100
AcDbEntity
  8
Defpoints
 62
     0
100
AcDbPoint
 10
2.124244766555282
 20
12.71712311697112
 30
0.0
  0
POINT
  5
8B7
330
624
100
AcDbEntity
  8
Defpoints
 62
     0
100
AcDbPoint
 10
2.139244766555286
 20
11.06212311697112
 30
0.0
  0
POINT
  5
8B8
330
624
100
AcDbEntity
  8
Defpoints
 62
     0
100
AcDbPoint
 10
0.7857142025335637
 20
11.06212311697112
 30
0.0
  0
ENDBLK
  5
630
330
624
100
AcDbEntity
  8
0
100
AcDbBlockEnd
  0
BLOCK
  5
63C
330
631
100
AcDbEntity
  8
0
100
AcDbBlockBegin
  2
*D28
 70
     1
 10
0.0
 20
0.0
 30
0.0
  3
*D28
  1

  0
LINE
  5
8B9
330
631
100
AcDbEntity
  8
0
 62
     0
370
    -2
100
AcDbLine
 10
1.999244766555282
 20
12.71712311697112
 30
0.0
 11
1.999244766555282
 21
14.31437112112842
 31
0.0
  0
LINE
  5
8BA
330
631
100
AcDbEntity
  8
0
 62
     0
370
    -2
100
AcDbLine
 10
5.279244766555279
 20
12.71712311697112
 30
0.0
 11
5.279244766555279
 21
14.31437112112842
 31
0.0
  0
LINE
  5
8BB
330
631
100
AcDbEntity
  8
0
 62
     0
370
    -2
100
AcDbLine
 10
2.179244766555282
 20
14.13437112112842
 30
0.0
 11
3.453920895835912
 21
14.13437112112842
 31
0.0
  0
LINE
  5
8BC
330
631
100
AcDbEntity
  8
0
 62
     0
370
    -2
100
AcDbLine
 10
5.09924476655528
 20
14.13437112112842
 30
0.0
 11
3.723920895835911
 21
14.13437112112842
 31
0.0
  0
SOLID
  5
8BD
330
631
100
AcDbEntity
  8
0
 62
     0
100
AcDbTrace
 10
2.179244766555282
 20
14.16437112112842
 30
0.0
 11
2.179244766555282
 21
14.10437112112842
 31
0.0
 12
1.999244766555282
 22
14.13437112112842
 32
0.0
 13
1.999244766555282
 23
14.13437112112842
 33
0.0
  0
SOLID
  5
8BE
330
631
100
AcDbEntity
  8
0
 62
     0
100
AcDbTrace
 10
5.09924476655528
 20
14.16437112112842
 30
0.0
 11
5.09924476655528
 21
14.10437112112842
 31
0.0
 12
5.279244766555279
 22
14.13437112112842
 32
0.0
 13
5.279244766555279
 23
14.13437112112842
 33
0.0
  0
MTEXT
  5
8BF
330
631
100
AcDbEntity
  8
0
 62
     0
100
AcDbMText
 10
3.588920895835912
 20
14.13437112112842
 30
0.0
 40
0.18
 41
0.0
 71
     5
 72
     1
  1
\A1;H
 73
     1
 44
1.0
  0
POINT
  5
8C0
330
631
100
AcDbEntity
  8
Defpoints
 62
     0
100
AcDbPoint
 10
1.999244766555282
 20
12.59212311697113
 30
0.0
  0
POINT
  5
8C1
330
631
100
AcDbEntity
  8
Defpoints
 62
     0
100
AcDbPoint
 10
5.279244766555279
 20
12.59212311697113
 30
0.0
  0
POINT
  5
8C2
330
631
100
AcDbEntity
  8
Defpoints
 62
     0
100
AcDbPoint
 10
5.279244766555279
 20
14.13437112112842
 30
0.0
  0
ENDBLK
  5
63D
330
631
100
AcDbEntity
  8
0
100
AcDbBlockEnd
  0
BLOCK
  5
653
330
647
100
AcDbEntity
  8
0
100
AcDbBlockBegin
  2
*D29
 70
     1
 10
0.0
 20
0.0
 30
0.0
  3
*D29
  1

  0
LINE
  5
8FE
330
647
100
AcDbEntity
  8
0
 62
     0
370
    -2
100
AcDbLine
 10
2.170244766555271
 20
7.443104379977706
 30
0.0
 11
2.483044906399751
 21
7.443104379977706
 31
0.0
  0
LINE
  5
8FF
330
647
100
AcDbEntity
  8
0
 62
     0
370
    -2
100
AcDbLine
 10
2.165881000323224
 20
7.193104379977706
 30
0.0
 11
2.483044906399751
 21
7.193104379977706
 31
0.0
  0
LINE
  5
900
330
647
100
AcDbEntity
  8
0
 62
     0
370
    -2
100
AcDbLine
 10
2.303044906399751
 20
7.623104379977705
 30
0.0
 11
2.303044906399751
 21
7.803104379977706
 31
0.0
  0
LINE
  5
901
330
647
100
AcDbEntity
  8
0
 62
     0
370
    -2
100
AcDbLine
 10
2.303044906399751
 20
7.013104379977706
 30
0.0
 11
2.303044906399751
 21
6.833104379977705
 31
0.0
  0
LINE
  5
902
330
647
100
AcDbEntity
  8
0
 62
     0
370
    -2
100
AcDbLine
 10
2.303044906399751
 20
6.833104379977705
 30
0.0
 11
2.12304490639975
 21
6.833104379977705
 31
0.0
  0
SOLID
  5
903
330
647
100
AcDbEntity
  8
0
 62
     0
100
AcDbTrace
 10
2.273044906399751
 20
7.623104379977705
 30
0.0
 11
2.333044906399751
 21
7.623104379977705
 31
0.0
 12
2.303044906399751
 22
7.443104379977706
 32
0.0
 13
2.303044906399751
 23
7.443104379977706
 33
0.0
  0
SOLID
  5
904
330
647
100
AcDbEntity
  8
0
 62
     0
100
AcDbTrace
 10
2.273044906399751
 20
7.013104379977706
 30
0.0
 11
2.333044906399751
 21
7.013104379977706
 31
0.0
 12
2.303044906399751
 22
7.193104379977706
 32
0.0
 13
2.303044906399751
 23
7.193104379977706
 33
0.0
  0
MTEXT
  5
905
330
647
100
AcDbEntity
  8
0
 62
     0
100
AcDbMText
 10
1.98804490639975
 20
6.833104379977706
 30
0.0
 40
0.18
 41
0.0
 71
     5
 72
     1
  1
\A1;L
 73
     1
 44
1.0
  0
POINT
  5
906
330
647
100
AcDbEntity
  8
Defpoints
 62
     0
100
AcDbPoint
 10
2.045244766555271
 20
7.443104379977706
 30
0.0
  0
POINT
  5
907
330
647
100
AcDbEntity
  8
Defpoints
 62
     0
100
AcDbPoint
 10
2.040881000323224
 20
7.193104379977706
 30
0.0
  0
POINT
  5
908
330
647
100
AcDbEntity
  8
Defpoints
 62
     0
100
AcDbPoint
 10
2.303044906399751
 20
7.193104379977706
 30
0.0
  0
ENDBLK
  5
654
330
647
100
AcDbEntity
  8
0
100
AcDbBlockEnd
  0
BLOCK
  5
7AB
330
7A0
100
AcDbEntity
  8
0
100
AcDbBlockBegin
  2
*D30
 70
     1
 10
0.0
 20
0.0
 30
0.0
  3
*D30
  1

  0
LINE
  5
957
330
7A0
100
AcDbEntity
  8
0
 62
     0
370
    -2
100
AcDbLine
 10
5.826744766555282
 20
7.847104379977706
 30
0.0
 11
6.567784665518822
 21
7.847104379977705
 31
0.0
  0
LINE
  5
958
330
7A0
100
AcDbEntity
  8
0
 62
     0
370
    -2
100
AcDbLine
 10
5.563461363961694
 20
7.093104379977704
 30
0.0
 11
6.567784665518822
 21
7.093104379977703
 31
0.0
  0
LINE
  5
959
330
7A0
100
AcDbEntity
  8
0
 62
     0
370
    -2
100
AcDbLine
 10
6.387784665518823
 20
8.027104379977705
 30
0.0
 11
6.387784665518823
 21
8.207104379977705
 31
0.0
  0
LINE
  5
95A
330
7A0
100
AcDbEntity
  8
0
 62
     0
370
    -2
100
AcDbLine
 10
6.387784665518823
 20
6.913104379977704
 30
0.0
 11
6.387784665518823
 21
6.733104379977703
 31
0.0
  0
SOLID
  5
95B
330
7A0
100
AcDbEntity
  8
0
 62
     0
100
AcDbTrace
 10
6.357784665518822
 20
8.027104379977705
 30
0.0
 11
6.417784665518823
 21
8.027104379977705
 31
0.0
 12
6.387784665518823
 22
7.847104379977705
 32
0.0
 13
6.387784665518823
 23
7.847104379977705
 33
0.0
  0
SOLID
  5
95C
330
7A0
100
AcDbEntity
  8
0
 62
     0
100
AcDbTrace
 10
6.357784665518822
 20
6.913104379977704
 30
0.0
 11
6.417784665518823
 21
6.913104379977704
 31
0.0
 12
6.387784665518823
 22
7.093104379977703
 32
0.0
 13
6.387784665518823
 23
7.093104379977703
 33
0.0
  0
MTEXT
  5
95D
330
7A0
100
AcDbEntity
  8
0
 62
     0
100
AcDbMText
 10
6.387784665518822
 20
7.502316347944674
 30
0.0
 40
0.18
 41
0.0
 71
     5
 72
     1
  1
\A1;D
 73
     1
 44
1.0
  0
POINT
  5
95E
330
7A0
100
AcDbEntity
  8
Defpoints
 62
     0
100
AcDbPoint
 10
5.764244766555282
 20
7.847104379977706
 30
0.0
  0
POINT
  5
95F
330
7A0
100
AcDbEntity
  8
Defpoints
 62
     0
100
AcDbPoint
 10
5.500961363961694
 20
7.093104379977704
 30
0.0
  0
POINT
  5
960
330
7A0
100
AcDbEntity
  8
Defpoints
 62
     0
100
AcDbPoint
 10
6.387784665518823
 20
7.093104379977703
 30
0.0
  0
ENDBLK
  5
7AC
330
7A0
100
AcDbEntity
  8
0
100
AcDbBlockEnd
  0
BLOCK
  5
92A
330
91F
100
AcDbEntity
  8
0
100
AcDbBlockBegin
  2
*D31
 70
     1
 10
0.0
 20
0.0
 30
0.0
  3
*D31
  1

  0
LINE
  5
96C
330
91F
100
AcDbEntity
  8
0
 62
     0
370
    -2
100
AcDbLine
 10
9.373433079701985
 20
10.77790651956471
 30
0.0
 11
9.373433079701985
 21
9.982032689358302
 31
0.0
  0
LINE
  5
96D
330
91F
100
AcDbEntity
  8
0
 62
     0
370
    -2
100
AcDbLine
 10
9.273433079701984
 20
10.75351831854258
 30
0.0
 11
9.273433079701984
 21
9.982032689358302
 31
0.0
  0
LINE
  5
96E
330
91F
100
AcDbEntity
  8
0
 62
     0
370
    -2
100
AcDbLine
 10
9.553433079701985
 20
10.1620326893583
 30
0.0
 11
9.733433079701985
 21
10.1620326893583
 31
0.0
  0
LINE
  5
96F
330
91F
100
AcDbEntity
  8
0
 62
     0
370
    -2
100
AcDbLine
 10
9.093433079701984
 20
10.1620326893583
 30
0.0
 11
8.688433079701983
 21
10.1620326893583
 31
0.0
  0
SOLID
  5
970
330
91F
100
AcDbEntity
  8
0
 62
     0
100
AcDbTrace
 10
9.553433079701985
 20
10.1920326893583
 30
0.0
 11
9.553433079701985
 21
10.1320326893583
 31
0.0
 12
9.373433079701985
 22
10.1620326893583
 32
0.0
 13
9.373433079701985
 23
10.1620326893583
 33
0.0
  0
SOLID
  5
971
330
91F
100
AcDbEntity
  8
0
 62
     0
100
AcDbTrace
 10
9.093433079701984
 20
10.1920326893583
 30
0.0
 11
9.093433079701984
 21
10.1320326893583
 31
0.0
 12
9.273433079701984
 22
10.1620326893583
 32
0.0
 13
9.273433079701984
 23
10.1620326893583
 33
0.0
  0
MTEXT
  5
972
330
91F
100
AcDbEntity
  8
0
 62
     0
100
AcDbMText
 10
8.553433079701983
 20
10.1620326893583
 30
0.0
 40
0.18
 41
0.0
 71
     5
 72
     1
  1
\A1;M
 73
     1
 44
1.0
  0
POINT
  5
973
330
91F
100
AcDbEntity
  8
Defpoints
 62
     0
100
AcDbPoint
 10
9.373433079701985
 20
10.84040651956471
 30
0.0
  0
POINT
  5
974
330
91F
100
AcDbEntity
  8
Defpoints
 62
     0
100
AcDbPoint
 10
9.273433079701984
 20
10.81601831854258
 30
0.0
  0
POINT
  5
975
330
91F
100
AcDbEntity
  8
Defpoints
 62
     0
100
AcDbPoint
 10
9.273433079701984
 20
10.1620326893583
 30
0.0
  0
ENDBLK
  5
92B
330
91F
100
AcDbEntity
  8
0
100
AcDbBlockEnd
  0
BLOCK
  5
9FD
330
9EF
100
AcDbEntity
  8
0
100
AcDbBlockBegin
  2
A$C31977B81
 70
     0
 10
0.0
 20
0.0
 30
0.0
  3
A$C31977B81
  1

  0
TEXT
  5
9F0
330
9EF
100
AcDbEntity
  8
TEXT
100
AcDbText
 10
5.202054118697676
 20
-0.2553800881287562
 30
0.0
 40
0.188
  1
3.260
 41
0.75
100
AcDbText
  0
TEXT
  5
9F1
330
9EF
100
AcDbEntity
  8
TEXT
100
AcDbText
 10
0.1314330434444881
 20
-0.2553800881287553
 30
0.0
 40
0.188
  1
PT-11664
 41
0.75
100
AcDbText
  0
TEXT
  5
9F2
330
9EF
100
AcDbEntity
  8
TEXT
100
AcDbText
 10
1.357054118697675
 20
-0.2553800881287555
 30
0.0
 40
0.188
  1
6.016
 41
0.75
100
AcDbText
  0
TEXT
  5
9F3
330
9EF
100
AcDbEntity
  8
TEXT
100
AcDbText
 10
2.126054118697675
 20
-0.2553800881287556
 30
0.0
 40
0.188
  1
4.010
 41
0.75
100
AcDbText
  0
TEXT
  5
9F4
330
9EF
100
AcDbEntity
  8
TEXT
100
AcDbText
 10
2.895054118697675
 20
-0.2553800881287557
 30
0.0
 40
0.188
  1
1.140
 41
0.75
100
AcDbText
  0
TEXT
  5
9F5
330
9EF
100
AcDbEntity
  8
TEXT
100
AcDbText
 10
3.664054118697676
 20
-0.2553800881287558
 30
0.0
 40
0.188
  1
0.754
 41
0.75
100
AcDbText
  0
TEXT
  5
9F6
330
9EF
100
AcDbEntity
  8
TEXT
100
AcDbText
 10
4.433054118697675
 20
-0.255380088128756
 30
0.0
 40
0.188
  1
5.265
 41
0.75
100
AcDbText
  0
TEXT
  5
9F7
330
9EF
100
AcDbEntity
  8
TEXT
100
AcDbText
 10
8.278054118697676
 20
-0.2553800881287566
 30
0.0
 40
0.188
  1
2.755
 41
0.75
100
AcDbText
  0
TEXT
  5
9F8
330
9EF
100
AcDbEntity
  8
TEXT
100
AcDbText
 10
6.740054118697676
 20
-0.2553800881287564
 30
0.0
 40
0.188
  1
5.040
 41
0.75
100
AcDbText
  0
TEXT
  5
9F9
330
9EF
100
AcDbEntity
  8
TEXT
100
AcDbText
 10
5.971054118697676
 20
-0.2553800881287563
 30
0.0
 40
0.188
  1
3.040
 41
0.75
100
AcDbText
  0
TEXT
  5
9FA
330
9EF
100
AcDbEntity
  8
TEXT
100
AcDbText
 10
7.509054118697676
 20
-0.2553800881287565
 30
0.0
 40
0.188
  1
4.760
 41
0.75
100
AcDbText
  0
TEXT
  5
9FB
330
9EF
100
AcDbEntity
  8
TEXT
100
AcDbText
 10
9.816054118697676
 20
-0.2553800881287569
 30
0.0
 40
0.188
  1
0.100
 41
0.75
100
AcDbText
  0
TEXT
  5
9FC
330
9EF
100
AcDbEntity
  8
TEXT
100
AcDbText
 10
9.047054118697676
 20
-0.2553800881287568
 30
0.0
 40
0.188
  1
0.250
 41
0.75
100
AcDbText
  0
ENDBLK
  5
9FE
330
9EF
100
AcDbEntity
  8
0
100
AcDbBlockEnd
  0
ENDSEC
  0
SECTION
  2
ENTITIES
  0
TEXT
  5
2A
330
1E
100
AcDbEntity
  8
TEXT
100
AcDbText
 10
0.2078333333333363
 20
15.22007919564008
 30
0.0
 40
0.125
  1
NAME
 72
     1
 11
0.437000000000003
 21
15.22007919564008
 31
0.0
100
AcDbText
  0
TEXT
  5
2C
330
1E
100
AcDbEntity
  8
TEXT
100
AcDbText
 10
0.2078333333333363
 20
15.42841252897341
 30
0.0
 40
0.125
  1
PART
 72
     1
 11
0.437000000000003
 21
15.42841252897341
 31
0.0
100
AcDbText
  0
TEXT
  5
2D
330
1E
100
AcDbEntity
  8
TEXT
100
AcDbText
 10
5.611999999999998
 20
15.22007919564008
 30
0.0
 40
0.125
  1
No.
 72
     1
 11
5.736999999999998
 21
15.22007919564008
 31
0.0
100
AcDbText
  0
TEXT
  5
2E
330
1E
100
AcDbEntity
  8
TEXT
100
AcDbText
 10
5.507833333333331
 20
15.42841252897341
 30
0.0
 40
0.125
  1
PART
 72
     1
 11
5.736999999999998
 21
15.42841252897341
 31
0.0
100
AcDbText
  0
LINE
  5
2F
330
1E
100
AcDbEntity
  8
TITLE
100
AcDbLine
 10
6.112000000000001
 20
15.598
 30
0.0
 11
6.112000000000001
 21
15.17999999999999
 31
0.0
  0
LINE
  5
30
330
1E
100
AcDbEntity
  8
TITLE
100
AcDbLine
 10
5.362000000000001
 20
15.598
 30
0.0
 11
5.362000000000001
 21
15.17999999999999
 31
0.0
  0
LINE
  5
31
330
1E
100
AcDbEntity
  8
TITLE
100
AcDbLine
 10
5.3
 20
15.598
 30
0.0
 11
5.3
 21
15.17999999999999
 31
0.0
  0
LINE
  5
32
330
1E
100
AcDbEntity
  8
TITLE
100
AcDbLine
 10
0.8120000000000029
 20
15.17999999999999
 30
0.0
 11
0.8120000000000011
 21
15.598
 31
0.0
  0
LINE
  5
33
330
1E
100
AcDbEntity
  8
TITLE
100
AcDbLine
 10
0.0620000000000012
 20
15.17999999999999
 30
0.0
 11
10.538
 21
15.17999999999999
 31
0.0
  0
LINE
  5
34
330
1E
100
AcDbEntity
  8
TITLE
100
AcDbLine
 10
10.538
 20
0.0619999999999994
 30
0.0
 11
0.0619999999999976
 21
0.0620000000000012
 31
0.0
  0
LINE
  5
35
330
1E
100
AcDbEntity
  8
TITLE
100
AcDbLine
 10
10.538
 20
15.598
 30
0.0
 11
10.538
 21
0.0619999999999994
 31
0.0
  0
LINE
  5
36
330
1E
100
AcDbEntity
  8
TITLE
100
AcDbLine
 10
0.0620000000000012
 20
15.598
 30
0.0
 11
10.538
 21
15.598
 31
0.0
  0
LINE
  5
37
330
1E
100
AcDbEntity
  8
TITLE
100
AcDbLine
 10
0.0619999999999976
 20
0.0620000000000012
 30
0.0
 11
0.0620000000000012
 21
15.598
 31
0.0
  0
LINE
  5
38
330
1E
100
AcDbEntity
  8
TITLE
100
AcDbLine
 10
0.0
 20
0.0
 30
0.0
 11
0.0
 21
15.66
 31
0.0
  0
LINE
  5
39
330
1E
100
AcDbEntity
  8
TITLE
100
AcDbLine
 10
10.6
 20
-0.0000000000000018
 30
0.0
 11
0.0
 21
0.0
 31
0.0
  0
LINE
  5
3A
330
1E
100
AcDbEntity
  8
TITLE
100
AcDbLine
 10
10.6
 20
15.65999999999999
 30
0.0
 11
10.6
 21
-0.0000000000000018
 31
0.0
  0
LINE
  5
3B
330
1E
100
AcDbEntity
  8
TITLE
100
AcDbLine
 10
0.0
 20
15.66
 30
0.0
 11
10.6
 21
15.65999999999999
 31
0.0
  0
LINE
  5
46
330
1E
100
AcDbEntity
  8
TITLE
100
AcDbLine
 10
10.538
 20
0.3739999999999994
 30
0.0
 11
0.0619999999999977
 21
0.3740000000000012
 31
0.0
  0
LINE
  5
47
330
1E
100
AcDbEntity
  8
TITLE
100
AcDbLine
 10
10.538
 20
0.6859999999999994
 30
0.0
 11
0.0619999999999977
 21
0.6860000000000012
 31
0.0
  0
LINE
  5
49
330
1E
100
AcDbEntity
  8
TITLE
100
AcDbLine
 10
10.538
 20
2.245999999999999
 30
0.0
 11
0.061999999999998
 21
2.246000000000001
 31
0.0
  0
TEXT
  5
4A
330
1E
100
AcDbEntity
  8
TEXT
100
AcDbText
 10
0.1934330434444859
 20
0.7426199118712458
 30
0.0
 40
0.188
  1
PT-11657
 41
0.75
100
AcDbText
  0
TEXT
  5
50
330
1E
100
AcDbEntity
  8
TEXT
100
AcDbText
 10
0.1934330434444858
 20
0.1186199118712458
 30
0.0
 40
0.188
  1
PT-11668
 41
0.75
100
AcDbText
  0
TEXT
  5
52
330
1E
100
AcDbEntity
  8
TEXT
100
AcDbText
 10
0.1934330434444859
 20
1.990619911871245
 30
0.0
 40
0.188
  1
PART NO.
 41
0.75
100
AcDbText
  0
LINE
  5
56
330
1E
100
AcDbEntity
  8
TITLE
100
AcDbLine
 10
1.311999999999997
 20
0.062000000000001
 30
0.0
 11
1.311999999999998
 21
2.246000000000001
 31
0.0
  0
LINE
  5
68
330
1E
100
AcDbEntity
  8
TITLE
100
AcDbLine
 10
2.080999999999996
 20
0.0620000000000008
 30
0.0
 11
2.080999999999997
 21
2.246
 31
0.0
  0
LINE
  5
69
330
1E
100
AcDbEntity
  8
TITLE
100
AcDbLine
 10
2.849999999999997
 20
0.0620000000000007
 30
0.0
 11
2.849999999999997
 21
2.246
 31
0.0
  0
LINE
  5
6A
330
1E
100
AcDbEntity
  8
TITLE
100
AcDbLine
 10
3.618999999999997
 20
0.0620000000000006
 30
0.0
 11
3.618999999999997
 21
2.246
 31
0.0
  0
LINE
  5
6B
330
1E
100
AcDbEntity
  8
TITLE
100
AcDbLine
 10
4.387999999999996
 20
0.0620000000000004
 30
0.0
 11
4.387999999999998
 21
2.246
 31
0.0
  0
LINE
  5
6C
330
1E
100
AcDbEntity
  8
TITLE
100
AcDbLine
 10
5.156999999999997
 20
0.0620000000000003
 30
0.0
 11
5.156999999999998
 21
2.245999999999999
 31
0.0
  0
LINE
  5
6D
330
1E
100
AcDbEntity
  8
TITLE
100
AcDbLine
 10
5.925999999999996
 20
0.0620000000000002
 30
0.0
 11
5.925999999999998
 21
2.245999999999999
 31
0.0
  0
LINE
  5
6E
330
1E
100
AcDbEntity
  8
TITLE
100
AcDbLine
 10
6.694999999999996
 20
0.0620000000000001
 30
0.0
 11
6.694999999999998
 21
2.245999999999998
 31
0.0
  0
LINE
  5
6F
330
1E
100
AcDbEntity
  8
TITLE
100
AcDbLine
 10
7.463999999999998
 20
0.0619999999999999
 30
0.0
 11
7.463999999999998
 21
2.245999999999998
 31
0.0
  0
LINE
  5
70
330
1E
100
AcDbEntity
  8
TITLE
100
AcDbLine
 10
8.232999999999996
 20
0.0619999999999998
 30
0.0
 11
8.232999999999998
 21
2.245999999999997
 31
0.0
  0
LINE
  5
71
330
1E
100
AcDbEntity
  8
TITLE
100
AcDbLine
 10
9.001999999999995
 20
0.0619999999999997
 30
0.0
 11
9.001999999999998
 21
2.245999999999996
 31
0.0
  0
LINE
  5
72
330
1E
100
AcDbEntity
  8
TITLE
100
AcDbLine
 10
9.770999999999995
 20
0.0619999999999995
 30
0.0
 11
9.770999999999999
 21
2.245999999999995
 31
0.0
  0
TEXT
  5
75
330
1E
100
AcDbEntity
  8
TEXT
100
AcDbText
 10
1.705907588760688
 20
15.3058952456763
 30
0.0
 40
0.18
  1
PLASTIBOX  (STYLE H)
 41
0.75
100
AcDbText
  0
TEXT
  5
76
330
1E
100
AcDbEntity
  8
TEXT
100
AcDbText
 10
7.107929483648256
 20
15.3058952456763
 30
0.0
 40
0.18
  1
PT-11630  TO  PT-11668
 41
0.75
100
AcDbText
  0
TEXT
  5
78
330
1E
100
AcDbEntity
  8
TEXT
100
AcDbText
 10
1.656312935070232
 20
1.989575775829589
 30
0.0
 40
0.188
  1
A
 41
0.75
100
AcDbText
  0
TEXT
  5
79
330
1E
100
AcDbEntity
  8
TEXT
100
AcDbText
 10
2.425312935070232
 20
1.989575775829589
 30
0.0
 40
0.188
  1
B
 41
0.75
100
AcDbText
  0
TEXT
  5
7A
330
1E
100
AcDbEntity
  8
TEXT
100
AcDbText
 10
3.194312935070232
 20
1.989575775829589
 30
0.0
 40
0.188
  1
C
 41
0.75
100
AcDbText
  0
TEXT
  5
7B
330
1E
100
AcDbEntity
  8
TEXT
100
AcDbText
 10
3.963312935070232
 20
1.989575775829588
 30
0.0
 40
0.188
  1
D
 41
0.75
100
AcDbText
  0
TEXT
  5
7C
330
1E
100
AcDbEntity
  8
TEXT
100
AcDbText
 10
4.732312935070233
 20
1.989575775829588
 30
0.0
 40
0.188
  1
E
 41
0.75
100
AcDbText
  0
TEXT
  5
7D
330
1E
100
AcDbEntity
  8
TEXT
100
AcDbText
 10
5.501312935070234
 20
1.989575775829588
 30
0.0
 40
0.188
  1
F
 41
0.75
100
AcDbText
  0
TEXT
  5
7F
330
1E
100
AcDbEntity
  8
TEXT
100
AcDbText
 10
6.270312935070233
 20
1.989575775829587
 30
0.0
 40
0.188
  1
G
 41
0.75
100
AcDbText
  0
TEXT
  5
80
330
1E
100
AcDbEntity
  8
TEXT
100
AcDbText
 10
7.039312935070233
 20
1.989575775829587
 30
0.0
 40
0.188
  1
H
 41
0.75
100
AcDbText
  0
TEXT
  5
81
330
1E
100
AcDbEntity
  8
TEXT
100
AcDbText
 10
7.808312935070233
 20
1.989575775829586
 30
0.0
 40
0.188
  1
J
 41
0.75
100
AcDbText
  0
TEXT
  5
82
330
1E
100
AcDbEntity
  8
TEXT
100
AcDbText
 10
8.577312935070233
 20
1.989575775829586
 30
0.0
 40
0.188
  1
K
 41
0.75
100
AcDbText
  0
TEXT
  5
83
330
1E
100
AcDbEntity
  8
TEXT
100
AcDbText
 10
9.346312935070233
 20
1.989575775829585
 30
0.0
 40
0.188
  1
L
 41
0.75
100
AcDbText
  0
TEXT
  5
84
330
1E
100
AcDbEntity
  8
TEXT
100
AcDbText
 10
10.11531293507023
 20
1.989575775829588
 30
0.0
 40
0.188
  1
M
 41
0.75
100
AcDbText
  0
TEXT
  5
85
330
1E
100
AcDbEntity
  8
TEXT
100
AcDbText
 10
1.419054118697673
 20
0.7426199118712456
 30
0.0
 40
0.188
  1
5.625
 41
0.75
100
AcDbText
  0
TEXT
  5
86
330
1E
100
AcDbEntity
  8
TEXT
100
AcDbText
 10
2.188054118697673
 20
0.7426199118712455
 30
0.0
 40
0.188
  1
3.250
 41
0.75
100
AcDbText
  0
TEXT
  5
87
330
1E
100
AcDbEntity
  8
TEXT
100
AcDbText
 10
2.957054118697673
 20
0.7426199118712454
 30
0.0
 40
0.188
  1
1.372
 41
0.75
100
AcDbText
  0
TEXT
  5
88
330
1E
100
AcDbEntity
  8
TEXT
100
AcDbText
 10
3.726054118697674
 20
0.7426199118712452
 30
0.0
 40
0.188
  1
0.754
 41
0.75
100
AcDbText
  0
TEXT
  5
89
330
1E
100
AcDbEntity
  8
TEXT
100
AcDbText
 10
4.495054118697673
 20
0.742619911871245
 30
0.0
 40
0.188
  1
4.875
 41
0.75
100
AcDbText
  0
TEXT
  5
8A
330
1E
100
AcDbEntity
  8
TEXT
100
AcDbText
 10
5.264054118697674
 20
0.7426199118712449
 30
0.0
 40
0.188
  1
2.500
 41
0.75
100
AcDbText
  0
TEXT
  5
8B
330
1E
100
AcDbEntity
  8
TEXT
100
AcDbText
 10
6.033054118697673
 20
0.7426199118712448
 30
0.0
 40
0.188
  1
2.280
 41
0.75
100
AcDbText
  0
TEXT
  5
8C
330
1E
100
AcDbEntity
  8
TEXT
100
AcDbText
 10
6.802054118697673
 20
0.7426199118712447
 30
0.0
 40
0.188
  1
4.655
 41
0.75
100
AcDbText
  0
TEXT
  5
8D
330
1E
100
AcDbEntity
  8
TEXT
100
AcDbText
 10
7.571054118697674
 20
0.7426199118712446
 30
0.0
 40
0.188
  1
4.375
 41
0.75
100
AcDbText
  0
TEXT
  5
8E
330
1E
100
AcDbEntity
  8
TEXT
100
AcDbText
 10
8.340054118697674
 20
0.7426199118712445
 30
0.0
 40
0.188
  1
2.000
 41
0.75
100
AcDbText
  0
TEXT
  5
8F
330
1E
100
AcDbEntity
  8
TEXT
100
AcDbText
 10
9.109054118697674
 20
0.7426199118712442
 30
0.0
 40
0.188
  1
0.250
 41
0.75
100
AcDbText
  0
TEXT
  5
90
330
1E
100
AcDbEntity
  8
TEXT
100
AcDbText
 10
9.878054118697674
 20
0.7426199118712442
 30
0.0
 40
0.188
  1
0.100
 41
0.75
100
AcDbText
  0
TEXT
  5
9E
330
1E
100
AcDbEntity
  8
TEXT
100
AcDbText
 10
5.264054118697674
 20
0.118619911871245
 30
0.0
 40
0.188
  1
3.260
 41
0.75
100
AcDbText
  0
TEXT
  5
9F
330
1E
100
AcDbEntity
  8
TEXT
100
AcDbText
 10
1.419054118697673
 20
0.1186199118712456
 30
0.0
 40
0.188
  1
6.016
 41
0.75
100
AcDbText
  0
TEXT
  5
A0
330
1E
100
AcDbEntity
  8
TEXT
100
AcDbText
 10
2.188054118697673
 20
0.1186199118712455
 30
0.0
 40
0.188
  1
4.010
 41
0.75
100
AcDbText
  0
TEXT
  5
A1
330
1E
100
AcDbEntity
  8
TEXT
100
AcDbText
 10
2.957054118697673
 20
0.1186199118712454
 30
0.0
 40
0.188
  1
1.500
 41
0.75
100
AcDbText
  0
TEXT
  5
A2
330
1E
100
AcDbEntity
  8
TEXT
100
AcDbText
 10
3.726054118697674
 20
0.1186199118712453
 30
0.0
 40
0.188
  1
0.754
 41
0.75
100
AcDbText
  0
TEXT
  5
A3
330
1E
100
AcDbEntity
  8
TEXT
100
AcDbText
 10
4.495054118697673
 20
0.1186199118712451
 30
0.0
 40
0.188
  1
5.265
 41
0.75
100
AcDbText
  0
TEXT
  5
A4
330
1E
100
AcDbEntity
  8
TEXT
100
AcDbText
 10
8.340054118697674
 20
0.1186199118712445
 30
0.0
 40
0.188
  1
2.755
 41
0.75
100
AcDbText
  0
TEXT
  5
A5
330
1E
100
AcDbEntity
  8
TEXT
100
AcDbText
 10
6.802054118697673
 20
0.1186199118712448
 30
0.0
 40
0.188
  1
5.040
 41
0.75
100
AcDbText
  0
TEXT
  5
A6
330
1E
100
AcDbEntity
  8
TEXT
100
AcDbText
 10
6.033054118697673
 20
0.1186199118712449
 30
0.0
 40
0.188
  1
3.040
 41
0.75
100
AcDbText
  0
TEXT
  5
A7
330
1E
100
AcDbEntity
  8
TEXT
100
AcDbText
 10
7.571054118697674
 20
0.1186199118712446
 30
0.0
 40
0.188
  1
4.760
 41
0.75
100
AcDbText
  0
TEXT
  5
A8
330
1E
100
AcDbEntity
  8
TEXT
100
AcDbText
 10
9.878054118697674
 20
0.1186199118712442
 30
0.0
 40
0.188
  1
0.100
 41
0.75
100
AcDbText
  0
TEXT
  5
A9
330
1E
100
AcDbEntity
  8
TEXT
100
AcDbText
 10
9.109054118697674
 20
0.1186199118712443
 30
0.0
 40
0.188
  1
0.250
 41
0.75
100
AcDbText
  0
MTEXT
  5
401
330
1E
100
AcDbEntity
  8
0
 62
     4
100
AcDbMText
 10
-3.087013306370502
 20
70.90962538928138
 30
0.0
 40
0.125
 41
0.0
 71
     6
 72
     1
  1
\A1;
  7
Standard
 73
     1
 44
1.0
  0
MTEXT
  5
402
330
1E
100
AcDbEntity
  8
0
 62
     4
100
AcDbMText
 10
-4.245080361972882
 20
71.23399346420126
 30
0.0
 40
0.125
 41
0.0
 71
     4
 72
     1
  1
\A1;
  7
Standard
 73
     1
 44
1.0
  0
MTEXT
  5
403
330
1E
100
AcDbEntity
  8
0
 62
     4
100
AcDbMText
 10
-8.321906320310525
 20
68.776153099797
 30
0.0
 40
0.125
 41
0.0
 71
     6
 72
     1
  1
\A1;
  7
Standard
 73
     1
 44
1.0
  0
MTEXT
  5
404
330
1E
100
AcDbEntity
  8
0
 62
     4
100
AcDbMText
 10
-7.817860093565223
 20
68.23050484559634
 30
0.0
 40
0.125
 41
0.0
 71
     6
 72
     1
  1
\A1;
  7
Standard
 73
     1
 44
1.0
  0
MTEXT
  5
405
330
1E
100
AcDbEntity
  8
0
 62
     4
100
AcDbMText
 10
-8.189953124553362
 20
66.98676950990182
 30
0.0
 40
0.125
 41
0.0
 71
     6
 72
     1
  1
\A1;
  7
Standard
 73
     1
 44
1.0
  0
MTEXT
  5
406
330
1E
100
AcDbEntity
  8
0
 62
     4
100
AcDbMText
 10
-8.137233921901504
 20
66.73609058524377
 30
0.0
 40
0.125
 41
0.0
 71
     6
 72
     1
  1
\A1;
  7
Standard
 73
     1
 44
1.0
  0
MTEXT
  5
407
330
1E
100
AcDbEntity
  8
0
 62
     4
100
AcDbMText
 10
6.623734738124802
 20
55.36692001548101
 30
0.0
 40
0.125
 41
0.0
 71
     6
 72
     1
  1
\A1;
  7
Standard
 73
     1
 44
1.0
  0
MTEXT
  5
408
330
1E
100
AcDbEntity
  8
0
 62
     4
100
AcDbMText
 10
12.60872409976692
 20
53.41620758293112
 30
0.0
 40
0.125
 41
0.0
 71
     4
 72
     1
  1
\A1;
  7
Standard
 73
     1
 44
1.0
  0
MTEXT
  5
409
330
1E
100
AcDbEntity
  8
0
 62
     4
100
AcDbMText
 10
-14.06148667006773
 20
47.97416495990887
 30
0.0
 40
0.125
 41
0.0
 71
     4
 72
     1
  1
\A1;
  7
Standard
 73
     1
 44
1.0
  0
MTEXT
  5
40A
330
1E
100
AcDbEntity
  8
0
 62
     4
100
AcDbMText
 10
-18.00256896051699
 20
44.22006058988658
 30
0.0
 40
0.125
 41
0.0
 71
     6
 72
     1
  1
\A1;
  7
Standard
 73
     1
 44
1.0
  0
MTEXT
  5
40B
330
1E
100
AcDbEntity
  8
0
 62
     4
100
AcDbMText
 10
-17.68761417086827
 20
44.97055398852175
 30
0.0
 40
0.125
 41
0.0
 71
     6
 72
     1
  1
\A1;
  7
Standard
 73
     1
 44
1.0
  0
MTEXT
  5
40C
330
1E
100
AcDbEntity
  8
0
 62
     4
100
AcDbMText
 10
-18.11562964456562
 20
45.51930185079069
 30
0.0
 40
0.125
 41
0.0
 71
     6
 72
     1
  1
\A1;
  7
Standard
 73
     1
 44
1.0
  0
MTEXT
  5
40D
330
1E
100
AcDbEntity
  8
0
 62
     4
100
AcDbMText
 10
-9.652893276886636
 20
47.17500787985538
 30
0.0
 40
0.125
 41
0.0
 71
     6
 72
     1
  1
\A1;
  7
Standard
 73
     1
 44
1.0
  0
MTEXT
  5
40E
330
1E
100
AcDbEntity
  8
0
 62
     4
100
AcDbMText
 10
-3.78071399404611
 20
45.23795589450116
 30
0.0
 40
0.125
 41
0.0
 71
     4
 72
     1
  1
\A1;
  7
Standard
 73
     1
 44
1.0
  0
MTEXT
  5
40F
330
1E
100
AcDbEntity
  8
0
 62
     5
100
AcDbMText
 10
-13.77581152306619
 20
47.89834742896036
 30
0.0
 40
0.125
 41
0.0
 71
     4
 72
     1
  1
\A1;
  7
Standard
 73
     1
 44
1.0
  0
MTEXT
  5
410
330
1E
100
AcDbEntity
  8
0
 62
     5
100
AcDbMText
 10
-17.86416707226983
 20
45.28127145520353
 30
0.0
 40
0.125
 41
0.0
 71
     6
 72
     1
  1
\A1;
  7
Standard
 73
     1
 44
1.0
  0
MTEXT
  5
411
330
1E
100
AcDbEntity
  8
0
 62
     5
100
AcDbMText
 10
-17.59719069307656
 20
44.63418813106133
 30
0.0
 40
0.125
 41
0.0
 71
     6
 72
     1
  1
\A1;
  7
Standard
 73
     1
 44
1.0
  0
MTEXT
  5
412
330
1E
100
AcDbEntity
  8
0
 62
     5
100
AcDbMText
 10
-17.87467847215679
 20
43.9229378997525
 30
0.0
 40
0.125
 41
0.0
 71
     6
 72
     1
  1
\A1;
  7
Standard
 73
     1
 44
1.0
  0
MTEXT
  5
413
330
1E
100
AcDbEntity
  8
0
 62
     5
100
AcDbMText
 10
-17.9033613108057
 20
42.89806180812064
 30
0.0
 40
0.125
 41
0.0
 71
     6
 72
     1
  1
\A1;
  7
Standard
 73
     1
 44
1.0
  0
MTEXT
  5
414
330
1E
100
AcDbEntity
  8
0
 62
     5
100
AcDbMText
 10
-9.665910074595821
 20
47.42138179437694
 30
0.0
 40
0.125
 41
0.0
 71
     6
 72
     1
  1
\A1;
  7
Standard
 73
     1
 44
1.0
  0
MTEXT
  5
415
330
1E
100
AcDbEntity
  8
0
 62
     5
100
AcDbMText
 10
-3.810548588142723
 20
45.04264681403815
 30
0.0
 40
0.125
 41
0.0
 71
     4
 72
     1
  1
\A1;
  7
Standard
 73
     1
 44
1.0
  0
MTEXT
  5
416
330
1E
100
AcDbEntity
  8
0
 62
     5
100
AcDbMText
 10
-8.409914034419607
 20
41.23923124889147
 30
0.0
 40
0.125
 41
0.0
 71
     4
 72
     1
  1
\A1;
  7
Standard
 73
     1
 44
1.0
  0
MTEXT
  5
417
330
1E
100
AcDbEntity
  8
0
 62
     4
100
AcDbMText
 10
2.768477800972539
 20
10.67174765229108
 30
0.0
 40
0.125
 41
0.0
 71
     4
 72
     1
  1
\A1;
  7
Standard
 73
     1
 44
1.0
  0
MTEXT
  5
418
330
1E
100
AcDbEntity
  8
0
 62
     4
100
AcDbMText
 10
29.11503512300137
 20
104.8240860542521
 30
0.0
 40
0.125
 41
0.0
 71
     6
 72
     1
  1
\A1;
  7
Standard
 73
     1
 44
1.0
  0
MTEXT
  5
419
330
1E
100
AcDbEntity
  8
0
 62
     4
100
AcDbMText
 10
27.95696806739899
 20
105.1484541291719
 30
0.0
 40
0.125
 41
0.0
 71
     4
 72
     1
  1
\A1;
  7
Standard
 73
     1
 44
1.0
  0
MTEXT
  5
41A
330
1E
100
AcDbEntity
  8
0
 62
     4
100
AcDbMText
 10
23.88014210906134
 20
102.6906137647677
 30
0.0
 40
0.125
 41
0.0
 71
     6
 72
     1
  1
\A1;
  7
Standard
 73
     1
 44
1.0
  0
MTEXT
  5
41B
330
1E
100
AcDbEntity
  8
0
 62
     4
100
AcDbMText
 10
24.38418833580664
 20
102.144965510567
 30
0.0
 40
0.125
 41
0.0
 71
     6
 72
     1
  1
\A1;
  7
Standard
 73
     1
 44
1.0
  0
MTEXT
  5
41C
330
1E
100
AcDbEntity
  8
0
 62
     4
100
AcDbMText
 10
24.01209530481851
 20
100.9012301748725
 30
0.0
 40
0.125
 41
0.0
 71
     6
 72
     1
  1
\A1;
  7
Standard
 73
     1
 44
1.0
  0
MTEXT
  5
41D
330
1E
100
AcDbEntity
  8
0
 62
     4
100
AcDbMText
 10
24.06481450747036
 20
100.6505512502145
 30
0.0
 40
0.125
 41
0.0
 71
     6
 72
     1
  1
\A1;
  7
Standard
 73
     1
 44
1.0
  0
MTEXT
  5
41E
330
1E
100
AcDbEntity
  8
0
 62
     4
100
AcDbMText
 10
38.82578316749667
 20
89.28138068045177
 30
0.0
 40
0.125
 41
0.0
 71
     6
 72
     1
  1
\A1;
  7
Standard
 73
     1
 44
1.0
  0
MTEXT
  5
41F
330
1E
100
AcDbEntity
  8
0
 62
     4
100
AcDbMText
 10
44.81077252913879
 20
87.33066824790187
 30
0.0
 40
0.125
 41
0.0
 71
     4
 72
     1
  1
\A1;
  7
Standard
 73
     1
 44
1.0
  0
MTEXT
  5
420
330
1E
100
AcDbEntity
  8
0
 62
     4
100
AcDbMText
 10
18.14056175930414
 20
81.88862562487962
 30
0.0
 40
0.125
 41
0.0
 71
     4
 72
     1
  1
\A1;
  7
Standard
 73
     1
 44
1.0
  0
MTEXT
  5
421
330
1E
100
AcDbEntity
  8
0
 62
     4
100
AcDbMText
 10
14.19947946885487
 20
78.13452125485731
 30
0.0
 40
0.125
 41
0.0
 71
     6
 72
     1
  1
\A1;
  7
Standard
 73
     1
 44
1.0
  0
MTEXT
  5
422
330
1E
100
AcDbEntity
  8
0
 62
     4
100
AcDbMText
 10
14.51443425850359
 20
78.88501465349249
 30
0.0
 40
0.125
 41
0.0
 71
     6
 72
     1
  1
\A1;
  7
Standard
 73
     1
 44
1.0
  0
MTEXT
  5
423
330
1E
100
AcDbEntity
  8
0
 62
     4
100
AcDbMText
 10
14.08641878480624
 20
79.43376251576143
 30
0.0
 40
0.125
 41
0.0
 71
     6
 72
     1
  1
\A1;
  7
Standard
 73
     1
 44
1.0
  0
MTEXT
  5
424
330
1E
100
AcDbEntity
  8
0
 62
     4
100
AcDbMText
 10
22.54915515248523
 20
81.08946854482612
 30
0.0
 40
0.125
 41
0.0
 71
     6
 72
     1
  1
\A1;
  7
Standard
 73
     1
 44
1.0
  0
MTEXT
  5
425
330
1E
100
AcDbEntity
  8
0
 62
     4
100
AcDbMText
 10
28.42133443532576
 20
79.1524165594719
 30
0.0
 40
0.125
 41
0.0
 71
     4
 72
     1
  1
\A1;
  7
Standard
 73
     1
 44
1.0
  0
MTEXT
  5
426
330
1E
100
AcDbEntity
  8
0
 62
     5
100
AcDbMText
 10
18.42623690630567
 20
81.81280809393109
 30
0.0
 40
0.125
 41
0.0
 71
     4
 72
     1
  1
\A1;
  7
Standard
 73
     1
 44
1.0
  0
MTEXT
  5
427
330
1E
100
AcDbEntity
  8
0
 62
     5
100
AcDbMText
 10
14.33788135710203
 20
79.19573212017427
 30
0.0
 40
0.125
 41
0.0
 71
     6
 72
     1
  1
\A1;
  7
Standard
 73
     1
 44
1.0
  0
MTEXT
  5
428
330
1E
100
AcDbEntity
  8
0
 62
     5
100
AcDbMText
 10
14.6048577362953
 20
78.54864879603207
 30
0.0
 40
0.125
 41
0.0
 71
     6
 72
     1
  1
\A1;
  7
Standard
 73
     1
 44
1.0
  0
MTEXT
  5
429
330
1E
100
AcDbEntity
  8
0
 62
     5
100
AcDbMText
 10
14.32736995721507
 20
77.83739856472324
 30
0.0
 40
0.125
 41
0.0
 71
     6
 72
     1
  1
\A1;
  7
Standard
 73
     1
 44
1.0
  0
MTEXT
  5
42A
330
1E
100
AcDbEntity
  8
0
 62
     5
100
AcDbMText
 10
14.29868711856617
 20
76.81252247309138
 30
0.0
 40
0.125
 41
0.0
 71
     6
 72
     1
  1
\A1;
  7
Standard
 73
     1
 44
1.0
  0
MTEXT
  5
42B
330
1E
100
AcDbEntity
  8
0
 62
     5
100
AcDbMText
 10
22.53613835477604
 20
81.33584245934768
 30
0.0
 40
0.125
 41
0.0
 71
     6
 72
     1
  1
\A1;
  7
Standard
 73
     1
 44
1.0
  0
MTEXT
  5
42C
330
1E
100
AcDbEntity
  8
0
 62
     5
100
AcDbMText
 10
28.39149984122915
 20
78.95710747900889
 30
0.0
 40
0.125
 41
0.0
 71
     4
 72
     1
  1
\A1;
  7
Standard
 73
     1
 44
1.0
  0
MTEXT
  5
42D
330
1E
100
AcDbEntity
  8
0
 62
     5
100
AcDbMText
 10
23.79213439495226
 20
75.1536919138622
 30
0.0
 40
0.125
 41
0.0
 71
     4
 72
     1
  1
\A1;
  7
Standard
 73
     1
 44
1.0
  0
MTEXT
  5
42E
330
1E
100
AcDbEntity
  8
0
 62
     4
100
AcDbMText
 10
34.97052623034441
 20
44.58620831726181
 30
0.0
 40
0.125
 41
0.0
 71
     4
 72
     1
  1
\A1;
  7
Standard
 73
     1
 44
1.0
  0
MTEXT
  5
42F
330
1E
100
AcDbEntity
  8
0
 62
     4
100
AcDbMText
 10
50.21181061965557
 20
109.6471742358053
 30
0.0
 40
0.125
 41
0.0
 71
     6
 72
     1
  1
\A1;
  7
Standard
 73
     1
 44
1.0
  0
MTEXT
  5
430
330
1E
100
AcDbEntity
  8
0
 62
     4
100
AcDbMText
 10
49.05374356405319
 20
109.9715423107251
 30
0.0
 40
0.125
 41
0.0
 71
     4
 72
     1
  1
\A1;
  7
Standard
 73
     1
 44
1.0
  0
MTEXT
  5
431
330
1E
100
AcDbEntity
  8
0
 62
     4
100
AcDbMText
 10
44.97691760571554
 20
107.5137019463209
 30
0.0
 40
0.125
 41
0.0
 71
     6
 72
     1
  1
\A1;
  7
Standard
 73
     1
 44
1.0
  0
MTEXT
  5
432
330
1E
100
AcDbEntity
  8
0
 62
     4
100
AcDbMText
 10
45.48096383246085
 20
106.9680536921202
 30
0.0
 40
0.125
 41
0.0
 71
     6
 72
     1
  1
\A1;
  7
Standard
 73
     1
 44
1.0
  0
MTEXT
  5
433
330
1E
100
AcDbEntity
  8
0
 62
     4
100
AcDbMText
 10
45.10887080147271
 20
105.7243183564257
 30
0.0
 40
0.125
 41
0.0
 71
     6
 72
     1
  1
\A1;
  7
Standard
 73
     1
 44
1.0
  0
MTEXT
  5
434
330
1E
100
AcDbEntity
  8
0
 62
     4
100
AcDbMText
 10
45.16159000412456
 20
105.4736394317676
 30
0.0
 40
0.125
 41
0.0
 71
     6
 72
     1
  1
\A1;
  7
Standard
 73
     1
 44
1.0
  0
MTEXT
  5
435
330
1E
100
AcDbEntity
  8
0
 62
     4
100
AcDbMText
 10
59.92255866415088
 20
94.10446886200494
 30
0.0
 40
0.125
 41
0.0
 71
     6
 72
     1
  1
\A1;
  7
Standard
 73
     1
 44
1.0
  0
MTEXT
  5
436
330
1E
100
AcDbEntity
  8
0
 62
     4
100
AcDbMText
 10
65.90754802579299
 20
92.15375642945504
 30
0.0
 40
0.125
 41
0.0
 71
     4
 72
     1
  1
\A1;
  7
Standard
 73
     1
 44
1.0
  0
MTEXT
  5
437
330
1E
100
AcDbEntity
  8
0
 62
     4
100
AcDbMText
 10
39.23733725595834
 20
86.71171380643279
 30
0.0
 40
0.125
 41
0.0
 71
     4
 72
     1
  1
\A1;
  7
Standard
 73
     1
 44
1.0
  0
MTEXT
  5
438
330
1E
100
AcDbEntity
  8
0
 62
     4
100
AcDbMText
 10
35.29625496550908
 20
82.95760943641049
 30
0.0
 40
0.125
 41
0.0
 71
     6
 72
     1
  1
\A1;
  7
Standard
 73
     1
 44
1.0
  0
MTEXT
  5
439
330
1E
100
AcDbEntity
  8
0
 62
     4
100
AcDbMText
 10
35.6112097551578
 20
83.70810283504566
 30
0.0
 40
0.125
 41
0.0
 71
     6
 72
     1
  1
\A1;
  7
Standard
 73
     1
 44
1.0
  0
MTEXT
  5
43A
330
1E
100
AcDbEntity
  8
0
 62
     4
100
AcDbMText
 10
35.18319428146045
 20
84.25685069731461
 30
0.0
 40
0.125
 41
0.0
 71
     6
 72
     1
  1
\A1;
  7
Standard
 73
     1
 44
1.0
  0
MTEXT
  5
43B
330
1E
100
AcDbEntity
  8
0
 62
     4
100
AcDbMText
 10
43.64593064913943
 20
85.91255672637929
 30
0.0
 40
0.125
 41
0.0
 71
     6
 72
     1
  1
\A1;
  7
Standard
 73
     1
 44
1.0
  0
MTEXT
  5
43C
330
1E
100
AcDbEntity
  8
0
 62
     4
100
AcDbMText
 10
49.51810993197996
 20
83.97550474102507
 30
0.0
 40
0.125
 41
0.0
 71
     4
 72
     1
  1
\A1;
  7
Standard
 73
     1
 44
1.0
  0
MTEXT
  5
43D
330
1E
100
AcDbEntity
  8
0
 62
     5
100
AcDbMText
 10
39.52301240295987
 20
86.63589627548427
 30
0.0
 40
0.125
 41
0.0
 71
     4
 72
     1
  1
\A1;
  7
Standard
 73
     1
 44
1.0
  0
MTEXT
  5
43E
330
1E
100
AcDbEntity
  8
0
 62
     5
100
AcDbMText
 10
35.43465685375624
 20
84.01882030172744
 30
0.0
 40
0.125
 41
0.0
 71
     6
 72
     1
  1
\A1;
  7
Standard
 73
     1
 44
1.0
  0
MTEXT
  5
43F
330
1E
100
AcDbEntity
  8
0
 62
     5
100
AcDbMText
 10
35.7016332329495
 20
83.37173697758524
 30
0.0
 40
0.125
 41
0.0
 71
     6
 72
     1
  1
\A1;
  7
Standard
 73
     1
 44
1.0
  0
MTEXT
  5
440
330
1E
100
AcDbEntity
  8
0
 62
     5
100
AcDbMText
 10
35.42414545386928
 20
82.66048674627642
 30
0.0
 40
0.125
 41
0.0
 71
     6
 72
     1
  1
\A1;
  7
Standard
 73
     1
 44
1.0
  0
MTEXT
  5
441
330
1E
100
AcDbEntity
  8
0
 62
     5
100
AcDbMText
 10
35.39546261522037
 20
81.63561065464454
 30
0.0
 40
0.125
 41
0.0
 71
     6
 72
     1
  1
\A1;
  7
Standard
 73
     1
 44
1.0
  0
MTEXT
  5
442
330
1E
100
AcDbEntity
  8
0
 62
     5
100
AcDbMText
 10
43.63291385143025
 20
86.15893064090085
 30
0.0
 40
0.125
 41
0.0
 71
     6
 72
     1
  1
\A1;
  7
Standard
 73
     1
 44
1.0
  0
MTEXT
  5
443
330
1E
100
AcDbEntity
  8
0
 62
     5
100
AcDbMText
 10
49.48827533788335
 20
83.78019566056206
 30
0.0
 40
0.125
 41
0.0
 71
     4
 72
     1
  1
\A1;
  7
Standard
 73
     1
 44
1.0
  0
MTEXT
  5
444
330
1E
100
AcDbEntity
  8
0
 62
     5
100
AcDbMText
 10
44.88890989160647
 20
79.97678009541537
 30
0.0
 40
0.125
 41
0.0
 71
     4
 72
     1
  1
\A1;
  7
Standard
 73
     1
 44
1.0
  0
MTEXT
  5
445
330
1E
100
AcDbEntity
  8
0
 62
     4
100
AcDbMText
 10
56.06730172699862
 20
49.409296498815
 30
0.0
 40
0.125
 41
0.0
 71
     4
 72
     1
  1
\A1;
  7
Standard
 73
     1
 44
1.0
  0
MTEXT
  5
446
330
1E
100
AcDbEntity
  8
0
 62
     4
100
AcDbMText
 10
82.41385904902745
 20
143.561634900776
 30
0.0
 40
0.125
 41
0.0
 71
     6
 72
     1
  1
\A1;
  7
Standard
 73
     1
 44
1.0
  0
MTEXT
  5
447
330
1E
100
AcDbEntity
  8
0
 62
     4
100
AcDbMText
 10
81.25579199342507
 20
143.8860029756959
 30
0.0
 40
0.125
 41
0.0
 71
     4
 72
     1
  1
\A1;
  7
Standard
 73
     1
 44
1.0
  0
MTEXT
  5
448
330
1E
100
AcDbEntity
  8
0
 62
     4
100
AcDbMText
 10
77.17896603508743
 20
141.4281626112916
 30
0.0
 40
0.125
 41
0.0
 71
     6
 72
     1
  1
\A1;
  7
Standard
 73
     1
 44
1.0
  0
MTEXT
  5
449
330
1E
100
AcDbEntity
  8
0
 62
     4
100
AcDbMText
 10
77.68301226183272
 20
140.8825143570909
 30
0.0
 40
0.125
 41
0.0
 71
     6
 72
     1
  1
\A1;
  7
Standard
 73
     1
 44
1.0
  0
MTEXT
  5
44A
330
1E
100
AcDbEntity
  8
0
 62
     4
100
AcDbMText
 10
77.31091923084457
 20
139.6387790213964
 30
0.0
 40
0.125
 41
0.0
 71
     6
 72
     1
  1
\A1;
  7
Standard
 73
     1
 44
1.0
  0
MTEXT
  5
44B
330
1E
100
AcDbEntity
  8
0
 62
     4
100
AcDbMText
 10
77.36363843349645
 20
139.3881000967383
 30
0.0
 40
0.125
 41
0.0
 71
     6
 72
     1
  1
\A1;
  7
Standard
 73
     1
 44
1.0
  0
MTEXT
  5
44C
330
1E
100
AcDbEntity
  8
0
 62
     4
100
AcDbMText
 10
92.12460709352274
 20
128.0189295269756
 30
0.0
 40
0.125
 41
0.0
 71
     6
 72
     1
  1
\A1;
  7
Standard
 73
     1
 44
1.0
  0
MTEXT
  5
44D
330
1E
100
AcDbEntity
  8
0
 62
     4
100
AcDbMText
 10
98.10959645516486
 20
126.0682170944257
 30
0.0
 40
0.125
 41
0.0
 71
     4
 72
     1
  1
\A1;
  7
Standard
 73
     1
 44
1.0
  0
MTEXT
  5
44E
330
1E
100
AcDbEntity
  8
0
 62
     4
100
AcDbMText
 10
71.43938568533022
 20
120.6261744714035
 30
0.0
 40
0.125
 41
0.0
 71
     4
 72
     1
  1
\A1;
  7
Standard
 73
     1
 44
1.0
  0
MTEXT
  5
44F
330
1E
100
AcDbEntity
  8
0
 62
     4
100
AcDbMText
 10
67.49830339488095
 20
116.8720701013812
 30
0.0
 40
0.125
 41
0.0
 71
     6
 72
     1
  1
\A1;
  7
Standard
 73
     1
 44
1.0
  0
MTEXT
  5
450
330
1E
100
AcDbEntity
  8
0
 62
     4
100
AcDbMText
 10
67.81325818452967
 20
117.6225635000164
 30
0.0
 40
0.125
 41
0.0
 71
     6
 72
     1
  1
\A1;
  7
Standard
 73
     1
 44
1.0
  0
MTEXT
  5
451
330
1E
100
AcDbEntity
  8
0
 62
     4
100
AcDbMText
 10
67.38524271083233
 20
118.1713113622853
 30
0.0
 40
0.125
 41
0.0
 71
     6
 72
     1
  1
\A1;
  7
Standard
 73
     1
 44
1.0
  0
MTEXT
  5
452
330
1E
100
AcDbEntity
  8
0
 62
     4
100
AcDbMText
 10
75.84797907851132
 20
119.82701739135
 30
0.0
 40
0.125
 41
0.0
 71
     6
 72
     1
  1
\A1;
  7
Standard
 73
     1
 44
1.0
  0
MTEXT
  5
453
330
1E
100
AcDbEntity
  8
0
 62
     4
100
AcDbMText
 10
81.72015836135184
 20
117.8899654059958
 30
0.0
 40
0.125
 41
0.0
 71
     4
 72
     1
  1
\A1;
  7
Standard
 73
     1
 44
1.0
  0
MTEXT
  5
454
330
1E
100
AcDbEntity
  8
0
 62
     5
100
AcDbMText
 10
71.72506083233175
 20
120.550356940455
 30
0.0
 40
0.125
 41
0.0
 71
     4
 72
     1
  1
\A1;
  7
Standard
 73
     1
 44
1.0
  0
MTEXT
  5
455
330
1E
100
AcDbEntity
  8
0
 62
     5
100
AcDbMText
 10
67.63670528312811
 20
117.9332809666981
 30
0.0
 40
0.125
 41
0.0
 71
     6
 72
     1
  1
\A1;
  7
Standard
 73
     1
 44
1.0
  0
MTEXT
  5
456
330
1E
100
AcDbEntity
  8
0
 62
     5
100
AcDbMText
 10
67.90368166232138
 20
117.2861976425559
 30
0.0
 40
0.125
 41
0.0
 71
     6
 72
     1
  1
\A1;
  7
Standard
 73
     1
 44
1.0
  0
MTEXT
  5
457
330
1E
100
AcDbEntity
  8
0
 62
     5
100
AcDbMText
 10
67.62619388324115
 20
116.5749474112471
 30
0.0
 40
0.125
 41
0.0
 71
     6
 72
     1
  1
\A1;
  7
Standard
 73
     1
 44
1.0
  0
MTEXT
  5
458
330
1E
100
AcDbEntity
  8
0
 62
     5
100
AcDbMText
 10
67.59751104459224
 20
115.5500713196152
 30
0.0
 40
0.125
 41
0.0
 71
     6
 72
     1
  1
\A1;
  7
Standard
 73
     1
 44
1.0
  0
MTEXT
  5
459
330
1E
100
AcDbEntity
  8
0
 62
     5
100
AcDbMText
 10
75.83496228080213
 20
120.0733913058715
 30
0.0
 40
0.125
 41
0.0
 71
     6
 72
     1
  1
\A1;
  7
Standard
 73
     1
 44
1.0
  0
MTEXT
  5
45A
330
1E
100
AcDbEntity
  8
0
 62
     5
100
AcDbMText
 10
81.69032376725523
 20
117.6946563255327
 30
0.0
 40
0.125
 41
0.0
 71
     4
 72
     1
  1
\A1;
  7
Standard
 73
     1
 44
1.0
  0
MTEXT
  5
45B
330
1E
100
AcDbEntity
  8
0
 62
     5
100
AcDbMText
 10
77.09095832097833
 20
113.8912407603861
 30
0.0
 40
0.125
 41
0.0
 71
     4
 72
     1
  1
\A1;
  7
Standard
 73
     1
 44
1.0
  0
MTEXT
  5
45C
330
1E
100
AcDbEntity
  8
0
 62
     4
100
AcDbMText
 10
88.26935015637047
 20
83.32375716378573
 30
0.0
 40
0.125
 41
0.0
 71
     4
 72
     1
  1
\A1;
  7
Standard
 73
     1
 44
1.0
  0
MTEXT
  5
45D
330
1E
100
AcDbEntity
  8
0
 62
     4
100
AcDbMText
 10
62.11166765613786
 20
78.90092890548564
 30
0.0
 40
0.125
 41
0.0
 71
     6
 72
     1
  1
\A1;
  7
Standard
 73
     1
 44
1.0
  0
MTEXT
  5
45E
330
1E
100
AcDbEntity
  8
0
 62
     4
100
AcDbMText
 10
60.9536006005355
 20
79.22529698040552
 30
0.0
 40
0.125
 41
0.0
 71
     4
 72
     1
  1
\A1;
  7
Standard
 73
     1
 44
1.0
  0
MTEXT
  5
45F
330
1E
100
AcDbEntity
  8
0
 62
     4
100
AcDbMText
 10
56.87677464219785
 20
76.76745661600126
 30
0.0
 40
0.125
 41
0.0
 71
     6
 72
     1
  1
\A1;
  7
Standard
 73
     1
 44
1.0
  0
MTEXT
  5
460
330
1E
100
AcDbEntity
  8
0
 62
     4
100
AcDbMText
 10
57.38082086894316
 20
76.2218083618006
 30
0.0
 40
0.125
 41
0.0
 71
     6
 72
     1
  1
\A1;
  7
Standard
 73
     1
 44
1.0
  0
MTEXT
  5
461
330
1E
100
AcDbEntity
  8
0
 62
     4
100
AcDbMText
 10
57.00872783795501
 20
74.97807302610607
 30
0.0
 40
0.125
 41
0.0
 71
     6
 72
     1
  1
\A1;
  7
Standard
 73
     1
 44
1.0
  0
MTEXT
  5
462
330
1E
100
AcDbEntity
  8
0
 62
     4
100
AcDbMText
 10
57.06144704060687
 20
74.72739410144803
 30
0.0
 40
0.125
 41
0.0
 71
     6
 72
     1
  1
\A1;
  7
Standard
 73
     1
 44
1.0
  0
MTEXT
  5
463
330
1E
100
AcDbEntity
  8
0
 62
     4
100
AcDbMText
 10
71.82241570063317
 20
63.35822353168527
 30
0.0
 40
0.125
 41
0.0
 71
     6
 72
     1
  1
\A1;
  7
Standard
 73
     1
 44
1.0
  0
MTEXT
  5
464
330
1E
100
AcDbEntity
  8
0
 62
     4
100
AcDbMText
 10
77.80740506227529
 20
61.40751109913537
 30
0.0
 40
0.125
 41
0.0
 71
     4
 72
     1
  1
\A1;
  7
Standard
 73
     1
 44
1.0
  0
MTEXT
  5
465
330
1E
100
AcDbEntity
  8
0
 62
     4
100
AcDbMText
 10
51.13719429244064
 20
55.96546847611313
 30
0.0
 40
0.125
 41
0.0
 71
     4
 72
     1
  1
\A1;
  7
Standard
 73
     1
 44
1.0
  0
MTEXT
  5
466
330
1E
100
AcDbEntity
  8
0
 62
     4
100
AcDbMText
 10
47.19611200199138
 20
52.21136410609084
 30
0.0
 40
0.125
 41
0.0
 71
     6
 72
     1
  1
\A1;
  7
Standard
 73
     1
 44
1.0
  0
MTEXT
  5
467
330
1E
100
AcDbEntity
  8
0
 62
     4
100
AcDbMText
 10
47.5110667916401
 20
52.96185750472601
 30
0.0
 40
0.125
 41
0.0
 71
     6
 72
     1
  1
\A1;
  7
Standard
 73
     1
 44
1.0
  0
MTEXT
  5
468
330
1E
100
AcDbEntity
  8
0
 62
     4
100
AcDbMText
 10
47.08305131794275
 20
53.51060536699495
 30
0.0
 40
0.125
 41
0.0
 71
     6
 72
     1
  1
\A1;
  7
Standard
 73
     1
 44
1.0
  0
MTEXT
  5
469
330
1E
100
AcDbEntity
  8
0
 62
     4
100
AcDbMText
 10
55.54578768562174
 20
55.16631139605964
 30
0.0
 40
0.125
 41
0.0
 71
     6
 72
     1
  1
\A1;
  7
Standard
 73
     1
 44
1.0
  0
MTEXT
  5
46A
330
1E
100
AcDbEntity
  8
0
 62
     4
100
AcDbMText
 10
61.41796696846227
 20
53.22925941070542
 30
0.0
 40
0.125
 41
0.0
 71
     4
 72
     1
  1
\A1;
  7
Standard
 73
     1
 44
1.0
  0
MTEXT
  5
46B
330
1E
100
AcDbEntity
  8
0
 62
     5
100
AcDbMText
 10
51.42286943944218
 20
55.88965094516462
 30
0.0
 40
0.125
 41
0.0
 71
     4
 72
     1
  1
\A1;
  7
Standard
 73
     1
 44
1.0
  0
MTEXT
  5
46C
330
1E
100
AcDbEntity
  8
0
 62
     5
100
AcDbMText
 10
47.33451389023854
 20
53.27257497140779
 30
0.0
 40
0.125
 41
0.0
 71
     6
 72
     1
  1
\A1;
  7
Standard
 73
     1
 44
1.0
  0
MTEXT
  5
46D
330
1E
100
AcDbEntity
  8
0
 62
     5
100
AcDbMText
 10
47.60149026943181
 20
52.62549164726559
 30
0.0
 40
0.125
 41
0.0
 71
     6
 72
     1
  1
\A1;
  7
Standard
 73
     1
 44
1.0
  0
MTEXT
  5
46E
330
1E
100
AcDbEntity
  8
0
 62
     5
100
AcDbMText
 10
47.32400249035157
 20
51.91424141595676
 30
0.0
 40
0.125
 41
0.0
 71
     6
 72
     1
  1
\A1;
  7
Standard
 73
     1
 44
1.0
  0
MTEXT
  5
46F
330
1E
100
AcDbEntity
  8
0
 62
     5
100
AcDbMText
 10
47.29531965170267
 20
50.8893653243249
 30
0.0
 40
0.125
 41
0.0
 71
     6
 72
     1
  1
\A1;
  7
Standard
 73
     1
 44
1.0
  0
MTEXT
  5
470
330
1E
100
AcDbEntity
  8
0
 62
     5
100
AcDbMText
 10
55.53277088791255
 20
55.41268531058119
 30
0.0
 40
0.125
 41
0.0
 71
     6
 72
     1
  1
\A1;
  7
Standard
 73
     1
 44
1.0
  0
MTEXT
  5
471
330
1E
100
AcDbEntity
  8
0
 62
     5
100
AcDbMText
 10
61.38813237436565
 20
53.03395033024241
 30
0.0
 40
0.125
 41
0.0
 71
     4
 72
     1
  1
\A1;
  7
Standard
 73
     1
 44
1.0
  0
MTEXT
  5
472
330
1E
100
AcDbEntity
  8
0
 62
     5
100
AcDbMText
 10
56.78876692808877
 20
49.23053476509572
 30
0.0
 40
0.125
 41
0.0
 71
     4
 72
     1
  1
\A1;
  7
Standard
 73
     1
 44
1.0
  0
MTEXT
  5
473
330
1E
100
AcDbEntity
  8
0
 62
     4
100
AcDbMText
 10
67.96715876348091
 20
18.66305116849534
 30
0.0
 40
0.125
 41
0.0
 71
     4
 72
     1
  1
\A1;
  7
Standard
 73
     1
 44
1.0
  0
MTEXT
  5
474
330
1E
100
AcDbEntity
  8
0
 62
     4
100
AcDbMText
 10
-3.077872481911477
 20
82.83997049633931
 30
0.0
 40
0.125
 41
0.0
 71
     6
 72
     1
  1
\A1;
  7
Standard
 73
     1
 44
1.0
  0
MTEXT
  5
475
330
1E
100
AcDbEntity
  8
0
 62
     4
100
AcDbMText
 10
-4.235939537513858
 20
83.1643385712592
 30
0.0
 40
0.125
 41
0.0
 71
     4
 72
     1
  1
\A1;
  7
Standard
 73
     1
 44
1.0
  0
MTEXT
  5
476
330
1E
100
AcDbEntity
  8
0
 62
     4
100
AcDbMText
 10
-8.3127654958515
 20
80.70649820685494
 30
0.0
 40
0.125
 41
0.0
 71
     6
 72
     1
  1
\A1;
  7
Standard
 73
     1
 44
1.0
  0
MTEXT
  5
477
330
1E
100
AcDbEntity
  8
0
 62
     4
100
AcDbMText
 10
-7.808719269106199
 20
80.16084995265428
 30
0.0
 40
0.125
 41
0.0
 71
     6
 72
     1
  1
\A1;
  7
Standard
 73
     1
 44
1.0
  0
MTEXT
  5
478
330
1E
100
AcDbEntity
  8
0
 62
     4
100
AcDbMText
 10
-8.180812300094338
 20
78.91711461695975
 30
0.0
 40
0.125
 41
0.0
 71
     6
 72
     1
  1
\A1;
  7
Standard
 73
     1
 44
1.0
  0
MTEXT
  5
479
330
1E
100
AcDbEntity
  8
0
 62
     4
100
AcDbMText
 10
-8.12809309744248
 20
78.6664356923017
 30
0.0
 40
0.125
 41
0.0
 71
     6
 72
     1
  1
\A1;
  7
Standard
 73
     1
 44
1.0
  0
MTEXT
  5
47A
330
1E
100
AcDbEntity
  8
0
 62
     4
100
AcDbMText
 10
6.632875562583826
 20
67.29726512253896
 30
0.0
 40
0.125
 41
0.0
 71
     6
 72
     1
  1
\A1;
  7
Standard
 73
     1
 44
1.0
  0
MTEXT
  5
47B
330
1E
100
AcDbEntity
  8
0
 62
     4
100
AcDbMText
 10
12.61786492422594
 20
65.34655268998907
 30
0.0
 40
0.125
 41
0.0
 71
     4
 72
     1
  1
\A1;
  7
Standard
 73
     1
 44
1.0
  0
MTEXT
  5
47C
330
1E
100
AcDbEntity
  8
0
 62
     4
100
AcDbMText
 10
-14.0523458456087
 20
59.90451006696682
 30
0.0
 40
0.125
 41
0.0
 71
     4
 72
     1
  1
\A1;
  7
Standard
 73
     1
 44
1.0
  0
MTEXT
  5
47D
330
1E
100
AcDbEntity
  8
0
 62
     4
100
AcDbMText
 10
-17.99342813605797
 20
56.15040569694452
 30
0.0
 40
0.125
 41
0.0
 71
     6
 72
     1
  1
\A1;
  7
Standard
 73
     1
 44
1.0
  0
MTEXT
  5
47E
330
1E
100
AcDbEntity
  8
0
 62
     4
100
AcDbMText
 10
-17.67847334640924
 20
56.90089909557968
 30
0.0
 40
0.125
 41
0.0
 71
     6
 72
     1
  1
\A1;
  7
Standard
 73
     1
 44
1.0
  0
MTEXT
  5
47F
330
1E
100
AcDbEntity
  8
0
 62
     4
100
AcDbMText
 10
-18.10648882010659
 20
57.44964695784863
 30
0.0
 40
0.125
 41
0.0
 71
     6
 72
     1
  1
\A1;
  7
Standard
 73
     1
 44
1.0
  0
MTEXT
  5
480
330
1E
100
AcDbEntity
  8
0
 62
     4
100
AcDbMText
 10
-9.643752452427612
 20
59.10535298691332
 30
0.0
 40
0.125
 41
0.0
 71
     6
 72
     1
  1
\A1;
  7
Standard
 73
     1
 44
1.0
  0
MTEXT
  5
481
330
1E
100
AcDbEntity
  8
0
 62
     4
100
AcDbMText
 10
-3.771573169587086
 20
57.1683010015591
 30
0.0
 40
0.125
 41
0.0
 71
     4
 72
     1
  1
\A1;
  7
Standard
 73
     1
 44
1.0
  0
MTEXT
  5
482
330
1E
100
AcDbEntity
  8
0
 62
     5
100
AcDbMText
 10
-13.76667069860717
 20
59.8286925360183
 30
0.0
 40
0.125
 41
0.0
 71
     4
 72
     1
  1
\A1;
  7
Standard
 73
     1
 44
1.0
  0
MTEXT
  5
483
330
1E
100
AcDbEntity
  8
0
 62
     5
100
AcDbMText
 10
-17.85502624781081
 20
57.21161656226147
 30
0.0
 40
0.125
 41
0.0
 71
     6
 72
     1
  1
\A1;
  7
Standard
 73
     1
 44
1.0
  0
MTEXT
  5
484
330
1E
100
AcDbEntity
  8
0
 62
     5
100
AcDbMText
 10
-17.58804986861754
 20
56.56453323811927
 30
0.0
 40
0.125
 41
0.0
 71
     6
 72
     1
  1
\A1;
  7
Standard
 73
     1
 44
1.0
  0
MTEXT
  5
485
330
1E
100
AcDbEntity
  8
0
 62
     5
100
AcDbMText
 10
-17.86553764769777
 20
55.85328300681045
 30
0.0
 40
0.125
 41
0.0
 71
     6
 72
     1
  1
\A1;
  7
Standard
 73
     1
 44
1.0
  0
MTEXT
  5
486
330
1E
100
AcDbEntity
  8
0
 62
     5
100
AcDbMText
 10
-17.89422048634667
 20
54.82840691517857
 30
0.0
 40
0.125
 41
0.0
 71
     6
 72
     1
  1
\A1;
  7
Standard
 73
     1
 44
1.0
  0
MTEXT
  5
487
330
1E
100
AcDbEntity
  8
0
 62
     5
100
AcDbMText
 10
-9.656769250136797
 20
59.35172690143487
 30
0.0
 40
0.125
 41
0.0
 71
     6
 72
     1
  1
\A1;
  7
Standard
 73
     1
 44
1.0
  0
MTEXT
  5
488
330
1E
100
AcDbEntity
  8
0
 62
     5
100
AcDbMText
 10
-3.801407763683699
 20
56.97299192109608
 30
0.0
 40
0.125
 41
0.0
 71
     4
 72
     1
  1
\A1;
  7
Standard
 73
     1
 44
1.0
  0
MTEXT
  5
489
330
1E
100
AcDbEntity
  8
0
 62
     5
100
AcDbMText
 10
-8.400773209960583
 20
53.1695763559494
 30
0.0
 40
0.125
 41
0.0
 71
     4
 72
     1
  1
\A1;
  7
Standard
 73
     1
 44
1.0
  0
MTEXT
  5
48A
330
1E
100
AcDbEntity
  8
0
 62
     4
100
AcDbMText
 10
2.777618625431563
 20
22.60209275934902
 30
0.0
 40
0.125
 41
0.0
 71
     4
 72
     1
  1
\A1;
  7
Standard
 73
     1
 44
1.0
  0
MTEXT
  5
48B
330
1E
100
AcDbEntity
  8
0
 62
     4
100
AcDbMText
 10
29.12417594746039
 20
116.75443116131
 30
0.0
 40
0.125
 41
0.0
 71
     6
 72
     1
  1
\A1;
  7
Standard
 73
     1
 44
1.0
  0
MTEXT
  5
48C
330
1E
100
AcDbEntity
  8
0
 62
     4
100
AcDbMText
 10
27.96610889185801
 20
117.0787992362299
 30
0.0
 40
0.125
 41
0.0
 71
     4
 72
     1
  1
\A1;
  7
Standard
 73
     1
 44
1.0
  0
MTEXT
  5
48D
330
1E
100
AcDbEntity
  8
0
 62
     4
100
AcDbMText
 10
23.88928293352037
 20
114.6209588718256
 30
0.0
 40
0.125
 41
0.0
 71
     6
 72
     1
  1
\A1;
  7
Standard
 73
     1
 44
1.0
  0
MTEXT
  5
48E
330
1E
100
AcDbEntity
  8
0
 62
     4
100
AcDbMText
 10
24.39332916026567
 20
114.075310617625
 30
0.0
 40
0.125
 41
0.0
 71
     6
 72
     1
  1
\A1;
  7
Standard
 73
     1
 44
1.0
  0
MTEXT
  5
48F
330
1E
100
AcDbEntity
  8
0
 62
     4
100
AcDbMText
 10
24.02123612927753
 20
112.8315752819304
 30
0.0
 40
0.125
 41
0.0
 71
     6
 72
     1
  1
\A1;
  7
Standard
 73
     1
 44
1.0
  0
MTEXT
  5
490
330
1E
100
AcDbEntity
  8
0
 62
     4
100
AcDbMText
 10
24.07395533192939
 20
112.5808963572724
 30
0.0
 40
0.125
 41
0.0
 71
     6
 72
     1
  1
\A1;
  7
Standard
 73
     1
 44
1.0
  0
MTEXT
  5
491
330
1E
100
AcDbEntity
  8
0
 62
     4
100
AcDbMText
 10
38.83492399195569
 20
101.2117257875096
 30
0.0
 40
0.125
 41
0.0
 71
     6
 72
     1
  1
\A1;
  7
Standard
 73
     1
 44
1.0
  0
MTEXT
  5
492
330
1E
100
AcDbEntity
  8
0
 62
     4
100
AcDbMText
 10
44.81991335359781
 20
99.26101335495982
 30
0.0
 40
0.125
 41
0.0
 71
     4
 72
     1
  1
\A1;
  7
Standard
 73
     1
 44
1.0
  0
MTEXT
  5
493
330
1E
100
AcDbEntity
  8
0
 62
     4
100
AcDbMText
 10
18.14970258376316
 20
93.81897073193757
 30
0.0
 40
0.125
 41
0.0
 71
     4
 72
     1
  1
\A1;
  7
Standard
 73
     1
 44
1.0
  0
MTEXT
  5
494
330
1E
100
AcDbEntity
  8
0
 62
     4
100
AcDbMText
 10
14.2086202933139
 20
90.06486636191526
 30
0.0
 40
0.125
 41
0.0
 71
     6
 72
     1
  1
\A1;
  7
Standard
 73
     1
 44
1.0
  0
MTEXT
  5
495
330
1E
100
AcDbEntity
  8
0
 62
     4
100
AcDbMText
 10
14.52357508296262
 20
90.81535976055043
 30
0.0
 40
0.125
 41
0.0
 71
     6
 72
     1
  1
\A1;
  7
Standard
 73
     1
 44
1.0
  0
MTEXT
  5
496
330
1E
100
AcDbEntity
  8
0
 62
     4
100
AcDbMText
 10
14.09555960926527
 20
91.36410762281936
 30
0.0
 40
0.125
 41
0.0
 71
     6
 72
     1
  1
\A1;
  7
Standard
 73
     1
 44
1.0
  0
MTEXT
  5
497
330
1E
100
AcDbEntity
  8
0
 62
     4
100
AcDbMText
 10
22.55829597694425
 20
93.01981365188407
 30
0.0
 40
0.125
 41
0.0
 71
     6
 72
     1
  1
\A1;
  7
Standard
 73
     1
 44
1.0
  0
MTEXT
  5
498
330
1E
100
AcDbEntity
  8
0
 62
     4
100
AcDbMText
 10
28.43047525978478
 20
91.08276166652983
 30
0.0
 40
0.125
 41
0.0
 71
     4
 72
     1
  1
\A1;
  7
Standard
 73
     1
 44
1.0
  0
MTEXT
  5
499
330
1E
100
AcDbEntity
  8
0
 62
     5
100
AcDbMText
 10
18.43537773076469
 20
93.74315320098903
 30
0.0
 40
0.125
 41
0.0
 71
     4
 72
     1
  1
\A1;
  7
Standard
 73
     1
 44
1.0
  0
MTEXT
  5
49A
330
1E
100
AcDbEntity
  8
0
 62
     5
100
AcDbMText
 10
14.34702218156106
 20
91.12607722723222
 30
0.0
 40
0.125
 41
0.0
 71
     6
 72
     1
  1
\A1;
  7
Standard
 73
     1
 44
1.0
  0
MTEXT
  5
49B
330
1E
100
AcDbEntity
  8
0
 62
     5
100
AcDbMText
 10
14.61399856075432
 20
90.47899390309
 30
0.0
 40
0.125
 41
0.0
 71
     6
 72
     1
  1
\A1;
  7
Standard
 73
     1
 44
1.0
  0
MTEXT
  5
49C
330
1E
100
AcDbEntity
  8
0
 62
     5
100
AcDbMText
 10
14.3365107816741
 20
89.76774367178119
 30
0.0
 40
0.125
 41
0.0
 71
     6
 72
     1
  1
\A1;
  7
Standard
 73
     1
 44
1.0
  0
MTEXT
  5
49D
330
1E
100
AcDbEntity
  8
0
 62
     5
100
AcDbMText
 10
14.30782794302519
 20
88.7428675801493
 30
0.0
 40
0.125
 41
0.0
 71
     6
 72
     1
  1
\A1;
  7
Standard
 73
     1
 44
1.0
  0
MTEXT
  5
49E
330
1E
100
AcDbEntity
  8
0
 62
     5
100
AcDbMText
 10
22.54527917923507
 20
93.26618756640561
 30
0.0
 40
0.125
 41
0.0
 71
     6
 72
     1
  1
\A1;
  7
Standard
 73
     1
 44
1.0
  0
MTEXT
  5
49F
330
1E
100
AcDbEntity
  8
0
 62
     5
100
AcDbMText
 10
28.40064066568817
 20
90.88745258606683
 30
0.0
 40
0.125
 41
0.0
 71
     4
 72
     1
  1
\A1;
  7
Standard
 73
     1
 44
1.0
  0
MTEXT
  5
4A0
330
1E
100
AcDbEntity
  8
0
 62
     5
100
AcDbMText
 10
23.80127521941128
 20
87.08403702092015
 30
0.0
 40
0.125
 41
0.0
 71
     4
 72
     1
  1
\A1;
  7
Standard
 73
     1
 44
1.0
  0
MTEXT
  5
4A1
330
1E
100
AcDbEntity
  8
0
 62
     4
100
AcDbMText
 10
34.97966705480343
 20
56.51655342431975
 30
0.0
 40
0.125
 41
0.0
 71
     4
 72
     1
  1
\A1;
  7
Standard
 73
     1
 44
1.0
  0
MTEXT
  5
4A2
330
1E
100
AcDbEntity
  8
0
 62
     4
100
AcDbMText
 10
-3.127872481911475
 20
82.78997049633934
 30
0.0
 40
0.125
 41
0.0
 71
     6
 72
     1
  1
\A1;
  7
Standard
 73
     1
 44
1.0
  0
MTEXT
  5
4A3
330
1E
100
AcDbEntity
  8
0
 62
     4
100
AcDbMText
 10
-4.285939537513855
 20
83.11433857125921
 30
0.0
 40
0.125
 41
0.0
 71
     4
 72
     1
  1
\A1;
  7
Standard
 73
     1
 44
1.0
  0
MTEXT
  5
4A4
330
1E
100
AcDbEntity
  8
0
 62
     4
100
AcDbMText
 10
-8.362765495851498
 20
80.65649820685495
 30
0.0
 40
0.125
 41
0.0
 71
     6
 72
     1
  1
\A1;
  7
Standard
 73
     1
 44
1.0
  0
MTEXT
  5
4A5
330
1E
100
AcDbEntity
  8
0
 62
     4
100
AcDbMText
 10
-7.858719269106196
 20
80.11084995265427
 30
0.0
 40
0.125
 41
0.0
 71
     6
 72
     1
  1
\A1;
  7
Standard
 73
     1
 44
1.0
  0
MTEXT
  5
4A6
330
1E
100
AcDbEntity
  8
0
 62
     4
100
AcDbMText
 10
-8.230812300094335
 20
78.86711461695977
 30
0.0
 40
0.125
 41
0.0
 71
     6
 72
     1
  1
\A1;
  7
Standard
 73
     1
 44
1.0
  0
MTEXT
  5
4A7
330
1E
100
AcDbEntity
  8
0
 62
     4
100
AcDbMText
 10
-8.178093097442477
 20
78.61643569230172
 30
0.0
 40
0.125
 41
0.0
 71
     6
 72
     1
  1
\A1;
  7
Standard
 73
     1
 44
1.0
  0
MTEXT
  5
4A8
330
1E
100
AcDbEntity
  8
0
 62
     4
100
AcDbMText
 10
6.582875562583829
 20
67.24726512253894
 30
0.0
 40
0.125
 41
0.0
 71
     6
 72
     1
  1
\A1;
  7
Standard
 73
     1
 44
1.0
  0
MTEXT
  5
4A9
330
1E
100
AcDbEntity
  8
0
 62
     4
100
AcDbMText
 10
12.56786492422594
 20
65.29655268998905
 30
0.0
 40
0.125
 41
0.0
 71
     4
 72
     1
  1
\A1;
  7
Standard
 73
     1
 44
1.0
  0
MTEXT
  5
4AA
330
1E
100
AcDbEntity
  8
0
 62
     4
100
AcDbMText
 10
-14.1023458456087
 20
59.85451006696681
 30
0.0
 40
0.125
 41
0.0
 71
     4
 72
     1
  1
\A1;
  7
Standard
 73
     1
 44
1.0
  0
MTEXT
  5
4AB
330
1E
100
AcDbEntity
  8
0
 62
     4
100
AcDbMText
 10
-18.04342813605797
 20
56.10040569694452
 30
0.0
 40
0.125
 41
0.0
 71
     6
 72
     1
  1
\A1;
  7
Standard
 73
     1
 44
1.0
  0
MTEXT
  5
4AC
330
1E
100
AcDbEntity
  8
0
 62
     4
100
AcDbMText
 10
-17.72847334640924
 20
56.85089909557969
 30
0.0
 40
0.125
 41
0.0
 71
     6
 72
     1
  1
\A1;
  7
Standard
 73
     1
 44
1.0
  0
MTEXT
  5
4AD
330
1E
100
AcDbEntity
  8
0
 62
     4
100
AcDbMText
 10
-18.15648882010659
 20
57.39964695784863
 30
0.0
 40
0.125
 41
0.0
 71
     6
 72
     1
  1
\A1;
  7
Standard
 73
     1
 44
1.0
  0
MTEXT
  5
4AE
330
1E
100
AcDbEntity
  8
0
 62
     4
100
AcDbMText
 10
-9.693752452427609
 20
59.05535298691332
 30
0.0
 40
0.125
 41
0.0
 71
     6
 72
     1
  1
\A1;
  7
Standard
 73
     1
 44
1.0
  0
MTEXT
  5
4AF
330
1E
100
AcDbEntity
  8
0
 62
     4
100
AcDbMText
 10
-3.821573169587083
 20
57.11830100155911
 30
0.0
 40
0.125
 41
0.0
 71
     4
 72
     1
  1
\A1;
  7
Standard
 73
     1
 44
1.0
  0
MTEXT
  5
4B0
330
1E
100
AcDbEntity
  8
0
 62
     5
100
AcDbMText
 10
-13.81667069860716
 20
59.7786925360183
 30
0.0
 40
0.125
 41
0.0
 71
     4
 72
     1
  1
\A1;
  7
Standard
 73
     1
 44
1.0
  0
MTEXT
  5
4B1
330
1E
100
AcDbEntity
  8
0
 62
     5
100
AcDbMText
 10
-17.90502624781081
 20
57.16161656226147
 30
0.0
 40
0.125
 41
0.0
 71
     6
 72
     1
  1
\A1;
  7
Standard
 73
     1
 44
1.0
  0
MTEXT
  5
4B2
330
1E
100
AcDbEntity
  8
0
 62
     5
100
AcDbMText
 10
-17.63804986861754
 20
56.51453323811927
 30
0.0
 40
0.125
 41
0.0
 71
     6
 72
     1
  1
\A1;
  7
Standard
 73
     1
 44
1.0
  0
MTEXT
  5
4B3
330
1E
100
AcDbEntity
  8
0
 62
     5
100
AcDbMText
 10
-17.91553764769776
 20
55.80328300681045
 30
0.0
 40
0.125
 41
0.0
 71
     6
 72
     1
  1
\A1;
  7
Standard
 73
     1
 44
1.0
  0
MTEXT
  5
4B4
330
1E
100
AcDbEntity
  8
0
 62
     5
100
AcDbMText
 10
-17.94422048634667
 20
54.77840691517858
 30
0.0
 40
0.125
 41
0.0
 71
     6
 72
     1
  1
\A1;
  7
Standard
 73
     1
 44
1.0
  0
MTEXT
  5
4B5
330
1E
100
AcDbEntity
  8
0
 62
     5
100
AcDbMText
 10
-9.706769250136794
 20
59.30172690143487
 30
0.0
 40
0.125
 41
0.0
 71
     6
 72
     1
  1
\A1;
  7
Standard
 73
     1
 44
1.0
  0
MTEXT
  5
4B6
330
1E
100
AcDbEntity
  8
0
 62
     5
100
AcDbMText
 10
-3.851407763683696
 20
56.92299192109608
 30
0.0
 40
0.125
 41
0.0
 71
     4
 72
     1
  1
\A1;
  7
Standard
 73
     1
 44
1.0
  0
MTEXT
  5
4B7
330
1E
100
AcDbEntity
  8
0
 62
     5
100
AcDbMText
 10
-8.45077320996058
 20
53.1195763559494
 30
0.0
 40
0.125
 41
0.0
 71
     4
 72
     1
  1
\A1;
  7
Standard
 73
     1
 44
1.0
  0
MTEXT
  5
4B8
330
1E
100
AcDbEntity
  8
0
 62
     4
100
AcDbMText
 10
2.727618625431566
 20
22.55209275934902
 30
0.0
 40
0.125
 41
0.0
 71
     4
 72
     1
  1
\A1;
  7
Standard
 73
     1
 44
1.0
  0
MTEXT
  5
4B9
330
1E
100
AcDbEntity
  8
0
 62
     4
100
AcDbMText
 10
13.51430098914113
 20
95.09087609355193
 30
0.0
 40
0.125
 41
0.0
 71
     6
 72
     1
  1
\A1;
  7
Standard
 73
     1
 44
1.0
  0
MTEXT
  5
4BA
330
1E
100
AcDbEntity
  8
0
 62
     4
100
AcDbMText
 10
12.35623393353874
 20
95.41524416847179
 30
0.0
 40
0.125
 41
0.0
 71
     4
 72
     1
  1
\A1;
  7
Standard
 73
     1
 44
1.0
  0
MTEXT
  5
4BB
330
1E
100
AcDbEntity
  8
0
 62
     4
100
AcDbMText
 10
8.279407975201102
 20
92.95740380406753
 30
0.0
 40
0.125
 41
0.0
 71
     6
 72
     1
  1
\A1;
  7
Standard
 73
     1
 44
1.0
  0
MTEXT
  5
4BC
330
1E
100
AcDbEntity
  8
0
 62
     4
100
AcDbMText
 10
8.783454201946405
 20
92.41175554986687
 30
0.0
 40
0.125
 41
0.0
 71
     6
 72
     1
  1
\A1;
  7
Standard
 73
     1
 44
1.0
  0
MTEXT
  5
4BD
330
1E
100
AcDbEntity
  8
0
 62
     4
100
AcDbMText
 10
8.411361170958265
 20
91.16802021417235
 30
0.0
 40
0.125
 41
0.0
 71
     6
 72
     1
  1
\A1;
  7
Standard
 73
     1
 44
1.0
  0
MTEXT
  5
4BE
330
1E
100
AcDbEntity
  8
0
 62
     4
100
AcDbMText
 10
8.464080373610123
 20
90.91734128951431
 30
0.0
 40
0.125
 41
0.0
 71
     6
 72
     1
  1
\A1;
  7
Standard
 73
     1
 44
1.0
  0
MTEXT
  5
4BF
330
1E
100
AcDbEntity
  8
0
 62
     4
100
AcDbMText
 10
23.22504903363643
 20
79.54817071975155
 30
0.0
 40
0.125
 41
0.0
 71
     6
 72
     1
  1
\A1;
  7
Standard
 73
     1
 44
1.0
  0
MTEXT
  5
4C0
330
1E
100
AcDbEntity
  8
0
 62
     4
100
AcDbMText
 10
29.21003839527855
 20
77.59745828720166
 30
0.0
 40
0.125
 41
0.0
 71
     4
 72
     1
  1
\A1;
  7
Standard
 73
     1
 44
1.0
  0
MTEXT
  5
4C1
330
1E
100
AcDbEntity
  8
0
 62
     4
100
AcDbMText
 10
2.5398276254439
 20
72.15541566417941
 30
0.0
 40
0.125
 41
0.0
 71
     4
 72
     1
  1
\A1;
  7
Standard
 73
     1
 44
1.0
  0
MTEXT
  5
4C2
330
1E
100
AcDbEntity
  8
0
 62
     4
100
AcDbMText
 10
-1.401254665005367
 20
68.40131129415711
 30
0.0
 40
0.125
 41
0.0
 71
     6
 72
     1
  1
\A1;
  7
Standard
 73
     1
 44
1.0
  0
MTEXT
  5
4C3
330
1E
100
AcDbEntity
  8
0
 62
     4
100
AcDbMText
 10
-1.086299875356642
 20
69.15180469279228
 30
0.0
 40
0.125
 41
0.0
 71
     6
 72
     1
  1
\A1;
  7
Standard
 73
     1
 44
1.0
  0
MTEXT
  5
4C4
330
1E
100
AcDbEntity
  8
0
 62
     4
100
AcDbMText
 10
-1.514315349053994
 20
69.70055255506124
 30
0.0
 40
0.125
 41
0.0
 71
     6
 72
     1
  1
\A1;
  7
Standard
 73
     1
 44
1.0
  0
MTEXT
  5
4C5
330
1E
100
AcDbEntity
  8
0
 62
     4
100
AcDbMText
 10
6.948421018624991
 20
71.35625858412591
 30
0.0
 40
0.125
 41
0.0
 71
     6
 72
     1
  1
\A1;
  7
Standard
 73
     1
 44
1.0
  0
MTEXT
  5
4C6
330
1E
100
AcDbEntity
  8
0
 62
     4
100
AcDbMText
 10
12.82060030146552
 20
69.41920659877171
 30
0.0
 40
0.125
 41
0.0
 71
     4
 72
     1
  1
\A1;
  7
Standard
 73
     1
 44
1.0
  0
MTEXT
  5
4C7
330
1E
100
AcDbEntity
  8
0
 62
     5
100
AcDbMText
 10
2.825502772445434
 20
72.0795981332309
 30
0.0
 40
0.125
 41
0.0
 71
     4
 72
     1
  1
\A1;
  7
Standard
 73
     1
 44
1.0
  0
MTEXT
  5
4C8
330
1E
100
AcDbEntity
  8
0
 62
     5
100
AcDbMText
 10
-1.262852776758208
 20
69.46252215947406
 30
0.0
 40
0.125
 41
0.0
 71
     6
 72
     1
  1
\A1;
  7
Standard
 73
     1
 44
1.0
  0
MTEXT
  5
4C9
330
1E
100
AcDbEntity
  8
0
 62
     5
100
AcDbMText
 10
-0.99587639756494
 20
68.81543883533187
 30
0.0
 40
0.125
 41
0.0
 71
     6
 72
     1
  1
\A1;
  7
Standard
 73
     1
 44
1.0
  0
MTEXT
  5
4CA
330
1E
100
AcDbEntity
  8
0
 62
     5
100
AcDbMText
 10
-1.273364176645166
 20
68.10418860402304
 30
0.0
 40
0.125
 41
0.0
 71
     6
 72
     1
  1
\A1;
  7
Standard
 73
     1
 44
1.0
  0
MTEXT
  5
4CB
330
1E
100
AcDbEntity
  8
0
 62
     5
100
AcDbMText
 10
-1.302047015294071
 20
67.07931251239116
 30
0.0
 40
0.125
 41
0.0
 71
     6
 72
     1
  1
\A1;
  7
Standard
 73
     1
 44
1.0
  0
MTEXT
  5
4CC
330
1E
100
AcDbEntity
  8
0
 62
     5
100
AcDbMText
 10
6.935404220915806
 20
71.60263249864748
 30
0.0
 40
0.125
 41
0.0
 71
     6
 72
     1
  1
\A1;
  7
Standard
 73
     1
 44
1.0
  0
MTEXT
  5
4CD
330
1E
100
AcDbEntity
  8
0
 62
     5
100
AcDbMText
 10
12.7907657073689
 20
69.22389751830867
 30
0.0
 40
0.125
 41
0.0
 71
     4
 72
     1
  1
\A1;
  7
Standard
 73
     1
 44
1.0
  0
MTEXT
  5
4CE
330
1E
100
AcDbEntity
  8
0
 62
     5
100
AcDbMText
 10
8.19140026109202
 20
65.42048195316199
 30
0.0
 40
0.125
 41
0.0
 71
     4
 72
     1
  1
\A1;
  7
Standard
 73
     1
 44
1.0
  0
MTEXT
  5
4CF
330
1E
100
AcDbEntity
  8
0
 62
     4
100
AcDbMText
 10
19.36979209648416
 20
34.85299835656161
 30
0.0
 40
0.125
 41
0.0
 71
     4
 72
     1
  1
\A1;
  7
Standard
 73
     1
 44
1.0
  0
LINE
  5
4D0
330
1E
100
AcDbEntity
  8
SL-42B
  6
CENTER2
 62
     1
100
AcDbLine
 10
6.165715819677014
 20
11.88962311697112
 30
0.0
 11
1.115420890230778
 21
11.88962311697112
 31
0.0
  0
LWPOLYLINE
  5
4D1
330
1E
100
AcDbEntity
  8
SL-42B
  6
HIDDEN2
 62
     4
100
AcDbPolyline
 90
        8
 70
     1
 43
0.0
 10
1.889244766555279
 20
13.14812311697113
 10
5.389244766555286
 20
13.14812311697113
 42
-0.4142135623730951
 10
5.710244766555284
 20
12.82712311697113
 10
5.710244766555286
 20
10.95212311697112
 42
-0.4142135623730951
 10
5.389244766555286
 20
10.63112311697112
 10
1.889244766555279
 20
10.63112311697112
 42
-0.4142135623730951
 10
1.568244766555279
 20
10.95212311697112
 10
1.568244766555279
 20
12.82712311697113
 42
-0.4142135623730951
  0
LWPOLYLINE
  5
4D2
330
1E
100
AcDbEntity
  8
SL-42B
  6
HIDDEN2
 62
     4
100
AcDbPolyline
 90
        8
 70
     1
 43
0.0
 10
1.889244766555279
 20
13.10049958983384
 10
5.389244766555286
 20
13.10049958983384
 42
-0.4142135623730951
 10
5.662621239417997
 20
12.82712311697113
 10
5.662621239417997
 20
10.95212311697112
 42
-0.4142135623730951
 10
5.389244766555286
 20
10.67874664410841
 10
1.889244766555279
 20
10.67874664410841
 42
-0.4142135623730956
 10
1.615868293692567
 20
10.95212311697112
 10
1.615868293692567
 20
12.82712311697113
 42
-0.4142135623730955
  0
LWPOLYLINE
  5
4D3
330
1E
100
AcDbEntity
  8
SL-42B
100
AcDbPolyline
 90
        8
 70
     1
 43
0.0
 10
1.889244766555277
 20
13.20212311697113
 10
5.389244766555274
 20
13.20212311697113
 42
-0.4142135623730951
 10
5.764244766555274
 20
12.82712311697113
 10
5.764244766555274
 20
10.95212311697112
 42
-0.4142135623730961
 10
5.389244766555274
 20
10.57712311697112
 10
1.889244766555277
 20
10.57712311697112
 42
-0.4142135623730952
 10
1.514244766555277
 20
10.95212311697112
 10
1.514244766555277
 20
12.82712311697113
 42
-0.4142135623730951
  0
CIRCLE
  5
4D4
330
1E
100
AcDbEntity
  8
SL-42B
  6
HIDDEN2
 62
     4
100
AcDbCircle
 10
1.88924476655529
 20
10.95212311697113
 30
0.0
 40
0.0450000000000088
  0
CIRCLE
  5
4D5
330
1E
100
AcDbEntity
  8
SL-42B
  6
HIDDEN2
 62
     4
100
AcDbCircle
 10
1.88924476655529
 20
10.95212311697113
 30
0.0
 40
0.0940000000000012
  0
INSERT
  5
4D6
330
1E
100
AcDbEntity
  8
SL-42B
100
AcDbBlockReference
  2
CL
 10
1.115420890230778
 20
11.88962311697112
 30
0.0
  0
CIRCLE
  5
4D7
330
1E
100
AcDbEntity
  8
SL-42B
  6
HIDDEN2
 62
     4
100
AcDbCircle
 10
1.88924476655529
 20
12.82712311697111
 30
0.0
 40
0.0940000000000012
  0
CIRCLE
  5
4D8
330
1E
100
AcDbEntity
  8
SL-42B
  6
HIDDEN2
 62
     4
100
AcDbCircle
 10
1.88924476655529
 20
12.82712311697111
 30
0.0
 40
0.0450000000000088
  0
LINE
  5
4D9
330
1E
100
AcDbEntity
  8
SL-42B
  6
CENTER2
 62
     1
100
AcDbLine
 10
3.639244766555282
 20
10.47712311697112
 30
0.0
 11
3.639244766555282
 21
13.39682552217372
 31
0.0
  0
CIRCLE
  5
4DA
330
1E
100
AcDbEntity
  8
SL-42B
  6
HIDDEN2
 62
     4
100
AcDbCircle
 10
2.139244766555286
 20
11.20212311697112
 30
0.0
 40
0.0449999999999946
  0
CIRCLE
  5
4DB
330
1E
100
AcDbEntity
  8
SL-42B
  6
HIDDEN2
 62
     4
100
AcDbCircle
 10
2.139244766555286
 20
11.20212311697112
 30
0.0
 40
0.094
  0
CIRCLE
  5
4DC
330
1E
100
AcDbEntity
  8
SL-42B
  6
HIDDEN2
 62
     4
100
AcDbCircle
 10
5.139244766555279
 20
11.20212311697112
 30
0.0
 40
0.0449999999999946
  0
CIRCLE
  5
4DD
330
1E
100
AcDbEntity
  8
SL-42B
  6
HIDDEN2
 62
     4
100
AcDbCircle
 10
5.139244766555279
 20
11.20212311697112
 30
0.0
 40
0.094
  0
CIRCLE
  5
4DE
330
1E
100
AcDbEntity
  8
SL-42B
  6
HIDDEN2
 62
     4
100
AcDbCircle
 10
5.389244766555275
 20
10.95212311697113
 30
0.0
 40
0.0940000000000012
  0
CIRCLE
  5
4DF
330
1E
100
AcDbEntity
  8
SL-42B
  6
HIDDEN2
 62
     4
100
AcDbCircle
 10
5.389244766555275
 20
10.95212311697113
 30
0.0
 40
0.0450000000000088
  0
INSERT
  5
4E0
330
1E
100
AcDbEntity
  8
SL-42B
100
AcDbBlockReference
  2
CL
 10
3.639244766555282
 20
13.39682552217372
 30
0.0
  0
CIRCLE
  5
4E1
330
1E
100
AcDbEntity
  8
SL-42B
  6
HIDDEN2
 62
     4
100
AcDbCircle
 10
2.139244766555286
 20
12.57712311697113
 30
0.0
 40
0.0449999999999946
  0
CIRCLE
  5
4E2
330
1E
100
AcDbEntity
  8
SL-42B
  6
HIDDEN2
 62
     4
100
AcDbCircle
 10
2.139244766555286
 20
12.57712311697113
 30
0.0
 40
0.094
  0
CIRCLE
  5
4E3
330
1E
100
AcDbEntity
  8
Defpoints
 62
     4
100
AcDbCircle
 10
3.639244766555282
 20
12.82712311697111
 30
0.0
 40
0.0625
  0
CIRCLE
  5
4E4
330
1E
100
AcDbEntity
  8
SL-42B
  6
HIDDEN2
 62
     4
100
AcDbCircle
 10
5.389244766555275
 20
12.82712311697111
 30
0.0
 40
0.0940000000000012
  0
CIRCLE
  5
4E5
330
1E
100
AcDbEntity
  8
SL-42B
  6
HIDDEN2
 62
     4
100
AcDbCircle
 10
5.139244766555279
 20
12.57712311697113
 30
0.0
 40
0.094
  0
CIRCLE
  5
4E6
330
1E
100
AcDbEntity
  8
SL-42B
  6
HIDDEN2
 62
     4
100
AcDbCircle
 10
5.139244766555279
 20
12.57712311697113
 30
0.0
 40
0.0449999999999946
  0
CIRCLE
  5
4E7
330
1E
100
AcDbEntity
  8
SL-42B
  6
HIDDEN2
 62
     4
100
AcDbCircle
 10
5.389244766555275
 20
12.82712311697111
 30
0.0
 40
0.0450000000000088
  0
LINE
  5
4E8
330
1E
100
AcDbEntity
  8
SL-42B
  6
CENTER2
 62
     1
 48
0.5
100
AcDbLine
 10
8.075354563008129
 20
11.88962311697112
 30
0.0
 11
9.415354563008126
 21
11.88962311697112
 31
0.0
  0
INSERT
  5
4E9
330
1E
100
AcDbEntity
  8
SL-42B
100
AcDbBlockReference
  2
CL
 10
8.39344393546499
 20
11.88962311697112
 30
0.0
  0
LINE
  5
4EB
102
{ACAD_REACTORS
330
87D
102
}
330
1E
100
AcDbEntity
  8
SL-42B
100
AcDbLine
 10
8.61943307970198
 20
10.57712311697112
 30
0.0
 11
8.61943307970198
 21
10.63312311697114
 31
0.0
  0
LINE
  5
4EC
102
{ACAD_REACTORS
330
87D
102
}
330
1E
100
AcDbEntity
  8
SL-42B
100
AcDbLine
 10
9.373433079701985
 20
10.84040651956471
 30
0.0
 11
9.373433079701985
 21
12.93883971437755
 31
0.0
  0
LINE
  5
4ED
102
{ACAD_REACTORS
330
87D
102
}
330
1E
100
AcDbEntity
  8
OBJECT
100
AcDbLine
 10
9.273433079701984
 20
10.81601831854258
 30
0.0
 11
9.273433079701987
 21
11.82173666094121
 31
0.0
  0
LWPOLYLINE
  5
4EE
330
1E
100
AcDbEntity
  8
OBJECT
100
AcDbPolyline
 90
        4
 70
     0
 43
0.0
 10
9.273433079701984
 20
11.10375935073907
 10
9.023433079701984
 20
11.10812311697112
 10
9.023433079701984
 20
11.29612311697112
 10
9.273433079701984
 20
11.30048688320318
  0
LINE
  5
4EF
330
1E
100
AcDbEntity
  8
SL-42B
  6
HIDDEN2
 62
     4
100
AcDbLine
 10
9.023433079701984
 20
11.15712311697113
 30
0.0
 11
9.273433079701984
 21
11.15494140002345
 31
0.0
  0
LWPOLYLINE
  5
4F0
330
1E
100
AcDbEntity
  8
OBJECT
100
AcDbPolyline
 90
        4
 70
     0
 43
0.0
 10
9.273433079701984
 20
10.84670750450807
 10
8.61943307970198
 20
10.85812311697114
 10
8.61943307970198
 20
11.04612311697114
 10
9.273433079701984
 20
11.0575387294342
  0
ARC
  5
4F1
102
{ACAD_REACTORS
330
87D
102
}
330
1E
100
AcDbEntity
  8
SL-42B
100
AcDbCircle
 10
9.123433079701985
 20
10.84040651956471
 30
0.0
 40
0.25
100
AcDbArc
 50
271.5000000000002
 51
0.0
  0
ARC
  5
4F2
102
{ACAD_REACTORS
330
87D
102
}
330
1E
100
AcDbEntity
  8
OBJECT
100
AcDbCircle
 10
9.148433079701984
 20
10.81601831854258
 30
0.0
 40
0.125
100
AcDbArc
 50
271.5000000000002
 51
359.9999999999998
  0
LINE
  5
4F3
102
{ACAD_REACTORS
330
87D
102
}
330
1E
100
AcDbEntity
  8
SL-42B
100
AcDbLine
 10
8.61943307970198
 20
10.57712311697112
 30
0.0
 11
9.129977316778951
 21
10.59049218832082
 31
0.0
  0
LINE
  5
4F4
102
{ACAD_REACTORS
330
87D
102
}
330
1E
100
AcDbEntity
  8
OBJECT
100
AcDbLine
 10
8.61943307970198
 20
10.63112311697112
 30
0.0
 11
8.679433079701977
 21
10.63112311697112
 31
0.0
  0
LWPOLYLINE
  5
4F5
330
1E
100
AcDbEntity
  8
SL-42B
  6
HIDDEN2
 62
     4
100
AcDbPolyline
 90
        4
 70
     0
 43
0.0
 10
8.61943307970198
 20
10.99712311697113
 10
9.119414041234069
 20
10.99275984922195
 10
9.119414041234069
 20
10.91148638472031
 10
8.61943307970198
 20
10.90712311697113
  0
LINE
  5
4F6
102
{ACAD_REACTORS
330
87D
102
}
330
1E
100
AcDbEntity
  8
OBJECT
100
AcDbLine
 10
8.679433079701977
 20
10.67869427226527
 30
0.0
 11
9.151705198240467
 21
10.69106115292063
 31
0.0
  0
LINE
  5
4F7
330
1E
100
AcDbEntity
  8
SL-42B
  6
HIDDEN2
 62
     4
100
AcDbLine
 10
9.023433079701984
 20
11.24712311697113
 30
0.0
 11
9.273433079701984
 21
11.24930483391882
 31
0.0
  0
ARC
  5
4FD
330
1E
100
AcDbEntity
  8
SL-42B
100
AcDbCircle
 10
9.123433079701985
 20
12.93883971437755
 30
0.0
 40
0.25
100
AcDbArc
 50
0.0
 51
88.49999999999974
  0
LINE
  5
4FE
330
1E
100
AcDbEntity
  8
SL-42B
100
AcDbLine
 10
8.61943307970198
 20
13.20212311697113
 30
0.0
 11
9.129977316778951
 21
13.18875404562143
 31
0.0
  0
DIMENSION
  5
502
330
1E
100
AcDbEntity
  8
0
100
AcDbDimension
  2
*D20
 10
6.925116429207239
 20
7.093104379977703
 30
0.0
 11
6.925116429207238
 21
7.718104379977702
 31
0.0
 70
    32
  1
C
 71
     5
 42
1.249999999999993
  3
Standard
100
AcDbAlignedDimension
 13
5.50818867831478
 23
8.343104379977697
 33
0.0
 14
5.486892248976683
 24
7.093104379977704
 34
0.0
 50
90.0
100
AcDbRotatedDimension
1001
ACAD
1000
DSTYLE
1002
{
1070
    42
1040
0.125
1070
   272
1070
     3
1002
}
  0
LINE
  5
503
330
1E
100
AcDbEntity
  8
SL-42B
100
AcDbLine
 10
1.777528169148856
 20
7.093104379977704
 30
0.0
 11
5.500961363961694
 21
7.093104379977704
 31
0.0
  0
LWPOLYLINE
  5
504
330
1E
100
AcDbEntity
  8
SL-42B
  6
HIDDEN2
 62
     4
100
AcDbPolyline
 90
        4
 70
     0
 43
0.0
 10
2.040881000323224
 20
7.193104379977706
 10
2.045244766555271
 20
7.443104379977706
 10
2.233244766555273
 20
7.443104379977706
 10
2.237608532787334
 20
7.193104379977706
  0
LINE
  5
505
330
1E
100
AcDbEntity
  8
SL-42B
  6
HIDDEN2
 62
     4
100
AcDbLine
 10
1.753139968126731
 20
7.193104379977702
 30
0.0
 11
5.52534956498382
 21
7.193104379977706
 31
0.0
  0
LINE
  5
506
330
1E
100
AcDbEntity
  8
SL-42B
  6
HIDDEN2
 62
     4
100
AcDbLine
 10
1.568244766555272
 20
7.785104379977704
 30
0.0
 11
5.71024476655528
 21
7.785104379977704
 31
0.0
  0
LINE
  5
507
330
1E
100
AcDbEntity
  8
SL-42B
100
AcDbLine
 10
1.51424476655527
 20
7.847104379977706
 30
0.0
 11
5.764244766555268
 21
7.847104379977706
 31
0.0
  0
LINE
  5
508
330
1E
100
AcDbEntity
  8
SL-42B
  6
HIDDEN2
 62
     4
100
AcDbLine
 10
2.184244766555266
 20
7.443104379977706
 30
0.0
 11
2.182063049607563
 21
7.193104379977706
 31
0.0
  0
LINE
  5
509
330
1E
100
AcDbEntity
  8
SL-42B
  6
HIDDEN2
 62
     4
100
AcDbLine
 10
2.094244766555277
 20
7.443104379977706
 30
0.0
 11
2.09642648350298
 21
7.193104379977706
 31
0.0
  0
ARC
  5
50A
330
1E
100
AcDbEntity
  8
SL-42B
  6
HIDDEN2
 62
     4
100
AcDbCircle
 10
1.753139968126731
 20
7.318104379977702
 30
0.0
 40
0.125
100
AcDbArc
 50
181.5000000000002
 51
270.0
  0
ARC
  5
50B
330
1E
100
AcDbEntity
  8
SL-42B
100
AcDbCircle
 10
1.777528169148856
 20
7.343104379977704
 30
0.0
 40
0.25
100
AcDbArc
 50
181.5000000000002
 51
270.0
  0
LWPOLYLINE
  5
50C
330
1E
100
AcDbEntity
  8
SL-42B
  6
HIDDEN2
 62
     4
100
AcDbPolyline
 90
        4
 70
     0
 43
0.0
 10
1.783829154092217
 20
7.193104379977702
 10
1.795244766555288
 20
7.847104379977706
 10
1.983244766555291
 20
7.847104379977706
 10
1.994660379018348
 20
7.193104379977702
  0
LINE
  5
50D
330
1E
100
AcDbEntity
  8
SL-42B
  6
HIDDEN2
 62
     4
100
AcDbLine
 10
1.568244766555272
 20
7.847104379977706
 30
0.0
 11
1.568244766555272
 21
7.785104379977704
 31
0.0
  0
LWPOLYLINE
  5
50E
330
1E
100
AcDbEntity
  8
SL-42B
  6
HIDDEN2
 62
     4
100
AcDbPolyline
 90
        4
 70
     0
 43
0.0
 10
1.934244766555284
 20
7.847104379977706
 10
1.9298814988061
 20
7.347123418445621
 10
1.848608034304465
 20
7.347123418445621
 10
1.844244766555281
 20
7.847104379977706
  0
LINE
  5
50F
330
1E
100
AcDbEntity
  8
SL-42B
100
AcDbLine
 10
1.51424476655527
 20
7.847104379977706
 30
0.0
 11
1.52761383790497
 21
7.336560142900735
 31
0.0
  0
LINE
  5
510
330
1E
100
AcDbEntity
  8
SL-42B
  6
HIDDEN2
 62
     4
100
AcDbLine
 10
1.61586829369256
 20
7.785104379977704
 30
0.0
 11
1.628182802504785
 21
7.314832261439219
 31
0.0
  0
INSERT
  5
511
330
1E
100
AcDbEntity
  8
SL-42B
100
AcDbBlockReference
  2
CL
 10
3.639244766555275
 20
7.995023939783289
 30
0.0
  0
LINE
  5
512
330
1E
100
AcDbEntity
  8
SL-42B
  6
CENTER2
 62
     1
 48
0.5
100
AcDbLine
 10
3.639244766555275
 20
8.333104379977703
 30
0.0
 11
3.639244766555275
 21
6.99310437997771
 31
0.0
  0
ARC
  5
513
330
1E
100
AcDbEntity
  8
SL-42B
  6
HIDDEN2
 62
     4
100
AcDbCircle
 10
5.52534956498382
 20
7.318104379977706
 30
0.0
 40
0.125
100
AcDbArc
 50
270.0
 51
358.4999999999997
  0
LWPOLYLINE
  5
514
330
1E
100
AcDbEntity
  8
SL-42B
  6
HIDDEN2
 62
     4
100
AcDbPolyline
 90
        4
 70
     0
 43
0.0
 10
5.237608532787326
 20
7.193104379977706
 10
5.23324476655528
 20
7.443104379977706
 10
5.045244766555278
 20
7.443104379977706
 10
5.040881000323217
 20
7.193104379977706
  0
LINE
  5
515
330
1E
100
AcDbEntity
  8
SL-42B
  6
HIDDEN2
 62
     4
100
AcDbLine
 10
5.094244766555284
 20
7.443104379977706
 30
0.0
 11
5.096426483502987
 21
7.193104379977706
 31
0.0
  0
LINE
  5
516
330
1E
100
AcDbEntity
  8
SL-42B
  6
HIDDEN2
 62
     4
100
AcDbLine
 10
5.184244766555273
 20
7.443104379977706
 30
0.0
 11
5.18206304960757
 21
7.193104379977706
 31
0.0
  0
ARC
  5
517
330
1E
100
AcDbEntity
  8
SL-42B
100
AcDbCircle
 10
5.500961363961694
 20
7.343104379977704
 30
0.0
 40
0.25
100
AcDbArc
 50
270.0
 51
358.4999999999997
  0
LWPOLYLINE
  5
518
330
1E
100
AcDbEntity
  8
SL-42B
  6
HIDDEN2
 62
     4
100
AcDbPolyline
 90
        4
 70
     0
 43
0.0
 10
5.494660379018334
 20
7.193104379977706
 10
5.483244766555262
 20
7.847104379977706
 10
5.29524476655526
 20
7.847104379977706
 10
5.283829154092202
 20
7.193104379977706
  0
LINE
  5
519
330
1E
100
AcDbEntity
  8
SL-42B
  6
HIDDEN2
 62
     4
100
AcDbLine
 10
5.71024476655528
 20
7.847104379977706
 30
0.0
 11
5.71024476655528
 21
7.785104379977704
 31
0.0
  0
LINE
  5
51A
330
1E
100
AcDbEntity
  8
SL-42B
100
AcDbLine
 10
5.764244766555282
 20
7.847104379977706
 30
0.0
 11
5.750875695205582
 21
7.336560142900738
 31
0.0
  0
LWPOLYLINE
  5
51B
330
1E
100
AcDbEntity
  8
SL-42B
  6
HIDDEN2
 62
     4
100
AcDbPolyline
 90
        4
 70
     0
 43
0.0
 10
5.344244766555267
 20
7.847104379977706
 10
5.348608034304451
 20
7.347123418445621
 10
5.429881498806086
 20
7.347123418445621
 10
5.43424476655527
 20
7.847104379977706
  0
LINE
  5
51C
330
1E
100
AcDbEntity
  8
SL-42B
  6
HIDDEN2
 62
     4
100
AcDbLine
 10
5.66262123941799
 20
7.785104379977704
 30
0.0
 11
5.650306730605763
 21
7.314832261439223
 31
0.0
  0
LWPOLYLINE
  5
51D
330
1E
100
AcDbEntity
  8
SL-42C
100
AcDbPolyline
 90
        8
 70
     1
 43
0.0
 10
5.154244766555283
 20
11.09312311697113
 10
2.124244766555282
 20
11.09312311697113
 42
-0.4142135623730841
 10
2.030244766555284
 20
11.18712311697112
 10
2.030244766555284
 20
12.59212311697113
 42
-0.414213562373084
 10
2.124244766555282
 20
12.68612311697113
 10
5.154244766555279
 20
12.68612311697113
 42
-0.4142135623730951
 10
5.248244766555281
 20
12.59212311697113
 10
5.248244766555284
 20
11.18712311697113
 42
-0.4142135623730951
  0
LWPOLYLINE
  5
51E
330
1E
100
AcDbEntity
  8
SL-42C
100
AcDbPolyline
 90
        8
 70
     1
 43
0.0
 10
5.279244766555283
 20
11.18712311697113
 42
-0.4142135623730951
 10
5.154244766555283
 20
11.06212311697113
 10
2.124244766555282
 20
11.06212311697112
 42
-0.4142135623730951
 10
1.999244766555282
 20
11.18712311697112
 10
1.999244766555282
 20
12.59212311697113
 42
-0.4142135623730951
 10
2.124244766555282
 20
12.71712311697112
 10
5.154244766555279
 20
12.71712311697112
 42
-0.4142135623730951
 10
5.279244766555279
 20
12.59212311697113
  0
LINE
  5
51F
330
1E
100
AcDbEntity
  8
SL-42C
100
AcDbLine
 10
5.389244766555279
 20
13.20212311697112
 30
0.0
 11
1.889244766555286
 21
13.20212311697112
 31
0.0
  0
LINE
  5
520
330
1E
100
AcDbEntity
  8
SL-42C
  6
HIDDEN2
 62
     4
100
AcDbLine
 10
5.389244766555279
 20
13.14612311697111
 30
0.0
 11
1.889244766555286
 21
13.14612311697111
 31
0.0
  0
LINE
  5
521
330
1E
100
AcDbEntity
  8
SL-42C
  6
HIDDEN2
 62
     4
100
AcDbLine
 10
5.389244766555279
 20
13.10348461203552
 30
0.0
 11
1.889244766555286
 21
13.10348461203552
 31
0.0
  0
LINE
  5
522
330
1E
100
AcDbEntity
  8
SL-42C
100
AcDbLine
 10
1.889244766555286
 20
10.57712311697113
 30
0.0
 11
5.389244766555279
 21
10.57712311697113
 31
0.0
  0
LINE
  5
523
330
1E
100
AcDbEntity
  8
SL-42C
  6
HIDDEN2
 62
     4
100
AcDbLine
 10
1.889244766555286
 20
10.63312311697114
 30
0.0
 11
5.389244766555279
 21
10.63312311697114
 31
0.0
  0
LINE
  5
524
330
1E
100
AcDbEntity
  8
SL-42C
  6
HIDDEN2
 62
     4
100
AcDbLine
 10
1.889244766555286
 20
10.67576162190672
 30
0.0
 11
5.389244766555279
 21
10.67576162190672
 31
0.0
  0
LINE
  5
525
330
1E
100
AcDbEntity
  8
SL-42C
100
AcDbLine
 10
1.514244766555286
 20
12.82712311697112
 30
0.0
 11
1.514244766555286
 21
10.95212311697113
 31
0.0
  0
LINE
  5
526
330
1E
100
AcDbEntity
  8
SL-42C
  6
HIDDEN2
 62
     4
100
AcDbLine
 10
1.570244766555298
 20
12.82712311697112
 30
0.0
 11
1.570244766555298
 21
10.95212311697113
 31
0.0
  0
LINE
  5
527
330
1E
100
AcDbEntity
  8
SL-42C
  6
HIDDEN2
 62
     4
100
AcDbLine
 10
1.612883271490883
 20
12.82712311697112
 30
0.0
 11
1.612883271490883
 21
10.95212311697113
 31
0.0
  0
CIRCLE
  5
528
330
1E
100
AcDbEntity
  8
SL-42C
100
AcDbCircle
 10
1.889244766555275
 20
10.95212311697112
 30
0.0
 40
0.0575968222219956
  0
CIRCLE
  5
529
330
1E
100
AcDbEntity
  8
SL-42C
  6
HIDDEN2
 62
     4
100
AcDbCircle
 10
1.889244766555275
 20
10.95212311697112
 30
0.0
 40
0.1000000000000014
  0
CIRCLE
  5
52A
330
1E
100
AcDbEntity
  8
SL-42C
100
AcDbCircle
 10
1.889244766555275
 20
10.95212311697112
 30
0.0
 40
0.127748774442054
  0
LWPOLYLINE
  5
52B
330
1E
100
AcDbEntity
  8
SL-42C
  6
HIDDEN2
 62
     4
100
AcDbPolyline
 90
        2
 70
     1
 43
0.0
 10
1.676015846001856
 20
10.86782118367387
 42
5.249201043697456
 10
1.676015846001856
 20
11.03642505026837
  0
ARC
  5
52C
330
1E
100
AcDbEntity
  8
SL-42C
  6
HIDDEN2
 62
     4
100
AcDbCircle
 10
1.889244766555286
 20
10.95212311697113
 30
0.0
 40
0.2763614950644033
100
AcDbArc
 50
180.0
 51
270.0
  0
ARC
  5
52D
330
1E
100
AcDbEntity
  8
SL-42C
100
AcDbCircle
 10
1.889244766555286
 20
10.95212311697113
 30
0.0
 40
0.375
100
AcDbArc
 50
180.0
 51
270.0
  0
ARC
  5
52E
330
1E
100
AcDbEntity
  8
SL-42C
  6
HIDDEN2
 62
     4
100
AcDbCircle
 10
1.889244766555286
 20
10.95212311697113
 30
0.0
 40
0.3189999999999884
100
AcDbArc
 50
180.0
 51
270.0
  0
LWPOLYLINE
  5
52F
330
1E
100
AcDbEntity
  8
SL-42C
  6
HIDDEN2
 62
     4
100
AcDbPolyline
 90
        2
 70
     1
 43
0.0
 10
1.676015846001856
 20
10.86782118367387
 42
5.249201043697456
 10
1.676015846001856
 20
11.03642505026837
  0
CIRCLE
  5
530
330
1E
100
AcDbEntity
  8
SL-42C
100
AcDbCircle
 10
1.889244766555275
 20
10.95212311697112
 30
0.0
 40
0.127748774442054
  0
CIRCLE
  5
531
330
1E
100
AcDbEntity
  8
SL-42C
  6
HIDDEN2
 62
     4
100
AcDbCircle
 10
1.889244766555275
 20
10.95212311697112
 30
0.0
 40
0.1000000000000014
  0
CIRCLE
  5
532
330
1E
100
AcDbEntity
  8
SL-42C
100
AcDbCircle
 10
1.889244766555275
 20
10.95212311697112
 30
0.0
 40
0.0575968222219956
  0
POINT
  5
533
330
1E
100
AcDbEntity
  8
Defpoints
  6
ByBlock
 62
     0
380
     1
100
AcDbPoint
 10
1.999244766555282
 20
11.18712311697112
 30
0.0
  0
POINT
  5
534
330
1E
100
AcDbEntity
  8
Defpoints
  6
ByBlock
 62
     0
380
     1
100
AcDbPoint
 10
1.889244766555275
 20
10.95212311697112
 30
0.0
  0
LWPOLYLINE
  5
535
330
1E
100
AcDbEntity
  8
SL-42C
  6
HIDDEN2
 62
     4
100
AcDbPolyline
 90
        2
 70
     1
 43
0.0
 10
1.676015846001856
 20
12.91142505026837
 42
-5.249201043697456
 10
1.676015846001856
 20
12.74282118367388
  0
LWPOLYLINE
  5
536
330
1E
100
AcDbEntity
  8
SL-42C
  6
HIDDEN2
 62
     4
100
AcDbPolyline
 90
        2
 70
     1
 43
0.0
 10
1.676015846001856
 20
12.91142505026837
 42
-5.249201043697456
 10
1.676015846001856
 20
12.74282118367388
  0
ARC
  5
537
330
1E
100
AcDbEntity
  8
SL-42C
100
AcDbCircle
 10
1.889244766555286
 20
12.82712311697112
 30
0.0
 40
0.375
100
AcDbArc
 50
90.0
 51
180.0
  0
ARC
  5
538
330
1E
100
AcDbEntity
  8
SL-42C
  6
HIDDEN2
 62
     4
100
AcDbCircle
 10
1.889244766555286
 20
12.82712311697112
 30
0.0
 40
0.3189999999999884
100
AcDbArc
 50
90.0
 51
180.0
  0
ARC
  5
539
330
1E
100
AcDbEntity
  8
SL-42C
  6
HIDDEN2
 62
     4
100
AcDbCircle
 10
1.889244766555286
 20
12.82712311697112
 30
0.0
 40
0.2763614950644033
100
AcDbArc
 50
90.0
 51
180.0
  0
CIRCLE
  5
53A
330
1E
100
AcDbEntity
  8
SL-42C
100
AcDbCircle
 10
1.889244766555275
 20
12.82712311697113
 30
0.0
 40
0.127748774442054
  0
CIRCLE
  5
53B
330
1E
100
AcDbEntity
  8
SL-42C
  6
HIDDEN2
 62
     4
100
AcDbCircle
 10
1.889244766555275
 20
12.82712311697113
 30
0.0
 40
0.1000000000000014
  0
CIRCLE
  5
53C
330
1E
100
AcDbEntity
  8
SL-42C
100
AcDbCircle
 10
1.889244766555275
 20
12.82712311697113
 30
0.0
 40
0.0575968222219956
  0
CIRCLE
  5
53D
330
1E
100
AcDbEntity
  8
SL-42C
100
AcDbCircle
 10
1.889244766555275
 20
12.82712311697113
 30
0.0
 40
0.0575968222219956
  0
CIRCLE
  5
53E
330
1E
100
AcDbEntity
  8
SL-42C
  6
HIDDEN2
 62
     4
100
AcDbCircle
 10
1.889244766555275
 20
12.82712311697113
 30
0.0
 40
0.1000000000000014
  0
CIRCLE
  5
53F
330
1E
100
AcDbEntity
  8
SL-42C
100
AcDbCircle
 10
1.889244766555275
 20
12.82712311697113
 30
0.0
 40
0.127748774442054
  0
LINE
  5
540
330
1E
100
AcDbEntity
  8
SL-42C
100
AcDbLine
 10
5.764244766555279
 20
10.95212311697113
 30
0.0
 11
5.764244766555279
 21
12.82712311697112
 31
0.0
  0
LINE
  5
541
330
1E
100
AcDbEntity
  8
SL-42C
  6
HIDDEN2
 62
     4
100
AcDbLine
 10
5.708244766555267
 20
10.95212311697113
 30
0.0
 11
5.708244766555267
 21
12.82712311697112
 31
0.0
  0
LINE
  5
542
330
1E
100
AcDbEntity
  8
SL-42C
  6
HIDDEN2
 62
     4
100
AcDbLine
 10
5.665606261619679
 20
10.95212311697113
 30
0.0
 11
5.665606261619682
 21
12.82712311697112
 31
0.0
  0
CIRCLE
  5
543
330
1E
100
AcDbEntity
  8
SL-42C
100
AcDbCircle
 10
5.38924476655529
 20
10.95212311697112
 30
0.0
 40
0.0575968222219956
  0
CIRCLE
  5
544
330
1E
100
AcDbEntity
  8
SL-42C
  6
HIDDEN2
 62
     4
100
AcDbCircle
 10
5.38924476655529
 20
10.95212311697112
 30
0.0
 40
0.1000000000000014
  0
CIRCLE
  5
545
330
1E
100
AcDbEntity
  8
SL-42C
100
AcDbCircle
 10
5.38924476655529
 20
10.95212311697112
 30
0.0
 40
0.127748774442054
  0
LWPOLYLINE
  5
546
330
1E
100
AcDbEntity
  8
SL-42C
  6
HIDDEN2
 62
     4
100
AcDbPolyline
 90
        2
 70
     1
 43
0.0
 10
5.602473687108709
 20
10.86782118367387
 42
-5.249201043697456
 10
5.602473687108709
 20
11.03642505026837
  0
LWPOLYLINE
  5
547
330
1E
100
AcDbEntity
  8
SL-42C
  6
HIDDEN2
 62
     4
100
AcDbPolyline
 90
        2
 70
     1
 43
0.0
 10
5.602473687108709
 20
10.86782118367387
 42
-5.249201043697456
 10
5.602473687108709
 20
11.03642505026837
  0
CIRCLE
  5
548
330
1E
100
AcDbEntity
  8
SL-42C
100
AcDbCircle
 10
5.38924476655529
 20
10.95212311697112
 30
0.0
 40
0.127748774442054
  0
CIRCLE
  5
549
330
1E
100
AcDbEntity
  8
SL-42C
  6
HIDDEN2
 62
     4
100
AcDbCircle
 10
5.38924476655529
 20
10.95212311697112
 30
0.0
 40
0.1000000000000014
  0
CIRCLE
  5
54A
330
1E
100
AcDbEntity
  8
SL-42C
100
AcDbCircle
 10
5.38924476655529
 20
10.95212311697112
 30
0.0
 40
0.0575968222219956
  0
ARC
  5
54B
330
1E
100
AcDbEntity
  8
SL-42C
  6
HIDDEN2
 62
     4
100
AcDbCircle
 10
5.389244766555275
 20
10.95212311697113
 30
0.0
 40
0.2763614950644033
100
AcDbArc
 50
270.0000000000007
 51
0.0
  0
ARC
  5
54C
330
1E
100
AcDbEntity
  8
SL-42C
100
AcDbCircle
 10
5.389244766555279
 20
10.95212311697113
 30
0.0
 40
0.375
100
AcDbArc
 50
270.0
 51
0.0
  0
ARC
  5
54D
330
1E
100
AcDbEntity
  8
SL-42C
  6
HIDDEN2
 62
     4
100
AcDbCircle
 10
5.389244766555279
 20
10.95212311697113
 30
0.0
 40
0.3189999999999884
100
AcDbArc
 50
270.0
 51
0.0
  0
POINT
  5
54E
330
1E
100
AcDbEntity
  8
Defpoints
  6
ByBlock
 62
     0
380
     1
100
AcDbPoint
 10
5.279244766555283
 20
11.18712311697113
 30
0.0
  0
POINT
  5
54F
330
1E
100
AcDbEntity
  8
Defpoints
  6
ByBlock
 62
     0
380
     1
100
AcDbPoint
 10
5.38924476655529
 20
10.95212311697112
 30
0.0
  0
LWPOLYLINE
  5
550
330
1E
100
AcDbEntity
  8
SL-42C
  6
HIDDEN2
 62
     4
100
AcDbPolyline
 90
        2
 70
     1
 43
0.0
 10
5.602473687108709
 20
12.91142505026837
 42
5.249201043697456
 10
5.602473687108709
 20
12.74282118367388
  0
LWPOLYLINE
  5
551
330
1E
100
AcDbEntity
  8
SL-42C
  6
HIDDEN2
 62
     4
100
AcDbPolyline
 90
        2
 70
     1
 43
0.0
 10
5.602473687108709
 20
12.91142505026837
 42
5.249201043697456
 10
5.602473687108709
 20
12.74282118367388
  0
ARC
  5
552
330
1E
100
AcDbEntity
  8
SL-42C
  6
HIDDEN2
 62
     4
100
AcDbCircle
 10
5.389244766555279
 20
12.82712311697112
 30
0.0
 40
0.2763614950644033
100
AcDbArc
 50
0.0
 51
90.0
  0
ARC
  5
553
330
1E
100
AcDbEntity
  8
SL-42C
100
AcDbCircle
 10
5.389244766555279
 20
12.82712311697112
 30
0.0
 40
0.375
100
AcDbArc
 50
0.0
 51
90.0
  0
ARC
  5
554
330
1E
100
AcDbEntity
  8
SL-42C
  6
HIDDEN2
 62
     4
100
AcDbCircle
 10
5.389244766555279
 20
12.82712311697112
 30
0.0
 40
0.3189999999999884
100
AcDbArc
 50
0.0
 51
90.0
  0
CIRCLE
  5
555
330
1E
100
AcDbEntity
  8
SL-42C
100
AcDbCircle
 10
5.38924476655529
 20
12.82712311697113
 30
0.0
 40
0.127748774442054
  0
CIRCLE
  5
556
330
1E
100
AcDbEntity
  8
SL-42C
  6
HIDDEN2
 62
     4
100
AcDbCircle
 10
5.38924476655529
 20
12.82712311697113
 30
0.0
 40
0.1000000000000014
  0
CIRCLE
  5
557
330
1E
100
AcDbEntity
  8
SL-42C
100
AcDbCircle
 10
5.38924476655529
 20
12.82712311697113
 30
0.0
 40
0.0575968222219956
  0
CIRCLE
  5
558
330
1E
100
AcDbEntity
  8
SL-42C
100
AcDbCircle
 10
5.38924476655529
 20
12.82712311697113
 30
0.0
 40
0.0575968222219956
  0
CIRCLE
  5
559
330
1E
100
AcDbEntity
  8
SL-42C
  6
HIDDEN2
 62
     4
100
AcDbCircle
 10
5.38924476655529
 20
12.82712311697113
 30
0.0
 40
0.1000000000000014
  0
CIRCLE
  5
55A
330
1E
100
AcDbEntity
  8
SL-42C
100
AcDbCircle
 10
5.38924476655529
 20
12.82712311697113
 30
0.0
 40
0.127748774442054
  0
LINE
  5
55B
330
1E
100
AcDbEntity
  8
SL-42C
  6
HIDDEN2
 62
     4
100
AcDbLine
 10
5.534984144772227
 20
8.233104379977712
 30
0.0
 11
1.743505388338331
 21
8.233104379977705
 31
0.0
  0
LINE
  5
55C
330
1E
100
AcDbEntity
  8
SL-42C
100
AcDbLine
 10
5.50818867831478
 20
8.343104379977697
 30
0.0
 11
1.770300854795777
 21
8.343104379977704
 31
0.0
  0
LWPOLYLINE
  5
55D
330
1E
100
AcDbEntity
  8
SL-42C
  6
HIDDEN2
 62
     4
100
AcDbPolyline
 90
        4
 70
     0
 43
0.0
 10
1.999244766555275
 20
8.343104379977704
 10
1.999244766555275
 20
8.333104379977706
 10
5.279244766555287
 20
8.333104379977706
 10
5.279244766555272
 20
8.343104379977704
  0
LINE
  5
55E
330
1E
100
AcDbEntity
  8
SL-42C
100
AcDbLine
 10
5.764244766555272
 20
7.865104379977704
 30
0.0
 11
1.514244766555279
 21
7.865104379977701
 31
0.0
  0
LWPOLYLINE
  5
55F
330
1E
100
AcDbEntity
  8
SL-42C
  6
HIDDEN2
 62
     4
100
AcDbPolyline
 90
        5
 70
     0
 43
0.0
 10
1.946841588777264
 20
7.848104379977705
 10
1.953555118824514
 20
8.104483748925945
 10
2.003445362340276
 20
8.161262012591338
 10
2.007929988112103
 20
8.33252296133987
 10
2.017125122978065
 20
8.343100753989824
  0
LINE
  5
560
330
1E
100
AcDbEntity
  8
SL-42C
100
AcDbLine
 10
1.514244766555279
 20
7.865104379977704
 30
0.0
 11
1.520386523551888
 21
8.099648617054677
 31
0.0
  0
LWPOLYLINE
  5
561
330
1E
100
AcDbEntity
  8
SL-42C
  6
HIDDEN2
 62
     4
100
AcDbPolyline
 90
        5
 70
     0
 43
0.0
 10
1.831647944333273
 20
7.848104379977705
 10
1.824934414286037
 20
8.104483748925952
 10
1.775044170770289
 20
8.161262012591324
 10
1.770559544998459
 20
8.33252296133987
 10
1.761496081167678
 20
8.342949283790767
  0
LWPOLYLINE
  5
562
330
1E
100
AcDbEntity
  8
SL-42C
  6
HIDDEN2
 62
     4
100
AcDbPolyline
 90
        6
 70
     0
 43
0.0
 10
1.676015846001849
 20
8.213319215790976
 10
1.771972844005208
 20
8.095104379977707
 10
1.789244766555274
 20
7.848104379977705
 10
1.989244766555277
 20
7.848104379977705
 10
2.006516689105342
 20
8.095104379977707
 10
2.118533642251474
 20
8.233104379977705
  0
LINE
  5
563
330
1E
100
AcDbEntity
  8
SL-42C
  6
HIDDEN2
 62
     4
100
AcDbLine
 10
1.61852442644378
 20
8.110285930782369
 30
0.0
 11
1.612883271490879
 21
7.787104379977705
 31
0.0
  0
ARC
  5
564
330
1E
100
AcDbEntity
  8
SL-42C
  6
HIDDEN2
 62
     4
100
AcDbCircle
 10
1.743505388338331
 20
8.108104379977705
 30
0.0
 40
0.125
100
AcDbArc
 50
90.00000000000005
 51
178.9999999999992
  0
ARC
  5
565
330
1E
100
AcDbEntity
  8
SL-42C
100
AcDbCircle
 10
1.770300854795777
 20
8.093104379977704
 30
0.0
 40
0.25
100
AcDbArc
 50
89.99999999999998
 51
178.499999999999
  0
LINE
  5
566
330
1E
100
AcDbEntity
  8
SL-42C
  6
HIDDEN2
 62
     4
100
AcDbLine
 10
2.030244766555277
 20
8.343104379977697
 30
0.0
 11
2.030244766555277
 21
8.333104379977706
 31
0.0
  0
LINE
  5
567
330
1E
100
AcDbEntity
  8
SL-42C
  6
HIDDEN2
 62
     4
100
AcDbLine
 10
1.770559544998459
 20
8.33252296133987
 30
0.0
 11
2.007929988112103
 21
8.33252296133987
 31
0.0
  0
LINE
  5
568
330
1E
100
AcDbEntity
  8
SL-42C
  6
HIDDEN2
 62
     4
100
AcDbLine
 10
2.006516689105342
 20
8.095104379977707
 30
0.0
 11
1.771972844005208
 21
8.095104379977707
 31
0.0
  0
LINE
  5
569
330
1E
100
AcDbEntity
  8
SL-42C
  6
HIDDEN2
 62
     4
100
AcDbLine
 10
1.953555118824514
 20
8.104483748925945
 30
0.0
 11
1.824934414286037
 21
8.104483748925952
 31
0.0
  0
LINE
  5
56A
330
1E
100
AcDbEntity
  8
SL-42C
  6
HIDDEN2
 62
     4
100
AcDbLine
 10
1.775044170770289
 20
8.161262012591324
 30
0.0
 11
2.003445362340276
 21
8.161262012591338
 31
0.0
  0
LINE
  5
56B
330
1E
100
AcDbEntity
  8
SL-42C
100
AcDbLine
 10
5.764244766555279
 20
7.865104379977704
 30
0.0
 11
5.75810300955867
 21
8.099648617054677
 31
0.0
  0
LWPOLYLINE
  5
56C
330
1E
100
AcDbEntity
  8
SL-42C
  6
HIDDEN2
 62
     4
100
AcDbPolyline
 90
        5
 70
     0
 43
0.0
 10
5.331647944333294
 20
7.848104379977705
 10
5.324934414286044
 20
8.104483748925945
 10
5.275044170770282
 20
8.161262012591338
 10
5.270559544998455
 20
8.33252296133987
 10
5.261364410132493
 20
8.343100753989824
  0
LWPOLYLINE
  5
56D
330
1E
100
AcDbEntity
  8
SL-42C
  6
HIDDEN2
 62
     4
100
AcDbPolyline
 90
        5
 70
     0
 43
0.0
 10
5.446841588777285
 20
7.848104379977705
 10
5.453555118824521
 20
8.104483748925952
 10
5.503445362340269
 20
8.161262012591324
 10
5.507929988112099
 20
8.33252296133987
 10
5.51699345194288
 20
8.342949283790767
  0
LWPOLYLINE
  5
56E
330
1E
100
AcDbEntity
  8
SL-42C
  6
HIDDEN2
 62
     4
100
AcDbPolyline
 90
        6
 70
     0
 43
0.0
 10
5.602473687108709
 20
8.213319215790976
 10
5.50651668910535
 20
8.095104379977707
 10
5.489244766555284
 20
7.848104379977705
 10
5.289244766555281
 20
7.848104379977705
 10
5.271972844005215
 20
8.095104379977707
 10
5.159955890859084
 20
8.233104379977705
  0
LINE
  5
56F
330
1E
100
AcDbEntity
  8
SL-42C
  6
HIDDEN2
 62
     4
100
AcDbLine
 10
5.659965106666778
 20
8.110285930782369
 30
0.0
 11
5.665606261619679
 21
7.787104379977705
 31
0.0
  0
ARC
  5
570
330
1E
100
AcDbEntity
  8
SL-42C
  6
HIDDEN2
 62
     4
100
AcDbCircle
 10
5.534984144772227
 20
8.108104379977712
 30
0.0
 40
0.125
100
AcDbArc
 50
1.00000000000063
 51
90.00000000000005
  0
ARC
  5
571
330
1E
100
AcDbEntity
  8
SL-42C
100
AcDbCircle
 10
5.50818867831478
 20
8.093104379977697
 30
0.0
 40
0.25
100
AcDbArc
 50
1.500000000001574
 51
89.99999999999998
  0
LINE
  5
572
330
1E
100
AcDbEntity
  8
SL-42C
  6
HIDDEN2
 62
     4
100
AcDbLine
 10
5.248244766555274
 20
8.343104379977697
 30
0.0
 11
5.248244766555274
 21
8.333104379977706
 31
0.0
  0
LINE
  5
573
330
1E
100
AcDbEntity
  8
SL-42C
  6
HIDDEN2
 62
     4
100
AcDbLine
 10
5.507929988112099
 20
8.33252296133987
 30
0.0
 11
5.270559544998455
 21
8.33252296133987
 31
0.0
  0
LINE
  5
574
330
1E
100
AcDbEntity
  8
SL-42C
  6
HIDDEN2
 62
     4
100
AcDbLine
 10
5.503445362340269
 20
8.161262012591324
 30
0.0
 11
5.275044170770282
 21
8.161262012591338
 31
0.0
  0
LINE
  5
575
330
1E
100
AcDbEntity
  8
SL-42C
  6
HIDDEN2
 62
     4
100
AcDbLine
 10
5.324934414286044
 20
8.104483748925945
 30
0.0
 11
5.453555118824521
 21
8.104483748925952
 31
0.0
  0
LINE
  5
576
330
1E
100
AcDbEntity
  8
SL-42C
  6
HIDDEN2
 62
     4
100
AcDbLine
 10
5.271972844005215
 20
8.095104379977707
 30
0.0
 11
5.50651668910535
 21
8.095104379977707
 31
0.0
  0
LWPOLYLINE
  5
577
102
{ACAD_REACTORS
330
853
102
}
330
1E
100
AcDbEntity
  8
OBJECT
100
AcDbPolyline
 90
        3
 70
     0
 43
0.0
 10
8.123433079701984
 20
11.06212311697113
 10
8.133433079701978
 20
11.06212311697113
 10
8.133433079701978
 20
11.77728406957662
  0
LINE
  5
578
330
1E
100
AcDbEntity
  8
SL-42C
100
AcDbLine
 10
8.123433079701985
 20
12.94606702873063
 30
0.0
 11
8.123433079701978
 21
10.83317920521163
 31
0.0
  0
LINE
  5
579
102
{ACAD_REACTORS
330
853
102
}
330
1E
100
AcDbEntity
  8
OBJECT
100
AcDbLine
 10
8.233433079701978
 20
11.71558447165988
 30
0.0
 11
8.233433079701978
 21
10.80638373875418
 31
0.0
  0
LINE
  5
57A
102
{ACAD_REACTORS
330
853
102
}
330
1E
100
AcDbEntity
  8
SL-42C
100
AcDbLine
 10
8.60143307970198
 20
10.63312311697114
 30
0.0
 11
8.60143307970198
 21
10.57712311697113
 31
0.0
  0
LWPOLYLINE
  5
57B
102
{ACAD_REACTORS
330
853
102
}
330
1E
100
AcDbEntity
  8
SL-42C
  6
HIDDEN2
 62
     4
100
AcDbPolyline
 90
        5
 70
     0
 43
0.0
 10
8.618433079701981
 20
11.00971993919311
 10
8.362053710753739
 20
11.01643346924036
 10
8.305275447088346
 20
11.06632371275612
 10
8.134014498339814
 20
11.07080833852795
 10
8.12343670568986
 20
11.08000347339391
  0
ARC
  5
57C
102
{ACAD_REACTORS
330
853
102
}
330
1E
100
AcDbEntity
  8
OBJECT
100
AcDbCircle
 10
8.358433079701978
 20
10.80638373875418
 30
0.0
 40
0.125
100
AcDbArc
 50
180.0
 51
268.9999999999991
  0
ARC
  5
57D
102
{ACAD_REACTORS
330
853
102
}
330
1E
100
AcDbEntity
  8
SL-42C
100
AcDbCircle
 10
8.373433079701978
 20
10.83317920521163
 30
0.0
 40
0.25
100
AcDbArc
 50
179.9999999999999
 51
268.499999999999
  0
LWPOLYLINE
  5
57E
102
{ACAD_REACTORS
330
853
102
}
330
1E
100
AcDbEntity
  8
SL-42C
  6
HIDDEN2
 62
     4
100
AcDbPolyline
 90
        5
 70
     0
 43
0.0
 10
8.618433079701981
 20
10.89452629474912
 10
8.362053710753732
 20
10.88781276470188
 10
8.30527544708836
 20
10.83792252118614
 10
8.134014498339817
 20
10.83343789541431
 10
8.123588175888921
 20
10.82437443158353
  0
LWPOLYLINE
  5
57F
330
1E
100
AcDbEntity
  8
OBJECT
100
AcDbPolyline
 90
        6
 70
     0
 43
0.0
 10
8.253218243888712
 20
10.7388941964177
 10
8.371433079701978
 20
10.83485119442106
 10
8.618433079701981
 20
10.85212311697112
 10
8.618433079701981
 20
11.05212311697113
 10
8.371433079701978
 20
11.06939503952119
 10
8.233433079701979
 20
11.18141199266733
  0
LINE
  5
580
330
1E
100
AcDbEntity
  8
SL-42C
  6
HIDDEN2
 62
     4
100
AcDbLine
 10
8.305275447088359
 20
10.83792252118614
 30
0.0
 11
8.305275447088344
 21
11.06632371275612
 31
0.0
  0
LINE
  5
581
102
{ACAD_REACTORS
330
853
102
}
330
1E
100
AcDbEntity
  8
SL-42C
  6
HIDDEN2
 62
     4
100
AcDbLine
 10
8.134014498339812
 20
10.83343789541431
 30
0.0
 11
8.134014498339812
 21
11.07080833852795
 31
0.0
  0
LINE
  5
582
330
1E
100
AcDbEntity
  8
SL-42C
  6
HIDDEN2
 62
     4
100
AcDbLine
 10
8.123433079701985
 20
11.09312311697113
 30
0.0
 11
8.133433079701983
 21
11.09312311697113
 31
0.0
  0
LINE
  5
583
330
1E
100
AcDbEntity
  8
SL-42C
  6
HIDDEN2
 62
     4
100
AcDbLine
 10
8.362053710753738
 20
11.01643346924036
 30
0.0
 11
8.36205371075373
 21
10.88781276470188
 31
0.0
  0
LINE
  5
584
330
1E
100
AcDbEntity
  8
OBJECT
100
AcDbLine
 10
8.371433079701976
 20
11.06939503952119
 30
0.0
 11
8.371433079701976
 21
10.83485119442106
 31
0.0
  0
LINE
  5
585
102
{ACAD_REACTORS
330
853
102
}
330
1E
100
AcDbEntity
  8
OBJECT
100
AcDbLine
 10
8.35625152889732
 20
10.68140277685963
 30
0.0
 11
8.679433079701976
 21
10.67576162190673
 31
0.0
  0
LINE
  5
586
102
{ACAD_REACTORS
330
853
102
}
330
1E
100
AcDbEntity
  8
SL-42C
100
AcDbLine
 10
8.60143307970198
 20
10.57712311697113
 30
0.0
 11
8.366888842625005
 21
10.58326487396774
 31
0.0
  0
ARC
  5
588
330
1E
100
AcDbEntity
  8
SL-42C
100
AcDbCircle
 10
8.373433079701985
 20
12.94606702873063
 30
0.0
 40
0.25
100
AcDbArc
 50
91.5000000000016
 51
179.9999999999999
  0
LINE
  5
591
330
1E
100
AcDbEntity
  8
SL-42C
100
AcDbLine
 10
8.60143307970198
 20
13.20212311697113
 30
0.0
 11
8.366888842625012
 21
13.19598135997452
 31
0.0
  0
LWPOLYLINE
  5
593
330
1E
100
AcDbEntity
  8
SL-42C
  6
HIDDEN2
 62
     4
100
AcDbPolyline
 90
        4
 70
     0
 43
0.0
 10
5.70824476655526
 20
7.865104379977704
 10
5.70824476655526
 20
7.787104379977705
 10
1.57024476655529
 20
7.787104379977705
 10
1.57024476655529
 20
7.865104379977704
  0
LWPOLYLINE
  5
594
330
1E
100
AcDbEntity
  8
OBJECT
100
AcDbPolyline
 90
        2
 70
     0
 43
0.0
 10
8.679433079701977
 20
11.77129455755943
 10
8.679433079701977
 20
11.04720533099669
  0
MTEXT
  5
595
330
1E
100
AcDbEntity
  8
0
 62
     4
100
AcDbMText
 10
-18.07313409284805
 20
17.30415855529989
 30
0.0
 40
0.125
 41
0.0
 71
     6
 72
     1
  1
\A1;
  7
Standard
 73
     1
 44
1.0
  0
DIMENSION
  5
5A3
330
1E
100
AcDbEntity
  8
0
100
AcDbDimension
  2
*D21
 10
5.764244766555279
 20
9.044898553524777
 30
0.0
 11
3.639244766555278
 21
9.044898553524777
 31
0.0
 70
    32
  1
A
 71
     5
 42
4.250000000000001
  3
Standard
100
AcDbAlignedDimension
 13
1.514244766555277
 23
10.95212311697112
 33
0.0
 14
5.764244766555279
 24
10.95212311697112
 34
0.0
100
AcDbRotatedDimension
1001
ACAD
1000
DSTYLE
1002
{
1070
    42
1040
0.125
1070
   272
1070
     3
1002
}
  0
DIMENSION
  5
5A4
330
1E
100
AcDbEntity
  8
0
100
AcDbDimension
  2
*D22
 10
7.492171864388971
 20
10.57712311697113
 30
0.0
 11
7.49217186438897
 21
11.88962311697113
 31
0.0
 70
    32
  1
B
 71
     5
 42
2.625
  3
Standard
100
AcDbAlignedDimension
 13
5.389244766555274
 23
13.20212311697113
 33
0.0
 14
5.389244766555279
 24
10.57712311697113
 34
0.0
 50
90.0
100
AcDbRotatedDimension
1001
ACAD
1000
DSTYLE
1002
{
1070
    42
1040
0.125
1070
   272
1070
     3
1002
}
  0
TEXT
  5
5B5
330
1E
100
AcDbEntity
  8
OBJECT
100
AcDbText
 10
2.065668651559157
 20
6.499393353661854
 30
0.0
 40
0.188
  1
(TYP)
 41
0.75
100
AcDbText
  0
LEADER
  5
5B6
330
1E
100
AcDbEntity
  8
0
100
AcDbLeader
  3
STANDARD$7
 73
     0
 40
0.18
 41
1.844999999999999
 76
     3
 10
4.355045895388926
 20
12.44396252081778
 30
0.0
 10
5.575756448120351
 20
13.84416576218665
 30
0.0
 10
5.801813965649103
 20
13.84416576218665
 30
0.0
340
5B7
213
0.0
223
-0.0625
233
0.0
1001
ACAD
1000
DSTYLE
1002
{
1070
    41
1040
0.125
1070
   341
1005
120
1070
   147
1040
0.09
1070
    77
1070
     0
1070
    42
1040
0.125
1070
   272
1070
     3
1002
}
  0
MTEXT
  5
5B7
102
{ACAD_REACTORS
330
5B6
102
}
330
1E
100
AcDbEntity
  8
OBJECT
100
AcDbMText
 10
5.891813965649102
 20
13.90666576218665
 30
0.0
 40
0.18
 41
0.0
 71
     1
 72
     1
  1
\A1;TEXTURED FLUSH
 73
     1
 44
1.0
  0
DIMENSION
  5
5B8
330
1E
100
AcDbEntity
  8
0
100
AcDbDimension
  2
*D23
 10
6.411795263281421
 20
11.20212311697112
 30
0.0
 11
6.411795263281419
 21
12.1427213707325
 31
0.0
 70
   160
  1
K
 71
     5
 42
1.375000000000007
  3
Standard
100
AcDbAlignedDimension
 13
5.139244766555279
 23
12.57712311697113
 33
0.0
 14
5.139244766555279
 24
11.20212311697112
 34
0.0
 50
90.0
100
AcDbRotatedDimension
1001
ACAD
1000
DSTYLE
1002
{
1070
    42
1040
0.125
1070
   272
1070
     3
1070
   288
1070
     1
1002
}
  0
DIMENSION
  5
5B9
330
1E
100
AcDbEntity
  8
0
100
AcDbDimension
  2
*D24
 10
5.139244766555279
 20
9.928489059156923
 30
0.0
 11
3.646584118811119
 21
9.928489059156923
 31
0.0
 70
   160
  1
J
 71
     5
 42
2.999999999999992
  3
Standard
100
AcDbAlignedDimension
 13
2.139244766555286
 23
11.20212311697112
 33
0.0
 14
5.139244766555279
 24
11.20212311697112
 34
0.0
100
AcDbRotatedDimension
1001
ACAD
1000
DSTYLE
1002
{
1070
    42
1040
0.125
1070
   272
1070
     3
1070
   288
1070
     1
1002
}
  0
DIMENSION
  5
5BA
330
1E
100
AcDbEntity
  8
0
100
AcDbDimension
  2
*D25
 10
5.38924476655529
 20
9.498073709315416
 30
0.0
 11
3.646584118811119
 21
9.498073709315416
 31
0.0
 70
   160
  1
E
 71
     5
 42
3.5
  3
Standard
100
AcDbAlignedDimension
 13
1.88924476655529
 23
10.95212311697113
 33
0.0
 14
5.38924476655529
 24
10.95212311697112
 34
0.0
100
AcDbRotatedDimension
1001
ACAD
1000
DSTYLE
1002
{
1070
    42
1040
0.125
1070
   272
1070
     3
1070
   288
1070
     1
1002
}
  0
DIMENSION
  5
5BB
330
1E
100
AcDbEntity
  8
0
100
AcDbDimension
  2
*D26
 10
6.917975269467591
 20
10.95212311697113
 30
0.0
 11
6.917975269467589
 21
11.88765588802541
 31
0.0
 70
   160
  1
F
 71
     5
 42
1.874999999999978
  3
Standard
100
AcDbAlignedDimension
 13
5.389244766555275
 23
12.82712311697111
 33
0.0
 14
5.389244766555275
 24
10.95212311697113
 34
0.0
 50
90.0
100
AcDbRotatedDimension
1001
ACAD
1000
DSTYLE
1002
{
1070
    42
1040
0.125
1070
   272
1070
     3
1070
   288
1070
     1
1002
}
  0
DIMENSION
  5
5BC
330
1E
100
AcDbEntity
  8
0
100
AcDbDimension
  2
*D27
 10
0.7857142025335637
 20
11.06212311697112
 30
0.0
 11
0.785714202533562
 21
11.90173203119933
 31
0.0
 70
   160
  1
G
 71
     5
 42
1.655000000000001
  3
Standard
100
AcDbAlignedDimension
 13
2.124244766555282
 23
12.71712311697112
 33
0.0
 14
2.139244766555286
 24
11.06212311697112
 34
0.0
 50
90.0
100
AcDbRotatedDimension
1001
ACAD
1000
DSTYLE
1002
{
1070
    42
1040
0.125
1070
   272
1070
     3
1070
   288
1070
     1
1002
}
  0
DIMENSION
  5
5BD
330
1E
100
AcDbEntity
  8
0
100
AcDbDimension
  2
*D28
 10
5.279244766555279
 20
14.13437112112842
 30
0.0
 11
3.588920895835912
 21
14.13437112112842
 31
0.0
 70
   160
  1
H
 71
     5
 42
3.279999999999997
  3
Standard
100
AcDbAlignedDimension
 13
1.999244766555282
 23
12.59212311697113
 33
0.0
 14
5.279244766555279
 24
12.59212311697113
 34
0.0
100
AcDbRotatedDimension
1001
ACAD
1000
DSTYLE
1002
{
1070
    42
1040
0.125
1070
   272
1070
     3
1070
   288
1070
     1
1002
}
  0
DIMENSION
  5
5C5
330
1E
100
AcDbEntity
  8
0
100
AcDbDimension
  2
*D29
 10
2.303044906399751
 20
7.193104379977706
 30
0.0
 11
1.98804490639975
 21
6.833104379977706
 31
0.0
 70
   160
  1
L
 71
     5
 42
0.25
  3
Standard
100
AcDbAlignedDimension
 13
2.045244766555271
 23
7.443104379977706
 33
0.0
 14
2.040881000323224
 24
7.193104379977706
 34
0.0
 50
90.0
100
AcDbRotatedDimension
1001
ACAD
1000
DSTYLE
1002
{
1070
    42
1040
0.125
1070
   272
1070
     3
1070
   288
1070
     1
1002
}
  0
MTEXT
  5
5C6
330
1E
100
AcDbEntity
  8
TEXT
100
AcDbMText
 10
1.665904532139149
 20
5.929599541951821
 30
0.0
 40
0.156
 41
0.0
 71
     1
 72
     5
  1
MATERIAL:  ABS THERMOPLASTIC  (UL94-5VA RATED)\P\PFINISH:  BODY & COVER TEXTURED (OUTSIDE SURFACE)\P\PCOLOR:  BLACK
  7
Standard
 73
     1
 44
1.0
  0
DIMENSION
  5
79F
330
1E
100
AcDbEntity
  8
0
100
AcDbDimension
  2
*D30
 10
6.387784665518823
 20
7.093104379977703
 30
0.0
 11
6.387784665518822
 21
7.502316347944674
 31
0.0
 70
   160
  1
D
 71
     5
 42
0.7540000000000014
  3
Standard
100
AcDbAlignedDimension
 13
5.764244766555282
 23
7.847104379977706
 33
0.0
 14
5.500961363961694
 24
7.093104379977704
 34
0.0
 50
90.0
100
AcDbRotatedDimension
1001
ACAD
1000
DSTYLE
1002
{
1070
   279
1070
     0
1070
   172
1070
     0
1002
}
  0
LINE
  5
813
102
{ACAD_REACTORS
330
853
102
}
330
1E
100
AcDbEntity
  8
0
100
AcDbLine
 10
8.123433079701982
 20
11.78774229235339
 30
0.0
 11
8.203765471474923
 21
11.70372888741811
 31
0.0
  0
LINE
  5
814
102
{ACAD_REACTORS
330
853
102
}
330
1E
100
AcDbEntity
  8
0
100
AcDbLine
 10
8.203765471474923
 20
11.70372888741811
 30
0.0
 11
8.554159672864642
 21
11.84375122897691
 31
0.0
  0
LINE
  5
815
330
1E
100
AcDbEntity
  8
0
100
AcDbLine
 10
8.554159672864642
 20
11.84375122897691
 30
0.0
 11
8.820459282810517
 21
11.68972665326223
 31
0.0
  0
LINE
  5
816
330
1E
100
AcDbEntity
  8
0
100
AcDbLine
 10
8.820459282810517
 20
11.68972665326223
 30
0.0
 11
9.191877202434895
 21
11.84375122897691
 31
0.0
  0
LINE
  5
817
102
{ACAD_REACTORS
330
87D
102
}
330
1E
100
AcDbEntity
  8
0
100
AcDbLine
 10
9.191877202434895
 20
11.84375122897691
 30
0.0
 11
9.373433079701985
 21
11.79474342786789
 31
0.0
  0
LWPOLYLINE
  5
819
102
{ACAD_REACTORS
330
853
330
87D
102
}
330
1E
100
AcDbEntity
  8
OBJECT
100
AcDbPolyline
 90
        3
 70
     0
 43
0.0
 10
8.679433079701977
 20
10.85704090294558
 10
8.679433079701977
 20
10.63312311697114
 10
8.601433079701982
 20
10.63312311697114
  0
HATCH
  5
853
330
1E
100
AcDbEntity
  8
0
100
AcDbHatch
 10
0.0
 20
0.0
 30
0.0
210
0.0
220
0.0
230
1.0
  2
ANSI31
 70
     0
 71
     1
 91
        3
 92
        7
 72
     0
 73
     1
 93
        6
 10
8.233433079701978
 20
11.71558447165988
 10
8.203765471474921
 20
11.70372888741811
 10
8.133433079701978
 20
11.77728406957662
 10
8.133433079701978
 20
11.07131375803894
 10
8.13401449833981
 20
11.07080833852795
 10
8.233433079701979
 20
11.06820497135386
 97
        5
330
814
330
813
330
577
330
57B
330
579
 92
        7
 72
     0
 73
     1
 93
        4
 10
8.233433079701976
 20
11.06820497135386
 10
8.134014498339812
 20
11.07080833852795
 10
8.134014498339812
 20
10.83343789541431
 10
8.233433079701978
 20
10.8360412625884
 97
        4
330
57B
330
581
330
57E
330
579
 92
        7
 72
     1
 73
     1
 93
       10
 10
8.366888842625005
 20
10.58326487396774
 42
0.0
 10
8.60143307970198
 20
10.57712311697112
 42
0.0
 10
8.601433079701982
 20
10.63312311697114
 42
0.0
 10
8.679433079701977
 20
10.63312311697114
 42
0.0
 10
8.679433079701977
 20
10.67576162190673
 42
0.0
 10
8.356251528897315
 20
10.68140277685963
 42
-0.4091108014277055
 10
8.233433079701978
 20
10.80638373875418
 42
0.0
 10
8.233433079701978
 20
10.8360412625884
 42
0.0
 10
8.134014498339819
 20
10.83343789541431
 42
0.0
 10
8.123588175888917
 20
10.82437443158352
 42
0.3963403170531524
 97
        8
330
579
330
57E
330
57D
330
586
330
57A
330
819
330
585
330
57C
 75
     0
 76
     1
 52
0.0
 41
1.0
 77
     0
 78
     1
 53
45.0
 43
0.0
 44
1.157560956151449
 45
-0.0883883476483184
 46
0.0883883476483185
 79
     0
 47
0.0035005587446516
 98
        3
 10
8.196757588854609
 20
11.39567969911565
 10
8.18974970623428
 20
11.01061824139238
 10
8.203765471474923
 20
10.70957018860442
  0
LINE
  5
86E
102
{ACAD_REACTORS
330
87D
102
}
330
1E
100
AcDbEntity
  8
0
100
AcDbLine
 10
8.679433079701977
 20
10.63312311697114
 30
0.0
 11
8.679433079701977
 21
10.63112311697112
 31
0.0
  0
HATCH
  5
87D
330
1E
100
AcDbEntity
  8
0
100
AcDbHatch
 10
0.0
 20
0.0
 30
0.0
210
0.0
220
0.0
230
1.0
  2
ANSI31
 70
     0
 71
     1
 91
        1
 92
        7
 72
     1
 73
     1
 93
       11
 10
9.373433079701984
 20
11.79474342786789
 42
0.0
 10
9.273433079701987
 20
11.82173666094122
 42
0.0
 10
9.273433079701984
 20
10.81601831854258
 42
-0.4065662586440599
 10
9.151705198240467
 20
10.69106115292063
 42
0.0
 10
8.679433079701977
 20
10.67869427226527
 42
0.0
 10
8.679433079701977
 20
10.63312311697114
 42
0.0
 10
8.679433079701977
 20
10.63112311697112
 42
0.0
 10
8.619433079701979
 20
10.63112311697112
 42
0.0
 10
8.61943307970198
 20
10.57712311697112
 42
0.0
 10
9.129977316778955
 20
10.59049218832082
 42
0.4065662586440525
 10
9.373433079701985
 20
10.84040651956471
 42
0.0
 97
       11
330
817
330
4ED
330
4F2
330
4F6
330
819
330
86E
330
4F4
330
4EB
330
4F3
330
4F1
330
4EC
 75
     0
 76
     1
 52
90.0
 41
1.0
 77
     0
 78
     1
 53
135.0
 43
0.0
 44
1.157560956151449
 45
-0.0883883476483185
 46
-0.0883883476483184
 79
     0
 47
0.0035005587446516
 98
        1
 10
9.342546713958626
 20
11.30466519553898
  0
LINE
  5
880
330
1E
100
AcDbEntity
  8
0
100
AcDbLine
 10
8.60143307970198
 20
13.20212311697113
 30
0.0
 11
8.60143307970198
 21
11.81640884408875
 31
0.0
  0
LINE
  5
881
330
1E
100
AcDbEntity
  8
0
100
AcDbLine
 10
8.61943307970198
 20
13.20212311697113
 30
0.0
 11
8.61943307970198
 21
11.80599785488967
 31
0.0
  0
LINE
  5
884
330
1E
100
AcDbEntity
  8
OBJECT
100
AcDbLine
 10
8.61943307970198
 20
13.14612311697111
 30
0.0
 11
8.601433079701982
 21
13.14612311697111
 31
0.0
  0
MTEXT
  5
8F5
330
1E
100
AcDbEntity
  8
TEXT
100
AcDbMText
 10
1.650506594145523
 20
4.382947151615743
 30
0.0
 40
0.156
 41
0.0
 71
     1
 72
     5
  1
FOUR(4) #4 X 0.50 LG SCREWS USED FOR ASSEMBLY (INCLUDED)\P\PMOUNTING BOSSES ARE %%c0.188 AND WILL ACCEPT \P#4 X 0.25 LG SHEET METAL SCREWS (NOT INCLUDED).\P\PNOTE:  ALL DIMENSIONS HAVE ±0.010 TOLERANCE\P      UNLESS OTHERWISE SPECIFIED.
  7
Standard
 73
     1
 44
1.0
  0
LINE
  5
8F7
330
1E
100
AcDbEntity
  8
TEXT
100
AcDbLine
 10
1.662734708652749
 20
5.732625117198342
 30
0.0
 11
2.863314960610622
 21
5.732625117198342
 31
0.0
  0
LINE
  5
8F8
330
1E
100
AcDbEntity
  8
TEXT
100
AcDbLine
 10
1.662734708652749
 20
5.20544117268945
 30
0.0
 11
2.497344738855545
 21
5.20544117268945
 31
0.0
  0
LINE
  5
8F9
330
1E
100
AcDbEntity
  8
TEXT
100
AcDbLine
 10
1.664886525032187
 20
4.683893726524271
 30
0.0
 11
2.445396498036302
 21
4.683893726524271
 31
0.0
  0
LINE
  5
8FA
330
1E
100
AcDbEntity
  8
TEXT
100
AcDbLine
 10
1.650253619443986
 20
2.879962631458798
 30
0.0
 11
2.27608714365084
 21
2.879962631458798
 31
0.0
  0
DIMENSION
  5
91E
330
1E
100
AcDbEntity
  8
0
100
AcDbDimension
  2
*D31
 10
9.273433079701984
 20
10.1620326893583
 30
0.0
 11
8.553433079701983
 21
10.1620326893583
 31
0.0
 70
   160
  1
M
 71
     5
 42
0.1000000000000014
  3
Standard
100
AcDbAlignedDimension
 13
9.373433079701985
 23
10.84040651956471
 33
0.0
 14
9.273433079701984
 24
10.81601831854258
 34
0.0
100
AcDbRotatedDimension
1001
ACAD
1000
DSTYLE
1002
{
1070
   271
1070
     3
1002
}
  0
LINE
  5
98D
330
1E
100
AcDbEntity
  8
TITLE
100
AcDbLine
 10
10.538
 20
0.9979999999999993
 30
0.0
 11
0.0619999999999978
 21
0.9980000000000011
 31
0.0
  0
LINE
  5
98E
330
1E
100
AcDbEntity
  8
TITLE
100
AcDbLine
 10
10.538
 20
1.309999999999999
 30
0.0
 11
0.0619999999999978
 21
1.310000000000001
 31
0.0
  0
LINE
  5
98F
330
1E
100
AcDbEntity
  8
TITLE
100
AcDbLine
 10
10.538
 20
1.621999999999999
 30
0.0
 11
0.0619999999999979
 21
1.622000000000001
 31
0.0
  0
LINE
  5
990
330
1E
100
AcDbEntity
  8
TITLE
100
AcDbLine
 10
10.538
 20
1.933999999999999
 30
0.0
 11
0.061999999999998
 21
1.934000000000001
 31
0.0
  0
TEXT
  5
9A4
330
1E
100
AcDbEntity
  8
TEXT
100
AcDbText
 10
5.264054118697674
 20
1.366619911871244
 30
0.0
 40
0.188
  1
1.875
 41
0.75
100
AcDbText
  0
TEXT
  5
9A5
330
1E
100
AcDbEntity
  8
TEXT
100
AcDbText
 10
0.193433043444486
 20
1.366619911871245
 30
0.0
 40
0.188
  1
PT-11642
 41
0.75
100
AcDbText
  0
TEXT
  5
9A6
330
1E
100
AcDbEntity
  8
TEXT
100
AcDbText
 10
1.419054118697673
 20
1.366619911871245
 30
0.0
 40
0.188
  1
4.250
 41
0.75
100
AcDbText
  0
TEXT
  5
9A7
330
1E
100
AcDbEntity
  8
TEXT
100
AcDbText
 10
2.188054118697673
 20
1.366619911871245
 30
0.0
 40
0.188
  1
2.625
 41
0.75
100
AcDbText
  0
TEXT
  5
9A8
330
1E
100
AcDbEntity
  8
TEXT
100
AcDbText
 10
2.957054118697673
 20
1.366619911871245
 30
0.0
 40
0.188
  1
1.250
 41
0.75
100
AcDbText
  0
TEXT
  5
9A9
330
1E
100
AcDbEntity
  8
TEXT
100
AcDbText
 10
3.726054118697674
 20
1.366619911871245
 30
0.0
 40
0.188
  1
0.754
 41
0.75
100
AcDbText
  0
TEXT
  5
9AA
330
1E
100
AcDbEntity
  8
TEXT
100
AcDbText
 10
4.495054118697673
 20
1.366619911871245
 30
0.0
 40
0.188
  1
3.500
 41
0.75
100
AcDbText
  0
TEXT
  5
9AB
330
1E
100
AcDbEntity
  8
TEXT
100
AcDbText
 10
8.340054118697674
 20
1.366619911871244
 30
0.0
 40
0.188
  1
1.375
 41
0.75
100
AcDbText
  0
TEXT
  5
9AC
330
1E
100
AcDbEntity
  8
TEXT
100
AcDbText
 10
6.802054118697673
 20
1.366619911871244
 30
0.0
 40
0.188
  1
3.280
 41
0.75
100
AcDbText
  0
TEXT
  5
9AD
330
1E
100
AcDbEntity
  8
TEXT
100
AcDbText
 10
6.033054118697673
 20
1.366619911871244
 30
0.0
 40
0.188
  1
1.655
 41
0.75
100
AcDbText
  0
TEXT
  5
9AE
330
1E
100
AcDbEntity
  8
TEXT
100
AcDbText
 10
7.571054118697674
 20
1.366619911871244
 30
0.0
 40
0.188
  1
3.000
 41
0.75
100
AcDbText
  0
TEXT
  5
9AF
330
1E
100
AcDbEntity
  8
TEXT
100
AcDbText
 10
9.878054118697674
 20
1.366619911871244
 30
0.0
 40
0.188
  1
0.100
 41
0.75
100
AcDbText
  0
TEXT
  5
9B0
330
1E
100
AcDbEntity
  8
TEXT
100
AcDbText
 10
9.109054118697674
 20
1.366619911871244
 30
0.0
 40
0.188
  1
0.250
 41
0.75
100
AcDbText
  0
TEXT
  5
9C2
330
1E
100
AcDbEntity
  8
TEXT
100
AcDbText
 10
5.264054118697674
 20
1.678619911871245
 30
0.0
 40
0.188
  1
1.414
 41
0.75
100
AcDbText
  0
TEXT
  5
9C3
330
1E
100
AcDbEntity
  8
TEXT
100
AcDbText
 10
0.1934330434444861
 20
1.678619911871245
 30
0.0
 40
0.188
  1
PT-11630
 41
0.75
100
AcDbText
  0
TEXT
  5
9C4
330
1E
100
AcDbEntity
  8
TEXT
100
AcDbText
 10
1.419054118697673
 20
1.678619911871245
 30
0.0
 40
0.188
  1
4.000
 41
0.75
100
AcDbText
  0
TEXT
  5
9C5
330
1E
100
AcDbEntity
  8
TEXT
100
AcDbText
 10
2.188054118697673
 20
1.678619911871245
 30
0.0
 40
0.188
  1
2.062
 41
0.75
100
AcDbText
  0
TEXT
  5
9C6
330
1E
100
AcDbEntity
  8
TEXT
100
AcDbText
 10
2.957054118697673
 20
1.678619911871245
 30
0.0
 40
0.188
  1
1.140
 41
0.75
100
AcDbText
  0
TEXT
  5
9C7
330
1E
100
AcDbEntity
  8
TEXT
100
AcDbText
 10
3.726054118697674
 20
1.678619911871245
 30
0.0
 40
0.188
  1
0.754
 41
0.75
100
AcDbText
  0
TEXT
  5
9C8
330
1E
100
AcDbEntity
  8
TEXT
100
AcDbText
 10
4.495054118697673
 20
1.678619911871245
 30
0.0
 40
0.188
  1
3.375
 41
0.75
100
AcDbText
  0
TEXT
  5
9C9
330
1E
100
AcDbEntity
  8
TEXT
100
AcDbText
 10
8.340054118697674
 20
1.678619911871244
 30
0.0
 40
0.188
  1
0.971
 41
0.75
100
AcDbText
  0
TEXT
  5
9CA
330
1E
100
AcDbEntity
  8
TEXT
100
AcDbText
 10
6.802054118697673
 20
1.678619911871244
 30
0.0
 40
0.188
  1
3.156
 41
0.75
100
AcDbText
  0
TEXT
  5
9CB
330
1E
100
AcDbEntity
  8
TEXT
100
AcDbText
 10
6.033054118697673
 20
1.678619911871245
 30
0.0
 40
0.188
  1
1.188
 41
0.75
100
AcDbText
  0
TEXT
  5
9CC
330
1E
100
AcDbEntity
  8
TEXT
100
AcDbText
 10
7.571054118697674
 20
1.678619911871244
 30
0.0
 40
0.188
  1
2.938
 41
0.75
100
AcDbText
  0
TEXT
  5
9CD
330
1E
100
AcDbEntity
  8
TEXT
100
AcDbText
 10
9.878054118697674
 20
1.678619911871244
 30
0.0
 40
0.188
  1
0.100
 41
0.75
100
AcDbText
  0
TEXT
  5
9CE
330
1E
100
AcDbEntity
  8
TEXT
100
AcDbText
 10
9.109054118697674
 20
1.678619911871244
 30
0.0
 40
0.188
  1
0.250
 41
0.75
100
AcDbText
  0
TEXT
  5
9E1
330
1E
100
AcDbEntity
  8
TEXT
100
AcDbText
 10
5.264054118697674
 20
1.054619911871244
 30
0.0
 40
0.188
  1
2.500
 41
0.75
100
AcDbText
  0
TEXT
  5
9E2
330
1E
100
AcDbEntity
  8
TEXT
100
AcDbText
 10
0.193433043444486
 20
1.054619911871245
 30
0.0
 40
0.188
  1
PT-11653
 41
0.75
100
AcDbText
  0
TEXT
  5
9E3
330
1E
100
AcDbEntity
  8
TEXT
100
AcDbText
 10
1.419054118697673
 20
1.054619911871245
 30
0.0
 40
0.188
  1
5.625
 41
0.75
100
AcDbText
  0
TEXT
  5
9E4
330
1E
100
AcDbEntity
  8
TEXT
100
AcDbText
 10
2.957054118697673
 20
1.054619911871245
 30
0.0
 40
0.188
  1
1.140
 41
0.75
100
AcDbText
  0
TEXT
  5
9E5
330
1E
100
AcDbEntity
  8
TEXT
100
AcDbText
 10
2.188054118697673
 20
1.054619911871245
 30
0.0
 40
0.188
  1
3.250
 41
0.75
100
AcDbText
  0
TEXT
  5
9E6
330
1E
100
AcDbEntity
  8
TEXT
100
AcDbText
 10
4.495054118697673
 20
1.054619911871244
 30
0.0
 40
0.188
  1
4.875
 41
0.75
100
AcDbText
  0
TEXT
  5
9E7
330
1E
100
AcDbEntity
  8
TEXT
100
AcDbText
 10
3.726054118697674
 20
1.054619911871245
 30
0.0
 40
0.188
  1
0.754
 41
0.75
100
AcDbText
  0
TEXT
  5
9E8
330
1E
100
AcDbEntity
  8
TEXT
100
AcDbText
 10
8.340054118697674
 20
1.054619911871244
 30
0.0
 40
0.188
  1
2.000
 41
0.75
100
AcDbText
  0
TEXT
  5
9E9
330
1E
100
AcDbEntity
  8
TEXT
100
AcDbText
 10
6.802054118697673
 20
1.054619911871244
 30
0.0
 40
0.188
  1
4.655
 41
0.75
100
AcDbText
  0
TEXT
  5
9EA
330
1E
100
AcDbEntity
  8
TEXT
100
AcDbText
 10
6.033054118697673
 20
1.054619911871244
 30
0.0
 40
0.188
  1
2.280
 41
0.75
100
AcDbText
  0
TEXT
  5
9EB
330
1E
100
AcDbEntity
  8
TEXT
100
AcDbText
 10
7.571054118697674
 20
1.054619911871244
 30
0.0
 40
0.188
  1
4.375
 41
0.75
100
AcDbText
  0
TEXT
  5
9EC
330
1E
100
AcDbEntity
  8
TEXT
100
AcDbText
 10
9.878054118697674
 20
1.054619911871244
 30
0.0
 40
0.188
  1
0.100
 41
0.75
100
AcDbText
  0
TEXT
  5
9ED
330
1E
100
AcDbEntity
  8
TEXT
100
AcDbText
 10
9.109054118697674
 20
1.054619911871244
 30
0.0
 40
0.188
  1
0.250
 41
0.75
100
AcDbText
  0
TEXT
  5
A13
330
1E
100
AcDbEntity
  8
TEXT
100
AcDbText
 10
5.264054118697674
 20
0.430619911871245
 30
0.0
 40
0.188
  1
3.260
 41
0.75
100
AcDbText
  0
TEXT
  5
A14
330
1E
100
AcDbEntity
  8
TEXT
100
AcDbText
 10
0.1934330434444859
 20
0.4306199118712458
 30
0.0
 40
0.188
  1
PT-11664
 41
0.75
100
AcDbText
  0
TEXT
  5
A15
330
1E
100
AcDbEntity
  8
TEXT
100
AcDbText
 10
1.419054118697673
 20
0.4306199118712457
 30
0.0
 40
0.188
  1
6.016
 41
0.75
100
AcDbText
  0
TEXT
  5
A16
330
1E
100
AcDbEntity
  8
TEXT
100
AcDbText
 10
2.188054118697673
 20
0.4306199118712456
 30
0.0
 40
0.188
  1
4.010
 41
0.75
100
AcDbText
  0
TEXT
  5
A17
330
1E
100
AcDbEntity
  8
TEXT
100
AcDbText
 10
2.957054118697673
 20
0.4306199118712455
 30
0.0
 40
0.188
  1
1.140
 41
0.75
100
AcDbText
  0
TEXT
  5
A18
330
1E
100
AcDbEntity
  8
TEXT
100
AcDbText
 10
3.726054118697674
 20
0.4306199118712454
 30
0.0
 40
0.188
  1
0.754
 41
0.75
100
AcDbText
  0
TEXT
  5
A19
330
1E
100
AcDbEntity
  8
TEXT
100
AcDbText
 10
4.495054118697673
 20
0.4306199118712451
 30
0.0
 40
0.188
  1
5.265
 41
0.75
100
AcDbText
  0
TEXT
  5
A1A
330
1E
100
AcDbEntity
  8
TEXT
100
AcDbText
 10
8.340054118697674
 20
0.4306199118712446
 30
0.0
 40
0.188
  1
2.755
 41
0.75
100
AcDbText
  0
TEXT
  5
A1B
330
1E
100
AcDbEntity
  8
TEXT
100
AcDbText
 10
6.802054118697673
 20
0.4306199118712448
 30
0.0
 40
0.188
  1
5.040
 41
0.75
100
AcDbText
  0
TEXT
  5
A1C
330
1E
100
AcDbEntity
  8
TEXT
100
AcDbText
 10
6.033054118697673
 20
0.4306199118712449
 30
0.0
 40
0.188
  1
3.040
 41
0.75
100
AcDbText
  0
TEXT
  5
A1D
330
1E
100
AcDbEntity
  8
TEXT
100
AcDbText
 10
7.571054118697674
 20
0.4306199118712447
 30
0.0
 40
0.188
  1
4.760
 41
0.75
100
AcDbText
  0
TEXT
  5
A1E
330
1E
100
AcDbEntity
  8
TEXT
100
AcDbText
 10
9.878054118697674
 20
0.4306199118712442
 30
0.0
 40
0.188
  1
0.100
 41
0.75
100
AcDbText
  0
TEXT
  5
A1F
330
1E
100
AcDbEntity
  8
TEXT
100
AcDbText
 10
9.109054118697674
 20
0.4306199118712443
 30
0.0
 40
0.188
  1
0.250
 41
0.75
100
AcDbText
  0
ENDSEC
  0
SECTION
  2
OBJECTS
  0
DICTIONARY
  5
C
330
0
100
AcDbDictionary
281
     1
  3
ACAD_GROUP
350
D
  3
ACAD_LAYOUT
350
19
  3
ACAD_MLINESTYLE
350
16
  3
ACAD_PLOTSETTINGS
350
18
  3
ACAD_PLOTSTYLENAME
350
E
  3
AcDbVariableDictionary
350
81A
  3
DWGPROPS
350
97C
  0
DICTIONARY
  5
D
102
{ACAD_REACTORS
330
C
102
}
330
C
100
AcDbDictionary
281
     1
  0
DICTIONARY
  5
19
102
{ACAD_REACTORS
330
C
102
}
330
C
100
AcDbDictionary
281
     1
  3
Layout1
350
1D
  3
Model
350
21
  0
DICTIONARY
  5
16
102
{ACAD_REACTORS
330
C
102
}
330
C
100
AcDbDictionary
281
     1
  3
Standard
350
17
  0
DICTIONARY
  5
18
102
{ACAD_REACTORS
330
C
102
}
330
C
100
AcDbDictionary
281
     1
  0
ACDBDICTIONARYWDFLT
  5
E
102
{ACAD_REACTORS
330
C
102
}
330
C
100
AcDbDictionary
281
     1
  3
Normal
350
F
  3
Style 1
350
232
100
AcDbDictionaryWithDefault
340
F
  0
DICTIONARY
  5
81A
102
{ACAD_REACTORS
330
C
102
}
330
C
100
AcDbDictionary
281
     1
  3
SORTENTS
350
81B
  0
XRECORD
  5
97C
102
{ACAD_REACTORS
330
C
102
}
330
C
100
AcDbXrecord
280
     1
  1
DWGPROPS COOKIE
  2

  3

  4

  6

  7

  8
Administrator
  9

300
=
301
=
302
=
303
=
304
=
305
=
306
=
307
=
308
=
309
=
 40
0.135320162037037
 41
2448653.603547453
 42
2452138.469044224
  1

 90
        0
  0
LAYOUT
  5
1D
102
{ACAD_REACTORS
330
19
102
}
330
19
100
AcDbPlotSettings
  1

  2
\\HOST\HP6L
  4

  6

 40
0.0
 41
0.0
 42
0.0
 43
0.0
 44
0.0
 45
0.0
 46
0.0
 47
0.0
 48
0.0
 49
0.0
140
0.0
141
0.0
142
1.0
143
1.0
 70
   688
 72
     0
 73
     0
 74
     5
  7
monochrome.ctb
 75
    16
147
1.0
148
0.0
149
0.0
100
AcDbLayout
  1
Layout1
 70
     0
 71
     1
 10
0.0
 20
0.0
 11
12.0
 21
9.0
 12
0.0
 22
0.0
 32
0.0
 14
1.000000000000000E+20
 24
1.000000000000000E+20
 34
1.000000000000000E+20
 15
-1.000000000000000E+20
 25
-1.000000000000000E+20
 35
-1.000000000000000E+20
146
0.0
 13
0.0
 23
0.0
 33
0.0
 16
1.0
 26
0.0
 36
0.0
 17
0.0
 27
1.0
 37
0.0
 76
     0
330
1A
  0
LAYOUT
  5
21
102
{ACAD_REACTORS
330
19
102
}
330
19
100
AcDbPlotSettings
  1

  2
\\HOST\HP LaserJet 6L (PCL)
  4
Letter
  6

 40
6.349999904632568
 41
4.233341693878173
 42
6.349990844726562
 43
4.23333740234375
 44
215.8999938964843
 45
279.3999938964843
 46
9.906
 47
0.0
 48
0.0
 49
-0.0000000000000018
140
10.6
141
15.66
142
1.0
143
1.468225321383155
 70
 11956
 72
     0
 73
     0
 74
     1
  7
monochrome.ctb
 75
     0
147
0.6810943698055424
148
0.0119505504264183
149
0.018080145696397
100
AcDbLayout
  1
Model
 70
     1
 71
     0
 10
0.0
 20
0.0
 11
12.0
 21
9.0
 12
0.0
 22
0.0
 32
0.0
 14
0.0
 24
0.0
 34
0.0
 15
0.0
 25
0.0
 35
0.0
146
0.0
 13
0.0
 23
0.0
 33
0.0
 16
1.0
 26
0.0
 36
0.0
 17
0.0
 27
1.0
 37
0.0
 76
     0
330
1E
  0
MLINESTYLE
  5
17
102
{ACAD_REACTORS
330
16
102
}
330
16
100
AcDbMlineStyle
  2
STANDARD
 70
     0
  3

 62
   256
 51
90.0
 52
90.0
 71
     2
 49
0.5
 62
   256
  6
BYLAYER
 49
-0.5
 62
   256
  6
BYLAYER
  0
ACDBPLACEHOLDER
  5
F
102
{ACAD_REACTORS
330
E
102
}
330
E
  0
ACDBPLACEHOLDER
  5
232
102
{ACAD_REACTORS
330
E
102
}
330
E
  0
DICTIONARYVAR
  5
81B
102
{ACAD_REACTORS
330
81A
102
}
330
81A
100
DictionaryVariables
280
     0
  1
96
  0
ENDSEC
  0
EOF
