  0
SECTION
  2
HEADER
  9
$ACADVER
  1
AC1015
  9
$ACADMAINTVER
 70
     6
  9
$DWGCODEPAGE
  3
ANSI_1252
  9
$INSBASE
 10
0.0
 20
0.0
 30
0.0
  9
$EXTMIN
 10
-0.0013505079570422
 20
-0.0007206885316933
 30
-0.0000000100021362
  9
$EXTMAX
 10
29.56352424134355
 20
21.48464361711575
 30
0.0000000100021363
  9
$LIMMIN
 10
0.0
 20
0.0
  9
$LIMMAX
 10
44.25682121267861
 20
23.61732363800011
  9
$ORTHOMODE
 70
     0
  9
$REGENMODE
 70
     1
  9
$FILLMODE
 70
     1
  9
$QTEXTMODE
 70
     0
  9
$MIRRTEXT
 70
     0
  9
$LTSCALE
 40
0.75
  9
$ATTMODE
 70
     1
  9
$TEXTSIZE
 40
0.125
  9
$TRACEWID
 40
0.05
  9
$TEXTSTYLE
  7
TXT
  9
$CLAYER
  8
0
  9
$CELTYPE
  6
ByLayer
  9
$CECOLOR
 62
   256
  9
$CELTSCALE
 40
1.0
  9
$DISPSILH
 70
     0
  9
$DIMSCALE
 40
1.375
  9
$DIMASZ
 40
0.18
  9
$DIMEXO
 40
0.0625
  9
$DIMDLI
 40
0.38
  9
$DIMRND
 40
0.0
  9
$DIMDLE
 40
0.0
  9
$DIMEXE
 40
0.1
  9
$DIMTP
 40
0.0
  9
$DIMTM
 40
0.0
  9
$DIMTXT
 40
0.125
  9
$DIMCEN
 40
0.03
  9
$DIMTSZ
 40
0.0
  9
$DIMTOL
 70
     0
  9
$DIMLIM
 70
     0
  9
$DIMTIH
 70
     1
  9
$DIMTOH
 70
     1
  9
$DIMSE1
 70
     0
  9
$DIMSE2
 70
     0
  9
$DIMTAD
 70
     0
  9
$DIMZIN
 70
     0
  9
$DIMBLK
  1

  9
$DIMASO
 70
     1
  9
$DIMSHO
 70
     1
  9
$DIMPOST
  1

  9
$DIMAPOST
  1

  9
$DIMALT
 70
     0
  9
$DIMALTD
 70
     2
  9
$DIMALTF
 40
25.4
  9
$DIMLFAC
 40
1.0
  9
$DIMTOFL
 70
     0
  9
$DIMTVP
 40
0.0
  9
$DIMTIX
 70
     0
  9
$DIMSOXD
 70
     0
  9
$DIMSAH
 70
     0
  9
$DIMBLK1
  1

  9
$DIMBLK2
  1

  9
$DIMSTYLE
  2
STANDARD
  9
$DIMCLRD
 70
     1
  9
$DIMCLRE
 70
     1
  9
$DIMCLRT
 70
     4
  9
$DIMTFAC
 40
1.0
  9
$DIMGAP
 40
0.09
  9
$DIMJUST
 70
     0
  9
$DIMSD1
 70
     0
  9
$DIMSD2
 70
     0
  9
$DIMTOLJ
 70
     1
  9
$DIMTZIN
 70
     0
  9
$DIMALTZ
 70
     0
  9
$DIMALTTZ
 70
     0
  9
$DIMUPT
 70
     0
  9
$DIMDEC
 70
     3
  9
$DIMTDEC
 70
     3
  9
$DIMALTU
 70
     2
  9
$DIMALTTD
 70
     2
  9
$DIMTXSTY
  7
STANDARD
  9
$DIMAUNIT
 70
     1
  9
$DIMADEC
 70
     0
  9
$DIMALTRND
 40
0.0
  9
$DIMAZIN
 70
     0
  9
$DIMDSEP
 70
    46
  9
$DIMATFIT
 70
     3
  9
$DIMFRAC
 70
     0
  9
$DIMLDRBLK
  1

  9
$DIMLUNIT
 70
     2
  9
$DIMLWD
 70
    -2
  9
$DIMLWE
 70
    -2
  9
$DIMTMOVE
 70
     0
  9
$LUNITS
 70
     2
  9
$LUPREC
 70
     3
  9
$SKETCHINC
 40
0.1
  9
$FILLETRAD
 40
0.0
  9
$AUNITS
 70
     0
  9
$AUPREC
 70
     0
  9
$MENU
  1
acad
  9
$ELEVATION
 40
0.0
  9
$PELEVATION
 40
0.0
  9
$THICKNESS
 40
0.0
  9
$LIMCHECK
 70
     0
  9
$CHAMFERA
 40
0.0
  9
$CHAMFERB
 40
0.0
  9
$CHAMFERC
 40
0.0
  9
$CHAMFERD
 40
0.0
  9
$SKPOLY
 70
     0
  9
$TDCREATE
 40
2454246.624156713
  9
$TDUCREATE
 40
2454246.790823379
  9
$TDUPDATE
 40
2454256.334086516
  9
$TDUUPDATE
 40
2454256.500753183
  9
$TDINDWG
 40
0.0599759491
  9
$TDUSRTIMER
 40
0.0599759491
  9
$USRTIMER
 70
     1
  9
$ANGBASE
 50
0.0
  9
$ANGDIR
 70
     0
  9
$PDMODE
 70
     0
  9
$PDSIZE
 40
0.0
  9
$PLINEWID
 40
0.0
  9
$SPLFRAME
 70
     0
  9
$SPLINETYPE
 70
     6
  9
$SPLINESEGS
 70
     8
  9
$HANDSEED
  5
1E75
  9
$SURFTAB1
 70
     6
  9
$SURFTAB2
 70
     6
  9
$SURFTYPE
 70
     6
  9
$SURFU
 70
     6
  9
$SURFV
 70
     6
  9
$UCSBASE
  2

  9
$UCSNAME
  2

  9
$UCSORG
 10
0.0
 20
0.0
 30
0.0
  9
$UCSXDIR
 10
1.0
 20
0.0
 30
0.0
  9
$UCSYDIR
 10
0.0
 20
1.0
 30
0.0
  9
$UCSORTHOREF
  2

  9
$UCSORTHOVIEW
 70
     0
  9
$UCSORGTOP
 10
0.0
 20
0.0
 30
0.0
  9
$UCSORGBOTTOM
 10
0.0
 20
0.0
 30
0.0
  9
$UCSORGLEFT
 10
0.0
 20
0.0
 30
0.0
  9
$UCSORGRIGHT
 10
0.0
 20
0.0
 30
0.0
  9
$UCSORGFRONT
 10
0.0
 20
0.0
 30
0.0
  9
$UCSORGBACK
 10
0.0
 20
0.0
 30
0.0
  9
$PUCSBASE
  2

  9
$PUCSNAME
  2

  9
$PUCSORG
 10
0.0
 20
0.0
 30
0.0
  9
$PUCSXDIR
 10
1.0
 20
0.0
 30
0.0
  9
$PUCSYDIR
 10
0.0
 20
1.0
 30
0.0
  9
$PUCSORTHOREF
  2

  9
$PUCSORTHOVIEW
 70
     0
  9
$PUCSORGTOP
 10
0.0
 20
0.0
 30
0.0
  9
$PUCSORGBOTTOM
 10
0.0
 20
0.0
 30
0.0
  9
$PUCSORGLEFT
 10
0.0
 20
0.0
 30
0.0
  9
$PUCSORGRIGHT
 10
0.0
 20
0.0
 30
0.0
  9
$PUCSORGFRONT
 10
0.0
 20
0.0
 30
0.0
  9
$PUCSORGBACK
 10
0.0
 20
0.0
 30
0.0
  9
$USERI1
 70
     0
  9
$USERI2
 70
     0
  9
$USERI3
 70
     0
  9
$USERI4
 70
     0
  9
$USERI5
 70
     0
  9
$USERR1
 40
0.0
  9
$USERR2
 40
0.0
  9
$USERR3
 40
0.0
  9
$USERR4
 40
0.0
  9
$USERR5
 40
0.0
  9
$WORLDVIEW
 70
     1
  9
$SHADEDGE
 70
     3
  9
$SHADEDIF
 70
    70
  9
$TILEMODE
 70
     1
  9
$MAXACTVP
 70
    16
  9
$PINSBASE
 10
0.0
 20
0.0
 30
0.0
  9
$PLIMCHECK
 70
     0
  9
$PEXTMIN
 10
1.000000000000000E+20
 20
1.000000000000000E+20
 30
1.000000000000000E+20
  9
$PEXTMAX
 10
-1.000000000000000E+20
 20
-1.000000000000000E+20
 30
-1.000000000000000E+20
  9
$PLIMMIN
 10
0.0
 20
0.0
  9
$PLIMMAX
 10
12.0
 20
9.0
  9
$UNITMODE
 70
     0
  9
$VISRETAIN
 70
     0
  9
$PLINEGEN
 70
     0
  9
$PSLTSCALE
 70
     1
  9
$TREEDEPTH
 70
  3020
  9
$CMLSTYLE
  2
Standard
  9
$CMLJUST
 70
     0
  9
$CMLSCALE
 40
1.0
  9
$PROXYGRAPHICS
 70
     1
  9
$MEASUREMENT
 70
     0
  9
$CELWEIGHT
370
    -1
  9
$ENDCAPS
280
     0
  9
$JOINSTYLE
280
     0
  9
$LWDISPLAY
290
     0
  9
$INSUNITS
 70
     0
  9
$HYPERLINKBASE
  1

  9
$STYLESHEET
  1
monochrome.ctb
  9
$XEDIT
290
     1
  9
$CEPSNTYPE
380
     0
  9
$PSTYLEMODE
290
     1
  9
$FINGERPRINTGUID
  2
{5F9F434B-8232-11D3-80AD-00C04F604D1B}
  9
$VERSIONGUID
  2
{1CB2A7C9-A466-42BB-B59C-F11F24A3DD16}
  9
$EXTNAMES
290
     1
  9
$PSVPSCALE
 40
0.0
  9
$OLESTARTUP
290
     0
  0
ENDSEC
  0
SECTION
  2
CLASSES
  0
CLASS
  1
ACDBDICTIONARYWDFLT
  2
AcDbDictionaryWithDefault
  3
AutoCAD 2000
 90
        0
280
     0
281
     0
  0
CLASS
  1
ACDBPLACEHOLDER
  2
AcDbPlaceHolder
  3
AutoCAD 2000
 90
        0
280
     0
281
     0
  0
CLASS
  1
LAYOUT
  2
AcDbLayout
  3
AutoCAD 2000
 90
        0
280
     0
281
     0
  0
CLASS
  1
PLOTSETTINGS
  2
AcDbPlotSettings
  3
AutoCAD 2000
 90
        0
280
     0
281
     0
  0
CLASS
  1
DICTIONARYVAR
  2
AcDbDictionaryVar
  3
AutoCAD 2000
 90
        0
280
     0
281
     0
  0
ENDSEC
  0
SECTION
  2
TABLES
  0
TABLE
  2
VPORT
  5
8
330
0
100
AcDbSymbolTable
 70
     5
  0
VPORT
  5
1E74
330
8
100
AcDbSymbolTableRecord
100
AcDbViewportTableRecord
  2
*Active
 70
     0
 10
0.0
 20
0.0
 11
1.0
 21
1.0
 12
14.78108686669325
 22
10.74196146429203
 13
0.0
 23
0.0
 14
0.125
 24
0.125
 15
0.25
 25
0.25
 16
0.0
 26
0.0
 36
1.0
 17
0.0
 27
0.0
 37
0.0
 40
21.64257428837169
 41
1.536019536019536
 42
50.0
 43
0.0
 44
0.0
 50
0.0
 51
0.0
 71
     0
 72
   100
 73
     1
 74
     0
 75
     0
 76
     0
 77
     0
 78
     0
281
     0
 65
     1
110
0.0
120
0.0
130
0.0
111
1.0
121
0.0
131
0.0
112
0.0
122
1.0
132
0.0
 79
     0
146
0.0
  0
ENDTAB
  0
TABLE
  2
LTYPE
  5
5
330
0
100
AcDbSymbolTable
 70
     7
  0
LTYPE
  5
13
330
5
100
AcDbSymbolTableRecord
100
AcDbLinetypeTableRecord
  2
ByBlock
 70
     0
  3

 72
    65
 73
     0
 40
0.0
  0
LTYPE
  5
14
330
5
100
AcDbSymbolTableRecord
100
AcDbLinetypeTableRecord
  2
ByLayer
 70
     0
  3

 72
    65
 73
     0
 40
0.0
  0
LTYPE
  5
15
330
5
100
AcDbSymbolTableRecord
100
AcDbLinetypeTableRecord
  2
CONTINUOUS
 70
     0
  3
Solid line
 72
    65
 73
     0
 40
0.0
  0
LTYPE
  5
22
330
5
100
AcDbSymbolTableRecord
100
AcDbLinetypeTableRecord
  2
HIDDEN
 70
     0
  3
_ _ _ _ _ _ _ _ _ _ _ _ _ _ _ _ _ _ _ _ _ _ _
 72
    65
 73
     2
 40
0.375
 49
0.25
 74
     0
 49
-0.125
 74
     0
  0
LTYPE
  5
23
330
5
100
AcDbSymbolTableRecord
100
AcDbLinetypeTableRecord
  2
PHANTOM
 70
     0
  3
_____ _ _ _____ _ _ _____ _ _ _____ _ _ ____
 72
    65
 73
     6
 40
2.5
 49
1.25
 74
     0
 49
-0.25
 74
     0
 49
0.25
 74
     0
 49
-0.25
 74
     0
 49
0.25
 74
     0
 49
-0.25
 74
     0
  0
LTYPE
  5
24
330
5
100
AcDbSymbolTableRecord
100
AcDbLinetypeTableRecord
  2
CENTER
 70
     0
  3
____ _ ____ _ ____ _ ____ _ ____ _ ____ _ ____
 72
    65
 73
     4
 40
2.0
 49
1.25
 74
     0
 49
-0.25
 74
     0
 49
0.25
 74
     0
 49
-0.25
 74
     0
  0
LTYPE
  5
25
330
5
100
AcDbSymbolTableRecord
100
AcDbLinetypeTableRecord
  2
HIDDEN2
 70
     0
  3
_ _ _ _ _ _ _ _ _ _ _ _ _ _ _ _ _ _ _ _ _ _ _ _
 72
    65
 73
     2
 40
0.1875
 49
0.125
 74
     0
 49
-0.0625
 74
     0
  0
LTYPE
  5
26
330
5
100
AcDbSymbolTableRecord
100
AcDbLinetypeTableRecord
  2
PHANTOM2
 70
     0
  3
___ _ _ ___ _ _ ___ _ _ ___ _ _ ___ _ _ ___ _ _
 72
    65
 73
     6
 40
1.25
 49
0.625
 74
     0
 49
-0.125
 74
     0
 49
0.125
 74
     0
 49
-0.125
 74
     0
 49
0.125
 74
     0
 49
-0.125
 74
     0
  0
LTYPE
  5
2AB
330
5
100
AcDbSymbolTableRecord
100
AcDbLinetypeTableRecord
  2
CENTER2
 70
     0
  3
Center (.5x) ___ _ ___ _ ___ _ ___ _ ___ _ ___
 72
    65
 73
     4
 40
1.125
 49
0.75
 74
     0
 49
-0.125
 74
     0
 49
0.125
 74
     0
 49
-0.125
 74
     0
  0
ENDTAB
  0
TABLE
  2
LAYER
  5
2
330
0
100
AcDbSymbolTable
 70
     9
  0
LAYER
  5
10
330
2
100
AcDbSymbolTableRecord
100
AcDbLayerTableRecord
  2
0
 70
     0
 62
     7
  6
CONTINUOUS
370
    -3
390
F
  0
LAYER
  5
29
330
2
100
AcDbSymbolTableRecord
100
AcDbLayerTableRecord
  2
OBJECT
 70
     0
 62
     7
  6
CONTINUOUS
370
    -3
390
F
  0
LAYER
  5
2D
330
2
100
AcDbSymbolTableRecord
100
AcDbLayerTableRecord
  2
TEXT
 70
     0
 62
     1
  6
CONTINUOUS
370
    -3
390
F
  0
LAYER
  5
2E
330
2
100
AcDbSymbolTableRecord
100
AcDbLayerTableRecord
  2
TITLE
 70
     0
 62
     8
  6
CONTINUOUS
370
    -3
390
F
  0
LAYER
  5
2F
330
2
100
AcDbSymbolTableRecord
100
AcDbLayerTableRecord
  2
CENTER
 70
     0
 62
     3
  6
CENTER
370
    -3
390
F
  0
LAYER
  5
2AC
330
2
100
AcDbSymbolTableRecord
100
AcDbLayerTableRecord
  2
DEFPOINTS
 70
     0
 62
     7
  6
CONTINUOUS
290
     0
370
    -3
390
F
  0
LAYER
  5
2AD
330
2
100
AcDbSymbolTableRecord
100
AcDbLayerTableRecord
  2
ZN-40BMB
 70
     0
 62
    14
  6
CONTINUOUS
370
    -3
390
F
  0
LAYER
  5
2AE
330
2
100
AcDbSymbolTableRecord
100
AcDbLayerTableRecord
  2
ZN-40C
 70
     0
 62
    14
  6
CONTINUOUS
370
    -3
390
F
  0
LAYER
  5
2AF
330
2
100
AcDbSymbolTableRecord
100
AcDbLayerTableRecord
  2
ZN-40EP
 70
     0
 62
    14
  6
CONTINUOUS
370
    -3
390
F
  0
ENDTAB
  0
TABLE
  2
STYLE
  5
3
330
0
100
AcDbSymbolTable
 70
     3
  0
STYLE
  5
11
330
3
100
AcDbSymbolTableRecord
100
AcDbTextStyleTableRecord
  2
TXT
 70
     0
 40
0.0
 41
0.75
 50
0.0
 71
     0
 42
0.125
  3
TXT.shx
  4

  0
STYLE
  5
2B0
330
3
100
AcDbSymbolTableRecord
100
AcDbTextStyleTableRecord
  2
STANDARD
 70
     0
 40
0.0
 41
1.0
 50
0.0
 71
     0
 42
0.1
  3
ARIAL.TTF
  4

1001
ACAD
1000
Arial
1071
       34
  0
STYLE
  5
2B1
330
3
100
AcDbSymbolTableRecord
100
AcDbTextStyleTableRecord
  2
SLDTEXTSTYLE4
 70
     0
 40
0.0
 41
0.913
 50
0.0
 71
     0
 42
0.0
  3
Gothic.ttf
  4

1001
ACAD
1000
Century Gothic
1071
       34
  0
ENDTAB
  0
TABLE
  2
VIEW
  5
6
330
0
100
AcDbSymbolTable
 70
     0
  0
ENDTAB
  0
TABLE
  2
UCS
  5
7
330
0
100
AcDbSymbolTable
 70
     0
  0
ENDTAB
  0
TABLE
  2
APPID
  5
9
330
0
100
AcDbSymbolTable
 70
     2
  0
APPID
  5
12
330
9
100
AcDbSymbolTableRecord
100
AcDbRegAppTableRecord
  2
ACAD
 70
     0
  0
APPID
  5
2B7
330
9
100
AcDbSymbolTableRecord
100
AcDbRegAppTableRecord
  2
DCO15
 70
     0
  0
ENDTAB
  0
TABLE
  2
DIMSTYLE
  5
A
330
0
100
AcDbSymbolTable
 70
     7
100
AcDbDimStyleTable
 71
     5
340
2B2
340
2B5
340
2B3
340
2B6
340
38
  0
DIMSTYLE
105
38
330
A
100
AcDbSymbolTableRecord
100
AcDbDimStyleTableRecord
  2
23NSTD
 70
     0
 42
0.063
 43
0.281
 44
0.093
140
0.125
271
     3
272
     3
289
     1
340
11
  0
DIMSTYLE
105
2B2
102
{ACAD_REACTORS
330
3CB
330
3DC
330
460
330
49A
330
498
330
3CD
330
3CC
330
2EA
330
B78
330
B79
330
B7A
330
B7B
330
BC0
330
12E8
330
B0F
330
B17
330
B16
330
B29
330
B49
330
171F
330
1794
330
17DA
102
}
330
A
100
AcDbSymbolTableRecord
100
AcDbDimStyleTableRecord
  2
STANDARD
 70
     0
 40
1.375
 44
0.1
140
0.125
141
0.03
176
     1
177
     1
178
     4
271
     3
272
     3
275
     1
340
2B0
  0
DIMSTYLE
105
2B3
102
{ACAD_REACTORS
330
B7C
102
}
330
A
100
AcDbSymbolTableRecord
100
AcDbDimStyleTableRecord
  2
STANDARD$3
 70
     0
 40
1.375
 44
0.1
140
0.125
141
0.0
176
     1
177
     1
178
     4
271
     3
272
     3
275
     1
340
2B0
  0
DIMSTYLE
105
2B4
102
{ACAD_REACTORS
330
468
330
A6D
102
}
330
A
100
AcDbSymbolTableRecord
100
AcDbDimStyleTableRecord
  2
STANDARD$7
 70
     0
 40
1.375
 44
0.1
140
0.125
141
0.03
176
     1
177
     1
178
     4
271
     3
272
     3
275
     1
288
     1
340
2B0
  0
DIMSTYLE
105
2B5
102
{ACAD_REACTORS
330
BA5
330
BA6
102
}
330
A
100
AcDbSymbolTableRecord
100
AcDbDimStyleTableRecord
  2
SLDDIMSTYLE2
 70
     0
 41
0.156
 44
0.125
 78
     4
140
0.125
147
0.03125
173
     1
176
     7
177
     7
178
     7
271
     2
272
     2
284
    12
340
2B1
343
63
344
63
  0
DIMSTYLE
105
2B6
102
{ACAD_REACTORS
330
837
330
B39
330
B3F
102
}
330
A
100
AcDbSymbolTableRecord
100
AcDbDimStyleTableRecord
  2
STANDARD$4
 70
     0
 40
1.375
 44
0.1
140
0.125
141
0.0
176
     1
177
     1
178
     4
271
     3
272
     3
275
     1
340
2B0
  0
DIMSTYLE
105
1E49
330
A
100
AcDbSymbolTableRecord
100
AcDbDimStyleTableRecord
  2
SLDDIMSTYLE7
 70
     0
 41
0.125
 44
0.125
 78
     4
140
0.125
144
0.5
147
0.03125
176
     7
177
     7
178
     7
271
     3
272
     3
284
    12
340
2B0
  0
ENDTAB
  0
TABLE
  2
BLOCK_RECORD
  5
1
330
0
100
AcDbSymbolTable
 70
    39
  0
BLOCK_RECORD
  5
1E
330
1
100
AcDbSymbolTableRecord
100
AcDbBlockTableRecord
  2
*Model_Space
340
21
  0
BLOCK_RECORD
  5
1A
330
1
100
AcDbSymbolTableRecord
100
AcDbBlockTableRecord
  2
*Paper_Space
340
1D
  0
BLOCK_RECORD
  5
63
330
1
100
AcDbSymbolTableRecord
100
AcDbBlockTableRecord
  2
_NONE
340
0
  0
BLOCK_RECORD
  5
66
330
1
100
AcDbSymbolTableRecord
100
AcDbBlockTableRecord
  2
_DOT
340
0
  0
BLOCK_RECORD
  5
8E
330
1
100
AcDbSymbolTableRecord
100
AcDbBlockTableRecord
  2
*D2
340
0
  0
BLOCK_RECORD
  5
9B
330
1
100
AcDbSymbolTableRecord
100
AcDbBlockTableRecord
  2
*D3
340
0
  0
BLOCK_RECORD
  5
A9
330
1
100
AcDbSymbolTableRecord
100
AcDbBlockTableRecord
  2
*D4
340
0
  0
BLOCK_RECORD
  5
B6
330
1
100
AcDbSymbolTableRecord
100
AcDbBlockTableRecord
  2
*D5
340
0
  0
BLOCK_RECORD
  5
D0
330
1
100
AcDbSymbolTableRecord
100
AcDbBlockTableRecord
  2
*D6
340
0
  0
BLOCK_RECORD
  5
E9
330
1
100
AcDbSymbolTableRecord
100
AcDbBlockTableRecord
  2
*D7
340
0
  0
BLOCK_RECORD
  5
F6
330
1
100
AcDbSymbolTableRecord
100
AcDbBlockTableRecord
  2
*D8
340
0
  0
BLOCK_RECORD
  5
103
330
1
100
AcDbSymbolTableRecord
100
AcDbBlockTableRecord
  2
*D9
340
0
  0
BLOCK_RECORD
  5
13C
330
1
100
AcDbSymbolTableRecord
100
AcDbBlockTableRecord
  2
*D10
340
0
  0
BLOCK_RECORD
  5
149
330
1
100
AcDbSymbolTableRecord
100
AcDbBlockTableRecord
  2
*D11
340
0
  0
BLOCK_RECORD
  5
156
330
1
100
AcDbSymbolTableRecord
100
AcDbBlockTableRecord
  2
*D12
340
0
  0
BLOCK_RECORD
  5
163
330
1
100
AcDbSymbolTableRecord
100
AcDbBlockTableRecord
  2
*D13
340
0
  0
BLOCK_RECORD
  5
170
330
1
100
AcDbSymbolTableRecord
100
AcDbBlockTableRecord
  2
*D14
340
0
  0
BLOCK_RECORD
  5
17D
330
1
100
AcDbSymbolTableRecord
100
AcDbBlockTableRecord
  2
*D15
340
0
  0
BLOCK_RECORD
  5
18A
330
1
100
AcDbSymbolTableRecord
100
AcDbBlockTableRecord
  2
*D16
340
0
  0
BLOCK_RECORD
  5
197
330
1
100
AcDbSymbolTableRecord
100
AcDbBlockTableRecord
  2
*D17
340
0
  0
BLOCK_RECORD
  5
1C7
330
1
100
AcDbSymbolTableRecord
100
AcDbBlockTableRecord
  2
*D18
340
0
  0
BLOCK_RECORD
  5
1F3
330
1
100
AcDbSymbolTableRecord
100
AcDbBlockTableRecord
  2
*D19
340
0
  0
BLOCK_RECORD
  5
200
330
1
100
AcDbSymbolTableRecord
100
AcDbBlockTableRecord
  2
*D20
340
0
  0
BLOCK_RECORD
  5
20D
330
1
100
AcDbSymbolTableRecord
100
AcDbBlockTableRecord
  2
*D21
340
0
  0
BLOCK_RECORD
  5
21A
330
1
100
AcDbSymbolTableRecord
100
AcDbBlockTableRecord
  2
*D22
340
0
  0
BLOCK_RECORD
  5
228
330
1
100
AcDbSymbolTableRecord
100
AcDbBlockTableRecord
  2
*D23
340
0
  0
BLOCK_RECORD
  5
231
330
1
100
AcDbSymbolTableRecord
100
AcDbBlockTableRecord
  2
*D24
340
0
  0
BLOCK_RECORD
  5
23A
330
1
100
AcDbSymbolTableRecord
100
AcDbBlockTableRecord
  2
*D25
340
0
  0
BLOCK_RECORD
  5
248
330
1
100
AcDbSymbolTableRecord
100
AcDbBlockTableRecord
  2
*D26
340
0
  0
BLOCK_RECORD
  5
255
330
1
100
AcDbSymbolTableRecord
100
AcDbBlockTableRecord
  2
*D27
340
0
  0
BLOCK_RECORD
  5
262
330
1
100
AcDbSymbolTableRecord
100
AcDbBlockTableRecord
  2
*D28
340
0
  0
BLOCK_RECORD
  5
26F
330
1
100
AcDbSymbolTableRecord
100
AcDbBlockTableRecord
  2
*D29
340
0
  0
BLOCK_RECORD
  5
27C
330
1
100
AcDbSymbolTableRecord
100
AcDbBlockTableRecord
  2
*D30
340
0
  0
BLOCK_RECORD
  5
284
330
1
100
AcDbSymbolTableRecord
100
AcDbBlockTableRecord
  2
*D31
340
0
  0
BLOCK_RECORD
  5
28C
330
1
100
AcDbSymbolTableRecord
100
AcDbBlockTableRecord
  2
*D32
340
0
  0
BLOCK_RECORD
  5
29E
330
1
100
AcDbSymbolTableRecord
100
AcDbBlockTableRecord
  2
*D33
340
0
  0
BLOCK_RECORD
  5
12E9
330
1
100
AcDbSymbolTableRecord
100
AcDbBlockTableRecord
  2
*D34
340
0
  0
BLOCK_RECORD
  5
1720
330
1
100
AcDbSymbolTableRecord
100
AcDbBlockTableRecord
  2
*D35
340
0
  0
BLOCK_RECORD
  5
1795
330
1
100
AcDbSymbolTableRecord
100
AcDbBlockTableRecord
  2
*D36
340
0
  0
BLOCK_RECORD
  5
17DB
330
1
100
AcDbSymbolTableRecord
100
AcDbBlockTableRecord
  2
*D37
340
0
  0
BLOCK_RECORD
  5
1818
330
1
100
AcDbSymbolTableRecord
100
AcDbBlockTableRecord
  2
C
340
0
102
{BLKREFS
331
1A56
102
}
  0
ENDTAB
  0
ENDSEC
  0
SECTION
  2
BLOCKS
  0
BLOCK
  5
33
330
1E
100
AcDbEntity
  8
0
100
AcDbBlockBegin
  2
*Model_Space
 70
     0
 10
0.0
 20
0.0
 30
0.0
  3
*Model_Space
  1

  0
ENDBLK
  5
34
330
1E
100
AcDbEntity
  8
0
100
AcDbBlockEnd
  0
BLOCK
  5
31
330
1A
100
AcDbEntity
 67
     1
  8
0
100
AcDbBlockBegin
  2
*Paper_Space
 70
     0
 10
0.0
 20
0.0
 30
0.0
  3
*Paper_Space
  1

  0
ENDBLK
  5
32
330
1A
100
AcDbEntity
 67
     1
  8
0
100
AcDbBlockEnd
  0
BLOCK
  5
64
330
63
100
AcDbEntity
  8
0
100
AcDbBlockBegin
  2
_NONE
 70
     0
 10
0.0
 20
0.0
 30
0.0
  3
_NONE
  1

  0
ENDBLK
  5
65
330
63
100
AcDbEntity
  8
0
100
AcDbBlockEnd
  0
BLOCK
  5
6C
330
66
100
AcDbEntity
  8
0
100
AcDbBlockBegin
  2
_DOT
 70
     0
 10
0.0
 20
0.0
 30
0.0
  3
_DOT
  1

  0
POLYLINE
  5
67
330
66
100
AcDbEntity
  8
0
  6
ByBlock
 62
     0
370
    -2
100
AcDb2dPolyline
 66
     1
 10
0.0
 20
0.0
 30
0.0
 70
     1
 40
0.5
 41
0.5
  0
VERTEX
  5
68
330
67
100
AcDbEntity
  8
0
  6
ByBlock
 62
     0
370
    -2
100
AcDbVertex
100
AcDb2dVertex
 10
-0.25
 20
0.0
 30
0.0
 42
1.0
  0
VERTEX
  5
69
330
67
100
AcDbEntity
  8
0
  6
ByBlock
 62
     0
370
    -2
100
AcDbVertex
100
AcDb2dVertex
 10
0.25
 20
0.0
 30
0.0
 42
1.0
  0
SEQEND
  5
6A
330
67
100
AcDbEntity
  8
0
  0
LINE
  5
6B
330
66
100
AcDbEntity
  8
0
  6
ByBlock
 62
     0
370
    -2
100
AcDbLine
 10
-0.5
 20
0.0
 30
0.0
 11
-1.0
 21
0.0
 31
0.0
  0
ENDBLK
  5
6D
330
66
100
AcDbEntity
  8
0
100
AcDbBlockEnd
  0
BLOCK
  5
99
330
8E
100
AcDbEntity
  8
0
100
AcDbBlockBegin
  2
*D2
 70
     1
 10
0.0
 20
0.0
 30
0.0
  3
*D2
  1

  0
LINE
  5
1C1B
330
8E
100
AcDbEntity
  8
0
 62
     1
370
    -2
100
AcDbLine
 10
13.69339550643441
 20
5.557938710848207
 30
0.0
 11
17.54106899543631
 21
5.557938710848206
 31
0.0
  0
LINE
  5
1C1C
330
8E
100
AcDbEntity
  8
0
 62
     1
370
    -2
100
AcDbLine
 10
13.69339550643441
 20
7.557938710848207
 30
0.0
 11
17.54106899543631
 21
7.557938710848206
 31
0.0
  0
LINE
  5
1C1D
330
8E
100
AcDbEntity
  8
0
 62
     1
370
    -2
100
AcDbLine
 10
17.40356899543631
 20
5.805438710848205
 30
0.0
 11
17.40356899543631
 21
6.392972879061337
 31
0.0
  0
LINE
  5
1C1E
330
8E
100
AcDbEntity
  8
0
 62
     1
370
    -2
100
AcDbLine
 10
17.40356899543631
 20
7.310438710848206
 30
0.0
 11
17.40356899543631
 21
6.815982343590668
 31
0.0
  0
SOLID
  5
1C1F
330
8E
100
AcDbEntity
  8
0
 62
     1
100
AcDbTrace
 10
17.36231899543631
 20
5.805438710848205
 30
0.0
 11
17.44481899543632
 21
5.805438710848205
 31
0.0
 12
17.40356899543631
 22
5.557938710848206
 32
0.0
 13
17.40356899543631
 23
5.557938710848206
 33
0.0
  0
SOLID
  5
1C20
330
8E
100
AcDbEntity
  8
0
 62
     1
100
AcDbTrace
 10
17.36231899543631
 20
7.310438710848206
 30
0.0
 11
17.44481899543632
 21
7.310438710848206
 31
0.0
 12
17.40356899543631
 22
7.557938710848206
 32
0.0
 13
17.40356899543631
 23
7.557938710848206
 33
0.0
  0
MTEXT
  5
1C21
330
8E
100
AcDbEntity
  8
0
 62
     4
100
AcDbMText
 10
17.40356899543631
 20
6.604477611326005
 30
0.0
 40
0.171875
 41
0.0
 71
     5
 72
     1
  1
\A1;2.000
  7
STANDARD
 73
     1
 44
1.0
  0
POINT
  5
1C22
330
8E
100
AcDbEntity
  8
DEFPOINTS
 62
     0
100
AcDbPoint
 10
13.60745800643441
 20
5.557938710848207
 30
0.0
  0
POINT
  5
1C23
330
8E
100
AcDbEntity
  8
DEFPOINTS
 62
     0
100
AcDbPoint
 10
13.6074580064344
 20
7.557938710848207
 30
0.0
  0
POINT
  5
1C24
330
8E
100
AcDbEntity
  8
DEFPOINTS
 62
     0
100
AcDbPoint
 10
17.40356899543631
 20
7.557938710848206
 30
0.0
  0
ENDBLK
  5
9A
330
8E
100
AcDbEntity
  8
0
100
AcDbBlockEnd
  0
BLOCK
  5
A7
330
9B
100
AcDbEntity
  8
0
100
AcDbBlockBegin
  2
*D3
 70
     1
 10
0.0
 20
0.0
 30
0.0
  3
*D3
  1

  0
LINE
  5
1C11
330
9B
100
AcDbEntity
  8
0
 62
     1
370
    -2
100
AcDbLine
 10
15.60187401485994
 20
11.67823786426303
 30
0.0
 11
17.10414114109504
 21
11.67823786426303
 31
0.0
  0
LINE
  5
1C12
330
9B
100
AcDbEntity
  8
0
 62
     1
370
    -2
100
AcDbLine
 10
16.57060557461995
 20
11.42823786426302
 30
0.0
 11
17.10414114109504
 21
11.42823786426302
 31
0.0
  0
LINE
  5
1C13
330
9B
100
AcDbEntity
  8
0
 62
     1
370
    -2
100
AcDbLine
 10
16.96664114109504
 20
11.92573786426303
 30
0.0
 11
16.96664114109504
 21
12.17323786426303
 31
0.0
  0
LINE
  5
1C14
330
9B
100
AcDbEntity
  8
0
 62
     1
370
    -2
100
AcDbLine
 10
16.96664114109504
 20
11.18073786426302
 30
0.0
 11
16.96664114109504
 21
10.93323786426302
 31
0.0
  0
SOLID
  5
1C15
330
9B
100
AcDbEntity
  8
0
 62
     1
100
AcDbTrace
 10
16.92539114109504
 20
11.92573786426303
 30
0.0
 11
17.00789114109504
 21
11.92573786426303
 31
0.0
 12
16.96664114109504
 22
11.67823786426303
 32
0.0
 13
16.96664114109504
 23
11.67823786426303
 33
0.0
  0
SOLID
  5
1C16
330
9B
100
AcDbEntity
  8
0
 62
     1
100
AcDbTrace
 10
16.92539114109504
 20
11.18073786426302
 30
0.0
 11
17.00789114109504
 21
11.18073786426302
 31
0.0
 12
16.96664114109504
 22
11.42823786426302
 32
0.0
 13
16.96664114109504
 23
11.42823786426302
 33
0.0
  0
MTEXT
  5
1C17
330
9B
100
AcDbEntity
  8
0
 62
     4
100
AcDbMText
 10
16.96664114109504
 20
11.55323786426302
 30
0.0
 40
0.171875
 41
0.0
 71
     5
 72
     1
  1
\A1;0.250
  7
STANDARD
 73
     1
 44
1.0
  0
POINT
  5
1C18
330
9B
100
AcDbEntity
  8
DEFPOINTS
 62
     0
100
AcDbPoint
 10
15.51593651485994
 20
11.67823786426303
 30
0.0
  0
POINT
  5
1C19
330
9B
100
AcDbEntity
  8
DEFPOINTS
 62
     0
100
AcDbPoint
 10
16.48466807461995
 20
11.42823786426302
 30
0.0
  0
POINT
  5
1C1A
330
9B
100
AcDbEntity
  8
DEFPOINTS
 62
     0
100
AcDbPoint
 10
16.96664114109504
 20
11.42823786426302
 30
0.0
  0
ENDBLK
  5
A8
330
9B
100
AcDbEntity
  8
0
100
AcDbBlockEnd
  0
BLOCK
  5
B4
330
A9
100
AcDbEntity
  8
0
100
AcDbBlockBegin
  2
*D4
 70
     1
 10
0.0
 20
0.0
 30
0.0
  3
*D4
  1

  0
LINE
  5
1BED
330
A9
100
AcDbEntity
  8
0
 62
     1
370
    -2
100
AcDbLine
 10
13.60745800643441
 20
5.472001210848207
 30
0.0
 11
13.60745800643441
 21
3.240360925034812
 31
0.0
  0
LINE
  5
1BEE
330
A9
100
AcDbEntity
  8
0
 62
     1
370
    -2
100
AcDbLine
 10
10.60745800643441
 20
5.472001210848193
 30
0.0
 11
10.60745800643441
 21
3.240360925034812
 31
0.0
  0
LINE
  5
1BEF
330
A9
100
AcDbEntity
  8
0
 62
     1
370
    -2
100
AcDbLine
 10
13.35995800643441
 20
3.377860925034812
 30
0.0
 11
12.59549024867311
 21
3.377860925034812
 31
0.0
  0
LINE
  5
1BF0
330
A9
100
AcDbEntity
  8
0
 62
     1
370
    -2
100
AcDbLine
 10
10.85495800643441
 20
3.377860925034812
 30
0.0
 11
11.76870349901417
 21
3.377860925034812
 31
0.0
  0
SOLID
  5
1BF1
330
A9
100
AcDbEntity
  8
0
 62
     1
100
AcDbTrace
 10
13.35995800643441
 20
3.419110925034812
 30
0.0
 11
13.35995800643441
 21
3.336610925034812
 31
0.0
 12
13.60745800643441
 22
3.377860925034812
 32
0.0
 13
13.60745800643441
 23
3.377860925034812
 33
0.0
  0
SOLID
  5
1BF2
330
A9
100
AcDbEntity
  8
0
 62
     1
100
AcDbTrace
 10
10.85495800643441
 20
3.419110925034812
 30
0.0
 11
10.85495800643441
 21
3.336610925034812
 31
0.0
 12
10.60745800643441
 22
3.377860925034812
 32
0.0
 13
10.60745800643441
 23
3.377860925034812
 33
0.0
  0
MTEXT
  5
1BF3
330
A9
100
AcDbEntity
  8
0
 62
     4
100
AcDbMText
 10
12.18209687384364
 20
3.377860925034812
 30
0.0
 40
0.171875
 41
0.0
 71
     5
 72
     1
  1
\A1;3.000
  7
STANDARD
 73
     1
 44
1.0
  0
POINT
  5
1BF4
330
A9
100
AcDbEntity
  8
DEFPOINTS
 62
     0
100
AcDbPoint
 10
13.60745800643441
 20
5.557938710848207
 30
0.0
  0
POINT
  5
1BF5
330
A9
100
AcDbEntity
  8
DEFPOINTS
 62
     0
100
AcDbPoint
 10
10.60745800643441
 20
5.557938710848193
 30
0.0
  0
POINT
  5
1BF6
330
A9
100
AcDbEntity
  8
DEFPOINTS
 62
     0
100
AcDbPoint
 10
10.60745800643441
 20
3.377860925034812
 30
0.0
  0
ENDBLK
  5
B5
330
A9
100
AcDbEntity
  8
0
100
AcDbBlockEnd
  0
BLOCK
  5
C1
330
B6
100
AcDbEntity
  8
0
100
AcDbBlockBegin
  2
*D5
 70
     1
 10
0.0
 20
0.0
 30
0.0
  3
*D5
  1

  0
LINE
  5
1DC5
330
B6
100
AcDbEntity
  8
0
 62
     1
370
    -2
100
AcDbLine
 10
4.147421249285674
 20
15.66835970047821
 30
0.0
 11
4.147421249285674
 21
15.35090914181077
 31
0.0
  0
LINE
  5
1DC6
330
B6
100
AcDbEntity
  8
0
 62
     1
370
    -2
100
AcDbLine
 10
4.31542124928568
 20
15.67173330164528
 30
0.0
 11
4.31542124928568
 21
15.35090914181077
 31
0.0
  0
LINE
  5
1DC7
330
B6
100
AcDbEntity
  8
0
 62
     1
370
    -2
100
AcDbLine
 10
4.56292124928568
 20
15.48840914181077
 30
0.0
 11
4.81042124928568
 21
15.48840914181077
 31
0.0
  0
LINE
  5
1DC8
330
B6
100
AcDbEntity
  8
0
 62
     1
370
    -2
100
AcDbLine
 10
3.899921249285674
 20
15.48840914181077
 30
0.0
 11
3.652421249285674
 21
15.48840914181077
 31
0.0
  0
SOLID
  5
1DC9
330
B6
100
AcDbEntity
  8
0
 62
     1
100
AcDbTrace
 10
4.56292124928568
 20
15.52965914181077
 30
0.0
 11
4.56292124928568
 21
15.44715914181077
 31
0.0
 12
4.31542124928568
 22
15.48840914181077
 32
0.0
 13
4.31542124928568
 23
15.48840914181077
 33
0.0
  0
SOLID
  5
1DCA
330
B6
100
AcDbEntity
  8
0
 62
     1
100
AcDbTrace
 10
3.899921249285674
 20
15.52965914181077
 30
0.0
 11
3.899921249285674
 21
15.44715914181077
 31
0.0
 12
4.147421249285674
 22
15.48840914181077
 32
0.0
 13
4.147421249285674
 23
15.48840914181077
 33
0.0
  0
MTEXT
  5
1DCB
330
B6
100
AcDbEntity
  8
0
 62
     4
100
AcDbMText
 10
1.952896394237925
 20
15.48840914181077
 30
0.0
 40
0.171875
 41
0.0
 71
     5
 72
     1
  1
\A1;0.168 (6 PLCS.)\P(MOUNTING BOSS HEIGHT)
  7
STANDARD
 73
     1
 44
1.0
  0
POINT
  5
1DCC
330
B6
100
AcDbEntity
  8
DEFPOINTS
 62
     0
100
AcDbPoint
 10
4.147421249285674
 20
15.75429720047822
 30
0.0
  0
POINT
  5
1DCD
330
B6
100
AcDbEntity
  8
DEFPOINTS
 62
     0
100
AcDbPoint
 10
4.31542124928568
 20
15.75767080164528
 30
0.0
  0
POINT
  5
1DCE
330
B6
100
AcDbEntity
  8
DEFPOINTS
 62
     0
100
AcDbPoint
 10
4.31542124928568
 20
15.48840914181077
 30
0.0
  0
ENDBLK
  5
C2
330
B6
100
AcDbEntity
  8
0
100
AcDbBlockEnd
  0
BLOCK
  5
DA
330
D0
100
AcDbEntity
  8
0
100
AcDbBlockBegin
  2
*D6
 70
     1
 10
0.0
 20
0.0
 30
0.0
  3
*D6
  1

  0
LINE
  5
1DE3
330
D0
100
AcDbEntity
  8
0
 62
     1
370
    -2
100
AcDbLine
 10
3.787421249285667
 20
14.99352323345974
 30
0.0
 11
3.787421249285667
 21
14.19297604630942
 31
0.0
  0
LINE
  5
1DE4
330
D0
100
AcDbEntity
  8
0
 62
     1
370
    -2
100
AcDbLine
 10
4.557421249285663
 20
16.03499456179882
 30
0.0
 11
4.557421249285663
 21
14.19297604630942
 31
0.0
  0
LINE
  5
1DE5
330
D0
100
AcDbEntity
  8
0
 62
     1
370
    -2
100
AcDbLine
 10
4.309921249285664
 20
14.33047604630942
 30
0.0
 11
4.034921249285667
 21
14.33047604630942
 31
0.0
  0
LINE
  5
1DE6
330
D0
100
AcDbEntity
  8
0
 62
     1
370
    -2
100
AcDbLine
 10
3.787421249285667
 20
14.33047604630942
 30
0.0
 11
3.539921249285667
 21
14.33047604630942
 31
0.0
  0
SOLID
  5
1DE7
330
D0
100
AcDbEntity
  8
0
 62
     1
100
AcDbTrace
 10
4.309921249285664
 20
14.37172604630942
 30
0.0
 11
4.309921249285664
 21
14.28922604630942
 31
0.0
 12
4.557421249285663
 22
14.33047604630942
 32
0.0
 13
4.557421249285663
 23
14.33047604630942
 33
0.0
  0
SOLID
  5
1DE8
330
D0
100
AcDbEntity
  8
0
 62
     1
100
AcDbTrace
 10
4.034921249285667
 20
14.37172604630942
 30
0.0
 11
4.034921249285667
 21
14.28922604630942
 31
0.0
 12
3.787421249285667
 22
14.33047604630942
 32
0.0
 13
3.787421249285667
 23
14.33047604630942
 33
0.0
  0
MTEXT
  5
1DE9
330
D0
100
AcDbEntity
  8
0
 62
     4
100
AcDbMText
 10
2.90072211047257
 20
14.33047604630942
 30
0.0
 40
0.171875
 41
0.0
 71
     5
 72
     1
  1
\A1;0.770\P(4 PLCS.)
  7
STANDARD
 73
     1
 44
1.0
  0
POINT
  5
1DEA
330
D0
100
AcDbEntity
  8
DEFPOINTS
 62
     0
100
AcDbPoint
 10
3.787421249285667
 20
15.07946073345974
 30
0.0
  0
POINT
  5
1DEB
330
D0
100
AcDbEntity
  8
DEFPOINTS
 62
     0
100
AcDbPoint
 10
4.557421249285663
 20
16.12093206179882
 30
0.0
  0
POINT
  5
1DEC
330
D0
100
AcDbEntity
  8
DEFPOINTS
 62
     0
100
AcDbPoint
 10
4.557421249285663
 20
14.33047604630942
 30
0.0
  0
ENDBLK
  5
DB
330
D0
100
AcDbEntity
  8
0
100
AcDbBlockEnd
  0
BLOCK
  5
F4
330
E9
100
AcDbEntity
  8
0
100
AcDbBlockBegin
  2
*D7
 70
     1
 10
0.0
 20
0.0
 30
0.0
  3
*D7
  1

  0
LINE
  5
1BC5
330
E9
100
AcDbEntity
  8
0
 62
     1
370
    -2
100
AcDbLine
 10
15.58354187549428
 20
11.59230036426303
 30
0.0
 11
15.58354187549428
 21
10.94897380802363
 31
0.0
  0
LINE
  5
1BC6
330
E9
100
AcDbEntity
  8
0
 62
     1
370
    -2
100
AcDbLine
 10
8.631374137374525
 20
11.59230036426303
 30
0.0
 11
8.631374137374525
 21
10.94897380802363
 31
0.0
  0
LINE
  5
1BC7
330
E9
100
AcDbEntity
  8
0
 62
     1
370
    -2
100
AcDbLine
 10
15.33604187549428
 20
11.08647380802363
 30
0.0
 11
12.65080433815699
 21
11.08647380802363
 31
0.0
  0
LINE
  5
1BC8
330
E9
100
AcDbEntity
  8
0
 62
     1
370
    -2
100
AcDbLine
 10
8.878874137374525
 20
11.08647380802363
 30
0.0
 11
11.63303233952124
 21
11.08647380802363
 31
0.0
  0
SOLID
  5
1BC9
330
E9
100
AcDbEntity
  8
0
 62
     1
100
AcDbTrace
 10
15.33604187549428
 20
11.12772380802363
 30
0.0
 11
15.33604187549428
 21
11.04522380802363
 31
0.0
 12
15.58354187549428
 22
11.08647380802363
 32
0.0
 13
15.58354187549428
 23
11.08647380802363
 33
0.0
  0
SOLID
  5
1BCA
330
E9
100
AcDbEntity
  8
0
 62
     1
100
AcDbTrace
 10
8.878874137374525
 20
11.12772380802363
 30
0.0
 11
8.878874137374525
 21
11.04522380802363
 31
0.0
 12
8.631374137374525
 22
11.08647380802363
 32
0.0
 13
8.631374137374525
 23
11.08647380802363
 33
0.0
  0
MTEXT
  5
1BCB
330
E9
100
AcDbEntity
  8
0
 62
     4
100
AcDbMText
 10
12.14191833883912
 20
11.08647380802363
 30
0.0
 40
0.171875
 41
0.0
 71
     5
 72
     1
  1
\A1;6.952**
  7
STANDARD
 73
     1
 44
1.0
  0
POINT
  5
1BCC
330
E9
100
AcDbEntity
  8
DEFPOINTS
 62
     0
100
AcDbPoint
 10
15.58354187549428
 20
11.67823786426303
 30
0.0
  0
POINT
  5
1BCD
330
E9
100
AcDbEntity
  8
DEFPOINTS
 62
     0
100
AcDbPoint
 10
8.631374137374525
 20
11.67823786426303
 30
0.0
  0
POINT
  5
1BCE
330
E9
100
AcDbEntity
  8
DEFPOINTS
 62
     0
100
AcDbPoint
 10
8.631374137374525
 20
11.08647380802363
 30
0.0
  0
ENDBLK
  5
F5
330
E9
100
AcDbEntity
  8
0
100
AcDbBlockEnd
  0
BLOCK
  5
101
330
F6
100
AcDbEntity
  8
0
100
AcDbBlockBegin
  2
*D8
 70
     1
 10
0.0
 20
0.0
 30
0.0
  3
*D8
  1

  0
LINE
  5
1E0B
330
F6
100
AcDbEntity
  8
0
 62
     1
370
    -2
100
AcDbLine
 10
15.842938166006
 20
11.34230036426303
 30
0.0
 11
15.842938166006
 21
10.53306575833924
 31
0.0
  0
LINE
  5
1E0C
330
F6
100
AcDbEntity
  8
0
 62
     1
370
    -2
100
AcDbLine
 10
8.371977846862808
 20
11.34230036426303
 30
0.0
 11
8.371977846862808
 21
10.53306575833924
 31
0.0
  0
LINE
  5
1E0D
330
F6
100
AcDbEntity
  8
0
 62
     1
370
    -2
100
AcDbLine
 10
15.595438166006
 20
10.67056575833924
 30
0.0
 11
12.6496319302443
 21
10.67056575833924
 31
0.0
  0
LINE
  5
1E0E
330
F6
100
AcDbEntity
  8
0
 62
     1
370
    -2
100
AcDbLine
 10
8.619477846862809
 20
10.67056575833924
 30
0.0
 11
11.63420474743393
 21
10.67056575833924
 31
0.0
  0
SOLID
  5
1E0F
330
F6
100
AcDbEntity
  8
0
 62
     1
100
AcDbTrace
 10
15.595438166006
 20
10.71181575833924
 30
0.0
 11
15.595438166006
 21
10.62931575833924
 31
0.0
 12
15.842938166006
 22
10.67056575833924
 32
0.0
 13
15.842938166006
 23
10.67056575833924
 33
0.0
  0
SOLID
  5
1E10
330
F6
100
AcDbEntity
  8
0
 62
     1
100
AcDbTrace
 10
8.619477846862809
 20
10.71181575833924
 30
0.0
 11
8.619477846862809
 21
10.62931575833924
 31
0.0
 12
8.371977846862808
 22
10.67056575833924
 32
0.0
 13
8.371977846862808
 23
10.67056575833924
 33
0.0
  0
MTEXT
  5
1E11
330
F6
100
AcDbEntity
  8
0
 62
     4
100
AcDbMText
 10
12.14191833883912
 20
10.67056575833924
 30
0.0
 40
0.171875
 41
0.0
 71
     5
 72
     1
  1
\A1;7.471**
  7
STANDARD
 73
     1
 44
1.0
  0
POINT
  5
1E12
330
F6
100
AcDbEntity
  8
DEFPOINTS
 62
     0
100
AcDbPoint
 10
15.842938166006
 20
11.42823786426303
 30
0.0
  0
POINT
  5
1E13
330
F6
100
AcDbEntity
  8
DEFPOINTS
 62
     0
100
AcDbPoint
 10
8.371977846862808
 20
11.42823786426303
 30
0.0
  0
POINT
  5
1E14
330
F6
100
AcDbEntity
  8
DEFPOINTS
 62
     0
100
AcDbPoint
 10
8.371977846862808
 20
10.67056575833924
 30
0.0
  0
ENDBLK
  5
102
330
F6
100
AcDbEntity
  8
0
100
AcDbBlockEnd
  0
BLOCK
  5
10E
330
103
100
AcDbEntity
  8
0
100
AcDbBlockBegin
  2
*D9
 70
     1
 10
0.0
 20
0.0
 30
0.0
  3
*D9
  1

  0
LINE
  5
1E23
330
103
100
AcDbEntity
  8
0
 62
     1
370
    -2
100
AcDbLine
 10
16.24339550643436
 20
14.86672566063214
 30
0.0
 11
17.69484979322812
 21
14.86672566063214
 31
0.0
  0
LINE
  5
1E24
330
103
100
AcDbEntity
  8
0
 62
     1
370
    -2
100
AcDbLine
 10
16.24339550643436
 20
20.11661594265834
 30
0.0
 11
17.69484979322812
 21
20.11661594265834
 31
0.0
  0
LINE
  5
1E25
330
103
100
AcDbEntity
  8
0
 62
     1
370
    -2
100
AcDbLine
 10
17.55734979322812
 20
15.11422566063214
 30
0.0
 11
17.55734979322812
 21
17.31591409796853
 31
0.0
  0
LINE
  5
1E26
330
103
100
AcDbEntity
  8
0
 62
     1
370
    -2
100
AcDbLine
 10
17.55734979322812
 20
19.86911594265835
 30
0.0
 11
17.55734979322812
 21
17.73892356249786
 31
0.0
  0
SOLID
  5
1E27
330
103
100
AcDbEntity
  8
0
 62
     1
100
AcDbTrace
 10
17.51609979322812
 20
15.11422566063214
 30
0.0
 11
17.59859979322812
 21
15.11422566063214
 31
0.0
 12
17.55734979322812
 22
14.86672566063214
 32
0.0
 13
17.55734979322812
 23
14.86672566063214
 33
0.0
  0
SOLID
  5
1E28
330
103
100
AcDbEntity
  8
0
 62
     1
100
AcDbTrace
 10
17.51609979322812
 20
19.86911594265835
 30
0.0
 11
17.59859979322812
 21
19.86911594265835
 31
0.0
 12
17.55734979322812
 22
20.11661594265834
 32
0.0
 13
17.55734979322812
 23
20.11661594265834
 33
0.0
  0
MTEXT
  5
1E29
330
103
100
AcDbEntity
  8
0
 62
     4
100
AcDbMText
 10
17.55734979322812
 20
17.5274188302332
 30
0.0
 40
0.171875
 41
0.0
 71
     5
 72
     1
  1
\A1;5.250
  7
STANDARD
 73
     1
 44
1.0
  0
POINT
  5
1E2A
330
103
100
AcDbEntity
  8
DEFPOINTS
 62
     0
100
AcDbPoint
 10
16.15745800643436
 20
14.86672566063214
 30
0.0
  0
POINT
  5
1E2B
330
103
100
AcDbEntity
  8
DEFPOINTS
 62
     0
100
AcDbPoint
 10
16.15745800643436
 20
20.11661594265834
 30
0.0
  0
POINT
  5
1E2C
330
103
100
AcDbEntity
  8
DEFPOINTS
 62
     0
100
AcDbPoint
 10
17.55734979322812
 20
20.11661594265834
 30
0.0
  0
ENDBLK
  5
10F
330
103
100
AcDbEntity
  8
0
100
AcDbBlockEnd
  0
BLOCK
  5
147
330
13C
100
AcDbEntity
  8
0
100
AcDbBlockBegin
  2
*D10
 70
     1
 10
0.0
 20
0.0
 30
0.0
  3
*D10
  1

  0
LINE
  5
1E36
330
13C
100
AcDbEntity
  8
0
 62
     1
370
    -2
100
AcDbLine
 10
8.576371786720851
 20
17.57760830164522
 30
0.0
 11
8.576371786720828
 21
20.79133885690084
 31
0.0
  0
LINE
  5
1E37
330
13C
100
AcDbEntity
  8
0
 62
     1
370
    -2
100
AcDbLine
 10
15.63854422614788
 20
17.5776083016452
 30
0.0
 11
15.63854422614785
 21
20.79133885690089
 31
0.0
  0
LINE
  5
1E38
330
13C
100
AcDbEntity
  8
0
 62
     1
370
    -2
100
AcDbLine
 10
8.823871786720829
 20
20.65383885690085
 30
0.0
 11
11.65650024887611
 21
20.65383885690086
 31
0.0
  0
LINE
  5
1E39
330
13C
100
AcDbEntity
  8
0
 62
     1
370
    -2
100
AcDbLine
 10
15.39104422614785
 20
20.65383885690089
 30
0.0
 11
12.4808249419184
 21
20.65383885690087
 31
0.0
  0
SOLID
  5
1E3A
330
13C
100
AcDbEntity
  8
0
 62
     1
100
AcDbTrace
 10
8.823871786720829
 20
20.69508885690085
 30
0.0
 11
8.823871786720831
 21
20.61258885690084
 31
0.0
 12
8.576371786720828
 22
20.65383885690085
 32
0.0
 13
8.576371786720828
 23
20.65383885690085
 33
0.0
  0
SOLID
  5
1E3B
330
13C
100
AcDbEntity
  8
0
 62
     1
100
AcDbTrace
 10
15.39104422614785
 20
20.6950888569009
 30
0.0
 11
15.39104422614786
 21
20.61258885690089
 31
0.0
 12
15.63854422614785
 22
20.65383885690089
 32
0.0
 13
15.63854422614785
 23
20.65383885690089
 33
0.0
  0
MTEXT
  5
1E3C
330
13C
100
AcDbEntity
  8
0
 62
     4
100
AcDbMText
 10
12.06866259539725
 20
20.65383885690087
 30
0.0
 40
0.171875
 41
0.0
 71
     5
 72
     1
  1
\A1;7.062
  7
STANDARD
 73
     1
 44
1.0
  0
POINT
  5
1E3D
330
13C
100
AcDbEntity
  8
DEFPOINTS
 62
     0
100
AcDbPoint
 10
8.576371786720851
 20
17.49167080164522
 30
0.0
  0
POINT
  5
1E3E
330
13C
100
AcDbEntity
  8
DEFPOINTS
 62
     0
100
AcDbPoint
 10
15.63854422614788
 20
17.4916708016452
 30
0.0
  0
POINT
  5
1E3F
330
13C
100
AcDbEntity
  8
DEFPOINTS
 62
     0
100
AcDbPoint
 10
15.63854422614785
 20
20.65383885690089
 30
0.0
  0
ENDBLK
  5
148
330
13C
100
AcDbEntity
  8
0
100
AcDbBlockEnd
  0
BLOCK
  5
154
330
149
100
AcDbEntity
  8
0
100
AcDbBlockBegin
  2
*D11
 70
     1
 10
0.0
 20
0.0
 30
0.0
  3
*D11
  1

  0
LINE
  5
1D97
330
149
100
AcDbEntity
  8
0
 62
     1
370
    -2
100
AcDbLine
 10
8.88055926700186
 20
15.42917080164522
 30
0.0
 11
6.87968254509454
 21
15.42917080164522
 31
0.0
  0
LINE
  5
1D98
330
149
100
AcDbEntity
  8
0
 62
     1
370
    -2
100
AcDbLine
 10
8.880559267001874
 20
19.55417080164522
 30
0.0
 11
6.879682545094541
 21
19.55417080164523
 31
0.0
  0
LINE
  5
1D99
330
149
100
AcDbEntity
  8
0
 62
     1
370
    -2
100
AcDbLine
 10
7.017182545094541
 20
15.67667080164522
 30
0.0
 11
7.017182545094541
 21
17.3094921112758
 31
0.0
  0
LINE
  5
1D9A
330
149
100
AcDbEntity
  8
0
 62
     1
370
    -2
100
AcDbLine
 10
7.017182545094541
 20
19.30667080164523
 30
0.0
 11
7.017182545094541
 21
17.73250157580513
 31
0.0
  0
SOLID
  5
1D9B
330
149
100
AcDbEntity
  8
0
 62
     1
100
AcDbTrace
 10
6.975932545094541
 20
15.67667080164522
 30
0.0
 11
7.05843254509454
 21
15.67667080164522
 31
0.0
 12
7.017182545094541
 22
15.42917080164522
 32
0.0
 13
7.017182545094541
 23
15.42917080164522
 33
0.0
  0
SOLID
  5
1D9C
330
149
100
AcDbEntity
  8
0
 62
     1
100
AcDbTrace
 10
6.975932545094542
 20
19.30667080164523
 30
0.0
 11
7.058432545094541
 21
19.30667080164523
 31
0.0
 12
7.017182545094541
 22
19.55417080164523
 32
0.0
 13
7.017182545094541
 23
19.55417080164523
 33
0.0
  0
MTEXT
  5
1D9D
330
149
100
AcDbEntity
  8
0
 62
     4
100
AcDbMText
 10
7.017182545094538
 20
17.52099684354047
 30
0.0
 40
0.171875
 41
0.0
 71
     5
 72
     1
  1
\A1;4.125
  7
STANDARD
 73
     1
 44
1.0
  0
POINT
  5
1D9E
330
149
100
AcDbEntity
  8
DEFPOINTS
 62
     0
100
AcDbPoint
 10
8.96649676700186
 20
15.42917080164522
 30
0.0
  0
POINT
  5
1D9F
330
149
100
AcDbEntity
  8
DEFPOINTS
 62
     0
100
AcDbPoint
 10
8.966496767001874
 20
19.55417080164522
 30
0.0
  0
POINT
  5
1DA0
330
149
100
AcDbEntity
  8
DEFPOINTS
 62
     0
100
AcDbPoint
 10
7.017182545094541
 20
19.55417080164523
 30
0.0
  0
ENDBLK
  5
155
330
149
100
AcDbEntity
  8
0
100
AcDbBlockEnd
  0
BLOCK
  5
161
330
156
100
AcDbEntity
  8
0
100
AcDbBlockBegin
  2
*D12
 70
     1
 10
0.0
 20
0.0
 30
0.0
  3
*D12
  1

  0
LINE
  5
1B9D
330
156
100
AcDbEntity
  8
0
 62
     1
370
    -2
100
AcDbLine
 10
8.304333781657465
 20
13.10323786426303
 30
0.0
 11
6.807286278416627
 21
13.10323786426303
 31
0.0
  0
LINE
  5
1B9E
330
156
100
AcDbEntity
  8
0
 62
     1
370
    -2
100
AcDbLine
 10
7.431575365421263
 20
12.22823786426303
 30
0.0
 11
6.807286278416627
 21
12.22823786426303
 31
0.0
  0
LINE
  5
1B9F
330
156
100
AcDbEntity
  8
0
 62
     1
370
    -2
100
AcDbLine
 10
6.944786278416627
 20
13.35073786426303
 30
0.0
 11
6.944786278416627
 21
13.59823786426303
 31
0.0
  0
LINE
  5
1BA0
330
156
100
AcDbEntity
  8
0
 62
     1
370
    -2
100
AcDbLine
 10
6.944786278416627
 20
11.98073786426303
 30
0.0
 11
6.944786278416627
 21
11.73323786426303
 31
0.0
  0
SOLID
  5
1BA1
330
156
100
AcDbEntity
  8
0
 62
     1
100
AcDbTrace
 10
6.903536278416627
 20
13.35073786426303
 30
0.0
 11
6.986036278416626
 21
13.35073786426303
 31
0.0
 12
6.944786278416627
 22
13.10323786426303
 32
0.0
 13
6.944786278416627
 23
13.10323786426303
 33
0.0
  0
SOLID
  5
1BA2
330
156
100
AcDbEntity
  8
0
 62
     1
100
AcDbTrace
 10
6.903536278416627
 20
11.98073786426303
 30
0.0
 11
6.986036278416626
 21
11.98073786426303
 31
0.0
 12
6.944786278416627
 22
12.22823786426303
 32
0.0
 13
6.944786278416627
 23
12.22823786426303
 33
0.0
  0
MTEXT
  5
1BA3
330
156
100
AcDbEntity
  8
0
 62
     4
100
AcDbMText
 10
6.944786278416625
 20
12.65592137680868
 30
0.0
 40
0.171875
 41
0.0
 71
     5
 72
     1
  1
\A1;0.875
  7
STANDARD
 73
     1
 44
1.0
  0
POINT
  5
1BA4
330
156
100
AcDbEntity
  8
DEFPOINTS
 62
     0
100
AcDbPoint
 10
8.390271281657465
 20
13.10323786426303
 30
0.0
  0
POINT
  5
1BA5
330
156
100
AcDbEntity
  8
DEFPOINTS
 62
     0
100
AcDbPoint
 10
7.517512865421263
 20
12.22823786426303
 30
0.0
  0
POINT
  5
1BA6
330
156
100
AcDbEntity
  8
DEFPOINTS
 62
     0
100
AcDbPoint
 10
6.944786278416627
 20
12.22823786426303
 30
0.0
  0
ENDBLK
  5
162
330
156
100
AcDbEntity
  8
0
100
AcDbBlockEnd
  0
BLOCK
  5
16E
330
163
100
AcDbEntity
  8
0
100
AcDbBlockBegin
  2
*D13
 70
     1
 10
0.0
 20
0.0
 30
0.0
  3
*D13
  1

  0
LINE
  5
1BA7
330
163
100
AcDbEntity
  8
0
 62
     1
370
    -2
100
AcDbLine
 10
16.78334064744747
 20
12.22823786426302
 30
0.0
 11
17.461386336269
 21
12.22823786426302
 31
0.0
  0
LINE
  5
1BA8
330
163
100
AcDbEntity
  8
0
 62
     1
370
    -2
100
AcDbLine
 10
16.52668623206601
 20
12.90323786426303
 30
0.0
 11
17.461386336269
 21
12.90323786426303
 31
0.0
  0
LINE
  5
1BA9
330
163
100
AcDbEntity
  8
0
 62
     1
370
    -2
100
AcDbLine
 10
17.323886336269
 20
11.98073786426302
 30
0.0
 11
17.323886336269
 21
11.73323786426302
 31
0.0
  0
LINE
  5
1BAA
330
163
100
AcDbEntity
  8
0
 62
     1
370
    -2
100
AcDbLine
 10
17.323886336269
 20
13.15073786426303
 30
0.0
 11
17.323886336269
 21
13.39823786426302
 31
0.0
  0
SOLID
  5
1BAB
330
163
100
AcDbEntity
  8
0
 62
     1
100
AcDbTrace
 10
17.282636336269
 20
11.98073786426302
 30
0.0
 11
17.365136336269
 21
11.98073786426302
 31
0.0
 12
17.323886336269
 22
12.22823786426302
 32
0.0
 13
17.323886336269
 23
12.22823786426302
 33
0.0
  0
SOLID
  5
1BAC
330
163
100
AcDbEntity
  8
0
 62
     1
100
AcDbTrace
 10
17.282636336269
 20
13.15073786426303
 30
0.0
 11
17.365136336269
 21
13.15073786426303
 31
0.0
 12
17.323886336269
 22
12.90323786426303
 32
0.0
 13
17.323886336269
 23
12.90323786426303
 33
0.0
  0
MTEXT
  5
1BAD
330
163
100
AcDbEntity
  8
0
 62
     4
100
AcDbMText
 10
17.323886336269
 20
12.56573786426303
 30
0.0
 40
0.171875
 41
0.0
 71
     5
 72
     1
  1
\A1;0.675
  7
STANDARD
 73
     1
 44
1.0
  0
POINT
  5
1BAE
330
163
100
AcDbEntity
  8
DEFPOINTS
 62
     0
100
AcDbPoint
 10
16.69740314744747
 20
12.22823786426302
 30
0.0
  0
POINT
  5
1BAF
330
163
100
AcDbEntity
  8
DEFPOINTS
 62
     0
100
AcDbPoint
 10
16.44074873206601
 20
12.90323786426303
 30
0.0
  0
POINT
  5
1BB0
330
163
100
AcDbEntity
  8
DEFPOINTS
 62
     0
100
AcDbPoint
 10
17.323886336269
 20
12.90323786426303
 30
0.0
  0
ENDBLK
  5
16F
330
163
100
AcDbEntity
  8
0
100
AcDbBlockEnd
  0
BLOCK
  5
17B
330
170
100
AcDbEntity
  8
0
100
AcDbBlockBegin
  2
*D14
 70
     1
 10
0.0
 20
0.0
 30
0.0
  3
*D14
  1

  0
LINE
  5
1DED
330
170
100
AcDbEntity
  8
0
 62
     1
370
    -2
100
AcDbLine
 10
5.342421249285624
 20
15.51286983289458
 30
0.0
 11
5.342421249285624
 21
16.11903924323036
 31
0.0
  0
LINE
  5
1DEE
330
170
100
AcDbEntity
  8
0
 62
     1
370
    -2
100
AcDbLine
 10
5.462421249285629
 20
15.54610830164528
 30
0.0
 11
5.462421249285629
 21
16.11903924323036
 31
0.0
  0
LINE
  5
1DEF
330
170
100
AcDbEntity
  8
0
 62
     1
370
    -2
100
AcDbLine
 10
5.094921249285625
 20
15.98153924323036
 30
0.0
 11
4.847421249285624
 21
15.98153924323036
 31
0.0
  0
LINE
  5
1DF0
330
170
100
AcDbEntity
  8
0
 62
     1
370
    -2
100
AcDbLine
 10
5.709921249285629
 20
15.98153924323036
 30
0.0
 11
5.957421249285629
 21
15.98153924323036
 31
0.0
  0
SOLID
  5
1DF1
330
170
100
AcDbEntity
  8
0
 62
     1
100
AcDbTrace
 10
5.094921249285625
 20
16.02278924323036
 30
0.0
 11
5.094921249285625
 21
15.94028924323036
 31
0.0
 12
5.342421249285624
 22
15.98153924323036
 32
0.0
 13
5.342421249285624
 23
15.98153924323036
 33
0.0
  0
SOLID
  5
1DF2
330
170
100
AcDbEntity
  8
0
 62
     1
100
AcDbTrace
 10
5.709921249285629
 20
16.02278924323036
 30
0.0
 11
5.709921249285629
 21
15.94028924323036
 31
0.0
 12
5.462421249285629
 22
15.98153924323036
 32
0.0
 13
5.462421249285629
 23
15.98153924323036
 33
0.0
  0
MTEXT
  5
1DF3
330
170
100
AcDbEntity
  8
0
 62
     4
100
AcDbMText
 10
6.370873244510732
 20
15.98153924323036
 30
0.0
 40
0.171875
 41
0.0
 71
     5
 72
     1
  1
\A1;0.120
  7
STANDARD
 73
     1
 44
1.0
  0
POINT
  5
1DF4
330
170
100
AcDbEntity
  8
DEFPOINTS
 62
     0
100
AcDbPoint
 10
5.342421249285624
 20
15.42693233289458
 30
0.0
  0
POINT
  5
1DF5
330
170
100
AcDbEntity
  8
DEFPOINTS
 62
     0
100
AcDbPoint
 10
5.462421249285629
 20
15.46017080164528
 30
0.0
  0
POINT
  5
1DF6
330
170
100
AcDbEntity
  8
DEFPOINTS
 62
     0
100
AcDbPoint
 10
5.462421249285629
 20
15.98153924323036
 30
0.0
  0
ENDBLK
  5
17C
330
170
100
AcDbEntity
  8
0
100
AcDbBlockEnd
  0
BLOCK
  5
188
330
17D
100
AcDbEntity
  8
0
100
AcDbBlockBegin
  2
*D15
 70
     1
 10
0.0
 20
0.0
 30
0.0
  3
*D15
  1

  0
LINE
  5
1DD9
330
17D
100
AcDbEntity
  8
0
 62
     1
370
    -2
100
AcDbLine
 10
4.559421249285652
 20
16.06173330164525
 30
0.0
 11
4.559421249285652
 21
14.39402291881786
 31
0.0
  0
LINE
  5
1DDA
330
17D
100
AcDbEntity
  8
0
 62
     1
370
    -2
100
AcDbLine
 10
5.462421249285629
 20
15.04442672991197
 30
0.0
 11
5.462421249285629
 21
14.39402291881786
 31
0.0
  0
LINE
  5
1DDB
330
17D
100
AcDbEntity
  8
0
 62
     1
370
    -2
100
AcDbLine
 10
4.806921249285651
 20
14.53152291881786
 30
0.0
 11
5.214921249285629
 21
14.53152291881786
 31
0.0
  0
LINE
  5
1DDC
330
17D
100
AcDbEntity
  8
0
 62
     1
370
    -2
100
AcDbLine
 10
5.462421249285629
 20
14.53152291881786
 30
0.0
 11
5.709921249285629
 21
14.53152291881786
 31
0.0
  0
SOLID
  5
1DDD
330
17D
100
AcDbEntity
  8
0
 62
     1
100
AcDbTrace
 10
4.806921249285651
 20
14.57277291881786
 30
0.0
 11
4.806921249285651
 21
14.49027291881786
 31
0.0
 12
4.559421249285652
 22
14.53152291881786
 32
0.0
 13
4.559421249285652
 23
14.53152291881786
 33
0.0
  0
SOLID
  5
1DDE
330
17D
100
AcDbEntity
  8
0
 62
     1
100
AcDbTrace
 10
5.214921249285629
 20
14.57277291881786
 30
0.0
 11
5.214921249285629
 21
14.49027291881786
 31
0.0
 12
5.462421249285629
 22
14.53152291881786
 32
0.0
 13
5.462421249285629
 23
14.53152291881786
 33
0.0
  0
MTEXT
  5
1DDF
330
17D
100
AcDbEntity
  8
0
 62
     4
100
AcDbMText
 10
6.349120388098726
 20
14.53152291881786
 30
0.0
 40
0.171875
 41
0.0
 71
     5
 72
     1
  1
\A1;0.903\P(4 PLCS.)
  7
STANDARD
 73
     1
 44
1.0
  0
POINT
  5
1DE0
330
17D
100
AcDbEntity
  8
DEFPOINTS
 62
     0
100
AcDbPoint
 10
4.559421249285652
 20
16.14767080164525
 30
0.0
  0
POINT
  5
1DE1
330
17D
100
AcDbEntity
  8
DEFPOINTS
 62
     0
100
AcDbPoint
 10
5.462421249285629
 20
15.13036422991197
 30
0.0
  0
POINT
  5
1DE2
330
17D
100
AcDbEntity
  8
DEFPOINTS
 62
     0
100
AcDbPoint
 10
5.462421249285629
 20
14.53152291881786
 30
0.0
  0
ENDBLK
  5
189
330
17D
100
AcDbEntity
  8
0
100
AcDbBlockEnd
  0
BLOCK
  5
195
330
18A
100
AcDbEntity
  8
0
100
AcDbBlockBegin
  2
*D16
 70
     1
 10
0.0
 20
0.0
 30
0.0
  3
*D16
  1

  0
LINE
  5
1DF7
330
18A
100
AcDbEntity
  8
0
 62
     1
370
    -2
100
AcDbLine
 10
5.372421249285626
 20
15.21630172991197
 30
0.0
 11
5.372421249285626
 21
15.30019701264814
 31
0.0
  0
LINE
  5
1DF8
330
18A
100
AcDbEntity
  8
0
 62
     1
370
    -2
100
AcDbLine
 10
5.462421249285629
 20
15.21630172991197
 30
0.0
 11
5.462421249285629
 21
15.30019701264814
 31
0.0
  0
LINE
  5
1DF9
330
18A
100
AcDbEntity
  8
0
 62
     1
370
    -2
100
AcDbLine
 10
5.124921249285626
 20
15.16269701264814
 30
0.0
 11
4.877421249285625
 21
15.16269701264814
 31
0.0
  0
LINE
  5
1DFA
330
18A
100
AcDbEntity
  8
0
 62
     1
370
    -2
100
AcDbLine
 10
5.709921249285629
 20
15.16269701264814
 30
0.0
 11
5.957421249285629
 21
15.16269701264814
 31
0.0
  0
SOLID
  5
1DFB
330
18A
100
AcDbEntity
  8
0
 62
     1
100
AcDbTrace
 10
5.124921249285626
 20
15.20394701264814
 30
0.0
 11
5.124921249285626
 21
15.12144701264814
 31
0.0
 12
5.372421249285626
 22
15.16269701264814
 32
0.0
 13
5.372421249285626
 23
15.16269701264814
 33
0.0
  0
SOLID
  5
1DFC
330
18A
100
AcDbEntity
  8
0
 62
     1
100
AcDbTrace
 10
5.709921249285629
 20
15.20394701264814
 30
0.0
 11
5.709921249285629
 21
15.12144701264814
 31
0.0
 12
5.462421249285629
 22
15.16269701264814
 32
0.0
 13
5.462421249285629
 23
15.16269701264814
 33
0.0
  0
MTEXT
  5
1DFD
330
18A
100
AcDbEntity
  8
0
 62
     4
100
AcDbMText
 10
6.370873244510732
 20
15.16269701264814
 30
0.0
 40
0.171875
 41
0.0
 71
     5
 72
     1
  1
\A1;0.090
  7
STANDARD
 73
     1
 44
1.0
  0
POINT
  5
1DFE
330
18A
100
AcDbEntity
  8
DEFPOINTS
 62
     0
100
AcDbPoint
 10
5.372421249285626
 20
15.13036422991197
 30
0.0
  0
POINT
  5
1DFF
330
18A
100
AcDbEntity
  8
DEFPOINTS
 62
     0
100
AcDbPoint
 10
5.462421249285629
 20
15.13036422991197
 30
0.0
  0
POINT
  5
1E00
330
18A
100
AcDbEntity
  8
DEFPOINTS
 62
     0
100
AcDbPoint
 10
5.462421249285629
 20
15.16269701264814
 30
0.0
  0
ENDBLK
  5
196
330
18A
100
AcDbEntity
  8
0
100
AcDbBlockEnd
  0
BLOCK
  5
19E
330
197
100
AcDbEntity
  8
0
100
AcDbBlockBegin
  2
*D17
 70
     1
 10
0.0
 20
0.0
 30
0.0
  3
*D17
  1

  0
LINE
  5
1DAB
330
197
100
AcDbEntity
  8
0
 62
     1
370
    -2
100
AcDbLine
 10
16.97356899654951
 20
20.60030444137366
 30
0.0
 11
16.72606899654948
 21
20.60030444137366
 31
0.0
  0
LINE
  5
1DAC
330
197
100
AcDbEntity
  8
0
 62
     1
370
    -2
100
AcDbLine
 10
16.72606899654948
 20
20.60030444137366
 30
0.0
 11
15.58267249178418
 21
19.64533924111092
 31
0.0
  0
MTEXT
  5
1DAD
330
197
100
AcDbEntity
  8
0
 62
     4
100
AcDbMText
 10
17.6127681353626
 20
20.60030444137366
 30
0.0
 40
0.171875
 41
0.0
 71
     5
 72
     1
  1
\A1;R0.188\P(4 PLCS.)
  7
STANDARD
 73
     1
 44
1.0
  0
SOLID
  5
1DAE
330
197
100
AcDbEntity
  8
0
 62
     1
100
AcDbTrace
 10
15.55623001617462
 20
19.67699927875521
 30
0.0
 11
15.60911496739373
 21
19.61367920346663
 31
0.0
 12
15.39271226591842
 22
19.48668438745359
 32
0.0
 13
15.39271226591842
 23
19.48668438745359
 33
0.0
  0
POINT
  5
1DAF
330
197
100
AcDbEntity
  8
DEFPOINTS
 62
     0
100
AcDbPoint
 10
15.39271226591842
 20
19.48668438745359
 30
0.0
  0
POINT
  5
1DB0
330
197
100
AcDbEntity
  8
DEFPOINTS
 62
     0
100
AcDbPoint
 10
15.24841924586686
 20
19.36617080164519
 30
0.0
  0
ENDBLK
  5
19F
330
197
100
AcDbEntity
  8
0
100
AcDbBlockEnd
  0
BLOCK
  5
1D2
330
1C7
100
AcDbEntity
  8
0
100
AcDbBlockBegin
  2
*D18
 70
     1
 10
0.0
 20
0.0
 30
0.0
  3
*D18
  1

  0
LINE
  5
1B93
330
1C7
100
AcDbEntity
  8
0
 62
     1
370
    -2
100
AcDbLine
 10
16.03245800643435
 20
12.31417536426302
 30
0.0
 11
16.03245800643435
 21
12.64949067355642
 31
0.0
  0
LINE
  5
1B94
330
1C7
100
AcDbEntity
  8
0
 62
     1
370
    -2
100
AcDbLine
 10
8.182458006434355
 20
12.31417536426302
 30
0.0
 11
8.182458006434355
 21
12.64949067355642
 31
0.0
  0
LINE
  5
1B95
330
1C7
100
AcDbEntity
  8
0
 62
     1
370
    -2
100
AcDbLine
 10
15.78495800643435
 20
12.51199067355642
 30
0.0
 11
12.54976928840605
 21
12.51199067355642
 31
0.0
  0
LINE
  5
1B96
330
1C7
100
AcDbEntity
  8
0
 62
     1
370
    -2
100
AcDbLine
 10
8.429958006434356
 20
12.51199067355642
 30
0.0
 11
11.72427218745107
 21
12.51199067355642
 31
0.0
  0
SOLID
  5
1B97
330
1C7
100
AcDbEntity
  8
0
 62
     1
100
AcDbTrace
 10
15.78495800643435
 20
12.55324067355642
 30
0.0
 11
15.78495800643435
 21
12.47074067355642
 31
0.0
 12
16.03245800643435
 22
12.51199067355642
 32
0.0
 13
16.03245800643435
 23
12.51199067355642
 33
0.0
  0
SOLID
  5
1B98
330
1C7
100
AcDbEntity
  8
0
 62
     1
100
AcDbTrace
 10
8.429958006434356
 20
12.55324067355642
 30
0.0
 11
8.429958006434356
 21
12.47074067355642
 31
0.0
 12
8.182458006434355
 22
12.51199067355642
 32
0.0
 13
8.182458006434355
 23
12.51199067355642
 33
0.0
  0
MTEXT
  5
1B99
330
1C7
100
AcDbEntity
  8
0
 62
     4
100
AcDbMText
 10
12.13702073792856
 20
12.51199067355642
 30
0.0
 40
0.171875
 41
0.0
 71
     5
 72
     1
  1
\A1;7.850
  7
STANDARD
 73
     1
 44
1.0
  0
POINT
  5
1B9A
330
1C7
100
AcDbEntity
  8
DEFPOINTS
 62
     0
100
AcDbPoint
 10
16.03245800643435
 20
12.22823786426302
 30
0.0
  0
POINT
  5
1B9B
330
1C7
100
AcDbEntity
  8
DEFPOINTS
 62
     0
100
AcDbPoint
 10
8.182458006434355
 20
12.22823786426302
 30
0.0
  0
POINT
  5
1B9C
330
1C7
100
AcDbEntity
  8
DEFPOINTS
 62
     0
100
AcDbPoint
 10
8.182458006434355
 20
12.51199067355642
 30
0.0
  0
ENDBLK
  5
1D3
330
1C7
100
AcDbEntity
  8
0
100
AcDbBlockEnd
  0
BLOCK
  5
1FE
330
1F3
100
AcDbEntity
  8
0
100
AcDbBlockBegin
  2
*D19
 70
     1
 10
0.0
 20
0.0
 30
0.0
  3
*D19
  1

  0
LINE
  5
1CCF
330
1F3
100
AcDbEntity
  8
0
 62
     1
370
    -2
100
AcDbLine
 10
19.73811334904212
 20
12.14356960671812
 30
0.0
 11
19.73811334904212
 21
11.25229658183917
 31
0.0
  0
LINE
  5
1CD0
330
1F3
100
AcDbEntity
  8
0
 62
     1
370
    -2
100
AcDbLine
 10
27.66290307142847
 20
12.14356960671834
 30
0.0
 11
27.66290307142847
 21
11.25229658183917
 31
0.0
  0
LINE
  5
1CD1
330
1F3
100
AcDbEntity
  8
0
 62
     1
370
    -2
100
AcDbLine
 10
19.98561334904211
 20
11.38979658183917
 30
0.0
 11
23.28682173342766
 21
11.38979658183917
 31
0.0
  0
LINE
  5
1CD2
330
1F3
100
AcDbEntity
  8
0
 62
     1
370
    -2
100
AcDbLine
 10
27.41540307142848
 20
11.38979658183917
 30
0.0
 11
24.11419468704294
 21
11.38979658183917
 31
0.0
  0
SOLID
  5
1CD3
330
1F3
100
AcDbEntity
  8
0
 62
     1
100
AcDbTrace
 10
19.98561334904211
 20
11.43104658183917
 30
0.0
 11
19.98561334904211
 21
11.34854658183917
 31
0.0
 12
19.73811334904212
 22
11.38979658183917
 32
0.0
 13
19.73811334904212
 23
11.38979658183917
 33
0.0
  0
SOLID
  5
1CD4
330
1F3
100
AcDbEntity
  8
0
 62
     1
100
AcDbTrace
 10
27.41540307142848
 20
11.43104658183917
 30
0.0
 11
27.41540307142848
 21
11.34854658183917
 31
0.0
 12
27.66290307142847
 22
11.38979658183917
 32
0.0
 13
27.66290307142847
 23
11.38979658183917
 33
0.0
  0
MTEXT
  5
1CD5
330
1F3
100
AcDbEntity
  8
0
 62
     4
100
AcDbMText
 10
23.7005082102353
 20
11.38979658183917
 30
0.0
 40
0.171875
 41
0.0
 71
     5
 72
     1
  1
\A1;7.925
  7
STANDARD
 73
     1
 44
1.0
  0
POINT
  5
1CD6
330
1F3
100
AcDbEntity
  8
DEFPOINTS
 62
     0
100
AcDbPoint
 10
19.73811334904212
 20
12.22950710671812
 30
0.0
  0
POINT
  5
1CD7
330
1F3
100
AcDbEntity
  8
DEFPOINTS
 62
     0
100
AcDbPoint
 10
27.66290307142847
 20
12.22950710671835
 30
0.0
  0
POINT
  5
1CD8
330
1F3
100
AcDbEntity
  8
DEFPOINTS
 62
     0
100
AcDbPoint
 10
27.66290307142847
 20
11.38979658183917
 30
0.0
  0
ENDBLK
  5
1FF
330
1F3
100
AcDbEntity
  8
0
100
AcDbBlockEnd
  0
BLOCK
  5
20B
330
200
100
AcDbEntity
  8
0
100
AcDbBlockBegin
  2
*D20
 70
     1
 10
0.0
 20
0.0
 30
0.0
  3
*D20
  1

  0
LINE
  5
1CED
330
200
100
AcDbEntity
  8
0
 62
     1
370
    -2
100
AcDbLine
 10
19.79621886771241
 20
12.64250710671835
 30
0.0
 11
19.14805519740202
 21
12.64250710671835
 31
0.0
  0
LINE
  5
1CEE
330
200
100
AcDbEntity
  8
0
 62
     1
370
    -2
100
AcDbLine
 10
19.79506683342715
 20
11.88250710671835
 30
0.0
 11
19.14805519740202
 21
11.88250710671835
 31
0.0
  0
LINE
  5
1CEF
330
200
100
AcDbEntity
  8
0
 62
     1
370
    -2
100
AcDbLine
 10
19.28555519740202
 20
12.89000710671835
 30
0.0
 11
19.28555519740202
 21
13.13750710671835
 31
0.0
  0
LINE
  5
1CF0
330
200
100
AcDbEntity
  8
0
 62
     1
370
    -2
100
AcDbLine
 10
19.28555519740202
 20
11.63500710671835
 30
0.0
 11
19.28555519740202
 21
11.38750710671835
 31
0.0
  0
SOLID
  5
1CF1
330
200
100
AcDbEntity
  8
0
 62
     1
100
AcDbTrace
 10
19.24430519740202
 20
12.89000710671835
 30
0.0
 11
19.32680519740202
 21
12.89000710671835
 31
0.0
 12
19.28555519740202
 22
12.64250710671835
 32
0.0
 13
19.28555519740202
 23
12.64250710671835
 33
0.0
  0
SOLID
  5
1CF2
330
200
100
AcDbEntity
  8
0
 62
     1
100
AcDbTrace
 10
19.24430519740202
 20
11.63500710671835
 30
0.0
 11
19.32680519740202
 21
11.63500710671835
 31
0.0
 12
19.28555519740202
 22
11.88250710671835
 32
0.0
 13
19.28555519740202
 23
11.88250710671835
 33
0.0
  0
MTEXT
  5
1CF3
330
200
100
AcDbEntity
  8
0
 62
     4
100
AcDbMText
 10
19.28555519740202
 20
12.26250710671835
 30
0.0
 40
0.171875
 41
0.0
 71
     5
 72
     1
  1
\A1;0.760
  7
STANDARD
 73
     1
 44
1.0
  0
POINT
  5
1CF4
330
200
100
AcDbEntity
  8
DEFPOINTS
 62
     0
100
AcDbPoint
 10
19.88215636771241
 20
12.64250710671835
 30
0.0
  0
POINT
  5
1CF5
330
200
100
AcDbEntity
  8
DEFPOINTS
 62
     0
100
AcDbPoint
 10
19.88100433342715
 20
11.88250710671835
 30
0.0
  0
POINT
  5
1CF6
330
200
100
AcDbEntity
  8
DEFPOINTS
 62
     0
100
AcDbPoint
 10
19.28555519740202
 20
11.88250710671835
 30
0.0
  0
ENDBLK
  5
20C
330
200
100
AcDbEntity
  8
0
100
AcDbBlockEnd
  0
BLOCK
  5
218
330
20D
100
AcDbEntity
  8
0
100
AcDbBlockBegin
  2
*D21
 70
     1
 10
0.0
 20
0.0
 30
0.0
  3
*D21
  1

  0
LINE
  5
1CE3
330
20D
100
AcDbEntity
  8
0
 62
     1
370
    -2
100
AcDbLine
 10
19.79506683342715
 20
11.81250710671835
 30
0.0
 11
18.35087477425524
 21
11.81250710671835
 31
0.0
  0
LINE
  5
1CE4
330
20D
100
AcDbEntity
  8
0
 62
     1
370
    -2
100
AcDbLine
 10
19.79621886771241
 20
12.71250710671835
 30
0.0
 11
18.35087477425524
 21
12.71250710671835
 31
0.0
  0
LINE
  5
1CE5
330
20D
100
AcDbEntity
  8
0
 62
     1
370
    -2
100
AcDbLine
 10
18.48837477425524
 20
11.56500710671835
 30
0.0
 11
18.48837477425524
 21
11.31750710671835
 31
0.0
  0
LINE
  5
1CE6
330
20D
100
AcDbEntity
  8
0
 62
     1
370
    -2
100
AcDbLine
 10
18.48837477425524
 20
12.96000710671835
 30
0.0
 11
18.48837477425524
 21
13.20750710671835
 31
0.0
  0
SOLID
  5
1CE7
330
20D
100
AcDbEntity
  8
0
 62
     1
100
AcDbTrace
 10
18.44712477425524
 20
11.56500710671835
 30
0.0
 11
18.52962477425524
 21
11.56500710671835
 31
0.0
 12
18.48837477425524
 22
11.81250710671835
 32
0.0
 13
18.48837477425524
 23
11.81250710671835
 33
0.0
  0
SOLID
  5
1CE8
330
20D
100
AcDbEntity
  8
0
 62
     1
100
AcDbTrace
 10
18.44712477425524
 20
12.96000710671835
 30
0.0
 11
18.52962477425524
 21
12.96000710671835
 31
0.0
 12
18.48837477425524
 22
12.71250710671835
 32
0.0
 13
18.48837477425524
 23
12.71250710671835
 33
0.0
  0
MTEXT
  5
1CE9
330
20D
100
AcDbEntity
  8
0
 62
     4
100
AcDbMText
 10
18.48837477425523
 20
12.28015210509189
 30
0.0
 40
0.171875
 41
0.0
 71
     5
 72
     1
  1
\A1;0.900
  7
STANDARD
 73
     1
 44
1.0
  0
POINT
  5
1CEA
330
20D
100
AcDbEntity
  8
DEFPOINTS
 62
     0
100
AcDbPoint
 10
19.88100433342715
 20
11.81250710671835
 30
0.0
  0
POINT
  5
1CEB
330
20D
100
AcDbEntity
  8
DEFPOINTS
 62
     0
100
AcDbPoint
 10
19.88215636771241
 20
12.71250710671835
 30
0.0
  0
POINT
  5
1CEC
330
20D
100
AcDbEntity
  8
DEFPOINTS
 62
     0
100
AcDbPoint
 10
18.48837477425524
 20
12.71250710671835
 30
0.0
  0
ENDBLK
  5
219
330
20D
100
AcDbEntity
  8
0
100
AcDbBlockEnd
  0
BLOCK
  5
226
330
21A
100
AcDbEntity
  8
0
100
AcDbBlockBegin
  2
*D22
 70
     1
 10
0.0
 20
0.0
 30
0.0
  3
*D22
  1

  0
LINE
  5
1CF7
330
21A
100
AcDbEntity
  8
0
 62
     1
370
    -2
100
AcDbLine
 10
19.65823988578083
 20
14.060511492058
 30
0.0
 11
19.33094902866999
 21
14.060511492058
 31
0.0
  0
LINE
  5
1CF8
330
21A
100
AcDbEntity
  8
0
 62
     1
370
    -2
100
AcDbLine
 10
19.65941807278053
 20
14.105511492058
 30
0.0
 11
19.33094902866999
 21
14.105511492058
 31
0.0
  0
LINE
  5
1CF9
330
21A
100
AcDbEntity
  8
0
 62
     1
370
    -2
100
AcDbLine
 10
19.46844902866999
 20
13.813011492058
 30
0.0
 11
19.46844902866999
 21
13.565511492058
 31
0.0
  0
LINE
  5
1CFA
330
21A
100
AcDbEntity
  8
0
 62
     1
370
    -2
100
AcDbLine
 10
19.46844902866999
 20
14.353011492058
 30
0.0
 11
19.46844902866999
 21
14.60051149205799
 31
0.0
  0
LINE
  5
1CFB
330
21A
100
AcDbEntity
  8
0
 62
     1
370
    -2
100
AcDbLine
 10
19.46844902866999
 20
14.60051149205799
 30
0.0
 11
19.71594902866999
 21
14.60051149205799
 31
0.0
  0
SOLID
  5
1CFC
330
21A
100
AcDbEntity
  8
0
 62
     1
100
AcDbTrace
 10
19.42719902866999
 20
13.813011492058
 30
0.0
 11
19.50969902866999
 21
13.813011492058
 31
0.0
 12
19.46844902866999
 22
14.060511492058
 32
0.0
 13
19.46844902866999
 23
14.060511492058
 33
0.0
  0
SOLID
  5
1CFD
330
21A
100
AcDbEntity
  8
0
 62
     1
100
AcDbTrace
 10
19.42719902866999
 20
14.353011492058
 30
0.0
 11
19.50969902866999
 21
14.353011492058
 31
0.0
 12
19.46844902866999
 22
14.105511492058
 32
0.0
 13
19.46844902866999
 23
14.105511492058
 33
0.0
  0
MTEXT
  5
1CFE
330
21A
100
AcDbEntity
  8
0
 62
     4
100
AcDbMText
 10
20.13033895022525
 20
14.600511492058
 30
0.0
 40
0.171875
 41
0.0
 71
     5
 72
     1
  1
\A1;0.045
  7
STANDARD
 73
     1
 44
1.0
  0
POINT
  5
1CFF
330
21A
100
AcDbEntity
  8
DEFPOINTS
 62
     0
100
AcDbPoint
 10
19.74417738578083
 20
14.060511492058
 30
0.0
  0
POINT
  5
1D00
330
21A
100
AcDbEntity
  8
DEFPOINTS
 62
     0
100
AcDbPoint
 10
19.74535557278052
 20
14.105511492058
 30
0.0
  0
POINT
  5
1D01
330
21A
100
AcDbEntity
  8
DEFPOINTS
 62
     0
100
AcDbPoint
 10
19.46844902866999
 20
14.105511492058
 30
0.0
  0
ENDBLK
  5
227
330
21A
100
AcDbEntity
  8
0
100
AcDbBlockEnd
  0
BLOCK
  5
22F
330
228
100
AcDbEntity
  8
0
100
AcDbBlockBegin
  2
*D23
 70
     1
 10
0.0
 20
0.0
 30
0.0
  3
*D23
  1

  0
LINE
  5
1D02
330
228
100
AcDbEntity
  8
0
 62
     1
370
    -2
100
AcDbLine
 10
28.07720130606843
 20
11.39843683255058
 30
0.0
 11
27.82970130606843
 21
11.39843683255058
 31
0.0
  0
LINE
  5
1D03
330
228
100
AcDbEntity
  8
0
 62
     1
370
    -2
100
AcDbLine
 10
27.82970130606843
 20
11.39843683255058
 30
0.0
 11
27.70861428915106
 21
11.61429369330338
 31
0.0
  0
MTEXT
  5
1D04
330
228
100
AcDbEntity
  8
0
 62
     4
100
AcDbMText
 10
28.71640044488152
 20
11.39843683255058
 30
0.0
 40
0.171875
 41
0.0
 71
     5
 72
     1
  1
\A1;R0.138\P(4 PLCS.)
  7
STANDARD
 73
     1
 44
1.0
  0
SOLID
  5
1D05
330
228
100
AcDbEntity
  8
0
 62
     1
100
AcDbTrace
 10
27.74459043260987
 20
11.63447486278961
 30
0.0
 11
27.67263814569226
 21
11.59411252381715
 31
0.0
 12
27.5875272722337
 22
11.83015055405618
 32
0.0
 13
27.5875272722337
 23
11.83015055405618
 33
0.0
  0
POINT
  5
1D06
330
228
100
AcDbEntity
  8
DEFPOINTS
 62
     0
100
AcDbPoint
 10
27.5875272722337
 20
11.83015055405618
 30
0.0
  0
POINT
  5
1D07
330
228
100
AcDbEntity
  8
DEFPOINTS
 62
     0
100
AcDbPoint
 10
27.52001208704341
 20
11.95050710671835
 30
0.0
  0
ENDBLK
  5
230
330
228
100
AcDbEntity
  8
0
100
AcDbBlockEnd
  0
BLOCK
  5
238
330
231
100
AcDbEntity
  8
0
100
AcDbBlockBegin
  2
*D24
 70
     1
 10
0.0
 20
0.0
 30
0.0
  3
*D24
  1

  0
LINE
  5
1D13
330
231
100
AcDbEntity
  8
0
 62
     1
370
    -2
100
AcDbLine
 10
28.00770609146976
 20
13.0831534372843
 30
0.0
 11
27.76020609146976
 21
13.08315343728431
 31
0.0
  0
LINE
  5
1D14
330
231
100
AcDbEntity
  8
0
 62
     1
370
    -2
100
AcDbLine
 10
27.76020609146976
 20
13.08315343728431
 30
0.0
 11
27.65410814372355
 21
12.85954781239074
 31
0.0
  0
MTEXT
  5
1D15
330
231
100
AcDbEntity
  8
0
 62
     4
100
AcDbMText
 10
28.64690523028286
 20
13.0831534372843
 30
0.0
 40
0.171875
 41
0.0
 71
     5
 72
     1
  1
\A1;R0.068\P(4 PLCS.)
  7
STANDARD
 73
     1
 44
1.0
  0
SOLID
  5
1D16
330
231
100
AcDbEntity
  8
0
 62
     1
100
AcDbTrace
 10
27.61684053957461
 20
12.87723080368178
 30
0.0
 11
27.69137574787247
 21
12.8418648210997
 31
0.0
 12
27.54801019597732
 22
12.63594218749718
 32
0.0
 13
27.54801019597732
 23
12.63594218749718
 33
0.0
  0
POINT
  5
1D17
330
231
100
AcDbEntity
  8
DEFPOINTS
 62
     0
100
AcDbPoint
 10
27.54801019597732
 20
12.63594218749718
 30
0.0
  0
POINT
  5
1D18
330
231
100
AcDbEntity
  8
DEFPOINTS
 62
     0
100
AcDbPoint
 10
27.51886005275816
 20
12.57450710671834
 30
0.0
  0
ENDBLK
  5
239
330
231
100
AcDbEntity
  8
0
100
AcDbBlockEnd
  0
BLOCK
  5
246
330
23A
100
AcDbEntity
  8
0
100
AcDbBlockBegin
  2
*D25
 70
     1
 10
0.0
 20
0.0
 30
0.0
  3
*D25
  1

  0
LINE
  5
1D08
330
23A
100
AcDbEntity
  8
0
 62
     1
370
    -2
100
AcDbLine
 10
27.67503263526913
 20
14.01711466046523
 30
0.0
 11
28.33294920350935
 21
14.01711466046523
 31
0.0
  0
LINE
  5
1D09
330
23A
100
AcDbEntity
  8
0
 62
     1
370
    -2
100
AcDbLine
 10
27.74159834769007
 20
14.105511492058
 30
0.0
 11
28.33294920350935
 21
14.10551149205799
 31
0.0
  0
LINE
  5
1D0A
330
23A
100
AcDbEntity
  8
0
 62
     1
370
    -2
100
AcDbLine
 10
28.19544920350935
 20
14.35301149205799
 30
0.0
 11
28.19544920350935
 21
14.60051149205799
 31
0.0
  0
LINE
  5
1D0B
330
23A
100
AcDbEntity
  8
0
 62
     1
370
    -2
100
AcDbLine
 10
28.19544920350935
 20
13.76961466046523
 30
0.0
 11
28.19544920350935
 21
13.52211466046523
 31
0.0
  0
LINE
  5
1D0C
330
23A
100
AcDbEntity
  8
0
 62
     1
370
    -2
100
AcDbLine
 10
28.19544920350935
 20
13.52211466046523
 30
0.0
 11
27.94794920350935
 21
13.52211466046524
 31
0.0
  0
SOLID
  5
1D0D
330
23A
100
AcDbEntity
  8
0
 62
     1
100
AcDbTrace
 10
28.15419920350935
 20
14.35301149205799
 30
0.0
 11
28.23669920350935
 21
14.35301149205799
 31
0.0
 12
28.19544920350935
 22
14.10551149205799
 32
0.0
 13
28.19544920350935
 23
14.10551149205799
 33
0.0
  0
SOLID
  5
1D0E
330
23A
100
AcDbEntity
  8
0
 62
     1
100
AcDbTrace
 10
28.15419920350935
 20
13.76961466046523
 30
0.0
 11
28.23669920350935
 21
13.76961466046523
 31
0.0
 12
28.19544920350935
 22
14.01711466046523
 32
0.0
 13
28.19544920350935
 23
14.01711466046523
 33
0.0
  0
MTEXT
  5
1D0F
330
23A
100
AcDbEntity
  8
0
 62
     4
100
AcDbMText
 10
27.53402824511917
 20
13.52211466046524
 30
0.0
 40
0.171875
 41
0.0
 71
     5
 72
     1
  1
\A1;0.088
  7
STANDARD
 73
     1
 44
1.0
  0
POINT
  5
1D10
330
23A
100
AcDbEntity
  8
DEFPOINTS
 62
     0
100
AcDbPoint
 10
27.58909513526913
 20
14.01711466046523
 30
0.0
  0
POINT
  5
1D11
330
23A
100
AcDbEntity
  8
DEFPOINTS
 62
     0
100
AcDbPoint
 10
27.65566084769007
 20
14.105511492058
 30
0.0
  0
POINT
  5
1D12
330
23A
100
AcDbEntity
  8
DEFPOINTS
 62
     0
100
AcDbPoint
 10
28.19544920350935
 20
14.10551149205799
 30
0.0
  0
ENDBLK
  5
247
330
23A
100
AcDbEntity
  8
0
100
AcDbBlockEnd
  0
BLOCK
  5
253
330
248
100
AcDbEntity
  8
0
100
AcDbBlockBegin
  2
*D26
 70
     1
 10
0.0
 20
0.0
 30
0.0
  3
*D26
  1

  0
LINE
  5
1BE3
330
248
100
AcDbEntity
  8
0
 62
     1
370
    -2
100
AcDbLine
 10
7.331575365421333
 20
6.557938710848223
 30
0.0
 11
6.858683392052576
 21
6.557938710848223
 31
0.0
  0
LINE
  5
1BE4
330
248
100
AcDbEntity
  8
0
 62
     1
370
    -2
100
AcDbLine
 10
9.211520506434428
 20
8.21793871084821
 30
0.0
 11
6.858683392052576
 21
8.21793871084821
 31
0.0
  0
LINE
  5
1BE5
330
248
100
AcDbEntity
  8
0
 62
     1
370
    -2
100
AcDbLine
 10
6.996183392052576
 20
6.805438710848223
 30
0.0
 11
6.996183392052576
 21
7.174836832148685
 31
0.0
  0
LINE
  5
1BE6
330
248
100
AcDbEntity
  8
0
 62
     1
370
    -2
100
AcDbLine
 10
6.996183392052576
 20
7.970438710848211
 30
0.0
 11
6.996183392052576
 21
7.597846296678016
 31
0.0
  0
SOLID
  5
1BE7
330
248
100
AcDbEntity
  8
0
 62
     1
100
AcDbTrace
 10
6.954933392052576
 20
6.805438710848223
 30
0.0
 11
7.037433392052576
 21
6.805438710848223
 31
0.0
 12
6.996183392052576
 22
6.557938710848223
 32
0.0
 13
6.996183392052576
 23
6.557938710848223
 33
0.0
  0
SOLID
  5
1BE8
330
248
100
AcDbEntity
  8
0
 62
     1
100
AcDbTrace
 10
6.954933392052576
 20
7.970438710848211
 30
0.0
 11
7.037433392052576
 21
7.970438710848211
 31
0.0
 12
6.996183392052576
 22
8.21793871084821
 32
0.0
 13
6.996183392052576
 23
8.21793871084821
 33
0.0
  0
MTEXT
  5
1BE9
330
248
100
AcDbEntity
  8
0
 62
     4
100
AcDbMText
 10
6.996183392052575
 20
7.386341564413353
 30
0.0
 40
0.171875
 41
0.0
 71
     5
 72
     1
  1
\A1;1.660
  7
STANDARD
 73
     1
 44
1.0
  0
POINT
  5
1BEA
330
248
100
AcDbEntity
  8
DEFPOINTS
 62
     0
100
AcDbPoint
 10
7.417512865421333
 20
6.557938710848223
 30
0.0
  0
POINT
  5
1BEB
330
248
100
AcDbEntity
  8
DEFPOINTS
 62
     0
100
AcDbPoint
 10
9.297458006434428
 20
8.21793871084821
 30
0.0
  0
POINT
  5
1BEC
330
248
100
AcDbEntity
  8
DEFPOINTS
 62
     0
100
AcDbPoint
 10
6.996183392052576
 20
8.21793871084821
 30
0.0
  0
ENDBLK
  5
254
330
248
100
AcDbEntity
  8
0
100
AcDbBlockEnd
  0
BLOCK
  5
260
330
255
100
AcDbEntity
  8
0
100
AcDbBlockBegin
  2
*D27
 70
     1
 10
0.0
 20
0.0
 30
0.0
  3
*D27
  1

  0
LINE
  5
1BD9
330
255
100
AcDbEntity
  8
0
 62
     1
370
    -2
100
AcDbLine
 10
7.331575365421333
 20
6.557938710848223
 30
0.0
 11
6.858683392052577
 21
6.557938710848223
 31
0.0
  0
LINE
  5
1BDA
330
255
100
AcDbEntity
  8
0
 62
     1
370
    -2
100
AcDbLine
 10
9.211520506434428
 20
4.917938710848207
 30
0.0
 11
6.858683392052576
 21
4.917938710848207
 31
0.0
  0
LINE
  5
1BDB
330
255
100
AcDbEntity
  8
0
 62
     1
370
    -2
100
AcDbLine
 10
6.996183392052577
 20
6.310438710848224
 30
0.0
 11
6.996183392052577
 21
6.020592849120912
 31
0.0
  0
LINE
  5
1BDC
330
255
100
AcDbEntity
  8
0
 62
     1
370
    -2
100
AcDbLine
 10
6.996183392052576
 20
5.165438710848206
 30
0.0
 11
6.996183392052576
 21
5.597583384591581
 31
0.0
  0
SOLID
  5
1BDD
330
255
100
AcDbEntity
  8
0
 62
     1
100
AcDbTrace
 10
6.954933392052577
 20
6.310438710848224
 30
0.0
 11
7.037433392052577
 21
6.310438710848224
 31
0.0
 12
6.996183392052577
 22
6.557938710848223
 32
0.0
 13
6.996183392052577
 23
6.557938710848223
 33
0.0
  0
SOLID
  5
1BDE
330
255
100
AcDbEntity
  8
0
 62
     1
100
AcDbTrace
 10
6.954933392052576
 20
5.165438710848206
 30
0.0
 11
7.037433392052576
 21
5.165438710848206
 31
0.0
 12
6.996183392052576
 22
4.917938710848207
 32
0.0
 13
6.996183392052576
 23
4.917938710848207
 33
0.0
  0
MTEXT
  5
1BDF
330
255
100
AcDbEntity
  8
0
 62
     4
100
AcDbMText
 10
6.996183392052575
 20
5.809088116856249
 30
0.0
 40
0.171875
 41
0.0
 71
     5
 72
     1
  1
\A1;1.640
  7
STANDARD
 73
     1
 44
1.0
  0
POINT
  5
1BE0
330
255
100
AcDbEntity
  8
DEFPOINTS
 62
     0
100
AcDbPoint
 10
7.417512865421333
 20
6.557938710848223
 30
0.0
  0
POINT
  5
1BE1
330
255
100
AcDbEntity
  8
DEFPOINTS
 62
     0
100
AcDbPoint
 10
9.297458006434428
 20
4.917938710848207
 30
0.0
  0
POINT
  5
1BE2
330
255
100
AcDbEntity
  8
DEFPOINTS
 62
     0
100
AcDbPoint
 10
6.996183392052576
 20
4.917938710848207
 30
0.0
  0
ENDBLK
  5
261
330
255
100
AcDbEntity
  8
0
100
AcDbBlockEnd
  0
BLOCK
  5
26D
330
262
100
AcDbEntity
  8
0
100
AcDbBlockBegin
  2
*D28
 70
     1
 10
0.0
 20
0.0
 30
0.0
  3
*D28
  1

  0
LINE
  5
1E19
330
262
100
AcDbEntity
  8
0
 62
     1
370
    -2
100
AcDbLine
 10
16.28839550643442
 20
5.307938710848177
 30
0.0
 11
18.31354377491493
 21
5.307938710848176
 31
0.0
  0
LINE
  5
1E1A
330
262
100
AcDbEntity
  8
0
 62
     1
370
    -2
100
AcDbLine
 10
16.28839550643442
 20
7.80793871084818
 30
0.0
 11
18.31354377491493
 21
7.807938710848179
 31
0.0
  0
LINE
  5
1E1B
330
262
100
AcDbEntity
  8
0
 62
     1
370
    -2
100
AcDbLine
 10
18.17604377491493
 20
5.555438710848176
 30
0.0
 11
18.17604377491493
 21
6.416553751380231
 31
0.0
  0
LINE
  5
1E1C
330
262
100
AcDbEntity
  8
0
 62
     1
370
    -2
100
AcDbLine
 10
18.17604377491493
 20
7.560438710848179
 30
0.0
 11
18.17604377491493
 21
6.839563215909562
 31
0.0
  0
SOLID
  5
1E1D
330
262
100
AcDbEntity
  8
0
 62
     1
100
AcDbTrace
 10
18.13479377491493
 20
5.555438710848176
 30
0.0
 11
18.21729377491493
 21
5.555438710848176
 31
0.0
 12
18.17604377491493
 22
5.307938710848176
 32
0.0
 13
18.17604377491493
 23
5.307938710848176
 33
0.0
  0
SOLID
  5
1E1E
330
262
100
AcDbEntity
  8
0
 62
     1
100
AcDbTrace
 10
18.13479377491493
 20
7.560438710848179
 30
0.0
 11
18.21729377491493
 21
7.560438710848179
 31
0.0
 12
18.17604377491493
 22
7.807938710848179
 32
0.0
 13
18.17604377491493
 23
7.807938710848179
 33
0.0
  0
MTEXT
  5
1E1F
330
262
100
AcDbEntity
  8
0
 62
     4
100
AcDbMText
 10
18.17604377491493
 20
6.6280584836449
 30
0.0
 40
0.171875
 41
0.0
 71
     5
 72
     1
  1
\A1;2.500
  7
STANDARD
 73
     1
 44
1.0
  0
POINT
  5
1E20
330
262
100
AcDbEntity
  8
DEFPOINTS
 62
     0
100
AcDbPoint
 10
16.20245800643442
 20
5.307938710848177
 30
0.0
  0
POINT
  5
1E21
330
262
100
AcDbEntity
  8
DEFPOINTS
 62
     0
100
AcDbPoint
 10
16.20245800643442
 20
7.80793871084818
 30
0.0
  0
POINT
  5
1E22
330
262
100
AcDbEntity
  8
DEFPOINTS
 62
     0
100
AcDbPoint
 10
18.17604377491493
 20
7.807938710848179
 30
0.0
  0
ENDBLK
  5
26E
330
262
100
AcDbEntity
  8
0
100
AcDbBlockEnd
  0
BLOCK
  5
27A
330
26F
100
AcDbEntity
  8
0
100
AcDbBlockBegin
  2
*D29
 70
     1
 10
0.0
 20
0.0
 30
0.0
  3
*D29
  1

  0
LINE
  5
1BBB
330
26F
100
AcDbEntity
  8
0
 62
     1
370
    -2
100
AcDbLine
 10
14.88745800643441
 20
4.802001210848184
 30
0.0
 11
14.88745800643441
 21
2.824060690611476
 31
0.0
  0
LINE
  5
1BBC
330
26F
100
AcDbEntity
  8
0
 62
     1
370
    -2
100
AcDbLine
 10
9.327458006434415
 20
4.802001210848206
 30
0.0
 11
9.327458006434415
 21
2.824060690611476
 31
0.0
  0
LINE
  5
1BBD
330
26F
100
AcDbEntity
  8
0
 62
     1
370
    -2
100
AcDbLine
 10
14.63995800643441
 20
2.961560690611476
 30
0.0
 11
12.55580089413161
 21
2.961560690611476
 31
0.0
  0
LINE
  5
1BBE
330
26F
100
AcDbEntity
  8
0
 62
     1
370
    -2
100
AcDbLine
 10
9.574958006434416
 20
2.961560690611476
 30
0.0
 11
11.7288969036814
 21
2.961560690611476
 31
0.0
  0
SOLID
  5
1BBF
330
26F
100
AcDbEntity
  8
0
 62
     1
100
AcDbTrace
 10
14.63995800643441
 20
3.002810690611476
 30
0.0
 11
14.63995800643441
 21
2.920310690611477
 31
0.0
 12
14.88745800643441
 22
2.961560690611476
 32
0.0
 13
14.88745800643441
 23
2.961560690611476
 33
0.0
  0
SOLID
  5
1BC0
330
26F
100
AcDbEntity
  8
0
 62
     1
100
AcDbTrace
 10
9.574958006434416
 20
3.002810690611476
 30
0.0
 11
9.574958006434416
 21
2.920310690611477
 31
0.0
 12
9.327458006434415
 22
2.961560690611476
 32
0.0
 13
9.327458006434415
 23
2.961560690611476
 33
0.0
  0
MTEXT
  5
1BC1
330
26F
100
AcDbEntity
  8
0
 62
     4
100
AcDbMText
 10
12.1423488989065
 20
2.961560690611476
 30
0.0
 40
0.171875
 41
0.0
 71
     5
 72
     1
  1
\A1;5.560
  7
STANDARD
 73
     1
 44
1.0
  0
POINT
  5
1BC2
330
26F
100
AcDbEntity
  8
DEFPOINTS
 62
     0
100
AcDbPoint
 10
14.88745800643441
 20
4.887938710848184
 30
0.0
  0
POINT
  5
1BC3
330
26F
100
AcDbEntity
  8
DEFPOINTS
 62
     0
100
AcDbPoint
 10
9.327458006434415
 20
4.887938710848206
 30
0.0
  0
POINT
  5
1BC4
330
26F
100
AcDbEntity
  8
DEFPOINTS
 62
     0
100
AcDbPoint
 10
9.327458006434415
 20
2.961560690611476
 30
0.0
  0
ENDBLK
  5
27B
330
26F
100
AcDbEntity
  8
0
100
AcDbBlockEnd
  0
BLOCK
  5
282
330
27C
100
AcDbEntity
  8
0
100
AcDbBlockBegin
  2
*D30
 70
     1
 10
0.0
 20
0.0
 30
0.0
  3
*D30
  1

  0
POINT
  5
1BFD
330
27C
100
AcDbEntity
  8
DEFPOINTS
 62
     0
100
AcDbPoint
 10
12.05546246079247
 20
4.824619323363765
 30
0.0
  0
POINT
  5
1BFE
330
27C
100
AcDbEntity
  8
DEFPOINTS
 62
     0
100
AcDbPoint
 10
12.10745800643441
 20
4.823938710848199
 30
0.0
  0
POINT
  5
1BFF
330
27C
100
AcDbEntity
  8
DEFPOINTS
 62
     0
100
AcDbPoint
 10
12.10745800643441
 20
4.823938710848199
 30
0.0
  0
POINT
  5
1C00
330
27C
100
AcDbEntity
  8
DEFPOINTS
 62
     0
100
AcDbPoint
 10
12.10745800643441
 20
4.823938710848199
 30
0.0
  0
POINT
  5
1C01
330
27C
100
AcDbEntity
  8
DEFPOINTS
 62
     0
100
AcDbPoint
 10
12.10814506215466
 20
4.823938780898859
 30
0.0
  0
ENDBLK
  5
283
330
27C
100
AcDbEntity
  8
0
100
AcDbBlockEnd
  0
BLOCK
  5
28A
330
284
100
AcDbEntity
  8
0
100
AcDbBlockBegin
  2
*D31
 70
     1
 10
0.0
 20
0.0
 30
0.0
  3
*D31
  1

  0
POINT
  5
1C02
330
284
100
AcDbEntity
  8
DEFPOINTS
 62
     0
100
AcDbPoint
 10
12.05546246118793
 20
4.873619353574563
 30
0.0
  0
POINT
  5
1C03
330
284
100
AcDbEntity
  8
DEFPOINTS
 62
     0
100
AcDbPoint
 10
12.10745800643441
 20
4.872938710848198
 30
0.0
  0
POINT
  5
1C04
330
284
100
AcDbEntity
  8
DEFPOINTS
 62
     0
100
AcDbPoint
 10
12.10745800643441
 20
4.872938710848198
 30
0.0
  0
POINT
  5
1C05
330
284
100
AcDbEntity
  8
DEFPOINTS
 62
     0
100
AcDbPoint
 10
12.10745800643441
 20
4.872938710848198
 30
0.0
  0
POINT
  5
1C06
330
284
100
AcDbEntity
  8
DEFPOINTS
 62
     0
100
AcDbPoint
 10
12.10677092021641
 20
4.872938752273138
 30
0.0
  0
ENDBLK
  5
28B
330
284
100
AcDbEntity
  8
0
100
AcDbBlockEnd
  0
BLOCK
  5
293
330
28C
100
AcDbEntity
  8
0
100
AcDbBlockBegin
  2
*D32
 70
     1
 10
0.0
 20
0.0
 30
0.0
  3
*D32
  1

  0
LINE
  5
1BF7
330
28C
100
AcDbEntity
  8
0
 62
     1
370
    -2
100
AcDbLine
 10
17.06296976261401
 20
3.400873245986835
 30
0.0
 11
16.81546976261401
 21
3.400873245986834
 31
0.0
  0
LINE
  5
1BF8
330
28C
100
AcDbEntity
  8
0
 62
     1
370
    -2
100
AcDbLine
 10
16.81546976261401
 20
3.400873245986834
 30
0.0
 11
15.11732869040654
 21
4.737063840702589
 31
0.0
  0
MTEXT
  5
1BF9
330
28C
100
AcDbEntity
  8
0
 62
     4
100
AcDbMText
 10
17.84537852796189
 20
3.400873245986833
 30
0.0
 40
0.171875
 41
0.0
 71
     5
 72
     1
  1
\A1;\U+22050.090 I.D.\P%%c0.188 O.D.\P(6 PLCS.)
  7
STANDARD
 73
     1
 44
1.0
  0
SOLID
  5
1BFA
330
28C
100
AcDbEntity
  8
0
 62
     1
100
AcDbTrace
 10
15.14283668491425
 20
4.76948150126276
 30
0.0
 11
15.09182069589883
 21
4.704646180142416
 31
0.0
 12
14.92282272704551
 22
4.890111807748864
 32
0.0
 13
14.92282272704551
 23
4.890111807748864
 33
0.0
  0
POINT
  5
1BFB
330
28C
100
AcDbEntity
  8
DEFPOINTS
 62
     0
100
AcDbPoint
 10
14.92282272704551
 20
4.890111807748864
 30
0.0
  0
POINT
  5
1BFC
330
28C
100
AcDbEntity
  8
DEFPOINTS
 62
     0
100
AcDbPoint
 10
14.85209328582332
 20
4.94576561394751
 30
0.0
  0
ENDBLK
  5
294
330
28C
100
AcDbEntity
  8
0
100
AcDbBlockEnd
  0
BLOCK
  5
2A9
330
29E
100
AcDbEntity
  8
0
100
AcDbBlockBegin
  2
*D33
 70
     1
 10
0.0
 20
0.0
 30
0.0
  3
*D33
  1

  0
LINE
  5
1BB1
330
29E
100
AcDbEntity
  8
0
 62
     1
370
    -2
100
AcDbLine
 10
16.20245800643442
 20
7.923876210848177
 30
0.0
 11
16.20245800643442
 21
9.86110141293426
 31
0.0
  0
LINE
  5
1BB2
330
29E
100
AcDbEntity
  8
0
 62
     1
370
    -2
100
AcDbLine
 10
8.012458006434432
 20
7.923876210848213
 30
0.0
 11
8.012458006434432
 21
9.86110141293426
 31
0.0
  0
LINE
  5
1BB3
330
29E
100
AcDbEntity
  8
0
 62
     1
370
    -2
100
AcDbLine
 10
15.95495800643442
 20
9.723601412934259
 30
0.0
 11
12.54016513267525
 21
9.723601412934259
 31
0.0
  0
LINE
  5
1BB4
330
29E
100
AcDbEntity
  8
0
 62
     1
370
    -2
100
AcDbLine
 10
8.259958006434432
 20
9.723601412934259
 30
0.0
 11
11.7130266606425
 21
9.723601412934259
 31
0.0
  0
SOLID
  5
1BB5
330
29E
100
AcDbEntity
  8
0
 62
     1
100
AcDbTrace
 10
15.95495800643442
 20
9.764851412934259
 30
0.0
 11
15.95495800643442
 21
9.682351412934259
 31
0.0
 12
16.20245800643442
 22
9.723601412934259
 32
0.0
 13
16.20245800643442
 23
9.723601412934259
 33
0.0
  0
SOLID
  5
1BB6
330
29E
100
AcDbEntity
  8
0
 62
     1
100
AcDbTrace
 10
8.259958006434432
 20
9.764851412934259
 30
0.0
 11
8.259958006434432
 21
9.682351412934259
 31
0.0
 12
8.012458006434432
 22
9.723601412934259
 32
0.0
 13
8.012458006434432
 23
9.723601412934259
 33
0.0
  0
MTEXT
  5
1BB7
330
29E
100
AcDbEntity
  8
0
 62
     4
100
AcDbMText
 10
12.12659589665888
 20
9.723601412934259
 30
0.0
 40
0.171875
 41
0.0
 71
     5
 72
     1
  1
\A1;8.190
  7
STANDARD
 73
     1
 44
1.0
  0
POINT
  5
1BB8
330
29E
100
AcDbEntity
  8
DEFPOINTS
 62
     0
100
AcDbPoint
 10
16.20245800643442
 20
7.837938710848177
 30
0.0
  0
POINT
  5
1BB9
330
29E
100
AcDbEntity
  8
DEFPOINTS
 62
     0
100
AcDbPoint
 10
8.012458006434432
 20
7.837938710848213
 30
0.0
  0
POINT
  5
1BBA
330
29E
100
AcDbEntity
  8
DEFPOINTS
 62
     0
100
AcDbPoint
 10
8.012458006434432
 20
9.723601412934259
 30
0.0
  0
ENDBLK
  5
2AA
330
29E
100
AcDbEntity
  8
0
100
AcDbBlockEnd
  0
BLOCK
  5
12F4
330
12E9
100
AcDbEntity
  8
0
100
AcDbBlockBegin
  2
*D34
 70
     1
 10
0.0
 20
0.0
 30
0.0
  3
*D34
  1

  0
LINE
  5
1DCF
330
12E9
100
AcDbEntity
  8
0
 62
     1
370
    -2
100
AcDbLine
 10
4.037421249285689
 20
16.57421783880763
 30
0.0
 11
4.037421249285689
 21
16.38350108793775
 31
0.0
  0
LINE
  5
1DD0
330
12E9
100
AcDbEntity
  8
0
 62
     1
370
    -2
100
AcDbLine
 10
4.147421249285692
 20
16.62095465101904
 30
0.0
 11
4.147421249285692
 21
16.38350108793775
 31
0.0
  0
LINE
  5
1DD1
330
12E9
100
AcDbEntity
  8
0
 62
     1
370
    -2
100
AcDbLine
 10
4.394921249285691
 20
16.52100108793775
 30
0.0
 11
4.642421249285692
 21
16.52100108793775
 31
0.0
  0
LINE
  5
1DD2
330
12E9
100
AcDbEntity
  8
0
 62
     1
370
    -2
100
AcDbLine
 10
3.789921249285689
 20
16.52100108793775
 30
0.0
 11
3.542421249285689
 21
16.52100108793775
 31
0.0
  0
SOLID
  5
1DD3
330
12E9
100
AcDbEntity
  8
0
 62
     1
100
AcDbTrace
 10
4.394921249285691
 20
16.56225108793775
 30
0.0
 11
4.394921249285691
 21
16.47975108793775
 31
0.0
 12
4.147421249285692
 22
16.52100108793775
 32
0.0
 13
4.147421249285692
 23
16.52100108793775
 33
0.0
  0
SOLID
  5
1DD4
330
12E9
100
AcDbEntity
  8
0
 62
     1
100
AcDbTrace
 10
3.789921249285689
 20
16.56225108793775
 30
0.0
 11
3.789921249285689
 21
16.47975108793775
 31
0.0
 12
4.037421249285689
 22
16.52100108793775
 32
0.0
 13
4.037421249285689
 23
16.52100108793775
 33
0.0
  0
MTEXT
  5
1DD5
330
12E9
100
AcDbEntity
  8
0
 62
     4
100
AcDbMText
 10
3.128969254060586
 20
16.52100108793775
 30
0.0
 40
0.171875
 41
0.0
 71
     5
 72
     1
  1
\A1;0.110
  7
STANDARD
 73
     1
 44
1.0
  0
POINT
  5
1DD6
330
12E9
100
AcDbEntity
  8
DEFPOINTS
 62
     0
100
AcDbPoint
 10
4.037421249285689
 20
16.66015533880763
 30
0.0
  0
POINT
  5
1DD7
330
12E9
100
AcDbEntity
  8
DEFPOINTS
 62
     0
100
AcDbPoint
 10
4.147421249285692
 20
16.70689215101904
 30
0.0
  0
POINT
  5
1DD8
330
12E9
100
AcDbEntity
  8
DEFPOINTS
 62
     0
100
AcDbPoint
 10
4.147421249285692
 20
16.52100108793775
 30
0.0
  0
ENDBLK
  5
12F5
330
12E9
100
AcDbEntity
  8
0
100
AcDbBlockEnd
  0
BLOCK
  5
172B
330
1720
100
AcDbEntity
  8
0
100
AcDbBlockBegin
  2
*D35
 70
     1
 10
0.0
 20
0.0
 30
0.0
  3
*D35
  1

  0
LINE
  5
1CD9
330
1720
100
AcDbEntity
  8
0
 62
     1
370
    -2
100
AcDbLine
 10
19.81192132107993
 20
12.31544460671812
 30
0.0
 11
19.81192132107993
 21
13.12974269150473
 31
0.0
  0
LINE
  5
1CDA
330
1720
100
AcDbEntity
  8
0
 62
     1
370
    -2
100
AcDbLine
 10
27.58909509939066
 20
12.31544460671835
 30
0.0
 11
27.58909509939066
 21
13.12974269150473
 31
0.0
  0
LINE
  5
1CDB
330
1720
100
AcDbEntity
  8
0
 62
     1
370
    -2
100
AcDbLine
 10
20.05942132107993
 20
12.99224269150473
 30
0.0
 11
23.28746655777963
 21
12.99224269150473
 31
0.0
  0
LINE
  5
1CDC
330
1720
100
AcDbEntity
  8
0
 62
     1
370
    -2
100
AcDbLine
 10
27.34159509939066
 20
12.99224269150473
 30
0.0
 11
24.11354986269095
 21
12.99224269150473
 31
0.0
  0
SOLID
  5
1CDD
330
1720
100
AcDbEntity
  8
0
 62
     1
100
AcDbTrace
 10
20.05942132107993
 20
13.03349269150473
 30
0.0
 11
20.05942132107993
 21
12.95099269150473
 31
0.0
 12
19.81192132107993
 22
12.99224269150473
 32
0.0
 13
19.81192132107993
 23
12.99224269150473
 33
0.0
  0
SOLID
  5
1CDE
330
1720
100
AcDbEntity
  8
0
 62
     1
100
AcDbTrace
 10
27.34159509939066
 20
13.03349269150473
 30
0.0
 11
27.34159509939066
 21
12.95099269150473
 31
0.0
 12
27.58909509939066
 22
12.99224269150473
 32
0.0
 13
27.58909509939066
 23
12.99224269150473
 33
0.0
  0
MTEXT
  5
1CDF
330
1720
100
AcDbEntity
  8
0
 62
     4
100
AcDbMText
 10
23.7005082102353
 20
12.99224269150473
 30
0.0
 40
0.171875
 41
0.0
 71
     5
 72
     1
  1
\A1;7.777
  7
STANDARD
 73
     1
 44
1.0
  0
POINT
  5
1CE0
330
1720
100
AcDbEntity
  8
DEFPOINTS
 62
     0
100
AcDbPoint
 10
19.81192132107993
 20
12.22950710671812
 30
0.0
  0
POINT
  5
1CE1
330
1720
100
AcDbEntity
  8
DEFPOINTS
 62
     0
100
AcDbPoint
 10
27.58909509939066
 20
12.22950710671835
 30
0.0
  0
POINT
  5
1CE2
330
1720
100
AcDbEntity
  8
DEFPOINTS
 62
     0
100
AcDbPoint
 10
27.58909509939066
 20
12.99224269150473
 30
0.0
  0
ENDBLK
  5
172C
330
1720
100
AcDbEntity
  8
0
100
AcDbBlockEnd
  0
BLOCK
  5
17A0
330
1795
100
AcDbEntity
  8
0
100
AcDbBlockBegin
  2
*D36
 70
     1
 10
0.0
 20
0.0
 30
0.0
  3
*D36
  1

  0
LINE
  5
1DA1
330
1795
100
AcDbEntity
  8
0
 62
     1
370
    -2
100
AcDbLine
 10
16.69740314744747
 20
16.90073330164524
 30
0.0
 11
16.69740314744747
 21
14.27459356734979
 31
0.0
  0
LINE
  5
1DA2
330
1795
100
AcDbEntity
  8
0
 62
     1
370
    -2
100
AcDbLine
 10
7.517512865421267
 20
16.90073330164521
 30
0.0
 11
7.517512865421267
 21
14.27459356734979
 31
0.0
  0
LINE
  5
1DA3
330
1795
100
AcDbEntity
  8
0
 62
     1
370
    -2
100
AcDbLine
 10
16.44990314744747
 20
14.41209356734979
 30
0.0
 11
12.54004789188392
 21
14.41209356734979
 31
0.0
  0
LINE
  5
1DA4
330
1795
100
AcDbEntity
  8
0
 62
     1
370
    -2
100
AcDbLine
 10
7.765012865421266
 20
14.41209356734979
 30
0.0
 11
11.71314390143372
 21
14.41209356734979
 31
0.0
  0
SOLID
  5
1DA5
330
1795
100
AcDbEntity
  8
0
 62
     1
100
AcDbTrace
 10
16.44990314744747
 20
14.45334356734979
 30
0.0
 11
16.44990314744747
 21
14.37084356734979
 31
0.0
 12
16.69740314744747
 22
14.41209356734979
 32
0.0
 13
16.69740314744747
 23
14.41209356734979
 33
0.0
  0
SOLID
  5
1DA6
330
1795
100
AcDbEntity
  8
0
 62
     1
100
AcDbTrace
 10
7.765012865421266
 20
14.45334356734979
 30
0.0
 11
7.765012865421266
 21
14.37084356734979
 31
0.0
 12
7.517512865421267
 22
14.41209356734979
 32
0.0
 13
7.517512865421267
 23
14.41209356734979
 33
0.0
  0
MTEXT
  5
1DA7
330
1795
100
AcDbEntity
  8
0
 62
     4
100
AcDbMText
 10
12.12659589665882
 20
14.41209356734979
 30
0.0
 40
0.171875
 41
0.0
 71
     5
 72
     1
  1
\A1;9.180
  7
STANDARD
 73
     1
 44
1.0
  0
POINT
  5
1DA8
330
1795
100
AcDbEntity
  8
DEFPOINTS
 62
     0
100
AcDbPoint
 10
16.69740314744747
 20
16.98667080164524
 30
0.0
  0
POINT
  5
1DA9
330
1795
100
AcDbEntity
  8
DEFPOINTS
 62
     0
100
AcDbPoint
 10
7.517512865421267
 20
16.98667080164521
 30
0.0
  0
POINT
  5
1DAA
330
1795
100
AcDbEntity
  8
DEFPOINTS
 62
     0
100
AcDbPoint
 10
7.517512865421267
 20
14.41209356734979
 30
0.0
  0
ENDBLK
  5
17A1
330
1795
100
AcDbEntity
  8
0
100
AcDbBlockEnd
  0
BLOCK
  5
17E6
330
17DB
100
AcDbEntity
  8
0
100
AcDbBlockBegin
  2
*D37
 70
     1
 10
0.0
 20
0.0
 30
0.0
  3
*D37
  1

  0
LINE
  5
1B74
330
17DB
100
AcDbEntity
  8
0
 62
     1
370
    -2
100
AcDbLine
 10
8.304333781657465
 20
13.10323786426303
 30
0.0
 11
6.200834101448839
 21
13.10323786426303
 31
0.0
  0
LINE
  5
1B75
330
17DB
100
AcDbEntity
  8
0
 62
     1
370
    -2
100
AcDbLine
 10
7.644310438246764
 20
11.42823786426302
 30
0.0
 11
6.200834101448839
 21
11.42823786426302
 31
0.0
  0
LINE
  5
1B76
330
17DB
100
AcDbEntity
  8
0
 62
     1
370
    -2
100
AcDbLine
 10
6.33833410144884
 20
12.85573786426303
 30
0.0
 11
6.33833410144884
 21
12.47724259652769
 31
0.0
  0
LINE
  5
1B77
330
17DB
100
AcDbEntity
  8
0
 62
     1
370
    -2
100
AcDbLine
 10
6.33833410144884
 20
11.67573786426302
 30
0.0
 11
6.33833410144884
 21
12.05423313199836
 31
0.0
  0
SOLID
  5
1B78
330
17DB
100
AcDbEntity
  8
0
 62
     1
100
AcDbTrace
 10
6.29708410144884
 20
12.85573786426303
 30
0.0
 11
6.379584101448839
 21
12.85573786426303
 31
0.0
 12
6.33833410144884
 22
13.10323786426303
 32
0.0
 13
6.33833410144884
 23
13.10323786426303
 33
0.0
  0
SOLID
  5
1B79
330
17DB
100
AcDbEntity
  8
0
 62
     1
100
AcDbTrace
 10
6.29708410144884
 20
11.67573786426302
 30
0.0
 11
6.379584101448839
 21
11.67573786426302
 31
0.0
 12
6.33833410144884
 22
11.42823786426302
 32
0.0
 13
6.33833410144884
 23
11.42823786426302
 33
0.0
  0
MTEXT
  5
1B7A
330
17DB
100
AcDbEntity
  8
0
 62
     4
100
AcDbMText
 10
6.338334101448838
 20
12.26573786426303
 30
0.0
 40
0.171875
 41
0.0
 71
     5
 72
     1
  1
\A1;1.675
  7
STANDARD
 73
     1
 44
1.0
  0
POINT
  5
1B7B
330
17DB
100
AcDbEntity
  8
DEFPOINTS
 62
     0
100
AcDbPoint
 10
8.390271281657465
 20
13.10323786426303
 30
0.0
  0
POINT
  5
1B7C
330
17DB
100
AcDbEntity
  8
DEFPOINTS
 62
     0
100
AcDbPoint
 10
7.730247938246764
 20
11.42823786426302
 30
0.0
  0
POINT
  5
1B7D
330
17DB
100
AcDbEntity
  8
DEFPOINTS
 62
     0
100
AcDbPoint
 10
6.33833410144884
 20
11.42823786426302
 30
0.0
  0
ENDBLK
  5
17E7
330
17DB
100
AcDbEntity
  8
0
100
AcDbBlockEnd
  0
BLOCK
  5
187A
330
1818
100
AcDbEntity
  8
0
100
AcDbBlockBegin
  2
C
 70
     2
 10
0.0
 20
0.0
 30
0.0
  3
C
  1

  0
ATTDEF
  5
1819
330
1818
100
AcDbEntity
  8
TEXT
100
AcDbText
 10
16.47785051577857
 20
0.5394050456177202
 30
0.0
 40
0.125
  1

 41
0.75
 72
     1
 11
16.47785051577857
 21
0.5394050456177202
 31
0.0
100
AcDbAttributeDefinition
  3
ENTER INITIALS
  2
NAME
 70
     4
  0
ATTDEF
  5
181A
330
1818
100
AcDbEntity
  8
TEXT
100
AcDbText
 10
17.17323597631695
 20
0.5394050456177202
 30
0.0
 40
0.125
  1

 41
0.75
 72
     1
 11
17.17323597631695
 21
0.5394050456177202
 31
0.0
100
AcDbAttributeDefinition
  3
ENTER DATE
  2
DATE
 70
     4
  0
ATTDEF
  5
181B
330
1818
100
AcDbEntity
  8
TEXT
100
AcDbText
 10
20.4336228000444
 20
0.7106068173304485
 30
0.0
 40
0.125
  1

 41
0.75
 72
     1
 11
20.4336228000444
 21
0.7106068173304485
 31
0.0
100
AcDbAttributeDefinition
  3
ENTER TITLE LINE #1
  2
TITLE1
 70
     4
  0
ATTDEF
  5
181C
330
1818
100
AcDbEntity
  8
TEXT
100
AcDbText
 10
20.3867478000444
 20
0.4994773512041509
 30
0.0
 40
0.125
  1
 
 41
0.75
 72
     1
 11
20.4336228000444
 21
0.4994773512041509
 31
0.0
100
AcDbAttributeDefinition
  3
ENTER TITLE LINE #2
  2
TITLE2
 70
     4
  0
ATTDEF
  5
181D
330
1818
100
AcDbEntity
  8
TEXT
100
AcDbText
 10
20.57174758838052
 20
0.1062243331644149
 30
0.0
 40
0.156
  1
 
 41
0.75
 72
     1
 11
20.63024758838051
 21
0.1062243331644149
 31
0.0
100
AcDbAttributeDefinition
  3
ENTER PART #
  2
PART
 70
     4
  0
ATTDEF
  5
181E
330
1818
100
AcDbEntity
  8
TEXT
100
AcDbText
 10
20.63024758838051
 20
15.30264083603648
 30
0.0
 40
0.156
  1

 41
0.75
 72
     1
 11
20.63024758838051
 21
15.30264083603648
 31
0.0
100
AcDbAttributeDefinition
  3
ENTER PART #
  2
PART
 70
     4
  0
ATTDEF
  5
181F
330
1818
100
AcDbEntity
  8
TEXT
100
AcDbText
 10
12.05689760415074
 20
1.182012335097561
 30
0.0
 40
0.125
  1

 41
4.93641642638573
 72
     5
 11
15.96489394170611
 21
1.182012335097561
 31
0.0
100
AcDbAttributeDefinition
  3
ENTER CUT SIZE
  2
CUTSIZE
 70
     4
  0
ATTDEF
  5
1820
330
1818
100
AcDbEntity
  8
TEXT
100
AcDbText
 10
12.19437068912895
 20
0.2867788269611924
 30
0.0
 40
0.125
  1

 41
0.75
 72
     1
 11
12.19437068912895
 21
0.2867788269611924
 31
0.0
100
AcDbAttributeDefinition
  3
ENTER QUANTITY
  2
QTY
 70
     4
  0
ATTDEF
  5
1821
330
1818
100
AcDbEntity
  8
TEXT
100
AcDbText
 10
13.13905420252699
 20
0.2867788269611924
 30
0.0
 40
0.125
  1

 41
0.75
 72
     1
 11
13.13905420252699
 21
0.2867788269611924
 31
0.0
100
AcDbAttributeDefinition
  3
ENTER "USED ON" PART #
  2
USED
 70
     4
  0
ATTDEF
  5
1822
330
1818
100
AcDbEntity
  8
TEXT
100
AcDbText
 10
16.72398122291403
 20
0.9555323710702353
 30
0.0
 40
0.125
  1
AS NOTED
 41
0.75
 72
     1
 11
17.08335622291403
 21
0.9555323710702353
 31
0.0
100
AcDbAttributeDefinition
  3
ENTER MATERIAL
  2
MAT
 70
     4
  0
ATTDEF
  5
1823
330
1818
100
AcDbEntity
  8
TEXT
100
AcDbText
 10
16.70835622291403
 20
0.7436542078606632
 30
0.0
 40
0.125
  1
SEE SPEC.
 41
0.75
 72
     1
 11
17.08335622291403
 21
0.7436542078606632
 31
0.0
100
AcDbAttributeDefinition
  3
ENTER FINISH
  2
FINISH
 70
     4
  0
LINE
  5
1824
330
1818
100
AcDbEntity
  8
TITLE
100
AcDbLine
 10
0.0
 20
0.0
 30
0.0
 11
21.49999999999999
 21
0.0
 31
0.0
  0
LINE
  5
1825
330
1818
100
AcDbEntity
  8
TITLE
100
AcDbLine
 10
0.0
 20
15.625
 30
0.0
 11
0.0
 21
0.0
 31
0.0
  0
LINE
  5
1826
330
1818
100
AcDbEntity
  8
TITLE
100
AcDbLine
 10
12.01999999999999
 20
1.377
 30
0.0
 11
12.01999999999999
 21
-0.0000000000000004
 31
0.0
  0
LINE
  5
1827
330
1818
100
AcDbEntity
  8
TITLE
100
AcDbLine
 10
19.6875
 20
14.9375
 30
0.0
 11
19.6875
 21
15.1875
 31
0.0
  0
TEXT
  5
1828
330
1818
100
AcDbEntity
  8
TITLE
100
AcDbText
 10
19.1875
 20
15.4375
 30
0.0
 40
0.09375
  1
DWG.
100
AcDbText
  0
TEXT
  5
1829
330
1818
100
AcDbEntity
  8
TITLE
100
AcDbText
 10
19.17928468339757
 20
15.02367246868617
 30
0.0
 40
0.09375
  1
ISSUE
100
AcDbText
  0
LINE
  5
182A
330
1818
100
AcDbEntity
  8
TITLE
100
AcDbLine
 10
19.0625
 20
14.9375
 30
0.0
 11
19.0625
 21
15.625
 31
0.0
  0
TEXT
  5
182B
330
1818
100
AcDbEntity
  8
TITLE
100
AcDbText
 10
19.1875
 20
15.28125
 30
0.0
 40
0.09375
  1
NO.
100
AcDbText
  0
LINE
  5
182C
330
1818
100
AcDbEntity
  8
TITLE
100
AcDbLine
 10
19.0625
 20
14.9375
 30
0.0
 11
21.49999999999999
 21
14.9375
 31
0.0
  0
LINE
  5
182D
330
1818
100
AcDbEntity
  8
TITLE
100
AcDbLine
 10
19.0625
 20
15.1875
 30
0.0
 11
21.49999999999999
 21
15.1875
 31
0.0
  0
TEXT
  5
182E
330
1818
100
AcDbEntity
  8
TITLE
100
AcDbText
 10
20.12324012267808
 20
15.02584779209924
 30
0.0
 40
0.09375
  1
REVISIONS
100
AcDbText
  0
TEXT
  5
182F
330
1818
100
AcDbEntity
  8
TITLE
100
AcDbText
 10
19.4375
 20
0.9903543852819179
 30
0.0
 40
0.09375
  1
NAME:
100
AcDbText
  0
TEXT
  5
1830
330
1818
100
AcDbEntity
  8
TITLE
100
AcDbText
 10
19.4375
 20
0.0631657164931343
 30
0.0
 40
0.0938
  1
NO.
100
AcDbText
  0
TEXT
  5
1831
330
1818
100
AcDbEntity
  8
TITLE
100
AcDbText
 10
19.4375
 20
0.2194990498264686
 30
0.0
 40
0.0938
  1
DWG.
100
AcDbText
  0
LINE
  5
1832
330
1818
100
AcDbEntity
  8
TITLE
100
AcDbLine
 10
19.36724560008882
 20
-0.0000000000000004
 30
0.0
 11
19.36724560008882
 21
1.127
 31
0.0
  0
LINE
  5
1833
330
1818
100
AcDbEntity
  8
TITLE
100
AcDbLine
 10
18.4365
 20
1.127
 30
0.0
 11
18.4365
 21
1.377
 31
0.0
  0
LINE
  5
1834
330
1818
100
AcDbEntity
  8
TITLE
100
AcDbLine
 10
18.63673299114847
 20
0.8590073451518431
 30
0.0
 11
18.66976251320413
 21
0.8590073451518431
 31
0.0
  0
ARC
  5
1835
330
1818
100
AcDbEntity
  8
TITLE
100
AcDbCircle
 10
18.66976251320413
 20
0.7660701812170974
 30
0.0
 40
0.0929371639347451
100
AcDbArc
 50
0.0
 51
90.0
  0
LINE
  5
1836
330
1818
100
AcDbEntity
  8
TITLE
100
AcDbLine
 10
18.71386129933556
 20
0.7328783369546899
 30
0.0
 11
18.67256370982726
 21
0.7328783369546899
 31
0.0
  0
LINE
  5
1837
330
1818
100
AcDbEntity
  8
TITLE
100
AcDbLine
 10
18.63673299114847
 20
0.5934725910525716
 30
0.0
 11
18.66976251320413
 21
0.5934725910525716
 31
0.0
  0
ARC
  5
1838
330
1818
100
AcDbEntity
  8
TITLE
100
AcDbCircle
 10
18.66976251320413
 20
0.6864097549873174
 30
0.0
 40
0.0929371639347451
100
AcDbArc
 50
270.0
 51
0.0
  0
LINE
  5
1839
330
1818
100
AcDbEntity
  8
TITLE
100
AcDbLine
 10
18.71386129933556
 20
0.7196015992497254
 30
0.0
 11
18.67256370982726
 21
0.7196015992497254
 31
0.0
  0
LINE
  5
183A
330
1818
100
AcDbEntity
  8
TITLE
100
AcDbLine
 10
18.63673299114847
 20
0.5934725910525716
 30
0.0
 11
18.63673299114847
 21
0.8590073451518431
 31
0.0
  0
LINE
  5
183B
330
1818
100
AcDbEntity
  8
TITLE
100
AcDbLine
 10
18.67256370982726
 20
0.7196015992497254
 30
0.0
 11
18.67256370982726
 21
0.7328783369546899
 31
0.0
  0
LINE
  5
183C
330
1818
100
AcDbEntity
  8
TITLE
100
AcDbLine
 10
18.76269967713888
 20
0.6864097549873174
 30
0.0
 11
18.76269967713888
 21
0.7660701812170974
 31
0.0
  0
LINE
  5
183D
330
1818
100
AcDbEntity
  8
TITLE
100
AcDbLine
 10
18.71386129933556
 20
0.7196015992497254
 30
0.0
 11
18.71386129933556
 21
0.7328783369546899
 31
0.0
  0
LINE
  5
183E
330
1818
100
AcDbEntity
  8
TITLE
100
AcDbLine
 10
18.53388478947083
 20
0.8590073451518431
 30
0.0
 11
18.58242241159558
 21
0.8590073451518431
 31
0.0
  0
LINE
  5
183F
330
1818
100
AcDbEntity
  8
TITLE
100
AcDbLine
 10
18.46223401395335
 20
0.8590073451518431
 30
0.0
 11
18.5107716360781
 21
0.8590073451518431
 31
0.0
  0
ARC
  5
1840
330
1818
100
AcDbEntity
  8
TITLE
100
AcDbCircle
 10
18.52404837378307
 20
0.6367964281680929
 30
0.0
 40
0.0132767377049636
100
AcDbArc
 50
180.0
 51
262.5557159022863
  0
ARC
  5
1841
330
1818
100
AcDbEntity
  8
TITLE
100
AcDbCircle
 10
18.52060805176588
 20
0.6367964281680929
 30
0.0
 40
0.0132767377049636
100
AcDbArc
 50
277.4442840977136
 51
0.0
  0
ARC
  5
1842
330
1818
100
AcDbEntity
  8
TITLE
100
AcDbCircle
 10
18.56582648946438
 20
0.6100685131837765
 30
0.0
 40
0.0165959221312045
100
AcDbArc
 50
270.0
 51
0.0
  0
ARC
  5
1843
330
1818
100
AcDbEntity
  8
TITLE
100
AcDbCircle
 10
18.47882993608456
 20
0.6100685131837765
 30
0.0
 40
0.0165959221312045
100
AcDbArc
 50
180.0
 51
270.0
  0
LINE
  5
1844
330
1818
100
AcDbEntity
  8
TITLE
100
AcDbLine
 10
18.47882993608456
 20
0.5934725910525716
 30
0.0
 11
18.56582648946438
 21
0.5934725910525716
 31
0.0
  0
LINE
  5
1845
330
1818
100
AcDbEntity
  8
TITLE
100
AcDbLine
 10
18.5107716360781
 20
0.6367964281680929
 30
0.0
 11
18.5107716360781
 21
0.8590073451518431
 31
0.0
  0
LINE
  5
1846
330
1818
100
AcDbEntity
  8
TITLE
100
AcDbLine
 10
18.53388478947083
 20
0.6367964281680929
 30
0.0
 11
18.53388478947083
 21
0.8590073451518431
 31
0.0
  0
LINE
  5
1847
330
1818
100
AcDbEntity
  8
TITLE
100
AcDbLine
 10
18.46223401395335
 20
0.6100685131837765
 30
0.0
 11
18.46223401395335
 21
0.8590073451518431
 31
0.0
  0
LINE
  5
1848
330
1818
100
AcDbEntity
  8
TITLE
100
AcDbLine
 10
18.58242241159558
 20
0.6100685131837765
 30
0.0
 11
18.58242241159558
 21
0.8590073451518431
 31
0.0
  0
LINE
  5
1849
330
1818
100
AcDbEntity
  8
TITLE
100
AcDbLine
 10
18.36284745436459
 20
0.7328783369546899
 30
0.0
 11
18.29004102117746
 21
0.7328783369546899
 31
0.0
  0
LINE
  5
184A
330
1818
100
AcDbEntity
  8
TITLE
100
AcDbLine
 10
18.27732878681146
 20
0.8590073451518431
 30
0.0
 11
18.36284745436459
 21
0.8590073451518431
 31
0.0
  0
LINE
  5
184B
330
1818
100
AcDbEntity
  8
TITLE
100
AcDbLine
 10
18.29004102117746
 20
0.7196015992497254
 30
0.0
 11
18.29004102117746
 21
0.7262399681022083
 31
0.0
  0
LINE
  5
184C
330
1818
100
AcDbEntity
  8
TITLE
100
AcDbLine
 10
18.27732878681146
 20
0.5934725910525716
 30
0.0
 11
18.36284745436459
 21
0.5934725910525716
 31
0.0
  0
LINE
  5
184D
330
1818
100
AcDbEntity
  8
TITLE
100
AcDbLine
 10
18.36284745436459
 20
0.7196015992497254
 30
0.0
 11
18.29004102117746
 21
0.7196015992497254
 31
0.0
  0
LINE
  5
184E
330
1818
100
AcDbEntity
  8
TITLE
100
AcDbLine
 10
18.27732878681146
 20
0.5934725910525716
 30
0.0
 11
18.27732878681146
 21
0.8590073451518431
 31
0.0
  0
LINE
  5
184F
330
1818
100
AcDbEntity
  8
TITLE
100
AcDbLine
 10
18.29004102117746
 20
0.7328783369546899
 30
0.0
 11
18.29004102117746
 21
0.7262399681022083
 31
0.0
  0
ARC
  5
1850
330
1818
100
AcDbEntity
  8
TITLE
100
AcDbCircle
 10
18.36284745436459
 20
0.7959428410532668
 30
0.0
 40
0.063064504098577
100
AcDbArc
 50
270.0
 51
90.0
  0
ARC
  5
1851
330
1818
100
AcDbEntity
  8
TITLE
100
AcDbCircle
 10
18.36284745436459
 20
0.6565370951511494
 30
0.0
 40
0.063064504098577
100
AcDbArc
 50
270.0
 51
90.00000000000003
  0
TEXT
  5
1852
330
1818
100
AcDbEntity
  8
TITLE
100
AcDbText
 10
17.37549999999999
 20
1.197740762992484
 30
0.0
 40
0.09375
  1
PART NO.
100
AcDbText
  0
TEXT
  5
1853
330
1818
100
AcDbEntity
  8
TITLE
100
AcDbText
 10
17.70237987390002
 20
0.9755983592151281
 30
0.0
 40
0.09375
  1
SCALE:
100
AcDbText
  0
LINE
  5
1854
330
1818
100
AcDbEntity
  8
TITLE
100
AcDbLine
 10
17.66353790782162
 20
-0.0000000000000004
 30
0.0
 11
17.66353790782162
 21
1.127
 31
0.0
  0
TEXT
  5
1855
330
1818
100
AcDbEntity
  8
TITLE
100
AcDbText
 10
17.76389543567033
 20
0.1249999999999996
 30
0.0
 40
0.09375
  1
WILLOUGHBY, OHIO
100
AcDbText
  0
TEXT
  5
1856
330
1818
100
AcDbEntity
  8
TITLE
100
AcDbText
 10
17.70461451425917
 20
0.3749999999999996
 30
0.0
 40
0.09375
  1
BUD INDUSTRIES, INC.
100
AcDbText
  0
LINE
  5
1857
330
1818
100
AcDbEntity
  8
TITLE
100
AcDbLine
 10
19.36724560008882
 20
0.3819999999999992
 30
0.0
 11
21.49999999999999
 21
0.3819999999999992
 31
0.0
  0
TEXT
  5
1858
330
1818
100
AcDbEntity
  8
TITLE
100
AcDbText
 10
19.50244590285365
 20
1.197740762992484
 30
0.0
 40
0.09375
  1
DESCRIPTION
100
AcDbText
  0
LINE
  5
1859
330
1818
100
AcDbEntity
  8
TITLE
100
AcDbLine
 10
16.93749999999999
 20
1.127
 30
0.0
 11
16.9375
 21
1.377
 31
0.0
  0
LINE
  5
185A
330
1818
100
AcDbEntity
  8
TITLE
100
AcDbLine
 10
16.41929648007106
 20
1.127
 30
0.0
 11
16.41929648007106
 21
1.377
 31
0.0
  0
TEXT
  5
185B
330
1818
100
AcDbEntity
  8
TITLE
100
AcDbText
 10
16.4708473600533
 20
1.197740762992484
 30
0.0
 40
0.09375
  1
REQ'D.
100
AcDbText
  0
TEXT
  5
185C
330
1818
100
AcDbEntity
  8
TITLE
100
AcDbText
 10
16.06299999999999
 20
0.9728772779084607
 30
0.0
 40
0.09375
  1
MAT:
100
AcDbText
  0
TEXT
  5
185D
330
1818
100
AcDbEntity
  8
TITLE
100
AcDbText
 10
16.05657245370309
 20
1.199407818911626
 30
0.0
 40
0.09375
  1
ITEM
100
AcDbText
  0
TEXT
  5
185E
330
1818
100
AcDbEntity
  8
TITLE
100
AcDbText
 10
16.06299999999999
 20
0.3124999999999996
 30
0.0
 40
0.09375
  1
CH.
100
AcDbText
  0
TEXT
  5
185F
330
1818
100
AcDbEntity
  8
TITLE
100
AcDbText
 10
16.06299999999999
 20
0.5693740809498898
 30
0.0
 40
0.09375
  1
DR.
100
AcDbText
  0
TEXT
  5
1860
330
1818
100
AcDbEntity
  8
TITLE
100
AcDbText
 10
16.06299999999999
 20
0.7741181638829385
 30
0.0
 40
0.09375
  1
FINISH:
100
AcDbText
  0
TEXT
  5
1861
330
1818
100
AcDbEntity
  8
TITLE
100
AcDbText
 10
16.06299999999999
 20
0.0624999999999996
 30
0.0
 40
0.09375
  1
APP.
100
AcDbText
  0
LINE
  5
1862
330
1818
100
AcDbEntity
  8
TITLE
100
AcDbLine
 10
16.6977560980471
 20
-0.0000000000000004
 30
0.0
 11
16.69775609804711
 21
0.709000000000001
 31
0.0
  0
LINE
  5
1863
330
1818
100
AcDbEntity
  8
TITLE
100
AcDbLine
 10
16.00049999999999
 20
-0.0000000000000004
 30
0.0
 11
16.00049999999999
 21
1.377
 31
0.0
  0
TEXT
  5
1864
330
1818
100
AcDbEntity
  8
TITLE
100
AcDbText
 10
14.04590599630992
 20
0.9520717565666277
 30
0.0
 40
0.1117888355610499
  1
%%uTOLERANCES:
100
AcDbText
  0
TEXT
  5
1865
330
1818
100
AcDbEntity
  8
TITLE
100
AcDbText
 10
14.09148536758392
 20
0.2344895723568654
 30
0.0
 40
0.0772424143690822
  1
    SURFACES
100
AcDbText
  0
TEXT
  5
1866
330
1818
100
AcDbEntity
  8
TITLE
100
AcDbText
 10
13.99371994674778
 20
0.7494390014840789
 30
0.0
 40
0.0772424143690822
  1
%%p.005 BETWEEN HOLE CENTERS
100
AcDbText
  0
TEXT
  5
1867
330
1818
100
AcDbEntity
  8
TITLE
100
AcDbText
 10
13.99371994674778
 20
0.6207016442022755
 30
0.0
 40
0.0772424143690822
  1
%%p.015 FROM SHEARED EDGE
100
AcDbText
  0
TEXT
  5
1868
330
1818
100
AcDbEntity
  8
TITLE
100
AcDbText
 10
13.99371994674778
 20
0.4919642869204704
 30
0.0
 40
0.0772424143690822
  1
%%p.032 FROM A BENT SURFACE
100
AcDbText
  0
TEXT
  5
1869
330
1818
100
AcDbEntity
  8
TITLE
100
AcDbText
 10
13.99864980528381
 20
0.0564750904941671
 30
0.0
 40
0.0772424143690822
  1
UNLESS OTHERWISE SPECIFIED
100
AcDbText
  0
TEXT
  5
186A
330
1818
100
AcDbEntity
  8
TITLE
100
AcDbText
 10
13.99371994674778
 20
0.363226929638667
 30
0.0
 40
0.0772424143690822
  1
%%p.063 BETWEEN ASSEMBLED
100
AcDbText
  0
LINE
  5
186B
330
1818
100
AcDbEntity
  8
TITLE
100
AcDbLine
 10
12.39499999999999
 20
0.0000000000000013
 30
0.0
 11
12.39499999999999
 21
0.2499999999999996
 31
0.0
  0
TEXT
  5
186C
330
1818
100
AcDbEntity
  8
TITLE
100
AcDbText
 10
12.81725974114937
 20
0.0776282744477839
 30
0.0
 40
0.09375
  1
USED ON
100
AcDbText
  0
LINE
  5
186D
330
1818
100
AcDbEntity
  8
TITLE
100
AcDbLine
 10
13.92249999999999
 20
0.0000000000000013
 30
0.0
 11
13.92249999999999
 21
1.127
 31
0.0
  0
LINE
  5
186E
330
1818
100
AcDbEntity
  8
TITLE
100
AcDbLine
 10
12.01999999999999
 20
0.2499999999999996
 30
0.0
 11
13.92249999999999
 21
0.2499999999999996
 31
0.0
  0
LINE
  5
186F
330
1818
100
AcDbEntity
  8
TITLE
100
AcDbLine
 10
13.92249999999999
 20
1.127
 30
0.0
 11
12.01999999999999
 21
1.127
 31
0.0
  0
TEXT
  5
1870
330
1818
100
AcDbEntity
  8
TITLE
100
AcDbText
 10
12.07174918381226
 20
0.0776282744477839
 30
0.0
 40
0.09375
  1
QTY.
100
AcDbText
  0
LINE
  5
1871
330
1818
100
AcDbEntity
  8
TITLE
100
AcDbLine
 10
16.00049999999999
 20
1.377
 30
0.0
 11
12.01999999999999
 21
1.377
 31
0.0
  0
LINE
  5
1872
330
1818
100
AcDbEntity
  8
TITLE
100
AcDbLine
 10
16.00049999999999
 20
1.377
 30
0.0
 11
21.49999999999999
 21
1.377
 31
0.0
  0
LINE
  5
1873
330
1818
100
AcDbEntity
  8
TITLE
100
AcDbLine
 10
13.92249999999999
 20
1.127
 30
0.0
 11
21.49999999999999
 21
1.127
 31
0.0
  0
LINE
  5
1874
330
1818
100
AcDbEntity
  8
TITLE
100
AcDbLine
 10
16.00049999999999
 20
0.9180000000000006
 30
0.0
 11
19.36724560008882
 21
0.9180000000000006
 31
0.0
  0
LINE
  5
1875
330
1818
100
AcDbEntity
  8
TITLE
100
AcDbLine
 10
16.00049999999999
 20
0.2499999999999996
 30
0.0
 11
17.66353790782162
 21
0.2499999999999996
 31
0.0
  0
LINE
  5
1876
330
1818
100
AcDbEntity
  8
TITLE
100
AcDbLine
 10
16.00049999999999
 20
0.709000000000001
 30
0.0
 11
17.66353790782162
 21
0.709000000000001
 31
0.0
  0
LINE
  5
1877
330
1818
100
AcDbEntity
  8
TITLE
100
AcDbLine
 10
16.00049999999999
 20
0.4999999999999996
 30
0.0
 11
17.66353790782162
 21
0.4999999999999996
 31
0.0
  0
LINE
  5
1878
330
1818
100
AcDbEntity
  8
TITLE
100
AcDbLine
 10
21.49999999999999
 20
15.625
 30
0.0
 11
21.49999999999999
 21
0.0
 31
0.0
  0
LINE
  5
1879
330
1818
100
AcDbEntity
  8
TITLE
100
AcDbLine
 10
0.0
 20
15.625
 30
0.0
 11
21.49999999999999
 21
15.625
 31
0.0
  0
ENDBLK
  5
187B
330
1818
100
AcDbEntity
  8
0
100
AcDbBlockEnd
  0
ENDSEC
  0
SECTION
  2
ENTITIES
  0
MTEXT
  5
2C4
102
{ACAD_REACTORS
330
468
102
}
330
1E
100
AcDbEntity
  8
0
 62
     4
100
AcDbMText
 10
8.655232536912041
 20
3.194288899090008
 30
0.0
 40
0.125
 41
0.0
 71
     6
 72
     1
  1
TEXTURED RECESS {\fGDT|b0|i0|c0|p0;x}0.010
  7
STANDARD
 73
     1
 44
1.0
1001
ACAD
1000
MTEXTBEGIN
1070
    73
1070
     1
1070
    44
1040
1.0
1070
    74
1070
     0
1000
MTEXTEND
  0
LINE
  5
2C5
330
1E
100
AcDbEntity
  8
ZN-40BMB
100
AcDbLine
 10
8.287954129626275
 20
3.932993569835087
 30
0.0
 11
8.187969360110631
 21
3.93299356983508
 31
0.0
  0
ARC
  5
2C6
330
1E
100
AcDbEntity
  8
ZN-40BMB
100
AcDbCircle
 10
8.251021617586555
 20
2.209101576676594
 30
0.0
 40
1.779863346051009
100
AcDbArc
 50
88.81101605117798
 51
95.22094964347507
  0
LINE
  5
2C7
330
1E
100
AcDbEntity
  8
ZN-40BMB
100
AcDbLine
 10
8.287954129626267
 20
9.182883851861289
 30
0.0
 11
8.187969360110624
 21
9.182883851861289
 31
0.0
  0
ARC
  5
2C8
330
1E
100
AcDbEntity
  8
ZN-40BMB
100
AcDbCircle
 10
8.248031092797415
 20
10.82181791299332
 30
0.0
 40
1.694992423586572
100
AcDbArc
 50
264.6183922451363
 51
271.3496420602057
  0
ARC
  5
2C9
330
1E
100
AcDbEntity
  8
ZN-40BMB
100
AcDbCircle
 10
8.28795412962626
 20
11.98423786426303
 30
0.0
 40
0.0999999999999997
100
AcDbArc
 50
181.0000000000268
 51
270.0
  0
ARC
  5
2CA
330
1E
100
AcDbEntity
  8
ZN-40BMB
100
AcDbCircle
 10
8.287843048248337
 20
11.97907150831633
 30
0.0
 40
0.1987903619823183
100
AcDbArc
 50
179.5115600761462
 51
270.0320161118741
  0
ARC
  5
2CB
330
1E
100
AcDbEntity
  8
ZN-40BMB
100
AcDbCircle
 10
18.3374580064344
 20
6.557938710848222
 30
0.0
 40
10.17677669529664
100
AcDbArc
 50
166.4269221264211
 51
193.57307787358
  0
LINE
  5
2DA
330
1E
100
AcDbEntity
  8
ZN-40BMB
  6
CENTER2
 62
     1
 48
0.8
100
AcDbLine
 10
7.417512865421318
 20
6.557938710848187
 30
0.0
 11
16.79740314744751
 21
6.557938710848215
 31
0.0
  0
DIMENSION
  5
2EA
330
1E
100
AcDbEntity
  8
0
100
AcDbDimension
  2
*D9
 10
17.55734979322812
 20
20.11661594265834
 30
0.0
 11
17.55734979322812
 21
17.5274188302332
 31
0.0
 70
   160
 71
     5
 42
5.249890282026207
  3
STANDARD
100
AcDbAlignedDimension
 13
16.15745800643436
 23
14.86672566063214
 33
0.0
 14
16.15745800643436
 24
20.11661594265834
 34
0.0
 50
90.00000000000019
100
AcDbRotatedDimension
1001
ACAD
1000
DSTYLE
1002
{
1070
   141
1040
0.0
1002
}
  0
DIMENSION
  5
3CB
330
1E
100
AcDbEntity
  8
0
100
AcDbDimension
  2
*D2
 10
17.40356899543631
 20
7.557938710848206
 30
0.0
 11
17.40356899543631
 21
6.604477611326005
 31
0.0
 70
   160
 71
     5
 42
2.0
  3
STANDARD
100
AcDbAlignedDimension
 13
13.60745800643441
 23
5.557938710848207
 33
0.0
 14
13.6074580064344
 24
7.557938710848207
 34
0.0
 50
270.0000000000002
100
AcDbRotatedDimension
1001
ACAD
1000
DSTYLE
1002
{
1070
   141
1040
0.0
1002
}
  0
DIMENSION
  5
3CC
330
1E
100
AcDbEntity
  8
0
 62
    14
100
AcDbDimension
  2
*D8
 10
8.371977846862808
 20
10.67056575833924
 30
0.0
 11
12.14191833883912
 21
10.67056575833924
 31
0.0
 70
   160
  1
<>**
 71
     5
 42
7.470960319143195
  3
STANDARD
100
AcDbAlignedDimension
 13
15.842938166006
 23
11.42823786426303
 33
0.0
 14
8.371977846862808
 24
11.42823786426303
 34
0.0
 50
0.0000000000004071
100
AcDbRotatedDimension
1001
ACAD
1000
DSTYLE
1002
{
1070
   141
1040
0.0
1002
}
  0
DIMENSION
  5
3CD
330
1E
100
AcDbEntity
  8
0
100
AcDbDimension
  2
*D7
 10
8.631374137374525
 20
11.08647380802363
 30
0.0
 11
12.14191833883912
 21
11.08647380802363
 31
0.0
 70
   160
  1
<>**
 71
     5
 42
6.952167738119761
  3
STANDARD
100
AcDbAlignedDimension
 13
15.58354187549428
 23
11.67823786426303
 33
0.0
 14
8.631374137374525
 24
11.67823786426303
 34
0.0
 50
180.0
100
AcDbRotatedDimension
1001
ACAD
1000
DSTYLE
1002
{
1070
   141
1040
0.0
1002
}
  0
LINE
  5
3CE
330
1E
100
AcDbEntity
  8
ZN-40BMB
100
AcDbLine
 10
8.287954129626253
 20
11.88423786426303
 30
0.0
 11
15.92696188324255
 21
11.88423786426303
 31
0.0
  0
LINE
  5
3CF
330
1E
100
AcDbEntity
  8
ZN-40BMB
100
AcDbLine
 10
15.51593651485994
 20
11.77533174013731
 30
0.0
 11
8.698979498008863
 21
11.77533174013731
 31
0.0
  0
LINE
  5
3D0
330
1E
100
AcDbEntity
  8
ZN-40BMB
100
AcDbLine
 10
15.51593651485994
 20
11.67823786426303
 30
0.0
 11
8.698979498008863
 21
11.67823786426303
 31
0.0
  0
LINE
  5
3D1
330
1E
100
AcDbEntity
  8
ZN-40BMB
100
AcDbLine
 10
15.51593651485995
 20
3.996638406010777
 30
0.0
 11
8.698979498008885
 21
3.996638406010749
 31
0.0
  0
LINE
  5
3D2
330
1E
100
AcDbEntity
  8
ZN-40BMB
100
AcDbLine
 10
15.51593651485995
 20
9.119239015685655
 30
0.0
 11
8.698979498008878
 21
9.119239015685634
 31
0.0
  0
LINE
  5
3D3
330
1E
100
AcDbEntity
  8
ZN-40BMB
100
AcDbLine
 10
8.287954129626267
 20
9.182883851861289
 30
0.0
 11
15.92696188324256
 21
9.18288385186131
 31
0.0
  0
LINE
  5
3D4
330
1E
100
AcDbEntity
  8
ZN-40BMB
100
AcDbLine
 10
8.287954129626275
 20
3.932993569835087
 30
0.0
 11
15.92696188324256
 21
3.932993569835108
 31
0.0
  0
ARC
  5
3D5
330
1E
100
AcDbEntity
  8
ZN-40BMB
100
AcDbCircle
 10
5.877458006434412
 20
6.557938710848191
 30
0.0
 40
9.93786796564404
100
AcDbArc
 50
345.9004372827112
 51
14.09956271728995
  0
LINE
  5
3D6
330
1E
100
AcDbEntity
  8
ZN-40BMB
100
AcDbLine
 10
16.65197854755199
 20
6.052938710848213
 30
0.0
 11
16.65197854755124
 21
7.062938710848211
 31
0.0
  0
LINE
  5
3D7
330
1E
100
AcDbEntity
  8
ZN-40BMB
100
AcDbLine
 10
16.6974031474475
 20
7.062938710848204
 30
0.0
 11
16.69740314744751
 21
6.052938710848206
 31
0.0
  0
ARC
  5
3D8
330
1E
100
AcDbEntity
  8
ZN-40BMB
100
AcDbCircle
 10
5.877458006434412
 20
6.557938710848191
 30
0.0
 40
10.04393398282202
100
AcDbArc
 50
346.2188483504569
 51
13.78115164954419
  0
ARC
  5
3D9
330
1E
100
AcDbEntity
  8
ZN-40BMB
100
AcDbCircle
 10
5.877458006434412
 20
6.557938710848191
 30
0.0
 40
10.17677669529664
100
AcDbArc
 50
346.4269221264202
 51
13.57307787358082
  0
ARC
  5
3DA
330
1E
100
AcDbEntity
  8
ZN-40BMB
100
AcDbCircle
 10
8.290658006434373
 20
7.062938710848179
 30
0.0
 40
8.361320541117589
100
AcDbArc
 50
0.0000000000003817
 51
13.1733330093891
  0
ARC
  5
3DB
330
1E
100
AcDbEntity
  8
ZN-40BMB
100
AcDbCircle
 10
8.290658006434373
 20
7.062938710848179
 30
0.0
 40
8.406745141013143
100
AcDbArc
 50
0.0000000000003817
 51
13.19906671905139
  0
DIMENSION
  5
3DC
330
1E
100
AcDbEntity
  8
0
100
AcDbDimension
  2
*D3
 10
16.96664114109504
 20
11.42823786426302
 30
0.0
 11
16.96664114109504
 21
11.55323786426302
 31
0.0
 70
   160
 71
     5
 42
0.2500000000000071
  3
STANDARD
100
AcDbAlignedDimension
 13
15.51593651485994
 23
11.67823786426303
 33
0.0
 14
16.48466807461995
 24
11.42823786426302
 34
0.0
 50
270.0
100
AcDbRotatedDimension
1001
ACAD
1000
DSTYLE
1002
{
1070
   141
1040
0.0
1002
}
  0
ARC
  5
3DD
330
1E
100
AcDbEntity
  8
ZN-40BMB
100
AcDbCircle
 10
15.92696188324254
 20
11.98423786426303
 30
0.0
 40
0.0999999999999997
100
AcDbArc
 50
270.0
 51
358.9999999999877
  0
ARC
  5
3DE
330
1E
100
AcDbEntity
  8
ZN-40BMB
100
AcDbCircle
 10
15.92707296462041
 20
11.97907150831645
 30
0.0
 40
0.1987903619824114
100
AcDbArc
 50
269.9679838881443
 51
0.4884399248276477
  0
LINE
  5
3DF
330
1E
100
AcDbEntity
  8
ZN-40BMB
100
AcDbLine
 10
16.63457669867282
 20
11.57300293975765
 30
0.0
 11
16.65197854755124
 21
12.07132669183153
 31
0.0
  0
LINE
  5
3E0
330
1E
100
AcDbEntity
  8
ZN-40BMB
  6
HIDDEN2
 62
     4
100
AcDbLine
 10
16.65490314744751
 20
12.22823786426303
 30
0.0
 11
16.64917825862107
 21
12.29367364297676
 31
0.0
  0
ARC
  5
3E1
330
1E
100
AcDbEntity
  8
ZN-40BMB
  6
HIDDEN2
 62
     4
100
AcDbCircle
 10
16.6441972851306
 20
12.29323786426302
 30
0.0
 40
0.0050000000000008
100
AcDbArc
 50
5.000000000168687
 51
90.00000000000587
  0
LINE
  5
3E2
330
1E
100
AcDbEntity
  8
ZN-40BMB
100
AcDbLine
 10
16.65197854755124
 20
12.07132669183153
 30
0.0
 11
16.12491088178665
 21
12.0713266918526
 31
0.0
  0
LINE
  5
3E3
330
1E
100
AcDbEntity
  8
ZN-40BMB
100
AcDbLine
 10
16.03071249994158
 20
12.19823786426303
 30
0.0
 11
16.69740314744751
 21
12.19823786426303
 31
0.0
  0
ARC
  5
3E4
330
1E
100
AcDbEntity
  8
ZN-40BMB
100
AcDbCircle
 10
16.4974031474475
 20
12.19823786426302
 30
0.0
 40
0.200000000012917
100
AcDbArc
 50
320.6129486304362
 51
0.0000000000003817
  0
LINE
  5
3E5
330
1E
100
AcDbEntity
  8
ZN-40BMB
100
AcDbLine
 10
16.67740314744751
 20
12.19823786426303
 30
0.0
 11
16.67740314744751
 21
12.22823786426303
 31
0.0
  0
LINE
  5
3E6
330
1E
100
AcDbEntity
  8
ZN-40BMB
  6
HIDDEN2
 62
     4
100
AcDbLine
 10
16.07623615188942
 20
12.22823786426303
 30
0.0
 11
16.07868060575385
 21
12.29823786426303
 31
0.0
  0
LINE
  5
3E7
330
1E
100
AcDbEntity
  8
ZN-40BMB
100
AcDbLine
 10
16.03071249994158
 20
12.19823786426303
 30
0.0
 11
16.03123615188942
 21
12.22823786426303
 31
0.0
  0
LINE
  5
3E8
330
1E
100
AcDbEntity
  8
ZN-40BMB
100
AcDbLine
 10
16.02694665275819
 20
11.9824926236193
 30
0.0
 11
16.03071249994158
 21
12.19823786426303
 31
0.0
  0
ARC
  5
3E9
330
1E
100
AcDbEntity
  8
ZN-40BMB
100
AcDbCircle
 10
12.87943119951083
 20
9.760820544913871
 30
0.0
 40
3.98391478612529
100
AcDbArc
 50
35.44763975290001
 51
37.72082792612482
  0
POLYLINE
  5
3EA
330
1E
100
AcDbEntity
  8
ZN-40BMB
100
AcDb2dPolyline
 66
     1
 10
0.0
 20
0.0
 30
0.0
 70
   128
 40
0.0005905511811024
 41
0.0005905511811024
  0
VERTEX
  5
3EB
330
3EA
100
AcDbEntity
  8
ZN-40BMB
100
AcDbVertex
100
AcDb2dVertex
 10
16.12491088178665
 20
12.0713266918526
 30
0.0
  0
VERTEX
  5
3EC
330
3EA
100
AcDbEntity
  8
ZN-40BMB
100
AcDbVertex
100
AcDb2dVertex
 10
16.1254014037454
 20
12.02633914521607
 30
0.0
  0
VERTEX
  5
3ED
330
3EA
100
AcDbEntity
  8
ZN-40BMB
100
AcDbVertex
100
AcDb2dVertex
 10
16.12585610323474
 20
11.98076615273922
 30
0.0
  0
SEQEND
  5
3EE
330
3EA
100
AcDbEntity
  8
ZN-40BMB
  0
LINE
  5
3EF
330
1E
100
AcDbEntity
  8
ZN-40BMB
100
AcDbLine
 10
16.48466807461995
 20
11.42823786426302
 30
0.0
 11
15.94612919038827
 21
11.42898506376757
 31
0.0
  0
ARC
  5
3F0
330
1E
100
AcDbEntity
  8
ZN-40BMB
100
AcDbCircle
 10
16.48466807461995
 20
11.57823786426302
 30
0.0
 40
0.1500000000000005
100
AcDbArc
 50
270.0
 51
358.0000000000002
  0
ARC
  5
3F1
330
1E
100
AcDbEntity
  8
ZN-40BMB
100
AcDbCircle
 10
14.58193806584506
 20
44.42085080732637
 30
0.0
 40
32.65887732713675
100
AcDbArc
 50
271.6388030136111
 51
271.9185545616535
  0
ARC
  5
3F2
330
1E
100
AcDbEntity
  8
ZN-40BMB
100
AcDbCircle
 10
15.51839829798251
 20
11.51815001785829
 30
0.0
 40
0.1599054885457397
100
AcDbArc
 50
45.37113543960154
 51
90.91570884625001
  0
LINE
  5
3F3
330
1E
100
AcDbEntity
  8
ZN-40BMB
100
AcDbLine
 10
15.63111639261766
 20
11.63223976662951
 30
0.0
 11
15.76896338128648
 21
11.49950226832582
 31
0.0
  0
LINE
  5
3F4
330
1E
100
AcDbEntity
  8
ZN-40BMB
100
AcDbLine
 10
15.67531928980126
 20
11.78028117736944
 30
0.0
 11
15.92696188324255
 21
11.78028117736944
 31
0.0
  0
ARC
  5
3F5
330
1E
100
AcDbEntity
  8
ZN-40BMB
100
AcDbCircle
 10
15.9423444080382
 20
11.67483477208162
 30
0.0
 40
0.2458788393813958
100
AcDbArc
 50
225.2998795419138
 51
270.8819816296659
  0
ARC
  5
3F6
330
1E
100
AcDbEntity
  8
ZN-40BMB
100
AcDbCircle
 10
15.9668849200712
 20
10.82181791299976
 30
0.0
 40
1.694992423592978
100
AcDbArc
 50
268.6503579398062
 51
275.3816077548502
  0
LINE
  5
3F7
330
1E
100
AcDbEntity
  8
ZN-40BMB
100
AcDbLine
 10
15.92696188324256
 20
9.18288385186131
 30
0.0
 11
16.0269466527582
 21
9.18288385186131
 31
0.0
  0
ARC
  5
3F8
330
1E
100
AcDbEntity
  8
ZN-40BMB
100
AcDbCircle
 10
16.22544036794618
 20
8.91994945844638
 30
0.0
 40
0.2121345424113044
100
AcDbArc
 50
14.23498680251102
 51
79.41915931869854
  0
ARC
  5
3F9
330
1E
100
AcDbEntity
  8
ZN-40BMB
100
AcDbCircle
 10
16.23016540131729
 20
8.925005309343751
 30
0.0
 40
0.2518037133629309
100
AcDbArc
 50
13.19720802728667
 51
80.4507889942362
  0
LINE
  5
3FA
330
1E
100
AcDbEntity
  8
ZN-40BMB
100
AcDbLine
 10
16.43195104996247
 20
8.968464562343227
 30
0.0
 11
16.43106139897684
 21
8.972113197594778
 31
0.0
  0
ARC
  5
3FB
330
1E
100
AcDbEntity
  8
ZN-40BMB
100
AcDbCircle
 10
16.1574580064344
 20
8.492938710848205
 30
0.0
 40
0.6445205411175845
100
AcDbArc
 50
80.93077672856361
 51
90.00000000000097
  0
ARC
  5
3FC
330
1E
100
AcDbEntity
  8
ZN-40BMB
100
AcDbCircle
 10
16.1574580064344
 20
8.492938710848205
 30
0.0
 40
0.6899451410131068
100
AcDbArc
 50
80.44893030247489
 51
90.00000000000067
  0
LINE
  5
3FD
330
1E
100
AcDbEntity
  8
ZN-40BMB
100
AcDbLine
 10
16.04118055191928
 20
9.182070543521346
 30
0.0
 11
16.0269466527582
 21
9.18288385186131
 31
0.0
  0
LINE
  5
3FE
330
1E
100
AcDbEntity
  8
ZN-40BMB
100
AcDbLine
 10
16.05522922629799
 20
9.179641202028738
 30
0.0
 11
16.04118055191928
 21
9.182070543521346
 31
0.0
  0
LINE
  5
3FF
330
1E
100
AcDbEntity
  8
ZN-40BMB
100
AcDbLine
 10
16.06890986142974
 20
9.175627440242626
 30
0.0
 11
16.05522922629799
 21
9.179641202028738
 31
0.0
  0
LINE
  5
400
330
1E
100
AcDbEntity
  8
ZN-40BMB
100
AcDbLine
 10
16.08204443212013
 20
9.17008148897799
 30
0.0
 11
16.06890986142974
 21
9.175627440242626
 31
0.0
  0
LINE
  5
401
330
1E
100
AcDbEntity
  8
ZN-40BMB
100
AcDbLine
 10
16.09446201907502
 20
9.163075517329479
 30
0.0
 11
16.08204443212013
 21
9.17008148897799
 31
0.0
  0
LINE
  5
402
330
1E
100
AcDbEntity
  8
ZN-40BMB
100
AcDbLine
 10
16.10600103306189
 20
9.154700693539856
 30
0.0
 11
16.09446201907502
 21
9.163075517329479
 31
0.0
  0
LINE
  5
403
330
1E
100
AcDbEntity
  8
ZN-40BMB
100
AcDbLine
 10
16.11651131765977
 20
9.145065998633638
 30
0.0
 11
16.10600103306189
 21
9.154700693539856
 31
0.0
  0
LINE
  5
404
330
1E
100
AcDbEntity
  8
ZN-40BMB
100
AcDbLine
 10
16.12585610323476
 20
9.13429680825436
 30
0.0
 11
16.11651131765977
 21
9.145065998633638
 31
0.0
  0
POLYLINE
  5
405
330
1E
100
AcDbEntity
  8
ZN-40BMB
100
AcDb2dPolyline
 66
     1
 10
0.0
 20
0.0
 30
0.0
 70
   128
 40
0.0005905511811024
 41
0.0005905511811024
  0
VERTEX
  5
406
330
405
100
AcDbEntity
  8
ZN-40BMB
100
AcDbVertex
100
AcDb2dVertex
 10
16.12491088178667
 20
9.137459251965777
 30
0.0
  0
VERTEX
  5
407
330
405
100
AcDbEntity
  8
ZN-40BMB
100
AcDbVertex
100
AcDb2dVertex
 10
16.12540140374542
 20
9.135888252219684
 30
0.0
  0
VERTEX
  5
408
330
405
100
AcDbEntity
  8
ZN-40BMB
100
AcDbVertex
100
AcDb2dVertex
 10
16.12585610323476
 20
9.134296808254353
 30
0.0
  0
SEQEND
  5
409
330
405
100
AcDbEntity
  8
ZN-40BMB
  0
LINE
  5
40A
330
1E
100
AcDbEntity
  8
ZN-40BMB
100
AcDbLine
 10
16.0269466527582
 20
9.18288385186131
 30
0.0
 11
16.03071249994159
 21
9.18288385186131
 31
0.0
  0
LINE
  5
40B
330
1E
100
AcDbEntity
  8
ZN-40BMB
100
AcDbLine
 10
16.15745800643441
 20
9.137459251965792
 30
0.0
 11
16.12491088178668
 21
9.137459251965792
 31
0.0
  0
ARC
  5
40C
330
1E
100
AcDbEntity
  8
ZN-40BMB
100
AcDbCircle
 10
16.03071007106198
 20
9.062495482606477
 30
0.0
 40
0.1203883692793607
100
AcDbArc
 50
38.51231402874633
 51
89.99884403658583
  0
LINE
  5
40D
330
1E
100
AcDbEntity
  8
ZN-40BMB
100
AcDbLine
 10
16.03071249994159
 20
9.18288385186131
 30
0.0
 11
16.15745800643442
 21
9.18288385186131
 31
0.0
  0
LINE
  5
40E
330
1E
100
AcDbEntity
  8
ZN-40BMB
100
AcDbLine
 10
16.2643930755108
 20
9.128477036136812
 30
0.0
 11
16.25905226467927
 21
9.129401855589632
 31
0.0
  0
ARC
  5
40F
330
1E
100
AcDbEntity
  8
ZN-40BMB
100
AcDbCircle
 10
28.61747285847462
 20
-248.4830754478573
 30
0.0
 40
257.9352683747167
100
AcDbArc
 50
92.87607927695498
 51
92.91152855953134
  0
LINE
  5
410
330
1E
100
AcDbEntity
  8
ZN-40BMB
100
AcDbLine
 10
15.67531928980127
 20
9.12729571864291
 30
0.0
 11
15.92696188324256
 21
9.12729571864291
 31
0.0
  0
LINE
  5
411
330
1E
100
AcDbEntity
  8
ZN-40BMB
100
AcDbLine
 10
15.7700113908311
 20
8.946279440893709
 30
0.0
 11
15.76924134998816
 21
8.978259832329021
 31
0.0
  0
LINE
  5
412
330
1E
100
AcDbEntity
  8
ZN-40BMB
100
AcDbLine
 10
15.76924134998816
 20
8.978259832329021
 30
0.0
 11
15.77321260384954
 21
9.009916682339804
 31
0.0
  0
LINE
  5
413
330
1E
100
AcDbEntity
  8
ZN-40BMB
100
AcDbLine
 10
15.77321260384954
 20
9.009916682339804
 30
0.0
 11
15.78174388545095
 21
9.039805021326726
 31
0.0
  0
LINE
  5
414
330
1E
100
AcDbEntity
  8
ZN-40BMB
100
AcDbLine
 10
15.78174388545095
 20
9.039805021326726
 30
0.0
 11
15.79444578641623
 21
9.066560602967248
 31
0.0
  0
LINE
  5
415
330
1E
100
AcDbEntity
  8
ZN-40BMB
100
AcDbLine
 10
15.79444578641623
 20
9.066560602967248
 30
0.0
 11
15.81073853141261
 21
9.088962174923549
 31
0.0
  0
LINE
  5
416
330
1E
100
AcDbEntity
  8
ZN-40BMB
100
AcDbLine
 10
15.81073853141261
 20
9.088962174923549
 30
0.0
 11
15.8298784418618
 21
9.105987222623175
 31
0.0
  0
LINE
  5
417
330
1E
100
AcDbEntity
  8
ZN-40BMB
100
AcDbLine
 10
15.85099188097672
 20
9.116858641700252
 30
0.0
 11
15.87311513071059
 21
9.121080208744606
 31
0.0
  0
LINE
  5
418
330
1E
100
AcDbEntity
  8
ZN-40BMB
100
AcDbLine
 10
15.82987844186181
 20
9.105987222623168
 30
0.0
 11
15.85099188097672
 21
9.116858641700252
 31
0.0
  0
LINE
  5
419
330
1E
100
AcDbEntity
  8
ZN-40BMB
100
AcDbLine
 10
15.63225421541185
 20
8.950544146896204
 30
0.0
 11
15.63143088072089
 21
8.982566777993815
 31
0.0
  0
LINE
  5
41A
330
1E
100
AcDbEntity
  8
ZN-40BMB
100
AcDbLine
 10
15.63143088072089
 20
8.982566777993815
 30
0.0
 11
15.63536101811482
 21
9.014280118277616
 31
0.0
  0
LINE
  5
41B
330
1E
100
AcDbEntity
  8
ZN-40BMB
100
AcDbLine
 10
15.63536101811482
 20
9.014280118277616
 30
0.0
 11
15.64386471119774
 21
9.044232373748114
 31
0.0
  0
LINE
  5
41C
330
1E
100
AcDbEntity
  8
ZN-40BMB
100
AcDbLine
 10
15.64386471119774
 20
9.044232373748114
 30
0.0
 11
15.656552672355
 21
9.071052370496344
 31
0.0
  0
LINE
  5
41D
330
1E
100
AcDbEntity
  8
ZN-40BMB
100
AcDbLine
 10
15.656552672355
 20
9.071052370496344
 30
0.0
 11
15.67284406381586
 21
9.093512325198409
 31
0.0
  0
LINE
  5
41E
330
1E
100
AcDbEntity
  8
ZN-40BMB
100
AcDbLine
 10
15.67284406381586
 20
9.093512325198402
 30
0.0
 11
15.69199308762416
 21
9.110584051382202
 31
0.0
  0
LINE
  5
41F
330
1E
100
AcDbEntity
  8
ZN-40BMB
100
AcDbLine
 10
15.7131231272642
 20
9.121486028419097
 30
0.0
 11
15.73526687798397
 21
9.125719178485587
 31
0.0
  0
LINE
  5
420
330
1E
100
AcDbEntity
  8
ZN-40BMB
100
AcDbLine
 10
15.69199308762416
 20
9.110584051382202
 30
0.0
 11
15.7131231272642
 21
9.121486028419097
 31
0.0
  0
LINE
  5
421
330
1E
100
AcDbEntity
  8
ZN-40BMB
100
AcDbLine
 10
15.51593651485994
 20
8.978878971406698
 30
0.0
 11
15.51593651485994
 21
9.119239015685662
 31
0.0
  0
ARC
  5
422
330
1E
100
AcDbEntity
  8
ZN-40BMB
100
AcDbCircle
 10
16.1624580064344
 20
8.257938710848215
 30
0.0
 40
0.1000000000000014
100
AcDbArc
 50
233.9601866604071
 51
144.8108498596815
  0
ARC
  5
423
330
1E
100
AcDbEntity
  8
ZN-40BMB
100
AcDbCircle
 10
16.16665781008114
 20
8.258632893269044
 30
0.0
 40
0.1030755702790831
100
AcDbArc
 50
146.4717620654543
 51
232.2992744546088
  0
ARC
  5
424
330
1E
100
AcDbEntity
  8
ZN-40BMB
100
AcDbCircle
 10
16.20245800643429
 20
7.807938710848237
 30
0.0
 40
0.1552999999999968
100
AcDbArc
 50
114.8645035124495
 51
258.941378079966
  0
ARC
  5
425
330
1E
100
AcDbEntity
  8
ZN-40BMB
100
AcDbCircle
 10
16.20245800643441
 20
7.807938710848208
 30
0.0
 40
0.1553000000000021
100
AcDbArc
 50
258.9413780799235
 51
114.8645035124949
  0
CIRCLE
  5
426
330
1E
100
AcDbEntity
  8
ZN-40BMB
100
AcDbCircle
 10
16.20245800643441
 20
7.807938710848208
 30
0.0
 40
0.1185000000000005
  0
CIRCLE
  5
427
330
1E
100
AcDbEntity
  8
ZN-40BMB
100
AcDbCircle
 10
16.20245800643441
 20
7.807938710848208
 30
0.0
 40
0.0825
  0
CIRCLE
  5
428
330
1E
100
AcDbEntity
  8
ZN-40BMB
100
AcDbCircle
 10
16.20245800643441
 20
7.807938710848208
 30
0.0
 40
0.0580000000000003
  0
ARC
  5
429
330
1E
100
AcDbEntity
  8
ZN-40BMB
100
AcDbCircle
 10
16.166577918147
 20
4.857257733705662
 30
0.0
 40
0.1030162799307685
100
AcDbArc
 50
127.6700597695509
 51
213.55890371037
  0
ARC
  5
42A
330
1E
100
AcDbEntity
  8
ZN-40BMB
100
AcDbCircle
 10
16.16245800643441
 20
4.857938710848213
 30
0.0
 40
0.1
100
AcDbArc
 50
215.1891501403176
 51
126.0398133395977
  0
ARC
  5
42B
330
1E
100
AcDbEntity
  8
ZN-40BMB
100
AcDbCircle
 10
8.290658006434401
 20
6.052938710848188
 30
0.0
 40
8.361320541117592
100
AcDbArc
 50
346.8266669906111
 51
0.0000000000003817
  0
ARC
  5
42C
330
1E
100
AcDbEntity
  8
ZN-40BMB
100
AcDbCircle
 10
8.290658006434401
 20
6.052938710848188
 30
0.0
 40
8.406745141013113
100
AcDbArc
 50
346.8009332809497
 51
0.0000000000003817
  0
ARC
  5
42D
330
1E
100
AcDbEntity
  8
ZN-40BMB
100
AcDbCircle
 10
16.2024580064345
 20
5.307938710848208
 30
0.0
 40
0.1553000000000306
100
AcDbArc
 50
101.0586219201107
 51
245.1354964874752
  0
ARC
  5
42E
330
1E
100
AcDbEntity
  8
ZN-40BMB
100
AcDbCircle
 10
16.20245800643442
 20
5.307938710848208
 30
0.0
 40
0.1553000000000003
100
AcDbArc
 50
245.1354964875069
 51
101.0586219200788
  0
CIRCLE
  5
42F
330
1E
100
AcDbEntity
  8
ZN-40BMB
100
AcDbCircle
 10
16.20245800643442
 20
5.307938710848208
 30
0.0
 40
0.0580000000000003
  0
CIRCLE
  5
430
330
1E
100
AcDbEntity
  8
ZN-40BMB
100
AcDbCircle
 10
16.20245800643442
 20
5.307938710848208
 30
0.0
 40
0.0825
  0
CIRCLE
  5
431
330
1E
100
AcDbEntity
  8
ZN-40BMB
100
AcDbCircle
 10
16.20245800643442
 20
5.307938710848208
 30
0.0
 40
0.1185000000000005
  0
ARC
  5
432
330
1E
100
AcDbEntity
  8
ZN-40BMB
100
AcDbCircle
 10
15.96389439528207
 20
2.209101576670786
 30
0.0
 40
1.77986334605683
100
AcDbArc
 50
84.77905035653678
 51
91.188983948813
  0
LINE
  5
433
330
1E
100
AcDbEntity
  8
ZN-40BMB
100
AcDbLine
 10
15.92696188324256
 20
3.932993569835108
 30
0.0
 11
16.0269466527582
 21
3.932993569835108
 31
0.0
  0
ARC
  5
434
330
1E
100
AcDbEntity
  8
ZN-40BMB
100
AcDbCircle
 10
16.22544027939134
 20
4.195928057640887
 30
0.0
 40
0.2121346514578906
100
AcDbArc
 50
280.580859511235
 51
345.7649943673846
  0
ARC
  5
435
330
1E
100
AcDbEntity
  8
ZN-40BMB
100
AcDbCircle
 10
16.23016540066471
 20
4.190872113048254
 30
0.0
 40
0.2518037141571359
100
AcDbArc
 50
279.5492111259383
 51
346.8027918524718
  0
LINE
  5
436
330
1E
100
AcDbEntity
  8
ZN-40BMB
100
AcDbLine
 10
16.43106139897685
 20
4.143764224101662
 30
0.0
 11
16.43195104996248
 21
4.147412859353206
 31
0.0
  0
ARC
  5
437
330
1E
100
AcDbEntity
  8
ZN-40BMB
100
AcDbCircle
 10
16.15745800643442
 20
4.62293871084822
 30
0.0
 40
0.6445205411175619
100
AcDbArc
 50
270.0000000000001
 51
279.0692232714373
  0
ARC
  5
438
330
1E
100
AcDbEntity
  8
ZN-40BMB
100
AcDbCircle
 10
16.15745800643442
 20
4.62293871084822
 30
0.0
 40
0.6899451410131175
100
AcDbArc
 50
269.9999999999996
 51
279.551069697525
  0
LINE
  5
439
330
1E
100
AcDbEntity
  8
ZN-40BMB
100
AcDbLine
 10
16.25905226467926
 20
3.986475566106793
 30
0.0
 11
16.26439307551081
 21
3.987400385559613
 31
0.0
  0
LINE
  5
43A
330
1E
100
AcDbEntity
  8
ZN-40BMB
100
AcDbLine
 10
16.04118055191928
 20
3.933806878175079
 30
0.0
 11
16.0269466527582
 21
3.932993569835108
 31
0.0
  0
LINE
  5
43B
330
1E
100
AcDbEntity
  8
ZN-40BMB
100
AcDbLine
 10
16.055229226298
 20
3.936236219667687
 30
0.0
 11
16.04118055191928
 21
3.933806878175079
 31
0.0
  0
LINE
  5
43C
330
1E
100
AcDbEntity
  8
ZN-40BMB
100
AcDbLine
 10
16.06890986142975
 20
3.940249981453792
 30
0.0
 11
16.055229226298
 21
3.936236219667687
 31
0.0
  0
LINE
  5
43D
330
1E
100
AcDbEntity
  8
ZN-40BMB
100
AcDbLine
 10
16.08204443212013
 20
3.945795932718436
 30
0.0
 11
16.06890986142975
 21
3.940249981453792
 31
0.0
  0
LINE
  5
43E
330
1E
100
AcDbEntity
  8
ZN-40BMB
100
AcDbLine
 10
16.09446201907503
 20
3.952801904366939
 30
0.0
 11
16.08204443212013
 21
3.945795932718436
 31
0.0
  0
LINE
  5
43F
330
1E
100
AcDbEntity
  8
ZN-40BMB
100
AcDbLine
 10
16.1060010330619
 20
3.961176728156576
 30
0.0
 11
16.09446201907503
 21
3.952801904366939
 31
0.0
  0
LINE
  5
440
330
1E
100
AcDbEntity
  8
ZN-40BMB
100
AcDbLine
 10
16.11651131765978
 20
3.970811423062794
 30
0.0
 11
16.1060010330619
 21
3.961176728156576
 31
0.0
  0
LINE
  5
441
330
1E
100
AcDbEntity
  8
ZN-40BMB
100
AcDbLine
 10
16.12585610323476
 20
3.981580613442066
 30
0.0
 11
16.11651131765978
 21
3.970811423062794
 31
0.0
  0
LINE
  5
442
330
1E
100
AcDbEntity
  8
ZN-40BMB
100
AcDbLine
 10
16.12540140374542
 20
3.979989169476734
 30
0.0
 11
16.12585610323476
 21
3.981580613442066
 31
0.0
  0
LINE
  5
443
330
1E
100
AcDbEntity
  8
ZN-40BMB
100
AcDbLine
 10
16.12491088178668
 20
3.978418169730634
 30
0.0
 11
16.12540140374542
 21
3.979989169476734
 31
0.0
  0
LINE
  5
444
330
1E
100
AcDbEntity
  8
ZN-40BMB
100
AcDbLine
 10
16.0269466527582
 20
3.932993569835108
 30
0.0
 11
16.03071249994159
 21
3.932993569835108
 31
0.0
  0
LINE
  5
445
330
1E
100
AcDbEntity
  8
ZN-40BMB
100
AcDbLine
 10
16.15745800643442
 20
3.978418169732027
 30
0.0
 11
16.12491088178668
 21
3.978418169730634
 31
0.0
  0
ARC
  5
446
330
1E
100
AcDbEntity
  8
ZN-40BMB
100
AcDbCircle
 10
16.03040702549597
 20
4.054010373947225
 30
0.0
 40
0.1210171896556395
100
AcDbArc
 50
270.1446275121785
 51
321.3442144224092
  0
LINE
  5
447
330
1E
100
AcDbEntity
  8
ZN-40BMB
100
AcDbLine
 10
16.03071249994159
 20
3.932993569835108
 30
0.0
 11
16.15745800643441
 21
3.932993569835108
 31
0.0
  0
ARC
  5
448
330
1E
100
AcDbEntity
  8
ZN-40BMB
100
AcDbCircle
 10
28.61747284505498
 20
261.5989526039115
 30
0.0
 40
257.9352681087356
100
AcDbArc
 50
267.0884714404493
 51
267.1239207230622
  0
LINE
  5
449
330
1E
100
AcDbEntity
  8
ZN-40BMB
100
AcDbLine
 10
15.67531928980128
 20
3.988581703053515
 30
0.0
 11
15.92696188324256
 21
3.988581703053515
 31
0.0
  0
LINE
  5
44A
330
1E
100
AcDbEntity
  8
ZN-40BMB
100
AcDbLine
 10
15.85099188097673
 20
3.99901877999618
 30
0.0
 11
15.8731151307106
 21
3.994797212951826
 31
0.0
  0
LINE
  5
44B
330
1E
100
AcDbEntity
  8
ZN-40BMB
100
AcDbLine
 10
15.82987844186181
 20
4.009890199073264
 30
0.0
 11
15.85099188097673
 21
3.99901877999618
 31
0.0
  0
LINE
  5
44C
330
1E
100
AcDbEntity
  8
ZN-40BMB
100
AcDbLine
 10
15.81073853141262
 20
4.02691524677289
 30
0.0
 11
15.82987844186181
 21
4.009890199073264
 31
0.0
  0
LINE
  5
44D
330
1E
100
AcDbEntity
  8
ZN-40BMB
100
AcDbLine
 10
15.79444578641623
 20
4.049316818729192
 30
0.0
 11
15.81073853141262
 21
4.02691524677289
 31
0.0
  0
LINE
  5
44E
330
1E
100
AcDbEntity
  8
ZN-40BMB
100
AcDbLine
 10
15.78174388545096
 20
4.076072400369707
 30
0.0
 11
15.79444578641623
 21
4.049316818729192
 31
0.0
  0
LINE
  5
44F
330
1E
100
AcDbEntity
  8
ZN-40BMB
100
AcDbLine
 10
15.77321260384955
 20
4.105960739356635
 30
0.0
 11
15.78174388545096
 21
4.076072400369707
 31
0.0
  0
LINE
  5
450
330
1E
100
AcDbEntity
  8
ZN-40BMB
100
AcDbLine
 10
15.76924134998816
 20
4.137617589367419
 30
0.0
 11
15.77321260384955
 21
4.105960739356635
 31
0.0
  0
LINE
  5
451
330
1E
100
AcDbEntity
  8
ZN-40BMB
100
AcDbLine
 10
15.77001139083111
 20
4.169597980802731
 30
0.0
 11
15.76924134998816
 21
4.137617589367419
 31
0.0
  0
LINE
  5
452
330
1E
100
AcDbEntity
  8
ZN-40BMB
100
AcDbLine
 10
15.7131231272642
 20
3.994391393277336
 30
0.0
 11
15.73526687798397
 21
3.990158243210839
 31
0.0
  0
LINE
  5
453
330
1E
100
AcDbEntity
  8
ZN-40BMB
100
AcDbLine
 10
15.69199308762417
 20
4.00529337031423
 30
0.0
 11
15.7131231272642
 21
3.994391393277336
 31
0.0
  0
LINE
  5
454
330
1E
100
AcDbEntity
  8
ZN-40BMB
100
AcDbLine
 10
15.67284406381586
 20
4.022365096498031
 30
0.0
 11
15.69199308762417
 21
4.00529337031423
 31
0.0
  0
LINE
  5
455
330
1E
100
AcDbEntity
  8
ZN-40BMB
100
AcDbLine
 10
15.65655267235501
 20
4.044825051200096
 30
0.0
 11
15.67284406381586
 21
4.022365096498031
 31
0.0
  0
LINE
  5
456
330
1E
100
AcDbEntity
  8
ZN-40BMB
100
AcDbLine
 10
15.64386471119774
 20
4.071645047948326
 30
0.0
 11
15.65655267235501
 21
4.044825051200096
 31
0.0
  0
LINE
  5
457
330
1E
100
AcDbEntity
  8
ZN-40BMB
100
AcDbLine
 10
15.63536101811483
 20
4.101597303418817
 30
0.0
 11
15.64386471119774
 21
4.071645047948326
 31
0.0
  0
LINE
  5
458
330
1E
100
AcDbEntity
  8
ZN-40BMB
100
AcDbLine
 10
15.6314308807209
 20
4.133310643702618
 30
0.0
 11
15.63536101811483
 21
4.101597303418817
 31
0.0
  0
LINE
  5
459
330
1E
100
AcDbEntity
  8
ZN-40BMB
100
AcDbLine
 10
15.63225421541186
 20
4.165333274800236
 30
0.0
 11
15.6314308807209
 21
4.133310643702618
 31
0.0
  0
LINE
  5
45A
330
1E
100
AcDbEntity
  8
ZN-40BMB
100
AcDbLine
 10
15.51593651485995
 20
4.136998450289741
 30
0.0
 11
15.51593651485995
 21
3.996638406010777
 31
0.0
  0
ARC
  5
45B
330
1E
100
AcDbEntity
  8
ZN-40BMB
100
AcDbCircle
 10
18.3374580064344
 20
6.557938710848222
 30
0.0
 40
10.04393398282202
100
AcDbArc
 50
166.2188483504578
 51
193.7811516495433
  0
ARC
  5
45C
330
1E
100
AcDbEntity
  8
ZN-40BMB
100
AcDbCircle
 10
18.3374580064344
 20
6.557938710848222
 30
0.0
 40
9.93786796564404
100
AcDbArc
 50
165.900437282712
 51
194.0995627172891
  0
LINE
  5
45D
330
1E
100
AcDbEntity
  8
ZN-40BMB
  6
CENTER2
 62
     1
 48
0.8
100
AcDbLine
 10
12.10745800643442
 20
3.832993569835092
 30
0.0
 11
12.10745800643441
 21
9.282883851861305
 31
0.0
  0
LINE
  5
45E
330
1E
100
AcDbEntity
  8
ZN-40BMB
100
AcDbLine
 10
13.60745800643441
 20
5.557938710848208
 30
0.0
 11
13.6074580064344
 21
7.557938710848208
 31
0.0
  0
LINE
  5
45F
330
1E
100
AcDbEntity
  8
ZN-40BMB
100
AcDbLine
 10
10.6074580064344
 20
7.557938710848201
 30
0.0
 11
10.60745800643441
 21
5.557938710848194
 31
0.0
  0
DIMENSION
  5
460
330
1E
100
AcDbEntity
  8
0
100
AcDbDimension
  2
*D4
 10
10.60745800643441
 20
3.377860925034812
 30
0.0
 11
12.18209687384364
 21
3.377860925034812
 31
0.0
 70
   160
 71
     5
 42
3.0
  3
STANDARD
100
AcDbAlignedDimension
 13
13.60745800643441
 23
5.557938710848207
 33
0.0
 14
10.60745800643441
 24
5.557938710848193
 34
0.0
 50
180.0
100
AcDbRotatedDimension
1001
ACAD
1000
DSTYLE
1002
{
1070
   141
1040
0.0
1002
}
  0
LINE
  5
461
330
1E
100
AcDbEntity
  8
ZN-40BMB
100
AcDbLine
 10
13.6074580064344
 20
7.557938710848208
 30
0.0
 11
10.6074580064344
 21
7.557938710848201
 31
0.0
  0
LINE
  5
462
330
1E
100
AcDbEntity
  8
ZN-40BMB
100
AcDbLine
 10
14.98271477110924
 20
11.88423786426303
 30
0.0
 11
14.98145800643441
 21
11.95623786426303
 31
0.0
  0
LINE
  5
463
330
1E
100
AcDbEntity
  8
ZN-40BMB
100
AcDbLine
 10
14.7934580064344
 20
11.95623786426303
 30
0.0
 11
14.79220124175957
 21
11.88423786426303
 31
0.0
  0
LINE
  5
464
330
1E
100
AcDbEntity
  8
ZN-40BMB
100
AcDbLine
 10
14.7934580064344
 20
11.95623786426303
 30
0.0
 11
14.98145800643441
 21
11.95623786426303
 31
0.0
  0
LINE
  5
465
330
1E
100
AcDbEntity
  8
ZN-40BMB
100
AcDbLine
 10
12.20271477110923
 20
11.88423786426303
 30
0.0
 11
12.2014580064344
 21
11.95623786426303
 31
0.0
  0
LINE
  5
466
330
1E
100
AcDbEntity
  8
ZN-40BMB
100
AcDbLine
 10
12.0134580064344
 20
11.95623786426303
 30
0.0
 11
12.01220124175957
 21
11.88423786426303
 31
0.0
  0
LINE
  5
467
330
1E
100
AcDbEntity
  8
ZN-40BMB
100
AcDbLine
 10
12.0134580064344
 20
11.95623786426303
 30
0.0
 11
12.2014580064344
 21
11.95623786426303
 31
0.0
  0
LEADER
  5
468
330
1E
100
AcDbEntity
  8
0
100
AcDbLeader
  3
STANDARD$7
 73
     0
 75
     1
 40
0.1297597716439021
 41
2.330649003339829
 76
     3
 10
11.14453126451336
 20
6.043300318527048
 30
0.0
 10
8.91648253691204
 20
3.194288899090008
 30
0.0
 10
8.778982536912041
 20
3.194288899090008
 30
0.0
340
2C4
211
1.0
221
-0.0000000000000002
231
0.0
1001
ACAD
1000
DSTYLE
1002
{
1070
    41
1040
0.1
1070
   341
1005
66
1002
}
  0
LINE
  5
469
330
1E
100
AcDbEntity
  8
ZN-40BMB
100
AcDbLine
 10
9.422714771109237
 20
11.88423786426303
 30
0.0
 11
9.421458006434402
 21
11.95623786426303
 31
0.0
  0
LINE
  5
46A
330
1E
100
AcDbEntity
  8
ZN-40BMB
100
AcDbLine
 10
9.2334580064344
 20
11.95623786426303
 30
0.0
 11
9.232201241759565
 21
11.88423786426303
 31
0.0
  0
LINE
  5
46B
330
1E
100
AcDbEntity
  8
ZN-40BMB
100
AcDbLine
 10
9.2334580064344
 20
11.95623786426303
 30
0.0
 11
9.421458006434402
 21
11.95623786426303
 31
0.0
  0
ARC
  5
46C
330
1E
100
AcDbEntity
  8
ZN-40BMB
100
AcDbCircle
 10
8.696359459322454
 20
11.5154726344504
 30
0.0
 40
0.162291434155069
100
AcDbArc
 50
89.07947510047792
 51
133.9946917223914
  0
ARC
  5
46D
330
1E
100
AcDbEntity
  8
ZN-40BMB
100
AcDbCircle
 10
9.632977948902865
 20
44.42085087024075
 30
0.0
 40
32.65887739007915
100
AcDbArc
 50
268.0814454387459
 51
268.36119698625
  0
LINE
  5
46E
330
1E
100
AcDbEntity
  8
ZN-40BMB
100
AcDbLine
 10
8.44600138454685
 20
11.49945475488872
 30
0.0
 11
8.583747569395629
 21
11.63229567636708
 31
0.0
  0
LINE
  5
46F
330
1E
100
AcDbEntity
  8
ZN-40BMB
100
AcDbLine
 10
8.539596723066946
 20
11.78028117736909
 30
0.0
 11
8.287954129626253
 21
11.78028117736944
 31
0.0
  0
ARC
  5
470
330
1E
100
AcDbEntity
  8
ZN-40BMB
100
AcDbCircle
 10
8.272534808040621
 20
11.67356448228928
 30
0.0
 40
0.2447402315180136
100
AcDbArc
 50
269.5473519690227
 51
314.8917723478204
  0
ARC
  5
471
330
1E
100
AcDbEntity
  8
ZN-40BMB
100
AcDbCircle
 10
-4.402556814900734
 20
-248.4830748417728
 30
0.0
 40
257.935267767855
100
AcDbArc
 50
87.08847144044367
 51
87.12392072310358
  0
LINE
  5
472
330
1E
100
AcDbEntity
  8
ZN-40BMB
100
AcDbLine
 10
8.698979498008871
 20
9.119239015685641
 30
0.0
 11
8.698979498008871
 21
8.97887897140667
 31
0.0
  0
LINE
  5
473
330
1E
100
AcDbEntity
  8
ZN-40BMB
100
AcDbLine
 10
8.479649134884848
 20
9.125719178485566
 30
0.0
 11
8.501792885604626
 21
9.121486028419068
 31
0.0
  0
LINE
  5
474
330
1E
100
AcDbEntity
  8
ZN-40BMB
100
AcDbLine
 10
8.53959672306696
 20
9.127295718642875
 30
0.0
 11
8.287954129626267
 21
9.127295718642889
 31
0.0
  0
LINE
  5
475
330
1E
100
AcDbEntity
  8
ZN-40BMB
100
AcDbLine
 10
8.583485132147917
 20
8.982566777993794
 30
0.0
 11
8.582661797456967
 21
8.950544146896175
 31
0.0
  0
LINE
  5
476
330
1E
100
AcDbEntity
  8
ZN-40BMB
100
AcDbLine
 10
8.579554994753994
 20
9.014280118277595
 30
0.0
 11
8.583485132147917
 21
8.982566777993794
 31
0.0
  0
LINE
  5
477
330
1E
100
AcDbEntity
  8
ZN-40BMB
100
AcDbLine
 10
8.571051301671079
 20
9.044232373748085
 30
0.0
 11
8.579554994753994
 21
9.014280118277595
 31
0.0
  0
LINE
  5
478
330
1E
100
AcDbEntity
  8
ZN-40BMB
100
AcDbLine
 10
8.55836334051381
 20
9.071052370496316
 30
0.0
 11
8.571051301671079
 21
9.044232373748085
 31
0.0
  0
LINE
  5
479
330
1E
100
AcDbEntity
  8
ZN-40BMB
100
AcDbLine
 10
8.542071949052957
 20
9.093512325198387
 30
0.0
 11
8.55836334051381
 21
9.071052370496316
 31
0.0
  0
LINE
  5
47A
330
1E
100
AcDbEntity
  8
ZN-40BMB
100
AcDbLine
 10
8.522922925244667
 20
9.110584051382174
 30
0.0
 11
8.542071949052964
 21
9.09351232519838
 31
0.0
  0
LINE
  5
47B
330
1E
100
AcDbEntity
  8
ZN-40BMB
100
AcDbLine
 10
8.501792885604626
 20
9.121486028419068
 30
0.0
 11
8.522922925244667
 21
9.110584051382174
 31
0.0
  0
LINE
  5
47C
330
1E
100
AcDbEntity
  8
ZN-40BMB
100
AcDbLine
 10
8.445674662880659
 20
8.978259832328992
 30
0.0
 11
8.444904622037714
 21
8.946279440893681
 31
0.0
  0
LINE
  5
47D
330
1E
100
AcDbEntity
  8
ZN-40BMB
100
AcDbLine
 10
8.441703409019272
 20
9.009916682339776
 30
0.0
 11
8.445674662880659
 21
8.978259832328992
 31
0.0
  0
LINE
  5
47E
330
1E
100
AcDbEntity
  8
ZN-40BMB
100
AcDbLine
 10
8.433172127417858
 20
9.039805021326705
 30
0.0
 11
8.441703409019272
 21
9.009916682339776
 31
0.0
  0
LINE
  5
47F
330
1E
100
AcDbEntity
  8
ZN-40BMB
100
AcDbLine
 10
8.420470226452589
 20
9.06656060296722
 30
0.0
 11
8.433172127417858
 21
9.039805021326705
 31
0.0
  0
LINE
  5
480
330
1E
100
AcDbEntity
  8
ZN-40BMB
100
AcDbLine
 10
8.404177481456205
 20
9.088962174923521
 30
0.0
 11
8.420470226452589
 21
9.06656060296722
 31
0.0
  0
LINE
  5
481
330
1E
100
AcDbEntity
  8
ZN-40BMB
100
AcDbLine
 10
8.385037571007007
 20
9.105987222623154
 30
0.0
 11
8.404177481456205
 21
9.088962174923521
 31
0.0
  0
LINE
  5
482
330
1E
100
AcDbEntity
  8
ZN-40BMB
100
AcDbLine
 10
8.363924131892101
 20
9.116858641700231
 30
0.0
 11
8.385037571007014
 21
9.105987222623147
 31
0.0
  0
LINE
  5
483
330
1E
100
AcDbEntity
  8
ZN-40BMB
100
AcDbLine
 10
8.341800882158228
 20
9.121080208744578
 30
0.0
 11
8.363924131892101
 21
9.116858641700231
 31
0.0
  0
LINE
  5
484
330
1E
100
AcDbEntity
  8
ZN-40BMB
100
AcDbLine
 10
10.60745800643441
 20
5.557938710848194
 30
0.0
 11
13.60745800643441
 21
5.557938710848208
 31
0.0
  0
ARC
  5
485
330
1E
100
AcDbEntity
  8
ZN-40BMB
100
AcDbCircle
 10
-4.402556844769307
 20
261.5989528529574
 30
0.0
 40
257.9352683580992
100
AcDbArc
 50
272.8760792769535
 51
272.9115285595322
  0
LINE
  5
486
330
1E
100
AcDbEntity
  8
ZN-40BMB
100
AcDbLine
 10
8.698979498008885
 20
3.996638406010749
 30
0.0
 11
8.698979498008885
 21
4.136998450289713
 31
0.0
  0
LINE
  5
487
330
1E
100
AcDbEntity
  8
ZN-40BMB
100
AcDbLine
 10
8.479649134884855
 20
3.990158243210817
 30
0.0
 11
8.501792885604633
 21
3.994391393277314
 31
0.0
  0
LINE
  5
488
330
1E
100
AcDbEntity
  8
ZN-40BMB
100
AcDbLine
 10
8.539596723067564
 20
3.988581703053494
 30
0.0
 11
8.287954129626275
 21
3.988581703053494
 31
0.0
  0
LINE
  5
489
330
1E
100
AcDbEntity
  8
ZN-40BMB
100
AcDbLine
 10
8.583485132147931
 20
4.133310643702596
 30
0.0
 11
8.582661797456982
 21
4.165333274800207
 31
0.0
  0
LINE
  5
48A
330
1E
100
AcDbEntity
  8
ZN-40BMB
100
AcDbLine
 10
8.579554994754008
 20
4.101597303418795
 30
0.0
 11
8.583485132147931
 21
4.133310643702596
 31
0.0
  0
LINE
  5
48B
330
1E
100
AcDbEntity
  8
ZN-40BMB
100
AcDbLine
 10
8.571051301671094
 20
4.071645047948297
 30
0.0
 11
8.579554994754008
 21
4.101597303418795
 31
0.0
  0
LINE
  5
48C
330
1E
100
AcDbEntity
  8
ZN-40BMB
100
AcDbLine
 10
8.558363340513825
 20
4.044825051200074
 30
0.0
 11
8.571051301671094
 21
4.071645047948297
 31
0.0
  0
LINE
  5
48D
330
1E
100
AcDbEntity
  8
ZN-40BMB
100
AcDbLine
 10
8.542071949052971
 20
4.022365096498003
 30
0.0
 11
8.558363340513825
 21
4.044825051200074
 31
0.0
  0
LINE
  5
48E
330
1E
100
AcDbEntity
  8
ZN-40BMB
100
AcDbLine
 10
8.522922925244674
 20
4.005293370314209
 30
0.0
 11
8.542071949052971
 21
4.022365096498003
 31
0.0
  0
LINE
  5
48F
330
1E
100
AcDbEntity
  8
ZN-40BMB
100
AcDbLine
 10
8.501792885604633
 20
3.994391393277314
 30
0.0
 11
8.522922925244674
 21
4.005293370314209
 31
0.0
  0
LINE
  5
490
330
1E
100
AcDbEntity
  8
ZN-40BMB
100
AcDbLine
 10
8.445674662880666
 20
4.137617589367398
 30
0.0
 11
8.444904622037729
 21
4.169597980802702
 31
0.0
  0
LINE
  5
491
330
1E
100
AcDbEntity
  8
ZN-40BMB
100
AcDbLine
 10
8.441703409019286
 20
4.105960739356607
 30
0.0
 11
8.445674662880666
 21
4.137617589367398
 31
0.0
  0
LINE
  5
492
330
1E
100
AcDbEntity
  8
ZN-40BMB
100
AcDbLine
 10
8.433172127417865
 20
4.076072400369685
 30
0.0
 11
8.441703409019286
 21
4.105960739356607
 31
0.0
  0
LINE
  5
493
330
1E
100
AcDbEntity
  8
ZN-40BMB
100
AcDbLine
 10
8.420470226452597
 20
4.04931681872917
 30
0.0
 11
8.433172127417865
 21
4.076072400369685
 31
0.0
  0
LINE
  5
494
330
1E
100
AcDbEntity
  8
ZN-40BMB
100
AcDbLine
 10
8.404177481456219
 20
4.026915246772862
 30
0.0
 11
8.420470226452597
 21
4.04931681872917
 31
0.0
  0
LINE
  5
495
330
1E
100
AcDbEntity
  8
ZN-40BMB
100
AcDbLine
 10
8.385037571007021
 20
4.009890199073236
 30
0.0
 11
8.404177481456219
 21
4.026915246772862
 31
0.0
  0
LINE
  5
496
330
1E
100
AcDbEntity
  8
ZN-40BMB
100
AcDbLine
 10
8.363924131892108
 20
3.999018779996152
 30
0.0
 11
8.385037571007021
 21
4.009890199073236
 31
0.0
  0
LINE
  5
497
330
1E
100
AcDbEntity
  8
ZN-40BMB
100
AcDbLine
 10
8.341800882158228
 20
3.994797212951798
 30
0.0
 11
8.363924131892108
 21
3.999018779996152
 31
0.0
  0
DIMENSION
  5
498
330
1E
100
AcDbEntity
  8
0
100
AcDbDimension
  2
*D6
 10
4.557421249285663
 20
14.33047604630942
 30
0.0
 11
2.90072211047257
 21
14.33047604630942
 31
0.0
 70
   160
  1
<>\P(4 PLCS.)
 71
     5
 42
0.7699999999999961
  3
STANDARD
100
AcDbAlignedDimension
 13
3.787421249285667
 23
15.07946073345974
 33
0.0
 14
4.557421249285663
 24
16.12093206179882
 34
0.0
 50
180.0
100
AcDbRotatedDimension
1001
ACAD
1000
DSTYLE
1002
{
1070
   141
1040
0.0
1002
}
  0
DIMENSION
  5
49A
330
1E
100
AcDbEntity
  8
0
100
AcDbDimension
  2
*D5
 10
4.31542124928568
 20
15.48840914181077
 30
0.0
 11
1.952896394237925
 21
15.48840914181077
 31
0.0
 70
   160
  1
<> (6 PLCS.)\P(MOUNTING BOSS HEIGHT)
 71
     5
 42
0.1680000000000064
  3
STANDARD
100
AcDbAlignedDimension
 13
4.147421249285674
 23
15.75429720047822
 33
0.0
 14
4.31542124928568
 24
15.75767080164528
 34
0.0
 50
180.0
100
AcDbRotatedDimension
1001
ACAD
1000
DSTYLE
1002
{
1070
   141
1040
0.0
1002
}
  0
LINE
  5
5CE
330
1E
100
AcDbEntity
  8
ZN-40BMB
100
AcDbLine
 10
7.562937465316824
 20
7.062938710848182
 30
0.0
 11
7.562937465317578
 21
6.052938710848184
 31
0.0
  0
LINE
  5
5CF
330
1E
100
AcDbEntity
  8
ZN-40BMB
100
AcDbLine
 10
7.517512865421313
 20
6.052938710848177
 30
0.0
 11
7.517512865421313
 21
7.062938710848175
 31
0.0
  0
ARC
  5
5E7
330
1E
100
AcDbEntity
  8
ZN-40BMB
100
AcDbCircle
 10
15.92425800643436
 20
7.062938710848204
 30
0.0
 40
8.361320541117541
100
AcDbArc
 50
166.8266669906118
 51
180.0
  0
ARC
  5
5E8
330
1E
100
AcDbEntity
  8
ZN-40BMB
100
AcDbCircle
 10
15.92425800643436
 20
7.062938710848204
 30
0.0
 40
8.406745141013061
100
AcDbArc
 50
166.8009332809505
 51
180.0
  0
LINE
  5
5E9
330
1E
100
AcDbEntity
  8
ZN-40BMB
100
AcDbLine
 10
7.580339314196006
 20
11.57300293975765
 30
0.0
 11
7.562937465316824
 21
12.07132669185279
 31
0.0
  0
LINE
  5
5EA
330
1E
100
AcDbEntity
  8
ZN-40BMB
  6
HIDDEN2
 62
     4
100
AcDbLine
 10
8.138679860979376
 20
12.22823786426303
 30
0.0
 11
8.136235407114948
 21
12.29823786426303
 31
0.0
  0
POLYLINE
  5
5EB
330
1E
100
AcDbEntity
  8
ZN-40BMB
100
AcDb2dPolyline
 66
     1
 10
0.0
 20
0.0
 30
0.0
 70
   128
 40
0.0005905511811024
 41
0.0005905511811024
  0
VERTEX
  5
5EC
330
5EB
100
AcDbEntity
  8
ZN-40BMB
100
AcDbVertex
100
AcDb2dVertex
 10
8.090005131082154
 20
12.07132669185277
 30
0.0
  0
VERTEX
  5
5ED
330
5EB
100
AcDbEntity
  8
ZN-40BMB
100
AcDbVertex
100
AcDb2dVertex
 10
8.089514609123401
 20
12.02633914521615
 30
0.0
  0
VERTEX
  5
5EE
330
5EB
100
AcDbEntity
  8
ZN-40BMB
100
AcDbVertex
100
AcDb2dVertex
 10
8.089059909634062
 20
11.98076615273922
 30
0.0
  0
SEQEND
  5
5EF
330
5EB
100
AcDbEntity
  8
ZN-40BMB
  0
LINE
  5
5F0
330
1E
100
AcDbEntity
  8
ZN-40BMB
100
AcDbLine
 10
8.18796936011061
 20
11.9824926236193
 30
0.0
 11
8.184203512927222
 21
12.19823786426303
 31
0.0
  0
LINE
  5
5F1
330
1E
100
AcDbEntity
  8
ZN-40BMB
100
AcDbLine
 10
8.184203512927222
 20
12.19823786426303
 30
0.0
 11
8.183679860979378
 21
12.22823786426303
 31
0.0
  0
ARC
  5
5F2
330
1E
100
AcDbEntity
  8
ZN-40BMB
100
AcDbCircle
 10
11.33548483677663
 20
9.760820527531608
 30
0.0
 40
3.983914815284207
100
AcDbArc
 50
142.2791720821965
 51
144.5523602387813
  0
LINE
  5
5F3
330
1E
100
AcDbEntity
  8
ZN-40BMB
  6
HIDDEN2
 62
     4
100
AcDbLine
 10
7.560012865421303
 20
12.22823786426303
 30
0.0
 11
7.565737754247745
 21
12.29367364297676
 31
0.0
  0
ARC
  5
5F4
330
1E
100
AcDbEntity
  8
ZN-40BMB
  6
HIDDEN2
 62
     4
100
AcDbCircle
 10
7.570718727738213
 20
12.29323786426302
 30
0.0
 40
0.0050000000000008
100
AcDbArc
 50
90.00000000000078
 51
175.000000000001
  0
LINE
  5
5F5
330
1E
100
AcDbEntity
  8
ZN-40BMB
100
AcDbLine
 10
8.090005131082111
 20
12.07132669185274
 30
0.0
 11
7.562937465316824
 21
12.07132669185279
 31
0.0
  0
LINE
  5
5F6
330
1E
100
AcDbEntity
  8
ZN-40BMB
100
AcDbLine
 10
7.517512865421306
 20
12.19823786426303
 30
0.0
 11
8.184203512927187
 21
12.19823786426298
 31
0.0
  0
LINE
  5
5F7
330
1E
100
AcDbEntity
  8
ZN-40BMB
100
AcDbLine
 10
7.537512865421302
 20
12.19823786426303
 30
0.0
 11
7.537512865421302
 21
12.22823786426303
 31
0.0
  0
ARC
  5
5F8
330
1E
100
AcDbEntity
  8
ZN-40BMB
100
AcDbCircle
 10
7.717512865421301
 20
12.19823786426302
 30
0.0
 40
0.1999999999999979
100
AcDbArc
 50
180.0
 51
219.3870513647222
  0
LINE
  5
5F9
330
1E
100
AcDbEntity
  8
ZN-40BMB
100
AcDbLine
 10
8.272534808040621
 20
11.42882425077127
 30
0.0
 11
7.730247938248862
 21
11.42823786426302
 31
0.0
  0
ARC
  5
5FA
330
1E
100
AcDbEntity
  8
ZN-40BMB
100
AcDbCircle
 10
7.730247938248869
 20
11.57823786426302
 30
0.0
 40
0.1500000000000003
100
AcDbArc
 50
182.0000000000032
 51
270.0
  0
ARC
  5
5FB
330
1E
100
AcDbEntity
  8
ZN-40BMB
100
AcDbCircle
 10
7.989475733477821
 20
8.919949364055353
 30
0.0
 40
0.2121346514581314
100
AcDbArc
 50
100.5808595113177
 51
165.7649943674968
  0
ARC
  5
5FC
330
1E
100
AcDbEntity
  8
ZN-40BMB
100
AcDbCircle
 10
7.984750612204454
 20
8.925005308647874
 30
0.0
 40
0.2518037141574744
100
AcDbArc
 50
99.54921112600599
 51
166.8027918524788
  0
ARC
  5
5FD
330
1E
100
AcDbEntity
  8
ZN-40BMB
100
AcDbCircle
 10
8.057458006434391
 20
8.49293871084839
 30
0.0
 40
0.644520541117366
100
AcDbArc
 50
89.99999999999877
 51
99.06922327143846
  0
ARC
  5
5FE
330
1E
100
AcDbEntity
  8
ZN-40BMB
100
AcDbCircle
 10
8.057458006434391
 20
8.49293871084839
 30
0.0
 40
0.6899451410128883
100
AcDbArc
 50
89.99999999999847
 51
99.55106969752776
  0
LINE
  5
5FF
330
1E
100
AcDbEntity
  8
ZN-40BMB
100
AcDbLine
 10
8.17373546094954
 20
9.182070543521318
 30
0.0
 11
8.187969360110624
 21
9.182883851861289
 31
0.0
  0
LINE
  5
600
330
1E
100
AcDbEntity
  8
ZN-40BMB
100
AcDbLine
 10
8.159686786570826
 20
9.17964120202871
 30
0.0
 11
8.17373546094954
 21
9.182070543521318
 31
0.0
  0
LINE
  5
601
330
1E
100
AcDbEntity
  8
ZN-40BMB
100
AcDbLine
 10
8.146006151439085
 20
9.175627440242605
 30
0.0
 11
8.159686786570826
 21
9.17964120202871
 31
0.0
  0
LINE
  5
602
330
1E
100
AcDbEntity
  8
ZN-40BMB
100
AcDbLine
 10
8.132871580748695
 20
9.170081488977961
 30
0.0
 11
8.146006151439085
 21
9.175627440242605
 31
0.0
  0
LINE
  5
603
330
1E
100
AcDbEntity
  8
ZN-40BMB
100
AcDbLine
 10
8.120453993793798
 20
9.163075517329458
 30
0.0
 11
8.132871580748695
 21
9.170081488977961
 31
0.0
  0
LINE
  5
604
330
1E
100
AcDbEntity
  8
ZN-40BMB
100
AcDbLine
 10
8.108914979806929
 20
9.154700693539821
 30
0.0
 11
8.120453993793798
 21
9.163075517329458
 31
0.0
  0
LINE
  5
605
330
1E
100
AcDbEntity
  8
ZN-40BMB
100
AcDbLine
 10
8.098404695209051
 20
9.14506599863361
 30
0.0
 11
8.108914979806929
 21
9.154700693539821
 31
0.0
  0
LINE
  5
606
330
1E
100
AcDbEntity
  8
ZN-40BMB
100
AcDbLine
 10
8.08905990963407
 20
9.134296808254331
 30
0.0
 11
8.098404695209051
 21
9.14506599863361
 31
0.0
  0
LINE
  5
607
330
1E
100
AcDbEntity
  8
ZN-40BMB
100
AcDbLine
 10
8.090005131082154
 20
9.137459251965763
 30
0.0
 11
8.057458006434412
 21
9.137459251965763
 31
0.0
  0
POLYLINE
  5
608
330
1E
100
AcDbEntity
  8
ZN-40BMB
100
AcDb2dPolyline
 66
     1
 10
0.0
 20
0.0
 30
0.0
 70
   128
 40
0.0005905511811024
 41
0.0005905511811024
  0
VERTEX
  5
609
330
608
100
AcDbEntity
  8
ZN-40BMB
100
AcDbVertex
100
AcDb2dVertex
 10
8.090005131082161
 20
9.137459251965763
 30
0.0
  0
VERTEX
  5
60A
330
608
100
AcDbEntity
  8
ZN-40BMB
100
AcDbVertex
100
AcDb2dVertex
 10
8.089514609123408
 20
9.135888252219663
 30
0.0
  0
VERTEX
  5
60B
330
608
100
AcDbEntity
  8
ZN-40BMB
100
AcDbVertex
100
AcDb2dVertex
 10
8.08905990963407
 20
9.134296808254331
 30
0.0
  0
SEQEND
  5
60C
330
608
100
AcDbEntity
  8
ZN-40BMB
  0
LINE
  5
60D
330
1E
100
AcDbEntity
  8
ZN-40BMB
100
AcDbLine
 10
8.187969360110624
 20
9.182883851861289
 30
0.0
 11
8.184203512927236
 21
9.182883851861282
 31
0.0
  0
ARC
  5
60E
330
1E
100
AcDbEntity
  8
ZN-40BMB
100
AcDbCircle
 10
8.184205941789006
 20
9.062495482643482
 30
0.0
 40
0.120388369242346
100
AcDbArc
 50
90.00115595492822
 51
141.4876859797636
  0
LINE
  5
60F
330
1E
100
AcDbEntity
  8
ZN-40BMB
100
AcDbLine
 10
8.057458006434419
 20
9.182883851861282
 30
0.0
 11
8.184203512927236
 21
9.182883851861282
 31
0.0
  0
LINE
  5
610
330
1E
100
AcDbEntity
  8
ZN-40BMB
100
AcDbLine
 10
7.955863748189567
 20
9.129401855589597
 30
0.0
 11
7.950522937358012
 21
9.128477036136784
 31
0.0
  0
LINE
  5
611
330
1E
100
AcDbEntity
  8
ZN-40BMB
100
AcDbLine
 10
7.783854613891971
 20
8.972113197594742
 30
0.0
 11
7.782964962906337
 21
8.968464562343198
 31
0.0
  0
ARC
  5
652
330
1E
100
AcDbEntity
  8
ZN-40BMB
100
AcDbCircle
 10
8.05245800643441
 20
8.257938710848186
 30
0.0
 40
0.1000000000000026
100
AcDbArc
 50
35.18915014033242
 51
306.0398133395955
  0
ARC
  5
653
330
1E
100
AcDbEntity
  8
ZN-40BMB
100
AcDbCircle
 10
8.048380867421204
 20
8.258612618123024
 30
0.0
 40
0.1029845490881588
100
AcDbArc
 50
307.6536273565705
 51
33.57533612337336
  0
ARC
  5
654
330
1E
100
AcDbEntity
  8
ZN-40BMB
100
AcDbCircle
 10
8.012458006434425
 20
7.807938710848198
 30
0.0
 40
0.1553000000000064
100
AcDbArc
 50
281.0586219200726
 51
65.135496487514
  0
ARC
  5
655
330
1E
100
AcDbEntity
  8
ZN-40BMB
100
AcDbCircle
 10
8.01245800643441
 20
7.807938710848183
 30
0.0
 40
0.1553000000000004
100
AcDbArc
 50
65.13549648750791
 51
281.0586219200777
  0
CIRCLE
  5
656
330
1E
100
AcDbEntity
  8
ZN-40BMB
100
AcDbCircle
 10
8.01245800643441
 20
7.807938710848183
 30
0.0
 40
0.1185000000000009
  0
CIRCLE
  5
657
330
1E
100
AcDbEntity
  8
ZN-40BMB
100
AcDbCircle
 10
8.01245800643441
 20
7.807938710848183
 30
0.0
 40
0.0824999999999996
  0
CIRCLE
  5
658
330
1E
100
AcDbEntity
  8
ZN-40BMB
100
AcDbCircle
 10
8.01245800643441
 20
7.807938710848183
 30
0.0
 40
0.0580000000000016
  0
ARC
  5
69B
330
1E
100
AcDbEntity
  8
ZN-40BMB
100
AcDbCircle
 10
8.048276588446459
 20
4.857247567379161
 30
0.0
 40
0.1030619230817322
100
AcDbArc
 50
326.4647080270927
 51
52.30632849301726
  0
ARC
  5
69C
330
1E
100
AcDbEntity
  8
ZN-40BMB
100
AcDbCircle
 10
8.052458006434424
 20
4.857938710848188
 30
0.0
 40
0.0999999999999989
100
AcDbArc
 50
53.96018666044273
 51
324.81084985968
  0
ARC
  5
69D
330
1E
100
AcDbEntity
  8
ZN-40BMB
100
AcDbCircle
 10
15.92425800643439
 20
6.052938710848206
 30
0.0
 40
8.36132054111756
100
AcDbArc
 50
180.0
 51
193.1733330093885
  0
ARC
  5
69E
330
1E
100
AcDbEntity
  8
ZN-40BMB
100
AcDbCircle
 10
15.92425800643439
 20
6.052938710848206
 30
0.0
 40
8.406745141013084
100
AcDbArc
 50
180.0
 51
193.1990667190506
  0
ARC
  5
69F
330
1E
100
AcDbEntity
  8
ZN-40BMB
100
AcDbCircle
 10
8.012458006434489
 20
5.307938710848233
 30
0.0
 40
0.1553000000000129
100
AcDbArc
 50
294.8645035124654
 51
78.94137807995
  0
ARC
  5
6A0
330
1E
100
AcDbEntity
  8
ZN-40BMB
100
AcDbCircle
 10
8.012458006434417
 20
5.307938710848183
 30
0.0
 40
0.1553000000000003
100
AcDbArc
 50
78.9413780799244
 51
294.8645035124943
  0
CIRCLE
  5
6A1
330
1E
100
AcDbEntity
  8
ZN-40BMB
100
AcDbCircle
 10
8.012458006434417
 20
5.307938710848183
 30
0.0
 40
0.0824999999999996
  0
CIRCLE
  5
6A2
330
1E
100
AcDbEntity
  8
ZN-40BMB
100
AcDbCircle
 10
8.012458006434417
 20
5.307938710848183
 30
0.0
 40
0.0580000000000016
  0
CIRCLE
  5
6A3
330
1E
100
AcDbEntity
  8
ZN-40BMB
100
AcDbCircle
 10
8.012458006434417
 20
5.307938710848183
 30
0.0
 40
0.1185000000000009
  0
ARC
  5
6A4
330
1E
100
AcDbEntity
  8
ZN-40BMB
100
AcDbCircle
 10
7.989475644922212
 20
4.195927963249644
 30
0.0
 40
0.2121345424108584
100
AcDbArc
 50
194.2349868025139
 51
259.4191593187938
  0
ARC
  5
6A5
330
1E
100
AcDbEntity
  8
ZN-40BMB
100
AcDbCircle
 10
7.984750611551557
 20
4.190872112352565
 30
0.0
 40
0.2518037133629285
100
AcDbArc
 50
193.1972080272698
 51
260.450788994233
  0
ARC
  5
6A6
330
1E
100
AcDbEntity
  8
ZN-40BMB
100
AcDbCircle
 10
8.057458006434419
 20
4.622938710848167
 30
0.0
 40
0.6445205411175668
100
AcDbArc
 50
260.9307767285623
 51
270.0000000000004
  0
ARC
  5
6A7
330
1E
100
AcDbEntity
  8
ZN-40BMB
100
AcDbCircle
 10
8.057458006434419
 20
4.622938710848167
 30
0.0
 40
0.6899451410130943
100
AcDbArc
 50
260.4489303024745
 51
270.0000000000004
  0
LINE
  5
6A8
330
1E
100
AcDbEntity
  8
ZN-40BMB
100
AcDbLine
 10
8.089514609123416
 20
3.979989169476706
 30
0.0
 11
8.089059909634077
 21
3.981580613442037
 31
0.0
  0
LINE
  5
6A9
330
1E
100
AcDbEntity
  8
ZN-40BMB
100
AcDbLine
 10
8.090005131082168
 20
3.978418169730606
 30
0.0
 11
8.089514609123416
 21
3.979989169476706
 31
0.0
  0
LINE
  5
6AA
330
1E
100
AcDbEntity
  8
ZN-40BMB
100
AcDbLine
 10
8.173735460949547
 20
3.933806878175051
 30
0.0
 11
8.187969360110631
 21
3.93299356983508
 31
0.0
  0
LINE
  5
6AB
330
1E
100
AcDbEntity
  8
ZN-40BMB
100
AcDbLine
 10
8.159686786570834
 20
3.936236219667659
 30
0.0
 11
8.173735460949547
 21
3.933806878175051
 31
0.0
  0
LINE
  5
6AC
330
1E
100
AcDbEntity
  8
ZN-40BMB
100
AcDbLine
 10
8.146006151439099
 20
3.940249981453771
 30
0.0
 11
8.159686786570834
 21
3.936236219667659
 31
0.0
  0
LINE
  5
6AD
330
1E
100
AcDbEntity
  8
ZN-40BMB
100
AcDbLine
 10
8.132871580748702
 20
3.945795932718407
 30
0.0
 11
8.146006151439099
 21
3.940249981453771
 31
0.0
  0
LINE
  5
6AE
330
1E
100
AcDbEntity
  8
ZN-40BMB
100
AcDbLine
 10
8.120453993793805
 20
3.952801904366918
 30
0.0
 11
8.132871580748702
 21
3.945795932718407
 31
0.0
  0
LINE
  5
6AF
330
1E
100
AcDbEntity
  8
ZN-40BMB
100
AcDbLine
 10
8.108914979806943
 20
3.961176728156548
 30
0.0
 11
8.120453993793805
 21
3.952801904366918
 31
0.0
  0
LINE
  5
6B0
330
1E
100
AcDbEntity
  8
ZN-40BMB
100
AcDbLine
 10
8.098404695209058
 20
3.970811423062766
 30
0.0
 11
8.108914979806943
 21
3.961176728156548
 31
0.0
  0
LINE
  5
6B1
330
1E
100
AcDbEntity
  8
ZN-40BMB
100
AcDbLine
 10
8.089059909634077
 20
3.981580613442037
 30
0.0
 11
8.098404695209058
 21
3.970811423062766
 31
0.0
  0
LINE
  5
6B2
330
1E
100
AcDbEntity
  8
ZN-40BMB
100
AcDbLine
 10
8.090005131082168
 20
3.978418169730606
 30
0.0
 11
8.057458006434419
 21
3.978418169730606
 31
0.0
  0
LINE
  5
6B3
330
1E
100
AcDbEntity
  8
ZN-40BMB
100
AcDbLine
 10
8.187969360110631
 20
3.93299356983508
 30
0.0
 11
8.184203512927243
 21
3.93299356983508
 31
0.0
  0
ARC
  5
6B4
330
1E
100
AcDbEntity
  8
ZN-40BMB
100
AcDbCircle
 10
8.18450898737284
 20
4.054010373947072
 30
0.0
 40
0.121017189655508
100
AcDbArc
 50
218.6557855775392
 51
269.8553724878379
  0
LINE
  5
6B5
330
1E
100
AcDbEntity
  8
ZN-40BMB
100
AcDbLine
 10
8.057458006434419
 20
3.93299356983508
 30
0.0
 11
8.184203512927243
 21
3.93299356983508
 31
0.0
  0
LINE
  5
6B6
330
1E
100
AcDbEntity
  8
ZN-40BMB
100
AcDbLine
 10
7.950522937358034
 20
3.987400385559585
 30
0.0
 11
7.95586374818956
 21
3.986475566106758
 31
0.0
  0
LINE
  5
6B7
330
1E
100
AcDbEntity
  8
ZN-40BMB
100
AcDbLine
 10
7.782964962906323
 20
4.147412859353149
 30
0.0
 11
7.783854613891978
 21
4.143764224101627
 31
0.0
  0
LINE
  5
6E4
330
1E
100
AcDbEntity
  8
ZN-40BMB
  6
HIDDEN2
 62
     4
100
AcDbLine
 10
15.92696188324255
 20
11.84423786426303
 30
0.0
 11
8.287954129626253
 21
11.84423786426303
 31
0.0
  0
LINE
  5
6E5
330
1E
100
AcDbEntity
  8
ZN-40BMB
  6
HIDDEN2
 62
     4
100
AcDbLine
 10
15.51593651485994
 20
11.76823786426303
 30
0.0
 11
8.698979498008863
 21
11.76823786426303
 31
0.0
  0
LINE
  5
6E6
330
1E
100
AcDbEntity
  8
ZN-40BMB
  6
HIDDEN2
 62
     4
100
AcDbLine
 10
8.919081166556775
 20
11.78823786426303
 30
0.0
 11
15.29583484631203
 21
11.78823786426303
 31
0.0
  0
LINE
  5
6E7
330
1E
100
AcDbEntity
  8
ZN-40BMB
  6
HIDDEN2
 62
     4
100
AcDbLine
 10
8.479918097049907
 20
11.65731669318005
 30
0.0
 11
8.521304145254521
 21
11.69712220281927
 31
0.0
  0
LINE
  5
6E8
330
1E
100
AcDbEntity
  8
ZN-40BMB
  6
HIDDEN2
 62
     4
100
AcDbLine
 10
8.698979498008863
 20
11.67823786426303
 30
0.0
 11
8.399590040790361
 21
11.67823786426302
 31
0.0
  0
LINE
  5
6E9
330
1E
100
AcDbEntity
  8
ZN-40BMB
  6
HIDDEN2
 62
     4
100
AcDbLine
 10
8.698979498008863
 20
11.76823786426303
 30
0.0
 11
8.399590040790361
 21
11.76823786426303
 31
0.0
  0
LINE
  5
6EA
330
1E
100
AcDbEntity
  8
ZN-40BMB
  6
HIDDEN2
 62
     4
100
AcDbLine
 10
8.476055023137991
 20
11.78823786426302
 30
0.0
 11
8.721588962883803
 21
11.78823786426303
 31
0.0
  0
LINE
  5
6EB
330
1E
100
AcDbEntity
  8
ZN-40BMB
  6
HIDDEN2
 62
     4
100
AcDbLine
 10
7.943158486670601
 20
11.51823786426303
 30
0.0
 11
7.730247938248862
 21
11.51823786426303
 31
0.0
  0
LINE
  5
6EC
330
1E
100
AcDbEntity
  8
ZN-40BMB
  6
HIDDEN2
 62
     4
100
AcDbLine
 10
7.833465751394829
 20
11.90246575902545
 30
0.0
 11
7.799850166392676
 21
11.51823786426303
 31
0.0
  0
LINE
  5
6ED
330
1E
100
AcDbEntity
  8
ZN-40BMB
  6
HIDDEN2
 62
     4
100
AcDbLine
 10
7.670284488627718
 20
11.57614389446087
 30
0.0
 11
7.647512865421294
 21
12.22823786426303
 31
0.0
  0
ARC
  5
6EE
330
1E
100
AcDbEntity
  8
ZN-40BMB
  6
HIDDEN2
 62
     4
100
AcDbCircle
 10
7.730247938248869
 20
11.57823786426302
 30
0.0
 40
0.0600000000000015
100
AcDbArc
 50
182.0000000000008
 51
270.0
  0
LINE
  5
6EF
330
1E
100
AcDbEntity
  8
ZN-40BMB
  6
HIDDEN2
 62
     4
100
AcDbLine
 10
8.1677580064344
 20
11.45616239544382
 30
0.0
 11
8.130958006434401
 21
11.87678832018542
 31
0.0
  0
LINE
  5
6F0
330
1E
100
AcDbEntity
  8
ZN-40BMB
  6
HIDDEN2
 62
     4
100
AcDbLine
 10
8.229884413305587
 20
11.69794349174779
 30
0.0
 11
8.097041700830974
 21
11.56510077927317
 31
0.0
  0
LINE
  5
6F1
330
1E
100
AcDbEntity
  8
ZN-40BMB
  6
HIDDEN2
 62
     4
100
AcDbLine
 10
8.217193242582258
 20
11.60822213852888
 30
0.0
 11
8.191450261473978
 21
11.90246575902545
 31
0.0
  0
LINE
  5
6F2
330
1E
100
AcDbEntity
  8
ZN-40BMB
  6
HIDDEN2
 62
     4
100
AcDbLine
 10
7.893958006434406
 20
11.87678832018542
 30
0.0
 11
7.857158006434406
 21
11.45616239544382
 31
0.0
  0
LINE
  5
6F3
330
1E
100
AcDbEntity
  8
ZN-40BMB
  6
HIDDEN2
 62
     4
100
AcDbLine
 10
8.383455556706156
 20
11.56432442886923
 30
0.0
 11
8.479918097049907
 21
11.65731669318005
 31
0.0
  0
ARC
  5
6F4
330
1E
100
AcDbEntity
  8
ZN-40BMB
  6
HIDDEN2
 62
     4
100
AcDbCircle
 10
8.399590040790361
 20
11.52823786426302
 30
0.0
 40
0.1500000000000022
100
AcDbArc
 50
90.0000000000004
 51
135.0000000000007
  0
LINE
  5
6F5
330
1E
100
AcDbEntity
  8
ZN-40BMB
  6
HIDDEN2
 62
     4
100
AcDbLine
 10
7.833465751394829
 20
11.90246575902545
 30
0.0
 11
8.191450261473978
 21
11.90246575902545
 31
0.0
  0
LINE
  5
6F6
330
1E
100
AcDbEntity
  8
ZN-40BMB
  6
HIDDEN2
 62
     4
100
AcDbLine
 10
8.155450261473976
 20
11.94387902168541
 30
0.0
 11
8.133196746280862
 21
12.19823786426303
 31
0.0
  0
ARC
  5
6F7
330
1E
100
AcDbEntity
  8
ZN-40BMB
  6
HIDDEN2
 62
     4
100
AcDbCircle
 10
8.28795412962626
 20
11.98423786426303
 30
0.0
 40
0.1400000000000006
100
AcDbArc
 50
181.0000000000005
 51
270.0
  0
LINE
  5
6F8
330
1E
100
AcDbEntity
  8
ZN-40BMB
  6
HIDDEN2
 62
     4
100
AcDbLine
 10
7.869465751394823
 20
11.94387902168541
 30
0.0
 11
8.155450261473976
 21
11.94387902168541
 31
0.0
  0
LINE
  5
6F9
330
1E
100
AcDbEntity
  8
ZN-40BMB
  6
HIDDEN2
 62
     4
100
AcDbLine
 10
8.094958006434399
 20
11.91820158284538
 30
0.0
 11
8.070458006434403
 21
12.19823786426303
 31
0.0
  0
LINE
  5
6FA
330
1E
100
AcDbEntity
  8
ZN-40BMB
  6
HIDDEN2
 62
     4
100
AcDbLine
 10
8.147975452304354
 20
11.98179452736181
 30
0.0
 11
8.14367376785761
 21
12.22823786426303
 31
0.0
  0
LINE
  5
6FB
330
1E
100
AcDbEntity
  8
ZN-40BMB
  6
HIDDEN2
 62
     4
100
AcDbLine
 10
7.954458006434396
 20
12.19823786426303
 30
0.0
 11
7.9299580064344
 21
11.91820158284538
 31
0.0
  0
LINE
  5
6FC
330
1E
100
AcDbEntity
  8
ZN-40BMB
  6
HIDDEN2
 62
     4
100
AcDbLine
 10
7.891719266587944
 20
12.19823786426303
 30
0.0
 11
7.869465751394823
 21
11.94387902168541
 31
0.0
  0
LINE
  5
6FD
330
1E
100
AcDbEntity
  8
ZN-40BMB
  6
HIDDEN2
 62
     4
100
AcDbLine
 10
7.893958006434406
 20
11.87678832018542
 30
0.0
 11
8.130958006434401
 21
11.87678832018542
 31
0.0
  0
LINE
  5
6FE
330
1E
100
AcDbEntity
  8
ZN-40BMB
  6
HIDDEN2
 62
     4
100
AcDbLine
 10
8.130958006434401
 20
11.87678832018542
 30
0.0
 11
8.094958006434399
 21
11.91820158284538
 31
0.0
  0
LINE
  5
6FF
330
1E
100
AcDbEntity
  8
ZN-40BMB
  6
HIDDEN2
 62
     4
100
AcDbLine
 10
7.9299580064344
 20
11.91820158284538
 30
0.0
 11
8.094958006434399
 21
11.91820158284538
 31
0.0
  0
LINE
  5
700
330
1E
100
AcDbEntity
  8
ZN-40BMB
  6
HIDDEN2
 62
     4
100
AcDbLine
 10
7.9299580064344
 20
11.91820158284538
 30
0.0
 11
7.893958006434406
 21
11.87678832018542
 31
0.0
  0
LINE
  5
701
330
1E
100
AcDbEntity
  8
ZN-40BMB
  6
HIDDEN2
 62
     4
100
AcDbLine
 10
7.869465751394823
 20
11.94387902168541
 30
0.0
 11
7.833465751394829
 21
11.90246575902545
 31
0.0
  0
ARC
  5
702
330
1E
100
AcDbEntity
  8
ZN-40BMB
  6
HIDDEN2
 62
     4
100
AcDbCircle
 10
8.399590040790361
 20
11.52823786426302
 30
0.0
 40
0.240000000000002
100
AcDbArc
 50
90.0000000000004
 51
135.0000000000017
  0
LINE
  5
703
330
1E
100
AcDbEntity
  8
ZN-40BMB
  6
HIDDEN2
 62
     4
100
AcDbLine
 10
8.191450261473978
 20
11.90246575902545
 30
0.0
 11
8.155450261473976
 21
11.94387902168541
 31
0.0
  0
ARC
  5
704
330
1E
100
AcDbEntity
  8
ZN-40BMB
  6
HIDDEN2
 62
     4
100
AcDbCircle
 10
8.409722527330888
 20
11.79823786426302
 30
0.0
 40
0.0300000000002246
100
AcDbArc
 50
270.0
 51
303.5573097612709
  0
ARC
  5
705
330
1E
100
AcDbEntity
  8
ZN-40BMB
  6
HIDDEN2
 62
     4
100
AcDbCircle
 10
8.476055023137991
 20
11.69823786426303
 30
0.0
 40
0.0899999999999981
100
AcDbArc
 50
90.0000000000004
 51
123.557309762352
  0
LINE
  5
706
330
1E
100
AcDbEntity
  8
ZN-40BMB
  6
HIDDEN2
 62
     4
100
AcDbLine
 10
8.154464889873612
 20
11.44359709249702
 30
0.0
 11
8.126764361124589
 21
11.43399186614052
 31
0.0
  0
LINE
  5
707
330
1E
100
AcDbEntity
  8
ZN-40BMB
  6
HIDDEN2
 62
     4
100
AcDbLine
 10
8.166654028131151
 20
11.52102283365508
 30
0.0
 11
8.149800664279243
 21
11.51846854149855
 31
0.0
  0
ARC
  5
708
330
1E
100
AcDbEntity
  8
ZN-40BMB
  6
HIDDEN2
 62
     4
100
AcDbCircle
 10
8.062199373517305
 20
12.09889097596974
 30
0.0
 40
0.5821530593594963
100
AcDbArc
 50
274.1138682803047
 51
281.1635883178613
  0
ARC
  5
709
330
1E
100
AcDbEntity
  8
ZN-40BMB
  6
HIDDEN2
 62
     4
100
AcDbCircle
 10
8.087897976208299
 20
11.64869695016978
 30
0.0
 40
0.1304747537300646
100
AcDbArc
 50
269.1120611336788
 51
320.1553936775469
  0
ARC
  5
70A
330
1E
100
AcDbEntity
  8
ZN-40BMB
  6
HIDDEN2
 62
     4
100
AcDbCircle
 10
8.033061971481092
 20
11.70329027549396
 30
0.0
 40
0.185078019888275
100
AcDbArc
 50
270.9531442238364
 51
311.698520171293
  0
ARC
  5
70B
330
1E
100
AcDbEntity
  8
ZN-40BMB
  6
HIDDEN2
 62
     4
100
AcDbCircle
 10
8.05245800643441
 20
11.35323786426303
 30
0.0
 40
0.2149999999999981
100
AcDbArc
 50
54.50578637171916
 51
90.0000000000004
  0
LINE
  5
70C
330
1E
100
AcDbEntity
  8
ZN-40BMB
  6
HIDDEN2
 62
     4
100
AcDbLine
 10
8.268827990448617
 20
11.51823786426303
 30
0.0
 11
8.057458006434405
 21
11.51823786426303
 31
0.0
  0
LINE
  5
70D
330
1E
100
AcDbEntity
  8
ZN-40BMB
  6
HIDDEN2
 62
     4
100
AcDbLine
 10
8.1677580064344
 20
11.45616239544382
 30
0.0
 11
7.857158006434406
 21
11.45616239544382
 31
0.0
  0
ARC
  5
70E
330
1E
100
AcDbEntity
  8
ZN-40BMB
  6
HIDDEN2
 62
     4
100
AcDbCircle
 10
8.029815407605131
 20
11.80775352090024
 30
0.0
 40
0.3797191965817641
100
AcDbArc
 50
271.8760766617937
 51
290.7724255792401
  0
ARC
  5
70F
330
1E
100
AcDbEntity
  8
ZN-40BMB
  6
HIDDEN2
 62
     4
100
AcDbCircle
 10
7.983904615841129
 20
11.67823786426302
 30
0.0
 40
0.2500000000000018
100
AcDbArc
 50
270.0
 51
315.0000000000006
  0
ARC
  5
710
330
1E
100
AcDbEntity
  8
ZN-40BMB
  6
HIDDEN2
 62
     4
100
AcDbCircle
 10
8.05245800643441
 20
11.35323786426303
 30
0.0
 40
0.1249999999999991
100
AcDbArc
 50
37.88195827766642
 51
90.0000000000004
  0
LINE
  5
711
330
1E
100
AcDbEntity
  8
ZN-40BMB
  6
HIDDEN2
 62
     4
100
AcDbLine
 10
8.149800664279243
 20
11.51846854149855
 30
0.0
 11
8.142365557699012
 21
11.51823786426303
 31
0.0
  0
LINE
  5
712
330
1E
100
AcDbEntity
  8
ZN-40BMB
  6
HIDDEN2
 62
     4
100
AcDbLine
 10
8.057458006434405
 20
11.51823786426303
 30
0.0
 11
7.99546083217773
 21
11.51823786426303
 31
0.0
  0
LINE
  5
713
330
1E
100
AcDbEntity
  8
ZN-40BMB
  6
HIDDEN2
 62
     4
100
AcDbLine
 10
7.99546083217773
 20
11.51823786426303
 30
0.0
 11
7.943158486670601
 21
11.51823786426303
 31
0.0
  0
ARC
  5
714
330
1E
100
AcDbEntity
  8
ZN-40BMB
  6
HIDDEN2
 62
     4
100
AcDbCircle
 10
8.05245800643441
 20
11.35323786426303
 30
0.0
 40
0.214999999999999
100
AcDbArc
 50
90.0000000000004
 51
129.8752773570832
  0
ARC
  5
715
330
1E
100
AcDbEntity
  8
ZN-40BMB
  6
HIDDEN2
 62
     4
100
AcDbCircle
 10
7.983904615841129
 20
11.67823786426302
 30
0.0
 40
0.1600000000000019
100
AcDbArc
 50
270.0
 51
314.9999999999995
  0
ARC
  5
716
330
1E
100
AcDbEntity
  8
ZN-40BMB
  6
HIDDEN2
 62
     4
100
AcDbCircle
 10
8.05245800643441
 20
11.35323786426303
 30
0.0
 40
0.1249999999999993
100
AcDbArc
 50
90.0000000000004
 51
143.1301023541569
  0
LINE
  5
717
330
1E
100
AcDbEntity
  8
ZN-40BMB
  6
HIDDEN2
 62
     4
100
AcDbLine
 10
7.857158006434406
 20
11.45616239544382
 30
0.0
 11
7.857158006434406
 21
11.42823786426303
 31
0.0
  0
LINE
  5
718
330
1E
100
AcDbEntity
  8
ZN-40BMB
  6
HIDDEN2
 62
     4
100
AcDbLine
 10
8.210309569027959
 20
11.59435381272018
 30
0.0
 11
8.188074528216969
 21
11.56510077927317
 31
0.0
  0
LINE
  5
719
330
1E
100
AcDbEntity
  8
ZN-40BMB
  6
HIDDEN2
 62
     4
100
AcDbLine
 10
8.217150558048007
 20
11.60749454890774
 30
0.0
 11
8.210309569027959
 21
11.59435381272018
 31
0.0
  0
LINE
  5
71A
330
1E
100
AcDbEntity
  8
ZN-40BMB
  6
HIDDEN2
 62
     4
100
AcDbLine
 10
8.216444945215616
 20
11.6075786542415
 30
0.0
 11
8.217150558048007
 21
11.60749454890774
 31
0.0
  0
LINE
  5
71B
330
1E
100
AcDbEntity
  8
ZN-40BMB
  6
HIDDEN2
 62
     4
100
AcDbLine
 10
8.190948520760354
 20
11.59435381272018
 30
0.0
 11
8.15617791918898
 21
11.56510077927318
 31
0.0
  0
LINE
  5
71C
330
1E
100
AcDbEntity
  8
ZN-40BMB
  6
HIDDEN2
 62
     4
100
AcDbLine
 10
8.209662230802468
 20
11.60749454890775
 30
0.0
 11
8.190948520760354
 21
11.59435381272018
 31
0.0
  0
LINE
  5
71D
330
1E
100
AcDbEntity
  8
ZN-40BMB
  6
HIDDEN2
 62
     4
100
AcDbLine
 10
8.217190726653843
 20
11.60822313569618
 30
0.0
 11
8.209662230802468
 21
11.60749454890775
 31
0.0
  0
LINE
  5
71E
330
1E
100
AcDbEntity
  8
ZN-40BMB
  6
HIDDEN2
 62
     4
100
AcDbLine
 10
8.210706805618389
 20
11.5949506899156
 30
0.0
 11
8.217190726653843
 21
11.60822313569618
 31
0.0
  0
LINE
  5
71F
330
1E
100
AcDbEntity
  8
ZN-40BMB
  6
HIDDEN2
 62
     4
100
AcDbLine
 10
8.188074528216969
 20
11.56510077927318
 30
0.0
 11
8.210706805618389
 21
11.5949506899156
 31
0.0
  0
LINE
  5
720
330
1E
100
AcDbEntity
  8
ZN-40BMB
  6
HIDDEN2
 62
     4
100
AcDbLine
 10
8.177832496144791
 20
11.52560275080983
 30
0.0
 11
8.166654028131151
 21
11.52102283365508
 31
0.0
  0
LINE
  5
721
330
1E
100
AcDbEntity
  8
ZN-40BMB
  6
HIDDEN2
 62
     4
100
AcDbLine
 10
8.176361476989956
 20
11.52668536559127
 30
0.0
 11
8.177832496144791
 21
11.52560275080983
 31
0.0
  0
LINE
  5
722
330
1E
100
AcDbEntity
  8
ZN-40BMB
  6
HIDDEN2
 62
     4
100
AcDbLine
 10
8.166736840779552
 20
11.45095275015759
 30
0.0
 11
8.154464889873612
 21
11.44359709249702
 31
0.0
  0
LINE
  5
723
330
1E
100
AcDbEntity
  8
ZN-40BMB
  6
HIDDEN2
 62
     4
100
AcDbLine
 10
8.165931840058039
 20
11.45158372837502
 30
0.0
 11
8.166736840779552
 21
11.45095275015759
 31
0.0
  0
LINE
  5
724
330
1E
100
AcDbEntity
  8
ZN-40BMB
  6
HIDDEN2
 62
     4
100
AcDbLine
 10
8.217243428359974
 20
11.60764851246465
 30
0.0
 11
8.217193242582258
 21
11.60822213852888
 31
0.0
  0
LINE
  5
725
330
1E
100
AcDbEntity
  8
ZN-40BMB
  6
HIDDEN2
 62
     4
100
AcDbLine
 10
8.293524023612381
 20
11.634303881441
 30
0.0
 11
8.160681311137768
 21
11.50146116896639
 31
0.0
  0
LINE
  5
726
330
1E
100
AcDbEntity
  8
ZN-40BMB
  6
HIDDEN2
 62
     4
100
AcDbLine
 10
8.721588962883803
 20
11.78823786426303
 30
0.0
 11
8.919081166556775
 21
11.78823786426303
 31
0.0
  0
ARC
  5
727
330
1E
100
AcDbEntity
  8
ZN-40BMB
  6
HIDDEN2
 62
     4
100
AcDbCircle
 10
8.697464861612981
 20
11.51124481334754
 30
0.0
 40
0.2569975142725415
100
AcDbArc
 50
89.66232056495668
 51
133.4094757884598
  0
LINE
  5
728
330
1E
100
AcDbEntity
  8
ZN-40BMB
  6
HIDDEN2
 62
     4
100
AcDbLine
 10
9.424390457342344
 20
11.78823786426303
 30
0.0
 11
9.42271477110923
 21
11.88423786426303
 31
0.0
  0
LINE
  5
729
330
1E
100
AcDbEntity
  8
ZN-40BMB
  6
HIDDEN2
 62
     4
100
AcDbLine
 10
9.232201241759572
 20
11.88423786426303
 30
0.0
 11
9.230525555526458
 21
11.78823786426303
 31
0.0
  0
LINE
  5
72A
330
1E
100
AcDbEntity
  8
ZN-40BMB
  6
HIDDEN2
 62
     4
100
AcDbLine
 10
9.282458006434399
 20
11.95623786426303
 30
0.0
 11
9.285739558640909
 21
11.76823786426303
 31
0.0
  0
LINE
  5
72B
330
1E
100
AcDbEntity
  8
ZN-40BMB
  6
HIDDEN2
 62
     4
100
AcDbLine
 10
9.369176454227901
 20
11.76823786426303
 30
0.0
 11
9.372458006434403
 21
11.95623786426303
 31
0.0
  0
LINE
  5
72C
330
1E
100
AcDbEntity
  8
ZN-40BMB
  6
HIDDEN2
 62
     4
100
AcDbLine
 10
13.6074580064344
 20
11.68823786426303
 30
0.0
 11
10.6074580064344
 21
11.68823786426303
 31
0.0
  0
LINE
  5
72D
330
1E
100
AcDbEntity
  8
ZN-40BMB
  6
HIDDEN2
 62
     4
100
AcDbLine
 10
12.01220124175957
 20
11.88423786426303
 30
0.0
 11
12.01052555552646
 21
11.78823786426303
 31
0.0
  0
LINE
  5
72E
330
1E
100
AcDbEntity
  8
ZN-40BMB
  6
HIDDEN2
 62
     4
100
AcDbLine
 10
12.0624580064344
 20
11.95623786426303
 30
0.0
 11
12.06573955864091
 21
11.76823786426303
 31
0.0
  0
LINE
  5
72F
330
1E
100
AcDbEntity
  8
ZN-40BMB
  6
HIDDEN2
 62
     4
100
AcDbLine
 10
12.20439045734234
 20
11.78823786426303
 30
0.0
 11
12.20271477110923
 21
11.88423786426303
 31
0.0
  0
LINE
  5
730
330
1E
100
AcDbEntity
  8
ZN-40BMB
  6
HIDDEN2
 62
     4
100
AcDbLine
 10
12.14917645422789
 20
11.76823786426303
 30
0.0
 11
12.1524580064344
 21
11.95623786426303
 31
0.0
  0
LINE
  5
731
330
1E
100
AcDbEntity
  8
ZN-40BMB
  6
HIDDEN2
 62
     4
100
AcDbLine
 10
14.98439045734234
 20
11.78823786426303
 30
0.0
 11
14.98271477110923
 21
11.88423786426303
 31
0.0
  0
LINE
  5
732
330
1E
100
AcDbEntity
  8
ZN-40BMB
  6
HIDDEN2
 62
     4
100
AcDbLine
 10
14.79220124175957
 20
11.88423786426303
 30
0.0
 11
14.79052555552646
 21
11.78823786426303
 31
0.0
  0
LINE
  5
733
330
1E
100
AcDbEntity
  8
ZN-40BMB
  6
HIDDEN2
 62
     4
100
AcDbLine
 10
14.8424580064344
 20
11.95623786426303
 30
0.0
 11
14.84573955864091
 21
11.76823786426303
 31
0.0
  0
LINE
  5
734
330
1E
100
AcDbEntity
  8
ZN-40BMB
  6
HIDDEN2
 62
     4
100
AcDbLine
 10
14.92917645422789
 20
11.76823786426303
 30
0.0
 11
14.93245800643439
 21
11.95623786426303
 31
0.0
  0
LINE
  5
735
330
1E
100
AcDbEntity
  8
ZN-40BMB
  6
HIDDEN2
 62
     4
100
AcDbLine
 10
16.41506584647612
 20
11.51823786426303
 30
0.0
 11
16.38145026147397
 21
11.90246575902545
 31
0.0
  0
LINE
  5
736
330
1E
100
AcDbEntity
  8
ZN-40BMB
  6
HIDDEN2
 62
     4
100
AcDbLine
 10
16.48466807461994
 20
11.51823786426303
 30
0.0
 11
16.2717575261982
 21
11.51823786426303
 31
0.0
  0
LINE
  5
737
330
1E
100
AcDbEntity
  8
ZN-40BMB
  6
HIDDEN2
 62
     4
100
AcDbLine
 10
15.69363352927503
 20
11.69714599195703
 30
0.0
 11
15.79012857235524
 21
11.60418786383825
 31
0.0
  0
LINE
  5
738
330
1E
100
AcDbEntity
  8
ZN-40BMB
  6
HIDDEN2
 62
     4
100
AcDbLine
 10
15.81532597207843
 20
11.76823786426303
 30
0.0
 11
15.51593651485994
 21
11.76823786426303
 31
0.0
  0
ARC
  5
739
330
1E
100
AcDbEntity
  8
ZN-40BMB
  6
HIDDEN2
 62
     4
100
AcDbCircle
 10
15.73886098973081
 20
11.69823786426303
 30
0.0
 40
0.0899999999999981
100
AcDbArc
 50
56.44269023764867
 51
90.0000000000004
  0
LINE
  5
73A
330
1E
100
AcDbEntity
  8
ZN-40BMB
  6
HIDDEN2
 62
     4
100
AcDbLine
 10
15.81532597207843
 20
11.67823786426302
 30
0.0
 11
15.51593651485994
 21
11.67823786426303
 31
0.0
  0
LINE
  5
73B
330
1E
100
AcDbEntity
  8
ZN-40BMB
  6
HIDDEN2
 62
     4
100
AcDbLine
 10
15.29583484631203
 20
11.78823786426303
 30
0.0
 11
15.493327049985
 21
11.78823786426303
 31
0.0
  0
ARC
  5
73C
330
1E
100
AcDbEntity
  8
ZN-40BMB
  6
HIDDEN2
 62
     4
100
AcDbCircle
 10
15.51604657634492
 20
11.50768563334849
 30
0.0
 40
0.2605522541604267
100
AcDbArc
 50
46.90400098199703
 51
90.02420266438555
  0
LINE
  5
73D
330
1E
100
AcDbEntity
  8
ZN-40BMB
  6
HIDDEN2
 62
     4
100
AcDbLine
 10
15.493327049985
 20
11.78823786426303
 30
0.0
 11
15.73886098973081
 21
11.78823786426302
 31
0.0
  0
LINE
  5
73E
330
1E
100
AcDbEntity
  8
ZN-40BMB
  6
HIDDEN2
 62
     4
100
AcDbLine
 10
16.02346575139482
 20
11.90246575902545
 30
0.0
 11
15.99767258450883
 21
11.60764851246465
 31
0.0
  0
LINE
  5
73F
330
1E
100
AcDbEntity
  8
ZN-40BMB
  6
HIDDEN2
 62
     4
100
AcDbLine
 10
16.3577580064344
 20
11.45616239544382
 30
0.0
 11
16.3209580064344
 21
11.87678832018542
 31
0.0
  0
LINE
  5
740
330
1E
100
AcDbEntity
  8
ZN-40BMB
  6
HIDDEN2
 62
     4
100
AcDbLine
 10
16.11787431203783
 20
11.56510077927317
 30
0.0
 11
15.98503159956321
 21
11.69794349174779
 31
0.0
  0
LINE
  5
741
330
1E
100
AcDbEntity
  8
ZN-40BMB
  6
HIDDEN2
 62
     4
100
AcDbLine
 10
16.0839580064344
 20
11.87678832018542
 30
0.0
 11
16.0471580064344
 21
11.45616239544382
 31
0.0
  0
ARC
  5
742
330
1E
100
AcDbEntity
  8
ZN-40BMB
  6
HIDDEN2
 62
     4
100
AcDbCircle
 10
15.81532597207843
 20
11.52823786426302
 30
0.0
 40
0.1500000000000022
100
AcDbArc
 50
44.99999999999991
 51
90.0000000000004
  0
LINE
  5
743
330
1E
100
AcDbEntity
  8
ZN-40BMB
  6
HIDDEN2
 62
     4
100
AcDbLine
 10
16.08171926658794
 20
12.19823786426303
 30
0.0
 11
16.05946575139483
 21
11.94387902168541
 31
0.0
  0
ARC
  5
744
330
1E
100
AcDbEntity
  8
ZN-40BMB
  6
HIDDEN2
 62
     4
100
AcDbCircle
 10
15.92696188324254
 20
11.98423786426303
 30
0.0
 40
0.1400000000000008
100
AcDbArc
 50
270.0
 51
359.0000000000002
  0
LINE
  5
745
330
1E
100
AcDbEntity
  8
ZN-40BMB
  6
HIDDEN2
 62
     4
100
AcDbLine
 10
16.38145026147397
 20
11.90246575902545
 30
0.0
 11
16.02346575139482
 21
11.90246575902545
 31
0.0
  0
LINE
  5
746
330
1E
100
AcDbEntity
  8
ZN-40BMB
  6
HIDDEN2
 62
     4
100
AcDbLine
 10
16.34545026147398
 20
11.94387902168541
 30
0.0
 11
16.05946575139483
 21
11.94387902168541
 31
0.0
  0
LINE
  5
747
330
1E
100
AcDbEntity
  8
ZN-40BMB
  6
HIDDEN2
 62
     4
100
AcDbLine
 10
16.06694056056444
 20
11.98179452736181
 30
0.0
 11
16.07124224501118
 21
12.22823786426303
 31
0.0
  0
LINE
  5
748
330
1E
100
AcDbEntity
  8
ZN-40BMB
  6
HIDDEN2
 62
     4
100
AcDbLine
 10
16.05946575139483
 20
11.94387902168541
 30
0.0
 11
16.02346575139482
 21
11.90246575902545
 31
0.0
  0
ARC
  5
749
330
1E
100
AcDbEntity
  8
ZN-40BMB
  6
HIDDEN2
 62
     4
100
AcDbCircle
 10
15.80519348553791
 20
11.79823786426302
 30
0.0
 40
0.0300000000002246
100
AcDbArc
 50
236.4426902387298
 51
270.0
  0
ARC
  5
74A
330
1E
100
AcDbEntity
  8
ZN-40BMB
  6
HIDDEN2
 62
     4
100
AcDbCircle
 10
15.81532597207843
 20
11.52823786426302
 30
0.0
 40
0.240000000000002
100
AcDbArc
 50
44.99999999999921
 51
90.0000000000004
  0
LINE
  5
74B
330
1E
100
AcDbEntity
  8
ZN-40BMB
  6
HIDDEN2
 62
     4
100
AcDbLine
 10
16.1444580064344
 20
12.19823786426303
 30
0.0
 11
16.1199580064344
 21
11.91820158284538
 31
0.0
  0
LINE
  5
74C
330
1E
100
AcDbEntity
  8
ZN-40BMB
  6
HIDDEN2
 62
     4
100
AcDbLine
 10
16.34545026147398
 20
11.94387902168541
 30
0.0
 11
16.32319674628086
 21
12.19823786426303
 31
0.0
  0
LINE
  5
74D
330
1E
100
AcDbEntity
  8
ZN-40BMB
  6
HIDDEN2
 62
     4
100
AcDbLine
 10
16.2849580064344
 20
11.91820158284538
 30
0.0
 11
16.2604580064344
 21
12.19823786426303
 31
0.0
  0
LINE
  5
74E
330
1E
100
AcDbEntity
  8
ZN-40BMB
  6
HIDDEN2
 62
     4
100
AcDbLine
 10
16.1199580064344
 20
11.91820158284538
 30
0.0
 11
16.0839580064344
 21
11.87678832018542
 31
0.0
  0
LINE
  5
74F
330
1E
100
AcDbEntity
  8
ZN-40BMB
  6
HIDDEN2
 62
     4
100
AcDbLine
 10
16.3209580064344
 20
11.87678832018542
 30
0.0
 11
16.0839580064344
 21
11.87678832018542
 31
0.0
  0
LINE
  5
750
330
1E
100
AcDbEntity
  8
ZN-40BMB
  6
HIDDEN2
 62
     4
100
AcDbLine
 10
16.38145026147397
 20
11.90246575902545
 30
0.0
 11
16.34545026147398
 21
11.94387902168541
 31
0.0
  0
LINE
  5
751
330
1E
100
AcDbEntity
  8
ZN-40BMB
  6
HIDDEN2
 62
     4
100
AcDbLine
 10
16.2849580064344
 20
11.91820158284538
 30
0.0
 11
16.1199580064344
 21
11.91820158284538
 31
0.0
  0
LINE
  5
752
330
1E
100
AcDbEntity
  8
ZN-40BMB
  6
HIDDEN2
 62
     4
100
AcDbLine
 10
16.3209580064344
 20
11.87678832018542
 30
0.0
 11
16.2849580064344
 21
11.91820158284538
 31
0.0
  0
LINE
  5
753
330
1E
100
AcDbEntity
  8
ZN-40BMB
  6
HIDDEN2
 62
     4
100
AcDbLine
 10
16.1574580064344
 20
11.51823786426303
 30
0.0
 11
15.94608802242018
 21
11.51823786426303
 31
0.0
  0
ARC
  5
754
330
1E
100
AcDbEntity
  8
ZN-40BMB
  6
HIDDEN2
 62
     4
100
AcDbCircle
 10
16.12623509505458
 20
11.64698951357344
 30
0.0
 40
0.1287821982814104
100
AcDbArc
 50
219.4845394245692
 51
271.2480057656676
  0
ARC
  5
755
330
1E
100
AcDbEntity
  8
ZN-40BMB
  6
HIDDEN2
 62
     4
100
AcDbCircle
 10
16.12937275795033
 20
11.94810077060327
 30
0.0
 40
0.430257344241067
100
AcDbArc
 50
257.6791071303881
 51
267.5464439287981
  0
ARC
  5
756
330
1E
100
AcDbEntity
  8
ZN-40BMB
  6
HIDDEN2
 62
     4
100
AcDbCircle
 10
16.18080515088867
 20
11.70060359023087
 30
0.0
 40
0.1823770222179367
100
AcDbArc
 50
227.9860437457497
 51
269.3622918592465
  0
ARC
  5
757
330
1E
100
AcDbEntity
  8
ZN-40BMB
  6
HIDDEN2
 62
     4
100
AcDbCircle
 10
11.8542957187409
 20
-24.64954349714901
 30
0.0
 40
36.41740717346292
100
AcDbArc
 50
83.28762436537934
 51
83.40230344040243
  0
ARC
  5
758
330
1E
100
AcDbEntity
  8
ZN-40BMB
  6
HIDDEN2
 62
     4
100
AcDbCircle
 10
16.1624580064344
 20
11.35323786426303
 30
0.0
 40
0.2150000000000002
100
AcDbArc
 50
90.0000000000004
 51
125.6349922099547
  0
ARC
  5
759
330
1E
100
AcDbEntity
  8
ZN-40BMB
  6
HIDDEN2
 62
     4
100
AcDbCircle
 10
16.23101139702767
 20
11.67823786426302
 30
0.0
 40
0.2500000000000018
100
AcDbArc
 50
225.0000000000003
 51
270.0
  0
ARC
  5
75A
330
1E
100
AcDbEntity
  8
ZN-40BMB
  6
HIDDEN2
 62
     4
100
AcDbCircle
 10
16.12547175503765
 20
11.56187105697568
 30
0.0
 40
0.134143238698704
100
AcDbArc
 50
235.2957077547417
 51
274.9979925855494
  0
LINE
  5
75B
330
1E
100
AcDbEntity
  8
ZN-40BMB
  6
HIDDEN2
 62
     4
100
AcDbLine
 10
16.3577580064344
 20
11.45616239544382
 30
0.0
 11
16.0471580064344
 21
11.45616239544382
 31
0.0
  0
ARC
  5
75C
330
1E
100
AcDbEntity
  8
ZN-40BMB
  6
HIDDEN2
 62
     4
100
AcDbCircle
 10
16.20034170659742
 20
11.89407807648228
 30
0.0
 40
0.4666613968702088
100
AcDbArc
 50
250.9469640858961
 51
266.6004548791123
  0
ARC
  5
75D
330
1E
100
AcDbEntity
  8
ZN-40BMB
  6
HIDDEN2
 62
     4
100
AcDbCircle
 10
16.1624580064344
 20
11.35323786426303
 30
0.0
 40
0.1249999999999991
100
AcDbArc
 50
90.0000000000004
 51
142.0568785239042
  0
LINE
  5
75E
330
1E
100
AcDbEntity
  8
ZN-40BMB
  6
HIDDEN2
 62
     4
100
AcDbLine
 10
16.03921081987337
 20
11.52427399000363
 30
0.0
 11
16.03795709326405
 21
11.52691882866567
 31
0.0
  0
LINE
  5
75F
330
1E
100
AcDbEntity
  8
ZN-40BMB
  6
HIDDEN2
 62
     4
100
AcDbLine
 10
16.05320734453043
 20
11.51992606293613
 30
0.0
 11
16.03921081987337
 21
11.52427399000363
 31
0.0
  0
LINE
  5
760
330
1E
100
AcDbEntity
  8
ZN-40BMB
  6
HIDDEN2
 62
     4
100
AcDbLine
 10
16.07255045516979
 20
11.51823786426303
 30
0.0
 11
16.05320734453043
 21
11.51992606293613
 31
0.0
  0
LINE
  5
761
330
1E
100
AcDbEntity
  8
ZN-40BMB
  6
HIDDEN2
 62
     4
100
AcDbLine
 10
16.00460644384084
 20
11.59435381272018
 30
0.0
 11
16.02684148465183
 21
11.56510077927318
 31
0.0
  0
LINE
  5
762
330
1E
100
AcDbEntity
  8
ZN-40BMB
  6
HIDDEN2
 62
     4
100
AcDbLine
 10
15.99776545482079
 20
11.60749454890775
 30
0.0
 11
16.00460644384084
 21
11.59435381272018
 31
0.0
  0
LINE
  5
763
330
1E
100
AcDbEntity
  8
ZN-40BMB
  6
HIDDEN2
 62
     4
100
AcDbLine
 10
16.00387803014085
 20
11.60822313569618
 30
0.0
 11
15.99776545482079
 21
11.60749454890775
 31
0.0
  0
LINE
  5
764
330
1E
100
AcDbEntity
  8
ZN-40BMB
  6
HIDDEN2
 62
     4
100
AcDbLine
 10
16.0232032765303
 20
11.5949506899156
 30
0.0
 11
16.00387803014085
 21
11.60822313569618
 31
0.0
  0
LINE
  5
765
330
1E
100
AcDbEntity
  8
ZN-40BMB
  6
HIDDEN2
 62
     4
100
AcDbLine
 10
16.05873809367983
 20
11.56510077927318
 30
0.0
 11
16.0232032765303
 21
11.5949506899156
 31
0.0
  0
LINE
  5
766
330
1E
100
AcDbEntity
  8
ZN-40BMB
  6
HIDDEN2
 62
     4
100
AcDbLine
 10
15.99772528621496
 20
11.60822313569617
 30
0.0
 11
15.99785633827263
 21
11.60821045284428
 31
0.0
  0
LINE
  5
767
330
1E
100
AcDbEntity
  8
ZN-40BMB
  6
HIDDEN2
 62
     4
100
AcDbLine
 10
16.00420920725041
 20
11.59495068991559
 30
0.0
 11
15.99772528621496
 21
11.60822313569617
 31
0.0
  0
LINE
  5
768
330
1E
100
AcDbEntity
  8
ZN-40BMB
  6
HIDDEN2
 62
     4
100
AcDbLine
 10
16.02684148465183
 20
11.56510077927317
 30
0.0
 11
16.00420920725041
 21
11.59495068991559
 31
0.0
  0
LINE
  5
769
330
1E
100
AcDbEntity
  8
ZN-40BMB
  6
HIDDEN2
 62
     4
100
AcDbLine
 10
15.79012857235524
 20
11.60418786383825
 30
0.0
 11
15.83144085569951
 21
11.56430481881222
 31
0.0
  0
LINE
  5
76A
330
1E
100
AcDbEntity
  8
ZN-40BMB
  6
HIDDEN2
 62
     4
100
AcDbLine
 10
16.05423470173103
 20
11.50146116896639
 30
0.0
 11
15.92139198925642
 21
11.634303881441
 31
0.0
  0
LINE
  5
76B
330
1E
100
AcDbEntity
  8
ZN-40BMB
  6
HIDDEN2
 62
     4
100
AcDbLine
 10
15.83146898972334
 20
11.56433462069157
 30
0.0
 11
15.83187363475879
 21
11.56510077927318
 31
0.0
  0
ARC
  5
76C
330
1E
100
AcDbEntity
  8
ZN-40BMB
  6
HIDDEN2
 62
     4
100
AcDbCircle
 10
15.94608951376674
 20
11.68085472041985
 30
0.0
 40
0.1626168561636549
100
AcDbArc
 50
225.3831944347912
 51
270.0000000000008
  0
LINE
  5
76D
330
1E
100
AcDbEntity
  8
ZN-40BMB
  6
HIDDEN2
 62
     4
100
AcDbLine
 10
16.2717575261982
 20
11.51823786426303
 30
0.0
 11
16.21945518069108
 21
11.51823786426303
 31
0.0
  0
LINE
  5
76E
330
1E
100
AcDbEntity
  8
ZN-40BMB
  6
HIDDEN2
 62
     4
100
AcDbLine
 10
16.21945518069108
 20
11.51823786426303
 30
0.0
 11
16.1574580064344
 21
11.51823786426303
 31
0.0
  0
ARC
  5
76F
330
1E
100
AcDbEntity
  8
ZN-40BMB
  6
HIDDEN2
 62
     4
100
AcDbCircle
 10
16.23101139702767
 20
11.67823786426302
 30
0.0
 40
0.1600000000000019
100
AcDbArc
 50
225.0000000000011
 51
270.0
  0
ARC
  5
770
330
1E
100
AcDbEntity
  8
ZN-40BMB
  6
HIDDEN2
 62
     4
100
AcDbCircle
 10
16.1624580064344
 20
11.35323786426303
 30
0.0
 40
0.2149999999999995
100
AcDbArc
 50
50.12472264291727
 51
90.0000000000004
  0
ARC
  5
771
330
1E
100
AcDbEntity
  8
ZN-40BMB
  6
HIDDEN2
 62
     4
100
AcDbCircle
 10
16.1624580064344
 20
11.35323786426303
 30
0.0
 40
0.1249999999999993
100
AcDbArc
 50
36.8698976458437
 51
90.0000000000004
  0
LINE
  5
772
330
1E
100
AcDbEntity
  8
ZN-40BMB
  6
HIDDEN2
 62
     4
100
AcDbLine
 10
16.3577580064344
 20
11.42823786426303
 30
0.0
 11
16.3577580064344
 21
11.45616239544382
 31
0.0
  0
LINE
  5
773
330
1E
100
AcDbEntity
  8
ZN-40BMB
  6
HIDDEN2
 62
     4
100
AcDbLine
 10
16.54463152424108
 20
11.57614389446087
 30
0.0
 11
16.56740314744751
 21
12.22823786426303
 31
0.0
  0
ARC
  5
774
330
1E
100
AcDbEntity
  8
ZN-40BMB
  6
HIDDEN2
 62
     4
100
AcDbCircle
 10
16.48466807461994
 20
11.57823786426302
 30
0.0
 40
0.0599999999999997
100
AcDbArc
 50
270.0
 51
358.0
  0
MTEXT
  5
833
330
1E
100
AcDbEntity
  8
0
 62
     4
100
AcDbMText
 10
12.05171287994777
 20
9.480173512587519
 30
0.0
 40
0.25
 41
0.0
 71
     1
 72
     1
  1
{\Fgdt.shx;q}
  7
SLDTEXTSTYLE4
 73
     1
 44
1.0
1001
ACAD
1000
MTEXTBEGIN
1070
    73
1070
     1
1070
    44
1040
1.0
1070
    74
1070
     0
1000
MTEXTEND
  0
DIMENSION
  5
837
330
1E
100
AcDbEntity
  8
0
100
AcDbDimension
  2
*D17
 10
15.24841924586686
 20
19.36617080164519
 30
0.0
 11
17.6127681353626
 21
20.60030444137366
 31
0.0
 70
   164
  1
<>\P(4 PLCS.)
 71
     5
 42
0.1879999999999953
  3
STANDARD$4
100
AcDbRadialDimension
 15
15.39271226591842
 25
19.48668438745359
 35
0.0
 40
0.0
  0
ARC
  5
838
330
1E
100
AcDbEntity
  8
ZN-40C
100
AcDbCircle
 10
8.290658006434274
 20
16.98667080164524
 30
0.0
 40
8.406745141013191
100
AcDbArc
 50
346.8009332809502
 51
0.0000000000008015
  0
ARC
  5
839
330
1E
100
AcDbEntity
  8
ZN-40C
100
AcDbCircle
 10
8.290658006434245
 20
17.99667080164523
 30
0.0
 40
8.406745141013225
100
AcDbArc
 50
0.0000000000008015
 51
13.19906671905001
  0
ARC
  5
83A
330
1E
100
AcDbEntity
  8
ZN-40C
100
AcDbCircle
 10
8.290658006434274
 20
16.98667080164524
 30
0.0
 40
8.362415134083002
100
AcDbArc
 50
346.8215051862941
 51
0.0000000000008015
  0
ARC
  5
83B
330
1E
100
AcDbEntity
  8
ZN-40C
100
AcDbCircle
 10
8.290658006434245
 20
17.99667080164523
 30
0.0
 40
8.362415134083008
100
AcDbArc
 50
0.0000000000008015
 51
13.17849481370606
  0
LINE
  5
83C
330
1E
100
AcDbEntity
  8
ZN-40C
  6
HIDDEN2
 62
     4
100
AcDbLine
 10
16.64669728513055
 20
12.29823786426303
 30
0.0
 11
16.42595263952495
 21
12.29823786426303
 31
0.0
  0
ARC
  5
83D
330
1E
100
AcDbEntity
  8
ZN-40C
100
AcDbCircle
 10
16.44074873206601
 20
12.70323786426303
 30
0.0
 40
0.1999999999999995
100
AcDbArc
 50
2.000000000000112
 51
90.0
  0
LINE
  5
83E
330
1E
100
AcDbEntity
  8
ZN-40C
100
AcDbLine
 10
16.69740314744746
 20
12.22823786426303
 30
0.0
 11
16.03245800643435
 21
12.22823786426302
 31
0.0
  0
LINE
  5
83F
330
1E
100
AcDbEntity
  8
ZN-40C
100
AcDbLine
 10
16.65307314051727
 20
12.35380399527631
 30
0.0
 11
16.12576555993594
 21
12.35380399871232
 31
0.0
  0
DIMENSION
  5
84B
330
1E
100
AcDbEntity
  8
0
100
AcDbDimension
  2
*D18
 10
8.182458006434355
 20
12.51199067355642
 30
0.0
 11
12.13702073792856
 21
12.51199067355642
 31
0.0
 70
   160
  1
<>
 71
     5
 42
7.850000000000001
  3
STANDARD
100
AcDbAlignedDimension
 13
16.03245800643435
 23
12.22823786426302
 33
0.0
 14
8.182458006434355
 24
12.22823786426302
 34
0.0
100
AcDbRotatedDimension
1001
ACAD
1000
DSTYLE
1002
{
1070
   141
1040
0.0
1002
}
  0
DIMENSION
  5
931
330
1E
100
AcDbEntity
  8
0
100
AcDbDimension
  2
*D10
 10
15.63854422614785
 20
20.65383885690089
 30
0.0
 11
12.06866259539725
 21
20.65383885690087
 31
0.0
 70
   160
 71
     5
 42
7.06217243942703
  3
STANDARD
100
AcDbAlignedDimension
 13
8.576371786720851
 23
17.49167080164522
 33
0.0
 14
15.63854422614788
 24
17.4916708016452
 34
0.0
 50
180.0000000000004
100
AcDbRotatedDimension
1001
ACAD
1000
DSTYLE
1002
{
1070
   141
1040
0.0
1002
}
  0
LINE
  5
932
330
1E
100
AcDbEntity
  8
ZN-40C
100
AcDbLine
 10
15.92580984895723
 20
14.8667256606321
 30
0.0
 11
8.289106163911473
 21
14.86672566063212
 31
0.0
  0
LINE
  5
933
330
1E
100
AcDbEntity
  8
ZN-40C
100
AcDbLine
 10
8.289106163911487
 20
20.11661594265834
 30
0.0
 11
15.92580984895726
 21
20.11661594265831
 31
0.0
  0
LINE
  5
934
330
1E
100
AcDbEntity
  8
ZN-40C
100
AcDbLine
 10
8.596561141665372
 20
14.92717070586218
 30
0.0
 11
15.61835487120334
 21
14.92717070586215
 31
0.0
  0
LINE
  5
935
330
1E
100
AcDbEntity
  8
ZN-40C
100
AcDbLine
 10
15.61835487120336
 20
20.05617089742825
 30
0.0
 11
8.596561141665386
 21
20.05617089742828
 31
0.0
  0
LINE
  5
936
330
1E
100
AcDbEntity
  8
ZN-40C
100
AcDbLine
 10
15.24841924586686
 20
19.5231708016452
 30
0.0
 11
8.966496767001881
 21
19.52317080164522
 31
0.0
  0
LINE
  5
937
330
1E
100
AcDbEntity
  8
ZN-40C
100
AcDbLine
 10
8.96649676700186
 20
15.46017080164522
 30
0.0
 11
15.24841924586685
 21
15.4601708016452
 31
0.0
  0
LINE
  5
938
330
1E
100
AcDbEntity
  8
ZN-40C
100
AcDbLine
 10
8.96649676700186
 20
15.42917080164522
 30
0.0
 11
15.24841924586685
 21
15.4291708016452
 31
0.0
  0
LINE
  5
939
330
1E
100
AcDbEntity
  8
ZN-40C
100
AcDbLine
 10
15.24841924586686
 20
19.5541708016452
 30
0.0
 11
8.966496767001874
 21
19.55417080164522
 31
0.0
  0
LINE
  5
93A
330
1E
100
AcDbEntity
  8
ZN-40C
  6
HIDDEN2
 62
     4
100
AcDbLine
 10
8.96649676700186
 20
13.09323786426302
 30
0.0
 11
15.24841924586685
 21
13.09323786426302
 31
0.0
  0
LINE
  5
93B
330
1E
100
AcDbEntity
  8
ZN-40C
  6
HIDDEN2
 62
     4
100
AcDbLine
 10
15.24841924586685
 20
12.98323786426302
 30
0.0
 11
8.96649676700186
 21
12.98323786426302
 31
0.0
  0
LINE
  5
93C
330
1E
100
AcDbEntity
  8
ZN-40C
  6
HIDDEN2
 62
     4
100
AcDbLine
 10
8.699605912319501
 20
13.01323786426302
 30
0.0
 11
15.51531010054921
 21
13.01323786426302
 31
0.0
  0
LINE
  5
93D
330
1E
100
AcDbEntity
  8
ZN-40C
  6
HIDDEN2
 62
     4
100
AcDbLine
 10
15.92580984895723
 20
12.74823786426302
 30
0.0
 11
8.289106163911473
 21
12.74823786426302
 31
0.0
  0
LINE
  5
93E
330
1E
100
AcDbEntity
  8
ZN-40C
100
AcDbLine
 10
8.699605912319501
 20
13.10323786426302
 30
0.0
 11
15.51531010054921
 21
13.10323786426302
 31
0.0
  0
LINE
  5
93F
330
1E
100
AcDbEntity
  8
ZN-40C
100
AcDbLine
 10
8.59656109794837
 20
12.81527831272167
 30
0.0
 11
15.61835491492034
 21
12.81527831272167
 31
0.0
  0
LINE
  5
940
330
1E
100
AcDbEntity
  8
ZN-40C
100
AcDbLine
 10
15.92580984895723
 20
12.70823786426302
 30
0.0
 11
8.289106163911473
 21
12.70823786426302
 31
0.0
  0
DIMENSION
  5
941
330
1E
100
AcDbEntity
  8
0
100
AcDbDimension
  2
*D11
 10
7.017182545094541
 20
19.55417080164523
 30
0.0
 11
7.017182545094538
 21
17.52099684354047
 31
0.0
 70
   160
 71
     5
 42
4.125000000000005
  3
STANDARD
100
AcDbAlignedDimension
 13
8.96649676700186
 23
15.42917080164522
 33
0.0
 14
8.966496767001874
 24
19.55417080164522
 34
0.0
 50
90.0
100
AcDbRotatedDimension
1001
ACAD
1000
DSTYLE
1002
{
1070
   141
1040
0.0
1002
}
  0
ARC
  5
942
330
1E
100
AcDbEntity
  8
ZN-40C
100
AcDbCircle
 10
17.55745800643436
 20
17.4916708016452
 30
0.0
 40
9.537842712474617
100
AcDbArc
 50
165.6227870595836
 51
194.3772129404167
  0
ARC
  5
943
330
1E
100
AcDbEntity
  8
ZN-40C
100
AcDbCircle
 10
17.55745800643436
 20
17.4916708016452
 30
0.0
 40
9.317093362388451
100
AcDbArc
 50
165.0866684707638
 51
194.9133315292365
  0
ARC
  5
944
330
1E
100
AcDbEntity
  8
ZN-40C
100
AcDbCircle
 10
15.92425800643441
 20
17.9966708016452
 30
0.0
 40
8.406745141013148
100
AcDbArc
 50
166.8009332809494
 51
180.0000000000004
  0
ARC
  5
945
330
1E
100
AcDbEntity
  8
ZN-40C
100
AcDbCircle
 10
15.92425800643441
 20
17.9966708016452
 30
0.0
 40
8.362415134082963
100
AcDbArc
 50
166.8215051862933
 51
180.0000000000004
  0
ARC
  5
946
330
1E
100
AcDbEntity
  8
ZN-40C
100
AcDbCircle
 10
17.55745800672084
 20
17.4916708016452
 30
0.0
 40
8.950086219999999
100
AcDbArc
 50
167.6912937208427
 51
192.3087062791576
  0
ARC
  5
947
330
1E
100
AcDbEntity
  8
ZN-40C
100
AcDbCircle
 10
17.55745800672084
 20
17.4916708016452
 30
0.0
 40
8.981086219999999
100
AcDbArc
 50
167.6912937208427
 51
192.3087062791576
  0
ARC
  5
948
330
1E
100
AcDbEntity
  8
ZN-40C
100
AcDbCircle
 10
15.92425800643438
 20
16.98667080164521
 30
0.0
 40
8.406745141013118
100
AcDbArc
 50
180.0000000000004
 51
193.199066719051
  0
ARC
  5
949
330
1E
100
AcDbEntity
  8
ZN-40C
100
AcDbCircle
 10
15.92425800643438
 20
16.98667080164521
 30
0.0
 40
8.362415134082908
100
AcDbArc
 50
180.0000000000004
 51
193.1784948137071
  0
ARC
  5
94A
330
1E
100
AcDbEntity
  8
ZN-40C
100
AcDbCircle
 10
8.057458006434355
 20
15.55667080164523
 30
0.0
 40
0.6899451410131015
100
AcDbArc
 50
260.4489303024743
 51
270.0
  0
ARC
  5
94B
330
1E
100
AcDbEntity
  8
ZN-40C
100
AcDbCircle
 10
8.057458006434355
 20
15.55667080164523
 30
0.0
 40
0.6456151340829218
100
AcDbArc
 50
260.8336644913113
 51
270.0000000000004
  0
DIMENSION
  5
94C
330
1E
100
AcDbEntity
  8
0
100
AcDbDimension
  2
*D12
 10
6.944786278416627
 20
12.22823786426303
 30
0.0
 11
6.944786278416625
 21
12.65592137680868
 31
0.0
 70
   160
 71
     5
 42
0.8750000000000035
  3
STANDARD
100
AcDbAlignedDimension
 13
8.390271281657465
 23
13.10323786426303
 33
0.0
 14
7.517512865421263
 24
12.22823786426303
 34
0.0
 50
270.0
100
AcDbRotatedDimension
1001
ACAD
1000
DSTYLE
1002
{
1070
   141
1040
0.0
1002
}
  0
ARC
  5
94D
330
1E
100
AcDbEntity
  8
ZN-40C
  6
HIDDEN2
 62
     4
100
AcDbCircle
 10
8.019615293959748
 20
13.10323786426303
 30
0.0
 40
0.2900000000000009
100
AcDbArc
 50
270.0000000000008
 51
315.0000000000009
  0
ARC
  5
94E
330
1E
100
AcDbEntity
  8
ZN-40C
  6
HIDDEN2
 62
     4
100
AcDbCircle
 10
8.019615293959748
 20
13.10323786426303
 30
0.0
 40
0.2000000000000011
100
AcDbArc
 50
270.0000000000008
 51
300.9695102071485
  0
LINE
  5
94F
330
1E
100
AcDbEntity
  8
ZN-40C
  6
HIDDEN2
 62
     4
100
AcDbLine
 10
7.996886891618633
 20
12.81323786426302
 30
0.0
 11
8.057458006434355
 21
12.81323786426302
 31
0.0
  0
LINE
  5
950
330
1E
100
AcDbEntity
  8
ZN-40C
100
AcDbLine
 10
8.106458006434362
 20
12.20023786426302
 30
0.0
 11
8.012458006434361
 21
12.20023786426302
 31
0.0
  0
ARC
  5
951
330
1E
100
AcDbEntity
  8
ZN-40C
100
AcDbCircle
 10
8.05245800643436
 20
12.82823786426302
 30
0.0
 40
0.125
100
AcDbArc
 50
90.0
 51
143.1301023541561
  0
DIMENSION
  5
952
330
1E
100
AcDbEntity
  8
0
100
AcDbDimension
  2
*D13
 10
17.323886336269
 20
12.90323786426303
 30
0.0
 11
17.323886336269
 21
12.56573786426303
 31
0.0
 70
   160
 71
     5
 42
0.6750000000000025
  3
STANDARD
100
AcDbAlignedDimension
 13
16.69740314744747
 23
12.22823786426302
 33
0.0
 14
16.44074873206601
 24
12.90323786426303
 34
0.0
 50
89.9999999999992
100
AcDbRotatedDimension
1001
ACAD
1000
DSTYLE
1002
{
1070
   141
1040
0.0
1002
}
  0
LINE
  5
953
330
1E
100
AcDbEntity
  8
ZN-40C
  6
HIDDEN2
 62
     4
100
AcDbLine
 10
7.978157921794636
 20
12.81323787295967
 30
0.0
 11
7.967458125399598
 21
12.20023786417975
 31
0.0
  0
LINE
  5
954
330
1E
100
AcDbEntity
  8
ZN-40C
  6
HIDDEN2
 62
     4
100
AcDbLine
 10
7.686764247999224
 20
12.29823786561704
 30
0.0
 11
7.700199052799209
 21
12.70707681600793
 31
0.0
  0
LINE
  5
955
330
1E
100
AcDbEntity
  8
ZN-40C
  6
HIDDEN2
 62
     4
100
AcDbLine
 10
7.691139264125329
 20
12.29823786561704
 30
0.0
 11
7.705953892985473
 21
12.70707681600793
 31
0.0
  0
LINE
  5
956
330
1E
100
AcDbEntity
  8
ZN-40C
  6
HIDDEN2
 62
     4
100
AcDbLine
 10
7.664234289830606
 20
12.7070768089003
 30
0.0
 11
7.647512888100951
 21
12.22823786426303
 31
0.0
  0
LINE
  5
957
330
1E
100
AcDbEntity
  8
ZN-40C
100
AcDbLine
 10
7.574289115398894
 20
12.71021776360353
 30
0.0
 11
7.561842872351714
 21
12.35380399528382
 31
0.0
  0
ARC
  5
958
330
1E
100
AcDbEntity
  8
ZN-40C
  6
HIDDEN2
 62
     4
100
AcDbCircle
 10
7.59680700310437
 20
12.29323786426303
 30
0.0
 40
0.0050000000000008
100
AcDbArc
 50
5.00000000013874
 51
89.99999999999227
  0
LINE
  5
959
330
1E
100
AcDbEntity
  8
ZN-40C
100
AcDbLine
 10
8.182458121701326
 20
12.22823786426297
 30
0.0
 11
7.517512865421263
 21
12.22823786426303
 31
0.0
  0
LINE
  5
95A
330
1E
100
AcDbEntity
  8
ZN-40C
100
AcDbLine
 10
8.089150452932781
 20
12.35380399871155
 30
0.0
 11
7.561842872351714
 21
12.35380399528382
 31
0.0
  0
ARC
  5
95B
330
1E
100
AcDbEntity
  8
ZN-40C
  6
HIDDEN2
 62
     4
100
AcDbCircle
 10
7.568218727738173
 20
12.29323786426303
 30
0.0
 40
0.0050000000000008
100
AcDbArc
 50
89.99999999994383
 51
174.9999999997152
  0
LINE
  5
95C
330
1E
100
AcDbEntity
  8
ZN-40C
  6
HIDDEN2
 62
     4
100
AcDbLine
 10
7.563237754247719
 20
12.29367364297677
 30
0.0
 11
7.55751280778956
 21
12.22823786426303
 31
0.0
  0
ARC
  5
95D
330
1E
100
AcDbEntity
  8
ZN-40C
100
AcDbCircle
 10
7.717512865421266
 20
12.22823786426303
 30
0.0
 40
0.2000000000045144
100
AcDbArc
 50
141.1097470659128
 51
180.0000000000004
  0
LINE
  5
95E
330
1E
100
AcDbEntity
  8
ZN-40C
  6
HIDDEN2
 62
     4
100
AcDbLine
 10
7.60751295018365
 20
12.22823786426303
 30
0.0
 11
7.601787976594824
 21
12.29367364297677
 31
0.0
  0
LINE
  5
95F
330
1E
100
AcDbEntity
  8
ZN-40C
  6
HIDDEN2
 62
     4
100
AcDbLine
 10
7.915891894430433
 20
12.29823786561704
 30
0.0
 11
7.917724913255245
 21
12.22823786426304
 31
0.0
  0
LINE
  5
960
330
1E
100
AcDbEntity
  8
ZN-40C
100
AcDbLine
 10
8.012458006434361
 20
12.20023786426302
 30
0.0
 11
7.918458006434359
 21
12.20023786426302
 31
0.0
  0
LINE
  5
961
330
1E
100
AcDbEntity
  8
ZN-40C
100
AcDbLine
 10
7.917724913255245
 20
12.22823786426304
 30
0.0
 11
7.918458006434359
 21
12.20023786426302
 31
0.0
  0
ARC
  5
962
330
1E
100
AcDbEntity
  8
ZN-40C
100
AcDbCircle
 10
7.774167280802711
 20
12.70323786426303
 30
0.0
 40
0.1999999999999993
100
AcDbArc
 50
90.0
 51
177.9999999999998
  0
ARC
  5
963
330
1E
100
AcDbEntity
  8
ZN-40C
  6
HIDDEN2
 62
     4
100
AcDbCircle
 10
7.774167280802711
 20
12.70323786426303
 30
0.0
 40
0.1100000000000012
100
AcDbArc
 50
90.0
 51
177.9999999999818
  0
ARC
  5
964
330
1E
100
AcDbEntity
  8
ZN-40C
  6
HIDDEN2
 62
     4
100
AcDbCircle
 10
7.815456311038499
 20
12.70368554569282
 30
0.0
 40
0.1095549189850021
100
AcDbArc
 50
90.39410906880849
 51
178.2261269291617
  0
LINE
  5
965
330
1E
100
AcDbEntity
  8
ZN-40C
  6
HIDDEN2
 62
     4
100
AcDbLine
 10
7.808653524202608
 20
12.81323786426302
 30
0.0
 11
7.81470271790506
 21
12.81323786426302
 31
0.0
  0
LINE
  5
966
330
1E
100
AcDbEntity
  8
ZN-40C
  6
HIDDEN2
 62
     4
100
AcDbLine
 10
7.774167280802711
 20
12.81323786426303
 30
0.0
 11
7.808653524202608
 21
12.81323786426302
 31
0.0
  0
LINE
  5
967
330
1E
100
AcDbEntity
  8
0
  6
HIDDEN
 62
     7
370
     0
100
AcDbLine
 10
7.986883706507331
 20
12.81323786426302
 30
0.0
 11
7.996886891618633
 21
12.81323786426302
 31
0.0
  0
LINE
  5
968
330
1E
100
AcDbEntity
  8
ZN-40C
  6
HIDDEN2
 62
     4
100
AcDbLine
 10
7.81470271790506
 20
12.81323786426302
 30
0.0
 11
7.986883706507331
 21
12.81323786426302
 31
0.0
  0
ARC
  5
969
330
1E
100
AcDbEntity
  8
ZN-40C
100
AcDbCircle
 10
7.984750606837426
 20
15.1246041981255
 30
0.0
 40
0.2518037076263362
100
AcDbArc
 50
193.1972071591564
 51
260.4507898623621
  0
ARC
  5
96A
330
1E
100
AcDbEntity
  8
ZN-40C
100
AcDbCircle
 10
7.988543794745066
 20
15.12865969745759
 30
0.0
 40
0.212093301439344
100
AcDbArc
 50
194.0295390315932
 51
259.6223901837855
  0
LINE
  5
96B
330
1E
100
AcDbEntity
  8
ZN-40C
100
AcDbLine
 10
7.950338416877468
 20
14.92003583109174
 30
0.0
 11
7.954610765317905
 21
14.91930015096256
 31
0.0
  0
LINE
  5
96C
330
1E
100
AcDbEntity
  8
ZN-40C
100
AcDbLine
 10
7.782070899325564
 20
15.0801619536275
 30
0.0
 11
7.782777051184798
 21
15.07724359336523
 31
0.0
  0
ARC
  5
96D
330
1E
100
AcDbEntity
  8
ZN-40C
100
AcDbCircle
 10
8.390271281657458
 20
12.89123786426303
 30
0.0
 40
0.212
100
AcDbArc
 50
90.0
 51
135.0000000000004
  0
LINE
  5
96E
330
1E
100
AcDbEntity
  8
ZN-40C
  6
HIDDEN2
 62
     4
100
AcDbLine
 10
8.782818286812098
 20
13.09323786426302
 30
0.0
 11
8.96649676700186
 21
13.09323786426302
 31
0.0
  0
LINE
  5
96F
330
1E
100
AcDbEntity
  8
ZN-40C
  6
HIDDEN2
 62
     4
100
AcDbLine
 10
8.96649676700186
 20
12.98323786426302
 30
0.0
 11
8.780631273311673
 21
12.98323786426302
 31
0.0
  0
LINE
  5
970
330
1E
100
AcDbEntity
  8
ZN-40C
  6
HIDDEN2
 62
     4
100
AcDbLine
 10
8.05745791238105
 20
12.20023786417975
 30
0.0
 11
8.046758115986005
 21
12.81323787295967
 31
0.0
  0
LINE
  5
971
330
1E
100
AcDbEntity
  8
ZN-40C
  6
HIDDEN2
 62
     4
100
AcDbLine
 10
8.107191124525403
 20
12.22823786426304
 30
0.0
 11
8.122525534047664
 21
12.81383373607621
 31
0.0
  0
LINE
  5
972
330
1E
100
AcDbEntity
  8
ZN-40C
  6
HIDDEN2
 62
     4
100
AcDbLine
 10
8.149127486589573
 20
12.61068120116424
 30
0.0
 11
8.14273068730267
 21
12.24420371347
 31
0.0
  0
ARC
  5
973
330
1E
100
AcDbEntity
  8
ZN-40C
100
AcDbCircle
 10
59.6863552342814
 20
12.96929385055818
 30
0.0
 40
51.6008756612342
100
AcDbArc
 50
180.3969843573504
 51
180.6834342763447
  0
LINE
  5
974
330
1E
100
AcDbEntity
  8
ZN-40C
100
AcDbLine
 10
8.189121394395829
 20
12.60998310490675
 30
0.0
 11
8.182458121701291
 21
12.22823786426302
 31
0.0
  0
LINE
  5
975
330
1E
100
AcDbEntity
  8
ZN-40C
  6
HIDDEN2
 62
     4
100
AcDbLine
 10
8.143673743075073
 20
12.29823786561703
 30
0.0
 11
7.56821872773818
 21
12.29823786426303
 31
0.0
  0
LINE
  5
976
330
1E
100
AcDbEntity
  8
ZN-40C
  6
HIDDEN2
 62
     4
100
AcDbLine
 10
8.14273068730267
 20
12.24420371347
 30
0.0
 11
8.182458121701291
 21
12.22823786426302
 31
0.0
  0
ARC
  5
977
330
1E
100
AcDbEntity
  8
ZN-40C
100
AcDbCircle
 10
11.37167025966351
 20
14.69557938708711
 30
0.0
 40
4.032226215278286
100
AcDbArc
 50
215.5043584726791
 51
217.7274131502831
  0
LINE
  5
978
330
1E
100
AcDbEntity
  8
ZN-40C
100
AcDbLine
 10
8.106458006434362
 20
12.20023786426302
 30
0.0
 11
8.107191124525403
 21
12.22823786426304
 31
0.0
  0
LINE
  5
979
330
1E
100
AcDbEntity
  8
ZN-40C
  6
HIDDEN2
 62
     4
100
AcDbLine
 10
8.390271281657465
 20
13.01323786426303
 30
0.0
 11
8.699605912319501
 21
13.01323786426302
 31
0.0
  0
ARC
  5
97A
330
1E
100
AcDbEntity
  8
ZN-40C
100
AcDbCircle
 10
8.90970327913001
 20
20.68194364322729
 30
0.0
 40
7.872895366243243
100
AcDbArc
 50
265.6921026683698
 51
267.7204752985701
  0
ARC
  5
97B
330
1E
100
AcDbEntity
  8
ZN-40C
  6
HIDDEN2
 62
     4
100
AcDbCircle
 10
8.289106163911466
 20
12.60823786426302
 30
0.0
 40
0.1399999999999995
100
AcDbArc
 50
90.0
 51
179.0000000000001
  0
ARC
  5
97C
330
1E
100
AcDbEntity
  8
ZN-40C
100
AcDbCircle
 10
8.293000844324335
 20
12.63487949032743
 30
0.0
 40
0.1964499848999314
100
AcDbArc
 50
91.13598668654299
 51
157.4494457836198
  0
ARC
  5
97D
330
1E
100
AcDbEntity
  8
ZN-40C
100
AcDbCircle
 10
8.289106163911466
 20
12.60823786426302
 30
0.0
 40
0.0999999999999997
100
AcDbArc
 50
90.0
 51
178.9999999999877
  0
LINE
  5
97E
330
1E
100
AcDbEntity
  8
ZN-40C
  6
HIDDEN2
 62
     4
100
AcDbLine
 10
8.304004254352701
 20
12.97750489156779
 30
0.0
 11
8.224676260503844
 21
12.89817689771893
 31
0.0
  0
LINE
  5
97F
330
1E
100
AcDbEntity
  8
ZN-40C
  6
HIDDEN2
 62
     4
100
AcDbLine
 10
8.057458006434355
 20
12.81323786426302
 30
0.0
 11
8.318321512195812
 21
12.81323787295967
 31
0.0
  0
LINE
  5
980
330
1E
100
AcDbEntity
  8
ZN-40C
100
AcDbLine
 10
7.774167280802711
 20
12.90323786426303
 30
0.0
 11
8.318321512195812
 21
12.90323787993857
 31
0.0
  0
ARC
  5
981
330
1E
100
AcDbEntity
  8
ZN-40C
100
AcDbCircle
 10
8.05245800643436
 20
12.82823786426302
 30
0.0
 40
0.125
100
AcDbArc
 50
36.86989764584476
 51
90.0
  0
LINE
  5
982
330
1E
100
AcDbEntity
  8
ZN-40C
100
AcDbLine
 10
8.240364644045914
 20
13.04114450187458
 30
0.0
 11
8.161036650197058
 21
12.96181650802572
 31
0.0
  0
ARC
  5
983
330
1E
100
AcDbEntity
  8
ZN-40C
100
AcDbCircle
 10
8.019615293959748
 20
13.10323786426303
 30
0.0
 40
0.2000000000000008
100
AcDbArc
 50
300.9695102071485
 51
315.0000000000011
  0
ARC
  5
984
330
1E
100
AcDbEntity
  8
ZN-40C
  6
HIDDEN2
 62
     4
100
AcDbCircle
 10
8.390271281657458
 20
12.89123786426303
 30
0.0
 40
0.122
100
AcDbArc
 50
89.99999999999959
 51
134.9999999999999
  0
LINE
  5
985
330
1E
100
AcDbEntity
  8
ZN-40C
100
AcDbLine
 10
8.289106143027584
 20
12.83129086440997
 30
0.0
 11
8.318321512195812
 21
12.83129086440997
 31
0.0
  0
LINE
  5
986
330
1E
100
AcDbEntity
  8
ZN-40C
  6
HIDDEN2
 62
     4
100
AcDbLine
 10
8.576371786720851
 20
13.09323786426303
 30
0.0
 11
8.782818286812098
 21
13.09323786426302
 31
0.0
  0
LINE
  5
987
330
1E
100
AcDbEntity
  8
ZN-40C
  6
HIDDEN2
 62
     4
100
AcDbLine
 10
8.780631273311673
 20
12.98323786426302
 30
0.0
 11
8.574133317970161
 21
12.98323786426303
 31
0.0
  0
ARC
  5
988
330
1E
100
AcDbEntity
  8
ZN-40C
  6
HIDDEN2
 62
     4
100
AcDbCircle
 10
8.574133317970161
 20
13.07323786426303
 30
0.0
 40
0.0899999999999999
100
AcDbArc
 50
228.5903778907147
 51
270.0000000000008
  0
ARC
  5
989
330
1E
100
AcDbEntity
  8
ZN-40C
  6
HIDDEN2
 62
     4
100
AcDbCircle
 10
8.494760778638219
 20
12.98323786426303
 30
0.0
 40
0.0300000000000956
100
AcDbArc
 50
48.59037789093479
 51
90.0
  0
LINE
  5
98A
330
1E
100
AcDbEntity
  8
ZN-40C
100
AcDbLine
 10
8.390271281657465
 20
13.10323786426303
 30
0.0
 11
8.699605912319501
 21
13.10323786426302
 31
0.0
  0
LINE
  5
98B
330
1E
100
AcDbEntity
  8
ZN-40C
100
AcDbLine
 10
8.3183215399245
 20
14.96974924211479
 30
0.0
 11
8.3183215399245
 21
15.12338007601357
 31
0.0
  0
LINE
  5
98C
330
1E
100
AcDbEntity
  8
ZN-40C
100
AcDbLine
 10
8.289106163911473
 20
14.86672566063212
 30
0.0
 11
8.189121394395829
 21
14.86672566063213
 31
0.0
  0
ARC
  5
98D
330
1E
100
AcDbEntity
  8
ZN-40C
100
AcDbCircle
 10
8.383804420630955
 20
14.24233438143471
 30
0.0
 40
0.7335530923961206
100
AcDbArc
 50
97.41731631819151
 51
111.7844561439267
  0
LINE
  5
98E
330
1E
100
AcDbEntity
  8
ZN-40C
100
AcDbLine
 10
8.182458006434355
 20
14.86672566063213
 30
0.0
 11
8.057458006434348
 21
14.86672566063213
 31
0.0
  0
ARC
  5
98F
330
1E
100
AcDbEntity
  8
ZN-40C
100
AcDbCircle
 10
8.182460340003313
 20
14.98709440514637
 30
0.0
 40
0.1203687445368675
100
AcDbArc
 50
219.1767633920424
 51
269.9988892161926
  0
LINE
  5
990
330
1E
100
AcDbEntity
  8
ZN-40C
100
AcDbLine
 10
8.189121394395829
 20
14.86672566063213
 30
0.0
 11
8.182458006434355
 21
14.86672566063213
 31
0.0
  0
LINE
  5
991
330
1E
100
AcDbEntity
  8
ZN-40C
100
AcDbLine
 10
8.08915039922525
 20
14.91105566756232
 30
0.0
 11
8.057458006434355
 21
14.91105566756232
 31
0.0
  0
ARC
  5
992
330
1E
100
AcDbEntity
  8
ZN-40C
100
AcDbCircle
 10
8.154922906805719
 20
14.93364649936667
 30
0.0
 40
0.0695440035879136
100
AcDbArc
 50
191.2626667659827
 51
198.95601907928
  0
ARC
  5
993
330
1E
100
AcDbEntity
  8
ZN-40C
100
AcDbCircle
 10
8.110447408460853
 20
14.84007298957953
 30
0.0
 40
0.0834364891987677
100
AcDbArc
 50
89.22828258989873
 51
106.5229140528509
  0
LINE
  5
994
330
1E
100
AcDbEntity
  8
ZN-40C
100
AcDbLine
 10
8.289106163911473
 20
14.96974924211479
 30
0.0
 11
8.3183215399245
 21
14.96974924211479
 31
0.0
  0
CIRCLE
  5
995
330
1E
100
AcDbEntity
  8
ZN-40C
100
AcDbCircle
 10
8.05245800643436
 20
15.79167080164523
 30
0.0
 40
0.0999999999999997
  0
LINE
  5
996
330
1E
100
AcDbEntity
  8
ZN-40C
100
AcDbLine
 10
7.517512865421263
 20
16.98667080164524
 30
0.0
 11
7.51751286542127
 21
17.99667080164524
 31
0.0
  0
LINE
  5
997
330
1E
100
AcDbEntity
  8
ZN-40C
100
AcDbLine
 10
7.561842872351714
 20
16.98667080164524
 30
0.0
 11
7.561842872351451
 21
17.99667080164523
 31
0.0
  0
ARC
  5
998
330
1E
100
AcDbEntity
  8
ZN-40C
100
AcDbCircle
 10
8.966496767001867
 20
15.61717080164522
 30
0.0
 40
0.1570000000000018
100
AcDbArc
 50
192.3087062791606
 51
270.0000000000008
  0
ARC
  5
999
330
1E
100
AcDbEntity
  8
ZN-40C
100
AcDbCircle
 10
8.966496767001867
 20
15.61717080164522
 30
0.0
 40
0.1880000000000024
100
AcDbArc
 50
192.308706279161
 51
270.0000000000008
  0
ARC
  5
99A
330
1E
100
AcDbEntity
  8
ZN-40C
100
AcDbCircle
 10
8.057458006434362
 20
19.42667080164526
 30
0.0
 40
0.6899451410130766
100
AcDbArc
 50
89.99999999999877
 51
99.55106969752492
  0
ARC
  5
99B
330
1E
100
AcDbEntity
  8
ZN-40C
100
AcDbCircle
 10
8.057458006434362
 20
19.42667080164526
 30
0.0
 40
0.64561513408289
100
AcDbArc
 50
89.9999999999992
 51
99.16633550868496
  0
CIRCLE
  5
99C
330
1E
100
AcDbEntity
  8
ZN-40C
100
AcDbCircle
 10
8.052458006434374
 20
19.19167080164523
 30
0.0
 40
0.0999999999999997
  0
ARC
  5
99D
330
1E
100
AcDbEntity
  8
ZN-40C
100
AcDbCircle
 10
7.984750607489697
 20
19.85873740446982
 30
0.0
 40
0.2518037084200739
100
AcDbArc
 50
99.54921025775444
 51
166.8027927207283
  0
ARC
  5
99E
330
1E
100
AcDbEntity
  8
ZN-40C
100
AcDbCircle
 10
7.988543821259707
 20
19.85468187757201
 30
0.0
 40
0.2120933340141279
100
AcDbArc
 50
100.3776154865757
 51
165.9704552980357
  0
LINE
  5
99F
330
1E
100
AcDbEntity
  8
ZN-40C
100
AcDbLine
 10
7.782777051184812
 20
19.90609800992525
 30
0.0
 11
7.782070899325564
 21
19.90317964966299
 31
0.0
  0
LINE
  5
9A0
330
1E
100
AcDbEntity
  8
ZN-40C
100
AcDbLine
 10
7.954610765317962
 20
20.06404145232787
 30
0.0
 11
7.950338416877489
 21
20.06330577219873
 31
0.0
  0
ARC
  5
9A1
330
1E
100
AcDbEntity
  8
ZN-40C
100
AcDbCircle
 10
8.966496767001881
 20
19.36617080164523
 30
0.0
 40
0.157
100
AcDbArc
 50
90.0
 51
167.6912937208423
  0
ARC
  5
9A2
330
1E
100
AcDbEntity
  8
ZN-40C
100
AcDbCircle
 10
8.966496767001881
 20
19.36617080164523
 30
0.0
 40
0.1880000000000014
100
AcDbArc
 50
90.0
 51
167.6912937208428
  0
ARC
  5
9A3
330
1E
100
AcDbEntity
  8
ZN-40C
100
AcDbCircle
 10
8.383804420631829
 20
20.74100722185908
 30
0.0
 40
0.7335530923995376
100
AcDbArc
 50
248.2155438561083
 51
262.5826836817764
  0
LINE
  5
9A4
330
1E
100
AcDbEntity
  8
ZN-40C
100
AcDbLine
 10
8.318321539924514
 20
19.85996152727688
 30
0.0
 11
8.318321539924514
 21
20.01359236117567
 31
0.0
  0
LINE
  5
9A5
330
1E
100
AcDbEntity
  8
ZN-40C
100
AcDbLine
 10
8.289106163911487
 20
20.01359236117567
 30
0.0
 11
8.318321539924514
 21
20.01359236117567
 31
0.0
  0
LINE
  5
9A6
330
1E
100
AcDbEntity
  8
ZN-40C
100
AcDbLine
 10
8.289106163911487
 20
20.11661594265834
 30
0.0
 11
8.189121394395851
 21
20.11661594265834
 31
0.0
  0
LINE
  5
9A7
330
1E
100
AcDbEntity
  8
ZN-40C
100
AcDbLine
 10
8.182458006434377
 20
20.11661594265834
 30
0.0
 11
8.057458006434377
 21
20.11661594265834
 31
0.0
  0
ARC
  5
9A8
330
1E
100
AcDbEntity
  8
ZN-40C
100
AcDbCircle
 10
8.182567051817482
 20
19.99602258676397
 30
0.0
 40
0.1205934051959881
100
AcDbArc
 50
90.05180914386448
 51
140.7725382479045
  0
LINE
  5
9A9
330
1E
100
AcDbEntity
  8
ZN-40C
100
AcDbLine
 10
8.189121394395851
 20
20.11661594265834
 30
0.0
 11
8.182458006434377
 21
20.11661594265834
 31
0.0
  0
ARC
  5
9AA
330
1E
100
AcDbEntity
  8
ZN-40C
100
AcDbCircle
 10
8.154922906822346
 20
20.04969510391789
 30
0.0
 40
0.0695440036055426
100
AcDbArc
 50
161.0439809205595
 51
168.7373332311695
  0
LINE
  5
9AB
330
1E
100
AcDbEntity
  8
ZN-40C
100
AcDbLine
 10
8.089150399225299
 20
20.07228593572815
 30
0.0
 11
8.057458006434377
 21
20.07228593572815
 31
0.0
  0
ARC
  5
9AC
330
1E
100
AcDbEntity
  8
ZN-40C
100
AcDbCircle
 10
6.657458006434364
 20
17.49167080164524
 30
0.0
 40
9.537842712474617
100
AcDbArc
 50
345.6227870595843
 51
14.37721294041595
  0
ARC
  5
9AD
330
1E
100
AcDbEntity
  8
ZN-40C
100
AcDbCircle
 10
6.657458006434364
 20
17.49167080164524
 30
0.0
 40
9.317093362388451
100
AcDbArc
 50
345.0866684707647
 51
14.9133315292357
  0
ARC
  5
9AE
330
1E
100
AcDbEntity
  8
ZN-40C
100
AcDbCircle
 10
6.65745800614788
 20
17.49167080164524
 30
0.0
 40
8.950086219999999
100
AcDbArc
 50
347.6912937208435
 51
12.30870627915674
  0
ARC
  5
9AF
330
1E
100
AcDbEntity
  8
ZN-40C
100
AcDbCircle
 10
6.65745800614788
 20
17.49167080164524
 30
0.0
 40
8.981086220000001
100
AcDbArc
 50
347.6912937208435
 51
12.30870627915681
  0
ARC
  5
9B0
330
1E
100
AcDbEntity
  8
ZN-40C
100
AcDbCircle
 10
15.82464473121127
 20
12.89123786426303
 30
0.0
 40
0.212
100
AcDbArc
 50
44.9999999999996
 51
90.0
  0
LINE
  5
9B1
330
1E
100
AcDbEntity
  8
ZN-40C
  6
HIDDEN2
 62
     4
100
AcDbLine
 10
15.51531010054921
 20
13.01323786426302
 30
0.0
 11
15.82464473121127
 21
13.01323786426303
 31
0.0
  0
ARC
  5
9B2
330
1E
100
AcDbEntity
  8
ZN-40C
100
AcDbCircle
 10
15.30521273373834
 20
20.68194364323352
 30
0.0
 40
7.872895366249476
100
AcDbArc
 50
272.2795247014318
 51
274.3078973316306
  0
LINE
  5
9B3
330
1E
100
AcDbEntity
  8
ZN-40C
  6
HIDDEN2
 62
     4
100
AcDbLine
 10
15.24841924586685
 20
13.09323786426302
 30
0.0
 11
15.43209772605662
 21
13.09323786426302
 31
0.0
  0
LINE
  5
9B4
330
1E
100
AcDbEntity
  8
ZN-40C
  6
HIDDEN2
 62
     4
100
AcDbLine
 10
15.43428473955704
 20
12.98323786426302
 30
0.0
 11
15.24841924586685
 21
12.98323786426302
 31
0.0
  0
LINE
  5
9B5
330
1E
100
AcDbEntity
  8
ZN-40C
  6
HIDDEN2
 62
     4
100
AcDbLine
 10
15.43209772605662
 20
13.09323786426302
 30
0.0
 11
15.63854422614787
 21
13.09323786426303
 31
0.0
  0
LINE
  5
9B6
330
1E
100
AcDbEntity
  8
ZN-40C
  6
HIDDEN2
 62
     4
100
AcDbLine
 10
15.64078269489857
 20
12.98323786426303
 30
0.0
 11
15.43428473955704
 21
12.98323786426302
 31
0.0
  0
ARC
  5
9B7
330
1E
100
AcDbEntity
  8
ZN-40C
  6
HIDDEN2
 62
     4
100
AcDbCircle
 10
15.64078269489857
 20
13.07323786426303
 30
0.0
 40
0.0899999999999999
100
AcDbArc
 50
270.0000000000008
 51
311.4096221092866
  0
ARC
  5
9B8
330
1E
100
AcDbEntity
  8
ZN-40C
  6
HIDDEN2
 62
     4
100
AcDbCircle
 10
15.7201552342305
 20
12.98323786426303
 30
0.0
 40
0.030000000000095
100
AcDbArc
 50
90.0
 51
131.4096221090637
  0
LINE
  5
9B9
330
1E
100
AcDbEntity
  8
ZN-40C
  6
HIDDEN2
 62
     4
100
AcDbLine
 10
16.16815789688271
 20
12.81323787295967
 30
0.0
 11
16.15745810048767
 21
12.20023786417975
 31
0.0
  0
LINE
  5
9BA
330
1E
100
AcDbEntity
  8
ZN-40C
  6
HIDDEN2
 62
     4
100
AcDbLine
 10
16.24745788746912
 20
12.20023786417975
 30
0.0
 11
16.23675809107408
 21
12.81323787295967
 31
0.0
  0
LINE
  5
9BB
330
1E
100
AcDbEntity
  8
ZN-40C
  6
HIDDEN2
 62
     4
100
AcDbLine
 10
16.09239047882105
 20
12.81383373607621
 30
0.0
 11
16.10772488834331
 21
12.22823786426304
 31
0.0
  0
LINE
  5
9BC
330
1E
100
AcDbEntity
  8
ZN-40C
  6
HIDDEN2
 62
     4
100
AcDbLine
 10
16.52377674874339
 20
12.29823786561704
 30
0.0
 11
16.50896211988324
 21
12.70707681600793
 31
0.0
  0
LINE
  5
9BD
330
1E
100
AcDbEntity
  8
ZN-40C
  6
HIDDEN2
 62
     4
100
AcDbLine
 10
16.52815176486949
 20
12.29823786561704
 30
0.0
 11
16.51471696006951
 21
12.70707681600793
 31
0.0
  0
LINE
  5
9BE
330
1E
100
AcDbEntity
  8
ZN-40C
  6
HIDDEN2
 62
     4
100
AcDbLine
 10
16.55068172303812
 20
12.7070768089003
 30
0.0
 11
16.56740312476777
 21
12.22823786426303
 31
0.0
  0
LINE
  5
9BF
330
1E
100
AcDbEntity
  8
ZN-40C
  6
HIDDEN2
 62
     4
100
AcDbLine
 10
16.06578852627913
 20
12.61068120116424
 30
0.0
 11
16.07218532556604
 21
12.24420371347
 31
0.0
  0
ARC
  5
9C0
330
1E
100
AcDbEntity
  8
ZN-40C
100
AcDbCircle
 10
-35.47143922158427
 20
12.96929385056004
 30
0.0
 40
51.60087566140578
100
AcDbArc
 50
359.3165657236574
 51
359.6030156426501
  0
LINE
  5
9C1
330
1E
100
AcDbEntity
  8
ZN-40C
100
AcDbLine
 10
16.02579461847287
 20
12.60998310490675
 30
0.0
 11
16.03245789116742
 21
12.22823786426302
 31
0.0
  0
LINE
  5
9C2
330
1E
100
AcDbEntity
  8
ZN-40C
  6
HIDDEN2
 62
     4
100
AcDbLine
 10
16.26352483877563
 20
12.29823786426302
 30
0.0
 11
16.15745800643436
 21
12.29823786426302
 31
0.0
  0
LINE
  5
9C3
330
1E
100
AcDbEntity
  8
ZN-40C
100
AcDbLine
 10
16.10845800643435
 20
12.20023786426302
 30
0.0
 11
16.20245800643435
 21
12.20023786426302
 31
0.0
  0
LINE
  5
9C4
330
1E
100
AcDbEntity
  8
ZN-40C
  6
HIDDEN2
 62
     4
100
AcDbLine
 10
16.15745800643436
 20
12.29823786426302
 30
0.0
 11
16.07124226979363
 21
12.29823786561703
 31
0.0
  0
LINE
  5
9C5
330
1E
100
AcDbEntity
  8
ZN-40C
  6
HIDDEN2
 62
     4
100
AcDbLine
 10
16.07218532556604
 20
12.24420371347
 30
0.0
 11
16.03245789116742
 21
12.22823786426302
 31
0.0
  0
ARC
  5
9C6
330
1E
100
AcDbEntity
  8
ZN-40C
100
AcDbCircle
 10
13.38417896382271
 20
14.29361418314471
 30
0.0
 40
3.358446160892755
100
AcDbArc
 50
322.0495524282323
 51
324.7186759488052
  0
LINE
  5
9C7
330
1E
100
AcDbEntity
  8
ZN-40C
100
AcDbLine
 10
16.10772488834331
 20
12.22823786426304
 30
0.0
 11
16.10845800643435
 21
12.20023786426302
 31
0.0
  0
LINE
  5
9C8
330
1E
100
AcDbEntity
  8
ZN-40C
  6
HIDDEN2
 62
     4
100
AcDbLine
 10
16.39811959142658
 20
12.29823786426304
 30
0.0
 11
16.42595263952495
 21
12.29823786426303
 31
0.0
  0
LINE
  5
9C9
330
1E
100
AcDbEntity
  8
ZN-40C
  6
HIDDEN2
 62
     4
100
AcDbLine
 10
16.43080200946217
 20
12.29367364250999
 30
0.0
 11
16.26435134564777
 21
12.29367364250999
 31
0.0
  0
LINE
  5
9CA
330
1E
100
AcDbEntity
  8
ZN-40C
  6
HIDDEN2
 62
     4
100
AcDbLine
 10
16.42595263952495
 20
12.29823786426303
 30
0.0
 11
16.26352483877563
 21
12.29823786426302
 31
0.0
  0
LINE
  5
9CB
330
1E
100
AcDbEntity
  8
ZN-40C
  6
HIDDEN2
 62
     4
100
AcDbLine
 10
16.29719109961348
 20
12.22823786426304
 30
0.0
 11
16.29902411843828
 21
12.29823786561704
 31
0.0
  0
LINE
  5
9CC
330
1E
100
AcDbEntity
  8
ZN-40C
100
AcDbLine
 10
16.20245800643435
 20
12.20023786426302
 30
0.0
 11
16.29645800643436
 21
12.20023786426302
 31
0.0
  0
LINE
  5
9CD
330
1E
100
AcDbEntity
  8
ZN-40C
100
AcDbLine
 10
16.29645800643436
 20
12.20023786426302
 30
0.0
 11
16.29719109961348
 21
12.22823786426304
 31
0.0
  0
LINE
  5
9CE
330
1E
100
AcDbEntity
  8
ZN-40C
  6
HIDDEN2
 62
     4
100
AcDbLine
 10
16.60740306268507
 20
12.22823786426303
 30
0.0
 11
16.6131280362739
 21
12.29367364297677
 31
0.0
  0
ARC
  5
9CF
330
1E
100
AcDbEntity
  8
ZN-40C
  6
HIDDEN2
 62
     4
100
AcDbCircle
 10
16.61810900976437
 20
12.29323786426303
 30
0.0
 40
0.0050000000000008
100
AcDbArc
 50
90.00000000002037
 51
174.9999999997736
  0
ARC
  5
9D0
330
1E
100
AcDbEntity
  8
ZN-40C
  6
HIDDEN2
 62
     4
100
AcDbCircle
 10
16.19530071890897
 20
13.10323786426303
 30
0.0
 40
0.2900000000000009
100
AcDbArc
 50
225.0000000000007
 51
270.0000000000008
  0
ARC
  5
9D1
330
1E
100
AcDbEntity
  8
ZN-40C
  6
HIDDEN2
 62
     4
100
AcDbCircle
 10
16.19530071890897
 20
13.10323786426303
 30
0.0
 40
0.2000000000000011
100
AcDbArc
 50
239.0304897928504
 51
270.0000000000008
  0
LINE
  5
9D2
330
1E
100
AcDbEntity
  8
ZN-40C
  6
HIDDEN2
 62
     4
100
AcDbLine
 10
16.15745800643435
 20
12.81323786426302
 30
0.0
 11
16.21802912125008
 21
12.81323786426302
 31
0.0
  0
ARC
  5
9D3
330
1E
100
AcDbEntity
  8
ZN-40C
100
AcDbCircle
 10
16.16245800643436
 20
12.82823786426302
 30
0.0
 40
0.1250000000000007
100
AcDbArc
 50
36.86989764584346
 51
90.0
  0
ARC
  5
9D4
330
1E
100
AcDbEntity
  8
ZN-40C
  6
HIDDEN2
 62
     4
100
AcDbCircle
 10
15.92580984895723
 20
12.60823786426302
 30
0.0
 40
0.1399999999999988
100
AcDbArc
 50
1.000000000035252
 51
90.0
  0
ARC
  5
9D5
330
1E
100
AcDbEntity
  8
ZN-40C
100
AcDbCircle
 10
15.92191516854412
 20
12.63487949032712
 30
0.0
 40
0.19644998490028
100
AcDbArc
 50
22.55055421643057
 51
88.86401331338369
  0
ARC
  5
9D6
330
1E
100
AcDbEntity
  8
ZN-40C
100
AcDbCircle
 10
15.92580984895723
 20
12.60823786426302
 30
0.0
 40
0.0999999999999997
100
AcDbArc
 50
1.000000000085194
 51
90.0
  0
LINE
  5
9D7
330
1E
100
AcDbEntity
  8
ZN-40C
  6
HIDDEN2
 62
     4
100
AcDbLine
 10
15.99023975236488
 20
12.89817689771893
 30
0.0
 11
15.91091175851602
 21
12.97750489156779
 31
0.0
  0
LINE
  5
9D8
330
1E
100
AcDbEntity
  8
ZN-40C
  6
HIDDEN2
 62
     4
100
AcDbLine
 10
15.8965945006729
 20
12.81323787295967
 30
0.0
 11
16.15745800643435
 21
12.81323786426302
 31
0.0
  0
LINE
  5
9D9
330
1E
100
AcDbEntity
  8
ZN-40C
100
AcDbLine
 10
15.8965945006729
 20
12.90323787993857
 30
0.0
 11
16.44074873206601
 21
12.90323786426303
 31
0.0
  0
LINE
  5
9DA
330
1E
100
AcDbEntity
  8
ZN-40C
100
AcDbLine
 10
16.05387936267167
 20
12.96181650802572
 30
0.0
 11
15.97455136882281
 21
13.04114450187458
 31
0.0
  0
ARC
  5
9DB
330
1E
100
AcDbEntity
  8
ZN-40C
  6
HIDDEN2
 62
     4
100
AcDbCircle
 10
15.82464473121127
 20
12.89123786426303
 30
0.0
 40
0.1220000000000012
100
AcDbArc
 50
44.99999999999947
 51
90.0
  0
LINE
  5
9DC
330
1E
100
AcDbEntity
  8
ZN-40C
100
AcDbLine
 10
15.92580986984112
 20
12.83129086440997
 30
0.0
 11
15.8965945006729
 21
12.83129086440997
 31
0.0
  0
ARC
  5
9DD
330
1E
100
AcDbEntity
  8
ZN-40C
100
AcDbCircle
 10
16.16245800643436
 20
12.82823786426302
 30
0.0
 40
0.125
100
AcDbArc
 50
90.0
 51
143.1301023541557
  0
ARC
  5
9DE
330
1E
100
AcDbEntity
  8
ZN-40C
100
AcDbCircle
 10
16.19530071890897
 20
13.10323786426303
 30
0.0
 40
0.1999999999999999
100
AcDbArc
 50
225.0000000000007
 51
239.03048979285
  0
ARC
  5
9DF
330
1E
100
AcDbEntity
  8
ZN-40C
  6
HIDDEN2
 62
     4
100
AcDbCircle
 10
16.44074873206601
 20
12.70323786426303
 30
0.0
 40
0.1100000000000012
100
AcDbArc
 50
2.000000000031477
 51
90.0
  0
ARC
  5
9E0
330
1E
100
AcDbEntity
  8
ZN-40C
  6
HIDDEN2
 62
     4
100
AcDbCircle
 10
16.39945970183032
 20
12.70368554569292
 30
0.0
 40
0.1095549189848951
100
AcDbArc
 50
1.773873070786184
 51
89.60589093124486
  0
LINE
  5
9E1
330
1E
100
AcDbEntity
  8
ZN-40C
  6
HIDDEN2
 62
     4
100
AcDbLine
 10
16.40626248866611
 20
12.81323786426302
 30
0.0
 11
16.40021329496366
 21
12.81323786426302
 31
0.0
  0
LINE
  5
9E2
330
1E
100
AcDbEntity
  8
ZN-40C
  6
HIDDEN2
 62
     4
100
AcDbLine
 10
16.21802912125008
 20
12.81323786426302
 30
0.0
 11
16.22803230636138
 21
12.81323786426302
 31
0.0
  0
LINE
  5
9E3
330
1E
100
AcDbEntity
  8
ZN-40C
  6
HIDDEN2
 62
     4
100
AcDbLine
 10
16.22803230636138
 20
12.81323786426302
 30
0.0
 11
16.40021329496366
 21
12.81323786426302
 31
0.0
  0
LINE
  5
9E4
330
1E
100
AcDbEntity
  8
ZN-40C
  6
HIDDEN2
 62
     4
100
AcDbLine
 10
16.40626248866611
 20
12.81323786426302
 30
0.0
 11
16.44074873206601
 21
12.81323786426303
 31
0.0
  0
LINE
  5
9E5
330
1E
100
AcDbEntity
  8
ZN-40C
100
AcDbLine
 10
15.51531010054921
 20
13.10323786426302
 30
0.0
 11
15.82464473121127
 21
13.10323786426303
 31
0.0
  0
ARC
  5
9E6
330
1E
100
AcDbEntity
  8
ZN-40C
100
AcDbCircle
 10
16.15745800643435
 20
15.55667080164518
 30
0.0
 40
0.6899451410130782
100
AcDbArc
 50
270.0
 51
279.5510696975265
  0
ARC
  5
9E7
330
1E
100
AcDbEntity
  8
ZN-40C
100
AcDbCircle
 10
16.15745800643435
 20
15.55667080164518
 30
0.0
 40
0.6456151340828793
100
AcDbArc
 50
270.0000000000008
 51
279.1663355086866
  0
LINE
  5
9E8
330
1E
100
AcDbEntity
  8
ZN-40C
100
AcDbLine
 10
15.89659447294421
 20
14.96974924211476
 30
0.0
 11
15.89659447294421
 21
15.12338007601355
 31
0.0
  0
LINE
  5
9E9
330
1E
100
AcDbEntity
  8
ZN-40C
100
AcDbLine
 10
15.92580984895723
 20
14.8667256606321
 30
0.0
 11
16.02579461847287
 21
14.8667256606321
 31
0.0
  0
ARC
  5
9EA
330
1E
100
AcDbEntity
  8
ZN-40C
100
AcDbCircle
 10
15.83111159223555
 20
14.24233438142441
 30
0.0
 40
0.7335530924066035
100
AcDbArc
 50
68.21554385618985
 51
82.58268368174197
  0
LINE
  5
9EB
330
1E
100
AcDbEntity
  8
ZN-40C
100
AcDbLine
 10
15.92580984895723
 20
14.96974924211476
 30
0.0
 11
15.89659447294421
 21
14.96974924211476
 31
0.0
  0
LINE
  5
9EC
330
1E
100
AcDbEntity
  8
ZN-40C
100
AcDbLine
 10
16.15745800643435
 20
14.8667256606321
 30
0.0
 11
16.03245800643435
 21
14.8667256606321
 31
0.0
  0
ARC
  5
9ED
330
1E
100
AcDbEntity
  8
ZN-40C
100
AcDbCircle
 10
16.03238295764852
 20
14.98724745910154
 30
0.0
 40
0.1205218218358415
100
AcDbArc
 50
270.0356780116504
 51
320.788669380112
  0
LINE
  5
9EE
330
1E
100
AcDbEntity
  8
ZN-40C
100
AcDbLine
 10
16.02579461847287
 20
14.8667256606321
 30
0.0
 11
16.03245800643435
 21
14.8667256606321
 31
0.0
  0
ARC
  5
9EF
330
1E
100
AcDbEntity
  8
ZN-40C
100
AcDbCircle
 10
16.05999310612387
 20
14.93364649935037
 30
0.0
 40
0.0695440035250447
100
AcDbArc
 50
341.0439809171147
 51
348.7373332372875
  0
LINE
  5
9F0
330
1E
100
AcDbEntity
  8
ZN-40C
100
AcDbLine
 10
16.15745800643435
 20
14.9110556675623
 30
0.0
 11
16.12576561364346
 21
14.91105566756229
 31
0.0
  0
ARC
  5
9F1
330
1E
100
AcDbEntity
  8
ZN-40C
100
AcDbCircle
 10
16.23016540537885
 20
15.12460419882085
 30
0.0
 40
0.2518037084203022
100
AcDbArc
 50
279.549210257787
 51
346.8027927206887
  0
ARC
  5
9F2
330
1E
100
AcDbEntity
  8
ZN-40C
100
AcDbCircle
 10
16.22637219160943
 20
15.12865972571797
 30
0.0
 40
0.2120933340136094
100
AcDbArc
 50
280.3776154864912
 51
345.9704552981418
  0
LINE
  5
9F3
330
1E
100
AcDbEntity
  8
ZN-40C
100
AcDbLine
 10
16.26030524755077
 20
14.91930015096256
 30
0.0
 11
16.26457759599124
 21
14.92003583109171
 31
0.0
  0
LINE
  5
9F4
330
1E
100
AcDbEntity
  8
ZN-40C
100
AcDbLine
 10
16.43213896168391
 20
15.07724359336519
 30
0.0
 11
16.43284511354317
 21
15.08016195362745
 31
0.0
  0
ARC
  5
9F5
330
1E
100
AcDbEntity
  8
ZN-40C
100
AcDbCircle
 10
15.24841924586685
 20
15.6171708016452
 30
0.0
 40
0.157
100
AcDbArc
 50
270.0
 51
347.6912937208432
  0
ARC
  5
9F6
330
1E
100
AcDbEntity
  8
ZN-40C
100
AcDbCircle
 10
15.24841924586685
 20
15.6171708016452
 30
0.0
 40
0.1880000000000006
100
AcDbArc
 50
270.0000000000004
 51
347.6912937208435
  0
CIRCLE
  5
9F7
330
1E
100
AcDbEntity
  8
ZN-40C
100
AcDbCircle
 10
16.16245800643436
 20
15.7916708016452
 30
0.0
 40
0.0999999999999997
  0
CIRCLE
  5
9F8
330
1E
100
AcDbEntity
  8
ZN-40C
100
AcDbCircle
 10
16.16245800643437
 20
19.19167080164521
 30
0.0
 40
0.0999999999999997
  0
ARC
  5
9F9
330
1E
100
AcDbEntity
  8
ZN-40C
100
AcDbCircle
 10
15.24841924586686
 20
19.36617080164521
 30
0.0
 40
0.1570000000000011
100
AcDbArc
 50
12.30870627915642
 51
89.9999999999992
  0
ARC
  5
9FA
330
1E
100
AcDbEntity
  8
ZN-40C
100
AcDbCircle
 10
15.24841924586686
 20
19.36617080164521
 30
0.0
 40
0.1880000000000019
100
AcDbArc
 50
12.30870627915655
 51
90.0
  0
ARC
  5
9FB
330
1E
100
AcDbEntity
  8
ZN-40C
100
AcDbCircle
 10
16.23016540603122
 20
19.85873740516483
 30
0.0
 40
0.25180370762645
100
AcDbArc
 50
13.19720715917527
 51
80.45078986234772
  0
ARC
  5
9FC
330
1E
100
AcDbEntity
  8
ZN-40C
100
AcDbCircle
 10
16.22637221812361
 20
19.85468190583279
 30
0.0
 40
0.2120933014394199
100
AcDbArc
 50
14.02953903162341
 51
79.62239018377649
  0
ARC
  5
9FD
330
1E
100
AcDbEntity
  8
ZN-40C
100
AcDbCircle
 10
15.83111159223657
 20
20.74100722186214
 30
0.0
 40
0.7335530924026545
100
AcDbArc
 50
277.4173163182198
 51
291.7844561438495
  0
LINE
  5
9FE
330
1E
100
AcDbEntity
  8
ZN-40C
100
AcDbLine
 10
15.89659447294422
 20
19.85996152727686
 30
0.0
 11
15.89659447294423
 21
20.01359236117564
 31
0.0
  0
LINE
  5
9FF
330
1E
100
AcDbEntity
  8
ZN-40C
100
AcDbLine
 10
15.92580984895726
 20
20.01359236117564
 30
0.0
 11
15.89659447294423
 21
20.01359236117564
 31
0.0
  0
LINE
  5
A00
330
1E
100
AcDbEntity
  8
ZN-40C
100
AcDbLine
 10
16.43284511354316
 20
19.90317964966294
 30
0.0
 11
16.43213896168393
 21
19.90609800992522
 31
0.0
  0
ARC
  5
A01
330
1E
100
AcDbEntity
  8
ZN-40C
100
AcDbCircle
 10
16.15745800643438
 20
19.4266708016452
 30
0.0
 40
0.6899451410131161
100
AcDbArc
 50
80.44893030247427
 51
90.0
  0
ARC
  5
A02
330
1E
100
AcDbEntity
  8
ZN-40C
100
AcDbCircle
 10
16.15745800643438
 20
19.4266708016452
 30
0.0
 40
0.6456151340829237
100
AcDbArc
 50
80.83366449131377
 51
90.0
  0
LINE
  5
A03
330
1E
100
AcDbEntity
  8
ZN-40C
100
AcDbLine
 10
15.92580984895726
 20
20.11661594265831
 30
0.0
 11
16.02579461847289
 21
20.11661594265831
 31
0.0
  0
LINE
  5
A04
330
1E
100
AcDbEntity
  8
ZN-40C
100
AcDbLine
 10
16.15745800643438
 20
20.11661594265832
 30
0.0
 11
16.03245800643437
 21
20.11661594265832
 31
0.0
  0
ARC
  5
A05
330
1E
100
AcDbEntity
  8
ZN-40C
100
AcDbCircle
 10
16.0324568754695
 20
19.9962497294346
 30
0.0
 40
0.1203662132291728
100
AcDbArc
 50
39.17619096110252
 51
89.99946164698362
  0
LINE
  5
A06
330
1E
100
AcDbEntity
  8
ZN-40C
100
AcDbLine
 10
16.02579461847289
 20
20.11661594265831
 30
0.0
 11
16.03245800643437
 21
20.11661594265831
 31
0.0
  0
LINE
  5
A07
330
1E
100
AcDbEntity
  8
ZN-40C
100
AcDbLine
 10
16.15745800643438
 20
20.07228593572812
 30
0.0
 11
16.12576561364348
 21
20.07228593572812
 31
0.0
  0
ARC
  5
A08
330
1E
100
AcDbEntity
  8
ZN-40C
100
AcDbCircle
 10
16.05999310609132
 20
20.04969510392953
 30
0.0
 40
0.0695440035592677
100
AcDbArc
 50
11.26266676687856
 51
18.95601908235463
  0
LINE
  5
A09
330
1E
100
AcDbEntity
  8
ZN-40C
100
AcDbLine
 10
16.26457759599126
 20
20.0633057721987
 30
0.0
 11
16.2603052475508
 21
20.06404145232785
 31
0.0
  0
DIMENSION
  5
A0B
330
1E
100
AcDbEntity
  8
0
100
AcDbDimension
  2
*D14
 10
5.462421249285629
 20
15.98153924323036
 30
0.0
 11
6.370873244510732
 21
15.98153924323036
 31
0.0
 70
   160
 71
     5
 42
0.1200000000000045
  3
STANDARD
100
AcDbAlignedDimension
 13
5.342421249285624
 23
15.42693233289458
 33
0.0
 14
5.462421249285629
 24
15.46017080164528
 34
0.0
100
AcDbRotatedDimension
1001
ACAD
1000
DSTYLE
1002
{
1070
   141
1040
0.0
1002
}
  0
DIMENSION
  5
A0C
330
1E
100
AcDbEntity
  8
0
100
AcDbDimension
  2
*D15
 10
5.462421249285629
 20
14.53152291881786
 30
0.0
 11
6.349120388098726
 21
14.53152291881786
 31
0.0
 70
   160
  1
<>\P(4 PLCS.)
 71
     5
 42
0.9029999999999773
  3
STANDARD
100
AcDbAlignedDimension
 13
4.559421249285652
 23
16.14767080164525
 33
0.0
 14
5.462421249285629
 24
15.13036422991197
 34
0.0
100
AcDbRotatedDimension
1001
ACAD
1000
DSTYLE
1002
{
1070
   141
1040
0.0
1002
}
  0
DIMENSION
  5
A0D
330
1E
100
AcDbEntity
  8
0
100
AcDbDimension
  2
*D16
 10
5.462421249285629
 20
15.16269701264814
 30
0.0
 11
6.370873244510732
 21
15.16269701264814
 31
0.0
 70
   160
 71
     5
 42
0.0900000000000034
  3
STANDARD
100
AcDbAlignedDimension
 13
5.372421249285626
 23
15.13036422991197
 33
0.0
 14
5.462421249285629
 24
15.13036422991197
 34
0.0
100
AcDbRotatedDimension
1001
ACAD
1000
DSTYLE
1002
{
1070
   141
1040
0.0
1002
}
  0
ARC
  5
A0E
330
1E
100
AcDbEntity
  8
ZN-40C
100
AcDbCircle
 10
5.262421249285626
 20
15.13036422991197
 30
0.0
 40
0.110000000000003
100
AcDbArc
 50
272.0
 51
0.0
  0
ARC
  5
A0F
330
1E
100
AcDbEntity
  8
ZN-40C
100
AcDbCircle
 10
5.262421249285626
 20
15.13036422991197
 30
0.0
 40
0.1999999999999995
100
AcDbArc
 50
272.0000000000008
 51
0.0
  0
ARC
  5
A10
330
1E
100
AcDbEntity
  8
ZN-40C
100
AcDbCircle
 10
5.262421249285626
 20
19.85297737337859
 30
0.0
 40
0.1999999999999994
100
AcDbArc
 50
0.0000000000008015
 51
88.00000000000084
  0
ARC
  5
A12
330
1E
100
AcDbEntity
  8
ZN-40C
100
AcDbCircle
 10
5.062421249285623
 20
19.85996152727694
 30
0.0
 40
0.2000000000000028
100
AcDbArc
 50
0.0
 51
88.00000000000002
  0
ARC
  5
A13
330
1E
100
AcDbEntity
  8
ZN-40C
100
AcDbCircle
 10
5.187421249285623
 20
19.19167080164528
 30
0.0
 40
0.1249999999999993
100
AcDbArc
 50
306.8698976458446
 51
53.13010235415629
  0
LINE
  5
A14
330
1E
100
AcDbEntity
  8
ZN-40C
100
AcDbLine
 10
4.587421249285657
 20
14.86672565856888
 30
0.0
 11
4.587421249285657
 21
14.90672559468978
 31
0.0
  0
LINE
  5
A15
330
1E
100
AcDbEntity
  8
ZN-40C
100
AcDbLine
 10
5.172421249285651
 20
16.71963872569149
 30
0.0
 11
5.172421249285651
 21
15.1233800760136
 31
0.0
  0
LINE
  5
A17
330
1E
100
AcDbEntity
  8
ZN-40C
100
AcDbLine
 10
4.587421249285657
 20
14.99672567679757
 30
0.0
 11
5.266260193922903
 21
15.02043123893987
 31
0.0
  0
LINE
  5
A1A
330
1E
100
AcDbEntity
  8
ZN-40C
100
AcDbLine
 10
5.067421249285633
 20
14.86672566063217
 30
0.0
 11
4.587421249285657
 21
14.86672565856888
 31
0.0
  0
LINE
  5
A1C
330
1E
100
AcDbEntity
  8
ZN-40C
100
AcDbLine
 10
4.652857027532622
 20
14.95100081834837
 30
0.0
 11
4.587421249285657
 21
14.95672574067666
 31
0.0
  0
LINE
  5
A1D
330
1E
100
AcDbEntity
  8
ZN-40C
100
AcDbLine
 10
4.587421249285657
 20
14.90672559468978
 30
0.0
 11
4.652857027532622
 21
14.91245051701807
 31
0.0
  0
LINE
  5
A27
330
1E
100
AcDbEntity
  8
ZN-40C
100
AcDbLine
 10
4.657421250639661
 20
14.94601978255639
 30
0.0
 11
4.652857027532622
 21
14.95100081834837
 31
0.0
  0
LINE
  5
A28
330
1E
100
AcDbEntity
  8
ZN-40C
100
AcDbLine
 10
4.657421250639661
 20
14.91743155281006
 30
0.0
 11
4.657421250639661
 21
14.94601978255639
 31
0.0
  0
LINE
  5
A29
330
1E
100
AcDbEntity
  8
ZN-40C
100
AcDbLine
 10
4.652857027532622
 20
14.91245051701807
 30
0.0
 11
4.657421250639661
 21
14.91743155281006
 31
0.0
  0
LINE
  5
A2A
330
1E
100
AcDbEntity
  8
ZN-40C
100
AcDbLine
 10
5.107421249285653
 20
14.95532882985248
 30
0.0
 11
4.603387919518077
 21
14.95532882985248
 31
0.0
  0
LINE
  5
A2B
330
1E
100
AcDbEntity
  8
ZN-40C
100
AcDbLine
 10
5.107421249285653
 20
14.90812249141182
 30
0.0
 11
4.603387758330718
 21
14.90812249141182
 31
0.0
  0
ARC
  5
A2C
330
1E
100
AcDbEntity
  8
ZN-40C
100
AcDbCircle
 10
5.062421249285652
 20
15.1233800760136
 30
0.0
 40
0.1099999999999997
100
AcDbArc
 50
272.6052512650594
 51
0.0
  0
LINE
  5
A2E
330
1E
100
AcDbEntity
  8
ZN-40C
100
AcDbLine
 10
5.067421249285647
 20
14.95672566063215
 30
0.0
 11
5.107421249285653
 21
14.95532882985248
 31
0.0
  0
LINE
  5
A2F
330
1E
100
AcDbEntity
  8
ZN-40C
100
AcDbLine
 10
5.107421249285653
 20
14.90812249141182
 30
0.0
 11
5.067421249285647
 21
14.90672566063215
 31
0.0
  0
ARC
  5
A30
330
1E
100
AcDbEntity
  8
ZN-40C
100
AcDbCircle
 10
5.067421249285633
 20
14.99172566063217
 30
0.0
 40
0.1250000000000002
100
AcDbArc
 50
270.0000000000008
 51
328.9062689610007
  0
LINE
  5
A31
330
1E
100
AcDbEntity
  8
ZN-40C
100
AcDbLine
 10
5.067421249285647
 20
14.95672566063215
 30
0.0
 11
4.587421249285661
 21
14.95672566063215
 31
0.0
  0
LINE
  5
A32
330
1E
100
AcDbEntity
  8
ZN-40C
100
AcDbLine
 10
5.067421249285647
 20
14.90672566063215
 30
0.0
 11
4.587421249285661
 21
14.90672566063215
 31
0.0
  0
LINE
  5
A34
330
1E
100
AcDbEntity
  8
ZN-40C
100
AcDbLine
 10
5.067421249285654
 20
15.01349377113442
 30
0.0
 11
5.067421249285647
 21
14.95672566063215
 31
0.0
  0
LINE
  5
A35
330
1E
100
AcDbEntity
  8
ZN-40C
100
AcDbLine
 10
5.067421249285647
 20
14.90672566063215
 30
0.0
 11
5.067421249285633
 21
14.86672566063217
 31
0.0
  0
LINE
  5
A36
330
1E
100
AcDbEntity
  8
ZN-40C
100
AcDbLine
 10
5.107421249285653
 20
14.95532882985248
 30
0.0
 11
5.107421249285653
 21
14.90812249141182
 31
0.0
  0
LINE
  5
A37
330
1E
100
AcDbEntity
  8
ZN-40C
100
AcDbLine
 10
5.174461698717845
 20
14.92717070586222
 30
0.0
 11
5.269401148626133
 21
14.93048606450815
 31
0.0
  0
LINE
  5
A3A
330
1E
100
AcDbEntity
  8
ZN-40C
100
AcDbLine
 10
5.262421249285626
 20
19.85996152727694
 30
0.0
 11
5.262421249285626
 21
16.71317251614264
 31
0.0
  0
LINE
  5
A3B
330
1E
100
AcDbEntity
  8
ZN-40C
100
AcDbLine
 10
4.587421249285618
 20
16.33640400890903
 30
0.0
 11
4.587421249285629
 21
20.11661594265839
 31
0.0
  0
LINE
  5
A3C
330
1E
100
AcDbEntity
  8
ZN-40C
100
AcDbLine
 10
4.712987380298699
 20
16.70139809773947
 30
0.0
 11
4.712987380299242
 21
20.07228593572818
 31
0.0
  0
LINE
  5
A43
330
1E
100
AcDbEntity
  8
ZN-40C
100
AcDbLine
 10
4.559421249285652
 20
16.14767080164525
 30
0.0
 11
5.172421257982296
 21
16.13161879308211
 31
0.0
  0
LINE
  5
A44
330
1E
100
AcDbEntity
  8
ZN-40C
100
AcDbLine
 10
5.172421257982296
 20
16.35172280375513
 30
0.0
 11
4.559421249285652
 21
16.33567080164525
 31
0.0
  0
LINE
  5
A46
330
1E
100
AcDbEntity
  8
ZN-40C
100
AcDbLine
 10
4.559421249285652
 20
16.33567080164525
 30
0.0
 11
4.559421249285652
 21
16.14767080164525
 31
0.0
  0
LINE
  5
A4E
330
1E
100
AcDbEntity
  8
ZN-40C
100
AcDbLine
 10
4.969166489929353
 20
20.11661594265839
 30
0.0
 11
4.587421249285629
 21
20.11661594265839
 31
0.0
  0
LINE
  5
A4F
330
1E
100
AcDbEntity
  8
ZN-40C
100
AcDbLine
 10
5.069401148626123
 20
20.05983969268076
 30
0.0
 11
4.712987380299242
 21
20.07228593572818
 31
0.0
  0
ARC
  5
A50
330
1E
100
AcDbEntity
  8
ZN-40C
100
AcDbCircle
 10
4.587421249285629
 20
19.91661594265838
 30
0.0
 40
0.2000000000001996
100
AcDbArc
 50
51.10974706755851
 51
90.0
  0
ARC
  5
A56
330
1E
100
AcDbEntity
  8
ZN-40C
100
AcDbCircle
 10
5.067421249285626
 20
19.99161594265839
 30
0.0
 40
0.1249999999999991
100
AcDbArc
 50
10.1258770036495
 51
90.0
  0
LINE
  5
A57
330
1E
100
AcDbEntity
  8
ZN-40C
100
AcDbLine
 10
5.067421249285626
 20
20.11661594265839
 30
0.0
 11
4.969166489929353
 21
20.11661594265839
 31
0.0
  0
LINE
  5
A58
330
1E
100
AcDbEntity
  8
ZN-40C
100
AcDbLine
 10
5.186558441334991
 20
20.05574851453407
 30
0.0
 11
5.26588644493113
 21
20.05297830653575
 31
0.0
  0
LINE
  5
A59
330
1E
100
AcDbEntity
  8
ZN-40C
100
AcDbLine
 10
5.174461697744273
 20
20.05617090965453
 30
0.0
 11
5.186558441334991
 21
20.05574851453407
 31
0.0
  0
LINE
  5
A5B
330
1E
100
AcDbEntity
  8
ZN-40C
100
AcDbLine
 10
5.342421249285624
 20
15.42693233289458
 30
0.0
 11
5.34242120739702
 21
16.63799908087975
 31
0.0
  0
LINE
  5
A5C
330
1E
100
AcDbEntity
  8
ZN-40C
100
AcDbLine
 10
5.462421249285629
 20
16.22680247488282
 30
0.0
 11
5.46242124928565
 21
15.46017080164528
 31
0.0
  0
LINE
  5
A5D
330
1E
100
AcDbEntity
  8
ZN-40C
100
AcDbLine
 10
5.46242124928565
 20
15.42917080164526
 30
0.0
 11
5.462421249285629
 21
15.13036422991197
 31
0.0
  0
LINE
  5
A5E
330
1E
100
AcDbEntity
  8
ZN-40C
100
AcDbLine
 10
5.372421249285633
 20
15.34755979356264
 30
0.0
 11
5.372421249285633
 21
15.13036422991197
 31
0.0
  0
LINE
  5
A5F
330
1E
100
AcDbEntity
  8
ZN-40C
100
AcDbLine
 10
5.46242124928565
 20
15.42917080164526
 30
0.0
 11
5.46242124928565
 21
15.46017080164528
 31
0.0
  0
LINE
  5
A60
330
1E
100
AcDbEntity
  8
ZN-40C
100
AcDbLine
 10
5.452421263398324
 20
15.42917086782051
 30
0.0
 11
5.452421263398324
 21
15.46017085637267
 31
0.0
  0
ARC
  5
A61
330
1E
100
AcDbEntity
  8
ZN-40C
100
AcDbCircle
 10
5.432421249285628
 20
15.42693233289458
 30
0.0
 40
0.0900000000000034
100
AcDbArc
 50
180.0000000000004
 51
221.4096221092715
  0
ARC
  5
A62
330
1E
100
AcDbEntity
  8
ZN-40C
100
AcDbCircle
 10
5.342421249285624
 20
15.34755979356264
 30
0.0
 40
0.0300000000000047
100
AcDbArc
 50
0.0
 51
41.40962210927841
  0
LINE
  5
A63
330
1E
100
AcDbEntity
  8
ZN-40C
100
AcDbLine
 10
5.46242124928565
 20
15.42917080164526
 30
0.0
 11
5.452421263398324
 21
15.42917086782051
 31
0.0
  0
LINE
  5
A64
330
1E
100
AcDbEntity
  8
ZN-40C
100
AcDbLine
 10
5.46242124928565
 20
15.46017080164528
 30
0.0
 11
5.452421263398324
 21
15.46017085637267
 31
0.0
  0
LINE
  5
A65
330
1E
100
AcDbEntity
  8
ZN-40C
100
AcDbLine
 10
5.462421249285629
 20
19.85297737337859
 30
0.0
 11
5.462421249285629
 21
16.22680247488282
 31
0.0
  0
LINE
  5
A67
330
1E
100
AcDbEntity
  8
ZN-40C
100
AcDbLine
 10
16.64062689746984
 20
12.71021776360353
 30
0.0
 11
16.65307314051727
 21
12.35380399527631
 31
0.0
  0
ARC
  5
A68
330
1E
100
AcDbEntity
  8
ZN-40C
  6
HIDDEN2
 62
     4
100
AcDbCircle
 10
16.64669728513056
 20
12.29323786426303
 30
0.0
 40
0.0050000000000008
100
AcDbArc
 50
5.000000000226322
 51
90.00000000006107
  0
LINE
  5
A69
330
1E
100
AcDbEntity
  8
ZN-40C
  6
HIDDEN2
 62
     4
100
AcDbLine
 10
16.65167825862102
 20
12.29367364297677
 30
0.0
 11
16.65740320507916
 21
12.22823786426303
 31
0.0
  0
ARC
  5
A6A
330
1E
100
AcDbEntity
  8
ZN-40C
100
AcDbCircle
 10
16.49740314744746
 20
12.22823786426303
 30
0.0
 40
0.2000000000000009
100
AcDbArc
 50
0.0
 51
38.89025293236639
  0
LINE
  5
A6B
330
1E
100
AcDbEntity
  8
ZN-40C
100
AcDbLine
 10
16.69740314744747
 20
17.9966708016452
 30
0.0
 11
16.69740314744746
 21
16.9866708016452
 31
0.0
  0
LINE
  5
A6C
330
1E
100
AcDbEntity
  8
ZN-40C
100
AcDbLine
 10
16.65307314051702
 20
17.9966708016452
 30
0.0
 11
16.65307314051727
 21
16.98667080164521
 31
0.0
  0
LEADER
  5
A6D
330
1E
100
AcDbEntity
  8
0
100
AcDbLeader
  3
STANDARD$7
 73
     0
 74
     0
 75
     1
 40
0.1292633015006821
 41
1.543912005457025
 76
     3
 10
12.33113982979001
 20
16.07904215813229
 30
0.0
 10
12.97095490782429
 20
14.56831332091038
 30
0.0
 10
13.10845490782429
 20
14.56831332091038
 30
0.0
340
A6E
1001
ACAD
1000
DSTYLE
1002
{
1070
    41
1040
0.1
1070
   341
1005
66
1002
}
  0
MTEXT
  5
A6E
102
{ACAD_REACTORS
330
A6D
102
}
330
1E
100
AcDbEntity
  8
0
 62
     4
100
AcDbMText
 10
13.23220490782429
 20
14.56831332091038
 30
0.0
 40
0.125
 41
0.0
 71
     4
 72
     1
  1
TEXTURED FLUSH
  7
STANDARD
 73
     1
 44
1.0
  0
LINE
  5
A79
330
1E
100
AcDbEntity
  8
0
  6
CENTER2
 62
     1
 48
0.8
100
AcDbLine
 10
7.417512865421269
 20
17.49167080164524
 30
0.0
 11
16.79740314744746
 21
17.4916708016453
 31
0.0
  0
LINE
  5
A7A
330
1E
100
AcDbEntity
  8
0
  6
CENTER2
 62
     1
 48
0.8
100
AcDbLine
 10
12.10745800643435
 20
20.21661594265837
 30
0.0
 11
12.10745800643437
 21
14.76672566063216
 31
0.0
  0
LINE
  5
A9F
330
1E
100
AcDbEntity
  8
ZN-40C
100
AcDbLine
 10
15.52405872970126
 20
14.93036332782911
 30
0.0
 11
15.54773570122123
 21
14.9341031819859
 31
0.0
  0
LINE
  5
AA0
330
1E
100
AcDbEntity
  8
ZN-40C
100
AcDbLine
 10
15.54773570122123
 20
14.9341031819859
 30
0.0
 11
15.57072729525132
 21
14.94352065345616
 31
0.0
  0
LINE
  5
AA1
330
1E
100
AcDbEntity
  8
ZN-40C
100
AcDbLine
 10
15.57072729525132
 20
14.94352065345616
 30
0.0
 11
15.59236797392951
 21
14.95834313461557
 31
0.0
  0
LINE
  5
AA2
330
1E
100
AcDbEntity
  8
ZN-40C
100
AcDbLine
 10
15.59236797392951
 20
14.95834313461557
 30
0.0
 11
15.61203130435157
 21
14.97814155897975
 31
0.0
  0
LINE
  5
AA3
330
1E
100
AcDbEntity
  8
ZN-40C
100
AcDbLine
 10
15.61203130435157
 20
14.97814155897975
 30
0.0
 11
15.6291480919296
 21
15.00234282139533
 31
0.0
  0
LINE
  5
AA4
330
1E
100
AcDbEntity
  8
ZN-40C
100
AcDbLine
 10
15.6291480919296
 20
15.00234282139533
 30
0.0
 11
15.6432228568724
 21
15.03024636771955
 31
0.0
  0
LINE
  5
AA5
330
1E
100
AcDbEntity
  8
ZN-40C
100
AcDbLine
 10
15.6432228568724
 20
15.03024636771955
 30
0.0
 11
15.65384817684307
 21
15.06104447376679
 31
0.0
  0
LINE
  5
AA6
330
1E
100
AcDbEntity
  8
ZN-40C
100
AcDbLine
 10
15.65384817684307
 20
15.06104447376679
 30
0.0
 11
15.66071648061678
 21
15.09384562650728
 31
0.0
  0
LINE
  5
AA7
330
1E
100
AcDbEntity
  8
ZN-40C
100
AcDbLine
 10
15.89659447294421
 20
14.96974924211476
 30
0.0
 11
15.84482664891944
 21
14.96574333126702
 31
0.0
  0
LINE
  5
AA8
330
1E
100
AcDbEntity
  8
ZN-40C
100
AcDbLine
 10
15.84482664891944
 20
14.96574333126702
 30
0.0
 11
15.79305882489468
 21
14.95535414815608
 31
0.0
  0
LINE
  5
AA9
330
1E
100
AcDbEntity
  8
ZN-40C
100
AcDbLine
 10
15.79305882489468
 20
14.95535414815608
 30
0.0
 11
15.68952317684515
 21
14.93271846044087
 31
0.0
  0
LINE
  5
AAA
330
1E
100
AcDbEntity
  8
ZN-40C
100
AcDbLine
 10
15.68952317684515
 20
14.93271846044087
 30
0.0
 11
15.65420162937195
 21
14.9286060150771
 31
0.0
  0
LINE
  5
AAB
330
1E
100
AcDbEntity
  8
ZN-40C
100
AcDbLine
 10
15.65420162937195
 20
14.9286060150771
 30
0.0
 11
15.61835487120334
 21
14.92717070586215
 31
0.0
  0
LINE
  5
AB2
330
1E
100
AcDbEntity
  8
ZN-40C
  6
HIDDEN2
 62
     4
100
AcDbLine
 10
7.903141135061627
 20
12.81323787295967
 30
0.0
 11
7.908318408586655
 21
12.60549357617285
 31
0.0
  0
LINE
  5
AB3
330
1E
100
AcDbEntity
  8
ZN-40C
  6
HIDDEN2
 62
     4
100
AcDbLine
 10
7.908318408586655
 20
12.60549357617285
 30
0.0
 11
7.915986933332536
 21
12.30147634737249
 31
0.0
  0
LINE
  5
AB4
330
1E
100
AcDbEntity
  8
ZN-40C
  6
HIDDEN2
 62
     4
100
AcDbLine
 10
7.914077355392141
 20
12.81323787295967
 30
0.0
 11
7.917995070134363
 21
12.60549357617285
 31
0.0
  0
LINE
  5
AB5
330
1E
100
AcDbEntity
  8
ZN-40C
  6
HIDDEN2
 62
     4
100
AcDbLine
 10
7.917995070134363
 20
12.60549357617285
 30
0.0
 11
7.923876042196877
 21
12.29861794330968
 31
0.0
  0
LINE
  5
AB6
330
1E
100
AcDbEntity
  8
ZN-40C
100
AcDbLine
 10
8.08671816103082
 20
12.61177054366078
 30
0.0
 11
8.095655337787793
 21
12.67258645777681
 31
0.0
  0
LINE
  5
AB7
330
1E
100
AcDbEntity
  8
ZN-40C
100
AcDbLine
 10
8.095655337787793
 20
12.67258645777681
 30
0.0
 11
8.111571127260571
 21
12.71021775639018
 31
0.0
  0
LINE
  5
AB8
330
1E
100
AcDbEntity
  8
ZN-40C
100
AcDbLine
 10
8.690857283167442
 20
14.93036332782914
 30
0.0
 11
8.667180311647474
 21
14.93410318198592
 31
0.0
  0
LINE
  5
AB9
330
1E
100
AcDbEntity
  8
ZN-40C
100
AcDbLine
 10
8.667180311647474
 20
14.93410318198592
 30
0.0
 11
8.644188717617378
 21
14.94352065345618
 31
0.0
  0
LINE
  5
ABA
330
1E
100
AcDbEntity
  8
ZN-40C
100
AcDbLine
 10
8.644188717617378
 20
14.94352065345618
 30
0.0
 11
8.622548038939211
 21
14.95834313461559
 31
0.0
  0
LINE
  5
ABB
330
1E
100
AcDbEntity
  8
ZN-40C
100
AcDbLine
 10
8.622548038939211
 20
14.95834313461559
 30
0.0
 11
8.602884708517141
 21
14.97814155897978
 31
0.0
  0
LINE
  5
ABC
330
1E
100
AcDbEntity
  8
ZN-40C
100
AcDbLine
 10
8.602884708517141
 20
14.97814155897978
 30
0.0
 11
8.585767920939108
 21
15.00234282139536
 31
0.0
  0
LINE
  5
ABD
330
1E
100
AcDbEntity
  8
ZN-40C
100
AcDbLine
 10
8.585767920939108
 20
15.00234282139536
 30
0.0
 11
8.57169315599631
 21
15.03024636771957
 31
0.0
  0
LINE
  5
ABE
330
1E
100
AcDbEntity
  8
ZN-40C
100
AcDbLine
 10
8.57169315599631
 20
15.03024636771957
 30
0.0
 11
8.561067836025639
 21
15.06104447376682
 31
0.0
  0
LINE
  5
ABF
330
1E
100
AcDbEntity
  8
ZN-40C
100
AcDbLine
 10
8.561067836025639
 20
15.06104447376682
 30
0.0
 11
8.554199532251924
 21
15.0938456265073
 31
0.0
  0
LINE
  5
AC0
330
1E
100
AcDbEntity
  8
ZN-40C
100
AcDbLine
 10
8.3183215399245
 20
14.96974924211479
 30
0.0
 11
8.370089363949265
 21
14.96574333126704
 31
0.0
  0
LINE
  5
AC1
330
1E
100
AcDbEntity
  8
ZN-40C
100
AcDbLine
 10
8.370089363949265
 20
14.96574333126704
 30
0.0
 11
8.421857187974037
 21
14.95535414815611
 31
0.0
  0
LINE
  5
AC2
330
1E
100
AcDbEntity
  8
ZN-40C
100
AcDbLine
 10
8.421857187974037
 20
14.95535414815611
 30
0.0
 11
8.525392836023566
 21
14.9327184604409
 31
0.0
  0
LINE
  5
AC3
330
1E
100
AcDbEntity
  8
ZN-40C
100
AcDbLine
 10
8.525392836023566
 20
14.9327184604409
 30
0.0
 11
8.560714383496762
 21
14.92860601507713
 31
0.0
  0
LINE
  5
AC4
330
1E
100
AcDbEntity
  8
ZN-40C
100
AcDbLine
 10
8.560714383496762
 20
14.92860601507713
 30
0.0
 11
8.596561141665372
 21
14.92717070586218
 31
0.0
  0
LINE
  5
AC5
330
1E
100
AcDbEntity
  8
ZN-40C
100
AcDbLine
 10
8.318321539924522
 20
20.01359236117567
 30
0.0
 11
8.370089363949286
 21
20.01759827202342
 31
0.0
  0
LINE
  5
AC6
330
1E
100
AcDbEntity
  8
ZN-40C
100
AcDbLine
 10
8.370089363949286
 20
20.01759827202342
 30
0.0
 11
8.421857187974051
 21
20.02798745513435
 31
0.0
  0
LINE
  5
AC7
330
1E
100
AcDbEntity
  8
ZN-40C
100
AcDbLine
 10
8.421857187974051
 20
20.02798745513435
 30
0.0
 11
8.525392836023595
 21
20.05062314284956
 31
0.0
  0
LINE
  5
AC8
330
1E
100
AcDbEntity
  8
ZN-40C
100
AcDbLine
 10
8.525392836023595
 20
20.05062314284956
 30
0.0
 11
8.596561141665386
 21
20.05617089742828
 31
0.0
  0
LINE
  5
AC9
330
1E
100
AcDbEntity
  8
ZN-40C
100
AcDbLine
 10
8.086718172841802
 20
20.06327754479227
 30
0.0
 11
8.095655308841696
 21
20.06115380677174
 31
0.0
  0
LINE
  5
ACA
330
1E
100
AcDbEntity
  8
ZN-40C
100
AcDbLine
 10
8.095655308841696
 20
20.06115380677174
 30
0.0
 11
8.111571181364535
 21
20.05983969268071
 31
0.0
  0
LINE
  5
ACB
330
1E
100
AcDbEntity
  8
ZN-40C
100
AcDbLine
 10
8.554199532251939
 20
19.88949597678315
 30
0.0
 11
8.561067836025653
 21
19.92229712952364
 31
0.0
  0
LINE
  5
ACC
330
1E
100
AcDbEntity
  8
ZN-40C
100
AcDbLine
 10
8.561067836025653
 20
19.92229712952364
 30
0.0
 11
8.571693155996324
 21
19.95309523557088
 31
0.0
  0
LINE
  5
ACD
330
1E
100
AcDbEntity
  8
ZN-40C
100
AcDbLine
 10
8.571693155996324
 20
19.95309523557088
 30
0.0
 11
8.585767920939129
 21
19.98099878189509
 31
0.0
  0
LINE
  5
ACE
330
1E
100
AcDbEntity
  8
ZN-40C
100
AcDbLine
 10
8.585767920939129
 20
19.98099878189509
 30
0.0
 11
8.602884708517162
 21
20.00520004431067
 31
0.0
  0
LINE
  5
ACF
330
1E
100
AcDbEntity
  8
ZN-40C
100
AcDbLine
 10
8.602884708517162
 20
20.00520004431067
 30
0.0
 11
8.622548038939225
 21
20.02499846867486
 31
0.0
  0
LINE
  5
AD0
330
1E
100
AcDbEntity
  8
ZN-40C
100
AcDbLine
 10
8.622548038939225
 20
20.02499846867486
 30
0.0
 11
8.644188717617399
 21
20.03982094983427
 31
0.0
  0
LINE
  5
AD1
330
1E
100
AcDbEntity
  8
ZN-40C
100
AcDbLine
 10
8.644188717617399
 20
20.03982094983427
 30
0.0
 11
8.667180311647495
 21
20.04923842130453
 31
0.0
  0
LINE
  5
AD2
330
1E
100
AcDbEntity
  8
ZN-40C
100
AcDbLine
 10
8.667180311647495
 20
20.04923842130453
 30
0.0
 11
8.690857283167463
 21
20.05297827546132
 31
0.0
  0
LINE
  5
AD3
330
1E
100
AcDbEntity
  8
ZN-40C
100
AcDbLine
 10
16.12819785183789
 20
12.61177054366078
 30
0.0
 11
16.11926067508091
 21
12.67258645777681
 31
0.0
  0
LINE
  5
AD4
330
1E
100
AcDbEntity
  8
ZN-40C
100
AcDbLine
 10
16.11926067508091
 20
12.67258645777681
 30
0.0
 11
16.10334488560814
 21
12.71021775639018
 31
0.0
  0
LINE
  5
AD5
330
1E
100
AcDbEntity
  8
ZN-40C
  6
HIDDEN2
 62
     4
100
AcDbLine
 10
16.29103263742322
 20
12.29823786561704
 30
0.0
 11
16.29103997067184
 21
12.29861794330968
 31
0.0
  0
LINE
  5
AD6
330
1E
100
AcDbEntity
  8
ZN-40C
  6
HIDDEN2
 62
     4
100
AcDbLine
 10
16.29103997067184
 20
12.29861794330968
 30
0.0
 11
16.29465995552013
 21
12.48676637438628
 31
0.0
  0
LINE
  5
AD7
330
1E
100
AcDbEntity
  8
ZN-40C
  6
HIDDEN2
 62
     4
100
AcDbLine
 10
16.29465995552013
 20
12.48676637438628
 30
0.0
 11
16.30083865747657
 21
12.81323787295967
 31
0.0
  0
LINE
  5
AD8
330
1E
100
AcDbEntity
  8
ZN-40C
  6
HIDDEN2
 62
     4
100
AcDbLine
 10
16.29884665382171
 20
12.29823786561704
 30
0.0
 11
16.29892907953618
 21
12.30147634737249
 31
0.0
  0
LINE
  5
AD9
330
1E
100
AcDbEntity
  8
ZN-40C
  6
HIDDEN2
 62
     4
100
AcDbLine
 10
16.29892907953618
 20
12.30147634737249
 30
0.0
 11
16.30369246450915
 21
12.48977062301428
 31
0.0
  0
LINE
  5
ADA
330
1E
100
AcDbEntity
  8
ZN-40C
  6
HIDDEN2
 62
     4
100
AcDbLine
 10
16.30369246450915
 20
12.48977062301428
 30
0.0
 11
16.31177487780709
 21
12.81323787295967
 31
0.0
  0
LINE
  5
ADB
330
1E
100
AcDbEntity
  8
ZN-40C
100
AcDbLine
 10
16.12819784002692
 20
14.92006405849817
 30
0.0
 11
16.11926070402703
 21
14.9221877965187
 31
0.0
  0
LINE
  5
ADC
330
1E
100
AcDbEntity
  8
ZN-40C
100
AcDbLine
 10
16.11926070402703
 20
14.9221877965187
 30
0.0
 11
16.10334483150449
 21
14.92350191060972
 31
0.0
  0
LINE
  5
ADD
330
1E
100
AcDbEntity
  8
ZN-40C
100
AcDbLine
 10
15.6607164806168
 20
19.88949597678313
 30
0.0
 11
15.65384817684309
 21
19.92229712952361
 31
0.0
  0
LINE
  5
ADE
330
1E
100
AcDbEntity
  8
ZN-40C
100
AcDbLine
 10
15.65384817684309
 20
19.92229712952361
 30
0.0
 11
15.64322285687242
 21
19.95309523557085
 31
0.0
  0
LINE
  5
ADF
330
1E
100
AcDbEntity
  8
ZN-40C
100
AcDbLine
 10
15.64322285687242
 20
19.95309523557085
 30
0.0
 11
15.62914809192961
 21
19.98099878189507
 31
0.0
  0
LINE
  5
AE0
330
1E
100
AcDbEntity
  8
ZN-40C
100
AcDbLine
 10
15.62914809192961
 20
19.98099878189507
 30
0.0
 11
15.61203130435158
 21
20.00520004431065
 31
0.0
  0
LINE
  5
AE1
330
1E
100
AcDbEntity
  8
ZN-40C
100
AcDbLine
 10
15.61203130435158
 20
20.00520004431065
 30
0.0
 11
15.59236797392952
 21
20.02499846867483
 31
0.0
  0
LINE
  5
AE2
330
1E
100
AcDbEntity
  8
ZN-40C
100
AcDbLine
 10
15.59236797392952
 20
20.02499846867483
 30
0.0
 11
15.57072729525135
 21
20.03982094983425
 31
0.0
  0
LINE
  5
AE3
330
1E
100
AcDbEntity
  8
ZN-40C
100
AcDbLine
 10
15.57072729525135
 20
20.03982094983425
 30
0.0
 11
15.54773570122126
 21
20.04923842130451
 31
0.0
  0
LINE
  5
AE4
330
1E
100
AcDbEntity
  8
ZN-40C
100
AcDbLine
 10
15.54773570122126
 20
20.04923842130451
 30
0.0
 11
15.52405872970128
 21
20.05297827546129
 31
0.0
  0
LINE
  5
AE5
330
1E
100
AcDbEntity
  8
ZN-40C
100
AcDbLine
 10
15.89659447294423
 20
20.01359236117564
 30
0.0
 11
15.84482664891947
 21
20.01759827202339
 31
0.0
  0
LINE
  5
AE6
330
1E
100
AcDbEntity
  8
ZN-40C
100
AcDbLine
 10
15.84482664891947
 20
20.01759827202339
 30
0.0
 11
15.7930588248947
 21
20.02798745513432
 31
0.0
  0
LINE
  5
AE7
330
1E
100
AcDbEntity
  8
ZN-40C
100
AcDbLine
 10
15.7930588248947
 20
20.02798745513432
 30
0.0
 11
15.68952317684518
 21
20.05062314284953
 31
0.0
  0
LINE
  5
AE8
330
1E
100
AcDbEntity
  8
ZN-40C
100
AcDbLine
 10
15.68952317684518
 20
20.05062314284953
 30
0.0
 11
15.61835487120336
 21
20.05617089742825
 31
0.0
  0
LINE
  5
AE9
330
1E
100
AcDbEntity
  8
ZN-40C
100
AcDbLine
 10
16.12819784002693
 20
20.06327754479224
 30
0.0
 11
16.11926070402705
 21
20.0611538067717
 31
0.0
  0
LINE
  5
AEA
330
1E
100
AcDbEntity
  8
ZN-40C
100
AcDbLine
 10
16.11926070402705
 20
20.0611538067717
 30
0.0
 11
16.10334483150451
 21
20.05983969268071
 31
0.0
  0
LINE
  5
B09
330
1E
100
AcDbEntity
  8
ZN-40C
100
AcDbLine
 10
5.26588644493113
 20
20.05297830653575
 30
0.0
 11
5.268236311118602
 21
20.05289617415122
 31
0.0
  0
LINE
  5
B0A
330
1E
100
AcDbEntity
  8
ZN-40C
100
AcDbLine
 10
5.268236311118602
 20
20.05289617415122
 30
0.0
 11
5.269332485122173
 21
20.0528580412584
 31
0.0
  0
LINE
  5
B0B
330
1E
100
AcDbEntity
  8
ZN-40C
100
AcDbLine
 10
5.269332485122173
 20
20.0528580412584
 30
0.0
 11
5.269401124329252
 21
20.0528554012889
 31
0.0
  0
LINE
  5
B0C
330
1E
100
AcDbEntity
  8
ZN-40EP
100
AcDbLine
 10
27.51886005275819
 20
14.01711466127833
 30
0.0
 11
19.88215636771241
 21
14.01711466127833
 31
0.0
  0
LINE
  5
B0D
330
1E
100
AcDbEntity
  8
ZN-40EP
100
AcDbLine
 10
27.51886005275819
 20
14.060511492058
 30
0.0
 11
19.88215636771241
 21
14.060511492058
 31
0.0
  0
LINE
  5
B0E
330
1E
100
AcDbEntity
  8
ZN-40EP
100
AcDbLine
 10
27.51886005275819
 20
14.105511492058
 30
0.0
 11
19.8821563677124
 21
14.105511492058
 31
0.0
  0
DIMENSION
  5
B0F
330
1E
100
AcDbEntity
  8
0
100
AcDbDimension
  2
*D19
 10
27.66290307142847
 20
11.38979658183917
 30
0.0
 11
23.7005082102353
 21
11.38979658183917
 31
0.0
 70
    32
 71
     5
 42
7.924789722386357
  3
STANDARD
100
AcDbAlignedDimension
 13
19.73811334904212
 23
12.22950710671812
 33
0.0
 14
27.66290307142847
 24
12.22950710671835
 34
0.0
100
AcDbRotatedDimension
1001
ACAD
1000
DSTYLE
1002
{
1070
   141
1040
0.0
1002
}
  0
LINE
  5
B10
330
1E
100
AcDbEntity
  8
ZN-40EP
100
AcDbLine
 10
19.88100433342715
 20
11.81250710671835
 30
0.0
 11
27.52001208704344
 21
11.81250710671835
 31
0.0
  0
LINE
  5
B11
330
1E
100
AcDbEntity
  8
ZN-40EP
100
AcDbLine
 10
27.51886005275819
 20
12.71250710671835
 30
0.0
 11
19.88215636771241
 21
12.71250710671835
 31
0.0
  0
LINE
  5
B12
330
1E
100
AcDbEntity
  8
ZN-40EP
100
AcDbLine
 10
19.88100433342715
 20
11.88250710671835
 30
0.0
 11
27.52001208704344
 21
11.88250710671835
 31
0.0
  0
LINE
  5
B13
330
1E
100
AcDbEntity
  8
ZN-40EP
100
AcDbLine
 10
27.51886005275819
 20
12.64250710671835
 30
0.0
 11
19.88215636771241
 21
12.64250710671835
 31
0.0
  0
LINE
  5
B14
330
1E
100
AcDbEntity
  8
ZN-40EP
100
AcDbLine
 10
27.51886005275819
 20
12.63871037599218
 30
0.0
 11
19.88215636771241
 21
12.63871037599218
 31
0.0
  0
LINE
  5
B15
330
1E
100
AcDbEntity
  8
ZN-40EP
100
AcDbLine
 10
19.88100433342715
 20
11.88630383744453
 30
0.0
 11
27.52001208704344
 21
11.88630383744453
 31
0.0
  0
DIMENSION
  5
B16
330
1E
100
AcDbEntity
  8
0
100
AcDbDimension
  2
*D20
 10
19.28555519740202
 20
11.88250710671835
 30
0.0
 11
19.28555519740202
 21
12.26250710671835
 31
0.0
 70
   160
 71
     5
 42
0.759999999999998
  3
STANDARD
100
AcDbAlignedDimension
 13
19.88215636771241
 23
12.64250710671835
 33
0.0
 14
19.88100433342715
 24
11.88250710671835
 34
0.0
 50
90.0
100
AcDbRotatedDimension
1001
ACAD
1000
DSTYLE
1002
{
1070
   141
1040
0.0
1002
}
  0
DIMENSION
  5
B17
330
1E
100
AcDbEntity
  8
0
100
AcDbDimension
  2
*D21
 10
18.48837477425524
 20
12.71250710671835
 30
0.0
 11
18.48837477425523
 21
12.28015210509189
 31
0.0
 70
   160
 71
     5
 42
0.8999999999999985
  3
STANDARD
100
AcDbAlignedDimension
 13
19.88100433342715
 23
11.81250710671835
 33
0.0
 14
19.88215636771241
 24
12.71250710671835
 34
0.0
 50
90.0
100
AcDbRotatedDimension
1001
ACAD
1000
DSTYLE
1002
{
1070
   141
1040
0.0
1002
}
  0
LINE
  5
B18
330
1E
100
AcDbEntity
  8
ZN-40EP
100
AcDbLine
 10
19.73811334904212
 20
12.22950710671812
 30
0.0
 11
19.74302535149557
 21
11.94809867463001
 31
0.0
  0
LINE
  5
B19
330
1E
100
AcDbEntity
  8
ZN-40EP
100
AcDbLine
 10
19.80812401200519
 20
12.22950710671812
 30
0.0
 11
19.81301469015651
 21
11.94932034308062
 31
0.0
  0
LINE
  5
B1A
330
1E
100
AcDbEntity
  8
ZN-40EP
100
AcDbLine
 10
19.81192132107993
 20
12.22950710671812
 30
0.0
 11
19.81681084262221
 21
11.94938660516839
 31
0.0
  0
ARC
  5
B1B
330
1E
100
AcDbEntity
  8
ZN-40EP
100
AcDbCircle
 10
19.88100433342715
 20
11.95050710671836
 30
0.0
 40
0.1380000000000008
100
AcDbArc
 50
181.0000000000199
 51
270.0000000000008
  0
ARC
  5
B1C
330
1E
100
AcDbEntity
  8
ZN-40EP
100
AcDbCircle
 10
19.88100433342715
 20
11.95050710671836
 30
0.0
 40
0.0680000000000005
100
AcDbArc
 50
181.0000000000137
 51
270.0000000000008
  0
ARC
  5
B1D
330
1E
100
AcDbEntity
  8
ZN-40EP
100
AcDbCircle
 10
19.88100433342715
 20
11.95050710671836
 30
0.0
 40
0.0642032692738264
100
AcDbArc
 50
181.0000000000133
 51
270.0000000000008
  0
ARC
  5
B20
330
1E
100
AcDbEntity
  8
ZN-40EP
100
AcDbCircle
 10
19.88215636771241
 20
12.57450710671835
 30
0.0
 40
0.138
100
AcDbArc
 50
90.0
 51
179.0
  0
ARC
  5
B21
330
1E
100
AcDbEntity
  8
ZN-40EP
100
AcDbCircle
 10
19.88215636771241
 20
12.57450710671835
 30
0.0
 40
0.0680000000000002
100
AcDbArc
 50
90.0
 51
179.0
  0
ARC
  5
B22
330
1E
100
AcDbEntity
  8
ZN-40EP
100
AcDbCircle
 10
19.88215636771241
 20
12.57450710671835
 30
0.0
 40
0.0642032692738261
100
AcDbArc
 50
90.0
 51
178.9999999999986
  0
LINE
  5
B23
330
1E
100
AcDbEntity
  8
ZN-40EP
100
AcDbLine
 10
19.74417738578083
 20
12.5769155388067
 30
0.0
 11
19.73811334904212
 21
12.22950710671812
 31
0.0
  0
LINE
  5
B24
330
1E
100
AcDbEntity
  8
ZN-40EP
100
AcDbLine
 10
19.81416672444177
 20
12.57569387035609
 30
0.0
 11
19.80812401200519
 21
12.22950710671812
 31
0.0
  0
LINE
  5
B25
330
1E
100
AcDbEntity
  8
ZN-40EP
100
AcDbLine
 10
19.81796287690747
 20
12.57562760826832
 30
0.0
 11
19.81192132107993
 21
12.22950710671812
 31
0.0
  0
DIMENSION
  5
B29
330
1E
100
AcDbEntity
  8
0
100
AcDbDimension
  2
*D22
 10
19.46844902866999
 20
14.105511492058
 30
0.0
 11
20.13033895022525
 21
14.600511492058
 31
0.0
 70
    32
 71
     5
 42
0.0449999999999946
  3
STANDARD
100
AcDbAlignedDimension
 13
19.74417738578083
 23
14.060511492058
 33
0.0
 14
19.74535557278052
 24
14.105511492058
 34
0.0
 50
90.0
100
AcDbRotatedDimension
1001
ACAD
1000
DSTYLE
1002
{
1070
   141
1040
0.0
1002
}
  0
LINE
  5
B2A
330
1E
100
AcDbEntity
  8
ZN-40EP
100
AcDbLine
 10
19.88215636771241
 20
14.01711466127833
 30
0.0
 11
19.81796287690747
 21
14.01711466127833
 31
0.0
  0
LINE
  5
B2B
330
1E
100
AcDbEntity
  8
ZN-40EP
100
AcDbLine
 10
19.88215636771241
 20
14.060511492058
 30
0.0
 11
19.74417738578083
 21
14.060511492058
 31
0.0
  0
LINE
  5
B2C
330
1E
100
AcDbEntity
  8
ZN-40EP
100
AcDbLine
 10
19.8821563677124
 20
14.105511492058
 30
0.0
 11
19.74535557278052
 21
14.105511492058
 31
0.0
  0
LINE
  5
B2D
330
1E
100
AcDbEntity
  8
ZN-40EP
100
AcDbLine
 10
19.81796287690747
 20
14.01711466127833
 30
0.0
 11
19.81192127117859
 21
14.01711466046523
 31
0.0
  0
LINE
  5
B2E
330
1E
100
AcDbEntity
  8
ZN-40EP
100
AcDbLine
 10
19.81192127117859
 20
14.01711466046523
 30
0.0
 11
19.80812411504367
 21
14.060511492058
 31
0.0
  0
LINE
  5
B2F
330
1E
100
AcDbEntity
  8
ZN-40EP
100
AcDbLine
 10
19.74417738578083
 20
14.060511492058
 30
0.0
 11
19.73811329714794
 21
14.060511492058
 31
0.0
  0
LINE
  5
B30
330
1E
100
AcDbEntity
  8
ZN-40EP
100
AcDbLine
 10
19.74535557278052
 20
14.105511492058
 30
0.0
 11
19.73929189686599
 21
14.10551149096417
 31
0.0
  0
LINE
  5
B31
330
1E
100
AcDbEntity
  8
ZN-40EP
100
AcDbLine
 10
19.73929189686599
 20
14.10551149096417
 30
0.0
 11
19.73811329714794
 21
14.060511492058
 31
0.0
  0
LINE
  5
B32
330
1E
100
AcDbEntity
  8
ZN-40EP
100
AcDbLine
 10
19.81796287690747
 20
14.01711466127833
 30
0.0
 11
19.81416671190573
 21
14.060511492058
 31
0.0
  0
LINE
  5
B33
330
1E
100
AcDbEntity
  8
ZN-40EP
100
AcDbLine
 10
19.74535557278052
 20
14.105511492058
 30
0.0
 11
19.74417738578083
 21
14.060511492058
 31
0.0
  0
LINE
  5
B34
330
1E
100
AcDbEntity
  8
ZN-40EP
100
AcDbLine
 10
19.88215636771241
 20
14.01711466127833
 30
0.0
 11
19.88215636771241
 21
14.060511492058
 31
0.0
  0
LINE
  5
B35
330
1E
100
AcDbEntity
  8
ZN-40EP
100
AcDbLine
 10
19.8821563677124
 20
14.105511492058
 30
0.0
 11
19.88215636771241
 21
14.060511492058
 31
0.0
  0
LINE
  5
B36
330
1E
100
AcDbEntity
  8
ZN-40EP
100
AcDbLine
 10
27.65799106897502
 20
11.94809867463001
 30
0.0
 11
27.66290307142847
 21
12.22950710671835
 31
0.0
  0
LINE
  5
B37
330
1E
100
AcDbEntity
  8
ZN-40EP
100
AcDbLine
 10
27.58800173031408
 20
11.94932034308062
 30
0.0
 11
27.5928924084654
 21
12.22950710671835
 31
0.0
  0
LINE
  5
B38
330
1E
100
AcDbEntity
  8
ZN-40EP
100
AcDbLine
 10
27.58420557784839
 20
11.94938660516839
 30
0.0
 11
27.58909509939066
 21
12.22950710671835
 31
0.0
  0
DIMENSION
  5
B39
330
1E
100
AcDbEntity
  8
0
100
AcDbDimension
  2
*D23
 10
27.52001208704341
 20
11.95050710671835
 30
0.0
 11
28.71640044488152
 21
11.39843683255058
 31
0.0
 70
    36
  1
<>\P(4 PLCS.)
 71
     5
 42
0.1380000000000017
  3
STANDARD$4
100
AcDbRadialDimension
 15
27.5875272722337
 25
11.83015055405618
 35
0.0
 40
0.0
  0
ARC
  5
B3A
330
1E
100
AcDbEntity
  8
ZN-40EP
100
AcDbCircle
 10
27.52001208704344
 20
11.95050710671836
 30
0.0
 40
0.1380000000000003
100
AcDbArc
 50
270.0000000000008
 51
358.999999999987
  0
ARC
  5
B3B
330
1E
100
AcDbEntity
  8
ZN-40EP
100
AcDbCircle
 10
27.52001208704344
 20
11.95050710671836
 30
0.0
 40
0.0680000000000001
100
AcDbArc
 50
270.0000000000008
 51
358.9999999999662
  0
ARC
  5
B3C
330
1E
100
AcDbEntity
  8
ZN-40EP
100
AcDbCircle
 10
27.52001208704344
 20
11.95050710671836
 30
0.0
 40
0.064203269273827
100
AcDbArc
 50
270.0000000000008
 51
359.0
  0
DIMENSION
  5
B3F
330
1E
100
AcDbEntity
  8
0
100
AcDbDimension
  2
*D24
 10
27.51886005275816
 20
12.57450710671834
 30
0.0
 11
28.64690523028286
 21
13.0831534372843
 31
0.0
 70
    36
  1
<>\P(4 PLCS.)
 71
     5
 42
0.0679999999999979
  3
STANDARD$4
100
AcDbRadialDimension
 15
27.54801019597732
 25
12.63594218749718
 35
0.0
 40
0.0
  0
ARC
  5
B40
330
1E
100
AcDbEntity
  8
ZN-40EP
100
AcDbCircle
 10
27.51886005275819
 20
12.57450710671835
 30
0.0
 40
0.1379999999999995
100
AcDbArc
 50
1.000000000034959
 51
90.0
  0
ARC
  5
B41
330
1E
100
AcDbEntity
  8
ZN-40EP
100
AcDbCircle
 10
27.51886005275819
 20
12.57450710671835
 30
0.0
 40
0.0680000000000001
100
AcDbArc
 50
1.000000000034552
 51
90.0
  0
ARC
  5
B42
330
1E
100
AcDbEntity
  8
ZN-40EP
100
AcDbCircle
 10
27.51886005275819
 20
12.57450710671835
 30
0.0
 40
0.064203269273827
100
AcDbArc
 50
0.9999999999991286
 51
90.0
  0
LINE
  5
B43
330
1E
100
AcDbEntity
  8
ZN-40EP
100
AcDbLine
 10
27.66290307142847
 20
12.22950710671835
 30
0.0
 11
27.65683903468977
 21
12.5769155388067
 31
0.0
  0
LINE
  5
B44
330
1E
100
AcDbEntity
  8
ZN-40EP
100
AcDbLine
 10
27.5928924084654
 20
12.22950710671835
 30
0.0
 11
27.58684969602882
 21
12.57569387035609
 31
0.0
  0
LINE
  5
B45
330
1E
100
AcDbEntity
  8
ZN-40EP
100
AcDbLine
 10
27.58909509939066
 20
12.22950710671835
 30
0.0
 11
27.58305354356313
 21
12.57562760826832
 31
0.0
  0
DIMENSION
  5
B49
330
1E
100
AcDbEntity
  8
0
100
AcDbDimension
  2
*D25
 10
28.19544920350935
 20
14.10551149205799
 30
0.0
 11
27.53402824511917
 21
13.52211466046524
 31
0.0
 70
   160
 71
     5
 42
0.0883968315927604
  3
STANDARD
100
AcDbAlignedDimension
 13
27.58909513526913
 23
14.01711466046523
 33
0.0
 14
27.65566084769007
 24
14.105511492058
 34
0.0
 50
90.0
100
AcDbRotatedDimension
1001
ACAD
1000
DSTYLE
1002
{
1070
   141
1040
0.0
1002
}
  0
LINE
  5
B4A
330
1E
100
AcDbEntity
  8
ZN-40EP
100
AcDbLine
 10
27.58305354356313
 20
14.01711466127833
 30
0.0
 11
27.51886005275819
 21
14.01711466127833
 31
0.0
  0
LINE
  5
B4B
330
1E
100
AcDbEntity
  8
ZN-40EP
100
AcDbLine
 10
27.65683903468977
 20
14.060511492058
 30
0.0
 11
27.51886005275819
 21
14.060511492058
 31
0.0
  0
LINE
  5
B4C
330
1E
100
AcDbEntity
  8
ZN-40EP
100
AcDbLine
 10
27.65566084769007
 20
14.105511492058
 30
0.0
 11
27.51886005275819
 21
14.105511492058
 31
0.0
  0
LINE
  5
B4D
330
1E
100
AcDbEntity
  8
ZN-40EP
100
AcDbLine
 10
27.51886005275819
 20
14.01711466127833
 30
0.0
 11
27.51886005275819
 21
14.060511492058
 31
0.0
  0
LINE
  5
B4E
330
1E
100
AcDbEntity
  8
ZN-40EP
100
AcDbLine
 10
27.51886005275819
 20
14.105511492058
 30
0.0
 11
27.51886005275819
 21
14.060511492058
 31
0.0
  0
LINE
  5
B4F
330
1E
100
AcDbEntity
  8
ZN-40EP
100
AcDbLine
 10
27.58909513526913
 20
14.01711466046523
 30
0.0
 11
27.58305354356313
 21
14.01711466127833
 31
0.0
  0
LINE
  5
B50
330
1E
100
AcDbEntity
  8
ZN-40EP
100
AcDbLine
 10
27.58909513526913
 20
14.01711466046523
 30
0.0
 11
27.59289229140406
 21
14.060511492058
 31
0.0
  0
LINE
  5
B51
330
1E
100
AcDbEntity
  8
ZN-40EP
100
AcDbLine
 10
27.66290310929978
 20
14.060511492058
 30
0.0
 11
27.65683903468977
 21
14.060511492058
 31
0.0
  0
LINE
  5
B52
330
1E
100
AcDbEntity
  8
ZN-40EP
100
AcDbLine
 10
27.66172450958173
 20
14.10551149096417
 30
0.0
 11
27.65566084769007
 21
14.105511492058
 31
0.0
  0
LINE
  5
B53
330
1E
100
AcDbEntity
  8
ZN-40EP
100
AcDbLine
 10
27.66172450958173
 20
14.10551149096417
 30
0.0
 11
27.66290310929978
 21
14.060511492058
 31
0.0
  0
LINE
  5
B54
330
1E
100
AcDbEntity
  8
ZN-40EP
100
AcDbLine
 10
27.58305354356313
 20
14.01711466127833
 30
0.0
 11
27.58684969454198
 21
14.060511492058
 31
0.0
  0
LINE
  5
B55
330
1E
100
AcDbEntity
  8
ZN-40EP
100
AcDbLine
 10
27.65566084769007
 20
14.105511492058
 30
0.0
 11
27.65683903468977
 21
14.060511492058
 31
0.0
  0
DIMENSION
  5
B78
330
1E
100
AcDbEntity
  8
0
100
AcDbDimension
  2
*D26
 10
6.996183392052576
 20
8.21793871084821
 30
0.0
 11
6.996183392052575
 21
7.386341564413353
 31
0.0
 70
   160
 71
     5
 42
1.659999999999986
  3
STANDARD
100
AcDbAlignedDimension
 13
7.417512865421333
 23
6.557938710848223
 33
0.0
 14
9.297458006434428
 24
8.21793871084821
 34
0.0
 50
90.00000000000019
100
AcDbRotatedDimension
1001
ACAD
1000
DSTYLE
1002
{
1070
   141
1040
0.0
1002
}
  0
DIMENSION
  5
B79
330
1E
100
AcDbEntity
  8
0
100
AcDbDimension
  2
*D27
 10
6.996183392052576
 20
4.917938710848207
 30
0.0
 11
6.996183392052575
 21
5.809088116856249
 31
0.0
 70
   160
 71
     5
 42
1.640000000000016
  3
STANDARD
100
AcDbAlignedDimension
 13
7.417512865421333
 23
6.557938710848223
 33
0.0
 14
9.297458006434428
 24
4.917938710848207
 34
0.0
 50
269.9999999999997
100
AcDbRotatedDimension
1001
ACAD
1000
DSTYLE
1002
{
1070
   141
1040
0.0
1002
}
  0
DIMENSION
  5
B7A
330
1E
100
AcDbEntity
  8
0
100
AcDbDimension
  2
*D28
 10
18.17604377491493
 20
7.807938710848179
 30
0.0
 11
18.17604377491493
 21
6.6280584836449
 31
0.0
 70
   160
 71
     5
 42
2.500000000000002
  3
STANDARD
100
AcDbAlignedDimension
 13
16.20245800643442
 23
5.307938710848177
 33
0.0
 14
16.20245800643442
 24
7.80793871084818
 34
0.0
 50
90.00000000000019
100
AcDbRotatedDimension
1001
ACAD
1000
DSTYLE
1002
{
1070
   141
1040
0.0
1002
}
  0
DIMENSION
  5
B7B
330
1E
100
AcDbEntity
  8
0
100
AcDbDimension
  2
*D29
 10
9.327458006434415
 20
2.961560690611476
 30
0.0
 11
12.1423488989065
 21
2.961560690611476
 31
0.0
 70
   160
 71
     5
 42
5.560000000000002
  3
STANDARD
100
AcDbAlignedDimension
 13
14.88745800643441
 23
4.887938710848184
 33
0.0
 14
9.327458006434415
 24
4.887938710848206
 34
0.0
 50
0.0000000000004071
100
AcDbRotatedDimension
1001
ACAD
1000
DSTYLE
1002
{
1070
   141
1040
0.0
1002
}
  0
DIMENSION
  5
B7C
330
1E
100
AcDbEntity
  8
0
100
AcDbDimension
  2
*D32
 10
14.85209328582332
 20
4.94576561394751
 30
0.0
 11
17.84537852796189
 21
3.400873245986833
 31
0.0
 70
   163
  1
<> I.D.\P%%c0.188 O.D.\P(6 PLCS.)
 71
     5
 42
0.0899999999999981
  3
STANDARD$3
100
AcDbDiametricDimension
 15
14.92282272704551
 25
4.890111807748864
 35
0.0
 40
0.0
1001
ACAD
1000
DSTYLE
1002
{
1070
   288
1070
     1
1002
}
  0
LINE
  5
B7E
330
1E
100
AcDbEntity
  8
0
 62
     1
100
AcDbLine
 10
14.88745800643442
 20
4.947938710848184
 30
0.0
 11
14.88745800643442
 21
4.887938710848182
 31
0.0
  0
LINE
  5
B7F
330
1E
100
AcDbEntity
  8
0
 62
     1
100
AcDbLine
 10
14.88745800643441
 20
4.947938710848188
 30
0.0
 11
14.88745800643441
 21
4.887938710848185
 31
0.0
  0
CIRCLE
  5
B80
330
1E
100
AcDbEntity
  8
ZN-40BMB
  6
HIDDEN2
 62
     4
100
AcDbCircle
 10
14.88745800643441
 20
4.917938710848186
 30
0.0
 40
0.0940000000000003
  0
CIRCLE
  5
B81
330
1E
100
AcDbEntity
  8
ZN-40BMB
  6
HIDDEN2
 62
     4
100
AcDbCircle
 10
14.88745800643441
 20
4.917938710848186
 30
0.0
 40
0.096932450907941
  0
LINE
  5
B82
330
1E
100
AcDbEntity
  8
0
 62
     1
100
AcDbLine
 10
14.91745800643442
 20
4.917938710848183
 30
0.0
 11
14.85745800643442
 21
4.917938710848183
 31
0.0
  0
CIRCLE
  5
B83
330
1E
100
AcDbEntity
  8
ZN-40BMB
  6
HIDDEN2
 62
     4
100
AcDbCircle
 10
14.88745800643441
 20
4.917938710848186
 30
0.0
 40
0.0449999999999999
  0
CIRCLE
  5
B84
330
1E
100
AcDbEntity
  8
ZN-40BMB
  6
HIDDEN2
 62
     4
100
AcDbCircle
 10
14.88745800643441
 20
4.917938710848186
 30
0.0
 40
0.0417184477934942
  0
LINE
  5
B85
330
1E
100
AcDbEntity
  8
0
 62
     1
100
AcDbLine
 10
14.91745800643442
 20
4.917938710848186
 30
0.0
 11
14.85745800643442
 21
4.917938710848186
 31
0.0
  0
CIRCLE
  5
B86
330
1E
100
AcDbEntity
  8
ZN-40BMB
  6
HIDDEN2
 62
     4
100
AcDbCircle
 10
14.88745800643441
 20
4.917938710848183
 30
0.0
 40
0.0449999999999999
  0
CIRCLE
  5
B87
330
1E
100
AcDbEntity
  8
ZN-40BMB
  6
HIDDEN2
 62
     4
100
AcDbCircle
 10
14.88745800643441
 20
4.917938710848183
 30
0.0
 40
0.041718447793496
  0
LINE
  5
B88
330
1E
100
AcDbEntity
  8
0
 62
     1
100
AcDbLine
 10
14.88745800643443
 20
8.247938710848188
 30
0.0
 11
14.88745800643443
 21
8.187938710848186
 31
0.0
  0
CIRCLE
  5
B89
330
1E
100
AcDbEntity
  8
ZN-40BMB
  6
HIDDEN2
 62
     4
100
AcDbCircle
 10
14.88745800643443
 20
8.217938710848187
 30
0.0
 40
0.0939999999999994
  0
CIRCLE
  5
B8A
330
1E
100
AcDbEntity
  8
ZN-40BMB
  6
HIDDEN2
 62
     4
100
AcDbCircle
 10
14.88745800643443
 20
8.217938710848187
 30
0.0
 40
0.0969324509079401
  0
CIRCLE
  5
B8B
330
1E
100
AcDbEntity
  8
ZN-40BMB
  6
HIDDEN2
 62
     4
100
AcDbCircle
 10
14.88745800643443
 20
8.217938710848187
 30
0.0
 40
0.0449999999999991
  0
CIRCLE
  5
B8C
330
1E
100
AcDbEntity
  8
ZN-40BMB
  6
HIDDEN2
 62
     4
100
AcDbCircle
 10
14.88745800643443
 20
8.217938710848187
 30
0.0
 40
0.0417184477934933
  0
LINE
  5
B8D
330
1E
100
AcDbEntity
  8
0
 62
     1
100
AcDbLine
 10
14.91745800643443
 20
8.217938710848187
 30
0.0
 11
14.85745800643443
 21
8.217938710848187
 31
0.0
  0
LINE
  5
B8E
330
1E
100
AcDbEntity
  8
ZN-40BMB
  6
CENTER2
 62
     1
 48
0.8
100
AcDbLine
 10
9.297458006434428
 20
8.217938710848208
 30
0.0
 11
14.91745800643443
 21
8.217938710848187
 31
0.0
  0
LINE
  5
B8F
330
1E
100
AcDbEntity
  8
0
 62
     1
100
AcDbLine
 10
9.327458006434429
 20
8.24793871084821
 30
0.0
 11
9.327458006434429
 21
8.187938710848214
 31
0.0
  0
CIRCLE
  5
B90
330
1E
100
AcDbEntity
  8
ZN-40BMB
  6
HIDDEN2
 62
     4
100
AcDbCircle
 10
9.327458006434429
 20
8.217938710848208
 30
0.0
 40
0.0449999999999982
  0
CIRCLE
  5
B91
330
1E
100
AcDbEntity
  8
ZN-40BMB
  6
HIDDEN2
 62
     4
100
AcDbCircle
 10
9.327458006434429
 20
8.217938710848208
 30
0.0
 40
0.0417184477934942
  0
CIRCLE
  5
B92
330
1E
100
AcDbEntity
  8
ZN-40BMB
  6
HIDDEN2
 62
     4
100
AcDbCircle
 10
9.327458006434429
 20
8.217938710848208
 30
0.0
 40
0.0940000000000012
  0
CIRCLE
  5
B93
330
1E
100
AcDbEntity
  8
ZN-40BMB
  6
HIDDEN2
 62
     4
100
AcDbCircle
 10
9.327458006434429
 20
8.217938710848208
 30
0.0
 40
0.0969324509079392
  0
LINE
  5
B94
330
1E
100
AcDbEntity
  8
0
 62
     1
100
AcDbLine
 10
9.357458006434423
 20
8.217938710848208
 30
0.0
 11
9.297458006434428
 21
8.217938710848208
 31
0.0
  0
LINE
  5
B95
330
1E
100
AcDbEntity
  8
0
 62
     1
100
AcDbLine
 10
12.10745800643443
 20
8.247938710848195
 30
0.0
 11
12.10745800643443
 21
8.1879387108482
 31
0.0
  0
CIRCLE
  5
B96
330
1E
100
AcDbEntity
  8
ZN-40BMB
100
AcDbCircle
 10
12.10745800643443
 20
8.217938710848201
 30
0.0
 40
0.0939999999999994
  0
CIRCLE
  5
B97
330
1E
100
AcDbEntity
  8
ZN-40BMB
100
AcDbCircle
 10
12.10745800643443
 20
8.217938710848201
 30
0.0
 40
0.0969324509079401
  0
CIRCLE
  5
B98
330
1E
100
AcDbEntity
  8
ZN-40BMB
100
AcDbCircle
 10
12.10745800643443
 20
8.217938710848201
 30
0.0
 40
0.0449999999999999
  0
CIRCLE
  5
B99
330
1E
100
AcDbEntity
  8
ZN-40BMB
100
AcDbCircle
 10
12.10745800643443
 20
8.217938710848201
 30
0.0
 40
0.0417184477934942
  0
LINE
  5
B9A
330
1E
100
AcDbEntity
  8
0
 62
     1
100
AcDbLine
 10
12.13745800643442
 20
8.217938710848201
 30
0.0
 11
12.07745800643443
 21
8.217938710848201
 31
0.0
  0
LINE
  5
B9B
330
1E
100
AcDbEntity
  8
ZN-40BMB
  6
CENTER2
 62
     1
 48
0.8
100
AcDbLine
 10
9.327458006434415
 20
4.887938710848207
 30
0.0
 11
9.327458006434429
 21
8.24793871084821
 31
0.0
  0
CIRCLE
  5
B9C
330
1E
100
AcDbEntity
  8
ZN-40BMB
  6
HIDDEN2
 62
     4
100
AcDbCircle
 10
9.327458006434415
 20
4.917938710848204
 30
0.0
 40
0.0939999999999994
  0
CIRCLE
  5
B9D
330
1E
100
AcDbEntity
  8
ZN-40BMB
  6
HIDDEN2
 62
     4
100
AcDbCircle
 10
9.327458006434415
 20
4.917938710848204
 30
0.0
 40
0.096932450907941
  0
LINE
  5
B9E
330
1E
100
AcDbEntity
  8
ZN-40BMB
  6
CENTER2
 62
     1
 48
0.8
100
AcDbLine
 10
14.91745800643442
 20
4.917938710848183
 30
0.0
 11
9.297458006434421
 21
4.917938710848208
 31
0.0
  0
CIRCLE
  5
B9F
330
1E
100
AcDbEntity
  8
ZN-40BMB
100
AcDbCircle
 10
12.10745800643441
 20
4.917938710848186
 30
0.0
 40
0.0940000000000003
  0
CIRCLE
  5
BA0
330
1E
100
AcDbEntity
  8
ZN-40BMB
100
AcDbCircle
 10
12.10745800643441
 20
4.917938710848186
 30
0.0
 40
0.096932450907941
  0
LINE
  5
BA1
330
1E
100
AcDbEntity
  8
0
 62
     1
100
AcDbLine
 10
12.13745800643441
 20
4.91793871084819
 30
0.0
 11
12.07745800643441
 21
4.91793871084819
 31
0.0
  0
CIRCLE
  5
BA2
330
1E
100
AcDbEntity
  8
ZN-40BMB
100
AcDbCircle
 10
12.10745800643441
 20
4.917938710848186
 30
0.0
 40
0.0449999999999991
  0
CIRCLE
  5
BA3
330
1E
100
AcDbEntity
  8
ZN-40BMB
100
AcDbCircle
 10
12.10745800643441
 20
4.917938710848186
 30
0.0
 40
0.0417184477934951
  0
LINE
  5
BA4
330
1E
100
AcDbEntity
  8
0
 62
     1
100
AcDbLine
 10
12.10745800643441
 20
4.947938710848191
 30
0.0
 11
12.10745800643441
 21
4.887938710848196
 31
0.0
  0
DIMENSION
  5
BA5
330
1E
100
AcDbEntity
  8
ZN-40BMB
100
AcDbDimension
  2
*D30
 10
12.10814506215466
 20
4.823938780898859
 30
0.0
 11
12.0554599861648
 21
4.824392459723209
 31
0.0
 70
   162
 71
     5
 42
-1.0
  3
SLDDIMSTYLE2
100
AcDb2LineAngularDimension
 13
12.10745800643441
 23
4.823938710848199
 33
0.0
 14
12.10745800643441
 24
4.823938710848199
 34
0.0
 15
12.10745800643441
 25
4.823938710848199
 35
0.0
 16
12.05546246079247
 26
4.824619323363765
 36
0.0
  0
DIMENSION
  5
BA6
330
1E
100
AcDbEntity
  8
ZN-40BMB
100
AcDbDimension
  2
*D31
 10
12.10677092021641
 20
4.872938752273138
 30
0.0
 11
12.05545998634057
 21
4.8733924798647
 31
0.0
 70
   162
 71
     5
 42
-1.0
  3
SLDDIMSTYLE2
100
AcDb2LineAngularDimension
 13
12.10745800643441
 23
4.872938710848198
 33
0.0
 14
12.10745800643441
 24
4.872938710848198
 34
0.0
 15
12.10745800643441
 25
4.872938710848198
 35
0.0
 16
12.05546246118793
 26
4.873619353574563
 36
0.0
  0
LINE
  5
BA7
330
1E
100
AcDbEntity
  8
ZN-40BMB
  6
CENTER2
 62
     1
 48
0.8
100
AcDbLine
 10
14.88745800643443
 20
8.247938710848188
 30
0.0
 11
14.88745800643442
 21
4.887938710848182
 31
0.0
  0
LINE
  5
BA8
330
1E
100
AcDbEntity
  8
ZN-40BMB
  6
CENTER2
 62
     1
 48
0.8
100
AcDbLine
 10
16.23245800643443
 20
7.807938710848176
 30
0.0
 11
7.982458006434423
 21
7.807938710848212
 31
0.0
  0
LINE
  5
BA9
330
1E
100
AcDbEntity
  8
ZN-40BMB
  6
CENTER2
 62
     1
 48
0.8
100
AcDbLine
 10
7.982458006434423
 20
5.307938710848208
 30
0.0
 11
16.23245800643442
 21
5.307938710848176
 31
0.0
  0
LINE
  5
BAA
330
1E
100
AcDbEntity
  8
ZN-40BMB
  6
CENTER2
 62
     1
 48
0.8
100
AcDbLine
 10
8.012458006434425
 20
7.837938710848213
 30
0.0
 11
8.012458006434417
 21
5.277938710848207
 31
0.0
  0
LINE
  5
BAB
330
1E
100
AcDbEntity
  8
ZN-40BMB
  6
CENTER2
 62
     1
 48
0.8
100
AcDbLine
 10
16.20245800643442
 20
5.277938710848175
 30
0.0
 11
16.20245800643442
 21
7.837938710848177
 31
0.0
  0
CIRCLE
  5
BAC
330
1E
100
AcDbEntity
  8
ZN-40BMB
  6
HIDDEN2
 62
     4
100
AcDbCircle
 10
9.327458006434415
 20
4.917938710848204
 30
0.0
 40
0.041718447793496
  0
CIRCLE
  5
BAD
330
1E
100
AcDbEntity
  8
ZN-40BMB
  6
HIDDEN2
 62
     4
100
AcDbCircle
 10
9.327458006434415
 20
4.917938710848204
 30
0.0
 40
0.0449999999999999
  0
CIRCLE
  5
BAE
330
1E
100
AcDbEntity
  8
ZN-40BMB
  6
HIDDEN2
 62
     4
100
AcDbCircle
 10
9.327458006434415
 20
4.917938710848208
 30
0.0
 40
0.0417184477934942
  0
CIRCLE
  5
BAF
330
1E
100
AcDbEntity
  8
ZN-40BMB
  6
HIDDEN2
 62
     4
100
AcDbCircle
 10
9.327458006434415
 20
4.917938710848208
 30
0.0
 40
0.0449999999999999
  0
CIRCLE
  5
BB0
330
1E
100
AcDbEntity
  8
ZN-40BMB
  6
HIDDEN2
 62
     4
100
AcDbCircle
 10
12.10745800643439
 20
4.917938710848176
 30
0.0
 40
0.041718447793496
  0
CIRCLE
  5
BB1
330
1E
100
AcDbEntity
  8
ZN-40BMB
  6
HIDDEN2
 62
     4
100
AcDbCircle
 10
12.10745800643439
 20
4.917938710848176
 30
0.0
 40
0.0449999999999999
  0
CIRCLE
  5
BB2
330
1E
100
AcDbEntity
  8
ZN-40BMB
  6
HIDDEN2
 62
     4
100
AcDbCircle
 10
12.10745800643439
 20
4.917938710848179
 30
0.0
 40
0.0417184477934942
  0
CIRCLE
  5
BB3
330
1E
100
AcDbEntity
  8
ZN-40BMB
  6
HIDDEN2
 62
     4
100
AcDbCircle
 10
12.10745800643439
 20
4.917938710848179
 30
0.0
 40
0.0449999999999999
  0
CIRCLE
  5
BB4
330
1E
100
AcDbEntity
  8
ZN-40BMB
  6
HIDDEN2
 62
     4
100
AcDbCircle
 10
12.10745800643439
 20
4.917938710848179
 30
0.0
 40
0.096932450907941
  0
CIRCLE
  5
BB5
330
1E
100
AcDbEntity
  8
ZN-40BMB
  6
HIDDEN2
 62
     4
100
AcDbCircle
 10
12.10745800643439
 20
4.917938710848179
 30
0.0
 40
0.0940000000000003
  0
LINE
  5
BB6
330
1E
100
AcDbEntity
  8
0
 62
     1
100
AcDbLine
 10
12.13745800643439
 20
4.917938710848179
 30
0.0
 11
12.0774580064344
 21
4.917938710848179
 31
0.0
  0
LINE
  5
BB7
330
1E
100
AcDbEntity
  8
0
 62
     1
100
AcDbLine
 10
12.1374580064344
 20
4.917938710848176
 30
0.0
 11
12.0774580064344
 21
4.917938710848176
 31
0.0
  0
LINE
  5
BB8
330
1E
100
AcDbEntity
  8
0
 62
     1
100
AcDbLine
 10
12.10745800643439
 20
4.94793871084818
 30
0.0
 11
12.10745800643439
 21
4.887938710848178
 31
0.0
  0
LINE
  5
BB9
330
1E
100
AcDbEntity
  8
0
 62
     1
100
AcDbLine
 10
12.1074580064344
 20
4.947938710848177
 30
0.0
 11
12.1074580064344
 21
4.887938710848175
 31
0.0
  0
CIRCLE
  5
BBA
330
1E
100
AcDbEntity
  8
ZN-40BMB
  6
HIDDEN2
 62
     4
100
AcDbCircle
 10
12.10745800643441
 20
8.21793871084818
 30
0.0
 40
0.0969324509079401
  0
CIRCLE
  5
BBB
330
1E
100
AcDbEntity
  8
ZN-40BMB
  6
HIDDEN2
 62
     4
100
AcDbCircle
 10
12.10745800643441
 20
8.21793871084818
 30
0.0
 40
0.0939999999999994
  0
CIRCLE
  5
BBC
330
1E
100
AcDbEntity
  8
ZN-40BMB
  6
HIDDEN2
 62
     4
100
AcDbCircle
 10
12.10745800643441
 20
8.21793871084818
 30
0.0
 40
0.0417184477934933
  0
CIRCLE
  5
BBD
330
1E
100
AcDbEntity
  8
ZN-40BMB
  6
HIDDEN2
 62
     4
100
AcDbCircle
 10
12.10745800643441
 20
8.21793871084818
 30
0.0
 40
0.0449999999999991
  0
LINE
  5
BBE
330
1E
100
AcDbEntity
  8
0
 62
     1
100
AcDbLine
 10
12.13745800643441
 20
8.21793871084818
 30
0.0
 11
12.0774580064344
 21
8.21793871084818
 31
0.0
  0
LINE
  5
BBF
330
1E
100
AcDbEntity
  8
0
 62
     1
100
AcDbLine
 10
12.10745800643441
 20
8.247938710848181
 30
0.0
 11
12.10745800643441
 21
8.187938710848179
 31
0.0
  0
DIMENSION
  5
BC0
330
1E
100
AcDbEntity
  8
0
100
AcDbDimension
  2
*D33
 10
8.012458006434432
 20
9.723601412934259
 30
0.0
 11
12.12659589665888
 21
9.723601412934259
 31
0.0
 70
   160
 71
     5
 42
8.189999999999997
  3
STANDARD
100
AcDbAlignedDimension
 13
16.20245800643442
 23
7.837938710848177
 33
0.0
 14
8.012458006434432
 24
7.837938710848213
 34
0.0
 50
0.0000000000004071
100
AcDbRotatedDimension
1001
ACAD
1000
DSTYLE
1002
{
1070
   141
1040
0.0
1002
}
  0
LINE
  5
11F8
330
1E
100
AcDbEntity
  8
ZN-40BMB
100
AcDbLine
 10
4.147421249285688
 20
15.94860325255323
 30
0.0
 11
4.147421249285692
 21
16.70689215101904
 31
0.0
  0
LINE
  5
11F9
330
1E
100
AcDbEntity
  8
ZN-40BMB
100
AcDbLine
 10
3.787421249285664
 20
15.07946073345975
 30
0.0
 11
3.787421249285632
 21
19.90388086983082
 31
0.0
  0
LINE
  5
11FE
330
1E
100
AcDbEntity
  8
ZN-40BMB
100
AcDbLine
 10
4.557421249285656
 20
16.12093206179883
 30
0.0
 11
4.55742124928567
 21
16.36240954149175
 31
0.0
  0
LINE
  5
11FF
330
1E
100
AcDbEntity
  8
ZN-40BMB
100
AcDbLine
 10
4.261649144048082
 20
16.06267854660571
 30
0.0
 11
4.261649144048082
 21
16.24167080164529
 31
0.0
  0
POLYLINE
  5
1200
330
1E
100
AcDbEntity
  8
ZN-40BMB
100
AcDb2dPolyline
 66
     1
 10
0.0
 20
0.0
 30
0.0
 70
   128
 40
0.0005905511811024
 41
0.0005905511811024
  0
VERTEX
  5
1201
330
1200
100
AcDbEntity
  8
ZN-40BMB
100
AcDbVertex
100
AcDb2dVertex
 10
3.787421249285664
 20
16.10076638410107
 30
0.0
  0
VERTEX
  5
1202
330
1200
100
AcDbEntity
  8
ZN-40BMB
100
AcDbVertex
100
AcDb2dVertex
 10
3.790209272010692
 20
16.12277027363918
 30
0.0
  0
VERTEX
  5
1203
330
1200
100
AcDbEntity
  8
ZN-40BMB
100
AcDbVertex
100
AcDb2dVertex
 10
3.798058558449206
 20
16.15752059639983
 30
0.0
  0
VERTEX
  5
1204
330
1200
100
AcDbEntity
  8
ZN-40BMB
100
AcDbVertex
100
AcDb2dVertex
 10
3.807557255479537
 20
16.20465579158036
 30
0.0
  0
VERTEX
  5
1205
330
1200
100
AcDbEntity
  8
ZN-40BMB
100
AcDbVertex
100
AcDb2dVertex
 10
3.81080106861075
 20
16.23055032188909
 30
0.0
  0
VERTEX
  5
1206
330
1200
100
AcDbEntity
  8
ZN-40BMB
100
AcDbVertex
100
AcDb2dVertex
 10
3.812165265550106
 20
16.25785160297986
 30
0.0
  0
VERTEX
  5
1207
330
1200
100
AcDbEntity
  8
ZN-40BMB
100
AcDbVertex
100
AcDb2dVertex
 10
3.808978089900314
 20
16.30465771694229
 30
0.0
  0
VERTEX
  5
1208
330
1200
100
AcDbEntity
  8
ZN-40BMB
100
AcDbVertex
100
AcDb2dVertex
 10
3.800849109907183
 20
16.3443027656294
 30
0.0
  0
VERTEX
  5
1209
330
1200
100
AcDbEntity
  8
ZN-40BMB
100
AcDbVertex
100
AcDb2dVertex
 10
3.791433122258673
 20
16.37681380548291
 30
0.0
  0
VERTEX
  5
120A
330
1200
100
AcDbEntity
  8
ZN-40BMB
100
AcDbVertex
100
AcDb2dVertex
 10
3.787421249285664
 20
16.39408710494762
 30
0.0
  0
SEQEND
  5
120B
330
1200
100
AcDbEntity
  8
ZN-40BMB
  0
LINE
  5
120D
330
1E
100
AcDbEntity
  8
ZN-40BMB
100
AcDbLine
 10
4.30306240670804
 20
16.09867854660571
 30
0.0
 11
4.30306240670804
 21
16.24167080164529
 31
0.0
  0
LINE
  5
120E
330
1E
100
AcDbEntity
  8
ZN-40BMB
100
AcDbLine
 10
4.037421249285689
 20
15.07073054108681
 30
0.0
 11
4.037421249285689
 21
16.66015533880763
 31
0.0
  0
LINE
  5
1211
330
1E
100
AcDbEntity
  8
ZN-40BMB
100
AcDbLine
 10
4.147421249285688
 20
15.14719552343444
 30
0.0
 11
4.147421249285688
 21
15.75473835073734
 31
0.0
  0
LINE
  5
1212
330
1E
100
AcDbEntity
  8
ZN-40BMB
100
AcDbLine
 10
4.094318359136241
 20
14.92389033400791
 30
0.0
 11
3.961475646661629
 21
14.92852930374889
 31
0.0
  0
ARC
  5
1213
330
1E
100
AcDbEntity
  8
ZN-40BMB
100
AcDbCircle
 10
3.937421249285662
 20
15.07946073345975
 30
0.0
 40
0.1500000000000001
100
AcDbArc
 50
180.0000000000007
 51
267.9999999999993
  0
LINE
  5
1214
330
1E
100
AcDbEntity
  8
ZN-40BMB
100
AcDbLine
 10
3.961475646661629
 20
14.92852930374889
 30
0.0
 11
3.932186324780278
 21
14.92955210940688
 31
0.0
  0
LINE
  5
1215
330
1E
100
AcDbEntity
  8
ZN-40BMB
100
AcDbLine
 10
4.243421249285681
 20
14.86672566063218
 30
0.0
 11
4.557421249285656
 21
14.86672566063218
 31
0.0
  0
LINE
  5
121A
330
1E
100
AcDbEntity
  8
ZN-40BMB
100
AcDbLine
 10
4.587421249285657
 20
14.99672566063218
 30
0.0
 11
4.185327279483537
 21
15.01076709146566
 31
0.0
  0
ARC
  5
121B
330
1E
100
AcDbEntity
  8
ZN-40BMB
100
AcDbCircle
 10
4.057421249285688
 20
15.14719552343443
 30
0.0
 40
0.0899999999999999
100
AcDbArc
 50
326.4426902380785
 51
0.0000000000003817
  0
LINE
  5
121C
330
1E
100
AcDbEntity
  8
ZN-40BMB
100
AcDbLine
 10
4.243421249285663
 20
14.95672566063218
 30
0.0
 11
4.587421249285661
 21
14.95672566063218
 31
0.0
  0
LINE
  5
121E
330
1E
100
AcDbEntity
  8
ZN-40BMB
100
AcDbLine
 10
4.203421249285657
 20
14.95532882985251
 30
0.0
 11
4.587421249285661
 21
14.95532882985251
 31
0.0
  0
LINE
  5
1220
330
1E
100
AcDbEntity
  8
ZN-40BMB
100
AcDbLine
 10
4.243421249285663
 20
14.90672566063218
 30
0.0
 11
4.587421249285661
 21
14.90672566063218
 31
0.0
  0
LINE
  5
1221
330
1E
100
AcDbEntity
  8
ZN-40BMB
100
AcDbLine
 10
4.203421249285657
 20
14.90812249141185
 30
0.0
 11
4.587421249285657
 21
14.90812249141185
 31
0.0
  0
LINE
  5
1222
330
1E
100
AcDbEntity
  8
ZN-40BMB
100
AcDbLine
 10
4.203421249285657
 20
14.90812249141185
 30
0.0
 11
4.203421249285657
 21
14.95532882985251
 31
0.0
  0
LINE
  5
1223
330
1E
100
AcDbEntity
  8
ZN-40BMB
100
AcDbLine
 10
4.127421249285678
 20
15.07073054108681
 30
0.0
 11
4.127421249285678
 21
15.08086302762732
 31
0.0
  0
ARC
  5
1224
330
1E
100
AcDbEntity
  8
ZN-40BMB
100
AcDbCircle
 10
4.187421249285684
 20
15.07073054108681
 30
0.0
 40
0.0599999999999997
100
AcDbArc
 50
180.0
 51
267.9999999999999
  0
LINE
  5
1225
330
1E
100
AcDbEntity
  8
ZN-40BMB
100
AcDbLine
 10
4.243421249285663
 20
14.95672566063218
 30
0.0
 11
4.243421249285677
 21
15.00873840533734
 31
0.0
  0
LINE
  5
1226
330
1E
100
AcDbEntity
  8
ZN-40BMB
100
AcDbLine
 10
4.203421249285657
 20
14.95532882985251
 30
0.0
 11
4.243421249285663
 21
14.95672566063218
 31
0.0
  0
LINE
  5
1228
330
1E
100
AcDbEntity
  8
ZN-40BMB
100
AcDbLine
 10
4.243421249285663
 20
14.90672566063218
 30
0.0
 11
4.203421249285657
 21
14.90812249141185
 31
0.0
  0
LINE
  5
1229
330
1E
100
AcDbEntity
  8
ZN-40BMB
100
AcDbLine
 10
4.243421249285677
 20
14.86672566063218
 30
0.0
 11
4.243421249285663
 21
14.90672566063218
 31
0.0
  0
ARC
  5
122A
330
1E
100
AcDbEntity
  8
ZN-40BMB
100
AcDbCircle
 10
4.243421249285681
 20
14.99172566063218
 30
0.0
 40
0.1250000000000003
100
AcDbArc
 50
209.3958934887792
 51
270.0
  0
LINE
  5
122B
330
1E
100
AcDbEntity
  8
ZN-40BMB
100
AcDbLine
 10
4.139464562392067
 20
14.92231379385058
 30
0.0
 11
4.094318359136241
 21
14.92389033400791
 31
0.0
  0
ARC
  5
122C
330
1E
100
AcDbEntity
  8
ZN-40BMB
100
AcDbCircle
 10
4.157421249285683
 20
15.08086302762733
 30
0.0
 40
0.0300000000000016
100
AcDbArc
 50
146.4426902380829
 51
180.0
  0
ARC
  5
122D
330
1E
100
AcDbEntity
  8
ZN-40BMB
100
AcDbCircle
 10
4.187421249285684
 20
15.07073054108681
 30
0.0
 40
0.15
100
AcDbArc
 50
180.0
 51
249.3469927494595
  0
LINE
  5
1230
330
1E
100
AcDbEntity
  8
ZN-40BMB
100
AcDbLine
 10
4.657421249285665
 20
14.94351979831528
 30
0.0
 11
4.657421249285665
 21
14.91993152294908
 31
0.0
  0
ARC
  5
1233
330
1E
100
AcDbEntity
  8
ZN-40BMB
100
AcDbCircle
 10
4.652421249286895
 20
14.9435197983188
 30
0.0
 40
0.0049999999987698
100
AcDbArc
 50
0.0000000000003817
 51
85.00000001292709
  0
LINE
  5
1234
330
1E
100
AcDbEntity
  8
ZN-40BMB
100
AcDbLine
 10
4.652857027999392
 20
14.94850077180573
 30
0.0
 11
4.587421249285657
 21
14.95422566063218
 31
0.0
  0
LINE
  5
1238
330
1E
100
AcDbEntity
  8
ZN-40BMB
100
AcDbLine
 10
4.557421249285656
 20
14.88672566063218
 30
0.0
 11
4.587421249285657
 21
14.88672566063218
 31
0.0
  0
LINE
  5
1239
330
1E
100
AcDbEntity
  8
ZN-40BMB
100
AcDbLine
 10
4.557421249285656
 20
14.86672566063218
 30
0.0
 11
4.557421249285656
 21
14.88672566063218
 31
0.0
  0
ARC
  5
123A
330
1E
100
AcDbEntity
  8
ZN-40BMB
100
AcDbCircle
 10
4.652421249291563
 20
14.91993152294181
 30
0.0
 40
0.0049999999940979
100
AcDbArc
 50
274.9999999380178
 51
0.0000000000003817
  0
LINE
  5
123B
330
1E
100
AcDbEntity
  8
ZN-40BMB
100
AcDbLine
 10
4.587421249285657
 20
14.90922566063218
 30
0.0
 11
4.652857027999392
 21
14.91495054945862
 31
0.0
  0
LINE
  5
123D
330
1E
100
AcDbEntity
  8
ZN-40BMB
100
AcDbLine
 10
3.78742124928566
 20
15.73389801978348
 30
0.0
 11
3.78742124928566
 21
15.69167080164529
 31
0.0
  0
LINE
  5
1241
330
1E
100
AcDbEntity
  8
ZN-40BMB
100
AcDbLine
 10
4.30306240670804
 20
16.09867854660571
 30
0.0
 11
4.557421249285656
 21
16.12093206179883
 31
0.0
  0
LINE
  5
1242
330
1E
100
AcDbEntity
  8
ZN-40BMB
100
AcDbLine
 10
4.261649144048082
 20
16.06267854660571
 30
0.0
 11
4.30306240670804
 21
16.09867854660571
 31
0.0
  0
LINE
  5
1243
330
1E
100
AcDbEntity
  8
ZN-40BMB
100
AcDbLine
 10
4.31542124928568
 20
15.94567080164529
 30
0.0
 11
4.147421249285688
 21
15.94860325255323
 31
0.0
  0
LINE
  5
1244
330
1E
100
AcDbEntity
  8
ZN-40BMB
100
AcDbLine
 10
4.31542124928568
 20
15.89667080164529
 30
0.0
 11
4.127421249285692
 21
15.89338924943878
 31
0.0
  0
LINE
  5
1245
330
1E
100
AcDbEntity
  8
ZN-40BMB
100
AcDbLine
 10
4.127421249285692
 20
15.80995235385179
 30
0.0
 11
4.31542124928568
 21
15.80667080164528
 31
0.0
  0
LINE
  5
1246
330
1E
100
AcDbEntity
  8
ZN-40BMB
100
AcDbLine
 10
4.147421249285688
 20
15.75473835073734
 30
0.0
 11
4.31542124928568
 21
15.75767080164528
 31
0.0
  0
LINE
  5
1247
330
1E
100
AcDbEntity
  8
ZN-40BMB
100
AcDbLine
 10
4.147421249285688
 20
16.05268490075557
 30
0.0
 11
4.261649144048082
 21
16.06267854660571
 31
0.0
  0
LINE
  5
1248
330
1E
100
AcDbEntity
  8
ZN-40BMB
100
AcDbLine
 10
4.127421249285692
 20
15.80995235385179
 30
0.0
 11
4.127421249285678
 21
15.85167080164529
 31
0.0
  0
LINE
  5
1249
330
1E
100
AcDbEntity
  8
ZN-40BMB
100
AcDbLine
 10
4.127421249285678
 20
15.85167080164529
 30
0.0
 11
4.127421249285692
 21
15.89338924943878
 31
0.0
  0
LINE
  5
124A
330
1E
100
AcDbEntity
  8
ZN-40BMB
100
AcDbLine
 10
4.31542124928568
 20
15.94567080164529
 30
0.0
 11
4.31542124928568
 21
15.89667080164529
 31
0.0
  0
LINE
  5
124B
330
1E
100
AcDbEntity
  8
ZN-40BMB
100
AcDbLine
 10
4.31542124928568
 20
15.80667080164528
 30
0.0
 11
4.31542124928568
 21
15.89667080164529
 31
0.0
  0
LINE
  5
124C
330
1E
100
AcDbEntity
  8
ZN-40BMB
100
AcDbLine
 10
4.31542124928568
 20
15.80667080164528
 30
0.0
 11
4.31542124928568
 21
15.75767080164528
 31
0.0
  0
LINE
  5
124D
330
1E
100
AcDbEntity
  8
ZN-40BMB
100
AcDbLine
 10
4.55742124928567
 20
16.36240954149175
 30
0.0
 11
4.30306240670804
 21
16.38466305668486
 31
0.0
  0
LINE
  5
124E
330
1E
100
AcDbEntity
  8
ZN-40BMB
100
AcDbLine
 10
4.30306240670804
 20
16.38466305668486
 30
0.0
 11
4.261649144048082
 21
16.42066305668486
 31
0.0
  0
LINE
  5
124F
330
1E
100
AcDbEntity
  8
ZN-40BMB
100
AcDbLine
 10
4.261649144048082
 20
16.42066305668486
 30
0.0
 11
4.147421249285688
 21
16.43065670253501
 31
0.0
  0
LINE
  5
1250
330
1E
100
AcDbEntity
  8
ZN-40BMB
100
AcDbLine
 10
4.261649144048082
 20
16.24167080164529
 30
0.0
 11
4.261649144048082
 21
16.42066305668486
 31
0.0
  0
LINE
  5
1251
330
1E
100
AcDbEntity
  8
ZN-40BMB
100
AcDbLine
 10
4.30306240670804
 20
16.24167080164529
 30
0.0
 11
4.30306240670804
 21
16.38466305668486
 31
0.0
  0
LINE
  5
1287
330
1E
100
AcDbEntity
  8
ZN-40C
100
AcDbLine
 10
4.587421249285657
 20
14.95672574067666
 30
0.0
 11
4.587421249285657
 21
16.14693759584132
 31
0.0
  0
SPLINE
  5
1288
330
1E
100
AcDbEntity
  8
ZN-40BMB
100
AcDbSpline
210
0.0
220
0.0
230
1.0
 70
     8
 71
     3
 72
    11
 73
     7
 74
     0
 42
0.0000000001
 43
0.0000000001
 40
0.2246516516461815
 40
0.2246516516461815
 40
0.2246516516461815
 40
0.2246516516461815
 40
0.3661382624682038
 40
0.6692124413286097
 40
0.9124153493863364
 40
1.062159204180588
 40
1.062159204180588
 40
1.062159204180588
 40
1.062159204180588
 10
3.787421249284626
 20
16.69723723043383
 30
0.0
 10
3.831381034681383
 20
16.67390348398735
 30
0.0
 10
3.972282340562014
 20
16.57706176002792
 30
0.0
 10
4.195539082197466
 20
16.8008250476071
 30
0.0
 10
4.415750210341848
 20
16.6007271496361
 30
0.0
 10
4.540068819101445
 20
16.66938426924345
 30
0.0
 10
4.58742124928565
 20
16.69090792779488
 30
0.0
  0
SPLINE
  5
128A
330
1E
100
AcDbEntity
  8
ZN-40C
100
AcDbSpline
210
0.0
220
0.0
230
1.0
 70
     8
 71
     3
 72
    13
 73
     9
 74
     0
 42
0.0000000001
 43
0.0000000001
 40
0.1414103330789538
 40
0.1414103330789538
 40
0.1414103330789538
 40
0.1414103330789538
 40
0.2195797798377884
 40
0.4330487733075657
 40
0.6297884952813032
 40
0.8231604477750703
 40
1.04878356343245
 40
1.120912574156796
 40
1.120912574156796
 40
1.120912574156796
 40
1.120912574156796
 10
4.587421249285647
 20
16.69090792780504
 30
0.0
 10
4.611416906300107
 20
16.68233752107984
 30
0.0
 10
4.701828055662209
 20
16.66909627986528
 30
0.0
 10
4.861835419897285
 20
16.82866349160782
 30
0.0
 10
5.029367083764014
 20
16.58781495465783
 30
0.0
 10
5.238050921372092
 20
16.8164316917705
 30
0.0
 10
5.352885208893347
 20
16.58912115967089
 30
0.0
 10
5.440474050446749
 20
16.5866467377012
 30
0.0
 10
5.462421249285601
 20
16.59153971024976
 30
0.0
  0
ARC
  5
1294
330
1E
100
AcDbEntity
  8
ZN-40BMB
100
AcDbCircle
 10
4.243421249285628
 20
19.99161594265839
 30
0.0
 40
0.1250000000000017
100
AcDbArc
 50
89.99999999999998
 51
146.2689684783167
  0
LINE
  5
1295
330
1E
100
AcDbEntity
  8
ZN-40BMB
100
AcDbLine
 10
3.93218632478025
 20
20.05378949388368
 30
0.0
 11
4.430510076875389
 21
20.07119134276285
 31
0.0
  0
LINE
  5
1296
330
1E
100
AcDbEntity
  8
ZN-40BMB
100
AcDbLine
 10
4.243421249285628
 20
20.11661594265839
 30
0.0
 11
4.557421249285628
 21
20.11661594265838
 31
0.0
  0
ARC
  5
1297
330
1E
100
AcDbEntity
  8
ZN-40BMB
100
AcDbCircle
 10
4.557421249285628
 20
19.91661594265838
 30
0.0
 40
0.1999999999999993
100
AcDbArc
 50
89.99999999999998
 51
129.3870513647243
  0
LINE
  5
1298
330
1E
100
AcDbEntity
  8
ZN-40BMB
100
AcDbLine
 10
4.430510076875396
 20
19.90219665314031
 30
0.0
 11
4.430468821797408
 21
19.90584528839183
 31
0.0
  0
LINE
  5
1299
330
1E
100
AcDbEntity
  8
ZN-40BMB
100
AcDbLine
 10
4.587421249285629
 20
19.88654149962393
 30
0.0
 11
4.587421249285629
 21
19.90131592605988
 31
0.0
  0
LINE
  5
129A
330
1E
100
AcDbEntity
  8
ZN-40BMB
100
AcDbLine
 10
4.557421249285628
 20
20.09661594265839
 30
0.0
 11
4.587421249285629
 21
20.09661594265839
 31
0.0
  0
ARC
  5
129B
330
1E
100
AcDbEntity
  8
ZN-40BMB
100
AcDbCircle
 10
3.93742124928563
 20
19.90388086983082
 30
0.0
 40
0.1499999999999986
100
AcDbArc
 50
92.00000000000324
 51
180.0
  0
LINE
  5
129C
330
1E
100
AcDbEntity
  8
ZN-40BMB
100
AcDbLine
 10
4.430510076875389
 20
20.07119134276285
 30
0.0
 11
4.430510076875389
 21
16.64432170809137
 31
0.0
  0
LINE
  5
129E
330
1E
100
AcDbEntity
  8
ZN-40BMB
100
AcDbLine
 10
4.557421249285628
 20
20.11661594265839
 30
0.0
 11
4.557421249285628
 21
16.67694429481133
 31
0.0
  0
HATCH
  5
12C1
330
1E
100
AcDbEntity
  8
OBJECT
100
AcDbHatch
 10
0.0
 20
0.0
 30
0.0
210
0.0
220
0.0
230
1.0
  2
ANSI31
 70
     0
 71
     0
 91
        1
 92
        5
 93
       24
 72
     2
 10
4.187421249285687
 20
15.07073054108681
 40
0.1499999999999989
 50
180.0
 51
249.3469927494556
 73
     1
 72
     2
 10
4.243421249285683
 20
14.99172566063218
 40
0.1249999999999996
 50
209.3958934887759
 51
269.9999999999975
 73
     1
 72
     1
 10
4.243421249285677
 20
14.86672566063218
 11
4.243421249285663
 21
14.90672566063218
 72
     1
 10
4.243421249285663
 20
14.90672566063218
 11
4.203421249285657
 21
14.90812249141185
 72
     1
 10
4.203421249285657
 20
14.90812249141185
 11
4.203421249285657
 21
14.95532882985251
 72
     1
 10
4.203421249285657
 20
14.95532882985251
 11
4.243421249285663
 21
14.95672566063218
 72
     1
 10
4.243421249285663
 20
14.95672566063218
 11
4.243421249285677
 21
15.00873840533734
 72
     1
 10
4.243421249285677
 20
15.00873840533734
 11
4.185327279483534
 21
15.01076709146566
 72
     2
 10
4.187421249285678
 20
15.07073054108681
 40
0.060000000000001
 50
91.99999999999485
 51
180.0
 73
     0
 72
     1
 10
4.127421249285678
 20
15.07073054108681
 11
4.127421249285678
 21
15.08086302762733
 72
     2
 10
4.157421249285679
 20
15.0808630276273
 40
0.0300000000000006
 50
180.0000000000407
 51
213.5573097619484
 73
     0
 72
     2
 10
4.057421249285692
 20
15.14719552343443
 40
0.0899999999999971
 50
326.4426902380753
 51
360.0000000000022
 73
     1
 72
     1
 10
4.147421249285688
 20
15.14719552343443
 11
4.147421249285688
 21
15.75473835073734
 72
     1
 10
4.147421249285688
 20
15.75473835073734
 11
4.31542124928568
 21
15.75767080164528
 72
     1
 10
4.31542124928568
 20
15.75767080164528
 11
4.31542124928568
 21
15.80667080164528
 72
     1
 10
4.31542124928568
 20
15.80667080164528
 11
4.127421249285694
 21
15.80995235385179
 72
     1
 10
4.127421249285694
 20
15.80995235385179
 11
4.127421249285678
 21
15.85167080164528
 72
     1
 10
4.127421249285678
 20
15.85167080164528
 11
4.127421249285692
 21
15.89338924943878
 72
     1
 10
4.127421249285692
 20
15.89338924943878
 11
4.31542124928568
 21
15.89667080164528
 72
     1
 10
4.31542124928568
 20
15.89667080164528
 11
4.31542124928568
 21
15.94567080164528
 72
     1
 10
4.31542124928568
 20
15.94567080164528
 11
4.14742124928569
 21
15.94860325255323
 72
     1
 10
4.14742124928569
 20
15.94860325255323
 11
4.14742124928569
 21
16.70689215102599
 72
     4
 94
        3
 73
     0
 74
     0
 95
        8
 96
        4
 40
0.4866231757540249
 40
0.4866231757540249
 40
0.4866231757540249
 40
0.4866231757540249
 40
0.6004825193850254
 40
0.6004825193850254
 40
0.6004825193850254
 40
0.6004825193850254
 10
4.147421249196739
 20
16.70689215099054
 10
4.110802386635402
 20
16.6951616499831
 10
4.074083271041056
 20
16.67577787276599
 10
4.03742124928569
 20
16.66015533880763
 72
     1
 10
4.037421249285689
 20
16.66015533880763
 11
4.037421249285689
 21
15.07073054108681
 97
        0
 75
     0
 76
     1
 52
0.0
 41
0.75
 77
     0
 78
     1
 53
45.0
 43
-11.19166851719371
 44
-1.168974300005334
 45
-0.0662912607362388
 46
0.0662912607362388
 79
     0
 47
0.0049910981360877
 98
        1
 10
4.085076751849872
 20
15.5105230319982
  0
HATCH
  5
12DF
330
1E
100
AcDbEntity
  8
OBJECT
100
AcDbHatch
 10
0.0
 20
0.0
 30
0.0
210
0.0
220
0.0
230
1.0
  2
ANSI31
 70
     0
 71
     0
 91
        1
 92
        5
 93
       21
 72
     1
 10
5.462421249285629
 20
16.22680247488282
 11
5.462421249285629
 21
16.59153971024976
 72
     4
 94
        3
 73
     0
 74
     0
 95
        9
 96
        5
 40
0.9784563997955547
 40
0.9784563997955547
 40
0.9784563997955547
 40
0.9784563997955547
 40
1.0505854105199
 40
1.120912574156796
 40
1.120912574156796
 40
1.120912574156796
 40
1.120912574156796
 10
5.462421249285601
 20
16.59153971024976
 10
5.440474050446749
 20
16.5866467377012
 10
5.398568148930419
 20
16.58783059721496
 10
5.360775337476106
 20
16.6199934506042
 10
5.34242120739702
 20
16.63799908087974
 72
     1
 10
5.34242120739702
 20
16.63799908087974
 11
5.342421249285624
 21
15.42693232978164
 72
     2
 10
5.432421249285628
 20
15.42693233289458
 40
0.0900000000000041
 50
180.0000019817598
 51
221.4096221092745
 73
     1
 72
     2
 10
5.342421249285632
 20
15.34755979356263
 40
0.0300000000000028
 50
318.590377890719
 51
359.9999999999932
 73
     0
 72
     1
 10
5.372421249285633
 20
15.34755979356264
 11
5.372421249285633
 21
15.13036422991197
 72
     2
 10
5.26242124928563
 20
15.13036422991197
 40
0.1100000000000029
 50
360.0
 51
448.0000013627395
 73
     0
 72
     1
 10
5.266260191308226
 20
15.02043123884856
 11
5.067421249285654
 21
15.01348763472322
 72
     1
 10
5.067421249285654
 20
15.01348763472322
 11
5.067421249285647
 21
14.95672566063214
 72
     1
 10
5.067421249285647
 20
14.95672566063214
 11
5.107421249285653
 21
14.95532882985248
 72
     1
 10
5.107421249285653
 20
14.95532882985248
 11
5.107421249285653
 21
14.90812249141182
 72
     1
 10
5.107421249285653
 20
14.90812249141182
 11
5.067421249285647
 21
14.90672566063215
 72
     1
 10
5.067421249285647
 20
14.90672566063215
 11
5.067421249285633
 21
14.86672566063217
 72
     2
 10
5.067421249285636
 20
14.99172566063217
 40
0.1250000000000003
 50
269.9999999999983
 51
328.9062689609977
 73
     1
 72
     1
 10
5.174461698717848
 20
14.92717070586222
 11
5.269401148626133
 21
14.93048606450815
 72
     2
 10
5.26242124928563
 20
15.13036422991197
 40
0.1999999999999982
 50
272.000000000001
 51
359.9999999999959
 73
     1
 72
     1
 10
5.462421249285629
 20
15.13036422991195
 11
5.46242124928565
 21
15.42917080164525
 72
     1
 10
5.46242124928565
 20
15.42917080164525
 11
5.452421263398324
 21
15.42917086782051
 72
     1
 10
5.452421263398324
 20
15.42917086782051
 11
5.452421263398324
 21
15.46017085637266
 72
     1
 10
5.452421263398324
 20
15.46017085637266
 11
5.46242124928565
 21
15.46017080164528
 72
     1
 10
5.46242124928565
 20
15.46017080164528
 11
5.462421249285629
 21
16.22680247488282
 97
        0
 75
     0
 76
     1
 52
90.0
 41
0.75
 77
     0
 78
     1
 53
135.0
 43
-11.19166851719371
 44
-1.168974300005334
 45
-0.0662912607362388
 46
-0.0662912607362388
 79
     0
 47
0.0049910981360877
 98
        1
 10
5.42374317481104
 20
15.77006013619729
  0
DIMENSION
  5
12E8
330
1E
100
AcDbEntity
  8
0
100
AcDbDimension
  2
*D34
 10
4.147421249285692
 20
16.52100108793775
 30
0.0
 11
3.128969254060586
 21
16.52100108793775
 31
0.0
 70
   160
 71
     5
 42
0.110000000000003
  3
STANDARD
100
AcDbAlignedDimension
 13
4.037421249285689
 23
16.66015533880763
 33
0.0
 14
4.147421249285692
 24
16.70689215101904
 34
0.0
 50
180.0
100
AcDbRotatedDimension
1001
ACAD
1000
DSTYLE
1002
{
1070
   141
1040
0.0
1002
}
  0
DIMENSION
  5
171F
330
1E
100
AcDbEntity
  8
0
100
AcDbDimension
  2
*D35
 10
27.58909509939066
 20
12.99224269150473
 30
0.0
 11
23.7005082102353
 21
12.99224269150473
 31
0.0
 70
    32
 71
     5
 42
7.777173778310732
  3
STANDARD
100
AcDbAlignedDimension
 13
19.81192132107993
 23
12.22950710671812
 33
0.0
 14
27.58909509939066
 24
12.22950710671835
 34
0.0
100
AcDbRotatedDimension
  0
DIMENSION
  5
1794
330
1E
100
AcDbEntity
  8
0
100
AcDbDimension
  2
*D36
 10
7.517512865421267
 20
14.41209356734979
 30
0.0
 11
12.12659589665882
 21
14.41209356734979
 31
0.0
 70
   160
 71
     5
 42
9.179890282026207
  3
STANDARD
100
AcDbAlignedDimension
 13
16.69740314744747
 23
16.98667080164524
 33
0.0
 14
7.517512865421267
 24
16.98667080164521
 34
0.0
 50
359.9999999999996
100
AcDbRotatedDimension
1001
ACAD
1000
DSTYLE
1002
{
1070
   141
1040
0.0
1002
}
  0
DIMENSION
  5
17DA
330
1E
100
AcDbEntity
  8
0
100
AcDbDimension
  2
*D37
 10
6.33833410144884
 20
11.42823786426302
 30
0.0
 11
6.338334101448838
 21
12.26573786426303
 31
0.0
 70
    32
 71
     5
 42
1.675000000000009
  3
STANDARD
100
AcDbAlignedDimension
 13
8.390271281657465
 23
13.10323786426303
 33
0.0
 14
7.730247938246764
 24
11.42823786426302
 34
0.0
 50
90.0
100
AcDbRotatedDimension
  0
INSERT
  5
1A56
330
1E
100
AcDbEntity
  8
TITLE
100
AcDbBlockReference
 66
     1
  2
C
 10
0.0
 20
0.0
 30
0.0
 41
1.375
 42
1.375
 43
1.375
  0
ATTRIB
  5
1A58
330
1A56
100
AcDbEntity
  8
TEXT
100
AcDbText
 10
22.54962258419554
 20
0.7416819377243654
 30
0.0
 40
0.171875
  1
BT
 41
0.75
 72
     1
 11
22.65704445919554
 21
0.7416819377243654
 31
0.0
100
AcDbAttribute
  2
NAME
 70
     0
  0
ATTRIB
  5
1A59
330
1A56
100
AcDbEntity
  8
TEXT
100
AcDbText
 10
23.19425415493581
 20
0.7416819377243654
 30
0.0
 40
0.171875
  1
5-25-07
 41
0.75
 72
     1
 11
23.6131994674358
 21
0.7416819377243654
 31
0.0
100
AcDbAttribute
  2
DATE
 70
     0
  0
ATTRIB
  5
1A5A
330
1A56
100
AcDbEntity
  8
TEXT
100
AcDbText
 10
27.49466885006105
 20
0.9770843738293667
 30
0.0
 40
0.171875
  1
PLASTICASE
 41
0.75
 72
     1
 11
28.09623135006105
 21
0.9770843738293667
 31
0.0
100
AcDbAttribute
  2
TITLE1
 70
     0
  0
ATTRIB
  5
1A5B
330
1A56
100
AcDbEntity
  8
TEXT
100
AcDbText
 10
27.58060635006105
 20
0.6867813579057075
 30
0.0
 40
0.171875
  1
(STYLE H)
 41
0.75
 72
     1
 11
28.09623135006105
 21
0.6867813579057075
 31
0.0
100
AcDbAttribute
  2
TITLE2
 70
     0
  0
ATTRIB
  5
1A5C
330
1A56
100
AcDbEntity
  8
TEXT
100
AcDbText
 10
27.81693418402321
 20
0.1460584581010705
 30
0.0
 40
0.2145
  1
PC-11640
 41
0.7500000000000001
 72
     1
 11
28.36659043402321
 21
0.1460584581010705
 31
0.0
100
AcDbAttribute
  2
PART
 70
     0
  0
ATTRIB
  5
1A5D
330
1A56
100
AcDbEntity
  8
TEXT
100
AcDbText
 10
27.81693418402321
 20
21.04113114955016
 30
0.0
 40
0.2145
  1
PC-11640
 41
0.7500000000000001
 72
     1
 11
28.36659043402321
 21
21.04113114955016
 31
0.0
100
AcDbAttribute
  2
PART
 70
     0
  0
ATTRIB
  5
1A5E
330
1A56
100
AcDbEntity
  8
TEXT
100
AcDbText
 10
16.57823420570727
 20
1.625266960759146
 30
0.0
 40
0.171875
  1

 41
4.93641642638573
 72
     5
 11
21.9517291698459
 21
1.625266960759146
 31
0.0
100
AcDbAttribute
  2
CUTSIZE
 70
     0
  0
ATTRIB
  5
1A5F
330
1A56
100
AcDbEntity
  8
TEXT
100
AcDbText
 10
16.76725969755231
 20
0.3943208870716395
 30
0.0
 40
0.171875
  1

 41
0.75
 72
     1
 11
16.76725969755231
 21
0.3943208870716395
 31
0.0
100
AcDbAttribute
  2
QTY
 70
     0
  0
ATTRIB
  5
1A60
330
1A56
100
AcDbEntity
  8
TEXT
100
AcDbText
 10
18.06619952847462
 20
0.3943208870716395
 30
0.0
 40
0.171875
  1

 41
0.75
 72
     1
 11
18.06619952847462
 21
0.3943208870716395
 31
0.0
100
AcDbAttribute
  2
USED
 70
     0
  0
ATTRIB
  5
1A61
330
1A56
100
AcDbEntity
  8
TEXT
100
AcDbText
 10
22.99547418150679
 20
1.313857010221573
 30
0.0
 40
0.171875
  1
AS NOTED
 41
0.75
 72
     1
 11
23.48961480650679
 21
1.313857010221573
 31
0.0
100
AcDbAttribute
  2
MAT
 70
     0
  0
ATTRIB
  5
1A62
330
1A56
100
AcDbEntity
  8
TEXT
100
AcDbText
 10
22.99547418150679
 20
1.022524535808411
 30
0.0
 40
0.171875
  1
AS NOTED
 41
0.75
 72
     1
 11
23.48961480650679
 21
1.022524535808411
 31
0.0
100
AcDbAttribute
  2
FINISH
 70
     0
  0
SEQEND
  5
1A57
330
1A56
100
AcDbEntity
  8
TITLE
  0
MTEXT
  5
1E16
330
1E
100
AcDbEntity
  8
0
 62
     4
100
AcDbMText
 10
16.84545895479868
 20
6.677984643230708
 30
0.0
 40
0.25
 41
0.0
 71
     1
 72
     1
  1
{\Fgdt.shx;q}
  7
SLDTEXTSTYLE4
 73
     1
 44
1.0
1001
ACAD
1000
MTEXTBEGIN
1070
    73
1070
     1
1070
    44
1040
1.0
1070
    74
1070
     0
1000
MTEXTEND
  0
MTEXT
  5
1E17
330
1E
100
AcDbEntity
  8
0
 62
     4
100
AcDbMText
 10
12.05171287994772
 20
20.41390560338459
 30
0.0
 40
0.25
 41
0.0
 71
     1
 72
     1
  1
{\Fgdt.shx;q}
  7
SLDTEXTSTYLE4
 73
     1
 44
1.0
1001
ACAD
1000
MTEXTBEGIN
1070
    73
1070
     1
1070
    44
1040
1.0
1070
    74
1070
     0
1000
MTEXTEND
  0
MTEXT
  5
1E18
330
1E
100
AcDbEntity
  8
0
 62
     4
100
AcDbMText
 10
16.84545895479863
 20
17.61171673402778
 30
0.0
 40
0.25
 41
0.0
 71
     1
 72
     1
  1
{\Fgdt.shx;q}
  7
SLDTEXTSTYLE4
 73
     1
 44
1.0
1001
ACAD
1000
MTEXTBEGIN
1070
    73
1070
     1
1070
    44
1040
1.0
1070
    74
1070
     0
1000
MTEXTEND
  0
MTEXT
  5
1E4F
330
1E
100
AcDbEntity
  8
0
100
AcDbMText
 10
23.08593462343844
 20
6.883015920301431
 30
0.0
 40
0.187
 41
5.718999999999999
 71
     1
 72
     5
  3
{\C4;NOTES:\P  1) PC BOARD BOSSES WILL ACCEPT A\P      #4 X 1/4" THREAD FORMING SCREW\P  2) MATERIAL: ABS - UL94V-0\P  3) FINISH: BLACK TEXTURE\P  4) * * DIMENSIONS ARE TO THEORETICAL\P      SHARP CORNERS.\P  5) INCLUDES (4) #4-24 x 1.0 HI-LOW\P     
  1
 THREAD FORMING, CSK, OVAL HEAD,\P      PHILLIPS DRIVE SCREWS FOR\P      ATTACHING BODY TO COVER\P      (MAX TORQUE 4.5 IN-LBS)}
  7
STANDARD
 73
     1
 44
1.0
1001
ACAD
1000
MTEXTBEGIN
1070
    73
1070
     1
1070
    44
1040
1.0
1070
    74
1070
     0
1000
MTEXTEND
  0
ENDSEC
  0
SECTION
  2
OBJECTS
  0
DICTIONARY
  5
C
330
0
100
AcDbDictionary
281
     1
  3
ACAD_GROUP
350
D
  3
ACAD_LAYOUT
350
19
  3
ACAD_MLINESTYLE
350
16
  3
ACAD_PLOTSETTINGS
350
18
  3
ACAD_PLOTSTYLENAME
350
E
  3
AcadDim
350
56
  3
AcDbVariableDictionary
350
129F
  3
ASE_INDEX_DICTIONARY
350
10E6
  0
DICTIONARY
  5
D
102
{ACAD_REACTORS
330
C
102
}
330
C
100
AcDbDictionary
281
     1
  0
DICTIONARY
  5
19
102
{ACAD_REACTORS
330
C
102
}
330
C
100
AcDbDictionary
281
     1
  3
Layout1
350
1D
  3
Model
350
21
  0
DICTIONARY
  5
16
102
{ACAD_REACTORS
330
C
102
}
330
C
100
AcDbDictionary
281
     1
  3
Standard
350
17
  0
DICTIONARY
  5
18
102
{ACAD_REACTORS
330
C
102
}
330
C
100
AcDbDictionary
281
     1
  3
HP LASERJET 1100 A-SIZE PLOT
350
2B8
  3
HP LaserJet 1100 C-size Plot
350
2BB
  3
HP LASERJET 5000 A-SIZE PLOT
350
2BE
  3
HP LaserJet 5000 C-size Plot
350
2C1
  0
ACDBDICTIONARYWDFLT
  5
E
102
{ACAD_REACTORS
330
C
102
}
330
C
100
AcDbDictionary
281
     1
  3
Normal
350
F
100
AcDbDictionaryWithDefault
340
F
  0
XRECORD
  5
56
102
{ACAD_REACTORS
330
C
102
}
330
C
100
AcDbXrecord
280
     1
 90
   990106
  3

 60
     0
 61
     0
 62
     1
 63
     1
 64
     0
 65
     0
 66
     0
 67
     3
 68
     1
 69
     0
 70
     0
 71
     0
 72
     0
 40
0.0
170
     2
  0
DICTIONARY
  5
129F
102
{ACAD_REACTORS
330
C
102
}
330
C
100
AcDbDictionary
281
     1
  3
SORTENTS
350
12A0
  0
DICTIONARY
  5
10E6
102
{ACAD_REACTORS
330
C
102
}
330
C
100
AcDbDictionary
281
     1
  3
ASEBlockHierarchyIndexRecord
350
10E7
1001
DCO15
1040
1593515507.374999
  0
LAYOUT
  5
1D
102
{ACAD_REACTORS
330
19
102
}
330
19
100
AcDbPlotSettings
  1

  2
C:\Program Files\ACAD2000\plotters\DWF ePlot.pc3
  4

  6

 40
0.0
 41
0.0
 42
0.0
 43
0.0
 44
0.0
 45
0.0
 46
0.0
 47
0.0
 48
0.0
 49
0.0
140
0.0
141
0.0
142
1.0
143
1.0
 70
   688
 72
     0
 73
     0
 74
     5
  7
monochrome.ctb
 75
    16
147
1.0
148
0.0
149
0.0
100
AcDbLayout
  1
Layout1
 70
     1
 71
     1
 10
0.0
 20
0.0
 11
12.0
 21
9.0
 12
0.0
 22
0.0
 32
0.0
 14
1.000000000000000E+20
 24
1.000000000000000E+20
 34
1.000000000000000E+20
 15
-1.000000000000000E+20
 25
-1.000000000000000E+20
 35
-1.000000000000000E+20
146
0.0
 13
0.0
 23
0.0
 33
0.0
 16
1.0
 26
0.0
 36
0.0
 17
0.0
 27
1.0
 37
0.0
 76
     0
330
1A
  0
LAYOUT
  5
21
102
{ACAD_REACTORS
330
19
102
}
330
19
100
AcDbPlotSettings
  1

  2
RW-470WP.pc3
  4
User135
  6

 40
3.174999952316284
 41
3.174999952316284
 42
3.17498779296875
 43
3.17498779296875
 44
431.8000183105469
 45
558.7999877929687
 46
11.93799999999999
 47
0.0
 48
0.0
 49
0.0
140
0.0
141
0.0
142
1.0
143
1.359353149973157
 70
 11956
 72
     0
 73
     1
 74
     1
  7
monochrome.ctb
 75
     0
147
0.7356440083430465
148
0.0744657130562672
149
0.0364085680556784
100
AcDbLayout
  1
Model
 70
     1
 71
     0
 10
0.0
 20
0.0
 11
12.0
 21
9.0
 12
0.0
 22
0.0
 32
0.0
 14
0.0
 24
0.0
 34
0.0
 15
0.0
 25
0.0
 35
0.0
146
0.0
 13
0.0
 23
0.0
 33
0.0
 16
1.0
 26
0.0
 36
0.0
 17
0.0
 27
1.0
 37
0.0
 76
     0
330
1E
  0
MLINESTYLE
  5
17
102
{ACAD_REACTORS
330
16
102
}
330
16
100
AcDbMlineStyle
  2
STANDARD
 70
     0
  3

 62
   256
 51
90.0
 52
90.0
 71
     2
 49
0.5
 62
   256
  6
BYLAYER
 49
-0.5
 62
   256
  6
BYLAYER
  0
PLOTSETTINGS
  5
2B8
102
{ACAD_XDICTIONARY
360
2B9
102
}
102
{ACAD_REACTORS
330
18
102
}
330
18
100
AcDbPlotSettings
  1

  2
HP LaserJet 1100
  4
Letter
  6

 40
7.143749713897705
 41
5.619739055633544
 42
7.14373779296875
 43
7.14373779296875
 44
215.8999938964843
 45
279.3999938964843
 46
0.0
 47
1.016
 48
0.0
 49
0.0
140
10.49999999999999
141
7.999999999999997
142
1.0
143
1.007873983805916
 70
   688
 72
     0
 73
     0
 74
     5
  7
monochrome.ctb
 75
    16
147
0.9921875314449703
148
0.0
149
0.0
  0
PLOTSETTINGS
  5
2BB
102
{ACAD_XDICTIONARY
360
2BC
102
}
102
{ACAD_REACTORS
330
18
102
}
330
18
100
AcDbPlotSettings
  1
HP LaserJet 1100 C-size Plot
  2
HP LaserJet 1100
  4
Letter
  6

 40
7.143749713897705
 41
5.619739055633544
 42
7.14373779296875
 43
7.14373779296875
 44
215.8999938964843
 45
279.3999938964843
 46
0.0
 47
2.794
 48
0.0
 49
0.0
140
21.89999999999999
141
16.89999999999999
142
1.0
143
2.129133790789998
 70
  1716
 72
     0
 73
     1
 74
     4
  7
monochrome.ctb
 75
     0
147
0.4696745710982107
148
0.0
149
0.0
  0
PLOTSETTINGS
  5
2BE
102
{ACAD_XDICTIONARY
360
2BF
102
}
102
{ACAD_REACTORS
330
18
102
}
330
18
100
AcDbPlotSettings
  1

  2
HP LaserJet 5000 Series PCL 6
  4
Letter
  6

 40
5.027083396911621
 41
5.027085304260253
 42
5.027084350585937
 43
5.027069091796875
 44
215.8999938964843
 45
279.3999938964843
 46
1.27
 47
1.27
 48
0.0
 49
0.0
140
10.49999999999999
141
7.999999999999997
142
1.0
143
1.0
 70
   688
 72
     0
 73
     0
 74
     5
  7
monochrome.ctb
 75
    16
147
1.0
148
0.0
149
0.0
  0
PLOTSETTINGS
  5
2C1
102
{ACAD_XDICTIONARY
360
2C2
102
}
102
{ACAD_REACTORS
330
18
102
}
330
18
100
AcDbPlotSettings
  1
HP LaserJet 5000 C-size Plot
  2
HP LaserJet 5000 Series PCL 6
  4
11x17
  6

 40
5.027083396911621
 41
5.027085304260253
 42
5.027099609375
 43
5.027069091796875
 44
279.3999938964843
 45
431.7999877929687
 46
0.0
 47
36.32199999999999
 48
0.0
 49
0.0
140
21.89999999999999
141
16.89999999999999
142
1.0
143
1.593713295860366
 70
  1716
 72
     0
 73
     1
 74
     4
  7
monochrome.ctb
 75
     0
147
0.6274654309513995
148
0.0
149
0.0
  0
ACDBPLACEHOLDER
  5
F
102
{ACAD_REACTORS
330
E
102
}
330
E
  0
DICTIONARYVAR
  5
12A0
102
{ACAD_REACTORS
330
129F
102
}
330
129F
100
DictionaryVariables
280
     0
  1
96
  0
XRECORD
  5
10E7
102
{ACAD_REACTORS
330
10E6
102
}
330
10E6
100
AcDbXrecord
280
     1
330
1A56
  0
DICTIONARY
  5
2B9
330
2B8
100
AcDbDictionary
280
     1
281
     1
  3
ACAD_XREC_ROUNDTRIP
360
2BA
  0
DICTIONARY
  5
2BC
330
2BB
100
AcDbDictionary
280
     1
281
     1
  3
ACAD_XREC_ROUNDTRIP
360
2BD
  0
DICTIONARY
  5
2BF
330
2BE
100
AcDbDictionary
280
     1
281
     1
  3
ACAD_XREC_ROUNDTRIP
360
2C0
  0
DICTIONARY
  5
2C2
330
2C1
100
AcDbDictionary
280
     1
281
     1
  3
ACAD_XREC_ROUNDTRIP
360
2C3
  0
XRECORD
  5
2BA
102
{ACAD_REACTORS
330
2B9
102
}
330
2B9
100
AcDbXrecord
280
     1
102
SHADEPLOT
 70
     0
102
SHADEPLOTRESLEVEL
 70
     2
102
SHADEPLOTCUSTOMDPI
 70
   300
  0
XRECORD
  5
2BD
102
{ACAD_REACTORS
330
2BC
102
}
330
2BC
100
AcDbXrecord
280
     1
102
SHADEPLOT
 70
     0
102
SHADEPLOTRESLEVEL
 70
     2
102
SHADEPLOTCUSTOMDPI
 70
   300
  0
XRECORD
  5
2C0
102
{ACAD_REACTORS
330
2BF
102
}
330
2BF
100
AcDbXrecord
280
     1
102
SHADEPLOT
 70
     0
102
SHADEPLOTRESLEVEL
 70
     2
102
SHADEPLOTCUSTOMDPI
 70
   300
  0
XRECORD
  5
2C3
102
{ACAD_REACTORS
330
2C2
102
}
330
2C2
100
AcDbXrecord
280
     1
102
SHADEPLOT
 70
     0
102
SHADEPLOTRESLEVEL
 70
     2
102
SHADEPLOTCUSTOMDPI
 70
   300
  0
ENDSEC
  0
EOF
