  0
SECTION
  2
HEADER
  9
$ACADVER
  1
AC1015
  9
$ACADMAINTVER
 70
     6
  9
$DWGCODEPAGE
  3
ANSI_1252
  9
$INSBASE
 10
0.0
 20
0.0
 30
0.0
  9
$EXTMIN
 10
-0.0027010571251793
 20
-0.0014413990553805
 30
-0.0000000100019834
  9
$EXTMAX
 10
29.56307587171527
 20
21.48457853785206
 30
0.0000000100019837
  9
$LIMMIN
 10
0.0
 20
0.0
  9
$LIMMAX
 10
44.25682121267861
 20
23.61732363800011
  9
$ORTHOMODE
 70
     1
  9
$REGENMODE
 70
     1
  9
$FILLMODE
 70
     1
  9
$QTEXTMODE
 70
     0
  9
$MIRRTEXT
 70
     0
  9
$LTSCALE
 40
0.75
  9
$ATTMODE
 70
     1
  9
$TEXTSIZE
 40
0.125
  9
$TRACEWID
 40
0.05
  9
$TEXTSTYLE
  7
TXT
  9
$CLAYER
  8
0
  9
$CELTYPE
  6
ByLayer
  9
$CECOLOR
 62
   256
  9
$CELTSCALE
 40
1.0
  9
$DISPSILH
 70
     0
  9
$DIMSCALE
 40
1.375
  9
$DIMASZ
 40
0.18
  9
$DIMEXO
 40
0.0625
  9
$DIMDLI
 40
0.38
  9
$DIMRND
 40
0.0
  9
$DIMDLE
 40
0.0
  9
$DIMEXE
 40
0.1
  9
$DIMTP
 40
0.0
  9
$DIMTM
 40
0.0
  9
$DIMTXT
 40
0.125
  9
$DIMCEN
 40
0.03
  9
$DIMTSZ
 40
0.0
  9
$DIMTOL
 70
     0
  9
$DIMLIM
 70
     0
  9
$DIMTIH
 70
     1
  9
$DIMTOH
 70
     1
  9
$DIMSE1
 70
     0
  9
$DIMSE2
 70
     0
  9
$DIMTAD
 70
     0
  9
$DIMZIN
 70
     0
  9
$DIMBLK
  1

  9
$DIMASO
 70
     1
  9
$DIMSHO
 70
     1
  9
$DIMPOST
  1

  9
$DIMAPOST
  1

  9
$DIMALT
 70
     0
  9
$DIMALTD
 70
     2
  9
$DIMALTF
 40
25.4
  9
$DIMLFAC
 40
1.0
  9
$DIMTOFL
 70
     0
  9
$DIMTVP
 40
0.0
  9
$DIMTIX
 70
     0
  9
$DIMSOXD
 70
     0
  9
$DIMSAH
 70
     0
  9
$DIMBLK1
  1

  9
$DIMBLK2
  1

  9
$DIMSTYLE
  2
STANDARD
  9
$DIMCLRD
 70
     1
  9
$DIMCLRE
 70
     1
  9
$DIMCLRT
 70
     4
  9
$DIMTFAC
 40
1.0
  9
$DIMGAP
 40
0.09
  9
$DIMJUST
 70
     0
  9
$DIMSD1
 70
     0
  9
$DIMSD2
 70
     0
  9
$DIMTOLJ
 70
     1
  9
$DIMTZIN
 70
     0
  9
$DIMALTZ
 70
     0
  9
$DIMALTTZ
 70
     0
  9
$DIMUPT
 70
     0
  9
$DIMDEC
 70
     3
  9
$DIMTDEC
 70
     3
  9
$DIMALTU
 70
     2
  9
$DIMALTTD
 70
     2
  9
$DIMTXSTY
  7
STANDARD
  9
$DIMAUNIT
 70
     1
  9
$DIMADEC
 70
     0
  9
$DIMALTRND
 40
0.0
  9
$DIMAZIN
 70
     0
  9
$DIMDSEP
 70
    46
  9
$DIMATFIT
 70
     3
  9
$DIMFRAC
 70
     0
  9
$DIMLDRBLK
  1

  9
$DIMLUNIT
 70
     2
  9
$DIMLWD
 70
    -2
  9
$DIMLWE
 70
    -2
  9
$DIMTMOVE
 70
     0
  9
$LUNITS
 70
     2
  9
$LUPREC
 70
     3
  9
$SKETCHINC
 40
0.1
  9
$FILLETRAD
 40
0.0
  9
$AUNITS
 70
     0
  9
$AUPREC
 70
     0
  9
$MENU
  1
acad
  9
$ELEVATION
 40
0.0
  9
$PELEVATION
 40
0.0
  9
$THICKNESS
 40
0.0
  9
$LIMCHECK
 70
     0
  9
$CHAMFERA
 40
0.0
  9
$CHAMFERB
 40
0.0
  9
$CHAMFERC
 40
0.0
  9
$CHAMFERD
 40
0.0
  9
$SKPOLY
 70
     0
  9
$TDCREATE
 40
2454246.624156713
  9
$TDUCREATE
 40
2454246.790823379
  9
$TDUPDATE
 40
2454256.336965208
  9
$TDUUPDATE
 40
2454256.503631875
  9
$TDINDWG
 40
0.0851007292
  9
$TDUSRTIMER
 40
0.0851007292
  9
$USRTIMER
 70
     1
  9
$ANGBASE
 50
0.0
  9
$ANGDIR
 70
     0
  9
$PDMODE
 70
     0
  9
$PDSIZE
 40
0.0
  9
$PLINEWID
 40
0.0
  9
$SPLFRAME
 70
     0
  9
$SPLINETYPE
 70
     6
  9
$SPLINESEGS
 70
     8
  9
$HANDSEED
  5
22F0
  9
$SURFTAB1
 70
     6
  9
$SURFTAB2
 70
     6
  9
$SURFTYPE
 70
     6
  9
$SURFU
 70
     6
  9
$SURFV
 70
     6
  9
$UCSBASE
  2

  9
$UCSNAME
  2

  9
$UCSORG
 10
0.0
 20
0.0
 30
0.0
  9
$UCSXDIR
 10
1.0
 20
0.0
 30
0.0
  9
$UCSYDIR
 10
0.0
 20
1.0
 30
0.0
  9
$UCSORTHOREF
  2

  9
$UCSORTHOVIEW
 70
     0
  9
$UCSORGTOP
 10
0.0
 20
0.0
 30
0.0
  9
$UCSORGBOTTOM
 10
0.0
 20
0.0
 30
0.0
  9
$UCSORGLEFT
 10
0.0
 20
0.0
 30
0.0
  9
$UCSORGRIGHT
 10
0.0
 20
0.0
 30
0.0
  9
$UCSORGFRONT
 10
0.0
 20
0.0
 30
0.0
  9
$UCSORGBACK
 10
0.0
 20
0.0
 30
0.0
  9
$PUCSBASE
  2

  9
$PUCSNAME
  2

  9
$PUCSORG
 10
0.0
 20
0.0
 30
0.0
  9
$PUCSXDIR
 10
1.0
 20
0.0
 30
0.0
  9
$PUCSYDIR
 10
0.0
 20
1.0
 30
0.0
  9
$PUCSORTHOREF
  2

  9
$PUCSORTHOVIEW
 70
     0
  9
$PUCSORGTOP
 10
0.0
 20
0.0
 30
0.0
  9
$PUCSORGBOTTOM
 10
0.0
 20
0.0
 30
0.0
  9
$PUCSORGLEFT
 10
0.0
 20
0.0
 30
0.0
  9
$PUCSORGRIGHT
 10
0.0
 20
0.0
 30
0.0
  9
$PUCSORGFRONT
 10
0.0
 20
0.0
 30
0.0
  9
$PUCSORGBACK
 10
0.0
 20
0.0
 30
0.0
  9
$USERI1
 70
     0
  9
$USERI2
 70
     0
  9
$USERI3
 70
     0
  9
$USERI4
 70
     0
  9
$USERI5
 70
     0
  9
$USERR1
 40
0.0
  9
$USERR2
 40
0.0
  9
$USERR3
 40
0.0
  9
$USERR4
 40
0.0
  9
$USERR5
 40
0.0
  9
$WORLDVIEW
 70
     1
  9
$SHADEDGE
 70
     3
  9
$SHADEDIF
 70
    70
  9
$TILEMODE
 70
     1
  9
$MAXACTVP
 70
    16
  9
$PINSBASE
 10
0.0
 20
0.0
 30
0.0
  9
$PLIMCHECK
 70
     0
  9
$PEXTMIN
 10
1.000000000000000E+20
 20
1.000000000000000E+20
 30
1.000000000000000E+20
  9
$PEXTMAX
 10
-1.000000000000000E+20
 20
-1.000000000000000E+20
 30
-1.000000000000000E+20
  9
$PLIMMIN
 10
0.0
 20
0.0
  9
$PLIMMAX
 10
12.0
 20
9.0
  9
$UNITMODE
 70
     0
  9
$VISRETAIN
 70
     0
  9
$PLINEGEN
 70
     0
  9
$PSLTSCALE
 70
     1
  9
$TREEDEPTH
 70
  3020
  9
$CMLSTYLE
  2
Standard
  9
$CMLJUST
 70
     0
  9
$CMLSCALE
 40
1.0
  9
$PROXYGRAPHICS
 70
     1
  9
$MEASUREMENT
 70
     0
  9
$CELWEIGHT
370
    -1
  9
$ENDCAPS
280
     0
  9
$JOINSTYLE
280
     0
  9
$LWDISPLAY
290
     0
  9
$INSUNITS
 70
     0
  9
$HYPERLINKBASE
  1

  9
$STYLESHEET
  1
monochrome.ctb
  9
$XEDIT
290
     1
  9
$CEPSNTYPE
380
     0
  9
$PSTYLEMODE
290
     1
  9
$FINGERPRINTGUID
  2
{5F9F434B-8232-11D3-80AD-00C04F604D1B}
  9
$VERSIONGUID
  2
{647892A3-7800-485A-BEB2-B8DD74369EAA}
  9
$EXTNAMES
290
     1
  9
$PSVPSCALE
 40
0.0
  9
$OLESTARTUP
290
     0
  0
ENDSEC
  0
SECTION
  2
CLASSES
  0
CLASS
  1
ACDBDICTIONARYWDFLT
  2
AcDbDictionaryWithDefault
  3
AutoCAD 2000
 90
        0
280
     0
281
     0
  0
CLASS
  1
ACDBPLACEHOLDER
  2
AcDbPlaceHolder
  3
AutoCAD 2000
 90
        0
280
     0
281
     0
  0
CLASS
  1
LAYOUT
  2
AcDbLayout
  3
AutoCAD 2000
 90
        0
280
     0
281
     0
  0
CLASS
  1
PLOTSETTINGS
  2
AcDbPlotSettings
  3
AutoCAD 2000
 90
        0
280
     0
281
     0
  0
CLASS
  1
DICTIONARYVAR
  2
AcDbDictionaryVar
  3
AutoCAD 2000
 90
        0
280
     0
281
     0
  0
ENDSEC
  0
SECTION
  2
TABLES
  0
TABLE
  2
VPORT
  5
8
330
0
100
AcDbSymbolTable
 70
     4
  0
VPORT
  5
22EF
330
8
100
AcDbSymbolTableRecord
100
AcDbViewportTableRecord
  2
*Active
 70
     0
 10
0.0
 20
0.0
 11
1.0
 21
1.0
 12
14.78018740729504
 22
10.74156856939833
 13
0.0
 23
0.0
 14
0.125
 24
0.125
 15
0.25
 25
0.25
 16
0.0
 26
0.0
 36
1.0
 17
0.0
 27
0.0
 37
0.0
 40
21.64323471693359
 41
1.536019536019536
 42
50.0
 43
0.0
 44
0.0
 50
0.0
 51
0.0
 71
     0
 72
   100
 73
     1
 74
     0
 75
     0
 76
     0
 77
     0
 78
     0
281
     0
 65
     1
110
0.0
120
0.0
130
0.0
111
1.0
121
0.0
131
0.0
112
0.0
122
1.0
132
0.0
 79
     0
146
0.0
  0
ENDTAB
  0
TABLE
  2
LTYPE
  5
5
330
0
100
AcDbSymbolTable
 70
     7
  0
LTYPE
  5
13
330
5
100
AcDbSymbolTableRecord
100
AcDbLinetypeTableRecord
  2
ByBlock
 70
     0
  3

 72
    65
 73
     0
 40
0.0
  0
LTYPE
  5
14
330
5
100
AcDbSymbolTableRecord
100
AcDbLinetypeTableRecord
  2
ByLayer
 70
     0
  3

 72
    65
 73
     0
 40
0.0
  0
LTYPE
  5
15
330
5
100
AcDbSymbolTableRecord
100
AcDbLinetypeTableRecord
  2
CONTINUOUS
 70
     0
  3
Solid line
 72
    65
 73
     0
 40
0.0
  0
LTYPE
  5
22
330
5
100
AcDbSymbolTableRecord
100
AcDbLinetypeTableRecord
  2
HIDDEN
 70
     0
  3
_ _ _ _ _ _ _ _ _ _ _ _ _ _ _ _ _ _ _ _ _ _ _
 72
    65
 73
     2
 40
0.375
 49
0.25
 74
     0
 49
-0.125
 74
     0
  0
LTYPE
  5
23
330
5
100
AcDbSymbolTableRecord
100
AcDbLinetypeTableRecord
  2
PHANTOM
 70
     0
  3
_____ _ _ _____ _ _ _____ _ _ _____ _ _ ____
 72
    65
 73
     6
 40
2.5
 49
1.25
 74
     0
 49
-0.25
 74
     0
 49
0.25
 74
     0
 49
-0.25
 74
     0
 49
0.25
 74
     0
 49
-0.25
 74
     0
  0
LTYPE
  5
24
330
5
100
AcDbSymbolTableRecord
100
AcDbLinetypeTableRecord
  2
CENTER
 70
     0
  3
____ _ ____ _ ____ _ ____ _ ____ _ ____ _ ____
 72
    65
 73
     4
 40
2.0
 49
1.25
 74
     0
 49
-0.25
 74
     0
 49
0.25
 74
     0
 49
-0.25
 74
     0
  0
LTYPE
  5
25
330
5
100
AcDbSymbolTableRecord
100
AcDbLinetypeTableRecord
  2
HIDDEN2
 70
     0
  3
_ _ _ _ _ _ _ _ _ _ _ _ _ _ _ _ _ _ _ _ _ _ _ _
 72
    65
 73
     2
 40
0.1875
 49
0.125
 74
     0
 49
-0.0625
 74
     0
  0
LTYPE
  5
26
330
5
100
AcDbSymbolTableRecord
100
AcDbLinetypeTableRecord
  2
PHANTOM2
 70
     0
  3
___ _ _ ___ _ _ ___ _ _ ___ _ _ ___ _ _ ___ _ _
 72
    65
 73
     6
 40
1.25
 49
0.625
 74
     0
 49
-0.125
 74
     0
 49
0.125
 74
     0
 49
-0.125
 74
     0
 49
0.125
 74
     0
 49
-0.125
 74
     0
  0
LTYPE
  5
2AB
330
5
100
AcDbSymbolTableRecord
100
AcDbLinetypeTableRecord
  2
CENTER2
 70
     0
  3
Center (.5x) ___ _ ___ _ ___ _ ___ _ ___ _ ___
 72
    65
 73
     4
 40
1.125
 49
0.75
 74
     0
 49
-0.125
 74
     0
 49
0.125
 74
     0
 49
-0.125
 74
     0
  0
ENDTAB
  0
TABLE
  2
LAYER
  5
2
330
0
100
AcDbSymbolTable
 70
     9
  0
LAYER
  5
10
330
2
100
AcDbSymbolTableRecord
100
AcDbLayerTableRecord
  2
0
 70
     0
 62
     7
  6
CONTINUOUS
370
    -3
390
F
  0
LAYER
  5
29
330
2
100
AcDbSymbolTableRecord
100
AcDbLayerTableRecord
  2
OBJECT
 70
     0
 62
     7
  6
CONTINUOUS
370
    -3
390
F
  0
LAYER
  5
2D
330
2
100
AcDbSymbolTableRecord
100
AcDbLayerTableRecord
  2
TEXT
 70
     0
 62
     1
  6
CONTINUOUS
370
    -3
390
F
  0
LAYER
  5
2E
330
2
100
AcDbSymbolTableRecord
100
AcDbLayerTableRecord
  2
TITLE
 70
     0
 62
     8
  6
CONTINUOUS
370
    -3
390
F
  0
LAYER
  5
2F
330
2
100
AcDbSymbolTableRecord
100
AcDbLayerTableRecord
  2
CENTER
 70
     0
 62
     3
  6
CENTER
370
    -3
390
F
  0
LAYER
  5
2AC
330
2
100
AcDbSymbolTableRecord
100
AcDbLayerTableRecord
  2
DEFPOINTS
 70
     0
 62
     7
  6
CONTINUOUS
290
     0
370
    -3
390
F
  0
LAYER
  5
2AD
330
2
100
AcDbSymbolTableRecord
100
AcDbLayerTableRecord
  2
ZN-40BMB
 70
     0
 62
    14
  6
CONTINUOUS
370
    -3
390
F
  0
LAYER
  5
2AE
330
2
100
AcDbSymbolTableRecord
100
AcDbLayerTableRecord
  2
ZN-40C
 70
     0
 62
    14
  6
CONTINUOUS
370
    -3
390
F
  0
LAYER
  5
2AF
330
2
100
AcDbSymbolTableRecord
100
AcDbLayerTableRecord
  2
ZN-40EP
 70
     0
 62
    14
  6
CONTINUOUS
370
    -3
390
F
  0
ENDTAB
  0
TABLE
  2
STYLE
  5
3
330
0
100
AcDbSymbolTable
 70
     3
  0
STYLE
  5
11
330
3
100
AcDbSymbolTableRecord
100
AcDbTextStyleTableRecord
  2
TXT
 70
     0
 40
0.0
 41
0.75
 50
0.0
 71
     0
 42
0.125
  3
TXT.shx
  4

  0
STYLE
  5
2B0
330
3
100
AcDbSymbolTableRecord
100
AcDbTextStyleTableRecord
  2
STANDARD
 70
     0
 40
0.0
 41
1.0
 50
0.0
 71
     0
 42
0.1
  3
ARIAL.TTF
  4

1001
ACAD
1000
Arial
1071
       34
  0
STYLE
  5
2B1
330
3
100
AcDbSymbolTableRecord
100
AcDbTextStyleTableRecord
  2
SLDTEXTSTYLE4
 70
     0
 40
0.0
 41
0.913
 50
0.0
 71
     0
 42
0.0
  3
Gothic.ttf
  4

1001
ACAD
1000
Century Gothic
1071
       34
  0
ENDTAB
  0
TABLE
  2
VIEW
  5
6
330
0
100
AcDbSymbolTable
 70
     0
  0
ENDTAB
  0
TABLE
  2
UCS
  5
7
330
0
100
AcDbSymbolTable
 70
     0
  0
ENDTAB
  0
TABLE
  2
APPID
  5
9
330
0
100
AcDbSymbolTable
 70
     2
  0
APPID
  5
12
330
9
100
AcDbSymbolTableRecord
100
AcDbRegAppTableRecord
  2
ACAD
 70
     0
  0
APPID
  5
2B7
330
9
100
AcDbSymbolTableRecord
100
AcDbRegAppTableRecord
  2
DCO15
 70
     0
  0
ENDTAB
  0
TABLE
  2
DIMSTYLE
  5
A
330
0
100
AcDbSymbolTable
 70
     7
100
AcDbDimStyleTable
 71
     5
340
2B2
340
2B5
340
2B3
340
2B6
340
38
  0
DIMSTYLE
105
38
330
A
100
AcDbSymbolTableRecord
100
AcDbDimStyleTableRecord
  2
23NSTD
 70
     0
 42
0.063
 43
0.281
 44
0.093
140
0.125
271
     3
272
     3
289
     1
340
11
  0
DIMSTYLE
105
2B2
102
{ACAD_REACTORS
330
3CB
330
3DC
330
460
330
49A
330
498
330
3CD
330
3CC
330
2EA
330
B78
330
B79
330
B7A
330
B7B
330
BC0
330
12E8
330
B0F
330
B17
330
B16
330
B29
330
B49
330
171F
330
1794
330
17DA
102
}
330
A
100
AcDbSymbolTableRecord
100
AcDbDimStyleTableRecord
  2
STANDARD
 70
     0
 40
1.375
 44
0.1
140
0.125
141
0.03
176
     1
177
     1
178
     4
271
     3
272
     3
275
     1
340
2B0
  0
DIMSTYLE
105
2B3
102
{ACAD_REACTORS
330
B7C
102
}
330
A
100
AcDbSymbolTableRecord
100
AcDbDimStyleTableRecord
  2
STANDARD$3
 70
     0
 40
1.375
 44
0.1
140
0.125
141
0.0
176
     1
177
     1
178
     4
271
     3
272
     3
275
     1
340
2B0
  0
DIMSTYLE
105
2B4
102
{ACAD_REACTORS
330
468
330
A6D
102
}
330
A
100
AcDbSymbolTableRecord
100
AcDbDimStyleTableRecord
  2
STANDARD$7
 70
     0
 40
1.375
 44
0.1
140
0.125
141
0.03
176
     1
177
     1
178
     4
271
     3
272
     3
275
     1
288
     1
340
2B0
  0
DIMSTYLE
105
2B5
102
{ACAD_REACTORS
330
BA5
330
BA6
102
}
330
A
100
AcDbSymbolTableRecord
100
AcDbDimStyleTableRecord
  2
SLDDIMSTYLE2
 70
     0
 41
0.156
 44
0.125
 78
     4
140
0.125
147
0.03125
173
     1
176
     7
177
     7
178
     7
271
     2
272
     2
284
    12
340
2B1
343
63
344
63
  0
DIMSTYLE
105
2B6
102
{ACAD_REACTORS
330
837
330
B39
330
B3F
102
}
330
A
100
AcDbSymbolTableRecord
100
AcDbDimStyleTableRecord
  2
STANDARD$4
 70
     0
 40
1.375
 44
0.1
140
0.125
141
0.0
176
     1
177
     1
178
     4
271
     3
272
     3
275
     1
340
2B0
  0
DIMSTYLE
105
1E49
330
A
100
AcDbSymbolTableRecord
100
AcDbDimStyleTableRecord
  2
SLDDIMSTYLE7
 70
     0
 41
0.125
 44
0.125
 78
     4
140
0.125
144
0.5
147
0.03125
176
     7
177
     7
178
     7
271
     3
272
     3
284
    12
340
2B0
  0
ENDTAB
  0
TABLE
  2
BLOCK_RECORD
  5
1
330
0
100
AcDbSymbolTable
 70
    39
  0
BLOCK_RECORD
  5
1E
330
1
100
AcDbSymbolTableRecord
100
AcDbBlockTableRecord
  2
*Model_Space
340
21
  0
BLOCK_RECORD
  5
1A
330
1
100
AcDbSymbolTableRecord
100
AcDbBlockTableRecord
  2
*Paper_Space
340
1D
  0
BLOCK_RECORD
  5
63
330
1
100
AcDbSymbolTableRecord
100
AcDbBlockTableRecord
  2
_NONE
340
0
  0
BLOCK_RECORD
  5
66
330
1
100
AcDbSymbolTableRecord
100
AcDbBlockTableRecord
  2
_DOT
340
0
  0
BLOCK_RECORD
  5
8E
330
1
100
AcDbSymbolTableRecord
100
AcDbBlockTableRecord
  2
*D2
340
0
  0
BLOCK_RECORD
  5
9B
330
1
100
AcDbSymbolTableRecord
100
AcDbBlockTableRecord
  2
*D3
340
0
  0
BLOCK_RECORD
  5
A9
330
1
100
AcDbSymbolTableRecord
100
AcDbBlockTableRecord
  2
*D4
340
0
  0
BLOCK_RECORD
  5
B6
330
1
100
AcDbSymbolTableRecord
100
AcDbBlockTableRecord
  2
*D5
340
0
  0
BLOCK_RECORD
  5
D0
330
1
100
AcDbSymbolTableRecord
100
AcDbBlockTableRecord
  2
*D6
340
0
  0
BLOCK_RECORD
  5
E9
330
1
100
AcDbSymbolTableRecord
100
AcDbBlockTableRecord
  2
*D7
340
0
  0
BLOCK_RECORD
  5
F6
330
1
100
AcDbSymbolTableRecord
100
AcDbBlockTableRecord
  2
*D8
340
0
  0
BLOCK_RECORD
  5
103
330
1
100
AcDbSymbolTableRecord
100
AcDbBlockTableRecord
  2
*D9
340
0
  0
BLOCK_RECORD
  5
13C
330
1
100
AcDbSymbolTableRecord
100
AcDbBlockTableRecord
  2
*D10
340
0
  0
BLOCK_RECORD
  5
149
330
1
100
AcDbSymbolTableRecord
100
AcDbBlockTableRecord
  2
*D11
340
0
  0
BLOCK_RECORD
  5
156
330
1
100
AcDbSymbolTableRecord
100
AcDbBlockTableRecord
  2
*D12
340
0
  0
BLOCK_RECORD
  5
163
330
1
100
AcDbSymbolTableRecord
100
AcDbBlockTableRecord
  2
*D13
340
0
  0
BLOCK_RECORD
  5
170
330
1
100
AcDbSymbolTableRecord
100
AcDbBlockTableRecord
  2
*D14
340
0
  0
BLOCK_RECORD
  5
17D
330
1
100
AcDbSymbolTableRecord
100
AcDbBlockTableRecord
  2
*D15
340
0
  0
BLOCK_RECORD
  5
18A
330
1
100
AcDbSymbolTableRecord
100
AcDbBlockTableRecord
  2
*D16
340
0
  0
BLOCK_RECORD
  5
197
330
1
100
AcDbSymbolTableRecord
100
AcDbBlockTableRecord
  2
*D17
340
0
  0
BLOCK_RECORD
  5
1C7
330
1
100
AcDbSymbolTableRecord
100
AcDbBlockTableRecord
  2
*D18
340
0
  0
BLOCK_RECORD
  5
1F3
330
1
100
AcDbSymbolTableRecord
100
AcDbBlockTableRecord
  2
*D19
340
0
  0
BLOCK_RECORD
  5
200
330
1
100
AcDbSymbolTableRecord
100
AcDbBlockTableRecord
  2
*D20
340
0
  0
BLOCK_RECORD
  5
20D
330
1
100
AcDbSymbolTableRecord
100
AcDbBlockTableRecord
  2
*D21
340
0
  0
BLOCK_RECORD
  5
21A
330
1
100
AcDbSymbolTableRecord
100
AcDbBlockTableRecord
  2
*D22
340
0
  0
BLOCK_RECORD
  5
228
330
1
100
AcDbSymbolTableRecord
100
AcDbBlockTableRecord
  2
*D23
340
0
  0
BLOCK_RECORD
  5
231
330
1
100
AcDbSymbolTableRecord
100
AcDbBlockTableRecord
  2
*D24
340
0
  0
BLOCK_RECORD
  5
23A
330
1
100
AcDbSymbolTableRecord
100
AcDbBlockTableRecord
  2
*D25
340
0
  0
BLOCK_RECORD
  5
248
330
1
100
AcDbSymbolTableRecord
100
AcDbBlockTableRecord
  2
*D26
340
0
  0
BLOCK_RECORD
  5
255
330
1
100
AcDbSymbolTableRecord
100
AcDbBlockTableRecord
  2
*D27
340
0
  0
BLOCK_RECORD
  5
262
330
1
100
AcDbSymbolTableRecord
100
AcDbBlockTableRecord
  2
*D28
340
0
  0
BLOCK_RECORD
  5
26F
330
1
100
AcDbSymbolTableRecord
100
AcDbBlockTableRecord
  2
*D29
340
0
  0
BLOCK_RECORD
  5
27C
330
1
100
AcDbSymbolTableRecord
100
AcDbBlockTableRecord
  2
*D30
340
0
  0
BLOCK_RECORD
  5
284
330
1
100
AcDbSymbolTableRecord
100
AcDbBlockTableRecord
  2
*D31
340
0
  0
BLOCK_RECORD
  5
28C
330
1
100
AcDbSymbolTableRecord
100
AcDbBlockTableRecord
  2
*D32
340
0
  0
BLOCK_RECORD
  5
29E
330
1
100
AcDbSymbolTableRecord
100
AcDbBlockTableRecord
  2
*D33
340
0
  0
BLOCK_RECORD
  5
12E9
330
1
100
AcDbSymbolTableRecord
100
AcDbBlockTableRecord
  2
*D34
340
0
  0
BLOCK_RECORD
  5
1720
330
1
100
AcDbSymbolTableRecord
100
AcDbBlockTableRecord
  2
*D35
340
0
  0
BLOCK_RECORD
  5
1795
330
1
100
AcDbSymbolTableRecord
100
AcDbBlockTableRecord
  2
*D36
340
0
  0
BLOCK_RECORD
  5
17DB
330
1
100
AcDbSymbolTableRecord
100
AcDbBlockTableRecord
  2
*D37
340
0
  0
BLOCK_RECORD
  5
1818
330
1
100
AcDbSymbolTableRecord
100
AcDbBlockTableRecord
  2
C
340
0
102
{BLKREFS
331
1A56
102
}
  0
ENDTAB
  0
ENDSEC
  0
SECTION
  2
BLOCKS
  0
BLOCK
  5
33
330
1E
100
AcDbEntity
  8
0
100
AcDbBlockBegin
  2
*Model_Space
 70
     0
 10
0.0
 20
0.0
 30
0.0
  3
*Model_Space
  1

  0
ENDBLK
  5
34
330
1E
100
AcDbEntity
  8
0
100
AcDbBlockEnd
  0
BLOCK
  5
31
330
1A
100
AcDbEntity
 67
     1
  8
0
100
AcDbBlockBegin
  2
*Paper_Space
 70
     0
 10
0.0
 20
0.0
 30
0.0
  3
*Paper_Space
  1

  0
ENDBLK
  5
32
330
1A
100
AcDbEntity
 67
     1
  8
0
100
AcDbBlockEnd
  0
BLOCK
  5
64
330
63
100
AcDbEntity
  8
0
100
AcDbBlockBegin
  2
_NONE
 70
     0
 10
0.0
 20
0.0
 30
0.0
  3
_NONE
  1

  0
ENDBLK
  5
65
330
63
100
AcDbEntity
  8
0
100
AcDbBlockEnd
  0
BLOCK
  5
6C
330
66
100
AcDbEntity
  8
0
100
AcDbBlockBegin
  2
_DOT
 70
     0
 10
0.0
 20
0.0
 30
0.0
  3
_DOT
  1

  0
POLYLINE
  5
67
330
66
100
AcDbEntity
  8
0
  6
ByBlock
 62
     0
370
    -2
100
AcDb2dPolyline
 66
     1
 10
0.0
 20
0.0
 30
0.0
 70
     1
 40
0.5
 41
0.5
  0
VERTEX
  5
68
330
67
100
AcDbEntity
  8
0
  6
ByBlock
 62
     0
370
    -2
100
AcDbVertex
100
AcDb2dVertex
 10
-0.25
 20
0.0
 30
0.0
 42
1.0
  0
VERTEX
  5
69
330
67
100
AcDbEntity
  8
0
  6
ByBlock
 62
     0
370
    -2
100
AcDbVertex
100
AcDb2dVertex
 10
0.25
 20
0.0
 30
0.0
 42
1.0
  0
SEQEND
  5
6A
330
67
100
AcDbEntity
  8
0
  0
LINE
  5
6B
330
66
100
AcDbEntity
  8
0
  6
ByBlock
 62
     0
370
    -2
100
AcDbLine
 10
-0.5
 20
0.0
 30
0.0
 11
-1.0
 21
0.0
 31
0.0
  0
ENDBLK
  5
6D
330
66
100
AcDbEntity
  8
0
100
AcDbBlockEnd
  0
BLOCK
  5
99
330
8E
100
AcDbEntity
  8
0
100
AcDbBlockBegin
  2
*D2
 70
     1
 10
0.0
 20
0.0
 30
0.0
  3
*D2
  1

  0
LINE
  5
2203
330
8E
100
AcDbEntity
  8
0
 62
     1
370
    -2
100
AcDbLine
 10
14.37423717059221
 20
5.061323679775208
 30
0.0
 11
18.22191065959411
 21
5.061323679775207
 31
0.0
  0
LINE
  5
2204
330
8E
100
AcDbEntity
  8
0
 62
     1
370
    -2
100
AcDbLine
 10
14.3742371705922
 20
7.061323679775208
 30
0.0
 11
18.22191065959411
 21
7.061323679775207
 31
0.0
  0
LINE
  5
2205
330
8E
100
AcDbEntity
  8
0
 62
     1
370
    -2
100
AcDbLine
 10
18.08441065959411
 20
5.308823679775207
 30
0.0
 11
18.08441065959411
 21
5.896357847988338
 31
0.0
  0
LINE
  5
2206
330
8E
100
AcDbEntity
  8
0
 62
     1
370
    -2
100
AcDbLine
 10
18.08441065959411
 20
6.813823679775207
 30
0.0
 11
18.08441065959411
 21
6.319367312517669
 31
0.0
  0
SOLID
  5
2207
330
8E
100
AcDbEntity
  8
0
 62
     1
100
AcDbTrace
 10
18.04316065959411
 20
5.308823679775207
 30
0.0
 11
18.12566065959411
 21
5.308823679775207
 31
0.0
 12
18.08441065959411
 22
5.061323679775207
 32
0.0
 13
18.08441065959411
 23
5.061323679775207
 33
0.0
  0
SOLID
  5
2208
330
8E
100
AcDbEntity
  8
0
 62
     1
100
AcDbTrace
 10
18.04316065959411
 20
6.813823679775207
 30
0.0
 11
18.12566065959411
 21
6.813823679775207
 31
0.0
 12
18.08441065959411
 22
7.061323679775207
 32
0.0
 13
18.08441065959411
 23
7.061323679775207
 33
0.0
  0
MTEXT
  5
2209
330
8E
100
AcDbEntity
  8
0
 62
     4
100
AcDbMText
 10
18.08441065959411
 20
6.107862580253007
 30
0.0
 40
0.171875
 41
0.0
 71
     5
 72
     1
  1
\A1;2.000
  7
STANDARD
 73
     1
 44
1.0
  0
POINT
  5
220A
330
8E
100
AcDbEntity
  8
DEFPOINTS
 62
     0
100
AcDbPoint
 10
14.28829967059221
 20
5.061323679775208
 30
0.0
  0
POINT
  5
220B
330
8E
100
AcDbEntity
  8
DEFPOINTS
 62
     0
100
AcDbPoint
 10
14.2882996705922
 20
7.061323679775208
 30
0.0
  0
POINT
  5
220C
330
8E
100
AcDbEntity
  8
DEFPOINTS
 62
     0
100
AcDbPoint
 10
18.08441065959411
 20
7.061323679775207
 30
0.0
  0
ENDBLK
  5
9A
330
8E
100
AcDbEntity
  8
0
100
AcDbBlockEnd
  0
BLOCK
  5
A7
330
9B
100
AcDbEntity
  8
0
100
AcDbBlockBegin
  2
*D3
 70
     1
 10
0.0
 20
0.0
 30
0.0
  3
*D3
  1

  0
LINE
  5
2221
330
9B
100
AcDbEntity
  8
0
 62
     1
370
    -2
100
AcDbLine
 10
16.28271567901773
 20
10.95248967821772
 30
0.0
 11
17.78498280525283
 21
10.95248967821772
 31
0.0
  0
LINE
  5
2222
330
9B
100
AcDbEntity
  8
0
 62
     1
370
    -2
100
AcDbLine
 10
17.25144723877774
 20
10.70248967821771
 30
0.0
 11
17.78498280525283
 21
10.70248967821771
 31
0.0
  0
LINE
  5
2223
330
9B
100
AcDbEntity
  8
0
 62
     1
370
    -2
100
AcDbLine
 10
17.64748280525283
 20
11.19998967821772
 30
0.0
 11
17.64748280525283
 21
11.44748967821772
 31
0.0
  0
LINE
  5
2224
330
9B
100
AcDbEntity
  8
0
 62
     1
370
    -2
100
AcDbLine
 10
17.64748280525283
 20
10.45498967821771
 30
0.0
 11
17.64748280525283
 21
10.20748967821771
 31
0.0
  0
SOLID
  5
2225
330
9B
100
AcDbEntity
  8
0
 62
     1
100
AcDbTrace
 10
17.60623280525283
 20
11.19998967821772
 30
0.0
 11
17.68873280525284
 21
11.19998967821772
 31
0.0
 12
17.64748280525283
 22
10.95248967821772
 32
0.0
 13
17.64748280525283
 23
10.95248967821772
 33
0.0
  0
SOLID
  5
2226
330
9B
100
AcDbEntity
  8
0
 62
     1
100
AcDbTrace
 10
17.60623280525283
 20
10.45498967821771
 30
0.0
 11
17.68873280525284
 21
10.45498967821771
 31
0.0
 12
17.64748280525283
 22
10.70248967821771
 32
0.0
 13
17.64748280525283
 23
10.70248967821771
 33
0.0
  0
MTEXT
  5
2227
330
9B
100
AcDbEntity
  8
0
 62
     4
100
AcDbMText
 10
17.64748280525283
 20
10.82748967821772
 30
0.0
 40
0.171875
 41
0.0
 71
     5
 72
     1
  1
\A1;0.250
  7
STANDARD
 73
     1
 44
1.0
  0
POINT
  5
2228
330
9B
100
AcDbEntity
  8
DEFPOINTS
 62
     0
100
AcDbPoint
 10
16.19677817901773
 20
10.95248967821772
 30
0.0
  0
POINT
  5
2229
330
9B
100
AcDbEntity
  8
DEFPOINTS
 62
     0
100
AcDbPoint
 10
17.16550973877774
 20
10.70248967821771
 30
0.0
  0
POINT
  5
222A
330
9B
100
AcDbEntity
  8
DEFPOINTS
 62
     0
100
AcDbPoint
 10
17.64748280525283
 20
10.70248967821771
 30
0.0
  0
ENDBLK
  5
A8
330
9B
100
AcDbEntity
  8
0
100
AcDbBlockEnd
  0
BLOCK
  5
B4
330
A9
100
AcDbEntity
  8
0
100
AcDbBlockBegin
  2
*D4
 70
     1
 10
0.0
 20
0.0
 30
0.0
  3
*D4
  1

  0
LINE
  5
21CB
330
A9
100
AcDbEntity
  8
0
 62
     1
370
    -2
100
AcDbLine
 10
14.28829967059221
 20
4.975386179775208
 30
0.0
 11
14.28829967059221
 21
2.743745893961813
 31
0.0
  0
LINE
  5
21CC
330
A9
100
AcDbEntity
  8
0
 62
     1
370
    -2
100
AcDbLine
 10
11.28829967059221
 20
4.975386179775195
 30
0.0
 11
11.28829967059221
 21
2.743745893961813
 31
0.0
  0
LINE
  5
21CD
330
A9
100
AcDbEntity
  8
0
 62
     1
370
    -2
100
AcDbLine
 10
14.04079967059221
 20
2.881245893961813
 30
0.0
 11
13.2763319128309
 21
2.881245893961813
 31
0.0
  0
LINE
  5
21CE
330
A9
100
AcDbEntity
  8
0
 62
     1
370
    -2
100
AcDbLine
 10
11.53579967059221
 20
2.881245893961813
 30
0.0
 11
12.44954516317197
 21
2.881245893961813
 31
0.0
  0
SOLID
  5
21CF
330
A9
100
AcDbEntity
  8
0
 62
     1
100
AcDbTrace
 10
14.04079967059221
 20
2.922495893961813
 30
0.0
 11
14.04079967059221
 21
2.839995893961813
 31
0.0
 12
14.28829967059221
 22
2.881245893961813
 32
0.0
 13
14.28829967059221
 23
2.881245893961813
 33
0.0
  0
SOLID
  5
21D0
330
A9
100
AcDbEntity
  8
0
 62
     1
100
AcDbTrace
 10
11.53579967059221
 20
2.922495893961813
 30
0.0
 11
11.53579967059221
 21
2.839995893961813
 31
0.0
 12
11.28829967059221
 22
2.881245893961813
 32
0.0
 13
11.28829967059221
 23
2.881245893961813
 33
0.0
  0
MTEXT
  5
21D1
330
A9
100
AcDbEntity
  8
0
 62
     4
100
AcDbMText
 10
12.86293853800144
 20
2.881245893961813
 30
0.0
 40
0.171875
 41
0.0
 71
     5
 72
     1
  1
\A1;3.000
  7
STANDARD
 73
     1
 44
1.0
  0
POINT
  5
21D2
330
A9
100
AcDbEntity
  8
DEFPOINTS
 62
     0
100
AcDbPoint
 10
14.28829967059221
 20
5.061323679775208
 30
0.0
  0
POINT
  5
21D3
330
A9
100
AcDbEntity
  8
DEFPOINTS
 62
     0
100
AcDbPoint
 10
11.28829967059221
 20
5.061323679775195
 30
0.0
  0
POINT
  5
21D4
330
A9
100
AcDbEntity
  8
DEFPOINTS
 62
     0
100
AcDbPoint
 10
11.28829967059221
 20
2.881245893961813
 30
0.0
  0
ENDBLK
  5
B5
330
A9
100
AcDbEntity
  8
0
100
AcDbBlockEnd
  0
BLOCK
  5
C1
330
B6
100
AcDbEntity
  8
0
100
AcDbBlockBegin
  2
*D5
 70
     1
 10
0.0
 20
0.0
 30
0.0
  3
*D5
  1

  0
LINE
  5
223F
330
B6
100
AcDbEntity
  8
0
 62
     1
370
    -2
100
AcDbLine
 10
4.14026291344347
 20
15.66835970047821
 30
0.0
 11
4.14026291344347
 21
15.35090914181077
 31
0.0
  0
LINE
  5
2240
330
B6
100
AcDbEntity
  8
0
 62
     1
370
    -2
100
AcDbLine
 10
4.308262913443477
 20
15.67173330164528
 30
0.0
 11
4.308262913443477
 21
15.35090914181077
 31
0.0
  0
LINE
  5
2241
330
B6
100
AcDbEntity
  8
0
 62
     1
370
    -2
100
AcDbLine
 10
4.555762913443476
 20
15.48840914181077
 30
0.0
 11
4.803262913443477
 21
15.48840914181077
 31
0.0
  0
LINE
  5
2242
330
B6
100
AcDbEntity
  8
0
 62
     1
370
    -2
100
AcDbLine
 10
3.892762913443471
 20
15.48840914181077
 30
0.0
 11
3.64526291344347
 21
15.48840914181077
 31
0.0
  0
SOLID
  5
2243
330
B6
100
AcDbEntity
  8
0
 62
     1
100
AcDbTrace
 10
4.555762913443476
 20
15.52965914181077
 30
0.0
 11
4.555762913443476
 21
15.44715914181077
 31
0.0
 12
4.308262913443477
 22
15.48840914181077
 32
0.0
 13
4.308262913443477
 23
15.48840914181077
 33
0.0
  0
SOLID
  5
2244
330
B6
100
AcDbEntity
  8
0
 62
     1
100
AcDbTrace
 10
3.892762913443471
 20
15.52965914181077
 30
0.0
 11
3.892762913443471
 21
15.44715914181077
 31
0.0
 12
4.14026291344347
 22
15.48840914181077
 32
0.0
 13
4.14026291344347
 23
15.48840914181077
 33
0.0
  0
MTEXT
  5
2245
330
B6
100
AcDbEntity
  8
0
 62
     4
100
AcDbMText
 10
1.945738058395722
 20
15.48840914181077
 30
0.0
 40
0.171875
 41
0.0
 71
     5
 72
     1
  1
\A1;0.168 (6 PLCS.)\P(MOUNTING BOSS HEIGHT)
  7
STANDARD
 73
     1
 44
1.0
  0
POINT
  5
2246
330
B6
100
AcDbEntity
  8
DEFPOINTS
 62
     0
100
AcDbPoint
 10
4.14026291344347
 20
15.75429720047822
 30
0.0
  0
POINT
  5
2247
330
B6
100
AcDbEntity
  8
DEFPOINTS
 62
     0
100
AcDbPoint
 10
4.308262913443477
 20
15.75767080164528
 30
0.0
  0
POINT
  5
2248
330
B6
100
AcDbEntity
  8
DEFPOINTS
 62
     0
100
AcDbPoint
 10
4.308262913443477
 20
15.48840914181077
 30
0.0
  0
ENDBLK
  5
C2
330
B6
100
AcDbEntity
  8
0
100
AcDbBlockEnd
  0
BLOCK
  5
DA
330
D0
100
AcDbEntity
  8
0
100
AcDbBlockBegin
  2
*D6
 70
     1
 10
0.0
 20
0.0
 30
0.0
  3
*D6
  1

  0
LINE
  5
229F
330
D0
100
AcDbEntity
  8
0
 62
     1
370
    -2
100
AcDbLine
 10
3.780262913443464
 20
14.99352323345974
 30
0.0
 11
3.780262913443464
 21
14.08237492480738
 31
0.0
  0
LINE
  5
22A0
330
D0
100
AcDbEntity
  8
0
 62
     1
370
    -2
100
AcDbLine
 10
4.55026291344346
 20
16.03499456179882
 30
0.0
 11
4.55026291344346
 21
14.08237492480738
 31
0.0
  0
LINE
  5
22A1
330
D0
100
AcDbEntity
  8
0
 62
     1
370
    -2
100
AcDbLine
 10
4.30276291344346
 20
14.21987492480738
 30
0.0
 11
4.027762913443464
 21
14.21987492480738
 31
0.0
  0
LINE
  5
22A2
330
D0
100
AcDbEntity
  8
0
 62
     1
370
    -2
100
AcDbLine
 10
3.780262913443464
 20
14.21987492480738
 30
0.0
 11
3.532762913443463
 21
14.21987492480738
 31
0.0
  0
SOLID
  5
22A3
330
D0
100
AcDbEntity
  8
0
 62
     1
100
AcDbTrace
 10
4.30276291344346
 20
14.26112492480738
 30
0.0
 11
4.30276291344346
 21
14.17862492480738
 31
0.0
 12
4.55026291344346
 22
14.21987492480738
 32
0.0
 13
4.55026291344346
 23
14.21987492480738
 33
0.0
  0
SOLID
  5
22A4
330
D0
100
AcDbEntity
  8
0
 62
     1
100
AcDbTrace
 10
4.027762913443464
 20
14.26112492480738
 30
0.0
 11
4.027762913443464
 21
14.17862492480738
 31
0.0
 12
3.780262913443464
 22
14.21987492480738
 32
0.0
 13
3.780262913443464
 23
14.21987492480738
 33
0.0
  0
MTEXT
  5
22A5
330
D0
100
AcDbEntity
  8
0
 62
     4
100
AcDbMText
 10
2.893563774630367
 20
14.21987492480738
 30
0.0
 40
0.171875
 41
0.0
 71
     5
 72
     1
  1
\A1;0.770\P(4 PLCS.)
  7
STANDARD
 73
     1
 44
1.0
  0
POINT
  5
22A6
330
D0
100
AcDbEntity
  8
DEFPOINTS
 62
     0
100
AcDbPoint
 10
3.780262913443464
 20
15.07946073345974
 30
0.0
  0
POINT
  5
22A7
330
D0
100
AcDbEntity
  8
DEFPOINTS
 62
     0
100
AcDbPoint
 10
4.55026291344346
 20
16.12093206179882
 30
0.0
  0
POINT
  5
22A8
330
D0
100
AcDbEntity
  8
DEFPOINTS
 62
     0
100
AcDbPoint
 10
4.55026291344346
 20
14.21987492480738
 30
0.0
  0
ENDBLK
  5
DB
330
D0
100
AcDbEntity
  8
0
100
AcDbBlockEnd
  0
BLOCK
  5
F4
330
E9
100
AcDbEntity
  8
0
100
AcDbBlockBegin
  2
*D7
 70
     1
 10
0.0
 20
0.0
 30
0.0
  3
*D7
  1

  0
LINE
  5
21F9
330
E9
100
AcDbEntity
  8
0
 62
     1
370
    -2
100
AcDbLine
 10
16.26438353965208
 20
10.86655217821772
 30
0.0
 11
16.26438353965208
 21
10.22322562197832
 31
0.0
  0
LINE
  5
21FA
330
E9
100
AcDbEntity
  8
0
 62
     1
370
    -2
100
AcDbLine
 10
9.312215801532321
 20
10.86655217821772
 30
0.0
 11
9.312215801532321
 21
10.22322562197832
 31
0.0
  0
LINE
  5
21FB
330
E9
100
AcDbEntity
  8
0
 62
     1
370
    -2
100
AcDbLine
 10
16.01688353965208
 20
10.36072562197832
 30
0.0
 11
13.33164600231479
 21
10.36072562197832
 31
0.0
  0
LINE
  5
21FC
330
E9
100
AcDbEntity
  8
0
 62
     1
370
    -2
100
AcDbLine
 10
9.559715801532322
 20
10.36072562197832
 30
0.0
 11
12.31387400367904
 21
10.36072562197832
 31
0.0
  0
SOLID
  5
21FD
330
E9
100
AcDbEntity
  8
0
 62
     1
100
AcDbTrace
 10
16.01688353965208
 20
10.40197562197832
 30
0.0
 11
16.01688353965208
 21
10.31947562197832
 31
0.0
 12
16.26438353965208
 22
10.36072562197832
 32
0.0
 13
16.26438353965208
 23
10.36072562197832
 33
0.0
  0
SOLID
  5
21FE
330
E9
100
AcDbEntity
  8
0
 62
     1
100
AcDbTrace
 10
9.559715801532322
 20
10.40197562197832
 30
0.0
 11
9.559715801532322
 21
10.31947562197832
 31
0.0
 12
9.312215801532321
 22
10.36072562197832
 32
0.0
 13
9.312215801532321
 23
10.36072562197832
 33
0.0
  0
MTEXT
  5
21FF
330
E9
100
AcDbEntity
  8
0
 62
     4
100
AcDbMText
 10
12.82276000299692
 20
10.36072562197832
 30
0.0
 40
0.171875
 41
0.0
 71
     5
 72
     1
  1
\A1;6.952**
  7
STANDARD
 73
     1
 44
1.0
  0
POINT
  5
2200
330
E9
100
AcDbEntity
  8
DEFPOINTS
 62
     0
100
AcDbPoint
 10
16.26438353965208
 20
10.95248967821772
 30
0.0
  0
POINT
  5
2201
330
E9
100
AcDbEntity
  8
DEFPOINTS
 62
     0
100
AcDbPoint
 10
9.312215801532321
 20
10.95248967821772
 30
0.0
  0
POINT
  5
2202
330
E9
100
AcDbEntity
  8
DEFPOINTS
 62
     0
100
AcDbPoint
 10
9.312215801532321
 20
10.36072562197832
 30
0.0
  0
ENDBLK
  5
F5
330
E9
100
AcDbEntity
  8
0
100
AcDbBlockEnd
  0
BLOCK
  5
101
330
F6
100
AcDbEntity
  8
0
100
AcDbBlockBegin
  2
*D8
 70
     1
 10
0.0
 20
0.0
 30
0.0
  3
*D8
  1

  0
LINE
  5
21EF
330
F6
100
AcDbEntity
  8
0
 62
     1
370
    -2
100
AcDbLine
 10
16.5237798301638
 20
10.61655217821772
 30
0.0
 11
16.5237798301638
 21
9.807317572293939
 31
0.0
  0
LINE
  5
21F0
330
F6
100
AcDbEntity
  8
0
 62
     1
370
    -2
100
AcDbLine
 10
9.052819511020604
 20
10.61655217821772
 30
0.0
 11
9.052819511020604
 21
9.807317572293939
 31
0.0
  0
LINE
  5
21F1
330
F6
100
AcDbEntity
  8
0
 62
     1
370
    -2
100
AcDbLine
 10
16.2762798301638
 20
9.944817572293938
 30
0.0
 11
13.3304735944021
 21
9.944817572293938
 31
0.0
  0
LINE
  5
21F2
330
F6
100
AcDbEntity
  8
0
 62
     1
370
    -2
100
AcDbLine
 10
9.300319511020605
 20
9.944817572293938
 30
0.0
 11
12.31504641159173
 21
9.944817572293938
 31
0.0
  0
SOLID
  5
21F3
330
F6
100
AcDbEntity
  8
0
 62
     1
100
AcDbTrace
 10
16.2762798301638
 20
9.986067572293938
 30
0.0
 11
16.2762798301638
 21
9.903567572293939
 31
0.0
 12
16.5237798301638
 22
9.944817572293938
 32
0.0
 13
16.5237798301638
 23
9.944817572293938
 33
0.0
  0
SOLID
  5
21F4
330
F6
100
AcDbEntity
  8
0
 62
     1
100
AcDbTrace
 10
9.300319511020605
 20
9.986067572293938
 30
0.0
 11
9.300319511020605
 21
9.903567572293939
 31
0.0
 12
9.052819511020604
 22
9.944817572293938
 32
0.0
 13
9.052819511020604
 23
9.944817572293938
 33
0.0
  0
MTEXT
  5
21F5
330
F6
100
AcDbEntity
  8
0
 62
     4
100
AcDbMText
 10
12.82276000299692
 20
9.944817572293938
 30
0.0
 40
0.171875
 41
0.0
 71
     5
 72
     1
  1
\A1;7.471**
  7
STANDARD
 73
     1
 44
1.0
  0
POINT
  5
21F6
330
F6
100
AcDbEntity
  8
DEFPOINTS
 62
     0
100
AcDbPoint
 10
16.5237798301638
 20
10.70248967821773
 30
0.0
  0
POINT
  5
21F7
330
F6
100
AcDbEntity
  8
DEFPOINTS
 62
     0
100
AcDbPoint
 10
9.052819511020604
 20
10.70248967821773
 30
0.0
  0
POINT
  5
21F8
330
F6
100
AcDbEntity
  8
DEFPOINTS
 62
     0
100
AcDbPoint
 10
9.052819511020604
 20
9.944817572293938
 30
0.0
  0
ENDBLK
  5
102
330
F6
100
AcDbEntity
  8
0
100
AcDbBlockEnd
  0
BLOCK
  5
10E
330
103
100
AcDbEntity
  8
0
100
AcDbBlockBegin
  2
*D9
 70
     1
 10
0.0
 20
0.0
 30
0.0
  3
*D9
  1

  0
LINE
  5
227B
330
103
100
AcDbEntity
  8
0
 62
     1
370
    -2
100
AcDbLine
 10
16.92423717059216
 20
14.86672566063214
 30
0.0
 11
18.37569145738592
 21
14.86672566063214
 31
0.0
  0
LINE
  5
227C
330
103
100
AcDbEntity
  8
0
 62
     1
370
    -2
100
AcDbLine
 10
16.92423717059216
 20
20.11661594265834
 30
0.0
 11
18.37569145738592
 21
20.11661594265834
 31
0.0
  0
LINE
  5
227D
330
103
100
AcDbEntity
  8
0
 62
     1
370
    -2
100
AcDbLine
 10
18.23819145738592
 20
15.11422566063214
 30
0.0
 11
18.23819145738592
 21
17.31591409796853
 31
0.0
  0
LINE
  5
227E
330
103
100
AcDbEntity
  8
0
 62
     1
370
    -2
100
AcDbLine
 10
18.23819145738592
 20
19.86911594265835
 30
0.0
 11
18.23819145738592
 21
17.73892356249786
 31
0.0
  0
SOLID
  5
227F
330
103
100
AcDbEntity
  8
0
 62
     1
100
AcDbTrace
 10
18.19694145738592
 20
15.11422566063214
 30
0.0
 11
18.27944145738592
 21
15.11422566063214
 31
0.0
 12
18.23819145738592
 22
14.86672566063214
 32
0.0
 13
18.23819145738592
 23
14.86672566063214
 33
0.0
  0
SOLID
  5
2280
330
103
100
AcDbEntity
  8
0
 62
     1
100
AcDbTrace
 10
18.19694145738592
 20
19.86911594265835
 30
0.0
 11
18.27944145738592
 21
19.86911594265835
 31
0.0
 12
18.23819145738592
 22
20.11661594265834
 32
0.0
 13
18.23819145738592
 23
20.11661594265834
 33
0.0
  0
MTEXT
  5
2281
330
103
100
AcDbEntity
  8
0
 62
     4
100
AcDbMText
 10
18.23819145738591
 20
17.5274188302332
 30
0.0
 40
0.171875
 41
0.0
 71
     5
 72
     1
  1
\A1;5.250
  7
STANDARD
 73
     1
 44
1.0
  0
POINT
  5
2282
330
103
100
AcDbEntity
  8
DEFPOINTS
 62
     0
100
AcDbPoint
 10
16.83829967059216
 20
14.86672566063214
 30
0.0
  0
POINT
  5
2283
330
103
100
AcDbEntity
  8
DEFPOINTS
 62
     0
100
AcDbPoint
 10
16.83829967059216
 20
20.11661594265834
 30
0.0
  0
POINT
  5
2284
330
103
100
AcDbEntity
  8
DEFPOINTS
 62
     0
100
AcDbPoint
 10
18.23819145738592
 20
20.11661594265834
 30
0.0
  0
ENDBLK
  5
10F
330
103
100
AcDbEntity
  8
0
100
AcDbBlockEnd
  0
BLOCK
  5
147
330
13C
100
AcDbEntity
  8
0
100
AcDbBlockBegin
  2
*D10
 70
     1
 10
0.0
 20
0.0
 30
0.0
  3
*D10
  1

  0
LINE
  5
2285
330
13C
100
AcDbEntity
  8
0
 62
     1
370
    -2
100
AcDbLine
 10
9.257213450878648
 20
17.57760830164522
 30
0.0
 11
9.257213450878625
 21
20.79133885690084
 31
0.0
  0
LINE
  5
2286
330
13C
100
AcDbEntity
  8
0
 62
     1
370
    -2
100
AcDbLine
 10
16.31938589030568
 20
17.5776083016452
 30
0.0
 11
16.31938589030565
 21
20.7913388569009
 31
0.0
  0
LINE
  5
2287
330
13C
100
AcDbEntity
  8
0
 62
     1
370
    -2
100
AcDbLine
 10
9.504713450878625
 20
20.65383885690085
 30
0.0
 11
12.33734191303391
 21
20.65383885690087
 31
0.0
  0
LINE
  5
2288
330
13C
100
AcDbEntity
  8
0
 62
     1
370
    -2
100
AcDbLine
 10
16.07188589030565
 20
20.65383885690089
 30
0.0
 11
13.1616666060762
 21
20.65383885690087
 31
0.0
  0
SOLID
  5
2289
330
13C
100
AcDbEntity
  8
0
 62
     1
100
AcDbTrace
 10
9.504713450878625
 20
20.69508885690085
 30
0.0
 11
9.504713450878627
 21
20.61258885690084
 31
0.0
 12
9.257213450878625
 22
20.65383885690085
 32
0.0
 13
9.257213450878625
 23
20.65383885690085
 33
0.0
  0
SOLID
  5
228A
330
13C
100
AcDbEntity
  8
0
 62
     1
100
AcDbTrace
 10
16.07188589030565
 20
20.6950888569009
 30
0.0
 11
16.07188589030565
 21
20.61258885690089
 31
0.0
 12
16.31938589030565
 22
20.6538388569009
 32
0.0
 13
16.31938589030565
 23
20.6538388569009
 33
0.0
  0
MTEXT
  5
228B
330
13C
100
AcDbEntity
  8
0
 62
     4
100
AcDbMText
 10
12.74950425955505
 20
20.65383885690087
 30
0.0
 40
0.171875
 41
0.0
 71
     5
 72
     1
  1
\A1;7.062
  7
STANDARD
 73
     1
 44
1.0
  0
POINT
  5
228C
330
13C
100
AcDbEntity
  8
DEFPOINTS
 62
     0
100
AcDbPoint
 10
9.257213450878648
 20
17.49167080164522
 30
0.0
  0
POINT
  5
228D
330
13C
100
AcDbEntity
  8
DEFPOINTS
 62
     0
100
AcDbPoint
 10
16.31938589030568
 20
17.4916708016452
 30
0.0
  0
POINT
  5
228E
330
13C
100
AcDbEntity
  8
DEFPOINTS
 62
     0
100
AcDbPoint
 10
16.31938589030565
 20
20.6538388569009
 30
0.0
  0
ENDBLK
  5
148
330
13C
100
AcDbEntity
  8
0
100
AcDbBlockEnd
  0
BLOCK
  5
154
330
149
100
AcDbEntity
  8
0
100
AcDbBlockBegin
  2
*D11
 70
     1
 10
0.0
 20
0.0
 30
0.0
  3
*D11
  1

  0
LINE
  5
222B
330
149
100
AcDbEntity
  8
0
 62
     1
370
    -2
100
AcDbLine
 10
9.561400931159656
 20
15.42917080164522
 30
0.0
 11
7.560524209252337
 21
15.42917080164522
 31
0.0
  0
LINE
  5
222C
330
149
100
AcDbEntity
  8
0
 62
     1
370
    -2
100
AcDbLine
 10
9.561400931159671
 20
19.55417080164522
 30
0.0
 11
7.560524209252338
 21
19.55417080164523
 31
0.0
  0
LINE
  5
222D
330
149
100
AcDbEntity
  8
0
 62
     1
370
    -2
100
AcDbLine
 10
7.698024209252337
 20
15.67667080164522
 30
0.0
 11
7.698024209252337
 21
17.3094921112758
 31
0.0
  0
LINE
  5
222E
330
149
100
AcDbEntity
  8
0
 62
     1
370
    -2
100
AcDbLine
 10
7.698024209252338
 20
19.30667080164523
 30
0.0
 11
7.698024209252337
 21
17.73250157580513
 31
0.0
  0
SOLID
  5
222F
330
149
100
AcDbEntity
  8
0
 62
     1
100
AcDbTrace
 10
7.656774209252337
 20
15.67667080164522
 30
0.0
 11
7.739274209252337
 21
15.67667080164522
 31
0.0
 12
7.698024209252337
 22
15.42917080164522
 32
0.0
 13
7.698024209252337
 23
15.42917080164522
 33
0.0
  0
SOLID
  5
2230
330
149
100
AcDbEntity
  8
0
 62
     1
100
AcDbTrace
 10
7.656774209252338
 20
19.30667080164523
 30
0.0
 11
7.739274209252338
 21
19.30667080164523
 31
0.0
 12
7.698024209252338
 22
19.55417080164523
 32
0.0
 13
7.698024209252338
 23
19.55417080164523
 33
0.0
  0
MTEXT
  5
2231
330
149
100
AcDbEntity
  8
0
 62
     4
100
AcDbMText
 10
7.698024209252334
 20
17.52099684354047
 30
0.0
 40
0.171875
 41
0.0
 71
     5
 72
     1
  1
\A1;4.125
  7
STANDARD
 73
     1
 44
1.0
  0
POINT
  5
2232
330
149
100
AcDbEntity
  8
DEFPOINTS
 62
     0
100
AcDbPoint
 10
9.647338431159656
 20
15.42917080164522
 30
0.0
  0
POINT
  5
2233
330
149
100
AcDbEntity
  8
DEFPOINTS
 62
     0
100
AcDbPoint
 10
9.647338431159671
 20
19.55417080164522
 30
0.0
  0
POINT
  5
2234
330
149
100
AcDbEntity
  8
DEFPOINTS
 62
     0
100
AcDbPoint
 10
7.698024209252338
 20
19.55417080164523
 30
0.0
  0
ENDBLK
  5
155
330
149
100
AcDbEntity
  8
0
100
AcDbBlockEnd
  0
BLOCK
  5
161
330
156
100
AcDbEntity
  8
0
100
AcDbBlockBegin
  2
*D12
 70
     1
 10
0.0
 20
0.0
 30
0.0
  3
*D12
  1

  0
LINE
  5
2199
330
156
100
AcDbEntity
  8
0
 62
     1
370
    -2
100
AcDbLine
 10
8.985175445815261
 20
13.06548967821772
 30
0.0
 11
7.488127942574423
 21
13.06548967821772
 31
0.0
  0
LINE
  5
219A
330
156
100
AcDbEntity
  8
0
 62
     1
370
    -2
100
AcDbLine
 10
8.112417029579059
 20
11.50248967821772
 30
0.0
 11
7.488127942574423
 21
11.50248967821772
 31
0.0
  0
LINE
  5
219B
330
156
100
AcDbEntity
  8
0
 62
     1
370
    -2
100
AcDbLine
 10
7.625627942574423
 20
12.81798967821772
 30
0.0
 11
7.625627942574423
 21
12.48573654342367
 31
0.0
  0
LINE
  5
219C
330
156
100
AcDbEntity
  8
0
 62
     1
370
    -2
100
AcDbLine
 10
7.625627942574423
 20
11.74998967821772
 30
0.0
 11
7.625627942574423
 21
12.06260983810306
 31
0.0
  0
SOLID
  5
219D
330
156
100
AcDbEntity
  8
0
 62
     1
100
AcDbTrace
 10
7.584377942574423
 20
12.81798967821772
 30
0.0
 11
7.666877942574423
 21
12.81798967821772
 31
0.0
 12
7.625627942574423
 22
13.06548967821772
 32
0.0
 13
7.625627942574423
 23
13.06548967821772
 33
0.0
  0
SOLID
  5
219E
330
156
100
AcDbEntity
  8
0
 62
     1
100
AcDbTrace
 10
7.584377942574423
 20
11.74998967821772
 30
0.0
 11
7.666877942574423
 21
11.74998967821772
 31
0.0
 12
7.625627942574423
 22
11.50248967821772
 32
0.0
 13
7.625627942574423
 23
11.50248967821772
 33
0.0
  0
MTEXT
  5
219F
330
156
100
AcDbEntity
  8
0
 62
     4
100
AcDbMText
 10
7.625627942574421
 20
12.27417319076337
 30
0.0
 40
0.171875
 41
0.0
 71
     5
 72
     1
  1
\A1;1.563
  7
STANDARD
 73
     1
 44
1.0
  0
POINT
  5
21A0
330
156
100
AcDbEntity
  8
DEFPOINTS
 62
     0
100
AcDbPoint
 10
9.071112945815261
 20
13.06548967821772
 30
0.0
  0
POINT
  5
21A1
330
156
100
AcDbEntity
  8
DEFPOINTS
 62
     0
100
AcDbPoint
 10
8.198354529579059
 20
11.50248967821772
 30
0.0
  0
POINT
  5
21A2
330
156
100
AcDbEntity
  8
DEFPOINTS
 62
     0
100
AcDbPoint
 10
7.625627942574423
 20
11.50248967821772
 30
0.0
  0
ENDBLK
  5
162
330
156
100
AcDbEntity
  8
0
100
AcDbBlockEnd
  0
BLOCK
  5
16E
330
163
100
AcDbEntity
  8
0
100
AcDbBlockBegin
  2
*D13
 70
     1
 10
0.0
 20
0.0
 30
0.0
  3
*D13
  1

  0
LINE
  5
21A3
330
163
100
AcDbEntity
  8
0
 62
     1
370
    -2
100
AcDbLine
 10
17.46418231160526
 20
11.50248967821771
 30
0.0
 11
18.1422280004268
 21
11.50248967821771
 31
0.0
  0
LINE
  5
21A4
330
163
100
AcDbEntity
  8
0
 62
     1
370
    -2
100
AcDbLine
 10
17.20752789622381
 20
12.86548967821772
 30
0.0
 11
18.1422280004268
 21
12.86548967821772
 31
0.0
  0
LINE
  5
21A5
330
163
100
AcDbEntity
  8
0
 62
     1
370
    -2
100
AcDbLine
 10
18.0047280004268
 20
11.74998967821772
 30
0.0
 11
18.0047280004268
 21
11.97242632555741
 31
0.0
  0
LINE
  5
21A6
330
163
100
AcDbEntity
  8
0
 62
     1
370
    -2
100
AcDbLine
 10
18.0047280004268
 20
12.61798967821772
 30
0.0
 11
18.0047280004268
 21
12.39555303087802
 31
0.0
  0
SOLID
  5
21A7
330
163
100
AcDbEntity
  8
0
 62
     1
100
AcDbTrace
 10
17.9634780004268
 20
11.74998967821772
 30
0.0
 11
18.0459780004268
 21
11.74998967821772
 31
0.0
 12
18.0047280004268
 22
11.50248967821771
 32
0.0
 13
18.0047280004268
 23
11.50248967821771
 33
0.0
  0
SOLID
  5
21A8
330
163
100
AcDbEntity
  8
0
 62
     1
100
AcDbTrace
 10
17.9634780004268
 20
12.61798967821772
 30
0.0
 11
18.0459780004268
 21
12.61798967821772
 31
0.0
 12
18.0047280004268
 22
12.86548967821772
 32
0.0
 13
18.0047280004268
 23
12.86548967821772
 33
0.0
  0
MTEXT
  5
21A9
330
163
100
AcDbEntity
  8
0
 62
     4
100
AcDbMText
 10
18.00472800042679
 20
12.18398967821772
 30
0.0
 40
0.171875
 41
0.0
 71
     5
 72
     1
  1
\A1;1.363
  7
STANDARD
 73
     1
 44
1.0
  0
POINT
  5
21AA
330
163
100
AcDbEntity
  8
DEFPOINTS
 62
     0
100
AcDbPoint
 10
17.37824481160526
 20
11.50248967821771
 30
0.0
  0
POINT
  5
21AB
330
163
100
AcDbEntity
  8
DEFPOINTS
 62
     0
100
AcDbPoint
 10
17.12159039622381
 20
12.86548967821772
 30
0.0
  0
POINT
  5
21AC
330
163
100
AcDbEntity
  8
DEFPOINTS
 62
     0
100
AcDbPoint
 10
18.0047280004268
 20
12.86548967821772
 30
0.0
  0
ENDBLK
  5
16F
330
163
100
AcDbEntity
  8
0
100
AcDbBlockEnd
  0
BLOCK
  5
17B
330
170
100
AcDbEntity
  8
0
100
AcDbBlockBegin
  2
*D14
 70
     1
 10
0.0
 20
0.0
 30
0.0
  3
*D14
  1

  0
LINE
  5
2249
330
170
100
AcDbEntity
  8
0
 62
     1
370
    -2
100
AcDbLine
 10
6.023262913443421
 20
15.51286983289458
 30
0.0
 11
6.023262913443421
 21
16.11903924323036
 31
0.0
  0
LINE
  5
224A
330
170
100
AcDbEntity
  8
0
 62
     1
370
    -2
100
AcDbLine
 10
6.143262913443425
 20
15.54610830164528
 30
0.0
 11
6.143262913443425
 21
16.11903924323036
 31
0.0
  0
LINE
  5
224B
330
170
100
AcDbEntity
  8
0
 62
     1
370
    -2
100
AcDbLine
 10
5.775762913443421
 20
15.98153924323036
 30
0.0
 11
5.528262913443421
 21
15.98153924323036
 31
0.0
  0
LINE
  5
224C
330
170
100
AcDbEntity
  8
0
 62
     1
370
    -2
100
AcDbLine
 10
6.390762913443425
 20
15.98153924323036
 30
0.0
 11
6.638262913443425
 21
15.98153924323036
 31
0.0
  0
SOLID
  5
224D
330
170
100
AcDbEntity
  8
0
 62
     1
100
AcDbTrace
 10
5.775762913443421
 20
16.02278924323036
 30
0.0
 11
5.775762913443421
 21
15.94028924323036
 31
0.0
 12
6.023262913443421
 22
15.98153924323036
 32
0.0
 13
6.023262913443421
 23
15.98153924323036
 33
0.0
  0
SOLID
  5
224E
330
170
100
AcDbEntity
  8
0
 62
     1
100
AcDbTrace
 10
6.390762913443425
 20
16.02278924323036
 30
0.0
 11
6.390762913443425
 21
15.94028924323036
 31
0.0
 12
6.143262913443425
 22
15.98153924323036
 32
0.0
 13
6.143262913443425
 23
15.98153924323036
 33
0.0
  0
MTEXT
  5
224F
330
170
100
AcDbEntity
  8
0
 62
     4
100
AcDbMText
 10
7.051714908668528
 20
15.98153924323036
 30
0.0
 40
0.171875
 41
0.0
 71
     5
 72
     1
  1
\A1;0.120
  7
STANDARD
 73
     1
 44
1.0
  0
POINT
  5
2250
330
170
100
AcDbEntity
  8
DEFPOINTS
 62
     0
100
AcDbPoint
 10
6.023262913443421
 20
15.42693233289458
 30
0.0
  0
POINT
  5
2251
330
170
100
AcDbEntity
  8
DEFPOINTS
 62
     0
100
AcDbPoint
 10
6.143262913443425
 20
15.46017080164528
 30
0.0
  0
POINT
  5
2252
330
170
100
AcDbEntity
  8
DEFPOINTS
 62
     0
100
AcDbPoint
 10
6.143262913443425
 20
15.98153924323036
 30
0.0
  0
ENDBLK
  5
17C
330
170
100
AcDbEntity
  8
0
100
AcDbBlockEnd
  0
BLOCK
  5
188
330
17D
100
AcDbEntity
  8
0
100
AcDbBlockBegin
  2
*D15
 70
     1
 10
0.0
 20
0.0
 30
0.0
  3
*D15
  1

  0
LINE
  5
22C9
330
17D
100
AcDbEntity
  8
0
 62
     1
370
    -2
100
AcDbLine
 10
4.552262913443448
 20
16.06173330164525
 30
0.0
 11
4.552262913443448
 21
14.08237492480738
 31
0.0
  0
LINE
  5
22CA
330
17D
100
AcDbEntity
  8
0
 62
     1
370
    -2
100
AcDbLine
 10
6.143262913443425
 20
15.04442672991197
 30
0.0
 11
6.143262913443425
 21
14.08237492480738
 31
0.0
  0
LINE
  5
22CB
330
17D
100
AcDbEntity
  8
0
 62
     1
370
    -2
100
AcDbLine
 10
4.304762913443449
 20
14.21987492480738
 30
0.0
 11
4.057262913443448
 21
14.21987492480738
 31
0.0
  0
LINE
  5
22CC
330
17D
100
AcDbEntity
  8
0
 62
     1
370
    -2
100
AcDbLine
 10
6.390762913443425
 20
14.21987492480738
 30
0.0
 11
6.638262913443425
 21
14.21987492480738
 31
0.0
  0
SOLID
  5
22CD
330
17D
100
AcDbEntity
  8
0
 62
     1
100
AcDbTrace
 10
4.304762913443449
 20
14.26112492480738
 30
0.0
 11
4.304762913443449
 21
14.17862492480738
 31
0.0
 12
4.552262913443448
 22
14.21987492480738
 32
0.0
 13
4.552262913443448
 23
14.21987492480738
 33
0.0
  0
SOLID
  5
22CE
330
17D
100
AcDbEntity
  8
0
 62
     1
100
AcDbTrace
 10
6.390762913443425
 20
14.26112492480738
 30
0.0
 11
6.390762913443425
 21
14.17862492480738
 31
0.0
 12
6.143262913443425
 22
14.21987492480738
 32
0.0
 13
6.143262913443425
 23
14.21987492480738
 33
0.0
  0
MTEXT
  5
22CF
330
17D
100
AcDbEntity
  8
0
 62
     4
100
AcDbMText
 10
5.357410340004399
 20
14.21987492480738
 30
0.0
 40
0.171875
 41
0.0
 71
     5
 72
     1
  1
\A1;1.591\P(4 PLCS.)
  7
STANDARD
 73
     1
 44
1.0
  0
POINT
  5
22D0
330
17D
100
AcDbEntity
  8
DEFPOINTS
 62
     0
100
AcDbPoint
 10
4.552262913443448
 20
16.14767080164525
 30
0.0
  0
POINT
  5
22D1
330
17D
100
AcDbEntity
  8
DEFPOINTS
 62
     0
100
AcDbPoint
 10
6.143262913443425
 20
15.13036422991197
 30
0.0
  0
POINT
  5
22D2
330
17D
100
AcDbEntity
  8
DEFPOINTS
 62
     0
100
AcDbPoint
 10
6.143262913443425
 20
14.21987492480738
 30
0.0
  0
ENDBLK
  5
189
330
17D
100
AcDbEntity
  8
0
100
AcDbBlockEnd
  0
BLOCK
  5
195
330
18A
100
AcDbEntity
  8
0
100
AcDbBlockBegin
  2
*D16
 70
     1
 10
0.0
 20
0.0
 30
0.0
  3
*D16
  1

  0
LINE
  5
2267
330
18A
100
AcDbEntity
  8
0
 62
     1
370
    -2
100
AcDbLine
 10
6.053262913443422
 20
15.21630172991197
 30
0.0
 11
6.053262913443422
 21
15.30019701264814
 31
0.0
  0
LINE
  5
2268
330
18A
100
AcDbEntity
  8
0
 62
     1
370
    -2
100
AcDbLine
 10
6.143262913443425
 20
15.21630172991197
 30
0.0
 11
6.143262913443425
 21
15.30019701264814
 31
0.0
  0
LINE
  5
2269
330
18A
100
AcDbEntity
  8
0
 62
     1
370
    -2
100
AcDbLine
 10
5.805762913443422
 20
15.16269701264814
 30
0.0
 11
5.558262913443422
 21
15.16269701264814
 31
0.0
  0
LINE
  5
226A
330
18A
100
AcDbEntity
  8
0
 62
     1
370
    -2
100
AcDbLine
 10
6.390762913443425
 20
15.16269701264814
 30
0.0
 11
6.638262913443425
 21
15.16269701264814
 31
0.0
  0
SOLID
  5
226B
330
18A
100
AcDbEntity
  8
0
 62
     1
100
AcDbTrace
 10
5.805762913443422
 20
15.20394701264814
 30
0.0
 11
5.805762913443422
 21
15.12144701264814
 31
0.0
 12
6.053262913443422
 22
15.16269701264814
 32
0.0
 13
6.053262913443422
 23
15.16269701264814
 33
0.0
  0
SOLID
  5
226C
330
18A
100
AcDbEntity
  8
0
 62
     1
100
AcDbTrace
 10
6.390762913443425
 20
15.20394701264814
 30
0.0
 11
6.390762913443425
 21
15.12144701264814
 31
0.0
 12
6.143262913443425
 22
15.16269701264814
 32
0.0
 13
6.143262913443425
 23
15.16269701264814
 33
0.0
  0
MTEXT
  5
226D
330
18A
100
AcDbEntity
  8
0
 62
     4
100
AcDbMText
 10
7.051714908668528
 20
15.16269701264814
 30
0.0
 40
0.171875
 41
0.0
 71
     5
 72
     1
  1
\A1;0.090
  7
STANDARD
 73
     1
 44
1.0
  0
POINT
  5
226E
330
18A
100
AcDbEntity
  8
DEFPOINTS
 62
     0
100
AcDbPoint
 10
6.053262913443422
 20
15.13036422991197
 30
0.0
  0
POINT
  5
226F
330
18A
100
AcDbEntity
  8
DEFPOINTS
 62
     0
100
AcDbPoint
 10
6.143262913443425
 20
15.13036422991197
 30
0.0
  0
POINT
  5
2270
330
18A
100
AcDbEntity
  8
DEFPOINTS
 62
     0
100
AcDbPoint
 10
6.143262913443425
 20
15.16269701264814
 30
0.0
  0
ENDBLK
  5
196
330
18A
100
AcDbEntity
  8
0
100
AcDbBlockEnd
  0
BLOCK
  5
19E
330
197
100
AcDbEntity
  8
0
100
AcDbBlockBegin
  2
*D17
 70
     1
 10
0.0
 20
0.0
 30
0.0
  3
*D17
  1

  0
LINE
  5
228F
330
197
100
AcDbEntity
  8
0
 62
     1
370
    -2
100
AcDbLine
 10
17.65441066070731
 20
20.60030444137365
 30
0.0
 11
17.40691066070731
 21
20.60030444137365
 31
0.0
  0
LINE
  5
2290
330
197
100
AcDbEntity
  8
0
 62
     1
370
    -2
100
AcDbLine
 10
17.40691066070731
 20
20.60030444137365
 30
0.0
 11
16.26351415594198
 21
19.64533924111092
 31
0.0
  0
MTEXT
  5
2291
330
197
100
AcDbEntity
  8
0
 62
     4
100
AcDbMText
 10
18.29360979952041
 20
20.60030444137365
 30
0.0
 40
0.171875
 41
0.0
 71
     5
 72
     1
  1
\A1;R0.188\P(4 PLCS.)
  7
STANDARD
 73
     1
 44
1.0
  0
SOLID
  5
2292
330
197
100
AcDbEntity
  8
0
 62
     1
100
AcDbTrace
 10
16.23707168033242
 20
19.67699927875521
 30
0.0
 11
16.28995663155153
 21
19.61367920346663
 31
0.0
 12
16.07355393007622
 22
19.48668438745359
 32
0.0
 13
16.07355393007622
 23
19.48668438745359
 33
0.0
  0
POINT
  5
2293
330
197
100
AcDbEntity
  8
DEFPOINTS
 62
     0
100
AcDbPoint
 10
16.07355393007622
 20
19.48668438745359
 30
0.0
  0
POINT
  5
2294
330
197
100
AcDbEntity
  8
DEFPOINTS
 62
     0
100
AcDbPoint
 10
15.92926091002465
 20
19.36617080164519
 30
0.0
  0
ENDBLK
  5
19F
330
197
100
AcDbEntity
  8
0
100
AcDbBlockEnd
  0
BLOCK
  5
1D2
330
1C7
100
AcDbEntity
  8
0
100
AcDbBlockBegin
  2
*D18
 70
     1
 10
0.0
 20
0.0
 30
0.0
  3
*D18
  1

  0
LINE
  5
218F
330
1C7
100
AcDbEntity
  8
0
 62
     1
370
    -2
100
AcDbLine
 10
16.71329967059215
 20
11.58842717821771
 30
0.0
 11
16.71329967059215
 21
11.92374248751111
 31
0.0
  0
LINE
  5
2190
330
1C7
100
AcDbEntity
  8
0
 62
     1
370
    -2
100
AcDbLine
 10
8.863299670592152
 20
11.58842717821771
 30
0.0
 11
8.863299670592152
 21
11.92374248751111
 31
0.0
  0
LINE
  5
2191
330
1C7
100
AcDbEntity
  8
0
 62
     1
370
    -2
100
AcDbLine
 10
16.46579967059215
 20
11.78624248751112
 30
0.0
 11
13.23061095256385
 21
11.78624248751112
 31
0.0
  0
LINE
  5
2192
330
1C7
100
AcDbEntity
  8
0
 62
     1
370
    -2
100
AcDbLine
 10
9.110799670592152
 20
11.78624248751112
 30
0.0
 11
12.40511385160886
 21
11.78624248751112
 31
0.0
  0
SOLID
  5
2193
330
1C7
100
AcDbEntity
  8
0
 62
     1
100
AcDbTrace
 10
16.46579967059215
 20
11.82749248751111
 30
0.0
 11
16.46579967059215
 21
11.74499248751111
 31
0.0
 12
16.71329967059215
 22
11.78624248751112
 32
0.0
 13
16.71329967059215
 23
11.78624248751112
 33
0.0
  0
SOLID
  5
2194
330
1C7
100
AcDbEntity
  8
0
 62
     1
100
AcDbTrace
 10
9.110799670592152
 20
11.82749248751111
 30
0.0
 11
9.110799670592152
 21
11.74499248751111
 31
0.0
 12
8.863299670592152
 22
11.78624248751112
 32
0.0
 13
8.863299670592152
 23
11.78624248751112
 33
0.0
  0
MTEXT
  5
2195
330
1C7
100
AcDbEntity
  8
0
 62
     4
100
AcDbMText
 10
12.81786240208635
 20
11.78624248751112
 30
0.0
 40
0.171875
 41
0.0
 71
     5
 72
     1
  1
\A1;7.850
  7
STANDARD
 73
     1
 44
1.0
  0
POINT
  5
2196
330
1C7
100
AcDbEntity
  8
DEFPOINTS
 62
     0
100
AcDbPoint
 10
16.71329967059215
 20
11.50248967821771
 30
0.0
  0
POINT
  5
2197
330
1C7
100
AcDbEntity
  8
DEFPOINTS
 62
     0
100
AcDbPoint
 10
8.863299670592152
 20
11.50248967821771
 30
0.0
  0
POINT
  5
2198
330
1C7
100
AcDbEntity
  8
DEFPOINTS
 62
     0
100
AcDbPoint
 10
8.863299670592152
 20
11.78624248751112
 30
0.0
  0
ENDBLK
  5
1D3
330
1C7
100
AcDbEntity
  8
0
100
AcDbBlockEnd
  0
BLOCK
  5
1FE
330
1F3
100
AcDbEntity
  8
0
100
AcDbBlockBegin
  2
*D19
 70
     1
 10
0.0
 20
0.0
 30
0.0
  3
*D19
  1

  0
LINE
  5
214F
330
1F3
100
AcDbEntity
  8
0
 62
     1
370
    -2
100
AcDbLine
 10
19.93811440940036
 20
11.76182142067281
 30
0.0
 11
19.93811440940036
 21
10.52654839579386
 31
0.0
  0
LINE
  5
2150
330
1F3
100
AcDbEntity
  8
0
 62
     1
370
    -2
100
AcDbLine
 10
27.86290413178672
 20
11.76182142067304
 30
0.0
 11
27.86290413178672
 21
10.52654839579386
 31
0.0
  0
LINE
  5
2151
330
1F3
100
AcDbEntity
  8
0
 62
     1
370
    -2
100
AcDbLine
 10
20.18561440940036
 20
10.66404839579386
 30
0.0
 11
23.4868227937859
 21
10.66404839579386
 31
0.0
  0
LINE
  5
2152
330
1F3
100
AcDbEntity
  8
0
 62
     1
370
    -2
100
AcDbLine
 10
27.61540413178672
 20
10.66404839579386
 30
0.0
 11
24.31419574740118
 21
10.66404839579386
 31
0.0
  0
SOLID
  5
2153
330
1F3
100
AcDbEntity
  8
0
 62
     1
100
AcDbTrace
 10
20.18561440940036
 20
10.70529839579386
 30
0.0
 11
20.18561440940036
 21
10.62279839579386
 31
0.0
 12
19.93811440940036
 22
10.66404839579386
 32
0.0
 13
19.93811440940036
 23
10.66404839579386
 33
0.0
  0
SOLID
  5
2154
330
1F3
100
AcDbEntity
  8
0
 62
     1
100
AcDbTrace
 10
27.61540413178672
 20
10.70529839579386
 30
0.0
 11
27.61540413178672
 21
10.62279839579386
 31
0.0
 12
27.86290413178672
 22
10.66404839579386
 32
0.0
 13
27.86290413178672
 23
10.66404839579386
 33
0.0
  0
MTEXT
  5
2155
330
1F3
100
AcDbEntity
  8
0
 62
     4
100
AcDbMText
 10
23.90050927059354
 20
10.66404839579386
 30
0.0
 40
0.171875
 41
0.0
 71
     5
 72
     1
  1
\A1;7.925
  7
STANDARD
 73
     1
 44
1.0
  0
POINT
  5
2156
330
1F3
100
AcDbEntity
  8
DEFPOINTS
 62
     0
100
AcDbPoint
 10
19.93811440940036
 20
11.84775892067281
 30
0.0
  0
POINT
  5
2157
330
1F3
100
AcDbEntity
  8
DEFPOINTS
 62
     0
100
AcDbPoint
 10
27.86290413178672
 20
11.84775892067304
 30
0.0
  0
POINT
  5
2158
330
1F3
100
AcDbEntity
  8
DEFPOINTS
 62
     0
100
AcDbPoint
 10
27.86290413178672
 20
10.66404839579386
 30
0.0
  0
ENDBLK
  5
1FF
330
1F3
100
AcDbEntity
  8
0
100
AcDbBlockEnd
  0
BLOCK
  5
20B
330
200
100
AcDbEntity
  8
0
100
AcDbBlockBegin
  2
*D20
 70
     1
 10
0.0
 20
0.0
 30
0.0
  3
*D20
  1

  0
LINE
  5
2163
330
200
100
AcDbEntity
  8
0
 62
     1
370
    -2
100
AcDbLine
 10
19.99621992807066
 20
12.60475892067304
 30
0.0
 11
19.34805625776027
 21
12.60475892067304
 31
0.0
  0
LINE
  5
2164
330
200
100
AcDbEntity
  8
0
 62
     1
370
    -2
100
AcDbLine
 10
19.9950678937854
 20
11.15675892067304
 30
0.0
 11
19.34805625776027
 21
11.15675892067304
 31
0.0
  0
LINE
  5
2165
330
200
100
AcDbEntity
  8
0
 62
     1
370
    -2
100
AcDbLine
 10
19.48555625776027
 20
12.35725892067304
 30
0.0
 11
19.48555625776027
 21
12.10191002239566
 31
0.0
  0
LINE
  5
2166
330
200
100
AcDbEntity
  8
0
 62
     1
370
    -2
100
AcDbLine
 10
19.48555625776027
 20
11.40425892067304
 30
0.0
 11
19.48555625776027
 21
11.67890055786633
 31
0.0
  0
SOLID
  5
2167
330
200
100
AcDbEntity
  8
0
 62
     1
100
AcDbTrace
 10
19.44430625776027
 20
12.35725892067304
 30
0.0
 11
19.52680625776027
 21
12.35725892067304
 31
0.0
 12
19.48555625776027
 22
12.60475892067304
 32
0.0
 13
19.48555625776027
 23
12.60475892067304
 33
0.0
  0
SOLID
  5
2168
330
200
100
AcDbEntity
  8
0
 62
     1
100
AcDbTrace
 10
19.44430625776027
 20
11.40425892067304
 30
0.0
 11
19.52680625776027
 21
11.40425892067304
 31
0.0
 12
19.48555625776027
 22
11.15675892067304
 32
0.0
 13
19.48555625776027
 23
11.15675892067304
 33
0.0
  0
MTEXT
  5
2169
330
200
100
AcDbEntity
  8
0
 62
     4
100
AcDbMText
 10
19.48555625776027
 20
11.890405290131
 30
0.0
 40
0.171875
 41
0.0
 71
     5
 72
     1
  1
\A1;1.448
  7
STANDARD
 73
     1
 44
1.0
  0
POINT
  5
216A
330
200
100
AcDbEntity
  8
DEFPOINTS
 62
     0
100
AcDbPoint
 10
20.08215742807066
 20
12.60475892067304
 30
0.0
  0
POINT
  5
216B
330
200
100
AcDbEntity
  8
DEFPOINTS
 62
     0
100
AcDbPoint
 10
20.0810053937854
 20
11.15675892067304
 30
0.0
  0
POINT
  5
216C
330
200
100
AcDbEntity
  8
DEFPOINTS
 62
     0
100
AcDbPoint
 10
19.48555625776027
 20
11.15675892067304
 30
0.0
  0
ENDBLK
  5
20C
330
200
100
AcDbEntity
  8
0
100
AcDbBlockEnd
  0
BLOCK
  5
218
330
20D
100
AcDbEntity
  8
0
100
AcDbBlockBegin
  2
*D21
 70
     1
 10
0.0
 20
0.0
 30
0.0
  3
*D21
  1

  0
LINE
  5
2159
330
20D
100
AcDbEntity
  8
0
 62
     1
370
    -2
100
AcDbLine
 10
19.9950678937854
 20
11.08675892067304
 30
0.0
 11
18.67395341021855
 21
11.08675892067304
 31
0.0
  0
LINE
  5
215A
330
20D
100
AcDbEntity
  8
0
 62
     1
370
    -2
100
AcDbLine
 10
19.99621992807066
 20
12.67475892067304
 30
0.0
 11
18.67395341021855
 21
12.67475892067304
 31
0.0
  0
LINE
  5
215B
330
20D
100
AcDbEntity
  8
0
 62
     1
370
    -2
100
AcDbLine
 10
18.81145341021855
 20
11.33425892067305
 30
0.0
 11
18.81145341021855
 21
11.68689918678191
 31
0.0
  0
LINE
  5
215C
330
20D
100
AcDbEntity
  8
0
 62
     1
370
    -2
100
AcDbLine
 10
18.81145341021855
 20
12.42725892067304
 30
0.0
 11
18.81145341021855
 21
12.10990865131124
 31
0.0
  0
SOLID
  5
215D
330
20D
100
AcDbEntity
  8
0
 62
     1
100
AcDbTrace
 10
18.77020341021855
 20
11.33425892067305
 30
0.0
 11
18.85270341021855
 21
11.33425892067305
 31
0.0
 12
18.81145341021855
 22
11.08675892067304
 32
0.0
 13
18.81145341021855
 23
11.08675892067304
 33
0.0
  0
SOLID
  5
215E
330
20D
100
AcDbEntity
  8
0
 62
     1
100
AcDbTrace
 10
18.77020341021855
 20
12.42725892067304
 30
0.0
 11
18.85270341021855
 21
12.42725892067304
 31
0.0
 12
18.81145341021855
 22
12.67475892067304
 32
0.0
 13
18.81145341021855
 23
12.67475892067304
 33
0.0
  0
MTEXT
  5
215F
330
20D
100
AcDbEntity
  8
0
 62
     4
100
AcDbMText
 10
18.81145341021855
 20
11.89840391904658
 30
0.0
 40
0.171875
 41
0.0
 71
     5
 72
     1
  1
\A1;1.588
  7
STANDARD
 73
     1
 44
1.0
  0
POINT
  5
2160
330
20D
100
AcDbEntity
  8
DEFPOINTS
 62
     0
100
AcDbPoint
 10
20.0810053937854
 20
11.08675892067304
 30
0.0
  0
POINT
  5
2161
330
20D
100
AcDbEntity
  8
DEFPOINTS
 62
     0
100
AcDbPoint
 10
20.08215742807066
 20
12.67475892067304
 30
0.0
  0
POINT
  5
2162
330
20D
100
AcDbEntity
  8
DEFPOINTS
 62
     0
100
AcDbPoint
 10
18.81145341021855
 20
12.67475892067304
 30
0.0
  0
ENDBLK
  5
219
330
20D
100
AcDbEntity
  8
0
100
AcDbBlockEnd
  0
BLOCK
  5
226
330
21A
100
AcDbEntity
  8
0
100
AcDbBlockBegin
  2
*D22
 70
     1
 10
0.0
 20
0.0
 30
0.0
  3
*D22
  1

  0
LINE
  5
216D
330
21A
100
AcDbEntity
  8
0
 62
     1
370
    -2
100
AcDbLine
 10
19.85824094613908
 20
14.060511492058
 30
0.0
 11
19.53095008902824
 21
14.060511492058
 31
0.0
  0
LINE
  5
216E
330
21A
100
AcDbEntity
  8
0
 62
     1
370
    -2
100
AcDbLine
 10
19.85941913313877
 20
14.105511492058
 30
0.0
 11
19.53095008902824
 21
14.105511492058
 31
0.0
  0
LINE
  5
216F
330
21A
100
AcDbEntity
  8
0
 62
     1
370
    -2
100
AcDbLine
 10
19.66845008902824
 20
13.813011492058
 30
0.0
 11
19.66845008902824
 21
13.565511492058
 31
0.0
  0
LINE
  5
2170
330
21A
100
AcDbEntity
  8
0
 62
     1
370
    -2
100
AcDbLine
 10
19.66845008902824
 20
14.353011492058
 30
0.0
 11
19.66845008902824
 21
14.60051149205799
 31
0.0
  0
LINE
  5
2171
330
21A
100
AcDbEntity
  8
0
 62
     1
370
    -2
100
AcDbLine
 10
19.66845008902824
 20
14.60051149205799
 30
0.0
 11
19.91595008902824
 21
14.60051149205799
 31
0.0
  0
SOLID
  5
2172
330
21A
100
AcDbEntity
  8
0
 62
     1
100
AcDbTrace
 10
19.62720008902824
 20
13.813011492058
 30
0.0
 11
19.70970008902824
 21
13.813011492058
 31
0.0
 12
19.66845008902824
 22
14.060511492058
 32
0.0
 13
19.66845008902824
 23
14.060511492058
 33
0.0
  0
SOLID
  5
2173
330
21A
100
AcDbEntity
  8
0
 62
     1
100
AcDbTrace
 10
19.62720008902824
 20
14.353011492058
 30
0.0
 11
19.70970008902824
 21
14.353011492058
 31
0.0
 12
19.66845008902824
 22
14.105511492058
 32
0.0
 13
19.66845008902824
 23
14.105511492058
 33
0.0
  0
MTEXT
  5
2174
330
21A
100
AcDbEntity
  8
0
 62
     4
100
AcDbMText
 10
20.33034001058349
 20
14.600511492058
 30
0.0
 40
0.171875
 41
0.0
 71
     5
 72
     1
  1
\A1;0.045
  7
STANDARD
 73
     1
 44
1.0
  0
POINT
  5
2175
330
21A
100
AcDbEntity
  8
DEFPOINTS
 62
     0
100
AcDbPoint
 10
19.94417844613908
 20
14.060511492058
 30
0.0
  0
POINT
  5
2176
330
21A
100
AcDbEntity
  8
DEFPOINTS
 62
     0
100
AcDbPoint
 10
19.94535663313877
 20
14.105511492058
 30
0.0
  0
POINT
  5
2177
330
21A
100
AcDbEntity
  8
DEFPOINTS
 62
     0
100
AcDbPoint
 10
19.66845008902824
 20
14.105511492058
 30
0.0
  0
ENDBLK
  5
227
330
21A
100
AcDbEntity
  8
0
100
AcDbBlockEnd
  0
BLOCK
  5
22F
330
228
100
AcDbEntity
  8
0
100
AcDbBlockBegin
  2
*D23
 70
     1
 10
0.0
 20
0.0
 30
0.0
  3
*D23
  1

  0
LINE
  5
2178
330
228
100
AcDbEntity
  8
0
 62
     1
370
    -2
100
AcDbLine
 10
28.27720236642667
 20
10.67268864650527
 30
0.0
 11
28.02970236642667
 21
10.67268864650527
 31
0.0
  0
LINE
  5
2179
330
228
100
AcDbEntity
  8
0
 62
     1
370
    -2
100
AcDbLine
 10
28.02970236642667
 20
10.67268864650527
 30
0.0
 11
27.90861534950931
 21
10.88854550725807
 31
0.0
  0
MTEXT
  5
217A
330
228
100
AcDbEntity
  8
0
 62
     4
100
AcDbMText
 10
28.91640150523977
 20
10.67268864650527
 30
0.0
 40
0.171875
 41
0.0
 71
     5
 72
     1
  1
\A1;R0.138\P(4 PLCS.)
  7
STANDARD
 73
     1
 44
1.0
  0
SOLID
  5
217B
330
228
100
AcDbEntity
  8
0
 62
     1
100
AcDbTrace
 10
27.94459149296811
 20
10.9087266767443
 30
0.0
 11
27.87263920605051
 21
10.86836433777184
 31
0.0
 12
27.78752833259194
 22
11.10440236801087
 32
0.0
 13
27.78752833259194
 23
11.10440236801087
 33
0.0
  0
POINT
  5
217C
330
228
100
AcDbEntity
  8
DEFPOINTS
 62
     0
100
AcDbPoint
 10
27.78752833259194
 20
11.10440236801087
 30
0.0
  0
POINT
  5
217D
330
228
100
AcDbEntity
  8
DEFPOINTS
 62
     0
100
AcDbPoint
 10
27.72001314740165
 20
11.22475892067304
 30
0.0
  0
ENDBLK
  5
230
330
228
100
AcDbEntity
  8
0
100
AcDbBlockEnd
  0
BLOCK
  5
238
330
231
100
AcDbEntity
  8
0
100
AcDbBlockBegin
  2
*D24
 70
     1
 10
0.0
 20
0.0
 30
0.0
  3
*D24
  1

  0
LINE
  5
217E
330
231
100
AcDbEntity
  8
0
 62
     1
370
    -2
100
AcDbLine
 10
28.20770715182802
 20
13.045405251239
 30
0.0
 11
27.96020715182803
 21
13.045405251239
 31
0.0
  0
LINE
  5
217F
330
231
100
AcDbEntity
  8
0
 62
     1
370
    -2
100
AcDbLine
 10
27.96020715182803
 20
13.045405251239
 30
0.0
 11
27.8541092040818
 21
12.82179962634543
 31
0.0
  0
MTEXT
  5
2180
330
231
100
AcDbEntity
  8
0
 62
     4
100
AcDbMText
 10
28.84690629064111
 20
13.04540525123899
 30
0.0
 40
0.171875
 41
0.0
 71
     5
 72
     1
  1
\A1;R0.068\P(4 PLCS.)
  7
STANDARD
 73
     1
 44
1.0
  0
SOLID
  5
2181
330
231
100
AcDbEntity
  8
0
 62
     1
100
AcDbTrace
 10
27.81684159993288
 20
12.83948261763647
 30
0.0
 11
27.89137680823073
 21
12.8041166350544
 31
0.0
 12
27.74801125633558
 22
12.59819400145188
 32
0.0
 13
27.74801125633558
 23
12.59819400145188
 33
0.0
  0
POINT
  5
2182
330
231
100
AcDbEntity
  8
DEFPOINTS
 62
     0
100
AcDbPoint
 10
27.74801125633558
 20
12.59819400145188
 30
0.0
  0
POINT
  5
2183
330
231
100
AcDbEntity
  8
DEFPOINTS
 62
     0
100
AcDbPoint
 10
27.71886111311642
 20
12.53675892067304
 30
0.0
  0
ENDBLK
  5
239
330
231
100
AcDbEntity
  8
0
100
AcDbBlockEnd
  0
BLOCK
  5
246
330
23A
100
AcDbEntity
  8
0
100
AcDbBlockBegin
  2
*D25
 70
     1
 10
0.0
 20
0.0
 30
0.0
  3
*D25
  1

  0
LINE
  5
2184
330
23A
100
AcDbEntity
  8
0
 62
     1
370
    -2
100
AcDbLine
 10
27.87503369562738
 20
14.01711466046523
 30
0.0
 11
28.5329502638676
 21
14.01711466046523
 31
0.0
  0
LINE
  5
2185
330
23A
100
AcDbEntity
  8
0
 62
     1
370
    -2
100
AcDbLine
 10
27.94159940804832
 20
14.105511492058
 30
0.0
 11
28.5329502638676
 21
14.10551149205799
 31
0.0
  0
LINE
  5
2186
330
23A
100
AcDbEntity
  8
0
 62
     1
370
    -2
100
AcDbLine
 10
28.3954502638676
 20
14.35301149205799
 30
0.0
 11
28.3954502638676
 21
14.60051149205799
 31
0.0
  0
LINE
  5
2187
330
23A
100
AcDbEntity
  8
0
 62
     1
370
    -2
100
AcDbLine
 10
28.3954502638676
 20
13.76961466046523
 30
0.0
 11
28.3954502638676
 21
13.52211466046523
 31
0.0
  0
LINE
  5
2188
330
23A
100
AcDbEntity
  8
0
 62
     1
370
    -2
100
AcDbLine
 10
28.3954502638676
 20
13.52211466046523
 30
0.0
 11
28.1479502638676
 21
13.52211466046523
 31
0.0
  0
SOLID
  5
2189
330
23A
100
AcDbEntity
  8
0
 62
     1
100
AcDbTrace
 10
28.3542002638676
 20
14.35301149205799
 30
0.0
 11
28.4367002638676
 21
14.35301149205799
 31
0.0
 12
28.3954502638676
 22
14.10551149205799
 32
0.0
 13
28.3954502638676
 23
14.10551149205799
 33
0.0
  0
SOLID
  5
218A
330
23A
100
AcDbEntity
  8
0
 62
     1
100
AcDbTrace
 10
28.3542002638676
 20
13.76961466046523
 30
0.0
 11
28.4367002638676
 21
13.76961466046523
 31
0.0
 12
28.3954502638676
 22
14.01711466046523
 32
0.0
 13
28.3954502638676
 23
14.01711466046523
 33
0.0
  0
MTEXT
  5
218B
330
23A
100
AcDbEntity
  8
0
 62
     4
100
AcDbMText
 10
27.73402930547742
 20
13.52211466046524
 30
0.0
 40
0.171875
 41
0.0
 71
     5
 72
     1
  1
\A1;0.088
  7
STANDARD
 73
     1
 44
1.0
  0
POINT
  5
218C
330
23A
100
AcDbEntity
  8
DEFPOINTS
 62
     0
100
AcDbPoint
 10
27.78909619562738
 20
14.01711466046523
 30
0.0
  0
POINT
  5
218D
330
23A
100
AcDbEntity
  8
DEFPOINTS
 62
     0
100
AcDbPoint
 10
27.85566190804832
 20
14.105511492058
 30
0.0
  0
POINT
  5
218E
330
23A
100
AcDbEntity
  8
DEFPOINTS
 62
     0
100
AcDbPoint
 10
28.3954502638676
 20
14.10551149205799
 30
0.0
  0
ENDBLK
  5
247
330
23A
100
AcDbEntity
  8
0
100
AcDbBlockEnd
  0
BLOCK
  5
253
330
248
100
AcDbEntity
  8
0
100
AcDbBlockBegin
  2
*D26
 70
     1
 10
0.0
 20
0.0
 30
0.0
  3
*D26
  1

  0
LINE
  5
21B7
330
248
100
AcDbEntity
  8
0
 62
     1
370
    -2
100
AcDbLine
 10
8.012417029579129
 20
6.061323679775225
 30
0.0
 11
7.539525056210373
 21
6.061323679775225
 31
0.0
  0
LINE
  5
21B8
330
248
100
AcDbEntity
  8
0
 62
     1
370
    -2
100
AcDbLine
 10
9.892362170592225
 20
7.721323679775212
 30
0.0
 11
7.539525056210373
 21
7.721323679775212
 31
0.0
  0
LINE
  5
21B9
330
248
100
AcDbEntity
  8
0
 62
     1
370
    -2
100
AcDbLine
 10
7.677025056210373
 20
6.308823679775224
 30
0.0
 11
7.677025056210373
 21
6.678221801075687
 31
0.0
  0
LINE
  5
21BA
330
248
100
AcDbEntity
  8
0
 62
     1
370
    -2
100
AcDbLine
 10
7.677025056210373
 20
7.473823679775212
 30
0.0
 11
7.677025056210373
 21
7.101231265605018
 31
0.0
  0
SOLID
  5
21BB
330
248
100
AcDbEntity
  8
0
 62
     1
100
AcDbTrace
 10
7.635775056210373
 20
6.308823679775224
 30
0.0
 11
7.718275056210373
 21
6.308823679775224
 31
0.0
 12
7.677025056210373
 22
6.061323679775225
 32
0.0
 13
7.677025056210373
 23
6.061323679775225
 33
0.0
  0
SOLID
  5
21BC
330
248
100
AcDbEntity
  8
0
 62
     1
100
AcDbTrace
 10
7.635775056210373
 20
7.473823679775212
 30
0.0
 11
7.718275056210373
 21
7.473823679775212
 31
0.0
 12
7.677025056210373
 22
7.721323679775212
 32
0.0
 13
7.677025056210373
 23
7.721323679775212
 33
0.0
  0
MTEXT
  5
21BD
330
248
100
AcDbEntity
  8
0
 62
     4
100
AcDbMText
 10
7.677025056210371
 20
6.889726533340354
 30
0.0
 40
0.171875
 41
0.0
 71
     5
 72
     1
  1
\A1;1.660
  7
STANDARD
 73
     1
 44
1.0
  0
POINT
  5
21BE
330
248
100
AcDbEntity
  8
DEFPOINTS
 62
     0
100
AcDbPoint
 10
8.098354529579129
 20
6.061323679775225
 30
0.0
  0
POINT
  5
21BF
330
248
100
AcDbEntity
  8
DEFPOINTS
 62
     0
100
AcDbPoint
 10
9.978299670592225
 20
7.721323679775212
 30
0.0
  0
POINT
  5
21C0
330
248
100
AcDbEntity
  8
DEFPOINTS
 62
     0
100
AcDbPoint
 10
7.677025056210373
 20
7.721323679775212
 30
0.0
  0
ENDBLK
  5
254
330
248
100
AcDbEntity
  8
0
100
AcDbBlockEnd
  0
BLOCK
  5
260
330
255
100
AcDbEntity
  8
0
100
AcDbBlockBegin
  2
*D27
 70
     1
 10
0.0
 20
0.0
 30
0.0
  3
*D27
  1

  0
LINE
  5
21C1
330
255
100
AcDbEntity
  8
0
 62
     1
370
    -2
100
AcDbLine
 10
8.012417029579129
 20
6.061323679775225
 30
0.0
 11
7.539525056210373
 21
6.061323679775225
 31
0.0
  0
LINE
  5
21C2
330
255
100
AcDbEntity
  8
0
 62
     1
370
    -2
100
AcDbLine
 10
9.892362170592225
 20
4.421323679775208
 30
0.0
 11
7.539525056210372
 21
4.421323679775208
 31
0.0
  0
LINE
  5
21C3
330
255
100
AcDbEntity
  8
0
 62
     1
370
    -2
100
AcDbLine
 10
7.677025056210372
 20
5.813823679775225
 30
0.0
 11
7.677025056210372
 21
5.523977818047915
 31
0.0
  0
LINE
  5
21C4
330
255
100
AcDbEntity
  8
0
 62
     1
370
    -2
100
AcDbLine
 10
7.677025056210372
 20
4.668823679775208
 30
0.0
 11
7.677025056210372
 21
5.100968353518584
 31
0.0
  0
SOLID
  5
21C5
330
255
100
AcDbEntity
  8
0
 62
     1
100
AcDbTrace
 10
7.635775056210373
 20
5.813823679775225
 30
0.0
 11
7.718275056210372
 21
5.813823679775225
 31
0.0
 12
7.677025056210373
 22
6.061323679775225
 32
0.0
 13
7.677025056210373
 23
6.061323679775225
 33
0.0
  0
SOLID
  5
21C6
330
255
100
AcDbEntity
  8
0
 62
     1
100
AcDbTrace
 10
7.635775056210373
 20
4.668823679775208
 30
0.0
 11
7.718275056210372
 21
4.668823679775208
 31
0.0
 12
7.677025056210372
 22
4.421323679775208
 32
0.0
 13
7.677025056210372
 23
4.421323679775208
 33
0.0
  0
MTEXT
  5
21C7
330
255
100
AcDbEntity
  8
0
 62
     4
100
AcDbMText
 10
7.677025056210371
 20
5.31247308578325
 30
0.0
 40
0.171875
 41
0.0
 71
     5
 72
     1
  1
\A1;1.640
  7
STANDARD
 73
     1
 44
1.0
  0
POINT
  5
21C8
330
255
100
AcDbEntity
  8
DEFPOINTS
 62
     0
100
AcDbPoint
 10
8.098354529579129
 20
6.061323679775225
 30
0.0
  0
POINT
  5
21C9
330
255
100
AcDbEntity
  8
DEFPOINTS
 62
     0
100
AcDbPoint
 10
9.978299670592225
 20
4.421323679775208
 30
0.0
  0
POINT
  5
21CA
330
255
100
AcDbEntity
  8
DEFPOINTS
 62
     0
100
AcDbPoint
 10
7.677025056210372
 20
4.421323679775208
 30
0.0
  0
ENDBLK
  5
261
330
255
100
AcDbEntity
  8
0
100
AcDbBlockEnd
  0
BLOCK
  5
26D
330
262
100
AcDbEntity
  8
0
100
AcDbBlockBegin
  2
*D28
 70
     1
 10
0.0
 20
0.0
 30
0.0
  3
*D28
  1

  0
LINE
  5
2217
330
262
100
AcDbEntity
  8
0
 62
     1
370
    -2
100
AcDbLine
 10
16.96923717059221
 20
4.811323679775179
 30
0.0
 11
18.99438543907272
 21
4.811323679775178
 31
0.0
  0
LINE
  5
2218
330
262
100
AcDbEntity
  8
0
 62
     1
370
    -2
100
AcDbLine
 10
16.96923717059222
 20
7.311323679775181
 30
0.0
 11
18.99438543907272
 21
7.31132367977518
 31
0.0
  0
LINE
  5
2219
330
262
100
AcDbEntity
  8
0
 62
     1
370
    -2
100
AcDbLine
 10
18.85688543907272
 20
5.058823679775177
 30
0.0
 11
18.85688543907272
 21
5.919938720307232
 31
0.0
  0
LINE
  5
221A
330
262
100
AcDbEntity
  8
0
 62
     1
370
    -2
100
AcDbLine
 10
18.85688543907272
 20
7.063823679775181
 30
0.0
 11
18.85688543907272
 21
6.342948184836563
 31
0.0
  0
SOLID
  5
221B
330
262
100
AcDbEntity
  8
0
 62
     1
100
AcDbTrace
 10
18.81563543907272
 20
5.058823679775177
 30
0.0
 11
18.89813543907273
 21
5.058823679775177
 31
0.0
 12
18.85688543907272
 22
4.811323679775178
 32
0.0
 13
18.85688543907272
 23
4.811323679775178
 33
0.0
  0
SOLID
  5
221C
330
262
100
AcDbEntity
  8
0
 62
     1
100
AcDbTrace
 10
18.81563543907272
 20
7.063823679775181
 30
0.0
 11
18.89813543907273
 21
7.063823679775181
 31
0.0
 12
18.85688543907272
 22
7.31132367977518
 32
0.0
 13
18.85688543907272
 23
7.31132367977518
 33
0.0
  0
MTEXT
  5
221D
330
262
100
AcDbEntity
  8
0
 62
     4
100
AcDbMText
 10
18.85688543907272
 20
6.131443452571901
 30
0.0
 40
0.171875
 41
0.0
 71
     5
 72
     1
  1
\A1;2.500
  7
STANDARD
 73
     1
 44
1.0
  0
POINT
  5
221E
330
262
100
AcDbEntity
  8
DEFPOINTS
 62
     0
100
AcDbPoint
 10
16.88329967059222
 20
4.811323679775179
 30
0.0
  0
POINT
  5
221F
330
262
100
AcDbEntity
  8
DEFPOINTS
 62
     0
100
AcDbPoint
 10
16.88329967059222
 20
7.311323679775181
 30
0.0
  0
POINT
  5
2220
330
262
100
AcDbEntity
  8
DEFPOINTS
 62
     0
100
AcDbPoint
 10
18.85688543907272
 20
7.31132367977518
 30
0.0
  0
ENDBLK
  5
26E
330
262
100
AcDbEntity
  8
0
100
AcDbBlockEnd
  0
BLOCK
  5
27A
330
26F
100
AcDbEntity
  8
0
100
AcDbBlockBegin
  2
*D29
 70
     1
 10
0.0
 20
0.0
 30
0.0
  3
*D29
  1

  0
LINE
  5
21DB
330
26F
100
AcDbEntity
  8
0
 62
     1
370
    -2
100
AcDbLine
 10
15.56829967059221
 20
4.305386179775186
 30
0.0
 11
15.56829967059221
 21
2.327445659538478
 31
0.0
  0
LINE
  5
21DC
330
26F
100
AcDbEntity
  8
0
 62
     1
370
    -2
100
AcDbLine
 10
10.00829967059221
 20
4.305386179775207
 30
0.0
 11
10.00829967059221
 21
2.327445659538478
 31
0.0
  0
LINE
  5
21DD
330
26F
100
AcDbEntity
  8
0
 62
     1
370
    -2
100
AcDbLine
 10
15.32079967059221
 20
2.464945659538478
 30
0.0
 11
13.2366425582894
 21
2.464945659538478
 31
0.0
  0
LINE
  5
21DE
330
26F
100
AcDbEntity
  8
0
 62
     1
370
    -2
100
AcDbLine
 10
10.25579967059221
 20
2.464945659538478
 30
0.0
 11
12.4097385678392
 21
2.464945659538478
 31
0.0
  0
SOLID
  5
21DF
330
26F
100
AcDbEntity
  8
0
 62
     1
100
AcDbTrace
 10
15.32079967059221
 20
2.506195659538478
 30
0.0
 11
15.32079967059221
 21
2.423695659538478
 31
0.0
 12
15.56829967059221
 22
2.464945659538478
 32
0.0
 13
15.56829967059221
 23
2.464945659538478
 33
0.0
  0
SOLID
  5
21E0
330
26F
100
AcDbEntity
  8
0
 62
     1
100
AcDbTrace
 10
10.25579967059221
 20
2.506195659538478
 30
0.0
 11
10.25579967059221
 21
2.423695659538478
 31
0.0
 12
10.00829967059221
 22
2.464945659538478
 32
0.0
 13
10.00829967059221
 23
2.464945659538478
 33
0.0
  0
MTEXT
  5
21E1
330
26F
100
AcDbEntity
  8
0
 62
     4
100
AcDbMText
 10
12.8231905630643
 20
2.464945659538478
 30
0.0
 40
0.171875
 41
0.0
 71
     5
 72
     1
  1
\A1;5.560
  7
STANDARD
 73
     1
 44
1.0
  0
POINT
  5
21E2
330
26F
100
AcDbEntity
  8
DEFPOINTS
 62
     0
100
AcDbPoint
 10
15.56829967059221
 20
4.391323679775186
 30
0.0
  0
POINT
  5
21E3
330
26F
100
AcDbEntity
  8
DEFPOINTS
 62
     0
100
AcDbPoint
 10
10.00829967059221
 20
4.391323679775207
 30
0.0
  0
POINT
  5
21E4
330
26F
100
AcDbEntity
  8
DEFPOINTS
 62
     0
100
AcDbPoint
 10
10.00829967059221
 20
2.464945659538478
 30
0.0
  0
ENDBLK
  5
27B
330
26F
100
AcDbEntity
  8
0
100
AcDbBlockEnd
  0
BLOCK
  5
282
330
27C
100
AcDbEntity
  8
0
100
AcDbBlockBegin
  2
*D30
 70
     1
 10
0.0
 20
0.0
 30
0.0
  3
*D30
  1

  0
POINT
  5
21E5
330
27C
100
AcDbEntity
  8
DEFPOINTS
 62
     0
100
AcDbPoint
 10
12.73630412495027
 20
4.328004292290766
 30
0.0
  0
POINT
  5
21E6
330
27C
100
AcDbEntity
  8
DEFPOINTS
 62
     0
100
AcDbPoint
 10
12.78829967059221
 20
4.3273236797752
 30
0.0
  0
POINT
  5
21E7
330
27C
100
AcDbEntity
  8
DEFPOINTS
 62
     0
100
AcDbPoint
 10
12.78829967059221
 20
4.3273236797752
 30
0.0
  0
POINT
  5
21E8
330
27C
100
AcDbEntity
  8
DEFPOINTS
 62
     0
100
AcDbPoint
 10
12.78829967059221
 20
4.3273236797752
 30
0.0
  0
POINT
  5
21E9
330
27C
100
AcDbEntity
  8
DEFPOINTS
 62
     0
100
AcDbPoint
 10
12.78898672631245
 20
4.32732374982586
 30
0.0
  0
ENDBLK
  5
283
330
27C
100
AcDbEntity
  8
0
100
AcDbBlockEnd
  0
BLOCK
  5
28A
330
284
100
AcDbEntity
  8
0
100
AcDbBlockBegin
  2
*D31
 70
     1
 10
0.0
 20
0.0
 30
0.0
  3
*D31
  1

  0
POINT
  5
21EA
330
284
100
AcDbEntity
  8
DEFPOINTS
 62
     0
100
AcDbPoint
 10
12.73630412534572
 20
4.377004322501565
 30
0.0
  0
POINT
  5
21EB
330
284
100
AcDbEntity
  8
DEFPOINTS
 62
     0
100
AcDbPoint
 10
12.78829967059221
 20
4.376323679775199
 30
0.0
  0
POINT
  5
21EC
330
284
100
AcDbEntity
  8
DEFPOINTS
 62
     0
100
AcDbPoint
 10
12.78829967059221
 20
4.376323679775199
 30
0.0
  0
POINT
  5
21ED
330
284
100
AcDbEntity
  8
DEFPOINTS
 62
     0
100
AcDbPoint
 10
12.78829967059221
 20
4.376323679775199
 30
0.0
  0
POINT
  5
21EE
330
284
100
AcDbEntity
  8
DEFPOINTS
 62
     0
100
AcDbPoint
 10
12.78761258437421
 20
4.376323721200139
 30
0.0
  0
ENDBLK
  5
28B
330
284
100
AcDbEntity
  8
0
100
AcDbBlockEnd
  0
BLOCK
  5
293
330
28C
100
AcDbEntity
  8
0
100
AcDbBlockBegin
  2
*D32
 70
     1
 10
0.0
 20
0.0
 30
0.0
  3
*D32
  1

  0
LINE
  5
21D5
330
28C
100
AcDbEntity
  8
0
 62
     1
370
    -2
100
AcDbLine
 10
17.74381142677181
 20
2.904258214913834
 30
0.0
 11
17.49631142677159
 21
2.904258214913834
 31
0.0
  0
LINE
  5
21D6
330
28C
100
AcDbEntity
  8
0
 62
     1
370
    -2
100
AcDbLine
 10
17.49631142677159
 20
2.904258214913834
 30
0.0
 11
15.79817035456432
 21
4.240448809629578
 31
0.0
  0
MTEXT
  5
21D7
330
28C
100
AcDbEntity
  8
0
 62
     4
100
AcDbMText
 10
18.52622019211969
 20
2.904258214913834
 30
0.0
 40
0.171875
 41
0.0
 71
     5
 72
     1
  1
\A1;\U+22050.090 I.D.\P%%c0.188 O.D.\P(6 PLCS.)
  7
STANDARD
 73
     1
 44
1.0
  0
SOLID
  5
21D8
330
28C
100
AcDbEntity
  8
0
 62
     1
100
AcDbTrace
 10
15.82367834907204
 20
4.272866470189747
 30
0.0
 11
15.77266236005661
 21
4.208031149069407
 31
0.0
 12
15.6036643912033
 22
4.393496776675863
 32
0.0
 13
15.6036643912033
 23
4.393496776675863
 33
0.0
  0
POINT
  5
21D9
330
28C
100
AcDbEntity
  8
DEFPOINTS
 62
     0
100
AcDbPoint
 10
15.6036643912033
 20
4.393496776675863
 30
0.0
  0
POINT
  5
21DA
330
28C
100
AcDbEntity
  8
DEFPOINTS
 62
     0
100
AcDbPoint
 10
15.53293494998112
 20
4.44915058287451
 30
0.0
  0
ENDBLK
  5
294
330
28C
100
AcDbEntity
  8
0
100
AcDbBlockEnd
  0
BLOCK
  5
2A9
330
29E
100
AcDbEntity
  8
0
100
AcDbBlockBegin
  2
*D33
 70
     1
 10
0.0
 20
0.0
 30
0.0
  3
*D33
  1

  0
LINE
  5
220D
330
29E
100
AcDbEntity
  8
0
 62
     1
370
    -2
100
AcDbLine
 10
16.88329967059222
 20
7.427261179775179
 30
0.0
 11
16.88329967059222
 21
9.364486381861262
 31
0.0
  0
LINE
  5
220E
330
29E
100
AcDbEntity
  8
0
 62
     1
370
    -2
100
AcDbLine
 10
8.693299670592228
 20
7.427261179775214
 30
0.0
 11
8.693299670592228
 21
9.364486381861262
 31
0.0
  0
LINE
  5
220F
330
29E
100
AcDbEntity
  8
0
 62
     1
370
    -2
100
AcDbLine
 10
16.63579967059222
 20
9.22698638186126
 30
0.0
 11
13.22100679683305
 21
9.22698638186126
 31
0.0
  0
LINE
  5
2210
330
29E
100
AcDbEntity
  8
0
 62
     1
370
    -2
100
AcDbLine
 10
8.940799670592229
 20
9.22698638186126
 30
0.0
 11
12.3938683248003
 21
9.22698638186126
 31
0.0
  0
SOLID
  5
2211
330
29E
100
AcDbEntity
  8
0
 62
     1
100
AcDbTrace
 10
16.63579967059222
 20
9.26823638186126
 30
0.0
 11
16.63579967059222
 21
9.185736381861261
 31
0.0
 12
16.88329967059222
 22
9.22698638186126
 32
0.0
 13
16.88329967059222
 23
9.22698638186126
 33
0.0
  0
SOLID
  5
2212
330
29E
100
AcDbEntity
  8
0
 62
     1
100
AcDbTrace
 10
8.940799670592229
 20
9.26823638186126
 30
0.0
 11
8.940799670592229
 21
9.185736381861261
 31
0.0
 12
8.693299670592228
 22
9.22698638186126
 32
0.0
 13
8.693299670592228
 23
9.22698638186126
 33
0.0
  0
MTEXT
  5
2213
330
29E
100
AcDbEntity
  8
0
 62
     4
100
AcDbMText
 10
12.80743756081667
 20
9.22698638186126
 30
0.0
 40
0.171875
 41
0.0
 71
     5
 72
     1
  1
\A1;8.190
  7
STANDARD
 73
     1
 44
1.0
  0
POINT
  5
2214
330
29E
100
AcDbEntity
  8
DEFPOINTS
 62
     0
100
AcDbPoint
 10
16.88329967059222
 20
7.341323679775179
 30
0.0
  0
POINT
  5
2215
330
29E
100
AcDbEntity
  8
DEFPOINTS
 62
     0
100
AcDbPoint
 10
8.693299670592228
 20
7.341323679775214
 30
0.0
  0
POINT
  5
2216
330
29E
100
AcDbEntity
  8
DEFPOINTS
 62
     0
100
AcDbPoint
 10
8.693299670592228
 20
9.22698638186126
 30
0.0
  0
ENDBLK
  5
2AA
330
29E
100
AcDbEntity
  8
0
100
AcDbBlockEnd
  0
BLOCK
  5
12F4
330
12E9
100
AcDbEntity
  8
0
100
AcDbBlockBegin
  2
*D34
 70
     1
 10
0.0
 20
0.0
 30
0.0
  3
*D34
  1

  0
LINE
  5
2271
330
12E9
100
AcDbEntity
  8
0
 62
     1
370
    -2
100
AcDbLine
 10
4.030262913443485
 20
16.57421783880763
 30
0.0
 11
4.030262913443485
 21
16.38350108793775
 31
0.0
  0
LINE
  5
2272
330
12E9
100
AcDbEntity
  8
0
 62
     1
370
    -2
100
AcDbLine
 10
4.140262913443488
 20
16.62095465101904
 30
0.0
 11
4.140262913443488
 21
16.38350108793775
 31
0.0
  0
LINE
  5
2273
330
12E9
100
AcDbEntity
  8
0
 62
     1
370
    -2
100
AcDbLine
 10
4.387762913443488
 20
16.52100108793775
 30
0.0
 11
4.635262913443488
 21
16.52100108793775
 31
0.0
  0
LINE
  5
2274
330
12E9
100
AcDbEntity
  8
0
 62
     1
370
    -2
100
AcDbLine
 10
3.782762913443485
 20
16.52100108793775
 30
0.0
 11
3.535262913443485
 21
16.52100108793775
 31
0.0
  0
SOLID
  5
2275
330
12E9
100
AcDbEntity
  8
0
 62
     1
100
AcDbTrace
 10
4.387762913443488
 20
16.56225108793775
 30
0.0
 11
4.387762913443488
 21
16.47975108793775
 31
0.0
 12
4.140262913443488
 22
16.52100108793775
 32
0.0
 13
4.140262913443488
 23
16.52100108793775
 33
0.0
  0
SOLID
  5
2276
330
12E9
100
AcDbEntity
  8
0
 62
     1
100
AcDbTrace
 10
3.782762913443485
 20
16.56225108793775
 30
0.0
 11
3.782762913443485
 21
16.47975108793775
 31
0.0
 12
4.030262913443485
 22
16.52100108793775
 32
0.0
 13
4.030262913443485
 23
16.52100108793775
 33
0.0
  0
MTEXT
  5
2277
330
12E9
100
AcDbEntity
  8
0
 62
     4
100
AcDbMText
 10
3.121810918218383
 20
16.52100108793775
 30
0.0
 40
0.171875
 41
0.0
 71
     5
 72
     1
  1
\A1;0.110
  7
STANDARD
 73
     1
 44
1.0
  0
POINT
  5
2278
330
12E9
100
AcDbEntity
  8
DEFPOINTS
 62
     0
100
AcDbPoint
 10
4.030262913443485
 20
16.66015533880763
 30
0.0
  0
POINT
  5
2279
330
12E9
100
AcDbEntity
  8
DEFPOINTS
 62
     0
100
AcDbPoint
 10
4.140262913443488
 20
16.70689215101904
 30
0.0
  0
POINT
  5
227A
330
12E9
100
AcDbEntity
  8
DEFPOINTS
 62
     0
100
AcDbPoint
 10
4.140262913443488
 20
16.52100108793775
 30
0.0
  0
ENDBLK
  5
12F5
330
12E9
100
AcDbEntity
  8
0
100
AcDbBlockEnd
  0
BLOCK
  5
172B
330
1720
100
AcDbEntity
  8
0
100
AcDbBlockBegin
  2
*D35
 70
     1
 10
0.0
 20
0.0
 30
0.0
  3
*D35
  1

  0
LINE
  5
2145
330
1720
100
AcDbEntity
  8
0
 62
     1
370
    -2
100
AcDbLine
 10
20.01192238143818
 20
11.93369642067281
 30
0.0
 11
20.01192238143818
 21
13.09199450545942
 31
0.0
  0
LINE
  5
2146
330
1720
100
AcDbEntity
  8
0
 62
     1
370
    -2
100
AcDbLine
 10
27.78909615974891
 20
11.93369642067304
 30
0.0
 11
27.78909615974891
 21
13.09199450545942
 31
0.0
  0
LINE
  5
2147
330
1720
100
AcDbEntity
  8
0
 62
     1
370
    -2
100
AcDbLine
 10
20.25942238143817
 20
12.95449450545942
 30
0.0
 11
23.48746761813788
 21
12.95449450545942
 31
0.0
  0
LINE
  5
2148
330
1720
100
AcDbEntity
  8
0
 62
     1
370
    -2
100
AcDbLine
 10
27.54159615974891
 20
12.95449450545942
 30
0.0
 11
24.3135509230492
 21
12.95449450545942
 31
0.0
  0
SOLID
  5
2149
330
1720
100
AcDbEntity
  8
0
 62
     1
100
AcDbTrace
 10
20.25942238143817
 20
12.99574450545942
 30
0.0
 11
20.25942238143817
 21
12.91324450545942
 31
0.0
 12
20.01192238143818
 22
12.95449450545942
 32
0.0
 13
20.01192238143818
 23
12.95449450545942
 33
0.0
  0
SOLID
  5
214A
330
1720
100
AcDbEntity
  8
0
 62
     1
100
AcDbTrace
 10
27.54159615974891
 20
12.99574450545942
 30
0.0
 11
27.54159615974891
 21
12.91324450545942
 31
0.0
 12
27.78909615974891
 22
12.95449450545942
 32
0.0
 13
27.78909615974891
 23
12.95449450545942
 33
0.0
  0
MTEXT
  5
214B
330
1720
100
AcDbEntity
  8
0
 62
     4
100
AcDbMText
 10
23.90050927059354
 20
12.95449450545942
 30
0.0
 40
0.171875
 41
0.0
 71
     5
 72
     1
  1
\A1;7.777
  7
STANDARD
 73
     1
 44
1.0
  0
POINT
  5
214C
330
1720
100
AcDbEntity
  8
DEFPOINTS
 62
     0
100
AcDbPoint
 10
20.01192238143818
 20
11.84775892067281
 30
0.0
  0
POINT
  5
214D
330
1720
100
AcDbEntity
  8
DEFPOINTS
 62
     0
100
AcDbPoint
 10
27.78909615974891
 20
11.84775892067304
 30
0.0
  0
POINT
  5
214E
330
1720
100
AcDbEntity
  8
DEFPOINTS
 62
     0
100
AcDbPoint
 10
27.78909615974891
 20
12.95449450545942
 30
0.0
  0
ENDBLK
  5
172C
330
1720
100
AcDbEntity
  8
0
100
AcDbBlockEnd
  0
BLOCK
  5
17A0
330
1795
100
AcDbEntity
  8
0
100
AcDbBlockBegin
  2
*D36
 70
     1
 10
0.0
 20
0.0
 30
0.0
  3
*D36
  1

  0
LINE
  5
2235
330
1795
100
AcDbEntity
  8
0
 62
     1
370
    -2
100
AcDbLine
 10
17.37824481160527
 20
16.90073330164524
 30
0.0
 11
17.37824481160527
 21
14.27459356734979
 31
0.0
  0
LINE
  5
2236
330
1795
100
AcDbEntity
  8
0
 62
     1
370
    -2
100
AcDbLine
 10
8.198354529579063
 20
16.90073330164521
 30
0.0
 11
8.198354529579063
 21
14.27459356734979
 31
0.0
  0
LINE
  5
2237
330
1795
100
AcDbEntity
  8
0
 62
     1
370
    -2
100
AcDbLine
 10
17.13074481160527
 20
14.41209356734979
 30
0.0
 11
13.22088955604172
 21
14.41209356734979
 31
0.0
  0
LINE
  5
2238
330
1795
100
AcDbEntity
  8
0
 62
     1
370
    -2
100
AcDbLine
 10
8.445854529579063
 20
14.41209356734979
 30
0.0
 11
12.39398556559152
 21
14.41209356734979
 31
0.0
  0
SOLID
  5
2239
330
1795
100
AcDbEntity
  8
0
 62
     1
100
AcDbTrace
 10
17.13074481160527
 20
14.45334356734979
 30
0.0
 11
17.13074481160527
 21
14.37084356734979
 31
0.0
 12
17.37824481160527
 22
14.41209356734979
 32
0.0
 13
17.37824481160527
 23
14.41209356734979
 33
0.0
  0
SOLID
  5
223A
330
1795
100
AcDbEntity
  8
0
 62
     1
100
AcDbTrace
 10
8.445854529579063
 20
14.45334356734979
 30
0.0
 11
8.445854529579063
 21
14.37084356734979
 31
0.0
 12
8.198354529579063
 22
14.41209356734979
 32
0.0
 13
8.198354529579063
 23
14.41209356734979
 33
0.0
  0
MTEXT
  5
223B
330
1795
100
AcDbEntity
  8
0
 62
     4
100
AcDbMText
 10
12.80743756081662
 20
14.41209356734979
 30
0.0
 40
0.171875
 41
0.0
 71
     5
 72
     1
  1
\A1;9.180
  7
STANDARD
 73
     1
 44
1.0
  0
POINT
  5
223C
330
1795
100
AcDbEntity
  8
DEFPOINTS
 62
     0
100
AcDbPoint
 10
17.37824481160527
 20
16.98667080164524
 30
0.0
  0
POINT
  5
223D
330
1795
100
AcDbEntity
  8
DEFPOINTS
 62
     0
100
AcDbPoint
 10
8.198354529579063
 20
16.98667080164521
 30
0.0
  0
POINT
  5
223E
330
1795
100
AcDbEntity
  8
DEFPOINTS
 62
     0
100
AcDbPoint
 10
8.198354529579063
 20
14.41209356734979
 30
0.0
  0
ENDBLK
  5
17A1
330
1795
100
AcDbEntity
  8
0
100
AcDbBlockEnd
  0
BLOCK
  5
17E6
330
17DB
100
AcDbEntity
  8
0
100
AcDbBlockBegin
  2
*D37
 70
     1
 10
0.0
 20
0.0
 30
0.0
  3
*D37
  1

  0
LINE
  5
21AD
330
17DB
100
AcDbEntity
  8
0
 62
     1
370
    -2
100
AcDbLine
 10
8.985175445815261
 20
13.06548967821772
 30
0.0
 11
6.881675765606636
 21
13.06548967821772
 31
0.0
  0
LINE
  5
21AE
330
17DB
100
AcDbEntity
  8
0
 62
     1
370
    -2
100
AcDbLine
 10
8.32515210240456
 20
10.70248967821771
 30
0.0
 11
6.881675765606636
 21
10.70248967821771
 31
0.0
  0
LINE
  5
21AF
330
17DB
100
AcDbEntity
  8
0
 62
     1
370
    -2
100
AcDbLine
 10
7.019175765606636
 20
12.81798967821772
 30
0.0
 11
7.019175765606636
 21
12.09555303087802
 31
0.0
  0
LINE
  5
21B0
330
17DB
100
AcDbEntity
  8
0
 62
     1
370
    -2
100
AcDbLine
 10
7.019175765606636
 20
10.94998967821771
 30
0.0
 11
7.019175765606636
 21
11.67242632555742
 31
0.0
  0
SOLID
  5
21B1
330
17DB
100
AcDbEntity
  8
0
 62
     1
100
AcDbTrace
 10
6.977925765606636
 20
12.81798967821772
 30
0.0
 11
7.060425765606636
 21
12.81798967821772
 31
0.0
 12
7.019175765606636
 22
13.06548967821772
 32
0.0
 13
7.019175765606636
 23
13.06548967821772
 33
0.0
  0
SOLID
  5
21B2
330
17DB
100
AcDbEntity
  8
0
 62
     1
100
AcDbTrace
 10
6.977925765606636
 20
10.94998967821771
 30
0.0
 11
7.060425765606636
 21
10.94998967821771
 31
0.0
 12
7.019175765606636
 22
10.70248967821771
 32
0.0
 13
7.019175765606636
 23
10.70248967821771
 33
0.0
  0
MTEXT
  5
21B3
330
17DB
100
AcDbEntity
  8
0
 62
     4
100
AcDbMText
 10
7.019175765606634
 20
11.88398967821772
 30
0.0
 40
0.171875
 41
0.0
 71
     5
 72
     1
  1
\A1;2.363
  7
STANDARD
 73
     1
 44
1.0
  0
POINT
  5
21B4
330
17DB
100
AcDbEntity
  8
DEFPOINTS
 62
     0
100
AcDbPoint
 10
9.071112945815261
 20
13.06548967821772
 30
0.0
  0
POINT
  5
21B5
330
17DB
100
AcDbEntity
  8
DEFPOINTS
 62
     0
100
AcDbPoint
 10
8.41108960240456
 20
10.70248967821771
 30
0.0
  0
POINT
  5
21B6
330
17DB
100
AcDbEntity
  8
DEFPOINTS
 62
     0
100
AcDbPoint
 10
7.019175765606636
 20
10.70248967821771
 30
0.0
  0
ENDBLK
  5
17E7
330
17DB
100
AcDbEntity
  8
0
100
AcDbBlockEnd
  0
BLOCK
  5
187A
330
1818
100
AcDbEntity
  8
0
100
AcDbBlockBegin
  2
C
 70
     2
 10
0.0
 20
0.0
 30
0.0
  3
C
  1

  0
ATTDEF
  5
1819
330
1818
100
AcDbEntity
  8
TEXT
100
AcDbText
 10
16.47785051577857
 20
0.5394050456177202
 30
0.0
 40
0.125
  1

 41
0.75
 72
     1
 11
16.47785051577857
 21
0.5394050456177202
 31
0.0
100
AcDbAttributeDefinition
  3
ENTER INITIALS
  2
NAME
 70
     4
  0
ATTDEF
  5
181A
330
1818
100
AcDbEntity
  8
TEXT
100
AcDbText
 10
17.17323597631695
 20
0.5394050456177202
 30
0.0
 40
0.125
  1

 41
0.75
 72
     1
 11
17.17323597631695
 21
0.5394050456177202
 31
0.0
100
AcDbAttributeDefinition
  3
ENTER DATE
  2
DATE
 70
     4
  0
ATTDEF
  5
181B
330
1818
100
AcDbEntity
  8
TEXT
100
AcDbText
 10
20.4336228000444
 20
0.7106068173304485
 30
0.0
 40
0.125
  1

 41
0.75
 72
     1
 11
20.4336228000444
 21
0.7106068173304485
 31
0.0
100
AcDbAttributeDefinition
  3
ENTER TITLE LINE #1
  2
TITLE1
 70
     4
  0
ATTDEF
  5
181C
330
1818
100
AcDbEntity
  8
TEXT
100
AcDbText
 10
20.3867478000444
 20
0.4994773512041509
 30
0.0
 40
0.125
  1
 
 41
0.75
 72
     1
 11
20.4336228000444
 21
0.4994773512041509
 31
0.0
100
AcDbAttributeDefinition
  3
ENTER TITLE LINE #2
  2
TITLE2
 70
     4
  0
ATTDEF
  5
181D
330
1818
100
AcDbEntity
  8
TEXT
100
AcDbText
 10
20.57174758838052
 20
0.1062243331644149
 30
0.0
 40
0.156
  1
 
 41
0.75
 72
     1
 11
20.63024758838051
 21
0.1062243331644149
 31
0.0
100
AcDbAttributeDefinition
  3
ENTER PART #
  2
PART
 70
     4
  0
ATTDEF
  5
181E
330
1818
100
AcDbEntity
  8
TEXT
100
AcDbText
 10
20.63024758838051
 20
15.30264083603648
 30
0.0
 40
0.156
  1

 41
0.75
 72
     1
 11
20.63024758838051
 21
15.30264083603648
 31
0.0
100
AcDbAttributeDefinition
  3
ENTER PART #
  2
PART
 70
     4
  0
ATTDEF
  5
181F
330
1818
100
AcDbEntity
  8
TEXT
100
AcDbText
 10
12.05689760415074
 20
1.182012335097561
 30
0.0
 40
0.125
  1

 41
4.93641642638573
 72
     5
 11
15.96489394170611
 21
1.182012335097561
 31
0.0
100
AcDbAttributeDefinition
  3
ENTER CUT SIZE
  2
CUTSIZE
 70
     4
  0
ATTDEF
  5
1820
330
1818
100
AcDbEntity
  8
TEXT
100
AcDbText
 10
12.19437068912895
 20
0.2867788269611924
 30
0.0
 40
0.125
  1

 41
0.75
 72
     1
 11
12.19437068912895
 21
0.2867788269611924
 31
0.0
100
AcDbAttributeDefinition
  3
ENTER QUANTITY
  2
QTY
 70
     4
  0
ATTDEF
  5
1821
330
1818
100
AcDbEntity
  8
TEXT
100
AcDbText
 10
13.13905420252699
 20
0.2867788269611924
 30
0.0
 40
0.125
  1

 41
0.75
 72
     1
 11
13.13905420252699
 21
0.2867788269611924
 31
0.0
100
AcDbAttributeDefinition
  3
ENTER "USED ON" PART #
  2
USED
 70
     4
  0
ATTDEF
  5
1822
330
1818
100
AcDbEntity
  8
TEXT
100
AcDbText
 10
16.72398122291403
 20
0.9555323710702353
 30
0.0
 40
0.125
  1
AS NOTED
 41
0.75
 72
     1
 11
17.08335622291403
 21
0.9555323710702353
 31
0.0
100
AcDbAttributeDefinition
  3
ENTER MATERIAL
  2
MAT
 70
     4
  0
ATTDEF
  5
1823
330
1818
100
AcDbEntity
  8
TEXT
100
AcDbText
 10
16.70835622291403
 20
0.7436542078606632
 30
0.0
 40
0.125
  1
SEE SPEC.
 41
0.75
 72
     1
 11
17.08335622291403
 21
0.7436542078606632
 31
0.0
100
AcDbAttributeDefinition
  3
ENTER FINISH
  2
FINISH
 70
     4
  0
LINE
  5
1824
330
1818
100
AcDbEntity
  8
TITLE
100
AcDbLine
 10
0.0
 20
0.0
 30
0.0
 11
21.49999999999999
 21
0.0
 31
0.0
  0
LINE
  5
1825
330
1818
100
AcDbEntity
  8
TITLE
100
AcDbLine
 10
0.0
 20
15.625
 30
0.0
 11
0.0
 21
0.0
 31
0.0
  0
LINE
  5
1826
330
1818
100
AcDbEntity
  8
TITLE
100
AcDbLine
 10
12.01999999999999
 20
1.377
 30
0.0
 11
12.01999999999999
 21
-0.0000000000000004
 31
0.0
  0
LINE
  5
1827
330
1818
100
AcDbEntity
  8
TITLE
100
AcDbLine
 10
19.6875
 20
14.9375
 30
0.0
 11
19.6875
 21
15.1875
 31
0.0
  0
TEXT
  5
1828
330
1818
100
AcDbEntity
  8
TITLE
100
AcDbText
 10
19.1875
 20
15.4375
 30
0.0
 40
0.09375
  1
DWG.
100
AcDbText
  0
TEXT
  5
1829
330
1818
100
AcDbEntity
  8
TITLE
100
AcDbText
 10
19.17928468339757
 20
15.02367246868617
 30
0.0
 40
0.09375
  1
ISSUE
100
AcDbText
  0
LINE
  5
182A
330
1818
100
AcDbEntity
  8
TITLE
100
AcDbLine
 10
19.0625
 20
14.9375
 30
0.0
 11
19.0625
 21
15.625
 31
0.0
  0
TEXT
  5
182B
330
1818
100
AcDbEntity
  8
TITLE
100
AcDbText
 10
19.1875
 20
15.28125
 30
0.0
 40
0.09375
  1
NO.
100
AcDbText
  0
LINE
  5
182C
330
1818
100
AcDbEntity
  8
TITLE
100
AcDbLine
 10
19.0625
 20
14.9375
 30
0.0
 11
21.49999999999999
 21
14.9375
 31
0.0
  0
LINE
  5
182D
330
1818
100
AcDbEntity
  8
TITLE
100
AcDbLine
 10
19.0625
 20
15.1875
 30
0.0
 11
21.49999999999999
 21
15.1875
 31
0.0
  0
TEXT
  5
182E
330
1818
100
AcDbEntity
  8
TITLE
100
AcDbText
 10
20.12324012267808
 20
15.02584779209924
 30
0.0
 40
0.09375
  1
REVISIONS
100
AcDbText
  0
TEXT
  5
182F
330
1818
100
AcDbEntity
  8
TITLE
100
AcDbText
 10
19.4375
 20
0.9903543852819179
 30
0.0
 40
0.09375
  1
NAME:
100
AcDbText
  0
TEXT
  5
1830
330
1818
100
AcDbEntity
  8
TITLE
100
AcDbText
 10
19.4375
 20
0.0631657164931343
 30
0.0
 40
0.0938
  1
NO.
100
AcDbText
  0
TEXT
  5
1831
330
1818
100
AcDbEntity
  8
TITLE
100
AcDbText
 10
19.4375
 20
0.2194990498264686
 30
0.0
 40
0.0938
  1
DWG.
100
AcDbText
  0
LINE
  5
1832
330
1818
100
AcDbEntity
  8
TITLE
100
AcDbLine
 10
19.36724560008882
 20
-0.0000000000000004
 30
0.0
 11
19.36724560008882
 21
1.127
 31
0.0
  0
LINE
  5
1833
330
1818
100
AcDbEntity
  8
TITLE
100
AcDbLine
 10
18.4365
 20
1.127
 30
0.0
 11
18.4365
 21
1.377
 31
0.0
  0
LINE
  5
1834
330
1818
100
AcDbEntity
  8
TITLE
100
AcDbLine
 10
18.63673299114847
 20
0.8590073451518431
 30
0.0
 11
18.66976251320413
 21
0.8590073451518431
 31
0.0
  0
ARC
  5
1835
330
1818
100
AcDbEntity
  8
TITLE
100
AcDbCircle
 10
18.66976251320413
 20
0.7660701812170974
 30
0.0
 40
0.0929371639347451
100
AcDbArc
 50
0.0
 51
90.0
  0
LINE
  5
1836
330
1818
100
AcDbEntity
  8
TITLE
100
AcDbLine
 10
18.71386129933556
 20
0.7328783369546899
 30
0.0
 11
18.67256370982726
 21
0.7328783369546899
 31
0.0
  0
LINE
  5
1837
330
1818
100
AcDbEntity
  8
TITLE
100
AcDbLine
 10
18.63673299114847
 20
0.5934725910525716
 30
0.0
 11
18.66976251320413
 21
0.5934725910525716
 31
0.0
  0
ARC
  5
1838
330
1818
100
AcDbEntity
  8
TITLE
100
AcDbCircle
 10
18.66976251320413
 20
0.6864097549873174
 30
0.0
 40
0.0929371639347451
100
AcDbArc
 50
270.0
 51
0.0
  0
LINE
  5
1839
330
1818
100
AcDbEntity
  8
TITLE
100
AcDbLine
 10
18.71386129933556
 20
0.7196015992497254
 30
0.0
 11
18.67256370982726
 21
0.7196015992497254
 31
0.0
  0
LINE
  5
183A
330
1818
100
AcDbEntity
  8
TITLE
100
AcDbLine
 10
18.63673299114847
 20
0.5934725910525716
 30
0.0
 11
18.63673299114847
 21
0.8590073451518431
 31
0.0
  0
LINE
  5
183B
330
1818
100
AcDbEntity
  8
TITLE
100
AcDbLine
 10
18.67256370982726
 20
0.7196015992497254
 30
0.0
 11
18.67256370982726
 21
0.7328783369546899
 31
0.0
  0
LINE
  5
183C
330
1818
100
AcDbEntity
  8
TITLE
100
AcDbLine
 10
18.76269967713888
 20
0.6864097549873174
 30
0.0
 11
18.76269967713888
 21
0.7660701812170974
 31
0.0
  0
LINE
  5
183D
330
1818
100
AcDbEntity
  8
TITLE
100
AcDbLine
 10
18.71386129933556
 20
0.7196015992497254
 30
0.0
 11
18.71386129933556
 21
0.7328783369546899
 31
0.0
  0
LINE
  5
183E
330
1818
100
AcDbEntity
  8
TITLE
100
AcDbLine
 10
18.53388478947083
 20
0.8590073451518431
 30
0.0
 11
18.58242241159558
 21
0.8590073451518431
 31
0.0
  0
LINE
  5
183F
330
1818
100
AcDbEntity
  8
TITLE
100
AcDbLine
 10
18.46223401395335
 20
0.8590073451518431
 30
0.0
 11
18.5107716360781
 21
0.8590073451518431
 31
0.0
  0
ARC
  5
1840
330
1818
100
AcDbEntity
  8
TITLE
100
AcDbCircle
 10
18.52404837378307
 20
0.6367964281680929
 30
0.0
 40
0.0132767377049636
100
AcDbArc
 50
180.0
 51
262.5557159022863
  0
ARC
  5
1841
330
1818
100
AcDbEntity
  8
TITLE
100
AcDbCircle
 10
18.52060805176588
 20
0.6367964281680929
 30
0.0
 40
0.0132767377049636
100
AcDbArc
 50
277.4442840977136
 51
0.0
  0
ARC
  5
1842
330
1818
100
AcDbEntity
  8
TITLE
100
AcDbCircle
 10
18.56582648946438
 20
0.6100685131837765
 30
0.0
 40
0.0165959221312045
100
AcDbArc
 50
270.0
 51
0.0
  0
ARC
  5
1843
330
1818
100
AcDbEntity
  8
TITLE
100
AcDbCircle
 10
18.47882993608456
 20
0.6100685131837765
 30
0.0
 40
0.0165959221312045
100
AcDbArc
 50
180.0
 51
270.0
  0
LINE
  5
1844
330
1818
100
AcDbEntity
  8
TITLE
100
AcDbLine
 10
18.47882993608456
 20
0.5934725910525716
 30
0.0
 11
18.56582648946438
 21
0.5934725910525716
 31
0.0
  0
LINE
  5
1845
330
1818
100
AcDbEntity
  8
TITLE
100
AcDbLine
 10
18.5107716360781
 20
0.6367964281680929
 30
0.0
 11
18.5107716360781
 21
0.8590073451518431
 31
0.0
  0
LINE
  5
1846
330
1818
100
AcDbEntity
  8
TITLE
100
AcDbLine
 10
18.53388478947083
 20
0.6367964281680929
 30
0.0
 11
18.53388478947083
 21
0.8590073451518431
 31
0.0
  0
LINE
  5
1847
330
1818
100
AcDbEntity
  8
TITLE
100
AcDbLine
 10
18.46223401395335
 20
0.6100685131837765
 30
0.0
 11
18.46223401395335
 21
0.8590073451518431
 31
0.0
  0
LINE
  5
1848
330
1818
100
AcDbEntity
  8
TITLE
100
AcDbLine
 10
18.58242241159558
 20
0.6100685131837765
 30
0.0
 11
18.58242241159558
 21
0.8590073451518431
 31
0.0
  0
LINE
  5
1849
330
1818
100
AcDbEntity
  8
TITLE
100
AcDbLine
 10
18.36284745436459
 20
0.7328783369546899
 30
0.0
 11
18.29004102117746
 21
0.7328783369546899
 31
0.0
  0
LINE
  5
184A
330
1818
100
AcDbEntity
  8
TITLE
100
AcDbLine
 10
18.27732878681146
 20
0.8590073451518431
 30
0.0
 11
18.36284745436459
 21
0.8590073451518431
 31
0.0
  0
LINE
  5
184B
330
1818
100
AcDbEntity
  8
TITLE
100
AcDbLine
 10
18.29004102117746
 20
0.7196015992497254
 30
0.0
 11
18.29004102117746
 21
0.7262399681022083
 31
0.0
  0
LINE
  5
184C
330
1818
100
AcDbEntity
  8
TITLE
100
AcDbLine
 10
18.27732878681146
 20
0.5934725910525716
 30
0.0
 11
18.36284745436459
 21
0.5934725910525716
 31
0.0
  0
LINE
  5
184D
330
1818
100
AcDbEntity
  8
TITLE
100
AcDbLine
 10
18.36284745436459
 20
0.7196015992497254
 30
0.0
 11
18.29004102117746
 21
0.7196015992497254
 31
0.0
  0
LINE
  5
184E
330
1818
100
AcDbEntity
  8
TITLE
100
AcDbLine
 10
18.27732878681146
 20
0.5934725910525716
 30
0.0
 11
18.27732878681146
 21
0.8590073451518431
 31
0.0
  0
LINE
  5
184F
330
1818
100
AcDbEntity
  8
TITLE
100
AcDbLine
 10
18.29004102117746
 20
0.7328783369546899
 30
0.0
 11
18.29004102117746
 21
0.7262399681022083
 31
0.0
  0
ARC
  5
1850
330
1818
100
AcDbEntity
  8
TITLE
100
AcDbCircle
 10
18.36284745436459
 20
0.7959428410532668
 30
0.0
 40
0.063064504098577
100
AcDbArc
 50
270.0
 51
90.0
  0
ARC
  5
1851
330
1818
100
AcDbEntity
  8
TITLE
100
AcDbCircle
 10
18.36284745436459
 20
0.6565370951511494
 30
0.0
 40
0.063064504098577
100
AcDbArc
 50
270.0
 51
90.00000000000003
  0
TEXT
  5
1852
330
1818
100
AcDbEntity
  8
TITLE
100
AcDbText
 10
17.37549999999999
 20
1.197740762992484
 30
0.0
 40
0.09375
  1
PART NO.
100
AcDbText
  0
TEXT
  5
1853
330
1818
100
AcDbEntity
  8
TITLE
100
AcDbText
 10
17.70237987390002
 20
0.9755983592151281
 30
0.0
 40
0.09375
  1
SCALE:
100
AcDbText
  0
LINE
  5
1854
330
1818
100
AcDbEntity
  8
TITLE
100
AcDbLine
 10
17.66353790782162
 20
-0.0000000000000004
 30
0.0
 11
17.66353790782162
 21
1.127
 31
0.0
  0
TEXT
  5
1855
330
1818
100
AcDbEntity
  8
TITLE
100
AcDbText
 10
17.76389543567033
 20
0.1249999999999996
 30
0.0
 40
0.09375
  1
WILLOUGHBY, OHIO
100
AcDbText
  0
TEXT
  5
1856
330
1818
100
AcDbEntity
  8
TITLE
100
AcDbText
 10
17.70461451425917
 20
0.3749999999999996
 30
0.0
 40
0.09375
  1
BUD INDUSTRIES, INC.
100
AcDbText
  0
LINE
  5
1857
330
1818
100
AcDbEntity
  8
TITLE
100
AcDbLine
 10
19.36724560008882
 20
0.3819999999999992
 30
0.0
 11
21.49999999999999
 21
0.3819999999999992
 31
0.0
  0
TEXT
  5
1858
330
1818
100
AcDbEntity
  8
TITLE
100
AcDbText
 10
19.50244590285365
 20
1.197740762992484
 30
0.0
 40
0.09375
  1
DESCRIPTION
100
AcDbText
  0
LINE
  5
1859
330
1818
100
AcDbEntity
  8
TITLE
100
AcDbLine
 10
16.93749999999999
 20
1.127
 30
0.0
 11
16.9375
 21
1.377
 31
0.0
  0
LINE
  5
185A
330
1818
100
AcDbEntity
  8
TITLE
100
AcDbLine
 10
16.41929648007106
 20
1.127
 30
0.0
 11
16.41929648007106
 21
1.377
 31
0.0
  0
TEXT
  5
185B
330
1818
100
AcDbEntity
  8
TITLE
100
AcDbText
 10
16.4708473600533
 20
1.197740762992484
 30
0.0
 40
0.09375
  1
REQ'D.
100
AcDbText
  0
TEXT
  5
185C
330
1818
100
AcDbEntity
  8
TITLE
100
AcDbText
 10
16.06299999999999
 20
0.9728772779084607
 30
0.0
 40
0.09375
  1
MAT:
100
AcDbText
  0
TEXT
  5
185D
330
1818
100
AcDbEntity
  8
TITLE
100
AcDbText
 10
16.05657245370309
 20
1.199407818911626
 30
0.0
 40
0.09375
  1
ITEM
100
AcDbText
  0
TEXT
  5
185E
330
1818
100
AcDbEntity
  8
TITLE
100
AcDbText
 10
16.06299999999999
 20
0.3124999999999996
 30
0.0
 40
0.09375
  1
CH.
100
AcDbText
  0
TEXT
  5
185F
330
1818
100
AcDbEntity
  8
TITLE
100
AcDbText
 10
16.06299999999999
 20
0.5693740809498898
 30
0.0
 40
0.09375
  1
DR.
100
AcDbText
  0
TEXT
  5
1860
330
1818
100
AcDbEntity
  8
TITLE
100
AcDbText
 10
16.06299999999999
 20
0.7741181638829385
 30
0.0
 40
0.09375
  1
FINISH:
100
AcDbText
  0
TEXT
  5
1861
330
1818
100
AcDbEntity
  8
TITLE
100
AcDbText
 10
16.06299999999999
 20
0.0624999999999996
 30
0.0
 40
0.09375
  1
APP.
100
AcDbText
  0
LINE
  5
1862
330
1818
100
AcDbEntity
  8
TITLE
100
AcDbLine
 10
16.6977560980471
 20
-0.0000000000000004
 30
0.0
 11
16.69775609804711
 21
0.709000000000001
 31
0.0
  0
LINE
  5
1863
330
1818
100
AcDbEntity
  8
TITLE
100
AcDbLine
 10
16.00049999999999
 20
-0.0000000000000004
 30
0.0
 11
16.00049999999999
 21
1.377
 31
0.0
  0
TEXT
  5
1864
330
1818
100
AcDbEntity
  8
TITLE
100
AcDbText
 10
14.04590599630992
 20
0.9520717565666277
 30
0.0
 40
0.1117888355610499
  1
%%uTOLERANCES:
100
AcDbText
  0
TEXT
  5
1865
330
1818
100
AcDbEntity
  8
TITLE
100
AcDbText
 10
14.09148536758392
 20
0.2344895723568654
 30
0.0
 40
0.0772424143690822
  1
    SURFACES
100
AcDbText
  0
TEXT
  5
1866
330
1818
100
AcDbEntity
  8
TITLE
100
AcDbText
 10
13.99371994674778
 20
0.7494390014840789
 30
0.0
 40
0.0772424143690822
  1
%%p.005 BETWEEN HOLE CENTERS
100
AcDbText
  0
TEXT
  5
1867
330
1818
100
AcDbEntity
  8
TITLE
100
AcDbText
 10
13.99371994674778
 20
0.6207016442022755
 30
0.0
 40
0.0772424143690822
  1
%%p.015 FROM SHEARED EDGE
100
AcDbText
  0
TEXT
  5
1868
330
1818
100
AcDbEntity
  8
TITLE
100
AcDbText
 10
13.99371994674778
 20
0.4919642869204704
 30
0.0
 40
0.0772424143690822
  1
%%p.032 FROM A BENT SURFACE
100
AcDbText
  0
TEXT
  5
1869
330
1818
100
AcDbEntity
  8
TITLE
100
AcDbText
 10
13.99864980528381
 20
0.0564750904941671
 30
0.0
 40
0.0772424143690822
  1
UNLESS OTHERWISE SPECIFIED
100
AcDbText
  0
TEXT
  5
186A
330
1818
100
AcDbEntity
  8
TITLE
100
AcDbText
 10
13.99371994674778
 20
0.363226929638667
 30
0.0
 40
0.0772424143690822
  1
%%p.063 BETWEEN ASSEMBLED
100
AcDbText
  0
LINE
  5
186B
330
1818
100
AcDbEntity
  8
TITLE
100
AcDbLine
 10
12.39499999999999
 20
0.0000000000000013
 30
0.0
 11
12.39499999999999
 21
0.2499999999999996
 31
0.0
  0
TEXT
  5
186C
330
1818
100
AcDbEntity
  8
TITLE
100
AcDbText
 10
12.81725974114937
 20
0.0776282744477839
 30
0.0
 40
0.09375
  1
USED ON
100
AcDbText
  0
LINE
  5
186D
330
1818
100
AcDbEntity
  8
TITLE
100
AcDbLine
 10
13.92249999999999
 20
0.0000000000000013
 30
0.0
 11
13.92249999999999
 21
1.127
 31
0.0
  0
LINE
  5
186E
330
1818
100
AcDbEntity
  8
TITLE
100
AcDbLine
 10
12.01999999999999
 20
0.2499999999999996
 30
0.0
 11
13.92249999999999
 21
0.2499999999999996
 31
0.0
  0
LINE
  5
186F
330
1818
100
AcDbEntity
  8
TITLE
100
AcDbLine
 10
13.92249999999999
 20
1.127
 30
0.0
 11
12.01999999999999
 21
1.127
 31
0.0
  0
TEXT
  5
1870
330
1818
100
AcDbEntity
  8
TITLE
100
AcDbText
 10
12.07174918381226
 20
0.0776282744477839
 30
0.0
 40
0.09375
  1
QTY.
100
AcDbText
  0
LINE
  5
1871
330
1818
100
AcDbEntity
  8
TITLE
100
AcDbLine
 10
16.00049999999999
 20
1.377
 30
0.0
 11
12.01999999999999
 21
1.377
 31
0.0
  0
LINE
  5
1872
330
1818
100
AcDbEntity
  8
TITLE
100
AcDbLine
 10
16.00049999999999
 20
1.377
 30
0.0
 11
21.49999999999999
 21
1.377
 31
0.0
  0
LINE
  5
1873
330
1818
100
AcDbEntity
  8
TITLE
100
AcDbLine
 10
13.92249999999999
 20
1.127
 30
0.0
 11
21.49999999999999
 21
1.127
 31
0.0
  0
LINE
  5
1874
330
1818
100
AcDbEntity
  8
TITLE
100
AcDbLine
 10
16.00049999999999
 20
0.9180000000000006
 30
0.0
 11
19.36724560008882
 21
0.9180000000000006
 31
0.0
  0
LINE
  5
1875
330
1818
100
AcDbEntity
  8
TITLE
100
AcDbLine
 10
16.00049999999999
 20
0.2499999999999996
 30
0.0
 11
17.66353790782162
 21
0.2499999999999996
 31
0.0
  0
LINE
  5
1876
330
1818
100
AcDbEntity
  8
TITLE
100
AcDbLine
 10
16.00049999999999
 20
0.709000000000001
 30
0.0
 11
17.66353790782162
 21
0.709000000000001
 31
0.0
  0
LINE
  5
1877
330
1818
100
AcDbEntity
  8
TITLE
100
AcDbLine
 10
16.00049999999999
 20
0.4999999999999996
 30
0.0
 11
17.66353790782162
 21
0.4999999999999996
 31
0.0
  0
LINE
  5
1878
330
1818
100
AcDbEntity
  8
TITLE
100
AcDbLine
 10
21.49999999999999
 20
15.625
 30
0.0
 11
21.49999999999999
 21
0.0
 31
0.0
  0
LINE
  5
1879
330
1818
100
AcDbEntity
  8
TITLE
100
AcDbLine
 10
0.0
 20
15.625
 30
0.0
 11
21.49999999999999
 21
15.625
 31
0.0
  0
ENDBLK
  5
187B
330
1818
100
AcDbEntity
  8
0
100
AcDbBlockEnd
  0
ENDSEC
  0
SECTION
  2
ENTITIES
  0
MTEXT
  5
2C4
102
{ACAD_REACTORS
330
468
102
}
330
1E
100
AcDbEntity
  8
0
 62
     4
100
AcDbMText
 10
9.336074201069838
 20
2.697673868017009
 30
0.0
 40
0.125
 41
0.0
 71
     6
 72
     1
  1
TEXTURED RECESS {\fGDT|b0|i0|c0|p0;x}0.010
  7
STANDARD
 73
     1
 44
1.0
1001
ACAD
1000
MTEXTBEGIN
1070
    73
1070
     1
1070
    44
1040
1.0
1070
    74
1070
     0
1000
MTEXTEND
  0
LINE
  5
2C5
330
1E
100
AcDbEntity
  8
ZN-40BMB
100
AcDbLine
 10
8.968795793784071
 20
3.436378538762088
 30
0.0
 11
8.868811024268428
 21
3.436378538762081
 31
0.0
  0
ARC
  5
2C6
330
1E
100
AcDbEntity
  8
ZN-40BMB
100
AcDbCircle
 10
8.931863281744352
 20
1.712486545603596
 30
0.0
 40
1.779863346051009
100
AcDbArc
 50
88.81101605117798
 51
95.22094964347507
  0
LINE
  5
2C7
330
1E
100
AcDbEntity
  8
ZN-40BMB
100
AcDbLine
 10
8.968795793784064
 20
8.68626882078829
 30
0.0
 11
8.868811024268421
 21
8.68626882078829
 31
0.0
  0
ARC
  5
2C8
330
1E
100
AcDbEntity
  8
ZN-40BMB
100
AcDbCircle
 10
8.928872756955211
 20
10.32520288192032
 30
0.0
 40
1.694992423586572
100
AcDbArc
 50
264.6183922451363
 51
271.3496420602057
  0
ARC
  5
2C9
330
1E
100
AcDbEntity
  8
ZN-40BMB
100
AcDbCircle
 10
8.968795793784057
 20
11.25848967821772
 30
0.0
 40
0.0999999999999997
100
AcDbArc
 50
181.0000000000268
 51
270.0
  0
ARC
  5
2CA
330
1E
100
AcDbEntity
  8
ZN-40BMB
100
AcDbCircle
 10
8.968684712406133
 20
11.25332332227103
 30
0.0
 40
0.1987903619823183
100
AcDbArc
 50
179.5115600761462
 51
270.0320161118741
  0
ARC
  5
2CB
330
1E
100
AcDbEntity
  8
ZN-40BMB
100
AcDbCircle
 10
19.0182996705922
 20
6.061323679775224
 30
0.0
 40
10.17677669529664
100
AcDbArc
 50
166.4269221264211
 51
193.57307787358
  0
LINE
  5
2DA
330
1E
100
AcDbEntity
  8
ZN-40BMB
  6
CENTER2
 62
     1
 48
0.8
100
AcDbLine
 10
8.098354529579115
 20
6.061323679775188
 30
0.0
 11
17.47824481160531
 21
6.061323679775217
 31
0.0
  0
DIMENSION
  5
2EA
330
1E
100
AcDbEntity
  8
0
100
AcDbDimension
  2
*D9
 10
18.23819145738592
 20
20.11661594265834
 30
0.0
 11
18.23819145738591
 21
17.5274188302332
 31
0.0
 70
   160
 71
     5
 42
5.249890282026207
  3
STANDARD
100
AcDbAlignedDimension
 13
16.83829967059216
 23
14.86672566063214
 33
0.0
 14
16.83829967059216
 24
20.11661594265834
 34
0.0
 50
90.00000000000019
100
AcDbRotatedDimension
1001
ACAD
1000
DSTYLE
1002
{
1070
   141
1040
0.0
1002
}
  0
DIMENSION
  5
3CB
330
1E
100
AcDbEntity
  8
0
100
AcDbDimension
  2
*D2
 10
18.08441065959411
 20
7.061323679775207
 30
0.0
 11
18.08441065959411
 21
6.107862580253007
 31
0.0
 70
   160
 71
     5
 42
2.0
  3
STANDARD
100
AcDbAlignedDimension
 13
14.28829967059221
 23
5.061323679775208
 33
0.0
 14
14.2882996705922
 24
7.061323679775208
 34
0.0
 50
270.0000000000002
100
AcDbRotatedDimension
1001
ACAD
1000
DSTYLE
1002
{
1070
   141
1040
0.0
1002
}
  0
DIMENSION
  5
3CC
330
1E
100
AcDbEntity
  8
0
 62
    14
100
AcDbDimension
  2
*D8
 10
9.052819511020604
 20
9.944817572293938
 30
0.0
 11
12.82276000299692
 21
9.944817572293938
 31
0.0
 70
   160
  1
<>**
 71
     5
 42
7.470960319143195
  3
STANDARD
100
AcDbAlignedDimension
 13
16.5237798301638
 23
10.70248967821773
 33
0.0
 14
9.052819511020604
 24
10.70248967821773
 34
0.0
 50
0.0000000000004071
100
AcDbRotatedDimension
1001
ACAD
1000
DSTYLE
1002
{
1070
   141
1040
0.0
1002
}
  0
DIMENSION
  5
3CD
330
1E
100
AcDbEntity
  8
0
100
AcDbDimension
  2
*D7
 10
9.312215801532321
 20
10.36072562197832
 30
0.0
 11
12.82276000299692
 21
10.36072562197832
 31
0.0
 70
   160
  1
<>**
 71
     5
 42
6.952167738119761
  3
STANDARD
100
AcDbAlignedDimension
 13
16.26438353965208
 23
10.95248967821772
 33
0.0
 14
9.312215801532321
 24
10.95248967821772
 34
0.0
 50
180.0
100
AcDbRotatedDimension
1001
ACAD
1000
DSTYLE
1002
{
1070
   141
1040
0.0
1002
}
  0
LINE
  5
3CE
330
1E
100
AcDbEntity
  8
ZN-40BMB
100
AcDbLine
 10
8.96879579378405
 20
11.15848967821772
 30
0.0
 11
16.60780354740034
 21
11.15848967821772
 31
0.0
  0
LINE
  5
3CF
330
1E
100
AcDbEntity
  8
ZN-40BMB
100
AcDbLine
 10
16.19677817901773
 20
11.049583554092
 30
0.0
 11
9.37982116216666
 21
11.049583554092
 31
0.0
  0
LINE
  5
3D0
330
1E
100
AcDbEntity
  8
ZN-40BMB
100
AcDbLine
 10
16.19677817901773
 20
10.95248967821772
 30
0.0
 11
9.37982116216666
 21
10.95248967821772
 31
0.0
  0
LINE
  5
3D1
330
1E
100
AcDbEntity
  8
ZN-40BMB
100
AcDbLine
 10
16.19677817901775
 20
3.500023374937779
 30
0.0
 11
9.379821162166681
 21
3.50002337493775
 31
0.0
  0
LINE
  5
3D2
330
1E
100
AcDbEntity
  8
ZN-40BMB
100
AcDbLine
 10
16.19677817901775
 20
8.622623984612657
 30
0.0
 11
9.379821162166674
 21
8.622623984612635
 31
0.0
  0
LINE
  5
3D3
330
1E
100
AcDbEntity
  8
ZN-40BMB
100
AcDbLine
 10
8.968795793784064
 20
8.68626882078829
 30
0.0
 11
16.60780354740036
 21
8.686268820788312
 31
0.0
  0
LINE
  5
3D4
330
1E
100
AcDbEntity
  8
ZN-40BMB
100
AcDbLine
 10
8.968795793784071
 20
3.436378538762088
 30
0.0
 11
16.60780354740036
 21
3.436378538762109
 31
0.0
  0
ARC
  5
3D5
330
1E
100
AcDbEntity
  8
ZN-40BMB
100
AcDbCircle
 10
6.558299670592209
 20
6.061323679775192
 30
0.0
 40
9.93786796564404
100
AcDbArc
 50
345.9004372827112
 51
14.09956271728995
  0
LINE
  5
3D6
330
1E
100
AcDbEntity
  8
ZN-40BMB
100
AcDbLine
 10
17.33282021170979
 20
5.556323679775214
 30
0.0
 11
17.33282021170904
 21
6.566323679775212
 31
0.0
  0
LINE
  5
3D7
330
1E
100
AcDbEntity
  8
ZN-40BMB
100
AcDbLine
 10
17.3782448116053
 20
6.566323679775205
 30
0.0
 11
17.3782448116053
 21
5.556323679775207
 31
0.0
  0
ARC
  5
3D8
330
1E
100
AcDbEntity
  8
ZN-40BMB
100
AcDbCircle
 10
6.558299670592209
 20
6.061323679775192
 30
0.0
 40
10.04393398282202
100
AcDbArc
 50
346.2188483504569
 51
13.78115164954419
  0
ARC
  5
3D9
330
1E
100
AcDbEntity
  8
ZN-40BMB
100
AcDbCircle
 10
6.558299670592209
 20
6.061323679775192
 30
0.0
 40
10.17677669529664
100
AcDbArc
 50
346.4269221264202
 51
13.57307787358082
  0
ARC
  5
3DA
330
1E
100
AcDbEntity
  8
ZN-40BMB
100
AcDbCircle
 10
8.971499670592169
 20
6.56632367977518
 30
0.0
 40
8.361320541117589
100
AcDbArc
 50
0.0000000000003817
 51
13.1733330093891
  0
ARC
  5
3DB
330
1E
100
AcDbEntity
  8
ZN-40BMB
100
AcDbCircle
 10
8.971499670592169
 20
6.56632367977518
 30
0.0
 40
8.406745141013143
100
AcDbArc
 50
0.0000000000003817
 51
13.19906671905139
  0
DIMENSION
  5
3DC
330
1E
100
AcDbEntity
  8
0
100
AcDbDimension
  2
*D3
 10
17.64748280525283
 20
10.70248967821771
 30
0.0
 11
17.64748280525283
 21
10.82748967821772
 31
0.0
 70
   160
 71
     5
 42
0.2500000000000071
  3
STANDARD
100
AcDbAlignedDimension
 13
16.19677817901773
 23
10.95248967821772
 33
0.0
 14
17.16550973877774
 24
10.70248967821771
 34
0.0
 50
270.0
100
AcDbRotatedDimension
1001
ACAD
1000
DSTYLE
1002
{
1070
   141
1040
0.0
1002
}
  0
ARC
  5
3DD
330
1E
100
AcDbEntity
  8
ZN-40BMB
100
AcDbCircle
 10
16.60780354740034
 20
11.25848967821772
 30
0.0
 40
0.0999999999999997
100
AcDbArc
 50
270.0
 51
358.9999999999877
  0
ARC
  5
3DE
330
1E
100
AcDbEntity
  8
ZN-40BMB
100
AcDbCircle
 10
16.6079146287782
 20
11.25332332227114
 30
0.0
 40
0.1987903619824114
100
AcDbArc
 50
269.9679838881443
 51
0.4884399248276477
  0
LINE
  5
3DF
330
1E
100
AcDbEntity
  8
ZN-40BMB
100
AcDbLine
 10
17.31541836283061
 20
10.84725475371234
 30
0.0
 11
17.33282021170904
 21
11.34557850578623
 31
0.0
  0
LINE
  5
3E0
330
1E
100
AcDbEntity
  8
ZN-40BMB
  6
HIDDEN2
 62
     4
100
AcDbLine
 10
17.33574481160531
 20
11.50248967821772
 30
0.0
 11
17.33001992277887
 21
11.56792545693145
 31
0.0
  0
ARC
  5
3E1
330
1E
100
AcDbEntity
  8
ZN-40BMB
  6
HIDDEN2
 62
     4
100
AcDbCircle
 10
17.3250389492884
 20
11.56748967821771
 30
0.0
 40
0.0050000000000008
100
AcDbArc
 50
5.000000000168687
 51
90.00000000000587
  0
LINE
  5
3E2
330
1E
100
AcDbEntity
  8
ZN-40BMB
100
AcDbLine
 10
17.33282021170904
 20
11.34557850578623
 30
0.0
 11
16.80575254594444
 21
11.34557850580729
 31
0.0
  0
LINE
  5
3E3
330
1E
100
AcDbEntity
  8
ZN-40BMB
100
AcDbLine
 10
16.71155416409938
 20
11.47248967821772
 30
0.0
 11
17.3782448116053
 21
11.47248967821772
 31
0.0
  0
ARC
  5
3E4
330
1E
100
AcDbEntity
  8
ZN-40BMB
100
AcDbCircle
 10
17.1782448116053
 20
11.47248967821771
 30
0.0
 40
0.200000000012917
100
AcDbArc
 50
320.6129486304362
 51
0.0000000000003817
  0
LINE
  5
3E5
330
1E
100
AcDbEntity
  8
ZN-40BMB
100
AcDbLine
 10
17.35824481160531
 20
11.47248967821772
 30
0.0
 11
17.35824481160531
 21
11.50248967821772
 31
0.0
  0
LINE
  5
3E6
330
1E
100
AcDbEntity
  8
ZN-40BMB
  6
HIDDEN2
 62
     4
100
AcDbLine
 10
16.75707781604722
 20
11.50248967821773
 30
0.0
 11
16.75952226991165
 21
11.57248967821773
 31
0.0
  0
LINE
  5
3E7
330
1E
100
AcDbEntity
  8
ZN-40BMB
100
AcDbLine
 10
16.71155416409938
 20
11.47248967821772
 30
0.0
 11
16.71207781604722
 21
11.50248967821773
 31
0.0
  0
LINE
  5
3E8
330
1E
100
AcDbEntity
  8
ZN-40BMB
100
AcDbLine
 10
16.70778831691599
 20
11.256744437574
 30
0.0
 11
16.71155416409938
 21
11.47248967821772
 31
0.0
  0
ARC
  5
3E9
330
1E
100
AcDbEntity
  8
ZN-40BMB
100
AcDbCircle
 10
13.56027286366862
 20
9.035072358868562
 30
0.0
 40
3.98391478612529
100
AcDbArc
 50
35.44763975290001
 51
37.72082792612482
  0
POLYLINE
  5
3EA
330
1E
100
AcDbEntity
  8
ZN-40BMB
100
AcDb2dPolyline
 66
     1
 10
0.0
 20
0.0
 30
0.0
 70
   128
 40
0.0005905511811024
 41
0.0005905511811024
  0
VERTEX
  5
3EB
330
3EA
100
AcDbEntity
  8
ZN-40BMB
100
AcDbVertex
100
AcDb2dVertex
 10
16.80575254594444
 20
11.34557850580729
 30
0.0
  0
VERTEX
  5
3EC
330
3EA
100
AcDbEntity
  8
ZN-40BMB
100
AcDbVertex
100
AcDb2dVertex
 10
16.8062430679032
 20
11.30059095917076
 30
0.0
  0
VERTEX
  5
3ED
330
3EA
100
AcDbEntity
  8
ZN-40BMB
100
AcDbVertex
100
AcDb2dVertex
 10
16.80669776739254
 20
11.25501796669391
 30
0.0
  0
SEQEND
  5
3EE
330
3EA
100
AcDbEntity
  8
ZN-40BMB
  0
LINE
  5
3EF
330
1E
100
AcDbEntity
  8
ZN-40BMB
100
AcDbLine
 10
17.16550973877774
 20
10.70248967821771
 30
0.0
 11
16.62697085454607
 21
10.70323687772226
 31
0.0
  0
ARC
  5
3F0
330
1E
100
AcDbEntity
  8
ZN-40BMB
100
AcDbCircle
 10
17.16550973877774
 20
10.85248967821771
 30
0.0
 40
0.1500000000000005
100
AcDbArc
 50
270.0
 51
358.0000000000002
  0
ARC
  5
3F1
330
1E
100
AcDbEntity
  8
ZN-40BMB
100
AcDbCircle
 10
15.26277973000286
 20
43.69510262128106
 30
0.0
 40
32.65887732713675
100
AcDbArc
 50
271.6388030136111
 51
271.9185545616535
  0
ARC
  5
3F2
330
1E
100
AcDbEntity
  8
ZN-40BMB
100
AcDbCircle
 10
16.19923996214031
 20
10.79240183181298
 30
0.0
 40
0.1599054885457397
100
AcDbArc
 50
45.37113543960154
 51
90.91570884625001
  0
LINE
  5
3F3
330
1E
100
AcDbEntity
  8
ZN-40BMB
100
AcDbLine
 10
16.31195805677545
 20
10.9064915805842
 30
0.0
 11
16.44980504544427
 21
10.77375408228051
 31
0.0
  0
LINE
  5
3F4
330
1E
100
AcDbEntity
  8
ZN-40BMB
100
AcDbLine
 10
16.35616095395906
 20
11.05453299132413
 30
0.0
 11
16.60780354740034
 21
11.05453299132413
 31
0.0
  0
ARC
  5
3F5
330
1E
100
AcDbEntity
  8
ZN-40BMB
100
AcDbCircle
 10
16.62318607219599
 20
10.94908658603631
 30
0.0
 40
0.2458788393813958
100
AcDbArc
 50
225.2998795419138
 51
270.8819816296659
  0
ARC
  5
3F6
330
1E
100
AcDbEntity
  8
ZN-40BMB
100
AcDbCircle
 10
16.647726584229
 20
10.32520288192676
 30
0.0
 40
1.694992423592978
100
AcDbArc
 50
268.6503579398062
 51
275.3816077548502
  0
LINE
  5
3F7
330
1E
100
AcDbEntity
  8
ZN-40BMB
100
AcDbLine
 10
16.60780354740036
 20
8.686268820788312
 30
0.0
 11
16.70778831691599
 21
8.686268820788312
 31
0.0
  0
ARC
  5
3F8
330
1E
100
AcDbEntity
  8
ZN-40BMB
100
AcDbCircle
 10
16.90628203210398
 20
8.423334427373381
 30
0.0
 40
0.2121345424113044
100
AcDbArc
 50
14.23498680251102
 51
79.41915931869854
  0
ARC
  5
3F9
330
1E
100
AcDbEntity
  8
ZN-40BMB
100
AcDbCircle
 10
16.91100706547508
 20
8.428390278270752
 30
0.0
 40
0.2518037133629309
100
AcDbArc
 50
13.19720802728667
 51
80.4507889942362
  0
LINE
  5
3FA
330
1E
100
AcDbEntity
  8
ZN-40BMB
100
AcDbLine
 10
17.11279271412027
 20
8.471849531270228
 30
0.0
 11
17.11190306313464
 21
8.475498166521779
 31
0.0
  0
ARC
  5
3FB
330
1E
100
AcDbEntity
  8
ZN-40BMB
100
AcDbCircle
 10
16.8382996705922
 20
7.996323679775207
 30
0.0
 40
0.6445205411175845
100
AcDbArc
 50
80.93077672856361
 51
90.00000000000097
  0
ARC
  5
3FC
330
1E
100
AcDbEntity
  8
ZN-40BMB
100
AcDbCircle
 10
16.8382996705922
 20
7.996323679775207
 30
0.0
 40
0.6899451410131068
100
AcDbArc
 50
80.44893030247489
 51
90.00000000000067
  0
LINE
  5
3FD
330
1E
100
AcDbEntity
  8
ZN-40BMB
100
AcDbLine
 10
16.72202221607708
 20
8.685455512448347
 30
0.0
 11
16.70778831691599
 21
8.686268820788312
 31
0.0
  0
LINE
  5
3FE
330
1E
100
AcDbEntity
  8
ZN-40BMB
100
AcDbLine
 10
16.73607089045579
 20
8.68302617095574
 30
0.0
 11
16.72202221607708
 21
8.685455512448347
 31
0.0
  0
LINE
  5
3FF
330
1E
100
AcDbEntity
  8
ZN-40BMB
100
AcDbLine
 10
16.74975152558753
 20
8.679012409169628
 30
0.0
 11
16.73607089045579
 21
8.68302617095574
 31
0.0
  0
LINE
  5
400
330
1E
100
AcDbEntity
  8
ZN-40BMB
100
AcDbLine
 10
16.76288609627793
 20
8.673466457904991
 30
0.0
 11
16.74975152558753
 21
8.679012409169628
 31
0.0
  0
LINE
  5
401
330
1E
100
AcDbEntity
  8
ZN-40BMB
100
AcDbLine
 10
16.77530368323282
 20
8.666460486256481
 30
0.0
 11
16.76288609627793
 21
8.673466457904991
 31
0.0
  0
LINE
  5
402
330
1E
100
AcDbEntity
  8
ZN-40BMB
100
AcDbLine
 10
16.78684269721969
 20
8.658085662466858
 30
0.0
 11
16.77530368323282
 21
8.666460486256481
 31
0.0
  0
LINE
  5
403
330
1E
100
AcDbEntity
  8
ZN-40BMB
100
AcDbLine
 10
16.79735298181757
 20
8.64845096756064
 30
0.0
 11
16.78684269721969
 21
8.658085662466858
 31
0.0
  0
LINE
  5
404
330
1E
100
AcDbEntity
  8
ZN-40BMB
100
AcDbLine
 10
16.80669776739255
 20
8.637681777181361
 30
0.0
 11
16.79735298181757
 21
8.64845096756064
 31
0.0
  0
POLYLINE
  5
405
330
1E
100
AcDbEntity
  8
ZN-40BMB
100
AcDb2dPolyline
 66
     1
 10
0.0
 20
0.0
 30
0.0
 70
   128
 40
0.0005905511811024
 41
0.0005905511811024
  0
VERTEX
  5
406
330
405
100
AcDbEntity
  8
ZN-40BMB
100
AcDbVertex
100
AcDb2dVertex
 10
16.80575254594447
 20
8.640844220892779
 30
0.0
  0
VERTEX
  5
407
330
405
100
AcDbEntity
  8
ZN-40BMB
100
AcDbVertex
100
AcDb2dVertex
 10
16.80624306790322
 20
8.639273221146686
 30
0.0
  0
VERTEX
  5
408
330
405
100
AcDbEntity
  8
ZN-40BMB
100
AcDbVertex
100
AcDb2dVertex
 10
16.80669776739255
 20
8.637681777181354
 30
0.0
  0
SEQEND
  5
409
330
405
100
AcDbEntity
  8
ZN-40BMB
  0
LINE
  5
40A
330
1E
100
AcDbEntity
  8
ZN-40BMB
100
AcDbLine
 10
16.70778831691599
 20
8.686268820788312
 30
0.0
 11
16.71155416409939
 21
8.686268820788312
 31
0.0
  0
LINE
  5
40B
330
1E
100
AcDbEntity
  8
ZN-40BMB
100
AcDbLine
 10
16.83829967059221
 20
8.640844220892793
 30
0.0
 11
16.80575254594448
 21
8.640844220892793
 31
0.0
  0
ARC
  5
40C
330
1E
100
AcDbEntity
  8
ZN-40BMB
100
AcDbCircle
 10
16.71155173521978
 20
8.565880451533478
 30
0.0
 40
0.1203883692793607
100
AcDbArc
 50
38.51231402874633
 51
89.99884403658583
  0
LINE
  5
40D
330
1E
100
AcDbEntity
  8
ZN-40BMB
100
AcDbLine
 10
16.71155416409939
 20
8.686268820788312
 30
0.0
 11
16.83829967059221
 21
8.686268820788312
 31
0.0
  0
LINE
  5
40E
330
1E
100
AcDbEntity
  8
ZN-40BMB
100
AcDbLine
 10
16.9452347396686
 20
8.631862005063814
 30
0.0
 11
16.93989392883707
 21
8.632786824516633
 31
0.0
  0
ARC
  5
40F
330
1E
100
AcDbEntity
  8
ZN-40BMB
100
AcDbCircle
 10
29.29831452263242
 20
-248.9796904789303
 30
0.0
 40
257.9352683747167
100
AcDbArc
 50
92.87607927695498
 51
92.91152855953134
  0
LINE
  5
410
330
1E
100
AcDbEntity
  8
ZN-40BMB
100
AcDbLine
 10
16.35616095395906
 20
8.630680687569912
 30
0.0
 11
16.60780354740036
 21
8.630680687569912
 31
0.0
  0
LINE
  5
411
330
1E
100
AcDbEntity
  8
ZN-40BMB
100
AcDbLine
 10
16.4508530549889
 20
8.44966440982071
 30
0.0
 11
16.45008301414595
 21
8.481644801256022
 31
0.0
  0
LINE
  5
412
330
1E
100
AcDbEntity
  8
ZN-40BMB
100
AcDbLine
 10
16.45008301414595
 20
8.481644801256022
 30
0.0
 11
16.45405426800733
 21
8.513301651266806
 31
0.0
  0
LINE
  5
413
330
1E
100
AcDbEntity
  8
ZN-40BMB
100
AcDbLine
 10
16.45405426800733
 20
8.513301651266806
 30
0.0
 11
16.46258554960875
 21
8.543189990253727
 31
0.0
  0
LINE
  5
414
330
1E
100
AcDbEntity
  8
ZN-40BMB
100
AcDbLine
 10
16.46258554960875
 20
8.543189990253727
 30
0.0
 11
16.47528745057402
 21
8.569945571894249
 31
0.0
  0
LINE
  5
415
330
1E
100
AcDbEntity
  8
ZN-40BMB
100
AcDbLine
 10
16.47528745057402
 20
8.569945571894249
 30
0.0
 11
16.49158019557041
 21
8.592347143850551
 31
0.0
  0
LINE
  5
416
330
1E
100
AcDbEntity
  8
ZN-40BMB
100
AcDbLine
 10
16.49158019557041
 20
8.592347143850551
 30
0.0
 11
16.5107201060196
 21
8.609372191550177
 31
0.0
  0
LINE
  5
417
330
1E
100
AcDbEntity
  8
ZN-40BMB
100
AcDbLine
 10
16.53183354513452
 20
8.620243610627253
 30
0.0
 11
16.55395679486839
 21
8.624465177671607
 31
0.0
  0
LINE
  5
418
330
1E
100
AcDbEntity
  8
ZN-40BMB
100
AcDbLine
 10
16.51072010601961
 20
8.609372191550169
 30
0.0
 11
16.53183354513452
 21
8.620243610627253
 31
0.0
  0
LINE
  5
419
330
1E
100
AcDbEntity
  8
ZN-40BMB
100
AcDbLine
 10
16.31309587956964
 20
8.453929115823205
 30
0.0
 11
16.31227254487869
 21
8.485951746920816
 31
0.0
  0
LINE
  5
41A
330
1E
100
AcDbEntity
  8
ZN-40BMB
100
AcDbLine
 10
16.31227254487869
 20
8.485951746920816
 30
0.0
 11
16.31620268227262
 21
8.517665087204617
 31
0.0
  0
LINE
  5
41B
330
1E
100
AcDbEntity
  8
ZN-40BMB
100
AcDbLine
 10
16.31620268227262
 20
8.517665087204617
 30
0.0
 11
16.32470637535553
 21
8.547617342675115
 31
0.0
  0
LINE
  5
41C
330
1E
100
AcDbEntity
  8
ZN-40BMB
100
AcDbLine
 10
16.32470637535553
 20
8.547617342675115
 30
0.0
 11
16.3373943365128
 21
8.574437339423345
 31
0.0
  0
LINE
  5
41D
330
1E
100
AcDbEntity
  8
ZN-40BMB
100
AcDbLine
 10
16.3373943365128
 20
8.574437339423345
 30
0.0
 11
16.35368572797365
 21
8.59689729412541
 31
0.0
  0
LINE
  5
41E
330
1E
100
AcDbEntity
  8
ZN-40BMB
100
AcDbLine
 10
16.35368572797366
 20
8.596897294125403
 30
0.0
 11
16.37283475178196
 21
8.613969020309204
 31
0.0
  0
LINE
  5
41F
330
1E
100
AcDbEntity
  8
ZN-40BMB
100
AcDbLine
 10
16.393964791422
 20
8.624870997346098
 30
0.0
 11
16.41610854214177
 21
8.629104147412588
 31
0.0
  0
LINE
  5
420
330
1E
100
AcDbEntity
  8
ZN-40BMB
100
AcDbLine
 10
16.37283475178196
 20
8.613969020309204
 30
0.0
 11
16.393964791422
 21
8.624870997346098
 31
0.0
  0
LINE
  5
421
330
1E
100
AcDbEntity
  8
ZN-40BMB
100
AcDbLine
 10
16.19677817901774
 20
8.4822639403337
 30
0.0
 11
16.19677817901774
 21
8.622623984612664
 31
0.0
  0
ARC
  5
422
330
1E
100
AcDbEntity
  8
ZN-40BMB
100
AcDbCircle
 10
16.8432996705922
 20
7.761323679775216
 30
0.0
 40
0.1000000000000014
100
AcDbArc
 50
233.9601866604071
 51
144.8108498596815
  0
ARC
  5
423
330
1E
100
AcDbEntity
  8
ZN-40BMB
100
AcDbCircle
 10
16.84749947423894
 20
7.762017862196046
 30
0.0
 40
0.1030755702790831
100
AcDbArc
 50
146.4717620654543
 51
232.2992744546088
  0
ARC
  5
424
330
1E
100
AcDbEntity
  8
ZN-40BMB
100
AcDbCircle
 10
16.88329967059209
 20
7.311323679775238
 30
0.0
 40
0.1552999999999968
100
AcDbArc
 50
114.8645035124495
 51
258.941378079966
  0
ARC
  5
425
330
1E
100
AcDbEntity
  8
ZN-40BMB
100
AcDbCircle
 10
16.8832996705922
 20
7.31132367977521
 30
0.0
 40
0.1553000000000021
100
AcDbArc
 50
258.9413780799235
 51
114.8645035124949
  0
CIRCLE
  5
426
330
1E
100
AcDbEntity
  8
ZN-40BMB
100
AcDbCircle
 10
16.8832996705922
 20
7.31132367977521
 30
0.0
 40
0.1185000000000005
  0
CIRCLE
  5
427
330
1E
100
AcDbEntity
  8
ZN-40BMB
100
AcDbCircle
 10
16.8832996705922
 20
7.31132367977521
 30
0.0
 40
0.0825
  0
CIRCLE
  5
428
330
1E
100
AcDbEntity
  8
ZN-40BMB
100
AcDbCircle
 10
16.8832996705922
 20
7.31132367977521
 30
0.0
 40
0.0580000000000003
  0
ARC
  5
429
330
1E
100
AcDbEntity
  8
ZN-40BMB
100
AcDbCircle
 10
16.8474195823048
 20
4.360642702632663
 30
0.0
 40
0.1030162799307685
100
AcDbArc
 50
127.6700597695509
 51
213.55890371037
  0
ARC
  5
42A
330
1E
100
AcDbEntity
  8
ZN-40BMB
100
AcDbCircle
 10
16.84329967059221
 20
4.361323679775214
 30
0.0
 40
0.1
100
AcDbArc
 50
215.1891501403176
 51
126.0398133395977
  0
ARC
  5
42B
330
1E
100
AcDbEntity
  8
ZN-40BMB
100
AcDbCircle
 10
8.971499670592198
 20
5.556323679775189
 30
0.0
 40
8.361320541117592
100
AcDbArc
 50
346.8266669906111
 51
0.0000000000003817
  0
ARC
  5
42C
330
1E
100
AcDbEntity
  8
ZN-40BMB
100
AcDbCircle
 10
8.971499670592198
 20
5.556323679775189
 30
0.0
 40
8.406745141013113
100
AcDbArc
 50
346.8009332809497
 51
0.0000000000003817
  0
ARC
  5
42D
330
1E
100
AcDbEntity
  8
ZN-40BMB
100
AcDbCircle
 10
16.8832996705923
 20
4.81132367977521
 30
0.0
 40
0.1553000000000306
100
AcDbArc
 50
101.0586219201107
 51
245.1354964874752
  0
ARC
  5
42E
330
1E
100
AcDbEntity
  8
ZN-40BMB
100
AcDbCircle
 10
16.88329967059222
 20
4.81132367977521
 30
0.0
 40
0.1553000000000003
100
AcDbArc
 50
245.1354964875069
 51
101.0586219200788
  0
CIRCLE
  5
42F
330
1E
100
AcDbEntity
  8
ZN-40BMB
100
AcDbCircle
 10
16.88329967059222
 20
4.81132367977521
 30
0.0
 40
0.0580000000000003
  0
CIRCLE
  5
430
330
1E
100
AcDbEntity
  8
ZN-40BMB
100
AcDbCircle
 10
16.88329967059222
 20
4.81132367977521
 30
0.0
 40
0.0825
  0
CIRCLE
  5
431
330
1E
100
AcDbEntity
  8
ZN-40BMB
100
AcDbCircle
 10
16.88329967059222
 20
4.81132367977521
 30
0.0
 40
0.1185000000000005
  0
ARC
  5
432
330
1E
100
AcDbEntity
  8
ZN-40BMB
100
AcDbCircle
 10
16.64473605943987
 20
1.712486545597787
 30
0.0
 40
1.77986334605683
100
AcDbArc
 50
84.77905035653678
 51
91.188983948813
  0
LINE
  5
433
330
1E
100
AcDbEntity
  8
ZN-40BMB
100
AcDbLine
 10
16.60780354740036
 20
3.436378538762109
 30
0.0
 11
16.707788316916
 21
3.436378538762109
 31
0.0
  0
ARC
  5
434
330
1E
100
AcDbEntity
  8
ZN-40BMB
100
AcDbCircle
 10
16.90628194354914
 20
3.699313026567889
 30
0.0
 40
0.2121346514578906
100
AcDbArc
 50
280.580859511235
 51
345.7649943673846
  0
ARC
  5
435
330
1E
100
AcDbEntity
  8
ZN-40BMB
100
AcDbCircle
 10
16.9110070648225
 20
3.694257081975255
 30
0.0
 40
0.2518037141571359
100
AcDbArc
 50
279.5492111259383
 51
346.8027918524718
  0
LINE
  5
436
330
1E
100
AcDbEntity
  8
ZN-40BMB
100
AcDbLine
 10
17.11190306313465
 20
3.647149193028663
 30
0.0
 11
17.11279271412028
 21
3.650797828280207
 31
0.0
  0
ARC
  5
437
330
1E
100
AcDbEntity
  8
ZN-40BMB
100
AcDbCircle
 10
16.83829967059221
 20
4.126323679775222
 30
0.0
 40
0.6445205411175619
100
AcDbArc
 50
270.0000000000001
 51
279.0692232714373
  0
ARC
  5
438
330
1E
100
AcDbEntity
  8
ZN-40BMB
100
AcDbCircle
 10
16.83829967059221
 20
4.126323679775222
 30
0.0
 40
0.6899451410131175
100
AcDbArc
 50
269.9999999999996
 51
279.551069697525
  0
LINE
  5
439
330
1E
100
AcDbEntity
  8
ZN-40BMB
100
AcDbLine
 10
16.93989392883706
 20
3.489860535033795
 30
0.0
 11
16.94523473966861
 21
3.490785354486614
 31
0.0
  0
LINE
  5
43A
330
1E
100
AcDbEntity
  8
ZN-40BMB
100
AcDbLine
 10
16.72202221607708
 20
3.437191847102081
 30
0.0
 11
16.707788316916
 21
3.436378538762109
 31
0.0
  0
LINE
  5
43B
330
1E
100
AcDbEntity
  8
ZN-40BMB
100
AcDbLine
 10
16.7360708904558
 20
3.439621188594689
 30
0.0
 11
16.72202221607708
 21
3.437191847102081
 31
0.0
  0
LINE
  5
43C
330
1E
100
AcDbEntity
  8
ZN-40BMB
100
AcDbLine
 10
16.74975152558754
 20
3.443634950380793
 30
0.0
 11
16.7360708904558
 21
3.439621188594689
 31
0.0
  0
LINE
  5
43D
330
1E
100
AcDbEntity
  8
ZN-40BMB
100
AcDbLine
 10
16.76288609627793
 20
3.449180901645437
 30
0.0
 11
16.74975152558754
 21
3.443634950380793
 31
0.0
  0
LINE
  5
43E
330
1E
100
AcDbEntity
  8
ZN-40BMB
100
AcDbLine
 10
16.77530368323283
 20
3.45618687329394
 30
0.0
 11
16.76288609627793
 21
3.449180901645437
 31
0.0
  0
LINE
  5
43F
330
1E
100
AcDbEntity
  8
ZN-40BMB
100
AcDbLine
 10
16.7868426972197
 20
3.464561697083578
 30
0.0
 11
16.77530368323283
 21
3.45618687329394
 31
0.0
  0
LINE
  5
440
330
1E
100
AcDbEntity
  8
ZN-40BMB
100
AcDbLine
 10
16.79735298181757
 20
3.474196391989796
 30
0.0
 11
16.7868426972197
 21
3.464561697083578
 31
0.0
  0
LINE
  5
441
330
1E
100
AcDbEntity
  8
ZN-40BMB
100
AcDbLine
 10
16.80669776739255
 20
3.484965582369067
 30
0.0
 11
16.79735298181757
 21
3.474196391989796
 31
0.0
  0
LINE
  5
442
330
1E
100
AcDbEntity
  8
ZN-40BMB
100
AcDbLine
 10
16.80624306790322
 20
3.483374138403735
 30
0.0
 11
16.80669776739255
 21
3.484965582369067
 31
0.0
  0
LINE
  5
443
330
1E
100
AcDbEntity
  8
ZN-40BMB
100
AcDbLine
 10
16.80575254594447
 20
3.481803138657635
 30
0.0
 11
16.80624306790322
 21
3.483374138403735
 31
0.0
  0
LINE
  5
444
330
1E
100
AcDbEntity
  8
ZN-40BMB
100
AcDbLine
 10
16.707788316916
 20
3.436378538762109
 30
0.0
 11
16.71155416409939
 21
3.436378538762109
 31
0.0
  0
LINE
  5
445
330
1E
100
AcDbEntity
  8
ZN-40BMB
100
AcDbLine
 10
16.83829967059221
 20
3.481803138659028
 30
0.0
 11
16.80575254594447
 21
3.481803138657635
 31
0.0
  0
ARC
  5
446
330
1E
100
AcDbEntity
  8
ZN-40BMB
100
AcDbCircle
 10
16.71124868965376
 20
3.557395342874226
 30
0.0
 40
0.1210171896556395
100
AcDbArc
 50
270.1446275121785
 51
321.3442144224092
  0
LINE
  5
447
330
1E
100
AcDbEntity
  8
ZN-40BMB
100
AcDbLine
 10
16.71155416409939
 20
3.436378538762109
 30
0.0
 11
16.83829967059221
 21
3.436378538762109
 31
0.0
  0
ARC
  5
448
330
1E
100
AcDbEntity
  8
ZN-40BMB
100
AcDbCircle
 10
29.29831450921278
 20
261.1023375728385
 30
0.0
 40
257.9352681087356
100
AcDbArc
 50
267.0884714404493
 51
267.1239207230622
  0
LINE
  5
449
330
1E
100
AcDbEntity
  8
ZN-40BMB
100
AcDbLine
 10
16.35616095395907
 20
3.491966671980517
 30
0.0
 11
16.60780354740036
 21
3.491966671980517
 31
0.0
  0
LINE
  5
44A
330
1E
100
AcDbEntity
  8
ZN-40BMB
100
AcDbLine
 10
16.53183354513452
 20
3.502403748923182
 30
0.0
 11
16.5539567948684
 21
3.498182181878828
 31
0.0
  0
LINE
  5
44B
330
1E
100
AcDbEntity
  8
ZN-40BMB
100
AcDbLine
 10
16.51072010601961
 20
3.513275168000266
 30
0.0
 11
16.53183354513452
 21
3.502403748923182
 31
0.0
  0
LINE
  5
44C
330
1E
100
AcDbEntity
  8
ZN-40BMB
100
AcDbLine
 10
16.49158019557041
 20
3.530300215699892
 30
0.0
 11
16.51072010601961
 21
3.513275168000266
 31
0.0
  0
LINE
  5
44D
330
1E
100
AcDbEntity
  8
ZN-40BMB
100
AcDbLine
 10
16.47528745057403
 20
3.552701787656193
 30
0.0
 11
16.49158019557041
 21
3.530300215699892
 31
0.0
  0
LINE
  5
44E
330
1E
100
AcDbEntity
  8
ZN-40BMB
100
AcDbLine
 10
16.46258554960876
 20
3.579457369296708
 30
0.0
 11
16.47528745057403
 21
3.552701787656193
 31
0.0
  0
LINE
  5
44F
330
1E
100
AcDbEntity
  8
ZN-40BMB
100
AcDbLine
 10
16.45405426800735
 20
3.609345708283637
 30
0.0
 11
16.46258554960876
 21
3.579457369296708
 31
0.0
  0
LINE
  5
450
330
1E
100
AcDbEntity
  8
ZN-40BMB
100
AcDbLine
 10
16.45008301414596
 20
3.64100255829442
 30
0.0
 11
16.45405426800735
 21
3.609345708283637
 31
0.0
  0
LINE
  5
451
330
1E
100
AcDbEntity
  8
ZN-40BMB
100
AcDbLine
 10
16.4508530549889
 20
3.672982949729732
 30
0.0
 11
16.45008301414596
 21
3.64100255829442
 31
0.0
  0
LINE
  5
452
330
1E
100
AcDbEntity
  8
ZN-40BMB
100
AcDbLine
 10
16.393964791422
 20
3.497776362204337
 30
0.0
 11
16.41610854214177
 21
3.49354321213784
 31
0.0
  0
LINE
  5
453
330
1E
100
AcDbEntity
  8
ZN-40BMB
100
AcDbLine
 10
16.37283475178197
 20
3.508678339241232
 30
0.0
 11
16.393964791422
 21
3.497776362204337
 31
0.0
  0
LINE
  5
454
330
1E
100
AcDbEntity
  8
ZN-40BMB
100
AcDbLine
 10
16.35368572797366
 20
3.525750065425032
 30
0.0
 11
16.37283475178197
 21
3.508678339241232
 31
0.0
  0
LINE
  5
455
330
1E
100
AcDbEntity
  8
ZN-40BMB
100
AcDbLine
 10
16.33739433651281
 20
3.548210020127097
 30
0.0
 11
16.35368572797366
 21
3.525750065425032
 31
0.0
  0
LINE
  5
456
330
1E
100
AcDbEntity
  8
ZN-40BMB
100
AcDbLine
 10
16.32470637535554
 20
3.575030016875327
 30
0.0
 11
16.33739433651281
 21
3.548210020127097
 31
0.0
  0
LINE
  5
457
330
1E
100
AcDbEntity
  8
ZN-40BMB
100
AcDbLine
 10
16.31620268227262
 20
3.604982272345818
 30
0.0
 11
16.32470637535554
 21
3.575030016875327
 31
0.0
  0
LINE
  5
458
330
1E
100
AcDbEntity
  8
ZN-40BMB
100
AcDbLine
 10
16.31227254487869
 20
3.636695612629619
 30
0.0
 11
16.31620268227262
 21
3.604982272345818
 31
0.0
  0
LINE
  5
459
330
1E
100
AcDbEntity
  8
ZN-40BMB
100
AcDbLine
 10
16.31309587956965
 20
3.668718243727237
 30
0.0
 11
16.31227254487869
 21
3.636695612629619
 31
0.0
  0
LINE
  5
45A
330
1E
100
AcDbEntity
  8
ZN-40BMB
100
AcDbLine
 10
16.19677817901775
 20
3.640383419216743
 30
0.0
 11
16.19677817901775
 21
3.500023374937779
 31
0.0
  0
ARC
  5
45B
330
1E
100
AcDbEntity
  8
ZN-40BMB
100
AcDbCircle
 10
19.0182996705922
 20
6.061323679775224
 30
0.0
 40
10.04393398282202
100
AcDbArc
 50
166.2188483504578
 51
193.7811516495433
  0
ARC
  5
45C
330
1E
100
AcDbEntity
  8
ZN-40BMB
100
AcDbCircle
 10
19.0182996705922
 20
6.061323679775224
 30
0.0
 40
9.93786796564404
100
AcDbArc
 50
165.900437282712
 51
194.0995627172891
  0
LINE
  5
45D
330
1E
100
AcDbEntity
  8
ZN-40BMB
  6
CENTER2
 62
     1
 48
0.8
100
AcDbLine
 10
12.78829967059222
 20
3.336378538762094
 30
0.0
 11
12.7882996705922
 21
8.786268820788306
 31
0.0
  0
LINE
  5
45E
330
1E
100
AcDbEntity
  8
ZN-40BMB
100
AcDbLine
 10
14.28829967059221
 20
5.06132367977521
 30
0.0
 11
14.2882996705922
 21
7.06132367977521
 31
0.0
  0
LINE
  5
45F
330
1E
100
AcDbEntity
  8
ZN-40BMB
100
AcDbLine
 10
11.2882996705922
 20
7.061323679775203
 30
0.0
 11
11.28829967059221
 21
5.061323679775195
 31
0.0
  0
DIMENSION
  5
460
330
1E
100
AcDbEntity
  8
0
100
AcDbDimension
  2
*D4
 10
11.28829967059221
 20
2.881245893961813
 30
0.0
 11
12.86293853800144
 21
2.881245893961813
 31
0.0
 70
   160
 71
     5
 42
3.0
  3
STANDARD
100
AcDbAlignedDimension
 13
14.28829967059221
 23
5.061323679775208
 33
0.0
 14
11.28829967059221
 24
5.061323679775195
 34
0.0
 50
180.0
100
AcDbRotatedDimension
1001
ACAD
1000
DSTYLE
1002
{
1070
   141
1040
0.0
1002
}
  0
LINE
  5
461
330
1E
100
AcDbEntity
  8
ZN-40BMB
100
AcDbLine
 10
14.2882996705922
 20
7.06132367977521
 30
0.0
 11
11.2882996705922
 21
7.061323679775203
 31
0.0
  0
LINE
  5
462
330
1E
100
AcDbEntity
  8
ZN-40BMB
100
AcDbLine
 10
15.66355643526703
 20
11.15848967821772
 30
0.0
 11
15.66229967059221
 21
11.23048967821772
 31
0.0
  0
LINE
  5
463
330
1E
100
AcDbEntity
  8
ZN-40BMB
100
AcDbLine
 10
15.4742996705922
 20
11.23048967821772
 30
0.0
 11
15.47304290591737
 21
11.15848967821772
 31
0.0
  0
LINE
  5
464
330
1E
100
AcDbEntity
  8
ZN-40BMB
100
AcDbLine
 10
15.4742996705922
 20
11.23048967821772
 30
0.0
 11
15.66229967059221
 21
11.23048967821772
 31
0.0
  0
LINE
  5
465
330
1E
100
AcDbEntity
  8
ZN-40BMB
100
AcDbLine
 10
12.88355643526702
 20
11.15848967821772
 30
0.0
 11
12.8822996705922
 21
11.23048967821772
 31
0.0
  0
LINE
  5
466
330
1E
100
AcDbEntity
  8
ZN-40BMB
100
AcDbLine
 10
12.69429967059219
 20
11.23048967821772
 30
0.0
 11
12.69304290591737
 21
11.15848967821772
 31
0.0
  0
LINE
  5
467
330
1E
100
AcDbEntity
  8
ZN-40BMB
100
AcDbLine
 10
12.69429967059219
 20
11.23048967821772
 30
0.0
 11
12.8822996705922
 21
11.23048967821772
 31
0.0
  0
LEADER
  5
468
330
1E
100
AcDbEntity
  8
0
100
AcDbLeader
  3
STANDARD$7
 73
     0
 75
     1
 40
0.1297597716439021
 41
2.330649003339829
 76
     3
 10
11.82537292867116
 20
5.546685287454049
 30
0.0
 10
9.597324201069836
 20
2.697673868017009
 30
0.0
 10
9.459824201069837
 20
2.697673868017009
 30
0.0
340
2C4
211
1.0
221
-0.0000000000000002
231
0.0
1001
ACAD
1000
DSTYLE
1002
{
1070
    41
1040
0.1
1070
   341
1005
66
1002
}
  0
LINE
  5
469
330
1E
100
AcDbEntity
  8
ZN-40BMB
100
AcDbLine
 10
10.10355643526703
 20
11.15848967821772
 30
0.0
 11
10.10229967059219
 21
11.23048967821772
 31
0.0
  0
LINE
  5
46A
330
1E
100
AcDbEntity
  8
ZN-40BMB
100
AcDbLine
 10
9.914299670592196
 20
11.23048967821772
 30
0.0
 11
9.913042905917361
 21
11.15848967821772
 31
0.0
  0
LINE
  5
46B
330
1E
100
AcDbEntity
  8
ZN-40BMB
100
AcDbLine
 10
9.914299670592196
 20
11.23048967821772
 30
0.0
 11
10.10229967059219
 21
11.23048967821772
 31
0.0
  0
ARC
  5
46C
330
1E
100
AcDbEntity
  8
ZN-40BMB
100
AcDbCircle
 10
9.377201123480251
 20
10.78972444840509
 30
0.0
 40
0.162291434155069
100
AcDbArc
 50
89.07947510047792
 51
133.9946917223914
  0
ARC
  5
46D
330
1E
100
AcDbEntity
  8
ZN-40BMB
100
AcDbCircle
 10
10.31381961306066
 20
43.69510268419545
 30
0.0
 40
32.65887739007915
100
AcDbArc
 50
268.0814454387459
 51
268.36119698625
  0
LINE
  5
46E
330
1E
100
AcDbEntity
  8
ZN-40BMB
100
AcDbLine
 10
9.126843048704646
 20
10.77370656884341
 30
0.0
 11
9.264589233553426
 21
10.90654749032177
 31
0.0
  0
LINE
  5
46F
330
1E
100
AcDbEntity
  8
ZN-40BMB
100
AcDbLine
 10
9.220438387224742
 20
11.05453299132378
 30
0.0
 11
8.96879579378405
 21
11.05453299132413
 31
0.0
  0
ARC
  5
470
330
1E
100
AcDbEntity
  8
ZN-40BMB
100
AcDbCircle
 10
8.953376472198417
 20
10.94781629624397
 30
0.0
 40
0.2447402315180136
100
AcDbArc
 50
269.5473519690227
 51
314.8917723478204
  0
ARC
  5
471
330
1E
100
AcDbEntity
  8
ZN-40BMB
100
AcDbCircle
 10
-3.721715150742937
 20
-248.9796898728458
 30
0.0
 40
257.935267767855
100
AcDbArc
 50
87.08847144044367
 51
87.12392072310358
  0
LINE
  5
472
330
1E
100
AcDbEntity
  8
ZN-40BMB
100
AcDbLine
 10
9.379821162166667
 20
8.622623984612642
 30
0.0
 11
9.379821162166667
 21
8.482263940333671
 31
0.0
  0
LINE
  5
473
330
1E
100
AcDbEntity
  8
ZN-40BMB
100
AcDbLine
 10
9.160490799042644
 20
8.629104147412567
 30
0.0
 11
9.182634549762422
 21
8.62487099734607
 31
0.0
  0
LINE
  5
474
330
1E
100
AcDbEntity
  8
ZN-40BMB
100
AcDbLine
 10
9.220438387224756
 20
8.630680687569876
 30
0.0
 11
8.968795793784064
 21
8.63068068756989
 31
0.0
  0
LINE
  5
475
330
1E
100
AcDbEntity
  8
ZN-40BMB
100
AcDbLine
 10
9.264326796305713
 20
8.485951746920795
 30
0.0
 11
9.263503461614764
 21
8.453929115823177
 31
0.0
  0
LINE
  5
476
330
1E
100
AcDbEntity
  8
ZN-40BMB
100
AcDbLine
 10
9.26039665891179
 20
8.517665087204596
 30
0.0
 11
9.264326796305713
 21
8.485951746920795
 31
0.0
  0
LINE
  5
477
330
1E
100
AcDbEntity
  8
ZN-40BMB
100
AcDbLine
 10
9.251892965828876
 20
8.547617342675087
 30
0.0
 11
9.26039665891179
 21
8.517665087204596
 31
0.0
  0
LINE
  5
478
330
1E
100
AcDbEntity
  8
ZN-40BMB
100
AcDbLine
 10
9.239205004671607
 20
8.574437339423317
 30
0.0
 11
9.251892965828876
 21
8.547617342675087
 31
0.0
  0
LINE
  5
479
330
1E
100
AcDbEntity
  8
ZN-40BMB
100
AcDbLine
 10
9.222913613210753
 20
8.596897294125389
 30
0.0
 11
9.239205004671607
 21
8.574437339423317
 31
0.0
  0
LINE
  5
47A
330
1E
100
AcDbEntity
  8
ZN-40BMB
100
AcDbLine
 10
9.203764589402464
 20
8.613969020309175
 30
0.0
 11
9.22291361321076
 21
8.596897294125382
 31
0.0
  0
LINE
  5
47B
330
1E
100
AcDbEntity
  8
ZN-40BMB
100
AcDbLine
 10
9.182634549762422
 20
8.62487099734607
 30
0.0
 11
9.203764589402464
 21
8.613969020309175
 31
0.0
  0
LINE
  5
47C
330
1E
100
AcDbEntity
  8
ZN-40BMB
100
AcDbLine
 10
9.126516327038455
 20
8.481644801255994
 30
0.0
 11
9.125746286195511
 21
8.449664409820682
 31
0.0
  0
LINE
  5
47D
330
1E
100
AcDbEntity
  8
ZN-40BMB
100
AcDbLine
 10
9.122545073177068
 20
8.513301651266777
 30
0.0
 11
9.126516327038455
 21
8.481644801255994
 31
0.0
  0
LINE
  5
47E
330
1E
100
AcDbEntity
  8
ZN-40BMB
100
AcDbLine
 10
9.114013791575654
 20
8.543189990253706
 30
0.0
 11
9.122545073177068
 21
8.513301651266777
 31
0.0
  0
LINE
  5
47F
330
1E
100
AcDbEntity
  8
ZN-40BMB
100
AcDbLine
 10
9.101311890610386
 20
8.569945571894221
 30
0.0
 11
9.114013791575654
 21
8.543189990253706
 31
0.0
  0
LINE
  5
480
330
1E
100
AcDbEntity
  8
ZN-40BMB
100
AcDbLine
 10
9.085019145614001
 20
8.592347143850522
 30
0.0
 11
9.101311890610386
 21
8.569945571894221
 31
0.0
  0
LINE
  5
481
330
1E
100
AcDbEntity
  8
ZN-40BMB
100
AcDbLine
 10
9.065879235164803
 20
8.609372191550155
 30
0.0
 11
9.085019145614001
 21
8.592347143850522
 31
0.0
  0
LINE
  5
482
330
1E
100
AcDbEntity
  8
ZN-40BMB
100
AcDbLine
 10
9.044765796049897
 20
8.620243610627232
 30
0.0
 11
9.06587923516481
 21
8.609372191550148
 31
0.0
  0
LINE
  5
483
330
1E
100
AcDbEntity
  8
ZN-40BMB
100
AcDbLine
 10
9.022642546316024
 20
8.624465177671579
 30
0.0
 11
9.044765796049897
 21
8.620243610627232
 31
0.0
  0
LINE
  5
484
330
1E
100
AcDbEntity
  8
ZN-40BMB
100
AcDbLine
 10
11.28829967059221
 20
5.061323679775195
 30
0.0
 11
14.28829967059221
 21
5.06132367977521
 31
0.0
  0
ARC
  5
485
330
1E
100
AcDbEntity
  8
ZN-40BMB
100
AcDbCircle
 10
-3.721715180611511
 20
261.1023378218844
 30
0.0
 40
257.9352683580992
100
AcDbArc
 50
272.8760792769535
 51
272.9115285595322
  0
LINE
  5
486
330
1E
100
AcDbEntity
  8
ZN-40BMB
100
AcDbLine
 10
9.379821162166681
 20
3.50002337493775
 30
0.0
 11
9.379821162166681
 21
3.640383419216714
 31
0.0
  0
LINE
  5
487
330
1E
100
AcDbEntity
  8
ZN-40BMB
100
AcDbLine
 10
9.160490799042651
 20
3.493543212137819
 30
0.0
 11
9.182634549762429
 21
3.497776362204316
 31
0.0
  0
LINE
  5
488
330
1E
100
AcDbEntity
  8
ZN-40BMB
100
AcDbLine
 10
9.22043838722536
 20
3.491966671980495
 30
0.0
 11
8.968795793784071
 21
3.491966671980495
 31
0.0
  0
LINE
  5
489
330
1E
100
AcDbEntity
  8
ZN-40BMB
100
AcDbLine
 10
9.264326796305727
 20
3.636695612629598
 30
0.0
 11
9.263503461614778
 21
3.668718243727209
 31
0.0
  0
LINE
  5
48A
330
1E
100
AcDbEntity
  8
ZN-40BMB
100
AcDbLine
 10
9.260396658911805
 20
3.604982272345797
 30
0.0
 11
9.264326796305727
 21
3.636695612629598
 31
0.0
  0
LINE
  5
48B
330
1E
100
AcDbEntity
  8
ZN-40BMB
100
AcDbLine
 10
9.25189296582889
 20
3.575030016875299
 30
0.0
 11
9.260396658911805
 21
3.604982272345797
 31
0.0
  0
LINE
  5
48C
330
1E
100
AcDbEntity
  8
ZN-40BMB
100
AcDbLine
 10
9.239205004671621
 20
3.548210020127076
 30
0.0
 11
9.25189296582889
 21
3.575030016875299
 31
0.0
  0
LINE
  5
48D
330
1E
100
AcDbEntity
  8
ZN-40BMB
100
AcDbLine
 10
9.222913613210767
 20
3.525750065425004
 30
0.0
 11
9.239205004671621
 21
3.548210020127076
 31
0.0
  0
LINE
  5
48E
330
1E
100
AcDbEntity
  8
ZN-40BMB
100
AcDbLine
 10
9.203764589402471
 20
3.50867833924121
 30
0.0
 11
9.222913613210767
 21
3.525750065425004
 31
0.0
  0
LINE
  5
48F
330
1E
100
AcDbEntity
  8
ZN-40BMB
100
AcDbLine
 10
9.182634549762429
 20
3.497776362204316
 30
0.0
 11
9.203764589402471
 21
3.50867833924121
 31
0.0
  0
LINE
  5
490
330
1E
100
AcDbEntity
  8
ZN-40BMB
100
AcDbLine
 10
9.126516327038462
 20
3.641002558294399
 30
0.0
 11
9.125746286195525
 21
3.672982949729703
 31
0.0
  0
LINE
  5
491
330
1E
100
AcDbEntity
  8
ZN-40BMB
100
AcDbLine
 10
9.122545073177082
 20
3.609345708283608
 30
0.0
 11
9.126516327038462
 21
3.641002558294399
 31
0.0
  0
LINE
  5
492
330
1E
100
AcDbEntity
  8
ZN-40BMB
100
AcDbLine
 10
9.114013791575661
 20
3.579457369296687
 30
0.0
 11
9.122545073177082
 21
3.609345708283608
 31
0.0
  0
LINE
  5
493
330
1E
100
AcDbEntity
  8
ZN-40BMB
100
AcDbLine
 10
9.101311890610393
 20
3.552701787656172
 30
0.0
 11
9.114013791575661
 21
3.579457369296687
 31
0.0
  0
LINE
  5
494
330
1E
100
AcDbEntity
  8
ZN-40BMB
100
AcDbLine
 10
9.085019145614015
 20
3.530300215699863
 30
0.0
 11
9.101311890610393
 21
3.552701787656172
 31
0.0
  0
LINE
  5
495
330
1E
100
AcDbEntity
  8
ZN-40BMB
100
AcDbLine
 10
9.065879235164818
 20
3.513275168000237
 30
0.0
 11
9.085019145614015
 21
3.530300215699863
 31
0.0
  0
LINE
  5
496
330
1E
100
AcDbEntity
  8
ZN-40BMB
100
AcDbLine
 10
9.044765796049905
 20
3.502403748923153
 30
0.0
 11
9.065879235164818
 21
3.513275168000237
 31
0.0
  0
LINE
  5
497
330
1E
100
AcDbEntity
  8
ZN-40BMB
100
AcDbLine
 10
9.022642546316024
 20
3.498182181878799
 30
0.0
 11
9.044765796049905
 21
3.502403748923153
 31
0.0
  0
DIMENSION
  5
498
330
1E
100
AcDbEntity
  8
0
100
AcDbDimension
  2
*D6
 10
4.55026291344346
 20
14.21987492480738
 30
0.0
 11
2.893563774630367
 21
14.21987492480738
 31
0.0
 70
   160
  1
<>\P(4 PLCS.)
 71
     5
 42
0.7699999999999961
  3
STANDARD
100
AcDbAlignedDimension
 13
3.780262913443464
 23
15.07946073345974
 33
0.0
 14
4.55026291344346
 24
16.12093206179882
 34
0.0
 50
180.0
100
AcDbRotatedDimension
1001
ACAD
1000
DSTYLE
1002
{
1070
   141
1040
0.0
1002
}
  0
DIMENSION
  5
49A
330
1E
100
AcDbEntity
  8
0
100
AcDbDimension
  2
*D5
 10
4.308262913443477
 20
15.48840914181077
 30
0.0
 11
1.945738058395722
 21
15.48840914181077
 31
0.0
 70
   160
  1
<> (6 PLCS.)\P(MOUNTING BOSS HEIGHT)
 71
     5
 42
0.1680000000000064
  3
STANDARD
100
AcDbAlignedDimension
 13
4.14026291344347
 23
15.75429720047822
 33
0.0
 14
4.308262913443477
 24
15.75767080164528
 34
0.0
 50
180.0
100
AcDbRotatedDimension
1001
ACAD
1000
DSTYLE
1002
{
1070
   141
1040
0.0
1002
}
  0
LINE
  5
5CE
330
1E
100
AcDbEntity
  8
ZN-40BMB
100
AcDbLine
 10
8.243779129474621
 20
6.566323679775184
 30
0.0
 11
8.243779129475374
 21
5.556323679775186
 31
0.0
  0
LINE
  5
5CF
330
1E
100
AcDbEntity
  8
ZN-40BMB
100
AcDbLine
 10
8.198354529579109
 20
5.556323679775179
 30
0.0
 11
8.198354529579109
 21
6.566323679775177
 31
0.0
  0
ARC
  5
5E7
330
1E
100
AcDbEntity
  8
ZN-40BMB
100
AcDbCircle
 10
16.60509967059216
 20
6.566323679775205
 30
0.0
 40
8.361320541117541
100
AcDbArc
 50
166.8266669906118
 51
180.0
  0
ARC
  5
5E8
330
1E
100
AcDbEntity
  8
ZN-40BMB
100
AcDbCircle
 10
16.60509967059216
 20
6.566323679775205
 30
0.0
 40
8.406745141013061
100
AcDbArc
 50
166.8009332809505
 51
180.0
  0
LINE
  5
5E9
330
1E
100
AcDbEntity
  8
ZN-40BMB
100
AcDbLine
 10
8.261180978353802
 20
10.84725475371234
 30
0.0
 11
8.243779129474621
 21
11.34557850580748
 31
0.0
  0
LINE
  5
5EA
330
1E
100
AcDbEntity
  8
ZN-40BMB
  6
HIDDEN2
 62
     4
100
AcDbLine
 10
8.819521525137172
 20
11.50248967821773
 30
0.0
 11
8.817077071272745
 21
11.57248967821773
 31
0.0
  0
POLYLINE
  5
5EB
330
1E
100
AcDbEntity
  8
ZN-40BMB
100
AcDb2dPolyline
 66
     1
 10
0.0
 20
0.0
 30
0.0
 70
   128
 40
0.0005905511811024
 41
0.0005905511811024
  0
VERTEX
  5
5EC
330
5EB
100
AcDbEntity
  8
ZN-40BMB
100
AcDbVertex
100
AcDb2dVertex
 10
8.77084679523995
 20
11.34557850580746
 30
0.0
  0
VERTEX
  5
5ED
330
5EB
100
AcDbEntity
  8
ZN-40BMB
100
AcDbVertex
100
AcDb2dVertex
 10
8.770356273281198
 20
11.30059095917084
 30
0.0
  0
VERTEX
  5
5EE
330
5EB
100
AcDbEntity
  8
ZN-40BMB
100
AcDbVertex
100
AcDb2dVertex
 10
8.769901573791859
 20
11.25501796669391
 30
0.0
  0
SEQEND
  5
5EF
330
5EB
100
AcDbEntity
  8
ZN-40BMB
  0
LINE
  5
5F0
330
1E
100
AcDbEntity
  8
ZN-40BMB
100
AcDbLine
 10
8.868811024268406
 20
11.256744437574
 30
0.0
 11
8.865045177085018
 21
11.47248967821772
 31
0.0
  0
LINE
  5
5F1
330
1E
100
AcDbEntity
  8
ZN-40BMB
100
AcDbLine
 10
8.865045177085018
 20
11.47248967821772
 30
0.0
 11
8.864521525137174
 21
11.50248967821773
 31
0.0
  0
ARC
  5
5F2
330
1E
100
AcDbEntity
  8
ZN-40BMB
100
AcDbCircle
 10
12.01632650093443
 20
9.0350723414863
 30
0.0
 40
3.983914815284207
100
AcDbArc
 50
142.2791720821965
 51
144.5523602387813
  0
LINE
  5
5F3
330
1E
100
AcDbEntity
  8
ZN-40BMB
  6
HIDDEN2
 62
     4
100
AcDbLine
 10
8.240854529579099
 20
11.50248967821772
 30
0.0
 11
8.246579418405541
 21
11.56792545693145
 31
0.0
  0
ARC
  5
5F4
330
1E
100
AcDbEntity
  8
ZN-40BMB
  6
HIDDEN2
 62
     4
100
AcDbCircle
 10
8.25156039189601
 20
11.56748967821772
 30
0.0
 40
0.0050000000000008
100
AcDbArc
 50
90.00000000000078
 51
175.000000000001
  0
LINE
  5
5F5
330
1E
100
AcDbEntity
  8
ZN-40BMB
100
AcDbLine
 10
8.770846795239908
 20
11.34557850580744
 30
0.0
 11
8.243779129474621
 21
11.34557850580748
 31
0.0
  0
LINE
  5
5F6
330
1E
100
AcDbEntity
  8
ZN-40BMB
100
AcDbLine
 10
8.198354529579102
 20
11.47248967821772
 30
0.0
 11
8.865045177084983
 21
11.47248967821767
 31
0.0
  0
LINE
  5
5F7
330
1E
100
AcDbEntity
  8
ZN-40BMB
100
AcDbLine
 10
8.218354529579098
 20
11.47248967821772
 30
0.0
 11
8.218354529579098
 21
11.50248967821772
 31
0.0
  0
ARC
  5
5F8
330
1E
100
AcDbEntity
  8
ZN-40BMB
100
AcDbCircle
 10
8.398354529579098
 20
11.47248967821771
 30
0.0
 40
0.1999999999999979
100
AcDbArc
 50
180.0
 51
219.3870513647222
  0
LINE
  5
5F9
330
1E
100
AcDbEntity
  8
ZN-40BMB
100
AcDbLine
 10
8.953376472198417
 20
10.70307606472596
 30
0.0
 11
8.411089602406658
 21
10.70248967821771
 31
0.0
  0
ARC
  5
5FA
330
1E
100
AcDbEntity
  8
ZN-40BMB
100
AcDbCircle
 10
8.411089602406665
 20
10.85248967821771
 30
0.0
 40
0.1500000000000003
100
AcDbArc
 50
182.0000000000032
 51
270.0
  0
ARC
  5
5FB
330
1E
100
AcDbEntity
  8
ZN-40BMB
100
AcDbCircle
 10
8.670317397635617
 20
8.423334332982355
 30
0.0
 40
0.2121346514581314
100
AcDbArc
 50
100.5808595113177
 51
165.7649943674968
  0
ARC
  5
5FC
330
1E
100
AcDbEntity
  8
ZN-40BMB
100
AcDbCircle
 10
8.66559227636225
 20
8.428390277574875
 30
0.0
 40
0.2518037141574744
100
AcDbArc
 50
99.54921112600599
 51
166.8027918524788
  0
ARC
  5
5FD
330
1E
100
AcDbEntity
  8
ZN-40BMB
100
AcDbCircle
 10
8.738299670592187
 20
7.996323679775391
 30
0.0
 40
0.644520541117366
100
AcDbArc
 50
89.99999999999877
 51
99.06922327143846
  0
ARC
  5
5FE
330
1E
100
AcDbEntity
  8
ZN-40BMB
100
AcDbCircle
 10
8.738299670592187
 20
7.996323679775391
 30
0.0
 40
0.6899451410128883
100
AcDbArc
 50
89.99999999999847
 51
99.55106969752776
  0
LINE
  5
5FF
330
1E
100
AcDbEntity
  8
ZN-40BMB
100
AcDbLine
 10
8.854577125107336
 20
8.685455512448319
 30
0.0
 11
8.868811024268421
 21
8.68626882078829
 31
0.0
  0
LINE
  5
600
330
1E
100
AcDbEntity
  8
ZN-40BMB
100
AcDbLine
 10
8.840528450728623
 20
8.683026170955711
 30
0.0
 11
8.854577125107336
 21
8.685455512448319
 31
0.0
  0
LINE
  5
601
330
1E
100
AcDbEntity
  8
ZN-40BMB
100
AcDbLine
 10
8.826847815596881
 20
8.679012409169606
 30
0.0
 11
8.840528450728623
 21
8.683026170955711
 31
0.0
  0
LINE
  5
602
330
1E
100
AcDbEntity
  8
ZN-40BMB
100
AcDbLine
 10
8.813713244906491
 20
8.673466457904963
 30
0.0
 11
8.826847815596881
 21
8.679012409169606
 31
0.0
  0
LINE
  5
603
330
1E
100
AcDbEntity
  8
ZN-40BMB
100
AcDbLine
 10
8.801295657951595
 20
8.666460486256459
 30
0.0
 11
8.813713244906491
 21
8.673466457904963
 31
0.0
  0
LINE
  5
604
330
1E
100
AcDbEntity
  8
ZN-40BMB
100
AcDbLine
 10
8.789756643964725
 20
8.658085662466822
 30
0.0
 11
8.801295657951595
 21
8.666460486256459
 31
0.0
  0
LINE
  5
605
330
1E
100
AcDbEntity
  8
ZN-40BMB
100
AcDbLine
 10
8.779246359366847
 20
8.648450967560611
 30
0.0
 11
8.789756643964725
 21
8.658085662466822
 31
0.0
  0
LINE
  5
606
330
1E
100
AcDbEntity
  8
ZN-40BMB
100
AcDbLine
 10
8.769901573791866
 20
8.637681777181333
 30
0.0
 11
8.779246359366847
 21
8.648450967560611
 31
0.0
  0
LINE
  5
607
330
1E
100
AcDbEntity
  8
ZN-40BMB
100
AcDbLine
 10
8.77084679523995
 20
8.640844220892764
 30
0.0
 11
8.738299670592208
 21
8.640844220892764
 31
0.0
  0
POLYLINE
  5
608
330
1E
100
AcDbEntity
  8
ZN-40BMB
100
AcDb2dPolyline
 66
     1
 10
0.0
 20
0.0
 30
0.0
 70
   128
 40
0.0005905511811024
 41
0.0005905511811024
  0
VERTEX
  5
609
330
608
100
AcDbEntity
  8
ZN-40BMB
100
AcDbVertex
100
AcDb2dVertex
 10
8.770846795239958
 20
8.640844220892764
 30
0.0
  0
VERTEX
  5
60A
330
608
100
AcDbEntity
  8
ZN-40BMB
100
AcDbVertex
100
AcDb2dVertex
 10
8.770356273281205
 20
8.639273221146664
 30
0.0
  0
VERTEX
  5
60B
330
608
100
AcDbEntity
  8
ZN-40BMB
100
AcDbVertex
100
AcDb2dVertex
 10
8.769901573791866
 20
8.637681777181333
 30
0.0
  0
SEQEND
  5
60C
330
608
100
AcDbEntity
  8
ZN-40BMB
  0
LINE
  5
60D
330
1E
100
AcDbEntity
  8
ZN-40BMB
100
AcDbLine
 10
8.868811024268421
 20
8.68626882078829
 30
0.0
 11
8.865045177085033
 21
8.686268820788283
 31
0.0
  0
ARC
  5
60E
330
1E
100
AcDbEntity
  8
ZN-40BMB
100
AcDbCircle
 10
8.865047605946802
 20
8.565880451570484
 30
0.0
 40
0.120388369242346
100
AcDbArc
 50
90.00115595492822
 51
141.4876859797636
  0
LINE
  5
60F
330
1E
100
AcDbEntity
  8
ZN-40BMB
100
AcDbLine
 10
8.738299670592216
 20
8.686268820788283
 30
0.0
 11
8.865045177085033
 21
8.686268820788283
 31
0.0
  0
LINE
  5
610
330
1E
100
AcDbEntity
  8
ZN-40BMB
100
AcDbLine
 10
8.636705412347364
 20
8.632786824516598
 30
0.0
 11
8.631364601515809
 21
8.631862005063785
 31
0.0
  0
LINE
  5
611
330
1E
100
AcDbEntity
  8
ZN-40BMB
100
AcDbLine
 10
8.464696278049768
 20
8.475498166521743
 30
0.0
 11
8.463806627064133
 21
8.4718495312702
 31
0.0
  0
ARC
  5
652
330
1E
100
AcDbEntity
  8
ZN-40BMB
100
AcDbCircle
 10
8.733299670592206
 20
7.761323679775188
 30
0.0
 40
0.1000000000000026
100
AcDbArc
 50
35.18915014033242
 51
306.0398133395955
  0
ARC
  5
653
330
1E
100
AcDbEntity
  8
ZN-40BMB
100
AcDbCircle
 10
8.729222531579001
 20
7.761997587050025
 30
0.0
 40
0.1029845490881588
100
AcDbArc
 50
307.6536273565705
 51
33.57533612337336
  0
ARC
  5
654
330
1E
100
AcDbEntity
  8
ZN-40BMB
100
AcDbCircle
 10
8.693299670592221
 20
7.311323679775199
 30
0.0
 40
0.1553000000000064
100
AcDbArc
 50
281.0586219200726
 51
65.135496487514
  0
ARC
  5
655
330
1E
100
AcDbEntity
  8
ZN-40BMB
100
AcDbCircle
 10
8.693299670592207
 20
7.311323679775185
 30
0.0
 40
0.1553000000000004
100
AcDbArc
 50
65.13549648750791
 51
281.0586219200777
  0
CIRCLE
  5
656
330
1E
100
AcDbEntity
  8
ZN-40BMB
100
AcDbCircle
 10
8.693299670592207
 20
7.311323679775185
 30
0.0
 40
0.1185000000000009
  0
CIRCLE
  5
657
330
1E
100
AcDbEntity
  8
ZN-40BMB
100
AcDbCircle
 10
8.693299670592207
 20
7.311323679775185
 30
0.0
 40
0.0824999999999996
  0
CIRCLE
  5
658
330
1E
100
AcDbEntity
  8
ZN-40BMB
100
AcDbCircle
 10
8.693299670592207
 20
7.311323679775185
 30
0.0
 40
0.0580000000000016
  0
ARC
  5
69B
330
1E
100
AcDbEntity
  8
ZN-40BMB
100
AcDbCircle
 10
8.729118252604255
 20
4.360632536306162
 30
0.0
 40
0.1030619230817322
100
AcDbArc
 50
326.4647080270927
 51
52.30632849301726
  0
ARC
  5
69C
330
1E
100
AcDbEntity
  8
ZN-40BMB
100
AcDbCircle
 10
8.73329967059222
 20
4.361323679775189
 30
0.0
 40
0.0999999999999989
100
AcDbArc
 50
53.96018666044273
 51
324.81084985968
  0
ARC
  5
69D
330
1E
100
AcDbEntity
  8
ZN-40BMB
100
AcDbCircle
 10
16.60509967059219
 20
5.556323679775207
 30
0.0
 40
8.36132054111756
100
AcDbArc
 50
180.0
 51
193.1733330093885
  0
ARC
  5
69E
330
1E
100
AcDbEntity
  8
ZN-40BMB
100
AcDbCircle
 10
16.60509967059219
 20
5.556323679775207
 30
0.0
 40
8.406745141013084
100
AcDbArc
 50
180.0
 51
193.1990667190506
  0
ARC
  5
69F
330
1E
100
AcDbEntity
  8
ZN-40BMB
100
AcDbCircle
 10
8.693299670592285
 20
4.811323679775235
 30
0.0
 40
0.1553000000000129
100
AcDbArc
 50
294.8645035124654
 51
78.94137807995
  0
ARC
  5
6A0
330
1E
100
AcDbEntity
  8
ZN-40BMB
100
AcDbCircle
 10
8.693299670592214
 20
4.811323679775185
 30
0.0
 40
0.1553000000000003
100
AcDbArc
 50
78.9413780799244
 51
294.8645035124943
  0
CIRCLE
  5
6A1
330
1E
100
AcDbEntity
  8
ZN-40BMB
100
AcDbCircle
 10
8.693299670592214
 20
4.811323679775185
 30
0.0
 40
0.0824999999999996
  0
CIRCLE
  5
6A2
330
1E
100
AcDbEntity
  8
ZN-40BMB
100
AcDbCircle
 10
8.693299670592214
 20
4.811323679775185
 30
0.0
 40
0.0580000000000016
  0
CIRCLE
  5
6A3
330
1E
100
AcDbEntity
  8
ZN-40BMB
100
AcDbCircle
 10
8.693299670592214
 20
4.811323679775185
 30
0.0
 40
0.1185000000000009
  0
ARC
  5
6A4
330
1E
100
AcDbEntity
  8
ZN-40BMB
100
AcDbCircle
 10
8.670317309080008
 20
3.699312932176646
 30
0.0
 40
0.2121345424108584
100
AcDbArc
 50
194.2349868025139
 51
259.4191593187938
  0
ARC
  5
6A5
330
1E
100
AcDbEntity
  8
ZN-40BMB
100
AcDbCircle
 10
8.665592275709354
 20
3.694257081279566
 30
0.0
 40
0.2518037133629285
100
AcDbArc
 50
193.1972080272698
 51
260.450788994233
  0
ARC
  5
6A6
330
1E
100
AcDbEntity
  8
ZN-40BMB
100
AcDbCircle
 10
8.738299670592216
 20
4.126323679775168
 30
0.0
 40
0.6445205411175668
100
AcDbArc
 50
260.9307767285623
 51
270.0000000000004
  0
ARC
  5
6A7
330
1E
100
AcDbEntity
  8
ZN-40BMB
100
AcDbCircle
 10
8.738299670592216
 20
4.126323679775168
 30
0.0
 40
0.6899451410130943
100
AcDbArc
 50
260.4489303024745
 51
270.0000000000004
  0
LINE
  5
6A8
330
1E
100
AcDbEntity
  8
ZN-40BMB
100
AcDbLine
 10
8.770356273281212
 20
3.483374138403707
 30
0.0
 11
8.769901573791873
 21
3.484965582369039
 31
0.0
  0
LINE
  5
6A9
330
1E
100
AcDbEntity
  8
ZN-40BMB
100
AcDbLine
 10
8.770846795239965
 20
3.481803138657607
 30
0.0
 11
8.770356273281212
 21
3.483374138403707
 31
0.0
  0
LINE
  5
6AA
330
1E
100
AcDbEntity
  8
ZN-40BMB
100
AcDbLine
 10
8.854577125107343
 20
3.437191847102052
 30
0.0
 11
8.868811024268428
 21
3.436378538762081
 31
0.0
  0
LINE
  5
6AB
330
1E
100
AcDbEntity
  8
ZN-40BMB
100
AcDbLine
 10
8.84052845072863
 20
3.43962118859466
 30
0.0
 11
8.854577125107343
 21
3.437191847102052
 31
0.0
  0
LINE
  5
6AC
330
1E
100
AcDbEntity
  8
ZN-40BMB
100
AcDbLine
 10
8.826847815596895
 20
3.443634950380772
 30
0.0
 11
8.84052845072863
 21
3.43962118859466
 31
0.0
  0
LINE
  5
6AD
330
1E
100
AcDbEntity
  8
ZN-40BMB
100
AcDbLine
 10
8.813713244906498
 20
3.449180901645409
 30
0.0
 11
8.826847815596895
 21
3.443634950380772
 31
0.0
  0
LINE
  5
6AE
330
1E
100
AcDbEntity
  8
ZN-40BMB
100
AcDbLine
 10
8.801295657951602
 20
3.456186873293919
 30
0.0
 11
8.813713244906498
 21
3.449180901645409
 31
0.0
  0
LINE
  5
6AF
330
1E
100
AcDbEntity
  8
ZN-40BMB
100
AcDbLine
 10
8.789756643964739
 20
3.464561697083549
 30
0.0
 11
8.801295657951602
 21
3.456186873293919
 31
0.0
  0
LINE
  5
6B0
330
1E
100
AcDbEntity
  8
ZN-40BMB
100
AcDbLine
 10
8.779246359366855
 20
3.474196391989767
 30
0.0
 11
8.789756643964739
 21
3.464561697083549
 31
0.0
  0
LINE
  5
6B1
330
1E
100
AcDbEntity
  8
ZN-40BMB
100
AcDbLine
 10
8.769901573791873
 20
3.484965582369039
 30
0.0
 11
8.779246359366855
 21
3.474196391989767
 31
0.0
  0
LINE
  5
6B2
330
1E
100
AcDbEntity
  8
ZN-40BMB
100
AcDbLine
 10
8.770846795239965
 20
3.481803138657607
 30
0.0
 11
8.738299670592216
 21
3.481803138657607
 31
0.0
  0
LINE
  5
6B3
330
1E
100
AcDbEntity
  8
ZN-40BMB
100
AcDbLine
 10
8.868811024268428
 20
3.436378538762081
 30
0.0
 11
8.86504517708504
 21
3.436378538762081
 31
0.0
  0
ARC
  5
6B4
330
1E
100
AcDbEntity
  8
ZN-40BMB
100
AcDbCircle
 10
8.865350651530636
 20
3.557395342874073
 30
0.0
 40
0.121017189655508
100
AcDbArc
 50
218.6557855775392
 51
269.8553724878379
  0
LINE
  5
6B5
330
1E
100
AcDbEntity
  8
ZN-40BMB
100
AcDbLine
 10
8.738299670592216
 20
3.436378538762081
 30
0.0
 11
8.86504517708504
 21
3.436378538762081
 31
0.0
  0
LINE
  5
6B6
330
1E
100
AcDbEntity
  8
ZN-40BMB
100
AcDbLine
 10
8.63136460151583
 20
3.490785354486586
 30
0.0
 11
8.636705412347357
 21
3.489860535033759
 31
0.0
  0
LINE
  5
6B7
330
1E
100
AcDbEntity
  8
ZN-40BMB
100
AcDbLine
 10
8.463806627064119
 20
3.65079782828015
 30
0.0
 11
8.464696278049775
 21
3.647149193028628
 31
0.0
  0
LINE
  5
6E4
330
1E
100
AcDbEntity
  8
ZN-40BMB
  6
HIDDEN2
 62
     4
100
AcDbLine
 10
16.60780354740034
 20
11.11848967821772
 30
0.0
 11
8.96879579378405
 21
11.11848967821772
 31
0.0
  0
LINE
  5
6E5
330
1E
100
AcDbEntity
  8
ZN-40BMB
  6
HIDDEN2
 62
     4
100
AcDbLine
 10
16.19677817901773
 20
11.04248967821772
 30
0.0
 11
9.37982116216666
 21
11.04248967821772
 31
0.0
  0
LINE
  5
6E6
330
1E
100
AcDbEntity
  8
ZN-40BMB
  6
HIDDEN2
 62
     4
100
AcDbLine
 10
9.599922830714572
 20
11.06248967821772
 30
0.0
 11
15.97667651046982
 21
11.06248967821772
 31
0.0
  0
LINE
  5
6E7
330
1E
100
AcDbEntity
  8
ZN-40BMB
  6
HIDDEN2
 62
     4
100
AcDbLine
 10
9.160759761207703
 20
10.93156850713474
 30
0.0
 11
9.202145809412318
 21
10.97137401677396
 31
0.0
  0
LINE
  5
6E8
330
1E
100
AcDbEntity
  8
ZN-40BMB
  6
HIDDEN2
 62
     4
100
AcDbLine
 10
9.37982116216666
 20
10.95248967821772
 30
0.0
 11
9.080431704948157
 21
10.95248967821771
 31
0.0
  0
LINE
  5
6E9
330
1E
100
AcDbEntity
  8
ZN-40BMB
  6
HIDDEN2
 62
     4
100
AcDbLine
 10
9.37982116216666
 20
11.04248967821772
 30
0.0
 11
9.080431704948157
 21
11.04248967821772
 31
0.0
  0
LINE
  5
6EA
330
1E
100
AcDbEntity
  8
ZN-40BMB
  6
HIDDEN2
 62
     4
100
AcDbLine
 10
9.156896687295787
 20
11.06248967821771
 30
0.0
 11
9.402430627041599
 21
11.06248967821772
 31
0.0
  0
LINE
  5
6EB
330
1E
100
AcDbEntity
  8
ZN-40BMB
  6
HIDDEN2
 62
     4
100
AcDbLine
 10
8.624000150828397
 20
10.79248967821772
 30
0.0
 11
8.411089602406658
 21
10.79248967821772
 31
0.0
  0
LINE
  5
6EC
330
1E
100
AcDbEntity
  8
ZN-40BMB
  6
HIDDEN2
 62
     4
100
AcDbLine
 10
8.514307415552625
 20
11.17671757298014
 30
0.0
 11
8.480691830550473
 21
10.79248967821772
 31
0.0
  0
LINE
  5
6ED
330
1E
100
AcDbEntity
  8
ZN-40BMB
  6
HIDDEN2
 62
     4
100
AcDbLine
 10
8.351126152785514
 20
10.85039570841557
 30
0.0
 11
8.32835452957909
 21
11.50248967821772
 31
0.0
  0
ARC
  5
6EE
330
1E
100
AcDbEntity
  8
ZN-40BMB
  6
HIDDEN2
 62
     4
100
AcDbCircle
 10
8.411089602406665
 20
10.85248967821771
 30
0.0
 40
0.0600000000000015
100
AcDbArc
 50
182.0000000000008
 51
270.0
  0
LINE
  5
6EF
330
1E
100
AcDbEntity
  8
ZN-40BMB
  6
HIDDEN2
 62
     4
100
AcDbLine
 10
8.848599670592196
 20
10.73041420939851
 30
0.0
 11
8.811799670592197
 21
11.15104013414011
 31
0.0
  0
LINE
  5
6F0
330
1E
100
AcDbEntity
  8
ZN-40BMB
  6
HIDDEN2
 62
     4
100
AcDbLine
 10
8.910726077463383
 20
10.97219530570248
 30
0.0
 11
8.77788336498877
 21
10.83935259322786
 31
0.0
  0
LINE
  5
6F1
330
1E
100
AcDbEntity
  8
ZN-40BMB
  6
HIDDEN2
 62
     4
100
AcDbLine
 10
8.898034906740054
 20
10.88247395248358
 30
0.0
 11
8.872291925631774
 21
11.17671757298014
 31
0.0
  0
LINE
  5
6F2
330
1E
100
AcDbEntity
  8
ZN-40BMB
  6
HIDDEN2
 62
     4
100
AcDbLine
 10
8.574799670592202
 20
11.15104013414011
 30
0.0
 11
8.537999670592203
 21
10.73041420939851
 31
0.0
  0
LINE
  5
6F3
330
1E
100
AcDbEntity
  8
ZN-40BMB
  6
HIDDEN2
 62
     4
100
AcDbLine
 10
9.064297220863952
 20
10.83857624282392
 30
0.0
 11
9.160759761207703
 21
10.93156850713474
 31
0.0
  0
ARC
  5
6F4
330
1E
100
AcDbEntity
  8
ZN-40BMB
  6
HIDDEN2
 62
     4
100
AcDbCircle
 10
9.080431704948157
 20
10.80248967821771
 30
0.0
 40
0.1500000000000022
100
AcDbArc
 50
90.0000000000004
 51
135.0000000000007
  0
LINE
  5
6F5
330
1E
100
AcDbEntity
  8
ZN-40BMB
  6
HIDDEN2
 62
     4
100
AcDbLine
 10
8.514307415552625
 20
11.17671757298014
 30
0.0
 11
8.872291925631774
 21
11.17671757298014
 31
0.0
  0
LINE
  5
6F6
330
1E
100
AcDbEntity
  8
ZN-40BMB
  6
HIDDEN2
 62
     4
100
AcDbLine
 10
8.836291925631773
 20
11.2181308356401
 30
0.0
 11
8.814038410438659
 21
11.47248967821772
 31
0.0
  0
ARC
  5
6F7
330
1E
100
AcDbEntity
  8
ZN-40BMB
  6
HIDDEN2
 62
     4
100
AcDbCircle
 10
8.968795793784057
 20
11.25848967821773
 30
0.0
 40
0.1400000000000006
100
AcDbArc
 50
181.0000000000005
 51
270.0
  0
LINE
  5
6F8
330
1E
100
AcDbEntity
  8
ZN-40BMB
  6
HIDDEN2
 62
     4
100
AcDbLine
 10
8.550307415552619
 20
11.2181308356401
 30
0.0
 11
8.836291925631773
 21
11.2181308356401
 31
0.0
  0
LINE
  5
6F9
330
1E
100
AcDbEntity
  8
ZN-40BMB
  6
HIDDEN2
 62
     4
100
AcDbLine
 10
8.775799670592196
 20
11.19245339680007
 30
0.0
 11
8.751299670592199
 21
11.47248967821772
 31
0.0
  0
LINE
  5
6FA
330
1E
100
AcDbEntity
  8
ZN-40BMB
  6
HIDDEN2
 62
     4
100
AcDbLine
 10
8.82881711646215
 20
11.2560463413165
 30
0.0
 11
8.824515432015406
 21
11.50248967821773
 31
0.0
  0
LINE
  5
6FB
330
1E
100
AcDbEntity
  8
ZN-40BMB
  6
HIDDEN2
 62
     4
100
AcDbLine
 10
8.635299670592193
 20
11.47248967821772
 30
0.0
 11
8.610799670592196
 21
11.19245339680007
 31
0.0
  0
LINE
  5
6FC
330
1E
100
AcDbEntity
  8
ZN-40BMB
  6
HIDDEN2
 62
     4
100
AcDbLine
 10
8.572560930745741
 20
11.47248967821772
 30
0.0
 11
8.550307415552619
 21
11.2181308356401
 31
0.0
  0
LINE
  5
6FD
330
1E
100
AcDbEntity
  8
ZN-40BMB
  6
HIDDEN2
 62
     4
100
AcDbLine
 10
8.574799670592202
 20
11.15104013414011
 30
0.0
 11
8.811799670592197
 21
11.15104013414011
 31
0.0
  0
LINE
  5
6FE
330
1E
100
AcDbEntity
  8
ZN-40BMB
  6
HIDDEN2
 62
     4
100
AcDbLine
 10
8.811799670592197
 20
11.15104013414011
 30
0.0
 11
8.775799670592196
 21
11.19245339680007
 31
0.0
  0
LINE
  5
6FF
330
1E
100
AcDbEntity
  8
ZN-40BMB
  6
HIDDEN2
 62
     4
100
AcDbLine
 10
8.610799670592196
 20
11.19245339680007
 30
0.0
 11
8.775799670592196
 21
11.19245339680007
 31
0.0
  0
LINE
  5
700
330
1E
100
AcDbEntity
  8
ZN-40BMB
  6
HIDDEN2
 62
     4
100
AcDbLine
 10
8.610799670592196
 20
11.19245339680007
 30
0.0
 11
8.574799670592202
 21
11.15104013414011
 31
0.0
  0
LINE
  5
701
330
1E
100
AcDbEntity
  8
ZN-40BMB
  6
HIDDEN2
 62
     4
100
AcDbLine
 10
8.550307415552619
 20
11.2181308356401
 30
0.0
 11
8.514307415552625
 21
11.17671757298014
 31
0.0
  0
ARC
  5
702
330
1E
100
AcDbEntity
  8
ZN-40BMB
  6
HIDDEN2
 62
     4
100
AcDbCircle
 10
9.080431704948157
 20
10.80248967821771
 30
0.0
 40
0.240000000000002
100
AcDbArc
 50
90.0000000000004
 51
135.0000000000017
  0
LINE
  5
703
330
1E
100
AcDbEntity
  8
ZN-40BMB
  6
HIDDEN2
 62
     4
100
AcDbLine
 10
8.872291925631774
 20
11.17671757298014
 30
0.0
 11
8.836291925631773
 21
11.2181308356401
 31
0.0
  0
ARC
  5
704
330
1E
100
AcDbEntity
  8
ZN-40BMB
  6
HIDDEN2
 62
     4
100
AcDbCircle
 10
9.090564191488684
 20
11.07248967821771
 30
0.0
 40
0.0300000000002246
100
AcDbArc
 50
270.0
 51
303.5573097612709
  0
ARC
  5
705
330
1E
100
AcDbEntity
  8
ZN-40BMB
  6
HIDDEN2
 62
     4
100
AcDbCircle
 10
9.156896687295787
 20
10.97248967821772
 30
0.0
 40
0.0899999999999981
100
AcDbArc
 50
90.0000000000004
 51
123.557309762352
  0
LINE
  5
706
330
1E
100
AcDbEntity
  8
ZN-40BMB
  6
HIDDEN2
 62
     4
100
AcDbLine
 10
8.835306554031408
 20
10.71784890645171
 30
0.0
 11
8.807606025282385
 21
10.70824368009521
 31
0.0
  0
LINE
  5
707
330
1E
100
AcDbEntity
  8
ZN-40BMB
  6
HIDDEN2
 62
     4
100
AcDbLine
 10
8.847495692288948
 20
10.79527464760977
 30
0.0
 11
8.83064232843704
 21
10.79272035545325
 31
0.0
  0
ARC
  5
708
330
1E
100
AcDbEntity
  8
ZN-40BMB
  6
HIDDEN2
 62
     4
100
AcDbCircle
 10
8.743041037675101
 20
11.37314278992443
 30
0.0
 40
0.5821530593594963
100
AcDbArc
 50
274.1138682803047
 51
281.1635883178613
  0
ARC
  5
709
330
1E
100
AcDbEntity
  8
ZN-40BMB
  6
HIDDEN2
 62
     4
100
AcDbCircle
 10
8.768739640366096
 20
10.92294876412447
 30
0.0
 40
0.1304747537300646
100
AcDbArc
 50
269.1120611336788
 51
320.1553936775469
  0
ARC
  5
70A
330
1E
100
AcDbEntity
  8
ZN-40BMB
  6
HIDDEN2
 62
     4
100
AcDbCircle
 10
8.713903635638889
 20
10.97754208944865
 30
0.0
 40
0.185078019888275
100
AcDbArc
 50
270.9531442238364
 51
311.698520171293
  0
ARC
  5
70B
330
1E
100
AcDbEntity
  8
ZN-40BMB
  6
HIDDEN2
 62
     4
100
AcDbCircle
 10
8.733299670592206
 20
10.62748967821772
 30
0.0
 40
0.2149999999999981
100
AcDbArc
 50
54.50578637171916
 51
90.0000000000004
  0
LINE
  5
70C
330
1E
100
AcDbEntity
  8
ZN-40BMB
  6
HIDDEN2
 62
     4
100
AcDbLine
 10
8.949669654606413
 20
10.79248967821772
 30
0.0
 11
8.738299670592201
 21
10.79248967821772
 31
0.0
  0
LINE
  5
70D
330
1E
100
AcDbEntity
  8
ZN-40BMB
  6
HIDDEN2
 62
     4
100
AcDbLine
 10
8.848599670592196
 20
10.73041420939851
 30
0.0
 11
8.537999670592203
 21
10.73041420939851
 31
0.0
  0
ARC
  5
70E
330
1E
100
AcDbEntity
  8
ZN-40BMB
  6
HIDDEN2
 62
     4
100
AcDbCircle
 10
8.710657071762927
 20
11.08200533485493
 30
0.0
 40
0.3797191965817641
100
AcDbArc
 50
271.8760766617937
 51
290.7724255792401
  0
ARC
  5
70F
330
1E
100
AcDbEntity
  8
ZN-40BMB
  6
HIDDEN2
 62
     4
100
AcDbCircle
 10
8.664746279998926
 20
10.95248967821771
 30
0.0
 40
0.2500000000000018
100
AcDbArc
 50
270.0
 51
315.0000000000006
  0
ARC
  5
710
330
1E
100
AcDbEntity
  8
ZN-40BMB
  6
HIDDEN2
 62
     4
100
AcDbCircle
 10
8.733299670592206
 20
10.62748967821772
 30
0.0
 40
0.1249999999999991
100
AcDbArc
 50
37.88195827766642
 51
90.0000000000004
  0
LINE
  5
711
330
1E
100
AcDbEntity
  8
ZN-40BMB
  6
HIDDEN2
 62
     4
100
AcDbLine
 10
8.83064232843704
 20
10.79272035545325
 30
0.0
 11
8.823207221856808
 21
10.79248967821772
 31
0.0
  0
LINE
  5
712
330
1E
100
AcDbEntity
  8
ZN-40BMB
  6
HIDDEN2
 62
     4
100
AcDbLine
 10
8.738299670592201
 20
10.79248967821772
 30
0.0
 11
8.676302496335527
 21
10.79248967821772
 31
0.0
  0
LINE
  5
713
330
1E
100
AcDbEntity
  8
ZN-40BMB
  6
HIDDEN2
 62
     4
100
AcDbLine
 10
8.676302496335527
 20
10.79248967821772
 30
0.0
 11
8.624000150828397
 21
10.79248967821772
 31
0.0
  0
ARC
  5
714
330
1E
100
AcDbEntity
  8
ZN-40BMB
  6
HIDDEN2
 62
     4
100
AcDbCircle
 10
8.733299670592206
 20
10.62748967821772
 30
0.0
 40
0.214999999999999
100
AcDbArc
 50
90.0000000000004
 51
129.8752773570832
  0
ARC
  5
715
330
1E
100
AcDbEntity
  8
ZN-40BMB
  6
HIDDEN2
 62
     4
100
AcDbCircle
 10
8.664746279998926
 20
10.95248967821771
 30
0.0
 40
0.1600000000000019
100
AcDbArc
 50
270.0
 51
314.9999999999995
  0
ARC
  5
716
330
1E
100
AcDbEntity
  8
ZN-40BMB
  6
HIDDEN2
 62
     4
100
AcDbCircle
 10
8.733299670592206
 20
10.62748967821772
 30
0.0
 40
0.1249999999999993
100
AcDbArc
 50
90.0000000000004
 51
143.1301023541569
  0
LINE
  5
717
330
1E
100
AcDbEntity
  8
ZN-40BMB
  6
HIDDEN2
 62
     4
100
AcDbLine
 10
8.537999670592203
 20
10.73041420939851
 30
0.0
 11
8.537999670592203
 21
10.70248967821772
 31
0.0
  0
LINE
  5
718
330
1E
100
AcDbEntity
  8
ZN-40BMB
  6
HIDDEN2
 62
     4
100
AcDbLine
 10
8.891151233185755
 20
10.86860562667487
 30
0.0
 11
8.868916192374765
 21
10.83935259322786
 31
0.0
  0
LINE
  5
719
330
1E
100
AcDbEntity
  8
ZN-40BMB
  6
HIDDEN2
 62
     4
100
AcDbLine
 10
8.897992222205804
 20
10.88174636286243
 30
0.0
 11
8.891151233185755
 21
10.86860562667487
 31
0.0
  0
LINE
  5
71A
330
1E
100
AcDbEntity
  8
ZN-40BMB
  6
HIDDEN2
 62
     4
100
AcDbLine
 10
8.897286609373413
 20
10.88183046819619
 30
0.0
 11
8.897992222205804
 21
10.88174636286243
 31
0.0
  0
LINE
  5
71B
330
1E
100
AcDbEntity
  8
ZN-40BMB
  6
HIDDEN2
 62
     4
100
AcDbLine
 10
8.87179018491815
 20
10.86860562667487
 30
0.0
 11
8.837019583346776
 21
10.83935259322787
 31
0.0
  0
LINE
  5
71C
330
1E
100
AcDbEntity
  8
ZN-40BMB
  6
HIDDEN2
 62
     4
100
AcDbLine
 10
8.890503894960264
 20
10.88174636286244
 30
0.0
 11
8.87179018491815
 21
10.86860562667487
 31
0.0
  0
LINE
  5
71D
330
1E
100
AcDbEntity
  8
ZN-40BMB
  6
HIDDEN2
 62
     4
100
AcDbLine
 10
8.898032390811639
 20
10.88247494965087
 30
0.0
 11
8.890503894960264
 21
10.88174636286244
 31
0.0
  0
LINE
  5
71E
330
1E
100
AcDbEntity
  8
ZN-40BMB
  6
HIDDEN2
 62
     4
100
AcDbLine
 10
8.891548469776186
 20
10.8692025038703
 30
0.0
 11
8.898032390811639
 21
10.88247494965087
 31
0.0
  0
LINE
  5
71F
330
1E
100
AcDbEntity
  8
ZN-40BMB
  6
HIDDEN2
 62
     4
100
AcDbLine
 10
8.868916192374765
 20
10.83935259322788
 30
0.0
 11
8.891548469776186
 21
10.8692025038703
 31
0.0
  0
LINE
  5
720
330
1E
100
AcDbEntity
  8
ZN-40BMB
  6
HIDDEN2
 62
     4
100
AcDbLine
 10
8.858674160302587
 20
10.79985456476452
 30
0.0
 11
8.847495692288948
 21
10.79527464760977
 31
0.0
  0
LINE
  5
721
330
1E
100
AcDbEntity
  8
ZN-40BMB
  6
HIDDEN2
 62
     4
100
AcDbLine
 10
8.857203141147753
 20
10.80093717954596
 30
0.0
 11
8.858674160302587
 21
10.79985456476452
 31
0.0
  0
LINE
  5
722
330
1E
100
AcDbEntity
  8
ZN-40BMB
  6
HIDDEN2
 62
     4
100
AcDbLine
 10
8.847578504937349
 20
10.72520456411228
 30
0.0
 11
8.835306554031408
 21
10.71784890645171
 31
0.0
  0
LINE
  5
723
330
1E
100
AcDbEntity
  8
ZN-40BMB
  6
HIDDEN2
 62
     4
100
AcDbLine
 10
8.846773504215835
 20
10.72583554232971
 30
0.0
 11
8.847578504937349
 21
10.72520456411228
 31
0.0
  0
LINE
  5
724
330
1E
100
AcDbEntity
  8
ZN-40BMB
  6
HIDDEN2
 62
     4
100
AcDbLine
 10
8.898085092517771
 20
10.88190032641934
 30
0.0
 11
8.898034906740054
 21
10.88247395248358
 31
0.0
  0
LINE
  5
725
330
1E
100
AcDbEntity
  8
ZN-40BMB
  6
HIDDEN2
 62
     4
100
AcDbLine
 10
8.974365687770177
 20
10.9085556953957
 30
0.0
 11
8.841522975295564
 21
10.77571298292108
 31
0.0
  0
LINE
  5
726
330
1E
100
AcDbEntity
  8
ZN-40BMB
  6
HIDDEN2
 62
     4
100
AcDbLine
 10
9.402430627041599
 20
11.06248967821772
 30
0.0
 11
9.599922830714572
 21
11.06248967821772
 31
0.0
  0
ARC
  5
727
330
1E
100
AcDbEntity
  8
ZN-40BMB
  6
HIDDEN2
 62
     4
100
AcDbCircle
 10
9.378306525770778
 20
10.78549662730224
 30
0.0
 40
0.2569975142725415
100
AcDbArc
 50
89.66232056495668
 51
133.4094757884598
  0
LINE
  5
728
330
1E
100
AcDbEntity
  8
ZN-40BMB
  6
HIDDEN2
 62
     4
100
AcDbLine
 10
10.10523212150014
 20
11.06248967821772
 30
0.0
 11
10.10355643526702
 21
11.15848967821772
 31
0.0
  0
LINE
  5
729
330
1E
100
AcDbEntity
  8
ZN-40BMB
  6
HIDDEN2
 62
     4
100
AcDbLine
 10
9.913042905917368
 20
11.15848967821772
 30
0.0
 11
9.911367219684255
 21
11.06248967821772
 31
0.0
  0
LINE
  5
72A
330
1E
100
AcDbEntity
  8
ZN-40BMB
  6
HIDDEN2
 62
     4
100
AcDbLine
 10
9.963299670592196
 20
11.23048967821772
 30
0.0
 11
9.966581222798705
 21
11.04248967821772
 31
0.0
  0
LINE
  5
72B
330
1E
100
AcDbEntity
  8
ZN-40BMB
  6
HIDDEN2
 62
     4
100
AcDbLine
 10
10.05001811838569
 20
11.04248967821772
 30
0.0
 11
10.05329967059219
 21
11.23048967821772
 31
0.0
  0
LINE
  5
72C
330
1E
100
AcDbEntity
  8
ZN-40BMB
  6
HIDDEN2
 62
     4
100
AcDbLine
 10
14.28829967059219
 20
10.96248967821772
 30
0.0
 11
11.28829967059219
 21
10.96248967821772
 31
0.0
  0
LINE
  5
72D
330
1E
100
AcDbEntity
  8
ZN-40BMB
  6
HIDDEN2
 62
     4
100
AcDbLine
 10
12.69304290591737
 20
11.15848967821772
 30
0.0
 11
12.69136721968425
 21
11.06248967821772
 31
0.0
  0
LINE
  5
72E
330
1E
100
AcDbEntity
  8
ZN-40BMB
  6
HIDDEN2
 62
     4
100
AcDbLine
 10
12.74329967059219
 20
11.23048967821772
 30
0.0
 11
12.7465812227987
 21
11.04248967821772
 31
0.0
  0
LINE
  5
72F
330
1E
100
AcDbEntity
  8
ZN-40BMB
  6
HIDDEN2
 62
     4
100
AcDbLine
 10
12.88523212150014
 20
11.06248967821772
 30
0.0
 11
12.88355643526702
 21
11.15848967821772
 31
0.0
  0
LINE
  5
730
330
1E
100
AcDbEntity
  8
ZN-40BMB
  6
HIDDEN2
 62
     4
100
AcDbLine
 10
12.83001811838569
 20
11.04248967821772
 30
0.0
 11
12.8332996705922
 21
11.23048967821772
 31
0.0
  0
LINE
  5
731
330
1E
100
AcDbEntity
  8
ZN-40BMB
  6
HIDDEN2
 62
     4
100
AcDbLine
 10
15.66523212150013
 20
11.06248967821772
 30
0.0
 11
15.66355643526702
 21
11.15848967821772
 31
0.0
  0
LINE
  5
732
330
1E
100
AcDbEntity
  8
ZN-40BMB
  6
HIDDEN2
 62
     4
100
AcDbLine
 10
15.47304290591737
 20
11.15848967821772
 30
0.0
 11
15.47136721968425
 21
11.06248967821772
 31
0.0
  0
LINE
  5
733
330
1E
100
AcDbEntity
  8
ZN-40BMB
  6
HIDDEN2
 62
     4
100
AcDbLine
 10
15.52329967059219
 20
11.23048967821772
 30
0.0
 11
15.5265812227987
 21
11.04248967821772
 31
0.0
  0
LINE
  5
734
330
1E
100
AcDbEntity
  8
ZN-40BMB
  6
HIDDEN2
 62
     4
100
AcDbLine
 10
15.61001811838569
 20
11.04248967821772
 30
0.0
 11
15.61329967059219
 21
11.23048967821772
 31
0.0
  0
LINE
  5
735
330
1E
100
AcDbEntity
  8
ZN-40BMB
  6
HIDDEN2
 62
     4
100
AcDbLine
 10
17.09590751063392
 20
10.79248967821772
 30
0.0
 11
17.06229192563177
 21
11.17671757298014
 31
0.0
  0
LINE
  5
736
330
1E
100
AcDbEntity
  8
ZN-40BMB
  6
HIDDEN2
 62
     4
100
AcDbLine
 10
17.16550973877773
 20
10.79248967821772
 30
0.0
 11
16.952599190356
 21
10.79248967821772
 31
0.0
  0
LINE
  5
737
330
1E
100
AcDbEntity
  8
ZN-40BMB
  6
HIDDEN2
 62
     4
100
AcDbLine
 10
16.37447519343282
 20
10.97139780591173
 30
0.0
 11
16.47097023651304
 21
10.87843967779295
 31
0.0
  0
LINE
  5
738
330
1E
100
AcDbEntity
  8
ZN-40BMB
  6
HIDDEN2
 62
     4
100
AcDbLine
 10
16.49616763623623
 20
11.04248967821772
 30
0.0
 11
16.19677817901773
 21
11.04248967821772
 31
0.0
  0
ARC
  5
739
330
1E
100
AcDbEntity
  8
ZN-40BMB
  6
HIDDEN2
 62
     4
100
AcDbCircle
 10
16.4197026538886
 20
10.97248967821772
 30
0.0
 40
0.0899999999999981
100
AcDbArc
 50
56.44269023764867
 51
90.0000000000004
  0
LINE
  5
73A
330
1E
100
AcDbEntity
  8
ZN-40BMB
  6
HIDDEN2
 62
     4
100
AcDbLine
 10
16.49616763623623
 20
10.95248967821771
 30
0.0
 11
16.19677817901773
 21
10.95248967821772
 31
0.0
  0
LINE
  5
73B
330
1E
100
AcDbEntity
  8
ZN-40BMB
  6
HIDDEN2
 62
     4
100
AcDbLine
 10
15.97667651046982
 20
11.06248967821772
 30
0.0
 11
16.17416871414279
 21
11.06248967821772
 31
0.0
  0
ARC
  5
73C
330
1E
100
AcDbEntity
  8
ZN-40BMB
  6
HIDDEN2
 62
     4
100
AcDbCircle
 10
16.19688824050272
 20
10.78193744730318
 30
0.0
 40
0.2605522541604267
100
AcDbArc
 50
46.90400098199703
 51
90.02420266438555
  0
LINE
  5
73D
330
1E
100
AcDbEntity
  8
ZN-40BMB
  6
HIDDEN2
 62
     4
100
AcDbLine
 10
16.17416871414279
 20
11.06248967821772
 30
0.0
 11
16.4197026538886
 21
11.06248967821771
 31
0.0
  0
LINE
  5
73E
330
1E
100
AcDbEntity
  8
ZN-40BMB
  6
HIDDEN2
 62
     4
100
AcDbLine
 10
16.70430741555262
 20
11.17671757298014
 30
0.0
 11
16.67851424866662
 21
10.88190032641935
 31
0.0
  0
LINE
  5
73F
330
1E
100
AcDbEntity
  8
ZN-40BMB
  6
HIDDEN2
 62
     4
100
AcDbLine
 10
17.0385996705922
 20
10.73041420939851
 30
0.0
 11
17.0017996705922
 21
11.15104013414011
 31
0.0
  0
LINE
  5
740
330
1E
100
AcDbEntity
  8
ZN-40BMB
  6
HIDDEN2
 62
     4
100
AcDbLine
 10
16.79871597619562
 20
10.83935259322786
 30
0.0
 11
16.665873263721
 21
10.97219530570248
 31
0.0
  0
LINE
  5
741
330
1E
100
AcDbEntity
  8
ZN-40BMB
  6
HIDDEN2
 62
     4
100
AcDbLine
 10
16.7647996705922
 20
11.15104013414011
 30
0.0
 11
16.7279996705922
 21
10.73041420939851
 31
0.0
  0
ARC
  5
742
330
1E
100
AcDbEntity
  8
ZN-40BMB
  6
HIDDEN2
 62
     4
100
AcDbCircle
 10
16.49616763623623
 20
10.80248967821771
 30
0.0
 40
0.1500000000000022
100
AcDbArc
 50
44.99999999999991
 51
90.0000000000004
  0
LINE
  5
743
330
1E
100
AcDbEntity
  8
ZN-40BMB
  6
HIDDEN2
 62
     4
100
AcDbLine
 10
16.76256093074574
 20
11.47248967821772
 30
0.0
 11
16.74030741555262
 21
11.2181308356401
 31
0.0
  0
ARC
  5
744
330
1E
100
AcDbEntity
  8
ZN-40BMB
  6
HIDDEN2
 62
     4
100
AcDbCircle
 10
16.60780354740034
 20
11.25848967821773
 30
0.0
 40
0.1400000000000008
100
AcDbArc
 50
270.0
 51
359.0000000000002
  0
LINE
  5
745
330
1E
100
AcDbEntity
  8
ZN-40BMB
  6
HIDDEN2
 62
     4
100
AcDbLine
 10
17.06229192563177
 20
11.17671757298014
 30
0.0
 11
16.70430741555262
 21
11.17671757298014
 31
0.0
  0
LINE
  5
746
330
1E
100
AcDbEntity
  8
ZN-40BMB
  6
HIDDEN2
 62
     4
100
AcDbLine
 10
17.02629192563177
 20
11.2181308356401
 30
0.0
 11
16.74030741555262
 21
11.2181308356401
 31
0.0
  0
LINE
  5
747
330
1E
100
AcDbEntity
  8
ZN-40BMB
  6
HIDDEN2
 62
     4
100
AcDbLine
 10
16.74778222472224
 20
11.2560463413165
 30
0.0
 11
16.75208390916898
 21
11.50248967821773
 31
0.0
  0
LINE
  5
748
330
1E
100
AcDbEntity
  8
ZN-40BMB
  6
HIDDEN2
 62
     4
100
AcDbLine
 10
16.74030741555262
 20
11.2181308356401
 30
0.0
 11
16.70430741555262
 21
11.17671757298014
 31
0.0
  0
ARC
  5
749
330
1E
100
AcDbEntity
  8
ZN-40BMB
  6
HIDDEN2
 62
     4
100
AcDbCircle
 10
16.48603514969571
 20
11.07248967821771
 30
0.0
 40
0.0300000000002246
100
AcDbArc
 50
236.4426902387298
 51
270.0
  0
ARC
  5
74A
330
1E
100
AcDbEntity
  8
ZN-40BMB
  6
HIDDEN2
 62
     4
100
AcDbCircle
 10
16.49616763623623
 20
10.80248967821771
 30
0.0
 40
0.240000000000002
100
AcDbArc
 50
44.99999999999921
 51
90.0000000000004
  0
LINE
  5
74B
330
1E
100
AcDbEntity
  8
ZN-40BMB
  6
HIDDEN2
 62
     4
100
AcDbLine
 10
16.82529967059219
 20
11.47248967821772
 30
0.0
 11
16.8007996705922
 21
11.19245339680007
 31
0.0
  0
LINE
  5
74C
330
1E
100
AcDbEntity
  8
ZN-40BMB
  6
HIDDEN2
 62
     4
100
AcDbLine
 10
17.02629192563177
 20
11.2181308356401
 30
0.0
 11
17.00403841043865
 21
11.47248967821772
 31
0.0
  0
LINE
  5
74D
330
1E
100
AcDbEntity
  8
ZN-40BMB
  6
HIDDEN2
 62
     4
100
AcDbLine
 10
16.9657996705922
 20
11.19245339680007
 30
0.0
 11
16.94129967059219
 21
11.47248967821772
 31
0.0
  0
LINE
  5
74E
330
1E
100
AcDbEntity
  8
ZN-40BMB
  6
HIDDEN2
 62
     4
100
AcDbLine
 10
16.8007996705922
 20
11.19245339680007
 30
0.0
 11
16.7647996705922
 21
11.15104013414011
 31
0.0
  0
LINE
  5
74F
330
1E
100
AcDbEntity
  8
ZN-40BMB
  6
HIDDEN2
 62
     4
100
AcDbLine
 10
17.0017996705922
 20
11.15104013414011
 30
0.0
 11
16.7647996705922
 21
11.15104013414011
 31
0.0
  0
LINE
  5
750
330
1E
100
AcDbEntity
  8
ZN-40BMB
  6
HIDDEN2
 62
     4
100
AcDbLine
 10
17.06229192563177
 20
11.17671757298014
 30
0.0
 11
17.02629192563177
 21
11.2181308356401
 31
0.0
  0
LINE
  5
751
330
1E
100
AcDbEntity
  8
ZN-40BMB
  6
HIDDEN2
 62
     4
100
AcDbLine
 10
16.9657996705922
 20
11.19245339680007
 30
0.0
 11
16.8007996705922
 21
11.19245339680007
 31
0.0
  0
LINE
  5
752
330
1E
100
AcDbEntity
  8
ZN-40BMB
  6
HIDDEN2
 62
     4
100
AcDbLine
 10
17.0017996705922
 20
11.15104013414011
 30
0.0
 11
16.9657996705922
 21
11.19245339680007
 31
0.0
  0
LINE
  5
753
330
1E
100
AcDbEntity
  8
ZN-40BMB
  6
HIDDEN2
 62
     4
100
AcDbLine
 10
16.8382996705922
 20
10.79248967821772
 30
0.0
 11
16.62692968657797
 21
10.79248967821772
 31
0.0
  0
ARC
  5
754
330
1E
100
AcDbEntity
  8
ZN-40BMB
  6
HIDDEN2
 62
     4
100
AcDbCircle
 10
16.80707675921238
 20
10.92124132752813
 30
0.0
 40
0.1287821982814104
100
AcDbArc
 50
219.4845394245692
 51
271.2480057656676
  0
ARC
  5
755
330
1E
100
AcDbEntity
  8
ZN-40BMB
  6
HIDDEN2
 62
     4
100
AcDbCircle
 10
16.81021442210813
 20
11.22235258455796
 30
0.0
 40
0.430257344241067
100
AcDbArc
 50
257.6791071303881
 51
267.5464439287981
  0
ARC
  5
756
330
1E
100
AcDbEntity
  8
ZN-40BMB
  6
HIDDEN2
 62
     4
100
AcDbCircle
 10
16.86164681504647
 20
10.97485540418557
 30
0.0
 40
0.1823770222179367
100
AcDbArc
 50
227.9860437457497
 51
269.3622918592465
  0
ARC
  5
757
330
1E
100
AcDbEntity
  8
ZN-40BMB
  6
HIDDEN2
 62
     4
100
AcDbCircle
 10
12.5351373828987
 20
-25.37529168319432
 30
0.0
 40
36.41740717346292
100
AcDbArc
 50
83.28762436537934
 51
83.40230344040243
  0
ARC
  5
758
330
1E
100
AcDbEntity
  8
ZN-40BMB
  6
HIDDEN2
 62
     4
100
AcDbCircle
 10
16.8432996705922
 20
10.62748967821772
 30
0.0
 40
0.2150000000000002
100
AcDbArc
 50
90.0000000000004
 51
125.6349922099547
  0
ARC
  5
759
330
1E
100
AcDbEntity
  8
ZN-40BMB
  6
HIDDEN2
 62
     4
100
AcDbCircle
 10
16.91185306118547
 20
10.95248967821771
 30
0.0
 40
0.2500000000000018
100
AcDbArc
 50
225.0000000000003
 51
270.0
  0
ARC
  5
75A
330
1E
100
AcDbEntity
  8
ZN-40BMB
  6
HIDDEN2
 62
     4
100
AcDbCircle
 10
16.80631341919545
 20
10.83612287093037
 30
0.0
 40
0.134143238698704
100
AcDbArc
 50
235.2957077547417
 51
274.9979925855494
  0
LINE
  5
75B
330
1E
100
AcDbEntity
  8
ZN-40BMB
  6
HIDDEN2
 62
     4
100
AcDbLine
 10
17.0385996705922
 20
10.73041420939851
 30
0.0
 11
16.7279996705922
 21
10.73041420939851
 31
0.0
  0
ARC
  5
75C
330
1E
100
AcDbEntity
  8
ZN-40BMB
  6
HIDDEN2
 62
     4
100
AcDbCircle
 10
16.88118337075522
 20
11.16832989043697
 30
0.0
 40
0.4666613968702088
100
AcDbArc
 50
250.9469640858961
 51
266.6004548791123
  0
ARC
  5
75D
330
1E
100
AcDbEntity
  8
ZN-40BMB
  6
HIDDEN2
 62
     4
100
AcDbCircle
 10
16.8432996705922
 20
10.62748967821772
 30
0.0
 40
0.1249999999999991
100
AcDbArc
 50
90.0000000000004
 51
142.0568785239042
  0
LINE
  5
75E
330
1E
100
AcDbEntity
  8
ZN-40BMB
  6
HIDDEN2
 62
     4
100
AcDbLine
 10
16.72005248403117
 20
10.79852580395832
 30
0.0
 11
16.71879875742184
 21
10.80117064262037
 31
0.0
  0
LINE
  5
75F
330
1E
100
AcDbEntity
  8
ZN-40BMB
  6
HIDDEN2
 62
     4
100
AcDbLine
 10
16.73404900868822
 20
10.79417787689082
 30
0.0
 11
16.72005248403117
 21
10.79852580395832
 31
0.0
  0
LINE
  5
760
330
1E
100
AcDbEntity
  8
ZN-40BMB
  6
HIDDEN2
 62
     4
100
AcDbLine
 10
16.75339211932759
 20
10.79248967821772
 30
0.0
 11
16.73404900868822
 21
10.79417787689082
 31
0.0
  0
LINE
  5
761
330
1E
100
AcDbEntity
  8
ZN-40BMB
  6
HIDDEN2
 62
     4
100
AcDbLine
 10
16.68544810799864
 20
10.86860562667488
 30
0.0
 11
16.70768314880963
 21
10.83935259322787
 31
0.0
  0
LINE
  5
762
330
1E
100
AcDbEntity
  8
ZN-40BMB
  6
HIDDEN2
 62
     4
100
AcDbLine
 10
16.67860711897859
 20
10.88174636286244
 30
0.0
 11
16.68544810799864
 21
10.86860562667488
 31
0.0
  0
LINE
  5
763
330
1E
100
AcDbEntity
  8
ZN-40BMB
  6
HIDDEN2
 62
     4
100
AcDbLine
 10
16.68471969429864
 20
10.88247494965087
 30
0.0
 11
16.67860711897859
 21
10.88174636286244
 31
0.0
  0
LINE
  5
764
330
1E
100
AcDbEntity
  8
ZN-40BMB
  6
HIDDEN2
 62
     4
100
AcDbLine
 10
16.7040449406881
 20
10.8692025038703
 30
0.0
 11
16.68471969429864
 21
10.88247494965087
 31
0.0
  0
LINE
  5
765
330
1E
100
AcDbEntity
  8
ZN-40BMB
  6
HIDDEN2
 62
     4
100
AcDbLine
 10
16.73957975783762
 20
10.83935259322787
 30
0.0
 11
16.7040449406881
 21
10.8692025038703
 31
0.0
  0
LINE
  5
766
330
1E
100
AcDbEntity
  8
ZN-40BMB
  6
HIDDEN2
 62
     4
100
AcDbLine
 10
16.67856695037276
 20
10.88247494965086
 30
0.0
 11
16.67869800243043
 21
10.88246226679897
 31
0.0
  0
LINE
  5
767
330
1E
100
AcDbEntity
  8
ZN-40BMB
  6
HIDDEN2
 62
     4
100
AcDbLine
 10
16.68505087140821
 20
10.86920250387028
 30
0.0
 11
16.67856695037276
 21
10.88247494965086
 31
0.0
  0
LINE
  5
768
330
1E
100
AcDbEntity
  8
ZN-40BMB
  6
HIDDEN2
 62
     4
100
AcDbLine
 10
16.70768314880963
 20
10.83935259322786
 30
0.0
 11
16.68505087140821
 21
10.86920250387028
 31
0.0
  0
LINE
  5
769
330
1E
100
AcDbEntity
  8
ZN-40BMB
  6
HIDDEN2
 62
     4
100
AcDbLine
 10
16.47097023651304
 20
10.87843967779295
 30
0.0
 11
16.5122825198573
 21
10.83855663276691
 31
0.0
  0
LINE
  5
76A
330
1E
100
AcDbEntity
  8
ZN-40BMB
  6
HIDDEN2
 62
     4
100
AcDbLine
 10
16.73507636588883
 20
10.77571298292108
 30
0.0
 11
16.60223365341422
 21
10.9085556953957
 31
0.0
  0
LINE
  5
76B
330
1E
100
AcDbEntity
  8
ZN-40BMB
  6
HIDDEN2
 62
     4
100
AcDbLine
 10
16.51231065388114
 20
10.83858643464626
 30
0.0
 11
16.51271529891659
 21
10.83935259322788
 31
0.0
  0
ARC
  5
76C
330
1E
100
AcDbEntity
  8
ZN-40BMB
  6
HIDDEN2
 62
     4
100
AcDbCircle
 10
16.62693117792453
 20
10.95510653437454
 30
0.0
 40
0.1626168561636549
100
AcDbArc
 50
225.3831944347912
 51
270.0000000000008
  0
LINE
  5
76D
330
1E
100
AcDbEntity
  8
ZN-40BMB
  6
HIDDEN2
 62
     4
100
AcDbLine
 10
16.952599190356
 20
10.79248967821772
 30
0.0
 11
16.90029684484888
 21
10.79248967821772
 31
0.0
  0
LINE
  5
76E
330
1E
100
AcDbEntity
  8
ZN-40BMB
  6
HIDDEN2
 62
     4
100
AcDbLine
 10
16.90029684484888
 20
10.79248967821772
 30
0.0
 11
16.8382996705922
 21
10.79248967821772
 31
0.0
  0
ARC
  5
76F
330
1E
100
AcDbEntity
  8
ZN-40BMB
  6
HIDDEN2
 62
     4
100
AcDbCircle
 10
16.91185306118547
 20
10.95248967821771
 30
0.0
 40
0.1600000000000019
100
AcDbArc
 50
225.0000000000011
 51
270.0
  0
ARC
  5
770
330
1E
100
AcDbEntity
  8
ZN-40BMB
  6
HIDDEN2
 62
     4
100
AcDbCircle
 10
16.8432996705922
 20
10.62748967821772
 30
0.0
 40
0.2149999999999995
100
AcDbArc
 50
50.12472264291727
 51
90.0000000000004
  0
ARC
  5
771
330
1E
100
AcDbEntity
  8
ZN-40BMB
  6
HIDDEN2
 62
     4
100
AcDbCircle
 10
16.8432996705922
 20
10.62748967821772
 30
0.0
 40
0.1249999999999993
100
AcDbArc
 50
36.8698976458437
 51
90.0000000000004
  0
LINE
  5
772
330
1E
100
AcDbEntity
  8
ZN-40BMB
  6
HIDDEN2
 62
     4
100
AcDbLine
 10
17.0385996705922
 20
10.70248967821772
 30
0.0
 11
17.0385996705922
 21
10.73041420939851
 31
0.0
  0
LINE
  5
773
330
1E
100
AcDbEntity
  8
ZN-40BMB
  6
HIDDEN2
 62
     4
100
AcDbLine
 10
17.22547318839888
 20
10.85039570841557
 30
0.0
 11
17.2482448116053
 21
11.50248967821772
 31
0.0
  0
ARC
  5
774
330
1E
100
AcDbEntity
  8
ZN-40BMB
  6
HIDDEN2
 62
     4
100
AcDbCircle
 10
17.16550973877773
 20
10.85248967821771
 30
0.0
 40
0.0599999999999997
100
AcDbArc
 50
270.0
 51
358.0
  0
MTEXT
  5
833
330
1E
100
AcDbEntity
  8
0
 62
     4
100
AcDbMText
 10
12.73255454410556
 20
8.983558481514521
 30
0.0
 40
0.25
 41
0.0
 71
     1
 72
     1
  1
{\Fgdt.shx;q}
  7
SLDTEXTSTYLE4
 73
     1
 44
1.0
1001
ACAD
1000
MTEXTBEGIN
1070
    73
1070
     1
1070
    44
1040
1.0
1070
    74
1070
     0
1000
MTEXTEND
  0
DIMENSION
  5
837
330
1E
100
AcDbEntity
  8
0
100
AcDbDimension
  2
*D17
 10
15.92926091002465
 20
19.36617080164519
 30
0.0
 11
18.29360979952041
 21
20.60030444137365
 31
0.0
 70
   164
  1
<>\P(4 PLCS.)
 71
     5
 42
0.1879999999999988
  3
STANDARD$4
100
AcDbRadialDimension
 15
16.07355393007622
 25
19.48668438745359
 35
0.0
 40
0.0
  0
ARC
  5
838
330
1E
100
AcDbEntity
  8
ZN-40C
100
AcDbCircle
 10
8.97149967059207
 20
16.98667080164524
 30
0.0
 40
8.406745141013191
100
AcDbArc
 50
346.8009332809502
 51
0.0000000000008015
  0
ARC
  5
839
330
1E
100
AcDbEntity
  8
ZN-40C
100
AcDbCircle
 10
8.971499670592042
 20
17.99667080164523
 30
0.0
 40
8.406745141013225
100
AcDbArc
 50
0.0000000000008015
 51
13.19906671905001
  0
ARC
  5
83A
330
1E
100
AcDbEntity
  8
ZN-40C
100
AcDbCircle
 10
8.97149967059207
 20
16.98667080164524
 30
0.0
 40
8.362415134083002
100
AcDbArc
 50
346.8215051862941
 51
0.0000000000008015
  0
ARC
  5
83B
330
1E
100
AcDbEntity
  8
ZN-40C
100
AcDbCircle
 10
8.971499670592042
 20
17.99667080164523
 30
0.0
 40
8.362415134083008
100
AcDbArc
 50
0.0000000000008015
 51
13.17849481370606
  0
LINE
  5
83C
330
1E
100
AcDbEntity
  8
ZN-40C
  6
HIDDEN2
 62
     4
100
AcDbLine
 10
17.32753894928834
 20
11.57248967821772
 30
0.0
 11
17.10679430368275
 21
11.57248967821772
 31
0.0
  0
ARC
  5
83D
330
1E
100
AcDbEntity
  8
ZN-40C
100
AcDbCircle
 10
17.12159039622381
 20
12.66548967821772
 30
0.0
 40
0.1999999999999995
100
AcDbArc
 50
2.000000000000112
 51
90.0
  0
LINE
  5
83E
330
1E
100
AcDbEntity
  8
ZN-40C
100
AcDbLine
 10
17.37824481160526
 20
11.50248967821772
 30
0.0
 11
16.71329967059215
 21
11.50248967821771
 31
0.0
  0
LINE
  5
83F
330
1E
100
AcDbEntity
  8
ZN-40C
100
AcDbLine
 10
17.33391480467507
 20
11.628055809231
 30
0.0
 11
16.80660722409373
 21
11.62805581266701
 31
0.0
  0
DIMENSION
  5
84B
330
1E
100
AcDbEntity
  8
0
100
AcDbDimension
  2
*D18
 10
8.863299670592152
 20
11.78624248751112
 30
0.0
 11
12.81786240208635
 21
11.78624248751112
 31
0.0
 70
   160
  1
<>
 71
     5
 42
7.850000000000001
  3
STANDARD
100
AcDbAlignedDimension
 13
16.71329967059215
 23
11.50248967821771
 33
0.0
 14
8.863299670592152
 24
11.50248967821771
 34
0.0
100
AcDbRotatedDimension
1001
ACAD
1000
DSTYLE
1002
{
1070
   141
1040
0.0
1002
}
  0
DIMENSION
  5
931
330
1E
100
AcDbEntity
  8
0
100
AcDbDimension
  2
*D10
 10
16.31938589030565
 20
20.6538388569009
 30
0.0
 11
12.74950425955505
 21
20.65383885690087
 31
0.0
 70
   160
 71
     5
 42
7.06217243942703
  3
STANDARD
100
AcDbAlignedDimension
 13
9.257213450878648
 23
17.49167080164522
 33
0.0
 14
16.31938589030568
 24
17.4916708016452
 34
0.0
 50
180.0000000000004
100
AcDbRotatedDimension
1001
ACAD
1000
DSTYLE
1002
{
1070
   141
1040
0.0
1002
}
  0
LINE
  5
932
330
1E
100
AcDbEntity
  8
ZN-40C
100
AcDbLine
 10
16.60665151311503
 20
14.8667256606321
 30
0.0
 11
8.969947828069269
 21
14.86672566063212
 31
0.0
  0
LINE
  5
933
330
1E
100
AcDbEntity
  8
ZN-40C
100
AcDbLine
 10
8.969947828069283
 20
20.11661594265834
 30
0.0
 11
16.60665151311505
 21
20.11661594265831
 31
0.0
  0
LINE
  5
934
330
1E
100
AcDbEntity
  8
ZN-40C
100
AcDbLine
 10
9.277402805823168
 20
14.92717070586218
 30
0.0
 11
16.29919653536113
 21
14.92717070586215
 31
0.0
  0
LINE
  5
935
330
1E
100
AcDbEntity
  8
ZN-40C
100
AcDbLine
 10
16.29919653536116
 20
20.05617089742825
 30
0.0
 11
9.277402805823182
 21
20.05617089742828
 31
0.0
  0
LINE
  5
936
330
1E
100
AcDbEntity
  8
ZN-40C
100
AcDbLine
 10
15.92926091002466
 20
19.5231708016452
 30
0.0
 11
9.647338431159678
 21
19.52317080164522
 31
0.0
  0
LINE
  5
937
330
1E
100
AcDbEntity
  8
ZN-40C
100
AcDbLine
 10
9.647338431159656
 20
15.46017080164522
 30
0.0
 11
15.92926091002464
 21
15.4601708016452
 31
0.0
  0
LINE
  5
938
330
1E
100
AcDbEntity
  8
ZN-40C
100
AcDbLine
 10
9.647338431159656
 20
15.42917080164522
 30
0.0
 11
15.92926091002464
 21
15.4291708016452
 31
0.0
  0
LINE
  5
939
330
1E
100
AcDbEntity
  8
ZN-40C
100
AcDbLine
 10
15.92926091002466
 20
19.5541708016452
 30
0.0
 11
9.647338431159671
 21
19.55417080164522
 31
0.0
  0
LINE
  5
93A
330
1E
100
AcDbEntity
  8
ZN-40C
  6
HIDDEN2
 62
     4
100
AcDbLine
 10
9.647338431159656
 20
13.05548967821771
 30
0.0
 11
15.92926091002464
 21
13.05548967821771
 31
0.0
  0
LINE
  5
93B
330
1E
100
AcDbEntity
  8
ZN-40C
  6
HIDDEN2
 62
     4
100
AcDbLine
 10
15.92926091002464
 20
12.94548967821772
 30
0.0
 11
9.647338431159656
 21
12.94548967821772
 31
0.0
  0
LINE
  5
93C
330
1E
100
AcDbEntity
  8
ZN-40C
  6
HIDDEN2
 62
     4
100
AcDbLine
 10
9.380447576477298
 20
12.97548967821771
 30
0.0
 11
16.196151764707
 21
12.97548967821771
 31
0.0
  0
LINE
  5
93D
330
1E
100
AcDbEntity
  8
ZN-40C
  6
HIDDEN2
 62
     4
100
AcDbLine
 10
16.60665151311503
 20
12.71048967821771
 30
0.0
 11
8.969947828069269
 21
12.71048967821771
 31
0.0
  0
LINE
  5
93E
330
1E
100
AcDbEntity
  8
ZN-40C
100
AcDbLine
 10
9.380447576477298
 20
13.06548967821771
 30
0.0
 11
16.196151764707
 21
13.06548967821771
 31
0.0
  0
LINE
  5
93F
330
1E
100
AcDbEntity
  8
ZN-40C
100
AcDbLine
 10
9.277402762106166
 20
12.77753012667636
 30
0.0
 11
16.29919657907813
 21
12.77753012667636
 31
0.0
  0
LINE
  5
940
330
1E
100
AcDbEntity
  8
ZN-40C
100
AcDbLine
 10
16.60665151311503
 20
12.67048967821771
 30
0.0
 11
8.969947828069269
 21
12.67048967821771
 31
0.0
  0
DIMENSION
  5
941
330
1E
100
AcDbEntity
  8
0
100
AcDbDimension
  2
*D11
 10
7.698024209252338
 20
19.55417080164523
 30
0.0
 11
7.698024209252334
 21
17.52099684354047
 31
0.0
 70
   160
 71
     5
 42
4.125000000000005
  3
STANDARD
100
AcDbAlignedDimension
 13
9.647338431159656
 23
15.42917080164522
 33
0.0
 14
9.647338431159671
 24
19.55417080164522
 34
0.0
 50
90.0
100
AcDbRotatedDimension
1001
ACAD
1000
DSTYLE
1002
{
1070
   141
1040
0.0
1002
}
  0
ARC
  5
942
330
1E
100
AcDbEntity
  8
ZN-40C
100
AcDbCircle
 10
18.23829967059216
 20
17.4916708016452
 30
0.0
 40
9.537842712474617
100
AcDbArc
 50
165.6227870595836
 51
194.3772129404167
  0
ARC
  5
943
330
1E
100
AcDbEntity
  8
ZN-40C
100
AcDbCircle
 10
18.23829967059216
 20
17.4916708016452
 30
0.0
 40
9.317093362388451
100
AcDbArc
 50
165.0866684707638
 51
194.9133315292365
  0
ARC
  5
944
330
1E
100
AcDbEntity
  8
ZN-40C
100
AcDbCircle
 10
16.60509967059221
 20
17.9966708016452
 30
0.0
 40
8.406745141013148
100
AcDbArc
 50
166.8009332809494
 51
180.0000000000004
  0
ARC
  5
945
330
1E
100
AcDbEntity
  8
ZN-40C
100
AcDbCircle
 10
16.60509967059221
 20
17.9966708016452
 30
0.0
 40
8.362415134082963
100
AcDbArc
 50
166.8215051862933
 51
180.0000000000004
  0
ARC
  5
946
330
1E
100
AcDbEntity
  8
ZN-40C
100
AcDbCircle
 10
18.23829967087864
 20
17.4916708016452
 30
0.0
 40
8.950086219999999
100
AcDbArc
 50
167.6912937208427
 51
192.3087062791576
  0
ARC
  5
947
330
1E
100
AcDbEntity
  8
ZN-40C
100
AcDbCircle
 10
18.23829967087864
 20
17.4916708016452
 30
0.0
 40
8.981086219999999
100
AcDbArc
 50
167.6912937208427
 51
192.3087062791576
  0
ARC
  5
948
330
1E
100
AcDbEntity
  8
ZN-40C
100
AcDbCircle
 10
16.60509967059217
 20
16.98667080164521
 30
0.0
 40
8.406745141013118
100
AcDbArc
 50
180.0000000000004
 51
193.199066719051
  0
ARC
  5
949
330
1E
100
AcDbEntity
  8
ZN-40C
100
AcDbCircle
 10
16.60509967059217
 20
16.98667080164521
 30
0.0
 40
8.362415134082908
100
AcDbArc
 50
180.0000000000004
 51
193.1784948137071
  0
ARC
  5
94A
330
1E
100
AcDbEntity
  8
ZN-40C
100
AcDbCircle
 10
8.738299670592152
 20
15.55667080164523
 30
0.0
 40
0.6899451410131015
100
AcDbArc
 50
260.4489303024743
 51
270.0
  0
ARC
  5
94B
330
1E
100
AcDbEntity
  8
ZN-40C
100
AcDbCircle
 10
8.738299670592152
 20
15.55667080164523
 30
0.0
 40
0.6456151340829218
100
AcDbArc
 50
260.8336644913113
 51
270.0000000000004
  0
DIMENSION
  5
94C
330
1E
100
AcDbEntity
  8
0
100
AcDbDimension
  2
*D12
 10
7.625627942574423
 20
11.50248967821772
 30
0.0
 11
7.625627942574421
 21
12.27417319076337
 31
0.0
 70
   160
 71
     5
 42
1.563000000000004
  3
STANDARD
100
AcDbAlignedDimension
 13
9.071112945815261
 23
13.06548967821772
 33
0.0
 14
8.198354529579059
 24
11.50248967821772
 34
0.0
 50
270.0
100
AcDbRotatedDimension
1001
ACAD
1000
DSTYLE
1002
{
1070
   141
1040
0.0
1002
}
  0
ARC
  5
94D
330
1E
100
AcDbEntity
  8
ZN-40C
  6
HIDDEN2
 62
     4
100
AcDbCircle
 10
8.700456958117545
 20
13.06548967821772
 30
0.0
 40
0.2900000000000009
100
AcDbArc
 50
270.0000000000008
 51
315.0000000000009
  0
ARC
  5
94E
330
1E
100
AcDbEntity
  8
ZN-40C
  6
HIDDEN2
 62
     4
100
AcDbCircle
 10
8.700456958117545
 20
13.06548967821772
 30
0.0
 40
0.2000000000000011
100
AcDbArc
 50
270.0000000000008
 51
300.9695102071485
  0
LINE
  5
94F
330
1E
100
AcDbEntity
  8
ZN-40C
  6
HIDDEN2
 62
     4
100
AcDbLine
 10
8.677728555776429
 20
12.77548967821771
 30
0.0
 11
8.738299670592152
 21
12.77548967821771
 31
0.0
  0
LINE
  5
950
330
1E
100
AcDbEntity
  8
ZN-40C
100
AcDbLine
 10
8.787299670592158
 20
11.47448967821771
 30
0.0
 11
8.693299670592157
 21
11.47448967821771
 31
0.0
  0
ARC
  5
951
330
1E
100
AcDbEntity
  8
ZN-40C
100
AcDbCircle
 10
8.733299670592156
 20
12.79048967821772
 30
0.0
 40
0.125
100
AcDbArc
 50
90.0
 51
143.1301023541561
  0
DIMENSION
  5
952
330
1E
100
AcDbEntity
  8
0
100
AcDbDimension
  2
*D13
 10
18.0047280004268
 20
12.86548967821772
 30
0.0
 11
18.00472800042679
 21
12.18398967821772
 31
0.0
 70
   160
 71
     5
 42
1.363000000000003
  3
STANDARD
100
AcDbAlignedDimension
 13
17.37824481160526
 23
11.50248967821771
 33
0.0
 14
17.12159039622381
 24
12.86548967821772
 34
0.0
 50
89.9999999999992
100
AcDbRotatedDimension
1001
ACAD
1000
DSTYLE
1002
{
1070
   141
1040
0.0
1002
}
  0
LINE
  5
953
330
1E
100
AcDbEntity
  8
ZN-40C
  6
HIDDEN2
 62
     4
100
AcDbLine
 10
8.658999585952432
 20
12.77548968691436
 30
0.0
 11
8.648299789557395
 21
11.47448967813444
 31
0.0
  0
LINE
  5
954
330
1E
100
AcDbEntity
  8
ZN-40C
  6
HIDDEN2
 62
     4
100
AcDbLine
 10
8.367605912157021
 20
11.57248967957173
 30
0.0
 11
8.381040716957006
 21
12.66932862996262
 31
0.0
  0
LINE
  5
955
330
1E
100
AcDbEntity
  8
ZN-40C
  6
HIDDEN2
 62
     4
100
AcDbLine
 10
8.371980928283125
 20
11.57248967957173
 30
0.0
 11
8.386795557143269
 21
12.66932862996262
 31
0.0
  0
LINE
  5
956
330
1E
100
AcDbEntity
  8
ZN-40C
  6
HIDDEN2
 62
     4
100
AcDbLine
 10
8.345075953988402
 20
12.669328622855
 30
0.0
 11
8.328354552258748
 21
11.50248967821772
 31
0.0
  0
LINE
  5
957
330
1E
100
AcDbEntity
  8
ZN-40C
100
AcDbLine
 10
8.25513077955669
 20
12.67246957755822
 30
0.0
 11
8.242684536509511
 21
11.62805580923851
 31
0.0
  0
ARC
  5
958
330
1E
100
AcDbEntity
  8
ZN-40C
  6
HIDDEN2
 62
     4
100
AcDbCircle
 10
8.277648667262166
 20
11.56748967821772
 30
0.0
 40
0.0050000000000008
100
AcDbArc
 50
5.00000000013874
 51
89.99999999999227
  0
LINE
  5
959
330
1E
100
AcDbEntity
  8
ZN-40C
100
AcDbLine
 10
8.863299785859123
 20
11.50248967821766
 30
0.0
 11
8.198354529579059
 21
11.50248967821772
 31
0.0
  0
LINE
  5
95A
330
1E
100
AcDbEntity
  8
ZN-40C
100
AcDbLine
 10
8.769992117090577
 20
11.62805581266624
 30
0.0
 11
8.242684536509511
 21
11.62805580923851
 31
0.0
  0
ARC
  5
95B
330
1E
100
AcDbEntity
  8
ZN-40C
  6
HIDDEN2
 62
     4
100
AcDbCircle
 10
8.249060391895969
 20
11.56748967821772
 30
0.0
 40
0.0050000000000008
100
AcDbArc
 50
89.99999999994383
 51
174.9999999997152
  0
LINE
  5
95C
330
1E
100
AcDbEntity
  8
ZN-40C
  6
HIDDEN2
 62
     4
100
AcDbLine
 10
8.244079418405515
 20
11.56792545693146
 30
0.0
 11
8.238354471947356
 21
11.50248967821772
 31
0.0
  0
ARC
  5
95D
330
1E
100
AcDbEntity
  8
ZN-40C
100
AcDbCircle
 10
8.398354529579062
 20
11.50248967821772
 30
0.0
 40
0.2000000000045144
100
AcDbArc
 50
141.1097470659128
 51
180.0000000000004
  0
LINE
  5
95E
330
1E
100
AcDbEntity
  8
ZN-40C
  6
HIDDEN2
 62
     4
100
AcDbLine
 10
8.288354614341447
 20
11.50248967821772
 30
0.0
 11
8.28262964075262
 21
11.56792545693146
 31
0.0
  0
LINE
  5
95F
330
1E
100
AcDbEntity
  8
ZN-40C
  6
HIDDEN2
 62
     4
100
AcDbLine
 10
8.59673355858823
 20
11.57248967957173
 30
0.0
 11
8.598566577413041
 21
11.50248967821773
 31
0.0
  0
LINE
  5
960
330
1E
100
AcDbEntity
  8
ZN-40C
100
AcDbLine
 10
8.693299670592157
 20
11.47448967821771
 30
0.0
 11
8.599299670592156
 21
11.47448967821771
 31
0.0
  0
LINE
  5
961
330
1E
100
AcDbEntity
  8
ZN-40C
100
AcDbLine
 10
8.598566577413041
 20
11.50248967821773
 30
0.0
 11
8.599299670592156
 21
11.47448967821771
 31
0.0
  0
ARC
  5
962
330
1E
100
AcDbEntity
  8
ZN-40C
100
AcDbCircle
 10
8.455008944960507
 20
12.66548967821772
 30
0.0
 40
0.1999999999999993
100
AcDbArc
 50
90.0
 51
177.9999999999998
  0
ARC
  5
963
330
1E
100
AcDbEntity
  8
ZN-40C
  6
HIDDEN2
 62
     4
100
AcDbCircle
 10
8.455008944960507
 20
12.66548967821772
 30
0.0
 40
0.1100000000000012
100
AcDbArc
 50
90.0
 51
177.9999999999818
  0
ARC
  5
964
330
1E
100
AcDbEntity
  8
ZN-40C
  6
HIDDEN2
 62
     4
100
AcDbCircle
 10
8.496297975196295
 20
12.66593735964751
 30
0.0
 40
0.1095549189850021
100
AcDbArc
 50
90.39410906880849
 51
178.2261269291617
  0
LINE
  5
965
330
1E
100
AcDbEntity
  8
ZN-40C
  6
HIDDEN2
 62
     4
100
AcDbLine
 10
8.489495188360404
 20
12.77548967821771
 30
0.0
 11
8.495544382062856
 21
12.77548967821771
 31
0.0
  0
LINE
  5
966
330
1E
100
AcDbEntity
  8
ZN-40C
  6
HIDDEN2
 62
     4
100
AcDbLine
 10
8.455008944960507
 20
12.77548967821772
 30
0.0
 11
8.489495188360404
 21
12.77548967821771
 31
0.0
  0
LINE
  5
967
330
1E
100
AcDbEntity
  8
0
  6
HIDDEN
 62
     7
370
     0
100
AcDbLine
 10
8.667725370665127
 20
12.77548967821771
 30
0.0
 11
8.677728555776429
 21
12.77548967821771
 31
0.0
  0
LINE
  5
968
330
1E
100
AcDbEntity
  8
ZN-40C
  6
HIDDEN2
 62
     4
100
AcDbLine
 10
8.495544382062856
 20
12.77548967821771
 30
0.0
 11
8.667725370665127
 21
12.77548967821771
 31
0.0
  0
ARC
  5
969
330
1E
100
AcDbEntity
  8
ZN-40C
100
AcDbCircle
 10
8.665592270995222
 20
15.1246041981255
 30
0.0
 40
0.2518037076263362
100
AcDbArc
 50
193.1972071591564
 51
260.4507898623621
  0
ARC
  5
96A
330
1E
100
AcDbEntity
  8
ZN-40C
100
AcDbCircle
 10
8.669385458902862
 20
15.12865969745759
 30
0.0
 40
0.212093301439344
100
AcDbArc
 50
194.0295390315932
 51
259.6223901837855
  0
LINE
  5
96B
330
1E
100
AcDbEntity
  8
ZN-40C
100
AcDbLine
 10
8.631180081035264
 20
14.92003583109174
 30
0.0
 11
8.635452429475702
 21
14.91930015096256
 31
0.0
  0
LINE
  5
96C
330
1E
100
AcDbEntity
  8
ZN-40C
100
AcDbLine
 10
8.46291256348336
 20
15.0801619536275
 30
0.0
 11
8.463618715342594
 21
15.07724359336523
 31
0.0
  0
ARC
  5
96D
330
1E
100
AcDbEntity
  8
ZN-40C
100
AcDbCircle
 10
9.071112945815254
 20
12.85348967821772
 30
0.0
 40
0.212
100
AcDbArc
 50
90.0
 51
135.0000000000004
  0
LINE
  5
96E
330
1E
100
AcDbEntity
  8
ZN-40C
  6
HIDDEN2
 62
     4
100
AcDbLine
 10
9.463659950969894
 20
13.05548967821771
 30
0.0
 11
9.647338431159656
 21
13.05548967821771
 31
0.0
  0
LINE
  5
96F
330
1E
100
AcDbEntity
  8
ZN-40C
  6
HIDDEN2
 62
     4
100
AcDbLine
 10
9.647338431159656
 20
12.94548967821772
 30
0.0
 11
9.461472937469469
 21
12.94548967821772
 31
0.0
  0
LINE
  5
970
330
1E
100
AcDbEntity
  8
ZN-40C
  6
HIDDEN2
 62
     4
100
AcDbLine
 10
8.738299576538846
 20
11.47448967813444
 30
0.0
 11
8.727599780143801
 21
12.77548968691436
 31
0.0
  0
LINE
  5
971
330
1E
100
AcDbEntity
  8
ZN-40C
  6
HIDDEN2
 62
     4
100
AcDbLine
 10
8.788032788683199
 20
11.50248967821773
 30
0.0
 11
8.80336719820546
 21
12.7760855500309
 31
0.0
  0
LINE
  5
972
330
1E
100
AcDbEntity
  8
ZN-40C
  6
HIDDEN2
 62
     4
100
AcDbLine
 10
8.82996915074737
 20
12.57293301511893
 30
0.0
 11
8.823572351460466
 21
11.51845552742469
 31
0.0
  0
ARC
  5
973
330
1E
100
AcDbEntity
  8
ZN-40C
100
AcDbCircle
 10
702.5842023598338
 20
13.88499397453103
 30
0.0
 40
693.8178810787653
100
AcDbArc
 50
180.1082606653048
 51
180.1863792543826
  0
LINE
  5
974
330
1E
100
AcDbEntity
  8
ZN-40C
100
AcDbLine
 10
8.869963058553626
 20
12.57223491886144
 30
0.0
 11
8.863299785859087
 21
11.50248967821771
 31
0.0
  0
LINE
  5
975
330
1E
100
AcDbEntity
  8
ZN-40C
  6
HIDDEN2
 62
     4
100
AcDbLine
 10
8.824515407232869
 20
11.57248967957172
 30
0.0
 11
8.249060391895977
 21
11.57248967821772
 31
0.0
  0
LINE
  5
976
330
1E
100
AcDbEntity
  8
ZN-40C
  6
HIDDEN2
 62
     4
100
AcDbLine
 10
8.823572351460466
 20
11.51845552742469
 30
0.0
 11
8.863299785859087
 21
11.50248967821771
 31
0.0
  0
ARC
  5
977
330
1E
100
AcDbEntity
  8
ZN-40C
100
AcDbCircle
 10
12.05251192382131
 20
13.9698312010418
 30
0.0
 40
4.032226215278286
100
AcDbArc
 50
215.5043584726791
 51
217.7274131502831
  0
LINE
  5
978
330
1E
100
AcDbEntity
  8
ZN-40C
100
AcDbLine
 10
8.787299670592158
 20
11.47448967821771
 30
0.0
 11
8.788032788683199
 21
11.50248967821773
 31
0.0
  0
LINE
  5
979
330
1E
100
AcDbEntity
  8
ZN-40C
  6
HIDDEN2
 62
     4
100
AcDbLine
 10
9.071112945815261
 20
12.97548967821772
 30
0.0
 11
9.380447576477298
 21
12.97548967821771
 31
0.0
  0
ARC
  5
97A
330
1E
100
AcDbEntity
  8
ZN-40C
100
AcDbCircle
 10
9.590544943287806
 20
20.64419545718199
 30
0.0
 40
7.872895366243243
100
AcDbArc
 50
265.6921026683698
 51
267.7204752985701
  0
ARC
  5
97B
330
1E
100
AcDbEntity
  8
ZN-40C
  6
HIDDEN2
 62
     4
100
AcDbCircle
 10
8.969947828069262
 20
12.57048967821771
 30
0.0
 40
0.1399999999999995
100
AcDbArc
 50
90.0
 51
179.0000000000001
  0
ARC
  5
97C
330
1E
100
AcDbEntity
  8
ZN-40C
100
AcDbCircle
 10
8.973842508482132
 20
12.59713130428212
 30
0.0
 40
0.1964499848999314
100
AcDbArc
 50
91.13598668654299
 51
157.4494457836198
  0
ARC
  5
97D
330
1E
100
AcDbEntity
  8
ZN-40C
100
AcDbCircle
 10
8.969947828069262
 20
12.57048967821771
 30
0.0
 40
0.0999999999999997
100
AcDbArc
 50
90.0
 51
178.9999999999877
  0
LINE
  5
97E
330
1E
100
AcDbEntity
  8
ZN-40C
  6
HIDDEN2
 62
     4
100
AcDbLine
 10
8.984845918510497
 20
12.93975670552248
 30
0.0
 11
8.905517924661641
 21
12.86042871167363
 31
0.0
  0
LINE
  5
97F
330
1E
100
AcDbEntity
  8
ZN-40C
  6
HIDDEN2
 62
     4
100
AcDbLine
 10
8.738299670592152
 20
12.77548967821771
 30
0.0
 11
8.999163176353608
 21
12.77548968691436
 31
0.0
  0
LINE
  5
980
330
1E
100
AcDbEntity
  8
ZN-40C
100
AcDbLine
 10
8.455008944960507
 20
12.86548967821772
 30
0.0
 11
8.999163176353608
 21
12.86548969389326
 31
0.0
  0
ARC
  5
981
330
1E
100
AcDbEntity
  8
ZN-40C
100
AcDbCircle
 10
8.733299670592156
 20
12.79048967821772
 30
0.0
 40
0.125
100
AcDbArc
 50
36.86989764584476
 51
90.0
  0
LINE
  5
982
330
1E
100
AcDbEntity
  8
ZN-40C
100
AcDbLine
 10
8.921206308203711
 20
13.00339631582927
 30
0.0
 11
8.841878314354854
 21
12.92406832198041
 31
0.0
  0
ARC
  5
983
330
1E
100
AcDbEntity
  8
ZN-40C
100
AcDbCircle
 10
8.700456958117545
 20
13.06548967821772
 30
0.0
 40
0.2000000000000008
100
AcDbArc
 50
300.9695102071485
 51
315.0000000000011
  0
ARC
  5
984
330
1E
100
AcDbEntity
  8
ZN-40C
  6
HIDDEN2
 62
     4
100
AcDbCircle
 10
9.071112945815254
 20
12.85348967821772
 30
0.0
 40
0.122
100
AcDbArc
 50
89.99999999999959
 51
134.9999999999999
  0
LINE
  5
985
330
1E
100
AcDbEntity
  8
ZN-40C
100
AcDbLine
 10
8.969947807185381
 20
12.79354267836466
 30
0.0
 11
8.999163176353608
 21
12.79354267836466
 31
0.0
  0
LINE
  5
986
330
1E
100
AcDbEntity
  8
ZN-40C
  6
HIDDEN2
 62
     4
100
AcDbLine
 10
9.257213450878648
 20
13.05548967821772
 30
0.0
 11
9.463659950969894
 21
13.05548967821771
 31
0.0
  0
LINE
  5
987
330
1E
100
AcDbEntity
  8
ZN-40C
  6
HIDDEN2
 62
     4
100
AcDbLine
 10
9.461472937469469
 20
12.94548967821772
 30
0.0
 11
9.254974982127958
 21
12.94548967821772
 31
0.0
  0
ARC
  5
988
330
1E
100
AcDbEntity
  8
ZN-40C
  6
HIDDEN2
 62
     4
100
AcDbCircle
 10
9.254974982127958
 20
13.03548967821772
 30
0.0
 40
0.0899999999999999
100
AcDbArc
 50
228.5903778907147
 51
270.0000000000008
  0
ARC
  5
989
330
1E
100
AcDbEntity
  8
ZN-40C
  6
HIDDEN2
 62
     4
100
AcDbCircle
 10
9.175602442796016
 20
12.94548967821772
 30
0.0
 40
0.0300000000000956
100
AcDbArc
 50
48.59037789093479
 51
90.0
  0
LINE
  5
98A
330
1E
100
AcDbEntity
  8
ZN-40C
100
AcDbLine
 10
9.071112945815261
 20
13.06548967821772
 30
0.0
 11
9.380447576477298
 21
13.06548967821771
 31
0.0
  0
LINE
  5
98B
330
1E
100
AcDbEntity
  8
ZN-40C
100
AcDbLine
 10
8.999163204082297
 20
14.96974924211479
 30
0.0
 11
8.999163204082297
 21
15.12338007601357
 31
0.0
  0
LINE
  5
98C
330
1E
100
AcDbEntity
  8
ZN-40C
100
AcDbLine
 10
8.969947828069269
 20
14.86672566063212
 30
0.0
 11
8.869963058553626
 21
14.86672566063213
 31
0.0
  0
ARC
  5
98D
330
1E
100
AcDbEntity
  8
ZN-40C
100
AcDbCircle
 10
9.064646084788751
 20
14.24233438143471
 30
0.0
 40
0.7335530923961206
100
AcDbArc
 50
97.41731631819151
 51
111.7844561439267
  0
LINE
  5
98E
330
1E
100
AcDbEntity
  8
ZN-40C
100
AcDbLine
 10
8.863299670592152
 20
14.86672566063213
 30
0.0
 11
8.738299670592144
 21
14.86672566063213
 31
0.0
  0
ARC
  5
98F
330
1E
100
AcDbEntity
  8
ZN-40C
100
AcDbCircle
 10
8.863302004161109
 20
14.98709440514637
 30
0.0
 40
0.1203687445368675
100
AcDbArc
 50
219.1767633920424
 51
269.9988892161926
  0
LINE
  5
990
330
1E
100
AcDbEntity
  8
ZN-40C
100
AcDbLine
 10
8.869963058553626
 20
14.86672566063213
 30
0.0
 11
8.863299670592152
 21
14.86672566063213
 31
0.0
  0
LINE
  5
991
330
1E
100
AcDbEntity
  8
ZN-40C
100
AcDbLine
 10
8.769992063383046
 20
14.91105566756232
 30
0.0
 11
8.738299670592152
 21
14.91105566756232
 31
0.0
  0
ARC
  5
992
330
1E
100
AcDbEntity
  8
ZN-40C
100
AcDbCircle
 10
8.835764570963515
 20
14.93364649936667
 30
0.0
 40
0.0695440035879136
100
AcDbArc
 50
191.2626667659827
 51
198.95601907928
  0
ARC
  5
993
330
1E
100
AcDbEntity
  8
ZN-40C
100
AcDbCircle
 10
8.791289072618649
 20
14.84007298957953
 30
0.0
 40
0.0834364891987677
100
AcDbArc
 50
89.22828258989873
 51
106.5229140528509
  0
LINE
  5
994
330
1E
100
AcDbEntity
  8
ZN-40C
100
AcDbLine
 10
8.969947828069269
 20
14.96974924211479
 30
0.0
 11
8.999163204082297
 21
14.96974924211479
 31
0.0
  0
CIRCLE
  5
995
330
1E
100
AcDbEntity
  8
ZN-40C
100
AcDbCircle
 10
8.733299670592156
 20
15.79167080164523
 30
0.0
 40
0.0999999999999997
  0
LINE
  5
996
330
1E
100
AcDbEntity
  8
ZN-40C
100
AcDbLine
 10
8.198354529579059
 20
16.98667080164524
 30
0.0
 11
8.198354529579066
 21
17.99667080164524
 31
0.0
  0
LINE
  5
997
330
1E
100
AcDbEntity
  8
ZN-40C
100
AcDbLine
 10
8.242684536509511
 20
16.98667080164524
 30
0.0
 11
8.242684536509248
 21
17.99667080164523
 31
0.0
  0
ARC
  5
998
330
1E
100
AcDbEntity
  8
ZN-40C
100
AcDbCircle
 10
9.647338431159663
 20
15.61717080164522
 30
0.0
 40
0.1570000000000018
100
AcDbArc
 50
192.3087062791606
 51
270.0000000000008
  0
ARC
  5
999
330
1E
100
AcDbEntity
  8
ZN-40C
100
AcDbCircle
 10
9.647338431159663
 20
15.61717080164522
 30
0.0
 40
0.1880000000000024
100
AcDbArc
 50
192.308706279161
 51
270.0000000000008
  0
ARC
  5
99A
330
1E
100
AcDbEntity
  8
ZN-40C
100
AcDbCircle
 10
8.738299670592159
 20
19.42667080164526
 30
0.0
 40
0.6899451410130766
100
AcDbArc
 50
89.99999999999877
 51
99.55106969752492
  0
ARC
  5
99B
330
1E
100
AcDbEntity
  8
ZN-40C
100
AcDbCircle
 10
8.738299670592159
 20
19.42667080164526
 30
0.0
 40
0.64561513408289
100
AcDbArc
 50
89.9999999999992
 51
99.16633550868496
  0
CIRCLE
  5
99C
330
1E
100
AcDbEntity
  8
ZN-40C
100
AcDbCircle
 10
8.73329967059217
 20
19.19167080164523
 30
0.0
 40
0.0999999999999997
  0
ARC
  5
99D
330
1E
100
AcDbEntity
  8
ZN-40C
100
AcDbCircle
 10
8.665592271647494
 20
19.85873740446982
 30
0.0
 40
0.2518037084200739
100
AcDbArc
 50
99.54921025775444
 51
166.8027927207283
  0
ARC
  5
99E
330
1E
100
AcDbEntity
  8
ZN-40C
100
AcDbCircle
 10
8.669385485417503
 20
19.85468187757201
 30
0.0
 40
0.2120933340141279
100
AcDbArc
 50
100.3776154865757
 51
165.9704552980357
  0
LINE
  5
99F
330
1E
100
AcDbEntity
  8
ZN-40C
100
AcDbLine
 10
8.463618715342608
 20
19.90609800992525
 30
0.0
 11
8.46291256348336
 21
19.90317964966299
 31
0.0
  0
LINE
  5
9A0
330
1E
100
AcDbEntity
  8
ZN-40C
100
AcDbLine
 10
8.635452429475758
 20
20.06404145232787
 30
0.0
 11
8.631180081035285
 21
20.06330577219873
 31
0.0
  0
ARC
  5
9A1
330
1E
100
AcDbEntity
  8
ZN-40C
100
AcDbCircle
 10
9.647338431159678
 20
19.36617080164523
 30
0.0
 40
0.157
100
AcDbArc
 50
90.0
 51
167.6912937208423
  0
ARC
  5
9A2
330
1E
100
AcDbEntity
  8
ZN-40C
100
AcDbCircle
 10
9.647338431159678
 20
19.36617080164523
 30
0.0
 40
0.1880000000000014
100
AcDbArc
 50
90.0
 51
167.6912937208428
  0
ARC
  5
9A3
330
1E
100
AcDbEntity
  8
ZN-40C
100
AcDbCircle
 10
9.064646084789625
 20
20.74100722185908
 30
0.0
 40
0.7335530923995376
100
AcDbArc
 50
248.2155438561083
 51
262.5826836817764
  0
LINE
  5
9A4
330
1E
100
AcDbEntity
  8
ZN-40C
100
AcDbLine
 10
8.999163204082311
 20
19.85996152727688
 30
0.0
 11
8.999163204082311
 21
20.01359236117567
 31
0.0
  0
LINE
  5
9A5
330
1E
100
AcDbEntity
  8
ZN-40C
100
AcDbLine
 10
8.969947828069283
 20
20.01359236117567
 30
0.0
 11
8.999163204082311
 21
20.01359236117567
 31
0.0
  0
LINE
  5
9A6
330
1E
100
AcDbEntity
  8
ZN-40C
100
AcDbLine
 10
8.969947828069283
 20
20.11661594265834
 30
0.0
 11
8.869963058553647
 21
20.11661594265834
 31
0.0
  0
LINE
  5
9A7
330
1E
100
AcDbEntity
  8
ZN-40C
100
AcDbLine
 10
8.863299670592173
 20
20.11661594265834
 30
0.0
 11
8.738299670592173
 21
20.11661594265834
 31
0.0
  0
ARC
  5
9A8
330
1E
100
AcDbEntity
  8
ZN-40C
100
AcDbCircle
 10
8.863408715975278
 20
19.99602258676397
 30
0.0
 40
0.1205934051959881
100
AcDbArc
 50
90.05180914386448
 51
140.7725382479045
  0
LINE
  5
9A9
330
1E
100
AcDbEntity
  8
ZN-40C
100
AcDbLine
 10
8.869963058553647
 20
20.11661594265834
 30
0.0
 11
8.863299670592173
 21
20.11661594265834
 31
0.0
  0
ARC
  5
9AA
330
1E
100
AcDbEntity
  8
ZN-40C
100
AcDbCircle
 10
8.835764570980142
 20
20.04969510391789
 30
0.0
 40
0.0695440036055426
100
AcDbArc
 50
161.0439809205595
 51
168.7373332311695
  0
LINE
  5
9AB
330
1E
100
AcDbEntity
  8
ZN-40C
100
AcDbLine
 10
8.769992063383096
 20
20.07228593572815
 30
0.0
 11
8.738299670592173
 21
20.07228593572815
 31
0.0
  0
ARC
  5
9AC
330
1E
100
AcDbEntity
  8
ZN-40C
100
AcDbCircle
 10
7.33829967059216
 20
17.49167080164524
 30
0.0
 40
9.537842712474617
100
AcDbArc
 50
345.6227870595843
 51
14.37721294041595
  0
ARC
  5
9AD
330
1E
100
AcDbEntity
  8
ZN-40C
100
AcDbCircle
 10
7.33829967059216
 20
17.49167080164524
 30
0.0
 40
9.317093362388451
100
AcDbArc
 50
345.0866684707647
 51
14.9133315292357
  0
ARC
  5
9AE
330
1E
100
AcDbEntity
  8
ZN-40C
100
AcDbCircle
 10
7.338299670305676
 20
17.49167080164524
 30
0.0
 40
8.950086219999999
100
AcDbArc
 50
347.6912937208435
 51
12.30870627915674
  0
ARC
  5
9AF
330
1E
100
AcDbEntity
  8
ZN-40C
100
AcDbCircle
 10
7.338299670305676
 20
17.49167080164524
 30
0.0
 40
8.981086220000001
100
AcDbArc
 50
347.6912937208435
 51
12.30870627915681
  0
ARC
  5
9B0
330
1E
100
AcDbEntity
  8
ZN-40C
100
AcDbCircle
 10
16.50548639536906
 20
12.85348967821772
 30
0.0
 40
0.212
100
AcDbArc
 50
44.9999999999996
 51
90.0
  0
LINE
  5
9B1
330
1E
100
AcDbEntity
  8
ZN-40C
  6
HIDDEN2
 62
     4
100
AcDbLine
 10
16.196151764707
 20
12.97548967821771
 30
0.0
 11
16.50548639536906
 21
12.97548967821772
 31
0.0
  0
ARC
  5
9B2
330
1E
100
AcDbEntity
  8
ZN-40C
100
AcDbCircle
 10
15.98605439789613
 20
20.64419545718821
 30
0.0
 40
7.872895366249476
100
AcDbArc
 50
272.2795247014318
 51
274.3078973316306
  0
LINE
  5
9B3
330
1E
100
AcDbEntity
  8
ZN-40C
  6
HIDDEN2
 62
     4
100
AcDbLine
 10
15.92926091002464
 20
13.05548967821771
 30
0.0
 11
16.11293939021441
 21
13.05548967821771
 31
0.0
  0
LINE
  5
9B4
330
1E
100
AcDbEntity
  8
ZN-40C
  6
HIDDEN2
 62
     4
100
AcDbLine
 10
16.11512640371483
 20
12.94548967821772
 30
0.0
 11
15.92926091002464
 21
12.94548967821772
 31
0.0
  0
LINE
  5
9B5
330
1E
100
AcDbEntity
  8
ZN-40C
  6
HIDDEN2
 62
     4
100
AcDbLine
 10
16.11293939021441
 20
13.05548967821771
 30
0.0
 11
16.31938589030567
 21
13.05548967821772
 31
0.0
  0
LINE
  5
9B6
330
1E
100
AcDbEntity
  8
ZN-40C
  6
HIDDEN2
 62
     4
100
AcDbLine
 10
16.32162435905637
 20
12.94548967821772
 30
0.0
 11
16.11512640371483
 21
12.94548967821772
 31
0.0
  0
ARC
  5
9B7
330
1E
100
AcDbEntity
  8
ZN-40C
  6
HIDDEN2
 62
     4
100
AcDbCircle
 10
16.32162435905637
 20
13.03548967821772
 30
0.0
 40
0.0899999999999999
100
AcDbArc
 50
270.0000000000008
 51
311.4096221092866
  0
ARC
  5
9B8
330
1E
100
AcDbEntity
  8
ZN-40C
  6
HIDDEN2
 62
     4
100
AcDbCircle
 10
16.4009968983883
 20
12.94548967821772
 30
0.0
 40
0.030000000000095
100
AcDbArc
 50
90.0
 51
131.4096221090637
  0
LINE
  5
9B9
330
1E
100
AcDbEntity
  8
ZN-40C
  6
HIDDEN2
 62
     4
100
AcDbLine
 10
16.84899956104051
 20
12.77548968691436
 30
0.0
 11
16.83829976464546
 21
11.47448967813444
 31
0.0
  0
LINE
  5
9BA
330
1E
100
AcDbEntity
  8
ZN-40C
  6
HIDDEN2
 62
     4
100
AcDbLine
 10
16.92829955162691
 20
11.47448967813444
 30
0.0
 11
16.91759975523187
 21
12.77548968691436
 31
0.0
  0
LINE
  5
9BB
330
1E
100
AcDbEntity
  8
ZN-40C
  6
HIDDEN2
 62
     4
100
AcDbLine
 10
16.77323214297885
 20
12.7760855500309
 30
0.0
 11
16.78856655250111
 21
11.50248967821773
 31
0.0
  0
LINE
  5
9BC
330
1E
100
AcDbEntity
  8
ZN-40C
  6
HIDDEN2
 62
     4
100
AcDbLine
 10
17.20461841290118
 20
11.57248967957173
 30
0.0
 11
17.18980378404104
 21
12.66932862996262
 31
0.0
  0
LINE
  5
9BD
330
1E
100
AcDbEntity
  8
ZN-40C
  6
HIDDEN2
 62
     4
100
AcDbLine
 10
17.20899342902729
 20
11.57248967957173
 30
0.0
 11
17.1955586242273
 21
12.66932862996262
 31
0.0
  0
LINE
  5
9BE
330
1E
100
AcDbEntity
  8
ZN-40C
  6
HIDDEN2
 62
     4
100
AcDbLine
 10
17.23152338719591
 20
12.669328622855
 30
0.0
 11
17.24824478892557
 21
11.50248967821772
 31
0.0
  0
LINE
  5
9BF
330
1E
100
AcDbEntity
  8
ZN-40C
  6
HIDDEN2
 62
     4
100
AcDbLine
 10
16.74663019043692
 20
12.57293301511893
 30
0.0
 11
16.75302698972384
 21
11.51845552742469
 31
0.0
  0
ARC
  5
9C0
330
1E
100
AcDbEntity
  8
ZN-40C
100
AcDbCircle
 10
-677.0076030228017
 20
13.88499397453889
 30
0.0
 40
693.8178810829177
100
AcDbArc
 50
359.8136207456179
 51
359.8917393346952
  0
LINE
  5
9C1
330
1E
100
AcDbEntity
  8
ZN-40C
100
AcDbLine
 10
16.70663628263067
 20
12.57223491886144
 30
0.0
 11
16.71329955532521
 21
11.50248967821771
 31
0.0
  0
LINE
  5
9C2
330
1E
100
AcDbEntity
  8
ZN-40C
  6
HIDDEN2
 62
     4
100
AcDbLine
 10
16.94436650293343
 20
11.57248967821771
 30
0.0
 11
16.83829967059216
 21
11.57248967821771
 31
0.0
  0
LINE
  5
9C3
330
1E
100
AcDbEntity
  8
ZN-40C
100
AcDbLine
 10
16.78929967059215
 20
11.47448967821771
 30
0.0
 11
16.88329967059215
 21
11.47448967821771
 31
0.0
  0
LINE
  5
9C4
330
1E
100
AcDbEntity
  8
ZN-40C
  6
HIDDEN2
 62
     4
100
AcDbLine
 10
16.83829967059216
 20
11.57248967821771
 30
0.0
 11
16.75208393395143
 21
11.57248967957172
 31
0.0
  0
LINE
  5
9C5
330
1E
100
AcDbEntity
  8
ZN-40C
  6
HIDDEN2
 62
     4
100
AcDbLine
 10
16.75302698972384
 20
11.51845552742469
 30
0.0
 11
16.71329955532521
 21
11.50248967821771
 31
0.0
  0
ARC
  5
9C6
330
1E
100
AcDbEntity
  8
ZN-40C
100
AcDbCircle
 10
14.06502062798051
 20
13.5678659970994
 30
0.0
 40
3.358446160892755
100
AcDbArc
 50
322.0495524282323
 51
324.7186759488052
  0
LINE
  5
9C7
330
1E
100
AcDbEntity
  8
ZN-40C
100
AcDbLine
 10
16.78856655250111
 20
11.50248967821773
 30
0.0
 11
16.78929967059215
 21
11.47448967821771
 31
0.0
  0
LINE
  5
9C8
330
1E
100
AcDbEntity
  8
ZN-40C
  6
HIDDEN2
 62
     4
100
AcDbLine
 10
17.07896125558438
 20
11.57248967821773
 30
0.0
 11
17.10679430368275
 21
11.57248967821772
 31
0.0
  0
LINE
  5
9C9
330
1E
100
AcDbEntity
  8
ZN-40C
  6
HIDDEN2
 62
     4
100
AcDbLine
 10
17.11164367361996
 20
11.56792545646468
 30
0.0
 11
16.94519300980557
 21
11.56792545646468
 31
0.0
  0
LINE
  5
9CA
330
1E
100
AcDbEntity
  8
ZN-40C
  6
HIDDEN2
 62
     4
100
AcDbLine
 10
17.10679430368275
 20
11.57248967821772
 30
0.0
 11
16.94436650293343
 21
11.57248967821771
 31
0.0
  0
LINE
  5
9CB
330
1E
100
AcDbEntity
  8
ZN-40C
  6
HIDDEN2
 62
     4
100
AcDbLine
 10
16.97803276377127
 20
11.50248967821773
 30
0.0
 11
16.97986578259608
 21
11.57248967957173
 31
0.0
  0
LINE
  5
9CC
330
1E
100
AcDbEntity
  8
ZN-40C
100
AcDbLine
 10
16.88329967059215
 20
11.47448967821771
 30
0.0
 11
16.97729967059215
 21
11.47448967821771
 31
0.0
  0
LINE
  5
9CD
330
1E
100
AcDbEntity
  8
ZN-40C
100
AcDbLine
 10
16.97729967059215
 20
11.47448967821771
 30
0.0
 11
16.97803276377127
 21
11.50248967821773
 31
0.0
  0
LINE
  5
9CE
330
1E
100
AcDbEntity
  8
ZN-40C
  6
HIDDEN2
 62
     4
100
AcDbLine
 10
17.28824472684287
 20
11.50248967821772
 30
0.0
 11
17.2939697004317
 21
11.56792545693146
 31
0.0
  0
ARC
  5
9CF
330
1E
100
AcDbEntity
  8
ZN-40C
  6
HIDDEN2
 62
     4
100
AcDbCircle
 10
17.29895067392216
 20
11.56748967821772
 30
0.0
 40
0.0050000000000008
100
AcDbArc
 50
90.00000000002037
 51
174.9999999997736
  0
ARC
  5
9D0
330
1E
100
AcDbEntity
  8
ZN-40C
  6
HIDDEN2
 62
     4
100
AcDbCircle
 10
16.87614238306677
 20
13.06548967821772
 30
0.0
 40
0.2900000000000009
100
AcDbArc
 50
225.0000000000007
 51
270.0000000000008
  0
ARC
  5
9D1
330
1E
100
AcDbEntity
  8
ZN-40C
  6
HIDDEN2
 62
     4
100
AcDbCircle
 10
16.87614238306677
 20
13.06548967821772
 30
0.0
 40
0.2000000000000011
100
AcDbArc
 50
239.0304897928504
 51
270.0000000000008
  0
LINE
  5
9D2
330
1E
100
AcDbEntity
  8
ZN-40C
  6
HIDDEN2
 62
     4
100
AcDbLine
 10
16.83829967059215
 20
12.77548967821771
 30
0.0
 11
16.89887078540787
 21
12.77548967821771
 31
0.0
  0
ARC
  5
9D3
330
1E
100
AcDbEntity
  8
ZN-40C
100
AcDbCircle
 10
16.84329967059215
 20
12.79048967821772
 30
0.0
 40
0.1250000000000007
100
AcDbArc
 50
36.86989764584346
 51
90.0
  0
ARC
  5
9D4
330
1E
100
AcDbEntity
  8
ZN-40C
  6
HIDDEN2
 62
     4
100
AcDbCircle
 10
16.60665151311503
 20
12.57048967821771
 30
0.0
 40
0.1399999999999988
100
AcDbArc
 50
1.000000000035252
 51
90.0
  0
ARC
  5
9D5
330
1E
100
AcDbEntity
  8
ZN-40C
100
AcDbCircle
 10
16.60275683270191
 20
12.59713130428181
 30
0.0
 40
0.19644998490028
100
AcDbArc
 50
22.55055421643057
 51
88.86401331338369
  0
ARC
  5
9D6
330
1E
100
AcDbEntity
  8
ZN-40C
100
AcDbCircle
 10
16.60665151311503
 20
12.57048967821771
 30
0.0
 40
0.0999999999999997
100
AcDbArc
 50
1.000000000085194
 51
90.0
  0
LINE
  5
9D7
330
1E
100
AcDbEntity
  8
ZN-40C
  6
HIDDEN2
 62
     4
100
AcDbLine
 10
16.67108141652267
 20
12.86042871167363
 30
0.0
 11
16.59175342267382
 21
12.93975670552248
 31
0.0
  0
LINE
  5
9D8
330
1E
100
AcDbEntity
  8
ZN-40C
  6
HIDDEN2
 62
     4
100
AcDbLine
 10
16.57743616483069
 20
12.77548968691436
 30
0.0
 11
16.83829967059215
 21
12.77548967821771
 31
0.0
  0
LINE
  5
9D9
330
1E
100
AcDbEntity
  8
ZN-40C
100
AcDbLine
 10
16.57743616483069
 20
12.86548969389326
 30
0.0
 11
17.12159039622381
 21
12.86548967821772
 31
0.0
  0
LINE
  5
9DA
330
1E
100
AcDbEntity
  8
ZN-40C
100
AcDbLine
 10
16.73472102682947
 20
12.92406832198041
 30
0.0
 11
16.65539303298061
 21
13.00339631582927
 31
0.0
  0
ARC
  5
9DB
330
1E
100
AcDbEntity
  8
ZN-40C
  6
HIDDEN2
 62
     4
100
AcDbCircle
 10
16.50548639536906
 20
12.85348967821772
 30
0.0
 40
0.1220000000000012
100
AcDbArc
 50
44.99999999999947
 51
90.0
  0
LINE
  5
9DC
330
1E
100
AcDbEntity
  8
ZN-40C
100
AcDbLine
 10
16.60665153399892
 20
12.79354267836466
 30
0.0
 11
16.57743616483069
 21
12.79354267836466
 31
0.0
  0
ARC
  5
9DD
330
1E
100
AcDbEntity
  8
ZN-40C
100
AcDbCircle
 10
16.84329967059215
 20
12.79048967821772
 30
0.0
 40
0.125
100
AcDbArc
 50
90.0
 51
143.1301023541557
  0
ARC
  5
9DE
330
1E
100
AcDbEntity
  8
ZN-40C
100
AcDbCircle
 10
16.87614238306677
 20
13.06548967821772
 30
0.0
 40
0.1999999999999999
100
AcDbArc
 50
225.0000000000007
 51
239.03048979285
  0
ARC
  5
9DF
330
1E
100
AcDbEntity
  8
ZN-40C
  6
HIDDEN2
 62
     4
100
AcDbCircle
 10
17.12159039622381
 20
12.66548967821772
 30
0.0
 40
0.1100000000000012
100
AcDbArc
 50
2.000000000031477
 51
90.0
  0
ARC
  5
9E0
330
1E
100
AcDbEntity
  8
ZN-40C
  6
HIDDEN2
 62
     4
100
AcDbCircle
 10
17.08030136598811
 20
12.66593735964761
 30
0.0
 40
0.1095549189848951
100
AcDbArc
 50
1.773873070786184
 51
89.60589093124486
  0
LINE
  5
9E1
330
1E
100
AcDbEntity
  8
ZN-40C
  6
HIDDEN2
 62
     4
100
AcDbLine
 10
17.0871041528239
 20
12.77548967821771
 30
0.0
 11
17.08105495912145
 21
12.77548967821771
 31
0.0
  0
LINE
  5
9E2
330
1E
100
AcDbEntity
  8
ZN-40C
  6
HIDDEN2
 62
     4
100
AcDbLine
 10
16.89887078540787
 20
12.77548967821771
 30
0.0
 11
16.90887397051917
 21
12.77548967821771
 31
0.0
  0
LINE
  5
9E3
330
1E
100
AcDbEntity
  8
ZN-40C
  6
HIDDEN2
 62
     4
100
AcDbLine
 10
16.90887397051917
 20
12.77548967821771
 30
0.0
 11
17.08105495912145
 21
12.77548967821771
 31
0.0
  0
LINE
  5
9E4
330
1E
100
AcDbEntity
  8
ZN-40C
  6
HIDDEN2
 62
     4
100
AcDbLine
 10
17.0871041528239
 20
12.77548967821771
 30
0.0
 11
17.12159039622381
 21
12.77548967821772
 31
0.0
  0
LINE
  5
9E5
330
1E
100
AcDbEntity
  8
ZN-40C
100
AcDbLine
 10
16.196151764707
 20
13.06548967821771
 30
0.0
 11
16.50548639536906
 21
13.06548967821772
 31
0.0
  0
ARC
  5
9E6
330
1E
100
AcDbEntity
  8
ZN-40C
100
AcDbCircle
 10
16.83829967059215
 20
15.55667080164518
 30
0.0
 40
0.6899451410130782
100
AcDbArc
 50
270.0
 51
279.5510696975265
  0
ARC
  5
9E7
330
1E
100
AcDbEntity
  8
ZN-40C
100
AcDbCircle
 10
16.83829967059215
 20
15.55667080164518
 30
0.0
 40
0.6456151340828793
100
AcDbArc
 50
270.0000000000008
 51
279.1663355086866
  0
LINE
  5
9E8
330
1E
100
AcDbEntity
  8
ZN-40C
100
AcDbLine
 10
16.577436137102
 20
14.96974924211476
 30
0.0
 11
16.577436137102
 21
15.12338007601355
 31
0.0
  0
LINE
  5
9E9
330
1E
100
AcDbEntity
  8
ZN-40C
100
AcDbLine
 10
16.60665151311503
 20
14.8667256606321
 30
0.0
 11
16.70663628263067
 21
14.8667256606321
 31
0.0
  0
ARC
  5
9EA
330
1E
100
AcDbEntity
  8
ZN-40C
100
AcDbCircle
 10
16.51195325639335
 20
14.24233438142441
 30
0.0
 40
0.7335530924066035
100
AcDbArc
 50
68.21554385618985
 51
82.58268368174197
  0
LINE
  5
9EB
330
1E
100
AcDbEntity
  8
ZN-40C
100
AcDbLine
 10
16.60665151311503
 20
14.96974924211476
 30
0.0
 11
16.577436137102
 21
14.96974924211476
 31
0.0
  0
LINE
  5
9EC
330
1E
100
AcDbEntity
  8
ZN-40C
100
AcDbLine
 10
16.83829967059214
 20
14.8667256606321
 30
0.0
 11
16.71329967059215
 21
14.8667256606321
 31
0.0
  0
ARC
  5
9ED
330
1E
100
AcDbEntity
  8
ZN-40C
100
AcDbCircle
 10
16.71322462180632
 20
14.98724745910154
 30
0.0
 40
0.1205218218358415
100
AcDbArc
 50
270.0356780116504
 51
320.788669380112
  0
LINE
  5
9EE
330
1E
100
AcDbEntity
  8
ZN-40C
100
AcDbLine
 10
16.70663628263067
 20
14.8667256606321
 30
0.0
 11
16.71329967059215
 21
14.8667256606321
 31
0.0
  0
ARC
  5
9EF
330
1E
100
AcDbEntity
  8
ZN-40C
100
AcDbCircle
 10
16.74083477028167
 20
14.93364649935037
 30
0.0
 40
0.0695440035250447
100
AcDbArc
 50
341.0439809171147
 51
348.7373332372875
  0
LINE
  5
9F0
330
1E
100
AcDbEntity
  8
ZN-40C
100
AcDbLine
 10
16.83829967059215
 20
14.9110556675623
 30
0.0
 11
16.80660727780125
 21
14.91105566756229
 31
0.0
  0
ARC
  5
9F1
330
1E
100
AcDbEntity
  8
ZN-40C
100
AcDbCircle
 10
16.91100706953664
 20
15.12460419882085
 30
0.0
 40
0.2518037084203022
100
AcDbArc
 50
279.549210257787
 51
346.8027927206887
  0
ARC
  5
9F2
330
1E
100
AcDbEntity
  8
ZN-40C
100
AcDbCircle
 10
16.90721385576722
 20
15.12865972571797
 30
0.0
 40
0.2120933340136094
100
AcDbArc
 50
280.3776154864912
 51
345.9704552981418
  0
LINE
  5
9F3
330
1E
100
AcDbEntity
  8
ZN-40C
100
AcDbLine
 10
16.94114691170856
 20
14.91930015096256
 30
0.0
 11
16.94541926014904
 21
14.92003583109171
 31
0.0
  0
LINE
  5
9F4
330
1E
100
AcDbEntity
  8
ZN-40C
100
AcDbLine
 10
17.11298062584171
 20
15.07724359336519
 30
0.0
 11
17.11368677770096
 21
15.08016195362745
 31
0.0
  0
ARC
  5
9F5
330
1E
100
AcDbEntity
  8
ZN-40C
100
AcDbCircle
 10
15.92926091002464
 20
15.6171708016452
 30
0.0
 40
0.157
100
AcDbArc
 50
270.0
 51
347.6912937208432
  0
ARC
  5
9F6
330
1E
100
AcDbEntity
  8
ZN-40C
100
AcDbCircle
 10
15.92926091002464
 20
15.6171708016452
 30
0.0
 40
0.1880000000000006
100
AcDbArc
 50
270.0000000000004
 51
347.6912937208435
  0
CIRCLE
  5
9F7
330
1E
100
AcDbEntity
  8
ZN-40C
100
AcDbCircle
 10
16.84329967059215
 20
15.7916708016452
 30
0.0
 40
0.0999999999999997
  0
CIRCLE
  5
9F8
330
1E
100
AcDbEntity
  8
ZN-40C
100
AcDbCircle
 10
16.84329967059217
 20
19.19167080164521
 30
0.0
 40
0.0999999999999997
  0
ARC
  5
9F9
330
1E
100
AcDbEntity
  8
ZN-40C
100
AcDbCircle
 10
15.92926091002466
 20
19.36617080164521
 30
0.0
 40
0.1570000000000011
100
AcDbArc
 50
12.30870627915642
 51
89.9999999999992
  0
ARC
  5
9FA
330
1E
100
AcDbEntity
  8
ZN-40C
100
AcDbCircle
 10
15.92926091002466
 20
19.36617080164521
 30
0.0
 40
0.1880000000000019
100
AcDbArc
 50
12.30870627915655
 51
90.0
  0
ARC
  5
9FB
330
1E
100
AcDbEntity
  8
ZN-40C
100
AcDbCircle
 10
16.91100707018901
 20
19.85873740516483
 30
0.0
 40
0.25180370762645
100
AcDbArc
 50
13.19720715917527
 51
80.45078986234772
  0
ARC
  5
9FC
330
1E
100
AcDbEntity
  8
ZN-40C
100
AcDbCircle
 10
16.90721388228141
 20
19.85468190583279
 30
0.0
 40
0.2120933014394199
100
AcDbArc
 50
14.02953903162341
 51
79.62239018377649
  0
ARC
  5
9FD
330
1E
100
AcDbEntity
  8
ZN-40C
100
AcDbCircle
 10
16.51195325639437
 20
20.74100722186214
 30
0.0
 40
0.7335530924026545
100
AcDbArc
 50
277.4173163182198
 51
291.7844561438495
  0
LINE
  5
9FE
330
1E
100
AcDbEntity
  8
ZN-40C
100
AcDbLine
 10
16.57743613710202
 20
19.85996152727686
 30
0.0
 11
16.57743613710203
 21
20.01359236117564
 31
0.0
  0
LINE
  5
9FF
330
1E
100
AcDbEntity
  8
ZN-40C
100
AcDbLine
 10
16.60665151311505
 20
20.01359236117564
 30
0.0
 11
16.57743613710203
 21
20.01359236117564
 31
0.0
  0
LINE
  5
A00
330
1E
100
AcDbEntity
  8
ZN-40C
100
AcDbLine
 10
17.11368677770096
 20
19.90317964966294
 30
0.0
 11
17.11298062584173
 21
19.90609800992522
 31
0.0
  0
ARC
  5
A01
330
1E
100
AcDbEntity
  8
ZN-40C
100
AcDbCircle
 10
16.83829967059217
 20
19.4266708016452
 30
0.0
 40
0.6899451410131161
100
AcDbArc
 50
80.44893030247427
 51
90.0
  0
ARC
  5
A02
330
1E
100
AcDbEntity
  8
ZN-40C
100
AcDbCircle
 10
16.83829967059217
 20
19.4266708016452
 30
0.0
 40
0.6456151340829237
100
AcDbArc
 50
80.83366449131377
 51
90.0
  0
LINE
  5
A03
330
1E
100
AcDbEntity
  8
ZN-40C
100
AcDbLine
 10
16.60665151311505
 20
20.11661594265831
 30
0.0
 11
16.70663628263069
 21
20.11661594265831
 31
0.0
  0
LINE
  5
A04
330
1E
100
AcDbEntity
  8
ZN-40C
100
AcDbLine
 10
16.83829967059217
 20
20.11661594265832
 30
0.0
 11
16.71329967059216
 21
20.11661594265832
 31
0.0
  0
ARC
  5
A05
330
1E
100
AcDbEntity
  8
ZN-40C
100
AcDbCircle
 10
16.71329853962729
 20
19.9962497294346
 30
0.0
 40
0.1203662132291728
100
AcDbArc
 50
39.17619096110252
 51
89.99946164698362
  0
LINE
  5
A06
330
1E
100
AcDbEntity
  8
ZN-40C
100
AcDbLine
 10
16.70663628263069
 20
20.11661594265831
 30
0.0
 11
16.71329967059216
 21
20.11661594265831
 31
0.0
  0
LINE
  5
A07
330
1E
100
AcDbEntity
  8
ZN-40C
100
AcDbLine
 10
16.83829967059217
 20
20.07228593572812
 30
0.0
 11
16.80660727780128
 21
20.07228593572812
 31
0.0
  0
ARC
  5
A08
330
1E
100
AcDbEntity
  8
ZN-40C
100
AcDbCircle
 10
16.74083477024912
 20
20.04969510392953
 30
0.0
 40
0.0695440035592677
100
AcDbArc
 50
11.26266676687856
 51
18.95601908235463
  0
LINE
  5
A09
330
1E
100
AcDbEntity
  8
ZN-40C
100
AcDbLine
 10
16.94541926014906
 20
20.0633057721987
 30
0.0
 11
16.94114691170859
 21
20.06404145232785
 31
0.0
  0
DIMENSION
  5
A0B
330
1E
100
AcDbEntity
  8
0
100
AcDbDimension
  2
*D14
 10
6.143262913443425
 20
15.98153924323036
 30
0.0
 11
7.051714908668528
 21
15.98153924323036
 31
0.0
 70
   160
 71
     5
 42
0.1200000000000045
  3
STANDARD
100
AcDbAlignedDimension
 13
6.023262913443421
 23
15.42693233289458
 33
0.0
 14
6.143262913443425
 24
15.46017080164528
 34
0.0
100
AcDbRotatedDimension
1001
ACAD
1000
DSTYLE
1002
{
1070
   141
1040
0.0
1002
}
  0
DIMENSION
  5
A0C
330
1E
100
AcDbEntity
  8
0
100
AcDbDimension
  2
*D15
 10
6.143262913443425
 20
14.21987492480738
 30
0.0
 11
5.357410340004399
 21
14.21987492480738
 31
0.0
 70
   160
  1
<>\P(4 PLCS.)
 71
     5
 42
1.590999999999977
  3
STANDARD
100
AcDbAlignedDimension
 13
4.552262913443448
 23
16.14767080164525
 33
0.0
 14
6.143262913443425
 24
15.13036422991197
 34
0.0
100
AcDbRotatedDimension
1001
ACAD
1000
DSTYLE
1002
{
1070
   141
1040
0.0
1002
}
  0
DIMENSION
  5
A0D
330
1E
100
AcDbEntity
  8
0
100
AcDbDimension
  2
*D16
 10
6.143262913443425
 20
15.16269701264814
 30
0.0
 11
7.051714908668528
 21
15.16269701264814
 31
0.0
 70
   160
 71
     5
 42
0.0900000000000034
  3
STANDARD
100
AcDbAlignedDimension
 13
6.053262913443422
 23
15.13036422991197
 33
0.0
 14
6.143262913443425
 24
15.13036422991197
 34
0.0
100
AcDbRotatedDimension
1001
ACAD
1000
DSTYLE
1002
{
1070
   141
1040
0.0
1002
}
  0
ARC
  5
A0E
330
1E
100
AcDbEntity
  8
ZN-40C
100
AcDbCircle
 10
5.943262913443422
 20
15.13036422991197
 30
0.0
 40
0.110000000000003
100
AcDbArc
 50
272.0
 51
0.0
  0
ARC
  5
A0F
330
1E
100
AcDbEntity
  8
ZN-40C
100
AcDbCircle
 10
5.943262913443422
 20
15.13036422991197
 30
0.0
 40
0.1999999999999995
100
AcDbArc
 50
272.0000000000008
 51
0.0
  0
ARC
  5
A10
330
1E
100
AcDbEntity
  8
ZN-40C
100
AcDbCircle
 10
5.943262913443422
 20
19.85297737337859
 30
0.0
 40
0.1999999999999994
100
AcDbArc
 50
0.0000000000008015
 51
88.00000000000084
  0
ARC
  5
A12
330
1E
100
AcDbEntity
  8
ZN-40C
100
AcDbCircle
 10
5.74326291344342
 20
19.85996152727694
 30
0.0
 40
0.2000000000000028
100
AcDbArc
 50
0.0
 51
88.00000000000002
  0
ARC
  5
A13
330
1E
100
AcDbEntity
  8
ZN-40C
100
AcDbCircle
 10
5.86826291344342
 20
19.19167080164528
 30
0.0
 40
0.1249999999999993
100
AcDbArc
 50
306.8698976458446
 51
53.13010235415629
  0
LINE
  5
A14
330
1E
100
AcDbEntity
  8
ZN-40C
100
AcDbLine
 10
4.580262913443455
 20
14.86672565856888
 30
0.0
 11
4.580262913443455
 21
14.90672559468978
 31
0.0
  0
LINE
  5
A15
330
1E
100
AcDbEntity
  8
ZN-40C
100
AcDbLine
 10
5.853262913443447
 20
16.71963872569149
 30
0.0
 11
5.853262913443447
 21
15.1233800760136
 31
0.0
  0
LINE
  5
A17
330
1E
100
AcDbEntity
  8
ZN-40C
100
AcDbLine
 10
4.580262913443455
 20
14.99672567679757
 30
0.0
 11
5.947101858080699
 21
15.02043123893987
 31
0.0
  0
LINE
  5
A1A
330
1E
100
AcDbEntity
  8
ZN-40C
100
AcDbLine
 10
5.748262913443429
 20
14.86672566063217
 30
0.0
 11
4.580262913443455
 21
14.86672565856888
 31
0.0
  0
LINE
  5
A1C
330
1E
100
AcDbEntity
  8
ZN-40C
100
AcDbLine
 10
4.645698691690419
 20
14.95100081834837
 30
0.0
 11
4.580262913443455
 21
14.95672574067666
 31
0.0
  0
LINE
  5
A1D
330
1E
100
AcDbEntity
  8
ZN-40C
100
AcDbLine
 10
4.580262913443455
 20
14.90672559468978
 30
0.0
 11
4.645698691690419
 21
14.91245051701807
 31
0.0
  0
LINE
  5
A27
330
1E
100
AcDbEntity
  8
ZN-40C
100
AcDbLine
 10
4.650262914797458
 20
14.94601978255639
 30
0.0
 11
4.645698691690419
 21
14.95100081834837
 31
0.0
  0
LINE
  5
A28
330
1E
100
AcDbEntity
  8
ZN-40C
100
AcDbLine
 10
4.650262914797458
 20
14.91743155281006
 30
0.0
 11
4.650262914797458
 21
14.94601978255639
 31
0.0
  0
LINE
  5
A29
330
1E
100
AcDbEntity
  8
ZN-40C
100
AcDbLine
 10
4.645698691690419
 20
14.91245051701807
 30
0.0
 11
4.650262914797458
 21
14.91743155281006
 31
0.0
  0
LINE
  5
A2A
330
1E
100
AcDbEntity
  8
ZN-40C
100
AcDbLine
 10
5.78826291344345
 20
14.95532882985248
 30
0.0
 11
4.596229583675874
 21
14.95532882985248
 31
0.0
  0
LINE
  5
A2B
330
1E
100
AcDbEntity
  8
ZN-40C
100
AcDbLine
 10
5.78826291344345
 20
14.90812249141182
 30
0.0
 11
4.596229422488516
 21
14.90812249141182
 31
0.0
  0
ARC
  5
A2C
330
1E
100
AcDbEntity
  8
ZN-40C
100
AcDbCircle
 10
5.743262913443448
 20
15.1233800760136
 30
0.0
 40
0.1099999999999997
100
AcDbArc
 50
272.6052512650594
 51
0.0
  0
LINE
  5
A2E
330
1E
100
AcDbEntity
  8
ZN-40C
100
AcDbLine
 10
5.748262913443443
 20
14.95672566063215
 30
0.0
 11
5.78826291344345
 21
14.95532882985248
 31
0.0
  0
LINE
  5
A2F
330
1E
100
AcDbEntity
  8
ZN-40C
100
AcDbLine
 10
5.78826291344345
 20
14.90812249141182
 30
0.0
 11
5.748262913443443
 21
14.90672566063215
 31
0.0
  0
ARC
  5
A30
330
1E
100
AcDbEntity
  8
ZN-40C
100
AcDbCircle
 10
5.748262913443429
 20
14.99172566063217
 30
0.0
 40
0.1250000000000002
100
AcDbArc
 50
270.0000000000008
 51
328.9062689610007
  0
LINE
  5
A31
330
1E
100
AcDbEntity
  8
ZN-40C
100
AcDbLine
 10
5.748262913443443
 20
14.95672566063215
 30
0.0
 11
4.580262913443458
 21
14.95672566063215
 31
0.0
  0
LINE
  5
A32
330
1E
100
AcDbEntity
  8
ZN-40C
100
AcDbLine
 10
5.748262913443443
 20
14.90672566063215
 30
0.0
 11
4.580262913443458
 21
14.90672566063215
 31
0.0
  0
LINE
  5
A34
330
1E
100
AcDbEntity
  8
ZN-40C
100
AcDbLine
 10
5.748262913443451
 20
15.01349377113442
 30
0.0
 11
5.748262913443443
 21
14.95672566063215
 31
0.0
  0
LINE
  5
A35
330
1E
100
AcDbEntity
  8
ZN-40C
100
AcDbLine
 10
5.748262913443443
 20
14.90672566063215
 30
0.0
 11
5.748262913443429
 21
14.86672566063217
 31
0.0
  0
LINE
  5
A36
330
1E
100
AcDbEntity
  8
ZN-40C
100
AcDbLine
 10
5.78826291344345
 20
14.95532882985248
 30
0.0
 11
5.78826291344345
 21
14.90812249141182
 31
0.0
  0
LINE
  5
A37
330
1E
100
AcDbEntity
  8
ZN-40C
100
AcDbLine
 10
5.855303362875641
 20
14.92717070586222
 30
0.0
 11
5.95024281278393
 21
14.93048606450815
 31
0.0
  0
LINE
  5
A3A
330
1E
100
AcDbEntity
  8
ZN-40C
100
AcDbLine
 10
5.943262913443422
 20
19.85996152727694
 30
0.0
 11
5.943262913443422
 21
16.71317251614264
 31
0.0
  0
LINE
  5
A3B
330
1E
100
AcDbEntity
  8
ZN-40C
100
AcDbLine
 10
4.580262913443416
 20
16.33640400890903
 30
0.0
 11
4.580262913443426
 21
20.11661594265839
 31
0.0
  0
LINE
  5
A3C
330
1E
100
AcDbEntity
  8
ZN-40C
100
AcDbLine
 10
4.705829044456496
 20
16.70139809773947
 30
0.0
 11
4.70582904445704
 21
20.07228593572818
 31
0.0
  0
LINE
  5
A43
330
1E
100
AcDbEntity
  8
ZN-40C
100
AcDbLine
 10
4.552262913443449
 20
16.14767080164525
 30
0.0
 11
5.853262922140093
 21
16.13161879308211
 31
0.0
  0
LINE
  5
A44
330
1E
100
AcDbEntity
  8
ZN-40C
100
AcDbLine
 10
5.853262922140093
 20
16.35172280375513
 30
0.0
 11
4.552262913443449
 21
16.33567080164525
 31
0.0
  0
LINE
  5
A46
330
1E
100
AcDbEntity
  8
ZN-40C
100
AcDbLine
 10
4.552262913443449
 20
16.33567080164525
 30
0.0
 11
4.552262913443449
 21
16.14767080164525
 31
0.0
  0
LINE
  5
A4E
330
1E
100
AcDbEntity
  8
ZN-40C
100
AcDbLine
 10
5.650008154087149
 20
20.11661594265839
 30
0.0
 11
4.580262913443426
 21
20.11661594265839
 31
0.0
  0
LINE
  5
A4F
330
1E
100
AcDbEntity
  8
ZN-40C
100
AcDbLine
 10
5.75024281278392
 20
20.05983969268076
 30
0.0
 11
4.70582904445704
 21
20.07228593572818
 31
0.0
  0
ARC
  5
A50
330
1E
100
AcDbEntity
  8
ZN-40C
100
AcDbCircle
 10
4.580262913443426
 20
19.91661594265838
 30
0.0
 40
0.2000000000001996
100
AcDbArc
 50
51.10974706755851
 51
90.0
  0
ARC
  5
A56
330
1E
100
AcDbEntity
  8
ZN-40C
100
AcDbCircle
 10
5.748262913443422
 20
19.99161594265839
 30
0.0
 40
0.1249999999999991
100
AcDbArc
 50
10.1258770036495
 51
90.0
  0
LINE
  5
A57
330
1E
100
AcDbEntity
  8
ZN-40C
100
AcDbLine
 10
5.748262913443422
 20
20.11661594265839
 30
0.0
 11
5.650008154087149
 21
20.11661594265839
 31
0.0
  0
LINE
  5
A58
330
1E
100
AcDbEntity
  8
ZN-40C
100
AcDbLine
 10
5.867400105492787
 20
20.05574851453407
 30
0.0
 11
5.946728109088926
 21
20.05297830653575
 31
0.0
  0
LINE
  5
A59
330
1E
100
AcDbEntity
  8
ZN-40C
100
AcDbLine
 10
5.85530336190207
 20
20.05617090965453
 30
0.0
 11
5.867400105492787
 21
20.05574851453407
 31
0.0
  0
LINE
  5
A5B
330
1E
100
AcDbEntity
  8
ZN-40C
100
AcDbLine
 10
6.023262913443421
 20
15.42693233289458
 30
0.0
 11
6.023262871554816
 21
16.63799908087975
 31
0.0
  0
LINE
  5
A5C
330
1E
100
AcDbEntity
  8
ZN-40C
100
AcDbLine
 10
6.143262913443425
 20
16.22680247488282
 30
0.0
 11
6.143262913443447
 21
15.46017080164528
 31
0.0
  0
LINE
  5
A5D
330
1E
100
AcDbEntity
  8
ZN-40C
100
AcDbLine
 10
6.143262913443447
 20
15.42917080164526
 30
0.0
 11
6.143262913443425
 21
15.13036422991197
 31
0.0
  0
LINE
  5
A5E
330
1E
100
AcDbEntity
  8
ZN-40C
100
AcDbLine
 10
6.053262913443429
 20
15.34755979356264
 30
0.0
 11
6.053262913443429
 21
15.13036422991197
 31
0.0
  0
LINE
  5
A5F
330
1E
100
AcDbEntity
  8
ZN-40C
100
AcDbLine
 10
6.143262913443447
 20
15.42917080164526
 30
0.0
 11
6.143262913443447
 21
15.46017080164528
 31
0.0
  0
LINE
  5
A60
330
1E
100
AcDbEntity
  8
ZN-40C
100
AcDbLine
 10
6.133262927556121
 20
15.42917086782051
 30
0.0
 11
6.133262927556121
 21
15.46017085637267
 31
0.0
  0
ARC
  5
A61
330
1E
100
AcDbEntity
  8
ZN-40C
100
AcDbCircle
 10
6.113262913443424
 20
15.42693233289458
 30
0.0
 40
0.0900000000000034
100
AcDbArc
 50
180.0000000000004
 51
221.4096221092715
  0
ARC
  5
A62
330
1E
100
AcDbEntity
  8
ZN-40C
100
AcDbCircle
 10
6.023262913443421
 20
15.34755979356264
 30
0.0
 40
0.0300000000000047
100
AcDbArc
 50
0.0
 51
41.40962210927841
  0
LINE
  5
A63
330
1E
100
AcDbEntity
  8
ZN-40C
100
AcDbLine
 10
6.143262913443447
 20
15.42917080164526
 30
0.0
 11
6.133262927556121
 21
15.42917086782051
 31
0.0
  0
LINE
  5
A64
330
1E
100
AcDbEntity
  8
ZN-40C
100
AcDbLine
 10
6.143262913443447
 20
15.46017080164528
 30
0.0
 11
6.133262927556121
 21
15.46017085637267
 31
0.0
  0
LINE
  5
A65
330
1E
100
AcDbEntity
  8
ZN-40C
100
AcDbLine
 10
6.143262913443425
 20
19.85297737337859
 30
0.0
 11
6.143262913443425
 21
16.22680247488282
 31
0.0
  0
LINE
  5
A67
330
1E
100
AcDbEntity
  8
ZN-40C
100
AcDbLine
 10
17.32146856162763
 20
12.67246957755822
 30
0.0
 11
17.33391480467507
 21
11.628055809231
 31
0.0
  0
ARC
  5
A68
330
1E
100
AcDbEntity
  8
ZN-40C
  6
HIDDEN2
 62
     4
100
AcDbCircle
 10
17.32753894928835
 20
11.56748967821772
 30
0.0
 40
0.0050000000000008
100
AcDbArc
 50
5.000000000226322
 51
90.00000000006107
  0
LINE
  5
A69
330
1E
100
AcDbEntity
  8
ZN-40C
  6
HIDDEN2
 62
     4
100
AcDbLine
 10
17.33251992277882
 20
11.56792545693146
 30
0.0
 11
17.33824486923696
 21
11.50248967821772
 31
0.0
  0
ARC
  5
A6A
330
1E
100
AcDbEntity
  8
ZN-40C
100
AcDbCircle
 10
17.17824481160526
 20
11.50248967821772
 30
0.0
 40
0.2000000000000009
100
AcDbArc
 50
0.0
 51
38.89025293236639
  0
LINE
  5
A6B
330
1E
100
AcDbEntity
  8
ZN-40C
100
AcDbLine
 10
17.37824481160526
 20
17.9966708016452
 30
0.0
 11
17.37824481160526
 21
16.9866708016452
 31
0.0
  0
LINE
  5
A6C
330
1E
100
AcDbEntity
  8
ZN-40C
100
AcDbLine
 10
17.33391480467481
 20
17.9966708016452
 30
0.0
 11
17.33391480467507
 21
16.98667080164521
 31
0.0
  0
LEADER
  5
A6D
330
1E
100
AcDbEntity
  8
0
100
AcDbLeader
  3
STANDARD$7
 73
     0
 74
     0
 75
     1
 40
0.1292633015006821
 41
1.543912005457025
 76
     3
 10
13.01198149394781
 20
16.07904215813229
 30
0.0
 10
13.65179657198209
 20
14.56831332091038
 30
0.0
 10
13.78929657198209
 20
14.56831332091038
 30
0.0
340
A6E
1001
ACAD
1000
DSTYLE
1002
{
1070
    41
1040
0.1
1070
   341
1005
66
1002
}
  0
MTEXT
  5
A6E
102
{ACAD_REACTORS
330
A6D
102
}
330
1E
100
AcDbEntity
  8
0
 62
     4
100
AcDbMText
 10
13.91304657198209
 20
14.56831332091038
 30
0.0
 40
0.125
 41
0.0
 71
     4
 72
     1
  1
TEXTURED FLUSH
  7
STANDARD
 73
     1
 44
1.0
  0
LINE
  5
A79
330
1E
100
AcDbEntity
  8
0
  6
CENTER2
 62
     1
 48
0.8
100
AcDbLine
 10
8.098354529579065
 20
17.49167080164524
 30
0.0
 11
17.47824481160526
 21
17.4916708016453
 31
0.0
  0
LINE
  5
A7A
330
1E
100
AcDbEntity
  8
0
  6
CENTER2
 62
     1
 48
0.8
100
AcDbLine
 10
12.78829967059214
 20
20.21661594265837
 30
0.0
 11
12.78829967059217
 21
14.76672566063216
 31
0.0
  0
LINE
  5
A9F
330
1E
100
AcDbEntity
  8
ZN-40C
100
AcDbLine
 10
16.20490039385906
 20
14.93036332782911
 30
0.0
 11
16.22857736537903
 21
14.9341031819859
 31
0.0
  0
LINE
  5
AA0
330
1E
100
AcDbEntity
  8
ZN-40C
100
AcDbLine
 10
16.22857736537903
 20
14.9341031819859
 30
0.0
 11
16.25156895940912
 21
14.94352065345616
 31
0.0
  0
LINE
  5
AA1
330
1E
100
AcDbEntity
  8
ZN-40C
100
AcDbLine
 10
16.25156895940912
 20
14.94352065345616
 30
0.0
 11
16.2732096380873
 21
14.95834313461557
 31
0.0
  0
LINE
  5
AA2
330
1E
100
AcDbEntity
  8
ZN-40C
100
AcDbLine
 10
16.2732096380873
 20
14.95834313461557
 30
0.0
 11
16.29287296850936
 21
14.97814155897975
 31
0.0
  0
LINE
  5
AA3
330
1E
100
AcDbEntity
  8
ZN-40C
100
AcDbLine
 10
16.29287296850936
 20
14.97814155897975
 30
0.0
 11
16.3099897560874
 21
15.00234282139533
 31
0.0
  0
LINE
  5
AA4
330
1E
100
AcDbEntity
  8
ZN-40C
100
AcDbLine
 10
16.3099897560874
 20
15.00234282139533
 30
0.0
 11
16.32406452103019
 21
15.03024636771955
 31
0.0
  0
LINE
  5
AA5
330
1E
100
AcDbEntity
  8
ZN-40C
100
AcDbLine
 10
16.32406452103019
 20
15.03024636771955
 30
0.0
 11
16.33468984100087
 21
15.06104447376679
 31
0.0
  0
LINE
  5
AA6
330
1E
100
AcDbEntity
  8
ZN-40C
100
AcDbLine
 10
16.33468984100087
 20
15.06104447376679
 30
0.0
 11
16.34155814477458
 21
15.09384562650728
 31
0.0
  0
LINE
  5
AA7
330
1E
100
AcDbEntity
  8
ZN-40C
100
AcDbLine
 10
16.577436137102
 20
14.96974924211476
 30
0.0
 11
16.52566831307724
 21
14.96574333126702
 31
0.0
  0
LINE
  5
AA8
330
1E
100
AcDbEntity
  8
ZN-40C
100
AcDbLine
 10
16.52566831307724
 20
14.96574333126702
 30
0.0
 11
16.47390048905247
 21
14.95535414815608
 31
0.0
  0
LINE
  5
AA9
330
1E
100
AcDbEntity
  8
ZN-40C
100
AcDbLine
 10
16.47390048905247
 20
14.95535414815608
 30
0.0
 11
16.37036484100295
 21
14.93271846044087
 31
0.0
  0
LINE
  5
AAA
330
1E
100
AcDbEntity
  8
ZN-40C
100
AcDbLine
 10
16.37036484100295
 20
14.93271846044087
 30
0.0
 11
16.33504329352974
 21
14.9286060150771
 31
0.0
  0
LINE
  5
AAB
330
1E
100
AcDbEntity
  8
ZN-40C
100
AcDbLine
 10
16.33504329352974
 20
14.9286060150771
 30
0.0
 11
16.29919653536113
 21
14.92717070586215
 31
0.0
  0
LINE
  5
AB2
330
1E
100
AcDbEntity
  8
ZN-40C
  6
HIDDEN2
 62
     4
100
AcDbLine
 10
8.583982799219423
 20
12.77548968691436
 30
0.0
 11
8.589160072744451
 21
12.56774539012754
 31
0.0
  0
LINE
  5
AB3
330
1E
100
AcDbEntity
  8
ZN-40C
  6
HIDDEN2
 62
     4
100
AcDbLine
 10
8.589160072744451
 20
12.56774539012754
 30
0.0
 11
8.596828597490333
 21
11.57572816132718
 31
0.0
  0
LINE
  5
AB4
330
1E
100
AcDbEntity
  8
ZN-40C
  6
HIDDEN2
 62
     4
100
AcDbLine
 10
8.594919019549937
 20
12.77548968691436
 30
0.0
 11
8.598836734292159
 21
12.56774539012754
 31
0.0
  0
LINE
  5
AB5
330
1E
100
AcDbEntity
  8
ZN-40C
  6
HIDDEN2
 62
     4
100
AcDbLine
 10
8.598836734292159
 20
12.56774539012754
 30
0.0
 11
8.604717706354673
 21
11.57286975726437
 31
0.0
  0
LINE
  5
AB6
330
1E
100
AcDbEntity
  8
ZN-40C
100
AcDbLine
 10
8.767559825188616
 20
12.57402235761547
 30
0.0
 11
8.776497001945589
 21
12.63483827173151
 31
0.0
  0
LINE
  5
AB7
330
1E
100
AcDbEntity
  8
ZN-40C
100
AcDbLine
 10
8.776497001945589
 20
12.63483827173151
 30
0.0
 11
8.792412791418367
 21
12.67246957034487
 31
0.0
  0
LINE
  5
AB8
330
1E
100
AcDbEntity
  8
ZN-40C
100
AcDbLine
 10
9.371698947325239
 20
14.93036332782914
 30
0.0
 11
9.34802197580527
 21
14.93410318198592
 31
0.0
  0
LINE
  5
AB9
330
1E
100
AcDbEntity
  8
ZN-40C
100
AcDbLine
 10
9.34802197580527
 20
14.93410318198592
 30
0.0
 11
9.325030381775174
 21
14.94352065345618
 31
0.0
  0
LINE
  5
ABA
330
1E
100
AcDbEntity
  8
ZN-40C
100
AcDbLine
 10
9.325030381775174
 20
14.94352065345618
 30
0.0
 11
9.303389703097007
 21
14.95834313461559
 31
0.0
  0
LINE
  5
ABB
330
1E
100
AcDbEntity
  8
ZN-40C
100
AcDbLine
 10
9.303389703097007
 20
14.95834313461559
 30
0.0
 11
9.283726372674937
 21
14.97814155897978
 31
0.0
  0
LINE
  5
ABC
330
1E
100
AcDbEntity
  8
ZN-40C
100
AcDbLine
 10
9.283726372674937
 20
14.97814155897978
 30
0.0
 11
9.266609585096905
 21
15.00234282139536
 31
0.0
  0
LINE
  5
ABD
330
1E
100
AcDbEntity
  8
ZN-40C
100
AcDbLine
 10
9.266609585096905
 20
15.00234282139536
 30
0.0
 11
9.252534820154107
 21
15.03024636771957
 31
0.0
  0
LINE
  5
ABE
330
1E
100
AcDbEntity
  8
ZN-40C
100
AcDbLine
 10
9.252534820154107
 20
15.03024636771957
 30
0.0
 11
9.241909500183435
 21
15.06104447376682
 31
0.0
  0
LINE
  5
ABF
330
1E
100
AcDbEntity
  8
ZN-40C
100
AcDbLine
 10
9.241909500183435
 20
15.06104447376682
 30
0.0
 11
9.235041196409721
 21
15.0938456265073
 31
0.0
  0
LINE
  5
AC0
330
1E
100
AcDbEntity
  8
ZN-40C
100
AcDbLine
 10
8.999163204082297
 20
14.96974924211479
 30
0.0
 11
9.050931028107061
 21
14.96574333126704
 31
0.0
  0
LINE
  5
AC1
330
1E
100
AcDbEntity
  8
ZN-40C
100
AcDbLine
 10
9.050931028107061
 20
14.96574333126704
 30
0.0
 11
9.102698852131833
 21
14.95535414815611
 31
0.0
  0
LINE
  5
AC2
330
1E
100
AcDbEntity
  8
ZN-40C
100
AcDbLine
 10
9.102698852131833
 20
14.95535414815611
 30
0.0
 11
9.206234500181363
 21
14.9327184604409
 31
0.0
  0
LINE
  5
AC3
330
1E
100
AcDbEntity
  8
ZN-40C
100
AcDbLine
 10
9.206234500181363
 20
14.9327184604409
 30
0.0
 11
9.241556047654558
 21
14.92860601507713
 31
0.0
  0
LINE
  5
AC4
330
1E
100
AcDbEntity
  8
ZN-40C
100
AcDbLine
 10
9.241556047654558
 20
14.92860601507713
 30
0.0
 11
9.277402805823168
 21
14.92717070586218
 31
0.0
  0
LINE
  5
AC5
330
1E
100
AcDbEntity
  8
ZN-40C
100
AcDbLine
 10
8.999163204082318
 20
20.01359236117567
 30
0.0
 11
9.050931028107083
 21
20.01759827202342
 31
0.0
  0
LINE
  5
AC6
330
1E
100
AcDbEntity
  8
ZN-40C
100
AcDbLine
 10
9.050931028107083
 20
20.01759827202342
 30
0.0
 11
9.102698852131847
 21
20.02798745513435
 31
0.0
  0
LINE
  5
AC7
330
1E
100
AcDbEntity
  8
ZN-40C
100
AcDbLine
 10
9.102698852131847
 20
20.02798745513435
 30
0.0
 11
9.206234500181391
 21
20.05062314284956
 31
0.0
  0
LINE
  5
AC8
330
1E
100
AcDbEntity
  8
ZN-40C
100
AcDbLine
 10
9.206234500181391
 20
20.05062314284956
 30
0.0
 11
9.277402805823182
 21
20.05617089742828
 31
0.0
  0
LINE
  5
AC9
330
1E
100
AcDbEntity
  8
ZN-40C
100
AcDbLine
 10
8.767559836999598
 20
20.06327754479227
 30
0.0
 11
8.776496972999492
 21
20.06115380677174
 31
0.0
  0
LINE
  5
ACA
330
1E
100
AcDbEntity
  8
ZN-40C
100
AcDbLine
 10
8.776496972999492
 20
20.06115380677174
 30
0.0
 11
8.792412845522331
 21
20.05983969268071
 31
0.0
  0
LINE
  5
ACB
330
1E
100
AcDbEntity
  8
ZN-40C
100
AcDbLine
 10
9.235041196409735
 20
19.88949597678315
 30
0.0
 11
9.241909500183449
 21
19.92229712952364
 31
0.0
  0
LINE
  5
ACC
330
1E
100
AcDbEntity
  8
ZN-40C
100
AcDbLine
 10
9.241909500183449
 20
19.92229712952364
 30
0.0
 11
9.252534820154121
 21
19.95309523557088
 31
0.0
  0
LINE
  5
ACD
330
1E
100
AcDbEntity
  8
ZN-40C
100
AcDbLine
 10
9.252534820154121
 20
19.95309523557088
 30
0.0
 11
9.266609585096926
 21
19.98099878189509
 31
0.0
  0
LINE
  5
ACE
330
1E
100
AcDbEntity
  8
ZN-40C
100
AcDbLine
 10
9.266609585096926
 20
19.98099878189509
 30
0.0
 11
9.283726372674959
 21
20.00520004431067
 31
0.0
  0
LINE
  5
ACF
330
1E
100
AcDbEntity
  8
ZN-40C
100
AcDbLine
 10
9.283726372674959
 20
20.00520004431067
 30
0.0
 11
9.303389703097021
 21
20.02499846867486
 31
0.0
  0
LINE
  5
AD0
330
1E
100
AcDbEntity
  8
ZN-40C
100
AcDbLine
 10
9.303389703097021
 20
20.02499846867486
 30
0.0
 11
9.325030381775196
 21
20.03982094983427
 31
0.0
  0
LINE
  5
AD1
330
1E
100
AcDbEntity
  8
ZN-40C
100
AcDbLine
 10
9.325030381775196
 20
20.03982094983427
 30
0.0
 11
9.348021975805291
 21
20.04923842130453
 31
0.0
  0
LINE
  5
AD2
330
1E
100
AcDbEntity
  8
ZN-40C
100
AcDbLine
 10
9.348021975805291
 20
20.04923842130453
 30
0.0
 11
9.37169894732526
 21
20.05297827546132
 31
0.0
  0
LINE
  5
AD3
330
1E
100
AcDbEntity
  8
ZN-40C
100
AcDbLine
 10
16.80903951599568
 20
12.57402235761547
 30
0.0
 11
16.80010233923871
 21
12.63483827173151
 31
0.0
  0
LINE
  5
AD4
330
1E
100
AcDbEntity
  8
ZN-40C
100
AcDbLine
 10
16.80010233923871
 20
12.63483827173151
 30
0.0
 11
16.78418654976594
 21
12.67246957034487
 31
0.0
  0
LINE
  5
AD5
330
1E
100
AcDbEntity
  8
ZN-40C
  6
HIDDEN2
 62
     4
100
AcDbLine
 10
16.97187430158102
 20
11.57248967957173
 30
0.0
 11
16.97188163482963
 21
11.57286975726437
 31
0.0
  0
LINE
  5
AD6
330
1E
100
AcDbEntity
  8
ZN-40C
  6
HIDDEN2
 62
     4
100
AcDbLine
 10
16.97188163482963
 20
11.57286975726437
 30
0.0
 11
16.97550161967793
 21
11.76101818834097
 31
0.0
  0
LINE
  5
AD7
330
1E
100
AcDbEntity
  8
ZN-40C
  6
HIDDEN2
 62
     4
100
AcDbLine
 10
16.97550161967793
 20
11.76101818834097
 30
0.0
 11
16.98168032163437
 21
12.77548968691436
 31
0.0
  0
LINE
  5
AD8
330
1E
100
AcDbEntity
  8
ZN-40C
  6
HIDDEN2
 62
     4
100
AcDbLine
 10
16.9796883179795
 20
11.57248967957173
 30
0.0
 11
16.97977074369398
 21
11.57572816132718
 31
0.0
  0
LINE
  5
AD9
330
1E
100
AcDbEntity
  8
ZN-40C
  6
HIDDEN2
 62
     4
100
AcDbLine
 10
16.97977074369398
 20
11.57572816132718
 30
0.0
 11
16.98453412866695
 21
11.76402243696897
 31
0.0
  0
LINE
  5
ADA
330
1E
100
AcDbEntity
  8
ZN-40C
  6
HIDDEN2
 62
     4
100
AcDbLine
 10
16.98453412866695
 20
11.76402243696897
 30
0.0
 11
16.99261654196488
 21
12.77548968691436
 31
0.0
  0
LINE
  5
ADB
330
1E
100
AcDbEntity
  8
ZN-40C
100
AcDbLine
 10
16.80903950418472
 20
14.92006405849817
 30
0.0
 11
16.80010236818483
 21
14.9221877965187
 31
0.0
  0
LINE
  5
ADC
330
1E
100
AcDbEntity
  8
ZN-40C
100
AcDbLine
 10
16.80010236818483
 20
14.9221877965187
 30
0.0
 11
16.78418649566229
 21
14.92350191060972
 31
0.0
  0
LINE
  5
ADD
330
1E
100
AcDbEntity
  8
ZN-40C
100
AcDbLine
 10
16.34155814477459
 20
19.88949597678313
 30
0.0
 11
16.33468984100089
 21
19.92229712952361
 31
0.0
  0
LINE
  5
ADE
330
1E
100
AcDbEntity
  8
ZN-40C
100
AcDbLine
 10
16.33468984100089
 20
19.92229712952361
 30
0.0
 11
16.32406452103022
 21
19.95309523557085
 31
0.0
  0
LINE
  5
ADF
330
1E
100
AcDbEntity
  8
ZN-40C
100
AcDbLine
 10
16.32406452103022
 20
19.95309523557085
 30
0.0
 11
16.30998975608741
 21
19.98099878189507
 31
0.0
  0
LINE
  5
AE0
330
1E
100
AcDbEntity
  8
ZN-40C
100
AcDbLine
 10
16.30998975608741
 20
19.98099878189507
 30
0.0
 11
16.29287296850938
 21
20.00520004431065
 31
0.0
  0
LINE
  5
AE1
330
1E
100
AcDbEntity
  8
ZN-40C
100
AcDbLine
 10
16.29287296850938
 20
20.00520004431065
 30
0.0
 11
16.27320963808732
 21
20.02499846867483
 31
0.0
  0
LINE
  5
AE2
330
1E
100
AcDbEntity
  8
ZN-40C
100
AcDbLine
 10
16.27320963808732
 20
20.02499846867483
 30
0.0
 11
16.25156895940914
 21
20.03982094983425
 31
0.0
  0
LINE
  5
AE3
330
1E
100
AcDbEntity
  8
ZN-40C
100
AcDbLine
 10
16.25156895940914
 20
20.03982094983425
 30
0.0
 11
16.22857736537905
 21
20.04923842130451
 31
0.0
  0
LINE
  5
AE4
330
1E
100
AcDbEntity
  8
ZN-40C
100
AcDbLine
 10
16.22857736537905
 20
20.04923842130451
 30
0.0
 11
16.20490039385908
 21
20.05297827546129
 31
0.0
  0
LINE
  5
AE5
330
1E
100
AcDbEntity
  8
ZN-40C
100
AcDbLine
 10
16.57743613710203
 20
20.01359236117564
 30
0.0
 11
16.52566831307726
 21
20.01759827202339
 31
0.0
  0
LINE
  5
AE6
330
1E
100
AcDbEntity
  8
ZN-40C
100
AcDbLine
 10
16.52566831307726
 20
20.01759827202339
 30
0.0
 11
16.4739004890525
 21
20.02798745513432
 31
0.0
  0
LINE
  5
AE7
330
1E
100
AcDbEntity
  8
ZN-40C
100
AcDbLine
 10
16.4739004890525
 20
20.02798745513432
 30
0.0
 11
16.37036484100297
 21
20.05062314284953
 31
0.0
  0
LINE
  5
AE8
330
1E
100
AcDbEntity
  8
ZN-40C
100
AcDbLine
 10
16.37036484100297
 20
20.05062314284953
 30
0.0
 11
16.29919653536116
 21
20.05617089742825
 31
0.0
  0
LINE
  5
AE9
330
1E
100
AcDbEntity
  8
ZN-40C
100
AcDbLine
 10
16.80903950418473
 20
20.06327754479224
 30
0.0
 11
16.80010236818485
 21
20.0611538067717
 31
0.0
  0
LINE
  5
AEA
330
1E
100
AcDbEntity
  8
ZN-40C
100
AcDbLine
 10
16.80010236818485
 20
20.0611538067717
 30
0.0
 11
16.7841864956623
 21
20.05983969268071
 31
0.0
  0
LINE
  5
B09
330
1E
100
AcDbEntity
  8
ZN-40C
100
AcDbLine
 10
5.946728109088926
 20
20.05297830653575
 30
0.0
 11
5.949077975276399
 21
20.05289617415122
 31
0.0
  0
LINE
  5
B0A
330
1E
100
AcDbEntity
  8
ZN-40C
100
AcDbLine
 10
5.949077975276399
 20
20.05289617415122
 30
0.0
 11
5.95017414927997
 21
20.0528580412584
 31
0.0
  0
LINE
  5
B0B
330
1E
100
AcDbEntity
  8
ZN-40C
100
AcDbLine
 10
5.95017414927997
 20
20.0528580412584
 30
0.0
 11
5.950242788487049
 21
20.0528554012889
 31
0.0
  0
LINE
  5
B0C
330
1E
100
AcDbEntity
  8
ZN-40EP
100
AcDbLine
 10
27.71886111311643
 20
14.01711466127833
 30
0.0
 11
20.08215742807066
 21
14.01711466127833
 31
0.0
  0
LINE
  5
B0D
330
1E
100
AcDbEntity
  8
ZN-40EP
100
AcDbLine
 10
27.71886111311643
 20
14.060511492058
 30
0.0
 11
20.08215742807066
 21
14.060511492058
 31
0.0
  0
LINE
  5
B0E
330
1E
100
AcDbEntity
  8
ZN-40EP
100
AcDbLine
 10
27.71886111311643
 20
14.105511492058
 30
0.0
 11
20.08215742807065
 21
14.105511492058
 31
0.0
  0
DIMENSION
  5
B0F
330
1E
100
AcDbEntity
  8
0
100
AcDbDimension
  2
*D19
 10
27.86290413178672
 20
10.66404839579386
 30
0.0
 11
23.90050927059354
 21
10.66404839579386
 31
0.0
 70
    32
 71
     5
 42
7.924789722386357
  3
STANDARD
100
AcDbAlignedDimension
 13
19.93811440940036
 23
11.84775892067281
 33
0.0
 14
27.86290413178672
 24
11.84775892067304
 34
0.0
100
AcDbRotatedDimension
1001
ACAD
1000
DSTYLE
1002
{
1070
   141
1040
0.0
1002
}
  0
LINE
  5
B10
330
1E
100
AcDbEntity
  8
ZN-40EP
100
AcDbLine
 10
20.0810053937854
 20
11.08675892067304
 30
0.0
 11
27.72001314740169
 21
11.08675892067304
 31
0.0
  0
LINE
  5
B11
330
1E
100
AcDbEntity
  8
ZN-40EP
100
AcDbLine
 10
27.71886111311643
 20
12.67475892067304
 30
0.0
 11
20.08215742807066
 21
12.67475892067304
 31
0.0
  0
LINE
  5
B12
330
1E
100
AcDbEntity
  8
ZN-40EP
100
AcDbLine
 10
20.0810053937854
 20
11.15675892067304
 30
0.0
 11
27.72001314740169
 21
11.15675892067304
 31
0.0
  0
LINE
  5
B13
330
1E
100
AcDbEntity
  8
ZN-40EP
100
AcDbLine
 10
27.71886111311643
 20
12.60475892067304
 30
0.0
 11
20.08215742807066
 21
12.60475892067304
 31
0.0
  0
LINE
  5
B14
330
1E
100
AcDbEntity
  8
ZN-40EP
100
AcDbLine
 10
27.71886111311643
 20
12.60096218994687
 30
0.0
 11
20.08215742807066
 21
12.60096218994687
 31
0.0
  0
LINE
  5
B15
330
1E
100
AcDbEntity
  8
ZN-40EP
100
AcDbLine
 10
20.0810053937854
 20
11.16055565139922
 30
0.0
 11
27.72001314740169
 21
11.16055565139922
 31
0.0
  0
DIMENSION
  5
B16
330
1E
100
AcDbEntity
  8
0
100
AcDbDimension
  2
*D20
 10
19.48555625776027
 20
11.15675892067304
 30
0.0
 11
19.48555625776027
 21
11.890405290131
 31
0.0
 70
   160
 71
     5
 42
1.447999999999996
  3
STANDARD
100
AcDbAlignedDimension
 13
20.08215742807066
 23
12.60475892067304
 33
0.0
 14
20.0810053937854
 24
11.15675892067304
 34
0.0
 50
90.0
100
AcDbRotatedDimension
1001
ACAD
1000
DSTYLE
1002
{
1070
   141
1040
0.0
1002
}
  0
DIMENSION
  5
B17
330
1E
100
AcDbEntity
  8
0
100
AcDbDimension
  2
*D21
 10
18.81145341021855
 20
12.67475892067304
 30
0.0
 11
18.81145341021855
 21
11.89840391904658
 31
0.0
 70
   160
 71
     5
 42
1.587999999999997
  3
STANDARD
100
AcDbAlignedDimension
 13
20.0810053937854
 23
11.08675892067304
 33
0.0
 14
20.08215742807066
 24
12.67475892067304
 34
0.0
 50
90.0
100
AcDbRotatedDimension
1001
ACAD
1000
DSTYLE
1002
{
1070
   141
1040
0.0
1002
}
  0
LINE
  5
B18
330
1E
100
AcDbEntity
  8
ZN-40EP
100
AcDbLine
 10
19.93811440940036
 20
11.84775892067281
 30
0.0
 11
19.94302641185381
 21
11.2223504885847
 31
0.0
  0
LINE
  5
B19
330
1E
100
AcDbEntity
  8
ZN-40EP
100
AcDbLine
 10
20.00812507236343
 20
11.84775892067281
 30
0.0
 11
20.01301575051476
 21
11.22357215703531
 31
0.0
  0
LINE
  5
B1A
330
1E
100
AcDbEntity
  8
ZN-40EP
100
AcDbLine
 10
20.01192238143818
 20
11.84775892067281
 30
0.0
 11
20.01681190298046
 21
11.22363841912308
 31
0.0
  0
ARC
  5
B1B
330
1E
100
AcDbEntity
  8
ZN-40EP
100
AcDbCircle
 10
20.0810053937854
 20
11.22475892067305
 30
0.0
 40
0.1380000000000008
100
AcDbArc
 50
181.0000000000199
 51
270.0000000000008
  0
ARC
  5
B1C
330
1E
100
AcDbEntity
  8
ZN-40EP
100
AcDbCircle
 10
20.0810053937854
 20
11.22475892067305
 30
0.0
 40
0.0680000000000005
100
AcDbArc
 50
181.0000000000137
 51
270.0000000000008
  0
ARC
  5
B1D
330
1E
100
AcDbEntity
  8
ZN-40EP
100
AcDbCircle
 10
20.0810053937854
 20
11.22475892067305
 30
0.0
 40
0.0642032692738264
100
AcDbArc
 50
181.0000000000133
 51
270.0000000000008
  0
ARC
  5
B20
330
1E
100
AcDbEntity
  8
ZN-40EP
100
AcDbCircle
 10
20.08215742807066
 20
12.53675892067304
 30
0.0
 40
0.138
100
AcDbArc
 50
90.0
 51
179.0
  0
ARC
  5
B21
330
1E
100
AcDbEntity
  8
ZN-40EP
100
AcDbCircle
 10
20.08215742807066
 20
12.53675892067304
 30
0.0
 40
0.0680000000000002
100
AcDbArc
 50
90.0
 51
179.0
  0
ARC
  5
B22
330
1E
100
AcDbEntity
  8
ZN-40EP
100
AcDbCircle
 10
20.08215742807066
 20
12.53675892067304
 30
0.0
 40
0.0642032692738261
100
AcDbArc
 50
90.0
 51
178.9999999999986
  0
LINE
  5
B23
330
1E
100
AcDbEntity
  8
ZN-40EP
100
AcDbLine
 10
19.94417844613908
 20
12.53916735276139
 30
0.0
 11
19.93811440940036
 21
11.84775892067281
 31
0.0
  0
LINE
  5
B24
330
1E
100
AcDbEntity
  8
ZN-40EP
100
AcDbLine
 10
20.01416778480002
 20
12.53794568431078
 30
0.0
 11
20.00812507236343
 21
11.84775892067281
 31
0.0
  0
LINE
  5
B25
330
1E
100
AcDbEntity
  8
ZN-40EP
100
AcDbLine
 10
20.01796393726572
 20
12.53787942222301
 30
0.0
 11
20.01192238143818
 21
11.84775892067281
 31
0.0
  0
DIMENSION
  5
B29
330
1E
100
AcDbEntity
  8
0
100
AcDbDimension
  2
*D22
 10
19.66845008902824
 20
14.105511492058
 30
0.0
 11
20.33034001058349
 21
14.600511492058
 31
0.0
 70
    32
 71
     5
 42
0.0449999999999946
  3
STANDARD
100
AcDbAlignedDimension
 13
19.94417844613908
 23
14.060511492058
 33
0.0
 14
19.94535663313877
 24
14.105511492058
 34
0.0
 50
90.0
100
AcDbRotatedDimension
1001
ACAD
1000
DSTYLE
1002
{
1070
   141
1040
0.0
1002
}
  0
LINE
  5
B2A
330
1E
100
AcDbEntity
  8
ZN-40EP
100
AcDbLine
 10
20.08215742807066
 20
14.01711466127833
 30
0.0
 11
20.01796393726572
 21
14.01711466127833
 31
0.0
  0
LINE
  5
B2B
330
1E
100
AcDbEntity
  8
ZN-40EP
100
AcDbLine
 10
20.08215742807066
 20
14.060511492058
 30
0.0
 11
19.94417844613908
 21
14.060511492058
 31
0.0
  0
LINE
  5
B2C
330
1E
100
AcDbEntity
  8
ZN-40EP
100
AcDbLine
 10
20.08215742807065
 20
14.105511492058
 30
0.0
 11
19.94535663313877
 21
14.105511492058
 31
0.0
  0
LINE
  5
B2D
330
1E
100
AcDbEntity
  8
ZN-40EP
100
AcDbLine
 10
20.01796393726572
 20
14.01711466127833
 30
0.0
 11
20.01192233153683
 21
14.01711466046523
 31
0.0
  0
LINE
  5
B2E
330
1E
100
AcDbEntity
  8
ZN-40EP
100
AcDbLine
 10
20.01192233153683
 20
14.01711466046523
 30
0.0
 11
20.00812517540191
 21
14.060511492058
 31
0.0
  0
LINE
  5
B2F
330
1E
100
AcDbEntity
  8
ZN-40EP
100
AcDbLine
 10
19.94417844613908
 20
14.060511492058
 30
0.0
 11
19.93811435750619
 21
14.060511492058
 31
0.0
  0
LINE
  5
B30
330
1E
100
AcDbEntity
  8
ZN-40EP
100
AcDbLine
 10
19.94535663313877
 20
14.105511492058
 30
0.0
 11
19.93929295722424
 21
14.10551149096417
 31
0.0
  0
LINE
  5
B31
330
1E
100
AcDbEntity
  8
ZN-40EP
100
AcDbLine
 10
19.93929295722424
 20
14.10551149096417
 30
0.0
 11
19.93811435750619
 21
14.060511492058
 31
0.0
  0
LINE
  5
B32
330
1E
100
AcDbEntity
  8
ZN-40EP
100
AcDbLine
 10
20.01796393726572
 20
14.01711466127833
 30
0.0
 11
20.01416777226398
 21
14.060511492058
 31
0.0
  0
LINE
  5
B33
330
1E
100
AcDbEntity
  8
ZN-40EP
100
AcDbLine
 10
19.94535663313877
 20
14.105511492058
 30
0.0
 11
19.94417844613908
 21
14.060511492058
 31
0.0
  0
LINE
  5
B34
330
1E
100
AcDbEntity
  8
ZN-40EP
100
AcDbLine
 10
20.08215742807066
 20
14.01711466127833
 30
0.0
 11
20.08215742807066
 21
14.060511492058
 31
0.0
  0
LINE
  5
B35
330
1E
100
AcDbEntity
  8
ZN-40EP
100
AcDbLine
 10
20.08215742807065
 20
14.105511492058
 30
0.0
 11
20.08215742807066
 21
14.060511492058
 31
0.0
  0
LINE
  5
B36
330
1E
100
AcDbEntity
  8
ZN-40EP
100
AcDbLine
 10
27.85799212933327
 20
11.2223504885847
 30
0.0
 11
27.86290413178672
 21
11.84775892067304
 31
0.0
  0
LINE
  5
B37
330
1E
100
AcDbEntity
  8
ZN-40EP
100
AcDbLine
 10
27.78800279067232
 20
11.22357215703531
 30
0.0
 11
27.79289346882365
 21
11.84775892067304
 31
0.0
  0
LINE
  5
B38
330
1E
100
AcDbEntity
  8
ZN-40EP
100
AcDbLine
 10
27.78420663820664
 20
11.22363841912308
 30
0.0
 11
27.78909615974891
 21
11.84775892067304
 31
0.0
  0
DIMENSION
  5
B39
330
1E
100
AcDbEntity
  8
0
100
AcDbDimension
  2
*D23
 10
27.72001314740165
 20
11.22475892067304
 30
0.0
 11
28.91640150523977
 21
10.67268864650527
 31
0.0
 70
    36
  1
<>\P(4 PLCS.)
 71
     5
 42
0.1380000000000017
  3
STANDARD$4
100
AcDbRadialDimension
 15
27.78752833259194
 25
11.10440236801087
 35
0.0
 40
0.0
  0
ARC
  5
B3A
330
1E
100
AcDbEntity
  8
ZN-40EP
100
AcDbCircle
 10
27.72001314740169
 20
11.22475892067305
 30
0.0
 40
0.1380000000000003
100
AcDbArc
 50
270.0000000000008
 51
358.999999999987
  0
ARC
  5
B3B
330
1E
100
AcDbEntity
  8
ZN-40EP
100
AcDbCircle
 10
27.72001314740169
 20
11.22475892067305
 30
0.0
 40
0.0680000000000001
100
AcDbArc
 50
270.0000000000008
 51
358.9999999999662
  0
ARC
  5
B3C
330
1E
100
AcDbEntity
  8
ZN-40EP
100
AcDbCircle
 10
27.72001314740169
 20
11.22475892067305
 30
0.0
 40
0.064203269273827
100
AcDbArc
 50
270.0000000000008
 51
359.0
  0
DIMENSION
  5
B3F
330
1E
100
AcDbEntity
  8
0
100
AcDbDimension
  2
*D24
 10
27.71886111311642
 20
12.53675892067304
 30
0.0
 11
28.84690629064111
 21
13.04540525123899
 31
0.0
 70
    36
  1
<>\P(4 PLCS.)
 71
     5
 42
0.0679999999999979
  3
STANDARD$4
100
AcDbRadialDimension
 15
27.74801125633558
 25
12.59819400145188
 35
0.0
 40
0.0
  0
ARC
  5
B40
330
1E
100
AcDbEntity
  8
ZN-40EP
100
AcDbCircle
 10
27.71886111311643
 20
12.53675892067304
 30
0.0
 40
0.1379999999999995
100
AcDbArc
 50
1.000000000034959
 51
90.0
  0
ARC
  5
B41
330
1E
100
AcDbEntity
  8
ZN-40EP
100
AcDbCircle
 10
27.71886111311643
 20
12.53675892067304
 30
0.0
 40
0.0680000000000001
100
AcDbArc
 50
1.000000000034552
 51
90.0
  0
ARC
  5
B42
330
1E
100
AcDbEntity
  8
ZN-40EP
100
AcDbCircle
 10
27.71886111311643
 20
12.53675892067304
 30
0.0
 40
0.064203269273827
100
AcDbArc
 50
0.9999999999991286
 51
90.0
  0
LINE
  5
B43
330
1E
100
AcDbEntity
  8
ZN-40EP
100
AcDbLine
 10
27.86290413178672
 20
11.84775892067304
 30
0.0
 11
27.85684009504802
 21
12.53916735276139
 31
0.0
  0
LINE
  5
B44
330
1E
100
AcDbEntity
  8
ZN-40EP
100
AcDbLine
 10
27.79289346882365
 20
11.84775892067304
 30
0.0
 11
27.78685075638707
 21
12.53794568431078
 31
0.0
  0
LINE
  5
B45
330
1E
100
AcDbEntity
  8
ZN-40EP
100
AcDbLine
 10
27.78909615974891
 20
11.84775892067304
 30
0.0
 11
27.78305460392137
 21
12.53787942222301
 31
0.0
  0
DIMENSION
  5
B49
330
1E
100
AcDbEntity
  8
0
100
AcDbDimension
  2
*D25
 10
28.3954502638676
 20
14.10551149205799
 30
0.0
 11
27.73402930547742
 21
13.52211466046524
 31
0.0
 70
   160
 71
     5
 42
0.0883968315927604
  3
STANDARD
100
AcDbAlignedDimension
 13
27.78909619562738
 23
14.01711466046523
 33
0.0
 14
27.85566190804832
 24
14.105511492058
 34
0.0
 50
90.0
100
AcDbRotatedDimension
1001
ACAD
1000
DSTYLE
1002
{
1070
   141
1040
0.0
1002
}
  0
LINE
  5
B4A
330
1E
100
AcDbEntity
  8
ZN-40EP
100
AcDbLine
 10
27.78305460392137
 20
14.01711466127833
 30
0.0
 11
27.71886111311643
 21
14.01711466127833
 31
0.0
  0
LINE
  5
B4B
330
1E
100
AcDbEntity
  8
ZN-40EP
100
AcDbLine
 10
27.85684009504802
 20
14.060511492058
 30
0.0
 11
27.71886111311643
 21
14.060511492058
 31
0.0
  0
LINE
  5
B4C
330
1E
100
AcDbEntity
  8
ZN-40EP
100
AcDbLine
 10
27.85566190804832
 20
14.105511492058
 30
0.0
 11
27.71886111311643
 21
14.105511492058
 31
0.0
  0
LINE
  5
B4D
330
1E
100
AcDbEntity
  8
ZN-40EP
100
AcDbLine
 10
27.71886111311643
 20
14.01711466127833
 30
0.0
 11
27.71886111311643
 21
14.060511492058
 31
0.0
  0
LINE
  5
B4E
330
1E
100
AcDbEntity
  8
ZN-40EP
100
AcDbLine
 10
27.71886111311643
 20
14.105511492058
 30
0.0
 11
27.71886111311643
 21
14.060511492058
 31
0.0
  0
LINE
  5
B4F
330
1E
100
AcDbEntity
  8
ZN-40EP
100
AcDbLine
 10
27.78909619562738
 20
14.01711466046523
 30
0.0
 11
27.78305460392137
 21
14.01711466127833
 31
0.0
  0
LINE
  5
B50
330
1E
100
AcDbEntity
  8
ZN-40EP
100
AcDbLine
 10
27.78909619562738
 20
14.01711466046523
 30
0.0
 11
27.7928933517623
 21
14.060511492058
 31
0.0
  0
LINE
  5
B51
330
1E
100
AcDbEntity
  8
ZN-40EP
100
AcDbLine
 10
27.86290416965802
 20
14.060511492058
 30
0.0
 11
27.85684009504802
 21
14.060511492058
 31
0.0
  0
LINE
  5
B52
330
1E
100
AcDbEntity
  8
ZN-40EP
100
AcDbLine
 10
27.86172556993998
 20
14.10551149096417
 30
0.0
 11
27.85566190804832
 21
14.105511492058
 31
0.0
  0
LINE
  5
B53
330
1E
100
AcDbEntity
  8
ZN-40EP
100
AcDbLine
 10
27.86172556993998
 20
14.10551149096417
 30
0.0
 11
27.86290416965802
 21
14.060511492058
 31
0.0
  0
LINE
  5
B54
330
1E
100
AcDbEntity
  8
ZN-40EP
100
AcDbLine
 10
27.78305460392137
 20
14.01711466127833
 30
0.0
 11
27.78685075490023
 21
14.060511492058
 31
0.0
  0
LINE
  5
B55
330
1E
100
AcDbEntity
  8
ZN-40EP
100
AcDbLine
 10
27.85566190804832
 20
14.105511492058
 30
0.0
 11
27.85684009504802
 21
14.060511492058
 31
0.0
  0
DIMENSION
  5
B78
330
1E
100
AcDbEntity
  8
0
100
AcDbDimension
  2
*D26
 10
7.677025056210373
 20
7.721323679775212
 30
0.0
 11
7.677025056210371
 21
6.889726533340354
 31
0.0
 70
   160
 71
     5
 42
1.659999999999986
  3
STANDARD
100
AcDbAlignedDimension
 13
8.098354529579129
 23
6.061323679775225
 33
0.0
 14
9.978299670592225
 24
7.721323679775212
 34
0.0
 50
90.00000000000019
100
AcDbRotatedDimension
1001
ACAD
1000
DSTYLE
1002
{
1070
   141
1040
0.0
1002
}
  0
DIMENSION
  5
B79
330
1E
100
AcDbEntity
  8
0
100
AcDbDimension
  2
*D27
 10
7.677025056210372
 20
4.421323679775208
 30
0.0
 11
7.677025056210371
 21
5.31247308578325
 31
0.0
 70
   160
 71
     5
 42
1.640000000000016
  3
STANDARD
100
AcDbAlignedDimension
 13
8.098354529579129
 23
6.061323679775225
 33
0.0
 14
9.978299670592225
 24
4.421323679775208
 34
0.0
 50
269.9999999999997
100
AcDbRotatedDimension
1001
ACAD
1000
DSTYLE
1002
{
1070
   141
1040
0.0
1002
}
  0
DIMENSION
  5
B7A
330
1E
100
AcDbEntity
  8
0
100
AcDbDimension
  2
*D28
 10
18.85688543907272
 20
7.31132367977518
 30
0.0
 11
18.85688543907272
 21
6.131443452571901
 31
0.0
 70
   160
 71
     5
 42
2.500000000000002
  3
STANDARD
100
AcDbAlignedDimension
 13
16.88329967059222
 23
4.811323679775179
 33
0.0
 14
16.88329967059222
 24
7.311323679775181
 34
0.0
 50
90.00000000000019
100
AcDbRotatedDimension
1001
ACAD
1000
DSTYLE
1002
{
1070
   141
1040
0.0
1002
}
  0
DIMENSION
  5
B7B
330
1E
100
AcDbEntity
  8
0
100
AcDbDimension
  2
*D29
 10
10.00829967059221
 20
2.464945659538478
 30
0.0
 11
12.8231905630643
 21
2.464945659538478
 31
0.0
 70
   160
 71
     5
 42
5.560000000000002
  3
STANDARD
100
AcDbAlignedDimension
 13
15.56829967059221
 23
4.391323679775186
 33
0.0
 14
10.00829967059221
 24
4.391323679775207
 34
0.0
 50
0.0000000000004071
100
AcDbRotatedDimension
1001
ACAD
1000
DSTYLE
1002
{
1070
   141
1040
0.0
1002
}
  0
DIMENSION
  5
B7C
330
1E
100
AcDbEntity
  8
0
100
AcDbDimension
  2
*D32
 10
15.53293494998112
 20
4.44915058287451
 30
0.0
 11
18.52622019211969
 21
2.904258214913834
 31
0.0
 70
   163
  1
<> I.D.\P%%c0.188 O.D.\P(6 PLCS.)
 71
     5
 42
0.0899999999999963
  3
STANDARD$3
100
AcDbDiametricDimension
 15
15.6036643912033
 25
4.393496776675863
 35
0.0
 40
0.0
1001
ACAD
1000
DSTYLE
1002
{
1070
   288
1070
     1
1002
}
  0
LINE
  5
B7E
330
1E
100
AcDbEntity
  8
0
 62
     1
100
AcDbLine
 10
15.56829967059222
 20
4.451323679775185
 30
0.0
 11
15.56829967059222
 21
4.391323679775183
 31
0.0
  0
LINE
  5
B7F
330
1E
100
AcDbEntity
  8
0
 62
     1
100
AcDbLine
 10
15.56829967059221
 20
4.451323679775189
 30
0.0
 11
15.56829967059221
 21
4.391323679775187
 31
0.0
  0
CIRCLE
  5
B80
330
1E
100
AcDbEntity
  8
ZN-40BMB
  6
HIDDEN2
 62
     4
100
AcDbCircle
 10
15.56829967059221
 20
4.421323679775188
 30
0.0
 40
0.0940000000000003
  0
CIRCLE
  5
B81
330
1E
100
AcDbEntity
  8
ZN-40BMB
  6
HIDDEN2
 62
     4
100
AcDbCircle
 10
15.56829967059221
 20
4.421323679775188
 30
0.0
 40
0.096932450907941
  0
LINE
  5
B82
330
1E
100
AcDbEntity
  8
0
 62
     1
100
AcDbLine
 10
15.59829967059222
 20
4.421323679775184
 30
0.0
 11
15.53829967059222
 21
4.421323679775184
 31
0.0
  0
CIRCLE
  5
B83
330
1E
100
AcDbEntity
  8
ZN-40BMB
  6
HIDDEN2
 62
     4
100
AcDbCircle
 10
15.56829967059221
 20
4.421323679775188
 30
0.0
 40
0.0449999999999999
  0
CIRCLE
  5
B84
330
1E
100
AcDbEntity
  8
ZN-40BMB
  6
HIDDEN2
 62
     4
100
AcDbCircle
 10
15.56829967059221
 20
4.421323679775188
 30
0.0
 40
0.0417184477934942
  0
LINE
  5
B85
330
1E
100
AcDbEntity
  8
0
 62
     1
100
AcDbLine
 10
15.59829967059221
 20
4.421323679775188
 30
0.0
 11
15.53829967059222
 21
4.421323679775188
 31
0.0
  0
CIRCLE
  5
B86
330
1E
100
AcDbEntity
  8
ZN-40BMB
  6
HIDDEN2
 62
     4
100
AcDbCircle
 10
15.56829967059221
 20
4.421323679775184
 30
0.0
 40
0.0449999999999999
  0
CIRCLE
  5
B87
330
1E
100
AcDbEntity
  8
ZN-40BMB
  6
HIDDEN2
 62
     4
100
AcDbCircle
 10
15.56829967059221
 20
4.421323679775184
 30
0.0
 40
0.041718447793496
  0
LINE
  5
B88
330
1E
100
AcDbEntity
  8
0
 62
     1
100
AcDbLine
 10
15.56829967059222
 20
7.75132367977519
 30
0.0
 11
15.56829967059222
 21
7.691323679775187
 31
0.0
  0
CIRCLE
  5
B89
330
1E
100
AcDbEntity
  8
ZN-40BMB
  6
HIDDEN2
 62
     4
100
AcDbCircle
 10
15.56829967059222
 20
7.721323679775188
 30
0.0
 40
0.0939999999999994
  0
CIRCLE
  5
B8A
330
1E
100
AcDbEntity
  8
ZN-40BMB
  6
HIDDEN2
 62
     4
100
AcDbCircle
 10
15.56829967059222
 20
7.721323679775188
 30
0.0
 40
0.0969324509079401
  0
CIRCLE
  5
B8B
330
1E
100
AcDbEntity
  8
ZN-40BMB
  6
HIDDEN2
 62
     4
100
AcDbCircle
 10
15.56829967059222
 20
7.721323679775188
 30
0.0
 40
0.0449999999999991
  0
CIRCLE
  5
B8C
330
1E
100
AcDbEntity
  8
ZN-40BMB
  6
HIDDEN2
 62
     4
100
AcDbCircle
 10
15.56829967059222
 20
7.721323679775188
 30
0.0
 40
0.0417184477934933
  0
LINE
  5
B8D
330
1E
100
AcDbEntity
  8
0
 62
     1
100
AcDbLine
 10
15.59829967059223
 20
7.721323679775188
 30
0.0
 11
15.53829967059222
 21
7.721323679775188
 31
0.0
  0
LINE
  5
B8E
330
1E
100
AcDbEntity
  8
ZN-40BMB
  6
CENTER2
 62
     1
 48
0.8
100
AcDbLine
 10
9.978299670592225
 20
7.72132367977521
 30
0.0
 11
15.59829967059223
 21
7.721323679775188
 31
0.0
  0
LINE
  5
B8F
330
1E
100
AcDbEntity
  8
0
 62
     1
100
AcDbLine
 10
10.00829967059222
 20
7.751323679775211
 30
0.0
 11
10.00829967059222
 21
7.691323679775216
 31
0.0
  0
CIRCLE
  5
B90
330
1E
100
AcDbEntity
  8
ZN-40BMB
  6
HIDDEN2
 62
     4
100
AcDbCircle
 10
10.00829967059222
 20
7.72132367977521
 30
0.0
 40
0.0449999999999982
  0
CIRCLE
  5
B91
330
1E
100
AcDbEntity
  8
ZN-40BMB
  6
HIDDEN2
 62
     4
100
AcDbCircle
 10
10.00829967059222
 20
7.72132367977521
 30
0.0
 40
0.0417184477934942
  0
CIRCLE
  5
B92
330
1E
100
AcDbEntity
  8
ZN-40BMB
  6
HIDDEN2
 62
     4
100
AcDbCircle
 10
10.00829967059222
 20
7.72132367977521
 30
0.0
 40
0.0940000000000012
  0
CIRCLE
  5
B93
330
1E
100
AcDbEntity
  8
ZN-40BMB
  6
HIDDEN2
 62
     4
100
AcDbCircle
 10
10.00829967059222
 20
7.72132367977521
 30
0.0
 40
0.0969324509079392
  0
LINE
  5
B94
330
1E
100
AcDbEntity
  8
0
 62
     1
100
AcDbLine
 10
10.03829967059222
 20
7.72132367977521
 30
0.0
 11
9.978299670592225
 21
7.72132367977521
 31
0.0
  0
LINE
  5
B95
330
1E
100
AcDbEntity
  8
0
 62
     1
100
AcDbLine
 10
12.78829967059222
 20
7.751323679775197
 30
0.0
 11
12.78829967059222
 21
7.691323679775202
 31
0.0
  0
CIRCLE
  5
B96
330
1E
100
AcDbEntity
  8
ZN-40BMB
100
AcDbCircle
 10
12.78829967059222
 20
7.721323679775203
 30
0.0
 40
0.0939999999999994
  0
CIRCLE
  5
B97
330
1E
100
AcDbEntity
  8
ZN-40BMB
100
AcDbCircle
 10
12.78829967059222
 20
7.721323679775203
 30
0.0
 40
0.0969324509079401
  0
CIRCLE
  5
B98
330
1E
100
AcDbEntity
  8
ZN-40BMB
100
AcDbCircle
 10
12.78829967059222
 20
7.721323679775203
 30
0.0
 40
0.0449999999999999
  0
CIRCLE
  5
B99
330
1E
100
AcDbEntity
  8
ZN-40BMB
100
AcDbCircle
 10
12.78829967059222
 20
7.721323679775203
 30
0.0
 40
0.0417184477934942
  0
LINE
  5
B9A
330
1E
100
AcDbEntity
  8
0
 62
     1
100
AcDbLine
 10
12.81829967059222
 20
7.721323679775203
 30
0.0
 11
12.75829967059222
 21
7.721323679775203
 31
0.0
  0
LINE
  5
B9B
330
1E
100
AcDbEntity
  8
ZN-40BMB
  6
CENTER2
 62
     1
 48
0.8
100
AcDbLine
 10
10.00829967059221
 20
4.391323679775208
 30
0.0
 11
10.00829967059222
 21
7.751323679775211
 31
0.0
  0
CIRCLE
  5
B9C
330
1E
100
AcDbEntity
  8
ZN-40BMB
  6
HIDDEN2
 62
     4
100
AcDbCircle
 10
10.00829967059221
 20
4.421323679775206
 30
0.0
 40
0.0939999999999994
  0
CIRCLE
  5
B9D
330
1E
100
AcDbEntity
  8
ZN-40BMB
  6
HIDDEN2
 62
     4
100
AcDbCircle
 10
10.00829967059221
 20
4.421323679775206
 30
0.0
 40
0.096932450907941
  0
LINE
  5
B9E
330
1E
100
AcDbEntity
  8
ZN-40BMB
  6
CENTER2
 62
     1
 48
0.8
100
AcDbLine
 10
15.59829967059222
 20
4.421323679775184
 30
0.0
 11
9.978299670592218
 21
4.421323679775209
 31
0.0
  0
CIRCLE
  5
B9F
330
1E
100
AcDbEntity
  8
ZN-40BMB
100
AcDbCircle
 10
12.78829967059221
 20
4.421323679775188
 30
0.0
 40
0.0940000000000003
  0
CIRCLE
  5
BA0
330
1E
100
AcDbEntity
  8
ZN-40BMB
100
AcDbCircle
 10
12.78829967059221
 20
4.421323679775188
 30
0.0
 40
0.096932450907941
  0
LINE
  5
BA1
330
1E
100
AcDbEntity
  8
0
 62
     1
100
AcDbLine
 10
12.81829967059221
 20
4.421323679775191
 30
0.0
 11
12.75829967059221
 21
4.421323679775191
 31
0.0
  0
CIRCLE
  5
BA2
330
1E
100
AcDbEntity
  8
ZN-40BMB
100
AcDbCircle
 10
12.78829967059221
 20
4.421323679775188
 30
0.0
 40
0.0449999999999991
  0
CIRCLE
  5
BA3
330
1E
100
AcDbEntity
  8
ZN-40BMB
100
AcDbCircle
 10
12.78829967059221
 20
4.421323679775188
 30
0.0
 40
0.0417184477934951
  0
LINE
  5
BA4
330
1E
100
AcDbEntity
  8
0
 62
     1
100
AcDbLine
 10
12.78829967059221
 20
4.451323679775192
 30
0.0
 11
12.78829967059221
 21
4.391323679775197
 31
0.0
  0
DIMENSION
  5
BA5
330
1E
100
AcDbEntity
  8
ZN-40BMB
100
AcDbDimension
  2
*D30
 10
12.78898672631245
 20
4.32732374982586
 30
0.0
 11
12.7363016503226
 21
4.32777742865021
 31
0.0
 70
   162
 71
     5
 42
-1.0
  3
SLDDIMSTYLE2
100
AcDb2LineAngularDimension
 13
12.78829967059221
 23
4.3273236797752
 33
0.0
 14
12.78829967059221
 24
4.3273236797752
 34
0.0
 15
12.78829967059221
 25
4.3273236797752
 35
0.0
 16
12.73630412495027
 26
4.328004292290766
 36
0.0
  0
DIMENSION
  5
BA6
330
1E
100
AcDbEntity
  8
ZN-40BMB
100
AcDbDimension
  2
*D31
 10
12.78761258437421
 20
4.376323721200139
 30
0.0
 11
12.73630165049837
 21
4.376777448791702
 31
0.0
 70
   162
 71
     5
 42
-1.0
  3
SLDDIMSTYLE2
100
AcDb2LineAngularDimension
 13
12.78829967059221
 23
4.376323679775199
 33
0.0
 14
12.78829967059221
 24
4.376323679775199
 34
0.0
 15
12.78829967059221
 25
4.376323679775199
 35
0.0
 16
12.73630412534572
 26
4.377004322501565
 36
0.0
  0
LINE
  5
BA7
330
1E
100
AcDbEntity
  8
ZN-40BMB
  6
CENTER2
 62
     1
 48
0.8
100
AcDbLine
 10
15.56829967059222
 20
7.75132367977519
 30
0.0
 11
15.56829967059222
 21
4.391323679775183
 31
0.0
  0
LINE
  5
BA8
330
1E
100
AcDbEntity
  8
ZN-40BMB
  6
CENTER2
 62
     1
 48
0.8
100
AcDbLine
 10
16.91329967059222
 20
7.311323679775178
 30
0.0
 11
8.66329967059222
 21
7.311323679775213
 31
0.0
  0
LINE
  5
BA9
330
1E
100
AcDbEntity
  8
ZN-40BMB
  6
CENTER2
 62
     1
 48
0.8
100
AcDbLine
 10
8.66329967059222
 20
4.81132367977521
 30
0.0
 11
16.91329967059222
 21
4.811323679775178
 31
0.0
  0
LINE
  5
BAA
330
1E
100
AcDbEntity
  8
ZN-40BMB
  6
CENTER2
 62
     1
 48
0.8
100
AcDbLine
 10
8.693299670592221
 20
7.341323679775214
 30
0.0
 11
8.693299670592214
 21
4.781323679775209
 31
0.0
  0
LINE
  5
BAB
330
1E
100
AcDbEntity
  8
ZN-40BMB
  6
CENTER2
 62
     1
 48
0.8
100
AcDbLine
 10
16.88329967059222
 20
4.781323679775177
 30
0.0
 11
16.88329967059222
 21
7.341323679775179
 31
0.0
  0
CIRCLE
  5
BAC
330
1E
100
AcDbEntity
  8
ZN-40BMB
  6
HIDDEN2
 62
     4
100
AcDbCircle
 10
10.00829967059221
 20
4.421323679775206
 30
0.0
 40
0.041718447793496
  0
CIRCLE
  5
BAD
330
1E
100
AcDbEntity
  8
ZN-40BMB
  6
HIDDEN2
 62
     4
100
AcDbCircle
 10
10.00829967059221
 20
4.421323679775206
 30
0.0
 40
0.0449999999999999
  0
CIRCLE
  5
BAE
330
1E
100
AcDbEntity
  8
ZN-40BMB
  6
HIDDEN2
 62
     4
100
AcDbCircle
 10
10.00829967059221
 20
4.421323679775209
 30
0.0
 40
0.0417184477934942
  0
CIRCLE
  5
BAF
330
1E
100
AcDbEntity
  8
ZN-40BMB
  6
HIDDEN2
 62
     4
100
AcDbCircle
 10
10.00829967059221
 20
4.421323679775209
 30
0.0
 40
0.0449999999999999
  0
CIRCLE
  5
BB0
330
1E
100
AcDbEntity
  8
ZN-40BMB
  6
HIDDEN2
 62
     4
100
AcDbCircle
 10
12.78829967059219
 20
4.421323679775177
 30
0.0
 40
0.041718447793496
  0
CIRCLE
  5
BB1
330
1E
100
AcDbEntity
  8
ZN-40BMB
  6
HIDDEN2
 62
     4
100
AcDbCircle
 10
12.78829967059219
 20
4.421323679775177
 30
0.0
 40
0.0449999999999999
  0
CIRCLE
  5
BB2
330
1E
100
AcDbEntity
  8
ZN-40BMB
  6
HIDDEN2
 62
     4
100
AcDbCircle
 10
12.78829967059219
 20
4.421323679775181
 30
0.0
 40
0.0417184477934942
  0
CIRCLE
  5
BB3
330
1E
100
AcDbEntity
  8
ZN-40BMB
  6
HIDDEN2
 62
     4
100
AcDbCircle
 10
12.78829967059219
 20
4.421323679775181
 30
0.0
 40
0.0449999999999999
  0
CIRCLE
  5
BB4
330
1E
100
AcDbEntity
  8
ZN-40BMB
  6
HIDDEN2
 62
     4
100
AcDbCircle
 10
12.78829967059219
 20
4.421323679775181
 30
0.0
 40
0.096932450907941
  0
CIRCLE
  5
BB5
330
1E
100
AcDbEntity
  8
ZN-40BMB
  6
HIDDEN2
 62
     4
100
AcDbCircle
 10
12.78829967059219
 20
4.421323679775181
 30
0.0
 40
0.0940000000000003
  0
LINE
  5
BB6
330
1E
100
AcDbEntity
  8
0
 62
     1
100
AcDbLine
 10
12.81829967059219
 20
4.421323679775181
 30
0.0
 11
12.75829967059219
 21
4.421323679775181
 31
0.0
  0
LINE
  5
BB7
330
1E
100
AcDbEntity
  8
0
 62
     1
100
AcDbLine
 10
12.8182996705922
 20
4.421323679775177
 30
0.0
 11
12.75829967059219
 21
4.421323679775177
 31
0.0
  0
LINE
  5
BB8
330
1E
100
AcDbEntity
  8
0
 62
     1
100
AcDbLine
 10
12.78829967059219
 20
4.451323679775182
 30
0.0
 11
12.78829967059219
 21
4.39132367977518
 31
0.0
  0
LINE
  5
BB9
330
1E
100
AcDbEntity
  8
0
 62
     1
100
AcDbLine
 10
12.7882996705922
 20
4.451323679775178
 30
0.0
 11
12.7882996705922
 21
4.391323679775176
 31
0.0
  0
CIRCLE
  5
BBA
330
1E
100
AcDbEntity
  8
ZN-40BMB
  6
HIDDEN2
 62
     4
100
AcDbCircle
 10
12.7882996705922
 20
7.721323679775181
 30
0.0
 40
0.0969324509079401
  0
CIRCLE
  5
BBB
330
1E
100
AcDbEntity
  8
ZN-40BMB
  6
HIDDEN2
 62
     4
100
AcDbCircle
 10
12.7882996705922
 20
7.721323679775181
 30
0.0
 40
0.0939999999999994
  0
CIRCLE
  5
BBC
330
1E
100
AcDbEntity
  8
ZN-40BMB
  6
HIDDEN2
 62
     4
100
AcDbCircle
 10
12.7882996705922
 20
7.721323679775181
 30
0.0
 40
0.0417184477934933
  0
CIRCLE
  5
BBD
330
1E
100
AcDbEntity
  8
ZN-40BMB
  6
HIDDEN2
 62
     4
100
AcDbCircle
 10
12.7882996705922
 20
7.721323679775181
 30
0.0
 40
0.0449999999999991
  0
LINE
  5
BBE
330
1E
100
AcDbEntity
  8
0
 62
     1
100
AcDbLine
 10
12.8182996705922
 20
7.721323679775181
 30
0.0
 11
12.7582996705922
 21
7.721323679775181
 31
0.0
  0
LINE
  5
BBF
330
1E
100
AcDbEntity
  8
0
 62
     1
100
AcDbLine
 10
12.7882996705922
 20
7.751323679775182
 30
0.0
 11
12.7882996705922
 21
7.69132367977518
 31
0.0
  0
DIMENSION
  5
BC0
330
1E
100
AcDbEntity
  8
0
100
AcDbDimension
  2
*D33
 10
8.693299670592228
 20
9.22698638186126
 30
0.0
 11
12.80743756081667
 21
9.22698638186126
 31
0.0
 70
   160
 71
     5
 42
8.189999999999997
  3
STANDARD
100
AcDbAlignedDimension
 13
16.88329967059222
 23
7.341323679775179
 33
0.0
 14
8.693299670592228
 24
7.341323679775214
 34
0.0
 50
0.0000000000004071
100
AcDbRotatedDimension
1001
ACAD
1000
DSTYLE
1002
{
1070
   141
1040
0.0
1002
}
  0
LINE
  5
11F8
330
1E
100
AcDbEntity
  8
ZN-40BMB
100
AcDbLine
 10
4.140262913443486
 20
15.94860325255323
 30
0.0
 11
4.140262913443489
 21
16.70689215101904
 31
0.0
  0
LINE
  5
11F9
330
1E
100
AcDbEntity
  8
ZN-40BMB
100
AcDbLine
 10
3.780262913443461
 20
15.07946073345975
 30
0.0
 11
3.780262913443429
 21
19.90388086983082
 31
0.0
  0
LINE
  5
11FE
330
1E
100
AcDbEntity
  8
ZN-40BMB
100
AcDbLine
 10
4.550262913443454
 20
16.12093206179883
 30
0.0
 11
4.550262913443468
 21
16.36240954149175
 31
0.0
  0
LINE
  5
11FF
330
1E
100
AcDbEntity
  8
ZN-40BMB
100
AcDbLine
 10
4.254490808205879
 20
16.06267854660571
 30
0.0
 11
4.254490808205879
 21
16.24167080164529
 31
0.0
  0
POLYLINE
  5
1200
330
1E
100
AcDbEntity
  8
ZN-40BMB
100
AcDb2dPolyline
 66
     1
 10
0.0
 20
0.0
 30
0.0
 70
   128
 40
0.0005905511811024
 41
0.0005905511811024
  0
VERTEX
  5
1201
330
1200
100
AcDbEntity
  8
ZN-40BMB
100
AcDbVertex
100
AcDb2dVertex
 10
3.780262913443461
 20
16.10076638410107
 30
0.0
  0
VERTEX
  5
1202
330
1200
100
AcDbEntity
  8
ZN-40BMB
100
AcDbVertex
100
AcDb2dVertex
 10
3.783050936168489
 20
16.12277027363918
 30
0.0
  0
VERTEX
  5
1203
330
1200
100
AcDbEntity
  8
ZN-40BMB
100
AcDbVertex
100
AcDb2dVertex
 10
3.790900222607003
 20
16.15752059639983
 30
0.0
  0
VERTEX
  5
1204
330
1200
100
AcDbEntity
  8
ZN-40BMB
100
AcDbVertex
100
AcDb2dVertex
 10
3.800398919637334
 20
16.20465579158036
 30
0.0
  0
VERTEX
  5
1205
330
1200
100
AcDbEntity
  8
ZN-40BMB
100
AcDbVertex
100
AcDb2dVertex
 10
3.803642732768548
 20
16.23055032188909
 30
0.0
  0
VERTEX
  5
1206
330
1200
100
AcDbEntity
  8
ZN-40BMB
100
AcDbVertex
100
AcDb2dVertex
 10
3.805006929707904
 20
16.25785160297986
 30
0.0
  0
VERTEX
  5
1207
330
1200
100
AcDbEntity
  8
ZN-40BMB
100
AcDbVertex
100
AcDb2dVertex
 10
3.801819754058112
 20
16.30465771694229
 30
0.0
  0
VERTEX
  5
1208
330
1200
100
AcDbEntity
  8
ZN-40BMB
100
AcDbVertex
100
AcDb2dVertex
 10
3.79369077406498
 20
16.3443027656294
 30
0.0
  0
VERTEX
  5
1209
330
1200
100
AcDbEntity
  8
ZN-40BMB
100
AcDbVertex
100
AcDb2dVertex
 10
3.784274786416471
 20
16.37681380548291
 30
0.0
  0
VERTEX
  5
120A
330
1200
100
AcDbEntity
  8
ZN-40BMB
100
AcDbVertex
100
AcDb2dVertex
 10
3.780262913443461
 20
16.39408710494762
 30
0.0
  0
SEQEND
  5
120B
330
1200
100
AcDbEntity
  8
ZN-40BMB
  0
LINE
  5
120D
330
1E
100
AcDbEntity
  8
ZN-40BMB
100
AcDbLine
 10
4.295904070865837
 20
16.09867854660571
 30
0.0
 11
4.295904070865837
 21
16.24167080164529
 31
0.0
  0
LINE
  5
120E
330
1E
100
AcDbEntity
  8
ZN-40BMB
100
AcDbLine
 10
4.030262913443486
 20
15.07073054108681
 30
0.0
 11
4.030262913443486
 21
16.66015533880763
 31
0.0
  0
LINE
  5
1211
330
1E
100
AcDbEntity
  8
ZN-40BMB
100
AcDbLine
 10
4.140262913443486
 20
15.14719552343444
 30
0.0
 11
4.140262913443486
 21
15.75473835073734
 31
0.0
  0
LINE
  5
1212
330
1E
100
AcDbEntity
  8
ZN-40BMB
100
AcDbLine
 10
4.087160023294039
 20
14.92389033400791
 30
0.0
 11
3.954317310819426
 21
14.92852930374889
 31
0.0
  0
ARC
  5
1213
330
1E
100
AcDbEntity
  8
ZN-40BMB
100
AcDbCircle
 10
3.93026291344346
 20
15.07946073345975
 30
0.0
 40
0.1500000000000001
100
AcDbArc
 50
180.0000000000007
 51
267.9999999999993
  0
LINE
  5
1214
330
1E
100
AcDbEntity
  8
ZN-40BMB
100
AcDbLine
 10
3.954317310819426
 20
14.92852930374889
 30
0.0
 11
3.925027988938076
 21
14.92955210940688
 31
0.0
  0
LINE
  5
1215
330
1E
100
AcDbEntity
  8
ZN-40BMB
100
AcDbLine
 10
4.236262913443479
 20
14.86672566063218
 30
0.0
 11
4.550262913443454
 21
14.86672566063218
 31
0.0
  0
LINE
  5
121A
330
1E
100
AcDbEntity
  8
ZN-40BMB
100
AcDbLine
 10
4.580262913443455
 20
14.99672566063218
 30
0.0
 11
4.178168943641335
 21
15.01076709146566
 31
0.0
  0
ARC
  5
121B
330
1E
100
AcDbEntity
  8
ZN-40BMB
100
AcDbCircle
 10
4.050262913443486
 20
15.14719552343443
 30
0.0
 40
0.0899999999999999
100
AcDbArc
 50
326.4426902380785
 51
0.0000000000003817
  0
LINE
  5
121C
330
1E
100
AcDbEntity
  8
ZN-40BMB
100
AcDbLine
 10
4.236262913443461
 20
14.95672566063218
 30
0.0
 11
4.580262913443458
 21
14.95672566063218
 31
0.0
  0
LINE
  5
121E
330
1E
100
AcDbEntity
  8
ZN-40BMB
100
AcDbLine
 10
4.196262913443455
 20
14.95532882985251
 30
0.0
 11
4.580262913443458
 21
14.95532882985251
 31
0.0
  0
LINE
  5
1220
330
1E
100
AcDbEntity
  8
ZN-40BMB
100
AcDbLine
 10
4.236262913443461
 20
14.90672566063218
 30
0.0
 11
4.580262913443458
 21
14.90672566063218
 31
0.0
  0
LINE
  5
1221
330
1E
100
AcDbEntity
  8
ZN-40BMB
100
AcDbLine
 10
4.196262913443455
 20
14.90812249141185
 30
0.0
 11
4.580262913443455
 21
14.90812249141185
 31
0.0
  0
LINE
  5
1222
330
1E
100
AcDbEntity
  8
ZN-40BMB
100
AcDbLine
 10
4.196262913443455
 20
14.90812249141185
 30
0.0
 11
4.196262913443455
 21
14.95532882985251
 31
0.0
  0
LINE
  5
1223
330
1E
100
AcDbEntity
  8
ZN-40BMB
100
AcDbLine
 10
4.120262913443475
 20
15.07073054108681
 30
0.0
 11
4.120262913443475
 21
15.08086302762732
 31
0.0
  0
ARC
  5
1224
330
1E
100
AcDbEntity
  8
ZN-40BMB
100
AcDbCircle
 10
4.180262913443481
 20
15.07073054108681
 30
0.0
 40
0.0599999999999997
100
AcDbArc
 50
180.0
 51
267.9999999999999
  0
LINE
  5
1225
330
1E
100
AcDbEntity
  8
ZN-40BMB
100
AcDbLine
 10
4.236262913443461
 20
14.95672566063218
 30
0.0
 11
4.236262913443475
 21
15.00873840533734
 31
0.0
  0
LINE
  5
1226
330
1E
100
AcDbEntity
  8
ZN-40BMB
100
AcDbLine
 10
4.196262913443455
 20
14.95532882985251
 30
0.0
 11
4.236262913443461
 21
14.95672566063218
 31
0.0
  0
LINE
  5
1228
330
1E
100
AcDbEntity
  8
ZN-40BMB
100
AcDbLine
 10
4.236262913443461
 20
14.90672566063218
 30
0.0
 11
4.196262913443455
 21
14.90812249141185
 31
0.0
  0
LINE
  5
1229
330
1E
100
AcDbEntity
  8
ZN-40BMB
100
AcDbLine
 10
4.236262913443475
 20
14.86672566063218
 30
0.0
 11
4.236262913443461
 21
14.90672566063218
 31
0.0
  0
ARC
  5
122A
330
1E
100
AcDbEntity
  8
ZN-40BMB
100
AcDbCircle
 10
4.236262913443479
 20
14.99172566063218
 30
0.0
 40
0.1250000000000003
100
AcDbArc
 50
209.3958934887792
 51
270.0
  0
LINE
  5
122B
330
1E
100
AcDbEntity
  8
ZN-40BMB
100
AcDbLine
 10
4.132306226549864
 20
14.92231379385058
 30
0.0
 11
4.087160023294039
 21
14.92389033400791
 31
0.0
  0
ARC
  5
122C
330
1E
100
AcDbEntity
  8
ZN-40BMB
100
AcDbCircle
 10
4.15026291344348
 20
15.08086302762733
 30
0.0
 40
0.0300000000000016
100
AcDbArc
 50
146.4426902380829
 51
180.0
  0
ARC
  5
122D
330
1E
100
AcDbEntity
  8
ZN-40BMB
100
AcDbCircle
 10
4.180262913443481
 20
15.07073054108681
 30
0.0
 40
0.15
100
AcDbArc
 50
180.0
 51
249.3469927494595
  0
LINE
  5
1230
330
1E
100
AcDbEntity
  8
ZN-40BMB
100
AcDbLine
 10
4.650262913443462
 20
14.94351979831528
 30
0.0
 11
4.650262913443462
 21
14.91993152294908
 31
0.0
  0
ARC
  5
1233
330
1E
100
AcDbEntity
  8
ZN-40BMB
100
AcDbCircle
 10
4.645262913444692
 20
14.9435197983188
 30
0.0
 40
0.0049999999987698
100
AcDbArc
 50
0.0000000000003817
 51
85.00000001292709
  0
LINE
  5
1234
330
1E
100
AcDbEntity
  8
ZN-40BMB
100
AcDbLine
 10
4.645698692157189
 20
14.94850077180573
 30
0.0
 11
4.580262913443455
 21
14.95422566063218
 31
0.0
  0
LINE
  5
1238
330
1E
100
AcDbEntity
  8
ZN-40BMB
100
AcDbLine
 10
4.550262913443454
 20
14.88672566063218
 30
0.0
 11
4.580262913443455
 21
14.88672566063218
 31
0.0
  0
LINE
  5
1239
330
1E
100
AcDbEntity
  8
ZN-40BMB
100
AcDbLine
 10
4.550262913443454
 20
14.86672566063218
 30
0.0
 11
4.550262913443454
 21
14.88672566063218
 31
0.0
  0
ARC
  5
123A
330
1E
100
AcDbEntity
  8
ZN-40BMB
100
AcDbCircle
 10
4.645262913449361
 20
14.91993152294181
 30
0.0
 40
0.0049999999940979
100
AcDbArc
 50
274.9999999380178
 51
0.0000000000003817
  0
LINE
  5
123B
330
1E
100
AcDbEntity
  8
ZN-40BMB
100
AcDbLine
 10
4.580262913443455
 20
14.90922566063218
 30
0.0
 11
4.645698692157189
 21
14.91495054945862
 31
0.0
  0
LINE
  5
123D
330
1E
100
AcDbEntity
  8
ZN-40BMB
100
AcDbLine
 10
3.780262913443458
 20
15.73389801978348
 30
0.0
 11
3.780262913443458
 21
15.69167080164529
 31
0.0
  0
LINE
  5
1241
330
1E
100
AcDbEntity
  8
ZN-40BMB
100
AcDbLine
 10
4.295904070865837
 20
16.09867854660571
 30
0.0
 11
4.550262913443454
 21
16.12093206179883
 31
0.0
  0
LINE
  5
1242
330
1E
100
AcDbEntity
  8
ZN-40BMB
100
AcDbLine
 10
4.254490808205879
 20
16.06267854660571
 30
0.0
 11
4.295904070865837
 21
16.09867854660571
 31
0.0
  0
LINE
  5
1243
330
1E
100
AcDbEntity
  8
ZN-40BMB
100
AcDbLine
 10
4.308262913443478
 20
15.94567080164529
 30
0.0
 11
4.140262913443486
 21
15.94860325255323
 31
0.0
  0
LINE
  5
1244
330
1E
100
AcDbEntity
  8
ZN-40BMB
100
AcDbLine
 10
4.308262913443478
 20
15.89667080164529
 30
0.0
 11
4.12026291344349
 21
15.89338924943878
 31
0.0
  0
LINE
  5
1245
330
1E
100
AcDbEntity
  8
ZN-40BMB
100
AcDbLine
 10
4.12026291344349
 20
15.80995235385179
 30
0.0
 11
4.308262913443478
 21
15.80667080164528
 31
0.0
  0
LINE
  5
1246
330
1E
100
AcDbEntity
  8
ZN-40BMB
100
AcDbLine
 10
4.140262913443486
 20
15.75473835073734
 30
0.0
 11
4.308262913443478
 21
15.75767080164528
 31
0.0
  0
LINE
  5
1247
330
1E
100
AcDbEntity
  8
ZN-40BMB
100
AcDbLine
 10
4.140262913443486
 20
16.05268490075557
 30
0.0
 11
4.254490808205879
 21
16.06267854660571
 31
0.0
  0
LINE
  5
1248
330
1E
100
AcDbEntity
  8
ZN-40BMB
100
AcDbLine
 10
4.12026291344349
 20
15.80995235385179
 30
0.0
 11
4.120262913443475
 21
15.85167080164529
 31
0.0
  0
LINE
  5
1249
330
1E
100
AcDbEntity
  8
ZN-40BMB
100
AcDbLine
 10
4.120262913443475
 20
15.85167080164529
 30
0.0
 11
4.12026291344349
 21
15.89338924943878
 31
0.0
  0
LINE
  5
124A
330
1E
100
AcDbEntity
  8
ZN-40BMB
100
AcDbLine
 10
4.308262913443478
 20
15.94567080164529
 30
0.0
 11
4.308262913443478
 21
15.89667080164529
 31
0.0
  0
LINE
  5
124B
330
1E
100
AcDbEntity
  8
ZN-40BMB
100
AcDbLine
 10
4.308262913443478
 20
15.80667080164528
 30
0.0
 11
4.308262913443478
 21
15.89667080164529
 31
0.0
  0
LINE
  5
124C
330
1E
100
AcDbEntity
  8
ZN-40BMB
100
AcDbLine
 10
4.308262913443478
 20
15.80667080164528
 30
0.0
 11
4.308262913443478
 21
15.75767080164528
 31
0.0
  0
LINE
  5
124D
330
1E
100
AcDbEntity
  8
ZN-40BMB
100
AcDbLine
 10
4.550262913443468
 20
16.36240954149175
 30
0.0
 11
4.295904070865837
 21
16.38466305668486
 31
0.0
  0
LINE
  5
124E
330
1E
100
AcDbEntity
  8
ZN-40BMB
100
AcDbLine
 10
4.295904070865837
 20
16.38466305668486
 30
0.0
 11
4.254490808205879
 21
16.42066305668486
 31
0.0
  0
LINE
  5
124F
330
1E
100
AcDbEntity
  8
ZN-40BMB
100
AcDbLine
 10
4.254490808205879
 20
16.42066305668486
 30
0.0
 11
4.140262913443486
 21
16.43065670253501
 31
0.0
  0
LINE
  5
1250
330
1E
100
AcDbEntity
  8
ZN-40BMB
100
AcDbLine
 10
4.254490808205879
 20
16.24167080164529
 30
0.0
 11
4.254490808205879
 21
16.42066305668486
 31
0.0
  0
LINE
  5
1251
330
1E
100
AcDbEntity
  8
ZN-40BMB
100
AcDbLine
 10
4.295904070865837
 20
16.24167080164529
 30
0.0
 11
4.295904070865837
 21
16.38466305668486
 31
0.0
  0
LINE
  5
1287
330
1E
100
AcDbEntity
  8
ZN-40C
100
AcDbLine
 10
4.580262913443455
 20
14.95672574067666
 30
0.0
 11
4.580262913443455
 21
16.14693759584132
 31
0.0
  0
SPLINE
  5
1288
330
1E
100
AcDbEntity
  8
ZN-40BMB
100
AcDbSpline
210
0.0
220
0.0
230
1.0
 70
     8
 71
     3
 72
    11
 73
     7
 74
     0
 42
0.0000000001
 43
0.0000000001
 40
0.2246516516461815
 40
0.2246516516461815
 40
0.2246516516461815
 40
0.2246516516461815
 40
0.3661382624682038
 40
0.6692124413286097
 40
0.9124153493863364
 40
1.062159204180588
 40
1.062159204180588
 40
1.062159204180588
 40
1.062159204180588
 10
3.780262913442423
 20
16.69723723043383
 30
0.0
 10
3.82422269883918
 20
16.67390348398735
 30
0.0
 10
3.96512400471981
 20
16.57706176002792
 30
0.0
 10
4.188380746355263
 20
16.8008250476071
 30
0.0
 10
4.408591874499644
 20
16.6007271496361
 30
0.0
 10
4.532910483259242
 20
16.66938426924345
 30
0.0
 10
4.580262913443447
 20
16.69090792779488
 30
0.0
  0
SPLINE
  5
128A
330
1E
100
AcDbEntity
  8
ZN-40C
100
AcDbSpline
210
0.0
220
0.0
230
1.0
 70
     8
 71
     3
 72
    13
 73
     9
 74
     0
 42
0.0000000001
 43
0.0000000001
 40
0.1414103330789538
 40
0.1414103330789538
 40
0.1414103330789538
 40
0.1414103330789538
 40
0.2195797798377884
 40
0.4330487733075657
 40
0.6297884952813032
 40
0.8231604477750703
 40
1.04878356343245
 40
1.120912574156796
 40
1.120912574156796
 40
1.120912574156796
 40
1.120912574156796
 10
4.580262913443443
 20
16.69090792780504
 30
0.0
 10
4.604258570457903
 20
16.68233752107984
 30
0.0
 10
4.694669719820006
 20
16.66909627986528
 30
0.0
 10
4.854677084055082
 20
16.82866349160782
 30
0.0
 10
5.710208747921811
 20
16.58781495465783
 30
0.0
 10
5.918892585529889
 20
16.8164316917705
 30
0.0
 10
6.033726873051143
 20
16.58912115967089
 30
0.0
 10
6.121315714604545
 20
16.5866467377012
 30
0.0
 10
6.143262913443397
 20
16.59153971024976
 30
0.0
  0
ARC
  5
1294
330
1E
100
AcDbEntity
  8
ZN-40BMB
100
AcDbCircle
 10
4.236262913443425
 20
19.99161594265839
 30
0.0
 40
0.1250000000000017
100
AcDbArc
 50
89.99999999999998
 51
146.2689684783167
  0
LINE
  5
1295
330
1E
100
AcDbEntity
  8
ZN-40BMB
100
AcDbLine
 10
3.925027988938047
 20
20.05378949388368
 30
0.0
 11
4.423351741033187
 21
20.07119134276285
 31
0.0
  0
LINE
  5
1296
330
1E
100
AcDbEntity
  8
ZN-40BMB
100
AcDbLine
 10
4.236262913443425
 20
20.11661594265839
 30
0.0
 11
4.550262913443425
 21
20.11661594265838
 31
0.0
  0
ARC
  5
1297
330
1E
100
AcDbEntity
  8
ZN-40BMB
100
AcDbCircle
 10
4.550262913443425
 20
19.91661594265838
 30
0.0
 40
0.1999999999999993
100
AcDbArc
 50
89.99999999999998
 51
129.3870513647243
  0
LINE
  5
1298
330
1E
100
AcDbEntity
  8
ZN-40BMB
100
AcDbLine
 10
4.423351741033194
 20
19.90219665314031
 30
0.0
 11
4.423310485955205
 21
19.90584528839183
 31
0.0
  0
LINE
  5
1299
330
1E
100
AcDbEntity
  8
ZN-40BMB
100
AcDbLine
 10
4.580262913443426
 20
19.88654149962393
 30
0.0
 11
4.580262913443426
 21
19.90131592605988
 31
0.0
  0
LINE
  5
129A
330
1E
100
AcDbEntity
  8
ZN-40BMB
100
AcDbLine
 10
4.550262913443425
 20
20.09661594265839
 30
0.0
 11
4.580262913443426
 21
20.09661594265839
 31
0.0
  0
ARC
  5
129B
330
1E
100
AcDbEntity
  8
ZN-40BMB
100
AcDbCircle
 10
3.930262913443428
 20
19.90388086983082
 30
0.0
 40
0.1499999999999986
100
AcDbArc
 50
92.00000000000324
 51
180.0
  0
LINE
  5
129C
330
1E
100
AcDbEntity
  8
ZN-40BMB
100
AcDbLine
 10
4.423351741033187
 20
20.07119134276285
 30
0.0
 11
4.423351741033187
 21
16.64432170809137
 31
0.0
  0
LINE
  5
129E
330
1E
100
AcDbEntity
  8
ZN-40BMB
100
AcDbLine
 10
4.550262913443425
 20
20.11661594265839
 30
0.0
 11
4.550262913443425
 21
16.67694429481133
 31
0.0
  0
HATCH
  5
12C1
330
1E
100
AcDbEntity
  8
OBJECT
100
AcDbHatch
 10
0.0
 20
0.0
 30
0.0
210
0.0
220
0.0
230
1.0
  2
ANSI31
 70
     0
 71
     0
 91
        1
 92
        5
 93
       24
 72
     2
 10
4.180262913443484
 20
15.07073054108681
 40
0.1499999999999989
 50
180.0
 51
249.3469927494556
 73
     1
 72
     2
 10
4.236262913443479
 20
14.99172566063218
 40
0.1249999999999996
 50
209.3958934887759
 51
269.9999999999975
 73
     1
 72
     1
 10
4.236262913443474
 20
14.86672566063218
 11
4.23626291344346
 21
14.90672566063218
 72
     1
 10
4.23626291344346
 20
14.90672566063218
 11
4.196262913443454
 21
14.90812249141185
 72
     1
 10
4.196262913443454
 20
14.90812249141185
 11
4.196262913443454
 21
14.95532882985251
 72
     1
 10
4.196262913443454
 20
14.95532882985251
 11
4.23626291344346
 21
14.95672566063218
 72
     1
 10
4.23626291344346
 20
14.95672566063218
 11
4.236262913443474
 21
15.00873840533734
 72
     1
 10
4.236262913443474
 20
15.00873840533734
 11
4.17816894364133
 21
15.01076709146566
 72
     2
 10
4.180262913443475
 20
15.07073054108681
 40
0.060000000000001
 50
91.99999999999485
 51
180.0
 73
     0
 72
     1
 10
4.120262913443474
 20
15.07073054108681
 11
4.120262913443474
 21
15.08086302762733
 72
     2
 10
4.150262913443476
 20
15.0808630276273
 40
0.0300000000000006
 50
180.0000000000407
 51
213.5573097619484
 73
     0
 72
     2
 10
4.050262913443488
 20
15.14719552343443
 40
0.0899999999999971
 50
326.4426902380753
 51
360.0000000000022
 73
     1
 72
     1
 10
4.140262913443485
 20
15.14719552343443
 11
4.140262913443485
 21
15.75473835073734
 72
     1
 10
4.140262913443485
 20
15.75473835073734
 11
4.308262913443477
 21
15.75767080164528
 72
     1
 10
4.308262913443477
 20
15.75767080164528
 11
4.308262913443477
 21
15.80667080164528
 72
     1
 10
4.308262913443477
 20
15.80667080164528
 11
4.12026291344349
 21
15.80995235385179
 72
     1
 10
4.12026291344349
 20
15.80995235385179
 11
4.120262913443474
 21
15.85167080164528
 72
     1
 10
4.120262913443474
 20
15.85167080164528
 11
4.120262913443489
 21
15.89338924943878
 72
     1
 10
4.120262913443489
 20
15.89338924943878
 11
4.308262913443477
 21
15.89667080164528
 72
     1
 10
4.308262913443477
 20
15.89667080164528
 11
4.308262913443477
 21
15.94567080164528
 72
     1
 10
4.308262913443477
 20
15.94567080164528
 11
4.140262913443486
 21
15.94860325255323
 72
     1
 10
4.140262913443486
 20
15.94860325255323
 11
4.140262913443486
 21
16.70689215102599
 72
     4
 94
        3
 73
     0
 74
     0
 95
        8
 96
        4
 40
0.4866231757540249
 40
0.4866231757540249
 40
0.4866231757540249
 40
0.4866231757540249
 40
0.6004825193850254
 40
0.6004825193850254
 40
0.6004825193850254
 40
0.6004825193850254
 10
4.140262913354535
 20
16.70689215099054
 10
4.103644050793199
 20
16.6951616499831
 10
4.066924935198852
 20
16.67577787276599
 10
4.030262913443487
 20
16.66015533880763
 72
     1
 10
4.030262913443485
 20
16.66015533880763
 11
4.030262913443485
 21
15.07073054108681
 97
        0
 75
     0
 76
     1
 52
0.0
 41
0.75
 77
     0
 78
     1
 53
45.0
 43
-11.19882685303591
 44
-1.168974300005334
 45
-0.0662912607362388
 46
0.0662912607362388
 79
     0
 47
0.0049910981360877
 98
        1
 10
4.077918416007668
 20
15.5105230319982
  0
HATCH
  5
12DF
330
1E
100
AcDbEntity
  8
OBJECT
100
AcDbHatch
 10
0.0
 20
0.0
 30
0.0
210
0.0
220
0.0
230
1.0
  2
ANSI31
 70
     0
 71
     0
 91
        1
 92
        5
 93
       21
 72
     1
 10
6.143262913443425
 20
16.22680247488282
 11
6.143262913443425
 21
16.59153971024976
 72
     4
 94
        3
 73
     0
 74
     0
 95
        9
 96
        5
 40
0.9784563997955547
 40
0.9784563997955547
 40
0.9784563997955547
 40
0.9784563997955547
 40
1.0505854105199
 40
1.120912574156796
 40
1.120912574156796
 40
1.120912574156796
 40
1.120912574156796
 10
6.143262913443397
 20
16.59153971024976
 10
6.121315714604545
 20
16.5866467377012
 10
6.079409813088215
 20
16.58783059721496
 10
6.041617001633902
 20
16.6199934506042
 10
6.023262871554816
 20
16.63799908087974
 72
     1
 10
6.023262871554816
 20
16.63799908087974
 11
6.023262913443421
 21
15.42693232978164
 72
     2
 10
6.113262913443424
 20
15.42693233289458
 40
0.0900000000000041
 50
180.0000019817598
 51
221.4096221092745
 73
     1
 72
     2
 10
6.023262913443428
 20
15.34755979356263
 40
0.0300000000000028
 50
318.590377890719
 51
359.9999999999932
 73
     0
 72
     1
 10
6.053262913443429
 20
15.34755979356264
 11
6.053262913443429
 21
15.13036422991197
 72
     2
 10
5.943262913443426
 20
15.13036422991197
 40
0.1100000000000029
 50
360.0
 51
448.0000013627395
 73
     0
 72
     1
 10
5.947101855466023
 20
15.02043123884856
 11
5.748262913443451
 21
15.01348763472322
 72
     1
 10
5.748262913443451
 20
15.01348763472322
 11
5.748262913443443
 21
14.95672566063214
 72
     1
 10
5.748262913443443
 20
14.95672566063214
 11
5.78826291344345
 21
14.95532882985248
 72
     1
 10
5.78826291344345
 20
14.95532882985248
 11
5.78826291344345
 21
14.90812249141182
 72
     1
 10
5.78826291344345
 20
14.90812249141182
 11
5.748262913443443
 21
14.90672566063215
 72
     1
 10
5.748262913443443
 20
14.90672566063215
 11
5.748262913443429
 21
14.86672566063217
 72
     2
 10
5.748262913443433
 20
14.99172566063217
 40
0.1250000000000003
 50
269.9999999999983
 51
328.9062689609977
 73
     1
 72
     1
 10
5.855303362875645
 20
14.92717070586222
 11
5.95024281278393
 21
14.93048606450815
 72
     2
 10
5.943262913443426
 20
15.13036422991197
 40
0.1999999999999982
 50
272.000000000001
 51
359.9999999999959
 73
     1
 72
     1
 10
6.143262913443425
 20
15.13036422991195
 11
6.143262913443447
 21
15.42917080164525
 72
     1
 10
6.143262913443447
 20
15.42917080164525
 11
6.133262927556121
 21
15.42917086782051
 72
     1
 10
6.133262927556121
 20
15.42917086782051
 11
6.133262927556121
 21
15.46017085637266
 72
     1
 10
6.133262927556121
 20
15.46017085637266
 11
6.143262913443447
 21
15.46017080164528
 72
     1
 10
6.143262913443447
 20
15.46017080164528
 11
6.143262913443425
 21
16.22680247488282
 97
        0
 75
     0
 76
     1
 52
90.0
 41
0.75
 77
     0
 78
     1
 53
135.0
 43
-10.51082685303591
 44
-1.168974300005334
 45
-0.0662912607362388
 46
-0.0662912607362388
 79
     0
 47
0.0049910981360877
 98
        1
 10
6.104584838968836
 20
15.77006013619729
  0
DIMENSION
  5
12E8
330
1E
100
AcDbEntity
  8
0
100
AcDbDimension
  2
*D34
 10
4.140262913443488
 20
16.52100108793775
 30
0.0
 11
3.121810918218383
 21
16.52100108793775
 31
0.0
 70
   160
 71
     5
 42
0.110000000000003
  3
STANDARD
100
AcDbAlignedDimension
 13
4.030262913443485
 23
16.66015533880763
 33
0.0
 14
4.140262913443488
 24
16.70689215101904
 34
0.0
 50
180.0
100
AcDbRotatedDimension
1001
ACAD
1000
DSTYLE
1002
{
1070
   141
1040
0.0
1002
}
  0
DIMENSION
  5
171F
330
1E
100
AcDbEntity
  8
0
100
AcDbDimension
  2
*D35
 10
27.78909615974891
 20
12.95449450545942
 30
0.0
 11
23.90050927059354
 21
12.95449450545942
 31
0.0
 70
    32
 71
     5
 42
7.777173778310732
  3
STANDARD
100
AcDbAlignedDimension
 13
20.01192238143818
 23
11.84775892067281
 33
0.0
 14
27.78909615974891
 24
11.84775892067304
 34
0.0
100
AcDbRotatedDimension
  0
DIMENSION
  5
1794
330
1E
100
AcDbEntity
  8
0
100
AcDbDimension
  2
*D36
 10
8.198354529579063
 20
14.41209356734979
 30
0.0
 11
12.80743756081662
 21
14.41209356734979
 31
0.0
 70
   160
 71
     5
 42
9.179890282026207
  3
STANDARD
100
AcDbAlignedDimension
 13
17.37824481160527
 23
16.98667080164524
 33
0.0
 14
8.198354529579063
 24
16.98667080164521
 34
0.0
 50
359.9999999999996
100
AcDbRotatedDimension
1001
ACAD
1000
DSTYLE
1002
{
1070
   141
1040
0.0
1002
}
  0
DIMENSION
  5
17DA
330
1E
100
AcDbEntity
  8
0
100
AcDbDimension
  2
*D37
 10
7.019175765606636
 20
10.70248967821771
 30
0.0
 11
7.019175765606634
 21
11.88398967821772
 31
0.0
 70
    32
 71
     5
 42
2.36300000000001
  3
STANDARD
100
AcDbAlignedDimension
 13
9.071112945815261
 23
13.06548967821772
 33
0.0
 14
8.41108960240456
 24
10.70248967821771
 34
0.0
 50
90.0
100
AcDbRotatedDimension
  0
INSERT
  5
1A56
330
1E
100
AcDbEntity
  8
TITLE
100
AcDbBlockReference
 66
     1
  2
C
 10
0.0
 20
0.0
 30
0.0
 41
1.375
 42
1.375
 43
1.375
  0
ATTRIB
  5
1A58
330
1A56
100
AcDbEntity
  8
TEXT
100
AcDbText
 10
22.48516945919554
 20
0.7416819377243654
 30
0.0
 40
0.171875
  1
DAB
 41
0.75
 72
     1
 11
22.65704445919554
 21
0.7416819377243654
 31
0.0
100
AcDbAttribute
  2
NAME
 70
     0
  0
ATTRIB
  5
1A59
330
1A56
100
AcDbEntity
  8
TEXT
100
AcDbText
 10
23.19425415493581
 20
0.7416819377243654
 30
0.0
 40
0.171875
  1
5-29-07
 41
0.75
 72
     1
 11
23.6131994674358
 21
0.7416819377243654
 31
0.0
100
AcDbAttribute
  2
DATE
 70
     0
  0
ATTRIB
  5
1A5A
330
1A56
100
AcDbEntity
  8
TEXT
100
AcDbText
 10
27.49466885006105
 20
0.9770843738293667
 30
0.0
 40
0.171875
  1
PLASTICASE
 41
0.75
 72
     1
 11
28.09623135006105
 21
0.9770843738293667
 31
0.0
100
AcDbAttribute
  2
TITLE1
 70
     0
  0
ATTRIB
  5
1A5B
330
1A56
100
AcDbEntity
  8
TEXT
100
AcDbText
 10
27.58060635006105
 20
0.6867813579057075
 30
0.0
 40
0.171875
  1
(STYLE H)
 41
0.75
 72
     1
 11
28.09623135006105
 21
0.6867813579057075
 31
0.0
100
AcDbAttribute
  2
TITLE2
 70
     0
  0
ATTRIB
  5
1A5C
330
1A56
100
AcDbEntity
  8
TEXT
100
AcDbText
 10
27.80352793402321
 20
0.1460584581010705
 30
0.0
 40
0.2145
  1
PC-11645
 41
0.7500000000000001
 72
     1
 11
28.36659043402321
 21
0.1460584581010705
 31
0.0
100
AcDbAttribute
  2
PART
 70
     0
  0
ATTRIB
  5
1A5D
330
1A56
100
AcDbEntity
  8
TEXT
100
AcDbText
 10
27.80352793402321
 20
21.04113114955016
 30
0.0
 40
0.2145
  1
PC-11645
 41
0.7500000000000001
 72
     1
 11
28.36659043402321
 21
21.04113114955016
 31
0.0
100
AcDbAttribute
  2
PART
 70
     0
  0
ATTRIB
  5
1A5E
330
1A56
100
AcDbEntity
  8
TEXT
100
AcDbText
 10
16.57823420570727
 20
1.625266960759146
 30
0.0
 40
0.171875
  1

 41
4.93641642638573
 72
     5
 11
21.9517291698459
 21
1.625266960759146
 31
0.0
100
AcDbAttribute
  2
CUTSIZE
 70
     0
  0
ATTRIB
  5
1A5F
330
1A56
100
AcDbEntity
  8
TEXT
100
AcDbText
 10
16.76725969755231
 20
0.3943208870716395
 30
0.0
 40
0.171875
  1

 41
0.75
 72
     1
 11
16.76725969755231
 21
0.3943208870716395
 31
0.0
100
AcDbAttribute
  2
QTY
 70
     0
  0
ATTRIB
  5
1A60
330
1A56
100
AcDbEntity
  8
TEXT
100
AcDbText
 10
18.06619952847462
 20
0.3943208870716395
 30
0.0
 40
0.171875
  1

 41
0.75
 72
     1
 11
18.06619952847462
 21
0.3943208870716395
 31
0.0
100
AcDbAttribute
  2
USED
 70
     0
  0
ATTRIB
  5
1A61
330
1A56
100
AcDbEntity
  8
TEXT
100
AcDbText
 10
22.99547418150679
 20
1.313857010221573
 30
0.0
 40
0.171875
  1
AS NOTED
 41
0.75
 72
     1
 11
23.48961480650679
 21
1.313857010221573
 31
0.0
100
AcDbAttribute
  2
MAT
 70
     0
  0
ATTRIB
  5
1A62
330
1A56
100
AcDbEntity
  8
TEXT
100
AcDbText
 10
22.99547418150679
 20
1.022524535808411
 30
0.0
 40
0.171875
  1
AS NOTED
 41
0.75
 72
     1
 11
23.48961480650679
 21
1.022524535808411
 31
0.0
100
AcDbAttribute
  2
FINISH
 70
     0
  0
SEQEND
  5
1A57
330
1A56
100
AcDbEntity
  8
TITLE
  0
MTEXT
  5
1E16
330
1E
100
AcDbEntity
  8
0
 62
     4
100
AcDbMText
 10
17.52630061895648
 20
6.181369612157709
 30
0.0
 40
0.25
 41
0.0
 71
     1
 72
     1
  1
{\Fgdt.shx;q}
  7
SLDTEXTSTYLE4
 73
     1
 44
1.0
1001
ACAD
1000
MTEXTBEGIN
1070
    73
1070
     1
1070
    44
1040
1.0
1070
    74
1070
     0
1000
MTEXTEND
  0
MTEXT
  5
1E17
330
1E
100
AcDbEntity
  8
0
 62
     4
100
AcDbMText
 10
12.73255454410551
 20
20.41390560338459
 30
0.0
 40
0.25
 41
0.0
 71
     1
 72
     1
  1
{\Fgdt.shx;q}
  7
SLDTEXTSTYLE4
 73
     1
 44
1.0
1001
ACAD
1000
MTEXTBEGIN
1070
    73
1070
     1
1070
    44
1040
1.0
1070
    74
1070
     0
1000
MTEXTEND
  0
MTEXT
  5
1E18
330
1E
100
AcDbEntity
  8
0
 62
     4
100
AcDbMText
 10
17.52630061895643
 20
17.61171673402778
 30
0.0
 40
0.25
 41
0.0
 71
     1
 72
     1
  1
{\Fgdt.shx;q}
  7
SLDTEXTSTYLE4
 73
     1
 44
1.0
1001
ACAD
1000
MTEXTBEGIN
1070
    73
1070
     1
1070
    44
1040
1.0
1070
    74
1070
     0
1000
MTEXTEND
  0
MTEXT
  5
1E4F
330
1E
100
AcDbEntity
  8
0
100
AcDbMText
 10
23.08593462343844
 20
6.883015920301431
 30
0.0
 40
0.187
 41
5.718999999999999
 71
     1
 72
     5
  3
{\C4;NOTES:\P  1) PC BOARD BOSSES WILL ACCEPT A\P      #4 X 1/4" THREAD FORMING SCREW\P  2) MATERIAL: ABS - UL94V-0\P  3) FINISH: BLACK TEXTURE\P  4) * * DIMENSIONS ARE TO THEORETICAL\P      SHARP CORNERS.\P  5) INCLUDES (4) #4-24 x 1.0 HI-LOW\P     
  1
 THREAD FORMING, CSK, OVAL HEAD,\P      PHILLIPS DRIVE SCREWS FOR\P      ATTACHING BODY TO COVER\P      (MAX TORQUE 4.5 IN-LBS)}
  7
STANDARD
 73
     1
 44
1.0
1001
ACAD
1000
MTEXTBEGIN
1070
    73
1070
     1
1070
    44
1040
1.0
1070
    74
1070
     0
1000
MTEXTEND
  0
ENDSEC
  0
SECTION
  2
OBJECTS
  0
DICTIONARY
  5
C
330
0
100
AcDbDictionary
281
     1
  3
ACAD_GROUP
350
D
  3
ACAD_LAYOUT
350
19
  3
ACAD_MLINESTYLE
350
16
  3
ACAD_PLOTSETTINGS
350
18
  3
ACAD_PLOTSTYLENAME
350
E
  3
AcadDim
350
56
  3
AcDbVariableDictionary
350
129F
  3
ASE_INDEX_DICTIONARY
350
10E6
  0
DICTIONARY
  5
D
102
{ACAD_REACTORS
330
C
102
}
330
C
100
AcDbDictionary
281
     1
  0
DICTIONARY
  5
19
102
{ACAD_REACTORS
330
C
102
}
330
C
100
AcDbDictionary
281
     1
  3
Layout1
350
1D
  3
Model
350
21
  0
DICTIONARY
  5
16
102
{ACAD_REACTORS
330
C
102
}
330
C
100
AcDbDictionary
281
     1
  3
Standard
350
17
  0
DICTIONARY
  5
18
102
{ACAD_REACTORS
330
C
102
}
330
C
100
AcDbDictionary
281
     1
  3
HP LASERJET 1100 A-SIZE PLOT
350
2B8
  3
HP LaserJet 1100 C-size Plot
350
2BB
  3
HP LASERJET 5000 A-SIZE PLOT
350
2BE
  3
HP LaserJet 5000 C-size Plot
350
2C1
  0
ACDBDICTIONARYWDFLT
  5
E
102
{ACAD_REACTORS
330
C
102
}
330
C
100
AcDbDictionary
281
     1
  3
Normal
350
F
100
AcDbDictionaryWithDefault
340
F
  0
XRECORD
  5
56
102
{ACAD_REACTORS
330
C
102
}
330
C
100
AcDbXrecord
280
     1
 90
   990106
  3

 60
     0
 61
     0
 62
     1
 63
     1
 64
     0
 65
     0
 66
     0
 67
     3
 68
     1
 69
     0
 70
     0
 71
     0
 72
     0
 40
0.0
170
     2
  0
DICTIONARY
  5
129F
102
{ACAD_REACTORS
330
C
102
}
330
C
100
AcDbDictionary
281
     1
  3
SORTENTS
350
12A0
  0
DICTIONARY
  5
10E6
102
{ACAD_REACTORS
330
C
102
}
330
C
100
AcDbDictionary
281
     1
  3
ASEBlockHierarchyIndexRecord
350
10E7
1001
DCO15
1040
1593515507.374999
  0
LAYOUT
  5
1D
102
{ACAD_REACTORS
330
19
102
}
330
19
100
AcDbPlotSettings
  1

  2
C:\Program Files\ACAD2000\plotters\DWF ePlot.pc3
  4

  6

 40
0.0
 41
0.0
 42
0.0
 43
0.0
 44
0.0
 45
0.0
 46
0.0
 47
0.0
 48
0.0
 49
0.0
140
0.0
141
0.0
142
1.0
143
1.0
 70
   688
 72
     0
 73
     0
 74
     5
  7
monochrome.ctb
 75
    16
147
1.0
148
0.0
149
0.0
100
AcDbLayout
  1
Layout1
 70
     1
 71
     1
 10
0.0
 20
0.0
 11
12.0
 21
9.0
 12
0.0
 22
0.0
 32
0.0
 14
1.000000000000000E+20
 24
1.000000000000000E+20
 34
1.000000000000000E+20
 15
-1.000000000000000E+20
 25
-1.000000000000000E+20
 35
-1.000000000000000E+20
146
0.0
 13
0.0
 23
0.0
 33
0.0
 16
1.0
 26
0.0
 36
0.0
 17
0.0
 27
1.0
 37
0.0
 76
     0
330
1A
  0
LAYOUT
  5
21
102
{ACAD_REACTORS
330
19
102
}
330
19
100
AcDbPlotSettings
  1

  2
RICOH Aficio 1060 PCL 6
  4
Letter
  6

 40
5.027083396911621
 41
5.027085304260253
 42
5.027084350585937
 43
5.027069091796875
 44
215.8999938964843
 45
279.3999938964843
 46
5.08
 47
0.0
 48
0.0
 49
0.0
140
0.0
141
0.0
142
1.0
143
2.788142743026475
 70
 11956
 72
     0
 73
     1
 74
     1
  7
monochrome.ctb
 75
     0
147
0.3586616942411346
148
0.0744657130562672
149
0.0364085680556784
100
AcDbLayout
  1
Model
 70
     1
 71
     0
 10
0.0
 20
0.0
 11
12.0
 21
9.0
 12
0.0
 22
0.0
 32
0.0
 14
0.0
 24
0.0
 34
0.0
 15
0.0
 25
0.0
 35
0.0
146
0.0
 13
0.0
 23
0.0
 33
0.0
 16
1.0
 26
0.0
 36
0.0
 17
0.0
 27
1.0
 37
0.0
 76
     0
330
1E
  0
MLINESTYLE
  5
17
102
{ACAD_REACTORS
330
16
102
}
330
16
100
AcDbMlineStyle
  2
STANDARD
 70
     0
  3

 62
   256
 51
90.0
 52
90.0
 71
     2
 49
0.5
 62
   256
  6
BYLAYER
 49
-0.5
 62
   256
  6
BYLAYER
  0
PLOTSETTINGS
  5
2B8
102
{ACAD_XDICTIONARY
360
2B9
102
}
102
{ACAD_REACTORS
330
18
102
}
330
18
100
AcDbPlotSettings
  1

  2
HP LaserJet 1100
  4
Letter
  6

 40
7.143749713897705
 41
5.619739055633544
 42
7.14373779296875
 43
7.14373779296875
 44
215.8999938964843
 45
279.3999938964843
 46
0.0
 47
1.016
 48
0.0
 49
0.0
140
10.49999999999999
141
7.999999999999997
142
1.0
143
1.007873983805916
 70
   688
 72
     0
 73
     0
 74
     5
  7
monochrome.ctb
 75
    16
147
0.9921875314449703
148
0.0
149
0.0
  0
PLOTSETTINGS
  5
2BB
102
{ACAD_XDICTIONARY
360
2BC
102
}
102
{ACAD_REACTORS
330
18
102
}
330
18
100
AcDbPlotSettings
  1
HP LaserJet 1100 C-size Plot
  2
HP LaserJet 1100
  4
Letter
  6

 40
7.143749713897705
 41
5.619739055633544
 42
7.14373779296875
 43
7.14373779296875
 44
215.8999938964843
 45
279.3999938964843
 46
0.0
 47
2.794
 48
0.0
 49
0.0
140
21.89999999999999
141
16.89999999999999
142
1.0
143
2.129133790789998
 70
  1716
 72
     0
 73
     1
 74
     4
  7
monochrome.ctb
 75
     0
147
0.4696745710982107
148
0.0
149
0.0
  0
PLOTSETTINGS
  5
2BE
102
{ACAD_XDICTIONARY
360
2BF
102
}
102
{ACAD_REACTORS
330
18
102
}
330
18
100
AcDbPlotSettings
  1

  2
HP LaserJet 5000 Series PCL 6
  4
Letter
  6

 40
5.027083396911621
 41
5.027085304260253
 42
5.027084350585937
 43
5.027069091796875
 44
215.8999938964843
 45
279.3999938964843
 46
1.27
 47
1.27
 48
0.0
 49
0.0
140
10.49999999999999
141
7.999999999999997
142
1.0
143
1.0
 70
   688
 72
     0
 73
     0
 74
     5
  7
monochrome.ctb
 75
    16
147
1.0
148
0.0
149
0.0
  0
PLOTSETTINGS
  5
2C1
102
{ACAD_XDICTIONARY
360
2C2
102
}
102
{ACAD_REACTORS
330
18
102
}
330
18
100
AcDbPlotSettings
  1
HP LaserJet 5000 C-size Plot
  2
HP LaserJet 5000 Series PCL 6
  4
11x17
  6

 40
5.027083396911621
 41
5.027085304260253
 42
5.027099609375
 43
5.027069091796875
 44
279.3999938964843
 45
431.7999877929687
 46
0.0
 47
36.32199999999999
 48
0.0
 49
0.0
140
21.89999999999999
141
16.89999999999999
142
1.0
143
1.593713295860366
 70
  1716
 72
     0
 73
     1
 74
     4
  7
monochrome.ctb
 75
     0
147
0.6274654309513995
148
0.0
149
0.0
  0
ACDBPLACEHOLDER
  5
F
102
{ACAD_REACTORS
330
E
102
}
330
E
  0
DICTIONARYVAR
  5
12A0
102
{ACAD_REACTORS
330
129F
102
}
330
129F
100
DictionaryVariables
280
     0
  1
96
  0
XRECORD
  5
10E7
102
{ACAD_REACTORS
330
10E6
102
}
330
10E6
100
AcDbXrecord
280
     1
330
1A56
  0
DICTIONARY
  5
2B9
330
2B8
100
AcDbDictionary
280
     1
281
     1
  3
ACAD_XREC_ROUNDTRIP
360
2BA
  0
DICTIONARY
  5
2BC
330
2BB
100
AcDbDictionary
280
     1
281
     1
  3
ACAD_XREC_ROUNDTRIP
360
2BD
  0
DICTIONARY
  5
2BF
330
2BE
100
AcDbDictionary
280
     1
281
     1
  3
ACAD_XREC_ROUNDTRIP
360
2C0
  0
DICTIONARY
  5
2C2
330
2C1
100
AcDbDictionary
280
     1
281
     1
  3
ACAD_XREC_ROUNDTRIP
360
2C3
  0
XRECORD
  5
2BA
102
{ACAD_REACTORS
330
2B9
102
}
330
2B9
100
AcDbXrecord
280
     1
102
SHADEPLOT
 70
     0
102
SHADEPLOTRESLEVEL
 70
     2
102
SHADEPLOTCUSTOMDPI
 70
   300
  0
XRECORD
  5
2BD
102
{ACAD_REACTORS
330
2BC
102
}
330
2BC
100
AcDbXrecord
280
     1
102
SHADEPLOT
 70
     0
102
SHADEPLOTRESLEVEL
 70
     2
102
SHADEPLOTCUSTOMDPI
 70
   300
  0
XRECORD
  5
2C0
102
{ACAD_REACTORS
330
2BF
102
}
330
2BF
100
AcDbXrecord
280
     1
102
SHADEPLOT
 70
     0
102
SHADEPLOTRESLEVEL
 70
     2
102
SHADEPLOTCUSTOMDPI
 70
   300
  0
XRECORD
  5
2C3
102
{ACAD_REACTORS
330
2C2
102
}
330
2C2
100
AcDbXrecord
280
     1
102
SHADEPLOT
 70
     0
102
SHADEPLOTRESLEVEL
 70
     2
102
SHADEPLOTCUSTOMDPI
 70
   300
  0
ENDSEC
  0
EOF
