  0
SECTION
  2
HEADER
  9
$ACADVER
  1
AC1015
  9
$ACADMAINTVER
 70
     6
  9
$DWGCODEPAGE
  3
ANSI_1252
  9
$INSBASE
 10
52.22320202208389
 20
15.213166490965
 30
0.0
  9
$EXTMIN
 10
52.08484609151199
 20
17.09132013864736
 30
-0.0000000000112498
  9
$EXTMAX
 10
68.68726404942282
 20
26.71788032058145
 30
0.0000000000002956
  9
$LIMMIN
 10
0.0
 20
0.0
  9
$LIMMAX
 10
44.89999999999999
 20
34.75
  9
$ORTHOMODE
 70
     1
  9
$REGENMODE
 70
     1
  9
$FILLMODE
 70
     1
  9
$QTEXTMODE
 70
     0
  9
$MIRRTEXT
 70
     1
  9
$LTSCALE
 40
1.0
  9
$ATTMODE
 70
     1
  9
$TEXTSIZE
 40
0.125
  9
$TRACEWID
 40
0.05
  9
$TEXTSTYLE
  7
STANDARD
  9
$CLAYER
  8
0
  9
$CELTYPE
  6
BYLAYER
  9
$CECOLOR
 62
   256
  9
$CELTSCALE
 40
1.0
  9
$DISPSILH
 70
     0
  9
$DIMSCALE
 40
1.0
  9
$DIMASZ
 40
0.18
  9
$DIMEXO
 40
0.063
  9
$DIMDLI
 40
0.38
  9
$DIMRND
 40
0.0
  9
$DIMDLE
 40
0.0
  9
$DIMEXE
 40
0.1
  9
$DIMTP
 40
0.0
  9
$DIMTM
 40
0.0
  9
$DIMTXT
 40
0.125
  9
$DIMCEN
 40
0.0
  9
$DIMTSZ
 40
0.0
  9
$DIMTOL
 70
     0
  9
$DIMLIM
 70
     0
  9
$DIMTIH
 70
     1
  9
$DIMTOH
 70
     1
  9
$DIMSE1
 70
     0
  9
$DIMSE2
 70
     0
  9
$DIMTAD
 70
     0
  9
$DIMZIN
 70
     0
  9
$DIMBLK
  1

  9
$DIMASO
 70
     1
  9
$DIMSHO
 70
     1
  9
$DIMPOST
  1

  9
$DIMAPOST
  1

  9
$DIMALT
 70
     0
  9
$DIMALTD
 70
     2
  9
$DIMALTF
 40
25.4
  9
$DIMLFAC
 40
1.0
  9
$DIMTOFL
 70
     0
  9
$DIMTVP
 40
0.0
  9
$DIMTIX
 70
     0
  9
$DIMSOXD
 70
     0
  9
$DIMSAH
 70
     0
  9
$DIMBLK1
  1

  9
$DIMBLK2
  1

  9
$DIMSTYLE
  2
STANDARD
  9
$DIMCLRD
 70
     1
  9
$DIMCLRE
 70
     1
  9
$DIMCLRT
 70
     4
  9
$DIMTFAC
 40
1.0
  9
$DIMGAP
 40
0.09
  9
$DIMJUST
 70
     0
  9
$DIMSD1
 70
     0
  9
$DIMSD2
 70
     0
  9
$DIMTOLJ
 70
     1
  9
$DIMTZIN
 70
     0
  9
$DIMALTZ
 70
     0
  9
$DIMALTTZ
 70
     0
  9
$DIMUPT
 70
     0
  9
$DIMDEC
 70
     3
  9
$DIMTDEC
 70
     3
  9
$DIMALTU
 70
     2
  9
$DIMALTTD
 70
     2
  9
$DIMTXSTY
  7
STANDARD
  9
$DIMAUNIT
 70
     0
  9
$DIMADEC
 70
     0
  9
$DIMALTRND
 40
0.0
  9
$DIMAZIN
 70
     0
  9
$DIMDSEP
 70
    46
  9
$DIMATFIT
 70
     3
  9
$DIMFRAC
 70
     0
  9
$DIMLDRBLK
  1

  9
$DIMLUNIT
 70
     2
  9
$DIMLWD
 70
    -2
  9
$DIMLWE
 70
    -2
  9
$DIMTMOVE
 70
     0
  9
$LUNITS
 70
     2
  9
$LUPREC
 70
     3
  9
$SKETCHINC
 40
0.1
  9
$FILLETRAD
 40
0.0
  9
$AUNITS
 70
     0
  9
$AUPREC
 70
     0
  9
$MENU
  1
ACAD
  9
$ELEVATION
 40
0.0
  9
$PELEVATION
 40
0.0
  9
$THICKNESS
 40
0.0
  9
$LIMCHECK
 70
     0
  9
$CHAMFERA
 40
0.0
  9
$CHAMFERB
 40
0.0
  9
$CHAMFERC
 40
0.0
  9
$CHAMFERD
 40
0.0
  9
$SKPOLY
 70
     0
  9
$TDCREATE
 40
2452384.718287615
  9
$TDUCREATE
 40
2452384.884954282
  9
$TDUPDATE
 40
2453550.417693495
  9
$TDUUPDATE
 40
2453550.584360162
  9
$TDINDWG
 40
5.2485382639
  9
$TDUSRTIMER
 40
5.2485382639
  9
$USRTIMER
 70
     1
  9
$ANGBASE
 50
0.0
  9
$ANGDIR
 70
     0
  9
$PDMODE
 70
     0
  9
$PDSIZE
 40
0.0
  9
$PLINEWID
 40
0.0
  9
$SPLFRAME
 70
     0
  9
$SPLINETYPE
 70
     6
  9
$SPLINESEGS
 70
     8
  9
$HANDSEED
  5
8F9
  9
$SURFTAB1
 70
     6
  9
$SURFTAB2
 70
     6
  9
$SURFTYPE
 70
     6
  9
$SURFU
 70
     6
  9
$SURFV
 70
     6
  9
$UCSBASE
  2

  9
$UCSNAME
  2

  9
$UCSORG
 10
0.0
 20
0.0
 30
0.0
  9
$UCSXDIR
 10
1.0
 20
0.0
 30
0.0
  9
$UCSYDIR
 10
0.0
 20
1.0
 30
0.0
  9
$UCSORTHOREF
  2

  9
$UCSORTHOVIEW
 70
     0
  9
$UCSORGTOP
 10
0.0
 20
0.0
 30
0.0
  9
$UCSORGBOTTOM
 10
0.0
 20
0.0
 30
0.0
  9
$UCSORGLEFT
 10
0.0
 20
0.0
 30
0.0
  9
$UCSORGRIGHT
 10
0.0
 20
0.0
 30
0.0
  9
$UCSORGFRONT
 10
0.0
 20
0.0
 30
0.0
  9
$UCSORGBACK
 10
0.0
 20
0.0
 30
0.0
  9
$PUCSBASE
  2

  9
$PUCSNAME
  2

  9
$PUCSORG
 10
0.0
 20
0.0
 30
0.0
  9
$PUCSXDIR
 10
1.0
 20
0.0
 30
0.0
  9
$PUCSYDIR
 10
0.0
 20
1.0
 30
0.0
  9
$PUCSORTHOREF
  2

  9
$PUCSORTHOVIEW
 70
     0
  9
$PUCSORGTOP
 10
0.0
 20
0.0
 30
0.0
  9
$PUCSORGBOTTOM
 10
0.0
 20
0.0
 30
0.0
  9
$PUCSORGLEFT
 10
0.0
 20
0.0
 30
0.0
  9
$PUCSORGRIGHT
 10
0.0
 20
0.0
 30
0.0
  9
$PUCSORGFRONT
 10
0.0
 20
0.0
 30
0.0
  9
$PUCSORGBACK
 10
0.0
 20
0.0
 30
0.0
  9
$USERI1
 70
     0
  9
$USERI2
 70
     0
  9
$USERI3
 70
     0
  9
$USERI4
 70
     0
  9
$USERI5
 70
     0
  9
$USERR1
 40
0.0
  9
$USERR2
 40
0.0
  9
$USERR3
 40
0.0
  9
$USERR4
 40
0.0
  9
$USERR5
 40
0.0
  9
$WORLDVIEW
 70
     1
  9
$SHADEDGE
 70
     3
  9
$SHADEDIF
 70
    70
  9
$TILEMODE
 70
     1
  9
$MAXACTVP
 70
    16
  9
$PINSBASE
 10
0.0
 20
0.0
 30
0.0
  9
$PLIMCHECK
 70
     0
  9
$PEXTMIN
 10
1.000000000000000E+20
 20
1.000000000000000E+20
 30
1.000000000000000E+20
  9
$PEXTMAX
 10
-1.000000000000000E+20
 20
-1.000000000000000E+20
 30
-1.000000000000000E+20
  9
$PLIMMIN
 10
-0.2124999999999986
 20
0.0
  9
$PLIMMAX
 10
11.7875
 20
9.0
  9
$UNITMODE
 70
     0
  9
$VISRETAIN
 70
     0
  9
$PLINEGEN
 70
     0
  9
$PSLTSCALE
 70
     0
  9
$TREEDEPTH
 70
  3020
  9
$CMLSTYLE
  2
STANDARD
  9
$CMLJUST
 70
     0
  9
$CMLSCALE
 40
1.0
  9
$PROXYGRAPHICS
 70
     1
  9
$MEASUREMENT
 70
     0
  9
$CELWEIGHT
370
    -1
  9
$ENDCAPS
280
     0
  9
$JOINSTYLE
280
     0
  9
$LWDISPLAY
290
     0
  9
$INSUNITS
 70
     0
  9
$HYPERLINKBASE
  1

  9
$STYLESHEET
  1
monochrome.ctb
  9
$XEDIT
290
     1
  9
$CEPSNTYPE
380
     0
  9
$PSTYLEMODE
290
     1
  9
$FINGERPRINTGUID
  2
{9715836B-223A-4A55-AD11-B1A6C5060DC2}
  9
$VERSIONGUID
  2
{C4D9FA23-7E8B-4C4E-8949-967FF3D9CEA6}
  9
$EXTNAMES
290
     1
  9
$PSVPSCALE
 40
0.0
  9
$OLESTARTUP
290
     0
  0
ENDSEC
  0
SECTION
  2
CLASSES
  0
CLASS
  1
DICTIONARYVAR
  2
AcDbDictionaryVar
  3
AutoCAD 2000
 90
        0
280
     0
281
     0
  0
CLASS
  1
LWPOLYLINE
  2
AcDbPolyline
  3
AutoCAD 2000
 90
    32768
280
     0
281
     1
  0
CLASS
  1
HATCH
  2
AcDbHatch
  3
AutoCAD 2000
 90
    32768
280
     0
281
     1
  0
CLASS
  1
ACDBDICTIONARYWDFLT
  2
AcDbDictionaryWithDefault
  3
AutoCAD 2000
 90
        0
280
     0
281
     0
  0
CLASS
  1
ACDBPLACEHOLDER
  2
AcDbPlaceHolder
  3
AutoCAD 2000
 90
        0
280
     0
281
     0
  0
CLASS
  1
LAYOUT
  2
AcDbLayout
  3
AutoCAD 2000
 90
        0
280
     0
281
     0
  0
CLASS
  1
LONG_TRANSACTION
  2
AcDbLongTransaction
  3
AutoCAD 2000
 90
    32768
280
     0
281
     0
  0
CLASS
  1
LWPOLYLINE
  2
AcDbPolyline
  3
AutoCAD 2000
 90
    32768
280
     0
281
     1
  0
CLASS
  1
HATCH
  2
AcDbHatch
  3
AutoCAD 2000
 90
    32768
280
     0
281
     1
  0
CLASS
  1
XRECORD
  2
AcDbXrecord
  3
AutoCAD 2000
 90
    32768
280
     0
281
     0
  0
CLASS
  1
LONG_TRANSACTION
  2
AcDbLongTransaction
  3
AutoCAD 2000
 90
    32768
280
     0
281
     0
  0
CLASS
  1
LWPOLYLINE
  2
AcDbPolyline
  3
AutoCAD 2000
 90
    32768
280
     0
281
     1
  0
CLASS
  1
HATCH
  2
AcDbHatch
  3
AutoCAD 2000
 90
    32768
280
     0
281
     1
  0
CLASS
  1
XRECORD
  2
AcDbXrecord
  3
AutoCAD 2000
 90
    32768
280
     0
281
     0
  0
CLASS
  1
LONG_TRANSACTION
  2
AcDbLongTransaction
  3
AutoCAD 2000
 90
    32768
280
     0
281
     0
  0
CLASS
  1
LWPOLYLINE
  2
AcDbPolyline
  3
AutoCAD 2000
 90
    32768
280
     0
281
     1
  0
CLASS
  1
HATCH
  2
AcDbHatch
  3
AutoCAD 2000
 90
    32768
280
     0
281
     1
  0
CLASS
  1
XRECORD
  2
AcDbXrecord
  3
AutoCAD 2000
 90
    32768
280
     0
281
     0
  0
CLASS
  1
LONG_TRANSACTION
  2
AcDbLongTransaction
  3
AutoCAD 2000
 90
    32768
280
     0
281
     0
  0
CLASS
  1
LWPOLYLINE
  2
AcDbPolyline
  3
AutoCAD 2000
 90
    32768
280
     0
281
     1
  0
CLASS
  1
HATCH
  2
AcDbHatch
  3
AutoCAD 2000
 90
    32768
280
     0
281
     1
  0
CLASS
  1
XRECORD
  2
AcDbXrecord
  3
AutoCAD 2000
 90
    32768
280
     0
281
     0
  0
ENDSEC
  0
SECTION
  2
TABLES
  0
TABLE
  2
VPORT
  5
13
330
0
100
AcDbSymbolTable
 70
     2
  0
VPORT
  5
8F8
330
13
100
AcDbSymbolTableRecord
100
AcDbViewportTableRecord
  2
*Active
 70
     0
 10
0.0
 20
0.0
 11
1.0
 21
1.0
 12
60.59855974400107
 22
21.90460022961441
 13
0.0
 23
0.0
 14
1.0
 24
1.0
 15
0.0
 25
0.0
 16
0.0
 26
0.0
 36
1.0
 17
-0.2124999999999986
 27
0.0
 37
0.0
 40
9.733650185229709
 41
1.767195767195767
 42
50.0
 43
0.0
 44
0.0
 50
0.0
 51
0.0
 71
     0
 72
 20000
 73
     1
 74
     0
 75
     0
 76
     0
 77
     0
 78
     1
281
     0
 65
     1
110
0.0
120
0.0
130
0.0
111
1.0
121
0.0
131
0.0
112
0.0
122
1.0
132
0.0
 79
     0
146
0.0
  0
ENDTAB
  0
TABLE
  2
LTYPE
  5
E
330
0
100
AcDbSymbolTable
 70
     4
  0
LTYPE
  5
F
330
E
100
AcDbSymbolTableRecord
100
AcDbLinetypeTableRecord
  2
BYBLOCK
 70
     0
  3

 72
    65
 73
     0
 40
0.0
  0
LTYPE
  5
10
330
E
100
AcDbSymbolTableRecord
100
AcDbLinetypeTableRecord
  2
BYLAYER
 70
     0
  3

 72
    65
 73
     0
 40
0.0
  0
LTYPE
  5
5
330
E
100
AcDbSymbolTableRecord
100
AcDbLinetypeTableRecord
  2
CONTINUOUS
 70
     0
  3
Solid line
 72
    65
 73
     0
 40
0.0
  0
LTYPE
  5
A3
330
E
100
AcDbSymbolTableRecord
100
AcDbLinetypeTableRecord
  2
HIDDEN2
 70
     0
  3
Hidden (.5x) _ _ _ _ _ _ _ _ _ _ _ _ _ _ _ _ _
 72
    65
 73
     2
 40
0.1875
 49
0.125
 74
     0
 49
-0.0625
 74
     0
  0
LTYPE
  5
BE
330
E
100
AcDbSymbolTableRecord
100
AcDbLinetypeTableRecord
  2
CENTER
 70
     0
  3
____ _ ____ _ ____ _ ____ _ ____ _ ____ _ ____ 
 72
    65
 73
     4
 40
2.0
 49
1.25
 74
     0
 49
-0.25
 74
     0
 49
0.25
 74
     0
 49
-0.25
 74
     0
  0
LTYPE
  5
298
330
E
100
AcDbSymbolTableRecord
100
AcDbLinetypeTableRecord
  2
CENTER2
 70
     0
  3
Center (.5x) ___ _ ___ _ ___ _ ___ _ ___ _ ___
 72
    65
 73
     4
 40
1.125
 49
0.75
 74
     0
 49
-0.125
 74
     0
 49
0.125
 74
     0
 49
-0.125
 74
     0
  0
ENDTAB
  0
TABLE
  2
LAYER
  5
A
330
0
100
AcDbSymbolTable
 70
     6
  0
LAYER
  5
4
330
A
100
AcDbSymbolTableRecord
100
AcDbLayerTableRecord
  2
0
 70
     0
 62
     7
  6
CONTINUOUS
370
    -3
390
2E7
  0
LAYER
  5
D4
330
A
100
AcDbSymbolTableRecord
100
AcDbLayerTableRecord
  2
DEFPOINTS
 70
     0
 62
     7
  6
CONTINUOUS
290
     0
370
    -3
390
2E7
  0
LAYER
  5
C0
330
A
100
AcDbSymbolTableRecord
100
AcDbLayerTableRecord
  2
AGBASE
 70
     0
 62
    14
  6
CONTINUOUS
370
    -3
390
2E7
  0
LAYER
  5
A2
330
A
100
AcDbSymbolTableRecord
100
AcDbLayerTableRecord
  2
AGCASE
 70
     0
 62
    14
  6
CONTINUOUS
370
    -3
390
2E7
  0
LAYER
  5
7F2
330
A
100
AcDbSymbolTableRecord
100
AcDbLayerTableRecord
  2
TITLE
 70
     0
 62
     8
  6
CONTINUOUS
370
    -3
390
2E7
  0
LAYER
  5
7F3
330
A
100
AcDbSymbolTableRecord
100
AcDbLayerTableRecord
  2
TEXT
 70
     0
 62
     1
  6
CONTINUOUS
370
    -3
390
2E7
  0
ENDTAB
  0
TABLE
  2
STYLE
  5
B
330
0
100
AcDbSymbolTable
 70
     4
  0
STYLE
  5
C
330
B
100
AcDbSymbolTableRecord
100
AcDbTextStyleTableRecord
  2
STANDARD
 70
     0
 40
0.0
 41
1.0
 50
0.0
 71
     0
 42
0.125
  3
ARIAL.TTF
  4

1001
ACAD
1000
Arial
1071
       34
  0
STYLE
  5
4B
330
B
100
AcDbSymbolTableRecord
100
AcDbTextStyleTableRecord
  2
ROMANS
 70
     0
 40
0.125
 41
1.0
 50
0.0
 71
     0
 42
0.125
  3
romab___.ttf
  4

1001
ACAD
1000
Romantic
1071
 33554946
  0
STYLE
  5
48
330
B
100
AcDbSymbolTableRecord
100
AcDbTextStyleTableRecord
  2
SANSSERIFBOLDOBLIQUE
 70
     0
 40
0.125
 41
1.074999999999999
 50
0.0
 71
     0
 42
1.199999999999999
  3
sasbo___.pfb
  4

  0
STYLE
  5
7F4
330
B
100
AcDbSymbolTableRecord
100
AcDbTextStyleTableRecord
  2
TXT
 70
     0
 40
0.0
 41
0.75
 50
0.0
 71
     0
 42
0.125
  3
txt
  4

  0
ENDTAB
  0
TABLE
  2
VIEW
  5
11
330
0
100
AcDbSymbolTable
 70
     0
  0
ENDTAB
  0
TABLE
  2
UCS
  5
12
330
0
100
AcDbSymbolTable
 70
     0
  0
ENDTAB
  0
TABLE
  2
APPID
  5
15
330
0
100
AcDbSymbolTable
 70
     1
  0
APPID
  5
D
330
15
100
AcDbSymbolTableRecord
100
AcDbRegAppTableRecord
  2
ACAD
 70
     0
  0
ENDTAB
  0
TABLE
  2
DIMSTYLE
  5
16
330
0
100
AcDbSymbolTable
 70
     3
100
AcDbDimStyleTable
 71
     0
  0
DIMSTYLE
105
1C
102
{ACAD_REACTORS
330
CA
330
31E
330
341
330
34F
330
35D
330
3BB
330
3CA
330
436
330
44E
330
4B1
330
4DD
330
4EB
330
5CD
330
5DB
330
5E9
102
}
330
16
100
AcDbSymbolTableRecord
100
AcDbDimStyleTableRecord
  2
STANDARD
 70
     0
340
C
  0
DIMSTYLE
105
7F5
330
16
100
AcDbSymbolTableRecord
100
AcDbDimStyleTableRecord
  2
23NSTD
 70
     0
 44
0.09
140
0.125
271
     3
272
     3
289
     1
340
7F4
  0
DIMSTYLE
105
8E7
330
16
100
AcDbSymbolTableRecord
100
AcDbDimStyleTableRecord
  2
STANDARD_WS
 70
     0
 44
0.1
140
0.125
141
0.03
176
     1
177
     1
178
     4
271
     3
272
     3
340
C
  0
ENDTAB
  0
TABLE
  2
BLOCK_RECORD
  5
1
330
0
100
AcDbSymbolTable
 70
    20
  0
BLOCK_RECORD
  5
2
102
{ACAD_XDICTIONARY
360
3AC
102
}
330
1
100
AcDbSymbolTableRecord
100
AcDbBlockTableRecord
  2
*MODEL_SPACE
340
2EA
  0
BLOCK_RECORD
  5
7
102
{ACAD_XDICTIONARY
360
3AE
102
}
330
1
100
AcDbSymbolTableRecord
100
AcDbBlockTableRecord
  2
*PAPER_SPACE
340
2EB
  0
BLOCK_RECORD
  5
46
330
1
100
AcDbSymbolTableRecord
100
AcDbBlockTableRecord
  2
POLYCASELOGO
340
0
102
{BLKREFS
331
45
102
}
  0
BLOCK_RECORD
  5
92
330
1
100
AcDbSymbolTableRecord
100
AcDbBlockTableRecord
  2
REVGRID
340
0
  0
BLOCK_RECORD
  5
2D
330
1
100
AcDbSymbolTableRecord
100
AcDbBlockTableRecord
  2
TITLEBLK
340
0
  0
BLOCK_RECORD
  5
31F
330
1
100
AcDbSymbolTableRecord
100
AcDbBlockTableRecord
  2
*D3
340
0
  0
BLOCK_RECORD
  5
342
330
1
100
AcDbSymbolTableRecord
100
AcDbBlockTableRecord
  2
*D4
340
0
  0
BLOCK_RECORD
  5
350
330
1
100
AcDbSymbolTableRecord
100
AcDbBlockTableRecord
  2
*D5
340
0
  0
BLOCK_RECORD
  5
35E
330
1
100
AcDbSymbolTableRecord
100
AcDbBlockTableRecord
  2
*D6
340
0
  0
BLOCK_RECORD
  5
3BC
330
1
100
AcDbSymbolTableRecord
100
AcDbBlockTableRecord
  2
*D7
340
0
  0
BLOCK_RECORD
  5
3CB
330
1
100
AcDbSymbolTableRecord
100
AcDbBlockTableRecord
  2
*D8
340
0
  0
BLOCK_RECORD
  5
429
330
1
100
AcDbSymbolTableRecord
100
AcDbBlockTableRecord
  2
*D9
340
0
  0
BLOCK_RECORD
  5
437
330
1
100
AcDbSymbolTableRecord
100
AcDbBlockTableRecord
  2
*D10
340
0
  0
BLOCK_RECORD
  5
44F
330
1
100
AcDbSymbolTableRecord
100
AcDbBlockTableRecord
  2
*D11
340
0
  0
BLOCK_RECORD
  5
4B2
330
1
100
AcDbSymbolTableRecord
100
AcDbBlockTableRecord
  2
*D12
340
0
  0
BLOCK_RECORD
  5
4DE
330
1
100
AcDbSymbolTableRecord
100
AcDbBlockTableRecord
  2
*D13
340
0
  0
BLOCK_RECORD
  5
4EC
330
1
100
AcDbSymbolTableRecord
100
AcDbBlockTableRecord
  2
*D14
340
0
  0
BLOCK_RECORD
  5
5CE
330
1
100
AcDbSymbolTableRecord
100
AcDbBlockTableRecord
  2
*D15
340
0
  0
BLOCK_RECORD
  5
5DC
330
1
100
AcDbSymbolTableRecord
100
AcDbBlockTableRecord
  2
*D16
340
0
  0
BLOCK_RECORD
  5
5EA
330
1
100
AcDbSymbolTableRecord
100
AcDbBlockTableRecord
  2
*D17
340
0
  0
BLOCK_RECORD
  5
62C
330
1
100
AcDbSymbolTableRecord
100
AcDbBlockTableRecord
  2
_Dot
340
0
  0
BLOCK_RECORD
  5
7F6
330
1
100
AcDbSymbolTableRecord
100
AcDbBlockTableRecord
  2
B
340
0
102
{BLKREFS
331
85B
102
}
  0
ENDTAB
  0
ENDSEC
  0
SECTION
  2
BLOCKS
  0
BLOCK
  5
3
330
2
100
AcDbEntity
  8
0
100
AcDbBlockBegin
  2
*MODEL_SPACE
 70
     0
 10
0.0
 20
0.0
 30
0.0
  3
*MODEL_SPACE
  1

  0
ENDBLK
  5
6
330
2
100
AcDbEntity
  8
0
100
AcDbBlockEnd
  0
BLOCK
  5
8
330
7
100
AcDbEntity
 67
     1
  8
0
100
AcDbBlockBegin
  2
*PAPER_SPACE
 70
     0
 10
0.0
 20
0.0
 30
0.0
  3
*PAPER_SPACE
  1

  0
ENDBLK
  5
9
330
7
100
AcDbEntity
 67
     1
  8
0
100
AcDbBlockEnd
  0
BLOCK
  5
77
330
46
100
AcDbEntity
  8
0
100
AcDbBlockBegin
  2
POLYCASELOGO
 70
     0
 10
0.0
 20
0.0
 30
0.0
  3
POLYCASELOGO
  1

  0
TEXT
  5
47
330
46
100
AcDbEntity
  8
0
  6
Continuous
 62
     5
100
AcDbText
 10
0.5543786009275298
 20
0.2596875577735744
 30
0.0
 40
0.2560714469563737
  1
POLYCASE
 41
1.074999999999999
  7
SANSSERIFBOLDOBLIQUE
100
AcDbText
  0
LWPOLYLINE
  5
49
330
46
100
AcDbEntity
  8
0
 62
     5
100
AcDbPolyline
 90
        2
 70
     0
 43
0.0283704365880094
 10
0.5653711824815968
 20
0.0874383236000913
 10
2.515371182481596
 20
0.0874383236000913
  0
TEXT
  5
4A
330
46
100
AcDbEntity
  8
0
 62
     5
100
AcDbText
 10
0.5605156599830235
 20
0.1323139789410757
 30
0.0
 40
0.075654497568025
  1
YOUR PERFECT FIT
 41
1.8
  7
ROMANS
100
AcDbText
  0
ARC
  5
4C
330
46
100
AcDbEntity
  8
0
  6
Continuous
 62
     5
100
AcDbCircle
 10
0.3887432458373094
 20
0.3774800182460627
 30
0.0
 40
0.031265452549206
100
AcDbArc
 50
266.7706331822096
 51
34.98953924178366
  0
ARC
  5
4D
330
46
100
AcDbEntity
  8
0
  6
Continuous
 62
     5
100
AcDbCircle
 10
0.416855386687077
 20
0.3701236067504201
 30
0.0
 40
0.037429262845715
100
AcDbArc
 50
284.5083814713476
 51
357.5532058373056
  0
HATCH
  5
4E
330
46
100
AcDbEntity
  8
0
 62
     5
100
AcDbHatch
 10
0.0
 20
0.0
 30
0.0
210
0.0
220
0.0
230
1.0
  2
ANSI37
 70
     0
 71
     0
 91
        1
 92
        1
 93
       11
 72
     2
 10
0.2931730151761709
 20
0.2945838597867372
 40
0.1588767169960905
 50
44.89452214437227
 51
75.72101642693887
 73
     1
 72
     1
 10
0.3323589335387709
 20
0.4485522818918409
 11
0.3265929222653341
 21
0.4668852408125282
 72
     2
 10
0.2969666889642948
 20
0.2837087256641109
 40
0.1855568629868643
 50
279.1872322025628
 51
321.2114153013091
 73
     0
 72
     2
 10
0.391360930001218
 20
0.3614695140686965
 40
0.0632842065627897
 50
322.5501373864274
 51
353.5982204382204
 73
     0
 72
     2
 10
0.4168553866870788
 20
0.3701236067504183
 40
0.037429262845715
 50
2.446794162694425
 51
75.49161852865238
 73
     0
 72
     2
 10
0.3842397376361806
 20
0.451177177154813
 40
0.1245798445307902
 50
70.3013609867947
 51
93.48971079086757
 73
     0
 72
     2
 10
0.3785106583832878
 20
0.5442257936888897
 40
0.2174053638482186
 50
90.4886177031712
 51
92.08518751394512
 73
     0
 72
     1
 10
0.3706002871579663
 20
0.3269643883333746
 11
0.3647966485473173
 21
0.345416982890306
 72
     2
 10
0.368138231815232
 20
0.5488074975796167
 40
0.2034179629342476
 50
269.0587496435967
 51
275.3152451116762
 73
     1
 72
     2
 10
0.3887432458373094
 20
0.3774800182460609
 40
0.031265452549206
 50
266.7706331822096
 51
394.9895392417836
 73
     1
 72
     2
 10
0.3624406169004164
 20
0.364725498726969
 40
0.060306102378538
 50
30.58307632047512
 51
44.13489854844378
 73
     1
 97
        0
 75
     0
 76
     1
 52
0.0
 41
0.0453750276742311
 77
     0
 78
     2
 53
45.0
 43
-3.289467215457912
 44
-3.001277648028757
 45
-0.004010623720622
 46
0.004010623720622
 79
     0
 53
135.0
 43
-3.289467215457912
 44
-3.001277648028757
 45
-0.004010623720622
 46
-0.004010623720622
 79
     0
 98
        1
 10
-3.289467215457912
 20
-3.001277648028757
  0
HATCH
  5
4F
330
46
100
AcDbEntity
  8
0
 62
     5
100
AcDbHatch
 10
0.0
 20
0.0
 30
0.0
210
0.0
220
0.0
230
1.0
  2
ANSI37
 70
     0
 71
     0
 91
        1
 92
        1
 93
        4
 72
     2
 10
0.368138231815232
 20
0.5488074975796167
 40
0.2034179629342476
 50
241.2725538880669
 51
261.6978642764231
 73
     1
 72
     1
 10
0.3387660844240354
 20
0.3475212720152516
 11
0.3444315302060072
 21
0.3295080597853945
 72
     2
 10
0.3785106583832878
 20
0.5442257936888897
 40
0.2174053638482186
 50
99.0185280917996
 51
114.1854177949883
 73
     0
 72
     1
 10
0.2894416637327222
 20
0.3459033128101137
 11
0.2703666862890426
 21
0.3704270263117728
 97
        0
 75
     0
 76
     1
 52
0.0
 41
0.0453750276742311
 77
     0
 78
     2
 53
45.0
 43
-3.289467215457912
 44
-3.001277648028757
 45
-0.004010623720622
 46
0.004010623720622
 79
     0
 53
135.0
 43
-3.289467215457912
 44
-3.001277648028757
 45
-0.004010623720622
 46
-0.004010623720622
 79
     0
 98
        1
 10
-3.289467215457912
 20
-3.001277648028757
  0
ARC
  5
50
330
46
100
AcDbEntity
  8
0
 62
     5
100
AcDbCircle
 10
-1.004282102263919
 20
-0.757961875977971
 30
0.0
 40
1.684093940752742
100
AcDbArc
 50
34.18447411692975
 51
41.30254825040066
  0
ARC
  5
51
330
46
100
AcDbEntity
  8
0
  6
Continuous
 62
     5
100
AcDbCircle
 10
0.3785106583832878
 20
0.5442257936888933
 30
0.0
 40
0.2174053638482186
100
AcDbArc
 50
245.8145822050116
 51
260.9814719082004
  0
HATCH
  5
52
330
46
100
AcDbEntity
  8
0
 62
     5
100
AcDbHatch
 10
0.0
 20
0.0
 30
0.0
210
0.0
220
0.0
230
1.0
  2
ANSI37
 70
     0
 71
     0
 91
        1
 92
       33
 93
       10
 72
     1
 10
0.3444315302060072
 20
0.329508059785395
 11
0.3706002871579646
 21
0.3269643883333757
 72
     2
 10
-1.004282102263919
 20
-0.7579618759779727
 40
1.684093940752742
 50
34.18447411692975
 51
41.30254825040066
 73
     1
 72
     2
 10
-1.13904507603075
 20
-0.7417938831336617
 40
1.760202787403546
 50
28.95584779356306
 51
37.65348787016842
 73
     1
 72
     1
 10
0.3444315302060072
 20
0.329508059785395
 11
0.3888557381376909
 21
0.1882618602077355
 72
     1
 10
0.3706002871579663
 20
0.3269643883333746
 11
0.4387571520870335
 21
0.1102605100973615
 72
     1
 10
0.254542153127181
 20
0.3334867720960002
 11
0.2608678370467192
 21
0.3535992030196624
 72
     2
 10
-1.004282102263919
 20
-0.7579618759779727
 40
1.684093940752742
 50
28.16790426947593
 51
31.03859275647719
 73
     1
 72
     1
 10
0.4198612308673102
 20
0.0755952402932767
 11
0.4803612677662859
 21
0.0370264667701803
 72
     2
 10
-1.13904507603075
 20
-0.7417938831336617
 40
1.760202787403546
 50
27.66959516185725
 51
28.05942494817616
 73
     1
 72
     1
 10
0.4011201161180545
 20
0.1103827615101878
 11
0.4142638285818255
 21
0.0861827467505974
 97
        0
 75
     0
 76
     1
 52
0.0
 41
0.0453750276742311
 77
     0
 78
     2
 53
45.0
 43
-3.289467215457912
 44
-3.001277648028757
 45
-0.004010623720622
 46
0.004010623720622
 79
     0
 53
135.0
 43
-3.289467215457912
 44
-3.001277648028757
 45
-0.004010623720622
 46
-0.004010623720622
 79
     0
 98
        1
 10
-3.289467215457912
 20
-3.001277648028757
  0
HATCH
  5
53
330
46
100
AcDbEntity
  8
0
 62
     5
100
AcDbHatch
 10
0.0
 20
0.0
 30
0.0
210
0.0
220
0.0
230
1.0
  2
ANSI37
 70
     0
 71
     0
 91
        1
 92
        1
 93
        6
 72
     1
 10
0.1843723433461601
 20
0.1103827615101878
 11
0.4011201161180545
 21
0.1103827615101878
 72
     1
 10
0.4011201161180545
 20
0.1103827615101878
 11
0.4142638285818255
 21
0.0861827467505974
 72
     1
 10
0.4142638285818255
 20
0.0861827467505965
 11
0.1513923171281082
 21
0.0861827467505974
 72
     1
 10
0.15139231712811
 20
0.0861827467505965
 11
0.2364303266177767
 21
0.3565600076920983
 72
     1
 10
0.2364303266177767
 20
0.3565600076920994
 11
0.2545421531271828
 21
0.3334867720959997
 72
     1
 10
0.254542153127181
 20
0.3334867720960002
 11
0.1843723433461584
 21
0.1103827615101873
 97
        0
 75
     0
 76
     1
 52
0.0
 41
0.0453750276742311
 77
     0
 78
     2
 53
45.0
 43
-3.289467215457912
 44
-3.001277648028757
 45
-0.004010623720622
 46
0.004010623720622
 79
     0
 53
135.0
 43
-3.289467215457912
 44
-3.001277648028757
 45
-0.004010623720622
 46
-0.004010623720622
 79
     0
 98
        1
 10
-3.289467215457912
 20
-3.001277648028757
  0
LINE
  5
54
330
46
100
AcDbEntity
  8
0
 62
     5
100
AcDbLine
 10
0.236430326617775
 20
0.3565600076921012
 30
0.0
 11
0.15139231712811
 21
0.0861827467505982
 31
0.0
  0
HATCH
  5
55
330
46
100
AcDbEntity
  8
0
 62
     5
100
AcDbHatch
 10
0.0
 20
0.0
 30
0.0
210
0.0
220
0.0
230
1.0
  2
ANSI37
 70
     0
 71
     0
 91
        1
 92
        1
 93
       14
 72
     1
 10
0.2988611570693607
 20
0.5550580327176516
 11
0.3265929222653288
 21
0.4668852408125276
 72
     1
 10
0.3265929222653323
 20
0.4668852408125268
 11
0.3323589335387691
 21
0.4485522818918395
 72
     1
 10
0.3323589335387709
 20
0.4485522818918409
 11
0.3647966485473173
 21
0.3454169828903064
 72
     1
 10
0.3647966485473173
 20
0.3454169828903062
 11
0.3706002871579646
 21
0.3269643883333748
 72
     1
 10
0.3706002871579663
 20
0.3269643883333746
 11
0.3444315302060072
 21
0.3295080597853939
 72
     1
 10
0.3444315302060072
 20
0.329508059785395
 11
0.3387660844240354
 21
0.3475212720152521
 72
     1
 10
0.3387660844240354
 20
0.3475212720152516
 11
0.2988611570693624
 21
0.474398476937804
 72
     1
 10
0.2988611570693607
 20
0.4743984769378056
 11
0.2608678370467192
 21
0.3535992030196637
 72
     1
 10
0.260867837046721
 20
0.3535992030196624
 11
0.254542153127181
 21
0.3334867720960002
 72
     1
 10
0.254542153127181
 20
0.3334867720960002
 11
0.236430326617775
 21
0.3565600076920998
 72
     1
 10
0.2364303266177767
 20
0.3565600076920994
 11
0.242103905929854
 21
0.3745990803766492
 72
     1
 10
0.242103905929854
 20
0.3745990803766492
 11
0.2689368903660263
 21
0.4599142103788421
 72
     1
 10
0.2689368903660245
 20
0.4599142103788428
 11
0.2739367623135447
 21
0.4758112391350588
 72
     1
 10
0.2739367623135447
 20
0.4758112391350587
 11
0.2988611570693624
 21
0.5550580327176525
 97
        0
 75
     0
 76
     1
 52
0.0
 41
0.0453750276742311
 77
     0
 78
     2
 53
45.0
 43
-3.289467215457912
 44
-3.001277648028757
 45
-0.004010623720622
 46
0.004010623720622
 79
     0
 53
135.0
 43
-3.289467215457912
 44
-3.001277648028757
 45
-0.004010623720622
 46
-0.004010623720622
 79
     0
 98
        1
 10
-3.289467215457912
 20
-3.001277648028757
  0
LINE
  5
56
330
46
100
AcDbEntity
  8
0
 62
     5
100
AcDbLine
 10
0.1843723433461601
 20
0.1103827615101895
 30
0.0
 11
0.4011201161180545
 21
0.1103827615101895
 31
0.0
  0
LINE
  5
57
330
46
100
AcDbEntity
  8
0
 62
     5
100
AcDbLine
 10
0.15139231712811
 20
0.0861827467505982
 30
0.0
 11
0.4142638285818255
 21
0.0861827467505982
 31
0.0
  0
ARC
  5
58
330
46
100
AcDbEntity
  8
0
 62
     5
100
AcDbCircle
 10
-1.13904507603075
 20
-0.7417938831336599
 30
0.0
 40
1.760202787403546
100
AcDbArc
 50
28.95584779356306
 51
37.65348787016842
  0
LINE
  5
59
330
46
100
AcDbEntity
  8
0
 62
     5
100
AcDbLine
 10
0.254542153127181
 20
0.333486772096002
 30
0.0
 11
0.1843723433461601
 21
0.1103827615101895
 31
0.0
  0
LINE
  5
5A
330
46
100
AcDbEntity
  8
0
 62
     5
100
AcDbLine
 10
0.3706002871579646
 20
0.3269643883333746
 30
0.0
 11
0.4387571520870335
 21
0.1102605100973619
 31
0.0
  0
LINE
  5
5B
330
46
100
AcDbEntity
  8
0
 62
     5
100
AcDbLine
 10
0.4198612308673102
 20
0.0755952402932785
 30
0.0
 11
0.4803612677662859
 21
0.0370264667701807
 31
0.0
  0
LINE
  5
5C
330
46
100
AcDbEntity
  8
0
 62
     5
100
AcDbLine
 10
0.4011201161180527
 20
0.1103827615101895
 30
0.0
 11
0.4142638285818255
 21
0.0861827467505982
 31
0.0
  0
ARC
  5
5D
330
46
100
AcDbEntity
  8
0
 62
     5
100
AcDbCircle
 10
-1.13904507603075
 20
-0.7417938831336599
 30
0.0
 40
1.760202787403546
100
AcDbArc
 50
27.66959516185725
 51
28.05942494817616
  0
ARC
  5
5E
330
46
100
AcDbEntity
  8
0
 62
     5
100
AcDbCircle
 10
-1.004282102263919
 20
-0.757961875977971
 30
0.0
 40
1.684093940752742
100
AcDbArc
 50
28.16790426947593
 51
31.03859275647719
  0
ARC
  5
5F
330
46
100
AcDbEntity
  8
0
  6
Continuous
 62
     5
100
AcDbCircle
 10
0.3785106583832878
 20
0.5442257936888933
 30
0.0
 40
0.2174053638482186
100
AcDbArc
 50
267.9148124860548
 51
269.5113822968287
  0
ARC
  5
60
330
46
100
AcDbEntity
  8
0
  6
Continuous
 62
     5
100
AcDbCircle
 10
0.3842397376361806
 20
0.451177177154813
 30
0.0
 40
0.1245798445307902
100
AcDbArc
 50
266.5102892091324
 51
289.6986390132052
  0
LINE
  5
61
330
46
100
AcDbEntity
  8
0
 62
     5
100
AcDbLine
 10
0.3444315302060072
 20
0.329508059785395
 30
0.0
 11
0.3888557381376909
 21
0.1882618602077368
 31
0.0
  0
HATCH
  5
62
330
46
100
AcDbEntity
  8
0
 62
     5
100
AcDbHatch
 10
0.0
 20
0.0
 30
0.0
210
0.0
220
0.0
230
1.0
  2
ANSI37
 70
     0
 71
     0
 91
        1
 92
        1
 93
        3
 72
     1
 10
0.242103905929854
 20
0.3745990803766492
 11
0.2364303266177767
 21
0.3565600076920994
 72
     2
 10
-1.13904507603075
 20
-0.7417938831336617
 40
1.760202787403546
 50
38.60830081639222
 51
47.20214679696134
 73
     1
 72
     2
 10
-1.004282102263919
 20
-0.7579618759779727
 40
1.684093940752742
 50
309.0573044417869
 51
317.7393318345313
 73
     0
 97
        0
 75
     0
 76
     1
 52
0.0
 41
0.0453750276742311
 77
     0
 78
     2
 53
45.0
 43
-3.289467215457912
 44
-3.001277648028757
 45
-0.004010623720622
 46
0.004010623720622
 79
     0
 53
135.0
 43
-3.289467215457912
 44
-3.001277648028757
 45
-0.004010623720622
 46
-0.004010623720622
 79
     0
 98
        1
 10
-3.289467215457912
 20
-3.001277648028757
  0
ARC
  5
63
330
46
100
AcDbEntity
  8
0
 62
     5
100
AcDbCircle
 10
-1.13904507603075
 20
-0.7417938831336599
 30
0.0
 40
1.760202787403546
100
AcDbArc
 50
38.60830081639222
 51
47.20214679696134
  0
ARC
  5
64
330
46
100
AcDbEntity
  8
0
 62
     5
100
AcDbCircle
 10
-1.004282102263919
 20
-0.757961875977971
 30
0.0
 40
1.684093940752742
100
AcDbArc
 50
42.26066816546867
 51
50.9426955582131
  0
ARC
  5
65
330
46
100
AcDbEntity
  8
0
  6
Continuous
 62
     5
100
AcDbCircle
 10
0.368138231815232
 20
0.5488074975796185
 30
0.0
 40
0.2034179629342476
100
AcDbArc
 50
241.2725538880669
 51
261.6978642764231
  0
ARC
  5
66
330
46
100
AcDbEntity
  8
0
  6
Continuous
 62
     5
100
AcDbCircle
 10
0.296966688964293
 20
0.2837087256641126
 30
0.0
 40
0.1855568629868643
100
AcDbArc
 50
38.78858469869091
 51
80.81276779743708
  0
LINE
  5
67
330
46
100
AcDbEntity
  8
0
 62
     5
100
AcDbLine
 10
0.2988611570693607
 20
0.4743984769378056
 30
0.0
 11
0.3387660844240354
 21
0.3475212720152516
 31
0.0
  0
LINE
  5
68
330
46
100
AcDbEntity
  8
0
 62
     5
100
AcDbLine
 10
0.2988611570693607
 20
0.5550580327176551
 30
0.0
 11
0.3265929222653288
 21
0.4668852408125286
 31
0.0
  0
LINE
  5
69
330
46
100
AcDbEntity
  8
0
 62
     5
100
AcDbLine
 10
0.2988611570693607
 20
0.5550580327176551
 30
0.0
 11
0.2739367623135447
 21
0.4758112391350604
 31
0.0
  0
HATCH
  5
6A
330
46
100
AcDbEntity
  8
0
 62
     5
100
AcDbHatch
 10
0.0
 20
0.0
 30
0.0
210
0.0
220
0.0
230
1.0
  2
ANSI37
 70
     0
 71
     0
 91
        1
 92
        1
 93
        4
 72
     1
 10
0.2739367623135447
 20
0.4758112391350587
 11
0.2689368903660245
 21
0.4599142103788426
 72
     2
 10
0.2614843996869069
 20
0.4001510777290509
 40
0.0602260046943093
 50
82.89188209876458
 51
145.8760929220745
 73
     1
 72
     1
 10
0.2116277271373637
 20
0.4339369304447463
 11
0.1901760796845497
 21
0.4553973803790768
 72
     2
 10
0.2578538046943688
 20
0.3597543333174435
 40
0.1171659801893835
 50
234.7164937370072
 51
277.8896979387382
 73
     0
 97
        0
 75
     0
 76
     1
 52
0.0
 41
0.0453750276742311
 77
     0
 78
     2
 53
45.0
 43
-3.289467215457912
 44
-3.001277648028757
 45
-0.004010623720622
 46
0.004010623720622
 79
     0
 53
135.0
 43
-3.289467215457912
 44
-3.001277648028757
 45
-0.004010623720622
 46
-0.004010623720622
 79
     0
 98
        1
 10
-3.289467215457912
 20
-3.001277648028757
  0
ARC
  5
6B
330
46
100
AcDbEntity
  8
0
  6
Continuous
 62
     5
100
AcDbCircle
 10
0.2578538046943688
 20
0.3597543333174453
 30
0.0
 40
0.1171659801893835
100
AcDbArc
 50
82.11030206126171
 51
125.2835062629927
  0
ARC
  5
6C
330
46
100
AcDbEntity
  8
0
  6
Continuous
 62
     5
100
AcDbCircle
 10
0.2614843996869052
 20
0.4001510777290545
 30
0.0
 40
0.0602260046943093
100
AcDbArc
 50
82.89188209876458
 51
145.8760929220745
  0
LINE
  5
6D
330
46
100
AcDbEntity
  8
0
  6
Continuous
 62
     5
100
AcDbLine
 10
0.2116277271373619
 20
0.4339369304447498
 30
0.0
 11
0.190176079684548
 21
0.4553973803790772
 31
0.0
  0
LINE
  5
6E
330
46
100
AcDbEntity
  8
0
 62
     5
100
AcDbLine
 10
0.2689368903660263
 20
0.4599142103788428
 30
0.0
 11
0.242103905929854
 21
0.374599080376651
 31
0.0
  0
LINE
  5
6F
330
46
100
AcDbEntity
  8
0
  6
Continuous
 62
     5
100
AcDbLine
 10
0.2703666862890408
 20
0.3704270263117717
 30
0.0
 11
0.2894416637327204
 21
0.3459033128101137
 31
0.0
  0
LINE
  5
70
330
46
100
AcDbEntity
  8
0
 62
     5
100
AcDbLine
 10
0.2988611570693607
 20
0.4743984769378056
 30
0.0
 11
0.2608678370467192
 21
0.3535992030196642
 31
0.0
  0
LINE
  5
71
330
46
100
AcDbEntity
  8
0
 62
     5
100
AcDbLine
 10
0.3323589335387691
 20
0.4485522818918409
 30
0.0
 11
0.3647966485473173
 21
0.3454169828903062
 31
0.0
  0
ARC
  5
72
330
46
100
AcDbEntity
  8
0
  6
Continuous
 62
     5
100
AcDbCircle
 10
0.368138231815232
 20
0.5488074975796185
 30
0.0
 40
0.2034179629342476
100
AcDbArc
 50
269.0587496435967
 51
275.3152451116762
  0
ARC
  5
73
330
46
100
AcDbEntity
  8
0
  6
Continuous
 62
     5
100
AcDbCircle
 10
0.3624406169004164
 20
0.3647254987269708
 30
0.0
 40
0.060306102378538
100
AcDbArc
 50
30.58307632047512
 51
44.13489854844378
  0
ARC
  5
74
330
46
100
AcDbEntity
  8
0
  6
Continuous
 62
     5
100
AcDbCircle
 10
0.2931730151761673
 20
0.2945838597867389
 30
0.0
 40
0.1588767169960905
100
AcDbArc
 50
44.89452214437227
 51
75.72101642693887
  0
ARC
  5
75
330
46
100
AcDbEntity
  8
0
  6
Continuous
 62
     5
100
AcDbCircle
 10
0.391360930001218
 20
0.3614695140686965
 30
0.0
 40
0.0632842065627897
100
AcDbArc
 50
6.401779561779607
 51
37.44986261357257
  0
TEXT
  5
76
330
46
100
AcDbEntity
  8
0
 62
     5
100
AcDbText
 10
2.608221457526555
 20
0.5412305374466282
 30
0.0
 40
0.0283704365880094
  1
TM
 41
1.399999999999999
  7
ROMANS
100
AcDbText
  0
ENDBLK
  5
78
330
46
100
AcDbEntity
  8
0
100
AcDbBlockEnd
  0
BLOCK
  5
9F
330
92
100
AcDbEntity
  8
0
100
AcDbBlockBegin
  2
REVGRID
 70
     0
 10
0.0
 20
0.0
 30
0.0
  3
REVGRID
  1

  0
LINE
  5
93
330
92
100
AcDbEntity
  8
0
 62
    14
100
AcDbLine
 10
-3.569497213012034
 20
0.6000000000000015
 30
0.0
 11
0.0
 21
0.5999999999999936
 31
0.0
  0
LINE
  5
94
330
92
100
AcDbEntity
  8
0
 62
    14
100
AcDbLine
 10
-3.569497213012034
 20
0.4000000000000022
 30
0.0
 11
0.0
 21
0.3999999999999961
 31
0.0
  0
LINE
  5
95
330
92
100
AcDbEntity
  8
0
 62
    14
100
AcDbLine
 10
-3.569497213012034
 20
0.8000000000000014
 30
0.0
 11
0.0000000000000009
 21
0.7999999999999936
 31
0.0
  0
LINE
  5
96
330
92
100
AcDbEntity
  8
0
 62
    14
100
AcDbLine
 10
-3.569497213012034
 20
1.000000000000001
 30
0.0
 11
0.0000000000000018
 21
0.9999999999999934
 31
0.0
  0
LWPOLYLINE
  5
97
330
92
100
AcDbEntity
  8
0
 62
    14
100
AcDbPolyline
 90
        2
 70
     0
 43
0.02
 10
-3.569497213012034
 20
1.200000000000002
 10
0.0
 20
1.199999999999994
  0
TEXT
  5
98
330
92
100
AcDbEntity
  8
0
 62
     4
100
AcDbText
 10
-2.339366614691556
 20
0.048797129052713
 30
0.0
 40
0.09
  1
DESCRIPTION
 72
     1
 11
-1.909748606506017
 21
0.048797129052713
 31
0.0
100
AcDbText
  0
LWPOLYLINE
  5
99
330
92
100
AcDbEntity
  8
0
 62
    14
100
AcDbPolyline
 90
        2
 70
     0
 43
0.02
 10
-3.569497213012034
 20
0.2000000000000028
 10
0.0
 20
0.1999999999999948
  0
LWPOLYLINE
  5
9A
330
92
100
AcDbEntity
  8
0
 62
    14
100
AcDbPolyline
 90
        2
 70
     0
 43
0.02
 10
-3.569497213012034
 20
0.0
 10
-3.569497213012034
 20
1.200000000000002
  0
TEXT
  5
9B
330
92
100
AcDbEntity
  8
0
 62
     4
100
AcDbText
 10
-3.545765123340229
 20
0.048797129052713
 30
0.0
 40
0.09
  1
REV
 72
     1
 11
-3.416505232480748
 21
0.048797129052713
 31
0.0
100
AcDbText
  0
LWPOLYLINE
  5
9C
330
92
100
AcDbEntity
  8
0
 62
    14
100
AcDbPolyline
 90
        2
 70
     0
 43
0.0
 10
-3.269497213012034
 20
0.0000000000000001
 10
-3.269497213012034
 20
1.200000000000002
  0
LWPOLYLINE
  5
9D
330
92
100
AcDbEntity
  8
0
 62
    14
100
AcDbPolyline
 90
        2
 70
     0
 43
0.0
 10
-0.5500000000000007
 20
0.0000000000000001
 10
-0.5500000000000007
 20
1.199999999999995
  0
TEXT
  5
9E
330
92
100
AcDbEntity
  8
0
 62
     4
100
AcDbText
 10
-0.4396683196051399
 20
0.0487971290527057
 30
0.0
 40
0.09
  1
DATE
 72
     1
 11
-0.2720080194687142
 21
0.0487971290527057
 31
0.0
100
AcDbText
  0
ENDBLK
  5
A0
330
92
100
AcDbEntity
  8
0
100
AcDbBlockEnd
  0
BLOCK
  5
8E
330
2D
100
AcDbEntity
  8
0
100
AcDbBlockBegin
  2
TITLEBLK
 70
     2
 10
0.0
 20
0.0
 30
0.0
  3
TITLEBLK
  1

  0
LWPOLYLINE
  5
2E
330
2D
100
AcDbEntity
  8
0
 62
    14
100
AcDbPolyline
 90
        2
 70
     0
 43
0.02
 10
-7.330502786987967
 20
0.5999999999999997
 10
-2.4
 20
0.5999999999999997
  0
LWPOLYLINE
  5
2F
330
2D
100
AcDbEntity
  8
0
 62
    14
100
AcDbPolyline
 90
        2
 70
     0
 43
0.02
 10
-7.330502786987967
 20
1.199999999999999
 10
-0.0000000000000018
 20
1.199999999999999
  0
LWPOLYLINE
  5
30
330
2D
100
AcDbEntity
  8
0
 62
    14
100
AcDbPolyline
 90
        2
 70
     0
 43
0.02
 10
-7.330502786987967
 20
0.0
 10
-7.330502786987967
 20
1.199999999999999
  0
LWPOLYLINE
  5
31
330
2D
100
AcDbEntity
  8
0
 62
    14
100
AcDbPolyline
 90
        2
 70
     0
 43
0.02
 10
-5.77559494829334
 20
0.0
 10
-5.77559494829334
 20
0.5999999999999997
  0
LWPOLYLINE
  5
32
330
2D
100
AcDbEntity
  8
0
 62
    14
100
AcDbPolyline
 90
        2
 70
     0
 43
0.02
 10
-4.548596719643201
 20
0.5999999999999997
 10
-4.548596719643201
 20
1.199999999999999
  0
LWPOLYLINE
  5
33
330
2D
100
AcDbEntity
  8
0
 62
    14
100
AcDbPolyline
 90
        2
 70
     0
 43
0.02
 10
-2.4
 20
0.4499999999999997
 10
-0.0000000000000018
 20
0.4499999999999997
  0
LWPOLYLINE
  5
34
330
2D
100
AcDbEntity
  8
0
 62
    14
100
AcDbPolyline
 90
        2
 70
     0
 43
0.02
 10
-2.4
 20
0.9000000000000005
 10
-0.0000000000000018
 20
0.9000000000000005
  0
LWPOLYLINE
  5
35
330
2D
100
AcDbEntity
  8
0
 62
    14
100
AcDbPolyline
 90
        2
 70
     0
 43
0.02
 10
-2.4
 20
0.149999999999999
 10
-0.0000000000000018
 20
0.149999999999999
  0
LWPOLYLINE
  5
36
330
2D
100
AcDbEntity
  8
0
 62
    14
100
AcDbPolyline
 90
        2
 70
     0
 43
0.02
 10
-2.4
 20
0.0
 10
-2.4
 20
1.199999999999999
  0
LWPOLYLINE
  5
37
330
2D
100
AcDbEntity
  8
0
 62
    14
100
AcDbPolyline
 90
        2
 70
     0
 43
0.02
 10
-1.696920455791685
 20
0.9000000000000005
 10
-1.696920455791685
 20
1.199999999999999
  0
LWPOLYLINE
  5
38
330
2D
100
AcDbEntity
  8
0
 62
    14
100
AcDbPolyline
 90
        2
 70
     0
 43
0.02
 10
-1.200000000000001
 20
0.4499999999999997
 10
-1.200000000000001
 20
0.9000000000000005
  0
LWPOLYLINE
  5
39
330
2D
100
AcDbEntity
  8
0
 62
    14
100
AcDbPolyline
 90
        2
 70
     0
 43
0.02
 10
-1.061094862898864
 20
0.9000000000000005
 10
-1.061094862898864
 20
1.199999999999999
  0
LWPOLYLINE
  5
3A
330
2D
100
AcDbEntity
  8
0
 62
    14
100
AcDbPolyline
 90
        2
 70
     0
 43
0.02
 10
-0.551463673949181
 20
0.9000000000000005
 10
-0.551463673949181
 20
1.199999999999999
  0
ATTDEF
  5
3B
330
2D
100
AcDbEntity
  8
0
 62
     4
100
AcDbText
 10
-2.199883038560267
 20
0.93
 30
0.0
 40
0.09
  1
M.M.T.
 72
     1
 11
-2.00514906857391
 21
0.9750000000000001
 31
0.0
100
AcDbAttributeDefinition
  3
Drawn by
  2
DRWN_BY
 70
     8
 74
     2
  0
ATTDEF
  5
3C
330
2D
100
AcDbEntity
  8
0
 62
     4
100
AcDbText
 10
-1.335696500023342
 20
0.93
 30
0.0
 40
0.09
  1

 72
     1
 11
-1.335696500023342
 21
0.9750000000000001
 31
0.0
100
AcDbAttributeDefinition
  3
Approved by
  2
APPRV_BY
 70
     8
 74
     2
  0
ATTDEF
  5
3D
330
2D
100
AcDbEntity
  8
0
 62
     4
100
AcDbText
 10
-0.911750510193495
 20
0.93
 30
0.0
 40
0.09
  1
FULL
 72
     1
 11
-0.7629681091020899
 21
0.9750000000000001
 31
0.0
100
AcDbAttributeDefinition
  3
Drawing Scale
  2
SCALE
 70
     8
 74
     2
  0
ATTDEF
  5
3E
330
2D
100
AcDbEntity
  8
0
 62
     4
100
AcDbText
 10
-0.500609627175169
 20
0.93
 30
0.0
 40
0.09
  1
mm/dd/yy
 72
     1
 11
-0.2324206776526587
 21
0.9750000000000001
 31
0.0
100
AcDbAttributeDefinition
  3
Date Drawn
  2
DATE
 70
     8
 74
     2
  0
ATTDEF
  5
3F
330
2D
100
AcDbEntity
  8
0
 62
     4
100
AcDbText
 10
-1.777654052137822
 20
0.6299999999999998
 30
0.0
 40
0.09
  1
-
 72
     1
 11
-1.756688840678068
 21
0.6749999999999998
 31
0.0
100
AcDbAttributeDefinition
  3
Job Number (Base)
  2
JOB_NUMBER
 70
     8
 74
     2
  0
ATTDEF
  5
40
330
2D
100
AcDbEntity
  8
0
 62
     4
100
AcDbText
 10
-0.5776540521378232
 20
0.6299999999999998
 30
0.0
 40
0.09
  1
-
 72
     1
 11
-0.5566888406780688
 21
0.6749999999999998
 31
0.0
100
AcDbAttributeDefinition
  3
Product (Base)
  2
PRODUCT
 70
     8
 74
     2
  0
ATTDEF
  5
41
330
2D
100
AcDbEntity
  8
0
 62
     4
100
AcDbText
 10
-1.777654052137822
 20
0.4799999999999998
 30
0.0
 40
0.09
  1
-
 72
     1
 11
-1.756688840678068
 21
0.5249999999999999
 31
0.0
100
AcDbAttributeDefinition
  3
Job Number (Cover)
  2
JOB_NUMBER
 70
     8
 74
     2
  0
ATTDEF
  5
42
330
2D
100
AcDbEntity
  8
0
 62
     4
100
AcDbText
 10
-0.5776540521378232
 20
0.4799999999999998
 30
0.0
 40
0.09
  1
-
 72
     1
 11
-0.5566888406780688
 21
0.5249999999999999
 31
0.0
100
AcDbAttributeDefinition
  3
Product (Cover)
  2
PRODUCT
 70
     8
 74
     2
  0
ATTDEF
  5
43
330
2D
100
AcDbEntity
  8
0
 62
     4
100
AcDbText
 10
-2.299397734766415
 20
0.1965997167108784
 30
0.0
 40
0.09
  1

100
AcDbAttributeDefinition
  3
Customer Name
  2
CUSTOMER_NAME
 70
     8
  0
ATTDEF
  5
44
330
2D
100
AcDbEntity
  8
0
 62
     4
100
AcDbText
 10
-1.896803912600208
 20
0.0273723706496532
 30
0.0
 40
0.09
  1
Secondary Operations Drawing
100
AcDbAttributeDefinition
  3
Drawing Title
  2
DRAWING_TITLE
 70
     8
  0
INSERT
  5
45
330
2D
100
AcDbEntity
  8
0
100
AcDbBlockReference
  2
POLYCASELOGO
 10
-7.287191627666034
 20
0.5999999999999996
 30
0.0
  0
TEXT
  5
79
330
2D
100
AcDbEntity
  8
0
 62
     4
100
AcDbText
 10
-7.237884200129098
 20
0.3303521534159193
 30
0.0
 40
0.09
  1
OTHERWISE SPECIFIED
 72
     1
 11
-6.507877378846696
 21
0.3303521534159193
 31
0.0
100
AcDbText
  0
TEXT
  5
7A
330
2D
100
AcDbEntity
  8
0
 62
     4
100
AcDbText
 10
-5.685352037880008
 20
0.0382015110144847
 30
0.0
 40
0.09
  1
WAY DETRIMENTAL TO THE INTEREST OF POLYCASE
100
AcDbText
  0
TEXT
  5
7B
330
2D
100
AcDbEntity
  8
0
 62
     4
100
AcDbText
 10
-5.685352037880008
 20
0.3273556719967485
 30
0.0
 40
0.09
  1
ARE THE PROPERTY OF POLYCASE AND IT IS NOT
100
AcDbText
  0
TEXT
  5
7C
330
2D
100
AcDbEntity
  8
0
 62
     4
100
AcDbText
 10
-5.685352037880008
 20
0.4719327524878806
 30
0.0
 40
0.09
  1
THIS DRAWING AND THE INFORMATION CONTAINED
100
AcDbText
  0
TEXT
  5
7D
330
2D
100
AcDbEntity
  8
0
 62
     4
100
AcDbText
 10
-4.358532367680285
 20
0.9240225636355036
 30
0.0
 40
0.09
  1
AVON, OHIO 44011-1083 U.S.A.
 72
     1
 11
-3.43268652866255
 21
0.9240225636355036
 31
0.0
100
AcDbText
  0
TEXT
  5
7E
330
2D
100
AcDbEntity
  8
0
 62
     4
100
AcDbText
 10
-4.463726774228716
 20
0.7794454831443715
 30
0.0
 40
0.09
  1
PH#: 1-800-248-1233, 440-934-0444
 72
     1
 11
-3.43268652866255
 21
0.7794454831443715
 31
0.0
100
AcDbText
  0
TEXT
  5
7F
330
2D
100
AcDbEntity
  8
0
 62
     4
100
AcDbText
 10
-4.36543891611139
 20
1.068599644126635
 30
0.0
 40
0.09
  1
1305 CHESTER IND. PARKWAY
 72
     1
 11
-3.43268652866255
 21
1.068599644126635
 31
0.0
100
AcDbText
  0
TEXT
  5
80
330
2D
100
AcDbEntity
  8
0
 62
     4
100
AcDbText
 10
-5.685352037880008
 20
0.1827785915056166
 30
0.0
 40
0.09
  1
TO BE REPRODUCED, COPIED OR USED IN ANY
100
AcDbText
  0
TEXT
  5
81
330
2D
100
AcDbEntity
  8
0
 62
     4
100
AcDbText
 10
-7.203075196036328
 20
0.4749292339070513
 30
0.0
 40
0.09
  1
TOLERANCES UNLESS
 72
     1
 11
-6.507877378846696
 21
0.4749292339070513
 31
0.0
100
AcDbText
  0
TEXT
  5
82
330
2D
100
AcDbEntity
  8
0
 62
     4
100
AcDbText
 10
-4.016335914747134
 20
0.6348684026532378
 30
0.0
 40
0.09
  1
FAX#: 440-934-0088
 72
     1
 11
-3.43268652866255
 21
0.6348684026532378
 31
0.0
100
AcDbText
  0
TEXT
  5
83
330
2D
100
AcDbEntity
  8
0
 62
     4
100
AcDbText
 10
-0.3944934674764495
 20
1.065703165605704
 30
0.0
 40
0.09
  1
DATE:
 72
     1
 11
-0.2093672737520293
 21
1.065703165605704
 31
0.0
100
AcDbText
  0
TEXT
  5
84
330
2D
100
AcDbEntity
  8
0
 62
     4
100
AcDbText
 10
-2.303074675751723
 20
0.0273723706496532
 30
0.0
 40
0.09
  1
TITLE:
100
AcDbText
  0
TEXT
  5
85
330
2D
100
AcDbEntity
  8
0
 62
     4
100
AcDbText
 10
-1.57771128246307
 20
1.065703165605704
 30
0.0
 40
0.09
  1
APP. BY
100
AcDbText
  0
TEXT
  5
86
330
2D
100
AcDbEntity
  8
0
 62
     4
100
AcDbText
 10
-2.303074675751723
 20
0.3157031656057045
 30
0.0
 40
0.09
  1
CUSTOMER:
100
AcDbText
  0
TEXT
  5
87
330
2D
100
AcDbEntity
  8
0
 62
     4
100
AcDbText
 10
-2.305458981304663
 20
0.7657031656057036
 30
0.0
 40
0.09
  1
JOB NO:
100
AcDbText
  0
TEXT
  5
88
330
2D
100
AcDbEntity
  8
0
 62
     4
100
AcDbText
 10
-2.304227624677977
 20
1.065703165605704
 30
0.0
 40
0.09
  1
DRWN BY
100
AcDbText
  0
TEXT
  5
89
330
2D
100
AcDbEntity
  8
0
 62
     4
100
AcDbText
 10
-1.105458981304664
 20
0.7657031656057036
 30
0.0
 40
0.09
  1
PRODUCT:
100
AcDbText
  0
TEXT
  5
8A
330
2D
100
AcDbEntity
  8
0
 62
     4
100
AcDbText
 10
-0.9841713932981347
 20
1.065703165605704
 30
0.0
 40
0.09
  1
SCALE:
 72
     1
 11
-0.7605527029843558
 21
1.065703165605704
 31
0.0
100
AcDbText
  0
ATTDEF
  5
8B
330
2D
100
AcDbEntity
  8
0
 62
     4
100
AcDbText
 10
-1.576525129900442
 20
1.261252546324116
 30
0.0
 40
0.12
  1
Page 1 of 1
 72
     1
 11
-1.156688840678068
 21
1.321252546324116
 31
0.0
100
AcDbAttributeDefinition
  3
Page ? OF ?
  2
PAGES
 70
     8
 74
     2
  0
ATTDEF
  5
8C
330
2D
100
AcDbEntity
  8
0
 62
     4
100
AcDbText
 10
-6.822723899992672
 20
0.1857750729247856
 30
0.0
 40
0.09
  1
X.XX %%P.010
 72
     1
 11
-6.507877378846696
 21
0.1857750729247856
 31
0.0
100
AcDbAttributeDefinition
  3
2 Place Decimal Tolerance
  2
TOLERANCE
 70
     8
  0
ATTDEF
  5
8D
330
2D
100
AcDbEntity
  8
0
 62
     4
100
AcDbText
 10
-6.865145455245059
 20
0.0411979924336537
 30
0.0
 40
0.09
  1
X.XXX %%P.005
 72
     1
 11
-6.507877378846696
 21
0.0411979924336537
 31
0.0
100
AcDbAttributeDefinition
  3
3 Place Deimal Tolerance
  2
TOLERANCE
 70
     8
  0
ENDBLK
  5
8F
330
2D
100
AcDbEntity
  8
0
100
AcDbBlockEnd
  0
BLOCK
  5
32A
330
31F
100
AcDbEntity
  8
0
100
AcDbBlockBegin
  2
*D3
 70
     1
 10
0.0
 20
0.0
 30
0.0
  3
*D3
  1

  0
LINE
  5
74F
330
31F
100
AcDbEntity
  8
0
 62
     1
370
    -2
100
AcDbLine
 10
56.95604203622774
 20
22.95740158961036
 30
0.0
 11
56.95604203622774
 21
21.51829399909122
 31
0.0
  0
LINE
  5
750
330
31F
100
AcDbEntity
  8
0
 62
     1
370
    -2
100
AcDbLine
 10
60.70629029713476
 20
22.95740158961036
 30
0.0
 11
60.70629029713476
 21
21.51829399909122
 31
0.0
  0
LINE
  5
751
330
31F
100
AcDbEntity
  8
0
 62
     1
370
    -2
100
AcDbLine
 10
57.13604203622775
 20
21.61829399909123
 30
0.0
 11
58.36629406572628
 21
21.61829399909123
 31
0.0
  0
LINE
  5
752
330
31F
100
AcDbEntity
  8
0
 62
     1
370
    -2
100
AcDbLine
 10
60.52629029713475
 20
21.61829399909123
 30
0.0
 11
59.29603826763623
 21
21.61829399909123
 31
0.0
  0
SOLID
  5
753
330
31F
100
AcDbEntity
  8
0
 62
     1
100
AcDbTrace
 10
57.13604203622775
 20
21.64829399909123
 30
0.0
 11
57.13604203622775
 21
21.58829399909123
 31
0.0
 12
56.95604203622774
 22
21.61829399909123
 32
0.0
 13
56.95604203622774
 23
21.61829399909123
 33
0.0
  0
SOLID
  5
754
330
31F
100
AcDbEntity
  8
0
 62
     1
100
AcDbTrace
 10
60.52629029713475
 20
21.64829399909123
 30
0.0
 11
60.52629029713475
 21
21.58829399909123
 31
0.0
 12
60.70629029713476
 22
21.61829399909123
 32
0.0
 13
60.70629029713476
 23
21.61829399909123
 33
0.0
  0
MTEXT
  5
755
330
31F
100
AcDbEntity
  8
0
 62
     4
100
AcDbMText
 10
58.83116616668125
 20
21.61829399909123
 30
0.0
 40
0.125
 41
0.0
 71
     5
 72
     1
  1
\A1;3.750\P(2 PLCS.)
 73
     1
 44
1.0
  0
POINT
  5
756
330
31F
100
AcDbEntity
  8
DEFPOINTS
 62
     0
100
AcDbPoint
 10
56.95604203622774
 20
23.02040158961035
 30
0.0
  0
POINT
  5
757
330
31F
100
AcDbEntity
  8
DEFPOINTS
 62
     0
100
AcDbPoint
 10
60.70629029713476
 20
23.02040158961035
 30
0.0
  0
POINT
  5
758
330
31F
100
AcDbEntity
  8
DEFPOINTS
 62
     0
100
AcDbPoint
 10
60.70629029713476
 20
21.61829399909123
 30
0.0
  0
ENDBLK
  5
32B
330
31F
100
AcDbEntity
  8
0
100
AcDbBlockEnd
  0
BLOCK
  5
34D
330
342
100
AcDbEntity
  8
0
100
AcDbBlockBegin
  2
*D4
 70
     1
 10
0.0
 20
0.0
 30
0.0
  3
*D4
  1

  0
LINE
  5
763
330
342
100
AcDbEntity
  8
0
 62
     1
370
    -2
100
AcDbLine
 10
56.89304203622775
 20
25.52089811297236
 30
0.0
 11
55.41784654536106
 21
25.52089811297236
 31
0.0
  0
LINE
  5
764
330
342
100
AcDbEntity
  8
0
 62
     1
370
    -2
100
AcDbLine
 10
56.89304203622775
 20
23.02040158961035
 30
0.0
 11
55.41784654536106
 21
23.02040158961036
 31
0.0
  0
LINE
  5
765
330
342
100
AcDbEntity
  8
0
 62
     1
370
    -2
100
AcDbLine
 10
55.51784654536106
 20
25.34089811297236
 30
0.0
 11
55.51784654536106
 21
24.54701297089118
 31
0.0
  0
LINE
  5
766
330
342
100
AcDbEntity
  8
0
 62
     1
370
    -2
100
AcDbLine
 10
55.51784654536106
 20
23.20040158961036
 30
0.0
 11
55.51784654536106
 21
23.99428673169154
 31
0.0
  0
SOLID
  5
767
330
342
100
AcDbEntity
  8
0
 62
     1
100
AcDbTrace
 10
55.48784654536106
 20
25.34089811297236
 30
0.0
 11
55.54784654536106
 21
25.34089811297236
 31
0.0
 12
55.51784654536106
 22
25.52089811297236
 32
0.0
 13
55.51784654536106
 23
25.52089811297236
 33
0.0
  0
SOLID
  5
768
330
342
100
AcDbEntity
  8
0
 62
     1
100
AcDbTrace
 10
55.48784654536106
 20
23.20040158961036
 30
0.0
 11
55.54784654536106
 21
23.20040158961036
 31
0.0
 12
55.51784654536106
 22
23.02040158961036
 32
0.0
 13
55.51784654536106
 23
23.02040158961036
 33
0.0
  0
MTEXT
  5
769
330
342
100
AcDbEntity
  8
0
 62
     4
100
AcDbMText
 10
55.51784654536106
 20
24.27064985129137
 30
0.0
 40
0.125
 41
0.0
 71
     5
 72
     1
  1
\A1;2.500\P(2 PLCS.)
 73
     1
 44
1.0
  0
POINT
  5
76A
330
342
100
AcDbEntity
  8
DEFPOINTS
 62
     0
100
AcDbPoint
 10
56.95604203622774
 20
25.52089811297236
 30
0.0
  0
POINT
  5
76B
330
342
100
AcDbEntity
  8
DEFPOINTS
 62
     0
100
AcDbPoint
 10
56.95604203622774
 20
23.02040158961035
 30
0.0
  0
POINT
  5
76C
330
342
100
AcDbEntity
  8
DEFPOINTS
 62
     0
100
AcDbPoint
 10
55.51784654536106
 20
23.02040158961036
 30
0.0
  0
ENDBLK
  5
34E
330
342
100
AcDbEntity
  8
0
100
AcDbBlockEnd
  0
BLOCK
  5
35B
330
350
100
AcDbEntity
  8
0
100
AcDbBlockBegin
  2
*D5
 70
     1
 10
0.0
 20
0.0
 30
0.0
  3
*D5
  1

  0
LINE
  5
886
330
350
100
AcDbEntity
  8
0
 62
     1
370
    -2
100
AcDbLine
 10
56.08167105478928
 20
19.87378093771878
 30
0.0
 11
56.08167105478928
 21
18.55353205383311
 31
0.0
  0
LINE
  5
887
330
350
100
AcDbEntity
  8
0
 62
     1
370
    -2
100
AcDbLine
 10
61.58066127857323
 20
19.87378093771878
 30
0.0
 11
61.58066127857323
 21
18.55353205383311
 31
0.0
  0
LINE
  5
888
330
350
100
AcDbEntity
  8
0
 62
     1
370
    -2
100
AcDbLine
 10
56.26167105478928
 20
18.65353205383311
 30
0.0
 11
58.4146834049062
 21
18.65353205383311
 31
0.0
  0
LINE
  5
889
330
350
100
AcDbEntity
  8
0
 62
     1
370
    -2
100
AcDbLine
 10
61.40066127857323
 20
18.65353205383311
 30
0.0
 11
59.01743238171384
 21
18.65353205383311
 31
0.0
  0
SOLID
  5
88A
330
350
100
AcDbEntity
  8
0
 62
     1
100
AcDbTrace
 10
56.26167105478928
 20
18.68353205383312
 30
0.0
 11
56.26167105478928
 21
18.62353205383311
 31
0.0
 12
56.08167105478928
 22
18.65353205383311
 32
0.0
 13
56.08167105478928
 23
18.65353205383311
 33
0.0
  0
SOLID
  5
88B
330
350
100
AcDbEntity
  8
0
 62
     1
100
AcDbTrace
 10
61.40066127857323
 20
18.68353205383312
 30
0.0
 11
61.40066127857323
 21
18.62353205383311
 31
0.0
 12
61.58066127857323
 22
18.65353205383311
 32
0.0
 13
61.58066127857323
 23
18.65353205383311
 33
0.0
  0
MTEXT
  5
88C
330
350
100
AcDbEntity
  8
0
 62
     4
100
AcDbMText
 10
58.71605789331002
 20
18.65353205383311
 30
0.0
 40
0.125
 41
0.0
 71
     5
 72
     1
  1
\A1;5.505
 73
     1
 44
1.0
  0
POINT
  5
88D
330
350
100
AcDbEntity
  8
DEFPOINTS
 62
     0
100
AcDbPoint
 10
56.08167105478928
 20
19.93678093771878
 30
0.0
  0
POINT
  5
88E
330
350
100
AcDbEntity
  8
DEFPOINTS
 62
     0
100
AcDbPoint
 10
61.58066127857323
 20
19.93678093771878
 30
0.0
  0
POINT
  5
88F
330
350
100
AcDbEntity
  8
DEFPOINTS
 62
     0
100
AcDbPoint
 10
61.58066127857323
 20
18.65353205383311
 30
0.0
  0
ENDBLK
  5
35C
330
350
100
AcDbEntity
  8
0
100
AcDbBlockEnd
  0
BLOCK
  5
369
330
35E
100
AcDbEntity
  8
0
100
AcDbBlockBegin
  2
*D6
 70
     1
 10
0.0
 20
0.0
 30
0.0
  3
*D6
  1

  0
LINE
  5
650
330
35E
100
AcDbEntity
  8
0
 62
     1
370
    -2
100
AcDbLine
 10
64.3203550698093
 20
22.27064985206536
 30
0.0
 11
65.21823199179149
 21
22.27064985206536
 31
0.0
  0
LINE
  5
651
330
35E
100
AcDbEntity
  8
0
 62
     1
370
    -2
100
AcDbLine
 10
64.32035506980932
 20
26.27064985051735
 30
0.0
 11
65.21823199179149
 21
26.27064985051735
 31
0.0
  0
LINE
  5
652
330
35E
100
AcDbEntity
  8
0
 62
     1
370
    -2
100
AcDbLine
 10
65.11823199179151
 20
22.45064985206536
 30
0.0
 11
65.11823199179151
 21
24.11682822782614
 31
0.0
  0
LINE
  5
653
330
35E
100
AcDbEntity
  8
0
 62
     1
370
    -2
100
AcDbLine
 10
65.11823199179151
 20
26.09064985051735
 30
0.0
 11
65.11823199179151
 21
24.42447147475657
 31
0.0
  0
SOLID
  5
654
330
35E
100
AcDbEntity
  8
0
 62
     1
100
AcDbTrace
 10
65.0882319917915
 20
22.45064985206536
 30
0.0
 11
65.14823199179151
 21
22.45064985206536
 31
0.0
 12
65.11823199179151
 22
22.27064985206536
 32
0.0
 13
65.11823199179151
 23
22.27064985206536
 33
0.0
  0
SOLID
  5
655
330
35E
100
AcDbEntity
  8
0
 62
     1
100
AcDbTrace
 10
65.0882319917915
 20
26.09064985051735
 30
0.0
 11
65.14823199179151
 21
26.09064985051735
 31
0.0
 12
65.11823199179151
 22
26.27064985051735
 32
0.0
 13
65.11823199179151
 23
26.27064985051735
 33
0.0
  0
MTEXT
  5
656
330
35E
100
AcDbEntity
  8
0
 62
     4
100
AcDbMText
 10
65.11823199179151
 20
24.27064985129137
 30
0.0
 40
0.125
 41
0.0
 71
     5
 72
     1
  1
\A1;4.005
 73
     1
 44
1.0
1001
ACAD
1000
MTEXTBEGIN
1070
    73
1070
     1
1070
    44
1040
1.0
1070
    74
1070
     0
1000
MTEXTEND
  0
POINT
  5
657
330
35E
100
AcDbEntity
  8
DEFPOINTS
 62
     0
100
AcDbPoint
 10
64.25735506980931
 20
22.27064985206536
 30
0.0
  0
POINT
  5
658
330
35E
100
AcDbEntity
  8
DEFPOINTS
 62
     0
100
AcDbPoint
 10
64.25735506980932
 20
26.27064985051735
 30
0.0
  0
POINT
  5
659
330
35E
100
AcDbEntity
  8
DEFPOINTS
 62
     0
100
AcDbPoint
 10
65.11823199179151
 20
26.27064985051735
 30
0.0
  0
ENDBLK
  5
36A
330
35E
100
AcDbEntity
  8
0
100
AcDbBlockEnd
  0
BLOCK
  5
3C8
330
3BC
100
AcDbEntity
  8
0
100
AcDbBlockBegin
  2
*D7
 70
     1
 10
0.0
 20
0.0
 30
0.0
  3
*D7
  1

  0
LINE
  5
87C
330
3BC
100
AcDbEntity
  8
0
 62
     1
370
    -2
100
AcDbLine
 10
56.31259769280076
 20
20.4725244430208
 30
0.0
 11
54.94700947248329
 21
20.4725244430208
 31
0.0
  0
LINE
  5
87D
330
3BC
100
AcDbEntity
  8
0
 62
     1
370
    -2
100
AcDbLine
 10
56.38782514396665
 20
19.68243010317179
 30
0.0
 11
54.94700947248329
 21
19.6824301031718
 31
0.0
  0
LINE
  5
87E
330
3BC
100
AcDbEntity
  8
0
 62
     1
370
    -2
100
AcDbLine
 10
55.0470094724833
 20
20.6525244430208
 30
0.0
 11
55.0470094724833
 21
20.8325244430208
 31
0.0
  0
LINE
  5
87F
330
3BC
100
AcDbEntity
  8
0
 62
     1
370
    -2
100
AcDbLine
 10
55.0470094724833
 20
19.5024301031718
 30
0.0
 11
55.0470094724833
 21
19.3224301031718
 31
0.0
  0
SOLID
  5
880
330
3BC
100
AcDbEntity
  8
0
 62
     1
100
AcDbTrace
 10
55.0170094724833
 20
20.6525244430208
 30
0.0
 11
55.0770094724833
 21
20.6525244430208
 31
0.0
 12
55.0470094724833
 22
20.4725244430208
 32
0.0
 13
55.0470094724833
 23
20.4725244430208
 33
0.0
  0
SOLID
  5
881
330
3BC
100
AcDbEntity
  8
0
 62
     1
100
AcDbTrace
 10
55.0170094724833
 20
19.5024301031718
 30
0.0
 11
55.0770094724833
 21
19.5024301031718
 31
0.0
 12
55.0470094724833
 22
19.6824301031718
 32
0.0
 13
55.0470094724833
 23
19.6824301031718
 33
0.0
  0
MTEXT
  5
882
330
3BC
100
AcDbEntity
  8
0
 62
     4
100
AcDbMText
 10
55.04700947248329
 20
20.0774772730963
 30
0.0
 40
0.125
 41
0.0
 71
     5
 72
     1
  1
\A1;0.790\P(INSIDE DEPTH)
 73
     1
 44
1.0
  0
POINT
  5
883
330
3BC
100
AcDbEntity
  8
DEFPOINTS
 62
     0
100
AcDbPoint
 10
56.37559769280077
 20
20.4725244430208
 30
0.0
  0
POINT
  5
884
330
3BC
100
AcDbEntity
  8
DEFPOINTS
 62
     0
100
AcDbPoint
 10
56.45082514396666
 20
19.68243010317179
 30
0.0
  0
POINT
  5
885
330
3BC
100
AcDbEntity
  8
DEFPOINTS
 62
     0
100
AcDbPoint
 10
55.0470094724833
 20
19.6824301031718
 30
0.0
  0
ENDBLK
  5
3C9
330
3BC
100
AcDbEntity
  8
0
100
AcDbBlockEnd
  0
BLOCK
  5
3D6
330
3CB
100
AcDbEntity
  8
0
100
AcDbBlockBegin
  2
*D8
 70
     1
 10
0.0
 20
0.0
 30
0.0
  3
*D8
  1

  0
LINE
  5
872
330
3CB
100
AcDbEntity
  8
0
 62
     1
370
    -2
100
AcDbLine
 10
57.01742138086425
 20
20.84690378746379
 30
0.0
 11
53.4176806232432
 21
20.84690378746379
 31
0.0
  0
LINE
  5
873
330
3CB
100
AcDbEntity
  8
0
 62
     1
370
    -2
100
AcDbLine
 10
56.38782514396665
 20
19.68243010317179
 30
0.0
 11
53.4176806232432
 21
19.6824301031718
 31
0.0
  0
LINE
  5
874
330
3CB
100
AcDbEntity
  8
0
 62
     1
370
    -2
100
AcDbLine
 10
53.51768062324321
 20
20.66690378746379
 30
0.0
 11
53.51768062324321
 21
20.54103006491761
 31
0.0
  0
LINE
  5
875
330
3CB
100
AcDbEntity
  8
0
 62
     1
370
    -2
100
AcDbLine
 10
53.51768062324321
 20
19.86243010317179
 30
0.0
 11
53.51768062324321
 21
19.98830382571797
 31
0.0
  0
SOLID
  5
876
330
3CB
100
AcDbEntity
  8
0
 62
     1
100
AcDbTrace
 10
53.48768062324321
 20
20.66690378746379
 30
0.0
 11
53.54768062324321
 21
20.66690378746379
 31
0.0
 12
53.51768062324321
 22
20.84690378746379
 32
0.0
 13
53.51768062324321
 23
20.84690378746379
 33
0.0
  0
SOLID
  5
877
330
3CB
100
AcDbEntity
  8
0
 62
     1
100
AcDbTrace
 10
53.48768062324321
 20
19.86243010317179
 30
0.0
 11
53.54768062324321
 21
19.86243010317179
 31
0.0
 12
53.51768062324321
 22
19.6824301031718
 32
0.0
 13
53.51768062324321
 23
19.6824301031718
 33
0.0
  0
MTEXT
  5
878
330
3CB
100
AcDbEntity
  8
0
 62
     4
100
AcDbMText
 10
53.5176806232432
 20
20.2646669453178
 30
0.0
 40
0.125
 41
0.0
 71
     5
 72
     1
  1
\A1;1.165\P(INSIDE DEPTH)
 73
     1
 44
1.0
  0
POINT
  5
879
330
3CB
100
AcDbEntity
  8
DEFPOINTS
 62
     0
100
AcDbPoint
 10
57.08042138086425
 20
20.84690378746379
 30
0.0
  0
POINT
  5
87A
330
3CB
100
AcDbEntity
  8
DEFPOINTS
 62
     0
100
AcDbPoint
 10
56.45082514396666
 20
19.68243010317179
 30
0.0
  0
POINT
  5
87B
330
3CB
100
AcDbEntity
  8
DEFPOINTS
 62
     0
100
AcDbPoint
 10
53.51768062324321
 20
19.6824301031718
 30
0.0
  0
ENDBLK
  5
3D7
330
3CB
100
AcDbEntity
  8
0
100
AcDbBlockEnd
  0
BLOCK
  5
434
330
429
100
AcDbEntity
  8
0
100
AcDbBlockBegin
  2
*D9
 70
     1
 10
0.0
 20
0.0
 30
0.0
  3
*D9
  1

  0
LINE
  5
890
330
429
100
AcDbEntity
  8
0
 62
     1
370
    -2
100
AcDbLine
 10
60.64491095249826
 20
20.94720170202279
 30
0.0
 11
62.82054974322152
 21
20.94720170202279
 31
0.0
  0
LINE
  5
891
330
429
100
AcDbEntity
  8
0
 62
     1
370
    -2
100
AcDbLine
 10
61.26941022458124
 20
19.57220170202274
 30
0.0
 11
62.82054974322152
 21
19.57220170202274
 31
0.0
  0
LINE
  5
892
330
429
100
AcDbEntity
  8
0
 62
     1
370
    -2
100
AcDbLine
 10
62.72054974322152
 20
20.76720170202278
 30
0.0
 11
62.72054974322152
 21
20.41356595850298
 31
0.0
  0
LINE
  5
893
330
429
100
AcDbEntity
  8
0
 62
     1
370
    -2
100
AcDbLine
 10
62.72054974322152
 20
19.75220170202274
 30
0.0
 11
62.72054974322152
 21
20.10583744554254
 31
0.0
  0
SOLID
  5
894
330
429
100
AcDbEntity
  8
0
 62
     1
100
AcDbTrace
 10
62.69054974322152
 20
20.76720170202278
 30
0.0
 11
62.75054974322152
 21
20.76720170202278
 31
0.0
 12
62.72054974322152
 22
20.94720170202279
 32
0.0
 13
62.72054974322152
 23
20.94720170202279
 33
0.0
  0
SOLID
  5
895
330
429
100
AcDbEntity
  8
0
 62
     1
100
AcDbTrace
 10
62.69054974322152
 20
19.75220170202274
 30
0.0
 11
62.75054974322152
 21
19.75220170202274
 31
0.0
 12
62.72054974322152
 22
19.57220170202274
 32
0.0
 13
62.72054974322152
 23
19.57220170202274
 33
0.0
  0
MTEXT
  5
896
330
429
100
AcDbEntity
  8
0
 62
     4
100
AcDbMText
 10
62.72054974322151
 20
20.25970170202277
 30
0.0
 40
0.125
 41
0.0
 71
     5
 72
     1
  1
\A1;1.375
 73
     1
 44
1.0
  0
POINT
  5
897
330
429
100
AcDbEntity
  8
DEFPOINTS
 62
     0
100
AcDbPoint
 10
60.58191095249825
 20
20.94720170202279
 30
0.0
  0
POINT
  5
898
330
429
100
AcDbEntity
  8
DEFPOINTS
 62
     0
100
AcDbPoint
 10
61.20641022458124
 20
19.57220170202274
 30
0.0
  0
POINT
  5
899
330
429
100
AcDbEntity
  8
DEFPOINTS
 62
     0
100
AcDbPoint
 10
62.72054974322152
 20
19.57220170202274
 30
0.0
  0
ENDBLK
  5
435
330
429
100
AcDbEntity
  8
0
100
AcDbBlockEnd
  0
BLOCK
  5
442
330
437
100
AcDbEntity
  8
0
100
AcDbBlockBegin
  2
*D10
 70
     1
 10
0.0
 20
0.0
 30
0.0
  3
*D10
  1

  0
LINE
  5
8A5
330
437
100
AcDbEntity
  8
0
 62
     1
370
    -2
100
AcDbLine
 10
61.34973464056175
 20
20.57282235757982
 30
0.0
 11
62.24474453655966
 21
20.57282235757982
 31
0.0
  0
LINE
  5
8A6
330
437
100
AcDbEntity
  8
0
 62
     1
370
    -2
100
AcDbLine
 10
61.26941022458124
 20
19.57220170202274
 30
0.0
 11
62.24474453655966
 21
19.57220170202274
 31
0.0
  0
LINE
  5
8A7
330
437
100
AcDbEntity
  8
0
 62
     1
370
    -2
100
AcDbLine
 10
62.14474453655967
 20
20.39282235757982
 30
0.0
 11
62.14474453655967
 21
20.2263336532665
 31
0.0
  0
LINE
  5
8A8
330
437
100
AcDbEntity
  8
0
 62
     1
370
    -2
100
AcDbLine
 10
62.14474453655967
 20
19.75220170202274
 30
0.0
 11
62.14474453655967
 21
19.91869040633607
 31
0.0
  0
SOLID
  5
8A9
330
437
100
AcDbEntity
  8
0
 62
     1
100
AcDbTrace
 10
62.11474453655966
 20
20.39282235757982
 30
0.0
 11
62.17474453655967
 21
20.39282235757982
 31
0.0
 12
62.14474453655967
 22
20.57282235757982
 32
0.0
 13
62.14474453655967
 23
20.57282235757982
 33
0.0
  0
SOLID
  5
8AA
330
437
100
AcDbEntity
  8
0
 62
     1
100
AcDbTrace
 10
62.11474453655966
 20
19.75220170202274
 30
0.0
 11
62.17474453655967
 21
19.75220170202274
 31
0.0
 12
62.14474453655967
 22
19.57220170202274
 32
0.0
 13
62.14474453655967
 23
19.57220170202274
 33
0.0
  0
MTEXT
  5
8AB
330
437
100
AcDbEntity
  8
0
 62
     4
100
AcDbMText
 10
62.14474453655966
 20
20.0725120298013
 30
0.0
 40
0.125
 41
0.0
 71
     5
 72
     1
  1
\A1;1.000
 73
     1
 44
1.0
  0
POINT
  5
8AC
330
437
100
AcDbEntity
  8
DEFPOINTS
 62
     0
100
AcDbPoint
 10
61.28673464056174
 20
20.57282235757982
 30
0.0
  0
POINT
  5
8AD
330
437
100
AcDbEntity
  8
DEFPOINTS
 62
     0
100
AcDbPoint
 10
61.20641022458124
 20
19.57220170202274
 30
0.0
  0
POINT
  5
8AE
330
437
100
AcDbEntity
  8
DEFPOINTS
 62
     0
100
AcDbPoint
 10
62.14474453655967
 20
19.57220170202274
 30
0.0
  0
ENDBLK
  5
443
330
437
100
AcDbEntity
  8
0
100
AcDbBlockEnd
  0
BLOCK
  5
45B
330
44F
100
AcDbEntity
  8
0
100
AcDbBlockBegin
  2
*D11
 70
     1
 10
0.0
 20
0.0
 30
0.0
  3
*D11
  1

  0
LINE
  5
8B1
330
44F
100
AcDbEntity
  8
0
 62
     1
370
    -2
100
AcDbLine
 10
60.54944719885925
 20
19.93267836523976
 30
0.0
 11
59.87928558478008
 21
19.93267836523976
 31
0.0
  0
LINE
  5
8B2
330
44F
100
AcDbEntity
  8
0
 62
     1
370
    -2
100
AcDbLine
 10
60.54507909919668
 20
19.68243010317175
 30
0.0
 11
59.87928558478008
 21
19.68243010317175
 31
0.0
  0
LINE
  5
8B3
330
44F
100
AcDbEntity
  8
0
 62
     1
370
    -2
100
AcDbLine
 10
59.97928558478008
 20
20.11267836523976
 30
0.0
 11
59.97928558478008
 21
20.29267836523976
 31
0.0
  0
LINE
  5
8B4
330
44F
100
AcDbEntity
  8
0
 62
     1
370
    -2
100
AcDbLine
 10
59.97928558478008
 20
19.50243010317175
 30
0.0
 11
59.97928558478008
 21
19.12249378345449
 31
0.0
  0
LINE
  5
8B5
330
44F
100
AcDbEntity
  8
0
 62
     1
370
    -2
100
AcDbLine
 10
59.97928558478008
 20
19.12249378345449
 30
0.0
 11
59.79928558478008
 21
19.12249378345449
 31
0.0
  0
SOLID
  5
8B6
330
44F
100
AcDbEntity
  8
0
 62
     1
100
AcDbTrace
 10
59.94928558478008
 20
20.11267836523976
 30
0.0
 11
60.00928558478008
 21
20.11267836523976
 31
0.0
 12
59.97928558478008
 22
19.93267836523976
 32
0.0
 13
59.97928558478008
 23
19.93267836523976
 33
0.0
  0
SOLID
  5
8B7
330
44F
100
AcDbEntity
  8
0
 62
     1
100
AcDbTrace
 10
59.94928558478008
 20
19.50243010317175
 30
0.0
 11
60.00928558478008
 21
19.50243010317175
 31
0.0
 12
59.97928558478008
 22
19.68243010317175
 32
0.0
 13
59.97928558478008
 23
19.68243010317175
 33
0.0
  0
MTEXT
  5
8B8
330
44F
100
AcDbEntity
  8
0
 62
     4
100
AcDbMText
 10
58.77297930920027
 20
19.1224937834545
 30
0.0
 40
0.125
 41
0.0
 71
     5
 72
     1
  1
\A1;0.250\PMTG BOSS HEIGHT (4)
 73
     1
 44
1.0
  0
POINT
  5
8B9
330
44F
100
AcDbEntity
  8
DEFPOINTS
 62
     0
100
AcDbPoint
 10
60.61244719885926
 20
19.93267836523976
 30
0.0
  0
POINT
  5
8BA
330
44F
100
AcDbEntity
  8
DEFPOINTS
 62
     0
100
AcDbPoint
 10
60.60807909919669
 20
19.68243010317175
 30
0.0
  0
POINT
  5
8BB
330
44F
100
AcDbEntity
  8
DEFPOINTS
 62
     0
100
AcDbPoint
 10
59.97928558478008
 20
19.68243010317175
 30
0.0
  0
ENDBLK
  5
45C
330
44F
100
AcDbEntity
  8
0
100
AcDbBlockEnd
  0
BLOCK
  5
4BD
330
4B2
100
AcDbEntity
  8
0
100
AcDbBlockBegin
  2
*D12
 70
     1
 10
0.0
 20
0.0
 30
0.0
  3
*D12
  1

  0
LINE
  5
76D
330
4B2
100
AcDbEntity
  8
0
 62
     1
370
    -2
100
AcDbLine
 10
56.64304203642124
 20
25.77064985071086
 30
0.0
 11
54.56112994640189
 21
25.77064985071086
 31
0.0
  0
LINE
  5
76E
330
4B2
100
AcDbEntity
  8
0
 62
     1
370
    -2
100
AcDbLine
 10
56.26816616764875
 20
22.77064985187185
 30
0.0
 11
54.56112994640189
 21
22.77064985187186
 31
0.0
  0
LINE
  5
76F
330
4B2
100
AcDbEntity
  8
0
 62
     1
370
    -2
100
AcDbLine
 10
54.66112994640189
 20
25.59064985071086
 30
0.0
 11
54.66112994640189
 21
24.54701297089118
 31
0.0
  0
LINE
  5
770
330
4B2
100
AcDbEntity
  8
0
 62
     1
370
    -2
100
AcDbLine
 10
54.66112994640189
 20
22.95064985187186
 30
0.0
 11
54.66112994640189
 21
23.99428673169154
 31
0.0
  0
SOLID
  5
771
330
4B2
100
AcDbEntity
  8
0
 62
     1
100
AcDbTrace
 10
54.63112994640189
 20
25.59064985071086
 30
0.0
 11
54.69112994640189
 21
25.59064985071086
 31
0.0
 12
54.66112994640189
 22
25.77064985071086
 32
0.0
 13
54.66112994640189
 23
25.77064985071086
 33
0.0
  0
SOLID
  5
772
330
4B2
100
AcDbEntity
  8
0
 62
     1
100
AcDbTrace
 10
54.63112994640189
 20
22.95064985187186
 30
0.0
 11
54.69112994640189
 21
22.95064985187186
 31
0.0
 12
54.66112994640189
 22
22.77064985187186
 32
0.0
 13
54.66112994640189
 23
22.77064985187186
 33
0.0
  0
MTEXT
  5
773
330
4B2
100
AcDbEntity
  8
0
 62
     4
100
AcDbMText
 10
54.66112994640188
 20
24.27064985129137
 30
0.0
 40
0.125
 41
0.0
 71
     5
 72
     1
  1
\A1;3.005\P(2 PLCS.)
 73
     1
 44
1.0
  0
POINT
  5
774
330
4B2
100
AcDbEntity
  8
DEFPOINTS
 62
     0
100
AcDbPoint
 10
56.70604203642125
 20
25.77064985071086
 30
0.0
  0
POINT
  5
775
330
4B2
100
AcDbEntity
  8
DEFPOINTS
 62
     0
100
AcDbPoint
 10
56.33116616764875
 20
22.77064985187185
 30
0.0
  0
POINT
  5
776
330
4B2
100
AcDbEntity
  8
DEFPOINTS
 62
     0
100
AcDbPoint
 10
54.66112994640189
 20
22.77064985187186
 30
0.0
  0
ENDBLK
  5
4BE
330
4B2
100
AcDbEntity
  8
0
100
AcDbBlockEnd
  0
BLOCK
  5
4E9
330
4DE
100
AcDbEntity
  8
0
100
AcDbBlockBegin
  2
*D13
 70
     1
 10
0.0
 20
0.0
 30
0.0
  3
*D13
  1

  0
LINE
  5
73B
330
4DE
100
AcDbEntity
  8
0
 62
     1
370
    -2
100
AcDbLine
 10
56.70604203642126
 20
25.83364985071086
 30
0.0
 11
56.70604203642126
 21
26.67385293248197
 31
0.0
  0
LINE
  5
73C
330
4DE
100
AcDbEntity
  8
0
 62
     1
370
    -2
100
AcDbLine
 10
60.95629029694125
 20
25.83364985071086
 30
0.0
 11
60.95629029694125
 21
26.67385293248197
 31
0.0
  0
LINE
  5
73D
330
4DE
100
AcDbEntity
  8
0
 62
     1
370
    -2
100
AcDbLine
 10
56.88604203642126
 20
26.57385293248196
 30
0.0
 11
58.52795845863214
 21
26.57385293248196
 31
0.0
  0
LINE
  5
73E
330
4DE
100
AcDbEntity
  8
0
 62
     1
370
    -2
100
AcDbLine
 10
60.77629029694125
 20
26.57385293248196
 30
0.0
 11
59.13437387473037
 21
26.57385293248196
 31
0.0
  0
SOLID
  5
73F
330
4DE
100
AcDbEntity
  8
0
 62
     1
100
AcDbTrace
 10
56.88604203642126
 20
26.60385293248197
 30
0.0
 11
56.88604203642126
 21
26.54385293248196
 31
0.0
 12
56.70604203642126
 22
26.57385293248196
 32
0.0
 13
56.70604203642126
 23
26.57385293248196
 33
0.0
  0
SOLID
  5
740
330
4DE
100
AcDbEntity
  8
0
 62
     1
100
AcDbTrace
 10
60.77629029694125
 20
26.60385293248197
 30
0.0
 11
60.77629029694125
 21
26.54385293248196
 31
0.0
 12
60.95629029694125
 22
26.57385293248196
 32
0.0
 13
60.95629029694125
 23
26.57385293248196
 33
0.0
  0
MTEXT
  5
741
330
4DE
100
AcDbEntity
  8
0
 62
     4
100
AcDbMText
 10
58.83116616668125
 20
26.57385293248196
 30
0.0
 40
0.125
 41
0.0
 71
     5
 72
     1
  1
\A1;4.250
 73
     1
 44
1.0
  0
POINT
  5
742
330
4DE
100
AcDbEntity
  8
DEFPOINTS
 62
     0
100
AcDbPoint
 10
56.70604203642126
 20
25.77064985071086
 30
0.0
  0
POINT
  5
743
330
4DE
100
AcDbEntity
  8
DEFPOINTS
 62
     0
100
AcDbPoint
 10
60.95629029694125
 20
25.77064985071086
 30
0.0
  0
POINT
  5
744
330
4DE
100
AcDbEntity
  8
DEFPOINTS
 62
     0
100
AcDbPoint
 10
60.95629029694125
 20
26.57385293248196
 30
0.0
  0
ENDBLK
  5
4EA
330
4DE
100
AcDbEntity
  8
0
100
AcDbBlockEnd
  0
BLOCK
  5
4F7
330
4EC
100
AcDbEntity
  8
0
100
AcDbBlockBegin
  2
*D14
 70
     1
 10
0.0
 20
0.0
 30
0.0
  3
*D14
  1

  0
LINE
  5
759
330
4EC
100
AcDbEntity
  8
0
 62
     1
370
    -2
100
AcDbLine
 10
56.33116616764875
 20
22.70764985187186
 30
0.0
 11
56.33116616764875
 21
21.18818077348207
 31
0.0
  0
LINE
  5
75A
330
4EC
100
AcDbEntity
  8
0
 62
     1
370
    -2
100
AcDbLine
 10
61.33116616571376
 20
22.70764985187186
 30
0.0
 11
61.33116616571376
 21
21.18818077348207
 31
0.0
  0
LINE
  5
75B
330
4EC
100
AcDbEntity
  8
0
 62
     1
370
    -2
100
AcDbLine
 10
56.51116616764875
 20
21.28818077348208
 30
0.0
 11
58.53047380651755
 21
21.28818077348208
 31
0.0
  0
LINE
  5
75C
330
4EC
100
AcDbEntity
  8
0
 62
     1
370
    -2
100
AcDbLine
 10
61.15116616571376
 20
21.28818077348208
 30
0.0
 11
59.13185852684496
 21
21.28818077348208
 31
0.0
  0
SOLID
  5
75D
330
4EC
100
AcDbEntity
  8
0
 62
     1
100
AcDbTrace
 10
56.51116616764875
 20
21.31818077348208
 30
0.0
 11
56.51116616764875
 21
21.25818077348208
 31
0.0
 12
56.33116616764875
 22
21.28818077348208
 32
0.0
 13
56.33116616764875
 23
21.28818077348208
 33
0.0
  0
SOLID
  5
75E
330
4EC
100
AcDbEntity
  8
0
 62
     1
100
AcDbTrace
 10
61.15116616571376
 20
21.31818077348208
 30
0.0
 11
61.15116616571376
 21
21.25818077348208
 31
0.0
 12
61.33116616571376
 22
21.28818077348208
 32
0.0
 13
61.33116616571376
 23
21.28818077348208
 33
0.0
  0
MTEXT
  5
75F
330
4EC
100
AcDbEntity
  8
0
 62
     4
100
AcDbMText
 10
58.83116616668125
 20
21.28818077348208
 30
0.0
 40
0.125
 41
0.0
 71
     5
 72
     1
  1
\A1;5.010
 73
     1
 44
1.0
  0
POINT
  5
760
330
4EC
100
AcDbEntity
  8
DEFPOINTS
 62
     0
100
AcDbPoint
 10
56.33116616764875
 20
22.77064985187185
 30
0.0
  0
POINT
  5
761
330
4EC
100
AcDbEntity
  8
DEFPOINTS
 62
     0
100
AcDbPoint
 10
61.33116616571376
 20
22.77064985187185
 30
0.0
  0
POINT
  5
762
330
4EC
100
AcDbEntity
  8
DEFPOINTS
 62
     0
100
AcDbPoint
 10
61.33116616571376
 20
21.28818077348208
 30
0.0
  0
ENDBLK
  5
4F8
330
4EC
100
AcDbEntity
  8
0
100
AcDbBlockEnd
  0
BLOCK
  5
5D9
330
5CE
100
AcDbEntity
  8
0
100
AcDbBlockBegin
  2
*D15
 70
     1
 10
0.0
 20
0.0
 30
0.0
  3
*D15
  1

  0
LINE
  5
745
330
5CE
100
AcDbEntity
  8
0
 62
     1
370
    -2
100
AcDbLine
 10
60.47168255134925
 20
22.64558431068436
 30
0.0
 11
60.47168255134925
 21
21.90420531198257
 31
0.0
  0
LINE
  5
746
330
5CE
100
AcDbEntity
  8
0
 62
     1
370
    -2
100
AcDbLine
 10
57.19064978201326
 20
22.64558431068435
 30
0.0
 11
57.19064978201326
 21
21.90420531198257
 31
0.0
  0
LINE
  5
747
330
5CE
100
AcDbEntity
  8
0
 62
     1
370
    -2
100
AcDbLine
 10
60.29168255134925
 20
22.00420531198257
 30
0.0
 11
59.11996391565806
 21
22.00420531198257
 31
0.0
  0
LINE
  5
748
330
5CE
100
AcDbEntity
  8
0
 62
     1
370
    -2
100
AcDbLine
 10
57.37064978201326
 20
22.00420531198257
 30
0.0
 11
58.54236841770445
 21
22.00420531198257
 31
0.0
  0
SOLID
  5
749
330
5CE
100
AcDbEntity
  8
0
 62
     1
100
AcDbTrace
 10
60.29168255134925
 20
22.03420531198257
 30
0.0
 11
60.29168255134925
 21
21.97420531198257
 31
0.0
 12
60.47168255134925
 22
22.00420531198257
 32
0.0
 13
60.47168255134925
 23
22.00420531198257
 33
0.0
  0
SOLID
  5
74A
330
5CE
100
AcDbEntity
  8
0
 62
     1
100
AcDbTrace
 10
57.37064978201326
 20
22.03420531198257
 30
0.0
 11
57.37064978201326
 21
21.97420531198257
 31
0.0
 12
57.19064978201326
 22
22.00420531198257
 32
0.0
 13
57.19064978201326
 23
22.00420531198257
 33
0.0
  0
MTEXT
  5
74B
330
5CE
100
AcDbEntity
  8
0
 62
     4
100
AcDbMText
 10
58.83116616668125
 20
22.00420531198257
 30
0.0
 40
0.125
 41
0.0
 71
     5
 72
     1
  1
\A1;3.281
 73
     1
 44
1.0
  0
POINT
  5
74C
330
5CE
100
AcDbEntity
  8
DEFPOINTS
 62
     0
100
AcDbPoint
 10
60.47168255134925
 20
22.70858431068436
 30
0.0
  0
POINT
  5
74D
330
5CE
100
AcDbEntity
  8
DEFPOINTS
 62
     0
100
AcDbPoint
 10
57.19064978201326
 20
22.70858431068435
 30
0.0
  0
POINT
  5
74E
330
5CE
100
AcDbEntity
  8
DEFPOINTS
 62
     0
100
AcDbPoint
 10
57.19064978201326
 20
22.00420531198257
 30
0.0
  0
ENDBLK
  5
5DA
330
5CE
100
AcDbEntity
  8
0
100
AcDbBlockEnd
  0
BLOCK
  5
5E7
330
5DC
100
AcDbEntity
  8
0
100
AcDbBlockBegin
  2
*D16
 70
     1
 10
0.0
 20
0.0
 30
0.0
  3
*D16
  1

  0
LINE
  5
5DD
330
5DC
100
AcDbEntity
  8
0
 62
     1
370
    -2
100
AcDbLine
 10
60.39366964177126
 20
24.34910069535236
 30
0.0
 11
62.26787016559914
 21
24.34910069535236
 31
0.0
  0
LINE
  5
5DE
330
5DC
100
AcDbEntity
  8
0
 62
     1
370
    -2
100
AcDbLine
 10
60.39366964177126
 20
22.56757140110635
 30
0.0
 11
62.26787016559914
 21
22.56757140110635
 31
0.0
  0
LINE
  5
5DF
330
5DC
100
AcDbEntity
  8
0
 62
     1
370
    -2
100
AcDbLine
 10
62.16787016559913
 20
24.16910069535235
 30
0.0
 11
62.16787016559913
 21
23.61215767169456
 31
0.0
  0
LINE
  5
5E0
330
5DC
100
AcDbEntity
  8
0
 62
     1
370
    -2
100
AcDbLine
 10
62.16787016559913
 20
22.74757140110635
 30
0.0
 11
62.16787016559913
 21
23.30451442476414
 31
0.0
  0
SOLID
  5
5E1
330
5DC
100
AcDbEntity
  8
0
 62
     1
100
AcDbTrace
 10
62.13787016559913
 20
24.16910069535235
 30
0.0
 11
62.19787016559913
 21
24.16910069535235
 31
0.0
 12
62.16787016559913
 22
24.34910069535236
 32
0.0
 13
62.16787016559913
 23
24.34910069535236
 33
0.0
  0
SOLID
  5
5E2
330
5DC
100
AcDbEntity
  8
0
 62
     1
100
AcDbTrace
 10
62.13787016559913
 20
22.74757140110635
 30
0.0
 11
62.19787016559913
 21
22.74757140110635
 31
0.0
 12
62.16787016559913
 22
22.56757140110635
 32
0.0
 13
62.16787016559913
 23
22.56757140110635
 33
0.0
  0
MTEXT
  5
5E3
330
5DC
100
AcDbEntity
  8
0
 62
     4
100
AcDbMText
 10
62.16787016559912
 20
23.45833604822936
 30
0.0
 40
0.125
 41
0.0
 71
     5
 72
     1
  1
\A1;1.782
 73
     1
 44
1.0
1001
ACAD
1000
MTEXTBEGIN
1070
    73
1070
     1
1070
    44
1040
1.0
1070
    74
1070
     0
1000
MTEXTEND
  0
POINT
  5
5E4
330
5DC
100
AcDbEntity
  8
DEFPOINTS
 62
     0
100
AcDbPoint
 10
60.33066964177126
 20
24.34910069535236
 30
0.0
  0
POINT
  5
5E5
330
5DC
100
AcDbEntity
  8
DEFPOINTS
 62
     0
100
AcDbPoint
 10
60.33066964177126
 20
22.56757140110635
 30
0.0
  0
POINT
  5
5E6
330
5DC
100
AcDbEntity
  8
DEFPOINTS
 62
     0
100
AcDbPoint
 10
62.16787016559913
 20
22.56757140110635
 30
0.0
  0
ENDBLK
  5
5E8
330
5DC
100
AcDbEntity
  8
0
100
AcDbBlockEnd
  0
BLOCK
  5
5F1
330
5EA
100
AcDbEntity
  8
0
100
AcDbBlockBegin
  2
*D17
 70
     1
 10
0.0
 20
0.0
 30
0.0
  3
*D17
  1

  0
LINE
  5
5F3
330
5EA
100
AcDbEntity
  8
0
 62
     1
370
    -2
100
AcDbLine
 10
62.12645275595231
 20
25.49185965020436
 30
0.0
 11
61.9464527559523
 21
25.49185965020436
 31
0.0
  0
LINE
  5
5F4
330
5EA
100
AcDbEntity
  8
0
 62
     1
370
    -2
100
AcDbLine
 10
61.9464527559523
 20
25.49185965020436
 30
0.0
 11
60.58200908686544
 21
24.40778198062111
 31
0.0
  0
MTEXT
  5
5F5
330
5EA
100
AcDbEntity
  8
0
 62
     4
100
AcDbMText
 10
62.59132485690728
 20
25.49185965020436
 30
0.0
 40
0.125
 41
0.0
 71
     5
 72
     1
  1
\A1;R0.141\P(4 PLCS.)
 73
     1
 44
1.0
1001
ACAD
1000
MTEXTBEGIN
1070
    73
1070
     1
1070
    44
1040
1.0
1070
    74
1070
     0
1000
MTEXTEND
  0
SOLID
  5
5F6
330
5EA
100
AcDbEntity
  8
0
 62
     1
100
AcDbTrace
 10
60.5633468285367
 20
24.43127070374672
 30
0.0
 11
60.60067134519417
 21
24.38429325749549
 31
0.0
 12
60.44107674811176
 22
24.29580843064872
 32
0.0
 13
60.44107674811176
 23
24.29580843064872
 33
0.0
  0
POINT
  5
5F7
330
5EA
100
AcDbEntity
  8
DEFPOINTS
 62
     0
100
AcDbPoint
 10
60.44107674811176
 20
24.29580843064872
 30
0.0
  0
POINT
  5
5F8
330
5EA
100
AcDbEntity
  8
DEFPOINTS
 62
     0
100
AcDbPoint
 10
60.33066964177127
 20
24.20808778577437
 30
0.0
  0
ENDBLK
  5
5F2
330
5EA
100
AcDbEntity
  8
0
100
AcDbBlockEnd
  0
BLOCK
  5
62F
330
62C
100
AcDbEntity
  8
0
100
AcDbBlockBegin
  2
_Dot
 70
     0
 10
0.0
 20
0.0
 30
0.0
  3
_Dot
  1

  0
LWPOLYLINE
  5
62D
330
62C
100
AcDbEntity
  8
0
  6
ByBlock
 62
     0
100
AcDbPolyline
 90
        2
 70
     1
 43
0.5
 10
-0.25
 20
0.0
 42
1.0
 10
0.25
 20
0.0
 42
1.0
  0
LINE
  5
62E
330
62C
100
AcDbEntity
  8
0
  6
ByBlock
 62
     0
370
    -2
100
AcDbLine
 10
-0.5
 20
0.0
 30
0.0
 11
-1.0
 21
0.0
 31
0.0
  0
ENDBLK
  5
630
330
62C
100
AcDbEntity
  8
0
100
AcDbBlockEnd
  0
BLOCK
  5
858
330
7F6
100
AcDbEntity
  8
0
100
AcDbBlockBegin
  2
B
 70
     2
 10
0.0
 20
0.0
 30
0.0
  3
B
  1

  0
ATTDEF
  5
7F7
330
7F6
100
AcDbEntity
  8
TEXT
100
AcDbText
 10
11.57785051577858
 20
0.5394050456177202
 30
0.0
 40
0.125
  1

 41
0.75
  7
TXT
 72
     1
 11
11.57785051577858
 21
0.5394050456177202
 31
0.0
100
AcDbAttributeDefinition
  3
ENTER INITIALS
  2
NAME
 70
     4
  0
ATTDEF
  5
7F8
330
7F6
100
AcDbEntity
  8
TEXT
100
AcDbText
 10
12.27323597631695
 20
0.5394050456177202
 30
0.0
 40
0.125
  1

 41
0.75
  7
TXT
 72
     1
 11
12.27323597631695
 21
0.5394050456177202
 31
0.0
100
AcDbAttributeDefinition
  3
ENTER DATE
  2
DATE
 70
     4
  0
ATTDEF
  5
7F9
330
7F6
100
AcDbEntity
  8
TEXT
100
AcDbText
 10
15.53362280004441
 20
0.7382877313450514
 30
0.0
 40
0.125
  1

 41
0.75
  7
TXT
 72
     1
 11
15.53362280004441
 21
0.7382877313450514
 31
0.0
100
AcDbAttributeDefinition
  3
ENTER TITLE LINE #1
  2
TITLE1
 70
     4
  0
ATTDEF
  5
7FA
330
7F6
100
AcDbEntity
  8
TEXT
100
AcDbText
 10
15.48674780004441
 20
0.5109922890761207
 30
0.0
 40
0.125
  1
 
 41
0.75
  7
TXT
 72
     1
 11
15.53362280004441
 21
0.5109922890761207
 31
0.0
100
AcDbAttributeDefinition
  3
ENTER TITLE LINE #2
  2
TITLE2
 70
     4
  0
ATTDEF
  5
7FB
330
7F6
100
AcDbEntity
  8
TEXT
100
AcDbText
 10
15.66691965511983
 20
0.1181742385894946
 30
0.0
 40
0.156
  1
 
 41
0.75
  7
TXT
 72
     1
 11
15.72541965511983
 21
0.1181742385894946
 31
0.0
100
AcDbAttributeDefinition
  3
ENTER PART #
  2
PART
 70
     4
  0
ATTDEF
  5
7FC
330
7F6
100
AcDbEntity
  8
TEXT
100
AcDbText
 10
15.72541965511983
 20
9.302640836036475
 30
0.0
 40
0.156
  1

 41
0.75
  7
TXT
 72
     1
 11
15.72541965511983
 21
9.302640836036475
 31
0.0
100
AcDbAttributeDefinition
  3
ENTER PART #
  2
PART
 70
     4
  0
ATTDEF
  5
7FD
330
7F6
100
AcDbEntity
  8
TEXT
100
AcDbText
 10
7.156897604150746
 20
1.182012335097561
 30
0.0
 40
0.125
  1

 41
4.93641642638573
  7
TXT
 72
     5
 11
11.06489394170611
 21
1.182012335097561
 31
0.0
100
AcDbAttributeDefinition
  3
ENTER CUT SIZE
  2
CUTSIZE
 70
     4
  0
ATTDEF
  5
7FE
330
7F6
100
AcDbEntity
  8
TEXT
100
AcDbText
 10
7.324173832727304
 20
0.2867788269611924
 30
0.0
 40
0.125
  1

 41
0.75
  7
TXT
 72
     1
 11
7.324173832727304
 21
0.2867788269611924
 31
0.0
100
AcDbAttributeDefinition
  3
ENTER QUANTITY
  2
QTY
 70
     4
  0
ATTDEF
  5
7FF
330
7F6
100
AcDbEntity
  8
TEXT
100
AcDbText
 10
8.239054202526999
 20
0.2867788269611924
 30
0.0
 40
0.125
  1

 41
0.75
  7
TXT
 72
     1
 11
8.239054202526999
 21
0.2867788269611924
 31
0.0
100
AcDbAttributeDefinition
  3
ENTER "USED ON" PART #
  2
USED
 70
     4
  0
ATTDEF
  5
800
330
7F6
100
AcDbEntity
  8
TEXT
100
AcDbText
 10
11.82398122291403
 20
0.9555323710702353
 30
0.0
 40
0.125
  1
AS NOTED
 41
0.75
  7
TXT
 72
     1
 11
12.18335622291403
 21
0.9555323710702353
 31
0.0
100
AcDbAttributeDefinition
  3
ENTER MATERIAL
  2
MAT
 70
     4
  0
ATTDEF
  5
801
330
7F6
100
AcDbEntity
  8
TEXT
100
AcDbText
 10
11.80835622291403
 20
0.7436542078606632
 30
0.0
 40
0.125
  1
SEE SPEC.
 41
0.75
  7
TXT
 72
     1
 11
12.18335622291403
 21
0.7436542078606632
 31
0.0
100
AcDbAttributeDefinition
  3
ENTER FINISH
  2
FINISH
 70
     4
  0
LINE
  5
802
330
7F6
100
AcDbEntity
  8
TITLE
100
AcDbLine
 10
0.0
 20
9.625000000000001
 30
0.0
 11
0.0
 21
0.0
 31
0.0
  0
LINE
  5
803
330
7F6
100
AcDbEntity
  8
TITLE
100
AcDbLine
 10
0.0
 20
0.0
 30
0.0
 11
16.6
 21
0.0
 31
0.0
  0
LINE
  5
804
330
7F6
100
AcDbEntity
  8
TITLE
100
AcDbLine
 10
7.119999999999997
 20
1.377
 30
0.0
 11
7.119999999999997
 21
-0.0000000000000004
 31
0.0
  0
LINE
  5
805
330
7F6
100
AcDbEntity
  8
TITLE
100
AcDbLine
 10
14.7875
 20
8.937499999999998
 30
0.0
 11
14.7875
 21
9.187499999999998
 31
0.0
  0
TEXT
  5
806
330
7F6
100
AcDbEntity
  8
TITLE
100
AcDbText
 10
14.2875
 20
9.437499999999998
 30
0.0
 40
0.09375
  1
DWG.
  7
TXT
100
AcDbText
  0
TEXT
  5
807
330
7F6
100
AcDbEntity
  8
TITLE
100
AcDbText
 10
14.27928468339758
 20
9.023672468686173
 30
0.0
 40
0.09375
  1
ISSUE
  7
TXT
100
AcDbText
  0
LINE
  5
808
330
7F6
100
AcDbEntity
  8
TITLE
100
AcDbLine
 10
14.1625
 20
8.937499999999998
 30
0.0
 11
14.1625
 21
9.624999999999998
 31
0.0
  0
TEXT
  5
809
330
7F6
100
AcDbEntity
  8
TITLE
100
AcDbText
 10
14.2875
 20
9.281249999999998
 30
0.0
 40
0.09375
  1
NO.
  7
TXT
100
AcDbText
  0
LINE
  5
80A
330
7F6
100
AcDbEntity
  8
TITLE
100
AcDbLine
 10
14.1625
 20
8.937499999999998
 30
0.0
 11
16.6
 21
8.937499999999998
 31
0.0
  0
LINE
  5
80B
330
7F6
100
AcDbEntity
  8
TITLE
100
AcDbLine
 10
14.1625
 20
9.187499999999998
 30
0.0
 11
16.6
 21
9.187499999999998
 31
0.0
  0
TEXT
  5
80C
330
7F6
100
AcDbEntity
  8
TITLE
100
AcDbText
 10
15.22324012267809
 20
9.02584779209924
 30
0.0
 40
0.09375
  1
REVISIONS
  7
TXT
100
AcDbText
  0
TEXT
  5
80D
330
7F6
100
AcDbEntity
  8
TITLE
100
AcDbText
 10
14.5375
 20
0.9903543852819179
 30
0.0
 40
0.09375
  1
NAME:
  7
TXT
100
AcDbText
  0
TEXT
  5
80E
330
7F6
100
AcDbEntity
  8
TITLE
100
AcDbText
 10
14.5375
 20
0.0631657164931343
 30
0.0
 40
0.0938
  1
NO.
  7
TXT
100
AcDbText
  0
TEXT
  5
80F
330
7F6
100
AcDbEntity
  8
TITLE
100
AcDbText
 10
14.5375
 20
0.2194990498264686
 30
0.0
 40
0.0938
  1
DWG.
  7
TXT
100
AcDbText
  0
LINE
  5
810
330
7F6
100
AcDbEntity
  8
TITLE
100
AcDbLine
 10
14.46724560008883
 20
-0.0000000000000004
 30
0.0
 11
14.46724560008883
 21
1.127
 31
0.0
  0
LINE
  5
811
330
7F6
100
AcDbEntity
  8
TITLE
100
AcDbLine
 10
13.5365
 20
1.127
 30
0.0
 11
13.5365
 21
1.377
 31
0.0
  0
LINE
  5
812
330
7F6
100
AcDbEntity
  8
TITLE
100
AcDbLine
 10
13.73673299114846
 20
0.8590073451518431
 30
0.0
 11
13.76976251320413
 21
0.8590073451518431
 31
0.0
  0
ARC
  5
813
330
7F6
100
AcDbEntity
  8
TITLE
100
AcDbCircle
 10
13.76976251320413
 20
0.7660701812170974
 30
0.0
 40
0.0929371639347451
100
AcDbArc
 50
0.0
 51
90.0
  0
LINE
  5
814
330
7F6
100
AcDbEntity
  8
TITLE
100
AcDbLine
 10
13.81386129933556
 20
0.7328783369546899
 30
0.0
 11
13.77256370982727
 21
0.7328783369546899
 31
0.0
  0
LINE
  5
815
330
7F6
100
AcDbEntity
  8
TITLE
100
AcDbLine
 10
13.73673299114846
 20
0.5934725910525716
 30
0.0
 11
13.76976251320413
 21
0.5934725910525716
 31
0.0
  0
ARC
  5
816
330
7F6
100
AcDbEntity
  8
TITLE
100
AcDbCircle
 10
13.76976251320413
 20
0.6864097549873174
 30
0.0
 40
0.0929371639347451
100
AcDbArc
 50
270.0
 51
0.0
  0
LINE
  5
817
330
7F6
100
AcDbEntity
  8
TITLE
100
AcDbLine
 10
13.81386129933556
 20
0.7196015992497254
 30
0.0
 11
13.77256370982727
 21
0.7196015992497254
 31
0.0
  0
LINE
  5
818
330
7F6
100
AcDbEntity
  8
TITLE
100
AcDbLine
 10
13.73673299114846
 20
0.5934725910525716
 30
0.0
 11
13.73673299114846
 21
0.8590073451518431
 31
0.0
  0
LINE
  5
819
330
7F6
100
AcDbEntity
  8
TITLE
100
AcDbLine
 10
13.77256370982727
 20
0.7196015992497254
 30
0.0
 11
13.77256370982727
 21
0.7328783369546899
 31
0.0
  0
LINE
  5
81A
330
7F6
100
AcDbEntity
  8
TITLE
100
AcDbLine
 10
13.86269967713888
 20
0.6864097549873174
 30
0.0
 11
13.86269967713888
 21
0.7660701812170974
 31
0.0
  0
LINE
  5
81B
330
7F6
100
AcDbEntity
  8
TITLE
100
AcDbLine
 10
13.81386129933556
 20
0.7196015992497254
 30
0.0
 11
13.81386129933556
 21
0.7328783369546899
 31
0.0
  0
LINE
  5
81C
330
7F6
100
AcDbEntity
  8
TITLE
100
AcDbLine
 10
13.63388478947084
 20
0.8590073451518431
 30
0.0
 11
13.68242241159558
 21
0.8590073451518431
 31
0.0
  0
LINE
  5
81D
330
7F6
100
AcDbEntity
  8
TITLE
100
AcDbLine
 10
13.56223401395335
 20
0.8590073451518431
 30
0.0
 11
13.6107716360781
 21
0.8590073451518431
 31
0.0
  0
ARC
  5
81E
330
7F6
100
AcDbEntity
  8
TITLE
100
AcDbCircle
 10
13.62404837378307
 20
0.6367964281680929
 30
0.0
 40
0.0132767377049636
100
AcDbArc
 50
180.0
 51
262.5557159022863
  0
ARC
  5
81F
330
7F6
100
AcDbEntity
  8
TITLE
100
AcDbCircle
 10
13.62060805176588
 20
0.6367964281680929
 30
0.0
 40
0.0132767377049636
100
AcDbArc
 50
277.4442840977136
 51
0.0
  0
ARC
  5
820
330
7F6
100
AcDbEntity
  8
TITLE
100
AcDbCircle
 10
13.66582648946438
 20
0.6100685131837765
 30
0.0
 40
0.0165959221312045
100
AcDbArc
 50
270.0
 51
0.0
  0
ARC
  5
821
330
7F6
100
AcDbEntity
  8
TITLE
100
AcDbCircle
 10
13.57882993608456
 20
0.6100685131837765
 30
0.0
 40
0.0165959221312045
100
AcDbArc
 50
180.0
 51
270.0
  0
LINE
  5
822
330
7F6
100
AcDbEntity
  8
TITLE
100
AcDbLine
 10
13.57882993608456
 20
0.5934725910525716
 30
0.0
 11
13.66582648946438
 21
0.5934725910525716
 31
0.0
  0
LINE
  5
823
330
7F6
100
AcDbEntity
  8
TITLE
100
AcDbLine
 10
13.6107716360781
 20
0.6367964281680929
 30
0.0
 11
13.6107716360781
 21
0.8590073451518431
 31
0.0
  0
LINE
  5
824
330
7F6
100
AcDbEntity
  8
TITLE
100
AcDbLine
 10
13.63388478947084
 20
0.6367964281680929
 30
0.0
 11
13.63388478947084
 21
0.8590073451518431
 31
0.0
  0
LINE
  5
825
330
7F6
100
AcDbEntity
  8
TITLE
100
AcDbLine
 10
13.56223401395335
 20
0.6100685131837765
 30
0.0
 11
13.56223401395335
 21
0.8590073451518431
 31
0.0
  0
LINE
  5
826
330
7F6
100
AcDbEntity
  8
TITLE
100
AcDbLine
 10
13.68242241159558
 20
0.6100685131837765
 30
0.0
 11
13.68242241159558
 21
0.8590073451518431
 31
0.0
  0
LINE
  5
827
330
7F6
100
AcDbEntity
  8
TITLE
100
AcDbLine
 10
13.46284745436459
 20
0.7328783369546899
 30
0.0
 11
13.39004102117747
 21
0.7328783369546899
 31
0.0
  0
LINE
  5
828
330
7F6
100
AcDbEntity
  8
TITLE
100
AcDbLine
 10
13.37732878681146
 20
0.8590073451518431
 30
0.0
 11
13.46284745436459
 21
0.8590073451518431
 31
0.0
  0
LINE
  5
829
330
7F6
100
AcDbEntity
  8
TITLE
100
AcDbLine
 10
13.39004102117747
 20
0.7196015992497254
 30
0.0
 11
13.39004102117747
 21
0.7262399681022083
 31
0.0
  0
LINE
  5
82A
330
7F6
100
AcDbEntity
  8
TITLE
100
AcDbLine
 10
13.37732878681146
 20
0.5934725910525716
 30
0.0
 11
13.46284745436459
 21
0.5934725910525716
 31
0.0
  0
LINE
  5
82B
330
7F6
100
AcDbEntity
  8
TITLE
100
AcDbLine
 10
13.46284745436459
 20
0.7196015992497254
 30
0.0
 11
13.39004102117747
 21
0.7196015992497254
 31
0.0
  0
LINE
  5
82C
330
7F6
100
AcDbEntity
  8
TITLE
100
AcDbLine
 10
13.37732878681146
 20
0.5934725910525716
 30
0.0
 11
13.37732878681146
 21
0.8590073451518431
 31
0.0
  0
LINE
  5
82D
330
7F6
100
AcDbEntity
  8
TITLE
100
AcDbLine
 10
13.39004102117747
 20
0.7328783369546899
 30
0.0
 11
13.39004102117747
 21
0.7262399681022083
 31
0.0
  0
ARC
  5
82E
330
7F6
100
AcDbEntity
  8
TITLE
100
AcDbCircle
 10
13.46284745436459
 20
0.7959428410532668
 30
0.0
 40
0.063064504098577
100
AcDbArc
 50
270.0
 51
90.0
  0
ARC
  5
82F
330
7F6
100
AcDbEntity
  8
TITLE
100
AcDbCircle
 10
13.46284745436459
 20
0.6565370951511494
 30
0.0
 40
0.063064504098577
100
AcDbArc
 50
270.0
 51
90.00000000000003
  0
TEXT
  5
830
330
7F6
100
AcDbEntity
  8
TITLE
100
AcDbText
 10
12.4755
 20
1.197740762992484
 30
0.0
 40
0.09375
  1
PART NO.
  7
TXT
100
AcDbText
  0
TEXT
  5
831
330
7F6
100
AcDbEntity
  8
TITLE
100
AcDbText
 10
12.80237987390002
 20
0.9755983592151281
 30
0.0
 40
0.09375
  1
SCALE:
  7
TXT
100
AcDbText
  0
LINE
  5
832
330
7F6
100
AcDbEntity
  8
TITLE
100
AcDbLine
 10
12.76353790782162
 20
-0.0000000000000004
 30
0.0
 11
12.76353790782162
 21
1.127
 31
0.0
  0
TEXT
  5
833
330
7F6
100
AcDbEntity
  8
TITLE
100
AcDbText
 10
12.86389543567033
 20
0.1249999999999996
 30
0.0
 40
0.09375
  1
WILLOUGHBY, OHIO
  7
TXT
100
AcDbText
  0
TEXT
  5
834
330
7F6
100
AcDbEntity
  8
TITLE
100
AcDbText
 10
12.80461451425917
 20
0.3749999999999996
 30
0.0
 40
0.09375
  1
BUD INDUSTRIES, INC.
  7
TXT
100
AcDbText
  0
LINE
  5
835
330
7F6
100
AcDbEntity
  8
TITLE
100
AcDbLine
 10
14.46724560008883
 20
0.3819999999999992
 30
0.0
 11
16.59999999999999
 21
0.3819999999999992
 31
0.0
  0
TEXT
  5
836
330
7F6
100
AcDbEntity
  8
TITLE
100
AcDbText
 10
14.60244590285365
 20
1.197740762992484
 30
0.0
 40
0.09375
  1
DESCRIPTION
  7
TXT
100
AcDbText
  0
LINE
  5
837
330
7F6
100
AcDbEntity
  8
TITLE
100
AcDbLine
 10
12.03749999999999
 20
1.127
 30
0.0
 11
12.0375
 21
1.377
 31
0.0
  0
LINE
  5
838
330
7F6
100
AcDbEntity
  8
TITLE
100
AcDbLine
 10
11.51929648007106
 20
1.127
 30
0.0
 11
11.51929648007106
 21
1.377
 31
0.0
  0
TEXT
  5
839
330
7F6
100
AcDbEntity
  8
TITLE
100
AcDbText
 10
11.5708473600533
 20
1.197740762992484
 30
0.0
 40
0.09375
  1
REQ'D.
  7
TXT
100
AcDbText
  0
TEXT
  5
83A
330
7F6
100
AcDbEntity
  8
TITLE
100
AcDbText
 10
11.163
 20
0.9728772779084607
 30
0.0
 40
0.09375
  1
MAT:
  7
TXT
100
AcDbText
  0
TEXT
  5
83B
330
7F6
100
AcDbEntity
  8
TITLE
100
AcDbText
 10
11.15657245370309
 20
1.199407818911626
 30
0.0
 40
0.09375
  1
ITEM
  7
TXT
100
AcDbText
  0
TEXT
  5
83C
330
7F6
100
AcDbEntity
  8
TITLE
100
AcDbText
 10
11.163
 20
0.3124999999999996
 30
0.0
 40
0.09375
  1
CH.
  7
TXT
100
AcDbText
  0
TEXT
  5
83D
330
7F6
100
AcDbEntity
  8
TITLE
100
AcDbText
 10
11.163
 20
0.5693740809498898
 30
0.0
 40
0.09375
  1
DR.
  7
TXT
100
AcDbText
  0
TEXT
  5
83E
330
7F6
100
AcDbEntity
  8
TITLE
100
AcDbText
 10
11.163
 20
0.7741181638829385
 30
0.0
 40
0.09375
  1
FINISH:
  7
TXT
100
AcDbText
  0
TEXT
  5
83F
330
7F6
100
AcDbEntity
  8
TITLE
100
AcDbText
 10
11.163
 20
0.0624999999999996
 30
0.0
 40
0.09375
  1
APP.
  7
TXT
100
AcDbText
  0
LINE
  5
840
330
7F6
100
AcDbEntity
  8
TITLE
100
AcDbLine
 10
11.7977560980471
 20
-0.0000000000000004
 30
0.0
 11
11.79775609804711
 21
0.709000000000001
 31
0.0
  0
LINE
  5
841
330
7F6
100
AcDbEntity
  8
TITLE
100
AcDbLine
 10
11.10049999999999
 20
-0.0000000000000004
 30
0.0
 11
11.10049999999999
 21
1.377
 31
0.0
  0
TEXT
  5
842
330
7F6
100
AcDbEntity
  8
TITLE
100
AcDbText
 10
9.145905996309931
 20
0.9520717565666277
 30
0.0
 40
0.1117888355610499
  1
%%uTOLERANCES:
  7
TXT
100
AcDbText
  0
TEXT
  5
843
330
7F6
100
AcDbEntity
  8
TITLE
100
AcDbText
 10
9.191485367583922
 20
0.2344895723568654
 30
0.0
 40
0.0772424143690822
  1
    SURFACES
  7
TXT
100
AcDbText
  0
TEXT
  5
844
330
7F6
100
AcDbEntity
  8
TITLE
100
AcDbText
 10
9.093719946747782
 20
0.7494390014840789
 30
0.0
 40
0.0772424143690822
  1
%%p.005 BETWEEN HOLE CENTERS
  7
TXT
100
AcDbText
  0
TEXT
  5
845
330
7F6
100
AcDbEntity
  8
TITLE
100
AcDbText
 10
9.093719946747782
 20
0.6207016442022755
 30
0.0
 40
0.0772424143690822
  1
%%p.015 FROM SHEARED EDGE
  7
TXT
100
AcDbText
  0
TEXT
  5
846
330
7F6
100
AcDbEntity
  8
TITLE
100
AcDbText
 10
9.093719946747782
 20
0.4919642869204704
 30
0.0
 40
0.0772424143690822
  1
%%p.032 FROM A BENT SURFACE
  7
TXT
100
AcDbText
  0
TEXT
  5
847
330
7F6
100
AcDbEntity
  8
TITLE
100
AcDbText
 10
9.098649805283812
 20
0.0564750904941671
 30
0.0
 40
0.0772424143690822
  1
UNLESS OTHERWISE SPECIFIED
  7
TXT
100
AcDbText
  0
TEXT
  5
848
330
7F6
100
AcDbEntity
  8
TITLE
100
AcDbText
 10
9.093719946747782
 20
0.363226929638667
 30
0.0
 40
0.0772424143690822
  1
%%p.063 BETWEEN ASSEMBLED
  7
TXT
100
AcDbText
  0
LINE
  5
849
330
7F6
100
AcDbEntity
  8
TITLE
100
AcDbLine
 10
7.494999999999997
 20
0.0000000000000013
 30
0.0
 11
7.494999999999997
 21
0.2499999999999996
 31
0.0
  0
TEXT
  5
84A
330
7F6
100
AcDbEntity
  8
TITLE
100
AcDbText
 10
7.917259741149376
 20
0.0776282744477839
 30
0.0
 40
0.09375
  1
USED ON
  7
TXT
100
AcDbText
  0
LINE
  5
84B
330
7F6
100
AcDbEntity
  8
TITLE
100
AcDbLine
 10
9.0225
 20
0.0000000000000013
 30
0.0
 11
9.0225
 21
1.127
 31
0.0
  0
LINE
  5
84C
330
7F6
100
AcDbEntity
  8
TITLE
100
AcDbLine
 10
7.119999999999997
 20
0.2499999999999996
 30
0.0
 11
9.0225
 21
0.2499999999999996
 31
0.0
  0
LINE
  5
84D
330
7F6
100
AcDbEntity
  8
TITLE
100
AcDbLine
 10
9.0225
 20
1.127
 30
0.0
 11
7.119999999999997
 21
1.127
 31
0.0
  0
TEXT
  5
84E
330
7F6
100
AcDbEntity
  8
TITLE
100
AcDbText
 10
7.171749183812263
 20
0.0776282744477839
 30
0.0
 40
0.09375
  1
QTY.
  7
TXT
100
AcDbText
  0
LINE
  5
84F
330
7F6
100
AcDbEntity
  8
TITLE
100
AcDbLine
 10
11.10049999999999
 20
1.377
 30
0.0
 11
7.119999999999997
 21
1.377
 31
0.0
  0
LINE
  5
850
330
7F6
100
AcDbEntity
  8
TITLE
100
AcDbLine
 10
11.10049999999999
 20
1.377
 30
0.0
 11
16.59999999999999
 21
1.377
 31
0.0
  0
LINE
  5
851
330
7F6
100
AcDbEntity
  8
TITLE
100
AcDbLine
 10
9.0225
 20
1.127
 30
0.0
 11
16.59999999999999
 21
1.127
 31
0.0
  0
LINE
  5
852
330
7F6
100
AcDbEntity
  8
TITLE
100
AcDbLine
 10
11.10049999999999
 20
0.9180000000000006
 30
0.0
 11
14.46724560008883
 21
0.9180000000000006
 31
0.0
  0
LINE
  5
853
330
7F6
100
AcDbEntity
  8
TITLE
100
AcDbLine
 10
11.10049999999999
 20
0.2499999999999996
 30
0.0
 11
12.76353790782162
 21
0.2499999999999996
 31
0.0
  0
LINE
  5
854
330
7F6
100
AcDbEntity
  8
TITLE
100
AcDbLine
 10
11.10049999999999
 20
0.709000000000001
 30
0.0
 11
12.76353790782162
 21
0.709000000000001
 31
0.0
  0
LINE
  5
855
330
7F6
100
AcDbEntity
  8
TITLE
100
AcDbLine
 10
11.10049999999999
 20
0.4999999999999996
 30
0.0
 11
12.76353790782162
 21
0.4999999999999996
 31
0.0
  0
LINE
  5
856
330
7F6
100
AcDbEntity
  8
TITLE
100
AcDbLine
 10
16.6
 20
9.624999999999998
 30
0.0
 11
16.6
 21
0.0
 31
0.0
  0
LINE
  5
857
330
7F6
100
AcDbEntity
  8
TITLE
100
AcDbLine
 10
0.0
 20
9.625000000000001
 30
0.0
 11
16.6
 21
9.624999999999998
 31
0.0
  0
ENDBLK
  5
859
330
7F6
100
AcDbEntity
  8
0
100
AcDbBlockEnd
  0
ENDSEC
  0
SECTION
  2
ENTITIES
  0
LINE
  5
A1
330
2
100
AcDbEntity
  8
AGCASE
  6
HIDDEN2
 62
     4
100
AcDbLine
 10
63.35703232881136
 20
22.45883257294586
 30
0.0
 11
63.35703232881136
 21
24.39577398232536
 31
0.0
  0
LINE
  5
A4
330
2
100
AcDbEntity
  8
AGCASE
100
AcDbLine
 10
63.39973342114835
 20
22.45883257294586
 30
0.0
 11
63.39973342114835
 21
24.39577398232533
 31
0.0
  0
LINE
  5
A5
330
2
100
AcDbEntity
  8
AGCASE
  6
HIDDEN2
 62
     4
100
AcDbLine
 10
63.26666490084235
 20
22.56757140110635
 30
0.0
 11
63.26666490084235
 21
24.34910069535236
 31
0.0
  0
LINE
  5
A6
330
2
100
AcDbEntity
  8
AGCASE
100
AcDbLine
 10
63.25673441425235
 20
22.45883257294586
 30
0.0
 11
63.25673441425236
 21
24.39577398232534
 31
0.0
  0
LINE
  5
A7
330
2
100
AcDbEntity
  8
AGCASE
100
AcDbLine
 10
64.22594990543633
 20
26.27064985051735
 30
0.0
 11
64.22594990543633
 21
22.27064985206536
 31
0.0
  0
LINE
  5
A8
330
2
100
AcDbEntity
  8
AGCASE
  6
HIDDEN2
 62
     4
100
AcDbLine
 10
64.19516539700733
 20
26.22199046622636
 30
0.0
 11
64.19516539700731
 21
22.32129533367436
 31
0.0
  0
LINE
  5
A9
330
2
100
AcDbEntity
  8
AGCASE
100
AcDbLine
 10
63.90962521726414
 20
26.26236659704248
 30
0.0
 11
63.90962521726414
 21
22.27064985206536
 31
0.0
  0
LINE
  5
AA
330
2
100
AcDbEntity
  8
AGCASE
  6
HIDDEN2
 62
     4
100
AcDbLine
 10
63.73141167325432
 20
22.45883257294586
 30
0.0
 11
63.73141167325432
 21
25.97646658762683
 31
0.0
  0
LINE
  5
AB
330
2
100
AcDbEntity
  8
AGCASE
100
AcDbLine
 10
63.63111375869532
 20
22.45883257294586
 30
0.0
 11
63.63111375869532
 21
25.97646658762683
 31
0.0
  0
LINE
  5
AC
330
2
100
AcDbEntity
  8
AGCASE
100
AcDbLine
 10
63.48811475179933
 20
22.45883257294586
 30
0.0
 11
63.48811475179933
 21
25.56505048175127
 31
0.0
  0
LWPOLYLINE
  5
AD
330
2
100
AcDbEntity
  8
AGCASE
 62
     4
100
AcDbPolyline
 90
        2
 70
     0
 43
0.0
 10
60.58191095249827
 20
22.45883257294586
 10
60.58191095249825
 20
24.39577398232536
 42
0.1016781047424312
  0
LWPOLYLINE
  5
AE
330
2
100
AcDbEntity
  8
AGCASE
 62
     4
100
AcDbPolyline
 90
        2
 70
     0
 43
0.0
 10
60.8806194829167
 20
22.45883257294586
 10
60.8806194829167
 20
24.39577398232537
 42
0.1016781047424649
  0
LWPOLYLINE
  5
AF
330
2
100
AcDbEntity
  8
AGCASE
 62
     4
100
AcDbPolyline
 90
        2
 70
     0
 43
0.0
 10
60.82959249787402
 20
22.45883257294586
 10
60.82959249787402
 20
24.39577398232537
 42
0.1016781047424313
  0
LWPOLYLINE
  5
B0
330
2
100
AcDbEntity
  8
AGCASE
 62
     4
100
AcDbPolyline
 90
        2
 70
     0
 43
0.0
 10
57.08042138086424
 20
24.39577398232534
 10
57.08042138086424
 20
22.45883257294587
  0
LWPOLYLINE
  5
B1
330
2
100
AcDbEntity
  8
AGCASE
 62
     4
100
AcDbPolyline
 90
        2
 70
     0
 43
0.0
 10
56.7817128504458
 20
24.39577398232537
 10
56.7817128504458
 20
22.45883257294587
  0
LWPOLYLINE
  5
B2
330
2
100
AcDbEntity
  8
AGCASE
 62
     4
100
AcDbPolyline
 90
        2
 70
     0
 43
0.0
 10
56.83273983548849
 20
24.39577398232537
 10
56.83273983548849
 20
22.45883257294587
  0
LWPOLYLINE
  5
B3
330
2
100
AcDbEntity
  8
AGCASE
100
AcDbPolyline
 90
        8
 70
     1
 43
0.0
 10
60.33066964177126
 20
22.59835590953535
 10
57.33166269159125
 20
22.59835590953535
 42
-0.4142135623730966
 10
57.22143429044225
 20
22.70858431068435
 10
57.22143429044225
 20
24.20808778577435
 42
-0.4142135623731014
 10
57.33166269159125
 20
24.31831618692335
 10
60.33066964177126
 20
24.31831618692336
 42
-0.4142135623731014
 10
60.44089804292026
 20
24.20808778577435
 10
60.44089804292026
 20
22.70858431068436
 42
-0.4142135623730966
  0
LWPOLYLINE
  5
B4
330
2
100
AcDbEntity
  8
AGCASE
100
AcDbPolyline
 90
        8
 70
     1
 43
0.0
 10
60.33066964177126
 20
22.56757140110635
 10
57.33166269159125
 20
22.56757140110635
 42
-0.4142135623730943
 10
57.19064978201326
 20
22.70858431068435
 10
57.19064978201326
 20
24.20808778577435
 42
-0.4142135623730951
 10
57.33166269159125
 20
24.34910069535235
 10
60.33066964177126
 20
24.34910069535236
 42
-0.4142135623730956
 10
60.47168255134925
 20
24.20808778577435
 10
60.47168255134925
 20
22.70858431068436
 42
-0.4142135623730945
  0
LWPOLYLINE
  5
B5
330
2
100
AcDbEntity
  8
AGCASE
  6
HIDDEN2
 62
     4
100
AcDbPolyline
 90
       12
 70
     0
 43
0.0
 10
61.53225851916126
 20
22.42407586988087
 10
61.53225851916126
 20
24.39577398232534
 42
0.05436010033937
 10
61.45096526721735
 20
25.14129347374614
 42
0.0681918494595873
 10
61.24537197942947
 20
25.69862941841411
 42
0.1054973669492259
 10
60.89520346218608
 20
26.11454176360701
 42
0.1667167565526472
 10
60.58191095249825
 20
26.22199046622634
 10
57.08042138086426
 20
26.22199046622634
 42
0.1667167565526482
 10
56.76712887117643
 20
26.11454176360701
 42
0.1054973669492297
 10
56.41696035393302
 20
25.69862941841409
 42
0.0681918494595835
 10
56.21136706614517
 20
25.14129347374614
 42
0.0543601003393706
 10
56.13007381420126
 20
24.39577398232534
 10
56.13007381420126
 20
22.42407586988087
  0
LWPOLYLINE
  5
B6
330
2
100
AcDbEntity
  8
AGCASE
100
AcDbPolyline
 90
       12
 70
     0
 43
0.0
 10
61.58091790345225
 20
22.45883257294586
 10
61.58091790345225
 20
24.39577398232537
 42
0.0543601003393741
 10
61.49848110407791
 20
25.15178065291967
 42
0.068191849459577
 10
61.28831554197031
 20
25.72151142260694
 42
0.1054973669492315
 10
60.92506769606177
 20
26.15295872879945
 42
0.1667167565526422
 10
60.58191095249825
 20
26.27064985051735
 10
57.08042138086426
 20
26.27064985051735
 42
0.1667167565526422
 10
56.73726463730073
 20
26.15295872879945
 42
0.1054973669492315
 10
56.37401679139219
 20
25.72151142260693
 42
0.068191849459577
 10
56.16385122928458
 20
25.15178065291967
 42
0.0543601003393741
 10
56.08141442991026
 20
24.39577398232536
 10
56.08141442991026
 20
22.45883257294587
  0
LWPOLYLINE
  5
B7
330
2
100
AcDbEntity
  8
AGCASE
  6
HIDDEN2
 62
     4
100
AcDbPolyline
 90
       12
 70
     0
 43
0.0
 10
61.47977948679803
 20
22.45883257294586
 10
61.47977948679803
 20
24.39577398232533
 42
0.0543601003393767
 10
61.39971954808819
 20
25.12998307548979
 42
0.0681918494595773
 10
61.19905744748032
 20
25.67395123030983
 42
0.1054973669492272
 10
60.86299495566876
 20
26.07310915633081
 42
0.1667167565526489
 10
60.58191095249825
 20
26.16951143386312
 10
57.08042138086426
 20
26.16951143386312
 42
0.1667167565526481
 10
56.79933737769375
 20
26.07310915633081
 42
0.1054973669492285
 10
56.46327488588219
 20
25.67395123030983
 42
0.0681918494595846
 10
56.26261278527429
 20
25.12998307548973
 42
0.0543601003393706
 10
56.18255284656449
 20
24.39577398232535
 10
56.18255284656449
 20
22.45883257294587
  0
LWPOLYLINE
  5
B8
330
2
100
AcDbEntity
  8
AGCASE
100
AcDbPolyline
 90
       12
 70
     0
 43
0.0
 10
61.57263464997738
 20
22.45883257294586
 10
61.57263464997736
 20
24.39577398232533
 42
0.0543601003393759
 10
61.49039251589455
 20
25.14999542763176
 42
0.0681918494595784
 10
61.28100528889533
 20
25.71761623479262
 42
0.1054973669492269
 10
60.9199839280974
 20
26.1464190352735
 42
0.1667167565526487
 10
60.58191095249825
 20
26.26236659704247
 10
57.08042138086426
 20
26.26236659704247
 42
0.1667167565526478
 10
56.74234840526511
 20
26.1464190352735
 42
0.1054973669492289
 10
56.38132704446716
 20
25.71761623479261
 42
0.0681918494595838
 10
56.17193981746795
 20
25.1499954276317
 42
0.0543601003393701
 10
56.08969768338513
 20
24.39577398232535
 10
56.08969768338513
 20
22.45883257294587
  0
LWPOLYLINE
  5
B9
330
2
100
AcDbEntity
  8
AGCASE
 62
     4
100
AcDbPolyline
 90
        4
 70
     0
 43
0.0
 10
57.21018460174011
 20
25.97646658762683
 42
0.0995263070583832
 10
56.70970761100407
 20
25.25072740595438
 42
0.1016781047425731
 10
56.53403130507004
 20
24.39577398232534
 10
56.53403130507004
 20
22.45883257294587
  0
LWPOLYLINE
  5
BA
330
2
100
AcDbEntity
  8
AGCASE
 62
     4
100
AcDbPolyline
 90
        7
 70
     0
 43
0.0
 10
57.21018460174011
 20
25.97646658762683
 10
57.08042138086426
 20
25.97646658762683
 42
0.1667167565526447
 10
56.91781681430195
 20
25.92069873752882
 42
0.1054973669492293
 10
56.6336435321017
 20
25.58317217411446
 42
0.0681918494595847
 10
56.45112087172452
 20
25.08837761910157
 42
0.0543601003393702
 10
56.37559769280077
 20
24.39577398232534
 10
56.37559769280077
 20
22.45883257294587
  0
LWPOLYLINE
  5
BB
330
2
100
AcDbEntity
  8
AGCASE
 62
     4
100
AcDbPolyline
 90
        4
 70
     0
 43
0.0
 10
61.12830102829247
 20
22.45883257294587
 10
61.12830102829247
 20
24.39577398232534
 42
0.1016781047425057
 10
60.95262472235867
 20
25.25072740595383
 42
0.0995263070584519
 10
60.45214773162236
 20
25.97646658762684
 42
0.0971499687387583
  0
LWPOLYLINE
  5
BC
330
2
100
AcDbEntity
  8
AGCASE
 62
     4
100
AcDbPolyline
 90
        7
 70
     0
 43
0.0
 10
61.28673464056173
 20
22.45883257294586
 10
61.28673464056173
 20
24.39577398232534
 42
0.0543601003393702
 10
61.21121146163799
 20
25.08837761910157
 42
0.0681918494595866
 10
61.02868880126079
 20
25.58317217411448
 42
0.1054973669492252
 10
60.74451551906056
 20
25.92069873752882
 42
0.1667167565526498
 10
60.58191095249825
 20
25.97646658762684
 10
60.45214773162238
 20
25.97646658762684
 42
0.1667167565526447
  0
LINE
  5
BF
330
2
100
AcDbEntity
  8
AGBASE
  6
HIDDEN2
 62
     4
100
AcDbLine
 10
64.52150601310336
 20
22.45883257294586
 30
0.0
 11
64.52150601310336
 21
25.90123913646096
 31
0.0
  0
LINE
  5
C1
330
2
100
AcDbEntity
  8
AGBASE
100
AcDbLine
 10
64.63173441425237
 20
22.45883257294586
 30
0.0
 11
64.63173441425237
 21
25.89614217164634
 31
0.0
  0
LINE
  5
C2
330
2
100
AcDbEntity
  8
AGBASE
  6
HIDDEN2
 62
     4
100
AcDbLine
 10
64.62180392766237
 20
22.64353962351986
 30
0.0
 11
64.62180392766237
 21
25.71057040684136
 31
0.0
  0
LWPOLYLINE
  5
C3
330
2
100
AcDbEntity
  8
AGBASE
100
AcDbPolyline
 90
       12
 70
     0
 43
0.0
 10
61.58091790345225
 20
22.45883257294586
 10
61.58091790345225
 20
24.39577398232537
 42
0.0543601003393741
 10
61.49848110407792
 20
25.15178065291967
 42
0.068191849459577
 10
61.28831554197031
 20
25.72151142260694
 42
0.1054973669492315
 10
60.92506769606177
 20
26.15295872879945
 42
0.1667167565526422
 10
60.58191095249824
 20
26.27064985051735
 10
57.08042138086426
 20
26.27064985051735
 42
0.1667167565526422
 10
56.73726463730073
 20
26.15295872879945
 42
0.1054973669492315
 10
56.37401679139219
 20
25.72151142260693
 42
0.068191849459577
 10
56.16385122928458
 20
25.15178065291967
 42
0.0543601003393741
 10
56.08141442991025
 20
24.39577398232536
 10
56.08141442991026
 20
22.45883257294587
  0
LWPOLYLINE
  5
C5
330
2
100
AcDbEntity
  8
AGBASE
  6
HIDDEN2
 62
     4
100
AcDbPolyline
 90
       12
 70
     0
 43
0.0
 10
61.53027242184325
 20
22.42549638892702
 10
61.53027242184325
 20
24.39577398232538
 42
0.0543601003393635
 10
61.44902584530468
 20
25.14086542561654
 42
0.0681918494595965
 10
61.24361918095842
 20
25.69769545905931
 42
0.1054973669492238
 10
60.89398451386462
 20
26.11297372421141
 42
0.1667167565526471
 10
60.58191095249824
 20
26.22000436890835
 10
57.08042138086426
 20
26.22000436890835
 42
0.1667167565526505
 10
56.76834781949787
 20
26.1129737242114
 42
0.1054973669492204
 10
56.41871315240408
 20
25.69769545905932
 42
0.0681918494595938
 10
56.21330648805782
 20
25.14086542561656
 42
0.0543601003393662
 10
56.13205991151925
 20
24.39577398232536
 10
56.13205991151925
 20
22.42549638892702
  0
LWPOLYLINE
  5
C6
330
2
100
AcDbEntity
  8
AGBASE
  6
HIDDEN2
 62
     4
100
AcDbPolyline
 90
       12
 70
     0
 43
0.0
 10
61.48219784896785
 20
22.45883257294586
 10
61.48219784896785
 20
24.39577398232535
 42
0.0543601003393709
 10
61.40208107616763
 20
25.1305042863055
 42
0.0681918494595861
 10
61.20119173439327
 20
25.6750884615781
 42
0.1054973669492235
 10
60.8644792024279
 20
26.07501847221415
 42
0.1667167565526503
 10
60.58191095249824
 20
26.17192979603293
 10
57.08042138086426
 20
26.17192979603293
 42
0.1667167565526471
 10
56.79785313093462
 20
26.07501847221415
 42
0.1054973669492297
 10
56.46114059896921
 20
25.67508846157807
 42
0.068191849459584
 10
56.26025125719486
 20
25.1305042863055
 42
0.0543601003393701
 10
56.18013448439466
 20
24.39577398232535
 10
56.18013448439467
 20
22.45883257294587
  0
LINE
  5
C7
330
2
100
AcDbEntity
  8
AGBASE
100
AcDbLine
 10
64.25735506980932
 20
26.27064985051735
 30
0.0
 11
64.25735506980931
 21
22.27064985206536
 31
0.0
  0
LINE
  5
C8
330
2
100
AcDbEntity
  8
AGBASE
  6
HIDDEN2
 62
     4
100
AcDbLine
 10
64.19578605295132
 20
26.22000436890835
 30
0.0
 11
64.1957860529513
 21
22.32129533367437
 31
0.0
  0
LINE
  5
C9
330
2
100
AcDbEntity
  8
AGBASE
  6
CENTER
 62
     1
100
AcDbLine
 10
58.83116616668125
 20
22.17064985206536
 30
0.0
 11
58.83116616668125
 21
26.37064985051734
 31
0.0
  0
DIMENSION
  5
CA
330
2
100
AcDbEntity
  8
0
100
AcDbDimension
  2
*D9
 10
62.72054974322152
 20
19.57220170202274
 30
0.0
 11
62.72054974322151
 21
20.25970170202277
 31
0.0
 70
    32
 71
     5
 42
1.375000000000039
  3
STANDARD
100
AcDbAlignedDimension
 13
60.58191095249825
 23
20.94720170202279
 33
0.0
 14
61.20641022458124
 24
19.57220170202274
 34
0.0
 50
90.0
100
AcDbRotatedDimension
1001
ACAD
1000
DSTYLE
1002
{
1070
   140
1040
0.125
1070
   272
1070
     3
1070
    42
1040
0.063
1070
    44
1040
0.1
1070
   271
1070
     3
1070
   178
1070
     4
1070
   177
1070
     1
1070
   176
1070
     1
1070
   141
1040
0.09375
1002
}
  0
LWPOLYLINE
  5
D9
330
2
100
AcDbEntity
  8
AGCASE
  6
HIDDEN2
 62
     4
100
AcDbPolyline
 90
        4
 70
     0
 43
0.0
 10
60.47168255134926
 20
20.9472017020228
 10
60.47168255134926
 20
20.93727121543281
 10
57.19064978201325
 20
20.93727121543279
 10
57.19064978201325
 20
20.94720170202279
  0
LINE
  5
DA
330
2
100
AcDbEntity
  8
AGCASE
  6
HIDDEN2
 62
     4
100
AcDbLine
 10
60.58191095249826
 20
20.79079653823025
 30
0.0
 11
57.08042138086425
 21
20.79079653823029
 31
0.0
  0
LINE
  5
DB
330
2
100
AcDbEntity
  8
AGCASE
  6
HIDDEN2
 62
     4
100
AcDbLine
 10
60.58191095249826
 20
20.84690378746376
 30
0.0
 11
57.08042138086425
 21
20.84690378746379
 31
0.0
  0
LINE
  5
DC
330
2
100
AcDbEntity
  8
AGCASE
  6
Continuous
100
AcDbLine
 10
60.58191095249826
 20
20.75901898114225
 30
0.0
 11
57.08042138086425
 21
20.75901898114229
 31
0.0
  0
LINE
  5
DD
330
2
100
AcDbEntity
  8
AGCASE
  6
Continuous
100
AcDbLine
 10
60.58191095249826
 20
20.94720170202275
 30
0.0
 11
57.08042138086425
 21
20.94720170202279
 31
0.0
  0
LINE
  5
DF
330
2
100
AcDbEntity
  8
AGBASE
  6
HIDDEN2
 62
     4
100
AcDbLine
 10
61.20641022458125
 20
19.72860686581524
 30
0.0
 11
56.45592210878127
 21
19.7286068658153
 31
0.0
  0
LINE
  5
E0
330
2
100
AcDbEntity
  8
AGBASE
  6
HIDDEN2
 62
     4
100
AcDbLine
 10
61.21150718939585
 20
19.68243010317174
 30
0.0
 11
56.45082514396666
 21
19.68243010317179
 31
0.0
  0
LINE
  5
E1
330
2
100
AcDbEntity
  8
AGBASE
100
AcDbLine
 10
61.20641022458125
 20
19.76038442290325
 30
0.0
 11
56.45592210878127
 21
19.7603844229033
 31
0.0
  0
LINE
  5
E4
330
2
100
AcDbEntity
  8
AGBASE
  6
HIDDEN2
 62
     4
100
AcDbLine
 10
59.84606189617925
 20
19.58213218861276
 30
0.0
 11
57.81627043718325
 21
19.58213218861278
 31
0.0
  0
LINE
  5
E5
330
2
100
AcDbEntity
  8
AGBASE
  6
Continuous
100
AcDbLine
 10
61.20641022458124
 20
19.57220170202274
 30
0.0
 11
56.45592210878127
 21
19.5722017020228
 31
0.0
  0
LINE
  5
E6
330
2
100
AcDbEntity
  8
AGCASE
  6
CENTER
 62
     1
 48
0.5
100
AcDbLine
 10
58.83116616668124
 20
21.09220959550002
 30
0.0
 11
58.83116616668125
 21
19.51720959550002
 31
0.0
  0
LINE
  5
E7
330
2
100
AcDbEntity
  8
AGBASE
  6
HIDDEN2
 62
     4
100
AcDbLine
 10
56.86219893795225
 20
19.93267836523976
 30
0.0
 11
56.85783083828968
 21
19.68243010317176
 31
0.0
  0
LINE
  5
E8
330
2
100
AcDbEntity
  8
AGBASE
  6
HIDDEN2
 62
     4
100
AcDbLine
 10
56.91085832224325
 20
19.93267836523976
 30
0.0
 11
56.91304220574117
 21
19.68243010317174
 31
0.0
  0
LINE
  5
E9
330
2
100
AcDbEntity
  8
AGBASE
  6
HIDDEN2
 62
     4
100
AcDbLine
 10
56.83364636916482
 20
19.94685834388675
 30
0.0
 11
56.836901283563
 21
19.76038442290325
 31
0.0
  0
LINE
  5
EA
330
2
100
AcDbEntity
  8
AGBASE
  6
HIDDEN2
 62
     4
100
AcDbLine
 10
57.04988513450325
 20
19.93267836523976
 30
0.0
 11
57.05425323416581
 21
19.68243010317176
 31
0.0
  0
LINE
  5
EB
330
2
100
AcDbEntity
  8
AGBASE
  6
HIDDEN2
 62
     4
100
AcDbLine
 10
57.00122575021225
 20
19.93267836523976
 30
0.0
 11
56.99904186671431
 21
19.68243010317174
 31
0.0
  0
LINE
  5
EC
330
2
100
AcDbEntity
  8
AGBASE
  6
HIDDEN2
 62
     4
100
AcDbLine
 10
56.20356183490518
 20
19.94685834388675
 30
0.0
 11
56.20186017205639
 21
19.84937014457056
 31
0.0
  0
ARC
  5
ED
330
2
100
AcDbEntity
  8
AGBASE
  6
HIDDEN2
 62
     4
100
AcDbCircle
 10
56.45592210878128
 20
19.9465810464658
 30
0.0
 40
0.2179741806505
100
AcDbArc
 50
181.4999999999997
 51
269.9999999999993
  0
ARC
  5
EE
330
2
100
AcDbEntity
  8
AGBASE
100
AcDbCircle
 10
56.45592210878128
 20
19.9465810464658
 30
0.0
 40
0.1861966235625
100
AcDbArc
 50
181.4999999999997
 51
269.9999999999993
  0
LINE
  5
EF
330
2
100
AcDbEntity
  8
AGBASE
  6
HIDDEN2
 62
     4
100
AcDbLine
 10
56.76363885864325
 20
19.9465810464658
 30
0.0
 11
56.78392957210697
 21
19.71465713031524
 31
0.0
  0
LINE
  5
F0
330
2
100
AcDbEntity
  8
AGBASE
  6
HIDDEN2
 62
     4
100
AcDbLine
 10
56.57843770367769
 20
19.94685834388675
 30
0.0
 11
56.57498345139807
 21
19.74896436332474
 31
0.0
  0
LINE
  5
F1
330
2
100
AcDbEntity
  8
AGBASE
  6
HIDDEN2
 62
     4
100
AcDbLine
 10
56.64844521419925
 20
19.9465810464658
 30
0.0
 11
56.62815450073555
 21
19.71465713031523
 31
0.0
  0
LINE
  5
F2
330
2
100
AcDbEntity
  8
AGBASE
  6
HIDDEN2
 62
     4
100
AcDbLine
 10
56.38876298987074
 20
19.9465810464658
 30
0.0
 11
56.40905370333446
 21
19.71465713031524
 31
0.0
  0
LINE
  5
F3
330
2
100
AcDbEntity
  8
AGBASE
  6
HIDDEN2
 62
     4
100
AcDbLine
 10
56.45877050039231
 20
19.94685834388675
 30
0.0
 11
56.4620254147905
 21
19.76038442290325
 31
0.0
  0
LINE
  5
F4
330
2
100
AcDbEntity
  8
AGBASE
  6
HIDDEN2
 62
     4
100
AcDbLine
 10
56.27356934542675
 20
19.9465810464658
 30
0.0
 11
56.25327863196305
 21
19.71465713031523
 31
0.0
  0
ARC
  5
F5
330
2
100
AcDbEntity
  8
AGBASE
  6
HIDDEN2
 62
     4
100
AcDbCircle
 10
56.45082514396666
 20
19.95154628976074
 30
0.0
 40
0.2691161865890001
100
AcDbArc
 50
181.500000000017
 51
270.0000000000006
  0
ARC
  5
F6
330
2
100
AcDbEntity
  8
AGBASE
100
AcDbCircle
 10
56.45592210878128
 20
19.9465810464658
 30
0.0
 40
0.374379344443
100
AcDbArc
 50
181.4999999999997
 51
269.9999999999993
  0
LINE
  5
F7
330
2
100
AcDbEntity
  8
AGBASE
  6
HIDDEN2
 62
     4
100
AcDbLine
 10
56.88131512473476
 20
19.74896436332474
 30
0.0
 11
56.56410981254804
 21
19.74896436332474
 31
0.0
  0
LWPOLYLINE
  5
F8
330
2
100
AcDbEntity
  8
AGBASE
  6
HIDDEN2
 62
     4
100
AcDbPolyline
 90
        5
 70
     0
 43
0.0
 10
56.8252057869761
 20
19.68243010317175
 42
-0.1247539361648445
 10
56.80647819817269
 20
19.68717665721342
 42
-0.10577528096305
 10
56.78923139878552
 20
19.70191753678933
 42
-0.08673631385841
 10
56.77837861863123
 20
19.72277537647549
 42
-0.0768338323323336
 10
56.7743303192989
 20
19.74896436332474
 42
-0.076833832332309
  0
LINE
  5
F9
330
2
100
AcDbEntity
  8
AGBASE
  6
HIDDEN2
 62
     4
100
AcDbLine
 10
56.5896691466947
 20
19.67038479488593
 30
0.0
 11
56.82241492614782
 21
19.67038479488593
 31
0.0
  0
LINE
  5
FA
330
2
100
AcDbEntity
  8
AGBASE
  6
HIDDEN2
 62
     4
100
AcDbLine
 10
56.64149387358626
 20
19.58213218861274
 30
0.0
 11
57.14596259235825
 21
19.58213218861275
 31
0.0
  0
LWPOLYLINE
  5
FB
330
2
100
AcDbEntity
  8
AGBASE
  6
HIDDEN2
 62
     4
100
AcDbPolyline
 90
        5
 70
     0
 43
0.0
 10
56.82241492614782
 20
19.59342457847838
 42
-0.3452319121624388
 10
56.81839845120577
 20
19.58830081825005
 42
-0.0349165333921306
 10
56.76165586154208
 20
19.57848411320772
 42
-0.0148359770554862
 10
56.70080486527952
 20
19.57410540799177
 42
-0.0105414485623469
 10
56.61497050373384
 20
19.57229556986445
 42
-0.0105414485623513
  0
LWPOLYLINE
  5
FC
330
2
100
AcDbEntity
  8
AGBASE
  6
HIDDEN2
 62
     4
100
AcDbPolyline
 90
        5
 70
     0
 43
0.0
 10
56.61497050373384
 20
19.65977800150317
 42
-0.0329428273554594
 10
56.70002147369629
 20
19.65416827482042
 42
-0.044492665435812
 10
56.76165586154208
 20
19.64034353385415
 42
-0.0872175599746959
 10
56.81247735594959
 20
19.613654154197
 42
-0.2323586851989778
 10
56.82241492614782
 20
19.59342457847838
 42
-0.2323586851989579
  0
LINE
  5
FD
330
2
100
AcDbEntity
  8
AGBASE
  6
HIDDEN2
 62
     4
100
AcDbLine
 10
56.78392957210697
 20
19.71465713031524
 30
0.0
 11
56.82241492614782
 21
19.67038479488593
 31
0.0
  0
LINE
  5
FE
330
2
100
AcDbEntity
  8
AGBASE
  6
HIDDEN2
 62
     4
100
AcDbLine
 10
56.78392957210697
 20
19.71465713031524
 30
0.0
 11
56.62815450073555
 21
19.71465713031525
 31
0.0
  0
LINE
  5
FF
330
2
100
AcDbEntity
  8
AGBASE
  6
HIDDEN2
 62
     4
100
AcDbLine
 10
56.60603149104507
 20
19.68243010317174
 30
0.0
 11
56.60661329801865
 21
19.74896436332474
 31
0.0
  0
LWPOLYLINE
  5
100
330
2
100
AcDbEntity
  8
AGBASE
  6
HIDDEN2
 62
     4
100
AcDbPolyline
 90
        5
 70
     0
 43
0.0
 10
56.60603149104507
 20
19.68243010317174
 42
-0.1464234500014364
 10
56.59112828886589
 20
19.68689008087921
 42
-0.1071557459517239
 10
56.5763883879011
 20
19.70191753678933
 42
-0.0768884593965219
 10
56.5675204805761
 20
19.72238986277296
 42
-0.0639097113845223
 10
56.56410981254804
 20
19.74896436332474
 42
-0.0639097113845221
  0
LINE
  5
101
330
2
100
AcDbEntity
  8
AGBASE
  6
HIDDEN2
 62
     4
100
AcDbLine
 10
56.50760061579318
 20
19.68243010317174
 30
0.0
 11
56.50643925596226
 21
19.74896436332474
 31
0.0
  0
LINE
  5
102
330
2
100
AcDbEntity
  8
AGBASE
  6
HIDDEN2
 62
     4
100
AcDbLine
 10
56.46252193912001
 20
19.76038442290325
 30
0.0
 11
56.46272127700143
 21
19.74896436332474
 31
0.0
  0
LINE
  5
103
330
2
100
AcDbEntity
  8
AGBASE
  6
HIDDEN2
 62
     4
100
AcDbLine
 10
56.50643925596226
 20
19.74896436332474
 30
0.0
 11
56.27366960505894
 21
19.74896436332474
 31
0.0
  0
LINE
  5
104
330
2
100
AcDbEntity
  8
AGBASE
  6
HIDDEN2
 62
     4
100
AcDbLine
 10
56.40905370333446
 20
19.71465713031524
 30
0.0
 11
56.25327863196305
 21
19.71465713031525
 31
0.0
  0
LINE
  5
105
330
2
100
AcDbEntity
  8
AGBASE
  6
HIDDEN2
 62
     4
100
AcDbLine
 10
56.21479327792219
 20
19.67038479488593
 30
0.0
 11
56.21479327792221
 21
19.66019532672035
 31
0.0
  0
LINE
  5
106
330
2
100
AcDbEntity
  8
AGBASE
  6
HIDDEN2
 62
     4
100
AcDbLine
 10
56.21479327792219
 20
19.67038479488593
 30
0.0
 11
56.44753905737532
 21
19.67038479488593
 31
0.0
  0
LWPOLYLINE
  5
107
330
2
100
AcDbEntity
  8
AGBASE
  6
HIDDEN2
 62
     4
100
AcDbPolyline
 90
        5
 70
     0
 43
0.0
 10
56.61497050373384
 20
19.57229556986445
 42
-0.0834489101907217
 10
56.60509238766626
 20
19.573955767055
 42
-0.0909375244439461
 10
56.59707974259832
 20
19.57848411320772
 42
-0.104015384849503
 10
56.5915177618897
 20
19.58553733183943
 42
-0.1156234577888491
 10
56.58966914669482
 20
19.59342457847838
 42
-0.115623457789001
  0
LINE
  5
108
330
2
100
AcDbEntity
  8
AGBASE
  6
HIDDEN2
 62
     4
100
AcDbLine
 10
56.64149387358626
 20
19.58213218861274
 30
0.0
 11
56.64149387358626
 21
19.57220170202274
 31
0.0
  0
LINE
  5
109
330
2
100
AcDbEntity
  8
AGBASE
  6
HIDDEN2
 62
     4
100
AcDbLine
 10
56.5896691466947
 20
19.67038479488593
 30
0.0
 11
56.58966914669482
 21
19.59342457847838
 31
0.0
  0
LWPOLYLINE
  5
10A
330
2
100
AcDbEntity
  8
AGBASE
  6
HIDDEN2
 62
     4
100
AcDbPolyline
 90
        5
 70
     0
 43
0.0
 10
56.58966914669482
 20
19.59342457847838
 42
-0.0391826667817772
 10
56.5917955499701
 20
19.62051740832263
 42
-0.0519572878511154
 10
56.59707974259832
 20
19.64034353385415
 42
-0.095228929039175
 10
56.60692238353512
 20
19.65624777847575
 42
-0.2096774173634101
 10
56.61497050373384
 20
19.65977800150317
 42
-0.2096774173633679
  0
LINE
  5
10B
330
2
100
AcDbEntity
  8
AGBASE
  6
HIDDEN2
 62
     4
100
AcDbLine
 10
56.44753905737532
 20
19.67038479488593
 30
0.0
 11
56.44753905737531
 21
19.57229556986445
 31
0.0
  0
LINE
  5
10C
330
2
100
AcDbEntity
  8
AGBASE
  6
HIDDEN2
 62
     4
100
AcDbLine
 10
56.40905370333446
 20
19.71465713031524
 30
0.0
 11
56.44753905737532
 21
19.67038479488593
 31
0.0
  0
LINE
  5
10D
330
2
100
AcDbEntity
  8
AGBASE
  6
HIDDEN2
 62
     4
100
AcDbLine
 10
56.62815450073555
 20
19.71465713031525
 30
0.0
 11
56.5896691466947
 21
19.67038479488593
 31
0.0
  0
LINE
  5
10E
330
2
100
AcDbEntity
  8
AGBASE
  6
HIDDEN2
 62
     4
100
AcDbLine
 10
56.25327863196305
 20
19.71465713031525
 30
0.0
 11
56.21479327792219
 21
19.67038479488593
 31
0.0
  0
LINE
  5
10F
330
2
100
AcDbEntity
  8
AGBASE
  6
HIDDEN2
 62
     4
100
AcDbLine
 10
56.8252057869761
 20
19.68243010317175
 30
0.0
 11
56.82432799580872
 21
19.74896436332474
 31
0.0
  0
LINE
  5
110
330
2
100
AcDbEntity
  8
AGBASE
  6
HIDDEN2
 62
     4
100
AcDbLine
 10
56.88247648456568
 20
19.68243010317174
 30
0.0
 11
56.88131512473476
 21
19.74896436332474
 31
0.0
  0
LINE
  5
111
330
2
100
AcDbEntity
  8
AGBASE
  6
HIDDEN2
 62
     4
100
AcDbLine
 10
57.14596259235825
 20
19.58213218861275
 30
0.0
 11
57.14596259235825
 21
19.57220170202275
 31
0.0
  0
LINE
  5
112
330
2
100
AcDbEntity
  8
AGBASE
  6
HIDDEN2
 62
     4
100
AcDbLine
 10
56.82241492614782
 20
19.67038479488593
 30
0.0
 11
56.82241492614782
 21
19.59342457847838
 31
0.0
  0
LINE
  5
113
330
2
100
AcDbEntity
  8
AGBASE
  6
HIDDEN2
 62
     4
100
AcDbLine
 10
57.81627043718325
 20
19.58213218861278
 30
0.0
 11
57.81627043718325
 21
19.57220170202278
 31
0.0
  0
ARC
  5
114
330
2
100
AcDbEntity
  8
AGCASE
  6
Continuous
100
AcDbCircle
 10
56.53403130507003
 20
20.85882037137179
 30
0.0
 40
0.4741807346725001
100
AcDbArc
 50
269.9999999999992
 51
329.9999999999986
  0
ARC
  5
115
330
2
100
AcDbEntity
  8
AGCASE
  6
HIDDEN2
 62
     4
100
AcDbCircle
 10
56.53403130507003
 20
20.85882037137179
 30
0.0
 40
0.4424031775845
100
AcDbArc
 50
269.9999999999992
 51
329.9999999999986
  0
ARC
  5
116
330
2
100
AcDbEntity
  8
AGCASE
  6
HIDDEN2
 62
     4
100
AcDbCircle
 10
56.53403130507003
 20
20.85882037137179
 30
0.0
 40
0.386295928351
100
AcDbArc
 50
269.9999999999992
 51
329.9999999999986
  0
ARC
  5
117
330
2
100
AcDbEntity
  8
AGCASE
  6
Continuous
100
AcDbCircle
 10
56.53403130507003
 20
20.85882037137179
 30
0.0
 40
0.2859980137920001
100
AcDbArc
 50
269.9999999999992
 51
329.9999999999986
  0
ARC
  5
118
330
2
100
AcDbEntity
  8
AGCASE
  6
Continuous
100
AcDbCircle
 10
56.37559769280077
 20
20.28682434378779
 30
0.0
 40
0.2859980137920001
100
AcDbArc
 50
89.99999999999934
 51
178.4999999999995
  0
LINE
  5
119
330
2
100
AcDbEntity
  8
AGCASE
  6
HIDDEN2
 62
     4
100
AcDbLine
 10
56.53403130507003
 20
20.57282235757979
 30
0.0
 11
57.17613654231768
 21
20.57282235757979
 31
0.0
  0
LWPOLYLINE
  5
11A
330
2
100
AcDbEntity
  8
AGCASE
  6
HIDDEN2
 62
     4
100
AcDbPolyline
 90
        4
 70
     0
 43
0.0
 10
56.60450617286966
 20
20.38990602722873
 10
56.61219893814575
 20
19.9491877997278
 10
56.79988513469675
 20
19.9491877997278
 10
56.80902000978474
 20
20.47252444302079
  0
LINE
  5
11B
330
2
100
AcDbEntity
  8
AGCASE
  6
HIDDEN2
 62
     4
100
AcDbLine
 10
56.80038781283251
 20
19.97798621083879
 30
0.0
 11
56.61169626000997
 21
19.97798621083879
 31
0.0
  0
LINE
  5
11C
330
2
100
AcDbEntity
  8
AGCASE
  6
HIDDEN2
 62
     4
100
AcDbLine
 10
57.17613654231768
 20
20.47252444302078
 30
0.0
 11
56.37559769280077
 21
20.4725244430208
 31
0.0
  0
LINE
  5
11D
330
2
100
AcDbEntity
  8
AGBASE
  6
HIDDEN2
 62
     4
100
AcDbLine
 10
56.61021284082774
 20
19.9465810464658
 30
0.0
 11
56.80187123201474
 21
19.9465810464658
 31
0.0
  0
LINE
  5
11E
330
2
100
AcDbEntity
  8
AGBASE
  6
HIDDEN2
 62
     4
100
AcDbLine
 10
56.59432406228376
 20
19.96246982500981
 30
0.0
 11
56.81776001055876
 21
19.96246982500981
 31
0.0
  0
LINE
  5
11F
330
2
100
AcDbEntity
  8
AGCASE
  6
Continuous
100
AcDbLine
 10
56.53403130507003
 20
20.57282235757979
 30
0.0
 11
56.37559769280077
 21
20.5728223575798
 31
0.0
  0
LWPOLYLINE
  5
120
330
2
100
AcDbEntity
  8
AGCASE
  6
HIDDEN2
 62
     4
100
AcDbPolyline
 90
        4
 70
     0
 43
0.0
 10
56.75122575040575
 20
19.9491877997278
 10
56.74472560209835
 20
20.3215810468528
 10
56.66735847074415
 20
20.3215810468528
 10
56.66085832243675
 20
19.9491877997278
  0
LINE
  5
121
330
2
100
AcDbEntity
  8
AGCASE
  6
HIDDEN2
 62
     4
100
AcDbLine
 10
56.61169626000997
 20
19.97798621083879
 30
0.0
 11
56.42551194406002
 21
19.9779862108388
 31
0.0
  0
LINE
  5
122
330
2
100
AcDbEntity
  8
AGCASE
  6
HIDDEN2
 62
     4
100
AcDbLine
 10
56.43261010601168
 20
20.38463963669929
 30
0.0
 11
56.43414414101224
 21
20.4725244430208
 31
0.0
  0
LINE
  5
123
330
2
100
AcDbEntity
  8
AGCASE
  6
HIDDEN2
 62
     4
100
AcDbLine
 10
56.60450617286968
 20
20.38990602722867
 30
0.0
 11
56.60306406305775
 21
20.47252444302079
 31
0.0
  0
LWPOLYLINE
  5
124
330
2
100
AcDbEntity
  8
AGCASE
  6
HIDDEN2
 62
     4
100
AcDbPolyline
 90
        4
 70
     0
 43
0.0
 10
56.37634988163324
 20
19.9491877997278
 10
56.36984973332585
 20
20.3215810468528
 10
56.29248260197164
 20
20.3215810468528
 10
56.28598245366425
 20
19.9491877997278
  0
LINE
  5
125
330
2
100
AcDbEntity
  8
AGCASE
  6
HIDDEN2
 62
     4
100
AcDbLine
 10
56.23732306937324
 20
19.9491877997278
 30
0.0
 11
56.23682039123747
 21
19.9779862108388
 31
0.0
  0
LINE
  5
126
330
2
100
AcDbEntity
  8
AGCASE
  6
HIDDEN2
 62
     4
100
AcDbLine
 10
56.2386793289417
 20
20.00877071926779
 30
0.0
 11
56.2460492510343
 21
20.29021668912331
 31
0.0
  0
LINE
  5
127
330
2
100
AcDbEntity
  8
AGCASE
  6
Continuous
100
AcDbLine
 10
56.26966165841437
 20
19.9779862108388
 30
0.0
 11
56.27781591874715
 21
20.28938484965406
 31
0.0
  0
LINE
  5
128
330
2
100
AcDbEntity
  8
AGCASE
  6
HIDDEN2
 62
     4
100
AcDbLine
 10
56.23682039123747
 20
19.9779862108388
 30
0.0
 11
56.22943028292823
 21
20.40136523232243
 31
0.0
  0
LINE
  5
129
330
2
100
AcDbEntity
  8
AGCASE
  6
HIDDEN2
 62
     4
100
AcDbLine
 10
56.13007381420124
 20
19.9779862108388
 30
0.0
 11
56.13007381420124
 21
20.0087707192678
 31
0.0
  0
LINE
  5
12A
330
2
100
AcDbEntity
  8
AGCASE
  6
Continuous
100
AcDbLine
 10
56.08141442991025
 20
19.9779862108388
 30
0.0
 11
56.08969768338512
 21
20.29431089901099
 31
0.0
  0
LINE
  5
12B
330
2
100
AcDbEntity
  8
AGCASE
  6
HIDDEN2
 62
     4
100
AcDbLine
 10
56.18255284656448
 20
20.0087707192678
 30
0.0
 11
56.18996122835381
 21
20.29168540568619
 31
0.0
  0
LINE
  5
12C
330
2
100
AcDbEntity
  8
AGCASE
  6
HIDDEN2
 62
     4
100
AcDbLine
 10
56.13007381420124
 20
20.0087707192678
 30
0.0
 11
56.2386793289417
 21
20.0087707192678
 31
0.0
  0
LINE
  5
12D
330
2
100
AcDbEntity
  8
AGCASE
  6
HIDDEN2
 62
     4
100
AcDbLine
 10
56.23682039123747
 20
19.9779862108388
 30
0.0
 11
56.08141442991025
 21
19.9779862108388
 31
0.0
  0
ARC
  5
12E
330
2
100
AcDbEntity
  8
AGCASE
  6
HIDDEN2
 62
     4
100
AcDbCircle
 10
56.37559769280077
 20
20.28682434378779
 30
0.0
 40
0.1295928499995
100
AcDbArc
 50
89.99999999999934
 51
178.4999999999995
  0
ARC
  5
12F
330
2
100
AcDbEntity
  8
AGCASE
  6
Continuous
100
AcDbCircle
 10
56.37559769280077
 20
20.28682434378779
 30
0.0
 40
0.0978152929115
100
AcDbArc
 50
89.99999999999934
 51
178.4999999999995
  0
ARC
  5
130
330
2
100
AcDbEntity
  8
AGCASE
  6
HIDDEN2
 62
     4
100
AcDbCircle
 10
56.37559769280077
 20
20.28682434378779
 30
0.0
 40
0.185700099233
100
AcDbArc
 50
89.99999999999934
 51
178.4999999999995
  0
LWPOLYLINE
  5
131
330
2
100
AcDbEntity
  8
AGCASE
  6
HIDDEN2
 62
     4
100
AcDbPolyline
 90
        3
 70
     0
 43
0.0
 10
56.23732306937324
 20
19.9491877997278
 10
56.42500926592425
 20
19.9491877997278
 10
56.43261010601169
 20
20.3846396366993
  0
LINE
  5
132
330
2
100
AcDbEntity
  8
AGCASE
  6
HIDDEN2
 62
     4
100
AcDbLine
 10
56.53403130507003
 20
20.41641719378729
 30
0.0
 11
56.37559769280077
 21
20.4164171937873
 31
0.0
  0
LINE
  5
133
330
2
100
AcDbEntity
  8
AGCASE
  6
Continuous
100
AcDbLine
 10
56.53403130507003
 20
20.38463963669929
 30
0.0
 11
56.37559769280077
 21
20.3846396366993
 31
0.0
  0
LINE
  5
134
330
2
100
AcDbEntity
  8
AGCASE
  6
HIDDEN2
 62
     4
100
AcDbLine
 10
56.42551194406002
 20
19.9779862108388
 30
0.0
 11
56.23682039123747
 21
19.9779862108388
 31
0.0
  0
ARC
  5
135
330
2
100
AcDbEntity
  8
AGBASE
  6
HIDDEN2
 62
     4
100
AcDbCircle
 10
56.59432406228376
 20
19.9465810464658
 30
0.0
 40
0.015888778544
100
AcDbArc
 50
0.0000000000008142
 51
180.0000000000007
  0
ARC
  5
136
330
2
100
AcDbEntity
  8
AGBASE
  6
HIDDEN2
 62
     4
100
AcDbCircle
 10
56.44288414178626
 20
19.9465810464658
 30
0.0
 40
0.015888778544
100
AcDbArc
 50
0.0
 51
180.0
  0
ARC
  5
137
330
2
100
AcDbEntity
  8
AGBASE
  6
HIDDEN2
 62
     4
100
AcDbCircle
 10
56.21944819351126
 20
19.9465810464658
 30
0.0
 40
0.015888778544
100
AcDbArc
 50
0.0000000000008142
 51
180.0000000000007
  0
LINE
  5
138
330
2
100
AcDbEntity
  8
AGBASE
  6
HIDDEN2
 62
     4
100
AcDbLine
 10
56.26966165841439
 20
19.9465810464658
 30
0.0
 11
56.08141442991025
 21
19.9465810464658
 31
0.0
  0
LINE
  5
139
330
2
100
AcDbEntity
  8
AGBASE
  6
HIDDEN2
 62
     4
100
AcDbLine
 10
56.18013448439466
 20
20.0081500633238
 30
0.0
 11
56.18180117677347
 21
19.94450164925551
 31
0.0
  0
LINE
  5
13A
330
2
100
AcDbEntity
  8
AGBASE
100
AcDbLine
 10
56.08141442991025
 20
19.9465810464658
 30
0.0
 11
56.08167105478927
 21
19.93678093771878
 31
0.0
  0
LINE
  5
13B
330
2
100
AcDbEntity
  8
AGBASE
  6
HIDDEN2
 62
     4
100
AcDbLine
 10
56.26804941696785
 20
20.0081500633238
 30
0.0
 11
56.2697892901513
 21
19.94170698707575
 31
0.0
  0
LINE
  5
13C
330
2
100
AcDbEntity
  8
AGBASE
  6
HIDDEN2
 62
     4
100
AcDbLine
 10
56.2362609667719
 20
20.0081500633238
 30
0.0
 11
56.23802262243845
 21
19.9408751476065
 31
0.0
  0
LINE
  5
13D
330
2
100
AcDbEntity
  8
AGBASE
  6
HIDDEN2
 62
     4
100
AcDbLine
 10
56.13205991151925
 20
20.0081500633238
 30
0.0
 11
56.13205991151925
 21
19.9465810464658
 31
0.0
  0
LINE
  5
13E
330
2
100
AcDbEntity
  8
AGBASE
  6
HIDDEN2
 62
     4
100
AcDbLine
 10
56.21944819351126
 20
19.96246982500981
 30
0.0
 11
56.44288414178626
 21
19.96246982500981
 31
0.0
  0
LINE
  5
13F
330
2
100
AcDbEntity
  8
AGBASE
  6
HIDDEN2
 62
     4
100
AcDbLine
 10
56.23533697205525
 20
19.9465810464658
 30
0.0
 11
56.42699536324225
 21
19.9465810464658
 31
0.0
  0
LINE
  5
140
330
2
100
AcDbEntity
  8
AGBASE
  6
HIDDEN2
 62
     4
100
AcDbLine
 10
56.86219893795225
 20
19.93267836523976
 30
0.0
 11
57.04988513450325
 21
19.93267836523976
 31
0.0
  0
ARC
  5
141
330
2
100
AcDbEntity
  8
AGBASE
  6
HIDDEN2
 62
     4
100
AcDbCircle
 10
56.81776001055876
 20
19.9465810464658
 30
0.0
 40
0.015888778544
100
AcDbArc
 50
0.0
 51
180.0
  0
LINE
  5
142
330
2
100
AcDbEntity
  8
AGCASE
  6
Continuous
100
AcDbLine
 10
56.83273983548848
 20
20.80420269512678
 30
0.0
 11
56.7817128504458
 21
20.71582136447579
 31
0.0
  0
LINE
  5
143
330
2
100
AcDbEntity
  8
AGCASE
  6
HIDDEN2
 62
     4
100
AcDbLine
 10
57.22143429044225
 20
20.94720170202279
 30
0.0
 11
57.22143429044225
 21
20.93727121543279
 31
0.0
  0
ARC
  5
144
330
2
100
AcDbEntity
  8
AGCASE
  6
HIDDEN2
 62
     4
100
AcDbCircle
 10
57.08042138086423
 20
20.66120368823077
 30
0.0
 40
0.185700099233
100
AcDbArc
 50
89.99999999999939
 51
149.9999999999976
  0
ARC
  5
145
330
2
100
AcDbEntity
  8
AGCASE
  6
Continuous
100
AcDbCircle
 10
57.08042138086423
 20
20.66120368823077
 30
0.0
 40
0.2859980137920001
100
AcDbArc
 50
89.99999999999939
 51
149.9999999999976
  0
LINE
  5
146
330
2
100
AcDbEntity
  8
AGCASE
  6
Continuous
100
AcDbLine
 10
56.99571085232427
 20
20.71011133468652
 30
0.0
 11
56.94468386728158
 21
20.62173000403554
 31
0.0
  0
LINE
  5
147
330
2
100
AcDbEntity
  8
AGCASE
  6
HIDDEN2
 62
     4
100
AcDbLine
 10
56.96819068061586
 20
20.72600011323053
 30
0.0
 11
56.91716369557316
 21
20.63761878257953
 31
0.0
  0
ARC
  5
148
330
2
100
AcDbEntity
  8
AGCASE
  6
HIDDEN2
 62
     4
100
AcDbCircle
 10
57.08042138086423
 20
20.66120368823077
 30
0.0
 40
0.1295928499995
100
AcDbArc
 50
89.99999999999939
 51
149.9999999999976
  0
ARC
  5
149
330
2
100
AcDbEntity
  8
AGCASE
  6
Continuous
100
AcDbCircle
 10
57.08042138086423
 20
20.66120368823077
 30
0.0
 40
0.0978152929115001
100
AcDbArc
 50
89.99999999999939
 51
149.9999999999976
  0
LINE
  5
14A
330
2
100
AcDbEntity
  8
AGCASE
  6
HIDDEN2
 62
     4
100
AcDbLine
 10
56.91960037744317
 20
20.75405373784728
 30
0.0
 11
56.86857339240049
 21
20.66567240719629
 31
0.0
  0
LINE
  5
14B
330
2
100
AcDbEntity
  8
AGBASE
  6
HIDDEN2
 62
     4
100
AcDbLine
 10
61.45877049845731
 20
19.94685834388675
 30
0.0
 11
61.46047216130611
 21
19.84937014457056
 31
0.0
  0
ARC
  5
14C
330
2
100
AcDbEntity
  8
AGBASE
  6
HIDDEN2
 62
     4
100
AcDbCircle
 10
61.20641022458123
 20
19.9465810464658
 30
0.0
 40
0.2179741806505
100
AcDbArc
 50
270.0000000000006
 51
358.5000000000001
  0
ARC
  5
14D
330
2
100
AcDbEntity
  8
AGBASE
100
AcDbCircle
 10
61.20641022458123
 20
19.9465810464658
 30
0.0
 40
0.1861966235625
100
AcDbArc
 50
270.0000000000006
 51
358.5000000000001
  0
LINE
  5
14E
330
2
100
AcDbEntity
  8
AGBASE
  6
HIDDEN2
 62
     4
100
AcDbLine
 10
61.20356183297019
 20
19.94685834388675
 30
0.0
 11
61.200306918572
 21
19.76038442290325
 31
0.0
  0
LINE
  5
14F
330
2
100
AcDbEntity
  8
AGBASE
  6
HIDDEN2
 62
     4
100
AcDbLine
 10
61.01388711916325
 20
19.9465810464658
 30
0.0
 11
61.03417783262695
 21
19.71465713031523
 31
0.0
  0
LINE
  5
150
330
2
100
AcDbEntity
  8
AGBASE
  6
HIDDEN2
 62
     4
100
AcDbLine
 10
61.08389462968482
 20
19.94685834388675
 30
0.0
 11
61.08734888196443
 21
19.74896436332474
 31
0.0
  0
LINE
  5
151
330
2
100
AcDbEntity
  8
AGBASE
  6
HIDDEN2
 62
     4
100
AcDbLine
 10
61.38876298793576
 20
19.9465810464658
 30
0.0
 11
61.40905370139946
 21
19.71465713031523
 31
0.0
  0
LINE
  5
152
330
2
100
AcDbEntity
  8
AGBASE
  6
HIDDEN2
 62
     4
100
AcDbLine
 10
61.27356934349176
 20
19.9465810464658
 30
0.0
 11
61.25327863002804
 21
19.71465713031524
 31
0.0
  0
LINE
  5
153
330
2
100
AcDbEntity
  8
AGBASE
  6
HIDDEN2
 62
     4
100
AcDbLine
 10
60.66110658315025
 20
19.93267836523976
 30
0.0
 11
60.6632904666482
 21
19.68243010317174
 31
0.0
  0
LINE
  5
154
330
2
100
AcDbEntity
  8
AGBASE
  6
HIDDEN2
 62
     4
100
AcDbLine
 10
60.75147401111926
 20
19.93267836523976
 30
0.0
 11
60.74929012762133
 21
19.68243010317174
 31
0.0
  0
LINE
  5
155
330
2
100
AcDbEntity
  8
AGBASE
  6
HIDDEN2
 62
     4
100
AcDbLine
 10
60.80013339541025
 20
19.93267836523976
 30
0.0
 11
60.80450149507282
 21
19.68243010317176
 31
0.0
  0
LINE
  5
156
330
2
100
AcDbEntity
  8
AGBASE
  6
HIDDEN2
 62
     4
100
AcDbLine
 10
60.61244719885926
 20
19.93267836523976
 30
0.0
 11
60.60807909919669
 21
19.68243010317176
 31
0.0
  0
LINE
  5
157
330
2
100
AcDbEntity
  8
AGBASE
  6
HIDDEN2
 62
     4
100
AcDbLine
 10
60.82868596419769
 20
19.94685834388675
 30
0.0
 11
60.82543104979951
 21
19.76038442290325
 31
0.0
  0
LINE
  5
158
330
2
100
AcDbEntity
  8
AGBASE
  6
HIDDEN2
 62
     4
100
AcDbLine
 10
60.89869347471925
 20
19.9465810464658
 30
0.0
 11
60.87840276125554
 21
19.71465713031524
 31
0.0
  0
ARC
  5
159
330
2
100
AcDbEntity
  8
AGBASE
100
AcDbCircle
 10
61.20641022458123
 20
19.9465810464658
 30
0.0
 40
0.374379344443
100
AcDbArc
 50
270.0000000000006
 51
358.5000000000001
  0
ARC
  5
15A
330
2
100
AcDbEntity
  8
AGBASE
  6
HIDDEN2
 62
     4
100
AcDbCircle
 10
61.21150718939585
 20
19.95154628976074
 30
0.0
 40
0.2691161865890001
100
AcDbArc
 50
269.9999999999993
 51
358.4999999999829
  0
LINE
  5
15B
330
2
100
AcDbEntity
  8
AGBASE
  6
HIDDEN2
 62
     4
100
AcDbLine
 10
60.78101720862775
 20
19.74896436332474
 30
0.0
 11
61.09822252081446
 21
19.74896436332474
 31
0.0
  0
LINE
  5
15C
330
2
100
AcDbEntity
  8
AGBASE
  6
HIDDEN2
 62
     4
100
AcDbLine
 10
60.87840276125554
 20
19.71465713031524
 30
0.0
 11
61.03417783262695
 21
19.71465713031525
 31
0.0
  0
LINE
  5
15D
330
2
100
AcDbEntity
  8
AGBASE
  6
HIDDEN2
 62
     4
100
AcDbLine
 10
61.07266318666781
 20
19.67038479488593
 30
0.0
 11
60.83991740721469
 21
19.67038479488593
 31
0.0
  0
LWPOLYLINE
  5
15E
330
2
100
AcDbEntity
  8
AGBASE
  6
HIDDEN2
 62
     4
100
AcDbPolyline
 90
        5
 70
     0
 43
0.0
 10
60.83991740721469
 20
19.59342457847838
 42
0.3452319121624388
 10
60.84393388215675
 20
19.58830081825005
 42
0.0349165333921306
 10
60.90067647182042
 20
19.57848411320772
 42
0.0148359770554862
 10
60.96152746808298
 20
19.57410540799177
 42
0.0105414485623469
 10
61.04736182962867
 20
19.57229556986445
 42
0.0105414485623513
  0
LINE
  5
15F
330
2
100
AcDbEntity
  8
AGBASE
  6
HIDDEN2
 62
     4
100
AcDbLine
 10
61.02083845977625
 20
19.58213218861274
 30
0.0
 11
60.51636974100425
 21
19.58213218861275
 31
0.0
  0
LWPOLYLINE
  5
160
330
2
100
AcDbEntity
  8
AGBASE
  6
HIDDEN2
 62
     4
100
AcDbPolyline
 90
        5
 70
     0
 43
0.0
 10
61.04736182962867
 20
19.65977800150317
 42
0.0329428273554594
 10
60.96231085966621
 20
19.65416827482042
 42
0.044492665435812
 10
60.90067647182042
 20
19.64034353385415
 42
0.0872175599746959
 10
60.84985497741292
 20
19.613654154197
 42
0.2323586851989778
 10
60.83991740721469
 20
19.59342457847838
 42
0.2323586851989579
  0
LINE
  5
161
330
2
100
AcDbEntity
  8
AGBASE
  6
HIDDEN2
 62
     4
100
AcDbLine
 10
59.84606189617925
 20
19.58213218861276
 30
0.0
 11
59.84606189617925
 21
19.57220170202276
 31
0.0
  0
LINE
  5
162
330
2
100
AcDbEntity
  8
AGBASE
  6
HIDDEN2
 62
     4
100
AcDbLine
 10
60.77985584879683
 20
19.68243010317174
 30
0.0
 11
60.78101720862775
 21
19.74896436332474
 31
0.0
  0
LWPOLYLINE
  5
163
330
2
100
AcDbEntity
  8
AGBASE
  6
HIDDEN2
 62
     4
100
AcDbPolyline
 90
        5
 70
     0
 43
0.0
 10
60.8371265463864
 20
19.68243010317175
 42
0.1247539361648445
 10
60.85585413518981
 20
19.68717665721342
 42
0.10577528096305
 10
60.87310093457698
 20
19.70191753678933
 42
0.08673631385841
 10
60.88395371473128
 20
19.72277537647549
 42
0.0768338323323336
 10
60.8880020140636
 20
19.74896436332474
 42
0.076833832332309
  0
LINE
  5
164
330
2
100
AcDbEntity
  8
AGBASE
  6
HIDDEN2
 62
     4
100
AcDbLine
 10
60.8371265463864
 20
19.68243010317175
 30
0.0
 11
60.83800433755378
 21
19.74896436332474
 31
0.0
  0
LINE
  5
165
330
2
100
AcDbEntity
  8
AGBASE
  6
HIDDEN2
 62
     4
100
AcDbLine
 10
60.51636974100425
 20
19.58213218861275
 30
0.0
 11
60.51636974100425
 21
19.57220170202275
 31
0.0
  0
LINE
  5
166
330
2
100
AcDbEntity
  8
AGBASE
  6
HIDDEN2
 62
     4
100
AcDbLine
 10
60.83991740721469
 20
19.67038479488593
 30
0.0
 11
60.83991740721469
 21
19.59342457847838
 31
0.0
  0
LINE
  5
167
330
2
100
AcDbEntity
  8
AGBASE
  6
HIDDEN2
 62
     4
100
AcDbLine
 10
60.87840276125554
 20
19.71465713031524
 30
0.0
 11
60.83991740721469
 21
19.67038479488593
 31
0.0
  0
LINE
  5
168
330
2
100
AcDbEntity
  8
AGBASE
  6
HIDDEN2
 62
     4
100
AcDbLine
 10
61.15473171756932
 20
19.68243010317174
 30
0.0
 11
61.15589307740024
 21
19.74896436332474
 31
0.0
  0
LINE
  5
169
330
2
100
AcDbEntity
  8
AGBASE
  6
HIDDEN2
 62
     4
100
AcDbLine
 10
61.19981039424249
 20
19.76038442290325
 30
0.0
 11
61.19961105636107
 21
19.74896436332474
 31
0.0
  0
LWPOLYLINE
  5
16A
330
2
100
AcDbEntity
  8
AGBASE
  6
HIDDEN2
 62
     4
100
AcDbPolyline
 90
        5
 70
     0
 43
0.0
 10
61.05630084231743
 20
19.68243010317174
 42
0.1464234500014364
 10
61.07120404449662
 20
19.68689008087921
 42
0.1071557459517239
 10
61.08594394546141
 20
19.70191753678933
 42
0.0768884593965219
 10
61.09481185278641
 20
19.72238986277296
 42
0.0639097113845223
 10
61.09822252081446
 20
19.74896436332474
 42
0.0639097113845221
  0
LINE
  5
16B
330
2
100
AcDbEntity
  8
AGBASE
  6
HIDDEN2
 62
     4
100
AcDbLine
 10
61.05630084231743
 20
19.68243010317174
 30
0.0
 11
61.05571903534385
 21
19.74896436332474
 31
0.0
  0
LINE
  5
16C
330
2
100
AcDbEntity
  8
AGBASE
  6
HIDDEN2
 62
     4
100
AcDbLine
 10
61.15589307740024
 20
19.74896436332474
 30
0.0
 11
61.38866272830356
 21
19.74896436332474
 31
0.0
  0
LINE
  5
16D
330
2
100
AcDbEntity
  8
AGBASE
  6
HIDDEN2
 62
     4
100
AcDbLine
 10
61.25327863002804
 20
19.71465713031524
 30
0.0
 11
61.40905370139946
 21
19.71465713031525
 31
0.0
  0
LINE
  5
16E
330
2
100
AcDbEntity
  8
AGBASE
  6
HIDDEN2
 62
     4
100
AcDbLine
 10
61.44753905544031
 20
19.67038479488593
 30
0.0
 11
61.44753905544029
 21
19.66019532672035
 31
0.0
  0
LINE
  5
16F
330
2
100
AcDbEntity
  8
AGBASE
  6
HIDDEN2
 62
     4
100
AcDbLine
 10
61.44753905544031
 20
19.67038479488593
 30
0.0
 11
61.21479327598718
 21
19.67038479488593
 31
0.0
  0
LINE
  5
170
330
2
100
AcDbEntity
  8
AGBASE
  6
HIDDEN2
 62
     4
100
AcDbLine
 10
61.02083845977625
 20
19.58213218861274
 30
0.0
 11
61.02083845977625
 21
19.57220170202274
 31
0.0
  0
LWPOLYLINE
  5
171
330
2
100
AcDbEntity
  8
AGBASE
  6
HIDDEN2
 62
     4
100
AcDbPolyline
 90
        5
 70
     0
 43
0.0
 10
61.04736182962867
 20
19.57229556986445
 42
0.0834489101907217
 10
61.05723994569625
 20
19.573955767055
 42
0.0909375244439461
 10
61.06525259076418
 20
19.57848411320772
 42
0.104015384849503
 10
61.0708145714728
 20
19.58553733183943
 42
0.1156234577888491
 10
61.07266318666768
 20
19.59342457847838
 42
0.115623457789001
  0
LINE
  5
172
330
2
100
AcDbEntity
  8
AGBASE
  6
HIDDEN2
 62
     4
100
AcDbLine
 10
61.21479327598718
 20
19.67038479488593
 30
0.0
 11
61.21479327598719
 21
19.57229556986445
 31
0.0
  0
LINE
  5
173
330
2
100
AcDbEntity
  8
AGBASE
  6
HIDDEN2
 62
     4
100
AcDbLine
 10
61.07266318666781
 20
19.67038479488593
 30
0.0
 11
61.07266318666768
 21
19.59342457847838
 31
0.0
  0
LWPOLYLINE
  5
174
330
2
100
AcDbEntity
  8
AGBASE
  6
HIDDEN2
 62
     4
100
AcDbPolyline
 90
        5
 70
     0
 43
0.0
 10
61.07266318666768
 20
19.59342457847838
 42
0.0391826667817772
 10
61.07053678339241
 20
19.62051740832263
 42
0.0519572878511154
 10
61.06525259076418
 20
19.64034353385415
 42
0.095228929039175
 10
61.05540994982738
 20
19.65624777847575
 42
0.2096774173634101
 10
61.04736182962867
 20
19.65977800150317
 42
0.2096774173633679
  0
LINE
  5
175
330
2
100
AcDbEntity
  8
AGBASE
  6
HIDDEN2
 62
     4
100
AcDbLine
 10
61.40905370139946
 20
19.71465713031525
 30
0.0
 11
61.44753905544031
 21
19.67038479488593
 31
0.0
  0
LINE
  5
176
330
2
100
AcDbEntity
  8
AGBASE
  6
HIDDEN2
 62
     4
100
AcDbLine
 10
61.25327863002804
 20
19.71465713031524
 30
0.0
 11
61.21479327598718
 21
19.67038479488593
 31
0.0
  0
LINE
  5
177
330
2
100
AcDbEntity
  8
AGBASE
  6
HIDDEN2
 62
     4
100
AcDbLine
 10
61.03417783262695
 20
19.71465713031525
 30
0.0
 11
61.07266318666781
 21
19.67038479488593
 31
0.0
  0
ARC
  5
178
330
2
100
AcDbEntity
  8
AGCASE
  6
Continuous
100
AcDbCircle
 10
61.12830102829247
 20
20.85882037137182
 30
0.0
 40
0.4741807346725001
100
AcDbArc
 50
210.0000000000019
 51
270.0000000000012
  0
ARC
  5
179
330
2
100
AcDbEntity
  8
AGCASE
  6
HIDDEN2
 62
     4
100
AcDbCircle
 10
61.12830102829247
 20
20.85882037137182
 30
0.0
 40
0.4424031775845
100
AcDbArc
 50
210.0000000000019
 51
270.0000000000012
  0
ARC
  5
17A
330
2
100
AcDbEntity
  8
AGCASE
  6
HIDDEN2
 62
     4
100
AcDbCircle
 10
61.12830102829247
 20
20.85882037137182
 30
0.0
 40
0.386295928351
100
AcDbArc
 50
210.0000000000019
 51
270.0000000000012
  0
LWPOLYLINE
  5
17B
330
2
100
AcDbEntity
  8
AGCASE
  6
HIDDEN2
 62
     4
100
AcDbPolyline
 90
        4
 70
     0
 43
0.0
 10
60.91110658295676
 20
19.94918779972782
 10
60.91760673126415
 20
20.32158104685282
 10
60.99497386261837
 20
20.32158104685283
 10
61.00147401092576
 20
19.94918779972782
  0
LINE
  5
17D
330
2
100
AcDbEntity
  8
AGCASE
  6
HIDDEN2
 62
     4
100
AcDbLine
 10
61.05013339521676
 20
19.94918779972782
 30
0.0
 11
60.86244719866576
 21
19.94918779972782
 31
0.0
  0
ARC
  5
17E
330
2
100
AcDbEntity
  8
AGCASE
  6
Continuous
100
AcDbCircle
 10
61.12830102829247
 20
20.85882037137182
 30
0.0
 40
0.2859980137920001
100
AcDbArc
 50
210.0000000000019
 51
270.0000000000012
  0
LINE
  5
17F
330
2
100
AcDbEntity
  8
AGCASE
  6
HIDDEN2
 62
     4
100
AcDbLine
 10
61.12830102829248
 20
20.57282235757981
 30
0.0
 11
60.48619579104482
 21
20.57282235757981
 31
0.0
  0
LINE
  5
180
330
2
100
AcDbEntity
  8
AGCASE
  6
HIDDEN2
 62
     4
100
AcDbLine
 10
60.48619579104483
 20
20.47252444302079
 30
0.0
 11
61.28673464056174
 21
20.47252444302082
 31
0.0
  0
LINE
  5
181
330
2
100
AcDbEntity
  8
AGBASE
  6
HIDDEN2
 62
     4
100
AcDbLine
 10
61.06800827107875
 20
19.96246982500981
 30
0.0
 11
60.84457232280374
 21
19.96246982500981
 31
0.0
  0
LINE
  5
182
330
2
100
AcDbEntity
  8
AGBASE
  6
HIDDEN2
 62
     4
100
AcDbLine
 10
61.05211949253476
 20
19.9465810464658
 30
0.0
 11
60.86046110134776
 21
19.9465810464658
 31
0.0
  0
LINE
  5
183
330
2
100
AcDbEntity
  8
AGCASE
  6
HIDDEN2
 62
     4
100
AcDbLine
 10
60.86244719866576
 20
19.94918779972782
 30
0.0
 11
60.85331232357777
 21
20.47252444302081
 31
0.0
  0
ARC
  5
184
330
2
100
AcDbEntity
  8
AGBASE
  6
HIDDEN2
 62
     4
100
AcDbCircle
 10
60.84457232280374
 20
19.9465810464658
 30
0.0
 40
0.015888778544
100
AcDbArc
 50
0.0
 51
180.0
  0
LINE
  5
185
330
2
100
AcDbEntity
  8
AGBASE
  6
HIDDEN2
 62
     4
100
AcDbLine
 10
60.80013339541025
 20
19.93267836523976
 30
0.0
 11
60.61244719885926
 21
19.93267836523976
 31
0.0
  0
ARC
  5
186
330
2
100
AcDbEntity
  8
AGCASE
  6
HIDDEN2
 62
     4
100
AcDbCircle
 10
60.58191095249826
 20
20.66120368823078
 30
0.0
 40
0.185700099233
100
AcDbArc
 50
30.00000000000285
 51
90.00000000000115
  0
ARC
  5
187
330
2
100
AcDbEntity
  8
AGCASE
  6
Continuous
100
AcDbCircle
 10
60.58191095249826
 20
20.66120368823078
 30
0.0
 40
0.2859980137920001
100
AcDbArc
 50
30.00000000000285
 51
90.00000000000115
  0
LINE
  5
188
330
2
100
AcDbEntity
  8
AGCASE
  6
HIDDEN2
 62
     4
100
AcDbLine
 10
60.69414165274664
 20
20.72600011323054
 30
0.0
 11
60.74516863778933
 21
20.63761878257955
 31
0.0
  0
LINE
  5
189
330
2
100
AcDbEntity
  8
AGCASE
  6
Continuous
100
AcDbLine
 10
60.66662148103823
 20
20.71011133468654
 30
0.0
 11
60.71764846608092
 21
20.62173000403555
 31
0.0
  0
LINE
  5
18A
330
2
100
AcDbEntity
  8
AGCASE
  6
Continuous
100
AcDbLine
 10
60.82959249787402
 20
20.8042026951268
 30
0.0
 11
60.8806194829167
 21
20.71582136447581
 31
0.0
  0
ARC
  5
18B
330
2
100
AcDbEntity
  8
AGCASE
  6
HIDDEN2
 62
     4
100
AcDbCircle
 10
60.58191095249826
 20
20.66120368823078
 30
0.0
 40
0.1295928499995
100
AcDbArc
 50
30.00000000000285
 51
90.00000000000115
  0
LINE
  5
18C
330
2
100
AcDbEntity
  8
AGCASE
  6
HIDDEN2
 62
     4
100
AcDbLine
 10
60.74273195591932
 20
20.7540537378473
 30
0.0
 11
60.79375894096201
 21
20.66567240719631
 31
0.0
  0
ARC
  5
18D
330
2
100
AcDbEntity
  8
AGCASE
  6
Continuous
100
AcDbCircle
 10
60.58191095249826
 20
20.66120368823078
 30
0.0
 40
0.0978152929115001
100
AcDbArc
 50
30.00000000000285
 51
90.00000000000115
  0
LINE
  5
18E
330
2
100
AcDbEntity
  8
AGCASE
  6
HIDDEN2
 62
     4
100
AcDbLine
 10
60.44089804292025
 20
20.9472017020228
 30
0.0
 11
60.44089804292025
 21
20.93727121543281
 31
0.0
  0
ARC
  5
18F
330
2
100
AcDbEntity
  8
AGCASE
  6
Continuous
100
AcDbCircle
 10
61.28673464056174
 20
20.28682434378782
 30
0.0
 40
0.2859980137920001
100
AcDbArc
 50
1.500000000000983
 51
90.00000000000119
  0
LINE
  5
190
330
2
100
AcDbEntity
  8
AGCASE
  6
Continuous
100
AcDbLine
 10
61.12830102829248
 20
20.57282235757981
 30
0.0
 11
61.28673464056174
 21
20.57282235757982
 31
0.0
  0
LINE
  5
191
330
2
100
AcDbEntity
  8
AGCASE
  6
Continuous
100
AcDbLine
 10
61.39267067494813
 20
19.97798621083882
 30
0.0
 11
61.38451641461536
 21
20.28938484965409
 31
0.0
  0
LINE
  5
192
330
2
100
AcDbEntity
  8
AGCASE
  6
HIDDEN2
 62
     4
100
AcDbLine
 10
61.42500926398927
 20
19.94918779972783
 30
0.0
 11
61.42551194212503
 21
19.9779862108387
 31
0.0
  0
LINE
  5
193
330
2
100
AcDbEntity
  8
AGCASE
  6
HIDDEN2
 62
     4
100
AcDbLine
 10
61.58091790345226
 20
19.9779862108387
 30
0.0
 11
61.42551194212503
 21
19.9779862108387
 31
0.0
  0
LINE
  5
194
330
2
100
AcDbEntity
  8
AGCASE
  6
HIDDEN2
 62
     4
100
AcDbLine
 10
61.53225851916127
 20
20.00877071926782
 30
0.0
 11
61.42365300442081
 21
20.00877071926782
 31
0.0
  0
LINE
  5
195
330
2
100
AcDbEntity
  8
AGCASE
  6
HIDDEN2
 62
     4
100
AcDbLine
 10
61.53225851916127
 20
19.97798621083882
 30
0.0
 11
61.53225851916127
 21
20.00877071926782
 31
0.0
  0
LINE
  5
196
330
2
100
AcDbEntity
  8
AGCASE
  6
HIDDEN2
 62
     4
100
AcDbLine
 10
61.47977948679804
 20
20.00877071926782
 30
0.0
 11
61.47237110500871
 21
20.29168540568621
 31
0.0
  0
LINE
  5
197
330
2
100
AcDbEntity
  8
AGCASE
  6
HIDDEN2
 62
     4
100
AcDbLine
 10
61.42365300442081
 20
20.00877071926782
 30
0.0
 11
61.41628308232821
 21
20.29021668912333
 31
0.0
  0
LINE
  5
198
330
2
100
AcDbEntity
  8
AGCASE
  6
Continuous
100
AcDbLine
 10
61.58091790345226
 20
19.97798621083882
 30
0.0
 11
61.57263464997737
 21
20.29431089901101
 31
0.0
  0
LINE
  5
199
330
2
100
AcDbEntity
  8
AGCASE
  6
HIDDEN2
 62
     4
100
AcDbLine
 10
61.42551194212503
 20
19.9779862108387
 30
0.0
 11
61.43290205043427
 21
20.40136523232246
 31
0.0
  0
LINE
  5
19B
330
2
100
AcDbEntity
  8
AGCASE
  6
HIDDEN2
 62
     4
100
AcDbLine
 10
61.05013339521676
 20
19.94918779972782
 30
0.0
 11
61.05782616049284
 21
20.38990602722875
 31
0.0
  0
LINE
  5
19C
330
2
100
AcDbEntity
  8
AGCASE
  6
HIDDEN2
 62
     4
100
AcDbLine
 10
61.23732306743827
 20
19.94918779972782
 30
0.0
 11
61.22972222735082
 21
20.38463963669932
 31
0.0
  0
LWPOLYLINE
  5
19D
330
2
100
AcDbEntity
  8
AGCASE
  6
HIDDEN2
 62
     4
100
AcDbPolyline
 90
        4
 70
     0
 43
0.0
 10
61.28598245172927
 20
19.94918779972782
 10
61.29248260003665
 20
20.32158104685283
 10
61.36984973139085
 20
20.32158104685283
 10
61.37634987969825
 20
19.94918779972783
  0
LINE
  5
19E
330
2
100
AcDbEntity
  8
AGCASE
  6
HIDDEN2
 62
     4
100
AcDbLine
 10
61.22972222735082
 20
20.38463963669932
 30
0.0
 11
61.22818819235027
 21
20.47252444302082
 31
0.0
  0
LINE
  5
19F
330
2
100
AcDbEntity
  8
AGCASE
  6
HIDDEN2
 62
     4
100
AcDbLine
 10
61.05782616049282
 20
20.38990602722869
 30
0.0
 11
61.05926827030476
 21
20.47252444302082
 31
0.0
  0
LINE
  5
1A0
330
2
100
AcDbEntity
  8
AGCASE
  6
Continuous
100
AcDbLine
 10
61.12830102829248
 20
20.38463963669931
 30
0.0
 11
61.28673464056174
 21
20.38463963669932
 31
0.0
  0
LINE
  5
1A1
330
2
100
AcDbEntity
  8
AGCASE
  6
HIDDEN2
 62
     4
100
AcDbLine
 10
61.12830102829248
 20
20.41641719378731
 30
0.0
 11
61.28673464056174
 21
20.41641719378732
 31
0.0
  0
LINE
  5
1A2
330
2
100
AcDbEntity
  8
AGCASE
  6
HIDDEN2
 62
     4
100
AcDbLine
 10
61.42500926398927
 20
19.94918779972783
 30
0.0
 11
61.23732306743827
 21
19.94918779972782
 31
0.0
  0
ARC
  5
1A4
330
2
100
AcDbEntity
  8
AGCASE
  6
Continuous
100
AcDbCircle
 10
61.28673464056174
 20
20.28682434378782
 30
0.0
 40
0.0978152929115
100
AcDbArc
 50
1.500000000000983
 51
90.00000000000119
  0
ARC
  5
1A5
330
2
100
AcDbEntity
  8
AGCASE
  6
HIDDEN2
 62
     4
100
AcDbCircle
 10
61.28673464056174
 20
20.28682434378782
 30
0.0
 40
0.185700099233
100
AcDbArc
 50
1.500000000000983
 51
90.00000000000119
  0
ARC
  5
1A6
330
2
100
AcDbEntity
  8
AGCASE
  6
HIDDEN2
 62
     4
100
AcDbCircle
 10
61.28673464056174
 20
20.28682434378782
 30
0.0
 40
0.1295928499995
100
AcDbArc
 50
1.500000000000983
 51
90.00000000000119
  0
LINE
  5
1A7
330
2
100
AcDbEntity
  8
AGBASE
  6
HIDDEN2
 62
     4
100
AcDbLine
 10
61.4260713665906
 20
20.0081500633238
 30
0.0
 11
61.42430971092405
 21
19.9408751476065
 31
0.0
  0
LINE
  5
1A8
330
2
100
AcDbEntity
  8
AGBASE
  6
HIDDEN2
 62
     4
100
AcDbLine
 10
61.48219784896785
 20
20.0081500633238
 30
0.0
 11
61.48053115658903
 21
19.94450164925551
 31
0.0
  0
LINE
  5
1A9
330
2
100
AcDbEntity
  8
AGBASE
  6
HIDDEN2
 62
     4
100
AcDbLine
 10
61.39428291639466
 20
20.0081500633238
 30
0.0
 11
61.3925430432112
 21
19.94170698707575
 31
0.0
  0
LINE
  5
1AA
330
2
100
AcDbEntity
  8
AGBASE
  6
HIDDEN2
 62
     4
100
AcDbLine
 10
61.39267067494812
 20
19.9465810464658
 30
0.0
 11
61.58091790345224
 21
19.9465810464658
 31
0.0
  0
LINE
  5
1AC
330
2
100
AcDbEntity
  8
AGBASE
100
AcDbLine
 10
61.58091790345224
 20
19.9465810464658
 30
0.0
 11
61.58066127857323
 21
19.93678093771878
 31
0.0
  0
ARC
  5
1AD
330
2
100
AcDbEntity
  8
AGBASE
  6
HIDDEN2
 62
     4
100
AcDbCircle
 10
61.44288413985124
 20
19.9465810464658
 30
0.0
 40
0.015888778544
100
AcDbArc
 50
359.9999999999992
 51
179.9999999999991
  0
LINE
  5
1AE
330
2
100
AcDbEntity
  8
AGBASE
  6
HIDDEN2
 62
     4
100
AcDbLine
 10
61.53027242184325
 20
20.0081500633238
 30
0.0
 11
61.53027242184325
 21
19.9465810464658
 31
0.0
  0
ARC
  5
1AF
330
2
100
AcDbEntity
  8
AGBASE
  6
HIDDEN2
 62
     4
100
AcDbCircle
 10
61.21944819157625
 20
19.9465810464658
 30
0.0
 40
0.015888778544
100
AcDbArc
 50
0.0
 51
180.0
  0
ARC
  5
1B0
330
2
100
AcDbEntity
  8
AGBASE
  6
HIDDEN2
 62
     4
100
AcDbCircle
 10
61.06800827107875
 20
19.9465810464658
 30
0.0
 40
0.015888778544
100
AcDbArc
 50
359.9999999999992
 51
179.9999999999991
  0
LINE
  5
1B1
330
2
100
AcDbEntity
  8
AGBASE
  6
HIDDEN2
 62
     4
100
AcDbLine
 10
61.44288413985124
 20
19.96246982500981
 30
0.0
 11
61.21944819157625
 21
19.96246982500981
 31
0.0
  0
LINE
  5
1B2
330
2
100
AcDbEntity
  8
AGBASE
  6
HIDDEN2
 62
     4
100
AcDbLine
 10
61.42699536130725
 20
19.9465810464658
 30
0.0
 11
61.23533697012025
 21
19.9465810464658
 31
0.0
  0
LINE
  5
1B3
330
2
100
AcDbEntity
  8
AGCASE
  6
HIDDEN2
 62
     4
100
AcDbLine
 10
61.39267067494813
 20
22.40967666432536
 30
0.0
 11
56.26966165841438
 21
22.40967666432536
 31
0.0
  0
LINE
  5
1B4
330
2
100
AcDbEntity
  8
AGCASE
  6
HIDDEN2
 62
     4
100
AcDbLine
 10
61.42947798295476
 20
22.32129533367436
 30
0.0
 11
56.23285435040777
 21
22.32129533367437
 31
0.0
  0
LINE
  5
1B5
330
2
100
AcDbEntity
  8
AGCASE
  6
HIDDEN2
 62
     4
100
AcDbLine
 10
61.42365300442082
 20
22.37491996126037
 30
0.0
 11
56.23867932894171
 21
22.37491996126036
 31
0.0
  0
LINE
  5
1B6
330
2
100
AcDbEntity
  8
AGCASE
100
AcDbLine
 10
56.26959715079077
 20
22.27064985206537
 30
0.0
 11
61.39273518257175
 21
22.27064985206536
 31
0.0
  0
LINE
  5
1B7
330
2
100
AcDbEntity
  8
AGBASE
  6
HIDDEN2
 62
     4
100
AcDbLine
 10
61.39267067494812
 20
22.40967666432536
 30
0.0
 11
56.26966165841438
 21
22.40967666432536
 31
0.0
  0
LINE
  5
1B8
330
2
100
AcDbEntity
  8
AGBASE
100
AcDbLine
 10
56.26959715079076
 20
22.27064985206536
 30
0.0
 11
61.39273518257176
 21
22.27064985206536
 31
0.0
  0
LINE
  5
1B9
330
2
100
AcDbEntity
  8
AGBASE
  6
HIDDEN2
 62
     4
100
AcDbLine
 10
61.4260713665906
 20
22.32129533367437
 30
0.0
 11
56.2362609667719
 21
22.32129533367437
 31
0.0
  0
LINE
  5
1BA
330
2
100
AcDbEntity
  8
AGBASE
  6
HIDDEN2
 62
     4
100
AcDbLine
 10
61.4260713665906
 20
22.37491996126037
 30
0.0
 11
56.2362609667719
 21
22.37491996126036
 31
0.0
  0
LWPOLYLINE
  5
1BB
330
2
100
AcDbEntity
  8
AGCASE
 62
     4
100
AcDbPolyline
 90
        5
 70
     0
 43
0.0
 10
56.83273983548849
 20
22.45883257294587
 42
0.0863188075832214
 10
56.84547194597808
 20
22.3856315829409
 42
0.0925889459849462
 10
56.88047294118282
 20
22.32576729490913
 42
0.1030981112244636
 10
56.93454481775459
 20
22.28452479435376
 42
0.1119976344767956
 10
56.99571085232427
 20
22.27064985206537
 42
0.1119976344767811
  0
LINE
  5
1BC
330
2
100
AcDbEntity
  8
AGCASE
 62
     4
100
AcDbLine
 10
57.08042138086424
 20
22.27064985206537
 30
0.0
 11
57.08042138086424
 21
22.45883257294587
 31
0.0
  0
LINE
  5
1BD
330
2
100
AcDbEntity
  8
AGCASE
  6
HIDDEN2
 62
     4
100
AcDbLine
 10
56.23867932894171
 20
22.32129533367437
 30
0.0
 11
56.23867932894171
 21
22.37491996126036
 31
0.0
  0
LINE
  5
1BE
330
2
100
AcDbEntity
  8
AGCASE
 62
     4
100
AcDbLine
 10
56.37559769280077
 20
22.45883257294587
 30
0.0
 11
56.37559769280077
 21
22.27064985206537
 31
0.0
  0
LINE
  5
1BF
330
2
100
AcDbEntity
  8
AGCASE
 62
     4
100
AcDbLine
 10
56.53403130507004
 20
22.45883257294587
 30
0.0
 11
56.53403130507004
 21
22.27064985206537
 31
0.0
  0
LWPOLYLINE
  5
1C0
330
2
100
AcDbEntity
  8
AGCASE
100
AcDbPolyline
 90
        5
 70
     0
 43
0.0
 10
56.08969768338513
 20
22.45883257294587
 42
0.0984608196193931
 10
56.10401831409775
 20
22.38681509969905
 42
0.0984787298952247
 10
56.14479623885783
 20
22.32576729490913
 42
0.0985040694375477
 10
56.20582925054392
 20
22.28497342530917
 42
0.0985219946903105
 10
56.27781591874716
 20
22.27064985206537
 42
0.0985219946902915
  0
ARC
  5
1C1
330
2
100
AcDbEntity
  8
AGCASE
  6
HIDDEN2
 62
     4
100
AcDbCircle
 10
56.23285435040777
 20
22.42407586988087
 30
0.0
 40
0.1027805362065
100
AcDbArc
 50
180.0
 51
270.0
  0
ARC
  5
1C2
330
2
100
AcDbEntity
  8
AGCASE
100
AcDbCircle
 10
56.26959715079077
 20
22.45883257294587
 30
0.0
 40
0.1881827208805
100
AcDbArc
 50
180.0
 51
270.0
  0
LWPOLYLINE
  5
1C3
330
2
100
AcDbEntity
  8
AGCASE
 62
     4
100
AcDbPolyline
 90
        5
 70
     0
 43
0.0
 10
56.7817128504458
 20
22.45883257294587
 42
0.0863188075832214
 10
56.7944449609354
 20
22.3856315829409
 42
0.0925889459849462
 10
56.82944595614014
 20
22.32576729490913
 42
0.1030981112244636
 10
56.8835178327119
 20
22.28452479435375
 42
0.1119976344767956
 10
56.94468386728159
 20
22.27064985206537
 42
0.1119976344767811
  0
LINE
  5
1C4
330
2
100
AcDbEntity
  8
AGBASE
  6
HIDDEN2
 62
     4
100
AcDbLine
 10
56.2362609667719
 20
22.32129533367437
 30
0.0
 11
56.2362609667719
 21
22.37491996126036
 31
0.0
  0
ARC
  5
1C5
330
2
100
AcDbEntity
  8
AGBASE
100
AcDbCircle
 10
56.26959715079076
 20
22.45883257294587
 30
0.0
 40
0.1881827208805
100
AcDbArc
 50
180.0
 51
270.0
  0
ARC
  5
1C6
330
2
100
AcDbEntity
  8
AGBASE
  6
HIDDEN2
 62
     4
100
AcDbCircle
 10
56.23626096677191
 20
22.42549638892702
 30
0.0
 40
0.104201055252654
100
AcDbArc
 50
180.0
 51
270.0
  0
LINE
  5
1C7
330
2
100
AcDbEntity
  8
AGCASE
  6
HIDDEN2
 62
     4
100
AcDbLine
 10
56.26966165841438
 20
22.27064985206537
 30
0.0
 11
56.26966165841438
 21
22.32129533367437
 31
0.0
  0
LINE
  5
1C8
330
2
100
AcDbEntity
  8
AGBASE
  6
HIDDEN2
 62
     4
100
AcDbLine
 10
56.26966165841438
 20
22.27064985206536
 30
0.0
 11
56.26966165841438
 21
22.32129533367437
 31
0.0
  0
CIRCLE
  5
1C9
330
2
100
AcDbEntity
  8
AGBASE
  6
HIDDEN2
 62
     4
100
AcDbCircle
 10
56.95604203622774
 20
23.02040158961035
 30
0.0
 40
0.0429998304865607
  0
CIRCLE
  5
1CA
330
2
100
AcDbEntity
  8
AGBASE
  6
HIDDEN2
 62
     4
100
AcDbCircle
 10
56.95604203622774
 20
23.02040158961035
 30
0.0
 40
0.0982111979380686
  0
CIRCLE
  5
1CB
330
2
100
AcDbEntity
  8
AGBASE
  6
HIDDEN2
 62
     4
100
AcDbCircle
 10
56.95604203622774
 20
23.02040158961035
 30
0.0
 40
0.0938430982755
  0
CIRCLE
  5
1CC
330
2
100
AcDbEntity
  8
AGBASE
  6
HIDDEN2
 62
     4
100
AcDbCircle
 10
56.95604203622774
 20
23.02040158961035
 30
0.0
 40
0.0451837139845
  0
ARC
  5
1CE
330
2
100
AcDbEntity
  8
AGCASE
  6
HIDDEN2
 62
     4
100
AcDbCircle
 10
56.23170875518499
 20
22.45883257294587
 30
0.0
 40
0.0491559086205054
100
AcDbArc
 50
180.0
 51
270.0000000000041
  0
LINE
  5
1CF
330
2
100
AcDbEntity
  8
AGCASE
  6
HIDDEN2
 62
     4
100
AcDbLine
 10
56.26966165841438
 20
22.37491996126037
 30
0.0
 11
56.26966165841438
 21
22.40967666432536
 31
0.0
  0
LINE
  5
1D0
330
2
100
AcDbEntity
  8
AGCASE
  6
HIDDEN2
 62
     4
100
AcDbLine
 10
56.26966165841438
 20
22.40967666432536
 30
0.0
 11
56.23170875518499
 21
22.40967666432536
 31
0.0
  0
CIRCLE
  5
1D1
330
2
100
AcDbEntity
  8
AGCASE
  6
HIDDEN2
 62
     4
100
AcDbCircle
 10
56.33116616764875
 20
22.77064985187185
 30
0.0
 40
0.04518371398449
  0
CIRCLE
  5
1D2
330
2
100
AcDbEntity
  8
AGCASE
  6
HIDDEN2
 62
     4
100
AcDbCircle
 10
56.33116616764875
 20
22.77064985187185
 30
0.0
 40
0.0386835656771053
  0
CIRCLE
  5
1D3
330
2
100
AcDbEntity
  8
AGCASE
  6
HIDDEN2
 62
     4
100
AcDbCircle
 10
56.33116616764875
 20
22.77064985187185
 30
0.0
 40
0.102977973363489
  0
CIRCLE
  5
1D4
330
2
100
AcDbEntity
  8
AGCASE
  6
HIDDEN2
 62
     4
100
AcDbCircle
 10
56.33116616764875
 20
22.77064985187185
 30
0.0
 40
0.0938430982754965
  0
LINE
  5
1D5
330
2
100
AcDbEntity
  8
AGBASE
  6
HIDDEN2
 62
     4
100
AcDbLine
 10
56.26966165841438
 20
22.40967666432536
 30
0.0
 11
56.22929039301517
 21
22.40967666432536
 31
0.0
  0
ARC
  5
1D6
330
2
100
AcDbEntity
  8
AGBASE
  6
HIDDEN2
 62
     4
100
AcDbCircle
 10
56.22929039301517
 20
22.45883257294587
 30
0.0
 40
0.0491559086205001
100
AcDbArc
 50
180.0
 51
270.0
  0
ARC
  5
1D7
330
2
100
AcDbEntity
  8
AGBASE
  6
HIDDEN2
 62
     4
100
AcDbCircle
 10
56.33116616764875
 20
22.75184469640258
 30
0.0
 40
0.1576292926751412
100
AcDbArc
 50
248.6073029705465
 51
269.9999999999997
  0
ARC
  5
1D8
330
2
100
AcDbEntity
  8
AGBASE
  6
HIDDEN2
 62
     4
100
AcDbCircle
 10
56.33434341187049
 20
22.77064985187185
 30
0.0
 40
0.1324832398140993
100
AcDbArc
 50
117.2564152520763
 51
242.7435847479236
  0
ARC
  5
1D9
330
2
100
AcDbEntity
  8
AGBASE
  6
HIDDEN2
 62
     4
100
AcDbCircle
 10
56.33116616764875
 20
22.78945500734113
 30
0.0
 40
0.1576292926751412
100
AcDbArc
 50
90.00000000000031
 51
111.3926970294534
  0
ARC
  5
1DA
330
2
100
AcDbEntity
  8
AGBASE
  6
HIDDEN2
 62
     4
100
AcDbCircle
 10
56.33116616764875
 20
22.77064985187185
 30
0.0
 40
0.175273088313499
100
AcDbArc
 50
250.8501528004732
 51
109.1498471995267
  0
ARC
  5
1DB
330
2
100
AcDbEntity
  8
AGBASE
  6
HIDDEN2
 62
     4
100
AcDbCircle
 10
56.33116616764875
 20
22.77064985187185
 30
0.0
 40
0.1764344481444161
100
AcDbArc
 50
270.0
 51
90.0
  0
ARC
  5
1DC
330
2
100
AcDbEntity
  8
AGBASE
  6
HIDDEN2
 62
     4
100
AcDbCircle
 10
56.33116616764875
 20
22.77064985187185
 30
0.0
 40
0.1310585850231843
100
AcDbArc
 50
243.9784696105042
 51
116.0215303894957
  0
CIRCLE
  5
1DD
330
2
100
AcDbEntity
  8
AGBASE
  6
HIDDEN2
 62
     4
100
AcDbCircle
 10
56.33116616764875
 20
22.77064985187185
 30
0.0
 40
0.1276043327435692
  0
CIRCLE
  5
1DE
330
2
100
AcDbEntity
  8
AGBASE
  6
HIDDEN2
 62
     4
100
AcDbCircle
 10
56.33116616764875
 20
22.77064985187185
 30
0.0
 40
0.1163728897265643
  0
CIRCLE
  5
1DF
330
2
100
AcDbEntity
  8
AGBASE
  6
HIDDEN2
 62
     4
100
AcDbCircle
 10
56.33116616764875
 20
22.77064985187185
 30
0.0
 40
0.077887535685713
  0
CIRCLE
  5
1E0
330
2
100
AcDbEntity
  8
AGBASE
  6
HIDDEN2
 62
     4
100
AcDbCircle
 10
56.33116616764875
 20
22.77064985187185
 30
0.0
 40
0.0575968222220104
  0
CIRCLE
  5
1E1
330
2
100
AcDbEntity
  8
AGBASE
  6
HIDDEN2
 62
     4
100
AcDbCircle
 10
56.33116616764875
 20
22.77064985187185
 30
0.0
 40
0.095829195593499
  0
LINE
  5
1E2
330
2
100
AcDbEntity
  8
AGBASE
  6
HIDDEN2
 62
     4
100
AcDbLine
 10
56.26966165841438
 20
22.37491996126037
 30
0.0
 11
56.26966165841438
 21
22.40967666432536
 31
0.0
  0
LINE
  5
1E3
330
2
100
AcDbEntity
  8
AGCASE
  6
HIDDEN2
 62
     4
100
AcDbLine
 10
61.4236530044208
 20
22.32129533367437
 30
0.0
 11
61.4236530044208
 21
22.37491996126036
 31
0.0
  0
LINE
  5
1E4
330
2
100
AcDbEntity
  8
AGCASE
 62
     4
100
AcDbLine
 10
61.12830102829247
 20
22.45883257294587
 30
0.0
 11
61.12830102829247
 21
22.27064985206537
 31
0.0
  0
LWPOLYLINE
  5
1E5
330
2
100
AcDbEntity
  8
AGCASE
100
AcDbPolyline
 90
        5
 70
     0
 43
0.0
 10
61.57263464997738
 20
22.45883257294587
 42
-0.0984608196193931
 10
61.55831401926475
 20
22.38681509969905
 42
-0.0984787298952247
 10
61.51753609450469
 20
22.32576729490913
 42
-0.0985040694375477
 10
61.45650308281859
 20
22.28497342530917
 42
-0.0985219946903105
 10
61.38451641461536
 20
22.27064985206537
 42
-0.0985219946902915
  0
ARC
  5
1E6
330
2
100
AcDbEntity
  8
AGCASE
  6
HIDDEN2
 62
     4
100
AcDbCircle
 10
61.42947798295476
 20
22.42407586988087
 30
0.0
 40
0.1027805362065
100
AcDbArc
 50
270.0
 51
0.0
  0
LINE
  5
1E7
330
2
100
AcDbEntity
  8
AGCASE
 62
     4
100
AcDbLine
 10
61.28673464056173
 20
22.45883257294587
 30
0.0
 11
61.28673464056173
 21
22.27064985206537
 31
0.0
  0
ARC
  5
1E8
330
2
100
AcDbEntity
  8
AGCASE
100
AcDbCircle
 10
61.39273518257175
 20
22.45883257294586
 30
0.0
 40
0.1881827208805
100
AcDbArc
 50
269.9999999999999
 51
0.0000000000000509
  0
LWPOLYLINE
  5
1E9
330
2
100
AcDbEntity
  8
AGCASE
 62
     4
100
AcDbPolyline
 90
        5
 70
     0
 43
0.0
 10
60.82959249787402
 20
22.45883257294587
 42
-0.0863188075832214
 10
60.81686038738443
 20
22.3856315829409
 42
-0.0925889459849462
 10
60.78185939217969
 20
22.32576729490913
 42
-0.1030981112244636
 10
60.7277875156079
 20
22.28452479435376
 42
-0.1119976344767956
 10
60.66662148103824
 20
22.27064985206537
 42
-0.1119976344767811
  0
LWPOLYLINE
  5
1EA
330
2
100
AcDbEntity
  8
AGCASE
 62
     4
100
AcDbPolyline
 90
        5
 70
     0
 43
0.0
 10
60.8806194829167
 20
22.45883257294587
 42
-0.0863188075832214
 10
60.86788737242711
 20
22.3856315829409
 42
-0.0925889459849462
 10
60.83288637722237
 20
22.32576729490913
 42
-0.1030981112244636
 10
60.7788145006506
 20
22.28452479435375
 42
-0.1119976344767956
 10
60.71764846608092
 20
22.27064985206537
 42
-0.1119976344767811
  0
LINE
  5
1EB
330
2
100
AcDbEntity
  8
AGCASE
 62
     4
100
AcDbLine
 10
60.58191095249827
 20
22.27064985206537
 30
0.0
 11
60.58191095249827
 21
22.45883257294587
 31
0.0
  0
LINE
  5
1EC
330
2
100
AcDbEntity
  8
AGBASE
  6
HIDDEN2
 62
     4
100
AcDbLine
 10
61.4260713665906
 20
22.32129533367437
 30
0.0
 11
61.4260713665906
 21
22.37491996126036
 31
0.0
  0
ARC
  5
1ED
330
2
100
AcDbEntity
  8
AGBASE
100
AcDbCircle
 10
61.39273518257176
 20
22.45883257294586
 30
0.0
 40
0.1881827208805
100
AcDbArc
 50
269.9999999999999
 51
0.0000000000000509
  0
ARC
  5
1EE
330
2
100
AcDbEntity
  8
AGBASE
  6
HIDDEN2
 62
     4
100
AcDbCircle
 10
61.4260713665906
 20
22.42549638892702
 30
0.0
 40
0.104201055252654
100
AcDbArc
 50
270.0
 51
0.0
  0
LINE
  5
1EF
330
2
100
AcDbEntity
  8
AGCASE
  6
HIDDEN2
 62
     4
100
AcDbLine
 10
61.39267067494813
 20
22.27064985206537
 30
0.0
 11
61.39267067494813
 21
22.32129533367437
 31
0.0
  0
LINE
  5
1F0
330
2
100
AcDbEntity
  8
AGBASE
  6
HIDDEN2
 62
     4
100
AcDbLine
 10
61.39267067494813
 20
22.27064985206536
 30
0.0
 11
61.39267067494813
 21
22.32129533367437
 31
0.0
  0
CIRCLE
  5
1F2
330
2
100
AcDbEntity
  8
AGBASE
  6
HIDDEN2
 62
     4
100
AcDbCircle
 10
60.70629029713476
 20
23.02040158961035
 30
0.0
 40
0.0451837139845
  0
CIRCLE
  5
1F3
330
2
100
AcDbEntity
  8
AGBASE
  6
HIDDEN2
 62
     4
100
AcDbCircle
 10
60.70629029713476
 20
23.02040158961035
 30
0.0
 40
0.0938430982755
  0
CIRCLE
  5
1F4
330
2
100
AcDbEntity
  8
AGBASE
  6
HIDDEN2
 62
     4
100
AcDbCircle
 10
60.70629029713476
 20
23.02040158961035
 30
0.0
 40
0.0982111979380686
  0
CIRCLE
  5
1F5
330
2
100
AcDbEntity
  8
AGBASE
  6
HIDDEN2
 62
     4
100
AcDbCircle
 10
60.70629029713476
 20
23.02040158961035
 30
0.0
 40
0.0429998304865607
  0
ARC
  5
1F6
330
2
100
AcDbEntity
  8
AGCASE
  6
HIDDEN2
 62
     4
100
AcDbCircle
 10
61.43062357817752
 20
22.45883257294587
 30
0.0
 40
0.0491559086205054
100
AcDbArc
 50
269.9999999999958
 51
0.0
  0
LINE
  5
1F7
330
2
100
AcDbEntity
  8
AGCASE
  6
HIDDEN2
 62
     4
100
AcDbLine
 10
61.39267067494813
 20
22.37491996126037
 30
0.0
 11
61.39267067494813
 21
22.40967666432536
 31
0.0
  0
LINE
  5
1F8
330
2
100
AcDbEntity
  8
AGCASE
  6
HIDDEN2
 62
     4
100
AcDbLine
 10
61.39267067494813
 20
22.40967666432536
 30
0.0
 11
61.43062357817752
 21
22.40967666432536
 31
0.0
  0
CIRCLE
  5
1F9
330
2
100
AcDbEntity
  8
AGCASE
  6
HIDDEN2
 62
     4
100
AcDbCircle
 10
61.33116616571376
 20
22.77064985187185
 30
0.0
 40
0.04518371398449
  0
CIRCLE
  5
1FA
330
2
100
AcDbEntity
  8
AGCASE
  6
HIDDEN2
 62
     4
100
AcDbCircle
 10
61.33116616571376
 20
22.77064985187185
 30
0.0
 40
0.0386835656771053
  0
CIRCLE
  5
1FB
330
2
100
AcDbEntity
  8
AGCASE
  6
HIDDEN2
 62
     4
100
AcDbCircle
 10
61.33116616571376
 20
22.77064985187185
 30
0.0
 40
0.102977973363489
  0
CIRCLE
  5
1FC
330
2
100
AcDbEntity
  8
AGCASE
  6
HIDDEN2
 62
     4
100
AcDbCircle
 10
61.33116616571376
 20
22.77064985187185
 30
0.0
 40
0.0938430982754965
  0
LINE
  5
1FD
330
2
100
AcDbEntity
  8
AGBASE
  6
HIDDEN2
 62
     4
100
AcDbLine
 10
61.39267067494812
 20
22.40967666432537
 30
0.0
 11
61.43304194034734
 21
22.40967666432537
 31
0.0
  0
ARC
  5
1FE
330
2
100
AcDbEntity
  8
AGBASE
  6
HIDDEN2
 62
     4
100
AcDbCircle
 10
61.43304194034734
 20
22.45883257294586
 30
0.0
 40
0.0491559086205001
100
AcDbArc
 50
270.0000000000001
 51
0.0000000000001334
  0
ARC
  5
1FF
330
2
100
AcDbEntity
  8
AGBASE
  6
HIDDEN2
 62
     4
100
AcDbCircle
 10
61.32798892149202
 20
22.77064985187185
 30
0.0
 40
0.1324832398140993
100
AcDbArc
 50
297.2564152520763
 51
62.74358474792367
  0
ARC
  5
200
330
2
100
AcDbEntity
  8
AGBASE
  6
HIDDEN2
 62
     4
100
AcDbCircle
 10
61.33116616571375
 20
22.77064985187185
 30
0.0
 40
0.1764344481444161
100
AcDbArc
 50
90.0
 51
270.0
  0
ARC
  5
201
330
2
100
AcDbEntity
  8
AGBASE
  6
HIDDEN2
 62
     4
100
AcDbCircle
 10
61.33116616571375
 20
22.77064985187185
 30
0.0
 40
0.1310585850231843
100
AcDbArc
 50
63.97846961050424
 51
296.0215303894957
  0
CIRCLE
  5
202
330
2
100
AcDbEntity
  8
AGBASE
  6
HIDDEN2
 62
     4
100
AcDbCircle
 10
61.33116616571375
 20
22.77064985187185
 30
0.0
 40
0.1163728897265643
  0
CIRCLE
  5
203
330
2
100
AcDbEntity
  8
AGBASE
  6
HIDDEN2
 62
     4
100
AcDbCircle
 10
61.33116616571375
 20
22.77064985187185
 30
0.0
 40
0.1276043327435692
  0
ARC
  5
204
330
2
100
AcDbEntity
  8
AGBASE
  6
HIDDEN2
 62
     4
100
AcDbCircle
 10
61.33116616571375
 20
22.78945500734113
 30
0.0
 40
0.1576292926751412
100
AcDbArc
 50
68.6073029705466
 51
89.99999999999969
  0
CIRCLE
  5
205
330
2
100
AcDbEntity
  8
AGBASE
  6
HIDDEN2
 62
     4
100
AcDbCircle
 10
61.33116616571375
 20
22.77064985187185
 30
0.0
 40
0.0575968222220104
  0
CIRCLE
  5
206
330
2
100
AcDbEntity
  8
AGBASE
  6
HIDDEN2
 62
     4
100
AcDbCircle
 10
61.33116616571375
 20
22.77064985187185
 30
0.0
 40
0.077887535685713
  0
CIRCLE
  5
207
330
2
100
AcDbEntity
  8
AGBASE
  6
HIDDEN2
 62
     4
100
AcDbCircle
 10
61.33116616571375
 20
22.77064985187185
 30
0.0
 40
0.095829195593499
  0
ARC
  5
208
330
2
100
AcDbEntity
  8
AGBASE
  6
HIDDEN2
 62
     4
100
AcDbCircle
 10
61.33116616571375
 20
22.77064985187185
 30
0.0
 40
0.175273088313499
100
AcDbArc
 50
70.85015280047326
 51
289.1498471995267
  0
ARC
  5
209
330
2
100
AcDbEntity
  8
AGBASE
  6
HIDDEN2
 62
     4
100
AcDbCircle
 10
61.33116616571375
 20
22.75184469640258
 30
0.0
 40
0.1576292926751412
100
AcDbArc
 50
270.0000000000002
 51
291.3926970294534
  0
LINE
  5
20A
330
2
100
AcDbEntity
  8
AGBASE
  6
HIDDEN2
 62
     4
100
AcDbLine
 10
61.39267067494813
 20
22.37491996126037
 30
0.0
 11
61.39267067494813
 21
22.40967666432536
 31
0.0
  0
LINE
  5
20B
330
2
100
AcDbEntity
  8
AGCASE
  6
HIDDEN2
 62
     4
100
AcDbLine
 10
63.78751892248782
 20
22.37491996126037
 30
0.0
 11
63.78751892248782
 21
22.32129533367437
 31
0.0
  0
ARC
  5
20C
330
2
100
AcDbEntity
  8
AGCASE
100
AcDbCircle
 10
63.81929647957581
 20
22.45883257294586
 30
0.0
 40
0.1881827208805
100
AcDbArc
 50
180.0
 51
270.0
  0
LWPOLYLINE
  5
20D
330
2
100
AcDbEntity
  8
AGCASE
100
AcDbPolyline
 90
        5
 70
     0
 43
0.0
 10
63.48811475179933
 20
22.45883257294586
 42
0.0510992989621124
 10
63.49591313163647
 20
22.38272568550881
 42
0.0649481016503226
 10
63.51567347322121
 20
22.32576729490912
 42
0.104202941766397
 10
63.55033200064845
 20
22.28213757949557
 42
0.1747045211889866
 10
63.58220611223959
 20
22.27064985206536
 42
0.1747045211890197
  0
LINE
  5
20E
330
2
100
AcDbEntity
  8
AGCASE
  6
HIDDEN2
 62
     4
100
AcDbLine
 10
63.41313957804485
 20
22.37491996126037
 30
0.0
 11
63.41313957804485
 21
22.32129533367436
 31
0.0
  0
ARC
  5
20F
330
2
100
AcDbEntity
  8
AGCASE
100
AcDbCircle
 10
63.44491713513285
 20
22.45883257294586
 30
0.0
 40
0.1881827208805
100
AcDbArc
 50
180.0
 51
270.0
  0
LWPOLYLINE
  5
210
330
2
100
AcDbEntity
  8
AGCASE
100
AcDbPolyline
 90
        5
 70
     0
 43
0.0
 10
63.39973342114835
 20
22.45883257294586
 42
0.0510992989621124
 10
63.40753180098549
 20
22.38272568550881
 42
0.0649481016503226
 10
63.42729214257023
 20
22.32576729490912
 42
0.104202941766397
 10
63.46195066999747
 20
22.28213757949557
 42
0.1747045211889866
 10
63.49382478158862
 20
22.27064985206536
 42
0.1747045211890197
  0
LINE
  5
211
330
2
100
AcDbEntity
  8
AGBASE
  6
HIDDEN2
 62
     4
100
AcDbLine
 10
64.47532925045987
 20
22.37491996126037
 30
0.0
 11
64.47532925045987
 21
22.32129533367437
 31
0.0
  0
ARC
  5
212
330
2
100
AcDbEntity
  8
AGBASE
100
AcDbCircle
 10
64.44355169337185
 20
22.45883257294586
 30
0.0
 40
0.1881827208805
100
AcDbArc
 50
269.9999999999997
 51
359.9999999999999
  0
LINE
  5
213
330
2
100
AcDbEntity
  8
AGBASE
  6
HIDDEN2
 62
     4
100
AcDbLine
 10
64.25735506980931
 20
22.32129533367437
 30
0.0
 11
64.47532925045987
 21
22.32129533367437
 31
0.0
  0
LINE
  5
214
330
2
100
AcDbEntity
  8
AGBASE
100
AcDbLine
 10
64.25735506980931
 20
22.27064985206536
 30
0.0
 11
64.44355169337185
 21
22.27064985206536
 31
0.0
  0
LINE
  5
215
330
2
100
AcDbEntity
  8
AGCASE
  6
HIDDEN2
 62
     4
100
AcDbLine
 10
64.19516539700731
 20
22.32129533367436
 30
0.0
 11
63.41313957804485
 21
22.32129533367436
 31
0.0
  0
LINE
  5
216
330
2
100
AcDbEntity
  8
AGCASE
100
AcDbLine
 10
64.22594990543633
 20
22.27064985206536
 30
0.0
 11
63.44491713513285
 21
22.27064985206536
 31
0.0
  0
LINE
  5
217
330
2
100
AcDbEntity
  8
AGCASE
  6
HIDDEN2
 62
     4
100
AcDbLine
 10
63.44491713513287
 20
22.32129533367436
 30
0.0
 11
63.44491713513287
 21
22.27064985206536
 31
0.0
  0
LINE
  5
218
330
2
100
AcDbEntity
  8
AGCASE
  6
HIDDEN2
 62
     4
100
AcDbLine
 10
63.81929647957583
 20
22.32129533367437
 30
0.0
 11
63.81929647957583
 21
22.27064985206537
 31
0.0
  0
LINE
  5
219
330
2
100
AcDbEntity
  8
AGBASE
  6
HIDDEN2
 62
     4
100
AcDbLine
 10
64.1957860529513
 20
22.32129533367437
 30
0.0
 11
64.25735506980931
 21
22.32129533367437
 31
0.0
  0
LINE
  5
21A
330
2
100
AcDbEntity
  8
AGBASE
  6
HIDDEN2
 62
     4
100
AcDbLine
 10
64.44355169337185
 20
22.32129533367437
 30
0.0
 11
64.44355169337185
 21
22.27064985206536
 31
0.0
  0
LINE
  5
21B
330
2
100
AcDbEntity
  8
AGBASE
  6
HIDDEN2
 62
     4
100
AcDbLine
 10
64.27125775103537
 20
23.11424468788585
 30
0.0
 11
64.52150601310338
 21
23.11861278754842
 31
0.0
  0
LINE
  5
21C
330
2
100
AcDbEntity
  8
AGBASE
  6
HIDDEN2
 62
     4
100
AcDbLine
 10
64.27125775103537
 20
23.06558530359485
 30
0.0
 11
64.52150601310336
 21
23.06340142009692
 31
0.0
  0
LINE
  5
21D
330
2
100
AcDbEntity
  8
AGBASE
  6
HIDDEN2
 62
     4
100
AcDbLine
 10
64.1957860529513
 20
22.40967666432537
 30
0.0
 11
64.47235010448287
 21
22.40967666432536
 31
0.0
  0
LINE
  5
21E
330
2
100
AcDbEntity
  8
AGBASE
  6
HIDDEN2
 62
     4
100
AcDbLine
 10
64.27125775103537
 20
22.92655849133485
 30
0.0
 11
64.52150601310336
 21
22.92219039167228
 31
0.0
  0
LINE
  5
21F
330
2
100
AcDbEntity
  8
AGBASE
  6
HIDDEN2
 62
     4
100
AcDbLine
 10
64.27125775103537
 20
22.97521787562585
 30
0.0
 11
64.52150601310336
 21
22.97740175912378
 31
0.0
  0
LINE
  5
220
330
2
100
AcDbEntity
  8
AGBASE
  6
HIDDEN2
 62
     4
100
AcDbLine
 10
64.25735506980931
 20
22.71305302964986
 30
0.0
 11
64.48927898595986
 21
22.69276231618615
 31
0.0
  0
LINE
  5
221
330
2
100
AcDbEntity
  8
AGBASE
  6
HIDDEN2
 62
     4
100
AcDbLine
 10
64.25735506980931
 20
22.82824667409386
 30
0.0
 11
64.48927898595989
 21
22.84853738755757
 31
0.0
  0
LINE
  5
222
330
2
100
AcDbEntity
  8
AGBASE
  6
HIDDEN2
 62
     4
100
AcDbLine
 10
64.25707777238836
 20
22.89825418461542
 30
0.0
 11
64.45497175295037
 21
22.90170843689505
 31
0.0
  0
LINE
  5
223
330
2
100
AcDbEntity
  8
AGBASE
  6
HIDDEN2
 62
     4
100
AcDbLine
 10
64.25707777238836
 20
22.6430455191283
 30
0.0
 11
64.44355169337185
 21
22.63979060473011
 31
0.0
  0
LINE
  5
224
330
2
100
AcDbEntity
  8
AGBASE
  6
HIDDEN2
 62
     4
100
AcDbLine
 10
64.1957860529513
 20
22.37491996126036
 30
0.0
 11
64.47532925045987
 21
22.37491996126037
 31
0.0
  0
LINE
  5
225
330
2
100
AcDbEntity
  8
AGBASE
  6
HIDDEN2
 62
     4
100
AcDbLine
 10
64.27125775103537
 20
23.11424468788585
 30
0.0
 11
64.27125775103537
 21
22.92655849133485
 31
0.0
  0
LINE
  5
226
330
2
100
AcDbEntity
  8
AGCASE
  6
HIDDEN2
 62
     4
100
AcDbLine
 10
64.19516539700731
 20
22.37491996126036
 30
0.0
 11
63.41313957804485
 21
22.37491996126037
 31
0.0
  0
LINE
  5
227
330
2
100
AcDbEntity
  8
AGCASE
  6
HIDDEN2
 62
     4
100
AcDbLine
 10
64.19516539700731
 20
22.40967666432537
 30
0.0
 11
63.40618823743186
 21
22.40967666432536
 31
0.0
  0
LINE
  5
228
330
2
100
AcDbEntity
  8
AGCASE
 62
     4
100
AcDbLine
 10
63.25673441425235
 20
22.45883257294586
 30
0.0
 11
64.22594990543633
 21
22.45883257294586
 31
0.0
  0
LINE
  5
229
330
2
100
AcDbEntity
  8
AGCASE
  6
HIDDEN2
 62
     4
100
AcDbLine
 10
63.44491713513287
 20
22.37491996126037
 30
0.0
 11
63.44491713513285
 21
22.40967666432536
 31
0.0
  0
ARC
  5
22A
330
2
100
AcDbEntity
  8
AGCASE
  6
HIDDEN2
 62
     4
100
AcDbCircle
 10
63.40618823743186
 20
22.45883257294586
 30
0.0
 40
0.0491559086204984
100
AcDbArc
 50
180.0
 51
270.0
  0
LINE
  5
22B
330
2
100
AcDbEntity
  8
AGCASE
  6
HIDDEN2
 62
     4
100
AcDbLine
 10
63.25673441425235
 20
22.56757140110635
 30
0.0
 11
63.26666490084235
 21
22.56757140110635
 31
0.0
  0
LINE
  5
22C
330
2
100
AcDbEntity
  8
AGCASE
  6
HIDDEN2
 62
     4
100
AcDbLine
 10
63.25673441425235
 20
22.59835590953535
 30
0.0
 11
63.26666490084235
 21
22.59835590953535
 31
0.0
  0
LINE
  5
22D
330
2
100
AcDbEntity
  8
AGCASE
  6
Continuous
100
AcDbLine
 10
64.25474831654732
 20
22.86498947447686
 30
0.0
 11
64.25474831654731
 21
22.67730327792586
 31
0.0
  0
LINE
  5
22E
330
2
100
AcDbEntity
  8
AGCASE
  6
Continuous
100
AcDbLine
 10
64.25474831654731
 20
22.67730327792586
 30
0.0
 11
64.22594990543633
 21
22.67680059979009
 31
0.0
  0
LINE
  5
22F
330
2
100
AcDbEntity
  8
AGCASE
  6
Continuous
100
AcDbLine
 10
64.25474831654732
 20
22.86498947447686
 30
0.0
 11
64.22594990543633
 21
22.86549215261263
 31
0.0
  0
LINE
  5
230
330
2
100
AcDbEntity
  8
AGCASE
  6
HIDDEN2
 62
     4
100
AcDbLine
 10
63.8823550694223
 20
22.80982994187846
 30
0.0
 11
63.8823550694223
 21
22.73246281052426
 31
0.0
  0
LINE
  5
231
330
2
100
AcDbEntity
  8
AGCASE
  6
HIDDEN2
 62
     4
100
AcDbLine
 10
64.25474831654731
 20
22.72596266221686
 30
0.0
 11
63.8823550694223
 21
22.73246281052426
 31
0.0
  0
LINE
  5
232
330
2
100
AcDbEntity
  8
AGCASE
  6
HIDDEN2
 62
     4
100
AcDbLine
 10
64.25474831654731
 20
22.81633009018585
 30
0.0
 11
63.8823550694223
 21
22.80982994187846
 31
0.0
  0
ARC
  5
233
330
2
100
AcDbEntity
  8
AGCASE
  6
HIDDEN2
 62
     4
100
AcDbCircle
 10
63.78056758187482
 20
22.45883257294586
 30
0.0
 40
0.0491559086204984
100
AcDbArc
 50
180.0
 51
270.0
  0
LINE
  5
234
330
2
100
AcDbEntity
  8
AGCASE
  6
HIDDEN2
 62
     4
100
AcDbLine
 10
63.81929647957583
 20
22.37491996126037
 30
0.0
 11
63.81929647957581
 21
22.40967666432536
 31
0.0
  0
LINE
  5
235
330
2
100
AcDbEntity
  8
AGCASE
  6
HIDDEN2
 62
     4
100
AcDbLine
 10
64.22594990543633
 20
22.67680059979009
 30
0.0
 11
63.7314116732543
 21
22.66816840283787
 31
0.0
  0
LINE
  5
236
330
2
100
AcDbEntity
  8
AGCASE
  6
HIDDEN2
 62
     4
100
AcDbLine
 10
64.22594990543633
 20
22.86549215261263
 30
0.0
 11
63.7314116732543
 21
22.87412434956486
 31
0.0
  0
ARC
  5
237
330
2
100
AcDbEntity
  8
AGBASE
  6
HIDDEN2
 62
     4
100
AcDbCircle
 10
64.25735506980931
 20
22.88236782600935
 30
0.0
 40
0.015888778544
100
AcDbArc
 50
89.99999999999873
 51
269.9999999999987
  0
ARC
  5
238
330
2
100
AcDbEntity
  8
AGBASE
  6
HIDDEN2
 62
     4
100
AcDbCircle
 10
64.25735506980931
 20
22.65893187773436
 30
0.0
 40
0.015888778544
100
AcDbArc
 50
89.99999999999955
 51
269.9999999999995
  0
LINE
  5
239
330
2
100
AcDbEntity
  8
AGBASE
  6
HIDDEN2
 62
     4
100
AcDbLine
 10
64.24146629126531
 20
22.88236782600935
 30
0.0
 11
64.24146629126531
 21
22.65893187773436
 31
0.0
  0
LINE
  5
23A
330
2
100
AcDbEntity
  8
AGBASE
  6
HIDDEN2
 62
     4
100
AcDbLine
 10
64.25735506980931
 20
22.86647904746536
 30
0.0
 11
64.25735506980931
 21
22.67482065627836
 31
0.0
  0
ARC
  5
23B
330
2
100
AcDbEntity
  8
AGBASE
  6
HIDDEN2
 62
     4
100
AcDbCircle
 10
64.47235010448287
 20
22.45883257294586
 30
0.0
 40
0.0491559086204984
100
AcDbArc
 50
270.0
 51
0.0
  0
LINE
  5
23C
330
2
100
AcDbEntity
  8
AGBASE
  6
HIDDEN2
 62
     4
100
AcDbLine
 10
64.45497175295037
 20
22.59537676355835
 30
0.0
 11
64.45497175295037
 21
22.94592294018535
 31
0.0
  0
LINE
  5
23D
330
2
100
AcDbEntity
  8
AGBASE
  6
HIDDEN2
 62
     4
100
AcDbLine
 10
64.52150601310336
 20
22.59421540372743
 30
0.0
 11
64.45497175295037
 21
22.59537676355835
 31
0.0
  0
LINE
  5
23E
330
2
100
AcDbEntity
  8
AGBASE
  6
HIDDEN2
 62
     4
100
AcDbLine
 10
64.52150601310336
 20
22.94708430001627
 30
0.0
 11
64.45497175295037
 21
22.94592294018535
 31
0.0
  0
LWPOLYLINE
  5
23F
330
2
100
AcDbEntity
  8
AGBASE
  6
HIDDEN2
 62
     4
100
AcDbPolyline
 90
        5
 70
     0
 43
0.0
 10
64.54415811477193
 20
22.77064985187185
 42
-0.0580466017354569
 10
64.54960492701144
 20
22.81740934807506
 42
-0.0716918880105696
 10
64.56359258242096
 20
22.85293791134377
 42
-0.1064813979651179
 10
64.58739096432982
 20
22.87951108694536
 42
-0.1583709044631721
 10
64.61051153779672
 20
22.8870227415984
 42
-0.1583709044632171
  0
LWPOLYLINE
  5
240
330
2
100
AcDbEntity
  8
AGBASE
  6
HIDDEN2
 62
     4
100
AcDbPolyline
 90
        5
 70
     0
 43
0.0
 10
64.61051153779672
 20
22.6542769621453
 42
-0.1583709044632171
 10
64.58739096432982
 20
22.66178861679833
 42
-0.1064813979651924
 10
64.56359258242096
 20
22.68836179239993
 42
-0.0716918880105696
 10
64.54960492701144
 20
22.72389035566865
 42
-0.0580466017354569
 10
64.54415811477193
 20
22.77064985187185
 42
-0.0580466017354569
  0
LWPOLYLINE
  5
241
330
2
100
AcDbEntity
  8
AGBASE
  6
HIDDEN2
 62
     4
100
AcDbPolyline
 90
        9
 70
     0
 43
0.0
 10
64.61051153779672
 20
22.8870227415984
 42
-0.2977322976193309
 10
64.61617769134602
 20
22.88332057059301
 42
-0.0584664714595036
 10
64.6254596337362
 20
22.85293791134377
 42
-0.026154332991021
 10
64.62984649800905
 20
22.81869048186847
 42
-0.0187778906522009
 10
64.63165133780599
 20
22.77064985187185
 42
-0.0187778906521601
 10
64.62984649800905
 20
22.72260922187522
 42
-0.0261543329909499
 10
64.6254596337362
 20
22.68836179239993
 42
-0.0584664714595578
 10
64.61617769134601
 20
22.65797913315068
 42
-0.2977322976194862
 10
64.61051153779672
 20
22.6542769621453
 42
-0.2977322976194133
  0
LINE
  5
242
330
2
100
AcDbEntity
  8
AGBASE
  6
HIDDEN2
 62
     4
100
AcDbLine
 10
64.44355169337185
 20
22.63979060473011
 30
0.0
 11
64.45497175295037
 21
22.63959126684868
 31
0.0
  0
LINE
  5
243
330
2
100
AcDbEntity
  8
AGBASE
  6
HIDDEN2
 62
     4
100
AcDbLine
 10
64.48927898595986
 20
22.69276231618615
 30
0.0
 11
64.48927898595986
 21
22.84853738755756
 31
0.0
  0
LINE
  5
244
330
2
100
AcDbEntity
  8
AGBASE
  6
HIDDEN2
 62
     4
100
AcDbLine
 10
64.53355132138918
 20
22.88702274159842
 30
0.0
 11
64.53355132138918
 21
22.65427696214529
 31
0.0
  0
LINE
  5
245
330
2
100
AcDbEntity
  8
AGBASE
  6
HIDDEN2
 62
     4
100
AcDbLine
 10
64.48927898595986
 20
22.84853738755757
 30
0.0
 11
64.53355132138918
 21
22.88702274159842
 31
0.0
  0
LINE
  5
246
330
2
100
AcDbEntity
  8
AGBASE
  6
HIDDEN2
 62
     4
100
AcDbLine
 10
64.48927898595986
 20
22.69276231618615
 30
0.0
 11
64.53355132138918
 21
22.65427696214529
 31
0.0
  0
LINE
  5
247
330
2
100
AcDbEntity
  8
AGBASE
  6
HIDDEN2
 62
     4
100
AcDbLine
 10
64.53355132138918
 20
22.65427696214529
 30
0.0
 11
64.61051153779672
 21
22.6542769621453
 31
0.0
  0
LINE
  5
248
330
2
100
AcDbEntity
  8
AGBASE
  6
HIDDEN2
 62
     4
100
AcDbLine
 10
64.53355132138918
 20
22.88702274159842
 30
0.0
 11
64.61051153779672
 21
22.88702274159829
 31
0.0
  0
LINE
  5
249
330
2
100
AcDbEntity
  8
AGBASE
  6
HIDDEN2
 62
     4
100
AcDbLine
 10
64.62180392766237
 20
22.66191102371136
 30
0.0
 11
64.63173441425237
 21
22.66191102371136
 31
0.0
  0
LINE
  5
24A
330
2
100
AcDbEntity
  8
AGBASE
  6
HIDDEN2
 62
     4
100
AcDbLine
 10
64.62180392766237
 20
22.64353962351986
 30
0.0
 11
64.63173441425237
 21
22.64353962351986
 31
0.0
  0
LINE
  5
24B
330
2
100
AcDbEntity
  8
AGBASE
  6
HIDDEN2
 62
     4
100
AcDbLine
 10
64.44355169337185
 20
22.37491996126037
 30
0.0
 11
64.44355169337185
 21
22.40967666432537
 31
0.0
  0
LINE
  5
24C
330
2
100
AcDbEntity
  8
AGBASE
  6
HIDDEN2
 62
     4
100
AcDbLine
 10
64.62180392766237
 20
23.14800834229186
 30
0.0
 11
64.63173441425237
 21
23.14800834229186
 31
0.0
  0
LINE
  5
24D
330
2
100
AcDbEntity
  8
AGCASE
100
AcDbLine
 10
60.39121906488549
 20
26.2208381224809
 30
0.0
 11
57.271113268477
 21
26.2208381224809
 31
0.0
  0
LINE
  5
24E
330
2
100
AcDbEntity
  8
AGCASE
 62
     4
100
AcDbLine
 10
60.07320067793482
 20
25.98341652209162
 30
0.0
 11
57.58913165542767
 21
25.98341652209162
 31
0.0
  0
LINE
  5
250
330
2
100
AcDbEntity
  8
AGCASE
 62
     4
100
AcDbLine
 10
56.08141442991026
 20
24.39577398232537
 30
0.0
 11
61.58091790345227
 21
24.39577398232537
 31
0.0
  0
LINE
  5
251
330
2
100
AcDbEntity
  8
AGCASE
  6
CENTER
 62
     1
100
AcDbLine
 10
56.0811661677455
 20
24.27064985129136
 30
0.0
 11
61.581166165617
 21
24.27064985129136
 31
0.0
  0
LINE
  5
252
330
2
100
AcDbEntity
  8
AGBASE
  6
CENTER
 62
     1
100
AcDbLine
 10
55.9811661677455
 20
24.27064985129136
 30
0.0
 11
61.68116616561699
 21
24.27064985129136
 31
0.0
  0
ARC
  5
253
330
2
100
AcDbEntity
  8
AGCASE
 62
     4
100
AcDbCircle
 10
58.9951496676683
 20
24.39577398232536
 30
0.0
 40
2.162409832179816
100
AcDbArc
 50
147.26675917637
 51
180.0
  0
ARC
  5
254
330
2
100
AcDbEntity
  8
AGCASE
 62
     4
100
AcDbCircle
 10
59.34756236081242
 20
24.39577398232536
 30
0.0
 40
2.267140979948176
100
AcDbArc
 50
145.0950965715171
 51
180.0
  0
LWPOLYLINE
  5
255
330
2
100
AcDbEntity
  8
AGCASE
 62
     4
100
AcDbPolyline
 90
        3
 70
     0
 43
0.0
 10
57.38366324116316
 20
25.79967589158816
 42
0.0997547431647625
 10
56.937321125079
 20
25.15306351226693
 42
0.1016781047425681
 10
56.7817128504458
 20
24.39577398232534
  0
CIRCLE
  5
256
330
2
100
AcDbEntity
  8
AGCASE
  6
HIDDEN2
 62
     4
100
AcDbCircle
 10
56.70604203642126
 20
25.77064985071086
 30
0.0
 40
0.04518371398449
  0
CIRCLE
  5
257
330
2
100
AcDbEntity
  8
AGCASE
  6
HIDDEN2
 62
     4
100
AcDbCircle
 10
56.70604203642126
 20
25.77064985071086
 30
0.0
 40
0.0386835656771053
  0
ARC
  5
258
330
2
100
AcDbEntity
  8
AGCASE
 62
     4
100
AcDbCircle
 10
56.40737272762986
 20
26.23123253391764
 30
0.0
 40
1.207463017714067
100
AcDbArc
 50
333.5319831463383
 51
349.3381432734518
  0
CIRCLE
  5
259
330
2
100
AcDbEntity
  8
AGCASE
  6
HIDDEN2
 62
     4
100
AcDbCircle
 10
56.70604203642126
 20
25.77064985071086
 30
0.0
 40
0.102977973363489
  0
CIRCLE
  5
25A
330
2
100
AcDbEntity
  8
AGCASE
  6
HIDDEN2
 62
     4
100
AcDbCircle
 10
56.70604203642126
 20
25.77064985071086
 30
0.0
 40
0.0938430982754965
  0
CIRCLE
  5
25B
330
2
100
AcDbEntity
  8
AGBASE
  6
HIDDEN2
 62
     4
100
AcDbCircle
 10
56.70604203642125
 20
25.77064985071086
 30
0.0
 40
0.0575968222220104
  0
CIRCLE
  5
25C
330
2
100
AcDbEntity
  8
AGBASE
  6
HIDDEN2
 62
     4
100
AcDbCircle
 10
56.70604203642125
 20
25.77064985071086
 30
0.0
 40
0.077887535685713
  0
ARC
  5
25D
330
2
100
AcDbEntity
  8
AGBASE
  6
HIDDEN2
 62
     4
100
AcDbCircle
 10
56.70604203642125
 20
25.77064985071086
 30
0.0
 40
0.1764344481444161
100
AcDbArc
 50
236.098795943746
 51
46.89671178072962
  0
CIRCLE
  5
25E
330
2
100
AcDbEntity
  8
AGBASE
  6
HIDDEN2
 62
     4
100
AcDbCircle
 10
56.70604203642125
 20
25.77064985071086
 30
0.0
 40
0.1310585850231843
  0
CIRCLE
  5
25F
330
2
100
AcDbEntity
  8
AGBASE
  6
HIDDEN2
 62
     4
100
AcDbCircle
 10
56.70604203642125
 20
25.77064985071086
 30
0.0
 40
0.1276043327435692
  0
CIRCLE
  5
260
330
2
100
AcDbEntity
  8
AGBASE
  6
HIDDEN2
 62
     4
100
AcDbCircle
 10
56.70604203642125
 20
25.77064985071086
 30
0.0
 40
0.1163728897265643
  0
CIRCLE
  5
261
330
2
100
AcDbEntity
  8
AGBASE
  6
HIDDEN2
 62
     4
100
AcDbCircle
 10
56.70604203642125
 20
25.77064985071086
 30
0.0
 40
0.095829195593499
  0
ARC
  5
262
330
2
100
AcDbEntity
  8
AGBASE
  6
HIDDEN2
 62
     4
100
AcDbCircle
 10
56.70604203642125
 20
25.77064985071086
 30
0.0
 40
0.175273088313499
100
AcDbArc
 50
215.9257902623959
 51
67.06971746207956
  0
LINE
  5
263
330
2
100
AcDbEntity
  8
AGCASE
 62
     4
100
AcDbLine
 10
56.37401679139219
 20
25.72151142260694
 30
0.0
 11
56.6336435321017
 21
25.58317217411447
 31
0.0
  0
LINE
  5
264
330
2
100
AcDbEntity
  8
AGCASE
 62
     4
100
AcDbLine
 10
56.16385122928458
 20
25.15178065291965
 30
0.0
 11
56.45112087172453
 21
25.08837761910162
 31
0.0
  0
ARC
  5
265
330
2
100
AcDbEntity
  8
AGBASE
  6
HIDDEN2
 62
     4
100
AcDbCircle
 10
56.68990201788133
 20
25.74985463121689
 30
0.0
 40
0.1501828627677503
100
AcDbArc
 50
213.1131241928244
 51
236.7845439644186
  0
CIRCLE
  5
266
330
2
100
AcDbEntity
  8
AGBASE
  6
HIDDEN2
 62
     4
100
AcDbCircle
 10
56.95604203622774
 20
25.52089811297236
 30
0.0
 40
0.0429998304865607
  0
CIRCLE
  5
267
330
2
100
AcDbEntity
  8
AGBASE
  6
HIDDEN2
 62
     4
100
AcDbCircle
 10
56.95604203622774
 20
25.52089811297236
 30
0.0
 40
0.0982111979380686
  0
CIRCLE
  5
268
330
2
100
AcDbEntity
  8
AGBASE
  6
HIDDEN2
 62
     4
100
AcDbCircle
 10
56.95604203622774
 20
25.52089811297236
 30
0.0
 40
0.0938430982755
  0
CIRCLE
  5
269
330
2
100
AcDbEntity
  8
AGBASE
  6
HIDDEN2
 62
     4
100
AcDbCircle
 10
56.95604203622774
 20
25.52089811297236
 30
0.0
 40
0.0451837139845
  0
LINE
  5
26B
330
2
100
AcDbEntity
  8
AGCASE
 62
     4
100
AcDbLine
 10
56.73726463730073
 20
26.15295872879945
 30
0.0
 11
56.91781681430195
 21
25.92069873752883
 31
0.0
  0
ARC
  5
26C
330
2
100
AcDbEntity
  8
AGBASE
  6
HIDDEN2
 62
     4
100
AcDbCircle
 10
56.72267516134378
 20
25.79105280411427
 30
0.0
 40
0.1501828627677634
100
AcDbArc
 50
46.21096376005893
 51
69.88238353164793
  0
ARC
  5
26D
330
2
100
AcDbEntity
  8
AGCASE
 62
     4
100
AcDbCircle
 10
57.2620045961461
 20
25.82239063447427
 30
0.0
 40
0.3985515883927964
100
AcDbArc
 50
35.86343950930934
 51
88.6904231722954
  0
ARC
  5
26E
330
2
100
AcDbEntity
  8
AGCASE
 62
     4
100
AcDbCircle
 10
57.47485714750244
 20
25.98979961263149
 30
0.0
 40
0.015516385296875
100
AcDbArc
 50
331.4367286641766
 51
89.77563990090088
  0
ARC
  5
26F
330
2
100
AcDbEntity
  8
AGCASE
 62
     4
100
AcDbCircle
 10
57.53858326210924
 20
26.02233135975369
 30
0.0
 40
0.0572715683341864
100
AcDbArc
 50
345.3399506789695
 51
35.86343950930924
  0
LINE
  5
270
330
2
100
AcDbEntity
  8
AGCASE
 62
     4
100
AcDbLine
 10
57.08042138086426
 20
26.27064985051735
 30
0.0
 11
57.08042138086426
 21
25.97646658762683
 31
0.0
  0
ARC
  5
271
330
2
100
AcDbEntity
  8
AGCASE
 62
     4
100
AcDbCircle
 10
57.40558221415093
 20
25.4124924734595
 30
0.0
 40
0.5968643299667367
100
AcDbArc
 50
83.32908338642026
 51
109.1094397841086
  0
ARC
  5
272
330
2
100
AcDbEntity
  8
AGCASE
 62
     4
100
AcDbCircle
 10
55.39713106344778
 20
27.06081453280577
 30
0.0
 40
2.353036498966978
100
AcDbArc
 50
327.5908103474713
 51
332.7215189914007
  0
ARC
  5
273
330
2
100
AcDbEntity
  8
AGCASE
 62
     4
100
AcDbCircle
 10
58.66718266569421
 20
24.39577398232536
 30
0.0
 40
2.162409832179816
100
AcDbArc
 50
0.0
 51
32.73324082362994
  0
ARC
  5
274
330
2
100
AcDbEntity
  8
AGCASE
 62
     4
100
AcDbCircle
 10
58.31476997255007
 20
24.39577398232536
 30
0.0
 40
2.267140979948176
100
AcDbArc
 50
0.0
 51
34.90490342848286
  0
LWPOLYLINE
  5
275
330
2
100
AcDbEntity
  8
AGCASE
 62
     4
100
AcDbPolyline
 90
        3
 70
     0
 43
0.0
 10
60.8806194829167
 20
24.39577398232534
 42
0.1016781047424649
 10
60.72501120828382
 20
25.1530635122662
 42
0.0997547431648647
 10
60.27866909219933
 20
25.79967589158814
 42
0.0971499687390033
  0
CIRCLE
  5
276
330
2
100
AcDbEntity
  8
AGCASE
  6
HIDDEN2
 62
     4
100
AcDbCircle
 10
60.95629029694126
 20
25.77064985071086
 30
0.0
 40
0.0386835656771053
  0
CIRCLE
  5
277
330
2
100
AcDbEntity
  8
AGCASE
  6
HIDDEN2
 62
     4
100
AcDbCircle
 10
60.95629029694126
 20
25.77064985071086
 30
0.0
 40
0.04518371398449
  0
CIRCLE
  5
278
330
2
100
AcDbEntity
  8
AGCASE
  6
HIDDEN2
 62
     4
100
AcDbCircle
 10
60.95629029694126
 20
25.77064985071086
 30
0.0
 40
0.0938430982754965
  0
CIRCLE
  5
279
330
2
100
AcDbEntity
  8
AGCASE
  6
HIDDEN2
 62
     4
100
AcDbCircle
 10
60.95629029694126
 20
25.77064985071086
 30
0.0
 40
0.102977973363489
  0
ARC
  5
27A
330
2
100
AcDbEntity
  8
AGBASE
  6
HIDDEN2
 62
     4
100
AcDbCircle
 10
60.95629029694125
 20
25.77064985071086
 30
0.0
 40
0.175273088313499
100
AcDbArc
 50
112.9302825379204
 51
324.074209737604
  0
CIRCLE
  5
27B
330
2
100
AcDbEntity
  8
AGBASE
  6
HIDDEN2
 62
     4
100
AcDbCircle
 10
60.95629029694125
 20
25.77064985071086
 30
0.0
 40
0.1310585850231843
  0
CIRCLE
  5
27C
330
2
100
AcDbEntity
  8
AGBASE
  6
HIDDEN2
 62
     4
100
AcDbCircle
 10
60.95629029694125
 20
25.77064985071086
 30
0.0
 40
0.1276043327435692
  0
ARC
  5
27D
330
2
100
AcDbEntity
  8
AGBASE
  6
HIDDEN2
 62
     4
100
AcDbCircle
 10
60.95629029694125
 20
25.77064985071086
 30
0.0
 40
0.1764344481444161
100
AcDbArc
 50
133.1032882192703
 51
303.901204056254
  0
CIRCLE
  5
27E
330
2
100
AcDbEntity
  8
AGBASE
  6
HIDDEN2
 62
     4
100
AcDbCircle
 10
60.95629029694125
 20
25.77064985071086
 30
0.0
 40
0.1163728897265643
  0
CIRCLE
  5
27F
330
2
100
AcDbEntity
  8
AGBASE
  6
HIDDEN2
 62
     4
100
AcDbCircle
 10
60.95629029694125
 20
25.77064985071086
 30
0.0
 40
0.0575968222220104
  0
CIRCLE
  5
280
330
2
100
AcDbEntity
  8
AGBASE
  6
HIDDEN2
 62
     4
100
AcDbCircle
 10
60.95629029694125
 20
25.77064985071086
 30
0.0
 40
0.077887535685713
  0
CIRCLE
  5
281
330
2
100
AcDbEntity
  8
AGBASE
  6
HIDDEN2
 62
     4
100
AcDbCircle
 10
60.95629029694125
 20
25.77064985071086
 30
0.0
 40
0.095829195593499
  0
ARC
  5
282
330
2
100
AcDbEntity
  8
AGCASE
 62
     4
100
AcDbCircle
 10
61.25495960573263
 20
26.23123253391764
 30
0.0
 40
1.207463017714067
100
AcDbArc
 50
190.6618567265481
 51
206.4680168536506
  0
CIRCLE
  5
283
330
2
100
AcDbEntity
  8
AGBASE
  6
HIDDEN2
 62
     4
100
AcDbCircle
 10
60.70629029713476
 20
25.52089811297235
 30
0.0
 40
0.0429998304865607
  0
CIRCLE
  5
284
330
2
100
AcDbEntity
  8
AGBASE
  6
HIDDEN2
 62
     4
100
AcDbCircle
 10
60.70629029713476
 20
25.52089811297235
 30
0.0
 40
0.0982111979380686
  0
CIRCLE
  5
285
330
2
100
AcDbEntity
  8
AGBASE
  6
HIDDEN2
 62
     4
100
AcDbCircle
 10
60.70629029713476
 20
25.52089811297235
 30
0.0
 40
0.0938430982755
  0
CIRCLE
  5
286
330
2
100
AcDbEntity
  8
AGBASE
  6
HIDDEN2
 62
     4
100
AcDbCircle
 10
60.70629029713476
 20
25.52089811297235
 30
0.0
 40
0.0451837139845
  0
ARC
  5
288
330
2
100
AcDbEntity
  8
AGCASE
 62
     4
100
AcDbCircle
 10
60.40032773721641
 20
25.82239063447427
 30
0.0
 40
0.3985515883927964
100
AcDbArc
 50
91.30957682770461
 51
144.1365604906906
  0
ARC
  5
289
330
2
100
AcDbEntity
  8
AGCASE
 62
     4
100
AcDbCircle
 10
60.12374907125327
 20
26.02233135975369
 30
0.0
 40
0.0572715683341864
100
AcDbArc
 50
144.1365604906907
 51
194.6600493210304
  0
LINE
  5
28A
330
2
100
AcDbEntity
  8
AGCASE
 62
     4
100
AcDbLine
 10
60.92506769606177
 20
26.15295872879945
 30
0.0
 11
60.74451551906056
 21
25.92069873752883
 31
0.0
  0
LINE
  5
28B
330
2
100
AcDbEntity
  8
AGCASE
 62
     4
100
AcDbLine
 10
60.58191095249825
 20
26.27064985051735
 30
0.0
 11
60.58191095249825
 21
25.97646658762683
 31
0.0
  0
ARC
  5
28C
330
2
100
AcDbEntity
  8
AGCASE
 62
     4
100
AcDbCircle
 10
60.25675011921158
 20
25.4124924734595
 30
0.0
 40
0.5968643299667367
100
AcDbArc
 50
70.89056021589136
 51
96.67091661357973
  0
ARC
  5
28D
330
2
100
AcDbEntity
  8
AGCASE
 62
     4
100
AcDbCircle
 10
60.18747518586006
 20
25.98979961263149
 30
0.0
 40
0.015516385296875
100
AcDbArc
 50
90.22436009909913
 51
208.5632713358233
  0
ARC
  5
28E
330
2
100
AcDbEntity
  8
AGCASE
 62
     4
100
AcDbCircle
 10
62.26520126991472
 20
27.06081453280577
 30
0.0
 40
2.353036498966978
100
AcDbArc
 50
207.2784810085992
 51
212.4091896525285
  0
ARC
  5
28F
330
2
100
AcDbEntity
  8
AGBASE
  6
HIDDEN2
 62
     4
100
AcDbCircle
 10
60.93965717201871
 20
25.79105280411427
 30
0.0
 40
0.1501828627677634
100
AcDbArc
 50
110.117616468352
 51
133.789036239941
  0
LINE
  5
290
330
2
100
AcDbEntity
  8
AGCASE
 62
     4
100
AcDbLine
 10
61.28831554197031
 20
25.72151142260694
 30
0.0
 11
61.02868880126079
 21
25.58317217411447
 31
0.0
  0
LINE
  5
291
330
2
100
AcDbEntity
  8
AGCASE
 62
     4
100
AcDbLine
 10
61.49848110407791
 20
25.15178065291967
 30
0.0
 11
61.21121146163797
 21
25.08837761910164
 31
0.0
  0
ARC
  5
292
330
2
100
AcDbEntity
  8
AGBASE
  6
HIDDEN2
 62
     4
100
AcDbCircle
 10
60.97243031548116
 20
25.74985463121689
 30
0.0
 40
0.1501828627677503
100
AcDbArc
 50
303.2154560355813
 51
326.8868758071755
  0
ARC
  5
293
330
2
100
AcDbEntity
  8
AGCASE
100
AcDbCircle
 10
71.17863186943967
 20
24.39577398232522
 30
0.0
 40
7.778898448291329
100
AcDbArc
 50
171.3548825222447
 51
179.9999999999991
  0
LWPOLYLINE
  5
294
330
2
100
AcDbEntity
  8
AGCASE
  6
HIDDEN2
 62
     4
100
AcDbPolyline
 90
        5
 70
     0
 43
0.0
 10
63.91225071058895
 20
26.1621030520738
 42
0.1307682207884886
 10
63.82063489306514
 20
26.13513838282719
 42
0.1488184268804247
 10
63.64748820166609
 20
25.94128112774834
 42
0.0725461217493406
 10
63.4110405142887
 20
25.14521176156716
 42
0.0359858066567737
 10
63.35703232881136
 20
24.39577398232536
 42
0.0359858066567737
  0
LWPOLYLINE
  5
295
330
2
100
AcDbEntity
  8
AGCASE
100
AcDbPolyline
 90
        5
 70
     0
 43
0.0
 10
63.90962521726414
 20
26.26236659704248
 42
0.130768220788425
 10
63.76852705979439
 20
26.2208381224809
 42
0.1488184268804929
 10
63.55647018032735
 20
25.98341652209162
 42
0.0725461217493266
 10
63.31177898277232
 20
25.159593000245
 42
0.0359858066567777
 10
63.25673441425236
 20
24.39577398232536
 42
0.0359858066567777
  0
LINE
  5
296
330
2
100
AcDbEntity
  8
AGCASE
  6
CENTER
 62
     1
 48
0.5
100
AcDbLine
 10
63.15673441425237
 20
24.27064985129136
 30
0.0
 11
64.32594990543631
 21
24.27064985129136
 31
0.0
  0
LINE
  5
297
330
2
100
AcDbEntity
  8
AGBASE
  6
CENTER2
 62
     1
 48
0.5
100
AcDbLine
 10
64.09578605295131
 20
24.27064985129136
 30
0.0
 11
64.73173441425237
 21
24.27064985129136
 31
0.0
  0
LINE
  5
299
330
2
100
AcDbEntity
  8
AGCASE
  6
HIDDEN2
 62
     4
100
AcDbLine
 10
63.25673441425236
 20
24.31831618692336
 30
0.0
 11
63.26666490084235
 21
24.31831618692336
 31
0.0
  0
LINE
  5
29A
330
2
100
AcDbEntity
  8
AGCASE
  6
HIDDEN2
 62
     4
100
AcDbLine
 10
63.25673441425236
 20
24.34910069535236
 30
0.0
 11
63.26666490084235
 21
24.34910069535236
 31
0.0
  0
LINE
  5
29B
330
2
100
AcDbEntity
  8
AGCASE
 62
     4
100
AcDbLine
 10
63.25673441425236
 20
24.39577398232533
 30
0.0
 11
64.22594990543633
 21
24.39577398232533
 31
0.0
  0
LINE
  5
29C
330
2
100
AcDbEntity
  8
AGBASE
  6
HIDDEN2
 62
     4
100
AcDbLine
 10
64.27125775103539
 20
25.61474121124786
 30
0.0
 11
64.52150601310339
 21
25.61910931091042
 31
0.0
  0
LINE
  5
29D
330
2
100
AcDbEntity
  8
AGBASE
  6
HIDDEN2
 62
     4
100
AcDbLine
 10
64.25735506980931
 20
25.71305302848885
 30
0.0
 11
64.48927898595989
 21
25.69276231502515
 31
0.0
  0
LINE
  5
29E
330
2
100
AcDbEntity
  8
AGBASE
  6
HIDDEN2
 62
     4
100
AcDbLine
 10
64.25735506980931
 20
25.82824667293285
 30
0.0
 11
64.48927898595989
 21
25.84853738639656
 31
0.0
  0
LINE
  5
29F
330
2
100
AcDbEntity
  8
AGBASE
  6
HIDDEN2
 62
     4
100
AcDbLine
 10
64.25707777238837
 20
25.64304551796729
 30
0.0
 11
64.45497175295037
 21
25.63959126568767
 31
0.0
  0
LINE
  5
2A0
330
2
100
AcDbEntity
  8
AGBASE
  6
HIDDEN2
 62
     4
100
AcDbLine
 10
64.27125775103539
 20
25.56608182695686
 30
0.0
 11
64.52150601310338
 21
25.56389794345892
 31
0.0
  0
LINE
  5
2A1
330
2
100
AcDbEntity
  8
AGBASE
  6
HIDDEN2
 62
     4
100
AcDbLine
 10
64.27125775103539
 20
25.47571439898786
 30
0.0
 11
64.52150601310338
 21
25.47789828248578
 31
0.0
  0
LINE
  5
2A2
330
2
100
AcDbEntity
  8
AGBASE
  6
HIDDEN2
 62
     4
100
AcDbLine
 10
64.27125775103539
 20
25.42705501469686
 30
0.0
 11
64.52150601310339
 21
25.42268691503428
 31
0.0
  0
LINE
  5
2A3
330
2
100
AcDbEntity
  8
AGBASE
  6
HIDDEN2
 62
     4
100
AcDbLine
 10
64.25707777238837
 20
25.89825418345442
 30
0.0
 11
64.44355169337187
 21
25.9015090978526
 31
0.0
  0
ARC
  5
2A4
330
2
100
AcDbEntity
  8
AGBASE
100
AcDbCircle
 10
64.25735506980936
 20
25.89614217164634
 30
0.0
 40
0.374379344443
100
AcDbArc
 50
359.9999999999999
 51
88.5000000000004
  0
ARC
  5
2A5
330
2
100
AcDbEntity
  8
AGBASE
  6
HIDDEN2
 62
     4
100
AcDbCircle
 10
64.25238982651436
 20
25.90123913646096
 30
0.0
 40
0.2691161865890001
100
AcDbArc
 50
359.9999999999999
 51
88.50000000000362
  0
LINE
  5
2A6
330
2
100
AcDbEntity
  8
AGCASE
  6
HIDDEN2
 62
     4
100
AcDbLine
 10
63.88235506942232
 20
25.73146976070425
 30
0.0
 11
63.88235506942232
 21
25.80883689205845
 31
0.0
  0
LINE
  5
2A7
330
2
100
AcDbEntity
  8
AGCASE
100
AcDbLine
 10
64.25474831654732
 20
25.67631022810585
 30
0.0
 11
64.25474831654732
 21
25.86399642465685
 31
0.0
  0
ARC
  5
2A8
330
2
100
AcDbEntity
  8
AGCASE
100
AcDbCircle
 10
64.70696483564101
 20
25.47374570824426
 30
0.0
 40
1.22226514658074
100
AcDbArc
 50
147.5243102350509
 51
175.7159411183268
  0
LINE
  5
2A9
330
2
100
AcDbEntity
  8
AGBASE
  6
HIDDEN2
 62
     4
100
AcDbLine
 10
64.24146629126531
 20
25.65893187657336
 30
0.0
 11
64.24146629126531
 21
25.88236782484836
 31
0.0
  0
LINE
  5
2AA
330
2
100
AcDbEntity
  8
AGBASE
  6
HIDDEN2
 62
     4
100
AcDbLine
 10
64.25735506980931
 20
25.67482065511735
 30
0.0
 11
64.25735506980931
 21
25.86647904630435
 31
0.0
  0
LINE
  5
2AB
330
2
100
AcDbEntity
  8
AGCASE
100
AcDbLine
 10
64.25474831654732
 20
25.67631022810585
 30
0.0
 11
64.22594990543633
 21
25.67580754997008
 31
0.0
  0
LINE
  5
2AC
330
2
100
AcDbEntity
  8
AGCASE
  6
HIDDEN2
 62
     4
100
AcDbLine
 10
64.25474831654732
 20
25.72496961239686
 30
0.0
 11
63.88235506942232
 21
25.73146976070425
 31
0.0
  0
LINE
  5
2AD
330
2
100
AcDbEntity
  8
AGCASE
  6
HIDDEN2
 62
     4
100
AcDbLine
 10
64.22594990543633
 20
25.67580754997008
 30
0.0
 11
63.73141167325432
 21
25.66717535301786
 31
0.0
  0
ARC
  5
2AE
330
2
100
AcDbEntity
  8
AGBASE
  6
HIDDEN2
 62
     4
100
AcDbCircle
 10
64.25735506980931
 20
25.65893187657336
 30
0.0
 40
0.015888778544
100
AcDbArc
 50
90.00000000000081
 51
270.0000000000008
  0
LINE
  5
2AF
330
2
100
AcDbEntity
  8
AGBASE
  6
HIDDEN2
 62
     4
100
AcDbLine
 10
64.27125775103539
 20
25.42705501469686
 30
0.0
 11
64.27125775103539
 21
25.61474121124786
 31
0.0
  0
LINE
  5
2B0
330
2
100
AcDbEntity
  8
AGCASE
  6
HIDDEN2
 62
     4
100
AcDbLine
 10
64.22594990543633
 20
26.22199046622636
 30
0.0
 11
64.19516539700733
 21
26.22199046622636
 31
0.0
  0
LINE
  5
2B1
330
2
100
AcDbEntity
  8
AGCASE
  6
HIDDEN2
 62
     4
100
AcDbLine
 10
64.19516539700733
 20
26.16951143386313
 30
0.0
 11
63.91225071058894
 21
26.16210305207379
 31
0.0
  0
LINE
  5
2B2
330
2
100
AcDbEntity
  8
AGCASE
  6
Continuous
100
AcDbLine
 10
64.22594990543633
 20
26.27064985051735
 30
0.0
 11
63.90962521726414
 21
26.26236659704248
 31
0.0
  0
LINE
  5
2B3
330
2
100
AcDbEntity
  8
AGCASE
100
AcDbLine
 10
64.25474831654732
 20
25.86399642465685
 30
0.0
 11
64.22594990543633
 21
25.86449910279263
 31
0.0
  0
ARC
  5
2B4
330
2
100
AcDbEntity
  8
AGCASE
100
AcDbCircle
 10
63.91711177248733
 20
25.97646658762684
 30
0.0
 40
0.2859980137920001
100
AcDbArc
 50
121.3007686957782
 51
180.0
  0
LINE
  5
2B5
330
2
100
AcDbEntity
  8
AGCASE
  6
HIDDEN2
 62
     4
100
AcDbLine
 10
64.22594990543633
 20
25.86449910279263
 30
0.0
 11
63.73141167325432
 21
25.87313129974484
 31
0.0
  0
LINE
  5
2B6
330
2
100
AcDbEntity
  8
AGCASE
  6
HIDDEN2
 62
     4
100
AcDbLine
 10
64.25474831654732
 20
25.81533704036585
 30
0.0
 11
63.88235506942232
 21
25.80883689205845
 31
0.0
  0
LINE
  5
2B7
330
2
100
AcDbEntity
  8
AGBASE
100
AcDbLine
 10
64.25735506980932
 20
26.27064985051735
 30
0.0
 11
64.26715517855638
 21
26.27039322563833
 31
0.0
  0
LINE
  5
2B8
330
2
100
AcDbEntity
  8
AGBASE
  6
HIDDEN2
 62
     4
100
AcDbLine
 10
64.19578605295132
 20
26.17192979603282
 30
0.0
 11
64.2594344670195
 21
26.17026310365414
 31
0.0
  0
LINE
  5
2B9
330
2
100
AcDbEntity
  8
AGBASE
  6
HIDDEN2
 62
     4
100
AcDbLine
 10
64.19578605295132
 20
26.22000436890835
 30
0.0
 11
64.25735506980932
 21
26.22000436890835
 31
0.0
  0
ARC
  5
2BA
330
2
100
AcDbEntity
  8
AGBASE
  6
HIDDEN2
 62
     4
100
AcDbCircle
 10
64.25735506980931
 20
25.88236782484836
 30
0.0
 40
0.015888778544
100
AcDbArc
 50
90.0
 51
270.0
  0
LINE
  5
2BB
330
2
100
AcDbEntity
  8
AGBASE
  6
HIDDEN2
 62
     4
100
AcDbLine
 10
64.45497175295037
 20
25.93207279179599
 30
0.0
 11
64.45497175295037
 21
25.59537676239736
 31
0.0
  0
LINE
  5
2BC
330
2
100
AcDbEntity
  8
AGBASE
  6
HIDDEN2
 62
     4
100
AcDbLine
 10
64.53355132138918
 20
25.6542769609843
 30
0.0
 11
64.53355132138918
 21
25.88702274043742
 31
0.0
  0
LINE
  5
2BD
330
2
100
AcDbEntity
  8
AGBASE
  6
HIDDEN2
 62
     4
100
AcDbLine
 10
64.48927898595989
 20
25.84853738639656
 30
0.0
 11
64.48927898595987
 21
25.69276231502515
 31
0.0
  0
LWPOLYLINE
  5
2BE
330
2
100
AcDbEntity
  8
AGBASE
  6
HIDDEN2
 62
     4
100
AcDbPolyline
 90
        5
 70
     0
 43
0.0
 10
64.54415811477196
 20
25.84309724816083
 42
0.036151698125854
 10
64.54975142267773
 20
25.7658394975154
 42
0.0483844419893875
 10
64.56359258242096
 20
25.7095811426728
 42
0.0916609058334399
 10
64.58981634142763
 20
25.66385908328861
 42
0.2202732167503361
 10
64.61051153779674
 20
25.65427696098442
 42
0.220273216750341
  0
LWPOLYLINE
  5
2BF
330
2
100
AcDbEntity
  8
AGBASE
  6
HIDDEN2
 62
     4
100
AcDbPolyline
 90
        5
 70
     0
 43
0.0
 10
64.61051153779674
 20
25.65427696098442
 42
0.3388819694945489
 10
64.61570619076463
 20
25.65825449317291
 42
0.0381224107369924
 10
64.6254520065198
 20
25.7095811426728
 42
0.0162812246703946
 10
64.62983127843159
 20
25.7649862383703
 42
0.0115798672616751
 10
64.63164055129311
 20
25.84309724816083
 42
0.0115798672616739
  0
LINE
  5
2C0
330
2
100
AcDbEntity
  8
AGBASE
  6
HIDDEN2
 62
     4
100
AcDbLine
 10
64.48927898595987
 20
25.69276231502515
 30
0.0
 11
64.53355132138918
 21
25.6542769609843
 31
0.0
  0
LINE
  5
2C1
330
2
100
AcDbEntity
  8
AGBASE
  6
HIDDEN2
 62
     4
100
AcDbLine
 10
64.53355132138918
 20
25.6542769609843
 30
0.0
 11
64.61051153779674
 21
25.65427696098442
 31
0.0
  0
LINE
  5
2C2
330
2
100
AcDbEntity
  8
AGBASE
  6
HIDDEN2
 62
     4
100
AcDbLine
 10
64.52150601310338
 20
25.59421540256645
 30
0.0
 11
64.45497175295037
 21
25.59537676239736
 31
0.0
  0
LWPOLYLINE
  5
2C3
330
2
100
AcDbEntity
  8
AGBASE
  6
HIDDEN2
 62
     4
100
AcDbPolyline
 90
        5
 70
     0
 43
0.0
 10
64.52150601310336
 20
25.62527282276428
 42
0.1447185696993633
 10
64.51702283743461
 20
25.6404377129639
 42
0.1071751219818525
 10
64.50201857948579
 20
25.65535161535553
 42
0.0776463186743459
 10
64.48152084235016
 20
25.66435482855653
 42
0.0648104110839882
 10
64.45497175295037
 20
25.66781065918664
 42
0.0648104110839882
  0
LINE
  5
2C4
330
2
100
AcDbEntity
  8
AGBASE
  6
HIDDEN2
 62
     4
100
AcDbLine
 10
64.52150601310336
 20
25.62527282276428
 30
0.0
 11
64.45497175295037
 21
25.62630795981768
 31
0.0
  0
LINE
  5
2C5
330
2
100
AcDbEntity
  8
AGBASE
  6
HIDDEN2
 62
     4
100
AcDbLine
 10
64.62180392766237
 20
25.69170248232035
 30
0.0
 11
64.63173441425237
 21
25.69170248232035
 31
0.0
  0
LINE
  5
2C6
330
2
100
AcDbEntity
  8
AGBASE
  6
HIDDEN2
 62
     4
100
AcDbLine
 10
64.62180392766237
 20
25.71057040684136
 30
0.0
 11
64.63173441425237
 21
25.71057040684136
 31
0.0
  0
LINE
  5
2C7
330
2
100
AcDbEntity
  8
AGBASE
  6
HIDDEN2
 62
     4
100
AcDbLine
 10
64.62180392766237
 20
25.20610168806936
 30
0.0
 11
64.63173441425237
 21
25.20610168806936
 31
0.0
  0
LINE
  5
2C8
330
2
100
AcDbEntity
  8
AGBASE
  6
HIDDEN2
 62
     4
100
AcDbLine
 10
64.48927898595989
 20
25.84853738639656
 30
0.0
 11
64.53355132138918
 21
25.88702274043742
 31
0.0
  0
LWPOLYLINE
  5
2C9
330
2
100
AcDbEntity
  8
AGBASE
  6
HIDDEN2
 62
     4
100
AcDbPolyline
 90
        5
 70
     0
 43
0.0
 10
64.61051153779674
 20
25.88702274043741
 42
0.0670070861035149
 10
64.58409738019881
 20
25.88346690344353
 42
0.0794494446676975
 10
64.56359258242096
 20
25.87415726161656
 42
0.1071393611422756
 10
64.54868330021179
 20
25.85886053049157
 42
0.140694359855135
 10
64.54415811477196
 20
25.84309724816083
 42
0.1406943598551575
  0
LWPOLYLINE
  5
2CA
330
2
100
AcDbEntity
  8
AGBASE
  6
HIDDEN2
 62
     4
100
AcDbPolyline
 90
        5
 70
     0
 43
0.0
 10
64.63164055129311
 20
25.84309724816083
 42
0.0492069721360399
 10
64.62988509552289
 20
25.86089152774475
 42
0.0630028852388956
 10
64.62545200651982
 20
25.87415726161656
 42
0.1032485352318464
 10
64.61760746846373
 20
25.88438856043091
 42
0.1796233304502331
 10
64.61051153779675
 20
25.88702274043741
 42
0.1796233304501235
  0
LINE
  5
2CB
330
2
100
AcDbEntity
  8
AGBASE
  6
HIDDEN2
 62
     4
100
AcDbLine
 10
64.53355132138918
 20
25.88702274043742
 30
0.0
 11
64.61051153779674
 21
25.88702274043741
 31
0.0
  0
LINE
  5
2CC
330
2
100
AcDbEntity
  8
AGBASE
  6
HIDDEN2
 62
     4
100
AcDbLine
 10
64.44355169337187
 20
25.9015090978526
 30
0.0
 11
64.45497175295037
 21
25.90170843573403
 31
0.0
  0
LINE
  5
2CD
330
2
100
AcDbEntity
  8
AGBASE
  6
HIDDEN2
 62
     4
100
AcDbLine
 10
64.52150601310336
 20
25.90079050536851
 30
0.0
 11
64.45497175295037
 21
25.89999082371917
 31
0.0
  0
LWPOLYLINE
  5
2CE
330
2
100
AcDbEntity
  8
AGBASE
  6
HIDDEN2
 62
     4
100
AcDbPolyline
 90
        5
 70
     0
 43
0.0
 10
64.52150752561412
 20
25.90079050536851
 42
0.18254399615945
 10
64.51756023902754
 20
25.91124210596197
 42
0.1026286888238406
 10
64.5020196489924
 20
25.9229104222324
 42
0.0618666621164852
 10
64.48195048906035
 20
25.92947024338683
 42
0.0481216336270441
 10
64.45497175295037
 20
25.93207279179599
 42
0.0481216336270473
  0
DIMENSION
  5
31E
330
2
100
AcDbEntity
  8
0
100
AcDbDimension
  2
*D3
 10
60.70629029713476
 20
21.61829399909123
 30
0.0
 11
58.83116616668125
 21
21.61829399909123
 31
0.0
 70
    32
  1
<>\P(2 PLCS.)
 71
     5
 42
3.750248260907007
  3
STANDARD
100
AcDbAlignedDimension
 13
56.95604203622774
 23
23.02040158961035
 33
0.0
 14
60.70629029713476
 24
23.02040158961035
 34
0.0
100
AcDbRotatedDimension
1001
ACAD
1000
DSTYLE
1002
{
1070
    42
1040
0.063
1070
    44
1040
0.1
1070
   140
1040
0.125
1070
   141
1040
0.0
1070
   176
1070
     1
1070
   177
1070
     1
1070
   178
1070
     4
1070
   271
1070
     3
1070
   272
1070
     3
1002
}
  0
DIMENSION
  5
341
330
2
100
AcDbEntity
  8
0
100
AcDbDimension
  2
*D4
 10
55.51784654536106
 20
23.02040158961036
 30
0.0
 11
55.51784654536106
 21
24.27064985129137
 31
0.0
 70
    32
  1
<>\P(2 PLCS.)
 71
     5
 42
2.500496523362002
  3
STANDARD
100
AcDbAlignedDimension
 13
56.95604203622774
 23
25.52089811297236
 33
0.0
 14
56.95604203622774
 24
23.02040158961035
 34
0.0
 50
90.0
100
AcDbRotatedDimension
1001
ACAD
1000
DSTYLE
1002
{
1070
    42
1040
0.063
1070
    44
1040
0.1
1070
   140
1040
0.125
1070
   141
1040
0.0
1070
   176
1070
     1
1070
   177
1070
     1
1070
   178
1070
     4
1070
   271
1070
     3
1070
   272
1070
     3
1002
}
  0
DIMENSION
  5
34F
330
2
100
AcDbEntity
  8
0
100
AcDbDimension
  2
*D5
 10
61.58066127857323
 20
18.65353205383311
 30
0.0
 11
58.71605789331002
 21
18.65353205383311
 31
0.0
 70
   160
  1
5.505
 71
     5
 42
5.498990223783948
  3
STANDARD
100
AcDbAlignedDimension
 13
56.08167105478928
 23
19.93678093771878
 33
0.0
 14
61.58066127857323
 24
19.93678093771878
 34
0.0
100
AcDbRotatedDimension
1001
ACAD
1000
DSTYLE
1002
{
1070
    42
1040
0.063
1070
    44
1040
0.1
1070
   140
1040
0.125
1070
   141
1040
0.0
1070
   176
1070
     1
1070
   177
1070
     1
1070
   178
1070
     4
1070
   271
1070
     3
1070
   272
1070
     3
1002
}
  0
DIMENSION
  5
35D
330
2
100
AcDbEntity
  8
0
100
AcDbDimension
  2
*D6
 10
65.11823199179151
 20
26.27064985051735
 30
0.0
 11
65.11823199179151
 21
24.27064985129137
 31
0.0
 70
    32
  1
4.005
 71
     5
 42
-1.0
  3
STANDARD
100
AcDbAlignedDimension
 13
64.25735506980931
 23
22.27064985206536
 33
0.0
 14
64.25735506980932
 24
26.27064985051735
 34
0.0
 50
270.0
100
AcDbRotatedDimension
1001
ACAD
1000
DSTYLE
1002
{
1070
    42
1040
0.063
1070
    44
1040
0.1
1070
   140
1040
0.125
1070
   141
1040
0.0
1070
   176
1070
     1
1070
   177
1070
     1
1070
   178
1070
     4
1070
   271
1070
     3
1070
   272
1070
     3
1002
}
  0
DIMENSION
  5
3BB
330
2
100
AcDbEntity
  8
0
100
AcDbDimension
  2
*D7
 10
55.0470094724833
 20
19.6824301031718
 30
0.0
 11
55.04700947248329
 21
20.0774772730963
 31
0.0
 70
    32
  1
<>\P(INSIDE DEPTH)
 71
     5
 42
0.7900943398490057
  3
STANDARD
100
AcDbAlignedDimension
 13
56.37559769280077
 23
20.4725244430208
 33
0.0
 14
56.45082514396666
 24
19.68243010317179
 34
0.0
 50
90.0
100
AcDbRotatedDimension
1001
ACAD
1000
DSTYLE
1002
{
1070
    42
1040
0.063
1070
    44
1040
0.1
1070
   140
1040
0.125
1070
   141
1040
0.0
1070
   176
1070
     1
1070
   177
1070
     1
1070
   178
1070
     4
1070
   271
1070
     3
1070
   272
1070
     3
1002
}
  0
DIMENSION
  5
3CA
330
2
100
AcDbEntity
  8
0
100
AcDbDimension
  2
*D8
 10
53.51768062324321
 20
19.6824301031718
 30
0.0
 11
53.5176806232432
 21
20.2646669453178
 31
0.0
 70
    32
  1
1.165\P(INSIDE DEPTH)
 71
     5
 42
1.164473684291994
  3
STANDARD
100
AcDbAlignedDimension
 13
57.08042138086425
 23
20.84690378746379
 33
0.0
 14
56.45082514396666
 24
19.68243010317179
 34
0.0
 50
90.0
100
AcDbRotatedDimension
1001
ACAD
1000
DSTYLE
1002
{
1070
    42
1040
0.063
1070
    44
1040
0.1
1070
   140
1040
0.125
1070
   141
1040
0.0
1070
   176
1070
     1
1070
   177
1070
     1
1070
   178
1070
     4
1070
   271
1070
     3
1070
   272
1070
     3
1002
}
  0
DIMENSION
  5
436
330
2
100
AcDbEntity
  8
0
100
AcDbDimension
  2
*D10
 10
62.14474453655967
 20
19.57220170202274
 30
0.0
 11
62.14474453655966
 21
20.0725120298013
 31
0.0
 70
    32
  1
1.000
 71
     5
 42
1.000620655557074
  3
STANDARD
100
AcDbAlignedDimension
 13
61.28673464056174
 23
20.57282235757982
 33
0.0
 14
61.20641022458124
 24
19.57220170202274
 34
0.0
 50
90.0
100
AcDbRotatedDimension
1001
ACAD
1000
DSTYLE
1002
{
1070
    42
1040
0.063
1070
    44
1040
0.1
1070
   140
1040
0.125
1070
   141
1040
0.0
1070
   176
1070
     1
1070
   177
1070
     1
1070
   178
1070
     4
1070
   271
1070
     3
1070
   272
1070
     3
1002
}
  0
DIMENSION
  5
44E
330
2
100
AcDbEntity
  8
0
100
AcDbDimension
  2
*D11
 10
59.97928558478008
 20
19.68243010317175
 30
0.0
 11
58.77297930920027
 21
19.1224937834545
 31
0.0
 70
   160
  1
<>\PMTG BOSS HEIGHT (4)
 71
     5
 42
0.2502482620680126
  3
STANDARD
100
AcDbAlignedDimension
 13
60.61244719885926
 23
19.93267836523976
 33
0.0
 14
60.60807909919669
 24
19.68243010317175
 34
0.0
 50
90.0
100
AcDbRotatedDimension
1001
ACAD
1000
DSTYLE
1002
{
1070
    42
1040
0.063
1070
    44
1040
0.1
1070
   140
1040
0.125
1070
   141
1040
0.0
1070
   176
1070
     1
1070
   177
1070
     1
1070
   178
1070
     4
1070
   271
1070
     3
1070
   272
1070
     3
1002
}
  0
DIMENSION
  5
4B1
330
2
100
AcDbEntity
  8
0
100
AcDbDimension
  2
*D12
 10
54.66112994640189
 20
22.77064985187186
 30
0.0
 11
54.66112994640188
 21
24.27064985129137
 31
0.0
 70
    32
  1
3.005\P(2 PLCS.)
 71
     5
 42
2.999999998839001
  3
STANDARD
100
AcDbAlignedDimension
 13
56.70604203642125
 23
25.77064985071086
 33
0.0
 14
56.33116616764875
 24
22.77064985187185
 34
0.0
 50
90.0
100
AcDbRotatedDimension
1001
ACAD
1000
DSTYLE
1002
{
1070
    42
1040
0.063
1070
    44
1040
0.1
1070
   140
1040
0.125
1070
   141
1040
0.0
1070
   176
1070
     1
1070
   177
1070
     1
1070
   178
1070
     4
1070
   271
1070
     3
1070
   272
1070
     3
1002
}
  0
DIMENSION
  5
4DD
330
2
100
AcDbEntity
  8
0
100
AcDbDimension
  2
*D13
 10
60.95629029694125
 20
26.57385293248196
 30
0.0
 11
58.83116616668125
 21
26.57385293248196
 31
0.0
 70
    32
 71
     5
 42
4.250248260519988
  3
STANDARD
100
AcDbAlignedDimension
 13
56.70604203642126
 23
25.77064985071086
 33
0.0
 14
60.95629029694125
 24
25.77064985071086
 34
0.0
100
AcDbRotatedDimension
1001
ACAD
1000
DSTYLE
1002
{
1070
    42
1040
0.063
1070
    44
1040
0.1
1070
   140
1040
0.125
1070
   141
1040
0.0
1070
   176
1070
     1
1070
   177
1070
     1
1070
   178
1070
     4
1070
   271
1070
     3
1070
   272
1070
     3
1002
}
  0
DIMENSION
  5
4EB
330
2
100
AcDbEntity
  8
0
100
AcDbDimension
  2
*D14
 10
61.33116616571376
 20
21.28818077348208
 30
0.0
 11
58.83116616668125
 21
21.28818077348208
 31
0.0
 70
    32
  1
5.010
 71
     5
 42
4.999999998065007
  3
STANDARD
100
AcDbAlignedDimension
 13
56.33116616764875
 23
22.77064985187185
 33
0.0
 14
61.33116616571376
 24
22.77064985187185
 34
0.0
100
AcDbRotatedDimension
1001
ACAD
1000
DSTYLE
1002
{
1070
    42
1040
0.063
1070
    44
1040
0.1
1070
   140
1040
0.125
1070
   141
1040
0.0
1070
   176
1070
     1
1070
   177
1070
     1
1070
   178
1070
     4
1070
   271
1070
     3
1070
   272
1070
     3
1002
}
  0
DIMENSION
  5
5CD
330
2
100
AcDbEntity
  8
0
100
AcDbDimension
  2
*D15
 10
57.19064978201326
 20
22.00420531198257
 30
0.0
 11
58.83116616668125
 21
22.00420531198257
 31
0.0
 70
    32
 71
     5
 42
3.281032769335993
  3
STANDARD
100
AcDbAlignedDimension
 13
60.47168255134925
 23
22.70858431068436
 33
0.0
 14
57.19064978201326
 24
22.70858431068435
 34
0.0
100
AcDbRotatedDimension
1001
ACAD
1000
DSTYLE
1002
{
1070
    42
1040
0.063
1070
    44
1040
0.1
1070
   140
1040
0.125
1070
   141
1040
0.0
1070
   176
1070
     1
1070
   177
1070
     1
1070
   178
1070
     4
1070
   271
1070
     3
1070
   272
1070
     3
1002
}
  0
DIMENSION
  5
5DB
330
2
100
AcDbEntity
  8
0
100
AcDbDimension
  2
*D16
 10
62.16787016559913
 20
22.56757140110635
 30
0.0
 11
62.16787016559912
 21
23.45833604822936
 31
0.0
 70
    32
 71
     5
 42
-1.0
  3
STANDARD
100
AcDbAlignedDimension
 13
60.33066964177126
 23
24.34910069535236
 33
0.0
 14
60.33066964177126
 24
22.56757140110635
 34
0.0
 50
90.0
100
AcDbRotatedDimension
1001
ACAD
1000
DSTYLE
1002
{
1070
    42
1040
0.063
1070
    44
1040
0.1
1070
   140
1040
0.125
1070
   141
1040
0.0
1070
   176
1070
     1
1070
   177
1070
     1
1070
   178
1070
     4
1070
   271
1070
     3
1070
   272
1070
     3
1002
}
  0
DIMENSION
  5
5E9
330
2
100
AcDbEntity
  8
0
100
AcDbDimension
  2
*D17
 10
60.33066964177127
 20
24.20808778577437
 30
0.0
 11
62.59132485690728
 21
25.49185965020436
 31
0.0
 70
   164
  1
<>\P(4 PLCS.)
 71
     5
 42
-1.0
  3
STANDARD
100
AcDbRadialDimension
 15
60.44107674811176
 25
24.29580843064872
 35
0.0
 40
0.0
1001
ACAD
1000
DSTYLE
1002
{
1070
    42
1040
0.063
1070
    44
1040
0.1
1070
   140
1040
0.125
1070
   141
1040
0.0
1070
   176
1070
     1
1070
   177
1070
     1
1070
   178
1070
     4
1070
   271
1070
     3
1070
   272
1070
     3
1070
   288
1070
     1
1002
}
  0
LEADER
  5
62A
330
2
100
AcDbEntity
  8
0
100
AcDbLeader
  3
STANDARD
 73
     0
 40
0.1292633015006821
 41
1.543912005457025
 76
     3
 10
57.65095484129589
 20
23.10218044577575
 30
0.0
 10
55.5474893516993
 20
21.30992103502288
 30
0.0
 10
55.28178844053288
 20
21.30992103502288
 30
0.0
340
62B
213
0.0
223
0.0625
233
0.0
1001
ACAD
1000
DSTYLE
1002
{
1070
     5
1000
DOT
1070
    42
1040
0.063
1070
    44
1040
0.1
1070
    77
1070
     0
1070
   140
1040
0.125
1070
   141
1040
0.0
1070
   147
1040
0.09
1070
   176
1070
     1
1070
   177
1070
     1
1070
   178
1070
     4
1070
   271
1070
     3
1070
   272
1070
     3
1070
   341
1005
62C
1070
   342
1005
62C
1002
}
  0
MTEXT
  5
62B
102
{ACAD_REACTORS
330
62A
102
}
330
2
100
AcDbEntity
  8
0
 62
     4
100
AcDbMText
 10
55.19178844053287
 20
21.24742103502288
 30
0.0
 40
0.125
 41
0.0
 71
     9
 72
     1
  1
TEXTURED FLUSH
 73
     1
 44
1.0
1001
ACAD
1000
MTEXTBEGIN
1070
    73
1070
     1
1070
    44
1040
1.0
1070
    74
1070
     0
1000
MTEXTEND
  0
INSERT
  5
85B
330
2
100
AcDbEntity
  8
0
100
AcDbBlockReference
 66
     1
  2
B
 10
52.08621562911428
 20
17.09140531368723
 30
0.0
  0
ATTRIB
  5
85C
330
85B
100
AcDbEntity
  8
TEXT
100
AcDbText
 10
63.58594114489287
 20
17.63081035930496
 30
0.0
 40
0.125
  1
DP
 41
0.75
  7
TXT
 72
     1
 11
63.66406614489287
 21
17.63081035930496
 31
0.0
100
AcDbAttribute
  2
NAME
 70
     4
  0
ATTRIB
  5
85D
330
85B
100
AcDbEntity
  8
TEXT
100
AcDbText
 10
64.05476410543124
 20
17.63081035930496
 30
0.0
 40
0.125
  1
5-23-05
 41
0.75
  7
TXT
 72
     1
 11
64.35945160543124
 21
17.63081035930496
 31
0.0
100
AcDbAttribute
  2
DATE
 70
     4
  0
ATTRIB
  5
85E
330
85B
100
AcDbEntity
  8
TEXT
100
AcDbText
 10
66.86983842915871
 20
17.82969304503229
 30
0.0
 40
0.125
  1
PLASTIBOX STYLE I
 41
0.75
  7
TXT
 72
     1
 11
67.61983842915871
 21
17.82969304503229
 31
0.0
100
AcDbAttribute
  2
TITLE1
 70
     4
  0
ATTRIB
  5
85F
330
85B
100
AcDbEntity
  8
TEXT
100
AcDbText
 10
67.57296342915871
 20
17.60239760276336
 30
0.0
 40
0.125
  1
 
 41
0.75
  7
TXT
 72
     1
 11
67.61983842915871
 21
17.60239760276336
 31
0.0
100
AcDbAttribute
  2
TITLE2
 70
     4
  0
ATTRIB
  5
860
330
85B
100
AcDbEntity
  8
TEXT
100
AcDbText
 10
67.40213528423412
 20
17.20957955227673
 30
0.0
 40
0.156
  1
PT-11754
 41
0.75
  7
TXT
 72
     1
 11
67.81163528423411
 21
17.20957955227673
 31
0.0
100
AcDbAttribute
  2
PART
 70
     4
  0
ATTRIB
  5
861
330
85B
100
AcDbEntity
  8
TEXT
100
AcDbText
 10
67.40213528423412
 20
26.39404614972371
 30
0.0
 40
0.156
  1
PT-11754
 41
0.75
  7
TXT
 72
     1
 11
67.81163528423411
 21
26.39404614972371
 31
0.0
100
AcDbAttribute
  2
PART
 70
     4
  0
ATTRIB
  5
862
330
85B
100
AcDbEntity
  8
TEXT
100
AcDbText
 10
59.24311323326503
 20
18.2734176487848
 30
0.0
 40
0.125
  1

 41
4.93641642638573
  7
TXT
 72
     5
 11
63.1511095708204
 21
18.2734176487848
 31
0.0
100
AcDbAttribute
  2
CUTSIZE
 70
     4
  0
ATTRIB
  5
863
330
85B
100
AcDbEntity
  8
TEXT
100
AcDbText
 10
59.41038946184159
 20
17.37818414064843
 30
0.0
 40
0.125
  1

 41
0.75
  7
TXT
 72
     1
 11
59.41038946184159
 21
17.37818414064843
 31
0.0
100
AcDbAttribute
  2
QTY
 70
     4
  0
ATTRIB
  5
864
330
85B
100
AcDbEntity
  8
TEXT
100
AcDbText
 10
60.32526983164128
 20
17.37818414064843
 30
0.0
 40
0.125
  1

 41
0.75
  7
TXT
 72
     1
 11
60.32526983164128
 21
17.37818414064843
 31
0.0
100
AcDbAttribute
  2
USED
 70
     4
  0
ATTRIB
  5
865
330
85B
100
AcDbEntity
  8
TEXT
100
AcDbText
 10
63.91019685202832
 20
18.04693768475747
 30
0.0
 40
0.125
  1
AS NOTED
 41
0.75
  7
TXT
 72
     1
 11
64.26957185202832
 21
18.04693768475747
 31
0.0
100
AcDbAttribute
  2
MAT
 70
     4
  0
ATTRIB
  5
866
330
85B
100
AcDbEntity
  8
TEXT
100
AcDbText
 10
63.89457185202832
 20
17.8350595215479
 30
0.0
 40
0.125
  1
SEE SPEC.
 41
0.75
  7
TXT
 72
     1
 11
64.26957185202832
 21
17.8350595215479
 31
0.0
100
AcDbAttribute
  2
FINISH
 70
     4
  0
SEQEND
  5
867
330
85B
100
AcDbEntity
  8
0
  0
MTEXT
  5
8ED
330
2
100
AcDbEntity
  8
0
100
AcDbMText
 10
64.67458021604608
 20
21.41264175960095
 30
0.0
 40
0.125
 41
4.881999999999999
 71
     1
 72
     5
  3
{\C4;NOTES:\P  1) PC BOARD BOSSES WILL ACCEPT A\P      #4 X 1/4" THREAD FORMING SCREW\P  2) MATERIAL: ABS - UL94-5VA\P  3) FINISH: BLACK TEXTURE\P  4) DIMENSIONS ARE TO THEORETICAL\P       SHARP CORNERS.\P  5) INCLUDES (4) #4-24 x 5/8 HI-LOW\P      T
  1
HREAD FORMING, CSK, OVAL HEAD,\P      PHILLIPS DRIVE SCREWS FOR\P      ATTACHING BODY TO COVER\P      (MAX TORQUE 4.5 IN-LBS)}
 73
     1
 44
1.0
1001
ACAD
1000
MTEXTBEGIN
1070
    73
1070
     1
1070
    44
1040
1.0
1070
    74
1070
     0
1000
MTEXTEND
  0
ENDSEC
  0
SECTION
  2
OBJECTS
  0
DICTIONARY
  5
1A
330
0
100
AcDbDictionary
281
     1
  3
ACAD_COLOR
350
716
  3
ACAD_GROUP
350
18
  3
ACAD_LAYOUT
350
2E8
  3
ACAD_MATERIAL
350
715
  3
ACAD_MLINESTYLE
350
19
  3
ACAD_PLOTSETTINGS
350
2E9
  3
ACAD_PLOTSTYLENAME
350
2E6
  3
AcDbVariableDictionary
350
31C
  0
DICTIONARY
  5
3AC
330
2
100
AcDbDictionary
280
     1
281
     1
  3
ACAD_LAYOUTSELFREF
360
70C
  0
DICTIONARY
  5
3AE
330
7
100
AcDbDictionary
280
     1
281
     1
  3
ACAD_LAYOUTSELFREF
360
70D
  0
DICTIONARY
  5
716
102
{ACAD_REACTORS
330
1A
102
}
330
1A
100
AcDbDictionary
281
     1
  0
DICTIONARY
  5
18
102
{ACAD_REACTORS
330
1A
102
}
330
1A
100
AcDbDictionary
281
     1
  0
DICTIONARY
  5
2E8
102
{ACAD_REACTORS
330
1A
102
}
330
1A
100
AcDbDictionary
281
     1
  3
Layout1
350
2EB
  3
Model
350
2EA
  0
DICTIONARY
  5
715
102
{ACAD_REACTORS
330
1A
102
}
330
1A
100
AcDbDictionary
281
     1
  0
DICTIONARY
  5
19
102
{ACAD_REACTORS
330
1A
102
}
330
1A
100
AcDbDictionary
281
     1
  3
STANDARD
350
1B
  0
DICTIONARY
  5
2E9
102
{ACAD_REACTORS
330
1A
102
}
330
1A
100
AcDbDictionary
281
     1
  0
ACDBDICTIONARYWDFLT
  5
2E6
102
{ACAD_REACTORS
330
1A
102
}
330
1A
100
AcDbDictionary
281
     1
  3
Normal
350
2E7
100
AcDbDictionaryWithDefault
340
2E7
  0
DICTIONARY
  5
31C
102
{ACAD_REACTORS
330
1A
102
}
330
1A
100
AcDbDictionary
281
     1
  3
DIMASSOC
350
724
  3
PROJECTNAME
350
725
  3
SORTENTS
350
31D
  0
XRECORD
  5
70C
102
{ACAD_REACTORS
330
3AC
102
}
330
3AC
100
AcDbXrecord
280
     1
340
2
  0
XRECORD
  5
70D
102
{ACAD_REACTORS
330
3AE
102
}
330
3AE
100
AcDbXrecord
280
     1
340
7
  0
LAYOUT
  5
2EB
102
{ACAD_XDICTIONARY
360
733
102
}
102
{ACAD_REACTORS
330
2E8
102
}
330
2E8
100
AcDbPlotSettings
  1

  2
\\POLYCASE\engineer_q
  4

  6

 40
0.0
 41
0.0
 42
0.0
 43
0.0
 44
0.0
 45
0.0
 46
0.0
 47
0.0
 48
0.0
 49
0.0
140
0.0
141
0.0
142
1.0
143
1.0
 70
   688
 72
     0
 73
     0
 74
     5
  7
monochrome.ctb
 75
    16
147
1.0
148
0.0
149
0.0
100
AcDbLayout
  1
Layout1
 70
     0
 71
     1
 10
-0.2124999999999986
 20
0.0
 11
11.7875
 21
9.0
 12
0.0
 22
0.0
 32
0.0
 14
1.000000000000000E+20
 24
1.000000000000000E+20
 34
1.000000000000000E+20
 15
-1.000000000000000E+20
 25
-1.000000000000000E+20
 35
-1.000000000000000E+20
146
0.0
 13
0.0
 23
0.0
 33
0.0
 16
1.0
 26
0.0
 36
0.0
 17
0.0
 27
1.0
 37
0.0
 76
     0
330
7
  0
LAYOUT
  5
2EA
102
{ACAD_XDICTIONARY
360
731
102
}
102
{ACAD_REACTORS
330
2E8
102
}
330
2E8
100
AcDbPlotSettings
  1

  2
RICOH Aficio 1060 PCL 5e.pc3
  4
Tabloid
  6

 40
7.143749713897705
 41
5.027085304260253
 42
7.651763916015625
 43
5.027069091796875
 44
279.3999938964843
 45
431.7999877929687
 46
10.16
 47
0.0
 48
52.37499520581727
 49
15.24584724928018
140
68.37499520581727
141
27.85869893692165
142
1.0
143
1.000149255851313
 70
 11956
 72
     0
 73
     1
 74
     1
  7
monochrome.ctb
 75
     0
147
0.9998507664226714
148
-1322.874341489854
149
-434.1195315216429
100
AcDbLayout
  1
Model
 70
     1
 71
     0
 10
0.0
 20
0.0
 11
12.0
 21
9.0
 12
0.0
 22
0.0
 32
0.0
 14
0.0
 24
0.0
 34
0.0
 15
0.0
 25
0.0
 35
0.0
146
0.0
 13
0.0
 23
0.0
 33
0.0
 16
1.0
 26
0.0
 36
0.0
 17
0.0
 27
1.0
 37
0.0
 76
     0
330
2
  0
MLINESTYLE
  5
1B
102
{ACAD_REACTORS
330
19
102
}
330
19
100
AcDbMlineStyle
  2
STANDARD
 70
     0
  3

 62
   256
 51
90.0
 52
90.0
 71
     2
 49
0.5
 62
   256
  6
BYLAYER
 49
-0.5
 62
   256
  6
BYLAYER
  0
ACDBPLACEHOLDER
  5
2E7
102
{ACAD_REACTORS
330
2E6
102
}
330
2E6
  0
DICTIONARYVAR
  5
724
102
{ACAD_REACTORS
330
31C
102
}
330
31C
100
DictionaryVariables
280
     0
  1
1
  0
DICTIONARYVAR
  5
725
102
{ACAD_REACTORS
330
31C
102
}
330
31C
100
DictionaryVariables
280
     0
  1

  0
DICTIONARYVAR
  5
31D
102
{ACAD_REACTORS
330
31C
102
}
330
31C
100
DictionaryVariables
280
     0
  1
96
  0
DICTIONARY
  5
733
330
2EB
100
AcDbDictionary
280
     1
281
     1
  3
ACAD_XREC_ROUNDTRIP
360
734
  0
DICTIONARY
  5
731
330
2EA
100
AcDbDictionary
280
     1
281
     1
  3
ACAD_XREC_ROUNDTRIP
360
732
  0
XRECORD
  5
734
102
{ACAD_REACTORS
330
733
102
}
330
733
100
AcDbXrecord
280
     1
102
SHADEPLOT
 70
     0
102
SHADEPLOTRESLEVEL
 70
     2
102
SHADEPLOTCUSTOMDPI
 70
   300
  0
XRECORD
  5
732
102
{ACAD_REACTORS
330
731
102
}
330
731
100
AcDbXrecord
280
     1
102
SHADEPLOT
 70
     0
102
SHADEPLOTRESLEVEL
 70
     2
102
SHADEPLOTCUSTOMDPI
 70
   300
  0
ENDSEC
  0
EOF
