  0
SECTION
  2
HEADER
  9
$ACADVER
  1
AC1015
  9
$ACADMAINTVER
 70
     6
  9
$DWGCODEPAGE
  3
ANSI_1252
  9
$INSBASE
 10
52.22320202208389
 20
15.213166490965
 30
0.0
  9
$EXTMIN
 10
52.08246195773909
 20
17.09132013864736
 30
-0.0000000000000058
  9
$EXTMAX
 10
68.68936037829707
 20
26.71788032058145
 30
0.0000000000000104
  9
$LIMMIN
 10
0.0
 20
0.0
  9
$LIMMAX
 10
44.89999999999999
 20
34.75
  9
$ORTHOMODE
 70
     1
  9
$REGENMODE
 70
     1
  9
$FILLMODE
 70
     1
  9
$QTEXTMODE
 70
     0
  9
$MIRRTEXT
 70
     1
  9
$LTSCALE
 40
1.0
  9
$ATTMODE
 70
     1
  9
$TEXTSIZE
 40
0.125
  9
$TRACEWID
 40
0.05
  9
$TEXTSTYLE
  7
STANDARD
  9
$CLAYER
  8
0
  9
$CELTYPE
  6
BYLAYER
  9
$CECOLOR
 62
   256
  9
$CELTSCALE
 40
1.0
  9
$DISPSILH
 70
     0
  9
$DIMSCALE
 40
1.0
  9
$DIMASZ
 40
0.18
  9
$DIMEXO
 40
0.063
  9
$DIMDLI
 40
0.38
  9
$DIMRND
 40
0.0
  9
$DIMDLE
 40
0.0
  9
$DIMEXE
 40
0.1
  9
$DIMTP
 40
0.0
  9
$DIMTM
 40
0.0
  9
$DIMTXT
 40
0.125
  9
$DIMCEN
 40
0.0
  9
$DIMTSZ
 40
0.0
  9
$DIMTOL
 70
     0
  9
$DIMLIM
 70
     0
  9
$DIMTIH
 70
     1
  9
$DIMTOH
 70
     1
  9
$DIMSE1
 70
     0
  9
$DIMSE2
 70
     0
  9
$DIMTAD
 70
     0
  9
$DIMZIN
 70
     0
  9
$DIMBLK
  1

  9
$DIMASO
 70
     1
  9
$DIMSHO
 70
     1
  9
$DIMPOST
  1

  9
$DIMAPOST
  1

  9
$DIMALT
 70
     0
  9
$DIMALTD
 70
     2
  9
$DIMALTF
 40
25.4
  9
$DIMLFAC
 40
1.0
  9
$DIMTOFL
 70
     0
  9
$DIMTVP
 40
0.0
  9
$DIMTIX
 70
     0
  9
$DIMSOXD
 70
     0
  9
$DIMSAH
 70
     0
  9
$DIMBLK1
  1

  9
$DIMBLK2
  1

  9
$DIMSTYLE
  2
STANDARD
  9
$DIMCLRD
 70
     1
  9
$DIMCLRE
 70
     1
  9
$DIMCLRT
 70
     4
  9
$DIMTFAC
 40
1.0
  9
$DIMGAP
 40
0.09
  9
$DIMJUST
 70
     0
  9
$DIMSD1
 70
     0
  9
$DIMSD2
 70
     0
  9
$DIMTOLJ
 70
     1
  9
$DIMTZIN
 70
     0
  9
$DIMALTZ
 70
     0
  9
$DIMALTTZ
 70
     0
  9
$DIMUPT
 70
     0
  9
$DIMDEC
 70
     3
  9
$DIMTDEC
 70
     3
  9
$DIMALTU
 70
     2
  9
$DIMALTTD
 70
     2
  9
$DIMTXSTY
  7
STANDARD
  9
$DIMAUNIT
 70
     0
  9
$DIMADEC
 70
     0
  9
$DIMALTRND
 40
0.0
  9
$DIMAZIN
 70
     0
  9
$DIMDSEP
 70
    46
  9
$DIMATFIT
 70
     3
  9
$DIMFRAC
 70
     0
  9
$DIMLDRBLK
  1

  9
$DIMLUNIT
 70
     2
  9
$DIMLWD
 70
    -2
  9
$DIMLWE
 70
    -2
  9
$DIMTMOVE
 70
     0
  9
$LUNITS
 70
     2
  9
$LUPREC
 70
     3
  9
$SKETCHINC
 40
0.1
  9
$FILLETRAD
 40
0.0
  9
$AUNITS
 70
     0
  9
$AUPREC
 70
     0
  9
$MENU
  1
ACAD
  9
$ELEVATION
 40
0.0
  9
$PELEVATION
 40
0.0
  9
$THICKNESS
 40
0.0
  9
$LIMCHECK
 70
     0
  9
$CHAMFERA
 40
0.0
  9
$CHAMFERB
 40
0.0
  9
$CHAMFERC
 40
0.0
  9
$CHAMFERD
 40
0.0
  9
$SKPOLY
 70
     0
  9
$TDCREATE
 40
2452384.718287615
  9
$TDUCREATE
 40
2452384.884954282
  9
$TDUPDATE
 40
2453914.318930660
  9
$TDUUPDATE
 40
2453914.485597326
  9
$TDINDWG
 40
5.2977242361
  9
$TDUSRTIMER
 40
5.2977242361
  9
$USRTIMER
 70
     1
  9
$ANGBASE
 50
0.0
  9
$ANGDIR
 70
     0
  9
$PDMODE
 70
     0
  9
$PDSIZE
 40
0.0
  9
$PLINEWID
 40
0.0
  9
$SPLFRAME
 70
     0
  9
$SPLINETYPE
 70
     6
  9
$SPLINESEGS
 70
     8
  9
$HANDSEED
  5
146A
  9
$SURFTAB1
 70
     6
  9
$SURFTAB2
 70
     6
  9
$SURFTYPE
 70
     6
  9
$SURFU
 70
     6
  9
$SURFV
 70
     6
  9
$UCSBASE
  2

  9
$UCSNAME
  2

  9
$UCSORG
 10
0.0
 20
0.0
 30
0.0
  9
$UCSXDIR
 10
1.0
 20
0.0
 30
0.0
  9
$UCSYDIR
 10
0.0
 20
1.0
 30
0.0
  9
$UCSORTHOREF
  2

  9
$UCSORTHOVIEW
 70
     0
  9
$UCSORGTOP
 10
0.0
 20
0.0
 30
0.0
  9
$UCSORGBOTTOM
 10
0.0
 20
0.0
 30
0.0
  9
$UCSORGLEFT
 10
0.0
 20
0.0
 30
0.0
  9
$UCSORGRIGHT
 10
0.0
 20
0.0
 30
0.0
  9
$UCSORGFRONT
 10
0.0
 20
0.0
 30
0.0
  9
$UCSORGBACK
 10
0.0
 20
0.0
 30
0.0
  9
$PUCSBASE
  2

  9
$PUCSNAME
  2

  9
$PUCSORG
 10
0.0
 20
0.0
 30
0.0
  9
$PUCSXDIR
 10
1.0
 20
0.0
 30
0.0
  9
$PUCSYDIR
 10
0.0
 20
1.0
 30
0.0
  9
$PUCSORTHOREF
  2

  9
$PUCSORTHOVIEW
 70
     0
  9
$PUCSORGTOP
 10
0.0
 20
0.0
 30
0.0
  9
$PUCSORGBOTTOM
 10
0.0
 20
0.0
 30
0.0
  9
$PUCSORGLEFT
 10
0.0
 20
0.0
 30
0.0
  9
$PUCSORGRIGHT
 10
0.0
 20
0.0
 30
0.0
  9
$PUCSORGFRONT
 10
0.0
 20
0.0
 30
0.0
  9
$PUCSORGBACK
 10
0.0
 20
0.0
 30
0.0
  9
$USERI1
 70
     0
  9
$USERI2
 70
     0
  9
$USERI3
 70
     0
  9
$USERI4
 70
     0
  9
$USERI5
 70
     0
  9
$USERR1
 40
0.0
  9
$USERR2
 40
0.0
  9
$USERR3
 40
0.0
  9
$USERR4
 40
0.0
  9
$USERR5
 40
0.0
  9
$WORLDVIEW
 70
     1
  9
$SHADEDGE
 70
     3
  9
$SHADEDIF
 70
    70
  9
$TILEMODE
 70
     1
  9
$MAXACTVP
 70
    16
  9
$PINSBASE
 10
0.0
 20
0.0
 30
0.0
  9
$PLIMCHECK
 70
     0
  9
$PEXTMIN
 10
1.049999952316284
 20
0.7999999523162842
 30
0.0
  9
$PEXTMAX
 10
9.449999570846555
 20
7.199999570846556
 30
0.0
  9
$PLIMMIN
 10
-0.2124999999999986
 20
0.0
  9
$PLIMMAX
 10
11.7875
 20
9.0
  9
$UNITMODE
 70
     0
  9
$VISRETAIN
 70
     0
  9
$PLINEGEN
 70
     0
  9
$PSLTSCALE
 70
     0
  9
$TREEDEPTH
 70
  3020
  9
$CMLSTYLE
  2
STANDARD
  9
$CMLJUST
 70
     0
  9
$CMLSCALE
 40
1.0
  9
$PROXYGRAPHICS
 70
     1
  9
$MEASUREMENT
 70
     0
  9
$CELWEIGHT
370
    -1
  9
$ENDCAPS
280
     0
  9
$JOINSTYLE
280
     0
  9
$LWDISPLAY
290
     0
  9
$INSUNITS
 70
     0
  9
$HYPERLINKBASE
  1

  9
$STYLESHEET
  1
monochrome.ctb
  9
$XEDIT
290
     1
  9
$CEPSNTYPE
380
     0
  9
$PSTYLEMODE
290
     1
  9
$FINGERPRINTGUID
  2
{9715836B-223A-4A55-AD11-B1A6C5060DC2}
  9
$VERSIONGUID
  2
{AF45E770-E6E2-44E3-876A-E7EDCBC0277F}
  9
$EXTNAMES
290
     1
  9
$PSVPSCALE
 40
0.0
  9
$OLESTARTUP
290
     0
  0
ENDSEC
  0
SECTION
  2
CLASSES
  0
CLASS
  1
DICTIONARYVAR
  2
AcDbDictionaryVar
  3
AutoCAD 2000
 90
        0
280
     0
281
     0
  0
CLASS
  1
LWPOLYLINE
  2
AcDbPolyline
  3
AutoCAD 2000
 90
    32768
280
     0
281
     1
  0
CLASS
  1
HATCH
  2
AcDbHatch
  3
AutoCAD 2000
 90
    32768
280
     0
281
     1
  0
CLASS
  1
ACDBDICTIONARYWDFLT
  2
AcDbDictionaryWithDefault
  3
AutoCAD 2000
 90
        0
280
     0
281
     0
  0
CLASS
  1
ACDBPLACEHOLDER
  2
AcDbPlaceHolder
  3
AutoCAD 2000
 90
        0
280
     0
281
     0
  0
CLASS
  1
LAYOUT
  2
AcDbLayout
  3
AutoCAD 2000
 90
        0
280
     0
281
     0
  0
CLASS
  1
LONG_TRANSACTION
  2
AcDbLongTransaction
  3
AutoCAD 2000
 90
    32768
280
     0
281
     0
  0
CLASS
  1
LWPOLYLINE
  2
AcDbPolyline
  3
AutoCAD 2000
 90
    32768
280
     0
281
     1
  0
CLASS
  1
HATCH
  2
AcDbHatch
  3
AutoCAD 2000
 90
    32768
280
     0
281
     1
  0
CLASS
  1
XRECORD
  2
AcDbXrecord
  3
AutoCAD 2000
 90
    32768
280
     0
281
     0
  0
CLASS
  1
LONG_TRANSACTION
  2
AcDbLongTransaction
  3
AutoCAD 2000
 90
    32768
280
     0
281
     0
  0
CLASS
  1
LWPOLYLINE
  2
AcDbPolyline
  3
AutoCAD 2000
 90
    32768
280
     0
281
     1
  0
CLASS
  1
HATCH
  2
AcDbHatch
  3
AutoCAD 2000
 90
    32768
280
     0
281
     1
  0
CLASS
  1
XRECORD
  2
AcDbXrecord
  3
AutoCAD 2000
 90
    32768
280
     0
281
     0
  0
CLASS
  1
LONG_TRANSACTION
  2
AcDbLongTransaction
  3
AutoCAD 2000
 90
    32768
280
     0
281
     0
  0
CLASS
  1
LWPOLYLINE
  2
AcDbPolyline
  3
AutoCAD 2000
 90
    32768
280
     0
281
     1
  0
CLASS
  1
HATCH
  2
AcDbHatch
  3
AutoCAD 2000
 90
    32768
280
     0
281
     1
  0
CLASS
  1
XRECORD
  2
AcDbXrecord
  3
AutoCAD 2000
 90
    32768
280
     0
281
     0
  0
CLASS
  1
LONG_TRANSACTION
  2
AcDbLongTransaction
  3
AutoCAD 2000
 90
    32768
280
     0
281
     0
  0
CLASS
  1
LWPOLYLINE
  2
AcDbPolyline
  3
AutoCAD 2000
 90
    32768
280
     0
281
     1
  0
CLASS
  1
HATCH
  2
AcDbHatch
  3
AutoCAD 2000
 90
    32768
280
     0
281
     1
  0
CLASS
  1
XRECORD
  2
AcDbXrecord
  3
AutoCAD 2000
 90
    32768
280
     0
281
     0
  0
ENDSEC
  0
SECTION
  2
TABLES
  0
TABLE
  2
VPORT
  5
13
330
0
100
AcDbSymbolTable
 70
     3
  0
VPORT
  5
1469
330
13
100
AcDbSymbolTableRecord
100
AcDbViewportTableRecord
  2
*Active
 70
     0
 10
0.0
 20
0.0
 11
1.0
 21
1.0
 12
60.59841116801808
 22
21.90460022961441
 13
0.0
 23
0.0
 14
1.0
 24
1.0
 15
0.0
 25
0.0
 16
0.0
 26
0.0
 36
1.0
 17
-0.2124999999999986
 27
0.0
 37
0.0
 40
9.722665608043257
 41
1.796666666666666
 42
50.0
 43
0.0
 44
0.0
 50
0.0
 51
0.0
 71
     0
 72
 20000
 73
     1
 74
     0
 75
     0
 76
     0
 77
     0
 78
     1
281
     0
 65
     1
110
0.0
120
0.0
130
0.0
111
1.0
121
0.0
131
0.0
112
0.0
122
1.0
132
0.0
 79
     0
146
0.0
  0
ENDTAB
  0
TABLE
  2
LTYPE
  5
E
330
0
100
AcDbSymbolTable
 70
     4
  0
LTYPE
  5
F
330
E
100
AcDbSymbolTableRecord
100
AcDbLinetypeTableRecord
  2
BYBLOCK
 70
     0
  3

 72
    65
 73
     0
 40
0.0
  0
LTYPE
  5
10
330
E
100
AcDbSymbolTableRecord
100
AcDbLinetypeTableRecord
  2
BYLAYER
 70
     0
  3

 72
    65
 73
     0
 40
0.0
  0
LTYPE
  5
5
330
E
100
AcDbSymbolTableRecord
100
AcDbLinetypeTableRecord
  2
CONTINUOUS
 70
     0
  3
Solid line
 72
    65
 73
     0
 40
0.0
  0
LTYPE
  5
A3
330
E
100
AcDbSymbolTableRecord
100
AcDbLinetypeTableRecord
  2
HIDDEN2
 70
     0
  3
Hidden (.5x) _ _ _ _ _ _ _ _ _ _ _ _ _ _ _ _ _
 72
    65
 73
     2
 40
0.1875
 49
0.125
 74
     0
 49
-0.0625
 74
     0
  0
LTYPE
  5
BE
330
E
100
AcDbSymbolTableRecord
100
AcDbLinetypeTableRecord
  2
CENTER
 70
     0
  3
____ _ ____ _ ____ _ ____ _ ____ _ ____ _ ____ 
 72
    65
 73
     4
 40
2.0
 49
1.25
 74
     0
 49
-0.25
 74
     0
 49
0.25
 74
     0
 49
-0.25
 74
     0
  0
LTYPE
  5
298
330
E
100
AcDbSymbolTableRecord
100
AcDbLinetypeTableRecord
  2
CENTER2
 70
     0
  3
Center (.5x) ___ _ ___ _ ___ _ ___ _ ___ _ ___
 72
    65
 73
     4
 40
1.125
 49
0.75
 74
     0
 49
-0.125
 74
     0
 49
0.125
 74
     0
 49
-0.125
 74
     0
  0
ENDTAB
  0
TABLE
  2
LAYER
  5
A
330
0
100
AcDbSymbolTable
 70
     7
  0
LAYER
  5
4
330
A
100
AcDbSymbolTableRecord
100
AcDbLayerTableRecord
  2
0
 70
     0
 62
     7
  6
CONTINUOUS
370
    -3
390
2E7
  0
LAYER
  5
D4
330
A
100
AcDbSymbolTableRecord
100
AcDbLayerTableRecord
  2
DEFPOINTS
 70
     0
 62
     7
  6
CONTINUOUS
290
     0
370
    -3
390
2E7
  0
LAYER
  5
C0
330
A
100
AcDbSymbolTableRecord
100
AcDbLayerTableRecord
  2
AGBASE
 70
     0
 62
    14
  6
CONTINUOUS
370
    -3
390
2E7
  0
LAYER
  5
A2
330
A
100
AcDbSymbolTableRecord
100
AcDbLayerTableRecord
  2
AGCASE
 70
     0
 62
    14
  6
CONTINUOUS
370
    -3
390
2E7
  0
LAYER
  5
7F2
330
A
100
AcDbSymbolTableRecord
100
AcDbLayerTableRecord
  2
TITLE
 70
     0
 62
     8
  6
CONTINUOUS
370
    -3
390
2E7
  0
LAYER
  5
7F3
330
A
100
AcDbSymbolTableRecord
100
AcDbLayerTableRecord
  2
TEXT
 70
     0
 62
     1
  6
CONTINUOUS
370
    -3
390
2E7
  0
LAYER
  5
8CA
330
A
100
AcDbSymbolTableRecord
100
AcDbLayerTableRecord
  2
AG-54C-TW
 70
     0
 62
    14
  6
CONTINUOUS
370
    -3
390
2E7
  0
ENDTAB
  0
TABLE
  2
STYLE
  5
B
330
0
100
AcDbSymbolTable
 70
     4
  0
STYLE
  5
C
330
B
100
AcDbSymbolTableRecord
100
AcDbTextStyleTableRecord
  2
STANDARD
 70
     0
 40
0.0
 41
1.0
 50
0.0
 71
     0
 42
0.125
  3
ARIAL.TTF
  4

1001
ACAD
1000
Arial
1071
       34
  0
STYLE
  5
4B
330
B
100
AcDbSymbolTableRecord
100
AcDbTextStyleTableRecord
  2
ROMANS
 70
     0
 40
0.125
 41
1.0
 50
0.0
 71
     0
 42
0.125
  3
romab___.ttf
  4

1001
ACAD
1000
Romantic
1071
 33554946
  0
STYLE
  5
48
330
B
100
AcDbSymbolTableRecord
100
AcDbTextStyleTableRecord
  2
SANSSERIFBOLDOBLIQUE
 70
     0
 40
0.125
 41
1.074999999999999
 50
0.0
 71
     0
 42
1.199999999999999
  3
sasbo___.pfb
  4

  0
STYLE
  5
7F4
330
B
100
AcDbSymbolTableRecord
100
AcDbTextStyleTableRecord
  2
TXT
 70
     0
 40
0.0
 41
0.75
 50
0.0
 71
     0
 42
0.125
  3
txt
  4

  0
ENDTAB
  0
TABLE
  2
VIEW
  5
11
330
0
100
AcDbSymbolTable
 70
     0
  0
ENDTAB
  0
TABLE
  2
UCS
  5
12
330
0
100
AcDbSymbolTable
 70
     0
  0
ENDTAB
  0
TABLE
  2
APPID
  5
15
330
0
100
AcDbSymbolTable
 70
     1
  0
APPID
  5
D
330
15
100
AcDbSymbolTableRecord
100
AcDbRegAppTableRecord
  2
ACAD
 70
     0
  0
ENDTAB
  0
TABLE
  2
DIMSTYLE
  5
16
330
0
100
AcDbSymbolTable
 70
     5
100
AcDbDimStyleTable
 71
     5
340
1C
340
12A9
340
A11
340
A12
340
7F5
  0
DIMSTYLE
105
1C
102
{ACAD_REACTORS
330
CA
330
31E
330
341
330
34F
330
35D
330
3BB
330
3CA
330
436
330
44E
330
4B1
330
4DD
330
4EB
330
5CD
330
5DB
330
5E9
330
F0E
330
F1C
330
F2A
330
F75
330
F98
330
FE3
330
101A
330
117B
330
11F4
330
1224
330
1443
102
}
330
16
100
AcDbSymbolTableRecord
100
AcDbDimStyleTableRecord
  2
STANDARD
 70
     0
340
C
  0
DIMSTYLE
105
7F5
330
16
100
AcDbSymbolTableRecord
100
AcDbDimStyleTableRecord
  2
23NSTD
 70
     0
 44
0.09
140
0.125
271
     3
272
     3
289
     1
340
7F4
  0
DIMSTYLE
105
A11
330
16
100
AcDbSymbolTableRecord
100
AcDbDimStyleTableRecord
  2
STANDARD$4
 70
     0
 44
0.1
140
0.125
141
0.0
176
     1
177
     1
178
     4
271
     3
272
     1
275
     1
340
C
  0
DIMSTYLE
105
A12
330
16
100
AcDbSymbolTableRecord
100
AcDbDimStyleTableRecord
  2
STANDARD$7
 70
     0
 44
0.1
140
0.125
141
0.03
176
     1
177
     1
178
     4
271
     3
272
     1
275
     1
288
     1
340
C
  0
DIMSTYLE
105
12A9
330
16
100
AcDbSymbolTableRecord
100
AcDbDimStyleTableRecord
  2
STANDARD_WS
 70
     0
 44
0.1
140
0.125
141
0.03
176
     1
177
     1
178
     4
271
     3
272
     3
340
C
  0
ENDTAB
  0
TABLE
  2
BLOCK_RECORD
  5
1
330
0
100
AcDbSymbolTable
 70
    34
  0
BLOCK_RECORD
  5
2
102
{ACAD_XDICTIONARY
360
3AC
102
}
330
1
100
AcDbSymbolTableRecord
100
AcDbBlockTableRecord
  2
*MODEL_SPACE
340
2EA
  0
BLOCK_RECORD
  5
7
102
{ACAD_XDICTIONARY
360
3AE
102
}
330
1
100
AcDbSymbolTableRecord
100
AcDbBlockTableRecord
  2
*PAPER_SPACE
340
2EB
  0
BLOCK_RECORD
  5
46
330
1
100
AcDbSymbolTableRecord
100
AcDbBlockTableRecord
  2
POLYCASELOGO
340
0
102
{BLKREFS
331
45
102
}
  0
BLOCK_RECORD
  5
92
330
1
100
AcDbSymbolTableRecord
100
AcDbBlockTableRecord
  2
REVGRID
340
0
  0
BLOCK_RECORD
  5
2D
330
1
100
AcDbSymbolTableRecord
100
AcDbBlockTableRecord
  2
TITLEBLK
340
0
  0
BLOCK_RECORD
  5
31F
330
1
100
AcDbSymbolTableRecord
100
AcDbBlockTableRecord
  2
*D3
340
0
  0
BLOCK_RECORD
  5
342
330
1
100
AcDbSymbolTableRecord
100
AcDbBlockTableRecord
  2
*D4
340
0
  0
BLOCK_RECORD
  5
350
330
1
100
AcDbSymbolTableRecord
100
AcDbBlockTableRecord
  2
*D5
340
0
  0
BLOCK_RECORD
  5
35E
330
1
100
AcDbSymbolTableRecord
100
AcDbBlockTableRecord
  2
*D6
340
0
  0
BLOCK_RECORD
  5
3BC
330
1
100
AcDbSymbolTableRecord
100
AcDbBlockTableRecord
  2
*D7
340
0
  0
BLOCK_RECORD
  5
3CB
330
1
100
AcDbSymbolTableRecord
100
AcDbBlockTableRecord
  2
*D8
340
0
  0
BLOCK_RECORD
  5
429
330
1
100
AcDbSymbolTableRecord
100
AcDbBlockTableRecord
  2
*D9
340
0
  0
BLOCK_RECORD
  5
437
330
1
100
AcDbSymbolTableRecord
100
AcDbBlockTableRecord
  2
*D10
340
0
  0
BLOCK_RECORD
  5
44F
330
1
100
AcDbSymbolTableRecord
100
AcDbBlockTableRecord
  2
*D11
340
0
  0
BLOCK_RECORD
  5
4B2
330
1
100
AcDbSymbolTableRecord
100
AcDbBlockTableRecord
  2
*D12
340
0
  0
BLOCK_RECORD
  5
4DE
330
1
100
AcDbSymbolTableRecord
100
AcDbBlockTableRecord
  2
*D13
340
0
  0
BLOCK_RECORD
  5
4EC
330
1
100
AcDbSymbolTableRecord
100
AcDbBlockTableRecord
  2
*D14
340
0
  0
BLOCK_RECORD
  5
5CE
330
1
100
AcDbSymbolTableRecord
100
AcDbBlockTableRecord
  2
*D15
340
0
  0
BLOCK_RECORD
  5
5DC
330
1
100
AcDbSymbolTableRecord
100
AcDbBlockTableRecord
  2
*D16
340
0
  0
BLOCK_RECORD
  5
5EA
330
1
100
AcDbSymbolTableRecord
100
AcDbBlockTableRecord
  2
*D17
340
0
  0
BLOCK_RECORD
  5
62C
330
1
100
AcDbSymbolTableRecord
100
AcDbBlockTableRecord
  2
_Dot
340
0
  0
BLOCK_RECORD
  5
7F6
330
1
100
AcDbSymbolTableRecord
100
AcDbBlockTableRecord
  2
B
340
0
102
{BLKREFS
331
85B
102
}
  0
BLOCK_RECORD
  5
8CB
330
1
100
AcDbSymbolTableRecord
100
AcDbBlockTableRecord
  2
A$C69540A53
340
0
  0
BLOCK_RECORD
  5
95A
330
1
100
AcDbSymbolTableRecord
100
AcDbBlockTableRecord
  2
CL
340
0
  0
BLOCK_RECORD
  5
F0F
330
1
100
AcDbSymbolTableRecord
100
AcDbBlockTableRecord
  2
*D22
340
0
  0
BLOCK_RECORD
  5
F1D
330
1
100
AcDbSymbolTableRecord
100
AcDbBlockTableRecord
  2
*D23
340
0
  0
BLOCK_RECORD
  5
F2B
330
1
100
AcDbSymbolTableRecord
100
AcDbBlockTableRecord
  2
*D24
340
0
  0
BLOCK_RECORD
  5
F76
330
1
100
AcDbSymbolTableRecord
100
AcDbBlockTableRecord
  2
*D25
340
0
  0
BLOCK_RECORD
  5
F99
330
1
100
AcDbSymbolTableRecord
100
AcDbBlockTableRecord
  2
*D26
340
0
  0
BLOCK_RECORD
  5
FE4
330
1
100
AcDbSymbolTableRecord
100
AcDbBlockTableRecord
  2
*D27
340
0
  0
BLOCK_RECORD
  5
101B
330
1
100
AcDbSymbolTableRecord
100
AcDbBlockTableRecord
  2
*D28
340
0
  0
BLOCK_RECORD
  5
117C
330
1
100
AcDbSymbolTableRecord
100
AcDbBlockTableRecord
  2
*D29
340
0
  0
BLOCK_RECORD
  5
11F5
330
1
100
AcDbSymbolTableRecord
100
AcDbBlockTableRecord
  2
*D30
340
0
  0
BLOCK_RECORD
  5
1225
330
1
100
AcDbSymbolTableRecord
100
AcDbBlockTableRecord
  2
*D31
340
0
  0
BLOCK_RECORD
  5
1287
330
1
100
AcDbSymbolTableRecord
100
AcDbBlockTableRecord
  2
A$C3A09227A
340
0
  0
BLOCK_RECORD
  5
1444
330
1
100
AcDbSymbolTableRecord
100
AcDbBlockTableRecord
  2
*D33
340
0
  0
ENDTAB
  0
ENDSEC
  0
SECTION
  2
BLOCKS
  0
BLOCK
  5
3
330
2
100
AcDbEntity
  8
0
100
AcDbBlockBegin
  2
*MODEL_SPACE
 70
     0
 10
0.0
 20
0.0
 30
0.0
  3
*MODEL_SPACE
  1

  0
ENDBLK
  5
6
330
2
100
AcDbEntity
  8
0
100
AcDbBlockEnd
  0
BLOCK
  5
8
330
7
100
AcDbEntity
 67
     1
  8
0
100
AcDbBlockBegin
  2
*PAPER_SPACE
 70
     0
 10
0.0
 20
0.0
 30
0.0
  3
*PAPER_SPACE
  1

  0
ENDBLK
  5
9
330
7
100
AcDbEntity
 67
     1
  8
0
100
AcDbBlockEnd
  0
BLOCK
  5
77
330
46
100
AcDbEntity
  8
0
100
AcDbBlockBegin
  2
POLYCASELOGO
 70
     0
 10
0.0
 20
0.0
 30
0.0
  3
POLYCASELOGO
  1

  0
TEXT
  5
47
330
46
100
AcDbEntity
  8
0
  6
Continuous
 62
     5
100
AcDbText
 10
0.5543786009275298
 20
0.2596875577735744
 30
0.0
 40
0.2560714469563737
  1
POLYCASE
 41
1.074999999999999
  7
SANSSERIFBOLDOBLIQUE
100
AcDbText
  0
LWPOLYLINE
  5
49
330
46
100
AcDbEntity
  8
0
 62
     5
100
AcDbPolyline
 90
        2
 70
     0
 43
0.0283704365880094
 10
0.5653711824815968
 20
0.0874383236000913
 10
2.515371182481596
 20
0.0874383236000913
  0
TEXT
  5
4A
330
46
100
AcDbEntity
  8
0
 62
     5
100
AcDbText
 10
0.5605156599830235
 20
0.1323139789410757
 30
0.0
 40
0.075654497568025
  1
YOUR PERFECT FIT
 41
1.8
  7
ROMANS
100
AcDbText
  0
ARC
  5
4C
330
46
100
AcDbEntity
  8
0
  6
Continuous
 62
     5
100
AcDbCircle
 10
0.3887432458373094
 20
0.3774800182460627
 30
0.0
 40
0.031265452549206
100
AcDbArc
 50
266.7706331822096
 51
34.98953924178366
  0
ARC
  5
4D
330
46
100
AcDbEntity
  8
0
  6
Continuous
 62
     5
100
AcDbCircle
 10
0.416855386687077
 20
0.3701236067504201
 30
0.0
 40
0.037429262845715
100
AcDbArc
 50
284.5083814713476
 51
357.5532058373056
  0
HATCH
  5
4E
330
46
100
AcDbEntity
  8
0
 62
     5
100
AcDbHatch
 10
0.0
 20
0.0
 30
0.0
210
0.0
220
0.0
230
1.0
  2
ANSI37
 70
     0
 71
     0
 91
        1
 92
        1
 93
       11
 72
     2
 10
0.2931730151761709
 20
0.2945838597867372
 40
0.1588767169960905
 50
44.89452214437227
 51
75.72101642693887
 73
     1
 72
     1
 10
0.3323589335387709
 20
0.4485522818918409
 11
0.3265929222653341
 21
0.4668852408125282
 72
     2
 10
0.2969666889642948
 20
0.2837087256641109
 40
0.1855568629868643
 50
279.1872322025628
 51
321.2114153013091
 73
     0
 72
     2
 10
0.391360930001218
 20
0.3614695140686965
 40
0.0632842065627897
 50
322.5501373864274
 51
353.5982204382204
 73
     0
 72
     2
 10
0.4168553866870788
 20
0.3701236067504183
 40
0.037429262845715
 50
2.446794162694425
 51
75.49161852865238
 73
     0
 72
     2
 10
0.3842397376361806
 20
0.451177177154813
 40
0.1245798445307902
 50
70.3013609867947
 51
93.48971079086757
 73
     0
 72
     2
 10
0.3785106583832878
 20
0.5442257936888897
 40
0.2174053638482186
 50
90.4886177031712
 51
92.08518751394512
 73
     0
 72
     1
 10
0.3706002871579663
 20
0.3269643883333746
 11
0.3647966485473173
 21
0.345416982890306
 72
     2
 10
0.368138231815232
 20
0.5488074975796167
 40
0.2034179629342476
 50
269.0587496435967
 51
275.3152451116762
 73
     1
 72
     2
 10
0.3887432458373094
 20
0.3774800182460609
 40
0.031265452549206
 50
266.7706331822096
 51
394.9895392417836
 73
     1
 72
     2
 10
0.3624406169004164
 20
0.364725498726969
 40
0.060306102378538
 50
30.58307632047512
 51
44.13489854844378
 73
     1
 97
        0
 75
     0
 76
     1
 52
0.0
 41
0.0453750276742311
 77
     0
 78
     2
 53
45.0
 43
-3.289467215457912
 44
-3.001277648028757
 45
-0.004010623720622
 46
0.004010623720622
 79
     0
 53
135.0
 43
-3.289467215457912
 44
-3.001277648028757
 45
-0.004010623720622
 46
-0.004010623720622
 79
     0
 98
        1
 10
-3.289467215457912
 20
-3.001277648028757
  0
HATCH
  5
4F
330
46
100
AcDbEntity
  8
0
 62
     5
100
AcDbHatch
 10
0.0
 20
0.0
 30
0.0
210
0.0
220
0.0
230
1.0
  2
ANSI37
 70
     0
 71
     0
 91
        1
 92
        1
 93
        4
 72
     2
 10
0.368138231815232
 20
0.5488074975796167
 40
0.2034179629342476
 50
241.2725538880669
 51
261.6978642764231
 73
     1
 72
     1
 10
0.3387660844240354
 20
0.3475212720152516
 11
0.3444315302060072
 21
0.3295080597853945
 72
     2
 10
0.3785106583832878
 20
0.5442257936888897
 40
0.2174053638482186
 50
99.0185280917996
 51
114.1854177949883
 73
     0
 72
     1
 10
0.2894416637327222
 20
0.3459033128101137
 11
0.2703666862890426
 21
0.3704270263117728
 97
        0
 75
     0
 76
     1
 52
0.0
 41
0.0453750276742311
 77
     0
 78
     2
 53
45.0
 43
-3.289467215457912
 44
-3.001277648028757
 45
-0.004010623720622
 46
0.004010623720622
 79
     0
 53
135.0
 43
-3.289467215457912
 44
-3.001277648028757
 45
-0.004010623720622
 46
-0.004010623720622
 79
     0
 98
        1
 10
-3.289467215457912
 20
-3.001277648028757
  0
ARC
  5
50
330
46
100
AcDbEntity
  8
0
 62
     5
100
AcDbCircle
 10
-1.004282102263919
 20
-0.757961875977971
 30
0.0
 40
1.684093940752742
100
AcDbArc
 50
34.18447411692975
 51
41.30254825040066
  0
ARC
  5
51
330
46
100
AcDbEntity
  8
0
  6
Continuous
 62
     5
100
AcDbCircle
 10
0.3785106583832878
 20
0.5442257936888933
 30
0.0
 40
0.2174053638482186
100
AcDbArc
 50
245.8145822050116
 51
260.9814719082004
  0
HATCH
  5
52
330
46
100
AcDbEntity
  8
0
 62
     5
100
AcDbHatch
 10
0.0
 20
0.0
 30
0.0
210
0.0
220
0.0
230
1.0
  2
ANSI37
 70
     0
 71
     0
 91
        1
 92
       33
 93
       10
 72
     1
 10
0.3444315302060072
 20
0.329508059785395
 11
0.3706002871579646
 21
0.3269643883333757
 72
     2
 10
-1.004282102263919
 20
-0.7579618759779727
 40
1.684093940752742
 50
34.18447411692975
 51
41.30254825040066
 73
     1
 72
     2
 10
-1.13904507603075
 20
-0.7417938831336617
 40
1.760202787403546
 50
28.95584779356306
 51
37.65348787016842
 73
     1
 72
     1
 10
0.3444315302060072
 20
0.329508059785395
 11
0.3888557381376909
 21
0.1882618602077355
 72
     1
 10
0.3706002871579663
 20
0.3269643883333746
 11
0.4387571520870335
 21
0.1102605100973615
 72
     1
 10
0.254542153127181
 20
0.3334867720960002
 11
0.2608678370467192
 21
0.3535992030196624
 72
     2
 10
-1.004282102263919
 20
-0.7579618759779727
 40
1.684093940752742
 50
28.16790426947593
 51
31.03859275647719
 73
     1
 72
     1
 10
0.4198612308673102
 20
0.0755952402932767
 11
0.4803612677662859
 21
0.0370264667701803
 72
     2
 10
-1.13904507603075
 20
-0.7417938831336617
 40
1.760202787403546
 50
27.66959516185725
 51
28.05942494817616
 73
     1
 72
     1
 10
0.4011201161180545
 20
0.1103827615101878
 11
0.4142638285818255
 21
0.0861827467505974
 97
        0
 75
     0
 76
     1
 52
0.0
 41
0.0453750276742311
 77
     0
 78
     2
 53
45.0
 43
-3.289467215457912
 44
-3.001277648028757
 45
-0.004010623720622
 46
0.004010623720622
 79
     0
 53
135.0
 43
-3.289467215457912
 44
-3.001277648028757
 45
-0.004010623720622
 46
-0.004010623720622
 79
     0
 98
        1
 10
-3.289467215457912
 20
-3.001277648028757
  0
HATCH
  5
53
330
46
100
AcDbEntity
  8
0
 62
     5
100
AcDbHatch
 10
0.0
 20
0.0
 30
0.0
210
0.0
220
0.0
230
1.0
  2
ANSI37
 70
     0
 71
     0
 91
        1
 92
        1
 93
        6
 72
     1
 10
0.1843723433461601
 20
0.1103827615101878
 11
0.4011201161180545
 21
0.1103827615101878
 72
     1
 10
0.4011201161180545
 20
0.1103827615101878
 11
0.4142638285818255
 21
0.0861827467505974
 72
     1
 10
0.4142638285818255
 20
0.0861827467505965
 11
0.1513923171281082
 21
0.0861827467505974
 72
     1
 10
0.15139231712811
 20
0.0861827467505965
 11
0.2364303266177767
 21
0.3565600076920983
 72
     1
 10
0.2364303266177767
 20
0.3565600076920994
 11
0.2545421531271828
 21
0.3334867720959997
 72
     1
 10
0.254542153127181
 20
0.3334867720960002
 11
0.1843723433461584
 21
0.1103827615101873
 97
        0
 75
     0
 76
     1
 52
0.0
 41
0.0453750276742311
 77
     0
 78
     2
 53
45.0
 43
-3.289467215457912
 44
-3.001277648028757
 45
-0.004010623720622
 46
0.004010623720622
 79
     0
 53
135.0
 43
-3.289467215457912
 44
-3.001277648028757
 45
-0.004010623720622
 46
-0.004010623720622
 79
     0
 98
        1
 10
-3.289467215457912
 20
-3.001277648028757
  0
LINE
  5
54
330
46
100
AcDbEntity
  8
0
 62
     5
100
AcDbLine
 10
0.236430326617775
 20
0.3565600076921012
 30
0.0
 11
0.15139231712811
 21
0.0861827467505982
 31
0.0
  0
HATCH
  5
55
330
46
100
AcDbEntity
  8
0
 62
     5
100
AcDbHatch
 10
0.0
 20
0.0
 30
0.0
210
0.0
220
0.0
230
1.0
  2
ANSI37
 70
     0
 71
     0
 91
        1
 92
        1
 93
       14
 72
     1
 10
0.2988611570693607
 20
0.5550580327176516
 11
0.3265929222653288
 21
0.4668852408125276
 72
     1
 10
0.3265929222653323
 20
0.4668852408125268
 11
0.3323589335387691
 21
0.4485522818918395
 72
     1
 10
0.3323589335387709
 20
0.4485522818918409
 11
0.3647966485473173
 21
0.3454169828903064
 72
     1
 10
0.3647966485473173
 20
0.3454169828903062
 11
0.3706002871579646
 21
0.3269643883333748
 72
     1
 10
0.3706002871579663
 20
0.3269643883333746
 11
0.3444315302060072
 21
0.3295080597853939
 72
     1
 10
0.3444315302060072
 20
0.329508059785395
 11
0.3387660844240354
 21
0.3475212720152521
 72
     1
 10
0.3387660844240354
 20
0.3475212720152516
 11
0.2988611570693624
 21
0.474398476937804
 72
     1
 10
0.2988611570693607
 20
0.4743984769378056
 11
0.2608678370467192
 21
0.3535992030196637
 72
     1
 10
0.260867837046721
 20
0.3535992030196624
 11
0.254542153127181
 21
0.3334867720960002
 72
     1
 10
0.254542153127181
 20
0.3334867720960002
 11
0.236430326617775
 21
0.3565600076920998
 72
     1
 10
0.2364303266177767
 20
0.3565600076920994
 11
0.242103905929854
 21
0.3745990803766492
 72
     1
 10
0.242103905929854
 20
0.3745990803766492
 11
0.2689368903660263
 21
0.4599142103788421
 72
     1
 10
0.2689368903660245
 20
0.4599142103788428
 11
0.2739367623135447
 21
0.4758112391350588
 72
     1
 10
0.2739367623135447
 20
0.4758112391350587
 11
0.2988611570693624
 21
0.5550580327176525
 97
        0
 75
     0
 76
     1
 52
0.0
 41
0.0453750276742311
 77
     0
 78
     2
 53
45.0
 43
-3.289467215457912
 44
-3.001277648028757
 45
-0.004010623720622
 46
0.004010623720622
 79
     0
 53
135.0
 43
-3.289467215457912
 44
-3.001277648028757
 45
-0.004010623720622
 46
-0.004010623720622
 79
     0
 98
        1
 10
-3.289467215457912
 20
-3.001277648028757
  0
LINE
  5
56
330
46
100
AcDbEntity
  8
0
 62
     5
100
AcDbLine
 10
0.1843723433461601
 20
0.1103827615101895
 30
0.0
 11
0.4011201161180545
 21
0.1103827615101895
 31
0.0
  0
LINE
  5
57
330
46
100
AcDbEntity
  8
0
 62
     5
100
AcDbLine
 10
0.15139231712811
 20
0.0861827467505982
 30
0.0
 11
0.4142638285818255
 21
0.0861827467505982
 31
0.0
  0
ARC
  5
58
330
46
100
AcDbEntity
  8
0
 62
     5
100
AcDbCircle
 10
-1.13904507603075
 20
-0.7417938831336599
 30
0.0
 40
1.760202787403546
100
AcDbArc
 50
28.95584779356306
 51
37.65348787016842
  0
LINE
  5
59
330
46
100
AcDbEntity
  8
0
 62
     5
100
AcDbLine
 10
0.254542153127181
 20
0.333486772096002
 30
0.0
 11
0.1843723433461601
 21
0.1103827615101895
 31
0.0
  0
LINE
  5
5A
330
46
100
AcDbEntity
  8
0
 62
     5
100
AcDbLine
 10
0.3706002871579646
 20
0.3269643883333746
 30
0.0
 11
0.4387571520870335
 21
0.1102605100973619
 31
0.0
  0
LINE
  5
5B
330
46
100
AcDbEntity
  8
0
 62
     5
100
AcDbLine
 10
0.4198612308673102
 20
0.0755952402932785
 30
0.0
 11
0.4803612677662859
 21
0.0370264667701807
 31
0.0
  0
LINE
  5
5C
330
46
100
AcDbEntity
  8
0
 62
     5
100
AcDbLine
 10
0.4011201161180527
 20
0.1103827615101895
 30
0.0
 11
0.4142638285818255
 21
0.0861827467505982
 31
0.0
  0
ARC
  5
5D
330
46
100
AcDbEntity
  8
0
 62
     5
100
AcDbCircle
 10
-1.13904507603075
 20
-0.7417938831336599
 30
0.0
 40
1.760202787403546
100
AcDbArc
 50
27.66959516185725
 51
28.05942494817616
  0
ARC
  5
5E
330
46
100
AcDbEntity
  8
0
 62
     5
100
AcDbCircle
 10
-1.004282102263919
 20
-0.757961875977971
 30
0.0
 40
1.684093940752742
100
AcDbArc
 50
28.16790426947593
 51
31.03859275647719
  0
ARC
  5
5F
330
46
100
AcDbEntity
  8
0
  6
Continuous
 62
     5
100
AcDbCircle
 10
0.3785106583832878
 20
0.5442257936888933
 30
0.0
 40
0.2174053638482186
100
AcDbArc
 50
267.9148124860548
 51
269.5113822968287
  0
ARC
  5
60
330
46
100
AcDbEntity
  8
0
  6
Continuous
 62
     5
100
AcDbCircle
 10
0.3842397376361806
 20
0.451177177154813
 30
0.0
 40
0.1245798445307902
100
AcDbArc
 50
266.5102892091324
 51
289.6986390132052
  0
LINE
  5
61
330
46
100
AcDbEntity
  8
0
 62
     5
100
AcDbLine
 10
0.3444315302060072
 20
0.329508059785395
 30
0.0
 11
0.3888557381376909
 21
0.1882618602077368
 31
0.0
  0
HATCH
  5
62
330
46
100
AcDbEntity
  8
0
 62
     5
100
AcDbHatch
 10
0.0
 20
0.0
 30
0.0
210
0.0
220
0.0
230
1.0
  2
ANSI37
 70
     0
 71
     0
 91
        1
 92
        1
 93
        3
 72
     1
 10
0.242103905929854
 20
0.3745990803766492
 11
0.2364303266177767
 21
0.3565600076920994
 72
     2
 10
-1.13904507603075
 20
-0.7417938831336617
 40
1.760202787403546
 50
38.60830081639222
 51
47.20214679696134
 73
     1
 72
     2
 10
-1.004282102263919
 20
-0.7579618759779727
 40
1.684093940752742
 50
309.0573044417869
 51
317.7393318345313
 73
     0
 97
        0
 75
     0
 76
     1
 52
0.0
 41
0.0453750276742311
 77
     0
 78
     2
 53
45.0
 43
-3.289467215457912
 44
-3.001277648028757
 45
-0.004010623720622
 46
0.004010623720622
 79
     0
 53
135.0
 43
-3.289467215457912
 44
-3.001277648028757
 45
-0.004010623720622
 46
-0.004010623720622
 79
     0
 98
        1
 10
-3.289467215457912
 20
-3.001277648028757
  0
ARC
  5
63
330
46
100
AcDbEntity
  8
0
 62
     5
100
AcDbCircle
 10
-1.13904507603075
 20
-0.7417938831336599
 30
0.0
 40
1.760202787403546
100
AcDbArc
 50
38.60830081639222
 51
47.20214679696134
  0
ARC
  5
64
330
46
100
AcDbEntity
  8
0
 62
     5
100
AcDbCircle
 10
-1.004282102263919
 20
-0.757961875977971
 30
0.0
 40
1.684093940752742
100
AcDbArc
 50
42.26066816546867
 51
50.9426955582131
  0
ARC
  5
65
330
46
100
AcDbEntity
  8
0
  6
Continuous
 62
     5
100
AcDbCircle
 10
0.368138231815232
 20
0.5488074975796185
 30
0.0
 40
0.2034179629342476
100
AcDbArc
 50
241.2725538880669
 51
261.6978642764231
  0
ARC
  5
66
330
46
100
AcDbEntity
  8
0
  6
Continuous
 62
     5
100
AcDbCircle
 10
0.296966688964293
 20
0.2837087256641126
 30
0.0
 40
0.1855568629868643
100
AcDbArc
 50
38.78858469869091
 51
80.81276779743708
  0
LINE
  5
67
330
46
100
AcDbEntity
  8
0
 62
     5
100
AcDbLine
 10
0.2988611570693607
 20
0.4743984769378056
 30
0.0
 11
0.3387660844240354
 21
0.3475212720152516
 31
0.0
  0
LINE
  5
68
330
46
100
AcDbEntity
  8
0
 62
     5
100
AcDbLine
 10
0.2988611570693607
 20
0.5550580327176551
 30
0.0
 11
0.3265929222653288
 21
0.4668852408125286
 31
0.0
  0
LINE
  5
69
330
46
100
AcDbEntity
  8
0
 62
     5
100
AcDbLine
 10
0.2988611570693607
 20
0.5550580327176551
 30
0.0
 11
0.2739367623135447
 21
0.4758112391350604
 31
0.0
  0
HATCH
  5
6A
330
46
100
AcDbEntity
  8
0
 62
     5
100
AcDbHatch
 10
0.0
 20
0.0
 30
0.0
210
0.0
220
0.0
230
1.0
  2
ANSI37
 70
     0
 71
     0
 91
        1
 92
        1
 93
        4
 72
     1
 10
0.2739367623135447
 20
0.4758112391350587
 11
0.2689368903660245
 21
0.4599142103788426
 72
     2
 10
0.2614843996869069
 20
0.4001510777290509
 40
0.0602260046943093
 50
82.89188209876458
 51
145.8760929220745
 73
     1
 72
     1
 10
0.2116277271373637
 20
0.4339369304447463
 11
0.1901760796845497
 21
0.4553973803790768
 72
     2
 10
0.2578538046943688
 20
0.3597543333174435
 40
0.1171659801893835
 50
234.7164937370072
 51
277.8896979387382
 73
     0
 97
        0
 75
     0
 76
     1
 52
0.0
 41
0.0453750276742311
 77
     0
 78
     2
 53
45.0
 43
-3.289467215457912
 44
-3.001277648028757
 45
-0.004010623720622
 46
0.004010623720622
 79
     0
 53
135.0
 43
-3.289467215457912
 44
-3.001277648028757
 45
-0.004010623720622
 46
-0.004010623720622
 79
     0
 98
        1
 10
-3.289467215457912
 20
-3.001277648028757
  0
ARC
  5
6B
330
46
100
AcDbEntity
  8
0
  6
Continuous
 62
     5
100
AcDbCircle
 10
0.2578538046943688
 20
0.3597543333174453
 30
0.0
 40
0.1171659801893835
100
AcDbArc
 50
82.11030206126171
 51
125.2835062629927
  0
ARC
  5
6C
330
46
100
AcDbEntity
  8
0
  6
Continuous
 62
     5
100
AcDbCircle
 10
0.2614843996869052
 20
0.4001510777290545
 30
0.0
 40
0.0602260046943093
100
AcDbArc
 50
82.89188209876458
 51
145.8760929220745
  0
LINE
  5
6D
330
46
100
AcDbEntity
  8
0
  6
Continuous
 62
     5
100
AcDbLine
 10
0.2116277271373619
 20
0.4339369304447498
 30
0.0
 11
0.190176079684548
 21
0.4553973803790772
 31
0.0
  0
LINE
  5
6E
330
46
100
AcDbEntity
  8
0
 62
     5
100
AcDbLine
 10
0.2689368903660263
 20
0.4599142103788428
 30
0.0
 11
0.242103905929854
 21
0.374599080376651
 31
0.0
  0
LINE
  5
6F
330
46
100
AcDbEntity
  8
0
  6
Continuous
 62
     5
100
AcDbLine
 10
0.2703666862890408
 20
0.3704270263117717
 30
0.0
 11
0.2894416637327204
 21
0.3459033128101137
 31
0.0
  0
LINE
  5
70
330
46
100
AcDbEntity
  8
0
 62
     5
100
AcDbLine
 10
0.2988611570693607
 20
0.4743984769378056
 30
0.0
 11
0.2608678370467192
 21
0.3535992030196642
 31
0.0
  0
LINE
  5
71
330
46
100
AcDbEntity
  8
0
 62
     5
100
AcDbLine
 10
0.3323589335387691
 20
0.4485522818918409
 30
0.0
 11
0.3647966485473173
 21
0.3454169828903062
 31
0.0
  0
ARC
  5
72
330
46
100
AcDbEntity
  8
0
  6
Continuous
 62
     5
100
AcDbCircle
 10
0.368138231815232
 20
0.5488074975796185
 30
0.0
 40
0.2034179629342476
100
AcDbArc
 50
269.0587496435967
 51
275.3152451116762
  0
ARC
  5
73
330
46
100
AcDbEntity
  8
0
  6
Continuous
 62
     5
100
AcDbCircle
 10
0.3624406169004164
 20
0.3647254987269708
 30
0.0
 40
0.060306102378538
100
AcDbArc
 50
30.58307632047512
 51
44.13489854844378
  0
ARC
  5
74
330
46
100
AcDbEntity
  8
0
  6
Continuous
 62
     5
100
AcDbCircle
 10
0.2931730151761673
 20
0.2945838597867389
 30
0.0
 40
0.1588767169960905
100
AcDbArc
 50
44.89452214437227
 51
75.72101642693887
  0
ARC
  5
75
330
46
100
AcDbEntity
  8
0
  6
Continuous
 62
     5
100
AcDbCircle
 10
0.391360930001218
 20
0.3614695140686965
 30
0.0
 40
0.0632842065627897
100
AcDbArc
 50
6.401779561779607
 51
37.44986261357257
  0
TEXT
  5
76
330
46
100
AcDbEntity
  8
0
 62
     5
100
AcDbText
 10
2.608221457526555
 20
0.5412305374466282
 30
0.0
 40
0.0283704365880094
  1
TM
 41
1.399999999999999
  7
ROMANS
100
AcDbText
  0
ENDBLK
  5
78
330
46
100
AcDbEntity
  8
0
100
AcDbBlockEnd
  0
BLOCK
  5
9F
330
92
100
AcDbEntity
  8
0
100
AcDbBlockBegin
  2
REVGRID
 70
     0
 10
0.0
 20
0.0
 30
0.0
  3
REVGRID
  1

  0
LINE
  5
93
330
92
100
AcDbEntity
  8
0
 62
    14
100
AcDbLine
 10
-3.569497213012034
 20
0.6000000000000015
 30
0.0
 11
0.0
 21
0.5999999999999936
 31
0.0
  0
LINE
  5
94
330
92
100
AcDbEntity
  8
0
 62
    14
100
AcDbLine
 10
-3.569497213012034
 20
0.4000000000000022
 30
0.0
 11
0.0
 21
0.3999999999999961
 31
0.0
  0
LINE
  5
95
330
92
100
AcDbEntity
  8
0
 62
    14
100
AcDbLine
 10
-3.569497213012034
 20
0.8000000000000014
 30
0.0
 11
0.0000000000000009
 21
0.7999999999999936
 31
0.0
  0
LINE
  5
96
330
92
100
AcDbEntity
  8
0
 62
    14
100
AcDbLine
 10
-3.569497213012034
 20
1.000000000000001
 30
0.0
 11
0.0000000000000018
 21
0.9999999999999934
 31
0.0
  0
LWPOLYLINE
  5
97
330
92
100
AcDbEntity
  8
0
 62
    14
100
AcDbPolyline
 90
        2
 70
     0
 43
0.02
 10
-3.569497213012034
 20
1.200000000000002
 10
0.0
 20
1.199999999999994
  0
TEXT
  5
98
330
92
100
AcDbEntity
  8
0
 62
     4
100
AcDbText
 10
-2.339366614691556
 20
0.048797129052713
 30
0.0
 40
0.09
  1
DESCRIPTION
 72
     1
 11
-1.909748606506017
 21
0.048797129052713
 31
0.0
100
AcDbText
  0
LWPOLYLINE
  5
99
330
92
100
AcDbEntity
  8
0
 62
    14
100
AcDbPolyline
 90
        2
 70
     0
 43
0.02
 10
-3.569497213012034
 20
0.2000000000000028
 10
0.0
 20
0.1999999999999948
  0
LWPOLYLINE
  5
9A
330
92
100
AcDbEntity
  8
0
 62
    14
100
AcDbPolyline
 90
        2
 70
     0
 43
0.02
 10
-3.569497213012034
 20
0.0
 10
-3.569497213012034
 20
1.200000000000002
  0
TEXT
  5
9B
330
92
100
AcDbEntity
  8
0
 62
     4
100
AcDbText
 10
-3.545765123340229
 20
0.048797129052713
 30
0.0
 40
0.09
  1
REV
 72
     1
 11
-3.416505232480748
 21
0.048797129052713
 31
0.0
100
AcDbText
  0
LWPOLYLINE
  5
9C
330
92
100
AcDbEntity
  8
0
 62
    14
100
AcDbPolyline
 90
        2
 70
     0
 43
0.0
 10
-3.269497213012034
 20
0.0000000000000001
 10
-3.269497213012034
 20
1.200000000000002
  0
LWPOLYLINE
  5
9D
330
92
100
AcDbEntity
  8
0
 62
    14
100
AcDbPolyline
 90
        2
 70
     0
 43
0.0
 10
-0.5500000000000007
 20
0.0000000000000001
 10
-0.5500000000000007
 20
1.199999999999995
  0
TEXT
  5
9E
330
92
100
AcDbEntity
  8
0
 62
     4
100
AcDbText
 10
-0.4396683196051399
 20
0.0487971290527057
 30
0.0
 40
0.09
  1
DATE
 72
     1
 11
-0.2720080194687142
 21
0.0487971290527057
 31
0.0
100
AcDbText
  0
ENDBLK
  5
A0
330
92
100
AcDbEntity
  8
0
100
AcDbBlockEnd
  0
BLOCK
  5
8E
330
2D
100
AcDbEntity
  8
0
100
AcDbBlockBegin
  2
TITLEBLK
 70
     2
 10
0.0
 20
0.0
 30
0.0
  3
TITLEBLK
  1

  0
LWPOLYLINE
  5
2E
330
2D
100
AcDbEntity
  8
0
 62
    14
100
AcDbPolyline
 90
        2
 70
     0
 43
0.02
 10
-7.330502786987967
 20
0.5999999999999997
 10
-2.4
 20
0.5999999999999997
  0
LWPOLYLINE
  5
2F
330
2D
100
AcDbEntity
  8
0
 62
    14
100
AcDbPolyline
 90
        2
 70
     0
 43
0.02
 10
-7.330502786987967
 20
1.199999999999999
 10
-0.0000000000000018
 20
1.199999999999999
  0
LWPOLYLINE
  5
30
330
2D
100
AcDbEntity
  8
0
 62
    14
100
AcDbPolyline
 90
        2
 70
     0
 43
0.02
 10
-7.330502786987967
 20
0.0
 10
-7.330502786987967
 20
1.199999999999999
  0
LWPOLYLINE
  5
31
330
2D
100
AcDbEntity
  8
0
 62
    14
100
AcDbPolyline
 90
        2
 70
     0
 43
0.02
 10
-5.77559494829334
 20
0.0
 10
-5.77559494829334
 20
0.5999999999999997
  0
LWPOLYLINE
  5
32
330
2D
100
AcDbEntity
  8
0
 62
    14
100
AcDbPolyline
 90
        2
 70
     0
 43
0.02
 10
-4.548596719643201
 20
0.5999999999999997
 10
-4.548596719643201
 20
1.199999999999999
  0
LWPOLYLINE
  5
33
330
2D
100
AcDbEntity
  8
0
 62
    14
100
AcDbPolyline
 90
        2
 70
     0
 43
0.02
 10
-2.4
 20
0.4499999999999997
 10
-0.0000000000000018
 20
0.4499999999999997
  0
LWPOLYLINE
  5
34
330
2D
100
AcDbEntity
  8
0
 62
    14
100
AcDbPolyline
 90
        2
 70
     0
 43
0.02
 10
-2.4
 20
0.9000000000000005
 10
-0.0000000000000018
 20
0.9000000000000005
  0
LWPOLYLINE
  5
35
330
2D
100
AcDbEntity
  8
0
 62
    14
100
AcDbPolyline
 90
        2
 70
     0
 43
0.02
 10
-2.4
 20
0.149999999999999
 10
-0.0000000000000018
 20
0.149999999999999
  0
LWPOLYLINE
  5
36
330
2D
100
AcDbEntity
  8
0
 62
    14
100
AcDbPolyline
 90
        2
 70
     0
 43
0.02
 10
-2.4
 20
0.0
 10
-2.4
 20
1.199999999999999
  0
LWPOLYLINE
  5
37
330
2D
100
AcDbEntity
  8
0
 62
    14
100
AcDbPolyline
 90
        2
 70
     0
 43
0.02
 10
-1.696920455791685
 20
0.9000000000000005
 10
-1.696920455791685
 20
1.199999999999999
  0
LWPOLYLINE
  5
38
330
2D
100
AcDbEntity
  8
0
 62
    14
100
AcDbPolyline
 90
        2
 70
     0
 43
0.02
 10
-1.200000000000001
 20
0.4499999999999997
 10
-1.200000000000001
 20
0.9000000000000005
  0
LWPOLYLINE
  5
39
330
2D
100
AcDbEntity
  8
0
 62
    14
100
AcDbPolyline
 90
        2
 70
     0
 43
0.02
 10
-1.061094862898864
 20
0.9000000000000005
 10
-1.061094862898864
 20
1.199999999999999
  0
LWPOLYLINE
  5
3A
330
2D
100
AcDbEntity
  8
0
 62
    14
100
AcDbPolyline
 90
        2
 70
     0
 43
0.02
 10
-0.551463673949181
 20
0.9000000000000005
 10
-0.551463673949181
 20
1.199999999999999
  0
ATTDEF
  5
3B
330
2D
100
AcDbEntity
  8
0
 62
     4
100
AcDbText
 10
-2.199883038560267
 20
0.93
 30
0.0
 40
0.09
  1
M.M.T.
 72
     1
 11
-2.00514906857391
 21
0.9750000000000001
 31
0.0
100
AcDbAttributeDefinition
  3
Drawn by
  2
DRWN_BY
 70
     8
 74
     2
  0
ATTDEF
  5
3C
330
2D
100
AcDbEntity
  8
0
 62
     4
100
AcDbText
 10
-1.335696500023342
 20
0.93
 30
0.0
 40
0.09
  1

 72
     1
 11
-1.335696500023342
 21
0.9750000000000001
 31
0.0
100
AcDbAttributeDefinition
  3
Approved by
  2
APPRV_BY
 70
     8
 74
     2
  0
ATTDEF
  5
3D
330
2D
100
AcDbEntity
  8
0
 62
     4
100
AcDbText
 10
-0.911750510193495
 20
0.93
 30
0.0
 40
0.09
  1
FULL
 72
     1
 11
-0.7629681091020899
 21
0.9750000000000001
 31
0.0
100
AcDbAttributeDefinition
  3
Drawing Scale
  2
SCALE
 70
     8
 74
     2
  0
ATTDEF
  5
3E
330
2D
100
AcDbEntity
  8
0
 62
     4
100
AcDbText
 10
-0.500609627175169
 20
0.93
 30
0.0
 40
0.09
  1
mm/dd/yy
 72
     1
 11
-0.2324206776526587
 21
0.9750000000000001
 31
0.0
100
AcDbAttributeDefinition
  3
Date Drawn
  2
DATE
 70
     8
 74
     2
  0
ATTDEF
  5
3F
330
2D
100
AcDbEntity
  8
0
 62
     4
100
AcDbText
 10
-1.777654052137822
 20
0.6299999999999998
 30
0.0
 40
0.09
  1
-
 72
     1
 11
-1.756688840678068
 21
0.6749999999999998
 31
0.0
100
AcDbAttributeDefinition
  3
Job Number (Base)
  2
JOB_NUMBER
 70
     8
 74
     2
  0
ATTDEF
  5
40
330
2D
100
AcDbEntity
  8
0
 62
     4
100
AcDbText
 10
-0.5776540521378232
 20
0.6299999999999998
 30
0.0
 40
0.09
  1
-
 72
     1
 11
-0.5566888406780688
 21
0.6749999999999998
 31
0.0
100
AcDbAttributeDefinition
  3
Product (Base)
  2
PRODUCT
 70
     8
 74
     2
  0
ATTDEF
  5
41
330
2D
100
AcDbEntity
  8
0
 62
     4
100
AcDbText
 10
-1.777654052137822
 20
0.4799999999999998
 30
0.0
 40
0.09
  1
-
 72
     1
 11
-1.756688840678068
 21
0.5249999999999999
 31
0.0
100
AcDbAttributeDefinition
  3
Job Number (Cover)
  2
JOB_NUMBER
 70
     8
 74
     2
  0
ATTDEF
  5
42
330
2D
100
AcDbEntity
  8
0
 62
     4
100
AcDbText
 10
-0.5776540521378232
 20
0.4799999999999998
 30
0.0
 40
0.09
  1
-
 72
     1
 11
-0.5566888406780688
 21
0.5249999999999999
 31
0.0
100
AcDbAttributeDefinition
  3
Product (Cover)
  2
PRODUCT
 70
     8
 74
     2
  0
ATTDEF
  5
43
330
2D
100
AcDbEntity
  8
0
 62
     4
100
AcDbText
 10
-2.299397734766415
 20
0.1965997167108784
 30
0.0
 40
0.09
  1

100
AcDbAttributeDefinition
  3
Customer Name
  2
CUSTOMER_NAME
 70
     8
  0
ATTDEF
  5
44
330
2D
100
AcDbEntity
  8
0
 62
     4
100
AcDbText
 10
-1.896803912600208
 20
0.0273723706496532
 30
0.0
 40
0.09
  1
Secondary Operations Drawing
100
AcDbAttributeDefinition
  3
Drawing Title
  2
DRAWING_TITLE
 70
     8
  0
INSERT
  5
45
330
2D
100
AcDbEntity
  8
0
100
AcDbBlockReference
  2
POLYCASELOGO
 10
-7.287191627666034
 20
0.5999999999999996
 30
0.0
  0
TEXT
  5
79
330
2D
100
AcDbEntity
  8
0
 62
     4
100
AcDbText
 10
-7.237884200129098
 20
0.3303521534159193
 30
0.0
 40
0.09
  1
OTHERWISE SPECIFIED
 72
     1
 11
-6.507877378846696
 21
0.3303521534159193
 31
0.0
100
AcDbText
  0
TEXT
  5
7A
330
2D
100
AcDbEntity
  8
0
 62
     4
100
AcDbText
 10
-5.685352037880008
 20
0.0382015110144847
 30
0.0
 40
0.09
  1
WAY DETRIMENTAL TO THE INTEREST OF POLYCASE
100
AcDbText
  0
TEXT
  5
7B
330
2D
100
AcDbEntity
  8
0
 62
     4
100
AcDbText
 10
-5.685352037880008
 20
0.3273556719967485
 30
0.0
 40
0.09
  1
ARE THE PROPERTY OF POLYCASE AND IT IS NOT
100
AcDbText
  0
TEXT
  5
7C
330
2D
100
AcDbEntity
  8
0
 62
     4
100
AcDbText
 10
-5.685352037880008
 20
0.4719327524878806
 30
0.0
 40
0.09
  1
THIS DRAWING AND THE INFORMATION CONTAINED
100
AcDbText
  0
TEXT
  5
7D
330
2D
100
AcDbEntity
  8
0
 62
     4
100
AcDbText
 10
-4.358532367680285
 20
0.9240225636355036
 30
0.0
 40
0.09
  1
AVON, OHIO 44011-1083 U.S.A.
 72
     1
 11
-3.43268652866255
 21
0.9240225636355036
 31
0.0
100
AcDbText
  0
TEXT
  5
7E
330
2D
100
AcDbEntity
  8
0
 62
     4
100
AcDbText
 10
-4.463726774228716
 20
0.7794454831443715
 30
0.0
 40
0.09
  1
PH#: 1-800-248-1233, 440-934-0444
 72
     1
 11
-3.43268652866255
 21
0.7794454831443715
 31
0.0
100
AcDbText
  0
TEXT
  5
7F
330
2D
100
AcDbEntity
  8
0
 62
     4
100
AcDbText
 10
-4.36543891611139
 20
1.068599644126635
 30
0.0
 40
0.09
  1
1305 CHESTER IND. PARKWAY
 72
     1
 11
-3.43268652866255
 21
1.068599644126635
 31
0.0
100
AcDbText
  0
TEXT
  5
80
330
2D
100
AcDbEntity
  8
0
 62
     4
100
AcDbText
 10
-5.685352037880008
 20
0.1827785915056166
 30
0.0
 40
0.09
  1
TO BE REPRODUCED, COPIED OR USED IN ANY
100
AcDbText
  0
TEXT
  5
81
330
2D
100
AcDbEntity
  8
0
 62
     4
100
AcDbText
 10
-7.203075196036328
 20
0.4749292339070513
 30
0.0
 40
0.09
  1
TOLERANCES UNLESS
 72
     1
 11
-6.507877378846696
 21
0.4749292339070513
 31
0.0
100
AcDbText
  0
TEXT
  5
82
330
2D
100
AcDbEntity
  8
0
 62
     4
100
AcDbText
 10
-4.016335914747134
 20
0.6348684026532378
 30
0.0
 40
0.09
  1
FAX#: 440-934-0088
 72
     1
 11
-3.43268652866255
 21
0.6348684026532378
 31
0.0
100
AcDbText
  0
TEXT
  5
83
330
2D
100
AcDbEntity
  8
0
 62
     4
100
AcDbText
 10
-0.3944934674764495
 20
1.065703165605704
 30
0.0
 40
0.09
  1
DATE:
 72
     1
 11
-0.2093672737520293
 21
1.065703165605704
 31
0.0
100
AcDbText
  0
TEXT
  5
84
330
2D
100
AcDbEntity
  8
0
 62
     4
100
AcDbText
 10
-2.303074675751723
 20
0.0273723706496532
 30
0.0
 40
0.09
  1
TITLE:
100
AcDbText
  0
TEXT
  5
85
330
2D
100
AcDbEntity
  8
0
 62
     4
100
AcDbText
 10
-1.57771128246307
 20
1.065703165605704
 30
0.0
 40
0.09
  1
APP. BY
100
AcDbText
  0
TEXT
  5
86
330
2D
100
AcDbEntity
  8
0
 62
     4
100
AcDbText
 10
-2.303074675751723
 20
0.3157031656057045
 30
0.0
 40
0.09
  1
CUSTOMER:
100
AcDbText
  0
TEXT
  5
87
330
2D
100
AcDbEntity
  8
0
 62
     4
100
AcDbText
 10
-2.305458981304663
 20
0.7657031656057036
 30
0.0
 40
0.09
  1
JOB NO:
100
AcDbText
  0
TEXT
  5
88
330
2D
100
AcDbEntity
  8
0
 62
     4
100
AcDbText
 10
-2.304227624677977
 20
1.065703165605704
 30
0.0
 40
0.09
  1
DRWN BY
100
AcDbText
  0
TEXT
  5
89
330
2D
100
AcDbEntity
  8
0
 62
     4
100
AcDbText
 10
-1.105458981304664
 20
0.7657031656057036
 30
0.0
 40
0.09
  1
PRODUCT:
100
AcDbText
  0
TEXT
  5
8A
330
2D
100
AcDbEntity
  8
0
 62
     4
100
AcDbText
 10
-0.9841713932981347
 20
1.065703165605704
 30
0.0
 40
0.09
  1
SCALE:
 72
     1
 11
-0.7605527029843558
 21
1.065703165605704
 31
0.0
100
AcDbText
  0
ATTDEF
  5
8B
330
2D
100
AcDbEntity
  8
0
 62
     4
100
AcDbText
 10
-1.576525129900442
 20
1.261252546324116
 30
0.0
 40
0.12
  1
Page 1 of 1
 72
     1
 11
-1.156688840678068
 21
1.321252546324116
 31
0.0
100
AcDbAttributeDefinition
  3
Page ? OF ?
  2
PAGES
 70
     8
 74
     2
  0
ATTDEF
  5
8C
330
2D
100
AcDbEntity
  8
0
 62
     4
100
AcDbText
 10
-6.822723899992672
 20
0.1857750729247856
 30
0.0
 40
0.09
  1
X.XX %%P.010
 72
     1
 11
-6.507877378846696
 21
0.1857750729247856
 31
0.0
100
AcDbAttributeDefinition
  3
2 Place Decimal Tolerance
  2
TOLERANCE
 70
     8
  0
ATTDEF
  5
8D
330
2D
100
AcDbEntity
  8
0
 62
     4
100
AcDbText
 10
-6.865145455245059
 20
0.0411979924336537
 30
0.0
 40
0.09
  1
X.XXX %%P.005
 72
     1
 11
-6.507877378846696
 21
0.0411979924336537
 31
0.0
100
AcDbAttributeDefinition
  3
3 Place Deimal Tolerance
  2
TOLERANCE
 70
     8
  0
ENDBLK
  5
8F
330
2D
100
AcDbEntity
  8
0
100
AcDbBlockEnd
  0
BLOCK
  5
32A
330
31F
100
AcDbEntity
  8
0
100
AcDbBlockBegin
  2
*D3
 70
     1
 10
0.0
 20
0.0
 30
0.0
  3
*D3
  1

  0
LINE
  5
136D
330
31F
100
AcDbEntity
  8
0
 62
     1
370
    -2
100
AcDbLine
 10
55.89119601102233
 20
22.95740158961036
 30
0.0
 11
55.89119601102233
 21
20.86188838014236
 31
0.0
  0
LINE
  5
136E
330
31F
100
AcDbEntity
  8
0
 62
     1
370
    -2
100
AcDbLine
 10
59.64144427192934
 20
22.95740158961036
 30
0.0
 11
59.64144427192934
 21
20.86188838014236
 31
0.0
  0
LINE
  5
136F
330
31F
100
AcDbEntity
  8
0
 62
     1
370
    -2
100
AcDbLine
 10
56.07119601102233
 20
20.96188838014236
 30
0.0
 11
57.33367859986602
 21
20.96188838014236
 31
0.0
  0
LINE
  5
1370
330
31F
100
AcDbEntity
  8
0
 62
     1
370
    -2
100
AcDbLine
 10
59.46144427192934
 20
20.96188838014236
 30
0.0
 11
58.19896168308567
 21
20.96188838014236
 31
0.0
  0
SOLID
  5
1371
330
31F
100
AcDbEntity
  8
0
 62
     1
100
AcDbTrace
 10
56.07119601102233
 20
20.99188838014236
 30
0.0
 11
56.07119601102233
 21
20.93188838014236
 31
0.0
 12
55.89119601102233
 22
20.96188838014236
 32
0.0
 13
55.89119601102233
 23
20.96188838014236
 33
0.0
  0
SOLID
  5
1372
330
31F
100
AcDbEntity
  8
0
 62
     1
100
AcDbTrace
 10
59.46144427192934
 20
20.99188838014236
 30
0.0
 11
59.46144427192934
 21
20.93188838014236
 31
0.0
 12
59.64144427192934
 22
20.96188838014236
 32
0.0
 13
59.64144427192934
 23
20.96188838014236
 33
0.0
  0
MTEXT
  5
1373
330
31F
100
AcDbEntity
  8
0
 62
     4
100
AcDbMText
 10
57.76632014147584
 20
20.96188838014236
 30
0.0
 40
0.125
 41
0.0
 71
     5
 72
     1
  1
\A1;3.750 (2)
 73
     1
 44
1.0
  0
POINT
  5
1374
330
31F
100
AcDbEntity
  8
DEFPOINTS
 62
     0
100
AcDbPoint
 10
55.89119601102233
 20
23.02040158961035
 30
0.0
  0
POINT
  5
1375
330
31F
100
AcDbEntity
  8
DEFPOINTS
 62
     0
100
AcDbPoint
 10
59.64144427192934
 20
23.02040158961035
 30
0.0
  0
POINT
  5
1376
330
31F
100
AcDbEntity
  8
DEFPOINTS
 62
     0
100
AcDbPoint
 10
59.64144427192934
 20
20.96188838014236
 30
0.0
  0
ENDBLK
  5
32B
330
31F
100
AcDbEntity
  8
0
100
AcDbBlockEnd
  0
BLOCK
  5
34D
330
342
100
AcDbEntity
  8
0
100
AcDbBlockBegin
  2
*D4
 70
     1
 10
0.0
 20
0.0
 30
0.0
  3
*D4
  1

  0
LINE
  5
1326
330
342
100
AcDbEntity
  8
0
 62
     1
370
    -2
100
AcDbLine
 10
55.41523110747611
 20
25.52089811297236
 30
0.0
 11
52.98270794917526
 21
25.52089811297236
 31
0.0
  0
LINE
  5
1327
330
342
100
AcDbEntity
  8
0
 62
     1
370
    -2
100
AcDbLine
 10
55.41523110747611
 20
23.02040158961035
 30
0.0
 11
52.98270794917526
 21
23.02040158961035
 31
0.0
  0
LINE
  5
1328
330
342
100
AcDbEntity
  8
0
 62
     1
370
    -2
100
AcDbLine
 10
53.08270794917526
 20
25.34089811297236
 30
0.0
 11
53.08270794917526
 21
24.54701297089118
 31
0.0
  0
LINE
  5
1329
330
342
100
AcDbEntity
  8
0
 62
     1
370
    -2
100
AcDbLine
 10
53.08270794917526
 20
23.20040158961035
 30
0.0
 11
53.08270794917526
 21
23.99428673169154
 31
0.0
  0
SOLID
  5
132A
330
342
100
AcDbEntity
  8
0
 62
     1
100
AcDbTrace
 10
53.05270794917526
 20
25.34089811297236
 30
0.0
 11
53.11270794917526
 21
25.34089811297236
 31
0.0
 12
53.08270794917526
 22
25.52089811297236
 32
0.0
 13
53.08270794917526
 23
25.52089811297236
 33
0.0
  0
SOLID
  5
132B
330
342
100
AcDbEntity
  8
0
 62
     1
100
AcDbTrace
 10
53.05270794917526
 20
23.20040158961035
 30
0.0
 11
53.11270794917526
 21
23.20040158961035
 31
0.0
 12
53.08270794917526
 22
23.02040158961035
 32
0.0
 13
53.08270794917526
 23
23.02040158961035
 33
0.0
  0
MTEXT
  5
132C
330
342
100
AcDbEntity
  8
0
 62
     4
100
AcDbMText
 10
53.08270794917525
 20
24.27064985129137
 30
0.0
 40
0.125
 41
0.0
 71
     5
 72
     1
  1
\A1;2.500\P(2 PLCS.)
 73
     1
 44
1.0
  0
POINT
  5
132D
330
342
100
AcDbEntity
  8
DEFPOINTS
 62
     0
100
AcDbPoint
 10
55.47823110747611
 20
25.52089811297236
 30
0.0
  0
POINT
  5
132E
330
342
100
AcDbEntity
  8
DEFPOINTS
 62
     0
100
AcDbPoint
 10
55.47823110747611
 20
23.02040158961035
 30
0.0
  0
POINT
  5
132F
330
342
100
AcDbEntity
  8
DEFPOINTS
 62
     0
100
AcDbPoint
 10
53.08270794917526
 20
23.02040158961035
 30
0.0
  0
ENDBLK
  5
34E
330
342
100
AcDbEntity
  8
0
100
AcDbBlockEnd
  0
BLOCK
  5
35B
330
350
100
AcDbEntity
  8
0
100
AcDbBlockBegin
  2
*D5
 70
     1
 10
0.0
 20
0.0
 30
0.0
  3
*D5
  1

  0
LINE
  5
1381
330
350
100
AcDbEntity
  8
0
 62
     1
370
    -2
100
AcDbLine
 10
55.01682502958387
 20
19.38616533575563
 30
0.0
 11
55.01682502958387
 21
18.5160231558451
 31
0.0
  0
LINE
  5
1382
330
350
100
AcDbEntity
  8
0
 62
     1
370
    -2
100
AcDbLine
 10
60.51581525336782
 20
19.38616533575563
 30
0.0
 11
60.51581525336782
 21
18.5160231558451
 31
0.0
  0
LINE
  5
1383
330
350
100
AcDbEntity
  8
0
 62
     1
370
    -2
100
AcDbLine
 10
55.19682502958387
 20
18.6160231558451
 30
0.0
 11
57.34983737970079
 21
18.6160231558451
 31
0.0
  0
LINE
  5
1384
330
350
100
AcDbEntity
  8
0
 62
     1
370
    -2
100
AcDbLine
 10
60.33581525336781
 20
18.6160231558451
 30
0.0
 11
57.95258635650843
 21
18.6160231558451
 31
0.0
  0
SOLID
  5
1385
330
350
100
AcDbEntity
  8
0
 62
     1
100
AcDbTrace
 10
55.19682502958387
 20
18.6460231558451
 30
0.0
 11
55.19682502958387
 21
18.5860231558451
 31
0.0
 12
55.01682502958387
 22
18.6160231558451
 32
0.0
 13
55.01682502958387
 23
18.6160231558451
 33
0.0
  0
SOLID
  5
1386
330
350
100
AcDbEntity
  8
0
 62
     1
100
AcDbTrace
 10
60.33581525336781
 20
18.6460231558451
 30
0.0
 11
60.33581525336781
 21
18.5860231558451
 31
0.0
 12
60.51581525336782
 22
18.6160231558451
 32
0.0
 13
60.51581525336782
 23
18.6160231558451
 33
0.0
  0
MTEXT
  5
1387
330
350
100
AcDbEntity
  8
0
 62
     4
100
AcDbMText
 10
57.65121186810461
 20
18.6160231558451
 30
0.0
 40
0.125
 41
0.0
 71
     5
 72
     1
  1
\A1;5.505
 73
     1
 44
1.0
  0
POINT
  5
1388
330
350
100
AcDbEntity
  8
DEFPOINTS
 62
     0
100
AcDbPoint
 10
55.01682502958387
 20
19.44916533575563
 30
0.0
  0
POINT
  5
1389
330
350
100
AcDbEntity
  8
DEFPOINTS
 62
     0
100
AcDbPoint
 10
60.51581525336782
 20
19.44916533575563
 30
0.0
  0
POINT
  5
138A
330
350
100
AcDbEntity
  8
DEFPOINTS
 62
     0
100
AcDbPoint
 10
60.51581525336782
 20
18.6160231558451
 30
0.0
  0
ENDBLK
  5
35C
330
350
100
AcDbEntity
  8
0
100
AcDbBlockEnd
  0
BLOCK
  5
369
330
35E
100
AcDbEntity
  8
0
100
AcDbBlockBegin
  2
*D6
 70
     1
 10
0.0
 20
0.0
 30
0.0
  3
*D6
  1

  0
LINE
  5
13D8
330
35E
100
AcDbEntity
  8
0
 62
     1
370
    -2
100
AcDbLine
 10
63.764799799963
 20
22.27064985206536
 30
0.0
 11
64.66267672194518
 21
22.27064985206536
 31
0.0
  0
LINE
  5
13D9
330
35E
100
AcDbEntity
  8
0
 62
     1
370
    -2
100
AcDbLine
 10
63.76479979996302
 20
26.27064985051735
 30
0.0
 11
64.66267672194518
 21
26.27064985051735
 31
0.0
  0
LINE
  5
13DA
330
35E
100
AcDbEntity
  8
0
 62
     1
370
    -2
100
AcDbLine
 10
64.5626767219452
 20
22.45064985206536
 30
0.0
 11
64.5626767219452
 21
24.11682822782614
 31
0.0
  0
LINE
  5
13DB
330
35E
100
AcDbEntity
  8
0
 62
     1
370
    -2
100
AcDbLine
 10
64.5626767219452
 20
26.09064985051735
 30
0.0
 11
64.5626767219452
 21
24.42447147475657
 31
0.0
  0
SOLID
  5
13DC
330
35E
100
AcDbEntity
  8
0
 62
     1
100
AcDbTrace
 10
64.53267672194519
 20
22.45064985206536
 30
0.0
 11
64.5926767219452
 21
22.45064985206536
 31
0.0
 12
64.5626767219452
 22
22.27064985206536
 32
0.0
 13
64.5626767219452
 23
22.27064985206536
 33
0.0
  0
SOLID
  5
13DD
330
35E
100
AcDbEntity
  8
0
 62
     1
100
AcDbTrace
 10
64.53267672194519
 20
26.09064985051735
 30
0.0
 11
64.5926767219452
 21
26.09064985051735
 31
0.0
 12
64.5626767219452
 22
26.27064985051735
 32
0.0
 13
64.5626767219452
 23
26.27064985051735
 33
0.0
  0
MTEXT
  5
13DE
330
35E
100
AcDbEntity
  8
0
 62
     4
100
AcDbMText
 10
64.5626767219452
 20
24.27064985129137
 30
0.0
 40
0.125
 41
0.0
 71
     5
 72
     1
  1
\A1;4.005
 73
     1
 44
1.0
  0
POINT
  5
13DF
330
35E
100
AcDbEntity
  8
DEFPOINTS
 62
     0
100
AcDbPoint
 10
63.70179979996301
 20
22.27064985206536
 30
0.0
  0
POINT
  5
13E0
330
35E
100
AcDbEntity
  8
DEFPOINTS
 62
     0
100
AcDbPoint
 10
63.70179979996302
 20
26.27064985051735
 30
0.0
  0
POINT
  5
13E1
330
35E
100
AcDbEntity
  8
DEFPOINTS
 62
     0
100
AcDbPoint
 10
64.5626767219452
 20
26.27064985051735
 30
0.0
  0
ENDBLK
  5
36A
330
35E
100
AcDbEntity
  8
0
100
AcDbBlockEnd
  0
BLOCK
  5
3C8
330
3BC
100
AcDbEntity
  8
0
100
AcDbBlockBegin
  2
*D7
 70
     1
 10
0.0
 20
0.0
 30
0.0
  3
*D7
  1

  0
LINE
  5
1312
330
3BC
100
AcDbEntity
  8
0
 62
     1
370
    -2
100
AcDbLine
 10
55.24775166759535
 20
19.98490884105765
 30
0.0
 11
54.12249743021166
 21
19.98490884105765
 31
0.0
  0
LINE
  5
1313
330
3BC
100
AcDbEntity
  8
0
 62
     1
370
    -2
100
AcDbLine
 10
55.32297911876124
 20
19.19481450120864
 30
0.0
 11
54.12249743021166
 21
19.19481450120864
 31
0.0
  0
LINE
  5
1314
330
3BC
100
AcDbEntity
  8
0
 62
     1
370
    -2
100
AcDbLine
 10
54.22249743021166
 20
20.16490884105765
 30
0.0
 11
54.22249743021166
 21
20.34490884105765
 31
0.0
  0
LINE
  5
1315
330
3BC
100
AcDbEntity
  8
0
 62
     1
370
    -2
100
AcDbLine
 10
54.22249743021166
 20
19.01481450120864
 30
0.0
 11
54.22249743021166
 21
18.83481450120864
 31
0.0
  0
SOLID
  5
1316
330
3BC
100
AcDbEntity
  8
0
 62
     1
100
AcDbTrace
 10
54.19249743021166
 20
20.16490884105765
 30
0.0
 11
54.25249743021166
 21
20.16490884105765
 31
0.0
 12
54.22249743021166
 22
19.98490884105765
 32
0.0
 13
54.22249743021166
 23
19.98490884105765
 33
0.0
  0
SOLID
  5
1317
330
3BC
100
AcDbEntity
  8
0
 62
     1
100
AcDbTrace
 10
54.19249743021166
 20
19.01481450120864
 30
0.0
 11
54.25249743021166
 21
19.01481450120864
 31
0.0
 12
54.22249743021166
 22
19.19481450120864
 32
0.0
 13
54.22249743021166
 23
19.19481450120864
 33
0.0
  0
MTEXT
  5
1318
330
3BC
100
AcDbEntity
  8
0
 62
     4
100
AcDbMText
 10
54.22249743021165
 20
19.58390938520219
 30
0.0
 40
0.125
 41
0.0
 71
     5
 72
     1
  1
\A1;0.790\P(INSIDE DEPTH)
 73
     1
 44
1.0
  0
POINT
  5
1319
330
3BC
100
AcDbEntity
  8
DEFPOINTS
 62
     0
100
AcDbPoint
 10
55.31075166759535
 20
19.98490884105765
 30
0.0
  0
POINT
  5
131A
330
3BC
100
AcDbEntity
  8
DEFPOINTS
 62
     0
100
AcDbPoint
 10
55.38597911876124
 20
19.19481450120864
 30
0.0
  0
POINT
  5
131B
330
3BC
100
AcDbEntity
  8
DEFPOINTS
 62
     0
100
AcDbPoint
 10
54.22249743021166
 20
19.19481450120864
 30
0.0
  0
ENDBLK
  5
3C9
330
3BC
100
AcDbEntity
  8
0
100
AcDbBlockEnd
  0
BLOCK
  5
3D6
330
3CB
100
AcDbEntity
  8
0
100
AcDbBlockBegin
  2
*D8
 70
     1
 10
0.0
 20
0.0
 30
0.0
  3
*D8
  1

  0
LINE
  5
1308
330
3CB
100
AcDbEntity
  8
0
 62
     1
370
    -2
100
AcDbLine
 10
55.95257535565884
 20
20.35928818550064
 30
0.0
 11
52.8006195933938
 21
20.35928818550064
 31
0.0
  0
LINE
  5
1309
330
3CB
100
AcDbEntity
  8
0
 62
     1
370
    -2
100
AcDbLine
 10
55.32297911876124
 20
19.19481450120864
 30
0.0
 11
52.8006195933938
 21
19.19481450120864
 31
0.0
  0
LINE
  5
130A
330
3CB
100
AcDbEntity
  8
0
 62
     1
370
    -2
100
AcDbLine
 10
52.9006195933938
 20
20.17928818550064
 30
0.0
 11
52.9006195933938
 21
20.09876246727155
 31
0.0
  0
LINE
  5
130B
330
3CB
100
AcDbEntity
  8
0
 62
     1
370
    -2
100
AcDbLine
 10
52.9006195933938
 20
19.37481450120864
 30
0.0
 11
52.9006195933938
 21
19.54603622807192
 31
0.0
  0
SOLID
  5
130C
330
3CB
100
AcDbEntity
  8
0
 62
     1
100
AcDbTrace
 10
52.87061959339379
 20
20.17928818550064
 30
0.0
 11
52.9306195933938
 21
20.17928818550064
 31
0.0
 12
52.9006195933938
 22
20.35928818550064
 32
0.0
 13
52.9006195933938
 23
20.35928818550064
 33
0.0
  0
SOLID
  5
130D
330
3CB
100
AcDbEntity
  8
0
 62
     1
100
AcDbTrace
 10
52.87061959339379
 20
19.37481450120864
 30
0.0
 11
52.9306195933938
 21
19.37481450120864
 31
0.0
 12
52.9006195933938
 22
19.19481450120864
 32
0.0
 13
52.9006195933938
 23
19.19481450120864
 33
0.0
  0
MTEXT
  5
130E
330
3CB
100
AcDbEntity
  8
0
 62
     4
100
AcDbMText
 10
52.90061959339379
 20
19.82239934767174
 30
0.0
 40
0.125
 41
0.0
 71
     5
 72
     1
  1
\A1;1.165\P(INSIDE DEPTH)
 73
     1
 44
1.0
  0
POINT
  5
130F
330
3CB
100
AcDbEntity
  8
DEFPOINTS
 62
     0
100
AcDbPoint
 10
56.01557535565884
 20
20.35928818550064
 30
0.0
  0
POINT
  5
1310
330
3CB
100
AcDbEntity
  8
DEFPOINTS
 62
     0
100
AcDbPoint
 10
55.38597911876124
 20
19.19481450120864
 30
0.0
  0
POINT
  5
1311
330
3CB
100
AcDbEntity
  8
DEFPOINTS
 62
     0
100
AcDbPoint
 10
52.9006195933938
 20
19.19481450120864
 30
0.0
  0
ENDBLK
  5
3D7
330
3CB
100
AcDbEntity
  8
0
100
AcDbBlockEnd
  0
BLOCK
  5
434
330
429
100
AcDbEntity
  8
0
100
AcDbBlockBegin
  2
*D9
 70
     1
 10
0.0
 20
0.0
 30
0.0
  3
*D9
  1

  0
LINE
  5
138B
330
429
100
AcDbEntity
  8
0
 62
     1
370
    -2
100
AcDbLine
 10
59.58006492729285
 20
20.45958610005964
 30
0.0
 11
61.75570371801611
 21
20.45958610005964
 31
0.0
  0
LINE
  5
138C
330
429
100
AcDbEntity
  8
0
 62
     1
370
    -2
100
AcDbLine
 10
60.20456419937583
 20
19.08458610005959
 30
0.0
 11
61.75570371801611
 21
19.08458610005959
 31
0.0
  0
LINE
  5
138D
330
429
100
AcDbEntity
  8
0
 62
     1
370
    -2
100
AcDbLine
 10
61.6557037180161
 20
20.27958610005963
 30
0.0
 11
61.6557037180161
 21
19.92595035653983
 31
0.0
  0
LINE
  5
138E
330
429
100
AcDbEntity
  8
0
 62
     1
370
    -2
100
AcDbLine
 10
61.6557037180161
 20
19.26458610005959
 30
0.0
 11
61.6557037180161
 21
19.6182218435794
 31
0.0
  0
SOLID
  5
138F
330
429
100
AcDbEntity
  8
0
 62
     1
100
AcDbTrace
 10
61.6257037180161
 20
20.27958610005963
 30
0.0
 11
61.6857037180161
 21
20.27958610005963
 31
0.0
 12
61.6557037180161
 22
20.45958610005964
 32
0.0
 13
61.6557037180161
 23
20.45958610005964
 33
0.0
  0
SOLID
  5
1390
330
429
100
AcDbEntity
  8
0
 62
     1
100
AcDbTrace
 10
61.6257037180161
 20
19.26458610005959
 30
0.0
 11
61.6857037180161
 21
19.26458610005959
 31
0.0
 12
61.6557037180161
 22
19.08458610005959
 32
0.0
 13
61.6557037180161
 23
19.08458610005959
 33
0.0
  0
MTEXT
  5
1391
330
429
100
AcDbEntity
  8
0
 62
     4
100
AcDbMText
 10
61.6557037180161
 20
19.77208610005962
 30
0.0
 40
0.125
 41
0.0
 71
     5
 72
     1
  1
\A1;1.375
 73
     1
 44
1.0
  0
POINT
  5
1392
330
429
100
AcDbEntity
  8
DEFPOINTS
 62
     0
100
AcDbPoint
 10
59.51706492729284
 20
20.45958610005964
 30
0.0
  0
POINT
  5
1393
330
429
100
AcDbEntity
  8
DEFPOINTS
 62
     0
100
AcDbPoint
 10
60.14156419937583
 20
19.08458610005959
 30
0.0
  0
POINT
  5
1394
330
429
100
AcDbEntity
  8
DEFPOINTS
 62
     0
100
AcDbPoint
 10
61.6557037180161
 20
19.08458610005959
 30
0.0
  0
ENDBLK
  5
435
330
429
100
AcDbEntity
  8
0
100
AcDbBlockEnd
  0
BLOCK
  5
442
330
437
100
AcDbEntity
  8
0
100
AcDbBlockBegin
  2
*D10
 70
     1
 10
0.0
 20
0.0
 30
0.0
  3
*D10
  1

  0
LINE
  5
13AA
330
437
100
AcDbEntity
  8
0
 62
     1
370
    -2
100
AcDbLine
 10
60.28488861535634
 20
20.08520675561667
 30
0.0
 11
61.17989851135425
 21
20.08520675561667
 31
0.0
  0
LINE
  5
13AB
330
437
100
AcDbEntity
  8
0
 62
     1
370
    -2
100
AcDbLine
 10
60.20456419937583
 20
19.08458610005959
 30
0.0
 11
61.17989851135425
 21
19.08458610005959
 31
0.0
  0
LINE
  5
13AC
330
437
100
AcDbEntity
  8
0
 62
     1
370
    -2
100
AcDbLine
 10
61.07989851135425
 20
19.90520675561667
 30
0.0
 11
61.07989851135425
 21
19.73871805130335
 31
0.0
  0
LINE
  5
13AD
330
437
100
AcDbEntity
  8
0
 62
     1
370
    -2
100
AcDbLine
 10
61.07989851135425
 20
19.26458610005959
 30
0.0
 11
61.07989851135425
 21
19.43107480437292
 31
0.0
  0
SOLID
  5
13AE
330
437
100
AcDbEntity
  8
0
 62
     1
100
AcDbTrace
 10
61.04989851135425
 20
19.90520675561667
 30
0.0
 11
61.10989851135425
 21
19.90520675561667
 31
0.0
 12
61.07989851135425
 22
20.08520675561667
 32
0.0
 13
61.07989851135425
 23
20.08520675561667
 33
0.0
  0
SOLID
  5
13AF
330
437
100
AcDbEntity
  8
0
 62
     1
100
AcDbTrace
 10
61.04989851135425
 20
19.26458610005959
 30
0.0
 11
61.10989851135425
 21
19.26458610005959
 31
0.0
 12
61.07989851135425
 22
19.08458610005959
 32
0.0
 13
61.07989851135425
 23
19.08458610005959
 33
0.0
  0
MTEXT
  5
13B0
330
437
100
AcDbEntity
  8
0
 62
     4
100
AcDbMText
 10
61.07989851135425
 20
19.58489642783814
 30
0.0
 40
0.125
 41
0.0
 71
     5
 72
     1
  1
\A1;1.000
 73
     1
 44
1.0
  0
POINT
  5
13B1
330
437
100
AcDbEntity
  8
DEFPOINTS
 62
     0
100
AcDbPoint
 10
60.22188861535633
 20
20.08520675561667
 30
0.0
  0
POINT
  5
13B2
330
437
100
AcDbEntity
  8
DEFPOINTS
 62
     0
100
AcDbPoint
 10
60.14156419937583
 20
19.08458610005959
 30
0.0
  0
POINT
  5
13B3
330
437
100
AcDbEntity
  8
DEFPOINTS
 62
     0
100
AcDbPoint
 10
61.07989851135425
 20
19.08458610005959
 30
0.0
  0
ENDBLK
  5
443
330
437
100
AcDbEntity
  8
0
100
AcDbBlockEnd
  0
BLOCK
  5
45B
330
44F
100
AcDbEntity
  8
0
100
AcDbBlockBegin
  2
*D11
 70
     1
 10
0.0
 20
0.0
 30
0.0
  3
*D11
  1

  0
LINE
  5
1395
330
44F
100
AcDbEntity
  8
0
 62
     1
370
    -2
100
AcDbLine
 10
59.48460117365384
 20
19.44506276327661
 30
0.0
 11
59.06004835902898
 21
19.44506276327661
 31
0.0
  0
LINE
  5
1396
330
44F
100
AcDbEntity
  8
0
 62
     1
370
    -2
100
AcDbLine
 10
59.48023307399127
 20
19.1948145012086
 30
0.0
 11
59.06004835902898
 21
19.1948145012086
 31
0.0
  0
LINE
  5
1397
330
44F
100
AcDbEntity
  8
0
 62
     1
370
    -2
100
AcDbLine
 10
59.16004835902898
 20
19.62506276327661
 30
0.0
 11
59.16004835902898
 21
19.80506276327661
 31
0.0
  0
LINE
  5
1398
330
44F
100
AcDbEntity
  8
0
 62
     1
370
    -2
100
AcDbLine
 10
59.16004835902898
 20
19.0148145012086
 30
0.0
 11
59.16004835902898
 21
18.8348145012086
 31
0.0
  0
LINE
  5
1399
330
44F
100
AcDbEntity
  8
0
 62
     1
370
    -2
100
AcDbLine
 10
59.16004835902898
 20
18.8348145012086
 30
0.0
 11
58.98004835902898
 21
18.8348145012086
 31
0.0
  0
SOLID
  5
139A
330
44F
100
AcDbEntity
  8
0
 62
     1
100
AcDbTrace
 10
59.13004835902897
 20
19.62506276327661
 30
0.0
 11
59.19004835902898
 21
19.62506276327661
 31
0.0
 12
59.16004835902898
 22
19.44506276327661
 32
0.0
 13
59.16004835902898
 23
19.44506276327661
 33
0.0
  0
SOLID
  5
139B
330
44F
100
AcDbEntity
  8
0
 62
     1
100
AcDbTrace
 10
59.13004835902897
 20
19.0148145012086
 30
0.0
 11
59.19004835902898
 21
19.0148145012086
 31
0.0
 12
59.16004835902898
 22
19.1948145012086
 32
0.0
 13
59.16004835902898
 23
19.1948145012086
 33
0.0
  0
MTEXT
  5
139C
330
44F
100
AcDbEntity
  8
0
 62
     4
100
AcDbMText
 10
57.70813328399486
 20
18.83481450120861
 30
0.0
 40
0.125
 41
0.0
 71
     5
 72
     1
  1
\A1;0.250 MTG BOSS HEIGHT (4)
 73
     1
 44
1.0
  0
POINT
  5
139D
330
44F
100
AcDbEntity
  8
DEFPOINTS
 62
     0
100
AcDbPoint
 10
59.54760117365385
 20
19.44506276327661
 30
0.0
  0
POINT
  5
139E
330
44F
100
AcDbEntity
  8
DEFPOINTS
 62
     0
100
AcDbPoint
 10
59.54323307399127
 20
19.1948145012086
 30
0.0
  0
POINT
  5
139F
330
44F
100
AcDbEntity
  8
DEFPOINTS
 62
     0
100
AcDbPoint
 10
59.16004835902898
 20
19.1948145012086
 30
0.0
  0
ENDBLK
  5
45C
330
44F
100
AcDbEntity
  8
0
100
AcDbBlockEnd
  0
BLOCK
  5
4BD
330
4B2
100
AcDbEntity
  8
0
100
AcDbBlockBegin
  2
*D12
 70
     1
 10
0.0
 20
0.0
 30
0.0
  3
*D12
  1

  0
LINE
  5
131C
330
4B2
100
AcDbEntity
  8
0
 62
     1
370
    -2
100
AcDbLine
 10
55.16523110766961
 20
25.77064985071086
 30
0.0
 11
52.39671246657937
 21
25.77064985071086
 31
0.0
  0
LINE
  5
131D
330
4B2
100
AcDbEntity
  8
0
 62
     1
370
    -2
100
AcDbLine
 10
54.79035523889711
 20
22.77064985187185
 30
0.0
 11
52.39671246657937
 21
22.77064985187185
 31
0.0
  0
LINE
  5
131E
330
4B2
100
AcDbEntity
  8
0
 62
     1
370
    -2
100
AcDbLine
 10
52.49671246657936
 20
25.59064985071086
 30
0.0
 11
52.49671246657936
 21
25.07036104463461
 31
0.0
  0
LINE
  5
131F
330
4B2
100
AcDbEntity
  8
0
 62
     1
370
    -2
100
AcDbLine
 10
52.49671246657936
 20
22.95064985187186
 30
0.0
 11
52.49671246657936
 21
24.51763480543498
 31
0.0
  0
SOLID
  5
1320
330
4B2
100
AcDbEntity
  8
0
 62
     1
100
AcDbTrace
 10
52.46671246657936
 20
25.59064985071086
 30
0.0
 11
52.52671246657937
 21
25.59064985071086
 31
0.0
 12
52.49671246657936
 22
25.77064985071086
 32
0.0
 13
52.49671246657936
 23
25.77064985071086
 33
0.0
  0
SOLID
  5
1321
330
4B2
100
AcDbEntity
  8
0
 62
     1
100
AcDbTrace
 10
52.46671246657936
 20
22.95064985187186
 30
0.0
 11
52.52671246657937
 21
22.95064985187186
 31
0.0
 12
52.49671246657936
 22
22.77064985187185
 32
0.0
 13
52.49671246657936
 23
22.77064985187185
 33
0.0
  0
MTEXT
  5
1322
330
4B2
100
AcDbEntity
  8
0
 62
     4
100
AcDbMText
 10
52.49671246657936
 20
24.7939979250348
 30
0.0
 40
0.125
 41
0.0
 71
     5
 72
     1
  1
\A1;3.005\P(2 PLCS.)
 73
     1
 44
1.0
  0
POINT
  5
1323
330
4B2
100
AcDbEntity
  8
DEFPOINTS
 62
     0
100
AcDbPoint
 10
55.22823110766961
 20
25.77064985071086
 30
0.0
  0
POINT
  5
1324
330
4B2
100
AcDbEntity
  8
DEFPOINTS
 62
     0
100
AcDbPoint
 10
54.85335523889712
 20
22.77064985187185
 30
0.0
  0
POINT
  5
1325
330
4B2
100
AcDbEntity
  8
DEFPOINTS
 62
     0
100
AcDbPoint
 10
52.49671246657936
 20
22.77064985187185
 30
0.0
  0
ENDBLK
  5
4BE
330
4B2
100
AcDbEntity
  8
0
100
AcDbBlockEnd
  0
BLOCK
  5
4E9
330
4DE
100
AcDbEntity
  8
0
100
AcDbBlockBegin
  2
*D13
 70
     1
 10
0.0
 20
0.0
 30
0.0
  3
*D13
  1

  0
LINE
  5
13CE
330
4DE
100
AcDbEntity
  8
0
 62
     1
370
    -2
100
AcDbLine
 10
55.64119601121585
 20
25.83364985071086
 30
0.0
 11
55.64119601121585
 21
26.67385293248197
 31
0.0
  0
LINE
  5
13CF
330
4DE
100
AcDbEntity
  8
0
 62
     1
370
    -2
100
AcDbLine
 10
59.89144427173584
 20
25.83364985071086
 30
0.0
 11
59.89144427173584
 21
26.67385293248197
 31
0.0
  0
LINE
  5
13D0
330
4DE
100
AcDbEntity
  8
0
 62
     1
370
    -2
100
AcDbLine
 10
55.82119601121585
 20
26.57385293248196
 30
0.0
 11
57.46311243342673
 21
26.57385293248196
 31
0.0
  0
LINE
  5
13D1
330
4DE
100
AcDbEntity
  8
0
 62
     1
370
    -2
100
AcDbLine
 10
59.71144427173584
 20
26.57385293248196
 30
0.0
 11
58.06952784952496
 21
26.57385293248196
 31
0.0
  0
SOLID
  5
13D2
330
4DE
100
AcDbEntity
  8
0
 62
     1
100
AcDbTrace
 10
55.82119601121585
 20
26.60385293248197
 30
0.0
 11
55.82119601121585
 21
26.54385293248196
 31
0.0
 12
55.64119601121585
 22
26.57385293248196
 32
0.0
 13
55.64119601121585
 23
26.57385293248196
 33
0.0
  0
SOLID
  5
13D3
330
4DE
100
AcDbEntity
  8
0
 62
     1
100
AcDbTrace
 10
59.71144427173584
 20
26.60385293248197
 30
0.0
 11
59.71144427173584
 21
26.54385293248196
 31
0.0
 12
59.89144427173584
 22
26.57385293248196
 32
0.0
 13
59.89144427173584
 23
26.57385293248196
 33
0.0
  0
MTEXT
  5
13D4
330
4DE
100
AcDbEntity
  8
0
 62
     4
100
AcDbMText
 10
57.76632014147584
 20
26.57385293248196
 30
0.0
 40
0.125
 41
0.0
 71
     5
 72
     1
  1
\A1;4.250
 73
     1
 44
1.0
  0
POINT
  5
13D5
330
4DE
100
AcDbEntity
  8
DEFPOINTS
 62
     0
100
AcDbPoint
 10
55.64119601121585
 20
25.77064985071086
 30
0.0
  0
POINT
  5
13D6
330
4DE
100
AcDbEntity
  8
DEFPOINTS
 62
     0
100
AcDbPoint
 10
59.89144427173584
 20
25.77064985071086
 30
0.0
  0
POINT
  5
13D7
330
4DE
100
AcDbEntity
  8
DEFPOINTS
 62
     0
100
AcDbPoint
 10
59.89144427173584
 20
26.57385293248196
 30
0.0
  0
ENDBLK
  5
4EA
330
4DE
100
AcDbEntity
  8
0
100
AcDbBlockEnd
  0
BLOCK
  5
4F7
330
4EC
100
AcDbEntity
  8
0
100
AcDbBlockBegin
  2
*D14
 70
     1
 10
0.0
 20
0.0
 30
0.0
  3
*D14
  1

  0
LINE
  5
1377
330
4EC
100
AcDbEntity
  8
0
 62
     1
370
    -2
100
AcDbLine
 10
55.26632014244334
 20
22.70764985187186
 30
0.0
 11
55.26632014244334
 21
20.66305627353091
 31
0.0
  0
LINE
  5
1378
330
4EC
100
AcDbEntity
  8
0
 62
     1
370
    -2
100
AcDbLine
 10
60.26632014050835
 20
22.70764985187186
 30
0.0
 11
60.26632014050835
 21
20.66305627353091
 31
0.0
  0
LINE
  5
1379
330
4EC
100
AcDbEntity
  8
0
 62
     1
370
    -2
100
AcDbLine
 10
55.44632014244334
 20
20.76305627353092
 30
0.0
 11
57.46562778131213
 21
20.76305627353092
 31
0.0
  0
LINE
  5
137A
330
4EC
100
AcDbEntity
  8
0
 62
     1
370
    -2
100
AcDbLine
 10
60.08632014050835
 20
20.76305627353092
 30
0.0
 11
58.06701250163955
 21
20.76305627353092
 31
0.0
  0
SOLID
  5
137B
330
4EC
100
AcDbEntity
  8
0
 62
     1
100
AcDbTrace
 10
55.44632014244334
 20
20.79305627353092
 30
0.0
 11
55.44632014244334
 21
20.73305627353092
 31
0.0
 12
55.26632014244334
 22
20.76305627353092
 32
0.0
 13
55.26632014244334
 23
20.76305627353092
 33
0.0
  0
SOLID
  5
137C
330
4EC
100
AcDbEntity
  8
0
 62
     1
100
AcDbTrace
 10
60.08632014050835
 20
20.79305627353092
 30
0.0
 11
60.08632014050835
 21
20.73305627353092
 31
0.0
 12
60.26632014050835
 22
20.76305627353092
 32
0.0
 13
60.26632014050835
 23
20.76305627353092
 33
0.0
  0
MTEXT
  5
137D
330
4EC
100
AcDbEntity
  8
0
 62
     4
100
AcDbMText
 10
57.76632014147584
 20
20.76305627353092
 30
0.0
 40
0.125
 41
0.0
 71
     5
 72
     1
  1
\A1;5.010
 73
     1
 44
1.0
  0
POINT
  5
137E
330
4EC
100
AcDbEntity
  8
DEFPOINTS
 62
     0
100
AcDbPoint
 10
55.26632014244334
 20
22.77064985187185
 30
0.0
  0
POINT
  5
137F
330
4EC
100
AcDbEntity
  8
DEFPOINTS
 62
     0
100
AcDbPoint
 10
60.26632014050835
 20
22.77064985187185
 30
0.0
  0
POINT
  5
1380
330
4EC
100
AcDbEntity
  8
DEFPOINTS
 62
     0
100
AcDbPoint
 10
60.26632014050835
 20
20.76305627353092
 30
0.0
  0
ENDBLK
  5
4F8
330
4EC
100
AcDbEntity
  8
0
100
AcDbBlockEnd
  0
BLOCK
  5
5D9
330
5CE
100
AcDbEntity
  8
0
100
AcDbBlockBegin
  2
*D15
 70
     1
 10
0.0
 20
0.0
 30
0.0
  3
*D15
  1

  0
LINE
  5
13A0
330
5CE
100
AcDbEntity
  8
0
 62
     1
370
    -2
100
AcDbLine
 10
59.40683652614384
 20
22.64558431068436
 30
0.0
 11
59.40683652614384
 21
21.13527302303001
 31
0.0
  0
LINE
  5
13A1
330
5CE
100
AcDbEntity
  8
0
 62
     1
370
    -2
100
AcDbLine
 10
56.12580375680785
 20
22.64558431068435
 30
0.0
 11
56.12580375680785
 21
21.13527302303001
 31
0.0
  0
LINE
  5
13A2
330
5CE
100
AcDbEntity
  8
0
 62
     1
370
    -2
100
AcDbLine
 10
59.22683652614384
 20
21.23527302303001
 30
0.0
 11
58.05511789045265
 21
21.23527302303001
 31
0.0
  0
LINE
  5
13A3
330
5CE
100
AcDbEntity
  8
0
 62
     1
370
    -2
100
AcDbLine
 10
56.30580375680785
 20
21.23527302303001
 30
0.0
 11
57.47752239249904
 21
21.23527302303001
 31
0.0
  0
SOLID
  5
13A4
330
5CE
100
AcDbEntity
  8
0
 62
     1
100
AcDbTrace
 10
59.22683652614384
 20
21.26527302303001
 30
0.0
 11
59.22683652614384
 21
21.20527302303
 31
0.0
 12
59.40683652614384
 22
21.23527302303001
 32
0.0
 13
59.40683652614384
 23
21.23527302303001
 33
0.0
  0
SOLID
  5
13A5
330
5CE
100
AcDbEntity
  8
0
 62
     1
100
AcDbTrace
 10
56.30580375680785
 20
21.26527302303001
 30
0.0
 11
56.30580375680785
 21
21.20527302303
 31
0.0
 12
56.12580375680785
 22
21.23527302303001
 32
0.0
 13
56.12580375680785
 23
21.23527302303001
 33
0.0
  0
MTEXT
  5
13A6
330
5CE
100
AcDbEntity
  8
0
 62
     4
100
AcDbMText
 10
57.76632014147584
 20
21.23527302303001
 30
0.0
 40
0.125
 41
0.0
 71
     5
 72
     1
  1
\A1;3.281
 73
     1
 44
1.0
  0
POINT
  5
13A7
330
5CE
100
AcDbEntity
  8
DEFPOINTS
 62
     0
100
AcDbPoint
 10
59.40683652614384
 20
22.70858431068436
 30
0.0
  0
POINT
  5
13A8
330
5CE
100
AcDbEntity
  8
DEFPOINTS
 62
     0
100
AcDbPoint
 10
56.12580375680785
 20
22.70858431068435
 30
0.0
  0
POINT
  5
13A9
330
5CE
100
AcDbEntity
  8
DEFPOINTS
 62
     0
100
AcDbPoint
 10
56.12580375680785
 20
21.23527302303001
 30
0.0
  0
ENDBLK
  5
5DA
330
5CE
100
AcDbEntity
  8
0
100
AcDbBlockEnd
  0
BLOCK
  5
5E7
330
5DC
100
AcDbEntity
  8
0
100
AcDbBlockBegin
  2
*D16
 70
     1
 10
0.0
 20
0.0
 30
0.0
  3
*D16
  1

  0
LINE
  5
1363
330
5DC
100
AcDbEntity
  8
0
 62
     1
370
    -2
100
AcDbLine
 10
60.30492239480808
 20
24.34910069535236
 30
0.0
 11
62.18984362490527
 21
24.34910069535236
 31
0.0
  0
LINE
  5
1364
330
5DC
100
AcDbEntity
  8
0
 62
     1
370
    -2
100
AcDbLine
 10
60.30492239480808
 20
22.56757140110635
 30
0.0
 11
62.18984362490527
 21
22.56757140110635
 31
0.0
  0
LINE
  5
1365
330
5DC
100
AcDbEntity
  8
0
 62
     1
370
    -2
100
AcDbLine
 10
62.08984362490527
 20
24.16910069535235
 30
0.0
 11
62.08984362490527
 21
23.61215767169456
 31
0.0
  0
LINE
  5
1366
330
5DC
100
AcDbEntity
  8
0
 62
     1
370
    -2
100
AcDbLine
 10
62.08984362490527
 20
22.74757140110635
 30
0.0
 11
62.08984362490527
 21
23.30451442476414
 31
0.0
  0
SOLID
  5
1367
330
5DC
100
AcDbEntity
  8
0
 62
     1
100
AcDbTrace
 10
62.05984362490527
 20
24.16910069535235
 30
0.0
 11
62.11984362490527
 21
24.16910069535235
 31
0.0
 12
62.08984362490527
 22
24.34910069535236
 32
0.0
 13
62.08984362490527
 23
24.34910069535236
 33
0.0
  0
SOLID
  5
1368
330
5DC
100
AcDbEntity
  8
0
 62
     1
100
AcDbTrace
 10
62.05984362490527
 20
22.74757140110635
 30
0.0
 11
62.11984362490527
 21
22.74757140110635
 31
0.0
 12
62.08984362490527
 22
22.56757140110635
 32
0.0
 13
62.08984362490527
 23
22.56757140110635
 33
0.0
  0
MTEXT
  5
1369
330
5DC
100
AcDbEntity
  8
0
 62
     4
100
AcDbMText
 10
62.08984362490526
 20
23.45833604822936
 30
0.0
 40
0.125
 41
0.0
 71
     5
 72
     1
  1
\A1;1.782
 73
     1
 44
1.0
  0
POINT
  5
136A
330
5DC
100
AcDbEntity
  8
DEFPOINTS
 62
     0
100
AcDbPoint
 10
60.24192239480807
 20
24.34910069535236
 30
0.0
  0
POINT
  5
136B
330
5DC
100
AcDbEntity
  8
DEFPOINTS
 62
     0
100
AcDbPoint
 10
60.24192239480807
 20
22.56757140110635
 30
0.0
  0
POINT
  5
136C
330
5DC
100
AcDbEntity
  8
DEFPOINTS
 62
     0
100
AcDbPoint
 10
62.08984362490527
 20
22.56757140110635
 30
0.0
  0
ENDBLK
  5
5E8
330
5DC
100
AcDbEntity
  8
0
100
AcDbBlockEnd
  0
BLOCK
  5
5F1
330
5EA
100
AcDbEntity
  8
0
100
AcDbBlockBegin
  2
*D17
 70
     1
 10
0.0
 20
0.0
 30
0.0
  3
*D17
  1

  0
LINE
  5
13C8
330
5EA
100
AcDbEntity
  8
0
 62
     1
370
    -2
100
AcDbLine
 10
61.0616067307469
 20
25.49185965020437
 30
0.0
 11
60.88160673074685
 21
25.49185965020437
 31
0.0
  0
LINE
  5
13C9
330
5EA
100
AcDbEntity
  8
0
 62
     1
370
    -2
100
AcDbLine
 10
60.88160673074685
 20
25.49185965020437
 30
0.0
 11
59.51716306166002
 21
24.40778198062111
 31
0.0
  0
MTEXT
  5
13CA
330
5EA
100
AcDbEntity
  8
0
 62
     4
100
AcDbMText
 10
61.52647883170188
 20
25.49185965020436
 30
0.0
 40
0.125
 41
0.0
 71
     5
 72
     1
  1
\A1;R0.141\P(4 PLCS.)
 73
     1
 44
1.0
  0
SOLID
  5
13CB
330
5EA
100
AcDbEntity
  8
0
 62
     1
100
AcDbTrace
 10
59.49850080333129
 20
24.43127070374672
 30
0.0
 11
59.53582531998875
 21
24.3842932574955
 31
0.0
 12
59.37623072290635
 22
24.29580843064872
 32
0.0
 13
59.37623072290635
 23
24.29580843064872
 33
0.0
  0
POINT
  5
13CC
330
5EA
100
AcDbEntity
  8
DEFPOINTS
 62
     0
100
AcDbPoint
 10
59.37623072290635
 20
24.29580843064872
 30
0.0
  0
POINT
  5
13CD
330
5EA
100
AcDbEntity
  8
DEFPOINTS
 62
     0
100
AcDbPoint
 10
59.26582361656586
 20
24.20808778577437
 30
0.0
  0
ENDBLK
  5
5F2
330
5EA
100
AcDbEntity
  8
0
100
AcDbBlockEnd
  0
BLOCK
  5
62F
330
62C
100
AcDbEntity
  8
0
100
AcDbBlockBegin
  2
_Dot
 70
     0
 10
0.0
 20
0.0
 30
0.0
  3
_Dot
  1

  0
LWPOLYLINE
  5
62D
330
62C
100
AcDbEntity
  8
0
  6
ByBlock
 62
     0
100
AcDbPolyline
 90
        2
 70
     1
 43
0.5
 10
-0.25
 20
0.0
 42
1.0
 10
0.25
 20
0.0
 42
1.0
  0
LINE
  5
62E
330
62C
100
AcDbEntity
  8
0
  6
ByBlock
 62
     0
370
    -2
100
AcDbLine
 10
-0.5
 20
0.0
 30
0.0
 11
-1.0
 21
0.0
 31
0.0
  0
ENDBLK
  5
630
330
62C
100
AcDbEntity
  8
0
100
AcDbBlockEnd
  0
BLOCK
  5
858
330
7F6
100
AcDbEntity
  8
0
100
AcDbBlockBegin
  2
B
 70
     2
 10
0.0
 20
0.0
 30
0.0
  3
B
  1

  0
ATTDEF
  5
7F7
330
7F6
100
AcDbEntity
  8
TEXT
100
AcDbText
 10
11.57785051577858
 20
0.5394050456177202
 30
0.0
 40
0.125
  1

 41
0.75
  7
TXT
 72
     1
 11
11.57785051577858
 21
0.5394050456177202
 31
0.0
100
AcDbAttributeDefinition
  3
ENTER INITIALS
  2
NAME
 70
     4
  0
ATTDEF
  5
7F8
330
7F6
100
AcDbEntity
  8
TEXT
100
AcDbText
 10
12.27323597631695
 20
0.5394050456177202
 30
0.0
 40
0.125
  1

 41
0.75
  7
TXT
 72
     1
 11
12.27323597631695
 21
0.5394050456177202
 31
0.0
100
AcDbAttributeDefinition
  3
ENTER DATE
  2
DATE
 70
     4
  0
ATTDEF
  5
7F9
330
7F6
100
AcDbEntity
  8
TEXT
100
AcDbText
 10
15.53362280004441
 20
0.7382877313450514
 30
0.0
 40
0.125
  1

 41
0.75
  7
TXT
 72
     1
 11
15.53362280004441
 21
0.7382877313450514
 31
0.0
100
AcDbAttributeDefinition
  3
ENTER TITLE LINE #1
  2
TITLE1
 70
     4
  0
ATTDEF
  5
7FA
330
7F6
100
AcDbEntity
  8
TEXT
100
AcDbText
 10
15.48674780004441
 20
0.5109922890761207
 30
0.0
 40
0.125
  1
 
 41
0.75
  7
TXT
 72
     1
 11
15.53362280004441
 21
0.5109922890761207
 31
0.0
100
AcDbAttributeDefinition
  3
ENTER TITLE LINE #2
  2
TITLE2
 70
     4
  0
ATTDEF
  5
7FB
330
7F6
100
AcDbEntity
  8
TEXT
100
AcDbText
 10
15.66691965511983
 20
0.1181742385894946
 30
0.0
 40
0.156
  1
 
 41
0.75
  7
TXT
 72
     1
 11
15.72541965511983
 21
0.1181742385894946
 31
0.0
100
AcDbAttributeDefinition
  3
ENTER PART #
  2
PART
 70
     4
  0
ATTDEF
  5
7FC
330
7F6
100
AcDbEntity
  8
TEXT
100
AcDbText
 10
15.72541965511983
 20
9.302640836036475
 30
0.0
 40
0.156
  1

 41
0.75
  7
TXT
 72
     1
 11
15.72541965511983
 21
9.302640836036475
 31
0.0
100
AcDbAttributeDefinition
  3
ENTER PART #
  2
PART
 70
     4
  0
ATTDEF
  5
7FD
330
7F6
100
AcDbEntity
  8
TEXT
100
AcDbText
 10
7.156897604150746
 20
1.182012335097561
 30
0.0
 40
0.125
  1

 41
4.93641642638573
  7
TXT
 72
     5
 11
11.06489394170611
 21
1.182012335097561
 31
0.0
100
AcDbAttributeDefinition
  3
ENTER CUT SIZE
  2
CUTSIZE
 70
     4
  0
ATTDEF
  5
7FE
330
7F6
100
AcDbEntity
  8
TEXT
100
AcDbText
 10
7.324173832727304
 20
0.2867788269611924
 30
0.0
 40
0.125
  1

 41
0.75
  7
TXT
 72
     1
 11
7.324173832727304
 21
0.2867788269611924
 31
0.0
100
AcDbAttributeDefinition
  3
ENTER QUANTITY
  2
QTY
 70
     4
  0
ATTDEF
  5
7FF
330
7F6
100
AcDbEntity
  8
TEXT
100
AcDbText
 10
8.239054202526999
 20
0.2867788269611924
 30
0.0
 40
0.125
  1

 41
0.75
  7
TXT
 72
     1
 11
8.239054202526999
 21
0.2867788269611924
 31
0.0
100
AcDbAttributeDefinition
  3
ENTER "USED ON" PART #
  2
USED
 70
     4
  0
ATTDEF
  5
800
330
7F6
100
AcDbEntity
  8
TEXT
100
AcDbText
 10
11.82398122291403
 20
0.9555323710702353
 30
0.0
 40
0.125
  1
AS NOTED
 41
0.75
  7
TXT
 72
     1
 11
12.18335622291403
 21
0.9555323710702353
 31
0.0
100
AcDbAttributeDefinition
  3
ENTER MATERIAL
  2
MAT
 70
     4
  0
ATTDEF
  5
801
330
7F6
100
AcDbEntity
  8
TEXT
100
AcDbText
 10
11.80835622291403
 20
0.7436542078606632
 30
0.0
 40
0.125
  1
SEE SPEC.
 41
0.75
  7
TXT
 72
     1
 11
12.18335622291403
 21
0.7436542078606632
 31
0.0
100
AcDbAttributeDefinition
  3
ENTER FINISH
  2
FINISH
 70
     4
  0
LINE
  5
802
330
7F6
100
AcDbEntity
  8
TITLE
100
AcDbLine
 10
0.0
 20
9.625000000000001
 30
0.0
 11
0.0
 21
0.0
 31
0.0
  0
LINE
  5
803
330
7F6
100
AcDbEntity
  8
TITLE
100
AcDbLine
 10
0.0
 20
0.0
 30
0.0
 11
16.6
 21
0.0
 31
0.0
  0
LINE
  5
804
330
7F6
100
AcDbEntity
  8
TITLE
100
AcDbLine
 10
7.119999999999997
 20
1.377
 30
0.0
 11
7.119999999999997
 21
-0.0000000000000004
 31
0.0
  0
LINE
  5
805
330
7F6
100
AcDbEntity
  8
TITLE
100
AcDbLine
 10
14.7875
 20
8.937499999999998
 30
0.0
 11
14.7875
 21
9.187499999999998
 31
0.0
  0
TEXT
  5
806
330
7F6
100
AcDbEntity
  8
TITLE
100
AcDbText
 10
14.2875
 20
9.437499999999998
 30
0.0
 40
0.09375
  1
DWG.
  7
TXT
100
AcDbText
  0
TEXT
  5
807
330
7F6
100
AcDbEntity
  8
TITLE
100
AcDbText
 10
14.27928468339758
 20
9.023672468686173
 30
0.0
 40
0.09375
  1
ISSUE
  7
TXT
100
AcDbText
  0
LINE
  5
808
330
7F6
100
AcDbEntity
  8
TITLE
100
AcDbLine
 10
14.1625
 20
8.937499999999998
 30
0.0
 11
14.1625
 21
9.624999999999998
 31
0.0
  0
TEXT
  5
809
330
7F6
100
AcDbEntity
  8
TITLE
100
AcDbText
 10
14.2875
 20
9.281249999999998
 30
0.0
 40
0.09375
  1
NO.
  7
TXT
100
AcDbText
  0
LINE
  5
80A
330
7F6
100
AcDbEntity
  8
TITLE
100
AcDbLine
 10
14.1625
 20
8.937499999999998
 30
0.0
 11
16.6
 21
8.937499999999998
 31
0.0
  0
LINE
  5
80B
330
7F6
100
AcDbEntity
  8
TITLE
100
AcDbLine
 10
14.1625
 20
9.187499999999998
 30
0.0
 11
16.6
 21
9.187499999999998
 31
0.0
  0
TEXT
  5
80C
330
7F6
100
AcDbEntity
  8
TITLE
100
AcDbText
 10
15.22324012267809
 20
9.02584779209924
 30
0.0
 40
0.09375
  1
REVISIONS
  7
TXT
100
AcDbText
  0
TEXT
  5
80D
330
7F6
100
AcDbEntity
  8
TITLE
100
AcDbText
 10
14.5375
 20
0.9903543852819179
 30
0.0
 40
0.09375
  1
NAME:
  7
TXT
100
AcDbText
  0
TEXT
  5
80E
330
7F6
100
AcDbEntity
  8
TITLE
100
AcDbText
 10
14.5375
 20
0.0631657164931343
 30
0.0
 40
0.0938
  1
NO.
  7
TXT
100
AcDbText
  0
TEXT
  5
80F
330
7F6
100
AcDbEntity
  8
TITLE
100
AcDbText
 10
14.5375
 20
0.2194990498264686
 30
0.0
 40
0.0938
  1
DWG.
  7
TXT
100
AcDbText
  0
LINE
  5
810
330
7F6
100
AcDbEntity
  8
TITLE
100
AcDbLine
 10
14.46724560008883
 20
-0.0000000000000004
 30
0.0
 11
14.46724560008883
 21
1.127
 31
0.0
  0
LINE
  5
811
330
7F6
100
AcDbEntity
  8
TITLE
100
AcDbLine
 10
13.5365
 20
1.127
 30
0.0
 11
13.5365
 21
1.377
 31
0.0
  0
LINE
  5
812
330
7F6
100
AcDbEntity
  8
TITLE
100
AcDbLine
 10
13.73673299114846
 20
0.8590073451518431
 30
0.0
 11
13.76976251320413
 21
0.8590073451518431
 31
0.0
  0
ARC
  5
813
330
7F6
100
AcDbEntity
  8
TITLE
100
AcDbCircle
 10
13.76976251320413
 20
0.7660701812170974
 30
0.0
 40
0.0929371639347451
100
AcDbArc
 50
0.0
 51
90.0
  0
LINE
  5
814
330
7F6
100
AcDbEntity
  8
TITLE
100
AcDbLine
 10
13.81386129933556
 20
0.7328783369546899
 30
0.0
 11
13.77256370982727
 21
0.7328783369546899
 31
0.0
  0
LINE
  5
815
330
7F6
100
AcDbEntity
  8
TITLE
100
AcDbLine
 10
13.73673299114846
 20
0.5934725910525716
 30
0.0
 11
13.76976251320413
 21
0.5934725910525716
 31
0.0
  0
ARC
  5
816
330
7F6
100
AcDbEntity
  8
TITLE
100
AcDbCircle
 10
13.76976251320413
 20
0.6864097549873174
 30
0.0
 40
0.0929371639347451
100
AcDbArc
 50
270.0
 51
0.0
  0
LINE
  5
817
330
7F6
100
AcDbEntity
  8
TITLE
100
AcDbLine
 10
13.81386129933556
 20
0.7196015992497254
 30
0.0
 11
13.77256370982727
 21
0.7196015992497254
 31
0.0
  0
LINE
  5
818
330
7F6
100
AcDbEntity
  8
TITLE
100
AcDbLine
 10
13.73673299114846
 20
0.5934725910525716
 30
0.0
 11
13.73673299114846
 21
0.8590073451518431
 31
0.0
  0
LINE
  5
819
330
7F6
100
AcDbEntity
  8
TITLE
100
AcDbLine
 10
13.77256370982727
 20
0.7196015992497254
 30
0.0
 11
13.77256370982727
 21
0.7328783369546899
 31
0.0
  0
LINE
  5
81A
330
7F6
100
AcDbEntity
  8
TITLE
100
AcDbLine
 10
13.86269967713888
 20
0.6864097549873174
 30
0.0
 11
13.86269967713888
 21
0.7660701812170974
 31
0.0
  0
LINE
  5
81B
330
7F6
100
AcDbEntity
  8
TITLE
100
AcDbLine
 10
13.81386129933556
 20
0.7196015992497254
 30
0.0
 11
13.81386129933556
 21
0.7328783369546899
 31
0.0
  0
LINE
  5
81C
330
7F6
100
AcDbEntity
  8
TITLE
100
AcDbLine
 10
13.63388478947084
 20
0.8590073451518431
 30
0.0
 11
13.68242241159558
 21
0.8590073451518431
 31
0.0
  0
LINE
  5
81D
330
7F6
100
AcDbEntity
  8
TITLE
100
AcDbLine
 10
13.56223401395335
 20
0.8590073451518431
 30
0.0
 11
13.6107716360781
 21
0.8590073451518431
 31
0.0
  0
ARC
  5
81E
330
7F6
100
AcDbEntity
  8
TITLE
100
AcDbCircle
 10
13.62404837378307
 20
0.6367964281680929
 30
0.0
 40
0.0132767377049636
100
AcDbArc
 50
180.0
 51
262.5557159022863
  0
ARC
  5
81F
330
7F6
100
AcDbEntity
  8
TITLE
100
AcDbCircle
 10
13.62060805176588
 20
0.6367964281680929
 30
0.0
 40
0.0132767377049636
100
AcDbArc
 50
277.4442840977136
 51
0.0
  0
ARC
  5
820
330
7F6
100
AcDbEntity
  8
TITLE
100
AcDbCircle
 10
13.66582648946438
 20
0.6100685131837765
 30
0.0
 40
0.0165959221312045
100
AcDbArc
 50
270.0
 51
0.0
  0
ARC
  5
821
330
7F6
100
AcDbEntity
  8
TITLE
100
AcDbCircle
 10
13.57882993608456
 20
0.6100685131837765
 30
0.0
 40
0.0165959221312045
100
AcDbArc
 50
180.0
 51
270.0
  0
LINE
  5
822
330
7F6
100
AcDbEntity
  8
TITLE
100
AcDbLine
 10
13.57882993608456
 20
0.5934725910525716
 30
0.0
 11
13.66582648946438
 21
0.5934725910525716
 31
0.0
  0
LINE
  5
823
330
7F6
100
AcDbEntity
  8
TITLE
100
AcDbLine
 10
13.6107716360781
 20
0.6367964281680929
 30
0.0
 11
13.6107716360781
 21
0.8590073451518431
 31
0.0
  0
LINE
  5
824
330
7F6
100
AcDbEntity
  8
TITLE
100
AcDbLine
 10
13.63388478947084
 20
0.6367964281680929
 30
0.0
 11
13.63388478947084
 21
0.8590073451518431
 31
0.0
  0
LINE
  5
825
330
7F6
100
AcDbEntity
  8
TITLE
100
AcDbLine
 10
13.56223401395335
 20
0.6100685131837765
 30
0.0
 11
13.56223401395335
 21
0.8590073451518431
 31
0.0
  0
LINE
  5
826
330
7F6
100
AcDbEntity
  8
TITLE
100
AcDbLine
 10
13.68242241159558
 20
0.6100685131837765
 30
0.0
 11
13.68242241159558
 21
0.8590073451518431
 31
0.0
  0
LINE
  5
827
330
7F6
100
AcDbEntity
  8
TITLE
100
AcDbLine
 10
13.46284745436459
 20
0.7328783369546899
 30
0.0
 11
13.39004102117747
 21
0.7328783369546899
 31
0.0
  0
LINE
  5
828
330
7F6
100
AcDbEntity
  8
TITLE
100
AcDbLine
 10
13.37732878681146
 20
0.8590073451518431
 30
0.0
 11
13.46284745436459
 21
0.8590073451518431
 31
0.0
  0
LINE
  5
829
330
7F6
100
AcDbEntity
  8
TITLE
100
AcDbLine
 10
13.39004102117747
 20
0.7196015992497254
 30
0.0
 11
13.39004102117747
 21
0.7262399681022083
 31
0.0
  0
LINE
  5
82A
330
7F6
100
AcDbEntity
  8
TITLE
100
AcDbLine
 10
13.37732878681146
 20
0.5934725910525716
 30
0.0
 11
13.46284745436459
 21
0.5934725910525716
 31
0.0
  0
LINE
  5
82B
330
7F6
100
AcDbEntity
  8
TITLE
100
AcDbLine
 10
13.46284745436459
 20
0.7196015992497254
 30
0.0
 11
13.39004102117747
 21
0.7196015992497254
 31
0.0
  0
LINE
  5
82C
330
7F6
100
AcDbEntity
  8
TITLE
100
AcDbLine
 10
13.37732878681146
 20
0.5934725910525716
 30
0.0
 11
13.37732878681146
 21
0.8590073451518431
 31
0.0
  0
LINE
  5
82D
330
7F6
100
AcDbEntity
  8
TITLE
100
AcDbLine
 10
13.39004102117747
 20
0.7328783369546899
 30
0.0
 11
13.39004102117747
 21
0.7262399681022083
 31
0.0
  0
ARC
  5
82E
330
7F6
100
AcDbEntity
  8
TITLE
100
AcDbCircle
 10
13.46284745436459
 20
0.7959428410532668
 30
0.0
 40
0.063064504098577
100
AcDbArc
 50
270.0
 51
90.0
  0
ARC
  5
82F
330
7F6
100
AcDbEntity
  8
TITLE
100
AcDbCircle
 10
13.46284745436459
 20
0.6565370951511494
 30
0.0
 40
0.063064504098577
100
AcDbArc
 50
270.0
 51
90.00000000000003
  0
TEXT
  5
830
330
7F6
100
AcDbEntity
  8
TITLE
100
AcDbText
 10
12.4755
 20
1.197740762992484
 30
0.0
 40
0.09375
  1
PART NO.
  7
TXT
100
AcDbText
  0
TEXT
  5
831
330
7F6
100
AcDbEntity
  8
TITLE
100
AcDbText
 10
12.80237987390002
 20
0.9755983592151281
 30
0.0
 40
0.09375
  1
SCALE:
  7
TXT
100
AcDbText
  0
LINE
  5
832
330
7F6
100
AcDbEntity
  8
TITLE
100
AcDbLine
 10
12.76353790782162
 20
-0.0000000000000004
 30
0.0
 11
12.76353790782162
 21
1.127
 31
0.0
  0
TEXT
  5
833
330
7F6
100
AcDbEntity
  8
TITLE
100
AcDbText
 10
12.86389543567033
 20
0.1249999999999996
 30
0.0
 40
0.09375
  1
WILLOUGHBY, OHIO
  7
TXT
100
AcDbText
  0
TEXT
  5
834
330
7F6
100
AcDbEntity
  8
TITLE
100
AcDbText
 10
12.80461451425917
 20
0.3749999999999996
 30
0.0
 40
0.09375
  1
BUD INDUSTRIES, INC.
  7
TXT
100
AcDbText
  0
LINE
  5
835
330
7F6
100
AcDbEntity
  8
TITLE
100
AcDbLine
 10
14.46724560008883
 20
0.3819999999999992
 30
0.0
 11
16.59999999999999
 21
0.3819999999999992
 31
0.0
  0
TEXT
  5
836
330
7F6
100
AcDbEntity
  8
TITLE
100
AcDbText
 10
14.60244590285365
 20
1.197740762992484
 30
0.0
 40
0.09375
  1
DESCRIPTION
  7
TXT
100
AcDbText
  0
LINE
  5
837
330
7F6
100
AcDbEntity
  8
TITLE
100
AcDbLine
 10
12.03749999999999
 20
1.127
 30
0.0
 11
12.0375
 21
1.377
 31
0.0
  0
LINE
  5
838
330
7F6
100
AcDbEntity
  8
TITLE
100
AcDbLine
 10
11.51929648007106
 20
1.127
 30
0.0
 11
11.51929648007106
 21
1.377
 31
0.0
  0
TEXT
  5
839
330
7F6
100
AcDbEntity
  8
TITLE
100
AcDbText
 10
11.5708473600533
 20
1.197740762992484
 30
0.0
 40
0.09375
  1
REQ'D.
  7
TXT
100
AcDbText
  0
TEXT
  5
83A
330
7F6
100
AcDbEntity
  8
TITLE
100
AcDbText
 10
11.163
 20
0.9728772779084607
 30
0.0
 40
0.09375
  1
MAT:
  7
TXT
100
AcDbText
  0
TEXT
  5
83B
330
7F6
100
AcDbEntity
  8
TITLE
100
AcDbText
 10
11.15657245370309
 20
1.199407818911626
 30
0.0
 40
0.09375
  1
ITEM
  7
TXT
100
AcDbText
  0
TEXT
  5
83C
330
7F6
100
AcDbEntity
  8
TITLE
100
AcDbText
 10
11.163
 20
0.3124999999999996
 30
0.0
 40
0.09375
  1
CH.
  7
TXT
100
AcDbText
  0
TEXT
  5
83D
330
7F6
100
AcDbEntity
  8
TITLE
100
AcDbText
 10
11.163
 20
0.5693740809498898
 30
0.0
 40
0.09375
  1
DR.
  7
TXT
100
AcDbText
  0
TEXT
  5
83E
330
7F6
100
AcDbEntity
  8
TITLE
100
AcDbText
 10
11.163
 20
0.7741181638829385
 30
0.0
 40
0.09375
  1
FINISH:
  7
TXT
100
AcDbText
  0
TEXT
  5
83F
330
7F6
100
AcDbEntity
  8
TITLE
100
AcDbText
 10
11.163
 20
0.0624999999999996
 30
0.0
 40
0.09375
  1
APP.
  7
TXT
100
AcDbText
  0
LINE
  5
840
330
7F6
100
AcDbEntity
  8
TITLE
100
AcDbLine
 10
11.7977560980471
 20
-0.0000000000000004
 30
0.0
 11
11.79775609804711
 21
0.709000000000001
 31
0.0
  0
LINE
  5
841
330
7F6
100
AcDbEntity
  8
TITLE
100
AcDbLine
 10
11.10049999999999
 20
-0.0000000000000004
 30
0.0
 11
11.10049999999999
 21
1.377
 31
0.0
  0
TEXT
  5
842
330
7F6
100
AcDbEntity
  8
TITLE
100
AcDbText
 10
9.145905996309931
 20
0.9520717565666277
 30
0.0
 40
0.1117888355610499
  1
%%uTOLERANCES:
  7
TXT
100
AcDbText
  0
TEXT
  5
843
330
7F6
100
AcDbEntity
  8
TITLE
100
AcDbText
 10
9.191485367583922
 20
0.2344895723568654
 30
0.0
 40
0.0772424143690822
  1
    SURFACES
  7
TXT
100
AcDbText
  0
TEXT
  5
844
330
7F6
100
AcDbEntity
  8
TITLE
100
AcDbText
 10
9.093719946747782
 20
0.7494390014840789
 30
0.0
 40
0.0772424143690822
  1
%%p.005 BETWEEN HOLE CENTERS
  7
TXT
100
AcDbText
  0
TEXT
  5
845
330
7F6
100
AcDbEntity
  8
TITLE
100
AcDbText
 10
9.093719946747782
 20
0.6207016442022755
 30
0.0
 40
0.0772424143690822
  1
%%p.015 FROM SHEARED EDGE
  7
TXT
100
AcDbText
  0
TEXT
  5
846
330
7F6
100
AcDbEntity
  8
TITLE
100
AcDbText
 10
9.093719946747782
 20
0.4919642869204704
 30
0.0
 40
0.0772424143690822
  1
%%p.032 FROM A BENT SURFACE
  7
TXT
100
AcDbText
  0
TEXT
  5
847
330
7F6
100
AcDbEntity
  8
TITLE
100
AcDbText
 10
9.098649805283812
 20
0.0564750904941671
 30
0.0
 40
0.0772424143690822
  1
UNLESS OTHERWISE SPECIFIED
  7
TXT
100
AcDbText
  0
TEXT
  5
848
330
7F6
100
AcDbEntity
  8
TITLE
100
AcDbText
 10
9.093719946747782
 20
0.363226929638667
 30
0.0
 40
0.0772424143690822
  1
%%p.063 BETWEEN ASSEMBLED
  7
TXT
100
AcDbText
  0
LINE
  5
849
330
7F6
100
AcDbEntity
  8
TITLE
100
AcDbLine
 10
7.494999999999997
 20
0.0000000000000013
 30
0.0
 11
7.494999999999997
 21
0.2499999999999996
 31
0.0
  0
TEXT
  5
84A
330
7F6
100
AcDbEntity
  8
TITLE
100
AcDbText
 10
7.917259741149376
 20
0.0776282744477839
 30
0.0
 40
0.09375
  1
USED ON
  7
TXT
100
AcDbText
  0
LINE
  5
84B
330
7F6
100
AcDbEntity
  8
TITLE
100
AcDbLine
 10
9.0225
 20
0.0000000000000013
 30
0.0
 11
9.0225
 21
1.127
 31
0.0
  0
LINE
  5
84C
330
7F6
100
AcDbEntity
  8
TITLE
100
AcDbLine
 10
7.119999999999997
 20
0.2499999999999996
 30
0.0
 11
9.0225
 21
0.2499999999999996
 31
0.0
  0
LINE
  5
84D
330
7F6
100
AcDbEntity
  8
TITLE
100
AcDbLine
 10
9.0225
 20
1.127
 30
0.0
 11
7.119999999999997
 21
1.127
 31
0.0
  0
TEXT
  5
84E
330
7F6
100
AcDbEntity
  8
TITLE
100
AcDbText
 10
7.171749183812263
 20
0.0776282744477839
 30
0.0
 40
0.09375
  1
QTY.
  7
TXT
100
AcDbText
  0
LINE
  5
84F
330
7F6
100
AcDbEntity
  8
TITLE
100
AcDbLine
 10
11.10049999999999
 20
1.377
 30
0.0
 11
7.119999999999997
 21
1.377
 31
0.0
  0
LINE
  5
850
330
7F6
100
AcDbEntity
  8
TITLE
100
AcDbLine
 10
11.10049999999999
 20
1.377
 30
0.0
 11
16.59999999999999
 21
1.377
 31
0.0
  0
LINE
  5
851
330
7F6
100
AcDbEntity
  8
TITLE
100
AcDbLine
 10
9.0225
 20
1.127
 30
0.0
 11
16.59999999999999
 21
1.127
 31
0.0
  0
LINE
  5
852
330
7F6
100
AcDbEntity
  8
TITLE
100
AcDbLine
 10
11.10049999999999
 20
0.9180000000000006
 30
0.0
 11
14.46724560008883
 21
0.9180000000000006
 31
0.0
  0
LINE
  5
853
330
7F6
100
AcDbEntity
  8
TITLE
100
AcDbLine
 10
11.10049999999999
 20
0.2499999999999996
 30
0.0
 11
12.76353790782162
 21
0.2499999999999996
 31
0.0
  0
LINE
  5
854
330
7F6
100
AcDbEntity
  8
TITLE
100
AcDbLine
 10
11.10049999999999
 20
0.709000000000001
 30
0.0
 11
12.76353790782162
 21
0.709000000000001
 31
0.0
  0
LINE
  5
855
330
7F6
100
AcDbEntity
  8
TITLE
100
AcDbLine
 10
11.10049999999999
 20
0.4999999999999996
 30
0.0
 11
12.76353790782162
 21
0.4999999999999996
 31
0.0
  0
LINE
  5
856
330
7F6
100
AcDbEntity
  8
TITLE
100
AcDbLine
 10
16.6
 20
9.624999999999998
 30
0.0
 11
16.6
 21
0.0
 31
0.0
  0
LINE
  5
857
330
7F6
100
AcDbEntity
  8
TITLE
100
AcDbLine
 10
0.0
 20
9.625000000000001
 30
0.0
 11
16.6
 21
9.624999999999998
 31
0.0
  0
ENDBLK
  5
859
330
7F6
100
AcDbEntity
  8
0
100
AcDbBlockEnd
  0
BLOCK
  5
8EC
330
8CB
100
AcDbEntity
  8
0
100
AcDbBlockBegin
  2
A$C69540A53
 70
     0
 10
0.0
 20
0.0
 30
0.0
  3
A$C69540A53
  1

  0
CIRCLE
  5
8CC
330
8CB
100
AcDbEntity
  8
AG-54C-TW
  6
HIDDEN2
 62
     4
100
AcDbCircle
 10
3.116516384667999
 20
-0.1130655406069998
 30
0.0
 40
0.094
  0
CIRCLE
  5
8CD
330
8CB
100
AcDbEntity
  8
AG-54C-TW
  6
HIDDEN2
 62
     4
100
AcDbCircle
 10
3.116516384667999
 20
-0.1130655406069998
 30
0.0
 40
0.0974910129856431
  0
CIRCLE
  5
8CE
330
8CB
100
AcDbEntity
  8
AG-54C-TW
  6
HIDDEN2
 62
     4
100
AcDbCircle
 10
0.1645163846680013
 20
-0.1130655406069998
 30
0.0
 40
0.0974910129856431
  0
CIRCLE
  5
8CF
330
8CB
100
AcDbEntity
  8
AG-54C-TW
  6
HIDDEN2
 62
     4
100
AcDbCircle
 10
0.1645163846680013
 20
-0.1130655406069998
 30
0.0
 40
0.094
  0
LINE
  5
8D0
330
8CB
100
AcDbEntity
  8
0
  6
CENTER2
 62
     1
100
AcDbLine
 10
3.146516384667998
 20
-1.333065540607001
 30
0.0
 11
0.1345163846680002
 21
-1.333065540607001
 31
0.0
  0
LINE
  5
8D1
330
8CB
100
AcDbEntity
  8
0
  6
CENTER2
 62
     1
100
AcDbLine
 10
0.1345163846680002
 20
-0.1130655406069998
 30
0.0
 11
3.146516384667998
 21
-0.1130655406069998
 31
0.0
  0
LWPOLYLINE
  5
8D2
330
8CB
100
AcDbEntity
  8
AG-54C-TW
100
AcDbPolyline
 90
        8
 70
     1
 43
0.0
 10
0.3665163846680013
 20
-1.04195995998296
 10
2.914516384668001
 20
-1.04195995998296
 42
0.4142135623730951
 10
2.943410804043963
 20
-1.013065540606999
 10
2.94341080404396
 20
-0.4330655406070019
 42
0.4142135623731311
 10
2.914516384667999
 20
-0.4041711212310411
 10
0.3665163846680013
 20
-0.4041711212310402
 42
0.4142135623730771
 10
0.3376219652920405
 20
-0.433065540607001
 10
0.3376219652920405
 20
-1.013065540607
 42
0.4142135623730951
  0
LWPOLYLINE
  5
8D3
330
8CB
100
AcDbEntity
  8
AG-54C-TW
100
AcDbPolyline
 90
        8
 70
     1
 43
0.0
 10
0.3665163846680013
 20
-1.138065540607
 10
2.914516384668001
 20
-1.138065540606999
 42
0.414213562373085
 10
3.039516384668003
 20
-1.013065540607002
 10
3.039516384667999
 20
-0.433065540607009
 42
0.414213562373135
 10
2.914516384667992
 20
-0.3080655406070019
 10
0.3665163846679977
 20
-0.3080655406070001
 42
0.4142135623730726
 10
0.2415163846680013
 20
-0.4330655406069975
 10
0.2415163846680013
 20
-1.013065540607
 42
0.4142135623730934
  0
LWPOLYLINE
  5
8D4
330
8CB
100
AcDbEntity
  8
AG-54C-TW
100
AcDbPolyline
 90
        8
 70
     1
 43
0.0
 10
0.3665163846680013
 20
-1.038065540607
 10
2.914516384668001
 20
-1.038065540606999
 42
0.4142135623730959
 10
2.939516384668001
 20
-1.013065540606999
 10
2.939516384667999
 20
-0.4330655406070019
 42
0.4142135623730951
 10
2.914516384667999
 20
-0.4080655406070015
 10
0.3665163846680013
 20
-0.4080655406070007
 42
0.4142135623730951
 10
0.3415163846680009
 20
-0.433065540607001
 10
0.3415163846680009
 20
-1.013065540607
 42
0.4142135623730951
  0
LINE
  5
8D5
330
8CB
100
AcDbEntity
  8
0
  6
CENTER2
 62
     1
100
AcDbLine
 10
0.1415163846680016
 20
-0.7230655406070011
 30
0.0
 11
3.139516384668
 21
-0.7230655406070002
 31
0.0
  0
LINE
  5
8D6
330
8CB
100
AcDbEntity
  8
0
  6
CENTER2
 62
     1
100
AcDbLine
 10
0.1645163846680013
 20
-1.363065540607001
 30
0.0
 11
0.1645163846680013
 21
-0.0830655406070005
 31
0.0
  0
CIRCLE
  5
8D7
330
8CB
100
AcDbEntity
  8
AG-54C-TW
  6
HIDDEN2
 62
     4
100
AcDbCircle
 10
0.1645163846680013
 20
-1.333065540607001
 30
0.0
 40
0.094
  0
CIRCLE
  5
8D8
330
8CB
100
AcDbEntity
  8
AG-54C-TW
  6
HIDDEN2
 62
     4
100
AcDbCircle
 10
0.1645163846680013
 20
-1.333065540607001
 30
0.0
 40
0.0974910129856431
  0
LINE
  5
8D9
330
8CB
100
AcDbEntity
  8
0
 62
     1
100
AcDbLine
 10
0.1645163846680013
 20
-1.363065540607001
 30
0.0
 11
0.1645163846680013
 21
-1.303065540607001
 31
0.0
  0
LINE
  5
8DA
330
8CB
100
AcDbEntity
  8
0
 62
     1
100
AcDbLine
 10
0.1345163846680002
 20
-1.333065540607001
 30
0.0
 11
0.1945163846680007
 21
-1.333065540607001
 31
0.0
  0
CIRCLE
  5
8DB
330
8CB
100
AcDbEntity
  8
AG-54C-TW
  6
HIDDEN2
 62
     4
100
AcDbCircle
 10
0.1645163846680013
 20
-1.333065540607001
 30
0.0
 40
0.043
  0
CIRCLE
  5
8DC
330
8CB
100
AcDbEntity
  8
AG-54C-TW
  6
HIDDEN2
 62
     4
100
AcDbCircle
 10
0.1645163846680013
 20
-1.333065540607001
 30
0.0
 40
0.0412546264418488
  0
LINE
  5
8DD
330
8CB
100
AcDbEntity
  8
0
 62
     1
100
AcDbLine
 10
0.1645163846680013
 20
-0.1430655406069992
 30
0.0
 11
0.1645163846680013
 21
-0.0830655406070005
 31
0.0
  0
LINE
  5
8DE
330
8CB
100
AcDbEntity
  8
0
 62
     1
100
AcDbLine
 10
0.1345163846680002
 20
-0.1130655406069998
 30
0.0
 11
0.1945163846680007
 21
-0.1130655406069998
 31
0.0
  0
CIRCLE
  5
8DF
330
8CB
100
AcDbEntity
  8
AG-54C-TW
  6
HIDDEN2
 62
     4
100
AcDbCircle
 10
0.1645163846680013
 20
-0.1130655406069998
 30
0.0
 40
0.0412546264418488
  0
CIRCLE
  5
8E0
330
8CB
100
AcDbEntity
  8
AG-54C-TW
  6
HIDDEN2
 62
     4
100
AcDbCircle
 10
0.1645163846680013
 20
-0.1130655406069998
 30
0.0
 40
0.043
  0
LINE
  5
8E1
330
8CB
100
AcDbEntity
  8
0
  6
CENTER2
 62
     1
100
AcDbLine
 10
3.116516384667999
 20
-1.363065540607001
 30
0.0
 11
3.116516384667999
 21
-0.0830655406070005
 31
0.0
  0
CIRCLE
  5
8E2
330
8CB
100
AcDbEntity
  8
AG-54C-TW
  6
HIDDEN2
 62
     4
100
AcDbCircle
 10
3.116516384667999
 20
-1.333065540607001
 30
0.0
 40
0.0974910129856431
  0
CIRCLE
  5
8E3
330
8CB
100
AcDbEntity
  8
AG-54C-TW
  6
HIDDEN2
 62
     4
100
AcDbCircle
 10
3.116516384667999
 20
-1.333065540607001
 30
0.0
 40
0.094
  0
LINE
  5
8E4
330
8CB
100
AcDbEntity
  8
0
 62
     1
100
AcDbLine
 10
3.116516384667999
 20
-1.363065540607001
 30
0.0
 11
3.116516384667999
 21
-1.303065540607001
 31
0.0
  0
LINE
  5
8E5
330
8CB
100
AcDbEntity
  8
0
 62
     1
100
AcDbLine
 10
3.086516384668
 20
-1.333065540607001
 30
0.0
 11
3.146516384667998
 21
-1.333065540607001
 31
0.0
  0
CIRCLE
  5
8E6
330
8CB
100
AcDbEntity
  8
AG-54C-TW
  6
HIDDEN2
 62
     4
100
AcDbCircle
 10
3.116516384667999
 20
-1.333065540607001
 30
0.0
 40
0.0412546264418488
  0
CIRCLE
  5
8E7
330
8CB
100
AcDbEntity
  8
AG-54C-TW
  6
HIDDEN2
 62
     4
100
AcDbCircle
 10
3.116516384667999
 20
-1.333065540607001
 30
0.0
 40
0.043
  0
LINE
  5
8E8
330
8CB
100
AcDbEntity
  8
0
 62
     1
100
AcDbLine
 10
3.116516384667999
 20
-0.1430655406069992
 30
0.0
 11
3.116516384667999
 21
-0.0830655406070005
 31
0.0
  0
LINE
  5
8E9
330
8CB
100
AcDbEntity
  8
0
 62
     1
100
AcDbLine
 10
3.086516384668
 20
-0.1130655406069998
 30
0.0
 11
3.146516384667998
 21
-0.1130655406069998
 31
0.0
  0
CIRCLE
  5
8EA
330
8CB
100
AcDbEntity
  8
AG-54C-TW
  6
HIDDEN2
 62
     4
100
AcDbCircle
 10
3.116516384667999
 20
-0.1130655406069998
 30
0.0
 40
0.043
  0
CIRCLE
  5
8EB
330
8CB
100
AcDbEntity
  8
AG-54C-TW
  6
HIDDEN2
 62
     4
100
AcDbCircle
 10
3.116516384667999
 20
-0.1130655406069998
 30
0.0
 40
0.0412546264418488
  0
ENDBLK
  5
8ED
330
8CB
100
AcDbEntity
  8
0
100
AcDbBlockEnd
  0
BLOCK
  5
95D
330
95A
100
AcDbEntity
  8
0
100
AcDbBlockBegin
  2
CL
 70
     0
 10
0.0
 20
0.0
 30
0.0
  3
CL
  1

  0
TEXT
  5
95B
330
95A
100
AcDbEntity
  8
0
 62
     4
100
AcDbText
 10
-0.0446487846840817
 20
-0.0006419411893219
 30
0.0
 40
0.125
  1
C
100
AcDbText
  0
TEXT
  5
95C
330
95A
100
AcDbEntity
  8
0
 62
     4
100
AcDbText
 10
0.0023360547861877
 20
-0.065809302625766
 30
0.0
 40
0.125
  1
L
100
AcDbText
  0
ENDBLK
  5
95E
330
95A
100
AcDbEntity
  8
0
100
AcDbBlockEnd
  0
BLOCK
  5
F1A
330
F0F
100
AcDbEntity
  8
0
100
AcDbBlockBegin
  2
*D22
 70
     1
 10
0.0
 20
0.0
 30
0.0
  3
*D22
  1

  0
LINE
  5
1359
330
F0F
100
AcDbEntity
  8
0
 62
     1
370
    -2
100
AcDbLine
 10
56.29032014147584
 20
22.75902224516734
 30
0.0
 11
56.29032014147584
 21
21.36565007987034
 31
0.0
  0
LINE
  5
135A
330
F0F
100
AcDbEntity
  8
0
 62
     1
370
    -2
100
AcDbLine
 10
59.24232014147584
 20
22.75902224516734
 30
0.0
 11
59.24232014147584
 21
21.36565007987034
 31
0.0
  0
LINE
  5
135B
330
F0F
100
AcDbEntity
  8
0
 62
     1
370
    -2
100
AcDbLine
 10
56.47032014147584
 20
21.46565007987034
 30
0.0
 11
57.46498828608704
 21
21.46565007987034
 31
0.0
  0
LINE
  5
135C
330
F0F
100
AcDbEntity
  8
0
 62
     1
370
    -2
100
AcDbLine
 10
59.06232014147584
 20
21.46565007987034
 30
0.0
 11
58.06765199686465
 21
21.46565007987034
 31
0.0
  0
SOLID
  5
135D
330
F0F
100
AcDbEntity
  8
0
 62
     1
100
AcDbTrace
 10
56.47032014147584
 20
21.49565007987034
 30
0.0
 11
56.47032014147584
 21
21.43565007987034
 31
0.0
 12
56.29032014147584
 22
21.46565007987034
 32
0.0
 13
56.29032014147584
 23
21.46565007987034
 33
0.0
  0
SOLID
  5
135E
330
F0F
100
AcDbEntity
  8
0
 62
     1
100
AcDbTrace
 10
59.06232014147584
 20
21.49565007987034
 30
0.0
 11
59.06232014147584
 21
21.43565007987034
 31
0.0
 12
59.24232014147584
 22
21.46565007987034
 32
0.0
 13
59.24232014147584
 23
21.46565007987034
 33
0.0
  0
MTEXT
  5
135F
330
F0F
100
AcDbEntity
  8
0
 62
     4
100
AcDbMText
 10
57.76632014147584
 20
21.46565007987034
 30
0.0
 40
0.125
 41
0.0
 71
     5
 72
     1
  1
\A1;2.952
 73
     1
 44
1.0
  0
POINT
  5
1360
330
F0F
100
AcDbEntity
  8
DEFPOINTS
 62
     0
100
AcDbPoint
 10
56.29032014147584
 20
22.82202224516734
 30
0.0
  0
POINT
  5
1361
330
F0F
100
AcDbEntity
  8
DEFPOINTS
 62
     0
100
AcDbPoint
 10
59.24232014147584
 20
22.82202224516734
 30
0.0
  0
POINT
  5
1362
330
F0F
100
AcDbEntity
  8
DEFPOINTS
 62
     0
100
AcDbPoint
 10
59.24232014147584
 20
21.46565007987034
 30
0.0
  0
ENDBLK
  5
F1B
330
F0F
100
AcDbEntity
  8
0
100
AcDbBlockEnd
  0
BLOCK
  5
F28
330
F1D
100
AcDbEntity
  8
0
100
AcDbBlockBegin
  2
*D23
 70
     1
 10
0.0
 20
0.0
 30
0.0
  3
*D23
  1

  0
LINE
  5
134F
330
F1D
100
AcDbEntity
  8
0
 62
     1
370
    -2
100
AcDbLine
 10
56.36732014147585
 20
23.07902224516735
 30
0.0
 11
56.36732014147585
 21
21.60945786887175
 31
0.0
  0
LINE
  5
1350
330
F1D
100
AcDbEntity
  8
0
 62
     1
370
    -2
100
AcDbLine
 10
59.16532014147585
 20
23.07902224516734
 30
0.0
 11
59.16532014147585
 21
21.60945786887175
 31
0.0
  0
LINE
  5
1351
330
F1D
100
AcDbEntity
  8
0
 62
     1
370
    -2
100
AcDbLine
 10
56.54732014147585
 20
21.70945786887175
 30
0.0
 11
57.46422089181692
 21
21.70945786887175
 31
0.0
  0
LINE
  5
1352
330
F1D
100
AcDbEntity
  8
0
 62
     1
370
    -2
100
AcDbLine
 10
58.98532014147585
 20
21.70945786887175
 30
0.0
 11
58.06841939113478
 21
21.70945786887175
 31
0.0
  0
SOLID
  5
1353
330
F1D
100
AcDbEntity
  8
0
 62
     1
100
AcDbTrace
 10
56.54732014147585
 20
21.73945786887175
 30
0.0
 11
56.54732014147585
 21
21.67945786887174
 31
0.0
 12
56.36732014147585
 22
21.70945786887175
 32
0.0
 13
56.36732014147585
 23
21.70945786887175
 33
0.0
  0
SOLID
  5
1354
330
F1D
100
AcDbEntity
  8
0
 62
     1
100
AcDbTrace
 10
58.98532014147585
 20
21.73945786887175
 30
0.0
 11
58.98532014147585
 21
21.67945786887174
 31
0.0
 12
59.16532014147585
 22
21.70945786887175
 32
0.0
 13
59.16532014147585
 23
21.70945786887175
 33
0.0
  0
MTEXT
  5
1355
330
F1D
100
AcDbEntity
  8
0
 62
     4
100
AcDbMText
 10
57.76632014147585
 20
21.70945786887175
 30
0.0
 40
0.125
 41
0.0
 71
     5
 72
     1
  1
\A1;2.798
 73
     1
 44
1.0
  0
POINT
  5
1356
330
F1D
100
AcDbEntity
  8
DEFPOINTS
 62
     0
100
AcDbPoint
 10
56.36732014147585
 20
23.14202224516735
 30
0.0
  0
POINT
  5
1357
330
F1D
100
AcDbEntity
  8
DEFPOINTS
 62
     0
100
AcDbPoint
 10
59.16532014147585
 20
23.14202224516734
 30
0.0
  0
POINT
  5
1358
330
F1D
100
AcDbEntity
  8
DEFPOINTS
 62
     0
100
AcDbPoint
 10
59.16532014147585
 20
21.70945786887175
 30
0.0
  0
ENDBLK
  5
F29
330
F1D
100
AcDbEntity
  8
0
100
AcDbBlockEnd
  0
BLOCK
  5
F36
330
F2B
100
AcDbEntity
  8
0
100
AcDbBlockBegin
  2
*D24
 70
     1
 10
0.0
 20
0.0
 30
0.0
  3
*D24
  1

  0
LINE
  5
1345
330
F2B
100
AcDbEntity
  8
0
 62
     1
370
    -2
100
AcDbLine
 10
56.46732014147585
 20
23.07902224516735
 30
0.0
 11
56.46732014147585
 21
21.89077455586116
 31
0.0
  0
LINE
  5
1346
330
F2B
100
AcDbEntity
  8
0
 62
     1
370
    -2
100
AcDbLine
 10
59.06532014147585
 20
23.07902224516735
 30
0.0
 11
59.06532014147585
 21
21.89077455586116
 31
0.0
  0
LINE
  5
1347
330
F2B
100
AcDbEntity
  8
0
 62
     1
370
    -2
100
AcDbLine
 10
56.64732014147585
 20
21.99077455586117
 30
0.0
 11
57.46422089181692
 21
21.99077455586117
 31
0.0
  0
LINE
  5
1348
330
F2B
100
AcDbEntity
  8
0
 62
     1
370
    -2
100
AcDbLine
 10
58.88532014147585
 20
21.99077455586117
 30
0.0
 11
58.06841939113478
 21
21.99077455586117
 31
0.0
  0
SOLID
  5
1349
330
F2B
100
AcDbEntity
  8
0
 62
     1
100
AcDbTrace
 10
56.64732014147585
 20
22.02077455586117
 30
0.0
 11
56.64732014147585
 21
21.96077455586117
 31
0.0
 12
56.46732014147585
 22
21.99077455586117
 32
0.0
 13
56.46732014147585
 23
21.99077455586117
 33
0.0
  0
SOLID
  5
134A
330
F2B
100
AcDbEntity
  8
0
 62
     1
100
AcDbTrace
 10
58.88532014147585
 20
22.02077455586117
 30
0.0
 11
58.88532014147585
 21
21.96077455586117
 31
0.0
 12
59.06532014147585
 22
21.99077455586117
 32
0.0
 13
59.06532014147585
 23
21.99077455586117
 33
0.0
  0
MTEXT
  5
134B
330
F2B
100
AcDbEntity
  8
0
 62
     4
100
AcDbMText
 10
57.76632014147585
 20
21.99077455586117
 30
0.0
 40
0.125
 41
0.0
 71
     5
 72
     1
  1
\A1;2.598
 73
     1
 44
1.0
  0
POINT
  5
134C
330
F2B
100
AcDbEntity
  8
DEFPOINTS
 62
     0
100
AcDbPoint
 10
56.46732014147585
 20
23.14202224516735
 30
0.0
  0
POINT
  5
134D
330
F2B
100
AcDbEntity
  8
DEFPOINTS
 62
     0
100
AcDbPoint
 10
59.06532014147585
 20
23.14202224516735
 30
0.0
  0
POINT
  5
134E
330
F2B
100
AcDbEntity
  8
DEFPOINTS
 62
     0
100
AcDbPoint
 10
59.06532014147585
 20
21.99077455586117
 30
0.0
  0
ENDBLK
  5
F37
330
F2B
100
AcDbEntity
  8
0
100
AcDbBlockEnd
  0
BLOCK
  5
F82
330
F76
100
AcDbEntity
  8
0
100
AcDbBlockBegin
  2
*D25
 70
     1
 10
0.0
 20
0.0
 30
0.0
  3
*D25
  1

  0
LINE
  5
133A
330
F76
100
AcDbEntity
  8
0
 62
     1
370
    -2
100
AcDbLine
 10
56.42932014147585
 20
23.11702224516734
 30
0.0
 11
54.17034347459561
 21
23.11702224516735
 31
0.0
  0
LINE
  5
133B
330
F76
100
AcDbEntity
  8
0
 62
     1
370
    -2
100
AcDbLine
 10
56.42932014147585
 20
23.74702224516734
 30
0.0
 11
54.17034347459561
 21
23.74702224516735
 31
0.0
  0
LINE
  5
133C
330
F76
100
AcDbEntity
  8
0
 62
     1
370
    -2
100
AcDbLine
 10
54.27034347459561
 20
23.29702224516735
 30
0.0
 11
54.27034347459561
 21
23.56702224516735
 31
0.0
  0
LINE
  5
133D
330
F76
100
AcDbEntity
  8
0
 62
     1
370
    -2
100
AcDbLine
 10
54.27034347459561
 20
23.74702224516735
 30
0.0
 11
54.27034347459561
 21
24.11127723097576
 31
0.0
  0
LINE
  5
133E
330
F76
100
AcDbEntity
  8
0
 62
     1
370
    -2
100
AcDbLine
 10
54.27034347459561
 20
24.11127723097576
 30
0.0
 11
54.45034347459561
 21
24.11127723097576
 31
0.0
  0
SOLID
  5
133F
330
F76
100
AcDbEntity
  8
0
 62
     1
100
AcDbTrace
 10
54.24034347459561
 20
23.29702224516735
 30
0.0
 11
54.30034347459561
 21
23.29702224516735
 31
0.0
 12
54.27034347459561
 22
23.11702224516735
 32
0.0
 13
54.27034347459561
 23
23.11702224516735
 33
0.0
  0
SOLID
  5
1340
330
F76
100
AcDbEntity
  8
0
 62
     1
100
AcDbTrace
 10
54.24034347459561
 20
23.56702224516735
 30
0.0
 11
54.30034347459561
 21
23.56702224516735
 31
0.0
 12
54.27034347459561
 22
23.74702224516735
 32
0.0
 13
54.27034347459561
 23
23.74702224516735
 33
0.0
  0
MTEXT
  5
1341
330
F76
100
AcDbEntity
  8
0
 62
     4
100
AcDbMText
 10
54.75103583475931
 20
24.11127723097576
 30
0.0
 40
0.125
 41
0.0
 71
     5
 72
     1
  1
\A1;0.630
 73
     1
 44
1.0
  0
POINT
  5
1342
330
F76
100
AcDbEntity
  8
DEFPOINTS
 62
     0
100
AcDbPoint
 10
56.49232014147585
 20
23.11702224516734
 30
0.0
  0
POINT
  5
1343
330
F76
100
AcDbEntity
  8
DEFPOINTS
 62
     0
100
AcDbPoint
 10
56.49232014147585
 20
23.74702224516734
 30
0.0
  0
POINT
  5
1344
330
F76
100
AcDbEntity
  8
DEFPOINTS
 62
     0
100
AcDbPoint
 10
54.27034347459561
 20
23.74702224516735
 30
0.0
  0
ENDBLK
  5
F83
330
F76
100
AcDbEntity
  8
0
100
AcDbBlockEnd
  0
BLOCK
  5
FA5
330
F99
100
AcDbEntity
  8
0
100
AcDbBlockBegin
  2
*D26
 70
     1
 10
0.0
 20
0.0
 30
0.0
  3
*D26
  1

  0
LINE
  5
13BE
330
F99
100
AcDbEntity
  8
0
 62
     1
370
    -2
100
AcDbLine
 10
59.10332014147584
 20
23.01702224516735
 30
0.0
 11
61.06428020236252
 21
23.01702224516735
 31
0.0
  0
LINE
  5
13BF
330
F99
100
AcDbEntity
  8
0
 62
     1
370
    -2
100
AcDbLine
 10
59.10332014147584
 20
23.84702224516734
 30
0.0
 11
61.06428020236252
 21
23.84702224516734
 31
0.0
  0
LINE
  5
13C0
330
F99
100
AcDbEntity
  8
0
 62
     1
370
    -2
100
AcDbLine
 10
60.96428020236253
 20
23.19702224516734
 30
0.0
 11
60.96428020236253
 21
23.31976182850101
 31
0.0
  0
LINE
  5
13C1
330
F99
100
AcDbEntity
  8
0
 62
     1
370
    -2
100
AcDbLine
 10
60.96428020236253
 20
23.66702224516735
 30
0.0
 11
60.96428020236253
 21
23.62749034146145
 31
0.0
  0
SOLID
  5
13C2
330
F99
100
AcDbEntity
  8
0
 62
     1
100
AcDbTrace
 10
60.93428020236252
 20
23.19702224516734
 30
0.0
 11
60.99428020236253
 21
23.19702224516734
 31
0.0
 12
60.96428020236253
 22
23.01702224516735
 32
0.0
 13
60.96428020236253
 23
23.01702224516735
 33
0.0
  0
SOLID
  5
13C3
330
F99
100
AcDbEntity
  8
0
 62
     1
100
AcDbTrace
 10
60.93428020236252
 20
23.66702224516735
 30
0.0
 11
60.99428020236253
 21
23.66702224516735
 31
0.0
 12
60.96428020236253
 22
23.84702224516734
 32
0.0
 13
60.96428020236253
 23
23.84702224516734
 33
0.0
  0
MTEXT
  5
13C4
330
F99
100
AcDbEntity
  8
0
 62
     4
100
AcDbMText
 10
60.96428020236252
 20
23.47362608498124
 30
0.0
 40
0.125
 41
0.0
 71
     5
 72
     1
  1
\A1;0.830
 73
     1
 44
1.0
  0
POINT
  5
13C5
330
F99
100
AcDbEntity
  8
DEFPOINTS
 62
     0
100
AcDbPoint
 10
59.04032014147585
 20
23.01702224516735
 30
0.0
  0
POINT
  5
13C6
330
F99
100
AcDbEntity
  8
DEFPOINTS
 62
     0
100
AcDbPoint
 10
59.04032014147584
 20
23.84702224516734
 30
0.0
  0
POINT
  5
13C7
330
F99
100
AcDbEntity
  8
DEFPOINTS
 62
     0
100
AcDbPoint
 10
60.96428020236253
 20
23.84702224516734
 30
0.0
  0
ENDBLK
  5
FA6
330
F99
100
AcDbEntity
  8
0
100
AcDbBlockEnd
  0
BLOCK
  5
FEF
330
FE4
100
AcDbEntity
  8
0
100
AcDbBlockBegin
  2
*D27
 70
     1
 10
0.0
 20
0.0
 30
0.0
  3
*D27
  1

  0
LINE
  5
13B4
330
FE4
100
AcDbEntity
  8
0
 62
     1
370
    -2
100
AcDbLine
 10
59.30532014147584
 20
24.04202224516735
 30
0.0
 11
61.60864300859305
 21
24.04202224516735
 31
0.0
  0
LINE
  5
13B5
330
FE4
100
AcDbEntity
  8
0
 62
     1
370
    -2
100
AcDbLine
 10
59.30532014147584
 20
22.82202224516734
 30
0.0
 11
61.60864300859305
 21
22.82202224516734
 31
0.0
  0
LINE
  5
13B6
330
FE4
100
AcDbEntity
  8
0
 62
     1
370
    -2
100
AcDbLine
 10
61.50864300859305
 20
23.86202224516734
 30
0.0
 11
61.50864300859305
 21
23.58584386863256
 31
0.0
  0
LINE
  5
13B7
330
FE4
100
AcDbEntity
  8
0
 62
     1
370
    -2
100
AcDbLine
 10
61.50864300859305
 20
23.00202224516734
 30
0.0
 11
61.50864300859305
 21
23.27820062170213
 31
0.0
  0
SOLID
  5
13B8
330
FE4
100
AcDbEntity
  8
0
 62
     1
100
AcDbTrace
 10
61.47864300859305
 20
23.86202224516734
 30
0.0
 11
61.53864300859305
 21
23.86202224516734
 31
0.0
 12
61.50864300859305
 22
24.04202224516735
 32
0.0
 13
61.50864300859305
 23
24.04202224516735
 33
0.0
  0
SOLID
  5
13B9
330
FE4
100
AcDbEntity
  8
0
 62
     1
100
AcDbTrace
 10
61.47864300859305
 20
23.00202224516734
 30
0.0
 11
61.53864300859305
 21
23.00202224516734
 31
0.0
 12
61.50864300859305
 22
22.82202224516734
 32
0.0
 13
61.50864300859305
 23
22.82202224516734
 33
0.0
  0
MTEXT
  5
13BA
330
FE4
100
AcDbEntity
  8
0
 62
     4
100
AcDbMText
 10
61.50864300859304
 20
23.43202224516735
 30
0.0
 40
0.125
 41
0.0
 71
     5
 72
     1
  1
\A1;1.220
 73
     1
 44
1.0
  0
POINT
  5
13BB
330
FE4
100
AcDbEntity
  8
DEFPOINTS
 62
     0
100
AcDbPoint
 10
59.24232014147584
 20
24.04202224516735
 30
0.0
  0
POINT
  5
13BC
330
FE4
100
AcDbEntity
  8
DEFPOINTS
 62
     0
100
AcDbPoint
 10
59.24232014147584
 20
22.82202224516734
 30
0.0
  0
POINT
  5
13BD
330
FE4
100
AcDbEntity
  8
DEFPOINTS
 62
     0
100
AcDbPoint
 10
61.50864300859305
 20
22.82202224516734
 30
0.0
  0
ENDBLK
  5
FF0
330
FE4
100
AcDbEntity
  8
0
100
AcDbBlockEnd
  0
BLOCK
  5
1027
330
101B
100
AcDbEntity
  8
0
100
AcDbBlockBegin
  2
*D28
 70
     1
 10
0.0
 20
0.0
 30
0.0
  3
*D28
  1

  0
LINE
  5
1330
330
101B
100
AcDbEntity
  8
0
 62
     1
370
    -2
100
AcDbLine
 10
55.28505615689439
 20
24.27064985129136
 30
0.0
 11
53.63739475021573
 21
24.27064985129136
 31
0.0
  0
LINE
  5
1331
330
101B
100
AcDbEntity
  8
0
 62
     1
370
    -2
100
AcDbLine
 10
56.63605615583015
 20
23.43202224516735
 30
0.0
 11
53.63739475021573
 21
23.43202224516735
 31
0.0
  0
LINE
  5
1332
330
101B
100
AcDbEntity
  8
0
 62
     1
370
    -2
100
AcDbLine
 10
53.73739475021573
 20
24.09064985129136
 30
0.0
 11
53.73739475021573
 21
24.00257924946056
 31
0.0
  0
LINE
  5
1333
330
101B
100
AcDbEntity
  8
0
 62
     1
370
    -2
100
AcDbLine
 10
53.73739475021573
 20
23.61202224516735
 30
0.0
 11
53.73739475021573
 21
23.69485073650012
 31
0.0
  0
SOLID
  5
1334
330
101B
100
AcDbEntity
  8
0
 62
     1
100
AcDbTrace
 10
53.70739475021573
 20
24.09064985129136
 30
0.0
 11
53.76739475021573
 21
24.09064985129136
 31
0.0
 12
53.73739475021573
 22
24.27064985129136
 32
0.0
 13
53.73739475021573
 23
24.27064985129136
 33
0.0
  0
SOLID
  5
1335
330
101B
100
AcDbEntity
  8
0
 62
     1
100
AcDbTrace
 10
53.70739475021573
 20
23.61202224516735
 30
0.0
 11
53.76739475021573
 21
23.61202224516735
 31
0.0
 12
53.73739475021573
 22
23.43202224516735
 32
0.0
 13
53.73739475021573
 23
23.43202224516735
 33
0.0
  0
MTEXT
  5
1336
330
101B
100
AcDbEntity
  8
0
 62
     4
100
AcDbMText
 10
53.73739475021572
 20
23.84871499298035
 30
0.0
 40
0.125
 41
0.0
 71
     5
 72
     1
  1
\A1;0.839
 73
     1
 44
1.0
  0
POINT
  5
1337
330
101B
100
AcDbEntity
  8
DEFPOINTS
 62
     0
100
AcDbPoint
 10
55.34805615689439
 20
24.27064985129136
 30
0.0
  0
POINT
  5
1338
330
101B
100
AcDbEntity
  8
DEFPOINTS
 62
     0
100
AcDbPoint
 10
56.69905615583015
 20
23.43202224516735
 30
0.0
  0
POINT
  5
1339
330
101B
100
AcDbEntity
  8
DEFPOINTS
 62
     0
100
AcDbPoint
 10
53.73739475021573
 20
23.43202224516735
 30
0.0
  0
ENDBLK
  5
1028
330
101B
100
AcDbEntity
  8
0
100
AcDbBlockEnd
  0
BLOCK
  5
1187
330
117C
100
AcDbEntity
  8
0
100
AcDbBlockBegin
  2
*D29
 70
     1
 10
0.0
 20
0.0
 30
0.0
  3
*D29
  1

  0
LINE
  5
13F1
330
117C
100
AcDbEntity
  8
0
 62
     1
370
    -2
100
AcDbLine
 10
64.86784546474936
 20
20.2070829398812
 30
0.0
 11
64.86784546474936
 21
19.65164330412901
 31
0.0
  0
LINE
  5
13F2
330
117C
100
AcDbEntity
  8
0
 62
     1
370
    -2
100
AcDbLine
 10
65.26784546474934
 20
20.6070829398812
 30
0.0
 11
65.26784546474934
 21
19.65164330412901
 31
0.0
  0
LINE
  5
13F3
330
117C
100
AcDbEntity
  8
0
 62
     1
370
    -2
100
AcDbLine
 10
64.68784546474935
 20
19.75164330412901
 30
0.0
 11
64.50784546474936
 21
19.75164330412901
 31
0.0
  0
LINE
  5
13F4
330
117C
100
AcDbEntity
  8
0
 62
     1
370
    -2
100
AcDbLine
 10
65.44784546474935
 20
19.75164330412901
 30
0.0
 11
65.62784546474934
 21
19.75164330412901
 31
0.0
  0
SOLID
  5
13F5
330
117C
100
AcDbEntity
  8
0
 62
     1
100
AcDbTrace
 10
64.68784546474935
 20
19.78164330412901
 30
0.0
 11
64.68784546474935
 21
19.72164330412901
 31
0.0
 12
64.86784546474936
 22
19.75164330412901
 32
0.0
 13
64.86784546474936
 23
19.75164330412901
 33
0.0
  0
SOLID
  5
13F6
330
117C
100
AcDbEntity
  8
0
 62
     1
100
AcDbTrace
 10
65.44784546474935
 20
19.78164330412901
 30
0.0
 11
65.44784546474935
 21
19.72164330412901
 31
0.0
 12
65.26784546474934
 22
19.75164330412901
 32
0.0
 13
65.26784546474934
 23
19.75164330412901
 33
0.0
  0
MTEXT
  5
13F7
330
117C
100
AcDbEntity
  8
0
 62
     4
100
AcDbMText
 10
66.1275913719799
 20
19.75164330412901
 30
0.0
 40
0.125
 41
0.0
 71
     5
 72
     1
  1
\A1;0.100 REF
 73
     1
 44
1.0
  0
POINT
  5
13F8
330
117C
100
AcDbEntity
  8
DEFPOINTS
 62
     0
100
AcDbPoint
 10
64.86784546474936
 20
20.2700829398812
 30
0.0
  0
POINT
  5
13F9
330
117C
100
AcDbEntity
  8
DEFPOINTS
 62
     0
100
AcDbPoint
 10
65.26784546474934
 20
20.6700829398812
 30
0.0
  0
POINT
  5
13FA
330
117C
100
AcDbEntity
  8
DEFPOINTS
 62
     0
100
AcDbPoint
 10
65.26784546474934
 20
19.75164330412901
 30
0.0
  0
ENDBLK
  5
1188
330
117C
100
AcDbEntity
  8
0
100
AcDbBlockEnd
  0
BLOCK
  5
1201
330
11F5
100
AcDbEntity
  8
0
100
AcDbBlockBegin
  2
*D30
 70
     1
 10
0.0
 20
0.0
 30
0.0
  3
*D30
  1

  0
LINE
  5
13FB
330
11F5
100
AcDbEntity
  8
0
 62
     1
370
    -2
100
AcDbLine
 10
64.10092517345701
 20
20.27008293988125
 30
0.0
 11
63.02306667680532
 21
20.27008293988125
 31
0.0
  0
LINE
  5
13FC
330
11F5
100
AcDbEntity
  8
0
 62
     1
370
    -2
100
AcDbLine
 10
64.05296033830869
 20
20.44813660850555
 30
0.0
 11
63.02306667680532
 21
20.44813660850555
 31
0.0
  0
LINE
  5
13FD
330
11F5
100
AcDbEntity
  8
0
 62
     1
370
    -2
100
AcDbLine
 10
63.12306667680533
 20
20.09008293988125
 30
0.0
 11
63.12306667680533
 21
19.91008293988125
 31
0.0
  0
LINE
  5
13FE
330
11F5
100
AcDbEntity
  8
0
 62
     1
370
    -2
100
AcDbLine
 10
63.12306667680533
 20
20.62813660850554
 30
0.0
 11
63.12306667680533
 21
20.80813660850555
 31
0.0
  0
LINE
  5
13FF
330
11F5
100
AcDbEntity
  8
0
 62
     1
370
    -2
100
AcDbLine
 10
63.12306667680533
 20
20.80813660850555
 30
0.0
 11
63.30306667680533
 21
20.80813660850555
 31
0.0
  0
SOLID
  5
1400
330
11F5
100
AcDbEntity
  8
0
 62
     1
100
AcDbTrace
 10
63.09306667680533
 20
20.09008293988125
 30
0.0
 11
63.15306667680533
 21
20.09008293988125
 31
0.0
 12
63.12306667680533
 22
20.27008293988125
 32
0.0
 13
63.12306667680533
 23
20.27008293988125
 33
0.0
  0
SOLID
  5
1401
330
11F5
100
AcDbEntity
  8
0
 62
     1
100
AcDbTrace
 10
63.09306667680533
 20
20.62813660850554
 30
0.0
 11
63.15306667680533
 21
20.62813660850554
 31
0.0
 12
63.12306667680533
 22
20.44813660850555
 32
0.0
 13
63.12306667680533
 23
20.44813660850555
 33
0.0
  0
MTEXT
  5
1402
330
11F5
100
AcDbEntity
  8
0
 62
     4
100
AcDbMText
 10
63.60444116520914
 20
20.80813660850556
 30
0.0
 40
0.125
 41
0.0
 71
     5
 72
     1
  1
\A1;0.045
 73
     1
 44
1.0
  0
POINT
  5
1403
330
11F5
100
AcDbEntity
  8
DEFPOINTS
 62
     0
100
AcDbPoint
 10
64.16392517345702
 20
20.27008293988125
 30
0.0
  0
POINT
  5
1404
330
11F5
100
AcDbEntity
  8
DEFPOINTS
 62
     0
100
AcDbPoint
 10
64.11596033830869
 20
20.44813660850555
 30
0.0
  0
POINT
  5
1405
330
11F5
100
AcDbEntity
  8
DEFPOINTS
 62
     0
100
AcDbPoint
 10
63.12306667680533
 20
20.44813660850555
 30
0.0
  0
ENDBLK
  5
1202
330
11F5
100
AcDbEntity
  8
0
100
AcDbBlockEnd
  0
BLOCK
  5
1232
330
1225
100
AcDbEntity
  8
0
100
AcDbBlockBegin
  2
*D31
 70
     1
 10
0.0
 20
0.0
 30
0.0
  3
*D31
  1

  0
LINE
  5
13E5
330
1225
100
AcDbEntity
  8
0
 62
     1
370
    -2
100
AcDbLine
 10
65.76327637572429
 20
20.67127459811723
 30
0.0
 11
66.73856697312271
 21
20.67127459811723
 31
0.0
  0
LINE
  5
13E6
330
1225
100
AcDbEntity
  8
0
 62
     1
370
    -2
100
AcDbLine
 10
65.32446907779783
 20
20.70277459811723
 30
0.0
 11
66.54180417814888
 21
21.40560334599887
 31
0.0
  0
ARC
  5
13E7
330
1225
100
AcDbEntity
  8
0
 62
     1
370
    -2
100
AcDbCircle
 10
65.26990947735942
 20
20.67127459811723
 30
0.0
 40
1.368657495763304
100
AcDbArc
 50
344.9185242910766
 51
352.4592621455383
  0
ARC
  5
13E8
330
1225
100
AcDbEntity
  8
0
 62
     1
370
    -2
100
AcDbCircle
 10
65.26990947735942
 20
20.67127459811723
 30
0.0
 40
1.368657495763304
100
AcDbArc
 50
37.54073785446074
 51
45.08147570892245
  0
SOLID
  5
13E9
330
1225
100
AcDbEntity
  8
0
 62
     1
100
AcDbTrace
 10
66.59679548847218
 20
20.49363692455081
 30
0.0
 11
66.65666562501538
 21
20.4896914524245
 31
0.0
 12
66.63856697312272
 22
20.67127459811723
 32
0.0
 13
66.63856697312272
 23
20.67127459811723
 33
0.0
  0
SOLID
  5
13EA
330
1225
100
AcDbEntity
  8
0
 62
     1
100
AcDbTrace
 10
66.38008395723736
 20
21.52190828901419
 30
0.0
 11
66.33020763412607
 21
21.48855634165129
 31
0.0
 12
66.45520163777042
 22
21.35560334599886
 32
0.0
 13
66.45520163777042
 23
21.35560334599886
 33
0.0
  0
MTEXT
  5
13EB
330
1225
100
AcDbEntity
  8
0
 62
     4
100
AcDbMText
 10
66.60298206954556
 20
20.9813404051182
 30
0.0
 40
0.125
 41
0.0
 71
     5
 72
     1
  1
\A1;30° BEVEL\PPER SIDE
 73
     1
 44
1.0
  0
POINT
  5
13EC
330
1225
100
AcDbEntity
  8
DEFPOINTS
 62
     0
100
AcDbPoint
 10
66.55602682651153
 20
21.13938303098194
 30
0.0
  0
POINT
  5
13ED
330
1225
100
AcDbEntity
  8
DEFPOINTS
 62
     0
100
AcDbPoint
 10
64.11424015173122
 20
20.67127459811723
 30
0.0
  0
POINT
  5
13EE
330
1225
100
AcDbEntity
  8
DEFPOINTS
 62
     0
100
AcDbPoint
 10
64.88342314225318
 20
20.44813660850555
 30
0.0
  0
POINT
  5
13EF
330
1225
100
AcDbEntity
  8
DEFPOINTS
 62
     0
100
AcDbPoint
 10
65.26784546474934
 20
20.6700829398812
 30
0.0
  0
POINT
  5
13F0
330
1225
100
AcDbEntity
  8
DEFPOINTS
 62
     0
100
AcDbPoint
 10
65.70027637572429
 20
20.67127459811723
 30
0.0
  0
ENDBLK
  5
1233
330
1225
100
AcDbEntity
  8
0
100
AcDbBlockEnd
  0
BLOCK
  5
1289
330
1287
100
AcDbEntity
  8
0
100
AcDbBlockBegin
  2
A$C3A09227A
 70
     0
 10
0.0
 20
0.0
 30
0.0
  3
A$C3A09227A
  1

  0
MTEXT
  5
1288
330
1287
100
AcDbEntity
  8
0
100
AcDbMText
 10
0.0675306783118543
 20
1.448986405666055
 30
0.0
 40
0.125
 41
4.8822
 71
     1
 72
     5
  1
{\C4;NOTES:\P  1) PC BOARD BOSSES WILL ACCEPT A\P      #4 X 1/4" THREAD FORMING SCREW\P  2) MATERIAL: ABS - UL94-5VA\P  3) FINISH: BLACK TEXTURE\P  4) DIMENSIONS ARE TO THEORETICAL\P       SHARP CORNERS.}
 73
     1
 44
1.0
1001
ACAD
1000
MTEXTBEGIN
1070
    73
1070
     1
1070
    44
1040
1.0
1070
    74
1070
     0
1000
MTEXTEND
  0
ENDBLK
  5
128A
330
1287
100
AcDbEntity
  8
0
100
AcDbBlockEnd
  0
BLOCK
  5
1450
330
1444
100
AcDbEntity
  8
0
100
AcDbBlockBegin
  2
*D33
 70
     1
 10
0.0
 20
0.0
 30
0.0
  3
*D33
  1

  0
LINE
  5
145D
330
1444
100
AcDbEntity
  8
0
 62
     1
370
    -2
100
AcDbLine
 10
59.0818291284902
 20
20.35928818550061
 30
0.0
 11
58.65727631386533
 21
20.35928818550061
 31
0.0
  0
LINE
  5
145E
330
1444
100
AcDbEntity
  8
0
 62
     1
370
    -2
100
AcDbLine
 10
59.08532014147584
 20
20.15928818550063
 30
0.0
 11
58.65727631386533
 21
20.15928818550063
 31
0.0
  0
LINE
  5
145F
330
1444
100
AcDbEntity
  8
0
 62
     1
370
    -2
100
AcDbLine
 10
58.75727631386533
 20
20.53928818550061
 30
0.0
 11
58.75727631386533
 21
20.71928818550061
 31
0.0
  0
LINE
  5
1460
330
1444
100
AcDbEntity
  8
0
 62
     1
370
    -2
100
AcDbLine
 10
58.75727631386533
 20
19.97928818550064
 30
0.0
 11
58.75727631386533
 21
19.7490399234326
 31
0.0
  0
LINE
  5
1461
330
1444
100
AcDbEntity
  8
0
 62
     1
370
    -2
100
AcDbLine
 10
58.75727631386533
 20
19.7490399234326
 30
0.0
 11
58.57727631386533
 21
19.7490399234326
 31
0.0
  0
SOLID
  5
1462
330
1444
100
AcDbEntity
  8
0
 62
     1
100
AcDbTrace
 10
58.72727631386533
 20
20.53928818550061
 30
0.0
 11
58.78727631386533
 21
20.53928818550061
 31
0.0
 12
58.75727631386533
 22
20.35928818550061
 32
0.0
 13
58.75727631386533
 23
20.35928818550061
 33
0.0
  0
SOLID
  5
1463
330
1444
100
AcDbEntity
  8
0
 62
     1
100
AcDbTrace
 10
58.72727631386533
 20
19.97928818550064
 30
0.0
 11
58.78727631386533
 21
19.97928818550064
 31
0.0
 12
58.75727631386533
 22
20.15928818550063
 32
0.0
 13
58.75727631386533
 23
20.15928818550063
 33
0.0
  0
MTEXT
  5
1464
330
1444
100
AcDbEntity
  8
0
 62
     4
100
AcDbMText
 10
57.30536123883122
 20
19.74903992343261
 30
0.0
 40
0.125
 41
0.0
 71
     5
 72
     1
  1
\A1;0.200 MTG BOSS HEIGHT (4)
 73
     1
 44
1.0
  0
POINT
  5
1465
330
1444
100
AcDbEntity
  8
DEFPOINTS
 62
     0
100
AcDbPoint
 10
59.1448291284902
 20
20.35928818550061
 30
0.0
  0
POINT
  5
1466
330
1444
100
AcDbEntity
  8
DEFPOINTS
 62
     0
100
AcDbPoint
 10
59.14832014147584
 20
20.15928818550063
 30
0.0
  0
POINT
  5
1467
330
1444
100
AcDbEntity
  8
DEFPOINTS
 62
     0
100
AcDbPoint
 10
58.75727631386533
 20
20.15928818550063
 30
0.0
  0
ENDBLK
  5
1451
330
1444
100
AcDbEntity
  8
0
100
AcDbBlockEnd
  0
ENDSEC
  0
SECTION
  2
ENTITIES
  0
LINE
  5
A1
330
2
100
AcDbEntity
  8
AGCASE
  6
HIDDEN2
 62
     4
100
AcDbLine
 10
62.80147705896506
 20
22.45883257294586
 30
0.0
 11
62.80147705896506
 21
24.39577398232536
 31
0.0
  0
LINE
  5
A4
330
2
100
AcDbEntity
  8
AGCASE
100
AcDbLine
 10
62.84417815130205
 20
22.45883257294586
 30
0.0
 11
62.84417815130205
 21
24.39577398232533
 31
0.0
  0
LINE
  5
A5
330
2
100
AcDbEntity
  8
AGCASE
  6
HIDDEN2
 62
     4
100
AcDbLine
 10
62.71110963099605
 20
22.56757140110635
 30
0.0
 11
62.71110963099605
 21
24.34910069535236
 31
0.0
  0
LINE
  5
A6
330
2
100
AcDbEntity
  8
AGCASE
100
AcDbLine
 10
62.70117914440604
 20
22.45883257294586
 30
0.0
 11
62.70117914440606
 21
24.39577398232534
 31
0.0
  0
LINE
  5
A7
330
2
100
AcDbEntity
  8
AGCASE
100
AcDbLine
 10
63.67039463559002
 20
26.27064985051735
 30
0.0
 11
63.67039463559002
 21
22.27064985206536
 31
0.0
  0
LINE
  5
A8
330
2
100
AcDbEntity
  8
AGCASE
  6
HIDDEN2
 62
     4
100
AcDbLine
 10
63.63961012716103
 20
26.22199046622636
 30
0.0
 11
63.63961012716101
 21
22.32129533367436
 31
0.0
  0
LINE
  5
A9
330
2
100
AcDbEntity
  8
AGCASE
100
AcDbLine
 10
63.35406994741783
 20
26.26236659704248
 30
0.0
 11
63.35406994741783
 21
22.27064985206536
 31
0.0
  0
LINE
  5
AA
330
2
100
AcDbEntity
  8
AGCASE
  6
HIDDEN2
 62
     4
100
AcDbLine
 10
63.17585640340801
 20
22.45883257294586
 30
0.0
 11
63.17585640340801
 21
25.97646658762683
 31
0.0
  0
LINE
  5
AB
330
2
100
AcDbEntity
  8
AGCASE
100
AcDbLine
 10
63.07555848884902
 20
22.45883257294586
 30
0.0
 11
63.07555848884902
 21
25.97646658762683
 31
0.0
  0
LINE
  5
AC
330
2
100
AcDbEntity
  8
AGCASE
100
AcDbLine
 10
62.93255948195302
 20
22.45883257294586
 30
0.0
 11
62.93255948195302
 21
25.56505048175127
 31
0.0
  0
LWPOLYLINE
  5
AD
330
2
100
AcDbEntity
  8
AGCASE
 62
     4
100
AcDbPolyline
 90
        2
 70
     0
 43
0.0
 10
59.51706492729286
 20
22.45883257294586
 10
59.51706492729284
 20
24.39577398232536
 42
0.1016781047424312
  0
LWPOLYLINE
  5
AE
330
2
100
AcDbEntity
  8
AGCASE
 62
     4
100
AcDbPolyline
 90
        2
 70
     0
 43
0.0
 10
59.81577345771129
 20
22.45883257294586
 10
59.81577345771129
 20
24.39577398232537
 42
0.1016781047424649
  0
LWPOLYLINE
  5
AF
330
2
100
AcDbEntity
  8
AGCASE
 62
     4
100
AcDbPolyline
 90
        2
 70
     0
 43
0.0
 10
59.76474647266861
 20
22.45883257294586
 10
59.76474647266861
 20
24.39577398232537
 42
0.1016781047424313
  0
LWPOLYLINE
  5
B0
330
2
100
AcDbEntity
  8
AGCASE
 62
     4
100
AcDbPolyline
 90
        2
 70
     0
 43
0.0
 10
56.01557535565883
 20
24.39577398232534
 10
56.01557535565883
 20
22.45883257294587
  0
LWPOLYLINE
  5
B1
330
2
100
AcDbEntity
  8
AGCASE
 62
     4
100
AcDbPolyline
 90
        2
 70
     0
 43
0.0
 10
55.71686682524039
 20
24.39577398232537
 10
55.71686682524039
 20
22.45883257294587
  0
LWPOLYLINE
  5
B2
330
2
100
AcDbEntity
  8
AGCASE
 62
     4
100
AcDbPolyline
 90
        2
 70
     0
 43
0.0
 10
55.76789381028308
 20
24.39577398232537
 10
55.76789381028308
 20
22.45883257294587
  0
LWPOLYLINE
  5
B3
330
2
100
AcDbEntity
  8
AGCASE
100
AcDbPolyline
 90
        8
 70
     1
 43
0.0
 10
59.26582361656585
 20
22.59835590953535
 10
56.26681666638584
 20
22.59835590953535
 42
-0.4142135623730966
 10
56.15658826523684
 20
22.70858431068435
 10
56.15658826523684
 20
24.20808778577435
 42
-0.4142135623731014
 10
56.26681666638584
 20
24.31831618692335
 10
59.26582361656585
 20
24.31831618692336
 42
-0.4142135623731014
 10
59.37605201771485
 20
24.20808778577435
 10
59.37605201771485
 20
22.70858431068436
 42
-0.4142135623730966
  0
LWPOLYLINE
  5
B4
330
2
100
AcDbEntity
  8
AGCASE
100
AcDbPolyline
 90
        8
 70
     1
 43
0.0
 10
59.26582361656585
 20
22.56757140110635
 10
56.26681666638584
 20
22.56757140110635
 42
-0.4142135623730943
 10
56.12580375680785
 20
22.70858431068435
 10
56.12580375680785
 20
24.20808778577435
 42
-0.4142135623730951
 10
56.26681666638584
 20
24.34910069535235
 10
59.26582361656585
 20
24.34910069535236
 42
-0.4142135623730956
 10
59.40683652614384
 20
24.20808778577435
 10
59.40683652614384
 20
22.70858431068436
 42
-0.4142135623730945
  0
LWPOLYLINE
  5
B5
330
2
100
AcDbEntity
  8
AGCASE
  6
HIDDEN2
 62
     4
100
AcDbPolyline
 90
       12
 70
     0
 43
0.0
 10
60.46741249395584
 20
22.42407586988087
 10
60.46741249395584
 20
24.39577398232534
 42
0.05436010033937
 10
60.38611924201194
 20
25.14129347374614
 42
0.0681918494595873
 10
60.18052595422406
 20
25.69862941841411
 42
0.1054973669492259
 10
59.83035743698067
 20
26.11454176360701
 42
0.1667167565526472
 10
59.51706492729284
 20
26.22199046622634
 10
56.01557535565884
 20
26.22199046622634
 42
0.1667167565526482
 10
55.70228284597102
 20
26.11454176360701
 42
0.1054973669492297
 10
55.35211432872761
 20
25.69862941841409
 42
0.0681918494595835
 10
55.14652104093975
 20
25.14129347374614
 42
0.0543601003393706
 10
55.06522778899585
 20
24.39577398232534
 10
55.06522778899585
 20
22.42407586988087
  0
LWPOLYLINE
  5
B6
330
2
100
AcDbEntity
  8
AGCASE
100
AcDbPolyline
 90
       12
 70
     0
 43
0.0
 10
60.51607187824684
 20
22.45883257294586
 10
60.51607187824684
 20
24.39577398232537
 42
0.0543601003393741
 10
60.4336350788725
 20
25.15178065291967
 42
0.068191849459577
 10
60.2234695167649
 20
25.72151142260694
 42
0.1054973669492315
 10
59.86022167085636
 20
26.15295872879945
 42
0.1667167565526422
 10
59.51706492729284
 20
26.27064985051735
 10
56.01557535565884
 20
26.27064985051735
 42
0.1667167565526422
 10
55.67241861209532
 20
26.15295872879945
 42
0.1054973669492315
 10
55.30917076618678
 20
25.72151142260693
 42
0.068191849459577
 10
55.09900520407917
 20
25.15178065291967
 42
0.0543601003393741
 10
55.01656840470484
 20
24.39577398232536
 10
55.01656840470484
 20
22.45883257294587
  0
LWPOLYLINE
  5
B7
330
2
100
AcDbEntity
  8
AGCASE
  6
HIDDEN2
 62
     4
100
AcDbPolyline
 90
       12
 70
     0
 43
0.0
 10
60.41493346159262
 20
22.45883257294586
 10
60.41493346159262
 20
24.39577398232533
 42
0.0543601003393767
 10
60.33487352288278
 20
25.12998307548979
 42
0.0681918494595773
 10
60.13421142227491
 20
25.67395123030983
 42
0.1054973669492272
 10
59.79814893046334
 20
26.07310915633081
 42
0.1667167565526489
 10
59.51706492729284
 20
26.16951143386312
 10
56.01557535565884
 20
26.16951143386312
 42
0.1667167565526481
 10
55.73449135248834
 20
26.07310915633081
 42
0.1054973669492285
 10
55.39842886067678
 20
25.67395123030983
 42
0.0681918494595846
 10
55.19776676006888
 20
25.12998307548973
 42
0.0543601003393706
 10
55.11770682135907
 20
24.39577398232535
 10
55.11770682135907
 20
22.45883257294587
  0
LWPOLYLINE
  5
B8
330
2
100
AcDbEntity
  8
AGCASE
100
AcDbPolyline
 90
       12
 70
     0
 43
0.0
 10
60.50778862477197
 20
22.45883257294586
 10
60.50778862477195
 20
24.39577398232533
 42
0.0543601003393759
 10
60.42554649068914
 20
25.14999542763176
 42
0.0681918494595784
 10
60.21615926368992
 20
25.71761623479262
 42
0.1054973669492269
 10
59.85513790289199
 20
26.1464190352735
 42
0.1667167565526487
 10
59.51706492729284
 20
26.26236659704247
 10
56.01557535565884
 20
26.26236659704247
 42
0.1667167565526478
 10
55.6775023800597
 20
26.1464190352735
 42
0.1054973669492289
 10
55.31648101926175
 20
25.71761623479261
 42
0.0681918494595838
 10
55.10709379226254
 20
25.1499954276317
 42
0.0543601003393701
 10
55.02485165817972
 20
24.39577398232535
 10
55.02485165817972
 20
22.45883257294587
  0
LWPOLYLINE
  5
B9
330
2
100
AcDbEntity
  8
AGCASE
 62
     4
100
AcDbPolyline
 90
        4
 70
     0
 43
0.0
 10
56.1453385765347
 20
25.97646658762683
 42
0.0995263070583832
 10
55.64486158579866
 20
25.25072740595438
 42
0.1016781047425731
 10
55.46918527986463
 20
24.39577398232534
 10
55.46918527986463
 20
22.45883257294587
  0
LWPOLYLINE
  5
BA
330
2
100
AcDbEntity
  8
AGCASE
 62
     4
100
AcDbPolyline
 90
        7
 70
     0
 43
0.0
 10
56.1453385765347
 20
25.97646658762683
 10
56.01557535565884
 20
25.97646658762683
 42
0.1667167565526447
 10
55.85297078909654
 20
25.92069873752882
 42
0.1054973669492293
 10
55.56879750689629
 20
25.58317217411446
 42
0.0681918494595847
 10
55.38627484651911
 20
25.08837761910157
 42
0.0543601003393702
 10
55.31075166759536
 20
24.39577398232534
 10
55.31075166759536
 20
22.45883257294587
  0
LWPOLYLINE
  5
BB
330
2
100
AcDbEntity
  8
AGCASE
 62
     4
100
AcDbPolyline
 90
        4
 70
     0
 43
0.0
 10
60.06345500308706
 20
22.45883257294587
 10
60.06345500308706
 20
24.39577398232534
 42
0.1016781047425057
 10
59.88777869715326
 20
25.25072740595383
 42
0.0995263070584519
 10
59.38730170641694
 20
25.97646658762684
 42
0.0971499687387583
  0
LWPOLYLINE
  5
BC
330
2
100
AcDbEntity
  8
AGCASE
 62
     4
100
AcDbPolyline
 90
        7
 70
     0
 43
0.0
 10
60.22188861535632
 20
22.45883257294586
 10
60.22188861535632
 20
24.39577398232534
 42
0.0543601003393702
 10
60.14636543643258
 20
25.08837761910157
 42
0.0681918494595866
 10
59.96384277605538
 20
25.58317217411448
 42
0.1054973669492252
 10
59.67966949385515
 20
25.92069873752882
 42
0.1667167565526498
 10
59.51706492729284
 20
25.97646658762684
 10
59.38730170641697
 20
25.97646658762684
 42
0.1667167565526447
  0
LINE
  5
BF
330
2
100
AcDbEntity
  8
AGBASE
  6
HIDDEN2
 62
     4
100
AcDbLine
 10
63.96595074325706
 20
22.45883257294586
 30
0.0
 11
63.96595074325706
 21
25.90123913646096
 31
0.0
  0
LINE
  5
C1
330
2
100
AcDbEntity
  8
AGBASE
100
AcDbLine
 10
64.07617914440606
 20
22.45883257294586
 30
0.0
 11
64.07617914440606
 21
25.89614217164634
 31
0.0
  0
LINE
  5
C2
330
2
100
AcDbEntity
  8
AGBASE
  6
HIDDEN2
 62
     4
100
AcDbLine
 10
64.06624865781606
 20
22.64353962351986
 30
0.0
 11
64.06624865781606
 21
25.71057040684136
 31
0.0
  0
LWPOLYLINE
  5
C3
330
2
100
AcDbEntity
  8
AGBASE
100
AcDbPolyline
 90
       12
 70
     0
 43
0.0
 10
60.51607187824684
 20
22.45883257294586
 10
60.51607187824684
 20
24.39577398232537
 42
0.0543601003393741
 10
60.43363507887251
 20
25.15178065291967
 42
0.068191849459577
 10
60.2234695167649
 20
25.72151142260694
 42
0.1054973669492315
 10
59.86022167085636
 20
26.15295872879945
 42
0.1667167565526422
 10
59.51706492729282
 20
26.27064985051735
 10
56.01557535565884
 20
26.27064985051735
 42
0.1667167565526422
 10
55.67241861209532
 20
26.15295872879945
 42
0.1054973669492315
 10
55.30917076618678
 20
25.72151142260693
 42
0.068191849459577
 10
55.09900520407917
 20
25.15178065291967
 42
0.0543601003393741
 10
55.01656840470484
 20
24.39577398232536
 10
55.01656840470484
 20
22.45883257294587
  0
LWPOLYLINE
  5
C5
330
2
100
AcDbEntity
  8
AGBASE
  6
HIDDEN2
 62
     4
100
AcDbPolyline
 90
       12
 70
     0
 43
0.0
 10
60.46542639663784
 20
22.42549638892702
 10
60.46542639663783
 20
24.39577398232538
 42
0.0543601003393635
 10
60.38417982009927
 20
25.14086542561654
 42
0.0681918494595965
 10
60.17877315575301
 20
25.69769545905931
 42
0.1054973669492238
 10
59.82913848865921
 20
26.11297372421141
 42
0.1667167565526471
 10
59.51706492729282
 20
26.22000436890835
 10
56.01557535565884
 20
26.22000436890835
 42
0.1667167565526505
 10
55.70350179429246
 20
26.1129737242114
 42
0.1054973669492204
 10
55.35386712719867
 20
25.69769545905932
 42
0.0681918494595938
 10
55.14846046285241
 20
25.14086542561656
 42
0.0543601003393662
 10
55.06721388631383
 20
24.39577398232536
 10
55.06721388631384
 20
22.42549638892702
  0
LWPOLYLINE
  5
C6
330
2
100
AcDbEntity
  8
AGBASE
  6
HIDDEN2
 62
     4
100
AcDbPolyline
 90
       12
 70
     0
 43
0.0
 10
60.41735182376243
 20
22.45883257294586
 10
60.41735182376243
 20
24.39577398232535
 42
0.0543601003393709
 10
60.33723505096222
 20
25.1305042863055
 42
0.0681918494595861
 10
60.13634570918786
 20
25.6750884615781
 42
0.1054973669492235
 10
59.79963317722248
 20
26.07501847221415
 42
0.1667167565526503
 10
59.51706492729283
 20
26.17192979603293
 10
56.01557535565884
 20
26.17192979603293
 42
0.1667167565526471
 10
55.73300710572921
 20
26.07501847221415
 42
0.1054973669492297
 10
55.3962945737638
 20
25.67508846157807
 42
0.068191849459584
 10
55.19540523198945
 20
25.1305042863055
 42
0.0543601003393701
 10
55.11528845918925
 20
24.39577398232535
 10
55.11528845918926
 20
22.45883257294587
  0
LINE
  5
C7
330
2
100
AcDbEntity
  8
AGBASE
100
AcDbLine
 10
63.70179979996302
 20
26.27064985051735
 30
0.0
 11
63.70179979996301
 21
22.27064985206536
 31
0.0
  0
LINE
  5
C8
330
2
100
AcDbEntity
  8
AGBASE
  6
HIDDEN2
 62
     4
100
AcDbLine
 10
63.64023078310502
 20
26.22000436890835
 30
0.0
 11
63.640230783105
 21
22.32129533367437
 31
0.0
  0
LINE
  5
C9
330
2
100
AcDbEntity
  8
AGBASE
  6
CENTER
 62
     1
100
AcDbLine
 10
57.76632014147584
 20
22.17064985206536
 30
0.0
 11
57.76632014147583
 21
26.37064985051734
 31
0.0
  0
DIMENSION
  5
CA
330
2
100
AcDbEntity
  8
0
100
AcDbDimension
  2
*D9
 10
61.6557037180161
 20
19.08458610005959
 30
0.0
 11
61.6557037180161
 21
19.77208610005962
 31
0.0
 70
    32
 71
     5
 42
1.375000000000039
  3
STANDARD
100
AcDbAlignedDimension
 13
59.51706492729284
 23
20.45958610005964
 33
0.0
 14
60.14156419937583
 24
19.08458610005959
 34
0.0
 50
90.0
100
AcDbRotatedDimension
1001
ACAD
1000
DSTYLE
1002
{
1070
   140
1040
0.125
1070
   272
1070
     3
1070
    42
1040
0.063
1070
    44
1040
0.1
1070
   271
1070
     3
1070
   178
1070
     4
1070
   177
1070
     1
1070
   176
1070
     1
1070
   141
1040
0.09375
1002
}
  0
LWPOLYLINE
  5
D9
330
2
100
AcDbEntity
  8
AGCASE
  6
HIDDEN2
 62
     4
100
AcDbPolyline
 90
        4
 70
     0
 43
0.0
 10
59.40683652614385
 20
20.45958610005965
 10
59.40683652614385
 20
20.44965561346966
 10
56.12580375680784
 20
20.44965561346964
 10
56.12580375680784
 20
20.45958610005964
  0
LINE
  5
DA
330
2
100
AcDbEntity
  8
AGCASE
  6
HIDDEN2
 62
     4
100
AcDbLine
 10
59.51706492729285
 20
20.3031809362671
 30
0.0
 11
56.01557535565884
 21
20.30318093626714
 31
0.0
  0
LINE
  5
DB
330
2
100
AcDbEntity
  8
AGCASE
  6
HIDDEN2
 62
     4
100
AcDbLine
 10
59.51706492729285
 20
20.35928818550061
 30
0.0
 11
56.01557535565884
 21
20.35928818550064
 31
0.0
  0
LINE
  5
DC
330
2
100
AcDbEntity
  8
AGCASE
  6
Continuous
100
AcDbLine
 10
59.51706492729285
 20
20.2714033791791
 30
0.0
 11
56.01557535565884
 21
20.27140337917914
 31
0.0
  0
LINE
  5
DD
330
2
100
AcDbEntity
  8
AGCASE
  6
Continuous
100
AcDbLine
 10
59.51706492729285
 20
20.4595861000596
 30
0.0
 11
56.01557535565884
 21
20.45958610005964
 31
0.0
  0
LINE
  5
DF
330
2
100
AcDbEntity
  8
AGBASE
  6
HIDDEN2
 62
     4
100
AcDbLine
 10
60.14156419937584
 20
19.24099126385209
 30
0.0
 11
55.39107608357586
 21
19.24099126385215
 31
0.0
  0
LINE
  5
E0
330
2
100
AcDbEntity
  8
AGBASE
  6
HIDDEN2
 62
     4
100
AcDbLine
 10
60.14666116419043
 20
19.19481450120859
 30
0.0
 11
55.38597911876124
 21
19.19481450120864
 31
0.0
  0
LINE
  5
E1
330
2
100
AcDbEntity
  8
AGBASE
100
AcDbLine
 10
60.14156419937584
 20
19.2727688209401
 30
0.0
 11
55.39107608357586
 21
19.27276882094015
 31
0.0
  0
LINE
  5
E4
330
2
100
AcDbEntity
  8
AGBASE
  6
HIDDEN2
 62
     4
100
AcDbLine
 10
58.78121587097384
 20
19.09451658664961
 30
0.0
 11
56.75142441197784
 21
19.09451658664963
 31
0.0
  0
LINE
  5
E5
330
2
100
AcDbEntity
  8
AGBASE
  6
Continuous
100
AcDbLine
 10
60.14156419937583
 20
19.08458610005959
 30
0.0
 11
55.39107608357586
 21
19.08458610005965
 31
0.0
  0
LINE
  5
E6
330
2
100
AcDbEntity
  8
AGCASE
  6
CENTER
 62
     1
 48
0.5
100
AcDbLine
 10
57.76632014147583
 20
20.60459399353687
 30
0.0
 11
57.76632014147583
 21
19.02959399353687
 31
0.0
  0
LINE
  5
E7
330
2
100
AcDbEntity
  8
AGBASE
  6
HIDDEN2
 62
     4
100
AcDbLine
 10
55.79735291274683
 20
19.44506276327661
 30
0.0
 11
55.79298481308427
 21
19.19481450120861
 31
0.0
  0
LINE
  5
E8
330
2
100
AcDbEntity
  8
AGBASE
  6
HIDDEN2
 62
     4
100
AcDbLine
 10
55.84601229703784
 20
19.44506276327661
 30
0.0
 11
55.84819618053576
 21
19.19481450120859
 31
0.0
  0
LINE
  5
E9
330
2
100
AcDbEntity
  8
AGBASE
  6
HIDDEN2
 62
     4
100
AcDbLine
 10
55.76880034395941
 20
19.4592427419236
 30
0.0
 11
55.77205525835759
 21
19.2727688209401
 31
0.0
  0
LINE
  5
EA
330
2
100
AcDbEntity
  8
AGBASE
  6
HIDDEN2
 62
     4
100
AcDbLine
 10
55.98503910929784
 20
19.44506276327661
 30
0.0
 11
55.9894072089604
 21
19.19481450120861
 31
0.0
  0
LINE
  5
EB
330
2
100
AcDbEntity
  8
AGBASE
  6
HIDDEN2
 62
     4
100
AcDbLine
 10
55.93637972500683
 20
19.44506276327661
 30
0.0
 11
55.9341958415089
 21
19.19481450120859
 31
0.0
  0
LINE
  5
EC
330
2
100
AcDbEntity
  8
AGBASE
  6
HIDDEN2
 62
     4
100
AcDbLine
 10
55.13871580969977
 20
19.4592427419236
 30
0.0
 11
55.13701414685098
 21
19.36175454260741
 31
0.0
  0
ARC
  5
ED
330
2
100
AcDbEntity
  8
AGBASE
  6
HIDDEN2
 62
     4
100
AcDbCircle
 10
55.39107608357586
 20
19.45896544450265
 30
0.0
 40
0.2179741806505
100
AcDbArc
 50
181.4999999999997
 51
269.9999999999993
  0
ARC
  5
EE
330
2
100
AcDbEntity
  8
AGBASE
100
AcDbCircle
 10
55.39107608357586
 20
19.45896544450265
 30
0.0
 40
0.1861966235625
100
AcDbArc
 50
181.4999999999997
 51
269.9999999999993
  0
LINE
  5
EF
330
2
100
AcDbEntity
  8
AGBASE
  6
HIDDEN2
 62
     4
100
AcDbLine
 10
55.69879283343784
 20
19.45896544450265
 30
0.0
 11
55.71908354690155
 21
19.22704152835209
 31
0.0
  0
LINE
  5
F0
330
2
100
AcDbEntity
  8
AGBASE
  6
HIDDEN2
 62
     4
100
AcDbLine
 10
55.51359167847228
 20
19.4592427419236
 30
0.0
 11
55.51013742619266
 21
19.26134876136159
 31
0.0
  0
LINE
  5
F1
330
2
100
AcDbEntity
  8
AGBASE
  6
HIDDEN2
 62
     4
100
AcDbLine
 10
55.58359918899384
 20
19.45896544450265
 30
0.0
 11
55.56330847553013
 21
19.22704152835208
 31
0.0
  0
LINE
  5
F2
330
2
100
AcDbEntity
  8
AGBASE
  6
HIDDEN2
 62
     4
100
AcDbLine
 10
55.32391696466533
 20
19.45896544450265
 30
0.0
 11
55.34420767812905
 21
19.22704152835209
 31
0.0
  0
LINE
  5
F3
330
2
100
AcDbEntity
  8
AGBASE
  6
HIDDEN2
 62
     4
100
AcDbLine
 10
55.3939244751869
 20
19.4592427419236
 30
0.0
 11
55.39717938958509
 21
19.2727688209401
 31
0.0
  0
LINE
  5
F4
330
2
100
AcDbEntity
  8
AGBASE
  6
HIDDEN2
 62
     4
100
AcDbLine
 10
55.20872332022134
 20
19.45896544450265
 30
0.0
 11
55.18843260675764
 21
19.22704152835208
 31
0.0
  0
ARC
  5
F5
330
2
100
AcDbEntity
  8
AGBASE
  6
HIDDEN2
 62
     4
100
AcDbCircle
 10
55.38597911876124
 20
19.46393068779759
 30
0.0
 40
0.2691161865890001
100
AcDbArc
 50
181.500000000017
 51
270.0000000000006
  0
ARC
  5
F6
330
2
100
AcDbEntity
  8
AGBASE
100
AcDbCircle
 10
55.39107608357586
 20
19.45896544450265
 30
0.0
 40
0.374379344443
100
AcDbArc
 50
181.4999999999997
 51
269.9999999999993
  0
LINE
  5
F7
330
2
100
AcDbEntity
  8
AGBASE
  6
HIDDEN2
 62
     4
100
AcDbLine
 10
55.81646909952935
 20
19.26134876136159
 30
0.0
 11
55.49926378734262
 21
19.26134876136159
 31
0.0
  0
LWPOLYLINE
  5
F8
330
2
100
AcDbEntity
  8
AGBASE
  6
HIDDEN2
 62
     4
100
AcDbPolyline
 90
        5
 70
     0
 43
0.0
 10
55.76035976177069
 20
19.1948145012086
 42
-0.1247539361648445
 10
55.74163217296728
 20
19.19956105525027
 42
-0.10577528096305
 10
55.7243853735801
 20
19.21430193482618
 42
-0.08673631385841
 10
55.71353259342582
 20
19.23515977451234
 42
-0.0768338323323336
 10
55.70948429409349
 20
19.26134876136159
 42
-0.076833832332309
  0
LINE
  5
F9
330
2
100
AcDbEntity
  8
AGBASE
  6
HIDDEN2
 62
     4
100
AcDbLine
 10
55.52482312148928
 20
19.18276919292278
 30
0.0
 11
55.75756890094241
 21
19.18276919292278
 31
0.0
  0
LINE
  5
FA
330
2
100
AcDbEntity
  8
AGBASE
  6
HIDDEN2
 62
     4
100
AcDbLine
 10
55.57664784838085
 20
19.0945165866496
 30
0.0
 11
56.08111656715283
 21
19.0945165866496
 31
0.0
  0
LWPOLYLINE
  5
FB
330
2
100
AcDbEntity
  8
AGBASE
  6
HIDDEN2
 62
     4
100
AcDbPolyline
 90
        5
 70
     0
 43
0.0
 10
55.7575689009424
 20
19.10580897651523
 42
-0.3452319121624388
 10
55.75355242600036
 20
19.1006852162869
 42
-0.0349165333921306
 10
55.69680983633667
 20
19.09086851124457
 42
-0.0148359770554862
 10
55.63595884007411
 20
19.08648980602862
 42
-0.0105414485623469
 10
55.55012447852842
 20
19.0846799679013
 42
-0.0105414485623513
  0
LWPOLYLINE
  5
FC
330
2
100
AcDbEntity
  8
AGBASE
  6
HIDDEN2
 62
     4
100
AcDbPolyline
 90
        5
 70
     0
 43
0.0
 10
55.55012447852842
 20
19.17216239954002
 42
-0.0329428273554594
 10
55.63517544849087
 20
19.16655267285727
 42
-0.044492665435812
 10
55.69680983633667
 20
19.152727931891
 42
-0.0872175599746959
 10
55.74763133074418
 20
19.12603855223385
 42
-0.2323586851989778
 10
55.7575689009424
 20
19.10580897651523
 42
-0.2323586851989579
  0
LINE
  5
FD
330
2
100
AcDbEntity
  8
AGBASE
  6
HIDDEN2
 62
     4
100
AcDbLine
 10
55.71908354690155
 20
19.22704152835209
 30
0.0
 11
55.75756890094241
 21
19.18276919292278
 31
0.0
  0
LINE
  5
FE
330
2
100
AcDbEntity
  8
AGBASE
  6
HIDDEN2
 62
     4
100
AcDbLine
 10
55.71908354690155
 20
19.22704152835209
 30
0.0
 11
55.56330847553013
 21
19.2270415283521
 31
0.0
  0
LINE
  5
FF
330
2
100
AcDbEntity
  8
AGBASE
  6
HIDDEN2
 62
     4
100
AcDbLine
 10
55.54118546583966
 20
19.19481450120859
 30
0.0
 11
55.54176727281324
 21
19.26134876136159
 31
0.0
  0
LWPOLYLINE
  5
100
330
2
100
AcDbEntity
  8
AGBASE
  6
HIDDEN2
 62
     4
100
AcDbPolyline
 90
        5
 70
     0
 43
0.0
 10
55.54118546583966
 20
19.19481450120859
 42
-0.1464234500014364
 10
55.52628226366048
 20
19.19927447891606
 42
-0.1071557459517239
 10
55.51154236269569
 20
19.21430193482618
 42
-0.0768884593965219
 10
55.50267445537069
 20
19.23477426080981
 42
-0.0639097113845223
 10
55.49926378734262
 20
19.26134876136159
 42
-0.0639097113845221
  0
LINE
  5
101
330
2
100
AcDbEntity
  8
AGBASE
  6
HIDDEN2
 62
     4
100
AcDbLine
 10
55.44275459058777
 20
19.19481450120859
 30
0.0
 11
55.44159323075685
 21
19.26134876136159
 31
0.0
  0
LINE
  5
102
330
2
100
AcDbEntity
  8
AGBASE
  6
HIDDEN2
 62
     4
100
AcDbLine
 10
55.39767591391459
 20
19.2727688209401
 30
0.0
 11
55.39787525179602
 21
19.26134876136159
 31
0.0
  0
LINE
  5
103
330
2
100
AcDbEntity
  8
AGBASE
  6
HIDDEN2
 62
     4
100
AcDbLine
 10
55.44159323075685
 20
19.26134876136159
 30
0.0
 11
55.20882357985353
 21
19.26134876136159
 31
0.0
  0
LINE
  5
104
330
2
100
AcDbEntity
  8
AGBASE
  6
HIDDEN2
 62
     4
100
AcDbLine
 10
55.34420767812905
 20
19.22704152835209
 30
0.0
 11
55.18843260675764
 21
19.2270415283521
 31
0.0
  0
LINE
  5
105
330
2
100
AcDbEntity
  8
AGBASE
  6
HIDDEN2
 62
     4
100
AcDbLine
 10
55.14994725271678
 20
19.18276919292278
 30
0.0
 11
55.1499472527168
 21
19.1725797247572
 31
0.0
  0
LINE
  5
106
330
2
100
AcDbEntity
  8
AGBASE
  6
HIDDEN2
 62
     4
100
AcDbLine
 10
55.14994725271678
 20
19.18276919292278
 30
0.0
 11
55.38269303216991
 21
19.18276919292278
 31
0.0
  0
LWPOLYLINE
  5
107
330
2
100
AcDbEntity
  8
AGBASE
  6
HIDDEN2
 62
     4
100
AcDbPolyline
 90
        5
 70
     0
 43
0.0
 10
55.55012447852842
 20
19.0846799679013
 42
-0.0834489101907217
 10
55.54024636246085
 20
19.08634016509185
 42
-0.0909375244439461
 10
55.53223371739291
 20
19.09086851124457
 42
-0.104015384849503
 10
55.52667173668429
 20
19.09792172987629
 42
-0.1156234577888491
 10
55.52482312148941
 20
19.10580897651523
 42
-0.115623457789001
  0
LINE
  5
108
330
2
100
AcDbEntity
  8
AGBASE
  6
HIDDEN2
 62
     4
100
AcDbLine
 10
55.57664784838085
 20
19.0945165866496
 30
0.0
 11
55.57664784838085
 21
19.08458610005959
 31
0.0
  0
LINE
  5
109
330
2
100
AcDbEntity
  8
AGBASE
  6
HIDDEN2
 62
     4
100
AcDbLine
 10
55.52482312148928
 20
19.18276919292278
 30
0.0
 11
55.52482312148941
 21
19.10580897651523
 31
0.0
  0
LWPOLYLINE
  5
10A
330
2
100
AcDbEntity
  8
AGBASE
  6
HIDDEN2
 62
     4
100
AcDbPolyline
 90
        5
 70
     0
 43
0.0
 10
55.52482312148941
 20
19.10580897651523
 42
-0.0391826667817772
 10
55.52694952476468
 20
19.13290180635948
 42
-0.0519572878511154
 10
55.53223371739291
 20
19.152727931891
 42
-0.095228929039175
 10
55.54207635832971
 20
19.1686321765126
 42
-0.2096774173634101
 10
55.55012447852842
 20
19.17216239954002
 42
-0.2096774173633679
  0
LINE
  5
10B
330
2
100
AcDbEntity
  8
AGBASE
  6
HIDDEN2
 62
     4
100
AcDbLine
 10
55.38269303216991
 20
19.18276919292278
 30
0.0
 11
55.3826930321699
 21
19.0846799679013
 31
0.0
  0
LINE
  5
10C
330
2
100
AcDbEntity
  8
AGBASE
  6
HIDDEN2
 62
     4
100
AcDbLine
 10
55.34420767812905
 20
19.22704152835209
 30
0.0
 11
55.38269303216991
 21
19.18276919292278
 31
0.0
  0
LINE
  5
10D
330
2
100
AcDbEntity
  8
AGBASE
  6
HIDDEN2
 62
     4
100
AcDbLine
 10
55.56330847553013
 20
19.2270415283521
 30
0.0
 11
55.52482312148928
 21
19.18276919292278
 31
0.0
  0
LINE
  5
10E
330
2
100
AcDbEntity
  8
AGBASE
  6
HIDDEN2
 62
     4
100
AcDbLine
 10
55.18843260675764
 20
19.2270415283521
 30
0.0
 11
55.14994725271678
 21
19.18276919292278
 31
0.0
  0
LINE
  5
10F
330
2
100
AcDbEntity
  8
AGBASE
  6
HIDDEN2
 62
     4
100
AcDbLine
 10
55.76035976177069
 20
19.1948145012086
 30
0.0
 11
55.75948197060331
 21
19.26134876136159
 31
0.0
  0
LINE
  5
110
330
2
100
AcDbEntity
  8
AGBASE
  6
HIDDEN2
 62
     4
100
AcDbLine
 10
55.81763045936027
 20
19.19481450120859
 30
0.0
 11
55.81646909952935
 21
19.26134876136159
 31
0.0
  0
LINE
  5
111
330
2
100
AcDbEntity
  8
AGBASE
  6
HIDDEN2
 62
     4
100
AcDbLine
 10
56.08111656715283
 20
19.0945165866496
 30
0.0
 11
56.08111656715283
 21
19.0845861000596
 31
0.0
  0
LINE
  5
112
330
2
100
AcDbEntity
  8
AGBASE
  6
HIDDEN2
 62
     4
100
AcDbLine
 10
55.75756890094241
 20
19.18276919292278
 30
0.0
 11
55.7575689009424
 21
19.10580897651523
 31
0.0
  0
LINE
  5
113
330
2
100
AcDbEntity
  8
AGBASE
  6
HIDDEN2
 62
     4
100
AcDbLine
 10
56.75142441197784
 20
19.09451658664963
 30
0.0
 11
56.75142441197784
 21
19.08458610005963
 31
0.0
  0
ARC
  5
114
330
2
100
AcDbEntity
  8
AGCASE
  6
Continuous
100
AcDbCircle
 10
55.46918527986462
 20
20.37120476940864
 30
0.0
 40
0.4741807346725001
100
AcDbArc
 50
269.9999999999992
 51
329.9999999999986
  0
ARC
  5
115
330
2
100
AcDbEntity
  8
AGCASE
  6
HIDDEN2
 62
     4
100
AcDbCircle
 10
55.46918527986462
 20
20.37120476940864
 30
0.0
 40
0.4424031775845
100
AcDbArc
 50
269.9999999999992
 51
329.9999999999986
  0
ARC
  5
116
330
2
100
AcDbEntity
  8
AGCASE
  6
HIDDEN2
 62
     4
100
AcDbCircle
 10
55.46918527986462
 20
20.37120476940864
 30
0.0
 40
0.386295928351
100
AcDbArc
 50
269.9999999999992
 51
329.9999999999986
  0
ARC
  5
117
330
2
100
AcDbEntity
  8
AGCASE
  6
Continuous
100
AcDbCircle
 10
55.46918527986462
 20
20.37120476940864
 30
0.0
 40
0.2859980137920001
100
AcDbArc
 50
269.9999999999992
 51
329.9999999999986
  0
ARC
  5
118
330
2
100
AcDbEntity
  8
AGCASE
  6
Continuous
100
AcDbCircle
 10
55.31075166759535
 20
19.79920874182464
 30
0.0
 40
0.2859980137920001
100
AcDbArc
 50
89.99999999999934
 51
178.4999999999995
  0
LINE
  5
119
330
2
100
AcDbEntity
  8
AGCASE
  6
HIDDEN2
 62
     4
100
AcDbLine
 10
55.46918527986462
 20
20.08520675561664
 30
0.0
 11
56.11129051711227
 21
20.08520675561664
 31
0.0
  0
LWPOLYLINE
  5
11A
330
2
100
AcDbEntity
  8
AGCASE
  6
HIDDEN2
 62
     4
100
AcDbPolyline
 90
        4
 70
     0
 43
0.0
 10
55.53966014766425
 20
19.90229042526557
 10
55.54735291294034
 20
19.46157219776465
 10
55.73503910949134
 20
19.46157219776465
 10
55.74417398457933
 20
19.98490884105764
  0
LINE
  5
11B
330
2
100
AcDbEntity
  8
AGCASE
  6
HIDDEN2
 62
     4
100
AcDbLine
 10
55.7355417876271
 20
19.49037060887564
 30
0.0
 11
55.54685023480456
 21
19.49037060887564
 31
0.0
  0
LINE
  5
11C
330
2
100
AcDbEntity
  8
AGCASE
  6
HIDDEN2
 62
     4
100
AcDbLine
 10
56.11129051711227
 20
19.98490884105763
 30
0.0
 11
55.31075166759535
 21
19.98490884105765
 31
0.0
  0
LINE
  5
11D
330
2
100
AcDbEntity
  8
AGBASE
  6
HIDDEN2
 62
     4
100
AcDbLine
 10
55.54536681562233
 20
19.45896544450265
 30
0.0
 11
55.73702520680933
 21
19.45896544450265
 31
0.0
  0
LINE
  5
11E
330
2
100
AcDbEntity
  8
AGBASE
  6
HIDDEN2
 62
     4
100
AcDbLine
 10
55.52947803707835
 20
19.47485422304666
 30
0.0
 11
55.75291398535334
 21
19.47485422304666
 31
0.0
  0
LINE
  5
11F
330
2
100
AcDbEntity
  8
AGCASE
  6
Continuous
100
AcDbLine
 10
55.46918527986462
 20
20.08520675561664
 30
0.0
 11
55.31075166759535
 21
20.08520675561665
 31
0.0
  0
LWPOLYLINE
  5
120
330
2
100
AcDbEntity
  8
AGCASE
  6
HIDDEN2
 62
     4
100
AcDbPolyline
 90
        4
 70
     0
 43
0.0
 10
55.68637972520034
 20
19.46157219776465
 10
55.67987957689294
 20
19.83396544488965
 10
55.60251244553874
 20
19.83396544488965
 10
55.59601229723134
 20
19.46157219776465
  0
LINE
  5
121
330
2
100
AcDbEntity
  8
AGCASE
  6
HIDDEN2
 62
     4
100
AcDbLine
 10
55.54685023480456
 20
19.49037060887564
 30
0.0
 11
55.36066591885461
 21
19.49037060887565
 31
0.0
  0
LINE
  5
122
330
2
100
AcDbEntity
  8
AGCASE
  6
HIDDEN2
 62
     4
100
AcDbLine
 10
55.36776408080626
 20
19.89702403473614
 30
0.0
 11
55.36929811580683
 21
19.98490884105765
 31
0.0
  0
LINE
  5
123
330
2
100
AcDbEntity
  8
AGCASE
  6
HIDDEN2
 62
     4
100
AcDbLine
 10
55.53966014766427
 20
19.90229042526552
 30
0.0
 11
55.53821803785234
 21
19.98490884105764
 31
0.0
  0
LWPOLYLINE
  5
124
330
2
100
AcDbEntity
  8
AGCASE
  6
HIDDEN2
 62
     4
100
AcDbPolyline
 90
        4
 70
     0
 43
0.0
 10
55.31150385642783
 20
19.46157219776465
 10
55.30500370812044
 20
19.83396544488965
 10
55.22763657676623
 20
19.83396544488965
 10
55.22113642845884
 20
19.46157219776465
  0
LINE
  5
125
330
2
100
AcDbEntity
  8
AGCASE
  6
HIDDEN2
 62
     4
100
AcDbLine
 10
55.17247704416783
 20
19.46157219776465
 30
0.0
 11
55.17197436603206
 21
19.49037060887565
 31
0.0
  0
LINE
  5
126
330
2
100
AcDbEntity
  8
AGCASE
  6
HIDDEN2
 62
     4
100
AcDbLine
 10
55.17383330373629
 20
19.52115511730464
 30
0.0
 11
55.18120322582889
 21
19.80260108716016
 31
0.0
  0
LINE
  5
127
330
2
100
AcDbEntity
  8
AGCASE
  6
Continuous
100
AcDbLine
 10
55.20481563320896
 20
19.49037060887565
 30
0.0
 11
55.21296989354174
 21
19.80176924769091
 31
0.0
  0
LINE
  5
128
330
2
100
AcDbEntity
  8
AGCASE
  6
HIDDEN2
 62
     4
100
AcDbLine
 10
55.17197436603206
 20
19.49037060887565
 30
0.0
 11
55.16458425772282
 21
19.91374963035928
 31
0.0
  0
LINE
  5
129
330
2
100
AcDbEntity
  8
AGCASE
  6
HIDDEN2
 62
     4
100
AcDbLine
 10
55.06522778899583
 20
19.49037060887565
 30
0.0
 11
55.06522778899583
 21
19.52115511730465
 31
0.0
  0
LINE
  5
12A
330
2
100
AcDbEntity
  8
AGCASE
  6
Continuous
100
AcDbLine
 10
55.01656840470484
 20
19.49037060887565
 30
0.0
 11
55.02485165817971
 21
19.80669529704784
 31
0.0
  0
LINE
  5
12B
330
2
100
AcDbEntity
  8
AGCASE
  6
HIDDEN2
 62
     4
100
AcDbLine
 10
55.11770682135907
 20
19.52115511730465
 30
0.0
 11
55.1251152031484
 21
19.80406980372304
 31
0.0
  0
LINE
  5
12C
330
2
100
AcDbEntity
  8
AGCASE
  6
HIDDEN2
 62
     4
100
AcDbLine
 10
55.06522778899583
 20
19.52115511730465
 30
0.0
 11
55.17383330373629
 21
19.52115511730465
 31
0.0
  0
LINE
  5
12D
330
2
100
AcDbEntity
  8
AGCASE
  6
HIDDEN2
 62
     4
100
AcDbLine
 10
55.17197436603206
 20
19.49037060887565
 30
0.0
 11
55.01656840470484
 21
19.49037060887565
 31
0.0
  0
ARC
  5
12E
330
2
100
AcDbEntity
  8
AGCASE
  6
HIDDEN2
 62
     4
100
AcDbCircle
 10
55.31075166759535
 20
19.79920874182464
 30
0.0
 40
0.1295928499995
100
AcDbArc
 50
89.99999999999934
 51
178.4999999999995
  0
ARC
  5
12F
330
2
100
AcDbEntity
  8
AGCASE
  6
Continuous
100
AcDbCircle
 10
55.31075166759535
 20
19.79920874182464
 30
0.0
 40
0.0978152929115
100
AcDbArc
 50
89.99999999999934
 51
178.4999999999995
  0
ARC
  5
130
330
2
100
AcDbEntity
  8
AGCASE
  6
HIDDEN2
 62
     4
100
AcDbCircle
 10
55.31075166759535
 20
19.79920874182464
 30
0.0
 40
0.185700099233
100
AcDbArc
 50
89.99999999999934
 51
178.4999999999995
  0
LWPOLYLINE
  5
131
330
2
100
AcDbEntity
  8
AGCASE
  6
HIDDEN2
 62
     4
100
AcDbPolyline
 90
        3
 70
     0
 43
0.0
 10
55.17247704416783
 20
19.46157219776465
 10
55.36016324071884
 20
19.46157219776465
 10
55.36776408080628
 20
19.89702403473615
  0
LINE
  5
132
330
2
100
AcDbEntity
  8
AGCASE
  6
HIDDEN2
 62
     4
100
AcDbLine
 10
55.46918527986462
 20
19.92880159182414
 30
0.0
 11
55.31075166759535
 21
19.92880159182415
 31
0.0
  0
LINE
  5
133
330
2
100
AcDbEntity
  8
AGCASE
  6
Continuous
100
AcDbLine
 10
55.46918527986462
 20
19.89702403473614
 30
0.0
 11
55.31075166759535
 21
19.89702403473615
 31
0.0
  0
LINE
  5
134
330
2
100
AcDbEntity
  8
AGCASE
  6
HIDDEN2
 62
     4
100
AcDbLine
 10
55.36066591885461
 20
19.49037060887565
 30
0.0
 11
55.17197436603206
 21
19.49037060887565
 31
0.0
  0
ARC
  5
135
330
2
100
AcDbEntity
  8
AGBASE
  6
HIDDEN2
 62
     4
100
AcDbCircle
 10
55.52947803707835
 20
19.45896544450265
 30
0.0
 40
0.015888778544
100
AcDbArc
 50
0.0000000000008142
 51
180.0000000000007
  0
ARC
  5
136
330
2
100
AcDbEntity
  8
AGBASE
  6
HIDDEN2
 62
     4
100
AcDbCircle
 10
55.37803811658084
 20
19.45896544450265
 30
0.0
 40
0.015888778544
100
AcDbArc
 50
0.0
 51
180.0
  0
ARC
  5
137
330
2
100
AcDbEntity
  8
AGBASE
  6
HIDDEN2
 62
     4
100
AcDbCircle
 10
55.15460216830585
 20
19.45896544450265
 30
0.0
 40
0.015888778544
100
AcDbArc
 50
0.0000000000008142
 51
180.0000000000007
  0
LINE
  5
138
330
2
100
AcDbEntity
  8
AGBASE
  6
HIDDEN2
 62
     4
100
AcDbLine
 10
55.20481563320898
 20
19.45896544450265
 30
0.0
 11
55.01656840470484
 21
19.45896544450265
 31
0.0
  0
LINE
  5
139
330
2
100
AcDbEntity
  8
AGBASE
  6
HIDDEN2
 62
     4
100
AcDbLine
 10
55.11528845918925
 20
19.52053446136065
 30
0.0
 11
55.11695515156806
 21
19.45688604729236
 31
0.0
  0
LINE
  5
13A
330
2
100
AcDbEntity
  8
AGBASE
100
AcDbLine
 10
55.01656840470484
 20
19.45896544450265
 30
0.0
 11
55.01682502958386
 21
19.44916533575563
 31
0.0
  0
LINE
  5
13B
330
2
100
AcDbEntity
  8
AGBASE
  6
HIDDEN2
 62
     4
100
AcDbLine
 10
55.20320339176244
 20
19.52053446136065
 30
0.0
 11
55.20494326494588
 21
19.4540913851126
 31
0.0
  0
LINE
  5
13C
330
2
100
AcDbEntity
  8
AGBASE
  6
HIDDEN2
 62
     4
100
AcDbLine
 10
55.17141494156649
 20
19.52053446136065
 30
0.0
 11
55.17317659723303
 21
19.45325954564335
 31
0.0
  0
LINE
  5
13D
330
2
100
AcDbEntity
  8
AGBASE
  6
HIDDEN2
 62
     4
100
AcDbLine
 10
55.06721388631383
 20
19.52053446136065
 30
0.0
 11
55.06721388631383
 21
19.45896544450265
 31
0.0
  0
LINE
  5
13E
330
2
100
AcDbEntity
  8
AGBASE
  6
HIDDEN2
 62
     4
100
AcDbLine
 10
55.15460216830585
 20
19.47485422304666
 30
0.0
 11
55.37803811658084
 21
19.47485422304666
 31
0.0
  0
LINE
  5
13F
330
2
100
AcDbEntity
  8
AGBASE
  6
HIDDEN2
 62
     4
100
AcDbLine
 10
55.17049094684984
 20
19.45896544450265
 30
0.0
 11
55.36214933803684
 21
19.45896544450265
 31
0.0
  0
LINE
  5
140
330
2
100
AcDbEntity
  8
AGBASE
  6
HIDDEN2
 62
     4
100
AcDbLine
 10
55.79735291274683
 20
19.44506276327661
 30
0.0
 11
55.98503910929784
 21
19.44506276327661
 31
0.0
  0
ARC
  5
141
330
2
100
AcDbEntity
  8
AGBASE
  6
HIDDEN2
 62
     4
100
AcDbCircle
 10
55.75291398535334
 20
19.45896544450265
 30
0.0
 40
0.015888778544
100
AcDbArc
 50
0.0
 51
180.0
  0
LINE
  5
142
330
2
100
AcDbEntity
  8
AGCASE
  6
Continuous
100
AcDbLine
 10
55.76789381028307
 20
20.31658709316363
 30
0.0
 11
55.71686682524038
 21
20.22820576251264
 31
0.0
  0
LINE
  5
143
330
2
100
AcDbEntity
  8
AGCASE
  6
HIDDEN2
 62
     4
100
AcDbLine
 10
56.15658826523683
 20
20.45958610005964
 30
0.0
 11
56.15658826523683
 21
20.44965561346964
 31
0.0
  0
ARC
  5
144
330
2
100
AcDbEntity
  8
AGCASE
  6
HIDDEN2
 62
     4
100
AcDbCircle
 10
56.01557535565882
 20
20.17358808626762
 30
0.0
 40
0.185700099233
100
AcDbArc
 50
89.99999999999939
 51
149.9999999999976
  0
ARC
  5
145
330
2
100
AcDbEntity
  8
AGCASE
  6
Continuous
100
AcDbCircle
 10
56.01557535565882
 20
20.17358808626762
 30
0.0
 40
0.2859980137920001
100
AcDbArc
 50
89.99999999999939
 51
149.9999999999976
  0
LINE
  5
146
330
2
100
AcDbEntity
  8
AGCASE
  6
Continuous
100
AcDbLine
 10
55.93086482711886
 20
20.22249573272338
 30
0.0
 11
55.87983784207617
 21
20.13411440207239
 31
0.0
  0
LINE
  5
147
330
2
100
AcDbEntity
  8
AGCASE
  6
HIDDEN2
 62
     4
100
AcDbLine
 10
55.90334465541045
 20
20.23838451126738
 30
0.0
 11
55.85231767036775
 21
20.15000318061638
 31
0.0
  0
ARC
  5
148
330
2
100
AcDbEntity
  8
AGCASE
  6
HIDDEN2
 62
     4
100
AcDbCircle
 10
56.01557535565882
 20
20.17358808626762
 30
0.0
 40
0.1295928499995
100
AcDbArc
 50
89.99999999999939
 51
149.9999999999976
  0
ARC
  5
149
330
2
100
AcDbEntity
  8
AGCASE
  6
Continuous
100
AcDbCircle
 10
56.01557535565882
 20
20.17358808626762
 30
0.0
 40
0.0978152929115001
100
AcDbArc
 50
89.99999999999939
 51
149.9999999999976
  0
LINE
  5
14A
330
2
100
AcDbEntity
  8
AGCASE
  6
HIDDEN2
 62
     4
100
AcDbLine
 10
55.85475435223776
 20
20.26643813588413
 30
0.0
 11
55.80372736719508
 21
20.17805680523314
 31
0.0
  0
LINE
  5
14B
330
2
100
AcDbEntity
  8
AGBASE
  6
HIDDEN2
 62
     4
100
AcDbLine
 10
60.3939244732519
 20
19.4592427419236
 30
0.0
 11
60.3956261361007
 21
19.36175454260741
 31
0.0
  0
ARC
  5
14C
330
2
100
AcDbEntity
  8
AGBASE
  6
HIDDEN2
 62
     4
100
AcDbCircle
 10
60.14156419937582
 20
19.45896544450265
 30
0.0
 40
0.2179741806505
100
AcDbArc
 50
270.0000000000006
 51
358.5000000000001
  0
ARC
  5
14D
330
2
100
AcDbEntity
  8
AGBASE
100
AcDbCircle
 10
60.14156419937582
 20
19.45896544450265
 30
0.0
 40
0.1861966235625
100
AcDbArc
 50
270.0000000000006
 51
358.5000000000001
  0
LINE
  5
14E
330
2
100
AcDbEntity
  8
AGBASE
  6
HIDDEN2
 62
     4
100
AcDbLine
 10
60.13871580776477
 20
19.4592427419236
 30
0.0
 11
60.13546089336659
 21
19.2727688209401
 31
0.0
  0
LINE
  5
14F
330
2
100
AcDbEntity
  8
AGBASE
  6
HIDDEN2
 62
     4
100
AcDbLine
 10
59.94904109395784
 20
19.45896544450265
 30
0.0
 11
59.96933180742154
 21
19.22704152835208
 31
0.0
  0
LINE
  5
150
330
2
100
AcDbEntity
  8
AGBASE
  6
HIDDEN2
 62
     4
100
AcDbLine
 10
60.01904860447941
 20
19.4592427419236
 30
0.0
 11
60.02250285675902
 21
19.26134876136159
 31
0.0
  0
LINE
  5
151
330
2
100
AcDbEntity
  8
AGBASE
  6
HIDDEN2
 62
     4
100
AcDbLine
 10
60.32391696273034
 20
19.45896544450265
 30
0.0
 11
60.34420767619405
 21
19.22704152835208
 31
0.0
  0
LINE
  5
152
330
2
100
AcDbEntity
  8
AGBASE
  6
HIDDEN2
 62
     4
100
AcDbLine
 10
60.20872331828634
 20
19.45896544450265
 30
0.0
 11
60.18843260482263
 21
19.22704152835209
 31
0.0
  0
LINE
  5
153
330
2
100
AcDbEntity
  8
AGBASE
  6
HIDDEN2
 62
     4
100
AcDbLine
 10
59.59626055794484
 20
19.44506276327661
 30
0.0
 11
59.59844444144279
 21
19.19481450120859
 31
0.0
  0
LINE
  5
154
330
2
100
AcDbEntity
  8
AGBASE
  6
HIDDEN2
 62
     4
100
AcDbLine
 10
59.68662798591385
 20
19.44506276327661
 30
0.0
 11
59.68444410241591
 21
19.19481450120859
 31
0.0
  0
LINE
  5
155
330
2
100
AcDbEntity
  8
AGBASE
  6
HIDDEN2
 62
     4
100
AcDbLine
 10
59.73528737020484
 20
19.44506276327661
 30
0.0
 11
59.73965546986741
 21
19.19481450120861
 31
0.0
  0
LINE
  5
156
330
2
100
AcDbEntity
  8
AGBASE
  6
HIDDEN2
 62
     4
100
AcDbLine
 10
59.54760117365385
 20
19.44506276327661
 30
0.0
 11
59.54323307399127
 21
19.19481450120861
 31
0.0
  0
LINE
  5
157
330
2
100
AcDbEntity
  8
AGBASE
  6
HIDDEN2
 62
     4
100
AcDbLine
 10
59.76383993899228
 20
19.4592427419236
 30
0.0
 11
59.76058502459409
 21
19.2727688209401
 31
0.0
  0
LINE
  5
158
330
2
100
AcDbEntity
  8
AGBASE
  6
HIDDEN2
 62
     4
100
AcDbLine
 10
59.83384744951384
 20
19.45896544450265
 30
0.0
 11
59.81355673605013
 21
19.22704152835209
 31
0.0
  0
ARC
  5
159
330
2
100
AcDbEntity
  8
AGBASE
100
AcDbCircle
 10
60.14156419937582
 20
19.45896544450265
 30
0.0
 40
0.374379344443
100
AcDbArc
 50
270.0000000000006
 51
358.5000000000001
  0
ARC
  5
15A
330
2
100
AcDbEntity
  8
AGBASE
  6
HIDDEN2
 62
     4
100
AcDbCircle
 10
60.14666116419043
 20
19.46393068779759
 30
0.0
 40
0.2691161865890001
100
AcDbArc
 50
269.9999999999993
 51
358.4999999999829
  0
LINE
  5
15B
330
2
100
AcDbEntity
  8
AGBASE
  6
HIDDEN2
 62
     4
100
AcDbLine
 10
59.71617118342233
 20
19.26134876136159
 30
0.0
 11
60.03337649560905
 21
19.26134876136159
 31
0.0
  0
LINE
  5
15C
330
2
100
AcDbEntity
  8
AGBASE
  6
HIDDEN2
 62
     4
100
AcDbLine
 10
59.81355673605013
 20
19.22704152835209
 30
0.0
 11
59.96933180742154
 21
19.2270415283521
 31
0.0
  0
LINE
  5
15D
330
2
100
AcDbEntity
  8
AGBASE
  6
HIDDEN2
 62
     4
100
AcDbLine
 10
60.0078171614624
 20
19.18276919292278
 30
0.0
 11
59.77507138200927
 21
19.18276919292278
 31
0.0
  0
LWPOLYLINE
  5
15E
330
2
100
AcDbEntity
  8
AGBASE
  6
HIDDEN2
 62
     4
100
AcDbPolyline
 90
        5
 70
     0
 43
0.0
 10
59.77507138200928
 20
19.10580897651523
 42
0.3452319121624388
 10
59.77908785695134
 20
19.1006852162869
 42
0.0349165333921306
 10
59.835830446615
 20
19.09086851124457
 42
0.0148359770554862
 10
59.89668144287757
 20
19.08648980602862
 42
0.0105414485623469
 10
59.98251580442325
 20
19.0846799679013
 42
0.0105414485623513
  0
LINE
  5
15F
330
2
100
AcDbEntity
  8
AGBASE
  6
HIDDEN2
 62
     4
100
AcDbLine
 10
59.95599243457084
 20
19.0945165866496
 30
0.0
 11
59.45152371579884
 21
19.0945165866496
 31
0.0
  0
LWPOLYLINE
  5
160
330
2
100
AcDbEntity
  8
AGBASE
  6
HIDDEN2
 62
     4
100
AcDbPolyline
 90
        5
 70
     0
 43
0.0
 10
59.98251580442325
 20
19.17216239954002
 42
0.0329428273554594
 10
59.8974648344608
 20
19.16655267285727
 42
0.044492665435812
 10
59.835830446615
 20
19.152727931891
 42
0.0872175599746959
 10
59.78500895220751
 20
19.12603855223385
 42
0.2323586851989778
 10
59.77507138200928
 20
19.10580897651523
 42
0.2323586851989579
  0
LINE
  5
161
330
2
100
AcDbEntity
  8
AGBASE
  6
HIDDEN2
 62
     4
100
AcDbLine
 10
58.78121587097384
 20
19.09451658664961
 30
0.0
 11
58.78121587097384
 21
19.08458610005961
 31
0.0
  0
LINE
  5
162
330
2
100
AcDbEntity
  8
AGBASE
  6
HIDDEN2
 62
     4
100
AcDbLine
 10
59.71500982359142
 20
19.19481450120859
 30
0.0
 11
59.71617118342233
 21
19.26134876136159
 31
0.0
  0
LWPOLYLINE
  5
163
330
2
100
AcDbEntity
  8
AGBASE
  6
HIDDEN2
 62
     4
100
AcDbPolyline
 90
        5
 70
     0
 43
0.0
 10
59.77228052118099
 20
19.1948145012086
 42
0.1247539361648445
 10
59.7910081099844
 20
19.19956105525027
 42
0.10577528096305
 10
59.80825490937157
 20
19.21430193482618
 42
0.08673631385841
 10
59.81910768952586
 20
19.23515977451234
 42
0.0768338323323336
 10
59.82315598885818
 20
19.26134876136159
 42
0.076833832332309
  0
LINE
  5
164
330
2
100
AcDbEntity
  8
AGBASE
  6
HIDDEN2
 62
     4
100
AcDbLine
 10
59.77228052118099
 20
19.1948145012086
 30
0.0
 11
59.77315831234837
 21
19.26134876136159
 31
0.0
  0
LINE
  5
165
330
2
100
AcDbEntity
  8
AGBASE
  6
HIDDEN2
 62
     4
100
AcDbLine
 10
59.45152371579884
 20
19.0945165866496
 30
0.0
 11
59.45152371579884
 21
19.0845861000596
 31
0.0
  0
LINE
  5
166
330
2
100
AcDbEntity
  8
AGBASE
  6
HIDDEN2
 62
     4
100
AcDbLine
 10
59.77507138200927
 20
19.18276919292278
 30
0.0
 11
59.77507138200928
 21
19.10580897651523
 31
0.0
  0
LINE
  5
167
330
2
100
AcDbEntity
  8
AGBASE
  6
HIDDEN2
 62
     4
100
AcDbLine
 10
59.81355673605013
 20
19.22704152835209
 30
0.0
 11
59.77507138200927
 21
19.18276919292278
 31
0.0
  0
LINE
  5
168
330
2
100
AcDbEntity
  8
AGBASE
  6
HIDDEN2
 62
     4
100
AcDbLine
 10
60.08988569236391
 20
19.19481450120859
 30
0.0
 11
60.09104705219483
 21
19.26134876136159
 31
0.0
  0
LINE
  5
169
330
2
100
AcDbEntity
  8
AGBASE
  6
HIDDEN2
 62
     4
100
AcDbLine
 10
60.13496436903708
 20
19.2727688209401
 30
0.0
 11
60.13476503115565
 21
19.26134876136159
 31
0.0
  0
LWPOLYLINE
  5
16A
330
2
100
AcDbEntity
  8
AGBASE
  6
HIDDEN2
 62
     4
100
AcDbPolyline
 90
        5
 70
     0
 43
0.0
 10
59.99145481711202
 20
19.19481450120859
 42
0.1464234500014364
 10
60.00635801929121
 20
19.19927447891606
 42
0.1071557459517239
 10
60.02109792025599
 20
19.21430193482618
 42
0.0768884593965219
 10
60.02996582758099
 20
19.23477426080981
 42
0.0639097113845223
 10
60.03337649560905
 20
19.26134876136159
 42
0.0639097113845221
  0
LINE
  5
16B
330
2
100
AcDbEntity
  8
AGBASE
  6
HIDDEN2
 62
     4
100
AcDbLine
 10
59.99145481711202
 20
19.19481450120859
 30
0.0
 11
59.99087301013844
 21
19.26134876136159
 31
0.0
  0
LINE
  5
16C
330
2
100
AcDbEntity
  8
AGBASE
  6
HIDDEN2
 62
     4
100
AcDbLine
 10
60.09104705219483
 20
19.26134876136159
 30
0.0
 11
60.32381670309815
 21
19.26134876136159
 31
0.0
  0
LINE
  5
16D
330
2
100
AcDbEntity
  8
AGBASE
  6
HIDDEN2
 62
     4
100
AcDbLine
 10
60.18843260482263
 20
19.22704152835209
 30
0.0
 11
60.34420767619405
 21
19.2270415283521
 31
0.0
  0
LINE
  5
16E
330
2
100
AcDbEntity
  8
AGBASE
  6
HIDDEN2
 62
     4
100
AcDbLine
 10
60.3826930302349
 20
19.18276919292278
 30
0.0
 11
60.38269303023488
 21
19.1725797247572
 31
0.0
  0
LINE
  5
16F
330
2
100
AcDbEntity
  8
AGBASE
  6
HIDDEN2
 62
     4
100
AcDbLine
 10
60.3826930302349
 20
19.18276919292278
 30
0.0
 11
60.14994725078177
 21
19.18276919292278
 31
0.0
  0
LINE
  5
170
330
2
100
AcDbEntity
  8
AGBASE
  6
HIDDEN2
 62
     4
100
AcDbLine
 10
59.95599243457084
 20
19.0945165866496
 30
0.0
 11
59.95599243457084
 21
19.08458610005959
 31
0.0
  0
LWPOLYLINE
  5
171
330
2
100
AcDbEntity
  8
AGBASE
  6
HIDDEN2
 62
     4
100
AcDbPolyline
 90
        5
 70
     0
 43
0.0
 10
59.98251580442325
 20
19.0846799679013
 42
0.0834489101907217
 10
59.99239392049084
 20
19.08634016509185
 42
0.0909375244439461
 10
60.00040656555877
 20
19.09086851124457
 42
0.104015384849503
 10
60.00596854626739
 20
19.09792172987629
 42
0.1156234577888491
 10
60.00781716146227
 20
19.10580897651523
 42
0.115623457789001
  0
LINE
  5
172
330
2
100
AcDbEntity
  8
AGBASE
  6
HIDDEN2
 62
     4
100
AcDbLine
 10
60.14994725078177
 20
19.18276919292278
 30
0.0
 11
60.14994725078178
 21
19.0846799679013
 31
0.0
  0
LINE
  5
173
330
2
100
AcDbEntity
  8
AGBASE
  6
HIDDEN2
 62
     4
100
AcDbLine
 10
60.0078171614624
 20
19.18276919292278
 30
0.0
 11
60.00781716146227
 21
19.10580897651523
 31
0.0
  0
LWPOLYLINE
  5
174
330
2
100
AcDbEntity
  8
AGBASE
  6
HIDDEN2
 62
     4
100
AcDbPolyline
 90
        5
 70
     0
 43
0.0
 10
60.00781716146227
 20
19.10580897651523
 42
0.0391826667817772
 10
60.005690758187
 20
19.13290180635948
 42
0.0519572878511154
 10
60.00040656555877
 20
19.152727931891
 42
0.095228929039175
 10
59.99056392462197
 20
19.1686321765126
 42
0.2096774173634101
 10
59.98251580442325
 20
19.17216239954002
 42
0.2096774173633679
  0
LINE
  5
175
330
2
100
AcDbEntity
  8
AGBASE
  6
HIDDEN2
 62
     4
100
AcDbLine
 10
60.34420767619405
 20
19.2270415283521
 30
0.0
 11
60.3826930302349
 21
19.18276919292278
 31
0.0
  0
LINE
  5
176
330
2
100
AcDbEntity
  8
AGBASE
  6
HIDDEN2
 62
     4
100
AcDbLine
 10
60.18843260482263
 20
19.22704152835209
 30
0.0
 11
60.14994725078177
 21
19.18276919292278
 31
0.0
  0
LINE
  5
177
330
2
100
AcDbEntity
  8
AGBASE
  6
HIDDEN2
 62
     4
100
AcDbLine
 10
59.96933180742154
 20
19.2270415283521
 30
0.0
 11
60.0078171614624
 21
19.18276919292278
 31
0.0
  0
ARC
  5
178
330
2
100
AcDbEntity
  8
AGCASE
  6
Continuous
100
AcDbCircle
 10
60.06345500308706
 20
20.37120476940867
 30
0.0
 40
0.4741807346725001
100
AcDbArc
 50
210.0000000000019
 51
270.0000000000012
  0
ARC
  5
179
330
2
100
AcDbEntity
  8
AGCASE
  6
HIDDEN2
 62
     4
100
AcDbCircle
 10
60.06345500308706
 20
20.37120476940867
 30
0.0
 40
0.4424031775845
100
AcDbArc
 50
210.0000000000019
 51
270.0000000000012
  0
ARC
  5
17A
330
2
100
AcDbEntity
  8
AGCASE
  6
HIDDEN2
 62
     4
100
AcDbCircle
 10
60.06345500308706
 20
20.37120476940867
 30
0.0
 40
0.386295928351
100
AcDbArc
 50
210.0000000000019
 51
270.0000000000012
  0
LWPOLYLINE
  5
17B
330
2
100
AcDbEntity
  8
AGCASE
  6
HIDDEN2
 62
     4
100
AcDbPolyline
 90
        4
 70
     0
 43
0.0
 10
59.84626055775135
 20
19.46157219776467
 10
59.85276070605874
 20
19.83396544488967
 10
59.93012783741296
 20
19.83396544488967
 10
59.93662798572035
 20
19.46157219776467
  0
LINE
  5
17D
330
2
100
AcDbEntity
  8
AGCASE
  6
HIDDEN2
 62
     4
100
AcDbLine
 10
59.98528737001135
 20
19.46157219776467
 30
0.0
 11
59.79760117346035
 21
19.46157219776467
 31
0.0
  0
ARC
  5
17E
330
2
100
AcDbEntity
  8
AGCASE
  6
Continuous
100
AcDbCircle
 10
60.06345500308706
 20
20.37120476940867
 30
0.0
 40
0.2859980137920001
100
AcDbArc
 50
210.0000000000019
 51
270.0000000000012
  0
LINE
  5
17F
330
2
100
AcDbEntity
  8
AGCASE
  6
HIDDEN2
 62
     4
100
AcDbLine
 10
60.06345500308707
 20
20.08520675561666
 30
0.0
 11
59.42134976583941
 21
20.08520675561666
 31
0.0
  0
LINE
  5
180
330
2
100
AcDbEntity
  8
AGCASE
  6
HIDDEN2
 62
     4
100
AcDbLine
 10
59.42134976583942
 20
19.98490884105764
 30
0.0
 11
60.22188861535633
 21
19.98490884105767
 31
0.0
  0
LINE
  5
181
330
2
100
AcDbEntity
  8
AGBASE
  6
HIDDEN2
 62
     4
100
AcDbLine
 10
60.00316224587333
 20
19.47485422304666
 30
0.0
 11
59.77972629759833
 21
19.47485422304666
 31
0.0
  0
LINE
  5
182
330
2
100
AcDbEntity
  8
AGBASE
  6
HIDDEN2
 62
     4
100
AcDbLine
 10
59.98727346732934
 20
19.45896544450265
 30
0.0
 11
59.79561507614235
 21
19.45896544450265
 31
0.0
  0
LINE
  5
183
330
2
100
AcDbEntity
  8
AGCASE
  6
HIDDEN2
 62
     4
100
AcDbLine
 10
59.79760117346035
 20
19.46157219776467
 30
0.0
 11
59.78846629837235
 21
19.98490884105765
 31
0.0
  0
ARC
  5
184
330
2
100
AcDbEntity
  8
AGBASE
  6
HIDDEN2
 62
     4
100
AcDbCircle
 10
59.77972629759833
 20
19.45896544450265
 30
0.0
 40
0.015888778544
100
AcDbArc
 50
0.0
 51
180.0
  0
LINE
  5
185
330
2
100
AcDbEntity
  8
AGBASE
  6
HIDDEN2
 62
     4
100
AcDbLine
 10
59.73528737020484
 20
19.44506276327661
 30
0.0
 11
59.54760117365385
 21
19.44506276327661
 31
0.0
  0
ARC
  5
186
330
2
100
AcDbEntity
  8
AGCASE
  6
HIDDEN2
 62
     4
100
AcDbCircle
 10
59.51706492729285
 20
20.17358808626763
 30
0.0
 40
0.185700099233
100
AcDbArc
 50
30.00000000000285
 51
90.00000000000115
  0
ARC
  5
187
330
2
100
AcDbEntity
  8
AGCASE
  6
Continuous
100
AcDbCircle
 10
59.51706492729285
 20
20.17358808626763
 30
0.0
 40
0.2859980137920001
100
AcDbArc
 50
30.00000000000285
 51
90.00000000000115
  0
LINE
  5
188
330
2
100
AcDbEntity
  8
AGCASE
  6
HIDDEN2
 62
     4
100
AcDbLine
 10
59.62929562754123
 20
20.23838451126739
 30
0.0
 11
59.68032261258392
 21
20.1500031806164
 31
0.0
  0
LINE
  5
189
330
2
100
AcDbEntity
  8
AGCASE
  6
Continuous
100
AcDbLine
 10
59.60177545583282
 20
20.22249573272339
 30
0.0
 11
59.6528024408755
 21
20.1341144020724
 31
0.0
  0
LINE
  5
18A
330
2
100
AcDbEntity
  8
AGCASE
  6
Continuous
100
AcDbLine
 10
59.76474647266861
 20
20.31658709316365
 30
0.0
 11
59.81577345771128
 21
20.22820576251266
 31
0.0
  0
ARC
  5
18B
330
2
100
AcDbEntity
  8
AGCASE
  6
HIDDEN2
 62
     4
100
AcDbCircle
 10
59.51706492729285
 20
20.17358808626763
 30
0.0
 40
0.1295928499995
100
AcDbArc
 50
30.00000000000285
 51
90.00000000000115
  0
LINE
  5
18C
330
2
100
AcDbEntity
  8
AGCASE
  6
HIDDEN2
 62
     4
100
AcDbLine
 10
59.67788593071391
 20
20.26643813588415
 30
0.0
 11
59.7289129157566
 21
20.17805680523316
 31
0.0
  0
ARC
  5
18D
330
2
100
AcDbEntity
  8
AGCASE
  6
Continuous
100
AcDbCircle
 10
59.51706492729285
 20
20.17358808626763
 30
0.0
 40
0.0978152929115001
100
AcDbArc
 50
30.00000000000285
 51
90.00000000000115
  0
LINE
  5
18E
330
2
100
AcDbEntity
  8
AGCASE
  6
HIDDEN2
 62
     4
100
AcDbLine
 10
59.37605201771484
 20
20.45958610005965
 30
0.0
 11
59.37605201771484
 21
20.44965561346966
 31
0.0
  0
ARC
  5
18F
330
2
100
AcDbEntity
  8
AGCASE
  6
Continuous
100
AcDbCircle
 10
60.22188861535633
 20
19.79920874182467
 30
0.0
 40
0.2859980137920001
100
AcDbArc
 50
1.500000000000983
 51
90.00000000000119
  0
LINE
  5
190
330
2
100
AcDbEntity
  8
AGCASE
  6
Continuous
100
AcDbLine
 10
60.06345500308707
 20
20.08520675561666
 30
0.0
 11
60.22188861535633
 21
20.08520675561667
 31
0.0
  0
LINE
  5
191
330
2
100
AcDbEntity
  8
AGCASE
  6
Continuous
100
AcDbLine
 10
60.32782464974272
 20
19.49037060887567
 30
0.0
 11
60.31967038940995
 21
19.80176924769094
 31
0.0
  0
LINE
  5
192
330
2
100
AcDbEntity
  8
AGCASE
  6
HIDDEN2
 62
     4
100
AcDbLine
 10
60.36016323878385
 20
19.46157219776468
 30
0.0
 11
60.36066591691962
 21
19.49037060887555
 31
0.0
  0
LINE
  5
193
330
2
100
AcDbEntity
  8
AGCASE
  6
HIDDEN2
 62
     4
100
AcDbLine
 10
60.51607187824685
 20
19.49037060887555
 30
0.0
 11
60.36066591691962
 21
19.49037060887555
 31
0.0
  0
LINE
  5
194
330
2
100
AcDbEntity
  8
AGCASE
  6
HIDDEN2
 62
     4
100
AcDbLine
 10
60.46741249395586
 20
19.52115511730467
 30
0.0
 11
60.3588069792154
 21
19.52115511730467
 31
0.0
  0
LINE
  5
195
330
2
100
AcDbEntity
  8
AGCASE
  6
HIDDEN2
 62
     4
100
AcDbLine
 10
60.46741249395586
 20
19.49037060887567
 30
0.0
 11
60.46741249395586
 21
19.52115511730467
 31
0.0
  0
LINE
  5
196
330
2
100
AcDbEntity
  8
AGCASE
  6
HIDDEN2
 62
     4
100
AcDbLine
 10
60.41493346159263
 20
19.52115511730467
 30
0.0
 11
60.40752507980329
 21
19.80406980372306
 31
0.0
  0
LINE
  5
197
330
2
100
AcDbEntity
  8
AGCASE
  6
HIDDEN2
 62
     4
100
AcDbLine
 10
60.3588069792154
 20
19.52115511730467
 30
0.0
 11
60.35143705712279
 21
19.80260108716018
 31
0.0
  0
LINE
  5
198
330
2
100
AcDbEntity
  8
AGCASE
  6
Continuous
100
AcDbLine
 10
60.51607187824685
 20
19.49037060887567
 30
0.0
 11
60.50778862477196
 21
19.80669529704786
 31
0.0
  0
LINE
  5
199
330
2
100
AcDbEntity
  8
AGCASE
  6
HIDDEN2
 62
     4
100
AcDbLine
 10
60.36066591691962
 20
19.49037060887555
 30
0.0
 11
60.36805602522886
 21
19.91374963035931
 31
0.0
  0
LINE
  5
19B
330
2
100
AcDbEntity
  8
AGCASE
  6
HIDDEN2
 62
     4
100
AcDbLine
 10
59.98528737001135
 20
19.46157219776467
 30
0.0
 11
59.99298013528743
 21
19.9022904252656
 31
0.0
  0
LINE
  5
19C
330
2
100
AcDbEntity
  8
AGCASE
  6
HIDDEN2
 62
     4
100
AcDbLine
 10
60.17247704223286
 20
19.46157219776467
 30
0.0
 11
60.1648762021454
 21
19.89702403473617
 31
0.0
  0
LWPOLYLINE
  5
19D
330
2
100
AcDbEntity
  8
AGCASE
  6
HIDDEN2
 62
     4
100
AcDbPolyline
 90
        4
 70
     0
 43
0.0
 10
60.22113642652385
 20
19.46157219776467
 10
60.22763657483124
 20
19.83396544488967
 10
60.30500370618544
 20
19.83396544488968
 10
60.31150385449284
 20
19.46157219776468
  0
LINE
  5
19E
330
2
100
AcDbEntity
  8
AGCASE
  6
HIDDEN2
 62
     4
100
AcDbLine
 10
60.1648762021454
 20
19.89702403473617
 30
0.0
 11
60.16334216714486
 21
19.98490884105767
 31
0.0
  0
LINE
  5
19F
330
2
100
AcDbEntity
  8
AGCASE
  6
HIDDEN2
 62
     4
100
AcDbLine
 10
59.99298013528741
 20
19.90229042526554
 30
0.0
 11
59.99442224509934
 21
19.98490884105767
 31
0.0
  0
LINE
  5
1A0
330
2
100
AcDbEntity
  8
AGCASE
  6
Continuous
100
AcDbLine
 10
60.06345500308707
 20
19.89702403473616
 30
0.0
 11
60.22188861535633
 21
19.89702403473617
 31
0.0
  0
LINE
  5
1A1
330
2
100
AcDbEntity
  8
AGCASE
  6
HIDDEN2
 62
     4
100
AcDbLine
 10
60.06345500308707
 20
19.92880159182417
 30
0.0
 11
60.22188861535633
 21
19.92880159182417
 31
0.0
  0
LINE
  5
1A2
330
2
100
AcDbEntity
  8
AGCASE
  6
HIDDEN2
 62
     4
100
AcDbLine
 10
60.36016323878385
 20
19.46157219776468
 30
0.0
 11
60.17247704223286
 21
19.46157219776467
 31
0.0
  0
ARC
  5
1A4
330
2
100
AcDbEntity
  8
AGCASE
  6
Continuous
100
AcDbCircle
 10
60.22188861535633
 20
19.79920874182467
 30
0.0
 40
0.0978152929115
100
AcDbArc
 50
1.500000000000983
 51
90.00000000000119
  0
ARC
  5
1A5
330
2
100
AcDbEntity
  8
AGCASE
  6
HIDDEN2
 62
     4
100
AcDbCircle
 10
60.22188861535633
 20
19.79920874182467
 30
0.0
 40
0.185700099233
100
AcDbArc
 50
1.500000000000983
 51
90.00000000000119
  0
ARC
  5
1A6
330
2
100
AcDbEntity
  8
AGCASE
  6
HIDDEN2
 62
     4
100
AcDbCircle
 10
60.22188861535633
 20
19.79920874182467
 30
0.0
 40
0.1295928499995
100
AcDbArc
 50
1.500000000000983
 51
90.00000000000119
  0
LINE
  5
1A7
330
2
100
AcDbEntity
  8
AGBASE
  6
HIDDEN2
 62
     4
100
AcDbLine
 10
60.36122534138519
 20
19.52053446136065
 30
0.0
 11
60.35946368571863
 21
19.45325954564335
 31
0.0
  0
LINE
  5
1A8
330
2
100
AcDbEntity
  8
AGBASE
  6
HIDDEN2
 62
     4
100
AcDbLine
 10
60.41735182376243
 20
19.52053446136065
 30
0.0
 11
60.41568513138361
 21
19.45688604729236
 31
0.0
  0
LINE
  5
1A9
330
2
100
AcDbEntity
  8
AGBASE
  6
HIDDEN2
 62
     4
100
AcDbLine
 10
60.32943689118924
 20
19.52053446136065
 30
0.0
 11
60.32769701800579
 21
19.4540913851126
 31
0.0
  0
LINE
  5
1AA
330
2
100
AcDbEntity
  8
AGBASE
  6
HIDDEN2
 62
     4
100
AcDbLine
 10
60.32782464974271
 20
19.45896544450265
 30
0.0
 11
60.51607187824683
 21
19.45896544450265
 31
0.0
  0
LINE
  5
1AC
330
2
100
AcDbEntity
  8
AGBASE
100
AcDbLine
 10
60.51607187824683
 20
19.45896544450265
 30
0.0
 11
60.51581525336782
 21
19.44916533575563
 31
0.0
  0
ARC
  5
1AD
330
2
100
AcDbEntity
  8
AGBASE
  6
HIDDEN2
 62
     4
100
AcDbCircle
 10
60.37803811464583
 20
19.45896544450265
 30
0.0
 40
0.015888778544
100
AcDbArc
 50
359.9999999999992
 51
179.9999999999991
  0
LINE
  5
1AE
330
2
100
AcDbEntity
  8
AGBASE
  6
HIDDEN2
 62
     4
100
AcDbLine
 10
60.46542639663784
 20
19.52053446136065
 30
0.0
 11
60.46542639663784
 21
19.45896544450265
 31
0.0
  0
ARC
  5
1AF
330
2
100
AcDbEntity
  8
AGBASE
  6
HIDDEN2
 62
     4
100
AcDbCircle
 10
60.15460216637084
 20
19.45896544450265
 30
0.0
 40
0.015888778544
100
AcDbArc
 50
0.0
 51
180.0
  0
ARC
  5
1B0
330
2
100
AcDbEntity
  8
AGBASE
  6
HIDDEN2
 62
     4
100
AcDbCircle
 10
60.00316224587333
 20
19.45896544450265
 30
0.0
 40
0.015888778544
100
AcDbArc
 50
359.9999999999992
 51
179.9999999999991
  0
LINE
  5
1B1
330
2
100
AcDbEntity
  8
AGBASE
  6
HIDDEN2
 62
     4
100
AcDbLine
 10
60.37803811464583
 20
19.47485422304666
 30
0.0
 11
60.15460216637084
 21
19.47485422304666
 31
0.0
  0
LINE
  5
1B2
330
2
100
AcDbEntity
  8
AGBASE
  6
HIDDEN2
 62
     4
100
AcDbLine
 10
60.36214933610184
 20
19.45896544450265
 30
0.0
 11
60.17049094491484
 21
19.45896544450265
 31
0.0
  0
LINE
  5
1B3
330
2
100
AcDbEntity
  8
AGCASE
  6
HIDDEN2
 62
     4
100
AcDbLine
 10
60.32782464974271
 20
22.40967666432536
 30
0.0
 11
55.20481563320897
 21
22.40967666432536
 31
0.0
  0
LINE
  5
1B4
330
2
100
AcDbEntity
  8
AGCASE
  6
HIDDEN2
 62
     4
100
AcDbLine
 10
60.36463195774935
 20
22.32129533367436
 30
0.0
 11
55.16800832520235
 21
22.32129533367437
 31
0.0
  0
LINE
  5
1B5
330
2
100
AcDbEntity
  8
AGCASE
  6
HIDDEN2
 62
     4
100
AcDbLine
 10
60.35880697921541
 20
22.37491996126037
 30
0.0
 11
55.17383330373629
 21
22.37491996126036
 31
0.0
  0
LINE
  5
1B6
330
2
100
AcDbEntity
  8
AGCASE
100
AcDbLine
 10
55.20475112558536
 20
22.27064985206537
 30
0.0
 11
60.32788915736634
 21
22.27064985206536
 31
0.0
  0
LINE
  5
1B7
330
2
100
AcDbEntity
  8
AGBASE
  6
HIDDEN2
 62
     4
100
AcDbLine
 10
60.32782464974271
 20
22.40967666432536
 30
0.0
 11
55.20481563320897
 21
22.40967666432536
 31
0.0
  0
LINE
  5
1B8
330
2
100
AcDbEntity
  8
AGBASE
100
AcDbLine
 10
55.20475112558535
 20
22.27064985206536
 30
0.0
 11
60.32788915736635
 21
22.27064985206536
 31
0.0
  0
LINE
  5
1B9
330
2
100
AcDbEntity
  8
AGBASE
  6
HIDDEN2
 62
     4
100
AcDbLine
 10
60.36122534138519
 20
22.32129533367437
 30
0.0
 11
55.17141494156649
 21
22.32129533367437
 31
0.0
  0
LINE
  5
1BA
330
2
100
AcDbEntity
  8
AGBASE
  6
HIDDEN2
 62
     4
100
AcDbLine
 10
60.36122534138519
 20
22.37491996126037
 30
0.0
 11
55.17141494156649
 21
22.37491996126036
 31
0.0
  0
LWPOLYLINE
  5
1BB
330
2
100
AcDbEntity
  8
AGCASE
 62
     4
100
AcDbPolyline
 90
        5
 70
     0
 43
0.0
 10
55.76789381028308
 20
22.45883257294587
 42
0.0863188075832214
 10
55.78062592077267
 20
22.3856315829409
 42
0.0925889459849462
 10
55.81562691597741
 20
22.32576729490913
 42
0.1030981112244636
 10
55.86969879254918
 20
22.28452479435376
 42
0.1119976344767956
 10
55.93086482711886
 20
22.27064985206537
 42
0.1119976344767811
  0
LINE
  5
1BC
330
2
100
AcDbEntity
  8
AGCASE
 62
     4
100
AcDbLine
 10
56.01557535565883
 20
22.27064985206537
 30
0.0
 11
56.01557535565883
 21
22.45883257294587
 31
0.0
  0
LINE
  5
1BD
330
2
100
AcDbEntity
  8
AGCASE
  6
HIDDEN2
 62
     4
100
AcDbLine
 10
55.17383330373629
 20
22.32129533367437
 30
0.0
 11
55.17383330373629
 21
22.37491996126036
 31
0.0
  0
LINE
  5
1BE
330
2
100
AcDbEntity
  8
AGCASE
 62
     4
100
AcDbLine
 10
55.31075166759536
 20
22.45883257294587
 30
0.0
 11
55.31075166759536
 21
22.27064985206537
 31
0.0
  0
LINE
  5
1BF
330
2
100
AcDbEntity
  8
AGCASE
 62
     4
100
AcDbLine
 10
55.46918527986463
 20
22.45883257294587
 30
0.0
 11
55.46918527986463
 21
22.27064985206537
 31
0.0
  0
LWPOLYLINE
  5
1C0
330
2
100
AcDbEntity
  8
AGCASE
100
AcDbPolyline
 90
        5
 70
     0
 43
0.0
 10
55.02485165817972
 20
22.45883257294587
 42
0.0984608196193931
 10
55.03917228889234
 20
22.38681509969905
 42
0.0984787298952247
 10
55.07995021365242
 20
22.32576729490913
 42
0.0985040694375477
 10
55.1409832253385
 20
22.28497342530917
 42
0.0985219946903105
 10
55.21296989354175
 20
22.27064985206537
 42
0.0985219946902915
  0
ARC
  5
1C1
330
2
100
AcDbEntity
  8
AGCASE
  6
HIDDEN2
 62
     4
100
AcDbCircle
 10
55.16800832520235
 20
22.42407586988087
 30
0.0
 40
0.1027805362065
100
AcDbArc
 50
180.0
 51
270.0
  0
ARC
  5
1C2
330
2
100
AcDbEntity
  8
AGCASE
100
AcDbCircle
 10
55.20475112558536
 20
22.45883257294587
 30
0.0
 40
0.1881827208805
100
AcDbArc
 50
180.0
 51
270.0
  0
LWPOLYLINE
  5
1C3
330
2
100
AcDbEntity
  8
AGCASE
 62
     4
100
AcDbPolyline
 90
        5
 70
     0
 43
0.0
 10
55.71686682524039
 20
22.45883257294587
 42
0.0863188075832214
 10
55.72959893572999
 20
22.3856315829409
 42
0.0925889459849462
 10
55.76459993093473
 20
22.32576729490913
 42
0.1030981112244636
 10
55.81867180750649
 20
22.28452479435375
 42
0.1119976344767956
 10
55.87983784207618
 20
22.27064985206537
 42
0.1119976344767811
  0
LINE
  5
1C4
330
2
100
AcDbEntity
  8
AGBASE
  6
HIDDEN2
 62
     4
100
AcDbLine
 10
55.17141494156649
 20
22.32129533367437
 30
0.0
 11
55.17141494156649
 21
22.37491996126036
 31
0.0
  0
ARC
  5
1C5
330
2
100
AcDbEntity
  8
AGBASE
100
AcDbCircle
 10
55.20475112558535
 20
22.45883257294587
 30
0.0
 40
0.1881827208805
100
AcDbArc
 50
180.0
 51
270.0
  0
ARC
  5
1C6
330
2
100
AcDbEntity
  8
AGBASE
  6
HIDDEN2
 62
     4
100
AcDbCircle
 10
55.1714149415665
 20
22.42549638892702
 30
0.0
 40
0.104201055252654
100
AcDbArc
 50
180.0
 51
270.0
  0
LINE
  5
1C7
330
2
100
AcDbEntity
  8
AGCASE
  6
HIDDEN2
 62
     4
100
AcDbLine
 10
55.20481563320897
 20
22.27064985206537
 30
0.0
 11
55.20481563320897
 21
22.32129533367437
 31
0.0
  0
LINE
  5
1C8
330
2
100
AcDbEntity
  8
AGBASE
  6
HIDDEN2
 62
     4
100
AcDbLine
 10
55.20481563320897
 20
22.27064985206536
 30
0.0
 11
55.20481563320897
 21
22.32129533367437
 31
0.0
  0
CIRCLE
  5
1C9
330
2
100
AcDbEntity
  8
AGBASE
  6
HIDDEN2
 62
     4
100
AcDbCircle
 10
55.89119601102233
 20
23.02040158961035
 30
0.0
 40
0.0429998304865607
  0
CIRCLE
  5
1CA
330
2
100
AcDbEntity
  8
AGBASE
  6
HIDDEN2
 62
     4
100
AcDbCircle
 10
55.89119601102233
 20
23.02040158961035
 30
0.0
 40
0.0982111979380686
  0
CIRCLE
  5
1CB
330
2
100
AcDbEntity
  8
AGBASE
  6
HIDDEN2
 62
     4
100
AcDbCircle
 10
55.89119601102233
 20
23.02040158961035
 30
0.0
 40
0.0938430982755
  0
CIRCLE
  5
1CC
330
2
100
AcDbEntity
  8
AGBASE
  6
HIDDEN2
 62
     4
100
AcDbCircle
 10
55.89119601102233
 20
23.02040158961035
 30
0.0
 40
0.0451837139845
  0
ARC
  5
1CE
330
2
100
AcDbEntity
  8
AGCASE
  6
HIDDEN2
 62
     4
100
AcDbCircle
 10
55.16686272997958
 20
22.45883257294587
 30
0.0
 40
0.0491559086205054
100
AcDbArc
 50
180.0
 51
270.0000000000041
  0
LINE
  5
1CF
330
2
100
AcDbEntity
  8
AGCASE
  6
HIDDEN2
 62
     4
100
AcDbLine
 10
55.20481563320897
 20
22.37491996126037
 30
0.0
 11
55.20481563320897
 21
22.40967666432536
 31
0.0
  0
LINE
  5
1D0
330
2
100
AcDbEntity
  8
AGCASE
  6
HIDDEN2
 62
     4
100
AcDbLine
 10
55.20481563320897
 20
22.40967666432536
 30
0.0
 11
55.16686272997958
 21
22.40967666432536
 31
0.0
  0
CIRCLE
  5
1D1
330
2
100
AcDbEntity
  8
AGCASE
  6
HIDDEN2
 62
     4
100
AcDbCircle
 10
55.26632014244334
 20
22.77064985187185
 30
0.0
 40
0.04518371398449
  0
CIRCLE
  5
1D2
330
2
100
AcDbEntity
  8
AGCASE
  6
HIDDEN2
 62
     4
100
AcDbCircle
 10
55.26632014244334
 20
22.77064985187185
 30
0.0
 40
0.0386835656771053
  0
CIRCLE
  5
1D3
330
2
100
AcDbEntity
  8
AGCASE
  6
HIDDEN2
 62
     4
100
AcDbCircle
 10
55.26632014244334
 20
22.77064985187185
 30
0.0
 40
0.102977973363489
  0
CIRCLE
  5
1D4
330
2
100
AcDbEntity
  8
AGCASE
  6
HIDDEN2
 62
     4
100
AcDbCircle
 10
55.26632014244334
 20
22.77064985187185
 30
0.0
 40
0.0938430982754965
  0
LINE
  5
1D5
330
2
100
AcDbEntity
  8
AGBASE
  6
HIDDEN2
 62
     4
100
AcDbLine
 10
55.20481563320897
 20
22.40967666432536
 30
0.0
 11
55.16444436780975
 21
22.40967666432536
 31
0.0
  0
ARC
  5
1D6
330
2
100
AcDbEntity
  8
AGBASE
  6
HIDDEN2
 62
     4
100
AcDbCircle
 10
55.16444436780975
 20
22.45883257294587
 30
0.0
 40
0.0491559086205001
100
AcDbArc
 50
180.0
 51
270.0
  0
ARC
  5
1D7
330
2
100
AcDbEntity
  8
AGBASE
  6
HIDDEN2
 62
     4
100
AcDbCircle
 10
55.26632014244334
 20
22.75184469640258
 30
0.0
 40
0.1576292926751412
100
AcDbArc
 50
248.6073029705465
 51
269.9999999999997
  0
ARC
  5
1D8
330
2
100
AcDbEntity
  8
AGBASE
  6
HIDDEN2
 62
     4
100
AcDbCircle
 10
55.26949738666508
 20
22.77064985187185
 30
0.0
 40
0.1324832398140993
100
AcDbArc
 50
117.2564152520763
 51
242.7435847479236
  0
ARC
  5
1D9
330
2
100
AcDbEntity
  8
AGBASE
  6
HIDDEN2
 62
     4
100
AcDbCircle
 10
55.26632014244334
 20
22.78945500734113
 30
0.0
 40
0.1576292926751412
100
AcDbArc
 50
90.00000000000031
 51
111.3926970294534
  0
ARC
  5
1DA
330
2
100
AcDbEntity
  8
AGBASE
  6
HIDDEN2
 62
     4
100
AcDbCircle
 10
55.26632014244334
 20
22.77064985187185
 30
0.0
 40
0.175273088313499
100
AcDbArc
 50
250.8501528004732
 51
109.1498471995267
  0
ARC
  5
1DB
330
2
100
AcDbEntity
  8
AGBASE
  6
HIDDEN2
 62
     4
100
AcDbCircle
 10
55.26632014244334
 20
22.77064985187185
 30
0.0
 40
0.1764344481444161
100
AcDbArc
 50
270.0
 51
90.0
  0
ARC
  5
1DC
330
2
100
AcDbEntity
  8
AGBASE
  6
HIDDEN2
 62
     4
100
AcDbCircle
 10
55.26632014244334
 20
22.77064985187185
 30
0.0
 40
0.1310585850231843
100
AcDbArc
 50
243.9784696105042
 51
116.0215303894957
  0
CIRCLE
  5
1DD
330
2
100
AcDbEntity
  8
AGBASE
  6
HIDDEN2
 62
     4
100
AcDbCircle
 10
55.26632014244334
 20
22.77064985187185
 30
0.0
 40
0.1276043327435692
  0
CIRCLE
  5
1DE
330
2
100
AcDbEntity
  8
AGBASE
  6
HIDDEN2
 62
     4
100
AcDbCircle
 10
55.26632014244334
 20
22.77064985187185
 30
0.0
 40
0.1163728897265643
  0
CIRCLE
  5
1DF
330
2
100
AcDbEntity
  8
AGBASE
  6
HIDDEN2
 62
     4
100
AcDbCircle
 10
55.26632014244334
 20
22.77064985187185
 30
0.0
 40
0.077887535685713
  0
CIRCLE
  5
1E0
330
2
100
AcDbEntity
  8
AGBASE
  6
HIDDEN2
 62
     4
100
AcDbCircle
 10
55.26632014244334
 20
22.77064985187185
 30
0.0
 40
0.0575968222220104
  0
CIRCLE
  5
1E1
330
2
100
AcDbEntity
  8
AGBASE
  6
HIDDEN2
 62
     4
100
AcDbCircle
 10
55.26632014244334
 20
22.77064985187185
 30
0.0
 40
0.095829195593499
  0
LINE
  5
1E2
330
2
100
AcDbEntity
  8
AGBASE
  6
HIDDEN2
 62
     4
100
AcDbLine
 10
55.20481563320897
 20
22.37491996126037
 30
0.0
 11
55.20481563320897
 21
22.40967666432536
 31
0.0
  0
LINE
  5
1E3
330
2
100
AcDbEntity
  8
AGCASE
  6
HIDDEN2
 62
     4
100
AcDbLine
 10
60.35880697921539
 20
22.32129533367437
 30
0.0
 11
60.35880697921539
 21
22.37491996126036
 31
0.0
  0
LINE
  5
1E4
330
2
100
AcDbEntity
  8
AGCASE
 62
     4
100
AcDbLine
 10
60.06345500308706
 20
22.45883257294587
 30
0.0
 11
60.06345500308706
 21
22.27064985206537
 31
0.0
  0
LWPOLYLINE
  5
1E5
330
2
100
AcDbEntity
  8
AGCASE
100
AcDbPolyline
 90
        5
 70
     0
 43
0.0
 10
60.50778862477197
 20
22.45883257294587
 42
-0.0984608196193931
 10
60.49346799405934
 20
22.38681509969905
 42
-0.0984787298952247
 10
60.45269006929927
 20
22.32576729490913
 42
-0.0985040694375477
 10
60.39165705761318
 20
22.28497342530917
 42
-0.0985219946903105
 10
60.31967038940994
 20
22.27064985206537
 42
-0.0985219946902915
  0
ARC
  5
1E6
330
2
100
AcDbEntity
  8
AGCASE
  6
HIDDEN2
 62
     4
100
AcDbCircle
 10
60.36463195774935
 20
22.42407586988087
 30
0.0
 40
0.1027805362065
100
AcDbArc
 50
270.0
 51
0.0
  0
LINE
  5
1E7
330
2
100
AcDbEntity
  8
AGCASE
 62
     4
100
AcDbLine
 10
60.22188861535632
 20
22.45883257294587
 30
0.0
 11
60.22188861535632
 21
22.27064985206537
 31
0.0
  0
ARC
  5
1E8
330
2
100
AcDbEntity
  8
AGCASE
100
AcDbCircle
 10
60.32788915736634
 20
22.45883257294586
 30
0.0
 40
0.1881827208805
100
AcDbArc
 50
269.9999999999999
 51
0.0000000000000509
  0
LWPOLYLINE
  5
1E9
330
2
100
AcDbEntity
  8
AGCASE
 62
     4
100
AcDbPolyline
 90
        5
 70
     0
 43
0.0
 10
59.76474647266861
 20
22.45883257294587
 42
-0.0863188075832214
 10
59.75201436217902
 20
22.3856315829409
 42
-0.0925889459849462
 10
59.71701336697428
 20
22.32576729490913
 42
-0.1030981112244636
 10
59.66294149040249
 20
22.28452479435376
 42
-0.1119976344767956
 10
59.60177545583283
 20
22.27064985206537
 42
-0.1119976344767811
  0
LWPOLYLINE
  5
1EA
330
2
100
AcDbEntity
  8
AGCASE
 62
     4
100
AcDbPolyline
 90
        5
 70
     0
 43
0.0
 10
59.81577345771129
 20
22.45883257294587
 42
-0.0863188075832214
 10
59.8030413472217
 20
22.3856315829409
 42
-0.0925889459849462
 10
59.76804035201696
 20
22.32576729490913
 42
-0.1030981112244636
 10
59.71396847544519
 20
22.28452479435375
 42
-0.1119976344767956
 10
59.65280244087551
 20
22.27064985206537
 42
-0.1119976344767811
  0
LINE
  5
1EB
330
2
100
AcDbEntity
  8
AGCASE
 62
     4
100
AcDbLine
 10
59.51706492729286
 20
22.27064985206537
 30
0.0
 11
59.51706492729286
 21
22.45883257294587
 31
0.0
  0
LINE
  5
1EC
330
2
100
AcDbEntity
  8
AGBASE
  6
HIDDEN2
 62
     4
100
AcDbLine
 10
60.36122534138519
 20
22.32129533367437
 30
0.0
 11
60.36122534138519
 21
22.37491996126036
 31
0.0
  0
ARC
  5
1ED
330
2
100
AcDbEntity
  8
AGBASE
100
AcDbCircle
 10
60.32788915736635
 20
22.45883257294586
 30
0.0
 40
0.1881827208805
100
AcDbArc
 50
269.9999999999999
 51
0.0000000000000509
  0
ARC
  5
1EE
330
2
100
AcDbEntity
  8
AGBASE
  6
HIDDEN2
 62
     4
100
AcDbCircle
 10
60.36122534138519
 20
22.42549638892702
 30
0.0
 40
0.104201055252654
100
AcDbArc
 50
270.0
 51
0.0
  0
LINE
  5
1EF
330
2
100
AcDbEntity
  8
AGCASE
  6
HIDDEN2
 62
     4
100
AcDbLine
 10
60.32782464974271
 20
22.27064985206537
 30
0.0
 11
60.32782464974271
 21
22.32129533367437
 31
0.0
  0
LINE
  5
1F0
330
2
100
AcDbEntity
  8
AGBASE
  6
HIDDEN2
 62
     4
100
AcDbLine
 10
60.32782464974271
 20
22.27064985206536
 30
0.0
 11
60.32782464974271
 21
22.32129533367437
 31
0.0
  0
CIRCLE
  5
1F2
330
2
100
AcDbEntity
  8
AGBASE
  6
HIDDEN2
 62
     4
100
AcDbCircle
 10
59.64144427192934
 20
23.02040158961035
 30
0.0
 40
0.0451837139845
  0
CIRCLE
  5
1F3
330
2
100
AcDbEntity
  8
AGBASE
  6
HIDDEN2
 62
     4
100
AcDbCircle
 10
59.64144427192934
 20
23.02040158961035
 30
0.0
 40
0.0938430982755
  0
CIRCLE
  5
1F4
330
2
100
AcDbEntity
  8
AGBASE
  6
HIDDEN2
 62
     4
100
AcDbCircle
 10
59.64144427192934
 20
23.02040158961035
 30
0.0
 40
0.0982111979380686
  0
CIRCLE
  5
1F5
330
2
100
AcDbEntity
  8
AGBASE
  6
HIDDEN2
 62
     4
100
AcDbCircle
 10
59.64144427192934
 20
23.02040158961035
 30
0.0
 40
0.0429998304865607
  0
ARC
  5
1F6
330
2
100
AcDbEntity
  8
AGCASE
  6
HIDDEN2
 62
     4
100
AcDbCircle
 10
60.36577755297211
 20
22.45883257294587
 30
0.0
 40
0.0491559086205054
100
AcDbArc
 50
269.9999999999958
 51
0.0
  0
LINE
  5
1F7
330
2
100
AcDbEntity
  8
AGCASE
  6
HIDDEN2
 62
     4
100
AcDbLine
 10
60.32782464974271
 20
22.37491996126037
 30
0.0
 11
60.32782464974271
 21
22.40967666432536
 31
0.0
  0
LINE
  5
1F8
330
2
100
AcDbEntity
  8
AGCASE
  6
HIDDEN2
 62
     4
100
AcDbLine
 10
60.32782464974271
 20
22.40967666432536
 30
0.0
 11
60.36577755297211
 21
22.40967666432536
 31
0.0
  0
CIRCLE
  5
1F9
330
2
100
AcDbEntity
  8
AGCASE
  6
HIDDEN2
 62
     4
100
AcDbCircle
 10
60.26632014050835
 20
22.77064985187185
 30
0.0
 40
0.04518371398449
  0
CIRCLE
  5
1FA
330
2
100
AcDbEntity
  8
AGCASE
  6
HIDDEN2
 62
     4
100
AcDbCircle
 10
60.26632014050835
 20
22.77064985187185
 30
0.0
 40
0.0386835656771053
  0
CIRCLE
  5
1FB
330
2
100
AcDbEntity
  8
AGCASE
  6
HIDDEN2
 62
     4
100
AcDbCircle
 10
60.26632014050835
 20
22.77064985187185
 30
0.0
 40
0.102977973363489
  0
CIRCLE
  5
1FC
330
2
100
AcDbEntity
  8
AGCASE
  6
HIDDEN2
 62
     4
100
AcDbCircle
 10
60.26632014050835
 20
22.77064985187185
 30
0.0
 40
0.0938430982754965
  0
LINE
  5
1FD
330
2
100
AcDbEntity
  8
AGBASE
  6
HIDDEN2
 62
     4
100
AcDbLine
 10
60.32782464974271
 20
22.40967666432537
 30
0.0
 11
60.36819591514193
 21
22.40967666432537
 31
0.0
  0
ARC
  5
1FE
330
2
100
AcDbEntity
  8
AGBASE
  6
HIDDEN2
 62
     4
100
AcDbCircle
 10
60.36819591514193
 20
22.45883257294586
 30
0.0
 40
0.0491559086205001
100
AcDbArc
 50
270.0000000000001
 51
0.0000000000001334
  0
ARC
  5
1FF
330
2
100
AcDbEntity
  8
AGBASE
  6
HIDDEN2
 62
     4
100
AcDbCircle
 10
60.26314289628661
 20
22.77064985187185
 30
0.0
 40
0.1324832398140993
100
AcDbArc
 50
297.2564152520763
 51
62.74358474792367
  0
ARC
  5
200
330
2
100
AcDbEntity
  8
AGBASE
  6
HIDDEN2
 62
     4
100
AcDbCircle
 10
60.26632014050834
 20
22.77064985187185
 30
0.0
 40
0.1764344481444161
100
AcDbArc
 50
90.0
 51
270.0
  0
ARC
  5
201
330
2
100
AcDbEntity
  8
AGBASE
  6
HIDDEN2
 62
     4
100
AcDbCircle
 10
60.26632014050834
 20
22.77064985187185
 30
0.0
 40
0.1310585850231843
100
AcDbArc
 50
63.97846961050424
 51
296.0215303894957
  0
CIRCLE
  5
202
330
2
100
AcDbEntity
  8
AGBASE
  6
HIDDEN2
 62
     4
100
AcDbCircle
 10
60.26632014050834
 20
22.77064985187185
 30
0.0
 40
0.1163728897265643
  0
CIRCLE
  5
203
330
2
100
AcDbEntity
  8
AGBASE
  6
HIDDEN2
 62
     4
100
AcDbCircle
 10
60.26632014050834
 20
22.77064985187185
 30
0.0
 40
0.1276043327435692
  0
ARC
  5
204
330
2
100
AcDbEntity
  8
AGBASE
  6
HIDDEN2
 62
     4
100
AcDbCircle
 10
60.26632014050834
 20
22.78945500734113
 30
0.0
 40
0.1576292926751412
100
AcDbArc
 50
68.6073029705466
 51
89.99999999999969
  0
CIRCLE
  5
205
330
2
100
AcDbEntity
  8
AGBASE
  6
HIDDEN2
 62
     4
100
AcDbCircle
 10
60.26632014050834
 20
22.77064985187185
 30
0.0
 40
0.0575968222220104
  0
CIRCLE
  5
206
330
2
100
AcDbEntity
  8
AGBASE
  6
HIDDEN2
 62
     4
100
AcDbCircle
 10
60.26632014050834
 20
22.77064985187185
 30
0.0
 40
0.077887535685713
  0
CIRCLE
  5
207
330
2
100
AcDbEntity
  8
AGBASE
  6
HIDDEN2
 62
     4
100
AcDbCircle
 10
60.26632014050834
 20
22.77064985187185
 30
0.0
 40
0.095829195593499
  0
ARC
  5
208
330
2
100
AcDbEntity
  8
AGBASE
  6
HIDDEN2
 62
     4
100
AcDbCircle
 10
60.26632014050834
 20
22.77064985187185
 30
0.0
 40
0.175273088313499
100
AcDbArc
 50
70.85015280047326
 51
289.1498471995267
  0
ARC
  5
209
330
2
100
AcDbEntity
  8
AGBASE
  6
HIDDEN2
 62
     4
100
AcDbCircle
 10
60.26632014050834
 20
22.75184469640258
 30
0.0
 40
0.1576292926751412
100
AcDbArc
 50
270.0000000000002
 51
291.3926970294534
  0
LINE
  5
20A
330
2
100
AcDbEntity
  8
AGBASE
  6
HIDDEN2
 62
     4
100
AcDbLine
 10
60.32782464974271
 20
22.37491996126037
 30
0.0
 11
60.32782464974271
 21
22.40967666432536
 31
0.0
  0
LINE
  5
20B
330
2
100
AcDbEntity
  8
AGCASE
  6
HIDDEN2
 62
     4
100
AcDbLine
 10
63.23196365264152
 20
22.37491996126037
 30
0.0
 11
63.23196365264152
 21
22.32129533367437
 31
0.0
  0
ARC
  5
20C
330
2
100
AcDbEntity
  8
AGCASE
100
AcDbCircle
 10
63.26374120972951
 20
22.45883257294586
 30
0.0
 40
0.1881827208805
100
AcDbArc
 50
180.0
 51
270.0
  0
LWPOLYLINE
  5
20D
330
2
100
AcDbEntity
  8
AGCASE
100
AcDbPolyline
 90
        5
 70
     0
 43
0.0
 10
62.93255948195302
 20
22.45883257294586
 42
0.0510992989621124
 10
62.94035786179017
 20
22.38272568550881
 42
0.0649481016503226
 10
62.96011820337491
 20
22.32576729490912
 42
0.104202941766397
 10
62.99477673080215
 20
22.28213757949557
 42
0.1747045211889866
 10
63.02665084239329
 20
22.27064985206536
 42
0.1747045211890197
  0
LINE
  5
20E
330
2
100
AcDbEntity
  8
AGCASE
  6
HIDDEN2
 62
     4
100
AcDbLine
 10
62.85758430819854
 20
22.37491996126037
 30
0.0
 11
62.85758430819854
 21
22.32129533367436
 31
0.0
  0
ARC
  5
20F
330
2
100
AcDbEntity
  8
AGCASE
100
AcDbCircle
 10
62.88936186528655
 20
22.45883257294586
 30
0.0
 40
0.1881827208805
100
AcDbArc
 50
180.0
 51
270.0
  0
LWPOLYLINE
  5
210
330
2
100
AcDbEntity
  8
AGCASE
100
AcDbPolyline
 90
        5
 70
     0
 43
0.0
 10
62.84417815130205
 20
22.45883257294586
 42
0.0510992989621124
 10
62.85197653113919
 20
22.38272568550881
 42
0.0649481016503226
 10
62.87173687272393
 20
22.32576729490912
 42
0.104202941766397
 10
62.90639540015117
 20
22.28213757949557
 42
0.1747045211889866
 10
62.93826951174231
 20
22.27064985206536
 42
0.1747045211890197
  0
LINE
  5
211
330
2
100
AcDbEntity
  8
AGBASE
  6
HIDDEN2
 62
     4
100
AcDbLine
 10
63.91977398061357
 20
22.37491996126037
 30
0.0
 11
63.91977398061357
 21
22.32129533367437
 31
0.0
  0
ARC
  5
212
330
2
100
AcDbEntity
  8
AGBASE
100
AcDbCircle
 10
63.88799642352555
 20
22.45883257294586
 30
0.0
 40
0.1881827208805
100
AcDbArc
 50
269.9999999999997
 51
359.9999999999999
  0
LINE
  5
213
330
2
100
AcDbEntity
  8
AGBASE
  6
HIDDEN2
 62
     4
100
AcDbLine
 10
63.70179979996301
 20
22.32129533367437
 30
0.0
 11
63.91977398061357
 21
22.32129533367437
 31
0.0
  0
LINE
  5
214
330
2
100
AcDbEntity
  8
AGBASE
100
AcDbLine
 10
63.70179979996301
 20
22.27064985206536
 30
0.0
 11
63.88799642352555
 21
22.27064985206536
 31
0.0
  0
LINE
  5
215
330
2
100
AcDbEntity
  8
AGCASE
  6
HIDDEN2
 62
     4
100
AcDbLine
 10
63.63961012716101
 20
22.32129533367436
 30
0.0
 11
62.85758430819854
 21
22.32129533367436
 31
0.0
  0
LINE
  5
216
330
2
100
AcDbEntity
  8
AGCASE
100
AcDbLine
 10
63.67039463559002
 20
22.27064985206536
 30
0.0
 11
62.88936186528655
 21
22.27064985206536
 31
0.0
  0
LINE
  5
217
330
2
100
AcDbEntity
  8
AGCASE
  6
HIDDEN2
 62
     4
100
AcDbLine
 10
62.88936186528657
 20
22.32129533367436
 30
0.0
 11
62.88936186528657
 21
22.27064985206536
 31
0.0
  0
LINE
  5
218
330
2
100
AcDbEntity
  8
AGCASE
  6
HIDDEN2
 62
     4
100
AcDbLine
 10
63.26374120972952
 20
22.32129533367437
 30
0.0
 11
63.26374120972952
 21
22.27064985206537
 31
0.0
  0
LINE
  5
219
330
2
100
AcDbEntity
  8
AGBASE
  6
HIDDEN2
 62
     4
100
AcDbLine
 10
63.640230783105
 20
22.32129533367437
 30
0.0
 11
63.70179979996301
 21
22.32129533367437
 31
0.0
  0
LINE
  5
21A
330
2
100
AcDbEntity
  8
AGBASE
  6
HIDDEN2
 62
     4
100
AcDbLine
 10
63.88799642352555
 20
22.32129533367437
 30
0.0
 11
63.88799642352555
 21
22.27064985206536
 31
0.0
  0
LINE
  5
21B
330
2
100
AcDbEntity
  8
AGBASE
  6
HIDDEN2
 62
     4
100
AcDbLine
 10
63.71570248118906
 20
23.11424468788585
 30
0.0
 11
63.96595074325707
 21
23.11861278754842
 31
0.0
  0
LINE
  5
21C
330
2
100
AcDbEntity
  8
AGBASE
  6
HIDDEN2
 62
     4
100
AcDbLine
 10
63.71570248118906
 20
23.06558530359485
 30
0.0
 11
63.96595074325706
 21
23.06340142009692
 31
0.0
  0
LINE
  5
21D
330
2
100
AcDbEntity
  8
AGBASE
  6
HIDDEN2
 62
     4
100
AcDbLine
 10
63.640230783105
 20
22.40967666432537
 30
0.0
 11
63.91679483463657
 21
22.40967666432536
 31
0.0
  0
LINE
  5
21E
330
2
100
AcDbEntity
  8
AGBASE
  6
HIDDEN2
 62
     4
100
AcDbLine
 10
63.71570248118906
 20
22.92655849133485
 30
0.0
 11
63.96595074325706
 21
22.92219039167228
 31
0.0
  0
LINE
  5
21F
330
2
100
AcDbEntity
  8
AGBASE
  6
HIDDEN2
 62
     4
100
AcDbLine
 10
63.71570248118906
 20
22.97521787562585
 30
0.0
 11
63.96595074325706
 21
22.97740175912378
 31
0.0
  0
LINE
  5
220
330
2
100
AcDbEntity
  8
AGBASE
  6
HIDDEN2
 62
     4
100
AcDbLine
 10
63.70179979996301
 20
22.71305302964986
 30
0.0
 11
63.93372371611356
 21
22.69276231618615
 31
0.0
  0
LINE
  5
221
330
2
100
AcDbEntity
  8
AGBASE
  6
HIDDEN2
 62
     4
100
AcDbLine
 10
63.70179979996301
 20
22.82824667409386
 30
0.0
 11
63.93372371611358
 21
22.84853738755757
 31
0.0
  0
LINE
  5
222
330
2
100
AcDbEntity
  8
AGBASE
  6
HIDDEN2
 62
     4
100
AcDbLine
 10
63.70152250254205
 20
22.89825418461542
 30
0.0
 11
63.89941648310407
 21
22.90170843689505
 31
0.0
  0
LINE
  5
223
330
2
100
AcDbEntity
  8
AGBASE
  6
HIDDEN2
 62
     4
100
AcDbLine
 10
63.70152250254205
 20
22.6430455191283
 30
0.0
 11
63.88799642352555
 21
22.63979060473011
 31
0.0
  0
LINE
  5
224
330
2
100
AcDbEntity
  8
AGBASE
  6
HIDDEN2
 62
     4
100
AcDbLine
 10
63.640230783105
 20
22.37491996126036
 30
0.0
 11
63.91977398061357
 21
22.37491996126037
 31
0.0
  0
LINE
  5
225
330
2
100
AcDbEntity
  8
AGBASE
  6
HIDDEN2
 62
     4
100
AcDbLine
 10
63.71570248118906
 20
23.11424468788585
 30
0.0
 11
63.71570248118906
 21
22.92655849133485
 31
0.0
  0
LINE
  5
226
330
2
100
AcDbEntity
  8
AGCASE
  6
HIDDEN2
 62
     4
100
AcDbLine
 10
63.63961012716101
 20
22.37491996126036
 30
0.0
 11
62.85758430819854
 21
22.37491996126037
 31
0.0
  0
LINE
  5
227
330
2
100
AcDbEntity
  8
AGCASE
  6
HIDDEN2
 62
     4
100
AcDbLine
 10
63.63961012716101
 20
22.40967666432537
 30
0.0
 11
62.85063296758556
 21
22.40967666432536
 31
0.0
  0
LINE
  5
228
330
2
100
AcDbEntity
  8
AGCASE
 62
     4
100
AcDbLine
 10
62.70117914440604
 20
22.45883257294586
 30
0.0
 11
63.67039463559002
 21
22.45883257294586
 31
0.0
  0
LINE
  5
229
330
2
100
AcDbEntity
  8
AGCASE
  6
HIDDEN2
 62
     4
100
AcDbLine
 10
62.88936186528657
 20
22.37491996126037
 30
0.0
 11
62.88936186528655
 21
22.40967666432536
 31
0.0
  0
ARC
  5
22A
330
2
100
AcDbEntity
  8
AGCASE
  6
HIDDEN2
 62
     4
100
AcDbCircle
 10
62.85063296758556
 20
22.45883257294586
 30
0.0
 40
0.0491559086204984
100
AcDbArc
 50
180.0
 51
270.0
  0
LINE
  5
22B
330
2
100
AcDbEntity
  8
AGCASE
  6
HIDDEN2
 62
     4
100
AcDbLine
 10
62.70117914440604
 20
22.56757140110635
 30
0.0
 11
62.71110963099605
 21
22.56757140110635
 31
0.0
  0
LINE
  5
22C
330
2
100
AcDbEntity
  8
AGCASE
  6
HIDDEN2
 62
     4
100
AcDbLine
 10
62.70117914440604
 20
22.59835590953535
 30
0.0
 11
62.71110963099605
 21
22.59835590953535
 31
0.0
  0
LINE
  5
22D
330
2
100
AcDbEntity
  8
AGCASE
  6
Continuous
100
AcDbLine
 10
63.69919304670101
 20
22.86498947447686
 30
0.0
 11
63.69919304670101
 21
22.67730327792586
 31
0.0
  0
LINE
  5
22E
330
2
100
AcDbEntity
  8
AGCASE
  6
Continuous
100
AcDbLine
 10
63.69919304670101
 20
22.67730327792586
 30
0.0
 11
63.67039463559002
 21
22.67680059979009
 31
0.0
  0
LINE
  5
22F
330
2
100
AcDbEntity
  8
AGCASE
  6
Continuous
100
AcDbLine
 10
63.69919304670101
 20
22.86498947447686
 30
0.0
 11
63.67039463559002
 21
22.86549215261263
 31
0.0
  0
LINE
  5
230
330
2
100
AcDbEntity
  8
AGCASE
  6
HIDDEN2
 62
     4
100
AcDbLine
 10
63.326799799576
 20
22.80982994187846
 30
0.0
 11
63.326799799576
 21
22.73246281052426
 31
0.0
  0
LINE
  5
231
330
2
100
AcDbEntity
  8
AGCASE
  6
HIDDEN2
 62
     4
100
AcDbLine
 10
63.69919304670101
 20
22.72596266221686
 30
0.0
 11
63.326799799576
 21
22.73246281052426
 31
0.0
  0
LINE
  5
232
330
2
100
AcDbEntity
  8
AGCASE
  6
HIDDEN2
 62
     4
100
AcDbLine
 10
63.69919304670101
 20
22.81633009018585
 30
0.0
 11
63.326799799576
 21
22.80982994187846
 31
0.0
  0
ARC
  5
233
330
2
100
AcDbEntity
  8
AGCASE
  6
HIDDEN2
 62
     4
100
AcDbCircle
 10
63.22501231202852
 20
22.45883257294586
 30
0.0
 40
0.0491559086204984
100
AcDbArc
 50
180.0
 51
270.0
  0
LINE
  5
234
330
2
100
AcDbEntity
  8
AGCASE
  6
HIDDEN2
 62
     4
100
AcDbLine
 10
63.26374120972952
 20
22.37491996126037
 30
0.0
 11
63.26374120972951
 21
22.40967666432536
 31
0.0
  0
LINE
  5
235
330
2
100
AcDbEntity
  8
AGCASE
  6
HIDDEN2
 62
     4
100
AcDbLine
 10
63.67039463559002
 20
22.67680059979009
 30
0.0
 11
63.175856403408
 21
22.66816840283787
 31
0.0
  0
LINE
  5
236
330
2
100
AcDbEntity
  8
AGCASE
  6
HIDDEN2
 62
     4
100
AcDbLine
 10
63.67039463559002
 20
22.86549215261263
 30
0.0
 11
63.175856403408
 21
22.87412434956486
 31
0.0
  0
ARC
  5
237
330
2
100
AcDbEntity
  8
AGBASE
  6
HIDDEN2
 62
     4
100
AcDbCircle
 10
63.70179979996301
 20
22.88236782600935
 30
0.0
 40
0.015888778544
100
AcDbArc
 50
89.99999999999873
 51
269.9999999999987
  0
ARC
  5
238
330
2
100
AcDbEntity
  8
AGBASE
  6
HIDDEN2
 62
     4
100
AcDbCircle
 10
63.70179979996301
 20
22.65893187773436
 30
0.0
 40
0.015888778544
100
AcDbArc
 50
89.99999999999955
 51
269.9999999999995
  0
LINE
  5
239
330
2
100
AcDbEntity
  8
AGBASE
  6
HIDDEN2
 62
     4
100
AcDbLine
 10
63.68591102141901
 20
22.88236782600935
 30
0.0
 11
63.68591102141901
 21
22.65893187773436
 31
0.0
  0
LINE
  5
23A
330
2
100
AcDbEntity
  8
AGBASE
  6
HIDDEN2
 62
     4
100
AcDbLine
 10
63.70179979996301
 20
22.86647904746536
 30
0.0
 11
63.70179979996301
 21
22.67482065627836
 31
0.0
  0
ARC
  5
23B
330
2
100
AcDbEntity
  8
AGBASE
  6
HIDDEN2
 62
     4
100
AcDbCircle
 10
63.91679483463657
 20
22.45883257294586
 30
0.0
 40
0.0491559086204984
100
AcDbArc
 50
270.0
 51
0.0
  0
LINE
  5
23C
330
2
100
AcDbEntity
  8
AGBASE
  6
HIDDEN2
 62
     4
100
AcDbLine
 10
63.89941648310407
 20
22.59537676355835
 30
0.0
 11
63.89941648310407
 21
22.94592294018535
 31
0.0
  0
LINE
  5
23D
330
2
100
AcDbEntity
  8
AGBASE
  6
HIDDEN2
 62
     4
100
AcDbLine
 10
63.96595074325706
 20
22.59421540372743
 30
0.0
 11
63.89941648310407
 21
22.59537676355835
 31
0.0
  0
LINE
  5
23E
330
2
100
AcDbEntity
  8
AGBASE
  6
HIDDEN2
 62
     4
100
AcDbLine
 10
63.96595074325706
 20
22.94708430001627
 30
0.0
 11
63.89941648310407
 21
22.94592294018535
 31
0.0
  0
LWPOLYLINE
  5
23F
330
2
100
AcDbEntity
  8
AGBASE
  6
HIDDEN2
 62
     4
100
AcDbPolyline
 90
        5
 70
     0
 43
0.0
 10
63.98860284492563
 20
22.77064985187185
 42
-0.0580466017354569
 10
63.99404965716514
 20
22.81740934807506
 42
-0.0716918880105696
 10
64.00803731257465
 20
22.85293791134377
 42
-0.1064813979651179
 10
64.0318356944835
 20
22.87951108694536
 42
-0.1583709044631721
 10
64.05495626795041
 20
22.8870227415984
 42
-0.1583709044632171
  0
LWPOLYLINE
  5
240
330
2
100
AcDbEntity
  8
AGBASE
  6
HIDDEN2
 62
     4
100
AcDbPolyline
 90
        5
 70
     0
 43
0.0
 10
64.05495626795041
 20
22.6542769621453
 42
-0.1583709044632171
 10
64.0318356944835
 20
22.66178861679833
 42
-0.1064813979651924
 10
64.00803731257465
 20
22.68836179239993
 42
-0.0716918880105696
 10
63.99404965716514
 20
22.72389035566865
 42
-0.0580466017354569
 10
63.98860284492563
 20
22.77064985187185
 42
-0.0580466017354569
  0
LWPOLYLINE
  5
241
330
2
100
AcDbEntity
  8
AGBASE
  6
HIDDEN2
 62
     4
100
AcDbPolyline
 90
        9
 70
     0
 43
0.0
 10
64.05495626795041
 20
22.8870227415984
 42
-0.2977322976193309
 10
64.06062242149971
 20
22.88332057059301
 42
-0.0584664714595036
 10
64.06990436388989
 20
22.85293791134377
 42
-0.026154332991021
 10
64.07429122816274
 20
22.81869048186847
 42
-0.0187778906522009
 10
64.07609606795969
 20
22.77064985187185
 42
-0.0187778906521601
 10
64.07429122816274
 20
22.72260922187522
 42
-0.0261543329909499
 10
64.06990436388989
 20
22.68836179239993
 42
-0.0584664714595578
 10
64.06062242149971
 20
22.65797913315068
 42
-0.2977322976194862
 10
64.05495626795041
 20
22.6542769621453
 42
-0.2977322976194133
  0
LINE
  5
242
330
2
100
AcDbEntity
  8
AGBASE
  6
HIDDEN2
 62
     4
100
AcDbLine
 10
63.88799642352555
 20
22.63979060473011
 30
0.0
 11
63.89941648310407
 21
22.63959126684868
 31
0.0
  0
LINE
  5
243
330
2
100
AcDbEntity
  8
AGBASE
  6
HIDDEN2
 62
     4
100
AcDbLine
 10
63.93372371611356
 20
22.69276231618615
 30
0.0
 11
63.93372371611356
 21
22.84853738755756
 31
0.0
  0
LINE
  5
244
330
2
100
AcDbEntity
  8
AGBASE
  6
HIDDEN2
 62
     4
100
AcDbLine
 10
63.97799605154288
 20
22.88702274159842
 30
0.0
 11
63.97799605154288
 21
22.65427696214529
 31
0.0
  0
LINE
  5
245
330
2
100
AcDbEntity
  8
AGBASE
  6
HIDDEN2
 62
     4
100
AcDbLine
 10
63.93372371611356
 20
22.84853738755757
 30
0.0
 11
63.97799605154288
 21
22.88702274159842
 31
0.0
  0
LINE
  5
246
330
2
100
AcDbEntity
  8
AGBASE
  6
HIDDEN2
 62
     4
100
AcDbLine
 10
63.93372371611356
 20
22.69276231618615
 30
0.0
 11
63.97799605154288
 21
22.65427696214529
 31
0.0
  0
LINE
  5
247
330
2
100
AcDbEntity
  8
AGBASE
  6
HIDDEN2
 62
     4
100
AcDbLine
 10
63.97799605154288
 20
22.65427696214529
 30
0.0
 11
64.05495626795041
 21
22.6542769621453
 31
0.0
  0
LINE
  5
248
330
2
100
AcDbEntity
  8
AGBASE
  6
HIDDEN2
 62
     4
100
AcDbLine
 10
63.97799605154288
 20
22.88702274159842
 30
0.0
 11
64.05495626795041
 21
22.88702274159829
 31
0.0
  0
LINE
  5
249
330
2
100
AcDbEntity
  8
AGBASE
  6
HIDDEN2
 62
     4
100
AcDbLine
 10
64.06624865781606
 20
22.66191102371136
 30
0.0
 11
64.07617914440606
 21
22.66191102371136
 31
0.0
  0
LINE
  5
24A
330
2
100
AcDbEntity
  8
AGBASE
  6
HIDDEN2
 62
     4
100
AcDbLine
 10
64.06624865781606
 20
22.64353962351986
 30
0.0
 11
64.07617914440606
 21
22.64353962351986
 31
0.0
  0
LINE
  5
24B
330
2
100
AcDbEntity
  8
AGBASE
  6
HIDDEN2
 62
     4
100
AcDbLine
 10
63.88799642352555
 20
22.37491996126037
 30
0.0
 11
63.88799642352555
 21
22.40967666432537
 31
0.0
  0
LINE
  5
24C
330
2
100
AcDbEntity
  8
AGBASE
  6
HIDDEN2
 62
     4
100
AcDbLine
 10
64.06624865781606
 20
23.14800834229186
 30
0.0
 11
64.07617914440606
 21
23.14800834229186
 31
0.0
  0
LINE
  5
24D
330
2
100
AcDbEntity
  8
AGCASE
100
AcDbLine
 10
59.32637303968008
 20
26.2208381224809
 30
0.0
 11
56.20626724327159
 21
26.2208381224809
 31
0.0
  0
LINE
  5
24E
330
2
100
AcDbEntity
  8
AGCASE
 62
     4
100
AcDbLine
 10
59.00835465272941
 20
25.98341652209162
 30
0.0
 11
56.52428563022226
 21
25.98341652209162
 31
0.0
  0
LINE
  5
250
330
2
100
AcDbEntity
  8
AGCASE
 62
     4
100
AcDbLine
 10
55.01656840470484
 20
24.39577398232537
 30
0.0
 11
60.51607187824686
 21
24.39577398232537
 31
0.0
  0
LINE
  5
251
330
2
100
AcDbEntity
  8
AGCASE
  6
CENTER
 62
     1
100
AcDbLine
 10
55.01632014254009
 20
24.27064985129136
 30
0.0
 11
60.51632014041159
 21
24.27064985129136
 31
0.0
  0
LINE
  5
252
330
2
100
AcDbEntity
  8
AGBASE
  6
CENTER
 62
     1
100
AcDbLine
 10
54.91632014254009
 20
24.27064985129136
 30
0.0
 11
60.61632014041158
 21
24.27064985129136
 31
0.0
  0
ARC
  5
253
330
2
100
AcDbEntity
  8
AGCASE
 62
     4
100
AcDbCircle
 10
57.93030364246289
 20
24.39577398232536
 30
0.0
 40
2.162409832179816
100
AcDbArc
 50
147.26675917637
 51
180.0
  0
ARC
  5
254
330
2
100
AcDbEntity
  8
AGCASE
 62
     4
100
AcDbCircle
 10
58.28271633560701
 20
24.39577398232536
 30
0.0
 40
2.267140979948176
100
AcDbArc
 50
145.0950965715171
 51
180.0
  0
LWPOLYLINE
  5
255
330
2
100
AcDbEntity
  8
AGCASE
 62
     4
100
AcDbPolyline
 90
        3
 70
     0
 43
0.0
 10
56.31881721595775
 20
25.79967589158816
 42
0.0997547431647625
 10
55.87247509987359
 20
25.15306351226693
 42
0.1016781047425681
 10
55.71686682524039
 20
24.39577398232534
  0
CIRCLE
  5
256
330
2
100
AcDbEntity
  8
AGCASE
  6
HIDDEN2
 62
     4
100
AcDbCircle
 10
55.64119601121585
 20
25.77064985071086
 30
0.0
 40
0.04518371398449
  0
CIRCLE
  5
257
330
2
100
AcDbEntity
  8
AGCASE
  6
HIDDEN2
 62
     4
100
AcDbCircle
 10
55.64119601121585
 20
25.77064985071086
 30
0.0
 40
0.0386835656771053
  0
ARC
  5
258
330
2
100
AcDbEntity
  8
AGCASE
 62
     4
100
AcDbCircle
 10
55.34252670242445
 20
26.23123253391764
 30
0.0
 40
1.207463017714067
100
AcDbArc
 50
333.5319831463383
 51
349.3381432734518
  0
CIRCLE
  5
259
330
2
100
AcDbEntity
  8
AGCASE
  6
HIDDEN2
 62
     4
100
AcDbCircle
 10
55.64119601121585
 20
25.77064985071086
 30
0.0
 40
0.102977973363489
  0
CIRCLE
  5
25A
330
2
100
AcDbEntity
  8
AGCASE
  6
HIDDEN2
 62
     4
100
AcDbCircle
 10
55.64119601121585
 20
25.77064985071086
 30
0.0
 40
0.0938430982754965
  0
CIRCLE
  5
25B
330
2
100
AcDbEntity
  8
AGBASE
  6
HIDDEN2
 62
     4
100
AcDbCircle
 10
55.64119601121584
 20
25.77064985071086
 30
0.0
 40
0.0575968222220104
  0
CIRCLE
  5
25C
330
2
100
AcDbEntity
  8
AGBASE
  6
HIDDEN2
 62
     4
100
AcDbCircle
 10
55.64119601121584
 20
25.77064985071086
 30
0.0
 40
0.077887535685713
  0
ARC
  5
25D
330
2
100
AcDbEntity
  8
AGBASE
  6
HIDDEN2
 62
     4
100
AcDbCircle
 10
55.64119601121584
 20
25.77064985071086
 30
0.0
 40
0.1764344481444161
100
AcDbArc
 50
236.098795943746
 51
46.89671178072962
  0
CIRCLE
  5
25E
330
2
100
AcDbEntity
  8
AGBASE
  6
HIDDEN2
 62
     4
100
AcDbCircle
 10
55.64119601121584
 20
25.77064985071086
 30
0.0
 40
0.1310585850231843
  0
CIRCLE
  5
25F
330
2
100
AcDbEntity
  8
AGBASE
  6
HIDDEN2
 62
     4
100
AcDbCircle
 10
55.64119601121584
 20
25.77064985071086
 30
0.0
 40
0.1276043327435692
  0
CIRCLE
  5
260
330
2
100
AcDbEntity
  8
AGBASE
  6
HIDDEN2
 62
     4
100
AcDbCircle
 10
55.64119601121584
 20
25.77064985071086
 30
0.0
 40
0.1163728897265643
  0
CIRCLE
  5
261
330
2
100
AcDbEntity
  8
AGBASE
  6
HIDDEN2
 62
     4
100
AcDbCircle
 10
55.64119601121584
 20
25.77064985071086
 30
0.0
 40
0.095829195593499
  0
ARC
  5
262
330
2
100
AcDbEntity
  8
AGBASE
  6
HIDDEN2
 62
     4
100
AcDbCircle
 10
55.64119601121584
 20
25.77064985071086
 30
0.0
 40
0.175273088313499
100
AcDbArc
 50
215.9257902623959
 51
67.06971746207956
  0
LINE
  5
263
330
2
100
AcDbEntity
  8
AGCASE
 62
     4
100
AcDbLine
 10
55.30917076618678
 20
25.72151142260694
 30
0.0
 11
55.56879750689629
 21
25.58317217411447
 31
0.0
  0
LINE
  5
264
330
2
100
AcDbEntity
  8
AGCASE
 62
     4
100
AcDbLine
 10
55.09900520407917
 20
25.15178065291965
 30
0.0
 11
55.38627484651912
 21
25.08837761910162
 31
0.0
  0
ARC
  5
265
330
2
100
AcDbEntity
  8
AGBASE
  6
HIDDEN2
 62
     4
100
AcDbCircle
 10
55.62505599267592
 20
25.74985463121689
 30
0.0
 40
0.1501828627677503
100
AcDbArc
 50
213.1131241928244
 51
236.7845439644186
  0
CIRCLE
  5
266
330
2
100
AcDbEntity
  8
AGBASE
  6
HIDDEN2
 62
     4
100
AcDbCircle
 10
55.89119601102233
 20
25.52089811297236
 30
0.0
 40
0.0429998304865607
  0
CIRCLE
  5
267
330
2
100
AcDbEntity
  8
AGBASE
  6
HIDDEN2
 62
     4
100
AcDbCircle
 10
55.89119601102233
 20
25.52089811297236
 30
0.0
 40
0.0982111979380686
  0
CIRCLE
  5
268
330
2
100
AcDbEntity
  8
AGBASE
  6
HIDDEN2
 62
     4
100
AcDbCircle
 10
55.89119601102233
 20
25.52089811297236
 30
0.0
 40
0.0938430982755
  0
CIRCLE
  5
269
330
2
100
AcDbEntity
  8
AGBASE
  6
HIDDEN2
 62
     4
100
AcDbCircle
 10
55.89119601102233
 20
25.52089811297236
 30
0.0
 40
0.0451837139845
  0
LINE
  5
26B
330
2
100
AcDbEntity
  8
AGCASE
 62
     4
100
AcDbLine
 10
55.67241861209532
 20
26.15295872879945
 30
0.0
 11
55.85297078909654
 21
25.92069873752883
 31
0.0
  0
ARC
  5
26C
330
2
100
AcDbEntity
  8
AGBASE
  6
HIDDEN2
 62
     4
100
AcDbCircle
 10
55.65782913613837
 20
25.79105280411427
 30
0.0
 40
0.1501828627677634
100
AcDbArc
 50
46.21096376005893
 51
69.88238353164793
  0
ARC
  5
26D
330
2
100
AcDbEntity
  8
AGCASE
 62
     4
100
AcDbCircle
 10
56.19715857094069
 20
25.82239063447427
 30
0.0
 40
0.3985515883927964
100
AcDbArc
 50
35.86343950930934
 51
88.6904231722954
  0
ARC
  5
26E
330
2
100
AcDbEntity
  8
AGCASE
 62
     4
100
AcDbCircle
 10
56.41001112229703
 20
25.98979961263149
 30
0.0
 40
0.015516385296875
100
AcDbArc
 50
331.4367286641766
 51
89.77563990090088
  0
ARC
  5
26F
330
2
100
AcDbEntity
  8
AGCASE
 62
     4
100
AcDbCircle
 10
56.47373723690382
 20
26.02233135975369
 30
0.0
 40
0.0572715683341864
100
AcDbArc
 50
345.3399506789695
 51
35.86343950930924
  0
LINE
  5
270
330
2
100
AcDbEntity
  8
AGCASE
 62
     4
100
AcDbLine
 10
56.01557535565884
 20
26.27064985051735
 30
0.0
 11
56.01557535565884
 21
25.97646658762683
 31
0.0
  0
ARC
  5
271
330
2
100
AcDbEntity
  8
AGCASE
 62
     4
100
AcDbCircle
 10
56.34073618894552
 20
25.4124924734595
 30
0.0
 40
0.5968643299667367
100
AcDbArc
 50
83.32908338642026
 51
109.1094397841086
  0
ARC
  5
272
330
2
100
AcDbEntity
  8
AGCASE
 62
     4
100
AcDbCircle
 10
54.33228503824237
 20
27.06081453280577
 30
0.0
 40
2.353036498966978
100
AcDbArc
 50
327.5908103474713
 51
332.7215189914007
  0
ARC
  5
273
330
2
100
AcDbEntity
  8
AGCASE
 62
     4
100
AcDbCircle
 10
57.60233664048879
 20
24.39577398232536
 30
0.0
 40
2.162409832179816
100
AcDbArc
 50
0.0
 51
32.73324082362994
  0
ARC
  5
274
330
2
100
AcDbEntity
  8
AGCASE
 62
     4
100
AcDbCircle
 10
57.24992394734466
 20
24.39577398232536
 30
0.0
 40
2.267140979948176
100
AcDbArc
 50
0.0
 51
34.90490342848286
  0
LWPOLYLINE
  5
275
330
2
100
AcDbEntity
  8
AGCASE
 62
     4
100
AcDbPolyline
 90
        3
 70
     0
 43
0.0
 10
59.81577345771129
 20
24.39577398232534
 42
0.1016781047424649
 10
59.66016518307841
 20
25.1530635122662
 42
0.0997547431648647
 10
59.21382306699392
 20
25.79967589158814
 42
0.0971499687390033
  0
CIRCLE
  5
276
330
2
100
AcDbEntity
  8
AGCASE
  6
HIDDEN2
 62
     4
100
AcDbCircle
 10
59.89144427173584
 20
25.77064985071086
 30
0.0
 40
0.0386835656771053
  0
CIRCLE
  5
277
330
2
100
AcDbEntity
  8
AGCASE
  6
HIDDEN2
 62
     4
100
AcDbCircle
 10
59.89144427173584
 20
25.77064985071086
 30
0.0
 40
0.04518371398449
  0
CIRCLE
  5
278
330
2
100
AcDbEntity
  8
AGCASE
  6
HIDDEN2
 62
     4
100
AcDbCircle
 10
59.89144427173584
 20
25.77064985071086
 30
0.0
 40
0.0938430982754965
  0
CIRCLE
  5
279
330
2
100
AcDbEntity
  8
AGCASE
  6
HIDDEN2
 62
     4
100
AcDbCircle
 10
59.89144427173584
 20
25.77064985071086
 30
0.0
 40
0.102977973363489
  0
ARC
  5
27A
330
2
100
AcDbEntity
  8
AGBASE
  6
HIDDEN2
 62
     4
100
AcDbCircle
 10
59.89144427173584
 20
25.77064985071086
 30
0.0
 40
0.175273088313499
100
AcDbArc
 50
112.9302825379204
 51
324.074209737604
  0
CIRCLE
  5
27B
330
2
100
AcDbEntity
  8
AGBASE
  6
HIDDEN2
 62
     4
100
AcDbCircle
 10
59.89144427173584
 20
25.77064985071086
 30
0.0
 40
0.1310585850231843
  0
CIRCLE
  5
27C
330
2
100
AcDbEntity
  8
AGBASE
  6
HIDDEN2
 62
     4
100
AcDbCircle
 10
59.89144427173584
 20
25.77064985071086
 30
0.0
 40
0.1276043327435692
  0
ARC
  5
27D
330
2
100
AcDbEntity
  8
AGBASE
  6
HIDDEN2
 62
     4
100
AcDbCircle
 10
59.89144427173584
 20
25.77064985071086
 30
0.0
 40
0.1764344481444161
100
AcDbArc
 50
133.1032882192703
 51
303.901204056254
  0
CIRCLE
  5
27E
330
2
100
AcDbEntity
  8
AGBASE
  6
HIDDEN2
 62
     4
100
AcDbCircle
 10
59.89144427173584
 20
25.77064985071086
 30
0.0
 40
0.1163728897265643
  0
CIRCLE
  5
27F
330
2
100
AcDbEntity
  8
AGBASE
  6
HIDDEN2
 62
     4
100
AcDbCircle
 10
59.89144427173584
 20
25.77064985071086
 30
0.0
 40
0.0575968222220104
  0
CIRCLE
  5
280
330
2
100
AcDbEntity
  8
AGBASE
  6
HIDDEN2
 62
     4
100
AcDbCircle
 10
59.89144427173584
 20
25.77064985071086
 30
0.0
 40
0.077887535685713
  0
CIRCLE
  5
281
330
2
100
AcDbEntity
  8
AGBASE
  6
HIDDEN2
 62
     4
100
AcDbCircle
 10
59.89144427173584
 20
25.77064985071086
 30
0.0
 40
0.095829195593499
  0
ARC
  5
282
330
2
100
AcDbEntity
  8
AGCASE
 62
     4
100
AcDbCircle
 10
60.19011358052722
 20
26.23123253391764
 30
0.0
 40
1.207463017714067
100
AcDbArc
 50
190.6618567265481
 51
206.4680168536506
  0
CIRCLE
  5
283
330
2
100
AcDbEntity
  8
AGBASE
  6
HIDDEN2
 62
     4
100
AcDbCircle
 10
59.64144427192934
 20
25.52089811297235
 30
0.0
 40
0.0429998304865607
  0
CIRCLE
  5
284
330
2
100
AcDbEntity
  8
AGBASE
  6
HIDDEN2
 62
     4
100
AcDbCircle
 10
59.64144427192934
 20
25.52089811297235
 30
0.0
 40
0.0982111979380686
  0
CIRCLE
  5
285
330
2
100
AcDbEntity
  8
AGBASE
  6
HIDDEN2
 62
     4
100
AcDbCircle
 10
59.64144427192934
 20
25.52089811297235
 30
0.0
 40
0.0938430982755
  0
CIRCLE
  5
286
330
2
100
AcDbEntity
  8
AGBASE
  6
HIDDEN2
 62
     4
100
AcDbCircle
 10
59.64144427192934
 20
25.52089811297235
 30
0.0
 40
0.0451837139845
  0
ARC
  5
288
330
2
100
AcDbEntity
  8
AGCASE
 62
     4
100
AcDbCircle
 10
59.33548171201099
 20
25.82239063447427
 30
0.0
 40
0.3985515883927964
100
AcDbArc
 50
91.30957682770461
 51
144.1365604906906
  0
ARC
  5
289
330
2
100
AcDbEntity
  8
AGCASE
 62
     4
100
AcDbCircle
 10
59.05890304604785
 20
26.02233135975369
 30
0.0
 40
0.0572715683341864
100
AcDbArc
 50
144.1365604906907
 51
194.6600493210304
  0
LINE
  5
28A
330
2
100
AcDbEntity
  8
AGCASE
 62
     4
100
AcDbLine
 10
59.86022167085636
 20
26.15295872879945
 30
0.0
 11
59.67966949385515
 21
25.92069873752883
 31
0.0
  0
LINE
  5
28B
330
2
100
AcDbEntity
  8
AGCASE
 62
     4
100
AcDbLine
 10
59.51706492729284
 20
26.27064985051735
 30
0.0
 11
59.51706492729284
 21
25.97646658762683
 31
0.0
  0
ARC
  5
28C
330
2
100
AcDbEntity
  8
AGCASE
 62
     4
100
AcDbCircle
 10
59.19190409400616
 20
25.4124924734595
 30
0.0
 40
0.5968643299667367
100
AcDbArc
 50
70.89056021589136
 51
96.67091661357973
  0
ARC
  5
28D
330
2
100
AcDbEntity
  8
AGCASE
 62
     4
100
AcDbCircle
 10
59.12262916065465
 20
25.98979961263149
 30
0.0
 40
0.015516385296875
100
AcDbArc
 50
90.22436009909913
 51
208.5632713358233
  0
ARC
  5
28E
330
2
100
AcDbEntity
  8
AGCASE
 62
     4
100
AcDbCircle
 10
61.20035524470931
 20
27.06081453280577
 30
0.0
 40
2.353036498966978
100
AcDbArc
 50
207.2784810085992
 51
212.4091896525285
  0
ARC
  5
28F
330
2
100
AcDbEntity
  8
AGBASE
  6
HIDDEN2
 62
     4
100
AcDbCircle
 10
59.8748111468133
 20
25.79105280411427
 30
0.0
 40
0.1501828627677634
100
AcDbArc
 50
110.117616468352
 51
133.789036239941
  0
LINE
  5
290
330
2
100
AcDbEntity
  8
AGCASE
 62
     4
100
AcDbLine
 10
60.2234695167649
 20
25.72151142260694
 30
0.0
 11
59.96384277605538
 21
25.58317217411447
 31
0.0
  0
LINE
  5
291
330
2
100
AcDbEntity
  8
AGCASE
 62
     4
100
AcDbLine
 10
60.4336350788725
 20
25.15178065291967
 30
0.0
 11
60.14636543643256
 21
25.08837761910164
 31
0.0
  0
ARC
  5
292
330
2
100
AcDbEntity
  8
AGBASE
  6
HIDDEN2
 62
     4
100
AcDbCircle
 10
59.90758429027575
 20
25.74985463121689
 30
0.0
 40
0.1501828627677503
100
AcDbArc
 50
303.2154560355813
 51
326.8868758071755
  0
ARC
  5
293
330
2
100
AcDbEntity
  8
AGCASE
100
AcDbCircle
 10
70.62307659959336
 20
24.39577398232522
 30
0.0
 40
7.778898448291329
100
AcDbArc
 50
171.3548825222447
 51
179.9999999999991
  0
LWPOLYLINE
  5
294
330
2
100
AcDbEntity
  8
AGCASE
  6
HIDDEN2
 62
     4
100
AcDbPolyline
 90
        5
 70
     0
 43
0.0
 10
63.35669544074264
 20
26.1621030520738
 42
0.1307682207884886
 10
63.26507962321884
 20
26.13513838282719
 42
0.1488184268804247
 10
63.09193293181979
 20
25.94128112774834
 42
0.0725461217493406
 10
62.8554852444424
 20
25.14521176156716
 42
0.0359858066567737
 10
62.80147705896506
 20
24.39577398232536
 42
0.0359858066567737
  0
LWPOLYLINE
  5
295
330
2
100
AcDbEntity
  8
AGCASE
100
AcDbPolyline
 90
        5
 70
     0
 43
0.0
 10
63.35406994741783
 20
26.26236659704248
 42
0.130768220788425
 10
63.21297178994809
 20
26.2208381224809
 42
0.1488184268804929
 10
63.00091491048105
 20
25.98341652209162
 42
0.0725461217493266
 10
62.75622371292602
 20
25.159593000245
 42
0.0359858066567777
 10
62.70117914440606
 20
24.39577398232536
 42
0.0359858066567777
  0
LINE
  5
296
330
2
100
AcDbEntity
  8
AGCASE
  6
CENTER
 62
     1
 48
0.5
100
AcDbLine
 10
62.60117914440606
 20
24.27064985129136
 30
0.0
 11
63.77039463559001
 21
24.27064985129136
 31
0.0
  0
LINE
  5
297
330
2
100
AcDbEntity
  8
AGBASE
  6
CENTER2
 62
     1
 48
0.5
100
AcDbLine
 10
63.540230783105
 20
24.27064985129136
 30
0.0
 11
64.17617914440606
 21
24.27064985129136
 31
0.0
  0
LINE
  5
299
330
2
100
AcDbEntity
  8
AGCASE
  6
HIDDEN2
 62
     4
100
AcDbLine
 10
62.70117914440606
 20
24.31831618692336
 30
0.0
 11
62.71110963099605
 21
24.31831618692336
 31
0.0
  0
LINE
  5
29A
330
2
100
AcDbEntity
  8
AGCASE
  6
HIDDEN2
 62
     4
100
AcDbLine
 10
62.70117914440606
 20
24.34910069535236
 30
0.0
 11
62.71110963099605
 21
24.34910069535236
 31
0.0
  0
LINE
  5
29B
330
2
100
AcDbEntity
  8
AGCASE
 62
     4
100
AcDbLine
 10
62.70117914440606
 20
24.39577398232533
 30
0.0
 11
63.67039463559002
 21
24.39577398232533
 31
0.0
  0
LINE
  5
29C
330
2
100
AcDbEntity
  8
AGBASE
  6
HIDDEN2
 62
     4
100
AcDbLine
 10
63.71570248118909
 20
25.61474121124786
 30
0.0
 11
63.96595074325709
 21
25.61910931091042
 31
0.0
  0
LINE
  5
29D
330
2
100
AcDbEntity
  8
AGBASE
  6
HIDDEN2
 62
     4
100
AcDbLine
 10
63.70179979996301
 20
25.71305302848885
 30
0.0
 11
63.93372371611358
 21
25.69276231502515
 31
0.0
  0
LINE
  5
29E
330
2
100
AcDbEntity
  8
AGBASE
  6
HIDDEN2
 62
     4
100
AcDbLine
 10
63.70179979996301
 20
25.82824667293285
 30
0.0
 11
63.93372371611358
 21
25.84853738639656
 31
0.0
  0
LINE
  5
29F
330
2
100
AcDbEntity
  8
AGBASE
  6
HIDDEN2
 62
     4
100
AcDbLine
 10
63.70152250254207
 20
25.64304551796729
 30
0.0
 11
63.89941648310407
 21
25.63959126568767
 31
0.0
  0
LINE
  5
2A0
330
2
100
AcDbEntity
  8
AGBASE
  6
HIDDEN2
 62
     4
100
AcDbLine
 10
63.71570248118909
 20
25.56608182695686
 30
0.0
 11
63.96595074325707
 21
25.56389794345892
 31
0.0
  0
LINE
  5
2A1
330
2
100
AcDbEntity
  8
AGBASE
  6
HIDDEN2
 62
     4
100
AcDbLine
 10
63.71570248118909
 20
25.47571439898786
 30
0.0
 11
63.96595074325707
 21
25.47789828248578
 31
0.0
  0
LINE
  5
2A2
330
2
100
AcDbEntity
  8
AGBASE
  6
HIDDEN2
 62
     4
100
AcDbLine
 10
63.71570248118909
 20
25.42705501469686
 30
0.0
 11
63.96595074325709
 21
25.42268691503428
 31
0.0
  0
LINE
  5
2A3
330
2
100
AcDbEntity
  8
AGBASE
  6
HIDDEN2
 62
     4
100
AcDbLine
 10
63.70152250254207
 20
25.89825418345442
 30
0.0
 11
63.88799642352557
 21
25.9015090978526
 31
0.0
  0
ARC
  5
2A4
330
2
100
AcDbEntity
  8
AGBASE
100
AcDbCircle
 10
63.70179979996306
 20
25.89614217164634
 30
0.0
 40
0.374379344443
100
AcDbArc
 50
359.9999999999999
 51
88.5000000000004
  0
ARC
  5
2A5
330
2
100
AcDbEntity
  8
AGBASE
  6
HIDDEN2
 62
     4
100
AcDbCircle
 10
63.69683455666805
 20
25.90123913646096
 30
0.0
 40
0.2691161865890001
100
AcDbArc
 50
359.9999999999999
 51
88.50000000000362
  0
LINE
  5
2A6
330
2
100
AcDbEntity
  8
AGCASE
  6
HIDDEN2
 62
     4
100
AcDbLine
 10
63.32679979957601
 20
25.73146976070425
 30
0.0
 11
63.32679979957601
 21
25.80883689205845
 31
0.0
  0
LINE
  5
2A7
330
2
100
AcDbEntity
  8
AGCASE
100
AcDbLine
 10
63.69919304670101
 20
25.67631022810585
 30
0.0
 11
63.69919304670101
 21
25.86399642465685
 31
0.0
  0
ARC
  5
2A8
330
2
100
AcDbEntity
  8
AGCASE
100
AcDbCircle
 10
64.15140956579472
 20
25.47374570824426
 30
0.0
 40
1.22226514658074
100
AcDbArc
 50
147.5243102350509
 51
175.7159411183268
  0
LINE
  5
2A9
330
2
100
AcDbEntity
  8
AGBASE
  6
HIDDEN2
 62
     4
100
AcDbLine
 10
63.68591102141901
 20
25.65893187657336
 30
0.0
 11
63.68591102141901
 21
25.88236782484836
 31
0.0
  0
LINE
  5
2AA
330
2
100
AcDbEntity
  8
AGBASE
  6
HIDDEN2
 62
     4
100
AcDbLine
 10
63.70179979996301
 20
25.67482065511735
 30
0.0
 11
63.70179979996301
 21
25.86647904630435
 31
0.0
  0
LINE
  5
2AB
330
2
100
AcDbEntity
  8
AGCASE
100
AcDbLine
 10
63.69919304670101
 20
25.67631022810585
 30
0.0
 11
63.67039463559002
 21
25.67580754997008
 31
0.0
  0
LINE
  5
2AC
330
2
100
AcDbEntity
  8
AGCASE
  6
HIDDEN2
 62
     4
100
AcDbLine
 10
63.69919304670101
 20
25.72496961239686
 30
0.0
 11
63.32679979957601
 21
25.73146976070425
 31
0.0
  0
LINE
  5
2AD
330
2
100
AcDbEntity
  8
AGCASE
  6
HIDDEN2
 62
     4
100
AcDbLine
 10
63.67039463559002
 20
25.67580754997008
 30
0.0
 11
63.17585640340801
 21
25.66717535301786
 31
0.0
  0
ARC
  5
2AE
330
2
100
AcDbEntity
  8
AGBASE
  6
HIDDEN2
 62
     4
100
AcDbCircle
 10
63.70179979996301
 20
25.65893187657336
 30
0.0
 40
0.015888778544
100
AcDbArc
 50
90.00000000000081
 51
270.0000000000008
  0
LINE
  5
2AF
330
2
100
AcDbEntity
  8
AGBASE
  6
HIDDEN2
 62
     4
100
AcDbLine
 10
63.71570248118909
 20
25.42705501469686
 30
0.0
 11
63.71570248118909
 21
25.61474121124786
 31
0.0
  0
LINE
  5
2B0
330
2
100
AcDbEntity
  8
AGCASE
  6
HIDDEN2
 62
     4
100
AcDbLine
 10
63.67039463559002
 20
26.22199046622636
 30
0.0
 11
63.63961012716103
 21
26.22199046622636
 31
0.0
  0
LINE
  5
2B1
330
2
100
AcDbEntity
  8
AGCASE
  6
HIDDEN2
 62
     4
100
AcDbLine
 10
63.63961012716103
 20
26.16951143386313
 30
0.0
 11
63.35669544074264
 21
26.16210305207379
 31
0.0
  0
LINE
  5
2B2
330
2
100
AcDbEntity
  8
AGCASE
  6
Continuous
100
AcDbLine
 10
63.67039463559002
 20
26.27064985051735
 30
0.0
 11
63.35406994741783
 21
26.26236659704248
 31
0.0
  0
LINE
  5
2B3
330
2
100
AcDbEntity
  8
AGCASE
100
AcDbLine
 10
63.69919304670101
 20
25.86399642465685
 30
0.0
 11
63.67039463559002
 21
25.86449910279263
 31
0.0
  0
ARC
  5
2B4
330
2
100
AcDbEntity
  8
AGCASE
100
AcDbCircle
 10
63.36155650264103
 20
25.97646658762684
 30
0.0
 40
0.2859980137920001
100
AcDbArc
 50
121.3007686957782
 51
180.0
  0
LINE
  5
2B5
330
2
100
AcDbEntity
  8
AGCASE
  6
HIDDEN2
 62
     4
100
AcDbLine
 10
63.67039463559002
 20
25.86449910279263
 30
0.0
 11
63.17585640340801
 21
25.87313129974484
 31
0.0
  0
LINE
  5
2B6
330
2
100
AcDbEntity
  8
AGCASE
  6
HIDDEN2
 62
     4
100
AcDbLine
 10
63.69919304670101
 20
25.81533704036585
 30
0.0
 11
63.32679979957601
 21
25.80883689205845
 31
0.0
  0
LINE
  5
2B7
330
2
100
AcDbEntity
  8
AGBASE
100
AcDbLine
 10
63.70179979996302
 20
26.27064985051735
 30
0.0
 11
63.71159990871007
 21
26.27039322563833
 31
0.0
  0
LINE
  5
2B8
330
2
100
AcDbEntity
  8
AGBASE
  6
HIDDEN2
 62
     4
100
AcDbLine
 10
63.64023078310502
 20
26.17192979603282
 30
0.0
 11
63.7038791971732
 21
26.17026310365414
 31
0.0
  0
LINE
  5
2B9
330
2
100
AcDbEntity
  8
AGBASE
  6
HIDDEN2
 62
     4
100
AcDbLine
 10
63.64023078310502
 20
26.22000436890835
 30
0.0
 11
63.70179979996302
 21
26.22000436890835
 31
0.0
  0
ARC
  5
2BA
330
2
100
AcDbEntity
  8
AGBASE
  6
HIDDEN2
 62
     4
100
AcDbCircle
 10
63.70179979996301
 20
25.88236782484836
 30
0.0
 40
0.015888778544
100
AcDbArc
 50
90.0
 51
270.0
  0
LINE
  5
2BB
330
2
100
AcDbEntity
  8
AGBASE
  6
HIDDEN2
 62
     4
100
AcDbLine
 10
63.89941648310407
 20
25.93207279179599
 30
0.0
 11
63.89941648310407
 21
25.59537676239736
 31
0.0
  0
LINE
  5
2BC
330
2
100
AcDbEntity
  8
AGBASE
  6
HIDDEN2
 62
     4
100
AcDbLine
 10
63.97799605154288
 20
25.6542769609843
 30
0.0
 11
63.97799605154288
 21
25.88702274043742
 31
0.0
  0
LINE
  5
2BD
330
2
100
AcDbEntity
  8
AGBASE
  6
HIDDEN2
 62
     4
100
AcDbLine
 10
63.93372371611358
 20
25.84853738639656
 30
0.0
 11
63.93372371611357
 21
25.69276231502515
 31
0.0
  0
LWPOLYLINE
  5
2BE
330
2
100
AcDbEntity
  8
AGBASE
  6
HIDDEN2
 62
     4
100
AcDbPolyline
 90
        5
 70
     0
 43
0.0
 10
63.98860284492566
 20
25.84309724816083
 42
0.036151698125854
 10
63.99419615283143
 20
25.7658394975154
 42
0.0483844419893875
 10
64.00803731257465
 20
25.7095811426728
 42
0.0916609058334399
 10
64.03426107158134
 20
25.66385908328861
 42
0.2202732167503361
 10
64.05495626795044
 20
25.65427696098442
 42
0.220273216750341
  0
LWPOLYLINE
  5
2BF
330
2
100
AcDbEntity
  8
AGBASE
  6
HIDDEN2
 62
     4
100
AcDbPolyline
 90
        5
 70
     0
 43
0.0
 10
64.05495626795044
 20
25.65427696098442
 42
0.3388819694945489
 10
64.06015092091831
 20
25.65825449317291
 42
0.0381224107369924
 10
64.06989673667351
 20
25.7095811426728
 42
0.0162812246703946
 10
64.07427600858529
 20
25.7649862383703
 42
0.0115798672616751
 10
64.07608528144681
 20
25.84309724816083
 42
0.0115798672616739
  0
LINE
  5
2C0
330
2
100
AcDbEntity
  8
AGBASE
  6
HIDDEN2
 62
     4
100
AcDbLine
 10
63.93372371611357
 20
25.69276231502515
 30
0.0
 11
63.97799605154288
 21
25.6542769609843
 31
0.0
  0
LINE
  5
2C1
330
2
100
AcDbEntity
  8
AGBASE
  6
HIDDEN2
 62
     4
100
AcDbLine
 10
63.97799605154288
 20
25.6542769609843
 30
0.0
 11
64.05495626795044
 21
25.65427696098442
 31
0.0
  0
LINE
  5
2C2
330
2
100
AcDbEntity
  8
AGBASE
  6
HIDDEN2
 62
     4
100
AcDbLine
 10
63.96595074325707
 20
25.59421540256645
 30
0.0
 11
63.89941648310407
 21
25.59537676239736
 31
0.0
  0
LWPOLYLINE
  5
2C3
330
2
100
AcDbEntity
  8
AGBASE
  6
HIDDEN2
 62
     4
100
AcDbPolyline
 90
        5
 70
     0
 43
0.0
 10
63.96595074325706
 20
25.62527282276428
 42
0.1447185696993633
 10
63.96146756758831
 20
25.6404377129639
 42
0.1071751219818525
 10
63.94646330963949
 20
25.65535161535553
 42
0.0776463186743459
 10
63.92596557250386
 20
25.66435482855653
 42
0.0648104110839882
 10
63.89941648310407
 20
25.66781065918664
 42
0.0648104110839882
  0
LINE
  5
2C4
330
2
100
AcDbEntity
  8
AGBASE
  6
HIDDEN2
 62
     4
100
AcDbLine
 10
63.96595074325706
 20
25.62527282276428
 30
0.0
 11
63.89941648310407
 21
25.62630795981768
 31
0.0
  0
LINE
  5
2C5
330
2
100
AcDbEntity
  8
AGBASE
  6
HIDDEN2
 62
     4
100
AcDbLine
 10
64.06624865781606
 20
25.69170248232035
 30
0.0
 11
64.07617914440606
 21
25.69170248232035
 31
0.0
  0
LINE
  5
2C6
330
2
100
AcDbEntity
  8
AGBASE
  6
HIDDEN2
 62
     4
100
AcDbLine
 10
64.06624865781606
 20
25.71057040684136
 30
0.0
 11
64.07617914440606
 21
25.71057040684136
 31
0.0
  0
LINE
  5
2C7
330
2
100
AcDbEntity
  8
AGBASE
  6
HIDDEN2
 62
     4
100
AcDbLine
 10
64.06624865781606
 20
25.20610168806936
 30
0.0
 11
64.07617914440606
 21
25.20610168806936
 31
0.0
  0
LINE
  5
2C8
330
2
100
AcDbEntity
  8
AGBASE
  6
HIDDEN2
 62
     4
100
AcDbLine
 10
63.93372371611358
 20
25.84853738639656
 30
0.0
 11
63.97799605154288
 21
25.88702274043742
 31
0.0
  0
LWPOLYLINE
  5
2C9
330
2
100
AcDbEntity
  8
AGBASE
  6
HIDDEN2
 62
     4
100
AcDbPolyline
 90
        5
 70
     0
 43
0.0
 10
64.05495626795044
 20
25.88702274043741
 42
0.0670070861035149
 10
64.02854211035251
 20
25.88346690344353
 42
0.0794494446676975
 10
64.00803731257465
 20
25.87415726161656
 42
0.1071393611422756
 10
63.99312803036549
 20
25.85886053049157
 42
0.140694359855135
 10
63.98860284492566
 20
25.84309724816083
 42
0.1406943598551575
  0
LWPOLYLINE
  5
2CA
330
2
100
AcDbEntity
  8
AGBASE
  6
HIDDEN2
 62
     4
100
AcDbPolyline
 90
        5
 70
     0
 43
0.0
 10
64.07608528144681
 20
25.84309724816083
 42
0.0492069721360399
 10
64.07432982567659
 20
25.86089152774475
 42
0.0630028852388956
 10
64.06989673667351
 20
25.87415726161656
 42
0.1032485352318464
 10
64.06205219861743
 20
25.88438856043091
 42
0.1796233304502331
 10
64.05495626795044
 20
25.88702274043741
 42
0.1796233304501235
  0
LINE
  5
2CB
330
2
100
AcDbEntity
  8
AGBASE
  6
HIDDEN2
 62
     4
100
AcDbLine
 10
63.97799605154288
 20
25.88702274043742
 30
0.0
 11
64.05495626795044
 21
25.88702274043741
 31
0.0
  0
LINE
  5
2CC
330
2
100
AcDbEntity
  8
AGBASE
  6
HIDDEN2
 62
     4
100
AcDbLine
 10
63.88799642352557
 20
25.9015090978526
 30
0.0
 11
63.89941648310407
 21
25.90170843573403
 31
0.0
  0
LINE
  5
2CD
330
2
100
AcDbEntity
  8
AGBASE
  6
HIDDEN2
 62
     4
100
AcDbLine
 10
63.96595074325706
 20
25.90079050536851
 30
0.0
 11
63.89941648310407
 21
25.89999082371917
 31
0.0
  0
LWPOLYLINE
  5
2CE
330
2
100
AcDbEntity
  8
AGBASE
  6
HIDDEN2
 62
     4
100
AcDbPolyline
 90
        5
 70
     0
 43
0.0
 10
63.96595225576782
 20
25.90079050536851
 42
0.18254399615945
 10
63.96200496918124
 20
25.91124210596197
 42
0.1026286888238406
 10
63.9464643791461
 20
25.9229104222324
 42
0.0618666621164852
 10
63.92639521921405
 20
25.92947024338683
 42
0.0481216336270441
 10
63.89941648310407
 20
25.93207279179599
 42
0.0481216336270473
  0
DIMENSION
  5
31E
330
2
100
AcDbEntity
  8
0
100
AcDbDimension
  2
*D3
 10
59.64144427192934
 20
20.96188838014236
 30
0.0
 11
57.76632014147584
 21
20.96188838014236
 31
0.0
 70
    32
  1
<> (2)
 71
     5
 42
3.750248260907007
  3
STANDARD
100
AcDbAlignedDimension
 13
55.89119601102233
 23
23.02040158961035
 33
0.0
 14
59.64144427192934
 24
23.02040158961035
 34
0.0
100
AcDbRotatedDimension
1001
ACAD
1000
DSTYLE
1002
{
1070
    42
1040
0.063
1070
    44
1040
0.1
1070
   140
1040
0.125
1070
   141
1040
0.0
1070
   176
1070
     1
1070
   177
1070
     1
1070
   178
1070
     4
1070
   271
1070
     3
1070
   272
1070
     3
1002
}
  0
DIMENSION
  5
341
330
2
100
AcDbEntity
  8
0
100
AcDbDimension
  2
*D4
 10
53.08270794917526
 20
23.02040158961035
 30
0.0
 11
53.08270794917525
 21
24.27064985129137
 31
0.0
 70
   160
  1
<>\P(2 PLCS.)
 71
     5
 42
2.500496523362002
  3
STANDARD
100
AcDbAlignedDimension
 13
55.47823110747611
 23
25.52089811297236
 33
0.0
 14
55.47823110747611
 24
23.02040158961035
 34
0.0
 50
90.0
100
AcDbRotatedDimension
1001
ACAD
1000
DSTYLE
1002
{
1070
    42
1040
0.063
1070
    44
1040
0.1
1070
   140
1040
0.125
1070
   141
1040
0.0
1070
   176
1070
     1
1070
   177
1070
     1
1070
   178
1070
     4
1070
   271
1070
     3
1070
   272
1070
     3
1002
}
  0
DIMENSION
  5
34F
330
2
100
AcDbEntity
  8
0
100
AcDbDimension
  2
*D5
 10
60.51581525336782
 20
18.6160231558451
 30
0.0
 11
57.65121186810461
 21
18.6160231558451
 31
0.0
 70
   160
  1
5.505
 71
     5
 42
5.498990223783948
  3
STANDARD
100
AcDbAlignedDimension
 13
55.01682502958387
 23
19.44916533575563
 33
0.0
 14
60.51581525336782
 24
19.44916533575563
 34
0.0
100
AcDbRotatedDimension
1001
ACAD
1000
DSTYLE
1002
{
1070
    42
1040
0.063
1070
    44
1040
0.1
1070
   140
1040
0.125
1070
   141
1040
0.0
1070
   176
1070
     1
1070
   177
1070
     1
1070
   178
1070
     4
1070
   271
1070
     3
1070
   272
1070
     3
1002
}
  0
DIMENSION
  5
35D
330
2
100
AcDbEntity
  8
0
100
AcDbDimension
  2
*D6
 10
64.5626767219452
 20
26.27064985051735
 30
0.0
 11
64.5626767219452
 21
24.27064985129137
 31
0.0
 70
    32
  1
4.005
 71
     5
 42
3.999999998451986
  3
STANDARD
100
AcDbAlignedDimension
 13
63.70179979996301
 23
22.27064985206536
 33
0.0
 14
63.70179979996302
 24
26.27064985051735
 34
0.0
 50
270.0
100
AcDbRotatedDimension
1001
ACAD
1000
DSTYLE
1002
{
1070
    42
1040
0.063
1070
    44
1040
0.1
1070
   140
1040
0.125
1070
   141
1040
0.0
1070
   176
1070
     1
1070
   177
1070
     1
1070
   178
1070
     4
1070
   271
1070
     3
1070
   272
1070
     3
1002
}
  0
DIMENSION
  5
3BB
330
2
100
AcDbEntity
  8
0
100
AcDbDimension
  2
*D7
 10
54.22249743021166
 20
19.19481450120864
 30
0.0
 11
54.22249743021165
 21
19.58390938520219
 31
0.0
 70
   160
  1
<>\P(INSIDE DEPTH)
 71
     5
 42
0.7900943398490057
  3
STANDARD
100
AcDbAlignedDimension
 13
55.31075166759535
 23
19.98490884105765
 33
0.0
 14
55.38597911876124
 24
19.19481450120864
 34
0.0
 50
90.0
100
AcDbRotatedDimension
1001
ACAD
1000
DSTYLE
1002
{
1070
    42
1040
0.063
1070
    44
1040
0.1
1070
   140
1040
0.125
1070
   141
1040
0.0
1070
   176
1070
     1
1070
   177
1070
     1
1070
   178
1070
     4
1070
   271
1070
     3
1070
   272
1070
     3
1002
}
  0
DIMENSION
  5
3CA
330
2
100
AcDbEntity
  8
0
100
AcDbDimension
  2
*D8
 10
52.9006195933938
 20
19.19481450120864
 30
0.0
 11
52.90061959339379
 21
19.82239934767174
 31
0.0
 70
   160
  1
1.165\P(INSIDE DEPTH)
 71
     5
 42
1.164473684291998
  3
STANDARD
100
AcDbAlignedDimension
 13
56.01557535565884
 23
20.35928818550064
 33
0.0
 14
55.38597911876124
 24
19.19481450120864
 34
0.0
 50
90.0
100
AcDbRotatedDimension
1001
ACAD
1000
DSTYLE
1002
{
1070
    42
1040
0.063
1070
    44
1040
0.1
1070
   140
1040
0.125
1070
   141
1040
0.0
1070
   176
1070
     1
1070
   177
1070
     1
1070
   178
1070
     4
1070
   271
1070
     3
1070
   272
1070
     3
1002
}
  0
DIMENSION
  5
436
330
2
100
AcDbEntity
  8
0
100
AcDbDimension
  2
*D10
 10
61.07989851135425
 20
19.08458610005959
 30
0.0
 11
61.07989851135425
 21
19.58489642783814
 31
0.0
 70
    32
  1
1.000
 71
     5
 42
1.000620655557074
  3
STANDARD
100
AcDbAlignedDimension
 13
60.22188861535633
 23
20.08520675561667
 33
0.0
 14
60.14156419937583
 24
19.08458610005959
 34
0.0
 50
90.0
100
AcDbRotatedDimension
1001
ACAD
1000
DSTYLE
1002
{
1070
    42
1040
0.063
1070
    44
1040
0.1
1070
   140
1040
0.125
1070
   141
1040
0.0
1070
   176
1070
     1
1070
   177
1070
     1
1070
   178
1070
     4
1070
   271
1070
     3
1070
   272
1070
     3
1002
}
  0
DIMENSION
  5
44E
330
2
100
AcDbEntity
  8
0
100
AcDbDimension
  2
*D11
 10
59.16004835902898
 20
19.1948145012086
 30
0.0
 11
57.70813328399486
 21
18.83481450120861
 31
0.0
 70
   160
  1
<> MTG BOSS HEIGHT (4)
 71
     5
 42
0.2502482620680126
  3
STANDARD
100
AcDbAlignedDimension
 13
59.54760117365385
 23
19.44506276327661
 33
0.0
 14
59.54323307399127
 24
19.1948145012086
 34
0.0
 50
90.0
100
AcDbRotatedDimension
1001
ACAD
1000
DSTYLE
1002
{
1070
    42
1040
0.063
1070
    44
1040
0.1
1070
   140
1040
0.125
1070
   141
1040
0.0
1070
   176
1070
     1
1070
   177
1070
     1
1070
   178
1070
     4
1070
   271
1070
     3
1070
   272
1070
     3
1002
}
  0
DIMENSION
  5
4B1
330
2
100
AcDbEntity
  8
0
100
AcDbDimension
  2
*D12
 10
52.49671246657936
 20
22.77064985187185
 30
0.0
 11
52.49671246657936
 21
24.7939979250348
 31
0.0
 70
   160
  1
3.005\P(2 PLCS.)
 71
     5
 42
2.999999998839001
  3
STANDARD
100
AcDbAlignedDimension
 13
55.22823110766961
 23
25.77064985071086
 33
0.0
 14
54.85335523889712
 24
22.77064985187185
 34
0.0
 50
90.0
100
AcDbRotatedDimension
1001
ACAD
1000
DSTYLE
1002
{
1070
    42
1040
0.063
1070
    44
1040
0.1
1070
   140
1040
0.125
1070
   141
1040
0.0
1070
   176
1070
     1
1070
   177
1070
     1
1070
   178
1070
     4
1070
   271
1070
     3
1070
   272
1070
     3
1002
}
  0
DIMENSION
  5
4DD
330
2
100
AcDbEntity
  8
0
100
AcDbDimension
  2
*D13
 10
59.89144427173584
 20
26.57385293248196
 30
0.0
 11
57.76632014147584
 21
26.57385293248196
 31
0.0
 70
    32
 71
     5
 42
4.250248260519988
  3
STANDARD
100
AcDbAlignedDimension
 13
55.64119601121585
 23
25.77064985071086
 33
0.0
 14
59.89144427173584
 24
25.77064985071086
 34
0.0
100
AcDbRotatedDimension
1001
ACAD
1000
DSTYLE
1002
{
1070
    42
1040
0.063
1070
    44
1040
0.1
1070
   140
1040
0.125
1070
   141
1040
0.0
1070
   176
1070
     1
1070
   177
1070
     1
1070
   178
1070
     4
1070
   271
1070
     3
1070
   272
1070
     3
1002
}
  0
DIMENSION
  5
4EB
330
2
100
AcDbEntity
  8
0
100
AcDbDimension
  2
*D14
 10
60.26632014050835
 20
20.76305627353092
 30
0.0
 11
57.76632014147584
 21
20.76305627353092
 31
0.0
 70
    32
  1
5.010
 71
     5
 42
4.999999998065007
  3
STANDARD
100
AcDbAlignedDimension
 13
55.26632014244334
 23
22.77064985187185
 33
0.0
 14
60.26632014050835
 24
22.77064985187185
 34
0.0
100
AcDbRotatedDimension
1001
ACAD
1000
DSTYLE
1002
{
1070
    42
1040
0.063
1070
    44
1040
0.1
1070
   140
1040
0.125
1070
   141
1040
0.0
1070
   176
1070
     1
1070
   177
1070
     1
1070
   178
1070
     4
1070
   271
1070
     3
1070
   272
1070
     3
1002
}
  0
DIMENSION
  5
5CD
330
2
100
AcDbEntity
  8
0
100
AcDbDimension
  2
*D15
 10
56.12580375680785
 20
21.23527302303001
 30
0.0
 11
57.76632014147584
 21
21.23527302303001
 31
0.0
 70
    32
 71
     5
 42
3.281032769335993
  3
STANDARD
100
AcDbAlignedDimension
 13
59.40683652614384
 23
22.70858431068436
 33
0.0
 14
56.12580375680785
 24
22.70858431068435
 34
0.0
100
AcDbRotatedDimension
1001
ACAD
1000
DSTYLE
1002
{
1070
    42
1040
0.063
1070
    44
1040
0.1
1070
   140
1040
0.125
1070
   141
1040
0.0
1070
   176
1070
     1
1070
   177
1070
     1
1070
   178
1070
     4
1070
   271
1070
     3
1070
   272
1070
     3
1002
}
  0
DIMENSION
  5
5DB
330
2
100
AcDbEntity
  8
0
100
AcDbDimension
  2
*D16
 10
62.08984362490527
 20
22.56757140110635
 30
0.0
 11
62.08984362490526
 21
23.45833604822936
 31
0.0
 70
   160
 71
     5
 42
1.781529294246002
  3
STANDARD
100
AcDbAlignedDimension
 13
60.24192239480807
 23
24.34910069535236
 33
0.0
 14
60.24192239480807
 24
22.56757140110635
 34
0.0
 50
90.0
100
AcDbRotatedDimension
1001
ACAD
1000
DSTYLE
1002
{
1070
    42
1040
0.063
1070
    44
1040
0.1
1070
   140
1040
0.125
1070
   141
1040
0.0
1070
   176
1070
     1
1070
   177
1070
     1
1070
   178
1070
     4
1070
   271
1070
     3
1070
   272
1070
     3
1002
}
  0
DIMENSION
  5
5E9
330
2
100
AcDbEntity
  8
0
100
AcDbDimension
  2
*D17
 10
59.26582361656586
 20
24.20808778577437
 30
0.0
 11
61.52647883170188
 21
25.49185965020436
 31
0.0
 70
   164
  1
<>\P(4 PLCS.)
 71
     5
 42
0.1410129095779951
  3
STANDARD
100
AcDbRadialDimension
 15
59.37623072290635
 25
24.29580843064872
 35
0.0
 40
0.0
1001
ACAD
1000
DSTYLE
1002
{
1070
    42
1040
0.063
1070
    44
1040
0.1
1070
   140
1040
0.125
1070
   141
1040
0.0
1070
   176
1070
     1
1070
   177
1070
     1
1070
   178
1070
     4
1070
   271
1070
     3
1070
   272
1070
     3
1070
   288
1070
     1
1002
}
  0
INSERT
  5
85B
330
2
100
AcDbEntity
  8
0
100
AcDbBlockReference
 66
     1
  2
B
 10
52.08621562911428
 20
17.09140531368723
 30
0.0
  0
ATTRIB
  5
85C
330
85B
100
AcDbEntity
  8
TEXT
100
AcDbText
 10
63.58594114489287
 20
17.63081035930496
 30
0.0
 40
0.125
  1
DP
 41
0.75
  7
TXT
 72
     1
 11
63.66406614489287
 21
17.63081035930496
 31
0.0
100
AcDbAttribute
  2
NAME
 70
     4
  0
ATTRIB
  5
85D
330
85B
100
AcDbEntity
  8
TEXT
100
AcDbText
 10
64.05476410543124
 20
17.63081035930496
 30
0.0
 40
0.125
  1
5-23-05
 41
0.75
  7
TXT
 72
     1
 11
64.35945160543124
 21
17.63081035930496
 31
0.0
100
AcDbAttribute
  2
DATE
 70
     4
  0
ATTRIB
  5
85E
330
85B
100
AcDbEntity
  8
TEXT
100
AcDbText
 10
66.86983842915871
 20
17.82969304503229
 30
0.0
 40
0.125
  1
PLASTIBOX STYLE I
 41
0.75
  7
TXT
 72
     1
 11
67.61983842915871
 21
17.82969304503229
 31
0.0
100
AcDbAttribute
  2
TITLE1
 70
     4
  0
ATTRIB
  5
85F
330
85B
100
AcDbEntity
  8
TEXT
100
AcDbText
 10
66.7448384291587
 20
17.60239760276336
 30
0.0
 40
0.125
  1
WITH DISPLAY WINDOW
 41
0.75
  7
TXT
 72
     1
 11
67.61983842915871
 21
17.60239760276336
 31
0.0
100
AcDbAttribute
  2
TITLE2
 70
     4
  0
ATTRIB
  5
860
330
85B
100
AcDbEntity
  8
TEXT
100
AcDbText
 10
67.20713528423411
 20
17.20957955227673
 30
0.0
 40
0.156
  1
PT-11754-DW
 41
0.75
  7
TXT
 72
     1
 11
67.81163528423411
 21
17.20957955227673
 31
0.0
100
AcDbAttribute
  2
PART
 70
     4
  0
ATTRIB
  5
861
330
85B
100
AcDbEntity
  8
TEXT
100
AcDbText
 10
67.20713528423411
 20
26.39404614972371
 30
0.0
 40
0.156
  1
PT-11754-DW
 41
0.75
  7
TXT
 72
     1
 11
67.81163528423411
 21
26.39404614972371
 31
0.0
100
AcDbAttribute
  2
PART
 70
     4
  0
ATTRIB
  5
862
330
85B
100
AcDbEntity
  8
TEXT
100
AcDbText
 10
59.24311323326503
 20
18.2734176487848
 30
0.0
 40
0.125
  1

 41
4.93641642638573
  7
TXT
 72
     5
 11
63.1511095708204
 21
18.2734176487848
 31
0.0
100
AcDbAttribute
  2
CUTSIZE
 70
     4
  0
ATTRIB
  5
863
330
85B
100
AcDbEntity
  8
TEXT
100
AcDbText
 10
59.41038946184159
 20
17.37818414064843
 30
0.0
 40
0.125
  1

 41
0.75
  7
TXT
 72
     1
 11
59.41038946184159
 21
17.37818414064843
 31
0.0
100
AcDbAttribute
  2
QTY
 70
     4
  0
ATTRIB
  5
864
330
85B
100
AcDbEntity
  8
TEXT
100
AcDbText
 10
60.32526983164128
 20
17.37818414064843
 30
0.0
 40
0.125
  1

 41
0.75
  7
TXT
 72
     1
 11
60.32526983164128
 21
17.37818414064843
 31
0.0
100
AcDbAttribute
  2
USED
 70
     4
  0
ATTRIB
  5
865
330
85B
100
AcDbEntity
  8
TEXT
100
AcDbText
 10
63.91019685202832
 20
18.04693768475747
 30
0.0
 40
0.125
  1
AS NOTED
 41
0.75
  7
TXT
 72
     1
 11
64.26957185202832
 21
18.04693768475747
 31
0.0
100
AcDbAttribute
  2
MAT
 70
     4
  0
ATTRIB
  5
866
330
85B
100
AcDbEntity
  8
TEXT
100
AcDbText
 10
63.89457185202832
 20
17.8350595215479
 30
0.0
 40
0.125
  1
SEE SPEC.
 41
0.75
  7
TXT
 72
     1
 11
64.26957185202832
 21
17.8350595215479
 31
0.0
100
AcDbAttribute
  2
FINISH
 70
     4
  0
SEQEND
  5
867
330
85B
100
AcDbEntity
  8
0
  0
CIRCLE
  5
91C
330
2
100
AcDbEntity
  8
AG-54C-TW
  6
HIDDEN2
 62
     4
100
AcDbCircle
 10
59.24232014147584
 20
24.04202224516735
 30
0.0
 40
0.094
  0
CIRCLE
  5
91D
330
2
100
AcDbEntity
  8
AG-54C-TW
  6
HIDDEN2
 62
     4
100
AcDbCircle
 10
59.24232014147584
 20
24.04202224516735
 30
0.0
 40
0.0974910129856431
  0
CIRCLE
  5
91E
330
2
100
AcDbEntity
  8
AG-54C-TW
  6
HIDDEN2
 62
     4
100
AcDbCircle
 10
56.29032014147584
 20
24.04202224516735
 30
0.0
 40
0.0974910129856431
  0
CIRCLE
  5
91F
330
2
100
AcDbEntity
  8
AG-54C-TW
  6
HIDDEN2
 62
     4
100
AcDbCircle
 10
56.29032014147584
 20
24.04202224516735
 30
0.0
 40
0.094
  0
LINE
  5
920
330
2
100
AcDbEntity
  8
0
  6
CENTER2
 62
     1
100
AcDbLine
 10
59.27232014147584
 20
22.82202224516734
 30
0.0
 11
56.26032014147584
 21
22.82202224516734
 31
0.0
  0
LINE
  5
921
330
2
100
AcDbEntity
  8
0
  6
CENTER2
 62
     1
100
AcDbLine
 10
56.26032014147584
 20
24.04202224516735
 30
0.0
 11
59.27232014147584
 21
24.04202224516735
 31
0.0
  0
LWPOLYLINE
  5
922
330
2
100
AcDbEntity
  8
AG-54C-TW
100
AcDbPolyline
 90
        8
 70
     1
 43
0.0
 10
56.49232014147585
 20
23.11312782579138
 10
59.04032014147585
 20
23.11312782579138
 42
0.4142135623730951
 10
59.06921456085181
 20
23.14202224516735
 10
59.0692145608518
 20
23.72202224516735
 42
0.4142135623731311
 10
59.04032014147585
 20
23.7509166645433
 10
56.49232014147585
 20
23.7509166645433
 42
0.4142135623730771
 10
56.46342572209988
 20
23.72202224516735
 10
56.46342572209988
 20
23.14202224516735
 42
0.4142135623730951
  0
LWPOLYLINE
  5
923
330
2
100
AcDbEntity
  8
AG-54C-TW
100
AcDbPolyline
 90
        8
 70
     1
 43
0.0
 10
56.49232014147585
 20
23.01702224516735
 10
59.04032014147585
 20
23.01702224516735
 42
0.414213562373085
 10
59.16532014147585
 20
23.14202224516734
 10
59.16532014147584
 20
23.72202224516734
 42
0.414213562373135
 10
59.04032014147584
 20
23.84702224516734
 10
56.49232014147584
 20
23.84702224516734
 42
0.4142135623730726
 10
56.36732014147585
 20
23.72202224516735
 10
56.36732014147585
 20
23.14202224516735
 42
0.4142135623730934
  0
LWPOLYLINE
  5
924
330
2
100
AcDbEntity
  8
AG-54C-TW
100
AcDbPolyline
 90
        8
 70
     1
 43
0.0
 10
56.49232014147585
 20
23.11702224516734
 10
59.04032014147585
 20
23.11702224516734
 42
0.4142135623730959
 10
59.06532014147585
 20
23.14202224516735
 10
59.06532014147585
 20
23.72202224516735
 42
0.4142135623730951
 10
59.04032014147585
 20
23.74702224516734
 10
56.49232014147585
 20
23.74702224516734
 42
0.4142135623730951
 10
56.46732014147585
 20
23.72202224516735
 10
56.46732014147585
 20
23.14202224516735
 42
0.4142135623730951
  0
LINE
  5
925
330
2
100
AcDbEntity
  8
0
  6
CENTER2
 62
     1
100
AcDbLine
 10
56.26732014147584
 20
23.43202224516735
 30
0.0
 11
59.26532014147585
 21
23.43202224516735
 31
0.0
  0
LINE
  5
926
330
2
100
AcDbEntity
  8
0
  6
CENTER2
 62
     1
100
AcDbLine
 10
56.29032014147584
 20
22.79202224516735
 30
0.0
 11
56.29032014147584
 21
24.07202224516735
 31
0.0
  0
CIRCLE
  5
927
330
2
100
AcDbEntity
  8
AG-54C-TW
  6
HIDDEN2
 62
     4
100
AcDbCircle
 10
56.29032014147584
 20
22.82202224516734
 30
0.0
 40
0.094
  0
CIRCLE
  5
928
330
2
100
AcDbEntity
  8
AG-54C-TW
  6
HIDDEN2
 62
     4
100
AcDbCircle
 10
56.29032014147584
 20
22.82202224516734
 30
0.0
 40
0.0974910129856431
  0
LINE
  5
929
330
2
100
AcDbEntity
  8
0
 62
     1
100
AcDbLine
 10
56.29032014147584
 20
22.79202224516735
 30
0.0
 11
56.29032014147584
 21
22.85202224516734
 31
0.0
  0
LINE
  5
92A
330
2
100
AcDbEntity
  8
0
 62
     1
100
AcDbLine
 10
56.26032014147584
 20
22.82202224516734
 30
0.0
 11
56.32032014147585
 21
22.82202224516734
 31
0.0
  0
CIRCLE
  5
92B
330
2
100
AcDbEntity
  8
AG-54C-TW
  6
HIDDEN2
 62
     4
100
AcDbCircle
 10
56.29032014147584
 20
22.82202224516734
 30
0.0
 40
0.043
  0
CIRCLE
  5
92C
330
2
100
AcDbEntity
  8
AG-54C-TW
  6
HIDDEN2
 62
     4
100
AcDbCircle
 10
56.29032014147584
 20
22.82202224516734
 30
0.0
 40
0.0412546264418488
  0
LINE
  5
92D
330
2
100
AcDbEntity
  8
0
 62
     1
100
AcDbLine
 10
56.29032014147584
 20
24.01202224516735
 30
0.0
 11
56.29032014147584
 21
24.07202224516735
 31
0.0
  0
LINE
  5
92E
330
2
100
AcDbEntity
  8
0
 62
     1
100
AcDbLine
 10
56.26032014147584
 20
24.04202224516735
 30
0.0
 11
56.32032014147585
 21
24.04202224516735
 31
0.0
  0
CIRCLE
  5
92F
330
2
100
AcDbEntity
  8
AG-54C-TW
  6
HIDDEN2
 62
     4
100
AcDbCircle
 10
56.29032014147584
 20
24.04202224516735
 30
0.0
 40
0.0412546264418488
  0
CIRCLE
  5
930
330
2
100
AcDbEntity
  8
AG-54C-TW
  6
HIDDEN2
 62
     4
100
AcDbCircle
 10
56.29032014147584
 20
24.04202224516735
 30
0.0
 40
0.043
  0
LINE
  5
931
330
2
100
AcDbEntity
  8
0
  6
CENTER2
 62
     1
100
AcDbLine
 10
59.24232014147584
 20
22.79202224516735
 30
0.0
 11
59.24232014147584
 21
24.07202224516735
 31
0.0
  0
CIRCLE
  5
932
330
2
100
AcDbEntity
  8
AG-54C-TW
  6
HIDDEN2
 62
     4
100
AcDbCircle
 10
59.24232014147584
 20
22.82202224516734
 30
0.0
 40
0.0974910129856431
  0
CIRCLE
  5
933
330
2
100
AcDbEntity
  8
AG-54C-TW
  6
HIDDEN2
 62
     4
100
AcDbCircle
 10
59.24232014147584
 20
22.82202224516734
 30
0.0
 40
0.094
  0
LINE
  5
934
330
2
100
AcDbEntity
  8
0
 62
     1
100
AcDbLine
 10
59.24232014147584
 20
22.79202224516735
 30
0.0
 11
59.24232014147584
 21
22.85202224516734
 31
0.0
  0
LINE
  5
935
330
2
100
AcDbEntity
  8
0
 62
     1
100
AcDbLine
 10
59.21232014147585
 20
22.82202224516734
 30
0.0
 11
59.27232014147584
 21
22.82202224516734
 31
0.0
  0
CIRCLE
  5
936
330
2
100
AcDbEntity
  8
AG-54C-TW
  6
HIDDEN2
 62
     4
100
AcDbCircle
 10
59.24232014147584
 20
22.82202224516734
 30
0.0
 40
0.0412546264418488
  0
CIRCLE
  5
937
330
2
100
AcDbEntity
  8
AG-54C-TW
  6
HIDDEN2
 62
     4
100
AcDbCircle
 10
59.24232014147584
 20
22.82202224516734
 30
0.0
 40
0.043
  0
LINE
  5
938
330
2
100
AcDbEntity
  8
0
 62
     1
100
AcDbLine
 10
59.24232014147584
 20
24.01202224516735
 30
0.0
 11
59.24232014147584
 21
24.07202224516735
 31
0.0
  0
LINE
  5
939
330
2
100
AcDbEntity
  8
0
 62
     1
100
AcDbLine
 10
59.21232014147585
 20
24.04202224516735
 30
0.0
 11
59.27232014147584
 21
24.04202224516735
 31
0.0
  0
CIRCLE
  5
93A
330
2
100
AcDbEntity
  8
AG-54C-TW
  6
HIDDEN2
 62
     4
100
AcDbCircle
 10
59.24232014147584
 20
24.04202224516735
 30
0.0
 40
0.043
  0
CIRCLE
  5
93B
330
2
100
AcDbEntity
  8
AG-54C-TW
  6
HIDDEN2
 62
     4
100
AcDbCircle
 10
59.24232014147584
 20
24.04202224516735
 30
0.0
 40
0.0412546264418488
  0
DIMENSION
  5
F0E
330
2
100
AcDbEntity
  8
0
100
AcDbDimension
  2
*D22
 10
59.24232014147584
 20
21.46565007987034
 30
0.0
 11
57.76632014147584
 21
21.46565007987034
 31
0.0
 70
    32
 71
     5
 42
2.951999999999998
  3
STANDARD
100
AcDbAlignedDimension
 13
56.29032014147584
 23
22.82202224516734
 33
0.0
 14
59.24232014147584
 24
22.82202224516734
 34
0.0
100
AcDbRotatedDimension
1001
ACAD
1000
DSTYLE
1002
{
1070
    42
1040
0.063
1070
    44
1040
0.1
1070
   140
1040
0.125
1070
   141
1040
0.0
1070
   176
1070
     1
1070
   177
1070
     1
1070
   178
1070
     4
1070
   271
1070
     3
1070
   272
1070
     3
1002
}
  0
DIMENSION
  5
F1C
330
2
100
AcDbEntity
  8
0
100
AcDbDimension
  2
*D23
 10
59.16532014147585
 20
21.70945786887175
 30
0.0
 11
57.76632014147585
 21
21.70945786887175
 31
0.0
 70
    32
 71
     5
 42
2.798000000000001
  3
STANDARD
100
AcDbAlignedDimension
 13
56.36732014147585
 23
23.14202224516735
 33
0.0
 14
59.16532014147585
 24
23.14202224516734
 34
0.0
100
AcDbRotatedDimension
1001
ACAD
1000
DSTYLE
1002
{
1070
    42
1040
0.063
1070
    44
1040
0.1
1070
   140
1040
0.125
1070
   141
1040
0.0
1070
   176
1070
     1
1070
   177
1070
     1
1070
   178
1070
     4
1070
   271
1070
     3
1070
   272
1070
     3
1002
}
  0
DIMENSION
  5
F2A
330
2
100
AcDbEntity
  8
0
100
AcDbDimension
  2
*D24
 10
59.06532014147585
 20
21.99077455586117
 30
0.0
 11
57.76632014147585
 21
21.99077455586117
 31
0.0
 70
    32
 71
     5
 42
2.597999999999998
  3
STANDARD
100
AcDbAlignedDimension
 13
56.46732014147585
 23
23.14202224516735
 33
0.0
 14
59.06532014147585
 24
23.14202224516735
 34
0.0
100
AcDbRotatedDimension
1001
ACAD
1000
DSTYLE
1002
{
1070
    42
1040
0.063
1070
    44
1040
0.1
1070
   140
1040
0.125
1070
   141
1040
0.0
1070
   176
1070
     1
1070
   177
1070
     1
1070
   178
1070
     4
1070
   271
1070
     3
1070
   272
1070
     3
1002
}
  0
DIMENSION
  5
F75
330
2
100
AcDbEntity
  8
0
100
AcDbDimension
  2
*D25
 10
54.27034347459561
 20
23.74702224516735
 30
0.0
 11
54.75103583475931
 21
24.11127723097576
 31
0.0
 70
   160
 71
     5
 42
0.629999999999999
  3
STANDARD
100
AcDbAlignedDimension
 13
56.49232014147585
 23
23.11702224516734
 33
0.0
 14
56.49232014147585
 24
23.74702224516734
 34
0.0
 50
90.0
100
AcDbRotatedDimension
1001
ACAD
1000
DSTYLE
1002
{
1070
    42
1040
0.063
1070
    44
1040
0.1
1070
   140
1040
0.125
1070
   141
1040
0.0
1070
   176
1070
     1
1070
   177
1070
     1
1070
   178
1070
     4
1070
   271
1070
     3
1070
   272
1070
     3
1002
}
  0
DIMENSION
  5
F98
330
2
100
AcDbEntity
  8
0
100
AcDbDimension
  2
*D26
 10
60.96428020236253
 20
23.84702224516734
 30
0.0
 11
60.96428020236252
 21
23.47362608498124
 31
0.0
 70
   160
 71
     5
 42
0.8299999999999982
  3
STANDARD
100
AcDbAlignedDimension
 13
59.04032014147585
 23
23.01702224516735
 33
0.0
 14
59.04032014147584
 24
23.84702224516734
 34
0.0
 50
90.0
100
AcDbRotatedDimension
1001
ACAD
1000
DSTYLE
1002
{
1070
    42
1040
0.063
1070
    44
1040
0.1
1070
   140
1040
0.125
1070
   141
1040
0.0
1070
   176
1070
     1
1070
   177
1070
     1
1070
   178
1070
     4
1070
   271
1070
     3
1070
   272
1070
     3
1002
}
  0
DIMENSION
  5
FE3
330
2
100
AcDbEntity
  8
0
100
AcDbDimension
  2
*D27
 10
61.50864300859305
 20
22.82202224516734
 30
0.0
 11
61.50864300859304
 21
23.43202224516735
 31
0.0
 70
    32
 71
     5
 42
1.220000000000002
  3
STANDARD
100
AcDbAlignedDimension
 13
59.24232014147584
 23
24.04202224516735
 33
0.0
 14
59.24232014147584
 24
22.82202224516734
 34
0.0
 50
90.0
100
AcDbRotatedDimension
1001
ACAD
1000
DSTYLE
1002
{
1070
    42
1040
0.063
1070
    44
1040
0.1
1070
   140
1040
0.125
1070
   141
1040
0.0
1070
   176
1070
     1
1070
   177
1070
     1
1070
   178
1070
     4
1070
   271
1070
     3
1070
   272
1070
     3
1002
}
  0
DIMENSION
  5
101A
330
2
100
AcDbEntity
  8
0
100
AcDbDimension
  2
*D28
 10
53.73739475021573
 20
23.43202224516735
 30
0.0
 11
53.73739475021572
 21
23.84871499298035
 31
0.0
 70
   160
 71
     5
 42
0.8386276061240067
  3
STANDARD
100
AcDbAlignedDimension
 13
55.34805615689439
 23
24.27064985129136
 33
0.0
 14
56.69905615583015
 24
23.43202224516735
 34
0.0
 50
90.0
100
AcDbRotatedDimension
1001
ACAD
1000
DSTYLE
1002
{
1070
    42
1040
0.063
1070
    44
1040
0.1
1070
   140
1040
0.125
1070
   141
1040
0.0
1070
   176
1070
     1
1070
   177
1070
     1
1070
   178
1070
     4
1070
   271
1070
     3
1070
   272
1070
     3
1002
}
  0
LEADER
  5
10BC
330
2
100
AcDbEntity
  8
0
100
AcDbLeader
  3
STANDARD$7
 73
     0
 40
0.163881309686221
 41
0.8049965893587994
 76
     3
 10
59.12870848912416
 20
23.81041059281566
 30
0.0
 10
61.13348687334544
 20
24.88653241271118
 30
0.0
 10
61.26488477602975
 20
24.88653241271118
 30
0.0
340
10BD
213
0.0
223
-0.0625
233
0.0
1001
ACAD
1000
DSTYLE
1002
{
1070
   147
1040
0.09
1070
    77
1070
     0
1070
    42
1040
0.063
1070
   141
1040
0.0
1070
   272
1070
     3
1002
}
  0
MTEXT
  5
10BD
102
{ACAD_REACTORS
330
10BC
102
}
330
2
100
AcDbEntity
  8
0
 62
     4
100
AcDbMText
 10
61.35488477602976
 20
24.94903241271118
 30
0.0
 40
0.125
 41
0.0
 71
     1
 72
     1
  1
\A1;R0.025 (4)
 73
     1
 44
1.0
  0
LEADER
  5
10BF
330
2
100
AcDbEntity
  8
0
100
AcDbLeader
  3
STANDARD$7
 73
     0
 40
0.3381082310140973
 41
1.282230559345156
 76
     3
 10
56.96629578563747
 20
23.84702224516734
 30
0.0
 10
54.71376007514042
 20
25.05532240573656
 30
0.0
 10
54.58236213011351
 20
25.05532240573656
 30
0.0
340
10C0
213
0.0
223
0.0625
233
0.0
1001
ACAD
1000
DSTYLE
1002
{
1070
   147
1040
0.09
1070
    77
1070
     0
1070
    42
1040
0.063
1070
   141
1040
0.0
1070
   272
1070
     3
1002
}
  0
MTEXT
  5
10C0
102
{ACAD_REACTORS
330
10BF
102
}
330
2
100
AcDbEntity
  8
0
 62
     4
100
AcDbMText
 10
54.4923621301135
 20
24.99282240573656
 30
0.0
 40
0.125
 41
0.0
 71
     9
 72
     1
  1
BEVEL 30°\PSEE DETAIL "A"
 73
     1
 44
1.0
  0
LINE
  5
1103
330
2
100
AcDbEntity
  8
AG-54C-TW
  6
Continuous
 48
0.5
100
AcDbLine
 10
64.88342314225318
 20
20.44813660850555
 30
0.0
 11
64.11596033830869
 21
20.44813660850555
 31
0.0
  0
LINE
  5
1104
102
{ACAD_REACTORS
330
110C
102
}
330
2
100
AcDbEntity
  8
AG-54C-TW
  6
Continuous
100
AcDbLine
 10
64.11424015173122
 20
20.67127459811723
 30
0.0
 11
65.70027637572429
 21
20.67127459811723
 31
0.0
  0
LINE
  5
1105
102
{ACAD_REACTORS
330
110C
102
}
330
2
100
AcDbEntity
  8
AG-54C-TW
  6
Continuous
100
AcDbLine
 10
64.16392517345702
 20
20.27008293988125
 30
0.0
 11
65.65059135399852
 21
20.27008293988127
 31
0.0
  0
CIRCLE
  5
1106
102
{ACAD_REACTORS
330
110C
102
}
330
2
100
AcDbEntity
  8
0
  6
CENTER2
100
AcDbCircle
 10
64.90725826372775
 20
20.56581240562406
 30
0.0
 40
0.8
  0
MTEXT
  5
1107
330
2
100
AcDbEntity
  8
0
100
AcDbMText
 10
64.41939851991495
 20
19.43990069876998
 30
0.0
 40
0.125
 41
1.343009027312919
 71
     1
 72
     5
  1
\L\C4;DETAIL "A"\P\lSCALE 4:1
 73
     1
 44
1.0
1001
ACAD
1000
MTEXTBEGIN
1070
    73
1070
     1
1070
    44
1040
1.0
1070
    74
1070
     0
1000
MTEXTEND
  0
HATCH
  5
110C
330
2
100
AcDbEntity
  8
0
100
AcDbHatch
 10
0.0
 20
0.0
 30
0.0
210
0.0
220
0.0
230
1.0
  2
ANSI31
 70
     0
 71
     1
 91
        1
 92
        7
 72
     1
 73
     1
 93
        6
 10
65.26990947735942
 20
20.67127459811723
 42
0.0
 10
64.8834231422532
 20
20.44813660850556
 42
0.0
 10
64.86784546474936
 20
20.27008293988126
 42
0.0
 10
65.65059135399852
 20
20.27008293988127
 42
0.0949450242715853
 10
65.70725826372775
 20
20.56581240562406
 42
0.0330651890193719
 10
65.70027637572429
 20
20.67127459811723
 42
0.0
 97
        5
330
1106
330
1104
330
110E
330
110D
330
1105
 75
     0
 76
     1
 52
90.0
 41
0.75
 77
     0
 78
     1
 53
135.0
 43
50.08212966216142
 44
22.31245836083601
 45
-0.0662912607362388
 46
-0.0662912607362388
 79
     0
 47
0.010229507595395
 98
        1
 10
65.48265904923255
 20
20.50437048217863
  0
LINE
  5
110D
102
{ACAD_REACTORS
330
110C
102
}
330
2
100
AcDbEntity
  8
AG-54C-TW
  6
Continuous
 48
0.2
100
AcDbLine
 10
64.86784546474936
 20
20.2700829398812
 30
0.0
 11
64.8834231422532
 21
20.44813660850555
 31
0.0
  0
LINE
  5
110E
102
{ACAD_REACTORS
330
110C
102
}
330
2
100
AcDbEntity
  8
AG-54C-TW
  6
Continuous
 48
0.5
100
AcDbLine
 10
64.88342314225318
 20
20.44813660850555
 30
0.0
 11
65.26784546474934
 21
20.6700829398812
 31
0.0
  0
DIMENSION
  5
117B
330
2
100
AcDbEntity
  8
0
100
AcDbDimension
  2
*D29
 10
65.26784546474934
 20
19.75164330412901
 30
0.0
 11
66.1275913719799
 21
19.75164330412901
 31
0.0
 70
    32
  1
<> REF
 71
     5
 42
0.0999999999999943
  3
STANDARD
100
AcDbAlignedDimension
 13
64.86784546474936
 23
20.2700829398812
 33
0.0
 14
65.26784546474934
 24
20.6700829398812
 34
0.0
100
AcDbRotatedDimension
1001
ACAD
1000
DSTYLE
1002
{
1070
   144
1040
0.25
1070
    42
1040
0.063
1070
    44
1040
0.1
1070
   140
1040
0.125
1070
   141
1040
0.0
1070
   176
1070
     1
1070
   177
1070
     1
1070
   178
1070
     4
1070
   271
1070
     3
1070
   272
1070
     3
1002
}
  0
DIMENSION
  5
11F4
330
2
100
AcDbEntity
  8
0
100
AcDbDimension
  2
*D30
 10
63.12306667680533
 20
20.44813660850555
 30
0.0
 11
63.60444116520914
 21
20.80813660850556
 31
0.0
 70
    32
 71
     5
 42
0.0445134171560735
  3
STANDARD
100
AcDbAlignedDimension
 13
64.16392517345702
 23
20.27008293988125
 33
0.0
 14
64.11596033830869
 24
20.44813660850555
 34
0.0
 50
90.0
100
AcDbRotatedDimension
1001
ACAD
1000
DSTYLE
1002
{
1070
   144
1040
0.25
1070
    40
1040
1.0
1070
    42
1040
0.063
1070
    44
1040
0.1
1070
   140
1040
0.125
1070
   141
1040
0.0
1070
   176
1070
     1
1070
   177
1070
     1
1070
   178
1070
     4
1070
   271
1070
     3
1070
   272
1070
     3
1002
}
  0
DIMENSION
  5
1224
330
2
100
AcDbEntity
  8
0
100
AcDbDimension
  2
*D31
 10
65.70027637572429
 20
20.67127459811723
 30
0.0
 11
66.60298206954556
 21
20.9813404051182
 31
0.0
 70
   162
  1
<> BEVEL\PPER SIDE
 71
     5
 42
0.5235987755982804
  3
STANDARD
100
AcDb2LineAngularDimension
 13
64.88342314225318
 23
20.44813660850555
 33
0.0
 14
65.26784546474934
 24
20.6700829398812
 34
0.0
 15
64.11424015173122
 25
20.67127459811723
 35
0.0
 16
66.55602682651153
 26
21.13938303098194
 36
0.0
1001
ACAD
1000
DSTYLE
1002
{
1070
    42
1040
0.063
1070
    44
1040
0.1
1070
   140
1040
0.125
1070
   141
1040
0.0
1070
   176
1070
     1
1070
   177
1070
     1
1070
   178
1070
     4
1070
   271
1070
     3
1070
   272
1070
     3
1002
}
  0
MTEXT
  5
12BD
330
2
100
AcDbEntity
  8
0
100
AcDbMText
 10
64.94023929862264
 20
24.65377301465434
 30
0.0
 40
0.125
 41
4.881999999999999
 71
     1
 72
     5
  3
{\C4;NOTES:\P  1) PC BOARD BOSSES WILL ACCEPT A\P      #4 X 1/4" THREAD FORMING SCREW\P  2) MATERIAL: ABS - UL94-5VA\P  3) FINISH: BLACK TEXTURE\P  4) DIMENSIONS ARE TO THEORETICAL\P      SHARP CORNERS.\P  5) INCLUDES (4) #4-24 x 5/8 HI-LOW\P      TH
  1
READ FORMING, CSK, OVAL HEAD,\P      PHILLIPS DRIVE SCREWS FOR\P      ATTACHING BODY TO COVER\P      (MAX TORQUE 4.5 IN-LBS)}
 73
     1
 44
1.0
1001
ACAD
1000
MTEXTBEGIN
1070
    73
1070
     1
1070
    44
1040
1.0
1070
    74
1070
     0
1000
MTEXTEND
  0
LINE
  5
1410
330
2
100
AcDbEntity
  8
AGBASE
  6
HIDDEN2
 62
     4
100
AcDbLine
 10
56.19632014147584
 20
20.15928818550063
 30
0.0
 11
56.38432014147585
 21
20.15928818550063
 31
0.0
  0
LINE
  5
1411
330
2
100
AcDbEntity
  8
AGBASE
  6
HIDDEN2
 62
     4
100
AcDbLine
 10
56.19632014147584
 20
20.15928818550063
 30
0.0
 11
56.1928291284902
 21
20.35928818550063
 31
0.0
  0
LINE
  5
1414
330
2
100
AcDbEntity
  8
AGBASE
  6
HIDDEN2
 62
     4
100
AcDbLine
 10
56.24732014147585
 20
20.15928818550063
 30
0.0
 11
56.249065515034
 21
20.35928818550063
 31
0.0
  0
LINE
  5
141E
330
2
100
AcDbEntity
  8
AGBASE
  6
HIDDEN2
 62
     4
100
AcDbLine
 10
56.33332014147584
 20
20.15928818550063
 30
0.0
 11
56.33157476791769
 21
20.35928818550063
 31
0.0
  0
LINE
  5
141F
330
2
100
AcDbEntity
  8
AGBASE
  6
HIDDEN2
 62
     4
100
AcDbLine
 10
56.38432014147585
 20
20.15928818550063
 30
0.0
 11
56.38781115446149
 21
20.35928818550063
 31
0.0
  0
LINE
  5
1420
330
2
100
AcDbEntity
  8
AGCASE
  6
HIDDEN2
 62
     4
100
AcDbLine
 10
56.42405201771485
 20
20.45958610005964
 30
0.0
 11
56.42405201771485
 21
20.44965561346964
 31
0.0
  0
LINE
  5
1421
330
2
100
AcDbEntity
  8
AGBASE
  6
HIDDEN2
 62
     4
100
AcDbLine
 10
59.14832014147584
 20
20.15928818550063
 30
0.0
 11
59.33632014147584
 21
20.15928818550063
 31
0.0
  0
LINE
  5
1422
330
2
100
AcDbEntity
  8
AGBASE
  6
HIDDEN2
 62
     4
100
AcDbLine
 10
59.33632014147584
 20
20.15928818550063
 30
0.0
 11
59.33981115446148
 21
20.35928818550063
 31
0.0
  0
LINE
  5
1423
330
2
100
AcDbEntity
  8
AGCASE
  6
HIDDEN2
 62
     4
100
AcDbLine
 10
59.37605201771486
 20
20.45958610005964
 30
0.0
 11
59.37605201771486
 21
20.44965561346964
 31
0.0
  0
LINE
  5
1424
330
2
100
AcDbEntity
  8
AGBASE
  6
HIDDEN2
 62
     4
100
AcDbLine
 10
59.28532014147585
 20
20.15928818550063
 30
0.0
 11
59.28357476791769
 21
20.35928818550063
 31
0.0
  0
LINE
  5
1425
330
2
100
AcDbEntity
  8
AGBASE
  6
HIDDEN2
 62
     4
100
AcDbLine
 10
59.19932014147584
 20
20.15928818550063
 30
0.0
 11
59.20106551503399
 21
20.35928818550063
 31
0.0
  0
LINE
  5
1426
330
2
100
AcDbEntity
  8
AGBASE
  6
HIDDEN2
 62
     4
100
AcDbLine
 10
59.14832014147584
 20
20.15928818550063
 30
0.0
 11
59.1448291284902
 21
20.35928818550063
 31
0.0
  0
LINE
  5
1427
330
2
100
AcDbEntity
  8
AGCASE
  6
HIDDEN2
 62
     4
100
AcDbLine
 10
59.10858826523683
 20
20.45958610005964
 30
0.0
 11
59.10858826523683
 21
20.44965561346964
 31
0.0
  0
LINE
  5
142F
330
2
100
AcDbEntity
  8
AGBASE
  6
HIDDEN2
 62
     4
100
AcDbLine
 10
63.00147705896506
 20
22.72802224516734
 30
0.0
 11
63.00147705896506
 21
22.91602224516734
 31
0.0
  0
LINE
  5
1430
330
2
100
AcDbEntity
  8
AGBASE
  6
HIDDEN2
 62
     4
100
AcDbLine
 10
63.00147705896506
 20
22.91602224516734
 30
0.0
 11
62.80147705896506
 21
22.91951325815298
 31
0.0
  0
LINE
  5
1431
330
2
100
AcDbEntity
  8
AGBASE
  6
HIDDEN2
 62
     4
100
AcDbLine
 10
63.00147705896506
 20
22.86502224516734
 30
0.0
 11
62.80147705896506
 21
22.86327687160919
 31
0.0
  0
LINE
  5
1432
330
2
100
AcDbEntity
  8
AGBASE
  6
HIDDEN2
 62
     4
100
AcDbLine
 10
63.00147705896506
 20
22.77902224516734
 30
0.0
 11
62.80147705896506
 21
22.78076761872549
 31
0.0
  0
LINE
  5
1433
330
2
100
AcDbEntity
  8
AGBASE
  6
HIDDEN2
 62
     4
100
AcDbLine
 10
63.00147705896506
 20
22.72802224516734
 30
0.0
 11
62.80147705896506
 21
22.7245312321817
 31
0.0
  0
LINE
  5
1434
330
2
100
AcDbEntity
  8
AGBASE
  6
HIDDEN2
 62
     4
100
AcDbLine
 10
63.00147705896505
 20
23.94802224516734
 30
0.0
 11
63.00147705896505
 21
24.13602224516735
 31
0.0
  0
LINE
  5
1435
330
2
100
AcDbEntity
  8
AGBASE
  6
HIDDEN2
 62
     4
100
AcDbLine
 10
63.00147705896505
 20
23.94802224516734
 30
0.0
 11
62.80147705896506
 21
23.9445312321817
 31
0.0
  0
LINE
  5
1436
330
2
100
AcDbEntity
  8
AGBASE
  6
HIDDEN2
 62
     4
100
AcDbLine
 10
63.00147705896505
 20
23.99902224516734
 30
0.0
 11
62.80147705896506
 21
24.0007676187255
 31
0.0
  0
LINE
  5
1437
330
2
100
AcDbEntity
  8
AGBASE
  6
HIDDEN2
 62
     4
100
AcDbLine
 10
63.00147705896505
 20
24.08502224516734
 30
0.0
 11
62.80147705896506
 21
24.0832768716092
 31
0.0
  0
LINE
  5
1438
330
2
100
AcDbEntity
  8
AGBASE
  6
HIDDEN2
 62
     4
100
AcDbLine
 10
63.00147705896505
 20
24.13602224516735
 30
0.0
 11
62.80147705896506
 21
24.13951325815299
 31
0.0
  0
DIMENSION
  5
1443
330
2
100
AcDbEntity
  8
0
100
AcDbDimension
  2
*D33
 10
58.75727631386533
 20
20.15928818550063
 30
0.0
 11
57.30536123883122
 21
19.74903992343261
 31
0.0
 70
   160
  1
<> MTG BOSS HEIGHT (4)
 71
     5
 42
0.1999999999999744
  3
STANDARD
100
AcDbAlignedDimension
 13
59.1448291284902
 23
20.35928818550061
 33
0.0
 14
59.14832014147584
 24
20.15928818550063
 34
0.0
 50
90.0
100
AcDbRotatedDimension
1001
ACAD
1000
DSTYLE
1002
{
1070
    42
1040
0.063
1070
    44
1040
0.1
1070
   140
1040
0.125
1070
   141
1040
0.0
1070
   176
1070
     1
1070
   177
1070
     1
1070
   178
1070
     4
1070
   271
1070
     3
1070
   272
1070
     3
1002
}
  0
ENDSEC
  0
SECTION
  2
OBJECTS
  0
DICTIONARY
  5
1A
330
0
100
AcDbDictionary
281
     1
  3
ACAD_COLOR
350
716
  3
ACAD_GROUP
350
18
  3
ACAD_LAYOUT
350
2E8
  3
ACAD_MATERIAL
350
715
  3
ACAD_MLINESTYLE
350
19
  3
ACAD_PLOTSETTINGS
350
2E9
  3
ACAD_PLOTSTYLENAME
350
2E6
  3
AcadDim
350
10BE
  3
AcDbVariableDictionary
350
31C
  0
DICTIONARY
  5
3AC
330
2
100
AcDbDictionary
280
     1
281
     1
  3
ACAD_LAYOUTSELFREF
360
70C
  0
DICTIONARY
  5
3AE
330
7
100
AcDbDictionary
280
     1
281
     1
  3
ACAD_LAYOUTSELFREF
360
70D
  0
DICTIONARY
  5
716
102
{ACAD_REACTORS
330
1A
102
}
330
1A
100
AcDbDictionary
281
     1
  0
DICTIONARY
  5
18
102
{ACAD_REACTORS
330
1A
102
}
330
1A
100
AcDbDictionary
281
     1
  0
DICTIONARY
  5
2E8
102
{ACAD_REACTORS
330
1A
102
}
330
1A
100
AcDbDictionary
281
     1
  3
Layout1
350
2EB
  3
Model
350
2EA
  0
DICTIONARY
  5
715
102
{ACAD_REACTORS
330
1A
102
}
330
1A
100
AcDbDictionary
281
     1
  0
DICTIONARY
  5
19
102
{ACAD_REACTORS
330
1A
102
}
330
1A
100
AcDbDictionary
281
     1
  3
STANDARD
350
1B
  0
DICTIONARY
  5
2E9
102
{ACAD_REACTORS
330
1A
102
}
330
1A
100
AcDbDictionary
281
     1
  0
ACDBDICTIONARYWDFLT
  5
2E6
102
{ACAD_REACTORS
330
1A
102
}
330
1A
100
AcDbDictionary
281
     1
  3
Normal
350
2E7
100
AcDbDictionaryWithDefault
340
2E7
  0
XRECORD
  5
10BE
102
{ACAD_REACTORS
330
1A
102
}
330
1A
100
AcDbXrecord
280
     1
 90
   990106
  3

 60
     0
 61
     0
 62
     1
 63
     3
 64
     0
 65
     0
 66
     0
 67
     3
 68
     1
 69
     0
 70
     0
 71
     0
 72
     0
 40
0.0
170
     0
340
10C0
  0
DICTIONARY
  5
31C
102
{ACAD_REACTORS
330
1A
102
}
330
1A
100
AcDbDictionary
281
     1
  3
DIMASSOC
350
724
  3
PROJECTNAME
350
725
  3
SORTENTS
350
31D
  0
XRECORD
  5
70C
102
{ACAD_REACTORS
330
3AC
102
}
330
3AC
100
AcDbXrecord
280
     1
340
2
  0
XRECORD
  5
70D
102
{ACAD_REACTORS
330
3AE
102
}
330
3AE
100
AcDbXrecord
280
     1
340
7
  0
LAYOUT
  5
2EB
102
{ACAD_XDICTIONARY
360
733
102
}
102
{ACAD_REACTORS
330
2E8
102
}
330
2E8
100
AcDbPlotSettings
  1

  2
\\POLYCASE\engineer_q
  4

  6

 40
0.0
 41
0.0
 42
0.0
 43
0.0
 44
0.0
 45
0.0
 46
0.0
 47
0.0
 48
0.0
 49
0.0
140
0.0
141
0.0
142
1.0
143
1.0
 70
   688
 72
     0
 73
     0
 74
     5
  7
monochrome.ctb
 75
    16
147
1.0
148
0.0
149
0.0
100
AcDbLayout
  1
Layout1
 70
     0
 71
     1
 10
-0.2124999999999986
 20
0.0
 11
11.7875
 21
9.0
 12
0.0
 22
0.0
 32
0.0
 14
1.049999952316284
 24
0.7999999523162842
 34
0.0
 15
9.449999570846555
 25
7.199999570846556
 35
0.0
146
0.0
 13
0.0
 23
0.0
 33
0.0
 16
1.0
 26
0.0
 36
0.0
 17
0.0
 27
1.0
 37
0.0
 76
     0
330
7
  0
LAYOUT
  5
2EA
102
{ACAD_XDICTIONARY
360
731
102
}
102
{ACAD_REACTORS
330
2E8
102
}
330
2E8
100
AcDbPlotSettings
  1

  2
RICOH Aficio 1060 PCL 5e.pc3
  4
Tabloid
  6

 40
7.143749713897705
 41
5.027085304260253
 42
7.651763916015625
 43
5.027069091796875
 44
279.3999938964843
 45
431.7999877929687
 46
10.16
 47
0.0
 48
52.37499520581727
 49
15.24584724928018
140
68.37499520581727
141
27.85869893692165
142
1.0
143
1.000149255851313
 70
 11956
 72
     0
 73
     1
 74
     1
  7
monochrome.ctb
 75
     0
147
0.9998507664226714
148
-1322.874341489854
149
-434.1195315216429
100
AcDbLayout
  1
Model
 70
     1
 71
     0
 10
0.0
 20
0.0
 11
12.0
 21
9.0
 12
0.0
 22
0.0
 32
0.0
 14
0.0
 24
0.0
 34
0.0
 15
0.0
 25
0.0
 35
0.0
146
0.0
 13
0.0
 23
0.0
 33
0.0
 16
1.0
 26
0.0
 36
0.0
 17
0.0
 27
1.0
 37
0.0
 76
     0
330
2
  0
MLINESTYLE
  5
1B
102
{ACAD_REACTORS
330
19
102
}
330
19
100
AcDbMlineStyle
  2
STANDARD
 70
     0
  3

 62
   256
 51
90.0
 52
90.0
 71
     2
 49
0.5
 62
   256
  6
BYLAYER
 49
-0.5
 62
   256
  6
BYLAYER
  0
ACDBPLACEHOLDER
  5
2E7
102
{ACAD_REACTORS
330
2E6
102
}
330
2E6
  0
DICTIONARYVAR
  5
724
102
{ACAD_REACTORS
330
31C
102
}
330
31C
100
DictionaryVariables
280
     0
  1
1
  0
DICTIONARYVAR
  5
725
102
{ACAD_REACTORS
330
31C
102
}
330
31C
100
DictionaryVariables
280
     0
  1

  0
DICTIONARYVAR
  5
31D
102
{ACAD_REACTORS
330
31C
102
}
330
31C
100
DictionaryVariables
280
     0
  1
96
  0
DICTIONARY
  5
733
330
2EB
100
AcDbDictionary
280
     1
281
     1
  3
ACAD_XREC_ROUNDTRIP
360
734
  0
DICTIONARY
  5
731
330
2EA
100
AcDbDictionary
280
     1
281
     1
  3
ACAD_XREC_ROUNDTRIP
360
732
  0
XRECORD
  5
734
102
{ACAD_REACTORS
330
733
102
}
330
733
100
AcDbXrecord
280
     1
102
SHADEPLOT
 70
     0
102
SHADEPLOTRESLEVEL
 70
     2
102
SHADEPLOTCUSTOMDPI
 70
   300
  0
XRECORD
  5
732
102
{ACAD_REACTORS
330
731
102
}
330
731
100
AcDbXrecord
280
     1
102
SHADEPLOT
 70
     0
102
SHADEPLOTRESLEVEL
 70
     2
102
SHADEPLOTCUSTOMDPI
 70
   300
  0
ENDSEC
  0
EOF
