  0
SECTION
  2
HEADER
  9
$ACADVER
  1
AC1009
  9
$INSBASE
 10
52.223202022083903
 20
15.213166490964991
 30
0.0
  9
$EXTMIN
 10
222.17856694303049
 20
39.173052441741291
 30
-0.0015258207003583
  9
$EXTMAX
 10
259.5429637926689
 20
62.41517770140053
 30
0.0000000349246037
  9
$LIMMIN
 10
0.0
 20
0.0
  9
$LIMMAX
 10
44.899999999999991
 20
34.75
  9
$ORTHOMODE
 70
     0
  9
$REGENMODE
 70
     1
  9
$FILLMODE
 70
     1
  9
$QTEXTMODE
 70
     0
  9
$MIRRTEXT
 70
     1
  9
$DRAGMODE
 70
     2
  9
$LTSCALE
 40
0.5
  9
$OSMODE
 70
   229
  9
$ATTMODE
 70
     1
  9
$TEXTSIZE
 40
0.35
  9
$TRACEWID
 40
0.05
  9
$TEXTSTYLE
  7
TXT
  9
$CLAYER
  8
OBJECT
  9
$CELTYPE
  6
BYLAYER
  9
$CECOLOR
 62
   256
  9
$DIMSCALE
 40
2.25
  9
$DIMASZ
 40
0.18
  9
$DIMEXO
 40
0.0625
  9
$DIMDLI
 40
0.38
  9
$DIMRND
 40
0.0
  9
$DIMDLE
 40
0.0
  9
$DIMEXE
 40
0.09
  9
$DIMTP
 40
0.0
  9
$DIMTM
 40
0.0
  9
$DIMTXT
 40
0.125
  9
$DIMCEN
 40
0.09
  9
$DIMTSZ
 40
0.0
  9
$DIMTOL
 70
     0
  9
$DIMLIM
 70
     0
  9
$DIMTIH
 70
     1
  9
$DIMTOH
 70
     1
  9
$DIMSE1
 70
     0
  9
$DIMSE2
 70
     0
  9
$DIMTAD
 70
     0
  9
$DIMZIN
 70
     0
  9
$DIMBLK
  1

  9
$DIMASO
 70
     1
  9
$DIMSHO
 70
     1
  9
$DIMPOST
  1

  9
$DIMAPOST
  1

  9
$DIMALT
 70
     0
  9
$DIMALTD
 70
     2
  9
$DIMALTF
 40
25.399999999999999
  9
$DIMLFAC
 40
1.0
  9
$DIMTOFL
 70
     0
  9
$DIMTVP
 40
0.0
  9
$DIMTIX
 70
     0
  9
$DIMSOXD
 70
     0
  9
$DIMSAH
 70
     0
  9
$DIMBLK1
  1

  9
$DIMBLK2
  1

  9
$DIMSTYLE
  2
23NSTD
  9
$DIMCLRD
 70
     0
  9
$DIMCLRE
 70
     0
  9
$DIMCLRT
 70
     0
  9
$DIMTFAC
 40
1.0
  9
$DIMGAP
 40
0.09
  9
$LUNITS
 70
     2
  9
$LUPREC
 70
     5
  9
$SKETCHINC
 40
0.1
  9
$FILLETRAD
 40
0.0
  9
$AUNITS
 70
     0
  9
$AUPREC
 70
     0
  9
$MENU
  1
ACAD
  9
$ELEVATION
 40
0.0
  9
$PELEVATION
 40
0.0
  9
$THICKNESS
 40
0.0
  9
$LIMCHECK
 70
     0
  9
$BLIPMODE
 70
     0
  9
$CHAMFERA
 40
0.0
  9
$CHAMFERB
 40
0.0
  9
$SKPOLY
 70
     0
  9
$TDCREATE
 40
2452384.7182876151
  9
$TDUPDATE
 40
2455839.6413326389
  9
$TDINDWG
 40
10.3632748264
  9
$TDUSRTIMER
 40
10.363274282400001
  9
$USRTIMER
 70
     1
  9
$ANGBASE
 50
0.0
  9
$ANGDIR
 70
     0
  9
$PDMODE
 70
     0
  9
$PDSIZE
 40
0.0
  9
$PLINEWID
 40
0.3
  9
$COORDS
 70
     2
  9
$SPLFRAME
 70
     0
  9
$SPLINETYPE
 70
     6
  9
$SPLINESEGS
 70
     8
  9
$ATTDIA
 70
     0
  9
$ATTREQ
 70
     1
  9
$HANDLING
 70
  4097
  9
$HANDSEED
  5
160C8
  9
$SURFTAB1
 70
     6
  9
$SURFTAB2
 70
     6
  9
$SURFTYPE
 70
     6
  9
$SURFU
 70
     6
  9
$SURFV
 70
     6
  9
$UCSNAME
  2

  9
$UCSORG
 10
222.1850428074375
 20
39.175272854150741
 30
0.0
  9
$UCSXDIR
 10
1.0
 20
0.0
 30
0.0
  9
$UCSYDIR
 10
0.0
 20
1.0
 30
0.0
  9
$PUCSNAME
  2

  9
$PUCSORG
 10
0.0
 20
0.0
 30
0.0
  9
$PUCSXDIR
 10
1.0
 20
0.0
 30
0.0
  9
$PUCSYDIR
 10
0.0
 20
1.0
 30
0.0
  9
$USERI1
 70
     0
  9
$USERI2
 70
     0
  9
$USERI3
 70
     0
  9
$USERI4
 70
     0
  9
$USERI5
 70
     0
  9
$USERR1
 40
0.0
  9
$USERR2
 40
0.0
  9
$USERR3
 40
0.0
  9
$USERR4
 40
0.0
  9
$USERR5
 40
0.0
  9
$WORLDVIEW
 70
     1
  9
$SHADEDGE
 70
     3
  9
$SHADEDIF
 70
    70
  9
$TILEMODE
 70
     1
  9
$MAXACTVP
 70
    16
  9
$PLIMCHECK
 70
     0
  9
$PEXTMIN
 10
1.0000000000000000E+020
 20
1.0000000000000000E+020
 30
1.0000000000000000E+020
  9
$PEXTMAX
 10
-1.0000000000000000E+020
 20
-1.0000000000000000E+020
 30
-1.0000000000000000E+020
  9
$PLIMMIN
 10
-0.2124999999999986
 20
0.0
  9
$PLIMMAX
 10
11.787499999999991
 20
9.0
  9
$UNITMODE
 70
     0
  9
$VISRETAIN
 70
     0
  9
$PLINEGEN
 70
     0
  9
$PSLTSCALE
 70
     0
  0
ENDSEC
  0
SECTION
  2
TABLES
  0
TABLE
  2
VPORT
 70
     2
  0
VPORT
  2
*ACTIVE
 70
     0
 10
0.0
 20
0.0
 11
1.0
 21
1.0
 12
241.0732653678497
 22
50.794115071570907
 13
0.0
 23
0.0
 14
1.0
 24
1.0
 15
0.0
 25
0.0
 16
0.0
 26
0.0
 36
1.0
 17
-0.2124999999999986
 27
0.0
 37
0.0
 40
23.476106386434338
 41
1.8369747899159661
 42
50.0
 43
0.0
 44
0.0
 50
0.0
 51
0.0
 71
     0
 72
 20000
 73
     1
 74
     0
 75
     0
 76
     0
 77
     0
 78
     1
  0
ENDTAB
  0
TABLE
  2
LTYPE
 70
     7
  0
LTYPE
  2
CONTINUOUS
 70
     0
  3
Solid line
 72
    65
 73
     0
 40
0.0
  0
LTYPE
  2
HIDDEN2
 70
     0
  3
Hidden (.5x) _ _ _ _ _ _ _ _ _ _ _ _ _ _ _ _ _
 72
    65
 73
     2
 40
0.1875
 49
0.125
 49
-0.0625
  0
LTYPE
  2
CENTER2
 70
     0
  3
Center (.5x) ___ _ ___ _ ___ _ ___ _ ___ _ ___
 72
    65
 73
     4
 40
1.125
 49
0.75
 49
-0.125
 49
0.125
 49
-0.125
  0
LTYPE
  2
PHANTOM
 70
     0
  3
Phantom ______  __  __  ______  __  __  ______
 72
    65
 73
     6
 40
0.5
 49
0.25
 49
-0.05
 49
0.05
 49
-0.05
 49
0.05
 49
-0.05
  0
LTYPE
  2
HIDDEN
 70
     0
  3
Hidden __ __ __ __ __ __ __ __ __ __ __ __ __ _
 72
    65
 73
     2
 40
0.375
 49
0.25
 49
-0.125
  0
LTYPE
  2
CENTER
 70
     0
  3
____ _ ____ _ ____ _ ____ _ ____ _ ____ _ ____
 72
    65
 73
     4
 40
2.0
 49
1.25
 49
-0.25
 49
0.25
 49
-0.25
  0
LTYPE
  2
PHANTOM2
 70
     0
  3
___ _ _ ___ _ _ ___ _ _ ___ _ _ ___ _ _ ___ _ _
 72
    65
 73
     6
 40
1.25
 49
0.625
 49
-0.125
 49
0.125
 49
-0.125
 49
0.125
 49
-0.125
  0
ENDTAB
  0
TABLE
  2
LAYER
 70
     9
  0
LAYER
  2
0
 70
     0
 62
     7
  6
CONTINUOUS
  0
LAYER
  2
DEFPOINTS
 70
     0
 62
     7
  6
CONTINUOUS
  0
LAYER
  2
TITLE
 70
     0
 62
     7
  6
CONTINUOUS
  0
LAYER
  2
TEXT
 70
     0
 62
     7
  6
CONTINUOUS
  0
LAYER
  2
OBJECT
 70
     0
 62
     7
  6
CONTINUOUS
  0
LAYER
  2
DIM
 70
     0
 62
     7
  6
CONTINUOUS
  0
LAYER
  2
HIDDEN
 70
     0
 62
     7
  6
HIDDEN
  0
LAYER
  2
BEND
 70
     0
 62
     7
  6
PHANTOM
  0
LAYER
  2
CENTER
 70
     0
 62
     7
  6
CENTER
  0
ENDTAB
  0
TABLE
  2
STYLE
 70
     2
  0
STYLE
  2
STANDARD
 70
     0
 40
0.0
 41
1.0
 50
0.0
 71
     0
 42
1.1999999999999991
  3
txt
  4

  0
STYLE
  2
TXT
 70
     0
 40
0.0
 41
0.75
 50
0.0
 71
     0
 42
0.35
  3
txt
  4

  0
ENDTAB
  0
TABLE
  2
VIEW
 70
     0
  0
ENDTAB
  0
TABLE
  2
UCS
 70
     0
  0
ENDTAB
  0
TABLE
  2
APPID
 70
     2
  0
APPID
  2
ACAD
 70
     0
  0
APPID
  2
DCO15
 70
     0
  0
ENDTAB
  0
TABLE
  2
DIMSTYLE
 70
     2
  0
DIMSTYLE
  2
23NSTD
 70
     0
  3

  4

  5

  6

  7

 40
2.25
 41
0.18
 42
0.0625
 43
0.38
 44
0.09
 45
0.0
 46
0.0
 47
0.0
 48
0.0
140
0.125
141
0.09
142
0.0
143
25.399999999999999
144
1.0
145
0.0
146
1.0
147
0.09
 71
     0
 72
     0
 73
     1
 74
     1
 75
     0
 76
     0
 77
     0
 78
     0
170
     0
171
     2
172
     0
173
     0
174
     0
175
     0
176
     0
177
     0
178
     0
  0
DIMSTYLE
  2
23NSTDI
 70
     0
  3

  4

  5

  6

  7

 40
2.25
 41
0.18
 42
0.063
 43
0.25
 44
0.093
 45
0.0
 46
0.0
 47
0.0
 48
0.0
140
0.125
141
0.09
142
0.0
143
25.399999999999999
144
1.0
145
0.0
146
1.0
147
0.09
 71
     0
 72
     0
 73
     1
 74
     1
 75
     0
 76
     0
 77
     0
 78
     0
170
     0
171
     2
172
     0
173
     0
174
     1
175
     0
176
     0
177
     0
178
     0
  0
ENDTAB
  0
ENDSEC
  0
SECTION
  2
BLOCKS
  0
BLOCK
  8
0
  2
$MODEL_SPACE
 70
     0
 10
0.0
 20
0.0
 30
0.0
  3
$MODEL_SPACE
  1

  0
ENDBLK
  5
6
  8
0
  0
BLOCK
 67
     1
  8
0
  2
$PAPER_SPACE
 70
     0
 10
0.0
 20
0.0
 30
0.0
  3
$PAPER_SPACE
  1

  0
ENDBLK
  5
9
 67
     1
  8
0
  0
BLOCK
  8
0
  2
CL
 70
     0
 10
0.0
 20
0.0
 30
0.0
  3
CL
  1

  0
TEXT
  5
E010
  8
0
 62
     4
 10
-0.0446487846840817
 20
-0.0006419411893219
 30
0.0
 40
0.125
  1
C
  0
TEXT
  5
E011
  8
0
 62
     4
 10
0.0023360547861877
 20
-0.065809302625766
 30
0.0
 40
0.125
  1
L
  0
ENDBLK
  5
E013
  8
0
  0
BLOCK
  8
0
  2
*D1
 70
     1
 10
0.0
 20
0.0
 30
0.0
  3
*D1
  1

  0
LINE
  5
15E72
  8
DIM
 62
     0
 10
242.6637949031315
 20
57.614764006670477
 30
0.0
 11
242.6637949031315
 21
58.02429745944788
 31
0.0
  0
LINE
  5
15E73
  8
DIM
 62
     0
 10
242.41355890313139
 20
57.610396121043081
 30
0.0
 11
242.41355890313139
 21
58.02429745944788
 31
0.0
  0
LINE
  5
15E74
  8
DIM
 62
     0
 10
242.00855890313139
 20
57.821797459447872
 30
0.0
 11
241.60355890313139
 21
57.821797459447872
 31
0.0
  0
LINE
  5
15E75
  8
DIM
 62
     0
 10
243.0687949031315
 20
57.821797459447872
 30
0.0
 11
243.47379490313151
 21
57.821797459447872
 31
0.0
  0
SOLID
  5
15E76
  8
DIM
 62
     0
 10
242.00855890313139
 20
57.889297459447882
 30
0.0
 11
242.00855890313139
 21
57.754297459447869
 31
0.0
 12
242.41355890313139
 22
57.821797459447872
 32
0.0
 13
242.41355890313139
 23
57.821797459447872
 33
0.0
  0
SOLID
  5
15E77
  8
DIM
 62
     0
 10
243.0687949031315
 20
57.889297459447882
 30
0.0
 11
243.0687949031315
 21
57.754297459447869
 31
0.0
 12
242.6637949031315
 22
57.821797459447872
 32
0.0
 13
242.6637949031315
 23
57.821797459447872
 33
0.0
  0
INSERT
  5
15E78
  8
OBJECT
  2
*U58
 10
0.0
 20
0.0
 30
0.0
  0
POINT
  5
15E79
  8
DEFPOINTS
 62
     0
 10
242.6637949031315
 20
57.474139006670477
 30
0.0
  0
POINT
  5
15E7A
  8
DEFPOINTS
 62
     0
 10
242.41355890313139
 20
57.469771121043081
 30
0.0
  0
POINT
  5
15E7B
  8
DEFPOINTS
 62
     0
 10
242.41355890313139
 20
57.821797459447872
 30
0.0
  0
ENDBLK
  5
E3A9
  8
0
  0
BLOCK
  8
0
  2
*D2
 70
     1
 10
0.0
 20
0.0
 30
0.0
  3
*D2
  1

  0
LINE
  5
15E32
  8
DIM
 62
     0
 10
242.40317090313141
 20
59.255810121043083
 30
0.0
 11
245.55057479953771
 21
59.255810121043083
 31
0.0
  0
LINE
  5
15E33
  8
DIM
 62
     0
 10
242.72646940313149
 20
54.246055121043177
 30
0.0
 11
245.55057479953771
 21
54.246055121043177
 31
0.0
  0
LINE
  5
15E34
  8
DIM
 62
     0
 10
245.3480747995377
 20
58.850810121043082
 30
0.0
 11
245.3480747995377
 21
57.094057621043142
 31
0.0
  0
LINE
  5
15E35
  8
DIM
 62
     0
 10
245.3480747995377
 20
54.651055121043193
 30
0.0
 11
245.3480747995377
 21
56.407807621043133
 31
0.0
  0
SOLID
  5
15E36
  8
DIM
 62
     0
 10
245.2805747995377
 20
58.850810121043082
 30
0.0
 11
245.41557479953769
 21
58.850810121043082
 31
0.0
 12
245.3480747995377
 22
59.255810121043083
 32
0.0
 13
245.3480747995377
 23
59.255810121043083
 33
0.0
  0
SOLID
  5
15E37
  8
DIM
 62
     0
 10
245.2805747995377
 20
54.651055121043193
 30
0.0
 11
245.41557479953769
 21
54.651055121043193
 31
0.0
 12
245.3480747995377
 22
54.246055121043177
 32
0.0
 13
245.3480747995377
 23
54.246055121043177
 33
0.0
  0
TEXT
  5
15E38
  8
OBJECT
 62
     0
 10
244.9965122995377
 20
56.610307621043169
 30
0.0
 40
0.28125
  1
5.010
 41
0.75
  7
TXT
  0
POINT
  5
15E39
  8
DEFPOINTS
 62
     0
 10
242.2625459031315
 20
59.255810121043083
 30
0.0
  0
POINT
  5
15E3A
  8
DEFPOINTS
 62
     0
 10
242.58584440313149
 20
54.246055121043177
 30
0.0
  0
POINT
  5
15E3B
  8
DEFPOINTS
 62
     0
 10
245.3480747995377
 20
54.246055121043177
 30
0.0
  0
ENDBLK
  5
E3CB
  8
0
  0
BLOCK
  8
0
  2
*D3
 70
     1
 10
0.0
 20
0.0
 30
0.0
  3
*D3
  1

  0
LINE
  5
15E3C
  8
DIM
 62
     0
 10
240.71837528174169
 20
54.090105443527591
 30
0.0
 11
240.38849574537849
 21
53.855149082709481
 31
0.0
  0
LINE
  5
15E3D
  8
DIM
 62
     0
 10
240.38849574537849
 20
53.855149082709481
 30
0.0
 11
239.9834957453786
 21
53.855149082709502
 31
0.0
  0
SOLID
  5
15E3E
  8
DIM
 62
     0
 10
240.6792158882721
 20
54.145085366254769
 30
0.0
 11
240.75753467521139
 21
54.035125520800413
 31
0.0
 12
241.04825481810491
 22
54.325061804345637
 32
0.0
 13
241.04825481810491
 23
54.325061804345637
 33
0.0
  0
INSERT
  5
15E3F
  8
OBJECT
  2
*U55
 10
0.0
 20
0.0
 30
0.0
  0
LINE
  5
15E40
  8
DIM
 62
     0
 10
240.9990254031317
 20
54.434228621043019
 30
0.0
 11
241.4040254031317
 21
54.434228621043019
 31
0.0
  0
LINE
  5
15E41
  8
DIM
 62
     0
 10
241.20152540313171
 20
54.231728621043011
 30
0.0
 11
241.20152540313171
 21
54.636728621043027
 31
0.0
  0
POINT
  5
15E42
  8
DEFPOINTS
 62
     0
 10
241.04825481810491
 20
54.325061804345637
 30
0.0
  0
POINT
  5
15E43
  8
DEFPOINTS
 62
     0
 10
241.20152540313171
 20
54.434228621043019
 30
0.0
  0
ENDBLK
  5
F154
  8
0
  0
BLOCK
  8
0
  2
*D4
 70
     1
 10
0.0
 20
0.0
 30
0.0
  3
*D4
  1

  0
LINE
  5
15E7C
  8
DIM
 62
     0
 10
242.78103435566771
 20
59.505056563817348
 30
0.0
 11
243.00802406189541
 21
59.840467764087649
 31
0.0
  0
LINE
  5
15E7D
  8
DIM
 62
     0
 10
243.00802406189541
 20
59.840467764087649
 30
0.0
 11
243.41302406189541
 21
59.840467764087649
 31
0.0
  0
SOLID
  5
15E7E
  8
DIM
 62
     0
 10
242.72513248895609
 20
59.542888181521931
 30
0.0
 11
242.83693622237939
 21
59.467224946112736
 31
0.0
 12
242.55404464944019
 22
59.169645363547112
 32
0.0
 13
242.55404464944019
 23
59.169645363547112
 33
0.0
  0
TEXT
  5
15E7F
  8
OBJECT
 62
     0
 10
243.6155240618954
 20
59.699842764087677
 30
0.0
 40
0.28125
  1
R0.500
 41
0.75
  7
TXT
  0
LINE
  5
15E80
  8
DIM
 62
     0
 10
242.07104590313091
 20
58.755166562999541
 30
0.0
 11
242.47604590313091
 21
58.75516656299952
 31
0.0
  0
LINE
  5
15E81
  8
DIM
 62
     0
 10
242.27354590313089
 20
58.552666562999548
 30
0.0
 11
242.27354590313089
 21
58.957666562999542
 31
0.0
  0
POINT
  5
15E82
  8
DEFPOINTS
 62
     0
 10
242.55404464944019
 20
59.169645363547112
 30
0.0
  0
POINT
  5
15E83
  8
DEFPOINTS
 62
     0
 10
242.27354590313089
 20
58.755166562999548
 30
0.0
  0
ENDBLK
  5
F16D
  8
0
  0
BLOCK
  8
0
  2
*D5
 70
     1
 10
0.0
 20
0.0
 30
0.0
  3
*D5
  1

  0
LINE
  5
15E60
  8
DIM
 62
     0
 10
237.29564622803079
 20
57.750824276377656
 30
0.0
 11
238.03138784353499
 21
58.875367856928513
 31
0.0
  0
LINE
  5
15E61
  8
DIM
 62
     0
 10
238.03138784353499
 20
58.875367856928513
 30
0.0
 11
238.4363878435349
 21
58.875367856928513
 31
0.0
  0
SOLID
  5
15E62
  8
DIM
 62
     0
 10
237.23916143621139
 20
57.787779902378588
 30
0.0
 11
237.35213101985019
 21
57.713868650376689
 31
0.0
 12
237.07391247202511
 22
57.411915525461382
 32
0.0
 13
237.07391247202511
 23
57.411915525461382
 33
0.0
  0
INSERT
  5
15E63
  8
OBJECT
  2
*U57
 10
0.0
 20
0.0
 30
0.0
  0
LINE
  5
15E64
  8
DIM
 62
     0
 10
236.8478703695356
 20
57.375932621043027
 30
0.0
 11
237.2528703695356
 21
57.375932621043013
 31
0.0
  0
LINE
  5
15E65
  8
DIM
 62
     0
 10
237.05037036953561
 20
57.173432621043041
 30
0.0
 11
237.05037036953561
 21
57.578432621043028
 31
0.0
  0
POINT
  5
15E66
  8
DEFPOINTS
 62
     0
 10
237.07391247202511
 20
57.411915525461382
 30
0.0
  0
POINT
  5
15E67
  8
DEFPOINTS
 62
     0
 10
237.02682826704611
 20
57.33994971662473
 30
0.0
  0
ENDBLK
  5
F17F
  8
0
  0
BLOCK
  8
0
  2
*D6
 70
     1
 10
0.0
 20
0.0
 30
0.0
  3
*D6
  1

  0
LINE
  5
15E28
  8
DIM
 62
     0
 10
236.25305686953561
 20
56.826383121043179
 30
0.0
 11
238.74098970365611
 21
56.826383121043179
 31
0.0
  0
LINE
  5
15E29
  8
DIM
 62
     0
 10
236.25305686953561
 20
54.540462121043177
 30
0.0
 11
238.74098970365611
 21
54.540462121043177
 31
0.0
  0
LINE
  5
15E2A
  8
DIM
 62
     0
 10
238.5384897036561
 20
56.421383121043178
 30
0.0
 11
238.5384897036561
 21
56.026547621043179
 31
0.0
  0
LINE
  5
15E2B
  8
DIM
 62
     0
 10
238.5384897036561
 20
54.945462121043171
 30
0.0
 11
238.5384897036561
 21
55.34029762104317
 31
0.0
  0
SOLID
  5
15E2C
  8
DIM
 62
     0
 10
238.4709897036561
 20
56.421383121043178
 30
0.0
 11
238.60598970365609
 21
56.421383121043178
 31
0.0
 12
238.5384897036561
 22
56.826383121043179
 32
0.0
 13
238.5384897036561
 23
56.826383121043179
 33
0.0
  0
SOLID
  5
15E2D
  8
DIM
 62
     0
 10
238.4709897036561
 20
54.945462121043171
 30
0.0
 11
238.60598970365609
 21
54.945462121043171
 31
0.0
 12
238.5384897036561
 22
54.540462121043177
 32
0.0
 13
238.5384897036561
 23
54.540462121043177
 33
0.0
  0
TEXT
  5
15E2E
  8
OBJECT
 62
     0
 10
238.1166147036561
 20
55.542797621043221
 30
0.0
 40
0.28125
  1
2.286
 41
0.75
  7
TXT
  0
POINT
  5
15E2F
  8
DEFPOINTS
 62
     0
 10
236.11243186953561
 20
56.826383121043179
 30
0.0
  0
POINT
  5
15E30
  8
DEFPOINTS
 62
     0
 10
236.11243186953561
 20
54.540462121043177
 30
0.0
  0
POINT
  5
15E31
  8
DEFPOINTS
 62
     0
 10
238.5384897036561
 20
54.540462121043177
 30
0.0
  0
ENDBLK
  5
F1A0
  8
0
  0
BLOCK
  8
0
  2
*D7
 70
     1
 10
0.0
 20
0.0
 30
0.0
  3
*D7
  1

  0
LINE
  5
15E09
  8
DIM
 62
     0
 10
230.7799213695356
 20
55.001266621043087
 30
0.0
 11
227.04943858566031
 21
55.001266621043087
 31
0.0
  0
LINE
  5
15E0A
  8
DIM
 62
     0
 10
229.9887653695356
 20
56.750932621043177
 30
0.0
 11
227.04943858566031
 21
56.750932621043177
 31
0.0
  0
LINE
  5
15E0B
  8
DIM
 62
     0
 10
227.2519385856603
 20
54.596266621043092
 30
0.0
 11
227.2519385856603
 21
54.191266621043077
 31
0.0
  0
LINE
  5
15E0C
  8
DIM
 62
     0
 10
227.2519385856603
 20
57.155932621043171
 30
0.0
 11
227.2519385856603
 21
57.560932621043179
 31
0.0
  0
SOLID
  5
15E0D
  8
DIM
 62
     0
 10
227.18443858566019
 20
54.596266621043092
 30
0.0
 11
227.31943858566021
 21
54.596266621043092
 31
0.0
 12
227.2519385856603
 22
55.001266621043087
 32
0.0
 13
227.2519385856603
 23
55.001266621043087
 33
0.0
  0
SOLID
  5
15E0E
  8
DIM
 62
     0
 10
227.18443858566019
 20
57.155932621043171
 30
0.0
 11
227.31943858566021
 21
57.155932621043171
 31
0.0
 12
227.2519385856603
 22
56.750932621043177
 32
0.0
 13
227.2519385856603
 23
56.750932621043177
 33
0.0
  0
INSERT
  5
15E0F
  8
OBJECT
  2
*U52
 10
0.0
 20
0.0
 30
0.0
  0
POINT
  5
15E10
  8
DEFPOINTS
 62
     0
 10
230.9205463695356
 20
55.001266621043087
 30
0.0
  0
POINT
  5
15E11
  8
DEFPOINTS
 62
     0
 10
230.1293903695356
 20
56.750932621043177
 30
0.0
  0
POINT
  5
15E12
  8
DEFPOINTS
 62
     0
 10
227.2519385856603
 20
56.750932621043177
 30
0.0
  0
ENDBLK
  5
F1AE
  8
0
  0
BLOCK
  8
0
  2
*D8
 70
     1
 10
0.0
 20
0.0
 30
0.0
  3
*D8
  1

  0
LINE
  5
15DF5
  8
DIM
 62
     0
 10
229.9887653695356
 20
56.750932621043177
 30
0.0
 11
229.10742361045419
 21
56.750932621043177
 31
0.0
  0
LINE
  5
15DF6
  8
DIM
 62
     0
 10
231.4768538695356
 20
55.683422621043178
 30
0.0
 11
229.10742361045419
 21
55.683422621043178
 31
0.0
  0
LINE
  5
15DF7
  8
DIM
 62
     0
 10
229.30992361045409
 20
57.155932621043171
 30
0.0
 11
229.30992361045409
 21
57.560932621043179
 31
0.0
  0
LINE
  5
15DF8
  8
DIM
 62
     0
 10
229.30992361045409
 20
55.278422621043177
 30
0.0
 11
229.30992361045409
 21
54.873422621043169
 31
0.0
  0
SOLID
  5
15DF9
  8
DIM
 62
     0
 10
229.24242361045421
 20
57.155932621043171
 30
0.0
 11
229.3774236104542
 21
57.155932621043171
 31
0.0
 12
229.30992361045409
 22
56.750932621043177
 32
0.0
 13
229.30992361045409
 23
56.750932621043177
 33
0.0
  0
SOLID
  5
15DFA
  8
DIM
 62
     0
 10
229.24242361045421
 20
55.278422621043177
 30
0.0
 11
229.3774236104542
 21
55.278422621043177
 31
0.0
 12
229.30992361045409
 22
55.683422621043178
 32
0.0
 13
229.30992361045409
 23
55.683422621043178
 33
0.0
  0
TEXT
  5
15DFB
  8
OBJECT
 62
     0
 10
228.94078298545421
 20
56.076552621043213
 30
0.0
 40
0.28125
  1
1.068
 41
0.75
  7
TXT
  0
POINT
  5
15DFC
  8
DEFPOINTS
 62
     0
 10
230.1293903695356
 20
56.750932621043177
 30
0.0
  0
POINT
  5
15DFD
  8
DEFPOINTS
 62
     0
 10
231.6174788695356
 20
55.683422621043178
 30
0.0
  0
POINT
  5
15DFE
  8
DEFPOINTS
 62
     0
 10
229.30992361045409
 20
55.683422621043178
 30
0.0
  0
ENDBLK
  5
F1BC
  8
0
  0
BLOCK
  8
0
  2
*D9
 70
     1
 10
0.0
 20
0.0
 30
0.0
  3
*D9
  1

  0
LINE
  5
15E1D
  8
DIM
 62
     0
 10
229.9887653695356
 20
56.750932621043177
 30
0.0
 11
228.0690733257662
 21
56.750932621043177
 31
0.0
  0
LINE
  5
15E1E
  8
DIM
 62
     0
 10
230.7799213695356
 20
57.375932621043091
 30
0.0
 11
228.0690733257662
 21
57.375932621043091
 31
0.0
  0
LINE
  5
15E1F
  8
DIM
 62
     0
 10
228.27157332576621
 20
56.345932621043168
 30
0.0
 11
228.27157332576621
 21
55.940932621043167
 31
0.0
  0
LINE
  5
15E20
  8
DIM
 62
     0
 10
228.27157332576621
 20
57.780932621043092
 30
0.0
 11
228.27157332576621
 21
59.315715174850538
 31
0.0
  0
LINE
  5
15E21
  8
DIM
 62
     0
 10
228.27157332576621
 20
59.315715174850538
 30
0.0
 11
228.67657332576621
 21
59.315715174850538
 31
0.0
  0
SOLID
  5
15E22
  8
DIM
 62
     0
 10
228.20407332576619
 20
56.345932621043168
 30
0.0
 11
228.33907332576609
 21
56.345932621043168
 31
0.0
 12
228.27157332576621
 22
56.750932621043177
 32
0.0
 13
228.27157332576621
 23
56.750932621043177
 33
0.0
  0
SOLID
  5
15E23
  8
DIM
 62
     0
 10
228.20407332576619
 20
57.780932621043092
 30
0.0
 11
228.33907332576609
 21
57.780932621043092
 31
0.0
 12
228.27157332576621
 22
57.375932621043091
 32
0.0
 13
228.27157332576621
 23
57.375932621043091
 33
0.0
  0
INSERT
  5
15E24
  8
OBJECT
  2
*U54
 10
0.0
 20
0.0
 30
0.0
  0
POINT
  5
15E25
  8
DEFPOINTS
 62
     0
 10
230.1293903695356
 20
56.750932621043177
 30
0.0
  0
POINT
  5
15E26
  8
DEFPOINTS
 62
     0
 10
230.9205463695356
 20
57.375932621043091
 30
0.0
  0
POINT
  5
15E27
  8
DEFPOINTS
 62
     0
 10
228.27157332576621
 20
57.375932621043091
 30
0.0
  0
ENDBLK
  5
F1D5
  8
0
  0
BLOCK
  8
0
  2
*D10
 70
     1
 10
0.0
 20
0.0
 30
0.0
  3
*D10
  1

  0
LINE
  5
15DEB
  8
DIM
 62
     0
 10
229.9887653695356
 20
56.750932621043177
 30
0.0
 11
223.9556222924364
 21
56.750932621043177
 31
0.0
  0
LINE
  5
15DEC
  8
DIM
 62
     0
 10
231.59489186953559
 20
58.630716621043092
 30
0.0
 11
223.9556222924364
 21
58.630716621043092
 31
0.0
  0
LINE
  5
15DED
  8
DIM
 62
     0
 10
224.1581222924363
 20
56.345932621043168
 30
0.0
 11
224.1581222924363
 21
55.940932621043167
 31
0.0
  0
LINE
  5
15DEE
  8
DIM
 62
     0
 10
224.1581222924363
 20
59.035716621043093
 30
0.0
 11
224.1581222924363
 21
59.440716621043101
 31
0.0
  0
SOLID
  5
15DEF
  8
DIM
 62
     0
 10
224.09062229243639
 20
56.345932621043168
 30
0.0
 11
224.22562229243641
 21
56.345932621043168
 31
0.0
 12
224.1581222924363
 22
56.750932621043177
 32
0.0
 13
224.1581222924363
 23
56.750932621043177
 33
0.0
  0
SOLID
  5
15DF0
  8
DIM
 62
     0
 10
224.09062229243639
 20
59.035716621043093
 30
0.0
 11
224.22562229243641
 21
59.035716621043093
 31
0.0
 12
224.1581222924363
 22
58.630716621043092
 32
0.0
 13
224.1581222924363
 23
58.630716621043092
 33
0.0
  0
INSERT
  5
15DF1
  8
OBJECT
  2
*U50
 10
0.0
 20
0.0
 30
0.0
  0
POINT
  5
15DF2
  8
DEFPOINTS
 62
     0
 10
230.1293903695356
 20
56.750932621043177
 30
0.0
  0
POINT
  5
15DF3
  8
DEFPOINTS
 62
     0
 10
231.73551686953559
 20
58.630716621043092
 30
0.0
  0
POINT
  5
15DF4
  8
DEFPOINTS
 62
     0
 10
224.1581222924363
 20
58.630716621043092
 30
0.0
  0
ENDBLK
  5
F216
  8
0
  0
BLOCK
  8
0
  2
*D11
 70
     1
 10
0.0
 20
0.0
 30
0.0
  3
*D11
  1

  0
LINE
  5
15E56
  8
DIM
 62
     0
 10
231.7174788695356
 20
54.540843121043281
 30
0.0
 11
231.7174788695356
 21
53.537021435626599
 31
0.0
  0
LINE
  5
15E57
  8
DIM
 62
     0
 10
236.25343786953559
 20
54.540843121043281
 30
0.0
 11
236.25343786953559
 21
53.537021435626599
 31
0.0
  0
LINE
  5
15E58
  8
DIM
 62
     0
 10
232.1224788695356
 20
53.7395214356266
 30
0.0
 11
233.36108336953561
 21
53.7395214356266
 31
0.0
  0
LINE
  5
15E59
  8
DIM
 62
     0
 10
235.8484378695357
 20
53.7395214356266
 30
0.0
 11
234.60983336953561
 21
53.7395214356266
 31
0.0
  0
SOLID
  5
15E5A
  8
DIM
 62
     0
 10
232.1224788695356
 20
53.807021435626602
 30
0.0
 11
232.1224788695356
 21
53.672021435626597
 31
0.0
 12
231.7174788695356
 22
53.7395214356266
 32
0.0
 13
231.7174788695356
 23
53.7395214356266
 33
0.0
  0
SOLID
  5
15E5B
  8
DIM
 62
     0
 10
235.8484378695357
 20
53.807021435626602
 30
0.0
 11
235.8484378695357
 21
53.672021435626597
 31
0.0
 12
236.25343786953559
 22
53.7395214356266
 32
0.0
 13
236.25343786953559
 23
53.7395214356266
 33
0.0
  0
TEXT
  5
15E5C
  8
OBJECT
 62
     0
 10
233.56358336953559
 20
53.598896435626592
 30
0.0
 40
0.28125
  1
4.536
 41
0.75
  7
TXT
  0
POINT
  5
15E5D
  8
DEFPOINTS
 62
     0
 10
231.7174788695356
 20
54.681468121043281
 30
0.0
  0
POINT
  5
15E5E
  8
DEFPOINTS
 62
     0
 10
236.25343786953559
 20
54.681468121043281
 30
0.0
  0
POINT
  5
15E5F
  8
DEFPOINTS
 62
     0
 10
236.25343786953559
 20
53.7395214356266
 30
0.0
  0
ENDBLK
  5
F22E
  8
0
  0
BLOCK
  8
0
  2
*D12
 70
     1
 10
0.0
 20
0.0
 30
0.0
  3
*D12
  1

  0
LINE
  5
15DE1
  8
DIM
 62
     0
 10
230.9205463695356
 20
54.860641621043087
 30
0.0
 11
230.9205463695356
 21
53.01124014469174
 31
0.0
  0
LINE
  5
15DE2
  8
DIM
 62
     0
 10
237.05037036953561
 20
54.860641621043087
 30
0.0
 11
237.05037036953561
 21
53.01124014469174
 31
0.0
  0
LINE
  5
15DE3
  8
DIM
 62
     0
 10
231.3255463695356
 20
53.213740144691727
 30
0.0
 11
232.49975524453561
 21
53.213740144691727
 31
0.0
  0
LINE
  5
15DE4
  8
DIM
 62
     0
 10
236.64537036953561
 20
53.213740144691727
 30
0.0
 11
235.47116149453561
 21
53.213740144691727
 31
0.0
  0
SOLID
  5
15DE5
  8
DIM
 62
     0
 10
231.3255463695356
 20
53.281240144691743
 30
0.0
 11
231.3255463695356
 21
53.146240144691731
 31
0.0
 12
230.9205463695356
 22
53.213740144691727
 32
0.0
 13
230.9205463695356
 23
53.213740144691727
 33
0.0
  0
SOLID
  5
15DE6
  8
DIM
 62
     0
 10
236.64537036953561
 20
53.281240144691743
 30
0.0
 11
236.64537036953561
 21
53.146240144691731
 31
0.0
 12
237.05037036953561
 22
53.213740144691727
 32
0.0
 13
237.05037036953561
 23
53.213740144691727
 33
0.0
  0
TEXT
  5
15DE7
  8
OBJECT
 62
     0
 10
232.70225524453559
 20
53.073115144691727
 30
0.0
 40
0.28125
  1
6.130 (2 PLCS.)
 41
0.75
  7
TXT
  0
POINT
  5
15DE8
  8
DEFPOINTS
 62
     0
 10
230.9205463695356
 20
55.001266621043087
 30
0.0
  0
POINT
  5
15DE9
  8
DEFPOINTS
 62
     0
 10
237.05037036953561
 20
55.001266621043087
 30
0.0
  0
POINT
  5
15DEA
  8
DEFPOINTS
 62
     0
 10
237.05037036953561
 20
53.213740144691727
 30
0.0
  0
ENDBLK
  5
F23C
  8
0
  0
BLOCK
  8
0
  2
*D13
 70
     1
 10
0.0
 20
0.0
 30
0.0
  3
*D13
  1

  0
LINE
  5
15E68
  8
DIM
 62
     0
 10
236.23539986953571
 20
58.771341621043092
 30
0.0
 11
236.23539986953571
 21
59.991162851739588
 31
0.0
  0
LINE
  5
15E69
  8
DIM
 62
     0
 10
231.73551686953559
 20
58.771341621043092
 30
0.0
 11
231.73551686953559
 21
59.991162851739588
 31
0.0
  0
LINE
  5
15E6A
  8
DIM
 62
     0
 10
235.83039986953571
 20
59.788662851739588
 30
0.0
 11
234.57467711953561
 21
59.788662851739588
 31
0.0
  0
LINE
  5
15E6B
  8
DIM
 62
     0
 10
232.14051686953559
 20
59.788662851739588
 30
0.0
 11
233.39623961953569
 21
59.788662851739588
 31
0.0
  0
SOLID
  5
15E6C
  8
DIM
 62
     0
 10
235.83039986953571
 20
59.85616285173959
 30
0.0
 11
235.83039986953571
 21
59.721162851739578
 31
0.0
 12
236.23539986953571
 22
59.788662851739588
 32
0.0
 13
236.23539986953571
 23
59.788662851739588
 33
0.0
  0
SOLID
  5
15E6D
  8
DIM
 62
     0
 10
232.14051686953559
 20
59.85616285173959
 30
0.0
 11
232.14051686953559
 21
59.721162851739578
 31
0.0
 12
231.73551686953559
 22
59.788662851739588
 32
0.0
 13
231.73551686953559
 23
59.788662851739588
 33
0.0
  0
TEXT
  5
15E6E
  8
OBJECT
 62
     0
 10
233.59873961953559
 20
59.648037851739588
 30
0.0
 40
0.28125
  1
4.500
 41
0.75
  7
TXT
  0
POINT
  5
15E6F
  8
DEFPOINTS
 62
     0
 10
236.23539986953571
 20
58.630716621043092
 30
0.0
  0
POINT
  5
15E70
  8
DEFPOINTS
 62
     0
 10
231.73551686953559
 20
58.630716621043092
 30
0.0
  0
POINT
  5
15E71
  8
DEFPOINTS
 62
     0
 10
231.73551686953559
 20
59.788662851739588
 30
0.0
  0
ENDBLK
  5
F254
  8
0
  0
BLOCK
  8
0
  2
*D14
 70
     1
 10
0.0
 20
0.0
 30
0.0
  3
*D14
  1

  0
LINE
  5
15E44
  8
DIM
 62
     0
 10
236.45872839440321
 20
54.259329199714792
 30
0.0
 11
237.58144788282041
 21
52.890722933812249
 31
0.0
  0
LINE
  5
15E45
  8
DIM
 62
     0
 10
237.58144788282041
 20
52.890722933812249
 30
0.0
 11
237.98644788282041
 21
52.890722933812249
 31
0.0
  0
SOLID
  5
15E46
  8
DIM
 62
     0
 10
236.51091532493089
 20
54.302140112834067
 30
0.0
 11
236.40654146387561
 21
54.216518286595552
 31
0.0
 12
236.20186291568771
 22
54.572450782880523
 32
0.0
 13
236.20186291568771
 23
54.572450782880523
 33
0.0
  0
INSERT
  5
15E47
  8
OBJECT
  2
*U56
 10
0.0
 20
0.0
 30
0.0
  0
LINE
  5
15E48
  8
DIM
 62
     0
 10
235.9099318695352
 20
54.681468121043082
 30
0.0
 11
236.3149318695352
 21
54.681468121043068
 31
0.0
  0
LINE
  5
15E49
  8
DIM
 62
     0
 10
236.11243186953519
 20
54.478968121043103
 30
0.0
 11
236.11243186953519
 21
54.883968121043083
 31
0.0
  0
POINT
  5
15E4A
  8
DEFPOINTS
 62
     0
 10
236.20186291568771
 20
54.572450782880523
 30
0.0
  0
POINT
  5
15E4B
  8
DEFPOINTS
 62
     0
 10
236.11243186953519
 20
54.681468121043082
 30
0.0
  0
ENDBLK
  5
F261
  8
0
  0
BLOCK
  8
0
  2
*D15
 70
     1
 10
0.0
 20
0.0
 30
0.0
  3
*D15
  1

  0
LINE
  5
15D74
  8
DIM
 62
     0
 10
237.44553620983581
 20
48.939029941318132
 30
0.0
 11
238.82212282395031
 21
48.939029941318132
 31
0.0
  0
LINE
  5
15D75
  8
DIM
 62
     0
 10
237.49358084169441
 20
50.200216941318118
 30
0.0
 11
238.82212282395031
 21
50.200216941318118
 31
0.0
  0
LINE
  5
15D76
  8
DIM
 62
     0
 10
238.61962282395021
 20
48.534029941318117
 30
0.0
 11
238.61962282395021
 21
48.129029941318123
 31
0.0
  0
LINE
  5
15D77
  8
DIM
 62
     0
 10
238.61962282395021
 20
50.605216941318119
 30
0.0
 11
238.61962282395021
 21
51.01021694131812
 31
0.0
  0
SOLID
  5
15D78
  8
DIM
 62
     0
 10
238.5521228239503
 20
48.534029941318117
 30
0.0
 11
238.68712282395029
 21
48.534029941318117
 31
0.0
 12
238.61962282395021
 22
48.939029941318132
 32
0.0
 13
238.61962282395021
 23
48.939029941318132
 33
0.0
  0
SOLID
  5
15D79
  8
DIM
 62
     0
 10
238.5521228239503
 20
50.605216941318119
 30
0.0
 11
238.68712282395029
 21
50.605216941318119
 31
0.0
 12
238.61962282395021
 22
50.200216941318118
 32
0.0
 13
238.61962282395021
 23
50.200216941318118
 33
0.0
  0
TEXT
  5
15D7A
  8
OBJECT
 62
     0
 10
238.26806032395021
 20
49.42899844131815
 30
0.0
 40
0.28125
  1
1.261
 41
0.75
  7
TXT
  0
POINT
  5
15D7B
  8
DEFPOINTS
 62
     0
 10
237.30491120983581
 20
48.939029941318132
 30
0.0
  0
POINT
  5
15D7C
  8
DEFPOINTS
 62
     0
 10
237.35295584169441
 20
50.200216941318118
 30
0.0
  0
POINT
  5
15D7D
  8
DEFPOINTS
 62
     0
 10
238.61962282395021
 20
50.200216941318118
 30
0.0
  0
ENDBLK
  5
F2F7
  8
0
  0
BLOCK
  8
0
  2
*D16
 70
     1
 10
0.0
 20
0.0
 30
0.0
  3
*D16
  1

  0
LINE
  5
15D6A
  8
DIM
 62
     0
 10
237.44553620983581
 20
48.939029941318132
 30
0.0
 11
240.0016750691191
 21
48.939029941318118
 31
0.0
  0
LINE
  5
15D6B
  8
DIM
 62
     0
 10
236.52300926787919
 20
50.699695941318012
 30
0.0
 11
240.0016750691191
 21
50.699695941318012
 31
0.0
  0
LINE
  5
15D6C
  8
DIM
 62
     0
 10
239.7991750691192
 20
49.344029941318119
 30
0.0
 11
239.7991750691192
 21
49.476237941318068
 31
0.0
  0
LINE
  5
15D6D
  8
DIM
 62
     0
 10
239.7991750691192
 20
50.294695941318011
 30
0.0
 11
239.7991750691192
 21
50.162487941318069
 31
0.0
  0
SOLID
  5
15D6E
  8
DIM
 62
     0
 10
239.73167506911921
 20
49.344029941318119
 30
0.0
 11
239.86667506911911
 21
49.344029941318119
 31
0.0
 12
239.7991750691192
 22
48.939029941318132
 32
0.0
 13
239.7991750691192
 23
48.939029941318132
 33
0.0
  0
SOLID
  5
15D6F
  8
DIM
 62
     0
 10
239.73167506911921
 20
50.294695941318011
 30
0.0
 11
239.86667506911911
 21
50.294695941318011
 31
0.0
 12
239.7991750691192
 22
50.699695941318012
 32
0.0
 13
239.7991750691192
 23
50.699695941318012
 33
0.0
  0
TEXT
  5
15D70
  8
OBJECT
 62
     0
 10
239.4476125691192
 20
49.678737941318097
 30
0.0
 40
0.28125
  1
1.761
 41
0.75
  7
TXT
  0
POINT
  5
15D71
  8
DEFPOINTS
 62
     0
 10
237.30491120983581
 20
48.939029941318132
 30
0.0
  0
POINT
  5
15D72
  8
DEFPOINTS
 62
     0
 10
236.38238426787919
 20
50.699695941318012
 30
0.0
  0
POINT
  5
15D73
  8
DEFPOINTS
 62
     0
 10
239.7991750691192
 20
50.699695941318012
 30
0.0
  0
ENDBLK
  5
F305
  8
0
  0
BLOCK
  8
0
  2
*D17
 70
     1
 10
0.0
 20
0.0
 30
0.0
  3
*D17
  1

  0
LINE
  5
15DB1
  8
DIM
 62
     0
 10
230.31061471219269
 20
48.63704119952439
 30
0.0
 11
229.79192023750201
 21
47.644707617689782
 31
0.0
  0
LINE
  5
15DB2
  8
DIM
 62
     0
 10
229.79192023750201
 20
47.644707617689782
 30
0.0
 11
229.38692023750201
 21
47.644707617689782
 31
0.0
  0
SOLID
  5
15DB3
  8
DIM
 62
     0
 10
230.25079386729519
 20
48.668309658324631
 30
0.0
 11
230.3704355570903
 21
48.605772740724149
 31
0.0
 12
230.49822546499411
 22
48.99596626890974
 32
0.0
 13
230.49822546499411
 23
48.99596626890974
 33
0.0
  0
INSERT
  5
15DB4
  8
OBJECT
  2
*U49
 10
0.0
 20
0.0
 30
0.0
  0
LINE
  5
15DB5
  8
DIM
 62
     0
 10
230.5275623259227
 20
49.439501941318277
 30
0.0
 11
230.9325623259227
 21
49.439501941318262
 31
0.0
  0
LINE
  5
15DB6
  8
DIM
 62
     0
 10
230.73006232592269
 20
49.237001941318248
 30
0.0
 11
230.73006232592269
 21
49.642001941318242
 31
0.0
  0
POINT
  5
15DB7
  8
DEFPOINTS
 62
     0
 10
230.49822546499411
 20
48.99596626890974
 30
0.0
  0
POINT
  5
15DB8
  8
DEFPOINTS
 62
     0
 10
230.73006232592269
 20
49.439501941318269
 30
0.0
  0
ENDBLK
  5
F31D
  8
0
  0
BLOCK
  8
0
  2
*D18
 70
     1
 10
0.0
 20
0.0
 30
0.0
  3
*D18
  1

  0
LINE
  5
15D62
  8
DIM
 62
     0
 10
230.3865194556742
 20
50.56752212225301
 30
0.0
 11
230.03579352431109
 21
51.665540022373577
 31
0.0
  0
LINE
  5
15D63
  8
DIM
 62
     0
 10
230.03579352431109
 20
51.665540022373577
 30
0.0
 11
229.63079352431109
 21
51.665540022373591
 31
0.0
  0
SOLID
  5
15D64
  8
DIM
 62
     0
 10
230.45081895216879
 20
50.588060494889518
 30
0.0
 11
230.32221995917979
 21
50.546983749616537
 31
0.0
 12
230.5097496914932
 22
50.18172514328608
 32
0.0
 13
230.5097496914932
 23
50.18172514328608
 33
0.0
  0
INSERT
  5
15D65
  8
OBJECT
  2
*U48
 10
0.0
 20
0.0
 30
0.0
  0
LINE
  5
15D66
  8
DIM
 62
     0
 10
230.425915844504
 20
49.810216941317933
 30
0.0
 11
230.83091584450401
 21
49.810216941317933
 31
0.0
  0
LINE
  5
15D67
  8
DIM
 62
     0
 10
230.62841584450399
 20
49.607716941317932
 30
0.0
 11
230.62841584450399
 21
50.012716941317919
 31
0.0
  0
POINT
  5
15D68
  8
DEFPOINTS
 62
     0
 10
230.5097496914932
 20
50.18172514328608
 30
0.0
  0
POINT
  5
15D69
  8
DEFPOINTS
 62
     0
 10
230.62841584450399
 20
49.810216941317918
 30
0.0
  0
ENDBLK
  5
F334
  8
0
  0
BLOCK
  8
0
  2
*D19
 70
     1
 10
0.0
 20
0.0
 30
0.0
  3
*D19
  1

  0
LINE
  5
15DA7
  8
DIM
 62
     0
 10
237.74155476787919
 20
49.309876941318002
 30
0.0
 11
237.74155476787919
 21
47.966561827575987
 31
0.0
  0
LINE
  5
15DA8
  8
DIM
 62
     0
 10
230.22941876787931
 20
49.309876941318002
 30
0.0
 11
230.22941876787931
 21
47.966561827575987
 31
0.0
  0
LINE
  5
15DA9
  8
DIM
 62
     0
 10
237.33655476787919
 20
48.169061827575987
 30
0.0
 11
234.51176237474681
 21
48.169061827575987
 31
0.0
  0
LINE
  5
15DAA
  8
DIM
 62
     0
 10
230.63441876787931
 20
48.169061827575987
 30
0.0
 11
233.33332487474681
 21
48.169061827575987
 31
0.0
  0
SOLID
  5
15DAB
  8
DIM
 62
     0
 10
237.33655476787919
 20
48.23656182757599
 30
0.0
 11
237.33655476787919
 21
48.101561827575992
 31
0.0
 12
237.74155476787919
 22
48.169061827575987
 32
0.0
 13
237.74155476787919
 23
48.169061827575987
 33
0.0
  0
SOLID
  5
15DAC
  8
DIM
 62
     0
 10
230.63441876787931
 20
48.23656182757599
 30
0.0
 11
230.63441876787931
 21
48.101561827575992
 31
0.0
 12
230.22941876787931
 22
48.169061827575987
 32
0.0
 13
230.22941876787931
 23
48.169061827575987
 33
0.0
  0
TEXT
  5
15DAD
  8
OBJECT
 62
     0
 10
233.53582487474671
 20
48.028436827575987
 30
0.0
 40
0.28125
  1
7.512
 41
0.75
  7
TXT
  0
POINT
  5
15DAE
  8
DEFPOINTS
 62
     0
 10
237.74155476787919
 20
49.450501941318009
 30
0.0
  0
POINT
  5
15DAF
  8
DEFPOINTS
 62
     0
 10
230.22941876787931
 20
49.450501941318009
 30
0.0
  0
POINT
  5
15DB0
  8
DEFPOINTS
 62
     0
 10
230.22941876787931
 20
48.169061827575987
 30
0.0
  0
ENDBLK
  5
F371
  8
0
  0
BLOCK
  8
0
  2
*D20
 70
     1
 10
0.0
 20
0.0
 30
0.0
  3
*D20
  1

  0
LINE
  5
15E4C
  8
DIM
 62
     0
 10
231.36958529966861
 20
50.840320941318012
 30
0.0
 11
231.36958529966861
 21
51.661596122088049
 31
0.0
  0
LINE
  5
15E4D
  8
DIM
 62
     0
 10
236.60138823608989
 20
50.840320941318012
 30
0.0
 11
236.60138823608989
 21
51.661596122088049
 31
0.0
  0
LINE
  5
15E4E
  8
DIM
 62
     0
 10
231.77458529966859
 20
51.459096122088049
 30
0.0
 11
233.15017426787921
 21
51.459096122088049
 31
0.0
  0
LINE
  5
15E4F
  8
DIM
 62
     0
 10
236.1963882360898
 20
51.459096122088049
 30
0.0
 11
234.82079926787921
 21
51.459096122088049
 31
0.0
  0
SOLID
  5
15E50
  8
DIM
 62
     0
 10
231.77458529966859
 20
51.526596122088058
 30
0.0
 11
231.77458529966859
 21
51.391596122088053
 31
0.0
 12
231.36958529966861
 22
51.459096122088049
 32
0.0
 13
231.36958529966861
 23
51.459096122088049
 33
0.0
  0
SOLID
  5
15E51
  8
DIM
 62
     0
 10
236.1963882360898
 20
51.526596122088058
 30
0.0
 11
236.1963882360898
 21
51.391596122088053
 31
0.0
 12
236.60138823608989
 22
51.459096122088049
 32
0.0
 13
236.60138823608989
 23
51.459096122088049
 33
0.0
  0
TEXT
  5
15E52
  8
OBJECT
 62
     0
 10
233.35267426787919
 20
51.318471122088063
 30
0.0
 40
0.28125
  1
5.232**
 41
0.75
  7
TXT
  0
POINT
  5
15E53
  8
DEFPOINTS
 62
     0
 10
231.36958529966861
 20
50.699695941318012
 30
0.0
  0
POINT
  5
15E54
  8
DEFPOINTS
 62
     0
 10
236.60138823608989
 20
50.699695941318012
 30
0.0
  0
POINT
  5
15E55
  8
DEFPOINTS
 62
     0
 10
236.60138823608989
 20
51.459096122088049
 30
0.0
  0
ENDBLK
  5
F37F
  8
0
  0
BLOCK
  8
0
  2
*D21
 70
     1
 10
0.0
 20
0.0
 30
0.0
  3
*D21
  1

  0
LINE
  5
15D58
  8
DIM
 62
     0
 10
230.47739269406409
 20
50.099923941318011
 30
0.0
 11
228.46722913786439
 21
50.099923941318011
 31
0.0
  0
LINE
  5
15D59
  8
DIM
 62
     0
 10
230.58834061085739
 20
49.049252941318109
 30
0.0
 11
228.46722913786439
 21
49.049252941318109
 31
0.0
  0
LINE
  5
15D5A
  8
DIM
 62
     0
 10
228.66972913786441
 20
50.504923941318012
 30
0.0
 11
228.66972913786441
 21
50.909923941318013
 31
0.0
  0
LINE
  5
15D5B
  8
DIM
 62
     0
 10
228.66972913786441
 20
48.644252941318122
 30
0.0
 11
228.66972913786441
 21
48.239252941318107
 31
0.0
  0
SOLID
  5
15D5C
  8
DIM
 62
     0
 10
228.60222913786441
 20
50.504923941318012
 30
0.0
 11
228.7372291378644
 21
50.504923941318012
 31
0.0
 12
228.66972913786441
 22
50.099923941318011
 32
0.0
 13
228.66972913786441
 23
50.099923941318011
 33
0.0
  0
SOLID
  5
15D5D
  8
DIM
 62
     0
 10
228.60222913786441
 20
48.644252941318122
 30
0.0
 11
228.7372291378644
 21
48.644252941318122
 31
0.0
 12
228.66972913786441
 22
49.049252941318109
 32
0.0
 13
228.66972913786441
 23
49.049252941318109
 33
0.0
  0
INSERT
  5
15D5E
  8
OBJECT
  2
*U47
 10
0.0
 20
0.0
 30
0.0
  0
POINT
  5
15D5F
  8
DEFPOINTS
 62
     0
 10
230.61801769406409
 20
50.099923941318011
 30
0.0
  0
POINT
  5
15D60
  8
DEFPOINTS
 62
     0
 10
230.72896561085739
 20
49.049252941318109
 30
0.0
  0
POINT
  5
15D61
  8
DEFPOINTS
 62
     0
 10
228.66972913786441
 20
49.049252941318109
 30
0.0
  0
ENDBLK
  5
F88D
  8
0
  0
BLOCK
  8
0
  2
*D22
 70
     1
 10
0.0
 20
0.0
 30
0.0
  3
*D22
  1

  0
LINE
  5
15DCD
  8
DIM
 62
     0
 10
236.9284583695356
 20
58.644223621043082
 30
0.0
 11
236.9284583695356
 21
60.590556139144013
 31
0.0
  0
LINE
  5
15DCE
  8
DIM
 62
     0
 10
231.04245836953561
 20
58.644223621043082
 30
0.0
 11
231.04245836953561
 21
60.590556139144013
 31
0.0
  0
LINE
  5
15DCF
  8
DIM
 62
     0
 10
236.5234583695356
 20
60.388056139144012
 30
0.0
 11
234.6321750073854
 21
60.388056139144012
 31
0.0
  0
LINE
  5
15DD0
  8
DIM
 62
     0
 10
231.44745836953561
 20
60.388056139144012
 30
0.0
 11
233.3834250073854
 21
60.388056139144012
 31
0.0
  0
SOLID
  5
15DD1
  8
DIM
 62
     0
 10
236.5234583695356
 20
60.455556139144022
 30
0.0
 11
236.5234583695356
 21
60.32055613914401
 31
0.0
 12
236.9284583695356
 22
60.388056139144012
 32
0.0
 13
236.9284583695356
 23
60.388056139144012
 33
0.0
  0
SOLID
  5
15DD2
  8
DIM
 62
     0
 10
231.44745836953561
 20
60.455556139144022
 30
0.0
 11
231.44745836953561
 21
60.32055613914401
 31
0.0
 12
231.04245836953561
 22
60.388056139144012
 32
0.0
 13
231.04245836953561
 23
60.388056139144012
 33
0.0
  0
TEXT
  5
15DD3
  8
OBJECT
 62
     0
 10
233.58592500738541
 20
60.247431139144012
 30
0.0
 40
0.28125
  1
5.886
 41
0.75
  7
TXT
  0
POINT
  5
15DD4
  8
DEFPOINTS
 62
     0
 10
236.9284583695356
 20
58.503598621043082
 30
0.0
  0
POINT
  5
15DD5
  8
DEFPOINTS
 62
     0
 10
231.04245836953561
 20
58.503598621043082
 30
0.0
  0
POINT
  5
15DD6
  8
DEFPOINTS
 62
     0
 10
231.04245836953561
 20
60.388056139144012
 30
0.0
  0
ENDBLK
  5
FB3F
  8
0
  0
BLOCK
  8
0
  2
*D23
 70
     1
 10
0.0
 20
0.0
 30
0.0
  3
*D23
  1

  0
LINE
  5
15DD7
  8
DIM
 62
     0
 10
230.60524786953559
 20
54.60240562104309
 30
0.0
 11
230.60524786953559
 21
52.41332342994702
 31
0.0
  0
LINE
  5
15DD8
  8
DIM
 62
     0
 10
237.3656688695356
 20
54.607405621043092
 30
0.0
 11
237.3656688695356
 21
52.41332342994702
 31
0.0
  0
LINE
  5
15DD9
  8
DIM
 62
     0
 10
231.01024786953559
 20
52.615823429947021
 30
0.0
 11
233.37866149453561
 21
52.615823429947021
 31
0.0
  0
LINE
  5
15DDA
  8
DIM
 62
     0
 10
236.9606688695356
 20
52.615823429947021
 30
0.0
 11
234.59225524453561
 21
52.615823429947021
 31
0.0
  0
SOLID
  5
15DDB
  8
DIM
 62
     0
 10
231.01024786953559
 20
52.683323429947023
 30
0.0
 11
231.01024786953559
 21
52.548323429947018
 31
0.0
 12
230.60524786953559
 22
52.615823429947021
 32
0.0
 13
230.60524786953559
 23
52.615823429947021
 33
0.0
  0
SOLID
  5
15DDC
  8
DIM
 62
     0
 10
236.9606688695356
 20
52.683323429947023
 30
0.0
 11
236.9606688695356
 21
52.548323429947018
 31
0.0
 12
237.3656688695356
 22
52.615823429947021
 32
0.0
 13
237.3656688695356
 23
52.615823429947021
 33
0.0
  0
TEXT
  5
15DDD
  8
OBJECT
 62
     0
 10
233.58116149453559
 20
52.475198429947021
 30
0.0
 40
0.28125
  1
6.760
 41
0.75
  7
TXT
  0
POINT
  5
15DDE
  8
DEFPOINTS
 62
     0
 10
230.60524786953559
 20
54.74303062104309
 30
0.0
  0
POINT
  5
15DDF
  8
DEFPOINTS
 62
     0
 10
237.3656688695356
 20
54.748030621043078
 30
0.0
  0
POINT
  5
15DE0
  8
DEFPOINTS
 62
     0
 10
237.3656688695356
 20
52.615823429947021
 30
0.0
  0
ENDBLK
  5
FB61
  8
0
  0
BLOCK
  8
0
  2
*D24
 70
     1
 10
0.0
 20
0.0
 30
0.0
  3
*D24
  1

  0
LINE
  5
15D7E
  8
DIM
 62
     0
 10
232.96948672583031
 20
42.178702613981372
 30
0.0
 11
232.96948672583031
 21
40.386384695199041
 31
0.0
  0
LINE
  5
15D7F
  8
DIM
 62
     0
 10
235.0014867258302
 20
42.178702613981372
 30
0.0
 11
235.0014867258302
 21
40.386384695199041
 31
0.0
  0
LINE
  5
15D80
  8
DIM
 62
     0
 10
232.56448672583031
 20
40.588884695199042
 30
0.0
 11
232.15948672583031
 21
40.588884695199042
 31
0.0
  0
LINE
  5
15D81
  8
DIM
 62
     0
 10
235.40648672583029
 20
40.588884695199042
 30
0.0
 11
235.81148672583021
 21
40.588884695199042
 31
0.0
  0
SOLID
  5
15D82
  8
DIM
 62
     0
 10
232.56448672583031
 20
40.656384695199037
 30
0.0
 11
232.56448672583031
 21
40.521384695199039
 31
0.0
 12
232.96948672583031
 22
40.588884695199042
 32
0.0
 13
232.96948672583031
 23
40.588884695199042
 33
0.0
  0
SOLID
  5
15D83
  8
DIM
 62
     0
 10
235.40648672583029
 20
40.656384695199037
 30
0.0
 11
235.40648672583029
 21
40.521384695199039
 31
0.0
 12
235.0014867258302
 22
40.588884695199042
 32
0.0
 13
235.0014867258302
 23
40.588884695199042
 33
0.0
  0
TEXT
  5
15D84
  8
OBJECT
 62
     0
 10
233.5530882090074
 20
40.448259695199042
 30
0.0
 40
0.28125
  1
2.032
 41
0.75
  7
TXT
  0
POINT
  5
15D85
  8
DEFPOINTS
 62
     0
 10
232.96948672583031
 20
42.319327613981372
 30
0.0
  0
POINT
  5
15D86
  8
DEFPOINTS
 62
     0
 10
235.0014867258302
 20
42.319327613981372
 30
0.0
  0
POINT
  5
15D87
  8
DEFPOINTS
 62
     0
 10
235.0014867258302
 20
40.588884695199042
 30
0.0
  0
ENDBLK
  5
120C0
  8
0
  0
BLOCK
  8
0
  2
*D25
 70
     1
 10
0.0
 20
0.0
 30
0.0
  3
*D25
  1

  0
LINE
  5
15D88
  8
DIM
 62
     0
 10
231.0890495047251
 20
43.346207113981443
 30
0.0
 11
231.0890495047251
 21
39.877524422847657
 31
0.0
  0
LINE
  5
15D89
  8
DIM
 62
     0
 10
236.8819239469353
 20
43.409207113981452
 30
0.0
 11
236.8819239469353
 21
39.877524422847657
 31
0.0
  0
LINE
  5
15D8A
  8
DIM
 62
     0
 10
231.49404950472521
 20
40.080024422847657
 30
0.0
 11
233.29100165121619
 21
40.080024422847657
 31
0.0
  0
LINE
  5
15D8B
  8
DIM
 62
     0
 10
236.4769239469353
 20
40.080024422847657
 30
0.0
 11
234.53975165121619
 21
40.080024422847657
 31
0.0
  0
SOLID
  5
15D8C
  8
DIM
 62
     0
 10
231.49404950472521
 20
40.14752442284766
 30
0.0
 11
231.49404950472521
 21
40.012524422847662
 31
0.0
 12
231.0890495047251
 22
40.080024422847657
 32
0.0
 13
231.0890495047251
 23
40.080024422847657
 33
0.0
  0
SOLID
  5
15D8D
  8
DIM
 62
     0
 10
236.4769239469353
 20
40.14752442284766
 30
0.0
 11
236.4769239469353
 21
40.012524422847662
 31
0.0
 12
236.8819239469353
 22
40.080024422847657
 32
0.0
 13
236.8819239469353
 23
40.080024422847657
 33
0.0
  0
TEXT
  5
15D8E
  8
OBJECT
 62
     0
 10
233.49350165121621
 20
39.939399422847657
 30
0.0
 40
0.28125
  1
5.793
 41
0.75
  7
TXT
  0
POINT
  5
15D8F
  8
DEFPOINTS
 62
     0
 10
231.0890495047251
 20
43.48683211398145
 30
0.0
  0
POINT
  5
15D90
  8
DEFPOINTS
 62
     0
 10
236.8819239469353
 20
43.549832113981452
 30
0.0
  0
POINT
  5
15D91
  8
DEFPOINTS
 62
     0
 10
236.8819239469353
 20
40.080024422847657
 30
0.0
  0
ENDBLK
  5
120CD
  8
0
  0
BLOCK
  8
0
  2
*D26
 70
     1
 10
0.0
 20
0.0
 30
0.0
  3
*D26
  1

  0
LINE
  5
15D92
  8
DIM
 62
     0
 10
232.75012156835001
 20
43.835827613981373
 30
0.0
 11
229.62936922234221
 21
43.835827613981373
 31
0.0
  0
LINE
  5
15D93
  8
DIM
 62
     0
 10
229.7687959676808
 20
43.679950113981377
 30
0.0
 11
229.62936922234221
 21
43.679950113981377
 31
0.0
  0
LINE
  5
15D94
  8
DIM
 62
     0
 10
229.83186922234219
 20
44.240827613981381
 30
0.0
 11
229.83186922234219
 21
44.645827613981382
 31
0.0
  0
LINE
  5
15D95
  8
DIM
 62
     0
 10
229.83186922234219
 20
43.274950113981369
 30
0.0
 11
229.83186922234219
 21
42.869950113981368
 31
0.0
  0
LINE
  5
15D96
  8
DIM
 62
     0
 10
229.83186922234219
 20
42.869950113981368
 30
0.0
 11
229.42686922234219
 21
42.869950113981368
 31
0.0
  0
SOLID
  5
15D97
  8
DIM
 62
     0
 10
229.7643692223422
 20
44.240827613981381
 30
0.0
 11
229.89936922234219
 21
44.240827613981381
 31
0.0
 12
229.83186922234219
 22
43.835827613981373
 32
0.0
 13
229.83186922234219
 23
43.835827613981373
 33
0.0
  0
SOLID
  5
15D98
  8
DIM
 62
     0
 10
229.7643692223422
 20
43.274950113981369
 30
0.0
 11
229.89936922234219
 21
43.274950113981369
 31
0.0
 12
229.83186922234219
 22
43.679950113981377
 32
0.0
 13
229.83186922234219
 23
43.679950113981377
 33
0.0
  0
TEXT
  5
15D99
  8
OBJECT
 62
     0
 10
228.4860879723422
 20
42.72932511398141
 30
0.0
 40
0.28125
  1
0.156
 41
0.75
  7
TXT
  0
POINT
  5
15D9A
  8
DEFPOINTS
 62
     0
 10
232.89074656835001
 20
43.835827613981373
 30
0.0
  0
POINT
  5
15D9B
  8
DEFPOINTS
 62
     0
 10
229.9094209676808
 20
43.679950113981377
 30
0.0
  0
POINT
  5
15D9C
  8
DEFPOINTS
 62
     0
 10
229.83186922234219
 20
43.679950113981377
 30
0.0
  0
ENDBLK
  5
1219C
  8
0
  0
BLOCK
  8
0
  2
*D27
 70
     1
 10
0.0
 20
0.0
 30
0.0
  3
*D27
  1

  0
LINE
  5
15D9D
  8
DIM
 62
     0
 10
232.82886168941599
 20
45.352327604425859
 30
0.0
 11
227.9640981962954
 21
45.352327604425859
 31
0.0
  0
LINE
  5
15D9E
  8
DIM
 62
     0
 10
232.82886168941599
 20
42.319327655233451
 30
0.0
 11
227.9640981962954
 21
42.319327655233451
 31
0.0
  0
LINE
  5
15D9F
  8
DIM
 62
     0
 10
228.16659819629541
 20
44.947327604425872
 30
0.0
 11
228.16659819629541
 21
44.178952629829652
 31
0.0
  0
LINE
  5
15DA0
  8
DIM
 62
     0
 10
228.16659819629541
 20
42.724327655233452
 30
0.0
 11
228.16659819629541
 21
43.492702629829651
 31
0.0
  0
SOLID
  5
15DA1
  8
DIM
 62
     0
 10
228.09909819629539
 20
44.947327604425872
 30
0.0
 11
228.23409819629541
 21
44.947327604425872
 31
0.0
 12
228.16659819629541
 22
45.352327604425859
 32
0.0
 13
228.16659819629541
 23
45.352327604425859
 33
0.0
  0
SOLID
  5
15DA2
  8
DIM
 62
     0
 10
228.09909819629539
 20
42.724327655233452
 30
0.0
 11
228.23409819629541
 21
42.724327655233452
 31
0.0
 12
228.16659819629541
 22
42.319327655233451
 32
0.0
 13
228.16659819629541
 23
42.319327655233451
 33
0.0
  0
TEXT
  5
15DA3
  8
OBJECT
 62
     0
 10
227.76230132129541
 20
43.695202629829687
 30
0.0
 40
0.28125
  1
3.033
 41
0.75
  7
TXT
  0
POINT
  5
15DA4
  8
DEFPOINTS
 62
     0
 10
232.96948668941599
 20
45.352327604425859
 30
0.0
  0
POINT
  5
15DA5
  8
DEFPOINTS
 62
     0
 10
232.96948668941599
 20
42.319327655233451
 30
0.0
  0
POINT
  5
15DA6
  8
DEFPOINTS
 62
     0
 10
228.16659819629541
 20
42.319327655233451
 30
0.0
  0
ENDBLK
  5
121A9
  8
0
  0
BLOCK
  8
0
  2
*D28
 70
     1
 10
0.0
 20
0.0
 30
0.0
  3
*D28
  1

  0
LINE
  5
15DC3
  8
DIM
 62
     0
 10
238.2081065788924
 20
43.679950113981377
 30
0.0
 11
238.77193837280419
 21
43.679950113981377
 31
0.0
  0
LINE
  5
15DC4
  8
DIM
 62
     0
 10
236.40067516632431
 20
42.034703392876253
 30
0.0
 11
238.77193837280419
 21
42.034703392876253
 31
0.0
  0
LINE
  5
15DC5
  8
DIM
 62
     0
 10
238.5694383728042
 20
43.274950113981369
 30
0.0
 11
238.5694383728042
 21
43.215864211329688
 31
0.0
  0
LINE
  5
15DC6
  8
DIM
 62
     0
 10
238.5694383728042
 20
42.439703392876247
 30
0.0
 11
238.5694383728042
 21
42.529614211329687
 31
0.0
  0
SOLID
  5
15DC7
  8
DIM
 62
     0
 10
238.5019383728042
 20
43.274950113981369
 30
0.0
 11
238.6369383728042
 21
43.274950113981369
 31
0.0
 12
238.5694383728042
 22
43.679950113981377
 32
0.0
 13
238.5694383728042
 23
43.679950113981377
 33
0.0
  0
SOLID
  5
15DC8
  8
DIM
 62
     0
 10
238.5019383728042
 20
42.439703392876247
 30
0.0
 11
238.6369383728042
 21
42.439703392876247
 31
0.0
 12
238.5694383728042
 22
42.034703392876253
 32
0.0
 13
238.5694383728042
 23
42.034703392876253
 33
0.0
  0
TEXT
  5
15DC9
  8
OBJECT
 62
     0
 10
238.1827196228042
 20
42.732114211329723
 30
0.0
 40
0.28125
  1
1.645
 41
0.75
  7
TXT
  0
POINT
  5
15DCA
  8
DEFPOINTS
 62
     0
 10
238.0674815788924
 20
43.679950113981377
 30
0.0
  0
POINT
  5
15DCB
  8
DEFPOINTS
 62
     0
 10
236.26005016632431
 20
42.034703392876253
 30
0.0
  0
POINT
  5
15DCC
  8
DEFPOINTS
 62
     0
 10
238.5694383728042
 20
42.034703392876253
 30
0.0
  0
ENDBLK
  5
12242
  8
0
  0
BLOCK
  8
0
  2
*D29
 70
     1
 10
0.0
 20
0.0
 30
0.0
  3
*D29
  1

  0
LINE
  5
15DB9
  8
DIM
 62
     0
 10
236.73854894693531
 20
45.699827613981363
 30
0.0
 11
238.77193837280419
 21
45.699827613981363
 31
0.0
  0
LINE
  5
15DBA
  8
DIM
 62
     0
 10
238.2081065788924
 20
43.679950113981377
 30
0.0
 11
238.77193837280419
 21
43.679950113981377
 31
0.0
  0
LINE
  5
15DBB
  8
DIM
 62
     0
 10
238.5694383728042
 20
45.294827613981369
 30
0.0
 11
238.5694383728042
 21
45.033013863981367
 31
0.0
  0
LINE
  5
15DBC
  8
DIM
 62
     0
 10
238.5694383728042
 20
44.084950113981371
 30
0.0
 11
238.5694383728042
 21
44.346763863981373
 31
0.0
  0
SOLID
  5
15DBD
  8
DIM
 62
     0
 10
238.5019383728042
 20
45.294827613981369
 30
0.0
 11
238.6369383728042
 21
45.294827613981369
 31
0.0
 12
238.5694383728042
 22
45.699827613981363
 32
0.0
 13
238.5694383728042
 23
45.699827613981363
 33
0.0
  0
SOLID
  5
15DBE
  8
DIM
 62
     0
 10
238.5019383728042
 20
44.084950113981371
 30
0.0
 11
238.6369383728042
 21
44.084950113981371
 31
0.0
 12
238.5694383728042
 22
43.679950113981377
 32
0.0
 13
238.5694383728042
 23
43.679950113981377
 33
0.0
  0
TEXT
  5
15DBF
  8
OBJECT
 62
     0
 10
238.1827196228042
 20
44.549263863981409
 30
0.0
 40
0.28125
  1
2.020
 41
0.75
  7
TXT
  0
POINT
  5
15DC0
  8
DEFPOINTS
 62
     0
 10
236.59792394693531
 20
45.699827613981363
 30
0.0
  0
POINT
  5
15DC1
  8
DEFPOINTS
 62
     0
 10
238.0674815788924
 20
43.679950113981377
 30
0.0
  0
POINT
  5
15DC2
  8
DEFPOINTS
 62
     0
 10
238.5694383728042
 20
43.679950113981377
 30
0.0
  0
ENDBLK
  5
1224F
  8
0
  0
BLOCK
  8
0
  2
HBS
 70
     0
 10
0.0
 20
0.0
 30
0.0
  3
HBS
  1

  0
LINE
  5
14172
  8
TITLE
 10
0.0620000000000118
 20
10.266
 30
0.0
 11
16.538000000000011
 21
10.266
 31
0.0
  0
LINE
  5
14173
  8
TITLE
 10
16.538000000000011
 20
0.0620000000000012
 30
0.0
 11
0.0620000000000118
 21
0.0620000000000012
 31
0.0
  0
LINE
  5
14174
  8
TITLE
 10
0.0
 20
10.327999999999991
 30
0.0
 11
16.599999999999991
 21
10.327999999999991
 31
0.0
  0
LINE
  5
14175
  8
TITLE
 10
16.599999999999991
 20
0.0
 30
0.0
 11
0.0
 21
0.0
 31
0.0
  0
LINE
  5
14176
  8
TITLE
 10
0.0620000000000118
 20
9.8480000000000025
 30
0.0
 11
16.538000000000011
 21
9.8480000000000061
 31
0.0
  0
LINE
  5
14177
  8
TITLE
 10
0.0620000000000118
 20
0.0620000000000012
 30
0.0
 11
0.0620000000000118
 21
10.266
 31
0.0
  0
LINE
  5
14178
  8
TITLE
 10
0.0
 20
0.0
 30
0.0
 11
0.0
 21
10.327999999999991
 31
0.0
  0
TEXT
  5
14179
  8
TEXT
 10
0.2078333333333452
 20
9.8880791956400813
 30
0.0
 40
0.125
  1
NAME
  7
TXT
 72
     1
 11
0.4370000000000119
 21
9.8880791956400813
 31
0.0
  0
TEXT
  5
1417A
  8
TEXT
 10
0.2078333333333452
 20
10.09641252897341
 30
0.0
 40
0.125
  1
PART
  7
TXT
 72
     1
 11
0.4370000000000119
 21
10.09641252897341
 31
0.0
  0
LINE
  5
1417B
  8
TITLE
 10
0.8120000000000118
 20
9.8480000000000025
 30
0.0
 11
0.8120000000000118
 21
10.266
 31
0.0
  0
LINE
  5
1417C
  8
TITLE
 10
7.0
 20
10.266
 30
0.0
 11
7.0
 21
9.8480000000000025
 31
0.0
  0
LINE
  5
1417D
  8
TITLE
 10
7.0620000000000109
 20
10.266
 30
0.0
 11
7.0620000000000109
 21
9.8480000000000025
 31
0.0
  0
LINE
  5
1417E
  8
TITLE
 10
7.8120000000000109
 20
10.266
 30
0.0
 11
7.8120000000000109
 21
9.8480000000000025
 31
0.0
  0
TEXT
  5
1417F
  8
TEXT
 10
7.3120000000000109
 20
9.8880791956400813
 30
0.0
 40
0.125
  1
No.
  7
TXT
 72
     1
 11
7.4370000000000109
 21
9.8880791956400813
 31
0.0
  0
TEXT
  5
14180
  8
TEXT
 10
7.207833333333344
 20
10.09641252897341
 30
0.0
 40
0.125
  1
PART
  7
TXT
 72
     1
 11
7.4370000000000109
 21
10.09641252897341
 31
0.0
  0
LINE
  5
14181
  8
TITLE
 10
16.538000000000011
 20
10.266
 30
0.0
 11
16.538000000000011
 21
0.0620000000000012
 31
0.0
  0
LINE
  5
14182
  8
TITLE
 10
16.599999999999991
 20
10.327999999999991
 30
0.0
 11
16.599999999999991
 21
0.0
 31
0.0
  0
TEXT
  5
14183
  8
TEXT
 10
14.228657799716681
 20
10.09641252897341
 30
0.0
 40
0.125
  1
REV.
  7
TXT
 72
     1
 11
14.436991133050009
 21
10.09641252897341
 31
0.0
  0
TEXT
  5
14184
  8
TEXT
 10
14.20782446638335
 20
9.8880791956400813
 30
0.0
 40
0.125
  1
DATE
  7
TXT
 72
     1
 11
14.436991133050009
 21
9.8880791956400813
 31
0.0
  0
LINE
  5
14185
  8
TITLE
 10
14.061991133050009
 20
10.266
 30
0.0
 11
14.061991133050009
 21
9.8480000000000025
 31
0.0
  0
LINE
  5
14186
  8
TITLE
 10
14.811991133050009
 20
10.266
 30
0.0
 11
14.811991133050009
 21
9.8480000000000025
 31
0.0
  0
LINE
  5
14187
  8
TITLE
 10
13.999991133050001
 20
10.266
 30
0.0
 11
13.999991133050001
 21
9.8480000000000025
 31
0.0
  0
ENDBLK
  5
14189
  8
0
  0
BLOCK
  8
0
  2
*D31
 70
     1
 10
0.0
 20
0.0
 30
0.0
  3
*D31
  1

  0
LINE
  5
15E13
  8
DIM
 62
     0
 10
229.9887653695356
 20
56.750932621043177
 30
0.0
 11
226.03117451077651
 21
56.750932621043177
 31
0.0
  0
LINE
  5
15E14
  8
DIM
 62
     0
 10
230.90183336953561
 20
58.503598621043082
 30
0.0
 11
226.03117451077651
 21
58.503598621043082
 31
0.0
  0
LINE
  5
15E15
  8
DIM
 62
     0
 10
226.23367451077641
 20
56.345932621043168
 30
0.0
 11
226.23367451077641
 21
55.940932621043167
 31
0.0
  0
LINE
  5
15E16
  8
DIM
 62
     0
 10
226.23367451077641
 20
58.908598621043083
 30
0.0
 11
226.23367451077641
 21
59.313598621043077
 31
0.0
  0
SOLID
  5
15E17
  8
DIM
 62
     0
 10
226.16617451077639
 20
56.345932621043168
 30
0.0
 11
226.30117451077641
 21
56.345932621043168
 31
0.0
 12
226.23367451077641
 22
56.750932621043177
 32
0.0
 13
226.23367451077641
 23
56.750932621043177
 33
0.0
  0
SOLID
  5
15E18
  8
DIM
 62
     0
 10
226.16617451077639
 20
58.908598621043083
 30
0.0
 11
226.30117451077641
 21
58.908598621043083
 31
0.0
 12
226.23367451077641
 22
58.503598621043082
 32
0.0
 13
226.23367451077641
 23
58.503598621043082
 33
0.0
  0
INSERT
  5
15E19
  8
OBJECT
  2
*U53
 10
0.0
 20
0.0
 30
0.0
  0
POINT
  5
15E1A
  8
DEFPOINTS
 62
     0
 10
230.1293903695356
 20
56.750932621043177
 30
0.0
  0
POINT
  5
15E1B
  8
DEFPOINTS
 62
     0
 10
231.04245836953561
 20
58.503598621043082
 30
0.0
  0
POINT
  5
15E1C
  8
DEFPOINTS
 62
     0
 10
226.23367451077641
 20
58.503598621043082
 30
0.0
  0
ENDBLK
  5
1533D
  8
0
  0
BLOCK
  8
0
  2
*D32
 70
     1
 10
0.0
 20
0.0
 30
0.0
  3
*D32
  1

  0
LINE
  5
15DFF
  8
DIM
 62
     0
 10
229.9887653695356
 20
56.750932621043177
 30
0.0
 11
225.0229457401478
 21
56.750932621043177
 31
0.0
  0
LINE
  5
15E00
  8
DIM
 62
     0
 10
230.46462286953559
 20
54.748030621043078
 30
0.0
 11
225.0229457401478
 21
54.748030621043078
 31
0.0
  0
LINE
  5
15E01
  8
DIM
 62
     0
 10
225.22544574014771
 20
57.155932621043171
 30
0.0
 11
225.22544574014771
 21
57.560932621043179
 31
0.0
  0
LINE
  5
15E02
  8
DIM
 62
     0
 10
225.22544574014771
 20
54.343030621043091
 30
0.0
 11
225.22544574014771
 21
53.938030621043083
 31
0.0
  0
SOLID
  5
15E03
  8
DIM
 62
     0
 10
225.1579457401478
 20
57.155932621043171
 30
0.0
 11
225.2929457401477
 21
57.155932621043171
 31
0.0
 12
225.22544574014771
 22
56.750932621043177
 32
0.0
 13
225.22544574014771
 23
56.750932621043177
 33
0.0
  0
SOLID
  5
15E04
  8
DIM
 62
     0
 10
225.1579457401478
 20
54.343030621043091
 30
0.0
 11
225.2929457401477
 21
54.343030621043091
 31
0.0
 12
225.22544574014771
 22
54.748030621043078
 32
0.0
 13
225.22544574014771
 23
54.748030621043078
 33
0.0
  0
INSERT
  5
15E05
  8
OBJECT
  2
*U51
 10
0.0
 20
0.0
 30
0.0
  0
POINT
  5
15E06
  8
DEFPOINTS
 62
     0
 10
230.1293903695356
 20
56.750932621043177
 30
0.0
  0
POINT
  5
15E07
  8
DEFPOINTS
 62
     0
 10
230.60524786953559
 20
54.748030621043078
 30
0.0
  0
POINT
  5
15E08
  8
DEFPOINTS
 62
     0
 10
225.22544574014771
 20
54.748030621043078
 30
0.0
  0
ENDBLK
  5
153B2
  8
0
  0
BLOCK
  8
0
  2
*D33
 70
     1
 10
0.0
 20
0.0
 30
0.0
  3
*D33
  1

  0
LINE
  5
15D4E
  8
DIM
 62
     0
 10
230.4477156108573
 20
49.049252941318109
 30
0.0
 11
225.7548807677282
 21
49.049252941318109
 31
0.0
  0
LINE
  5
15D4F
  8
DIM
 62
     0
 10
231.4479642678792
 20
50.599402941317997
 30
0.0
 11
225.7548807677282
 21
50.599402941317997
 31
0.0
  0
LINE
  5
15D50
  8
DIM
 62
     0
 10
225.95738076772821
 20
48.644252941318122
 30
0.0
 11
225.95738076772821
 21
48.239252941318107
 31
0.0
  0
LINE
  5
15D51
  8
DIM
 62
     0
 10
225.95738076772821
 20
51.004402941317998
 30
0.0
 11
225.95738076772821
 21
51.409402941318007
 31
0.0
  0
SOLID
  5
15D52
  8
DIM
 62
     0
 10
225.88988076772819
 20
48.644252941318122
 30
0.0
 11
226.02488076772821
 21
48.644252941318122
 31
0.0
 12
225.95738076772821
 22
49.049252941318109
 32
0.0
 13
225.95738076772821
 23
49.049252941318109
 33
0.0
  0
SOLID
  5
15D53
  8
DIM
 62
     0
 10
225.88988076772819
 20
51.004402941317998
 30
0.0
 11
226.02488076772821
 21
51.004402941317998
 31
0.0
 12
225.95738076772821
 22
50.599402941317997
 32
0.0
 13
225.95738076772821
 23
50.599402941317997
 33
0.0
  0
INSERT
  5
15D54
  8
OBJECT
  2
*U46
 10
0.0
 20
0.0
 30
0.0
  0
POINT
  5
15D55
  8
DEFPOINTS
 62
     0
 10
230.58834061085739
 20
49.049252941318109
 30
0.0
  0
POINT
  5
15D56
  8
DEFPOINTS
 62
     0
 10
231.5885892678792
 20
50.599402941317997
 30
0.0
  0
POINT
  5
15D57
  8
DEFPOINTS
 62
     0
 10
225.95738076772821
 20
50.599402941317997
 30
0.0
  0
ENDBLK
  5
15468
  8
0
  0
BLOCK
  8
0
  2
*D34
 70
     1
 10
0.0
 20
0.0
 30
0.0
  3
*D34
  1

  0
LINE
  5
15F0D
  8
DIM
 62
     0
 10
256.67941703891302
 20
42.607054932798192
 30
0.0
 11
257.71190860946928
 21
42.607054932798192
 31
0.0
  0
LINE
  5
15F0E
  8
DIM
 62
     0
 10
256.67941703891302
 20
44.982054932798192
 30
0.0
 11
257.71190860946928
 21
44.982054932798192
 31
0.0
  0
LINE
  5
15F0F
  8
DIM
 62
     0
 10
257.50940860946929
 20
43.012054932798193
 30
0.0
 11
257.50940860946929
 21
43.451429932798192
 31
0.0
  0
LINE
  5
15F10
  8
DIM
 62
     0
 10
257.50940860946929
 20
44.577054932798191
 30
0.0
 11
257.50940860946929
 21
44.137679932798193
 31
0.0
  0
SOLID
  5
15F11
  8
DIM
 62
     0
 10
257.44190860946929
 20
43.012054932798193
 30
0.0
 11
257.57690860946929
 21
43.012054932798193
 31
0.0
 12
257.50940860946929
 22
42.607054932798192
 32
0.0
 13
257.50940860946929
 23
42.607054932798192
 33
0.0
  0
SOLID
  5
15F12
  8
DIM
 62
     0
 10
257.44190860946929
 20
44.577054932798191
 30
0.0
 11
257.57690860946929
 21
44.577054932798191
 31
0.0
 12
257.50940860946929
 22
44.982054932798192
 32
0.0
 13
257.50940860946929
 23
44.982054932798192
 33
0.0
  0
TEXT
  5
15F13
  8
OBJECT
 62
     0
 10
257.08753360946929
 20
43.653929932798228
 30
0.0
 40
0.28125
  1
2.375
 41
0.75
  7
TXT
  0
POINT
  5
15F14
  8
DEFPOINTS
 62
     0
 10
256.53879203891302
 20
42.607054932798192
 30
0.0
  0
POINT
  5
15F15
  8
DEFPOINTS
 62
     0
 10
256.53879203891302
 20
44.982054932798192
 30
0.0
  0
POINT
  5
15F16
  8
DEFPOINTS
 62
     0
 10
257.50940860946929
 20
44.982054932798192
 30
0.0
  0
ENDBLK
  5
158C1
  8
0
  0
BLOCK
  8
0
  2
*D35
 70
     1
 10
0.0
 20
0.0
 30
0.0
  3
*D35
  1

  0
LINE
  5
15F03
  8
DIM
 62
     0
 10
256.67941703891302
 20
44.982054932798192
 30
0.0
 11
257.71190860946928
 21
44.982054932798192
 31
0.0
  0
LINE
  5
15F04
  8
DIM
 62
     0
 10
255.86441703891299
 20
46.237054932798188
 30
0.0
 11
257.71190860946928
 21
46.237054932798188
 31
0.0
  0
LINE
  5
15F05
  8
DIM
 62
     0
 10
257.50940860946929
 20
44.577054932798191
 30
0.0
 11
257.50940860946929
 21
44.172054932798183
 31
0.0
  0
LINE
  5
15F06
  8
DIM
 62
     0
 10
257.50940860946929
 20
46.642054932798189
 30
0.0
 11
257.50940860946929
 21
47.047054932798197
 31
0.0
  0
SOLID
  5
15F07
  8
DIM
 62
     0
 10
257.44190860946929
 20
44.577054932798191
 30
0.0
 11
257.57690860946929
 21
44.577054932798191
 31
0.0
 12
257.50940860946929
 22
44.982054932798192
 32
0.0
 13
257.50940860946929
 23
44.982054932798192
 33
0.0
  0
SOLID
  5
15F08
  8
DIM
 62
     0
 10
257.44190860946929
 20
46.642054932798189
 30
0.0
 11
257.57690860946929
 21
46.642054932798189
 31
0.0
 12
257.50940860946929
 22
46.237054932798188
 32
0.0
 13
257.50940860946929
 23
46.237054932798188
 33
0.0
  0
TEXT
  5
15F09
  8
OBJECT
 62
     0
 10
257.12268985946929
 20
45.468929932798233
 30
0.0
 40
0.28125
  1
1.255
 41
0.75
  7
TXT
  0
POINT
  5
15F0A
  8
DEFPOINTS
 62
     0
 10
256.53879203891302
 20
44.982054932798192
 30
0.0
  0
POINT
  5
15F0B
  8
DEFPOINTS
 62
     0
 10
255.72379203891299
 20
46.237054932798188
 30
0.0
  0
POINT
  5
15F0C
  8
DEFPOINTS
 62
     0
 10
257.50940860946929
 20
46.237054932798188
 30
0.0
  0
ENDBLK
  5
158CF
  8
0
  0
BLOCK
  8
0
  2
*D36
 70
     1
 10
0.0
 20
0.0
 30
0.0
  3
*D36
  1

  0
LINE
  5
15F21
  8
DIM
 62
     0
 10
251.2237920389129
 20
46.377679932798188
 30
0.0
 11
251.2237920389129
 21
47.527993855301659
 31
0.0
  0
LINE
  5
15F22
  8
DIM
 62
     0
 10
255.72379203891299
 20
46.377679932798188
 30
0.0
 11
255.72379203891299
 21
47.527993855301659
 31
0.0
  0
LINE
  5
15F23
  8
DIM
 62
     0
 10
251.62879203891291
 20
47.325493855301659
 30
0.0
 11
252.884573288913
 21
47.325493855301659
 31
0.0
  0
LINE
  5
15F24
  8
DIM
 62
     0
 10
255.3187920389131
 20
47.325493855301659
 30
0.0
 11
254.063010788913
 21
47.325493855301659
 31
0.0
  0
SOLID
  5
15F25
  8
DIM
 62
     0
 10
251.62879203891291
 20
47.392993855301661
 30
0.0
 11
251.62879203891291
 21
47.257993855301663
 31
0.0
 12
251.2237920389129
 22
47.325493855301659
 32
0.0
 13
251.2237920389129
 23
47.325493855301659
 33
0.0
  0
SOLID
  5
15F26
  8
DIM
 62
     0
 10
255.3187920389131
 20
47.392993855301661
 30
0.0
 11
255.3187920389131
 21
47.257993855301663
 31
0.0
 12
255.72379203891299
 22
47.325493855301659
 32
0.0
 13
255.72379203891299
 23
47.325493855301659
 33
0.0
  0
TEXT
  5
15F27
  8
OBJECT
 62
     0
 10
253.08707328891299
 20
47.184868855301659
 30
0.0
 40
0.28125
  1
4.500
 41
0.75
  7
TXT
  0
POINT
  5
15F28
  8
DEFPOINTS
 62
     0
 10
251.2237920389129
 20
46.237054932798188
 30
0.0
  0
POINT
  5
15F29
  8
DEFPOINTS
 62
     0
 10
255.72379203891299
 20
46.237054932798188
 30
0.0
  0
POINT
  5
15F2A
  8
DEFPOINTS
 62
     0
 10
255.72379203891299
 20
47.325493855301659
 30
0.0
  0
ENDBLK
  5
158DD
  8
0
  0
BLOCK
  8
0
  2
*D37
 70
     1
 10
0.0
 20
0.0
 30
0.0
  3
*D37
  1

  0
LINE
  5
15EDD
  8
DIM
 62
     0
 10
250.40879203891299
 20
42.466429932798192
 30
0.0
 11
250.40879203891299
 21
41.169498726507101
 31
0.0
  0
LINE
  5
15EDE
  8
DIM
 62
     0
 10
256.53879203891302
 20
42.466429932798192
 30
0.0
 11
256.53879203891302
 21
41.169498726507101
 31
0.0
  0
LINE
  5
15EDF
  8
DIM
 62
     0
 10
250.81379203891299
 20
41.371998726507101
 30
0.0
 11
252.902151413913
 21
41.371998726507101
 31
0.0
  0
LINE
  5
15EE0
  8
DIM
 62
     0
 10
256.13379203891299
 20
41.371998726507101
 30
0.0
 11
254.04543266391289
 21
41.371998726507101
 31
0.0
  0
SOLID
  5
15EE1
  8
DIM
 62
     0
 10
250.81379203891299
 20
41.439498726507097
 30
0.0
 11
250.81379203891299
 21
41.304498726507099
 31
0.0
 12
250.40879203891299
 22
41.371998726507101
 32
0.0
 13
250.40879203891299
 23
41.371998726507101
 33
0.0
  0
SOLID
  5
15EE2
  8
DIM
 62
     0
 10
256.13379203891299
 20
41.439498726507097
 30
0.0
 11
256.13379203891299
 21
41.304498726507099
 31
0.0
 12
256.53879203891302
 22
41.371998726507101
 32
0.0
 13
256.53879203891302
 23
41.371998726507101
 33
0.0
  0
TEXT
  5
15EE3
  8
OBJECT
 62
     0
 10
253.10465141391299
 20
41.231373726507108
 30
0.0
 40
0.28125
  1
6.130
 41
0.75
  7
TXT
  0
POINT
  5
15EE4
  8
DEFPOINTS
 62
     0
 10
250.40879203891299
 20
42.607054932798192
 30
0.0
  0
POINT
  5
15EE5
  8
DEFPOINTS
 62
     0
 10
256.53879203891302
 20
42.607054932798192
 30
0.0
  0
POINT
  5
15EE6
  8
DEFPOINTS
 62
     0
 10
256.53879203891302
 20
41.371998726507101
 30
0.0
  0
ENDBLK
  5
158EB
  8
0
  0
BLOCK
  8
0
  2
*D38
 70
     1
 10
0.0
 20
0.0
 30
0.0
  3
*D38
  1

  0
LINE
  5
15ED3
  8
DIM
 62
     0
 10
256.67779203891303
 20
41.846429932798188
 30
0.0
 11
256.67779203891303
 21
40.561660589686852
 31
0.0
  0
LINE
  5
15ED4
  8
DIM
 62
     0
 10
250.26979203891301
 20
41.846429932798188
 30
0.0
 11
250.26979203891301
 21
40.561660589686852
 31
0.0
  0
LINE
  5
15ED5
  8
DIM
 62
     0
 10
256.272792038913
 20
40.764160589686853
 30
0.0
 11
254.080588913913
 21
40.764160589686853
 31
0.0
  0
LINE
  5
15ED6
  8
DIM
 62
     0
 10
250.67479203891301
 20
40.764160589686853
 30
0.0
 11
252.866995163913
 21
40.764160589686853
 31
0.0
  0
SOLID
  5
15ED7
  8
DIM
 62
     0
 10
256.272792038913
 20
40.831660589686848
 30
0.0
 11
256.272792038913
 21
40.696660589686843
 31
0.0
 12
256.67779203891303
 22
40.764160589686853
 32
0.0
 13
256.67779203891303
 23
40.764160589686853
 33
0.0
  0
SOLID
  5
15ED8
  8
DIM
 62
     0
 10
250.67479203891301
 20
40.831660589686848
 30
0.0
 11
250.67479203891301
 21
40.696660589686843
 31
0.0
 12
250.26979203891301
 22
40.764160589686853
 32
0.0
 13
250.26979203891301
 23
40.764160589686853
 33
0.0
  0
TEXT
  5
15ED9
  8
OBJECT
 62
     0
 10
253.06949516391299
 20
40.623535589686853
 30
0.0
 40
0.28125
  1
6.408
 41
0.75
  7
TXT
  0
POINT
  5
15EDA
  8
DEFPOINTS
 62
     0
 10
256.67779203891303
 20
41.987054932798202
 30
0.0
  0
POINT
  5
15EDB
  8
DEFPOINTS
 62
     0
 10
250.26979203891301
 20
41.987054932798202
 30
0.0
  0
POINT
  5
15EDC
  8
DEFPOINTS
 62
     0
 10
250.26979203891301
 20
40.764160589686853
 30
0.0
  0
ENDBLK
  5
158F9
  8
0
  0
BLOCK
  8
0
  2
*D39
 70
     1
 10
0.0
 20
0.0
 30
0.0
  3
*D39
  1

  0
LINE
  5
15F17
  8
DIM
 62
     0
 10
251.08179203891299
 20
46.839679932798212
 30
0.0
 11
251.08179203891299
 21
48.113484645706627
 31
0.0
  0
LINE
  5
15F18
  8
DIM
 62
     0
 10
255.8657920389129
 20
46.839679932798191
 30
0.0
 11
255.8657920389129
 21
48.113484645706627
 31
0.0
  0
LINE
  5
15F19
  8
DIM
 62
     0
 10
251.48679203891299
 20
47.91098464570662
 30
0.0
 11
252.849417038913
 21
47.91098464570662
 31
0.0
  0
LINE
  5
15F1A
  8
DIM
 62
     0
 10
255.46079203891301
 20
47.91098464570662
 30
0.0
 11
254.09816703891289
 21
47.91098464570662
 31
0.0
  0
SOLID
  5
15F1B
  8
DIM
 62
     0
 10
251.48679203891299
 20
47.978484645706622
 30
0.0
 11
251.48679203891299
 21
47.843484645706617
 31
0.0
 12
251.08179203891299
 22
47.91098464570662
 32
0.0
 13
251.08179203891299
 23
47.91098464570662
 33
0.0
  0
SOLID
  5
15F1C
  8
DIM
 62
     0
 10
255.46079203891301
 20
47.978484645706622
 30
0.0
 11
255.46079203891301
 21
47.843484645706617
 31
0.0
 12
255.8657920389129
 22
47.91098464570662
 32
0.0
 13
255.8657920389129
 23
47.91098464570662
 33
0.0
  0
TEXT
  5
15F1D
  8
OBJECT
 62
     0
 10
253.05191703891299
 20
47.770359645706627
 30
0.0
 40
0.28125
  1
4.784
 41
0.75
  7
TXT
  0
POINT
  5
15F1E
  8
DEFPOINTS
 62
     0
 10
251.08179203891299
 20
46.699054932798212
 30
0.0
  0
POINT
  5
15F1F
  8
DEFPOINTS
 62
     0
 10
255.8657920389129
 20
46.699054932798191
 30
0.0
  0
POINT
  5
15F20
  8
DEFPOINTS
 62
     0
 10
255.8657920389129
 20
47.91098464570662
 30
0.0
  0
ENDBLK
  5
1591B
  8
0
  0
BLOCK
  8
0
  2
*D40
 70
     1
 10
0.0
 20
0.0
 30
0.0
  3
*D40
  1

  0
LINE
  5
15EE7
  8
DIM
 62
     0
 10
250.12916703891301
 20
45.933054932798193
 30
0.0
 11
249.28879784716929
 21
45.933054932798193
 31
0.0
  0
LINE
  5
15EE8
  8
DIM
 62
     0
 10
250.12916703891301
 20
41.987054932798202
 30
0.0
 11
249.28879784716929
 21
41.987054932798202
 31
0.0
  0
LINE
  5
15EE9
  8
DIM
 62
     0
 10
249.49129784716931
 20
45.528054932798177
 30
0.0
 11
249.49129784716931
 21
44.303179932798187
 31
0.0
  0
LINE
  5
15EEA
  8
DIM
 62
     0
 10
249.49129784716931
 20
42.392054932798189
 30
0.0
 11
249.49129784716931
 21
43.616929932798193
 31
0.0
  0
SOLID
  5
15EEB
  8
DIM
 62
     0
 10
249.42379784716931
 20
45.528054932798177
 30
0.0
 11
249.5587978471693
 21
45.528054932798177
 31
0.0
 12
249.49129784716931
 22
45.933054932798193
 32
0.0
 13
249.49129784716931
 23
45.933054932798193
 33
0.0
  0
SOLID
  5
15EEC
  8
DIM
 62
     0
 10
249.42379784716931
 20
42.392054932798189
 30
0.0
 11
249.5587978471693
 21
42.392054932798189
 31
0.0
 12
249.49129784716931
 22
41.987054932798202
 32
0.0
 13
249.49129784716931
 23
41.987054932798202
 33
0.0
  0
TEXT
  5
15EED
  8
OBJECT
 62
     0
 10
249.06942284716931
 20
43.819429932798243
 30
0.0
 40
0.28125
  1
3.946
 41
0.75
  7
TXT
  0
POINT
  5
15EEE
  8
DEFPOINTS
 62
     0
 10
250.26979203891301
 20
45.933054932798193
 30
0.0
  0
POINT
  5
15EEF
  8
DEFPOINTS
 62
     0
 10
250.26979203891301
 20
41.987054932798202
 30
0.0
  0
POINT
  5
15EF0
  8
DEFPOINTS
 62
     0
 10
249.49129784716931
 20
41.987054932798202
 30
0.0
  0
ENDBLK
  5
15929
  8
0
  0
BLOCK
  8
0
  2
*D41
 70
     1
 10
0.0
 20
0.0
 30
0.0
  3
*D41
  1

  0
LINE
  5
15EC9
  8
DIM
 62
     0
 10
250.94116703891299
 20
46.699054932798212
 30
0.0
 11
248.47643876363099
 21
46.699054932798212
 31
0.0
  0
LINE
  5
15ECA
  8
DIM
 62
     0
 10
250.12916703891301
 20
41.987054932798202
 30
0.0
 11
248.47643876363099
 21
41.987054932798202
 31
0.0
  0
LINE
  5
15ECB
  8
DIM
 62
     0
 10
248.67893876363101
 20
46.294054932798211
 30
0.0
 11
248.67893876363101
 21
44.968523611895272
 31
0.0
  0
LINE
  5
15ECC
  8
DIM
 62
     0
 10
248.67893876363101
 20
42.392054932798189
 30
0.0
 11
248.67893876363101
 21
44.28227361189527
 31
0.0
  0
SOLID
  5
15ECD
  8
DIM
 62
     0
 10
248.61143876363101
 20
46.294054932798211
 30
0.0
 11
248.74643876363101
 21
46.294054932798211
 31
0.0
 12
248.67893876363101
 22
46.699054932798212
 32
0.0
 13
248.67893876363101
 23
46.699054932798212
 33
0.0
  0
SOLID
  5
15ECE
  8
DIM
 62
     0
 10
248.61143876363101
 20
42.392054932798189
 30
0.0
 11
248.74643876363101
 21
42.392054932798189
 31
0.0
 12
248.67893876363101
 22
41.987054932798202
 32
0.0
 13
248.67893876363101
 23
41.987054932798202
 33
0.0
  0
TEXT
  5
15ECF
  8
OBJECT
 62
     0
 10
248.29222001363101
 20
44.484773611895321
 30
0.0
 40
0.28125
  1
4.712
 41
0.75
  7
TXT
  0
POINT
  5
15ED0
  8
DEFPOINTS
 62
     0
 10
251.08179203891299
 20
46.699054932798212
 30
0.0
  0
POINT
  5
15ED1
  8
DEFPOINTS
 62
     0
 10
250.26979203891301
 20
41.987054932798202
 30
0.0
  0
POINT
  5
15ED2
  8
DEFPOINTS
 62
     0
 10
248.67893876363101
 20
41.987054932798202
 30
0.0
  0
ENDBLK
  5
15937
  8
0
  0
BLOCK
  8
0
  2
*D42
 70
     1
 10
0.0
 20
0.0
 30
0.0
  3
*D42
  1

  0
LINE
  5
15EF1
  8
DIM
 62
     0
 10
256.67941703891302
 20
42.607054932798192
 30
0.0
 11
257.71190860946928
 21
42.607054932798192
 31
0.0
  0
LINE
  5
15EF2
  8
DIM
 62
     0
 10
256.81841703891303
 20
41.987054932798202
 30
0.0
 11
257.71190860946928
 21
41.987054932798202
 31
0.0
  0
LINE
  5
15EF3
  8
DIM
 62
     0
 10
257.50940860946929
 20
43.012054932798193
 30
0.0
 11
257.50940860946929
 21
43.417054932798187
 31
0.0
  0
LINE
  5
15EF4
  8
DIM
 62
     0
 10
257.50940860946929
 20
41.582054932798187
 30
0.0
 11
257.50940860946929
 21
41.177054932798193
 31
0.0
  0
SOLID
  5
15EF5
  8
DIM
 62
     0
 10
257.44190860946929
 20
43.012054932798193
 30
0.0
 11
257.57690860946929
 21
43.012054932798193
 31
0.0
 12
257.50940860946929
 22
42.607054932798192
 32
0.0
 13
257.50940860946929
 23
42.607054932798192
 33
0.0
  0
SOLID
  5
15EF6
  8
DIM
 62
     0
 10
257.44190860946929
 20
41.582054932798187
 30
0.0
 11
257.57690860946929
 21
41.582054932798187
 31
0.0
 12
257.50940860946929
 22
41.987054932798202
 32
0.0
 13
257.50940860946929
 23
41.987054932798202
 33
0.0
  0
TEXT
  5
15EF7
  8
OBJECT
 62
     0
 10
257.12268985946929
 20
42.156429932798233
 30
0.0
 40
0.28125
  1
0.620
 41
0.75
  7
TXT
  0
POINT
  5
15EF8
  8
DEFPOINTS
 62
     0
 10
256.53879203891302
 20
42.607054932798192
 30
0.0
  0
POINT
  5
15EF9
  8
DEFPOINTS
 62
     0
 10
256.67779203891303
 20
41.987054932798202
 30
0.0
  0
POINT
  5
15EFA
  8
DEFPOINTS
 62
     0
 10
257.50940860946929
 20
41.987054932798202
 30
0.0
  0
ENDBLK
  5
1596E
  8
0
  0
BLOCK
  8
0
  2
*D43
 70
     1
 10
0.0
 20
0.0
 30
0.0
  3
*D43
  1

  0
LINE
  5
15EFB
  8
DIM
 62
     0
 10
255.96142126834309
 20
46.639657217094509
 30
0.0
 11
256.60052275520269
 21
47.722452120416193
 31
0.0
  0
LINE
  5
15EFC
  8
DIM
 62
     0
 10
256.60052275520269
 20
47.722452120416193
 30
0.0
 11
257.00552275520261
 21
47.722452120416222
 31
0.0
  0
SOLID
  5
15EFD
  8
DIM
 62
     0
 10
255.9032915267602
 20
46.67396731973944
 30
0.0
 11
256.01955100992598
 21
46.605347114449572
 31
0.0
 12
255.75556065247349
 22
46.290878767597178
 32
0.0
 13
255.75556065247349
 23
46.290878767597178
 33
0.0
  0
INSERT
  5
15EFE
  8
OBJECT
  2
*U59
 10
0.0
 20
0.0
 30
0.0
  0
LINE
  5
15EFF
  8
DIM
 62
     0
 10
255.52129203891329
 20
46.237054932798202
 30
0.0
 11
255.92629203891329
 21
46.237054932798202
 31
0.0
  0
LINE
  5
15F00
  8
DIM
 62
     0
 10
255.7237920389133
 20
46.034554932798187
 30
0.0
 11
255.7237920389133
 21
46.439554932798181
 31
0.0
  0
POINT
  5
15F01
  8
DEFPOINTS
 62
     0
 10
255.75556065247349
 20
46.290878767597178
 30
0.0
  0
POINT
  5
15F02
  8
DEFPOINTS
 62
     0
 10
255.6920234253532
 20
46.18323109799919
 30
0.0
  0
ENDBLK
  5
15E91
  8
0
  0
BLOCK
  8
0
  2
*U44
 70
     1
 10
0.0
 20
0.0
 30
0.0
  3
*U44
  1

  0
TEXT
  5
16069
  8
OBJECT
 10
227.88089039728311
 20
53.453481743751567
 30
0.0
 40
0.28125
  1
TEXTURED 
 41
0.75
  7
TXT
  0
TEXT
  5
1606A
  8
OBJECT
 10
228.51370289728311
 20
52.984731743751567
 30
0.0
 40
0.28125
  1
FLUSH
 41
0.75
  7
TXT
  0
ENDBLK
  5
1606C
  8
0
  0
BLOCK
  8
0
  2
*U45
 70
     1
 10
0.0
 20
0.0
 30
0.0
  3
*U45
  1

  0
TEXT
  5
1606E
  8
OBJECT
 10
238.5232443778477
 20
51.765656361259737
 30
0.0
 40
0.28125
  1
R0.390
 41
0.75
  7
TXT
  0
TEXT
  5
1606F
  8
OBJECT
 10
238.24199437784779
 20
51.296906361259737
 30
0.0
 40
0.28125
  1
(2 PLCS.)
 41
0.75
  7
TXT
  0
ENDBLK
  5
16071
  8
0
  0
BLOCK
  8
0
  2
*U46
 70
     1
 10
0.0
 20
0.0
 30
0.0
  3
*U46
  1

  0
TEXT
  5
16073
  8
OBJECT
 62
     0
 10
225.58824014272821
 20
49.918077941318089
 30
0.0
 40
0.28125
  1
1.550
 41
0.75
  7
TXT
  0
TEXT
  5
16074
  8
OBJECT
 62
     0
 10
224.65659951772821
 20
49.449327941318089
 30
0.0
 40
0.28125
  1
(INSIDE DEPTH)
 41
0.75
  7
TXT
  0
ENDBLK
  5
16076
  8
0
  0
BLOCK
  8
0
  2
*U47
 70
     1
 10
0.0
 20
0.0
 30
0.0
  3
*U47
  1

  0
TEXT
  5
16078
  8
OBJECT
 62
     0
 10
228.33574476286441
 20
49.668338441318099
 30
0.0
 40
0.28125
  1
1.051
 41
0.75
  7
TXT
  0
TEXT
  5
16079
  8
OBJECT
 62
     0
 10
227.36894788786441
 20
49.199588441318099
 30
0.0
 40
0.28125
  1
(INSIDE DEPTH)
 41
0.75
  7
TXT
  0
ENDBLK
  5
1607B
  8
0
  0
BLOCK
  8
0
  2
*U48
 70
     1
 10
0.0
 20
0.0
 30
0.0
  3
*U48
  1

  0
TEXT
  5
1607D
  8
OBJECT
 62
     0
 10
228.16266852431119
 20
51.759290022373591
 30
0.0
 40
0.28125
  1
R0.390
 41
0.75
  7
TXT
  0
TEXT
  5
1607E
  8
OBJECT
 62
     0
 10
227.88141852431119
 20
51.290540022373591
 30
0.0
 40
0.28125
  1
(4 PLCS.)
 41
0.75
  7
TXT
  0
ENDBLK
  5
16080
  8
0
  0
BLOCK
  8
0
  2
*U49
 70
     1
 10
0.0
 20
0.0
 30
0.0
  3
*U49
  1

  0
TEXT
  5
16082
  8
OBJECT
 62
     0
 10
227.936373362502
 20
47.738457617689797
 30
0.0
 40
0.28125
  1
R0.500
 41
0.75
  7
TXT
  0
TEXT
  5
16083
  8
OBJECT
 62
     0
 10
227.637545237502
 20
47.269707617689797
 30
0.0
 40
0.28125
  1
(2 PLCS.)
 41
0.75
  7
TXT
  0
ENDBLK
  5
16085
  8
0
  0
BLOCK
  8
0
  2
*U50
 70
     1
 10
0.0
 20
0.0
 30
0.0
  3
*U50
  1

  0
TEXT
  5
16087
  8
OBJECT
 62
     0
 10
223.78898166743639
 20
58.091149829442692
 30
0.0
 40
0.28125
  1
1.880
 41
0.75
  7
TXT
  0
TEXT
  5
16088
  8
OBJECT
 62
     0
 10
223.3846847924363
 20
57.622399829442692
 30
0.0
 40
0.28125
  1
(2 PLCS.)
 41
0.75
  7
TXT
  0
ENDBLK
  5
1608A
  8
0
  0
BLOCK
  8
0
  2
*U51
 70
     1
 10
0.0
 20
0.0
 30
0.0
  3
*U51
  1

  0
TEXT
  5
1608C
  8
OBJECT
 62
     0
 10
224.83872699014771
 20
55.843231621043167
 30
0.0
 40
0.28125
  1
2.003
 41
0.75
  7
TXT
  0
TEXT
  5
1608D
  8
OBJECT
 62
     0
 10
224.45200824014779
 20
55.374481621043167
 30
0.0
 40
0.28125
  1
(2 PLCS.)
 41
0.75
  7
TXT
  0
ENDBLK
  5
1608F
  8
0
  0
BLOCK
  8
0
  2
*U52
 70
     1
 10
0.0
 20
0.0
 30
0.0
  3
*U52
  1

  0
TEXT
  5
16091
  8
OBJECT
 62
     0
 10
226.88279796066021
 20
56.196834158517923
 30
0.0
 40
0.28125
  1
1.750
 41
0.75
  7
TXT
  0
TEXT
  5
16092
  8
OBJECT
 62
     0
 10
226.47850108566021
 20
55.728084158517923
 30
0.0
 40
0.28125
  1
(2 PLCS.)
 41
0.75
  7
TXT
  0
ENDBLK
  5
16094
  8
0
  0
BLOCK
  8
0
  2
*U53
 70
     1
 10
0.0
 20
0.0
 30
0.0
  3
*U53
  1

  0
TEXT
  5
16096
  8
OBJECT
 62
     0
 10
225.84695576077641
 20
57.997841052235891
 30
0.0
 40
0.28125
  1
1.753
 41
0.75
  7
TXT
  0
TEXT
  5
16097
  8
OBJECT
 62
     0
 10
225.46023701077641
 20
57.529091052235891
 30
0.0
 40
0.28125
  1
(2 PLCS.)
 41
0.75
  7
TXT
  0
ENDBLK
  5
16099
  8
0
  0
BLOCK
  8
0
  2
*U54
 70
     1
 10
0.0
 20
0.0
 30
0.0
  3
*U54
  1

  0
TEXT
  5
1609B
  8
OBJECT
 62
     0
 10
229.24821395076609
 20
59.409465174850581
 30
0.0
 40
0.28125
  1
0.625
 41
0.75
  7
TXT
  0
TEXT
  5
1609C
  8
OBJECT
 62
     0
 10
228.8790733257662
 20
58.940715174850581
 30
0.0
 40
0.28125
  1
(2 PLCS.)
 41
0.75
  7
TXT
  0
ENDBLK
  5
1609E
  8
0
  0
BLOCK
  8
0
  2
*U55
 70
     1
 10
0.0
 20
0.0
 30
0.0
  3
*U55
  1

  0
TEXT
  5
160A0
  8
OBJECT
 62
     0
 10
238.8317769953785
 20
53.948899082709509
 30
0.0
 40
0.28125
  1
R0.188
 41
0.75
  7
TXT
  0
TEXT
  5
160A1
  8
OBJECT
 62
     0
 10
238.84935512037859
 20
53.480149082709509
 30
0.0
 40
0.28125
  1
(TYP.)
 41
0.75
  7
TXT
  0
ENDBLK
  5
160A3
  8
0
  0
BLOCK
  8
0
  2
*U56
 70
     1
 10
0.0
 20
0.0
 30
0.0
  3
*U56
  1

  0
TEXT
  5
160A5
  8
OBJECT
 62
     0
 10
238.52293225782049
 20
52.984472933812313
 30
0.0
 40
0.28125
  1
R0.141
 41
0.75
  7
TXT
  0
TEXT
  5
160A6
  8
OBJECT
 62
     0
 10
238.18894788282049
 20
52.515722933812313
 30
0.0
 40
0.28125
  1
(4 PLCS.)
 41
0.75
  7
TXT
  0
ENDBLK
  5
160A8
  8
0
  0
BLOCK
  8
0
  2
*U57
 70
     1
 10
0.0
 20
0.0
 30
0.0
  3
*U57
  1

  0
TEXT
  5
160AA
  8
OBJECT
 62
     0
 10
238.65646596853449
 20
59.203492856928783
 30
0.0
 40
0.28125
  1
\U+22050.086 I.D.
 41
0.75
  7
TXT
  0
TEXT
  5
160AB
  8
OBJECT
 62
     0
 10
238.63888784353449
 20
58.734742856928783
 30
0.0
 40
0.28125
  1
\U+2205
 41
0.75
  7
TXT
  0
TEXT
  5
160AC
  8
OBJECT
 62
     0
 10
238.84982534353449
 20
58.734742856928783
 30
0.0
 40
0.28125
  1
0.188 O.D.
 41
0.75
  7
TXT
  0
TEXT
  5
160AD
  8
OBJECT
 62
     0
 10
238.72677846853449
 20
58.265992856928783
 30
0.0
 40
0.28125
  1
(6 PLCS.)
 41
0.75
  7
TXT
  0
ENDBLK
  5
160AF
  8
0
  0
BLOCK
  8
0
  2
*U58
 70
     1
 10
0.0
 20
0.0
 30
0.0
  3
*U58
  1

  0
TEXT
  5
160B1
  8
OBJECT
 62
     0
 10
244.06301365313141
 20
57.915547459447879
 30
0.0
 40
0.28125
  1
0.250
 41
0.75
  7
TXT
  0
TEXT
  5
160B2
  8
OBJECT
 62
     0
 10
243.67629490313149
 20
57.446797459447879
 30
0.0
 40
0.28125
  1
(6 PLCS.)
 41
0.75
  7
TXT
  0
ENDBLK
  5
160B4
  8
0
  0
BLOCK
  8
0
  2
*U59
 70
     1
 10
0.0
 20
0.0
 30
0.0
  3
*U59
  1

  0
TEXT
  5
160B6
  8
OBJECT
 62
     0
 10
257.50685088020259
 20
47.816202120416222
 30
0.0
 40
0.28125
  1
\U+22050.125
 41
0.75
  7
TXT
  0
TEXT
  5
160B7
  8
OBJECT
 62
     0
 10
257.20802275520259
 20
47.347452120416222
 30
0.0
 40
0.28125
  1
(6) PLCS.
 41
0.75
  7
TXT
  0
ENDBLK
  5
160B9
  8
0
  0
ENDSEC
  0
SECTION
  2
ENTITIES
  0
CIRCLE
  5
D51D
  8
HIDDEN
 10
237.3656688695356
 20
54.748030621043078
 30
0.0
 40
0.123
  0
CIRCLE
  5
D51F
  8
HIDDEN
 10
237.3656688695356
 20
54.748030621043078
 30
0.0
 40
0.1475
  0
CIRCLE
  5
D520
  8
HIDDEN
 10
237.3656688695356
 20
54.748030621043078
 30
0.0
 40
0.108
  0
CIRCLE
  5
D521
  8
HIDDEN
 10
237.3656688695356
 20
54.748030621043078
 30
0.0
 40
0.14
  0
CIRCLE
  5
D522
  8
HIDDEN
 10
237.3656688695356
 20
54.748030621043078
 30
0.0
 40
0.14
  0
POLYLINE
  5
D523
  8
HIDDEN
 66
     1
 10
0.0
 20
0.0
 30
0.0
 70
     1
  0
VERTEX
  5
15F3E
  8
HIDDEN
 10
237.6378111522956
 20
54.434228621043189
 30
0.0
  0
VERTEX
  5
15F3F
  8
HIDDEN
 10
237.6378111522956
 20
56.881050621042981
 30
0.0
 42
0.0582488642255967
  0
VERTEX
  5
15F40
  8
HIDDEN
 10
237.5289546140869
 20
57.812289341462687
 30
0.0
 42
0.0718787425685374
  0
VERTEX
  5
15F41
  8
HIDDEN
 10
237.25282873915239
 20
58.51123062695028
 30
0.0
 42
0.1065219447776522
  0
VERTEX
  5
15F42
  8
HIDDEN
 10
236.79358625894119
 20
59.022339987194378
 30
0.0
 42
0.15793264050967
  0
VERTEX
  5
15F43
  8
HIDDEN
 10
236.37760586953561
 20
59.157094903803099
 30
0.0
  0
VERTEX
  5
15F44
  8
HIDDEN
 10
231.59331086953571
 20
59.157094903803198
 30
0.0
 42
0.15793264050967
  0
VERTEX
  5
15F45
  8
HIDDEN
 10
231.17733048012991
 20
59.022339987194471
 30
0.0
 42
0.1065219447776522
  0
VERTEX
  5
15F46
  8
HIDDEN
 10
230.71808799991879
 20
58.511230626950393
 30
0.0
 42
0.0718787425685374
  0
VERTEX
  5
15F47
  8
HIDDEN
 10
230.4419621249844
 20
57.812289341462787
 30
0.0
 42
0.0582488642255967
  0
VERTEX
  5
15F48
  8
HIDDEN
 10
230.33310558677559
 20
56.881050621043087
 30
0.0
  0
VERTEX
  5
15F49
  8
HIDDEN
 10
230.33310558677559
 20
54.434228621043189
 30
0.0
 42
0.4142135623730951
  0
VERTEX
  5
15F4A
  8
HIDDEN
 10
230.3822590867756
 20
54.385075121043187
 30
0.0
  0
VERTEX
  5
15F4B
  8
HIDDEN
 10
237.55328836507289
 20
54.385075121043187
 30
0.0
  0
VERTEX
  5
15F4C
  8
HIDDEN
 10
237.58865765229569
 20
54.385075121043187
 30
0.0
 42
0.4142135623730951
  0
SEQEND
  5
15F4D
  8
HIDDEN
  0
POLYLINE
  5
D526
  8
HIDDEN
 66
     1
 10
0.0
 20
0.0
 30
0.0
  0
VERTEX
  5
15F4E
  8
HIDDEN
 10
236.38260586953561
 20
59.205167121043083
 30
0.0
 42
-0.1579326405096665
  0
VERTEX
  5
15F4F
  8
HIDDEN
 10
236.82677378637189
 20
59.061280985739899
 30
0.0
 42
-0.1065219447776553
  0
VERTEX
  5
15F50
  8
HIDDEN
 10
237.29955261017841
 20
58.535106486243279
 30
0.0
 42
-0.0718787425685412
  0
VERTEX
  5
15F51
  8
HIDDEN
 10
237.58073079554961
 20
57.82337658269428
 30
0.0
 42
-0.0582488642255945
  0
VERTEX
  5
15F52
  8
HIDDEN
 10
237.6908833695357
 20
56.881050621043087
 30
0.0
 42
-0.0582488642255945
  0
SEQEND
  5
15F53
  8
HIDDEN
  0
POLYLINE
  5
D527
  8
OBJECT
 66
     1
 10
0.0
 20
0.0
 30
0.0
 70
     1
  0
VERTEX
  5
15F54
  8
OBJECT
 10
230.22939036953559
 20
54.434228621043189
 30
0.0
  0
VERTEX
  5
15F55
  8
OBJECT
 10
230.22939036953559
 20
56.881050621043087
 30
0.0
 42
-0.0582488642255929
  0
VERTEX
  5
15F56
  8
OBJECT
 10
230.3409082880726
 20
57.8350567420446
 30
0.0
 42
-0.0718787425685434
  0
VERTEX
  5
15F57
  8
OBJECT
 10
230.62740896889221
 20
58.560259167180291
 30
0.0
 42
-0.1065219447776537
  0
VERTEX
  5
15F58
  8
OBJECT
 10
231.11444802632329
 20
59.102304452152687
 30
0.0
 42
-0.1579326405096693
  0
VERTEX
  5
15F59
  8
OBJECT
 10
231.5883108695356
 20
59.255810121043083
 30
0.0
  0
VERTEX
  5
15F5A
  8
OBJECT
 10
236.38260586953561
 20
59.255810121043083
 30
0.0
 42
-0.1579326405096693
  0
VERTEX
  5
15F5B
  8
OBJECT
 10
236.8564687127479
 20
59.102304452152687
 30
0.0
 42
-0.1065219447776537
  0
VERTEX
  5
15F5C
  8
OBJECT
 10
237.343507770179
 20
58.560259167180291
 30
0.0
 42
-0.0718787425685434
  0
VERTEX
  5
15F5D
  8
OBJECT
 10
237.63000845099859
 20
57.8350567420446
 30
0.0
 42
-0.0582488642255929
  0
VERTEX
  5
15F5E
  8
OBJECT
 10
237.74152636953559
 20
56.881050621043087
 30
0.0
  0
VERTEX
  5
15F5F
  8
OBJECT
 10
237.74152636953559
 20
54.434228621043189
 30
0.0
 42
-0.4142135623730951
  0
VERTEX
  5
15F60
  8
OBJECT
 10
237.55335286953559
 20
54.246055121043177
 30
0.0
  0
VERTEX
  5
15F61
  8
OBJECT
 10
230.4175638695356
 20
54.246055121043177
 30
0.0
 42
-0.4142135623730951
  0
SEQEND
  5
15F62
  8
OBJECT
  0
LINE
  5
D529
  8
HIDDEN
 10
237.58668742009439
 20
54.296698121043178
 30
0.0
 11
230.38422931897691
 21
54.296698121043178
 31
0.0
  0
LINE
  5
D52A
  8
HIDDEN
 10
237.58668742009439
 20
54.350320121043183
 30
0.0
 11
230.38422931897691
 21
54.350320121043083
 31
0.0
  0
POLYLINE
  5
D52C
  8
HIDDEN
 66
     1
 10
0.0
 20
0.0
 30
0.0
 70
     1
  0
VERTEX
  5
15F63
  8
HIDDEN
 10
237.24088281149221
 20
54.434228621043189
 30
0.0
  0
VERTEX
  5
15F64
  8
HIDDEN
 10
237.24088281149221
 20
56.876050621043092
 30
0.0
 42
0.0582488642255975
  0
VERTEX
  5
15F65
  8
HIDDEN
 10
237.1428623349307
 20
57.714589717269689
 30
0.0
 42
0.0718787425685363
  0
VERTEX
  5
15F66
  8
HIDDEN
 10
236.90897846312589
 20
58.306606289613079
 30
0.0
 42
0.1065219447776522
  0
VERTEX
  5
15F67
  8
HIDDEN
 10
236.56291237531281
 20
58.691757107244477
 30
0.0
 42
0.1579326405096707
  0
VERTEX
  5
15F68
  8
HIDDEN
 10
236.38260586953561
 20
58.750166562999681
 30
0.0
  0
VERTEX
  5
15F69
  8
HIDDEN
 10
231.5883108695356
 20
58.750166562999681
 30
0.0
 42
0.1579326405096707
  0
VERTEX
  5
15F6A
  8
HIDDEN
 10
231.40800436375861
 20
58.691757107244477
 30
0.0
 42
0.1065219447776522
  0
VERTEX
  5
15F6B
  8
HIDDEN
 10
231.06193827594521
 20
58.306606289613079
 30
0.0
 42
0.0718787425685363
  0
VERTEX
  5
15F6C
  8
HIDDEN
 10
230.82805440414049
 20
57.714589717269689
 30
0.0
 42
0.0582488642255975
  0
VERTEX
  5
15F6D
  8
HIDDEN
 10
230.73003392757909
 20
56.876050621043092
 30
0.0
  0
VERTEX
  5
15F6E
  8
HIDDEN
 10
230.73003392757909
 20
54.434228621043189
 30
0.0
  0
SEQEND
  5
15F6F
  8
HIDDEN
  0
POLYLINE
  5
D52F
  8
HIDDEN
 66
     1
 10
0.0
 20
0.0
 30
0.0
  0
VERTEX
  5
15F70
  8
HIDDEN
 10
231.5883108695356
 20
59.205167121043083
 30
0.0
 42
0.1579326405096665
  0
VERTEX
  5
15F71
  8
HIDDEN
 10
231.14414295269941
 20
59.061280985739899
 30
0.0
 42
0.1065219447776553
  0
VERTEX
  5
15F72
  8
HIDDEN
 10
230.67136412889289
 20
58.535106486243279
 30
0.0
 42
0.0718787425685412
  0
VERTEX
  5
15F73
  8
HIDDEN
 10
230.3901859435216
 20
57.82337658269428
 30
0.0
 42
0.0582488642255945
  0
VERTEX
  5
15F74
  8
HIDDEN
 10
230.2800333695356
 20
56.881050621043087
 30
0.0
 42
0.0582488642255945
  0
SEQEND
  5
15F75
  8
HIDDEN
  0
LINE
  5
D530
  8
CENTER
 10
233.98545836953559
 20
54.146055121043169
 30
0.0
 11
233.98545836953559
 21
59.355810121043092
 31
0.0
  0
LINE
  5
D539
  8
HIDDEN
 10
230.2800333695356
 20
56.881050621043087
 30
0.0
 11
230.2800333695356
 21
54.400894070484377
 31
0.0
  0
CIRCLE
  5
D53B
  8
HIDDEN
 10
230.60524786953559
 20
54.748030621043078
 30
0.0
 40
0.0575939999999928
  0
CIRCLE
  5
D53C
  8
HIDDEN
 10
230.60524786953559
 20
54.748030621043078
 30
0.0
 40
0.0884677984658372
  0
ARC
  5
D53D
  8
HIDDEN
 10
230.60524786953559
 20
54.748030621043078
 30
0.0
 40
0.1682329891073603
 50
270.0
 51
90.0
  0
CIRCLE
  5
D53E
  8
HIDDEN
 10
230.60524786953559
 20
54.748030621043078
 30
0.0
 40
0.14
  0
CIRCLE
  5
D53F
  8
HIDDEN
 10
230.60524786953559
 20
54.748030621043078
 30
0.0
 40
0.14
  0
CIRCLE
  5
D540
  8
HIDDEN
 10
230.60524786953559
 20
54.748030621043078
 30
0.0
 40
0.108
  0
CIRCLE
  5
D541
  8
HIDDEN
 10
230.60524786953559
 20
54.748030621043078
 30
0.0
 40
0.1475
  0
CIRCLE
  5
D542
  8
HIDDEN
 10
230.60524786953559
 20
54.748030621043078
 30
0.0
 40
0.123
  0
CIRCLE
  5
D543
  8
HIDDEN
 10
230.9205463695356
 20
55.001266621043087
 30
0.0
 40
0.043
  0
ARC
  5
D545
  8
HIDDEN
 10
230.38422931897691
 20
54.400894070484377
 30
0.0
 40
0.1041959494412705
 50
180.0
 51
270.0
  0
LINE
  5
D546
  8
HIDDEN
 10
230.41762837399841
 20
54.350320121043183
 30
0.0
 11
230.41762837399841
 21
54.385075121043187
 31
0.0
  0
LINE
  5
D547
  8
HIDDEN
 10
230.38422931897691
 20
54.296698121043178
 30
0.0
 11
230.38422931897691
 21
54.350320121043083
 31
0.0
  0
LINE
  5
D548
  8
HIDDEN
 10
230.41762837399841
 20
54.246055121043177
 30
0.0
 11
230.41762837399841
 21
54.296698121043178
 31
0.0
  0
CIRCLE
  5
D549
  8
HIDDEN
 10
230.9205463695356
 20
55.001266621043087
 30
0.0
 40
0.0982063856273755
  0
CIRCLE
  5
D54A
  8
HIDDEN
 10
230.9205463695356
 20
55.001266621043087
 30
0.0
 40
0.0938385
  0
CIRCLE
  5
D54B
  8
HIDDEN
 10
230.9205463695356
 20
57.375932621043091
 30
0.0
 40
0.043
  0
CIRCLE
  5
D54C
  8
HIDDEN
 10
230.9205463695356
 20
57.375932621043091
 30
0.0
 40
0.0938385
  0
CIRCLE
  5
D54D
  8
HIDDEN
 10
230.9205463695356
 20
57.375932621043091
 30
0.0
 40
0.0982063856273755
  0
CIRCLE
  5
D54F
  8
HIDDEN
 10
237.05037036953561
 20
55.001266621043087
 30
0.0
 40
0.043
  0
CIRCLE
  5
D551
  8
HIDDEN
 10
237.3656688695356
 20
54.748030621043078
 30
0.0
 40
0.0575939999999928
  0
CIRCLE
  5
D552
  8
HIDDEN
 10
237.3656688695356
 20
54.748030621043078
 30
0.0
 40
0.0884677984658372
  0
CIRCLE
  5
D553
  8
HIDDEN
 10
237.05037036953561
 20
55.001266621043087
 30
0.0
 40
0.0982063856273755
  0
CIRCLE
  5
D554
  8
HIDDEN
 10
237.05037036953561
 20
55.001266621043087
 30
0.0
 40
0.0938385
  0
ARC
  5
D555
  8
HIDDEN
 10
237.3656688695356
 20
54.748030621043078
 30
0.0
 40
0.1682329891073603
 50
90.0
 51
270.0
  0
CIRCLE
  5
D557
  8
HIDDEN
 10
237.05037036953561
 20
57.375932621043091
 30
0.0
 40
0.043
  0
CIRCLE
  5
D558
  8
HIDDEN
 10
237.05037036953561
 20
57.375932621043091
 30
0.0
 40
0.0938385
  0
CIRCLE
  5
D559
  8
HIDDEN
 10
237.05037036953561
 20
57.375932621043091
 30
0.0
 40
0.0982063856273755
  0
LINE
  5
D55D
  8
HIDDEN
 10
236.38260586953561
 20
59.205167121043083
 30
0.0
 11
231.5883108695356
 21
59.205167121043083
 31
0.0
  0
CIRCLE
  5
D560
  8
HIDDEN
 10
231.04245836953561
 20
58.503598621043082
 30
0.0
 40
0.123
  0
CIRCLE
  5
D561
  8
HIDDEN
 10
231.04245836953561
 20
58.503598621043082
 30
0.0
 40
0.1475
  0
CIRCLE
  5
D562
  8
HIDDEN
 10
231.04245836953561
 20
58.503598621043082
 30
0.0
 40
0.108
  0
CIRCLE
  5
D563
  8
HIDDEN
 10
231.04245836953561
 20
58.503598621043082
 30
0.0
 40
0.14
  0
CIRCLE
  5
D564
  8
HIDDEN
 10
231.04245836953561
 20
58.503598621043082
 30
0.0
 40
0.14
  0
CIRCLE
  5
D565
  8
HIDDEN
 10
231.04245836953561
 20
58.503598621043082
 30
0.0
 40
0.0884677984658372
  0
CIRCLE
  5
D566
  8
HIDDEN
 10
231.04245836953561
 20
58.503598621043082
 30
0.0
 40
0.0575939999999928
  0
ARC
  5
D567
  8
HIDDEN
 10
231.04245836953561
 20
58.503598621043082
 30
0.0
 40
0.1682329891073603
 50
237.09436045343031
 51
49.955011169858842
  0
CIRCLE
  5
D568
  8
HIDDEN
 10
231.73551686953559
 20
58.630716621043092
 30
0.0
 40
0.043
  0
CIRCLE
  5
D56A
  8
HIDDEN
 10
231.73551686953559
 20
58.630716621043092
 30
0.0
 40
0.0938385
  0
CIRCLE
  5
D56B
  8
HIDDEN
 10
231.73551686953559
 20
58.630716621043092
 30
0.0
 40
0.0982063856273755
  0
CIRCLE
  5
D56C
  8
HIDDEN
 10
236.9284583695356
 20
58.503598621043082
 30
0.0
 40
0.0575939999999928
  0
CIRCLE
  5
D56D
  8
HIDDEN
 10
236.9284583695356
 20
58.503598621043082
 30
0.0
 40
0.0884677984658372
  0
ARC
  5
D56E
  8
HIDDEN
 10
236.9284583695356
 20
58.503598621043082
 30
0.0
 40
0.1682329891073603
 50
130.04498883014099
 51
302.9056395465696
  0
CIRCLE
  5
D56F
  8
HIDDEN
 10
236.9284583695356
 20
58.503598621043082
 30
0.0
 40
0.14
  0
CIRCLE
  5
D570
  8
HIDDEN
 10
236.9284583695356
 20
58.503598621043082
 30
0.0
 40
0.14
  0
CIRCLE
  5
D571
  8
HIDDEN
 10
236.9284583695356
 20
58.503598621043082
 30
0.0
 40
0.108
  0
CIRCLE
  5
D572
  8
HIDDEN
 10
236.9284583695356
 20
58.503598621043082
 30
0.0
 40
0.1475
  0
CIRCLE
  5
D573
  8
HIDDEN
 10
236.9284583695356
 20
58.503598621043082
 30
0.0
 40
0.123
  0
CIRCLE
  5
D574
  8
HIDDEN
 10
236.23539986953571
 20
58.630716621043092
 30
0.0
 40
0.043
  0
CIRCLE
  5
D575
  8
HIDDEN
 10
236.23539986953571
 20
58.630716621043092
 30
0.0
 40
0.0938385
  0
CIRCLE
  5
D577
  8
HIDDEN
 10
236.23539986953571
 20
58.630716621043092
 30
0.0
 40
0.0982063856273755
  0
LINE
  5
D578
  8
HIDDEN
 10
237.6908833695357
 20
56.881050621043087
 30
0.0
 11
237.6908833695357
 21
54.400894070484377
 31
0.0
  0
LINE
  5
D579
  8
HIDDEN
 10
237.55328836507289
 20
54.350320121043183
 30
0.0
 11
237.55328836507289
 21
54.385075121043187
 31
0.0
  0
LINE
  5
D57A
  8
HIDDEN
 10
237.55328836507289
 20
54.246055121043177
 30
0.0
 11
237.55328836507289
 21
54.296698121043178
 31
0.0
  0
LINE
  5
D57B
  8
HIDDEN
 10
237.58668742009439
 20
54.296698121043178
 30
0.0
 11
237.58668742009439
 21
54.350320121043083
 31
0.0
  0
ARC
  5
D57C
  8
HIDDEN
 10
237.58668742009439
 20
54.400894070484377
 30
0.0
 40
0.1041959494412705
 50
270.0
 51
0.0
  0
CIRCLE
  5
D805
  8
HIDDEN
 10
237.36516886953569
 20
54.74303062104309
 30
0.0
 40
0.1185450374168844
  0
CIRCLE
  5
D806
  8
HIDDEN
 10
237.36516886953569
 20
54.74303062104309
 30
0.0
 40
0.0451815000000005
  0
CIRCLE
  5
D807
  8
HIDDEN
 10
237.36516886953569
 20
54.74303062104309
 30
0.0
 40
0.0398260481354075
  0
CIRCLE
  5
D808
  8
HIDDEN
 10
237.36516886953569
 20
54.74303062104309
 30
0.0
 40
0.109
  0
LINE
  5
D809
  8
HIDDEN
 10
237.58376917642329
 20
54.350320121043183
 30
0.0
 11
230.38664756264779
 21
54.350320121043183
 31
0.0
  0
LINE
  5
D80A
  8
HIDDEN
 10
237.58959386953561
 20
54.296698121043178
 30
0.0
 11
230.38082286953559
 21
54.296698121043178
 31
0.0
  0
LINE
  5
D80B
  8
OBJECT
 10
237.5528528695356
 20
54.246055121043177
 30
0.0
 11
230.4175638695356
 21
54.246055121043177
 31
0.0
  0
POLYLINE
  5
D80C
  8
HIDDEN
 66
     1
 10
0.0
 20
0.0
 30
0.0
  0
VERTEX
  5
15F76
  8
HIDDEN
 10
236.38210586953559
 20
59.207153121043092
 30
0.0
 42
-0.1579326405096657
  0
VERTEX
  5
15F77
  8
HIDDEN
 10
236.82743829328859
 20
59.06288974912858
 30
0.0
 42
-0.1065219447776559
  0
VERTEX
  5
15F78
  8
HIDDEN
 10
237.30077634194311
 20
58.536092865887881
 30
0.0
 42
-0.0718787425685409
  0
VERTEX
  5
15F79
  8
HIDDEN
 10
237.582163252626
 20
57.823834628158991
 30
0.0
 42
-0.0582488642255951
  0
VERTEX
  5
15F7A
  8
HIDDEN
 10
237.69236936953561
 20
56.881050621043087
 30
0.0
 42
-0.0582488642255951
  0
SEQEND
  5
15F7B
  8
HIDDEN
  0
POLYLINE
  5
D80D
  8
OBJECT
 66
     1
 10
0.0
 20
0.0
 30
0.0
  0
VERTEX
  5
15F7C
  8
OBJECT
 10
236.38210586953559
 20
59.255810121043083
 30
0.0
 42
-0.1579326405096693
  0
VERTEX
  5
15F7D
  8
OBJECT
 10
236.85596871274791
 20
59.102304452152687
 30
0.0
 42
-0.1065219447776537
  0
VERTEX
  5
15F7E
  8
OBJECT
 10
237.34300777017901
 20
58.560259167180291
 30
0.0
 42
-0.0718787425685434
  0
VERTEX
  5
15F7F
  8
OBJECT
 10
237.62950845099849
 20
57.8350567420446
 30
0.0
 42
-0.0582488642255929
  0
VERTEX
  5
15F80
  8
OBJECT
 10
237.74102636953569
 20
56.881050621043087
 30
0.0
 42
-0.0582488642255922
  0
SEQEND
  5
15F81
  8
OBJECT
  0
POLYLINE
  5
D80E
  8
HIDDEN
 66
     1
 10
0.0
 20
0.0
 30
0.0
 70
     1
  0
VERTEX
  5
15F82
  8
HIDDEN
 10
230.33452245974649
 20
54.434228621043189
 30
0.0
  0
VERTEX
  5
15F83
  8
HIDDEN
 10
230.33452245974649
 20
56.881050621043087
 30
0.0
 42
-0.0582488642256094
  0
VERTEX
  5
15F84
  8
HIDDEN
 10
230.44320599788529
 20
57.810809371894777
 30
0.0
 42
-0.0718787425685677
  0
VERTEX
  5
15F85
  8
HIDDEN
 10
230.71865747009511
 20
58.508043581189888
 30
0.0
 42
-0.106521944777654
  0
VERTEX
  5
15F86
  8
HIDDEN
 10
231.17609306470121
 20
59.017141986033479
 30
0.0
 42
-0.1579326405096284
  0
VERTEX
  5
15F87
  8
HIDDEN
 10
231.5883108695356
 20
59.150678030832282
 30
0.0
  0
VERTEX
  5
15F88
  8
HIDDEN
 10
236.38210586953559
 20
59.150678030832282
 30
0.0
 42
-0.1579326405096304
  0
VERTEX
  5
15F89
  8
HIDDEN
 10
236.7943236743701
 20
59.017141986033479
 30
0.0
 42
-0.1065219447776483
  0
VERTEX
  5
15F8A
  8
HIDDEN
 10
237.25175926897609
 20
58.508043581189888
 30
0.0
 42
-0.0718787425685243
  0
VERTEX
  5
15F8B
  8
HIDDEN
 10
237.52721074118591
 20
57.810809371894777
 30
0.0
 42
-0.0582488642256092
  0
VERTEX
  5
15F8C
  8
HIDDEN
 10
237.63589427932479
 20
56.881050621043087
 30
0.0
  0
VERTEX
  5
15F8D
  8
HIDDEN
 10
237.63589427932479
 20
54.430229991743282
 30
0.0
 42
-0.41421356237312
  0
VERTEX
  5
15F8E
  8
HIDDEN
 10
237.5907394086247
 20
54.385075121043187
 30
0.0
  0
VERTEX
  5
15F8F
  8
HIDDEN
 10
237.55278836507279
 20
54.385075121043187
 30
0.0
  0
VERTEX
  5
15F90
  8
HIDDEN
 10
230.41762837399841
 20
54.385075121043187
 30
0.0
  0
VERTEX
  5
15F91
  8
HIDDEN
 10
230.38367595974651
 20
54.38507512104308
 30
0.0
 42
-0.4142135623731117
  0
SEQEND
  5
15F92
  8
HIDDEN
  0
POLYLINE
  5
D80F
  8
OBJECT
 66
     1
 10
0.0
 20
0.0
 30
0.0
  0
VERTEX
  5
15F93
  8
OBJECT
 10
236.38210586953559
 20
58.857461194858267
 30
0.0
 42
-0.1579326405096733
  0
VERTEX
  5
15F94
  8
OBJECT
 10
236.62825722702891
 20
58.777721604971603
 30
0.0
 42
-0.1065219447776394
  0
VERTEX
  5
15F95
  8
OBJECT
 10
237.00594363127479
 20
58.357379270006888
 30
0.0
 42
-0.0718787425685552
  0
VERTEX
  5
15F96
  8
OBJECT
 10
237.2516294829571
 20
57.735489035917681
 30
0.0
 42
-0.0582488642255903
  0
VERTEX
  5
15F97
  8
OBJECT
 10
237.3526774433507
 20
56.871050621043082
 30
0.0
 42
-0.0582488642255903
  0
SEQEND
  5
15F98
  8
OBJECT
  0
POLYLINE
  5
D810
  8
OBJECT
 66
     1
 10
0.0
 20
0.0
 30
0.0
  0
VERTEX
  5
15F99
  8
OBJECT
 10
236.36759032251601
 20
58.857461194858267
 30
0.0
 42
-0.077968875740523
  0
VERTEX
  5
15F9A
  8
OBJECT
 10
236.86994730442831
 20
58.048142573555587
 30
0.0
 42
-0.1003068478025857
  0
VERTEX
  5
15F9B
  8
OBJECT
 10
237.10848814106151
 20
56.871050621043082
 30
0.0
 42
-0.1003068478025857
  0
SEQEND
  5
15F9C
  8
OBJECT
  0
POLYLINE
  5
D812
  8
OBJECT
 66
     1
 10
0.0
 20
0.0
 30
0.0
  0
VERTEX
  5
15F9D
  8
OBJECT
 10
231.60282641655519
 20
58.857461194858267
 30
0.0
 42
0.077968875740523
  0
VERTEX
  5
15F9E
  8
OBJECT
 10
231.10046943464289
 20
58.048142573555587
 30
0.0
 42
0.1003068478025857
  0
VERTEX
  5
15F9F
  8
OBJECT
 10
230.8619285980098
 20
56.871050621043082
 30
0.0
 42
0.1003068478025857
  0
SEQEND
  5
15FA0
  8
OBJECT
  0
POLYLINE
  5
D813
  8
OBJECT
 66
     1
 10
0.0
 20
0.0
 30
0.0
  0
VERTEX
  5
15FA1
  8
OBJECT
 10
231.5883108695356
 20
58.857461194858267
 30
0.0
 42
0.1579326405096733
  0
VERTEX
  5
15FA2
  8
OBJECT
 10
231.34215951204229
 20
58.777721604971603
 30
0.0
 42
0.1065219447776394
  0
VERTEX
  5
15FA3
  8
OBJECT
 10
230.96447310779649
 20
58.357379270006888
 30
0.0
 42
0.0718787425685552
  0
VERTEX
  5
15FA4
  8
OBJECT
 10
230.7187872561141
 20
57.735489035917681
 30
0.0
 42
0.0582488642255903
  0
VERTEX
  5
15FA5
  8
OBJECT
 10
230.6177392957205
 20
56.871050621043082
 30
0.0
 42
0.0582488642255903
  0
SEQEND
  5
15FA6
  8
OBJECT
  0
POLYLINE
  5
D814
  8
HIDDEN
 66
     1
 10
0.0
 20
0.0
 30
0.0
  0
VERTEX
  5
15FA7
  8
HIDDEN
 10
231.5883108695356
 20
59.207153121043092
 30
0.0
 42
0.1579326405096657
  0
VERTEX
  5
15FA8
  8
HIDDEN
 10
231.14297844578269
 20
59.06288974912858
 30
0.0
 42
0.1065219447776559
  0
VERTEX
  5
15FA9
  8
HIDDEN
 10
230.66964039712809
 20
58.536092865887881
 30
0.0
 42
0.0718787425685409
  0
VERTEX
  5
15FAA
  8
HIDDEN
 10
230.38825348644519
 20
57.823834628158991
 30
0.0
 42
0.0582488642255951
  0
VERTEX
  5
15FAB
  8
HIDDEN
 10
230.27804736953561
 20
56.881050621043087
 30
0.0
 42
0.0582488642255951
  0
SEQEND
  5
15FAC
  8
HIDDEN
  0
POLYLINE
  5
D815
  8
OBJECT
 66
     1
 10
0.0
 20
0.0
 30
0.0
  0
VERTEX
  5
15FAD
  8
OBJECT
 10
231.5883108695356
 20
59.255810121043083
 30
0.0
 42
0.1579326405096693
  0
VERTEX
  5
15FAE
  8
OBJECT
 10
231.11444802632329
 20
59.102304452152687
 30
0.0
 42
0.1065219447776537
  0
VERTEX
  5
15FAF
  8
OBJECT
 10
230.62740896889221
 20
58.560259167180291
 30
0.0
 42
0.0718787425685434
  0
VERTEX
  5
15FB0
  8
OBJECT
 10
230.3409082880726
 20
57.8350567420446
 30
0.0
 42
0.0582488642255929
  0
VERTEX
  5
15FB1
  8
OBJECT
 10
230.22939036953559
 20
56.881050621043087
 30
0.0
 42
0.0582488642255922
  0
SEQEND
  5
15FB2
  8
OBJECT
  0
LINE
  5
D816
  8
OBJECT
 10
236.11243186953561
 20
56.795600121043087
 30
0.0
 11
231.8584848695356
 21
56.795600121043087
 31
0.0
  0
LINE
  5
D817
  8
OBJECT
 10
236.11243186953561
 20
56.826383121043179
 30
0.0
 11
231.8584848695356
 21
56.826383121043179
 31
0.0
  0
LINE
  5
D818
  8
OBJECT
 10
236.11243186953561
 20
54.571245121043177
 30
0.0
 11
231.8584848695356
 21
54.571245121043177
 31
0.0
  0
LINE
  5
D819
  8
OBJECT
 10
236.11243186953561
 20
54.540462121043177
 30
0.0
 11
231.8584848695356
 21
54.540462121043177
 31
0.0
  0
LINE
  5
D81A
  8
OBJECT
 10
231.74826186953561
 20
54.681468121043281
 30
0.0
 11
231.74826186953561
 21
56.685377121043089
 31
0.0
  0
LINE
  5
D81B
  8
OBJECT
 10
231.7174788695356
 20
54.681468121043281
 30
0.0
 11
231.7174788695356
 21
56.685377121043089
 31
0.0
  0
CIRCLE
  5
D81C
  8
HIDDEN
 10
230.60524786953559
 20
54.74303062104309
 30
0.0
 40
0.0451815000000005
  0
CIRCLE
  5
D81D
  8
HIDDEN
 10
230.60524786953559
 20
54.74303062104309
 30
0.0
 40
0.0398260481354075
  0
CIRCLE
  5
D81E
  8
HIDDEN
 10
230.60524786953559
 20
54.74303062104309
 30
0.0
 40
0.1185450374168844
  0
CIRCLE
  5
D81F
  8
HIDDEN
 10
230.60524786953559
 20
54.74303062104309
 30
0.0
 40
0.109
  0
LINE
  5
D820
  8
HIDDEN
 10
230.27804736953561
 20
56.881050621043087
 30
0.0
 11
230.27804736953561
 21
54.399473621043192
 31
0.0
  0
LINE
  5
D821
  8
OBJECT
 10
230.8619285980098
 20
54.434228621043189
 30
0.0
 11
230.8619285980098
 21
56.871050621043082
 31
0.0
  0
LINE
  5
D822
  8
OBJECT
 10
230.6177392957205
 20
54.434228621043189
 30
0.0
 11
230.6177392957205
 21
56.871050621043082
 31
0.0
  0
LINE
  5
D823
  8
OBJECT
 10
230.22939036953559
 20
54.434228621043189
 30
0.0
 11
230.22939036953559
 21
56.881050621043087
 31
0.0
  0
ARC
  5
D824
  8
OBJECT
 10
231.8584848695356
 20
54.681468121043281
 30
0.0
 40
0.110223
 50
180.0
 51
270.0
  0
ARC
  5
D825
  8
OBJECT
 10
231.8584848695356
 20
54.681468121043281
 30
0.0
 40
0.1410059999999942
 50
180.0
 51
270.0
  0
ARC
  5
D826
  8
OBJECT
 10
230.4175638695356
 20
54.434228621043189
 30
0.0
 40
0.1881735
 50
180.0
 51
270.0
  0
POLYLINE
  5
D827
  8
OBJECT
 66
     1
 10
0.0
 20
0.0
 30
0.0
  0
VERTEX
  5
15FB3
  8
OBJECT
 10
230.2385432812668
 20
54.434228621043189
 30
0.0
 42
0.0941215463702184
  0
VERTEX
  5
15FB4
  8
OBJECT
 10
230.25230237713581
 20
54.361783966150398
 30
0.0
 42
0.0965726476500832
  0
VERTEX
  5
15FB5
  8
OBJECT
 10
230.29097719759869
 20
54.301169863153589
 30
0.0
 42
0.100253979675538
  0
VERTEX
  5
15FB6
  8
OBJECT
 10
230.34949122004139
 20
54.260231539638781
 30
0.0
 42
0.1030219692518613
  0
VERTEX
  5
15FB7
  8
OBJECT
 10
230.4175638695356
 20
54.246055121043177
 30
0.0
 42
0.1030219692518543
  0
SEQEND
  5
15FB8
  8
OBJECT
  0
LINE
  5
D828
  8
HIDDEN
 10
230.41762837399841
 20
54.246055121043177
 30
0.0
 11
230.41762837399841
 21
54.296698121043178
 31
0.0
  0
LINE
  5
D829
  8
HIDDEN
 10
230.38664756264779
 20
54.296698121043178
 30
0.0
 11
230.38664756264779
 21
54.350320121043183
 31
0.0
  0
LINE
  5
D82A
  8
HIDDEN
 10
230.41762837399841
 20
54.350320121043183
 30
0.0
 11
230.41762837399841
 21
54.385075121043187
 31
0.0
  0
ARC
  5
D82B
  8
HIDDEN
 10
230.38082286953559
 20
54.399473621043192
 30
0.0
 40
0.1027755
 50
180.0
 51
270.0
  0
ARC
  5
D82C
  8
OBJECT
 10
231.8584848695356
 20
56.685377121043089
 30
0.0
 40
0.110223
 50
90.0
 51
180.0
  0
ARC
  5
D82D
  8
OBJECT
 10
231.8584848695356
 20
56.685377121043089
 30
0.0
 40
0.1410059999999959
 50
90.0
 51
180.0
  0
LINE
  5
D830
  8
OBJECT
 10
237.1084881410614
 20
54.434228621043189
 30
0.0
 11
237.1084881410614
 21
56.871050621043082
 31
0.0
  0
LINE
  5
D831
  8
OBJECT
 10
237.3526774433507
 20
54.434228621043189
 30
0.0
 11
237.3526774433507
 21
56.871050621043082
 31
0.0
  0
LINE
  5
D832
  8
OBJECT
 10
236.25343786953559
 20
54.681468121043281
 30
0.0
 11
236.25343786953559
 21
56.685377121043089
 31
0.0
  0
LINE
  5
D833
  8
OBJECT
 10
236.2226548695356
 20
54.681468121043281
 30
0.0
 11
236.2226548695356
 21
56.685377121043089
 31
0.0
  0
ARC
  5
D834
  8
OBJECT
 10
236.11243186953561
 20
54.681468121043281
 30
0.0
 40
0.1410059999999942
 50
270.0
 51
0.0
  0
ARC
  5
D835
  8
OBJECT
 10
236.11243186953561
 20
54.681468121043281
 30
0.0
 40
0.110223
 50
270.0
 51
0.0
  0
ARC
  5
D836
  8
OBJECT
 10
236.11243186953561
 20
56.685377121043089
 30
0.0
 40
0.1410059999999959
 50
0.0
 51
90.0
  0
ARC
  5
D837
  8
OBJECT
 10
236.11243186953561
 20
56.685377121043089
 30
0.0
 40
0.110223
 50
0.0
 51
90.0
  0
LINE
  5
D838
  8
OBJECT
 10
236.38210586953559
 20
59.255810121043083
 30
0.0
 11
231.5883108695356
 21
59.255810121043083
 31
0.0
  0
LINE
  5
D839
  8
HIDDEN
 10
236.38210586953559
 20
59.207153121043092
 30
0.0
 11
231.5883108695356
 21
59.207153121043092
 31
0.0
  0
CIRCLE
  5
D83B
  8
HIDDEN
 10
231.04245836953561
 20
58.503598621043082
 30
0.0
 40
0.0451815000000005
  0
CIRCLE
  5
D83C
  8
HIDDEN
 10
231.04245836953561
 20
58.503598621043082
 30
0.0
 40
0.0398260481354075
  0
CIRCLE
  5
D83D
  8
HIDDEN
 10
231.04245836953561
 20
58.503598621043082
 30
0.0
 40
0.1185450374168844
  0
CIRCLE
  5
D83E
  8
HIDDEN
 10
231.04245836953561
 20
58.503598621043082
 30
0.0
 40
0.109
  0
CIRCLE
  5
D840
  8
HIDDEN
 10
236.9284583695356
 20
58.503598621043082
 30
0.0
 40
0.0398260481354075
  0
CIRCLE
  5
D841
  8
HIDDEN
 10
236.9284583695356
 20
58.503598621043082
 30
0.0
 40
0.0451815000000005
  0
CIRCLE
  5
D842
  8
HIDDEN
 10
236.9284583695356
 20
58.503598621043082
 30
0.0
 40
0.1092440000000181
  0
CIRCLE
  5
D843
  8
HIDDEN
 10
236.9274583695356
 20
58.501598621043087
 30
0.0
 40
0.1185450374168844
  0
LINE
  5
D844
  8
HIDDEN
 10
237.69236936953561
 20
56.881050621043087
 30
0.0
 11
237.69236936953561
 21
54.399473621043192
 31
0.0
  0
LINE
  5
D845
  8
OBJECT
 10
237.74102636953569
 20
54.434228621043189
 30
0.0
 11
237.74102636953569
 21
56.881050621043087
 31
0.0
  0
POLYLINE
  5
D846
  8
OBJECT
 66
     1
 10
0.0
 20
0.0
 30
0.0
  0
VERTEX
  5
15FB9
  8
OBJECT
 10
237.7318734578044
 20
54.434228621043189
 30
0.0
 42
-0.0941215463702184
  0
VERTEX
  5
15FBA
  8
OBJECT
 10
237.71811436193539
 20
54.361783966150398
 30
0.0
 42
-0.0965726476500832
  0
VERTEX
  5
15FBB
  8
OBJECT
 10
237.6794395414725
 20
54.301169863153589
 30
0.0
 42
-0.100253979675538
  0
VERTEX
  5
15FBC
  8
OBJECT
 10
237.62092551902981
 20
54.260231539638781
 30
0.0
 42
-0.1030219692518613
  0
VERTEX
  5
15FBD
  8
OBJECT
 10
237.5528528695356
 20
54.246055121043177
 30
0.0
 42
-0.1030219692518543
  0
SEQEND
  5
15FBE
  8
OBJECT
  0
ARC
  5
D847
  8
OBJECT
 10
237.5528528695356
 20
54.434228621043189
 30
0.0
 40
0.1881735
 50
270.0
 51
0.0
  0
LINE
  5
D848
  8
HIDDEN
 10
237.55278836507279
 20
54.246055121043177
 30
0.0
 11
237.55278836507279
 21
54.296698121043178
 31
0.0
  0
LINE
  5
D849
  8
HIDDEN
 10
237.55278836507279
 20
54.350320121043183
 30
0.0
 11
237.55278836507279
 21
54.385075121043187
 31
0.0
  0
ARC
  5
D84A
  8
HIDDEN
 10
237.58959386953561
 20
54.399473621043192
 30
0.0
 40
0.1027755
 50
270.0
 51
0.0
  0
LINE
  5
D84B
  8
HIDDEN
 10
237.58376917642329
 20
54.296698121043178
 30
0.0
 11
237.58376917642329
 21
54.350320121043183
 31
0.0
  0
LINE
  5
D8B9
  8
OBJECT
 10
242.2625459031315
 20
59.255810121043183
 30
0.0
 11
242.2625459031315
 21
54.246055121043177
 31
0.0
  0
POLYLINE
  5
D8BB
  8
HIDDEN
 66
     1
 10
0.0
 20
0.0
 30
0.0
  0
VERTEX
  5
15FBF
  8
HIDDEN
 10
242.6637949031315
 20
54.434228621043189
 30
0.0
  0
VERTEX
  5
15FC0
  8
HIDDEN
 10
242.6637949031315
 20
58.756263278064992
 30
0.0
 42
0.4065662586440772
  0
VERTEX
  5
15FC1
  8
HIDDEN
 10
242.27892639958
 20
59.151341848097772
 30
0.0
  0
SEQEND
  5
15FC2
  8
HIDDEN
  0
LINE
  5
D8BC
  8
OBJECT
 10
242.77401790313161
 20
58.75516656299969
 30
0.0
 11
242.77401790313161
 21
54.434228621043189
 31
0.0
  0
LINE
  5
D8BD
  8
HIDDEN
 10
242.76408790313161
 20
58.109853121043088
 30
0.0
 11
242.76408790313141
 21
55.079217121043087
 31
0.0
  0
ARC
  5
D8BE
  8
HIDDEN
 10
242.27354590313141
 20
54.872148621043181
 30
0.0
 40
0.015888
 50
89.999999999999204
 51
269.9999999999992
  0
ARC
  5
D8BF
  8
HIDDEN
 10
242.27354590313141
 20
54.62391262104309
 30
0.0
 40
0.015888
 50
90.0
 51
270.0
  0
LINE
  5
D8C0
  8
HIDDEN
 10
242.25765790313139
 20
54.872148621043181
 30
0.0
 11
242.25765790313139
 21
54.62391262104309
 31
0.0
  0
LINE
  5
D8C1
  8
HIDDEN
 10
242.6979292831478
 20
54.871030621043282
 30
0.0
 11
242.77401790313161
 21
54.87103062104309
 31
0.0
  0
LINE
  5
D8C2
  8
HIDDEN
 10
242.27326861929791
 20
54.888034201223768
 30
0.0
 11
242.6399629031315
 21
54.895434873756876
 31
0.0
  0
LINE
  5
D8C3
  8
HIDDEN
 10
242.6637949031315
 20
54.91626361015048
 30
0.0
 11
242.6399629031315
 21
54.915847621043092
 31
0.0
  0
LINE
  5
D8C4
  8
HIDDEN
 10
242.66583470742199
 20
54.659562822577179
 30
0.0
 11
242.6979292831476
 21
54.62503062104318
 31
0.0
  0
LINE
  5
D8C5
  8
HIDDEN
 10
242.6979292831476
 20
54.62503062104318
 30
0.0
 11
242.77401790313141
 21
54.62503062104318
 31
0.0
  0
LINE
  5
D8C6
  8
HIDDEN
 10
242.27326861929791
 20
54.608027040862481
 30
0.0
 11
242.6399629031315
 21
54.600626368329387
 31
0.0
  0
LINE
  5
D8C7
  8
HIDDEN
 10
242.27354590313141
 20
54.690436621043183
 30
0.0
 11
242.66583470742199
 21
54.659562822577179
 31
0.0
  0
LINE
  5
D8C8
  8
HIDDEN
 10
242.27354590313141
 20
54.805624621043087
 30
0.0
 11
242.66583470742199
 21
54.836498419508978
 31
0.0
  0
LINE
  5
D8C9
  8
HIDDEN
 10
242.66583470742199
 20
54.836498419508978
 30
0.0
 11
242.66583470742199
 21
54.659562822577179
 31
0.0
  0
LINE
  5
D8CA
  8
HIDDEN
 10
242.6637949031315
 20
54.57979763193579
 30
0.0
 11
242.6399629031315
 21
54.580213621043079
 31
0.0
  0
LINE
  5
D8CB
  8
HIDDEN
 10
242.6979292831478
 20
54.871030621043282
 30
0.0
 11
242.6979292831476
 21
54.62503062104318
 31
0.0
  0
LINE
  5
D8CC
  8
HIDDEN
 10
242.66583470742199
 20
54.836498419508978
 30
0.0
 11
242.6979292831478
 21
54.871030621043381
 31
0.0
  0
LINE
  5
D8CD
  8
HIDDEN
 10
242.27354590313141
 20
54.856260621043489
 30
0.0
 11
242.27354590313141
 21
54.639800621042482
 31
0.0
  0
LINE
  5
D8CE
  8
HIDDEN
 10
242.6399629031315
 20
54.580213621043178
 30
0.0
 11
242.6399629031315
 21
54.915847621043092
 31
0.0
  0
LINE
  5
D8CF
  8
HIDDEN
 10
242.2576579031315
 20
54.872148621043081
 30
0.0
 11
242.2576579031315
 21
54.62391262104309
 31
0.0
  0
LINE
  5
D8D0
  8
HIDDEN
 10
242.76408790313141
 20
55.128370621043189
 30
0.0
 11
242.76408790313141
 21
54.623926621043182
 31
0.0
  0
ARC
  5
D8D1
  8
OBJECT
 10
242.58584440313149
 20
54.434228621043189
 30
0.0
 40
0.1881735
 50
270.0
 51
359.99999999999909
  0
LINE
  5
D8D5
  8
OBJECT
 10
242.2625459031315
 20
54.246055121043177
 30
0.0
 11
242.58584440313149
 21
54.246055121043177
 31
0.0
  0
LINE
  5
D8D6
  8
OBJECT
 10
242.2625459031315
 20
54.296698121043178
 30
0.0
 11
242.2317629031316
 21
54.296698121043178
 31
0.0
  0
ARC
  5
D8D8
  8
HIDDEN
 10
242.6146414031316
 20
54.434228621043189
 30
0.0
 40
0.0491534999999984
 50
270.0
 51
0.0
  0
LINE
  5
D8D9
  8
HIDDEN
 10
242.57384440313149
 20
54.350320121043183
 30
0.0
 11
242.57384440313149
 21
54.385075121043187
 31
0.0
  0
LINE
  5
D8DA
  8
HIDDEN
 10
242.60562040313141
 20
54.350320121043183
 30
0.0
 11
242.60562040313141
 21
54.296698121043178
 31
0.0
  0
LINE
  5
D8DB
  8
OBJECT
 10
242.3996569031315
 20
54.246055121043177
 30
0.0
 11
242.58584440313149
 21
54.246055121043177
 31
0.0
  0
LINE
  5
D8DC
  8
HIDDEN
 10
242.57384440313149
 20
54.296698121043178
 30
0.0
 11
242.57384440313149
 21
54.246055121043177
 31
0.0
  0
LINE
  5
D8DD
  8
HIDDEN
 10
242.76408790313141
 20
54.620926621043083
 30
0.0
 11
242.77401790313161
 21
54.620926621043083
 31
0.0
  0
LINE
  5
D8DE
  8
HIDDEN
 10
242.41355890313139
 20
54.907428121043083
 30
0.0
 11
242.6637949031315
 21
54.903060235415772
 31
0.0
  0
LINE
  5
D8DF
  8
HIDDEN
 10
242.41355890313139
 20
55.09510512104309
 30
0.0
 11
242.6637949031315
 21
55.099473006670493
 31
0.0
  0
LINE
  5
D8E0
  8
HIDDEN
 10
242.41355890313139
 20
55.09510512104309
 30
0.0
 11
242.41355890313139
 21
54.907428121043083
 31
0.0
  0
LINE
  5
D8E1
  8
HIDDEN
 10
242.76408790313141
 20
55.076717121043181
 30
0.0
 11
242.77401790313161
 21
55.076717121043181
 31
0.0
  0
LINE
  5
D8E2
  8
HIDDEN
 10
242.76408790313141
 20
55.128370621043189
 30
0.0
 11
242.77401790313161
 21
55.128370621043189
 31
0.0
  0
LINE
  5
D8E3
  8
HIDDEN
 10
242.41355890313139
 20
54.958266621043101
 30
0.0
 11
242.6637949031315
 21
54.960450397531602
 31
0.0
  0
LINE
  5
D8E4
  8
HIDDEN
 10
242.41355890313139
 20
55.044266621043093
 30
0.0
 11
242.6637949031315
 21
55.042082844554599
 31
0.0
  0
LINE
  5
D8E5
  8
HIDDEN
 10
242.41355890313139
 20
57.469771121043081
 30
0.0
 11
242.41355890313139
 21
57.282094121043087
 31
0.0
  0
LINE
  5
D8E6
  8
HIDDEN
 10
242.41355890313139
 20
57.469771121043081
 30
0.0
 11
242.6637949031315
 21
57.474139006670477
 31
0.0
  0
LINE
  5
D8E7
  8
HIDDEN
 10
242.41355890313139
 20
57.282094121043087
 30
0.0
 11
242.6637949031315
 21
57.277726235415791
 31
0.0
  0
LINE
  5
D8E8
  8
HIDDEN
 10
242.41355890313139
 20
57.418932621043183
 30
0.0
 11
242.6637949031315
 21
57.41674884455459
 31
0.0
  0
LINE
  5
D8E9
  8
HIDDEN
 10
242.41355890313139
 20
57.332932621043078
 30
0.0
 11
242.6637949031315
 21
57.3351163975316
 31
0.0
  0
ARC
  5
D8EB
  8
HIDDEN
 10
242.27354590313129
 20
58.627716621043177
 30
0.0
 40
0.015888
 50
89.999999999999204
 51
269.9999999999992
  0
ARC
  5
D8EC
  8
HIDDEN
 10
242.27354590313129
 20
58.379480621043093
 30
0.0
 40
0.015888
 50
90.0
 51
270.0
  0
LINE
  5
D8ED
  8
HIDDEN
 10
242.25765790313139
 20
58.627716621043177
 30
0.0
 11
242.25765790313139
 21
58.379480621043093
 31
0.0
  0
LINE
  5
D8EE
  8
HIDDEN
 10
242.69792928314769
 20
58.626598621043271
 30
0.0
 11
242.77401790313149
 21
58.62659862104308
 31
0.0
  0
LINE
  5
D8EF
  8
HIDDEN
 10
242.27326861929791
 20
58.6436022012237
 30
0.0
 11
242.6399629031315
 21
58.65100287375688
 31
0.0
  0
LINE
  5
D8F0
  8
HIDDEN
 10
242.66379490313139
 20
58.671831610150491
 30
0.0
 11
242.6399629031315
 21
58.671415621043082
 31
0.0
  0
LINE
  5
D8F1
  8
HIDDEN
 10
242.66583470742199
 20
58.415130822577183
 30
0.0
 11
242.6979292831476
 21
58.380598621043092
 31
0.0
  0
LINE
  5
D8F2
  8
HIDDEN
 10
242.6979292831476
 20
58.380598621043092
 30
0.0
 11
242.77401790313141
 21
58.380598621043092
 31
0.0
  0
LINE
  5
D8F3
  8
HIDDEN
 10
242.27326861929791
 20
58.363595040862478
 30
0.0
 11
242.6399629031315
 21
58.35619436832939
 31
0.0
  0
LINE
  5
D8F4
  8
HIDDEN
 10
242.27354590313141
 20
58.446004621043087
 30
0.0
 11
242.66583470742199
 21
58.415130822577183
 31
0.0
  0
LINE
  5
D8F5
  8
HIDDEN
 10
242.27354590313141
 20
58.561192621043091
 30
0.0
 11
242.66583470742199
 21
58.592066419508981
 31
0.0
  0
LINE
  5
D8F6
  8
HIDDEN
 10
242.66583470742199
 20
58.592066419508981
 30
0.0
 11
242.66583470742199
 21
58.415130822577183
 31
0.0
  0
LINE
  5
D8F7
  8
HIDDEN
 10
242.66379490313139
 20
58.33536563193568
 30
0.0
 11
242.6399629031315
 21
58.335781621043083
 31
0.0
  0
LINE
  5
D8F8
  8
HIDDEN
 10
242.69792928314769
 20
58.626598621043271
 30
0.0
 11
242.6979292831476
 21
58.380598621043092
 31
0.0
  0
LINE
  5
D8F9
  8
HIDDEN
 10
242.66583470742199
 20
58.592066419508981
 30
0.0
 11
242.69792928314769
 21
58.626598621043271
 31
0.0
  0
LINE
  5
D8FA
  8
HIDDEN
 10
242.27354590313141
 20
58.611828621043493
 30
0.0
 11
242.27354590313141
 21
58.395368621042479
 31
0.0
  0
LINE
  5
D8FB
  8
HIDDEN
 10
242.6399629031315
 20
58.335781621043182
 30
0.0
 11
242.6399629031315
 21
58.671415621043082
 31
0.0
  0
LINE
  5
D8FC
  8
HIDDEN
 10
242.76408790313161
 20
58.503081121043081
 30
0.0
 11
242.76408790313161
 21
57.998637121043089
 31
0.0
  0
LINE
  5
D8FD
  8
HIDDEN
 10
242.76408790313161
 20
58.112353121043192
 30
0.0
 11
242.77401790313161
 21
58.112353121043192
 31
0.0
  0
LINE
  5
D8FE
  8
HIDDEN
 10
242.76408790313161
 20
57.998637121043089
 30
0.0
 11
242.77401790313161
 21
57.998637121043089
 31
0.0
  0
ARC
  5
D8FF
  8
OBJECT
 10
242.27354590313149
 20
58.75516656299969
 30
0.0
 40
0.5004720000000003
 50
0.0000000000008142
 51
88.500000000000554
  0
LINE
  5
D900
  8
HIDDEN
 10
242.41355890313139
 20
58.724555121043082
 30
0.0
 11
242.6637949031315
 21
58.728923006670477
 31
0.0
  0
LINE
  5
D901
  8
HIDDEN
 10
242.41355890313139
 20
58.673716621043077
 30
0.0
 11
242.6637949031315
 21
58.67153284455469
 31
0.0
  0
LINE
  5
D902
  8
HIDDEN
 10
242.41355890313139
 20
58.724555121043082
 30
0.0
 11
242.41355890313139
 21
58.536878121043081
 31
0.0
  0
LINE
  5
D903
  8
HIDDEN
 10
242.41355890313139
 20
58.587716621043093
 30
0.0
 11
242.6637949031315
 21
58.589900397531608
 31
0.0
  0
LINE
  5
D904
  8
HIDDEN
 10
242.41355890313139
 20
58.536878121043081
 30
0.0
 11
242.6637949031315
 21
58.532510235415778
 31
0.0
  0
LINE
  5
D905
  8
HIDDEN
 10
242.76408790313161
 20
58.506081121043081
 30
0.0
 11
242.77401790313161
 21
58.506081121043081
 31
0.0
  0
LINE
  5
D906
  8
OBJECT
 10
242.2625459031315
 20
59.255810121043083
 30
0.0
 11
242.28664673280491
 21
59.255467063744767
 31
0.0
  0
LINE
  5
D907
  8
OBJECT
 10
242.2625459031315
 20
59.205167121043083
 30
0.0
 11
242.2317629031316
 21
59.205167121043083
 31
0.0
  0
LINE
  5
D908
  8
HIDDEN
 10
242.20097990313141
 20
59.15338294894039
 30
0.0
 11
242.27892639958
 21
59.151341848097772
 31
0.0
  0
LINE
  5
DD34
  8
HIDDEN
 10
241.64688590313159
 20
58.547424669178483
 30
0.0
 11
241.64688590313159
 21
58.467772572907791
 31
0.0
  0
LINE
  5
DD35
  8
HIDDEN
 10
242.25155990313161
 20
58.394354621043092
 30
0.0
 11
242.25155990313161
 21
58.612842621043093
 31
0.0
  0
POLYLINE
  5
DD36
  8
OBJECT
 66
     1
 10
0.0
 20
0.0
 30
0.0
  0
VERTEX
  5
15FC3
  8
OBJECT
 10
241.88222730603781
 20
59.246657209311977
 30
0.0
 42
0.2069474533001977
  0
VERTEX
  5
15FC4
  8
OBJECT
 10
241.60907568096891
 20
59.119955226341993
 30
0.0
 42
0.0954356222060006
  0
VERTEX
  5
15FC5
  8
OBJECT
 10
241.26256243570589
 20
58.539324745829603
 30
0.0
 42
0.0492343786176163
  0
VERTEX
  5
15FC6
  8
OBJECT
 10
241.08647961376681
 20
57.847911972267397
 30
0.0
 42
0.0377631324624936
  0
VERTEX
  5
15FC7
  8
OBJECT
 10
241.01335190313159
 20
56.881050621043087
 30
0.0
  0
SEQEND
  5
15FC8
  8
OBJECT
  0
LINE
  5
DD37
  8
OBJECT
 10
241.51283090313149
 20
54.434228621043189
 30
0.0
 11
241.51283090313149
 21
58.867461194858272
 31
0.0
  0
LINE
  5
DD38
  8
HIDDEN
 10
241.6131239031314
 20
54.434228621043189
 30
0.0
 11
241.6131239031314
 21
58.867461194858272
 31
0.0
  0
POLYLINE
  5
DD39
  8
HIDDEN
 66
     1
 10
0.0
 20
0.0
 30
0.0
  0
VERTEX
  5
15FC9
  8
HIDDEN
 10
242.20097990313141
 20
59.151676660132189
 30
0.0
  0
VERTEX
  5
15FCA
  8
HIDDEN
 10
241.88485267071439
 20
59.143398577218193
 30
0.0
 42
0.2069474533002012
  0
VERTEX
  5
15FCB
  8
HIDDEN
 10
241.68392176326839
 20
59.050196333200979
 30
0.0
 42
0.0954356222059984
  0
VERTEX
  5
15FCC
  8
HIDDEN
 10
241.356851761212
 20
58.502145674095189
 30
0.0
 42
0.0492343786176267
  0
VERTEX
  5
15FCD
  8
HIDDEN
 10
241.18563168413229
 20
57.829827119227168
 30
0.0
 42
0.0377631324624896
  0
VERTEX
  5
15FCE
  8
HIDDEN
 10
241.11364490313159
 20
56.878050621043087
 30
0.0
  0
VERTEX
  5
15FCF
  8
HIDDEN
 10
241.11364490313159
 20
54.434228621043189
 30
0.0
 42
0.4142135623730951
  0
VERTEX
  5
15FD0
  8
HIDDEN
 10
241.1627984031316
 20
54.385075121043187
 30
0.0
  0
VERTEX
  5
15FD1
  8
HIDDEN
 10
242.6146414031316
 20
54.38507512104308
 30
0.0
  0
SEQEND
  5
15FD2
  8
HIDDEN
  0
ARC
  5
DD3A
  8
OBJECT
 10
245.6786178261396
 20
57.401386483029988
 30
0.0
 40
4.439702999999998
 50
158.83416198165341
 51
172.10640748898041
  0
LINE
  5
DD3B
  8
HIDDEN
 10
242.20097990313141
 20
59.20715312104317
 30
0.0
 11
242.20097990313141
 21
54.296698121043178
 31
0.0
  0
LINE
  5
DD3C
  8
OBJECT
 10
242.2317629031316
 20
59.255810121043183
 30
0.0
 11
242.2317629031316
 21
54.246055121043177
 31
0.0
  0
LINE
  5
DD3D
  8
OBJECT
 10
241.01335190313159
 20
54.434228621043189
 30
0.0
 11
241.01335190313159
 21
56.881050621043087
 31
0.0
  0
LINE
  5
DD3E
  8
OBJECT
 10
241.20301490313159
 20
54.434228621043189
 30
0.0
 11
241.20301490313159
 21
56.881050621043087
 31
0.0
  0
LINE
  5
DD3F
  8
OBJECT
 10
241.3231679031316
 20
54.434228621043189
 30
0.0
 11
241.3231679031316
 21
58.26221091134218
 31
0.0
  0
LINE
  5
DD40
  8
HIDDEN
 10
241.02328190313159
 20
54.540462121043177
 30
0.0
 11
241.02328190313159
 21
56.826383121043179
 31
0.0
  0
LINE
  5
DD41
  8
HIDDEN
 10
242.25155990313141
 20
54.793212121043183
 30
0.0
 11
241.64688590313159
 21
54.787856669178481
 31
0.0
  0
LINE
  5
DD42
  8
HIDDEN
 10
242.25155990313141
 20
54.70284912104318
 30
0.0
 11
241.6468859031315
 21
54.708204572907789
 31
0.0
  0
LINE
  5
DD43
  8
HIDDEN
 10
242.25155990313141
 20
54.638786621043181
 30
0.0
 11
241.6131239031314
 21
54.627485583626282
 31
0.0
  0
LINE
  5
DD44
  8
HIDDEN
 10
242.25155990313141
 20
54.857274621043089
 30
0.0
 11
241.6131239031314
 21
54.868575658459989
 31
0.0
  0
LINE
  5
DD45
  8
HIDDEN
 10
242.25155990313141
 20
54.857274621043089
 30
0.0
 11
242.25155990313141
 21
54.638786621043181
 31
0.0
  0
LINE
  5
DD46
  8
HIDDEN
 10
241.64688590313159
 20
54.787856669178481
 30
0.0
 11
241.6468859031315
 21
54.708204572907789
 31
0.0
  0
LINE
  5
DD48
  8
HIDDEN
 10
241.01335190313159
 20
54.571245121043177
 30
0.0
 11
241.02328190313159
 21
54.571245121043177
 31
0.0
  0
LINE
  5
DD49
  8
HIDDEN
 10
241.01335190313159
 20
54.540462121043177
 30
0.0
 11
241.02328190313159
 21
54.540462121043177
 31
0.0
  0
LINE
  5
DD4A
  8
HIDDEN
 10
241.16974940313159
 20
54.350320121043183
 30
0.0
 11
241.16974940313159
 21
54.296698121043178
 31
0.0
  0
LINE
  5
DD4B
  8
HIDDEN
 10
241.20152540313151
 20
54.350320121043183
 30
0.0
 11
241.20152540313151
 21
54.385075121043187
 31
0.0
  0
LINE
  5
DD4C
  8
HIDDEN
 10
241.20152540313151
 20
54.296698121043178
 30
0.0
 11
241.20152540313151
 21
54.246055121043177
 31
0.0
  0
LINE
  5
DD4D
  8
HIDDEN
 10
241.6692284031316
 20
54.350320121043183
 30
0.0
 11
241.6692284031316
 21
54.296698121043178
 31
0.0
  0
LINE
  5
DD4E
  8
HIDDEN
 10
241.70100440313149
 20
54.350320121043183
 30
0.0
 11
241.70100440313149
 21
54.385075121043187
 31
0.0
  0
LINE
  5
DD4F
  8
HIDDEN
 10
241.70100440313149
 20
54.296698121043178
 30
0.0
 11
241.70100440313149
 21
54.246055121043177
 31
0.0
  0
LINE
  5
DD50
  8
OBJECT
 10
242.2317629031316
 20
54.246055121043177
 30
0.0
 11
241.20152540313151
 21
54.246055121043177
 31
0.0
  0
LINE
  5
DD51
  8
HIDDEN
 10
242.60562040313141
 20
54.296698121043178
 30
0.0
 11
241.16974940313159
 21
54.296698121043178
 31
0.0
  0
LINE
  5
DD52
  8
HIDDEN
 10
242.60562040313141
 20
54.350320121043083
 30
0.0
 11
241.16974940313159
 21
54.350320121043183
 31
0.0
  0
POLYLINE
  5
DD53
  8
OBJECT
 66
     1
 10
0.0
 20
0.0
 30
0.0
  0
VERTEX
  5
15FD3
  8
OBJECT
 10
241.3231679031316
 20
54.434228621043189
 30
0.0
 42
0.0510992989620896
  0
VERTEX
  5
15FD4
  8
OBJECT
 10
241.33096590085111
 20
54.358125462814101
 30
0.0
 42
0.06494810165031
  0
VERTEX
  5
15FD5
  8
OBJECT
 10
241.3507252741868
 20
54.301169863153589
 30
0.0
 42
0.1042029417664267
  0
VERTEX
  5
15FD6
  8
OBJECT
 10
241.3853821033596
 20
54.25754228557917
 30
0.0
 42
0.1747045211890133
  0
VERTEX
  5
15FD7
  8
OBJECT
 10
241.41725465313161
 20
54.246055121043177
 30
0.0
 42
0.1747045211890156
  0
SEQEND
  5
15FD8
  8
OBJECT
  0
ARC
  5
DD54
  8
OBJECT
 10
241.20152540313151
 20
54.434228621043189
 30
0.0
 40
0.1881735
 50
180.0
 51
270.0
  0
POLYLINE
  5
DD55
  8
OBJECT
 66
     1
 10
0.0
 20
0.0
 30
0.0
  0
VERTEX
  5
15FD9
  8
OBJECT
 10
241.20301490313159
 20
54.434228621043189
 30
0.0
 42
0.0510992989620896
  0
VERTEX
  5
15FDA
  8
OBJECT
 10
241.21081290085121
 20
54.358125462814101
 30
0.0
 42
0.06494810165031
  0
VERTEX
  5
15FDB
  8
OBJECT
 10
241.23057227418681
 20
54.301169863153589
 30
0.0
 42
0.1042029417664267
  0
VERTEX
  5
15FDC
  8
OBJECT
 10
241.26522910335959
 20
54.25754228557917
 30
0.0
 42
0.1747045211890133
  0
VERTEX
  5
15FDD
  8
OBJECT
 10
241.29710165313159
 20
54.246055121043177
 30
0.0
 42
0.1747045211890156
  0
SEQEND
  5
15FDE
  8
OBJECT
  0
ARC
  5
DD56
  8
OBJECT
 10
241.70100440313149
 20
54.434228621043189
 30
0.0
 40
0.1881735
 50
180.0
 51
270.0
  0
ARC
  5
DD57
  8
HIDDEN
 10
241.66227740313141
 20
54.434228621043189
 30
0.0
 40
0.0491534999999984
 50
180.0
 51
270.0
  0
LINE
  5
DD58
  8
HIDDEN
 10
242.25155990313161
 20
58.394354621043092
 30
0.0
 11
241.6131239031314
 21
58.383053583626193
 31
0.0
  0
LINE
  5
DD59
  8
HIDDEN
 10
242.25155990313161
 20
58.458417121043077
 30
0.0
 11
241.64688590313159
 21
58.463772572907679
 31
0.0
  0
ARC
  5
DD5A
  8
OBJECT
 10
249.43155908924331
 20
56.881050621043187
 30
0.0
 40
8.2285441861117352
 50
172.10640748898041
 51
180.0
  0
LINE
  5
DD5B
  8
HIDDEN
 10
241.01335190313159
 20
56.795600121043087
 30
0.0
 11
241.02328190313159
 21
56.795600121043087
 31
0.0
  0
LINE
  5
DD5C
  8
HIDDEN
 10
241.01335190313159
 20
56.826383121043179
 30
0.0
 11
241.02328190313159
 21
56.826383121043179
 31
0.0
  0
LINE
  5
DD5D
  8
CENTER
 10
240.9133519031316
 20
56.750932621043177
 30
0.0
 11
242.8740179031316
 21
56.750932621043177
 31
0.0
  0
LINE
  5
DD5E
  8
HIDDEN
 10
242.25155990313161
 20
58.612842621043093
 30
0.0
 11
241.6131239031314
 21
58.624143658459992
 31
0.0
  0
LINE
  5
DD5F
  8
HIDDEN
 10
242.25155990313161
 20
58.54878012104308
 30
0.0
 11
241.64688590313159
 21
58.543424669178478
 31
0.0
  0
LINE
  5
DD60
  8
HIDDEN
 10
242.2317629031316
 20
59.20715312104317
 30
0.0
 11
242.20097990313141
 21
59.20715312104317
 31
0.0
  0
ARC
  5
DD61
  8
OBJECT
 10
241.89215690313159
 20
58.867461194858272
 30
0.0
 40
0.379326
 50
138.2686635016461
 51
180.0
  0
ARC
  5
DD62
  8
HIDDEN
 10
241.87727980591359
 20
58.870200466777192
 30
0.0
 40
0.2641701053964971
 50
137.04971650912009
 51
180.5941305599292
  0
LINE
  5
DD63
  8
OBJECT
 10
242.2317629031316
 20
59.255810121043183
 30
0.0
 11
241.88222730603781
 21
59.246657209311977
 31
0.0
  0
LINE
  5
DD93
  8
HIDDEN
 10
242.2317629031316
 20
59.205167121043083
 30
0.0
 11
242.20097990313141
 21
59.205167121043083
 31
0.0
  0
POLYLINE
  5
DE0C
  8
OBJECT
 66
     1
 10
0.0
 20
0.0
 30
0.0
 70
     1
  0
VERTEX
  5
15FDF
  8
OBJECT
 10
230.73006232592269
 20
48.939029941318132
 30
0.0
  0
VERTEX
  5
15FE0
  8
OBJECT
 10
237.24191120983579
 20
48.939029941318132
 30
0.0
 42
0.406983441503832
  0
VERTEX
  5
15FE1
  8
OBJECT
 10
237.7412117105809
 20
49.426401111644502
 30
0.0
  0
VERTEX
  5
15FE2
  8
OBJECT
 10
237.74155476787919
 20
49.450501941318009
 30
0.0
  0
VERTEX
  5
15FE3
  8
OBJECT
 10
230.22941876787931
 20
49.450501941318009
 30
0.0
  0
VERTEX
  5
15FE4
  8
OBJECT
 10
230.2297618251776
 20
49.426401111644502
 30
0.0
 42
0.4065662586440526
  0
SEQEND
  5
15FE5
  8
OBJECT
  0
POLYLINE
  5
DE0D
  8
HIDDEN
 66
     1
 10
0.0
 20
0.0
 30
0.0
  0
VERTEX
  5
15FE6
  8
HIDDEN
 10
237.58700386357521
 20
49.512067941318008
 30
0.0
  0
VERTEX
  5
15FE7
  8
HIDDEN
 10
237.58486780409811
 20
49.442495120917499
 30
0.0
 42
-0.4065662586440523
  0
VERTEX
  5
15FE8
  8
HIDDEN
 10
237.24091120983579
 20
49.107427441318009
 30
0.0
  0
VERTEX
  5
15FE9
  8
HIDDEN
 10
230.73006232592269
 20
49.107427441318123
 30
0.0
 42
-0.4065662586440526
  0
VERTEX
  5
15FEA
  8
HIDDEN
 10
230.38610573166039
 20
49.442495120917499
 30
0.0
  0
VERTEX
  5
15FEB
  8
HIDDEN
 10
230.38396967218321
 20
49.512067941318008
 30
0.0
  0
SEQEND
  5
15FEC
  8
HIDDEN
  0
POLYLINE
  5
DE0E
  8
OBJECT
 66
     1
 10
0.0
 20
0.0
 30
0.0
  0
VERTEX
  5
15FED
  8
OBJECT
 10
230.4157565647574
 20
49.512067941318008
 30
0.0
  0
VERTEX
  5
15FEE
  8
OBJECT
 10
230.4178708428189
 20
49.443326919626912
 30
0.0
 42
0.4065662586440526
  0
VERTEX
  5
15FEF
  8
OBJECT
 10
230.73006232592269
 20
49.139203441318116
 30
0.0
  0
VERTEX
  5
15FF0
  8
OBJECT
 10
237.24091120983579
 20
49.139203441318003
 30
0.0
 42
0.4065662586440523
  0
VERTEX
  5
15FF1
  8
OBJECT
 10
237.55310269293969
 20
49.443326919626912
 30
0.0
  0
VERTEX
  5
15FF2
  8
OBJECT
 10
237.55521697100099
 20
49.512067941318008
 30
0.0
  0
SEQEND
  5
15FF3
  8
OBJECT
  0
LINE
  5
DE0F
  8
HIDDEN
 10
230.2800617678792
 20
49.512067941318008
 30
0.0
 11
237.6909117678793
 21
49.512067941318008
 31
0.0
  0
POLYLINE
  5
DE10
  8
HIDDEN
 66
     1
 10
0.0
 20
0.0
 30
0.0
  0
VERTEX
  5
15FF4
  8
HIDDEN
 10
230.33184593998189
 20
49.512067941318008
 30
0.0
  0
VERTEX
  5
15FF5
  8
HIDDEN
 10
230.33388704082449
 20
49.434121444869632
 30
0.0
 42
0.4065662586440856
  0
VERTEX
  5
15FF6
  8
HIDDEN
 10
230.72896561085739
 20
49.049252941318109
 30
0.0
  0
VERTEX
  5
15FF7
  8
HIDDEN
 10
237.24200792490109
 20
49.049252941318109
 30
0.0
 42
0.4065662586440856
  0
VERTEX
  5
15FF8
  8
HIDDEN
 10
237.6370864949339
 20
49.434121444869632
 30
0.0
  0
VERTEX
  5
15FF9
  8
HIDDEN
 10
237.6391275957765
 20
49.512067941318008
 30
0.0
  0
SEQEND
  5
15FFA
  8
HIDDEN
  0
LINE
  5
DE13
  8
HIDDEN
 10
237.1923802678792
 20
49.073084941318129
 30
0.0
 11
237.5280142678792
 21
49.073084941318129
 31
0.0
  0
LINE
  5
DE14
  8
HIDDEN
 10
237.4831972678794
 20
49.015118561301819
 30
0.0
 11
237.2371972678792
 21
49.015118561301897
 31
0.0
  0
LINE
  5
DE15
  8
HIDDEN
 10
237.44866506634509
 20
49.047213137027498
 30
0.0
 11
237.4831972678794
 21
49.015118561301719
 31
0.0
  0
LINE
  5
DE16
  8
HIDDEN
 10
237.4684272678796
 20
49.43950194131812
 30
0.0
 11
237.2519672678786
 21
49.43950194131812
 31
0.0
  0
LINE
  5
DE17
  8
HIDDEN
 10
237.4843152678792
 20
49.455389941318117
 30
0.0
 11
237.23607926787909
 21
49.455389941318117
 31
0.0
  0
LINE
  5
DE19
  8
HIDDEN
 10
230.72827626787921
 20
49.015118561301819
 30
0.0
 11
230.72827626787921
 21
48.939029941318012
 31
0.0
  0
ARC
  5
DE1A
  8
HIDDEN
 10
230.72939426787929
 20
49.43950194131812
 30
0.0
 40
0.015888
 50
359.99999999999909
 51
179.99999999999901
  0
LINE
  5
DE1B
  8
HIDDEN
 10
230.74527984805979
 20
49.439779225151511
 30
0.0
 11
230.75268052059289
 21
49.073084941318129
 31
0.0
  0
LINE
  5
DE1C
  8
HIDDEN
 10
230.7735092569865
 20
49.049252941318109
 30
0.0
 11
230.7730932678792
 21
49.073084941318129
 31
0.0
  0
LINE
  5
DE1D
  8
HIDDEN
 10
230.51680846941329
 20
49.047213137027498
 30
0.0
 11
230.4822762678792
 21
49.015118561301897
 31
0.0
  0
LINE
  5
DE1E
  8
HIDDEN
 10
230.4822762678792
 20
49.015118561301897
 30
0.0
 11
230.4822762678792
 21
49.004675203153013
 31
0.0
  0
ARC
  5
DE1F
  8
HIDDEN
 10
230.48115826787921
 20
49.43950194131812
 30
0.0
 40
0.015888
 50
0.0
 51
180.0
  0
LINE
  5
DE20
  8
HIDDEN
 10
230.4652726876985
 20
49.439779225151511
 30
0.0
 11
230.45787201516541
 21
49.073084941318129
 31
0.0
  0
LINE
  5
DE21
  8
HIDDEN
 10
230.5476822678792
 20
49.43950194131812
 30
0.0
 11
230.51680846941329
 21
49.047213137027498
 31
0.0
  0
LINE
  5
DE22
  8
HIDDEN
 10
230.66287026787921
 20
49.43950194131812
 30
0.0
 11
230.69374406634509
 21
49.047213137027498
 31
0.0
  0
LINE
  5
DE23
  8
HIDDEN
 10
230.69374406634489
 20
49.047213137027498
 30
0.0
 11
230.51680846941329
 21
49.047213137027498
 31
0.0
  0
LINE
  5
DE24
  8
HIDDEN
 10
230.4370432787718
 20
49.049252941318109
 30
0.0
 11
230.43745926787921
 21
49.073084941318129
 31
0.0
  0
LINE
  5
DE25
  8
HIDDEN
 10
230.72827626787921
 20
49.015118561301819
 30
0.0
 11
230.4822762678792
 21
49.015118561301897
 31
0.0
  0
LINE
  5
DE26
  8
HIDDEN
 10
230.69374406634509
 20
49.047213137027498
 30
0.0
 11
230.72827626787941
 21
49.015118561301719
 31
0.0
  0
LINE
  5
DE27
  8
HIDDEN
 10
230.71350626787961
 20
49.43950194131812
 30
0.0
 11
230.4970462678786
 21
49.43950194131812
 31
0.0
  0
LINE
  5
DE28
  8
HIDDEN
 10
230.72939426787929
 20
49.455389941318117
 30
0.0
 11
230.48115826787921
 21
49.455389941318117
 31
0.0
  0
LINE
  5
DE29
  8
HIDDEN
 10
230.43745926787921
 20
49.073084941318129
 30
0.0
 11
230.7730932678792
 21
49.073084941318129
 31
0.0
  0
LINE
  5
DE2A
  8
HIDDEN
 10
231.16545836953591
 20
49.015118561301719
 30
0.0
 11
231.16545836953571
 21
48.939029941317912
 31
0.0
  0
ARC
  5
DE2B
  8
HIDDEN
 10
231.16657636953579
 20
49.439501941318007
 30
0.0
 40
0.015888
 50
359.99999999999909
 51
179.99999999999901
  0
LINE
  5
DE2C
  8
HIDDEN
 10
231.18246194971641
 20
49.439779225151511
 30
0.0
 11
231.18986262224939
 21
49.073084941318129
 31
0.0
  0
LINE
  5
DE2D
  8
HIDDEN
 10
231.21069135864309
 20
49.049252941318002
 30
0.0
 11
231.21027536953571
 21
49.073084941318129
 31
0.0
  0
LINE
  5
DE2E
  8
HIDDEN
 10
230.9539905710698
 20
49.047213137027427
 30
0.0
 11
230.9194583695357
 21
49.015118561301819
 31
0.0
  0
LINE
  5
DE2F
  8
HIDDEN
 10
230.9194583695357
 20
49.015118561301819
 30
0.0
 11
230.9194583695357
 21
48.939029941318012
 31
0.0
  0
ARC
  5
DE30
  8
HIDDEN
 10
230.91834036953571
 20
49.439501941318007
 30
0.0
 40
0.015888
 50
0.0
 51
180.0
  0
LINE
  5
DE31
  8
HIDDEN
 10
230.90245478935509
 20
49.439779225151511
 30
0.0
 11
230.895054116822
 21
49.073084941318129
 31
0.0
  0
LINE
  5
DE32
  8
HIDDEN
 10
230.9848643695357
 20
49.439501941318007
 30
0.0
 11
230.9539905710698
 21
49.047213137027427
 31
0.0
  0
LINE
  5
DE33
  8
HIDDEN
 10
231.10005236953569
 20
49.439501941318007
 30
0.0
 11
231.13092616800171
 21
49.047213137027427
 31
0.0
  0
LINE
  5
DE34
  8
HIDDEN
 10
231.13092616800151
 20
49.047213137027498
 30
0.0
 11
230.9539905710698
 21
49.047213137027427
 31
0.0
  0
LINE
  5
DE35
  8
HIDDEN
 10
230.8742253804283
 20
49.049252941318002
 30
0.0
 11
230.87464136953571
 21
49.073084941318129
 31
0.0
  0
LINE
  5
DE36
  8
HIDDEN
 10
231.16545836953591
 20
49.015118561301719
 30
0.0
 11
230.9194583695357
 21
49.015118561301819
 31
0.0
  0
LINE
  5
DE37
  8
HIDDEN
 10
231.13092616800171
 20
49.047213137027427
 30
0.0
 11
231.16545836953591
 21
49.015118561301719
 31
0.0
  0
LINE
  5
DE38
  8
HIDDEN
 10
231.15068836953611
 20
49.439501941318007
 30
0.0
 11
230.93422836953511
 21
49.439501941318007
 31
0.0
  0
LINE
  5
DE39
  8
HIDDEN
 10
231.16657636953579
 20
49.455389941318003
 30
0.0
 11
230.91834036953571
 21
49.455389941318003
 31
0.0
  0
LINE
  5
DE3A
  8
HIDDEN
 10
230.87464136953571
 20
49.073084941318129
 30
0.0
 11
231.21027536953559
 21
49.073084941318129
 31
0.0
  0
LINE
  5
DE3D
  8
HIDDEN
 10
230.8267362678792
 20
49.29948894131801
 30
0.0
 11
230.8223683822518
 21
49.049252941318109
 31
0.0
  0
LINE
  5
DE3E
  8
HIDDEN
 10
231.01441326787921
 20
49.29948894131811
 30
0.0
 11
231.01878115350661
 21
49.049252941318109
 31
0.0
  0
LINE
  5
DE3F
  8
HIDDEN
 10
230.8807253804284
 20
49.049252941318002
 30
0.0
 11
230.8811413695357
 21
49.073084941318129
 31
0.0
  0
LINE
  5
DE40
  8
HIDDEN
 10
230.8267362678792
 20
49.29948894131801
 30
0.0
 11
231.01441326787921
 21
49.29948894131811
 31
0.0
  0
LINE
  5
DE41
  8
HIDDEN
 10
231.82938376787919
 20
49.29948894131811
 30
0.0
 11
231.8337516535066
 21
49.049252941318109
 31
0.0
  0
LINE
  5
DE42
  8
HIDDEN
 10
231.64170676787921
 20
49.29948894131801
 30
0.0
 11
231.63733888225181
 21
49.049252941318109
 31
0.0
  0
LINE
  5
DE43
  8
HIDDEN
 10
231.64170676787921
 20
49.29948894131801
 30
0.0
 11
231.82938376787919
 21
49.29948894131811
 31
0.0
  0
LINE
  5
DE44
  8
OBJECT
 10
230.2800617678792
 20
49.450501941318009
 30
0.0
 11
230.2800617678792
 21
49.481284941318002
 31
0.0
  0
LINE
  5
DE45
  8
HIDDEN
 10
230.8775747678792
 20
49.29948894131811
 30
0.0
 11
230.87975854436769
 21
49.049252941318002
 31
0.0
  0
LINE
  5
DE46
  8
HIDDEN
 10
230.96357476787921
 20
49.29948894131811
 30
0.0
 11
230.96139099139069
 21
49.049252941318002
 31
0.0
  0
LINE
  5
DE47
  8
HIDDEN
 10
231.7785452678792
 20
49.29948894131811
 30
0.0
 11
231.7763614913907
 21
49.049252941318002
 31
0.0
  0
LINE
  5
DE48
  8
HIDDEN
 10
231.69254526787921
 20
49.29948894131811
 30
0.0
 11
231.69472904436759
 21
49.049252941318002
 31
0.0
  0
LINE
  5
DE4A
  8
HIDDEN
 10
235.0033292678792
 20
48.948959941318002
 30
0.0
 11
232.96764426787931
 21
48.948959941318122
 31
0.0
  0
LINE
  5
DE4B
  8
HIDDEN
 10
232.96764426787931
 20
48.948959941318122
 30
0.0
 11
232.96764426787931
 21
48.939029941318132
 31
0.0
  0
LINE
  5
DE4D
  8
HIDDEN
 10
237.05145836953579
 20
49.015118561301819
 30
0.0
 11
237.0514583695356
 21
48.939029941318012
 31
0.0
  0
ARC
  5
DE4E
  8
HIDDEN
 10
237.05257636953581
 20
49.43950194131812
 30
0.0
 40
0.015888
 50
359.99999999999909
 51
179.99999999999901
  0
LINE
  5
DE4F
  8
HIDDEN
 10
237.06846194971629
 20
49.439779225151511
 30
0.0
 11
237.07586262224939
 21
49.073084941318129
 31
0.0
  0
LINE
  5
DE50
  8
HIDDEN
 10
237.09651375698661
 20
49.049252941318109
 30
0.0
 11
237.0960977678792
 21
49.073084941318129
 31
0.0
  0
LINE
  5
DE51
  8
HIDDEN
 10
236.83999057106979
 20
49.047213137027498
 30
0.0
 11
236.8054583695357
 21
49.015118561301897
 31
0.0
  0
LINE
  5
DE52
  8
HIDDEN
 10
236.8054583695357
 20
49.015118561301897
 30
0.0
 11
236.8054583695357
 21
48.939029941318132
 31
0.0
  0
ARC
  5
DE53
  8
HIDDEN
 10
236.80434036953571
 20
49.43950194131812
 30
0.0
 40
0.015888
 50
0.0
 51
180.0
  0
LINE
  5
DE54
  8
HIDDEN
 10
236.78845478935509
 20
49.439779225151511
 30
0.0
 11
236.78105411682199
 21
49.073084941318129
 31
0.0
  0
LINE
  5
DE55
  8
HIDDEN
 10
236.8708643695357
 20
49.43950194131812
 30
0.0
 11
236.83999057106979
 21
49.047213137027498
 31
0.0
  0
LINE
  5
DE56
  8
HIDDEN
 10
236.98605236953571
 20
49.43950194131812
 30
0.0
 11
237.01692616800159
 21
49.047213137027498
 31
0.0
  0
LINE
  5
DE57
  8
HIDDEN
 10
237.0169261680015
 20
49.047213137027498
 30
0.0
 11
236.83999057106979
 21
49.047213137027498
 31
0.0
  0
LINE
  5
DE58
  8
HIDDEN
 10
236.76004777877191
 20
49.049252941318109
 30
0.0
 11
236.76046376787929
 21
49.073084941318129
 31
0.0
  0
LINE
  5
DE59
  8
HIDDEN
 10
237.05145836953579
 20
49.015118561301819
 30
0.0
 11
236.8054583695357
 21
49.015118561301897
 31
0.0
  0
LINE
  5
DE5A
  8
HIDDEN
 10
237.01692616800159
 20
49.047213137027498
 30
0.0
 11
237.05145836953591
 21
49.015118561301719
 31
0.0
  0
LINE
  5
DE5B
  8
HIDDEN
 10
237.03668836953611
 20
49.43950194131812
 30
0.0
 11
236.8202283695351
 21
49.43950194131812
 31
0.0
  0
LINE
  5
DE5C
  8
HIDDEN
 10
237.05257636953581
 20
49.455389941318117
 30
0.0
 11
236.80434036953571
 21
49.455389941318117
 31
0.0
  0
LINE
  5
DE5D
  8
HIDDEN
 10
236.76046376787929
 20
49.073084941318129
 30
0.0
 11
237.0960977678792
 21
49.073084941318129
 31
0.0
  0
LINE
  5
DE60
  8
HIDDEN
 10
236.1415897678792
 20
49.29948894131811
 30
0.0
 11
236.13722188225179
 21
49.049252941318109
 31
0.0
  0
LINE
  5
DE61
  8
HIDDEN
 10
236.3292667678792
 20
49.29948894131801
 30
0.0
 11
236.33363465350661
 21
49.049252941318109
 31
0.0
  0
LINE
  5
DE62
  8
HIDDEN
 10
236.3292667678792
 20
49.29948894131801
 30
0.0
 11
236.1415897678792
 21
49.29948894131811
 31
0.0
  0
LINE
  5
DE64
  8
HIDDEN
 10
237.22019368769861
 20
49.439779225151511
 30
0.0
 11
237.21279301516549
 21
49.073084941318129
 31
0.0
  0
LINE
  5
DE65
  8
HIDDEN
 10
237.30260326787919
 20
49.43950194131812
 30
0.0
 11
237.27172946941329
 21
49.047213137027498
 31
0.0
  0
LINE
  5
DE66
  8
HIDDEN
 10
237.41779126787921
 20
49.43950194131812
 30
0.0
 11
237.44866506634509
 21
49.047213137027498
 31
0.0
  0
LINE
  5
DE67
  8
HIDDEN
 10
236.95656026787921
 20
49.29948894131811
 30
0.0
 11
236.95219238225181
 21
49.049252941318109
 31
0.0
  0
LINE
  5
DE68
  8
HIDDEN
 10
237.14423726787919
 20
49.29948894131801
 30
0.0
 11
237.14860515350659
 21
49.049252941318109
 31
0.0
  0
LINE
  5
DE69
  8
HIDDEN
 10
237.44866506634509
 20
49.047213137027498
 30
0.0
 11
237.27172946941329
 21
49.047213137027498
 31
0.0
  0
LINE
  5
DE6A
  8
HIDDEN
 10
237.27172946941329
 20
49.047213137027498
 30
0.0
 11
237.2371972678792
 21
49.015118561301897
 31
0.0
  0
LINE
  5
DE6B
  8
HIDDEN
 10
237.2371972678792
 20
49.015118561301897
 30
0.0
 11
237.2371972678792
 21
48.939029941318132
 31
0.0
  0
LINE
  5
DE6C
  8
HIDDEN
 10
237.0910137569866
 20
49.049252941318109
 30
0.0
 11
237.09059776787919
 21
49.073084941318129
 31
0.0
  0
LINE
  5
DE6D
  8
HIDDEN
 10
237.19196427877179
 20
49.049252941318109
 30
0.0
 11
237.1923802678792
 21
49.073084941318129
 31
0.0
  0
LINE
  5
DE6E
  8
HIDDEN
 10
237.14423726787919
 20
49.29948894131801
 30
0.0
 11
236.95656026787921
 21
49.29948894131811
 31
0.0
  0
ARC
  5
DE6F
  8
HIDDEN
 10
237.23607926787909
 20
49.43950194131812
 30
0.0
 40
0.015888
 50
0.0
 51
180.0
  0
LINE
  5
DE70
  8
HIDDEN
 10
236.27842826787909
 20
49.29948894131811
 30
0.0
 11
236.27624449139071
 21
49.049252941318002
 31
0.0
  0
LINE
  5
DE71
  8
HIDDEN
 10
236.19242826787919
 20
49.29948894131811
 30
0.0
 11
236.1946120443676
 21
49.049252941318002
 31
0.0
  0
LINE
  5
DE72
  8
HIDDEN
 10
237.00739876787921
 20
49.29948894131811
 30
0.0
 11
237.00958254436759
 21
49.049252941318002
 31
0.0
  0
LINE
  5
DE73
  8
HIDDEN
 10
237.09339876787919
 20
49.29948894131811
 30
0.0
 11
237.0912149913907
 21
49.049252941318002
 31
0.0
  0
LINE
  5
DE74
  8
HIDDEN
 10
237.50020084805971
 20
49.439779225151511
 30
0.0
 11
237.50760152059291
 21
49.073084941318129
 31
0.0
  0
LINE
  5
DE75
  8
HIDDEN
 10
237.52843025698661
 20
49.049252941318109
 30
0.0
 11
237.5280142678792
 21
49.073084941318129
 31
0.0
  0
LINE
  5
DE76
  8
HIDDEN
 10
237.4831972678794
 20
49.015118561301819
 30
0.0
 11
237.48319726787929
 21
49.00123802962392
 31
0.0
  0
ARC
  5
DE77
  8
HIDDEN
 10
237.4843152678792
 20
49.43950194131812
 30
0.0
 40
0.015888
 50
359.99999999999909
 51
179.99999999999901
  0
LINE
  5
DE78
  8
HIDDEN
 10
237.6909117678793
 20
49.450501941318009
 30
0.0
 11
237.6909117678793
 21
49.481284941317618
 31
0.0
  0
LINE
  5
DED5
  8
HIDDEN
 10
237.35295584169441
 20
50.099923941318117
 30
0.0
 11
236.38238426787919
 21
50.099923941318117
 31
0.0
  0
POLYLINE
  5
DED6
  8
HIDDEN
 66
     1
 10
0.0
 20
0.0
 30
0.0
  0
VERTEX
  5
15FFB
  8
HIDDEN
 10
230.86220699635339
 20
50.099923941318011
 30
0.0
 42
0.2679491924311397
  0
VERTEX
  5
15FFC
  8
HIDDEN
 10
231.27756923449101
 20
50.339733441318003
 30
0.0
  0
VERTEX
  5
15FFD
  8
HIDDEN
 10
231.346939601385
 20
50.459886441317998
 30
0.0
 42
-0.2679491924311169
  0
VERTEX
  5
15FFE
  8
HIDDEN
 10
231.5885892678792
 20
50.599402941317997
 30
0.0
  0
VERTEX
  5
15FFF
  8
HIDDEN
 10
236.38238426787919
 20
50.599402941318118
 30
0.0
 42
-0.2679491924311211
  0
VERTEX
  5
16000
  8
HIDDEN
 10
236.6240339343733
 20
50.459886441318119
 30
0.0
  0
VERTEX
  5
16001
  8
HIDDEN
 10
236.69340430126729
 20
50.339733441318117
 30
0.0
 42
0.2679491924311442
  0
VERTEX
  5
16002
  8
HIDDEN
 10
237.10876653940511
 20
50.099923941318117
 30
0.0
  0
SEQEND
  5
16003
  8
HIDDEN
  0
LINE
  5
DED7
  8
OBJECT
 10
236.547927188876
 20
50.415946191318127
 30
0.0
 11
236.61729755576999
 21
50.295793191318118
 31
0.0
  0
LINE
  5
DED9
  8
HIDDEN
 10
230.27832576787921
 20
49.512067941318008
 30
0.0
 11
237.69264776787921
 21
49.512067941318008
 31
0.0
  0
LINE
  5
DEDA
  8
OBJECT
 10
237.7413047678792
 20
49.481284941317618
 30
0.0
 11
230.22966876787919
 21
49.481284941318002
 31
0.0
  0
LINE
  5
DEDC
  8
HIDDEN
 10
237.10876653940511
 20
50.200216941318118
 30
0.0
 11
236.38238426787919
 21
50.200216941318118
 31
0.0
  0
ARC
  5
DEDD
  8
OBJECT
 10
236.38238426787919
 20
50.32036994131812
 30
0.0
 40
0.1911524999999902
 50
30.00000000000195
 51
90.000000000001606
  0
ARC
  5
DEDE
  8
HIDDEN
 10
236.38238426787919
 20
50.32036994131812
 30
0.0
 40
0.2229284999999884
 50
30.00000000000195
 51
90.000000000001606
  0
LINE
  5
DEE3
  8
HIDDEN
 10
231.5885892678792
 20
50.099923941318011
 30
0.0
 11
230.61801769406409
 21
50.099923941318011
 31
0.0
  0
ARC
  5
DEE5
  8
OBJECT
 10
230.86220699635339
 20
50.57954294131801
 30
0.0
 40
0.5674995000000109
 50
269.999999999995
 51
329.99999999999858
  0
ARC
  5
DEE6
  8
HIDDEN
 10
230.86220699635339
 20
50.57954294131801
 30
0.0
 40
0.5357235000000121
 50
269.999999999995
 51
329.99999999999858
  0
LINE
  5
DEE7
  8
HIDDEN
 10
230.86220699635319
 20
50.200216941317997
 30
0.0
 11
231.5885892678792
 21
50.200216941317997
 31
0.0
  0
LINE
  5
DEEB
  8
HIDDEN
 10
230.34307894100399
 20
49.828090465942012
 30
0.0
 11
230.33480085809001
 21
49.51196323352481
 31
0.0
  0
ARC
  5
DEEC
  8
HIDDEN
 10
230.62225483784621
 20
49.820681905150209
 30
0.0
 40
0.2792741809595038
 50
90.869324081052184
 51
178.47988429713101
  0
LINE
  5
DEED
  8
OBJECT
 10
230.86220699635319
 20
50.012043441318013
 30
0.0
 11
230.61801769406389
 21
50.012043441318013
 31
0.0
  0
LINE
  5
DEEE
  8
HIDDEN
 10
230.86220699635339
 20
50.043819441318
 30
0.0
 11
230.61801769406389
 21
50.043819441318
 31
0.0
  0
LINE
  5
DEEF
  8
OBJECT
 10
230.85604435958001
 20
50.200216941317997
 30
0.0
 11
230.6284158445041
 21
50.200216941317997
 31
0.0
  0
LINE
  5
DEF0
  8
HIDDEN
 10
230.49628226787931
 20
49.461487941318012
 30
0.0
 11
230.7147702678792
 21
49.461487941318012
 31
0.0
  0
LINE
  5
DEF1
  8
HIDDEN
 10
230.49628226787931
 20
49.461487941318012
 30
0.0
 11
230.4849812304623
 21
50.099923941318011
 31
0.0
  0
LINE
  5
DEF2
  8
HIDDEN
 10
230.5603447678792
 20
49.461487941318012
 30
0.0
 11
230.5657002197438
 21
50.066161941318008
 31
0.0
  0
LINE
  5
DEF3
  8
HIDDEN
 10
230.6507077678792
 20
49.461487941318012
 30
0.0
 11
230.64535231601459
 21
50.066161941318008
 31
0.0
  0
LINE
  5
DEF4
  8
OBJECT
 10
230.41790677234189
 20
49.481284941318002
 30
0.0
 11
230.42693069725161
 21
49.825894730429511
 31
0.0
  0
LINE
  5
DEF5
  8
HIDDEN
 10
230.3869259609915
 20
49.512067941318008
 30
0.0
 11
230.39516558609321
 21
49.826726529138917
 31
0.0
  0
LINE
  5
DEF6
  8
OBJECT
 10
230.22966876787919
 20
49.481284941318002
 30
0.0
 11
230.23854948776369
 21
49.820425951158107
 31
0.0
  0
LINE
  5
DEF7
  8
HIDDEN
 10
230.27832576787921
 20
49.481284941318002
 30
0.0
 11
230.27832576787921
 21
49.512067941318008
 31
0.0
  0
ARC
  5
DEFA
  8
OBJECT
 10
230.61801769406389
 20
49.820890941318012
 30
0.0
 40
0.1911525
 50
89.999999999996732
 51
178.49999999999889
  0
ARC
  5
DEFB
  8
HIDDEN
 10
230.61801769406389
 20
49.820890941318012
 30
0.0
 40
0.222928499999999
 50
89.999999999996732
 51
178.49999999999889
  0
LINE
  5
DEFC
  8
HIDDEN
 10
230.5647002197438
 20
50.066161941318008
 30
0.0
 11
230.6443523160145
 21
50.066161941318008
 31
0.0
  0
LINE
  5
DEFD
  8
HIDDEN
 10
230.9972612678792
 20
49.461487941318012
 30
0.0
 11
231.00261671974391
 21
50.066161941318008
 31
0.0
  0
LINE
  5
DEFE
  8
HIDDEN
 10
231.08762426787919
 20
49.461487941318012
 30
0.0
 11
231.08226881601459
 21
50.066161941318008
 31
0.0
  0
LINE
  5
DEFF
  8
HIDDEN
 10
231.1516867678792
 20
49.461487941318012
 30
0.0
 11
231.1629878052961
 21
50.099923941318011
 31
0.0
  0
LINE
  5
DF00
  8
HIDDEN
 10
230.93319876787919
 20
49.461487941318012
 30
0.0
 11
230.92189773046221
 21
50.099923941318011
 31
0.0
  0
LINE
  5
DF01
  8
HIDDEN
 10
230.7147702678792
 20
49.461487941318012
 30
0.0
 11
230.7260713052961
 21
50.099923941318011
 31
0.0
  0
LINE
  5
DF02
  8
HIDDEN
 10
230.93319876787919
 20
49.461487941318012
 30
0.0
 11
231.1516867678792
 21
49.461487941318012
 31
0.0
  0
LINE
  5
DF04
  8
HIDDEN
 10
231.00261671974391
 20
50.066161941318008
 30
0.0
 11
231.08226881601459
 21
50.066161941318008
 31
0.0
  0
LINE
  5
DF06
  8
OBJECT
 10
231.25700199717659
 20
50.504695941318012
 30
0.0
 11
231.19379426705581
 21
50.395216941317912
 31
0.0
  0
LINE
  5
DF07
  8
OBJECT
 10
236.37622163110589
 20
50.699695941318012
 30
0.0
 11
231.5947519046525
 21
50.699695941318012
 31
0.0
  0
LINE
  5
DF08
  8
OBJECT
 10
236.38238426787919
 20
50.511522441318007
 30
0.0
 11
231.5885892678792
 21
50.511522441318007
 31
0.0
  0
LINE
  5
DF09
  8
HIDDEN
 10
236.25371626787921
 20
50.689765941318008
 30
0.0
 11
231.71725726787921
 21
50.689765941318008
 31
0.0
  0
LINE
  5
DF0A
  8
HIDDEN
 10
236.38238426787919
 20
50.543298441318008
 30
0.0
 11
231.5885892678792
 21
50.543298441318008
 31
0.0
  0
LINE
  5
DF0C
  8
HIDDEN
 10
231.71725726787921
 20
50.699695941318012
 30
0.0
 11
231.71725726787921
 21
50.689765941318008
 31
0.0
  0
LINE
  5
DF0D
  8
HIDDEN
 10
231.74804026787919
 20
50.699695941318012
 30
0.0
 11
231.74804026787919
 21
50.689765941318008
 31
0.0
  0
LINE
  5
DF0E
  8
HIDDEN
 10
231.5885892678792
 20
50.200216941317997
 30
0.0
 11
231.5885892678792
 21
49.481284941318002
 31
0.0
  0
LINE
  5
DF0F
  8
HIDDEN
 10
231.39552752365159
 20
50.431834191318003
 30
0.0
 11
231.3261571567576
 21
50.311681191318002
 31
0.0
  0
LINE
  5
DF10
  8
OBJECT
 10
231.4230463468823
 20
50.415946191318007
 30
0.0
 11
231.3536759799884
 21
50.295793191318012
 31
0.0
  0
ARC
  5
DF11
  8
OBJECT
 10
231.5885892678792
 20
50.320369941317999
 30
0.0
 40
0.1911524999999902
 50
90.0
 51
149.99999999999861
  0
ARC
  5
DF12
  8
HIDDEN
 10
231.5885892678792
 20
50.320369941317999
 30
0.0
 40
0.2229284999999884
 50
90.0
 51
149.99999999999861
  0
LINE
  5
DF13
  8
HIDDEN
 10
236.2229332678792
 20
50.699695941318119
 30
0.0
 11
236.2229332678792
 21
50.689765941318129
 31
0.0
  0
LINE
  5
DF14
  8
HIDDEN
 10
236.25371626787921
 20
50.699695941318119
 30
0.0
 11
236.25371626787921
 21
50.689765941318129
 31
0.0
  0
LINE
  5
DF16
  8
HIDDEN
 10
236.38238426787919
 20
50.200216941317997
 30
0.0
 11
236.38238426787919
 21
49.481284941318002
 31
0.0
  0
LINE
  5
DF19
  8
HIDDEN
 10
237.6361726776683
 20
49.51196323352481
 30
0.0
 11
237.62789459475431
 21
49.828090465942118
 31
0.0
  0
ARC
  5
DF1A
  8
HIDDEN
 10
237.34871869791229
 20
49.820681905150309
 30
0.0
 40
0.2792741809595294
 50
1.5201157028747321
 51
89.130675918953614
  0
LINE
  5
DF1C
  8
HIDDEN
 10
237.32026576787919
 20
49.461487941318119
 30
0.0
 11
237.32562121974391
 21
50.066161941318128
 31
0.0
  0
LINE
  5
DF1D
  8
HIDDEN
 10
237.4106287678791
 20
49.461487941318119
 30
0.0
 11
237.40527331601459
 21
50.066161941318128
 31
0.0
  0
LINE
  5
DF1E
  8
HIDDEN
 10
236.8833492678792
 20
49.461487941318119
 30
0.0
 11
236.88870471974371
 21
50.066161941318128
 31
0.0
  0
LINE
  5
DF1F
  8
HIDDEN
 10
236.97371226787919
 20
49.461487941318119
 30
0.0
 11
236.96835681601459
 21
50.066161941318128
 31
0.0
  0
LINE
  5
DF20
  8
HIDDEN
 10
237.47469126787919
 20
49.461487941318119
 30
0.0
 11
237.48599230529609
 21
50.099923941318117
 31
0.0
  0
LINE
  5
DF21
  8
HIDDEN
 10
237.2562032678791
 20
49.461487941318119
 30
0.0
 11
237.24490223046229
 21
50.099923941318117
 31
0.0
  0
LINE
  5
DF22
  8
HIDDEN
 10
236.81928676787919
 20
49.461487941318119
 30
0.0
 11
236.80798573046229
 21
50.099923941318117
 31
0.0
  0
LINE
  5
DF23
  8
HIDDEN
 10
237.0377747678792
 20
49.461487941318119
 30
0.0
 11
237.04907580529601
 21
50.099923941318117
 31
0.0
  0
LINE
  5
DF24
  8
HIDDEN
 10
237.5840475747668
 20
49.512067941318122
 30
0.0
 11
237.57580794966509
 21
49.826726529139009
 31
0.0
  0
LINE
  5
DF25
  8
OBJECT
 10
237.5530667634165
 20
49.481284941318123
 30
0.0
 11
237.54404283850681
 21
49.825894730429511
 31
0.0
  0
LINE
  5
DF26
  8
OBJECT
 10
237.7413047678792
 20
49.481284941318123
 30
0.0
 11
237.7324240479947
 21
49.820425951158107
 31
0.0
  0
LINE
  5
DF27
  8
HIDDEN
 10
237.69264776787921
 20
49.481284941318123
 30
0.0
 11
237.69264776787921
 21
49.512067941318122
 31
0.0
  0
LINE
  5
DF28
  8
HIDDEN
 10
237.0377747678792
 20
49.461487941318119
 30
0.0
 11
236.81928676787919
 21
49.461487941318119
 31
0.0
  0
LINE
  5
DF29
  8
HIDDEN
 10
237.47469126787919
 20
49.461487941318119
 30
0.0
 11
237.2562032678791
 21
49.461487941318119
 31
0.0
  0
ARC
  5
DF2B
  8
HIDDEN
 10
237.10876653940491
 20
50.579542941318117
 30
0.0
 40
0.5357235000000121
 50
210.0000000000019
 51
270.00000000000648
  0
ARC
  5
DF2C
  8
OBJECT
 10
237.10876653940491
 20
50.579542941318117
 30
0.0
 40
0.5674995000000109
 50
210.0000000000019
 51
270.00000000000648
  0
LINE
  5
DF2D
  8
HIDDEN
 10
236.5754460121068
 20
50.43183419131811
 30
0.0
 11
236.6448163790007
 21
50.311681191318122
 31
0.0
  0
LINE
  5
DF2F
  8
OBJECT
 10
237.11492917617829
 20
50.200216941318118
 30
0.0
 11
237.34255769125409
 21
50.200216941318118
 31
0.0
  0
LINE
  5
DF30
  8
HIDDEN
 10
237.10876653940511
 20
50.043819441318121
 30
0.0
 11
237.35295584169441
 21
50.043819441318121
 31
0.0
  0
LINE
  5
DF31
  8
OBJECT
 10
237.10876653940511
 20
50.012043441318127
 30
0.0
 11
237.35295584169441
 21
50.012043441318127
 31
0.0
  0
LINE
  5
DF33
  8
HIDDEN
 10
236.96835681601459
 20
50.066161941318128
 30
0.0
 11
236.88870471974371
 21
50.066161941318128
 31
0.0
  0
LINE
  5
DF34
  8
HIDDEN
 10
237.40627331601451
 20
50.066161941318128
 30
0.0
 11
237.3266212197438
 21
50.066161941318128
 31
0.0
  0
ARC
  5
DF37
  8
HIDDEN
 10
237.35295584169441
 20
49.820890941318119
 30
0.0
 40
0.222928499999999
 50
1.5000000000019229
 51
90.000000000003226
  0
ARC
  5
DF38
  8
OBJECT
 10
237.35295584169441
 20
49.820890941318119
 30
0.0
 40
0.1911525
 50
1.5000000000019229
 51
90.000000000003226
  0
LINE
  5
DF39
  8
OBJECT
 10
236.7139715385818
 20
50.504695941318012
 30
0.0
 11
236.7771792687023
 21
50.395216941318132
 31
0.0
  0
LINE
  5
DFF6
  8
HIDDEN
 10
237.6909117678793
 20
49.481284941318002
 30
0.0
 11
237.6909117678793
 21
49.512067941318008
 31
0.0
  0
LINE
  5
DFF8
  8
HIDDEN
 10
230.2800617678792
 20
49.481284941318002
 30
0.0
 11
230.2800617678792
 21
49.512067941318008
 31
0.0
  0
LINE
  5
E008
  8
CENTER
 10
237.8415263695357
 20
56.750932621043177
 30
0.0
 11
230.1293903695356
 21
56.750932621043177
 31
0.0
  0
LINE
  5
E00B
  8
CENTER
 10
233.98545836953559
 20
50.799695937285719
 30
0.0
 11
233.9860151662229
 21
48.839029945350397
 31
0.0
  0
LINE
  5
E00C
  8
CENTER
 10
231.6174788695356
 20
55.683422621043178
 30
0.0
 11
236.3534378695357
 21
55.683422621043178
 31
0.0
  0
DIMENSION
  5
E39C
  8
DIM
  2
*D1
 10
242.41355890313139
 20
57.821797459447872
 30
0.0
 11
244.44973240313141
 21
57.821797459447872
 31
0.0
 70
   128
  1
<>\P(6 PLCS.)
 13
242.6637949031315
 23
57.474139006670477
 33
0.0
 14
242.41355890313139
 24
57.469771121043081
 34
0.0
  0
DIMENSION
  5
E3BE
  8
DIM
  2
*D2
 10
245.3480747995377
 20
54.246055121043177
 30
0.0
 11
245.3480747995377
 21
56.750932621043177
 31
0.0
 70
     0
 13
242.2625459031315
 23
59.255810121043083
 33
0.0
 14
242.58584440313149
 24
54.246055121043177
 34
0.0
 50
90.0
  0
DIMENSION
  5
F149
  8
DIM
  2
*D3
 10
241.20152540313171
 20
54.434228621043019
 30
0.0
 11
239.3063863703785
 21
53.855149082709517
 31
0.0
 70
   132
  1
<>\P(TYP.)
 15
241.04825481810491
 25
54.325061804345637
 35
0.0
 40
0.0
  0
DIMENSION
  5
F162
  8
DIM
  2
*D4
 10
242.27354590313089
 20
58.755166562999548
 30
0.0
 11
244.0901334368954
 21
59.84046776408767
 31
0.0
 70
   132
 15
242.55404464944019
 25
59.169645363547112
 35
0.0
 40
0.0
  0
DIMENSION
  5
F174
  8
DIM
  2
*D5
 10
237.02682826704611
 20
57.33994971662473
 30
0.0
 11
239.50021596853449
 21
58.875367856928769
 31
0.0
 70
   131
  1
<> I.D.\P%%c0.188 O.D.\P(6 PLCS.)
 15
237.07391247202511
 25
57.411915525461382
 35
0.0
 40
0.0
  0
DIMENSION
  5
F193
  8
DIM
  2
*D6
 10
238.5384897036561
 20
54.540462121043177
 30
0.0
 11
238.5384897036561
 21
55.683422621043213
 31
0.0
 70
     0
 13
236.11243186953561
 23
56.826383121043179
 33
0.0
 14
236.11243186953561
 24
54.540462121043177
 34
0.0
 50
90.0
  0
DIMENSION
  5
F1A1
  8
DIM
  2
*D7
 10
227.2519385856603
 20
56.750932621043177
 30
0.0
 11
227.2519385856603
 21
56.103084158517909
 31
0.0
 70
   128
  1
<>\P(2 PLCS.)
 13
230.9205463695356
 23
55.001266621043087
 33
0.0
 14
230.1293903695356
 24
56.750932621043177
 34
0.0
 50
90.0
  0
DIMENSION
  5
F1AF
  8
DIM
  2
*D8
 10
229.30992361045409
 20
55.683422621043178
 30
0.0
 11
229.30992361045409
 21
56.217177621043213
 31
0.0
 70
   128
 13
230.1293903695356
 23
56.750932621043177
 33
0.0
 14
231.6174788695356
 24
55.683422621043178
 34
0.0
 50
90.0
  0
DIMENSION
  5
F1C7
  8
DIM
  2
*D9
 10
228.27157332576621
 20
57.375932621043091
 30
0.0
 11
229.65251082576609
 21
59.315715174850581
 31
0.0
 70
   128
  1
<>\P(2 PLCS.)
 13
230.1293903695356
 23
56.750932621043177
 33
0.0
 14
230.9205463695356
 24
57.375932621043091
 34
0.0
 50
90.0
  0
DIMENSION
  5
F209
  8
DIM
  2
*D10
 10
224.1581222924363
 20
58.630716621043092
 30
0.0
 11
224.1581222924363
 21
57.997399829442692
 31
0.0
 70
   128
  1
<>\P(2 PLCS.)
 13
230.1293903695356
 23
56.750932621043177
 33
0.0
 14
231.73551686953559
 24
58.630716621043092
 34
0.0
 50
90.0
  0
DIMENSION
  5
F221
  8
DIM
  2
*D11
 10
236.25343786953559
 20
53.7395214356266
 30
0.0
 11
233.98545836953559
 21
53.7395214356266
 31
0.0
 70
     0
 13
231.7174788695356
 23
54.681468121043281
 33
0.0
 14
236.25343786953559
 24
54.681468121043281
 34
0.0
  0
DIMENSION
  5
F22F
  8
DIM
  2
*D12
 10
237.05037036953561
 20
53.213740144691727
 30
0.0
 11
233.98545836953559
 21
53.213740144691727
 31
0.0
 70
     0
  1
<> (2 PLCS.)
 13
230.9205463695356
 23
55.001266621043087
 33
0.0
 14
237.05037036953561
 24
55.001266621043087
 34
0.0
  0
DIMENSION
  5
F247
  8
DIM
  2
*D13
 10
231.73551686953559
 20
59.788662851739588
 30
0.0
 11
233.98545836953559
 21
59.788662851739588
 31
0.0
 70
     0
 13
236.23539986953571
 23
58.630716621043092
 33
0.0
 14
231.73551686953559
 24
58.630716621043092
 34
0.0
  0
DIMENSION
  5
F256
  8
DIM
  2
*D14
 10
236.11243186953519
 20
54.681468121043082
 30
0.0
 11
238.96238538282049
 21
52.890722933812313
 31
0.0
 70
   132
  1
<>\P(4 PLCS.)
 15
236.20186291568771
 25
54.572450782880523
 35
0.0
 40
0.0
  0
DIMENSION
  5
F2EA
  8
DIM
  2
*D15
 10
238.61962282395021
 20
50.200216941318118
 30
0.0
 11
238.61962282395021
 21
49.569623441318157
 31
0.0
 70
     0
 13
237.30491120983581
 23
48.939029941318132
 33
0.0
 14
237.35295584169441
 24
50.200216941318118
 34
0.0
 50
90.0
  0
DIMENSION
  5
F2F8
  8
DIM
  2
*D16
 10
239.7991750691192
 20
50.699695941318012
 30
0.0
 11
239.7991750691192
 21
49.819362941318097
 31
0.0
 70
   128
 13
237.30491120983581
 23
48.939029941318132
 33
0.0
 14
236.38238426787919
 24
50.699695941318012
 34
0.0
 50
90.0
  0
DIMENSION
  5
F312
  8
DIM
  2
*D17
 10
230.73006232592269
 20
49.439501941318269
 30
0.0
 11
228.410982737502
 21
47.644707617689797
 31
0.0
 70
   132
  1
<>\P(2 PLCS.)
 15
230.49822546499411
 25
48.99596626890974
 35
0.0
 40
0.0
  0
ARC
  5
F327
  8
OBJECT
 10
230.6284158445041
 20
49.810216941318011
 30
0.0
 40
0.39
 50
90.0
 51
178.5000000000025
  0
ARC
  5
F328
  8
OBJECT
 10
237.3425576912542
 20
49.81021694131811
 30
0.0
 40
0.39
 50
1.4999999999971581
 51
90.000000000006665
  0
DIMENSION
  5
F329
  8
DIM
  2
*D18
 10
230.62841584450399
 20
49.810216941317918
 30
0.0
 11
228.65485602431119
 21
51.665540022373591
 31
0.0
 70
   132
  1
<>\P(4 PLCS.)
 15
230.5097496914932
 25
50.18172514328608
 35
0.0
 40
0.0
  0
ARC
  5
F33D
  8
OBJECT
 10
236.37622163110589
 20
50.309695941318012
 30
0.0
 40
0.39
 50
30.00000000000464
 51
89.999999999999687
  0
ARC
  5
F33E
  8
OBJECT
 10
231.5947519046525
 20
50.309695941318012
 30
0.0
 40
0.39
 50
89.999999999999815
 51
149.99999999999531
  0
ARC
  5
F348
  8
OBJECT
 10
237.11492917617829
 20
50.590216941318118
 30
0.0
 40
0.39
 50
210.00000000000139
 51
270.0
  0
ARC
  5
F359
  8
OBJECT
 10
230.85604435958001
 20
50.590216941317998
 30
0.0
 40
0.39
 50
270.0
 51
329.99999999999261
  0
DIMENSION
  5
F364
  8
DIM
  2
*D19
 10
230.22941876787931
 20
48.169061827575987
 30
0.0
 11
233.92254362474671
 21
48.169061827575987
 31
0.0
 70
   128
 13
237.74155476787919
 23
49.450501941318009
 33
0.0
 14
230.22941876787931
 24
49.450501941318009
 34
0.0
  0
DIMENSION
  5
F372
  8
DIM
  2
*D20
 10
236.60138823608989
 20
51.459096122088049
 30
0.0
 11
233.98548676787919
 21
51.459096122088049
 31
0.0
 70
     0
  1
<>**
 13
231.36958529966861
 23
50.699695941318012
 33
0.0
 14
236.60138823608989
 24
50.699695941318012
 34
0.0
  0
DIMENSION
  5
F880
  8
DIM
  2
*D21
 10
228.66972913786441
 20
49.049252941318109
 30
0.0
 11
228.66972913786441
 21
49.574588441318099
 31
0.0
 70
   128
  1
<>\P(INSIDE DEPTH)
 13
230.61801769406409
 23
50.099923941318011
 33
0.0
 14
230.72896561085739
 24
49.049252941318109
 34
0.0
 50
90.0
  0
DIMENSION
  5
FB32
  8
DIM
  2
*D22
 10
231.04245836953561
 20
60.388056139144012
 30
0.0
 11
234.00780000738541
 21
60.388056139144012
 31
0.0
 70
   128
 13
236.9284583695356
 23
58.503598621043082
 33
0.0
 14
231.04245836953561
 24
58.503598621043082
 34
0.0
  0
DIMENSION
  5
FB54
  8
DIM
  2
*D23
 10
237.3656688695356
 20
52.615823429947021
 30
0.0
 11
233.98545836953559
 21
52.615823429947021
 31
0.0
 70
     0
 13
230.60524786953559
 23
54.74303062104309
 33
0.0
 14
237.3656688695356
 24
54.748030621043078
 34
0.0
  0
LINE
  5
1137B
  8
CENTER
 10
232.89074656835001
 20
43.835827613981373
 30
0.0
 11
235.0802268833105
 21
43.835827613981373
 31
0.0
  0
LINE
  5
1137C
  8
CENTER
 10
238.0674815788924
 20
43.679950113981377
 30
0.0
 11
229.9094209676808
 21
43.679950113981377
 31
0.0
  0
DIMENSION
  5
1137E
  8
DIM
  2
*D24
 10
235.0014867258302
 20
40.588884695199042
 30
0.0
 11
233.9573850840074
 21
40.588884695199042
 31
0.0
 70
   128
 13
232.96948672583031
 23
42.319327613981372
 33
0.0
 14
235.0014867258302
 24
42.319327613981372
 34
0.0
  0
DIMENSION
  5
1137F
  8
DIM
  2
*D25
 10
236.8819239469353
 20
40.080024422847657
 30
0.0
 11
233.91537665121621
 21
40.080024422847657
 31
0.0
 70
   128
 13
231.0890495047251
 23
43.48683211398145
 33
0.0
 14
236.8819239469353
 24
43.549832113981452
 34
0.0
  0
LINE
  5
11380
  8
OBJECT
 10
236.38263422583029
 20
41.175072613981371
 30
0.0
 11
231.58833922583031
 21
41.175072613981371
 31
0.0
  0
LINE
  5
11381
  8
OBJECT
 10
230.41748317038571
 20
46.184827613981383
 30
0.0
 11
237.553490281282
 21
46.184827613981383
 31
0.0
  0
LINE
  5
11382
  8
OBJECT
 10
235.00148676224441
 20
45.352327604425859
 30
0.0
 11
232.96948668941599
 21
45.352327604425859
 31
0.0
  0
LINE
  5
11383
  8
OBJECT
 10
232.96948668941599
 20
42.319327655233451
 30
0.0
 11
235.00148676224441
 21
42.319327655233451
 31
0.0
  0
LINE
  5
11384
  8
OBJECT
 10
236.59792394693531
 20
45.668827613981449
 30
0.0
 11
231.37304950472509
 21
45.668827613981449
 31
0.0
  0
LINE
  5
11385
  8
OBJECT
 10
231.71092328533629
 20
42.065703392876252
 30
0.0
 11
236.26005016632431
 21
42.065703392876252
 31
0.0
  0
LINE
  5
11386
  8
OBJECT
 10
236.59792394693531
 20
45.699827613981363
 30
0.0
 11
231.37304950472509
 21
45.699827613981363
 31
0.0
  0
LINE
  5
11387
  8
OBJECT
 10
231.71092328533629
 20
42.034703392876253
 30
0.0
 11
236.26005016632431
 21
42.034703392876253
 31
0.0
  0
LINE
  5
114BC
  8
CENTER
 10
233.98548672583021
 20
46.506866015339753
 30
0.0
 11
233.98548672583021
 21
40.849446466980758
 31
0.0
  0
ARC
  5
114BD
  8
OBJECT
 10
231.58833922583031
 20
41.983218613904668
 30
0.0
 40
0.808145999923308
 50
234.10101801169381
 51
270.0
  0
DIMENSION
  5
114BE
  8
DIM
  2
*D26
 10
229.83186922234219
 20
43.679950113981377
 30
0.0
 11
228.8552285973422
 21
42.86995011398141
 31
0.0
 70
     0
 13
232.89074656835001
 23
43.835827613981373
 33
0.0
 14
229.9094209676808
 24
43.679950113981377
 34
0.0
 50
270.0
  0
DIMENSION
  5
114BF
  8
DIM
  2
*D27
 10
228.16659819629541
 20
42.319327655233451
 30
0.0
 11
228.16659819629541
 21
43.835827629829687
 31
0.0
 70
     0
 13
232.96948668941599
 23
45.352327604425859
 33
0.0
 14
232.96948668941599
 24
42.319327655233451
 34
0.0
 50
270.0
  0
ARC
  5
114C1
  8
OBJECT
 10
232.12866656584939
 20
42.729679480805473
 30
0.0
 40
0.8390126221026106
 50
209.7797005784125
 51
224.53214203598961
  0
ARC
  5
114C2
  8
OBJECT
 10
232.12866656584939
 20
42.729679480805473
 30
0.0
 40
0.8700126221026099
 50
209.7797005784125
 51
224.53214203598961
  0
LINE
  5
114C3
  8
OBJECT
 10
230.2294187258303
 20
43.549832113981452
 30
0.0
 11
230.22941878291431
 21
45.99682761244015
 31
0.0
  0
LINE
  5
114C4
  8
OBJECT
 10
231.12004950472519
 20
45.415827613981378
 30
0.0
 11
231.12004950472519
 21
43.549832113981452
 31
0.0
  0
LINE
  5
114C5
  8
OBJECT
 10
231.0890495047251
 20
45.415827613981378
 30
0.0
 11
231.0890495047251
 21
43.549832113981452
 31
0.0
  0
CIRCLE
  5
114C6
  8
OBJECT
 10
230.6054866487774
 20
45.682827610962669
 30
0.0
 40
0.1170000262402511
  0
ARC
  5
114C7
  8
OBJECT
 10
230.41745078785311
 20
45.996795609107451
 30
0.0
 40
0.1880320076623716
 50
89.990132624363781
 51
179.99024817144689
  0
CIRCLE
  5
114CA
  8
OBJECT
 10
230.60548672583019
 20
45.682827613981367
 30
0.0
 40
0.0579999999999998
  0
CIRCLE
  5
114CB
  8
OBJECT
 10
230.60548672583019
 20
45.682827613981367
 30
0.0
 40
0.0785438494789492
  0
ARC
  5
114CC
  8
OBJECT
 10
231.37304950472509
 20
45.415827613981378
 30
0.0
 40
0.2530000000000019
 50
89.999999999999986
 51
180.0
  0
ARC
  5
114CD
  8
OBJECT
 10
231.37304950472509
 20
45.415827613981378
 30
0.0
 40
0.2840000000000025
 50
89.999999999999986
 51
180.0
  0
ARC
  5
114CE
  8
OBJECT
 10
234.3658119492967
 20
43.549832113981452
 30
0.0
 40
4.1363932234664631
 50
180.0
 51
193.33458883748861
  0
ARC
  5
114CF
  8
OBJECT
 10
234.3658119492967
 20
43.549832113981452
 30
0.0
 40
3.2457624445715481
 50
180.0
 51
193.33458883748861
  0
ARC
  5
114D0
  8
OBJECT
 10
234.3658119492967
 20
43.549832113981452
 30
0.0
 40
3.2767624445715482
 50
180.0
 51
193.33458883748861
  0
ARC
  5
114D1
  8
OBJECT
 10
232.12866656584939
 20
42.729679480805473
 30
0.0
 40
1.729643400997523
 50
209.7797005784125
 51
234.10101801169699
  0
ARC
  5
114D2
  8
OBJECT
 10
232.99346720494529
 20
43.224548673614457
 30
0.0
 40
2.7260246851312031
 50
193.33458883748861
 51
209.7797005784125
  0
ARC
  5
114D3
  8
OBJECT
 10
232.99346720494529
 20
43.224548673614457
 30
0.0
 40
1.8353939062362901
 50
193.3345888374885
 51
209.7797005784125
  0
ARC
  5
114D4
  8
OBJECT
 10
232.99346720494529
 20
43.224548673614457
 30
0.0
 40
1.8663939062362891
 50
193.3345888374885
 51
209.7797005784125
  0
CIRCLE
  5
114D5
  8
OBJECT
 10
231.0424867258302
 20
41.926827613981366
 30
0.0
 40
0.0579999999999998
  0
CIRCLE
  5
114D6
  8
OBJECT
 10
231.0424867258302
 20
41.926827613981366
 30
0.0
 40
0.078543849478951
  0
CIRCLE
  5
114D7
  8
OBJECT
 10
231.0424868674055
 20
41.92682745437174
 30
0.0
 40
0.1170000445396875
  0
LINE
  5
114D9
  8
OBJECT
 10
232.96948668941599
 20
45.352327604425859
 30
0.0
 11
232.96948668941599
 21
42.319327655233451
 31
0.0
  0
ARC
  5
1152B
  8
OBJECT
 10
231.71092328533629
 20
42.318703392876373
 30
0.0
 40
0.2529999999999969
 50
224.53214203598961
 51
270.0
  0
ARC
  5
1152C
  8
OBJECT
 10
231.71092328533629
 20
42.318703392876373
 30
0.0
 40
0.2839999999999989
 50
224.53214203598961
 51
270.0
  0
ARC
  5
11DB9
  8
OBJECT
 10
236.38263422583029
 20
41.983218613904668
 30
0.0
 40
0.8081459999233152
 50
270.0
 51
305.89898198830599
  0
DIMENSION
  5
11DBB
  8
DIM
  2
*D28
 10
238.5694383728042
 20
42.034703392876253
 30
0.0
 11
238.5694383728042
 21
42.87273921132973
 31
0.0
 70
   128
 13
238.0674815788924
 23
43.679950113981377
 33
0.0
 14
236.26005016632431
 24
42.034703392876253
 34
0.0
 50
270.0
  0
DIMENSION
  5
11DBC
  8
DIM
  2
*D29
 10
238.5694383728042
 20
43.679950113981377
 30
0.0
 11
238.5694383728042
 21
44.689888863981409
 31
0.0
 70
     0
 13
236.59792394693531
 23
45.699827613981363
 33
0.0
 14
238.0674815788924
 24
43.679950113981377
 34
0.0
 50
270.0
  0
ARC
  5
11DBD
  8
OBJECT
 10
235.8423068858109
 20
42.729679480805473
 30
0.0
 40
1.729643400997531
 50
305.89898198830281
 51
330.2202994215873
  0
CIRCLE
  5
11DBE
  8
OBJECT
 10
236.9284867258302
 20
41.926827613981366
 30
0.0
 40
0.0579999999999998
  0
CIRCLE
  5
11DBF
  8
OBJECT
 10
236.9284867258302
 20
41.926827613981366
 30
0.0
 40
0.078543849478951
  0
CIRCLE
  5
11DC0
  8
OBJECT
 10
236.9284866896725
 20
41.926827627442258
 30
0.0
 40
0.1169999245415719
  0
LINE
  5
11DC1
  8
OBJECT
 10
235.00148676224441
 20
42.319327655233451
 30
0.0
 11
235.00148676224441
 21
45.352327604425859
 31
0.0
  0
LINE
  5
11DC2
  8
OBJECT
 10
236.85092394693541
 20
43.549832113981452
 30
0.0
 11
236.85092394693541
 21
45.415827613981378
 31
0.0
  0
LINE
  5
11DC3
  8
OBJECT
 10
236.8819239469353
 20
43.549832113981452
 30
0.0
 11
236.8819239469353
 21
45.415827613981378
 31
0.0
  0
ARC
  5
11DC4
  8
OBJECT
 10
236.59792394693531
 20
45.415827613981378
 30
0.0
 40
0.2530000000000019
 50
0.0
 51
89.999999999999986
  0
ARC
  5
11DC5
  8
OBJECT
 10
236.59792394693531
 20
45.415827613981378
 30
0.0
 40
0.2840000000000025
 50
0.0
 51
89.999999999999986
  0
ARC
  5
11DC6
  8
OBJECT
 10
233.60516150236381
 20
43.549832113981452
 30
0.0
 40
3.2457624445715489
 50
346.6654111625113
 51
0.0
  0
ARC
  5
11DC7
  8
OBJECT
 10
233.60516150236381
 20
43.549832113981452
 30
0.0
 40
3.2767624445715482
 50
346.6654111625113
 51
0.0
  0
ARC
  5
11E15
  8
OBJECT
 10
236.26005016632431
 20
42.318703392876373
 30
0.0
 40
0.2530000000000001
 50
270.0
 51
315.46785796401008
  0
ARC
  5
11E16
  8
OBJECT
 10
236.26005016632431
 20
42.318703392876373
 30
0.0
 40
0.2840000000000025
 50
270.0
 51
315.4678579640107
  0
ARC
  5
11E17
  8
OBJECT
 10
234.97750624671519
 20
43.224548673614457
 30
0.0
 40
1.835393906236289
 50
330.2202994215873
 51
346.6654111625113
  0
ARC
  5
11E18
  8
OBJECT
 10
234.97750624671519
 20
43.224548673614457
 30
0.0
 40
1.866393906236286
 50
330.2202994215873
 51
346.6654111625113
  0
ARC
  5
11E19
  8
OBJECT
 10
235.84230688581101
 20
42.729679480805473
 30
0.0
 40
0.8700126221026081
 50
315.46785796401008
 51
330.2202994215873
  0
ARC
  5
11E1A
  8
OBJECT
 10
235.84230688581101
 20
42.729679480805473
 30
0.0
 40
0.839012622102607
 50
315.46785796401008
 51
330.2202994215873
  0
LINE
  5
11E1B
  8
OBJECT
 10
237.7415546687462
 20
45.99682761244015
 30
0.0
 11
237.7415547258303
 21
43.549832113981452
 31
0.0
  0
ARC
  5
11E1C
  8
OBJECT
 10
237.55352266380731
 20
45.99679560910738
 30
0.0
 40
0.1880320076624503
 50
0.0097518285756581
 51
90.00986737342069
  0
CIRCLE
  5
11E1D
  8
OBJECT
 10
237.36548650952301
 20
45.682827623491569
 30
0.0
 40
0.1170000387690525
  0
CIRCLE
  5
11E20
  8
OBJECT
 10
237.36548672583021
 20
45.682827613981367
 30
0.0
 40
0.0785438494789492
  0
CIRCLE
  5
11E21
  8
OBJECT
 10
237.36548672583021
 20
45.682827613981367
 30
0.0
 40
0.0579999999999998
  0
ARC
  5
11E22
  8
OBJECT
 10
233.60516150236381
 20
43.549832113981452
 30
0.0
 40
4.1363932234664649
 50
346.6654111625113
 51
0.0
  0
ARC
  5
11E23
  8
OBJECT
 10
234.97750624671519
 20
43.224548673614457
 30
0.0
 40
2.7260246851312031
 50
330.2202994215873
 51
346.6654111625113
  0
LINE
  5
132A1
  8
HIDDEN
 10
230.27807572583029
 20
43.549832113981367
 30
0.0
 11
230.27807572583029
 21
46.031409113981383
 31
0.0
  0
LINE
  5
132A2
  8
HIDDEN
 10
230.28006172583019
 20
43.549832113981367
 30
0.0
 11
230.28006172583019
 21
46.02998866454007
 31
0.0
  0
POLYLINE
  5
132A3
  8
HIDDEN
 66
     1
 10
0.0
 20
0.0
 30
0.0
  0
VERTEX
  5
16004
  8
HIDDEN
 10
231.5883392258302
 20
41.223729613981369
 30
0.0
 42
-0.1579326405096657
  0
VERTEX
  5
16005
  8
HIDDEN
 10
231.14300680207731
 20
41.367992985895853
 30
0.0
 42
-0.1065219447776559
  0
VERTEX
  5
16006
  8
HIDDEN
 10
230.66966875342271
 20
41.894789869136567
 30
0.0
 42
-0.0718787425685409
  0
VERTEX
  5
16007
  8
HIDDEN
 10
230.38828184273979
 20
42.607048106865463
 30
0.0
 42
-0.0582488642255951
  0
VERTEX
  5
16008
  8
HIDDEN
 10
230.27807572583029
 20
43.549832113981367
 30
0.0
 42
-0.0582488642255951
  0
SEQEND
  5
16009
  8
HIDDEN
  0
POLYLINE
  5
132A4
  8
OBJECT
 66
     1
 10
0.0
 20
0.0
 30
0.0
  0
VERTEX
  5
1600A
  8
OBJECT
 10
231.5883392258302
 20
41.175072613981371
 30
0.0
 42
-0.1579326405096693
  0
VERTEX
  5
1600B
  8
OBJECT
 10
231.11447638261791
 20
41.32857828287176
 30
0.0
 42
-0.1065219447776537
  0
VERTEX
  5
1600C
  8
OBJECT
 10
230.6274373251868
 20
41.870623567844163
 30
0.0
 42
-0.0718787425685434
  0
VERTEX
  5
1600D
  8
OBJECT
 10
230.3409366443673
 20
42.595825992979869
 30
0.0
 42
-0.0582488642255929
  0
VERTEX
  5
1600E
  8
OBJECT
 10
230.2294187258303
 20
43.549832113981367
 30
0.0
 42
-0.0582488642255922
  0
SEQEND
  5
1600F
  8
OBJECT
  0
POLYLINE
  5
132A5
  8
HIDDEN
 66
     1
 10
0.0
 20
0.0
 30
0.0
  0
VERTEX
  5
16010
  8
HIDDEN
 10
231.5883392258302
 20
41.225715613981379
 30
0.0
 42
-0.1579326405096665
  0
VERTEX
  5
16011
  8
HIDDEN
 10
231.14417130899389
 20
41.369601749284563
 30
0.0
 42
-0.1065219447776553
  0
VERTEX
  5
16012
  8
HIDDEN
 10
230.67139248518751
 20
41.895776248781161
 30
0.0
 42
-0.0718787425685412
  0
VERTEX
  5
16013
  8
HIDDEN
 10
230.39021429981619
 20
42.60750615233016
 30
0.0
 42
-0.0582488642255945
  0
VERTEX
  5
16014
  8
HIDDEN
 10
230.28006172583019
 20
43.549832113981367
 30
0.0
 42
-0.0582488642255945
  0
SEQEND
  5
16015
  8
HIDDEN
  0
CIRCLE
  5
132A6
  8
HIDDEN
 10
231.73554522583021
 20
41.800166113981369
 30
0.0
 40
0.043
  0
CIRCLE
  5
132A7
  8
HIDDEN
 10
231.73554522583021
 20
41.800166113981369
 30
0.0
 40
0.0938385
  0
CIRCLE
  5
132A8
  8
HIDDEN
 10
231.73554522583021
 20
41.800166113981369
 30
0.0
 40
0.0982063856273755
  0
POLYLINE
  5
132AB
  8
DIM
 66
     1
 10
0.0
 20
0.0
 30
0.0
  0
VERTEX
  5
16016
  8
DIM
 10
230.2294187258303
 20
43.810068113981373
 30
0.0
  0
VERTEX
  5
16017
  8
DIM
 10
230.2294187258303
 20
43.810068113981373
 30
0.0
 42
0.0582488642255922
  0
SEQEND
  5
16018
  8
DIM
  0
POLYLINE
  5
132AC
  8
DIM
 66
     1
 10
0.0
 20
0.0
 30
0.0
  0
VERTEX
  5
16019
  8
DIM
 10
230.24824462279591
 20
43.810068113981373
 30
0.0
  0
VERTEX
  5
1601A
  8
DIM
 10
230.24824462279591
 20
43.810068113981373
 30
0.0
 42
0.1461605630656843
  0
SEQEND
  5
1601B
  8
DIM
  0
CIRCLE
  5
132AD
  8
HIDDEN
 10
230.92057472583019
 20
43.054950113981377
 30
0.0
 40
0.043
  0
CIRCLE
  5
132AE
  8
HIDDEN
 10
230.92057472583019
 20
43.054950113981377
 30
0.0
 40
0.0938385
  0
CIRCLE
  5
132AF
  8
HIDDEN
 10
230.92057472583019
 20
43.054950113981377
 30
0.0
 40
0.0982063856273755
  0
ARC
  5
132B0
  8
OBJECT
 10
230.41759222583019
 20
45.996654113981371
 30
0.0
 40
0.1881735
 50
90.000000000000057
 51
180.0
  0
POLYLINE
  5
132B1
  8
OBJECT
 66
     1
 10
0.0
 20
0.0
 30
0.0
  0
VERTEX
  5
1601C
  8
OBJECT
 10
230.23857163756139
 20
45.996654113981371
 30
0.0
 42
-0.0941215463702184
  0
VERTEX
  5
1601D
  8
OBJECT
 10
230.2523307334304
 20
46.069098768874163
 30
0.0
 42
-0.0965726476500832
  0
VERTEX
  5
1601E
  8
OBJECT
 10
230.29100555389331
 20
46.12971287187095
 30
0.0
 42
-0.100253979675538
  0
VERTEX
  5
1601F
  8
OBJECT
 10
230.34951957633601
 20
46.170651195385652
 30
0.0
 42
-0.1030219692518613
  0
VERTEX
  5
16020
  8
OBJECT
 10
230.41759222583019
 20
46.184827613981383
 30
0.0
 42
-0.1030219692518543
  0
SEQEND
  5
16021
  8
OBJECT
  0
CIRCLE
  5
132B2
  8
HIDDEN
 10
230.92057472583019
 20
45.429616113981382
 30
0.0
 40
0.043
  0
CIRCLE
  5
132B3
  8
HIDDEN
 10
230.92057472583019
 20
45.429616113981382
 30
0.0
 40
0.0982063856273755
  0
CIRCLE
  5
132B4
  8
HIDDEN
 10
230.92057472583019
 20
45.429616113981382
 30
0.0
 40
0.0938385
  0
ARC
  5
132B5
  8
HIDDEN
 10
230.3842576752715
 20
46.02998866454007
 30
0.0
 40
0.1041959494412705
 50
90.000000000000057
 51
180.0
  0
LINE
  5
132B6
  8
HIDDEN
 10
230.417656730293
 20
46.080562613981371
 30
0.0
 11
230.417656730293
 21
46.045807613981381
 31
0.0
  0
LINE
  5
132B7
  8
HIDDEN
 10
230.3842576752715
 20
46.134184613981368
 30
0.0
 11
230.3842576752715
 21
46.080562613981371
 31
0.0
  0
LINE
  5
132B8
  8
HIDDEN
 10
230.417656730293
 20
46.184827613981383
 30
0.0
 11
230.417656730293
 21
46.134184613981368
 31
0.0
  0
LINE
  5
132B9
  8
HIDDEN
 10
230.417656730293
 20
46.184827613981263
 30
0.0
 11
230.417656730293
 21
46.134184613981368
 31
0.0
  0
LINE
  5
132BA
  8
HIDDEN
 10
230.3866759189425
 20
46.134184613981368
 30
0.0
 11
230.3866759189425
 21
46.080562613981371
 31
0.0
  0
LINE
  5
132BB
  8
HIDDEN
 10
230.417656730293
 20
46.080562613981371
 30
0.0
 11
230.417656730293
 21
46.045807613981381
 31
0.0
  0
ARC
  5
132BC
  8
HIDDEN
 10
230.38085122583021
 20
46.031409113981383
 30
0.0
 40
0.1027755
 50
90.000000000000057
 51
180.0
  0
LINE
  5
132BD
  8
OBJECT
 10
237.5528812258303
 20
46.184827613981383
 30
0.0
 11
230.41759222583019
 21
46.184827613981383
 31
0.0
  0
LINE
  5
132BE
  8
HIDDEN
 10
237.58671577638901
 20
46.134184613981368
 30
0.0
 11
230.3842576752715
 21
46.134184613981368
 31
0.0
  0
LINE
  5
132BF
  8
HIDDEN
 10
237.5896222258302
 20
46.134184613981368
 30
0.0
 11
230.38085122583021
 21
46.134184613981368
 31
0.0
  0
LINE
  5
132C0
  8
HIDDEN
 10
237.58671577638901
 20
46.080562613981371
 30
0.0
 11
230.3842576752715
 21
46.080562613981371
 31
0.0
  0
LINE
  5
132C1
  8
HIDDEN
 10
237.58379753271799
 20
46.080562613981371
 30
0.0
 11
230.3866759189425
 21
46.080562613981371
 31
0.0
  0
CIRCLE
  5
132C3
  8
HIDDEN
 10
237.05039872583021
 20
45.429616113981382
 30
0.0
 40
0.043
  0
CIRCLE
  5
132C4
  8
HIDDEN
 10
237.05039872583021
 20
45.429616113981382
 30
0.0
 40
0.0982063856273755
  0
CIRCLE
  5
132C5
  8
HIDDEN
 10
237.05039872583021
 20
45.429616113981382
 30
0.0
 40
0.0938385
  0
POLYLINE
  5
132C6
  8
OBJECT
 66
     1
 10
0.0
 20
0.0
 30
0.0
  0
VERTEX
  5
16022
  8
OBJECT
 10
237.7319018140991
 20
45.996654113981371
 30
0.0
 42
0.0941215463702184
  0
VERTEX
  5
16023
  8
OBJECT
 10
237.71814271823001
 20
46.069098768874163
 30
0.0
 42
0.0965726476500832
  0
VERTEX
  5
16024
  8
OBJECT
 10
237.6794678977671
 20
46.12971287187095
 30
0.0
 42
0.100253979675538
  0
VERTEX
  5
16025
  8
OBJECT
 10
237.62095387532449
 20
46.170651195385652
 30
0.0
 42
0.1030219692518613
  0
VERTEX
  5
16026
  8
OBJECT
 10
237.55288122583019
 20
46.184827613981383
 30
0.0
 42
0.1030219692518543
  0
SEQEND
  5
16027
  8
OBJECT
  0
ARC
  5
132C7
  8
OBJECT
 10
237.5528812258303
 20
45.996654113981371
 30
0.0
 40
0.1881735
 50
0.0
 51
90.000000000000057
  0
LINE
  5
132C8
  8
HIDDEN
 10
237.55331672136751
 20
46.080562613981371
 30
0.0
 11
237.55331672136751
 21
46.045807613981381
 31
0.0
  0
LINE
  5
132C9
  8
HIDDEN
 10
237.55331672136751
 20
46.184827613981383
 30
0.0
 11
237.55331672136751
 21
46.134184613981368
 31
0.0
  0
LINE
  5
132CA
  8
HIDDEN
 10
237.58671577638901
 20
46.134184613981368
 30
0.0
 11
237.58671577638901
 21
46.080562613981371
 31
0.0
  0
ARC
  5
132CB
  8
HIDDEN
 10
237.58671577638901
 20
46.02998866454007
 30
0.0
 40
0.1041959494412705
 50
0.0
 51
90.000000000000057
  0
LINE
  5
132CC
  8
HIDDEN
 10
237.55281672136741
 20
46.184827613981263
 30
0.0
 11
237.55281672136741
 21
46.134184613981368
 31
0.0
  0
LINE
  5
132CD
  8
HIDDEN
 10
237.55281672136741
 20
46.080562613981371
 30
0.0
 11
237.55281672136741
 21
46.045807613981381
 31
0.0
  0
ARC
  5
132CE
  8
HIDDEN
 10
237.5896222258302
 20
46.031409113981383
 30
0.0
 40
0.1027755
 50
0.0
 51
90.000000000000057
  0
LINE
  5
132CF
  8
HIDDEN
 10
237.58379753271799
 20
46.134184613981368
 30
0.0
 11
237.58379753271799
 21
46.080562613981371
 31
0.0
  0
LINE
  5
132D0
  8
OBJECT
 10
237.74105472583031
 20
45.996654113981371
 30
0.0
 11
237.74105472583031
 21
43.549832113981367
 31
0.0
  0
LINE
  5
132D1
  8
HIDDEN
 10
237.69091172583029
 20
43.549832113981367
 30
0.0
 11
237.69091172583029
 21
46.02998866454007
 31
0.0
  0
LINE
  5
132D2
  8
HIDDEN
 10
237.6923977258302
 20
43.549832113981367
 30
0.0
 11
237.6923977258302
 21
46.031409113981383
 31
0.0
  0
POLYLINE
  5
132D3
  8
OBJECT
 66
     1
 10
0.0
 20
0.0
 30
0.0
  0
VERTEX
  5
16028
  8
OBJECT
 10
236.3821342258303
 20
41.175072613981371
 30
0.0
 42
0.1579326405096693
  0
VERTEX
  5
16029
  8
OBJECT
 10
236.85599706904259
 20
41.32857828287176
 30
0.0
 42
0.1065219447776537
  0
VERTEX
  5
1602A
  8
OBJECT
 10
237.34303612647361
 20
41.870623567844163
 30
0.0
 42
0.0718787425685434
  0
VERTEX
  5
1602B
  8
OBJECT
 10
237.62953680729319
 20
42.595825992979869
 30
0.0
 42
0.0582488642255929
  0
VERTEX
  5
1602C
  8
OBJECT
 10
237.74105472583031
 20
43.549832113981367
 30
0.0
 42
0.0582488642255922
  0
SEQEND
  5
1602D
  8
OBJECT
  0
POLYLINE
  5
132D4
  8
HIDDEN
 66
     1
 10
0.0
 20
0.0
 30
0.0
  0
VERTEX
  5
1602E
  8
HIDDEN
 10
236.38263422583029
 20
41.225715613981379
 30
0.0
 42
0.1579326405096665
  0
VERTEX
  5
1602F
  8
HIDDEN
 10
236.82680214266651
 20
41.369601749284563
 30
0.0
 42
0.1065219447776553
  0
VERTEX
  5
16030
  8
HIDDEN
 10
237.299580966473
 20
41.895776248781161
 30
0.0
 42
0.0718787425685412
  0
VERTEX
  5
16031
  8
HIDDEN
 10
237.58075915184421
 20
42.60750615233016
 30
0.0
 42
0.0582488642255945
  0
VERTEX
  5
16032
  8
HIDDEN
 10
237.69091172583029
 20
43.549832113981367
 30
0.0
 42
0.0582488642255945
  0
SEQEND
  5
16033
  8
HIDDEN
  0
POLYLINE
  5
132D5
  8
HIDDEN
 66
     1
 10
0.0
 20
0.0
 30
0.0
  0
VERTEX
  5
16034
  8
HIDDEN
 10
236.3821342258303
 20
41.223729613981369
 30
0.0
 42
0.1579326405096657
  0
VERTEX
  5
16035
  8
HIDDEN
 10
236.82746664958319
 20
41.367992985895853
 30
0.0
 42
0.1065219447776559
  0
VERTEX
  5
16036
  8
HIDDEN
 10
237.30080469823781
 20
41.894789869136567
 30
0.0
 42
0.0718787425685409
  0
VERTEX
  5
16037
  8
HIDDEN
 10
237.58219160892071
 20
42.607048106865463
 30
0.0
 42
0.0582488642255951
  0
VERTEX
  5
16038
  8
HIDDEN
 10
237.6923977258302
 20
43.549832113981367
 30
0.0
 42
0.0582488642255951
  0
SEQEND
  5
16039
  8
HIDDEN
  0
CIRCLE
  5
132D6
  8
HIDDEN
 10
236.23542822583019
 20
41.800166113981369
 30
0.0
 40
0.043
  0
CIRCLE
  5
132D7
  8
HIDDEN
 10
236.23542822583019
 20
41.800166113981369
 30
0.0
 40
0.0938385
  0
CIRCLE
  5
132D8
  8
HIDDEN
 10
236.23542822583019
 20
41.800166113981369
 30
0.0
 40
0.0982063856273755
  0
CIRCLE
  5
132DA
  8
HIDDEN
 10
237.05039872583021
 20
43.054950113981377
 30
0.0
 40
0.043
  0
CIRCLE
  5
132DB
  8
HIDDEN
 10
237.05039872583021
 20
43.054950113981377
 30
0.0
 40
0.0938385
  0
CIRCLE
  5
132DC
  8
HIDDEN
 10
237.05039872583021
 20
43.054950113981377
 30
0.0
 40
0.0982063856273755
  0
LINE
  5
132DD
  8
HIDDEN
 10
236.3821342258303
 20
41.223729613981369
 30
0.0
 11
231.5883392258302
 21
41.223729613981369
 31
0.0
  0
LINE
  5
132DE
  8
OBJECT
 10
236.3821342258303
 20
41.175072613981371
 30
0.0
 11
231.5883392258302
 21
41.175072613981371
 31
0.0
  0
LINE
  5
132DF
  8
HIDDEN
 10
236.38263422583029
 20
41.225715613981379
 30
0.0
 11
231.5883392258302
 21
41.225715613981379
 31
0.0
  0
POLYLINE
  5
132E0
  8
HIDDEN
 66
     1
 10
0.0
 20
0.0
 30
0.0
 70
     1
  0
VERTEX
  5
1603A
  8
HIDDEN
 10
237.24091116778681
 20
45.996654113981371
 30
0.0
  0
VERTEX
  5
1603B
  8
HIDDEN
 10
237.24091116778681
 20
43.554832113981369
 30
0.0
 42
-0.0582488642255975
  0
VERTEX
  5
1603C
  8
HIDDEN
 10
237.14289069122529
 20
42.716293017754879
 30
0.0
 42
-0.0718787425685363
  0
VERTEX
  5
1603D
  8
HIDDEN
 10
236.90900681942071
 20
42.124276445411461
 30
0.0
 42
-0.1065219447776522
  0
VERTEX
  5
1603E
  8
HIDDEN
 10
236.5629407316074
 20
41.739125627779949
 30
0.0
 42
-0.1579326405096707
  0
VERTEX
  5
1603F
  8
HIDDEN
 10
236.38263422583029
 20
41.680716172024873
 30
0.0
  0
VERTEX
  5
16040
  8
HIDDEN
 10
231.5883392258302
 20
41.680716172024873
 30
0.0
 42
-0.1579326405096707
  0
VERTEX
  5
16041
  8
HIDDEN
 10
231.40803272005331
 20
41.739125627779949
 30
0.0
 42
-0.1065219447776522
  0
VERTEX
  5
16042
  8
HIDDEN
 10
231.0619666322398
 20
42.124276445411461
 30
0.0
 42
-0.0718787425685363
  0
VERTEX
  5
16043
  8
HIDDEN
 10
230.82808276043519
 20
42.716293017754879
 30
0.0
 42
-0.0582488642255975
  0
VERTEX
  5
16044
  8
HIDDEN
 10
230.73006228387371
 20
43.554832113981369
 30
0.0
  0
VERTEX
  5
16045
  8
HIDDEN
 10
230.73006228387371
 20
45.996654113981371
 30
0.0
  0
SEQEND
  5
16046
  8
HIDDEN
  0
POLYLINE
  5
132E1
  8
HIDDEN
 66
     1
 10
0.0
 20
0.0
 30
0.0
 70
     1
  0
VERTEX
  5
16047
  8
HIDDEN
 10
230.33455081604109
 20
45.996654113981371
 30
0.0
  0
VERTEX
  5
16048
  8
HIDDEN
 10
230.33455081604109
 20
43.549832113981367
 30
0.0
 42
0.0582488642256094
  0
VERTEX
  5
16049
  8
HIDDEN
 10
230.44323435417991
 20
42.620073363129762
 30
0.0
 42
0.0718787425685677
  0
VERTEX
  5
1604A
  8
HIDDEN
 10
230.7186858263897
 20
41.922839153834651
 30
0.0
 42
0.106521944777654
  0
VERTEX
  5
1604B
  8
HIDDEN
 10
231.1761214209958
 20
41.413740748990939
 30
0.0
 42
0.1579326405096284
  0
VERTEX
  5
1604C
  8
HIDDEN
 10
231.5883392258302
 20
41.280204704192151
 30
0.0
  0
VERTEX
  5
1604D
  8
HIDDEN
 10
236.3821342258303
 20
41.280204704192151
 30
0.0
 42
0.1579326405096304
  0
VERTEX
  5
1604E
  8
HIDDEN
 10
236.79435203066481
 20
41.413740748990939
 30
0.0
 42
0.1065219447776483
  0
VERTEX
  5
1604F
  8
HIDDEN
 10
237.25178762527079
 20
41.922839153834651
 30
0.0
 42
0.0718787425685243
  0
VERTEX
  5
16050
  8
HIDDEN
 10
237.5272390974805
 20
42.620073363129762
 30
0.0
 42
0.0582488642256092
  0
VERTEX
  5
16051
  8
HIDDEN
 10
237.63592263561941
 20
43.549832113981367
 30
0.0
  0
VERTEX
  5
16052
  8
HIDDEN
 10
237.63592263561941
 20
46.000652743281258
 30
0.0
 42
0.41421356237312
  0
VERTEX
  5
16053
  8
HIDDEN
 10
237.59076776491929
 20
46.045807613981381
 30
0.0
  0
VERTEX
  5
16054
  8
HIDDEN
 10
237.55281672136741
 20
46.045807613981381
 30
0.0
  0
VERTEX
  5
16055
  8
HIDDEN
 10
230.417656730293
 20
46.045807613981381
 30
0.0
  0
VERTEX
  5
16056
  8
HIDDEN
 10
230.3837043160411
 20
46.045807613981381
 30
0.0
 42
0.4142135623731117
  0
SEQEND
  5
16057
  8
HIDDEN
  0
POLYLINE
  5
132E2
  8
HIDDEN
 66
     1
 10
0.0
 20
0.0
 30
0.0
 70
     1
  0
VERTEX
  5
16058
  8
HIDDEN
 10
237.6378395085903
 20
45.996654113981371
 30
0.0
  0
VERTEX
  5
16059
  8
HIDDEN
 10
237.6378395085903
 20
43.549832113981452
 30
0.0
 42
-0.0582488642255967
  0
VERTEX
  5
1605A
  8
HIDDEN
 10
237.52898297038149
 20
42.618593393561767
 30
0.0
 42
-0.0718787425685374
  0
VERTEX
  5
1605B
  8
HIDDEN
 10
237.2528570954471
 20
41.91965210807416
 30
0.0
 42
-0.1065219447776522
  0
VERTEX
  5
1605C
  8
HIDDEN
 10
236.7936146152359
 20
41.408542747830069
 30
0.0
 42
-0.15793264050967
  0
VERTEX
  5
1605D
  8
HIDDEN
 10
236.37763422583029
 20
41.27378783122137
 30
0.0
  0
VERTEX
  5
1605E
  8
HIDDEN
 10
231.59333922583031
 20
41.27378783122137
 30
0.0
 42
-0.15793264050967
  0
VERTEX
  5
1605F
  8
HIDDEN
 10
231.1773588364247
 20
41.408542747829969
 30
0.0
 42
-0.1065219447776522
  0
VERTEX
  5
16060
  8
HIDDEN
 10
230.7181163562135
 20
41.919652108074068
 30
0.0
 42
-0.0718787425685374
  0
VERTEX
  5
16061
  8
HIDDEN
 10
230.44199048127899
 20
42.61859339356166
 30
0.0
 42
-0.0582488642255967
  0
VERTEX
  5
16062
  8
HIDDEN
 10
230.33313394307021
 20
43.549832113981367
 30
0.0
  0
VERTEX
  5
16063
  8
HIDDEN
 10
230.33313394307021
 20
45.996654113981371
 30
0.0
 42
-0.4142135623730951
  0
VERTEX
  5
16064
  8
HIDDEN
 10
230.3822874430702
 20
46.045807613981381
 30
0.0
  0
VERTEX
  5
16065
  8
HIDDEN
 10
237.55331672136751
 20
46.045807613981381
 30
0.0
  0
VERTEX
  5
16066
  8
HIDDEN
 10
237.58868600859029
 20
46.045807613981381
 30
0.0
 42
-0.4142135623730951
  0
SEQEND
  5
16067
  8
HIDDEN
  0
TEXT
  5
14314
  8
TEXT
 10
249.36949706500431
 20
58.098887307140323
 30
0.0
 40
0.2808
  1
NOTES:
 41
0.75
  7
TXT
1001
ACAD
1000
MTEXTBEGIN
1070
    73
1070
     1
1070
    44
1040
1.0
1070
    74
1070
     0
1000
MTEXTEND
  0
TEXT
  5
14315
  8
TEXT
 10
249.3993775561367
 20
57.625907225284926
 30
0.0
 40
0.2808
  1
  1) PC BOARD BOSSES WILL ACCEPT A
 41
0.75
  7
TXT
1001
ACAD
1000
MTEXTBEGIN
1070
    73
1070
     1
1070
    44
1040
1.0
1070
    74
1070
     0
1000
MTEXTEND
  0
TEXT
  5
14316
  8
TEXT
 10
249.3993775561367
 20
57.152927143429537
 30
0.0
 40
0.2808
  1
      #4 X 1/4" THREAD FORMING SCREW
 41
0.75
  7
TXT
1001
ACAD
1000
MTEXTBEGIN
1070
    73
1070
     1
1070
    44
1040
1.0
1070
    74
1070
     0
1000
MTEXTEND
  0
TEXT
  5
14317
  8
TEXT
 10
249.3993775561367
 20
56.680138603183977
 30
0.0
 40
0.2808
  1
  2) MATERIAL: ABS - UL94-5VA
 41
0.75
  7
TXT
1001
ACAD
1000
MTEXTBEGIN
1070
    73
1070
     1
1070
    44
1040
1.0
1070
    74
1070
     0
1000
MTEXTEND
  0
TEXT
  5
14318
  8
TEXT
 10
249.3993775561367
 20
56.20735006293841
 30
0.0
 40
0.2808
  1
  3) FINISH: BLACK TEXTURE
 41
0.75
  7
TXT
1001
ACAD
1000
MTEXTBEGIN
1070
    73
1070
     1
1070
    44
1040
1.0
1070
    74
1070
     0
1000
MTEXTEND
  0
TEXT
  5
14319
  8
TEXT
 10
249.3993775561367
 20
55.73436998108302
 30
0.0
 40
0.2808
  1
  4) DIMENSIONS ARE TO THEORETICAL
 41
0.75
  7
TXT
1001
ACAD
1000
MTEXTBEGIN
1070
    73
1070
     1
1070
    44
1040
1.0
1070
    74
1070
     0
1000
MTEXTEND
  0
TEXT
  5
1431A
  8
TEXT
 10
249.3993775561367
 20
55.26138989922763
 30
0.0
 40
0.2808
  1
      SHARP CORNERS.
 41
0.75
  7
TXT
1001
ACAD
1000
MTEXTBEGIN
1070
    73
1070
     1
1070
    44
1040
1.0
1070
    74
1070
     0
1000
MTEXTEND
  0
TEXT
  5
1431B
  8
TEXT
 10
249.3993775561367
 20
54.788409817372248
 30
0.0
 40
0.2808
  1
  5) INCLUDES (4) #4-24 x 1.0 HI-LOW
 41
0.75
  7
TXT
1001
ACAD
1000
MTEXTBEGIN
1070
    73
1070
     1
1070
    44
1040
1.0
1070
    74
1070
     0
1000
MTEXTEND
  0
TEXT
  5
1431C
  8
TEXT
 10
249.3993775561367
 20
54.315429735516858
 30
0.0
 40
0.2808
  1
      THREAD FORMING, CSK, OVAL HEAD,
 41
0.75
  7
TXT
1001
ACAD
1000
MTEXTBEGIN
1070
    73
1070
     1
1070
    44
1040
1.0
1070
    74
1070
     0
1000
MTEXTEND
  0
TEXT
  5
1431D
  8
TEXT
 10
249.3993775561367
 20
53.842449653661461
 30
0.0
 40
0.2808
  1
      PHILLIPS DRIVE SCREWS FOR
 41
0.75
  7
TXT
1001
ACAD
1000
MTEXTBEGIN
1070
    73
1070
     1
1070
    44
1040
1.0
1070
    74
1070
     0
1000
MTEXTEND
  0
TEXT
  5
1431E
  8
TEXT
 10
249.3993775561367
 20
53.369469571806071
 30
0.0
 40
0.2808
  1
      ATTACHING BODY TO COVER
 41
0.75
  7
TXT
1001
ACAD
1000
MTEXTBEGIN
1070
    73
1070
     1
1070
    44
1040
1.0
1070
    74
1070
     0
1000
MTEXTEND
  0
TEXT
  5
1431F
  8
TEXT
 10
249.3993775561367
 20
52.896489489950682
 30
0.0
 40
0.2808
  1
      (MAX TORQUE 4.5 IN-LBS)
 41
0.75
  7
TXT
1001
ACAD
1000
MTEXTBEGIN
1070
    73
1070
     1
1070
    44
1040
1.0
1070
    74
1070
     0
1000
MTEXTEND
  0
INSERT
  5
147C5
  8
0
  2
HBS
 10
222.1850428074375
 20
39.175272854150741
 30
0.0
 41
2.25
 42
2.25
 43
2.25
  0
POLYLINE
  8
0
  5
160BA
  66
     1
 10
0.000000
 20
0.000000
 30
0.000000
  70
     8
  0
VERTEX
  8
0
  5
160BB
 10
232.256
 20
55.2564
 30
0.000000
  70
    32
  0
VERTEX
  8
0
  5
160BC
 10
230.106
 20
53.1254
 30
0.000000
  70
    32
  0
VERTEX
  8
0
  5
160BD
 10
229.701
 20
53.1254
 30
0.000000
  70
    32
  0
SEQEND
  8
0
  5
160BE
  0
INSERT
  5
1532F
  8
OBJECT
  2
*U44
 10
0.0
 20
0.0
 30
0.0
  0
DIMENSION
  5
15330
  8
DIM
  2
*D31
 10
226.23367451077641
 20
58.503598621043082
 30
0.0
 11
226.23367451077641
 21
57.904091052235891
 31
0.0
 70
   128
  1
<>\P(2 PLCS.)
 13
230.1293903695356
 23
56.750932621043177
 33
0.0
 14
231.04245836953561
 24
58.503598621043082
 34
0.0
 50
90.0
  0
DIMENSION
  5
153A5
  8
DIM
  2
*D32
 10
225.22544574014771
 20
54.748030621043078
 30
0.0
 11
225.22544574014771
 21
55.749481621043159
 31
0.0
 70
     0
  1
<>\P(2 PLCS.)
 13
230.1293903695356
 23
56.750932621043177
 33
0.0
 14
230.60524786953559
 24
54.748030621043078
 34
0.0
 50
90.0
  0
DIMENSION
  5
1545B
  8
DIM
  2
*D33
 10
225.95738076772821
 20
50.599402941317997
 30
0.0
 11
225.95738076772821
 21
49.824327941318103
 31
0.0
 70
   128
  1
<>\P(INSIDE DEPTH)
 13
230.58834061085739
 23
49.049252941318109
 33
0.0
 14
231.5885892678792
 24
50.599402941317997
 34
0.0
 50
90.0
  0
POLYLINE
  8
0
  5
160BF
  66
     1
 10
0.000000
 20
0.000000
 30
0.000000
  70
     8
  0
VERTEX
  8
0
  5
160C0
 10
231.903
 20
44.9813
 30
0.000000
  70
    32
  0
VERTEX
  8
0
  5
160C1
 10
230.212
 20
46.8008
 30
0.000000
  70
    32
  0
VERTEX
  8
0
  5
160C2
 10
229.807
 20
46.8008
 30
0.000000
  70
    32
  0
SEQEND
  8
0
  5
160C3
  0
TEXT
  5
154FA
  8
OBJECT
 10
226.72183851036041
 20
46.660152117132128
 30
0.0
 40
0.28125
  1
TEXTURED FLUSH
 41
0.75
  7
TXT
  0
POLYLINE
  8
0
  5
160C4
  66
     1
 10
0.000000
 20
0.000000
 30
0.000000
  70
     8
  0
VERTEX
  8
0
  5
160C5
 10
234.609
 20
44.5850
 30
0.000000
  70
    32
  0
VERTEX
  8
0
  5
160C6
 10
237.206
 20
46.9467
 30
0.000000
  70
    32
  0
SEQEND
  8
0
  5
160C7
  0
TEXT
  5
15511
  8
DIM
 10
237.8047541342643
 20
46.806104903197671
 30
0.0
 40
0.28125
  1
TEXTURED RECESS
 41
0.75
  7
TXT
  0
TEXT
  5
15512
  8
DIM
 10
237.8047541342643
 20
46.337354903197671
 30
0.0
 40
0.28125
  1
0.010 DEEP
 41
0.75
  7
TXT
  0
LINE
  5
15515
  8
DIM
 10
237.2060251859742
 20
46.946729903197671
 30
0.0
 11
237.54589104067361
 21
46.946729903197671
 31
0.0
  0
TEXT
  5
15701
  8
TEXT
 10
228.7101854590266
 20
61.647209705207253
 30
0.0
 40
0.375
  1
PLASTIBOX (STYLE I)
 41
0.75
  7
TXT
  0
TEXT
  5
15702
  8
TEXT
 10
244.7328162435729
 20
61.647209705207253
 30
0.0
 40
0.375
  1
PT-11785
 41
0.75
  7
TXT
  0
TEXT
  5
15703
  8
TEXT
 10
256.62405121398979
 20
61.647209705207253
 30
0.0
 40
0.375
  1
10-4-11
 41
0.75
  7
TXT
  0
LINE
  5
1589D
  8
OBJECT
 10
250.26979203891301
 20
41.987054932798202
 30
0.0
 11
256.67779203891303
 21
41.987054932798202
 31
0.0
  0
LINE
  5
1589E
  8
OBJECT
 10
256.67779203891303
 20
41.987054932798202
 30
0.0
 11
256.67779203891303
 21
45.933054932798193
 31
0.0
  0
LINE
  5
158A2
  8
OBJECT
 10
251.08179203891299
 20
46.699054932798212
 30
0.0
 11
255.8657920389129
 21
46.699054932798191
 31
0.0
  0
LINE
  5
158A4
  8
OBJECT
 10
250.26979203891301
 20
45.933054932798193
 30
0.0
 11
251.08179203891299
 21
45.933054932798193
 31
0.0
  0
LINE
  5
158A5
  8
OBJECT
 10
250.26979203891301
 20
41.987054932798202
 30
0.0
 11
250.26979203891301
 21
45.933054932798193
 31
0.0
  0
CIRCLE
  5
158A8
  8
OBJECT
 10
250.40879203891299
 20
42.607054932798192
 30
0.0
 40
0.0625
  0
CIRCLE
  5
158A9
  8
OBJECT
 10
250.40879203891299
 20
44.982054932798192
 30
0.0
 40
0.0625
  0
CIRCLE
  5
158AC
  8
OBJECT
 10
251.2237920389129
 20
46.237054932798188
 30
0.0
 40
0.0625
  0
LINE
  5
158AD
  8
OBJECT
 10
251.08179203891299
 20
45.933054932798193
 30
0.0
 11
251.08179203891299
 21
46.699054932798212
 31
0.0
  0
CIRCLE
  5
158AF
  8
OBJECT
 10
256.53879203891302
 20
42.607054932798192
 30
0.0
 40
0.0625
  0
CIRCLE
  5
158B0
  8
OBJECT
 10
256.53879203891302
 20
44.982054932798192
 30
0.0
 40
0.0625
  0
LINE
  5
158B1
  8
OBJECT
 10
255.8657920389129
 20
45.933054932798193
 30
0.0
 11
255.8657920389129
 21
46.699054932798212
 31
0.0
  0
LINE
  5
158B2
  8
OBJECT
 10
256.67779203891303
 20
45.933054932798193
 30
0.0
 11
255.8657920389129
 21
45.933054932798193
 31
0.0
  0
CIRCLE
  5
158B3
  8
OBJECT
 10
255.72379203891299
 20
46.237054932798188
 30
0.0
 40
0.0625
  0
DIMENSION
  5
158B4
  8
DIM
  2
*D34
 10
257.50940860946929
 20
44.982054932798192
 30
0.0
 11
257.50940860946929
 21
43.794554932798228
 31
0.0
 70
     0
 13
256.53879203891302
 23
42.607054932798192
 33
0.0
 14
256.53879203891302
 24
44.982054932798192
 34
0.0
 50
90.0
  0
DIMENSION
  5
158C2
  8
DIM
  2
*D35
 10
257.50940860946929
 20
46.237054932798188
 30
0.0
 11
257.50940860946929
 21
45.609554932798233
 31
0.0
 70
     0
 13
256.53879203891302
 23
44.982054932798192
 33
0.0
 14
255.72379203891299
 24
46.237054932798188
 34
0.0
 50
90.0
  0
DIMENSION
  5
158D0
  8
DIM
  2
*D36
 10
255.72379203891299
 20
47.325493855301659
 30
0.0
 11
253.47379203891299
 21
47.325493855301659
 31
0.0
 70
     0
 13
251.2237920389129
 23
46.237054932798188
 33
0.0
 14
255.72379203891299
 24
46.237054932798188
 34
0.0
  0
DIMENSION
  5
158DE
  8
DIM
  2
*D37
 10
256.53879203891302
 20
41.371998726507101
 30
0.0
 11
253.47379203891299
 21
41.371998726507101
 31
0.0
 70
     0
 13
250.40879203891299
 23
42.607054932798192
 33
0.0
 14
256.53879203891302
 24
42.607054932798192
 34
0.0
  0
DIMENSION
  5
158EC
  8
DIM
  2
*D38
 10
250.26979203891301
 20
40.764160589686853
 30
0.0
 11
253.47379203891299
 21
40.764160589686853
 31
0.0
 70
   128
 13
256.67779203891303
 23
41.987054932798202
 33
0.0
 14
250.26979203891301
 24
41.987054932798202
 34
0.0
  0
DIMENSION
  5
1590E
  8
DIM
  2
*D39
 10
255.8657920389129
 20
47.91098464570662
 30
0.0
 11
253.47379203891299
 21
47.91098464570662
 31
0.0
 70
     0
 13
251.08179203891299
 23
46.699054932798212
 33
0.0
 14
255.8657920389129
 24
46.699054932798191
 34
0.0
  0
DIMENSION
  5
1591C
  8
DIM
  2
*D40
 10
249.49129784716931
 20
41.987054932798202
 30
0.0
 11
249.49129784716931
 21
43.960054932798229
 31
0.0
 70
     0
 13
250.26979203891301
 23
45.933054932798193
 33
0.0
 14
250.26979203891301
 24
41.987054932798202
 34
0.0
 50
90.0
  0
DIMENSION
  5
1592A
  8
DIM
  2
*D41
 10
248.67893876363101
 20
41.987054932798202
 30
0.0
 11
248.67893876363101
 21
44.625398611895321
 31
0.0
 70
   128
 13
251.08179203891299
 23
46.699054932798212
 33
0.0
 14
250.26979203891301
 24
41.987054932798202
 34
0.0
 50
90.0
  0
DIMENSION
  5
15960
  8
DIM
  2
*D42
 10
257.50940860946929
 20
41.987054932798202
 30
0.0
 11
257.50940860946929
 21
42.297054932798233
 31
0.0
 70
   128
 13
256.53879203891302
 23
42.607054932798192
 33
0.0
 14
256.67779203891303
 24
41.987054932798202
 34
0.0
 50
90.0
  0
TEXT
  5
15B5A
  8
TEXT
 10
251.00108227467859
 20
39.83210701632683
 30
0.0
 40
0.2808
  1
SUGGESTED PC BOARD LAYOUT
 41
0.75
  7
TXT
 72
     1
 11
253.59848227467859
 21
39.83210701632683
 31
0.0
1001
ACAD
1000
MTEXTBEGIN
1070
    73
1070
     1
1070
    44
1040
1.0
1070
    74
1070
     0
1000
MTEXTEND
  0
LINE
  5
15CC4
  8
DIM
 10
237.10940827817191
 20
50.631202990411452
 30
0.0
 11
237.63449437784769
 21
51.671906361259751
 31
0.0
  0
LINE
  5
15CC5
  8
DIM
 10
237.63449437784769
 20
51.671906361259751
 30
0.0
 11
238.03949437784769
 21
51.67190636125973
 31
0.0
  0
SOLID
  5
15CC6
  8
DIM
 10
237.04856324830021
 20
50.660428533005373
 30
0.0
 11
237.1702533080437
 21
50.601977447817553
 31
0.0
 12
236.93405502260839
 22
50.266132811181052
 32
0.0
 13
236.93405502260839
 23
50.266132811181052
 33
0.0
  0
INSERT
  5
15CC7
  8
OBJECT
  2
*U45
 10
0.0
 20
0.0
 30
0.0
  0
DIMENSION
  5
15E86
  8
DIM
  2
*D43
 10
255.6920234253532
 20
46.18323109799919
 30
0.0
 11
257.98146025520259
 21
47.722452120416222
 31
0.0
 70
   131
  1
<>\P(6) PLCS.
 15
255.75556065247349
 25
46.290878767597178
 35
0.0
 40
0.0
  0
TEXT
  5
15F31
  8
DIM
 10
231.18677019931499
 20
56.681188120822007
 30
0.0
 40
0.15625
  1
C
  0
TEXT
  5
15F32
  8
DIM
 10
231.24550124865289
 20
56.599728919026447
 30
0.0
 40
0.15625
  1
L
  0
TEXT
  5
15F33
  8
DIM
 10
233.92964738868039
 20
59.355007694556441
 30
0.0
 40
0.15625
  1
C
  0
TEXT
  5
15F34
  8
DIM
 10
233.98837843801829
 20
59.273548492760881
 30
0.0
 40
0.15625
  1
L
  0
TEXT
  5
15F35
  8
DIM
 10
233.92964738868039
 20
50.798893510799068
 30
0.0
 40
0.15625
  1
C
  0
TEXT
  5
15F36
  8
DIM
 10
233.98837843801829
 20
50.717434309003508
 30
0.0
 40
0.15625
  1
L
  0
TEXT
  5
15F37
  8
DIM
 10
230.01603659159559
 20
43.679147687494719
 30
0.0
 40
0.15625
  1
C
  0
TEXT
  5
15F38
  8
DIM
 10
230.07476764093349
 20
43.597688485699173
 30
0.0
 40
0.15625
  1
L
  0
TEXT
  5
15F39
  8
DIM
 10
233.9296757449751
 20
46.284025187494727
 30
0.0
 40
0.15625
  1
C
  0
TEXT
  5
15F3A
  8
DIM
 10
233.98840679431291
 20
46.202565985699167
 30
0.0
 40
0.15625
  1
L
  0
ENDSEC
  0
EOF
