  0
SECTION
  2
HEADER
  9
$ACADVER
  1
AC1015
  9
$ACADMAINTVER
 70
     6
  9
$DWGCODEPAGE
  3
ANSI_1252
  9
$INSBASE
 10
0.0
 20
0.0
 30
0.0
  9
$EXTMIN
 10
0.0
 20
0.0
 30
0.0
  9
$EXTMAX
 10
17.0
 20
11.0
 30
0.0
  9
$LIMMIN
 10
0.0
 20
0.0
  9
$LIMMAX
 10
17.0
 20
11.0
  9
$ORTHOMODE
 70
     0
  9
$REGENMODE
 70
     1
  9
$FILLMODE
 70
     1
  9
$QTEXTMODE
 70
     0
  9
$MIRRTEXT
 70
     1
  9
$LTSCALE
 40
1.0
  9
$ATTMODE
 70
     1
  9
$TEXTSIZE
 40
0.125
  9
$TRACEWID
 40
0.05
  9
$TEXTSTYLE
  7
Standard
  9
$CLAYER
  8
0
  9
$CELTYPE
  6
ByLayer
  9
$CECOLOR
 62
   256
  9
$CELTSCALE
 40
1.0
  9
$DISPSILH
 70
     0
  9
$DIMSCALE
 40
1.0
  9
$DIMASZ
 40
0.13
  9
$DIMEXO
 40
0.05
  9
$DIMDLI
 40
0.38
  9
$DIMRND
 40
0.0
  9
$DIMDLE
 40
0.0
  9
$DIMEXE
 40
0.125
  9
$DIMTP
 40
0.0
  9
$DIMTM
 40
0.0
  9
$DIMTXT
 40
0.125
  9
$DIMCEN
 40
0.09
  9
$DIMTSZ
 40
0.0
  9
$DIMTOL
 70
     0
  9
$DIMLIM
 70
     0
  9
$DIMTIH
 70
     1
  9
$DIMTOH
 70
     1
  9
$DIMSE1
 70
     0
  9
$DIMSE2
 70
     0
  9
$DIMTAD
 70
     0
  9
$DIMZIN
 70
     0
  9
$DIMBLK
  1

  9
$DIMASO
 70
     1
  9
$DIMSHO
 70
     1
  9
$DIMPOST
  1

  9
$DIMAPOST
  1

  9
$DIMALT
 70
     0
  9
$DIMALTD
 70
     2
  9
$DIMALTF
 40
25.4
  9
$DIMLFAC
 40
0.5
  9
$DIMTOFL
 70
     0
  9
$DIMTVP
 40
0.0
  9
$DIMTIX
 70
     0
  9
$DIMSOXD
 70
     0
  9
$DIMSAH
 70
     0
  9
$DIMBLK1
  1

  9
$DIMBLK2
  1

  9
$DIMSTYLE
  2
Standard
  9
$DIMCLRD
 70
     0
  9
$DIMCLRE
 70
     0
  9
$DIMCLRT
 70
     0
  9
$DIMTFAC
 40
1.0
  9
$DIMGAP
 40
0.06
  9
$DIMJUST
 70
     0
  9
$DIMSD1
 70
     0
  9
$DIMSD2
 70
     0
  9
$DIMTOLJ
 70
     1
  9
$DIMTZIN
 70
     0
  9
$DIMALTZ
 70
     0
  9
$DIMALTTZ
 70
     0
  9
$DIMUPT
 70
     0
  9
$DIMDEC
 70
     4
  9
$DIMTDEC
 70
     4
  9
$DIMALTU
 70
     2
  9
$DIMALTTD
 70
     2
  9
$DIMTXSTY
  7
Standard
  9
$DIMAUNIT
 70
     0
  9
$DIMADEC
 70
     0
  9
$DIMALTRND
 40
0.0
  9
$DIMAZIN
 70
     0
  9
$DIMDSEP
 70
    46
  9
$DIMATFIT
 70
     3
  9
$DIMFRAC
 70
     0
  9
$DIMLDRBLK
  1

  9
$DIMLUNIT
 70
     2
  9
$DIMLWD
 70
    -2
  9
$DIMLWE
 70
    -2
  9
$DIMTMOVE
 70
     0
  9
$LUNITS
 70
     2
  9
$LUPREC
 70
     3
  9
$SKETCHINC
 40
0.1
  9
$FILLETRAD
 40
0.5
  9
$AUNITS
 70
     0
  9
$AUPREC
 70
     0
  9
$MENU
  1
.
  9
$ELEVATION
 40
0.0
  9
$PELEVATION
 40
0.0
  9
$THICKNESS
 40
0.0
  9
$LIMCHECK
 70
     0
  9
$CHAMFERA
 40
0.5
  9
$CHAMFERB
 40
0.5
  9
$CHAMFERC
 40
1.0
  9
$CHAMFERD
 40
0.0
  9
$SKPOLY
 70
     0
  9
$TDCREATE
 40
2454924.631510776
  9
$TDUCREATE
 40
2454924.798177442
  9
$TDUPDATE
 40
2454924.631510787
  9
$TDUUPDATE
 40
2454924.798177454
  9
$TDINDWG
 40
0.0000000116
  9
$TDUSRTIMER
 40
0.0000000116
  9
$USRTIMER
 70
     1
  9
$ANGBASE
 50
0.0
  9
$ANGDIR
 70
     0
  9
$PDMODE
 70
     0
  9
$PDSIZE
 40
-1.0
  9
$PLINEWID
 40
0.0
  9
$SPLFRAME
 70
     0
  9
$SPLINETYPE
 70
     6
  9
$SPLINESEGS
 70
     8
  9
$HANDSEED
  5
4F1
  9
$SURFTAB1
 70
     6
  9
$SURFTAB2
 70
     6
  9
$SURFTYPE
 70
     6
  9
$SURFU
 70
     6
  9
$SURFV
 70
     6
  9
$UCSBASE
  2

  9
$UCSNAME
  2

  9
$UCSORG
 10
0.0
 20
0.0
 30
0.0
  9
$UCSXDIR
 10
1.0
 20
0.0
 30
0.0
  9
$UCSYDIR
 10
0.0
 20
1.0
 30
0.0
  9
$UCSORTHOREF
  2

  9
$UCSORTHOVIEW
 70
     0
  9
$UCSORGTOP
 10
0.0
 20
0.0
 30
0.0
  9
$UCSORGBOTTOM
 10
0.0
 20
0.0
 30
0.0
  9
$UCSORGLEFT
 10
0.0
 20
0.0
 30
0.0
  9
$UCSORGRIGHT
 10
0.0
 20
0.0
 30
0.0
  9
$UCSORGFRONT
 10
0.0
 20
0.0
 30
0.0
  9
$UCSORGBACK
 10
0.0
 20
0.0
 30
0.0
  9
$PUCSBASE
  2

  9
$PUCSNAME
  2

  9
$PUCSORG
 10
0.0
 20
0.0
 30
0.0
  9
$PUCSXDIR
 10
1.0
 20
0.0
 30
0.0
  9
$PUCSYDIR
 10
0.0
 20
1.0
 30
0.0
  9
$PUCSORTHOREF
  2

  9
$PUCSORTHOVIEW
 70
     0
  9
$PUCSORGTOP
 10
0.0
 20
0.0
 30
0.0
  9
$PUCSORGBOTTOM
 10
0.0
 20
0.0
 30
0.0
  9
$PUCSORGLEFT
 10
0.0
 20
0.0
 30
0.0
  9
$PUCSORGRIGHT
 10
0.0
 20
0.0
 30
0.0
  9
$PUCSORGFRONT
 10
0.0
 20
0.0
 30
0.0
  9
$PUCSORGBACK
 10
0.0
 20
0.0
 30
0.0
  9
$USERI1
 70
     0
  9
$USERI2
 70
     0
  9
$USERI3
 70
     0
  9
$USERI4
 70
     0
  9
$USERI5
 70
     0
  9
$USERR1
 40
0.0
  9
$USERR2
 40
0.0
  9
$USERR3
 40
0.0
  9
$USERR4
 40
0.0
  9
$USERR5
 40
0.0
  9
$WORLDVIEW
 70
     1
  9
$SHADEDGE
 70
     3
  9
$SHADEDIF
 70
    70
  9
$TILEMODE
 70
     1
  9
$MAXACTVP
 70
    64
  9
$PINSBASE
 10
0.0
 20
0.0
 30
0.0
  9
$PLIMCHECK
 70
     0
  9
$PEXTMIN
 10
1.0000000000E+20
 20
1.0000000000E+20
 30
1.0000000000E+20
  9
$PEXTMAX
 10
-1.0000000000E+20
 20
-1.0000000000E+20
 30
-1.0000000000E+20
  9
$PLIMMIN
 10
0.0
 20
0.0
  9
$PLIMMAX
 10
12.0
 20
9.0
  9
$UNITMODE
 70
     0
  9
$VISRETAIN
 70
     1
  9
$PLINEGEN
 70
     0
  9
$PSLTSCALE
 70
     1
  9
$TREEDEPTH
 70
  3020
  9
$CMLSTYLE
  2
Standard
  9
$CMLJUST
 70
     0
  9
$CMLSCALE
 40
1.0
  9
$PROXYGRAPHICS
 70
     1
  9
$MEASUREMENT
 70
     0
  9
$CELWEIGHT
370
    -1
  9
$ENDCAPS
280
     0
  9
$JOINSTYLE
280
     0
  9
$LWDISPLAY
290
     1
  9
$INSUNITS
 70
     1
  9
$HYPERLINKBASE
  1

  9
$STYLESHEET
  1

  9
$XEDIT
290
     1
  9
$CEPSNTYPE
380
     0
  9
$PSTYLEMODE
290
     1
  9
$FINGERPRINTGUID
  2
{1679B679-E3DF-4185-9BF6-947042DCFDBD}
  9
$VERSIONGUID
  2
{FAEB1C32-E019-11D5-929B-00C0DF256EC4}
  9
$EXTNAMES
290
     1
  9
$PSVPSCALE
 40
0.0
  9
$OLESTARTUP
290
     0
  0
ENDSEC
  0
SECTION
  2
CLASSES
  0
CLASS
  1
ACDBDICTIONARYWDFLT
  2
AcDbDictionaryWithDefault
  3
ObjectDBX Classes
 90
        0
280
     0
281
     0
  0
CLASS
  1
VISUALSTYLE
  2
AcDbVisualStyle
  3
ObjectDBX Classes
 90
     4095
280
     0
281
     0
  0
CLASS
  1
SCALE
  2
AcDbScale
  3
ObjectDBX Classes
 90
     1153
280
     0
281
     0
  0
CLASS
  1
DICTIONARYVAR
  2
AcDbDictionaryVar
  3
ObjectDBX Classes
 90
        0
280
     0
281
     0
  0
CLASS
  1
ACDBPLACEHOLDER
  2
AcDbPlaceHolder
  3
ObjectDBX Classes
 90
        0
280
     0
281
     0
  0
CLASS
  1
LAYOUT
  2
AcDbLayout
  3
ObjectDBX Classes
 90
        0
280
     0
281
     0
  0
ENDSEC
  0
SECTION
  2
TABLES
  0
TABLE
  2
VPORT
  5
8
330
0
100
AcDbSymbolTable
 70
     1
  0
VPORT
  5
29
330
8
100
AcDbSymbolTableRecord
100
AcDbViewportTableRecord
  2
*Active
 70
     0
 10
0.0
 20
0.0
 11
1.0
 21
1.0
 12
8.5
 22
5.5
 13
0.0
 23
0.0
 14
0.5
 24
0.5
 15
0.5
 25
0.5
 16
0.0
 26
0.0
 36
1.0
 17
0.0
 27
0.0
 37
0.0
 40
11.0
 41
1.5454545455
 42
50.0
 43
0.0
 44
0.0
 50
0.0
 51
0.0
 71
     0
 72
  2000
 73
     1
 74
     3
 75
     0
 76
     0
 77
     0
 78
     0
281
     0
 65
     1
110
0.0
120
0.0
130
0.0
111
1.0
121
0.0
131
0.0
112
0.0
122
1.0
132
0.0
 79
     0
146
0.0
  0
ENDTAB
  0
TABLE
  2
LTYPE
  5
5
330
0
100
AcDbSymbolTable
 70
     6
  0
LTYPE
  5
14
330
5
100
AcDbSymbolTableRecord
100
AcDbLinetypeTableRecord
  2
ByBlock
 70
     0
  3

 72
    65
 73
     0
 40
0.0
  0
LTYPE
  5
15
330
5
100
AcDbSymbolTableRecord
100
AcDbLinetypeTableRecord
  2
ByLayer
 70
     0
  3

 72
    65
 73
     0
 40
0.0
  0
LTYPE
  5
16
330
5
100
AcDbSymbolTableRecord
100
AcDbLinetypeTableRecord
  2
Continuous
 70
     0
  3
Solid line
 72
    65
 73
     0
 40
0.0
  0
LTYPE
  5
5D
330
5
100
AcDbSymbolTableRecord
100
AcDbLinetypeTableRecord
  2
HIDDEN
 70
     0
  3
Hidden __ __ __ __ __ __ __ __ __ __ __ __ __ __
 72
    65
 73
     2
 40
0.075
 49
0.05
 74
     0
 49
-0.025
 74
     0
  0
LTYPE
  5
5E
330
5
100
AcDbSymbolTableRecord
100
AcDbLinetypeTableRecord
  2
PHANTOM
 70
     0
  3
Phantom ______  __  __  ______  __  __  ______
 72
    65
 73
     6
 40
0.5
 49
0.25
 74
     0
 49
-0.05
 74
     0
 49
0.05
 74
     0
 49
-0.05
 74
     0
 49
0.05
 74
     0
 49
-0.05
 74
     0
  0
LTYPE
  5
5F
330
5
100
AcDbSymbolTableRecord
100
AcDbLinetypeTableRecord
  2
CENTER
 70
     0
  3
Center ____ _ ____ _ ____ _ ____ _ ____ _ ____
 72
    65
 73
     4
 40
0.4
 49
0.25
 74
     0
 49
-0.05
 74
     0
 49
0.05
 74
     0
 49
-0.05
 74
     0
  0
LTYPE
  5
60
330
5
100
AcDbSymbolTableRecord
100
AcDbLinetypeTableRecord
  2
CENTERX2
 70
     0
  3
Center (2x) ________  __  ________  __  _____
 72
    65
 73
     4
 40
0.8
 49
0.5
 74
     0
 49
-0.1
 74
     0
 49
0.1
 74
     0
 49
-0.1
 74
     0
  0
LTYPE
  5
61
330
5
100
AcDbSymbolTableRecord
100
AcDbLinetypeTableRecord
  2
DOT2
 70
     0
  3
Dot (.5x) ........................................
 72
    65
 73
     2
 40
0.025
 49
0.0
 74
     0
 49
-0.025
 74
     0
  0
ENDTAB
  0
TABLE
  2
LAYER
  5
2
330
0
100
AcDbSymbolTable
 70
     1
  0
LAYER
  5
10
330
2
100
AcDbSymbolTableRecord
100
AcDbLayerTableRecord
  2
0
 70
     0
 62
     7
  6
Continuous
370
    -3
390
F
  0
ENDTAB
  0
TABLE
  2
STYLE
  5
3
330
0
100
AcDbSymbolTable
 70
     2
  0
STYLE
  5
11
330
3
100
AcDbSymbolTableRecord
100
AcDbTextStyleTableRecord
  2
Standard
 70
     0
 40
0.0
 41
1.0
 50
0.0
 71
     0
 42
0.2
  3
txt
  4

  0
STYLE
  5
75
330
3
100
AcDbSymbolTableRecord
100
AcDbTextStyleTableRecord
  2
SLDTEXTSTYLE0
 70
     0
 40
0.0
 41
0.75
 50
0.0
 71
     0
 42
0.2
  3
TXT
  4

  0
ENDTAB
  0
TABLE
  2
VIEW
  5
6
330
0
100
AcDbSymbolTable
 70
     0
  0
ENDTAB
  0
TABLE
  2
UCS
  5
7
330
0
100
AcDbSymbolTable
 70
     0
  0
ENDTAB
  0
TABLE
  2
APPID
  5
9
330
0
100
AcDbSymbolTable
 70
     1
  0
APPID
  5
12
330
9
100
AcDbSymbolTableRecord
100
AcDbRegAppTableRecord
  2
ACAD
 70
     0
  0
ENDTAB
  0
TABLE
  2
DIMSTYLE
  5
A
330
0
100
AcDbSymbolTable
 70
     5
100
AcDbDimStyleTable
  0
DIMSTYLE
105
27
330
A
100
AcDbSymbolTableRecord
100
AcDbDimStyleTableRecord
  2
Standard
 70
     0
340
11
  0
DIMSTYLE
105
2BD
102
{ACAD_REACTORS
330
2BC
330
2CF
102
}
330
A
100
AcDbSymbolTableRecord
100
AcDbDimStyleTableRecord
  2
SLDDIMSTYLE0
 70
     0
 41
0.13
 44
0.0
 45
0.000000001
 78
    12
140
0.125
147
0.03125
148
0.000000001
170
     1
173
     1
271
     3
272
     3
284
    12
340
75
  0
DIMSTYLE
105
34E
102
{ACAD_REACTORS
330
34D
102
}
330
A
100
AcDbSymbolTableRecord
100
AcDbDimStyleTableRecord
  2
SLDDIMSTYLE1
 70
     0
 41
0.13
 44
0.0
 45
0.000000001
 78
     4
140
0.125
147
0.03125
148
0.000000001
170
     1
173
     1
271
     3
272
     3
284
    12
340
75
  0
DIMSTYLE
105
361
102
{ACAD_REACTORS
330
360
102
}
330
A
100
AcDbSymbolTableRecord
100
AcDbDimStyleTableRecord
  2
SLDDIMSTYLE2
 70
     0
 41
0.13
 44
0.0
 45
0.000000001
 78
    12
140
0.125
147
0.03125
148
0.000000001
170
     1
173
     1
271
     3
272
     3
284
    12
340
75
  0
DIMSTYLE
105
4EB
330
A
100
AcDbSymbolTableRecord
100
AcDbDimStyleTableRecord
  2
SLDDIMSTYLE3
 70
     0
 41
0.13
 44
0.0
 45
0.000000001
140
0.13
147
0.0325
173
     1
271
     0
272
     0
340
11
  0
ENDTAB
  0
TABLE
  2
BLOCK_RECORD
  5
1
330
0
100
AcDbSymbolTable
 70
    11
  0
BLOCK_RECORD
  5
1F
330
1
100
AcDbSymbolTableRecord
100
AcDbBlockTableRecord
  2
*Model_Space
340
22
  0
BLOCK_RECORD
  5
1B
330
1
100
AcDbSymbolTableRecord
100
AcDbBlockTableRecord
  2
*Paper_Space
340
1E
  0
BLOCK_RECORD
  5
23
330
1
100
AcDbSymbolTableRecord
100
AcDbBlockTableRecord
  2
*Paper_Space0
340
26
  0
BLOCK_RECORD
  5
72
330
1
100
AcDbSymbolTableRecord
100
AcDbBlockTableRecord
  2
SW_NOTE_0
340
0
102
{BLKREFS
331
79
102
}
  0
BLOCK_RECORD
  5
7D
330
1
100
AcDbSymbolTableRecord
100
AcDbBlockTableRecord
  2
SW_NOTE_1
340
0
102
{BLKREFS
331
82
102
}
  0
BLOCK_RECORD
  5
83
330
1
100
AcDbSymbolTableRecord
100
AcDbBlockTableRecord
  2
SW_NOTE_2
340
0
102
{BLKREFS
331
88
102
}
  0
BLOCK_RECORD
  5
89
330
1
100
AcDbSymbolTableRecord
100
AcDbBlockTableRecord
  2
SW_NOTE_3
340
0
102
{BLKREFS
331
8E
102
}
  0
BLOCK_RECORD
  5
2BE
330
1
100
AcDbSymbolTableRecord
100
AcDbBlockTableRecord
  2
*D5
340
0
  0
BLOCK_RECORD
  5
2D0
330
1
100
AcDbSymbolTableRecord
100
AcDbBlockTableRecord
  2
*D6
340
0
  0
BLOCK_RECORD
  5
34F
330
1
100
AcDbSymbolTableRecord
100
AcDbBlockTableRecord
  2
*D7
340
0
  0
BLOCK_RECORD
  5
362
330
1
100
AcDbSymbolTableRecord
100
AcDbBlockTableRecord
  2
*D8
340
0
  0
BLOCK_RECORD
  5
373
330
1
100
AcDbSymbolTableRecord
100
AcDbBlockTableRecord
  2
SW_NOTE_4
340
0
102
{BLKREFS
331
378
102
}
  0
BLOCK_RECORD
  5
4E5
330
1
100
AcDbSymbolTableRecord
100
AcDbBlockTableRecord
  2
SW_NOTE_5
340
0
102
{BLKREFS
331
4EA
102
}
  0
ENDTAB
  0
ENDSEC
  0
SECTION
  2
BLOCKS
  0
BLOCK
  5
20
330
1F
100
AcDbEntity
  8
0
100
AcDbBlockBegin
  2
*Model_Space
 70
     0
 10
0.0
 20
0.0
 30
0.0
  3
*Model_Space
  1

  0
ENDBLK
  5
21
330
1F
100
AcDbEntity
  8
0
100
AcDbBlockEnd
  0
BLOCK
  5
1C
330
1B
100
AcDbEntity
 67
     1
  8
0
100
AcDbBlockBegin
  2
*Paper_Space
 70
     0
 10
0.0
 20
0.0
 30
0.0
  3
*Paper_Space
  1

  0
ENDBLK
  5
1D
330
1B
100
AcDbEntity
 67
     1
  8
0
100
AcDbBlockEnd
  0
BLOCK
  5
24
330
23
100
AcDbEntity
  8
0
100
AcDbBlockBegin
  2
*Paper_Space0
 70
     0
 10
0.0
 20
0.0
 30
0.0
  3
*Paper_Space0
  1

  0
ENDBLK
  5
25
330
23
100
AcDbEntity
  8
0
100
AcDbBlockEnd
  0
BLOCK
  5
73
330
72
100
AcDbEntity
  8
0
100
AcDbBlockBegin
  2
SW_NOTE_0
 70
     0
 10
0.0
 20
0.0
 30
0.0
  3
SW_NOTE_0
  1

  0
MTEXT
  5
76
330
72
100
AcDbEntity
  8
0
  6
Continuous
 62
     0
370
     0
100
AcDbMText
 10
0.0
 20
0.1611334675
 30
0.0
 40
0.125
 41
0.0
 71
     1
 72
     1
  1
MATERIAL:
  7
SLDTEXTSTYLE0
 73
     1
 44
1.0
  0
MTEXT
  5
77
330
72
100
AcDbEntity
  8
0
  6
Continuous
 62
     0
370
     0
100
AcDbMText
 10
0.0
 20
-0.003236607
 30
0.0
 40
0.125
 41
0.0
 71
     1
 72
     1
  1
ABS, BLACK, UL94V0
  7
SLDTEXTSTYLE0
 73
     1
 44
1.0
  0
MTEXT
  5
78
330
72
100
AcDbEntity
  8
0
  6
Continuous
 62
     0
370
     0
100
AcDbMText
 10
0.0
 20
-0.3319767561
 30
0.0
 40
0.125
 41
0.0
 71
     1
 72
     1
  1
MAR RESISTANT TEXTURED SURFACE
  7
SLDTEXTSTYLE0
 73
     1
 44
1.0
  0
ENDBLK
  5
74
330
72
100
AcDbEntity
  8
0
100
AcDbBlockEnd
  0
BLOCK
  5
7E
330
7D
100
AcDbEntity
  8
0
100
AcDbBlockBegin
  2
SW_NOTE_1
 70
     0
 10
0.0
 20
0.0
 30
0.0
  3
SW_NOTE_1
  1

  0
MTEXT
  5
80
330
7D
100
AcDbEntity
  8
0
  6
Continuous
 62
     0
370
     0
100
AcDbMText
 10
0.0
 20
0.1611334675
 30
0.0
 40
0.125
 41
0.0
 71
     1
 72
     1
  1
PART
  7
SLDTEXTSTYLE0
 73
     1
 44
1.0
  0
MTEXT
  5
81
330
7D
100
AcDbEntity
  8
0
  6
Continuous
 62
     0
370
     0
100
AcDbMText
 10
-0.04660373
 20
-0.003236607
 30
0.0
 40
0.125
 41
0.0
 71
     1
 72
     1
  1
NAME
  7
SLDTEXTSTYLE0
 73
     1
 44
1.0
  0
ENDBLK
  5
7F
330
7D
100
AcDbEntity
  8
0
100
AcDbBlockEnd
  0
BLOCK
  5
84
330
83
100
AcDbEntity
  8
0
100
AcDbBlockBegin
  2
SW_NOTE_2
 70
     0
 10
0.0
 20
0.0
 30
0.0
  3
SW_NOTE_2
  1

  0
MTEXT
  5
86
330
83
100
AcDbEntity
  8
0
  6
Continuous
 62
     0
370
     0
100
AcDbMText
 10
0.0
 20
0.1611334675
 30
0.0
 40
0.125
 41
0.0
 71
     1
 72
     1
  1
PART
  7
SLDTEXTSTYLE0
 73
     1
 44
1.0
  0
MTEXT
  5
87
330
83
100
AcDbEntity
  8
0
  6
Continuous
 62
     0
370
     0
100
AcDbMText
 10
0.0583767381
 20
-0.003236607
 30
0.0
 40
0.125
 41
0.0
 71
     1
 72
     1
  1
No.
  7
SLDTEXTSTYLE0
 73
     1
 44
1.0
  0
ENDBLK
  5
85
330
83
100
AcDbEntity
  8
0
100
AcDbBlockEnd
  0
BLOCK
  5
8A
330
89
100
AcDbEntity
  8
0
100
AcDbBlockBegin
  2
SW_NOTE_3
 70
     0
 10
0.0
 20
0.0
 30
0.0
  3
SW_NOTE_3
  1

  0
MTEXT
  5
8C
330
89
100
AcDbEntity
  8
0
  6
Continuous
 62
     0
370
     0
100
AcDbMText
 10
0.0
 20
0.1611334675
 30
0.0
 40
0.125
 41
0.0
 71
     1
 72
     1
  1
REVISION
  7
SLDTEXTSTYLE0
 73
     1
 44
1.0
  0
MTEXT
  5
8D
330
89
100
AcDbEntity
  8
0
  6
Continuous
 62
     0
370
     0
100
AcDbMText
 10
0.1562282986
 20
-0.003236607
 30
0.0
 40
0.125
 41
0.0
 71
     1
 72
     1
  1
DATE
  7
SLDTEXTSTYLE0
 73
     1
 44
1.0
  0
ENDBLK
  5
8B
330
89
100
AcDbEntity
  8
0
100
AcDbBlockEnd
  0
BLOCK
  5
2BF
330
2BE
100
AcDbEntity
  8
0
100
AcDbBlockBegin
  2
*D5
 70
     1
 10
0.0
 20
0.0
 30
0.0
  3
*D5
  1

  0
SOLID
  5
2C1
330
2BE
100
AcDbEntity
  8
0
  6
Continuous
 62
     7
370
     0
100
AcDbTrace
 10
7.6620557017
 20
8.658952731
 30
0.0
 11
7.6420557017
 21
8.528952731
 31
0.0
 12
7.6820557017
 22
8.528952731
 32
0.0
 13
7.6820557017
 23
8.528952731
 33
0.0
  0
SOLID
  5
2C2
330
2BE
100
AcDbEntity
  8
0
  6
Continuous
 62
     7
370
     0
100
AcDbTrace
 10
7.6620557017
 20
6.573952731
 30
0.0
 11
7.6820557017
 21
6.703952731
 31
0.0
 12
7.6420557017
 22
6.703952731
 32
0.0
 13
7.6420557017
 23
6.703952731
 33
0.0
  0
LINE
  5
2C3
330
2BE
100
AcDbEntity
  8
0
  6
Continuous
 62
     7
370
     0
100
AcDbLine
 10
7.4035055453
 20
7.509289288
 30
0.0
 11
7.4035055453
 21
7.3406986706
 31
0.0
  0
LINE
  5
2C4
330
2BE
100
AcDbEntity
  8
0
  6
Continuous
 62
     7
370
     0
100
AcDbLine
 10
7.4035055453
 20
7.3406986706
 30
0.0
 11
7.4288800961
 21
7.3406986706
 31
0.0
  0
LINE
  5
2C5
330
2BE
100
AcDbEntity
  8
0
  6
Continuous
 62
     7
370
     0
100
AcDbLine
 10
7.4035055453
 20
7.509289288
 30
0.0
 11
7.4288800961
 21
7.509289288
 31
0.0
  0
LINE
  5
2C6
330
2BE
100
AcDbEntity
  8
0
  6
Continuous
 62
     7
370
     0
100
AcDbLine
 10
7.9206058581
 20
7.509289288
 30
0.0
 11
7.9206058581
 21
7.3406986706
 31
0.0
  0
LINE
  5
2C7
330
2BE
100
AcDbEntity
  8
0
  6
Continuous
 62
     7
370
     0
100
AcDbLine
 10
7.9206058581
 20
7.3406986706
 30
0.0
 11
7.8952313073
 21
7.3406986706
 31
0.0
  0
LINE
  5
2C8
330
2BE
100
AcDbEntity
  8
0
  6
Continuous
 62
     7
370
     0
100
AcDbLine
 10
7.9206058581
 20
7.509289288
 30
0.0
 11
7.8952313073
 21
7.509289288
 31
0.0
  0
LINE
  5
2C9
330
2BE
100
AcDbEntity
  8
0
  6
Continuous
 62
     7
370
     0
100
AcDbLine
 10
5.8347318799
 20
8.658952731
 30
0.0
 11
7.7870557017
 21
8.658952731
 31
0.0
  0
LINE
  5
2CA
330
2BE
100
AcDbEntity
  8
0
  6
Continuous
 62
     7
370
     0
100
AcDbLine
 10
5.8347318799
 20
6.573952731
 30
0.0
 11
7.7870557017
 21
6.573952731
 31
0.0
  0
LINE
  5
2CB
330
2BE
100
AcDbEntity
  8
0
  6
Continuous
 62
     7
370
     0
100
AcDbLine
 10
7.6620557017
 20
8.658952731
 30
0.0
 11
7.6620557017
 21
7.7225068335
 31
0.0
  0
LINE
  5
2CC
330
2BE
100
AcDbEntity
  8
0
  6
Continuous
 62
     7
370
     0
100
AcDbLine
 10
7.6620557017
 20
6.573952731
 30
0.0
 11
7.6620557017
 21
7.3258230279
 31
0.0
  0
MTEXT
  5
2CD
330
2BE
100
AcDbEntity
  8
0
  6
Continuous
 62
     7
370
     0
100
AcDbMText
 10
7.4542546468
 20
7.6852984119
 30
0.0
 40
0.125
 41
0.0
 71
     1
 72
     1
  1
2.085
  7
SLDTEXTSTYLE0
 73
     1
 44
1.0
  0
MTEXT
  5
2CE
330
2BE
100
AcDbEntity
  8
0
  6
Continuous
 62
     7
370
     0
100
AcDbMText
 10
7.4542546468
 20
7.4869565091
 30
0.0
 40
0.125
 41
0.0
 71
     1
 72
     1
  1
52.96
  7
SLDTEXTSTYLE0
 73
     1
 44
1.0
  0
ENDBLK
  5
2C0
330
2BE
100
AcDbEntity
  8
0
100
AcDbBlockEnd
  0
BLOCK
  5
2D1
330
2D0
100
AcDbEntity
  8
0
100
AcDbBlockBegin
  2
*D6
 70
     1
 10
0.0
 20
0.0
 30
0.0
  3
*D6
  1

  0
SOLID
  5
2D3
330
2D0
100
AcDbEntity
  8
0
  6
Continuous
 62
     7
370
     0
100
AcDbTrace
 10
2.8036427747
 20
5.5929477181
 30
0.0
 11
2.9336427747
 21
5.5729477181
 31
0.0
 12
2.9336427747
 22
5.6129477181
 32
0.0
 13
2.9336427747
 23
5.6129477181
 33
0.0
  0
SOLID
  5
2D4
330
2D0
100
AcDbEntity
  8
0
  6
Continuous
 62
     7
370
     0
100
AcDbTrace
 10
5.8896427747
 20
5.5929477181
 30
0.0
 11
5.7596427747
 21
5.6129477181
 31
0.0
 12
5.7596427747
 22
5.5729477181
 32
0.0
 13
5.7596427747
 23
5.5729477181
 33
0.0
  0
LINE
  5
2D5
330
2D0
100
AcDbEntity
  8
0
  6
Continuous
 62
     7
370
     0
100
AcDbLine
 10
4.1159054514
 20
5.5780720754
 30
0.0
 11
4.1159054514
 21
5.409481458
 31
0.0
  0
LINE
  5
2D6
330
2D0
100
AcDbEntity
  8
0
  6
Continuous
 62
     7
370
     0
100
AcDbLine
 10
4.1159054514
 20
5.409481458
 30
0.0
 11
4.1412800022
 21
5.409481458
 31
0.0
  0
LINE
  5
2D7
330
2D0
100
AcDbEntity
  8
0
  6
Continuous
 62
     7
370
     0
100
AcDbLine
 10
4.1159054514
 20
5.5780720754
 30
0.0
 11
4.1412800022
 21
5.5780720754
 31
0.0
  0
LINE
  5
2D8
330
2D0
100
AcDbEntity
  8
0
  6
Continuous
 62
     7
370
     0
100
AcDbLine
 10
4.6330057642
 20
5.5780720754
 30
0.0
 11
4.6330057642
 21
5.409481458
 31
0.0
  0
LINE
  5
2D9
330
2D0
100
AcDbEntity
  8
0
  6
Continuous
 62
     7
370
     0
100
AcDbLine
 10
4.6330057642
 20
5.409481458
 30
0.0
 11
4.6076312135
 21
5.409481458
 31
0.0
  0
LINE
  5
2DA
330
2D0
100
AcDbEntity
  8
0
  6
Continuous
 62
     7
370
     0
100
AcDbLine
 10
4.6330057642
 20
5.5780720754
 30
0.0
 11
4.6076312135
 21
5.5780720754
 31
0.0
  0
LINE
  5
2DB
330
2D0
100
AcDbEntity
  8
0
  6
Continuous
 62
     7
370
     0
100
AcDbLine
 10
2.8036427747
 20
6.6288317273
 30
0.0
 11
2.8036427747
 21
5.4679477181
 31
0.0
  0
LINE
  5
2DC
330
2D0
100
AcDbEntity
  8
0
  6
Continuous
 62
     7
370
     0
100
AcDbLine
 10
5.8896427747
 20
6.6288317273
 30
0.0
 11
5.8896427747
 21
5.4679477181
 31
0.0
  0
LINE
  5
2DD
330
2D0
100
AcDbEntity
  8
0
  6
Continuous
 62
     7
370
     0
100
AcDbLine
 10
2.8036427747
 20
5.5929477181
 30
0.0
 11
3.9773193354
 21
5.5929477181
 31
0.0
  0
LINE
  5
2DE
330
2D0
100
AcDbEntity
  8
0
  6
Continuous
 62
     7
370
     0
100
AcDbLine
 10
5.8896427747
 20
5.5929477181
 30
0.0
 11
4.7715918802
 21
5.5929477181
 31
0.0
  0
MTEXT
  5
2DF
330
2D0
100
AcDbEntity
  8
0
  6
Continuous
 62
     7
370
     0
100
AcDbMText
 10
4.166654553
 20
5.7540811993
 30
0.0
 40
0.125
 41
0.0
 71
     1
 72
     1
  1
3.086
  7
SLDTEXTSTYLE0
 73
     1
 44
1.0
  0
MTEXT
  5
2E0
330
2D0
100
AcDbEntity
  8
0
  6
Continuous
 62
     7
370
     0
100
AcDbMText
 10
4.166654553
 20
5.5557392965
 30
0.0
 40
0.125
 41
0.0
 71
     1
 72
     1
  1
78.38
  7
SLDTEXTSTYLE0
 73
     1
 44
1.0
  0
ENDBLK
  5
2D2
330
2D0
100
AcDbEntity
  8
0
100
AcDbBlockEnd
  0
BLOCK
  5
350
330
34F
100
AcDbEntity
  8
0
100
AcDbBlockBegin
  2
*D7
 70
     1
 10
0.0
 20
0.0
 30
0.0
  3
*D7
  1

  0
SOLID
  5
352
330
34F
100
AcDbEntity
  8
0
  6
Continuous
 62
     7
370
     0
100
AcDbTrace
 10
7.3657097511
 20
4.3196741052
 30
0.0
 11
7.3457097511
 21
4.1896741052
 31
0.0
 12
7.3857097511
 22
4.1896741052
 32
0.0
 13
7.3857097511
 23
4.1896741052
 33
0.0
  0
SOLID
  5
353
330
34F
100
AcDbEntity
  8
0
  6
Continuous
 62
     7
370
     0
100
AcDbTrace
 10
7.3657097511
 20
3.3196741052
 30
0.0
 11
7.3857097511
 21
3.4496741052
 31
0.0
 12
7.3457097511
 22
3.4496741052
 32
0.0
 13
7.3457097511
 23
3.4496741052
 33
0.0
  0
LINE
  5
354
330
34F
100
AcDbEntity
  8
0
  6
Continuous
 62
     7
370
     0
100
AcDbLine
 10
7.1071595948
 20
3.8219353072
 30
0.0
 11
7.1071595948
 21
3.6533446898
 31
0.0
  0
LINE
  5
355
330
34F
100
AcDbEntity
  8
0
  6
Continuous
 62
     7
370
     0
100
AcDbLine
 10
7.1071595948
 20
3.6533446898
 30
0.0
 11
7.1325341455
 21
3.6533446898
 31
0.0
  0
LINE
  5
356
330
34F
100
AcDbEntity
  8
0
  6
Continuous
 62
     7
370
     0
100
AcDbLine
 10
7.1071595948
 20
3.8219353072
 30
0.0
 11
7.1325341455
 21
3.8219353072
 31
0.0
  0
LINE
  5
357
330
34F
100
AcDbEntity
  8
0
  6
Continuous
 62
     7
370
     0
100
AcDbLine
 10
7.6242599075
 20
3.8219353072
 30
0.0
 11
7.6242599075
 21
3.6533446898
 31
0.0
  0
LINE
  5
358
330
34F
100
AcDbEntity
  8
0
  6
Continuous
 62
     7
370
     0
100
AcDbLine
 10
7.6242599075
 20
3.6533446898
 30
0.0
 11
7.5988853568
 21
3.6533446898
 31
0.0
  0
LINE
  5
359
330
34F
100
AcDbEntity
  8
0
  6
Continuous
 62
     7
370
     0
100
AcDbLine
 10
7.6242599075
 20
3.8219353072
 30
0.0
 11
7.5988853568
 21
3.8219353072
 31
0.0
  0
LINE
  5
35A
330
34F
100
AcDbEntity
  8
0
  6
Continuous
 62
     7
370
     0
100
AcDbLine
 10
4.3966427747
 20
4.3196741052
 30
0.0
 11
7.4907097511
 21
4.3196741052
 31
0.0
  0
LINE
  5
35B
330
34F
100
AcDbEntity
  8
0
  6
Continuous
 62
     7
370
     0
100
AcDbLine
 10
5.9396427747
 20
3.3196741052
 30
0.0
 11
7.4907097511
 21
3.3196741052
 31
0.0
  0
LINE
  5
35C
330
34F
100
AcDbEntity
  8
0
  6
Continuous
 62
     7
370
     0
100
AcDbLine
 10
7.3657097511
 20
4.3196741052
 30
0.0
 11
7.3657097511
 21
4.0351528527
 31
0.0
  0
LINE
  5
35D
330
34F
100
AcDbEntity
  8
0
  6
Continuous
 62
     7
370
     0
100
AcDbLine
 10
7.3657097511
 20
3.3196741052
 30
0.0
 11
7.3657097511
 21
3.6384690471
 31
0.0
  0
MTEXT
  5
35E
330
34F
100
AcDbEntity
  8
0
  6
Continuous
 62
     7
370
     0
100
AcDbMText
 10
7.1579086963
 20
3.9979444311
 30
0.0
 40
0.125
 41
0.0
 71
     1
 72
     1
  1
1.000
  7
SLDTEXTSTYLE0
 73
     1
 44
1.0
  0
MTEXT
  5
35F
330
34F
100
AcDbEntity
  8
0
  6
Continuous
 62
     7
370
     0
100
AcDbMText
 10
7.1579086963
 20
3.7996025283
 30
0.0
 40
0.125
 41
0.0
 71
     1
 72
     1
  1
25.40
  7
SLDTEXTSTYLE0
 73
     1
 44
1.0
  0
ENDBLK
  5
351
330
34F
100
AcDbEntity
  8
0
100
AcDbBlockEnd
  0
BLOCK
  5
363
330
362
100
AcDbEntity
  8
0
100
AcDbBlockBegin
  2
*D8
 70
     1
 10
0.0
 20
0.0
 30
0.0
  3
*D8
  1

  0
SOLID
  5
365
330
362
100
AcDbEntity
  8
0
  6
Continuous
 62
     7
370
     0
100
AcDbTrace
 10
6.640063687
 20
3.4031741052
 30
0.0
 11
6.620063687
 21
3.2731741052
 31
0.0
 12
6.660063687
 22
3.2731741052
 32
0.0
 13
6.660063687
 23
3.2731741052
 33
0.0
  0
SOLID
  5
366
330
362
100
AcDbEntity
  8
0
  6
Continuous
 62
     7
370
     0
100
AcDbTrace
 10
6.640063687
 20
4.2496740204
 30
0.0
 11
6.660063687
 21
4.3796740204
 31
0.0
 12
6.620063687
 22
4.3796740204
 32
0.0
 13
6.620063687
 23
4.3796740204
 33
0.0
  0
LINE
  5
367
330
362
100
AcDbEntity
  8
0
  6
Continuous
 62
     7
370
     0
100
AcDbLine
 10
6.3815135306
 20
3.8219353072
 30
0.0
 11
6.3815135306
 21
3.6533446898
 31
0.0
  0
LINE
  5
368
330
362
100
AcDbEntity
  8
0
  6
Continuous
 62
     7
370
     0
100
AcDbLine
 10
6.3815135306
 20
3.6533446898
 30
0.0
 11
6.4068880813
 21
3.6533446898
 31
0.0
  0
LINE
  5
369
330
362
100
AcDbEntity
  8
0
  6
Continuous
 62
     7
370
     0
100
AcDbLine
 10
6.3815135306
 20
3.8219353072
 30
0.0
 11
6.4068880813
 21
3.8219353072
 31
0.0
  0
LINE
  5
36A
330
362
100
AcDbEntity
  8
0
  6
Continuous
 62
     7
370
     0
100
AcDbLine
 10
6.8986138434
 20
3.8219353072
 30
0.0
 11
6.8986138434
 21
3.6533446898
 31
0.0
  0
LINE
  5
36B
330
362
100
AcDbEntity
  8
0
  6
Continuous
 62
     7
370
     0
100
AcDbLine
 10
6.8986138434
 20
3.6533446898
 30
0.0
 11
6.8732392926
 21
3.6533446898
 31
0.0
  0
LINE
  5
36C
330
362
100
AcDbEntity
  8
0
  6
Continuous
 62
     7
370
     0
100
AcDbLine
 10
6.8986138434
 20
3.8219353072
 30
0.0
 11
6.8732392926
 21
3.8219353072
 31
0.0
  0
LINE
  5
36D
330
362
100
AcDbEntity
  8
0
  6
Continuous
 62
     7
370
     0
100
AcDbLine
 10
5.8625431056
 20
3.4031741052
 30
0.0
 11
6.765063687
 21
3.4031741052
 31
0.0
  0
LINE
  5
36E
330
362
100
AcDbEntity
  8
0
  6
Continuous
 62
     7
370
     0
100
AcDbLine
 10
4.3966427728
 20
4.2496740204
 30
0.0
 11
6.765063687
 21
4.2496740204
 31
0.0
  0
LINE
  5
36F
330
362
100
AcDbEntity
  8
0
  6
Continuous
 62
     7
370
     0
100
AcDbLine
 10
6.640063687
 20
3.4031741052
 30
0.0
 11
6.640063687
 21
3.1531741052
 31
0.0
  0
LINE
  5
370
330
362
100
AcDbEntity
  8
0
  6
Continuous
 62
     7
370
     0
100
AcDbLine
 10
6.640063687
 20
4.2496740204
 30
0.0
 11
6.640063687
 21
4.4996740204
 31
0.0
  0
MTEXT
  5
371
330
362
100
AcDbEntity
  8
0
  6
Continuous
 62
     7
370
     0
100
AcDbMText
 10
6.4784323029
 20
3.9979444311
 30
0.0
 40
0.125
 41
0.0
 71
     1
 72
     1
  1
.846
  7
SLDTEXTSTYLE0
 73
     1
 44
1.0
  0
MTEXT
  5
372
330
362
100
AcDbEntity
  8
0
  6
Continuous
 62
     7
370
     0
100
AcDbMText
 10
6.4322626321
 20
3.7996025283
 30
0.0
 40
0.125
 41
0.0
 71
     1
 72
     1
  1
21.50
  7
SLDTEXTSTYLE0
 73
     1
 44
1.0
  0
ENDBLK
  5
364
330
362
100
AcDbEntity
  8
0
100
AcDbBlockEnd
  0
BLOCK
  5
374
330
373
100
AcDbEntity
  8
0
100
AcDbBlockBegin
  2
SW_NOTE_4
 70
     0
 10
0.0
 20
0.0
 30
0.0
  3
SW_NOTE_4
  1

  0
MTEXT
  5
376
330
373
100
AcDbEntity
  8
0
  6
Continuous
 62
     0
370
     0
100
AcDbMText
 10
0.0
 20
0.1611334675
 30
0.0
 40
0.125
 41
0.0
 71
     1
 72
     1
  1
SECTION C-C 
  7
SLDTEXTSTYLE0
 73
     1
 44
1.0
  0
MTEXT
  5
377
330
373
100
AcDbEntity
  8
0
  6
Continuous
 62
     0
370
     0
100
AcDbMText
 10
0.1128472564
 20
-0.003236607
 30
0.0
 40
0.125
 41
0.0
 71
     1
 72
     1
  1
SCALE 1 : 1
  7
SLDTEXTSTYLE0
 73
     1
 44
1.0
  0
ENDBLK
  5
375
330
373
100
AcDbEntity
  8
0
100
AcDbBlockEnd
  0
BLOCK
  5
4E6
330
4E5
100
AcDbEntity
  8
0
100
AcDbBlockBegin
  2
SW_NOTE_5
 70
     0
 10
0.0
 20
0.0
 30
0.0
  3
SW_NOTE_5
  1

  0
MTEXT
  5
4E8
330
4E5
100
AcDbEntity
  8
0
  6
Continuous
 62
     0
370
     0
100
AcDbMText
 10
-0.9332197513
 20
0.2251052333
 30
0.0
 40
0.125
 41
0.0
 71
     1
 72
     1
  1
(4) SCREWS
  7
SLDTEXTSTYLE0
 73
     1
 44
1.0
  0
MTEXT
  5
4E9
330
4E5
100
AcDbEntity
  8
0
  6
Continuous
 62
     0
370
     0
100
AcDbMText
 10
-0.9332197513
 20
0.0607351588
 30
0.0
 40
0.125
 41
0.0
 71
     1
 72
     1
  1
FURNISHED
  7
SLDTEXTSTYLE0
 73
     1
 44
1.0
  0
ENDBLK
  5
4E7
330
4E5
100
AcDbEntity
  8
0
100
AcDbBlockEnd
  0
ENDSEC
  0
SECTION
  2
ENTITIES
  0
LINE
  5
62
330
1F
100
AcDbEntity
  8
0
  6
Continuous
 62
     7
370
     0
100
AcDbLine
 10
0.3132516046
 20
10.7050731707
 30
0.0
 11
16.6892516046
 21
10.7050731707
 31
0.0
  0
LINE
  5
63
330
1F
100
AcDbEntity
  8
0
  6
Continuous
 62
     7
370
     0
100
AcDbLine
 10
16.6892516046
 20
0.3290731707
 30
0.0
 11
16.6892516046
 21
10.7050731707
 31
0.0
  0
LINE
  5
64
330
1F
100
AcDbEntity
  8
0
  6
Continuous
 62
     7
370
     0
100
AcDbLine
 10
16.6892516046
 20
0.3290731707
 30
0.0
 11
0.3132516046
 21
0.3290731707
 31
0.0
  0
LINE
  5
65
330
1F
100
AcDbEntity
  8
0
  6
Continuous
 62
     7
370
     0
100
AcDbLine
 10
0.3132516046
 20
10.7050731707
 30
0.0
 11
0.3132516046
 21
0.3290731707
 31
0.0
  0
LINE
  5
66
330
1F
100
AcDbEntity
  8
0
  6
Continuous
 62
     7
370
     0
100
AcDbLine
 10
0.2512516046
 20
10.7670731707
 30
0.0
 11
16.7512516046
 21
10.7670731707
 31
0.0
  0
LINE
  5
67
330
1F
100
AcDbEntity
  8
0
  6
Continuous
 62
     7
370
     0
100
AcDbLine
 10
16.7512516046
 20
0.2670731707
 30
0.0
 11
0.2512516046
 21
0.2670731707
 31
0.0
  0
LINE
  5
68
330
1F
100
AcDbEntity
  8
0
  6
Continuous
 62
     7
370
     0
100
AcDbLine
 10
0.2512516046
 20
10.7670731707
 30
0.0
 11
0.2512516046
 21
0.2670731707
 31
0.0
  0
LINE
  5
69
330
1F
100
AcDbEntity
  8
0
  6
Continuous
 62
     7
370
     0
100
AcDbLine
 10
16.7512516046
 20
0.2670731707
 30
0.0
 11
16.7512516046
 21
10.7670731707
 31
0.0
  0
LINE
  5
6A
330
1F
100
AcDbEntity
  8
0
  6
Continuous
 62
     7
370
     0
100
AcDbLine
 10
0.3132516046
 20
10.2990731707
 30
0.0
 11
16.6892516046
 21
10.2990731707
 31
0.0
  0
LINE
  5
6B
330
1F
100
AcDbEntity
  8
0
  6
Continuous
 62
     7
370
     0
100
AcDbLine
 10
1.0632516046
 20
10.7050731707
 30
0.0
 11
1.0632516046
 21
10.2990731707
 31
0.0
  0
LINE
  5
6C
330
1F
100
AcDbEntity
  8
0
  6
Continuous
 62
     7
370
     0
100
AcDbLine
 10
7.4392516046
 20
10.2990731707
 30
0.0
 11
7.4392516046
 21
10.7050731707
 31
0.0
  0
LINE
  5
6D
330
1F
100
AcDbEntity
  8
0
  6
Continuous
 62
     7
370
     0
100
AcDbLine
 10
7.5012516046
 20
10.2990731707
 30
0.0
 11
7.5012516046
 21
10.7050731707
 31
0.0
  0
LINE
  5
6E
330
1F
100
AcDbEntity
  8
0
  6
Continuous
 62
     7
370
     0
100
AcDbLine
 10
15.4392516046
 20
10.2990731707
 30
0.0
 11
15.4392516046
 21
10.7050731707
 31
0.0
  0
LINE
  5
6F
330
1F
100
AcDbEntity
  8
0
  6
Continuous
 62
     7
370
     0
100
AcDbLine
 10
8.2512516046
 20
10.2990731707
 30
0.0
 11
8.2512516046
 21
10.7050731707
 31
0.0
  0
LINE
  5
70
330
1F
100
AcDbEntity
  8
0
  6
Continuous
 62
     7
370
     0
100
AcDbLine
 10
14.6892516046
 20
10.2990731707
 30
0.0
 11
14.6892516046
 21
10.7050731707
 31
0.0
  0
LINE
  5
71
330
1F
100
AcDbEntity
  8
0
  6
Continuous
 62
     7
370
     0
100
AcDbLine
 10
14.6272516046
 20
10.2990731707
 30
0.0
 11
14.6272516046
 21
10.7050731707
 31
0.0
  0
INSERT
  5
79
330
1F
100
AcDbEntity
  8
0
  6
Continuous
 62
     7
370
     0
100
AcDbBlockReference
  2
SW_NOTE_0
 10
11.9769337269
 20
2.1551641004
 30
0.0
  0
MTEXT
  5
7A
330
1F
100
AcDbEntity
  8
0
  6
Continuous
 62
     7
370
     0
100
AcDbMText
 10
15.6450955361
 20
10.6093163441
 30
0.0
 40
0.1875
 41
0.0
 71
     1
 72
     1
  1
3-30-09
  7
SLDTEXTSTYLE0
 73
     1
 44
1.0
  0
MTEXT
  5
7B
330
1F
100
AcDbEntity
  8
0
  6
Continuous
 62
     7
370
     0
100
AcDbMText
 10
2.6860763387
 20
10.6658926349
 30
0.0
 40
0.1875
 41
0.0
 71
     1
 72
     1
  1
PLASTIBOX - STYLE M
  7
SLDTEXTSTYLE0
 73
     1
 44
1.0
  0
MTEXT
  5
7C
330
1F
100
AcDbEntity
  8
0
  6
Continuous
 62
     7
370
     0
100
AcDbMText
 10
10.6909071065
 20
10.5665799201
 30
0.0
 40
0.1875
 41
0.0
 71
     1
 72
     1
  1
PT-11850-PXX
  7
SLDTEXTSTYLE0
 73
     1
 44
1.0
  0
INSERT
  5
82
330
1F
100
AcDbEntity
  8
0
  6
Continuous
 62
     7
370
     0
100
AcDbBlockReference
  2
SW_NOTE_1
 10
0.4876391869
 20
10.5047600288
 30
0.0
  0
INSERT
  5
88
330
1F
100
AcDbEntity
  8
0
  6
Continuous
 62
     7
370
     0
100
AcDbBlockReference
  2
SW_NOTE_2
 10
7.6851148898
 20
10.500198242
 30
0.0
  0
INSERT
  5
8E
330
1F
100
AcDbEntity
  8
0
  6
Continuous
 62
     7
370
     0
100
AcDbBlockReference
  2
SW_NOTE_3
 10
14.7086386274
 20
10.5033835295
 30
0.0
  0
LWPOLYLINE
  5
8F
330
1F
100
AcDbEntity
  8
0
  6
Continuous
 62
     7
370
    15
100
AcDbPolyline
 90
       12
 70
   128
 43
0.0
 10
4.3466427747
 20
8.3092477425
 10
4.1853908779
 20
8.3095943843
 10
4.0241779673
 20
8.3119558805
 10
3.8682147495
 20
8.3177575906
 10
3.712787741
 20
8.3291559468
 10
3.6354677228
 20
8.3379495107
 10
3.558826388
 20
8.350047675
 10
3.5071462127
 20
8.3608724904
 10
3.456491726
 20
8.3749530594
 10
3.4079795975
 20
8.3936124747
 10
3.3620757958
 20
8.4196524639
 10
3.3228621333
 20
8.4534621724
  0
ARC
  5
90
330
1F
100
AcDbEntity
  8
0
  6
Continuous
 62
     7
370
    15
100
AcDbCircle
 10
2.9442507646
 20
8.1905847242
 30
0.0
 40
0.4609276565973462
100
AcDbArc
 50
34.7728941506
 51
60.8539837894
  0
ARC
  5
91
330
1F
100
AcDbEntity
  8
0
  6
Continuous
 62
     7
370
    15
100
AcDbCircle
 10
2.8828685145
 20
7.9195592079
 30
0.0
 40
0.7317430460873253
100
AcDbArc
 50
67.0034889704
 51
79.0321957824
  0
LINE
  5
92
330
1F
100
AcDbEntity
  8
0
  6
Continuous
 62
     7
370
    15
100
AcDbLine
 10
3.0813945155
 20
8.6379364172
 30
0.0
 11
3.0220880198
 21
8.6379364172
 31
0.0
  0
LWPOLYLINE
  5
93
330
1F
100
AcDbEntity
  8
0
  6
Continuous
 62
     7
370
    15
100
AcDbPolyline
 90
       21
 70
   128
 43
0.0
 10
3.0813945155
 20
8.6379364172
 10
3.1050711573
 20
8.6314905398
 10
3.1369941609
 20
8.6218261864
 10
3.1734037415
 20
8.6090527859
 10
3.2114202203
 20
8.5929676941
 10
3.2490072151
 20
8.5730029749
 10
3.2849849464
 20
8.5483877754
 10
3.3111722811
 20
8.5266015529
 10
3.3384762832
 20
8.5025654797
 10
3.3699448501
 20
8.4784324715
 10
3.407208667
 20
8.4572929921
 10
3.4489651036
 20
8.440570472
 10
3.4931686481
 20
8.4277914848
 10
3.5387226771
 20
8.4178943153
 10
3.5850627149
 20
8.4100453898
 10
3.7104400905
 20
8.3957736647
 10
3.8370817348
 20
8.3873373807
 10
3.964244478
 20
8.3823767204
 10
4.0916394988
 20
8.3797145368
 10
4.219124165
 20
8.3787202488
 10
4.3466427747
 20
8.3785708474
  0
LINE
  5
94
330
1F
100
AcDbEntity
  8
0
  6
Continuous
 62
     7
370
    15
100
AcDbLine
 10
4.3466427747
 20
8.3785708474
 30
0.0
 11
4.3466427747
 21
8.3092477425
 31
0.0
  0
LWPOLYLINE
  5
95
330
1F
100
AcDbEntity
  8
0
  6
Continuous
 62
     7
370
    15
100
AcDbPolyline
 90
       12
 70
   128
 43
0.0
 10
4.3466427747
 20
6.9236577194
 10
4.5078946715
 20
6.9233110776
 10
4.669107582
 20
6.9209495814
 10
4.8250707999
 20
6.9151478714
 10
4.9804978084
 20
6.9037495151
 10
5.0578178266
 20
6.8949559512
 10
5.1344591614
 20
6.8828577869
 10
5.1861393367
 20
6.8720329716
 10
5.2367938233
 20
6.8579524025
 10
5.2853059518
 20
6.8392929872
 10
5.3312097536
 20
6.813252998
 10
5.370423416
 20
6.7794432895
  0
ARC
  5
96
330
1F
100
AcDbEntity
  8
0
  6
Continuous
 62
     7
370
    15
100
AcDbCircle
 10
5.7090967356
 20
6.9982544396
 30
0.0
 40
0.403213029742726
100
AcDbArc
 50
212.865695675
 51
242.7611822649
  0
ARC
  5
97
330
1F
100
AcDbEntity
  8
0
  6
Continuous
 62
     7
370
    15
100
AcDbCircle
 10
5.807671544
 20
7.304353629
 30
0.0
 40
0.7223929989791336
100
AcDbArc
 50
246.9252733691
 51
259.1102746936
  0
LINE
  5
98
330
1F
100
AcDbEntity
  8
0
  6
Continuous
 62
     7
370
    15
100
AcDbLine
 10
5.6711975296
 20
6.5949690447
 30
0.0
 11
5.6118910339
 21
6.5949690447
 31
0.0
  0
LWPOLYLINE
  5
99
330
1F
100
AcDbEntity
  8
0
  6
Continuous
 62
     7
370
    15
100
AcDbPolyline
 90
       21
 70
   128
 43
0.0
 10
5.6118910339
 20
6.5949690447
 10
5.5882143921
 20
6.6014149221
 10
5.5562913885
 20
6.6110792755
 10
5.5198818079
 20
6.623852676
 10
5.4818653291
 20
6.6399377678
 10
5.4442783342
 20
6.6599024871
 10
5.408300603
 20
6.6845176865
 10
5.3821132682
 20
6.706303909
 10
5.3548092662
 20
6.7303399822
 10
5.3233406993
 20
6.7544729905
 10
5.2860768824
 20
6.7756124698
 10
5.2443204458
 20
6.79233499
 10
5.2001169013
 20
6.8051139772
 10
5.1545628723
 20
6.8150111466
 10
5.1082228344
 20
6.8228600722
 10
4.9828454589
 20
6.8371317972
 10
4.8562038146
 20
6.8455680812
 10
4.7290410714
 20
6.8505287415
 10
4.6016460506
 20
6.8531909251
 10
4.4741613844
 20
6.8541852131
 10
4.3466427747
 20
6.8543346145
  0
LINE
  5
9A
330
1F
100
AcDbEntity
  8
0
  6
Continuous
 62
     7
370
    15
100
AcDbLine
 10
4.3466427747
 20
6.8543346145
 30
0.0
 11
4.3466427747
 21
6.9236577194
 31
0.0
  0
LINE
  5
9B
330
1F
100
AcDbEntity
  8
0
  6
Continuous
 62
     7
370
    15
100
AcDbLine
 10
3.0220880198
 20
6.5949690447
 30
0.0
 11
3.0813945155
 21
6.5949690447
 31
0.0
  0
ARC
  5
9C
330
1F
100
AcDbEntity
  8
0
  6
Continuous
 62
     7
370
    15
100
AcDbCircle
 10
2.8828685145
 20
7.313346254
 30
0.0
 40
0.731743046087277
100
AcDbArc
 50
280.9678042176
 51
292.9965110296
  0
ARC
  5
9D
330
1F
100
AcDbEntity
  8
0
  6
Continuous
 62
     7
370
    15
100
AcDbCircle
 10
2.9442507646
 20
7.0423207377
 30
0.0
 40
0.4609276565967489
100
AcDbArc
 50
299.1460162106
 51
325.2271058495
  0
LWPOLYLINE
  5
9E
330
1F
100
AcDbEntity
  8
0
  6
Continuous
 62
     7
370
    15
100
AcDbPolyline
 90
       12
 70
   128
 43
0.0
 10
4.3466427747
 20
6.9236577194
 10
4.1850364457
 20
6.9233084941
 10
4.023469508
 20
6.9209318314
 10
3.8676423314
 20
6.9151178149
 10
3.7123525002
 20
6.9037070736
 10
3.6496658648
 20
6.8971561055
 10
3.5869619083
 20
6.8887799795
 10
3.5251488412
 20
6.8772310454
 10
3.4651348736
 20
6.8611616527
 10
3.4078282158
 20
6.8392241511
 10
3.3620082718
 20
6.8132072267
 10
3.3228621333
 20
6.7794432895
  0
LWPOLYLINE
  5
9F
330
1F
100
AcDbEntity
  8
0
  6
Continuous
 62
     7
370
    15
100
AcDbPolyline
 90
       21
 70
   128
 43
0.0
 10
3.0813945155
 20
6.5949690447
 10
3.1050711573
 20
6.6014149221
 10
3.1369941609
 20
6.6110792755
 10
3.1734037415
 20
6.623852676
 10
3.2114202203
 20
6.6399377678
 10
3.2490072151
 20
6.6599024871
 10
3.2849849464
 20
6.6845176865
 10
3.3111722811
 20
6.706303909
 10
3.3384762832
 20
6.7303399822
 10
3.3699448501
 20
6.7544729905
 10
3.407208667
 20
6.7756124698
 10
3.4489651036
 20
6.79233499
 10
3.4931686481
 20
6.8051139772
 10
3.5387226771
 20
6.8150111466
 10
3.5850627149
 20
6.8228600722
 10
3.7104400905
 20
6.8371317972
 10
3.8370817348
 20
6.8455680812
 10
3.964244478
 20
6.8505287415
 10
4.0916394988
 20
6.8531909251
 10
4.219124165
 20
6.8541852131
 10
4.3466427747
 20
6.8543346145
  0
ARC
  5
A0
330
1F
100
AcDbEntity
  8
0
  6
Continuous
 62
     7
370
    15
100
AcDbCircle
 10
2.7412024119
 20
11.1245889413
 30
0.0
 40
4.383903472830561
100
AcDbArc
 50
273.490889072
 51
277.6245418569
  0
ARC
  5
A1
330
1F
100
AcDbEntity
  8
0
  6
Continuous
 62
     7
370
    15
100
AcDbCircle
 10
-16.0486484186
 20
7.6772219396
 30
0.0
 40
19.07938699117068
100
AcDbArc
 50
357.2108875533
 51
359.8175085464
  0
LINE
  5
A2
330
1F
100
AcDbEntity
  8
0
  6
Continuous
 62
     7
370
    15
100
AcDbLine
 10
3.0306417952
 20
7.616452731
 30
0.0
 11
4.3466427747
 21
7.616452731
 31
0.0
  0
LINE
  5
A3
330
1F
100
AcDbEntity
  8
0
  6
Continuous
 62
     7
370
    15
100
AcDbLine
 10
4.3466427747
 20
7.616452731
 30
0.0
 11
4.3466427747
 21
6.9236577194
 31
0.0
  0
ARC
  5
A4
330
1F
100
AcDbEntity
  8
0
  6
Continuous
 62
     7
370
    15
100
AcDbCircle
 10
24.741933968
 20
7.6772219396
 30
0.0
 40
19.0793869911701
100
AcDbArc
 50
180.1824914536
 51
182.7891124467
  0
ARC
  5
A5
330
1F
100
AcDbEntity
  8
0
  6
Continuous
 62
     7
370
    15
100
AcDbCircle
 10
5.9324021533
 20
10.9224647897
 30
0.0
 40
4.180962648863519
100
AcDbArc
 50
262.27527816
 51
266.6096631823
  0
LINE
  5
A6
330
1F
100
AcDbEntity
  8
0
  6
Continuous
 62
     7
370
    15
100
AcDbLine
 10
5.6626437542
 20
7.616452731
 30
0.0
 11
4.3466427747
 21
7.616452731
 31
0.0
  0
ARC
  5
A7
330
1F
100
AcDbEntity
  8
0
  6
Continuous
 62
     7
370
    15
100
AcDbCircle
 10
-16.0486484186
 20
7.5556835223
 30
0.0
 40
19.07938699117045
100
AcDbArc
 50
0.1824914536
 51
2.7891124467
  0
ARC
  5
A8
330
1F
100
AcDbEntity
  8
0
  6
Continuous
 62
     7
370
    15
100
AcDbCircle
 10
2.760883396
 20
4.3104406722
 30
0.0
 40
4.180962648861449
100
AcDbArc
 50
82.27527816
 51
86.6096631823
  0
LINE
  5
A9
330
1F
100
AcDbEntity
  8
0
  6
Continuous
 62
     7
370
    15
100
AcDbLine
 10
4.3466427747
 20
7.616452731
 30
0.0
 11
4.3466427747
 21
8.3092477425
 31
0.0
  0
LWPOLYLINE
  5
AA
330
1F
100
AcDbEntity
  8
0
  6
Continuous
 62
     7
370
    15
100
AcDbPolyline
 90
       12
 70
   128
 43
0.0
 10
4.3466427747
 20
8.3092477425
 10
4.5082491037
 20
8.3095969678
 10
4.6698160414
 20
8.3119736305
 10
4.825643218
 20
8.317787647
 10
4.9809330492
 20
8.3291983883
 10
5.058183784
 20
8.3379982521
 10
5.1347549659
 20
8.3501027285
 10
5.1863883829
 20
8.3609324639
 10
5.2369949658
 20
8.3750179468
 10
5.2854573335
 20
8.3936813108
 10
5.3312772776
 20
8.4196982352
 10
5.370423416
 20
8.4534621724
  0
ARC
  5
AB
330
1F
100
AcDbEntity
  8
0
  6
Continuous
 62
     7
370
    15
100
AcDbCircle
 10
5.9520831375
 20
4.1083165206
 30
0.0
 40
4.383903472830044
100
AcDbArc
 50
93.490889072
 51
97.6245418569
  0
ARC
  5
AC
330
1F
100
AcDbEntity
  8
0
  6
Continuous
 62
     7
370
    15
100
AcDbCircle
 10
24.741933968
 20
7.5556835223
 30
0.0
 40
19.07938699116928
100
AcDbArc
 50
177.2108875533
 51
179.8175085464
  0
LINE
  5
AD
330
1F
100
AcDbEntity
  8
0
  6
Continuous
 62
     7
370
    15
100
AcDbLine
 10
5.6711975296
 20
8.6379364172
 30
0.0
 11
5.6118910339
 21
8.6379364172
 31
0.0
  0
ARC
  5
AE
330
1F
100
AcDbEntity
  8
0
  6
Continuous
 62
     7
370
    15
100
AcDbCircle
 10
5.8104170348
 20
7.9195592079
 30
0.0
 40
0.7317430460874731
100
AcDbArc
 50
100.9678042176
 51
112.9965110296
  0
ARC
  5
AF
330
1F
100
AcDbEntity
  8
0
  6
Continuous
 62
     7
370
    15
100
AcDbCircle
 10
5.7090681712
 20
8.2346825392
 30
0.0
 40
0.4031719340725944
100
AcDbArc
 50
117.2372585577
 51
147.1358635024
  0
LWPOLYLINE
  5
B0
330
1F
100
AcDbEntity
  8
0
  6
Continuous
 62
     7
370
    15
100
AcDbPolyline
 90
       21
 70
   128
 43
0.0
 10
5.6118910339
 20
8.6379364172
 10
5.5882143921
 20
8.6314905398
 10
5.5562913885
 20
8.6218261864
 10
5.5198818079
 20
8.6090527859
 10
5.4818653291
 20
8.5929676941
 10
5.4442783342
 20
8.5730029749
 10
5.408300603
 20
8.5483877754
 10
5.3821132682
 20
8.5266015529
 10
5.3548092662
 20
8.5025654797
 10
5.3233406993
 20
8.4784324715
 10
5.2860768824
 20
8.4572929921
 10
5.2443204458
 20
8.440570472
 10
5.2001169013
 20
8.4277914848
 10
5.1545628723
 20
8.4178943153
 10
5.1082228344
 20
8.4100453898
 10
4.9828454589
 20
8.3957736647
 10
4.8562038146
 20
8.3873373807
 10
4.7290410714
 20
8.3823767204
 10
4.6016460506
 20
8.3797145368
 10
4.4741613844
 20
8.3787202488
 10
4.3466427747
 20
8.3785708474
  0
ARC
  5
B1
330
1F
100
AcDbEntity
  8
0
  6
Continuous
 62
     7
370
    15
100
AcDbCircle
 10
5.7336816705
 20
9.879524479
 30
0.0
 40
3.131081145973713
100
AcDbArc
 50
269.1118518388
 51
271.9972619468
  0
LINE
  5
B2
330
1F
100
AcDbEntity
  8
0
  6
Continuous
 62
     7
370
    15
100
AcDbLine
 10
5.8136320735
 20
7.616452731
 30
0.0
 11
5.6626437542
 21
7.616452731
 31
0.0
  0
ARC
  5
B3
330
1F
100
AcDbEntity
  8
0
  6
Continuous
 62
     7
370
    15
100
AcDbCircle
 10
16.2938581288
 20
7.535914759
 30
0.0
 40
10.48053550803918
100
AcDbArc
 50
179.5597046258
 51
184.2986407478
  0
ARC
  5
B4
330
1F
100
AcDbEntity
  8
0
  6
Continuous
 62
     7
370
    15
100
AcDbCircle
 10
2.9596038788
 20
5.353380983
 30
0.0
 40
3.131081145893003
100
AcDbArc
 50
89.1118518388
 51
91.9972619469
  0
LINE
  5
B5
330
1F
100
AcDbEntity
  8
0
  6
Continuous
 62
     7
370
    15
100
AcDbLine
 10
2.8796534759
 20
7.616452731
 30
0.0
 11
3.0306417952
 21
7.616452731
 31
0.0
  0
ARC
  5
B6
330
1F
100
AcDbEntity
  8
0
  6
Continuous
 62
     7
370
    15
100
AcDbCircle
 10
-7.6005725794
 20
7.696990703
 30
0.0
 40
10.48053550803916
100
AcDbArc
 50
359.5597046258
 51
4.2986407478
  0
ARC
  5
B7
330
1F
100
AcDbEntity
  8
0
  6
Continuous
 62
     7
370
    15
100
AcDbCircle
 10
5.7336816705
 20
5.353380983
 30
0.0
 40
3.131081145891286
100
AcDbArc
 50
88.0027380531
 51
90.8881481612
  0
ARC
  5
B8
330
1F
100
AcDbEntity
  8
0
  6
Continuous
 62
     7
370
    15
100
AcDbCircle
 10
16.2938581288
 20
7.696990703
 30
0.0
 40
10.48053550803916
100
AcDbArc
 50
175.7013592522
 51
180.4402953742
  0
ARC
  5
B9
330
1F
100
AcDbEntity
  8
0
  6
Continuous
 62
     7
370
    15
100
AcDbCircle
 10
2.9596038788
 20
9.879524479
 30
0.0
 40
3.131081145974972
100
AcDbArc
 50
268.0027380532
 51
270.8881481612
  0
ARC
  5
BA
330
1F
100
AcDbEntity
  8
0
  6
Continuous
 62
     7
370
    15
100
AcDbCircle
 10
-7.6005725794
 20
7.535914759
 30
0.0
 40
10.48053550803896
100
AcDbArc
 50
355.7013592522
 51
0.4402953742
  0
ARC
  5
BB
330
1F
100
AcDbEntity
  8
0
  6
Continuous
 62
     7
370
    15
100
AcDbCircle
 10
3.1889474352
 20
5.8124013248
 30
0.0
 40
0.8276014183240626
100
AcDbArc
 50
91.3989520123
 51
104.1906918826
  0
ARC
  5
BC
330
1F
100
AcDbEntity
  8
0
  6
Continuous
 62
     7
370
    15
100
AcDbCircle
 10
2.9893334982
 20
6.7536014939
 30
0.0
 40
0.1388914085409672
100
AcDbArc
 50
181.343298922
 51
268.6499133341
  0
ARC
  5
BD
330
1F
100
AcDbEntity
  8
0
  6
Continuous
 62
     7
370
    15
100
AcDbCircle
 10
5.5154843205
 20
9.3392244295
 30
0.0
 40
0.7461287481077882
100
AcDbArc
 50
270.6956464487
 51
284.890942813
  0
ARC
  5
BE
330
1F
100
AcDbEntity
  8
0
  6
Continuous
 62
     7
370
    15
100
AcDbCircle
 10
5.7039520512
 20
8.479303968
 30
0.0
 40
0.1388914085409685
100
AcDbArc
 50
1.343298922
 51
88.6499133341
  0
ARC
  5
BF
330
1F
100
AcDbEntity
  8
0
  6
Continuous
 62
     7
370
    15
100
AcDbCircle
 10
5.5154249226
 20
5.8933914349
 30
0.0
 40
0.7464203256215475
100
AcDbArc
 50
75.1102905571
 51
89.300065548
  0
ARC
  5
C0
330
1F
100
AcDbEntity
  8
0
  6
Continuous
 62
     7
370
    15
100
AcDbCircle
 10
5.7039520512
 20
6.7536014939
 30
0.0
 40
0.138891408540965
100
AcDbArc
 50
271.3500866659
 51
358.656701078
  0
ARC
  5
C1
330
1F
100
AcDbEntity
  8
0
  6
Continuous
 62
     7
370
    15
100
AcDbCircle
 10
3.1778782355
 20
9.3397870808
 30
0.0
 40
0.746692296233116
100
AcDbArc
 50
255.1144415057
 51
269.2989692326
  0
ARC
  5
C2
330
1F
100
AcDbEntity
  8
0
  6
Continuous
 62
     7
370
    15
100
AcDbCircle
 10
2.9893334982
 20
8.479303968
 30
0.0
 40
0.1388914085409703
100
AcDbArc
 50
91.3500866659
 51
178.656701078
  0
LINE
  5
C3
330
1F
100
AcDbEntity
  8
0
  6
Continuous
 62
     7
370
    15
100
AcDbLine
 10
5.6118910339
 20
8.6379364172
 30
0.0
 11
4.3466427747
 21
8.6379364172
 31
0.0
  0
LINE
  5
C4
330
1F
100
AcDbEntity
  8
0
  6
Continuous
 62
     7
370
    15
100
AcDbLine
 10
4.3466427747
 20
8.3785708474
 30
0.0
 11
4.3466427747
 21
8.6379364172
 31
0.0
  0
LINE
  5
C5
330
1F
100
AcDbEntity
  8
0
  6
Continuous
 62
     7
370
    15
100
AcDbLine
 10
4.3466427747
 20
8.6379364172
 30
0.0
 11
3.0813945155
 21
8.6379364172
 31
0.0
  0
LINE
  5
C6
330
1F
100
AcDbEntity
  8
0
  6
Continuous
 62
     7
370
    15
100
AcDbLine
 10
4.3466427747
 20
6.5949690447
 30
0.0
 11
3.0813945155
 21
6.5949690447
 31
0.0
  0
LINE
  5
C7
330
1F
100
AcDbEntity
  8
0
  6
Continuous
 62
     7
370
    15
100
AcDbLine
 10
4.3466427747
 20
6.8543346145
 30
0.0
 11
4.3466427747
 21
6.5949690447
 31
0.0
  0
LINE
  5
C8
330
1F
100
AcDbEntity
  8
0
  6
Continuous
 62
     7
370
    15
100
AcDbLine
 10
5.6118910339
 20
6.5949690447
 30
0.0
 11
4.3466427747
 21
6.5949690447
 31
0.0
  0
ARC
  5
C9
330
1F
100
AcDbEntity
  8
0
  6
Continuous
 62
     7
370
    15
100
AcDbCircle
 10
2.7080175151
 20
8.1839265874
 30
0.0
 40
0.5156201080359833
100
AcDbArc
 50
57.368011808
 51
67.1125421081
  0
LINE
  5
CA
330
1F
100
AcDbEntity
  8
0
  6
Continuous
 62
     7
370
    15
100
AcDbLine
 10
5.7847318799
 20
8.658952731
 30
0.0
 11
2.9085536695
 21
8.658952731
 31
0.0
  0
ARC
  5
CB
330
1F
100
AcDbEntity
  8
0
  6
Continuous
 62
     7
370
    15
100
AcDbCircle
 10
6.1180882117
 20
7.9315808861
 30
0.0
 40
0.8001221742291924
100
AcDbArc
 50
114.6221200381
 51
120.8973260457
  0
LWPOLYLINE
  5
CC
330
1F
100
AcDbEntity
  8
0
  6
Continuous
 62
     7
370
    15
100
AcDbPolyline
 90
       14
 70
   128
 43
0.0
 10
2.8504802582
 20
8.4825599653
 10
2.8466394788
 20
8.486503992
 10
2.8423997114
 20
8.4914385961
 10
2.8378210792
 20
8.4973637777
 10
2.8329704435
 20
8.5042795367
 10
2.8279211146
 20
8.5121858731
 10
2.822752531
 20
8.521082787
 10
2.8183426101
 20
8.5292859125
 10
2.8151845862
 20
8.5353066703
 10
2.8126570516
 20
8.5401200566
 10
2.810307126
 20
8.5444194545
 10
2.807790009
 20
8.5486502133
 10
2.8055780787
 20
8.5518683066
 10
2.8036427747
 20
8.5540737346
  0
ARC
  5
CD
330
1F
100
AcDbEntity
  8
0
  6
Continuous
 62
     7
370
    15
100
AcDbCircle
 10
1.9165088363
 20
7.3109377248
 30
0.0
 40
1.089296231435834
100
AcDbArc
 50
324.5291683315
 51
329.0267994952
  0
LINE
  5
CE
330
1F
100
AcDbEntity
  8
0
  6
Continuous
 62
     7
370
    15
100
AcDbLine
 10
2.8036427747
 20
8.5540737346
 30
0.0
 11
2.8036427747
 21
6.6788317273
 31
0.0
  0
ARC
  5
CF
330
1F
100
AcDbEntity
  8
0
  6
Continuous
 62
     7
370
    15
100
AcDbCircle
 10
6.776776713
 20
7.9219677372
 30
0.0
 40
1.08929623141104
100
AcDbArc
 50
144.5291683314
 51
149.0267994953
  0
LINE
  5
D0
330
1F
100
AcDbEntity
  8
0
  6
Continuous
 62
     7
370
    15
100
AcDbLine
 10
5.8896427747
 20
6.6788317273
 30
0.0
 11
5.8896427747
 21
8.5540737346
 31
0.0
  0
ARC
  5
D1
330
1F
100
AcDbEntity
  8
0
  6
Continuous
 62
     7
370
    15
100
AcDbCircle
 10
6.7767767232
 20
7.3109377314
 30
0.0
 40
1.089296243518776
100
AcDbArc
 50
210.9732005297
 51
215.4708316436
  0
ARC
  5
D2
330
1F
100
AcDbEntity
  8
0
  6
Continuous
 62
     7
370
    15
100
AcDbCircle
 10
6.2197195441
 20
7.4944027906
 30
0.0
 40
1.018058240079487
100
AcDbArc
 50
239.7745075794
 51
244.7054486585
  0
LINE
  5
D3
330
1F
100
AcDbEntity
  8
0
  6
Continuous
 62
     7
370
    15
100
AcDbLine
 10
2.9085536695
 20
6.573952731
 30
0.0
 11
5.7847318799
 21
6.573952731
 31
0.0
  0
ARC
  5
D4
330
1F
100
AcDbEntity
  8
0
  6
Continuous
 62
     7
370
    15
100
AcDbCircle
 10
2.5751973376
 20
7.3013245758
 30
0.0
 40
0.8001221742293387
100
AcDbArc
 50
294.6221200381
 51
300.8973260457
  0
ARC
  5
D5
330
1F
100
AcDbEntity
  8
0
  6
Continuous
 62
     7
370
    15
100
AcDbCircle
 10
2.9084981416
 20
6.6788076635
 30
0.0
 40
0.1048544300007908
100
AcDbArc
 50
179.986850799
 51
270.0303421829
  0
ARC
  5
D6
330
1F
100
AcDbEntity
  8
0
  6
Continuous
 62
     7
370
    15
100
AcDbCircle
 10
5.7847825554
 20
8.5540929446
 30
0.0
 40
0.1048592813388921
100
AcDbArc
 50
359.9895035525
 51
90.0276894294
  0
ARC
  5
D7
330
1F
100
AcDbEntity
  8
0
  6
Continuous
 62
     7
370
    15
100
AcDbCircle
 10
5.7847874077
 20
6.6788076635
 30
0.0
 40
0.1048544300007932
100
AcDbArc
 50
269.9696578173
 51
0.013149201
  0
ARC
  5
D8
330
1F
100
AcDbEntity
  8
0
  6
Continuous
 62
     7
370
    15
100
AcDbCircle
 10
2.9084981416
 20
8.5540977984
 30
0.0
 40
0.1048544300007915
100
AcDbArc
 50
89.9696578173
 51
180.013149201
  0
LINE
  5
D9
330
1F
100
AcDbEntity
  8
0
  6
HIDDEN
 62
     7
370
     0
100
AcDbLine
 10
5.6364615764
 20
7.616452731
 30
0.0
 11
4.3466427747
 21
7.616452731
 31
0.0
  0
LINE
  5
DA
330
1F
100
AcDbEntity
  8
0
  6
HIDDEN
 62
     7
370
     0
100
AcDbLine
 10
4.3466427747
 20
7.616452731
 30
0.0
 11
4.3466427918
 21
8.2716042729
 31
0.0
  0
LINE
  5
DB
330
1F
100
AcDbEntity
  8
0
  6
HIDDEN
 62
     7
370
     0
100
AcDbLine
 10
4.3466427747
 20
7.616452731
 30
0.0
 11
4.3466427747
 21
6.9612884512
 31
0.0
  0
LINE
  5
DC
330
1F
100
AcDbEntity
  8
0
  6
HIDDEN
 62
     7
370
     0
100
AcDbLine
 10
3.056823966
 20
7.616452731
 30
0.0
 11
4.3466427747
 21
7.616452731
 31
0.0
  0
LWPOLYLINE
  5
DD
330
1F
100
AcDbEntity
  8
0
  6
HIDDEN
 62
     7
370
     0
100
AcDbPolyline
 90
       13
 70
   128
 43
0.0
 10
4.3466427413
 20
8.271616645
 10
4.5085961194
 20
8.2719107725
 10
4.6705160744
 20
8.2740386684
 10
4.7805760778
 20
8.2773701879
 10
4.8904824546
 20
8.2828971806
 10
5.0006341626
 20
8.2914978978
 10
5.1099706306
 20
8.3050484162
 10
5.1721565424
 20
8.3161085345
 10
5.2332044672
 20
8.3312338683
 10
5.2916643299
 20
8.3522443308
 10
5.3358966553
 20
8.3760085051
 10
5.3763343823
 20
8.405241547
 10
5.4138022374
 20
8.4371733971
  0
LINE
  5
DE
330
1F
100
AcDbEntity
  8
0
  6
HIDDEN
 62
     7
370
     0
100
AcDbLine
 10
4.3466427747
 20
8.3358332505
 30
0.0
 11
4.3466427747
 21
8.2716063813
 31
0.0
  0
LWPOLYLINE
  5
DF
330
1F
100
AcDbEntity
  8
0
  6
HIDDEN
 62
     7
370
     0
100
AcDbPolyline
 90
       13
 70
   128
 43
0.0
 10
4.3466427408
 20
8.2716170107
 10
4.1850648475
 20
8.2719103993
 10
4.0235200606
 20
8.2740217694
 10
3.9119970741
 20
8.2771451033
 10
3.8005261981
 20
8.2824773015
 10
3.6895594853
 20
8.2914855036
 10
3.5795489886
 20
8.3056368492
 10
3.5177993146
 20
8.3168125299
 10
3.4572134269
 20
8.3320865173
 10
3.3992662879
 20
8.3532720372
 10
3.3559216114
 20
8.3768641622
 10
3.3162811483
 20
8.4057341008
 10
3.2794859888
 20
8.4371712132
  0
LWPOLYLINE
  5
E0
330
1F
100
AcDbEntity
  8
0
  6
HIDDEN
 62
     7
370
     0
100
AcDbPolyline
 90
       13
 70
   128
 43
0.0
 10
4.3466427597
 20
6.9612884512
 10
4.5082206547
 20
6.9609951263
 10
4.6697654399
 20
6.9588837372
 10
4.7812888419
 20
6.9557603231
 10
4.8927601359
 20
6.9504280901
 10
5.003727259
 20
6.9414198371
 10
5.1137381483
 20
6.9272683629
 10
5.1754876398
 20
6.9160926316
 10
5.2360733342
 20
6.9008185808
 10
5.2940202578
 20
6.8796329855
 10
5.3373645591
 20
6.8560409346
 10
5.377004686
 20
6.8271711514
 10
5.4137995605
 20
6.7957342487
  0
LINE
  5
E1
330
1F
100
AcDbEntity
  8
0
  6
HIDDEN
 62
     7
370
     0
100
AcDbLine
 10
4.3466427747
 20
6.8970722114
 30
0.0
 11
4.3466427672
 21
6.9612884512
 31
0.0
  0
LWPOLYLINE
  5
E2
330
1F
100
AcDbEntity
  8
0
  6
HIDDEN
 62
     7
370
     0
100
AcDbPolyline
 90
       13
 70
   128
 43
0.0
 10
4.3466427597
 20
6.9612884512
 10
4.1847090254
 20
6.9609927252
 10
4.0228087426
 20
6.958867646
 10
3.9123853621
 20
6.9557597361
 10
3.8020155594
 20
6.9504869777
 10
3.6921294791
 20
6.941645551
 10
3.5831572656
 20
6.9278316364
 10
3.5209911584
 20
6.9167694069
 10
3.4599645913
 20
6.9016375469
 10
3.4015269791
 20
6.8806216922
 10
3.3573301982
 20
6.856864394
 10
3.3169255242
 20
6.8276437415
 10
3.2794834152
 20
6.7957319553
  0
ARC
  5
E3
330
1F
100
AcDbEntity
  8
0
  6
HIDDEN
 62
     7
370
     0
100
AcDbCircle
 10
-12.0149104846
 20
7.5968589684
 30
0.0
 40
15.071746654714
100
AcDbArc
 50
357.3726882973
 51
0.0744864042
  0
ARC
  5
E4
330
1F
100
AcDbEntity
  8
0
  6
HIDDEN
 62
     7
370
     0
100
AcDbCircle
 10
20.708196034
 20
7.6360464935
 30
0.0
 40
15.07174665471138
100
AcDbArc
 50
177.3726882973
 51
180.0744864042
  0
ARC
  5
E5
330
1F
100
AcDbEntity
  8
0
  6
HIDDEN
 62
     7
370
     0
100
AcDbCircle
 10
-12.0149104846
 20
7.6360464935
 30
0.0
 40
15.07174665471128
100
AcDbArc
 50
359.9255135958
 51
2.6273117027
  0
ARC
  5
E6
330
1F
100
AcDbEntity
  8
0
  6
HIDDEN
 62
     7
370
     0
100
AcDbCircle
 10
20.708196034
 20
7.5968589684
 30
0.0
 40
15.07174665470767
100
AcDbArc
 50
179.9255135958
 51
182.6273117027
  0
LWPOLYLINE
  5
E7
330
1F
100
AcDbEntity
  8
0
  6
HIDDEN
 62
     7
370
     0
100
AcDbPolyline
 90
       61
 70
   128
 43
0.0
 10
3.0813945155
 20
8.568187721
 10
3.0908666885
 20
8.5657640877
 10
3.1022795525
 20
8.5627329836
 10
3.1153102583
 20
8.5589637456
 10
3.1308270522
 20
8.5540802914
 10
3.1459961376
 20
8.5489017247
 10
3.1603802171
 20
8.543593494
 10
3.1797371203
 20
8.5357562845
 10
3.1982682255
 20
8.5273888397
 10
3.2127468468
 20
8.5201174319
 10
3.2344147754
 20
8.5077168689
 10
3.2484257349
 20
8.498571208
 10
3.26649513
 20
8.4853294351
 10
3.2803368063
 20
8.4741398032
 10
3.3009644868
 20
8.4566658584
 10
3.3195249991
 20
8.4416704391
 10
3.3392253725
 20
8.4278097581
 10
3.3633022263
 20
8.4140764564
 10
3.3929624973
 20
8.4013776831
 10
3.4105715099
 20
8.3955525087
 10
3.4189600774
 20
8.393122039
 10
3.4238392343
 20
8.39178869
 10
3.4264441403
 20
8.3910978219
 10
3.4277873499
 20
8.3907469918
 10
3.4284690592
 20
8.3905703029
 10
3.428812429
 20
8.3904816488
 10
3.4289847412
 20
8.3904372454
 10
3.429071054
 20
8.3904150247
 10
3.4291142495
 20
8.3904039096
 10
3.4291358571
 20
8.3903983509
 10
3.4291466633
 20
8.3903955712
 10
3.429152067
 20
8.3903941813
 10
3.429154769
 20
8.3903934864
 10
3.4291561201
 20
8.3903931389
 10
3.4291567956
 20
8.3903929651
 10
3.4291574711
 20
8.3903927914
 10
3.4293426638
 20
8.3903450156
 10
3.4307744541
 20
8.3899769051
 10
3.4571117673
 20
8.3838215253
 10
3.4794175854
 20
8.3792843979
 10
3.5041394081
 20
8.3748493897
 10
3.530654168
 20
8.3706051804
 10
3.556669236
 20
8.3668643971
 10
3.579629814
 20
8.3638842315
 10
3.6103128487
 20
8.3603386448
 10
3.6375946324
 20
8.357554885
 10
3.6729690669
 20
8.3543752952
 10
3.7100108061
 20
8.3514616654
 10
3.7471262557
 20
8.3489389998
 10
3.784931757
 20
8.3467138776
 10
3.8254644265
 20
8.3446469146
 10
3.8678066638
 20
8.3427989889
 10
3.9089101371
 20
8.341276233
 10
3.9487641183
 20
8.3400257207
 10
3.9873572008
 20
8.3390036708
 10
4.0246704297
 20
8.3381914079
 10
4.0606946284
 20
8.3375458005
 10
4.1090859201
 20
8.3368600313
 10
4.1986360879
 20
8.3361243889
 10
4.2778284575
 20
8.3358667717
 10
4.3466427747
 20
8.3358332505
  0
LWPOLYLINE
  5
E8
330
1F
100
AcDbEntity
  8
0
  6
HIDDEN
 62
     7
370
     0
100
AcDbPolyline
 90
       61
 70
   128
 43
0.0
 10
5.6118910339
 20
6.6647177409
 10
5.6024188609
 20
6.6671413742
 10
5.5910059969
 20
6.6701724783
 10
5.5779752911
 20
6.6739417163
 10
5.5624584971
 20
6.6788251705
 10
5.5472894117
 20
6.6840037373
 10
5.5329053322
 20
6.6893119679
 10
5.513548429
 20
6.6971491775
 10
5.4950173238
 20
6.7055166222
 10
5.4805387025
 20
6.7127880301
 10
5.4588707739
 20
6.725188593
 10
5.4448598145
 20
6.7343342539
 10
5.4267904194
 20
6.7475760269
 10
5.4129487429
 20
6.7587656588
 10
5.3923210626
 20
6.7762396035
 10
5.3737605504
 20
6.7912350228
 10
5.3540601768
 20
6.8050957038
 10
5.329983323
 20
6.8188290056
 10
5.3003230519
 20
6.8315277789
 10
5.2827140393
 20
6.8373529533
 10
5.2743254719
 20
6.8397834229
 10
5.2694463149
 20
6.841116772
 10
5.266841409
 20
6.8418076401
 10
5.2654981994
 20
6.8421584702
 10
5.2648164901
 20
6.842335159
 10
5.2644731204
 20
6.8424238131
 10
5.2643008082
 20
6.8424682166
 10
5.2642144954
 20
6.8424904372
 10
5.2641712999
 20
6.8425015523
 10
5.2641496923
 20
6.842507111
 10
5.2641388861
 20
6.8425098907
 10
5.2641334824
 20
6.8425112806
 10
5.2641307804
 20
6.8425119755
 10
5.2641294293
 20
6.842512323
 10
5.2641287538
 20
6.8425124968
 10
5.2641280782
 20
6.8425126705
 10
5.2639428857
 20
6.8425604463
 10
5.2625110959
 20
6.8429285567
 10
5.2361737822
 20
6.8490839366
 10
5.213867964
 20
6.853621064
 10
5.1891461413
 20
6.8580560722
 10
5.1626313813
 20
6.8623002815
 10
5.1366163133
 20
6.8660410649
 10
5.1136557355
 20
6.8690212304
 10
5.0829727007
 20
6.8725668171
 10
5.0556909169
 20
6.8753505769
 10
5.0203164825
 20
6.8785301668
 10
4.9832747432
 20
6.8814437965
 10
4.9461592927
 20
6.8839664622
 10
4.9083537909
 20
6.8861915844
 10
4.8678211229
 20
6.8882585473
 10
4.8254788842
 20
6.8901064731
 10
4.78437541
 20
6.891629229
 10
4.7445214284
 20
6.8928797413
 10
4.7059283462
 20
6.8939017912
 10
4.668615118
 20
6.8947140541
 10
4.6325909205
 20
6.8953596614
 10
4.5841970258
 20
6.8960454628
 10
4.494649755
 20
6.8967811115
 10
4.4154776039
 20
6.8970387113
 10
4.3466427747
 20
6.8970722114
  0
LINE
  5
E9
330
1F
100
AcDbEntity
  8
0
  6
HIDDEN
 62
     7
370
     0
100
AcDbLine
 10
4.3466427747
 20
8.3358333264
 30
0.0
 11
4.3466427747
 21
8.568187721
 31
0.0
  0
LWPOLYLINE
  5
EA
330
1F
100
AcDbEntity
  8
0
  6
HIDDEN
 62
     7
370
     0
100
AcDbPolyline
 90
       66
 70
   128
 43
0.0
 10
5.6118910339
 20
8.568187721
 10
5.6006312568
 20
8.5653165523
 10
5.5871391752
 20
8.5616421035
 10
5.5747468819
 20
8.5579586078
 10
5.5639754365
 20
8.5545561756
 10
5.5517896326
 20
8.5504727913
 10
5.5383118237
 20
8.5456333242
 10
5.5172973235
 20
8.5373515249
 10
5.5051769695
 20
8.5320901739
 10
5.4987677499
 20
8.5291481025
 10
5.4954829723
 20
8.5275954795
 10
5.4938214418
 20
8.526798315
 10
5.4929860043
 20
8.5263944633
 10
5.4925671316
 20
8.5261912131
 10
5.4923574086
 20
8.526089256
 10
5.4922524756
 20
8.5260381944
 10
5.4921999913
 20
8.5260126428
 10
5.4921737446
 20
8.5259998618
 10
5.4921606202
 20
8.52599347
 10
5.4921540577
 20
8.5259902738
 10
5.4921507764
 20
8.5259886756
 10
5.4921491357
 20
8.5259878765
 10
5.4921483154
 20
8.5259874769
 10
5.4921479052
 20
8.5259872772
 10
5.4921285335
 20
8.5259778424
 10
5.4921129916
 20
8.5259702736
 10
5.4920839102
 20
8.5259561128
 10
5.4920277462
 20
8.5259287672
 10
5.4919139636
 20
8.5258733661
 10
5.491667822
 20
8.5257534511
 10
5.4910916992
 20
8.525472152
 10
5.4896304247
 20
8.5247537525
 10
5.4856670465
 20
8.5227662971
 10
5.4744911062
 20
8.5168374265
 10
5.4693205348
 20
8.5139248285
 10
5.4635843424
 20
8.5105623388
 10
5.457322052
 20
8.5067282944
 10
5.4505759979
 20
8.5024002988
 10
5.4433906486
 20
8.4975557827
 10
5.4284055313
 20
8.4866006632
 10
5.4143586592
 20
8.4753113443
 10
5.3995929333
 20
8.4628375526
 10
5.3933555887
 20
8.4575207369
 10
5.3876116698
 20
8.4526895771
 10
5.3812379329
 20
8.44748808
 10
5.3733983035
 20
8.4413835994
 10
5.3654963606
 20
8.435583207
 10
5.3575073027
 20
8.4300977788
 10
5.3349809315
 20
8.4166602741
 10
5.311613054
 20
8.4057045362
 10
5.2754726404
 20
8.3934306111
 10
5.2482421536
 20
8.3865454197
 10
5.2224087198
 20
8.3809364483
 10
5.1945491803
 20
8.3757286923
 10
5.1468903534
 20
8.3683397804
 10
5.0936432769
 20
8.3615154933
 10
5.0369082442
 20
8.3558084945
 10
4.977939521
 20
8.3510738048
 10
4.9236636267
 20
8.3475627364
 10
4.8631249911
 20
8.3444161617
 10
4.7957849438
 20
8.3416790818
 10
4.7373942144
 20
8.3398334509
 10
4.6422631267
 20
8.3376850641
 10
4.5447584497
 20
8.336429568
 10
4.4440154194
 20
8.3359334194
 10
4.3466427747
 20
8.3358333264
  0
LINE
  5
EB
330
1F
100
AcDbEntity
  8
0
  6
HIDDEN
 62
     7
370
     0
100
AcDbLine
 10
4.3466427747
 20
6.8970721355
 30
0.0
 11
4.3466427747
 21
6.6647177409
 31
0.0
  0
LWPOLYLINE
  5
EC
330
1F
100
AcDbEntity
  8
0
  6
HIDDEN
 62
     7
370
     0
100
AcDbPolyline
 90
       66
 70
   128
 43
0.0
 10
3.0813945155
 20
6.6647177409
 10
3.0926542926
 20
6.6675889096
 10
3.1061463742
 20
6.6712633584
 10
3.1185386675
 20
6.6749468542
 10
3.1293101129
 20
6.6783492863
 10
3.1414959167
 20
6.6824326706
 10
3.1549737256
 20
6.6872721378
 10
3.1759882259
 20
6.695553937
 10
3.1881085799
 20
6.700815288
 10
3.1945177995
 20
6.7037573594
 10
3.197802577
 20
6.7053099824
 10
3.1994641075
 20
6.7061071469
 10
3.2002995451
 20
6.7065109987
 10
3.2007184178
 20
6.7067142488
 10
3.2009281408
 20
6.7068162059
 10
3.2010330738
 20
6.7068672675
 10
3.2010855581
 20
6.7068928191
 10
3.2011118047
 20
6.7069056001
 10
3.2011249292
 20
6.7069119919
 10
3.2011314916
 20
6.7069151881
 10
3.201134773
 20
6.7069167863
 10
3.2011364136
 20
6.7069175854
 10
3.201137234
 20
6.706917985
 10
3.2011376441
 20
6.7069181848
 10
3.2011570159
 20
6.7069276196
 10
3.2011725578
 20
6.7069351883
 10
3.2012016392
 20
6.7069493491
 10
3.2012578032
 20
6.7069766948
 10
3.2013715858
 20
6.7070320959
 10
3.2016177273
 20
6.7071520108
 10
3.2021938501
 20
6.7074333099
 10
3.2036551246
 20
6.7081517094
 10
3.2076185029
 20
6.7101391649
 10
3.2187944432
 20
6.7160680354
 10
3.2239650145
 20
6.7189806334
 10
3.229701207
 20
6.7223431231
 10
3.2359634973
 20
6.7261771675
 10
3.2427095514
 20
6.7305051631
 10
3.2498949008
 20
6.7353496792
 10
3.2648800181
 20
6.7463047987
 10
3.2789268901
 20
6.7575941177
 10
3.2936926161
 20
6.7700679093
 10
3.2999299607
 20
6.775384725
 10
3.3056738796
 20
6.7802158848
 10
3.3120476165
 20
6.7854173819
 10
3.3198872458
 20
6.7915218625
 10
3.3277891888
 20
6.7973222549
 10
3.3357782467
 20
6.8028076831
 10
3.3583046178
 20
6.8162451878
 10
3.3816724954
 20
6.8272009257
 10
3.4178129089
 20
6.8394748508
 10
3.4450433957
 20
6.8463600422
 10
3.4708768295
 20
6.8519690137
 10
3.498736369
 20
6.8571767696
 10
3.5463951959
 20
6.8645656816
 10
3.5996422725
 20
6.8713899686
 10
3.6563773052
 20
6.8770969674
 10
3.7153460283
 20
6.8818316571
 10
3.7696219226
 20
6.8853427255
 10
3.8301605582
 20
6.8884893002
 10
3.8975006055
 20
6.8912263801
 10
3.9558913349
 20
6.8930720111
 10
4.0510224227
 20
6.8952203978
 10
4.1485270996
 20
6.8964758939
 10
4.2492701299
 20
6.8969720425
 10
4.3466427747
 20
6.8970721355
  0
ARC
  5
ED
330
1F
100
AcDbEntity
  8
0
  6
HIDDEN
 62
     7
370
     0
100
AcDbCircle
 10
5.7286930095
 20
7.1079971245
 30
0.0
 40
0.4434728640860381
100
AcDbArc
 50
224.7594591582
 51
244.7716449853
  0
LWPOLYLINE
  5
EE
330
1F
100
AcDbEntity
  8
0
  6
HIDDEN
 62
     7
370
     0
100
AcDbPolyline
 90
        3
 70
   128
 43
0.0
 10
5.413798403
 20
6.7957355331
 10
5.4897077744
 20
6.7870449441
 10
5.5611310766
 20
6.7796139562
  0
ARC
  5
EF
330
1F
100
AcDbEntity
  8
0
  6
HIDDEN
 62
     7
370
     0
100
AcDbCircle
 10
2.9516052257
 20
8.1065211258
 30
0.0
 40
0.4656582061425187
100
AcDbArc
 50
45.2407345535
 51
64.2903695899
  0
LWPOLYLINE
  5
F0
330
1F
100
AcDbEntity
  8
0
  6
HIDDEN
 62
     7
370
     0
100
AcDbPolyline
 90
        3
 70
   128
 43
0.0
 10
3.2794871464
 20
8.4371699288
 10
3.2035777751
 20
8.4458605178
 10
3.1321544727
 20
8.4532915057
  0
ARC
  5
F1
330
1F
100
AcDbEntity
  8
0
  6
HIDDEN
 62
     7
370
     0
100
AcDbCircle
 10
5.7288171958
 20
8.1247358751
 30
0.0
 40
0.443682115174643
100
AcDbArc
 50
115.228119311
 51
135.2355748828
  0
LWPOLYLINE
  5
F2
330
1F
100
AcDbEntity
  8
0
  6
HIDDEN
 62
     7
370
     0
100
AcDbPolyline
 90
        3
 70
   128
 43
0.0
 10
5.4137998705
 20
8.4371758143
 10
5.4928421239
 20
8.4462158149
 10
5.5611309948
 20
8.4532914051
  0
ARC
  5
F3
330
1F
100
AcDbEntity
  8
0
  6
HIDDEN
 62
     7
370
     0
100
AcDbCircle
 10
2.9515574318
 20
7.126451227
 30
0.0
 40
0.4657391729067007
100
AcDbArc
 50
295.7059675961
 51
314.7572226777
  0
LWPOLYLINE
  5
F4
330
1F
100
AcDbEntity
  8
0
  6
HIDDEN
 62
     7
370
     0
100
AcDbPolyline
 90
        3
 70
   128
 43
0.0
 10
3.2794856773
 20
6.7957296446
 10
3.2004429675
 20
6.7866896015
 10
3.1321545384
 20
6.779614037
  0
ARC
  5
F5
330
1F
100
AcDbEntity
  8
0
  6
HIDDEN
 62
     7
370
     0
100
AcDbCircle
 10
3.0379676024
 20
8.4249748158
 30
0.0
 40
0.0983513805501426
100
AcDbArc
 50
16.7330732707
 51
119.6938749455
  0
ARC
  5
F6
330
1F
100
AcDbEntity
  8
0
  6
HIDDEN
 62
     7
370
     0
100
AcDbCircle
 10
3.0382685711
 20
8.4252125395
 30
0.0
 40
0.0983274072761716
100
AcDbArc
 50
153.3054471826
 51
271.5878454265
  0
ARC
  5
F7
330
1F
100
AcDbEntity
  8
0
  6
HIDDEN
 62
     7
370
     0
100
AcDbCircle
 10
3.0379842074
 20
8.4251593782
 30
0.0
 40
0.0982824887252586
100
AcDbArc
 50
271.7561764069
 51
16.6327640687
  0
ARC
  5
F8
330
1F
100
AcDbEntity
  8
0
  6
HIDDEN
 62
     7
370
     0
100
AcDbCircle
 10
3.0379676026
 20
6.8079306457
 30
0.0
 40
0.0983513802370479
100
AcDbArc
 50
240.3061248262
 51
343.2669269573
  0
ARC
  5
F9
330
1F
100
AcDbEntity
  8
0
  6
HIDDEN
 62
     7
370
     0
100
AcDbCircle
 10
3.038268571
 20
6.8076929225
 30
0.0
 40
0.0983274072121791
100
AcDbArc
 50
88.4121545311
 51
206.6945450929
  0
ARC
  5
FA
330
1F
100
AcDbEntity
  8
0
  6
HIDDEN
 62
     7
370
     0
100
AcDbCircle
 10
3.0379842074
 20
6.8077460837
 30
0.0
 40
0.0982824887252407
100
AcDbArc
 50
343.3672359312
 51
88.2438235931
  0
ARC
  5
FB
330
1F
100
AcDbEntity
  8
0
  6
HIDDEN
 62
     7
370
     0
100
AcDbCircle
 10
5.655317947
 20
6.8079306462
 30
0.0
 40
0.0983513805541365
100
AcDbArc
 50
196.7330732737
 51
299.6938749426
  0
ARC
  5
FC
330
1F
100
AcDbEntity
  8
0
  6
HIDDEN
 62
     7
370
     0
100
AcDbCircle
 10
5.6550169783
 20
6.8076929225
 30
0.0
 40
0.0983274072349477
100
AcDbArc
 50
333.3054471438
 51
91.5878459387
  0
ARC
  5
FD
330
1F
100
AcDbEntity
  8
0
  6
HIDDEN
 62
     7
370
     0
100
AcDbCircle
 10
5.6553013419
 20
6.8077460837
 30
0.0
 40
0.0982824887255952
100
AcDbArc
 50
91.7561768843
 51
196.6327640686
  0
ARC
  5
FE
330
1F
100
AcDbEntity
  8
0
  6
HIDDEN
 62
     7
370
     0
100
AcDbCircle
 10
5.6553179468
 20
8.4249748162
 30
0.0
 40
0.0983513802293642
100
AcDbArc
 50
60.3061248205
 51
163.2669269621
  0
ARC
  5
FF
330
1F
100
AcDbEntity
  8
0
  6
HIDDEN
 62
     7
370
     0
100
AcDbCircle
 10
5.6550169783
 20
8.4252125395
 30
0.0
 40
0.0983274072516334
100
AcDbArc
 50
268.4121545706
 51
26.6945450544
  0
ARC
  5
100
330
1F
100
AcDbEntity
  8
0
  6
HIDDEN
 62
     7
370
     0
100
AcDbCircle
 10
5.6553013431
 20
8.4251593786
 30
0.0
 40
0.0982824891228129
100
AcDbArc
 50
163.3672505516
 51
268.2438226378
  0
ARC
  5
101
330
1F
100
AcDbEntity
  8
0
  6
HIDDEN
 62
     7
370
     0
100
AcDbCircle
 10
-7.7779009503
 20
7.6988789833
 30
0.0
 40
10.72632950033942
100
AcDbArc
 50
359.5597074601
 51
4.1898449015
  0
ARC
  5
102
330
1F
100
AcDbEntity
  8
0
  6
HIDDEN
 62
     7
370
     0
100
AcDbCircle
 10
-7.7779009503
 20
7.5340264787
 30
0.0
 40
10.72632950033819
100
AcDbArc
 50
355.8101550985
 51
0.4402925399
  0
ARC
  5
103
330
1F
100
AcDbEntity
  8
0
  6
HIDDEN
 62
     7
370
     0
100
AcDbCircle
 10
16.4711864997
 20
7.5340264787
 30
0.0
 40
10.72632950033872
100
AcDbArc
 50
179.5597074601
 51
184.1898449015
  0
ARC
  5
104
330
1F
100
AcDbEntity
  8
0
  6
HIDDEN
 62
     7
370
     0
100
AcDbCircle
 10
16.4711864997
 20
7.6988789833
 30
0.0
 40
10.72632950033958
100
AcDbArc
 50
175.8101550985
 51
180.4402925399
  0
ARC
  5
105
330
1F
100
AcDbEntity
  8
0
  6
HIDDEN
 62
     7
370
     0
100
AcDbCircle
 10
3.166957391
 20
5.9805463624
 30
0.0
 40
0.7263823672673758
100
AcDbArc
 50
91.0557924236
 51
104.4205546517
  0
ARC
  5
106
330
1F
100
AcDbEntity
  8
0
  6
HIDDEN
 62
     7
370
     0
100
AcDbCircle
 10
5.5361506468
 20
6.0544932015
 30
0.0
 40
0.6523406549166119
100
AcDbArc
 50
74.8086329249
 51
89.6906587479
  0
LINE
  5
107
330
1F
100
AcDbEntity
  8
0
  6
HIDDEN
 62
     7
370
     0
100
AcDbLine
 10
4.3466427747
 20
6.6647177409
 30
0.0
 11
3.0813945155
 21
6.6647177409
 31
0.0
  0
LINE
  5
108
330
1F
100
AcDbEntity
  8
0
  6
HIDDEN
 62
     7
370
     0
100
AcDbLine
 10
5.6118910339
 20
6.6647177409
 30
0.0
 11
4.3466427747
 21
6.6647177409
 31
0.0
  0
ARC
  5
109
330
1F
100
AcDbEntity
  8
0
  6
HIDDEN
 62
     7
370
     0
100
AcDbCircle
 10
2.9064353221
 20
7.2530000409
 30
0.0
 40
0.5995045236292392
100
AcDbArc
 50
281.2684895369
 51
294.3454140221
  0
LWPOLYLINE
  5
10A
330
1F
100
AcDbEntity
  8
0
  6
HIDDEN
 62
     7
370
     0
100
AcDbPolyline
 90
        3
 70
   128
 43
0.0
 10
3.0220880198
 20
6.6647177409
 10
3.0229953801
 20
6.6649115334
 10
3.0235825913
 20
6.6650526018
  0
LINE
  5
10B
330
1F
100
AcDbEntity
  8
0
  6
HIDDEN
 62
     7
370
     0
100
AcDbLine
 10
3.0813945155
 20
6.6647177409
 30
0.0
 11
3.0220880198
 21
6.6647177409
 31
0.0
  0
LINE
  5
10C
330
1F
100
AcDbEntity
  8
0
  6
HIDDEN
 62
     7
370
     0
100
AcDbLine
 10
5.6711975296
 20
6.6647177409
 30
0.0
 11
5.6118910339
 21
6.6647177409
 31
0.0
  0
LWPOLYLINE
  5
10D
330
1F
100
AcDbEntity
  8
0
  6
HIDDEN
 62
     7
370
     0
100
AcDbPolyline
 90
        3
 70
   128
 43
0.0
 10
5.6697029585
 20
6.6650526019
 10
5.6702902582
 20
6.6649115151
 10
5.6711975296
 20
6.6647177409
  0
ARC
  5
10E
330
1F
100
AcDbEntity
  8
0
  6
HIDDEN
 62
     7
370
     0
100
AcDbCircle
 10
5.7872186357
 20
7.254133381
 30
0.0
 40
0.6006880211275079
100
AcDbArc
 50
245.6629210332
 51
258.7181716915
  0
CIRCLE
  5
10F
330
1F
100
AcDbEntity
  8
0
  6
HIDDEN
 62
     7
370
     0
100
AcDbCircle
 10
3.0376427747
 20
8.425452731
 30
0.0
 40
0.0408547377993962
  0
CIRCLE
  5
110
330
1F
100
AcDbEntity
  8
0
  6
HIDDEN
 62
     7
370
     0
100
AcDbCircle
 10
3.0376427747
 20
6.807452731
 30
0.0
 40
0.0408547377993953
  0
CIRCLE
  5
111
330
1F
100
AcDbEntity
  8
0
  6
HIDDEN
 62
     7
370
     0
100
AcDbCircle
 10
5.6556427747
 20
8.425452731
 30
0.0
 40
0.0408547377993962
  0
CIRCLE
  5
112
330
1F
100
AcDbEntity
  8
0
  6
HIDDEN
 62
     7
370
     0
100
AcDbCircle
 10
5.6556427747
 20
6.807452731
 30
0.0
 40
0.0408547377993953
  0
ARC
  5
113
330
1F
100
AcDbEntity
  8
0
  6
HIDDEN
 62
     7
370
     0
100
AcDbCircle
 10
5.534354947
 20
9.193430586
 30
0.0
 40
0.6673533250703171
100
AcDbArc
 50
270.4597319517
 51
285.0129607099
  0
ARC
  5
114
330
1F
100
AcDbEntity
  8
0
  6
HIDDEN
 62
     7
370
     0
100
AcDbCircle
 10
3.1580820993
 20
9.1855588903
 30
0.0
 40
0.659492934215615
100
AcDbArc
 50
254.8920702368
 51
269.6117210385
  0
LINE
  5
115
330
1F
100
AcDbEntity
  8
0
  6
HIDDEN
 62
     7
370
     0
100
AcDbLine
 10
5.6118910339
 20
8.56818657
 30
0.0
 11
4.3466427747
 21
8.56818657
 31
0.0
  0
LINE
  5
116
330
1F
100
AcDbEntity
  8
0
  6
HIDDEN
 62
     7
370
     0
100
AcDbLine
 10
4.3466427747
 20
8.56818657
 30
0.0
 11
3.0813945155
 21
8.56818657
 31
0.0
  0
LINE
  5
117
330
1F
100
AcDbEntity
  8
0
  6
HIDDEN
 62
     7
370
     0
100
AcDbLine
 10
3.0813945155
 20
8.56818657
 30
0.0
 11
3.0220880198
 21
8.56818657
 31
0.0
  0
LINE
  5
118
330
1F
100
AcDbEntity
  8
0
  6
HIDDEN
 62
     7
370
     0
100
AcDbLine
 10
3.0220880198
 20
8.56818657
 30
0.0
 11
3.0235825913
 21
8.5678518297
 31
0.0
  0
ARC
  5
119
330
1F
100
AcDbEntity
  8
0
  6
HIDDEN
 62
     7
370
     0
100
AcDbCircle
 10
2.9111241564
 20
7.9944994716
 30
0.0
 40
0.5842771825998672
100
AcDbArc
 50
65.4792036583
 51
78.9027738384
  0
ARC
  5
11A
330
1F
100
AcDbEntity
  8
0
  6
HIDDEN
 62
     7
370
     0
100
AcDbCircle
 10
5.7853984668
 20
7.9844113952
 30
0.0
 40
0.5948009677098128
100
AcDbArc
 50
101.2161763864
 51
114.3972423462
  0
LINE
  5
11B
330
1F
100
AcDbEntity
  8
0
  6
HIDDEN
 62
     7
370
     0
100
AcDbLine
 10
5.6697029587
 20
8.5678518297
 30
0.0
 11
5.6711975296
 21
8.56818657
 31
0.0
  0
LINE
  5
11C
330
1F
100
AcDbEntity
  8
0
  6
HIDDEN
 62
     7
370
     0
100
AcDbLine
 10
5.6711975296
 20
8.56818657
 30
0.0
 11
5.6118910339
 21
8.56818657
 31
0.0
  0
ARC
  5
11D
330
1F
100
AcDbEntity
  8
0
  6
HIDDEN
 62
     7
370
     0
100
AcDbCircle
 10
3.3003655995
 20
8.4687217284
 30
0.0
 40
0.3138987408055854
100
AcDbArc
 50
172.3679175861
 51
173.1706326601
  0
ARC
  5
11E
330
1F
100
AcDbEntity
  8
0
  6
HIDDEN
 62
     7
370
     0
100
AcDbCircle
 10
2.224718065
 20
7.741108173
 30
0.0
 40
1.084588546385757
100
AcDbArc
 50
45.1783068433
 51
47.5527101244
  0
ARC
  5
11F
330
1F
100
AcDbEntity
  8
0
  6
HIDDEN
 62
     7
370
     0
100
AcDbCircle
 10
5.3940090087
 20
6.7640486358
 30
0.0
 40
0.3128013444279145
100
AcDbArc
 50
352.3659417808
 51
353.171481829
  0
ARC
  5
120
330
1F
100
AcDbEntity
  8
0
  6
HIDDEN
 62
     7
370
     0
100
AcDbCircle
 10
6.4686881681
 20
7.4919261168
 30
0.0
 40
1.084765059096901
100
AcDbArc
 50
225.1785817465
 51
227.5525989466
  0
ARC
  5
121
330
1F
100
AcDbEntity
  8
0
  6
HIDDEN
 62
     7
370
     0
100
AcDbCircle
 10
5.3940090228
 20
8.4688568279
 30
0.0
 40
0.3128013302168169
100
AcDbArc
 50
6.8285181605
 51
7.6340582454
  0
ARC
  5
122
330
1F
100
AcDbEntity
  8
0
  6
HIDDEN
 62
     7
370
     0
100
AcDbCircle
 10
6.4686880203
 20
7.7409795001
 30
0.0
 40
1.084764844933777
100
AcDbArc
 50
132.4474008182
 51
134.821418487
  0
ARC
  5
123
330
1F
100
AcDbEntity
  8
0
  6
HIDDEN
 62
     7
370
     0
100
AcDbCircle
 10
3.2992091328
 20
6.7640400829
 30
0.0
 40
0.3127333977894033
100
AcDbArc
 50
186.8284306689
 51
187.6341457374
  0
ARC
  5
124
330
1F
100
AcDbEntity
  8
0
  6
HIDDEN
 62
     7
370
     0
100
AcDbCircle
 10
2.2245975291
 20
7.4919259618
 30
0.0
 40
1.084764844971681
100
AcDbArc
 50
312.4474008183
 51
314.8214184869
  0
ARC
  5
125
330
1F
100
AcDbEntity
  8
0
  6
HIDDEN
 62
     7
370
     0
100
AcDbCircle
 10
5.6554574648
 20
8.4256835948
 30
0.0
 40
0.0977225146921229
100
AcDbArc
 50
26.5637360534
 51
29.3879280556
  0
ARC
  5
126
330
1F
100
AcDbEntity
  8
0
  6
HIDDEN
 62
     7
370
     0
100
AcDbCircle
 10
5.7252341714
 20
8.55267126
 30
0.0
 40
0.0851320962967924
100
AcDbArc
 50
281.9519025404
 51
304.5573585281
  0
ARC
  5
127
330
1F
100
AcDbEntity
  8
0
  6
HIDDEN
 62
     7
370
     0
100
AcDbCircle
 10
3.0378617334
 20
6.8072393078
 30
0.0
 40
0.0977604107957162
100
AcDbArc
 50
206.5640596477
 51
209.3871682385
  0
ARC
  5
128
330
1F
100
AcDbEntity
  8
0
  6
HIDDEN
 62
     7
370
     0
100
AcDbCircle
 10
2.968051378
 20
6.6802342019
 30
0.0
 40
0.0851320962978892
100
AcDbArc
 50
101.9519025405
 51
124.557358528
  0
ARC
  5
129
330
1F
100
AcDbEntity
  8
0
  6
HIDDEN
 62
     7
370
     0
100
AcDbCircle
 10
5.6554631736
 20
6.8072189086
 30
0.0
 40
0.0977160854902195
100
AcDbArc
 50
330.611933049
 51
333.4363108092
  0
ARC
  5
12A
330
1F
100
AcDbEntity
  8
0
  6
HIDDEN
 62
     7
370
     0
100
AcDbCircle
 10
5.7211395785
 20
6.6707063343
 30
0.0
 40
0.0953229706625574
100
AcDbArc
 50
56.6644459864
 51
76.8260688379
  0
ARC
  5
12B
330
1F
100
AcDbEntity
  8
0
  6
HIDDEN
 62
     7
370
     0
100
AcDbCircle
 10
3.0378223758
 20
8.4256865533
 30
0.0
 40
0.0977160854898195
100
AcDbArc
 50
150.611933049
 51
153.4363108092
  0
ARC
  5
12C
330
1F
100
AcDbEntity
  8
0
  6
HIDDEN
 62
     7
370
     0
100
AcDbCircle
 10
2.9721459709
 20
8.5621991277
 30
0.0
 40
0.0953229707883177
100
AcDbArc
 50
236.6644459998
 51
256.8260688244
  0
ARC
  5
12D
330
1F
100
AcDbEntity
  8
0
  6
HIDDEN
 62
     7
370
     0
100
AcDbCircle
 10
4.9665175273
 20
9.2455490733
 30
0.0
 40
1.09318697570596
100
AcDbArc
 50
315.0806496345
 51
317.274619836
  0
ARC
  5
12E
330
1F
100
AcDbEntity
  8
0
  6
HIDDEN
 62
     7
370
     0
100
AcDbCircle
 10
5.6982734264
 20
8.1631118469
 30
0.0
 40
0.3133982098501303
100
AcDbArc
 50
82.2372119776
 51
83.0181020807
  0
ARC
  5
12F
330
1F
100
AcDbEntity
  8
0
  6
HIDDEN
 62
     7
370
     0
100
AcDbCircle
 10
3.726768065
 20
5.9873563482
 30
0.0
 40
1.093187034707326
100
AcDbArc
 50
135.0806495594
 51
137.2746198105
  0
ARC
  5
130
330
1F
100
AcDbEntity
  8
0
  6
HIDDEN
 62
     7
370
     0
100
AcDbCircle
 10
2.9951078353
 20
7.0705486886
 30
0.0
 40
0.3141593186803254
100
AcDbArc
 50
262.2385161383
 51
263.0175150041
  0
ARC
  5
131
330
1F
100
AcDbEntity
  8
0
  6
HIDDEN
 62
     7
370
     0
100
AcDbCircle
 10
3.6529271394
 20
9.1746828599
 30
0.0
 40
0.990862684806362
100
AcDbArc
 50
222.6120806678
 51
225.0326500265
  0
ARC
  5
132
330
1F
100
AcDbEntity
  8
0
  6
HIDDEN
 62
     7
370
     0
100
AcDbCircle
 10
2.9950400253
 20
8.1628912481
 30
0.0
 40
0.3136205645341168
100
AcDbArc
 50
96.9820587567
 51
97.7623932833
  0
ARC
  5
133
330
1F
100
AcDbEntity
  8
0
  6
HIDDEN
 62
     7
370
     0
100
AcDbCircle
 10
5.0403584099
 20
6.058222602
 30
0.0
 40
0.9908626848248038
100
AcDbArc
 50
42.6120806678
 51
45.0326500264
  0
ARC
  5
134
330
1F
100
AcDbEntity
  8
0
  6
HIDDEN
 62
     7
370
     0
100
AcDbCircle
 10
5.698245524
 20
7.0700142138
 30
0.0
 40
0.3136205644888821
100
AcDbArc
 50
276.9820587566
 51
277.7623932834
  0
ARC
  5
135
330
1F
100
AcDbEntity
  8
0
  6
HIDDEN
 62
     7
370
     0
100
AcDbCircle
 10
4.0226508118
 20
5.1135952078
 30
0.0
 40
2.379399311993041
100
AcDbArc
 50
41.5891024917
 51
42.7609201463
  0
LWPOLYLINE
  5
136
330
1F
100
AcDbEntity
  8
0
  6
HIDDEN
 62
     7
370
     0
100
AcDbPolyline
 90
        3
 70
   128
 43
0.0
 10
5.7735234934
 20
6.7503454842
 10
5.7724369904
 20
6.7396648251
 10
5.769587561
 20
6.7290659742
  0
ARC
  5
137
330
1F
100
AcDbEntity
  8
0
  6
HIDDEN
 62
     7
370
     0
100
AcDbCircle
 10
7.0352272742
 20
8.1017524113
 30
0.0
 40
1.917129605689229
100
AcDbArc
 50
227.3591860151
 51
228.7737658315
  0
ARC
  5
138
330
1F
100
AcDbEntity
  8
0
  6
HIDDEN
 62
     7
370
     0
100
AcDbCircle
 10
5.8588349347
 20
6.8919713428
 30
0.0
 40
0.2574166987992139
100
AcDbArc
 50
233.879750192
 51
251.9256954119
  0
ARC
  5
139
330
1F
100
AcDbEntity
  8
0
  6
HIDDEN
 62
     7
370
     0
100
AcDbCircle
 10
5.5117219855
 20
6.5371043007
 30
0.0
 40
0.3376565681751519
100
AcDbArc
 50
25.7881987577
 51
39.1632974317
  0
LWPOLYLINE
  5
13A
330
1F
100
AcDbEntity
  8
0
  6
HIDDEN
 62
     7
370
     0
100
AcDbPolyline
 90
        3
 70
   128
 43
0.0
 10
5.7365664027
 20
6.6914811685
 10
5.7228731807
 20
6.6862368639
 10
5.7070924538
 20
6.6840384569
  0
ARC
  5
13B
330
1F
100
AcDbEntity
  8
0
  6
HIDDEN
 62
     7
370
     0
100
AcDbCircle
 10
4.6706347375
 20
10.1193102541
 30
0.0
 40
2.379399312007684
100
AcDbArc
 50
221.5891024917
 51
222.7609201463
  0
LWPOLYLINE
  5
13C
330
1F
100
AcDbEntity
  8
0
  6
HIDDEN
 62
     7
370
     0
100
AcDbPolyline
 90
        3
 70
   128
 43
0.0
 10
2.9197620559
 20
8.4825599777
 10
2.920848559
 20
8.4932406369
 10
2.9236979884
 20
8.5038394877
  0
ARC
  5
13D
330
1F
100
AcDbEntity
  8
0
  6
HIDDEN
 62
     7
370
     0
100
AcDbCircle
 10
1.6580582752
 20
7.1311530506
 30
0.0
 40
1.91712960568136
100
AcDbArc
 50
47.3591860151
 51
48.7737658315
  0
ARC
  5
13E
330
1F
100
AcDbEntity
  8
0
  6
HIDDEN
 62
     7
370
     0
100
AcDbCircle
 10
2.8017178186
 20
8.2770087913
 30
0.0
 40
0.3285336636195028
100
AcDbArc
 50
55.8396397009
 51
69.9583503126
  0
ARC
  5
13F
330
1F
100
AcDbEntity
  8
0
  6
HIDDEN
 62
     7
370
     0
100
AcDbCircle
 10
3.181563604
 20
8.6958011822
 30
0.0
 40
0.3376566125356162
100
AcDbArc
 50
205.7881986846
 51
219.1632958902
  0
LWPOLYLINE
  5
140
330
1F
100
AcDbEntity
  8
0
  6
HIDDEN
 62
     7
370
     0
100
AcDbPolyline
 90
        3
 70
   128
 43
0.0
 10
2.9567191466
 20
8.5414242934
 10
2.9704123686
 20
8.546668598
 10
2.9861930955
 20
8.548867005
  0
ARC
  5
141
330
1F
100
AcDbEntity
  8
0
  6
HIDDEN
 62
     7
370
     0
100
AcDbCircle
 10
4.0226508032
 20
10.1193102619
 30
0.0
 40
2.379399323645196
100
AcDbArc
 50
317.2390798466
 51
318.4108975063
  0
LWPOLYLINE
  5
142
330
1F
100
AcDbEntity
  8
0
  6
HIDDEN
 62
     7
370
     0
100
AcDbPolyline
 90
        3
 70
   128
 43
0.0
 10
5.7735237339
 20
8.4825599773
 10
5.7724666562
 20
8.4930730307
 10
5.7695891346
 20
8.5038400372
  0
ARC
  5
143
330
1F
100
AcDbEntity
  8
0
  6
HIDDEN
 62
     7
370
     0
100
AcDbCircle
 10
7.0352272741
 20
7.1311530507
 30
0.0
 40
1.917129605665266
100
AcDbArc
 50
131.2262341685
 51
132.6408139849
  0
ARC
  5
144
330
1F
100
AcDbEntity
  8
0
  6
HIDDEN
 62
     7
370
     0
100
AcDbCircle
 10
5.8732130711
 20
8.3134996533
 30
0.0
 40
0.2880012979544067
100
AcDbArc
 50
109.0990748112
 51
125.1939883639
  0
ARC
  5
145
330
1F
100
AcDbEntity
  8
0
  6
HIDDEN
 62
     7
370
     0
100
AcDbCircle
 10
5.5026940312
 20
8.7016229881
 30
0.0
 40
0.3483331125344555
100
AcDbArc
 50
321.0317662236
 51
333.9965601733
  0
LWPOLYLINE
  5
146
330
1F
100
AcDbEntity
  8
0
  6
HIDDEN
 62
     7
370
     0
100
AcDbPolyline
 90
        3
 70
   128
 43
0.0
 10
5.736564807
 20
8.541421108
 10
5.7218161044
 20
8.5469386257
 10
5.7072245091
 20
8.5488661587
  0
ARC
  5
147
330
1F
100
AcDbEntity
  8
0
  6
HIDDEN
 62
     7
370
     0
100
AcDbCircle
 10
4.6706347462
 20
5.1135952
 30
0.0
 40
2.379399323676225
100
AcDbArc
 50
137.2390798466
 51
138.4108975063
  0
LWPOLYLINE
  5
148
330
1F
100
AcDbEntity
  8
0
  6
HIDDEN
 62
     7
370
     0
100
AcDbPolyline
 90
        3
 70
   128
 43
0.0
 10
2.9197618154
 20
6.7503454847
 10
2.9208188932
 20
6.7398324312
 10
2.9236964148
 20
6.7290654248
  0
ARC
  5
149
330
1F
100
AcDbEntity
  8
0
  6
HIDDEN
 62
     7
370
     0
100
AcDbCircle
 10
1.6580582752
 20
8.1017524113
 30
0.0
 40
1.917129605680528
100
AcDbArc
 50
311.2262341685
 51
312.6408139849
  0
ARC
  5
14A
330
1F
100
AcDbEntity
  8
0
  6
HIDDEN
 62
     7
370
     0
100
AcDbCircle
 10
2.8703789448
 20
6.8213209747
 30
0.0
 40
0.1795232701833116
100
AcDbArc
 50
284.1660090782
 51
310.1195775876
  0
ARC
  5
14B
330
1F
100
AcDbEntity
  8
0
  6
HIDDEN
 62
     7
370
     0
100
AcDbCircle
 10
3.1062777568
 20
6.5850218615
 30
0.0
 40
0.2492390353784543
100
AcDbArc
 50
138.4469266541
 51
156.6015771566
  0
LWPOLYLINE
  5
14C
330
1F
100
AcDbEntity
  8
0
  6
HIDDEN
 62
     7
370
     0
100
AcDbPolyline
 90
        3
 70
   128
 43
0.0
 10
2.9567207424
 20
6.691484354
 10
2.971469445
 20
6.6859668362
 10
2.9860610402
 20
6.6840393032
  0
ARC
  5
14D
330
1F
100
AcDbEntity
  8
0
  6
HIDDEN
 62
     7
370
     0
100
AcDbCircle
 10
5.7550466363
 20
6.7058327343
 30
0.0
 40
0.0489270378507701
100
AcDbArc
 50
289.9921795278
 51
344.7941624519
  0
LINE
  5
14E
330
1F
100
AcDbEntity
  8
0
  6
HIDDEN
 62
     7
370
     0
100
AcDbLine
 10
5.8022653141
 20
6.6929985431
 30
0.0
 11
5.7363687813
 21
6.7587193765
 31
0.0
  0
LINE
  5
14F
330
1F
100
AcDbEntity
  8
0
  6
HIDDEN
 62
     7
370
     0
100
AcDbLine
 10
5.7045914815
 20
6.7268571227
 30
0.0
 11
5.7717748121
 21
6.6598529225
 31
0.0
  0
ARC
  5
150
330
1F
100
AcDbEntity
  8
0
  6
HIDDEN
 62
     7
370
     0
100
AcDbCircle
 10
5.6556427747
 20
6.807452731
 30
0.0
 40
0.0942954292369161
100
AcDbArc
 50
301.2718647139
 51
328.8811063964
  0
ARC
  5
151
330
1F
100
AcDbEntity
  8
0
  6
HIDDEN
 62
     7
370
     0
100
AcDbCircle
 10
2.9382389131
 20
8.5270727276
 30
0.0
 40
0.0489270378507734
100
AcDbArc
 50
109.9921795278
 51
164.7941624525
  0
LINE
  5
152
330
1F
100
AcDbEntity
  8
0
  6
HIDDEN
 62
     7
370
     0
100
AcDbLine
 10
2.8910202353
 20
8.5399069189
 30
0.0
 11
2.9569167681
 21
8.4741860854
 31
0.0
  0
LINE
  5
153
330
1F
100
AcDbEntity
  8
0
  6
HIDDEN
 62
     7
370
     0
100
AcDbLine
 10
2.9886940679
 20
8.5060483393
 30
0.0
 11
2.9215107373
 21
8.5730525394
 31
0.0
  0
ARC
  5
154
330
1F
100
AcDbEntity
  8
0
  6
HIDDEN
 62
     7
370
     0
100
AcDbCircle
 10
3.0376427747
 20
8.425452731
 30
0.0
 40
0.0942954292369166
100
AcDbArc
 50
121.2718647139
 51
148.8811063964
  0
ARC
  5
155
330
1F
100
AcDbEntity
  8
0
  6
HIDDEN
 62
     7
370
     0
100
AcDbCircle
 10
2.9382399542
 20
6.705833692
 30
0.0
 40
0.0489282937466199
100
AcDbArc
 50
195.2065999018
 51
250.0070581171
  0
LINE
  5
156
330
1F
100
AcDbEntity
  8
0
  6
HIDDEN
 62
     7
370
     0
100
AcDbLine
 10
2.9569167681
 20
6.7587193765
 30
0.0
 11
2.8910202353
 21
6.6929985431
 31
0.0
  0
LINE
  5
157
330
1F
100
AcDbEntity
  8
0
  6
HIDDEN
 62
     7
370
     0
100
AcDbLine
 10
2.9215107373
 20
6.6598529225
 30
0.0
 11
2.9886940679
 21
6.7268571227
 31
0.0
  0
ARC
  5
158
330
1F
100
AcDbEntity
  8
0
  6
HIDDEN
 62
     7
370
     0
100
AcDbCircle
 10
3.0376427747
 20
6.807452731
 30
0.0
 40
0.0942954292369168
100
AcDbArc
 50
211.1188936036
 51
238.7281352861
  0
ARC
  5
159
330
1F
100
AcDbEntity
  8
0
  6
HIDDEN
 62
     7
370
     0
100
AcDbCircle
 10
5.7550455951
 20
8.52707177
 30
0.0
 40
0.048928293746633
100
AcDbArc
 50
15.2065999018
 51
70.0070581171
  0
LINE
  5
15A
330
1F
100
AcDbEntity
  8
0
  6
HIDDEN
 62
     7
370
     0
100
AcDbLine
 10
5.7363687813
 20
8.4741860854
 30
0.0
 11
5.8022653141
 21
8.5399069189
 31
0.0
  0
LINE
  5
15B
330
1F
100
AcDbEntity
  8
0
  6
HIDDEN
 62
     7
370
     0
100
AcDbLine
 10
5.7717748121
 20
8.5730525394
 30
0.0
 11
5.7045914815
 21
8.5060483393
 31
0.0
  0
ARC
  5
15C
330
1F
100
AcDbEntity
  8
0
  6
HIDDEN
 62
     7
370
     0
100
AcDbCircle
 10
5.6556427747
 20
8.425452731
 30
0.0
 40
0.094295429236915
100
AcDbArc
 50
31.1188936036
 51
58.7281352861
  0
ARC
  5
15D
330
1F
100
AcDbEntity
  8
0
  6
HIDDEN
 62
     7
370
     0
100
AcDbCircle
 10
3.0376427747
 20
6.807452731
 30
0.0
 40
0.0450000000000124
100
AcDbArc
 50
287.7632003469
 51
90.0
  0
ARC
  5
15E
330
1F
100
AcDbEntity
  8
0
  6
HIDDEN
 62
     7
370
     0
100
AcDbCircle
 10
3.0376427747
 20
6.807452731
 30
0.0
 40
0.0450000000000115
100
AcDbArc
 50
90.0
 51
156.5012853123
  0
CIRCLE
  5
15F
330
1F
100
AcDbEntity
  8
0
  6
HIDDEN
 62
     7
370
     0
100
AcDbCircle
 10
3.0376427747
 20
6.807452731
 30
0.0
 40
0.0937499999999885
  0
ARC
  5
160
330
1F
100
AcDbEntity
  8
0
  6
HIDDEN
 62
     7
370
     0
100
AcDbCircle
 10
5.6556427747
 20
8.425452731
 30
0.0
 40
0.0450000000000124
100
AcDbArc
 50
25.3826821016
 51
90.0
  0
ARC
  5
161
330
1F
100
AcDbEntity
  8
0
  6
HIDDEN
 62
     7
370
     0
100
AcDbCircle
 10
5.6556427747
 20
8.425452731
 30
0.0
 40
0.0450000000000127
100
AcDbArc
 50
106.1105942491
 51
21.0260926691
  0
LINE
  5
162
330
1F
100
AcDbEntity
  8
0
  6
HIDDEN
 62
     7
370
     0
100
AcDbLine
 10
5.6442879536
 20
8.4689965943
 30
0.0
 11
5.6556427747
 21
8.470452731
 31
0.0
  0
CIRCLE
  5
163
330
1F
100
AcDbEntity
  8
0
  6
HIDDEN
 62
     7
370
     0
100
AcDbCircle
 10
5.6556427747
 20
8.425452731
 30
0.0
 40
0.0937499999999876
  0
ARC
  5
164
330
1F
100
AcDbEntity
  8
0
  6
HIDDEN
 62
     7
370
     0
100
AcDbCircle
 10
5.6556427747
 20
6.807452731
 30
0.0
 40
0.0450000000000117
100
AcDbArc
 50
16.7805845403
 51
90.0
  0
ARC
  5
165
330
1F
100
AcDbEntity
  8
0
  6
HIDDEN
 62
     7
370
     0
100
AcDbCircle
 10
5.6556427747
 20
6.807452731
 30
0.0
 40
0.045000000000012
100
AcDbArc
 50
90.0
 51
250.2933973455
  0
CIRCLE
  5
166
330
1F
100
AcDbEntity
  8
0
  6
HIDDEN
 62
     7
370
     0
100
AcDbCircle
 10
5.6556427747
 20
6.807452731
 30
0.0
 40
0.0937499999999885
  0
ARC
  5
167
330
1F
100
AcDbEntity
  8
0
  6
HIDDEN
 62
     7
370
     0
100
AcDbCircle
 10
3.0376427747
 20
8.425452731
 30
0.0
 40
0.0450000000000124
100
AcDbArc
 50
207.0106270057
 51
90.0
  0
ARC
  5
168
330
1F
100
AcDbEntity
  8
0
  6
HIDDEN
 62
     7
370
     0
100
AcDbCircle
 10
3.0376427747
 20
8.425452731
 30
0.0
 40
0.0450000000000124
100
AcDbArc
 50
90.0
 51
194.7380459959
  0
CIRCLE
  5
169
330
1F
100
AcDbEntity
  8
0
  6
HIDDEN
 62
     7
370
     0
100
AcDbCircle
 10
3.0376427747
 20
8.425452731
 30
0.0
 40
0.0937499999999876
  0
ARC
  5
16A
330
1F
100
AcDbEntity
  8
0
  6
HIDDEN
 62
     7
370
     0
100
AcDbCircle
 10
2.9142648142
 20
6.6839868847
 30
0.0
 40
0.0367300392824745
100
AcDbArc
 50
179.9790394661
 51
270.0768388689
  0
ARC
  5
16B
330
1F
100
AcDbEntity
  8
0
  6
HIDDEN
 62
     7
370
     0
100
AcDbCircle
 10
5.7790207563
 20
8.5489185906
 30
0.0
 40
0.0367300181417739
100
AcDbArc
 50
359.9788123491
 51
90.0662503511
  0
ARC
  5
16C
330
1F
100
AcDbEntity
  8
0
  6
HIDDEN
 62
     7
370
     0
100
AcDbCircle
 10
2.9142647932
 20
8.5489185905
 30
0.0
 40
0.0367300182865874
100
AcDbArc
 50
89.9336365241
 51
180.0209780452
  0
ARC
  5
16D
330
1F
100
AcDbEntity
  8
0
  6
HIDDEN
 62
     7
370
     0
100
AcDbCircle
 10
5.7790207348
 20
6.6839868849
 30
0.0
 40
0.0367300396259292
100
AcDbArc
 50
269.9229993392
 51
0.0209601988
  0
LINE
  5
16E
330
1F
100
AcDbEntity
  8
0
  6
HIDDEN
 62
     7
370
     0
100
AcDbLine
 10
2.9143073361
 20
8.5856476872
 30
0.0
 11
5.7789782859
 21
8.5856476872
 31
0.0
  0
LINE
  5
16F
330
1F
100
AcDbEntity
  8
0
  6
HIDDEN
 62
     7
370
     0
100
AcDbLine
 10
5.7789713728
 20
6.6472577747
 30
0.0
 11
2.9143140725
 21
6.6472577747
 31
0.0
  0
LINE
  5
170
330
1F
100
AcDbEntity
  8
0
  6
HIDDEN
 62
     7
370
     0
100
AcDbLine
 10
5.8157646138
 20
8.5489050069
 30
0.0
 11
5.8157646138
 21
6.6840003228
 31
0.0
  0
LINE
  5
171
330
1F
100
AcDbEntity
  8
0
  6
HIDDEN
 62
     7
370
     0
100
AcDbLine
 10
2.8775209356
 20
6.6840003228
 30
0.0
 11
2.8775209356
 21
8.5489051412
 31
0.0
  0
ARC
  5
172
330
1F
100
AcDbEntity
  8
0
  6
HIDDEN
 62
     7
370
     0
100
AcDbCircle
 10
5.7846427747
 20
6.678952731
 30
0.0
 40
0.0657000000000458
100
AcDbArc
 50
270.0
 51
359.9999999991
  0
LINE
  5
173
330
1F
100
AcDbEntity
  8
0
  6
HIDDEN
 62
     7
370
     0
100
AcDbLine
 10
5.7846427747
 20
6.613252731
 30
0.0
 11
5.7846427747
 21
6.6114066235
 31
0.0
  0
LINE
  5
174
330
1F
100
AcDbEntity
  8
0
  6
HIDDEN
 62
     7
370
     0
100
AcDbLine
 10
2.9086427747
 20
6.613252731
 30
0.0
 11
5.7846427747
 21
6.613252731
 31
0.0
  0
LINE
  5
175
330
1F
100
AcDbEntity
  8
0
  6
HIDDEN
 62
     7
370
     0
100
AcDbLine
 10
5.8521888822
 20
6.678952731
 30
0.0
 11
5.8503427747
 21
6.678952731
 31
0.0
  0
LINE
  5
176
330
1F
100
AcDbEntity
  8
0
  6
HIDDEN
 62
     7
370
     0
100
AcDbLine
 10
5.8503427747
 20
6.678952731
 30
0.0
 11
5.8503427747
 21
8.553952731
 31
0.0
  0
LINE
  5
177
330
1F
100
AcDbEntity
  8
0
  6
HIDDEN
 62
     7
370
     0
100
AcDbLine
 10
5.8503427747
 20
8.553952731
 30
0.0
 11
5.8521888822
 21
8.553952731
 31
0.0
  0
ARC
  5
178
330
1F
100
AcDbEntity
  8
0
  6
HIDDEN
 62
     7
370
     0
100
AcDbCircle
 10
5.7846427747
 20
8.553952731
 30
0.0
 40
0.0656999999999961
100
AcDbArc
 50
359.9999999998
 51
90.0
  0
LINE
  5
179
330
1F
100
AcDbEntity
  8
0
  6
HIDDEN
 62
     7
370
     0
100
AcDbLine
 10
2.8429427747
 20
8.553952731
 30
0.0
 11
2.8429427747
 21
6.678952731
 31
0.0
  0
LINE
  5
17A
330
1F
100
AcDbEntity
  8
0
  6
HIDDEN
 62
     7
370
     0
100
AcDbLine
 10
2.8410966672
 20
8.553952731
 30
0.0
 11
2.8429427747
 21
8.553952731
 31
0.0
  0
ARC
  5
17B
330
1F
100
AcDbEntity
  8
0
  6
HIDDEN
 62
     7
370
     0
100
AcDbCircle
 10
2.9086427747
 20
8.553952731
 30
0.0
 40
0.0657000000000987
100
AcDbArc
 50
89.9999999999
 51
179.9999999991
  0
LINE
  5
17C
330
1F
100
AcDbEntity
  8
0
  6
HIDDEN
 62
     7
370
     0
100
AcDbLine
 10
2.8429427747
 20
6.678952731
 30
0.0
 11
2.8410966672
 21
6.678952731
 31
0.0
  0
LINE
  5
17D
330
1F
100
AcDbEntity
  8
0
  6
HIDDEN
 62
     7
370
     0
100
AcDbLine
 10
2.9086427747
 20
6.6114066235
 30
0.0
 11
2.9086427747
 21
6.613252731
 31
0.0
  0
ARC
  5
17E
330
1F
100
AcDbEntity
  8
0
  6
HIDDEN
 62
     7
370
     0
100
AcDbCircle
 10
2.9086427747
 20
6.678952731
 30
0.0
 40
0.0656999999999961
100
AcDbArc
 50
179.9999999998
 51
270.0
  0
LINE
  5
17F
330
1F
100
AcDbEntity
  8
0
  6
HIDDEN
 62
     7
370
     0
100
AcDbLine
 10
2.9086427747
 20
8.619652731
 30
0.0
 11
2.9086427747
 21
8.6214988384
 31
0.0
  0
LINE
  5
180
330
1F
100
AcDbEntity
  8
0
  6
HIDDEN
 62
     7
370
     0
100
AcDbLine
 10
5.7846427747
 20
8.6214988384
 30
0.0
 11
5.7846427747
 21
8.619652731
 31
0.0
  0
LINE
  5
181
330
1F
100
AcDbEntity
  8
0
  6
HIDDEN
 62
     7
370
     0
100
AcDbLine
 10
5.7846427747
 20
8.619652731
 30
0.0
 11
2.9086427747
 21
8.619652731
 31
0.0
  0
LINE
  5
182
330
1F
100
AcDbEntity
  8
0
  6
HIDDEN
 62
     7
370
     0
100
AcDbLine
 10
2.9086427747
 20
8.6214988384
 30
0.0
 11
5.7846427747
 21
8.6214988384
 31
0.0
  0
ARC
  5
183
330
1F
100
AcDbEntity
  8
0
  6
HIDDEN
 62
     7
370
     0
100
AcDbCircle
 10
2.9086427747
 20
6.678952731
 30
0.0
 40
0.067546107471923
100
AcDbArc
 50
179.9999999999
 51
270.0
  0
ARC
  5
184
330
1F
100
AcDbEntity
  8
0
  6
HIDDEN
 62
     7
370
     0
100
AcDbCircle
 10
2.9086427747
 20
8.553952731
 30
0.0
 40
0.067546107473003
100
AcDbArc
 50
90.0
 51
179.9999999999
  0
LINE
  5
185
330
1F
100
AcDbEntity
  8
0
  6
HIDDEN
 62
     7
370
     0
100
AcDbLine
 10
2.8410966672
 20
6.678952731
 30
0.0
 11
2.8410966672
 21
8.553952731
 31
0.0
  0
ARC
  5
186
330
1F
100
AcDbEntity
  8
0
  6
HIDDEN
 62
     7
370
     0
100
AcDbCircle
 10
5.7846427747
 20
8.553952731
 30
0.0
 40
0.067546107471923
100
AcDbArc
 50
359.9999999999
 51
90.0
  0
LINE
  5
187
330
1F
100
AcDbEntity
  8
0
  6
HIDDEN
 62
     7
370
     0
100
AcDbLine
 10
5.8521888822
 20
8.553952731
 30
0.0
 11
5.8521888822
 21
6.678952731
 31
0.0
  0
LINE
  5
188
330
1F
100
AcDbEntity
  8
0
  6
HIDDEN
 62
     7
370
     0
100
AcDbLine
 10
5.7846427747
 20
6.6114066235
 30
0.0
 11
2.9086427747
 21
6.6114066235
 31
0.0
  0
ARC
  5
189
330
1F
100
AcDbEntity
  8
0
  6
HIDDEN
 62
     7
370
     0
100
AcDbCircle
 10
5.7846427747
 20
6.678952731
 30
0.0
 40
0.0675461074729675
100
AcDbArc
 50
270.0
 51
359.9999999999
  0
CIRCLE
  5
18A
330
1F
100
AcDbEntity
  8
0
  6
HIDDEN
 62
     7
370
     0
100
AcDbCircle
 10
3.0341427747
 20
6.803952731
 30
0.0
 40
0.0289999999992903
  0
ARC
  5
18B
330
1F
100
AcDbEntity
  8
0
  6
HIDDEN
 62
     7
370
     0
100
AcDbCircle
 10
3.0341427747
 20
6.803952731
 30
0.0
 40
0.0550000000000019
100
AcDbArc
 50
258.4962943907
 51
282.075910672
  0
ARC
  5
18C
330
1F
100
AcDbEntity
  8
0
  6
HIDDEN
 62
     7
370
     0
100
AcDbCircle
 10
3.0135572174
 20
6.7875510625
 30
0.0
 40
0.0387071652269853
100
AcDbArc
 50
284.3858711772
 51
342.389162771
  0
ARC
  5
18D
330
1F
100
AcDbEntity
  8
0
  6
HIDDEN
 62
     7
370
     0
100
AcDbCircle
 10
3.0341427747
 20
6.803952731
 30
0.0
 40
0.0324999999997296
100
AcDbArc
 50
226.3863714355
 51
300.1171960253
  0
ARC
  5
18E
330
1F
100
AcDbEntity
  8
0
  6
HIDDEN
 62
     7
370
     0
100
AcDbCircle
 10
3.0311651821
 20
6.8122370846
 30
0.0
 40
0.0372841485290704
100
AcDbArc
 50
164.2483356918
 51
238.5725585052
  0
ARC
  5
18F
330
1F
100
AcDbEntity
  8
0
  6
HIDDEN
 62
     7
370
     0
100
AcDbCircle
 10
3.0341427747
 20
6.803952731
 30
0.0
 40
0.0429999999997205
100
AcDbArc
 50
131.3560440187
 51
154.6566117158
  0
ARC
  5
190
330
1F
100
AcDbEntity
  8
0
  6
HIDDEN
 62
     7
370
     0
100
AcDbCircle
 10
3.0449108076
 20
6.827861576
 30
0.0
 40
0.0400632887595535
100
AcDbArc
 50
167.9442727509
 51
191.8023001912
  0
ARC
  5
191
330
1F
100
AcDbEntity
  8
0
  6
HIDDEN
 62
     7
370
     0
100
AcDbCircle
 10
3.0341427747
 20
6.803952731
 30
0.0
 40
0.0324999999993305
100
AcDbArc
 50
74.3568089602
 51
151.0842738657
  0
LWPOLYLINE
  5
192
330
1F
100
AcDbEntity
  8
0
  6
HIDDEN
 62
     7
370
     0
100
AcDbPolyline
 90
       11
 70
   128
 43
0.0
 10
3.0429062632
 20
6.8352489171
 10
3.0543302711
 20
6.8330478504
 10
3.0643851675
 20
6.8270715247
 10
3.0719869153
 20
6.8181036772
 10
3.0771784686
 20
6.8059365
 10
3.0776295544
 20
6.803952731
 10
3.0782803827
 20
6.7913259736
 10
3.0744261363
 20
6.7771594579
 10
3.0662036514
 20
6.7644084657
 10
3.0525437699
 20
6.7533755832
 10
3.0456491843
 20
6.7501698105
  0
ARC
  5
193
330
1F
100
AcDbEntity
  8
0
  6
HIDDEN
 62
     7
370
     0
100
AcDbCircle
 10
3.034264492
 20
6.8040228563
 30
0.0
 40
0.032399800643019
100
AcDbArc
 50
293.9643096517
 51
74.5306426048
  0
ARC
  5
194
330
1F
100
AcDbEntity
  8
0
  6
HIDDEN
 62
     7
370
     0
100
AcDbCircle
 10
3.016301385
 20
6.8155507902
 30
0.0
 40
0.0416102096232139
100
AcDbArc
 50
25.1348751598
 51
85.3172829219
  0
LINE
  5
195
330
1F
100
AcDbEntity
  8
0
  6
HIDDEN
 62
     7
370
     0
100
AcDbLine
 10
3.0523763929
 20
6.830849823
 30
0.0
 11
3.0539865396
 21
6.8332250106
 31
0.0
  0
LWPOLYLINE
  5
196
330
1F
100
AcDbEntity
  8
0
  6
HIDDEN
 62
     7
370
     0
100
AcDbPolyline
 90
       19
 70
   128
 43
0.0
 10
3.0231740526
 20
6.7500575815
 10
3.0055003831
 20
6.7569994201
 10
2.9912243473
 20
6.769557839
 10
2.982059797
 20
6.7862789244
 10
2.9791510926
 20
6.8049092381
 10
2.9827612941
 20
6.8235727068
 10
2.9925513433
 20
6.8399409629
 10
3.0071520584
 20
6.8518745551
 10
3.0250728288
 20
6.8581997224
 10
3.0341427747
 20
6.858952731
 10
3.0527205668
 20
6.8557201497
 10
3.0690886598
 20
6.8464237224
 10
3.0815051007
 20
6.8319135978
 10
3.0881775621
 20
6.8142114711
 10
3.0884711747
 20
6.7953838949
 10
3.0822677635
 20
6.7773259503
 10
3.0703899959
 20
6.7625868156
 10
3.0543087998
 20
6.7527830971
 10
3.0402541807
 20
6.7501135409
  0
LINE
  5
197
330
1F
100
AcDbEntity
  8
0
  6
HIDDEN
 62
     7
370
     0
100
AcDbLine
 10
3.0278805688
 20
6.7500423701
 30
0.0
 11
3.0195002789
 21
6.7515005611
 31
0.0
  0
LINE
  5
198
330
1F
100
AcDbEntity
  8
0
  6
HIDDEN
 62
     7
370
     0
100
AcDbLine
 10
3.0139767496
 20
6.8551223648
 30
0.0
 11
3.0196983541
 21
6.8570221074
 31
0.0
  0
ARC
  5
199
330
1F
100
AcDbEntity
  8
0
  6
HIDDEN
 62
     7
370
     0
100
AcDbCircle
 10
3.0340421192
 20
6.803913335
 30
0.0
 40
0.0324020779541949
100
AcDbArc
 50
150.0609294435
 51
226.4671822635
  0
ARC
  5
19A
330
1F
100
AcDbEntity
  8
0
  6
HIDDEN
 62
     7
370
     0
100
AcDbCircle
 10
3.0341349885
 20
6.8040655109
 30
0.0
 40
0.0429102556383676
100
AcDbArc
 50
352.7386435515
 51
131.4477398881
  0
ARC
  5
19B
330
1F
100
AcDbEntity
  8
0
  6
HIDDEN
 62
     7
370
     0
100
AcDbCircle
 10
3.0336582774
 20
6.8033965688
 30
0.0
 40
0.0426221628620749
100
AcDbArc
 50
152.28023459
 51
340.3121773516
  0
LINE
  5
19C
330
1F
100
AcDbEntity
  8
0
  6
HIDDEN
 62
     7
370
     0
100
AcDbLine
 10
3.0056719133
 20
6.8361768818
 30
0.0
 11
3.0175947962
 21
6.8434766911
 31
0.0
  0
LINE
  5
19D
330
1F
100
AcDbEntity
  8
0
  6
HIDDEN
 62
     7
370
     0
100
AcDbLine
 10
3.049896467
 20
6.7639424676
 30
0.0
 11
3.0460989313
 21
6.762648369
 31
0.0
  0
ARC
  5
19E
330
1F
100
AcDbEntity
  8
0
  6
HIDDEN
 62
     7
370
     0
100
AcDbCircle
 10
3.0530075199
 20
6.7983406159
 30
0.0
 40
0.0363547120192275
100
AcDbArc
 50
226.2930858792
 51
259.0453002156
  0
LINE
  5
19F
330
1F
100
AcDbEntity
  8
0
  6
HIDDEN
 62
     7
370
     0
100
AcDbLine
 10
3.0196983541
 20
6.8570221074
 30
0.0
 11
3.0221487053
 21
6.8576290041
 31
0.0
  0
LWPOLYLINE
  5
1A0
330
1F
100
AcDbEntity
  8
0
  6
HIDDEN
 62
     7
370
     0
100
AcDbPolyline
 90
        3
 70
   128
 43
0.0
 10
3.0231740526
 20
6.7500575815
 10
3.0105280386
 20
6.754280362
 10
3.004222586
 20
6.7578031664
  0
LINE
  5
1A1
330
1F
100
AcDbEntity
  8
0
  6
HIDDEN
 62
     7
370
     0
100
AcDbLine
 10
2.9956352887
 20
6.8432232482
 30
0.0
 11
3.00112609
 21
6.8479402125
 31
0.0
  0
ARC
  5
1A2
330
1F
100
AcDbEntity
  8
0
  6
HIDDEN
 62
     7
370
     0
100
AcDbCircle
 10
3.0254424873
 20
6.7855181668
 30
0.0
 40
0.0383431888330616
100
AcDbArc
 50
336.0811007245
 51
6.7823907637
  0
ARC
  5
1A3
330
1F
100
AcDbEntity
  8
0
  6
HIDDEN
 62
     7
370
     0
100
AcDbCircle
 10
3.0340549794
 20
6.8254512628
 30
0.0
 40
0.0398756143670242
100
AcDbArc
 50
145.668682078
 51
215.7977764376
  0
CIRCLE
  5
1A4
330
1F
100
AcDbEntity
  8
0
  6
HIDDEN
 62
     7
370
     0
100
AcDbCircle
 10
3.0341427747
 20
6.803952731
 30
0.0
 40
0.1060000000006172
  0
ARC
  5
1A5
330
1F
100
AcDbEntity
  8
0
  6
HIDDEN
 62
     7
370
     0
100
AcDbCircle
 10
4.4590033643
 20
6.8003397901
 30
0.0
 40
1.436662919768531
100
AcDbArc
 50
180.3256784707
 51
182.7136286488
  0
LINE
  5
1A6
330
1F
100
AcDbEntity
  8
0
  6
HIDDEN
 62
     7
370
     0
100
AcDbLine
 10
3.0239514584
 20
6.7323223488
 30
0.0
 11
3.0287723085
 21
6.7785588943
 31
0.0
  0
LWPOLYLINE
  5
1A7
330
1F
100
AcDbEntity
  8
0
  6
HIDDEN
 62
     7
370
     0
100
AcDbPolyline
 90
        3
 70
   128
 43
0.0
 10
3.044334091
 20
6.7323223488
 10
3.0341427747
 20
6.7320903662
 10
3.0239514584
 20
6.7323223488
  0
LINE
  5
1A8
330
1F
100
AcDbEntity
  8
0
  6
HIDDEN
 62
     7
370
     0
100
AcDbLine
 10
3.0287723085
 20
6.7785588943
 30
0.0
 11
3.0395132409
 21
6.7785588943
 31
0.0
  0
LINE
  5
1A9
330
1F
100
AcDbEntity
  8
0
  6
HIDDEN
 62
     7
370
     0
100
AcDbLine
 10
3.0287723085
 20
6.7785588943
 30
0.0
 11
3.0287723085
 21
6.7985822648
 31
0.0
  0
LINE
  5
1AA
330
1F
100
AcDbEntity
  8
0
  6
HIDDEN
 62
     7
370
     0
100
AcDbLine
 10
3.0595366114
 20
6.7985822648
 30
0.0
 11
3.0395132409
 21
6.7985822648
 31
0.0
  0
ARC
  5
1AB
330
1F
100
AcDbEntity
  8
0
  6
HIDDEN
 62
     7
370
     0
100
AcDbCircle
 10
3.0383296155
 20
8.2071805386
 30
0.0
 40
1.415027296987735
100
AcDbArc
 50
270.3074200096
 51
272.7318871098
  0
LINE
  5
1AC
330
1F
100
AcDbEntity
  8
0
  6
HIDDEN
 62
     7
370
     0
100
AcDbLine
 10
3.1057731569
 20
6.7937614146
 30
0.0
 11
3.0595366114
 21
6.7985822648
 31
0.0
  0
LINE
  5
1AD
330
1F
100
AcDbEntity
  8
0
  6
HIDDEN
 62
     7
370
     0
100
AcDbLine
 10
3.0595366114
 20
6.7985822648
 30
0.0
 11
3.0595366114
 21
6.8093231972
 31
0.0
  0
ARC
  5
1AE
330
1F
100
AcDbEntity
  8
0
  6
HIDDEN
 62
     7
370
     0
100
AcDbCircle
 10
2.8820573234
 20
6.803952731
 30
0.0
 40
0.2239478445110112
100
AcDbArc
 50
357.3917090122
 51
2.6082909878
  0
LINE
  5
1AF
330
1F
100
AcDbEntity
  8
0
  6
HIDDEN
 62
     7
370
     0
100
AcDbLine
 10
3.0395132409
 20
6.7985822648
 30
0.0
 11
3.0459218958
 21
6.7921736098
 31
0.0
  0
LINE
  5
1B0
330
1F
100
AcDbEntity
  8
0
  6
HIDDEN
 62
     7
370
     0
100
AcDbLine
 10
3.0395132409
 20
6.7985822648
 30
0.0
 11
3.0395132409
 21
6.7785588943
 31
0.0
  0
LINE
  5
1B1
330
1F
100
AcDbEntity
  8
0
  6
HIDDEN
 62
     7
370
     0
100
AcDbLine
 10
3.0395132409
 20
6.7785588943
 30
0.0
 11
3.044334091
 21
6.7323223488
 31
0.0
  0
ARC
  5
1B2
330
1F
100
AcDbEntity
  8
0
  6
HIDDEN
 62
     7
370
     0
100
AcDbCircle
 10
1.5594097425
 20
6.801662865
 30
0.0
 40
1.486542440705277
100
AcDbArc
 50
357.3264395638
 51
359.6342533168
  0
LINE
  5
1B3
330
1F
100
AcDbEntity
  8
0
  6
HIDDEN
 62
     7
370
     0
100
AcDbLine
 10
3.0595366114
 20
6.8093231972
 30
0.0
 11
3.1057731569
 21
6.8141440473
 31
0.0
  0
LINE
  5
1B4
330
1F
100
AcDbEntity
  8
0
  6
HIDDEN
 62
     7
370
     0
100
AcDbLine
 10
3.0395132409
 20
6.8093231972
 30
0.0
 11
3.0595366114
 21
6.8093231972
 31
0.0
  0
ARC
  5
1B5
330
1F
100
AcDbEntity
  8
0
  6
HIDDEN
 62
     7
370
     0
100
AcDbCircle
 10
3.0364326406
 20
5.3292196988
 30
0.0
 40
1.486542440698777
100
AcDbArc
 50
87.3264395637
 51
89.6342533168
  0
LINE
  5
1B6
330
1F
100
AcDbEntity
  8
0
  6
HIDDEN
 62
     7
370
     0
100
AcDbLine
 10
3.008748938
 20
6.8093231972
 30
0.0
 11
3.008748938
 21
6.7985822648
 31
0.0
  0
ARC
  5
1B7
330
1F
100
AcDbEntity
  8
0
  6
HIDDEN
 62
     7
370
     0
100
AcDbCircle
 10
3.186228226
 20
6.803952731
 30
0.0
 40
0.2239478445113605
100
AcDbArc
 50
177.3917090122
 51
182.6082909878
  0
LINE
  5
1B8
330
1F
100
AcDbEntity
  8
0
  6
HIDDEN
 62
     7
370
     0
100
AcDbLine
 10
2.9625123925
 20
6.8141440473
 30
0.0
 11
3.008748938
 21
6.8093231972
 31
0.0
  0
LINE
  5
1B9
330
1F
100
AcDbEntity
  8
0
  6
HIDDEN
 62
     7
370
     0
100
AcDbLine
 10
3.008748938
 20
6.8093231972
 30
0.0
 11
3.0287723085
 21
6.8093231972
 31
0.0
  0
ARC
  5
1BA
330
1F
100
AcDbEntity
  8
0
  6
HIDDEN
 62
     7
370
     0
100
AcDbCircle
 10
3.0299559338
 20
5.4007249233
 30
0.0
 40
1.415027296992768
100
AcDbArc
 50
90.3074200096
 51
92.7318871098
  0
LINE
  5
1BB
330
1F
100
AcDbEntity
  8
0
  6
HIDDEN
 62
     7
370
     0
100
AcDbLine
 10
3.008748938
 20
6.7985822648
 30
0.0
 11
2.9625123925
 21
6.7937614146
 31
0.0
  0
LINE
  5
1BC
330
1F
100
AcDbEntity
  8
0
  6
HIDDEN
 62
     7
370
     0
100
AcDbLine
 10
3.0287723085
 20
6.7985822648
 30
0.0
 11
3.008748938
 21
6.7985822648
 31
0.0
  0
LINE
  5
1BD
330
1F
100
AcDbEntity
  8
0
  6
HIDDEN
 62
     7
370
     0
100
AcDbLine
 10
3.0223636535
 20
6.7921736098
 30
0.0
 11
3.0287723085
 21
6.7985822648
 31
0.0
  0
ARC
  5
1BE
330
1F
100
AcDbEntity
  8
0
  6
HIDDEN
 62
     7
370
     0
100
AcDbCircle
 10
3.0318529087
 20
8.2786857632
 30
0.0
 40
1.486542440702342
100
AcDbArc
 50
267.3264395638
 51
269.6342533168
  0
LINE
  5
1BF
330
1F
100
AcDbEntity
  8
0
  6
HIDDEN
 62
     7
370
     0
100
AcDbLine
 10
3.0223636535
 20
6.8157318521
 30
0.0
 11
3.0287723085
 21
6.8093231972
 31
0.0
  0
LINE
  5
1C0
330
1F
100
AcDbEntity
  8
0
  6
HIDDEN
 62
     7
370
     0
100
AcDbLine
 10
3.0287723085
 20
6.8093231972
 30
0.0
 11
3.0287723085
 21
6.8293465677
 31
0.0
  0
ARC
  5
1C1
330
1F
100
AcDbEntity
  8
0
  6
HIDDEN
 62
     7
370
     0
100
AcDbCircle
 10
4.5088758069
 20
6.8062425969
 30
0.0
 40
1.486542440707699
100
AcDbArc
 50
177.3264395638
 51
179.6342533168
  0
LINE
  5
1C2
330
1F
100
AcDbEntity
  8
0
  6
HIDDEN
 62
     7
370
     0
100
AcDbLine
 10
3.0287723085
 20
6.8293465677
 30
0.0
 11
3.0239514584
 21
6.8755831131
 31
0.0
  0
LINE
  5
1C3
330
1F
100
AcDbEntity
  8
0
  6
HIDDEN
 62
     7
370
     0
100
AcDbLine
 10
3.0395132409
 20
6.8293465677
 30
0.0
 11
3.0287723085
 21
6.8293465677
 31
0.0
  0
LWPOLYLINE
  5
1C4
330
1F
100
AcDbEntity
  8
0
  6
HIDDEN
 62
     7
370
     0
100
AcDbPolyline
 90
        3
 70
   128
 43
0.0
 10
3.0239514584
 20
6.8755831131
 10
3.0341427747
 20
6.8758150957
 10
3.044334091
 20
6.8755831131
  0
LINE
  5
1C5
330
1F
100
AcDbEntity
  8
0
  6
HIDDEN
 62
     7
370
     0
100
AcDbLine
 10
3.044334091
 20
6.8755831131
 30
0.0
 11
3.0395132409
 21
6.8293465677
 31
0.0
  0
LINE
  5
1C6
330
1F
100
AcDbEntity
  8
0
  6
HIDDEN
 62
     7
370
     0
100
AcDbLine
 10
3.0395132409
 20
6.8093231972
 30
0.0
 11
3.0459218958
 21
6.8157318521
 31
0.0
  0
LINE
  5
1C7
330
1F
100
AcDbEntity
  8
0
  6
HIDDEN
 62
     7
370
     0
100
AcDbLine
 10
3.0395132409
 20
6.8293465677
 30
0.0
 11
3.0395132409
 21
6.8093231972
 31
0.0
  0
ARC
  5
1C8
330
1F
100
AcDbEntity
  8
0
  6
HIDDEN
 62
     7
370
     0
100
AcDbCircle
 10
1.6309149671
 20
6.8081395718
 30
0.0
 40
1.4150272969906
100
AcDbArc
 50
0.3074200096
 51
2.7318871098
  0
ARC
  5
1C9
330
1F
100
AcDbEntity
  8
0
  6
HIDDEN
 62
     7
370
     0
100
AcDbCircle
 10
5.6591427747
 20
8.428952731
 30
0.0
 40
0.0550000000000027
100
AcDbArc
 50
258.4962943907
 51
282.075910672
  0
ARC
  5
1CA
330
1F
100
AcDbEntity
  8
0
  6
HIDDEN
 62
     7
370
     0
100
AcDbCircle
 10
5.6385572174
 20
8.4125510625
 30
0.0
 40
0.0387071652269866
100
AcDbArc
 50
284.3858711772
 51
342.389162771
  0
ARC
  5
1CB
330
1F
100
AcDbEntity
  8
0
  6
HIDDEN
 62
     7
370
     0
100
AcDbCircle
 10
5.6591427747
 20
8.428952731
 30
0.0
 40
0.0324999999997293
100
AcDbArc
 50
226.3863714355
 51
300.1171960253
  0
ARC
  5
1CC
330
1F
100
AcDbEntity
  8
0
  6
HIDDEN
 62
     7
370
     0
100
AcDbCircle
 10
5.6561651821
 20
8.4372370846
 30
0.0
 40
0.0372841485290697
100
AcDbArc
 50
164.2483356918
 51
238.5725585052
  0
ARC
  5
1CD
330
1F
100
AcDbEntity
  8
0
  6
HIDDEN
 62
     7
370
     0
100
AcDbCircle
 10
5.6591427747
 20
8.428952731
 30
0.0
 40
0.0429999999997205
100
AcDbArc
 50
131.3560440187
 51
154.6566117158
  0
ARC
  5
1CE
330
1F
100
AcDbEntity
  8
0
  6
HIDDEN
 62
     7
370
     0
100
AcDbCircle
 10
5.6699108076
 20
8.452861576
 30
0.0
 40
0.0400632887595115
100
AcDbArc
 50
167.9442727509
 51
191.8023001912
  0
ARC
  5
1CF
330
1F
100
AcDbEntity
  8
0
  6
HIDDEN
 62
     7
370
     0
100
AcDbCircle
 10
5.6591427747
 20
8.428952731
 30
0.0
 40
0.032499999999331
100
AcDbArc
 50
74.3568089602
 51
151.0842738657
  0
LWPOLYLINE
  5
1D0
330
1F
100
AcDbEntity
  8
0
  6
HIDDEN
 62
     7
370
     0
100
AcDbPolyline
 90
       11
 70
   128
 43
0.0
 10
5.6679062632
 20
8.4602489171
 10
5.6793302711
 20
8.4580478504
 10
5.6893851675
 20
8.4520715247
 10
5.6969869153
 20
8.4431036772
 10
5.7021784686
 20
8.4309365
 10
5.7026295544
 20
8.428952731
 10
5.7032803827
 20
8.4163259736
 10
5.6994261363
 20
8.4021594579
 10
5.6912036514
 20
8.3894084657
 10
5.6775437699
 20
8.3783755832
 10
5.6706491843
 20
8.3751698105
  0
CIRCLE
  5
1D1
330
1F
100
AcDbEntity
  8
0
  6
HIDDEN
 62
     7
370
     0
100
AcDbCircle
 10
5.6591427747
 20
8.428952731
 30
0.0
 40
0.0289999999992911
  0
ARC
  5
1D2
330
1F
100
AcDbEntity
  8
0
  6
HIDDEN
 62
     7
370
     0
100
AcDbCircle
 10
5.659264492
 20
8.4290228563
 30
0.0
 40
0.0323998006430196
100
AcDbArc
 50
293.9643096517
 51
74.5306426048
  0
ARC
  5
1D3
330
1F
100
AcDbEntity
  8
0
  6
HIDDEN
 62
     7
370
     0
100
AcDbCircle
 10
5.641301385
 20
8.4405507902
 30
0.0
 40
0.0416102096232155
100
AcDbArc
 50
25.1348751598
 51
85.3172829219
  0
LINE
  5
1D4
330
1F
100
AcDbEntity
  8
0
  6
HIDDEN
 62
     7
370
     0
100
AcDbLine
 10
5.6773763929
 20
8.455849823
 30
0.0
 11
5.6789865396
 21
8.4582250106
 31
0.0
  0
LWPOLYLINE
  5
1D5
330
1F
100
AcDbEntity
  8
0
  6
HIDDEN
 62
     7
370
     0
100
AcDbPolyline
 90
       19
 70
   128
 43
0.0
 10
5.6481740526
 20
8.3750575815
 10
5.6305003831
 20
8.3819994201
 10
5.6162243473
 20
8.394557839
 10
5.607059797
 20
8.4112789244
 10
5.6041510926
 20
8.4299092381
 10
5.6077612941
 20
8.4485727068
 10
5.6175513433
 20
8.4649409629
 10
5.6321520584
 20
8.4768745551
 10
5.6500728288
 20
8.4831997224
 10
5.6591427747
 20
8.483952731
 10
5.6777205668
 20
8.4807201497
 10
5.6940886598
 20
8.4714237224
 10
5.7065051007
 20
8.4569135978
 10
5.7131775621
 20
8.4392114711
 10
5.7134711747
 20
8.4203838949
 10
5.7072677635
 20
8.4023259503
 10
5.6953899959
 20
8.3875868156
 10
5.6793087998
 20
8.3777830971
 10
5.6652541807
 20
8.3751135409
  0
LINE
  5
1D6
330
1F
100
AcDbEntity
  8
0
  6
HIDDEN
 62
     7
370
     0
100
AcDbLine
 10
5.6528805688
 20
8.3750423701
 30
0.0
 11
5.6445002789
 21
8.3765005611
 31
0.0
  0
LINE
  5
1D7
330
1F
100
AcDbEntity
  8
0
  6
HIDDEN
 62
     7
370
     0
100
AcDbLine
 10
5.6389767496
 20
8.4801223648
 30
0.0
 11
5.6446983541
 21
8.4820221074
 31
0.0
  0
ARC
  5
1D8
330
1F
100
AcDbEntity
  8
0
  6
HIDDEN
 62
     7
370
     0
100
AcDbCircle
 10
5.6590421192
 20
8.428913335
 30
0.0
 40
0.0324020779541949
100
AcDbArc
 50
150.0609294435
 51
226.4671822635
  0
ARC
  5
1D9
330
1F
100
AcDbEntity
  8
0
  6
HIDDEN
 62
     7
370
     0
100
AcDbCircle
 10
5.6592698373
 20
8.4293215493
 30
0.0
 40
0.0428084559175793
100
AcDbArc
 50
286.6076292345
 51
131.8098637165
  0
LINE
  5
1DA
330
1F
100
AcDbEntity
  8
0
  6
HIDDEN
 62
     7
370
     0
100
AcDbLine
 10
5.6199164397
 20
8.4451451856
 30
0.0
 11
5.6209277231
 21
8.4482221593
 31
0.0
  0
LINE
  5
1DB
330
1F
100
AcDbEntity
  8
0
  6
HIDDEN
 62
     7
370
     0
100
AcDbLine
 10
5.6306719133
 20
8.4611768818
 30
0.0
 11
5.6425947962
 21
8.4684766911
 31
0.0
  0
LINE
  5
1DC
330
1F
100
AcDbEntity
  8
0
  6
HIDDEN
 62
     7
370
     0
100
AcDbLine
 10
5.674896467
 20
8.3889424676
 30
0.0
 11
5.6710989313
 21
8.387648369
 31
0.0
  0
ARC
  5
1DD
330
1F
100
AcDbEntity
  8
0
  6
HIDDEN
 62
     7
370
     0
100
AcDbCircle
 10
5.6780075199
 20
8.4233406159
 30
0.0
 40
0.0363547120192
100
AcDbArc
 50
226.2930858792
 51
259.0453002156
  0
LINE
  5
1DE
330
1F
100
AcDbEntity
  8
0
  6
HIDDEN
 62
     7
370
     0
100
AcDbLine
 10
5.6446983541
 20
8.4820221074
 30
0.0
 11
5.6471487053
 21
8.4826290041
 31
0.0
  0
LWPOLYLINE
  5
1DF
330
1F
100
AcDbEntity
  8
0
  6
HIDDEN
 62
     7
370
     0
100
AcDbPolyline
 90
        3
 70
   128
 43
0.0
 10
5.6481740526
 20
8.3750575815
 10
5.6355280386
 20
8.379280362
 10
5.629222586
 20
8.3828031664
  0
LINE
  5
1E0
330
1F
100
AcDbEntity
  8
0
  6
HIDDEN
 62
     7
370
     0
100
AcDbLine
 10
5.6206352887
 20
8.4682232482
 30
0.0
 11
5.62612609
 21
8.4729402125
 31
0.0
  0
ARC
  5
1E1
330
1F
100
AcDbEntity
  8
0
  6
HIDDEN
 62
     7
370
     0
100
AcDbCircle
 10
5.6504424873
 20
8.4105181668
 30
0.0
 40
0.038343188833047
100
AcDbArc
 50
336.0811007245
 51
6.7823907637
  0
ARC
  5
1E2
330
1F
100
AcDbEntity
  8
0
  6
HIDDEN
 62
     7
370
     0
100
AcDbCircle
 10
5.6590549794
 20
8.4504512628
 30
0.0
 40
0.0398756143670237
100
AcDbArc
 50
145.668682078
 51
215.7977764376
  0
CIRCLE
  5
1E3
330
1F
100
AcDbEntity
  8
0
  6
HIDDEN
 62
     7
370
     0
100
AcDbCircle
 10
5.6591427747
 20
8.428952731
 30
0.0
 40
0.106000000000618
  0
ARC
  5
1E4
330
1F
100
AcDbEntity
  8
0
  6
HIDDEN
 62
     7
370
     0
100
AcDbCircle
 10
7.0840033643
 20
8.4253397901
 30
0.0
 40
1.436662919767519
100
AcDbArc
 50
180.3256784707
 51
182.7136286488
  0
LINE
  5
1E5
330
1F
100
AcDbEntity
  8
0
  6
HIDDEN
 62
     7
370
     0
100
AcDbLine
 10
5.6489514584
 20
8.3573223488
 30
0.0
 11
5.6537723085
 21
8.4035588943
 31
0.0
  0
LWPOLYLINE
  5
1E6
330
1F
100
AcDbEntity
  8
0
  6
HIDDEN
 62
     7
370
     0
100
AcDbPolyline
 90
        3
 70
   128
 43
0.0
 10
5.669334091
 20
8.3573223488
 10
5.6591427747
 20
8.3570903662
 10
5.6489514584
 20
8.3573223488
  0
LINE
  5
1E7
330
1F
100
AcDbEntity
  8
0
  6
HIDDEN
 62
     7
370
     0
100
AcDbLine
 10
5.6537723085
 20
8.4035588943
 30
0.0
 11
5.6645132409
 21
8.4035588943
 31
0.0
  0
LINE
  5
1E8
330
1F
100
AcDbEntity
  8
0
  6
HIDDEN
 62
     7
370
     0
100
AcDbLine
 10
5.6537723085
 20
8.4035588943
 30
0.0
 11
5.6537723085
 21
8.4235822648
 31
0.0
  0
LINE
  5
1E9
330
1F
100
AcDbEntity
  8
0
  6
HIDDEN
 62
     7
370
     0
100
AcDbLine
 10
5.6845366114
 20
8.4235822648
 30
0.0
 11
5.6645132409
 21
8.4235822648
 31
0.0
  0
ARC
  5
1EA
330
1F
100
AcDbEntity
  8
0
  6
HIDDEN
 62
     7
370
     0
100
AcDbCircle
 10
5.6633296155
 20
9.8321805386
 30
0.0
 40
1.415027296986692
100
AcDbArc
 50
270.3074200096
 51
272.7318871098
  0
LINE
  5
1EB
330
1F
100
AcDbEntity
  8
0
  6
HIDDEN
 62
     7
370
     0
100
AcDbLine
 10
5.7307731569
 20
8.4187614146
 30
0.0
 11
5.6845366114
 21
8.4235822648
 31
0.0
  0
LINE
  5
1EC
330
1F
100
AcDbEntity
  8
0
  6
HIDDEN
 62
     7
370
     0
100
AcDbLine
 10
5.6845366114
 20
8.4235822648
 30
0.0
 11
5.6845366114
 21
8.4343231972
 31
0.0
  0
ARC
  5
1ED
330
1F
100
AcDbEntity
  8
0
  6
HIDDEN
 62
     7
370
     0
100
AcDbCircle
 10
5.5070573234
 20
8.428952731
 30
0.0
 40
0.2239478445104371
100
AcDbArc
 50
357.3917090122
 51
2.6082909878
  0
LINE
  5
1EE
330
1F
100
AcDbEntity
  8
0
  6
HIDDEN
 62
     7
370
     0
100
AcDbLine
 10
5.6645132409
 20
8.4235822648
 30
0.0
 11
5.6709218958
 21
8.4171736098
 31
0.0
  0
LINE
  5
1EF
330
1F
100
AcDbEntity
  8
0
  6
HIDDEN
 62
     7
370
     0
100
AcDbLine
 10
5.6645132409
 20
8.4235822648
 30
0.0
 11
5.6645132409
 21
8.4035588943
 31
0.0
  0
LINE
  5
1F0
330
1F
100
AcDbEntity
  8
0
  6
HIDDEN
 62
     7
370
     0
100
AcDbLine
 10
5.6645132409
 20
8.4035588943
 30
0.0
 11
5.669334091
 21
8.3573223488
 31
0.0
  0
ARC
  5
1F1
330
1F
100
AcDbEntity
  8
0
  6
HIDDEN
 62
     7
370
     0
100
AcDbCircle
 10
4.1844097425
 20
8.426662865
 30
0.0
 40
1.486542440701465
100
AcDbArc
 50
357.3264395637
 51
359.6342533168
  0
LINE
  5
1F2
330
1F
100
AcDbEntity
  8
0
  6
HIDDEN
 62
     7
370
     0
100
AcDbLine
 10
5.6845366114
 20
8.4343231972
 30
0.0
 11
5.7307731569
 21
8.4391440473
 31
0.0
  0
LINE
  5
1F3
330
1F
100
AcDbEntity
  8
0
  6
HIDDEN
 62
     7
370
     0
100
AcDbLine
 10
5.6645132409
 20
8.4343231972
 30
0.0
 11
5.6845366114
 21
8.4343231972
 31
0.0
  0
ARC
  5
1F4
330
1F
100
AcDbEntity
  8
0
  6
HIDDEN
 62
     7
370
     0
100
AcDbCircle
 10
5.6614326406
 20
6.9542196988
 30
0.0
 40
1.4865424407041
100
AcDbArc
 50
87.3264395638
 51
89.6342533168
  0
LINE
  5
1F5
330
1F
100
AcDbEntity
  8
0
  6
HIDDEN
 62
     7
370
     0
100
AcDbLine
 10
5.633748938
 20
8.4343231972
 30
0.0
 11
5.633748938
 21
8.4235822648
 31
0.0
  0
ARC
  5
1F6
330
1F
100
AcDbEntity
  8
0
  6
HIDDEN
 62
     7
370
     0
100
AcDbCircle
 10
5.811228226
 20
8.428952731
 30
0.0
 40
0.2239478445103965
100
AcDbArc
 50
177.3917090122
 51
182.6082909878
  0
LINE
  5
1F7
330
1F
100
AcDbEntity
  8
0
  6
HIDDEN
 62
     7
370
     0
100
AcDbLine
 10
5.5875123925
 20
8.4391440473
 30
0.0
 11
5.633748938
 21
8.4343231972
 31
0.0
  0
LINE
  5
1F8
330
1F
100
AcDbEntity
  8
0
  6
HIDDEN
 62
     7
370
     0
100
AcDbLine
 10
5.633748938
 20
8.4343231972
 30
0.0
 11
5.6537723085
 21
8.4343231972
 31
0.0
  0
ARC
  5
1F9
330
1F
100
AcDbEntity
  8
0
  6
HIDDEN
 62
     7
370
     0
100
AcDbCircle
 10
5.6549559338
 20
7.0257249233
 30
0.0
 40
1.415027296996392
100
AcDbArc
 50
90.3074200097
 51
92.7318871098
  0
LINE
  5
1FA
330
1F
100
AcDbEntity
  8
0
  6
HIDDEN
 62
     7
370
     0
100
AcDbLine
 10
5.633748938
 20
8.4235822648
 30
0.0
 11
5.5875123925
 21
8.4187614146
 31
0.0
  0
LINE
  5
1FB
330
1F
100
AcDbEntity
  8
0
  6
HIDDEN
 62
     7
370
     0
100
AcDbLine
 10
5.6537723085
 20
8.4235822648
 30
0.0
 11
5.633748938
 21
8.4235822648
 31
0.0
  0
LINE
  5
1FC
330
1F
100
AcDbEntity
  8
0
  6
HIDDEN
 62
     7
370
     0
100
AcDbLine
 10
5.6473636535
 20
8.4171736098
 30
0.0
 11
5.6537723085
 21
8.4235822648
 31
0.0
  0
ARC
  5
1FD
330
1F
100
AcDbEntity
  8
0
  6
HIDDEN
 62
     7
370
     0
100
AcDbCircle
 10
5.6568529087
 20
9.9036857632
 30
0.0
 40
1.486542440708398
100
AcDbArc
 50
267.3264395638
 51
269.6342533168
  0
LINE
  5
1FE
330
1F
100
AcDbEntity
  8
0
  6
HIDDEN
 62
     7
370
     0
100
AcDbLine
 10
5.6473636535
 20
8.4407318521
 30
0.0
 11
5.6537723085
 21
8.4343231972
 31
0.0
  0
LINE
  5
1FF
330
1F
100
AcDbEntity
  8
0
  6
HIDDEN
 62
     7
370
     0
100
AcDbLine
 10
5.6537723085
 20
8.4343231972
 30
0.0
 11
5.6537723085
 21
8.4543465677
 31
0.0
  0
ARC
  5
200
330
1F
100
AcDbEntity
  8
0
  6
HIDDEN
 62
     7
370
     0
100
AcDbCircle
 10
7.1338758069
 20
8.4312425969
 30
0.0
 40
1.486542440703045
100
AcDbArc
 50
177.3264395638
 51
179.6342533168
  0
LINE
  5
201
330
1F
100
AcDbEntity
  8
0
  6
HIDDEN
 62
     7
370
     0
100
AcDbLine
 10
5.6537723085
 20
8.4543465677
 30
0.0
 11
5.6489514584
 21
8.5005831131
 31
0.0
  0
LINE
  5
202
330
1F
100
AcDbEntity
  8
0
  6
HIDDEN
 62
     7
370
     0
100
AcDbLine
 10
5.6645132409
 20
8.4543465677
 30
0.0
 11
5.6537723085
 21
8.4543465677
 31
0.0
  0
LWPOLYLINE
  5
203
330
1F
100
AcDbEntity
  8
0
  6
HIDDEN
 62
     7
370
     0
100
AcDbPolyline
 90
        3
 70
   128
 43
0.0
 10
5.6489514584
 20
8.5005831131
 10
5.6591427747
 20
8.5008150957
 10
5.669334091
 20
8.5005831131
  0
LINE
  5
204
330
1F
100
AcDbEntity
  8
0
  6
HIDDEN
 62
     7
370
     0
100
AcDbLine
 10
5.669334091
 20
8.5005831131
 30
0.0
 11
5.6645132409
 21
8.4543465677
 31
0.0
  0
LINE
  5
205
330
1F
100
AcDbEntity
  8
0
  6
HIDDEN
 62
     7
370
     0
100
AcDbLine
 10
5.6645132409
 20
8.4343231972
 30
0.0
 11
5.6709218958
 21
8.4407318521
 31
0.0
  0
LINE
  5
206
330
1F
100
AcDbEntity
  8
0
  6
HIDDEN
 62
     7
370
     0
100
AcDbLine
 10
5.6645132409
 20
8.4543465677
 30
0.0
 11
5.6645132409
 21
8.4343231972
 31
0.0
  0
ARC
  5
207
330
1F
100
AcDbEntity
  8
0
  6
HIDDEN
 62
     7
370
     0
100
AcDbCircle
 10
4.2559149671
 20
8.4331395718
 30
0.0
 40
1.415027296994579
100
AcDbArc
 50
0.3074200097
 51
2.7318871098
  0
ARC
  5
208
330
1F
100
AcDbEntity
  8
0
  6
HIDDEN
 62
     7
370
     0
100
AcDbCircle
 10
3.0341427747
 20
8.428952731
 30
0.0
 40
0.0550000000000028
100
AcDbArc
 50
258.4962943907
 51
282.075910672
  0
ARC
  5
209
330
1F
100
AcDbEntity
  8
0
  6
HIDDEN
 62
     7
370
     0
100
AcDbCircle
 10
3.0135572174
 20
8.4125510625
 30
0.0
 40
0.0387071652269798
100
AcDbArc
 50
284.3858711772
 51
342.389162771
  0
ARC
  5
20A
330
1F
100
AcDbEntity
  8
0
  6
HIDDEN
 62
     7
370
     0
100
AcDbCircle
 10
3.0341427747
 20
8.428952731
 30
0.0
 40
0.0324999999997296
100
AcDbArc
 50
226.3863714355
 51
300.1171960253
  0
ARC
  5
20B
330
1F
100
AcDbEntity
  8
0
  6
HIDDEN
 62
     7
370
     0
100
AcDbCircle
 10
3.0311651821
 20
8.4372370846
 30
0.0
 40
0.0372841485290728
100
AcDbArc
 50
164.2483356918
 51
238.5725585052
  0
ARC
  5
20C
330
1F
100
AcDbEntity
  8
0
  6
HIDDEN
 62
     7
370
     0
100
AcDbCircle
 10
3.0341427747
 20
8.428952731
 30
0.0
 40
0.0429999999997205
100
AcDbArc
 50
131.3560440187
 51
154.6566117158
  0
ARC
  5
20D
330
1F
100
AcDbEntity
  8
0
  6
HIDDEN
 62
     7
370
     0
100
AcDbCircle
 10
3.0449108076
 20
8.452861576
 30
0.0
 40
0.040063288759557
100
AcDbArc
 50
167.9442727509
 51
191.8023001912
  0
ARC
  5
20E
330
1F
100
AcDbEntity
  8
0
  6
HIDDEN
 62
     7
370
     0
100
AcDbCircle
 10
3.0341427747
 20
8.428952731
 30
0.0
 40
0.0324999999993314
100
AcDbArc
 50
74.3568089602
 51
151.0842738657
  0
LWPOLYLINE
  5
20F
330
1F
100
AcDbEntity
  8
0
  6
HIDDEN
 62
     7
370
     0
100
AcDbPolyline
 90
       11
 70
   128
 43
0.0
 10
3.0429062632
 20
8.4602489171
 10
3.0543302711
 20
8.4580478504
 10
3.0643851675
 20
8.4520715247
 10
3.0719869153
 20
8.4431036772
 10
3.0771784686
 20
8.4309365
 10
3.0776295544
 20
8.428952731
 10
3.0782803827
 20
8.4163259736
 10
3.0744261363
 20
8.4021594579
 10
3.0662036514
 20
8.3894084657
 10
3.0525437699
 20
8.3783755832
 10
3.0456491843
 20
8.3751698105
  0
CIRCLE
  5
210
330
1F
100
AcDbEntity
  8
0
  6
HIDDEN
 62
     7
370
     0
100
AcDbCircle
 10
3.0341427747
 20
8.428952731
 30
0.0
 40
0.0289999999992911
  0
ARC
  5
211
330
1F
100
AcDbEntity
  8
0
  6
HIDDEN
 62
     7
370
     0
100
AcDbCircle
 10
3.034264492
 20
8.4290228563
 30
0.0
 40
0.032399800643019
100
AcDbArc
 50
293.9643096517
 51
74.5306426048
  0
ARC
  5
212
330
1F
100
AcDbEntity
  8
0
  6
HIDDEN
 62
     7
370
     0
100
AcDbCircle
 10
3.016301385
 20
8.4405507902
 30
0.0
 40
0.0416102096232156
100
AcDbArc
 50
25.1348751598
 51
85.3172829219
  0
LINE
  5
213
330
1F
100
AcDbEntity
  8
0
  6
HIDDEN
 62
     7
370
     0
100
AcDbLine
 10
3.0523763929
 20
8.455849823
 30
0.0
 11
3.0539865396
 21
8.4582250106
 31
0.0
  0
LWPOLYLINE
  5
214
330
1F
100
AcDbEntity
  8
0
  6
HIDDEN
 62
     7
370
     0
100
AcDbPolyline
 90
       19
 70
   128
 43
0.0
 10
3.0231740526
 20
8.3750575815
 10
3.0055003831
 20
8.3819994201
 10
2.9912243473
 20
8.394557839
 10
2.982059797
 20
8.4112789244
 10
2.9791510926
 20
8.4299092381
 10
2.9827612941
 20
8.4485727068
 10
2.9925513433
 20
8.4649409629
 10
3.0071520584
 20
8.4768745551
 10
3.0250728288
 20
8.4831997224
 10
3.0341427747
 20
8.483952731
 10
3.0527205668
 20
8.4807201497
 10
3.0690886598
 20
8.4714237224
 10
3.0815051007
 20
8.4569135978
 10
3.0881775621
 20
8.4392114711
 10
3.0884711747
 20
8.4203838949
 10
3.0822677635
 20
8.4023259503
 10
3.0703899959
 20
8.3875868156
 10
3.0543087998
 20
8.3777830971
 10
3.0402541807
 20
8.3751135409
  0
LINE
  5
215
330
1F
100
AcDbEntity
  8
0
  6
HIDDEN
 62
     7
370
     0
100
AcDbLine
 10
3.0278805688
 20
8.3750423701
 30
0.0
 11
3.0195002789
 21
8.3765005611
 31
0.0
  0
LINE
  5
216
330
1F
100
AcDbEntity
  8
0
  6
HIDDEN
 62
     7
370
     0
100
AcDbLine
 10
3.0139767496
 20
8.4801223648
 30
0.0
 11
3.0196983541
 21
8.4820221074
 31
0.0
  0
ARC
  5
217
330
1F
100
AcDbEntity
  8
0
  6
HIDDEN
 62
     7
370
     0
100
AcDbCircle
 10
3.0340421192
 20
8.428913335
 30
0.0
 40
0.0324020779541984
100
AcDbArc
 50
150.0609294435
 51
226.4671822635
  0
ARC
  5
218
330
1F
100
AcDbEntity
  8
0
  6
HIDDEN
 62
     7
370
     0
100
AcDbCircle
 10
3.0341509778
 20
8.4302604369
 30
0.0
 40
0.0420328411854506
100
AcDbArc
 50
16.5276134516
 51
132.5423234953
  0
ARC
  5
219
330
1F
100
AcDbEntity
  8
0
  6
HIDDEN
 62
     7
370
     0
100
AcDbCircle
 10
3.0319009915
 20
8.4280362096
 30
0.0
 40
0.0412498316228603
100
AcDbArc
 50
150.7015832682
 51
260.7494337774
  0
LINE
  5
21A
330
1F
100
AcDbEntity
  8
0
  6
HIDDEN
 62
     7
370
     0
100
AcDbLine
 10
3.0056719133
 20
8.4611768818
 30
0.0
 11
3.0175947962
 21
8.4684766911
 31
0.0
  0
LINE
  5
21B
330
1F
100
AcDbEntity
  8
0
  6
HIDDEN
 62
     7
370
     0
100
AcDbLine
 10
3.049896467
 20
8.3889424676
 30
0.0
 11
3.0460989313
 21
8.387648369
 31
0.0
  0
ARC
  5
21C
330
1F
100
AcDbEntity
  8
0
  6
HIDDEN
 62
     7
370
     0
100
AcDbCircle
 10
3.0530075199
 20
8.4233406159
 30
0.0
 40
0.0363547120191997
100
AcDbArc
 50
226.2930858792
 51
259.0453002156
  0
LINE
  5
21D
330
1F
100
AcDbEntity
  8
0
  6
HIDDEN
 62
     7
370
     0
100
AcDbLine
 10
3.0196983541
 20
8.4820221074
 30
0.0
 11
3.0221487053
 21
8.4826290041
 31
0.0
  0
LWPOLYLINE
  5
21E
330
1F
100
AcDbEntity
  8
0
  6
HIDDEN
 62
     7
370
     0
100
AcDbPolyline
 90
        3
 70
   128
 43
0.0
 10
3.0231740526
 20
8.3750575815
 10
3.0105280386
 20
8.379280362
 10
3.004222586
 20
8.3828031664
  0
LINE
  5
21F
330
1F
100
AcDbEntity
  8
0
  6
HIDDEN
 62
     7
370
     0
100
AcDbLine
 10
2.9956352887
 20
8.4682232482
 30
0.0
 11
3.00112609
 21
8.4729402125
 31
0.0
  0
ARC
  5
220
330
1F
100
AcDbEntity
  8
0
  6
HIDDEN
 62
     7
370
     0
100
AcDbCircle
 10
3.0254424873
 20
8.4105181668
 30
0.0
 40
0.0383431888330354
100
AcDbArc
 50
336.0811007245
 51
6.7823907637
  0
ARC
  5
221
330
1F
100
AcDbEntity
  8
0
  6
HIDDEN
 62
     7
370
     0
100
AcDbCircle
 10
3.0340549794
 20
8.4504512628
 30
0.0
 40
0.0398756143670237
100
AcDbArc
 50
145.668682078
 51
215.7977764376
  0
CIRCLE
  5
222
330
1F
100
AcDbEntity
  8
0
  6
HIDDEN
 62
     7
370
     0
100
AcDbCircle
 10
3.0341427747
 20
8.428952731
 30
0.0
 40
0.106000000000618
  0
LWPOLYLINE
  5
223
330
1F
100
AcDbEntity
  8
0
  6
HIDDEN
 62
     7
370
     0
100
AcDbPolyline
 90
        3
 70
   128
 43
0.0
 10
3.044334091
 20
8.3573223488
 10
3.0341427747
 20
8.3570903662
 10
3.0239514584
 20
8.3573223488
  0
LINE
  5
224
330
1F
100
AcDbEntity
  8
0
  6
HIDDEN
 62
     7
370
     0
100
AcDbLine
 10
3.0239514584
 20
8.3573223488
 30
0.0
 11
3.0287723085
 21
8.4035588943
 31
0.0
  0
ARC
  5
225
330
1F
100
AcDbEntity
  8
0
  6
HIDDEN
 62
     7
370
     0
100
AcDbCircle
 10
4.4590033643
 20
8.4253397901
 30
0.0
 40
1.436662919767517
100
AcDbArc
 50
180.3256784707
 51
182.7136286488
  0
LINE
  5
226
330
1F
100
AcDbEntity
  8
0
  6
HIDDEN
 62
     7
370
     0
100
AcDbLine
 10
3.0287723085
 20
8.4035588943
 30
0.0
 11
3.0287723085
 21
8.4235822648
 31
0.0
  0
LINE
  5
227
330
1F
100
AcDbEntity
  8
0
  6
HIDDEN
 62
     7
370
     0
100
AcDbLine
 10
3.0287723085
 20
8.4035588943
 30
0.0
 11
3.0395132409
 21
8.4035588943
 31
0.0
  0
LINE
  5
228
330
1F
100
AcDbEntity
  8
0
  6
HIDDEN
 62
     7
370
     0
100
AcDbLine
 10
3.0595366114
 20
8.4235822648
 30
0.0
 11
3.0395132409
 21
8.4235822648
 31
0.0
  0
ARC
  5
229
330
1F
100
AcDbEntity
  8
0
  6
HIDDEN
 62
     7
370
     0
100
AcDbCircle
 10
3.0383296155
 20
9.8321805386
 30
0.0
 40
1.415027296986392
100
AcDbArc
 50
270.3074200096
 51
272.7318871098
  0
LINE
  5
22A
330
1F
100
AcDbEntity
  8
0
  6
HIDDEN
 62
     7
370
     0
100
AcDbLine
 10
3.1057731569
 20
8.4187614146
 30
0.0
 11
3.0595366114
 21
8.4235822648
 31
0.0
  0
LINE
  5
22B
330
1F
100
AcDbEntity
  8
0
  6
HIDDEN
 62
     7
370
     0
100
AcDbLine
 10
3.0595366114
 20
8.4235822648
 30
0.0
 11
3.0595366114
 21
8.4343231972
 31
0.0
  0
ARC
  5
22C
330
1F
100
AcDbEntity
  8
0
  6
HIDDEN
 62
     7
370
     0
100
AcDbCircle
 10
2.8820573234
 20
8.428952731
 30
0.0
 40
0.2239478445106276
100
AcDbArc
 50
357.3917090122
 51
2.6082909878
  0
LINE
  5
22D
330
1F
100
AcDbEntity
  8
0
  6
HIDDEN
 62
     7
370
     0
100
AcDbLine
 10
3.0395132409
 20
8.4235822648
 30
0.0
 11
3.0459218958
 21
8.4171736098
 31
0.0
  0
LINE
  5
22E
330
1F
100
AcDbEntity
  8
0
  6
HIDDEN
 62
     7
370
     0
100
AcDbLine
 10
3.0395132409
 20
8.4235822648
 30
0.0
 11
3.0395132409
 21
8.4035588943
 31
0.0
  0
LINE
  5
22F
330
1F
100
AcDbEntity
  8
0
  6
HIDDEN
 62
     7
370
     0
100
AcDbLine
 10
3.0395132409
 20
8.4035588943
 30
0.0
 11
3.044334091
 21
8.3573223488
 31
0.0
  0
ARC
  5
230
330
1F
100
AcDbEntity
  8
0
  6
HIDDEN
 62
     7
370
     0
100
AcDbCircle
 10
1.5594097425
 20
8.426662865
 30
0.0
 40
1.486542440704156
100
AcDbArc
 50
357.3264395638
 51
359.6342533168
  0
LINE
  5
231
330
1F
100
AcDbEntity
  8
0
  6
HIDDEN
 62
     7
370
     0
100
AcDbLine
 10
3.0595366114
 20
8.4343231972
 30
0.0
 11
3.1057731569
 21
8.4391440473
 31
0.0
  0
LINE
  5
232
330
1F
100
AcDbEntity
  8
0
  6
HIDDEN
 62
     7
370
     0
100
AcDbLine
 10
3.0395132409
 20
8.4343231972
 30
0.0
 11
3.0595366114
 21
8.4343231972
 31
0.0
  0
ARC
  5
233
330
1F
100
AcDbEntity
  8
0
  6
HIDDEN
 62
     7
370
     0
100
AcDbCircle
 10
3.0364326406
 20
6.9542196988
 30
0.0
 40
1.486542440704064
100
AcDbArc
 50
87.3264395638
 51
89.6342533168
  0
LINE
  5
234
330
1F
100
AcDbEntity
  8
0
  6
HIDDEN
 62
     7
370
     0
100
AcDbLine
 10
3.008748938
 20
8.4343231972
 30
0.0
 11
3.008748938
 21
8.4235822648
 31
0.0
  0
ARC
  5
235
330
1F
100
AcDbEntity
  8
0
  6
HIDDEN
 62
     7
370
     0
100
AcDbCircle
 10
3.186228226
 20
8.428952731
 30
0.0
 40
0.223947844511631
100
AcDbArc
 50
177.3917090122
 51
182.6082909878
  0
LINE
  5
236
330
1F
100
AcDbEntity
  8
0
  6
HIDDEN
 62
     7
370
     0
100
AcDbLine
 10
2.9625123925
 20
8.4391440473
 30
0.0
 11
3.008748938
 21
8.4343231972
 31
0.0
  0
LINE
  5
237
330
1F
100
AcDbEntity
  8
0
  6
HIDDEN
 62
     7
370
     0
100
AcDbLine
 10
3.008748938
 20
8.4343231972
 30
0.0
 11
3.0287723085
 21
8.4343231972
 31
0.0
  0
ARC
  5
238
330
1F
100
AcDbEntity
  8
0
  6
HIDDEN
 62
     7
370
     0
100
AcDbCircle
 10
3.0299559338
 20
7.0257249233
 30
0.0
 40
1.415027296996442
100
AcDbArc
 50
90.3074200097
 51
92.7318871098
  0
LINE
  5
239
330
1F
100
AcDbEntity
  8
0
  6
HIDDEN
 62
     7
370
     0
100
AcDbLine
 10
3.008748938
 20
8.4235822648
 30
0.0
 11
2.9625123925
 21
8.4187614146
 31
0.0
  0
LINE
  5
23A
330
1F
100
AcDbEntity
  8
0
  6
HIDDEN
 62
     7
370
     0
100
AcDbLine
 10
3.0287723085
 20
8.4235822648
 30
0.0
 11
3.008748938
 21
8.4235822648
 31
0.0
  0
LINE
  5
23B
330
1F
100
AcDbEntity
  8
0
  6
HIDDEN
 62
     7
370
     0
100
AcDbLine
 10
3.0223636535
 20
8.4171736098
 30
0.0
 11
3.0287723085
 21
8.4235822648
 31
0.0
  0
ARC
  5
23C
330
1F
100
AcDbEntity
  8
0
  6
HIDDEN
 62
     7
370
     0
100
AcDbCircle
 10
3.0318529087
 20
9.9036857632
 30
0.0
 40
1.486542440708336
100
AcDbArc
 50
267.3264395638
 51
269.6342533168
  0
LINE
  5
23D
330
1F
100
AcDbEntity
  8
0
  6
HIDDEN
 62
     7
370
     0
100
AcDbLine
 10
3.0223636535
 20
8.4407318521
 30
0.0
 11
3.0287723085
 21
8.4343231972
 31
0.0
  0
LINE
  5
23E
330
1F
100
AcDbEntity
  8
0
  6
HIDDEN
 62
     7
370
     0
100
AcDbLine
 10
3.0287723085
 20
8.4343231972
 30
0.0
 11
3.0287723085
 21
8.4543465677
 31
0.0
  0
ARC
  5
23F
330
1F
100
AcDbEntity
  8
0
  6
HIDDEN
 62
     7
370
     0
100
AcDbCircle
 10
4.5088758069
 20
8.4312425969
 30
0.0
 40
1.486542440708412
100
AcDbArc
 50
177.3264395638
 51
179.6342533168
  0
LINE
  5
240
330
1F
100
AcDbEntity
  8
0
  6
HIDDEN
 62
     7
370
     0
100
AcDbLine
 10
3.0287723085
 20
8.4543465677
 30
0.0
 11
3.0239514584
 21
8.5005831131
 31
0.0
  0
LINE
  5
241
330
1F
100
AcDbEntity
  8
0
  6
HIDDEN
 62
     7
370
     0
100
AcDbLine
 10
3.0395132409
 20
8.4543465677
 30
0.0
 11
3.0287723085
 21
8.4543465677
 31
0.0
  0
LWPOLYLINE
  5
242
330
1F
100
AcDbEntity
  8
0
  6
HIDDEN
 62
     7
370
     0
100
AcDbPolyline
 90
        3
 70
   128
 43
0.0
 10
3.0239514584
 20
8.5005831131
 10
3.0341427747
 20
8.5008150957
 10
3.044334091
 20
8.5005831131
  0
LINE
  5
243
330
1F
100
AcDbEntity
  8
0
  6
HIDDEN
 62
     7
370
     0
100
AcDbLine
 10
3.044334091
 20
8.5005831131
 30
0.0
 11
3.0395132409
 21
8.4543465677
 31
0.0
  0
LINE
  5
244
330
1F
100
AcDbEntity
  8
0
  6
HIDDEN
 62
     7
370
     0
100
AcDbLine
 10
3.0395132409
 20
8.4343231972
 30
0.0
 11
3.0459218958
 21
8.4407318521
 31
0.0
  0
LINE
  5
245
330
1F
100
AcDbEntity
  8
0
  6
HIDDEN
 62
     7
370
     0
100
AcDbLine
 10
3.0395132409
 20
8.4543465677
 30
0.0
 11
3.0395132409
 21
8.4343231972
 31
0.0
  0
ARC
  5
246
330
1F
100
AcDbEntity
  8
0
  6
HIDDEN
 62
     7
370
     0
100
AcDbCircle
 10
1.6309149671
 20
8.4331395718
 30
0.0
 40
1.415027296988911
100
AcDbArc
 50
0.3074200096
 51
2.7318871098
  0
ARC
  5
247
330
1F
100
AcDbEntity
  8
0
  6
HIDDEN
 62
     7
370
     0
100
AcDbCircle
 10
5.6591427747
 20
6.803952731
 30
0.0
 40
0.0550000000000018
100
AcDbArc
 50
258.4962943907
 51
282.075910672
  0
ARC
  5
248
330
1F
100
AcDbEntity
  8
0
  6
HIDDEN
 62
     7
370
     0
100
AcDbCircle
 10
5.6385572174
 20
6.7875510625
 30
0.0
 40
0.0387071652269921
100
AcDbArc
 50
284.3858711772
 51
342.389162771
  0
ARC
  5
249
330
1F
100
AcDbEntity
  8
0
  6
HIDDEN
 62
     7
370
     0
100
AcDbCircle
 10
5.6591427747
 20
6.803952731
 30
0.0
 40
0.0324999999997293
100
AcDbArc
 50
226.3863714355
 51
300.1171960253
  0
ARC
  5
24A
330
1F
100
AcDbEntity
  8
0
  6
HIDDEN
 62
     7
370
     0
100
AcDbCircle
 10
5.6561651821
 20
6.8122370846
 30
0.0
 40
0.0372841485290687
100
AcDbArc
 50
164.2483356918
 51
238.5725585052
  0
ARC
  5
24B
330
1F
100
AcDbEntity
  8
0
  6
HIDDEN
 62
     7
370
     0
100
AcDbCircle
 10
5.6591427747
 20
6.803952731
 30
0.0
 40
0.0429999999997205
100
AcDbArc
 50
131.3560440187
 51
154.6566117158
  0
ARC
  5
24C
330
1F
100
AcDbEntity
  8
0
  6
HIDDEN
 62
     7
370
     0
100
AcDbCircle
 10
5.6699108076
 20
6.827861576
 30
0.0
 40
0.0400632887595124
100
AcDbArc
 50
167.9442727509
 51
191.8023001912
  0
ARC
  5
24D
330
1F
100
AcDbEntity
  8
0
  6
HIDDEN
 62
     7
370
     0
100
AcDbCircle
 10
5.6591427747
 20
6.803952731
 30
0.0
 40
0.0324999999993301
100
AcDbArc
 50
74.3568089602
 51
151.0842738657
  0
LWPOLYLINE
  5
24E
330
1F
100
AcDbEntity
  8
0
  6
HIDDEN
 62
     7
370
     0
100
AcDbPolyline
 90
       11
 70
   128
 43
0.0
 10
5.6679062632
 20
6.8352489171
 10
5.6793302711
 20
6.8330478504
 10
5.6893851675
 20
6.8270715247
 10
5.6969869153
 20
6.8181036772
 10
5.7021784686
 20
6.8059365
 10
5.7026295544
 20
6.803952731
 10
5.7032803827
 20
6.7913259736
 10
5.6994261363
 20
6.7771594579
 10
5.6912036514
 20
6.7644084657
 10
5.6775437699
 20
6.7533755832
 10
5.6706491843
 20
6.7501698105
  0
CIRCLE
  5
24F
330
1F
100
AcDbEntity
  8
0
  6
HIDDEN
 62
     7
370
     0
100
AcDbCircle
 10
5.6591427747
 20
6.803952731
 30
0.0
 40
0.0289999999992903
  0
ARC
  5
250
330
1F
100
AcDbEntity
  8
0
  6
HIDDEN
 62
     7
370
     0
100
AcDbCircle
 10
5.659264492
 20
6.8040228563
 30
0.0
 40
0.0323998006430191
100
AcDbArc
 50
293.9643096517
 51
74.5306426048
  0
ARC
  5
251
330
1F
100
AcDbEntity
  8
0
  6
HIDDEN
 62
     7
370
     0
100
AcDbCircle
 10
5.641301385
 20
6.8155507902
 30
0.0
 40
0.0416102096232136
100
AcDbArc
 50
25.1348751598
 51
85.3172829219
  0
LINE
  5
252
330
1F
100
AcDbEntity
  8
0
  6
HIDDEN
 62
     7
370
     0
100
AcDbLine
 10
5.6773763929
 20
6.830849823
 30
0.0
 11
5.6789865396
 21
6.8332250106
 31
0.0
  0
LWPOLYLINE
  5
253
330
1F
100
AcDbEntity
  8
0
  6
HIDDEN
 62
     7
370
     0
100
AcDbPolyline
 90
       19
 70
   128
 43
0.0
 10
5.6481740526
 20
6.7500575815
 10
5.6305003831
 20
6.7569994201
 10
5.6162243473
 20
6.769557839
 10
5.607059797
 20
6.7862789244
 10
5.6041510926
 20
6.8049092381
 10
5.6077612941
 20
6.8235727068
 10
5.6175513433
 20
6.8399409629
 10
5.6321520584
 20
6.8518745551
 10
5.6500728288
 20
6.8581997224
 10
5.6591427747
 20
6.858952731
 10
5.6777205668
 20
6.8557201497
 10
5.6940886598
 20
6.8464237224
 10
5.7065051007
 20
6.8319135978
 10
5.7131775621
 20
6.8142114711
 10
5.7134711747
 20
6.7953838949
 10
5.7072677635
 20
6.7773259503
 10
5.6953899959
 20
6.7625868156
 10
5.6793087998
 20
6.7527830971
 10
5.6652541807
 20
6.7501135409
  0
LINE
  5
254
330
1F
100
AcDbEntity
  8
0
  6
HIDDEN
 62
     7
370
     0
100
AcDbLine
 10
5.6528805688
 20
6.7500423701
 30
0.0
 11
5.6445002789
 21
6.7515005611
 31
0.0
  0
LINE
  5
255
330
1F
100
AcDbEntity
  8
0
  6
HIDDEN
 62
     7
370
     0
100
AcDbLine
 10
5.6389767496
 20
6.8551223648
 30
0.0
 11
5.6446983541
 21
6.8570221074
 31
0.0
  0
ARC
  5
256
330
1F
100
AcDbEntity
  8
0
  6
HIDDEN
 62
     7
370
     0
100
AcDbCircle
 10
5.6590421192
 20
6.803913335
 30
0.0
 40
0.0324020779541922
100
AcDbArc
 50
150.0609294435
 51
226.4671822635
  0
ARC
  5
257
330
1F
100
AcDbEntity
  8
0
  6
HIDDEN
 62
     7
370
     0
100
AcDbCircle
 10
5.6594789508
 20
6.8043643362
 30
0.0
 40
0.0429163681773814
100
AcDbArc
 50
153.9338435872
 51
132.0560347982
  0
LINE
  5
258
330
1F
100
AcDbEntity
  8
0
  6
HIDDEN
 62
     7
370
     0
100
AcDbLine
 10
5.6306719133
 20
6.8361768818
 30
0.0
 11
5.6425947962
 21
6.8434766911
 31
0.0
  0
LINE
  5
259
330
1F
100
AcDbEntity
  8
0
  6
HIDDEN
 62
     7
370
     0
100
AcDbLine
 10
5.674896467
 20
6.7639424676
 30
0.0
 11
5.6710989313
 21
6.762648369
 31
0.0
  0
ARC
  5
25A
330
1F
100
AcDbEntity
  8
0
  6
HIDDEN
 62
     7
370
     0
100
AcDbCircle
 10
5.6780075199
 20
6.7983406159
 30
0.0
 40
0.0363547120192284
100
AcDbArc
 50
226.2930858792
 51
259.0453002156
  0
LINE
  5
25B
330
1F
100
AcDbEntity
  8
0
  6
HIDDEN
 62
     7
370
     0
100
AcDbLine
 10
5.6446983541
 20
6.8570221074
 30
0.0
 11
5.6471487053
 21
6.8576290041
 31
0.0
  0
LWPOLYLINE
  5
25C
330
1F
100
AcDbEntity
  8
0
  6
HIDDEN
 62
     7
370
     0
100
AcDbPolyline
 90
        3
 70
   128
 43
0.0
 10
5.6481740526
 20
6.7500575815
 10
5.6355280386
 20
6.754280362
 10
5.629222586
 20
6.7578031664
  0
LINE
  5
25D
330
1F
100
AcDbEntity
  8
0
  6
HIDDEN
 62
     7
370
     0
100
AcDbLine
 10
5.6206352887
 20
6.8432232482
 30
0.0
 11
5.62612609
 21
6.8479402125
 31
0.0
  0
ARC
  5
25E
330
1F
100
AcDbEntity
  8
0
  6
HIDDEN
 62
     7
370
     0
100
AcDbCircle
 10
5.6504424873
 20
6.7855181668
 30
0.0
 40
0.0383431888330822
100
AcDbArc
 50
336.0811007246
 51
6.7823907637
  0
ARC
  5
25F
330
1F
100
AcDbEntity
  8
0
  6
HIDDEN
 62
     7
370
     0
100
AcDbCircle
 10
5.6590549794
 20
6.8254512628
 30
0.0
 40
0.0398756143670256
100
AcDbArc
 50
145.668682078
 51
215.7977764376
  0
CIRCLE
  5
260
330
1F
100
AcDbEntity
  8
0
  6
HIDDEN
 62
     7
370
     0
100
AcDbCircle
 10
5.6591427747
 20
6.803952731
 30
0.0
 40
0.1060000000006172
  0
ARC
  5
261
330
1F
100
AcDbEntity
  8
0
  6
HIDDEN
 62
     7
370
     0
100
AcDbCircle
 10
7.0840033643
 20
6.8003397901
 30
0.0
 40
1.436662919767334
100
AcDbArc
 50
180.3256784707
 51
182.7136286488
  0
LINE
  5
262
330
1F
100
AcDbEntity
  8
0
  6
HIDDEN
 62
     7
370
     0
100
AcDbLine
 10
5.6489514584
 20
6.7323223488
 30
0.0
 11
5.6537723085
 21
6.7785588943
 31
0.0
  0
LWPOLYLINE
  5
263
330
1F
100
AcDbEntity
  8
0
  6
HIDDEN
 62
     7
370
     0
100
AcDbPolyline
 90
        3
 70
   128
 43
0.0
 10
5.669334091
 20
6.7323223488
 10
5.6591427747
 20
6.7320903662
 10
5.6489514584
 20
6.7323223488
  0
LINE
  5
264
330
1F
100
AcDbEntity
  8
0
  6
HIDDEN
 62
     7
370
     0
100
AcDbLine
 10
5.6537723085
 20
6.7785588943
 30
0.0
 11
5.6645132409
 21
6.7785588943
 31
0.0
  0
LINE
  5
265
330
1F
100
AcDbEntity
  8
0
  6
HIDDEN
 62
     7
370
     0
100
AcDbLine
 10
5.6537723085
 20
6.7785588943
 30
0.0
 11
5.6537723085
 21
6.7985822648
 31
0.0
  0
LINE
  5
266
330
1F
100
AcDbEntity
  8
0
  6
HIDDEN
 62
     7
370
     0
100
AcDbLine
 10
5.6845366114
 20
6.7985822648
 30
0.0
 11
5.6645132409
 21
6.7985822648
 31
0.0
  0
ARC
  5
267
330
1F
100
AcDbEntity
  8
0
  6
HIDDEN
 62
     7
370
     0
100
AcDbCircle
 10
5.6633296155
 20
8.2071805386
 30
0.0
 40
1.415027296987893
100
AcDbArc
 50
270.3074200096
 51
272.7318871098
  0
LINE
  5
268
330
1F
100
AcDbEntity
  8
0
  6
HIDDEN
 62
     7
370
     0
100
AcDbLine
 10
5.7307731569
 20
6.7937614146
 30
0.0
 11
5.6845366114
 21
6.7985822648
 31
0.0
  0
LINE
  5
269
330
1F
100
AcDbEntity
  8
0
  6
HIDDEN
 62
     7
370
     0
100
AcDbLine
 10
5.6845366114
 20
6.7985822648
 30
0.0
 11
5.6845366114
 21
6.8093231972
 31
0.0
  0
ARC
  5
26A
330
1F
100
AcDbEntity
  8
0
  6
HIDDEN
 62
     7
370
     0
100
AcDbCircle
 10
5.5070573234
 20
6.803952731
 30
0.0
 40
0.2239478445099186
100
AcDbArc
 50
357.3917090122
 51
2.6082909878
  0
LINE
  5
26B
330
1F
100
AcDbEntity
  8
0
  6
HIDDEN
 62
     7
370
     0
100
AcDbLine
 10
5.6645132409
 20
6.7985822648
 30
0.0
 11
5.6709218958
 21
6.7921736098
 31
0.0
  0
LINE
  5
26C
330
1F
100
AcDbEntity
  8
0
  6
HIDDEN
 62
     7
370
     0
100
AcDbLine
 10
5.6645132409
 20
6.7985822648
 30
0.0
 11
5.6645132409
 21
6.7785588943
 31
0.0
  0
LINE
  5
26D
330
1F
100
AcDbEntity
  8
0
  6
HIDDEN
 62
     7
370
     0
100
AcDbLine
 10
5.6645132409
 20
6.7785588943
 30
0.0
 11
5.669334091
 21
6.7323223488
 31
0.0
  0
ARC
  5
26E
330
1F
100
AcDbEntity
  8
0
  6
HIDDEN
 62
     7
370
     0
100
AcDbCircle
 10
4.1844097425
 20
6.801662865
 30
0.0
 40
1.486542440700554
100
AcDbArc
 50
357.3264395637
 51
359.6342533168
  0
LINE
  5
26F
330
1F
100
AcDbEntity
  8
0
  6
HIDDEN
 62
     7
370
     0
100
AcDbLine
 10
5.6845366114
 20
6.8093231972
 30
0.0
 11
5.7307731569
 21
6.8141440473
 31
0.0
  0
LINE
  5
270
330
1F
100
AcDbEntity
  8
0
  6
HIDDEN
 62
     7
370
     0
100
AcDbLine
 10
5.6645132409
 20
6.8093231972
 30
0.0
 11
5.6845366114
 21
6.8093231972
 31
0.0
  0
ARC
  5
271
330
1F
100
AcDbEntity
  8
0
  6
HIDDEN
 62
     7
370
     0
100
AcDbCircle
 10
5.6614326406
 20
5.3292196988
 30
0.0
 40
1.486542440698813
100
AcDbArc
 50
87.3264395637
 51
89.6342533168
  0
LINE
  5
272
330
1F
100
AcDbEntity
  8
0
  6
HIDDEN
 62
     7
370
     0
100
AcDbLine
 10
5.633748938
 20
6.8093231972
 30
0.0
 11
5.633748938
 21
6.7985822648
 31
0.0
  0
ARC
  5
273
330
1F
100
AcDbEntity
  8
0
  6
HIDDEN
 62
     7
370
     0
100
AcDbCircle
 10
5.811228226
 20
6.803952731
 30
0.0
 40
0.2239478445100282
100
AcDbArc
 50
177.3917090122
 51
182.6082909878
  0
LINE
  5
274
330
1F
100
AcDbEntity
  8
0
  6
HIDDEN
 62
     7
370
     0
100
AcDbLine
 10
5.5875123925
 20
6.8141440473
 30
0.0
 11
5.633748938
 21
6.8093231972
 31
0.0
  0
LINE
  5
275
330
1F
100
AcDbEntity
  8
0
  6
HIDDEN
 62
     7
370
     0
100
AcDbLine
 10
5.633748938
 20
6.8093231972
 30
0.0
 11
5.6537723085
 21
6.8093231972
 31
0.0
  0
ARC
  5
276
330
1F
100
AcDbEntity
  8
0
  6
HIDDEN
 62
     7
370
     0
100
AcDbCircle
 10
5.6549559338
 20
5.4007249233
 30
0.0
 40
1.415027296992511
100
AcDbArc
 50
90.3074200096
 51
92.7318871098
  0
LINE
  5
277
330
1F
100
AcDbEntity
  8
0
  6
HIDDEN
 62
     7
370
     0
100
AcDbLine
 10
5.633748938
 20
6.7985822648
 30
0.0
 11
5.5875123925
 21
6.7937614146
 31
0.0
  0
LINE
  5
278
330
1F
100
AcDbEntity
  8
0
  6
HIDDEN
 62
     7
370
     0
100
AcDbLine
 10
5.6537723085
 20
6.7985822648
 30
0.0
 11
5.633748938
 21
6.7985822648
 31
0.0
  0
LINE
  5
279
330
1F
100
AcDbEntity
  8
0
  6
HIDDEN
 62
     7
370
     0
100
AcDbLine
 10
5.6473636535
 20
6.7921736098
 30
0.0
 11
5.6537723085
 21
6.7985822648
 31
0.0
  0
ARC
  5
27A
330
1F
100
AcDbEntity
  8
0
  6
HIDDEN
 62
     7
370
     0
100
AcDbCircle
 10
5.6568529087
 20
8.2786857632
 30
0.0
 40
1.486542440702455
100
AcDbArc
 50
267.3264395638
 51
269.6342533168
  0
LINE
  5
27B
330
1F
100
AcDbEntity
  8
0
  6
HIDDEN
 62
     7
370
     0
100
AcDbLine
 10
5.6473636535
 20
6.8157318521
 30
0.0
 11
5.6537723085
 21
6.8093231972
 31
0.0
  0
LINE
  5
27C
330
1F
100
AcDbEntity
  8
0
  6
HIDDEN
 62
     7
370
     0
100
AcDbLine
 10
5.6537723085
 20
6.8093231972
 30
0.0
 11
5.6537723085
 21
6.8293465677
 31
0.0
  0
ARC
  5
27D
330
1F
100
AcDbEntity
  8
0
  6
HIDDEN
 62
     7
370
     0
100
AcDbCircle
 10
7.1338758069
 20
6.8062425969
 30
0.0
 40
1.486542440700455
100
AcDbArc
 50
177.3264395638
 51
179.6342533168
  0
LINE
  5
27E
330
1F
100
AcDbEntity
  8
0
  6
HIDDEN
 62
     7
370
     0
100
AcDbLine
 10
5.6537723085
 20
6.8293465677
 30
0.0
 11
5.6489514584
 21
6.8755831131
 31
0.0
  0
LINE
  5
27F
330
1F
100
AcDbEntity
  8
0
  6
HIDDEN
 62
     7
370
     0
100
AcDbLine
 10
5.6645132409
 20
6.8293465677
 30
0.0
 11
5.6537723085
 21
6.8293465677
 31
0.0
  0
LWPOLYLINE
  5
280
330
1F
100
AcDbEntity
  8
0
  6
HIDDEN
 62
     7
370
     0
100
AcDbPolyline
 90
        3
 70
   128
 43
0.0
 10
5.6489514584
 20
6.8755831131
 10
5.6591427747
 20
6.8758150957
 10
5.669334091
 20
6.8755831131
  0
LINE
  5
281
330
1F
100
AcDbEntity
  8
0
  6
HIDDEN
 62
     7
370
     0
100
AcDbLine
 10
5.669334091
 20
6.8755831131
 30
0.0
 11
5.6645132409
 21
6.8293465677
 31
0.0
  0
LINE
  5
282
330
1F
100
AcDbEntity
  8
0
  6
HIDDEN
 62
     7
370
     0
100
AcDbLine
 10
5.6645132409
 20
6.8093231972
 30
0.0
 11
5.6709218958
 21
6.8157318521
 31
0.0
  0
LINE
  5
283
330
1F
100
AcDbEntity
  8
0
  6
HIDDEN
 62
     7
370
     0
100
AcDbLine
 10
5.6645132409
 20
6.8293465677
 30
0.0
 11
5.6645132409
 21
6.8093231972
 31
0.0
  0
ARC
  5
284
330
1F
100
AcDbEntity
  8
0
  6
HIDDEN
 62
     7
370
     0
100
AcDbCircle
 10
4.2559149671
 20
6.8081395718
 30
0.0
 40
1.415027296995081
100
AcDbArc
 50
0.3074200097
 51
2.7318871098
  0
LINE
  5
285
330
1F
100
AcDbEntity
  8
0
  6
HIDDEN
 62
     7
370
     0
100
AcDbLine
 10
4.2216427747
 20
8.4718530619
 30
0.0
 11
4.2216427747
 21
8.5818530619
 31
0.0
  0
LINE
  5
286
330
1F
100
AcDbEntity
  8
0
  6
HIDDEN
 62
     7
370
     0
100
AcDbLine
 10
4.4716427747
 20
8.5818530619
 30
0.0
 11
4.2216427747
 21
8.5818530619
 31
0.0
  0
LINE
  5
287
330
1F
100
AcDbEntity
  8
0
  6
HIDDEN
 62
     7
370
     0
100
AcDbLine
 10
4.4716427747
 20
8.4718530619
 30
0.0
 11
4.4716427747
 21
8.5818530619
 31
0.0
  0
LINE
  5
288
330
1F
100
AcDbEntity
  8
0
  6
HIDDEN
 62
     7
370
     0
100
AcDbLine
 10
4.2216427747
 20
8.4718530619
 30
0.0
 11
4.4716427747
 21
8.4718530619
 31
0.0
  0
CIRCLE
  5
289
330
1F
100
AcDbEntity
  8
0
  6
HIDDEN
 62
     7
370
     0
100
AcDbCircle
 10
3.0341427747
 20
8.428952731
 30
0.0
 40
0.1416756862331727
  0
CIRCLE
  5
28A
330
1F
100
AcDbEntity
  8
0
  6
HIDDEN
 62
     7
370
     0
100
AcDbCircle
 10
3.0341427747
 20
8.428952731
 30
0.0
 40
0.1400000000000414
  0
CIRCLE
  5
28B
330
1F
100
AcDbEntity
  8
0
  6
HIDDEN
 62
     7
370
     0
100
AcDbCircle
 10
3.0341427747
 20
6.803952731
 30
0.0
 40
0.0625
  0
CIRCLE
  5
28C
330
1F
100
AcDbEntity
  8
0
  6
HIDDEN
 62
     7
370
     0
100
AcDbCircle
 10
3.0341427747
 20
6.803952731
 30
0.0
 40
0.1400000000000192
  0
CIRCLE
  5
28D
330
1F
100
AcDbEntity
  8
0
  6
HIDDEN
 62
     7
370
     0
100
AcDbCircle
 10
5.6591427747
 20
6.803952731
 30
0.0
 40
0.1400000000000192
  0
CIRCLE
  5
28E
330
1F
100
AcDbEntity
  8
0
  6
HIDDEN
 62
     7
370
     0
100
AcDbCircle
 10
5.6591427747
 20
6.803952731
 30
0.0
 40
0.1416756862331496
  0
CIRCLE
  5
28F
330
1F
100
AcDbEntity
  8
0
  6
HIDDEN
 62
     7
370
     0
100
AcDbCircle
 10
3.0341427747
 20
8.428952731
 30
0.0
 40
0.0624999999999982
  0
CIRCLE
  5
290
330
1F
100
AcDbEntity
  8
0
  6
HIDDEN
 62
     7
370
     0
100
AcDbCircle
 10
5.6591427747
 20
8.428952731
 30
0.0
 40
0.1416756862331727
  0
CIRCLE
  5
291
330
1F
100
AcDbEntity
  8
0
  6
HIDDEN
 62
     7
370
     0
100
AcDbCircle
 10
5.6591427747
 20
8.428952731
 30
0.0
 40
0.1400000000000414
  0
CIRCLE
  5
292
330
1F
100
AcDbEntity
  8
0
  6
HIDDEN
 62
     7
370
     0
100
AcDbCircle
 10
3.0341427747
 20
6.803952731
 30
0.0
 40
0.1416756862331496
  0
CIRCLE
  5
293
330
1F
100
AcDbEntity
  8
0
  6
HIDDEN
 62
     7
370
     0
100
AcDbCircle
 10
5.6591427747
 20
8.428952731
 30
0.0
 40
0.0624999999999982
  0
CIRCLE
  5
294
330
1F
100
AcDbEntity
  8
0
  6
HIDDEN
 62
     7
370
     0
100
AcDbCircle
 10
5.6591427747
 20
6.803952731
 30
0.0
 40
0.0625
  0
ARC
  5
295
330
1F
100
AcDbEntity
  8
0
  6
HIDDEN
 62
     7
370
     0
100
AcDbCircle
 10
5.7866427747
 20
8.555952731
 30
0.0
 40
0.025900330909522
100
AcDbArc
 50
0.0
 51
90.0
  0
LINE
  5
296
330
1F
100
AcDbEntity
  8
0
  6
HIDDEN
 62
     7
370
     0
100
AcDbLine
 10
5.8125431056
 20
6.676952731
 30
0.0
 11
5.8125431056
 21
8.555952731
 31
0.0
  0
ARC
  5
297
330
1F
100
AcDbEntity
  8
0
  6
HIDDEN
 62
     7
370
     0
100
AcDbCircle
 10
5.7866427747
 20
6.676952731
 30
0.0
 40
0.0259003309095229
100
AcDbArc
 50
270.0
 51
0.0
  0
LINE
  5
298
330
1F
100
AcDbEntity
  8
0
  6
HIDDEN
 62
     7
370
     0
100
AcDbLine
 10
2.9066427747
 20
6.6510524001
 30
0.0
 11
5.7866427747
 21
6.6510524001
 31
0.0
  0
ARC
  5
299
330
1F
100
AcDbEntity
  8
0
  6
HIDDEN
 62
     7
370
     0
100
AcDbCircle
 10
2.9066427747
 20
6.676952731
 30
0.0
 40
0.0259003309095225
100
AcDbArc
 50
180.0
 51
270.0
  0
LINE
  5
29A
330
1F
100
AcDbEntity
  8
0
  6
HIDDEN
 62
     7
370
     0
100
AcDbLine
 10
2.8807424438
 20
8.555952731
 30
0.0
 11
2.8807424438
 21
6.676952731
 31
0.0
  0
ARC
  5
29B
330
1F
100
AcDbEntity
  8
0
  6
HIDDEN
 62
     7
370
     0
100
AcDbCircle
 10
2.9066427747
 20
8.555952731
 30
0.0
 40
0.0259003309095225
100
AcDbArc
 50
90.0
 51
180.0
  0
LINE
  5
29C
330
1F
100
AcDbEntity
  8
0
  6
HIDDEN
 62
     7
370
     0
100
AcDbLine
 10
5.7866427747
 20
8.5818530619
 30
0.0
 11
4.4716427747
 21
8.5818530619
 31
0.0
  0
LINE
  5
29D
330
1F
100
AcDbEntity
  8
0
  6
HIDDEN
 62
     7
370
     0
100
AcDbLine
 10
4.2216427747
 20
8.5818530619
 30
0.0
 11
2.9066427747
 21
8.5818530619
 31
0.0
  0
LINE
  5
29E
330
1F
100
AcDbEntity
  8
0
  6
HIDDEN
 62
     7
370
     0
100
AcDbLine
 10
5.7866427747
 20
6.6150524001
 30
0.0
 11
2.9066427747
 21
6.6150524001
 31
0.0
  0
ARC
  5
29F
330
1F
100
AcDbEntity
  8
0
  6
HIDDEN
 62
     7
370
     0
100
AcDbCircle
 10
2.9066427747
 20
6.676952731
 30
0.0
 40
0.0619003309095434
100
AcDbArc
 50
179.9999999999
 51
270.0
  0
LINE
  5
2A0
330
1F
100
AcDbEntity
  8
0
  6
HIDDEN
 62
     7
370
     0
100
AcDbLine
 10
2.8447424438
 20
6.676952731
 30
0.0
 11
2.8447424438
 21
8.555952731
 31
0.0
  0
ARC
  5
2A1
330
1F
100
AcDbEntity
  8
0
  6
HIDDEN
 62
     7
370
     0
100
AcDbCircle
 10
2.9066427747
 20
8.555952731
 30
0.0
 40
0.0619003309095465
100
AcDbArc
 50
90.0
 51
179.9999999997
  0
LINE
  5
2A2
330
1F
100
AcDbEntity
  8
0
  6
HIDDEN
 62
     7
370
     0
100
AcDbLine
 10
2.9066427747
 20
8.6178530619
 30
0.0
 11
5.7866427747
 21
8.6178530619
 31
0.0
  0
ARC
  5
2A3
330
1F
100
AcDbEntity
  8
0
  6
HIDDEN
 62
     7
370
     0
100
AcDbCircle
 10
5.7866427747
 20
8.555952731
 30
0.0
 40
0.0619003309095465
100
AcDbArc
 50
0.0000000001
 51
90.0
  0
LINE
  5
2A4
330
1F
100
AcDbEntity
  8
0
  6
HIDDEN
 62
     7
370
     0
100
AcDbLine
 10
5.8485431056
 20
8.555952731
 30
0.0
 11
5.8485431056
 21
6.676952731
 31
0.0
  0
ARC
  5
2A5
330
1F
100
AcDbEntity
  8
0
  6
HIDDEN
 62
     7
370
     0
100
AcDbCircle
 10
5.7866427747
 20
6.676952731
 30
0.0
 40
0.0619003309095447
100
AcDbArc
 50
270.0
 51
0.0000000003
  0
LINE
  5
2A6
330
1F
100
AcDbEntity
  8
0
  6
HIDDEN
 62
     7
370
     0
100
AcDbLine
 10
2.9066427747
 20
6.6150524001
 30
0.0
 11
2.9066427747
 21
6.613952731
 31
0.0
  0
ARC
  5
2A7
330
1F
100
AcDbEntity
  8
0
  6
HIDDEN
 62
     7
370
     0
100
AcDbCircle
 10
2.9066427747
 20
6.676952731
 30
0.0
 40
0.0630000000000477
100
AcDbArc
 50
179.9999999995
 51
270.0
  0
LINE
  5
2A8
330
1F
100
AcDbEntity
  8
0
  6
HIDDEN
 62
     7
370
     0
100
AcDbLine
 10
2.8447424438
 20
6.676952731
 30
0.0
 11
2.8436427747
 21
6.676952731
 31
0.0
  0
LINE
  5
2A9
330
1F
100
AcDbEntity
  8
0
  6
HIDDEN
 62
     7
370
     0
100
AcDbLine
 10
5.7866427747
 20
6.6150524001
 30
0.0
 11
5.7866427747
 21
6.613952731
 31
0.0
  0
LINE
  5
2AA
330
1F
100
AcDbEntity
  8
0
  6
HIDDEN
 62
     7
370
     0
100
AcDbLine
 10
2.9066427747
 20
6.613952731
 30
0.0
 11
5.7866427747
 21
6.613952731
 31
0.0
  0
LINE
  5
2AB
330
1F
100
AcDbEntity
  8
0
  6
HIDDEN
 62
     7
370
     0
100
AcDbLine
 10
5.8485431056
 20
8.555952731
 30
0.0
 11
5.8496427747
 21
8.555952731
 31
0.0
  0
LINE
  5
2AC
330
1F
100
AcDbEntity
  8
0
  6
HIDDEN
 62
     7
370
     0
100
AcDbLine
 10
5.8496427747
 20
6.676952731
 30
0.0
 11
5.8496427747
 21
8.555952731
 31
0.0
  0
LINE
  5
2AD
330
1F
100
AcDbEntity
  8
0
  6
HIDDEN
 62
     7
370
     0
100
AcDbLine
 10
5.8485431056
 20
6.676952731
 30
0.0
 11
5.8496427747
 21
6.676952731
 31
0.0
  0
ARC
  5
2AE
330
1F
100
AcDbEntity
  8
0
  6
HIDDEN
 62
     7
370
     0
100
AcDbCircle
 10
5.7866427747
 20
6.676952731
 30
0.0
 40
0.0630000000000495
100
AcDbArc
 50
270.0
 51
0.0
  0
LINE
  5
2AF
330
1F
100
AcDbEntity
  8
0
  6
HIDDEN
 62
     7
370
     0
100
AcDbLine
 10
2.8436427747
 20
8.555952731
 30
0.0
 11
2.8436427747
 21
6.676952731
 31
0.0
  0
LINE
  5
2B0
330
1F
100
AcDbEntity
  8
0
  6
HIDDEN
 62
     7
370
     0
100
AcDbLine
 10
2.8447424438
 20
8.555952731
 30
0.0
 11
2.8436427747
 21
8.555952731
 31
0.0
  0
ARC
  5
2B1
330
1F
100
AcDbEntity
  8
0
  6
HIDDEN
 62
     7
370
     0
100
AcDbCircle
 10
2.9066427747
 20
8.555952731
 30
0.0
 40
0.0630000000000503
100
AcDbArc
 50
90.0
 51
180.0
  0
LINE
  5
2B2
330
1F
100
AcDbEntity
  8
0
  6
HIDDEN
 62
     7
370
     0
100
AcDbLine
 10
2.9066427747
 20
8.6178530619
 30
0.0
 11
2.9066427747
 21
8.618952731
 31
0.0
  0
LINE
  5
2B3
330
1F
100
AcDbEntity
  8
0
  6
HIDDEN
 62
     7
370
     0
100
AcDbLine
 10
5.7866427747
 20
8.618952731
 30
0.0
 11
2.9066427747
 21
8.618952731
 31
0.0
  0
LINE
  5
2B4
330
1F
100
AcDbEntity
  8
0
  6
HIDDEN
 62
     7
370
     0
100
AcDbLine
 10
5.7866427747
 20
8.618952731
 30
0.0
 11
5.7866427747
 21
8.6178530619
 31
0.0
  0
ARC
  5
2B5
330
1F
100
AcDbEntity
  8
0
  6
HIDDEN
 62
     7
370
     0
100
AcDbCircle
 10
5.7866427747
 20
8.555952731
 30
0.0
 40
0.0630000000000503
100
AcDbArc
 50
0.0000000005
 51
90.0
  0
CIRCLE
  5
2B6
330
1F
100
AcDbEntity
  8
0
  6
HIDDEN
 62
     7
370
     0
100
AcDbCircle
 10
3.0341427747
 20
8.428952731
 30
0.0
 40
0.1224999999999987
  0
CIRCLE
  5
2B7
330
1F
100
AcDbEntity
  8
0
  6
HIDDEN
 62
     7
370
     0
100
AcDbCircle
 10
3.0341427747
 20
6.803952731
 30
0.0
 40
0.1225000000000005
  0
CIRCLE
  5
2B8
330
1F
100
AcDbEntity
  8
0
  6
HIDDEN
 62
     7
370
     0
100
AcDbCircle
 10
5.6591427747
 20
6.803952731
 30
0.0
 40
0.1225000000000005
  0
CIRCLE
  5
2B9
330
1F
100
AcDbEntity
  8
0
  6
HIDDEN
 62
     7
370
     0
100
AcDbCircle
 10
5.6591427747
 20
8.428952731
 30
0.0
 40
0.1224999999999987
  0
LWPOLYLINE
  5
2BA
330
1F
100
AcDbEntity
  8
0
  6
HIDDEN
 62
     7
370
     0
100
AcDbPolyline
 90
        4
 70
   128
 43
0.0
 10
2.9941417217
 20
7.616452731
 10
3.0073141026
 20
7.6164473238
 10
3.0295454215
 20
7.6164480309
 10
3.0568234338
 20
7.616452731
  0
LWPOLYLINE
  5
2BB
330
1F
100
AcDbEntity
  8
0
  6
HIDDEN
 62
     7
370
     0
100
AcDbPolyline
 90
        4
 70
   128
 43
0.0
 10
5.6991438277
 20
7.616452731
 10
5.6859714468
 20
7.6164581382
 10
5.6637401278
 20
7.616457431
 10
5.6364621155
 20
7.616452731
  0
DIMENSION
  5
2BC
330
1F
100
AcDbEntity
  8
0
  6
Continuous
 62
     7
370
     0
100
AcDbDimension
  2
*D5
 10
7.6620557017
 20
6.573952731
 30
0.0
 11
7.6620557017
 21
7.5241649307
 31
0.0
 70
   160
 71
     2
 42
-1.0
  3
SLDDIMSTYLE0
100
AcDbAlignedDimension
 13
5.7847318799
 23
8.658952731
 33
0.0
 14
5.7847318799
 24
6.573952731
 34
0.0
 50
90.0
100
AcDbRotatedDimension
  0
DIMENSION
  5
2CF
330
1F
100
AcDbEntity
  8
0
  6
Continuous
 62
     7
370
     0
100
AcDbDimension
  2
*D6
 10
5.8896427747
 20
5.5929477181
 30
0.0
 11
4.3744556078
 21
5.5929477181
 31
0.0
 70
   160
 71
     2
 42
-1.0
  3
SLDDIMSTYLE0
100
AcDbAlignedDimension
 13
2.8036427747
 23
6.6788317273
 33
0.0
 14
5.8896427747
 24
6.6788317273
 34
0.0
100
AcDbRotatedDimension
  0
LINE
  5
2E1
330
1F
100
AcDbEntity
  8
0
  6
CENTER
 62
     7
370
     0
100
AcDbLine
 10
1.9540220234
 20
7.616452731
 30
0.0
 11
6.5452852761
 21
7.616452731
 31
0.0
  0
LINE
  5
2E2
330
1F
100
AcDbEntity
  8
0
  6
Continuous
 62
     7
370
     0
100
AcDbLine
 10
1.9540220234
 20
7.616452731
 30
0.0
 11
1.9540220234
 21
8.116452731
 31
0.0
  0
SOLID
  5
2E3
330
1F
100
AcDbEntity
  8
0
  6
Continuous
 62
     7
370
     0
100
AcDbTrace
 10
1.9540220234
 20
8.116452731
 30
0.0
 11
1.9140220234
 21
7.866452731
 31
0.0
 12
1.9940220234
 22
7.866452731
 32
0.0
 13
1.9940220234
 23
7.866452731
 33
0.0
  0
LINE
  5
2E4
330
1F
100
AcDbEntity
  8
0
  6
Continuous
 62
     7
370
     0
100
AcDbLine
 10
6.5452852761
 20
7.616452731
 30
0.0
 11
6.5452852761
 21
8.116452731
 31
0.0
  0
SOLID
  5
2E5
330
1F
100
AcDbEntity
  8
0
  6
Continuous
 62
     7
370
     0
100
AcDbTrace
 10
6.5452852761
 20
8.116452731
 30
0.0
 11
6.5052852761
 21
7.866452731
 31
0.0
 12
6.5852852761
 22
7.866452731
 32
0.0
 13
6.5852852761
 23
7.866452731
 33
0.0
  0
MTEXT
  5
2E6
330
1F
100
AcDbEntity
  8
0
  6
Continuous
 62
     7
100
AcDbMText
 10
1.8863065063
 20
8.3147946337
 30
0.0
 40
0.125
 41
0.0
 71
     1
 72
     1
  1
C
  7
SLDTEXTSTYLE0
 73
     1
 44
1.0
  0
MTEXT
  5
2E7
330
1F
100
AcDbEntity
  8
0
  6
Continuous
 62
     7
100
AcDbMText
 10
6.4775697589
 20
8.3147946337
 30
0.0
 40
0.125
 41
0.0
 71
     1
 72
     1
  1
C
  7
SLDTEXTSTYLE0
 73
     1
 44
1.0
  0
LINE
  5
2E8
330
1F
100
AcDbEntity
  8
0
  6
Continuous
 62
     7
370
    15
100
AcDbLine
 10
2.9491229182
 20
4.1538886462
 30
0.0
 11
2.9392560889
 21
4.1443755193
 31
0.0
  0
LINE
  5
2E9
330
1F
100
AcDbEntity
  8
0
  6
Continuous
 62
     7
370
    15
100
AcDbLine
 10
2.8765991328
 20
4.0032253083
 30
0.0
 11
2.8708798765
 21
3.9745575012
 31
0.0
  0
LWPOLYLINE
  5
2EA
330
1F
100
AcDbEntity
  8
0
  6
Continuous
 62
     7
370
    15
100
AcDbPolyline
 90
        4
 70
   128
 43
0.0
 10
2.8850279772
 20
4.041136618
 10
2.8850463138
 20
4.0413764439
 10
2.8843374452
 20
4.0388798449
 10
2.882944749
 20
4.0329573532
  0
LINE
  5
2EB
330
1F
100
AcDbEntity
  8
0
  6
Continuous
 62
     7
370
    15
100
AcDbLine
 10
5.8224056728
 20
3.9745575012
 30
0.0
 11
5.8217786673
 21
3.9777375175
 31
0.0
  0
LWPOLYLINE
  5
2EC
330
1F
100
AcDbEntity
  8
0
  6
Continuous
 62
     7
370
    15
100
AcDbPolyline
 90
        3
 70
   128
 43
0.0
 10
5.8179930676
 20
3.9968982408
 10
5.8144324852
 20
4.0138913569
 10
5.8141578364
 20
4.015117008
  0
LWPOLYLINE
  5
2ED
330
1F
100
AcDbEntity
  8
0
  6
Continuous
 62
     7
370
    15
100
AcDbPolyline
 90
        3
 70
   128
 43
0.0
 10
5.7563904165
 20
4.142394626
 10
5.7529302034
 20
4.1460522036
 10
5.7441626311
 20
4.1538886462
  0
LINE
  5
2EE
330
1F
100
AcDbEntity
  8
0
  6
Continuous
 62
     7
370
    15
100
AcDbLine
 10
5.6704087745
 20
4.1944509231
 30
0.0
 11
5.6697650664
 21
4.194513625
 31
0.0
  0
LINE
  5
2EF
330
1F
100
AcDbEntity
  8
0
  6
Continuous
 62
     7
370
    15
100
AcDbLine
 10
2.9400335286
 20
3.9418999002
 30
0.0
 11
2.9438927747
 21
3.4996741052
 31
0.0
  0
LINE
  5
2F0
330
1F
100
AcDbEntity
  8
0
  6
Continuous
 62
     7
370
    15
100
AcDbLine
 10
3.1313927747
 20
3.4996741052
 30
0.0
 11
3.1362655617
 21
4.0580401939
 31
0.0
  0
LINE
  5
2F1
330
1F
100
AcDbEntity
  8
0
  6
Continuous
 62
     7
370
    15
100
AcDbLine
 10
5.5570199881
 20
4.0580401402
 30
0.0
 11
5.5618927747
 21
3.4996741052
 31
0.0
  0
LINE
  5
2F2
330
1F
100
AcDbEntity
  8
0
  6
Continuous
 62
     7
370
    15
100
AcDbLine
 10
5.7493927747
 20
3.4996741052
 30
0.0
 11
5.7532520207
 21
3.9418999002
 31
0.0
  0
LINE
  5
2F3
330
1F
100
AcDbEntity
  8
0
  6
Continuous
 62
     7
370
    15
100
AcDbLine
 10
5.8008184609
 20
3.4031741052
 30
0.0
 11
5.7991427747
 21
3.4991741052
 31
0.0
  0
LINE
  5
2F4
330
1F
100
AcDbEntity
  8
0
  6
Continuous
 62
     7
370
    15
100
AcDbLine
 10
5.5191427747
 20
3.4991741052
 30
0.0
 11
5.5174670885
 21
3.4031741052
 31
0.0
  0
LINE
  5
2F5
330
1F
100
AcDbEntity
  8
0
  6
Continuous
 62
     7
370
    15
100
AcDbLine
 10
3.1758184609
 20
3.4031741052
 30
0.0
 11
3.1741427747
 21
3.4991741052
 31
0.0
  0
LINE
  5
2F6
330
1F
100
AcDbEntity
  8
0
  6
Continuous
 62
     7
370
    15
100
AcDbLine
 10
2.8941427747
 20
3.4991741052
 30
0.0
 11
2.8924670885
 21
3.4031741052
 31
0.0
  0
ARC
  5
2F7
330
1F
100
AcDbEntity
  8
0
  6
Continuous
 62
     7
370
    15
100
AcDbCircle
 10
5.5928910122
 20
3.8541770837
 30
0.0
 40
0.1765322257615413
100
AcDbArc
 50
6.9851630769
 51
24.8078354475
  0
ARC
  5
2F8
330
1F
100
AcDbEntity
  8
0
  6
Continuous
 62
     7
370
    15
100
AcDbCircle
 10
5.6038059324
 20
3.9090307048
 30
0.0
 40
0.1527824715892044
100
AcDbArc
 50
12.424387373
 51
71.4968977657
  0
ARC
  5
2F9
330
1F
100
AcDbEntity
  8
0
  6
Continuous
 62
     7
370
    15
100
AcDbCircle
 10
4.7832289439
 20
3.9202777773
 30
0.0
 40
0.8792781850336597
100
AcDbArc
 50
8.7420087464
 51
13.9802410524
  0
ARC
  5
2FA
330
1F
100
AcDbEntity
  8
0
  6
Continuous
 62
     7
370
    15
100
AcDbCircle
 10
5.597437494
 20
3.9895458697
 30
0.0
 40
0.1483781676092767
100
AcDbArc
 50
5.3316548507
 51
74.7513880579
  0
ARC
  5
2FB
330
1F
100
AcDbEntity
  8
0
  6
Continuous
 62
     7
370
    15
100
AcDbCircle
 10
5.6017602262
 20
3.9931784142
 30
0.0
 40
0.2133142690503608
100
AcDbArc
 50
6.6668217833
 51
73.4162211253
  0
ARC
  5
2FC
330
1F
100
AcDbEntity
  8
0
  6
Continuous
 62
     7
370
    15
100
AcDbCircle
 10
1.4295605312
 20
3.1874396279
 30
0.0
 40
4.462042085814504
100
AcDbArc
 50
1.698232954
 51
10.726808505
  0
LINE
  5
2FD
330
1F
100
AcDbEntity
  8
0
  6
Continuous
 62
     7
370
    15
100
AcDbLine
 10
5.8896427747
 20
3.3196741052
 30
0.0
 11
5.8521888822
 21
3.3196741052
 31
0.0
  0
LINE
  5
2FE
330
1F
100
AcDbEntity
  8
0
  6
Continuous
 62
     7
370
    15
100
AcDbLine
 10
5.8503427747
 20
3.3901741052
 30
0.0
 11
5.8521888822
 21
3.3196741052
 31
0.0
  0
LINE
  5
2FF
330
1F
100
AcDbEntity
  8
0
  6
Continuous
 62
     7
370
    15
100
AcDbLine
 10
5.8503427747
 20
3.3901741052
 30
0.0
 11
5.8157646138
 21
3.3901741052
 31
0.0
  0
ARC
  5
300
330
1F
100
AcDbEntity
  8
0
  6
Continuous
 62
     7
370
    15
100
AcDbCircle
 10
1.7156205492
 20
3.2287815818
 30
0.0
 40
4.103319253592693
100
AcDbArc
 50
2.2541498162
 51
10.8805581082
  0
LWPOLYLINE
  5
301
330
1F
100
AcDbEntity
  8
0
  6
Continuous
 62
     7
370
    15
100
AcDbPolyline
 90
       19
 70
   128
 43
0.0
 10
5.6364615834
 20
4.1326988705
 10
5.5668558685
 20
4.1572242588
 10
5.4884871714
 20
4.1783808312
 10
5.4018431429
 20
4.1962943529
 10
5.3093292906
 20
4.2108582817
 10
5.2096978942
 20
4.2226686323
 10
5.1048645283
 20
4.231827463
 10
4.996828084
 20
4.2385811324
 10
4.8801077858
 20
4.2435541582
 10
4.761433146
 20
4.2467431291
 10
4.6426881308
 20
4.2485484877
 10
4.6062090248
 20
4.2488934453
 10
4.5681869969
 20
4.2491703723
 10
4.5297711758
 20
4.24937428
 10
4.494962663
 20
4.2495028083
 10
4.4574906999
 20
4.2495939341
 10
4.4232016599
 20
4.2496421954
 10
4.3878736167
 20
4.2496661224
 10
4.3466427597
 20
4.2496741052
  0
LWPOLYLINE
  5
302
330
1F
100
AcDbEntity
  8
0
  6
Continuous
 62
     7
370
    15
100
AcDbPolyline
 90
       12
 70
   128
 43
0.0
 10
3.056823966
 20
4.1326988705
 10
3.1266800741
 20
4.1573013851
 10
3.2052467074
 20
4.1784864851
 10
3.2916327441
 20
4.1963286021
 10
3.384959391
 20
4.2109959571
 10
3.4844010247
 20
4.2227520019
 10
3.5891483951
 20
4.2318817486
 10
3.6984043445
 20
4.2386836731
 10
3.8546107278
 20
4.2448543558
 10
4.0159800004
 20
4.2481417059
 10
4.1806101407
 20
4.2494434701
 10
4.3466427747
 20
4.2496741052
  0
ARC
  5
303
330
1F
100
AcDbEntity
  8
0
  6
Continuous
 62
     7
370
    15
100
AcDbCircle
 10
3.095912449
 20
3.9894917574
 30
0.0
 40
0.1484473185282255
100
AcDbArc
 50
105.267097695
 51
174.6498593965
  0
ARC
  5
304
330
1F
100
AcDbEntity
  8
0
  6
Continuous
 62
     7
370
    15
100
AcDbCircle
 10
7.1960356243
 20
3.2036413193
 30
0.0
 40
4.322541335504585
100
AcDbArc
 50
169.3385735109
 51
177.526718561
  0
LINE
  5
305
330
1F
100
AcDbEntity
  8
0
  6
Continuous
 62
     7
370
    15
100
AcDbLine
 10
2.8775209356
 20
3.3901741052
 30
0.0
 11
2.8429427747
 21
3.3901741052
 31
0.0
  0
LINE
  5
306
330
1F
100
AcDbEntity
  8
0
  6
Continuous
 62
     7
370
    15
100
AcDbLine
 10
2.8410966672
 20
3.3196741052
 30
0.0
 11
2.8429427747
 21
3.3901741052
 31
0.0
  0
LINE
  5
307
330
1F
100
AcDbEntity
  8
0
  6
Continuous
 62
     7
370
    15
100
AcDbLine
 10
2.8410966672
 20
3.3196741052
 30
0.0
 11
2.8036427747
 21
3.3196741052
 31
0.0
  0
ARC
  5
308
330
1F
100
AcDbEntity
  8
0
  6
Continuous
 62
     7
370
    15
100
AcDbCircle
 10
7.5179740464
 20
3.159763127
 30
0.0
 40
4.717042596829918
100
AcDbArc
 50
169.5176969874
 51
178.0572615523
  0
ARC
  5
309
330
1F
100
AcDbEntity
  8
0
  6
Continuous
 62
     7
370
    15
100
AcDbCircle
 10
3.0915253231
 20
3.9931784142
 30
0.0
 40
0.2133142690503574
100
AcDbArc
 50
106.5837788747
 51
173.3331782167
  0
LWPOLYLINE
  5
30A
330
1F
100
AcDbEntity
  8
0
  6
Continuous
 62
     7
370
    15
100
AcDbPolyline
 90
       12
 70
   128
 43
0.0
 10
3.0306417952
 20
4.1976195388
 10
3.1053411898
 20
4.2239750656
 10
3.1875565119
 20
4.2462353622
 10
3.2766037533
 20
4.2647460863
 10
3.3793846865
 20
4.2808876632
 10
3.4884445253
 20
4.2935114767
 10
3.6029282817
 20
4.3030495875
 10
3.7219809676
 20
4.3099340564
 10
3.8447475951
 20
4.314596944
 10
4.0097032982
 20
4.3180644244
 10
4.1776416899
 20
4.3194333938
 10
4.3466427747
 20
4.3196741052
  0
LWPOLYLINE
  5
30B
330
1F
100
AcDbEntity
  8
0
  6
Continuous
 62
     7
370
    15
100
AcDbPolyline
 90
       19
 70
   128
 43
0.0
 10
5.6626437542
 20
4.1976195388
 10
5.5878285073
 20
4.2240097515
 10
5.5048014025
 20
4.2464540131
 10
5.4143423431
 20
4.2651695141
 10
5.3189223813
 20
4.2802040404
 10
5.2168987101
 20
4.2923034658
 10
5.1101216931
 20
4.3016301156
 10
5.0005150315
 20
4.3084850945
 10
4.8825292277
 20
4.3135139011
 10
4.7629237777
 20
4.3167274153
 10
4.643451678
 20
4.318544567
 10
4.6068057869
 20
4.3188912816
 10
4.5686219827
 20
4.3191695053
 10
4.5300610438
 20
4.3193741999
 10
4.4951666513
 20
4.3195029802
 10
4.4576059184
 20
4.319594198
 10
4.423295069
 20
4.3196423485
 10
4.3879491052
 20
4.3196661609
 10
4.3466427747
 20
4.3196741052
  0
ARC
  5
30C
330
1F
100
AcDbEntity
  8
0
  6
Continuous
 62
     7
370
    15
100
AcDbCircle
 10
3.124212554
 20
3.8477424056
 30
0.0
 40
0.2009980225000688
100
AcDbArc
 50
156.3111314355
 51
172.5706387307
  0
LWPOLYLINE
  5
30D
330
1F
100
AcDbEntity
  8
0
  6
Continuous
 62
     7
370
    15
100
AcDbPolyline
 90
        3
 70
   128
 43
0.0
 10
3.0568234338
 20
4.1327001904
 10
3.0564444101
 20
4.1311889727
 10
3.0554675623
 20
4.1272121679
  0
ARC
  5
30E
330
1F
100
AcDbEntity
  8
0
  6
Continuous
 62
     7
370
    15
100
AcDbCircle
 10
3.0894854191
 20
3.9090254878
 30
0.0
 40
0.152789260314818
100
AcDbArc
 50
108.5045446743
 51
167.5741701864
  0
LWPOLYLINE
  5
30F
330
1F
100
AcDbEntity
  8
0
  6
Continuous
 62
     7
370
    15
100
AcDbPolyline
 90
        9
 70
   128
 43
0.0
 10
3.1359770169
 20
4.058042712
 10
3.1361660472
 20
4.0597427214
 10
3.1339046836
 20
4.0646766737
 10
3.1286636577
 20
4.0683460299
 10
3.1212519009
 20
4.0704042634
 10
3.1115564271
 20
4.0711248497
 10
3.0887912204
 20
4.0687474722
 10
3.0624829965
 20
4.0619293792
 10
3.0409961983
 20
4.0539081581
  0
LINE
  5
310
330
1F
100
AcDbEntity
  8
0
  6
Continuous
 62
     7
370
    15
100
AcDbLine
 10
4.3466427747
 20
4.249673935
 30
0.0
 11
4.3466427918
 21
4.1908744993
 31
0.0
  0
LWPOLYLINE
  5
311
330
1F
100
AcDbEntity
  8
0
  6
Continuous
 62
     7
370
    15
100
AcDbPolyline
 90
       13
 70
   128
 43
0.0
 10
4.3466427408
 20
4.190871775
 10
4.1850648475
 20
4.1905945275
 10
4.0235200606
 20
4.1888880179
 10
3.9119970741
 20
4.1862963716
 10
3.8005261981
 20
4.1818963648
 10
3.6895594853
 20
4.1748352927
 10
3.5795489886
 20
4.1642604507
 10
3.5177993146
 20
4.1562619111
 10
3.4572134269
 20
4.1461449817
 10
3.3992662879
 20
4.1333300605
 10
3.3559216114
 20
4.1203593128
 10
3.3162811483
 20
4.1050385731
 10
3.2794859888
 20
4.0878574505
  0
LWPOLYLINE
  5
312
330
1F
100
AcDbEntity
  8
0
  6
Continuous
 62
     7
370
    15
100
AcDbPolyline
 90
        9
 70
   128
 43
0.0
 10
5.5573085322
 20
4.0580426583
 10
5.5571195022
 20
4.059742665
 10
5.5593808614
 20
4.0646766068
 10
5.5646218788
 20
4.068345948
 10
5.5720336217
 20
4.0704041686
 10
5.5817290772
 20
4.0711247506
 10
5.6044942918
 20
4.0687473958
 10
5.6308025773
 20
4.0619293386
 10
5.6522893506
 20
4.0539081568
  0
LWPOLYLINE
  5
313
330
1F
100
AcDbEntity
  8
0
  6
Continuous
 62
     7
370
    15
100
AcDbPolyline
 90
       13
 70
   128
 43
0.0
 10
4.3466427413
 20
4.190871688
 10
4.5085961194
 20
4.1905910543
 10
4.6705160744
 20
4.1888745154
 10
4.7805760778
 20
4.1862182132
 10
4.8904824546
 20
4.1817895132
 10
5.0006341626
 20
4.1749483877
 10
5.1099706306
 20
4.1646918508
 10
5.1721565424
 20
4.1567473427
 10
5.2332044672
 20
4.1466878416
 10
5.2916643299
 20
4.1339279514
 10
5.3358966553
 20
4.1208344011
 10
5.3763343823
 20
4.1053102267
 10
5.4138022374
 20
4.087856166
  0
ARC
  5
314
330
1F
100
AcDbEntity
  8
0
  6
Continuous
 62
     7
370
    15
100
AcDbCircle
 10
4.8308957986
 20
3.6013258161
 30
0.0
 40
1.995223470928415
100
AcDbArc
 50
167.947527371
 51
169.1953820967
  0
LINE
  5
315
330
1F
100
AcDbEntity
  8
0
  6
Continuous
 62
     7
370
    15
100
AcDbLine
 10
5.8413238211
 20
3.8613343514
 30
0.0
 11
5.8428052894
 21
3.8519733251
 31
0.0
  0
ARC
  5
316
330
1F
100
AcDbEntity
  8
0
  6
Continuous
 62
     7
370
    15
100
AcDbCircle
 10
3.8702416884
 20
3.6029576134
 30
0.0
 40
1.987203884380438
100
AcDbArc
 50
10.8092188567
 51
12.053733051
  0
ARC
  5
317
330
1F
100
AcDbEntity
  8
0
  6
Continuous
 62
     7
370
    15
100
AcDbCircle
 10
5.2793309156
 20
3.8209340823
 30
0.0
 40
0.2988754557633296
100
AcDbArc
 50
29.402265962
 51
63.2618056689
  0
LWPOLYLINE
  5
318
330
1F
100
AcDbEntity
  8
0
  6
Continuous
 62
     7
370
    15
100
AcDbPolyline
 90
        3
 70
   128
 43
0.0
 10
5.5397096234
 20
3.9676635145
 10
5.5517325047
 20
3.9423133318
 10
5.5581492711
 20
3.9286371254
  0
LWPOLYLINE
  5
319
330
1F
100
AcDbEntity
  8
0
  6
Continuous
 62
     7
370
    15
100
AcDbPolyline
 90
       65
 70
   128
 43
0.0
 10
5.5594946068
 20
3.7744769299
 10
5.5517896326
 20
3.7863723646
 10
5.5383118237
 20
3.8059239043
 10
5.5172973235
 20
3.834582247
 10
5.5051769695
 20
3.8504837519
 10
5.4987677499
 20
3.8587645736
 10
5.4954829723
 20
3.8629788872
 10
5.4938214418
 20
3.8651033872
 10
5.4929860043
 20
3.8661698279
 10
5.4925671316
 20
3.8667040775
 10
5.4923574086
 20
3.8669714573
 10
5.4922524756
 20
3.8671052107
 10
5.4921999913
 20
3.8671721032
 10
5.4921737446
 20
3.8672055534
 10
5.4921606202
 20
3.8672222795
 10
5.4921540577
 20
3.8672306428
 10
5.4921507764
 20
3.8672348245
 10
5.4921491357
 20
3.8672369154
 10
5.4921483154
 20
3.8672379608
 10
5.4921479052
 20
3.8672384835
 10
5.4921285335
 20
3.8672631674
 10
5.4921129916
 20
3.8672829667
 10
5.4920839102
 20
3.8673200047
 10
5.4920277462
 20
3.8673915065
 10
5.4919139636
 20
3.8675362777
 10
5.491667822
 20
3.8678492256
 10
5.4910916992
 20
3.868581149
 10
5.4896304247
 20
3.8704364998
 10
5.4856670465
 20
3.8754683352
 10
5.4744911062
 20
3.8896676961
 10
5.4702225966
 20
3.8950932616
 10
5.4655568774
 20
3.9010227191
 10
5.460516372
 20
3.9074247334
 10
5.4551249597
 20
3.9142643919
 10
5.4494077211
 20
3.9215030391
 10
5.4433906486
 20
3.9290980817
 10
5.4284055313
 20
3.947890839
 10
5.4143586592
 20
3.9650909341
 10
5.3995929333
 20
3.9819685566
 10
5.3933555887
 20
3.9885689091
 10
5.3876116698
 20
3.9942903891
 10
5.3812379329
 20
4.0001829636
 10
5.3733983035
 20
4.0067768464
 10
5.3654963606
 20
4.0127503813
 10
5.3575073027
 20
4.0181661004
 10
5.3349809315
 20
4.0306502943
 10
5.311613054
 20
4.0403318724
 10
5.2813933273
 20
4.0498094839
 10
5.2580316054
 20
4.0557352675
 10
5.2381450826
 20
4.0602787833
 10
5.2170023742
 20
4.0647172786
 10
5.1945491803
 20
4.0690448523
 10
5.1524938286
 20
4.0762846366
 10
5.1040899926
 20
4.0835572116
 10
5.0557940211
 20
4.0897543072
 10
4.9987872851
 20
4.095898977
 10
4.9526374551
 20
4.100089512
 10
4.8848530351
 20
4.1051580424
 10
4.8079702777
 20
4.1095994281
 10
4.7373942144
 20
4.1126666578
 10
4.6620252737
 20
4.1150609887
 10
4.5806486742
 20
4.1167926301
 10
4.5073977572
 20
4.1177204862
 10
4.4248731096
 20
4.1182258682
 10
4.3466427747
 20
4.118353256
  0
LINE
  5
31A
330
1F
100
AcDbEntity
  8
0
  6
Continuous
 62
     7
370
    15
100
AcDbLine
 10
4.3466427747
 20
4.1183530826
 30
0.0
 11
4.3466427747
 21
4.1908837786
 31
0.0
  0
LWPOLYLINE
  5
31B
330
1F
100
AcDbEntity
  8
0
  6
Continuous
 62
     7
370
    15
100
AcDbPolyline
 90
        3
 70
   128
 43
0.0
 10
3.1351362492
 20
3.9286337959
 10
3.1379675787
 20
3.9347155966
 10
3.1536129172
 20
3.9677410602
  0
ARC
  5
31C
330
1F
100
AcDbEntity
  8
0
  6
Continuous
 62
     7
370
    15
100
AcDbCircle
 10
3.414818851
 20
3.8200126951
 30
0.0
 40
0.3000872850984481
100
AcDbArc
 50
116.8058397717
 51
150.5091179208
  0
LWPOLYLINE
  5
31D
330
1F
100
AcDbEntity
  8
0
  6
Continuous
 62
     7
370
    15
100
AcDbPolyline
 90
       65
 70
   128
 43
0.0
 10
3.1337913313
 20
3.7745214673
 10
3.1350870322
 20
3.7766166093
 10
3.1482182493
 20
3.7962654468
 10
3.1603802171
 20
3.8134749884
 10
3.1768757038
 20
3.8358028971
 10
3.191842083
 20
3.855329396
 10
3.2047643777
 20
3.8718627591
 10
3.2198571924
 20
3.8910392362
 10
3.2373390884
 20
3.9132069478
 10
3.2484257349
 20
3.9272547361
 10
3.2628347211
 20
3.9453800305
 10
3.2743720113
 20
3.9596341368
 10
3.2877246157
 20
3.9753602721
 10
3.3046944053
 20
3.993287514
 10
3.3195249991
 20
4.0064426511
 10
3.3392253725
 20
4.0203581109
 10
3.3633022263
 20
4.0330123856
 10
3.3772996883
 20
4.0387195083
 10
3.3929624973
 20
4.0441207285
 10
3.4017459665
 20
4.0468236296
 10
3.4105715099
 20
4.0493657666
 10
3.4189600774
 20
4.0516503925
 10
3.4238392343
 20
4.0529238636
 10
3.4264441403
 20
4.0535896413
 10
3.4277873499
 20
4.0539290785
 10
3.4284690592
 20
4.0541003551
 10
3.428812429
 20
4.0541863741
 10
3.4289847412
 20
4.0542294778
 10
3.429071054
 20
4.0542510531
 10
3.4291142495
 20
4.0542618466
 10
3.4291358571
 20
4.0542672448
 10
3.4291466633
 20
4.0542699442
 10
3.429152067
 20
4.0542712941
 10
3.429154769
 20
4.054271969
 10
3.4291561201
 20
4.0542723065
 10
3.4291567956
 20
4.0542724752
 10
3.4291574711
 20
4.0542726439
 10
3.4293426638
 20
4.0543194261
 10
3.4307744541
 20
4.0546822371
 10
3.4477478729
 20
4.0586904903
 10
3.463666071
 20
4.0621496927
 10
3.477653838
 20
4.0650028193
 10
3.492657022
 20
4.0678993085
 10
3.509666905
 20
4.07101452
 10
3.526561735
 20
4.0739519641
 10
3.5430421819
 20
4.0766655158
 10
3.5651070166
 20
4.0800806336
 10
3.5861080396
 20
4.0831111651
 10
3.6137722511
 20
4.0868202241
 10
3.6375946324
 20
4.08975324
 10
3.6669597319
 20
4.0930637086
 10
3.6974787059
 20
4.096188328
 10
3.7291472488
 20
4.0991072344
 10
3.7594259448
 20
4.101610618
 10
3.7914975856
 20
4.1039914323
 10
3.8254644265
 20
4.1062407751
 10
3.9072899191
 20
4.1106500102
 10
3.9843166605
 20
4.1136805999
 10
4.0132408749
 20
4.1145699784
 10
4.041402064
 20
4.1153182816
 10
4.0687974771
 20
4.1159467014
 10
4.1090859201
 20
4.116714163
 10
4.1986360879
 20
4.1178189862
 10
4.2778284575
 20
4.1182680331
 10
4.3466427747
 20
4.1183530826
  0
LINE
  5
31E
330
1F
100
AcDbEntity
  8
0
  6
Continuous
 62
     7
370
    15
100
AcDbLine
 10
3.0376427747
 20
3.4996741052
 30
0.0
 11
3.1313927747
 21
3.4996741052
 31
0.0
  0
LINE
  5
31F
330
1F
100
AcDbEntity
  8
0
  6
Continuous
 62
     7
370
    15
100
AcDbLine
 10
2.9438927747
 20
3.4996741052
 30
0.0
 11
3.0376427747
 21
3.4996741052
 31
0.0
  0
LINE
  5
320
330
1F
100
AcDbEntity
  8
0
  6
Continuous
 62
     7
370
    15
100
AcDbLine
 10
5.6556427747
 20
3.4996741052
 30
0.0
 11
5.7493927747
 21
3.4996741052
 31
0.0
  0
LINE
  5
321
330
1F
100
AcDbEntity
  8
0
  6
Continuous
 62
     7
370
    15
100
AcDbLine
 10
5.5618927747
 20
3.4996741052
 30
0.0
 11
5.6556427747
 21
3.4996741052
 31
0.0
  0
LINE
  5
322
330
1F
100
AcDbEntity
  8
0
  6
Continuous
 62
     7
370
    15
100
AcDbLine
 10
4.3466427747
 20
4.118353256
 30
0.0
 11
4.3466427747
 21
3.6670699886
 31
0.0
  0
ARC
  5
323
330
1F
100
AcDbEntity
  8
0
  6
Continuous
 62
     7
370
    15
100
AcDbCircle
 10
5.4873846754
 20
3.8272807401
 30
0.0
 40
0.2827242097299591
100
AcDbArc
 50
3.4781271114
 51
19.9785266127
  0
LWPOLYLINE
  5
324
330
1F
100
AcDbEntity
  8
0
  6
Continuous
 62
     7
370
    15
100
AcDbPolyline
 90
        3
 70
   128
 43
0.0
 10
5.7735237339
 20
3.8419700224
 10
5.7724666562
 20
3.8433152255
 10
5.7695891346
 20
3.844433374
  0
ARC
  5
325
330
1F
100
AcDbEntity
  8
0
  6
Continuous
 62
     7
370
    15
100
AcDbCircle
 10
3.2039187674
 20
3.8274087247
 30
0.0
 40
0.2807379899275879
100
AcDbArc
 50
159.9514590414
 51
176.5234038774
  0
LWPOLYLINE
  5
326
330
1F
100
AcDbEntity
  8
0
  6
Continuous
 62
     7
370
    15
100
AcDbPolyline
 90
        3
 70
   128
 43
0.0
 10
2.9197620559
 20
3.8419699872
 10
2.920848559
 20
3.8433887223
 10
2.9236979884
 20
3.8444330647
  0
ARC
  5
327
330
1F
100
AcDbEntity
  8
0
  6
Continuous
 62
     7
370
    15
100
AcDbCircle
 10
-0.0029167301
 20
3.0332346238
 30
0.0
 40
5.829225552088497
100
AcDbArc
 50
5.2061290009
 51
7.9992781325
  0
LINE
  5
328
330
1F
100
AcDbEntity
  8
0
  6
Continuous
 62
     7
370
    15
100
AcDbLine
 10
5.7499382039
 20
3.5621741052
 30
0.0
 11
5.8022653141
 21
3.5621741052
 31
0.0
  0
ARC
  5
329
330
1F
100
AcDbEntity
  8
0
  6
Continuous
 62
     7
370
    15
100
AcDbCircle
 10
8.6962022832
 20
3.0332346234
 30
0.0
 40
5.829225555866257
100
AcDbArc
 50
172.0007218899
 51
174.7938709985
  0
LINE
  5
32A
330
1F
100
AcDbEntity
  8
0
  6
Continuous
 62
     7
370
    15
100
AcDbLine
 10
2.8910202353
 20
3.5621741052
 30
0.0
 11
2.9433473454
 21
3.5621741052
 31
0.0
  0
LINE
  5
32B
330
1F
100
AcDbEntity
  8
0
  6
Continuous
 62
     7
370
    15
100
AcDbLine
 10
5.7846427747
 20
3.3196741052
 30
0.0
 11
5.8521888822
 21
3.3196741052
 31
0.0
  0
LINE
  5
32C
330
1F
100
AcDbEntity
  8
0
  6
Continuous
 62
     7
370
    15
100
AcDbLine
 10
2.8410966672
 20
3.3196741052
 30
0.0
 11
2.9086427747
 21
3.3196741052
 31
0.0
  0
LINE
  5
32D
330
1F
100
AcDbEntity
  8
0
  6
Continuous
 62
     7
370
    15
100
AcDbLine
 10
2.9086427747
 20
3.3196741052
 30
0.0
 11
5.7846427747
 21
3.3196741052
 31
0.0
  0
LINE
  5
32E
330
1F
100
AcDbEntity
  8
0
  6
Continuous
 62
     7
370
    15
100
AcDbLine
 10
5.8485431056
 20
3.3901741052
 30
0.0
 11
5.8125431056
 21
3.3901741052
 31
0.0
  0
LINE
  5
32F
330
1F
100
AcDbEntity
  8
0
  6
Continuous
 62
     7
370
    15
100
AcDbLine
 10
5.8496427747
 20
3.3271741052
 30
0.0
 11
2.8436427747
 21
3.3271741052
 31
0.0
  0
LINE
  5
330
330
1F
100
AcDbEntity
  8
0
  6
Continuous
 62
     7
370
    15
100
AcDbLine
 10
2.8807424438
 20
3.3901741052
 30
0.0
 11
2.8447424438
 21
3.3901741052
 31
0.0
  0
LINE
  5
331
330
1F
100
AcDbEntity
  8
0
  6
Continuous
 62
     7
370
    15
100
AcDbLine
 10
2.8807424438
 20
3.3901741052
 30
0.0
 11
2.8807424438
 21
3.4031741052
 31
0.0
  0
LINE
  5
332
330
1F
100
AcDbEntity
  8
0
  6
Continuous
 62
     7
370
    15
100
AcDbLine
 10
5.8125431056
 20
3.4031741052
 30
0.0
 11
5.8125431056
 21
3.3901741052
 31
0.0
  0
LINE
  5
333
330
1F
100
AcDbEntity
  8
0
  6
Continuous
 62
     7
370
    15
100
AcDbLine
 10
2.8447424438
 20
3.3901741052
 30
0.0
 11
2.8436427747
 21
3.3271741052
 31
0.0
  0
LINE
  5
334
330
1F
100
AcDbEntity
  8
0
  6
Continuous
 62
     7
370
    15
100
AcDbLine
 10
5.8496427747
 20
3.3271741052
 30
0.0
 11
5.8485431056
 21
3.3901741052
 31
0.0
  0
LINE
  5
335
330
1F
100
AcDbEntity
  8
0
  6
Continuous
 62
     7
370
    15
100
AcDbLine
 10
5.8125431056
 20
3.4031741052
 30
0.0
 11
2.8807424438
 21
3.4031741052
 31
0.0
  0
LINE
  5
336
330
1F
100
AcDbEntity
  8
0
  6
Continuous
 62
     7
370
    15
100
AcDbLine
 10
5.6591427747
 20
3.4991741052
 30
0.0
 11
5.5191427747
 21
3.4991741052
 31
0.0
  0
LINE
  5
337
330
1F
100
AcDbEntity
  8
0
  6
Continuous
 62
     7
370
    15
100
AcDbLine
 10
5.7991427747
 20
3.4991741052
 30
0.0
 11
5.6591427747
 21
3.4991741052
 31
0.0
  0
LINE
  5
338
330
1F
100
AcDbEntity
  8
0
  6
Continuous
 62
     7
370
    15
100
AcDbLine
 10
3.0341427747
 20
3.4991741052
 30
0.0
 11
3.1741427747
 21
3.4991741052
 31
0.0
  0
LINE
  5
339
330
1F
100
AcDbEntity
  8
0
  6
Continuous
 62
     7
370
    15
100
AcDbLine
 10
2.8941427747
 20
3.4991741052
 30
0.0
 11
3.0341427747
 21
3.4991741052
 31
0.0
  0
ARC
  5
33A
330
1F
100
AcDbEntity
  8
0
  6
Continuous
 62
     7
370
    15
100
AcDbCircle
 10
4.3466427747
 20
3.4841741052
 30
0.0
 40
0.125
100
AcDbArc
 50
0.0
 51
180.0
  0
LINE
  5
33B
330
1F
100
AcDbEntity
  8
0
  6
Continuous
 62
     7
370
    15
100
AcDbLine
 10
4.2216427747
 20
3.4031741052
 30
0.0
 11
4.2216427747
 21
3.4841741052
 31
0.0
  0
LINE
  5
33C
330
1F
100
AcDbEntity
  8
0
  6
Continuous
 62
     7
370
    15
100
AcDbLine
 10
4.4716427747
 20
3.4841741052
 30
0.0
 11
4.4716427747
 21
3.4031741052
 31
0.0
  0
LINE
  5
33D
330
1F
100
AcDbEntity
  8
0
  6
Continuous
 62
     7
370
    15
100
AcDbLine
 10
3.0729073813
 20
3.4996741052
 30
0.0
 11
3.0715758485
 21
3.4991741052
 31
0.0
  0
LINE
  5
33E
330
1F
100
AcDbEntity
  8
0
  6
Continuous
 62
     7
370
    15
100
AcDbLine
 10
5.6979073813
 20
3.4996741052
 30
0.0
 11
5.6965758485
 21
3.4991741052
 31
0.0
  0
ARC
  5
33F
330
1F
100
AcDbEntity
  8
0
  6
Continuous
 62
     7
370
    15
100
AcDbCircle
 10
3.9181349367
 20
3.918779017
 30
0.0
 40
0.8874904941333412
100
AcDbArc
 50
166.4168199852
 51
171.2416216353
  0
LWPOLYLINE
  5
340
330
1F
100
AcDbEntity
  8
0
  6
Continuous
 62
     7
370
    15
100
AcDbPolyline
 90
        3
 70
   128
 43
0.0
 10
3.2794871464
 20
4.0878528728
 10
3.2035777751
 20
4.0687730561
 10
3.1361798837
 20
4.0482224647
  0
LWPOLYLINE
  5
341
330
1F
100
AcDbEntity
  8
0
  6
Continuous
 62
     7
370
    15
100
AcDbPolyline
 90
        3
 70
   128
 43
0.0
 10
5.4137998705
 20
4.0878557496
 10
5.4928421239
 20
4.0678980932
 10
5.5571056265
 20
4.0482269567
  0
LINE
  5
342
330
1F
100
AcDbEntity
  8
0
  6
Continuous
 62
     7
370
    15
100
AcDbLine
 10
2.87104336
 20
3.9753513736
 30
0.0
 11
2.8708469604
 21
3.9743403378
 31
0.0
  0
LINE
  5
343
330
1F
100
AcDbEntity
  8
0
  6
Continuous
 62
     7
370
    15
100
AcDbLine
 10
4.3466427747
 20
3.6670698909
 30
0.0
 11
3.1328536156
 21
3.6670698909
 31
0.0
  0
LINE
  5
344
330
1F
100
AcDbEntity
  8
0
  6
Continuous
 62
     7
370
    15
100
AcDbLine
 10
5.5604319338
 20
3.6670698909
 30
0.0
 11
4.3466427747
 21
3.6670698909
 31
0.0
  0
LINE
  5
345
330
1F
100
AcDbEntity
  8
0
  6
Continuous
 62
     7
370
    15
100
AcDbLine
 10
3.1536129172
 20
3.9677410602
 30
0.0
 11
3.1354181688
 21
3.9609385807
 31
0.0
  0
LINE
  5
346
330
1F
100
AcDbEntity
  8
0
  6
Continuous
 62
     7
370
    15
100
AcDbLine
 10
5.5578653952
 20
3.9611660856
 30
0.0
 11
5.5397096234
 21
3.9676635145
 31
0.0
  0
LWPOLYLINE
  5
347
330
1F
100
AcDbEntity
  8
0
  6
Continuous
 62
     7
370
    15
100
AcDbPolyline
 90
        3
 70
   128
 43
0.0
 10
5.7648615109
 20
3.4991741052
 10
5.7624258344
 20
3.5157351854
 10
5.7547164542
 20
3.5621741052
  0
LWPOLYLINE
  5
348
330
1F
100
AcDbEntity
  8
0
  6
Continuous
 62
     7
370
    15
100
AcDbPolyline
 90
        3
 70
   128
 43
0.0
 10
2.9384175934
 20
3.5621741052
 10
2.9293206551
 20
3.5061128338
 10
2.928336665
 20
3.4991741052
  0
LINE
  5
349
330
1F
100
AcDbEntity
  8
0
  6
Continuous
 62
     7
370
    15
100
AcDbLine
 10
5.7846427747
 20
3.3196741052
 30
0.0
 11
5.7846427747
 21
3.3271741052
 31
0.0
  0
LINE
  5
34A
330
1F
100
AcDbEntity
  8
0
  6
Continuous
 62
     7
370
    15
100
AcDbLine
 10
2.9086427747
 20
3.3271741052
 30
0.0
 11
2.9086427747
 21
3.3196741052
 31
0.0
  0
HATCH
  5
34B
330
1F
100
AcDbEntity
  8
0
  6
Continuous
 62
     7
370
     0
100
AcDbHatch
 10
0.0
 20
0.0
 30
0.0
210
0.0
220
0.0
230
1.0
  2
ANSI31
 70
     0
 71
     0
 91
        1
 92
        0
 93
       18
 72
     4
 94
        3
 73
     1
 74
     0
 95
        8
 96
        4
 40
0.0
 40
0.0
 40
0.0
 40
0.0
 40
0.6559587516329445
 40
0.6559587516329445
 40
0.6559587516329445
 40
0.6559587516329445
 10
5.662643754207357
 20
4.197619538783076
 42
1.0
 10
5.365224779612612
 20
4.317567078593895
 42
1.0
 10
4.850217635872663
 20
4.319674105204014
 42
1.0
 10
4.346642774684216
 20
4.319674105204014
 42
1.0
 72
     4
 94
        3
 73
     1
 74
     0
 95
        8
 96
        4
 40
0.0
 40
0.0
 40
0.0
 40
0.0
 40
0.6559587516329449
 40
0.6559587516329449
 40
0.6559587516329449
 40
0.6559587516329449
 10
4.346642774684216
 20
4.319674105204014
 42
1.0
 10
3.843067913495768
 20
4.319674105204014
 42
1.0
 10
3.328060769755818
 20
4.317567078593895
 42
1.0
 10
3.030641795161074
 20
4.197619538783076
 42
1.0
 72
     4
 94
        3
 73
     1
 74
     0
 95
       10
 96
        6
 40
0.0
 40
0.0
 40
0.0
 40
0.0
 40
0.3333333333333333
 40
0.6666666666666667
 40
0.9999999994851045
 40
0.9999999994851045
 40
0.9999999994851045
 40
0.9999999994851045
 10
3.030641795161075
 20
4.197619538783076
 42
1.0
 10
3.002978839648129
 20
4.186463211375939
 42
1.0
 10
2.948509788691188
 20
4.162025907373524
 42
1.0
 10
2.897699213246658
 20
4.097965910826201
 42
1.0
 10
2.885360186098044
 20
4.044683324805935
 42
1.0
 10
2.87965347589673
 20
4.017943262961786
 42
1.0
 72
     4
 94
        3
 73
     1
 74
     0
 95
        8
 96
        4
 40
0.7870327357612135
 40
0.7870327357612135
 40
0.7870327357612135
 40
0.7870327357612135
 40
1.0
 40
1.0
 40
1.0
 40
1.0
 10
2.879653475923175
 20
4.017943263085701
 42
1.0
 10
2.843596765413621
 20
3.848991514248978
 42
1.0
 10
2.818730934962398
 20
3.62295495702997
 42
1.0
 10
2.803642774684215
 20
3.319674105204012
 42
1.0
 72
     1
 10
2.803642774684215
 20
3.319674105204012
 11
2.841096667208958
 21
3.319674105204014
 72
     1
 10
2.841096667208958
 20
3.319674105204014
 11
2.842942774681902
 21
3.390174105204074
 72
     1
 10
2.842942774681902
 20
3.390174105204074
 11
2.877520935574359
 21
3.390174105204014
 72
     4
 94
        3
 73
     1
 74
     0
 95
       10
 96
        6
 40
0.0
 40
0.0
 40
0.0
 40
0.0
 40
0.4940700527331537
 40
0.4940700527331537
 40
0.9881411893500092
 40
0.9881411893500092
 40
0.9881411893500092
 40
0.9881411893500092
 10
2.877520935574358
 20
3.390174105204014
 42
1.0
 10
2.885128002433988
 20
3.522223271058462
 42
1.0
 10
2.894779924725382
 20
3.638169900967796
 42
1.0
 10
2.918302868157371
 20
3.841405065701106
 42
1.0
 10
2.932183032056471
 20
3.92869325068382
 42
1.0
 10
2.948111851362952
 20
4.00333327021329
 42
1.0
 72
     4
 94
        3
 73
     1
 74
     0
 95
       17
 96
       13
 40
0.0
 40
0.0
 40
0.0
 40
0.0
 40
0.0015164262274819
 40
0.0015164262274819
 40
0.0015164262274819
 40
0.0024178438842046
 40
0.0024178438842046
 40
0.0024178438842046
 40
0.0033184641335366
 40
0.0033184641335366
 40
0.0033184641335366
 40
0.0045807175471135
 40
0.0045807175471135
 40
0.0045807175471135
 40
0.0045807175471135
 10
2.948111843961159
 20
4.003333271792894
 42
1.0
 10
2.95226538235482
 20
4.022795601156132
 42
1.0
 10
2.956342532147369
 20
4.042551896137974
 42
1.0
 10
2.964259819922206
 20
4.060809790313404
 42
1.0
 10
2.968943501597458
 20
4.071610732101822
 42
1.0
 10
2.975464390195236
 20
4.08182323409215
 42
1.0
 10
2.983499615028613
 20
4.090427441169444
 42
1.0
 10
2.99153696319041
 20
4.09903392193015
 42
1.0
 10
3.001351789375682
 20
4.1060374230148
 42
1.0
 10
3.011600095295582
 20
4.111837655969647
 42
1.0
 10
3.026047814961009
 20
4.1200146308161
 42
1.0
 10
3.041427170111087
 20
4.12649095656497
 42
1.0
 10
3.056823433831488
 20
4.132700190384221
 42
1.0
 72
     4
 94
        3
 73
     1
 74
     0
 95
       20
 96
       16
 40
0.0
 40
0.0
 40
0.0
 40
0.0
 40
0.0676973642229823
 40
0.0676973642229823
 40
0.0676973642229823
 40
0.1517347005015983
 40
0.1517347005015983
 40
0.1517347005015983
 40
0.3198093730588302
 40
0.3198093730588302
 40
0.3198093730588302
 40
0.4878840456160621
 40
0.4878840456160621
 40
0.4878840456160621
 40
0.6559587181732941
 40
0.6559587181732941
 40
0.6559587181732941
 40
0.6559587181732941
 10
3.056823433831488
 20
4.132700190384221
 42
1.0
 10
3.084864015050655
 20
4.144004121632568
 42
1.0
 10
3.115563960283873
 20
4.154381349043099
 42
1.0
 10
3.148610722498337
 20
4.163798507298204
 42
1.0
 10
3.189633913002313
 20
4.17548866546251
 42
1.0
 10
3.234267257518422
 20
4.185706175806558
 42
1.0
 10
3.281905897706292
 20
4.194549545725495
 42
1.0
 10
3.377183178082031
 20
4.21223628556337
 42
1.0
 10
3.484448999255114
 20
4.224405382280424
 42
1.0
 10
3.599271982569428
 20
4.232617535779613
 42
1.0
 10
3.714094965883743
 20
4.240829689278802
 42
1.0
 10
3.836492570420682
 20
4.245113322835501
 42
1.0
 10
3.962382982762036
 20
4.247323024144269
 42
1.0
 10
4.088273395103389
 20
4.249532725453038
 42
1.0
 10
4.217663076691295
 20
4.249674105204014
 42
1.0
 10
4.346642774684216
 20
4.249674105204014
 42
1.0
 72
     4
 94
        3
 73
     1
 74
     0
 95
       20
 96
       16
 40
-0.0000002482596449
 40
-0.0000002482596449
 40
-0.0000002482596449
 40
-0.0000002482596449
 40
0.1650673532837094
 40
0.1650673532837094
 40
0.1650673532837094
 40
0.3341444656495428
 40
0.3341444656495428
 40
0.3341444656495428
 40
0.503221578015376
 40
0.503221578015376
 40
0.503221578015376
 40
0.5877601341982928
 40
0.5877601341982928
 40
0.5877601341982928
 40
0.6559587161404565
 40
0.6559587161404565
 40
0.6559587161404565
 40
0.6559587161404565
 10
4.346642774677507
 20
4.249673934953372
 42
1.0
 10
4.473378998978179
 20
4.249668900150996
 42
1.0
 10
4.600381429869016
 20
4.24953786536567
 42
1.0
 10
4.724141637792649
 20
4.24743966493204
 42
1.0
 10
4.850907995247884
 20
4.245290498971149
 42
1.0
 10
4.974211833181756
 20
4.241077139356483
 42
1.0
 10
5.089901332321666
 20
4.232909743139621
 42
1.0
 10
5.205590831461574
 20
4.224742346922759
 42
1.0
 10
5.313683847766447
 20
4.212592152862282
 42
1.0
 10
5.409673595605663
 20
4.194865427569185
 42
1.0
 10
5.457668469525272
 20
4.186002064922637
 42
1.0
 10
5.502629235858055
 20
4.17574985123274
 42
1.0
 10
5.543940423710838
 20
4.164007520320125
 42
1.0
 10
5.577266808228339
 20
4.154534797421908
 42
1.0
 10
5.608213913352555
 20
4.144087761144468
 42
1.0
 10
5.636461576415979
 20
4.132698853214102
 42
1.0
 72
     4
 94
        3
 73
     1
 74
     0
 95
       17
 96
       13
 40
0.0
 40
0.0
 40
0.0
 40
0.0
 40
0.001254768672344
 40
0.001254768672344
 40
0.001254768672344
 40
0.0022119153113475
 40
0.0022119153113475
 40
0.0022119153113475
 40
0.0031765461357981
 40
0.0031765461357981
 40
0.0031765461357981
 40
0.0045901233296559
 40
0.0045901233296559
 40
0.0045901233296559
 40
0.0045901233296559
 10
5.636461576415979
 20
4.132698853214102
 42
1.0
 10
5.651733724948243
 20
4.126541229005468
 42
1.0
 10
5.666985405472141
 20
4.120117254890091
 42
1.0
 10
5.681333135900618
 20
4.112036568605625
 42
1.0
 10
5.692199194922161
 20
4.105916770457808
 42
1.0
 10
5.702589559202118
 20
4.098427684642543
 42
1.0
 10
5.710942414595183
 20
4.089167394430451
 42
1.0
 10
5.719351516592725
 20
4.079844747113349
 42
1.0
 10
5.72595389855492
 20
4.068701475278087
 42
1.0
 10
5.730592648265418
 20
4.057034995495072
 42
1.0
 10
5.737445980497539
 20
4.039798829087696
 42
1.0
 10
5.74130233288246
 20
4.021473450123901
 42
1.0
 10
5.745173705407272
 20
4.003333271792894
 42
1.0
 72
     4
 94
        3
 73
     1
 74
     0
 95
       10
 96
        6
 40
0.0
 40
0.0
 40
0.0
 40
0.0
 40
0.4940711366168546
 40
0.4940711366168546
 40
0.9881411745534869
 40
0.9881411745534869
 40
0.9881411745534869
 40
0.9881411745534869
 10
5.74517369800548
 20
4.003333270213289
 42
1.0
 10
5.761102517550461
 20
3.928693249566158
 42
1.0
 10
5.774982681626259
 20
3.841405063087197
 42
1.0
 10
5.798505624932322
 20
3.638169897495162
 42
1.0
 10
5.808157547048014
 20
3.522223269081543
 42
1.0
 10
5.815764613794062
 20
3.390174105204014
 42
1.0
 72
     1
 10
5.815764613794062
 20
3.390174105204014
 11
5.850342774686529
 21
3.390174105204074
 72
     1
 10
5.850342774686529
 20
3.390174105204074
 11
5.852188882159473
 21
3.319674105204014
 72
     1
 10
5.852188882159473
 20
3.319674105204014
 11
5.889642774684217
 21
3.319674105204014
 72
     4
 94
        3
 73
     1
 74
     0
 95
        8
 96
        4
 40
0.0
 40
0.0
 40
0.0
 40
0.0
 40
0.2129672641867209
 40
0.2129672641867209
 40
0.2129672641867209
 40
0.2129672641867209
 10
5.889642774684217
 20
3.319674105204012
 42
1.0
 10
5.874554614409721
 20
3.622954956955825
 42
1.0
 10
5.849688783966969
 20
3.848991514138456
 42
1.0
 10
5.813632073471702
 20
4.017943262961786
 42
1.0
 72
     4
 94
        3
 73
     1
 74
     0
 95
       10
 96
        6
 40
0.0
 40
0.0
 40
0.0
 40
0.0
 40
0.3333333333333333
 40
0.6666666666666667
 40
1.0
 40
1.0
 40
1.0
 40
1.0
 10
5.813632073471702
 20
4.017943262961786
 42
1.0
 10
5.807925363270387
 20
4.044683324805935
 42
1.0
 10
5.795586336121773
 20
4.097965910826201
 42
1.0
 10
5.744775760677244
 20
4.162025907373523
 42
1.0
 10
5.690306709720303
 20
4.186463211375939
 42
1.0
 10
5.662643754207357
 20
4.197619538783076
 42
1.0
 97
        0
 75
     0
 76
     1
 52
0.0
 41
1.0
 77
     0
 78
     1
 53
45.0
 43
0.0
 44
0.0
 45
-0.0883883476483184
 46
0.0883883476483184
 79
     0
 98
        1
 10
0.0
 20
0.0
  0
HATCH
  5
34C
330
1F
100
AcDbEntity
  8
0
  6
Continuous
 62
     7
370
     0
100
AcDbHatch
 10
0.0
 20
0.0
 30
0.0
210
0.0
220
0.0
230
1.0
  2
ANSI31
 70
     0
 71
     0
 91
        1
 92
        0
 93
        8
 72
     1
 10
5.812543105593737
 20
3.390174105204014
 11
5.812543105593737
 21
3.403174105204013
 72
     1
 10
5.812543105593737
 20
3.403174105204013
 11
2.880742443774693
 21
3.403174105204013
 72
     1
 10
2.880742443774693
 20
3.403174105204013
 11
2.880742443774693
 21
3.390174105204014
 72
     1
 10
2.880742443774693
 20
3.390174105204014
 11
2.844742443774693
 21
3.390174105204014
 72
     1
 10
2.844742443774693
 20
3.390174105204014
 11
2.843642774684216
 21
3.327174105204013
 72
     1
 10
2.843642774684216
 20
3.327174105204013
 11
5.849642774684216
 21
3.327174105204013
 72
     1
 10
5.849642774684216
 20
3.327174105204013
 11
5.848543105593738
 21
3.390174105204014
 72
     1
 10
5.848543105593738
 20
3.390174105204014
 11
5.812543105593737
 21
3.390174105204014
 97
        0
 75
     0
 76
     1
 52
0.0
 41
1.0
 77
     0
 78
     1
 53
45.0
 43
0.0
 44
0.0
 45
-0.0883883476483184
 46
0.0883883476483184
 79
     0
 98
        1
 10
0.0
 20
0.0
  0
DIMENSION
  5
34D
330
1F
100
AcDbEntity
  8
0
  6
Continuous
 62
     7
370
     0
100
AcDbDimension
  2
*D7
 10
7.3657097511
 20
3.3196741052
 30
0.0
 11
7.3657097511
 21
3.8368109499
 31
0.0
 70
   160
 71
     2
 42
-1.0
  3
SLDDIMSTYLE1
100
AcDbAlignedDimension
 13
4.3466427747
 23
4.3196741052
 33
0.0
 14
5.8896427747
 24
3.3196741052
 34
0.0
 50
90.0
100
AcDbRotatedDimension
  0
DIMENSION
  5
360
330
1F
100
AcDbEntity
  8
0
  6
Continuous
 62
     7
370
     0
100
AcDbDimension
  2
*D8
 10
6.640063687
 20
4.2496740204
 30
0.0
 11
6.640063687
 21
3.8368109499
 31
0.0
 70
   160
 71
     2
 42
-1.0
  3
SLDDIMSTYLE2
100
AcDbAlignedDimension
 13
5.8125431056
 23
3.4031741052
 33
0.0
 14
4.3466427728
 24
4.2496740204
 34
0.0
 50
90.0
100
AcDbRotatedDimension
  0
INSERT
  5
378
330
1F
100
AcDbEntity
  8
0
  6
Continuous
 62
     7
370
     0
100
AcDbBlockReference
  2
SW_NOTE_4
 10
3.9571172806
 20
2.3590563814
 30
0.0
  0
ARC
  5
379
330
1F
100
AcDbEntity
  8
0
  6
Continuous
 62
     7
370
    15
100
AcDbCircle
 10
12.0329755294
 20
7.7566466866
 30
0.0
 40
0.2771879076571657
100
AcDbArc
 50
148.3659264689
 51
171.4563041898
  0
ARC
  5
37A
330
1F
100
AcDbEntity
  8
0
  6
Continuous
 62
     7
370
    15
100
AcDbCircle
 10
14.2628446647
 20
6.2761593878
 30
0.0
 40
2.954119587273963
100
AcDbArc
 50
133.212502974
 51
146.5049662664
  0
ARC
  5
37B
330
1F
100
AcDbEntity
  8
0
  6
Continuous
 62
     7
370
    15
100
AcDbCircle
 10
15.2722231123
 20
7.0177200628
 30
0.0
 40
3.598981606380743
100
AcDbArc
 50
167.501407538
 51
175.275634543
  0
LWPOLYLINE
  5
37C
330
1F
100
AcDbEntity
  8
0
  6
Continuous
 62
     7
370
    15
100
AcDbPolyline
 90
       14
 70
   128
 43
0.0
 10
15.2397110446
 20
7.9369258246
 10
15.2352346894
 20
7.9552168222
 10
15.2221006523
 20
7.9977237325
 10
15.2052510403
 20
8.0318923286
 10
15.1852217177
 20
8.0582339947
 10
15.1565428745
 20
8.0848842086
 10
15.1260783967
 20
8.1072631641
 10
15.0949335704
 20
8.1272556258
 10
15.0636988006
 20
8.1454250269
 10
15.0307339456
 20
8.1629477023
 10
14.9883179764
 20
8.1836348258
 10
14.935420078
 20
8.2076983872
 10
14.8717048147
 20
8.2348182743
 10
14.8666563143
 20
8.2367149403
  0
ARC
  5
37D
330
1F
100
AcDbEntity
  8
0
  6
Continuous
 62
     7
370
    15
100
AcDbCircle
 10
12.2242187527
 20
7.2137578392
 30
0.0
 40
3.10126617135246
100
AcDbArc
 50
4.8366071542
 51
13.4204511212
  0
LWPOLYLINE
  5
37E
330
1F
100
AcDbEntity
  8
0
  6
Continuous
 62
     7
370
    15
100
AcDbPolyline
 90
       11
 70
   128
 43
0.0
 10
12.6739398955
 20
8.7445649042
 10
12.6215267824
 20
8.7255128923
 10
12.5757006646
 20
8.7030087281
 10
12.535853817
 20
8.6793705396
 10
12.5016910239
 20
8.6564058865
 10
12.4729291505
 20
8.6353791514
 10
12.4432308352
 20
8.6122784138
 10
12.4024481158
 20
8.578627729
 10
12.3551345421
 20
8.537262499
 10
12.3010688372
 20
8.4875803862
 10
12.2401015642
 20
8.4291401694
  0
LINE
  5
37F
330
1F
100
AcDbEntity
  8
0
  6
Continuous
 62
     7
370
    15
100
AcDbLine
 10
12.7213781789
 20
8.7545138158
 30
0.0
 11
12.6999123365
 21
8.7500619912
 31
0.0
  0
ARC
  5
380
330
1F
100
AcDbEntity
  8
0
  6
Continuous
 62
     7
370
    15
100
AcDbCircle
 10
12.8420194174
 20
8.050837472
 30
0.0
 40
0.714037430268091
100
AcDbArc
 50
79.1631131978
 51
99.521127375
  0
LINE
  5
381
330
1F
100
AcDbEntity
  8
0
  6
Continuous
 62
     7
370
    15
100
AcDbLine
 10
14.3084106057
 20
5.4730099718
 30
0.0
 11
14.3046808135
 21
5.4755655507
 31
0.0
  0
LINE
  5
382
330
1F
100
AcDbEntity
  8
0
  6
Continuous
 62
     7
370
    15
100
AcDbLine
 10
14.2583182924
 20
5.4755655507
 30
0.0
 11
14.2490645001
 21
5.4692250377
 31
0.0
  0
LINE
  5
383
330
1F
100
AcDbEntity
  8
0
  6
Continuous
 62
     7
370
    15
100
AcDbLine
 10
14.3364995529
 20
5.3939778892
 30
0.0
 11
14.3364995529
 21
5.3984415879
 31
0.0
  0
LINE
  5
384
330
1F
100
AcDbEntity
  8
0
  6
Continuous
 62
     7
370
    15
100
AcDbLine
 10
14.3364995529
 20
5.3225587097
 30
0.0
 11
14.3364995529
 21
5.3270224084
 31
0.0
  0
LINE
  5
385
330
1F
100
AcDbEntity
  8
0
  6
Continuous
 62
     7
370
    15
100
AcDbLine
 10
14.3364995529
 20
5.2511395302
 30
0.0
 11
14.3364995529
 21
5.2556032289
 31
0.0
  0
LINE
  5
386
330
1F
100
AcDbEntity
  8
0
  6
Continuous
 62
     7
370
    15
100
AcDbLine
 10
14.3364995529
 20
5.1797203507
 30
0.0
 11
14.3364995529
 21
5.1841840494
 31
0.0
  0
LINE
  5
387
330
1F
100
AcDbEntity
  8
0
  6
Continuous
 62
     7
370
    15
100
AcDbLine
 10
14.3364995529
 20
5.1271527828
 30
0.0
 11
14.3364995529
 21
5.1280099501
 31
0.0
  0
LINE
  5
388
330
1F
100
AcDbEntity
  8
0
  6
Continuous
 62
     7
370
    15
100
AcDbLine
 10
14.2264995529
 20
5.1280099501
 30
0.0
 11
14.2264995529
 21
5.1271527828
 31
0.0
  0
LINE
  5
389
330
1F
100
AcDbEntity
  8
0
  6
Continuous
 62
     7
370
    15
100
AcDbLine
 10
14.2264995529
 20
5.1484744597
 30
0.0
 11
14.2264995529
 21
5.1440107609
 31
0.0
  0
LINE
  5
38A
330
1F
100
AcDbEntity
  8
0
  6
Continuous
 62
     7
370
    15
100
AcDbLine
 10
14.2264995529
 20
5.2198936392
 30
0.0
 11
14.2264995529
 21
5.2154299404
 31
0.0
  0
LINE
  5
38B
330
1F
100
AcDbEntity
  8
0
  6
Continuous
 62
     7
370
    15
100
AcDbLine
 10
14.2264995529
 20
5.2913128186
 30
0.0
 11
14.2264995529
 21
5.2868491199
 31
0.0
  0
LINE
  5
38C
330
1F
100
AcDbEntity
  8
0
  6
Continuous
 62
     7
370
    15
100
AcDbLine
 10
14.2264995529
 20
5.3627319981
 30
0.0
 11
14.2264995529
 21
5.3582682994
 31
0.0
  0
LINE
  5
38D
330
1F
100
AcDbEntity
  8
0
  6
Continuous
 62
     7
370
    15
100
AcDbLine
 10
14.2264995529
 20
5.4341569072
 30
0.0
 11
14.2264995529
 21
5.4296874789
 31
0.0
  0
LWPOLYLINE
  5
38E
330
1F
100
AcDbEntity
  8
0
  6
Continuous
 62
     7
370
    15
100
AcDbPolyline
 90
        3
 70
   128
 43
0.0
 10
14.2500164493
 20
5.1729005198
 10
14.2498692944
 20
5.1728888579
 10
14.2513572879
 20
5.1723444466
  0
LINE
  5
38F
330
1F
100
AcDbEntity
  8
0
  6
Continuous
 62
     7
370
    15
100
AcDbLine
 10
14.3244995529
 20
5.4295273679
 30
0.0
 11
14.3244995529
 21
5.4339557404
 31
0.0
  0
LINE
  5
390
330
1F
100
AcDbEntity
  8
0
  6
Continuous
 62
     7
370
    15
100
AcDbLine
 10
14.3244995529
 20
5.3581081884
 30
0.0
 11
14.3244995529
 21
5.3625365609
 31
0.0
  0
LINE
  5
391
330
1F
100
AcDbEntity
  8
0
  6
Continuous
 62
     7
370
    15
100
AcDbLine
 10
14.3244995529
 20
5.2866890089
 30
0.0
 11
14.3244995529
 21
5.2911173815
 31
0.0
  0
LINE
  5
392
330
1F
100
AcDbEntity
  8
0
  6
Continuous
 62
     7
370
    15
100
AcDbLine
 10
14.3244995529
 20
5.2152698294
 30
0.0
 11
14.3244995529
 21
5.219698202
 31
0.0
  0
LINE
  5
393
330
1F
100
AcDbEntity
  8
0
  6
Continuous
 62
     7
370
    15
100
AcDbLine
 10
14.3244995529
 20
5.1438521576
 30
0.0
 11
14.3244995529
 21
5.1482790225
 31
0.0
  0
LINE
  5
394
330
1F
100
AcDbEntity
  8
0
  6
Continuous
 62
     7
370
    15
100
AcDbLine
 10
14.2384995529
 20
5.1839886122
 30
0.0
 11
14.2384995529
 21
5.1795602397
 31
0.0
  0
LINE
  5
395
330
1F
100
AcDbEntity
  8
0
  6
Continuous
 62
     7
370
    15
100
AcDbLine
 10
14.2384995529
 20
5.2554077917
 30
0.0
 11
14.2384995529
 21
5.2509794192
 31
0.0
  0
LINE
  5
396
330
1F
100
AcDbEntity
  8
0
  6
Continuous
 62
     7
370
    15
100
AcDbLine
 10
14.2384995529
 20
5.3268269712
 30
0.0
 11
14.2384995529
 21
5.3223985987
 31
0.0
  0
LINE
  5
397
330
1F
100
AcDbEntity
  8
0
  6
Continuous
 62
     7
370
    15
100
AcDbLine
 10
14.2384995529
 20
5.3982461507
 30
0.0
 11
14.2384995529
 21
5.3938177782
 31
0.0
  0
LINE
  5
398
330
1F
100
AcDbEntity
  8
0
  6
Continuous
 62
     7
370
    15
100
AcDbLine
 10
14.2489995529
 20
5.2043154653
 30
0.0
 11
14.2489995529
 21
5.1892141104
 31
0.0
  0
LINE
  5
399
330
1F
100
AcDbEntity
  8
0
  6
Continuous
 62
     7
370
    15
100
AcDbLine
 10
14.2489995529
 20
5.2757346448
 30
0.0
 11
14.2489995529
 21
5.2606332899
 31
0.0
  0
LINE
  5
39A
330
1F
100
AcDbEntity
  8
0
  6
Continuous
 62
     7
370
    15
100
AcDbLine
 10
14.2489995529
 20
5.3471538242
 30
0.0
 11
14.2489995529
 21
5.3320524694
 31
0.0
  0
LINE
  5
39B
330
1F
100
AcDbEntity
  8
0
  6
Continuous
 62
     7
370
    15
100
AcDbLine
 10
14.2489995529
 20
5.4185730037
 30
0.0
 11
14.2489995529
 21
5.4034716489
 31
0.0
  0
LINE
  5
39C
330
1F
100
AcDbEntity
  8
0
  6
Continuous
 62
     7
370
    15
100
AcDbLine
 10
14.2489995529
 20
5.1743666651
 30
0.0
 11
14.2489995529
 21
5.1596389866
 31
0.0
  0
LINE
  5
39D
330
1F
100
AcDbEntity
  8
0
  6
Continuous
 62
     7
370
    15
100
AcDbLine
 10
14.2489995529
 20
5.2457858446
 30
0.0
 11
14.2489995529
 21
5.2310581661
 31
0.0
  0
LINE
  5
39E
330
1F
100
AcDbEntity
  8
0
  6
Continuous
 62
     7
370
    15
100
AcDbLine
 10
14.2489995529
 20
5.3172050241
 30
0.0
 11
14.2489995529
 21
5.3024773456
 31
0.0
  0
LINE
  5
39F
330
1F
100
AcDbEntity
  8
0
  6
Continuous
 62
     7
370
    15
100
AcDbLine
 10
14.2489995529
 20
5.3886242036
 30
0.0
 11
14.2489995529
 21
5.3738965251
 31
0.0
  0
LINE
  5
3A0
330
1F
100
AcDbEntity
  8
0
  6
Continuous
 62
     7
370
    15
100
AcDbLine
 10
14.2489995529
 20
5.4600394515
 30
0.0
 11
14.2489995529
 21
5.4453157046
 31
0.0
  0
LINE
  5
3A1
330
1F
100
AcDbEntity
  8
0
  6
Continuous
 62
     7
370
    15
100
AcDbLine
 10
14.3718909958
 20
5.1053793815
 30
0.0
 11
14.3327468418
 21
5.1382941576
 31
0.0
  0
LINE
  5
3A2
330
1F
100
AcDbEntity
  8
0
  6
Continuous
 62
     7
370
    15
100
AcDbLine
 10
14.2302052467
 20
5.1382546226
 30
0.0
 11
14.1911081101
 21
5.1053793815
 31
0.0
  0
ARC
  5
3A3
330
1F
100
AcDbEntity
  8
0
  6
Continuous
 62
     7
370
    15
100
AcDbCircle
 10
14.2812202843
 20
5.1625641446
 30
0.0
 40
0.1455332249096364
100
AcDbArc
 50
234.3128817471
 51
305.7801042527
  0
LINE
  5
3A4
330
1F
100
AcDbEntity
  8
0
  6
Continuous
 62
     7
370
    15
100
AcDbLine
 10
11.9868130363
 20
6.011392265
 30
0.0
 11
11.9830832441
 21
6.0139478439
 31
0.0
  0
LINE
  5
3A5
330
1F
100
AcDbEntity
  8
0
  6
Continuous
 62
     7
370
    15
100
AcDbLine
 10
11.936720723
 20
6.0139478439
 30
0.0
 11
11.9274669307
 21
6.0076073309
 31
0.0
  0
LINE
  5
3A6
330
1F
100
AcDbEntity
  8
0
  6
Continuous
 62
     7
370
    15
100
AcDbLine
 10
12.0149019835
 20
5.9323601824
 30
0.0
 11
12.0149019835
 21
5.9368238811
 31
0.0
  0
LINE
  5
3A7
330
1F
100
AcDbEntity
  8
0
  6
Continuous
 62
     7
370
    15
100
AcDbLine
 10
12.0149019835
 20
5.8609410029
 30
0.0
 11
12.0149019835
 21
5.8654047016
 31
0.0
  0
LINE
  5
3A8
330
1F
100
AcDbEntity
  8
0
  6
Continuous
 62
     7
370
    15
100
AcDbLine
 10
12.0149019835
 20
5.7895218234
 30
0.0
 11
12.0149019835
 21
5.7939855221
 31
0.0
  0
LINE
  5
3A9
330
1F
100
AcDbEntity
  8
0
  6
Continuous
 62
     7
370
    15
100
AcDbLine
 10
12.0149019835
 20
5.7181026439
 30
0.0
 11
12.0149019835
 21
5.7225663426
 31
0.0
  0
LINE
  5
3AA
330
1F
100
AcDbEntity
  8
0
  6
Continuous
 62
     7
370
    15
100
AcDbLine
 10
12.0149019835
 20
5.665535076
 30
0.0
 11
12.0149019835
 21
5.6663922433
 31
0.0
  0
LINE
  5
3AB
330
1F
100
AcDbEntity
  8
0
  6
Continuous
 62
     7
370
    15
100
AcDbLine
 10
11.9049019835
 20
5.6663922433
 30
0.0
 11
11.9049019835
 21
5.665535076
 31
0.0
  0
LINE
  5
3AC
330
1F
100
AcDbEntity
  8
0
  6
Continuous
 62
     7
370
    15
100
AcDbLine
 10
11.9049019835
 20
5.6868567528
 30
0.0
 11
11.9049019835
 21
5.6823930541
 31
0.0
  0
LINE
  5
3AD
330
1F
100
AcDbEntity
  8
0
  6
Continuous
 62
     7
370
    15
100
AcDbLine
 10
11.9049019835
 20
5.7582759323
 30
0.0
 11
11.9049019835
 21
5.7538122336
 31
0.0
  0
LINE
  5
3AE
330
1F
100
AcDbEntity
  8
0
  6
Continuous
 62
     7
370
    15
100
AcDbLine
 10
11.9049019835
 20
5.8296951118
 30
0.0
 11
11.9049019835
 21
5.8252314131
 31
0.0
  0
LINE
  5
3AF
330
1F
100
AcDbEntity
  8
0
  6
Continuous
 62
     7
370
    15
100
AcDbLine
 10
11.9049019835
 20
5.9011142913
 30
0.0
 11
11.9049019835
 21
5.8966505926
 31
0.0
  0
LINE
  5
3B0
330
1F
100
AcDbEntity
  8
0
  6
Continuous
 62
     7
370
    15
100
AcDbLine
 10
11.9049019835
 20
5.9725392004
 30
0.0
 11
11.9049019835
 21
5.9680697721
 31
0.0
  0
LWPOLYLINE
  5
3B1
330
1F
100
AcDbEntity
  8
0
  6
Continuous
 62
     7
370
    15
100
AcDbPolyline
 90
        3
 70
   128
 43
0.0
 10
11.9284188799
 20
5.711282813
 10
11.928271725
 20
5.711271151
 10
11.9297597185
 20
5.7107267398
  0
LINE
  5
3B2
330
1F
100
AcDbEntity
  8
0
  6
Continuous
 62
     7
370
    15
100
AcDbLine
 10
12.0029019835
 20
5.9679096611
 30
0.0
 11
12.0029019835
 21
5.9723380336
 31
0.0
  0
LINE
  5
3B3
330
1F
100
AcDbEntity
  8
0
  6
Continuous
 62
     7
370
    15
100
AcDbLine
 10
12.0029019835
 20
5.8964904816
 30
0.0
 11
12.0029019835
 21
5.9009188541
 31
0.0
  0
LINE
  5
3B4
330
1F
100
AcDbEntity
  8
0
  6
Continuous
 62
     7
370
    15
100
AcDbLine
 10
12.0029019835
 20
5.8250713021
 30
0.0
 11
12.0029019835
 21
5.8294996746
 31
0.0
  0
LINE
  5
3B5
330
1F
100
AcDbEntity
  8
0
  6
Continuous
 62
     7
370
    15
100
AcDbLine
 10
12.0029019835
 20
5.7536521226
 30
0.0
 11
12.0029019835
 21
5.7580804951
 31
0.0
  0
LINE
  5
3B6
330
1F
100
AcDbEntity
  8
0
  6
Continuous
 62
     7
370
    15
100
AcDbLine
 10
12.0029019835
 20
5.6822344508
 30
0.0
 11
12.0029019835
 21
5.6866613156
 31
0.0
  0
LINE
  5
3B7
330
1F
100
AcDbEntity
  8
0
  6
Continuous
 62
     7
370
    15
100
AcDbLine
 10
11.9169019835
 20
5.7223709054
 30
0.0
 11
11.9169019835
 21
5.7179425329
 31
0.0
  0
LINE
  5
3B8
330
1F
100
AcDbEntity
  8
0
  6
Continuous
 62
     7
370
    15
100
AcDbLine
 10
11.9169019835
 20
5.7937900849
 30
0.0
 11
11.9169019835
 21
5.7893617124
 31
0.0
  0
LINE
  5
3B9
330
1F
100
AcDbEntity
  8
0
  6
Continuous
 62
     7
370
    15
100
AcDbLine
 10
11.9169019835
 20
5.8652092644
 30
0.0
 11
11.9169019835
 21
5.8607808918
 31
0.0
  0
LINE
  5
3BA
330
1F
100
AcDbEntity
  8
0
  6
Continuous
 62
     7
370
    15
100
AcDbLine
 10
11.9169019835
 20
5.9366284439
 30
0.0
 11
11.9169019835
 21
5.9322000713
 31
0.0
  0
LINE
  5
3BB
330
1F
100
AcDbEntity
  8
0
  6
Continuous
 62
     7
370
    15
100
AcDbLine
 10
11.9274019835
 20
5.7426977584
 30
0.0
 11
11.9274019835
 21
5.7275964036
 31
0.0
  0
LINE
  5
3BC
330
1F
100
AcDbEntity
  8
0
  6
Continuous
 62
     7
370
    15
100
AcDbLine
 10
11.9274019835
 20
5.8141169379
 30
0.0
 11
11.9274019835
 21
5.7990155831
 31
0.0
  0
LINE
  5
3BD
330
1F
100
AcDbEntity
  8
0
  6
Continuous
 62
     7
370
    15
100
AcDbLine
 10
11.9274019835
 20
5.8855361174
 30
0.0
 11
11.9274019835
 21
5.8704347626
 31
0.0
  0
LINE
  5
3BE
330
1F
100
AcDbEntity
  8
0
  6
Continuous
 62
     7
370
    15
100
AcDbLine
 10
11.9274019835
 20
5.9569552969
 30
0.0
 11
11.9274019835
 21
5.9418539421
 31
0.0
  0
LINE
  5
3BF
330
1F
100
AcDbEntity
  8
0
  6
Continuous
 62
     7
370
    15
100
AcDbLine
 10
11.9274019835
 20
5.7127489583
 30
0.0
 11
11.9274019835
 21
5.6980212798
 31
0.0
  0
LINE
  5
3C0
330
1F
100
AcDbEntity
  8
0
  6
Continuous
 62
     7
370
    15
100
AcDbLine
 10
11.9274019835
 20
5.7841681378
 30
0.0
 11
11.9274019835
 21
5.7694404593
 31
0.0
  0
LINE
  5
3C1
330
1F
100
AcDbEntity
  8
0
  6
Continuous
 62
     7
370
    15
100
AcDbLine
 10
11.9274019835
 20
5.8555873173
 30
0.0
 11
11.9274019835
 21
5.8408596388
 31
0.0
  0
LINE
  5
3C2
330
1F
100
AcDbEntity
  8
0
  6
Continuous
 62
     7
370
    15
100
AcDbLine
 10
11.9274019835
 20
5.9270064968
 30
0.0
 11
11.9274019835
 21
5.9122788183
 31
0.0
  0
LINE
  5
3C3
330
1F
100
AcDbEntity
  8
0
  6
Continuous
 62
     7
370
    15
100
AcDbLine
 10
11.9274019835
 20
5.9984217447
 30
0.0
 11
11.9274019835
 21
5.9836979978
 31
0.0
  0
LINE
  5
3C4
330
1F
100
AcDbEntity
  8
0
  6
Continuous
 62
     7
370
    15
100
AcDbLine
 10
12.0502934264
 20
5.6437616747
 30
0.0
 11
12.0111492724
 21
5.6766764508
 31
0.0
  0
LINE
  5
3C5
330
1F
100
AcDbEntity
  8
0
  6
Continuous
 62
     7
370
    15
100
AcDbLine
 10
11.9086076773
 20
5.6766369158
 30
0.0
 11
11.8695105407
 21
5.6437616747
 31
0.0
  0
ARC
  5
3C6
330
1F
100
AcDbEntity
  8
0
  6
Continuous
 62
     7
370
    15
100
AcDbCircle
 10
11.9596227149
 20
5.7009464378
 30
0.0
 40
0.1455332249096389
100
AcDbArc
 50
234.3128817471
 51
305.7801042527
  0
LINE
  5
3C7
330
1F
100
AcDbEntity
  8
0
  6
Continuous
 62
     7
370
    15
100
AcDbLine
 10
15.0667906127
 20
6.2242556256
 30
0.0
 11
15.0630608205
 21
6.2268112045
 31
0.0
  0
LINE
  5
3C8
330
1F
100
AcDbEntity
  8
0
  6
Continuous
 62
     7
370
    15
100
AcDbLine
 10
15.0948795599
 20
6.145223543
 30
0.0
 11
15.0948795599
 21
6.1496872417
 31
0.0
  0
LINE
  5
3C9
330
1F
100
AcDbEntity
  8
0
  6
Continuous
 62
     7
370
    15
100
AcDbLine
 10
15.0948795599
 20
6.0738043635
 30
0.0
 11
15.0948795599
 21
6.0782680622
 31
0.0
  0
LINE
  5
3CA
330
1F
100
AcDbEntity
  8
0
  6
Continuous
 62
     7
370
    15
100
AcDbLine
 10
15.0948795599
 20
6.002385184
 30
0.0
 11
15.0948795599
 21
6.0068488827
 31
0.0
  0
LINE
  5
3CB
330
1F
100
AcDbEntity
  8
0
  6
Continuous
 62
     7
370
    15
100
AcDbLine
 10
15.0948795599
 20
5.9309660045
 30
0.0
 11
15.0948795599
 21
5.9354297032
 31
0.0
  0
LINE
  5
3CC
330
1F
100
AcDbEntity
  8
0
  6
Continuous
 62
     7
370
    15
100
AcDbLine
 10
15.0948795599
 20
5.8783984366
 30
0.0
 11
15.0948795599
 21
5.8792556039
 31
0.0
  0
LINE
  5
3CD
330
1F
100
AcDbEntity
  8
0
  6
Continuous
 62
     7
370
    15
100
AcDbLine
 10
14.9848795599
 20
5.8792556039
 30
0.0
 11
14.9848795599
 21
5.8783984366
 31
0.0
  0
LINE
  5
3CE
330
1F
100
AcDbEntity
  8
0
  6
Continuous
 62
     7
370
    15
100
AcDbLine
 10
14.9848795599
 20
5.8997201135
 30
0.0
 11
14.9848795599
 21
5.8952564148
 31
0.0
  0
LINE
  5
3CF
330
1F
100
AcDbEntity
  8
0
  6
Continuous
 62
     7
370
    15
100
AcDbLine
 10
14.9848795599
 20
5.971139293
 30
0.0
 11
14.9848795599
 21
5.9666755943
 31
0.0
  0
LINE
  5
3D0
330
1F
100
AcDbEntity
  8
0
  6
Continuous
 62
     7
370
    15
100
AcDbLine
 10
14.9848795599
 20
6.0425584725
 30
0.0
 11
14.9848795599
 21
6.0380947738
 31
0.0
  0
LINE
  5
3D1
330
1F
100
AcDbEntity
  8
0
  6
Continuous
 62
     7
370
    15
100
AcDbLine
 10
14.9848795599
 20
6.113977652
 30
0.0
 11
14.9848795599
 21
6.1095139533
 31
0.0
  0
LINE
  5
3D2
330
1F
100
AcDbEntity
  8
0
  6
Continuous
 62
     7
370
    15
100
AcDbLine
 10
14.9848795599
 20
6.185402561
 30
0.0
 11
14.9848795599
 21
6.1809331327
 31
0.0
  0
LWPOLYLINE
  5
3D3
330
1F
100
AcDbEntity
  8
0
  6
Continuous
 62
     7
370
    15
100
AcDbPolyline
 90
        3
 70
   128
 43
0.0
 10
15.0083964564
 20
5.9241461736
 10
15.0082493014
 20
5.9241345117
 10
15.0097372949
 20
5.9235901004
  0
LINE
  5
3D4
330
1F
100
AcDbEntity
  8
0
  6
Continuous
 62
     7
370
    15
100
AcDbLine
 10
15.0828795599
 20
6.1807730217
 30
0.0
 11
15.0828795599
 21
6.1852013943
 31
0.0
  0
LINE
  5
3D5
330
1F
100
AcDbEntity
  8
0
  6
Continuous
 62
     7
370
    15
100
AcDbLine
 10
15.0828795599
 20
6.1093538422
 30
0.0
 11
15.0828795599
 21
6.1137822148
 31
0.0
  0
LINE
  5
3D6
330
1F
100
AcDbEntity
  8
0
  6
Continuous
 62
     7
370
    15
100
AcDbLine
 10
15.0828795599
 20
6.0379346627
 30
0.0
 11
15.0828795599
 21
6.0423630353
 31
0.0
  0
LINE
  5
3D7
330
1F
100
AcDbEntity
  8
0
  6
Continuous
 62
     7
370
    15
100
AcDbLine
 10
15.0828795599
 20
5.9665154832
 30
0.0
 11
15.0828795599
 21
5.9709438558
 31
0.0
  0
LINE
  5
3D8
330
1F
100
AcDbEntity
  8
0
  6
Continuous
 62
     7
370
    15
100
AcDbLine
 10
15.0828795599
 20
5.8950978115
 30
0.0
 11
15.0828795599
 21
5.8995246763
 31
0.0
  0
LINE
  5
3D9
330
1F
100
AcDbEntity
  8
0
  6
Continuous
 62
     7
370
    15
100
AcDbLine
 10
14.9968795599
 20
5.935234266
 30
0.0
 11
14.9968795599
 21
5.9308058935
 31
0.0
  0
LINE
  5
3DA
330
1F
100
AcDbEntity
  8
0
  6
Continuous
 62
     7
370
    15
100
AcDbLine
 10
14.9968795599
 20
6.0066534455
 30
0.0
 11
14.9968795599
 21
6.002225073
 31
0.0
  0
LINE
  5
3DB
330
1F
100
AcDbEntity
  8
0
  6
Continuous
 62
     7
370
    15
100
AcDbLine
 10
14.9968795599
 20
6.078072625
 30
0.0
 11
14.9968795599
 21
6.0736442525
 31
0.0
  0
LINE
  5
3DC
330
1F
100
AcDbEntity
  8
0
  6
Continuous
 62
     7
370
    15
100
AcDbLine
 10
14.9968795599
 20
6.1494918045
 30
0.0
 11
14.9968795599
 21
6.145063432
 31
0.0
  0
LINE
  5
3DD
330
1F
100
AcDbEntity
  8
0
  6
Continuous
 62
     7
370
    15
100
AcDbLine
 10
15.0073795599
 20
5.9555611191
 30
0.0
 11
15.0073795599
 21
5.9404597642
 31
0.0
  0
LINE
  5
3DE
330
1F
100
AcDbEntity
  8
0
  6
Continuous
 62
     7
370
    15
100
AcDbLine
 10
15.0073795599
 20
6.0269802986
 30
0.0
 11
15.0073795599
 21
6.0118789437
 31
0.0
  0
LINE
  5
3DF
330
1F
100
AcDbEntity
  8
0
  6
Continuous
 62
     7
370
    15
100
AcDbLine
 10
15.0073795599
 20
6.0983994781
 30
0.0
 11
15.0073795599
 21
6.0832981232
 31
0.0
  0
LINE
  5
3E0
330
1F
100
AcDbEntity
  8
0
  6
Continuous
 62
     7
370
    15
100
AcDbLine
 10
15.0073795599
 20
6.1698186576
 30
0.0
 11
15.0073795599
 21
6.1547173027
 31
0.0
  0
LINE
  5
3E1
330
1F
100
AcDbEntity
  8
0
  6
Continuous
 62
     7
370
    15
100
AcDbLine
 10
15.0073795599
 20
5.9256123189
 30
0.0
 11
15.0073795599
 21
5.9108846405
 31
0.0
  0
LINE
  5
3E2
330
1F
100
AcDbEntity
  8
0
  6
Continuous
 62
     7
370
    15
100
AcDbLine
 10
15.0073795599
 20
5.9970314984
 30
0.0
 11
15.0073795599
 21
5.98230382
 31
0.0
  0
LINE
  5
3E3
330
1F
100
AcDbEntity
  8
0
  6
Continuous
 62
     7
370
    15
100
AcDbLine
 10
15.0073795599
 20
6.0684506779
 30
0.0
 11
15.0073795599
 21
6.0537229995
 31
0.0
  0
LINE
  5
3E4
330
1F
100
AcDbEntity
  8
0
  6
Continuous
 62
     7
370
    15
100
AcDbLine
 10
15.0073795599
 20
6.1398698574
 30
0.0
 11
15.0073795599
 21
6.1251421789
 31
0.0
  0
LINE
  5
3E5
330
1F
100
AcDbEntity
  8
0
  6
Continuous
 62
     7
370
    15
100
AcDbLine
 10
15.0073795599
 20
6.2112851053
 30
0.0
 11
15.0073795599
 21
6.1965613584
 31
0.0
  0
LINE
  5
3E6
330
1F
100
AcDbEntity
  8
0
  6
Continuous
 62
     7
370
    15
100
AcDbLine
 10
15.1302710028
 20
5.8566250353
 30
0.0
 11
15.0911268488
 21
5.8895398114
 31
0.0
  0
LINE
  5
3E7
330
1F
100
AcDbEntity
  8
0
  6
Continuous
 62
     7
370
    15
100
AcDbLine
 10
14.9885852538
 20
5.8895002764
 30
0.0
 11
14.9494881171
 21
5.8566250353
 31
0.0
  0
ARC
  5
3E8
330
1F
100
AcDbEntity
  8
0
  6
Continuous
 62
     7
370
    15
100
AcDbCircle
 10
15.0396002913
 20
5.9138097984
 30
0.0
 40
0.1455332249096351
100
AcDbArc
 50
234.3128817471
 51
305.7801042527
  0
LINE
  5
3E9
330
1F
100
AcDbEntity
  8
0
  6
Continuous
 62
     7
370
    15
100
AcDbLine
 10
14.4231674468
 20
5.7816609163
 30
0.0
 11
14.4214918528
 21
5.8639399255
 31
0.0
  0
LINE
  5
3EA
330
1F
100
AcDbEntity
  8
0
  6
Continuous
 62
     7
370
    15
100
AcDbLine
 10
14.1415072531
 20
5.8639399255
 30
0.0
 11
14.139831659
 21
5.7816609163
 31
0.0
  0
LINE
  5
3EB
330
1F
100
AcDbEntity
  8
0
  6
Continuous
 62
     7
370
    15
100
AcDbLine
 10
12.1015698774
 20
6.4126213898
 30
0.0
 11
12.0998942834
 21
6.4949003991
 31
0.0
  0
LINE
  5
3EC
330
1F
100
AcDbEntity
  8
0
  6
Continuous
 62
     7
370
    15
100
AcDbLine
 10
11.8199096837
 20
6.4949003991
 30
0.0
 11
11.8182340896
 21
6.4126213898
 31
0.0
  0
LINE
  5
3ED
330
1F
100
AcDbEntity
  8
0
  6
Continuous
 62
     7
370
    15
100
AcDbLine
 10
11.7259714323
 20
6.373844296
 30
0.0
 11
11.7248718237
 21
6.3198486962
 31
0.0
  0
LINE
  5
3EE
330
1F
100
AcDbEntity
  8
0
  6
Continuous
 62
     7
370
    15
100
AcDbLine
 10
11.7619680277
 20
6.3846531008
 30
0.0
 11
11.7619680277
 21
6.3735099259
 31
0.0
  0
LINE
  5
3EF
330
1F
100
AcDbEntity
  8
0
  6
Continuous
 62
     7
370
    15
100
AcDbLine
 10
15.1815474538
 20
6.5218630523
 30
0.0
 11
15.1798718598
 21
6.6041420616
 31
0.0
  0
LINE
  5
3F0
330
1F
100
AcDbEntity
  8
0
  6
Continuous
 62
     7
370
    15
100
AcDbLine
 10
14.8998872601
 20
6.6041420616
 30
0.0
 11
14.898211666
 21
6.5218630523
 31
0.0
  0
LINE
  5
3F1
330
1F
100
AcDbEntity
  8
0
  6
Continuous
 62
     7
370
    15
100
AcDbLine
 10
15.2749097198
 20
6.4834963433
 30
0.0
 11
15.2738101112
 21
6.5374919431
 31
0.0
  0
LINE
  5
3F2
330
1F
100
AcDbEntity
  8
0
  6
Continuous
 62
     7
370
    15
100
AcDbLine
 10
15.2378135158
 20
6.537157573
 30
0.0
 11
15.2378135158
 21
6.5483007479
 31
0.0
  0
LWPOLYLINE
  5
3F3
330
1F
100
AcDbEntity
  8
0
  6
Continuous
 62
     7
370
    15
100
AcDbPolyline
 90
       10
 70
   128
 43
0.0
 10
13.1765665344
 20
7.8806049125
 10
13.4604963781
 20
7.8000817305
 10
13.5957254429
 20
7.7561835603
 10
13.7278683455
 20
7.7062317253
 10
13.7921476551
 20
7.6780288635
 10
13.854284483
 20
7.6466914483
 10
13.9144573204
 20
7.6102035474
 10
13.9673646269
 20
7.5669910957
 10
13.9958100381
 20
7.531944362
 10
14.0147124767
 20
7.4923802429
  0
ARC
  5
3F4
330
1F
100
AcDbEntity
  8
0
  6
Continuous
 62
     7
370
    15
100
AcDbCircle
 10
15.664001931
 20
7.8222270435
 30
0.0
 40
1.6819537618962
100
AcDbArc
 50
191.3096459901
 51
200.2324687745
  0
ARC
  5
3F5
330
1F
100
AcDbEntity
  8
0
  6
Continuous
 62
     7
370
    15
100
AcDbCircle
 10
-40.7813690582
 20
-11.2503649354
 30
0.0
 40
57.89925233122764
100
AcDbArc
 50
18.2843205265
 51
18.6244507793
  0
LINE
  5
3F6
330
1F
100
AcDbEntity
  8
0
  6
Continuous
 62
     7
370
    15
100
AcDbLine
 10
14.1946292739
 20
6.9145195373
 30
0.0
 11
14.1421775344
 21
6.9287747962
 31
0.0
  0
LWPOLYLINE
  5
3F7
330
1F
100
AcDbEntity
  8
0
  6
Continuous
 62
     7
370
    15
100
AcDbPolyline
 90
       18
 70
   128
 43
0.0
 10
14.1421775344
 20
6.9287747962
 10
14.1242457446
 20
6.9886378032
 10
14.1005227708
 20
7.0480141777
 10
14.0742827651
 20
7.1067015004
 10
14.0358143603
 20
7.1946617667
 10
14.0039104061
 20
7.283953624
 10
13.9909173822
 20
7.3287761593
 10
13.9779867525
 20
7.3726288969
 10
13.9614181454
 20
7.4136800426
 10
13.938327048
 20
7.4499121677
 10
13.898510301
 20
7.4902655017
 10
13.8525081239
 20
7.5238921627
 10
13.8030799431
 20
7.5532045689
 10
13.6774701754
 20
7.612364519
 10
13.5469204036
 20
7.661728336
 10
13.4138985499
 20
7.7051316824
 10
13.2794309452
 20
7.7446438508
 10
13.144213761
 20
7.7819235698
  0
LINE
  5
3F8
330
1F
100
AcDbEntity
  8
0
  6
Continuous
 62
     7
370
    15
100
AcDbLine
 10
13.144213761
 20
7.7819235698
 30
0.0
 11
13.1765665344
 21
7.8806049125
 31
0.0
  0
LWPOLYLINE
  5
3F9
330
1F
100
AcDbEntity
  8
0
  6
Continuous
 62
     7
370
    15
100
AcDbPolyline
 90
       10
 70
   128
 43
0.0
 10
14.2357232354
 20
7.0681755747
 10
14.2296975881
 20
7.094663616
 10
14.2256193613
 20
7.1038900785
 10
14.2205064557
 20
7.1133170715
 10
14.214358963
 20
7.1229457598
 10
14.1964304079
 20
7.1458522534
 10
14.1769318927
 20
7.1674651511
 10
14.1483837524
 20
7.1939341504
 10
14.1180266036
 20
7.2179877007
 10
14.0858273228
 20
7.2405566697
  0
ARC
  5
3FA
330
1F
100
AcDbEntity
  8
0
  6
Continuous
 62
     7
370
    15
100
AcDbCircle
 10
12.8296979416
 20
5.3791353054
 30
0.0
 40
2.422821267026313
100
AcDbArc
 50
53.2666017189
 51
60.7182185974
  0
ARC
  5
3FB
330
1F
100
AcDbEntity
  8
0
  6
Continuous
 62
     7
370
    15
100
AcDbCircle
 10
14.1406702815
 20
7.0785553321
 30
0.0
 40
0.2788869232804651
100
AcDbArc
 50
3.88676504
 51
60.3185094462
  0
ARC
  5
3FC
330
1F
100
AcDbEntity
  8
0
  6
Continuous
 62
     7
370
    15
100
AcDbCircle
 10
14.2809893824
 20
7.3726452439
 30
0.0
 40
0.3078161846540862
100
AcDbArc
 50
261.5436573547
 51
296.6205853335
  0
LINE
  5
3FD
330
1F
100
AcDbEntity
  8
0
  6
Continuous
 62
     7
370
    15
100
AcDbLine
 10
14.1421775344
 20
6.9287747962
 30
0.0
 11
13.0231690455
 21
7.232897326
 31
0.0
  0
ARC
  5
3FE
330
1F
100
AcDbEntity
  8
0
  6
Continuous
 62
     7
370
    15
100
AcDbCircle
 10
14.469885263
 20
7.2017940165
 30
0.0
 40
1.447050527698159
100
AcDbArc
 50
156.3652437135
 51
178.7683736117
  0
LWPOLYLINE
  5
3FF
330
1F
100
AcDbEntity
  8
0
  6
Continuous
 62
     7
370
    15
100
AcDbPolyline
 90
        9
 70
   128
 43
0.0
 10
14.285232894
 20
6.5748005284
 10
14.2822970508
 20
6.6328151592
 10
14.2768154592
 20
6.6971646564
 10
14.2709462877
 20
6.7504076356
 10
14.262236335
 20
6.8208383432
 10
14.2527635781
 20
6.8950036601
 10
14.246718192
 20
6.9447416883
 10
14.2399626495
 20
7.0104277014
 10
14.2357232354
 20
7.0681755747
  0
LINE
  5
400
330
1F
100
AcDbEntity
  8
0
  6
Continuous
 62
     7
370
    15
100
AcDbLine
 10
11.7414887636
 20
7.2661356772
 30
0.0
 11
14.285232894
 21
6.5748005284
 31
0.0
  0
ARC
  5
401
330
1F
100
AcDbEntity
  8
0
  6
Continuous
 62
     7
370
    15
100
AcDbCircle
 10
15.7539208931
 20
6.7320933482
 30
0.0
 40
4.047815596169833
100
AcDbArc
 50
165.8409071096
 51
172.4186628606
  0
LWPOLYLINE
  5
402
330
1F
100
AcDbEntity
  8
0
  6
Continuous
 62
     7
370
    15
100
AcDbPolyline
 90
        9
 70
   128
 43
0.0
 10
12.0023145603
 20
7.8068107943
 10
11.9674972658
 20
7.8025946344
 10
11.9341987142
 20
7.7960172219
 10
11.9018375603
 20
7.786044424
 10
11.8868046047
 20
7.7794609137
 10
11.870690562
 20
7.7713056127
 10
11.8574395799
 20
7.7629651751
 10
11.8386098366
 20
7.7442227002
 10
11.8290769496
 20
7.7222504669
  0
LWPOLYLINE
  5
403
330
1F
100
AcDbEntity
  8
0
  6
Continuous
 62
     7
370
    15
100
AcDbPolyline
 90
        3
 70
   128
 43
0.0
 10
11.8517088171
 20
7.5512751148
 10
11.9212871635
 20
7.6790269104
 10
12.0023142869
 20
7.8068108529
  0
LINE
  5
404
330
1F
100
AcDbEntity
  8
0
  6
Continuous
 62
     7
370
    15
100
AcDbLine
 10
11.8517088171
 20
7.5512751148
 30
0.0
 11
11.9041605566
 21
7.5370198559
 31
0.0
  0
LINE
  5
405
330
1F
100
AcDbEntity
  8
0
  6
Continuous
 62
     7
370
    15
100
AcDbLine
 10
13.0231690455
 20
7.232897326
 30
0.0
 11
11.9041605566
 21
7.5370198559
 31
0.0
  0
ARC
  5
406
330
1F
100
AcDbEntity
  8
0
  6
Continuous
 62
     7
370
    15
100
AcDbCircle
 10
16.07137821
 20
6.3699138894
 30
0.0
 40
2.029218390704104
100
AcDbArc
 50
133.9207165194
 51
152.0551262308
  0
ARC
  5
407
330
1F
100
AcDbEntity
  8
0
  6
Continuous
 62
     7
370
    15
100
AcDbCircle
 10
15.3326056079
 20
6.3326666709
 30
0.0
 40
2.654169792318276
100
AcDbArc
 50
133.6700174267
 51
144.3233681473
  0
LWPOLYLINE
  5
408
330
1F
100
AcDbEntity
  8
0
  6
Continuous
 62
     7
370
    15
100
AcDbPolyline
 90
        9
 70
   128
 43
0.0
 10
14.6637858862
 20
7.831560607
 10
14.5684462351
 20
7.8883559589
 10
14.4603302688
 20
7.9418575336
 10
14.3411453949
 20
7.9924375325
 10
14.212599021
 20
8.0404681568
 10
14.0763985548
 20
8.0863216078
 10
13.8893146837
 20
8.1436964068
 10
13.6958673482
 20
8.1988117752
 10
13.4998907717
 20
8.2525035431
  0
ARC
  5
409
330
1F
100
AcDbEntity
  8
0
  6
Continuous
 62
     7
370
    15
100
AcDbCircle
 10
14.5378923752
 20
7.6012174723
 30
0.0
 40
0.2625016872266049
100
AcDbArc
 50
8.7732811478
 51
61.3412910092
  0
ARC
  5
40A
330
1F
100
AcDbEntity
  8
0
  6
Continuous
 62
     7
370
    15
100
AcDbCircle
 10
15.9056036781
 20
6.4664873771
 30
0.0
 40
1.615043953598356
100
AcDbArc
 50
133.3318983614
 51
157.002917018
  0
LWPOLYLINE
  5
40B
330
1F
100
AcDbEntity
  8
0
  6
Continuous
 62
     7
370
    15
100
AcDbPolyline
 90
        8
 70
   128
 43
0.0
 10
14.7973226919
 20
7.6412555362
 10
14.8671918446
 20
7.7064820599
 10
14.9381492152
 20
7.7655669917
 10
15.0102055145
 20
7.8163584657
 10
15.0648373641
 20
7.847373714
 10
15.1196387759
 20
7.8706080883
 10
15.1741202055
 20
7.8843184263
 10
15.2273322709
 20
7.886498938
  0
ARC
  5
40C
330
1F
100
AcDbEntity
  8
0
  6
Continuous
 62
     7
370
    15
100
AcDbCircle
 10
12.3152223061
 20
7.1617991829
 30
0.0
 40
3.000928886565194
100
AcDbArc
 50
5.5406879842
 51
13.9746050584
  0
LINE
  5
40D
330
1F
100
AcDbEntity
  8
0
  6
Continuous
 62
     7
370
    15
100
AcDbLine
 10
14.4269645345
 20
6.5973568547
 30
0.0
 11
15.3021313325
 21
7.451546479
 31
0.0
  0
ARC
  5
40E
330
1F
100
AcDbEntity
  8
0
  6
Continuous
 62
     7
370
    15
100
AcDbCircle
 10
-6.0965857582
 20
6.5171958267
 30
0.0
 40
20.52370601055231
100
AcDbArc
 50
0.2237856487
 51
1.6201312813
  0
ARC
  5
40F
330
1F
100
AcDbEntity
  8
0
  6
Continuous
 62
     7
370
    15
100
AcDbCircle
 10
14.3344403375
 20
6.722165514
 30
0.0
 40
0.1553631818661527
100
AcDbArc
 50
251.5350964859
 51
306.5503917826
  0
ARC
  5
410
330
1F
100
AcDbEntity
  8
0
  6
Continuous
 62
     7
370
    15
100
AcDbCircle
 10
12.5945665188
 20
7.3384189867
 30
0.0
 40
0.7550883625558875
100
AcDbArc
 50
121.1641398091
 51
141.6607716166
  0
LWPOLYLINE
  5
411
330
1F
100
AcDbEntity
  8
0
  6
Continuous
 62
     7
370
    15
100
AcDbPolyline
 90
       10
 70
   128
 43
0.0
 10
13.1765665344
 20
7.8806049125
 10
12.8894740815
 20
7.955251754
 10
12.748944328
 20
7.9862834102
 10
12.6062778468
 20
8.0110038838
 10
12.5330124235
 20
8.0204432025
 10
12.4584602222
 20
8.026411497
 10
12.3829616636
 20
8.0264768966
 10
12.3068571686
 20
8.018207531
 10
12.2541912011
 20
8.0052316173
 10
12.2038121731
 20
7.9845441425
  0
LWPOLYLINE
  5
412
330
1F
100
AcDbEntity
  8
0
  6
Continuous
 62
     7
370
    15
100
AcDbPolyline
 90
       18
 70
   128
 43
0.0
 10
11.9041605566
 20
7.5370198559
 10
11.928108869
 20
7.5855007485
 10
11.960852461
 20
7.6295307203
 10
11.999015041
 20
7.6707148001
 10
12.061316278
 20
7.7312880371
 10
12.1260115613
 20
7.7943262915
 10
12.1593396443
 20
7.8265597425
 10
12.1947053231
 20
7.8572865783
 10
12.2337994575
 20
7.8832097836
 10
12.2766219501
 20
7.9015280073
 10
12.3363924652
 20
7.9148156573
 10
12.3963714104
 20
7.9196389202
 10
12.4559695312
 20
7.9193203138
 10
12.5968133023
 20
7.9060639014
 10
12.7354880069
 20
7.8822582745
 10
12.8726685373
 20
7.8522264027
 10
13.00876621
 20
7.8182047262
 10
13.144213761
 20
7.7819235698
  0
ARC
  5
413
330
1F
100
AcDbEntity
  8
0
  6
Continuous
 62
     7
370
    15
100
AcDbCircle
 10
12.1631166499
 20
6.4464696811
 30
0.0
 40
1.538609907213814
100
AcDbArc
 50
88.4843311396
 51
99.4245175674
  0
ARC
  5
414
330
1F
100
AcDbEntity
  8
0
  6
Continuous
 62
     7
370
    15
100
AcDbCircle
 10
14.3765586512
 20
6.2996091655
 30
0.0
 40
2.974788835736794
100
AcDbArc
 50
133.3105396239
 51
145.9716018428
  0
LWPOLYLINE
  5
415
330
1F
100
AcDbEntity
  8
0
  6
Continuous
 62
     7
370
    15
100
AcDbPolyline
 90
       10
 70
   128
 43
0.0
 10
12.3359956573
 20
8.4642041127
 10
12.4020611556
 20
8.4688400217
 10
12.4747738764
 20
8.4681590606
 10
12.5535288703
 20
8.4626219281
 10
12.6908622763
 20
8.4447689752
 10
12.8396754877
 20
8.4175191596
 10
12.9974767236
 20
8.382770095
 10
13.1617742034
 20
8.342419395
 10
13.3300761463
 20
8.2983646731
 10
13.4998907717
 20
8.2525035431
  0
LWPOLYLINE
  5
416
330
1F
100
AcDbEntity
  8
0
  6
Continuous
 62
     7
370
    15
100
AcDbPolyline
 90
       10
 70
   128
 43
0.0
 10
13.8232150091
 20
8.5117536478
 10
14.1103074619
 20
8.4335241596
 10
14.2508372155
 20
8.3949414121
 10
14.3935036967
 20
8.3554045181
 10
14.4659325023
 20
8.3352290904
 10
14.5393025465
 20
8.3149307524
 10
14.6156345567
 20
8.2942909881
 10
14.6929243748
 20
8.2749587651
 10
14.7455903424
 20
8.2636576346
 10
14.7959693704
 20
8.2549109216
  0
ARC
  5
417
330
1F
100
AcDbEntity
  8
0
  6
Continuous
 62
     7
370
    15
100
AcDbCircle
 10
14.304459139
 20
6.8835234691
 30
0.0
 40
1.456802980388273
100
AcDbArc
 50
57.4341976765
 51
70.2821342931
  0
LWPOLYLINE
  5
418
330
1F
100
AcDbEntity
  8
0
  6
Continuous
 62
     7
370
    15
100
AcDbPolyline
 90
        7
 70
   128
 43
0.0
 10
14.6637858862
 20
7.831560607
 10
14.7329549848
 20
7.8964660792
 10
14.80321928
 20
7.9563376786
 10
14.8745181507
 20
8.0096987662
 10
14.9465241765
 20
8.0547630668
 10
15.0184005823
 20
8.0893954559
 10
15.0886098148
 20
8.1112794304
  0
ARC
  5
419
330
1F
100
AcDbEntity
  8
0
  6
Continuous
 62
     7
370
    15
100
AcDbCircle
 10
14.6143305136
 20
7.1938702579
 30
0.0
 40
1.537101288380812
100
AcDbArc
 50
120.9760774194
 51
136.4710834651
  0
ARC
  5
41A
330
1F
100
AcDbEntity
  8
0
  6
Continuous
 62
     7
370
    15
100
AcDbCircle
 10
14.9449305103
 20
7.8674120012
 30
0.0
 40
0.2830460484484864
100
AcDbArc
 50
3.8666197826
 51
59.4946959025
  0
LINE
  5
41B
330
1F
100
AcDbEntity
  8
0
  6
Continuous
 62
     7
370
    15
100
AcDbLine
 10
11.7590695989
 20
7.7977751759
 30
0.0
 11
11.7585425551
 21
7.796592982
 31
0.0
  0
LINE
  5
41C
330
1F
100
AcDbEntity
  8
0
  6
Continuous
 62
     7
370
    15
100
AcDbLine
 10
11.8002674763
 20
7.9066335435
 30
0.0
 11
11.797127112
 21
7.9019399236
 31
0.0
  0
ARC
  5
41D
330
1F
100
AcDbEntity
  8
0
  6
Continuous
 62
     7
370
    15
100
AcDbCircle
 10
12.3294720504
 20
8.3385156744
 30
0.0
 40
0.1258576218405486
100
AcDbArc
 50
87.0288433323
 51
134.5662159535
  0
LWPOLYLINE
  5
41E
330
1F
100
AcDbEntity
  8
0
  6
Continuous
 62
     7
370
    15
100
AcDbPolyline
 90
        8
 70
   128
 43
0.0
 10
11.741489005
 20
7.2661359128
 10
11.7267933498
 20
7.2709718814
 10
11.7135076399
 20
7.2771840315
 10
11.7027481362
 20
7.2842528013
 10
11.694208198
 20
7.2923824644
 10
11.6886146384
 20
7.3008759941
 10
11.6857918458
 20
7.3099901135
 10
11.6859333483
 20
7.3168994888
  0
LWPOLYLINE
  5
41F
330
1F
100
AcDbEntity
  8
0
  6
Continuous
 62
     7
370
    15
100
AcDbPolyline
 90
        7
 70
   128
 43
0.0
 10
12.3359956573
 20
8.4642041127
 10
12.4041009812
 20
8.5293986961
 10
12.4709286105
 20
8.5902043076
 10
12.5361992398
 20
8.645203742
 10
12.5996718594
 20
8.6925872396
 10
12.6612448844
 20
8.7300198669
 10
12.7210125846
 20
8.7547416261
  0
ARC
  5
420
330
1F
100
AcDbEntity
  8
0
  6
Continuous
 62
     7
370
    15
100
AcDbCircle
 10
12.8272058292
 20
7.8611056714
 30
0.0
 40
0.8999234497126283
100
AcDbArc
 50
79.8969715208
 51
96.7768362683
  0
LWPOLYLINE
  5
421
330
1F
100
AcDbEntity
  8
0
  6
Continuous
 62
     7
370
    15
100
AcDbPolyline
 90
       10
 70
   128
 43
0.0
 10
13.8232150091
 20
8.5117536478
 10
13.5392851654
 20
8.5887167121
 10
13.4040561006
 20
8.625080481
 10
13.271913198
 20
8.6602314578
 10
13.2076338884
 20
8.6772098819
 10
13.1454970605
 20
8.6937380384
 10
13.0853242231
 20
8.7101945743
 10
13.0324169166
 20
8.7262428505
 10
13.0039715054
 20
8.7369864328
 10
12.9850690667
 20
8.7470748213
  0
LINE
  5
422
330
1F
100
AcDbEntity
  8
0
  6
Continuous
 62
     7
370
    15
100
AcDbLine
 10
15.2405001466
 20
7.9334625742
 30
0.0
 11
15.2392302583
 21
7.9367947447
 31
0.0
  0
LWPOLYLINE
  5
423
330
1F
100
AcDbEntity
  8
0
  6
Continuous
 62
     7
370
    15
100
AcDbPolyline
 90
        3
 70
   128
 43
0.0
 10
14.7959668748
 20
8.254908728
 10
14.8410732909
 20
8.245708202
 10
14.866303265
 20
8.235784084
  0
LWPOLYLINE
  5
424
330
1F
100
AcDbEntity
  8
0
  6
Continuous
 62
     7
370
    15
100
AcDbPolyline
 90
        3
 70
   128
 43
0.0
 10
15.3021305014
 20
7.4515467049
 10
15.3131135818
 20
7.4687876475
 10
15.3127553238
 20
7.4777908217
  0
ARC
  5
425
330
1F
100
AcDbEntity
  8
0
  6
Continuous
 62
     7
370
    15
100
AcDbCircle
 10
12.7597988964
 20
8.4764073075
 30
0.0
 40
0.2810237906286042
100
AcDbArc
 50
97.9331665081
 51
107.7284833551
  0
LWPOLYLINE
  5
426
330
1F
100
AcDbEntity
  8
0
  6
Continuous
 62
     7
370
    15
100
AcDbPolyline
 90
        3
 70
   128
 43
0.0
 10
12.9762756991
 20
8.7522056376
 10
12.9786554956
 20
8.7514885996
 10
12.9850726181
 20
8.7470709842
  0
LWPOLYLINE
  5
427
330
1F
100
AcDbEntity
  8
0
  6
Continuous
 62
     7
370
    15
100
AcDbPolyline
 90
        6
 70
   128
 43
0.0
 10
14.2665757891
 20
5.4170403309
 10
14.2558313065
 20
5.4169633786
 10
14.2409094013
 20
5.4190695407
 10
14.230771763
 20
5.4231646855
 10
14.2265622459
 20
5.4288613405
 10
14.2268862535
 20
5.4296624347
  0
LWPOLYLINE
  5
428
330
1F
100
AcDbEntity
  8
0
  6
Continuous
 62
     7
370
    15
100
AcDbPolyline
 90
       11
 70
   128
 43
0.0
 10
14.3361128524
 20
5.3940029334
 10
14.3340766048
 20
5.3823570324
 10
14.3255495382
 20
5.3696356304
 10
14.3116355694
 20
5.3589930304
 10
14.2942519703
 20
5.3513111065
 10
14.2754541188
 20
5.3466358803
 10
14.2558313065
 20
5.3455441991
 10
14.2409094013
 20
5.3476503612
 10
14.230771763
 20
5.351745506
 10
14.2265622459
 20
5.357442161
 10
14.2268862535
 20
5.3582432552
  0
LWPOLYLINE
  5
429
330
1F
100
AcDbEntity
  8
0
  6
Continuous
 62
     7
370
    15
100
AcDbPolyline
 90
       11
 70
   128
 43
0.0
 10
14.3361128524
 20
5.3225837539
 10
14.3340766048
 20
5.310937853
 10
14.3255495382
 20
5.2982164509
 10
14.3116355694
 20
5.2875738509
 10
14.2942519703
 20
5.279891927
 10
14.2754541188
 20
5.2752167008
 10
14.2558313065
 20
5.2741250196
 10
14.2409094013
 20
5.2762311817
 10
14.230771763
 20
5.2803263265
 10
14.2265622459
 20
5.2860229815
 10
14.2268862535
 20
5.2868240758
  0
LWPOLYLINE
  5
42A
330
1F
100
AcDbEntity
  8
0
  6
Continuous
 62
     7
370
    15
100
AcDbPolyline
 90
       11
 70
   128
 43
0.0
 10
14.3361128524
 20
5.2511645744
 10
14.3340766048
 20
5.2395186735
 10
14.3255495382
 20
5.2267972714
 10
14.3116355694
 20
5.2161546714
 10
14.2942519703
 20
5.2084727475
 10
14.2754541188
 20
5.2037975213
 10
14.2558313065
 20
5.2027058401
 10
14.2409094013
 20
5.2048120022
 10
14.230771763
 20
5.208907147
 10
14.2265622459
 20
5.214603802
 10
14.2268862535
 20
5.2154048963
  0
LWPOLYLINE
  5
42B
330
1F
100
AcDbEntity
  8
0
  6
Continuous
 62
     7
370
    15
100
AcDbPolyline
 90
       11
 70
   128
 43
0.0
 10
14.3361128524
 20
5.1797453949
 10
14.3340766048
 20
5.168099494
 10
14.3255495382
 20
5.1553780919
 10
14.3116355694
 20
5.1447354919
 10
14.2942519703
 20
5.137053568
 10
14.2754541188
 20
5.1323783419
 10
14.2558313065
 20
5.1312866607
 10
14.2409094013
 20
5.1333928227
 10
14.230771763
 20
5.1374879676
 10
14.2265622459
 20
5.1431846226
 10
14.2268862535
 20
5.1439857168
  0
LWPOLYLINE
  5
42C
330
1F
100
AcDbEntity
  8
0
  6
Continuous
 62
     7
370
    15
100
AcDbPolyline
 90
       11
 70
   128
 43
0.0
 10
14.3082222209
 20
5.4727358545
 10
14.3129322986
 20
5.4694949603
 10
14.3190359076
 20
5.462080852
 10
14.3215737781
 20
5.4541659237
 10
14.3204869163
 20
5.4450802372
 10
14.319960049
 20
5.4437207013
 10
14.3146428039
 20
5.4357370946
 10
14.304622591
 20
5.4280917701
 10
14.291399647
 20
5.4220928981
 10
14.2741696049
 20
5.4178544086
 10
14.2665757891
 20
5.4170403309
  0
LWPOLYLINE
  5
42D
330
1F
100
AcDbEntity
  8
0
  6
Continuous
 62
     7
370
    15
100
AcDbPolyline
 90
        3
 70
   128
 43
0.0
 10
14.2489998421
 20
5.1329051197
 10
14.2495250197
 20
5.1318226997
 10
14.25112738
 20
5.1309570805
  0
LWPOLYLINE
  5
42E
330
1F
100
AcDbEntity
  8
0
  6
Continuous
 62
     7
370
    15
100
AcDbPolyline
 90
       10
 70
   128
 43
0.0
 10
14.282802247
 20
5.4468656629
 10
14.2760349508
 20
5.444619862
 10
14.2692073611
 20
5.4431533624
 10
14.2663319528
 20
5.4428109599
 10
14.2614598766
 20
5.4425080091
 10
14.2571488136
 20
5.4425000399
 10
14.2537490437
 20
5.4427817471
 10
14.251152718
 20
5.443358701
 10
14.2495512192
 20
5.4442089431
 10
14.2490124956
 20
5.4453163068
  0
LWPOLYLINE
  5
42F
330
1F
100
AcDbEntity
  8
0
  6
Continuous
 62
     7
370
    15
100
AcDbPolyline
 90
       20
 70
   128
 43
0.0
 10
14.3139866103
 20
5.4096055127
 10
14.3139992468
 20
5.4094873888
 10
14.3134595457
 20
5.4045637101
 10
14.3118646203
 20
5.3995215179
 10
14.3093548703
 20
5.3947651199
 10
14.3058658465
 20
5.3901723695
 10
14.3015768538
 20
5.386041277
 10
14.2964207757
 20
5.3823358418
 10
14.2910782812
 20
5.3792252277
 10
14.2853096706
 20
5.3764689004
 10
14.2795462689
 20
5.3742720986
 10
14.2736704678
 20
5.3725968236
 10
14.2699528824
 20
5.3718515559
 10
14.2663319528
 20
5.3713917804
 10
14.2614598766
 20
5.3710888296
 10
14.2571488136
 20
5.3710808604
 10
14.2537490437
 20
5.3713625676
 10
14.251152718
 20
5.3719395215
 10
14.2495512192
 20
5.3727897636
 10
14.2490124956
 20
5.3738971273
  0
LWPOLYLINE
  5
430
330
1F
100
AcDbEntity
  8
0
  6
Continuous
 62
     7
370
    15
100
AcDbPolyline
 90
       20
 70
   128
 43
0.0
 10
14.3139866103
 20
5.3381863332
 10
14.3139992468
 20
5.3380682093
 10
14.3134595457
 20
5.3331445306
 10
14.3118646203
 20
5.3281023384
 10
14.3093548703
 20
5.3233459404
 10
14.3058658465
 20
5.31875319
 10
14.3015768538
 20
5.3146220975
 10
14.2964207757
 20
5.3109166623
 10
14.2910782812
 20
5.3078060482
 10
14.2853096706
 20
5.3050497209
 10
14.2795462689
 20
5.3028529191
 10
14.2736704678
 20
5.3011776441
 10
14.2699528824
 20
5.3004323764
 10
14.2663319528
 20
5.2999726009
 10
14.2614598766
 20
5.2996696501
 10
14.2571488136
 20
5.2996616809
 10
14.2537490437
 20
5.2999433881
 10
14.251152718
 20
5.300520342
 10
14.2495512192
 20
5.3013705841
 10
14.2490124956
 20
5.3024779478
  0
LWPOLYLINE
  5
431
330
1F
100
AcDbEntity
  8
0
  6
Continuous
 62
     7
370
    15
100
AcDbPolyline
 90
       20
 70
   128
 43
0.0
 10
14.3139866103
 20
5.2667671537
 10
14.3139992468
 20
5.2666490298
 10
14.3134595457
 20
5.2617253511
 10
14.3118646203
 20
5.2566831589
 10
14.3093548703
 20
5.2519267609
 10
14.3058658465
 20
5.2473340106
 10
14.3015768538
 20
5.243202918
 10
14.2964207757
 20
5.2394974828
 10
14.2910782812
 20
5.2363868687
 10
14.2853096706
 20
5.2336305414
 10
14.2795462689
 20
5.2314337396
 10
14.2736704678
 20
5.2297584646
 10
14.2699528824
 20
5.2290131969
 10
14.2663319528
 20
5.2285534214
 10
14.2614598766
 20
5.2282504706
 10
14.2571488136
 20
5.2282425014
 10
14.2537490437
 20
5.2285242086
 10
14.251152718
 20
5.2291011625
 10
14.2495512192
 20
5.2299514046
 10
14.2490124956
 20
5.2310587683
  0
LWPOLYLINE
  5
432
330
1F
100
AcDbEntity
  8
0
  6
Continuous
 62
     7
370
    15
100
AcDbPolyline
 90
       20
 70
   128
 43
0.0
 10
14.3139866103
 20
5.1953479742
 10
14.3139992468
 20
5.1952298503
 10
14.3134595457
 20
5.1903061716
 10
14.3118646203
 20
5.1852639794
 10
14.3093548703
 20
5.1805075814
 10
14.3058658465
 20
5.1759148311
 10
14.3015768538
 20
5.1717837385
 10
14.2964207757
 20
5.1680783033
 10
14.2910782812
 20
5.1649676892
 10
14.2853096706
 20
5.1622113619
 10
14.2795462689
 20
5.1600145601
 10
14.2736704678
 20
5.1583392851
 10
14.2699528824
 20
5.1575940174
 10
14.2663319528
 20
5.1571342419
 10
14.2614598766
 20
5.1568312911
 10
14.2571488136
 20
5.1568233219
 10
14.2537490437
 20
5.1571050291
 10
14.251152718
 20
5.157681983
 10
14.2495512192
 20
5.1585322251
 10
14.2490124956
 20
5.1596395888
  0
ARC
  5
433
330
1F
100
AcDbEntity
  8
0
  6
Continuous
 62
     7
370
    15
100
AcDbCircle
 10
14.2283283027
 20
5.4883968755
 30
0.0
 40
0.0685000162331315
100
AcDbArc
 50
285.5102972121
 51
322.6779182016
  0
LWPOLYLINE
  5
434
330
1F
100
AcDbEntity
  8
0
  6
Continuous
 62
     7
370
    15
100
AcDbPolyline
 90
        7
 70
   128
 43
0.0
 10
14.2466459986
 20
5.4223914648
 10
14.2342548091
 20
5.4257379815
 10
14.2274897805
 20
5.4308552581
 10
14.2271881396
 20
5.4369186676
 10
14.2333103103
 20
5.4420720914
 10
14.2452133926
 20
5.4456665195
 10
14.2489995529
 20
5.4459793825
  0
LWPOLYLINE
  5
435
330
1F
100
AcDbEntity
  8
0
  6
Continuous
 62
     7
370
    15
100
AcDbPolyline
 90
       15
 70
   128
 43
0.0
 10
14.3238731851
 20
5.4238999431
 10
14.3322273429
 20
5.4138110349
 10
14.33643686
 20
5.4003197272
 10
14.3340766048
 20
5.3868207312
 10
14.3255495382
 20
5.3740993291
 10
14.3116355694
 20
5.3634567291
 10
14.2942519703
 20
5.3557748052
 10
14.2754541188
 20
5.3510995791
 10
14.2558313065
 20
5.3500078979
 10
14.2409094013
 20
5.3521140599
 10
14.230771763
 20
5.3562092048
 10
14.2265622459
 20
5.3619058598
 10
14.228922501
 20
5.3677414844
 10
14.2374495677
 20
5.3723134923
 10
14.2489995529
 20
5.3746596336
  0
LWPOLYLINE
  5
436
330
1F
100
AcDbEntity
  8
0
  6
Continuous
 62
     7
370
    15
100
AcDbPolyline
 90
       15
 70
   128
 43
0.0
 10
14.3238731851
 20
5.3524807636
 10
14.3322273429
 20
5.3423918554
 10
14.33643686
 20
5.3289005477
 10
14.3340766048
 20
5.3154015517
 10
14.3255495382
 20
5.3026801496
 10
14.3116355694
 20
5.2920375496
 10
14.2942519703
 20
5.2843556257
 10
14.2754541188
 20
5.2796803996
 10
14.2558313065
 20
5.2785887184
 10
14.2409094013
 20
5.2806948804
 10
14.230771763
 20
5.2847900253
 10
14.2265622459
 20
5.2904866803
 10
14.228922501
 20
5.2963223049
 10
14.2374495677
 20
5.3008943128
 10
14.2489995529
 20
5.3032404541
  0
LWPOLYLINE
  5
437
330
1F
100
AcDbEntity
  8
0
  6
Continuous
 62
     7
370
    15
100
AcDbPolyline
 90
       15
 70
   128
 43
0.0
 10
14.3238731851
 20
5.2810615841
 10
14.3322273429
 20
5.2709726759
 10
14.33643686
 20
5.2574813682
 10
14.3340766048
 20
5.2439823722
 10
14.3255495382
 20
5.2312609701
 10
14.3116355694
 20
5.2206183701
 10
14.2942519703
 20
5.2129364462
 10
14.2754541188
 20
5.2082612201
 10
14.2558313065
 20
5.2071695389
 10
14.2409094013
 20
5.2092757009
 10
14.230771763
 20
5.2133708458
 10
14.2265622459
 20
5.2190675008
 10
14.228922501
 20
5.2249031254
 10
14.2374495677
 20
5.2294751333
 10
14.2489995529
 20
5.2318212746
  0
LWPOLYLINE
  5
438
330
1F
100
AcDbEntity
  8
0
  6
Continuous
 62
     7
370
    15
100
AcDbPolyline
 90
       15
 70
   128
 43
0.0
 10
14.3238731851
 20
5.2096424046
 10
14.3322273429
 20
5.1995534964
 10
14.33643686
 20
5.1860621887
 10
14.3340766048
 20
5.1725631927
 10
14.3255495382
 20
5.1598417906
 10
14.3116355694
 20
5.1491991906
 10
14.2942519703
 20
5.1415172667
 10
14.2754541188
 20
5.1368420406
 10
14.2558313065
 20
5.1357503594
 10
14.2409094013
 20
5.1378565214
 10
14.230771763
 20
5.1419516663
 10
14.2265622459
 20
5.1476483213
 10
14.228922501
 20
5.1534839459
 10
14.2374495677
 20
5.1580559538
 10
14.2489995529
 20
5.1604020952
  0
ARC
  5
439
330
1F
100
AcDbEntity
  8
0
  6
Continuous
 62
     7
370
    15
100
AcDbCircle
 10
14.2776857461
 20
5.4982071863
 30
0.0
 40
0.0819236812858593
100
AcDbArc
 50
247.7352952677
 51
262.2059030063
  0
ARC
  5
43A
330
1F
100
AcDbEntity
  8
0
  6
Continuous
 62
     7
370
    15
100
AcDbCircle
 10
14.2784099049
 20
5.4854289463
 30
0.0
 40
0.0388126203903034
100
AcDbArc
 50
224.4245806242
 51
276.4979626201
  0
LWPOLYLINE
  5
43B
330
1F
100
AcDbEntity
  8
0
  6
Continuous
 62
     7
370
    15
100
AcDbPolyline
 90
        8
 70
   128
 43
0.0
 10
14.2490946011
 20
5.4691785156
 10
14.2485304161
 20
5.4688441137
 10
14.2468023963
 20
5.4672507665
 10
14.2456384187
 20
5.4651913351
 10
14.2455923434
 20
5.4630298926
 10
14.2466678198
 20
5.4609460754
 10
14.249043252
 20
5.4590220192
 10
14.2506910007
 20
5.4582612844
  0
LWPOLYLINE
  5
43C
330
1F
100
AcDbEntity
  8
0
  6
Continuous
 62
     7
370
    15
100
AcDbPolyline
 90
       17
 70
   128
 43
0.0
 10
14.2950337192
 20
5.4798007951
 10
14.3038186049
 20
5.4761277246
 10
14.3092056172
 20
5.4710027793
 10
14.3103746324
 20
5.4652061859
 10
14.3071476785
 20
5.4596204229
 10
14.30001603
 20
5.4550958724
 10
14.2900654157
 20
5.4523213559
 10
14.2788107264
 20
5.4517192686
 10
14.2679653867
 20
5.4533812727
 10
14.259180501
 20
5.4570543432
 10
14.2537934887
 20
5.4621792884
 10
14.2526244735
 20
5.4679758819
 10
14.2558514274
 20
5.4735616448
 10
14.2629830759
 20
5.4780861954
 10
14.2729336902
 20
5.4808607119
 10
14.2841883794
 20
5.4814627992
 10
14.2950337192
 20
5.4798007951
  0
LWPOLYLINE
  5
43D
330
1F
100
AcDbEntity
  8
0
  6
Continuous
 62
     7
370
    15
100
AcDbPolyline
 90
       15
 70
   128
 43
0.0
 10
14.3244995529
 20
5.1456720769
 10
14.3317505166
 20
5.1395247162
 10
14.3361801685
 20
5.1310582741
 10
14.3353705068
 20
5.1222997518
 10
14.3293991105
 20
5.1140883615
 10
14.3188381389
 20
5.1072108913
 10
14.3046995088
 20
5.1023263174
 10
14.2883379367
 20
5.0999026632
 10
14.2713211334
 20
5.1001721551
 10
14.2552795923
 20
5.1031089715
 10
14.2417503601
 20
5.1084317163
 10
14.2320297625
 20
5.115630382
 10
14.2270491948
 20
5.1240152165
 10
14.2272858782
 20
5.132782813
 10
14.230252264
 20
5.1382941576
  0
LWPOLYLINE
  5
43E
330
1F
100
AcDbEntity
  8
0
  6
Continuous
 62
     7
370
    15
100
AcDbPolyline
 90
       12
 70
   128
 43
0.0
 10
14.2264995529
 20
5.1271527828
 10
14.2270591253
 20
5.1231223068
 10
14.2321418693
 20
5.1146550778
 10
14.2420560873
 20
5.1074112114
 10
14.2558313065
 20
5.1020997874
 10
14.2721191126
 20
5.0992407253
 10
14.2893251415
 20
5.0991138898
 10
14.3057651472
 20
5.1017316965
 10
14.3198298676
 20
5.1068378962
 10
14.3301425496
 20
5.1139326586
 10
14.3356937163
 20
5.1223214989
 10
14.3364995529
 20
5.1271527828
  0
ARC
  5
43F
330
1F
100
AcDbEntity
  8
0
  6
Continuous
 62
     7
370
    15
100
AcDbCircle
 10
14.2801081583
 20
5.1500341947
 30
0.0
 40
0.0447182380676005
100
AcDbArc
 50
281.3978543728
 51
352.0501004919
  0
LWPOLYLINE
  5
440
330
1F
100
AcDbEntity
  8
0
  6
Continuous
 62
     7
370
    15
100
AcDbPolyline
 90
       20
 70
   128
 43
0.0
 10
14.2385359126
 20
5.1795587277
 10
14.2385016731
 20
5.1794485621
 10
14.2392231048
 20
5.1774742282
 10
14.2412800974
 20
5.1757121401
 10
14.2444749288
 20
5.1743146258
 10
14.2488941773
 20
5.1732349507
 10
14.2545726876
 20
5.1725304106
 10
14.2614316512
 20
5.1722769633
 10
14.2674171958
 20
5.172566879
 10
14.273837829
 20
5.1734582625
 10
14.2811693772
 20
5.1751253261
 10
14.2887086864
 20
5.1775300473
 10
14.2959727253
 20
5.1805381563
 10
14.303021794
 20
5.1842039666
 10
14.3091397365
 20
5.1882598987
 10
14.3145370376
 20
5.193072937
 10
14.318759235
 20
5.1982222961
 10
14.3219519792
 20
5.2038652346
 10
14.323871956
 20
5.2096306793
 10
14.3244631933
 20
5.2152713414
  0
LWPOLYLINE
  5
441
330
1F
100
AcDbEntity
  8
0
  6
Continuous
 62
     7
370
    15
100
AcDbPolyline
 90
       20
 70
   128
 43
0.0
 10
14.2385359126
 20
5.2509779072
 10
14.2385016731
 20
5.2508677416
 10
14.2392231048
 20
5.2488934076
 10
14.2412800974
 20
5.2471313195
 10
14.2444749288
 20
5.2457338053
 10
14.2488941773
 20
5.2446541302
 10
14.2545726876
 20
5.2439495901
 10
14.2614316512
 20
5.2436961428
 10
14.2674171958
 20
5.2439860585
 10
14.273837829
 20
5.244877442
 10
14.2811693772
 20
5.2465445056
 10
14.2887086864
 20
5.2489492268
 10
14.2959727253
 20
5.2519573358
 10
14.303021794
 20
5.2556231461
 10
14.3091397365
 20
5.2596790782
 10
14.3145370376
 20
5.2644921165
 10
14.318759235
 20
5.2696414756
 10
14.3219519792
 20
5.2752844141
 10
14.323871956
 20
5.2810498588
 10
14.3244631933
 20
5.2866905209
  0
LWPOLYLINE
  5
442
330
1F
100
AcDbEntity
  8
0
  6
Continuous
 62
     7
370
    15
100
AcDbPolyline
 90
       20
 70
   128
 43
0.0
 10
14.2385359126
 20
5.3223970867
 10
14.2385016731
 20
5.322286921
 10
14.2392231048
 20
5.3203125871
 10
14.2412800974
 20
5.318550499
 10
14.2444749288
 20
5.3171529848
 10
14.2488941773
 20
5.3160733097
 10
14.2545726876
 20
5.3153687696
 10
14.2614316512
 20
5.3151153223
 10
14.2674171958
 20
5.315405238
 10
14.273837829
 20
5.3162966215
 10
14.2811693772
 20
5.3179636851
 10
14.2887086864
 20
5.3203684063
 10
14.2959727253
 20
5.3233765153
 10
14.303021794
 20
5.3270423256
 10
14.3091397365
 20
5.3310982576
 10
14.3145370376
 20
5.335911296
 10
14.318759235
 20
5.3410606551
 10
14.3219519792
 20
5.3467035936
 10
14.323871956
 20
5.3524690383
 10
14.3244631933
 20
5.3581097004
  0
LWPOLYLINE
  5
443
330
1F
100
AcDbEntity
  8
0
  6
Continuous
 62
     7
370
    15
100
AcDbPolyline
 90
       20
 70
   128
 43
0.0
 10
14.2385359126
 20
5.3938162662
 10
14.2385016731
 20
5.3937061005
 10
14.2392231048
 20
5.3917317666
 10
14.2412800974
 20
5.3899696785
 10
14.2444749288
 20
5.3885721643
 10
14.2488941773
 20
5.3874924892
 10
14.2545726876
 20
5.3867879491
 10
14.2614316512
 20
5.3865345018
 10
14.2674171958
 20
5.3868244175
 10
14.273837829
 20
5.387715801
 10
14.2811693772
 20
5.3893828646
 10
14.2887086864
 20
5.3917875858
 10
14.2959727253
 20
5.3947956948
 10
14.303021794
 20
5.398461505
 10
14.3091397365
 20
5.4025174371
 10
14.3145370376
 20
5.4073304755
 10
14.318759235
 20
5.4124798346
 10
14.3219519792
 20
5.4181227731
 10
14.323871956
 20
5.4238882178
 10
14.3244631933
 20
5.4295288799
  0
ARC
  5
444
330
1F
100
AcDbEntity
  8
0
  6
Continuous
 62
     7
370
    15
100
AcDbCircle
 10
14.2609760624
 20
5.3646401698
 30
0.0
 40
0.0503695128362168
100
AcDbArc
 50
258.8537429774
 51
287.557956143
  0
ARC
  5
445
330
1F
100
AcDbEntity
  8
0
  6
Continuous
 62
     7
370
    15
100
AcDbCircle
 10
14.2611757194
 20
5.2241847535
 30
0.0
 40
0.0527467669008369
100
AcDbArc
 50
259.1413438189
 51
290.591500157
  0
LWPOLYLINE
  5
446
330
1F
100
AcDbEntity
  8
0
  6
Continuous
 62
     7
370
    15
100
AcDbPolyline
 90
       14
 70
   128
 43
0.0
 10
14.320767909
 20
5.4474292122
 10
14.3243770604
 20
5.4364527104
 10
14.3228662049
 20
5.4248647692
 10
14.3163671739
 20
5.4138235537
 10
14.3054146973
 20
5.4043756667
 10
14.2916417834
 20
5.3973810311
 10
14.2767597985
 20
5.3927644834
 10
14.2614316512
 20
5.3909988434
 10
14.2508949611
 20
5.3916421521
 10
14.2424363837
 20
5.3938289494
 10
14.2386220455
 20
5.3974022171
 10
14.240132901
 20
5.4012470672
 10
14.246631932
 20
5.4040352528
 10
14.2489995529
 20
5.4043469051
  0
LWPOLYLINE
  5
447
330
1F
100
AcDbEntity
  8
0
  6
Continuous
 62
     7
370
    15
100
AcDbPolyline
 90
       14
 70
   128
 43
0.0
 10
14.3234035687
 20
5.3679942083
 10
14.3243770604
 20
5.3650335309
 10
14.3228662049
 20
5.3534455897
 10
14.3163671739
 20
5.3424043742
 10
14.3054146973
 20
5.3329564872
 10
14.2916417834
 20
5.3259618516
 10
14.2767597985
 20
5.3213453039
 10
14.2614316512
 20
5.3195796639
 10
14.2508949611
 20
5.3202229727
 10
14.2424363837
 20
5.3224097699
 10
14.2386220455
 20
5.3259830376
 10
14.240132901
 20
5.3298278877
 10
14.246631932
 20
5.3326160733
 10
14.2489995529
 20
5.3329277257
  0
LWPOLYLINE
  5
448
330
1F
100
AcDbEntity
  8
0
  6
Continuous
 62
     7
370
    15
100
AcDbPolyline
 90
       14
 70
   128
 43
0.0
 10
14.3234035687
 20
5.2965750288
 10
14.3243770604
 20
5.2936143514
 10
14.3228662049
 20
5.2820264102
 10
14.3163671739
 20
5.2709851947
 10
14.3054146973
 20
5.2615373077
 10
14.2916417834
 20
5.2545426721
 10
14.2767597985
 20
5.2499261244
 10
14.2614316512
 20
5.2481604844
 10
14.2508949611
 20
5.2488037932
 10
14.2424363837
 20
5.2509905904
 10
14.2386220455
 20
5.2545638581
 10
14.240132901
 20
5.2584087082
 10
14.246631932
 20
5.2611968938
 10
14.2489995529
 20
5.2615085462
  0
LWPOLYLINE
  5
449
330
1F
100
AcDbEntity
  8
0
  6
Continuous
 62
     7
370
    15
100
AcDbPolyline
 90
       14
 70
   128
 43
0.0
 10
14.3234035687
 20
5.2251558494
 10
14.3243770604
 20
5.2221951719
 10
14.3228662049
 20
5.2106072307
 10
14.3163671739
 20
5.1995660152
 10
14.3054146973
 20
5.1901181282
 10
14.2916417834
 20
5.1831234926
 10
14.2767597985
 20
5.178506945
 10
14.2614316512
 20
5.1767413049
 10
14.2508949611
 20
5.1773846137
 10
14.2424363837
 20
5.1795714109
 10
14.2386220455
 20
5.1831446787
 10
14.240132901
 20
5.1869895287
 10
14.246631932
 20
5.1897777143
 10
14.2489995529
 20
5.1900893667
  0
LWPOLYLINE
  5
44A
330
1F
100
AcDbEntity
  8
0
  6
Continuous
 62
     7
370
    15
100
AcDbPolyline
 90
        8
 70
   128
 43
0.0
 10
14.3234035687
 20
5.1537366699
 10
14.3243770604
 20
5.1507759924
 10
14.3228662049
 20
5.1391880512
 10
14.3163671739
 20
5.1281468357
 10
14.3054146973
 20
5.1186989487
 10
14.2916417834
 20
5.1117043132
 10
14.2767597985
 20
5.1070877655
 10
14.2727972392
 20
5.1063215889
  0
ARC
  5
44B
330
1F
100
AcDbEntity
  8
0
  6
Continuous
 62
     7
370
    15
100
AcDbCircle
 10
14.2813230621
 20
5.1300983717
 30
0.0
 40
0.0252591578830544
100
AcDbArc
 50
216.747017701
 51
250.2733010025
  0
ARC
  5
44C
330
1F
100
AcDbEntity
  8
0
  6
Continuous
 62
     7
370
    15
100
AcDbCircle
 10
14.2631332447
 20
5.1702284486
 30
0.0
 40
0.0552802216561085
100
AcDbArc
 50
267.8748036958
 51
333.340002304
  0
LWPOLYLINE
  5
44D
330
1F
100
AcDbEntity
  8
0
  6
Continuous
 62
     7
370
    15
100
AcDbPolyline
 90
       18
 70
   128
 43
0.0
 10
14.2491375914
 20
5.1892155668
 10
14.2492140057
 20
5.1885110008
 10
14.2503831958
 20
5.1875795648
 10
14.2525911471
 20
5.1868888111
 10
14.2556671923
 20
5.1864901305
 10
14.2596858177
 20
5.1863779029
 10
14.2628283764
 20
5.1864762773
 10
14.2663319528
 20
5.1867204501
 10
14.2716014751
 20
5.1874786746
 10
14.2772875784
 20
5.1888879947
 10
14.2829855155
 20
5.1908463562
 10
14.2887918841
 20
5.1933917899
 10
14.2943885985
 20
5.1964115228
 10
14.299759198
 20
5.1999444804
 10
14.3042370922
 20
5.2037835925
 10
14.3080638965
 20
5.2082112557
 10
14.3109396909
 20
5.2128615287
 10
14.3125363425
 20
5.2168436601
  0
LWPOLYLINE
  5
44E
330
1F
100
AcDbEntity
  8
0
  6
Continuous
 62
     7
370
    15
100
AcDbPolyline
 90
       18
 70
   128
 43
0.0
 10
14.2491375914
 20
5.2606347463
 10
14.2492140057
 20
5.2599301803
 10
14.2503831958
 20
5.2589987443
 10
14.2525911471
 20
5.2583079906
 10
14.2556671923
 20
5.25790931
 10
14.2596858177
 20
5.2577970824
 10
14.2628283764
 20
5.2578954568
 10
14.2663319528
 20
5.2581396296
 10
14.2716014751
 20
5.2588978541
 10
14.2772875784
 20
5.2603071742
 10
14.2829855155
 20
5.2622655357
 10
14.2887918841
 20
5.2648109694
 10
14.2943885985
 20
5.2678307023
 10
14.299759198
 20
5.2713636598
 10
14.3042370922
 20
5.275202772
 10
14.3080638965
 20
5.2796304352
 10
14.3109396909
 20
5.2842807081
 10
14.3125363425
 20
5.2882628396
  0
LWPOLYLINE
  5
44F
330
1F
100
AcDbEntity
  8
0
  6
Continuous
 62
     7
370
    15
100
AcDbPolyline
 90
       18
 70
   128
 43
0.0
 10
14.2491375914
 20
5.3320539258
 10
14.2492140057
 20
5.3313493598
 10
14.2503831958
 20
5.3304179238
 10
14.2525911471
 20
5.3297271701
 10
14.2556671923
 20
5.3293284895
 10
14.2596858177
 20
5.3292162619
 10
14.2628283764
 20
5.3293146363
 10
14.2663319528
 20
5.3295588091
 10
14.2716014751
 20
5.3303170336
 10
14.2772875784
 20
5.3317263537
 10
14.2829855155
 20
5.3336847152
 10
14.2887918841
 20
5.3362301489
 10
14.2943885985
 20
5.3392498818
 10
14.299759198
 20
5.3427828393
 10
14.3042370922
 20
5.3466219515
 10
14.3080638965
 20
5.3510496147
 10
14.3109396909
 20
5.3556998876
 10
14.3125363425
 20
5.3596820191
  0
LWPOLYLINE
  5
450
330
1F
100
AcDbEntity
  8
0
  6
Continuous
 62
     7
370
    15
100
AcDbPolyline
 90
       20
 70
   128
 43
0.0
 10
14.2491375914
 20
5.4034731053
 10
14.2492140057
 20
5.4027685393
 10
14.2503831958
 20
5.4018371033
 10
14.2525911471
 20
5.4011463496
 10
14.2556671923
 20
5.400747669
 10
14.2596858177
 20
5.4006354414
 10
14.2628283764
 20
5.4007338158
 10
14.2663319528
 20
5.4009779886
 10
14.2716014751
 20
5.4017362131
 10
14.2772875784
 20
5.4031455332
 10
14.2829855155
 20
5.4051038947
 10
14.2887918841
 20
5.4076493284
 10
14.2943885985
 20
5.4106690613
 10
14.299759198
 20
5.4142020188
 10
14.3042370922
 20
5.418041131
 10
14.3080638965
 20
5.4224687942
 10
14.3109396909
 20
5.4271190671
 10
14.3129428204
 20
5.4321149753
 10
14.3139106633
 20
5.4371615532
 10
14.3138615144
 20
5.4391797822
  0
ARC
  5
451
330
1F
100
AcDbEntity
  8
0
  6
Continuous
 62
     7
370
    15
100
AcDbCircle
 10
14.2815029313
 20
5.1886952267
 30
0.0
 40
0.082832392640014
100
AcDbArc
 50
263.9670666461
 51
275.1549658963
  0
ARC
  5
452
330
1F
100
AcDbEntity
  8
0
  6
Continuous
 62
     7
370
    15
100
AcDbCircle
 10
14.2648650251
 20
5.1306126984
 30
0.0
 40
0.0160775466025625
100
AcDbArc
 50
189.316450566
 51
256.3954613037
  0
LWPOLYLINE
  5
453
330
1F
100
AcDbEntity
  8
0
  6
Continuous
 62
     7
370
    15
100
AcDbPolyline
 90
       21
 70
   128
 43
0.0
 10
14.1911081101
 20
5.1053793815
 10
14.187751232
 20
5.1023426003
 10
14.1790936518
 20
5.0909596033
 10
14.1755711311
 20
5.0788697846
 10
14.1773603038
 20
5.0666793783
 10
14.1843714532
 20
5.0549996621
 10
14.1962530112
 20
5.0444163059
 10
14.2124091867
 20
5.0354600033
 10
14.2320298417
 20
5.0285798608
 10
14.2541311146
 20
5.0241208773
 10
14.2776047552
 20
5.022306645
 10
14.3012736973
 20
5.0232281371
 10
14.3239510812
 20
5.026839146
 10
14.3444997682
 20
5.0329586008
 10
14.3618893614
 20
5.0412796463
 10
14.3752478738
 20
5.0513850307
 10
14.383905454
 20
5.0627680277
 10
14.3874279748
 20
5.0748578464
 10
14.3856388021
 20
5.0870482527
 10
14.3786276526
 20
5.0987279689
 10
14.3718909958
 20
5.1053793815
  0
LWPOLYLINE
  5
454
330
1F
100
AcDbEntity
  8
0
  6
Continuous
 62
     7
370
    15
100
AcDbPolyline
 90
        6
 70
   128
 43
0.0
 10
11.9449782197
 20
5.9554226241
 10
11.9342337371
 20
5.9553456718
 10
11.9193118319
 20
5.9574518339
 10
11.9091741936
 20
5.9615469787
 10
11.9049646765
 20
5.9672436337
 10
11.9052886841
 20
5.9680447279
  0
LWPOLYLINE
  5
455
330
1F
100
AcDbEntity
  8
0
  6
Continuous
 62
     7
370
    15
100
AcDbPolyline
 90
       11
 70
   128
 43
0.0
 10
12.014515283
 20
5.9323852265
 10
12.0124790354
 20
5.9207393256
 10
12.0039519688
 20
5.9080179236
 10
11.990038
 20
5.8973753235
 10
11.9726544009
 20
5.8896933997
 10
11.9538565494
 20
5.8850181735
 10
11.9342337371
 20
5.8839264923
 10
11.9193118319
 20
5.8860326544
 10
11.9091741936
 20
5.8901277992
 10
11.9049646765
 20
5.8958244542
 10
11.9052886841
 20
5.8966255484
  0
LWPOLYLINE
  5
456
330
1F
100
AcDbEntity
  8
0
  6
Continuous
 62
     7
370
    15
100
AcDbPolyline
 90
       11
 70
   128
 43
0.0
 10
12.014515283
 20
5.860966047
 10
12.0124790354
 20
5.8493201461
 10
12.0039519688
 20
5.8365987441
 10
11.990038
 20
5.825956144
 10
11.9726544009
 20
5.8182742202
 10
11.9538565494
 20
5.813598994
 10
11.9342337371
 20
5.8125073128
 10
11.9193118319
 20
5.8146134749
 10
11.9091741936
 20
5.8187086197
 10
11.9049646765
 20
5.8244052747
 10
11.9052886841
 20
5.8252063689
  0
LWPOLYLINE
  5
457
330
1F
100
AcDbEntity
  8
0
  6
Continuous
 62
     7
370
    15
100
AcDbPolyline
 90
       11
 70
   128
 43
0.0
 10
12.014515283
 20
5.7895468675
 10
12.0124790354
 20
5.7779009666
 10
12.0039519688
 20
5.7651795646
 10
11.990038
 20
5.7545369646
 10
11.9726544009
 20
5.7468550407
 10
11.9538565494
 20
5.7421798145
 10
11.9342337371
 20
5.7410881333
 10
11.9193118319
 20
5.7431942954
 10
11.9091741936
 20
5.7472894402
 10
11.9049646765
 20
5.7529860952
 10
11.9052886841
 20
5.7537871894
  0
LWPOLYLINE
  5
458
330
1F
100
AcDbEntity
  8
0
  6
Continuous
 62
     7
370
    15
100
AcDbPolyline
 90
       11
 70
   128
 43
0.0
 10
12.014515283
 20
5.718127688
 10
12.0124790354
 20
5.7064817871
 10
12.0039519688
 20
5.6937603851
 10
11.990038
 20
5.6831177851
 10
11.9726544009
 20
5.6754358612
 10
11.9538565494
 20
5.670760635
 10
11.9342337371
 20
5.6696689538
 10
11.9193118319
 20
5.6717751159
 10
11.9091741936
 20
5.6758702607
 10
11.9049646765
 20
5.6815669157
 10
11.9052886841
 20
5.6823680099
  0
LWPOLYLINE
  5
459
330
1F
100
AcDbEntity
  8
0
  6
Continuous
 62
     7
370
    15
100
AcDbPolyline
 90
       11
 70
   128
 43
0.0
 10
11.9866246515
 20
6.0111181477
 10
11.9913347292
 20
6.0078772535
 10
11.9974383382
 20
6.0004631451
 10
11.9999762087
 20
5.9925482169
 10
11.9988893469
 20
5.9834625304
 10
11.9983624796
 20
5.9821029945
 10
11.9930452345
 20
5.9741193878
 10
11.9830250216
 20
5.9664740632
 10
11.9698020776
 20
5.9604751912
 10
11.9525720355
 20
5.9562367018
 10
11.9449782197
 20
5.9554226241
  0
LWPOLYLINE
  5
45A
330
1F
100
AcDbEntity
  8
0
  6
Continuous
 62
     7
370
    15
100
AcDbPolyline
 90
        3
 70
   128
 43
0.0
 10
11.9274022727
 20
5.6712874129
 10
11.9279274503
 20
5.6702049929
 10
11.9295298106
 20
5.6693393737
  0
LWPOLYLINE
  5
45B
330
1F
100
AcDbEntity
  8
0
  6
Continuous
 62
     7
370
    15
100
AcDbPolyline
 90
       10
 70
   128
 43
0.0
 10
11.9612046776
 20
5.985247956
 10
11.9544373814
 20
5.9830021552
 10
11.9476097916
 20
5.9815356556
 10
11.9447343834
 20
5.9811932531
 10
11.9398623072
 20
5.9808903023
 10
11.9355512442
 20
5.9808823331
 10
11.9321514743
 20
5.9811640403
 10
11.9295551486
 20
5.9817409942
 10
11.9279536498
 20
5.9825912363
 10
11.9274149262
 20
5.9836985999
  0
LWPOLYLINE
  5
45C
330
1F
100
AcDbEntity
  8
0
  6
Continuous
 62
     7
370
    15
100
AcDbPolyline
 90
       20
 70
   128
 43
0.0
 10
11.9923890409
 20
5.9479878059
 10
11.9924016774
 20
5.947869682
 10
11.9918619763
 20
5.9429460033
 10
11.9902670509
 20
5.9379038111
 10
11.9877573009
 20
5.9331474131
 10
11.9842682771
 20
5.9285546627
 10
11.9799792844
 20
5.9244235702
 10
11.9748232063
 20
5.920718135
 10
11.9694807118
 20
5.9176075209
 10
11.9637121012
 20
5.9148511936
 10
11.9579486995
 20
5.9126543918
 10
11.9520728984
 20
5.9109791168
 10
11.948355313
 20
5.9102338491
 10
11.9447343834
 20
5.9097740736
 10
11.9398623072
 20
5.9094711228
 10
11.9355512442
 20
5.9094631536
 10
11.9321514743
 20
5.9097448608
 10
11.9295551486
 20
5.9103218147
 10
11.9279536498
 20
5.9111720568
 10
11.9274149262
 20
5.9122794204
  0
LWPOLYLINE
  5
45D
330
1F
100
AcDbEntity
  8
0
  6
Continuous
 62
     7
370
    15
100
AcDbPolyline
 90
       20
 70
   128
 43
0.0
 10
11.9923890409
 20
5.8765686264
 10
11.9924016774
 20
5.8764505025
 10
11.9918619763
 20
5.8715268238
 10
11.9902670509
 20
5.8664846316
 10
11.9877573009
 20
5.8617282336
 10
11.9842682771
 20
5.8571354832
 10
11.9799792844
 20
5.8530043907
 10
11.9748232063
 20
5.8492989555
 10
11.9694807118
 20
5.8461883414
 10
11.9637121012
 20
5.8434320141
 10
11.9579486995
 20
5.8412352123
 10
11.9520728984
 20
5.8395599373
 10
11.948355313
 20
5.8388146696
 10
11.9447343834
 20
5.8383548941
 10
11.9398623072
 20
5.8380519433
 10
11.9355512442
 20
5.8380439741
 10
11.9321514743
 20
5.8383256813
 10
11.9295551486
 20
5.8389026352
 10
11.9279536498
 20
5.8397528773
 10
11.9274149262
 20
5.840860241
  0
LWPOLYLINE
  5
45E
330
1F
100
AcDbEntity
  8
0
  6
Continuous
 62
     7
370
    15
100
AcDbPolyline
 90
       20
 70
   128
 43
0.0
 10
11.9923890409
 20
5.8051494469
 10
11.9924016774
 20
5.805031323
 10
11.9918619763
 20
5.8001076443
 10
11.9902670509
 20
5.7950654521
 10
11.9877573009
 20
5.7903090541
 10
11.9842682771
 20
5.7857163037
 10
11.9799792844
 20
5.7815852112
 10
11.9748232063
 20
5.777879776
 10
11.9694807118
 20
5.7747691619
 10
11.9637121012
 20
5.7720128346
 10
11.9579486995
 20
5.7698160328
 10
11.9520728984
 20
5.7681407578
 10
11.948355313
 20
5.7673954901
 10
11.9447343834
 20
5.7669357146
 10
11.9398623072
 20
5.7666327638
 10
11.9355512442
 20
5.7666247946
 10
11.9321514743
 20
5.7669065018
 10
11.9295551486
 20
5.7674834557
 10
11.9279536498
 20
5.7683336978
 10
11.9274149262
 20
5.7694410615
  0
LWPOLYLINE
  5
45F
330
1F
100
AcDbEntity
  8
0
  6
Continuous
 62
     7
370
    15
100
AcDbPolyline
 90
       20
 70
   128
 43
0.0
 10
11.9923890409
 20
5.7337302674
 10
11.9924016774
 20
5.7336121435
 10
11.9918619763
 20
5.7286884648
 10
11.9902670509
 20
5.7236462726
 10
11.9877573009
 20
5.7188898746
 10
11.9842682771
 20
5.7142971242
 10
11.9799792844
 20
5.7101660317
 10
11.9748232063
 20
5.7064605965
 10
11.9694807118
 20
5.7033499824
 10
11.9637121012
 20
5.7005936551
 10
11.9579486995
 20
5.6983968533
 10
11.9520728984
 20
5.6967215783
 10
11.948355313
 20
5.6959763106
 10
11.9447343834
 20
5.6955165351
 10
11.9398623072
 20
5.6952135843
 10
11.9355512442
 20
5.6952056151
 10
11.9321514743
 20
5.6954873223
 10
11.9295551486
 20
5.6960642762
 10
11.9279536498
 20
5.6969145183
 10
11.9274149262
 20
5.698021882
  0
ARC
  5
460
330
1F
100
AcDbEntity
  8
0
  6
Continuous
 62
     7
370
    15
100
AcDbCircle
 10
11.9067307333
 20
6.0267791686
 30
0.0
 40
0.0685000162331202
100
AcDbArc
 50
285.5102972121
 51
322.6779182016
  0
LWPOLYLINE
  5
461
330
1F
100
AcDbEntity
  8
0
  6
Continuous
 62
     7
370
    15
100
AcDbPolyline
 90
        7
 70
   128
 43
0.0
 10
11.9250484292
 20
5.9607737579
 10
11.9126572397
 20
5.9641202746
 10
11.9058922111
 20
5.9692375513
 10
11.9055905702
 20
5.9753009607
 10
11.9117127409
 20
5.9804543845
 10
11.9236158232
 20
5.9840488127
 10
11.9274019835
 20
5.9843616756
  0
LWPOLYLINE
  5
462
330
1F
100
AcDbEntity
  8
0
  6
Continuous
 62
     7
370
    15
100
AcDbPolyline
 90
       15
 70
   128
 43
0.0
 10
12.0022756157
 20
5.9622822363
 10
12.0106297735
 20
5.952193328
 10
12.0148392906
 20
5.9387020204
 10
12.0124790354
 20
5.9252030243
 10
12.0039519688
 20
5.9124816223
 10
11.990038
 20
5.9018390223
 10
11.9726544009
 20
5.8941570984
 10
11.9538565494
 20
5.8894818722
 10
11.9342337371
 20
5.888390191
 10
11.9193118319
 20
5.8904963531
 10
11.9091741936
 20
5.8945914979
 10
11.9049646765
 20
5.9002881529
 10
11.9073249316
 20
5.9061237776
 10
11.9158519983
 20
5.9106957855
 10
11.9274019835
 20
5.9130419268
  0
LWPOLYLINE
  5
463
330
1F
100
AcDbEntity
  8
0
  6
Continuous
 62
     7
370
    15
100
AcDbPolyline
 90
       15
 70
   128
 43
0.0
 10
12.0022756157
 20
5.8908630568
 10
12.0106297735
 20
5.8807741486
 10
12.0148392906
 20
5.8672828409
 10
12.0124790354
 20
5.8537838449
 10
12.0039519688
 20
5.8410624428
 10
11.990038
 20
5.8304198428
 10
11.9726544009
 20
5.8227379189
 10
11.9538565494
 20
5.8180626927
 10
11.9342337371
 20
5.8169710115
 10
11.9193118319
 20
5.8190771736
 10
11.9091741936
 20
5.8231723184
 10
11.9049646765
 20
5.8288689734
 10
11.9073249316
 20
5.8347045981
 10
11.9158519983
 20
5.839276606
 10
11.9274019835
 20
5.8416227473
  0
LWPOLYLINE
  5
464
330
1F
100
AcDbEntity
  8
0
  6
Continuous
 62
     7
370
    15
100
AcDbPolyline
 90
       15
 70
   128
 43
0.0
 10
12.0022756157
 20
5.8194438773
 10
12.0106297735
 20
5.8093549691
 10
12.0148392906
 20
5.7958636614
 10
12.0124790354
 20
5.7823646654
 10
12.0039519688
 20
5.7696432633
 10
11.990038
 20
5.7590006633
 10
11.9726544009
 20
5.7513187394
 10
11.9538565494
 20
5.7466435132
 10
11.9342337371
 20
5.745551832
 10
11.9193118319
 20
5.7476579941
 10
11.9091741936
 20
5.7517531389
 10
11.9049646765
 20
5.7574497939
 10
11.9073249316
 20
5.7632854186
 10
11.9158519983
 20
5.7678574265
 10
11.9274019835
 20
5.7702035678
  0
LWPOLYLINE
  5
465
330
1F
100
AcDbEntity
  8
0
  6
Continuous
 62
     7
370
    15
100
AcDbPolyline
 90
       15
 70
   128
 43
0.0
 10
12.0022756157
 20
5.7480246978
 10
12.0106297735
 20
5.7379357896
 10
12.0148392906
 20
5.7244444819
 10
12.0124790354
 20
5.7109454859
 10
12.0039519688
 20
5.6982240838
 10
11.990038
 20
5.6875814838
 10
11.9726544009
 20
5.6798995599
 10
11.9538565494
 20
5.6752243338
 10
11.9342337371
 20
5.6741326526
 10
11.9193118319
 20
5.6762388146
 10
11.9091741936
 20
5.6803339595
 10
11.9049646765
 20
5.6860306145
 10
11.9073249316
 20
5.6918662391
 10
11.9158519983
 20
5.696438247
 10
11.9274019835
 20
5.6987843883
  0
ARC
  5
466
330
1F
100
AcDbEntity
  8
0
  6
Continuous
 62
     7
370
    15
100
AcDbCircle
 10
11.9560881767
 20
6.0365894795
 30
0.0
 40
0.0819236812857612
100
AcDbArc
 50
247.7352952677
 51
262.2059030063
  0
ARC
  5
467
330
1F
100
AcDbEntity
  8
0
  6
Continuous
 62
     7
370
    15
100
AcDbCircle
 10
11.9568123355
 20
6.0238112395
 30
0.0
 40
0.0388126203903147
100
AcDbArc
 50
224.4245806242
 51
276.4979626201
  0
LWPOLYLINE
  5
468
330
1F
100
AcDbEntity
  8
0
  6
Continuous
 62
     7
370
    15
100
AcDbPolyline
 90
        8
 70
   128
 43
0.0
 10
11.9274970317
 20
6.0075608088
 10
11.9269328467
 20
6.0072264069
 10
11.9252048269
 20
6.0056330597
 10
11.9240408493
 20
6.0035736283
 10
11.923994774
 20
6.0014121858
 10
11.9250702504
 20
5.9993283686
 10
11.9274456826
 20
5.9974043123
 10
11.9290934313
 20
5.9966435776
  0
LWPOLYLINE
  5
469
330
1F
100
AcDbEntity
  8
0
  6
Continuous
 62
     7
370
    15
100
AcDbPolyline
 90
       17
 70
   128
 43
0.0
 10
11.9734361498
 20
6.0181830883
 10
11.9822210355
 20
6.0145100177
 10
11.9876080478
 20
6.0093850725
 10
11.988777063
 20
6.003588479
 10
11.9855501091
 20
5.9980027161
 10
11.9784184605
 20
5.9934781655
 10
11.9684678463
 20
5.9907036491
 10
11.957213157
 20
5.9901015617
 10
11.9463678173
 20
5.9917635659
 10
11.9375829316
 20
5.9954366364
 10
11.9321959193
 20
6.0005615816
 10
11.9310269041
 20
6.0063581751
 10
11.934253858
 20
6.011943938
 10
11.9413855065
 20
6.0164684886
 10
11.9513361208
 20
6.0192430051
 10
11.96259081
 20
6.0198450924
 10
11.9734361498
 20
6.0181830883
  0
LWPOLYLINE
  5
46A
330
1F
100
AcDbEntity
  8
0
  6
Continuous
 62
     7
370
    15
100
AcDbPolyline
 90
       15
 70
   128
 43
0.0
 10
12.0029019835
 20
5.68405437
 10
12.0101529472
 20
5.6779070094
 10
12.0145825991
 20
5.6694405673
 10
12.0137729374
 20
5.660682045
 10
12.0078015411
 20
5.6524706547
 10
11.9972405695
 20
5.6455931845
 10
11.9831019394
 20
5.6407086105
 10
11.9667403672
 20
5.6382849563
 10
11.949723564
 20
5.6385544483
 10
11.9336820229
 20
5.6414912647
 10
11.9201527907
 20
5.6468140095
 10
11.9104321931
 20
5.6540126752
 10
11.9054516254
 20
5.6623975097
 10
11.9056883088
 20
5.6711651062
 10
11.9086546946
 20
5.6766764508
  0
LWPOLYLINE
  5
46B
330
1F
100
AcDbEntity
  8
0
  6
Continuous
 62
     7
370
    15
100
AcDbPolyline
 90
       12
 70
   128
 43
0.0
 10
11.9049019835
 20
5.665535076
 10
11.9054615559
 20
5.6615045999
 10
11.9105442999
 20
5.653037371
 10
11.9204585179
 20
5.6457935045
 10
11.9342337371
 20
5.6404820806
 10
11.9505215432
 20
5.6376230184
 10
11.9677275721
 20
5.6374961829
 10
11.9841675778
 20
5.6401139896
 10
11.9982322982
 20
5.6452201894
 10
12.0085449802
 20
5.6523149518
 10
12.0140961469
 20
5.660703792
 10
12.0149019835
 20
5.665535076
  0
ARC
  5
46C
330
1F
100
AcDbEntity
  8
0
  6
Continuous
 62
     7
370
    15
100
AcDbCircle
 10
11.9585105889
 20
5.6884164878
 30
0.0
 40
0.0447182380675892
100
AcDbArc
 50
281.3978543727
 51
352.0501004919
  0
LWPOLYLINE
  5
46D
330
1F
100
AcDbEntity
  8
0
  6
Continuous
 62
     7
370
    15
100
AcDbPolyline
 90
       20
 70
   128
 43
0.0
 10
11.9169383431
 20
5.7179410209
 10
11.9169041037
 20
5.7178308552
 10
11.9176255353
 20
5.7158565213
 10
11.919682528
 20
5.7140944332
 10
11.9228773594
 20
5.712696919
 10
11.9272966078
 20
5.7116172439
 10
11.9329751182
 20
5.7109127037
 10
11.9398340818
 20
5.7106592565
 10
11.9458196264
 20
5.7109491722
 10
11.9522402596
 20
5.7118405557
 10
11.9595718078
 20
5.7135076193
 10
11.967111117
 20
5.7159123405
 10
11.9743751559
 20
5.7189204495
 10
11.9814242246
 20
5.7225862597
 10
11.9875421671
 20
5.7266421918
 10
11.9929394682
 20
5.7314552302
 10
11.9971616656
 20
5.7366045893
 10
12.0003544098
 20
5.7422475278
 10
12.0022743866
 20
5.7480129725
 10
12.0028656239
 20
5.7536536346
  0
LWPOLYLINE
  5
46E
330
1F
100
AcDbEntity
  8
0
  6
Continuous
 62
     7
370
    15
100
AcDbPolyline
 90
       20
 70
   128
 43
0.0
 10
11.9169383431
 20
5.7893602004
 10
11.9169041037
 20
5.7892500347
 10
11.9176255353
 20
5.7872757008
 10
11.919682528
 20
5.7855136127
 10
11.9228773594
 20
5.7841160985
 10
11.9272966078
 20
5.7830364234
 10
11.9329751182
 20
5.7823318832
 10
11.9398340818
 20
5.782078436
 10
11.9458196264
 20
5.7823683516
 10
11.9522402596
 20
5.7832597352
 10
11.9595718078
 20
5.7849267988
 10
11.967111117
 20
5.78733152
 10
11.9743751559
 20
5.790339629
 10
11.9814242246
 20
5.7940054392
 10
11.9875421671
 20
5.7980613713
 10
11.9929394682
 20
5.8028744097
 10
11.9971616656
 20
5.8080237688
 10
12.0003544098
 20
5.8136667073
 10
12.0022743866
 20
5.819432152
 10
12.0028656239
 20
5.8250728141
  0
LWPOLYLINE
  5
46F
330
1F
100
AcDbEntity
  8
0
  6
Continuous
 62
     7
370
    15
100
AcDbPolyline
 90
       20
 70
   128
 43
0.0
 10
11.9169383431
 20
5.8607793799
 10
11.9169041037
 20
5.8606692142
 10
11.9176255353
 20
5.8586948803
 10
11.919682528
 20
5.8569327922
 10
11.9228773594
 20
5.855535278
 10
11.9272966078
 20
5.8544556029
 10
11.9329751182
 20
5.8537510627
 10
11.9398340818
 20
5.8534976155
 10
11.9458196264
 20
5.8537875311
 10
11.9522402596
 20
5.8546789147
 10
11.9595718078
 20
5.8563459783
 10
11.967111117
 20
5.8587506995
 10
11.9743751559
 20
5.8617588085
 10
11.9814242246
 20
5.8654246187
 10
11.9875421671
 20
5.8694805508
 10
11.9929394682
 20
5.8742935891
 10
11.9971616656
 20
5.8794429483
 10
12.0003544098
 20
5.8850858868
 10
12.0022743866
 20
5.8908513315
 10
12.0028656239
 20
5.8964919936
  0
LWPOLYLINE
  5
470
330
1F
100
AcDbEntity
  8
0
  6
Continuous
 62
     7
370
    15
100
AcDbPolyline
 90
       20
 70
   128
 43
0.0
 10
11.9169383431
 20
5.9321985594
 10
11.9169041037
 20
5.9320883937
 10
11.9176255353
 20
5.9301140598
 10
11.919682528
 20
5.9283519717
 10
11.9228773594
 20
5.9269544575
 10
11.9272966078
 20
5.9258747824
 10
11.9329751182
 20
5.9251702422
 10
11.9398340818
 20
5.924916795
 10
11.9458196264
 20
5.9252067106
 10
11.9522402596
 20
5.9260980942
 10
11.9595718078
 20
5.9277651578
 10
11.967111117
 20
5.930169879
 10
11.9743751559
 20
5.933177988
 10
11.9814242246
 20
5.9368437982
 10
11.9875421671
 20
5.9408997303
 10
11.9929394682
 20
5.9457127686
 10
11.9971616656
 20
5.9508621277
 10
12.0003544098
 20
5.9565050663
 10
12.0022743866
 20
5.962270511
 10
12.0028656239
 20
5.9679111731
  0
ARC
  5
471
330
1F
100
AcDbEntity
  8
0
  6
Continuous
 62
     7
370
    15
100
AcDbCircle
 10
11.939378493
 20
5.903022463
 30
0.0
 40
0.0503695128361546
100
AcDbArc
 50
258.8537429774
 51
287.557956143
  0
ARC
  5
472
330
1F
100
AcDbEntity
  8
0
  6
Continuous
 62
     7
370
    15
100
AcDbCircle
 10
11.93957815
 20
5.7625670467
 30
0.0
 40
0.0527467669008596
100
AcDbArc
 50
259.1413438189
 51
290.591500157
  0
LWPOLYLINE
  5
473
330
1F
100
AcDbEntity
  8
0
  6
Continuous
 62
     7
370
    15
100
AcDbPolyline
 90
       14
 70
   128
 43
0.0
 10
11.9991703396
 20
5.9858115054
 10
12.002779491
 20
5.9748350035
 10
12.0012686355
 20
5.9632470624
 10
11.9947696045
 20
5.9522058469
 10
11.9838171279
 20
5.9427579599
 10
11.970044214
 20
5.9357633243
 10
11.9551622291
 20
5.9311467766
 10
11.9398340818
 20
5.9293811366
 10
11.9292973917
 20
5.9300244453
 10
11.9208388143
 20
5.9322112426
 10
11.9170244761
 20
5.9357845103
 10
11.9185353316
 20
5.9396293603
 10
11.9250343626
 20
5.942417546
 10
11.9274019835
 20
5.9427291983
  0
LWPOLYLINE
  5
474
330
1F
100
AcDbEntity
  8
0
  6
Continuous
 62
     7
370
    15
100
AcDbPolyline
 90
       14
 70
   128
 43
0.0
 10
12.0018059993
 20
5.9063765015
 10
12.002779491
 20
5.9034158241
 10
12.0012686355
 20
5.8918278829
 10
11.9947696045
 20
5.8807866674
 10
11.9838171279
 20
5.8713387804
 10
11.970044214
 20
5.8643441448
 10
11.9551622291
 20
5.8597275971
 10
11.9398340818
 20
5.8579619571
 10
11.9292973917
 20
5.8586052658
 10
11.9208388143
 20
5.8607920631
 10
11.9170244761
 20
5.8643653308
 10
11.9185353316
 20
5.8682101808
 10
11.9250343626
 20
5.8709983665
 10
11.9274019835
 20
5.8713100188
  0
LWPOLYLINE
  5
475
330
1F
100
AcDbEntity
  8
0
  6
Continuous
 62
     7
370
    15
100
AcDbPolyline
 90
       14
 70
   128
 43
0.0
 10
12.0018059993
 20
5.834957322
 10
12.002779491
 20
5.8319966446
 10
12.0012686355
 20
5.8204087034
 10
11.9947696045
 20
5.8093674879
 10
11.9838171279
 20
5.7999196009
 10
11.970044214
 20
5.7929249653
 10
11.9551622291
 20
5.7883084176
 10
11.9398340818
 20
5.7865427776
 10
11.9292973917
 20
5.7871860863
 10
11.9208388143
 20
5.7893728836
 10
11.9170244761
 20
5.7929461513
 10
11.9185353316
 20
5.7967910013
 10
11.9250343626
 20
5.799579187
 10
11.9274019835
 20
5.7998908393
  0
LWPOLYLINE
  5
476
330
1F
100
AcDbEntity
  8
0
  6
Continuous
 62
     7
370
    15
100
AcDbPolyline
 90
       14
 70
   128
 43
0.0
 10
12.0018059993
 20
5.7635381425
 10
12.002779491
 20
5.7605774651
 10
12.0012686355
 20
5.7489895239
 10
11.9947696045
 20
5.7379483084
 10
11.9838171279
 20
5.7285004214
 10
11.970044214
 20
5.7215057858
 10
11.9551622291
 20
5.7168892381
 10
11.9398340818
 20
5.7151235981
 10
11.9292973917
 20
5.7157669068
 10
11.9208388143
 20
5.7179537041
 10
11.9170244761
 20
5.7215269718
 10
11.9185353316
 20
5.7253718219
 10
11.9250343626
 20
5.7281600075
 10
11.9274019835
 20
5.7284716598
  0
LWPOLYLINE
  5
477
330
1F
100
AcDbEntity
  8
0
  6
Continuous
 62
     7
370
    15
100
AcDbPolyline
 90
        8
 70
   128
 43
0.0
 10
12.0018059993
 20
5.692118963
 10
12.002779491
 20
5.6891582856
 10
12.0012686355
 20
5.6775703444
 10
11.9947696045
 20
5.6665291289
 10
11.9838171279
 20
5.6570812419
 10
11.970044214
 20
5.6500866063
 10
11.9551622291
 20
5.6454700586
 10
11.9511996698
 20
5.6447038821
  0
ARC
  5
478
330
1F
100
AcDbEntity
  8
0
  6
Continuous
 62
     7
370
    15
100
AcDbCircle
 10
11.9597254927
 20
5.6684806649
 30
0.0
 40
0.02525915788306
100
AcDbArc
 50
216.747017701
 51
250.2733010025
  0
ARC
  5
479
330
1F
100
AcDbEntity
  8
0
  6
Continuous
 62
     7
370
    15
100
AcDbCircle
 10
11.9415356753
 20
5.7086107418
 30
0.0
 40
0.0552802216560998
100
AcDbArc
 50
267.8748036958
 51
333.340002304
  0
LWPOLYLINE
  5
47A
330
1F
100
AcDbEntity
  8
0
  6
Continuous
 62
     7
370
    15
100
AcDbPolyline
 90
       18
 70
   128
 43
0.0
 10
11.927540022
 20
5.72759786
 10
11.9276164363
 20
5.726893294
 10
11.9287856264
 20
5.725961858
 10
11.9309935777
 20
5.7252711043
 10
11.9340696229
 20
5.7248724237
 10
11.9380882483
 20
5.7247601961
 10
11.941230807
 20
5.7248585705
 10
11.9447343834
 20
5.7251027433
 10
11.9500039057
 20
5.7258609678
 10
11.955690009
 20
5.7272702879
 10
11.9613879461
 20
5.7292286494
 10
11.9671943147
 20
5.7317740831
 10
11.9727910291
 20
5.734793816
 10
11.9781616286
 20
5.7383267735
 10
11.9826395228
 20
5.7421658857
 10
11.9864663271
 20
5.7465935489
 10
11.9893421215
 20
5.7512438218
 10
11.9909387731
 20
5.7552259533
  0
LWPOLYLINE
  5
47B
330
1F
100
AcDbEntity
  8
0
  6
Continuous
 62
     7
370
    15
100
AcDbPolyline
 90
       18
 70
   128
 43
0.0
 10
11.927540022
 20
5.7990170395
 10
11.9276164363
 20
5.7983124735
 10
11.9287856264
 20
5.7973810375
 10
11.9309935777
 20
5.7966902838
 10
11.9340696229
 20
5.7962916032
 10
11.9380882483
 20
5.7961793756
 10
11.941230807
 20
5.79627775
 10
11.9447343834
 20
5.7965219228
 10
11.9500039057
 20
5.7972801473
 10
11.955690009
 20
5.7986894674
 10
11.9613879461
 20
5.8006478289
 10
11.9671943147
 20
5.8031932626
 10
11.9727910291
 20
5.8062129955
 10
11.9781616286
 20
5.809745953
 10
11.9826395228
 20
5.8135850652
 10
11.9864663271
 20
5.8180127284
 10
11.9893421215
 20
5.8226630013
 10
11.9909387731
 20
5.8266451328
  0
LWPOLYLINE
  5
47C
330
1F
100
AcDbEntity
  8
0
  6
Continuous
 62
     7
370
    15
100
AcDbPolyline
 90
       18
 70
   128
 43
0.0
 10
11.927540022
 20
5.870436219
 10
11.9276164363
 20
5.869731653
 10
11.9287856264
 20
5.868800217
 10
11.9309935777
 20
5.8681094632
 10
11.9340696229
 20
5.8677107827
 10
11.9380882483
 20
5.8675985551
 10
11.941230807
 20
5.8676969295
 10
11.9447343834
 20
5.8679411023
 10
11.9500039057
 20
5.8686993268
 10
11.955690009
 20
5.8701086469
 10
11.9613879461
 20
5.8720670084
 10
11.9671943147
 20
5.8746124421
 10
11.9727910291
 20
5.8776321749
 10
11.9781616286
 20
5.8811651325
 10
11.9826395228
 20
5.8850042447
 10
11.9864663271
 20
5.8894319079
 10
11.9893421215
 20
5.8940821808
 10
11.9909387731
 20
5.8980643123
  0
LWPOLYLINE
  5
47D
330
1F
100
AcDbEntity
  8
0
  6
Continuous
 62
     7
370
    15
100
AcDbPolyline
 90
       20
 70
   128
 43
0.0
 10
11.927540022
 20
5.9418553985
 10
11.9276164363
 20
5.9411508325
 10
11.9287856264
 20
5.9402193965
 10
11.9309935777
 20
5.9395286427
 10
11.9340696229
 20
5.9391299622
 10
11.9380882483
 20
5.9390177346
 10
11.941230807
 20
5.939116109
 10
11.9447343834
 20
5.9393602817
 10
11.9500039057
 20
5.9401185063
 10
11.955690009
 20
5.9415278264
 10
11.9613879461
 20
5.9434861878
 10
11.9671943147
 20
5.9460316216
 10
11.9727910291
 20
5.9490513544
 10
11.9781616286
 20
5.952584312
 10
11.9826395228
 20
5.9564234242
 10
11.9864663271
 20
5.9608510874
 10
11.9893421215
 20
5.9655013603
 10
11.991345251
 20
5.9704972685
 10
11.9923130939
 20
5.9755438464
 10
11.992263945
 20
5.9775620754
  0
ARC
  5
47E
330
1F
100
AcDbEntity
  8
0
  6
Continuous
 62
     7
370
    15
100
AcDbCircle
 10
11.9599053619
 20
5.7270775199
 30
0.0
 40
0.0828323926403447
100
AcDbArc
 50
263.9670666461
 51
275.1549658963
  0
ARC
  5
47F
330
1F
100
AcDbEntity
  8
0
  6
Continuous
 62
     7
370
    15
100
AcDbCircle
 10
11.9432674557
 20
5.6689949916
 30
0.0
 40
0.0160775466025599
100
AcDbArc
 50
189.316450566
 51
256.3954613037
  0
LWPOLYLINE
  5
480
330
1F
100
AcDbEntity
  8
0
  6
Continuous
 62
     7
370
    15
100
AcDbPolyline
 90
       21
 70
   128
 43
0.0
 10
11.8695105407
 20
5.6437616747
 10
11.8661536626
 20
5.6407248935
 10
11.8574960824
 20
5.6293418965
 10
11.8539735617
 20
5.6172520778
 10
11.8557627344
 20
5.6050616714
 10
11.8627738838
 20
5.5933819553
 10
11.8746554418
 20
5.5827985991
 10
11.8908116173
 20
5.5738422965
 10
11.9104322723
 20
5.566962154
 10
11.9325335452
 20
5.5625031705
 10
11.9560071858
 20
5.5606889382
 10
11.9796761279
 20
5.5616104303
 10
12.0023535118
 20
5.5652214392
 10
12.0229021988
 20
5.5713408939
 10
12.040291792
 20
5.5796619395
 10
12.0536503044
 20
5.5897673239
 10
12.0623078846
 20
5.6011503209
 10
12.0658304054
 20
5.6132401396
 10
12.0640412327
 20
5.6254305459
 10
12.0570300832
 20
5.6371102621
 10
12.0502934264
 20
5.6437616747
  0
LWPOLYLINE
  5
481
330
1F
100
AcDbEntity
  8
0
  6
Continuous
 62
     7
370
    15
100
AcDbPolyline
 90
        6
 70
   128
 43
0.0
 10
15.0249557961
 20
6.1682859848
 10
15.0142113136
 20
6.1682090325
 10
14.9992894083
 20
6.1703151945
 10
14.98915177
 20
6.1744103394
 10
14.9849422529
 20
6.1801069944
 10
14.9852662605
 20
6.1809080886
  0
LWPOLYLINE
  5
482
330
1F
100
AcDbEntity
  8
0
  6
Continuous
 62
     7
370
    15
100
AcDbPolyline
 90
       11
 70
   128
 43
0.0
 10
15.0944928594
 20
6.1452485872
 10
15.0924566119
 20
6.1336026863
 10
15.0839295452
 20
6.1208812842
 10
15.0700155765
 20
6.1102386842
 10
15.0526319773
 20
6.1025567603
 10
15.0338341258
 20
6.0978815342
 10
15.0142113136
 20
6.096789853
 10
14.9992894083
 20
6.098896015
 10
14.98915177
 20
6.1029911599
 10
14.9849422529
 20
6.1086878149
 10
14.9852662605
 20
6.1094889091
  0
LWPOLYLINE
  5
483
330
1F
100
AcDbEntity
  8
0
  6
Continuous
 62
     7
370
    15
100
AcDbPolyline
 90
       11
 70
   128
 43
0.0
 10
15.0944928594
 20
6.0738294077
 10
15.0924566119
 20
6.0621835068
 10
15.0839295452
 20
6.0494621047
 10
15.0700155765
 20
6.0388195047
 10
15.0526319773
 20
6.0311375808
 10
15.0338341258
 20
6.0264623547
 10
15.0142113136
 20
6.0253706735
 10
14.9992894083
 20
6.0274768355
 10
14.98915177
 20
6.0315719804
 10
14.9849422529
 20
6.0372686354
 10
14.9852662605
 20
6.0380697296
  0
LWPOLYLINE
  5
484
330
1F
100
AcDbEntity
  8
0
  6
Continuous
 62
     7
370
    15
100
AcDbPolyline
 90
       11
 70
   128
 43
0.0
 10
15.0944928594
 20
6.0024102282
 10
15.0924566119
 20
5.9907643273
 10
15.0839295452
 20
5.9780429252
 10
15.0700155765
 20
5.9674003252
 10
15.0526319773
 20
5.9597184013
 10
15.0338341258
 20
5.9550431752
 10
15.0142113136
 20
5.953951494
 10
14.9992894083
 20
5.956057656
 10
14.98915177
 20
5.9601528009
 10
14.9849422529
 20
5.9658494559
 10
14.9852662605
 20
5.9666505501
  0
LWPOLYLINE
  5
485
330
1F
100
AcDbEntity
  8
0
  6
Continuous
 62
     7
370
    15
100
AcDbPolyline
 90
       11
 70
   128
 43
0.0
 10
15.0944928594
 20
5.9309910487
 10
15.0924566119
 20
5.9193451478
 10
15.0839295452
 20
5.9066237457
 10
15.0700155765
 20
5.8959811457
 10
15.0526319773
 20
5.8882992218
 10
15.0338341258
 20
5.8836239957
 10
15.0142113136
 20
5.8825323145
 10
14.9992894083
 20
5.8846384765
 10
14.98915177
 20
5.8887336214
 10
14.9849422529
 20
5.8944302764
 10
14.9852662605
 20
5.8952313706
  0
LWPOLYLINE
  5
486
330
1F
100
AcDbEntity
  8
0
  6
Continuous
 62
     7
370
    15
100
AcDbPolyline
 90
       11
 70
   128
 43
0.0
 10
15.066602228
 20
6.2239815083
 10
15.0713123057
 20
6.2207406142
 10
15.0774159146
 20
6.2133265058
 10
15.0799537851
 20
6.2054115775
 10
15.0788669233
 20
6.196325891
 10
15.078340056
 20
6.1949663551
 10
15.0730228109
 20
6.1869827484
 10
15.063002598
 20
6.1793374239
 10
15.049779654
 20
6.1733385519
 10
15.0325496119
 20
6.1691000624
 10
15.0249557961
 20
6.1682859848
  0
LWPOLYLINE
  5
487
330
1F
100
AcDbEntity
  8
0
  6
Continuous
 62
     7
370
    15
100
AcDbPolyline
 90
        3
 70
   128
 43
0.0
 10
15.0073798491
 20
5.8841507735
 10
15.0079050267
 20
5.8830683535
 10
15.0095073871
 20
5.8822027343
  0
LWPOLYLINE
  5
488
330
1F
100
AcDbEntity
  8
0
  6
Continuous
 62
     7
370
    15
100
AcDbPolyline
 90
       10
 70
   128
 43
0.0
 10
15.041182254
 20
6.1981113167
 10
15.0344149578
 20
6.1958655158
 10
15.0275873681
 20
6.1943990162
 10
15.0247119598
 20
6.1940566137
 10
15.0198398836
 20
6.1937536629
 10
15.0155288207
 20
6.1937456937
 10
15.0121290507
 20
6.1940274009
 10
15.009532725
 20
6.1946043548
 10
15.0079312262
 20
6.1954545969
 10
15.0073925026
 20
6.1965619606
  0
LWPOLYLINE
  5
489
330
1F
100
AcDbEntity
  8
0
  6
Continuous
 62
     7
370
    15
100
AcDbPolyline
 90
       20
 70
   128
 43
0.0
 10
15.0723666173
 20
6.1608511666
 10
15.0723792538
 20
6.1607330426
 10
15.0718395527
 20
6.1558093639
 10
15.0702446274
 20
6.1507671717
 10
15.0677348774
 20
6.1460107737
 10
15.0642458535
 20
6.1414180234
 10
15.0599568608
 20
6.1372869308
 10
15.0548007827
 20
6.1335814956
 10
15.0494582882
 20
6.1304708816
 10
15.0436896777
 20
6.1277145542
 10
15.037926276
 20
6.1255177525
 10
15.0320504748
 20
6.1238424774
 10
15.0283328894
 20
6.1230972097
 10
15.0247119598
 20
6.1226374342
 10
15.0198398836
 20
6.1223344834
 10
15.0155288207
 20
6.1223265142
 10
15.0121290507
 20
6.1226082214
 10
15.009532725
 20
6.1231851753
 10
15.0079312262
 20
6.1240354174
 10
15.0073925026
 20
6.1251427811
  0
LWPOLYLINE
  5
48A
330
1F
100
AcDbEntity
  8
0
  6
Continuous
 62
     7
370
    15
100
AcDbPolyline
 90
       20
 70
   128
 43
0.0
 10
15.0723666173
 20
6.0894319871
 10
15.0723792538
 20
6.0893138631
 10
15.0718395527
 20
6.0843901844
 10
15.0702446274
 20
6.0793479922
 10
15.0677348774
 20
6.0745915942
 10
15.0642458535
 20
6.0699988439
 10
15.0599568608
 20
6.0658677513
 10
15.0548007827
 20
6.0621623161
 10
15.0494582882
 20
6.0590517021
 10
15.0436896777
 20
6.0562953747
 10
15.037926276
 20
6.054098573
 10
15.0320504748
 20
6.0524232979
 10
15.0283328894
 20
6.0516780302
 10
15.0247119598
 20
6.0512182547
 10
15.0198398836
 20
6.0509153039
 10
15.0155288207
 20
6.0509073347
 10
15.0121290507
 20
6.0511890419
 10
15.009532725
 20
6.0517659958
 10
15.0079312262
 20
6.052616238
 10
15.0073925026
 20
6.0537236016
  0
LWPOLYLINE
  5
48B
330
1F
100
AcDbEntity
  8
0
  6
Continuous
 62
     7
370
    15
100
AcDbPolyline
 90
       20
 70
   128
 43
0.0
 10
15.0723666173
 20
6.0180128076
 10
15.0723792538
 20
6.0178946837
 10
15.0718395527
 20
6.0129710049
 10
15.0702446274
 20
6.0079288128
 10
15.0677348774
 20
6.0031724147
 10
15.0642458535
 20
5.9985796644
 10
15.0599568608
 20
5.9944485718
 10
15.0548007827
 20
5.9907431366
 10
15.0494582882
 20
5.9876325226
 10
15.0436896777
 20
5.9848761952
 10
15.037926276
 20
5.9826793935
 10
15.0320504748
 20
5.9810041184
 10
15.0283328894
 20
5.9802588507
 10
15.0247119598
 20
5.9797990752
 10
15.0198398836
 20
5.9794961244
 10
15.0155288207
 20
5.9794881552
 10
15.0121290507
 20
5.9797698624
 10
15.009532725
 20
5.9803468163
 10
15.0079312262
 20
5.9811970585
 10
15.0073925026
 20
5.9823044221
  0
LWPOLYLINE
  5
48C
330
1F
100
AcDbEntity
  8
0
  6
Continuous
 62
     7
370
    15
100
AcDbPolyline
 90
       20
 70
   128
 43
0.0
 10
15.0723666173
 20
5.9465936281
 10
15.0723792538
 20
5.9464755042
 10
15.0718395527
 20
5.9415518254
 10
15.0702446274
 20
5.9365096333
 10
15.0677348774
 20
5.9317532352
 10
15.0642458535
 20
5.9271604849
 10
15.0599568608
 20
5.9230293923
 10
15.0548007827
 20
5.9193239571
 10
15.0494582882
 20
5.9162133431
 10
15.0436896777
 20
5.9134570157
 10
15.037926276
 20
5.911260214
 10
15.0320504748
 20
5.9095849389
 10
15.0283328894
 20
5.9088396712
 10
15.0247119598
 20
5.9083798957
 10
15.0198398836
 20
5.9080769449
 10
15.0155288207
 20
5.9080689757
 10
15.0121290507
 20
5.908350683
 10
15.009532725
 20
5.9089276368
 10
15.0079312262
 20
5.909777879
 10
15.0073925026
 20
5.9108852426
  0
ARC
  5
48D
330
1F
100
AcDbEntity
  8
0
  6
Continuous
 62
     7
370
    15
100
AcDbCircle
 10
14.9867083097
 20
6.2396425293
 30
0.0
 40
0.0685000162331092
100
AcDbArc
 50
285.5102972121
 51
322.6779182016
  0
LWPOLYLINE
  5
48E
330
1F
100
AcDbEntity
  8
0
  6
Continuous
 62
     7
370
    15
100
AcDbPolyline
 90
        7
 70
   128
 43
0.0
 10
15.0050260056
 20
6.1736371186
 10
14.9926348161
 20
6.1769836353
 10
14.9858697875
 20
6.182100912
 10
14.9855681467
 20
6.1881643214
 10
14.9916903173
 20
6.1933177452
 10
15.0035933996
 20
6.1969121733
 10
15.0073795599
 20
6.1972250363
  0
LWPOLYLINE
  5
48F
330
1F
100
AcDbEntity
  8
0
  6
Continuous
 62
     7
370
    15
100
AcDbPolyline
 90
       15
 70
   128
 43
0.0
 10
15.0822531921
 20
6.1751455969
 10
15.0906073499
 20
6.1650566887
 10
15.094816867
 20
6.151565381
 10
15.0924566119
 20
6.138066385
 10
15.0839295452
 20
6.1253449829
 10
15.0700155765
 20
6.1147023829
 10
15.0526319773
 20
6.107020459
 10
15.0338341258
 20
6.1023452329
 10
15.0142113136
 20
6.1012535517
 10
14.9992894083
 20
6.1033597137
 10
14.98915177
 20
6.1074548586
 10
14.9849422529
 20
6.1131515136
 10
14.987302508
 20
6.1189871382
 10
14.9958295747
 20
6.1235591461
 10
15.0073795599
 20
6.1259052875
  0
LWPOLYLINE
  5
490
330
1F
100
AcDbEntity
  8
0
  6
Continuous
 62
     7
370
    15
100
AcDbPolyline
 90
       15
 70
   128
 43
0.0
 10
15.0822531921
 20
6.1037264174
 10
15.0906073499
 20
6.0936375092
 10
15.094816867
 20
6.0801462015
 10
15.0924566119
 20
6.0666472055
 10
15.0839295452
 20
6.0539258034
 10
15.0700155765
 20
6.0432832034
 10
15.0526319773
 20
6.0356012795
 10
15.0338341258
 20
6.0309260534
 10
15.0142113136
 20
6.0298343722
 10
14.9992894083
 20
6.0319405343
 10
14.98915177
 20
6.0360356791
 10
14.9849422529
 20
6.0417323341
 10
14.987302508
 20
6.0475679587
 10
14.9958295747
 20
6.0521399666
 10
15.0073795599
 20
6.054486108
  0
LWPOLYLINE
  5
491
330
1F
100
AcDbEntity
  8
0
  6
Continuous
 62
     7
370
    15
100
AcDbPolyline
 90
       15
 70
   128
 43
0.0
 10
15.0822531921
 20
6.0323072379
 10
15.0906073499
 20
6.0222183297
 10
15.094816867
 20
6.008727022
 10
15.0924566119
 20
5.995228026
 10
15.0839295452
 20
5.9825066239
 10
15.0700155765
 20
5.9718640239
 10
15.0526319773
 20
5.9641821
 10
15.0338341258
 20
5.9595068739
 10
15.0142113136
 20
5.9584151927
 10
14.9992894083
 20
5.9605213548
 10
14.98915177
 20
5.9646164996
 10
14.9849422529
 20
5.9703131546
 10
14.987302508
 20
5.9761487792
 10
14.9958295747
 20
5.9807207871
 10
15.0073795599
 20
5.9830669285
  0
LWPOLYLINE
  5
492
330
1F
100
AcDbEntity
  8
0
  6
Continuous
 62
     7
370
    15
100
AcDbPolyline
 90
       15
 70
   128
 43
0.0
 10
15.0822531921
 20
5.9608880585
 10
15.0906073499
 20
5.9507991502
 10
15.094816867
 20
5.9373078425
 10
15.0924566119
 20
5.9238088465
 10
15.0839295452
 20
5.9110874444
 10
15.0700155765
 20
5.9004448444
 10
15.0526319773
 20
5.8927629205
 10
15.0338341258
 20
5.8880876944
 10
15.0142113136
 20
5.8869960132
 10
14.9992894083
 20
5.8891021753
 10
14.98915177
 20
5.8931973201
 10
14.9849422529
 20
5.8988939751
 10
14.987302508
 20
5.9047295997
 10
14.9958295747
 20
5.9093016076
 10
15.0073795599
 20
5.911647749
  0
ARC
  5
493
330
1F
100
AcDbEntity
  8
0
  6
Continuous
 62
     7
370
    15
100
AcDbCircle
 10
15.0360657531
 20
6.2494528401
 30
0.0
 40
0.0819236812857297
100
AcDbArc
 50
247.7352952677
 51
262.2059030063
  0
ARC
  5
494
330
1F
100
AcDbEntity
  8
0
  6
Continuous
 62
     7
370
    15
100
AcDbCircle
 10
15.0367899119
 20
6.2366746002
 30
0.0
 40
0.0388126203903052
100
AcDbArc
 50
224.4245806242
 51
276.4979626201
  0
LWPOLYLINE
  5
495
330
1F
100
AcDbEntity
  8
0
  6
Continuous
 62
     7
370
    15
100
AcDbPolyline
 90
        3
 70
   128
 43
0.0
 10
15.0053101365
 20
6.2119792632
 10
15.007423259
 20
6.210267673
 10
15.0090710077
 20
6.2095069383
  0
LWPOLYLINE
  5
496
330
1F
100
AcDbEntity
  8
0
  6
Continuous
 62
     7
370
    15
100
AcDbPolyline
 90
       12
 70
   128
 43
0.0
 10
15.0534137262
 20
6.2310464489
 10
15.0621986119
 20
6.2273733784
 10
15.0675856242
 20
6.2222484332
 10
15.0687546394
 20
6.2164518397
 10
15.0655276855
 20
6.2108660768
 10
15.058396037
 20
6.2063415262
 10
15.0484454227
 20
6.2035670097
 10
15.0371907334
 20
6.2029649224
 10
15.0263453937
 20
6.2046269265
 10
15.017560508
 20
6.208299997
 10
15.0121734957
 20
6.2134249423
 10
15.0108905301
 20
6.2174258984
  0
ARC
  5
497
330
1F
100
AcDbEntity
  8
0
  6
Continuous
 62
     7
370
    15
100
AcDbCircle
 10
15.0399288591
 20
6.1799436328
 30
0.0
 40
0.0528520525402539
100
AcDbArc
 50
75.2179010272
 51
107.3399179677
  0
LWPOLYLINE
  5
498
330
1F
100
AcDbEntity
  8
0
  6
Continuous
 62
     7
370
    15
100
AcDbPolyline
 90
       15
 70
   128
 43
0.0
 10
15.0828795599
 20
5.8969177307
 10
15.0901305236
 20
5.8907703701
 10
15.0945601755
 20
5.8823039279
 10
15.0937505138
 20
5.8735454056
 10
15.0877791175
 20
5.8653340154
 10
15.0772181459
 20
5.8584565452
 10
15.0630795158
 20
5.8535719712
 10
15.0467179437
 20
5.851148317
 10
15.0297011404
 20
5.851417809
 10
15.0136595993
 20
5.8543546253
 10
15.0001303671
 20
5.8596773702
 10
14.9904097695
 20
5.8668760358
 10
14.9854292018
 20
5.8752608703
 10
14.9856658852
 20
5.8840284668
 10
14.988632271
 20
5.8895398114
  0
LWPOLYLINE
  5
499
330
1F
100
AcDbEntity
  8
0
  6
Continuous
 62
     7
370
    15
100
AcDbPolyline
 90
       12
 70
   128
 43
0.0
 10
14.9848795599
 20
5.8783984366
 10
14.9854391323
 20
5.8743679606
 10
14.9905218763
 20
5.8659007317
 10
15.0004360943
 20
5.8586568652
 10
15.0142113136
 20
5.8533454413
 10
15.0304991196
 20
5.8504863791
 10
15.0477051485
 20
5.8503595436
 10
15.0641451542
 20
5.8529773503
 10
15.0782098746
 20
5.85808355
 10
15.0885225566
 20
5.8651783124
 10
15.0940737233
 20
5.8735671527
 10
15.0948795599
 20
5.8783984366
  0
ARC
  5
49A
330
1F
100
AcDbEntity
  8
0
  6
Continuous
 62
     7
370
    15
100
AcDbCircle
 10
15.0384881653
 20
5.9012798485
 30
0.0
 40
0.0447182380675997
100
AcDbArc
 50
281.3978543727
 51
352.0501004919
  0
LWPOLYLINE
  5
49B
330
1F
100
AcDbEntity
  8
0
  6
Continuous
 62
     7
370
    15
100
AcDbPolyline
 90
       20
 70
   128
 43
0.0
 10
14.9969159196
 20
5.9308043815
 10
14.9968816802
 20
5.9306942159
 10
14.9976031118
 20
5.928719882
 10
14.9996601044
 20
5.9269577939
 10
15.0028549358
 20
5.9255602796
 10
15.0072741843
 20
5.9244806045
 10
15.0129526946
 20
5.9237760644
 10
15.0198116582
 20
5.9235226171
 10
15.0257972028
 20
5.9238125328
 10
15.032217836
 20
5.9247039163
 10
15.0395493843
 20
5.92637098
 10
15.0470886934
 20
5.9287757011
 10
15.0543527324
 20
5.9317838101
 10
15.061401801
 20
5.9354496204
 10
15.0675197435
 20
5.9395055525
 10
15.0729170446
 20
5.9443185908
 10
15.077139242
 20
5.9494679499
 10
15.0803319862
 20
5.9551108885
 10
15.0822519631
 20
5.9608763331
 10
15.0828432003
 20
5.9665169952
  0
LWPOLYLINE
  5
49C
330
1F
100
AcDbEntity
  8
0
  6
Continuous
 62
     7
370
    15
100
AcDbPolyline
 90
       20
 70
   128
 43
0.0
 10
14.9969159196
 20
6.002223561
 10
14.9968816802
 20
6.0021133954
 10
14.9976031118
 20
6.0001390615
 10
14.9996601044
 20
5.9983769734
 10
15.0028549358
 20
5.9969794591
 10
15.0072741843
 20
5.995899784
 10
15.0129526946
 20
5.9951952439
 10
15.0198116582
 20
5.9949417966
 10
15.0257972028
 20
5.9952317123
 10
15.032217836
 20
5.9961230958
 10
15.0395493843
 20
5.9977901594
 10
15.0470886934
 20
6.0001948806
 10
15.0543527324
 20
6.0032029896
 10
15.061401801
 20
6.0068687999
 10
15.0675197435
 20
6.010924732
 10
15.0729170446
 20
6.0157377703
 10
15.077139242
 20
6.0208871294
 10
15.0803319862
 20
6.026530068
 10
15.0822519631
 20
6.0322955126
 10
15.0828432003
 20
6.0379361747
  0
LWPOLYLINE
  5
49D
330
1F
100
AcDbEntity
  8
0
  6
Continuous
 62
     7
370
    15
100
AcDbPolyline
 90
       20
 70
   128
 43
0.0
 10
14.9969159196
 20
6.0736427405
 10
14.9968816802
 20
6.0735325749
 10
14.9976031118
 20
6.071558241
 10
14.9996601044
 20
6.0697961529
 10
15.0028549358
 20
6.0683986386
 10
15.0072741843
 20
6.0673189635
 10
15.0129526946
 20
6.0666144234
 10
15.0198116582
 20
6.0663609761
 10
15.0257972028
 20
6.0666508918
 10
15.032217836
 20
6.0675422753
 10
15.0395493843
 20
6.0692093389
 10
15.0470886934
 20
6.0716140601
 10
15.0543527324
 20
6.0746221691
 10
15.061401801
 20
6.0782879794
 10
15.0675197435
 20
6.0823439115
 10
15.0729170446
 20
6.0871569498
 10
15.077139242
 20
6.0923063089
 10
15.0803319862
 20
6.0979492475
 10
15.0822519631
 20
6.1037146921
 10
15.0828432003
 20
6.1093553542
  0
LWPOLYLINE
  5
49E
330
1F
100
AcDbEntity
  8
0
  6
Continuous
 62
     7
370
    15
100
AcDbPolyline
 90
       20
 70
   128
 43
0.0
 10
14.9969159196
 20
6.14506192
 10
14.9968816802
 20
6.1449517544
 10
14.9976031118
 20
6.1429774205
 10
14.9996601044
 20
6.1412153324
 10
15.0028549358
 20
6.1398178181
 10
15.0072741843
 20
6.138738143
 10
15.0129526946
 20
6.1380336029
 10
15.0198116582
 20
6.1377801556
 10
15.0257972028
 20
6.1380700713
 10
15.032217836
 20
6.1389614548
 10
15.0395493843
 20
6.1406285184
 10
15.0470886934
 20
6.1430332396
 10
15.0543527324
 20
6.1460413486
 10
15.061401801
 20
6.1497071589
 10
15.0675197435
 20
6.153763091
 10
15.0729170446
 20
6.1585761293
 10
15.077139242
 20
6.1637254884
 10
15.0803319862
 20
6.1693684269
 10
15.0822519631
 20
6.1751338716
 10
15.0828432003
 20
6.1807745337
  0
ARC
  5
49F
330
1F
100
AcDbEntity
  8
0
  6
Continuous
 62
     7
370
    15
100
AcDbCircle
 10
15.0193560694
 20
6.1158858236
 30
0.0
 40
0.050369512836144
100
AcDbArc
 50
258.8537429774
 51
287.557956143
  0
ARC
  5
4A0
330
1F
100
AcDbEntity
  8
0
  6
Continuous
 62
     7
370
    15
100
AcDbCircle
 10
15.0195557264
 20
5.9754304073
 30
0.0
 40
0.0527467669008369
100
AcDbArc
 50
259.1413438189
 51
290.591500157
  0
LWPOLYLINE
  5
4A1
330
1F
100
AcDbEntity
  8
0
  6
Continuous
 62
     7
370
    15
100
AcDbPolyline
 90
       14
 70
   128
 43
0.0
 10
15.079147916
 20
6.1986748661
 10
15.0827570674
 20
6.1876983642
 10
15.0812462119
 20
6.176110423
 10
15.0747471809
 20
6.1650692075
 10
15.0637947043
 20
6.1556213205
 10
15.0500217904
 20
6.148626685
 10
15.0351398055
 20
6.1440101373
 10
15.0198116582
 20
6.1422444972
 10
15.0092749681
 20
6.142887806
 10
15.0008163907
 20
6.1450746032
 10
14.9970020525
 20
6.148647871
 10
14.998512908
 20
6.152492721
 10
15.005011939
 20
6.1552809066
 10
15.0073795599
 20
6.155592559
  0
LWPOLYLINE
  5
4A2
330
1F
100
AcDbEntity
  8
0
  6
Continuous
 62
     7
370
    15
100
AcDbPolyline
 90
       14
 70
   128
 43
0.0
 10
15.0817835757
 20
6.1192398622
 10
15.0827570674
 20
6.1162791847
 10
15.0812462119
 20
6.1046912435
 10
15.0747471809
 20
6.093650028
 10
15.0637947043
 20
6.084202141
 10
15.0500217904
 20
6.0772075055
 10
15.0351398055
 20
6.0725909578
 10
15.0198116582
 20
6.0708253177
 10
15.0092749681
 20
6.0714686265
 10
15.0008163907
 20
6.0736554237
 10
14.9970020525
 20
6.0772286915
 10
14.998512908
 20
6.0810735415
 10
15.005011939
 20
6.0838617271
 10
15.0073795599
 20
6.0841733795
  0
LWPOLYLINE
  5
4A3
330
1F
100
AcDbEntity
  8
0
  6
Continuous
 62
     7
370
    15
100
AcDbPolyline
 90
       14
 70
   128
 43
0.0
 10
15.0817835757
 20
6.0478206827
 10
15.0827570674
 20
6.0448600052
 10
15.0812462119
 20
6.033272064
 10
15.0747471809
 20
6.0222308485
 10
15.0637947043
 20
6.0127829615
 10
15.0500217904
 20
6.005788326
 10
15.0351398055
 20
6.0011717783
 10
15.0198116582
 20
5.9994061382
 10
15.0092749681
 20
6.000049447
 10
15.0008163907
 20
6.0022362442
 10
14.9970020525
 20
6.005809512
 10
14.998512908
 20
6.009654362
 10
15.005011939
 20
6.0124425476
 10
15.0073795599
 20
6.0127542
  0
LWPOLYLINE
  5
4A4
330
1F
100
AcDbEntity
  8
0
  6
Continuous
 62
     7
370
    15
100
AcDbPolyline
 90
       14
 70
   128
 43
0.0
 10
15.0817835757
 20
5.9764015032
 10
15.0827570674
 20
5.9734408257
 10
15.0812462119
 20
5.9618528845
 10
15.0747471809
 20
5.950811669
 10
15.0637947043
 20
5.941363782
 10
15.0500217904
 20
5.9343691465
 10
15.0351398055
 20
5.9297525988
 10
15.0198116582
 20
5.9279869587
 10
15.0092749681
 20
5.9286302675
 10
15.0008163907
 20
5.9308170647
 10
14.9970020525
 20
5.9343903325
 10
14.998512908
 20
5.9382351825
 10
15.005011939
 20
5.9410233681
 10
15.0073795599
 20
5.9413350205
  0
LWPOLYLINE
  5
4A5
330
1F
100
AcDbEntity
  8
0
  6
Continuous
 62
     7
370
    15
100
AcDbPolyline
 90
        8
 70
   128
 43
0.0
 10
15.0817835757
 20
5.9049823237
 10
15.0827570674
 20
5.9020216462
 10
15.0812462119
 20
5.890433705
 10
15.0747471809
 20
5.8793924895
 10
15.0637947043
 20
5.8699446026
 10
15.0500217904
 20
5.862949967
 10
15.0351398055
 20
5.8583334193
 10
15.0311772462
 20
5.8575672428
  0
ARC
  5
4A6
330
1F
100
AcDbEntity
  8
0
  6
Continuous
 62
     7
370
    15
100
AcDbCircle
 10
15.0397030691
 20
5.8813440256
 30
0.0
 40
0.0252591578830852
100
AcDbArc
 50
216.747017701
 51
250.2733010025
  0
ARC
  5
4A7
330
1F
100
AcDbEntity
  8
0
  6
Continuous
 62
     7
370
    15
100
AcDbCircle
 10
15.0215132517
 20
5.9214741025
 30
0.0
 40
0.0552802216560987
100
AcDbArc
 50
267.8748036958
 51
333.340002304
  0
LWPOLYLINE
  5
4A8
330
1F
100
AcDbEntity
  8
0
  6
Continuous
 62
     7
370
    15
100
AcDbPolyline
 90
       18
 70
   128
 43
0.0
 10
15.0075175984
 20
5.9404612206
 10
15.0075940127
 20
5.9397566546
 10
15.0087632029
 20
5.9388252187
 10
15.0109711541
 20
5.9381344649
 10
15.0140471993
 20
5.9377357844
 10
15.0180658247
 20
5.9376235567
 10
15.0212083834
 20
5.9377219311
 10
15.0247119598
 20
5.9379661039
 10
15.0299814821
 20
5.9387243284
 10
15.0356675854
 20
5.9401336485
 10
15.0413655225
 20
5.94209201
 10
15.0471718911
 20
5.9446374437
 10
15.0527686055
 20
5.9476571766
 10
15.058139205
 20
5.9511901342
 10
15.0626170992
 20
5.9550292464
 10
15.0664439035
 20
5.9594569095
 10
15.0693196979
 20
5.9641071825
 10
15.0709163495
 20
5.9680893139
  0
LWPOLYLINE
  5
4A9
330
1F
100
AcDbEntity
  8
0
  6
Continuous
 62
     7
370
    15
100
AcDbPolyline
 90
       18
 70
   128
 43
0.0
 10
15.0075175984
 20
6.0118804001
 10
15.0075940127
 20
6.0111758341
 10
15.0087632029
 20
6.0102443982
 10
15.0109711541
 20
6.0095536444
 10
15.0140471993
 20
6.0091549639
 10
15.0180658247
 20
6.0090427362
 10
15.0212083834
 20
6.0091411106
 10
15.0247119598
 20
6.0093852834
 10
15.0299814821
 20
6.0101435079
 10
15.0356675854
 20
6.011552828
 10
15.0413655225
 20
6.0135111895
 10
15.0471718911
 20
6.0160566232
 10
15.0527686055
 20
6.0190763561
 10
15.058139205
 20
6.0226093137
 10
15.0626170992
 20
6.0264484258
 10
15.0664439035
 20
6.030876089
 10
15.0693196979
 20
6.035526362
 10
15.0709163495
 20
6.0395084934
  0
LWPOLYLINE
  5
4AA
330
1F
100
AcDbEntity
  8
0
  6
Continuous
 62
     7
370
    15
100
AcDbPolyline
 90
       18
 70
   128
 43
0.0
 10
15.0075175984
 20
6.0832995796
 10
15.0075940127
 20
6.0825950136
 10
15.0087632029
 20
6.0816635776
 10
15.0109711541
 20
6.0809728239
 10
15.0140471993
 20
6.0805741434
 10
15.0180658247
 20
6.0804619157
 10
15.0212083834
 20
6.0805602901
 10
15.0247119598
 20
6.0808044629
 10
15.0299814821
 20
6.0815626874
 10
15.0356675854
 20
6.0829720075
 10
15.0413655225
 20
6.084930369
 10
15.0471718911
 20
6.0874758027
 10
15.0527686055
 20
6.0904955356
 10
15.058139205
 20
6.0940284932
 10
15.0626170992
 20
6.0978676053
 10
15.0664439035
 20
6.1022952685
 10
15.0693196979
 20
6.1069455415
 10
15.0709163495
 20
6.1109276729
  0
LWPOLYLINE
  5
4AB
330
1F
100
AcDbEntity
  8
0
  6
Continuous
 62
     7
370
    15
100
AcDbPolyline
 90
       20
 70
   128
 43
0.0
 10
15.0075175984
 20
6.1547187591
 10
15.0075940127
 20
6.1540141931
 10
15.0087632029
 20
6.1530827571
 10
15.0109711541
 20
6.1523920034
 10
15.0140471993
 20
6.1519933229
 10
15.0180658247
 20
6.1518810952
 10
15.0212083834
 20
6.1519794696
 10
15.0247119598
 20
6.1522236424
 10
15.0299814821
 20
6.1529818669
 10
15.0356675854
 20
6.154391187
 10
15.0413655225
 20
6.1563495485
 10
15.0471718911
 20
6.1588949822
 10
15.0527686055
 20
6.1619147151
 10
15.058139205
 20
6.1654476727
 10
15.0626170992
 20
6.1692867848
 10
15.0664439035
 20
6.173714448
 10
15.0693196979
 20
6.178364721
 10
15.0713228274
 20
6.1833606291
 10
15.0722906703
 20
6.188407207
 10
15.0722415214
 20
6.190425436
  0
ARC
  5
4AC
330
1F
100
AcDbEntity
  8
0
  6
Continuous
 62
     7
370
    15
100
AcDbCircle
 10
15.0398829383
 20
5.9399408805
 30
0.0
 40
0.0828323926403169
100
AcDbArc
 50
263.9670666461
 51
275.1549658963
  0
ARC
  5
4AD
330
1F
100
AcDbEntity
  8
0
  6
Continuous
 62
     7
370
    15
100
AcDbCircle
 10
15.0232450321
 20
5.8818583522
 30
0.0
 40
0.0160775466025689
100
AcDbArc
 50
189.316450566
 51
256.3954613037
  0
LWPOLYLINE
  5
4AE
330
1F
100
AcDbEntity
  8
0
  6
Continuous
 62
     7
370
    15
100
AcDbPolyline
 90
       21
 70
   128
 43
0.0
 10
14.9494881171
 20
5.8566250353
 10
14.946131239
 20
5.8535882542
 10
14.9374736588
 20
5.8422052571
 10
14.9339511381
 20
5.8301154384
 10
14.9357403108
 20
5.8179250321
 10
14.9427514603
 20
5.8062453159
 10
14.9546330182
 20
5.7956619597
 10
14.9707891937
 20
5.7867056572
 10
14.9904098487
 20
5.7798255146
 10
15.0125111216
 20
5.7753665312
 10
15.0359847622
 20
5.7735522989
 10
15.0596537043
 20
5.7744737909
 10
15.0823310882
 20
5.7780847998
 10
15.1028797752
 20
5.7842042546
 10
15.1202693684
 20
5.7925253001
 10
15.1336278808
 20
5.8026306845
 10
15.1422854611
 20
5.8140136815
 10
15.1458079818
 20
5.8261035002
 10
15.1440188091
 20
5.8382939066
 10
15.1370076596
 20
5.8499736227
 10
15.1302710028
 20
5.8566250353
  0
LINE
  5
4AF
330
1F
100
AcDbEntity
  8
0
  6
Continuous
 62
     7
370
    15
100
AcDbLine
 10
14.3897383234
 20
5.6663774208
 30
0.0
 11
14.3907108907
 21
5.6121115579
 31
0.0
  0
ARC
  5
4B0
330
1F
100
AcDbEntity
  8
0
  6
Continuous
 62
     7
370
    15
100
AcDbCircle
 10
14.3344695187
 20
5.6912540305
 30
0.0
 40
0.0970907972258788
100
AcDbArc
 50
252.6960345907
 51
305.3989149155
  0
LINE
  5
4B1
330
1F
100
AcDbEntity
  8
0
  6
Continuous
 62
     7
370
    15
100
AcDbLine
 10
14.30610395
 20
5.6530599909
 30
0.0
 11
14.3055907396
 21
5.5985575418
 31
0.0
  0
ARC
  5
4B2
330
1F
100
AcDbEntity
  8
0
  6
Continuous
 62
     7
370
    15
100
AcDbCircle
 10
14.3344786482
 20
5.7441384564
 30
0.0
 40
0.0953960710554671
100
AcDbArc
 50
252.6960345908
 51
305.3989149162
  0
LWPOLYLINE
  5
4B3
330
1F
100
AcDbEntity
  8
0
  6
Continuous
 62
     7
370
    15
100
AcDbPolyline
 90
       34
 70
   128
 43
0.0
 10
14.2161621985
 20
5.7994124194
 10
14.2407757418
 20
5.794196313
 10
14.2668611498
 20
5.7914735897
 10
14.2934756278
 20
5.7913426559
 10
14.3196572592
 20
5.7938082439
 10
14.3444597717
 20
5.798781241
 10
14.3669867379
 20
5.80608191
 10
14.3864239745
 20
5.8154463858
 10
14.4020689691
 20
5.8265362118
 10
14.4133562708
 20
5.8389505728
 10
14.4198779273
 20
5.8522407814
 10
14.4213982287
 20
5.8659264949
 10
14.4178622275
 20
5.879513076
 10
14.4093977239
 20
5.8925094701
 10
14.3963106472
 20
5.9044459538
 10
14.3790739985
 20
5.9148911115
 10
14.358310755
 20
5.9234674278
 10
14.3347713546
 20
5.9298649325
 10
14.3093065724
 20
5.9338524029
 10
14.2828367721
 20
5.9352857216
 10
14.2563186413
 20
5.9341130847
 10
14.2307106142
 20
5.9303768743
 10
14.2069382316
 20
5.9242121268
 10
14.1858606895
 20
5.9158416523
 10
14.1682397851
 20
5.9055679814
 10
14.1547123838
 20
5.8937624315
 10
14.1457674011
 20
5.8808516858
 10
14.1417281321
 20
5.8673023724
 10
14.1427405663
 20
5.8536041987
 10
14.1487681119
 20
5.8402522525
 10
14.1595929176
 20
5.8277291078
 10
14.1748237467
 20
5.8164873837
 10
14.1939101174
 20
5.8069333855
 10
14.2161621985
 20
5.7994124194
  0
ARC
  5
4B4
330
1F
100
AcDbEntity
  8
0
  6
Continuous
 62
     7
370
    15
100
AcDbCircle
 10
14.222200426
 20
5.8006045107
 30
0.0
 40
0.0845190720648425
100
AcDbArc
 50
192.9519571668
 51
265.3714872155
  0
LWPOLYLINE
  5
4B5
330
1F
100
AcDbEntity
  8
0
  6
Continuous
 62
     7
370
    15
100
AcDbPolyline
 90
       12
 70
   128
 43
0.0
 10
14.4231674468
 20
5.7816609163
 10
14.4215342039
 20
5.7698217429
 10
14.4149344886
 20
5.7563724613
 10
14.403512087
 20
5.7438095105
 10
14.3876798345
 20
5.7325869483
 10
14.36800995
 20
5.7231103874
 10
14.3452133544
 20
5.7157223353
 10
14.3201139759
 20
5.7106898155
 10
14.2936189716
 20
5.7081947164
 10
14.26668594
 20
5.7083272173
 10
14.2402883109
 20
5.7110825294
 10
14.2153801634
 20
5.7163610684
  0
LINE
  5
4B6
330
1F
100
AcDbEntity
  8
0
  6
Continuous
 62
     7
370
    15
100
AcDbLine
 10
14.30610395
 20
5.6530599909
 30
0.0
 11
11.7589797596
 21
6.3453137676
 31
0.0
  0
LWPOLYLINE
  5
4B7
330
1F
100
AcDbEntity
  8
0
  6
Continuous
 62
     7
370
    15
100
AcDbPolyline
 90
        9
 70
   128
 43
0.0
 10
11.7589797596
 20
6.3453137676
 10
11.7488544752
 20
6.3487582448
 10
11.7402284724
 20
6.3531539152
 10
11.7334332438
 20
6.3583318557
 10
11.7287299261
 20
6.3640930809
 10
11.7262992651
 20
6.3702161902
 10
11.7262346699
 20
6.3764658759
 10
11.7285386229
 20
6.3826019661
 10
11.7331225842
 20
6.3883886543
  0
LINE
  5
4B8
330
1F
100
AcDbEntity
  8
0
  6
Continuous
 62
     7
370
    15
100
AcDbLine
 10
11.7331225842
 20
6.3883886543
 30
0.0
 11
11.8194566269
 21
6.4726533267
 31
0.0
  0
LINE
  5
4B9
330
1F
100
AcDbEntity
  8
0
  6
Continuous
 62
     7
370
    15
100
AcDbLine
 10
11.9106235605
 20
6.5616350487
 30
0.0
 11
12.4383752388
 21
7.0767368657
 31
0.0
  0
LINE
  5
4BA
330
1F
100
AcDbEntity
  8
0
  6
Continuous
 62
     7
370
    15
100
AcDbLine
 10
14.5785745708
 20
6.7453328979
 30
0.0
 11
14.9319293305
 21
6.6492986457
 31
0.0
  0
LINE
  5
4BB
330
1F
100
AcDbEntity
  8
0
  6
Continuous
 62
     7
370
    15
100
AcDbLine
 10
15.1803270655
 20
6.5817894638
 30
0.0
 11
15.2408017839
 21
6.5653537312
 31
0.0
  0
LWPOLYLINE
  5
4BC
330
1F
100
AcDbEntity
  8
0
  6
Continuous
 62
     7
370
    15
100
AcDbPolyline
 90
        9
 70
   128
 43
0.0
 10
15.2408017839
 20
6.5653537312
 10
15.2509270683
 20
6.561909254
 10
15.2595530711
 20
6.5575135836
 10
15.2663482997
 20
6.5523356431
 10
15.2710516174
 20
6.5465744179
 10
15.2734822783
 20
6.5404513086
 10
15.2735468735
 20
6.5342016229
 10
15.2712429206
 20
6.5280655327
 10
15.2666589592
 20
6.5222788446
  0
LINE
  5
4BD
330
1F
100
AcDbEntity
  8
0
  6
Continuous
 62
     7
370
    15
100
AcDbLine
 10
15.2666589592
 20
6.5222788446
 30
0.0
 11
14.3897383234
 21
5.6663774208
 31
0.0
  0
LWPOLYLINE
  5
4BE
330
1F
100
AcDbEntity
  8
0
  6
Continuous
 62
     7
370
    15
100
AcDbPolyline
 90
        7
 70
   128
 43
0.0
 10
11.7757807936
 20
6.3617120919
 10
11.771544173
 20
6.3631533297
 10
11.7679348817
 20
6.3649925657
 10
11.7650916227
 20
6.3671591191
 10
11.763123661
 20
6.3695697305
 10
11.762106624
 20
6.3721317613
 10
11.7619680277
 20
6.3735099259
  0
LINE
  5
4BF
330
1F
100
AcDbEntity
  8
0
  6
Continuous
 62
     7
370
    15
100
AcDbLine
 10
14.322904984
 20
5.6694583152
 30
0.0
 11
11.7757807936
 21
6.3617120919
 31
0.0
  0
ARC
  5
4C0
330
1F
100
AcDbEntity
  8
0
  6
Continuous
 62
     7
370
    15
100
AcDbCircle
 10
14.3347775227
 20
5.7075673585
 30
0.0
 40
0.0399156154984435
100
AcDbArc
 50
252.6960345908
 51
305.398914916
  0
LINE
  5
4C1
330
1F
100
AcDbEntity
  8
0
  6
Continuous
 62
     7
370
    15
100
AcDbLine
 10
15.2348199069
 20
6.5309320168
 30
0.0
 11
14.3578992711
 21
5.675030593
 31
0.0
  0
ARC
  5
4C2
330
1F
100
AcDbEntity
  8
0
  6
Continuous
 62
     7
370
    15
100
AcDbCircle
 10
15.22921834
 20
6.537458104
 30
0.0
 40
0.0086004282180944
100
AcDbArc
 50
310.6406362013
 51
357.9974645044
  0
LWPOLYLINE
  5
4C3
330
1F
100
AcDbEntity
  8
0
  6
Continuous
 62
     7
370
    15
100
AcDbPolyline
 90
       23
 70
   128
 43
0.0
 10
14.2523310911
 20
5.8347143675
 10
14.2379395326
 20
5.8401000058
 10
14.2270769479
 20
5.8473557462
 10
14.2206233589
 20
5.8558937717
 10
14.2191015972
 20
5.8650223822
 10
14.2226349467
 20
5.874002032
 10
14.2309371566
 20
5.8821052433
 10
14.2433356311
 20
5.8886755422
 10
14.2588259196
 20
5.893180642
 10
14.276153091
 20
5.8952555663
 10
14.2939134009
 20
5.8947322172
 10
14.3106680147
 20
5.8916529933
 10
14.3250595733
 20
5.886267355
 10
14.335922158
 20
5.8790116146
 10
14.3423757469
 20
5.8704735891
 10
14.3438975087
 20
5.8613449786
 10
14.3403641591
 20
5.8523653288
 10
14.3320619493
 20
5.8442621175
 10
14.3196634748
 20
5.8376918186
 10
14.3041731863
 20
5.8331867188
 10
14.2868460149
 20
5.8311117945
 10
14.2690857049
 20
5.8316351436
 10
14.2523310911
 20
5.8347143675
  0
LINE
  5
4C4
330
1F
100
AcDbEntity
  8
0
  6
Continuous
 62
     7
370
    15
100
AcDbLine
 10
11.7584665491
 20
6.2908113185
 30
0.0
 11
14.3055907396
 21
5.5985575418
 31
0.0
  0
LINE
  5
4C5
330
1F
100
AcDbEntity
  8
0
  6
Continuous
 62
     7
370
    15
100
AcDbLine
 10
11.7589797596
 20
6.3453137676
 30
0.0
 11
11.7584665491
 21
6.2908113185
 31
0.0
  0
LINE
  5
4C6
330
1F
100
AcDbEntity
  8
0
  6
Continuous
 62
     7
370
    15
100
AcDbLine
 10
15.2240007499
 20
6.5600985819
 30
0.0
 11
15.1805281875
 21
6.5719134928
 31
0.0
  0
LINE
  5
4C7
330
1F
100
AcDbEntity
  8
0
  6
Continuous
 62
     7
370
    15
100
AcDbLine
 10
14.9218983478
 20
6.6422035415
 30
0.0
 11
14.5707037279
 21
6.737650714
 31
0.0
  0
LWPOLYLINE
  5
4C8
330
1F
100
AcDbEntity
  8
0
  6
Continuous
 62
     7
370
    15
100
AcDbPolyline
 90
        9
 70
   128
 43
0.0
 10
15.2240007499
 20
6.5600985819
 10
15.2282373705
 20
6.5586573441
 10
15.2318466618
 20
6.556818108
 10
15.2346899207
 20
6.5546515546
 10
15.2366578825
 20
6.5522409433
 10
15.2376749194
 20
6.5496789125
 10
15.2377019473
 20
6.5470639195
 10
15.2367379276
 20
6.5444964572
 10
15.2348199069
 20
6.5420751917
  0
LINE
  5
4C9
330
1F
100
AcDbEntity
  8
0
  6
Continuous
 62
     7
370
    15
100
AcDbLine
 10
14.3578992711
 20
5.6861737679
 30
0.0
 11
15.2348199069
 21
6.5420751917
 31
0.0
  0
ARC
  5
4CA
330
1F
100
AcDbEntity
  8
0
  6
Continuous
 62
     7
370
    15
100
AcDbCircle
 10
14.3347775227
 20
5.7187105335
 30
0.0
 40
0.039915615498433
100
AcDbArc
 50
252.6960345908
 51
305.398914916
  0
LINE
  5
4CB
330
1F
100
AcDbEntity
  8
0
  6
Continuous
 62
     7
370
    15
100
AcDbLine
 10
11.7757807936
 20
6.3728552668
 30
0.0
 11
14.322904984
 21
5.6806014901
 31
0.0
  0
LWPOLYLINE
  5
4CC
330
1F
100
AcDbEntity
  8
0
  6
Continuous
 62
     7
370
    15
100
AcDbPolyline
 90
        9
 70
   128
 43
0.0
 10
11.7757807936
 20
6.3728552668
 10
11.771544173
 20
6.3742965046
 10
11.7679348817
 20
6.3761357406
 10
11.7650916227
 20
6.378302294
 10
11.763123661
 20
6.3807129054
 10
11.762106624
 20
6.3832749362
 10
11.7620795961
 20
6.3858899291
 10
11.7630436159
 20
6.3884573914
 10
11.7649616366
 20
6.390878657
  0
LINE
  5
4CD
330
1F
100
AcDbEntity
  8
0
  6
Continuous
 62
     7
370
    15
100
AcDbLine
 10
12.4612841001
 20
7.0705107281
 30
0.0
 11
11.9441713907
 21
6.5657928709
 31
0.0
  0
LINE
  5
4CE
330
1F
100
AcDbEntity
  8
0
  6
Continuous
 62
     7
370
    15
100
AcDbLine
 10
11.8188626758
 20
6.4434877236
 30
0.0
 11
11.7649616366
 21
6.390878657
 31
0.0
  0
ARC
  5
4CF
330
1F
100
AcDbEntity
  8
0
  6
Continuous
 62
     7
370
    15
100
AcDbCircle
 10
11.9006028566
 20
6.4315649842
 30
0.0
 40
0.0845190720648405
100
AcDbArc
 50
192.9519571668
 51
265.3714872155
  0
LWPOLYLINE
  5
4D0
330
1F
100
AcDbEntity
  8
0
  6
Continuous
 62
     7
370
    15
100
AcDbPolyline
 90
       12
 70
   128
 43
0.0
 10
12.1015698774
 20
6.4126213898
 10
12.0999366345
 20
6.4007822165
 10
12.0933369192
 20
6.3873329349
 10
12.0819145176
 20
6.3747699841
 10
12.0660822651
 20
6.3635474219
 10
12.0464123806
 20
6.3540708609
 10
12.023615785
 20
6.3466828088
 10
11.9985164065
 20
6.341650289
 10
11.9720214022
 20
6.3391551899
 10
11.9450883706
 20
6.3392876908
 10
11.9186907415
 20
6.3420430029
 10
11.893782594
 20
6.347321542
  0
ARC
  5
4D1
330
1F
100
AcDbEntity
  8
0
  6
Continuous
 62
     7
370
    15
100
AcDbCircle
 10
14.980580433
 20
6.5408066467
 30
0.0
 40
0.084519072064849
100
AcDbArc
 50
192.9519571668
 51
265.3714872155
  0
LWPOLYLINE
  5
4D2
330
1F
100
AcDbEntity
  8
0
  6
Continuous
 62
     7
370
    15
100
AcDbPolyline
 90
       12
 70
   128
 43
0.0
 10
15.1815474538
 20
6.5218630523
 10
15.179914211
 20
6.510023879
 10
15.1733144956
 20
6.4965745974
 10
15.161892094
 20
6.4840116466
 10
15.1460598415
 20
6.4727890844
 10
15.126389957
 20
6.4633125234
 10
15.1035933614
 20
6.4559244713
 10
15.0784939829
 20
6.4508919515
 10
15.0519989787
 20
6.4483968524
 10
15.025065947
 20
6.4485293533
 10
14.9986683179
 20
6.4512846654
 10
14.9737601705
 20
6.4565632045
  0
LINE
  5
4D3
330
1F
100
AcDbEntity
  8
0
  6
Continuous
 62
     7
370
    15
100
AcDbLine
 10
14.3578992711
 20
5.675030593
 30
0.0
 11
14.3578992711
 21
5.6861737679
 31
0.0
  0
LINE
  5
4D4
330
1F
100
AcDbEntity
  8
0
  6
Continuous
 62
     7
370
    15
100
AcDbLine
 10
14.322904984
 20
5.6806014901
 30
0.0
 11
14.322904984
 21
5.6694583152
 31
0.0
  0
LINE
  5
4D5
330
1F
100
AcDbEntity
  8
0
  6
Continuous
 62
     7
370
    15
100
AcDbLine
 10
11.7757807936
 20
6.3617120919
 30
0.0
 11
11.7757807936
 21
6.3728552668
 31
0.0
  0
LINE
  5
4D6
330
1F
100
AcDbEntity
  8
0
  6
Continuous
 62
     7
370
    15
100
AcDbLine
 10
15.2666589592
 20
6.5222788446
 30
0.0
 11
15.2676315265
 21
6.4680129817
 31
0.0
  0
LINE
  5
4D7
330
1F
100
AcDbEntity
  8
0
  6
Continuous
 62
     7
370
    15
100
AcDbLine
 10
14.3907108907
 20
5.6121115579
 30
0.0
 11
15.2676315265
 21
6.4680129817
 31
0.0
  0
ARC
  5
4D8
330
1F
100
AcDbEntity
  8
0
  6
Continuous
 62
     7
370
    15
100
AcDbCircle
 10
14.2814995529
 20
5.7393579757
 30
0.0
 40
0.1066541726881527
100
AcDbArc
 50
68.128417993
 51
111.871582007
  0
LINE
  5
4D9
330
1F
100
AcDbEntity
  8
0
  6
Continuous
 62
     7
370
    15
100
AcDbLine
 10
15.2348199069
 20
6.5420751917
 30
0.0
 11
15.2348199069
 21
6.5309320168
 31
0.0
  0
LWPOLYLINE
  5
4DA
330
1F
100
AcDbEntity
  8
0
  6
Continuous
 62
     7
370
    15
100
AcDbPolyline
 90
       34
 70
   128
 43
0.0
 10
11.8945646291
 20
6.430372893
 10
11.872312548
 20
6.437893859
 10
11.8532261773
 20
6.4474478572
 10
11.8379953482
 20
6.4586895813
 10
11.8271705425
 20
6.471212726
 10
11.8211429969
 20
6.4845646723
 10
11.8201305627
 20
6.4982628459
 10
11.8241698317
 20
6.5118121593
 10
11.8331148144
 20
6.524722905
 10
11.8466422157
 20
6.5365284549
 10
11.8642631201
 20
6.5468021258
 10
11.8853406622
 20
6.5551726004
 10
11.9091130448
 20
6.5613373479
 10
11.9347210719
 20
6.5650735583
 10
11.9612392027
 20
6.5662461952
 10
11.987709003
 20
6.5648128765
 10
12.0131737852
 20
6.560825406
 10
12.0367131856
 20
6.5544279014
 10
12.0574764291
 20
6.545851585
 10
12.0747130778
 20
6.5354064274
 10
12.0878001545
 20
6.5234699437
 10
12.0962646581
 20
6.5104735495
 10
12.0998006593
 20
6.4968869685
 10
12.0982803579
 20
6.483201255
 10
12.0917587014
 20
6.4699110463
 10
12.0804713997
 20
6.4574966853
 10
12.0648264051
 20
6.4464068594
 10
12.0453891685
 20
6.4370423836
 10
12.0228622023
 20
6.4297417145
 10
11.9980596898
 20
6.4247687175
 10
11.9718780584
 20
6.4223031294
 10
11.9452635804
 20
6.4224340632
 10
11.9191781724
 20
6.4251567865
 10
11.8945646291
 20
6.430372893
  0
LWPOLYLINE
  5
4DB
330
1F
100
AcDbEntity
  8
0
  6
Continuous
 62
     7
370
    15
100
AcDbPolyline
 90
       23
 70
   128
 43
0.0
 10
11.9307335217
 20
6.465674841
 10
11.9163419632
 20
6.4710604794
 10
11.9054793785
 20
6.4783162197
 10
11.8990257895
 20
6.4868542452
 10
11.8975040278
 20
6.4959828557
 10
11.9010373773
 20
6.5049625056
 10
11.9093395872
 20
6.5130657169
 10
11.9217380617
 20
6.5196360157
 10
11.9372283502
 20
6.5241411155
 10
11.9545555216
 20
6.5262160399
 10
11.9723158315
 20
6.5256926908
 10
11.9890704453
 20
6.5226134669
 10
12.0034620039
 20
6.5172278285
 10
12.0143245886
 20
6.5099720882
 10
12.0207781775
 20
6.5014340627
 10
12.0222999393
 20
6.4923054522
 10
12.0187665897
 20
6.4833258023
 10
12.0104643799
 20
6.475222591
 10
11.9980659054
 20
6.4686522922
 10
11.9825756169
 20
6.4641471924
 10
11.9652484455
 20
6.462072268
 10
11.9474881355
 20
6.4625956171
 10
11.9307335217
 20
6.465674841
  0
ARC
  5
4DC
330
1F
100
AcDbEntity
  8
0
  6
Continuous
 62
     7
370
    15
100
AcDbCircle
 10
11.9599019835
 20
6.3703184492
 30
0.0
 40
0.1066541726903217
100
AcDbArc
 50
68.128417991
 51
111.871582009
  0
LWPOLYLINE
  5
4DD
330
1F
100
AcDbEntity
  8
0
  6
Continuous
 62
     7
370
    15
100
AcDbPolyline
 90
        7
 70
   128
 43
0.0
 10
11.7248718237
 20
6.3198486962
 10
11.7252054805
 20
6.3161561365
 10
11.7276793225
 20
6.3099242493
 10
11.7324661954
 20
6.304060675
 10
11.7393821424
 20
6.2987907476
 10
11.7481613874
 20
6.2943169874
 10
11.7584665491
 20
6.2908113185
  0
LWPOLYLINE
  5
4DE
330
1F
100
AcDbEntity
  8
0
  6
Continuous
 62
     7
370
    15
100
AcDbPolyline
 90
       34
 70
   128
 43
0.0
 10
14.9745422055
 20
6.5396145555
 10
14.9522901244
 20
6.5471355215
 10
14.9332037537
 20
6.5566895198
 10
14.9179729246
 20
6.5679312438
 10
14.9071481189
 20
6.5804543885
 10
14.9011205734
 20
6.5938063348
 10
14.9001081391
 20
6.6075045084
 10
14.9041474081
 20
6.6210538219
 10
14.9130923908
 20
6.6339645675
 10
14.9266197921
 20
6.6457701175
 10
14.9442406965
 20
6.6560437883
 10
14.9653182386
 20
6.6644142629
 10
14.9890906212
 20
6.6705790104
 10
15.0146986483
 20
6.6743152208
 10
15.0412167792
 20
6.6754878577
 10
15.0676865794
 20
6.674054539
 10
15.0931513616
 20
6.6700670685
 10
15.116690762
 20
6.6636695639
 10
15.1374540055
 20
6.6550932475
 10
15.1546906543
 20
6.6446480899
 10
15.1677777309
 20
6.6327116062
 10
15.1762422345
 20
6.619715212
 10
15.1797782357
 20
6.606128631
 10
15.1782579343
 20
6.5924429175
 10
15.1717362778
 20
6.5791527088
 10
15.1604489761
 20
6.5667383479
 10
15.1448039815
 20
6.5556485219
 10
15.1253667449
 20
6.5462840461
 10
15.1028397787
 20
6.5389833771
 10
15.0780372662
 20
6.53401038
 10
15.0518556348
 20
6.531544792
 10
15.0252411568
 20
6.5316757257
 10
14.9991557488
 20
6.534398449
 10
14.9745422055
 20
6.5396145555
  0
LWPOLYLINE
  5
4DF
330
1F
100
AcDbEntity
  8
0
  6
Continuous
 62
     7
370
    15
100
AcDbPolyline
 90
       23
 70
   128
 43
0.0
 10
15.0107110981
 20
6.5749165035
 10
14.9963195396
 20
6.5803021419
 10
14.9854569549
 20
6.5875578822
 10
14.979003366
 20
6.5960959077
 10
14.9774816042
 20
6.6052245182
 10
14.9810149537
 20
6.6142041681
 10
14.9893171636
 20
6.6223073794
 10
15.0017156381
 20
6.6288776782
 10
15.0172059266
 20
6.633382778
 10
15.034533098
 20
6.6354577024
 10
15.0522934079
 20
6.6349343533
 10
15.0690480218
 20
6.6318551294
 10
15.0834395803
 20
6.626469491
 10
15.094302165
 20
6.6192137507
 10
15.1007557539
 20
6.6106757252
 10
15.1022775157
 20
6.6015471147
 10
15.0987441661
 20
6.5925674648
 10
15.0904419563
 20
6.5844642535
 10
15.0780434818
 20
6.5778939547
 10
15.0625531933
 20
6.5733888549
 10
15.0452260219
 20
6.5713139305
 10
15.027465712
 20
6.5718372796
 10
15.0107110981
 20
6.5749165035
  0
ARC
  5
4E0
330
1F
100
AcDbEntity
  8
0
  6
Continuous
 62
     7
370
    15
100
AcDbCircle
 10
15.0398795599
 20
6.4795601117
 30
0.0
 40
0.1066541726889114
100
AcDbArc
 50
68.1284179927
 51
111.8715820073
  0
ARC
  5
4E1
330
1F
100
AcDbEntity
  8
0
  6
Continuous
 62
     7
370
    15
100
AcDbCircle
 10
15.2540807637
 20
6.4838350214
 30
0.0
 40
0.020831709346385
100
AcDbArc
 50
310.5783539442
 51
359.0684548148
  0
LWPOLYLINE
  5
4E2
330
1F
100
AcDbEntity
  8
0
  6
Continuous
 62
     7
370
    15
100
AcDbPolyline
 90
        8
 70
   128
 43
0.0
 10
11.7585425551
 20
7.796592982
 10
11.7585220977
 20
7.7965470945
 10
11.7585884539
 20
7.7839089982
 10
11.7641171405
 20
7.7703366953
 10
11.7749350662
 20
7.7566409613
 10
11.7902343179
 20
7.7436473832
 10
11.8087563129
 20
7.7320383729
 10
11.8290769496
 20
7.7222504669
  0
ARC
  5
4E3
330
1F
100
AcDbEntity
  8
0
  6
Continuous
 62
     7
370
    15
100
AcDbCircle
 10
11.9106439767
 20
7.8298643632
 30
0.0
 40
0.1344487964746967
100
AcDbArc
 50
89.7750962471
 51
145.1805736623
  0
ARC
  5
4E4
330
1F
100
AcDbEntity
  8
0
  6
Continuous
 62
     7
370
    15
100
AcDbCircle
 10
15.1918254377
 20
7.9217823559
 30
0.0
 40
0.0500565159702829
100
AcDbArc
 50
315.1808259421
 51
13.4938280128
  0
INSERT
  5
4EA
330
1F
100
AcDbEntity
  8
0
  6
Continuous
 62
     7
370
     0
100
AcDbBlockReference
  2
SW_NOTE_5
 10
10.9896861106
 20
4.3782646815
 30
0.0
  0
LEADER
  5
4EC
330
1F
100
AcDbEntity
  8
0
  6
Continuous
 62
     7
370
     0
100
AcDbLeader
  3
SLDDIMSTYLE3
 76
     2
 10
11.8846194217
 20
5.5762573843
 30
0.0
 10
10.9896861106
 20
4.3782646815
 30
0.0
  0
ENDSEC
  0
SECTION
  2
OBJECTS
  0
DICTIONARY
  5
C
330
0
100
AcDbDictionary
281
     1
  3
ACAD_GROUP
350
D
  3
ACAD_LAYOUT
350
1A
  3
ACAD_MLEADERSTYLE
350
4F0
  3
ACAD_MLINESTYLE
350
17
  3
ACAD_PLOTSETTINGS
350
19
  3
ACAD_PLOTSTYLENAME
350
E
  3
ACAD_SCALELIST
350
3B
  3
ACAD_TABLESTYLE
350
4EF
  3
ACAD_VISUALSTYLE
350
2A
  3
AcDbVariableDictionary
350
4ED
  0
DICTIONARY
  5
D
102
{ACAD_REACTORS
330
C
102
}
330
C
100
AcDbDictionary
281
     1
  0
DICTIONARY
  5
1A
102
{ACAD_REACTORS
330
C
102
}
330
C
100
AcDbDictionary
281
     1
  3
Layout1
350
1E
  3
Layout2
350
26
  3
Model
350
22
  0
DICTIONARY
  5
4F0
102
{ACAD_REACTORS
330
C
102
}
330
C
100
AcDbDictionary
281
     1
  0
DICTIONARY
  5
17
102
{ACAD_REACTORS
330
C
102
}
330
C
100
AcDbDictionary
281
     1
  3
Standard
350
18
  0
DICTIONARY
  5
19
102
{ACAD_REACTORS
330
C
102
}
330
C
100
AcDbDictionary
281
     1
  0
ACDBDICTIONARYWDFLT
  5
E
102
{ACAD_REACTORS
330
C
102
}
330
C
100
AcDbDictionary
281
     1
  3
Normal
350
F
100
AcDbDictionaryWithDefault
340
F
  0
DICTIONARY
  5
3B
102
{ACAD_REACTORS
330
C
102
}
330
C
100
AcDbDictionary
281
     1
  3
A0
350
3C
  3
A1
350
3D
  3
A2
350
3E
  3
A3
350
3F
  3
A4
350
40
  3
A5
350
41
  3
A6
350
42
  3
A7
350
43
  3
A8
350
44
  3
A9
350
45
  3
B0
350
46
  3
B1
350
47
  3
B2
350
48
  3
B3
350
49
  3
B4
350
4A
  3
B5
350
4B
  3
B6
350
4C
  3
B7
350
4D
  3
B8
350
4E
  3
B9
350
4F
  3
C0
350
50
  3
C1
350
51
  3
C2
350
52
  3
C3
350
53
  3
C4
350
54
  3
C5
350
55
  3
C6
350
56
  3
C7
350
57
  3
C8
350
58
  3
C9
350
59
  3
D0
350
5A
  3
D1
350
5B
  3
D2
350
5C
  0
DICTIONARY
  5
4EF
102
{ACAD_REACTORS
330
C
102
}
330
C
100
AcDbDictionary
281
     1
  0
DICTIONARY
  5
2A
102
{ACAD_REACTORS
330
C
102
}
330
C
100
AcDbDictionary
281
     1
  3
2dWireframe
350
2F
  3
3D Hidden
350
31
  3
3dWireframe
350
30
  3
Basic
350
32
  3
Brighten
350
36
  3
ColorChange
350
3A
  3
Conceptual
350
34
  3
Dim
350
35
  3
Facepattern
350
39
  3
Flat
350
2B
  3
FlatWithEdges
350
2C
  3
Gouraud
350
2D
  3
GouraudWithEdges
350
2E
  3
Linepattern
350
38
  3
Realistic
350
33
  3
Thicken
350
37
  0
DICTIONARY
  5
4ED
102
{ACAD_REACTORS
330
C
102
}
330
C
100
AcDbDictionary
281
     1
  3
CANNOSCALE
350
4EE
  0
LAYOUT
  5
1E
102
{ACAD_REACTORS
330
1A
102
}
330
1A
100
AcDbPlotSettings
  1

  2
none_device
  4

  6

 40
0.0
 41
0.0
 42
0.0
 43
0.0
 44
0.0
 45
0.0
 46
0.0
 47
0.0
 48
0.0
 49
0.0
140
0.0
141
0.0
142
1.0
143
1.0
 70
   688
 72
     0
 73
     0
 74
     5
  7

 75
    16
147
1.0
148
0.0
149
0.0
100
AcDbLayout
  1
Layout1
 70
     1
 71
     1
 10
0.0
 20
0.0
 11
12.0
 21
9.0
 12
0.0
 22
0.0
 32
0.0
 14
1.0000000000E+20
 24
1.0000000000E+20
 34
1.0000000000E+20
 15
-1.0000000000E+20
 25
-1.0000000000E+20
 35
-1.0000000000E+20
146
0.0
 13
0.0
 23
0.0
 33
0.0
 16
1.0
 26
0.0
 36
0.0
 17
0.0
 27
1.0
 37
0.0
 76
     0
330
1B
  0
LAYOUT
  5
26
102
{ACAD_REACTORS
330
1A
102
}
330
1A
100
AcDbPlotSettings
  1

  2
none_device
  4

  6

 40
0.0
 41
0.0
 42
0.0
 43
0.0
 44
0.0
 45
0.0
 46
0.0
 47
0.0
 48
0.0
 49
0.0
140
0.0
141
0.0
142
1.0
143
1.0
 70
   688
 72
     0
 73
     0
 74
     5
  7

 75
    16
147
1.0
148
0.0
149
0.0
100
AcDbLayout
  1
Layout2
 70
     1
 71
     2
 10
0.0
 20
0.0
 11
0.0
 21
0.0
 12
0.0
 22
0.0
 32
0.0
 14
0.0
 24
0.0
 34
0.0
 15
0.0
 25
0.0
 35
0.0
146
0.0
 13
0.0
 23
0.0
 33
0.0
 16
1.0
 26
0.0
 36
0.0
 17
0.0
 27
1.0
 37
0.0
 76
     0
330
23
  0
LAYOUT
  5
22
102
{ACAD_REACTORS
330
1A
102
}
330
1A
100
AcDbPlotSettings
  1

  2
none_device
  4

  6

 40
0.0
 41
0.0
 42
0.0
 43
0.0
 44
0.0
 45
0.0
 46
0.0
 47
0.0
 48
0.0
 49
0.0
140
0.0
141
0.0
142
1.0
143
1.0
 70
  1712
 72
     0
 73
     0
 74
     0
  7

 75
     0
147
1.0
148
0.0
149
0.0
100
AcDbLayout
  1
Model
 70
     1
 71
     0
 10
0.0
 20
0.0
 11
17.0
 21
11.0
 12
0.0
 22
0.0
 32
0.0
 14
0.0
 24
0.0
 34
0.0
 15
17.0
 25
11.0
 35
0.0
146
0.0
 13
0.0
 23
0.0
 33
0.0
 16
1.0
 26
0.0
 36
0.0
 17
0.0
 27
1.0
 37
0.0
 76
     0
330
1F
331
29
  0
MLINESTYLE
  5
18
102
{ACAD_REACTORS
330
17
102
}
330
17
100
AcDbMlineStyle
  2
Standard
 70
     0
  3

 62
   256
 51
90.0
 52
90.0
 71
     2
 49
0.5
 62
   256
  6
BYLAYER
 49
-0.5
 62
   256
  6
BYLAYER
  0
ACDBPLACEHOLDER
  5
F
102
{ACAD_REACTORS
330
E
102
}
330
E
  0
SCALE
  5
3C
102
{ACAD_REACTORS
330
3B
102
}
330
3B
100
AcDbScale
 70
     0
300
1:1
140
1.0
141
1.0
290
     1
  0
SCALE
  5
3D
102
{ACAD_REACTORS
330
3B
102
}
330
3B
100
AcDbScale
 70
     0
300
1:2
140
1.0
141
2.0
290
     0
  0
SCALE
  5
3E
102
{ACAD_REACTORS
330
3B
102
}
330
3B
100
AcDbScale
 70
     0
300
1:4
140
1.0
141
4.0
290
     0
  0
SCALE
  5
3F
102
{ACAD_REACTORS
330
3B
102
}
330
3B
100
AcDbScale
 70
     0
300
1:5
140
1.0
141
5.0
290
     0
  0
SCALE
  5
40
102
{ACAD_REACTORS
330
3B
102
}
330
3B
100
AcDbScale
 70
     0
300
1:8
140
1.0
141
8.0
290
     0
  0
SCALE
  5
41
102
{ACAD_REACTORS
330
3B
102
}
330
3B
100
AcDbScale
 70
     0
300
1:10
140
1.0
141
10.0
290
     0
  0
SCALE
  5
42
102
{ACAD_REACTORS
330
3B
102
}
330
3B
100
AcDbScale
 70
     0
300
1:16
140
1.0
141
16.0
290
     0
  0
SCALE
  5
43
102
{ACAD_REACTORS
330
3B
102
}
330
3B
100
AcDbScale
 70
     0
300
1:20
140
1.0
141
20.0
290
     0
  0
SCALE
  5
44
102
{ACAD_REACTORS
330
3B
102
}
330
3B
100
AcDbScale
 70
     0
300
1:30
140
1.0
141
30.0
290
     0
  0
SCALE
  5
45
102
{ACAD_REACTORS
330
3B
102
}
330
3B
100
AcDbScale
 70
     0
300
1:40
140
1.0
141
40.0
290
     0
  0
SCALE
  5
46
102
{ACAD_REACTORS
330
3B
102
}
330
3B
100
AcDbScale
 70
     0
300
1:50
140
1.0
141
50.0
290
     0
  0
SCALE
  5
47
102
{ACAD_REACTORS
330
3B
102
}
330
3B
100
AcDbScale
 70
     0
300
1:100
140
1.0
141
100.0
290
     0
  0
SCALE
  5
48
102
{ACAD_REACTORS
330
3B
102
}
330
3B
100
AcDbScale
 70
     0
300
2:1
140
2.0
141
1.0
290
     0
  0
SCALE
  5
49
102
{ACAD_REACTORS
330
3B
102
}
330
3B
100
AcDbScale
 70
     0
300
4:1
140
4.0
141
1.0
290
     0
  0
SCALE
  5
4A
102
{ACAD_REACTORS
330
3B
102
}
330
3B
100
AcDbScale
 70
     0
300
8:1
140
8.0
141
1.0
290
     0
  0
SCALE
  5
4B
102
{ACAD_REACTORS
330
3B
102
}
330
3B
100
AcDbScale
 70
     0
300
10:1
140
10.0
141
1.0
290
     0
  0
SCALE
  5
4C
102
{ACAD_REACTORS
330
3B
102
}
330
3B
100
AcDbScale
 70
     0
300
100:1
140
100.0
141
1.0
290
     0
  0
SCALE
  5
4D
102
{ACAD_REACTORS
330
3B
102
}
330
3B
100
AcDbScale
 70
     0
300
1/128" = 1'-0"
140
0.0078125
141
12.0
290
     0
  0
SCALE
  5
4E
102
{ACAD_REACTORS
330
3B
102
}
330
3B
100
AcDbScale
 70
     0
300
1/64" = 1'-0"
140
0.015625
141
12.0
290
     0
  0
SCALE
  5
4F
102
{ACAD_REACTORS
330
3B
102
}
330
3B
100
AcDbScale
 70
     0
300
1/32" = 1'-0"
140
0.03125
141
12.0
290
     0
  0
SCALE
  5
50
102
{ACAD_REACTORS
330
3B
102
}
330
3B
100
AcDbScale
 70
     0
300
1/16" = 1'-0"
140
0.0625
141
12.0
290
     0
  0
SCALE
  5
51
102
{ACAD_REACTORS
330
3B
102
}
330
3B
100
AcDbScale
 70
     0
300
3/32" = 1'-0"
140
0.09375
141
12.0
290
     0
  0
SCALE
  5
52
102
{ACAD_REACTORS
330
3B
102
}
330
3B
100
AcDbScale
 70
     0
300
1/8" = 1'-0"
140
0.125
141
12.0
290
     0
  0
SCALE
  5
53
102
{ACAD_REACTORS
330
3B
102
}
330
3B
100
AcDbScale
 70
     0
300
3/16" = 1'-0"
140
0.1875
141
12.0
290
     0
  0
SCALE
  5
54
102
{ACAD_REACTORS
330
3B
102
}
330
3B
100
AcDbScale
 70
     0
300
1/4" = 1'-0"
140
0.25
141
12.0
290
     0
  0
SCALE
  5
55
102
{ACAD_REACTORS
330
3B
102
}
330
3B
100
AcDbScale
 70
     0
300
3/8" = 1'-0"
140
0.375
141
12.0
290
     0
  0
SCALE
  5
56
102
{ACAD_REACTORS
330
3B
102
}
330
3B
100
AcDbScale
 70
     0
300
1/2" = 1'-0"
140
0.5
141
12.0
290
     0
  0
SCALE
  5
57
102
{ACAD_REACTORS
330
3B
102
}
330
3B
100
AcDbScale
 70
     0
300
3/4" = 1'-0"
140
0.75
141
12.0
290
     0
  0
SCALE
  5
58
102
{ACAD_REACTORS
330
3B
102
}
330
3B
100
AcDbScale
 70
     0
300
1" = 1'-0"
140
1.0
141
12.0
290
     0
  0
SCALE
  5
59
102
{ACAD_REACTORS
330
3B
102
}
330
3B
100
AcDbScale
 70
     0
300
1-1/2" = 1'-0"
140
1.5
141
12.0
290
     0
  0
SCALE
  5
5A
102
{ACAD_REACTORS
330
3B
102
}
330
3B
100
AcDbScale
 70
     0
300
3" = 1'-0"
140
3.0
141
12.0
290
     0
  0
SCALE
  5
5B
102
{ACAD_REACTORS
330
3B
102
}
330
3B
100
AcDbScale
 70
     0
300
6" = 1'-0"
140
6.0
141
12.0
290
     0
  0
SCALE
  5
5C
102
{ACAD_REACTORS
330
3B
102
}
330
3B
100
AcDbScale
 70
     0
300
1'-0" = 1'-0"
140
12.0
141
12.0
290
     0
  0
VISUALSTYLE
  5
2F
102
{ACAD_REACTORS
330
2A
102
}
330
2A
100
AcDbVisualStyle
  2
2dWireframe
 70
     4
 71
     0
 72
     2
 73
     0
 90
        0
 40
-0.6
 41
-30.0
 62
     5
 63
     7
 74
     1
 91
        4
 64
     7
 65
   257
 75
     1
175
     1
 42
1.0
 92
        0
 66
   257
 43
1.0
 76
     1
 77
     6
 78
     2
 67
     7
 79
     5
170
     0
171
     0
290
     0
174
     0
 93
        1
 44
0.0
173
     0
291
     0
 45
0.0
1001
ACAD
1000
AcDbSavedByObjectVersion
1070
     0
  0
VISUALSTYLE
  5
31
102
{ACAD_REACTORS
330
2A
102
}
330
2A
100
AcDbVisualStyle
  2
3D Hidden
 70
     6
 71
     1
 72
     2
 73
     2
 90
        0
 40
-0.6
 41
-30.0
 62
     5
 63
     7
 74
     2
 91
        2
 64
     7
 65
   257
 75
     2
175
     1
 42
40.0
 92
        0
 66
   257
 43
1.0
 76
     1
 77
     6
 78
     2
 67
     7
 79
     3
170
     0
171
     0
290
     0
174
     0
 93
        1
 44
0.0
173
     0
291
     0
 45
0.0
1001
ACAD
1000
AcDbSavedByObjectVersion
1070
     0
  0
VISUALSTYLE
  5
30
102
{ACAD_REACTORS
330
2A
102
}
330
2A
100
AcDbVisualStyle
  2
3dWireframe
 70
     5
 71
     0
 72
     2
 73
     0
 90
        0
 40
-0.6
 41
-30.0
 62
     5
 63
     7
 74
     1
 91
        4
 64
     7
 65
   257
 75
     1
175
     1
 42
1.0
 92
        0
 66
   257
 43
1.0
 76
     1
 77
     6
 78
     2
 67
     7
 79
     5
170
     0
171
     0
290
     0
174
     0
 93
        1
 44
0.0
173
     0
291
     0
 45
0.0
1001
ACAD
1000
AcDbSavedByObjectVersion
1070
     0
  0
VISUALSTYLE
  5
32
102
{ACAD_REACTORS
330
2A
102
}
330
2A
100
AcDbVisualStyle
  2
Basic
 70
     7
 71
     1
 72
     0
 73
     1
 90
        0
 40
-0.6
 41
-30.0
 62
     5
 63
     7
 74
     0
 91
        4
 64
     7
 65
   257
 75
     1
175
     1
 42
1.0
 92
        8
 66
     7
 43
1.0
 76
     1
 77
     6
 78
     2
 67
     7
 79
     5
170
     0
171
     0
290
     0
174
     0
 93
        1
 44
0.0
173
     0
291
     1
 45
0.0
1001
ACAD
1000
AcDbSavedByObjectVersion
1070
     0
  0
VISUALSTYLE
  5
36
102
{ACAD_REACTORS
330
2A
102
}
330
2A
100
AcDbVisualStyle
  2
Brighten
 70
    12
 71
     2
 72
     2
 73
     0
 90
        0
 40
-0.6
 41
-30.0
 62
     5
 63
     7
 74
     1
 91
        4
 64
     7
 65
   257
 75
     1
175
     1
 42
1.0
 92
        8
 66
     7
 43
1.0
 76
     1
 77
     6
 78
     2
 67
     7
 79
     5
170
     0
171
     0
290
     0
174
     0
 93
        1
 44
50.0
173
     0
291
     1
 45
0.0
1001
ACAD
1000
AcDbSavedByObjectVersion
1070
     0
  0
VISUALSTYLE
  5
3A
102
{ACAD_REACTORS
330
2A
102
}
330
2A
100
AcDbVisualStyle
  2
ColorChange
 70
    16
 71
     2
 72
     2
 73
     3
 90
        0
 40
-0.6
 41
-30.0
 62
     5
 63
     8
 74
     1
 91
        4
 64
     7
 65
   257
 75
     1
175
     1
 42
1.0
 92
        8
 66
     8
 43
1.0
 76
     1
 77
     6
 78
     2
 67
     7
 79
     5
170
     0
171
     0
290
     0
174
     0
 93
        1
 44
0.0
173
     0
291
     1
 45
0.0
1001
ACAD
1000
AcDbSavedByObjectVersion
1070
     0
  0
VISUALSTYLE
  5
34
102
{ACAD_REACTORS
330
2A
102
}
330
2A
100
AcDbVisualStyle
  2
Conceptual
 70
     9
 71
     3
 72
     2
 73
     0
 90
        0
 40
-0.6
 41
-30.0
 62
     5
 63
     7
 74
     2
 91
        2
 64
     7
 65
   257
 75
     1
175
     1
 42
40.0
 92
        8
 66
     7
 43
1.0
 76
     1
 77
     6
 78
     2
 67
     7
 79
     3
170
     0
171
     0
290
     0
174
     0
 93
        1
 44
0.0
173
     0
291
     0
 45
0.0
1001
ACAD
1000
AcDbSavedByObjectVersion
1070
     0
  0
VISUALSTYLE
  5
35
102
{ACAD_REACTORS
330
2A
102
}
330
2A
100
AcDbVisualStyle
  2
Dim
 70
    11
 71
     2
 72
     2
 73
     0
 90
        0
 40
-0.6
 41
-30.0
 62
     5
 63
     7
 74
     1
 91
        4
 64
     7
 65
   257
 75
     1
175
     1
 42
1.0
 92
        8
 66
     7
 43
1.0
 76
     1
 77
     6
 78
     2
 67
     7
 79
     5
170
     0
171
     0
290
     0
174
     0
 93
        1
 44
-50.0
173
     0
291
     1
 45
0.0
1001
ACAD
1000
AcDbSavedByObjectVersion
1070
     0
  0
VISUALSTYLE
  5
39
102
{ACAD_REACTORS
330
2A
102
}
330
2A
100
AcDbVisualStyle
  2
Facepattern
 70
    15
 71
     2
 72
     2
 73
     0
 90
        0
 40
-0.6
 41
-30.0
 62
     5
 63
     7
 74
     1
 91
        4
 64
     7
 65
   257
 75
     1
175
     1
 42
1.0
 92
        8
 66
     7
 43
1.0
 76
     1
 77
     6
 78
     2
 67
     7
 79
     5
170
     0
171
     0
290
     0
174
     0
 93
        1
 44
0.0
173
     0
291
     1
 45
0.0
1001
ACAD
1000
AcDbSavedByObjectVersion
1070
     0
  0
VISUALSTYLE
  5
2B
102
{ACAD_REACTORS
330
2A
102
}
330
2A
100
AcDbVisualStyle
  2
Flat
 70
     0
 71
     2
 72
     1
 73
     1
 90
        2
 40
-0.6
 41
30.0
 62
     5
 63
     7
 74
     0
 91
        4
 64
     7
 65
   257
 75
     1
175
     1
 42
1.0
 92
        8
 66
     7
 43
1.0
 76
     1
 77
     6
 78
     2
 67
     7
 79
     5
170
     0
171
     0
290
     0
174
     0
 93
       13
 44
0.0
173
     0
291
     1
 45
0.0
1001
ACAD
1000
AcDbSavedByObjectVersion
1070
     0
  0
VISUALSTYLE
  5
2C
102
{ACAD_REACTORS
330
2A
102
}
330
2A
100
AcDbVisualStyle
  2
FlatWithEdges
 70
     1
 71
     2
 72
     1
 73
     1
 90
        2
 40
-0.6
 41
30.0
 62
     5
 63
     7
 74
     1
 91
        4
 64
     7
 65
   257
 75
     1
175
     1
 42
1.0
 92
        0
 66
   257
 43
1.0
 76
     1
 77
     6
 78
     2
 67
     7
 79
     5
170
     0
171
     0
290
     0
174
     0
 93
       13
 44
0.0
173
     0
291
     1
 45
0.0
1001
ACAD
1000
AcDbSavedByObjectVersion
1070
     0
  0
VISUALSTYLE
  5
2D
102
{ACAD_REACTORS
330
2A
102
}
330
2A
100
AcDbVisualStyle
  2
Gouraud
 70
     2
 71
     2
 72
     2
 73
     1
 90
        2
 40
-0.6
 41
30.0
 62
     5
 63
     7
 74
     0
 91
        4
 64
     7
 65
   257
 75
     1
175
     1
 42
1.0
 92
        0
 66
     7
 43
1.0
 76
     1
 77
     6
 78
     2
 67
     7
 79
     5
170
     0
171
     0
290
     0
174
     0
 93
       13
 44
0.0
173
     0
291
     1
 45
0.0
1001
ACAD
1000
AcDbSavedByObjectVersion
1070
     0
  0
VISUALSTYLE
  5
2E
102
{ACAD_REACTORS
330
2A
102
}
330
2A
100
AcDbVisualStyle
  2
GouraudWithEdges
 70
     3
 71
     2
 72
     2
 73
     1
 90
        2
 40
-0.6
 41
30.0
 62
     5
 63
     7
 74
     1
 91
        4
 64
     7
 65
   257
 75
     1
175
     1
 42
1.0
 92
        0
 66
   257
 43
1.0
 76
     1
 77
     6
 78
     2
 67
     7
 79
     5
170
     0
171
     0
290
     0
174
     0
 93
       13
 44
0.0
173
     0
291
     1
 45
0.0
1001
ACAD
1000
AcDbSavedByObjectVersion
1070
     0
  0
VISUALSTYLE
  5
38
102
{ACAD_REACTORS
330
2A
102
}
330
2A
100
AcDbVisualStyle
  2
Linepattern
 70
    14
 71
     2
 72
     2
 73
     0
 90
        0
 40
-0.6
 41
-30.0
 62
     5
 63
     7
 74
     1
 91
        4
 64
     7
 65
   257
 75
     7
175
     7
 42
1.0
 92
        8
 66
     7
 43
1.0
 76
     1
 77
     6
 78
     2
 67
     7
 79
     5
170
     0
171
     0
290
     0
174
     0
 93
        1
 44
0.0
173
     0
291
     1
 45
0.0
1001
ACAD
1000
AcDbSavedByObjectVersion
1070
     0
  0
VISUALSTYLE
  5
33
102
{ACAD_REACTORS
330
2A
102
}
330
2A
100
AcDbVisualStyle
  2
Realistic
 70
     8
 71
     2
 72
     2
 73
     0
 90
        0
 40
-0.6
 41
-30.0
 62
     5
 63
     7
 74
     1
 91
        0
 64
     7
 65
   257
 75
     1
175
     1
 42
1.0
 92
        8
 66
     8
 43
1.0
 76
     1
 77
     6
 78
     2
 67
     7
 79
     5
170
     0
171
     0
290
     0
174
     0
 93
       13
 44
0.0
173
     0
291
     0
 45
0.0
1001
ACAD
1000
AcDbSavedByObjectVersion
1070
     0
  0
VISUALSTYLE
  5
37
102
{ACAD_REACTORS
330
2A
102
}
330
2A
100
AcDbVisualStyle
  2
Thicken
 70
    13
 71
     2
 72
     2
 73
     0
 90
        0
 40
-0.6
 41
-30.0
 62
     5
 63
     7
 74
     1
 91
        4
 64
     7
 65
   257
 75
     1
175
     1
 42
1.0
 92
       12
 66
     7
 43
1.0
 76
     1
 77
     6
 78
     2
 67
     7
 79
     5
170
     0
171
     0
290
     0
174
     0
 93
        1
 44
0.0
173
     0
291
     1
 45
0.0
1001
ACAD
1000
AcDbSavedByObjectVersion
1070
     0
  0
DICTIONARYVAR
  5
4EE
102
{ACAD_REACTORS
330
4ED
102
}
330
4ED
100
DictionaryVariables
280
     0
  1
1:1
  0
ENDSEC
  0
EOF
