  0
SECTION
  2
HEADER
  9
$ACADVER
  1
AC1009
  9
$INSBASE
 10
0.0
 20
0.0
 30
0.0
  9
$EXTMIN
 10
0.0
 20
0.0
 30
0.0
  9
$EXTMAX
 10
45.54
 20
69.75
 30
0.0
  9
$LIMMIN
 10
0.0
 20
0.0
  9
$LIMMAX
 10
45.54
 20
69.75
  9
$ORTHOMODE
 70
     1
  9
$REGENMODE
 70
     1
  9
$FILLMODE
 70
     1
  9
$QTEXTMODE
 70
     0
  9
$MIRRTEXT
 70
     0
  9
$DRAGMODE
 70
     2
  9
$LTSCALE
 40
1.0
  9
$OSMODE
 70
     0
  9
$ATTMODE
 70
     1
  9
$TEXTSIZE
 40
0.125
  9
$TRACEWID
 40
0.05
  9
$TEXTSTYLE
  7
TXT
  9
$CLAYER
  8
OBJECT
  9
$CELTYPE
  6
BYLAYER
  9
$CECOLOR
 62
   256
  9
$DIMSCALE
 40
4.5
  9
$DIMASZ
 40
0.18
  9
$DIMEXO
 40
0.063
  9
$DIMDLI
 40
0.281
  9
$DIMRND
 40
0.0
  9
$DIMDLE
 40
0.0
  9
$DIMEXE
 40
0.093
  9
$DIMTP
 40
0.0
  9
$DIMTM
 40
0.0
  9
$DIMTXT
 40
0.125
  9
$DIMCEN
 40
0.09
  9
$DIMTSZ
 40
0.0
  9
$DIMTOL
 70
     0
  9
$DIMLIM
 70
     0
  9
$DIMTIH
 70
     1
  9
$DIMTOH
 70
     1
  9
$DIMSE1
 70
     0
  9
$DIMSE2
 70
     0
  9
$DIMTAD
 70
     0
  9
$DIMZIN
 70
     0
  9
$DIMBLK
  1

  9
$DIMASO
 70
     1
  9
$DIMSHO
 70
     1
  9
$DIMPOST
  1

  9
$DIMAPOST
  1

  9
$DIMALT
 70
     0
  9
$DIMALTD
 70
     2
  9
$DIMALTF
 40
25.4
  9
$DIMLFAC
 40
1.0
  9
$DIMTOFL
 70
     0
  9
$DIMTVP
 40
0.0
  9
$DIMTIX
 70
     0
  9
$DIMSOXD
 70
     0
  9
$DIMSAH
 70
     0
  9
$DIMBLK1
  1

  9
$DIMBLK2
  1

  9
$DIMSTYLE
  2
23NSTD
  9
$DIMCLRD
 70
     0
  9
$DIMCLRE
 70
     0
  9
$DIMCLRT
 70
     0
  9
$DIMTFAC
 40
1.0
  9
$DIMGAP
 40
0.09
  9
$LUNITS
 70
     2
  9
$LUPREC
 70
     3
  9
$SKETCHINC
 40
0.1
  9
$FILLETRAD
 40
0.0
  9
$AUNITS
 70
     0
  9
$AUPREC
 70
     0
  9
$MENU
  1
acad
  9
$ELEVATION
 40
0.0
  9
$PELEVATION
 40
0.0
  9
$THICKNESS
 40
0.0
  9
$LIMCHECK
 70
     0
  9
$BLIPMODE
 70
     1
  9
$CHAMFERA
 40
0.0
  9
$CHAMFERB
 40
0.0
  9
$SKPOLY
 70
     0
  9
$TDCREATE
 40
2450344.625454513
  9
$TDUPDATE
 40
2450945.299271990
  9
$TDINDWG
 40
0.1228219907
  9
$TDUSRTIMER
 40
0.1228219907
  9
$USRTIMER
 70
     1
  9
$ANGBASE
 50
0.0
  9
$ANGDIR
 70
     0
  9
$PDMODE
 70
     0
  9
$PDSIZE
 40
0.0
  9
$PLINEWID
 40
0.0
  9
$COORDS
 70
     0
  9
$SPLFRAME
 70
     0
  9
$SPLINETYPE
 70
     6
  9
$SPLINESEGS
 70
     8
  9
$ATTDIA
 70
     0
  9
$ATTREQ
 70
     1
  9
$HANDLING
 70
     0
  9
$HANDSEED
  5
0
  9
$SURFTAB1
 70
     6
  9
$SURFTAB2
 70
     6
  9
$SURFTYPE
 70
     6
  9
$SURFU
 70
     6
  9
$SURFV
 70
     6
  9
$UCSNAME
  2

  9
$UCSORG
 10
0.0
 20
0.0
 30
0.0
  9
$UCSXDIR
 10
1.0
 20
0.0
 30
0.0
  9
$UCSYDIR
 10
0.0
 20
1.0
 30
0.0
  9
$PUCSNAME
  2

  9
$PUCSORG
 10
0.0
 20
0.0
 30
0.0
  9
$PUCSXDIR
 10
1.0
 20
0.0
 30
0.0
  9
$PUCSYDIR
 10
0.0
 20
1.0
 30
0.0
  9
$USERI1
 70
     0
  9
$USERI2
 70
     0
  9
$USERI3
 70
     0
  9
$USERI4
 70
     0
  9
$USERI5
 70
     0
  9
$USERR1
 40
0.0
  9
$USERR2
 40
0.0
  9
$USERR3
 40
0.0
  9
$USERR4
 40
0.0
  9
$USERR5
 40
0.0
  9
$WORLDVIEW
 70
     1
  9
$SHADEDGE
 70
     3
  9
$SHADEDIF
 70
    70
  9
$TILEMODE
 70
     1
  9
$MAXACTVP
 70
    16
  9
$PINSBASE
 10
0.0
 20
0.0
 30
0.0
  9
$PLIMCHECK
 70
     0
  9
$PEXTMIN
 10
1.000000E+20
 20
1.000000E+20
 30
1.000000E+20
  9
$PEXTMAX
 10
-1.000000E+20
 20
-1.000000E+20
 30
-1.000000E+20
  9
$PLIMMIN
 10
0.0
 20
0.0
  9
$PLIMMAX
 10
12.0
 20
9.0
  9
$UNITMODE
 70
     0
  9
$VISRETAIN
 70
     0
  9
$PLINEGEN
 70
     0
  9
$PSLTSCALE
 70
     1
  9
$TREEDEPTH
 70
  3020
  9
$DWGCODEPAGE
  3
ascii
  0
ENDSEC
  0
SECTION
  2
TABLES
  0
TABLE
  2
VPORT
 70
     2
  0
VPORT
  2
*ACTIVE
 70
     0
 10
0.0
 20
0.0
 11
1.0
 21
1.0
 12
47.511591
 22
34.875
 13
0.0
 23
0.0
 14
1.0
 24
1.0
 15
0.0
 25
0.0
 16
0.0
 26
0.0
 36
1.0
 17
0.0
 27
0.0
 37
0.0
 40
69.75
 41
1.36234
 42
50.0
 43
0.0
 44
0.0
 50
0.0
 51
0.0
 71
     0
 72
   500
 73
     1
 74
     0
 75
     0
 76
     0
 77
     0
 78
     0
  0
ENDTAB
  0
TABLE
  2
LTYPE
 70
     5
  0
LTYPE
  2
CONTINUOUS
 70
    64
  3
Solid line
 72
    65
 73
     0
 40
0.0
  0
LTYPE
  2
HIDDEN
 70
    64
  3
_ _ _ _ _ _ _ _ _ _ _ _ _ _ _ _ _ _ _ _ _ _ _
 72
    65
 73
     2
 40
0.375
 49
0.25
 49
-0.125
  0
LTYPE
  2
PHANTOM
 70
    64
  3
_____ _ _ _____ _ _ _____ _ _ _____ _ _ ____
 72
    65
 73
     6
 40
2.5
 49
1.25
 49
-0.25
 49
0.25
 49
-0.25
 49
0.25
 49
-0.25
  0
LTYPE
  2
CENTER
 70
    64
  3
____ _ ____ _ ____ _ ____ _ ____ _ ____ _ ____
 72
    65
 73
     4
 40
2.0
 49
1.25
 49
-0.25
 49
0.25
 49
-0.25
  0
LTYPE
  2
HIDDEN2
 70
    64
  3
_ _ _ _ _ _ _ _ _ _ _ _ _ _ _ _ _ _ _ _ _ _ _ _
 72
    65
 73
     2
 40
0.1875
 49
0.125
 49
-0.0625
  0
ENDTAB
  0
TABLE
  2
LAYER
 70
     9
  0
LAYER
  2
0
 70
    64
 62
     7
  6
CONTINUOUS
  0
LAYER
  2
OBJECT
 70
    64
 62
     7
  6
CONTINUOUS
  0
LAYER
  2
DIM
 70
    64
 62
     7
  6
CONTINUOUS
  0
LAYER
  2
HIDDEN
 70
    64
 62
     7
  6
HIDDEN
  0
LAYER
  2
BEND
 70
    64
 62
     7
  6
PHANTOM
  0
LAYER
  2
TEXT
 70
    64
 62
     7
  6
CONTINUOUS
  0
LAYER
  2
TITLE
 70
    64
 62
     7
  6
CONTINUOUS
  0
LAYER
  2
CENTER
 70
    64
 62
     7
  6
CENTER
  0
LAYER
  2
DEFPOINTS
 70
    64
 62
     7
  6
CONTINUOUS
  0
ENDTAB
  0
TABLE
  2
STYLE
 70
     3
  0
STYLE
  2
STANDARD
 70
    64
 40
0.0
 41
1.0
 50
0.0
 71
     0
 42
0.2
  3
txt
  4

  0
STYLE
  2
TXT
 70
    64
 40
0.0
 41
0.75
 50
0.0
 71
     0
 42
0.125
  3
TXT.shx
  4

  0
STYLE
  2
SECTION
 70
    64
 40
0.0
 41
0.8
 50
0.0
 71
     0
 42
0.2
  3
ROMANT.SHX
  4

  0
ENDTAB
  0
TABLE
  2
VIEW
 70
     0
  0
ENDTAB
  0
TABLE
  2
UCS
 70
     0
  0
ENDTAB
  0
TABLE
  2
APPID
 70
     1
  0
APPID
  2
ACAD
 70
    64
  0
ENDTAB
  0
TABLE
  2
DIMSTYLE
 70
     2
  0
DIMSTYLE
  2
23NSTD
 70
    64
  3

  4

  5

  6

  7

 40
4.5
 41
0.18
 42
0.063
 43
0.281
 44
0.093
 45
0.0
 46
0.0
 47
0.0
 48
0.0
140
0.125
141
0.09
142
0.0
143
25.4
144
1.0
145
0.0
146
1.0
147
0.09
 71
     0
 72
     0
 73
     1
 74
     1
 75
     0
 76
     0
 77
     0
 78
     0
170
     0
171
     2
172
     0
173
     0
174
     0
175
     0
176
     0
177
     0
178
     0
  0
DIMSTYLE
  2
23NSTDI
 70
    64
  3

  4

  5

  6

  7

 40
4.5
 41
0.18
 42
0.063
 43
0.281
 44
0.093
 45
0.0
 46
0.0
 47
0.0
 48
0.0
140
0.125
141
0.09
142
0.0
143
25.4
144
1.0
145
0.0
146
1.0
147
0.09
 71
     0
 72
     0
 73
     1
 74
     1
 75
     0
 76
     0
 77
     0
 78
     0
170
     0
171
     2
172
     0
173
     0
174
     1
175
     0
176
     0
177
     0
178
     0
  0
ENDTAB
  0
ENDSEC
  0
SECTION
  2
BLOCKS
  0
BLOCK
  8
0
  2
SECTION
 70
    66
 10
0.0
 20
0.0
 30
0.0
  3
SECTION
  0
ATTDEF
  8
0
 10
-0.125
 20
0.671429
 30
0.0
 40
0.25
  1

  3
Enter section
  2
SECTION
 70
     0
 50
270.0
 41
0.8
  7
SECTION
 72
     4
 11
0.0
 21
0.0
 31
0.0
  0
ENDBLK
  8
0
  0
BLOCK
  8
0
  2
*D1
 70
    65
 10
0.0
 20
0.0
 30
0.0
  3
*D
  0
LINE
  8
0
  6
BYBLOCK
 62
     0
 10
13.237806
 20
44.238854
 30
0.0
 11
14.622395
 21
44.238854
 31
0.0
  0
LINE
  8
0
  6
BYBLOCK
 62
     0
 10
13.237806
 20
47.488854
 30
0.0
 11
14.622395
 21
47.488854
 31
0.0
  0
LINE
  8
0
  6
BYBLOCK
 62
     0
 10
14.203895
 20
43.428854
 30
0.0
 11
14.203895
 21
42.618854
 31
0.0
  0
LINE
  8
0
  6
BYBLOCK
 62
     0
 10
14.203895
 20
48.298854
 30
0.0
 11
14.203895
 21
49.108854
 31
0.0
  0
SOLID
  8
0
  6
BYBLOCK
 62
     0
 10
14.068895
 20
43.428854
 30
0.0
 11
14.338895
 21
43.428854
 31
0.0
 12
14.203895
 22
44.238854
 32
0.0
 13
14.203895
 23
44.238854
 33
0.0
  0
SOLID
  8
0
  6
BYBLOCK
 62
     0
 10
14.068895
 20
48.298854
 30
0.0
 11
14.338895
 21
48.298854
 31
0.0
 12
14.203895
 22
47.488854
 32
0.0
 13
14.203895
 23
47.488854
 33
0.0
  0
TEXT
  8
0
  6
BYBLOCK
 62
     0
 10
13.395301
 20
45.582604
 30
0.0
 40
0.5625
  1
3.250
 41
0.75
  7
TXT
 72
     1
 11
14.203895
 21
45.863854
 31
0.0
 73
     2
  0
POINT
  8
DEFPOINTS
  6
BYBLOCK
 62
     0
 10
12.954306
 20
44.238854
 30
0.0
  0
POINT
  8
DEFPOINTS
  6
BYBLOCK
 62
     0
 10
12.954306
 20
47.488854
 30
0.0
  0
POINT
  8
DEFPOINTS
  6
BYBLOCK
 62
     0
 10
14.203895
 20
47.488854
 30
0.0
  0
ENDBLK
  8
0
  0
BLOCK
  8
0
  2
*D2
 70
    65
 10
0.0
 20
0.0
 30
0.0
  3
*D
  0
LINE
  8
0
  6
BYBLOCK
 62
     0
 10
18.314286
 20
47.323817
 30
0.0
 11
16.367725
 21
48.032308
 31
0.0
  0
LINE
  8
0
  6
BYBLOCK
 62
     0
 10
17.267705
 20
44.448358
 30
0.0
 11
15.321144
 21
45.156848
 31
0.0
  0
LINE
  8
0
  6
BYBLOCK
 62
     0
 10
17.038023
 20
48.650323
 30
0.0
 11
17.315059
 21
49.411474
 31
0.0
  0
LINE
  8
0
  6
BYBLOCK
 62
     0
 10
15.437369
 20
44.252562
 30
0.0
 11
15.160332
 21
43.491411
 31
0.0
  0
SOLID
  8
0
  6
BYBLOCK
 62
     0
 10
16.911164
 20
48.696496
 30
0.0
 11
17.164881
 21
48.60415
 31
0.0
 12
16.760987
 22
47.889172
 32
0.0
 13
16.760987
 23
47.889172
 33
0.0
  0
SOLID
  8
0
  6
BYBLOCK
 62
     0
 10
15.31051
 20
44.298734
 30
0.0
 11
15.564227
 21
44.206389
 31
0.0
 12
15.714405
 22
45.013713
 32
0.0
 13
15.714405
 23
45.013713
 33
0.0
  0
TEXT
  8
0
  6
BYBLOCK
 62
     0
 10
15.464258
 20
46.170192
 30
0.0
 40
0.5625
  1
3.060
 41
0.75
  7
TXT
 72
     1
 11
16.237696
 21
46.451442
 31
0.0
 73
     2
  0
POINT
  8
DEFPOINTS
  6
BYBLOCK
 62
     0
 10
18.580689
 20
47.226854
 30
0.0
  0
POINT
  8
DEFPOINTS
  6
BYBLOCK
 62
     0
 10
17.534108
 20
44.351395
 30
0.0
  0
POINT
  8
DEFPOINTS
  6
BYBLOCK
 62
     0
 10
15.714405
 20
45.013713
 30
0.0
  0
ENDBLK
  8
0
  0
BLOCK
  8
0
  2
*D3
 70
    65
 10
0.0
 20
0.0
 30
0.0
  3
*D
  0
LINE
  8
0
  6
BYBLOCK
 62
     0
 10
27.205189
 20
44.351854
 30
0.0
 11
28.947459
 21
44.351854
 31
0.0
  0
LINE
  8
0
  6
BYBLOCK
 62
     0
 10
27.205189
 20
47.226854
 30
0.0
 11
28.947459
 21
47.226854
 31
0.0
  0
LINE
  8
0
  6
BYBLOCK
 62
     0
 10
28.528959
 20
43.541854
 30
0.0
 11
28.528959
 21
42.731854
 31
0.0
  0
LINE
  8
0
  6
BYBLOCK
 62
     0
 10
28.528959
 20
48.036854
 30
0.0
 11
28.528959
 21
48.846854
 31
0.0
  0
SOLID
  8
0
  6
BYBLOCK
 62
     0
 10
28.393959
 20
43.541854
 30
0.0
 11
28.663959
 21
43.541854
 31
0.0
 12
28.528959
 22
44.351854
 32
0.0
 13
28.528959
 23
44.351854
 33
0.0
  0
SOLID
  8
0
  6
BYBLOCK
 62
     0
 10
28.393959
 20
48.036854
 30
0.0
 11
28.663959
 21
48.036854
 31
0.0
 12
28.528959
 22
47.226854
 32
0.0
 13
28.528959
 23
47.226854
 33
0.0
  0
TEXT
  8
0
  6
BYBLOCK
 62
     0
 10
27.685209
 20
45.508104
 30
0.0
 40
0.5625
  1
2.875
 41
0.75
  7
TXT
 72
     1
 11
28.528959
 21
45.789354
 31
0.0
 73
     2
  0
POINT
  8
DEFPOINTS
  6
BYBLOCK
 62
     0
 10
26.921689
 20
44.351854
 30
0.0
  0
POINT
  8
DEFPOINTS
  6
BYBLOCK
 62
     0
 10
26.921689
 20
47.226854
 30
0.0
  0
POINT
  8
DEFPOINTS
  6
BYBLOCK
 62
     0
 10
28.528959
 20
47.226854
 30
0.0
  0
ENDBLK
  8
0
  0
BLOCK
  8
0
  2
*D4
 70
    65
 10
0.0
 20
0.0
 30
0.0
  3
*D
  0
LINE
  8
0
  6
BYBLOCK
 62
     0
 10
21.071049
 20
14.500667
 30
0.0
 11
21.534633
 21
15.774353
 31
0.0
  0
LINE
  8
0
  6
BYBLOCK
 62
     0
 10
20.836126
 20
14.586172
 30
0.0
 11
21.29971
 21
15.859858
 31
0.0
  0
LINE
  8
0
  6
BYBLOCK
 62
     0
 10
22.152649
 20
15.104055
 30
0.0
 11
22.9138
 21
14.827019
 31
0.0
  0
LINE
  8
0
  6
BYBLOCK
 62
     0
 10
20.395423
 20
15.743633
 30
0.0
 11
19.634272
 21
16.020669
 31
0.0
  0
LINE
  8
0
  6
BYBLOCK
 62
     0
 10
19.634272
 20
16.020669
 30
0.0
 11
18.824272
 21
16.020669
 31
0.0
  0
SOLID
  8
0
  6
BYBLOCK
 62
     0
 10
22.198821
 20
15.230914
 30
0.0
 11
22.106476
 21
14.977197
 31
0.0
 12
21.391498
 22
15.381092
 32
0.0
 13
21.391498
 23
15.381092
 33
0.0
  0
SOLID
  8
0
  6
BYBLOCK
 62
     0
 10
20.441596
 20
15.870491
 30
0.0
 11
20.349251
 21
15.616774
 31
0.0
 12
21.156574
 22
15.466597
 32
0.0
 13
21.156574
 23
15.466597
 33
0.0
  0
TEXT
  8
0
  6
BYBLOCK
 62
     0
 10
16.872397
 20
15.739419
 30
0.0
 40
0.5625
  1
0.250
 41
0.75
  7
TXT
 72
     1
 11
17.645835
 21
16.020669
 31
0.0
 73
     2
  0
POINT
  8
DEFPOINTS
  6
BYBLOCK
 62
     0
 10
20.974086
 20
14.234264
 30
0.0
  0
POINT
  8
DEFPOINTS
  6
BYBLOCK
 62
     0
 10
20.739163
 20
14.319769
 30
0.0
  0
POINT
  8
DEFPOINTS
  6
BYBLOCK
 62
     0
 10
21.156574
 20
15.466597
 30
0.0
  0
ENDBLK
  8
0
  0
BLOCK
  8
0
  2
*D5
 70
    65
 10
0.0
 20
0.0
 30
0.0
  3
*D
  0
LINE
  8
0
  6
BYBLOCK
 62
     0
 10
31.735752
 20
10.731516
 30
0.0
 11
31.735752
 21
8.593015
 31
0.0
  0
LINE
  8
0
  6
BYBLOCK
 62
     0
 10
34.200752
 20
9.973516
 30
0.0
 11
34.200752
 21
8.593015
 31
0.0
  0
LINE
  8
0
  6
BYBLOCK
 62
     0
 10
30.925752
 20
9.011515
 30
0.0
 11
30.115752
 21
9.011515
 31
0.0
  0
LINE
  8
0
  6
BYBLOCK
 62
     0
 10
35.010752
 20
9.011515
 30
0.0
 11
35.820752
 21
9.011515
 31
0.0
  0
SOLID
  8
0
  6
BYBLOCK
 62
     0
 10
30.925752
 20
9.146515
 30
0.0
 11
30.925752
 21
8.876515
 31
0.0
 12
31.735752
 22
9.011515
 32
0.0
 13
31.735752
 23
9.011515
 33
0.0
  0
SOLID
  8
0
  6
BYBLOCK
 62
     0
 10
35.010752
 20
9.146515
 30
0.0
 11
35.010752
 21
8.876515
 31
0.0
 12
34.200752
 22
9.011515
 32
0.0
 13
34.200752
 23
9.011515
 33
0.0
  0
TEXT
  8
0
  6
BYBLOCK
 62
     0
 10
32.124502
 20
8.730265
 30
0.0
 40
0.5625
  1
2.465
 41
0.75
  7
TXT
 72
     1
 11
32.968252
 21
9.011515
 31
0.0
 73
     2
  0
POINT
  8
DEFPOINTS
  6
BYBLOCK
 62
     0
 10
31.735752
 20
11.015016
 30
0.0
  0
POINT
  8
DEFPOINTS
  6
BYBLOCK
 62
     0
 10
34.200752
 20
10.257016
 30
0.0
  0
POINT
  8
DEFPOINTS
  6
BYBLOCK
 62
     0
 10
34.200752
 20
9.011515
 30
0.0
  0
ENDBLK
  8
0
  0
BLOCK
  8
0
  2
*D6
 70
    65
 10
0.0
 20
0.0
 30
0.0
  3
*D
  0
LINE
  8
0
  6
BYBLOCK
 62
     0
 10
1.114306
 20
47.772354
 30
0.0
 11
1.114306
 21
49.470957
 31
0.0
  0
LINE
  8
0
  6
BYBLOCK
 62
     0
 10
12.864306
 20
47.772354
 30
0.0
 11
12.864306
 21
49.470957
 31
0.0
  0
LINE
  8
0
  6
BYBLOCK
 62
     0
 10
1.924306
 20
49.052457
 30
0.0
 11
5.7054
 21
49.052457
 31
0.0
  0
LINE
  8
0
  6
BYBLOCK
 62
     0
 10
12.054306
 20
49.052457
 30
0.0
 11
8.273213
 21
49.052457
 31
0.0
  0
SOLID
  8
0
  6
BYBLOCK
 62
     0
 10
1.924306
 20
49.187457
 30
0.0
 11
1.924306
 21
48.917457
 31
0.0
 12
1.114306
 22
49.052457
 32
0.0
 13
1.114306
 23
49.052457
 33
0.0
  0
SOLID
  8
0
  6
BYBLOCK
 62
     0
 10
12.054306
 20
49.187457
 30
0.0
 11
12.054306
 21
48.917457
 31
0.0
 12
12.864306
 22
49.052457
 32
0.0
 13
12.864306
 23
49.052457
 33
0.0
  0
TEXT
  8
0
  6
BYBLOCK
 62
     0
 10
6.1104
 20
48.771207
 30
0.0
 40
0.5625
  1
11.750
 41
0.75
  7
TXT
 72
     1
 11
6.989306
 21
49.052457
 31
0.0
 73
     2
  0
POINT
  8
DEFPOINTS
  6
BYBLOCK
 62
     0
 10
1.114306
 20
47.488854
 30
0.0
  0
POINT
  8
DEFPOINTS
  6
BYBLOCK
 62
     0
 10
12.864306
 20
47.488854
 30
0.0
  0
POINT
  8
DEFPOINTS
  6
BYBLOCK
 62
     0
 10
12.864306
 20
49.052457
 30
0.0
  0
ENDBLK
  8
0
  0
BLOCK
  8
0
  2
*D7
 70
    65
 10
0.0
 20
0.0
 30
0.0
  3
*D
  0
LINE
  8
0
  6
BYBLOCK
 62
     0
 10
1.024306
 20
47.772354
 30
0.0
 11
1.024306
 21
50.735457
 31
0.0
  0
LINE
  8
0
  6
BYBLOCK
 62
     0
 10
12.954306
 20
47.772354
 30
0.0
 11
12.954306
 21
50.735457
 31
0.0
  0
LINE
  8
0
  6
BYBLOCK
 62
     0
 10
1.834306
 20
50.316957
 30
0.0
 11
5.7054
 21
50.316957
 31
0.0
  0
LINE
  8
0
  6
BYBLOCK
 62
     0
 10
12.144306
 20
50.316957
 30
0.0
 11
8.273213
 21
50.316957
 31
0.0
  0
SOLID
  8
0
  6
BYBLOCK
 62
     0
 10
1.834306
 20
50.451957
 30
0.0
 11
1.834306
 21
50.181957
 31
0.0
 12
1.024306
 22
50.316957
 32
0.0
 13
1.024306
 23
50.316957
 33
0.0
  0
SOLID
  8
0
  6
BYBLOCK
 62
     0
 10
12.144306
 20
50.451957
 30
0.0
 11
12.144306
 21
50.181957
 31
0.0
 12
12.954306
 22
50.316957
 32
0.0
 13
12.954306
 23
50.316957
 33
0.0
  0
TEXT
  8
0
  6
BYBLOCK
 62
     0
 10
6.1104
 20
50.035707
 30
0.0
 40
0.5625
  1
11.930
 41
0.75
  7
TXT
 72
     1
 11
6.989306
 21
50.316957
 31
0.0
 73
     2
  0
POINT
  8
DEFPOINTS
  6
BYBLOCK
 62
     0
 10
1.024306
 20
47.488854
 30
0.0
  0
POINT
  8
DEFPOINTS
  6
BYBLOCK
 62
     0
 10
12.954306
 20
47.488854
 30
0.0
  0
POINT
  8
DEFPOINTS
  6
BYBLOCK
 62
     0
 10
12.954306
 20
50.316957
 30
0.0
  0
ENDBLK
  8
0
  0
BLOCK
  8
0
  2
*D8
 70
    65
 10
0.0
 20
0.0
 30
0.0
  3
*D
  0
LINE
  8
0
  6
BYBLOCK
 62
     0
 10
18.475735
 20
47.67301
 30
0.0
 11
20.11061
 21
52.164557
 31
0.0
  0
LINE
  8
0
  6
BYBLOCK
 62
     0
 10
17.268689
 20
44.640354
 30
0.0
 11
17.268689
 21
52.665689
 31
0.0
  0
ARC
  8
0
  6
BYBLOCK
 62
     0
 10
17.268689
 20
44.356854
 30
0.0
 40
7.890334
 50
58.230208
 51
64.114621
  0
ARC
  8
0
  6
BYBLOCK
 62
     0
 10
17.268689
 20
44.356854
 30
0.0
 40
7.890334
 50
95.884413
 51
101.768826
  0
SOLID
  8
0
  6
BYBLOCK
 62
     0
 10
20.660765
 20
51.331225
 30
0.0
 11
20.766015
 21
51.579866
 31
0.0
 12
19.967468
 22
51.771298
 32
0.0
 13
19.967468
 23
51.771298
 33
0.0
  0
SOLID
  8
0
  6
BYBLOCK
 62
     0
 10
16.452828
 20
52.340435
 30
0.0
 11
16.466686
 21
52.07079
 31
0.0
 12
17.268689
 22
52.247189
 32
0.0
 13
17.268689
 23
52.247189
 33
0.0
  0
TEXT
  8
0
  6
BYBLOCK
 62
     0
 10
18.181866
 20
51.846055
 30
0.0
 40
0.5625
  1
20%%d
 41
0.75
  7
TXT
 72
     1
 11
18.638897
 21
52.127305
 31
0.0
 73
     2
  0
POINT
  8
DEFPOINTS
  6
BYBLOCK
 62
     0
 10
17.978247
 20
52.21522
 30
0.0
  0
POINT
  8
DEFPOINTS
  6
BYBLOCK
 62
     0
 10
17.268689
 20
44.238854
 30
0.0
  0
POINT
  8
DEFPOINTS
  6
BYBLOCK
 62
     0
 10
18.378767
 20
47.406609
 30
0.0
  0
POINT
  8
DEFPOINTS
  6
BYBLOCK
 62
     0
 10
17.268689
 20
44.356854
 30
0.0
  0
POINT
  8
DEFPOINTS
  6
BYBLOCK
 62
     0
 10
17.268689
 20
44.356854
 30
0.0
  0
ENDBLK
  8
0
  0
BLOCK
  8
0
  2
*D9
 70
    65
 10
0.0
 20
0.0
 30
0.0
  3
*D
  0
LINE
  8
0
  6
BYBLOCK
 62
     0
 10
27.018689
 20
47.413354
 30
0.0
 11
27.018689
 21
50.735457
 31
0.0
  0
LINE
  8
0
  6
BYBLOCK
 62
     0
 10
27.268689
 20
47.647354
 30
0.0
 11
27.268689
 21
50.735457
 31
0.0
  0
LINE
  8
0
  6
BYBLOCK
 62
     0
 10
26.208689
 20
50.316957
 30
0.0
 11
25.398689
 21
50.316957
 31
0.0
  0
LINE
  8
0
  6
BYBLOCK
 62
     0
 10
28.078689
 20
50.316957
 30
0.0
 11
28.888689
 21
50.316957
 31
0.0
  0
SOLID
  8
0
  6
BYBLOCK
 62
     0
 10
26.208689
 20
50.451957
 30
0.0
 11
26.208689
 21
50.181957
 31
0.0
 12
27.018689
 22
50.316957
 32
0.0
 13
27.018689
 23
50.316957
 33
0.0
  0
SOLID
  8
0
  6
BYBLOCK
 62
     0
 10
28.078689
 20
50.451957
 30
0.0
 11
28.078689
 21
50.181957
 31
0.0
 12
27.268689
 22
50.316957
 32
0.0
 13
27.268689
 23
50.316957
 33
0.0
  0
TEXT
  8
0
  6
BYBLOCK
 62
     0
 10
29.293689
 20
50.035707
 30
0.0
 40
0.5625
  1
0.250
 41
0.75
  7
TXT
 72
     1
 11
30.067127
 21
50.316957
 31
0.0
 73
     2
  0
POINT
  8
DEFPOINTS
  6
BYBLOCK
 62
     0
 10
27.018689
 20
47.129854
 30
0.0
  0
POINT
  8
DEFPOINTS
  6
BYBLOCK
 62
     0
 10
27.268689
 20
47.363854
 30
0.0
  0
POINT
  8
DEFPOINTS
  6
BYBLOCK
 62
     0
 10
27.268689
 20
50.316957
 30
0.0
  0
ENDBLK
  8
0
  0
BLOCK
  8
0
  2
*D10
 70
    65
 10
0.0
 20
0.0
 30
0.0
  3
*D
  0
LINE
  8
0
  6
BYBLOCK
 62
     0
 10
18.580689
 20
47.510354
 30
0.0
 11
18.580689
 21
50.735457
 31
0.0
  0
LINE
  8
0
  6
BYBLOCK
 62
     0
 10
27.018689
 20
47.413354
 30
0.0
 11
27.018689
 21
50.735457
 31
0.0
  0
LINE
  8
0
  6
BYBLOCK
 62
     0
 10
19.390689
 20
50.316957
 30
0.0
 11
21.550939
 21
50.316957
 31
0.0
  0
LINE
  8
0
  6
BYBLOCK
 62
     0
 10
26.208689
 20
50.316957
 30
0.0
 11
24.048439
 21
50.316957
 31
0.0
  0
SOLID
  8
0
  6
BYBLOCK
 62
     0
 10
19.390689
 20
50.451957
 30
0.0
 11
19.390689
 21
50.181957
 31
0.0
 12
18.580689
 22
50.316957
 32
0.0
 13
18.580689
 23
50.316957
 33
0.0
  0
SOLID
  8
0
  6
BYBLOCK
 62
     0
 10
26.208689
 20
50.451957
 30
0.0
 11
26.208689
 21
50.181957
 31
0.0
 12
27.018689
 22
50.316957
 32
0.0
 13
27.018689
 23
50.316957
 33
0.0
  0
TEXT
  8
0
  6
BYBLOCK
 62
     0
 10
21.955939
 20
50.035707
 30
0.0
 40
0.5625
  1
8.438
 41
0.75
  7
TXT
 72
     1
 11
22.799689
 21
50.316957
 31
0.0
 73
     2
  0
POINT
  8
DEFPOINTS
  6
BYBLOCK
 62
     0
 10
18.580689
 20
47.226854
 30
0.0
  0
POINT
  8
DEFPOINTS
  6
BYBLOCK
 62
     0
 10
27.018689
 20
47.129854
 30
0.0
  0
POINT
  8
DEFPOINTS
  6
BYBLOCK
 62
     0
 10
27.018689
 20
50.316957
 30
0.0
  0
ENDBLK
  8
0
  0
BLOCK
  8
0
  2
*D11
 70
    65
 10
0.0
 20
0.0
 30
0.0
  3
*D
  0
LINE
  8
0
  6
BYBLOCK
 62
     0
 10
18.475735
 20
47.67301
 30
0.0
 11
19.214539
 21
49.702751
 31
0.0
  0
LINE
  8
0
  6
BYBLOCK
 62
     0
 10
18.710656
 20
47.587501
 30
0.0
 11
19.44946
 21
49.617242
 31
0.0
  0
LINE
  8
0
  6
BYBLOCK
 62
     0
 10
18.31025
 20
49.586541
 30
0.0
 11
17.549104
 21
49.863591
 31
0.0
  0
LINE
  8
0
  6
BYBLOCK
 62
     0
 10
20.067465
 20
48.946934
 30
0.0
 11
20.828611
 21
48.669885
 31
0.0
  0
LINE
  8
0
  6
BYBLOCK
 62
     0
 10
20.828611
 20
48.669885
 30
0.0
 11
21.638611
 21
48.669885
 31
0.0
  0
SOLID
  8
0
  6
BYBLOCK
 62
     0
 10
18.356425
 20
49.713399
 30
0.0
 11
18.264075
 21
49.459684
 31
0.0
 12
19.071397
 22
49.309492
 32
0.0
 13
19.071397
 23
49.309492
 33
0.0
  0
SOLID
  8
0
  6
BYBLOCK
 62
     0
 10
20.11364
 20
49.073792
 30
0.0
 11
20.02129
 21
48.820076
 31
0.0
 12
19.306318
 22
49.223983
 32
0.0
 13
19.306318
 23
49.223983
 33
0.0
  0
TEXT
  8
0
  6
BYBLOCK
 62
     0
 10
22.043611
 20
48.388635
 30
0.0
 40
0.5625
  1
0.250
 41
0.75
  7
TXT
 72
     1
 11
22.817049
 21
48.669885
 31
0.0
 73
     2
  0
POINT
  8
DEFPOINTS
  6
BYBLOCK
 62
     0
 10
18.378767
 20
47.406609
 30
0.0
  0
POINT
  8
DEFPOINTS
  6
BYBLOCK
 62
     0
 10
18.613689
 20
47.3211
 30
0.0
  0
POINT
  8
DEFPOINTS
  6
BYBLOCK
 62
     0
 10
19.306318
 20
49.223983
 30
0.0
  0
ENDBLK
  8
0
  0
BLOCK
  8
0
  2
*D12
 70
    65
 10
0.0
 20
0.0
 30
0.0
  3
*D
  0
LINE
  8
0
  6
BYBLOCK
 62
     0
 10
17.268689
 20
43.955354
 30
0.0
 11
17.268689
 21
42.789147
 31
0.0
  0
LINE
  8
0
  6
BYBLOCK
 62
     0
 10
27.268689
 20
43.955354
 30
0.0
 11
27.268689
 21
42.789147
 31
0.0
  0
LINE
  8
0
  6
BYBLOCK
 62
     0
 10
18.078689
 20
43.207647
 30
0.0
 11
21.019939
 21
43.207647
 31
0.0
  0
LINE
  8
0
  6
BYBLOCK
 62
     0
 10
26.458689
 20
43.207647
 30
0.0
 11
23.517439
 21
43.207647
 31
0.0
  0
SOLID
  8
0
  6
BYBLOCK
 62
     0
 10
18.078689
 20
43.342647
 30
0.0
 11
18.078689
 21
43.072647
 31
0.0
 12
17.268689
 22
43.207647
 32
0.0
 13
17.268689
 23
43.207647
 33
0.0
  0
SOLID
  8
0
  6
BYBLOCK
 62
     0
 10
26.458689
 20
43.342647
 30
0.0
 11
26.458689
 21
43.072647
 31
0.0
 12
27.268689
 22
43.207647
 32
0.0
 13
27.268689
 23
43.207647
 33
0.0
  0
TEXT
  8
0
  6
BYBLOCK
 62
     0
 10
21.424939
 20
42.926397
 30
0.0
 40
0.5625
  1
10.000
 41
0.75
  7
TXT
 72
     1
 11
22.268689
 21
43.207647
 31
0.0
 73
     2
  0
POINT
  8
DEFPOINTS
  6
BYBLOCK
 62
     0
 10
17.268689
 20
44.238854
 30
0.0
  0
POINT
  8
DEFPOINTS
  6
BYBLOCK
 62
     0
 10
27.268689
 20
44.238854
 30
0.0
  0
POINT
  8
DEFPOINTS
  6
BYBLOCK
 62
     0
 10
27.268689
 20
43.207647
 30
0.0
  0
ENDBLK
  8
0
  0
BLOCK
  8
0
  2
*D13
 70
    65
 10
0.0
 20
0.0
 30
0.0
  3
*D
  0
LINE
  8
0
  6
BYBLOCK
 62
     0
 10
27.205189
 20
47.226854
 30
0.0
 11
30.211959
 21
47.226854
 31
0.0
  0
LINE
  8
0
  6
BYBLOCK
 62
     0
 10
27.427189
 20
47.488854
 30
0.0
 11
30.211959
 21
47.488854
 31
0.0
  0
LINE
  8
0
  6
BYBLOCK
 62
     0
 10
29.793459
 20
46.416854
 30
0.0
 11
29.793459
 21
45.606854
 31
0.0
  0
LINE
  8
0
  6
BYBLOCK
 62
     0
 10
29.793459
 20
48.298854
 30
0.0
 11
29.793459
 21
49.108854
 31
0.0
  0
LINE
  8
0
  6
BYBLOCK
 62
     0
 10
29.793459
 20
49.108854
 30
0.0
 11
30.603459
 21
49.108854
 31
0.0
  0
SOLID
  8
0
  6
BYBLOCK
 62
     0
 10
29.658459
 20
46.416854
 30
0.0
 11
29.928459
 21
46.416854
 31
0.0
 12
29.793459
 22
47.226854
 32
0.0
 13
29.793459
 23
47.226854
 33
0.0
  0
SOLID
  8
0
  6
BYBLOCK
 62
     0
 10
29.658459
 20
48.298854
 30
0.0
 11
29.928459
 21
48.298854
 31
0.0
 12
29.793459
 22
47.488854
 32
0.0
 13
29.793459
 23
47.488854
 33
0.0
  0
TEXT
  8
0
  6
BYBLOCK
 62
     0
 10
31.008459
 20
48.827604
 30
0.0
 40
0.5625
  1
0.262
 41
0.75
  7
TXT
 72
     1
 11
31.817053
 21
49.108854
 31
0.0
 73
     2
  0
POINT
  8
DEFPOINTS
  6
BYBLOCK
 62
     0
 10
26.921689
 20
47.226854
 30
0.0
  0
POINT
  8
DEFPOINTS
  6
BYBLOCK
 62
     0
 10
27.143689
 20
47.488854
 30
0.0
  0
POINT
  8
DEFPOINTS
  6
BYBLOCK
 62
     0
 10
29.793459
 20
47.488854
 30
0.0
  0
ENDBLK
  8
0
  0
BLOCK
  8
0
  2
*D14
 70
    65
 10
0.0
 20
0.0
 30
0.0
  3
*D
  0
LINE
  8
0
  6
BYBLOCK
 62
     0
 10
41.419805
 20
45.101854
 30
0.0
 11
38.816946
 21
45.101854
 31
0.0
  0
LINE
  8
0
  6
BYBLOCK
 62
     0
 10
40.210711
 20
44.351854
 30
0.0
 11
38.816946
 21
44.351854
 31
0.0
  0
LINE
  8
0
  6
BYBLOCK
 62
     0
 10
39.235446
 20
45.911854
 30
0.0
 11
39.235446
 21
46.721854
 31
0.0
  0
LINE
  8
0
  6
BYBLOCK
 62
     0
 10
39.235446
 20
43.541854
 30
0.0
 11
39.235446
 21
42.731854
 31
0.0
  0
LINE
  8
0
  6
BYBLOCK
 62
     0
 10
39.235446
 20
42.731854
 30
0.0
 11
38.425446
 21
42.731854
 31
0.0
  0
SOLID
  8
0
  6
BYBLOCK
 62
     0
 10
39.100446
 20
45.911854
 30
0.0
 11
39.370446
 21
45.911854
 31
0.0
 12
39.235446
 22
45.101854
 32
0.0
 13
39.235446
 23
45.101854
 33
0.0
  0
SOLID
  8
0
  6
BYBLOCK
 62
     0
 10
39.100446
 20
43.541854
 30
0.0
 11
39.370446
 21
43.541854
 31
0.0
 12
39.235446
 22
44.351854
 32
0.0
 13
39.235446
 23
44.351854
 33
0.0
  0
TEXT
  8
0
  6
BYBLOCK
 62
     0
 10
36.473571
 20
42.450604
 30
0.0
 40
0.5625
  1
0.750
 41
0.75
  7
TXT
 72
     1
 11
37.247009
 21
42.731854
 31
0.0
 73
     2
  0
POINT
  8
DEFPOINTS
  6
BYBLOCK
 62
     0
 10
41.703305
 20
45.101854
 30
0.0
  0
POINT
  8
DEFPOINTS
  6
BYBLOCK
 62
     0
 10
40.494211
 20
44.351854
 30
0.0
  0
POINT
  8
DEFPOINTS
  6
BYBLOCK
 62
     0
 10
39.235446
 20
44.351854
 30
0.0
  0
ENDBLK
  8
0
  0
BLOCK
  8
0
  2
*D15
 70
    65
 10
0.0
 20
0.0
 30
0.0
  3
*D
  0
LINE
  8
0
  6
BYBLOCK
 62
     0
 10
33.703305
 20
44.818354
 30
0.0
 11
33.703305
 21
42.789147
 31
0.0
  0
LINE
  8
0
  6
BYBLOCK
 62
     0
 10
31.738305
 20
44.092354
 30
0.0
 11
31.738305
 21
42.789147
 31
0.0
  0
LINE
  8
0
  6
BYBLOCK
 62
     0
 10
34.513305
 20
43.207647
 30
0.0
 11
35.323305
 21
43.207647
 31
0.0
  0
LINE
  8
0
  6
BYBLOCK
 62
     0
 10
30.928305
 20
43.207647
 30
0.0
 11
30.118305
 21
43.207647
 31
0.0
  0
SOLID
  8
0
  6
BYBLOCK
 62
     0
 10
34.513305
 20
43.342647
 30
0.0
 11
34.513305
 21
43.072647
 31
0.0
 12
33.703305
 22
43.207647
 32
0.0
 13
33.703305
 23
43.207647
 33
0.0
  0
SOLID
  8
0
  6
BYBLOCK
 62
     0
 10
30.928305
 20
43.342647
 30
0.0
 11
30.928305
 21
43.072647
 31
0.0
 12
31.738305
 22
43.207647
 32
0.0
 13
31.738305
 23
43.207647
 33
0.0
  0
TEXT
  8
0
  6
BYBLOCK
 62
     0
 10
31.947368
 20
42.926397
 30
0.0
 40
0.5625
  1
1.965
 41
0.75
  7
TXT
 72
     1
 11
32.720805
 21
43.207647
 31
0.0
 73
     2
  0
POINT
  8
DEFPOINTS
  6
BYBLOCK
 62
     0
 10
33.703305
 20
45.101854
 30
0.0
  0
POINT
  8
DEFPOINTS
  6
BYBLOCK
 62
     0
 10
31.738305
 20
44.375854
 30
0.0
  0
POINT
  8
DEFPOINTS
  6
BYBLOCK
 62
     0
 10
31.738305
 20
43.207647
 30
0.0
  0
ENDBLK
  8
0
  0
BLOCK
  8
0
  2
*D16
 70
    65
 10
0.0
 20
0.0
 30
0.0
  3
*D
  0
LINE
  8
0
  6
BYBLOCK
 62
     0
 10
41.703305
 20
44.818354
 30
0.0
 11
41.703305
 21
42.789147
 31
0.0
  0
LINE
  8
0
  6
BYBLOCK
 62
     0
 10
43.668305
 20
44.092354
 30
0.0
 11
43.668305
 21
42.789147
 31
0.0
  0
LINE
  8
0
  6
BYBLOCK
 62
     0
 10
40.893305
 20
43.207647
 30
0.0
 11
40.083305
 21
43.207647
 31
0.0
  0
LINE
  8
0
  6
BYBLOCK
 62
     0
 10
44.478305
 20
43.207647
 30
0.0
 11
45.288305
 21
43.207647
 31
0.0
  0
SOLID
  8
0
  6
BYBLOCK
 62
     0
 10
40.893305
 20
43.342647
 30
0.0
 11
40.893305
 21
43.072647
 31
0.0
 12
41.703305
 22
43.207647
 32
0.0
 13
41.703305
 23
43.207647
 33
0.0
  0
SOLID
  8
0
  6
BYBLOCK
 62
     0
 10
44.478305
 20
43.342647
 30
0.0
 11
44.478305
 21
43.072647
 31
0.0
 12
43.668305
 22
43.207647
 32
0.0
 13
43.668305
 23
43.207647
 33
0.0
  0
TEXT
  8
0
  6
BYBLOCK
 62
     0
 10
41.912368
 20
42.926397
 30
0.0
 40
0.5625
  1
1.965
 41
0.75
  7
TXT
 72
     1
 11
42.685805
 21
43.207647
 31
0.0
 73
     2
  0
POINT
  8
DEFPOINTS
  6
BYBLOCK
 62
     0
 10
41.703305
 20
45.101854
 30
0.0
  0
POINT
  8
DEFPOINTS
  6
BYBLOCK
 62
     0
 10
43.668305
 20
44.375854
 30
0.0
  0
POINT
  8
DEFPOINTS
  6
BYBLOCK
 62
     0
 10
43.668305
 20
43.207647
 30
0.0
  0
ENDBLK
  8
0
  0
BLOCK
  8
0
  2
*D17
 70
    65
 10
0.0
 20
0.0
 30
0.0
  3
*D
  0
LINE
  8
0
  6
BYBLOCK
 62
     0
 10
22.367763
 20
10.436367
 30
0.0
 11
22.367763
 21
9.160865
 31
0.0
  0
LINE
  8
0
  6
BYBLOCK
 62
     0
 10
27.367763
 20
10.436367
 30
0.0
 11
27.367763
 21
9.160865
 31
0.0
  0
LINE
  8
0
  6
BYBLOCK
 62
     0
 10
23.177763
 20
9.579365
 30
0.0
 11
23.724482
 21
9.579365
 31
0.0
  0
LINE
  8
0
  6
BYBLOCK
 62
     0
 10
26.557763
 20
9.579365
 30
0.0
 11
26.011044
 21
9.579365
 31
0.0
  0
SOLID
  8
0
  6
BYBLOCK
 62
     0
 10
23.177763
 20
9.714365
 30
0.0
 11
23.177763
 21
9.444365
 31
0.0
 12
22.367763
 22
9.579365
 32
0.0
 13
22.367763
 23
9.579365
 33
0.0
  0
SOLID
  8
0
  6
BYBLOCK
 62
     0
 10
26.557763
 20
9.714365
 30
0.0
 11
26.557763
 21
9.444365
 31
0.0
 12
27.367763
 22
9.579365
 32
0.0
 13
27.367763
 23
9.579365
 33
0.0
  0
TEXT
  8
0
  6
BYBLOCK
 62
     0
 10
24.129482
 20
9.298115
 30
0.0
 40
0.5625
  1
5.000
 41
0.75
  7
TXT
 72
     1
 11
24.867763
 21
9.579365
 31
0.0
 73
     2
  0
POINT
  8
DEFPOINTS
  6
BYBLOCK
 62
     0
 10
22.367763
 20
10.719867
 30
0.0
  0
POINT
  8
DEFPOINTS
  6
BYBLOCK
 62
     0
 10
27.367763
 20
10.719867
 30
0.0
  0
POINT
  8
DEFPOINTS
  6
BYBLOCK
 62
     0
 10
27.367763
 20
9.579365
 30
0.0
  0
ENDBLK
  8
0
  0
BLOCK
  8
0
  2
*D18
 70
    65
 10
0.0
 20
0.0
 30
0.0
  3
*D
  0
LINE
  8
0
  6
BYBLOCK
 62
     0
 10
11.614945
 20
15.253367
 30
0.0
 11
11.614945
 21
17.008367
 31
0.0
  0
LINE
  8
0
  6
BYBLOCK
 62
     0
 10
16.364945
 20
15.253367
 30
0.0
 11
16.364945
 21
17.008367
 31
0.0
  0
LINE
  8
0
  6
BYBLOCK
 62
     0
 10
10.804945
 20
16.589867
 30
0.0
 11
9.994945
 21
16.589867
 31
0.0
  0
LINE
  8
0
  6
BYBLOCK
 62
     0
 10
17.174945
 20
16.589867
 30
0.0
 11
17.984945
 21
16.589867
 31
0.0
  0
SOLID
  8
0
  6
BYBLOCK
 62
     0
 10
10.804945
 20
16.724867
 30
0.0
 11
10.804945
 21
16.454867
 31
0.0
 12
11.614945
 22
16.589867
 32
0.0
 13
11.614945
 23
16.589867
 33
0.0
  0
SOLID
  8
0
  6
BYBLOCK
 62
     0
 10
17.174945
 20
16.724867
 30
0.0
 11
17.174945
 21
16.454867
 31
0.0
 12
16.364945
 22
16.589867
 32
0.0
 13
16.364945
 23
16.589867
 33
0.0
  0
TEXT
  8
0
  6
BYBLOCK
 62
     0
 10
13.181351
 20
16.308617
 30
0.0
 40
0.5625
  1
4.750
 41
0.75
  7
TXT
 72
     1
 11
13.989945
 21
16.589867
 31
0.0
 73
     2
  0
POINT
  8
DEFPOINTS
  6
BYBLOCK
 62
     0
 10
11.614945
 20
14.969867
 30
0.0
  0
POINT
  8
DEFPOINTS
  6
BYBLOCK
 62
     0
 10
16.364945
 20
14.969867
 30
0.0
  0
POINT
  8
DEFPOINTS
  6
BYBLOCK
 62
     0
 10
16.364945
 20
16.589867
 30
0.0
  0
ENDBLK
  8
0
  0
BLOCK
  8
0
  2
*D19
 70
    65
 10
0.0
 20
0.0
 30
0.0
  3
*D
  0
LINE
  8
0
  6
BYBLOCK
 62
     0
 10
11.524945
 20
15.253367
 30
0.0
 11
11.524945
 21
18.272867
 31
0.0
  0
LINE
  8
0
  6
BYBLOCK
 62
     0
 10
16.454945
 20
15.253367
 30
0.0
 11
16.454945
 21
18.272867
 31
0.0
  0
LINE
  8
0
  6
BYBLOCK
 62
     0
 10
12.334945
 20
17.854367
 30
0.0
 11
12.776351
 21
17.854367
 31
0.0
  0
LINE
  8
0
  6
BYBLOCK
 62
     0
 10
15.644945
 20
17.854367
 30
0.0
 11
15.203539
 21
17.854367
 31
0.0
  0
SOLID
  8
0
  6
BYBLOCK
 62
     0
 10
12.334945
 20
17.989367
 30
0.0
 11
12.334945
 21
17.719367
 31
0.0
 12
11.524945
 22
17.854367
 32
0.0
 13
11.524945
 23
17.854367
 33
0.0
  0
SOLID
  8
0
  6
BYBLOCK
 62
     0
 10
15.644945
 20
17.989367
 30
0.0
 11
15.644945
 21
17.719367
 31
0.0
 12
16.454945
 22
17.854367
 32
0.0
 13
16.454945
 23
17.854367
 33
0.0
  0
TEXT
  8
0
  6
BYBLOCK
 62
     0
 10
13.181351
 20
17.573117
 30
0.0
 40
0.5625
  1
4.930
 41
0.75
  7
TXT
 72
     1
 11
13.989945
 21
17.854367
 31
0.0
 73
     2
  0
POINT
  8
DEFPOINTS
  6
BYBLOCK
 62
     0
 10
11.524945
 20
14.969867
 30
0.0
  0
POINT
  8
DEFPOINTS
  6
BYBLOCK
 62
     0
 10
16.454945
 20
14.969867
 30
0.0
  0
POINT
  8
DEFPOINTS
  6
BYBLOCK
 62
     0
 10
16.454945
 20
17.854367
 30
0.0
  0
ENDBLK
  8
0
  0
BLOCK
  8
0
  2
*D20
 70
    65
 10
0.0
 20
0.0
 30
0.0
  3
*D
  0
LINE
  8
0
  6
BYBLOCK
 62
     0
 10
16.738445
 20
10.719867
 30
0.0
 11
18.245517
 21
10.719867
 31
0.0
  0
LINE
  8
0
  6
BYBLOCK
 62
     0
 10
16.738445
 20
14.969867
 30
0.0
 11
18.245517
 21
14.969867
 31
0.0
  0
LINE
  8
0
  6
BYBLOCK
 62
     0
 10
17.827017
 20
11.529867
 30
0.0
 11
17.827017
 21
12.158617
 31
0.0
  0
LINE
  8
0
  6
BYBLOCK
 62
     0
 10
17.827017
 20
14.159867
 30
0.0
 11
17.827017
 21
13.531117
 31
0.0
  0
SOLID
  8
0
  6
BYBLOCK
 62
     0
 10
17.692017
 20
11.529867
 30
0.0
 11
17.962017
 21
11.529867
 31
0.0
 12
17.827017
 22
10.719867
 32
0.0
 13
17.827017
 23
10.719867
 33
0.0
  0
SOLID
  8
0
  6
BYBLOCK
 62
     0
 10
17.692017
 20
14.159867
 30
0.0
 11
17.962017
 21
14.159867
 31
0.0
 12
17.827017
 22
14.969867
 32
0.0
 13
17.827017
 23
14.969867
 33
0.0
  0
TEXT
  8
0
  6
BYBLOCK
 62
     0
 10
17.018423
 20
12.563617
 30
0.0
 40
0.5625
  1
4.250
 41
0.75
  7
TXT
 72
     1
 11
17.827017
 21
12.844867
 31
0.0
 73
     2
  0
POINT
  8
DEFPOINTS
  6
BYBLOCK
 62
     0
 10
16.454945
 20
10.719867
 30
0.0
  0
POINT
  8
DEFPOINTS
  6
BYBLOCK
 62
     0
 10
16.454945
 20
14.969867
 30
0.0
  0
POINT
  8
DEFPOINTS
  6
BYBLOCK
 62
     0
 10
17.827017
 20
14.969867
 30
0.0
  0
ENDBLK
  8
0
  0
BLOCK
  8
0
  2
*D21
 70
    65
 10
0.0
 20
0.0
 30
0.0
  3
*D
  0
LINE
  8
0
  6
BYBLOCK
 62
     0
 10
22.366501
 20
10.928597
 30
0.0
 11
20.594387
 21
11.573594
 31
0.0
  0
LINE
  8
0
  6
BYBLOCK
 62
     0
 10
23.777334
 20
14.804829
 30
0.0
 11
22.00522
 21
15.449826
 31
0.0
  0
LINE
  8
0
  6
BYBLOCK
 62
     0
 10
21.264685
 20
12.19161
 30
0.0
 11
21.44329
 21
12.682325
 31
0.0
  0
LINE
  8
0
  6
BYBLOCK
 62
     0
 10
22.121445
 20
14.54554
 30
0.0
 11
21.942839
 21
14.054825
 31
0.0
  0
SOLID
  8
0
  6
BYBLOCK
 62
     0
 10
21.137826
 20
12.237782
 30
0.0
 11
21.391543
 21
12.145437
 31
0.0
 12
20.987648
 22
11.430459
 32
0.0
 13
20.987648
 23
11.430459
 33
0.0
  0
SOLID
  8
0
  6
BYBLOCK
 62
     0
 10
21.994587
 20
14.591712
 30
0.0
 11
22.248304
 21
14.499367
 31
0.0
 12
22.398481
 22
15.306691
 32
0.0
 13
22.398481
 23
15.306691
 33
0.0
  0
TEXT
  8
0
  6
BYBLOCK
 62
     0
 10
20.919627
 20
13.087325
 30
0.0
 40
0.5625
  1
4.125
 41
0.75
  7
TXT
 72
     1
 11
21.693065
 21
13.368575
 31
0.0
 73
     2
  0
POINT
  8
DEFPOINTS
  6
BYBLOCK
 62
     0
 10
22.632904
 20
10.831635
 30
0.0
  0
POINT
  8
DEFPOINTS
  6
BYBLOCK
 62
     0
 10
24.043737
 20
14.707867
 30
0.0
  0
POINT
  8
DEFPOINTS
  6
BYBLOCK
 62
     0
 10
22.398481
 20
15.306691
 30
0.0
  0
ENDBLK
  8
0
  0
BLOCK
  8
0
  2
*D22
 70
    65
 10
0.0
 20
0.0
 30
0.0
  3
*D
  0
LINE
  8
0
  6
BYBLOCK
 62
     0
 10
27.217215
 20
55.536873
 30
0.0
 11
31.828248
 21
55.536873
 31
0.0
  0
LINE
  8
0
  6
BYBLOCK
 62
     0
 10
27.439215
 20
55.798873
 30
0.0
 11
31.828248
 21
55.798873
 31
0.0
  0
LINE
  8
0
  6
BYBLOCK
 62
     0
 10
31.409748
 20
54.726873
 30
0.0
 11
31.409748
 21
53.916873
 31
0.0
  0
LINE
  8
0
  6
BYBLOCK
 62
     0
 10
31.409748
 20
56.608873
 30
0.0
 11
31.409748
 21
57.418873
 31
0.0
  0
LINE
  8
0
  6
BYBLOCK
 62
     0
 10
31.409748
 20
57.418873
 30
0.0
 11
32.219748
 21
57.418873
 31
0.0
  0
SOLID
  8
0
  6
BYBLOCK
 62
     0
 10
31.274748
 20
54.726873
 30
0.0
 11
31.544748
 21
54.726873
 31
0.0
 12
31.409748
 22
55.536873
 32
0.0
 13
31.409748
 23
55.536873
 33
0.0
  0
SOLID
  8
0
  6
BYBLOCK
 62
     0
 10
31.274748
 20
56.608873
 30
0.0
 11
31.544748
 21
56.608873
 31
0.0
 12
31.409748
 22
55.798873
 32
0.0
 13
31.409748
 23
55.798873
 33
0.0
  0
TEXT
  8
0
  6
BYBLOCK
 62
     0
 10
32.624748
 20
57.137623
 30
0.0
 40
0.5625
  1
0.262
 41
0.75
  7
TXT
 72
     1
 11
33.433342
 21
57.418873
 31
0.0
 73
     2
  0
POINT
  8
DEFPOINTS
  6
BYBLOCK
 62
     0
 10
26.933715
 20
55.536873
 30
0.0
  0
POINT
  8
DEFPOINTS
  6
BYBLOCK
 62
     0
 10
27.155715
 20
55.798873
 30
0.0
  0
POINT
  8
DEFPOINTS
  6
BYBLOCK
 62
     0
 10
31.409748
 20
55.798873
 30
0.0
  0
ENDBLK
  8
0
  0
BLOCK
  8
0
  2
*D23
 70
    65
 10
0.0
 20
0.0
 30
0.0
  3
*D
  0
LINE
  8
0
  6
BYBLOCK
 62
     0
 10
27.217215
 20
51.661873
 30
0.0
 11
30.563748
 21
51.661873
 31
0.0
  0
LINE
  8
0
  6
BYBLOCK
 62
     0
 10
27.217215
 20
55.536873
 30
0.0
 11
30.563748
 21
55.536873
 31
0.0
  0
LINE
  8
0
  6
BYBLOCK
 62
     0
 10
30.145248
 20
52.471873
 30
0.0
 11
30.145248
 21
52.913123
 31
0.0
  0
LINE
  8
0
  6
BYBLOCK
 62
     0
 10
30.145248
 20
54.726873
 30
0.0
 11
30.145248
 21
54.285623
 31
0.0
  0
SOLID
  8
0
  6
BYBLOCK
 62
     0
 10
30.010248
 20
52.471873
 30
0.0
 11
30.280248
 21
52.471873
 31
0.0
 12
30.145248
 22
51.661873
 32
0.0
 13
30.145248
 23
51.661873
 33
0.0
  0
SOLID
  8
0
  6
BYBLOCK
 62
     0
 10
30.010248
 20
54.726873
 30
0.0
 11
30.280248
 21
54.726873
 31
0.0
 12
30.145248
 22
55.536873
 32
0.0
 13
30.145248
 23
55.536873
 33
0.0
  0
TEXT
  8
0
  6
BYBLOCK
 62
     0
 10
29.301498
 20
53.318123
 30
0.0
 40
0.5625
  1
3.875
 41
0.75
  7
TXT
 72
     1
 11
30.145248
 21
53.599373
 31
0.0
 73
     2
  0
POINT
  8
DEFPOINTS
  6
BYBLOCK
 62
     0
 10
26.933715
 20
51.661873
 30
0.0
  0
POINT
  8
DEFPOINTS
  6
BYBLOCK
 62
     0
 10
26.933715
 20
55.536873
 30
0.0
  0
POINT
  8
DEFPOINTS
  6
BYBLOCK
 62
     0
 10
30.145248
 20
55.536873
 30
0.0
  0
ENDBLK
  8
0
  0
BLOCK
  8
0
  2
*D24
 70
    65
 10
0.0
 20
0.0
 30
0.0
  3
*D
  0
LINE
  8
0
  6
BYBLOCK
 62
     0
 10
6.859052
 20
51.961156
 30
0.0
 11
6.859052
 21
59.131636
 31
0.0
  0
LINE
  8
0
  6
BYBLOCK
 62
     0
 10
5.292025
 20
55.983028
 30
0.0
 11
4.309641
 21
58.682106
 31
0.0
  0
ARC
  8
0
  6
BYBLOCK
 62
     0
 10
6.859052
 20
51.677656
 30
0.0
 40
7.035479
 50
76.799691
 51
83.399845
  0
ARC
  8
0
  6
BYBLOCK
 62
     0
 10
6.859052
 20
51.677656
 30
0.0
 40
7.035479
 50
116.600155
 51
123.200309
  0
SOLID
  8
0
  6
BYBLOCK
 62
     0
 10
7.659938
 20
58.531732
 30
0.0
 11
7.67548
 21
58.801284
 31
0.0
 12
6.859052
 22
58.713136
 32
0.0
 13
6.859052
 23
58.713136
 33
0.0
  0
SOLID
  8
0
  6
BYBLOCK
 62
     0
 10
3.655437
 20
58.092442
 30
0.0
 11
3.762234
 21
57.844461
 31
0.0
 12
4.452777
 22
58.288844
 32
0.0
 13
4.452777
 23
58.288844
 33
0.0
  0
TEXT
  8
0
  6
BYBLOCK
 62
     0
 10
5.180323
 20
58.325001
 30
0.0
 40
0.5625
  1
20%%d
 41
0.75
  7
TXT
 72
     1
 11
5.637354
 21
58.606251
 31
0.0
 73
     2
  0
POINT
  8
DEFPOINTS
  6
BYBLOCK
 62
     0
 10
6.245809
 20
58.686358
 30
0.0
  0
POINT
  8
DEFPOINTS
  6
BYBLOCK
 62
     0
 10
6.859052
 20
51.677656
 30
0.0
  0
POINT
  8
DEFPOINTS
  6
BYBLOCK
 62
     0
 10
5.388988
 20
55.716625
 30
0.0
  0
POINT
  8
DEFPOINTS
  6
BYBLOCK
 62
     0
 10
6.859052
 20
51.677656
 30
0.0
  0
POINT
  8
DEFPOINTS
  6
BYBLOCK
 62
     0
 10
6.859052
 20
51.548873
 30
0.0
  0
ENDBLK
  8
0
  0
BLOCK
  8
0
  2
*D25
 70
    65
 10
0.0
 20
0.0
 30
0.0
  3
*D
  0
LINE
  8
0
  6
BYBLOCK
 62
     0
 10
24.919697
 20
55.723373
 30
0.0
 11
24.919697
 21
59.101873
 31
0.0
  0
LINE
  8
0
  6
BYBLOCK
 62
     0
 10
21.84567
 20
55.820373
 30
0.0
 11
21.84567
 21
59.101873
 31
0.0
  0
LINE
  8
0
  6
BYBLOCK
 62
     0
 10
25.729697
 20
58.683373
 30
0.0
 11
26.539697
 21
58.683373
 31
0.0
  0
LINE
  8
0
  6
BYBLOCK
 62
     0
 10
21.03567
 20
58.683373
 30
0.0
 11
20.22567
 21
58.683373
 31
0.0
  0
SOLID
  8
0
  6
BYBLOCK
 62
     0
 10
25.729697
 20
58.818373
 30
0.0
 11
25.729697
 21
58.548373
 31
0.0
 12
24.919697
 22
58.683373
 32
0.0
 13
24.919697
 23
58.683373
 33
0.0
  0
SOLID
  8
0
  6
BYBLOCK
 62
     0
 10
21.03567
 20
58.818373
 30
0.0
 11
21.03567
 21
58.548373
 31
0.0
 12
21.84567
 22
58.683373
 32
0.0
 13
21.84567
 23
58.683373
 33
0.0
  0
TEXT
  8
0
  6
BYBLOCK
 62
     0
 10
22.57409
 20
58.402123
 30
0.0
 40
0.5625
  1
3.074
 41
0.75
  7
TXT
 72
     1
 11
23.382683
 21
58.683373
 31
0.0
 73
     2
  0
POINT
  8
DEFPOINTS
  6
BYBLOCK
 62
     0
 10
24.919697
 20
55.439873
 30
0.0
  0
POINT
  8
DEFPOINTS
  6
BYBLOCK
 62
     0
 10
21.84567
 20
55.536873
 30
0.0
  0
POINT
  8
DEFPOINTS
  6
BYBLOCK
 62
     0
 10
21.84567
 20
58.683373
 30
0.0
  0
ENDBLK
  8
0
  0
BLOCK
  8
0
  2
*D26
 70
    65
 10
0.0
 20
0.0
 30
0.0
  3
*D
  0
LINE
  8
0
  6
BYBLOCK
 62
     0
 10
24.919697
 20
55.723373
 30
0.0
 11
24.919697
 21
57.837373
 31
0.0
  0
LINE
  8
0
  6
BYBLOCK
 62
     0
 10
25.169697
 20
55.957373
 30
0.0
 11
25.169697
 21
57.837373
 31
0.0
  0
LINE
  8
0
  6
BYBLOCK
 62
     0
 10
24.109697
 20
57.418873
 30
0.0
 11
23.299697
 21
57.418873
 31
0.0
  0
LINE
  8
0
  6
BYBLOCK
 62
     0
 10
25.979697
 20
57.418873
 30
0.0
 11
26.789697
 21
57.418873
 31
0.0
  0
SOLID
  8
0
  6
BYBLOCK
 62
     0
 10
24.109697
 20
57.553873
 30
0.0
 11
24.109697
 21
57.283873
 31
0.0
 12
24.919697
 22
57.418873
 32
0.0
 13
24.919697
 23
57.418873
 33
0.0
  0
SOLID
  8
0
  6
BYBLOCK
 62
     0
 10
25.979697
 20
57.553873
 30
0.0
 11
25.979697
 21
57.283873
 31
0.0
 12
25.169697
 22
57.418873
 32
0.0
 13
25.169697
 23
57.418873
 33
0.0
  0
TEXT
  8
0
  6
BYBLOCK
 62
     0
 10
27.194697
 20
57.137623
 30
0.0
 40
0.5625
  1
0.250
 41
0.75
  7
TXT
 72
     1
 11
27.968134
 21
57.418873
 31
0.0
 73
     2
  0
POINT
  8
DEFPOINTS
  6
BYBLOCK
 62
     0
 10
24.919697
 20
55.439873
 30
0.0
  0
POINT
  8
DEFPOINTS
  6
BYBLOCK
 62
     0
 10
25.169697
 20
55.673873
 30
0.0
  0
POINT
  8
DEFPOINTS
  6
BYBLOCK
 62
     0
 10
25.169697
 20
57.418873
 30
0.0
  0
ENDBLK
  8
0
  0
BLOCK
  8
0
  2
*D27
 70
    65
 10
0.0
 20
0.0
 30
0.0
  3
*D
  0
LINE
  8
0
  6
BYBLOCK
 62
     0
 10
37.935184
 20
51.661873
 30
0.0
 11
40.209953
 21
51.661873
 31
0.0
  0
LINE
  8
0
  6
BYBLOCK
 62
     0
 10
35.574684
 20
52.411873
 30
0.0
 11
40.209953
 21
52.411873
 31
0.0
  0
LINE
  8
0
  6
BYBLOCK
 62
     0
 10
39.791453
 20
50.851873
 30
0.0
 11
39.791453
 21
50.041873
 31
0.0
  0
LINE
  8
0
  6
BYBLOCK
 62
     0
 10
39.791453
 20
53.221873
 30
0.0
 11
39.791453
 21
54.031873
 31
0.0
  0
LINE
  8
0
  6
BYBLOCK
 62
     0
 10
39.791453
 20
54.031873
 30
0.0
 11
40.601453
 21
54.031873
 31
0.0
  0
SOLID
  8
0
  6
BYBLOCK
 62
     0
 10
39.656453
 20
50.851873
 30
0.0
 11
39.926453
 21
50.851873
 31
0.0
 12
39.791453
 22
51.661873
 32
0.0
 13
39.791453
 23
51.661873
 33
0.0
  0
SOLID
  8
0
  6
BYBLOCK
 62
     0
 10
39.656453
 20
53.221873
 30
0.0
 11
39.926453
 21
53.221873
 31
0.0
 12
39.791453
 22
52.411873
 32
0.0
 13
39.791453
 23
52.411873
 33
0.0
  0
TEXT
  8
0
  6
BYBLOCK
 62
     0
 10
41.006453
 20
53.750623
 30
0.0
 40
0.5625
  1
0.750
 41
0.75
  7
TXT
 72
     1
 11
41.779891
 21
54.031873
 31
0.0
 73
     2
  0
POINT
  8
DEFPOINTS
  6
BYBLOCK
 62
     0
 10
37.651684
 20
51.661873
 30
0.0
  0
POINT
  8
DEFPOINTS
  6
BYBLOCK
 62
     0
 10
35.291184
 20
52.411873
 30
0.0
  0
POINT
  8
DEFPOINTS
  6
BYBLOCK
 62
     0
 10
39.791453
 20
52.411873
 30
0.0
  0
ENDBLK
  8
0
  0
ENDSEC
  0
SECTION
  2
ENTITIES
  0
LINE
  8
OBJECT
 62
     7
 10
9.77467
 20
60.89818
 30
0.0
 11
14.70467
 21
60.89818
 31
0.0
  0
LINE
  8
OBJECT
 62
     7
 10
14.70467
 20
65.89818
 30
0.0
 11
9.77467
 21
65.89818
 31
0.0
  0
POLYLINE
  8
OBJECT
 62
     7
 66
     1
 10
0.0
 20
0.0
 30
0.0
 70
     1
  0
VERTEX
  8
OBJECT
 62
     7
 10
32.825184
 20
51.685873
 30
0.0
  0
VERTEX
  8
OBJECT
 62
     7
 10
32.825184
 20
55.798873
 30
0.0
  0
VERTEX
  8
OBJECT
 62
     7
 10
32.915184
 20
55.798873
 30
0.0
  0
VERTEX
  8
OBJECT
 62
     7
 10
32.915184
 20
51.685873
 30
0.0
 42
0.414214
  0
VERTEX
  8
OBJECT
 62
     7
 10
32.962184
 20
51.638873
 30
0.0
  0
VERTEX
  8
OBJECT
 62
     7
 10
37.618184
 20
51.638873
 30
0.0
 42
0.414214
  0
VERTEX
  8
OBJECT
 62
     7
 10
37.665184
 20
51.685873
 30
0.0
  0
VERTEX
  8
OBJECT
 62
     7
 10
37.665184
 20
55.798873
 30
0.0
  0
VERTEX
  8
OBJECT
 62
     7
 10
37.755184
 20
55.798873
 30
0.0
  0
VERTEX
  8
OBJECT
 62
     7
 10
37.755184
 20
51.685873
 30
0.0
 42
-0.414214
  0
VERTEX
  8
OBJECT
 62
     7
 10
37.618184
 20
51.548873
 30
0.0
  0
VERTEX
  8
OBJECT
 62
     7
 10
32.962184
 20
51.548873
 30
0.0
 42
-0.414214
  0
SEQEND
  8
OBJECT
 62
     7
  0
LINE
  8
OBJECT
 62
     7
 10
9.77467
 20
60.89818
 30
0.0
 11
9.77467
 21
65.89818
 31
0.0
  0
LINE
  8
OBJECT
 62
     7
 10
14.70467
 20
60.89818
 30
0.0
 11
14.70467
 21
65.89818
 31
0.0
  0
LINE
  8
OBJECT
 62
     7
 10
9.86467
 20
60.89818
 30
0.0
 11
9.86467
 21
65.89818
 31
0.0
  0
LINE
  8
OBJECT
 62
     7
 10
14.61467
 20
60.89818
 30
0.0
 11
14.61467
 21
65.89818
 31
0.0
  0
LINE
  8
OBJECT
 62
     7
 10
25.169697
 20
51.548873
 30
0.0
 11
25.169697
 21
55.673873
 31
0.0
  0
LINE
  8
OBJECT
 62
     7
 10
20.169697
 20
51.677656
 30
0.0
 11
20.169697
 21
51.548873
 31
0.0
  0
LINE
  8
OBJECT
 62
     7
 10
25.044697
 20
55.798873
 30
0.0
 11
21.757223
 21
55.798873
 31
0.0
  0
ARC
  8
OBJECT
 62
     7
 10
25.044697
 20
55.673873
 30
0.0
 40
0.125
 50
0.0
 51
90.0
  0
LINE
  8
OBJECT
 62
     7
 10
25.169697
 20
51.548873
 30
0.0
 11
20.169697
 21
51.548873
 31
0.0
  0
LINE
  8
OBJECT
 62
     7
 10
25.169697
 20
51.638873
 30
0.0
 11
20.169697
 21
51.638873
 31
0.0
  0
INSERT
  8
TEXT
 62
     7
 66
     1
  2
SECTION
 10
22.599323
 20
49.097272
 30
0.0
 41
1.672
 42
1.672
 50
90.0
 43
1.672
  0
ATTRIB
  8
0
 10
19.921588
 20
48.818453
 30
0.0
 40
0.563
  1
%%uSECTION "A-A"
  2
SECTION
 70
     0
 41
0.8
  7
SECTION
 72
     4
 11
22.599323
 21
49.097272
 31
0.0
  0
SEQEND
  8
TEXT
 62
     7
  0
LINE
  8
OBJECT
 62
     7
 10
14.70467
 20
43.220902
 30
0.0
 11
9.77467
 21
43.220902
 31
0.0
  0
LINE
  8
OBJECT
 62
     7
 10
9.77467
 20
48.220902
 30
0.0
 11
14.70467
 21
48.220902
 31
0.0
  0
LINE
  8
HIDDEN
 62
     7
 10
14.61467
 20
48.220902
 30
0.0
 11
14.61467
 21
43.220902
 31
0.0
  0
LINE
  8
OBJECT
 62
     7
 10
14.70467
 20
48.220902
 30
0.0
 11
14.70467
 21
43.220902
 31
0.0
  0
CIRCLE
  8
OBJECT
 62
     7
 10
13.61467
 20
47.720902
 30
0.0
 40
0.1395
  0
CIRCLE
  8
OBJECT
 62
     7
 10
13.61467
 20
47.720902
 30
0.0
 40
0.094
  0
CIRCLE
  8
OBJECT
 62
     7
 10
13.61467
 20
43.720902
 30
0.0
 40
0.1395
  0
CIRCLE
  8
OBJECT
 62
     7
 10
13.61467
 20
43.720902
 30
0.0
 40
0.094
  0
LINE
  8
HIDDEN
 62
     7
 10
9.86467
 20
48.220902
 30
0.0
 11
9.86467
 21
43.220902
 31
0.0
  0
LINE
  8
OBJECT
 62
     7
 10
9.77467
 20
48.220902
 30
0.0
 11
9.77467
 21
43.220902
 31
0.0
  0
CIRCLE
  8
OBJECT
 62
     7
 10
10.86467
 20
47.720902
 30
0.0
 40
0.1395
  0
CIRCLE
  8
OBJECT
 62
     7
 10
10.86467
 20
47.720902
 30
0.0
 40
0.094
  0
CIRCLE
  8
OBJECT
 62
     7
 10
10.86467
 20
43.720902
 30
0.0
 40
0.1395
  0
CIRCLE
  8
OBJECT
 62
     7
 10
10.86467
 20
43.720902
 30
0.0
 40
0.094
  0
POLYLINE
  8
OBJECT
  6
HIDDEN
 62
     7
 66
     1
 10
0.0
 20
0.0
 30
0.0
 70
     1
  0
VERTEX
  8
OBJECT
  6
HIDDEN
 62
     7
 10
9.88017
 20
43.470902
 30
0.0
  0
VERTEX
  8
OBJECT
  6
HIDDEN
 62
     7
 10
9.88017
 20
47.970902
 30
0.0
  0
VERTEX
  8
OBJECT
  6
HIDDEN
 62
     7
 10
14.59917
 20
47.970902
 30
0.0
  0
VERTEX
  8
OBJECT
  6
HIDDEN
 62
     7
 10
14.59917
 20
43.470902
 30
0.0
  0
SEQEND
  8
OBJECT
  6
HIDDEN
 62
     7
  0
LINE
  8
HIDDEN
 62
     7
 10
9.88017
 20
47.920902
 30
0.0
 11
14.59917
 21
47.920902
 31
0.0
  0
LINE
  8
OBJECT
  6
HIDDEN
 62
     7
 10
9.88017
 20
47.533902
 30
0.0
 11
14.59917
 21
47.533902
 31
0.0
  0
LINE
  8
OBJECT
  6
HIDDEN
 62
     7
 10
9.88017
 20
43.907902
 30
0.0
 11
14.59917
 21
43.907902
 31
0.0
  0
CIRCLE
  8
OBJECT
 62
     7
 10
10.86417
 20
47.723902
 30
0.0
 40
0.06
  0
CIRCLE
  8
OBJECT
 62
     7
 10
10.86417
 20
43.717902
 30
0.0
 40
0.06
  0
CIRCLE
  8
OBJECT
 62
     7
 10
13.61517
 20
47.723902
 30
0.0
 40
0.06
  0
CIRCLE
  8
OBJECT
 62
     7
 10
13.61517
 20
43.717902
 30
0.0
 40
0.06
  0
LINE
  8
HIDDEN
 62
     7
 10
14.59917
 20
61.254851
 30
0.0
 11
9.88017
 21
61.254851
 31
0.0
  0
POLYLINE
  8
OBJECT
 62
     7
 66
     1
 10
0.0
 20
0.0
 30
0.0
 70
     1
  0
VERTEX
  8
OBJECT
 62
     7
 10
14.59917
 20
61.204851
 30
0.0
  0
VERTEX
  8
OBJECT
 62
     7
 10
14.59917
 20
65.64818
 30
0.0
  0
VERTEX
  8
OBJECT
 62
     7
 10
9.88017
 20
65.64818
 30
0.0
  0
VERTEX
  8
OBJECT
 62
     7
 10
9.88017
 20
61.204851
 30
0.0
  0
SEQEND
  8
OBJECT
 62
     7
  0
ARC
  8
OBJECT
 62
     7
 10
35.291184
 20
52.411873
 30
0.0
 40
0.437498
 50
97.180756
 51
262.819244
  0
ARC
  8
OBJECT
 62
     7
 10
35.291184
 20
52.411873
 30
0.0
 40
0.437498
 50
277.180756
 51
82.819244
  0
POLYLINE
  8
OBJECT
 62
     7
 66
     1
 10
0.0
 20
0.0
 30
0.0
 70
     1
  0
VERTEX
  8
OBJECT
 62
     7
 10
32.930684
 20
51.661873
 30
0.0
  0
VERTEX
  8
OBJECT
 62
     7
 10
32.930684
 20
55.536873
 30
0.0
  0
VERTEX
  8
OBJECT
 62
     7
 10
37.649684
 20
55.536873
 30
0.0
  0
VERTEX
  8
OBJECT
 62
     7
 10
37.649684
 20
51.661873
 30
0.0
  0
SEQEND
  8
OBJECT
 62
     7
  0
LINE
  8
HIDDEN
 62
     7
 10
37.649684
 20
51.711873
 30
0.0
 11
32.930684
 21
51.711873
 31
0.0
  0
LINE
  8
OBJECT
 62
     7
 10
35.236497
 20
52.029062
 30
0.0
 11
35.236497
 21
51.865001
 31
0.0
  0
LINE
  8
OBJECT
 62
     7
 10
35.345871
 20
52.029062
 30
0.0
 11
35.345871
 21
51.865001
 31
0.0
  0
LINE
  8
HIDDEN
 62
     7
 10
32.930684
 20
55.486873
 30
0.0
 11
37.649684
 21
55.486873
 31
0.0
  0
LINE
  8
OBJECT
 62
     7
 10
35.236497
 20
52.794683
 30
0.0
 11
35.236497
 21
52.958744
 31
0.0
  0
LINE
  8
OBJECT
 62
     7
 10
35.345871
 20
52.794683
 30
0.0
 11
35.345871
 21
52.958744
 31
0.0
  0
LINE
  8
HIDDEN
 62
     7
 10
14.59917
 20
55.486873
 30
0.0
 11
9.88017
 21
55.486873
 31
0.0
  0
LINE
  8
HIDDEN
 62
     7
 10
9.88017
 20
51.711873
 30
0.0
 11
14.59917
 21
51.711873
 31
0.0
  0
POLYLINE
  8
OBJECT
 62
     7
 66
     1
 10
0.0
 20
0.0
 30
0.0
 70
     1
  0
VERTEX
  8
OBJECT
 62
     7
 10
14.59917
 20
51.661873
 30
0.0
  0
VERTEX
  8
OBJECT
 62
     7
 10
14.59917
 20
55.536873
 30
0.0
  0
VERTEX
  8
OBJECT
 62
     7
 10
9.88017
 20
55.536873
 30
0.0
  0
VERTEX
  8
OBJECT
 62
     7
 10
9.88017
 20
51.661873
 30
0.0
  0
SEQEND
  8
OBJECT
 62
     7
  0
POLYLINE
  8
OBJECT
 62
     7
 66
     1
 10
0.0
 20
0.0
 30
0.0
 70
     1
  0
VERTEX
  8
OBJECT
 62
     7
 10
14.70467
 20
51.685873
 30
0.0
  0
VERTEX
  8
OBJECT
 62
     7
 10
14.70467
 20
55.798873
 30
0.0
  0
VERTEX
  8
OBJECT
 62
     7
 10
14.61467
 20
55.798873
 30
0.0
  0
VERTEX
  8
OBJECT
 62
     7
 10
14.61467
 20
51.685873
 30
0.0
 42
-0.414214
  0
VERTEX
  8
OBJECT
 62
     7
 10
14.56767
 20
51.638873
 30
0.0
  0
VERTEX
  8
OBJECT
 62
     7
 10
9.91167
 20
51.638873
 30
0.0
 42
-0.414214
  0
VERTEX
  8
OBJECT
 62
     7
 10
9.86467
 20
51.685873
 30
0.0
  0
VERTEX
  8
OBJECT
 62
     7
 10
9.86467
 20
55.798873
 30
0.0
  0
VERTEX
  8
OBJECT
 62
     7
 10
9.77467
 20
55.798873
 30
0.0
  0
VERTEX
  8
OBJECT
 62
     7
 10
9.77467
 20
51.685873
 30
0.0
 42
0.414214
  0
VERTEX
  8
OBJECT
 62
     7
 10
9.91167
 20
51.548873
 30
0.0
  0
VERTEX
  8
OBJECT
 62
     7
 10
14.56767
 20
51.548873
 30
0.0
 42
0.414214
  0
SEQEND
  8
OBJECT
 62
     7
  0
DIMENSION
  8
DIM
 62
     7
  2
*D20
 10
16.076742
 20
55.798873
 30
0.0
 11
16.076742
 21
53.673873
 31
0.0
 12
-1.750275
 22
40.829006
 32
0.0
  1
<>
 13
14.70467
 23
51.548873
 33
0.0
 14
14.70467
 24
55.798873
 34
0.0
 50
270.0
  3
23NSTD
  0
LINE
  8
OBJECT
 62
     7
 10
1.984052
 20
55.798873
 30
0.0
 11
5.271526
 21
55.798873
 31
0.0
  0
DIMENSION
  8
DIM
 62
     7
  2
*D17
 10
25.169697
 20
50.408371
 30
0.0
 11
22.669697
 21
50.408371
 31
0.0
 12
-2.198067
 22
40.829006
 32
0.0
  1
<>
 13
20.169697
 23
51.548873
 33
0.0
 14
25.169697
 24
51.548873
 34
0.0
 50
180.0
  3
23NSTD
  0
LINE
  8
OBJECT
 62
     7
 10
1.859052
 20
51.548873
 30
0.0
 11
6.859052
 21
51.548873
 31
0.0
  0
LINE
  8
HIDDEN
 62
     7
 10
1.859052
 20
51.638873
 30
0.0
 11
6.859052
 21
51.638873
 31
0.0
  0
LINE
  8
OBJECT
 62
     7
 10
6.859052
 20
51.677656
 30
0.0
 11
6.859052
 21
51.548873
 31
0.0
  0
LINE
  8
OBJECT
 62
     7
 10
1.859052
 20
51.548873
 30
0.0
 11
1.859052
 21
55.673873
 31
0.0
  0
ARC
  8
OBJECT
 62
     7
 10
1.984052
 20
55.673873
 30
0.0
 40
0.125
 50
90.0
 51
180.0
  0
POLYLINE
  8
OBJECT
 62
     7
 66
     1
 10
0.0
 20
0.0
 30
0.0
 70
     1
  0
VERTEX
  8
OBJECT
 62
     7
 10
20.718447
 20
51.923873
 30
0.0
  0
VERTEX
  8
OBJECT
 62
     7
 10
20.735697
 20
51.906623
 30
0.0
  0
VERTEX
  8
OBJECT
 62
     7
 10
20.735697
 20
51.617873
 30
0.0
  0
VERTEX
  8
OBJECT
 62
     7
 10
20.793594
 20
51.548873
 30
0.0
  0
VERTEX
  8
OBJECT
 62
     7
 10
20.539799
 20
51.548873
 30
0.0
  0
VERTEX
  8
OBJECT
 62
     7
 10
20.597697
 20
51.617873
 30
0.0
  0
VERTEX
  8
OBJECT
 62
     7
 10
20.597697
 20
51.906623
 30
0.0
  0
VERTEX
  8
OBJECT
 62
     7
 10
20.614947
 20
51.923873
 30
0.0
  0
SEQEND
  8
OBJECT
 62
     7
  0
POLYLINE
  8
OBJECT
 62
     7
 66
     1
 10
0.0
 20
0.0
 30
0.0
 70
     1
  0
VERTEX
  8
OBJECT
 62
     7
 10
24.620947
 20
51.923873
 30
0.0
  0
VERTEX
  8
OBJECT
 62
     7
 10
24.603697
 20
51.906623
 30
0.0
  0
VERTEX
  8
OBJECT
 62
     7
 10
24.603697
 20
51.617873
 30
0.0
  0
VERTEX
  8
OBJECT
 62
     7
 10
24.545799
 20
51.548873
 30
0.0
  0
VERTEX
  8
OBJECT
 62
     7
 10
24.799594
 20
51.548873
 30
0.0
  0
VERTEX
  8
OBJECT
 62
     7
 10
24.741697
 20
51.617873
 30
0.0
  0
VERTEX
  8
OBJECT
 62
     7
 10
24.741697
 20
51.906623
 30
0.0
  0
VERTEX
  8
OBJECT
 62
     7
 10
24.724447
 20
51.923873
 30
0.0
  0
SEQEND
  8
OBJECT
 62
     7
  0
POLYLINE
  8
HIDDEN
  6
HIDDEN2
 62
     7
 66
     1
 10
0.0
 20
0.0
 30
0.0
 70
     1
  0
VERTEX
  8
HIDDEN
  6
HIDDEN2
 62
     7
 10
13.66692
 20
51.923873
 30
0.0
  0
VERTEX
  8
HIDDEN
  6
HIDDEN2
 62
     7
 10
13.68417
 20
51.906623
 30
0.0
  0
VERTEX
  8
HIDDEN
  6
HIDDEN2
 62
     7
 10
13.68417
 20
51.617873
 30
0.0
  0
VERTEX
  8
HIDDEN
  6
HIDDEN2
 62
     7
 10
13.742068
 20
51.548873
 30
0.0
  0
VERTEX
  8
HIDDEN
  6
HIDDEN2
 62
     7
 10
13.488273
 20
51.548873
 30
0.0
  0
VERTEX
  8
HIDDEN
  6
HIDDEN2
 62
     7
 10
13.54617
 20
51.617873
 30
0.0
  0
VERTEX
  8
HIDDEN
  6
HIDDEN2
 62
     7
 10
13.54617
 20
51.906623
 30
0.0
  0
VERTEX
  8
HIDDEN
  6
HIDDEN2
 62
     7
 10
13.56342
 20
51.923873
 30
0.0
  0
SEQEND
  8
HIDDEN
  6
HIDDEN2
 62
     7
  0
POLYLINE
  8
HIDDEN
  6
HIDDEN2
 62
     7
 66
     1
 10
0.0
 20
0.0
 30
0.0
 70
     1
  0
VERTEX
  8
HIDDEN
  6
HIDDEN2
 62
     7
 10
10.81242
 20
51.923873
 30
0.0
  0
VERTEX
  8
HIDDEN
  6
HIDDEN2
 62
     7
 10
10.79517
 20
51.906623
 30
0.0
  0
VERTEX
  8
HIDDEN
  6
HIDDEN2
 62
     7
 10
10.79517
 20
51.617873
 30
0.0
  0
VERTEX
  8
HIDDEN
  6
HIDDEN2
 62
     7
 10
10.737273
 20
51.548873
 30
0.0
  0
VERTEX
  8
HIDDEN
  6
HIDDEN2
 62
     7
 10
10.991068
 20
51.548873
 30
0.0
  0
VERTEX
  8
HIDDEN
  6
HIDDEN2
 62
     7
 10
10.93317
 20
51.617873
 30
0.0
  0
VERTEX
  8
HIDDEN
  6
HIDDEN2
 62
     7
 10
10.93317
 20
51.906623
 30
0.0
  0
VERTEX
  8
HIDDEN
  6
HIDDEN2
 62
     7
 10
10.91592
 20
51.923873
 30
0.0
  0
SEQEND
  8
HIDDEN
  6
HIDDEN2
 62
     7
  0
POLYLINE
  8
HIDDEN
  6
HIDDEN2
 62
     7
 66
     1
 10
0.0
 20
0.0
 30
0.0
 70
     1
  0
VERTEX
  8
HIDDEN
  6
HIDDEN2
 62
     7
 10
36.717434
 20
51.923873
 30
0.0
  0
VERTEX
  8
HIDDEN
  6
HIDDEN2
 62
     7
 10
36.734684
 20
51.906623
 30
0.0
  0
VERTEX
  8
HIDDEN
  6
HIDDEN2
 62
     7
 10
36.734684
 20
51.617873
 30
0.0
  0
VERTEX
  8
HIDDEN
  6
HIDDEN2
 62
     7
 10
36.792582
 20
51.548873
 30
0.0
  0
VERTEX
  8
HIDDEN
  6
HIDDEN2
 62
     7
 10
36.538786
 20
51.548873
 30
0.0
  0
VERTEX
  8
HIDDEN
  6
HIDDEN2
 62
     7
 10
36.596684
 20
51.617873
 30
0.0
  0
VERTEX
  8
HIDDEN
  6
HIDDEN2
 62
     7
 10
36.596684
 20
51.906623
 30
0.0
  0
VERTEX
  8
HIDDEN
  6
HIDDEN2
 62
     7
 10
36.613934
 20
51.923873
 30
0.0
  0
SEQEND
  8
HIDDEN
  6
HIDDEN2
 62
     7
  0
POLYLINE
  8
HIDDEN
  6
HIDDEN2
 62
     7
 66
     1
 10
0.0
 20
0.0
 30
0.0
 70
     1
  0
VERTEX
  8
HIDDEN
  6
HIDDEN2
 62
     7
 10
33.862934
 20
51.923873
 30
0.0
  0
VERTEX
  8
HIDDEN
  6
HIDDEN2
 62
     7
 10
33.845684
 20
51.906623
 30
0.0
  0
VERTEX
  8
HIDDEN
  6
HIDDEN2
 62
     7
 10
33.845684
 20
51.617873
 30
0.0
  0
VERTEX
  8
HIDDEN
  6
HIDDEN2
 62
     7
 10
33.787786
 20
51.548873
 30
0.0
  0
VERTEX
  8
HIDDEN
  6
HIDDEN2
 62
     7
 10
34.041582
 20
51.548873
 30
0.0
  0
VERTEX
  8
HIDDEN
  6
HIDDEN2
 62
     7
 10
33.983684
 20
51.617873
 30
0.0
  0
VERTEX
  8
HIDDEN
  6
HIDDEN2
 62
     7
 10
33.983684
 20
51.906623
 30
0.0
  0
VERTEX
  8
HIDDEN
  6
HIDDEN2
 62
     7
 10
33.966434
 20
51.923873
 30
0.0
  0
SEQEND
  8
HIDDEN
  6
HIDDEN2
 62
     7
  0
POLYLINE
  8
HIDDEN
  6
HIDDEN2
 62
     7
 66
     1
 10
0.0
 20
0.0
 30
0.0
 70
     1
  0
VERTEX
  8
HIDDEN
  6
HIDDEN2
 62
     7
 10
2.407802
 20
51.923873
 30
0.0
  0
VERTEX
  8
HIDDEN
  6
HIDDEN2
 62
     7
 10
2.425052
 20
51.906623
 30
0.0
  0
VERTEX
  8
HIDDEN
  6
HIDDEN2
 62
     7
 10
2.425052
 20
51.617873
 30
0.0
  0
VERTEX
  8
HIDDEN
  6
HIDDEN2
 62
     7
 10
2.48295
 20
51.548873
 30
0.0
  0
VERTEX
  8
HIDDEN
  6
HIDDEN2
 62
     7
 10
2.229154
 20
51.548873
 30
0.0
  0
VERTEX
  8
HIDDEN
  6
HIDDEN2
 62
     7
 10
2.287052
 20
51.617873
 30
0.0
  0
VERTEX
  8
HIDDEN
  6
HIDDEN2
 62
     7
 10
2.287052
 20
51.906623
 30
0.0
  0
VERTEX
  8
HIDDEN
  6
HIDDEN2
 62
     7
 10
2.304302
 20
51.923873
 30
0.0
  0
SEQEND
  8
HIDDEN
  6
HIDDEN2
 62
     7
  0
POLYLINE
  8
HIDDEN
  6
HIDDEN2
 62
     7
 66
     1
 10
0.0
 20
0.0
 30
0.0
 70
     1
  0
VERTEX
  8
HIDDEN
  6
HIDDEN2
 62
     7
 10
6.310302
 20
51.923873
 30
0.0
  0
VERTEX
  8
HIDDEN
  6
HIDDEN2
 62
     7
 10
6.293052
 20
51.906623
 30
0.0
  0
VERTEX
  8
HIDDEN
  6
HIDDEN2
 62
     7
 10
6.293052
 20
51.617873
 30
0.0
  0
VERTEX
  8
HIDDEN
  6
HIDDEN2
 62
     7
 10
6.235154
 20
51.548873
 30
0.0
  0
VERTEX
  8
HIDDEN
  6
HIDDEN2
 62
     7
 10
6.48895
 20
51.548873
 30
0.0
  0
VERTEX
  8
HIDDEN
  6
HIDDEN2
 62
     7
 10
6.431052
 20
51.617873
 30
0.0
  0
VERTEX
  8
HIDDEN
  6
HIDDEN2
 62
     7
 10
6.431052
 20
51.906623
 30
0.0
  0
VERTEX
  8
HIDDEN
  6
HIDDEN2
 62
     7
 10
6.413802
 20
51.923873
 30
0.0
  0
SEQEND
  8
HIDDEN
  6
HIDDEN2
 62
     7
  0
DIMENSION
  8
DIM
 62
     7
  2
*D19
 10
14.70467
 20
58.683373
 30
0.0
 11
12.23967
 21
58.683373
 31
0.0
 12
-1.750275
 22
40.829006
 32
0.0
 13
9.77467
 23
55.798873
 33
0.0
 14
14.70467
 24
55.798873
 34
0.0
  3
23NSTD
  0
TEXT
  8
TEXT
 62
     7
 10
10.123264
 20
49.709117
 30
0.0
 40
0.5625
  1
%%uFRONT VIEW
 41
0.75
  7
TXT
 72
     1
 11
12.23967
 21
49.709117
 31
0.0
  0
TEXT
  8
TEXT
 62
     7
 10
10.545139
 20
59.730827
 30
0.0
 40
0.5625
  1
%%uTOP VIEW
 41
0.75
  7
TXT
 72
     1
 11
12.23967
 21
59.730827
 31
0.0
  0
TEXT
  8
TEXT
 62
     7
 10
9.912327
 20
41.853127
 30
0.0
 40
0.5625
  1
%%uBOTTOM VIEW
 41
0.75
  7
TXT
 72
     1
 11
12.23967
 21
41.853127
 31
0.0
  0
TEXT
  8
TEXT
 62
     7
 10
33.384715
 20
48.816272
 30
0.0
 40
0.5625
  1
%%uREAR VIEW
 41
0.75
  7
TXT
 72
     1
 11
35.290184
 21
48.816272
 31
0.0
  0
TEXT
  8
TEXT
 62
     7
 10
2.523896
 20
49.708534
 30
0.0
 40
0.5625
  1
%%uSIDE VIEW
 41
0.75
  7
TXT
 72
     1
 11
4.359052
 21
49.708534
 31
0.0
  0
DIMENSION
  8
DIM
 62
     7
  2
*D5
 10
37.755184
 20
50.408371
 30
0.0
 11
36.522684
 21
50.408371
 31
0.0
 12
3.554432
 22
41.396856
 32
0.0
 13
35.290184
 23
52.411873
 33
0.0
 14
37.755184
 24
51.653873
 34
0.0
  3
23NSTDI
  0
DIMENSION
  8
DIM
 62
     7
  2
*D27
 10
39.791453
 20
52.411873
 30
0.0
 11
41.779891
 21
54.031873
 31
0.0
 13
37.651684
 23
51.661873
 33
0.0
 14
35.291184
 24
52.411873
 34
0.0
 50
270.0
  3
23NSTD
  0
DIMENSION
  8
DIM
 62
     7
  2
*D26
 10
25.169697
 20
57.418873
 30
0.0
 11
27.968134
 21
57.418873
 31
0.0
 13
24.919697
 23
55.439873
 33
0.0
 14
25.169697
 24
55.673873
 34
0.0
  3
23NSTD
  0
DIMENSION
  8
DIM
 62
     7
  2
*D18
 10
14.61467
 20
57.418873
 30
0.0
 11
12.23967
 21
57.418873
 31
0.0
 12
-1.750275
 22
40.829006
 32
0.0
 13
9.86467
 23
55.798873
 33
0.0
 14
14.61467
 24
55.798873
 34
0.0
  3
23NSTDI
  0
POLYLINE
  8
DIM
 62
     7
 66
     1
 10
0.0
 20
0.0
 30
0.0
 41
0.30375
  0
VERTEX
  8
DIM
 62
     7
 10
34.92336
 20
52.174998
 30
0.0
 41
0.30375
  0
VERTEX
  8
DIM
 62
     7
 10
34.316668
 20
51.638318
 30
0.0
 41
0.0
  0
VERTEX
  8
DIM
 62
     7
 10
32.619334
 20
50.136857
 30
0.0
 41
0.0
  0
VERTEX
  8
DIM
 62
     7
 10
31.809334
 20
50.136857
 30
0.0
 41
0.0
  0
SEQEND
  8
DIM
 62
     7
  0
TEXT
  8
DIM
 62
     7
 10
28.099647
 20
49.855607
 30
0.0
 40
0.5625
  1
0.875 DIA.
 41
0.75
  7
TXT
 72
     2
 11
31.404334
 21
50.136857
 31
0.0
 73
     2
  0
TEXT
  8
DIM
 62
     7
 10
28.169959
 20
48.918107
 30
0.0
 40
0.5625
  1
KNOCKOUT
 41
0.75
  7
TXT
 72
     2
 11
31.404334
 21
49.199357
 31
0.0
 73
     2
  0
DIMENSION
  8
DIM
 62
     7
  2
*D23
 10
28.03423
 20
55.536873
 30
0.0
 11
28.03423
 21
53.599373
 31
0.0
 12
-2.111019
 22
0.0
 32
0.0
 13
24.822697
 23
51.661873
 33
0.0
 14
24.822697
 24
55.536873
 34
0.0
 50
90.0
  3
23NSTD
  0
DIMENSION
  8
DIM
 62
     7
  2
*D22
 10
29.29873
 20
55.798873
 30
0.0
 11
31.322323
 21
57.418873
 31
0.0
 12
-2.111019
 22
0.0
 32
0.0
 13
24.822697
 23
55.536873
 33
0.0
 14
25.044697
 24
55.798873
 34
0.0
 50
90.0
  3
23NSTD
  0
POLYLINE
  8
HIDDEN
 62
     7
 66
     1
 10
0.0
 20
0.0
 30
0.0
  0
VERTEX
  8
HIDDEN
 62
     7
 10
14.59917
 20
65.59818
 30
0.0
  0
VERTEX
  8
HIDDEN
 62
     7
 10
12.677168
 20
65.59818
 30
0.0
  0
VERTEX
  8
HIDDEN
 62
     7
 10
12.677168
 20
65.54818
 30
0.0
  0
VERTEX
  8
HIDDEN
 62
     7
 10
11.802173
 20
65.54818
 30
0.0
  0
VERTEX
  8
HIDDEN
 62
     7
 10
11.802173
 20
65.59818
 30
0.0
  0
VERTEX
  8
HIDDEN
 62
     7
 10
9.88017
 20
65.59818
 30
0.0
  0
SEQEND
  8
HIDDEN
 62
     7
  0
POLYLINE
  8
HIDDEN
 62
     7
 66
     1
 10
0.0
 20
0.0
 30
0.0
  0
VERTEX
  8
HIDDEN
 62
     7
 10
9.88017
 20
43.520902
 30
0.0
  0
VERTEX
  8
HIDDEN
 62
     7
 10
11.802173
 20
43.520902
 30
0.0
  0
VERTEX
  8
HIDDEN
 62
     7
 10
11.802173
 20
43.570902
 30
0.0
  0
VERTEX
  8
HIDDEN
 62
     7
 10
12.677168
 20
43.570902
 30
0.0
  0
VERTEX
  8
HIDDEN
 62
     7
 10
12.677168
 20
43.520902
 30
0.0
  0
VERTEX
  8
HIDDEN
 62
     7
 10
14.59917
 20
43.520902
 30
0.0
  0
SEQEND
  8
HIDDEN
 62
     7
  0
POLYLINE
  8
OBJECT
 62
     7
 66
     1
 10
0.0
 20
0.0
 30
0.0
 70
     1
  0
VERTEX
  8
OBJECT
 62
     7
 10
21.91359
 20
55.536873
 30
0.0
  0
VERTEX
  8
OBJECT
 62
     7
 10
24.822697
 20
55.536873
 30
0.0
 42
-0.414214
  0
VERTEX
  8
OBJECT
 62
     7
 10
24.919697
 20
55.439873
 30
0.0
  0
VERTEX
  8
OBJECT
 62
     7
 10
24.919697
 20
51.758873
 30
0.0
 42
-0.414214
  0
VERTEX
  8
OBJECT
 62
     7
 10
24.822697
 20
51.661873
 30
0.0
  0
VERTEX
  8
OBJECT
 62
     7
 10
24.482697
 20
51.661873
 30
0.0
  0
VERTEX
  8
OBJECT
 62
     7
 10
24.482697
 20
51.711873
 30
0.0
  0
VERTEX
  8
OBJECT
 62
     7
 10
24.822697
 20
51.711873
 30
0.0
 42
0.414214
  0
VERTEX
  8
OBJECT
 62
     7
 10
24.869697
 20
51.758873
 30
0.0
  0
VERTEX
  8
OBJECT
 62
     7
 10
24.869697
 20
51.973873
 30
0.0
  0
VERTEX
  8
OBJECT
 62
     7
 10
24.819697
 20
51.973873
 30
0.0
  0
VERTEX
  8
OBJECT
 62
     7
 10
24.819697
 20
52.848873
 30
0.0
  0
VERTEX
  8
OBJECT
 62
     7
 10
24.869697
 20
52.848873
 30
0.0
  0
VERTEX
  8
OBJECT
 62
     7
 10
24.869697
 20
55.439873
 30
0.0
 42
0.414214
  0
VERTEX
  8
OBJECT
 62
     7
 10
24.822697
 20
55.486873
 30
0.0
  0
VERTEX
  8
OBJECT
 62
     7
 10
21.91359
 20
55.486873
 30
0.0
 42
0.315299
  0
VERTEX
  8
OBJECT
 62
     7
 10
21.869425
 20
55.455947
 30
0.0
  0
VERTEX
  8
OBJECT
 62
     7
 10
20.529202
 20
51.773715
 30
0.0
 42
0.520567
  0
VERTEX
  8
OBJECT
 62
     7
 10
20.573368
 20
51.71064
 30
0.0
  0
VERTEX
  8
OBJECT
 62
     7
 10
20.871837
 20
51.71064
 30
0.0
  0
VERTEX
  8
OBJECT
 62
     7
 10
20.871837
 20
51.66064
 30
0.0
  0
VERTEX
  8
OBJECT
 62
     7
 10
20.573368
 20
51.66064
 30
0.0
 42
-0.520567
  0
VERTEX
  8
OBJECT
 62
     7
 10
20.482217
 20
51.790816
 30
0.0
  0
VERTEX
  8
OBJECT
 62
     7
 10
21.82244
 20
55.473048
 30
0.0
 42
-0.315299
  0
SEQEND
  8
OBJECT
 62
     7
  0
POLYLINE
  8
OBJECT
 62
     7
 66
     1
 10
0.0
 20
0.0
 30
0.0
  0
VERTEX
  8
OBJECT
 62
     7
 10
20.459842
 20
51.72934
 30
0.0
  0
VERTEX
  8
OBJECT
 62
     7
 10
20.434837
 20
51.66064
 30
0.0
  0
VERTEX
  8
OBJECT
 62
     7
 10
20.507946
 20
51.66064
 30
0.0
  0
SEQEND
  8
OBJECT
 62
     7
  0
POLYLINE
  8
OBJECT
 62
     7
 66
     1
 10
0.0
 20
0.0
 30
0.0
  0
VERTEX
  8
OBJECT
 62
     7
 10
21.868424
 20
55.536873
 30
0.0
  0
VERTEX
  8
OBJECT
 62
     7
 10
21.84567
 20
55.536873
 30
0.0
  0
VERTEX
  8
OBJECT
 62
     7
 10
21.837888
 20
55.515491
 30
0.0
  0
SEQEND
  8
OBJECT
 62
     7
  0
POLYLINE
  8
HIDDEN
 62
     7
 66
     1
 10
0.0
 20
0.0
 30
0.0
 70
     1
  0
VERTEX
  8
HIDDEN
 62
     7
 10
5.115158
 20
55.536873
 30
0.0
  0
VERTEX
  8
HIDDEN
 62
     7
 10
2.206052
 20
55.536873
 30
0.0
 42
0.414214
  0
VERTEX
  8
HIDDEN
 62
     7
 10
2.109052
 20
55.439873
 30
0.0
  0
VERTEX
  8
HIDDEN
 62
     7
 10
2.109052
 20
51.758873
 30
0.0
 42
0.414214
  0
VERTEX
  8
HIDDEN
 62
     7
 10
2.206052
 20
51.661873
 30
0.0
  0
VERTEX
  8
HIDDEN
 62
     7
 10
2.546052
 20
51.661873
 30
0.0
  0
VERTEX
  8
HIDDEN
 62
     7
 10
2.546052
 20
51.711873
 30
0.0
  0
VERTEX
  8
HIDDEN
 62
     7
 10
2.206052
 20
51.711873
 30
0.0
 42
-0.414214
  0
VERTEX
  8
HIDDEN
 62
     7
 10
2.159052
 20
51.758873
 30
0.0
  0
VERTEX
  8
HIDDEN
 62
     7
 10
2.159052
 20
51.973873
 30
0.0
  0
VERTEX
  8
HIDDEN
 62
     7
 10
2.209052
 20
51.973873
 30
0.0
  0
VERTEX
  8
HIDDEN
 62
     7
 10
2.209052
 20
52.848873
 30
0.0
  0
VERTEX
  8
HIDDEN
 62
     7
 10
2.159052
 20
52.848873
 30
0.0
  0
VERTEX
  8
HIDDEN
 62
     7
 10
2.159052
 20
55.439873
 30
0.0
 42
-0.414214
  0
VERTEX
  8
HIDDEN
 62
     7
 10
2.206052
 20
55.486873
 30
0.0
  0
VERTEX
  8
HIDDEN
 62
     7
 10
5.115158
 20
55.486873
 30
0.0
 42
-0.315299
  0
VERTEX
  8
HIDDEN
 62
     7
 10
5.159324
 20
55.455947
 30
0.0
  0
VERTEX
  8
HIDDEN
 62
     7
 10
6.499547
 20
51.773715
 30
0.0
 42
-0.520567
  0
VERTEX
  8
HIDDEN
 62
     7
 10
6.455381
 20
51.71064
 30
0.0
  0
VERTEX
  8
HIDDEN
 62
     7
 10
6.156912
 20
51.71064
 30
0.0
  0
VERTEX
  8
HIDDEN
 62
     7
 10
6.156912
 20
51.66064
 30
0.0
  0
VERTEX
  8
HIDDEN
 62
     7
 10
6.455381
 20
51.66064
 30
0.0
 42
0.520567
  0
VERTEX
  8
HIDDEN
 62
     7
 10
6.546532
 20
51.790816
 30
0.0
  0
VERTEX
  8
HIDDEN
 62
     7
 10
5.206309
 20
55.473048
 30
0.0
 42
0.315299
  0
SEQEND
  8
HIDDEN
 62
     7
  0
LINE
  8
OBJECT
 62
     7
 10
5.388988
 20
55.716625
 30
0.0
 11
6.859052
 21
51.677656
 31
0.0
  0
ARC
  8
OBJECT
 62
     7
 10
5.271526
 20
55.673873
 30
0.0
 40
0.125
 50
20.0
 51
90.0
  0
LINE
  8
OBJECT
 62
     7
 10
21.639761
 20
55.716625
 30
0.0
 11
20.169697
 21
51.677656
 31
0.0
  0
LINE
  8
OBJECT
 62
     7
 10
14.59917
 20
62.574153
 30
0.0
 11
9.88017
 21
62.574153
 31
0.0
  0
ARC
  8
OBJECT
 62
     7
 10
21.757223
 20
55.673873
 30
0.0
 40
0.125
 50
90.0
 51
160.0
  0
DIMENSION
  8
DIM
 62
     7
  2
*D4
 10
22.057172
 20
56.863453
 30
0.0
 11
18.546433
 21
57.417525
 31
0.0
 12
0.900598
 22
41.396856
 32
0.0
 70
     1
 13
21.874684
 23
55.63112
 33
0.0
 14
21.639761
 24
55.716625
 34
0.0
  3
23NSTD
  0
DIMENSION
  8
DIM
 62
     7
  2
*D25
 10
21.84567
 20
58.683373
 30
0.0
 11
23.382683
 21
58.683373
 31
0.0
 13
24.919697
 23
55.439873
 33
0.0
 14
21.84567
 24
55.536873
 34
0.0
  3
23NSTDI
  0
DIMENSION
  8
DIM
 62
     7
  2
*D21
 10
20.200415
 20
56.135697
 30
0.0
 11
19.494998
 21
54.197581
 31
0.0
 12
-2.198067
 22
40.829006
 32
0.0
 70
     1
 13
20.434837
 23
51.66064
 33
0.0
 14
21.84567
 24
55.536873
 34
0.0
  3
23NSTD
  0
DIMENSION
  8
DIM
 62
     7
  2
*D24
 10
6.859052
 20
51.548873
 30
0.0
 11
5.637354
 21
58.606251
 31
0.0
 70
     2
 13
5.388988
 23
55.716625
 33
0.0
 14
6.859052
 24
51.677656
 34
0.0
 15
6.859052
 25
51.677656
 35
0.0
 16
6.245809
 26
58.686358
 36
0.0
  3
23NSTD
  0
POLYLINE
  8
BEND
 62
     7
 66
     1
 10
0.0
 20
0.0
 30
0.0
 41
0.3135
  0
VERTEX
  8
BEND
 62
     7
 10
9.149602
 20
15.043094
 30
0.0
  0
VERTEX
  8
BEND
 62
     7
 10
9.776602
 20
15.043094
 30
0.0
 41
0.0
  0
VERTEX
  8
BEND
 62
     7
 10
10.653417
 20
15.043094
 30
0.0
 41
0.0
  0
VERTEX
  8
BEND
 62
     7
 10
10.653417
 20
19.783352
 30
0.0
 41
0.0
  0
VERTEX
  8
BEND
 62
     7
 10
9.776602
 20
19.783352
 30
0.0
 40
0.3135
 41
0.0
  0
VERTEX
  8
BEND
 62
     7
 10
9.149602
 20
19.783352
 30
0.0
 41
0.0
  0
SEQEND
  8
BEND
 62
     7
  0
INSERT
  8
BEND
 62
     7
 66
     1
  2
SECTION
 10
11.099084
 20
15.043094
 30
0.0
 41
1.672
 42
1.672
 50
90.0
 43
1.672
  0
ATTRIB
  8
0
 10
10.884608
 20
14.761594
 30
0.0
 40
0.563
  1
A
  2
SECTION
 70
     0
 41
0.8
  7
SECTION
 72
     4
 11
11.099084
 21
15.043094
 31
0.0
  0
SEQEND
  8
BEND
 62
     7
  0
INSERT
  8
BEND
 62
     7
 66
     1
  2
SECTION
 10
11.099084
 20
19.783352
 30
0.0
 41
1.672
 42
1.672
 50
90.0
 43
1.672
  0
ATTRIB
  8
0
 10
10.884608
 20
19.501852
 30
0.0
 40
0.563
  1
A
  2
SECTION
 70
     0
 41
0.8
  7
SECTION
 72
     4
 11
11.099084
 21
19.783352
 31
0.0
  0
SEQEND
  8
BEND
 62
     7
  0
POLYLINE
  8
DIM
 62
     7
 66
     1
 10
0.0
 20
0.0
 30
0.0
 41
0.30375
  0
VERTEX
  8
DIM
 62
     7
 10
33.78321
 20
16.987223
 30
0.0
  0
VERTEX
  8
DIM
 62
     7
 10
34.21418
 20
17.673055
 30
0.0
 41
0.0
  0
VERTEX
  8
DIM
 62
     7
 10
36.803147
 20
21.793055
 30
0.0
 41
0.0
  0
VERTEX
  8
DIM
 62
     7
 10
37.613147
 20
21.793055
 30
0.0
 41
0.0
  0
SEQEND
  8
DIM
 62
     7
  0
TEXT
  8
DIM
 62
     7
 10
38.018147
 20
21.511805
 30
0.0
 40
0.5625
  1
0.875 DIA.
 41
0.75
  7
TXT
 11
38.018147
 21
21.793055
 31
0.0
 73
     2
  0
TEXT
  8
DIM
 62
     7
 10
38.018147
 20
20.574305
 30
0.0
 40
0.5625
  1
KNOCKOUT
 41
0.75
  7
TXT
 11
38.018147
 21
20.855555
 31
0.0
 73
     2
  0
TEXT
  8
DIM
 62
     7
 10
38.018147
 20
19.636805
 30
0.0
 40
0.5625
  1
(2) PLACES
 41
0.75
  7
TXT
 11
38.018147
 21
19.918055
 31
0.0
 73
     2
  0
LINE
  8
OBJECT
 62
     7
 10
1.024306
 20
24.408995
 30
0.0
 11
12.954306
 21
24.408995
 31
0.0
  0
LINE
  8
OBJECT
 62
     7
 10
12.954306
 20
34.408995
 30
0.0
 11
1.024306
 21
34.408995
 31
0.0
  0
POLYLINE
  8
OBJECT
 62
     7
 66
     1
 10
0.0
 20
0.0
 30
0.0
 70
     1
  0
VERTEX
  8
OBJECT
 62
     7
 10
31.514562
 20
15.946259
 30
0.0
  0
VERTEX
  8
OBJECT
 62
     7
 10
31.514562
 20
19.059259
 30
0.0
  0
VERTEX
  8
OBJECT
 62
     7
 10
31.604562
 20
19.059259
 30
0.0
  0
VERTEX
  8
OBJECT
 62
     7
 10
31.604562
 20
15.946259
 30
0.0
 42
0.414214
  0
VERTEX
  8
OBJECT
 62
     7
 10
31.651562
 20
15.899259
 30
0.0
  0
VERTEX
  8
OBJECT
 62
     7
 10
43.307562
 20
15.899259
 30
0.0
 42
0.414214
  0
VERTEX
  8
OBJECT
 62
     7
 10
43.354562
 20
15.946259
 30
0.0
  0
VERTEX
  8
OBJECT
 62
     7
 10
43.354562
 20
19.059259
 30
0.0
  0
VERTEX
  8
OBJECT
 62
     7
 10
43.444562
 20
19.059259
 30
0.0
  0
VERTEX
  8
OBJECT
 62
     7
 10
43.444562
 20
15.946259
 30
0.0
 42
-0.414214
  0
VERTEX
  8
OBJECT
 62
     7
 10
43.307562
 20
15.809259
 30
0.0
  0
VERTEX
  8
OBJECT
 62
     7
 10
31.651562
 20
15.809259
 30
0.0
 42
-0.414214
  0
SEQEND
  8
OBJECT
 62
     7
  0
LINE
  8
OBJECT
 62
     7
 10
1.024306
 20
24.408995
 30
0.0
 11
1.024306
 21
34.408995
 31
0.0
  0
LINE
  8
OBJECT
 62
     7
 10
12.954306
 20
24.408995
 30
0.0
 11
12.954306
 21
34.408995
 31
0.0
  0
LINE
  8
OBJECT
 62
     7
 10
1.114306
 20
24.408995
 30
0.0
 11
1.114306
 21
34.408995
 31
0.0
  0
LINE
  8
OBJECT
 62
     7
 10
12.864306
 20
24.408995
 30
0.0
 11
12.864306
 21
34.408995
 31
0.0
  0
LINE
  8
OBJECT
 62
     7
 10
27.621489
 20
15.809259
 30
0.0
 11
27.621489
 21
18.934259
 31
0.0
  0
LINE
  8
OBJECT
 62
     7
 10
27.496489
 20
19.059259
 30
0.0
 11
18.849028
 21
19.059259
 31
0.0
  0
ARC
  8
OBJECT
 62
     7
 10
27.496489
 20
18.934259
 30
0.0
 40
0.125
 50
0.0
 51
90.0
  0
LINE
  8
OBJECT
 62
     7
 10
27.621489
 20
15.809259
 30
0.0
 11
17.621489
 21
15.809259
 31
0.0
  0
LINE
  8
OBJECT
 62
     7
 10
27.621489
 20
15.899259
 30
0.0
 11
17.621489
 21
15.899259
 31
0.0
  0
INSERT
  8
TEXT
 62
     7
 66
     1
  2
SECTION
 10
22.551116
 20
13.115065
 30
0.0
 41
1.672
 42
1.672
 50
90.0
 43
1.672
  0
ATTRIB
  8
0
 10
19.87338
 20
12.836246
 30
0.0
 40
0.563
  1
%%uSECTION "A-A"
  2
SECTION
 70
     0
 41
0.8
  7
SECTION
 72
     4
 11
22.551116
 21
13.115065
 31
0.0
  0
SEQEND
  8
TEXT
 62
     7
  0
LINE
  8
OBJECT
 62
     7
 10
12.954306
 20
2.552348
 30
0.0
 11
1.024306
 21
2.552348
 31
0.0
  0
LINE
  8
OBJECT
 62
     7
 10
1.024306
 20
12.552348
 30
0.0
 11
12.954306
 21
12.552348
 31
0.0
  0
LINE
  8
HIDDEN
 62
     7
 10
12.864306
 20
12.552348
 30
0.0
 11
12.864306
 21
2.552348
 31
0.0
  0
LINE
  8
OBJECT
 62
     7
 10
12.954306
 20
12.552348
 30
0.0
 11
12.954306
 21
2.552348
 31
0.0
  0
CIRCLE
  8
OBJECT
 62
     7
 10
11.864306
 20
12.052348
 30
0.0
 40
0.1395
  0
CIRCLE
  8
OBJECT
 62
     7
 10
11.864306
 20
12.052348
 30
0.0
 40
0.094
  0
CIRCLE
  8
OBJECT
 62
     7
 10
11.864306
 20
3.052348
 30
0.0
 40
0.1395
  0
CIRCLE
  8
OBJECT
 62
     7
 10
11.864306
 20
3.052348
 30
0.0
 40
0.094
  0
LINE
  8
HIDDEN
 62
     7
 10
1.114306
 20
12.552348
 30
0.0
 11
1.114306
 21
2.552348
 31
0.0
  0
LINE
  8
OBJECT
 62
     7
 10
1.024306
 20
12.552348
 30
0.0
 11
1.024306
 21
2.552348
 31
0.0
  0
CIRCLE
  8
OBJECT
 62
     7
 10
2.114306
 20
12.052348
 30
0.0
 40
0.1395
  0
CIRCLE
  8
OBJECT
 62
     7
 10
2.114306
 20
12.052348
 30
0.0
 40
0.094
  0
CIRCLE
  8
OBJECT
 62
     7
 10
2.114306
 20
3.052348
 30
0.0
 40
0.1395
  0
CIRCLE
  8
OBJECT
 62
     7
 10
2.114306
 20
3.052348
 30
0.0
 40
0.094
  0
POLYLINE
  8
OBJECT
  6
HIDDEN
 62
     7
 66
     1
 10
0.0
 20
0.0
 30
0.0
 70
     1
  0
VERTEX
  8
OBJECT
  6
HIDDEN
 62
     7
 10
1.129806
 20
2.802348
 30
0.0
  0
VERTEX
  8
OBJECT
  6
HIDDEN
 62
     7
 10
1.129806
 20
12.302348
 30
0.0
  0
VERTEX
  8
OBJECT
  6
HIDDEN
 62
     7
 10
12.848806
 20
12.302348
 30
0.0
  0
VERTEX
  8
OBJECT
  6
HIDDEN
 62
     7
 10
12.848806
 20
2.802348
 30
0.0
  0
SEQEND
  8
OBJECT
  6
HIDDEN
 62
     7
  0
LINE
  8
HIDDEN
 62
     7
 10
1.129806
 20
12.252348
 30
0.0
 11
12.848806
 21
12.252348
 31
0.0
  0
LINE
  8
OBJECT
  6
HIDDEN
 62
     7
 10
1.129806
 20
11.865348
 30
0.0
 11
12.848806
 21
11.865348
 31
0.0
  0
LINE
  8
OBJECT
  6
HIDDEN
 62
     7
 10
1.129806
 20
3.239348
 30
0.0
 11
12.848806
 21
3.239348
 31
0.0
  0
CIRCLE
  8
OBJECT
 62
     7
 10
2.113806
 20
12.055348
 30
0.0
 40
0.06
  0
CIRCLE
  8
OBJECT
 62
     7
 10
2.113806
 20
3.049348
 30
0.0
 40
0.06
  0
CIRCLE
  8
OBJECT
 62
     7
 10
11.864806
 20
12.055348
 30
0.0
 40
0.06
  0
CIRCLE
  8
OBJECT
 62
     7
 10
11.864806
 20
3.049348
 30
0.0
 40
0.06
  0
LINE
  8
HIDDEN
 62
     7
 10
12.848806
 20
24.765666
 30
0.0
 11
1.129806
 21
24.765666
 31
0.0
  0
POLYLINE
  8
OBJECT
 62
     7
 66
     1
 10
0.0
 20
0.0
 30
0.0
 70
     1
  0
VERTEX
  8
OBJECT
 62
     7
 10
12.848806
 20
24.715666
 30
0.0
  0
VERTEX
  8
OBJECT
 62
     7
 10
12.848806
 20
34.158995
 30
0.0
  0
VERTEX
  8
OBJECT
 62
     7
 10
1.129806
 20
34.158995
 30
0.0
  0
VERTEX
  8
OBJECT
 62
     7
 10
1.129806
 20
24.715666
 30
0.0
  0
SEQEND
  8
OBJECT
 62
     7
  0
ARC
  8
OBJECT
 62
     7
 10
33.479562
 20
16.672259
 30
0.0
 40
0.437498
 50
97.180756
 51
262.819244
  0
ARC
  8
OBJECT
 62
     7
 10
33.479562
 20
16.672259
 30
0.0
 40
0.437498
 50
277.180756
 51
82.819244
  0
POLYLINE
  8
OBJECT
 62
     7
 66
     1
 10
0.0
 20
0.0
 30
0.0
 70
     1
  0
VERTEX
  8
OBJECT
 62
     7
 10
31.620062
 20
15.922259
 30
0.0
  0
VERTEX
  8
OBJECT
 62
     7
 10
31.620062
 20
18.797259
 30
0.0
  0
VERTEX
  8
OBJECT
 62
     7
 10
43.339062
 20
18.797259
 30
0.0
  0
VERTEX
  8
OBJECT
 62
     7
 10
43.339062
 20
15.922259
 30
0.0
  0
SEQEND
  8
OBJECT
 62
     7
  0
LINE
  8
HIDDEN
 62
     7
 10
43.339062
 20
15.972259
 30
0.0
 11
31.620062
 21
15.972259
 31
0.0
  0
LINE
  8
OBJECT
 62
     7
 10
33.424875
 20
16.289449
 30
0.0
 11
33.424875
 21
16.125387
 31
0.0
  0
LINE
  8
OBJECT
 62
     7
 10
33.53425
 20
16.289449
 30
0.0
 11
33.53425
 21
16.125387
 31
0.0
  0
LINE
  8
HIDDEN
 62
     7
 10
31.620062
 20
18.747259
 30
0.0
 11
43.339062
 21
18.747259
 31
0.0
  0
LINE
  8
OBJECT
 62
     7
 10
33.424875
 20
17.05507
 30
0.0
 11
33.424875
 21
17.219131
 31
0.0
  0
LINE
  8
OBJECT
 62
     7
 10
33.53425
 20
17.05507
 30
0.0
 11
33.53425
 21
17.219131
 31
0.0
  0
LINE
  8
HIDDEN
 62
     7
 10
12.848806
 20
18.747259
 30
0.0
 11
1.129806
 21
18.747259
 31
0.0
  0
LINE
  8
HIDDEN
 62
     7
 10
1.129806
 20
15.972259
 30
0.0
 11
12.848806
 21
15.972259
 31
0.0
  0
POLYLINE
  8
OBJECT
 62
     7
 66
     1
 10
0.0
 20
0.0
 30
0.0
 70
     1
  0
VERTEX
  8
OBJECT
 62
     7
 10
12.848806
 20
15.922259
 30
0.0
  0
VERTEX
  8
OBJECT
 62
     7
 10
12.848806
 20
18.797259
 30
0.0
  0
VERTEX
  8
OBJECT
 62
     7
 10
1.129806
 20
18.797259
 30
0.0
  0
VERTEX
  8
OBJECT
 62
     7
 10
1.129806
 20
15.922259
 30
0.0
  0
SEQEND
  8
OBJECT
 62
     7
  0
POLYLINE
  8
OBJECT
 62
     7
 66
     1
 10
0.0
 20
0.0
 30
0.0
 70
     1
  0
VERTEX
  8
OBJECT
 62
     7
 10
12.954306
 20
15.946259
 30
0.0
  0
VERTEX
  8
OBJECT
 62
     7
 10
12.954306
 20
19.059259
 30
0.0
  0
VERTEX
  8
OBJECT
 62
     7
 10
12.864306
 20
19.059259
 30
0.0
  0
VERTEX
  8
OBJECT
 62
     7
 10
12.864306
 20
15.946259
 30
0.0
 42
-0.414214
  0
VERTEX
  8
OBJECT
 62
     7
 10
12.817306
 20
15.899259
 30
0.0
  0
VERTEX
  8
OBJECT
 62
     7
 10
1.161306
 20
15.899259
 30
0.0
 42
-0.414214
  0
VERTEX
  8
OBJECT
 62
     7
 10
1.114306
 20
15.946259
 30
0.0
  0
VERTEX
  8
OBJECT
 62
     7
 10
1.114306
 20
19.059259
 30
0.0
  0
VERTEX
  8
OBJECT
 62
     7
 10
1.024306
 20
19.059259
 30
0.0
  0
VERTEX
  8
OBJECT
 62
     7
 10
1.024306
 20
15.946259
 30
0.0
 42
0.414214
  0
VERTEX
  8
OBJECT
 62
     7
 10
1.161306
 20
15.809259
 30
0.0
  0
VERTEX
  8
OBJECT
 62
     7
 10
12.817306
 20
15.809259
 30
0.0
 42
0.414214
  0
SEQEND
  8
OBJECT
 62
     7
  0
POLYLINE
  8
OBJECT
 62
     7
 66
     1
 10
0.0
 20
0.0
 30
0.0
 70
     1
  0
VERTEX
  8
OBJECT
 62
     7
 10
18.170239
 20
16.184259
 30
0.0
  0
VERTEX
  8
OBJECT
 62
     7
 10
18.187489
 20
16.167009
 30
0.0
  0
VERTEX
  8
OBJECT
 62
     7
 10
18.187489
 20
15.878259
 30
0.0
  0
VERTEX
  8
OBJECT
 62
     7
 10
18.245387
 20
15.809259
 30
0.0
  0
VERTEX
  8
OBJECT
 62
     7
 10
17.991591
 20
15.809259
 30
0.0
  0
VERTEX
  8
OBJECT
 62
     7
 10
18.049489
 20
15.878259
 30
0.0
  0
VERTEX
  8
OBJECT
 62
     7
 10
18.049489
 20
16.167009
 30
0.0
  0
VERTEX
  8
OBJECT
 62
     7
 10
18.066739
 20
16.184259
 30
0.0
  0
SEQEND
  8
OBJECT
 62
     7
  0
POLYLINE
  8
OBJECT
 62
     7
 66
     1
 10
0.0
 20
0.0
 30
0.0
 70
     1
  0
VERTEX
  8
OBJECT
 62
     7
 10
27.072739
 20
16.184259
 30
0.0
  0
VERTEX
  8
OBJECT
 62
     7
 10
27.055489
 20
16.167009
 30
0.0
  0
VERTEX
  8
OBJECT
 62
     7
 10
27.055489
 20
15.878259
 30
0.0
  0
VERTEX
  8
OBJECT
 62
     7
 10
26.997591
 20
15.809259
 30
0.0
  0
VERTEX
  8
OBJECT
 62
     7
 10
27.251387
 20
15.809259
 30
0.0
  0
VERTEX
  8
OBJECT
 62
     7
 10
27.193489
 20
15.878259
 30
0.0
  0
VERTEX
  8
OBJECT
 62
     7
 10
27.193489
 20
16.167009
 30
0.0
  0
VERTEX
  8
OBJECT
 62
     7
 10
27.176239
 20
16.184259
 30
0.0
  0
SEQEND
  8
OBJECT
 62
     7
  0
POLYLINE
  8
HIDDEN
  6
HIDDEN2
 62
     7
 66
     1
 10
0.0
 20
0.0
 30
0.0
 70
     1
  0
VERTEX
  8
HIDDEN
  6
HIDDEN2
 62
     7
 10
11.916556
 20
16.184259
 30
0.0
  0
VERTEX
  8
HIDDEN
  6
HIDDEN2
 62
     7
 10
11.933806
 20
16.167009
 30
0.0
  0
VERTEX
  8
HIDDEN
  6
HIDDEN2
 62
     7
 10
11.933806
 20
15.878259
 30
0.0
  0
VERTEX
  8
HIDDEN
  6
HIDDEN2
 62
     7
 10
11.991704
 20
15.809259
 30
0.0
  0
VERTEX
  8
HIDDEN
  6
HIDDEN2
 62
     7
 10
11.737909
 20
15.809259
 30
0.0
  0
VERTEX
  8
HIDDEN
  6
HIDDEN2
 62
     7
 10
11.795806
 20
15.878259
 30
0.0
  0
VERTEX
  8
HIDDEN
  6
HIDDEN2
 62
     7
 10
11.795806
 20
16.167009
 30
0.0
  0
VERTEX
  8
HIDDEN
  6
HIDDEN2
 62
     7
 10
11.813056
 20
16.184259
 30
0.0
  0
SEQEND
  8
HIDDEN
  6
HIDDEN2
 62
     7
  0
POLYLINE
  8
HIDDEN
  6
HIDDEN2
 62
     7
 66
     1
 10
0.0
 20
0.0
 30
0.0
 70
     1
  0
VERTEX
  8
HIDDEN
  6
HIDDEN2
 62
     7
 10
2.062056
 20
16.184259
 30
0.0
  0
VERTEX
  8
HIDDEN
  6
HIDDEN2
 62
     7
 10
2.044806
 20
16.167009
 30
0.0
  0
VERTEX
  8
HIDDEN
  6
HIDDEN2
 62
     7
 10
2.044806
 20
15.878259
 30
0.0
  0
VERTEX
  8
HIDDEN
  6
HIDDEN2
 62
     7
 10
1.986909
 20
15.809259
 30
0.0
  0
VERTEX
  8
HIDDEN
  6
HIDDEN2
 62
     7
 10
2.240704
 20
15.809259
 30
0.0
  0
VERTEX
  8
HIDDEN
  6
HIDDEN2
 62
     7
 10
2.182806
 20
15.878259
 30
0.0
  0
VERTEX
  8
HIDDEN
  6
HIDDEN2
 62
     7
 10
2.182806
 20
16.167009
 30
0.0
  0
VERTEX
  8
HIDDEN
  6
HIDDEN2
 62
     7
 10
2.165556
 20
16.184259
 30
0.0
  0
SEQEND
  8
HIDDEN
  6
HIDDEN2
 62
     7
  0
POLYLINE
  8
HIDDEN
  6
HIDDEN2
 62
     7
 66
     1
 10
0.0
 20
0.0
 30
0.0
 70
     1
  0
VERTEX
  8
HIDDEN
  6
HIDDEN2
 62
     7
 10
42.406812
 20
16.184259
 30
0.0
  0
VERTEX
  8
HIDDEN
  6
HIDDEN2
 62
     7
 10
42.424062
 20
16.167009
 30
0.0
  0
VERTEX
  8
HIDDEN
  6
HIDDEN2
 62
     7
 10
42.424062
 20
15.878259
 30
0.0
  0
VERTEX
  8
HIDDEN
  6
HIDDEN2
 62
     7
 10
42.48196
 20
15.809259
 30
0.0
  0
VERTEX
  8
HIDDEN
  6
HIDDEN2
 62
     7
 10
42.228165
 20
15.809259
 30
0.0
  0
VERTEX
  8
HIDDEN
  6
HIDDEN2
 62
     7
 10
42.286062
 20
15.878259
 30
0.0
  0
VERTEX
  8
HIDDEN
  6
HIDDEN2
 62
     7
 10
42.286062
 20
16.167009
 30
0.0
  0
VERTEX
  8
HIDDEN
  6
HIDDEN2
 62
     7
 10
42.303312
 20
16.184259
 30
0.0
  0
SEQEND
  8
HIDDEN
  6
HIDDEN2
 62
     7
  0
POLYLINE
  8
HIDDEN
  6
HIDDEN2
 62
     7
 66
     1
 10
0.0
 20
0.0
 30
0.0
 70
     1
  0
VERTEX
  8
HIDDEN
  6
HIDDEN2
 62
     7
 10
32.552312
 20
16.184259
 30
0.0
  0
VERTEX
  8
HIDDEN
  6
HIDDEN2
 62
     7
 10
32.535062
 20
16.167009
 30
0.0
  0
VERTEX
  8
HIDDEN
  6
HIDDEN2
 62
     7
 10
32.535062
 20
15.878259
 30
0.0
  0
VERTEX
  8
HIDDEN
  6
HIDDEN2
 62
     7
 10
32.477165
 20
15.809259
 30
0.0
  0
VERTEX
  8
HIDDEN
  6
HIDDEN2
 62
     7
 10
32.73096
 20
15.809259
 30
0.0
  0
VERTEX
  8
HIDDEN
  6
HIDDEN2
 62
     7
 10
32.673062
 20
15.878259
 30
0.0
  0
VERTEX
  8
HIDDEN
  6
HIDDEN2
 62
     7
 10
32.673062
 20
16.167009
 30
0.0
  0
VERTEX
  8
HIDDEN
  6
HIDDEN2
 62
     7
 10
32.655812
 20
16.184259
 30
0.0
  0
SEQEND
  8
HIDDEN
  6
HIDDEN2
 62
     7
  0
TEXT
  8
TEXT
 62
     7
 10
4.8729
 20
13.925702
 30
0.0
 40
0.5625
  1
%%uFRONT VIEW
 41
0.75
  7
TXT
 72
     1
 11
6.989306
 21
13.925702
 31
0.0
  0
TEXT
  8
TEXT
 62
     7
 10
5.294775
 20
23.158352
 30
0.0
 40
0.5625
  1
%%uTOP VIEW
 41
0.75
  7
TXT
 72
     1
 11
6.989306
 21
23.158352
 31
0.0
  0
TEXT
  8
TEXT
 10
4.661963
 20
1.197243
 30
0.0
 40
0.5625
  1
%%uBOTTOM VIEW
 41
0.75
  7
TXT
 72
     1
 11
6.989306
 21
1.197243
 31
0.0
  0
TEXT
  8
TEXT
 62
     7
 10
35.574094
 20
12.834065
 30
0.0
 40
0.5625
  1
%%uREAR VIEW
 41
0.75
  7
TXT
 72
     1
 11
37.479562
 21
12.834065
 31
0.0
  0
DIMENSION
  8
DIM
 62
     7
  2
*D14
 10
39.011703
 20
15.922259
 30
0.0
 11
37.023266
 21
14.302259
 31
0.0
 12
-0.223743
 22
-28.429595
 32
0.0
 13
41.479562
 23
16.672259
 33
0.0
 14
40.270469
 24
15.922259
 34
0.0
 50
90.0
  3
23NSTD
  0
DIMENSION
  8
DIM
 62
     7
  2
*D9
 10
27.621489
 20
21.887362
 30
0.0
 11
30.419927
 21
21.887362
 31
0.0
 12
0.3528
 22
-28.429595
 32
0.0
 13
27.371489
 23
18.700259
 33
0.0
 14
27.621489
 24
18.934259
 34
0.0
  3
23NSTD
  0
DIMENSION
  8
DIM
 62
     7
  2
*D3
 10
28.881759
 20
18.797259
 30
0.0
 11
28.881759
 21
17.359759
 31
0.0
 12
0.3528
 22
-28.429595
 32
0.0
 13
27.274489
 23
15.922259
 33
0.0
 14
27.274489
 24
18.797259
 34
0.0
 50
90.0
  3
23NSTDI
  0
DIMENSION
  8
DIM
 62
     7
  2
*D13
 10
30.146259
 20
19.059259
 30
0.0
 11
32.169853
 21
20.679259
 31
0.0
 12
0.3528
 22
-28.429595
 32
0.0
 13
27.274489
 23
18.797259
 33
0.0
 14
27.496489
 24
19.059259
 34
0.0
 50
90.0
  3
23NSTD
  0
LINE
  8
OBJECT
 62
     7
 10
12.848806
 20
25.720995
 30
0.0
 11
1.129806
 21
25.720995
 31
0.0
  0
ARC
  8
OBJECT
 62
     7
 10
41.479562
 20
16.672259
 30
0.0
 40
0.437498
 50
277.180756
 51
82.819244
  0
LINE
  8
OBJECT
 62
     7
 10
41.424875
 20
17.05507
 30
0.0
 11
41.424875
 21
17.219131
 31
0.0
  0
LINE
  8
OBJECT
 62
     7
 10
41.53425
 20
17.05507
 30
0.0
 11
41.53425
 21
17.219131
 31
0.0
  0
LINE
  8
OBJECT
 62
     7
 10
41.424875
 20
16.289449
 30
0.0
 11
41.424875
 21
16.125387
 31
0.0
  0
ARC
  8
OBJECT
 62
     7
 10
41.479562
 20
16.672259
 30
0.0
 40
0.437498
 50
97.180756
 51
262.819244
  0
LINE
  8
OBJECT
 62
     7
 10
41.53425
 20
16.289449
 30
0.0
 11
41.53425
 21
16.125387
 31
0.0
  0
DIMENSION
  8
DIM
 62
     7
  2
*D15
 10
31.514562
 20
14.778052
 30
0.0
 11
32.497062
 21
14.778052
 31
0.0
 12
-0.223743
 22
-28.429595
 32
0.0
 13
33.479562
 23
16.672259
 33
0.0
 14
31.514562
 24
15.946259
 34
0.0
  3
23NSTDI
  0
DIMENSION
  8
DIM
  2
*D16
 10
43.444562
 20
14.778052
 30
0.0
 11
42.462062
 21
14.778052
 31
0.0
 12
-0.223743
 22
-28.429595
 32
0.0
 13
41.479562
 23
16.672259
 33
0.0
 14
43.444562
 24
15.946259
 34
0.0
  3
23NSTDI
  0
POLYLINE
  8
HIDDEN
 62
     7
 66
     1
 10
0.0
 20
0.0
 30
0.0
  0
VERTEX
  8
HIDDEN
 62
     7
 10
12.848806
 20
34.108995
 30
0.0
  0
VERTEX
  8
HIDDEN
 62
     7
 10
11.426804
 20
34.108995
 30
0.0
  0
VERTEX
  8
HIDDEN
 62
     7
 10
11.426804
 20
34.058995
 30
0.0
  0
VERTEX
  8
HIDDEN
 62
     7
 10
10.551809
 20
34.058995
 30
0.0
  0
VERTEX
  8
HIDDEN
 62
     7
 10
10.551809
 20
34.108995
 30
0.0
  0
VERTEX
  8
HIDDEN
 62
     7
 10
3.426804
 20
34.108995
 30
0.0
  0
VERTEX
  8
HIDDEN
 62
     7
 10
3.426804
 20
34.058995
 30
0.0
  0
VERTEX
  8
HIDDEN
 62
     7
 10
2.551809
 20
34.058995
 30
0.0
  0
VERTEX
  8
HIDDEN
 62
     7
 10
2.551809
 20
34.108995
 30
0.0
  0
VERTEX
  8
HIDDEN
 62
     7
 10
1.129806
 20
34.108995
 30
0.0
  0
SEQEND
  8
HIDDEN
 62
     7
  0
POLYLINE
  8
HIDDEN
 62
     7
 66
     1
 10
0.0
 20
0.0
 30
0.0
  0
VERTEX
  8
HIDDEN
 62
     7
 10
12.848806
 20
2.852348
 30
0.0
  0
VERTEX
  8
HIDDEN
 62
     7
 10
11.426804
 20
2.852348
 30
0.0
  0
VERTEX
  8
HIDDEN
 62
     7
 10
11.426804
 20
2.902348
 30
0.0
  0
VERTEX
  8
HIDDEN
 62
     7
 10
10.551809
 20
2.902348
 30
0.0
  0
VERTEX
  8
HIDDEN
 62
     7
 10
10.551809
 20
2.852348
 30
0.0
  0
VERTEX
  8
HIDDEN
 62
     7
 10
3.426804
 20
2.852348
 30
0.0
  0
VERTEX
  8
HIDDEN
 62
     7
 10
3.426804
 20
2.902348
 30
0.0
  0
VERTEX
  8
HIDDEN
 62
     7
 10
2.551809
 20
2.902348
 30
0.0
  0
VERTEX
  8
HIDDEN
 62
     7
 10
2.551809
 20
2.852348
 30
0.0
  0
VERTEX
  8
HIDDEN
 62
     7
 10
1.129806
 20
2.852348
 30
0.0
  0
SEQEND
  8
HIDDEN
 62
     7
  0
LINE
  8
OBJECT
 62
     7
 10
18.731567
 20
18.977014
 30
0.0
 11
17.621489
 21
15.927259
 31
0.0
  0
LINE
  8
OBJECT
 62
     7
 10
17.621489
 20
15.809259
 30
0.0
 11
17.621489
 21
15.927259
 31
0.0
  0
ARC
  8
OBJECT
 62
     7
 10
18.849028
 20
18.934259
 30
0.0
 40
0.125
 50
90.0
 51
159.999034
  0
POLYLINE
  8
OBJECT
 62
     7
 66
     1
 10
0.0
 20
0.0
 30
0.0
 70
     1
  0
VERTEX
  8
OBJECT
 62
     7
 10
27.321489
 20
17.109259
 30
0.0
  0
VERTEX
  8
OBJECT
 62
     7
 10
27.271489
 20
17.109259
 30
0.0
  0
VERTEX
  8
OBJECT
 62
     7
 10
27.271489
 20
16.234259
 30
0.0
  0
VERTEX
  8
OBJECT
 62
     7
 10
27.321489
 20
16.234259
 30
0.0
  0
VERTEX
  8
OBJECT
 62
     7
 10
27.321489
 20
16.019259
 30
0.0
 42
-0.414214
  0
VERTEX
  8
OBJECT
 62
     7
 10
27.274489
 20
15.972259
 30
0.0
  0
VERTEX
  8
OBJECT
 62
     7
 10
26.934489
 20
15.972259
 30
0.0
  0
VERTEX
  8
OBJECT
 62
     7
 10
26.934489
 20
15.922259
 30
0.0
  0
VERTEX
  8
OBJECT
 62
     7
 10
27.274489
 20
15.922259
 30
0.0
 42
0.414214
  0
VERTEX
  8
OBJECT
 62
     7
 10
27.371489
 20
16.019259
 30
0.0
  0
VERTEX
  8
OBJECT
 62
     7
 10
27.371489
 20
18.700259
 30
0.0
 42
0.414214
  0
VERTEX
  8
OBJECT
 62
     7
 10
27.274489
 20
18.797259
 30
0.0
  0
VERTEX
  8
OBJECT
 62
     7
 10
19.001409
 20
18.797259
 30
0.0
 42
0.315299
  0
VERTEX
  8
OBJECT
 62
     7
 10
18.910259
 20
18.733435
 30
0.0
  0
VERTEX
  8
OBJECT
 62
     7
 10
17.934288
 20
16.051976
 30
0.0
 42
0.520567
  0
VERTEX
  8
OBJECT
 62
     7
 10
18.025438
 20
15.9218
 30
0.0
  0
VERTEX
  8
OBJECT
 62
     7
 10
18.323907
 20
15.9218
 30
0.0
  0
VERTEX
  8
OBJECT
 62
     7
 10
18.323907
 20
15.9718
 30
0.0
  0
VERTEX
  8
OBJECT
 62
     7
 10
18.025438
 20
15.9718
 30
0.0
 42
-0.520567
  0
VERTEX
  8
OBJECT
 62
     7
 10
17.981272
 20
16.034875
 30
0.0
  0
VERTEX
  8
OBJECT
 62
     7
 10
18.957244
 20
18.716334
 30
0.0
 42
-0.315299
  0
VERTEX
  8
OBJECT
 62
     7
 10
19.001409
 20
18.747259
 30
0.0
  0
VERTEX
  8
OBJECT
 62
     7
 10
27.274489
 20
18.747259
 30
0.0
 42
-0.414214
  0
VERTEX
  8
OBJECT
 62
     7
 10
27.321489
 20
18.700259
 30
0.0
  0
SEQEND
  8
OBJECT
 62
     7
  0
POLYLINE
  8
OBJECT
 62
     7
 66
     1
 10
0.0
 20
0.0
 30
0.0
  0
VERTEX
  8
OBJECT
 62
     7
 10
17.911912
 20
15.9905
 30
0.0
  0
VERTEX
  8
OBJECT
 62
     7
 10
17.886907
 20
15.9218
 30
0.0
  0
VERTEX
  8
OBJECT
 62
     7
 10
17.960016
 20
15.9218
 30
0.0
  0
SEQEND
  8
OBJECT
 62
     7
  0
POLYLINE
  8
OBJECT
 62
     7
 66
     1
 10
0.0
 20
0.0
 30
0.0
  0
VERTEX
  8
OBJECT
 62
     7
 10
18.956243
 20
18.797259
 30
0.0
  0
VERTEX
  8
OBJECT
 62
     7
 10
18.933489
 20
18.797259
 30
0.0
  0
VERTEX
  8
OBJECT
 62
     7
 10
18.925707
 20
18.775878
 30
0.0
  0
SEQEND
  8
OBJECT
 62
     7
  0
DIMENSION
  8
DIM
 62
     7
  2
*D11
 10
19.659118
 20
20.794388
 30
0.0
 11
23.169848
 21
20.24029
 31
0.0
 12
0.3528
 22
-28.429595
 32
0.0
 70
     1
 13
18.731567
 23
18.977014
 33
0.0
 14
18.966489
 24
18.891505
 34
0.0
  3
23NSTD
  0
DIMENSION
  8
DIM
 62
     7
  2
*D2
 10
16.067205
 20
16.584118
 30
0.0
 11
16.590496
 21
18.021847
 31
0.0
 12
0.3528
 22
-28.429595
 32
0.0
 70
     1
 13
18.933489
 23
18.797259
 33
0.0
 14
17.886907
 24
15.9218
 34
0.0
  3
23NSTDI
  0
DIMENSION
  8
DIM
 62
     7
  2
*D10
 10
27.371489
 20
21.887362
 30
0.0
 11
23.152489
 21
21.887362
 31
0.0
 12
0.3528
 22
-28.429595
 32
0.0
 13
18.933489
 23
18.797259
 33
0.0
 14
27.371489
 24
18.700259
 34
0.0
  3
23NSTD
  0
DIMENSION
  8
DIM
 62
     7
  2
*D8
 10
17.621489
 20
15.927259
 30
0.0
 11
18.991697
 21
23.69771
 31
0.0
 12
0.3528
 22
-28.429595
 32
0.0
 70
     2
 13
18.731567
 23
18.977014
 33
0.0
 14
17.621489
 24
15.927259
 34
0.0
 15
17.621489
 25
15.809259
 35
0.0
 16
18.331047
 26
23.785624
 36
0.0
  3
23NSTD
  0
DIMENSION
  8
DIM
 62
     7
  2
*D12
 10
27.621489
 20
14.778052
 30
0.0
 11
22.621489
 21
14.778052
 31
0.0
 12
0.3528
 22
-28.429595
 32
0.0
  1
<>
 13
17.621489
 23
15.809259
 33
0.0
 14
27.621489
 24
15.809259
 34
0.0
 50
180.0
  3
23NSTD
  0
DIMENSION
  8
DIM
 62
     7
  2
*D6
 10
12.864306
 20
20.622862
 30
0.0
 11
6.989306
 21
20.622862
 31
0.0
 12
0.0
 22
-28.429595
 32
0.0
 13
1.114306
 23
19.059259
 33
0.0
 14
12.864306
 24
19.059259
 34
0.0
  3
23NSTD
  0
DIMENSION
  8
DIM
 62
     7
  2
*D7
 10
12.954306
 20
21.887362
 30
0.0
 11
6.989306
 21
21.887362
 31
0.0
 12
0.0
 22
-28.429595
 32
0.0
 13
1.024306
 23
19.059259
 33
0.0
 14
12.954306
 24
19.059259
 34
0.0
  3
23NSTD
  0
DIMENSION
  8
DIM
 62
     7
  2
*D1
 10
14.203895
 20
19.059259
 30
0.0
 11
14.203895
 21
17.434259
 31
0.0
 12
0.0
 22
-28.429595
 32
0.0
  1
<>
 13
12.954306
 23
15.809259
 33
0.0
 14
12.954306
 24
19.059259
 34
0.0
 50
270.0
  3
23NSTDI
  0
POLYLINE
  8
BEND
 62
     7
 66
     1
 10
0.0
 20
0.0
 30
0.0
 41
0.3135
  0
VERTEX
  8
BEND
 62
     7
 10
11.080568
 20
50.979872
 30
0.0
  0
VERTEX
  8
BEND
 62
     7
 10
11.707568
 20
50.979872
 30
0.0
 41
0.0
  0
VERTEX
  8
BEND
 62
     7
 10
12.584383
 20
50.979872
 30
0.0
 41
0.0
  0
VERTEX
  8
BEND
 62
     7
 10
12.584383
 20
56.088283
 30
0.0
 41
0.0
  0
VERTEX
  8
BEND
 62
     7
 10
11.707568
 20
56.088283
 30
0.0
 40
0.3135
 41
0.0
  0
VERTEX
  8
BEND
 62
     7
 10
11.080568
 20
56.088283
 30
0.0
 41
0.0
  0
SEQEND
  8
BEND
 62
     7
  0
INSERT
  8
BEND
 62
     7
 66
     1
  2
SECTION
 10
13.03005
 20
50.979872
 30
0.0
 41
1.672
 42
1.672
 50
90.0
 43
1.672
  0
ATTRIB
  8
0
 10
12.815574
 20
50.698372
 30
0.0
 40
0.563
  1
A
  2
SECTION
 70
     0
 41
0.8
  7
SECTION
 72
     4
 11
13.03005
 21
50.979872
 31
0.0
  0
SEQEND
  8
BEND
 62
     7
  0
INSERT
  8
BEND
 62
     7
 66
     1
  2
SECTION
 10
13.03005
 20
56.088283
 30
0.0
 41
1.672
 42
1.672
 50
90.0
 43
1.672
  0
ATTRIB
  8
0
 10
12.815574
 20
55.806783
 30
0.0
 40
0.563
  1
A
  2
SECTION
 70
     0
 41
0.8
  7
SECTION
 72
     4
 11
13.03005
 21
56.088283
 31
0.0
  0
SEQEND
  8
BEND
 62
     7
  0
TEXT
  8
TEXT
 62
     7
 10
17.864656
 20
8.24356
 30
0.0
 40
0.5625
  1
%%uMATERIAL:
 41
0.75
  7
TXT
  0
TEXT
  8
TEXT
 62
     7
 10
18.620949
 20
7.30606
 30
0.0
 40
0.5625
  1
BASE
 41
0.75
  7
TXT
  0
TEXT
  8
TEXT
 62
     7
 10
18.620949
 20
6.36856
 30
0.0
 40
0.5625
  1
COVER
 41
0.75
  7
TXT
  0
TEXT
  8
TEXT
 62
     7
 10
22.45566
 20
7.304847
 30
0.0
 40
0.5625
  1
0.090 THK. ALUMINUM
 41
0.75
  7
TXT
  0
TEXT
  8
TEXT
 62
     7
 10
22.45566
 20
6.367347
 30
0.0
 40
0.5625
  1
0.050 THK. ALUMINUM
 41
0.75
  7
TXT
  0
LINE
  8
TEXT
 62
     7
 10
20.420059
 20
7.304847
 30
0.0
 11
22.085934
 21
7.304847
 31
0.0
  0
LINE
  8
TEXT
 62
     7
 10
20.956783
 20
6.3781
 30
0.0
 11
22.085934
 21
6.3781
 31
0.0
  0
TEXT
  8
TEXT
 10
9.344813
 20
68.178938
 30
0.0
 40
0.703125
  1
SLOPE ENCLOSURE
 41
0.75
  7
TXT
 72
     4
 11
13.212
 21
68.5305
 31
0.0
  0
TEXT
  8
TEXT
 10
34.084688
 20
68.178938
 30
0.0
 40
0.703125
  1
SC-12100
 41
0.75
  7
TXT
 72
     4
 11
35.8425
 21
68.5305
 31
0.0
  0
TEXT
  8
TEXT
 62
     7
 10
36.393685
 20
5.473179
 30
0.0
 40
0.5625
  1
BLACK
 41
0.75
  7
TXT
  0
TEXT
  8
TEXT
 62
     7
 10
36.393685
 20
7.321366
 30
0.0
 40
0.5625
  1
BLACK TEXTURED
 41
0.75
  7
TXT
  0
TEXT
  8
TEXT
 62
     7
 10
36.393685
 20
6.383866
 30
0.0
 40
0.5625
  1
WHITE (PREPAINTED)
 41
0.75
  7
TXT
  0
TEXT
  8
TEXT
 62
     7
 10
31.722773
 20
8.260079
 30
0.0
 40
0.5625
  1
%%uFINISH:
 41
0.75
  7
TXT
  0
LINE
  8
TEXT
 62
     7
 10
34.278176
 20
7.304847
 30
0.0
 11
36.023958
 21
7.304847
 31
0.0
  0
LINE
  8
TEXT
 62
     7
 10
34.261809
 20
5.496382
 30
0.0
 11
36.023958
 21
5.496382
 31
0.0
  0
LINE
  8
TEXT
 62
     7
 10
34.888089
 20
6.353712
 30
0.0
 11
36.023958
 21
6.353712
 31
0.0
  0
TEXT
  8
TEXT
 62
     7
 10
32.479065
 20
7.322579
 30
0.0
 40
0.5625
  1
BASE
 41
0.75
  7
TXT
  0
TEXT
  8
TEXT
 62
     7
 10
32.479065
 20
5.474391
 30
0.0
 40
0.5625
  1
FEET
 41
0.75
  7
TXT
  0
TEXT
  8
TEXT
 62
     7
 10
32.479065
 20
6.385079
 30
0.0
 40
0.5625
  1
COVER
 41
0.75
  7
TXT
  0
TEXT
  8
TEXT
 10
0.93525
 20
67.770356
 30
0.0
 40
0.5625
  1
NAME
 72
     1
 11
1.9665
 21
67.770356
 31
0.0
  0
TEXT
  8
TEXT
 10
0.93525
 20
68.707856
 30
0.0
 40
0.5625
  1
PART
 72
     1
 11
1.9665
 21
68.707856
 31
0.0
  0
TEXT
  8
TEXT
 10
24.174
 20
67.770356
 30
0.0
 40
0.5625
  1
No.
 72
     1
 11
24.7365
 21
67.770356
 31
0.0
  0
TEXT
  8
TEXT
 10
23.70525
 20
68.707856
 30
0.0
 40
0.5625
  1
PART
 72
     1
 11
24.7365
 21
68.707856
 31
0.0
  0
LINE
  8
TITLE
 10
26.424
 20
69.471
 30
0.0
 11
26.424
 21
67.59
 31
0.0
  0
LINE
  8
TITLE
 10
23.049
 20
69.471
 30
0.0
 11
23.049
 21
67.59
 31
0.0
  0
LINE
  8
TITLE
 10
22.77
 20
69.471
 30
0.0
 11
22.77
 21
67.59
 31
0.0
  0
LINE
  8
TITLE
 10
3.654
 20
67.59
 30
0.0
 11
3.654
 21
69.471
 31
0.0
  0
LINE
  8
TITLE
 10
0.279
 20
67.59
 30
0.0
 11
45.261
 21
67.59
 31
0.0
  0
LINE
  8
TITLE
 10
45.261
 20
0.279
 30
0.0
 11
0.279
 21
0.279
 31
0.0
  0
LINE
  8
TITLE
 10
45.261
 20
69.471
 30
0.0
 11
45.261
 21
39.636183
 31
0.0
  0
LINE
  8
TITLE
 10
0.279
 20
69.471
 30
0.0
 11
45.261
 21
69.471
 31
0.0
  0
LINE
  8
TITLE
 10
0.279
 20
0.279
 30
0.0
 11
0.279
 21
39.357183
 31
0.0
  0
LINE
  8
TITLE
 10
0.0
 20
0.0
 30
0.0
 11
0.0
 21
69.75
 31
0.0
  0
LINE
  8
TITLE
 10
45.54
 20
0.0
 30
0.0
 11
0.0
 21
0.0
 31
0.0
  0
LINE
  8
TITLE
 10
45.54
 20
69.75
 30
0.0
 11
45.54
 21
0.0
 31
0.0
  0
LINE
  8
TITLE
 10
0.0
 20
69.75
 30
0.0
 11
45.54
 21
69.75
 31
0.0
  0
LINE
  8
OBJECT
 62
     7
 10
35.96135
 20
26.502723
 30
0.0
 11
43.297854
 21
30.738455
 31
0.0
  0
LINE
  8
OBJECT
 62
     7
 10
43.422854
 20
30.738455
 30
0.0
 11
43.344912
 21
30.783455
 31
0.0
  0
LINE
  8
OBJECT
 62
     7
 10
32.966171
 20
36.703455
 30
0.0
 11
25.629667
 21
32.467723
 31
0.0
  0
LINE
  8
OBJECT
 62
     7
 10
34.8251
 20
22.686708
 30
0.0
 11
34.8251
 21
22.596708
 31
0.0
  0
LINE
  8
OBJECT
 62
     7
 10
34.8251
 20
22.596708
 30
0.0
 11
43.485354
 21
27.596708
 31
0.0
  0
LINE
  8
OBJECT
 62
     7
 10
43.485354
 20
27.596708
 30
0.0
 11
43.485354
 21
30.630202
 31
0.0
  0
LINE
  8
OBJECT
 62
     7
 10
24.493417
 20
28.651708
 30
0.0
 11
24.493417
 21
28.561708
 31
0.0
  0
LINE
  8
OBJECT
 62
     7
 10
24.493417
 20
28.561708
 30
0.0
 11
34.8251
 21
22.596708
 31
0.0
  0
LINE
  8
OBJECT
 62
     7
 10
35.883408
 20
26.547723
 30
0.0
 11
43.219912
 21
30.783455
 31
0.0
  0
LINE
  8
OBJECT
 62
     7
 10
24.571359
 20
28.606708
 30
0.0
 11
34.747158
 21
22.731708
 31
0.0
  0
LINE
  8
OBJECT
 62
     7
 10
33.044114
 20
36.658455
 30
0.0
 11
25.707609
 21
32.422723
 31
0.0
  0
LINE
  8
OBJECT
 62
     7
 10
42.974399
 20
30.641708
 30
0.0
 11
33.015107
 21
36.391708
 31
0.0
  0
LINE
  8
OBJECT
 62
     7
 10
33.170087
 20
36.655703
 30
0.0
 11
33.091171
 21
36.703455
 31
0.0
  0
LINE
  8
OBJECT
 62
     7
 10
33.231614
 20
36.550202
 30
0.0
 11
33.231614
 21
36.266708
 31
0.0
  0
LINE
  8
OBJECT
 62
     7
 10
24.72609
 20
28.767375
 30
0.0
 11
34.808934
 21
22.946042
 31
0.0
  0
LINE
  8
OBJECT
 62
     7
 10
25.707585
 20
32.172708
 30
0.0
 11
24.72609
 21
28.767375
 31
0.0
  0
LINE
  8
OBJECT
 62
     7
 10
25.649999
 20
32.349088
 30
0.0
 11
24.571359
 21
28.606708
 31
0.0
  0
LINE
  8
OBJECT
 62
     7
 10
25.572056
 20
32.394088
 30
0.0
 11
24.493417
 21
28.651708
 31
0.0
  0
LINE
  8
OBJECT
 62
     7
 10
35.825797
 20
26.474088
 30
0.0
 11
34.747158
 21
22.731708
 31
0.0
  0
LINE
  8
OBJECT
 62
     7
 10
35.903739
 20
26.429088
 30
0.0
 11
34.8251
 21
22.686708
 31
0.0
  0
LINE
  8
OBJECT
 62
     7
 10
33.015107
 20
36.391708
 30
0.0
 11
25.707585
 21
32.172708
 31
0.0
  0
LINE
  8
OBJECT
 62
     7
 10
35.790429
 20
26.351376
 30
0.0
 11
25.707585
 21
32.172708
 31
0.0
  0
ARC
  8
OBJECT
 62
     7
 10
43.360354
 20
30.630202
 30
0.0
 40
0.125
 50
0.0
 51
120.0
  0
ARC
  8
OBJECT
 62
     7
 10
43.282412
 20
30.675202
 30
0.0
 40
0.125
 50
60.0
 51
120.0
  0
ARC
  8
OBJECT
 62
     7
 10
33.106614
 20
36.550202
 30
0.0
 40
0.125
 50
0.0
 51
120.0
  0
ARC
  8
OBJECT
 62
     7
 10
33.028671
 20
36.595202
 30
0.0
 40
0.125
 50
57.64348
 51
120.0
  0
ARC
  8
OBJECT
 62
     7
 10
36.02385
 20
26.394469
 30
0.0
 40
0.125
 50
120.0
 51
163.921812
  0
ARC
  8
OBJECT
 62
     7
 10
35.945908
 20
26.439469
 30
0.0
 40
0.125
 50
120.0
 51
163.921812
  0
ARC
  8
OBJECT
 62
     7
 10
25.770109
 20
32.314469
 30
0.0
 40
0.125
 50
120.0
 51
163.921812
  0
ARC
  8
OBJECT
 62
     7
 10
25.692167
 20
32.359469
 30
0.0
 40
0.125
 50
120.0
 51
163.921812
  0
LINE
  8
OBJECT
 62
     7
 10
40.805934
 20
64.022396
 30
0.0
 11
36.901892
 21
66.276396
 31
0.0
  0
LINE
  8
OBJECT
 62
     7
 10
36.901892
 20
66.276396
 30
0.0
 11
34.270255
 21
64.75702
 31
0.0
  0
LINE
  8
OBJECT
 62
     7
 10
34.212669
 20
64.9334
 30
0.0
 11
32.788271
 21
59.991396
 31
0.0
  0
LINE
  8
OBJECT
 62
     7
 10
34.134727
 20
64.9784
 30
0.0
 11
32.710329
 21
60.036396
 31
0.0
  0
LINE
  8
OBJECT
 62
     7
 10
32.710329
 20
59.946396
 30
0.0
 11
36.986762
 21
57.477396
 31
0.0
  0
LINE
  8
OBJECT
 62
     7
 10
32.943002
 20
60.152062
 30
0.0
 11
36.970596
 21
57.82673
 31
0.0
  0
LINE
  8
OBJECT
 62
     7
 10
32.788271
 20
59.991396
 30
0.0
 11
36.90882
 21
57.612396
 31
0.0
  0
LINE
  8
OBJECT
 62
     7
 10
38.29785
 20
62.431688
 30
0.0
 11
34.270255
 21
64.75702
 31
0.0
  0
LINE
  8
OBJECT
 62
     7
 10
34.270255
 20
64.75702
 30
0.0
 11
32.943002
 21
60.152062
 31
0.0
  0
LINE
  8
OBJECT
 62
     7
 10
32.710329
 20
60.036396
 30
0.0
 11
32.710329
 21
59.946396
 31
0.0
  0
LINE
  8
OBJECT
 62
     7
 10
38.41116
 20
62.5094
 30
0.0
 11
36.986762
 21
57.567396
 31
0.0
  0
LINE
  8
OBJECT
 62
     7
 10
38.333218
 20
62.5544
 30
0.0
 11
36.90882
 21
57.612396
 31
0.0
  0
LINE
  8
OBJECT
 62
     7
 10
36.986762
 20
57.567396
 30
0.0
 11
36.986762
 21
57.477396
 31
0.0
  0
LINE
  8
OBJECT
 62
     7
 10
41.316889
 20
59.977396
 30
0.0
 11
41.316889
 21
64.01089
 31
0.0
  0
LINE
  8
OBJECT
 62
     7
 10
36.930898
 20
66.543143
 30
0.0
 11
34.27028
 21
65.007034
 31
0.0
  0
LINE
  8
OBJECT
 62
     7
 10
36.852956
 20
66.588143
 30
0.0
 11
34.192338
 21
65.052034
 31
0.0
  0
LINE
  8
OBJECT
 62
     7
 10
37.118398
 20
66.43489
 30
0.0
 11
37.118398
 21
66.151396
 31
0.0
  0
LINE
  8
OBJECT
 62
     7
 10
37.056872
 20
66.54039
 30
0.0
 11
36.977956
 21
66.588143
 31
0.0
  0
ARC
  8
OBJECT
 62
     7
 10
36.915456
 20
66.47989
 30
0.0
 40
0.125
 50
57.64348
 51
120.0
  0
ARC
  8
OBJECT
 62
     7
 10
36.993398
 20
66.43489
 30
0.0
 40
0.125
 50
0.0
 51
120.0
  0
LINE
  8
OBJECT
 62
     7
 10
36.986762
 20
57.477396
 30
0.0
 11
41.316889
 21
59.977396
 31
0.0
  0
LINE
  8
OBJECT
 62
     7
 10
38.390829
 20
62.628034
 30
0.0
 11
41.051447
 21
64.164143
 31
0.0
  0
LINE
  8
OBJECT
 62
     7
 10
38.468771
 20
62.583034
 30
0.0
 11
41.129389
 21
64.119143
 31
0.0
  0
ARC
  8
OBJECT
 62
     7
 10
41.191889
 20
64.01089
 30
0.0
 40
0.125
 50
0.0
 51
120.0
  0
LINE
  8
OBJECT
 62
     7
 10
41.254389
 20
64.119143
 30
0.0
 11
41.176447
 21
64.164143
 31
0.0
  0
ARC
  8
OBJECT
 62
     7
 10
41.113947
 20
64.05589
 30
0.0
 40
0.125
 50
60.0
 51
120.0
  0
ARC
  8
OBJECT
 62
     7
 10
38.531271
 20
62.474781
 30
0.0
 40
0.125
 50
120.0
 51
163.921812
  0
ARC
  8
OBJECT
 62
     7
 10
38.453329
 20
62.519781
 30
0.0
 40
0.125
 50
120.0
 51
163.921812
  0
ARC
  8
OBJECT
 62
     7
 10
34.33278
 20
64.898781
 30
0.0
 40
0.125
 50
120.0
 51
163.921812
  0
ARC
  8
OBJECT
 62
     7
 10
34.254838
 20
64.943781
 30
0.0
 40
0.125
 50
120.0
 51
163.921812
  0
LINE
  8
TITLE
 10
0.279
 20
39.636183
 30
0.0
 11
45.261
 21
39.636183
 31
0.0
  0
LINE
  8
TITLE
 10
0.279
 20
39.357183
 30
0.0
 11
45.261
 21
39.357183
 31
0.0
  0
LINE
  8
TITLE
 10
0.279
 20
37.476183
 30
0.0
 11
45.261
 21
37.476183
 31
0.0
  0
TEXT
  8
TEXT
 62
     7
 10
9.344813
 20
38.06512
 30
0.0
 40
0.703125
  1
SLOPE ENCLOSURE
 41
0.75
  7
TXT
 72
     4
 11
13.212
 21
38.416683
 31
0.0
  0
TEXT
  8
TEXT
 10
0.93525
 20
38.594039
 30
0.0
 40
0.5625
  1
PART
 72
     1
 11
1.9665
 21
38.594039
 31
0.0
  0
TEXT
  8
TEXT
 10
0.93525
 20
37.656539
 30
0.0
 40
0.5625
  1
NAME
 72
     1
 11
1.9665
 21
37.656539
 31
0.0
  0
LINE
  8
TITLE
 62
     7
 10
3.654
 20
37.476183
 30
0.0
 11
3.654
 21
39.357183
 31
0.0
  0
LINE
  8
TITLE
 62
     7
 10
22.77
 20
39.357183
 30
0.0
 11
22.77
 21
37.476183
 31
0.0
  0
TEXT
  8
TEXT
 62
     7
 10
23.70525
 20
38.594039
 30
0.0
 40
0.5625
  1
PART
 72
     1
 11
24.7365
 21
38.594039
 31
0.0
  0
TEXT
  8
TEXT
 62
     7
 10
24.174
 20
37.656539
 30
0.0
 40
0.5625
  1
No.
 72
     1
 11
24.7365
 21
37.656539
 31
0.0
  0
LINE
  8
TITLE
 62
     7
 10
23.049
 20
39.357183
 30
0.0
 11
23.049
 21
37.476183
 31
0.0
  0
LINE
  8
TITLE
 62
     7
 10
26.424
 20
39.357183
 30
0.0
 11
26.424
 21
37.476183
 31
0.0
  0
TEXT
  8
TEXT
 62
     7
 10
34.128633
 20
38.06512
 30
0.0
 40
0.703125
  1
SC-12101
 41
0.75
  7
TXT
 72
     4
 11
35.8425
 21
38.416683
 31
0.0
  0
TEXT
  8
TEXT
 62
     7
 10
36.393685
 20
45.077354
 30
0.0
 40
0.5625
  1
WHITE (PREPAINTED)
 41
0.75
  7
TXT
  0
TEXT
  8
TEXT
 62
     7
 10
36.393685
 20
46.014854
 30
0.0
 40
0.5625
  1
BLACK TEXTURED
 41
0.75
  7
TXT
  0
TEXT
  8
TEXT
 62
     7
 10
22.45566
 20
45.060835
 30
0.0
 40
0.5625
  1
0.050 THK. ALUMINUM
 41
0.75
  7
TXT
  0
TEXT
  8
TEXT
 62
     7
 10
22.45566
 20
45.998335
 30
0.0
 40
0.5625
  1
0.090 THK. ALUMINUM
 41
0.75
  7
TXT
  0
TEXT
  8
TEXT
 62
     7
 10
17.963619
 20
41.355575
 30
0.0
 40
0.5625
  1
SUPPLIED WITH FOUR (4) #6-32 x 3/8 LG. SCREWS
 41
0.75
  7
TXT
  0
TEXT
  8
TEXT
 62
     7
 10
17.963619
 20
40.409715
 30
0.0
 40
0.5625
  1
AND FOUR (4) SELF-ADHESIVE FEET.
 41
0.75
  7
TXT
  0
LINE
  8
TEXT
 62
     7
 10
20.420059
 20
45.998335
 30
0.0
 11
22.085934
 21
45.998335
 31
0.0
  0
LINE
  8
TEXT
 62
     7
 10
20.956783
 20
45.071587
 30
0.0
 11
22.085934
 21
45.071587
 31
0.0
  0
TEXT
  8
TEXT
 62
     7
 10
18.620949
 20
45.062047
 30
0.0
 40
0.5625
  1
COVER
 41
0.75
  7
TXT
  0
TEXT
  8
TEXT
 62
     7
 10
17.864656
 20
46.937047
 30
0.0
 40
0.5625
  1
%%uMATERIAL:
 41
0.75
  7
TXT
  0
TEXT
  8
TEXT
 62
     7
 10
18.620949
 20
45.999547
 30
0.0
 40
0.5625
  1
BASE
 41
0.75
  7
TXT
  0
LINE
  8
TEXT
 62
     7
 10
34.278176
 20
45.998335
 30
0.0
 11
36.023958
 21
45.998335
 31
0.0
  0
LINE
  8
TEXT
 62
     7
 10
34.888089
 20
45.047199
 30
0.0
 11
36.023958
 21
45.047199
 31
0.0
  0
LINE
  8
TEXT
 62
     7
 10
34.261809
 20
44.18987
 30
0.0
 11
36.023958
 21
44.18987
 31
0.0
  0
TEXT
  8
TEXT
 62
     7
 10
32.479065
 20
45.078566
 30
0.0
 40
0.5625
  1
COVER
 41
0.75
  7
TXT
  0
TEXT
  8
TEXT
 62
     7
 10
32.479065
 20
44.167878
 30
0.0
 40
0.5625
  1
FEET
 41
0.75
  7
TXT
  0
TEXT
  8
TEXT
 62
     7
 10
31.722773
 20
46.953566
 30
0.0
 40
0.5625
  1
%%uFINISH:
 41
0.75
  7
TXT
  0
TEXT
  8
TEXT
 62
     7
 10
32.479065
 20
46.016066
 30
0.0
 40
0.5625
  1
BASE
 41
0.75
  7
TXT
  0
TEXT
  8
TEXT
 62
     7
 10
36.393685
 20
44.166666
 30
0.0
 40
0.5625
  1
BLACK
 41
0.75
  7
TXT
  0
LINE
  8
TITLE
 10
45.261
 20
39.357183
 30
0.0
 11
45.261
 21
0.279
 31
0.0
  0
LINE
  8
TITLE
 10
0.279
 20
39.636183
 30
0.0
 11
0.279
 21
69.471
 31
0.0
  0
TEXT
  8
TEXT
 62
     7
 10
17.963619
 20
42.757309
 30
0.0
 40
0.5625
  1
SHIPPED UNASSEMBLED
 41
0.75
  7
TXT
  0
TEXT
  8
TEXT
 62
     7
 10
17.963619
 20
4.140473
 30
0.0
 40
0.5625
  1
SHIPPED UNASSEMBLED
 41
0.75
  7
TXT
  0
TEXT
  8
TEXT
 62
     7
 10
17.963619
 20
2.738739
 30
0.0
 40
0.5625
  1
SUPPLIED WITH FOUR (4) #6-32 x 3/8 LG. SCREWS
 41
0.75
  7
TXT
  0
TEXT
  8
TEXT
 62
     7
 10
17.963619
 20
1.79288
 30
0.0
 40
0.5625
  1
AND FOUR (4) SELF-ADHESIVE FEET.
 41
0.75
  7
TXT
  0
ENDSEC
  0
EOF
