  0
SECTION
  2
HEADER
  9
$ACADVER
  1
AC1015
  9
$ACADMAINTVER
 70
     6
  9
$DWGCODEPAGE
  3
ANSI_1252
  9
$INSBASE
 10
0.0
 20
0.0
 30
0.0
  9
$EXTMIN
 10
-0.0007277887090282
 20
-0.0010752048286093
 30
-0.0015258207003583
  9
$EXTMAX
 10
23.85072789976923
 20
35.23607536890436
 30
0.0000000349246037
  9
$LIMMIN
 10
0.0
 20
0.0
  9
$LIMMAX
 10
23.84999999999999
 20
35.23499999999999
  9
$ORTHOMODE
 70
     1
  9
$REGENMODE
 70
     1
  9
$FILLMODE
 70
     1
  9
$QTEXTMODE
 70
     0
  9
$MIRRTEXT
 70
     0
  9
$LTSCALE
 40
0.468
  9
$ATTMODE
 70
     1
  9
$TEXTSIZE
 40
0.281
  9
$TRACEWID
 40
0.05
  9
$TEXTSTYLE
  7
TXT
  9
$CLAYER
  8
OBJECT
  9
$CELTYPE
  6
ByLayer
  9
$CECOLOR
 62
   256
  9
$CELTSCALE
 40
1.0
  9
$DISPSILH
 70
     0
  9
$DIMSCALE
 40
2.25
  9
$DIMASZ
 40
0.18
  9
$DIMEXO
 40
0.063
  9
$DIMDLI
 40
0.38
  9
$DIMRND
 40
0.0
  9
$DIMDLE
 40
0.0
  9
$DIMEXE
 40
0.093
  9
$DIMTP
 40
0.0
  9
$DIMTM
 40
0.0
  9
$DIMTXT
 40
0.125
  9
$DIMCEN
 40
0.09
  9
$DIMTSZ
 40
0.0
  9
$DIMTOL
 70
     0
  9
$DIMLIM
 70
     0
  9
$DIMTIH
 70
     1
  9
$DIMTOH
 70
     1
  9
$DIMSE1
 70
     0
  9
$DIMSE2
 70
     0
  9
$DIMTAD
 70
     0
  9
$DIMZIN
 70
     0
  9
$DIMBLK
  1

  9
$DIMASO
 70
     1
  9
$DIMSHO
 70
     1
  9
$DIMPOST
  1

  9
$DIMAPOST
  1

  9
$DIMALT
 70
     0
  9
$DIMALTD
 70
     2
  9
$DIMALTF
 40
25.4
  9
$DIMLFAC
 40
1.0
  9
$DIMTOFL
 70
     0
  9
$DIMTVP
 40
0.0
  9
$DIMTIX
 70
     0
  9
$DIMSOXD
 70
     0
  9
$DIMSAH
 70
     0
  9
$DIMBLK1
  1

  9
$DIMBLK2
  1

  9
$DIMSTYLE
  2
23NSTD
  9
$DIMCLRD
 70
     0
  9
$DIMCLRE
 70
     0
  9
$DIMCLRT
 70
     0
  9
$DIMTFAC
 40
1.0
  9
$DIMGAP
 40
0.09
  9
$DIMJUST
 70
     0
  9
$DIMSD1
 70
     0
  9
$DIMSD2
 70
     0
  9
$DIMTOLJ
 70
     1
  9
$DIMTZIN
 70
     0
  9
$DIMALTZ
 70
     0
  9
$DIMALTTZ
 70
     0
  9
$DIMUPT
 70
     0
  9
$DIMDEC
 70
     3
  9
$DIMTDEC
 70
     3
  9
$DIMALTU
 70
     2
  9
$DIMALTTD
 70
     2
  9
$DIMTXSTY
  7
TXT
  9
$DIMAUNIT
 70
     0
  9
$DIMADEC
 70
     0
  9
$DIMALTRND
 40
0.0
  9
$DIMAZIN
 70
     0
  9
$DIMDSEP
 70
    46
  9
$DIMATFIT
 70
     1
  9
$DIMFRAC
 70
     0
  9
$DIMLDRBLK
  1

  9
$DIMLUNIT
 70
     2
  9
$DIMLWD
 70
    -2
  9
$DIMLWE
 70
    -2
  9
$DIMTMOVE
 70
     0
  9
$LUNITS
 70
     2
  9
$LUPREC
 70
     8
  9
$SKETCHINC
 40
0.1
  9
$FILLETRAD
 40
0.0
  9
$AUNITS
 70
     0
  9
$AUPREC
 70
     0
  9
$MENU
  1
acad
  9
$ELEVATION
 40
0.0
  9
$PELEVATION
 40
0.0
  9
$THICKNESS
 40
0.0
  9
$LIMCHECK
 70
     0
  9
$CHAMFERA
 40
0.0
  9
$CHAMFERB
 40
0.0
  9
$CHAMFERC
 40
0.0
  9
$CHAMFERD
 40
0.0
  9
$SKPOLY
 70
     0
  9
$TDCREATE
 40
2451033.475029166
  9
$TDUCREATE
 40
2451033.641695833
  9
$TDUPDATE
 40
2455063.440640914
  9
$TDUUPDATE
 40
2455063.607307581
  9
$TDINDWG
 40
0.3032353704
  9
$TDUSRTIMER
 40
0.3032344792
  9
$USRTIMER
 70
     1
  9
$ANGBASE
 50
0.0
  9
$ANGDIR
 70
     0
  9
$PDMODE
 70
     0
  9
$PDSIZE
 40
0.0
  9
$PLINEWID
 40
0.1
  9
$SPLFRAME
 70
     0
  9
$SPLINETYPE
 70
     6
  9
$SPLINESEGS
 70
     8
  9
$HANDSEED
  5
29E5
  9
$SURFTAB1
 70
     6
  9
$SURFTAB2
 70
     6
  9
$SURFTYPE
 70
     6
  9
$SURFU
 70
     6
  9
$SURFV
 70
     6
  9
$UCSBASE
  2

  9
$UCSNAME
  2

  9
$UCSORG
 10
0.0
 20
0.0
 30
0.0
  9
$UCSXDIR
 10
1.0
 20
0.0
 30
0.0
  9
$UCSYDIR
 10
0.0
 20
1.0
 30
0.0
  9
$UCSORTHOREF
  2

  9
$UCSORTHOVIEW
 70
     0
  9
$UCSORGTOP
 10
0.0
 20
0.0
 30
0.0
  9
$UCSORGBOTTOM
 10
0.0
 20
0.0
 30
0.0
  9
$UCSORGLEFT
 10
0.0
 20
0.0
 30
0.0
  9
$UCSORGRIGHT
 10
0.0
 20
0.0
 30
0.0
  9
$UCSORGFRONT
 10
0.0
 20
0.0
 30
0.0
  9
$UCSORGBACK
 10
0.0
 20
0.0
 30
0.0
  9
$PUCSBASE
  2

  9
$PUCSNAME
  2

  9
$PUCSORG
 10
0.0
 20
0.0
 30
0.0
  9
$PUCSXDIR
 10
1.0
 20
0.0
 30
0.0
  9
$PUCSYDIR
 10
0.0
 20
1.0
 30
0.0
  9
$PUCSORTHOREF
  2

  9
$PUCSORTHOVIEW
 70
     0
  9
$PUCSORGTOP
 10
0.0
 20
0.0
 30
0.0
  9
$PUCSORGBOTTOM
 10
0.0
 20
0.0
 30
0.0
  9
$PUCSORGLEFT
 10
0.0
 20
0.0
 30
0.0
  9
$PUCSORGRIGHT
 10
0.0
 20
0.0
 30
0.0
  9
$PUCSORGFRONT
 10
0.0
 20
0.0
 30
0.0
  9
$PUCSORGBACK
 10
0.0
 20
0.0
 30
0.0
  9
$USERI1
 70
     0
  9
$USERI2
 70
     0
  9
$USERI3
 70
     0
  9
$USERI4
 70
     0
  9
$USERI5
 70
     0
  9
$USERR1
 40
0.0
  9
$USERR2
 40
0.0
  9
$USERR3
 40
0.0
  9
$USERR4
 40
0.0
  9
$USERR5
 40
0.0
  9
$WORLDVIEW
 70
     1
  9
$SHADEDGE
 70
     3
  9
$SHADEDIF
 70
    70
  9
$TILEMODE
 70
     1
  9
$MAXACTVP
 70
    16
  9
$PINSBASE
 10
0.0
 20
0.0
 30
0.0
  9
$PLIMCHECK
 70
     0
  9
$PEXTMIN
 10
1.000000000000000E+20
 20
1.000000000000000E+20
 30
1.000000000000000E+20
  9
$PEXTMAX
 10
-1.000000000000000E+20
 20
-1.000000000000000E+20
 30
-1.000000000000000E+20
  9
$PLIMMIN
 10
0.0
 20
0.0
  9
$PLIMMAX
 10
12.0
 20
9.0
  9
$UNITMODE
 70
     0
  9
$VISRETAIN
 70
     0
  9
$PLINEGEN
 70
     0
  9
$PSLTSCALE
 70
     1
  9
$TREEDEPTH
 70
  3020
  9
$CMLSTYLE
  2
Standard
  9
$CMLJUST
 70
     0
  9
$CMLSCALE
 40
1.0
  9
$PROXYGRAPHICS
 70
     1
  9
$MEASUREMENT
 70
     0
  9
$CELWEIGHT
370
    -1
  9
$ENDCAPS
280
     0
  9
$JOINSTYLE
280
     0
  9
$LWDISPLAY
290
     0
  9
$INSUNITS
 70
     0
  9
$HYPERLINKBASE
  1

  9
$STYLESHEET
  1
monochrome.ctb
  9
$XEDIT
290
     1
  9
$CEPSNTYPE
380
     0
  9
$PSTYLEMODE
290
     1
  9
$FINGERPRINTGUID
  2
{937CD6F6-D5A8-11D4-81F0-00C04F604D21}
  9
$VERSIONGUID
  2
{27D6B3FA-6705-49E4-8A0B-FB4265C18191}
  9
$EXTNAMES
290
     1
  9
$PSVPSCALE
 40
0.0
  9
$OLESTARTUP
290
     0
  0
ENDSEC
  0
SECTION
  2
CLASSES
  0
CLASS
  1
ACDBDICTIONARYWDFLT
  2
AcDbDictionaryWithDefault
  3
AutoCAD 2000
 90
        0
280
     0
281
     0
  0
CLASS
  1
ACDBPLACEHOLDER
  2
AcDbPlaceHolder
  3
AutoCAD 2000
 90
        0
280
     0
281
     0
  0
CLASS
  1
LAYOUT
  2
AcDbLayout
  3
AutoCAD 2000
 90
        0
280
     0
281
     0
  0
CLASS
  1
DICTIONARYVAR
  2
AcDbDictionaryVar
  3
AutoCAD 2000
 90
        0
280
     0
281
     0
  0
ENDSEC
  0
SECTION
  2
TABLES
  0
TABLE
  2
VPORT
  5
C90
330
0
100
AcDbSymbolTable
 70
     2
  0
VPORT
  5
29E4
330
C90
100
AcDbSymbolTableRecord
100
AcDbViewportTableRecord
  2
*Active
 70
     0
 10
0.0
 20
0.0
 11
1.0
 21
1.0
 12
11.92500005553011
 22
17.61750008203787
 13
0.0
 23
0.0
 14
1.0
 24
1.0
 15
0.0
 25
0.0
 16
0.0
 26
0.0
 36
1.0
 17
0.0
 27
0.0
 37
0.0
 40
35.58952207947029
 41
1.824707846410684
 42
50.0
 43
0.0
 44
0.0
 50
0.0
 51
0.0
 71
     0
 72
   100
 73
     1
 74
     0
 75
     0
 76
     0
 77
     0
 78
     0
281
     0
 65
     0
110
0.0
120
0.0
130
0.0
111
1.0
121
0.0
131
0.0
112
0.0
122
1.0
132
0.0
 79
     0
146
0.0
  0
ENDTAB
  0
TABLE
  2
LTYPE
  5
C8D
330
0
100
AcDbSymbolTable
 70
     5
  0
LTYPE
  5
C9B
330
C8D
100
AcDbSymbolTableRecord
100
AcDbLinetypeTableRecord
  2
ByBlock
 70
     0
  3

 72
    65
 73
     0
 40
0.0
  0
LTYPE
  5
C9C
330
C8D
100
AcDbSymbolTableRecord
100
AcDbLinetypeTableRecord
  2
ByLayer
 70
     0
  3

 72
    65
 73
     0
 40
0.0
  0
LTYPE
  5
C9D
330
C8D
100
AcDbSymbolTableRecord
100
AcDbLinetypeTableRecord
  2
CONTINUOUS
 70
     0
  3
Solid line
 72
    65
 73
     0
 40
0.0
  0
LTYPE
  5
CAD
330
C8D
100
AcDbSymbolTableRecord
100
AcDbLinetypeTableRecord
  2
HIDDEN
 70
     0
  3
_ _ _ _ _ _ _ _ _ _ _ _ _ _ _ _ _ _ _ _ _ _ _
 72
    65
 73
     2
 40
0.375
 49
0.25
 74
     0
 49
-0.125
 74
     0
  0
LTYPE
  5
CAE
330
C8D
100
AcDbSymbolTableRecord
100
AcDbLinetypeTableRecord
  2
PHANTOM
 70
     0
  3
_____ _ _ _____ _ _ _____ _ _ _____ _ _ ____
 72
    65
 73
     6
 40
2.5
 49
1.25
 74
     0
 49
-0.25
 74
     0
 49
0.25
 74
     0
 49
-0.25
 74
     0
 49
0.25
 74
     0
 49
-0.25
 74
     0
  0
LTYPE
  5
CAF
330
C8D
100
AcDbSymbolTableRecord
100
AcDbLinetypeTableRecord
  2
CENTER
 70
     0
  3
____ _ ____ _ ____ _ ____ _ ____ _ ____ _ ____
 72
    65
 73
     4
 40
2.0
 49
1.25
 74
     0
 49
-0.25
 74
     0
 49
0.25
 74
     0
 49
-0.25
 74
     0
  0
LTYPE
  5
1802
330
C8D
100
AcDbSymbolTableRecord
100
AcDbLinetypeTableRecord
  2
HIDDEN2
 70
     0
  3
_ _ _ _ _ _ _ _ _ _ _ _ _ _ _ _ _ _ _ _ _ _ _ _
 72
    65
 73
     2
 40
0.1875
 49
0.125
 74
     0
 49
-0.0625
 74
     0
  0
ENDTAB
  0
TABLE
  2
LAYER
  5
C8A
330
0
100
AcDbSymbolTable
 70
    10
  0
LAYER
  5
C98
330
C8A
100
AcDbSymbolTableRecord
100
AcDbLayerTableRecord
  2
0
 70
     0
 62
     7
  6
CONTINUOUS
370
    -3
390
C97
  0
LAYER
  5
CAA
330
C8A
100
AcDbSymbolTableRecord
100
AcDbLayerTableRecord
  2
OBJECT
 70
     0
 62
     7
  6
CONTINUOUS
370
    -3
390
C97
  0
LAYER
  5
CB0
330
C8A
100
AcDbSymbolTableRecord
100
AcDbLayerTableRecord
  2
DIM
 70
     0
 62
     7
  6
CONTINUOUS
370
    -3
390
C97
  0
LAYER
  5
CB1
330
C8A
100
AcDbSymbolTableRecord
100
AcDbLayerTableRecord
  2
HIDDEN
 70
     0
 62
     7
  6
HIDDEN
370
    -3
390
C97
  0
LAYER
  5
CB2
330
C8A
100
AcDbSymbolTableRecord
100
AcDbLayerTableRecord
  2
BEND
 70
     0
 62
     7
  6
PHANTOM
370
    -3
390
C97
  0
LAYER
  5
CB3
330
C8A
100
AcDbSymbolTableRecord
100
AcDbLayerTableRecord
  2
TEXT
 70
     0
 62
     7
  6
CONTINUOUS
370
    -3
390
C97
  0
LAYER
  5
CB4
330
C8A
100
AcDbSymbolTableRecord
100
AcDbLayerTableRecord
  2
TITLE
 70
     0
 62
     7
  6
CONTINUOUS
370
    -3
390
C97
  0
LAYER
  5
CB5
330
C8A
100
AcDbSymbolTableRecord
100
AcDbLayerTableRecord
  2
CENTER
 70
     0
 62
     7
  6
CENTER
370
    -3
390
C97
  0
LAYER
  5
CB6
330
C8A
100
AcDbSymbolTableRecord
100
AcDbLayerTableRecord
  2
DEFPOINTS
 70
     0
 62
     7
  6
CONTINUOUS
290
     0
370
    -3
390
C97
  0
LAYER
  5
1803
330
C8A
100
AcDbSymbolTableRecord
100
AcDbLayerTableRecord
  2
BRACKET
 70
     0
 62
     7
  6
CONTINUOUS
370
    -3
390
C97
  0
ENDTAB
  0
TABLE
  2
STYLE
  5
C8B
330
0
100
AcDbSymbolTable
 70
     2
  0
STYLE
  5
C99
330
C8B
100
AcDbSymbolTableRecord
100
AcDbTextStyleTableRecord
  2
STANDARD
 70
     0
 40
0.0
 41
1.0
 50
0.0
 71
     0
 42
0.2
  3
txt
  4

  0
STYLE
  5
CAB
330
C8B
100
AcDbSymbolTableRecord
100
AcDbTextStyleTableRecord
  2
TXT
 70
     0
 40
0.0
 41
0.75
 50
0.0
 71
     0
 42
0.281
  3
TXT.shx
  4

  0
ENDTAB
  0
TABLE
  2
VIEW
  5
C8E
330
0
100
AcDbSymbolTable
 70
     0
  0
ENDTAB
  0
TABLE
  2
UCS
  5
C8F
330
0
100
AcDbSymbolTable
 70
     0
  0
ENDTAB
  0
TABLE
  2
APPID
  5
C91
330
0
100
AcDbSymbolTable
 70
     2
  0
APPID
  5
C9A
330
C91
100
AcDbSymbolTableRecord
100
AcDbRegAppTableRecord
  2
ACAD
 70
     0
  0
APPID
  5
1F9C
330
C91
100
AcDbSymbolTableRecord
100
AcDbRegAppTableRecord
  2
DCO15
 70
     0
  0
ENDTAB
  0
TABLE
  2
DIMSTYLE
  5
C92
330
0
100
AcDbSymbolTable
 70
     2
100
AcDbDimStyleTable
 71
     2
340
CB8
340
1804
  0
DIMSTYLE
105
CB8
102
{ACAD_REACTORS
330
F06
330
F14
330
F22
330
F30
330
F94
330
FBF
330
FCD
330
FDB
330
FF8
330
106D
330
1473
330
1490
330
149F
330
14AD
330
14BB
330
14C9
330
14D7
330
14E5
330
14F3
330
1896
330
1897
330
18C3
330
18DA
330
18F2
330
1904
330
18C2
330
190A
330
2872
102
}
330
C92
100
AcDbSymbolTableRecord
100
AcDbDimStyleTableRecord
  2
23NSTD
 70
     0
 40
2.25
 42
0.063
 44
0.093
140
0.125
271
     3
272
     3
289
     1
340
CAB
  0
DIMSTYLE
105
1804
330
C92
100
AcDbSymbolTableRecord
100
AcDbDimStyleTableRecord
  2
23NSTDI
 70
     0
 40
2.25
 42
0.093
 44
0.093
140
0.125
174
     1
271
     3
272
     3
340
CAB
  0
ENDTAB
  0
TABLE
  2
BLOCK_RECORD
  5
C89
330
0
100
AcDbSymbolTable
 70
    30
  0
BLOCK_RECORD
  5
CA6
330
C89
100
AcDbSymbolTableRecord
100
AcDbBlockTableRecord
  2
*Model_Space
340
CA9
  0
BLOCK_RECORD
  5
CA2
330
C89
100
AcDbSymbolTableRecord
100
AcDbBlockTableRecord
  2
*Paper_Space
340
CA5
  0
BLOCK_RECORD
  5
D4B
330
C89
100
AcDbSymbolTableRecord
100
AcDbBlockTableRecord
  2
*X0
340
0
102
{BLKREFS
331
1523
102
}
  0
BLOCK_RECORD
  5
D79
330
C89
100
AcDbSymbolTableRecord
100
AcDbBlockTableRecord
  2
*X1
340
0
102
{BLKREFS
331
1524
102
}
  0
BLOCK_RECORD
  5
F07
330
C89
100
AcDbSymbolTableRecord
100
AcDbBlockTableRecord
  2
*D2
340
0
  0
BLOCK_RECORD
  5
F15
330
C89
100
AcDbSymbolTableRecord
100
AcDbBlockTableRecord
  2
*D3
340
0
  0
BLOCK_RECORD
  5
F23
330
C89
100
AcDbSymbolTableRecord
100
AcDbBlockTableRecord
  2
*D4
340
0
  0
BLOCK_RECORD
  5
F31
330
C89
100
AcDbSymbolTableRecord
100
AcDbBlockTableRecord
  2
*D5
340
0
  0
BLOCK_RECORD
  5
F95
330
C89
100
AcDbSymbolTableRecord
100
AcDbBlockTableRecord
  2
*D6
340
0
  0
BLOCK_RECORD
  5
FC0
330
C89
100
AcDbSymbolTableRecord
100
AcDbBlockTableRecord
  2
*D7
340
0
  0
BLOCK_RECORD
  5
FCE
330
C89
100
AcDbSymbolTableRecord
100
AcDbBlockTableRecord
  2
*D8
340
0
  0
BLOCK_RECORD
  5
FDC
330
C89
100
AcDbSymbolTableRecord
100
AcDbBlockTableRecord
  2
*D9
340
0
  0
BLOCK_RECORD
  5
FF9
330
C89
100
AcDbSymbolTableRecord
100
AcDbBlockTableRecord
  2
*D10
340
0
  0
BLOCK_RECORD
  5
106E
330
C89
100
AcDbSymbolTableRecord
100
AcDbBlockTableRecord
  2
*D11
340
0
  0
BLOCK_RECORD
  5
1474
330
C89
100
AcDbSymbolTableRecord
100
AcDbBlockTableRecord
  2
*D12
340
0
  0
BLOCK_RECORD
  5
1491
330
C89
100
AcDbSymbolTableRecord
100
AcDbBlockTableRecord
  2
*D13
340
0
  0
BLOCK_RECORD
  5
14A0
330
C89
100
AcDbSymbolTableRecord
100
AcDbBlockTableRecord
  2
*D14
340
0
  0
BLOCK_RECORD
  5
14AE
330
C89
100
AcDbSymbolTableRecord
100
AcDbBlockTableRecord
  2
*D15
340
0
  0
BLOCK_RECORD
  5
14BC
330
C89
100
AcDbSymbolTableRecord
100
AcDbBlockTableRecord
  2
*D16
340
0
  0
BLOCK_RECORD
  5
14CA
330
C89
100
AcDbSymbolTableRecord
100
AcDbBlockTableRecord
  2
*D17
340
0
  0
BLOCK_RECORD
  5
14D8
330
C89
100
AcDbSymbolTableRecord
100
AcDbBlockTableRecord
  2
*D18
340
0
  0
BLOCK_RECORD
  5
14E6
330
C89
100
AcDbSymbolTableRecord
100
AcDbBlockTableRecord
  2
*D19
340
0
  0
BLOCK_RECORD
  5
14F4
330
C89
100
AcDbSymbolTableRecord
100
AcDbBlockTableRecord
  2
*D20
340
0
  0
BLOCK_RECORD
  5
1921
330
C89
100
AcDbSymbolTableRecord
100
AcDbBlockTableRecord
  2
*D21
340
0
  0
BLOCK_RECORD
  5
192E
330
C89
100
AcDbSymbolTableRecord
100
AcDbBlockTableRecord
  2
*D22
340
0
  0
BLOCK_RECORD
  5
193B
330
C89
100
AcDbSymbolTableRecord
100
AcDbBlockTableRecord
  2
*D23
340
0
  0
BLOCK_RECORD
  5
1948
330
C89
100
AcDbSymbolTableRecord
100
AcDbBlockTableRecord
  2
*D24
340
0
  0
BLOCK_RECORD
  5
1955
330
C89
100
AcDbSymbolTableRecord
100
AcDbBlockTableRecord
  2
*D25
340
0
  0
BLOCK_RECORD
  5
1962
330
C89
100
AcDbSymbolTableRecord
100
AcDbBlockTableRecord
  2
*D26
340
0
  0
BLOCK_RECORD
  5
1970
330
C89
100
AcDbSymbolTableRecord
100
AcDbBlockTableRecord
  2
*D27
340
0
  0
BLOCK_RECORD
  5
1F9D
330
C89
100
AcDbSymbolTableRecord
100
AcDbBlockTableRecord
  2
Hb
340
0
102
{BLKREFS
331
1FB6
102
}
  0
BLOCK_RECORD
  5
2873
330
C89
100
AcDbSymbolTableRecord
100
AcDbBlockTableRecord
  2
*D29
340
0
  0
ENDTAB
  0
ENDSEC
  0
SECTION
  2
BLOCKS
  0
BLOCK
  5
CA7
330
CA6
100
AcDbEntity
  8
0
100
AcDbBlockBegin
  2
*Model_Space
 70
     0
 10
0.0
 20
0.0
 30
0.0
  3
*Model_Space
  1

  0
ENDBLK
  5
CA8
330
CA6
100
AcDbEntity
  8
0
100
AcDbBlockEnd
  0
BLOCK
  5
CA3
330
CA2
100
AcDbEntity
 67
     1
  8
0
100
AcDbBlockBegin
  2
*Paper_Space
 70
     0
 10
0.0
 20
0.0
 30
0.0
  3
*Paper_Space
  1

  0
ENDBLK
  5
CA4
330
CA2
100
AcDbEntity
 67
     1
  8
0
100
AcDbBlockEnd
  0
BLOCK
  5
D4C
330
D4B
100
AcDbEntity
  8
0
100
AcDbBlockBegin
  2
*X0
 70
     1
 10
0.0
 20
0.0
 30
0.0
  3
*X0
  1

  0
LINE
  5
D4D
330
D4B
100
AcDbEntity
  8
0
 62
     0
100
AcDbLine
 10
8.503536372593696
 20
9.033866458483604
 30
0.0
 11
8.581661372593696
 21
9.111991458483604
 31
0.0
  0
LINE
  5
D4E
330
D4B
100
AcDbEntity
  8
0
 62
     0
100
AcDbLine
 10
8.326759677297058
 20
9.033866458483604
 30
0.0
 11
8.404884677297058
 21
9.111991458483604
 31
0.0
  0
LINE
  5
D4F
330
D4B
100
AcDbEntity
  8
0
 62
     0
100
AcDbLine
 10
8.149982982000418
 20
9.033866458483604
 30
0.0
 11
8.228107982000418
 21
9.111991458483604
 31
0.0
  0
LINE
  5
D50
330
D4B
100
AcDbEntity
  8
0
 62
     0
100
AcDbLine
 10
7.973206286703785
 20
9.033866458483604
 30
0.0
 11
8.051331286703785
 21
9.111991458483604
 31
0.0
  0
LINE
  5
D51
330
D4B
100
AcDbEntity
  8
0
 62
     0
100
AcDbLine
 10
7.796429591407147
 20
9.033866458483604
 30
0.0
 11
7.874554591407147
 21
9.111991458483604
 31
0.0
  0
LINE
  5
D52
330
D4B
100
AcDbEntity
  8
0
 62
     0
100
AcDbLine
 10
7.619652896110513
 20
9.033866458483604
 30
0.0
 11
7.697777896110513
 21
9.111991458483604
 31
0.0
  0
LINE
  5
D53
330
D4B
100
AcDbEntity
  8
0
 62
     0
100
AcDbLine
 10
7.442876200813874
 20
9.033866458483604
 30
0.0
 11
7.521001200813874
 21
9.111991458483604
 31
0.0
  0
LINE
  5
D54
330
D4B
100
AcDbEntity
  8
0
 62
     0
100
AcDbLine
 10
7.266099505517237
 20
9.033866458483604
 30
0.0
 11
7.344224505517237
 21
9.111991458483604
 31
0.0
  0
LINE
  5
D55
330
D4B
100
AcDbEntity
  8
0
 62
     0
100
AcDbLine
 10
7.089322810220599
 20
9.033866458483604
 30
0.0
 11
7.167447810220601
 21
9.111991458483604
 31
0.0
  0
LINE
  5
D56
330
D4B
100
AcDbEntity
  8
0
 62
     0
100
AcDbLine
 10
6.912546114923963
 20
9.033866458483604
 30
0.0
 11
6.990671114923963
 21
9.111991458483604
 31
0.0
  0
LINE
  5
D57
330
D4B
100
AcDbEntity
  8
0
 62
     0
100
AcDbLine
 10
6.735769419627327
 20
9.033866458483604
 30
0.0
 11
6.813894419627327
 21
9.111991458483604
 31
0.0
  0
LINE
  5
D58
330
D4B
100
AcDbEntity
  8
0
 62
     0
100
AcDbLine
 10
6.558992724330688
 20
9.033866458483604
 30
0.0
 11
6.637117724330688
 21
9.111991458483604
 31
0.0
  0
LINE
  5
D59
330
D4B
100
AcDbEntity
  8
0
 62
     0
100
AcDbLine
 10
6.382216029034053
 20
9.033866458483604
 30
0.0
 11
6.460341029034053
 21
9.111991458483604
 31
0.0
  0
LINE
  5
D5A
330
D4B
100
AcDbEntity
  8
0
 62
     0
100
AcDbLine
 10
6.205439333737417
 20
9.033866458483604
 30
0.0
 11
6.283564333737417
 21
9.111991458483604
 31
0.0
  0
LINE
  5
D5B
330
D4B
100
AcDbEntity
  8
0
 62
     0
100
AcDbLine
 10
6.028662638440778
 20
9.033866458483604
 30
0.0
 11
6.10678763844078
 21
9.111991458483604
 31
0.0
  0
LINE
  5
D5C
330
D4B
100
AcDbEntity
  8
0
 62
     0
100
AcDbLine
 10
5.851885943144142
 20
9.033866458483604
 30
0.0
 11
5.930010943144142
 21
9.111991458483604
 31
0.0
  0
LINE
  5
D5D
330
D4B
100
AcDbEntity
  8
0
 62
     0
100
AcDbLine
 10
5.675109247847506
 20
9.033866458483604
 30
0.0
 11
5.753234247847506
 21
9.111991458483604
 31
0.0
  0
LINE
  5
D5E
330
D4B
100
AcDbEntity
  8
0
 62
     0
100
AcDbLine
 10
5.498332552550867
 20
9.033866458483604
 30
0.0
 11
5.576457552550867
 21
9.111991458483604
 31
0.0
  0
LINE
  5
D5F
330
D4B
100
AcDbEntity
  8
0
 62
     0
100
AcDbLine
 10
5.321555857254231
 20
9.033866458483604
 30
0.0
 11
5.399680857254231
 21
9.111991458483604
 31
0.0
  0
LINE
  5
D60
330
D4B
100
AcDbEntity
  8
0
 62
     0
100
AcDbLine
 10
5.144779161957593
 20
9.033866458483604
 30
0.0
 11
5.222904161957596
 21
9.111991458483604
 31
0.0
  0
LINE
  5
D61
330
D4B
100
AcDbEntity
  8
0
 62
     0
100
AcDbLine
 10
4.968002466660959
 20
9.033866458483604
 30
0.0
 11
5.046127466660959
 21
9.111991458483604
 31
0.0
  0
LINE
  5
D62
330
D4B
100
AcDbEntity
  8
0
 62
     0
100
AcDbLine
 10
4.71310077136432
 20
8.955741458483604
 30
0.0
 11
4.86935077136432
 21
9.111991458483604
 31
0.0
  0
LINE
  5
D63
330
D4B
100
AcDbEntity
  8
0
 62
     0
100
AcDbLine
 10
8.680313067890331
 20
9.033866458483604
 30
0.0
 11
8.758438067890331
 21
9.111991458483604
 31
0.0
  0
LINE
  5
D64
330
D4B
100
AcDbEntity
  8
0
 62
     0
100
AcDbLine
 10
8.857089763186968
 20
9.033866458483604
 30
0.0
 11
8.935214763186968
 21
9.111991458483604
 31
0.0
  0
LINE
  5
D65
330
D4B
100
AcDbEntity
  8
0
 62
     0
100
AcDbLine
 10
9.033866458483604
 20
9.033866458483604
 30
0.0
 11
9.111991458483604
 21
9.111991458483604
 31
0.0
  0
LINE
  5
D66
330
D4B
100
AcDbEntity
  8
0
 62
     0
100
AcDbLine
 10
9.210643153780242
 20
9.033866458483604
 30
0.0
 11
9.288768153780239
 21
9.111991458483604
 31
0.0
  0
LINE
  5
D67
330
D4B
100
AcDbEntity
  8
0
 62
     0
100
AcDbLine
 10
9.387419849076881
 20
9.033866458483604
 30
0.0
 11
9.465544849076881
 21
9.111991458483604
 31
0.0
  0
LINE
  5
D68
330
D4B
100
AcDbEntity
  8
0
 62
     0
100
AcDbLine
 10
9.564196544373515
 20
9.033866458483604
 30
0.0
 11
9.642321544373515
 21
9.111991458483604
 31
0.0
  0
LINE
  5
D69
330
D4B
100
AcDbEntity
  8
0
 62
     0
100
AcDbLine
 10
9.740973239670154
 20
9.033866458483604
 30
0.0
 11
9.819098239670154
 21
9.111991458483604
 31
0.0
  0
LINE
  5
D6A
330
D4B
100
AcDbEntity
  8
0
 62
     0
100
AcDbLine
 10
9.917749934966789
 20
9.033866458483604
 30
0.0
 11
9.995874934966789
 21
9.111991458483604
 31
0.0
  0
LINE
  5
D6B
330
D4B
100
AcDbEntity
  8
0
 62
     0
100
AcDbLine
 10
10.09452663026342
 20
9.033866458483604
 30
0.0
 11
10.17265163026342
 21
9.111991458483604
 31
0.0
  0
LINE
  5
D6C
330
D4B
100
AcDbEntity
  8
0
 62
     0
100
AcDbLine
 10
10.27130332556006
 20
9.033866458483604
 30
0.0
 11
10.34942832556006
 21
9.111991458483604
 31
0.0
  0
LINE
  5
D6D
330
D4B
100
AcDbEntity
  8
0
 62
     0
100
AcDbLine
 10
10.44808002085668
 20
9.033866458483604
 30
0.0
 11
10.52620502085668
 21
9.111991458483604
 31
0.0
  0
LINE
  5
D6E
330
D4B
100
AcDbEntity
  8
0
 62
     0
100
AcDbLine
 10
10.62485671615333
 20
9.033866458483604
 30
0.0
 11
10.70298171615333
 21
9.111991458483604
 31
0.0
  0
LINE
  5
D6F
330
D4B
100
AcDbEntity
  8
0
 62
     0
100
AcDbLine
 10
10.80163341144997
 20
9.033866458483604
 30
0.0
 11
10.87975841144997
 21
9.111991458483604
 31
0.0
  0
LINE
  5
D70
330
D4B
100
AcDbEntity
  8
0
 62
     0
100
AcDbLine
 10
10.97841010674659
 20
9.033866458483604
 30
0.0
 11
11.05653510674659
 21
9.111991458483604
 31
0.0
  0
LINE
  5
D71
330
D4B
100
AcDbEntity
  8
0
 62
     0
100
AcDbLine
 10
11.15518680204325
 20
9.033866458483604
 30
0.0
 11
11.23331180204325
 21
9.111991458483604
 31
0.0
  0
LINE
  5
D72
330
D4B
100
AcDbEntity
  8
0
 62
     0
100
AcDbLine
 10
11.33196349733988
 20
9.033866458483604
 30
0.0
 11
11.41008849733988
 21
9.111991458483604
 31
0.0
  0
LINE
  5
D73
330
D4B
100
AcDbEntity
  8
0
 62
     0
100
AcDbLine
 10
11.5087401926365
 20
9.033866458483604
 30
0.0
 11
11.5868651926365
 21
9.111991458483604
 31
0.0
  0
LINE
  5
D74
330
D4B
100
AcDbEntity
  8
0
 62
     0
100
AcDbLine
 10
11.68551688793316
 20
9.033866458483604
 30
0.0
 11
11.76364188793316
 21
9.111991458483604
 31
0.0
  0
LINE
  5
D75
330
D4B
100
AcDbEntity
  8
0
 62
     0
100
AcDbLine
 10
11.8432991232131
 20
9.014871998466915
 30
0.0
 11
11.93524995129766
 21
9.106822826551494
 31
0.0
  0
LINE
  5
D76
330
D4B
100
AcDbEntity
  8
0
 62
     0
100
AcDbLine
 10
11.88282027852642
 20
8.877616458483604
 30
0.0
 11
11.92092688245378
 21
8.915723062410959
 31
0.0
  0
LINE
  5
D77
330
D4B
100
AcDbEntity
  8
0
 62
     0
100
AcDbLine
 10
11.96094527852642
 20
8.955741458483604
 30
0.0
 11
12.02125265633521
 21
9.016048836292398
 31
0.0
  0
ENDBLK
  5
D78
330
D4B
100
AcDbEntity
  8
0
100
AcDbBlockEnd
  0
BLOCK
  5
D7A
330
D79
100
AcDbEntity
  8
0
100
AcDbBlockBegin
  2
*X1
 70
     1
 10
0.0
 20
0.0
 30
0.0
  3
*X1
  1

  0
LINE
  5
D7B
330
D79
100
AcDbEntity
  8
0
 62
     0
100
AcDbLine
 10
7.216099334942533
 20
4.564448905492983
 30
0.0
 11
7.294224334942534
 21
4.642573905492983
 31
0.0
  0
LINE
  5
D7C
330
D79
100
AcDbEntity
  8
0
 62
     0
100
AcDbLine
 10
7.039322639645898
 20
4.564448905492983
 30
0.0
 11
7.1174476396459
 21
4.642573905492983
 31
0.0
  0
LINE
  5
D7D
330
D79
100
AcDbEntity
  8
0
 62
     0
100
AcDbLine
 10
6.862545944349261
 20
4.564448905492983
 30
0.0
 11
6.940670944349262
 21
4.642573905492983
 31
0.0
  0
LINE
  5
D7E
330
D79
100
AcDbEntity
  8
0
 62
     0
100
AcDbLine
 10
6.685769249052624
 20
4.564448905492983
 30
0.0
 11
6.763894249052624
 21
4.642573905492983
 31
0.0
  0
LINE
  5
D7F
330
D79
100
AcDbEntity
  8
0
 62
     0
100
AcDbLine
 10
6.508992553755987
 20
4.564448905492983
 30
0.0
 11
6.587117553755987
 21
4.642573905492983
 31
0.0
  0
LINE
  5
D80
330
D79
100
AcDbEntity
  8
0
 62
     0
100
AcDbLine
 10
6.332215858459352
 20
4.564448905492983
 30
0.0
 11
6.410340858459352
 21
4.642573905492983
 31
0.0
  0
LINE
  5
D81
330
D79
100
AcDbEntity
  8
0
 62
     0
100
AcDbLine
 10
6.155439163162713
 20
4.564448905492983
 30
0.0
 11
6.233564163162713
 21
4.642573905492983
 31
0.0
  0
LINE
  5
D82
330
D79
100
AcDbEntity
  8
0
 62
     0
100
AcDbLine
 10
5.978662467866077
 20
4.564448905492983
 30
0.0
 11
6.056787467866078
 21
4.642573905492983
 31
0.0
  0
LINE
  5
D83
330
D79
100
AcDbEntity
  8
0
 62
     0
100
AcDbLine
 10
5.80188577256944
 20
4.564448905492983
 30
0.0
 11
5.88001077256944
 21
4.642573905492983
 31
0.0
  0
LINE
  5
D84
330
D79
100
AcDbEntity
  8
0
 62
     0
100
AcDbLine
 10
5.625109077272803
 20
4.564448905492983
 30
0.0
 11
5.703234077272805
 21
4.642573905492983
 31
0.0
  0
LINE
  5
D85
330
D79
100
AcDbEntity
  8
0
 62
     0
100
AcDbLine
 10
5.448332381976165
 20
4.564448905492983
 30
0.0
 11
5.526457381976166
 21
4.642573905492983
 31
0.0
  0
LINE
  5
D86
330
D79
100
AcDbEntity
  8
0
 62
     0
100
AcDbLine
 10
5.271555686679528
 20
4.564448905492983
 30
0.0
 11
5.349680686679531
 21
4.642573905492983
 31
0.0
  0
LINE
  5
D87
330
D79
100
AcDbEntity
  8
0
 62
     0
100
AcDbLine
 10
5.094778991382891
 20
4.564448905492983
 30
0.0
 11
5.172903991382892
 21
4.642573905492983
 31
0.0
  0
LINE
  5
D88
330
D79
100
AcDbEntity
  8
0
 62
     0
100
AcDbLine
 10
4.918002296086255
 20
4.564448905492983
 30
0.0
 11
4.996127296086255
 21
4.642573905492983
 31
0.0
  0
LINE
  5
D89
330
D79
100
AcDbEntity
  8
0
 62
     0
100
AcDbLine
 10
4.760587299987386
 20
4.583810604690752
 30
0.0
 11
4.827419300429125
 21
4.650642605132491
 31
0.0
  0
LINE
  5
D8A
330
D79
100
AcDbEntity
  8
0
 62
     0
100
AcDbLine
 10
4.701901035386358
 20
4.701901035386358
 30
0.0
 11
4.792542896621863
 21
4.792542896621863
 31
0.0
  0
LINE
  5
D8B
330
D79
100
AcDbEntity
  8
0
 62
     0
100
AcDbLine
 10
4.695936155358877
 20
4.872712850655513
 30
0.0
 11
4.786578016594384
 21
4.963354711891018
 31
0.0
  0
LINE
  5
D8C
330
D79
100
AcDbEntity
  8
0
 62
     0
100
AcDbLine
 10
4.689971275331396
 20
5.04352466592467
 30
0.0
 11
4.780613136566901
 21
5.134166527160176
 31
0.0
  0
LINE
  5
D8D
330
D79
100
AcDbEntity
  8
0
 62
     0
100
AcDbLine
 10
4.684006395303915
 20
5.214336481193824
 30
0.0
 11
4.774648256539419
 21
5.304978342429331
 31
0.0
  0
LINE
  5
D8E
330
D79
100
AcDbEntity
  8
0
 62
     0
100
AcDbLine
 10
4.678041515276434
 20
5.385148296462981
 30
0.0
 11
4.768683376511938
 21
5.475790157698487
 31
0.0
  0
LINE
  5
D8F
330
D79
100
AcDbEntity
  8
0
 62
     0
100
AcDbLine
 10
4.672076635248951
 20
5.555960111732137
 30
0.0
 11
4.762718496484455
 21
5.646601972967641
 31
0.0
  0
LINE
  5
D90
330
D79
100
AcDbEntity
  8
0
 62
     0
100
AcDbLine
 10
4.666111755221471
 20
5.726771927001292
 30
0.0
 11
4.756753616456975
 21
5.817413788236796
 31
0.0
  0
LINE
  5
D91
330
D79
100
AcDbEntity
  8
0
 62
     0
100
AcDbLine
 10
4.660146875193991
 20
5.897583742270446
 30
0.0
 11
4.750788736429495
 21
5.98822560350595
 31
0.0
  0
LINE
  5
D92
330
D79
100
AcDbEntity
  8
0
 62
     0
100
AcDbLine
 10
4.654181995166509
 20
6.068395557539603
 30
0.0
 11
4.744823856402011
 21
6.159037418775107
 31
0.0
  0
LINE
  5
D93
330
D79
100
AcDbEntity
  8
0
 62
     0
100
AcDbLine
 10
4.648217115139027
 20
6.239207372808762
 30
0.0
 11
4.738858976374531
 21
6.329849234044263
 31
0.0
  0
LINE
  5
D94
330
D79
100
AcDbEntity
  8
0
 62
     0
100
AcDbLine
 10
4.642252235111548
 20
6.410019188077916
 30
0.0
 11
4.732894096347048
 21
6.500661049313419
 31
0.0
  0
LINE
  5
D95
330
D79
100
AcDbEntity
  8
0
 62
     0
100
AcDbLine
 10
4.636287355084065
 20
6.58083100334707
 30
0.0
 11
4.682405257229977
 21
6.626948905492982
 31
0.0
  0
LINE
  5
D96
330
D79
100
AcDbEntity
  8
0
 62
     0
100
AcDbLine
 10
7.392876030239173
 20
4.564448905492983
 30
0.0
 11
7.471001030239174
 21
4.642573905492983
 31
0.0
  0
LINE
  5
D97
330
D79
100
AcDbEntity
  8
0
 62
     0
100
AcDbLine
 10
7.569652725535807
 20
4.564448905492983
 30
0.0
 11
7.647777725535808
 21
4.642573905492983
 31
0.0
  0
LINE
  5
D98
330
D79
100
AcDbEntity
  8
0
 62
     0
100
AcDbLine
 10
7.746429420832447
 20
4.564448905492983
 30
0.0
 11
7.824554420832447
 21
4.642573905492983
 31
0.0
  0
LINE
  5
D99
330
D79
100
AcDbEntity
  8
0
 62
     0
100
AcDbLine
 10
7.92320611612908
 20
4.564448905492983
 30
0.0
 11
8.001331116129081
 21
4.642573905492983
 31
0.0
  0
LINE
  5
D9A
330
D79
100
AcDbEntity
  8
0
 62
     0
100
AcDbLine
 10
8.099982811425718
 20
4.564448905492983
 30
0.0
 11
8.178107811425718
 21
4.642573905492983
 31
0.0
  0
LINE
  5
D9B
330
D79
100
AcDbEntity
  8
0
 62
     0
100
AcDbLine
 10
8.276759506722356
 20
4.564448905492983
 30
0.0
 11
8.354884506722356
 21
4.642573905492983
 31
0.0
  0
LINE
  5
D9C
330
D79
100
AcDbEntity
  8
0
 62
     0
100
AcDbLine
 10
8.453536202018995
 20
4.564448905492983
 30
0.0
 11
8.531661202018995
 21
4.642573905492983
 31
0.0
  0
LINE
  5
D9D
330
D79
100
AcDbEntity
  8
0
 62
     0
100
AcDbLine
 10
8.630312897315628
 20
4.564448905492983
 30
0.0
 11
8.708437897315628
 21
4.642573905492983
 31
0.0
  0
LINE
  5
D9E
330
D79
100
AcDbEntity
  8
0
 62
     0
100
AcDbLine
 10
8.807089592612268
 20
4.564448905492983
 30
0.0
 11
8.885214592612268
 21
4.642573905492983
 31
0.0
  0
LINE
  5
D9F
330
D79
100
AcDbEntity
  8
0
 62
     0
100
AcDbLine
 10
8.983866287908904
 20
4.564448905492983
 30
0.0
 11
9.061991287908906
 21
4.642573905492983
 31
0.0
  0
LINE
  5
DA0
330
D79
100
AcDbEntity
  8
0
 62
     0
100
AcDbLine
 10
9.160642983205539
 20
4.564448905492983
 30
0.0
 11
9.238767983205539
 21
4.642573905492983
 31
0.0
  0
LINE
  5
DA1
330
D79
100
AcDbEntity
  8
0
 62
     0
100
AcDbLine
 10
9.337419678502179
 20
4.564448905492983
 30
0.0
 11
9.415544678502179
 21
4.642573905492983
 31
0.0
  0
LINE
  5
DA2
330
D79
100
AcDbEntity
  8
0
 62
     0
100
AcDbLine
 10
9.514196373798814
 20
4.564448905492983
 30
0.0
 11
9.592321373798814
 21
4.642573905492983
 31
0.0
  0
LINE
  5
DA3
330
D79
100
AcDbEntity
  8
0
 62
     0
100
AcDbLine
 10
9.690973069095452
 20
4.564448905492983
 30
0.0
 11
9.769098069095452
 21
4.642573905492983
 31
0.0
  0
LINE
  5
DA4
330
D79
100
AcDbEntity
  8
0
 62
     0
100
AcDbLine
 10
9.867749764392087
 20
4.564448905492983
 30
0.0
 11
9.945874764392087
 21
4.642573905492983
 31
0.0
  0
LINE
  5
DA5
330
D79
100
AcDbEntity
  8
0
 62
     0
100
AcDbLine
 10
10.04452645968872
 20
4.564448905492983
 30
0.0
 11
10.12265145968872
 21
4.642573905492983
 31
0.0
  0
LINE
  5
DA6
330
D79
100
AcDbEntity
  8
0
 62
     0
100
AcDbLine
 10
11.92501371248614
 20
6.444936158290403
 30
0.0
 11
12.0222152082935
 21
6.542137654097759
 31
0.0
  0
LINE
  5
DA7
330
D79
100
AcDbEntity
  8
0
 62
     0
100
AcDbLine
 10
10.22130315498536
 20
4.564448905492983
 30
0.0
 11
10.29942815498536
 21
4.642573905492983
 31
0.0
  0
LINE
  5
DA8
330
D79
100
AcDbEntity
  8
0
 62
     0
100
AcDbLine
 10
11.9186171617856
 20
6.261762912293244
 30
0.0
 11
12.01581865759298
 21
6.358964408100598
 31
0.0
  0
LINE
  5
DA9
330
D79
100
AcDbEntity
  8
0
 62
     0
100
AcDbLine
 10
10.398079850282
 20
4.564448905492983
 30
0.0
 11
10.476204850282
 21
4.642573905492983
 31
0.0
  0
LINE
  5
DAA
330
D79
100
AcDbEntity
  8
0
 62
     0
100
AcDbLine
 10
11.9122206110851
 20
6.078589666296084
 30
0.0
 11
12.00942210689246
 21
6.175791162103442
 31
0.0
  0
LINE
  5
DAB
330
D79
100
AcDbEntity
  8
0
 62
     0
100
AcDbLine
 10
10.57485654557863
 20
4.564448905492983
 30
0.0
 11
10.65298154557863
 21
4.642573905492983
 31
0.0
  0
LINE
  5
DAC
330
D79
100
AcDbEntity
  8
0
 62
     0
100
AcDbLine
 10
11.90582406038458
 20
5.895416420298928
 30
0.0
 11
12.00302555619193
 21
5.992617916106283
 31
0.0
  0
LINE
  5
DAD
330
D79
100
AcDbEntity
  8
0
 62
     0
100
AcDbLine
 10
10.75163324087527
 20
4.564448905492983
 30
0.0
 11
10.82975824087527
 21
4.642573905492983
 31
0.0
  0
LINE
  5
DAE
330
D79
100
AcDbEntity
  8
0
 62
     0
100
AcDbLine
 10
11.89942750968405
 20
5.712243174301768
 30
0.0
 11
11.99662900549139
 21
5.809444670109123
 31
0.0
  0
LINE
  5
DAF
330
D79
100
AcDbEntity
  8
0
 62
     0
100
AcDbLine
 10
10.92840993617191
 20
4.564448905492983
 30
0.0
 11
11.00653493617191
 21
4.642573905492983
 31
0.0
  0
LINE
  5
DB0
330
D79
100
AcDbEntity
  8
0
 62
     0
100
AcDbLine
 10
11.89303095898351
 20
5.529069928304609
 30
0.0
 11
11.99023245479089
 21
5.626271424111966
 31
0.0
  0
LINE
  5
DB1
330
D79
100
AcDbEntity
  8
0
 62
     0
100
AcDbLine
 10
11.10518663146853
 20
4.564448905492983
 30
0.0
 11
11.18331163146853
 21
4.642573905492983
 31
0.0
  0
LINE
  5
DB2
330
D79
100
AcDbEntity
  8
0
 62
     0
100
AcDbLine
 10
11.88663440828299
 20
5.345896682307452
 30
0.0
 11
11.98383590409035
 21
5.443098178114809
 31
0.0
  0
LINE
  5
DB3
330
D79
100
AcDbEntity
  8
0
 62
     0
100
AcDbLine
 10
11.28196332676518
 20
4.564448905492983
 30
0.0
 11
11.36008832676518
 21
4.642573905492983
 31
0.0
  0
LINE
  5
DB4
330
D79
100
AcDbEntity
  8
0
 62
     0
100
AcDbLine
 10
11.88023785758248
 20
5.162723436310293
 30
0.0
 11
11.97743935338984
 21
5.259924932117648
 31
0.0
  0
LINE
  5
DB5
330
D79
100
AcDbEntity
  8
0
 62
     0
100
AcDbLine
 10
11.45874002206181
 20
4.564448905492983
 30
0.0
 11
11.53686502206181
 21
4.642573905492983
 31
0.0
  0
LINE
  5
DB6
330
D79
100
AcDbEntity
  8
0
 62
     0
100
AcDbLine
 10
11.87384130688196
 20
4.979550190313134
 30
0.0
 11
11.97104280268933
 21
5.07675168612049
 31
0.0
  0
LINE
  5
DB7
330
D79
100
AcDbEntity
  8
0
 62
     0
100
AcDbLine
 10
11.63551671735844
 20
4.564448905492983
 30
0.0
 11
11.71364171735844
 21
4.642573905492983
 31
0.0
  0
LINE
  5
DB8
330
D79
100
AcDbEntity
  8
0
 62
     0
100
AcDbLine
 10
11.86744475618145
 20
4.796376944315976
 30
0.0
 11
11.9646462519888
 21
4.893578440123333
 31
0.0
  0
LINE
  5
DB9
330
D79
100
AcDbEntity
  8
0
 62
     0
100
AcDbLine
 10
11.81229341265509
 20
4.564448905492983
 30
0.0
 11
11.95824970128828
 21
4.710405194126175
 31
0.0
  0
ENDBLK
  5
DBA
330
D79
100
AcDbEntity
  8
0
100
AcDbBlockEnd
  0
BLOCK
  5
F12
330
F07
100
AcDbEntity
  8
0
100
AcDbBlockBegin
  2
*D2
 70
     1
 10
0.0
 20
0.0
 30
0.0
  3
*D2
  1

  0
LINE
  5
2956
330
F07
100
AcDbEntity
  8
DIM
 62
     0
370
    -2
100
AcDbLine
 10
7.105631808727619
 20
21.37892793094382
 30
0.0
 11
8.468869429651464
 21
21.37892793094382
 31
0.0
  0
LINE
  5
2957
330
F07
100
AcDbEntity
  8
DIM
 62
     0
370
    -2
100
AcDbLine
 10
7.105631808727619
 20
14.37892793094384
 30
0.0
 11
8.468869429651462
 21
14.37892793094384
 31
0.0
  0
LINE
  5
2958
330
F07
100
AcDbEntity
  8
DIM
 62
     0
370
    -2
100
AcDbLine
 10
8.259619429651463
 20
20.97392793094382
 30
0.0
 11
8.25961942965146
 21
18.22205293094382
 31
0.0
  0
LINE
  5
2959
330
F07
100
AcDbEntity
  8
DIM
 62
     0
370
    -2
100
AcDbLine
 10
8.25961942965146
 20
14.78392793094384
 30
0.0
 11
8.25961942965146
 21
17.53580293094383
 31
0.0
  0
SOLID
  5
295A
330
F07
100
AcDbEntity
  8
DIM
 62
     0
100
AcDbTrace
 10
8.192119429651462
 20
20.97392793094382
 30
0.0
 11
8.327119429651464
 21
20.97392793094382
 31
0.0
 12
8.259619429651463
 22
21.37892793094382
 32
0.0
 13
8.259619429651463
 23
21.37892793094382
 33
0.0
  0
SOLID
  5
295B
330
F07
100
AcDbEntity
  8
DIM
 62
     0
100
AcDbTrace
 10
8.192119429651461
 20
14.78392793094384
 30
0.0
 11
8.327119429651462
 21
14.78392793094384
 31
0.0
 12
8.25961942965146
 22
14.37892793094384
 32
0.0
 13
8.25961942965146
 23
14.37892793094384
 33
0.0
  0
MTEXT
  5
295C
330
F07
100
AcDbEntity
  8
DIM
 62
     0
100
AcDbMText
 10
8.25961942965146
 20
17.87892793094384
 30
0.0
 40
0.28125
 41
0.0
 71
     5
 72
     1
  1
\A1;E
  7
TXT
 73
     1
 44
1.0
  0
POINT
  5
295D
330
F07
100
AcDbEntity
  8
DEFPOINTS
 62
     0
100
AcDbPoint
 10
6.963881808727619
 20
21.37892793094382
 30
0.0
  0
POINT
  5
295E
330
F07
100
AcDbEntity
  8
DEFPOINTS
 62
     0
100
AcDbPoint
 10
6.963881808727619
 20
14.37892793094384
 30
0.0
  0
POINT
  5
295F
330
F07
100
AcDbEntity
  8
DEFPOINTS
 62
     0
100
AcDbPoint
 10
8.25961942965146
 20
14.37892793094384
 30
0.0
  0
ENDBLK
  5
F13
330
F07
100
AcDbEntity
  8
0
100
AcDbBlockEnd
  0
BLOCK
  5
F20
330
F15
100
AcDbEntity
  8
0
100
AcDbBlockBegin
  2
*D3
 70
     1
 10
0.0
 20
0.0
 30
0.0
  3
*D3
  1

  0
LINE
  5
294C
330
F15
100
AcDbEntity
  8
DIM
 62
     0
370
    -2
100
AcDbLine
 10
7.11313180872762
 20
21.57392793094382
 30
0.0
 11
9.052040448759392
 21
21.57392793094382
 31
0.0
  0
LINE
  5
294D
330
F15
100
AcDbEntity
  8
DIM
 62
     0
370
    -2
100
AcDbLine
 10
7.11313180872762
 20
14.18392793094383
 30
0.0
 11
9.052040448759392
 21
14.18392793094383
 31
0.0
  0
LINE
  5
294E
330
F15
100
AcDbEntity
  8
DIM
 62
     0
370
    -2
100
AcDbLine
 10
8.842790448759393
 20
21.16892793094382
 30
0.0
 11
8.842790448759389
 21
18.22205293094382
 31
0.0
  0
LINE
  5
294F
330
F15
100
AcDbEntity
  8
DIM
 62
     0
370
    -2
100
AcDbLine
 10
8.842790448759389
 20
14.58892793094384
 30
0.0
 11
8.842790448759389
 21
17.53580293094383
 31
0.0
  0
SOLID
  5
2950
330
F15
100
AcDbEntity
  8
DIM
 62
     0
100
AcDbTrace
 10
8.775290448759392
 20
21.16892793094382
 30
0.0
 11
8.910290448759392
 21
21.16892793094382
 31
0.0
 12
8.842790448759393
 22
21.57392793094382
 32
0.0
 13
8.842790448759393
 23
21.57392793094382
 33
0.0
  0
SOLID
  5
2951
330
F15
100
AcDbEntity
  8
DIM
 62
     0
100
AcDbTrace
 10
8.77529044875939
 20
14.58892793094384
 30
0.0
 11
8.910290448759392
 21
14.58892793094384
 31
0.0
 12
8.842790448759389
 22
14.18392793094383
 32
0.0
 13
8.842790448759389
 23
14.18392793094383
 33
0.0
  0
MTEXT
  5
2952
330
F15
100
AcDbEntity
  8
DIM
 62
     0
100
AcDbMText
 10
8.842790448759389
 20
17.87892793094384
 30
0.0
 40
0.28125
 41
0.0
 71
     5
 72
     1
  1
\A1;A
  7
TXT
 73
     1
 44
1.0
  0
POINT
  5
2953
330
F15
100
AcDbEntity
  8
DEFPOINTS
 62
     0
100
AcDbPoint
 10
6.97138180872762
 20
21.57392793094382
 30
0.0
  0
POINT
  5
2954
330
F15
100
AcDbEntity
  8
DEFPOINTS
 62
     0
100
AcDbPoint
 10
6.97138180872762
 20
14.18392793094383
 30
0.0
  0
POINT
  5
2955
330
F15
100
AcDbEntity
  8
DEFPOINTS
 62
     0
100
AcDbPoint
 10
8.842790448759389
 20
14.18392793094383
 30
0.0
  0
ENDBLK
  5
F21
330
F15
100
AcDbEntity
  8
0
100
AcDbBlockEnd
  0
BLOCK
  5
F2E
330
F23
100
AcDbEntity
  8
0
100
AcDbBlockBegin
  2
*D4
 70
     1
 10
0.0
 20
0.0
 30
0.0
  3
*D4
  1

  0
LINE
  5
299D
330
F23
100
AcDbEntity
  8
DIM
 62
     0
370
    -2
100
AcDbLine
 10
2.651381808727616
 20
21.52067793094382
 30
0.0
 11
2.651381808727616
 21
23.13547050979662
 31
0.0
  0
LINE
  5
299E
330
F23
100
AcDbEntity
  8
DIM
 62
     0
370
    -2
100
AcDbLine
 10
6.963881808727619
 20
21.52067793094382
 30
0.0
 11
6.963881808727619
 21
23.13547050979662
 31
0.0
  0
LINE
  5
299F
330
F23
100
AcDbEntity
  8
DIM
 62
     0
370
    -2
100
AcDbLine
 10
3.056381808727616
 20
22.92622050979661
 30
0.0
 11
4.534819308727619
 21
22.92622050979661
 31
0.0
  0
LINE
  5
29A0
330
F23
100
AcDbEntity
  8
DIM
 62
     0
370
    -2
100
AcDbLine
 10
6.558881808727619
 20
22.92622050979661
 30
0.0
 11
5.080444308727618
 21
22.92622050979661
 31
0.0
  0
SOLID
  5
29A1
330
F23
100
AcDbEntity
  8
DIM
 62
     0
100
AcDbTrace
 10
3.056381808727616
 20
22.9937205097966
 30
0.0
 11
3.056381808727616
 21
22.85872050979662
 31
0.0
 12
2.651381808727616
 22
22.92622050979661
 32
0.0
 13
2.651381808727616
 23
22.92622050979661
 33
0.0
  0
SOLID
  5
29A2
330
F23
100
AcDbEntity
  8
DIM
 62
     0
100
AcDbTrace
 10
6.558881808727619
 20
22.9937205097966
 30
0.0
 11
6.558881808727619
 21
22.85872050979662
 31
0.0
 12
6.963881808727619
 22
22.92622050979661
 32
0.0
 13
6.963881808727619
 23
22.92622050979661
 33
0.0
  0
MTEXT
  5
29A3
330
F23
100
AcDbEntity
  8
DIM
 62
     0
100
AcDbMText
 10
4.807631808727618
 20
22.92622050979661
 30
0.0
 40
0.28125
 41
0.0
 71
     5
 72
     1
  1
\A1;F
  7
TXT
 73
     1
 44
1.0
  0
POINT
  5
29A4
330
F23
100
AcDbEntity
  8
DEFPOINTS
 62
     0
100
AcDbPoint
 10
2.651381808727616
 20
21.37892793094382
 30
0.0
  0
POINT
  5
29A5
330
F23
100
AcDbEntity
  8
DEFPOINTS
 62
     0
100
AcDbPoint
 10
6.963881808727619
 20
21.37892793094382
 30
0.0
  0
POINT
  5
29A6
330
F23
100
AcDbEntity
  8
DEFPOINTS
 62
     0
100
AcDbPoint
 10
6.963881808727619
 20
22.92622050979661
 30
0.0
  0
ENDBLK
  5
F2F
330
F23
100
AcDbEntity
  8
0
100
AcDbBlockEnd
  0
BLOCK
  5
F3C
330
F31
100
AcDbEntity
  8
0
100
AcDbBlockBegin
  2
*D5
 70
     1
 10
0.0
 20
0.0
 30
0.0
  3
*D5
  1

  0
LINE
  5
2993
330
F31
100
AcDbEntity
  8
DIM
 62
     0
370
    -2
100
AcDbLine
 10
2.456381808727615
 20
21.52817793094382
 30
0.0
 11
2.456381808727615
 21
23.67853922161723
 31
0.0
  0
LINE
  5
2994
330
F31
100
AcDbEntity
  8
DIM
 62
     0
370
    -2
100
AcDbLine
 10
7.15888180872762
 20
21.52817793094382
 30
0.0
 11
7.15888180872762
 21
23.67853922161723
 31
0.0
  0
LINE
  5
2995
330
F31
100
AcDbEntity
  8
DIM
 62
     0
370
    -2
100
AcDbLine
 10
2.861381808727616
 20
23.46928922161723
 30
0.0
 11
4.534819308727619
 21
23.46928922161723
 31
0.0
  0
LINE
  5
2996
330
F31
100
AcDbEntity
  8
DIM
 62
     0
370
    -2
100
AcDbLine
 10
6.75388180872762
 20
23.46928922161723
 30
0.0
 11
5.080444308727618
 21
23.46928922161723
 31
0.0
  0
SOLID
  5
2997
330
F31
100
AcDbEntity
  8
DIM
 62
     0
100
AcDbTrace
 10
2.861381808727616
 20
23.53678922161721
 30
0.0
 11
2.861381808727616
 21
23.40178922161723
 31
0.0
 12
2.456381808727615
 22
23.46928922161723
 32
0.0
 13
2.456381808727615
 23
23.46928922161723
 33
0.0
  0
SOLID
  5
2998
330
F31
100
AcDbEntity
  8
DIM
 62
     0
100
AcDbTrace
 10
6.75388180872762
 20
23.53678922161721
 30
0.0
 11
6.75388180872762
 21
23.40178922161723
 31
0.0
 12
7.15888180872762
 22
23.46928922161723
 32
0.0
 13
7.15888180872762
 23
23.46928922161723
 33
0.0
  0
MTEXT
  5
2999
330
F31
100
AcDbEntity
  8
DIM
 62
     0
100
AcDbMText
 10
4.807631808727618
 20
23.46928922161723
 30
0.0
 40
0.28125
 41
0.0
 71
     5
 72
     1
  1
\A1;B
  7
TXT
 73
     1
 44
1.0
  0
POINT
  5
299A
330
F31
100
AcDbEntity
  8
DEFPOINTS
 62
     0
100
AcDbPoint
 10
2.456381808727615
 20
21.38642793094382
 30
0.0
  0
POINT
  5
299B
330
F31
100
AcDbEntity
  8
DEFPOINTS
 62
     0
100
AcDbPoint
 10
7.15888180872762
 20
21.38642793094382
 30
0.0
  0
POINT
  5
299C
330
F31
100
AcDbEntity
  8
DEFPOINTS
 62
     0
100
AcDbPoint
 10
7.15888180872762
 20
23.46928922161723
 30
0.0
  0
ENDBLK
  5
F3D
330
F31
100
AcDbEntity
  8
0
100
AcDbBlockEnd
  0
BLOCK
  5
FA0
330
F95
100
AcDbEntity
  8
0
100
AcDbBlockBegin
  2
*D6
 70
     1
 10
0.0
 20
0.0
 30
0.0
  3
*D6
  1

  0
LINE
  5
2942
330
F95
100
AcDbEntity
  8
DIM
 62
     0
370
    -2
100
AcDbLine
 10
7.105631808727619
 20
14.37892793094384
 30
0.0
 11
7.866015267392826
 21
14.37892793094384
 31
0.0
  0
LINE
  5
2943
330
F95
100
AcDbEntity
  8
DIM
 62
     0
370
    -2
100
AcDbLine
 10
7.105631808727619
 20
17.87892793094384
 30
0.0
 11
7.866015267392826
 21
17.87892793094384
 31
0.0
  0
LINE
  5
2944
330
F95
100
AcDbEntity
  8
DIM
 62
     0
370
    -2
100
AcDbLine
 10
7.656765267392826
 20
14.78392793094384
 30
0.0
 11
7.656765267392826
 21
15.78580293094383
 31
0.0
  0
LINE
  5
2945
330
F95
100
AcDbEntity
  8
DIM
 62
     0
370
    -2
100
AcDbLine
 10
7.656765267392826
 20
17.47392793094383
 30
0.0
 11
7.656765267392826
 21
16.47205293094383
 31
0.0
  0
SOLID
  5
2946
330
F95
100
AcDbEntity
  8
DIM
 62
     0
100
AcDbTrace
 10
7.589265267392826
 20
14.78392793094384
 30
0.0
 11
7.724265267392826
 21
14.78392793094384
 31
0.0
 12
7.656765267392826
 22
14.37892793094384
 32
0.0
 13
7.656765267392826
 23
14.37892793094384
 33
0.0
  0
SOLID
  5
2947
330
F95
100
AcDbEntity
  8
DIM
 62
     0
100
AcDbTrace
 10
7.589265267392826
 20
17.47392793094383
 30
0.0
 11
7.724265267392826
 21
17.47392793094383
 31
0.0
 12
7.656765267392826
 22
17.87892793094384
 32
0.0
 13
7.656765267392826
 23
17.87892793094384
 33
0.0
  0
MTEXT
  5
2948
330
F95
100
AcDbEntity
  8
DIM
 62
     0
100
AcDbMText
 10
7.656765267392822
 20
16.12892793094383
 30
0.0
 40
0.28125
 41
0.0
 71
     5
 72
     1
  1
\A1;G
  7
TXT
 73
     1
 44
1.0
  0
POINT
  5
2949
330
F95
100
AcDbEntity
  8
DEFPOINTS
 62
     0
100
AcDbPoint
 10
6.963881808727619
 20
14.37892793094384
 30
0.0
  0
POINT
  5
294A
330
F95
100
AcDbEntity
  8
DEFPOINTS
 62
     0
100
AcDbPoint
 10
6.963881808727619
 20
17.87892793094384
 30
0.0
  0
POINT
  5
294B
330
F95
100
AcDbEntity
  8
DEFPOINTS
 62
     0
100
AcDbPoint
 10
7.656765267392826
 20
17.87892793094384
 30
0.0
  0
ENDBLK
  5
FA1
330
F95
100
AcDbEntity
  8
0
100
AcDbBlockEnd
  0
BLOCK
  5
FCB
330
FC0
100
AcDbEntity
  8
0
100
AcDbBlockBegin
  2
*D7
 70
     1
 10
0.0
 20
0.0
 30
0.0
  3
*D7
  1

  0
LINE
  5
290F
330
FC0
100
AcDbEntity
  8
DIM
 62
     0
370
    -2
100
AcDbLine
 10
7.105631808727626
 20
25.19549485352253
 30
0.0
 11
8.468869429651459
 21
25.19549485352253
 31
0.0
  0
LINE
  5
2910
330
FC0
100
AcDbEntity
  8
DIM
 62
     0
370
    -2
100
AcDbLine
 10
7.105631808727626
 20
32.19549485352254
 30
0.0
 11
8.468869429651462
 21
32.19549485352254
 31
0.0
  0
LINE
  5
2911
330
FC0
100
AcDbEntity
  8
DIM
 62
     0
370
    -2
100
AcDbLine
 10
8.25961942965146
 20
25.60049485352253
 30
0.0
 11
8.259619429651463
 21
28.35236985352253
 31
0.0
  0
LINE
  5
2912
330
FC0
100
AcDbEntity
  8
DIM
 62
     0
370
    -2
100
AcDbLine
 10
8.259619429651463
 20
31.79049485352253
 30
0.0
 11
8.259619429651463
 21
29.03861985352254
 31
0.0
  0
SOLID
  5
2913
330
FC0
100
AcDbEntity
  8
DIM
 62
     0
100
AcDbTrace
 10
8.192119429651461
 20
25.60049485352253
 30
0.0
 11
8.327119429651462
 21
25.60049485352253
 31
0.0
 12
8.25961942965146
 22
25.19549485352253
 32
0.0
 13
8.25961942965146
 23
25.19549485352253
 33
0.0
  0
SOLID
  5
2914
330
FC0
100
AcDbEntity
  8
DIM
 62
     0
100
AcDbTrace
 10
8.192119429651462
 20
31.79049485352253
 30
0.0
 11
8.327119429651464
 21
31.79049485352253
 31
0.0
 12
8.259619429651463
 22
32.19549485352254
 32
0.0
 13
8.259619429651463
 23
32.19549485352254
 33
0.0
  0
MTEXT
  5
2915
330
FC0
100
AcDbEntity
  8
DIM
 62
     0
100
AcDbMText
 10
8.259619429651456
 20
28.69549485352253
 30
0.0
 40
0.28125
 41
0.0
 71
     5
 72
     1
  1
\A1;E
  7
TXT
 73
     1
 44
1.0
  0
POINT
  5
2916
330
FC0
100
AcDbEntity
  8
DEFPOINTS
 62
     0
100
AcDbPoint
 10
6.963881808727624
 20
25.19549485352253
 30
0.0
  0
POINT
  5
2917
330
FC0
100
AcDbEntity
  8
DEFPOINTS
 62
     0
100
AcDbPoint
 10
6.963881808727624
 20
32.19549485352254
 30
0.0
  0
POINT
  5
2918
330
FC0
100
AcDbEntity
  8
DEFPOINTS
 62
     0
100
AcDbPoint
 10
8.259619429651463
 20
32.19549485352254
 30
0.0
  0
ENDBLK
  5
FCC
330
FC0
100
AcDbEntity
  8
0
100
AcDbBlockEnd
  0
BLOCK
  5
FD9
330
FCE
100
AcDbEntity
  8
0
100
AcDbBlockBegin
  2
*D8
 70
     1
 10
0.0
 20
0.0
 30
0.0
  3
*D8
  1

  0
LINE
  5
2905
330
FCE
100
AcDbEntity
  8
DIM
 62
     0
370
    -2
100
AcDbLine
 10
7.113131808727625
 20
32.39049485352254
 30
0.0
 11
9.052040448759395
 21
32.39049485352254
 31
0.0
  0
LINE
  5
2906
330
FCE
100
AcDbEntity
  8
DIM
 62
     0
370
    -2
100
AcDbLine
 10
7.113131808727625
 20
25.00049485352254
 30
0.0
 11
9.052040448759392
 21
25.00049485352253
 31
0.0
  0
LINE
  5
2907
330
FCE
100
AcDbEntity
  8
DIM
 62
     0
370
    -2
100
AcDbLine
 10
8.842790448759394
 20
31.98549485352252
 30
0.0
 11
8.842790448759394
 21
29.03861985352254
 31
0.0
  0
LINE
  5
2908
330
FCE
100
AcDbEntity
  8
DIM
 62
     0
370
    -2
100
AcDbLine
 10
8.842790448759393
 20
25.40549485352253
 30
0.0
 11
8.842790448759394
 21
28.35236985352253
 31
0.0
  0
SOLID
  5
2909
330
FCE
100
AcDbEntity
  8
DIM
 62
     0
100
AcDbTrace
 10
8.775290448759394
 20
31.98549485352252
 30
0.0
 11
8.910290448759395
 21
31.98549485352252
 31
0.0
 12
8.842790448759394
 22
32.39049485352254
 32
0.0
 13
8.842790448759394
 23
32.39049485352254
 33
0.0
  0
SOLID
  5
290A
330
FCE
100
AcDbEntity
  8
DIM
 62
     0
100
AcDbTrace
 10
8.775290448759392
 20
25.40549485352253
 30
0.0
 11
8.910290448759392
 21
25.40549485352253
 31
0.0
 12
8.842790448759393
 22
25.00049485352253
 32
0.0
 13
8.842790448759393
 23
25.00049485352253
 33
0.0
  0
MTEXT
  5
290B
330
FCE
100
AcDbEntity
  8
DIM
 62
     0
100
AcDbMText
 10
8.842790448759389
 20
28.69549485352253
 30
0.0
 40
0.28125
 41
0.0
 71
     5
 72
     1
  1
\A1;A
  7
TXT
 73
     1
 44
1.0
  0
POINT
  5
290C
330
FCE
100
AcDbEntity
  8
DEFPOINTS
 62
     0
100
AcDbPoint
 10
6.971381808727625
 20
32.39049485352254
 30
0.0
  0
POINT
  5
290D
330
FCE
100
AcDbEntity
  8
DEFPOINTS
 62
     0
100
AcDbPoint
 10
6.971381808727625
 20
25.00049485352254
 30
0.0
  0
POINT
  5
290E
330
FCE
100
AcDbEntity
  8
DEFPOINTS
 62
     0
100
AcDbPoint
 10
8.842790448759393
 20
25.00049485352253
 30
0.0
  0
ENDBLK
  5
FDA
330
FCE
100
AcDbEntity
  8
0
100
AcDbBlockEnd
  0
BLOCK
  5
FE7
330
FDC
100
AcDbEntity
  8
0
100
AcDbBlockBegin
  2
*D9
 70
     1
 10
0.0
 20
0.0
 30
0.0
  3
*D9
  1

  0
LINE
  5
28E7
330
FDC
100
AcDbEntity
  8
DIM
 62
     0
370
    -2
100
AcDbLine
 10
2.45638180872762
 20
32.34474485352254
 30
0.0
 11
2.45638180872762
 21
33.86974632556043
 31
0.0
  0
LINE
  5
28E8
330
FDC
100
AcDbEntity
  8
DIM
 62
     0
370
    -2
100
AcDbLine
 10
7.15888180872762
 20
32.34474485352254
 30
0.0
 11
7.15888180872762
 21
33.86974632556043
 31
0.0
  0
LINE
  5
28E9
330
FDC
100
AcDbEntity
  8
DIM
 62
     0
370
    -2
100
AcDbLine
 10
2.86138180872762
 20
33.66049632556043
 30
0.0
 11
4.53481930872762
 21
33.66049632556043
 31
0.0
  0
LINE
  5
28EA
330
FDC
100
AcDbEntity
  8
DIM
 62
     0
370
    -2
100
AcDbLine
 10
6.753881808727617
 20
33.66049632556043
 30
0.0
 11
5.080444308727619
 21
33.66049632556043
 31
0.0
  0
SOLID
  5
28EB
330
FDC
100
AcDbEntity
  8
DIM
 62
     0
100
AcDbTrace
 10
2.86138180872762
 20
33.72799632556043
 30
0.0
 11
2.86138180872762
 21
33.59299632556043
 31
0.0
 12
2.45638180872762
 22
33.66049632556043
 32
0.0
 13
2.45638180872762
 23
33.66049632556043
 33
0.0
  0
SOLID
  5
28EC
330
FDC
100
AcDbEntity
  8
DIM
 62
     0
100
AcDbTrace
 10
6.753881808727617
 20
33.72799632556043
 30
0.0
 11
6.753881808727617
 21
33.59299632556043
 31
0.0
 12
7.15888180872762
 22
33.66049632556043
 32
0.0
 13
7.15888180872762
 23
33.66049632556043
 33
0.0
  0
MTEXT
  5
28ED
330
FDC
100
AcDbEntity
  8
DIM
 62
     0
100
AcDbMText
 10
4.807631808727618
 20
33.66049632556043
 30
0.0
 40
0.28125
 41
0.0
 71
     5
 72
     1
  1
\A1;B
  7
TXT
 73
     1
 44
1.0
  0
POINT
  5
28EE
330
FDC
100
AcDbEntity
  8
DEFPOINTS
 62
     0
100
AcDbPoint
 10
2.45638180872762
 20
32.20299485352254
 30
0.0
  0
POINT
  5
28EF
330
FDC
100
AcDbEntity
  8
DEFPOINTS
 62
     0
100
AcDbPoint
 10
7.15888180872762
 20
32.20299485352254
 30
0.0
  0
POINT
  5
28F0
330
FDC
100
AcDbEntity
  8
DEFPOINTS
 62
     0
100
AcDbPoint
 10
7.15888180872762
 20
33.66049632556043
 30
0.0
  0
ENDBLK
  5
FE8
330
FDC
100
AcDbEntity
  8
0
100
AcDbBlockEnd
  0
BLOCK
  5
1004
330
FF9
100
AcDbEntity
  8
0
100
AcDbBlockBegin
  2
*D10
 70
     1
 10
0.0
 20
0.0
 30
0.0
  3
*D10
  1

  0
LINE
  5
28DD
330
FF9
100
AcDbEntity
  8
DIM
 62
     0
370
    -2
100
AcDbLine
 10
2.65138180872762
 20
32.33724485352254
 30
0.0
 11
2.65138180872762
 21
33.33616885861164
 31
0.0
  0
LINE
  5
28DE
330
FF9
100
AcDbEntity
  8
DIM
 62
     0
370
    -2
100
AcDbLine
 10
6.963881808727622
 20
32.33724485352254
 30
0.0
 11
6.963881808727622
 21
33.33616885861164
 31
0.0
  0
LINE
  5
28DF
330
FF9
100
AcDbEntity
  8
DIM
 62
     0
370
    -2
100
AcDbLine
 10
3.05638180872762
 20
33.12691885861164
 30
0.0
 11
4.53481930872762
 21
33.12691885861164
 31
0.0
  0
LINE
  5
28E0
330
FF9
100
AcDbEntity
  8
DIM
 62
     0
370
    -2
100
AcDbLine
 10
6.558881808727622
 20
33.12691885861164
 30
0.0
 11
5.080444308727621
 21
33.12691885861164
 31
0.0
  0
SOLID
  5
28E1
330
FF9
100
AcDbEntity
  8
DIM
 62
     0
100
AcDbTrace
 10
3.05638180872762
 20
33.19441885861165
 30
0.0
 11
3.05638180872762
 21
33.05941885861164
 31
0.0
 12
2.65138180872762
 22
33.12691885861164
 32
0.0
 13
2.65138180872762
 23
33.12691885861164
 33
0.0
  0
SOLID
  5
28E2
330
FF9
100
AcDbEntity
  8
DIM
 62
     0
100
AcDbTrace
 10
6.558881808727622
 20
33.19441885861165
 30
0.0
 11
6.558881808727622
 21
33.05941885861164
 31
0.0
 12
6.963881808727622
 22
33.12691885861164
 32
0.0
 13
6.963881808727622
 23
33.12691885861164
 33
0.0
  0
MTEXT
  5
28E3
330
FF9
100
AcDbEntity
  8
DIM
 62
     0
100
AcDbMText
 10
4.80763180872762
 20
33.12691885861164
 30
0.0
 40
0.28125
 41
0.0
 71
     5
 72
     1
  1
\A1;F
  7
TXT
 73
     1
 44
1.0
  0
POINT
  5
28E4
330
FF9
100
AcDbEntity
  8
DEFPOINTS
 62
     0
100
AcDbPoint
 10
2.65138180872762
 20
32.19549485352254
 30
0.0
  0
POINT
  5
28E5
330
FF9
100
AcDbEntity
  8
DEFPOINTS
 62
     0
100
AcDbPoint
 10
6.963881808727622
 20
32.19549485352254
 30
0.0
  0
POINT
  5
28E6
330
FF9
100
AcDbEntity
  8
DEFPOINTS
 62
     0
100
AcDbPoint
 10
6.963881808727622
 20
33.12691885861164
 30
0.0
  0
ENDBLK
  5
1005
330
FF9
100
AcDbEntity
  8
0
100
AcDbBlockEnd
  0
BLOCK
  5
1079
330
106E
100
AcDbEntity
  8
0
100
AcDbBlockBegin
  2
*D11
 70
     1
 10
0.0
 20
0.0
 30
0.0
  3
*D11
  1

  0
LINE
  5
28FB
330
106E
100
AcDbEntity
  8
DIM
 62
     0
370
    -2
100
AcDbLine
 10
7.105631808727626
 20
25.19549485352253
 30
0.0
 11
7.866015267392825
 21
25.19549485352253
 31
0.0
  0
LINE
  5
28FC
330
106E
100
AcDbEntity
  8
DIM
 62
     0
370
    -2
100
AcDbLine
 10
7.105631808727626
 20
28.69549485352253
 30
0.0
 11
7.866015267392826
 21
28.69549485352253
 31
0.0
  0
LINE
  5
28FD
330
106E
100
AcDbEntity
  8
DIM
 62
     0
370
    -2
100
AcDbLine
 10
7.656765267392825
 20
25.60049485352253
 30
0.0
 11
7.656765267392826
 21
26.60236985352254
 31
0.0
  0
LINE
  5
28FE
330
106E
100
AcDbEntity
  8
DIM
 62
     0
370
    -2
100
AcDbLine
 10
7.656765267392826
 20
28.29049485352252
 30
0.0
 11
7.656765267392826
 21
27.28861985352254
 31
0.0
  0
SOLID
  5
28FF
330
106E
100
AcDbEntity
  8
DIM
 62
     0
100
AcDbTrace
 10
7.589265267392824
 20
25.60049485352253
 30
0.0
 11
7.724265267392825
 21
25.60049485352253
 31
0.0
 12
7.656765267392825
 22
25.19549485352253
 32
0.0
 13
7.656765267392825
 23
25.19549485352253
 33
0.0
  0
SOLID
  5
2900
330
106E
100
AcDbEntity
  8
DIM
 62
     0
100
AcDbTrace
 10
7.589265267392826
 20
28.29049485352252
 30
0.0
 11
7.724265267392826
 21
28.29049485352252
 31
0.0
 12
7.656765267392826
 22
28.69549485352253
 32
0.0
 13
7.656765267392826
 23
28.69549485352253
 33
0.0
  0
MTEXT
  5
2901
330
106E
100
AcDbEntity
  8
DIM
 62
     0
100
AcDbMText
 10
7.656765267392821
 20
26.94549485352254
 30
0.0
 40
0.28125
 41
0.0
 71
     5
 72
     1
  1
\A1;G
  7
TXT
 73
     1
 44
1.0
  0
POINT
  5
2902
330
106E
100
AcDbEntity
  8
DEFPOINTS
 62
     0
100
AcDbPoint
 10
6.963881808727624
 20
25.19549485352253
 30
0.0
  0
POINT
  5
2903
330
106E
100
AcDbEntity
  8
DEFPOINTS
 62
     0
100
AcDbPoint
 10
6.963881808727624
 20
28.69549485352253
 30
0.0
  0
POINT
  5
2904
330
106E
100
AcDbEntity
  8
DEFPOINTS
 62
     0
100
AcDbPoint
 10
7.656765267392826
 20
28.69549485352253
 30
0.0
  0
ENDBLK
  5
107A
330
106E
100
AcDbEntity
  8
0
100
AcDbBlockEnd
  0
BLOCK
  5
147F
330
1474
100
AcDbEntity
  8
0
100
AcDbBlockBegin
  2
*D12
 70
     1
 10
0.0
 20
0.0
 30
0.0
  3
*D12
  1

  0
LINE
  5
29BC
330
1474
100
AcDbEntity
  8
DIM
 62
     0
370
    -2
100
AcDbLine
 10
7.105631808727619
 20
21.37892793094382
 30
0.0
 11
7.866015267392826
 21
21.37892793094382
 31
0.0
  0
LINE
  5
29BD
330
1474
100
AcDbEntity
  8
DIM
 62
     0
370
    -2
100
AcDbLine
 10
7.105631808727619
 20
17.87892793094384
 30
0.0
 11
7.866015267392826
 21
17.87892793094384
 31
0.0
  0
LINE
  5
29BE
330
1474
100
AcDbEntity
  8
DIM
 62
     0
370
    -2
100
AcDbLine
 10
7.656765267392827
 20
20.97392793094382
 30
0.0
 11
7.656765267392827
 21
19.97205293094382
 31
0.0
  0
LINE
  5
29BF
330
1474
100
AcDbEntity
  8
DIM
 62
     0
370
    -2
100
AcDbLine
 10
7.656765267392827
 20
18.28392793094383
 30
0.0
 11
7.656765267392827
 21
19.28580293094382
 31
0.0
  0
SOLID
  5
29C0
330
1474
100
AcDbEntity
  8
DIM
 62
     0
100
AcDbTrace
 10
7.589265267392827
 20
20.97392793094382
 30
0.0
 11
7.724265267392826
 21
20.97392793094382
 31
0.0
 12
7.656765267392827
 22
21.37892793094382
 32
0.0
 13
7.656765267392827
 23
21.37892793094382
 33
0.0
  0
SOLID
  5
29C1
330
1474
100
AcDbEntity
  8
DIM
 62
     0
100
AcDbTrace
 10
7.589265267392827
 20
18.28392793094383
 30
0.0
 11
7.724265267392826
 21
18.28392793094383
 31
0.0
 12
7.656765267392826
 22
17.87892793094384
 32
0.0
 13
7.656765267392826
 23
17.87892793094384
 33
0.0
  0
MTEXT
  5
29C2
330
1474
100
AcDbEntity
  8
DIM
 62
     0
100
AcDbMText
 10
7.656765267392822
 20
19.62892793094384
 30
0.0
 40
0.28125
 41
0.0
 71
     5
 72
     1
  1
\A1;G
  7
TXT
 73
     1
 44
1.0
  0
POINT
  5
29C3
330
1474
100
AcDbEntity
  8
DEFPOINTS
 62
     0
100
AcDbPoint
 10
6.963881808727619
 20
21.37892793094382
 30
0.0
  0
POINT
  5
29C4
330
1474
100
AcDbEntity
  8
DEFPOINTS
 62
     0
100
AcDbPoint
 10
6.963881808727619
 20
17.87892793094384
 30
0.0
  0
POINT
  5
29C5
330
1474
100
AcDbEntity
  8
DEFPOINTS
 62
     0
100
AcDbPoint
 10
7.656765267392826
 20
17.87892793094384
 30
0.0
  0
ENDBLK
  5
1480
330
1474
100
AcDbEntity
  8
0
100
AcDbBlockEnd
  0
BLOCK
  5
149C
330
1491
100
AcDbEntity
  8
0
100
AcDbBlockBegin
  2
*D13
 70
     1
 10
0.0
 20
0.0
 30
0.0
  3
*D13
  1

  0
LINE
  5
2924
330
1491
100
AcDbEntity
  8
DIM
 62
     0
370
    -2
100
AcDbLine
 10
7.105631808727626
 20
32.19549485352254
 30
0.0
 11
7.866015267392826
 21
32.19549485352254
 31
0.0
  0
LINE
  5
2925
330
1491
100
AcDbEntity
  8
DIM
 62
     0
370
    -2
100
AcDbLine
 10
7.105631808727626
 20
28.69549485352253
 30
0.0
 11
7.866015267392826
 21
28.69549485352253
 31
0.0
  0
LINE
  5
2926
330
1491
100
AcDbEntity
  8
DIM
 62
     0
370
    -2
100
AcDbLine
 10
7.656765267392827
 20
31.79049485352253
 30
0.0
 11
7.656765267392827
 21
30.78861985352254
 31
0.0
  0
LINE
  5
2927
330
1491
100
AcDbEntity
  8
DIM
 62
     0
370
    -2
100
AcDbLine
 10
7.656765267392826
 20
29.10049485352253
 30
0.0
 11
7.656765267392827
 21
30.10236985352253
 31
0.0
  0
SOLID
  5
2928
330
1491
100
AcDbEntity
  8
DIM
 62
     0
100
AcDbTrace
 10
7.589265267392827
 20
31.79049485352253
 30
0.0
 11
7.724265267392826
 21
31.79049485352253
 31
0.0
 12
7.656765267392827
 22
32.19549485352254
 32
0.0
 13
7.656765267392827
 23
32.19549485352254
 33
0.0
  0
SOLID
  5
2929
330
1491
100
AcDbEntity
  8
DIM
 62
     0
100
AcDbTrace
 10
7.589265267392826
 20
29.10049485352253
 30
0.0
 11
7.724265267392826
 21
29.10049485352253
 31
0.0
 12
7.656765267392826
 22
28.69549485352253
 32
0.0
 13
7.656765267392826
 23
28.69549485352253
 33
0.0
  0
MTEXT
  5
292A
330
1491
100
AcDbEntity
  8
DIM
 62
     0
100
AcDbMText
 10
7.656765267392821
 20
30.44549485352254
 30
0.0
 40
0.28125
 41
0.0
 71
     5
 72
     1
  1
\A1;G
  7
TXT
 73
     1
 44
1.0
  0
POINT
  5
292B
330
1491
100
AcDbEntity
  8
DEFPOINTS
 62
     0
100
AcDbPoint
 10
6.963881808727624
 20
32.19549485352254
 30
0.0
  0
POINT
  5
292C
330
1491
100
AcDbEntity
  8
DEFPOINTS
 62
     0
100
AcDbPoint
 10
6.963881808727624
 20
28.69549485352253
 30
0.0
  0
POINT
  5
292D
330
1491
100
AcDbEntity
  8
DEFPOINTS
 62
     0
100
AcDbPoint
 10
7.656765267392826
 20
28.69549485352253
 30
0.0
  0
ENDBLK
  5
149D
330
1491
100
AcDbEntity
  8
0
100
AcDbBlockEnd
  0
BLOCK
  5
14AB
330
14A0
100
AcDbEntity
  8
0
100
AcDbBlockBegin
  2
*D14
 70
     1
 10
0.0
 20
0.0
 30
0.0
  3
*D14
  1

  0
LINE
  5
26F0
330
14A0
100
AcDbEntity
  8
DIM
 62
     0
370
    -2
100
AcDbLine
 10
11.88421878156282
 20
8.869361285620774
 30
0.0
 11
10.60569964875641
 21
8.869361285620774
 31
0.0
  0
LINE
  5
26F1
330
14A0
100
AcDbEntity
  8
DIM
 62
     0
370
    -2
100
AcDbLine
 10
11.17366163678482
 20
6.806861285620787
 30
0.0
 11
10.60569964875641
 21
6.806861285620787
 31
0.0
  0
LINE
  5
26F2
330
14A0
100
AcDbEntity
  8
DIM
 62
     0
370
    -2
100
AcDbLine
 10
10.81494964875642
 20
8.464361285620775
 30
0.0
 11
10.81494964875642
 21
8.181236285620782
 31
0.0
  0
LINE
  5
26F3
330
14A0
100
AcDbEntity
  8
DIM
 62
     0
370
    -2
100
AcDbLine
 10
10.81494964875642
 20
7.211861285620787
 30
0.0
 11
10.81494964875642
 21
7.494986285620781
 31
0.0
  0
SOLID
  5
26F4
330
14A0
100
AcDbEntity
  8
DIM
 62
     0
100
AcDbTrace
 10
10.74744964875642
 20
8.464361285620775
 30
0.0
 11
10.88244964875642
 21
8.464361285620775
 31
0.0
 12
10.81494964875642
 22
8.869361285620774
 32
0.0
 13
10.81494964875642
 23
8.869361285620774
 33
0.0
  0
SOLID
  5
26F5
330
14A0
100
AcDbEntity
  8
DIM
 62
     0
100
AcDbTrace
 10
10.74744964875642
 20
7.211861285620787
 30
0.0
 11
10.88244964875642
 21
7.211861285620787
 31
0.0
 12
10.81494964875642
 22
6.806861285620787
 32
0.0
 13
10.81494964875642
 23
6.806861285620787
 33
0.0
  0
MTEXT
  5
26F6
330
14A0
100
AcDbEntity
  8
DIM
 62
     0
100
AcDbMText
 10
10.81494964875642
 20
7.838111285620782
 30
0.0
 40
0.28125
 41
0.0
 71
     5
 72
     1
  1
\A1;D
  7
TXT
 73
     1
 44
1.0
  0
POINT
  5
26F7
330
14A0
100
AcDbEntity
  8
DEFPOINTS
 62
     0
100
AcDbPoint
 10
12.02596878156283
 20
8.869361285620774
 30
0.0
  0
POINT
  5
26F8
330
14A0
100
AcDbEntity
  8
DEFPOINTS
 62
     0
100
AcDbPoint
 10
11.31541163678482
 20
6.806861285620787
 30
0.0
  0
POINT
  5
26F9
330
14A0
100
AcDbEntity
  8
DEFPOINTS
 62
     0
100
AcDbPoint
 10
10.81494964875642
 20
6.806861285620787
 30
0.0
  0
ENDBLK
  5
14AC
330
14A0
100
AcDbEntity
  8
0
100
AcDbBlockEnd
  0
BLOCK
  5
14B9
330
14AE
100
AcDbEntity
  8
0
100
AcDbBlockBegin
  2
*D15
 70
     1
 10
0.0
 20
0.0
 30
0.0
  3
*D15
  1

  0
LINE
  5
26FA
330
14AE
100
AcDbEntity
  8
DIM
 62
     0
370
    -2
100
AcDbLine
 10
11.89904747259227
 20
11.12002883861139
 30
0.0
 11
11.02419964875642
 21
11.12002883861139
 31
0.0
  0
LINE
  5
26FB
330
14AE
100
AcDbEntity
  8
DIM
 62
     0
370
    -2
100
AcDbLine
 10
11.7904116367848
 20
11.35440383861139
 30
0.0
 11
11.02419964875642
 21
11.35440383861139
 31
0.0
  0
LINE
  5
26FC
330
14AE
100
AcDbEntity
  8
DIM
 62
     0
370
    -2
100
AcDbLine
 10
11.23344964875642
 20
10.71502883861139
 30
0.0
 11
11.23344964875642
 21
10.31002883861139
 31
0.0
  0
LINE
  5
26FD
330
14AE
100
AcDbEntity
  8
DIM
 62
     0
370
    -2
100
AcDbLine
 10
11.23344964875642
 20
11.75940383861139
 30
0.0
 11
11.23344964875642
 21
12.16440383861139
 31
0.0
  0
LINE
  5
26FE
330
14AE
100
AcDbEntity
  8
DIM
 62
     0
370
    -2
100
AcDbLine
 10
11.23344964875642
 20
12.16440383861139
 30
0.0
 11
11.63844964875642
 21
12.16440383861139
 31
0.0
  0
SOLID
  5
26FF
330
14AE
100
AcDbEntity
  8
DIM
 62
     0
100
AcDbTrace
 10
11.16594964875642
 20
10.71502883861139
 30
0.0
 11
11.30094964875641
 21
10.71502883861139
 31
0.0
 12
11.23344964875642
 22
11.12002883861139
 32
0.0
 13
11.23344964875642
 23
11.12002883861139
 33
0.0
  0
SOLID
  5
2700
330
14AE
100
AcDbEntity
  8
DIM
 62
     0
100
AcDbTrace
 10
11.16594964875642
 20
11.75940383861139
 30
0.0
 11
11.30094964875641
 21
11.75940383861139
 31
0.0
 12
11.23344964875642
 22
11.35440383861139
 32
0.0
 13
11.23344964875642
 23
11.35440383861139
 33
0.0
  0
MTEXT
  5
2701
330
14AE
100
AcDbEntity
  8
DIM
 62
     0
100
AcDbMText
 10
12.24524652375642
 20
12.16440383861139
 30
0.0
 40
0.28125
 41
0.0
 71
     5
 72
     1
  1
\A1;0.234
  7
TXT
 73
     1
 44
1.0
  0
POINT
  5
2702
330
14AE
100
AcDbEntity
  8
DEFPOINTS
 62
     0
100
AcDbPoint
 10
12.04079747259227
 20
11.12002883861139
 30
0.0
  0
POINT
  5
2703
330
14AE
100
AcDbEntity
  8
DEFPOINTS
 62
     0
100
AcDbPoint
 10
11.93216163678481
 20
11.35440383861139
 30
0.0
  0
POINT
  5
2704
330
14AE
100
AcDbEntity
  8
DEFPOINTS
 62
     0
100
AcDbPoint
 10
11.23344964875642
 20
11.35440383861139
 30
0.0
  0
ENDBLK
  5
14BA
330
14AE
100
AcDbEntity
  8
0
100
AcDbBlockEnd
  0
BLOCK
  5
14C7
330
14BC
100
AcDbEntity
  8
0
100
AcDbBlockBegin
  2
*D16
 70
     1
 10
0.0
 20
0.0
 30
0.0
  3
*D16
  1

  0
LINE
  5
2705
330
14BC
100
AcDbEntity
  8
DIM
 62
     0
370
    -2
100
AcDbLine
 10
17.89762008894034
 20
6.806861285620772
 30
0.0
 11
17.99991903232123
 21
6.806861285620772
 31
0.0
  0
LINE
  5
2706
330
14BC
100
AcDbEntity
  8
DIM
 62
     0
370
    -2
100
AcDbLine
 10
17.89762008894034
 20
6.884986285620772
 30
0.0
 11
17.99991903232123
 21
6.884986285620772
 31
0.0
  0
LINE
  5
2707
330
14BC
100
AcDbEntity
  8
DIM
 62
     0
370
    -2
100
AcDbLine
 10
17.79066903232124
 20
6.401861285620772
 30
0.0
 11
17.79066903232124
 21
5.996861285620773
 31
0.0
  0
LINE
  5
2708
330
14BC
100
AcDbEntity
  8
DIM
 62
     0
370
    -2
100
AcDbLine
 10
17.79066903232124
 20
7.289986285620773
 30
0.0
 11
17.79066903232124
 21
7.694986285620772
 31
0.0
  0
LINE
  5
2709
330
14BC
100
AcDbEntity
  8
DIM
 62
     0
370
    -2
100
AcDbLine
 10
17.79066903232124
 20
7.694986285620772
 30
0.0
 11
18.19566903232123
 21
7.694986285620772
 31
0.0
  0
SOLID
  5
270A
330
14BC
100
AcDbEntity
  8
DIM
 62
     0
100
AcDbTrace
 10
17.72316903232123
 20
6.401861285620772
 30
0.0
 11
17.85816903232124
 21
6.401861285620772
 31
0.0
 12
17.79066903232124
 22
6.806861285620772
 32
0.0
 13
17.79066903232124
 23
6.806861285620772
 33
0.0
  0
SOLID
  5
270B
330
14BC
100
AcDbEntity
  8
DIM
 62
     0
100
AcDbTrace
 10
17.72316903232123
 20
7.289986285620773
 30
0.0
 11
17.85816903232124
 21
7.289986285620773
 31
0.0
 12
17.79066903232124
 22
6.884986285620772
 32
0.0
 13
17.79066903232124
 23
6.884986285620772
 33
0.0
  0
MTEXT
  5
270C
330
14BC
100
AcDbEntity
  8
DIM
 62
     0
100
AcDbMText
 10
18.46848153232125
 20
7.694986285620776
 30
0.0
 40
0.28125
 41
0.0
 71
     5
 72
     1
  1
\A1;J
  7
TXT
 73
     1
 44
1.0
  0
POINT
  5
270D
330
14BC
100
AcDbEntity
  8
DEFPOINTS
 62
     0
100
AcDbPoint
 10
17.75587008894033
 20
6.806861285620772
 30
0.0
  0
POINT
  5
270E
330
14BC
100
AcDbEntity
  8
DEFPOINTS
 62
     0
100
AcDbPoint
 10
17.75587008894033
 20
6.884986285620772
 30
0.0
  0
POINT
  5
270F
330
14BC
100
AcDbEntity
  8
DEFPOINTS
 62
     0
100
AcDbPoint
 10
17.79066903232124
 20
6.884986285620772
 30
0.0
  0
ENDBLK
  5
14C8
330
14BC
100
AcDbEntity
  8
0
100
AcDbBlockEnd
  0
BLOCK
  5
14D5
330
14CA
100
AcDbEntity
  8
0
100
AcDbBlockBegin
  2
*D17
 70
     1
 10
0.0
 20
0.0
 30
0.0
  3
*D17
  1

  0
LINE
  5
2710
330
14CA
100
AcDbEntity
  8
DIM
 62
     0
370
    -2
100
AcDbLine
 10
18.86494733205157
 20
8.775611285620772
 30
0.0
 11
16.76207772583063
 21
8.775611285620772
 31
0.0
  0
LINE
  5
2711
330
14CA
100
AcDbEntity
  8
DIM
 62
     0
370
    -2
100
AcDbLine
 10
16.83454898360299
 20
8.869361285620774
 30
0.0
 11
16.76207772583063
 21
8.869361285620774
 31
0.0
  0
LINE
  5
2712
330
14CA
100
AcDbEntity
  8
DIM
 62
     0
370
    -2
100
AcDbLine
 10
16.97132772583064
 20
8.370611285620773
 30
0.0
 11
16.97132772583064
 21
7.965611285620773
 31
0.0
  0
LINE
  5
2713
330
14CA
100
AcDbEntity
  8
DIM
 62
     0
370
    -2
100
AcDbLine
 10
16.97132772583064
 20
9.274361285620773
 30
0.0
 11
16.97132772583064
 21
9.679361285620773
 31
0.0
  0
LINE
  5
2714
330
14CA
100
AcDbEntity
  8
DIM
 62
     0
370
    -2
100
AcDbLine
 10
16.97132772583064
 20
9.679361285620773
 30
0.0
 11
17.37632772583064
 21
9.679361285620773
 31
0.0
  0
SOLID
  5
2715
330
14CA
100
AcDbEntity
  8
DIM
 62
     0
100
AcDbTrace
 10
16.90382772583064
 20
8.370611285620773
 30
0.0
 11
17.03882772583064
 21
8.370611285620773
 31
0.0
 12
16.97132772583064
 22
8.775611285620772
 32
0.0
 13
16.97132772583064
 23
8.775611285620772
 33
0.0
  0
SOLID
  5
2716
330
14CA
100
AcDbEntity
  8
DIM
 62
     0
100
AcDbTrace
 10
16.90382772583064
 20
9.274361285620773
 30
0.0
 11
17.03882772583064
 21
9.274361285620773
 31
0.0
 12
16.97132772583064
 22
8.869361285620774
 32
0.0
 13
16.97132772583064
 23
8.869361285620774
 33
0.0
  0
MTEXT
  5
2717
330
14CA
100
AcDbEntity
  8
DIM
 62
     0
100
AcDbMText
 10
17.96554647583064
 20
9.679361285620775
 30
0.0
 40
0.28125
 41
0.0
 71
     5
 72
     1
  1
\A1;0.094
  7
TXT
 73
     1
 44
1.0
  0
POINT
  5
2718
330
14CA
100
AcDbEntity
  8
DEFPOINTS
 62
     0
100
AcDbPoint
 10
19.00669733205157
 20
8.775611285620772
 30
0.0
  0
POINT
  5
2719
330
14CA
100
AcDbEntity
  8
DEFPOINTS
 62
     0
100
AcDbPoint
 10
16.97629898360298
 20
8.869361285620774
 30
0.0
  0
POINT
  5
271A
330
14CA
100
AcDbEntity
  8
DEFPOINTS
 62
     0
100
AcDbPoint
 10
16.97132772583064
 20
8.869361285620774
 30
0.0
  0
ENDBLK
  5
14D6
330
14CA
100
AcDbEntity
  8
0
100
AcDbBlockEnd
  0
BLOCK
  5
14E3
330
14D8
100
AcDbEntity
  8
0
100
AcDbBlockBegin
  2
*D18
 70
     1
 10
0.0
 20
0.0
 30
0.0
  3
*D18
  1

  0
LINE
  5
271B
330
14D8
100
AcDbEntity
  8
DIM
 62
     0
370
    -2
100
AcDbLine
 10
19.22885449200679
 20
9.011111285620774
 30
0.0
 11
19.22885449200679
 21
9.648747566903075
 31
0.0
  0
LINE
  5
271C
330
14D8
100
AcDbEntity
  8
DIM
 62
     0
370
    -2
100
AcDbLine
 10
19.3226616367848
 20
9.011111285620774
 30
0.0
 11
19.3226616367848
 21
9.648747566903075
 31
0.0
  0
LINE
  5
271D
330
14D8
100
AcDbEntity
  8
DIM
 62
     0
370
    -2
100
AcDbLine
 10
18.82385449200678
 20
9.439497566903076
 30
0.0
 11
18.41885449200678
 21
9.439497566903076
 31
0.0
  0
LINE
  5
271E
330
14D8
100
AcDbEntity
  8
DIM
 62
     0
370
    -2
100
AcDbLine
 10
19.7276616367848
 20
9.439497566903076
 30
0.0
 11
20.13266163678481
 21
9.439497566903076
 31
0.0
  0
SOLID
  5
271F
330
14D8
100
AcDbEntity
  8
DIM
 62
     0
100
AcDbTrace
 10
18.82385449200678
 20
9.506997566903075
 30
0.0
 11
18.82385449200678
 21
9.371997566903075
 31
0.0
 12
19.22885449200679
 22
9.439497566903076
 32
0.0
 13
19.22885449200679
 23
9.439497566903076
 33
0.0
  0
SOLID
  5
2720
330
14D8
100
AcDbEntity
  8
DIM
 62
     0
100
AcDbTrace
 10
19.7276616367848
 20
9.506997566903075
 30
0.0
 11
19.7276616367848
 21
9.371997566903075
 31
0.0
 12
19.3226616367848
 22
9.439497566903076
 32
0.0
 13
19.3226616367848
 23
9.439497566903076
 33
0.0
  0
MTEXT
  5
2721
330
14D8
100
AcDbEntity
  8
DIM
 62
     0
100
AcDbMText
 10
20.4054741367848
 20
9.439497566903076
 30
0.0
 40
0.28125
 41
0.0
 71
     5
 72
     1
  1
\A1;H
  7
TXT
 73
     1
 44
1.0
  0
POINT
  5
2722
330
14D8
100
AcDbEntity
  8
DEFPOINTS
 62
     0
100
AcDbPoint
 10
19.22885449200679
 20
8.869361285620774
 30
0.0
  0
POINT
  5
2723
330
14D8
100
AcDbEntity
  8
DEFPOINTS
 62
     0
100
AcDbPoint
 10
19.3226616367848
 20
8.869361285620774
 30
0.0
  0
POINT
  5
2724
330
14D8
100
AcDbEntity
  8
DEFPOINTS
 62
     0
100
AcDbPoint
 10
19.3226616367848
 20
9.439497566903076
 30
0.0
  0
ENDBLK
  5
14E4
330
14D8
100
AcDbEntity
  8
0
100
AcDbBlockEnd
  0
BLOCK
  5
14F1
330
14E6
100
AcDbEntity
  8
0
100
AcDbBlockBegin
  2
*D19
 70
     1
 10
0.0
 20
0.0
 30
0.0
  3
*D19
  1

  0
LINE
  5
2725
330
14E6
100
AcDbEntity
  8
DIM
 62
     0
370
    -2
100
AcDbLine
 10
17.28955080068157
 20
11.27627883861139
 30
0.0
 11
17.20768347520109
 21
11.27627883861139
 31
0.0
  0
LINE
  5
2726
330
14E6
100
AcDbEntity
  8
DIM
 62
     0
370
    -2
100
AcDbLine
 10
17.28955080068157
 20
11.35440383861139
 30
0.0
 11
17.20768347520109
 21
11.35440383861139
 31
0.0
  0
LINE
  5
2727
330
14E6
100
AcDbEntity
  8
DIM
 62
     0
370
    -2
100
AcDbLine
 10
17.41693347520109
 20
10.87127883861139
 30
0.0
 11
17.41693347520109
 21
10.46627883861139
 31
0.0
  0
LINE
  5
2728
330
14E6
100
AcDbEntity
  8
DIM
 62
     0
370
    -2
100
AcDbLine
 10
17.41693347520109
 20
11.75940383861139
 30
0.0
 11
17.41693347520109
 21
12.16440383861139
 31
0.0
  0
LINE
  5
2729
330
14E6
100
AcDbEntity
  8
DIM
 62
     0
370
    -2
100
AcDbLine
 10
17.41693347520109
 20
12.16440383861139
 30
0.0
 11
17.82193347520109
 21
12.16440383861139
 31
0.0
  0
SOLID
  5
272A
330
14E6
100
AcDbEntity
  8
DIM
 62
     0
100
AcDbTrace
 10
17.34943347520109
 20
10.87127883861139
 30
0.0
 11
17.48443347520109
 21
10.87127883861139
 31
0.0
 12
17.41693347520109
 22
11.27627883861139
 32
0.0
 13
17.41693347520109
 23
11.27627883861139
 33
0.0
  0
SOLID
  5
272B
330
14E6
100
AcDbEntity
  8
DIM
 62
     0
100
AcDbTrace
 10
17.34943347520109
 20
11.75940383861139
 30
0.0
 11
17.48443347520109
 21
11.75940383861139
 31
0.0
 12
17.41693347520109
 22
11.35440383861139
 32
0.0
 13
17.41693347520109
 23
11.35440383861139
 33
0.0
  0
MTEXT
  5
272C
330
14E6
100
AcDbEntity
  8
DIM
 62
     0
100
AcDbMText
 10
18.41115222520107
 20
12.16440383861139
 30
0.0
 40
0.28125
 41
0.0
 71
     5
 72
     1
  1
\A1;0.078
  7
TXT
 73
     1
 44
1.0
  0
POINT
  5
272D
330
14E6
100
AcDbEntity
  8
DEFPOINTS
 62
     0
100
AcDbPoint
 10
17.43130080068157
 20
11.27627883861139
 30
0.0
  0
POINT
  5
272E
330
14E6
100
AcDbEntity
  8
DEFPOINTS
 62
     0
100
AcDbPoint
 10
17.43130080068157
 20
11.35440383861139
 30
0.0
  0
POINT
  5
272F
330
14E6
100
AcDbEntity
  8
DEFPOINTS
 62
     0
100
AcDbPoint
 10
17.41693347520109
 20
11.35440383861139
 30
0.0
  0
ENDBLK
  5
14F2
330
14E6
100
AcDbEntity
  8
0
100
AcDbBlockEnd
  0
BLOCK
  5
14FF
330
14F4
100
AcDbEntity
  8
0
100
AcDbBlockBegin
  2
*D20
 70
     1
 10
0.0
 20
0.0
 30
0.0
  3
*D20
  1

  0
LINE
  5
2730
330
14F4
100
AcDbEntity
  8
DIM
 62
     0
370
    -2
100
AcDbLine
 10
19.4639116367848
 20
11.19815383861139
 30
0.0
 11
20.18398409437663
 21
11.19815383861139
 31
0.0
  0
LINE
  5
2731
330
14F4
100
AcDbEntity
  8
DIM
 62
     0
370
    -2
100
AcDbLine
 10
19.4639116367848
 20
11.35440383861139
 30
0.0
 11
20.18398409437663
 21
11.35440383861139
 31
0.0
  0
LINE
  5
2732
330
14F4
100
AcDbEntity
  8
DIM
 62
     0
370
    -2
100
AcDbLine
 10
19.97473409437662
 20
10.79315383861139
 30
0.0
 11
19.97473409437662
 21
10.38815383861139
 31
0.0
  0
LINE
  5
2733
330
14F4
100
AcDbEntity
  8
DIM
 62
     0
370
    -2
100
AcDbLine
 10
19.97473409437662
 20
11.75940383861139
 30
0.0
 11
19.97473409437662
 21
12.16440383861139
 31
0.0
  0
LINE
  5
2734
330
14F4
100
AcDbEntity
  8
DIM
 62
     0
370
    -2
100
AcDbLine
 10
19.97473409437662
 20
12.16440383861139
 30
0.0
 11
20.37973409437662
 21
12.16440383861139
 31
0.0
  0
SOLID
  5
2735
330
14F4
100
AcDbEntity
  8
DIM
 62
     0
100
AcDbTrace
 10
19.90723409437663
 20
10.79315383861139
 30
0.0
 11
20.04223409437662
 21
10.79315383861139
 31
0.0
 12
19.97473409437662
 22
11.19815383861139
 32
0.0
 13
19.97473409437662
 23
11.19815383861139
 33
0.0
  0
SOLID
  5
2736
330
14F4
100
AcDbEntity
  8
DIM
 62
     0
100
AcDbTrace
 10
19.90723409437663
 20
11.75940383861139
 30
0.0
 11
20.04223409437662
 21
11.75940383861139
 31
0.0
 12
19.97473409437662
 22
11.35440383861139
 32
0.0
 13
19.97473409437662
 23
11.35440383861139
 33
0.0
  0
MTEXT
  5
2737
330
14F4
100
AcDbEntity
  8
DIM
 62
     0
100
AcDbMText
 10
20.95137471937662
 20
12.16440383861139
 30
0.0
 40
0.28125
 41
0.0
 71
     5
 72
     1
  1
\A1;0.156
  7
TXT
 73
     1
 44
1.0
  0
POINT
  5
2738
330
14F4
100
AcDbEntity
  8
DEFPOINTS
 62
     0
100
AcDbPoint
 10
19.3221616367848
 20
11.19815383861139
 30
0.0
  0
POINT
  5
2739
330
14F4
100
AcDbEntity
  8
DEFPOINTS
 62
     0
100
AcDbPoint
 10
19.3221616367848
 20
11.35440383861139
 30
0.0
  0
POINT
  5
273A
330
14F4
100
AcDbEntity
  8
DEFPOINTS
 62
     0
100
AcDbPoint
 10
19.97473409437662
 20
11.35440383861139
 30
0.0
  0
ENDBLK
  5
1500
330
14F4
100
AcDbEntity
  8
0
100
AcDbBlockEnd
  0
BLOCK
  5
192C
330
1921
100
AcDbEntity
  8
0
100
AcDbBlockBegin
  2
*D21
 70
     1
 10
0.0
 20
0.0
 30
0.0
  3
*D21
  1

  0
LINE
  5
2938
330
1921
100
AcDbEntity
  8
DIM
 62
     0
370
    -2
100
AcDbLine
 10
2.915881808727618
 20
13.87892793094382
 30
0.0
 11
1.706631808727613
 21
13.87892793094382
 31
0.0
  0
LINE
  5
2939
330
1921
100
AcDbEntity
  8
DIM
 62
     0
370
    -2
100
AcDbLine
 10
2.915881808727618
 20
21.87892793094382
 30
0.0
 11
1.706631808727616
 21
21.87892793094382
 31
0.0
  0
LINE
  5
293A
330
1921
100
AcDbEntity
  8
DIM
 62
     0
370
    -2
100
AcDbLine
 10
1.915881808727613
 20
14.28392793094383
 30
0.0
 11
1.915881808727614
 21
17.53580293094383
 31
0.0
  0
LINE
  5
293B
330
1921
100
AcDbEntity
  8
DIM
 62
     0
370
    -2
100
AcDbLine
 10
1.915881808727614
 20
21.47392793094382
 30
0.0
 11
1.915881808727614
 21
18.22205293094382
 31
0.0
  0
SOLID
  5
293C
330
1921
100
AcDbEntity
  8
DIM
 62
     0
100
AcDbTrace
 10
1.848381808727614
 20
14.28392793094383
 30
0.0
 11
1.983381808727614
 21
14.28392793094383
 31
0.0
 12
1.915881808727613
 22
13.87892793094382
 32
0.0
 13
1.915881808727613
 23
13.87892793094382
 33
0.0
  0
SOLID
  5
293D
330
1921
100
AcDbEntity
  8
DIM
 62
     0
100
AcDbTrace
 10
1.848381808727616
 20
21.47392793094382
 30
0.0
 11
1.983381808727614
 21
21.47392793094382
 31
0.0
 12
1.915881808727616
 22
21.87892793094382
 32
0.0
 13
1.915881808727616
 23
21.87892793094382
 33
0.0
  0
MTEXT
  5
293E
330
1921
100
AcDbEntity
  8
DIM
 62
     0
100
AcDbMText
 10
1.915881808727611
 20
17.87892793094382
 30
0.0
 40
0.28125
 41
0.0
 71
     5
 72
     1
  1
\A1;M
  7
TXT
 73
     1
 44
1.0
  0
POINT
  5
293F
330
1921
100
AcDbEntity
  8
DEFPOINTS
 62
     0
100
AcDbPoint
 10
3.057631808727618
 20
13.87892793094382
 30
0.0
  0
POINT
  5
2940
330
1921
100
AcDbEntity
  8
DEFPOINTS
 62
     0
100
AcDbPoint
 10
3.057631808727618
 20
21.87892793094382
 30
0.0
  0
POINT
  5
2941
330
1921
100
AcDbEntity
  8
DEFPOINTS
 62
     0
100
AcDbPoint
 10
1.915881808727616
 20
21.87892793094382
 30
0.0
  0
ENDBLK
  5
192D
330
1921
100
AcDbEntity
  8
0
100
AcDbBlockEnd
  0
BLOCK
  5
1939
330
192E
100
AcDbEntity
  8
0
100
AcDbBlockBegin
  2
*D22
 70
     1
 10
0.0
 20
0.0
 30
0.0
  3
*D22
  1

  0
LINE
  5
292E
330
192E
100
AcDbEntity
  8
DIM
 62
     0
370
    -2
100
AcDbLine
 10
2.727881808727619
 20
13.56692793094383
 30
0.0
 11
1.076502898950369
 21
13.56692793094383
 31
0.0
  0
LINE
  5
292F
330
192E
100
AcDbEntity
  8
DIM
 62
     0
370
    -2
100
AcDbLine
 10
2.727881808727619
 20
22.19092793094382
 30
0.0
 11
1.076502898950369
 21
22.19092793094382
 31
0.0
  0
LINE
  5
2930
330
192E
100
AcDbEntity
  8
DIM
 62
     0
370
    -2
100
AcDbLine
 10
1.285752898950369
 20
13.97192793094383
 30
0.0
 11
1.285752898950369
 21
17.53580293094383
 31
0.0
  0
LINE
  5
2931
330
192E
100
AcDbEntity
  8
DIM
 62
     0
370
    -2
100
AcDbLine
 10
1.28575289895037
 20
21.78592793094382
 30
0.0
 11
1.285752898950369
 21
18.22205293094382
 31
0.0
  0
SOLID
  5
2932
330
192E
100
AcDbEntity
  8
DIM
 62
     0
100
AcDbTrace
 10
1.218252898950369
 20
13.97192793094383
 30
0.0
 11
1.353252898950367
 21
13.97192793094383
 31
0.0
 12
1.285752898950369
 22
13.56692793094383
 32
0.0
 13
1.285752898950369
 23
13.56692793094383
 33
0.0
  0
SOLID
  5
2933
330
192E
100
AcDbEntity
  8
DIM
 62
     0
100
AcDbTrace
 10
1.21825289895037
 20
21.78592793094382
 30
0.0
 11
1.35325289895037
 21
21.78592793094382
 31
0.0
 12
1.28575289895037
 22
22.19092793094382
 32
0.0
 13
1.28575289895037
 23
22.19092793094382
 33
0.0
  0
MTEXT
  5
2934
330
192E
100
AcDbEntity
  8
DIM
 62
     0
100
AcDbMText
 10
1.285752898950367
 20
17.87892793094384
 30
0.0
 40
0.28125
 41
0.0
 71
     5
 72
     1
  1
\A1;K
  7
TXT
 73
     1
 44
1.0
  0
POINT
  5
2935
330
192E
100
AcDbEntity
  8
DEFPOINTS
 62
     0
100
AcDbPoint
 10
2.86963180872762
 20
13.56692793094383
 30
0.0
  0
POINT
  5
2936
330
192E
100
AcDbEntity
  8
DEFPOINTS
 62
     0
100
AcDbPoint
 10
2.86963180872762
 20
22.19092793094382
 30
0.0
  0
POINT
  5
2937
330
192E
100
AcDbEntity
  8
DEFPOINTS
 62
     0
100
AcDbPoint
 10
1.28575289895037
 20
22.19092793094382
 30
0.0
  0
ENDBLK
  5
193A
330
192E
100
AcDbEntity
  8
0
100
AcDbBlockEnd
  0
BLOCK
  5
1946
330
193B
100
AcDbEntity
  8
0
100
AcDbBlockBegin
  2
*D23
 70
     1
 10
0.0
 20
0.0
 30
0.0
  3
*D23
  1

  0
LINE
  5
2989
330
193B
100
AcDbEntity
  8
DIM
 62
     0
370
    -2
100
AcDbLine
 10
6.557631808727617
 20
13.73717793094383
 30
0.0
 11
6.557631808727617
 21
11.90810801028352
 31
0.0
  0
LINE
  5
298A
330
193B
100
AcDbEntity
  8
DIM
 62
     0
370
    -2
100
AcDbLine
 10
6.932631808727617
 20
13.61217793094382
 30
0.0
 11
6.932631808727617
 21
11.90810801028352
 31
0.0
  0
LINE
  5
298B
330
193B
100
AcDbEntity
  8
DIM
 62
     0
370
    -2
100
AcDbLine
 10
6.152631808727615
 20
12.11735801028352
 30
0.0
 11
5.747631808727617
 21
12.11735801028352
 31
0.0
  0
LINE
  5
298C
330
193B
100
AcDbEntity
  8
DIM
 62
     0
370
    -2
100
AcDbLine
 10
7.337631808727617
 20
12.11735801028352
 30
0.0
 11
7.742631808727615
 21
12.11735801028352
 31
0.0
  0
SOLID
  5
298D
330
193B
100
AcDbEntity
  8
DIM
 62
     0
100
AcDbTrace
 10
6.152631808727615
 20
12.18485801028352
 30
0.0
 11
6.152631808727615
 21
12.04985801028351
 31
0.0
 12
6.557631808727617
 22
12.11735801028352
 32
0.0
 13
6.557631808727617
 23
12.11735801028352
 33
0.0
  0
SOLID
  5
298E
330
193B
100
AcDbEntity
  8
DIM
 62
     0
100
AcDbTrace
 10
7.337631808727617
 20
12.18485801028352
 30
0.0
 11
7.337631808727617
 21
12.04985801028351
 31
0.0
 12
6.932631808727617
 22
12.11735801028352
 32
0.0
 13
6.932631808727617
 23
12.11735801028352
 33
0.0
  0
MTEXT
  5
298F
330
193B
100
AcDbEntity
  8
DIM
 62
     0
100
AcDbMText
 10
8.349428683727616
 20
12.11735801028352
 30
0.0
 40
0.28125
 41
0.0
 71
     5
 72
     1
  1
\A1;0.375
  7
TXT
 73
     1
 44
1.0
  0
POINT
  5
2990
330
193B
100
AcDbEntity
  8
DEFPOINTS
 62
     0
100
AcDbPoint
 10
6.557631808727617
 20
13.87892793094382
 30
0.0
  0
POINT
  5
2991
330
193B
100
AcDbEntity
  8
DEFPOINTS
 62
     0
100
AcDbPoint
 10
6.932631808727617
 20
13.75392793094383
 30
0.0
  0
POINT
  5
2992
330
193B
100
AcDbEntity
  8
DEFPOINTS
 62
     0
100
AcDbPoint
 10
6.932631808727617
 20
12.11735801028352
 30
0.0
  0
ENDBLK
  5
1947
330
193B
100
AcDbEntity
  8
0
100
AcDbBlockEnd
  0
BLOCK
  5
1953
330
1948
100
AcDbEntity
  8
0
100
AcDbBlockBegin
  2
*D24
 70
     1
 10
0.0
 20
0.0
 30
0.0
  3
*D24
  1

  0
LINE
  5
296A
330
1948
100
AcDbEntity
  8
DIM
 62
     0
370
    -2
100
AcDbLine
 10
3.057631808727618
 20
13.73717793094383
 30
0.0
 11
3.057631808727618
 21
11.90810801028351
 31
0.0
  0
LINE
  5
296B
330
1948
100
AcDbEntity
  8
DIM
 62
     0
370
    -2
100
AcDbLine
 10
6.557631808727617
 20
13.73717793094383
 30
0.0
 11
6.557631808727617
 21
11.90810801028351
 31
0.0
  0
LINE
  5
296C
330
1948
100
AcDbEntity
  8
DIM
 62
     0
370
    -2
100
AcDbLine
 10
3.462631808727618
 20
12.11735801028351
 30
0.0
 11
4.534819308727618
 21
12.11735801028351
 31
0.0
  0
LINE
  5
296D
330
1948
100
AcDbEntity
  8
DIM
 62
     0
370
    -2
100
AcDbLine
 10
6.152631808727616
 20
12.11735801028351
 30
0.0
 11
5.080444308727617
 21
12.11735801028351
 31
0.0
  0
SOLID
  5
296E
330
1948
100
AcDbEntity
  8
DIM
 62
     0
100
AcDbTrace
 10
3.462631808727618
 20
12.18485801028351
 30
0.0
 11
3.462631808727618
 21
12.04985801028351
 31
0.0
 12
3.057631808727618
 22
12.11735801028351
 32
0.0
 13
3.057631808727618
 23
12.11735801028351
 33
0.0
  0
SOLID
  5
296F
330
1948
100
AcDbEntity
  8
DIM
 62
     0
100
AcDbTrace
 10
6.152631808727616
 20
12.18485801028351
 30
0.0
 11
6.152631808727616
 21
12.04985801028351
 31
0.0
 12
6.557631808727617
 22
12.11735801028351
 32
0.0
 13
6.557631808727617
 23
12.11735801028351
 33
0.0
  0
MTEXT
  5
2970
330
1948
100
AcDbEntity
  8
DIM
 62
     0
100
AcDbMText
 10
4.807631808727617
 20
12.11735801028351
 30
0.0
 40
0.28125
 41
0.0
 71
     5
 72
     1
  1
\A1;N
  7
TXT
 73
     1
 44
1.0
  0
POINT
  5
2971
330
1948
100
AcDbEntity
  8
DEFPOINTS
 62
     0
100
AcDbPoint
 10
3.057631808727618
 20
13.87892793094382
 30
0.0
  0
POINT
  5
2972
330
1948
100
AcDbEntity
  8
DEFPOINTS
 62
     0
100
AcDbPoint
 10
6.557631808727617
 20
13.87892793094382
 30
0.0
  0
POINT
  5
2973
330
1948
100
AcDbEntity
  8
DEFPOINTS
 62
     0
100
AcDbPoint
 10
6.557631808727617
 20
12.11735801028351
 30
0.0
  0
ENDBLK
  5
1954
330
1948
100
AcDbEntity
  8
0
100
AcDbBlockEnd
  0
BLOCK
  5
1960
330
1955
100
AcDbEntity
  8
0
100
AcDbBlockBegin
  2
*D25
 70
     1
 10
0.0
 20
0.0
 30
0.0
  3
*D25
  1

  0
LINE
  5
297E
330
1955
100
AcDbEntity
  8
DIM
 62
     0
370
    -2
100
AcDbLine
 10
2.915881808727618
 20
13.87892793094382
 30
0.0
 11
1.706631808727613
 21
13.87892793094382
 31
0.0
  0
LINE
  5
297F
330
1955
100
AcDbEntity
  8
DIM
 62
     0
370
    -2
100
AcDbLine
 10
2.727881808727619
 20
13.56692793094383
 30
0.0
 11
1.706631808727613
 21
13.56692793094383
 31
0.0
  0
LINE
  5
2980
330
1955
100
AcDbEntity
  8
DIM
 62
     0
370
    -2
100
AcDbLine
 10
1.915881808727613
 20
14.28392793094383
 30
0.0
 11
1.915881808727613
 21
14.68892793094383
 31
0.0
  0
LINE
  5
2981
330
1955
100
AcDbEntity
  8
DIM
 62
     0
370
    -2
100
AcDbLine
 10
1.915881808727613
 20
13.16192793094383
 30
0.0
 11
1.915881808727613
 21
12.75692793094383
 31
0.0
  0
LINE
  5
2982
330
1955
100
AcDbEntity
  8
DIM
 62
     0
370
    -2
100
AcDbLine
 10
1.915881808727613
 20
12.75692793094383
 30
0.0
 11
1.510881808727613
 21
12.75692793094383
 31
0.0
  0
SOLID
  5
2983
330
1955
100
AcDbEntity
  8
DIM
 62
     0
100
AcDbTrace
 10
1.848381808727614
 20
14.28392793094383
 30
0.0
 11
1.983381808727614
 21
14.28392793094383
 31
0.0
 12
1.915881808727613
 22
13.87892793094382
 32
0.0
 13
1.915881808727613
 23
13.87892793094382
 33
0.0
  0
SOLID
  5
2984
330
1955
100
AcDbEntity
  8
DIM
 62
     0
100
AcDbTrace
 10
1.848381808727614
 20
13.16192793094383
 30
0.0
 11
1.983381808727614
 21
13.16192793094383
 31
0.0
 12
1.915881808727613
 22
13.56692793094383
 32
0.0
 13
1.915881808727613
 23
13.56692793094383
 33
0.0
  0
MTEXT
  5
2985
330
1955
100
AcDbEntity
  8
DIM
 62
     0
100
AcDbMText
 10
0.9392411837276119
 20
12.75692793094383
 30
0.0
 40
0.28125
 41
0.0
 71
     5
 72
     1
  1
\A1;0.312
  7
TXT
 73
     1
 44
1.0
  0
POINT
  5
2986
330
1955
100
AcDbEntity
  8
DEFPOINTS
 62
     0
100
AcDbPoint
 10
3.057631808727618
 20
13.87892793094382
 30
0.0
  0
POINT
  5
2987
330
1955
100
AcDbEntity
  8
DEFPOINTS
 62
     0
100
AcDbPoint
 10
2.86963180872762
 20
13.56692793094383
 30
0.0
  0
POINT
  5
2988
330
1955
100
AcDbEntity
  8
DEFPOINTS
 62
     0
100
AcDbPoint
 10
1.915881808727613
 20
13.56692793094383
 30
0.0
  0
ENDBLK
  5
1961
330
1955
100
AcDbEntity
  8
0
100
AcDbBlockEnd
  0
BLOCK
  5
196E
330
1962
100
AcDbEntity
  8
0
100
AcDbBlockBegin
  2
*D26
 70
     1
 10
0.0
 20
0.0
 30
0.0
  3
*D26
  1

  0
LINE
  5
2764
330
1962
100
AcDbEntity
  8
DIM
 62
     0
370
    -2
100
AcDbLine
 10
20.08116163678481
 20
6.806861285620772
 30
0.0
 11
20.56716163678481
 21
6.806861285620772
 31
0.0
  0
LINE
  5
2765
330
1962
100
AcDbEntity
  8
DIM
 62
     0
370
    -2
100
AcDbLine
 10
20.08116163678481
 20
6.716861285620771
 30
0.0
 11
20.56716163678481
 21
6.716861285620771
 31
0.0
  0
LINE
  5
2766
330
1962
100
AcDbEntity
  8
DIM
 62
     0
370
    -2
100
AcDbLine
 10
20.35791163678481
 20
7.211861285620773
 30
0.0
 11
20.35791163678481
 21
7.616861285620772
 31
0.0
  0
LINE
  5
2767
330
1962
100
AcDbEntity
  8
DIM
 62
     0
370
    -2
100
AcDbLine
 10
20.35791163678481
 20
6.311861285620769
 30
0.0
 11
20.35791163678481
 21
5.906861285620771
 31
0.0
  0
LINE
  5
2768
330
1962
100
AcDbEntity
  8
DIM
 62
     0
370
    -2
100
AcDbLine
 10
20.35791163678481
 20
5.906861285620771
 30
0.0
 11
19.9529116367848
 21
5.906861285620771
 31
0.0
  0
SOLID
  5
2769
330
1962
100
AcDbEntity
  8
DIM
 62
     0
100
AcDbTrace
 10
20.29041163678481
 20
7.211861285620773
 30
0.0
 11
20.4254116367848
 21
7.211861285620773
 31
0.0
 12
20.35791163678481
 22
6.806861285620772
 32
0.0
 13
20.35791163678481
 23
6.806861285620772
 33
0.0
  0
SOLID
  5
276A
330
1962
100
AcDbEntity
  8
DIM
 62
     0
100
AcDbTrace
 10
20.29041163678481
 20
6.311861285620769
 30
0.0
 11
20.4254116367848
 21
6.311861285620769
 31
0.0
 12
20.35791163678481
 22
6.716861285620771
 32
0.0
 13
20.35791163678481
 23
6.716861285620771
 33
0.0
  0
MTEXT
  5
276B
330
1962
100
AcDbEntity
  8
DIM
 62
     0
100
AcDbMText
 10
19.3812710117848
 20
5.906861285620775
 30
0.0
 40
0.28125
 41
0.0
 71
     5
 72
     1
  1
\A1;0.090
  7
TXT
 73
     1
 44
1.0
  0
POINT
  5
276C
330
1962
100
AcDbEntity
  8
DEFPOINTS
 62
     0
100
AcDbPoint
 10
19.9394116367848
 20
6.806861285620772
 30
0.0
  0
POINT
  5
276D
330
1962
100
AcDbEntity
  8
DEFPOINTS
 62
     0
100
AcDbPoint
 10
19.9394116367848
 20
6.716861285620771
 30
0.0
  0
POINT
  5
276E
330
1962
100
AcDbEntity
  8
DEFPOINTS
 62
     0
100
AcDbPoint
 10
20.35791163678481
 20
6.716861285620771
 30
0.0
  0
ENDBLK
  5
196F
330
1962
100
AcDbEntity
  8
0
100
AcDbBlockEnd
  0
BLOCK
  5
197B
330
1970
100
AcDbEntity
  8
0
100
AcDbBlockBegin
  2
*D27
 70
     1
 10
0.0
 20
0.0
 30
0.0
  3
*D27
  1

  0
LINE
  5
2960
330
1970
100
AcDbEntity
  8
DIM
 62
     0
370
    -2
100
AcDbLine
 10
2.682631808727617
 20
13.61217793094384
 30
0.0
 11
2.682631808727617
 21
11.26639667077123
 31
0.0
  0
LINE
  5
2961
330
1970
100
AcDbEntity
  8
DIM
 62
     0
370
    -2
100
AcDbLine
 10
6.932631808727617
 20
13.61217793094384
 30
0.0
 11
6.932631808727617
 21
11.26639667077123
 31
0.0
  0
LINE
  5
2962
330
1970
100
AcDbEntity
  8
DIM
 62
     0
370
    -2
100
AcDbLine
 10
3.087631808727618
 20
11.47564667077123
 30
0.0
 11
4.534819308727619
 21
11.47564667077123
 31
0.0
  0
LINE
  5
2963
330
1970
100
AcDbEntity
  8
DIM
 62
     0
370
    -2
100
AcDbLine
 10
6.527631808727616
 20
11.47564667077123
 30
0.0
 11
5.080444308727618
 21
11.47564667077123
 31
0.0
  0
SOLID
  5
2964
330
1970
100
AcDbEntity
  8
DIM
 62
     0
100
AcDbTrace
 10
3.087631808727618
 20
11.54314667077123
 30
0.0
 11
3.087631808727618
 21
11.40814667077123
 31
0.0
 12
2.682631808727617
 22
11.47564667077123
 32
0.0
 13
2.682631808727617
 23
11.47564667077123
 33
0.0
  0
SOLID
  5
2965
330
1970
100
AcDbEntity
  8
DIM
 62
     0
100
AcDbTrace
 10
6.527631808727616
 20
11.54314667077123
 30
0.0
 11
6.527631808727616
 21
11.40814667077123
 31
0.0
 12
6.932631808727617
 22
11.47564667077123
 32
0.0
 13
6.932631808727617
 23
11.47564667077123
 33
0.0
  0
MTEXT
  5
2966
330
1970
100
AcDbEntity
  8
DIM
 62
     0
100
AcDbMText
 10
4.807631808727618
 20
11.47564667077123
 30
0.0
 40
0.28125
 41
0.0
 71
     5
 72
     1
  1
\A1;L
  7
TXT
 73
     1
 44
1.0
  0
POINT
  5
2967
330
1970
100
AcDbEntity
  8
DEFPOINTS
 62
     0
100
AcDbPoint
 10
2.682631808727617
 20
13.75392793094384
 30
0.0
  0
POINT
  5
2968
330
1970
100
AcDbEntity
  8
DEFPOINTS
 62
     0
100
AcDbPoint
 10
6.932631808727617
 20
13.75392793094384
 30
0.0
  0
POINT
  5
2969
330
1970
100
AcDbEntity
  8
DEFPOINTS
 62
     0
100
AcDbPoint
 10
6.932631808727617
 20
11.47564667077123
 30
0.0
  0
ENDBLK
  5
197C
330
1970
100
AcDbEntity
  8
0
100
AcDbBlockEnd
  0
BLOCK
  5
1FB4
330
1F9D
100
AcDbEntity
  8
0
100
AcDbBlockBegin
  2
Hb
 70
     0
 10
0.0
 20
0.0
 30
0.0
  3
Hb
  1

  0
TEXT
  5
1F9E
330
1F9D
100
AcDbEntity
  8
TEXT
100
AcDbText
 10
0.2078333333333363
 20
15.22007919564008
 30
0.0
 40
0.125
  1
NAME
  7
TXT
 72
     1
 11
0.4370000000000031
 21
15.22007919564008
 31
0.0
100
AcDbText
  0
TEXT
  5
1F9F
330
1F9D
100
AcDbEntity
  8
TEXT
100
AcDbText
 10
0.2078333333333363
 20
15.42841252897341
 30
0.0
 40
0.125
  1
PART
  7
TXT
 72
     1
 11
0.4370000000000031
 21
15.42841252897341
 31
0.0
100
AcDbText
  0
TEXT
  5
1FA0
330
1F9D
100
AcDbEntity
  8
TEXT
100
AcDbText
 10
4.561999999999998
 20
15.22007919564008
 30
0.0
 40
0.125
  1
No.
  7
TXT
 72
     1
 11
4.686999999999998
 21
15.22007919564008
 31
0.0
100
AcDbText
  0
TEXT
  5
1FA1
330
1F9D
100
AcDbEntity
  8
TEXT
100
AcDbText
 10
4.457833333333331
 20
15.42841252897341
 30
0.0
 40
0.125
  1
PART
  7
TXT
 72
     1
 11
4.686999999999998
 21
15.42841252897341
 31
0.0
100
AcDbText
  0
LINE
  5
1FA2
330
1F9D
100
AcDbEntity
  8
TITLE
100
AcDbLine
 10
5.062000000000002
 20
15.598
 30
0.0
 11
5.062000000000002
 21
15.17999999999999
 31
0.0
  0
LINE
  5
1FA3
330
1F9D
100
AcDbEntity
  8
TITLE
100
AcDbLine
 10
4.312000000000002
 20
15.598
 30
0.0
 11
4.312000000000002
 21
15.17999999999999
 31
0.0
  0
LINE
  5
1FA4
330
1F9D
100
AcDbEntity
  8
TITLE
100
AcDbLine
 10
4.25
 20
15.598
 30
0.0
 11
4.25
 21
15.17999999999999
 31
0.0
  0
LINE
  5
1FA5
330
1F9D
100
AcDbEntity
  8
TITLE
100
AcDbLine
 10
0.8120000000000029
 20
15.17999999999999
 30
0.0
 11
0.8120000000000009
 21
15.598
 31
0.0
  0
LINE
  5
1FA6
330
1F9D
100
AcDbEntity
  8
TITLE
100
AcDbLine
 10
0.0620000000000012
 20
15.17999999999999
 30
0.0
 11
10.538
 21
15.17999999999999
 31
0.0
  0
LINE
  5
1FA7
330
1F9D
100
AcDbEntity
  8
TITLE
100
AcDbLine
 10
10.538
 20
0.0619999999999994
 30
0.0
 11
0.0619999999999976
 21
0.0620000000000012
 31
0.0
  0
LINE
  5
1FA8
330
1F9D
100
AcDbEntity
  8
TITLE
100
AcDbLine
 10
10.538
 20
15.598
 30
0.0
 11
10.538
 21
0.0619999999999994
 31
0.0
  0
LINE
  5
1FA9
330
1F9D
100
AcDbEntity
  8
TITLE
100
AcDbLine
 10
0.0620000000000012
 20
15.598
 30
0.0
 11
10.538
 21
15.598
 31
0.0
  0
LINE
  5
1FAA
330
1F9D
100
AcDbEntity
  8
TITLE
100
AcDbLine
 10
0.0619999999999976
 20
0.0620000000000012
 30
0.0
 11
0.0620000000000012
 21
15.598
 31
0.0
  0
LINE
  5
1FAB
330
1F9D
100
AcDbEntity
  8
TITLE
100
AcDbLine
 10
0.0
 20
0.0
 30
0.0
 11
0.0
 21
15.66
 31
0.0
  0
LINE
  5
1FAC
330
1F9D
100
AcDbEntity
  8
TITLE
100
AcDbLine
 10
10.6
 20
-0.0000000000000018
 30
0.0
 11
0.0
 21
0.0
 31
0.0
  0
LINE
  5
1FAD
330
1F9D
100
AcDbEntity
  8
TITLE
100
AcDbLine
 10
10.6
 20
15.65999999999999
 30
0.0
 11
10.6
 21
-0.0000000000000018
 31
0.0
  0
LINE
  5
1FAE
330
1F9D
100
AcDbEntity
  8
TITLE
100
AcDbLine
 10
0.0
 20
15.66
 30
0.0
 11
10.6
 21
15.65999999999999
 31
0.0
  0
LINE
  5
1FAF
330
1F9D
100
AcDbEntity
  8
TITLE
100
AcDbLine
 10
8.500025722444004
 20
15.598
 30
0.0
 11
8.500025722444004
 21
15.17999999999999
 31
0.0
  0
TEXT
  5
1FB0
330
1F9D
100
AcDbEntity
  8
TEXT
100
AcDbText
 10
8.728692389110667
 20
15.42841252897341
 30
0.0
 40
0.125
  1
REV.
  7
TXT
 72
     1
 11
8.937025722444001
 21
15.42841252897341
 31
0.0
100
AcDbText
  0
TEXT
  5
1FB1
330
1F9D
100
AcDbEntity
  8
TEXT
100
AcDbText
 10
8.707859055777335
 20
15.22007919564008
 30
0.0
 40
0.125
  1
DATE
  7
TXT
 72
     1
 11
8.937025722444001
 21
15.22007919564008
 31
0.0
100
AcDbText
  0
LINE
  5
1FB2
330
1F9D
100
AcDbEntity
  8
TITLE
100
AcDbLine
 10
8.562025722444005
 20
15.598
 30
0.0
 11
8.562025722444005
 21
15.17999999999999
 31
0.0
  0
LINE
  5
1FB3
330
1F9D
100
AcDbEntity
  8
TITLE
100
AcDbLine
 10
9.312025722444003
 20
15.598
 30
0.0
 11
9.312025722444003
 21
15.17999999999999
 31
0.0
  0
ENDBLK
  5
1FB5
330
1F9D
100
AcDbEntity
  8
0
100
AcDbBlockEnd
  0
BLOCK
  5
287E
330
2873
100
AcDbEntity
  8
0
100
AcDbBlockBegin
  2
*D29
 70
     1
 10
0.0
 20
0.0
 30
0.0
  3
*D29
  1

  0
LINE
  5
2974
330
2873
100
AcDbEntity
  8
DIM
 62
     0
370
    -2
100
AcDbLine
 10
2.682631808727617
 20
13.61217793094382
 30
0.0
 11
2.682631808727617
 21
12.54767793094383
 31
0.0
  0
LINE
  5
2975
330
2873
100
AcDbEntity
  8
DIM
 62
     0
370
    -2
100
AcDbLine
 10
4.807631808727618
 20
13.73717793094383
 30
0.0
 11
4.807631808727618
 21
12.54767793094383
 31
0.0
  0
LINE
  5
2976
330
2873
100
AcDbEntity
  8
DIM
 62
     0
370
    -2
100
AcDbLine
 10
3.087631808727618
 20
12.75692793094383
 30
0.0
 11
3.472319308727618
 21
12.75692793094383
 31
0.0
  0
LINE
  5
2977
330
2873
100
AcDbEntity
  8
DIM
 62
     0
370
    -2
100
AcDbLine
 10
4.402631808727618
 20
12.75692793094383
 30
0.0
 11
4.017944308727618
 21
12.75692793094383
 31
0.0
  0
SOLID
  5
2978
330
2873
100
AcDbEntity
  8
DIM
 62
     0
100
AcDbTrace
 10
3.087631808727618
 20
12.82442793094384
 30
0.0
 11
3.087631808727618
 21
12.68942793094383
 31
0.0
 12
2.682631808727617
 22
12.75692793094383
 32
0.0
 13
2.682631808727617
 23
12.75692793094383
 33
0.0
  0
SOLID
  5
2979
330
2873
100
AcDbEntity
  8
DIM
 62
     0
100
AcDbTrace
 10
4.402631808727618
 20
12.82442793094384
 30
0.0
 11
4.402631808727618
 21
12.68942793094383
 31
0.0
 12
4.807631808727618
 22
12.75692793094383
 32
0.0
 13
4.807631808727618
 23
12.75692793094383
 33
0.0
  0
MTEXT
  5
297A
330
2873
100
AcDbEntity
  8
DIM
 62
     0
100
AcDbMText
 10
3.745131808727618
 20
12.75692793094383
 30
0.0
 40
0.28125
 41
0.0
 71
     5
 72
     1
  1
\A1;P
  7
TXT
 73
     1
 44
1.0
  0
POINT
  5
297B
330
2873
100
AcDbEntity
  8
DEFPOINTS
 62
     0
100
AcDbPoint
 10
2.682631808727617
 20
13.75392793094383
 30
0.0
  0
POINT
  5
297C
330
2873
100
AcDbEntity
  8
DEFPOINTS
 62
     0
100
AcDbPoint
 10
4.807631808727618
 20
13.87892793094382
 30
0.0
  0
POINT
  5
297D
330
2873
100
AcDbEntity
  8
DEFPOINTS
 62
     0
100
AcDbPoint
 10
4.807631808727618
 20
12.75692793094383
 30
0.0
  0
ENDBLK
  5
287F
330
2873
100
AcDbEntity
  8
0
100
AcDbBlockEnd
  0
ENDSEC
  0
SECTION
  2
ENTITIES
  0
LINE
  5
EED
330
CA6
100
AcDbEntity
  8
OBJECT
100
AcDbLine
 10
2.643881808727615
 20
14.18392793094383
 30
0.0
 11
6.97138180872762
 21
14.18392793094383
 31
0.0
  0
LINE
  5
EEE
330
CA6
100
AcDbEntity
  8
OBJECT
100
AcDbLine
 10
7.15888180872762
 20
14.37142793094384
 30
0.0
 11
7.15888180872762
 21
21.38642793094382
 31
0.0
  0
LINE
  5
EEF
330
CA6
100
AcDbEntity
  8
OBJECT
100
AcDbLine
 10
6.97138180872762
 20
21.57392793094382
 30
0.0
 11
2.643881808727615
 21
21.57392793094382
 31
0.0
  0
LINE
  5
EF0
330
CA6
100
AcDbEntity
  8
OBJECT
100
AcDbLine
 10
2.456381808727615
 20
21.38642793094382
 30
0.0
 11
2.456381808727615
 21
14.37142793094384
 31
0.0
  0
CIRCLE
  5
EF1
330
CA6
100
AcDbEntity
  8
OBJECT
100
AcDbCircle
 10
2.651381808727616
 20
21.37892793094382
 30
0.0
 40
0.065
  0
CIRCLE
  5
EF2
330
CA6
100
AcDbEntity
  8
OBJECT
100
AcDbCircle
 10
6.963881808727619
 20
21.37892793094382
 30
0.0
 40
0.065
  0
ARC
  5
EF3
330
CA6
100
AcDbEntity
  8
OBJECT
100
AcDbCircle
 10
2.643881808727615
 20
21.38642793094382
 30
0.0
 40
0.1875
100
AcDbArc
 50
90.0
 51
180.0
  0
ARC
  5
EF4
330
CA6
100
AcDbEntity
  8
OBJECT
100
AcDbCircle
 10
6.97138180872762
 20
21.38642793094382
 30
0.0
 40
0.1875
100
AcDbArc
 50
0.0
 51
90.0
  0
ARC
  5
EF5
330
CA6
100
AcDbEntity
  8
OBJECT
100
AcDbCircle
 10
6.97138180872762
 20
14.37142793094384
 30
0.0
 40
0.1875
100
AcDbArc
 50
270.0
 51
0.0
  0
ARC
  5
EF6
330
CA6
100
AcDbEntity
  8
OBJECT
100
AcDbCircle
 10
2.643881808727615
 20
14.37142793094384
 30
0.0
 40
0.1875
100
AcDbArc
 50
180.0
 51
270.0
  0
ARC
  5
EF7
330
CA6
100
AcDbEntity
  8
OBJECT
100
AcDbCircle
 10
2.651381808727616
 20
21.37892793094382
 30
0.0
 40
0.125
100
AcDbArc
 50
270.0
 51
0.0
  0
LINE
  5
EF8
330
CA6
100
AcDbEntity
  8
OBJECT
100
AcDbLine
 10
11.93216163678482
 20
8.869361285620774
 30
0.0
 11
11.99997296733505
 21
6.927498848532955
 31
0.0
  0
LINE
  5
EF9
330
CA6
100
AcDbEntity
  8
OBJECT
100
AcDbLine
 10
12.12489682071243
 20
6.806861285620772
 30
0.0
 11
19.12992645285719
 21
6.806861285620772
 31
0.0
  0
LINE
  5
EFA
330
CA6
100
AcDbEntity
  8
OBJECT
100
AcDbLine
 10
19.25485030623458
 20
6.927498848532955
 30
0.0
 11
19.3226616367848
 21
8.869361285620774
 31
0.0
  0
LINE
  5
EFB
330
CA6
100
AcDbEntity
  8
OBJECT
100
AcDbLine
 10
19.3226616367848
 20
8.869361285620774
 30
0.0
 11
19.22885449200679
 21
8.869361285620774
 31
0.0
  0
LINE
  5
EFC
330
CA6
100
AcDbEntity
  8
OBJECT
100
AcDbLine
 10
12.02596878156283
 20
8.869361285620774
 30
0.0
 11
12.09315830525977
 21
6.945305067076867
 31
0.0
  0
LINE
  5
EFD
330
CA6
100
AcDbEntity
  8
OBJECT
100
AcDbLine
 10
19.16166496830986
 20
6.945305067076867
 30
0.0
 11
19.22885449200679
 21
8.869361285620774
 31
0.0
  0
ARC
  5
EFE
330
CA6
100
AcDbEntity
  8
OBJECT
100
AcDbCircle
 10
19.12992645285719
 20
6.931861285620772
 30
0.0
 40
0.125
100
AcDbArc
 50
270.0
 51
358.0
  0
ARC
  5
EFF
330
CA6
100
AcDbEntity
  8
OBJECT
100
AcDbCircle
 10
12.12489682071243
 20
6.931861285620772
 30
0.0
 40
0.125
100
AcDbArc
 50
182.0
 51
270.0
  0
LINE
  5
F00
330
CA6
100
AcDbEntity
  8
OBJECT
100
AcDbLine
 10
19.22558066986694
 20
8.775611285620772
 30
0.0
 11
19.00669733205157
 21
8.775611285620772
 31
0.0
  0
LINE
  5
F01
330
CA6
100
AcDbEntity
  8
OBJECT
100
AcDbLine
 10
12.24812594151805
 20
8.775611285620772
 30
0.0
 11
12.31204164307514
 21
6.945305067076867
 31
0.0
  0
LINE
  5
F02
330
CA6
100
AcDbEntity
  8
OBJECT
100
AcDbLine
 10
18.94278163049451
 20
6.945305067076867
 30
0.0
 11
19.00669733205157
 21
8.775611285620772
 31
0.0
  0
LINE
  5
F03
330
CA6
100
AcDbEntity
  8
OBJECT
100
AcDbLine
 10
12.24812594151805
 20
8.775611285620772
 30
0.0
 11
12.02924260370267
 21
8.775611285620772
 31
0.0
  0
LINE
  5
F04
330
CA6
100
AcDbEntity
  8
CENTER
100
AcDbLine
 10
12.11529654059835
 20
8.994361285620774
 30
0.0
 11
12.14148711771716
 21
8.244361285620772
 31
0.0
  0
LINE
  5
F05
330
CA6
100
AcDbEntity
  8
CENTER
100
AcDbLine
 10
19.13952673297129
 20
8.994361285620774
 30
0.0
 11
19.11333615585246
 21
8.244361285620772
 31
0.0
  0
DIMENSION
  5
F06
330
CA6
100
AcDbEntity
  8
DIM
100
AcDbDimension
  2
*D2
 10
8.25961942965146
 20
14.37892793094384
 30
0.0
 11
8.25961942965146
 21
17.87892793094384
 31
0.0
 70
    32
  1
E
 71
     5
 42
6.999999999999992
  3
23NSTD
100
AcDbAlignedDimension
 13
6.963881808727619
 23
21.37892793094382
 33
0.0
 14
6.963881808727619
 24
14.37892793094384
 34
0.0
 50
90.0
100
AcDbRotatedDimension
  0
DIMENSION
  5
F14
330
CA6
100
AcDbEntity
  8
DIM
100
AcDbDimension
  2
*D3
 10
8.842790448759389
 20
14.18392793094383
 30
0.0
 11
8.842790448759389
 21
17.87892793094384
 31
0.0
 70
    32
  1
A
 71
     5
 42
7.389999999999991
  3
23NSTD
100
AcDbAlignedDimension
 13
6.97138180872762
 23
21.57392793094382
 33
0.0
 14
6.97138180872762
 24
14.18392793094383
 34
0.0
 50
90.0
100
AcDbRotatedDimension
  0
DIMENSION
  5
F22
330
CA6
100
AcDbEntity
  8
DIM
100
AcDbDimension
  2
*D4
 10
6.963881808727619
 20
22.92622050979661
 30
0.0
 11
4.807631808727618
 21
22.92622050979661
 31
0.0
 70
    32
  1
F
 71
     5
 42
4.312500000000002
  3
23NSTD
100
AcDbAlignedDimension
 13
2.651381808727616
 23
21.37892793094382
 33
0.0
 14
6.963881808727619
 24
21.37892793094382
 34
0.0
 50
180.0
100
AcDbRotatedDimension
  0
DIMENSION
  5
F30
330
CA6
100
AcDbEntity
  8
DIM
100
AcDbDimension
  2
*D5
 10
7.15888180872762
 20
23.46928922161723
 30
0.0
 11
4.807631808727618
 21
23.46928922161723
 31
0.0
 70
    32
  1
B
 71
     5
 42
4.702500000000005
  3
23NSTD
100
AcDbAlignedDimension
 13
2.456381808727615
 23
21.38642793094382
 33
0.0
 14
7.15888180872762
 24
21.38642793094382
 34
0.0
 50
180.0
100
AcDbRotatedDimension
  0
LINE
  5
F3E
330
CA6
100
AcDbEntity
  8
OBJECT
100
AcDbLine
 10
12.15562023194846
 20
6.884986285620772
 30
0.0
 11
19.09920304162118
 21
6.884986285620772
 31
0.0
  0
ARC
  5
F3F
330
CA6
100
AcDbEntity
  8
OBJECT
100
AcDbCircle
 10
12.37450356976383
 20
6.947486285620772
 30
0.0
 40
0.0625
100
AcDbArc
 50
182.0
 51
270.0
  0
ARC
  5
F40
330
CA6
100
AcDbEntity
  8
OBJECT
100
AcDbCircle
 10
12.15562023194846
 20
6.947486285620772
 30
0.0
 40
0.0625
100
AcDbArc
 50
182.0
 51
270.0
  0
ARC
  5
F41
330
CA6
100
AcDbEntity
  8
OBJECT
100
AcDbCircle
 10
18.88031970380581
 20
6.947486285620772
 30
0.0
 40
0.0625
100
AcDbArc
 50
270.0
 51
358.0
  0
ARC
  5
F42
330
CA6
100
AcDbEntity
  8
OBJECT
100
AcDbCircle
 10
19.09920304162118
 20
6.947486285620772
 30
0.0
 40
0.0625
100
AcDbArc
 50
270.0
 51
358.0
  0
LINE
  5
F43
330
CA6
100
AcDbEntity
  8
OBJECT
100
AcDbLine
 10
19.22885449200679
 20
8.869361285620774
 30
0.0
 11
12.02596878156283
 21
8.869361285620774
 31
0.0
  0
LINE
  5
F44
330
CA6
100
AcDbEntity
  8
OBJECT
100
AcDbLine
 10
12.02596878156283
 20
8.869361285620774
 30
0.0
 11
11.93216163678482
 21
8.869361285620774
 31
0.0
  0
TEXT
  5
F45
330
CA6
100
AcDbEntity
  8
BEND
100
AcDbText
 10
4.000422331630388
 20
22.30905335214056
 30
0.0
 40
0.281
  1
B
 41
0.75
 72
     4
 11
4.070672331630388
 21
22.44955335214056
 31
0.0
100
AcDbText
  0
LWPOLYLINE
  5
F46
330
CA6
100
AcDbEntity
  8
BEND
100
AcDbPolyline
 90
        6
 70
     0
 10
3.114317499084556
 20
13.30830250974711
 40
0.0
 41
0.151875
 10
3.519317499084558
 20
13.30830250974711
 40
0.0
 41
0.0
 10
3.887047549162276
 20
13.30830250974711
 40
0.0
 41
0.0
 10
3.887047549162276
 20
22.44092793094382
 40
0.0
 41
0.0
 10
3.519317499084558
 20
22.44092793094382
 40
0.15
 41
0.0
 10
3.114317499084556
 20
22.44092793094382
 40
0.0
 41
0.0
  0
TEXT
  5
F4C
330
CA6
100
AcDbEntity
  8
BEND
100
AcDbText
 10
4.000422331630388
 20
13.16780250974711
 30
0.0
 40
0.281
  1
B
 41
0.75
 72
     4
 11
4.070672331630388
 21
13.30830250974711
 31
0.0
100
AcDbText
  0
LINE
  5
F5B
330
CA6
100
AcDbEntity
  8
HIDDEN
100
AcDbLine
 10
12.18793545892467
 20
8.775611285620772
 30
0.0
 11
12.20087241075096
 21
8.405145456414137
 31
0.0
  0
LINE
  5
F5C
330
CA6
100
AcDbEntity
  8
HIDDEN
100
AcDbLine
 10
12.05793545892467
 20
8.775611285620776
 30
0.0
 11
12.07103074748407
 21
8.400611285620776
 31
0.0
  0
LINE
  5
F5D
330
CA6
100
AcDbEntity
  8
HIDDEN
100
AcDbLine
 10
12.07103074748407
 20
8.400611285620776
 30
0.0
 11
12.13586908431026
 21
8.366136130397045
 31
0.0
  0
LINE
  5
F5E
330
CA6
100
AcDbEntity
  8
HIDDEN
100
AcDbLine
 10
12.20087241075096
 20
8.405145456414137
 30
0.0
 11
12.13586908431026
 21
8.366136130397045
 31
0.0
  0
LINE
  5
F5F
330
CA6
100
AcDbEntity
  8
HIDDEN
100
AcDbLine
 10
12.07103074748407
 20
8.400611285620776
 30
0.0
 11
12.20087241075096
 21
8.405145456414137
 31
0.0
  0
LINE
  5
F60
330
CA6
100
AcDbEntity
  8
HIDDEN
100
AcDbLine
 10
19.18379252608557
 20
8.400611285620776
 30
0.0
 11
19.05395086281865
 21
8.405145456414137
 31
0.0
  0
LINE
  5
F61
330
CA6
100
AcDbEntity
  8
HIDDEN
100
AcDbLine
 10
19.05395086281865
 20
8.405145456414137
 30
0.0
 11
19.11895418925936
 21
8.366136130397045
 31
0.0
  0
LINE
  5
F62
330
CA6
100
AcDbEntity
  8
HIDDEN
100
AcDbLine
 10
19.18379252608557
 20
8.400611285620776
 30
0.0
 11
19.11895418925936
 21
8.366136130397045
 31
0.0
  0
LINE
  5
F63
330
CA6
100
AcDbEntity
  8
HIDDEN
100
AcDbLine
 10
19.19688781464495
 20
8.775611285620776
 30
0.0
 11
19.18379252608557
 21
8.400611285620776
 31
0.0
  0
LINE
  5
F64
330
CA6
100
AcDbEntity
  8
HIDDEN
100
AcDbLine
 10
19.06688781464496
 20
8.775611285620772
 30
0.0
 11
19.05395086281865
 21
8.405145456414137
 31
0.0
  0
LINE
  5
F65
330
CA6
100
AcDbEntity
  8
OBJECT
100
AcDbLine
 10
2.776381808727616
 20
21.37892793094382
 30
0.0
 11
2.776381808727616
 21
21.41817793094384
 31
0.0
  0
LINE
  5
F66
330
CA6
100
AcDbEntity
  8
OBJECT
100
AcDbLine
 10
2.651381808727616
 20
21.25392793094382
 30
0.0
 11
2.612131808727617
 21
21.25392793094382
 31
0.0
  0
ARC
  5
F67
330
CA6
100
AcDbEntity
  8
OBJECT
100
AcDbCircle
 10
2.838381808727618
 20
21.41817793094384
 30
0.0
 40
0.062
100
AcDbArc
 50
90.0
 51
180.0
  0
ARC
  5
F68
330
CA6
100
AcDbEntity
  8
OBJECT
100
AcDbCircle
 10
2.612131808727617
 20
21.19192793094382
 30
0.0
 40
0.062
100
AcDbArc
 50
90.0
 51
180.0
  0
ARC
  5
F69
330
CA6
100
AcDbEntity
  8
OBJECT
100
AcDbCircle
 10
7.003131808727619
 20
21.19192793094382
 30
0.0
 40
0.062
100
AcDbArc
 50
0.0
 51
90.0
  0
ARC
  5
F6A
330
CA6
100
AcDbEntity
  8
OBJECT
100
AcDbCircle
 10
6.776881808727619
 20
21.41817793094384
 30
0.0
 40
0.062
100
AcDbArc
 50
0.0
 51
90.0
  0
LINE
  5
F6B
330
CA6
100
AcDbEntity
  8
OBJECT
100
AcDbLine
 10
6.963881808727619
 20
21.25392793094382
 30
0.0
 11
7.003131808727619
 21
21.25392793094382
 31
0.0
  0
LINE
  5
F6C
330
CA6
100
AcDbEntity
  8
OBJECT
100
AcDbLine
 10
6.838881808727619
 20
21.37892793094382
 30
0.0
 11
6.838881808727619
 21
21.41817793094384
 31
0.0
  0
ARC
  5
F6D
330
CA6
100
AcDbEntity
  8
OBJECT
100
AcDbCircle
 10
6.963881808727619
 20
21.37892793094382
 30
0.0
 40
0.125
100
AcDbArc
 50
180.0
 51
270.0
  0
LINE
  5
F6E
330
CA6
100
AcDbEntity
  8
OBJECT
100
AcDbLine
 10
2.550381808727617
 20
21.38592793094383
 30
0.0
 11
2.550381808727617
 21
14.37192793094383
 31
0.0
  0
LINE
  5
F6F
330
CA6
100
AcDbEntity
  8
OBJECT
100
AcDbLine
 10
6.970881808727617
 20
21.47992793094382
 30
0.0
 11
2.644381808727619
 21
21.47992793094382
 31
0.0
  0
LINE
  5
F70
330
CA6
100
AcDbEntity
  8
OBJECT
100
AcDbLine
 10
7.064881808727619
 20
14.37192793094383
 30
0.0
 11
7.064881808727619
 21
21.38592793094383
 31
0.0
  0
LINE
  5
F71
330
CA6
100
AcDbEntity
  8
OBJECT
100
AcDbLine
 10
2.644381808727619
 20
14.27792793094383
 30
0.0
 11
6.970881808727617
 21
14.27792793094383
 31
0.0
  0
ARC
  5
F78
330
CA6
100
AcDbEntity
  8
OBJECT
100
AcDbCircle
 10
2.644381808727619
 20
21.38592793094383
 30
0.0
 40
0.094
100
AcDbArc
 50
90.0
 51
180.0
  0
ARC
  5
F79
330
CA6
100
AcDbEntity
  8
OBJECT
100
AcDbCircle
 10
6.970881808727617
 20
21.38592793094383
 30
0.0
 40
0.094
100
AcDbArc
 50
0.0
 51
90.0
  0
ARC
  5
F7A
330
CA6
100
AcDbEntity
  8
OBJECT
100
AcDbCircle
 10
6.970881808727617
 20
14.37192793094383
 30
0.0
 40
0.094
100
AcDbArc
 50
270.0
 51
0.0
  0
ARC
  5
F7B
330
CA6
100
AcDbEntity
  8
OBJECT
100
AcDbCircle
 10
2.644381808727619
 20
14.37192793094383
 30
0.0
 40
0.094
100
AcDbArc
 50
180.0
 51
270.0
  0
ARC
  5
F7C
330
CA6
100
AcDbEntity
  8
OBJECT
100
AcDbCircle
 10
6.963881808727619
 20
14.37892793094384
 30
0.0
 40
0.125
100
AcDbArc
 50
90.0
 51
180.0
  0
LINE
  5
F7D
330
CA6
100
AcDbEntity
  8
OBJECT
100
AcDbLine
 10
6.838881808727619
 20
14.37892793094384
 30
0.0
 11
6.838881808727619
 21
14.33967793094383
 31
0.0
  0
LINE
  5
F7E
330
CA6
100
AcDbEntity
  8
OBJECT
100
AcDbLine
 10
6.963881808727619
 20
14.50392793094384
 30
0.0
 11
7.003131808727619
 21
14.50392793094384
 31
0.0
  0
ARC
  5
F7F
330
CA6
100
AcDbEntity
  8
OBJECT
100
AcDbCircle
 10
6.776881808727619
 20
14.33967793094383
 30
0.0
 40
0.062
100
AcDbArc
 50
270.0
 51
0.0
  0
ARC
  5
F80
330
CA6
100
AcDbEntity
  8
OBJECT
100
AcDbCircle
 10
7.003131808727619
 20
14.56592793094383
 30
0.0
 40
0.062
100
AcDbArc
 50
270.0
 51
0.0
  0
ARC
  5
F81
330
CA6
100
AcDbEntity
  8
OBJECT
100
AcDbCircle
 10
2.612131808727617
 20
14.56592793094383
 30
0.0
 40
0.062
100
AcDbArc
 50
180.0
 51
270.0
  0
ARC
  5
F82
330
CA6
100
AcDbEntity
  8
OBJECT
100
AcDbCircle
 10
2.838381808727618
 20
14.33967793094383
 30
0.0
 40
0.062
100
AcDbArc
 50
180.0
 51
270.0
  0
LINE
  5
F83
330
CA6
100
AcDbEntity
  8
OBJECT
100
AcDbLine
 10
2.651381808727616
 20
14.50392793094384
 30
0.0
 11
2.612131808727617
 21
14.50392793094384
 31
0.0
  0
LINE
  5
F84
330
CA6
100
AcDbEntity
  8
OBJECT
100
AcDbLine
 10
2.776381808727616
 20
14.37892793094384
 30
0.0
 11
2.776381808727616
 21
14.33967793094383
 31
0.0
  0
ARC
  5
F85
330
CA6
100
AcDbEntity
  8
OBJECT
100
AcDbCircle
 10
2.651381808727616
 20
14.37892793094384
 30
0.0
 40
0.125
100
AcDbArc
 50
0.0
 51
90.0
  0
CIRCLE
  5
F86
330
CA6
100
AcDbEntity
  8
OBJECT
100
AcDbCircle
 10
6.963881808727619
 20
14.37892793094384
 30
0.0
 40
0.065
  0
CIRCLE
  5
F87
330
CA6
100
AcDbEntity
  8
OBJECT
100
AcDbCircle
 10
2.651381808727616
 20
14.37892793094384
 30
0.0
 40
0.065
  0
CIRCLE
  5
F88
330
CA6
100
AcDbEntity
  8
OBJECT
100
AcDbCircle
 10
2.651381808727616
 20
17.87892793094384
 30
0.0
 40
0.065
  0
ARC
  5
F89
330
CA6
100
AcDbEntity
  8
OBJECT
100
AcDbCircle
 10
2.651381808727616
 20
17.87892793094384
 30
0.0
 40
0.125
100
AcDbArc
 50
270.0
 51
90.0
  0
LINE
  5
F8A
330
CA6
100
AcDbEntity
  8
OBJECT
100
AcDbLine
 10
2.651381808727616
 20
17.75392793094382
 30
0.0
 11
2.612131808727617
 21
17.75392793094382
 31
0.0
  0
LINE
  5
F8B
330
CA6
100
AcDbEntity
  8
OBJECT
100
AcDbLine
 10
2.651381808727616
 20
18.00392793094383
 30
0.0
 11
2.612131808727617
 21
18.00392793094383
 31
0.0
  0
ARC
  5
F8C
330
CA6
100
AcDbEntity
  8
OBJECT
100
AcDbCircle
 10
2.612131808727617
 20
17.69192793094382
 30
0.0
 40
0.062
100
AcDbArc
 50
90.0
 51
180.0
  0
ARC
  5
F8D
330
CA6
100
AcDbEntity
  8
OBJECT
100
AcDbCircle
 10
2.612131808727617
 20
18.06592793094383
 30
0.0
 40
0.062
100
AcDbArc
 50
180.0
 51
270.0
  0
ARC
  5
F8E
330
CA6
100
AcDbEntity
  8
OBJECT
100
AcDbCircle
 10
7.003131808727619
 20
18.06592793094383
 30
0.0
 40
0.062
100
AcDbArc
 50
270.0
 51
0.0
  0
ARC
  5
F8F
330
CA6
100
AcDbEntity
  8
OBJECT
100
AcDbCircle
 10
7.003131808727619
 20
17.69192793094382
 30
0.0
 40
0.062
100
AcDbArc
 50
0.0
 51
90.0
  0
LINE
  5
F90
330
CA6
100
AcDbEntity
  8
OBJECT
100
AcDbLine
 10
6.963881808727619
 20
18.00392793094383
 30
0.0
 11
7.003131808727619
 21
18.00392793094383
 31
0.0
  0
LINE
  5
F91
330
CA6
100
AcDbEntity
  8
OBJECT
100
AcDbLine
 10
6.963881808727619
 20
17.75392793094382
 30
0.0
 11
7.003131808727619
 21
17.75392793094382
 31
0.0
  0
ARC
  5
F92
330
CA6
100
AcDbEntity
  8
OBJECT
100
AcDbCircle
 10
6.963881808727619
 20
17.87892793094384
 30
0.0
 40
0.125
100
AcDbArc
 50
90.0
 51
270.0
  0
CIRCLE
  5
F93
330
CA6
100
AcDbEntity
  8
OBJECT
100
AcDbCircle
 10
6.963881808727619
 20
17.87892793094384
 30
0.0
 40
0.065
  0
DIMENSION
  5
F94
330
CA6
100
AcDbEntity
  8
DIM
100
AcDbDimension
  2
*D6
 10
7.656765267392826
 20
17.87892793094384
 30
0.0
 11
7.656765267392822
 21
16.12892793094383
 31
0.0
 70
    32
  1
G
 71
     5
 42
3.499999999999996
  3
23NSTD
100
AcDbAlignedDimension
 13
6.963881808727619
 23
14.37892793094384
 33
0.0
 14
6.963881808727619
 24
17.87892793094384
 34
0.0
 50
270.0
100
AcDbRotatedDimension
  0
LINE
  5
FA2
330
CA6
100
AcDbEntity
  8
HIDDEN
100
AcDbLine
 10
15.56220123302856
 20
8.400611285620772
 30
0.0
 11
15.69212204054105
 21
8.400611285620763
 31
0.0
  0
LINE
  5
FA3
330
CA6
100
AcDbEntity
  8
HIDDEN
100
AcDbLine
 10
15.69212204054105
 20
8.400611285620763
 30
0.0
 11
15.62579690652579
 21
8.363894306407852
 31
0.0
  0
LINE
  5
FA4
330
CA6
100
AcDbEntity
  8
HIDDEN
100
AcDbLine
 10
15.56220123302856
 20
8.400611285620772
 30
0.0
 11
15.62579690652579
 21
8.363894306407852
 31
0.0
  0
LINE
  5
FA5
330
CA6
100
AcDbEntity
  8
HIDDEN
100
AcDbLine
 10
15.56220123302856
 20
8.775611285620772
 30
0.0
 11
15.56220123302856
 21
8.400611285620772
 31
0.0
  0
LINE
  5
FA6
330
CA6
100
AcDbEntity
  8
HIDDEN
100
AcDbLine
 10
15.69212204054105
 20
8.775611285620772
 30
0.0
 11
15.69212204054105
 21
8.400611285620763
 31
0.0
  0
LINE
  5
FA7
330
CA6
100
AcDbEntity
  8
CENTER
100
AcDbLine
 10
15.62716163678482
 20
8.994361285620774
 30
0.0
 11
15.62716163678482
 21
8.243904127396652
 31
0.0
  0
LINE
  5
FA8
330
CA6
100
AcDbEntity
  8
OBJECT
100
AcDbLine
 10
15.75216163678482
 20
8.775611285620763
 30
0.0
 11
15.50216163678482
 21
8.775611285620772
 31
0.0
  0
LINE
  5
FA9
330
CA6
100
AcDbEntity
  8
OBJECT
100
AcDbLine
 10
15.75216163678482
 20
8.775611285620763
 30
0.0
 11
15.8160773383419
 21
6.945305067076861
 31
0.0
  0
ARC
  5
FAA
330
CA6
100
AcDbEntity
  8
OBJECT
100
AcDbCircle
 10
15.87853926503059
 20
6.947486285620764
 30
0.0
 40
0.0625
100
AcDbArc
 50
182.0
 51
270.0
  0
ARC
  5
FAB
330
CA6
100
AcDbEntity
  8
OBJECT
100
AcDbCircle
 10
15.37578400853904
 20
6.947486285620764
 30
0.0
 40
0.0625
100
AcDbArc
 50
270.0
 51
358.0
  0
LINE
  5
FAC
330
CA6
100
AcDbEntity
  8
OBJECT
100
AcDbLine
 10
15.50216163678482
 20
8.775611285620763
 30
0.0
 11
15.43824593522773
 21
6.945305067076861
 31
0.0
  0
LINE
  5
FAD
330
CA6
100
AcDbEntity
  8
OBJECT
100
AcDbLine
 10
2.64388180872762
 20
25.00049485352254
 30
0.0
 11
6.97138180872762
 21
25.00049485352254
 31
0.0
  0
LINE
  5
FAE
330
CA6
100
AcDbEntity
  8
OBJECT
100
AcDbLine
 10
7.15888180872762
 20
25.18799485352253
 30
0.0
 11
7.15888180872762
 21
32.20299485352254
 31
0.0
  0
LINE
  5
FAF
330
CA6
100
AcDbEntity
  8
OBJECT
100
AcDbLine
 10
6.97138180872762
 20
32.39049485352254
 30
0.0
 11
2.64388180872762
 21
32.39049485352254
 31
0.0
  0
LINE
  5
FB0
330
CA6
100
AcDbEntity
  8
OBJECT
100
AcDbLine
 10
2.45638180872762
 20
32.20299485352254
 30
0.0
 11
2.45638180872762
 21
25.18799485352253
 31
0.0
  0
ARC
  5
FB1
330
CA6
100
AcDbEntity
  8
OBJECT
100
AcDbCircle
 10
6.97138180872762
 20
25.18799485352253
 30
0.0
 40
0.1875
100
AcDbArc
 50
270.0
 51
0.0
  0
ARC
  5
FB2
330
CA6
100
AcDbEntity
  8
OBJECT
100
AcDbCircle
 10
6.97138180872762
 20
32.20299485352254
 30
0.0
 40
0.1875
100
AcDbArc
 50
0.0
 51
90.0
  0
ARC
  5
FB3
330
CA6
100
AcDbEntity
  8
OBJECT
100
AcDbCircle
 10
2.64388180872762
 20
32.20299485352254
 30
0.0
 40
0.1875
100
AcDbArc
 50
90.0
 51
180.0
  0
ARC
  5
FB4
330
CA6
100
AcDbEntity
  8
OBJECT
100
AcDbCircle
 10
2.64388180872762
 20
25.18799485352253
 30
0.0
 40
0.1875
100
AcDbArc
 50
180.0
 51
270.0
  0
CIRCLE
  5
FB5
330
CA6
100
AcDbEntity
  8
OBJECT
100
AcDbCircle
 10
6.963881808727622
 20
32.19549485352254
 30
0.0
 40
0.078125
  0
CIRCLE
  5
FB6
330
CA6
100
AcDbEntity
  8
OBJECT
100
AcDbCircle
 10
2.65138180872762
 20
32.19549485352254
 30
0.0
 40
0.078125
  0
ARC
  5
FB7
330
CA6
100
AcDbEntity
  8
OBJECT
100
AcDbCircle
 10
2.65138180872762
 20
32.19549485352254
 30
0.0
 40
0.125
100
AcDbArc
 50
280.2420780715145
 51
350.1468812512676
  0
ARC
  5
FB8
330
CA6
100
AcDbEntity
  8
OBJECT
100
AcDbCircle
 10
6.963881808727622
 20
32.19549485352254
 30
0.0
 40
0.125
100
AcDbArc
 50
189.8531187487348
 51
259.7579219284832
  0
LINE
  5
FB9
330
CA6
100
AcDbEntity
  8
OBJECT
100
AcDbLine
 10
19.3221616367848
 20
11.35440383861139
 30
0.0
 11
19.1971616367848
 21
11.35440383861139
 31
0.0
  0
LINE
  5
FBA
330
CA6
100
AcDbEntity
  8
OBJECT
100
AcDbLine
 10
19.0565366367848
 20
11.12002883861139
 30
0.0
 11
19.0565366367848
 21
11.27627883861139
 31
0.0
  0
LINE
  5
FBB
330
CA6
100
AcDbEntity
  8
OBJECT
100
AcDbLine
 10
12.19778663678481
 20
11.12002883861139
 30
0.0
 11
12.19778663678481
 21
11.27627883861139
 31
0.0
  0
LINE
  5
FBC
330
CA6
100
AcDbEntity
  8
OBJECT
100
AcDbLine
 10
12.09591163678481
 20
11.12002883861139
 30
0.0
 11
19.1584116367848
 21
11.12002883861139
 31
0.0
  0
LINE
  5
FBD
330
CA6
100
AcDbEntity
  8
OBJECT
100
AcDbLine
 10
11.93216163678481
 20
11.22940383861139
 30
0.0
 11
11.93216163678481
 21
11.35440383861139
 31
0.0
  0
LINE
  5
FBE
330
CA6
100
AcDbEntity
  8
OBJECT
100
AcDbLine
 10
19.3221616367848
 20
11.22940383861139
 30
0.0
 11
19.3221616367848
 21
11.35440383861139
 31
0.0
  0
DIMENSION
  5
FBF
330
CA6
100
AcDbEntity
  8
DIM
100
AcDbDimension
  2
*D7
 10
8.259619429651463
 20
32.19549485352254
 30
0.0
 11
8.259619429651456
 21
28.69549485352253
 31
0.0
 70
    32
  1
E
 71
     5
 42
7.0
  3
23NSTD
100
AcDbAlignedDimension
 13
6.963881808727624
 23
25.19549485352253
 33
0.0
 14
6.963881808727624
 24
32.19549485352254
 34
0.0
 50
270.0
100
AcDbRotatedDimension
  0
DIMENSION
  5
FCD
330
CA6
100
AcDbEntity
  8
DIM
100
AcDbDimension
  2
*D8
 10
8.842790448759393
 20
25.00049485352253
 30
0.0
 11
8.842790448759389
 21
28.69549485352253
 31
0.0
 70
    32
  1
A
 71
     5
 42
7.389999999999999
  3
23NSTD
100
AcDbAlignedDimension
 13
6.971381808727625
 23
32.39049485352254
 33
0.0
 14
6.971381808727625
 24
25.00049485352254
 34
0.0
 50
270.0
100
AcDbRotatedDimension
  0
DIMENSION
  5
FDB
330
CA6
100
AcDbEntity
  8
DIM
100
AcDbDimension
  2
*D9
 10
7.15888180872762
 20
33.66049632556043
 30
0.0
 11
4.807631808727618
 21
33.66049632556043
 31
0.0
 70
    32
  1
B
 71
     5
 42
4.702499999999997
  3
23NSTD
100
AcDbAlignedDimension
 13
2.45638180872762
 23
32.20299485352254
 33
0.0
 14
7.15888180872762
 24
32.20299485352254
 34
0.0
100
AcDbRotatedDimension
  0
TEXT
  5
FE9
330
CA6
100
AcDbEntity
  8
BEND
100
AcDbText
 10
3.747315456543886
 20
32.48207065787282
 30
0.0
 40
0.281
  1
A
 41
0.75
 72
     4
 11
3.817565456543886
 21
32.62257065787282
 31
0.0
100
AcDbText
  0
DIMENSION
  5
FF8
330
CA6
100
AcDbEntity
  8
DIM
100
AcDbDimension
  2
*D10
 10
6.963881808727622
 20
33.12691885861164
 30
0.0
 11
4.80763180872762
 21
33.12691885861164
 31
0.0
 70
    32
  1
F
 71
     5
 42
4.3125
  3
23NSTD
100
AcDbAlignedDimension
 13
2.65138180872762
 23
32.19549485352254
 33
0.0
 14
6.963881808727622
 24
32.19549485352254
 34
0.0
100
AcDbRotatedDimension
  0
LWPOLYLINE
  5
1006
330
CA6
100
AcDbEntity
  8
OBJECT
100
AcDbPolyline
 90
       17
 70
     0
 43
0.0
 10
19.3221616367848
 20
11.22940383861139
 10
19.3221616367848
 20
11.19815383861139
 10
19.21841163678482
 20
11.19815383861139
 10
19.21841163678482
 20
11.12002883861139
 10
19.1584116367848
 20
11.12002883861139
 10
19.1584116367848
 20
11.21377883861139
 42
0.4142135623730971
 10
19.09591163678482
 20
11.27627883861139
 10
12.15841163678482
 20
11.27627883861139
 42
0.4142135623730951
 10
12.09591163678481
 20
11.21377883861139
 10
12.09591163678481
 20
11.12002883861139
 10
12.03591163678481
 20
11.12002883861139
 10
12.03591163678481
 20
11.19815383861139
 10
11.93216163678481
 20
11.19815383861139
 10
11.93216163678481
 20
11.22940383861139
 42
-0.4142135623730951
 10
12.05716163678482
 20
11.35440383861139
 10
19.1971616367848
 20
11.35440383861139
 42
-0.4142135623730951
 10
19.3221616367848
 20
11.22940383861139
 42
-4.1764428448697
  0
LINE
  5
1019
330
CA6
100
AcDbEntity
  8
OBJECT
100
AcDbLine
 10
12.05716163678482
 20
11.35440383861139
 30
0.0
 11
11.93216163678481
 21
11.35440383861139
 31
0.0
  0
TEXT
  5
1026
330
CA6
100
AcDbEntity
  8
BEND
100
AcDbText
 10
3.747315456543886
 20
24.55976033909068
 30
0.0
 40
0.281
  1
A
 41
0.75
 72
     4
 11
3.817565456543886
 21
24.70026033909068
 31
0.0
100
AcDbText
  0
LINE
  5
1035
330
CA6
100
AcDbEntity
  8
OBJECT
100
AcDbLine
 10
2.562631808727619
 20
32.05536985352255
 30
0.0
 11
2.562631808727619
 21
28.83561985352253
 31
0.0
  0
LINE
  5
1036
330
CA6
100
AcDbEntity
  8
OBJECT
100
AcDbLine
 10
7.052631808727621
 20
32.05536985352255
 30
0.0
 11
7.052631808727621
 21
28.83561985352253
 31
0.0
  0
LINE
  5
1037
330
CA6
100
AcDbEntity
  8
OBJECT
100
AcDbLine
 10
2.622631808727618
 20
32.01147464403453
 30
0.0
 11
2.622631808727618
 21
28.87951506301055
 31
0.0
  0
LINE
  5
1038
330
CA6
100
AcDbEntity
  8
OBJECT
100
AcDbLine
 10
6.992631808727617
 20
32.01147464403457
 30
0.0
 11
6.992631808727617
 21
28.87951506301055
 31
0.0
  0
ARC
  5
1039
330
CA6
100
AcDbEntity
  8
OBJECT
100
AcDbCircle
 10
2.684631808727619
 20
32.01147464403453
 30
0.0
 40
0.062
100
AcDbArc
 50
100.2420780715145
 51
180.0
  0
ARC
  5
103A
330
CA6
100
AcDbEntity
  8
OBJECT
100
AcDbCircle
 10
6.930631808727621
 20
32.01147464403457
 30
0.0
 40
0.062
100
AcDbArc
 50
0.0
 51
79.75792192848229
  0
LINE
  5
103B
330
CA6
100
AcDbEntity
  8
OBJECT
100
AcDbLine
 10
2.65138180872762
 20
32.11736985352254
 30
0.0
 11
2.62463180872762
 21
32.11736985352254
 31
0.0
  0
LINE
  5
103C
330
CA6
100
AcDbEntity
  8
OBJECT
100
AcDbLine
 10
6.963881808727622
 20
32.11736985352254
 30
0.0
 11
6.990631808727616
 21
32.11736985352254
 31
0.0
  0
ARC
  5
103D
330
CA6
100
AcDbEntity
  8
OBJECT
100
AcDbCircle
 10
6.990631808727616
 20
32.05536985352255
 30
0.0
 40
0.062
100
AcDbArc
 50
0.0
 51
90.0
  0
ARC
  5
103E
330
CA6
100
AcDbEntity
  8
OBJECT
100
AcDbCircle
 10
2.62463180872762
 20
32.05536985352255
 30
0.0
 40
0.062
100
AcDbArc
 50
90.0
 51
180.0
  0
LINE
  5
103F
330
CA6
100
AcDbEntity
  8
OBJECT
100
AcDbLine
 10
6.823756808727621
 20
32.28549485352255
 30
0.0
 11
2.79150680872762
 21
32.28549485352255
 31
0.0
  0
LINE
  5
1040
330
CA6
100
AcDbEntity
  8
OBJECT
100
AcDbLine
 10
6.779640119634207
 20
32.22549485352254
 30
0.0
 11
2.835623497821075
 21
32.22549485352254
 31
0.0
  0
ARC
  5
1041
330
CA6
100
AcDbEntity
  8
OBJECT
100
AcDbCircle
 10
2.835623497821075
 20
32.16349485352255
 30
0.0
 40
0.062
100
AcDbArc
 50
90.0
 51
170.1468812512669
  0
ARC
  5
1042
330
CA6
100
AcDbEntity
  8
OBJECT
100
AcDbCircle
 10
6.779640119634207
 20
32.16349485352255
 30
0.0
 40
0.062
100
AcDbArc
 50
9.853118748734528
 51
90.0
  0
LINE
  5
1043
330
CA6
100
AcDbEntity
  8
OBJECT
100
AcDbLine
 10
2.72950680872762
 20
32.19549485352254
 30
0.0
 11
2.72950680872762
 21
32.22349485352253
 31
0.0
  0
LINE
  5
1044
330
CA6
100
AcDbEntity
  8
OBJECT
100
AcDbLine
 10
6.885756808727622
 20
32.19549485352254
 30
0.0
 11
6.885756808727622
 21
32.22349485352253
 31
0.0
  0
ARC
  5
1045
330
CA6
100
AcDbEntity
  8
OBJECT
100
AcDbCircle
 10
2.79150680872762
 20
32.22349485352253
 30
0.0
 40
0.062
100
AcDbArc
 50
90.0
 51
180.0
  0
ARC
  5
1046
330
CA6
100
AcDbEntity
  8
OBJECT
100
AcDbCircle
 10
6.823756808727621
 20
32.22349485352253
 30
0.0
 40
0.062
100
AcDbArc
 50
0.0
 51
90.0
  0
ARC
  5
1047
330
CA6
100
AcDbEntity
  8
OBJECT
100
AcDbCircle
 10
6.823756808727621
 20
25.16749485352253
 30
0.0
 40
0.062
100
AcDbArc
 50
270.0
 51
0.0
  0
ARC
  5
1048
330
CA6
100
AcDbEntity
  8
OBJECT
100
AcDbCircle
 10
2.79150680872762
 20
25.16749485352253
 30
0.0
 40
0.062
100
AcDbArc
 50
180.0
 51
270.0
  0
LINE
  5
1049
330
CA6
100
AcDbEntity
  8
OBJECT
100
AcDbLine
 10
6.885756808727622
 20
25.19549485352253
 30
0.0
 11
6.885756808727622
 21
25.16749485352253
 31
0.0
  0
LINE
  5
104A
330
CA6
100
AcDbEntity
  8
OBJECT
100
AcDbLine
 10
2.72950680872762
 20
25.19549485352253
 30
0.0
 11
2.72950680872762
 21
25.16749485352253
 31
0.0
  0
ARC
  5
104B
330
CA6
100
AcDbEntity
  8
OBJECT
100
AcDbCircle
 10
6.779640119634207
 20
25.22749485352254
 30
0.0
 40
0.062
100
AcDbArc
 50
270.0
 51
350.1468812512654
  0
ARC
  5
104C
330
CA6
100
AcDbEntity
  8
OBJECT
100
AcDbCircle
 10
2.835623497821075
 20
25.22749485352254
 30
0.0
 40
0.062
100
AcDbArc
 50
189.8531187487329
 51
270.0
  0
LINE
  5
104D
330
CA6
100
AcDbEntity
  8
OBJECT
100
AcDbLine
 10
6.779640119634207
 20
25.16549485352252
 30
0.0
 11
2.835623497821075
 21
25.16549485352252
 31
0.0
  0
LINE
  5
104E
330
CA6
100
AcDbEntity
  8
OBJECT
100
AcDbLine
 10
6.823756808727621
 20
25.10549485352254
 30
0.0
 11
2.79150680872762
 21
25.10549485352254
 31
0.0
  0
ARC
  5
104F
330
CA6
100
AcDbEntity
  8
OBJECT
100
AcDbCircle
 10
2.62463180872762
 20
25.33561985352253
 30
0.0
 40
0.062
100
AcDbArc
 50
180.0
 51
270.0
  0
ARC
  5
1050
330
CA6
100
AcDbEntity
  8
OBJECT
100
AcDbCircle
 10
6.990631808727616
 20
25.33561985352253
 30
0.0
 40
0.062
100
AcDbArc
 50
270.0
 51
0.0
  0
LINE
  5
1051
330
CA6
100
AcDbEntity
  8
OBJECT
100
AcDbLine
 10
6.963881808727622
 20
25.27361985352253
 30
0.0
 11
6.990631808727616
 21
25.27361985352253
 31
0.0
  0
LINE
  5
1052
330
CA6
100
AcDbEntity
  8
OBJECT
100
AcDbLine
 10
2.65138180872762
 20
25.27361985352253
 30
0.0
 11
2.62463180872762
 21
25.27361985352253
 31
0.0
  0
ARC
  5
1053
330
CA6
100
AcDbEntity
  8
OBJECT
100
AcDbCircle
 10
6.930631808727621
 20
25.3795150630105
 30
0.0
 40
0.062
100
AcDbArc
 50
280.2420780715176
 51
0.0
  0
ARC
  5
1054
330
CA6
100
AcDbEntity
  8
OBJECT
100
AcDbCircle
 10
2.684631808727619
 20
25.37951506301055
 30
0.0
 40
0.062
100
AcDbArc
 50
180.0
 51
259.7579219284854
  0
ARC
  5
1055
330
CA6
100
AcDbEntity
  8
OBJECT
100
AcDbCircle
 10
6.963881808727622
 20
25.19549485352253
 30
0.0
 40
0.125
100
AcDbArc
 50
100.2420780715164
 51
170.1468812512651
  0
ARC
  5
1056
330
CA6
100
AcDbEntity
  8
OBJECT
100
AcDbCircle
 10
2.65138180872762
 20
25.19549485352253
 30
0.0
 40
0.125
100
AcDbArc
 50
9.853118748732351
 51
79.7579219284853
  0
CIRCLE
  5
1057
330
CA6
100
AcDbEntity
  8
OBJECT
100
AcDbCircle
 10
2.65138180872762
 20
25.19549485352253
 30
0.0
 40
0.078125
  0
CIRCLE
  5
1058
330
CA6
100
AcDbEntity
  8
OBJECT
100
AcDbCircle
 10
6.963881808727622
 20
25.19549485352253
 30
0.0
 40
0.078125
  0
CIRCLE
  5
1059
330
CA6
100
AcDbEntity
  8
OBJECT
100
AcDbCircle
 10
2.65138180872762
 20
28.69549485352253
 30
0.0
 40
0.078125
  0
ARC
  5
105A
330
CA6
100
AcDbEntity
  8
OBJECT
100
AcDbCircle
 10
2.65138180872762
 20
28.69549485352253
 30
0.0
 40
0.125
100
AcDbArc
 50
280.2420780715144
 51
79.7579219284853
  0
ARC
  5
105B
330
CA6
100
AcDbEntity
  8
OBJECT
100
AcDbCircle
 10
2.684631808727619
 20
28.87951506301055
 30
0.0
 40
0.062
100
AcDbArc
 50
180.0
 51
259.7579219284854
  0
LINE
  5
105C
330
CA6
100
AcDbEntity
  8
OBJECT
100
AcDbLine
 10
2.65138180872762
 20
28.77361985352253
 30
0.0
 11
2.62463180872762
 21
28.77361985352253
 31
0.0
  0
ARC
  5
105D
330
CA6
100
AcDbEntity
  8
OBJECT
100
AcDbCircle
 10
2.62463180872762
 20
28.83561985352253
 30
0.0
 40
0.062
100
AcDbArc
 50
180.0
 51
270.0
  0
LINE
  5
105E
330
CA6
100
AcDbEntity
  8
OBJECT
100
AcDbLine
 10
2.65138180872762
 20
28.61736985352253
 30
0.0
 11
2.62463180872762
 21
28.61736985352253
 31
0.0
  0
LINE
  5
105F
330
CA6
100
AcDbEntity
  8
OBJECT
100
AcDbLine
 10
2.562631808727619
 20
28.55536985352253
 30
0.0
 11
2.562631808727619
 21
25.33561985352253
 31
0.0
  0
ARC
  5
1060
330
CA6
100
AcDbEntity
  8
OBJECT
100
AcDbCircle
 10
2.62463180872762
 20
28.55536985352253
 30
0.0
 40
0.062
100
AcDbArc
 50
90.0
 51
180.0
  0
ARC
  5
1061
330
CA6
100
AcDbEntity
  8
OBJECT
100
AcDbCircle
 10
2.684631808727619
 20
28.51147464403453
 30
0.0
 40
0.062
100
AcDbArc
 50
100.2420780715147
 51
180.0
  0
LINE
  5
1062
330
CA6
100
AcDbEntity
  8
OBJECT
100
AcDbLine
 10
2.622631808727618
 20
28.51147464403453
 30
0.0
 11
2.622631808727618
 21
25.37951506301055
 31
0.0
  0
ARC
  5
1063
330
CA6
100
AcDbEntity
  8
OBJECT
100
AcDbCircle
 10
6.930631808727621
 20
28.51147464403453
 30
0.0
 40
0.062
100
AcDbArc
 50
0.0
 51
79.75792192848517
  0
ARC
  5
1064
330
CA6
100
AcDbEntity
  8
OBJECT
100
AcDbCircle
 10
6.990631808727624
 20
28.55536985352253
 30
0.0
 40
0.062
100
AcDbArc
 50
0.0
 51
90.0
  0
LINE
  5
1065
330
CA6
100
AcDbEntity
  8
OBJECT
100
AcDbLine
 10
6.963881808727624
 20
28.61736985352253
 30
0.0
 11
6.990631808727624
 21
28.61736985352253
 31
0.0
  0
ARC
  5
1066
330
CA6
100
AcDbEntity
  8
OBJECT
100
AcDbCircle
 10
6.990631808727616
 20
28.83561985352253
 30
0.0
 40
0.062
100
AcDbArc
 50
270.0
 51
0.0
  0
LINE
  5
1067
330
CA6
100
AcDbEntity
  8
OBJECT
100
AcDbLine
 10
6.963881808727624
 20
28.77361985352253
 30
0.0
 11
6.990631808727616
 21
28.77361985352253
 31
0.0
  0
ARC
  5
1068
330
CA6
100
AcDbEntity
  8
OBJECT
100
AcDbCircle
 10
6.930631808727621
 20
28.87951506301055
 30
0.0
 40
0.062
100
AcDbArc
 50
280.2420780715144
 51
0.0
  0
ARC
  5
1069
330
CA6
100
AcDbEntity
  8
OBJECT
100
AcDbCircle
 10
6.963881808727624
 20
28.69549485352253
 30
0.0
 40
0.125
100
AcDbArc
 50
100.2420780715145
 51
259.7579219284854
  0
CIRCLE
  5
106A
330
CA6
100
AcDbEntity
  8
OBJECT
100
AcDbCircle
 10
6.963881808727624
 20
28.69549485352253
 30
0.0
 40
0.078125
  0
LINE
  5
106B
330
CA6
100
AcDbEntity
  8
OBJECT
100
AcDbLine
 10
7.052631808727621
 20
28.55536985352253
 30
0.0
 11
7.052631808727621
 21
25.33561985352253
 31
0.0
  0
LINE
  5
106C
330
CA6
100
AcDbEntity
  8
OBJECT
100
AcDbLine
 10
6.992631808727617
 20
28.51147464403453
 30
0.0
 11
6.992631808727617
 21
25.3795150630105
 31
0.0
  0
DIMENSION
  5
106D
330
CA6
100
AcDbEntity
  8
DIM
100
AcDbDimension
  2
*D11
 10
7.656765267392826
 20
28.69549485352253
 30
0.0
 11
7.656765267392821
 21
26.94549485352254
 31
0.0
 70
    32
  1
G
 71
     5
 42
3.5
  3
23NSTD
100
AcDbAlignedDimension
 13
6.963881808727624
 23
25.19549485352253
 33
0.0
 14
6.963881808727624
 24
28.69549485352253
 34
0.0
 50
270.0
100
AcDbRotatedDimension
  0
LINE
  5
107B
330
CA6
100
AcDbEntity
  8
OBJECT
100
AcDbLine
 10
22.3515287222658
 20
24.60536826595127
 30
0.0
 11
18.60243113712363
 21
26.76991076595127
 31
0.0
  0
LINE
  5
107C
330
CA6
100
AcDbEntity
  8
OBJECT
100
AcDbLine
 10
12.20257701531596
 20
23.26186826595127
 30
0.0
 11
18.2839497672218
 21
26.77295046130657
 31
0.0
  0
LINE
  5
107D
330
CA6
100
AcDbEntity
  8
OBJECT
100
AcDbLine
 10
12.25886866656193
 20
23.22936826595127
 30
0.0
 11
18.33490289951357
 21
26.73736826595126
 31
0.0
  0
LINE
  5
107E
330
CA6
100
AcDbEntity
  8
OBJECT
100
AcDbLine
 10
22.2952370710198
 20
24.57286826595126
 30
0.0
 11
18.54621309803696
 21
26.73736826595126
 31
0.0
  0
LWPOLYLINE
  5
107F
330
CA6
100
AcDbEntity
  8
OBJECT
100
AcDbPolyline
 90
        4
 70
     0
 43
0.0
 10
18.44048438661594
 20
26.80863973403316
 42
0.0587518675353738
 10
18.34852359382217
 20
26.79779656915915
 42
0.0723410840576607
 10
18.27853763610825
 20
26.76991076595127
 42
0.0074209161895268
 10
18.2742793869913
 20
26.76736726467732
 42
0.1568512196707919
  0
LWPOLYLINE
  5
1085
330
CA6
100
AcDbEntity
  8
OBJECT
100
AcDbPolyline
 90
        3
 70
     0
 43
0.0
 10
18.60243113712363
 20
26.76991076595127
 42
0.072341084057657
 10
18.53244517940972
 20
26.79779656915915
 42
0.0587518675353763
 10
18.44048438661594
 20
26.80863973403316
 42
0.0587518675353738
  0
LWPOLYLINE
  5
108A
330
CA6
100
AcDbEntity
  8
OBJECT
100
AcDbPolyline
 90
        3
 70
     0
 43
0.0
 10
18.44055799877526
 20
26.76263529325602
 42
0.058751867535373
 10
18.38056218743387
 20
26.75556114291042
 42
0.0723410840576583
 10
18.33490289951357
 20
26.73736826595126
 42
0.1066170543910154
  0
LWPOLYLINE
  5
108F
330
CA6
100
AcDbEntity
  8
OBJECT
100
AcDbPolyline
 90
        3
 70
     0
 43
0.0
 10
18.54621309803696
 20
26.73736826595126
 42
0.0723410840576623
 10
18.50055381011666
 20
26.75556114291042
 42
0.0587518675353766
 10
18.44055799877526
 20
26.76263529325602
 42
0.058751867535373
  0
LWPOLYLINE
  5
1094
330
CA6
100
AcDbEntity
  8
OBJECT
100
AcDbPolyline
 90
        3
 70
     0
 43
0.0
 10
18.54621309803696
 20
26.64336826595127
 42
0.0723410840576623
 10
18.50055381011666
 20
26.66156114291042
 42
0.0587518675353766
 10
18.44055799877526
 20
26.66863529325603
 42
0.058751867535373
  0
LWPOLYLINE
  5
1099
330
CA6
100
AcDbEntity
  8
OBJECT
100
AcDbPolyline
 90
        3
 70
     0
 43
0.0
 10
18.44055799877526
 20
26.66863529325603
 42
0.058751867535373
 10
18.38056218743387
 20
26.66156114291042
 42
0.0723410840576583
 10
18.33490289951357
 20
26.64336826595127
 42
0.1066170543910154
  0
LWPOLYLINE
  5
109E
330
CA6
100
AcDbEntity
  8
OBJECT
100
AcDbPolyline
 90
       16
 70
     1
 43
0.0
 10
18.44055799877526
 20
26.6271230999472
 42
0.0587518675353727
 10
18.40908478626831
 20
26.62341207025772
 42
0.0723410840576566
 10
18.38513237293305
 20
26.61386826595126
 42
0.1066170543909957
 10
18.36725892165686
 20
26.59767783986505
 42
0.1568512196707378
 10
18.36217432700619
 20
26.58186826595127
 42
0.1568512196707294
 10
18.36725892165686
 20
26.5660586920375
 42
0.1066170543909819
 10
18.38513237293305
 20
26.54986826595127
 42
0.0723410840576534
 10
18.40908478626831
 20
26.54032446164482
 42
0.0587518675353621
 10
18.44055799877526
 20
26.53661343195532
 42
0.0587518675353727
 10
18.47203121128222
 20
26.54032446164482
 42
0.072341084057657
 10
18.49598362461747
 20
26.54986826595127
 42
0.1066170543910092
 10
18.51385707589366
 20
26.5660586920375
 42
0.1568512196707462
 10
18.51894167054433
 20
26.58186826595127
 42
0.1568512196707336
 10
18.51385707589366
 20
26.59767783986505
 42
0.1066170543909893
 10
18.49598362461747
 20
26.61386826595126
 42
0.0723410840576466
 10
18.47203121128222
 20
26.62341207025772
 42
0.0587518675353801
  0
LWPOLYLINE
  5
10B0
330
CA6
100
AcDbEntity
  8
OBJECT
100
AcDbPolyline
 90
        4
 70
     0
 43
0.0
 10
18.30684258167739
 20
26.53951852850551
 42
0.1032009272409039
 10
18.28983220832059
 20
26.55471913899808
 42
0.0723410840576526
 10
18.26644117967289
 20
26.56403926039109
 42
0.0587518675353721
 10
18.23570562058406
 20
26.56766331282224
 42
0.0587518675353793
  0
LINE
  5
10B6
330
CA6
100
AcDbEntity
  8
OBJECT
100
AcDbLine
 10
18.18404521105422
 20
26.55609043198182
 30
0.0
 11
18.18404521105422
 21
24.55909043198182
 31
0.0
  0
LWPOLYLINE
  5
10B7
330
CA6
100
AcDbEntity
  8
OBJECT
100
AcDbPolyline
 90
        3
 70
     0
 43
0.0
 10
18.23570562058406
 20
26.56766331282224
 42
0.0587518675353793
 10
18.20497006149521
 20
26.56403926039107
 42
0.0642382339879882
 10
18.18404521105422
 20
26.55609043198182
 42
0.010596345945674
  0
LINE
  5
10BC
330
CA6
100
AcDbEntity
  8
OBJECT
100
AcDbLine
 10
18.30684258167739
 20
26.53951852850552
 30
0.0
 11
18.30684258167739
 21
24.54251852850553
 31
0.0
  0
LINE
  5
10BD
330
CA6
100
AcDbEntity
  8
OBJECT
100
AcDbLine
 10
18.57937459887421
 20
26.54532450648391
 30
0.0
 11
18.57937459887421
 21
24.54832450648388
 31
0.0
  0
LWPOLYLINE
  5
10BE
330
CA6
100
AcDbEntity
  8
OBJECT
100
AcDbPolyline
 90
        7
 70
     0
 43
0.0
 10
18.30684258167739
 20
26.53951852850552
 42
0.0730609864587327
 10
18.33230482330221
 20
26.51936826595127
 42
0.0723410840576608
 10
18.37908688059761
 20
26.50072802316525
 42
0.0587518675353809
 10
18.44055799877526
 20
26.49347991830295
 42
0.0587518675353774
 10
18.50202911695292
 20
26.50072802316525
 42
0.0723410840576568
 10
18.54881117424832
 20
26.51936826595127
 42
0.0904779399290791
 10
18.57937459887421
 20
26.54532450648389
 42
0.1568512196707811
  0
LWPOLYLINE
  5
10C7
330
CA6
100
AcDbEntity
  8
OBJECT
100
AcDbPolyline
 90
        4
 70
     0
 43
0.0
 10
18.64531940539604
 20
26.56739715027073
 42
0.0587518675353793
 10
18.61458384630719
 20
26.56377309783959
 42
0.0723410840576608
 10
18.5911928176595
 20
26.55445297644657
 42
0.0671451366482417
 10
18.57937459887421
 20
26.54532450648389
 42
0.1568512196707734
  0
LWPOLYLINE
  5
10CD
330
CA6
100
AcDbEntity
  8
OBJECT
100
AcDbPolyline
 90
        3
 70
     0
 43
0.0
 10
18.69651805456858
 20
26.55606958861302
 42
0.0627377818794437
 10
18.67605496448486
 20
26.56377309783959
 42
0.0587518675353721
 10
18.64531940539604
 20
26.56739715027073
 42
0.0587518675353793
  0
LINE
  5
10D2
330
CA6
100
AcDbEntity
  8
OBJECT
100
AcDbLine
 10
18.69651805456858
 20
26.55606958861302
 30
0.0
 11
18.69651805456858
 21
24.55938366517161
 31
0.0
  0
LINE
  5
10D3
330
CA6
100
AcDbEntity
  8
OBJECT
100
AcDbLine
 10
18.69651805456859
 20
26.55606958861302
 30
0.0
 11
18.54621309803696
 21
26.64336826595127
 31
0.0
  0
LINE
  5
10D4
330
CA6
100
AcDbEntity
  8
OBJECT
100
AcDbLine
 10
18.18404521105424
 20
26.55609043198182
 30
0.0
 11
18.33490289951357
 21
26.64336826595127
 31
0.0
  0
LINE
  5
10D5
330
CA6
100
AcDbEntity
  8
OBJECT
100
AcDbLine
 10
12.21586095149026
 20
28.55408849453013
 30
0.0
 11
18.26752245709235
 21
32.048016893834
 31
0.0
  0
LINE
  5
10D6
330
CA6
100
AcDbEntity
  8
OBJECT
100
AcDbLine
 10
18.61359354045817
 20
32.04801689383399
 30
0.0
 11
22.36175148803722
 21
29.88401689383399
 31
0.0
  0
LWPOLYLINE
  5
10D7
330
CA6
100
AcDbEntity
  8
OBJECT
100
AcDbPolyline
 90
       16
 70
     1
 43
0.0
 10
18.44055799877526
 20
32.0597675131607
 42
0.0587518675353782
 10
18.37146446194357
 20
32.05162064329545
 42
0.072341084057657
 10
18.31888142954356
 20
32.03066901040398
 42
0.1066170543910075
 10
18.27964361853879
 20
31.99512596563657
 42
0.1568512196707839
 10
18.26848134434475
 20
31.96041901040398
 42
0.1568512196707877
 10
18.27964361853879
 20
31.92571205517141
 42
0.1066170543910138
 10
18.31888142954356
 20
31.890169010404
 42
0.07234108405766
 10
18.37146446194357
 20
31.86921737751251
 42
0.0587518675353789
 10
18.44055799877526
 20
31.86107050764728
 42
0.058751867535374
 10
18.50965153560695
 20
31.86921737751251
 42
0.0723410840576588
 10
18.56223456800698
 20
31.890169010404
 42
0.1066170543910072
 10
18.60147237901173
 20
31.92571205517141
 42
0.1568512196707839
 10
18.61263465320578
 20
31.96041901040398
 42
0.156851219670792
 10
18.60147237901173
 20
31.99512596563657
 42
0.1066170543910073
 10
18.56223456800698
 20
32.03066901040398
 42
0.072341084057658
 10
18.50965153560695
 20
32.05162064329545
 42
0.058751867535374
  0
LWPOLYLINE
  5
10E9
330
CA6
100
AcDbEntity
  8
OBJECT
100
AcDbPolyline
 90
        4
 70
     0
 43
0.0
 10
18.44055799877526
 20
32.09335508526708
 42
0.0587518675353745
 10
18.34810543703607
 20
32.08245393555416
 42
0.0723410840576559
 10
18.27774522286379
 20
32.05441901040398
 42
0.017955231898511
 10
18.26752245709235
 20
32.048016893834
 42
0.1568512196707801
  0
LWPOLYLINE
  5
10EF
330
CA6
100
AcDbEntity
  8
OBJECT
100
AcDbPolyline
 90
        4
 70
     0
 43
0.0
 10
18.61359354045817
 20
32.04801689383399
 42
0.0179552318985223
 10
18.60337077468673
 20
32.05441901040398
 42
0.072341084057657
 10
18.53301056051445
 20
32.08245393555416
 42
0.0587518675353748
 10
18.44055799877526
 20
32.09335508526708
 42
0.0587518675353745
  0
LWPOLYLINE
  5
10F5
330
CA6
100
AcDbEntity
  8
OBJECT
100
AcDbPolyline
 90
        6
 70
     0
 43
0.0
 10
18.44055799877526
 20
31.94357333933654
 42
0.0587518675353685
 10
18.40220002103239
 20
31.93905052190247
 42
0.0723410840576479
 10
18.37300801728009
 20
31.92741901040399
 42
0.1066170543910048
 10
18.35122474853723
 20
31.90768692861141
 42
0.156851219670777
 10
18.34502789880671
 20
31.888419010404
 42
0.0907083780630995
 10
18.34716824048194
 20
31.87671815670034
 42
0.1066170543910073
  0
LWPOLYLINE
  5
10FD
330
CA6
100
AcDbEntity
  8
OBJECT
100
AcDbPolyline
 90
        6
 70
     0
 43
0.0
 10
18.53394775706858
 20
31.87671815670034
 42
0.0907083780630905
 10
18.5360880987438
 20
31.888419010404
 42
0.1568512196707755
 10
18.52989124901331
 20
31.90768692861141
 42
0.106617054390996
 10
18.50810798027046
 20
31.92741901040399
 42
0.0723410840576467
 10
18.47891597651812
 20
31.93905052190246
 42
0.0587518675353843
 10
18.44055799877526
 20
31.94357333933654
 42
0.0587518675353685
  0
LINE
  5
1105
330
CA6
100
AcDbEntity
  8
CENTER
100
AcDbLine
 10
12.36538979122743
 20
23.04586826595127
 30
0.0
 11
12.36538979122743
 21
28.10941901040398
 31
0.0
  0
LINE
  5
1106
330
CA6
100
AcDbEntity
  8
CENTER
100
AcDbLine
 10
22.1887159463543
 20
24.38936826595127
 30
0.0
 11
22.1887159463543
 21
29.45291901040398
 31
0.0
  0
LINE
  5
1107
330
CA6
100
AcDbEntity
  8
CENTER
100
AcDbLine
 10
16.11354773880648
 20
20.9176012386465
 30
0.0
 11
16.11354773880648
 21
25.99998293554092
 31
0.0
  0
LINE
  5
1108
330
CA6
100
AcDbEntity
  8
CENTER
100
AcDbLine
 10
18.44055799877526
 20
26.53661343195532
 30
0.0
 11
18.44055799877526
 21
27.28391901040398
 31
0.0
  0
LINE
  5
1109
330
CA6
100
AcDbEntity
  8
CENTER
100
AcDbLine
 10
22.1887159463543
 20
29.69707050764728
 30
0.0
 11
22.1887159463543
 21
31.60937810580642
 31
0.0
  0
LINE
  5
110A
330
CA6
100
AcDbEntity
  8
CENTER
100
AcDbLine
 10
16.11354773880648
 20
26.18957050764728
 30
0.0
 11
16.11354773880648
 21
28.10187810580642
 31
0.0
  0
LINE
  5
110B
330
CA6
100
AcDbEntity
  8
CENTER
100
AcDbLine
 10
12.36538979122743
 20
28.35357050764728
 30
0.0
 11
12.36538979122743
 21
30.26587810580642
 31
0.0
  0
LWPOLYLINE
  5
110C
330
CA6
100
AcDbEntity
  8
OBJECT
100
AcDbPolyline
 90
       16
 70
     1
 43
0.0
 10
12.36538979122743
 20
30.06813730028463
 42
0.0587518675353782
 10
12.30426861214308
 20
30.0609304569988
 42
0.072341084057657
 10
12.2577528729365
 20
30.04239632826851
 42
0.1066170543910075
 10
12.22304251675455
 20
30.01095441772157
 42
0.1568512196707839
 10
12.21316820156838
 20
29.9802521245185
 42
0.1568512196707877
 10
12.22304251675455
 20
29.94954983131543
 42
0.1066170543910138
 10
12.2577528729365
 20
29.91810792076849
 42
0.07234108405766
 10
12.30426861214308
 20
29.89957379203821
 42
0.0587518675353789
 10
12.36538979122743
 20
29.89236694875238
 42
0.058751867535374
 10
12.42651097031179
 20
29.89957379203821
 42
0.0723410840576588
 10
12.47302670951834
 20
29.91810792076849
 42
0.1066170543910072
 10
12.50773706570031
 20
29.94954983131543
 42
0.1568512196707839
 10
12.51761138088647
 20
29.9802521245185
 42
0.156851219670792
 10
12.50773706570031
 20
30.01095441772157
 42
0.1066170543910073
 10
12.47302670951834
 20
30.04239632826851
 42
0.072341084057658
 10
12.42651097031179
 20
30.0609304569988
 42
0.058751867535374
  0
LINE
  5
111E
330
CA6
100
AcDbEntity
  8
OBJECT
100
AcDbLine
 10
12.23872157290207
 20
29.93197851807547
 30
0.0
 11
12.29506861453641
 21
29.88145253064189
 31
0.0
  0
LINE
  5
111F
330
CA6
100
AcDbEntity
  8
OBJECT
100
AcDbLine
 10
12.49205800955278
 20
29.93197851807547
 30
0.0
 11
12.43571096791843
 21
29.88145253064189
 31
0.0
  0
LWPOLYLINE
  5
1120
330
CA6
100
AcDbEntity
  8
OBJECT
100
AcDbPolyline
 90
        7
 70
     0
 43
0.0
 10
12.29506861453644
 20
29.88145253064189
 42
0.0531578900237961
 10
12.3056340383663
 20
29.8737521245185
 42
0.072341084057661
 10
12.33145773399336
 20
29.86346271050062
 42
0.0587518675353793
 10
12.36538979122743
 20
29.85946175661663
 42
0.0587518675353684
 10
12.39932184846149
 20
29.86346271050062
 42
0.0723410840576543
 10
12.42514554408854
 20
29.8737521245185
 42
0.0531578900238873
 10
12.43571096791843
 20
29.88145253064189
 42
0.1568512196707747
  0
LWPOLYLINE
  5
1129
330
CA6
100
AcDbEntity
  8
OBJECT
100
AcDbPolyline
 90
        2
 70
     0
 43
0.0
 10
12.2808823951014
 20
29.89417321169478
 10
12.2808823951014
 20
29.4082521245185
  0
LWPOLYLINE
  5
112D
330
CA6
100
AcDbEntity
  8
OBJECT
100
AcDbPolyline
 90
        2
 70
     0
 43
0.0
 10
12.44989718735344
 20
29.89417321169478
 10
12.44989718735344
 20
29.4082521245185
  0
LWPOLYLINE
  5
1131
330
CA6
100
AcDbEntity
  8
OBJECT
100
AcDbPolyline
 90
        9
 70
     0
 43
0.0
 10
12.2808823951014
 20
29.4082521245185
 42
0.1568512196707782
 10
12.28636422370916
 20
29.3912074276427
 42
0.1066170543910084
 10
12.3056340383663
 20
29.3737521245185
 42
0.072341084057661
 10
12.33145773399336
 20
29.36346271050064
 42
0.0587518675353793
 10
12.36538979122743
 20
29.35946175661662
 42
0.0587518675353684
 10
12.39932184846149
 20
29.36346271050062
 42
0.0723410840576543
 10
12.42514554408854
 20
29.3737521245185
 42
0.1066170543910017
 10
12.44441535874569
 20
29.3912074276427
 42
0.1568512196707747
 10
12.44989718735344
 20
29.4082521245185
 42
0.1568512196707838
  0
LWPOLYLINE
  5
113C
330
CA6
100
AcDbEntity
  8
OBJECT
100
AcDbPolyline
 90
       16
 70
     1
 43
0.0
 10
16.11354773880648
 20
27.90413730028462
 42
0.0587518675353782
 10
16.05242655972213
 20
27.8969304569988
 42
0.072341084057657
 10
16.00591082051556
 20
27.87839632826851
 42
0.1066170543910075
 10
15.97120046433358
 20
27.84695441772157
 42
0.1568512196707839
 10
15.96132614914743
 20
27.81625212451849
 42
0.1568512196707877
 10
15.97120046433358
 20
27.78554983131543
 42
0.1066170543910138
 10
16.00591082051556
 20
27.75410792076851
 42
0.07234108405766
 10
16.05242655972213
 20
27.73557379203821
 42
0.0587518675353789
 10
16.11354773880648
 20
27.72836694875238
 42
0.058751867535374
 10
16.17466891789081
 20
27.73557379203821
 42
0.0723410840576588
 10
16.2211846570974
 20
27.75410792076851
 42
0.1066170543910072
 10
16.25589501327936
 20
27.78554983131543
 42
0.1568512196707839
 10
16.26576932846552
 20
27.81625212451849
 42
0.156851219670792
 10
16.25589501327936
 20
27.84695441772157
 42
0.1066170543910073
 10
16.2211846570974
 20
27.87839632826851
 42
0.072341084057658
 10
16.17466891789081
 20
27.8969304569988
 42
0.058751867535374
  0
LWPOLYLINE
  5
114E
330
CA6
100
AcDbEntity
  8
OBJECT
100
AcDbPolyline
 90
        2
 70
     0
 43
0.0
 10
16.19805513493249
 20
27.73017321169477
 10
16.19805513493249
 20
27.24425212451849
  0
LWPOLYLINE
  5
1152
330
CA6
100
AcDbEntity
  8
OBJECT
100
AcDbPolyline
 90
        2
 70
     0
 43
0.0
 10
16.02904034268046
 20
27.73017321169477
 10
16.02904034268046
 20
27.24425212451849
  0
LWPOLYLINE
  5
1156
330
CA6
100
AcDbEntity
  8
OBJECT
100
AcDbPolyline
 90
        9
 70
     0
 43
0.0
 10
16.02904034268046
 20
27.24425212451849
 42
0.1568512196707782
 10
16.03452217128822
 20
27.22720742764272
 42
0.1066170543910084
 10
16.05379198594533
 20
27.2097521245185
 42
0.072341084057661
 10
16.07961568157242
 20
27.19946271050062
 42
0.0587518675353793
 10
16.11354773880648
 20
27.19546175661663
 42
0.0587518675353684
 10
16.14747979604053
 20
27.19946271050062
 42
0.0723410840576543
 10
16.1733034916676
 20
27.2097521245185
 42
0.1066170543910017
 10
16.19257330632475
 20
27.22720742764272
 42
0.1568512196707747
 10
16.19805513493249
 20
27.24425212451849
 42
0.1568512196707838
  0
LWPOLYLINE
  5
1161
330
CA6
100
AcDbEntity
  8
OBJECT
100
AcDbPolyline
 90
        7
 70
     0
 43
0.0
 10
16.04322656211548
 20
27.71745253064189
 42
0.0531578900237961
 10
16.05379198594533
 20
27.70975212451851
 42
0.072341084057661
 10
16.07961568157242
 20
27.69946271050062
 42
0.0587518675353793
 10
16.11354773880648
 20
27.69546175661663
 42
0.0587518675353684
 10
16.14747979604053
 20
27.69946271050062
 42
0.0723410840576543
 10
16.1733034916676
 20
27.70975212451851
 42
0.0531578900238873
 10
16.18386891549747
 20
27.71745253064191
 42
0.1568512196707747
  0
LINE
  5
116A
330
CA6
100
AcDbEntity
  8
OBJECT
100
AcDbLine
 10
15.9868795204811
 20
27.76797851807548
 30
0.0
 11
16.04322656211548
 21
27.71745253064191
 31
0.0
  0
LINE
  5
116B
330
CA6
100
AcDbEntity
  8
OBJECT
100
AcDbLine
 10
16.24021595713183
 20
27.76797851807548
 30
0.0
 11
16.18386891549747
 21
27.71745253064191
 31
0.0
  0
LWPOLYLINE
  5
116C
330
CA6
100
AcDbEntity
  8
OBJECT
100
AcDbPolyline
 90
       16
 70
     1
 43
0.0
 10
18.44055799877526
 20
33.57563730028464
 42
0.0587518675353782
 10
18.37943681969091
 20
33.56843045699879
 42
0.072341084057657
 10
18.33292108048435
 20
33.5498963282685
 42
0.1066170543910075
 10
18.29821072430237
 20
33.51845441772157
 42
0.1568512196707839
 10
18.28833640911621
 20
33.4877521245185
 42
0.1568512196707877
 10
18.29821072430237
 20
33.45704983131542
 42
0.1066170543910138
 10
18.33292108048435
 20
33.42560792076851
 42
0.07234108405766
 10
18.37943681969091
 20
33.40707379203821
 42
0.0587518675353789
 10
18.44055799877526
 20
33.39986694875237
 42
0.058751867535374
 10
18.50167917785962
 20
33.40707379203819
 42
0.0723410840576588
 10
18.54819491706617
 20
33.42560792076851
 42
0.1066170543910072
 10
18.58290527324814
 20
33.45704983131542
 42
0.1568512196707839
 10
18.59277958843432
 20
33.4877521245185
 42
0.156851219670792
 10
18.58290527324814
 20
33.51845441772157
 42
0.1066170543910073
 10
18.54819491706617
 20
33.5498963282685
 42
0.072341084057658
 10
18.50167917785962
 20
33.56843045699881
 42
0.058751867535374
  0
LWPOLYLINE
  5
117E
330
CA6
100
AcDbEntity
  8
OBJECT
100
AcDbPolyline
 90
        2
 70
     0
 43
0.0
 10
18.52506539490129
 20
33.40167321169477
 10
18.52506539490129
 20
32.91575212451849
  0
LWPOLYLINE
  5
1182
330
CA6
100
AcDbEntity
  8
OBJECT
100
AcDbPolyline
 90
        2
 70
     0
 43
0.0
 10
18.35605060264923
 20
33.40167321169477
 10
18.35605060264923
 20
32.91575212451849
  0
LWPOLYLINE
  5
1186
330
CA6
100
AcDbEntity
  8
OBJECT
100
AcDbPolyline
 90
        9
 70
     0
 43
0.0
 10
18.35605060264923
 20
32.91575212451849
 42
0.1568512196707782
 10
18.361532431257
 20
32.8987074276427
 42
0.1066170543910084
 10
18.38080224591412
 20
32.88125212451848
 42
0.072341084057661
 10
18.4066259415412
 20
32.87096271050062
 42
0.0587518675353793
 10
18.44055799877526
 20
32.86696175661663
 42
0.0587518675353684
 10
18.47449005600933
 20
32.87096271050062
 42
0.0723410840576543
 10
18.50031375163639
 20
32.88125212451848
 42
0.1066170543910017
 10
18.51958356629353
 20
32.8987074276427
 42
0.1568512196707747
 10
18.52506539490129
 20
32.91575212451849
 42
0.1568512196707838
  0
LWPOLYLINE
  5
1191
330
CA6
100
AcDbEntity
  8
OBJECT
100
AcDbPolyline
 90
        7
 70
     0
 43
0.0
 10
18.37023682208427
 20
33.38895253064188
 42
0.0531578900237961
 10
18.38080224591412
 20
33.38125212451849
 42
0.072341084057661
 10
18.4066259415412
 20
33.37096271050062
 42
0.0587518675353793
 10
18.44055799877526
 20
33.36696175661663
 42
0.0587518675353684
 10
18.47449005600933
 20
33.37096271050062
 42
0.0723410840576543
 10
18.50031375163639
 20
33.38125212451849
 42
0.0531578900238873
 10
18.51087917546625
 20
33.38895253064189
 42
0.1568512196707747
  0
LINE
  5
119A
330
CA6
100
AcDbEntity
  8
OBJECT
100
AcDbLine
 10
18.31388978044989
 20
33.43947851807547
 30
0.0
 11
18.37023682208426
 21
33.38895253064192
 31
0.0
  0
LINE
  5
119B
330
CA6
100
AcDbEntity
  8
OBJECT
100
AcDbLine
 10
18.56722621710062
 20
33.43947851807547
 30
0.0
 11
18.51087917546626
 21
33.38895253064192
 31
0.0
  0
LWPOLYLINE
  5
119C
330
CA6
100
AcDbEntity
  8
OBJECT
100
AcDbPolyline
 90
       16
 70
     1
 43
0.0
 10
22.1887159463543
 20
31.41163730028462
 42
0.0587518675353782
 10
22.12759476726995
 20
31.4044304569988
 42
0.072341084057657
 10
22.08107902806339
 20
31.3858963282685
 42
0.1066170543910075
 10
22.04636867188142
 20
31.35445441772157
 42
0.1568512196707839
 10
22.03649435669526
 20
31.3237521245185
 42
0.1568512196707877
 10
22.04636867188142
 20
31.29304983131543
 42
0.1066170543910138
 10
22.08107902806339
 20
31.2616079207685
 42
0.07234108405766
 10
22.12759476726995
 20
31.24307379203821
 42
0.0587518675353789
 10
22.1887159463543
 20
31.23586694875237
 42
0.058751867535374
 10
22.24983712543866
 20
31.24307379203821
 42
0.0723410840576588
 10
22.29635286464522
 20
31.2616079207685
 42
0.1066170543910072
 10
22.33106322082721
 20
31.29304983131543
 42
0.1568512196707839
 10
22.34093753601336
 20
31.3237521245185
 42
0.156851219670792
 10
22.33106322082721
 20
31.35445441772157
 42
0.1066170543910073
 10
22.29635286464522
 20
31.3858963282685
 42
0.072341084057658
 10
22.24983712543866
 20
31.4044304569988
 42
0.058751867535374
  0
LWPOLYLINE
  5
11AE
330
CA6
100
AcDbEntity
  8
OBJECT
100
AcDbPolyline
 90
        2
 70
     0
 43
0.0
 10
22.27322334248034
 20
31.23767321169478
 10
22.27322334248034
 20
30.7517521245185
  0
LWPOLYLINE
  5
11B2
330
CA6
100
AcDbEntity
  8
OBJECT
100
AcDbPolyline
 90
        2
 70
     0
 43
0.0
 10
22.10420855022829
 20
31.23767321169478
 10
22.10420855022829
 20
30.7517521245185
  0
LWPOLYLINE
  5
11B6
330
CA6
100
AcDbEntity
  8
OBJECT
100
AcDbPolyline
 90
        9
 70
     0
 43
0.0
 10
22.10420855022829
 20
30.7517521245185
 42
0.1568512196707782
 10
22.10969037883605
 20
30.73470742764271
 42
0.1066170543910084
 10
22.12896019349318
 20
30.7172521245185
 42
0.072341084057661
 10
22.15478388912026
 20
30.70696271050062
 42
0.0587518675353793
 10
22.1887159463543
 20
30.70296175661663
 42
0.0587518675353684
 10
22.22264800358838
 20
30.70696271050062
 42
0.0723410840576543
 10
22.24847169921545
 20
30.7172521245185
 42
0.1066170543910017
 10
22.26774151387257
 20
30.73470742764271
 42
0.1568512196707747
 10
22.27322334248034
 20
30.7517521245185
 42
0.1568512196707838
  0
LWPOLYLINE
  5
11C1
330
CA6
100
AcDbEntity
  8
OBJECT
100
AcDbPolyline
 90
        7
 70
     0
 43
0.0
 10
22.11839476966332
 20
31.22495253064188
 42
0.0531578900237961
 10
22.12896019349318
 20
31.21725212451849
 42
0.072341084057661
 10
22.15478388912026
 20
31.20696271050062
 42
0.0587518675353793
 10
22.1887159463543
 20
31.20296175661664
 42
0.0587518675353684
 10
22.22264800358838
 20
31.20696271050062
 42
0.0723410840576543
 10
22.24847169921545
 20
31.21725212451849
 42
0.0531578900238873
 10
22.25903712304531
 20
31.2249525306419
 42
0.1568512196707747
  0
LINE
  5
11CA
330
CA6
100
AcDbEntity
  8
OBJECT
100
AcDbLine
 10
22.06204772802895
 20
31.27547851807547
 30
0.0
 11
22.11839476966331
 21
31.22495253064192
 31
0.0
  0
LINE
  5
11CB
330
CA6
100
AcDbEntity
  8
OBJECT
100
AcDbLine
 10
22.31538416467967
 20
31.27547851807547
 30
0.0
 11
22.25903712304531
 21
31.22495253064192
 31
0.0
  0
LINE
  5
11CC
330
CA6
100
AcDbEntity
  8
OBJECT
100
AcDbLine
 10
16.9655071719336
 20
31.29629801845859
 30
0.0
 11
18.29102915903812
 21
32.06158849453014
 31
0.0
  0
LINE
  5
11CD
330
CA6
100
AcDbEntity
  8
OBJECT
100
AcDbLine
 10
16.26307657854362
 20
26.18774952627785
 30
0.0
 11
22.36175148803722
 21
29.70882112697399
 31
0.0
  0
LINE
  5
11CE
330
CA6
100
AcDbEntity
  8
OBJECT
100
AcDbLine
 10
15.96401889906933
 20
26.18774952627785
 30
0.0
 11
12.21586095149026
 21
28.35174952627785
 31
0.0
  0
LINE
  5
11CF
330
CA6
100
AcDbEntity
  8
OBJECT
100
AcDbLine
 10
13.96858717705276
 20
22.12026182368091
 30
0.0
 11
15.16534349446775
 21
22.81263819667162
 31
0.0
  0
LWPOLYLINE
  5
11D0
330
CA6
100
AcDbEntity
  8
OBJECT
100
AcDbPolyline
 90
        7
 70
     0
 43
0.0
 10
18.30684258167739
 20
24.54251852850552
 42
0.0730609864587327
 10
18.33230482330221
 20
24.52236826595127
 42
0.0723410840576608
 10
18.37908688059762
 20
24.50372802316525
 42
0.0587518675353809
 10
18.44055799877528
 20
24.49647991830296
 42
0.0587518675353774
 10
18.50202911695292
 20
24.50372802316525
 42
0.0723410840576568
 10
18.54881117424832
 20
24.52236826595127
 42
0.0904779399290791
 10
18.57937459887421
 20
24.54832450648391
 42
0.1568512196707811
  0
LWPOLYLINE
  5
11D9
330
CA6
100
AcDbEntity
  8
OBJECT
100
AcDbPolyline
 90
        3
 70
     0
 43
0.0
 10
18.23570562058406
 20
24.57066331282224
 42
0.0587518675353793
 10
18.20497006149524
 20
24.56703926039109
 42
0.0642382339879482
 10
18.18404521105424
 20
24.55909043198182
 42
0.010596345945674
  0
LWPOLYLINE
  5
11DE
330
CA6
100
AcDbEntity
  8
OBJECT
100
AcDbPolyline
 90
        4
 70
     0
 43
0.0
 10
18.30684258167739
 20
24.54251852850552
 42
0.1032009272409039
 10
18.28983220832059
 20
24.55771913899807
 42
0.0723410840576526
 10
18.26644117967289
 20
24.56703926039109
 42
0.0587518675353721
 10
18.23570562058406
 20
24.57066331282224
 42
0.0587518675353793
  0
LWPOLYLINE
  5
11E4
330
CA6
100
AcDbEntity
  8
OBJECT
100
AcDbPolyline
 90
        2
 70
     0
 43
0.0
 10
12.37175346594028
 20
28.1057449410955
 42
0.0990140143584546
 10
12.38833946442772
 20
28.09116901040399
 42
0.0723410840576564
  0
LWPOLYLINE
  5
11E8
330
CA6
100
AcDbEntity
  8
OBJECT
100
AcDbPolyline
 90
        6
 70
     0
 43
0.0
 10
12.36538979122743
 20
28.43607333933654
 42
0.0587518675353685
 10
12.32703181348458
 20
28.43155052190247
 42
0.0723410840576479
 10
12.29783980973224
 20
28.419919010404
 42
0.1066170543910048
 10
12.27605654098938
 20
28.40018692861141
 42
0.156851219670777
 10
12.26985969125888
 20
28.38091901040398
 42
0.0907083780630931
 10
12.27200003293408
 20
28.36921815670033
 42
0.1066170543910073
  0
LWPOLYLINE
  5
11F0
330
CA6
100
AcDbEntity
  8
OBJECT
100
AcDbPolyline
 90
       16
 70
     1
 43
0.0
 10
12.36538979122743
 20
28.5522675131607
 42
0.0587518675353782
 10
12.29629625439575
 20
28.54412064329546
 42
0.072341084057657
 10
12.24371322199572
 20
28.52316901040398
 42
0.1066170543910075
 10
12.20447541099097
 20
28.48762596563657
 42
0.1568512196707839
 10
12.19331313679692
 20
28.45291901040398
 42
0.1568512196707877
 10
12.20447541099097
 20
28.4182120551714
 42
0.1066170543910138
 10
12.24371322199572
 20
28.38266901040398
 42
0.07234108405766
 10
12.29629625439575
 20
28.36171737751251
 42
0.0587518675353789
 10
12.36538979122743
 20
28.35357050764728
 42
0.058751867535374
 10
12.43448332805909
 20
28.36171737751251
 42
0.0723410840576588
 10
12.48706636045914
 20
28.38266901040398
 42
0.1066170543910072
 10
12.5263041714639
 20
28.4182120551714
 42
0.1568512196707839
 10
12.53746644565794
 20
28.45291901040398
 42
0.156851219670792
 10
12.5263041714639
 20
28.48762596563657
 42
0.1066170543910073
 10
12.48706636045914
 20
28.52316901040398
 42
0.072341084057658
 10
12.43448332805909
 20
28.54412064329546
 42
0.058751867535374
  0
LWPOLYLINE
  5
1202
330
CA6
100
AcDbEntity
  8
OBJECT
100
AcDbPolyline
 90
        7
 70
     0
 43
0.0
 10
12.21586095149027
 20
28.55408849453013
 42
0.0143456988257776
 10
12.20257701531596
 20
28.54691901040398
 42
0.1066170543910111
 10
12.15007375219215
 20
28.4993596337757
 42
0.1568512196707774
 10
12.1351377554058
 20
28.45291901040398
 42
0.1568512196707752
 10
12.15007375219215
 20
28.40647838703226
 42
0.1066170543910101
 10
12.20257701531596
 20
28.358919010404
 42
0.0143456988257778
 10
12.21586095149027
 20
28.35174952627784
 42
0.0587518675353726
  0
LWPOLYLINE
  5
120B
330
CA6
100
AcDbEntity
  8
OBJECT
100
AcDbPolyline
 90
        3
 70
     0
 43
0.0
 10
12.1351377554058
 20
28.29691901040398
 42
0.1568512196707752
 10
12.15007375219215
 20
28.25047838703228
 42
0.0884924184527851
 10
12.19235424954453
 20
28.20932112697398
 42
0.0143456988257831
  0
LINE
  5
1210
330
CA6
100
AcDbEntity
  8
OBJECT
100
AcDbLine
 10
12.1351377554058
 20
28.45291901040398
 30
0.0
 11
12.1351377554058
 21
28.29691901040398
 31
0.0
  0
LWPOLYLINE
  5
1211
330
CA6
100
AcDbEntity
  8
OBJECT
100
AcDbPolyline
 90
        6
 70
     0
 43
0.0
 10
12.45877954952076
 20
28.36921815670033
 42
0.0907083780630971
 10
12.46091989119596
 20
28.38091901040398
 42
0.1568512196707755
 10
12.45472304146547
 20
28.40018692861141
 42
0.106617054390996
 10
12.4329397727226
 20
28.419919010404
 42
0.0723410840576467
 10
12.40374776897029
 20
28.43155052190247
 42
0.0587518675353843
 10
12.36538979122743
 20
28.43607333933654
 42
0.0587518675353685
  0
LINE
  5
1219
330
CA6
100
AcDbEntity
  8
OBJECT
100
AcDbLine
 10
15.94051219712364
 20
26.04532112697395
 30
0.0
 11
12.19235424954453
 21
28.20932112697398
 31
0.0
  0
LINE
  5
121A
330
CA6
100
AcDbEntity
  8
OBJECT
100
AcDbLine
 10
15.89227824813955
 20
26.06816901040399
 30
0.0
 11
12.38833946442773
 21
28.09116901040398
 31
0.0
  0
LWPOLYLINE
  5
121B
330
CA6
100
AcDbEntity
  8
OBJECT
100
AcDbPolyline
 90
        6
 70
     0
 43
0.0
 10
16.11354773880648
 20
26.27207333933655
 42
0.0587518675353685
 10
16.07518976106363
 20
26.26755052190246
 42
0.0723410840576479
 10
16.0459977573113
 20
26.25591901040398
 42
0.1066170543910048
 10
16.02421448856842
 20
26.23618692861141
 42
0.156851219670777
 10
16.01801763883794
 20
26.216919010404
 42
0.0907083780630934
 10
16.02015798051316
 20
26.20521815670034
 42
0.1066170543910073
  0
LWPOLYLINE
  5
1223
330
CA6
100
AcDbEntity
  8
OBJECT
100
AcDbPolyline
 90
       16
 70
     1
 43
0.0
 10
16.11354773880648
 20
26.38826751316071
 42
0.0587518675353782
 10
16.0444542019748
 20
26.38012064329547
 42
0.072341084057657
 10
15.99187116957476
 20
26.35916901040399
 42
0.1066170543910075
 10
15.95263335857
 20
26.32362596563657
 42
0.1568512196707839
 10
15.94147108437596
 20
26.28891901040399
 42
0.1568512196707877
 10
15.95263335857
 20
26.2542120551714
 42
0.1066170543910138
 10
15.99187116957476
 20
26.21866901040398
 42
0.07234108405766
 10
16.0444542019748
 20
26.19771737751252
 42
0.0587518675353789
 10
16.11354773880648
 20
26.18957050764728
 42
0.058751867535374
 10
16.18264127563815
 20
26.19771737751252
 42
0.0723410840576588
 10
16.23522430803819
 20
26.21866901040398
 42
0.1066170543910072
 10
16.27446211904295
 20
26.2542120551714
 42
0.1568512196707839
 10
16.285624393237
 20
26.28891901040399
 42
0.156851219670792
 10
16.27446211904295
 20
26.32362596563657
 42
0.1066170543910073
 10
16.23522430803819
 20
26.35916901040399
 42
0.072341084057658
 10
16.18264127563815
 20
26.38012064329547
 42
0.058751867535374
  0
LWPOLYLINE
  5
1235
330
CA6
100
AcDbEntity
  8
OBJECT
100
AcDbPolyline
 90
        7
 70
     0
 43
0.0
 10
15.94051219712357
 20
26.04532112697398
 42
0.0179552318984878
 10
15.950734962895
 20
26.03891901040398
 42
0.0723410840576679
 10
16.0210951770673
 20
26.01088408525383
 42
0.0587518675353775
 10
16.11354773880648
 20
25.99998293554092
 42
0.0587518675353751
 10
16.20600030054566
 20
26.01088408525383
 42
0.0723410840576587
 10
16.27636051471794
 20
26.03891901040398
 42
0.0179552318985037
 10
16.28658328048938
 20
26.04532112697398
 42
0.1568512196707785
  0
LWPOLYLINE
  5
123E
330
CA6
100
AcDbEntity
  8
OBJECT
100
AcDbPolyline
 90
        3
 70
     0
 43
0.0
 10
15.89227824813955
 20
26.06816901040399
 42
0.0723410840576564
 10
15.91585640501643
 20
26.05877432803984
 42
0.0043348064121034
 10
15.91810723498532
 20
26.0582566378957
 42
0.0587518675353722
  0
LWPOLYLINE
  5
1243
330
CA6
100
AcDbEntity
  8
OBJECT
100
AcDbPolyline
 90
        3
 70
     0
 43
0.0
 10
16.30898824262761
 20
26.0582566378957
 42
0.0043348064121357
 10
16.31123907259652
 20
26.05877432803984
 42
0.0723410840576556
 10
16.3348172294734
 20
26.06816901040398
 42
0.1066170543910102
  0
LWPOLYLINE
  5
1248
330
CA6
100
AcDbEntity
  8
OBJECT
100
AcDbPolyline
 90
        6
 70
     0
 43
0.0
 10
16.20693749709982
 20
26.20521815670034
 42
0.0907083780630903
 10
16.20907783877502
 20
26.216919010404
 42
0.1568512196707755
 10
16.20288098904451
 20
26.23618692861141
 42
0.106617054390996
 10
16.18109772030167
 20
26.25591901040398
 42
0.0723410840576467
 10
16.15190571654933
 20
26.26755052190246
 42
0.0587518675353843
 10
16.11354773880648
 20
26.27207333933655
 42
0.0587518675353685
  0
LWPOLYLINE
  5
1250
330
CA6
100
AcDbEntity
  8
OBJECT
100
AcDbPolyline
 90
       16
 70
     1
 43
0.0
 10
22.1887159463543
 20
29.8957675131607
 42
0.0587518675353782
 10
22.11962240952262
 20
29.88762064329547
 42
0.072341084057657
 10
22.0670393771226
 20
29.86666901040398
 42
0.1066170543910075
 10
22.02780156611785
 20
29.83112596563657
 42
0.1568512196707839
 10
22.01663929192379
 20
29.796419010404
 42
0.1568512196707877
 10
22.02780156611785
 20
29.7617120551714
 42
0.1066170543910138
 10
22.0670393771226
 20
29.72616901040398
 42
0.07234108405766
 10
22.11962240952262
 20
29.7052173775125
 42
0.0587518675353789
 10
22.1887159463543
 20
29.69707050764728
 42
0.058751867535374
 10
22.25780948318598
 20
29.7052173775125
 42
0.0723410840576588
 10
22.31039251558603
 20
29.72616901040398
 42
0.1066170543910072
 10
22.34963032659079
 20
29.7617120551714
 42
0.1568512196707839
 10
22.36079260078484
 20
29.796419010404
 42
0.156851219670792
 10
22.34963032659079
 20
29.83112596563657
 42
0.1066170543910073
 10
22.31039251558603
 20
29.86666901040398
 42
0.072341084057658
 10
22.25780948318598
 20
29.88762064329547
 42
0.058751867535374
  0
LWPOLYLINE
  5
1262
330
CA6
100
AcDbEntity
  8
OBJECT
100
AcDbPolyline
 90
        2
 70
     0
 43
0.0
 10
22.16576627315403
 20
29.43466901040398
 42
0.099014014358738
 10
22.18235227164154
 20
29.44924494109553
 42
0.1568512196707725
  0
LWPOLYLINE
  5
1266
330
CA6
100
AcDbEntity
  8
OBJECT
100
AcDbPolyline
 90
        6
 70
     0
 43
0.0
 10
22.1887159463543
 20
29.77957333933654
 42
0.0587518675353685
 10
22.15035796861145
 20
29.77505052190246
 42
0.0723410840576479
 10
22.12116596485912
 20
29.76341901040398
 42
0.1066170543910048
 10
22.09938269611627
 20
29.74368692861139
 42
0.156851219670777
 10
22.09318584638576
 20
29.72441901040398
 42
0.0907083780630934
 10
22.09532618806098
 20
29.71271815670032
 42
0.1066170543910073
  0
LWPOLYLINE
  5
126E
330
CA6
100
AcDbEntity
  8
OBJECT
100
AcDbPolyline
 90
        6
 70
     0
 43
0.0
 10
22.28210570464765
 20
29.71271815670032
 42
0.0907083780630971
 10
22.28424604632285
 20
29.72441901040398
 42
0.1568512196707755
 10
22.27804919659236
 20
29.74368692861141
 42
0.106617054390996
 10
22.25626592784949
 20
29.76341901040398
 42
0.0723410840576467
 10
22.22707392409719
 20
29.77505052190246
 42
0.0587518675353843
 10
22.1887159463543
 20
29.77957333933654
 42
0.0587518675353685
  0
LINE
  5
1276
330
CA6
100
AcDbEntity
  8
OBJECT
100
AcDbLine
 10
22.41896798217593
 20
29.796419010404
 30
0.0
 11
22.41896798217593
 21
29.64041901040398
 31
0.0
  0
LWPOLYLINE
  5
1277
330
CA6
100
AcDbEntity
  8
OBJECT
100
AcDbPolyline
 90
        4
 70
     0
 43
0.0
 10
22.33824478609144
 20
29.53924952627783
 42
0.0143456988257949
 10
22.3515287222658
 20
29.546419010404
 42
0.1066170543910085
 10
22.40403198538957
 20
29.59397838703226
 42
0.1568512196707798
 10
22.41896798217593
 20
29.64041901040398
 42
0.1568512196707801
  0
LINE
  5
127D
330
CA6
100
AcDbEntity
  8
OBJECT
100
AcDbLine
 10
22.16576627315403
 20
29.43466901040398
 30
0.0
 11
16.3348172294734
 21
26.06816901040398
 31
0.0
  0
LINE
  5
127E
330
CA6
100
AcDbEntity
  8
OBJECT
100
AcDbLine
 10
22.33824478609144
 20
29.53924952627783
 30
0.0
 11
16.28658328048929
 21
26.04532112697392
 31
0.0
  0
LWPOLYLINE
  5
127F
330
CA6
100
AcDbEntity
  8
OBJECT
100
AcDbPolyline
 90
        6
 70
     0
 43
0.0
 10
19.15156485528228
 20
28.02607333933654
 42
0.0587518675353685
 10
19.11320687753944
 20
28.02155052190247
 42
0.0723410840576479
 10
19.0840148737871
 20
28.00991901040399
 42
0.1066170543910048
 10
19.06223160504424
 20
27.99018692861141
 42
0.156851219670777
 10
19.05603475531375
 20
27.97091901040398
 42
0.0907083780630934
 10
19.05817509698895
 20
27.95921815670033
 42
0.1066170543910073
  0
LWPOLYLINE
  5
1287
330
CA6
100
AcDbEntity
  8
OBJECT
100
AcDbPolyline
 90
       16
 70
     1
 43
0.0
 10
19.15156485528228
 20
28.14226751316071
 42
0.0587518675353782
 10
19.08247131845062
 20
28.13412064329547
 42
0.072341084057657
 10
19.02988828605058
 20
28.113169010404
 42
0.1066170543910075
 10
18.99065047504581
 20
28.07762596563657
 42
0.1568512196707839
 10
18.97948820085178
 20
28.04291901040398
 42
0.1568512196707877
 10
18.99065047504581
 20
28.0082120551714
 42
0.1066170543910138
 10
19.02988828605058
 20
27.97266901040398
 42
0.07234108405766
 10
19.08247131845062
 20
27.95171737751251
 42
0.0587518675353789
 10
19.15156485528228
 20
27.94357050764728
 42
0.058751867535374
 10
19.22065839211396
 20
27.95171737751251
 42
0.0723410840576588
 10
19.273241424514
 20
27.97266901040398
 42
0.1066170543910072
 10
19.31247923551875
 20
28.0082120551714
 42
0.1568512196707839
 10
19.32364150971282
 20
28.04291901040398
 42
0.156851219670792
 10
19.31247923551875
 20
28.07762596563657
 42
0.1066170543910073
 10
19.273241424514
 20
28.113169010404
 42
0.072341084057658
 10
19.22065839211396
 20
28.13412064329547
 42
0.058751867535374
  0
LWPOLYLINE
  5
1299
330
CA6
100
AcDbEntity
  8
OBJECT
100
AcDbPolyline
 90
        6
 70
     0
 43
0.0
 10
19.24495461357563
 20
27.95921815670033
 42
0.0907083780630971
 10
19.24709495525082
 20
27.97091901040398
 42
0.1568512196707755
 10
19.24089810552032
 20
27.99018692861141
 42
0.106617054390996
 10
19.21911483677746
 20
28.00991901040399
 42
0.0723410840576467
 10
19.18992283302516
 20
28.02155052190246
 42
0.0587518675353843
 10
19.15156485528228
 20
28.02607333933654
 42
0.0587518675353685
  0
LWPOLYLINE
  5
12A1
330
CA6
100
AcDbEntity
  8
OBJECT
100
AcDbPolyline
 90
        6
 70
     0
 43
0.0
 10
15.40340690770323
 20
30.19007333933655
 42
0.0587518675353685
 10
15.36504892996038
 20
30.18555052190246
 42
0.0723410840576479
 10
15.33585692620806
 20
30.17391901040398
 42
0.1066170543910048
 10
15.31407365746519
 20
30.15418692861141
 42
0.156851219670777
 10
15.30787680773469
 20
30.13491901040398
 42
0.0907083780630995
 10
15.31001714940992
 20
30.12321815670034
 42
0.1066170543910073
  0
LWPOLYLINE
  5
12A9
330
CA6
100
AcDbEntity
  8
OBJECT
100
AcDbPolyline
 90
       16
 70
     1
 43
0.0
 10
15.40340690770323
 20
30.3062675131607
 42
0.0587518675353782
 10
15.33431337087156
 20
30.29812064329548
 42
0.072341084057657
 10
15.28173033847152
 20
30.277169010404
 42
0.1066170543910075
 10
15.24249252746677
 20
30.24162596563657
 42
0.1568512196707839
 10
15.23133025327272
 20
30.20691901040398
 42
0.1568512196707877
 10
15.24249252746677
 20
30.1722120551714
 42
0.1066170543910138
 10
15.28173033847152
 20
30.13666901040398
 42
0.07234108405766
 10
15.33431337087156
 20
30.11571737751251
 42
0.0587518675353789
 10
15.40340690770323
 20
30.10757050764728
 42
0.058751867535374
 10
15.47250044453492
 20
30.11571737751251
 42
0.0723410840576588
 10
15.52508347693495
 20
30.13666901040398
 42
0.1066170543910072
 10
15.56432128793971
 20
30.1722120551714
 42
0.1568512196707839
 10
15.57548356213376
 20
30.20691901040398
 42
0.156851219670792
 10
15.56432128793971
 20
30.24162596563657
 42
0.1066170543910073
 10
15.52508347693495
 20
30.277169010404
 42
0.072341084057658
 10
15.47250044453492
 20
30.29812064329548
 42
0.058751867535374
  0
LWPOLYLINE
  5
12BB
330
CA6
100
AcDbEntity
  8
OBJECT
100
AcDbPolyline
 90
        6
 70
     0
 43
0.0
 10
15.49679666599657
 20
30.12321815670034
 42
0.0907083780630905
 10
15.49893700767179
 20
30.13491901040398
 42
0.1568512196707755
 10
15.49274015794129
 20
30.15418692861141
 42
0.106617054390996
 10
15.47095688919842
 20
30.17391901040398
 42
0.0723410840576467
 10
15.4417648854461
 20
30.18555052190246
 42
0.0587518675353843
 10
15.40340690770323
 20
30.19007333933655
 42
0.0587518675353685
  0
LWPOLYLINE
  5
12C3
330
CA6
100
AcDbEntity
  8
OBJECT
100
AcDbPolyline
 90
        9
 70
     0
 43
0.0
 10
19.06619143375248
 20
28.99775212451849
 42
0.1568512196707782
 10
19.07167326236024
 20
28.98070742764271
 42
0.1066170543910084
 10
19.09094307701739
 20
28.9632521245185
 42
0.072341084057661
 10
19.11676677264444
 20
28.95296271050062
 42
0.0587518675353793
 10
19.1506988298785
 20
28.94896175661663
 42
0.0587518675353684
 10
19.18463088711257
 20
28.95296271050062
 42
0.0723410840576543
 10
19.21045458273963
 20
28.9632521245185
 42
0.1066170543910017
 10
19.22972439739678
 20
28.98070742764271
 42
0.1568512196707747
 10
19.23520622600451
 20
28.99775212451849
 42
0.1568512196707838
  0
LWPOLYLINE
  5
12CE
330
CA6
100
AcDbEntity
  8
OBJECT
100
AcDbPolyline
 90
       16
 70
     1
 43
0.0
 10
19.1506988298785
 20
29.65763730028463
 42
0.0587518675353782
 10
19.08957765079414
 20
29.6504304569988
 42
0.072341084057657
 10
19.04306191158759
 20
29.6318963282685
 42
0.1066170543910075
 10
19.00835155540562
 20
29.60045441772157
 42
0.1568512196707839
 10
18.99847724021945
 20
29.56975212451849
 42
0.1568512196707877
 10
19.00835155540562
 20
29.53904983131542
 42
0.1066170543910138
 10
19.04306191158759
 20
29.5076079207685
 42
0.07234108405766
 10
19.08957765079414
 20
29.48907379203821
 42
0.0587518675353789
 10
19.1506988298785
 20
29.48186694875237
 42
0.058751867535374
 10
19.21182000896286
 20
29.48907379203821
 42
0.0723410840576588
 10
19.25833574816942
 20
29.5076079207685
 42
0.1066170543910072
 10
19.29304610435139
 20
29.53904983131542
 42
0.1568512196707839
 10
19.30292041953755
 20
29.56975212451849
 42
0.156851219670792
 10
19.29304610435139
 20
29.60045441772157
 42
0.1066170543910073
 10
19.25833574816942
 20
29.6318963282685
 42
0.072341084057658
 10
19.21182000896286
 20
29.6504304569988
 42
0.058751867535374
  0
LINE
  5
12E0
330
CA6
100
AcDbEntity
  8
OBJECT
100
AcDbLine
 10
19.02403061155312
 20
29.52147851807548
 30
0.0
 11
19.08037765318749
 21
29.4709525306419
 31
0.0
  0
LWPOLYLINE
  5
12E1
330
CA6
100
AcDbEntity
  8
OBJECT
100
AcDbPolyline
 90
        2
 70
     0
 43
0.0
 10
19.06619143375248
 20
29.48367321169477
 10
19.06619143375248
 20
28.99775212451849
  0
LWPOLYLINE
  5
12E5
330
CA6
100
AcDbEntity
  8
OBJECT
100
AcDbPolyline
 90
        2
 70
     0
 43
0.0
 10
19.23520622600451
 20
29.48367321169477
 10
19.23520622600451
 20
28.99775212451849
  0
LINE
  5
12E9
330
CA6
100
AcDbEntity
  8
CENTER
100
AcDbLine
 10
19.1506988298785
 20
27.94307050764729
 30
0.0
 11
19.1506988298785
 21
29.85537810580642
 31
0.0
  0
LINE
  5
12EA
330
CA6
100
AcDbEntity
  8
OBJECT
100
AcDbLine
 10
19.27736704820387
 20
29.52147851807548
 30
0.0
 11
19.22102000656949
 21
29.4709525306419
 31
0.0
  0
LWPOLYLINE
  5
12EB
330
CA6
100
AcDbEntity
  8
OBJECT
100
AcDbPolyline
 90
        7
 70
     0
 43
0.0
 10
19.08037765318752
 20
29.47095253064189
 42
0.0531578900237961
 10
19.09094307701739
 20
29.4632521245185
 42
0.072341084057661
 10
19.11676677264444
 20
29.45296271050062
 42
0.0587518675353793
 10
19.1506988298785
 20
29.44896175661662
 42
0.0587518675353684
 10
19.18463088711257
 20
29.45296271050062
 42
0.0723410840576543
 10
19.21045458273963
 20
29.4632521245185
 42
0.0531578900238873
 10
19.22102000656949
 20
29.4709525306419
 42
0.1568512196707747
  0
LINE
  5
12F4
330
CA6
100
AcDbEntity
  8
CENTER
100
AcDbLine
 10
19.1506988298785
 20
22.63536826595126
 30
0.0
 11
19.1506988298785
 21
27.69391901040398
 31
0.0
  0
LINE
  5
12F5
330
CA6
100
AcDbEntity
  8
CENTER
100
AcDbLine
 10
15.40254088229946
 20
24.78261343195533
 30
0.0
 11
15.40254088229946
 21
26.350919010404
 31
0.0
  0
LWPOLYLINE
  5
12F6
330
CA6
100
AcDbEntity
  8
OBJECT
100
AcDbPolyline
 90
        7
 70
     0
 43
0.0
 10
15.33221970560848
 20
31.63495253064189
 42
0.0531578900237961
 10
15.34278512943831
 20
31.62725212451849
 42
0.072341084057661
 10
15.36860882506538
 20
31.61696271050062
 42
0.0587518675353793
 10
15.40254088229946
 20
31.61296175661663
 42
0.0587518675353684
 10
15.43647293953352
 20
31.61696271050062
 42
0.0723410840576543
 10
15.46229663516057
 20
31.62725212451849
 42
0.0531578900238873
 10
15.47286205899045
 20
31.63495253064191
 42
0.1568512196707747
  0
LWPOLYLINE
  5
12FF
330
CA6
100
AcDbEntity
  8
OBJECT
100
AcDbPolyline
 90
        9
 70
     0
 43
0.0
 10
15.31803348617343
 20
31.1617521245185
 42
0.1568512196707782
 10
15.32351531478118
 20
31.14470742764271
 42
0.1066170543910084
 10
15.34278512943831
 20
31.1272521245185
 42
0.072341084057661
 10
15.36860882506538
 20
31.11696271050062
 42
0.0587518675353793
 10
15.40254088229946
 20
31.11296175661664
 42
0.0587518675353684
 10
15.43647293953352
 20
31.11696271050062
 42
0.0723410840576543
 10
15.46229663516057
 20
31.1272521245185
 42
0.1066170543910017
 10
15.48156644981772
 20
31.14470742764271
 42
0.1568512196707747
 10
15.48704827842547
 20
31.1617521245185
 42
0.1568512196707838
  0
LWPOLYLINE
  5
130A
330
CA6
100
AcDbEntity
  8
OBJECT
100
AcDbPolyline
 90
       16
 70
     1
 43
0.0
 10
15.40254088229946
 20
31.82163730028461
 42
0.0587518675353782
 10
15.3414197032151
 20
31.8144304569988
 42
0.072341084057657
 10
15.29490396400853
 20
31.7958963282685
 42
0.1066170543910075
 10
15.26019360782655
 20
31.76445441772157
 42
0.1568512196707839
 10
15.2503192926404
 20
31.73375212451849
 42
0.1568512196707877
 10
15.26019360782655
 20
31.70304983131543
 42
0.1066170543910138
 10
15.29490396400853
 20
31.67160792076849
 42
0.07234108405766
 10
15.3414197032151
 20
31.65307379203821
 42
0.0587518675353789
 10
15.40254088229946
 20
31.64586694875238
 42
0.058751867535374
 10
15.4636620613838
 20
31.65307379203821
 42
0.0723410840576588
 10
15.51017780059036
 20
31.67160792076849
 42
0.1066170543910072
 10
15.54488815677235
 20
31.70304983131543
 42
0.1568512196707839
 10
15.5547624719585
 20
31.73375212451849
 42
0.156851219670792
 10
15.54488815677235
 20
31.76445441772157
 42
0.1066170543910073
 10
15.51017780059036
 20
31.7958963282685
 42
0.072341084057658
 10
15.4636620613838
 20
31.8144304569988
 42
0.058751867535374
  0
LWPOLYLINE
  5
131C
330
CA6
100
AcDbEntity
  8
OBJECT
100
AcDbPolyline
 90
        2
 70
     0
 43
0.0
 10
15.31803348617343
 20
31.64767321169478
 10
15.31803348617343
 20
31.1617521245185
  0
LINE
  5
1320
330
CA6
100
AcDbEntity
  8
OBJECT
100
AcDbLine
 10
15.27587266397409
 20
31.68547851807548
 30
0.0
 11
15.33221970560846
 21
31.63495253064191
 31
0.0
  0
LWPOLYLINE
  5
1321
330
CA6
100
AcDbEntity
  8
OBJECT
100
AcDbPolyline
 90
        2
 70
     0
 43
0.0
 10
15.48704827842547
 20
31.64767321169478
 10
15.48704827842547
 20
31.1617521245185
  0
LINE
  5
1325
330
CA6
100
AcDbEntity
  8
OBJECT
100
AcDbLine
 10
15.52920910062482
 20
31.68547851807548
 30
0.0
 11
15.47286205899045
 21
31.63495253064191
 31
0.0
  0
LWPOLYLINE
  5
1326
330
CA6
100
AcDbEntity
  8
OBJECT
100
AcDbPolyline
 90
        5
 70
     0
 43
0.0
 10
15.96401889906933
 20
26.18774952627785
 42
0.0579352609795065
 10
16.0210951770673
 20
26.16688408525383
 42
0.0587518675353775
 10
16.11354773880648
 20
26.15598293554092
 42
0.0587518675353751
 10
16.20600030054566
 20
26.16688408525383
 42
0.0579352609794989
 10
16.26307657854362
 20
26.18774952627785
 42
0.0179552318985063
  0
LWPOLYLINE
  5
132D
330
CA6
100
AcDbEntity
  8
OBJECT
100
AcDbPolyline
 90
        5
 70
     0
 43
0.0
 10
22.36175148803722
 20
29.70882112697399
 42
0.0884924184527761
 10
22.40403198538957
 20
29.74997838703226
 42
0.1568512196707801
 10
22.41896798217593
 20
29.796419010404
 42
0.1568512196707801
 10
22.40403198538957
 20
29.84285963377571
 42
0.088492418452781
 10
22.36175148803722
 20
29.884016893834
 42
0.0143456988258055
  0
LINE
  5
1334
330
CA6
100
AcDbEntity
  8
OBJECT
100
AcDbLine
 10
15.9516009882988
 20
20.91036826595126
 30
0.0
 11
12.20257701531596
 21
23.07486826595126
 31
0.0
  0
LINE
  5
1335
330
CA6
100
AcDbEntity
  8
OBJECT
100
AcDbLine
 10
16.27549448931417
 20
20.91036826595126
 30
0.0
 11
22.3515287222658
 21
24.41836826595127
 31
0.0
  0
LINE
  5
1336
330
CA6
100
AcDbEntity
  8
OBJECT
100
AcDbLine
 10
12.13549647487341
 20
23.16836826595127
 30
0.0
 11
12.25408422613937
 21
21.18842394851555
 31
0.0
  0
LWPOLYLINE
  5
1337
330
CA6
100
AcDbEntity
  8
OBJECT
100
AcDbPolyline
 90
        3
 70
     0
 43
0.0
 10
12.28514081567561
 20
21.09258271785811
 42
0.0587518675353721
 10
12.32215341770447
 20
21.04297122034837
 42
0.0723410840576587
 10
12.36168737013757
 20
21.01177689168227
 42
0.1066170543910069
  0
LWPOLYLINE
  5
133C
330
CA6
100
AcDbEntity
  8
OBJECT
100
AcDbPolyline
 90
        3
 70
     0
 43
0.0
 10
12.25405953532368
 20
21.18883618704496
 42
0.0576182447349186
 10
12.26100691370869
 20
21.14925490414485
 42
0.0587518675353731
 10
12.28546542985748
 20
21.09239530177282
 42
0.0587518675353721
  0
LINE
  5
1341
330
CA6
100
AcDbEntity
  8
OBJECT
100
AcDbLine
 10
16.00529456333344
 20
18.90813929786937
 30
0.0
 11
12.36168737013757
 21
21.01177689168225
 31
0.0
  0
LWPOLYLINE
  5
1342
330
CA6
100
AcDbEntity
  8
OBJECT
100
AcDbPolyline
 90
        5
 70
     0
 43
0.0
 10
12.36538979122743
 20
23.1196230999472
 42
0.0587518675353727
 10
12.33391657872047
 20
23.11591207025771
 42
0.0723410840576566
 10
12.30996416538522
 20
23.10636826595126
 42
0.1066170543909957
 10
12.29209071410902
 20
23.09017783986504
 42
0.015928584286223
 10
12.2911288892965
 20
23.08874281767136
 42
0.1568512196707294
  0
LINE
  5
1349
330
CA6
100
AcDbEntity
  8
OBJECT
100
AcDbLine
 10
12.26450477316403
 20
23.13526767697671
 30
0.0
 11
12.41807151319691
 21
23.22411281690097
 31
0.0
  0
LWPOLYLINE
  5
134A
330
CA6
100
AcDbEntity
  8
OBJECT
100
AcDbPolyline
 90
        2
 70
     0
 43
0.0
 10
12.26450477316403
 20
23.13526767697671
 42
0.0629145768544889
 10
12.24273728354347
 20
23.11874525925177
 42
0.1568512196707815
  0
LWPOLYLINE
  5
134E
330
CA6
100
AcDbEntity
  8
OBJECT
100
AcDbPolyline
 90
        5
 70
     0
 43
0.0
 10
12.20257701531596
 20
23.26186826595127
 42
0.1066170543910098
 10
12.15035302486833
 20
23.2145618647306
 42
0.156851219670778
 10
12.13549647487341
 20
23.16836826595127
 42
0.1568512196707736
 10
12.15035302486833
 20
23.12217466717196
 42
0.1066170543910057
 10
12.20257701531596
 20
23.07486826595126
 42
0.0723410840576563
  0
LWPOLYLINE
  5
1355
330
CA6
100
AcDbEntity
  8
OBJECT
100
AcDbPolyline
 90
        5
 70
     0
 43
0.0
 10
12.25886866656193
 20
23.22936826595127
 42
0.1066170543910082
 10
12.22479740006671
 20
23.1985052662244
 42
0.1568512196707815
 10
12.21510489151386
 20
23.16836826595127
 42
0.1568512196708033
 10
12.22479740006672
 20
23.13823126567814
 42
0.1066170543910133
 10
12.25886866656193
 20
23.10736826595127
 42
0.072341084057667
  0
LINE
  5
135C
330
CA6
100
AcDbEntity
  8
OBJECT
100
AcDbLine
 10
12.41807151319691
 20
23.22411281690097
 30
0.0
 11
12.42199876663248
 21
23.1585432868284
 31
0.0
  0
LWPOLYLINE
  5
135D
330
CA6
100
AcDbEntity
  8
OBJECT
100
AcDbPolyline
 90
        7
 70
     0
 43
0.0
 10
12.44637053203087
 20
22.99911401344922
 42
0.0431043958842368
 10
12.47364296670048
 20
23.01186826595127
 42
0.1066170543910163
 10
12.50855205122427
 20
23.04349019190092
 42
0.1568512196707811
 10
12.51848290015137
 20
23.07436826595127
 42
0.1568512196707789
 10
12.50855205122427
 20
23.10524634000161
 42
0.1066170543910128
 10
12.47364296670048
 20
23.13686826595126
 42
0.0614208028592784
 10
12.43421910516475
 20
23.15357877242946
 42
0.0587518675353793
  0
LWPOLYLINE
  5
1366
330
CA6
100
AcDbEntity
  8
OBJECT
100
AcDbPolyline
 90
        9
 70
     0
 43
0.0
 10
12.39037887313374
 20
23.03144081278586
 42
0.0122510181797349
 10
12.39686300373438
 20
23.03282446164483
 42
0.072341084057657
 10
12.42081541706964
 20
23.04236826595127
 42
0.1066170543910092
 10
12.43868886834582
 20
23.0585586920375
 42
0.1568512196707462
 10
12.44377346299649
 20
23.07436826595127
 42
0.1568512196707336
 10
12.43868886834582
 20
23.09017783986504
 42
0.1066170543909893
 10
12.42081541706964
 20
23.10636826595126
 42
0.0723410840576466
 10
12.3968630037344
 20
23.11591207025771
 42
0.0587518675353801
 10
12.36538979122743
 20
23.1196230999472
 42
0.0587518675353727
  0
LINE
  5
1371
330
CA6
100
AcDbEntity
  8
OBJECT
100
AcDbLine
 10
12.51848290015137
 20
23.07436826595127
 30
0.0
 11
12.52573463355053
 21
22.95329312807286
 31
0.0
  0
LWPOLYLINE
  5
1372
330
CA6
100
AcDbEntity
  8
OBJECT
100
AcDbPolyline
 90
        7
 70
     0
 43
0.0
 10
12.41807151319694
 20
23.22411281690097
 42
0.0028611439124897
 10
12.41720171150257
 20
23.22361725120071
 42
0.1066170543909982
 10
12.39974716924067
 20
23.20780628822589
 42
0.1568512196707734
 10
12.39478174477714
 20
23.19236725120072
 42
0.1568512196707052
 10
12.39974716924067
 20
23.17692821417554
 42
0.1066170543910106
 10
12.41720171150257
 20
23.16111725120071
 42
0.0533467249351883
 10
12.43421910516475
 20
23.15357877242946
 42
0.0587518675353688
  0
LINE
  5
137B
330
CA6
100
AcDbEntity
  8
OBJECT
100
AcDbLine
 10
16.00789263954477
 20
20.94286826595126
 30
0.0
 11
12.25886866656193
 21
23.10736826595127
 31
0.0
  0
LWPOLYLINE
  5
137C
330
CA6
100
AcDbEntity
  8
OBJECT
100
AcDbPolyline
 90
        4
 70
     0
 43
0.0
 10
16.11354773880648
 20
20.99875661359959
 42
0.0587518675353755
 10
16.05207662062882
 20
20.99150850873729
 42
0.0723410840576592
 10
16.00529456333344
 20
20.97286826595126
 42
0.0602741052164751
 10
15.98383585522889
 20
20.95675745685189
 42
0.1568512196707789
  0
LWPOLYLINE
  5
1382
330
CA6
100
AcDbEntity
  8
OBJECT
100
AcDbPolyline
 90
        5
 70
     0
 43
0.0
 10
16.00789263954478
 20
20.94286826595126
 42
0.072341084057667
 10
16.0535519274651
 20
20.92467538899212
 42
0.0587518675353803
 10
16.11354773880648
 20
20.9176012386465
 42
0.0587518675353749
 10
16.17354355014787
 20
20.92467538899212
 42
0.0723410840576561
 10
16.21920283806819
 20
20.94286826595126
 42
0.1066170543910133
  0
LWPOLYLINE
  5
1389
330
CA6
100
AcDbEntity
  8
OBJECT
100
AcDbPolyline
 90
        5
 70
     0
 43
0.0
 10
15.9516009882988
 20
20.91036826595126
 42
0.0723410840576563
 10
16.02158694601272
 20
20.8824824627434
 42
0.0587518675353739
 10
16.11354773880648
 20
20.87163929786937
 42
0.0587518675353751
 10
16.20550853160025
 20
20.8824824627434
 42
0.0723410840576581
 10
16.27549448931417
 20
20.91036826595126
 42
0.1066170543910071
  0
LWPOLYLINE
  5
1390
330
CA6
100
AcDbEntity
  8
OBJECT
100
AcDbPolyline
 90
        4
 70
     0
 43
0.0
 10
16.18548801767173
 20
20.92799460463452
 42
0.096596827243349
 10
16.16897336464868
 20
20.94236826595126
 42
0.0723410840576466
 10
16.14502095131343
 20
20.95191207025771
 42
0.0587518675353801
 10
16.11354773880648
 20
20.95562309994721
 42
0.0587518675353727
  0
LWPOLYLINE
  5
1396
330
CA6
100
AcDbEntity
  8
OBJECT
100
AcDbPolyline
 90
        4
 70
     0
 43
0.0
 10
16.11354773880648
 20
20.95562309994721
 42
0.0587518675353727
 10
16.08207452629953
 20
20.95191207025771
 42
0.0723410840576566
 10
16.05812211296426
 20
20.94236826595126
 42
0.0965968272433475
 10
16.04160745994122
 20
20.92799460463452
 42
0.1568512196707378
  0
LWPOLYLINE
  5
139C
330
CA6
100
AcDbEntity
  8
OBJECT
100
AcDbPolyline
 90
        4
 70
     0
 43
0.0
 10
16.24325962238408
 20
20.95675745685189
 42
0.0602741052164752
 10
16.22180091427954
 20
20.97286826595126
 42
0.0723410840576543
 10
16.17501885698414
 20
20.99150850873729
 42
0.0587518675353793
 10
16.11354773880648
 20
20.99875661359959
 42
0.0587518675353755
  0
LWPOLYLINE
  5
13A2
330
CA6
100
AcDbEntity
  8
OBJECT
100
AcDbPolyline
 90
        5
 70
     0
 43
0.0
 10
16.00529456333342
 20
18.90813929786937
 42
0.0723410840576616
 10
16.05207662062882
 20
18.88949905508336
 42
0.0587518675353754
 10
16.11354773880648
 20
18.88225095022107
 42
0.0587518675353759
 10
16.17501885698414
 20
18.88949905508336
 42
0.0723410840576575
 10
16.22180091427954
 20
18.90813929786937
 42
0.1066170543910062
  0
LWPOLYLINE
  5
13A9
330
CA6
100
AcDbEntity
  8
OBJECT
100
AcDbPolyline
 90
        7
 70
     0
 43
0.0
 10
22.10827517527737
 20
24.49331940570797
 42
0.0439272805455098
 10
22.08046277088127
 20
24.48036826595127
 42
0.1066170543910128
 10
22.04555368635746
 20
24.44874634000161
 42
0.1568512196707789
 10
22.03562283743037
 20
24.41786826595127
 42
0.1568512196707841
 10
22.04555368635746
 20
24.38699019190093
 42
0.1066170543909903
 10
22.08046277088127
 20
24.35536826595127
 42
0.0431043958842389
 10
22.10773520555088
 20
24.34261401344922
 42
0.0587518675353809
  0
LINE
  5
13B2
330
CA6
100
AcDbEntity
  8
OBJECT
100
AcDbLine
 10
22.03562283743037
 20
24.41786826595127
 30
0.0
 11
22.02837463629296
 21
24.29679516742514
 31
0.0
  0
LWPOLYLINE
  5
13B3
330
CA6
100
AcDbEntity
  8
OBJECT
100
AcDbPolyline
 90
        5
 70
     0
 43
0.0
 10
22.2952370710198
 20
24.45086826595126
 42
0.1066170543910133
 10
22.32930833751504
 20
24.48173126567814
 42
0.1568512196707847
 10
22.33900084606787
 20
24.51186826595126
 42
0.1568512196707792
 10
22.32930833751504
 20
24.5420052662244
 42
0.1066170543910057
 10
22.2952370710198
 20
24.57286826595126
 42
0.0723410840576648
  0
LINE
  5
13BA
330
CA6
100
AcDbEntity
  8
OBJECT
100
AcDbLine
 10
22.13476586219653
 20
24.56869750990671
 30
0.0
 11
22.13065548490285
 21
24.50003825147506
 31
0.0
  0
LWPOLYLINE
  5
13BB
330
CA6
100
AcDbEntity
  8
OBJECT
100
AcDbPolyline
 90
        5
 70
     0
 43
0.0
 10
22.26297684828522
 20
24.43224281767134
 42
0.015928584286222
 10
22.26201502347272
 20
24.43367783986505
 42
0.1066170543909893
 10
22.24414157219653
 20
24.44986826595127
 42
0.0723410840576466
 10
22.22018915886128
 20
24.45941207025771
 42
0.0587518675353801
 10
22.1887159463543
 20
24.46312309994721
 42
0.0587518675353727
  0
LWPOLYLINE
  5
13C2
330
CA6
100
AcDbEntity
  8
OBJECT
100
AcDbPolyline
 90
        9
 70
     0
 43
0.0
 10
22.1887159463543
 20
24.46312309994721
 42
0.0587518675353727
 10
22.15724273384736
 20
24.45941207025771
 42
0.0723410840576566
 10
22.13329032051212
 20
24.44986826595127
 42
0.1066170543909957
 10
22.11541686923593
 20
24.43367783986505
 42
0.1568512196707378
 10
22.11033227458524
 20
24.41786826595127
 42
0.1568512196707294
 10
22.11541686923593
 20
24.40205869203748
 42
0.1066170543909819
 10
22.13329032051212
 20
24.38586826595127
 42
0.0723410840576534
 10
22.15724273384736
 20
24.37632446164482
 42
0.0122510181797299
 10
22.16372686444799
 20
24.37494081278586
 42
0.0587518675353727
  0
LWPOLYLINE
  5
13CD
330
CA6
100
AcDbEntity
  8
OBJECT
100
AcDbPolyline
 90
        2
 70
     0
 43
0.0
 10
22.2896009644177
 20
24.47876767697671
 42
-0.062914576854489
 10
22.31136845403828
 20
24.46224525925176
 42
-0.1568512196707815
  0
LWPOLYLINE
  5
13D1
330
CA6
100
AcDbEntity
  8
OBJECT
100
AcDbPolyline
 90
        7
 70
     0
 43
0.0
 10
22.12953539810345
 20
24.49954552326159
 42
0.0290503911245578
 10
22.13861051958301
 20
24.50410427970127
 42
0.1066170543910291
 10
22.15606506184493
 20
24.5199152426761
 42
0.1568512196707543
 10
22.16103048630845
 20
24.53535427970127
 42
0.1568512196707906
 10
22.15606506184493
 20
24.55079331672644
 42
0.1066170543910265
 10
22.13861051958301
 20
24.56660427970127
 42
0.0125132942123061
 10
22.13476586219653
 20
24.56869750990671
 42
0.0587518675353721
  0
LINE
  5
13DA
330
CA6
100
AcDbEntity
  8
OBJECT
100
AcDbLine
 10
22.10827517527737
 20
24.49331940570796
 30
0.0
 11
22.12953539810345
 21
24.49954552326159
 31
0.0
  0
LINE
  5
13DB
330
CA6
100
AcDbEntity
  8
OBJECT
100
AcDbLine
 10
22.2896009644177
 20
24.47876767697671
 30
0.0
 11
22.13476586219653
 21
24.56869750990671
 31
0.0
  0
LWPOLYLINE
  5
13DC
330
CA6
100
AcDbEntity
  8
OBJECT
100
AcDbPolyline
 90
        5
 70
     0
 43
0.0
 10
22.3515287222658
 20
24.41836826595127
 42
0.1066170543910071
 10
22.40375271271339
 20
24.46567466717196
 42
0.1568512196707751
 10
22.41860926270832
 20
24.51186826595126
 42
0.156851219670793
 10
22.40375271271339
 20
24.55806186473059
 42
0.1066170543910132
 10
22.3515287222658
 20
24.60536826595127
 42
0.0723410840576542
  0
LWPOLYLINE
  5
13E3
330
CA6
100
AcDbEntity
  8
OBJECT
100
AcDbPolyline
 90
        3
 70
     0
 43
0.0
 10
22.30004620225805
 20
22.53233618704495
 42
-0.0576182447349186
 10
22.29309882387303
 20
22.49275490414486
 42
-0.0587518675353731
 10
22.26864030772427
 20
22.43589530177281
 42
-0.0587518675353721
  0
LWPOLYLINE
  5
13E8
330
CA6
100
AcDbEntity
  8
OBJECT
100
AcDbPolyline
 90
        3
 70
     0
 43
0.0
 10
22.26896492190614
 20
22.43608271785811
 42
-0.0587518675353721
 10
22.23195231987727
 20
22.38647122034837
 42
-0.0723410840576587
 10
22.19241836744417
 20
22.35527689168226
 42
-0.1066170543910069
  0
LINE
  5
13ED
330
CA6
100
AcDbEntity
  8
OBJECT
100
AcDbLine
 10
22.41860926270832
 20
24.51186826595126
 30
0.0
 11
22.30002151144236
 21
22.53192394851526
 31
0.0
  0
LINE
  5
13EE
330
CA6
100
AcDbEntity
  8
OBJECT
100
AcDbLine
 10
22.19241836744417
 20
22.35527689168226
 30
0.0
 11
16.22180091427952
 21
18.90813929786937
 31
0.0
  0
LINE
  5
13EF
330
CA6
100
AcDbEntity
  8
OBJECT
100
AcDbLine
 10
16.2192028380682
 20
20.94286826595126
 30
0.0
 11
22.2952370710198
 21
24.45086826595126
 31
0.0
  0
LWPOLYLINE
  5
13F0
330
CA6
100
AcDbEntity
  8
OBJECT
100
AcDbPolyline
 90
        3
 70
     0
 43
0.0
 10
18.64541037696645
 20
24.57066331282224
 42
-0.0587518675353793
 10
18.67614593605528
 20
24.56703926039109
 42
-0.0642382339879482
 10
18.69707078649629
 20
24.55909043198182
 42
-0.010596345945674
  0
LWPOLYLINE
  5
13F5
330
CA6
100
AcDbEntity
  8
OBJECT
100
AcDbPolyline
 90
        4
 70
     0
 43
0.0
 10
18.57427341587312
 20
24.54251852850552
 42
-0.1032009272409039
 10
18.59128378922994
 20
24.55771913899807
 42
-0.0723410840576526
 10
18.61467481787764
 20
24.56703926039109
 42
-0.0587518675353721
 10
18.64541037696645
 20
24.57066331282224
 42
-0.0587518675353793
  0
LINE
  5
13FB
330
CA6
100
AcDbEntity
  8
OBJECT
100
AcDbLine
 10
20.58792205484447
 20
23.46514948177095
 30
0.0
 11
18.69707078649629
 21
24.55909043198182
 31
0.0
  0
LINE
  5
13FC
330
CA6
100
AcDbEntity
  8
CENTER
100
AcDbLine
 10
18.44055799877526
 20
31.86107050764728
 30
0.0
 11
18.44055799877526
 21
33.77337810580642
 31
0.0
  0
LINE
  5
13FD
330
CA6
100
AcDbEntity
  8
CENTER
100
AcDbLine
 10
15.40254088229946
 20
30.10757177000295
 30
0.0
 11
15.40254088229946
 21
32.01937810580642
 31
0.0
  0
LWPOLYLINE
  5
13FE
330
CA6
100
AcDbEntity
  8
OBJECT
100
AcDbPolyline
 90
        7
 70
     0
 43
0.0
 10
19.07025805880157
 20
22.73931940570796
 42
0.0439272805455098
 10
19.04244565440546
 20
22.72636826595127
 42
0.1066170543910128
 10
19.00753656988164
 20
22.69474634000161
 42
0.1568512196707789
 10
18.99760572095457
 20
22.66386826595127
 42
0.1568512196707841
 10
19.00753656988166
 20
22.63299019190092
 42
0.1066170543909903
 10
19.04244565440546
 20
22.60136826595127
 42
0.0431043958842389
 10
19.06971808907505
 20
22.58861401344923
 42
0.0587518675353809
  0
LINE
  5
1407
330
CA6
100
AcDbEntity
  8
OBJECT
100
AcDbLine
 10
18.99760572095457
 20
22.66386826595127
 30
0.0
 11
18.99035751981717
 21
22.54279516742514
 31
0.0
  0
LINE
  5
1408
330
CA6
100
AcDbEntity
  8
OBJECT
100
AcDbLine
 10
19.07025805880155
 20
22.73931940570796
 30
0.0
 11
19.09151828162766
 21
22.74554552326159
 31
0.0
  0
LWPOLYLINE
  5
1409
330
CA6
100
AcDbEntity
  8
OBJECT
100
AcDbPolyline
 90
        9
 70
     0
 43
0.0
 10
19.1506988298785
 20
22.70912309994721
 42
0.0587518675353727
 10
19.11922561737154
 20
22.7054120702577
 42
0.0723410840576566
 10
19.09527320403629
 20
22.69586826595127
 42
0.1066170543909957
 10
19.07739975276012
 20
22.67967783986505
 42
0.1568512196707378
 10
19.07231515810945
 20
22.66386826595127
 42
0.1568512196707294
 10
19.07739975276012
 20
22.6480586920375
 42
0.1066170543909819
 10
19.09527320403629
 20
22.63186826595127
 42
0.0723410840576534
 10
19.11922561737154
 20
22.62232446164482
 42
0.0122510181797299
 10
19.12570974797218
 20
22.62094081278585
 42
0.0587518675353727
  0
LWPOLYLINE
  5
1414
330
CA6
100
AcDbEntity
  8
OBJECT
100
AcDbPolyline
 90
        5
 70
     0
 43
0.0
 10
19.22495973180943
 20
22.67824281767135
 42
0.015928584286222
 10
19.2239979069969
 20
22.67967783986505
 42
0.1066170543909893
 10
19.20612445572071
 20
22.69586826595127
 42
0.0723410840576466
 10
19.18217204238546
 20
22.7054120702577
 42
0.0587518675353801
 10
19.1506988298785
 20
22.70912309994721
 42
0.0587518675353727
  0
LWPOLYLINE
  5
141B
330
CA6
100
AcDbEntity
  8
OBJECT
100
AcDbPolyline
 90
        4
 70
     0
 43
0.0
 10
19.2804107134561
 20
22.71025745685189
 42
0.0602741052164752
 10
19.25895200535155
 20
22.72636826595127
 42
0.0723410840576543
 10
19.21216994805615
 20
22.74500850873728
 42
0.1156549247320096
 10
19.09151828162766
 20
22.74554552326159
 42
0.0587518675353755
  0
LINE
  5
1421
330
CA6
100
AcDbEntity
  8
OBJECT
100
AcDbLine
 10
15.16449364902189
 20
24.80941327900998
 30
0.0
 11
15.45522260426896
 21
24.97761281690097
 31
0.0
  0
LWPOLYLINE
  5
1422
330
CA6
100
AcDbEntity
  8
OBJECT
100
AcDbPolyline
 90
        7
 70
     0
 43
0.0
 10
15.45522260426896
 20
24.97761281690098
 42
0.0028611439124897
 10
15.4543528025746
 20
24.97711725120072
 42
0.1066170543909982
 10
15.43689826031271
 20
24.96130628822589
 42
0.1568512196707734
 10
15.43193283584916
 20
24.94586725120072
 42
0.1568512196707052
 10
15.43689826031271
 20
24.93042821417555
 42
0.1066170543910106
 10
15.4543528025746
 20
24.91461725120072
 42
0.0533467249351883
 10
15.47137019623678
 20
24.90707877242946
 42
0.0587518675353688
  0
LWPOLYLINE
  5
142B
330
CA6
100
AcDbEntity
  8
OBJECT
100
AcDbPolyline
 90
        7
 70
     0
 43
0.0
 10
15.48352162310289
 20
24.75261401344923
 42
0.0431043958842368
 10
15.51079405777252
 20
24.76536826595128
 42
0.1066170543910163
 10
15.5457031422963
 20
24.79699019190093
 42
0.1568512196707811
 10
15.5556339912234
 20
24.82786826595127
 42
0.1568512196707789
 10
15.5457031422963
 20
24.85874634000161
 42
0.1066170543910128
 10
15.51079405777252
 20
24.89036826595127
 42
0.0614208028592784
 10
15.47137019623678
 20
24.90707877242946
 42
0.0587518675353793
  0
LINE
  5
1434
330
CA6
100
AcDbEntity
  8
OBJECT
100
AcDbLine
 10
15.45522260426896
 20
24.97761281690097
 30
0.0
 11
15.45914985770451
 21
24.9120432868284
 31
0.0
  0
LWPOLYLINE
  5
1435
330
CA6
100
AcDbEntity
  8
OBJECT
100
AcDbPolyline
 90
       16
 70
     1
 43
0.0
 10
15.40254088229946
 20
24.87312309994721
 42
0.0587518675353727
 10
15.37106766979249
 20
24.86941207025771
 42
0.0723410840576566
 10
15.34711525645725
 20
24.85986826595127
 42
0.1066170543909957
 10
15.32924180518105
 20
24.84367783986505
 42
0.1568512196707378
 10
15.32415721053039
 20
24.82786826595127
 42
0.1568512196707294
 10
15.32924180518105
 20
24.81205869203749
 42
0.1066170543909819
 10
15.34711525645725
 20
24.79586826595128
 42
0.0723410840576534
 10
15.37106766979249
 20
24.78632446164482
 42
0.0587518675353621
 10
15.40254088229946
 20
24.78261343195533
 42
0.0587518675353727
 10
15.43401409480639
 20
24.78632446164484
 42
0.072341084057657
 10
15.45796650814167
 20
24.79586826595128
 42
0.1066170543910092
 10
15.47583995941786
 20
24.81205869203749
 42
0.1568512196707462
 10
15.48092455406851
 20
24.82786826595127
 42
0.1568512196707336
 10
15.47583995941786
 20
24.84367783986505
 42
0.1066170543909893
 10
15.45796650814167
 20
24.85986826595127
 42
0.0723410840576466
 10
15.43401409480642
 20
24.86941207025771
 42
0.0587518675353801
  0
LWPOLYLINE
  5
1447
330
CA6
100
AcDbEntity
  8
OBJECT
100
AcDbPolyline
 90
        7
 70
     0
 43
0.0
 10
15.26882546520159
 20
24.78551852850552
 42
0.0730609864587327
 10
15.2942877068264
 20
24.76536826595128
 42
0.0723410840576608
 10
15.34106976412179
 20
24.74672802316526
 42
0.0587518675353809
 10
15.40254088229946
 20
24.73947991830295
 42
0.0587518675353774
 10
15.4640120004771
 20
24.74672802316526
 42
0.0723410840576568
 10
15.51079405777252
 20
24.76536826595128
 42
0.0904779399290791
 10
15.5413574823984
 20
24.7913245064839
 42
0.1568512196707811
  0
LWPOLYLINE
  5
1450
330
CA6
100
AcDbEntity
  8
OBJECT
100
AcDbPolyline
 90
        3
 70
     0
 43
0.0
 10
15.19768850410825
 20
24.81366331282223
 42
0.0587518675353793
 10
15.16695294501943
 20
24.81003926039108
 42
0.0642382339879882
 10
15.14602809457842
 20
24.80209043198182
 42
0.010596345945674
  0
LWPOLYLINE
  5
1455
330
CA6
100
AcDbEntity
  8
OBJECT
100
AcDbPolyline
 90
        4
 70
     0
 43
0.0
 10
15.2688254652016
 20
24.78551852850551
 42
0.1032009272409039
 10
15.25181509184476
 20
24.80071913899807
 42
0.0723410840576526
 10
15.22842406319707
 20
24.81003926039108
 42
0.0587518675353721
 10
15.19768850410825
 20
24.81366331282223
 42
0.0587518675353793
  0
LINE
  5
145B
330
CA6
100
AcDbEntity
  8
OBJECT
100
AcDbLine
 10
15.14602809457842
 20
24.80209043198182
 30
0.0
 11
15.14602809457842
 21
22.80509043198182
 31
0.0
  0
LINE
  5
145C
330
CA6
100
AcDbEntity
  8
OBJECT
100
AcDbLine
 10
15.26882546520159
 20
24.78551852850552
 30
0.0
 11
15.26882546520159
 21
22.78851852850553
 31
0.0
  0
LWPOLYLINE
  5
145D
330
CA6
100
AcDbEntity
  8
OBJECT
100
AcDbPolyline
 90
        7
 70
     0
 43
0.0
 10
15.2688254652016
 20
22.78851852850551
 42
0.0730609864587327
 10
15.29428770682641
 20
22.76836826595127
 42
0.0723410840576608
 10
15.3410697641218
 20
22.74972802316525
 42
0.0587518675353809
 10
15.40254088229946
 20
22.74247991830296
 42
0.0587518675353774
 10
15.46401200047712
 20
22.74972802316525
 42
0.0723410840576568
 10
15.51079405777252
 20
22.76836826595127
 42
0.1509947274348036
 10
15.5556339912234
 20
22.81674523016693
 42
0.1568512196707811
  0
LWPOLYLINE
  5
1466
330
CA6
100
AcDbEntity
  8
OBJECT
100
AcDbPolyline
 90
        3
 70
     0
 43
0.0
 10
15.19768850410825
 20
22.81666331282223
 42
0.0587518675353793
 10
15.16695294501943
 20
22.81303926039108
 42
0.0642382339879482
 10
15.14602809457842
 20
22.80509043198182
 42
0.010596345945674
  0
LWPOLYLINE
  5
146B
330
CA6
100
AcDbEntity
  8
OBJECT
100
AcDbPolyline
 90
        4
 70
     0
 43
0.0
 10
15.2688254652016
 20
22.78851852850551
 42
0.1032009272409039
 10
15.25181509184476
 20
22.80371913899807
 42
0.0723410840576526
 10
15.22842406319707
 20
22.81303926039108
 42
0.0587518675353721
 10
15.19768850410825
 20
22.81666331282223
 42
0.0587518675353793
  0
LINE
  5
1471
330
CA6
100
AcDbEntity
  8
OBJECT
100
AcDbLine
 10
15.5556339912234
 20
24.82786826595127
 30
0.0
 11
15.5556339912234
 21
22.81674523016693
 31
0.0
  0
LINE
  5
1472
330
CA6
100
AcDbEntity
  8
OBJECT
100
AcDbLine
 10
15.5556339912234
 20
23.03843848251437
 30
0.0
 11
18.18404521105424
 21
24.55909043198182
 31
0.0
  0
DIMENSION
  5
1473
330
CA6
100
AcDbEntity
  8
DIM
100
AcDbDimension
  2
*D12
 10
7.656765267392826
 20
17.87892793094384
 30
0.0
 11
7.656765267392822
 21
19.62892793094384
 31
0.0
 70
    32
  1
G
 71
     5
 42
3.499999999999996
  3
23NSTD
100
AcDbAlignedDimension
 13
6.963881808727619
 23
21.37892793094382
 33
0.0
 14
6.963881808727619
 24
17.87892793094384
 34
0.0
 50
270.0
100
AcDbRotatedDimension
  0
DIMENSION
  5
1490
330
CA6
100
AcDbEntity
  8
DIM
100
AcDbDimension
  2
*D13
 10
7.656765267392826
 20
28.69549485352253
 30
0.0
 11
7.656765267392821
 21
30.44549485352254
 31
0.0
 70
    32
  1
G
 71
     5
 42
3.5
  3
23NSTD
100
AcDbAlignedDimension
 13
6.963881808727624
 23
32.19549485352254
 33
0.0
 14
6.963881808727624
 24
28.69549485352253
 34
0.0
 50
270.0
100
AcDbRotatedDimension
  0
DIMENSION
  5
149F
330
CA6
100
AcDbEntity
  8
DIM
100
AcDbDimension
  2
*D14
 10
10.81494964875642
 20
6.806861285620787
 30
0.0
 11
10.81494964875642
 21
7.838111285620782
 31
0.0
 70
    32
  1
D
 71
     5
 42
2.062499999999985
  3
23NSTD
100
AcDbAlignedDimension
 13
12.02596878156283
 23
8.869361285620774
 33
0.0
 14
11.31541163678482
 24
6.806861285620787
 34
0.0
 50
90.0
100
AcDbRotatedDimension
  0
DIMENSION
  5
14AD
330
CA6
100
AcDbEntity
  8
DIM
100
AcDbDimension
  2
*D15
 10
11.23344964875642
 20
11.35440383861139
 30
0.0
 11
12.24524652375642
 21
12.16440383861139
 31
0.0
 70
    32
 71
     5
 42
0.2343749999999947
  3
23NSTD
100
AcDbAlignedDimension
 13
12.04079747259227
 23
11.12002883861139
 33
0.0
 14
11.93216163678481
 24
11.35440383861139
 34
0.0
 50
90.0
100
AcDbRotatedDimension
  0
DIMENSION
  5
14BB
330
CA6
100
AcDbEntity
  8
DIM
100
AcDbDimension
  2
*D16
 10
17.79066903232124
 20
6.884986285620772
 30
0.0
 11
18.46848153232125
 21
7.694986285620776
 31
0.0
 70
    32
  1
J
 71
     5
 42
0.078125
  3
23NSTD
100
AcDbAlignedDimension
 13
17.75587008894033
 23
6.806861285620772
 33
0.0
 14
17.75587008894033
 24
6.884986285620772
 34
0.0
 50
90.0
100
AcDbRotatedDimension
  0
DIMENSION
  5
14C9
330
CA6
100
AcDbEntity
  8
DIM
100
AcDbDimension
  2
*D17
 10
16.97132772583064
 20
8.869361285620774
 30
0.0
 11
17.96554647583064
 21
9.679361285620775
 31
0.0
 70
    32
 71
     5
 42
0.09375
  3
23NSTD
100
AcDbAlignedDimension
 13
19.00669733205157
 23
8.775611285620772
 33
0.0
 14
16.97629898360298
 24
8.869361285620774
 34
0.0
 50
90.0
100
AcDbRotatedDimension
  0
DIMENSION
  5
14D7
330
CA6
100
AcDbEntity
  8
DIM
100
AcDbDimension
  2
*D18
 10
19.3226616367848
 20
9.439497566903076
 30
0.0
 11
20.4054741367848
 21
9.439497566903076
 31
0.0
 70
    32
  1
H
 71
     5
 42
0.0938071447780189
  3
23NSTD
100
AcDbAlignedDimension
 13
19.22885449200679
 23
8.869361285620774
 33
0.0
 14
19.3226616367848
 24
8.869361285620774
 34
0.0
100
AcDbRotatedDimension
  0
DIMENSION
  5
14E5
330
CA6
100
AcDbEntity
  8
DIM
100
AcDbDimension
  2
*D19
 10
17.41693347520109
 20
11.35440383861139
 30
0.0
 11
18.41115222520107
 21
12.16440383861139
 31
0.0
 70
    32
 71
     5
 42
0.078125
  3
23NSTD
100
AcDbAlignedDimension
 13
17.43130080068157
 23
11.27627883861139
 33
0.0
 14
17.43130080068157
 24
11.35440383861139
 34
0.0
 50
90.0
100
AcDbRotatedDimension
  0
DIMENSION
  5
14F3
330
CA6
100
AcDbEntity
  8
DIM
100
AcDbDimension
  2
*D20
 10
19.97473409437662
 20
11.35440383861139
 30
0.0
 11
20.95137471937662
 21
12.16440383861139
 31
0.0
 70
    32
 71
     5
 42
0.15625
  3
23NSTD
100
AcDbAlignedDimension
 13
19.3221616367848
 23
11.19815383861139
 33
0.0
 14
19.3221616367848
 24
11.35440383861139
 34
0.0
 50
90.0
100
AcDbRotatedDimension
  0
TEXT
  5
1502
330
CA6
100
AcDbEntity
  8
TEXT
100
AcDbText
 10
4.253043617098237
 20
24.02377297089095
 30
0.0
 40
0.281
  1
%%UCOVER
 41
0.75
  7
TXT
 72
     1
 11
4.783431117098237
 21
24.02377297089095
 31
0.0
100
AcDbText
  0
TEXT
  5
1503
330
CA6
100
AcDbEntity
  8
TEXT
100
AcDbText
 10
4.417744308727618
 20
10.65009469828449
 30
0.0
 40
0.281
  1
%%UBODY
 41
0.75
  7
TXT
 72
     1
 11
4.807631808727618
 21
10.65009469828449
 31
0.0
100
AcDbText
  0
LWPOLYLINE
  5
1504
330
CA6
100
AcDbEntity
  8
DIM
100
AcDbPolyline
 90
        4
 70
     0
 10
19.30988729802262
 20
20.67606437512316
 40
0.0
 41
0.151875
 10
19.60289461247378
 20
20.3964723264556
 40
0.0
 41
0.0
 10
20.11805223943589
 20
19.90490106114825
 40
0.0
 41
0.0
 10
20.52305223943589
 20
19.90490106114825
 40
0.0
 41
0.0
  0
TEXT
  5
150A
330
CA6
100
AcDbEntity
  8
DIM
100
AcDbText
 10
20.72555223943588
 20
19.76427606114825
 30
0.0
 40
0.28125
  1
BODY
 41
0.75
  7
TXT
 11
20.72555223943588
 21
19.90490106114825
 31
0.0
100
AcDbText
 73
     2
  0
LWPOLYLINE
  5
150B
330
CA6
100
AcDbEntity
  8
DIM
100
AcDbPolyline
 90
        4
 70
     0
 10
19.53897893200521
 20
31.48037492384597
 40
0.0
 41
0.151875
 10
19.7636863200958
 20
31.81731941443382
 40
0.0
 41
0.0
 10
20.20020481526057
 20
32.47187066544205
 40
0.0
 41
0.0
 10
20.60520481526058
 20
32.47187066544205
 40
0.0
 41
0.0
  0
TEXT
  5
1511
330
CA6
100
AcDbEntity
  8
DIM
100
AcDbText
 10
20.80770481526058
 20
32.33124566544205
 30
0.0
 40
0.28125
  1
COVER
 41
0.75
  7
TXT
 11
20.80770481526058
 21
32.47187066544205
 31
0.0
100
AcDbText
 73
     2
  0
LINE
  5
1512
330
CA6
100
AcDbEntity
  8
TITLE
100
AcDbLine
 10
0.1394999999999946
 20
2.947500000000001
 30
0.0
 11
23.71049999999999
 21
2.947500000000004
 31
0.0
  0
LINE
  5
1513
330
CA6
100
AcDbEntity
  8
TITLE
100
AcDbLine
 10
0.1394999999999946
 20
3.415500000000001
 30
0.0
 11
23.71049999999999
 21
3.415500000000004
 31
0.0
  0
LINE
  5
1514
330
CA6
100
AcDbEntity
  8
TITLE
100
AcDbLine
 10
0.1394999999999946
 20
3.883500000000001
 30
0.0
 11
23.71049999999999
 21
3.883500000000004
 31
0.0
  0
LINE
  5
1515
330
CA6
100
AcDbEntity
  8
TITLE
100
AcDbLine
 10
0.1394999999999946
 20
4.351500000000001
 30
0.0
 11
23.71049999999999
 21
4.351500000000005
 31
0.0
  0
LINE
  5
1516
330
CA6
100
AcDbEntity
  8
TITLE
100
AcDbLine
 10
0.1394999999999946
 20
4.819500000000001
 30
0.0
 11
23.71049999999999
 21
4.819500000000005
 31
0.0
  0
LINE
  5
1517
330
CA6
100
AcDbEntity
  8
TITLE
100
AcDbLine
 10
0.1394999999999946
 20
5.287500000000001
 30
0.0
 11
23.71049999999999
 21
5.287500000000004
 31
0.0
  0
TEXT
  5
1518
330
CA6
100
AcDbEntity
  8
TEXT
100
AcDbText
 10
4.335375000000002
 20
34.43775
 30
0.0
 40
0.375
  1
ECONOBOXES
 41
0.75
  7
TXT
 72
     4
 11
5.694750000000002
 21
34.62525
 31
0.0
100
AcDbText
  0
TEXT
  5
1519
330
CA6
100
AcDbEntity
  8
TEXT
100
AcDbText
 10
11.53424406729831
 20
34.68074999999998
 30
0.0
 40
0.351
  1
CU-123 TO CU-347 & CU-123-G TO CU-347-G
 41
0.5575511921894342
  7
TXT
 72
     5
 11
18.97086186872098
 21
34.68074999999998
 31
0.0
100
AcDbText
  0
TEXT
  5
151A
330
CA6
100
AcDbEntity
  8
TEXT
100
AcDbText
 10
12.00380581528007
 20
18.1306931246099
 30
0.0
 40
0.281
  1
%%uMATERIAL:
 41
0.75
  7
TXT
100
AcDbText
  0
TEXT
  5
151B
330
CA6
100
AcDbEntity
  8
TEXT
100
AcDbText
 10
12.474383646566
 20
17.66235979127655
 30
0.0
 40
0.281
  1
ALUMINUM ALLOY #ADC-12
 41
0.75
  7
TXT
100
AcDbText
  0
TEXT
  5
151C
330
CA6
100
AcDbEntity
  8
TEXT
100
AcDbText
 10
12.00380581528007
 20
17.19194475109375
 30
0.0
 40
0.281
  1
%%uFINISH:
 41
0.75
  7
TXT
100
AcDbText
  0
TEXT
  5
151D
330
CA6
100
AcDbEntity
  8
TEXT
100
AcDbText
 10
12.474383646566
 20
16.72361141776042
 30
0.0
 40
0.281
  1
NATURAL (NO SUFFIX)
 41
0.75
  7
TXT
100
AcDbText
  0
TEXT
  5
151E
330
CA6
100
AcDbEntity
  8
TEXT
100
AcDbText
 10
12.00380581528007
 20
14.84819637757762
 30
0.0
 40
0.281
  1
ALL INTERNAL FILLETS 0.062 RADIUS
 41
0.75
  7
TXT
100
AcDbText
  0
TEXT
  5
151F
330
CA6
100
AcDbEntity
  8
TEXT
100
AcDbText
 10
12.00380581528007
 20
14.3798630442443
 30
0.0
 40
0.281
  1
ALL INTERNAL ROUNDS 0.125 RADIUS
 41
0.75
  7
TXT
100
AcDbText
  0
TEXT
  5
1520
330
CA6
100
AcDbEntity
  8
TEXT
100
AcDbText
 10
12.00380581528007
 20
13.91152971091096
 30
0.0
 40
0.281
  1
ALL EXTERNAL ROUNDS 0.125 RADIUS
 41
0.75
  7
TXT
100
AcDbText
  0
TEXT
  5
1521
330
CA6
100
AcDbEntity
  8
TEXT
100
AcDbText
 10
12.00380581528007
 20
13.44319637757763
 30
0.0
 40
0.281
  1
ALL BOXES ASSEMBLED WITH #6-32 FLAT HD. SCREWS
 41
0.75
  7
TXT
100
AcDbText
  0
TEXT
  5
1522
330
CA6
100
AcDbEntity
  8
TEXT
100
AcDbText
 10
3.456863249323248
 20
5.989499999999999
 30
0.0
 40
0.281
  1
* ASSEMBLED HEIGHT
 41
0.75
  7
TXT
100
AcDbText
  0
INSERT
  5
1523
330
CA6
100
AcDbEntity
  8
OBJECT
100
AcDbBlockReference
  2
*X0
 10
7.297484754331036
 20
2.242412380127788
 30
0.0
1001
ACAD
1000
HATCH
1002
{
1070
    16
1000
ANSI31
1040
1.0
1040
0.0
1002
}
  0
INSERT
  5
1524
330
CA6
100
AcDbEntity
  8
OBJECT
100
AcDbBlockReference
  2
*X1
 10
7.297484754331036
 20
2.242412380127788
 30
0.0
1001
ACAD
1000
HATCH
1002
{
1070
    16
1000
ANSI31
1040
1.0
1040
0.0
1002
}
  0
TEXT
  5
1525
330
CA6
100
AcDbEntity
  8
TEXT
100
AcDbText
 10
14.38442895346152
 20
10.29648486760809
 30
0.0
 40
0.281
  1
%%USECTION "A-A"
 41
0.75
  7
TXT
 72
     1
 11
15.61731645346153
 21
10.29648486760809
 31
0.0
100
AcDbText
  0
TEXT
  5
1526
330
CA6
100
AcDbEntity
  8
TEXT
100
AcDbText
 10
14.38442895346152
 20
5.909581877155702
 30
0.0
 40
0.281
  1
%%USECTION "B-B"
 41
0.75
  7
TXT
 72
     1
 11
15.61731645346153
 21
5.909581877155702
 31
0.0
100
AcDbText
  0
TEXT
  5
1527
330
CA6
100
AcDbEntity
  8
TEXT
100
AcDbText
 10
0.357375000000003
 20
4.913000000000001
 30
0.0
 40
0.281
  1
PART NO.
 41
0.75
  7
TXT
 72
     4
 11
1.095000000000003
 21
5.053500000000001
 31
0.0
100
AcDbText
  0
TEXT
  5
1528
330
CA6
100
AcDbEntity
  8
TEXT
100
AcDbText
 10
0.5329999999999988
 20
4.445000000000001
 30
0.0
 40
0.281
  1
CU-123
 41
0.75
  7
TXT
 72
     4
 11
1.094999999999998
 21
4.585500000000001
 31
0.0
100
AcDbText
  0
TEXT
  5
1529
330
CA6
100
AcDbEntity
  8
TEXT
100
AcDbText
 10
0.5329999999999988
 20
3.977000000000001
 30
0.0
 40
0.281
  1
CU-124
 41
0.75
  7
TXT
 72
     4
 11
1.094999999999998
 21
4.117500000000001
 31
0.0
100
AcDbText
  0
TEXT
  5
152A
330
CA6
100
AcDbEntity
  8
TEXT
100
AcDbText
 10
0.4978749999999988
 20
3.509000000000001
 30
0.0
 40
0.281
  1
CU-234
 41
0.75
  7
TXT
 72
     4
 11
1.094999999999998
 21
3.649500000000001
 31
0.0
100
AcDbText
  0
TEXT
  5
152B
330
CA6
100
AcDbEntity
  8
TEXT
100
AcDbText
 10
0.4978749999999989
 20
3.041000000000001
 30
0.0
 40
0.281
  1
CU-247
 41
0.75
  7
TXT
 72
     4
 11
1.094999999999998
 21
3.181500000000001
 31
0.0
100
AcDbText
  0
TEXT
  5
152C
330
CA6
100
AcDbEntity
  8
TEXT
100
AcDbText
 10
0.497875000000004
 20
2.573000000000001
 30
0.0
 40
0.281
  1
CU-347
 41
0.75
  7
TXT
 72
     4
 11
1.095000000000003
 21
2.713500000000001
 31
0.0
100
AcDbText
  0
TEXT
  5
1536
330
CA6
100
AcDbEntity
  8
TEXT
100
AcDbText
 10
4.469999999999999
 20
3.509000000000001
 30
0.0
 40
0.281
  1
4.688
 41
0.75
  7
TXT
 72
     4
 11
4.891499999999999
 21
3.649500000000001
 31
0.0
100
AcDbText
  0
TEXT
  5
1537
330
CA6
100
AcDbEntity
  8
TEXT
100
AcDbText
 10
4.4875625
 20
3.041000000000001
 30
0.0
 40
0.281
  1
7.390
 41
0.75
  7
TXT
 72
     4
 11
4.891499999999999
 21
3.181500000000001
 31
0.0
100
AcDbText
  0
TEXT
  5
1538
330
CA6
100
AcDbEntity
  8
TEXT
100
AcDbText
 10
4.487562500000004
 20
2.573000000000001
 30
0.0
 40
0.281
  1
7.390
 41
0.75
  7
TXT
 72
     4
 11
4.891500000000004
 21
2.713500000000001
 31
0.0
100
AcDbText
  0
TEXT
  5
1539
330
CA6
100
AcDbEntity
  8
TEXT
100
AcDbText
 10
4.821250000000004
 20
4.913000000000001
 30
0.0
 40
0.281
  1
A
 41
0.75
  7
TXT
 72
     4
 11
4.891500000000004
 21
5.053500000000001
 31
0.0
100
AcDbText
  0
TEXT
  5
153A
330
CA6
100
AcDbEntity
  8
TEXT
100
AcDbText
 10
4.469999999999999
 20
4.445000000000001
 30
0.0
 40
0.281
  1
3.625
 41
0.75
  7
TXT
 72
     4
 11
4.891499999999999
 21
4.585500000000001
 31
0.0
100
AcDbText
  0
TEXT
  5
153B
330
CA6
100
AcDbEntity
  8
TEXT
100
AcDbText
 10
4.469999999999999
 20
3.977000000000001
 30
0.0
 40
0.281
  1
4.375
 41
0.75
  7
TXT
 72
     4
 11
4.891499999999999
 21
4.117500000000001
 31
0.0
100
AcDbText
  0
TEXT
  5
153C
330
CA6
100
AcDbEntity
  8
TEXT
100
AcDbText
 10
5.863999999999997
 20
3.509000000000001
 30
0.0
 40
0.281
  1
3.688
 41
0.75
  7
TXT
 72
     4
 11
6.285499999999997
 21
3.649500000000001
 31
0.0
100
AcDbText
  0
TEXT
  5
153D
330
CA6
100
AcDbEntity
  8
TEXT
100
AcDbText
 10
5.881562499999997
 20
3.041000000000001
 30
0.0
 40
0.281
  1
4.703
 41
0.75
  7
TXT
 72
     4
 11
6.285499999999997
 21
3.181500000000001
 31
0.0
100
AcDbText
  0
TEXT
  5
153E
330
CA6
100
AcDbEntity
  8
TEXT
100
AcDbText
 10
5.881562500000005
 20
2.573000000000001
 30
0.0
 40
0.281
  1
4.703
 41
0.75
  7
TXT
 72
     4
 11
6.285500000000005
 21
2.713500000000001
 31
0.0
100
AcDbText
  0
TEXT
  5
153F
330
CA6
100
AcDbEntity
  8
TEXT
100
AcDbText
 10
6.215250000000001
 20
4.913000000000001
 30
0.0
 40
0.281
  1
B
 41
0.75
  7
TXT
 72
     4
 11
6.2855
 21
5.053500000000001
 31
0.0
100
AcDbText
  0
TEXT
  5
1540
330
CA6
100
AcDbEntity
  8
TEXT
100
AcDbText
 10
5.934249999999996
 20
4.445000000000001
 30
0.0
 40
0.281
  1
1.500
 41
0.75
  7
TXT
 72
     4
 11
6.285499999999997
 21
4.585500000000001
 31
0.0
100
AcDbText
  0
TEXT
  5
1541
330
CA6
100
AcDbEntity
  8
TEXT
100
AcDbText
 10
5.863999999999997
 20
3.977000000000001
 30
0.0
 40
0.281
  1
2.375
 41
0.75
  7
TXT
 72
     4
 11
6.285499999999997
 21
4.117500000000001
 31
0.0
100
AcDbText
  0
TEXT
  5
1542
330
CA6
100
AcDbEntity
  8
TEXT
100
AcDbText
 10
7.293124999999998
 20
3.509000000000001
 30
0.0
 40
0.281
  1
2.218
 41
0.75
  7
TXT
 72
     4
 11
7.679499999999999
 21
3.649500000000001
 31
0.0
100
AcDbText
  0
TEXT
  5
1543
330
CA6
100
AcDbEntity
  8
TEXT
100
AcDbText
 10
7.293124999999998
 20
3.041000000000001
 30
0.0
 40
0.281
  1
2.218
 41
0.75
  7
TXT
 72
     4
 11
7.679499999999999
 21
3.181500000000001
 31
0.0
100
AcDbText
  0
TEXT
  5
1544
330
CA6
100
AcDbEntity
  8
TEXT
100
AcDbText
 10
7.293125000000006
 20
2.573000000000001
 30
0.0
 40
0.281
  1
3.218
 41
0.75
  7
TXT
 72
     4
 11
7.679500000000006
 21
2.713500000000001
 31
0.0
100
AcDbText
  0
TEXT
  5
1545
330
CA6
100
AcDbEntity
  8
TEXT
100
AcDbText
 10
7.398500000000002
 20
4.913000000000001
 30
0.0
 40
0.281
  1
* C
 41
0.75
  7
TXT
 72
     4
 11
7.679500000000002
 21
5.053500000000001
 31
0.0
100
AcDbText
  0
TEXT
  5
1546
330
CA6
100
AcDbEntity
  8
TEXT
100
AcDbText
 10
7.328249999999998
 20
4.445000000000001
 30
0.0
 40
0.281
  1
1.218
 41
0.75
  7
TXT
 72
     4
 11
7.679499999999999
 21
4.585500000000001
 31
0.0
100
AcDbText
  0
TEXT
  5
1547
330
CA6
100
AcDbEntity
  8
TEXT
100
AcDbText
 10
7.328249999999998
 20
3.977000000000001
 30
0.0
 40
0.281
  1
1.218
 41
0.75
  7
TXT
 72
     4
 11
7.679499999999999
 21
4.117500000000001
 31
0.0
100
AcDbText
  0
TEXT
  5
1548
330
CA6
100
AcDbEntity
  8
TEXT
100
AcDbText
 10
8.669562499999996
 20
3.509000000000003
 30
0.0
 40
0.281
  1
2.062
 41
0.75
  7
TXT
 72
     4
 11
9.073499999999995
 21
3.649500000000002
 31
0.0
100
AcDbText
  0
TEXT
  5
1549
330
CA6
100
AcDbEntity
  8
TEXT
100
AcDbText
 10
8.669562499999996
 20
3.041000000000003
 30
0.0
 40
0.281
  1
2.062
 41
0.75
  7
TXT
 72
     4
 11
9.073499999999995
 21
3.181500000000002
 31
0.0
100
AcDbText
  0
TEXT
  5
154A
330
CA6
100
AcDbEntity
  8
TEXT
100
AcDbText
 10
8.669562500000003
 20
2.573000000000004
 30
0.0
 40
0.281
  1
3.062
 41
0.75
  7
TXT
 72
     4
 11
9.073500000000002
 21
2.713500000000004
 31
0.0
100
AcDbText
  0
TEXT
  5
154B
330
CA6
100
AcDbEntity
  8
TEXT
100
AcDbText
 10
9.003250000000003
 20
4.913000000000002
 30
0.0
 40
0.281
  1
D
 41
0.75
  7
TXT
 72
     4
 11
9.073500000000002
 21
5.053500000000003
 31
0.0
100
AcDbText
  0
TEXT
  5
154C
330
CA6
100
AcDbEntity
  8
TEXT
100
AcDbText
 10
8.704687499999995
 20
4.445000000000002
 30
0.0
 40
0.281
  1
1.062
 41
0.75
  7
TXT
 72
     4
 11
9.073499999999995
 21
4.585500000000003
 31
0.0
100
AcDbText
  0
TEXT
  5
154D
330
CA6
100
AcDbEntity
  8
TEXT
100
AcDbText
 10
8.704687499999995
 20
3.977000000000003
 30
0.0
 40
0.281
  1
1.062
 41
0.75
  7
TXT
 72
     4
 11
9.073499999999995
 21
4.117500000000003
 31
0.0
100
AcDbText
  0
TEXT
  5
154E
330
CA6
100
AcDbEntity
  8
TEXT
100
AcDbText
 10
10.08112499999999
 20
3.509000000000003
 30
0.0
 40
0.281
  1
4.312
 41
0.75
  7
TXT
 72
     4
 11
10.46749999999999
 21
3.649500000000002
 31
0.0
100
AcDbText
  0
TEXT
  5
154F
330
CA6
100
AcDbEntity
  8
TEXT
100
AcDbText
 10
10.09868749999998
 20
3.041000000000003
 30
0.0
 40
0.281
  1
7.000
 41
0.75
  7
TXT
 72
     4
 11
10.46749999999999
 21
3.181500000000002
 31
0.0
100
AcDbText
  0
TEXT
  5
1550
330
CA6
100
AcDbEntity
  8
TEXT
100
AcDbText
 10
10.09868749999999
 20
2.573000000000004
 30
0.0
 40
0.281
  1
7.000
 41
0.75
  7
TXT
 72
     4
 11
10.4675
 21
2.713500000000004
 31
0.0
100
AcDbText
  0
TEXT
  5
1551
330
CA6
100
AcDbEntity
  8
TEXT
100
AcDbText
 10
10.39725
 20
4.913000000000002
 30
0.0
 40
0.281
  1
E
 41
0.75
  7
TXT
 72
     4
 11
10.4675
 21
5.053500000000003
 31
0.0
100
AcDbText
  0
TEXT
  5
1552
330
CA6
100
AcDbEntity
  8
TEXT
100
AcDbText
 10
10.06356249999999
 20
4.445000000000002
 30
0.0
 40
0.281
  1
3.250
 41
0.75
  7
TXT
 72
     4
 11
10.46749999999999
 21
4.585500000000003
 31
0.0
100
AcDbText
  0
TEXT
  5
1553
330
CA6
100
AcDbEntity
  8
TEXT
100
AcDbText
 10
10.09868749999998
 20
3.977000000000003
 30
0.0
 40
0.281
  1
4.000
 41
0.75
  7
TXT
 72
     4
 11
10.46749999999999
 21
4.117500000000003
 31
0.0
100
AcDbText
  0
TEXT
  5
1554
330
CA6
100
AcDbEntity
  8
TEXT
100
AcDbText
 10
11.47512499999999
 20
3.509000000000003
 30
0.0
 40
0.281
  1
3.312
 41
0.75
  7
TXT
 72
     4
 11
11.86149999999999
 21
3.649500000000002
 31
0.0
100
AcDbText
  0
TEXT
  5
1555
330
CA6
100
AcDbEntity
  8
TEXT
100
AcDbText
 10
11.47512499999999
 20
3.041000000000003
 30
0.0
 40
0.281
  1
4.312
 41
0.75
  7
TXT
 72
     4
 11
11.86149999999999
 21
3.181500000000002
 31
0.0
100
AcDbText
  0
TEXT
  5
1556
330
CA6
100
AcDbEntity
  8
TEXT
100
AcDbText
 10
11.475125
 20
2.573000000000004
 30
0.0
 40
0.281
  1
4.312
 41
0.75
  7
TXT
 72
     4
 11
11.8615
 21
2.713500000000004
 31
0.0
100
AcDbText
  0
TEXT
  5
1557
330
CA6
100
AcDbEntity
  8
TEXT
100
AcDbText
 10
11.79124999999999
 20
4.913000000000002
 30
0.0
 40
0.281
  1
F
 41
0.75
  7
TXT
 72
     4
 11
11.8615
 21
5.053500000000003
 31
0.0
100
AcDbText
  0
TEXT
  5
1558
330
CA6
100
AcDbEntity
  8
TEXT
100
AcDbText
 10
11.51024999999999
 20
4.445000000000002
 30
0.0
 40
0.281
  1
1.125
 41
0.75
  7
TXT
 72
     4
 11
11.86149999999999
 21
4.585500000000003
 31
0.0
100
AcDbText
  0
TEXT
  5
1559
330
CA6
100
AcDbEntity
  8
TEXT
100
AcDbText
 10
11.49268749999998
 20
3.977000000000003
 30
0.0
 40
0.281
  1
2.000
 41
0.75
  7
TXT
 72
     4
 11
11.86149999999999
 21
4.117500000000003
 31
0.0
100
AcDbText
  0
TEXT
  5
155A
330
CA6
100
AcDbEntity
  8
TEXT
100
AcDbText
 10
12.97449999999999
 20
3.509000000000001
 30
0.0
 40
0.281
  1
---
 41
0.75
  7
TXT
 72
     4
 11
13.25549999999999
 21
3.649500000000001
 31
0.0
100
AcDbText
  0
TEXT
  5
155B
330
CA6
100
AcDbEntity
  8
TEXT
100
AcDbText
 10
12.86912499999999
 20
3.041000000000001
 30
0.0
 40
0.281
  1
3.500
 41
0.75
  7
TXT
 72
     4
 11
13.25549999999999
 21
3.181500000000001
 31
0.0
100
AcDbText
  0
TEXT
  5
155C
330
CA6
100
AcDbEntity
  8
TEXT
100
AcDbText
 10
12.869125
 20
2.573000000000001
 30
0.0
 40
0.281
  1
3.500
 41
0.75
  7
TXT
 72
     4
 11
13.2555
 21
2.713500000000001
 31
0.0
100
AcDbText
  0
TEXT
  5
155D
330
CA6
100
AcDbEntity
  8
TEXT
100
AcDbText
 10
13.18525
 20
4.913000000000001
 30
0.0
 40
0.281
  1
G
 41
0.75
  7
TXT
 72
     4
 11
13.2555
 21
5.053500000000001
 31
0.0
100
AcDbText
  0
TEXT
  5
155E
330
CA6
100
AcDbEntity
  8
TEXT
100
AcDbText
 10
12.97449999999999
 20
4.445000000000001
 30
0.0
 40
0.281
  1
---
 41
0.75
  7
TXT
 72
     4
 11
13.25549999999999
 21
4.585500000000001
 31
0.0
100
AcDbText
  0
TEXT
  5
155F
330
CA6
100
AcDbEntity
  8
TEXT
100
AcDbText
 10
12.97449999999999
 20
3.977000000000001
 30
0.0
 40
0.281
  1
---
 41
0.75
  7
TXT
 72
     4
 11
13.25549999999999
 21
4.117500000000001
 31
0.0
100
AcDbText
  0
TEXT
  5
1560
330
CA6
100
AcDbEntity
  8
TEXT
100
AcDbText
 10
14.26312499999999
 20
3.509000000000003
 30
0.0
 40
0.281
  1
0.094
 41
0.75
  7
TXT
 72
     4
 11
14.64949999999999
 21
3.649500000000002
 31
0.0
100
AcDbText
  0
TEXT
  5
1561
330
CA6
100
AcDbEntity
  8
TEXT
100
AcDbText
 10
14.26312499999999
 20
3.041000000000003
 30
0.0
 40
0.281
  1
0.094
 41
0.75
  7
TXT
 72
     4
 11
14.64949999999999
 21
3.181500000000002
 31
0.0
100
AcDbText
  0
TEXT
  5
1562
330
CA6
100
AcDbEntity
  8
TEXT
100
AcDbText
 10
14.263125
 20
2.573000000000004
 30
0.0
 40
0.281
  1
0.094
 41
0.75
  7
TXT
 72
     4
 11
14.64949999999999
 21
2.713500000000004
 31
0.0
100
AcDbText
  0
TEXT
  5
1563
330
CA6
100
AcDbEntity
  8
TEXT
100
AcDbText
 10
14.57925
 20
4.913000000000002
 30
0.0
 40
0.281
  1
H
 41
0.75
  7
TXT
 72
     4
 11
14.64949999999999
 21
5.053500000000003
 31
0.0
100
AcDbText
  0
TEXT
  5
1564
330
CA6
100
AcDbEntity
  8
TEXT
100
AcDbText
 10
14.26312499999999
 20
4.445000000000002
 30
0.0
 40
0.281
  1
0.062
 41
0.75
  7
TXT
 72
     4
 11
14.64949999999999
 21
4.585500000000003
 31
0.0
100
AcDbText
  0
TEXT
  5
1565
330
CA6
100
AcDbEntity
  8
TEXT
100
AcDbText
 10
14.26312499999999
 20
3.977000000000003
 30
0.0
 40
0.281
  1
0.062
 41
0.75
  7
TXT
 72
     4
 11
14.64949999999999
 21
4.117500000000003
 31
0.0
100
AcDbText
  0
TEXT
  5
1566
330
CA6
100
AcDbEntity
  8
TEXT
100
AcDbText
 10
15.65712499999999
 20
3.509000000000003
 30
0.0
 40
0.281
  1
0.078
 41
0.75
  7
TXT
 72
     4
 11
16.04349999999999
 21
3.649500000000002
 31
0.0
100
AcDbText
  0
TEXT
  5
1567
330
CA6
100
AcDbEntity
  8
TEXT
100
AcDbText
 10
15.65712499999999
 20
3.041000000000002
 30
0.0
 40
0.281
  1
0.078
 41
0.75
  7
TXT
 72
     4
 11
16.04349999999999
 21
3.181500000000001
 31
0.0
100
AcDbText
  0
TEXT
  5
1568
330
CA6
100
AcDbEntity
  8
TEXT
100
AcDbText
 10
15.657125
 20
2.573000000000003
 30
0.0
 40
0.281
  1
0.078
 41
0.75
  7
TXT
 72
     4
 11
16.0435
 21
2.713500000000002
 31
0.0
100
AcDbText
  0
TEXT
  5
1569
330
CA6
100
AcDbEntity
  8
TEXT
100
AcDbText
 10
15.97325
 20
4.913000000000002
 30
0.0
 40
0.281
  1
J
 41
0.75
  7
TXT
 72
     4
 11
16.0435
 21
5.053500000000003
 31
0.0
100
AcDbText
  0
TEXT
  5
156A
330
CA6
100
AcDbEntity
  8
TEXT
100
AcDbText
 10
15.65712499999999
 20
4.445000000000002
 30
0.0
 40
0.281
  1
0.062
 41
0.75
  7
TXT
 72
     4
 11
16.04349999999999
 21
4.585500000000003
 31
0.0
100
AcDbText
  0
TEXT
  5
156B
330
CA6
100
AcDbEntity
  8
TEXT
100
AcDbText
 10
15.65712499999999
 20
3.977000000000003
 30
0.0
 40
0.281
  1
0.078
 41
0.75
  7
TXT
 72
     4
 11
16.04349999999999
 21
4.117500000000003
 31
0.0
100
AcDbText
  0
TEXT
  5
1681
330
CA6
100
AcDbEntity
  8
TEXT
100
AcDbText
 10
2.322625000000004
 20
2.573000000000001
 30
0.0
 40
0.281
  1
CU-347-G
 41
0.75
  7
TXT
 72
     4
 11
3.130500000000004
 21
2.713500000000001
 31
0.0
100
AcDbText
  0
TEXT
  5
1682
330
CA6
100
AcDbEntity
  8
TEXT
100
AcDbText
 10
2.322624999999999
 20
3.041000000000001
 30
0.0
 40
0.281
  1
CU-247-G
 41
0.75
  7
TXT
 72
     4
 11
3.1305
 21
3.181500000000001
 31
0.0
100
AcDbText
  0
TEXT
  5
1683
330
CA6
100
AcDbEntity
  8
TEXT
100
AcDbText
 10
2.322624999999999
 20
3.509000000000001
 30
0.0
 40
0.281
  1
CU-234-G
 41
0.75
  7
TXT
 72
     4
 11
3.1305
 21
3.649500000000001
 31
0.0
100
AcDbText
  0
TEXT
  5
1684
330
CA6
100
AcDbEntity
  8
TEXT
100
AcDbText
 10
2.35775
 20
3.977000000000001
 30
0.0
 40
0.281
  1
CU-124-G
 41
0.75
  7
TXT
 72
     4
 11
3.1305
 21
4.117500000000001
 31
0.0
100
AcDbText
  0
TEXT
  5
1685
330
CA6
100
AcDbEntity
  8
TEXT
100
AcDbText
 10
2.357749999999999
 20
4.445000000000001
 30
0.0
 40
0.281
  1
CU-123-G
 41
0.75
  7
TXT
 72
     4
 11
3.1305
 21
4.585500000000001
 31
0.0
100
AcDbText
  0
TEXT
  5
1686
330
CA6
100
AcDbEntity
  8
TEXT
100
AcDbText
 10
2.392875000000004
 20
4.913000000000001
 30
0.0
 40
0.281
  1
PART NO.
 41
0.75
  7
TXT
 72
     4
 11
3.130500000000004
 21
5.053500000000001
 31
0.0
100
AcDbText
  0
TEXT
  5
168A
330
CA6
100
AcDbEntity
  8
TEXT
100
AcDbText
 10
12.474383646566
 20
16.25527808442709
 30
0.0
 40
0.281
  1
GRAY (SUFFIX -G)
 41
0.75
  7
TXT
100
AcDbText
  0
LWPOLYLINE
  5
1895
102
{ACAD_REACTORS
330
279F
102
}
330
CA6
100
AcDbEntity
  8
BRACKET
100
AcDbPolyline
 90
        4
 70
     1
 43
0.0
 10
11.31541163678482
 20
6.716861285620773
 10
19.9394116367848
 20
6.716861285620771
 10
19.9394116367848
 20
6.806861285620772
 10
11.31541163678482
 20
6.806861285620772
  0
DIMENSION
  5
1896
330
CA6
100
AcDbEntity
  8
DIM
100
AcDbDimension
  2
*D21
 10
1.915881808727616
 20
21.87892793094382
 30
0.0
 11
1.915881808727611
 21
17.87892793094382
 31
0.0
 70
    32
  1
M
 71
     5
 42
8.0
  3
23NSTD
100
AcDbAlignedDimension
 13
3.057631808727618
 23
13.87892793094382
 33
0.0
 14
3.057631808727618
 24
21.87892793094382
 34
0.0
 50
90.0
100
AcDbRotatedDimension
  0
DIMENSION
  5
1897
330
CA6
100
AcDbEntity
  8
DIM
100
AcDbDimension
  2
*D22
 10
1.28575289895037
 20
22.19092793094382
 30
0.0
 11
1.285752898950367
 21
17.87892793094384
 31
0.0
 70
    32
  1
K
 71
     5
 42
8.623999999999997
  3
23NSTD
100
AcDbAlignedDimension
 13
2.86963180872762
 23
13.56692793094383
 33
0.0
 14
2.86963180872762
 24
22.19092793094382
 34
0.0
 50
90.0
100
AcDbRotatedDimension
  0
LWPOLYLINE
  5
1898
330
CA6
100
AcDbEntity
  8
BRACKET
  6
HIDDEN
100
AcDbPolyline
 90
        2
 70
     0
 43
0.0
 10
2.682631808727617
 20
21.52692793094382
 10
2.682631808727617
 20
14.23092793094383
  0
LWPOLYLINE
  5
1899
330
CA6
100
AcDbEntity
  8
BRACKET
  6
HIDDEN
100
AcDbPolyline
 90
        2
 70
     0
 43
0.0
 10
6.932631808727617
 20
14.23092793094383
 10
6.932631808727617
 20
21.52692793094382
  0
LINE
  5
18AA
330
CA6
100
AcDbEntity
  8
BRACKET
  6
HIDDEN2
100
AcDbLine
 10
11.72391163678482
 20
6.806861285620772
 30
0.0
 11
11.72391163678482
 21
6.716861285620773
 31
0.0
  0
LINE
  5
18AB
330
CA6
100
AcDbEntity
  8
BRACKET
  6
HIDDEN2
100
AcDbLine
 10
11.53091163678481
 20
6.806861285620772
 30
0.0
 11
11.53091163678481
 21
6.716861285620773
 31
0.0
  0
DIMENSION
  5
18C2
330
CA6
100
AcDbEntity
  8
DIM
100
AcDbDimension
  2
*D23
 10
6.932631808727617
 20
12.11735801028352
 30
0.0
 11
8.349428683727616
 21
12.11735801028352
 31
0.0
 70
    32
 71
     5
 42
0.375
  3
23NSTD
100
AcDbAlignedDimension
 13
6.557631808727617
 23
13.87892793094382
 33
0.0
 14
6.932631808727617
 24
13.75392793094383
 34
0.0
 50
0.000000000000007
100
AcDbRotatedDimension
  0
DIMENSION
  5
18C3
330
CA6
100
AcDbEntity
  8
DIM
100
AcDbDimension
  2
*D24
 10
6.557631808727617
 20
12.11735801028351
 30
0.0
 11
4.807631808727617
 21
12.11735801028351
 31
0.0
 70
    32
  1
N
 71
     5
 42
3.499999999999998
  3
23NSTD
100
AcDbAlignedDimension
 13
3.057631808727618
 23
13.87892793094382
 33
0.0
 14
6.557631808727617
 24
13.87892793094382
 34
0.0
 50
180.0
100
AcDbRotatedDimension
  0
LWPOLYLINE
  5
18C4
330
CA6
100
AcDbEntity
  8
BRACKET
100
AcDbPolyline
 90
        6
 70
     0
 43
0.0
 10
2.682631808727617
 20
14.18392793094382
 10
2.682631808727617
 20
13.75392793094383
 42
0.4142135623730951
 10
2.86963180872762
 20
13.56692793094383
 10
6.745631808727619
 20
13.56692793094383
 42
0.4142135623730951
 10
6.932631808727617
 20
13.75392793094383
 10
6.932631808727617
 20
14.18392793094382
  0
CIRCLE
  5
18C8
330
CA6
100
AcDbEntity
  8
BRACKET
100
AcDbCircle
 10
6.557631808727617
 20
13.87892793094382
 30
0.0
 40
0.0965
  0
DIMENSION
  5
18DA
330
CA6
100
AcDbEntity
  8
DIM
100
AcDbDimension
  2
*D25
 10
1.915881808727613
 20
13.56692793094383
 30
0.0
 11
0.9392411837276119
 21
12.75692793094383
 31
0.0
 70
    32
 71
     5
 42
0.3119999999999958
  3
23NSTD
100
AcDbAlignedDimension
 13
3.057631808727618
 23
13.87892793094382
 33
0.0
 14
2.86963180872762
 24
13.56692793094383
 34
0.0
 50
90.0
100
AcDbRotatedDimension
  0
CIRCLE
  5
18DF
330
CA6
100
AcDbEntity
  8
BRACKET
100
AcDbCircle
 10
3.057631808727618
 20
13.87892793094382
 30
0.0
 40
0.0965
  0
MTEXT
  5
18EE
102
{ACAD_REACTORS
330
190A
102
}
330
CA6
100
AcDbEntity
  8
DIM
100
AcDbMText
 10
8.036020427943839
 20
13.60247585396145
 30
0.0
 40
0.281
 41
0.0
 71
     1
 72
     1
  1
0.193 DIA. (4) HOLES\PALL OTHERS
  7
TXT
 73
     1
 44
1.0
  0
DIMENSION
  5
18F2
330
CA6
100
AcDbEntity
  8
DIM
100
AcDbDimension
  2
*D26
 10
20.35791163678481
 20
6.716861285620771
 30
0.0
 11
19.3812710117848
 21
5.906861285620775
 31
0.0
 70
    32
 71
     5
 42
0.0900000000000017
  3
23NSTD
100
AcDbAlignedDimension
 13
19.9394116367848
 23
6.806861285620772
 33
0.0
 14
19.9394116367848
 24
6.716861285620771
 34
0.0
 50
90.0
100
AcDbRotatedDimension
  0
LINE
  5
18F6
330
CA6
100
AcDbEntity
  8
BRACKET
  6
HIDDEN2
100
AcDbLine
 10
19.5309116367848
 20
6.806861285620772
 30
0.0
 11
19.5309116367848
 21
6.716861285620773
 31
0.0
  0
LINE
  5
18F7
330
CA6
100
AcDbEntity
  8
BRACKET
  6
HIDDEN2
100
AcDbLine
 10
19.72391163678482
 20
6.806861285620772
 30
0.0
 11
19.72391163678482
 21
6.716861285620773
 31
0.0
  0
DIMENSION
  5
1904
330
CA6
100
AcDbEntity
  8
DIM
100
AcDbDimension
  2
*D27
 10
6.932631808727617
 20
11.47564667077123
 30
0.0
 11
4.807631808727618
 21
11.47564667077123
 31
0.0
 70
   160
  1
L
 71
     5
 42
4.25
  3
23NSTD
100
AcDbAlignedDimension
 13
2.682631808727617
 23
13.75392793094384
 33
0.0
 14
6.932631808727617
 24
13.75392793094384
 34
0.0
 50
180.0
100
AcDbRotatedDimension
  0
LWPOLYLINE
  5
1905
330
CA6
100
AcDbEntity
  8
BRACKET
100
AcDbPolyline
 90
        6
 70
     0
 43
0.0
 10
6.932631808727617
 20
21.57392793094382
 10
6.932631808727617
 20
22.00392793094382
 42
0.4142135623730949
 10
6.745631808727619
 20
22.19092793094382
 10
2.86963180872762
 20
22.19092793094382
 42
0.4142135623730951
 10
2.682631808727617
 20
22.00392793094382
 10
2.682631808727617
 20
21.57392793094382
  0
CIRCLE
  5
1908
330
CA6
100
AcDbEntity
  8
BRACKET
100
AcDbCircle
 10
6.557631808727617
 20
21.87892793094382
 30
0.0
 40
0.0965
  0
LEADER
  5
190A
330
CA6
100
AcDbEntity
  8
DIM
100
AcDbLeader
  3
23NSTD
 73
     0
 74
     0
 75
     1
 40
0.7493333333333334
 41
3.547625
 76
     3
 10
6.642798014631324
 20
13.8335520852551
 30
0.0
 10
7.428520427943838
 20
13.50872585396144
 30
0.0
 10
7.833520427943838
 20
13.50872585396144
 30
0.0
340
18EE
213
0.0
223
-0.09375
233
0.0
1001
ACAD
1000
DSTYLE
1002
{
1070
   147
1040
0.09
1070
    77
1070
     0
1002
}
  0
CIRCLE
  5
191E
330
CA6
100
AcDbEntity
  8
BRACKET
100
AcDbCircle
 10
3.057631808727618
 20
21.87892793094382
 30
0.0
 40
0.0965
  0
LWPOLYLINE
  5
1C9E
330
CA6
100
AcDbEntity
  8
BEND
100
AcDbPolyline
 90
        6
 70
     0
 10
2.861210623998053
 20
24.70026033909068
 40
0.0
 41
0.151875
 10
3.266210623998055
 20
24.70026033909068
 40
0.0
 41
0.0
 10
3.633940674075775
 20
24.70026033909068
 40
0.0
 41
0.0
 10
3.633940674075775
 20
32.62257065787283
 40
0.0
 41
0.0
 10
3.266210623998055
 20
32.62257065787283
 40
0.15
 41
0.0
 10
2.861210623998053
 20
32.62257065787283
 40
0.0
 41
0.0
  0
LINE
  5
1D45
330
CA6
100
AcDbEntity
  8
TITLE
100
AcDbLine
 10
2.050500000000004
 20
5.287500000000001
 30
0.0
 11
2.050500000000004
 21
0.1395000000000026
 31
0.0
  0
TEXT
  5
1D6F
330
CA6
100
AcDbEntity
  8
TEXT
100
AcDbText
 10
0.3925
 20
0.7010000000000052
 30
0.0
 40
0.281
  1
CU-4247
 41
0.75
  7
TXT
 72
     4
 11
1.094999999999999
 21
0.8415000000000052
 31
0.0
100
AcDbText
  0
TEXT
  5
1D70
330
CA6
100
AcDbEntity
  8
TEXT
100
AcDbText
 10
0.392500000000005
 20
0.2330000000000053
 30
0.0
 40
0.281
  1
CU-4347
 41
0.75
  7
TXT
 72
     4
 11
1.095000000000005
 21
0.3735000000000053
 31
0.0
100
AcDbText
  0
TEXT
  5
1D72
330
CA6
100
AcDbEntity
  8
TEXT
100
AcDbText
 10
0.427625
 20
2.105000000000003
 30
0.0
 40
0.281
  1
CU-4123
 41
0.75
  7
TXT
 72
     4
 11
1.094999999999999
 21
2.245500000000003
 31
0.0
100
AcDbText
  0
TEXT
  5
1D73
330
CA6
100
AcDbEntity
  8
TEXT
100
AcDbText
 10
0.427625
 20
1.637000000000004
 30
0.0
 40
0.281
  1
CU-4124
 41
0.75
  7
TXT
 72
     4
 11
1.094999999999999
 21
1.777500000000004
 31
0.0
100
AcDbText
  0
TEXT
  5
1D74
330
CA6
100
AcDbEntity
  8
TEXT
100
AcDbText
 10
0.3925
 20
1.169000000000004
 30
0.0
 40
0.281
  1
CU-4234
 41
0.75
  7
TXT
 72
     4
 11
1.094999999999999
 21
1.309500000000004
 31
0.0
100
AcDbText
  0
TEXT
  5
1D76
330
CA6
100
AcDbEntity
  8
TEXT
100
AcDbText
 10
2.252375000000001
 20
2.105000000000003
 30
0.0
 40
0.281
  1
CU-4123-B
 41
0.75
  7
TXT
 72
     4
 11
3.130500000000001
 21
2.245500000000003
 31
0.0
100
AcDbText
  0
TEXT
  5
1D77
330
CA6
100
AcDbEntity
  8
TEXT
100
AcDbText
 10
2.252375000000001
 20
1.637000000000004
 30
0.0
 40
0.281
  1
CU-4124-B
 41
0.75
  7
TXT
 72
     4
 11
3.130500000000001
 21
1.777500000000004
 31
0.0
100
AcDbText
  0
TEXT
  5
1D78
330
CA6
100
AcDbEntity
  8
TEXT
100
AcDbText
 10
2.217250000000001
 20
1.169000000000004
 30
0.0
 40
0.281
  1
CU-4234-B
 41
0.75
  7
TXT
 72
     4
 11
3.130500000000001
 21
1.309500000000004
 31
0.0
100
AcDbText
  0
TEXT
  5
1D79
330
CA6
100
AcDbEntity
  8
TEXT
100
AcDbText
 10
2.217250000000001
 20
0.7010000000000052
 30
0.0
 40
0.281
  1
CU-4247-B
 41
0.75
  7
TXT
 72
     4
 11
3.130500000000001
 21
0.8415000000000052
 31
0.0
100
AcDbText
  0
TEXT
  5
1D7A
330
CA6
100
AcDbEntity
  8
TEXT
100
AcDbText
 10
2.217250000000006
 20
0.2330000000000053
 30
0.0
 40
0.281
  1
CU-4347-B
 41
0.75
  7
TXT
 72
     4
 11
3.130500000000006
 21
0.3735000000000053
 31
0.0
100
AcDbText
  0
TEXT
  5
1D7D
330
CA6
100
AcDbEntity
  8
TEXT
100
AcDbText
 10
17.01599999999999
 20
0.7010000000000043
 30
0.0
 40
0.281
  1
8.624
 41
0.75
  7
TXT
 72
     4
 11
17.43749999999999
 21
0.8415000000000041
 31
0.0
100
AcDbText
  0
TEXT
  5
1D7E
330
CA6
100
AcDbEntity
  8
TEXT
100
AcDbText
 10
17.01599999999999
 20
1.169000000000002
 30
0.0
 40
0.281
  1
5.874
 41
0.75
  7
TXT
 72
     4
 11
17.43749999999999
 21
1.309500000000002
 31
0.0
100
AcDbText
  0
TEXT
  5
1D7F
330
CA6
100
AcDbEntity
  8
TEXT
100
AcDbText
 10
17.01599999999999
 20
1.637000000000003
 30
0.0
 40
0.281
  1
5.624
 41
0.75
  7
TXT
 72
     4
 11
17.43749999999999
 21
1.777500000000003
 31
0.0
100
AcDbText
  0
TEXT
  5
1D80
330
CA6
100
AcDbEntity
  8
TEXT
100
AcDbText
 10
17.01599999999999
 20
2.105000000000003
 30
0.0
 40
0.281
  1
4.874
 41
0.75
  7
TXT
 72
     4
 11
17.43749999999999
 21
2.245500000000002
 31
0.0
100
AcDbText
  0
TEXT
  5
1D81
330
CA6
100
AcDbEntity
  8
TEXT
100
AcDbText
 10
17.36724999999999
 20
4.913000000000002
 30
0.0
 40
0.281
  1
K
 41
0.75
  7
TXT
 72
     4
 11
17.4375
 21
5.053500000000003
 31
0.0
100
AcDbText
  0
TEXT
  5
1D83
330
CA6
100
AcDbEntity
  8
TEXT
100
AcDbText
 10
18.42756249999998
 20
0.7010000000000043
 30
0.0
 40
0.281
  1
4.250
 41
0.75
  7
TXT
 72
     4
 11
18.83149999999998
 21
0.8415000000000041
 31
0.0
100
AcDbText
  0
TEXT
  5
1D84
330
CA6
100
AcDbEntity
  8
TEXT
100
AcDbText
 10
18.44512499999998
 20
1.169000000000002
 30
0.0
 40
0.281
  1
3.312
 41
0.75
  7
TXT
 72
     4
 11
18.83149999999998
 21
1.309500000000002
 31
0.0
100
AcDbText
  0
TEXT
  5
1D85
330
CA6
100
AcDbEntity
  8
TEXT
100
AcDbText
 10
18.46268749999998
 20
1.637000000000003
 30
0.0
 40
0.281
  1
2.000
 41
0.75
  7
TXT
 72
     4
 11
18.83149999999998
 21
1.777500000000003
 31
0.0
100
AcDbText
  0
TEXT
  5
1D86
330
CA6
100
AcDbEntity
  8
TEXT
100
AcDbText
 10
18.46268749999998
 20
2.105000000000003
 30
0.0
 40
0.281
  1
1.250
 41
0.75
  7
TXT
 72
     4
 11
18.83149999999998
 21
2.245500000000002
 31
0.0
100
AcDbText
  0
TEXT
  5
1D87
330
CA6
100
AcDbEntity
  8
TEXT
100
AcDbText
 10
18.76124999999999
 20
4.913000000000002
 30
0.0
 40
0.281
  1
L
 41
0.75
  7
TXT
 72
     4
 11
18.83149999999999
 21
5.053500000000003
 31
0.0
100
AcDbText
  0
TEXT
  5
1D89
330
CA6
100
AcDbEntity
  8
TEXT
100
AcDbText
 10
19.8566875
 20
0.7010000000000043
 30
0.0
 40
0.281
  1
8.000
 41
0.75
  7
TXT
 72
     4
 11
20.2255
 21
0.8415000000000041
 31
0.0
100
AcDbText
  0
TEXT
  5
1D8A
330
CA6
100
AcDbEntity
  8
TEXT
100
AcDbText
 10
19.8215625
 20
1.169000000000002
 30
0.0
 40
0.281
  1
5.250
 41
0.75
  7
TXT
 72
     4
 11
20.2255
 21
1.309500000000002
 31
0.0
100
AcDbText
  0
TEXT
  5
1D8B
330
CA6
100
AcDbEntity
  8
TEXT
100
AcDbText
 10
19.8566875
 20
1.637000000000003
 30
0.0
 40
0.281
  1
5.000
 41
0.75
  7
TXT
 72
     4
 11
20.2255
 21
1.777500000000003
 31
0.0
100
AcDbText
  0
TEXT
  5
1D8C
330
CA6
100
AcDbEntity
  8
TEXT
100
AcDbText
 10
19.8215625
 20
2.105000000000003
 30
0.0
 40
0.281
  1
4.250
 41
0.75
  7
TXT
 72
     4
 11
20.2255
 21
2.245500000000002
 31
0.0
100
AcDbText
  0
TEXT
  5
1D8D
330
CA6
100
AcDbEntity
  8
TEXT
100
AcDbText
 10
20.15524999999999
 20
4.913000000000002
 30
0.0
 40
0.281
  1
M
 41
0.75
  7
TXT
 72
     4
 11
20.2255
 21
5.053500000000003
 31
0.0
100
AcDbText
  0
TEXT
  5
1D8F
330
CA6
100
AcDbEntity
  8
TEXT
100
AcDbText
 10
21.23312499999998
 20
0.7010000000000052
 30
0.0
 40
0.281
  1
3.500
 41
0.75
  7
TXT
 72
     4
 11
21.61949999999998
 21
0.8415000000000052
 31
0.0
100
AcDbText
  0
TEXT
  5
1D90
330
CA6
100
AcDbEntity
  8
TEXT
100
AcDbText
 10
21.25068749999998
 20
1.637000000000004
 30
0.0
 40
0.281
  1
1.250
 41
0.75
  7
TXT
 72
     4
 11
21.61949999999998
 21
1.777500000000004
 31
0.0
100
AcDbText
  0
TEXT
  5
1D91
330
CA6
100
AcDbEntity
  8
TEXT
100
AcDbText
 10
21.19799999999997
 20
1.169000000000004
 30
0.0
 40
0.281
  1
2.562
 41
0.75
  7
TXT
 72
     4
 11
21.61949999999998
 21
1.309500000000004
 31
0.0
100
AcDbText
  0
TEXT
  5
1D92
330
CA6
100
AcDbEntity
  8
TEXT
100
AcDbText
 10
21.25068749999998
 20
2.105000000000004
 30
0.0
 40
0.281
  1
0.500
 41
0.75
  7
TXT
 72
     4
 11
21.61949999999998
 21
2.245500000000004
 31
0.0
100
AcDbText
  0
TEXT
  5
1D93
330
CA6
100
AcDbEntity
  8
TEXT
100
AcDbText
 10
21.54924999999999
 20
4.913000000000003
 30
0.0
 40
0.281
  1
N
 41
0.75
  7
TXT
 72
     4
 11
21.6195
 21
5.053500000000004
 31
0.0
100
AcDbText
  0
TEXT
  5
1D94
330
CA6
100
AcDbEntity
  8
TEXT
100
AcDbText
 10
18.42756249999998
 20
0.2330000000000053
 30
0.0
 40
0.281
  1
4.250
 41
0.75
  7
TXT
 72
     4
 11
18.83149999999998
 21
0.3735000000000053
 31
0.0
100
AcDbText
  0
TEXT
  5
1D95
330
CA6
100
AcDbEntity
  8
TEXT
100
AcDbText
 10
17.05112499999998
 20
0.2330000000000053
 30
0.0
 40
0.281
  1
8.500
 41
0.75
  7
TXT
 72
     4
 11
17.43749999999999
 21
0.3735000000000053
 31
0.0
100
AcDbText
  0
TEXT
  5
1D96
330
CA6
100
AcDbEntity
  8
TEXT
100
AcDbText
 10
19.804
 20
0.2330000000000053
 30
0.0
 40
0.281
  1
7.876
 41
0.75
  7
TXT
 72
     4
 11
20.2255
 21
0.3735000000000053
 31
0.0
100
AcDbText
  0
TEXT
  5
1D97
330
CA6
100
AcDbEntity
  8
TEXT
100
AcDbText
 10
21.23312499999998
 20
0.2330000000000053
 30
0.0
 40
0.281
  1
3.500
 41
0.75
  7
TXT
 72
     4
 11
21.61949999999998
 21
0.3735000000000053
 31
0.0
100
AcDbText
  0
LINE
  5
1F4B
330
CA6
100
AcDbEntity
  8
TITLE
100
AcDbLine
 10
0.1394999999999964
 20
2.479500000000002
 30
0.0
 11
23.71049999999999
 21
2.479500000000004
 31
0.0
  0
LINE
  5
1F4C
330
CA6
100
AcDbEntity
  8
TITLE
100
AcDbLine
 10
0.1394999999999964
 20
2.011500000000002
 30
0.0
 11
23.71049999999999
 21
2.011500000000004
 31
0.0
  0
LINE
  5
1F4D
330
CA6
100
AcDbEntity
  8
TITLE
100
AcDbLine
 10
0.1394999999999964
 20
1.543500000000002
 30
0.0
 11
23.71049999999999
 21
1.543500000000004
 31
0.0
  0
LINE
  5
1F4E
330
CA6
100
AcDbEntity
  8
TITLE
100
AcDbLine
 10
0.1394999999999964
 20
1.075500000000002
 30
0.0
 11
23.71049999999999
 21
1.075500000000004
 31
0.0
  0
LINE
  5
1F4F
330
CA6
100
AcDbEntity
  8
TITLE
100
AcDbLine
 10
0.1394999999999964
 20
0.6075000000000026
 30
0.0
 11
23.71049999999999
 21
0.6075000000000057
 31
0.0
  0
TEXT
  5
1F6F
330
CA6
100
AcDbEntity
  8
TEXT
100
AcDbText
 10
17.15649999999999
 20
4.445000000000002
 30
0.0
 40
0.281
  1
---
 41
0.75
  7
TXT
 72
     4
 11
17.43749999999999
 21
4.585500000000003
 31
0.0
100
AcDbText
  0
TEXT
  5
1F70
330
CA6
100
AcDbEntity
  8
TEXT
100
AcDbText
 10
17.15649999999999
 20
3.977000000000003
 30
0.0
 40
0.281
  1
---
 41
0.75
  7
TXT
 72
     4
 11
17.43749999999999
 21
4.117500000000003
 31
0.0
100
AcDbText
  0
TEXT
  5
1F71
330
CA6
100
AcDbEntity
  8
TEXT
100
AcDbText
 10
17.15649999999999
 20
3.509000000000003
 30
0.0
 40
0.281
  1
---
 41
0.75
  7
TXT
 72
     4
 11
17.43749999999999
 21
3.649500000000002
 31
0.0
100
AcDbText
  0
TEXT
  5
1F72
330
CA6
100
AcDbEntity
  8
TEXT
100
AcDbText
 10
17.15649999999999
 20
2.573000000000001
 30
0.0
 40
0.281
  1
---
 41
0.75
  7
TXT
 72
     4
 11
17.43749999999999
 21
2.713500000000001
 31
0.0
100
AcDbText
  0
TEXT
  5
1F73
330
CA6
100
AcDbEntity
  8
TEXT
100
AcDbText
 10
17.15649999999999
 20
3.041000000000002
 30
0.0
 40
0.281
  1
---
 41
0.75
  7
TXT
 72
     4
 11
17.43749999999999
 21
3.181500000000001
 31
0.0
100
AcDbText
  0
TEXT
  5
1F74
330
CA6
100
AcDbEntity
  8
TEXT
100
AcDbText
 10
18.55049999999998
 20
2.573000000000001
 30
0.0
 40
0.281
  1
---
 41
0.75
  7
TXT
 72
     4
 11
18.83149999999998
 21
2.713500000000001
 31
0.0
100
AcDbText
  0
TEXT
  5
1F75
330
CA6
100
AcDbEntity
  8
TEXT
100
AcDbText
 10
18.55049999999998
 20
3.041000000000002
 30
0.0
 40
0.281
  1
---
 41
0.75
  7
TXT
 72
     4
 11
18.83149999999998
 21
3.181500000000001
 31
0.0
100
AcDbText
  0
TEXT
  5
1F76
330
CA6
100
AcDbEntity
  8
TEXT
100
AcDbText
 10
18.55049999999998
 20
3.509000000000003
 30
0.0
 40
0.281
  1
---
 41
0.75
  7
TXT
 72
     4
 11
18.83149999999998
 21
3.649500000000002
 31
0.0
100
AcDbText
  0
TEXT
  5
1F77
330
CA6
100
AcDbEntity
  8
TEXT
100
AcDbText
 10
18.55049999999998
 20
3.977000000000003
 30
0.0
 40
0.281
  1
---
 41
0.75
  7
TXT
 72
     4
 11
18.83149999999998
 21
4.117500000000003
 31
0.0
100
AcDbText
  0
TEXT
  5
1F78
330
CA6
100
AcDbEntity
  8
TEXT
100
AcDbText
 10
18.55049999999998
 20
4.445000000000002
 30
0.0
 40
0.281
  1
---
 41
0.75
  7
TXT
 72
     4
 11
18.83149999999998
 21
4.585500000000003
 31
0.0
100
AcDbText
  0
TEXT
  5
1F79
330
CA6
100
AcDbEntity
  8
TEXT
100
AcDbText
 10
19.94449999999999
 20
2.573000000000001
 30
0.0
 40
0.281
  1
---
 41
0.75
  7
TXT
 72
     4
 11
20.22549999999998
 21
2.713500000000001
 31
0.0
100
AcDbText
  0
TEXT
  5
1F7A
330
CA6
100
AcDbEntity
  8
TEXT
100
AcDbText
 10
19.94449999999999
 20
3.041000000000002
 30
0.0
 40
0.281
  1
---
 41
0.75
  7
TXT
 72
     4
 11
20.22549999999998
 21
3.181500000000001
 31
0.0
100
AcDbText
  0
TEXT
  5
1F7B
330
CA6
100
AcDbEntity
  8
TEXT
100
AcDbText
 10
19.94449999999999
 20
3.509000000000003
 30
0.0
 40
0.281
  1
---
 41
0.75
  7
TXT
 72
     4
 11
20.22549999999998
 21
3.649500000000002
 31
0.0
100
AcDbText
  0
TEXT
  5
1F7C
330
CA6
100
AcDbEntity
  8
TEXT
100
AcDbText
 10
19.94449999999999
 20
3.977000000000003
 30
0.0
 40
0.281
  1
---
 41
0.75
  7
TXT
 72
     4
 11
20.22549999999998
 21
4.117500000000003
 31
0.0
100
AcDbText
  0
TEXT
  5
1F7D
330
CA6
100
AcDbEntity
  8
TEXT
100
AcDbText
 10
19.94449999999999
 20
4.445000000000002
 30
0.0
 40
0.281
  1
---
 41
0.75
  7
TXT
 72
     4
 11
20.22549999999998
 21
4.585500000000003
 31
0.0
100
AcDbText
  0
TEXT
  5
1F7E
330
CA6
100
AcDbEntity
  8
TEXT
100
AcDbText
 10
21.33849999999999
 20
2.573000000000004
 30
0.0
 40
0.281
  1
---
 41
0.75
  7
TXT
 72
     4
 11
21.61949999999999
 21
2.713500000000004
 31
0.0
100
AcDbText
  0
TEXT
  5
1F7F
330
CA6
100
AcDbEntity
  8
TEXT
100
AcDbText
 10
21.33849999999999
 20
3.041000000000004
 30
0.0
 40
0.281
  1
---
 41
0.75
  7
TXT
 72
     4
 11
21.61949999999999
 21
3.181500000000004
 31
0.0
100
AcDbText
  0
TEXT
  5
1F80
330
CA6
100
AcDbEntity
  8
TEXT
100
AcDbText
 10
21.33849999999999
 20
3.509000000000004
 30
0.0
 40
0.281
  1
---
 41
0.75
  7
TXT
 72
     4
 11
21.61949999999999
 21
3.649500000000004
 31
0.0
100
AcDbText
  0
TEXT
  5
1F81
330
CA6
100
AcDbEntity
  8
TEXT
100
AcDbText
 10
21.33849999999999
 20
3.977000000000005
 30
0.0
 40
0.281
  1
---
 41
0.75
  7
TXT
 72
     4
 11
21.61949999999999
 21
4.117500000000005
 31
0.0
100
AcDbText
  0
TEXT
  5
1F82
330
CA6
100
AcDbEntity
  8
TEXT
100
AcDbText
 10
21.33849999999999
 20
4.445000000000004
 30
0.0
 40
0.281
  1
---
 41
0.75
  7
TXT
 72
     4
 11
21.61949999999999
 21
4.585500000000005
 31
0.0
100
AcDbText
  0
INSERT
  5
1FB6
330
CA6
100
AcDbEntity
  8
TITLE
100
AcDbBlockReference
  2
Hb
 10
0.0
 20
0.0
 30
0.0
 41
2.25
 42
2.25
 43
2.25
  0
LINE
  5
1FD1
330
CA6
100
AcDbEntity
  8
TITLE
100
AcDbLine
 10
22.3165
 20
5.287499999999996
 30
0.0
 11
22.3165
 21
0.1394999999999986
 31
0.0
  0
TEXT
  5
1FE5
330
CA6
100
AcDbEntity
  8
TEXT
100
AcDbText
 10
4.469999999999999
 20
1.169000000000001
 30
0.0
 40
0.281
  1
4.688
 41
0.75
  7
TXT
 72
     4
 11
4.891499999999999
 21
1.309500000000001
 31
0.0
100
AcDbText
  0
TEXT
  5
1FE6
330
CA6
100
AcDbEntity
  8
TEXT
100
AcDbText
 10
4.487562500000004
 20
0.2330000000000035
 30
0.0
 40
0.281
  1
7.390
 41
0.75
  7
TXT
 72
     4
 11
4.891500000000004
 21
0.3735000000000035
 31
0.0
100
AcDbText
  0
TEXT
  5
1FE7
330
CA6
100
AcDbEntity
  8
TEXT
100
AcDbText
 10
4.4875625
 20
0.7010000000000016
 30
0.0
 40
0.281
  1
7.390
 41
0.75
  7
TXT
 72
     4
 11
4.891499999999999
 21
0.8415000000000015
 31
0.0
100
AcDbText
  0
TEXT
  5
1FE8
330
CA6
100
AcDbEntity
  8
TEXT
100
AcDbText
 10
5.863999999999997
 20
1.169000000000001
 30
0.0
 40
0.281
  1
3.688
 41
0.75
  7
TXT
 72
     4
 11
6.285499999999997
 21
1.309500000000001
 31
0.0
100
AcDbText
  0
TEXT
  5
1FE9
330
CA6
100
AcDbEntity
  8
TEXT
100
AcDbText
 10
5.881562500000005
 20
0.2330000000000035
 30
0.0
 40
0.281
  1
4.703
 41
0.75
  7
TXT
 72
     4
 11
6.285500000000005
 21
0.3735000000000035
 31
0.0
100
AcDbText
  0
TEXT
  5
1FEA
330
CA6
100
AcDbEntity
  8
TEXT
100
AcDbText
 10
5.881562499999997
 20
0.7010000000000016
 30
0.0
 40
0.281
  1
4.703
 41
0.75
  7
TXT
 72
     4
 11
6.285499999999997
 21
0.8415000000000015
 31
0.0
100
AcDbText
  0
TEXT
  5
1FEB
330
CA6
100
AcDbEntity
  8
TEXT
100
AcDbText
 10
4.469999999999999
 20
1.637000000000002
 30
0.0
 40
0.281
  1
4.375
 41
0.75
  7
TXT
 72
     4
 11
4.891499999999999
 21
1.777500000000002
 31
0.0
100
AcDbText
  0
TEXT
  5
1FEC
330
CA6
100
AcDbEntity
  8
TEXT
100
AcDbText
 10
4.469999999999999
 20
2.105000000000002
 30
0.0
 40
0.281
  1
3.625
 41
0.75
  7
TXT
 72
     4
 11
4.891499999999999
 21
2.245500000000002
 31
0.0
100
AcDbText
  0
TEXT
  5
1FED
330
CA6
100
AcDbEntity
  8
TEXT
100
AcDbText
 10
5.863999999999997
 20
1.637000000000002
 30
0.0
 40
0.281
  1
2.375
 41
0.75
  7
TXT
 72
     4
 11
6.285499999999997
 21
1.777500000000002
 31
0.0
100
AcDbText
  0
TEXT
  5
1FEE
330
CA6
100
AcDbEntity
  8
TEXT
100
AcDbText
 10
5.934249999999996
 20
2.105000000000002
 30
0.0
 40
0.281
  1
1.500
 41
0.75
  7
TXT
 72
     4
 11
6.285499999999997
 21
2.245500000000002
 31
0.0
100
AcDbText
  0
TEXT
  5
1FEF
330
CA6
100
AcDbEntity
  8
TEXT
100
AcDbText
 10
7.293125000000006
 20
0.2330000000000035
 30
0.0
 40
0.281
  1
3.218
 41
0.75
  7
TXT
 72
     4
 11
7.679500000000006
 21
0.3735000000000035
 31
0.0
100
AcDbText
  0
TEXT
  5
1FF0
330
CA6
100
AcDbEntity
  8
TEXT
100
AcDbText
 10
7.293124999999998
 20
0.7010000000000016
 30
0.0
 40
0.281
  1
2.218
 41
0.75
  7
TXT
 72
     4
 11
7.679499999999999
 21
0.8415000000000015
 31
0.0
100
AcDbText
  0
TEXT
  5
1FF1
330
CA6
100
AcDbEntity
  8
TEXT
100
AcDbText
 10
7.293124999999998
 20
1.169000000000001
 30
0.0
 40
0.281
  1
2.218
 41
0.75
  7
TXT
 72
     4
 11
7.679499999999999
 21
1.309500000000001
 31
0.0
100
AcDbText
  0
TEXT
  5
1FF2
330
CA6
100
AcDbEntity
  8
TEXT
100
AcDbText
 10
8.669562499999996
 20
1.169000000000002
 30
0.0
 40
0.281
  1
2.062
 41
0.75
  7
TXT
 72
     4
 11
9.073499999999995
 21
1.309500000000002
 31
0.0
100
AcDbText
  0
TEXT
  5
1FF3
330
CA6
100
AcDbEntity
  8
TEXT
100
AcDbText
 10
8.669562500000003
 20
0.2330000000000053
 30
0.0
 40
0.281
  1
3.062
 41
0.75
  7
TXT
 72
     4
 11
9.073500000000002
 21
0.3735000000000053
 31
0.0
100
AcDbText
  0
TEXT
  5
1FF4
330
CA6
100
AcDbEntity
  8
TEXT
100
AcDbText
 10
8.669562499999996
 20
0.7010000000000043
 30
0.0
 40
0.281
  1
2.062
 41
0.75
  7
TXT
 72
     4
 11
9.073499999999995
 21
0.8415000000000041
 31
0.0
100
AcDbText
  0
TEXT
  5
1FF5
330
CA6
100
AcDbEntity
  8
TEXT
100
AcDbText
 10
7.328249999999998
 20
1.637000000000002
 30
0.0
 40
0.281
  1
1.218
 41
0.75
  7
TXT
 72
     4
 11
7.679499999999999
 21
1.777500000000002
 31
0.0
100
AcDbText
  0
TEXT
  5
1FF6
330
CA6
100
AcDbEntity
  8
TEXT
100
AcDbText
 10
7.328249999999998
 20
2.105000000000002
 30
0.0
 40
0.281
  1
1.218
 41
0.75
  7
TXT
 72
     4
 11
7.679499999999999
 21
2.245500000000002
 31
0.0
100
AcDbText
  0
TEXT
  5
1FF7
330
CA6
100
AcDbEntity
  8
TEXT
100
AcDbText
 10
8.704687499999995
 20
1.637000000000003
 30
0.0
 40
0.281
  1
1.062
 41
0.75
  7
TXT
 72
     4
 11
9.073499999999995
 21
1.777500000000003
 31
0.0
100
AcDbText
  0
TEXT
  5
1FF8
330
CA6
100
AcDbEntity
  8
TEXT
100
AcDbText
 10
8.704687499999995
 20
2.105000000000003
 30
0.0
 40
0.281
  1
1.062
 41
0.75
  7
TXT
 72
     4
 11
9.073499999999995
 21
2.245500000000002
 31
0.0
100
AcDbText
  0
TEXT
  5
1FF9
330
CA6
100
AcDbEntity
  8
TEXT
100
AcDbText
 10
12.97449999999999
 20
1.169000000000001
 30
0.0
 40
0.281
  1
---
 41
0.75
  7
TXT
 72
     4
 11
13.25549999999999
 21
1.309500000000001
 31
0.0
100
AcDbText
  0
TEXT
  5
1FFA
330
CA6
100
AcDbEntity
  8
TEXT
100
AcDbText
 10
12.869125
 20
0.2330000000000035
 30
0.0
 40
0.281
  1
3.500
 41
0.75
  7
TXT
 72
     4
 11
13.2555
 21
0.3735000000000035
 31
0.0
100
AcDbText
  0
TEXT
  5
1FFB
330
CA6
100
AcDbEntity
  8
TEXT
100
AcDbText
 10
12.86912499999999
 20
0.7010000000000025
 30
0.0
 40
0.281
  1
3.500
 41
0.75
  7
TXT
 72
     4
 11
13.25549999999999
 21
0.8415000000000024
 31
0.0
100
AcDbText
  0
TEXT
  5
1FFC
330
CA6
100
AcDbEntity
  8
TEXT
100
AcDbText
 10
12.97449999999999
 20
1.637000000000002
 30
0.0
 40
0.281
  1
---
 41
0.75
  7
TXT
 72
     4
 11
13.25549999999999
 21
1.777500000000002
 31
0.0
100
AcDbText
  0
TEXT
  5
1FFD
330
CA6
100
AcDbEntity
  8
TEXT
100
AcDbText
 10
12.97449999999999
 20
2.105000000000002
 30
0.0
 40
0.281
  1
---
 41
0.75
  7
TXT
 72
     4
 11
13.25549999999999
 21
2.245500000000002
 31
0.0
100
AcDbText
  0
TEXT
  5
1FFE
330
CA6
100
AcDbEntity
  8
TEXT
100
AcDbText
 10
11.475125
 20
0.2330000000000053
 30
0.0
 40
0.281
  1
4.312
 41
0.75
  7
TXT
 72
     4
 11
11.8615
 21
0.3735000000000053
 31
0.0
100
AcDbText
  0
TEXT
  5
1FFF
330
CA6
100
AcDbEntity
  8
TEXT
100
AcDbText
 10
11.47512499999999
 20
0.7010000000000043
 30
0.0
 40
0.281
  1
4.312
 41
0.75
  7
TXT
 72
     4
 11
11.86149999999999
 21
0.8415000000000041
 31
0.0
100
AcDbText
  0
TEXT
  5
2000
330
CA6
100
AcDbEntity
  8
TEXT
100
AcDbText
 10
11.47512499999999
 20
1.169000000000002
 30
0.0
 40
0.281
  1
3.312
 41
0.75
  7
TXT
 72
     4
 11
11.86149999999999
 21
1.309500000000002
 31
0.0
100
AcDbText
  0
TEXT
  5
2001
330
CA6
100
AcDbEntity
  8
TEXT
100
AcDbText
 10
10.09868749999998
 20
0.7010000000000043
 30
0.0
 40
0.281
  1
7.000
 41
0.75
  7
TXT
 72
     4
 11
10.46749999999999
 21
0.8415000000000041
 31
0.0
100
AcDbText
  0
TEXT
  5
2002
330
CA6
100
AcDbEntity
  8
TEXT
100
AcDbText
 10
10.09868749999999
 20
0.2330000000000053
 30
0.0
 40
0.281
  1
7.000
 41
0.75
  7
TXT
 72
     4
 11
10.4675
 21
0.3735000000000053
 31
0.0
100
AcDbText
  0
TEXT
  5
2003
330
CA6
100
AcDbEntity
  8
TEXT
100
AcDbText
 10
10.08112499999999
 20
1.169000000000002
 30
0.0
 40
0.281
  1
4.312
 41
0.75
  7
TXT
 72
     4
 11
10.46749999999999
 21
1.309500000000002
 31
0.0
100
AcDbText
  0
TEXT
  5
2004
330
CA6
100
AcDbEntity
  8
TEXT
100
AcDbText
 10
11.49268749999998
 20
1.637000000000003
 30
0.0
 40
0.281
  1
2.000
 41
0.75
  7
TXT
 72
     4
 11
11.86149999999999
 21
1.777500000000003
 31
0.0
100
AcDbText
  0
TEXT
  5
2005
330
CA6
100
AcDbEntity
  8
TEXT
100
AcDbText
 10
11.51024999999999
 20
2.105000000000003
 30
0.0
 40
0.281
  1
1.125
 41
0.75
  7
TXT
 72
     4
 11
11.86149999999999
 21
2.245500000000002
 31
0.0
100
AcDbText
  0
TEXT
  5
2006
330
CA6
100
AcDbEntity
  8
TEXT
100
AcDbText
 10
10.06356249999999
 20
2.105000000000003
 30
0.0
 40
0.281
  1
3.250
 41
0.75
  7
TXT
 72
     4
 11
10.46749999999999
 21
2.245500000000002
 31
0.0
100
AcDbText
  0
TEXT
  5
2007
330
CA6
100
AcDbEntity
  8
TEXT
100
AcDbText
 10
10.09868749999998
 20
1.637000000000003
 30
0.0
 40
0.281
  1
4.000
 41
0.75
  7
TXT
 72
     4
 11
10.46749999999999
 21
1.777500000000003
 31
0.0
100
AcDbText
  0
TEXT
  5
2008
330
CA6
100
AcDbEntity
  8
TEXT
100
AcDbText
 10
14.26312499999999
 20
0.7010000000000043
 30
0.0
 40
0.281
  1
0.094
 41
0.75
  7
TXT
 72
     4
 11
14.64949999999999
 21
0.8415000000000041
 31
0.0
100
AcDbText
  0
TEXT
  5
2009
330
CA6
100
AcDbEntity
  8
TEXT
100
AcDbText
 10
14.263125
 20
0.2330000000000053
 30
0.0
 40
0.281
  1
0.094
 41
0.75
  7
TXT
 72
     4
 11
14.64949999999999
 21
0.3735000000000053
 31
0.0
100
AcDbText
  0
TEXT
  5
200A
330
CA6
100
AcDbEntity
  8
TEXT
100
AcDbText
 10
14.26312499999999
 20
1.169000000000002
 30
0.0
 40
0.281
  1
0.094
 41
0.75
  7
TXT
 72
     4
 11
14.64949999999999
 21
1.309500000000002
 31
0.0
100
AcDbText
  0
TEXT
  5
200B
330
CA6
100
AcDbEntity
  8
TEXT
100
AcDbText
 10
15.65712499999999
 20
1.169000000000002
 30
0.0
 40
0.281
  1
0.078
 41
0.75
  7
TXT
 72
     4
 11
16.04349999999999
 21
1.309500000000002
 31
0.0
100
AcDbText
  0
TEXT
  5
200C
330
CA6
100
AcDbEntity
  8
TEXT
100
AcDbText
 10
15.657125
 20
0.2330000000000044
 30
0.0
 40
0.281
  1
0.078
 41
0.75
  7
TXT
 72
     4
 11
16.0435
 21
0.3735000000000044
 31
0.0
100
AcDbText
  0
TEXT
  5
200D
330
CA6
100
AcDbEntity
  8
TEXT
100
AcDbText
 10
15.65712499999999
 20
0.7010000000000034
 30
0.0
 40
0.281
  1
0.078
 41
0.75
  7
TXT
 72
     4
 11
16.04349999999999
 21
0.8415000000000032
 31
0.0
100
AcDbText
  0
TEXT
  5
200E
330
CA6
100
AcDbEntity
  8
TEXT
100
AcDbText
 10
14.26312499999999
 20
2.105000000000003
 30
0.0
 40
0.281
  1
0.062
 41
0.75
  7
TXT
 72
     4
 11
14.64949999999999
 21
2.245500000000002
 31
0.0
100
AcDbText
  0
TEXT
  5
200F
330
CA6
100
AcDbEntity
  8
TEXT
100
AcDbText
 10
14.26312499999999
 20
1.637000000000003
 30
0.0
 40
0.281
  1
0.062
 41
0.75
  7
TXT
 72
     4
 11
14.64949999999999
 21
1.777500000000003
 31
0.0
100
AcDbText
  0
TEXT
  5
2010
330
CA6
100
AcDbEntity
  8
TEXT
100
AcDbText
 10
15.65712499999999
 20
1.637000000000003
 30
0.0
 40
0.281
  1
0.078
 41
0.75
  7
TXT
 72
     4
 11
16.04349999999999
 21
1.777500000000003
 31
0.0
100
AcDbText
  0
TEXT
  5
2011
330
CA6
100
AcDbEntity
  8
TEXT
100
AcDbText
 10
15.65712499999999
 20
2.105000000000003
 30
0.0
 40
0.281
  1
0.062
 41
0.75
  7
TXT
 72
     4
 11
16.04349999999999
 21
2.245500000000002
 31
0.0
100
AcDbText
  0
TEXT
  5
22BF
330
CA6
100
AcDbEntity
  8
TEXT
100
AcDbText
 10
11.53424406729831
 20
34.21875
 30
0.0
 40
0.351
  1
CU-4123 TO CU-4347 & CU-4123-B TO CU-4347-B
 41
0.5044510786475832
  7
TXT
 72
     5
 11
18.97086186872098
 21
34.21875
 31
0.0
100
AcDbText
  0
TEXT
  5
2518
330
CA6
100
AcDbEntity
  8
TEXT
100
AcDbText
 10
21.5195914377495
 20
34.44975
 30
0.0
 40
0.351
  1
8-19-09
 41
0.75
  7
TXT
 72
     4
 11
22.33127893774951
 21
34.62525
 31
0.0
100
AcDbText
  0
TEXT
  5
2786
330
CA6
100
AcDbEntity
  8
TEXT
100
AcDbText
 10
1.404050728649139
 20
9.037416882116119
 30
0.0
 40
0.281
  1
PART NO. CU-4123 THRU CU-4347
 41
0.75
  7
TXT
100
AcDbText
  0
TEXT
  5
2787
330
CA6
100
AcDbEntity
  8
TEXT
100
AcDbText
 10
1.404050728649139
 20
8.569083548782785
 30
0.0
 40
0.281
  1
AND CU-4123-B THRU CU-4347-B
 41
0.75
  7
TXT
100
AcDbText
  0
TEXT
  5
2788
330
CA6
100
AcDbEntity
  8
TEXT
100
AcDbText
 10
1.404050728649139
 20
8.100750215449451
 30
0.0
 40
0.281
  1
ARE SUPPLIED WITH A WELDED ON
 41
0.75
  7
TXT
100
AcDbText
  0
TEXT
  5
2789
330
CA6
100
AcDbEntity
  8
TEXT
100
AcDbText
 10
1.404050728649139
 20
7.632416882116117
 30
0.0
 40
0.281
  1
MOUNTING BRACKET ONLY.
 41
0.75
  7
TXT
100
AcDbText
  0
HATCH
  5
279F
330
CA6
100
AcDbEntity
  8
BRACKET
100
AcDbHatch
 10
0.0
 20
0.0
 30
0.0
210
0.0
220
0.0
230
1.0
  2
ANSI31
 70
     0
 71
     1
 91
        1
 92
        1
 93
        4
 72
     1
 10
11.31541163678482
 20
6.716861285620773
 11
19.9394116367848
 21
6.716861285620771
 72
     1
 10
19.9394116367848
 20
6.716861285620771
 11
19.9394116367848
 21
6.806861285620772
 72
     1
 10
19.9394116367848
 20
6.806861285620772
 11
11.31541163678482
 21
6.806861285620772
 72
     1
 10
11.31541163678482
 20
6.806861285620772
 11
11.31541163678482
 21
6.716861285620773
 97
        1
330
1895
 75
     0
 76
     1
 52
90.0
 41
1.0
 77
     0
 78
     1
 53
135.0
 43
0.0
 44
0.0
 45
-0.0883883476483185
 46
-0.0883883476483184
 79
     0
 98
        1
 10
0.0
 20
0.0
  0
TEXT
  5
2801
330
CA6
100
AcDbEntity
  8
TEXT
100
AcDbText
 10
12.474383646566
 20
15.78694475109376
 30
0.0
 40
0.281
  1
SMOOTH BLACK (SUFFIX -B)
 41
0.75
  7
TXT
100
AcDbText
  0
CIRCLE
  5
280C
330
CA6
100
AcDbEntity
  8
BRACKET
100
AcDbCircle
 10
4.80763180872762
 20
13.87892793094382
 30
0.0
 40
0.0965
  0
CIRCLE
  5
280D
330
CA6
100
AcDbEntity
  8
BRACKET
100
AcDbCircle
 10
4.80763180872762
 20
21.87892793094382
 30
0.0
 40
0.0965
  0
TEXT
  5
2859
330
CA6
100
AcDbEntity
  8
TEXT
100
AcDbText
 10
22.60956249999999
 20
2.105000000000004
 30
0.0
 40
0.281
  1
0.625
 41
0.75
  7
TXT
 72
     4
 11
23.01349999999998
 21
2.245500000000004
 31
0.0
100
AcDbText
  0
TEXT
  5
285A
330
CA6
100
AcDbEntity
  8
TEXT
100
AcDbText
 10
22.7325
 20
2.573000000000004
 30
0.0
 40
0.281
  1
---
 41
0.75
  7
TXT
 72
     4
 11
23.0135
 21
2.713500000000004
 31
0.0
100
AcDbText
  0
TEXT
  5
285B
330
CA6
100
AcDbEntity
  8
TEXT
100
AcDbText
 10
22.7325
 20
3.041000000000004
 30
0.0
 40
0.281
  1
---
 41
0.75
  7
TXT
 72
     4
 11
23.0135
 21
3.181500000000004
 31
0.0
100
AcDbText
  0
TEXT
  5
285C
330
CA6
100
AcDbEntity
  8
TEXT
100
AcDbText
 10
22.7325
 20
3.509000000000004
 30
0.0
 40
0.281
  1
---
 41
0.75
  7
TXT
 72
     4
 11
23.0135
 21
3.649500000000004
 31
0.0
100
AcDbText
  0
TEXT
  5
285D
330
CA6
100
AcDbEntity
  8
TEXT
100
AcDbText
 10
22.7325
 20
3.977000000000005
 30
0.0
 40
0.281
  1
---
 41
0.75
  7
TXT
 72
     4
 11
23.0135
 21
4.117500000000005
 31
0.0
100
AcDbText
  0
TEXT
  5
285E
330
CA6
100
AcDbEntity
  8
TEXT
100
AcDbText
 10
22.7325
 20
4.445000000000004
 30
0.0
 40
0.281
  1
---
 41
0.75
  7
TXT
 72
     4
 11
23.0135
 21
4.585500000000005
 31
0.0
100
AcDbText
  0
TEXT
  5
285F
330
CA6
100
AcDbEntity
  8
TEXT
100
AcDbText
 10
22.94325
 20
4.913000000000003
 30
0.0
 40
0.281
  1
P
 41
0.75
  7
TXT
 72
     4
 11
23.0135
 21
5.053500000000004
 31
0.0
100
AcDbText
  0
TEXT
  5
2860
330
CA6
100
AcDbEntity
  8
TEXT
100
AcDbText
 10
22.7325
 20
1.637000000000011
 30
0.0
 40
0.281
  1
---
 41
0.75
  7
TXT
 72
     4
 11
23.0135
 21
1.777500000000011
 31
0.0
100
AcDbText
  0
TEXT
  5
2861
330
CA6
100
AcDbEntity
  8
TEXT
100
AcDbText
 10
22.7325
 20
1.169000000000011
 30
0.0
 40
0.281
  1
---
 41
0.75
  7
TXT
 72
     4
 11
23.0135
 21
1.309500000000011
 31
0.0
100
AcDbText
  0
TEXT
  5
2862
330
CA6
100
AcDbEntity
  8
TEXT
100
AcDbText
 10
22.7325
 20
0.7010000000000119
 30
0.0
 40
0.281
  1
---
 41
0.75
  7
TXT
 72
     4
 11
23.0135
 21
0.8415000000000119
 31
0.0
100
AcDbText
  0
TEXT
  5
2863
330
CA6
100
AcDbEntity
  8
TEXT
100
AcDbText
 10
22.7325
 20
0.2330000000000119
 30
0.0
 40
0.281
  1
---
 41
0.75
  7
TXT
 72
     4
 11
23.0135
 21
0.3735000000000119
 31
0.0
100
AcDbText
  0
LINE
  5
2864
330
CA6
100
AcDbEntity
  8
TITLE
100
AcDbLine
 10
20.92249999999999
 20
5.287499999999996
 30
0.0
 11
20.92249999999999
 21
0.1394999999999986
 31
0.0
  0
LINE
  5
2865
330
CA6
100
AcDbEntity
  8
TITLE
100
AcDbLine
 10
19.5285
 20
5.287499999999996
 30
0.0
 11
19.5285
 21
0.1394999999999986
 31
0.0
  0
LINE
  5
2866
330
CA6
100
AcDbEntity
  8
TITLE
100
AcDbLine
 10
18.13449999999999
 20
5.287499999999996
 30
0.0
 11
18.13449999999999
 21
0.1394999999999986
 31
0.0
  0
LINE
  5
2867
330
CA6
100
AcDbEntity
  8
TITLE
100
AcDbLine
 10
16.7405
 20
5.287499999999996
 30
0.0
 11
16.7405
 21
0.1394999999999986
 31
0.0
  0
LINE
  5
2868
330
CA6
100
AcDbEntity
  8
TITLE
100
AcDbLine
 10
15.3465
 20
5.287499999999996
 30
0.0
 11
15.3465
 21
0.1394999999999986
 31
0.0
  0
LINE
  5
2869
330
CA6
100
AcDbEntity
  8
TITLE
100
AcDbLine
 10
13.9525
 20
5.287499999999996
 30
0.0
 11
13.9525
 21
0.1394999999999986
 31
0.0
  0
LINE
  5
286A
330
CA6
100
AcDbEntity
  8
TITLE
100
AcDbLine
 10
12.5585
 20
5.287499999999996
 30
0.0
 11
12.5585
 21
0.1394999999999986
 31
0.0
  0
LINE
  5
286B
330
CA6
100
AcDbEntity
  8
TITLE
100
AcDbLine
 10
11.1645
 20
5.287499999999996
 30
0.0
 11
11.1645
 21
0.1394999999999986
 31
0.0
  0
LINE
  5
286C
330
CA6
100
AcDbEntity
  8
TITLE
100
AcDbLine
 10
9.770500000000003
 20
5.287499999999996
 30
0.0
 11
9.770500000000003
 21
0.1394999999999986
 31
0.0
  0
LINE
  5
286D
330
CA6
100
AcDbEntity
  8
TITLE
100
AcDbLine
 10
8.376500000000001
 20
5.287499999999996
 30
0.0
 11
8.376500000000001
 21
0.1394999999999986
 31
0.0
  0
LINE
  5
286E
330
CA6
100
AcDbEntity
  8
TITLE
100
AcDbLine
 10
6.982500000000002
 20
5.287499999999996
 30
0.0
 11
6.982500000000002
 21
0.1394999999999986
 31
0.0
  0
LINE
  5
286F
330
CA6
100
AcDbEntity
  8
TITLE
100
AcDbLine
 10
5.588500000000002
 20
5.287499999999996
 30
0.0
 11
5.588500000000002
 21
0.1394999999999986
 31
0.0
  0
LINE
  5
2870
330
CA6
100
AcDbEntity
  8
TITLE
100
AcDbLine
 10
4.194500000000005
 20
5.287499999999996
 30
0.0
 11
4.194500000000005
 21
0.1394999999999986
 31
0.0
  0
DIMENSION
  5
2872
330
CA6
100
AcDbEntity
  8
DIM
100
AcDbDimension
  2
*D29
 10
4.807631808727618
 20
12.75692793094383
 30
0.0
 11
3.745131808727618
 21
12.75692793094383
 31
0.0
 70
    32
  1
P
 71
     5
 42
2.125
  3
23NSTD
100
AcDbAlignedDimension
 13
2.682631808727617
 23
13.75392793094383
 33
0.0
 14
4.807631808727618
 24
13.87892793094382
 34
0.0
100
AcDbRotatedDimension
  0
MTEXT
  5
28DA
102
{ACAD_REACTORS
330
28DB
102
}
330
CA6
100
AcDbEntity
  8
DIM
100
AcDbMText
 10
6.53371026701555
 20
11.00561592714001
 30
0.0
 40
0.281
 41
0.0
 71
     1
 72
     1
  1
0.193 DIA. (2) HOLES\PCU-4123 & CU-4123-B
  7
TXT
 73
     1
 44
1.0
  0
LEADER
  5
28DB
330
CA6
100
AcDbEntity
  8
DIM
100
AcDbLeader
  3
23NSTD
 73
     0
 74
     0
 75
     1
 40
0.7493333333333336
 41
3.793499999999999
 76
     3
 10
4.892798014631328
 20
13.8335520852551
 30
0.0
 10
5.92621026701555
 20
10.91186592714
 30
0.0
 10
6.33121026701555
 20
10.91186592714
 30
0.0
340
28DA
213
0.0
223
-0.09375
233
0.0
1001
ACAD
1000
DSTYLE
1002
{
1070
   147
1040
0.09
1070
    77
1070
     0
1002
}
  0
ENDSEC
  0
SECTION
  2
OBJECTS
  0
DICTIONARY
  5
C94
330
0
100
AcDbDictionary
281
     1
  3
ACAD_GROUP
350
C95
  3
ACAD_LAYOUT
350
CA1
  3
ACAD_MLINESTYLE
350
C9E
  3
ACAD_PLOTSETTINGS
350
CA0
  3
ACAD_PLOTSTYLENAME
350
C96
  3
AcDbVariableDictionary
350
279B
  0
DICTIONARY
  5
C95
102
{ACAD_REACTORS
330
C94
102
}
330
C94
100
AcDbDictionary
281
     1
  0
DICTIONARY
  5
CA1
102
{ACAD_REACTORS
330
C94
102
}
330
C94
100
AcDbDictionary
281
     1
  3
Layout1
350
CA5
  3
Model
350
CA9
  0
DICTIONARY
  5
C9E
102
{ACAD_REACTORS
330
C94
102
}
330
C94
100
AcDbDictionary
281
     1
  3
Standard
350
C9F
  0
DICTIONARY
  5
CA0
102
{ACAD_REACTORS
330
C94
102
}
330
C94
100
AcDbDictionary
281
     1
  0
ACDBDICTIONARYWDFLT
  5
C96
102
{ACAD_REACTORS
330
C94
102
}
330
C94
100
AcDbDictionary
281
     1
  3
Normal
350
C97
100
AcDbDictionaryWithDefault
340
C97
  0
DICTIONARY
  5
279B
102
{ACAD_REACTORS
330
C94
102
}
330
C94
100
AcDbDictionary
281
     1
  3
SORTENTS
350
279C
  0
LAYOUT
  5
CA5
102
{ACAD_REACTORS
330
CA1
102
}
330
CA1
100
AcDbPlotSettings
  1

  2
\\STATION_A\HP DesignJet 430 (D/A1) by HP
  4

  6

 40
0.0
 41
0.0
 42
0.0
 43
0.0
 44
0.0
 45
0.0
 46
0.0
 47
0.0
 48
0.0
 49
0.0
140
0.0
141
0.0
142
1.0
143
1.0
 70
   688
 72
     0
 73
     0
 74
     5
  7
monochrome.ctb
 75
    16
147
1.0
148
0.0
149
0.0
100
AcDbLayout
  1
Layout1
 70
     1
 71
     1
 10
0.0
 20
0.0
 11
12.0
 21
9.0
 12
0.0
 22
0.0
 32
0.0
 14
1.000000000000000E+20
 24
1.000000000000000E+20
 34
1.000000000000000E+20
 15
-1.000000000000000E+20
 25
-1.000000000000000E+20
 35
-1.000000000000000E+20
146
0.0
 13
0.0
 23
0.0
 33
0.0
 16
1.0
 26
0.0
 36
0.0
 17
0.0
 27
1.0
 37
0.0
 76
     0
330
CA2
  0
LAYOUT
  5
CA9
102
{ACAD_REACTORS
330
CA1
102
}
330
CA1
100
AcDbPlotSettings
  1

  2
Acrobat PDFWriter
  4
Tabloid
  6

 40
3.174999952316283
 41
3.174999952316283
 42
3.17498779296875
 43
3.17498779296875
 44
431.8000183105469
 45
279.3999938964843
 46
10.92199999999998
 47
0.0
 48
0.0
 49
0.0
140
0.0
141
0.0
142
1.0
143
2.218632421978845
 70
 11956
 72
     0
 73
     1
 74
     1
  7
monochrome.ctb
 75
     0
147
0.4507281107467449
148
0.0017534295030188
149
0.0270165837602264
100
AcDbLayout
  1
Model
 70
     1
 71
     0
 10
0.0
 20
0.0
 11
12.0
 21
9.0
 12
0.0
 22
0.0
 32
0.0
 14
0.0
 24
0.0
 34
0.0
 15
0.0
 25
0.0
 35
0.0
146
0.0
 13
0.0
 23
0.0
 33
0.0
 16
1.0
 26
0.0
 36
0.0
 17
0.0
 27
1.0
 37
0.0
 76
     0
330
CA6
  0
MLINESTYLE
  5
C9F
102
{ACAD_REACTORS
330
C9E
102
}
330
C9E
100
AcDbMlineStyle
  2
STANDARD
 70
     0
  3

 62
   256
 51
90.0
 52
90.0
 71
     2
 49
0.5
 62
   256
  6
BYLAYER
 49
-0.5
 62
   256
  6
BYLAYER
  0
ACDBPLACEHOLDER
  5
C97
102
{ACAD_REACTORS
330
C96
102
}
330
C96
  0
DICTIONARYVAR
  5
279C
102
{ACAD_REACTORS
330
279B
102
}
330
279B
100
DictionaryVariables
280
     0
  1
96
  0
ENDSEC
  0
EOF
