  0
SECTION
  2
HEADER
  9
$ACADVER
  1
AC1009
  9
$INSBASE
 10
0.0
 20
0.0
 30
0.0
  9
$EXTMIN
 10
0.0
 20
0.0
 30
0.0
  9
$EXTMAX
 10
50.6
 20
77.5
 30
0.0
  9
$LIMMIN
 10
0.0
 20
0.0
  9
$LIMMAX
 10
75.0
 20
50.0
  9
$ORTHOMODE
 70
     1
  9
$REGENMODE
 70
     1
  9
$FILLMODE
 70
     1
  9
$QTEXTMODE
 70
     0
  9
$MIRRTEXT
 70
     0
  9
$DRAGMODE
 70
     2
  9
$LTSCALE
 40
2.0
  9
$OSMODE
 70
     1
  9
$ATTMODE
 70
     1
  9
$TEXTSIZE
 40
0.625
  9
$TRACEWID
 40
0.05
  9
$TEXTSTYLE
  7
TXT
  9
$CLAYER
  8
TEXT
  9
$CELTYPE
  6
BYLAYER
  9
$CECOLOR
 62
   256
  9
$DIMSCALE
 40
5.0
  9
$DIMASZ
 40
0.18
  9
$DIMEXO
 40
0.063
  9
$DIMDLI
 40
0.281
  9
$DIMRND
 40
0.0
  9
$DIMDLE
 40
0.0
  9
$DIMEXE
 40
0.093
  9
$DIMTP
 40
0.0
  9
$DIMTM
 40
0.0
  9
$DIMTXT
 40
0.125
  9
$DIMCEN
 40
0.09
  9
$DIMTSZ
 40
0.0
  9
$DIMTOL
 70
     0
  9
$DIMLIM
 70
     0
  9
$DIMTIH
 70
     1
  9
$DIMTOH
 70
     1
  9
$DIMSE1
 70
     0
  9
$DIMSE2
 70
     0
  9
$DIMTAD
 70
     0
  9
$DIMZIN
 70
     0
  9
$DIMBLK
  1

  9
$DIMASO
 70
     1
  9
$DIMSHO
 70
     1
  9
$DIMPOST
  1

  9
$DIMAPOST
  1

  9
$DIMALT
 70
     0
  9
$DIMALTD
 70
     2
  9
$DIMALTF
 40
25.4
  9
$DIMLFAC
 40
1.0
  9
$DIMTOFL
 70
     0
  9
$DIMTVP
 40
0.0
  9
$DIMTIX
 70
     0
  9
$DIMSOXD
 70
     0
  9
$DIMSAH
 70
     0
  9
$DIMBLK1
  1

  9
$DIMBLK2
  1

  9
$DIMSTYLE
  2
23NSTD
  9
$DIMCLRD
 70
     0
  9
$DIMCLRE
 70
     0
  9
$DIMCLRT
 70
     0
  9
$DIMTFAC
 40
1.0
  9
$DIMGAP
 40
0.09
  9
$LUNITS
 70
     2
  9
$LUPREC
 70
     3
  9
$SKETCHINC
 40
0.1
  9
$FILLETRAD
 40
0.0
  9
$AUNITS
 70
     0
  9
$AUPREC
 70
     0
  9
$MENU
  1
acad
  9
$ELEVATION
 40
0.0
  9
$PELEVATION
 40
0.0
  9
$THICKNESS
 40
0.0
  9
$LIMCHECK
 70
     0
  9
$BLIPMODE
 70
     1
  9
$CHAMFERA
 40
0.0
  9
$CHAMFERB
 40
0.0
  9
$SKPOLY
 70
     0
  9
$TDCREATE
 40
2450316.462202430
  9
$TDUPDATE
 40
2450316.533929166
  9
$TDINDWG
 40
0.0236865741
  9
$TDUSRTIMER
 40
0.0236865741
  9
$USRTIMER
 70
     1
  9
$ANGBASE
 50
0.0
  9
$ANGDIR
 70
     0
  9
$PDMODE
 70
     0
  9
$PDSIZE
 40
0.0
  9
$PLINEWID
 40
0.0
  9
$COORDS
 70
     0
  9
$SPLFRAME
 70
     0
  9
$SPLINETYPE
 70
     6
  9
$SPLINESEGS
 70
     8
  9
$ATTDIA
 70
     0
  9
$ATTREQ
 70
     1
  9
$HANDLING
 70
     0
  9
$HANDSEED
  5
0
  9
$SURFTAB1
 70
     6
  9
$SURFTAB2
 70
     6
  9
$SURFTYPE
 70
     6
  9
$SURFU
 70
     6
  9
$SURFV
 70
     6
  9
$UCSNAME
  2

  9
$UCSORG
 10
0.0
 20
0.0
 30
0.0
  9
$UCSXDIR
 10
1.0
 20
0.0
 30
0.0
  9
$UCSYDIR
 10
0.0
 20
1.0
 30
0.0
  9
$PUCSNAME
  2

  9
$PUCSORG
 10
0.0
 20
0.0
 30
0.0
  9
$PUCSXDIR
 10
1.0
 20
0.0
 30
0.0
  9
$PUCSYDIR
 10
0.0
 20
1.0
 30
0.0
  9
$USERI1
 70
     0
  9
$USERI2
 70
     0
  9
$USERI3
 70
     0
  9
$USERI4
 70
     0
  9
$USERI5
 70
     0
  9
$USERR1
 40
0.0
  9
$USERR2
 40
0.0
  9
$USERR3
 40
0.0
  9
$USERR4
 40
0.0
  9
$USERR5
 40
0.0
  9
$WORLDVIEW
 70
     1
  9
$SHADEDGE
 70
     3
  9
$SHADEDIF
 70
    70
  9
$TILEMODE
 70
     1
  9
$MAXACTVP
 70
    16
  9
$PINSBASE
 10
0.0
 20
0.0
 30
0.0
  9
$PLIMCHECK
 70
     0
  9
$PEXTMIN
 10
1.000000E+20
 20
1.000000E+20
 30
1.000000E+20
  9
$PEXTMAX
 10
-1.000000E+20
 20
-1.000000E+20
 30
-1.000000E+20
  9
$PLIMMIN
 10
0.0
 20
0.0
  9
$PLIMMAX
 10
12.0
 20
9.0
  9
$UNITMODE
 70
     0
  9
$VISRETAIN
 70
     0
  9
$PLINEGEN
 70
     0
  9
$PSLTSCALE
 70
     1
  9
$TREEDEPTH
 70
  3020
  9
$DWGCODEPAGE
  3
ascii
  0
ENDSEC
  0
SECTION
  2
TABLES
  0
TABLE
  2
VPORT
 70
     2
  0
VPORT
  2
*ACTIVE
 70
     0
 10
0.0
 20
0.0
 11
1.0
 21
1.0
 12
52.790656
 22
38.75
 13
0.0
 23
0.0
 14
1.0
 24
1.0
 15
0.0
 25
0.0
 16
0.0
 26
0.0
 36
1.0
 17
0.0
 27
0.0
 37
0.0
 40
77.5
 41
1.36234
 42
50.0
 43
0.0
 44
0.0
 50
0.0
 51
0.0
 71
     0
 72
   500
 73
     1
 74
     0
 75
     0
 76
     0
 77
     0
 78
     0
  0
ENDTAB
  0
TABLE
  2
LTYPE
 70
     4
  0
LTYPE
  2
CONTINUOUS
 70
    64
  3
Solid line
 72
    65
 73
     0
 40
0.0
  0
LTYPE
  2
HIDDEN
 70
    64
  3
_ _ _ _ _ _ _ _ _ _ _ _ _ _ _ _ _ _ _ _ _ _ _
 72
    65
 73
     2
 40
0.375
 49
0.25
 49
-0.125
  0
LTYPE
  2
PHANTOM
 70
    64
  3
_____ _ _ _____ _ _ _____ _ _ _____ _ _ ____
 72
    65
 73
     6
 40
2.5
 49
1.25
 49
-0.25
 49
0.25
 49
-0.25
 49
0.25
 49
-0.25
  0
LTYPE
  2
CENTER
 70
    64
  3
____ _ ____ _ ____ _ ____ _ ____ _ ____ _ ____
 72
    65
 73
     4
 40
2.0
 49
1.25
 49
-0.25
 49
0.25
 49
-0.25
  0
ENDTAB
  0
TABLE
  2
LAYER
 70
     9
  0
LAYER
  2
0
 70
    64
 62
     7
  6
CONTINUOUS
  0
LAYER
  2
OBJECT
 70
    64
 62
     7
  6
CONTINUOUS
  0
LAYER
  2
DIM
 70
    64
 62
     7
  6
CONTINUOUS
  0
LAYER
  2
HIDDEN
 70
    64
 62
     7
  6
HIDDEN
  0
LAYER
  2
BEND
 70
    64
 62
     7
  6
PHANTOM
  0
LAYER
  2
TEXT
 70
    64
 62
     7
  6
CONTINUOUS
  0
LAYER
  2
TITLE
 70
    64
 62
     7
  6
CONTINUOUS
  0
LAYER
  2
CENTER
 70
    64
 62
     7
  6
CENTER
  0
LAYER
  2
DEFPOINTS
 70
    64
 62
     7
  6
CONTINUOUS
  0
ENDTAB
  0
TABLE
  2
STYLE
 70
     2
  0
STYLE
  2
STANDARD
 70
    64
 40
0.0
 41
1.0
 50
0.0
 71
     0
 42
0.2
  3
txt
  4

  0
STYLE
  2
TXT
 70
    64
 40
0.0
 41
0.75
 50
0.0
 71
     0
 42
0.625
  3
TXT.shx
  4

  0
ENDTAB
  0
TABLE
  2
VIEW
 70
     0
  0
ENDTAB
  0
TABLE
  2
UCS
 70
     0
  0
ENDTAB
  0
TABLE
  2
APPID
 70
     1
  0
APPID
  2
ACAD
 70
    64
  0
ENDTAB
  0
TABLE
  2
DIMSTYLE
 70
     2
  0
DIMSTYLE
  2
23NSTD
 70
    64
  3

  4

  5

  6

  7

 40
5.0
 41
0.18
 42
0.063
 43
0.281
 44
0.093
 45
0.0
 46
0.0
 47
0.0
 48
0.0
140
0.125
141
0.09
142
0.0
143
25.4
144
1.0
145
0.0
146
1.0
147
0.09
 71
     0
 72
     0
 73
     1
 74
     1
 75
     0
 76
     0
 77
     0
 78
     0
170
     0
171
     2
172
     0
173
     0
174
     0
175
     0
176
     0
177
     0
178
     0
  0
DIMSTYLE
  2
23NSTDI
 70
    64
  3

  4

  5

  6

  7

 40
5.0
 41
0.18
 42
0.063
 43
0.281
 44
0.093
 45
0.0
 46
0.0
 47
0.0
 48
0.0
140
0.125
141
0.09
142
0.0
143
25.4
144
1.0
145
0.0
146
1.0
147
0.09
 71
     0
 72
     0
 73
     1
 74
     1
 75
     0
 76
     0
 77
     0
 78
     0
170
     0
171
     2
172
     0
173
     0
174
     1
175
     0
176
     0
177
     0
178
     0
  0
ENDTAB
  0
ENDSEC
  0
SECTION
  2
BLOCKS
  0
BLOCK
  8
0
  2
HB
 70
    64
 10
0.0
 20
0.0
 30
0.0
  3
HB
  0
TEXT
  8
TEXT
 10
0.207833
 20
15.060079
 30
0.0
 40
0.125
  1
NAME
 72
     1
 11
0.437
 21
15.060079
 31
0.0
  0
TEXT
  8
TEXT
 10
0.207833
 20
15.268413
 30
0.0
 40
0.125
  1
PART
 72
     1
 11
0.437
 21
15.268413
 31
0.0
  0
TEXT
  8
TEXT
 10
5.372
 20
15.060079
 30
0.0
 40
0.125
  1
No.
 72
     1
 11
5.497
 21
15.060079
 31
0.0
  0
TEXT
  8
TEXT
 10
5.267833
 20
15.268413
 30
0.0
 40
0.125
  1
PART
 72
     1
 11
5.497
 21
15.268413
 31
0.0
  0
LINE
  8
TITLE
 10
5.872
 20
15.438
 30
0.0
 11
5.872
 21
15.02
 31
0.0
  0
LINE
  8
TITLE
 10
5.122
 20
15.438
 30
0.0
 11
5.122
 21
15.02
 31
0.0
  0
LINE
  8
TITLE
 10
5.06
 20
15.438
 30
0.0
 11
5.06
 21
15.02
 31
0.0
  0
LINE
  8
TITLE
 10
0.812
 20
15.02
 30
0.0
 11
0.812
 21
15.438
 31
0.0
  0
LINE
  8
TITLE
 10
0.062
 20
15.02
 30
0.0
 11
10.058
 21
15.02
 31
0.0
  0
LINE
  8
TITLE
 10
10.058
 20
0.062
 30
0.0
 11
0.062
 21
0.062
 31
0.0
  0
LINE
  8
TITLE
 10
10.058
 20
15.438
 30
0.0
 11
10.058
 21
0.062
 31
0.0
  0
LINE
  8
TITLE
 10
0.062
 20
15.438
 30
0.0
 11
10.058
 21
15.438
 31
0.0
  0
LINE
  8
TITLE
 10
0.062
 20
0.062
 30
0.0
 11
0.062
 21
15.438
 31
0.0
  0
LINE
  8
TITLE
 10
0.0
 20
0.0
 30
0.0
 11
0.0
 21
15.5
 31
0.0
  0
LINE
  8
TITLE
 10
10.12
 20
0.0
 30
0.0
 11
0.0
 21
0.0
 31
0.0
  0
LINE
  8
TITLE
 10
10.12
 20
15.5
 30
0.0
 11
10.12
 21
0.0
 31
0.0
  0
LINE
  8
TITLE
 10
0.0
 20
15.5
 30
0.0
 11
10.12
 21
15.5
 31
0.0
  0
ENDBLK
  8
0
  0
BLOCK
  8
0
  2
*D1
 70
    65
 10
0.0
 20
0.0
 30
0.0
  3
*D
  0
LINE
  8
0
  6
BYBLOCK
 62
     0
 10
28.239858
 20
47.355662
 30
0.0
 11
29.691208
 21
47.355662
 31
0.0
  0
LINE
  8
0
  6
BYBLOCK
 62
     0
 10
28.239858
 20
23.293662
 30
0.0
 11
29.691208
 21
23.293662
 31
0.0
  0
LINE
  8
0
  6
BYBLOCK
 62
     0
 10
29.226208
 20
46.455662
 30
0.0
 11
29.226208
 21
36.087162
 31
0.0
  0
LINE
  8
0
  6
BYBLOCK
 62
     0
 10
29.226208
 20
24.193662
 30
0.0
 11
29.226208
 21
34.562162
 31
0.0
  0
SOLID
  8
0
  6
BYBLOCK
 62
     0
 10
29.076208
 20
46.455662
 30
0.0
 11
29.376208
 21
46.455662
 31
0.0
 12
29.226208
 22
47.355662
 32
0.0
 13
29.226208
 23
47.355662
 33
0.0
  0
SOLID
  8
0
  6
BYBLOCK
 62
     0
 10
29.076208
 20
24.193662
 30
0.0
 11
29.376208
 21
24.193662
 31
0.0
 12
29.226208
 22
23.293662
 32
0.0
 13
29.226208
 23
23.293662
 33
0.0
  0
TEXT
  8
0
  6
BYBLOCK
 62
     0
 10
29.069958
 20
35.012162
 30
0.0
 40
0.625
  1
B
 41
0.75
  7
TXT
 72
     1
 11
29.226208
 21
35.324662
 31
0.0
 73
     2
  0
POINT
  8
DEFPOINTS
  6
BYBLOCK
 62
     0
 10
27.924858
 20
47.355662
 30
0.0
  0
POINT
  8
DEFPOINTS
  6
BYBLOCK
 62
     0
 10
27.924858
 20
23.293662
 30
0.0
  0
POINT
  8
DEFPOINTS
  6
BYBLOCK
 62
     0
 10
29.226208
 20
23.293662
 30
0.0
  0
ENDBLK
  8
0
  0
BLOCK
  8
0
  2
*D2
 70
    65
 10
0.0
 20
0.0
 30
0.0
  3
*D
  0
LINE
  8
0
  6
BYBLOCK
 62
     0
 10
7.891358
 20
46.355662
 30
0.0
 11
5.240414
 21
46.355662
 31
0.0
  0
LINE
  8
0
  6
BYBLOCK
 62
     0
 10
7.891358
 20
25.293662
 30
0.0
 11
5.240414
 21
25.293662
 31
0.0
  0
LINE
  8
0
  6
BYBLOCK
 62
     0
 10
5.705414
 20
45.455662
 30
0.0
 11
5.705414
 21
36.587162
 31
0.0
  0
LINE
  8
0
  6
BYBLOCK
 62
     0
 10
5.705414
 20
26.193662
 30
0.0
 11
5.705414
 21
35.062162
 31
0.0
  0
SOLID
  8
0
  6
BYBLOCK
 62
     0
 10
5.555414
 20
45.455662
 30
0.0
 11
5.855414
 21
45.455662
 31
0.0
 12
5.705414
 22
46.355662
 32
0.0
 13
5.705414
 23
46.355662
 33
0.0
  0
SOLID
  8
0
  6
BYBLOCK
 62
     0
 10
5.555414
 20
26.193662
 30
0.0
 11
5.855414
 21
26.193662
 31
0.0
 12
5.705414
 22
25.293662
 32
0.0
 13
5.705414
 23
25.293662
 33
0.0
  0
TEXT
  8
0
  6
BYBLOCK
 62
     0
 10
5.549164
 20
35.512162
 30
0.0
 40
0.625
  1
A
 41
0.75
  7
TXT
 72
     1
 11
5.705414
 21
35.824662
 31
0.0
 73
     2
  0
POINT
  8
DEFPOINTS
  6
BYBLOCK
 62
     0
 10
8.206358
 20
46.355662
 30
0.0
  0
POINT
  8
DEFPOINTS
  6
BYBLOCK
 62
     0
 10
8.206358
 20
25.293662
 30
0.0
  0
POINT
  8
DEFPOINTS
  6
BYBLOCK
 62
     0
 10
5.705414
 20
25.293662
 30
0.0
  0
ENDBLK
  8
0
  0
BLOCK
  8
0
  2
*D3
 70
    65
 10
0.0
 20
0.0
 30
0.0
  3
*D
  0
LINE
  8
0
  6
BYBLOCK
 62
     0
 10
7.549858
 20
22.978662
 30
0.0
 11
7.549858
 21
21.520256
 31
0.0
  0
LINE
  8
0
  6
BYBLOCK
 62
     0
 10
27.924858
 20
22.978662
 30
0.0
 11
27.924858
 21
21.520256
 31
0.0
  0
LINE
  8
0
  6
BYBLOCK
 62
     0
 10
8.449858
 20
21.985256
 30
0.0
 11
16.154546
 21
21.985256
 31
0.0
  0
LINE
  8
0
  6
BYBLOCK
 62
     0
 10
27.024858
 20
21.985256
 30
0.0
 11
19.320171
 21
21.985256
 31
0.0
  0
SOLID
  8
0
  6
BYBLOCK
 62
     0
 10
8.449858
 20
22.135256
 30
0.0
 11
8.449858
 21
21.835256
 31
0.0
 12
7.549858
 22
21.985256
 32
0.0
 13
7.549858
 23
21.985256
 33
0.0
  0
SOLID
  8
0
  6
BYBLOCK
 62
     0
 10
27.024858
 20
22.135256
 30
0.0
 11
27.024858
 21
21.835256
 31
0.0
 12
27.924858
 22
21.985256
 32
0.0
 13
27.924858
 23
21.985256
 33
0.0
  0
TEXT
  8
0
  6
BYBLOCK
 62
     0
 10
16.604546
 20
21.672756
 30
0.0
 40
0.625
  1
20.375
 41
0.75
  7
TXT
 72
     1
 11
17.737358
 21
21.985256
 31
0.0
 73
     2
  0
POINT
  8
DEFPOINTS
  6
BYBLOCK
 62
     0
 10
7.549858
 20
23.293662
 30
0.0
  0
POINT
  8
DEFPOINTS
  6
BYBLOCK
 62
     0
 10
27.924858
 20
23.293662
 30
0.0
  0
POINT
  8
DEFPOINTS
  6
BYBLOCK
 62
     0
 10
27.924858
 20
21.985256
 30
0.0
  0
ENDBLK
  8
0
  0
BLOCK
  8
0
  2
*D4
 70
    65
 10
0.0
 20
0.0
 30
0.0
  3
*D
  0
LINE
  8
0
  6
BYBLOCK
 62
     0
 10
8.206358
 20
46.670662
 30
0.0
 11
8.206358
 21
50.437422
 31
0.0
  0
LINE
  8
0
  6
BYBLOCK
 62
     0
 10
27.268358
 20
46.670662
 30
0.0
 11
27.268358
 21
50.437422
 31
0.0
  0
LINE
  8
0
  6
BYBLOCK
 62
     0
 10
9.106358
 20
49.972422
 30
0.0
 11
16.232671
 21
49.972422
 31
0.0
  0
LINE
  8
0
  6
BYBLOCK
 62
     0
 10
26.368358
 20
49.972422
 30
0.0
 11
19.242046
 21
49.972422
 31
0.0
  0
SOLID
  8
0
  6
BYBLOCK
 62
     0
 10
9.106358
 20
50.122422
 30
0.0
 11
9.106358
 21
49.822422
 31
0.0
 12
8.206358
 22
49.972422
 32
0.0
 13
8.206358
 23
49.972422
 33
0.0
  0
SOLID
  8
0
  6
BYBLOCK
 62
     0
 10
26.368358
 20
50.122422
 30
0.0
 11
26.368358
 21
49.822422
 31
0.0
 12
27.268358
 22
49.972422
 32
0.0
 13
27.268358
 23
49.972422
 33
0.0
  0
TEXT
  8
0
  6
BYBLOCK
 62
     0
 10
16.682671
 20
49.659922
 30
0.0
 40
0.625
  1
19.062
 41
0.75
  7
TXT
 72
     1
 11
17.737358
 21
49.972422
 31
0.0
 73
     2
  0
POINT
  8
DEFPOINTS
  6
BYBLOCK
 62
     0
 10
8.206358
 20
46.355662
 30
0.0
  0
POINT
  8
DEFPOINTS
  6
BYBLOCK
 62
     0
 10
27.268358
 20
46.355662
 30
0.0
  0
POINT
  8
DEFPOINTS
  6
BYBLOCK
 62
     0
 10
27.268358
 20
49.972422
 30
0.0
  0
ENDBLK
  8
0
  0
BLOCK
  8
0
  2
*D5
 70
    65
 10
0.0
 20
0.0
 30
0.0
  3
*D
  0
LINE
  8
0
  6
BYBLOCK
 62
     0
 10
8.581358
 20
42.759662
 30
0.0
 11
8.581358
 21
40.553812
 31
0.0
  0
LINE
  8
0
  6
BYBLOCK
 62
     0
 10
26.893358
 20
42.759662
 30
0.0
 11
26.893358
 21
40.553812
 31
0.0
  0
LINE
  8
0
  6
BYBLOCK
 62
     0
 10
9.481358
 20
41.018812
 30
0.0
 11
16.271733
 21
41.018812
 31
0.0
  0
LINE
  8
0
  6
BYBLOCK
 62
     0
 10
25.993358
 20
41.018812
 30
0.0
 11
19.202983
 21
41.018812
 31
0.0
  0
SOLID
  8
0
  6
BYBLOCK
 62
     0
 10
9.481358
 20
41.168812
 30
0.0
 11
9.481358
 21
40.868812
 31
0.0
 12
8.581358
 22
41.018812
 32
0.0
 13
8.581358
 23
41.018812
 33
0.0
  0
SOLID
  8
0
  6
BYBLOCK
 62
     0
 10
25.993358
 20
41.168812
 30
0.0
 11
25.993358
 21
40.868812
 31
0.0
 12
26.893358
 22
41.018812
 32
0.0
 13
26.893358
 23
41.018812
 33
0.0
  0
TEXT
  8
0
  6
BYBLOCK
 62
     0
 10
16.721733
 20
40.706312
 30
0.0
 40
0.625
  1
18.312
 41
0.75
  7
TXT
 72
     1
 11
17.737358
 21
41.018812
 31
0.0
 73
     2
  0
POINT
  8
DEFPOINTS
  6
BYBLOCK
 62
     0
 10
8.581358
 20
43.074662
 30
0.0
  0
POINT
  8
DEFPOINTS
  6
BYBLOCK
 62
     0
 10
26.893358
 20
43.074662
 30
0.0
  0
POINT
  8
DEFPOINTS
  6
BYBLOCK
 62
     0
 10
26.893358
 20
41.018812
 30
0.0
  0
ENDBLK
  8
0
  0
BLOCK
  8
0
  2
*D6
 70
    65
 10
0.0
 20
0.0
 30
0.0
  3
*D
  0
LINE
  8
0
  6
BYBLOCK
 62
     0
 10
8.768358
 20
43.031576
 30
0.0
 11
8.768358
 21
42.840707
 31
0.0
  0
LINE
  8
0
  6
BYBLOCK
 62
     0
 10
26.706358
 20
43.031576
 30
0.0
 11
26.706358
 21
42.840707
 31
0.0
  0
LINE
  8
0
  6
BYBLOCK
 62
     0
 10
9.668358
 20
43.305707
 30
0.0
 11
16.193608
 21
43.305707
 31
0.0
  0
LINE
  8
0
  6
BYBLOCK
 62
     0
 10
25.806358
 20
43.305707
 30
0.0
 11
19.281108
 21
43.305707
 31
0.0
  0
SOLID
  8
0
  6
BYBLOCK
 62
     0
 10
9.668358
 20
43.455707
 30
0.0
 11
9.668358
 21
43.155707
 31
0.0
 12
8.768358
 22
43.305707
 32
0.0
 13
8.768358
 23
43.305707
 33
0.0
  0
SOLID
  8
0
  6
BYBLOCK
 62
     0
 10
25.806358
 20
43.455707
 30
0.0
 11
25.806358
 21
43.155707
 31
0.0
 12
26.706358
 22
43.305707
 32
0.0
 13
26.706358
 23
43.305707
 33
0.0
  0
TEXT
  8
0
  6
BYBLOCK
 62
     0
 10
16.643608
 20
42.993207
 30
0.0
 40
0.625
  1
17.938
 41
0.75
  7
TXT
 72
     1
 11
17.737358
 21
43.305707
 31
0.0
 73
     2
  0
POINT
  8
DEFPOINTS
  6
BYBLOCK
 62
     0
 10
8.768358
 20
43.346576
 30
0.0
  0
POINT
  8
DEFPOINTS
  6
BYBLOCK
 62
     0
 10
26.706358
 20
43.346576
 30
0.0
  0
POINT
  8
DEFPOINTS
  6
BYBLOCK
 62
     0
 10
26.706358
 20
43.305707
 30
0.0
  0
ENDBLK
  8
0
  0
BLOCK
  8
0
  2
*D7
 70
    65
 10
0.0
 20
0.0
 30
0.0
  3
*D
  0
LINE
  8
0
  6
BYBLOCK
 62
     0
 10
8.206358
 20
46.670662
 30
0.0
 11
8.206358
 21
50.437422
 31
0.0
  0
LINE
  8
0
  6
BYBLOCK
 62
     0
 10
7.549858
 20
47.670662
 30
0.0
 11
7.549858
 21
50.437422
 31
0.0
  0
LINE
  8
0
  6
BYBLOCK
 62
     0
 10
9.106358
 20
49.972422
 30
0.0
 11
10.006358
 21
49.972422
 31
0.0
  0
LINE
  8
0
  6
BYBLOCK
 62
     0
 10
6.649858
 20
49.972422
 30
0.0
 11
5.749858
 21
49.972422
 31
0.0
  0
SOLID
  8
0
  6
BYBLOCK
 62
     0
 10
9.106358
 20
50.122422
 30
0.0
 11
9.106358
 21
49.822422
 31
0.0
 12
8.206358
 22
49.972422
 32
0.0
 13
8.206358
 23
49.972422
 33
0.0
  0
SOLID
  8
0
  6
BYBLOCK
 62
     0
 10
6.649858
 20
50.122422
 30
0.0
 11
6.649858
 21
49.822422
 31
0.0
 12
7.549858
 22
49.972422
 32
0.0
 13
7.549858
 23
49.972422
 33
0.0
  0
TEXT
  8
0
  6
BYBLOCK
 62
     0
 10
3.502983
 20
49.659922
 30
0.0
 40
0.625
  1
0.657
 41
0.75
  7
TXT
 72
     1
 11
4.401421
 21
49.972422
 31
0.0
 73
     2
  0
POINT
  8
DEFPOINTS
  6
BYBLOCK
 62
     0
 10
8.206358
 20
46.355662
 30
0.0
  0
POINT
  8
DEFPOINTS
  6
BYBLOCK
 62
     0
 10
7.549858
 20
47.355662
 30
0.0
  0
POINT
  8
DEFPOINTS
  6
BYBLOCK
 62
     0
 10
7.549858
 20
49.972422
 30
0.0
  0
ENDBLK
  8
0
  0
BLOCK
  8
0
  2
*D8
 70
    65
 10
0.0
 20
0.0
 30
0.0
  3
*D
  0
LINE
  8
0
  6
BYBLOCK
 62
     0
 10
47.800067
 20
22.978662
 30
0.0
 11
47.800067
 21
21.520256
 31
0.0
  0
LINE
  8
0
  6
BYBLOCK
 62
     0
 10
35.800067
 20
22.978662
 30
0.0
 11
35.800067
 21
21.520256
 31
0.0
  0
LINE
  8
0
  6
BYBLOCK
 62
     0
 10
46.900067
 20
21.985256
 30
0.0
 11
43.22663
 21
21.985256
 31
0.0
  0
LINE
  8
0
  6
BYBLOCK
 62
     0
 10
36.700067
 20
21.985256
 30
0.0
 11
40.373505
 21
21.985256
 31
0.0
  0
SOLID
  8
0
  6
BYBLOCK
 62
     0
 10
46.900067
 20
22.135256
 30
0.0
 11
46.900067
 21
21.835256
 31
0.0
 12
47.800067
 22
21.985256
 32
0.0
 13
47.800067
 23
21.985256
 33
0.0
  0
SOLID
  8
0
  6
BYBLOCK
 62
     0
 10
36.700067
 20
22.135256
 30
0.0
 11
36.700067
 21
21.835256
 31
0.0
 12
35.800067
 22
21.985256
 32
0.0
 13
35.800067
 23
21.985256
 33
0.0
  0
TEXT
  8
0
  6
BYBLOCK
 62
     0
 10
40.823505
 20
21.672756
 30
0.0
 40
0.625
  1
12.000
 41
0.75
  7
TXT
 72
     1
 11
41.800067
 21
21.985256
 31
0.0
 73
     2
  0
POINT
  8
DEFPOINTS
  6
BYBLOCK
 62
     0
 10
47.800067
 20
23.293662
 30
0.0
  0
POINT
  8
DEFPOINTS
  6
BYBLOCK
 62
     0
 10
35.800067
 20
23.293662
 30
0.0
  0
POINT
  8
DEFPOINTS
  6
BYBLOCK
 62
     0
 10
35.800067
 20
21.985256
 30
0.0
  0
ENDBLK
  8
0
  0
BLOCK
  8
0
  2
*D9
 70
    65
 10
0.0
 20
0.0
 30
0.0
  3
*D
  0
LINE
  8
0
  6
BYBLOCK
 62
     0
 10
48.115067
 20
23.293662
 30
0.0
 11
50.140512
 21
23.293662
 31
0.0
  0
LINE
  8
0
  6
BYBLOCK
 62
     0
 10
48.115067
 20
25.293662
 30
0.0
 11
50.140512
 21
25.293662
 31
0.0
  0
LINE
  8
0
  6
BYBLOCK
 62
     0
 10
49.675512
 20
22.393662
 30
0.0
 11
49.675512
 21
21.493662
 31
0.0
  0
LINE
  8
0
  6
BYBLOCK
 62
     0
 10
49.675512
 20
26.193662
 30
0.0
 11
49.675512
 21
27.093662
 31
0.0
  0
SOLID
  8
0
  6
BYBLOCK
 62
     0
 10
49.525512
 20
22.393662
 30
0.0
 11
49.825512
 21
22.393662
 31
0.0
 12
49.675512
 22
23.293662
 32
0.0
 13
49.675512
 23
23.293662
 33
0.0
  0
SOLID
  8
0
  6
BYBLOCK
 62
     0
 10
49.525512
 20
26.193662
 30
0.0
 11
49.825512
 21
26.193662
 31
0.0
 12
49.675512
 22
25.293662
 32
0.0
 13
49.675512
 23
25.293662
 33
0.0
  0
TEXT
  8
0
  6
BYBLOCK
 62
     0
 10
48.855199
 20
23.981162
 30
0.0
 40
0.625
  1
2.000
 41
0.75
  7
TXT
 72
     1
 11
49.675512
 21
24.293662
 31
0.0
 73
     2
  0
POINT
  8
DEFPOINTS
  6
BYBLOCK
 62
     0
 10
47.800067
 20
23.293662
 30
0.0
  0
POINT
  8
DEFPOINTS
  6
BYBLOCK
 62
     0
 10
47.800067
 20
25.293662
 30
0.0
  0
POINT
  8
DEFPOINTS
  6
BYBLOCK
 62
     0
 10
49.675512
 20
25.293662
 30
0.0
  0
ENDBLK
  8
0
  0
BLOCK
  8
0
  2
*D10
 70
    65
 10
0.0
 20
0.0
 30
0.0
  3
*D
  0
LINE
  8
0
  6
BYBLOCK
 62
     0
 10
7.891358
 20
25.293662
 30
0.0
 11
5.240414
 21
25.293662
 31
0.0
  0
LINE
  8
0
  6
BYBLOCK
 62
     0
 10
7.297358
 20
23.293662
 30
0.0
 11
5.240414
 21
23.293662
 31
0.0
  0
LINE
  8
0
  6
BYBLOCK
 62
     0
 10
5.705414
 20
26.193662
 30
0.0
 11
5.705414
 21
27.093662
 31
0.0
  0
LINE
  8
0
  6
BYBLOCK
 62
     0
 10
5.705414
 20
22.393662
 30
0.0
 11
5.705414
 21
21.493662
 31
0.0
  0
SOLID
  8
0
  6
BYBLOCK
 62
     0
 10
5.555414
 20
26.193662
 30
0.0
 11
5.855414
 21
26.193662
 31
0.0
 12
5.705414
 22
25.293662
 32
0.0
 13
5.705414
 23
25.293662
 33
0.0
  0
SOLID
  8
0
  6
BYBLOCK
 62
     0
 10
5.555414
 20
22.393662
 30
0.0
 11
5.855414
 21
22.393662
 31
0.0
 12
5.705414
 22
23.293662
 32
0.0
 13
5.705414
 23
23.293662
 33
0.0
  0
TEXT
  8
0
  6
BYBLOCK
 62
     0
 10
4.885101
 20
23.981162
 30
0.0
 40
0.625
  1
2.000
 41
0.75
  7
TXT
 72
     1
 11
5.705414
 21
24.293662
 31
0.0
 73
     2
  0
POINT
  8
DEFPOINTS
  6
BYBLOCK
 62
     0
 10
8.206358
 20
25.293662
 30
0.0
  0
POINT
  8
DEFPOINTS
  6
BYBLOCK
 62
     0
 10
7.612358
 20
23.293662
 30
0.0
  0
POINT
  8
DEFPOINTS
  6
BYBLOCK
 62
     0
 10
5.705414
 20
23.293662
 30
0.0
  0
ENDBLK
  8
0
  0
BLOCK
  8
0
  2
*D11
 70
    65
 10
0.0
 20
0.0
 30
0.0
  3
*D
  0
LINE
  8
0
  6
BYBLOCK
 62
     0
 10
7.891358
 20
46.355662
 30
0.0
 11
5.240414
 21
46.355662
 31
0.0
  0
LINE
  8
0
  6
BYBLOCK
 62
     0
 10
7.297358
 20
47.355662
 30
0.0
 11
5.240414
 21
47.355662
 31
0.0
  0
LINE
  8
0
  6
BYBLOCK
 62
     0
 10
5.705414
 20
45.455662
 30
0.0
 11
5.705414
 21
44.555662
 31
0.0
  0
LINE
  8
0
  6
BYBLOCK
 62
     0
 10
5.705414
 20
48.255662
 30
0.0
 11
5.705414
 21
49.155662
 31
0.0
  0
SOLID
  8
0
  6
BYBLOCK
 62
     0
 10
5.555414
 20
45.455662
 30
0.0
 11
5.855414
 21
45.455662
 31
0.0
 12
5.705414
 22
46.355662
 32
0.0
 13
5.705414
 23
46.355662
 33
0.0
  0
SOLID
  8
0
  6
BYBLOCK
 62
     0
 10
5.555414
 20
48.255662
 30
0.0
 11
5.855414
 21
48.255662
 31
0.0
 12
5.705414
 22
47.355662
 32
0.0
 13
5.705414
 23
47.355662
 33
0.0
  0
TEXT
  8
0
  6
BYBLOCK
 62
     0
 10
4.963226
 20
46.543162
 30
0.0
 40
0.625
  1
1.000
 41
0.75
  7
TXT
 72
     1
 11
5.705414
 21
46.855662
 31
0.0
 73
     2
  0
POINT
  8
DEFPOINTS
  6
BYBLOCK
 62
     0
 10
8.206358
 20
46.355662
 30
0.0
  0
POINT
  8
DEFPOINTS
  6
BYBLOCK
 62
     0
 10
7.612358
 20
47.355662
 30
0.0
  0
POINT
  8
DEFPOINTS
  6
BYBLOCK
 62
     0
 10
5.705414
 20
47.355662
 30
0.0
  0
ENDBLK
  8
0
  0
BLOCK
  8
0
  2
*D12
 70
    65
 10
0.0
 20
0.0
 30
0.0
  3
*D
  0
LINE
  8
0
  6
BYBLOCK
 62
     0
 10
33.437765
 20
42.35771
 30
0.0
 11
33.437765
 21
43.803003
 31
0.0
  0
LINE
  8
0
  6
BYBLOCK
 62
     0
 10
35.437765
 20
42.35771
 30
0.0
 11
35.437765
 21
43.803003
 31
0.0
  0
LINE
  8
0
  6
BYBLOCK
 62
     0
 10
32.537765
 20
43.338003
 30
0.0
 11
31.637765
 21
43.338003
 31
0.0
  0
LINE
  8
0
  6
BYBLOCK
 62
     0
 10
36.337765
 20
43.338003
 30
0.0
 11
37.237765
 21
43.338003
 31
0.0
  0
SOLID
  8
0
  6
BYBLOCK
 62
     0
 10
32.537765
 20
43.488003
 30
0.0
 11
32.537765
 21
43.188003
 31
0.0
 12
33.437765
 22
43.338003
 32
0.0
 13
33.437765
 23
43.338003
 33
0.0
  0
SOLID
  8
0
  6
BYBLOCK
 62
     0
 10
36.337765
 20
43.488003
 30
0.0
 11
36.337765
 21
43.188003
 31
0.0
 12
35.437765
 22
43.338003
 32
0.0
 13
35.437765
 23
43.338003
 33
0.0
  0
TEXT
  8
0
  6
BYBLOCK
 62
     0
 10
33.617453
 20
43.025503
 30
0.0
 40
0.625
  1
2.000
 41
0.75
  7
TXT
 72
     1
 11
34.437765
 21
43.338003
 31
0.0
 73
     2
  0
POINT
  8
DEFPOINTS
  6
BYBLOCK
 62
     0
 10
33.437765
 20
42.04271
 30
0.0
  0
POINT
  8
DEFPOINTS
  6
BYBLOCK
 62
     0
 10
35.437765
 20
42.04271
 30
0.0
  0
POINT
  8
DEFPOINTS
  6
BYBLOCK
 62
     0
 10
35.437765
 20
43.338003
 30
0.0
  0
ENDBLK
  8
0
  0
BLOCK
  8
0
  2
*D13
 70
    65
 10
0.0
 20
0.0
 30
0.0
  3
*D
  0
LINE
  8
0
  6
BYBLOCK
 62
     0
 10
26.391858
 20
50.644048
 30
0.0
 11
24.701145
 21
50.644048
 31
0.0
  0
LINE
  8
0
  6
BYBLOCK
 62
     0
 10
26.953858
 20
50.457048
 30
0.0
 11
24.701145
 21
50.457048
 31
0.0
  0
LINE
  8
0
  6
BYBLOCK
 62
     0
 10
25.166145
 20
51.544048
 30
0.0
 11
25.166145
 21
52.444048
 31
0.0
  0
LINE
  8
0
  6
BYBLOCK
 62
     0
 10
25.166145
 20
49.557048
 30
0.0
 11
25.166145
 21
48.657048
 31
0.0
  0
LINE
  8
0
  6
BYBLOCK
 62
     0
 10
25.166145
 20
48.657048
 30
0.0
 11
24.266145
 21
48.657048
 31
0.0
  0
SOLID
  8
0
  6
BYBLOCK
 62
     0
 10
25.016145
 20
51.544048
 30
0.0
 11
25.316145
 21
51.544048
 31
0.0
 12
25.166145
 22
50.644048
 32
0.0
 13
25.166145
 23
50.644048
 33
0.0
  0
SOLID
  8
0
  6
BYBLOCK
 62
     0
 10
25.016145
 20
49.557048
 30
0.0
 11
25.316145
 21
49.557048
 31
0.0
 12
25.166145
 22
50.457048
 32
0.0
 13
25.166145
 23
50.457048
 33
0.0
  0
TEXT
  8
0
  6
BYBLOCK
 62
     0
 10
19.753645
 20
48.344548
 30
0.0
 40
0.625
  1
 RECESSED
 41
0.75
  7
TXT
 72
     1
 11
21.784895
 21
48.657048
 31
0.0
 73
     2
  0
TEXT
  8
0
  6
BYBLOCK
 62
     0
 10
17.95677
 20
48.344548
 30
0.0
 40
0.625
  1
0.187
 41
0.75
  7
TXT
 72
     1
 11
18.777082
 21
48.657048
 31
0.0
 73
     2
  0
POINT
  8
DEFPOINTS
  6
BYBLOCK
 62
     0
 10
26.706858
 20
50.644048
 30
0.0
  0
POINT
  8
DEFPOINTS
  6
BYBLOCK
 62
     0
 10
27.268858
 20
50.457048
 30
0.0
  0
POINT
  8
DEFPOINTS
  6
BYBLOCK
 62
     0
 10
25.166145
 20
50.457048
 30
0.0
  0
ENDBLK
  8
0
  0
ENDSEC
  0
SECTION
  2
ENTITIES
  0
LINE
  8
OBJECT
 10
27.862358
 20
17.472487
 30
0.0
 11
27.862358
 21
5.534487
 31
0.0
  0
LINE
  8
OBJECT
 10
27.862358
 20
5.534487
 30
0.0
 11
7.612358
 21
5.534487
 31
0.0
  0
LINE
  8
OBJECT
 10
7.612358
 20
5.534487
 30
0.0
 11
7.612358
 21
17.472487
 31
0.0
  0
LINE
  8
OBJECT
 10
7.612358
 20
17.472487
 30
0.0
 11
27.862358
 21
17.472487
 31
0.0
  0
LINE
  8
OBJECT
 10
27.362358
 20
16.93996
 30
0.0
 11
27.362358
 21
6.067014
 31
0.0
  0
LINE
  8
OBJECT
 10
27.329831
 20
6.034487
 30
0.0
 11
8.144885
 21
6.034487
 31
0.0
  0
LINE
  8
OBJECT
 10
8.112358
 20
6.067014
 30
0.0
 11
8.112358
 21
16.93996
 31
0.0
  0
LINE
  8
OBJECT
 10
8.144885
 20
16.972487
 30
0.0
 11
27.329831
 21
16.972487
 31
0.0
  0
LINE
  8
OBJECT
 10
27.362358
 20
16.93996
 30
0.0
 11
27.862358
 21
17.43996
 31
0.0
  0
LINE
  8
OBJECT
 10
27.329831
 20
16.972487
 30
0.0
 11
27.829831
 21
17.472487
 31
0.0
  0
LINE
  8
HIDDEN
 10
7.659358
 20
17.425487
 30
0.0
 11
27.815358
 21
17.425487
 31
0.0
  0
LINE
  8
HIDDEN
 10
27.815358
 20
17.425487
 30
0.0
 11
27.815358
 21
5.581487
 31
0.0
  0
LINE
  8
OBJECT
 10
27.329831
 20
6.034487
 30
0.0
 11
27.829831
 21
5.534487
 31
0.0
  0
LINE
  8
OBJECT
 10
27.362358
 20
6.067014
 30
0.0
 11
27.862358
 21
5.567014
 31
0.0
  0
LINE
  8
HIDDEN
 10
27.815358
 20
5.581487
 30
0.0
 11
7.659358
 21
5.581487
 31
0.0
  0
LINE
  8
OBJECT
 10
8.144885
 20
16.972487
 30
0.0
 11
7.644885
 21
17.472487
 31
0.0
  0
LINE
  8
OBJECT
 10
8.112358
 20
16.93996
 30
0.0
 11
7.612358
 21
17.43996
 31
0.0
  0
LINE
  8
OBJECT
 10
8.112358
 20
6.067014
 30
0.0
 11
7.612358
 21
5.567014
 31
0.0
  0
LINE
  8
OBJECT
 10
8.144885
 20
6.034487
 30
0.0
 11
7.644885
 21
5.534487
 31
0.0
  0
LINE
  8
HIDDEN
 10
7.659358
 20
5.581487
 30
0.0
 11
7.659358
 21
17.425487
 31
0.0
  0
LINE
  8
OBJECT
 10
7.549858
 20
20.678785
 30
0.0
 11
7.549858
 21
44.740785
 31
0.0
  0
LINE
  8
OBJECT
 10
7.549858
 20
44.740785
 30
0.0
 11
8.190358
 21
44.740785
 31
0.0
  0
CIRCLE
  8
OBJECT
 10
8.581358
 20
42.209785
 30
0.0
 40
0.0805
  0
CIRCLE
  8
OBJECT
 10
8.581358
 20
42.834785
 30
0.0
 40
0.0805
  0
CIRCLE
  8
OBJECT
 10
8.581358
 20
43.459785
 30
0.0
 40
0.0805
  0
CIRCLE
  8
OBJECT
 10
8.581358
 20
40.459785
 30
0.0
 40
0.0805
  0
CIRCLE
  8
OBJECT
 10
8.581358
 20
41.084785
 30
0.0
 40
0.0805
  0
CIRCLE
  8
OBJECT
 10
8.581358
 20
41.709785
 30
0.0
 40
0.0805
  0
CIRCLE
  8
OBJECT
 10
8.581358
 20
38.709785
 30
0.0
 40
0.0805
  0
CIRCLE
  8
OBJECT
 10
8.581358
 20
39.334785
 30
0.0
 40
0.0805
  0
CIRCLE
  8
OBJECT
 10
8.581358
 20
39.959785
 30
0.0
 40
0.0805
  0
CIRCLE
  8
OBJECT
 10
8.581358
 20
36.959785
 30
0.0
 40
0.0805
  0
CIRCLE
  8
OBJECT
 10
8.581358
 20
37.584785
 30
0.0
 40
0.0805
  0
CIRCLE
  8
OBJECT
 10
8.581358
 20
38.209785
 30
0.0
 40
0.0805
  0
CIRCLE
  8
OBJECT
 10
8.581358
 20
35.209785
 30
0.0
 40
0.0805
  0
CIRCLE
  8
OBJECT
 10
8.581358
 20
35.834785
 30
0.0
 40
0.0805
  0
CIRCLE
  8
OBJECT
 10
8.581358
 20
36.459785
 30
0.0
 40
0.0805
  0
CIRCLE
  8
OBJECT
 10
8.581358
 20
33.459785
 30
0.0
 40
0.0805
  0
CIRCLE
  8
OBJECT
 10
8.581358
 20
34.084785
 30
0.0
 40
0.0805
  0
CIRCLE
  8
OBJECT
 10
8.581358
 20
34.709785
 30
0.0
 40
0.0805
  0
CIRCLE
  8
OBJECT
 10
8.581358
 20
31.709785
 30
0.0
 40
0.0805
  0
CIRCLE
  8
OBJECT
 10
8.581358
 20
32.334785
 30
0.0
 40
0.0805
  0
CIRCLE
  8
OBJECT
 10
8.581358
 20
32.959785
 30
0.0
 40
0.0805
  0
CIRCLE
  8
OBJECT
 10
8.581358
 20
29.959785
 30
0.0
 40
0.0805
  0
CIRCLE
  8
OBJECT
 10
8.581358
 20
30.584785
 30
0.0
 40
0.0805
  0
CIRCLE
  8
OBJECT
 10
8.581358
 20
31.209785
 30
0.0
 40
0.0805
  0
CIRCLE
  8
OBJECT
 10
8.581358
 20
28.209785
 30
0.0
 40
0.0805
  0
CIRCLE
  8
OBJECT
 10
8.581358
 20
28.834785
 30
0.0
 40
0.0805
  0
CIRCLE
  8
OBJECT
 10
8.581358
 20
29.459785
 30
0.0
 40
0.0805
  0
CIRCLE
  8
OBJECT
 10
8.581358
 20
26.459785
 30
0.0
 40
0.0805
  0
CIRCLE
  8
OBJECT
 10
8.581358
 20
27.084785
 30
0.0
 40
0.0805
  0
CIRCLE
  8
OBJECT
 10
8.581358
 20
27.709785
 30
0.0
 40
0.0805
  0
CIRCLE
  8
OBJECT
 10
8.581358
 20
24.709785
 30
0.0
 40
0.0805
  0
CIRCLE
  8
OBJECT
 10
8.581358
 20
25.334785
 30
0.0
 40
0.0805
  0
CIRCLE
  8
OBJECT
 10
8.581358
 20
25.959785
 30
0.0
 40
0.0805
  0
CIRCLE
  8
OBJECT
 10
8.581358
 20
24.209785
 30
0.0
 40
0.0805
  0
CIRCLE
  8
OBJECT
 10
8.581358
 20
23.584785
 30
0.0
 40
0.0805
  0
CIRCLE
  8
OBJECT
 10
8.581358
 20
22.959785
 30
0.0
 40
0.0805
  0
LINE
  8
OBJECT
 10
8.768358
 20
43.740785
 30
0.0
 11
8.190358
 21
43.740785
 31
0.0
  0
LINE
  8
OBJECT
 10
8.190358
 20
44.740785
 30
0.0
 11
8.190358
 21
43.740785
 31
0.0
  0
LINE
  8
OBJECT
 10
8.768358
 20
22.678785
 30
0.0
 11
8.190358
 21
22.678785
 31
0.0
  0
LINE
  8
OBJECT
 10
8.190358
 20
20.678785
 30
0.0
 11
8.190358
 21
22.678785
 31
0.0
  0
LINE
  8
OBJECT
 10
8.768358
 20
43.740785
 30
0.0
 11
8.768358
 21
22.678785
 31
0.0
  0
LINE
  8
OBJECT
 10
8.206358
 20
22.678785
 30
0.0
 11
8.206358
 21
43.740785
 31
0.0
  0
LINE
  8
OBJECT
 10
7.549858
 20
20.678785
 30
0.0
 11
8.190358
 21
20.678785
 31
0.0
  0
LINE
  8
HIDDEN
 10
8.144358
 20
22.678785
 30
0.0
 11
8.144358
 21
43.740785
 31
0.0
  0
LINE
  8
HIDDEN
 10
7.611858
 20
20.678785
 30
0.0
 11
7.611858
 21
44.740785
 31
0.0
  0
LINE
  8
HIDDEN
 10
27.815358
 20
22.631785
 30
0.0
 11
27.815358
 21
20.725785
 31
0.0
  0
LINE
  8
HIDDEN
 10
7.659358
 20
22.631785
 30
0.0
 11
7.659358
 21
20.725785
 31
0.0
  0
LINE
  8
HIDDEN
 10
7.659358
 20
20.725785
 30
0.0
 11
27.815358
 21
20.725785
 31
0.0
  0
LINE
  8
HIDDEN
 10
27.815358
 20
22.631785
 30
0.0
 11
7.659358
 21
22.631785
 31
0.0
  0
LINE
  8
HIDDEN
 10
27.862358
 20
22.678785
 30
0.0
 11
27.330358
 21
22.678785
 31
0.0
  0
LINE
  8
OBJECT
 10
7.612358
 20
20.678785
 30
0.0
 11
27.862358
 21
20.678785
 31
0.0
  0
LINE
  8
HIDDEN
 10
27.862858
 20
20.678785
 30
0.0
 11
27.862858
 21
44.740785
 31
0.0
  0
LINE
  8
HIDDEN
 10
27.330358
 20
22.678785
 30
0.0
 11
27.330358
 21
43.740785
 31
0.0
  0
LINE
  8
OBJECT
 10
27.924858
 20
20.678785
 30
0.0
 11
27.284358
 21
20.678785
 31
0.0
  0
LINE
  8
OBJECT
 10
27.268358
 20
22.678785
 30
0.0
 11
27.268358
 21
43.740785
 31
0.0
  0
LINE
  8
OBJECT
 10
26.706358
 20
43.740785
 30
0.0
 11
26.706358
 21
22.678785
 31
0.0
  0
LINE
  8
OBJECT
 10
27.284358
 20
20.678785
 30
0.0
 11
27.284358
 21
22.678785
 31
0.0
  0
LINE
  8
OBJECT
 10
26.706358
 20
22.678785
 30
0.0
 11
27.284358
 21
22.678785
 31
0.0
  0
LINE
  8
OBJECT
 10
27.284358
 20
44.740785
 30
0.0
 11
27.284358
 21
43.740785
 31
0.0
  0
LINE
  8
OBJECT
 10
26.706358
 20
43.740785
 30
0.0
 11
27.284358
 21
43.740785
 31
0.0
  0
CIRCLE
  8
OBJECT
 10
26.893358
 20
22.959785
 30
0.0
 40
0.0805
  0
CIRCLE
  8
OBJECT
 10
26.893358
 20
23.584785
 30
0.0
 40
0.0805
  0
CIRCLE
  8
OBJECT
 10
26.893358
 20
24.209785
 30
0.0
 40
0.0805
  0
CIRCLE
  8
OBJECT
 10
26.893358
 20
25.959785
 30
0.0
 40
0.0805
  0
CIRCLE
  8
OBJECT
 10
26.893358
 20
25.334785
 30
0.0
 40
0.0805
  0
CIRCLE
  8
OBJECT
 10
26.893358
 20
24.709785
 30
0.0
 40
0.0805
  0
CIRCLE
  8
OBJECT
 10
26.893358
 20
27.709785
 30
0.0
 40
0.0805
  0
CIRCLE
  8
OBJECT
 10
26.893358
 20
27.084785
 30
0.0
 40
0.0805
  0
CIRCLE
  8
OBJECT
 10
26.893358
 20
26.459785
 30
0.0
 40
0.0805
  0
CIRCLE
  8
OBJECT
 10
26.893358
 20
29.459785
 30
0.0
 40
0.0805
  0
CIRCLE
  8
OBJECT
 10
26.893358
 20
28.834785
 30
0.0
 40
0.0805
  0
CIRCLE
  8
OBJECT
 10
26.893358
 20
28.209785
 30
0.0
 40
0.0805
  0
CIRCLE
  8
OBJECT
 10
26.893358
 20
31.209785
 30
0.0
 40
0.0805
  0
CIRCLE
  8
OBJECT
 10
26.893358
 20
30.584785
 30
0.0
 40
0.0805
  0
CIRCLE
  8
OBJECT
 10
26.893358
 20
29.959785
 30
0.0
 40
0.0805
  0
CIRCLE
  8
OBJECT
 10
26.893358
 20
32.959785
 30
0.0
 40
0.0805
  0
CIRCLE
  8
OBJECT
 10
26.893358
 20
32.334785
 30
0.0
 40
0.0805
  0
CIRCLE
  8
OBJECT
 10
26.893358
 20
31.709785
 30
0.0
 40
0.0805
  0
CIRCLE
  8
OBJECT
 10
26.893358
 20
34.709785
 30
0.0
 40
0.0805
  0
CIRCLE
  8
OBJECT
 10
26.893358
 20
34.084785
 30
0.0
 40
0.0805
  0
CIRCLE
  8
OBJECT
 10
26.893358
 20
33.459785
 30
0.0
 40
0.0805
  0
CIRCLE
  8
OBJECT
 10
26.893358
 20
36.459785
 30
0.0
 40
0.0805
  0
CIRCLE
  8
OBJECT
 10
26.893358
 20
35.834785
 30
0.0
 40
0.0805
  0
CIRCLE
  8
OBJECT
 10
26.893358
 20
35.209785
 30
0.0
 40
0.0805
  0
CIRCLE
  8
OBJECT
 10
26.893358
 20
38.209785
 30
0.0
 40
0.0805
  0
CIRCLE
  8
OBJECT
 10
26.893358
 20
37.584785
 30
0.0
 40
0.0805
  0
CIRCLE
  8
OBJECT
 10
26.893358
 20
36.959785
 30
0.0
 40
0.0805
  0
CIRCLE
  8
OBJECT
 10
26.893358
 20
39.959785
 30
0.0
 40
0.0805
  0
CIRCLE
  8
OBJECT
 10
26.893358
 20
39.334785
 30
0.0
 40
0.0805
  0
CIRCLE
  8
OBJECT
 10
26.893358
 20
38.709785
 30
0.0
 40
0.0805
  0
CIRCLE
  8
OBJECT
 10
26.893358
 20
41.709785
 30
0.0
 40
0.0805
  0
CIRCLE
  8
OBJECT
 10
26.893358
 20
41.084785
 30
0.0
 40
0.0805
  0
CIRCLE
  8
OBJECT
 10
26.893358
 20
40.459785
 30
0.0
 40
0.0805
  0
CIRCLE
  8
OBJECT
 10
26.893358
 20
43.459785
 30
0.0
 40
0.0805
  0
CIRCLE
  8
OBJECT
 10
26.893358
 20
42.834785
 30
0.0
 40
0.0805
  0
CIRCLE
  8
OBJECT
 10
26.893358
 20
42.209785
 30
0.0
 40
0.0805
  0
LINE
  8
OBJECT
 10
27.924858
 20
44.740785
 30
0.0
 11
27.284358
 21
44.740785
 31
0.0
  0
LINE
  8
OBJECT
 10
27.924858
 20
20.678785
 30
0.0
 11
27.924858
 21
44.740785
 31
0.0
  0
LINE
  8
OBJECT
 10
7.611858
 20
50.519048
 30
0.0
 11
8.143858
 21
50.519048
 31
0.0
  0
LINE
  8
HIDDEN
 10
8.143858
 20
50.519048
 30
0.0
 11
8.143858
 21
50.706048
 31
0.0
  0
LINE
  8
OBJECT
 10
7.611858
 20
62.457048
 30
0.0
 11
7.611858
 21
50.519048
 31
0.0
  0
LINE
  8
HIDDEN
 10
8.767858
 20
50.706048
 30
0.0
 11
8.143858
 21
50.706048
 31
0.0
  0
LINE
  8
HIDDEN
 10
8.767858
 20
50.644048
 30
0.0
 11
8.767858
 21
50.706048
 31
0.0
  0
LINE
  8
HIDDEN
 10
8.205858
 20
50.644048
 30
0.0
 11
8.767858
 21
50.644048
 31
0.0
  0
LINE
  8
HIDDEN
 10
8.205858
 20
50.457048
 30
0.0
 11
8.205858
 21
50.644048
 31
0.0
  0
LINE
  8
OBJECT
 10
7.549858
 20
50.457048
 30
0.0
 11
8.205858
 21
50.457048
 31
0.0
  0
LINE
  8
OBJECT
 10
7.549858
 20
62.457048
 30
0.0
 11
7.549858
 21
50.457048
 31
0.0
  0
LINE
  8
OBJECT
 10
7.549858
 20
62.457048
 30
0.0
 11
7.611858
 21
62.457048
 31
0.0
  0
LINE
  8
OBJECT
 10
7.612358
 20
44.740785
 30
0.0
 11
27.862358
 21
44.740785
 31
0.0
  0
LINE
  8
OBJECT
 10
27.924858
 20
62.457048
 30
0.0
 11
27.862858
 21
62.457048
 31
0.0
  0
LINE
  8
OBJECT
 10
27.924858
 20
62.457048
 30
0.0
 11
27.924858
 21
50.457048
 31
0.0
  0
LINE
  8
OBJECT
 10
27.924858
 20
50.457048
 30
0.0
 11
27.268858
 21
50.457048
 31
0.0
  0
LINE
  8
HIDDEN
 10
27.268858
 20
50.457048
 30
0.0
 11
27.268858
 21
50.644048
 31
0.0
  0
LINE
  8
HIDDEN
 10
27.268858
 20
50.644048
 30
0.0
 11
26.706858
 21
50.644048
 31
0.0
  0
LINE
  8
HIDDEN
 10
26.706858
 20
50.644048
 30
0.0
 11
26.706858
 21
50.706048
 31
0.0
  0
LINE
  8
HIDDEN
 10
26.706858
 20
50.706048
 30
0.0
 11
27.330858
 21
50.706048
 31
0.0
  0
LINE
  8
OBJECT
 10
27.862858
 20
62.457048
 30
0.0
 11
27.862858
 21
50.519048
 31
0.0
  0
LINE
  8
HIDDEN
 10
27.330858
 20
50.519048
 30
0.0
 11
27.330858
 21
50.706048
 31
0.0
  0
LINE
  8
OBJECT
 10
27.862858
 20
50.519048
 30
0.0
 11
27.330858
 21
50.519048
 31
0.0
  0
LINE
  8
HIDDEN
 10
7.643358
 20
44.740785
 30
0.0
 11
7.643358
 21
43.740785
 31
0.0
  0
LINE
  8
HIDDEN
 10
27.831358
 20
44.740785
 30
0.0
 11
27.831358
 21
43.740785
 31
0.0
  0
LINE
  8
OBJECT
 10
8.206358
 20
43.740785
 30
0.0
 11
27.268358
 21
43.740785
 31
0.0
  0
LINE
  8
HIDDEN
 10
7.612358
 20
43.990785
 30
0.0
 11
7.674358
 21
43.990785
 31
0.0
  0
LINE
  8
HIDDEN
 10
7.674358
 20
44.678785
 30
0.0
 11
7.674358
 21
43.990785
 31
0.0
  0
LINE
  8
HIDDEN
 10
7.674358
 20
44.678785
 30
0.0
 11
27.800358
 21
44.678785
 31
0.0
  0
LINE
  8
HIDDEN
 10
27.800358
 20
43.990785
 30
0.0
 11
27.862358
 21
43.990785
 31
0.0
  0
LINE
  8
HIDDEN
 10
7.643358
 20
43.802785
 30
0.0
 11
27.831358
 21
43.802785
 31
0.0
  0
LINE
  8
HIDDEN
 10
27.800358
 20
44.678785
 30
0.0
 11
27.800358
 21
43.990785
 31
0.0
  0
LINE
  8
OBJECT
 10
7.612358
 20
50.519048
 30
0.0
 11
27.862358
 21
50.519048
 31
0.0
  0
LINE
  8
OBJECT
 10
7.612358
 20
52.519048
 30
0.0
 11
27.862358
 21
52.519048
 31
0.0
  0
LINE
  8
HIDDEN
 10
7.612358
 20
50.894048
 30
0.0
 11
27.862358
 21
50.894048
 31
0.0
  0
LINE
  8
HIDDEN
 10
7.643358
 20
50.519048
 30
0.0
 11
7.643358
 21
50.894048
 31
0.0
  0
LINE
  8
HIDDEN
 10
27.831358
 20
50.519048
 30
0.0
 11
27.831358
 21
50.894048
 31
0.0
  0
LINE
  8
HIDDEN
 10
7.674358
 20
52.519048
 30
0.0
 11
7.674358
 21
50.894048
 31
0.0
  0
LINE
  8
HIDDEN
 10
27.800358
 20
52.519048
 30
0.0
 11
27.800358
 21
50.894048
 31
0.0
  0
LINE
  8
HIDDEN
 10
7.643358
 20
43.740785
 30
0.0
 11
8.159797
 21
43.740785
 31
0.0
  0
LINE
  8
HIDDEN
 10
27.831358
 20
43.740785
 30
0.0
 11
27.316603
 21
43.740785
 31
0.0
  0
LINE
  8
OBJECT
 10
7.612358
 20
62.457048
 30
0.0
 11
27.862358
 21
62.457048
 31
0.0
  0
LINE
  8
OBJECT
 10
7.549858
 20
5.534487
 30
0.0
 11
7.611858
 21
5.534487
 31
0.0
  0
LINE
  8
OBJECT
 10
7.549858
 20
5.534487
 30
0.0
 11
7.549858
 21
17.534487
 31
0.0
  0
LINE
  8
OBJECT
 10
7.549858
 20
17.534487
 30
0.0
 11
8.205858
 21
17.534487
 31
0.0
  0
LINE
  8
HIDDEN
 10
8.205858
 20
17.534487
 30
0.0
 11
8.205858
 21
17.347487
 31
0.0
  0
LINE
  8
HIDDEN
 10
8.205858
 20
17.347487
 30
0.0
 11
8.767858
 21
17.347487
 31
0.0
  0
LINE
  8
HIDDEN
 10
8.767858
 20
17.347487
 30
0.0
 11
8.767858
 21
17.285487
 31
0.0
  0
LINE
  8
HIDDEN
 10
8.767858
 20
17.285487
 30
0.0
 11
8.143858
 21
17.285487
 31
0.0
  0
LINE
  8
OBJECT
 10
7.611858
 20
5.534487
 30
0.0
 11
7.611858
 21
17.472487
 31
0.0
  0
LINE
  8
HIDDEN
 10
8.143858
 20
17.472487
 30
0.0
 11
8.143858
 21
17.285487
 31
0.0
  0
LINE
  8
OBJECT
 10
7.611858
 20
17.472487
 30
0.0
 11
8.143858
 21
17.472487
 31
0.0
  0
LINE
  8
OBJECT
 10
27.862858
 20
17.472487
 30
0.0
 11
27.330858
 21
17.472487
 31
0.0
  0
LINE
  8
HIDDEN
 10
27.330858
 20
17.472487
 30
0.0
 11
27.330858
 21
17.285487
 31
0.0
  0
LINE
  8
OBJECT
 10
27.862858
 20
5.534487
 30
0.0
 11
27.862858
 21
17.472487
 31
0.0
  0
LINE
  8
HIDDEN
 10
26.706858
 20
17.285487
 30
0.0
 11
27.330858
 21
17.285487
 31
0.0
  0
LINE
  8
HIDDEN
 10
26.706858
 20
17.347487
 30
0.0
 11
26.706858
 21
17.285487
 31
0.0
  0
LINE
  8
HIDDEN
 10
27.268858
 20
17.347487
 30
0.0
 11
26.706858
 21
17.347487
 31
0.0
  0
LINE
  8
HIDDEN
 10
27.268858
 20
17.534487
 30
0.0
 11
27.268858
 21
17.347487
 31
0.0
  0
LINE
  8
OBJECT
 10
27.924858
 20
17.534487
 30
0.0
 11
27.268858
 21
17.534487
 31
0.0
  0
LINE
  8
OBJECT
 10
27.924858
 20
5.534487
 30
0.0
 11
27.924858
 21
17.534487
 31
0.0
  0
LINE
  8
OBJECT
 10
27.924858
 20
5.534487
 30
0.0
 11
27.862858
 21
5.534487
 31
0.0
  0
LINE
  8
HIDDEN
 10
8.144358
 20
22.678785
 30
0.0
 11
7.612358
 21
22.678785
 31
0.0
  0
LINE
  8
OBJECT
 10
27.268358
 20
22.678785
 30
0.0
 11
8.206358
 21
22.678785
 31
0.0
  0
LINE
  8
OBJECT
 10
27.924858
 20
52.457048
 30
0.0
 11
27.862858
 21
52.457048
 31
0.0
  0
LINE
  8
OBJECT
 10
7.549858
 20
52.457048
 30
0.0
 11
7.611858
 21
52.457048
 31
0.0
  0
DIMENSION
  8
DIM
  2
*D6
 10
26.706358
 20
40.69083
 30
0.0
 11
17.737358
 21
40.69083
 31
0.0
 12
0.0
 22
-2.614876
 32
0.0
 13
8.768358
 23
40.731699
 33
0.0
 14
26.706358
 24
40.731699
 34
0.0
  3
23NSTD
  0
DIMENSION
  8
DIM
  2
*D5
 10
26.893358
 20
38.403936
 30
0.0
 11
17.737358
 21
38.403936
 31
0.0
 12
0.0
 22
-2.614876
 32
0.0
 13
8.581358
 23
40.459785
 33
0.0
 14
26.893358
 24
40.459785
 34
0.0
  3
23NSTD
  0
DIMENSION
  8
DIM
  2
*D4
 10
27.268358
 20
47.357545
 30
0.0
 11
17.737358
 21
47.357545
 31
0.0
 12
0.0
 22
-2.614876
 32
0.0
 13
8.206358
 23
43.740785
 33
0.0
 14
27.268358
 24
43.740785
 34
0.0
  3
23NSTD
  0
DIMENSION
  8
DIM
  2
*D2
 10
5.705414
 20
22.678785
 30
0.0
 11
5.705414
 21
33.209785
 31
0.0
 12
0.0
 22
-2.614876
 32
0.0
  1
A
 13
8.206358
 23
43.740785
 33
0.0
 14
8.206358
 24
22.678785
 34
0.0
 50
90.0
  3
23NSTD
  0
DIMENSION
  8
DIM
  2
*D10
 10
5.705414
 20
20.678785
 30
0.0
 11
5.705414
 21
21.678785
 31
0.0
 12
0.0
 22
-2.614876
 32
0.0
 13
8.206358
 23
22.678785
 33
0.0
 14
7.612358
 24
20.678785
 34
0.0
 50
90.0
  3
23NSTDI
  0
DIMENSION
  8
DIM
  2
*D11
 10
5.705414
 20
44.740785
 30
0.0
 11
5.705414
 21
44.240785
 31
0.0
 12
0.0
 22
-2.614876
 32
0.0
 13
8.206358
 23
43.740785
 33
0.0
 14
7.612358
 24
44.740785
 34
0.0
 50
90.0
  3
23NSTDI
  0
DIMENSION
  8
DIM
  2
*D1
 10
29.226208
 20
20.678785
 30
0.0
 11
29.226208
 21
32.709785
 31
0.0
 12
0.0
 22
-2.614876
 32
0.0
  1
B
 13
27.924858
 23
44.740785
 33
0.0
 14
27.924858
 24
20.678785
 34
0.0
 50
90.0
  3
23NSTD
  0
DIMENSION
  8
DIM
  2
*D3
 10
27.924858
 20
19.37038
 30
0.0
 11
17.737358
 21
19.37038
 31
0.0
 12
0.0
 22
-2.614876
 32
0.0
 13
7.549858
 23
20.678785
 33
0.0
 14
27.924858
 24
20.678785
 34
0.0
  3
23NSTD
  0
DIMENSION
  8
DIM
  2
*D13
 10
25.166145
 20
50.457048
 30
0.0
 11
20.886457
 21
48.657048
 31
0.0
  1
<> RECESSED
 13
26.706858
 23
50.644048
 33
0.0
 14
27.268858
 24
50.457048
 34
0.0
 50
90.0
  3
23NSTD
  0
LINE
  8
OBJECT
 10
35.499765
 20
44.740785
 30
0.0
 11
35.437765
 21
44.740785
 31
0.0
  0
LINE
  8
HIDDEN
 10
33.561765
 20
43.990785
 30
0.0
 11
35.499765
 21
43.990785
 31
0.0
  0
LINE
  8
HIDDEN
 10
33.561765
 20
43.802785
 30
0.0
 11
33.561765
 21
44.678785
 31
0.0
  0
LINE
  8
HIDDEN
 10
33.874765
 20
43.802785
 30
0.0
 11
33.561765
 21
43.802785
 31
0.0
  0
LINE
  8
HIDDEN
 10
33.874765
 20
43.740785
 30
0.0
 11
33.874765
 21
43.802785
 31
0.0
  0
LINE
  8
HIDDEN
 10
35.499765
 20
44.678785
 30
0.0
 11
33.561765
 21
44.678785
 31
0.0
  0
LINE
  8
HIDDEN
 10
35.499765
 20
44.740785
 30
0.0
 11
35.499765
 21
43.990785
 31
0.0
  0
LINE
  8
HIDDEN
 10
33.874765
 20
43.740785
 30
0.0
 11
33.499765
 21
43.740785
 31
0.0
  0
LINE
  8
HIDDEN
 10
33.499765
 20
20.678785
 30
0.0
 11
33.499765
 21
44.740785
 31
0.0
  0
LINE
  8
HIDDEN
 10
33.686765
 20
22.678785
 30
0.0
 11
33.686765
 21
43.740785
 31
0.0
  0
LINE
  8
HIDDEN
 10
33.624765
 20
22.678785
 30
0.0
 11
33.624765
 21
43.740785
 31
0.0
  0
LINE
  8
OBJECT
 10
33.437765
 20
20.678785
 30
0.0
 11
33.437765
 21
44.740785
 31
0.0
  0
LINE
  8
OBJECT
 10
35.061765
 20
44.256785
 30
0.0
 11
35.187765
 21
44.256785
 31
0.0
  0
LINE
  8
OBJECT
 10
35.061765
 20
44.474785
 30
0.0
 11
35.187765
 21
44.474785
 31
0.0
  0
ARC
  8
OBJECT
 10
35.061765
 20
44.365785
 30
0.0
 40
0.109
 50
90.000019
 51
270.000019
  0
ARC
  8
OBJECT
 10
35.187765
 20
44.365785
 30
0.0
 40
0.109
 50
270.000019
 51
90.000019
  0
LINE
  8
OBJECT
 10
44.374765
 20
21.600785
 30
0.0
 11
44.500765
 21
21.600785
 31
0.0
  0
LINE
  8
OBJECT
 10
44.374765
 20
21.818785
 30
0.0
 11
44.500765
 21
21.818785
 31
0.0
  0
ARC
  8
OBJECT
 10
44.374765
 20
21.709785
 30
0.0
 40
0.109
 50
90.000019
 51
270.000019
  0
ARC
  8
OBJECT
 10
44.500765
 20
21.709785
 30
0.0
 40
0.109
 50
270.000019
 51
90.000019
  0
ARC
  8
OBJECT
 10
33.937765
 20
44.365785
 30
0.0
 40
0.109
 50
270.000019
 51
90.000019
  0
ARC
  8
OBJECT
 10
33.811765
 20
44.365785
 30
0.0
 40
0.109
 50
90.000019
 51
270.000019
  0
LINE
  8
OBJECT
 10
33.811765
 20
44.474785
 30
0.0
 11
33.937765
 21
44.474785
 31
0.0
  0
LINE
  8
OBJECT
 10
33.811765
 20
44.256785
 30
0.0
 11
33.937765
 21
44.256785
 31
0.0
  0
ARC
  8
OBJECT
 10
34.562765
 20
21.709785
 30
0.0
 40
0.109
 50
270.000019
 51
90.000019
  0
ARC
  8
OBJECT
 10
34.436765
 20
21.709785
 30
0.0
 40
0.109
 50
90.000019
 51
270.000019
  0
LINE
  8
OBJECT
 10
34.436765
 20
21.818785
 30
0.0
 11
34.562765
 21
21.818785
 31
0.0
  0
LINE
  8
OBJECT
 10
34.436765
 20
21.600785
 30
0.0
 11
34.562765
 21
21.600785
 31
0.0
  0
LINE
  8
HIDDEN
 10
33.437765
 20
43.740785
 30
0.0
 11
33.686765
 21
43.740785
 31
0.0
  0
LINE
  8
HIDDEN
 10
33.437765
 20
22.678785
 30
0.0
 11
33.686765
 21
22.678785
 31
0.0
  0
LINE
  8
OBJECT
 10
35.437765
 20
44.740785
 30
0.0
 11
33.437765
 21
44.740785
 31
0.0
  0
LINE
  8
OBJECT
 10
45.437765
 20
22.678785
 30
0.0
 11
35.437765
 21
44.740785
 31
0.0
  0
LINE
  8
OBJECT
 10
45.437765
 20
20.678785
 30
0.0
 11
45.437765
 21
22.678785
 31
0.0
  0
LINE
  8
OBJECT
 10
33.437765
 20
20.678785
 30
0.0
 11
45.437765
 21
20.678785
 31
0.0
  0
LINE
  8
HIDDEN
 10
45.390765
 20
20.725785
 30
0.0
 11
45.390765
 21
22.631785
 31
0.0
  0
LINE
  8
HIDDEN
 10
33.546765
 20
20.725785
 30
0.0
 11
33.546765
 21
22.631785
 31
0.0
  0
LINE
  8
HIDDEN
 10
33.546765
 20
22.631785
 30
0.0
 11
45.390765
 21
22.631785
 31
0.0
  0
LINE
  8
HIDDEN
 10
45.390765
 20
20.725785
 30
0.0
 11
33.546765
 21
20.725785
 31
0.0
  0
CIRCLE
  8
OBJECT
 10
44.438265
 20
21.678785
 30
0.0
 40
0.109
  0
CIRCLE
  8
OBJECT
 10
34.499265
 20
21.678785
 30
0.0
 40
0.109
  0
LINE
  8
HIDDEN
 10
33.499765
 20
22.678785
 30
0.0
 11
45.437765
 21
22.678785
 31
0.0
  0
TEXT
  8
TEXT
 10
1.919705
 20
73.302193
 30
0.0
 40
0.625
  1
%%uMATERIAL:
 41
0.75
  0
TEXT
  8
TEXT
 10
2.52911
 20
72.260527
 30
0.0
 40
0.625
  1
SIDES & CROSS BAR
 41
0.75
  0
TEXT
  8
TEXT
 10
2.52911
 20
71.21886
 30
0.0
 40
0.625
  1
BASE
 41
0.75
  0
TEXT
  8
TEXT
 10
1.919705
 20
69.184426
 30
0.0
 40
0.625
  1
%%uFINISH:%%u METALLIC GRAY OR
 41
0.75
  0
TEXT
  8
TEXT
 10
5.002196
 20
68.14276
 30
0.0
 40
0.625
  1
BLACK TEXTURED
 41
0.75
  0
TEXT
  8
TEXT
 10
14.758761
 20
72.260527
 30
0.0
 40
0.625
  1
16 GA. STEEL
 41
0.75
  0
TEXT
  8
TEXT
 10
14.758761
 20
71.21886
 30
0.0
 40
0.625
  1
18 GA. STEEL
 41
0.75
  0
LINE
  8
TEXT
 10
10.489592
 20
72.307202
 30
0.0
 11
14.364034
 21
72.307202
 31
0.0
  0
LINE
  8
TEXT
 10
4.642473
 20
71.266277
 30
0.0
 11
14.364034
 21
71.266277
 31
0.0
  0
TEXT
  8
TEXT
 10
2.142186
 20
63.9798
 30
0.0
 40
0.625
  1
UNIT SHIPPED KNOCKED DOWN
 41
0.75
  0
TEXT
  8
TEXT
 10
2.142186
 20
66.06165
 30
0.0
 40
0.625
  1
MOUNTING RAILS TAPPED #10-32 ON E.I.A. UNIVERSAL SPACING.
 41
0.75
  0
DIMENSION
  8
DIM
  2
*D12
 10
35.437765
 20
46.036078
 30
0.0
 11
34.437765
 21
46.036078
 31
0.0
 12
0.0
 22
2.698076
 32
0.0
 13
33.437765
 23
44.740785
 33
0.0
 14
35.437765
 24
44.740785
 34
0.0
  3
23NSTDI
  0
DIMENSION
  8
DIM
  2
*D9
 10
47.313209
 20
22.678785
 30
0.0
 11
47.313209
 21
21.678785
 31
0.0
 12
-2.362302
 22
-2.614876
 32
0.0
 13
45.437765
 23
20.678785
 33
0.0
 14
45.437765
 24
22.678785
 34
0.0
 50
90.0
  3
23NSTDI
  0
DIMENSION
  8
DIM
  2
*D8
 10
33.437765
 20
19.37038
 30
0.0
 11
39.437765
 21
19.37038
 31
0.0
 12
-2.362302
 22
-2.614876
 32
0.0
 13
45.437765
 23
20.678785
 33
0.0
 14
33.437765
 24
20.678785
 34
0.0
  3
23NSTD
  0
DIMENSION
  8
DIM
  2
*D7
 10
7.549858
 20
47.357545
 30
0.0
 11
4.401421
 21
47.357545
 31
0.0
 12
0.0
 22
-2.614876
 32
0.0
 13
8.206358
 23
43.740785
 33
0.0
 14
7.549858
 24
44.740785
 34
0.0
  3
23NSTD
  0
INSERT
  8
TITLE
  2
HB
 10
0.0
 20
0.0
 30
0.0
 41
5.0
 42
5.0
 43
5.0
  0
TEXT
  8
TEXT
 10
8.9275
 20
75.755
 30
0.0
 40
0.78
  1
TABLE TOP RELAY RACK
 41
0.75
  7
TXT
 72
     4
 11
14.68
 21
76.145
 31
0.0
  0
TEXT
  8
TEXT
 10
33.975
 20
75.755
 30
0.0
 40
0.78
  1
RR-1248  AND  RR-1249
 41
0.75
  7
TXT
 72
     4
 11
39.825
 21
76.145
 31
0.0
  0
LINE
  8
TITLE
 10
0.31
 20
1.351667
 30
0.0
 11
50.29
 21
1.351667
 31
0.0
  0
LINE
  8
TITLE
 10
0.31
 20
2.393333
 30
0.0
 11
50.29
 21
2.393333
 31
0.0
  0
LINE
  8
TITLE
 10
0.31
 20
3.435
 30
0.0
 11
50.29
 21
3.435
 31
0.0
  0
LINE
  8
TITLE
 10
6.31
 20
3.435
 30
0.0
 11
6.31
 21
0.31
 31
0.0
  0
TEXT
  8
TEXT
 10
1.669375
 20
2.601667
 30
0.0
 40
0.625
  1
PART No.
 41
0.75
  7
TXT
 72
     4
 11
3.31
 21
2.914167
 31
0.0
  0
TEXT
  8
TEXT
 10
1.825625
 20
1.56
 30
0.0
 40
0.625
  1
RR-1248
 41
0.75
  7
TXT
 72
     4
 11
3.31
 21
1.8725
 31
0.0
  0
TEXT
  8
TEXT
 10
1.825625
 20
0.518333
 30
0.0
 40
0.625
  1
RR-1249
 41
0.75
  7
TXT
 72
     4
 11
3.31
 21
0.830833
 31
0.0
  0
LINE
  8
TITLE
 10
28.3
 20
3.435
 30
0.0
 11
28.3
 21
0.31
 31
0.0
  0
TEXT
  8
TEXT
 10
16.250313
 20
0.518333
 30
0.0
 40
0.625
  1
28.000
 41
0.75
  7
TXT
 72
     4
 11
17.305
 21
0.830833
 31
0.0
  0
TEXT
  8
TEXT
 10
16.328438
 20
1.56
 30
0.0
 40
0.625
  1
21.000
 41
0.75
  7
TXT
 72
     4
 11
17.305
 21
1.8725
 31
0.0
  0
TEXT
  8
TEXT
 10
17.14875
 20
2.601667
 30
0.0
 40
0.625
  1
A
 41
0.75
  7
TXT
 72
     4
 11
17.305
 21
2.914167
 31
0.0
  0
TEXT
  8
TEXT
 10
38.318438
 20
0.518333
 30
0.0
 40
0.625
  1
31.000
 41
0.75
  7
TXT
 72
     4
 11
39.295
 21
0.830833
 31
0.0
  0
TEXT
  8
TEXT
 10
38.240313
 20
1.56
 30
0.0
 40
0.625
  1
24.000
 41
0.75
  7
TXT
 72
     4
 11
39.295
 21
1.8725
 31
0.0
  0
TEXT
  8
TEXT
 10
39.13875
 20
2.601667
 30
0.0
 40
0.625
  1
B
 41
0.75
  7
TXT
 72
     4
 11
39.295
 21
2.914167
 31
0.0
  0
ENDSEC
  0
EOF
