  0
SECTION
  2
HEADER
  9
$ACADVER
  1
AC1009
  9
$INSBASE
 10
0.0
 20
0.0
 30
0.0
  9
$EXTMIN
 10
0.0
 20
0.0
 30
0.0
  9
$EXTMAX
 10
83.49
 20
127.875
 30
0.0
  9
$LIMMIN
 10
0.0
 20
0.0
  9
$LIMMAX
 10
83.49
 20
127.875
  9
$ORTHOMODE
 70
     1
  9
$REGENMODE
 70
     1
  9
$FILLMODE
 70
     1
  9
$QTEXTMODE
 70
     0
  9
$MIRRTEXT
 70
     0
  9
$DRAGMODE
 70
     2
  9
$LTSCALE
 40
3.0
  9
$OSMODE
 70
     1
  9
$ATTMODE
 70
     1
  9
$TEXTSIZE
 40
1.03125
  9
$TRACEWID
 40
0.05
  9
$TEXTSTYLE
  7
STANDARD
  9
$CLAYER
  8
OBJECT
  9
$CELTYPE
  6
BYLAYER
  9
$CECOLOR
 62
   256
  9
$DIMSCALE
 40
8.25
  9
$DIMASZ
 40
0.18
  9
$DIMEXO
 40
0.063
  9
$DIMDLI
 40
0.25
  9
$DIMRND
 40
0.0
  9
$DIMDLE
 40
0.0
  9
$DIMEXE
 40
0.093
  9
$DIMTP
 40
0.0
  9
$DIMTM
 40
0.0
  9
$DIMTXT
 40
0.125
  9
$DIMCEN
 40
0.09
  9
$DIMTSZ
 40
0.0
  9
$DIMTOL
 70
     0
  9
$DIMLIM
 70
     0
  9
$DIMTIH
 70
     1
  9
$DIMTOH
 70
     1
  9
$DIMSE1
 70
     0
  9
$DIMSE2
 70
     0
  9
$DIMTAD
 70
     0
  9
$DIMZIN
 70
     0
  9
$DIMBLK
  1

  9
$DIMASO
 70
     1
  9
$DIMSHO
 70
     1
  9
$DIMPOST
  1

  9
$DIMAPOST
  1

  9
$DIMALT
 70
     0
  9
$DIMALTD
 70
     2
  9
$DIMALTF
 40
25.4
  9
$DIMLFAC
 40
1.0
  9
$DIMTOFL
 70
     0
  9
$DIMTVP
 40
0.0
  9
$DIMTIX
 70
     0
  9
$DIMSOXD
 70
     0
  9
$DIMSAH
 70
     0
  9
$DIMBLK1
  1

  9
$DIMBLK2
  1

  9
$DIMSTYLE
  2
23NSTD
  9
$DIMCLRD
 70
     0
  9
$DIMCLRE
 70
     0
  9
$DIMCLRT
 70
     0
  9
$DIMTFAC
 40
1.0
  9
$DIMGAP
 40
0.09
  9
$LUNITS
 70
     2
  9
$LUPREC
 70
     3
  9
$SKETCHINC
 40
0.1
  9
$FILLETRAD
 40
0.0
  9
$AUNITS
 70
     0
  9
$AUPREC
 70
     0
  9
$MENU
  1
acad
  9
$ELEVATION
 40
0.0
  9
$PELEVATION
 40
0.0
  9
$THICKNESS
 40
0.0
  9
$LIMCHECK
 70
     0
  9
$BLIPMODE
 70
     1
  9
$CHAMFERA
 40
0.0
  9
$CHAMFERB
 40
0.0
  9
$SKPOLY
 70
     0
  9
$TDCREATE
 40
2448391.459252083
  9
$TDUPDATE
 40
2451344.536289583
  9
$TDINDWG
 40
0.1098440972
  9
$TDUSRTIMER
 40
0.1098440972
  9
$USRTIMER
 70
     1
  9
$ANGBASE
 50
0.0
  9
$ANGDIR
 70
     0
  9
$PDMODE
 70
     0
  9
$PDSIZE
 40
0.0
  9
$PLINEWID
 40
0.0
  9
$COORDS
 70
     0
  9
$SPLFRAME
 70
     0
  9
$SPLINETYPE
 70
     6
  9
$SPLINESEGS
 70
     8
  9
$ATTDIA
 70
     0
  9
$ATTREQ
 70
     1
  9
$HANDLING
 70
     0
  9
$HANDSEED
  5
0
  9
$SURFTAB1
 70
     6
  9
$SURFTAB2
 70
     6
  9
$SURFTYPE
 70
     6
  9
$SURFU
 70
     6
  9
$SURFV
 70
     6
  9
$UCSNAME
  2

  9
$UCSORG
 10
0.0
 20
0.0
 30
0.0
  9
$UCSXDIR
 10
1.0
 20
0.0
 30
0.0
  9
$UCSYDIR
 10
0.0
 20
1.0
 30
0.0
  9
$PUCSNAME
  2

  9
$PUCSORG
 10
0.0
 20
0.0
 30
0.0
  9
$PUCSXDIR
 10
1.0
 20
0.0
 30
0.0
  9
$PUCSYDIR
 10
0.0
 20
1.0
 30
0.0
  9
$USERI1
 70
     0
  9
$USERI2
 70
     0
  9
$USERI3
 70
     0
  9
$USERI4
 70
     0
  9
$USERI5
 70
     0
  9
$USERR1
 40
0.0
  9
$USERR2
 40
0.0
  9
$USERR3
 40
0.0
  9
$USERR4
 40
0.0
  9
$USERR5
 40
0.0
  9
$WORLDVIEW
 70
     1
  9
$SHADEDGE
 70
     3
  9
$SHADEDIF
 70
    70
  9
$TILEMODE
 70
     1
  9
$MAXACTVP
 70
    16
  9
$PINSBASE
 10
0.0
 20
0.0
 30
0.0
  9
$PLIMCHECK
 70
     0
  9
$PEXTMIN
 10
1.000000E+20
 20
1.000000E+20
 30
1.000000E+20
  9
$PEXTMAX
 10
-1.000000E+20
 20
-1.000000E+20
 30
-1.000000E+20
  9
$PLIMMIN
 10
0.0
 20
0.0
  9
$PLIMMAX
 10
12.0
 20
9.0
  9
$UNITMODE
 70
     0
  9
$VISRETAIN
 70
     0
  9
$PLINEGEN
 70
     0
  9
$PSLTSCALE
 70
     0
  9
$TREEDEPTH
 70
  3020
  9
$DWGCODEPAGE
  3
undefined
  0
ENDSEC
  0
SECTION
  2
TABLES
  0
TABLE
  2
VPORT
 70
     2
  0
VPORT
  2
*ACTIVE
 70
     0
 10
0.0
 20
0.0
 11
1.0
 21
1.0
 12
87.104583
 22
63.9375
 13
0.0
 23
0.0
 14
1.0
 24
1.0
 15
2.0
 25
2.0
 16
0.0
 26
0.0
 36
1.0
 17
0.0
 27
0.0
 37
0.0
 40
127.875
 41
1.36234
 42
50.0
 43
0.0
 44
0.0
 50
0.0
 51
0.0
 71
     0
 72
   100
 73
     1
 74
     0
 75
     0
 76
     0
 77
     0
 78
     0
  0
ENDTAB
  0
TABLE
  2
LTYPE
 70
     4
  0
LTYPE
  2
CONTINUOUS
 70
    64
  3
Solid line
 72
    65
 73
     0
 40
0.0
  0
LTYPE
  2
HIDDEN
 70
    64
  3
_ _ _ _ _ _ _ _ _ _ _ _ _ _ _ _ _ _ _ _ _ _ _
 72
    65
 73
     2
 40
0.375
 49
0.25
 49
-0.125
  0
LTYPE
  2
PHANTOM
 70
    64
  3
_____ _ _ _____ _ _ _____ _ _ _____ _ _ ____
 72
    65
 73
     6
 40
2.5
 49
1.25
 49
-0.25
 49
0.25
 49
-0.25
 49
0.25
 49
-0.25
  0
LTYPE
  2
CENTER
 70
    64
  3
____ _ ____ _ ____ _ ____ _ ____ _ ____ _ ____
 72
    65
 73
     4
 40
2.0
 49
1.25
 49
-0.25
 49
0.25
 49
-0.25
  0
ENDTAB
  0
TABLE
  2
LAYER
 70
     9
  0
LAYER
  2
0
 70
    64
 62
     7
  6
CONTINUOUS
  0
LAYER
  2
OBJECT
 70
    64
 62
     7
  6
CONTINUOUS
  0
LAYER
  2
DIM
 70
    64
 62
     7
  6
CONTINUOUS
  0
LAYER
  2
HIDDEN
 70
    64
 62
     7
  6
HIDDEN
  0
LAYER
  2
BEND
 70
    64
 62
     7
  6
PHANTOM
  0
LAYER
  2
TEXT
 70
    64
 62
     7
  6
CONTINUOUS
  0
LAYER
  2
TITLE
 70
    64
 62
     7
  6
CONTINUOUS
  0
LAYER
  2
CENTER
 70
    64
 62
     7
  6
CENTER
  0
LAYER
  2
DEFPOINTS
 70
    64
 62
     7
  6
CONTINUOUS
  0
ENDTAB
  0
TABLE
  2
STYLE
 70
     2
  0
STYLE
  2
STANDARD
 70
    64
 40
0.0
 41
0.75
 50
0.0
 71
     0
 42
1.03125
  3
TXT.shx
  4

  0
STYLE
  2
TXT
 70
    64
 40
0.0
 41
0.75
 50
0.0
 71
     0
 42
1.032
  3
txt
  4

  0
ENDTAB
  0
TABLE
  2
VIEW
 70
     0
  0
ENDTAB
  0
TABLE
  2
UCS
 70
     0
  0
ENDTAB
  0
TABLE
  2
APPID
 70
     1
  0
APPID
  2
ACAD
 70
    64
  0
ENDTAB
  0
TABLE
  2
DIMSTYLE
 70
     2
  0
DIMSTYLE
  2
23NSTD
 70
    64
  3

  4

  5

  6

  7

 40
8.25
 41
0.18
 42
0.063
 43
0.25
 44
0.093
 45
0.0
 46
0.0
 47
0.0
 48
0.0
140
0.125
141
0.09
142
0.0
143
25.4
144
1.0
145
0.0
146
1.0
147
0.09
 71
     0
 72
     0
 73
     1
 74
     1
 75
     0
 76
     0
 77
     0
 78
     0
170
     0
171
     2
172
     0
173
     0
174
     0
175
     0
176
     0
177
     0
178
     0
  0
DIMSTYLE
  2
23NSTDI
 70
    64
  3

  4

  5

  6

  7

 40
8.25
 41
0.18
 42
0.063
 43
0.25
 44
0.093
 45
0.0
 46
0.0
 47
0.0
 48
0.0
140
0.125
141
0.09
142
0.0
143
25.4
144
1.0
145
0.0
146
1.0
147
0.09
 71
     0
 72
     0
 73
     1
 74
     1
 75
     0
 76
     0
 77
     0
 78
     0
170
     0
171
     2
172
     0
173
     0
174
     1
175
     0
176
     0
177
     0
178
     0
  0
ENDTAB
  0
ENDSEC
  0
SECTION
  2
BLOCKS
  0
BLOCK
  8
0
  2
HB
 70
    64
 10
0.0
 20
0.0
 30
0.0
  3
HB
  0
TEXT
  8
TEXT
 10
0.207833
 20
15.060079
 30
0.0
 40
0.125
  1
NAME
 72
     1
 11
0.437
 21
15.060079
 31
0.0
  0
TEXT
  8
TEXT
 10
0.207833
 20
15.268413
 30
0.0
 40
0.125
  1
PART
 72
     1
 11
0.437
 21
15.268413
 31
0.0
  0
TEXT
  8
TEXT
 10
5.372
 20
15.060079
 30
0.0
 40
0.125
  1
No.
 72
     1
 11
5.497
 21
15.060079
 31
0.0
  0
TEXT
  8
TEXT
 10
5.267833
 20
15.268413
 30
0.0
 40
0.125
  1
PART
 72
     1
 11
5.497
 21
15.268413
 31
0.0
  0
LINE
  8
TITLE
 10
5.872
 20
15.438
 30
0.0
 11
5.872
 21
15.02
 31
0.0
  0
LINE
  8
TITLE
 10
5.122
 20
15.438
 30
0.0
 11
5.122
 21
15.02
 31
0.0
  0
LINE
  8
TITLE
 10
5.06
 20
15.438
 30
0.0
 11
5.06
 21
15.02
 31
0.0
  0
LINE
  8
TITLE
 10
0.812
 20
15.02
 30
0.0
 11
0.812
 21
15.438
 31
0.0
  0
LINE
  8
TITLE
 10
0.062
 20
15.02
 30
0.0
 11
10.058
 21
15.02
 31
0.0
  0
LINE
  8
TITLE
 10
10.058
 20
0.062
 30
0.0
 11
0.062
 21
0.062
 31
0.0
  0
LINE
  8
TITLE
 10
10.058
 20
15.438
 30
0.0
 11
10.058
 21
0.062
 31
0.0
  0
LINE
  8
TITLE
 10
0.062
 20
15.438
 30
0.0
 11
10.058
 21
15.438
 31
0.0
  0
LINE
  8
TITLE
 10
0.062
 20
0.062
 30
0.0
 11
0.062
 21
15.438
 31
0.0
  0
LINE
  8
TITLE
 10
0.0
 20
0.0
 30
0.0
 11
0.0
 21
15.5
 31
0.0
  0
LINE
  8
TITLE
 10
10.12
 20
0.0
 30
0.0
 11
0.0
 21
0.0
 31
0.0
  0
LINE
  8
TITLE
 10
10.12
 20
15.5
 30
0.0
 11
10.12
 21
0.0
 31
0.0
  0
LINE
  8
TITLE
 10
0.0
 20
15.5
 30
0.0
 11
10.12
 21
15.5
 31
0.0
  0
ENDBLK
  8
0
  0
BLOCK
  8
0
  2
*D1
 70
    65
 10
0.0
 20
0.0
 30
0.0
  3
*D
  0
LINE
  8
0
  6
BYBLOCK
 62
     0
 10
51.690766
 20
86.501175
 30
0.0
 11
51.690766
 21
83.50459
 31
0.0
  0
LINE
  8
0
  6
BYBLOCK
 62
     0
 10
70.002766
 20
86.501175
 30
0.0
 11
70.002766
 21
83.50459
 31
0.0
  0
LINE
  8
0
  6
BYBLOCK
 62
     0
 10
53.175766
 20
84.27184
 30
0.0
 11
59.846454
 21
84.27184
 31
0.0
  0
LINE
  8
0
  6
BYBLOCK
 62
     0
 10
68.517766
 20
84.27184
 30
0.0
 11
61.847079
 21
84.27184
 31
0.0
  0
SOLID
  8
0
  6
BYBLOCK
 62
     0
 10
53.175766
 20
84.51934
 30
0.0
 11
53.175766
 21
84.02434
 31
0.0
 12
51.690766
 22
84.27184
 32
0.0
 13
51.690766
 23
84.27184
 33
0.0
  0
SOLID
  8
0
  6
BYBLOCK
 62
     0
 10
68.517766
 20
84.51934
 30
0.0
 11
68.517766
 21
84.02434
 31
0.0
 12
70.002766
 22
84.27184
 32
0.0
 13
70.002766
 23
84.27184
 33
0.0
  0
TEXT
  8
0
  6
BYBLOCK
 62
     0
 10
60.588954
 20
83.756215
 30
0.0
 40
1.03125
  1
B
 41
0.75
 72
     1
 11
60.846766
 21
84.27184
 31
0.0
 73
     2
  0
POINT
  8
DEFPOINTS
  6
BYBLOCK
 62
     0
 10
51.690766
 20
87.020925
 30
0.0
  0
POINT
  8
DEFPOINTS
  6
BYBLOCK
 62
     0
 10
70.002766
 20
87.020925
 30
0.0
  0
POINT
  8
DEFPOINTS
  6
BYBLOCK
 62
     0
 10
70.002766
 20
84.27184
 30
0.0
  0
ENDBLK
  8
0
  0
BLOCK
  8
0
  2
*D2
 70
    65
 10
0.0
 20
0.0
 30
0.0
  3
*D
  0
LINE
  8
0
  6
BYBLOCK
 62
     0
 10
69.722766
 20
79.650995
 30
0.0
 11
69.722766
 21
78.966653
 31
0.0
  0
LINE
  8
0
  6
BYBLOCK
 62
     0
 10
51.970766
 20
79.650995
 30
0.0
 11
51.970766
 21
78.966653
 31
0.0
  0
LINE
  8
0
  6
BYBLOCK
 62
     0
 10
68.237766
 20
79.733903
 30
0.0
 11
61.847079
 21
79.733903
 31
0.0
  0
LINE
  8
0
  6
BYBLOCK
 62
     0
 10
53.455766
 20
79.733903
 30
0.0
 11
59.846454
 21
79.733903
 31
0.0
  0
SOLID
  8
0
  6
BYBLOCK
 62
     0
 10
68.237766
 20
79.981403
 30
0.0
 11
68.237766
 21
79.486403
 31
0.0
 12
69.722766
 22
79.733903
 32
0.0
 13
69.722766
 23
79.733903
 33
0.0
  0
SOLID
  8
0
  6
BYBLOCK
 62
     0
 10
53.455766
 20
79.981403
 30
0.0
 11
53.455766
 21
79.486403
 31
0.0
 12
51.970766
 22
79.733903
 32
0.0
 13
51.970766
 23
79.733903
 33
0.0
  0
TEXT
  8
0
  6
BYBLOCK
 62
     0
 10
60.588954
 20
79.218278
 30
0.0
 40
1.03125
  1
A
 41
0.75
 72
     1
 11
60.846766
 21
79.733903
 31
0.0
 73
     2
  0
POINT
  8
DEFPOINTS
  6
BYBLOCK
 62
     0
 10
69.722766
 20
80.170745
 30
0.0
  0
POINT
  8
DEFPOINTS
  6
BYBLOCK
 62
     0
 10
51.970766
 20
80.170745
 30
0.0
  0
POINT
  8
DEFPOINTS
  6
BYBLOCK
 62
     0
 10
51.970766
 20
79.733903
 30
0.0
  0
ENDBLK
  8
0
  0
BLOCK
  8
0
  2
*D3
 70
    65
 10
0.0
 20
0.0
 30
0.0
  3
*D
  0
LINE
  8
0
  6
BYBLOCK
 62
     0
 10
71.507516
 20
100.207925
 30
0.0
 11
75.443506
 21
100.207925
 31
0.0
  0
LINE
  8
0
  6
BYBLOCK
 62
     0
 10
71.491516
 20
16.082925
 30
0.0
 11
75.443506
 21
16.082925
 31
0.0
  0
LINE
  8
0
  6
BYBLOCK
 62
     0
 10
74.676256
 20
98.722925
 30
0.0
 11
74.676256
 21
59.40355
 31
0.0
  0
LINE
  8
0
  6
BYBLOCK
 62
     0
 10
74.676256
 20
17.567925
 30
0.0
 11
74.676256
 21
56.8873
 31
0.0
  0
SOLID
  8
0
  6
BYBLOCK
 62
     0
 10
74.428756
 20
98.722925
 30
0.0
 11
74.923756
 21
98.722925
 31
0.0
 12
74.676256
 22
100.207925
 32
0.0
 13
74.676256
 23
100.207925
 33
0.0
  0
SOLID
  8
0
  6
BYBLOCK
 62
     0
 10
74.428756
 20
17.567925
 30
0.0
 11
74.923756
 21
17.567925
 31
0.0
 12
74.676256
 22
16.082925
 32
0.0
 13
74.676256
 23
16.082925
 33
0.0
  0
TEXT
  8
0
  6
BYBLOCK
 62
     0
 10
72.871569
 20
57.6298
 30
0.0
 40
1.03125
  1
84.125
 41
0.75
 72
     1
 11
74.676256
 21
58.145425
 31
0.0
 73
     2
  0
POINT
  8
DEFPOINTS
  6
BYBLOCK
 62
     0
 10
70.987766
 20
100.207925
 30
0.0
  0
POINT
  8
DEFPOINTS
  6
BYBLOCK
 62
     0
 10
70.971766
 20
16.082925
 30
0.0
  0
POINT
  8
DEFPOINTS
  6
BYBLOCK
 62
     0
 10
74.676256
 20
16.082925
 30
0.0
  0
ENDBLK
  8
0
  0
BLOCK
  8
0
  2
*D4
 70
    65
 10
0.0
 20
0.0
 30
0.0
  3
*D
  0
LINE
  8
0
  6
BYBLOCK
 62
     0
 10
52.846766
 20
108.748157
 30
0.0
 11
52.846766
 21
105.629502
 31
0.0
  0
LINE
  8
0
  6
BYBLOCK
 62
     0
 10
68.846766
 20
108.748157
 30
0.0
 11
68.846766
 21
105.629502
 31
0.0
  0
LINE
  8
0
  6
BYBLOCK
 62
     0
 10
54.331766
 20
106.396752
 30
0.0
 11
59.846454
 21
106.396752
 31
0.0
  0
LINE
  8
0
  6
BYBLOCK
 62
     0
 10
67.361766
 20
106.396752
 30
0.0
 11
61.847079
 21
106.396752
 31
0.0
  0
SOLID
  8
0
  6
BYBLOCK
 62
     0
 10
54.331766
 20
106.644252
 30
0.0
 11
54.331766
 21
106.149252
 31
0.0
 12
52.846766
 22
106.396752
 32
0.0
 13
52.846766
 23
106.396752
 33
0.0
  0
SOLID
  8
0
  6
BYBLOCK
 62
     0
 10
67.361766
 20
106.644252
 30
0.0
 11
67.361766
 21
106.149252
 31
0.0
 12
68.846766
 22
106.396752
 32
0.0
 13
68.846766
 23
106.396752
 33
0.0
  0
TEXT
  8
0
  6
BYBLOCK
 62
     0
 10
60.588954
 20
105.881127
 30
0.0
 40
1.03125
  1
D
 41
0.75
 72
     1
 11
60.846766
 21
106.396752
 31
0.0
 73
     2
  0
POINT
  8
DEFPOINTS
  6
BYBLOCK
 62
     0
 10
52.846766
 20
109.267907
 30
0.0
  0
POINT
  8
DEFPOINTS
  6
BYBLOCK
 62
     0
 10
68.846766
 20
109.267907
 30
0.0
  0
POINT
  8
DEFPOINTS
  6
BYBLOCK
 62
     0
 10
68.846766
 20
106.396752
 30
0.0
  0
ENDBLK
  8
0
  0
BLOCK
  8
0
  2
*D5
 70
    65
 10
0.0
 20
0.0
 30
0.0
  3
*D
  0
LINE
  8
0
  6
BYBLOCK
 62
     0
 10
69.366516
 20
121.767907
 30
0.0
 11
75.072944
 21
121.767907
 31
0.0
  0
LINE
  8
0
  6
BYBLOCK
 62
     0
 10
69.366516
 20
109.267907
 30
0.0
 11
75.072944
 21
109.267907
 31
0.0
  0
LINE
  8
0
  6
BYBLOCK
 62
     0
 10
74.305694
 20
120.282907
 30
0.0
 11
74.305694
 21
116.776032
 31
0.0
  0
LINE
  8
0
  6
BYBLOCK
 62
     0
 10
74.305694
 20
110.752907
 30
0.0
 11
74.305694
 21
114.259782
 31
0.0
  0
SOLID
  8
0
  6
BYBLOCK
 62
     0
 10
74.058194
 20
120.282907
 30
0.0
 11
74.553194
 21
120.282907
 31
0.0
 12
74.305694
 22
121.767907
 32
0.0
 13
74.305694
 23
121.767907
 33
0.0
  0
SOLID
  8
0
  6
BYBLOCK
 62
     0
 10
74.058194
 20
110.752907
 30
0.0
 11
74.553194
 21
110.752907
 31
0.0
 12
74.305694
 22
109.267907
 32
0.0
 13
74.305694
 23
109.267907
 33
0.0
  0
TEXT
  8
0
  6
BYBLOCK
 62
     0
 10
72.629912
 20
115.002282
 30
0.0
 40
1.03125
  1
12.500
 41
0.75
 72
     1
 11
74.305694
 21
115.517907
 31
0.0
 73
     2
  0
POINT
  8
DEFPOINTS
  6
BYBLOCK
 62
     0
 10
68.846766
 20
121.767907
 30
0.0
  0
POINT
  8
DEFPOINTS
  6
BYBLOCK
 62
     0
 10
68.846766
 20
109.267907
 30
0.0
  0
POINT
  8
DEFPOINTS
  6
BYBLOCK
 62
     0
 10
74.305694
 20
109.267907
 30
0.0
  0
ENDBLK
  8
0
  0
BLOCK
  8
0
  2
*D6
 70
    65
 10
0.0
 20
0.0
 30
0.0
  3
*D
  0
LINE
  8
0
  6
BYBLOCK
 62
     0
 10
71.491516
 20
108.017907
 30
0.0
 11
79.709444
 21
108.017907
 31
0.0
  0
LINE
  8
0
  6
BYBLOCK
 62
     0
 10
71.491516
 20
123.017907
 30
0.0
 11
79.709444
 21
123.017907
 31
0.0
  0
LINE
  8
0
  6
BYBLOCK
 62
     0
 10
78.942194
 20
109.502907
 30
0.0
 11
78.942194
 21
114.259782
 31
0.0
  0
LINE
  8
0
  6
BYBLOCK
 62
     0
 10
78.942194
 20
121.532907
 30
0.0
 11
78.942194
 21
116.776032
 31
0.0
  0
SOLID
  8
0
  6
BYBLOCK
 62
     0
 10
78.694694
 20
109.502907
 30
0.0
 11
79.189694
 21
109.502907
 31
0.0
 12
78.942194
 22
108.017907
 32
0.0
 13
78.942194
 23
108.017907
 33
0.0
  0
SOLID
  8
0
  6
BYBLOCK
 62
     0
 10
78.694694
 20
121.532907
 30
0.0
 11
79.189694
 21
121.532907
 31
0.0
 12
78.942194
 22
123.017907
 32
0.0
 13
78.942194
 23
123.017907
 33
0.0
  0
TEXT
  8
0
  6
BYBLOCK
 62
     0
 10
77.330866
 20
115.002282
 30
0.0
 40
1.03125
  1
15.000
 41
0.75
 72
     1
 11
78.942194
 21
115.517907
 31
0.0
 73
     2
  0
POINT
  8
DEFPOINTS
  6
BYBLOCK
 62
     0
 10
70.971766
 20
108.017907
 30
0.0
  0
POINT
  8
DEFPOINTS
  6
BYBLOCK
 62
     0
 10
70.971766
 20
123.017907
 30
0.0
  0
POINT
  8
DEFPOINTS
  6
BYBLOCK
 62
     0
 10
78.942194
 20
123.017907
 30
0.0
  0
ENDBLK
  8
0
  0
BLOCK
  8
0
  2
*D7
 70
    65
 10
0.0
 20
0.0
 30
0.0
  3
*D
  0
LINE
  8
0
  6
BYBLOCK
 62
     0
 10
52.846766
 20
108.748157
 30
0.0
 11
52.846766
 21
105.629502
 31
0.0
  0
LINE
  8
0
  6
BYBLOCK
 62
     0
 10
50.721766
 20
107.498157
 30
0.0
 11
50.721766
 21
105.629502
 31
0.0
  0
LINE
  8
0
  6
BYBLOCK
 62
     0
 10
54.331766
 20
106.396752
 30
0.0
 11
55.816766
 21
106.396752
 31
0.0
  0
LINE
  8
0
  6
BYBLOCK
 62
     0
 10
49.236766
 20
106.396752
 30
0.0
 11
47.751766
 21
106.396752
 31
0.0
  0
SOLID
  8
0
  6
BYBLOCK
 62
     0
 10
54.331766
 20
106.644252
 30
0.0
 11
54.331766
 21
106.149252
 31
0.0
 12
52.846766
 22
106.396752
 32
0.0
 13
52.846766
 23
106.396752
 33
0.0
  0
SOLID
  8
0
  6
BYBLOCK
 62
     0
 10
49.236766
 20
106.644252
 30
0.0
 11
49.236766
 21
106.149252
 31
0.0
 12
50.721766
 22
106.396752
 32
0.0
 13
50.721766
 23
106.396752
 33
0.0
  0
TEXT
  8
0
  6
BYBLOCK
 62
     0
 10
44.173329
 20
105.881127
 30
0.0
 40
1.03125
  1
2.125
 41
0.75
 72
     1
 11
45.591297
 21
106.396752
 31
0.0
 73
     2
  0
POINT
  8
DEFPOINTS
  6
BYBLOCK
 62
     0
 10
52.846766
 20
109.267907
 30
0.0
  0
POINT
  8
DEFPOINTS
  6
BYBLOCK
 62
     0
 10
50.721766
 20
108.017907
 30
0.0
  0
POINT
  8
DEFPOINTS
  6
BYBLOCK
 62
     0
 10
50.721766
 20
106.396752
 30
0.0
  0
ENDBLK
  8
0
  0
BLOCK
  8
0
  2
*D8
 70
    65
 10
0.0
 20
0.0
 30
0.0
  3
*D
  0
LINE
  8
0
  6
BYBLOCK
 62
     0
 10
34.687499
 20
100.207925
 30
0.0
 11
41.691844
 21
100.207925
 31
0.0
  0
LINE
  8
0
  6
BYBLOCK
 62
     0
 10
33.187499
 20
98.707925
 30
0.0
 11
41.691844
 21
98.707925
 31
0.0
  0
LINE
  8
0
  6
BYBLOCK
 62
     0
 10
40.924594
 20
101.692925
 30
0.0
 11
40.924594
 21
103.177925
 31
0.0
  0
LINE
  8
0
  6
BYBLOCK
 62
     0
 10
40.924594
 20
97.222925
 30
0.0
 11
40.924594
 21
95.737925
 31
0.0
  0
LINE
  8
0
  6
BYBLOCK
 62
     0
 10
40.924594
 20
95.737925
 30
0.0
 11
39.439594
 21
95.737925
 31
0.0
  0
SOLID
  8
0
  6
BYBLOCK
 62
     0
 10
40.677094
 20
101.692925
 30
0.0
 11
41.172094
 21
101.692925
 31
0.0
 12
40.924594
 22
100.207925
 32
0.0
 13
40.924594
 23
100.207925
 33
0.0
  0
SOLID
  8
0
  6
BYBLOCK
 62
     0
 10
40.677094
 20
97.222925
 30
0.0
 11
41.172094
 21
97.222925
 31
0.0
 12
40.924594
 22
98.707925
 32
0.0
 13
40.924594
 23
98.707925
 33
0.0
  0
TEXT
  8
0
  6
BYBLOCK
 62
     0
 10
36.118969
 20
95.2223
 30
0.0
 40
1.03125
  1
1.500
 41
0.75
 72
     1
 11
37.408031
 21
95.737925
 31
0.0
 73
     2
  0
POINT
  8
DEFPOINTS
  6
BYBLOCK
 62
     0
 10
34.167749
 20
100.207925
 30
0.0
  0
POINT
  8
DEFPOINTS
  6
BYBLOCK
 62
     0
 10
32.667749
 20
98.707925
 30
0.0
  0
POINT
  8
DEFPOINTS
  6
BYBLOCK
 62
     0
 10
40.924594
 20
98.707925
 30
0.0
  0
ENDBLK
  8
0
  0
BLOCK
  8
0
  2
*D9
 70
    65
 10
0.0
 20
0.0
 30
0.0
  3
*D
  0
LINE
  8
0
  6
BYBLOCK
 62
     0
 10
29.667749
 20
100.727675
 30
0.0
 11
29.667749
 21
102.792801
 31
0.0
  0
LINE
  8
0
  6
BYBLOCK
 62
     0
 10
28.167749
 20
100.727675
 30
0.0
 11
28.167749
 21
102.792801
 31
0.0
  0
LINE
  8
0
  6
BYBLOCK
 62
     0
 10
31.152749
 20
102.025551
 30
0.0
 11
32.637749
 21
102.025551
 31
0.0
  0
LINE
  8
0
  6
BYBLOCK
 62
     0
 10
26.682749
 20
102.025551
 30
0.0
 11
25.197749
 21
102.025551
 31
0.0
  0
SOLID
  8
0
  6
BYBLOCK
 62
     0
 10
31.152749
 20
102.273051
 30
0.0
 11
31.152749
 21
101.778051
 31
0.0
 12
29.667749
 22
102.025551
 32
0.0
 13
29.667749
 23
102.025551
 33
0.0
  0
SOLID
  8
0
  6
BYBLOCK
 62
     0
 10
26.682749
 20
102.273051
 30
0.0
 11
26.682749
 21
101.778051
 31
0.0
 12
28.167749
 22
102.025551
 32
0.0
 13
28.167749
 23
102.025551
 33
0.0
  0
TEXT
  8
0
  6
BYBLOCK
 62
     0
 10
21.877124
 20
101.509926
 30
0.0
 40
1.03125
  1
1.500
 41
0.75
 72
     1
 11
23.166186
 21
102.025551
 31
0.0
 73
     2
  0
POINT
  8
DEFPOINTS
  6
BYBLOCK
 62
     0
 10
29.667749
 20
100.207925
 30
0.0
  0
POINT
  8
DEFPOINTS
  6
BYBLOCK
 62
     0
 10
28.167749
 20
100.207925
 30
0.0
  0
POINT
  8
DEFPOINTS
  6
BYBLOCK
 62
     0
 10
28.167749
 20
102.025551
 30
0.0
  0
ENDBLK
  8
0
  0
BLOCK
  8
0
  2
*D10
 70
    65
 10
0.0
 20
0.0
 30
0.0
  3
*D
  0
LINE
  8
0
  6
BYBLOCK
 62
     0
 10
69.366516
 20
109.267907
 30
0.0
 11
77.391194
 21
109.267907
 31
0.0
  0
LINE
  8
0
  6
BYBLOCK
 62
     0
 10
71.491516
 20
108.017907
 30
0.0
 11
77.391194
 21
108.017907
 31
0.0
  0
LINE
  8
0
  6
BYBLOCK
 62
     0
 10
76.623944
 20
110.752907
 30
0.0
 11
76.623944
 21
112.237907
 31
0.0
  0
LINE
  8
0
  6
BYBLOCK
 62
     0
 10
76.623944
 20
106.532907
 30
0.0
 11
76.623944
 21
105.047907
 31
0.0
  0
LINE
  8
0
  6
BYBLOCK
 62
     0
 10
76.623944
 20
105.047907
 30
0.0
 11
75.138944
 21
105.047907
 31
0.0
  0
SOLID
  8
0
  6
BYBLOCK
 62
     0
 10
76.376444
 20
110.752907
 30
0.0
 11
76.871444
 21
110.752907
 31
0.0
 12
76.623944
 22
109.267907
 32
0.0
 13
76.623944
 23
109.267907
 33
0.0
  0
SOLID
  8
0
  6
BYBLOCK
 62
     0
 10
76.376444
 20
106.532907
 30
0.0
 11
76.871444
 21
106.532907
 31
0.0
 12
76.623944
 22
108.017907
 32
0.0
 13
76.623944
 23
108.017907
 33
0.0
  0
TEXT
  8
0
  6
BYBLOCK
 62
     0
 10
71.689412
 20
104.532282
 30
0.0
 40
1.03125
  1
1.250
 41
0.75
 72
     1
 11
73.042928
 21
105.047907
 31
0.0
 73
     2
  0
POINT
  8
DEFPOINTS
  6
BYBLOCK
 62
     0
 10
68.846766
 20
109.267907
 30
0.0
  0
POINT
  8
DEFPOINTS
  6
BYBLOCK
 62
     0
 10
70.971766
 20
108.017907
 30
0.0
  0
POINT
  8
DEFPOINTS
  6
BYBLOCK
 62
     0
 10
76.623944
 20
108.017907
 30
0.0
  0
ENDBLK
  8
0
  0
BLOCK
  8
0
  2
*D11
 70
    65
 10
0.0
 20
0.0
 30
0.0
  3
*D
  0
LINE
  8
0
  6
BYBLOCK
 62
     0
 10
33.187499
 20
19.582925
 30
0.0
 11
43.10338
 21
19.582925
 31
0.0
  0
LINE
  8
0
  6
BYBLOCK
 62
     0
 10
39.187499
 20
16.082925
 30
0.0
 11
43.10338
 21
16.082925
 31
0.0
  0
LINE
  8
0
  6
BYBLOCK
 62
     0
 10
42.33613
 20
21.067925
 30
0.0
 11
42.33613
 21
22.552925
 31
0.0
  0
LINE
  8
0
  6
BYBLOCK
 62
     0
 10
42.33613
 20
14.597925
 30
0.0
 11
42.33613
 21
13.112925
 31
0.0
  0
SOLID
  8
0
  6
BYBLOCK
 62
     0
 10
42.08863
 20
21.067925
 30
0.0
 11
42.58363
 21
21.067925
 31
0.0
 12
42.33613
 22
19.582925
 32
0.0
 13
42.33613
 23
19.582925
 33
0.0
  0
SOLID
  8
0
  6
BYBLOCK
 62
     0
 10
42.08863
 20
14.597925
 30
0.0
 11
42.58363
 21
14.597925
 31
0.0
 12
42.33613
 22
16.082925
 32
0.0
 13
42.33613
 23
16.082925
 33
0.0
  0
TEXT
  8
0
  6
BYBLOCK
 62
     0
 10
40.918161
 20
17.3173
 30
0.0
 40
1.03125
  1
3.500
 41
0.75
 72
     1
 11
42.33613
 21
17.832925
 31
0.0
 73
     2
  0
POINT
  8
DEFPOINTS
  6
BYBLOCK
 62
     0
 10
32.667749
 20
19.582925
 30
0.0
  0
POINT
  8
DEFPOINTS
  6
BYBLOCK
 62
     0
 10
38.667749
 20
16.082925
 30
0.0
  0
POINT
  8
DEFPOINTS
  6
BYBLOCK
 62
     0
 10
42.33613
 20
16.082925
 30
0.0
  0
ENDBLK
  8
0
  0
BLOCK
  8
0
  2
*D12
 70
    65
 10
0.0
 20
0.0
 30
0.0
  3
*D
  0
LINE
  8
0
  6
BYBLOCK
 62
     0
 10
29.667749
 20
15.938175
 30
0.0
 11
29.667749
 21
13.705383
 31
0.0
  0
LINE
  8
0
  6
BYBLOCK
 62
     0
 10
23.667749
 20
15.563175
 30
0.0
 11
23.667749
 21
13.705383
 31
0.0
  0
LINE
  8
0
  6
BYBLOCK
 62
     0
 10
31.152749
 20
14.472633
 30
0.0
 11
32.637749
 21
14.472633
 31
0.0
  0
LINE
  8
0
  6
BYBLOCK
 62
     0
 10
22.182749
 20
14.472633
 30
0.0
 11
20.697749
 21
14.472633
 31
0.0
  0
SOLID
  8
0
  6
BYBLOCK
 62
     0
 10
31.152749
 20
14.720133
 30
0.0
 11
31.152749
 21
14.225133
 31
0.0
 12
29.667749
 22
14.472633
 32
0.0
 13
29.667749
 23
14.472633
 33
0.0
  0
SOLID
  8
0
  6
BYBLOCK
 62
     0
 10
22.182749
 20
14.720133
 30
0.0
 11
22.182749
 21
14.225133
 31
0.0
 12
23.667749
 22
14.472633
 32
0.0
 13
23.667749
 23
14.472633
 33
0.0
  0
TEXT
  8
0
  6
BYBLOCK
 62
     0
 10
25.314233
 20
13.957008
 30
0.0
 40
1.03125
  1
6.000
 41
0.75
 72
     1
 11
26.667749
 21
14.472633
 31
0.0
 73
     2
  0
POINT
  8
DEFPOINTS
  6
BYBLOCK
 62
     0
 10
29.667749
 20
16.457925
 30
0.0
  0
POINT
  8
DEFPOINTS
  6
BYBLOCK
 62
     0
 10
23.667749
 20
16.082925
 30
0.0
  0
POINT
  8
DEFPOINTS
  6
BYBLOCK
 62
     0
 10
23.667749
 20
14.472633
 30
0.0
  0
ENDBLK
  8
0
  0
BLOCK
  8
0
  2
*D13
 70
    65
 10
0.0
 20
0.0
 30
0.0
  3
*D
  0
LINE
  8
0
  6
BYBLOCK
 62
     0
 10
32.667749
 20
100.727675
 30
0.0
 11
32.667749
 21
104.855301
 31
0.0
  0
LINE
  8
0
  6
BYBLOCK
 62
     0
 10
34.167749
 20
100.727675
 30
0.0
 11
34.167749
 21
104.855301
 31
0.0
  0
LINE
  8
0
  6
BYBLOCK
 62
     0
 10
31.182749
 20
104.088051
 30
0.0
 11
29.697749
 21
104.088051
 31
0.0
  0
LINE
  8
0
  6
BYBLOCK
 62
     0
 10
35.652749
 20
104.088051
 30
0.0
 11
37.137749
 21
104.088051
 31
0.0
  0
SOLID
  8
0
  6
BYBLOCK
 62
     0
 10
31.182749
 20
104.335551
 30
0.0
 11
31.182749
 21
103.840551
 31
0.0
 12
32.667749
 22
104.088051
 32
0.0
 13
32.667749
 23
104.088051
 33
0.0
  0
SOLID
  8
0
  6
BYBLOCK
 62
     0
 10
35.652749
 20
104.335551
 30
0.0
 11
35.652749
 21
103.840551
 31
0.0
 12
34.167749
 22
104.088051
 32
0.0
 13
34.167749
 23
104.088051
 33
0.0
  0
TEXT
  8
0
  6
BYBLOCK
 62
     0
 10
37.880249
 20
103.572426
 30
0.0
 40
1.03125
  1
1.500
 41
0.75
 72
     1
 11
39.169311
 21
104.088051
 31
0.0
 73
     2
  0
POINT
  8
DEFPOINTS
  6
BYBLOCK
 62
     0
 10
32.667749
 20
100.207925
 30
0.0
  0
POINT
  8
DEFPOINTS
  6
BYBLOCK
 62
     0
 10
34.167749
 20
100.207925
 30
0.0
  0
POINT
  8
DEFPOINTS
  6
BYBLOCK
 62
     0
 10
34.167749
 20
104.088051
 30
0.0
  0
ENDBLK
  8
0
  0
BLOCK
  8
0
  2
*D14
 70
    65
 10
0.0
 20
0.0
 30
0.0
  3
*D
  0
LINE
  8
0
  6
BYBLOCK
 62
     0
 10
29.667749
 20
100.727675
 30
0.0
 11
29.667749
 21
106.917801
 31
0.0
  0
LINE
  8
0
  6
BYBLOCK
 62
     0
 10
32.667749
 20
100.727675
 30
0.0
 11
32.667749
 21
106.917801
 31
0.0
  0
LINE
  8
0
  6
BYBLOCK
 62
     0
 10
28.182749
 20
106.150551
 30
0.0
 11
26.697749
 21
106.150551
 31
0.0
  0
LINE
  8
0
  6
BYBLOCK
 62
     0
 10
34.152749
 20
106.150551
 30
0.0
 11
35.637749
 21
106.150551
 31
0.0
  0
SOLID
  8
0
  6
BYBLOCK
 62
     0
 10
28.182749
 20
106.398051
 30
0.0
 11
28.182749
 21
105.903051
 31
0.0
 12
29.667749
 22
106.150551
 32
0.0
 13
29.667749
 23
106.150551
 33
0.0
  0
SOLID
  8
0
  6
BYBLOCK
 62
     0
 10
34.152749
 20
106.398051
 30
0.0
 11
34.152749
 21
105.903051
 31
0.0
 12
32.667749
 22
106.150551
 32
0.0
 13
32.667749
 23
106.150551
 33
0.0
  0
TEXT
  8
0
  6
BYBLOCK
 62
     0
 10
36.380249
 20
105.634926
 30
0.0
 40
1.03125
  1
3.000
 41
0.75
 72
     1
 11
37.733764
 21
106.150551
 31
0.0
 73
     2
  0
POINT
  8
DEFPOINTS
  6
BYBLOCK
 62
     0
 10
29.667749
 20
100.207925
 30
0.0
  0
POINT
  8
DEFPOINTS
  6
BYBLOCK
 62
     0
 10
32.667749
 20
100.207925
 30
0.0
  0
POINT
  8
DEFPOINTS
  6
BYBLOCK
 62
     0
 10
32.667749
 20
106.150551
 30
0.0
  0
ENDBLK
  8
0
  0
BLOCK
  8
0
  2
*D15
 70
    65
 10
0.0
 20
0.0
 30
0.0
  3
*D
  0
LINE
  8
0
  6
BYBLOCK
 62
     0
 10
50.721766
 20
107.498157
 30
0.0
 11
50.721766
 21
103.567002
 31
0.0
  0
LINE
  8
0
  6
BYBLOCK
 62
     0
 10
70.971766
 20
107.498157
 30
0.0
 11
70.971766
 21
103.567002
 31
0.0
  0
LINE
  8
0
  6
BYBLOCK
 62
     0
 10
52.206766
 20
104.334252
 30
0.0
 11
59.846454
 21
104.334252
 31
0.0
  0
LINE
  8
0
  6
BYBLOCK
 62
     0
 10
69.486766
 20
104.334252
 30
0.0
 11
61.847079
 21
104.334252
 31
0.0
  0
SOLID
  8
0
  6
BYBLOCK
 62
     0
 10
52.206766
 20
104.581752
 30
0.0
 11
52.206766
 21
104.086752
 31
0.0
 12
50.721766
 22
104.334252
 32
0.0
 13
50.721766
 23
104.334252
 33
0.0
  0
SOLID
  8
0
  6
BYBLOCK
 62
     0
 10
69.486766
 20
104.581752
 30
0.0
 11
69.486766
 21
104.086752
 31
0.0
 12
70.971766
 22
104.334252
 32
0.0
 13
70.971766
 23
104.334252
 33
0.0
  0
TEXT
  8
0
  6
BYBLOCK
 62
     0
 10
60.588954
 20
103.818627
 30
0.0
 40
1.03125
  1
C
 41
0.75
 72
     1
 11
60.846766
 21
104.334252
 31
0.0
 73
     2
  0
POINT
  8
DEFPOINTS
  6
BYBLOCK
 62
     0
 10
50.721766
 20
108.017907
 30
0.0
  0
POINT
  8
DEFPOINTS
  6
BYBLOCK
 62
     0
 10
70.971766
 20
108.017907
 30
0.0
  0
POINT
  8
DEFPOINTS
  6
BYBLOCK
 62
     0
 10
70.971766
 20
104.334252
 30
0.0
  0
ENDBLK
  8
0
  0
BLOCK
  8
0
  2
*D16
 70
    65
 10
0.0
 20
0.0
 30
0.0
  3
*D
  0
LINE
  8
0
  6
BYBLOCK
 62
     0
 10
32.667749
 20
15.938175
 30
0.0
 11
32.667749
 21
11.642883
 31
0.0
  0
LINE
  8
0
  6
BYBLOCK
 62
     0
 10
38.667749
 20
15.563175
 30
0.0
 11
38.667749
 21
11.642883
 31
0.0
  0
LINE
  8
0
  6
BYBLOCK
 62
     0
 10
31.182749
 20
12.410133
 30
0.0
 11
29.697749
 21
12.410133
 31
0.0
  0
LINE
  8
0
  6
BYBLOCK
 62
     0
 10
40.152749
 20
12.410133
 30
0.0
 11
41.637749
 21
12.410133
 31
0.0
  0
SOLID
  8
0
  6
BYBLOCK
 62
     0
 10
31.182749
 20
12.657633
 30
0.0
 11
31.182749
 21
12.162633
 31
0.0
 12
32.667749
 22
12.410133
 32
0.0
 13
32.667749
 23
12.410133
 33
0.0
  0
SOLID
  8
0
  6
BYBLOCK
 62
     0
 10
40.152749
 20
12.657633
 30
0.0
 11
40.152749
 21
12.162633
 31
0.0
 12
38.667749
 22
12.410133
 32
0.0
 13
38.667749
 23
12.410133
 33
0.0
  0
TEXT
  8
0
  6
BYBLOCK
 62
     0
 10
34.314233
 20
11.894508
 30
0.0
 40
1.03125
  1
6.000
 41
0.75
 72
     1
 11
35.667749
 21
12.410133
 31
0.0
 73
     2
  0
POINT
  8
DEFPOINTS
  6
BYBLOCK
 62
     0
 10
32.667749
 20
16.457925
 30
0.0
  0
POINT
  8
DEFPOINTS
  6
BYBLOCK
 62
     0
 10
38.667749
 20
16.082925
 30
0.0
  0
POINT
  8
DEFPOINTS
  6
BYBLOCK
 62
     0
 10
38.667749
 20
12.410133
 30
0.0
  0
ENDBLK
  8
0
  0
BLOCK
  8
0
  2
*D17
 70
    65
 10
0.0
 20
0.0
 30
0.0
  3
*D
  0
LINE
  8
0
  6
BYBLOCK
 62
     0
 10
51.171016
 20
97.769925
 30
0.0
 11
45.233048
 21
97.769925
 31
0.0
  0
LINE
  8
0
  6
BYBLOCK
 62
     0
 10
50.202016
 20
100.207925
 30
0.0
 11
45.233048
 21
100.207925
 31
0.0
  0
LINE
  8
0
  6
BYBLOCK
 62
     0
 10
46.000298
 20
96.284925
 30
0.0
 11
46.000298
 21
94.799925
 31
0.0
  0
LINE
  8
0
  6
BYBLOCK
 62
     0
 10
46.000298
 20
101.692925
 30
0.0
 11
46.000298
 21
103.177925
 31
0.0
  0
SOLID
  8
0
  6
BYBLOCK
 62
     0
 10
45.752798
 20
96.284925
 30
0.0
 11
46.247798
 21
96.284925
 31
0.0
 12
46.000298
 22
97.769925
 32
0.0
 13
46.000298
 23
97.769925
 33
0.0
  0
SOLID
  8
0
  6
BYBLOCK
 62
     0
 10
45.752798
 20
101.692925
 30
0.0
 11
46.247798
 21
101.692925
 31
0.0
 12
46.000298
 22
100.207925
 32
0.0
 13
46.000298
 23
100.207925
 33
0.0
  0
TEXT
  8
0
  6
BYBLOCK
 62
     0
 10
44.453423
 20
98.4733
 30
0.0
 40
1.03125
  1
2.438
 41
0.75
 72
     1
 11
46.000298
 21
98.988925
 31
0.0
 73
     2
  0
POINT
  8
DEFPOINTS
  6
BYBLOCK
 62
     0
 10
51.690766
 20
97.769925
 30
0.0
  0
POINT
  8
DEFPOINTS
  6
BYBLOCK
 62
     0
 10
50.721766
 20
100.207925
 30
0.0
  0
POINT
  8
DEFPOINTS
  6
BYBLOCK
 62
     0
 10
46.000298
 20
100.207925
 30
0.0
  0
ENDBLK
  8
0
  0
BLOCK
  8
0
  2
*D18
 70
    65
 10
0.0
 20
0.0
 30
0.0
  3
*D
  0
LINE
  8
0
  6
BYBLOCK
 62
     0
 10
51.171016
 20
97.769925
 30
0.0
 11
45.233048
 21
97.769925
 31
0.0
  0
LINE
  8
0
  6
BYBLOCK
 62
     0
 10
51.171016
 20
20.769925
 30
0.0
 11
45.233048
 21
20.769925
 31
0.0
  0
LINE
  8
0
  6
BYBLOCK
 62
     0
 10
46.000298
 20
96.284925
 30
0.0
 11
46.000298
 21
60.52805
 31
0.0
  0
LINE
  8
0
  6
BYBLOCK
 62
     0
 10
46.000298
 20
22.254925
 30
0.0
 11
46.000298
 21
58.0118
 31
0.0
  0
SOLID
  8
0
  6
BYBLOCK
 62
     0
 10
45.752798
 20
96.284925
 30
0.0
 11
46.247798
 21
96.284925
 31
0.0
 12
46.000298
 22
97.769925
 32
0.0
 13
46.000298
 23
97.769925
 33
0.0
  0
SOLID
  8
0
  6
BYBLOCK
 62
     0
 10
45.752798
 20
22.254925
 30
0.0
 11
46.247798
 21
22.254925
 31
0.0
 12
46.000298
 22
20.769925
 32
0.0
 13
46.000298
 23
20.769925
 33
0.0
  0
TEXT
  8
0
  6
BYBLOCK
 62
     0
 10
46.580376
 20
58.7543
 30
0.0
 40
1.03125
  1
 P.S.
 41
0.75
 72
     1
 11
47.869439
 21
59.269925
 31
0.0
 73
     2
  0
TEXT
  8
0
  6
BYBLOCK
 62
     0
 10
42.842095
 20
58.7543
 30
0.0
 40
1.03125
  1
77.000
 41
0.75
 72
     1
 11
44.582329
 21
59.269925
 31
0.0
 73
     2
  0
POINT
  8
DEFPOINTS
  6
BYBLOCK
 62
     0
 10
51.690766
 20
97.769925
 30
0.0
  0
POINT
  8
DEFPOINTS
  6
BYBLOCK
 62
     0
 10
51.690766
 20
20.769925
 30
0.0
  0
POINT
  8
DEFPOINTS
  6
BYBLOCK
 62
     0
 10
46.000298
 20
20.769925
 30
0.0
  0
ENDBLK
  8
0
  0
ENDSEC
  0
SECTION
  2
ENTITIES
  0
TEXT
  8
DIM
 10
59.525419
 20
5.842174
 30
0.0
 40
0.33325
  1

  0
TEXT
  8
DIM
 10
63.957311
 20
8.649987
 30
0.0
 40
0.33325
  1

  0
TEXT
  8
TEXT
 10
2.298297
 20
108.03883
 30
0.0
 40
1.03125
  1
UPRIGHTS ARE TAPPED #12-24 ON
 41
0.75
  7
TXT
  0
TEXT
  8
TEXT
 10
2.298297
 20
103.908433
 30
0.0
 40
1.03125
  1
UNIT SHIPPED KNOCKED DOWN.
 41
0.75
  7
TXT
  0
TEXT
  8
TEXT
 10
3.487571
 20
106.389251
 30
0.0
 40
1.03125
  1
E.I.A. UNIVERSAL SPACING.
 41
0.75
  7
TXT
  0
INSERT
  8
OBJECT
  2
HB
 10
0.0
 20
0.0
 30
0.0
 41
8.25
 42
8.25
 43
8.25
  0
LINE
  8
TITLE
 10
0.5115
 20
5.6595
 30
0.0
 11
82.9785
 21
5.6595
 31
0.0
  0
LINE
  8
TITLE
 10
0.5115
 20
10.8075
 30
0.0
 11
82.9785
 21
10.8075
 31
0.0
  0
TEXT
  8
TEXT
 10
3.459844
 20
8.575875
 30
0.0
 40
1.03125
  1
PART NO.
 41
0.75
  7
TXT
 72
     4
 11
6.166875
 21
9.0915
 31
0.0
  0
TEXT
  8
TEXT
 10
13.626938
 20
8.575875
 30
0.0
 40
1.03125
  1
PANEL SPACE
 41
0.75
  7
TXT
 72
     4
 11
17.751938
 21
9.0915
 31
0.0
  0
TEXT
  8
TEXT
 10
16.011703
 20
5.993625
 30
0.0
 40
1.03125
  1
77.000
 41
0.75
  7
TXT
 72
     4
 11
17.751938
 21
6.50925
 31
0.0
  0
TEXT
  8
TEXT
 10
16.011703
 20
4.269375
 30
0.0
 40
1.03125
  1
77.000
 41
0.75
  7
TXT
 72
     4
 11
17.751938
 21
4.785
 31
0.0
  0
TEXT
  8
TEXT
 10
24.326156
 20
8.575875
 30
0.0
 40
1.03125
  1
OVERALL HEIGHT
 41
0.75
  7
TXT
 72
     4
 11
29.611313
 21
9.0915
 31
0.0
  0
TEXT
  8
TEXT
 10
41.212875
 20
8.575875
 30
0.0
 40
1.03125
  1
A
 41
0.75
  7
TXT
 72
     4
 11
41.470688
 21
9.0915
 31
0.0
  0
TEXT
  8
TEXT
 10
53.07225
 20
8.575875
 30
0.0
 40
1.03125
  1
B
 41
0.75
  7
TXT
 72
     4
 11
53.330063
 21
9.0915
 31
0.0
  0
TEXT
  8
TEXT
 10
64.931625
 20
8.575875
 30
0.0
 40
1.03125
  1
C
 41
0.75
  7
TXT
 72
     4
 11
65.189438
 21
9.0915
 31
0.0
  0
TEXT
  8
TEXT
 10
76.791
 20
8.575875
 30
0.0
 40
1.03125
  1
D
 41
0.75
  7
TXT
 72
     4
 11
77.048813
 21
9.0915
 31
0.0
  0
TEXT
  8
TEXT
 10
2.170781
 20
5.999125
 30
0.0
 40
1.03125
  1
ARR-1272-NF
 41
0.75
  7
TXT
 72
     4
 11
6.166875
 21
6.51475
 31
0.0
  0
TEXT
  8
TEXT
 10
2.170781
 20
4.274875
 30
0.0
 40
1.03125
  1
ARR-1272-BT
 41
0.75
  7
TXT
 72
     4
 11
6.166875
 21
4.7905
 31
0.0
  0
TEXT
  8
TEXT
 10
27.806625
 20
5.999125
 30
0.0
 40
1.03125
  1
84.125
 41
0.75
  7
TXT
 72
     4
 11
29.611313
 21
6.51475
 31
0.0
  0
TEXT
  8
TEXT
 10
27.806625
 20
4.274875
 30
0.0
 40
1.03125
  1
84.125
 41
0.75
  7
TXT
 72
     4
 11
29.611313
 21
4.7905
 31
0.0
  0
TEXT
  8
TEXT
 10
39.666
 20
5.999125
 30
0.0
 40
1.03125
  1
17.752
 41
0.75
  7
TXT
 72
     4
 11
41.470688
 21
6.51475
 31
0.0
  0
TEXT
  8
TEXT
 10
39.666
 20
2.558875
 30
0.0
 40
1.03125
  1
21.752
 41
0.75
  7
TXT
 72
     4
 11
41.470688
 21
3.0745
 31
0.0
  0
TEXT
  8
TEXT
 10
51.654281
 20
5.999125
 30
0.0
 40
1.03125
  1
18.312
 41
0.75
  7
TXT
 72
     4
 11
53.330063
 21
6.51475
 31
0.0
  0
TEXT
  8
TEXT
 10
51.525375
 20
2.558875
 30
0.0
 40
1.03125
  1
22.312
 41
0.75
  7
TXT
 72
     4
 11
53.330063
 21
3.0745
 31
0.0
  0
TEXT
  8
TEXT
 10
63.38475
 20
5.999125
 30
0.0
 40
1.03125
  1
20.250
 41
0.75
  7
TXT
 72
     4
 11
65.189438
 21
6.51475
 31
0.0
  0
TEXT
  8
TEXT
 10
63.320297
 20
2.558875
 30
0.0
 40
1.03125
  1
24.250
 41
0.75
  7
TXT
 72
     4
 11
65.189438
 21
3.0745
 31
0.0
  0
TEXT
  8
TEXT
 10
75.437484
 20
5.999125
 30
0.0
 40
1.03125
  1
16.000
 41
0.75
  7
TXT
 72
     4
 11
77.048813
 21
6.51475
 31
0.0
  0
TEXT
  8
TEXT
 10
75.373031
 20
2.558875
 30
0.0
 40
1.03125
  1
20.000
 41
0.75
  7
TXT
 72
     4
 11
77.048813
 21
3.0745
 31
0.0
  0
TEXT
  8
TEXT
 10
15.359695
 20
124.994719
 30
0.0
 40
1.289063
  1
ALUMINUM RELAY RACK
 41
0.75
  7
TXT
 72
     1
 11
24.222
 21
124.994719
 31
0.0
  0
TEXT
  8
TEXT
 10
2.084524
 20
114.921391
 30
0.0
 40
1.03125
  1
%%uFINISH:
 41
0.75
  7
TXT
  0
TEXT
  8
TEXT
 10
2.084524
 20
121.697813
 30
0.0
 40
1.03125
  1
%%uMATERIAL:
 41
0.75
  7
TXT
  0
TEXT
  8
TEXT
 10
3.151275
 20
120.097485
 30
0.0
 40
1.03125
  1
BASE & TOP ANGLES
 41
0.75
  7
TXT
  0
TEXT
  8
TEXT
 10
3.151275
 20
118.378735
 30
0.0
 40
1.03125
  1
UPRIGHTS
 41
0.75
  7
TXT
  0
TEXT
  8
TEXT
 10
3.151275
 20
113.241897
 30
0.0
 40
1.03125
  1
(SUFFIX -NF) NATURAL
 41
0.75
  7
TXT
  0
TEXT
  8
TEXT
 10
19.393122
 20
120.097933
 30
0.0
 40
1.03125
  1
ALUMINUM EXTRUSIONS
 41
0.75
  7
TXT
 72
     2
 11
33.314997
 21
120.097933
 31
0.0
  0
TEXT
  8
TEXT
 10
20.682185
 20
118.379183
 30
0.0
 40
1.03125
  1
0.190 THK. ALUMINUM
 41
0.75
  7
TXT
 72
     2
 11
33.314997
 21
118.379183
 31
0.0
  0
LINE
  8
TEXT
 10
16.467661
 20
120.143574
 30
0.0
 11
18.933125
 21
120.143574
 31
0.0
  0
LINE
  8
TEXT
 10
9.20824
 20
118.409218
 30
0.0
 11
20.211514
 21
118.409218
 31
0.0
  0
LINE
  8
TITLE
 10
0.5115
 20
7.3755
 30
0.0
 11
82.9785
 21
7.3755
 31
0.0
  0
LINE
  8
OBJECT
 10
29.667749
 20
16.582925
 30
0.0
 11
29.667749
 21
100.207925
 31
0.0
  0
LINE
  8
OBJECT
 10
29.667749
 20
16.582925
 30
0.0
 11
32.667749
 21
16.582925
 31
0.0
  0
LINE
  8
OBJECT
 10
32.667749
 20
16.582925
 30
0.0
 11
32.667749
 21
100.207925
 31
0.0
  0
CIRCLE
  8
OBJECT
 10
31.792749
 20
58.207925
 30
0.0
 40
0.328
  0
CIRCLE
  8
OBJECT
 10
30.542749
 20
58.207925
 30
0.0
 40
0.328
  0
CIRCLE
  8
OBJECT
 10
31.167749
 20
28.207925
 30
0.0
 40
0.0885
  0
CIRCLE
  8
OBJECT
 10
31.167749
 20
40.207925
 30
0.0
 40
0.0885
  0
CIRCLE
  8
OBJECT
 10
31.167749
 20
52.207925
 30
0.0
 40
0.0885
  0
CIRCLE
  8
OBJECT
 10
31.167749
 20
64.207925
 30
0.0
 40
0.0885
  0
CIRCLE
  8
OBJECT
 10
31.167749
 20
76.207925
 30
0.0
 40
0.0885
  0
CIRCLE
  8
OBJECT
 10
31.167749
 20
30.207925
 30
0.0
 40
0.5625
  0
CIRCLE
  8
OBJECT
 10
31.167749
 20
72.582925
 30
0.0
 40
0.5625
  0
CIRCLE
  8
OBJECT
 10
31.792749
 20
82.207925
 30
0.0
 40
0.328
  0
CIRCLE
  8
OBJECT
 10
30.542749
 20
82.207925
 30
0.0
 40
0.328
  0
CIRCLE
  8
OBJECT
 10
30.542749
 20
20.207925
 30
0.0
 40
0.328
  0
CIRCLE
  8
OBJECT
 10
31.792749
 20
20.207925
 30
0.0
 40
0.328
  0
CIRCLE
  8
OBJECT
 10
31.167749
 20
45.832925
 30
0.0
 40
0.328
  0
LINE
  8
HIDDEN
 10
29.854749
 20
16.582925
 30
0.0
 11
29.854749
 21
100.207925
 31
0.0
  0
LINE
  8
HIDDEN
 10
32.480749
 20
16.582925
 30
0.0
 11
32.480749
 21
100.207925
 31
0.0
  0
LINE
  8
HIDDEN
 10
69.722766
 20
100.207925
 30
0.0
 11
69.722766
 21
98.707925
 31
0.0
  0
LINE
  8
HIDDEN
 10
69.722766
 20
16.582925
 30
0.0
 11
70.987766
 21
16.582925
 31
0.0
  0
LINE
  8
OBJECT
 10
70.987766
 20
16.582925
 30
0.0
 11
70.987766
 21
100.207925
 31
0.0
  0
LINE
  8
HIDDEN
 10
70.831766
 20
16.582925
 30
0.0
 11
70.831766
 21
100.207925
 31
0.0
  0
LINE
  8
HIDDEN
 10
50.861766
 20
16.582925
 30
0.0
 11
50.861766
 21
100.207925
 31
0.0
  0
LINE
  8
OBJECT
 10
50.705766
 20
16.582925
 30
0.0
 11
50.705766
 21
100.207925
 31
0.0
  0
LINE
  8
HIDDEN
 10
51.970766
 20
16.582925
 30
0.0
 11
50.705766
 21
16.582925
 31
0.0
  0
LINE
  8
HIDDEN
 10
51.970766
 20
100.207925
 30
0.0
 11
51.970766
 21
98.707925
 31
0.0
  0
CIRCLE
  8
HIDDEN
 10
51.690766
 20
19.270925
 30
0.0
 40
0.1
  0
LINE
  8
OBJECT
 10
70.971766
 20
16.082925
 30
0.0
 11
50.721766
 21
16.082925
 31
0.0
  0
LINE
  8
OBJECT
 10
50.721766
 20
16.082925
 30
0.0
 11
50.721766
 21
19.582925
 31
0.0
  0
LINE
  8
OBJECT
 10
50.721766
 20
19.582925
 30
0.0
 11
70.971766
 21
19.582925
 31
0.0
  0
LINE
  8
OBJECT
 10
70.971766
 20
19.582925
 30
0.0
 11
70.971766
 21
16.082925
 31
0.0
  0
LINE
  8
OBJECT
 10
70.971766
 20
16.332925
 30
0.0
 11
50.721766
 21
16.332925
 31
0.0
  0
LINE
  8
OBJECT
 10
50.721766
 20
107.103862
 30
0.0
 11
70.971766
 21
107.103862
 31
0.0
  0
LINE
  8
OBJECT
 10
70.971766
 20
107.103862
 30
0.0
 11
70.971766
 21
113.103862
 31
0.0
  0
LINE
  8
OBJECT
 10
70.971766
 20
113.103862
 30
0.0
 11
50.721766
 21
113.103862
 31
0.0
  0
LINE
  8
OBJECT
 10
50.721766
 20
113.103862
 30
0.0
 11
50.721766
 21
107.103862
 31
0.0
  0
LINE
  8
HIDDEN
 10
70.971766
 20
112.853862
 30
0.0
 11
50.721766
 21
112.853862
 31
0.0
  0
CIRCLE
  8
OBJECT
 10
52.846766
 20
108.353862
 30
0.0
 40
0.375
  0
CIRCLE
  8
OBJECT
 10
68.846766
 20
108.353862
 30
0.0
 40
0.375
  0
TEXT
  8
DIM
 10
127.018806
 20
30.968896
 30
0.0
 40
0.33325
  1

  0
TEXT
  8
DIM
 10
131.450699
 20
33.776709
 30
0.0
 40
0.33325
  1

  0
LINE
  8
OBJECT
 10
50.721766
 20
113.103862
 30
0.0
 11
50.721766
 21
111.103862
 31
0.0
  0
LINE
  8
OBJECT
 10
50.721766
 20
111.603862
 30
0.0
 11
70.971766
 21
111.603862
 31
0.0
  0
LINE
  8
OBJECT
 10
70.971766
 20
111.103862
 30
0.0
 11
70.971766
 21
113.103862
 31
0.0
  0
LINE
  8
HIDDEN
 10
70.971766
 20
112.916862
 30
0.0
 11
50.721766
 21
112.916862
 31
0.0
  0
LINE
  8
OBJECT
 10
50.721766
 20
100.020925
 30
0.0
 11
70.971766
 21
100.020925
 31
0.0
  0
LINE
  8
OBJECT
 10
50.721766
 20
98.707925
 30
0.0
 11
50.721766
 21
100.207925
 31
0.0
  0
LINE
  8
OBJECT
 10
70.971766
 20
98.707925
 30
0.0
 11
50.721766
 21
98.707925
 31
0.0
  0
LINE
  8
OBJECT
 10
70.971766
 20
100.207925
 30
0.0
 11
70.971766
 21
98.707925
 31
0.0
  0
LINE
  8
OBJECT
 10
50.721766
 20
100.207925
 30
0.0
 11
70.971766
 21
100.207925
 31
0.0
  0
LINE
  8
HIDDEN
 10
70.971766
 20
116.290862
 30
0.0
 11
50.721766
 21
116.290862
 31
0.0
  0
LINE
  8
OBJECT
 10
70.971766
 20
118.103862
 30
0.0
 11
70.971766
 21
116.103862
 31
0.0
  0
LINE
  8
OBJECT
 10
50.721766
 20
117.603862
 30
0.0
 11
70.971766
 21
117.603862
 31
0.0
  0
CIRCLE
  8
OBJECT
 10
68.846766
 20
120.853862
 30
0.0
 40
0.375
  0
LINE
  8
HIDDEN
 10
70.971766
 20
116.353862
 30
0.0
 11
50.721766
 21
116.353862
 31
0.0
  0
LINE
  8
OBJECT
 10
70.971766
 20
116.103862
 30
0.0
 11
50.721766
 21
116.103862
 31
0.0
  0
LINE
  8
OBJECT
 10
70.971766
 20
122.103862
 30
0.0
 11
70.971766
 21
116.103862
 31
0.0
  0
LINE
  8
OBJECT
 10
50.721766
 20
122.103862
 30
0.0
 11
70.971766
 21
122.103862
 31
0.0
  0
CIRCLE
  8
OBJECT
 10
52.846766
 20
120.853862
 30
0.0
 40
0.375
  0
LINE
  8
OBJECT
 10
50.721766
 20
116.103862
 30
0.0
 11
50.721766
 21
122.103862
 31
0.0
  0
LINE
  8
HIDDEN
 10
69.722766
 20
19.582925
 30
0.0
 11
69.722766
 21
16.582925
 31
0.0
  0
LINE
  8
HIDDEN
 10
51.970766
 20
19.582925
 30
0.0
 11
51.970766
 21
16.582925
 31
0.0
  0
LINE
  8
OBJECT
 10
51.970766
 20
98.707925
 30
0.0
 11
51.970766
 21
19.582925
 31
0.0
  0
LINE
  8
OBJECT
 10
69.722766
 20
98.707925
 30
0.0
 11
69.722766
 21
19.582925
 31
0.0
  0
POLYLINE
  8
BEND
 66
     1
 10
0.0
 20
0.0
 30
0.0
 70
     1
  0
VERTEX
  8
BEND
 10
51.627266
 20
19.013347
 30
0.0
 50
270.0
  0
VERTEX
  8
BEND
 10
51.314766
 20
19.193769
 30
0.0
 50
270.0
  0
VERTEX
  8
BEND
 10
51.002266
 20
19.013347
 30
0.0
 50
270.0
  0
VERTEX
  8
BEND
 10
51.002266
 20
18.652503
 30
0.0
 50
270.0
  0
VERTEX
  8
BEND
 10
51.314766
 20
18.472081
 30
0.0
 50
270.0
  0
VERTEX
  8
BEND
 10
51.627266
 20
18.652503
 30
0.0
 50
270.0
  0
SEQEND
  8
BEND
  0
POLYLINE
  8
BEND
 66
     1
 10
0.0
 20
0.0
 30
0.0
 70
     1
  0
VERTEX
  8
BEND
 10
51.002266
 20
17.152503
 30
0.0
 50
90.0
  0
VERTEX
  8
BEND
 10
51.314766
 20
16.972081
 30
0.0
 50
90.0
  0
VERTEX
  8
BEND
 10
51.627266
 20
17.152503
 30
0.0
 50
90.0
  0
VERTEX
  8
BEND
 10
51.627266
 20
17.513347
 30
0.0
 50
90.0
  0
VERTEX
  8
BEND
 10
51.314766
 20
17.693769
 30
0.0
 50
90.0
  0
VERTEX
  8
BEND
 10
51.002266
 20
17.513347
 30
0.0
 50
90.0
  0
SEQEND
  8
BEND
  0
POLYLINE
  8
BEND
 66
     1
 10
0.0
 20
0.0
 30
0.0
 70
     1
  0
VERTEX
  8
BEND
 10
70.691266
 20
19.013347
 30
0.0
 50
270.0
  0
VERTEX
  8
BEND
 10
70.378766
 20
19.193769
 30
0.0
 50
270.0
  0
VERTEX
  8
BEND
 10
70.066266
 20
19.013347
 30
0.0
 50
270.0
  0
VERTEX
  8
BEND
 10
70.066266
 20
18.652503
 30
0.0
 50
270.0
  0
VERTEX
  8
BEND
 10
70.378766
 20
18.472081
 30
0.0
 50
270.0
  0
VERTEX
  8
BEND
 10
70.691266
 20
18.652503
 30
0.0
 50
270.0
  0
SEQEND
  8
BEND
  0
POLYLINE
  8
BEND
 66
     1
 10
0.0
 20
0.0
 30
0.0
 70
     1
  0
VERTEX
  8
BEND
 10
70.066266
 20
17.152503
 30
0.0
 50
90.0
  0
VERTEX
  8
BEND
 10
70.378766
 20
16.972081
 30
0.0
 50
90.0
  0
VERTEX
  8
BEND
 10
70.691266
 20
17.152503
 30
0.0
 50
90.0
  0
VERTEX
  8
BEND
 10
70.691266
 20
17.513347
 30
0.0
 50
90.0
  0
VERTEX
  8
BEND
 10
70.378766
 20
17.693769
 30
0.0
 50
90.0
  0
VERTEX
  8
BEND
 10
70.066266
 20
17.513347
 30
0.0
 50
90.0
  0
SEQEND
  8
BEND
  0
POLYLINE
  8
BEND
 66
     1
 10
0.0
 20
0.0
 30
0.0
 70
     1
  0
VERTEX
  8
BEND
 10
51.627266
 20
99.638347
 30
0.0
 50
270.0
  0
VERTEX
  8
BEND
 10
51.314766
 20
99.818769
 30
0.0
 50
270.0
  0
VERTEX
  8
BEND
 10
51.002266
 20
99.638347
 30
0.0
 50
270.0
  0
VERTEX
  8
BEND
 10
51.002266
 20
99.277503
 30
0.0
 50
270.0
  0
VERTEX
  8
BEND
 10
51.314766
 20
99.097081
 30
0.0
 50
270.0
  0
VERTEX
  8
BEND
 10
51.627266
 20
99.277503
 30
0.0
 50
270.0
  0
SEQEND
  8
BEND
  0
POLYLINE
  8
BEND
 66
     1
 10
0.0
 20
0.0
 30
0.0
 70
     1
  0
VERTEX
  8
BEND
 10
70.691266
 20
99.638347
 30
0.0
 50
270.0
  0
VERTEX
  8
BEND
 10
70.378766
 20
99.818769
 30
0.0
 50
270.0
  0
VERTEX
  8
BEND
 10
70.066266
 20
99.638347
 30
0.0
 50
270.0
  0
VERTEX
  8
BEND
 10
70.066266
 20
99.277503
 30
0.0
 50
270.0
  0
VERTEX
  8
BEND
 10
70.378766
 20
99.097081
 30
0.0
 50
270.0
  0
VERTEX
  8
BEND
 10
70.691266
 20
99.277503
 30
0.0
 50
270.0
  0
SEQEND
  8
BEND
  0
LINE
  8
BEND
 10
29.101749
 20
18.472081
 30
0.0
 11
29.101749
 21
19.193769
 31
0.0
  0
LINE
  8
BEND
 10
29.101749
 20
19.193769
 30
0.0
 11
29.417749
 21
19.193769
 31
0.0
  0
LINE
  8
BEND
 10
29.101749
 20
18.472081
 30
0.0
 11
29.417749
 21
18.472081
 31
0.0
  0
LINE
  8
BEND
 10
29.417749
 20
19.013347
 30
0.0
 11
29.101749
 21
19.013347
 31
0.0
  0
LINE
  8
BEND
 10
29.417749
 20
18.652503
 30
0.0
 11
29.101749
 21
18.652503
 31
0.0
  0
LINE
  8
BEND
 10
32.917749
 20
18.652503
 30
0.0
 11
33.233749
 21
18.652503
 31
0.0
  0
LINE
  8
BEND
 10
32.917749
 20
19.013347
 30
0.0
 11
33.233749
 21
19.013347
 31
0.0
  0
LINE
  8
BEND
 10
33.233749
 20
18.472081
 30
0.0
 11
32.917749
 21
18.472081
 31
0.0
  0
LINE
  8
BEND
 10
33.233749
 20
19.193769
 30
0.0
 11
32.917749
 21
19.193769
 31
0.0
  0
LINE
  8
BEND
 10
33.233749
 20
18.472081
 30
0.0
 11
33.233749
 21
19.193769
 31
0.0
  0
LINE
  8
BEND
 10
33.233749
 20
16.972081
 30
0.0
 11
33.233749
 21
17.693769
 31
0.0
  0
LINE
  8
BEND
 10
33.233749
 20
17.693769
 30
0.0
 11
32.917749
 21
17.693769
 31
0.0
  0
LINE
  8
BEND
 10
33.233749
 20
16.972081
 30
0.0
 11
32.917749
 21
16.972081
 31
0.0
  0
LINE
  8
BEND
 10
32.917749
 20
17.513347
 30
0.0
 11
33.233749
 21
17.513347
 31
0.0
  0
LINE
  8
BEND
 10
32.917749
 20
17.152503
 30
0.0
 11
33.233749
 21
17.152503
 31
0.0
  0
LINE
  8
BEND
 10
29.417749
 20
17.152503
 30
0.0
 11
29.101749
 21
17.152503
 31
0.0
  0
LINE
  8
BEND
 10
29.417749
 20
17.513347
 30
0.0
 11
29.101749
 21
17.513347
 31
0.0
  0
LINE
  8
BEND
 10
29.101749
 20
16.972081
 30
0.0
 11
29.417749
 21
16.972081
 31
0.0
  0
LINE
  8
BEND
 10
29.101749
 20
17.693769
 30
0.0
 11
29.417749
 21
17.693769
 31
0.0
  0
LINE
  8
BEND
 10
29.101749
 20
16.972081
 30
0.0
 11
29.101749
 21
17.693769
 31
0.0
  0
LINE
  8
OBJECT
 10
50.705766
 20
100.207925
 30
0.0
 11
50.721766
 21
100.207925
 31
0.0
  0
LINE
  8
OBJECT
 10
70.987766
 20
100.207925
 30
0.0
 11
70.971766
 21
100.207925
 31
0.0
  0
DIMENSION
  8
DIM
  2
*D1
 10
70.002766
 20
84.27184
 30
0.0
 11
60.846766
 21
84.27184
 31
0.0
  1
B
 13
51.690766
 23
87.020925
 33
0.0
 14
70.002766
 24
87.020925
 34
0.0
  3
23NSTD
  0
DIMENSION
  8
DIM
  2
*D2
 10
51.970766
 20
79.733903
 30
0.0
 11
60.846766
 21
79.733903
 31
0.0
  1
A
 13
69.722766
 23
80.170745
 33
0.0
 14
51.970766
 24
80.170745
 34
0.0
  3
23NSTD
  0
DIMENSION
  8
DIM
  2
*D3
 10
74.676256
 20
16.082925
 30
0.0
 11
74.676256
 21
58.145425
 31
0.0
 13
70.987766
 23
100.207925
 33
0.0
 14
70.971766
 24
16.082925
 34
0.0
 50
270.0
  3
23NSTD
  0
DIMENSION
  8
DIM
  2
*D18
 10
46.000298
 20
20.769925
 30
0.0
 11
46.000298
 21
59.269925
 31
0.0
  1
<> P.S.
 13
51.690766
 23
97.769925
 33
0.0
 14
51.690766
 24
20.769925
 34
0.0
 50
90.0
  3
23NSTD
  0
DIMENSION
  8
DIM
  2
*D17
 10
46.000298
 20
100.207925
 30
0.0
 11
46.000298
 21
98.988925
 31
0.0
 13
51.690766
 23
97.769925
 33
0.0
 14
50.721766
 24
100.207925
 34
0.0
 50
90.0
  3
23NSTDI
  0
DIMENSION
  8
DIM
  2
*D11
 10
42.33613
 20
16.082925
 30
0.0
 11
42.33613
 21
17.832925
 31
0.0
  1
<>
 13
32.667749
 23
19.582925
 33
0.0
 14
38.667749
 24
16.082925
 34
0.0
 50
90.0
  3
23NSTDI
  0
DIMENSION
  8
DIM
  2
*D16
 10
38.667749
 20
12.410133
 30
0.0
 11
35.667749
 21
12.410133
 31
0.0
  1
<>
 13
32.667749
 23
16.457925
 33
0.0
 14
38.667749
 24
16.082925
 34
0.0
  3
23NSTDI
  0
DIMENSION
  8
DIM
  2
*D12
 10
23.667749
 20
14.472633
 30
0.0
 11
26.667749
 21
14.472633
 31
0.0
  1
<>
 13
29.667749
 23
16.457925
 33
0.0
 14
23.667749
 24
16.082925
 34
0.0
  3
23NSTDI
  0
DIMENSION
  8
DIM
  2
*D15
 10
70.971766
 20
103.420206
 30
0.0
 11
60.846766
 21
103.420206
 31
0.0
 12
0.0
 22
-0.914045
 32
0.0
  1
C
 13
50.721766
 23
107.103862
 33
0.0
 14
70.971766
 24
107.103862
 34
0.0
  3
23NSTD
  0
DIMENSION
  8
DIM
  2
*D4
 10
68.846766
 20
105.482706
 30
0.0
 11
60.846766
 21
105.482706
 31
0.0
 12
0.0
 22
-0.914045
 32
0.0
  1
D
 13
52.846766
 23
108.353862
 33
0.0
 14
68.846766
 24
108.353862
 34
0.0
  3
23NSTD
  0
DIMENSION
  8
DIM
  2
*D5
 10
74.305694
 20
108.353862
 30
0.0
 11
74.305694
 21
114.603862
 31
0.0
 12
0.0
 22
-0.914045
 32
0.0
 13
68.846766
 23
120.853862
 33
0.0
 14
68.846766
 24
108.353862
 34
0.0
 50
90.0
  3
23NSTD
  0
DIMENSION
  8
DIM
  2
*D6
 10
78.942194
 20
122.103862
 30
0.0
 11
78.942194
 21
114.603862
 31
0.0
 12
0.0
 22
-0.914045
 32
0.0
 13
70.971766
 23
107.103862
 33
0.0
 14
70.971766
 24
122.103862
 34
0.0
 50
90.0
  3
23NSTD
  0
DIMENSION
  8
DIM
  2
*D7
 10
50.721766
 20
105.482706
 30
0.0
 11
45.591297
 21
105.482706
 31
0.0
 12
0.0
 22
-0.914045
 32
0.0
  1
<>
 13
52.846766
 23
108.353862
 33
0.0
 14
50.721766
 24
107.103862
 34
0.0
  3
23NSTD
  0
CIRCLE
  8
OBJECT
 10
31.167749
 20
88.207925
 30
0.0
 40
0.0885
  0
CIRCLE
  8
OBJECT
 10
51.690766
 20
19.895925
 30
0.0
 40
0.1
  0
CIRCLE
  8
OBJECT
 10
51.690766
 20
20.520925
 30
0.0
 40
0.1
  0
CIRCLE
  8
OBJECT
 10
51.690766
 20
21.645925
 30
0.0
 40
0.1
  0
CIRCLE
  8
OBJECT
 10
51.690766
 20
21.020925
 30
0.0
 40
0.1
  0
CIRCLE
  8
OBJECT
 10
51.690766
 20
22.270925
 30
0.0
 40
0.1
  0
CIRCLE
  8
OBJECT
 10
51.690766
 20
23.395925
 30
0.0
 40
0.1
  0
CIRCLE
  8
OBJECT
 10
51.690766
 20
22.770925
 30
0.0
 40
0.1
  0
CIRCLE
  8
OBJECT
 10
51.690766
 20
24.020925
 30
0.0
 40
0.1
  0
CIRCLE
  8
OBJECT
 10
51.690766
 20
25.145925
 30
0.0
 40
0.1
  0
CIRCLE
  8
OBJECT
 10
51.690766
 20
24.520925
 30
0.0
 40
0.1
  0
CIRCLE
  8
OBJECT
 10
51.690766
 20
25.770925
 30
0.0
 40
0.1
  0
CIRCLE
  8
OBJECT
 10
51.690766
 20
26.895925
 30
0.0
 40
0.1
  0
CIRCLE
  8
OBJECT
 10
51.690766
 20
26.270925
 30
0.0
 40
0.1
  0
CIRCLE
  8
OBJECT
 10
51.690766
 20
27.520925
 30
0.0
 40
0.1
  0
CIRCLE
  8
OBJECT
 10
51.690766
 20
28.645925
 30
0.0
 40
0.1
  0
CIRCLE
  8
OBJECT
 10
51.690766
 20
28.020925
 30
0.0
 40
0.1
  0
CIRCLE
  8
OBJECT
 10
51.690766
 20
29.270925
 30
0.0
 40
0.1
  0
CIRCLE
  8
OBJECT
 10
51.690766
 20
30.395925
 30
0.0
 40
0.1
  0
CIRCLE
  8
OBJECT
 10
51.690766
 20
29.770925
 30
0.0
 40
0.1
  0
CIRCLE
  8
OBJECT
 10
51.690766
 20
31.020925
 30
0.0
 40
0.1
  0
CIRCLE
  8
OBJECT
 10
51.690766
 20
32.145925
 30
0.0
 40
0.1
  0
CIRCLE
  8
OBJECT
 10
51.690766
 20
31.520925
 30
0.0
 40
0.1
  0
CIRCLE
  8
OBJECT
 10
51.690766
 20
32.770925
 30
0.0
 40
0.1
  0
CIRCLE
  8
OBJECT
 10
51.690766
 20
33.895925
 30
0.0
 40
0.1
  0
CIRCLE
  8
OBJECT
 10
51.690766
 20
33.270925
 30
0.0
 40
0.1
  0
CIRCLE
  8
OBJECT
 10
51.690766
 20
34.520925
 30
0.0
 40
0.1
  0
CIRCLE
  8
OBJECT
 10
51.690766
 20
35.645925
 30
0.0
 40
0.1
  0
CIRCLE
  8
OBJECT
 10
51.690766
 20
35.020925
 30
0.0
 40
0.1
  0
CIRCLE
  8
OBJECT
 10
51.690766
 20
36.270925
 30
0.0
 40
0.1
  0
CIRCLE
  8
OBJECT
 10
51.690766
 20
37.395925
 30
0.0
 40
0.1
  0
CIRCLE
  8
OBJECT
 10
51.690766
 20
36.770925
 30
0.0
 40
0.1
  0
CIRCLE
  8
OBJECT
 10
51.690766
 20
38.020925
 30
0.0
 40
0.1
  0
CIRCLE
  8
OBJECT
 10
51.690766
 20
39.145925
 30
0.0
 40
0.1
  0
CIRCLE
  8
OBJECT
 10
51.690766
 20
38.520925
 30
0.0
 40
0.1
  0
CIRCLE
  8
OBJECT
 10
51.690766
 20
39.770925
 30
0.0
 40
0.1
  0
CIRCLE
  8
OBJECT
 10
51.690766
 20
40.895925
 30
0.0
 40
0.1
  0
CIRCLE
  8
OBJECT
 10
51.690766
 20
40.270925
 30
0.0
 40
0.1
  0
CIRCLE
  8
OBJECT
 10
51.690766
 20
41.520925
 30
0.0
 40
0.1
  0
CIRCLE
  8
OBJECT
 10
51.690766
 20
42.645925
 30
0.0
 40
0.1
  0
CIRCLE
  8
OBJECT
 10
51.690766
 20
42.020925
 30
0.0
 40
0.1
  0
CIRCLE
  8
OBJECT
 10
51.690766
 20
43.270925
 30
0.0
 40
0.1
  0
CIRCLE
  8
OBJECT
 10
51.690766
 20
44.395925
 30
0.0
 40
0.1
  0
CIRCLE
  8
OBJECT
 10
51.690766
 20
43.770925
 30
0.0
 40
0.1
  0
CIRCLE
  8
OBJECT
 10
51.690766
 20
45.020925
 30
0.0
 40
0.1
  0
CIRCLE
  8
OBJECT
 10
51.690766
 20
46.145925
 30
0.0
 40
0.1
  0
CIRCLE
  8
OBJECT
 10
51.690766
 20
45.520925
 30
0.0
 40
0.1
  0
CIRCLE
  8
OBJECT
 10
51.690766
 20
46.770925
 30
0.0
 40
0.1
  0
CIRCLE
  8
OBJECT
 10
51.690766
 20
47.895925
 30
0.0
 40
0.1
  0
CIRCLE
  8
OBJECT
 10
51.690766
 20
47.270925
 30
0.0
 40
0.1
  0
CIRCLE
  8
OBJECT
 10
51.690766
 20
48.520925
 30
0.0
 40
0.1
  0
CIRCLE
  8
OBJECT
 10
51.690766
 20
49.645925
 30
0.0
 40
0.1
  0
CIRCLE
  8
OBJECT
 10
51.690766
 20
49.020925
 30
0.0
 40
0.1
  0
CIRCLE
  8
OBJECT
 10
51.690766
 20
50.270925
 30
0.0
 40
0.1
  0
CIRCLE
  8
OBJECT
 10
51.690766
 20
51.395925
 30
0.0
 40
0.1
  0
CIRCLE
  8
OBJECT
 10
51.690766
 20
50.770925
 30
0.0
 40
0.1
  0
CIRCLE
  8
OBJECT
 10
51.690766
 20
52.020925
 30
0.0
 40
0.1
  0
CIRCLE
  8
OBJECT
 10
51.690766
 20
53.145925
 30
0.0
 40
0.1
  0
CIRCLE
  8
OBJECT
 10
51.690766
 20
52.520925
 30
0.0
 40
0.1
  0
CIRCLE
  8
OBJECT
 10
51.690766
 20
53.770925
 30
0.0
 40
0.1
  0
CIRCLE
  8
OBJECT
 10
51.690766
 20
54.895925
 30
0.0
 40
0.1
  0
CIRCLE
  8
OBJECT
 10
51.690766
 20
54.270925
 30
0.0
 40
0.1
  0
CIRCLE
  8
OBJECT
 10
51.690766
 20
55.520925
 30
0.0
 40
0.1
  0
CIRCLE
  8
OBJECT
 10
51.690766
 20
56.645925
 30
0.0
 40
0.1
  0
CIRCLE
  8
OBJECT
 10
51.690766
 20
56.020925
 30
0.0
 40
0.1
  0
CIRCLE
  8
OBJECT
 10
51.690766
 20
57.270925
 30
0.0
 40
0.1
  0
CIRCLE
  8
OBJECT
 10
51.690766
 20
58.395925
 30
0.0
 40
0.1
  0
CIRCLE
  8
OBJECT
 10
51.690766
 20
57.770925
 30
0.0
 40
0.1
  0
CIRCLE
  8
OBJECT
 10
51.690766
 20
59.020925
 30
0.0
 40
0.1
  0
CIRCLE
  8
OBJECT
 10
51.690766
 20
60.145925
 30
0.0
 40
0.1
  0
CIRCLE
  8
OBJECT
 10
51.690766
 20
59.520925
 30
0.0
 40
0.1
  0
CIRCLE
  8
OBJECT
 10
51.690766
 20
60.770925
 30
0.0
 40
0.1
  0
CIRCLE
  8
OBJECT
 10
51.690766
 20
61.895925
 30
0.0
 40
0.1
  0
CIRCLE
  8
OBJECT
 10
51.690766
 20
61.270925
 30
0.0
 40
0.1
  0
CIRCLE
  8
OBJECT
 10
51.690766
 20
62.520925
 30
0.0
 40
0.1
  0
CIRCLE
  8
OBJECT
 10
51.690766
 20
63.645925
 30
0.0
 40
0.1
  0
CIRCLE
  8
OBJECT
 10
51.690766
 20
63.020925
 30
0.0
 40
0.1
  0
CIRCLE
  8
OBJECT
 10
51.690766
 20
64.270925
 30
0.0
 40
0.1
  0
CIRCLE
  8
OBJECT
 10
51.690766
 20
65.395925
 30
0.0
 40
0.1
  0
CIRCLE
  8
OBJECT
 10
51.690766
 20
64.770925
 30
0.0
 40
0.1
  0
CIRCLE
  8
OBJECT
 10
51.690766
 20
66.020925
 30
0.0
 40
0.1
  0
CIRCLE
  8
OBJECT
 10
51.690766
 20
67.145925
 30
0.0
 40
0.1
  0
CIRCLE
  8
OBJECT
 10
51.690766
 20
66.520925
 30
0.0
 40
0.1
  0
CIRCLE
  8
OBJECT
 10
51.690766
 20
67.770925
 30
0.0
 40
0.1
  0
CIRCLE
  8
OBJECT
 10
51.690766
 20
68.895925
 30
0.0
 40
0.1
  0
CIRCLE
  8
OBJECT
 10
51.690766
 20
68.270925
 30
0.0
 40
0.1
  0
CIRCLE
  8
OBJECT
 10
51.690766
 20
69.520925
 30
0.0
 40
0.1
  0
CIRCLE
  8
OBJECT
 10
51.690766
 20
70.645925
 30
0.0
 40
0.1
  0
CIRCLE
  8
OBJECT
 10
51.690766
 20
70.020925
 30
0.0
 40
0.1
  0
CIRCLE
  8
OBJECT
 10
51.690766
 20
71.270925
 30
0.0
 40
0.1
  0
CIRCLE
  8
OBJECT
 10
51.690766
 20
72.395925
 30
0.0
 40
0.1
  0
CIRCLE
  8
OBJECT
 10
51.690766
 20
71.770925
 30
0.0
 40
0.1
  0
CIRCLE
  8
OBJECT
 10
51.690766
 20
73.020925
 30
0.0
 40
0.1
  0
CIRCLE
  8
OBJECT
 10
51.690766
 20
74.145925
 30
0.0
 40
0.1
  0
CIRCLE
  8
OBJECT
 10
51.690766
 20
73.520925
 30
0.0
 40
0.1
  0
CIRCLE
  8
OBJECT
 10
51.690766
 20
74.770925
 30
0.0
 40
0.1
  0
CIRCLE
  8
OBJECT
 10
51.690766
 20
75.895925
 30
0.0
 40
0.1
  0
CIRCLE
  8
OBJECT
 10
51.690766
 20
75.270925
 30
0.0
 40
0.1
  0
CIRCLE
  8
OBJECT
 10
51.690766
 20
76.520925
 30
0.0
 40
0.1
  0
CIRCLE
  8
OBJECT
 10
51.690766
 20
77.645925
 30
0.0
 40
0.1
  0
CIRCLE
  8
OBJECT
 10
51.690766
 20
77.020925
 30
0.0
 40
0.1
  0
CIRCLE
  8
OBJECT
 10
51.690766
 20
78.270925
 30
0.0
 40
0.1
  0
CIRCLE
  8
OBJECT
 10
51.690766
 20
79.395925
 30
0.0
 40
0.1
  0
CIRCLE
  8
OBJECT
 10
51.690766
 20
78.770925
 30
0.0
 40
0.1
  0
CIRCLE
  8
OBJECT
 10
51.690766
 20
80.020925
 30
0.0
 40
0.1
  0
CIRCLE
  8
OBJECT
 10
51.690766
 20
81.145925
 30
0.0
 40
0.1
  0
CIRCLE
  8
OBJECT
 10
51.690766
 20
80.520925
 30
0.0
 40
0.1
  0
CIRCLE
  8
OBJECT
 10
51.690766
 20
81.770925
 30
0.0
 40
0.1
  0
CIRCLE
  8
OBJECT
 10
51.690766
 20
82.895925
 30
0.0
 40
0.1
  0
CIRCLE
  8
OBJECT
 10
51.690766
 20
82.270925
 30
0.0
 40
0.1
  0
CIRCLE
  8
OBJECT
 10
51.690766
 20
83.520925
 30
0.0
 40
0.1
  0
CIRCLE
  8
OBJECT
 10
51.690766
 20
84.645925
 30
0.0
 40
0.1
  0
CIRCLE
  8
OBJECT
 10
51.690766
 20
84.020925
 30
0.0
 40
0.1
  0
CIRCLE
  8
OBJECT
 10
51.690766
 20
85.270925
 30
0.0
 40
0.1
  0
CIRCLE
  8
OBJECT
 10
51.690766
 20
86.395925
 30
0.0
 40
0.1
  0
CIRCLE
  8
OBJECT
 10
51.690766
 20
85.770925
 30
0.0
 40
0.1
  0
CIRCLE
  8
OBJECT
 10
51.690766
 20
87.020925
 30
0.0
 40
0.1
  0
CIRCLE
  8
OBJECT
 10
51.690766
 20
88.145925
 30
0.0
 40
0.1
  0
CIRCLE
  8
OBJECT
 10
51.690766
 20
87.520925
 30
0.0
 40
0.1
  0
CIRCLE
  8
OBJECT
 10
51.690766
 20
88.770925
 30
0.0
 40
0.1
  0
CIRCLE
  8
OBJECT
 10
51.690766
 20
89.895925
 30
0.0
 40
0.1
  0
CIRCLE
  8
OBJECT
 10
51.690766
 20
89.270925
 30
0.0
 40
0.1
  0
CIRCLE
  8
OBJECT
 10
51.690766
 20
90.520925
 30
0.0
 40
0.1
  0
CIRCLE
  8
OBJECT
 10
51.690766
 20
91.645925
 30
0.0
 40
0.1
  0
CIRCLE
  8
OBJECT
 10
51.690766
 20
91.020925
 30
0.0
 40
0.1
  0
CIRCLE
  8
OBJECT
 10
51.690766
 20
92.270925
 30
0.0
 40
0.1
  0
CIRCLE
  8
OBJECT
 10
51.690766
 20
93.395925
 30
0.0
 40
0.1
  0
CIRCLE
  8
OBJECT
 10
51.690766
 20
92.770925
 30
0.0
 40
0.1
  0
CIRCLE
  8
OBJECT
 10
51.690766
 20
94.020925
 30
0.0
 40
0.1
  0
CIRCLE
  8
OBJECT
 10
51.690766
 20
95.145925
 30
0.0
 40
0.1
  0
CIRCLE
  8
OBJECT
 10
51.690766
 20
94.520925
 30
0.0
 40
0.1
  0
CIRCLE
  8
OBJECT
 10
51.690766
 20
95.770925
 30
0.0
 40
0.1
  0
CIRCLE
  8
OBJECT
 10
51.690766
 20
96.895925
 30
0.0
 40
0.1
  0
CIRCLE
  8
OBJECT
 10
51.690766
 20
96.270925
 30
0.0
 40
0.1
  0
CIRCLE
  8
OBJECT
 10
51.690766
 20
97.520925
 30
0.0
 40
0.1
  0
CIRCLE
  8
OBJECT
 10
70.002766
 20
97.520925
 30
0.0
 40
0.1
  0
CIRCLE
  8
OBJECT
 10
70.002766
 20
96.270925
 30
0.0
 40
0.1
  0
CIRCLE
  8
OBJECT
 10
70.002766
 20
96.895925
 30
0.0
 40
0.1
  0
CIRCLE
  8
OBJECT
 10
70.002766
 20
95.770925
 30
0.0
 40
0.1
  0
CIRCLE
  8
OBJECT
 10
70.002766
 20
95.145925
 30
0.0
 40
0.1
  0
CIRCLE
  8
OBJECT
 10
70.002766
 20
94.520925
 30
0.0
 40
0.1
  0
CIRCLE
  8
OBJECT
 10
70.002766
 20
94.020925
 30
0.0
 40
0.1
  0
CIRCLE
  8
OBJECT
 10
70.002766
 20
93.395925
 30
0.0
 40
0.1
  0
CIRCLE
  8
OBJECT
 10
70.002766
 20
92.770925
 30
0.0
 40
0.1
  0
CIRCLE
  8
OBJECT
 10
70.002766
 20
92.270925
 30
0.0
 40
0.1
  0
CIRCLE
  8
OBJECT
 10
70.002766
 20
91.645925
 30
0.0
 40
0.1
  0
CIRCLE
  8
OBJECT
 10
70.002766
 20
91.020925
 30
0.0
 40
0.1
  0
CIRCLE
  8
OBJECT
 10
70.002766
 20
90.520925
 30
0.0
 40
0.1
  0
CIRCLE
  8
OBJECT
 10
70.002766
 20
89.895925
 30
0.0
 40
0.1
  0
CIRCLE
  8
OBJECT
 10
70.002766
 20
89.270925
 30
0.0
 40
0.1
  0
CIRCLE
  8
OBJECT
 10
70.002766
 20
88.770925
 30
0.0
 40
0.1
  0
CIRCLE
  8
OBJECT
 10
70.002766
 20
88.145925
 30
0.0
 40
0.1
  0
CIRCLE
  8
OBJECT
 10
70.002766
 20
87.520925
 30
0.0
 40
0.1
  0
CIRCLE
  8
OBJECT
 10
70.002766
 20
87.020925
 30
0.0
 40
0.1
  0
CIRCLE
  8
OBJECT
 10
70.002766
 20
86.395925
 30
0.0
 40
0.1
  0
CIRCLE
  8
OBJECT
 10
70.002766
 20
85.770925
 30
0.0
 40
0.1
  0
CIRCLE
  8
OBJECT
 10
70.002766
 20
85.270925
 30
0.0
 40
0.1
  0
CIRCLE
  8
OBJECT
 10
70.002766
 20
84.645925
 30
0.0
 40
0.1
  0
CIRCLE
  8
OBJECT
 10
70.002766
 20
84.020925
 30
0.0
 40
0.1
  0
CIRCLE
  8
OBJECT
 10
70.002766
 20
83.520925
 30
0.0
 40
0.1
  0
CIRCLE
  8
OBJECT
 10
70.002766
 20
82.895925
 30
0.0
 40
0.1
  0
CIRCLE
  8
OBJECT
 10
70.002766
 20
82.270925
 30
0.0
 40
0.1
  0
CIRCLE
  8
OBJECT
 10
70.002766
 20
81.770925
 30
0.0
 40
0.1
  0
CIRCLE
  8
OBJECT
 10
70.002766
 20
81.145925
 30
0.0
 40
0.1
  0
CIRCLE
  8
OBJECT
 10
70.002766
 20
80.520925
 30
0.0
 40
0.1
  0
CIRCLE
  8
OBJECT
 10
70.002766
 20
80.020925
 30
0.0
 40
0.1
  0
CIRCLE
  8
OBJECT
 10
70.002766
 20
79.395925
 30
0.0
 40
0.1
  0
CIRCLE
  8
OBJECT
 10
70.002766
 20
78.770925
 30
0.0
 40
0.1
  0
CIRCLE
  8
OBJECT
 10
70.002766
 20
78.270925
 30
0.0
 40
0.1
  0
CIRCLE
  8
OBJECT
 10
70.002766
 20
77.645925
 30
0.0
 40
0.1
  0
CIRCLE
  8
OBJECT
 10
70.002766
 20
77.020925
 30
0.0
 40
0.1
  0
CIRCLE
  8
OBJECT
 10
70.002766
 20
76.520925
 30
0.0
 40
0.1
  0
CIRCLE
  8
OBJECT
 10
70.002766
 20
75.895925
 30
0.0
 40
0.1
  0
CIRCLE
  8
OBJECT
 10
70.002766
 20
75.270925
 30
0.0
 40
0.1
  0
CIRCLE
  8
OBJECT
 10
70.002766
 20
74.770925
 30
0.0
 40
0.1
  0
CIRCLE
  8
OBJECT
 10
70.002766
 20
74.145925
 30
0.0
 40
0.1
  0
CIRCLE
  8
OBJECT
 10
70.002766
 20
73.520925
 30
0.0
 40
0.1
  0
CIRCLE
  8
OBJECT
 10
70.002766
 20
73.020925
 30
0.0
 40
0.1
  0
CIRCLE
  8
OBJECT
 10
70.002766
 20
72.395925
 30
0.0
 40
0.1
  0
CIRCLE
  8
OBJECT
 10
70.002766
 20
71.770925
 30
0.0
 40
0.1
  0
CIRCLE
  8
OBJECT
 10
70.002766
 20
71.270925
 30
0.0
 40
0.1
  0
CIRCLE
  8
OBJECT
 10
70.002766
 20
70.645925
 30
0.0
 40
0.1
  0
CIRCLE
  8
OBJECT
 10
70.002766
 20
70.020925
 30
0.0
 40
0.1
  0
CIRCLE
  8
OBJECT
 10
70.002766
 20
69.520925
 30
0.0
 40
0.1
  0
CIRCLE
  8
OBJECT
 10
70.002766
 20
68.895925
 30
0.0
 40
0.1
  0
CIRCLE
  8
OBJECT
 10
70.002766
 20
68.270925
 30
0.0
 40
0.1
  0
CIRCLE
  8
OBJECT
 10
70.002766
 20
67.770925
 30
0.0
 40
0.1
  0
CIRCLE
  8
OBJECT
 10
70.002766
 20
67.145925
 30
0.0
 40
0.1
  0
CIRCLE
  8
OBJECT
 10
70.002766
 20
66.520925
 30
0.0
 40
0.1
  0
CIRCLE
  8
OBJECT
 10
70.002766
 20
66.020925
 30
0.0
 40
0.1
  0
CIRCLE
  8
OBJECT
 10
70.002766
 20
65.395925
 30
0.0
 40
0.1
  0
CIRCLE
  8
OBJECT
 10
70.002766
 20
64.770925
 30
0.0
 40
0.1
  0
CIRCLE
  8
OBJECT
 10
70.002766
 20
64.270925
 30
0.0
 40
0.1
  0
CIRCLE
  8
OBJECT
 10
70.002766
 20
63.645925
 30
0.0
 40
0.1
  0
CIRCLE
  8
OBJECT
 10
70.002766
 20
63.020925
 30
0.0
 40
0.1
  0
CIRCLE
  8
OBJECT
 10
70.002766
 20
62.520925
 30
0.0
 40
0.1
  0
CIRCLE
  8
OBJECT
 10
70.002766
 20
61.895925
 30
0.0
 40
0.1
  0
CIRCLE
  8
OBJECT
 10
70.002766
 20
61.270925
 30
0.0
 40
0.1
  0
CIRCLE
  8
OBJECT
 10
70.002766
 20
60.770925
 30
0.0
 40
0.1
  0
CIRCLE
  8
OBJECT
 10
70.002766
 20
60.145925
 30
0.0
 40
0.1
  0
CIRCLE
  8
OBJECT
 10
70.002766
 20
59.520925
 30
0.0
 40
0.1
  0
CIRCLE
  8
OBJECT
 10
70.002766
 20
59.020925
 30
0.0
 40
0.1
  0
CIRCLE
  8
OBJECT
 10
70.002766
 20
58.395925
 30
0.0
 40
0.1
  0
CIRCLE
  8
OBJECT
 10
70.002766
 20
57.770925
 30
0.0
 40
0.1
  0
CIRCLE
  8
OBJECT
 10
70.002766
 20
57.270925
 30
0.0
 40
0.1
  0
CIRCLE
  8
OBJECT
 10
70.002766
 20
56.645925
 30
0.0
 40
0.1
  0
CIRCLE
  8
OBJECT
 10
70.002766
 20
56.020925
 30
0.0
 40
0.1
  0
CIRCLE
  8
OBJECT
 10
70.002766
 20
55.520925
 30
0.0
 40
0.1
  0
CIRCLE
  8
OBJECT
 10
70.002766
 20
54.895925
 30
0.0
 40
0.1
  0
CIRCLE
  8
OBJECT
 10
70.002766
 20
54.270925
 30
0.0
 40
0.1
  0
CIRCLE
  8
OBJECT
 10
70.002766
 20
53.770925
 30
0.0
 40
0.1
  0
CIRCLE
  8
OBJECT
 10
70.002766
 20
53.145925
 30
0.0
 40
0.1
  0
CIRCLE
  8
OBJECT
 10
70.002766
 20
52.520925
 30
0.0
 40
0.1
  0
CIRCLE
  8
OBJECT
 10
70.002766
 20
52.020925
 30
0.0
 40
0.1
  0
CIRCLE
  8
OBJECT
 10
70.002766
 20
51.395925
 30
0.0
 40
0.1
  0
CIRCLE
  8
OBJECT
 10
70.002766
 20
50.770925
 30
0.0
 40
0.1
  0
CIRCLE
  8
OBJECT
 10
70.002766
 20
50.270925
 30
0.0
 40
0.1
  0
CIRCLE
  8
OBJECT
 10
70.002766
 20
49.645925
 30
0.0
 40
0.1
  0
CIRCLE
  8
OBJECT
 10
70.002766
 20
49.020925
 30
0.0
 40
0.1
  0
CIRCLE
  8
OBJECT
 10
70.002766
 20
48.520925
 30
0.0
 40
0.1
  0
CIRCLE
  8
OBJECT
 10
70.002766
 20
47.895925
 30
0.0
 40
0.1
  0
CIRCLE
  8
OBJECT
 10
70.002766
 20
47.270925
 30
0.0
 40
0.1
  0
CIRCLE
  8
OBJECT
 10
70.002766
 20
46.770925
 30
0.0
 40
0.1
  0
CIRCLE
  8
OBJECT
 10
70.002766
 20
46.145925
 30
0.0
 40
0.1
  0
CIRCLE
  8
OBJECT
 10
70.002766
 20
45.520925
 30
0.0
 40
0.1
  0
CIRCLE
  8
OBJECT
 10
70.002766
 20
45.020925
 30
0.0
 40
0.1
  0
CIRCLE
  8
OBJECT
 10
70.002766
 20
44.395925
 30
0.0
 40
0.1
  0
CIRCLE
  8
OBJECT
 10
70.002766
 20
43.770925
 30
0.0
 40
0.1
  0
CIRCLE
  8
OBJECT
 10
70.002766
 20
43.270925
 30
0.0
 40
0.1
  0
CIRCLE
  8
OBJECT
 10
70.002766
 20
42.645925
 30
0.0
 40
0.1
  0
CIRCLE
  8
OBJECT
 10
70.002766
 20
42.020925
 30
0.0
 40
0.1
  0
CIRCLE
  8
OBJECT
 10
70.002766
 20
41.520925
 30
0.0
 40
0.1
  0
CIRCLE
  8
OBJECT
 10
70.002766
 20
40.895925
 30
0.0
 40
0.1
  0
CIRCLE
  8
OBJECT
 10
70.002766
 20
40.270925
 30
0.0
 40
0.1
  0
CIRCLE
  8
OBJECT
 10
70.002766
 20
39.770925
 30
0.0
 40
0.1
  0
CIRCLE
  8
OBJECT
 10
70.002766
 20
39.145925
 30
0.0
 40
0.1
  0
CIRCLE
  8
OBJECT
 10
70.002766
 20
38.520925
 30
0.0
 40
0.1
  0
CIRCLE
  8
OBJECT
 10
70.002766
 20
38.020925
 30
0.0
 40
0.1
  0
CIRCLE
  8
OBJECT
 10
70.002766
 20
37.395925
 30
0.0
 40
0.1
  0
CIRCLE
  8
OBJECT
 10
70.002766
 20
36.770925
 30
0.0
 40
0.1
  0
CIRCLE
  8
OBJECT
 10
70.002766
 20
36.270925
 30
0.0
 40
0.1
  0
CIRCLE
  8
OBJECT
 10
70.002766
 20
35.645925
 30
0.0
 40
0.1
  0
CIRCLE
  8
OBJECT
 10
70.002766
 20
35.020925
 30
0.0
 40
0.1
  0
CIRCLE
  8
OBJECT
 10
70.002766
 20
34.520925
 30
0.0
 40
0.1
  0
CIRCLE
  8
OBJECT
 10
70.002766
 20
33.895925
 30
0.0
 40
0.1
  0
CIRCLE
  8
OBJECT
 10
70.002766
 20
33.270925
 30
0.0
 40
0.1
  0
CIRCLE
  8
OBJECT
 10
70.002766
 20
32.770925
 30
0.0
 40
0.1
  0
CIRCLE
  8
OBJECT
 10
70.002766
 20
32.145925
 30
0.0
 40
0.1
  0
CIRCLE
  8
OBJECT
 10
70.002766
 20
31.520925
 30
0.0
 40
0.1
  0
CIRCLE
  8
OBJECT
 10
70.002766
 20
31.020925
 30
0.0
 40
0.1
  0
CIRCLE
  8
OBJECT
 10
70.002766
 20
30.395925
 30
0.0
 40
0.1
  0
CIRCLE
  8
OBJECT
 10
70.002766
 20
29.770925
 30
0.0
 40
0.1
  0
CIRCLE
  8
OBJECT
 10
70.002766
 20
29.270925
 30
0.0
 40
0.1
  0
CIRCLE
  8
OBJECT
 10
70.002766
 20
28.645925
 30
0.0
 40
0.1
  0
CIRCLE
  8
OBJECT
 10
70.002766
 20
28.020925
 30
0.0
 40
0.1
  0
CIRCLE
  8
OBJECT
 10
70.002766
 20
27.520925
 30
0.0
 40
0.1
  0
CIRCLE
  8
OBJECT
 10
70.002766
 20
26.895925
 30
0.0
 40
0.1
  0
CIRCLE
  8
OBJECT
 10
70.002766
 20
26.270925
 30
0.0
 40
0.1
  0
CIRCLE
  8
OBJECT
 10
70.002766
 20
25.770925
 30
0.0
 40
0.1
  0
CIRCLE
  8
OBJECT
 10
70.002766
 20
25.145925
 30
0.0
 40
0.1
  0
CIRCLE
  8
OBJECT
 10
70.002766
 20
24.520925
 30
0.0
 40
0.1
  0
CIRCLE
  8
OBJECT
 10
70.002766
 20
24.020925
 30
0.0
 40
0.1
  0
CIRCLE
  8
OBJECT
 10
70.002766
 20
23.395925
 30
0.0
 40
0.1
  0
CIRCLE
  8
OBJECT
 10
70.002766
 20
22.770925
 30
0.0
 40
0.1
  0
CIRCLE
  8
OBJECT
 10
70.002766
 20
22.270925
 30
0.0
 40
0.1
  0
CIRCLE
  8
OBJECT
 10
70.002766
 20
21.645925
 30
0.0
 40
0.1
  0
CIRCLE
  8
OBJECT
 10
70.002766
 20
21.020925
 30
0.0
 40
0.1
  0
CIRCLE
  8
OBJECT
 10
70.002766
 20
20.520925
 30
0.0
 40
0.1
  0
CIRCLE
  8
OBJECT
 10
70.002766
 20
19.895925
 30
0.0
 40
0.1
  0
CIRCLE
  8
HIDDEN
 10
70.002766
 20
19.270925
 30
0.0
 40
0.1
  0
DIMENSION
  8
DIM
  2
*D8
 10
40.924594
 20
98.707925
 30
0.0
 11
37.408031
 21
95.737925
 31
0.0
  1
<>
 13
34.167749
 23
100.207925
 33
0.0
 14
32.667749
 24
98.707925
 34
0.0
 50
90.0
  3
23NSTD
  0
DIMENSION
  8
DIM
  2
*D13
 10
34.167749
 20
104.088051
 30
0.0
 11
39.169311
 21
104.088051
 31
0.0
  1
<>
 13
32.667749
 23
100.207925
 33
0.0
 14
34.167749
 24
100.207925
 34
0.0
  3
23NSTD
  0
DIMENSION
  8
DIM
  2
*D14
 10
32.667749
 20
106.150551
 30
0.0
 11
37.733764
 21
106.150551
 31
0.0
  1
<>
 13
29.667749
 23
100.207925
 33
0.0
 14
32.667749
 24
100.207925
 34
0.0
  3
23NSTD
  0
DIMENSION
  8
DIM
  2
*D9
 10
28.167749
 20
102.025551
 30
0.0
 11
23.166186
 21
102.025551
 31
0.0
  1
<>
 13
29.667749
 23
100.207925
 33
0.0
 14
28.167749
 24
100.207925
 34
0.0
  3
23NSTD
  0
LINE
  8
OBJECT
 10
32.667749
 20
100.207925
 30
0.0
 11
29.667749
 21
100.207925
 31
0.0
  0
LINE
  8
OBJECT
 10
29.667749
 20
100.207925
 30
0.0
 11
28.167749
 21
100.207925
 31
0.0
  0
LINE
  8
OBJECT
 10
29.293749
 20
100.020925
 30
0.0
 11
28.292749
 21
100.020925
 31
0.0
  0
ARC
  8
OBJECT
 10
28.292749
 20
100.145925
 30
0.0
 40
0.125
 50
180.0
 51
270.0
  0
LINE
  8
OBJECT
 10
28.167749
 20
100.207925
 30
0.0
 11
28.167749
 21
100.145925
 31
0.0
  0
LINE
  8
OBJECT
 10
29.480749
 20
98.832925
 30
0.0
 11
29.480749
 21
99.833925
 31
0.0
  0
LINE
  8
OBJECT
 10
29.667749
 20
98.707925
 30
0.0
 11
29.667749
 21
100.207925
 31
0.0
  0
ARC
  8
OBJECT
 10
29.605749
 20
98.832925
 30
0.0
 40
0.125
 50
180.0
 51
270.0
  0
LINE
  8
OBJECT
 10
29.667749
 20
98.707925
 30
0.0
 11
29.605749
 21
98.707925
 31
0.0
  0
ARC
  8
OBJECT
 10
29.293749
 20
99.833925
 30
0.0
 40
0.187
 50
0.0
 51
90.0
  0
LINE
  8
BEND
 10
29.164749
 20
99.097081
 30
0.0
 11
29.164749
 21
99.818769
 31
0.0
  0
LINE
  8
BEND
 10
29.164749
 20
99.818769
 30
0.0
 11
29.480749
 21
99.818769
 31
0.0
  0
LINE
  8
BEND
 10
29.164749
 20
99.097081
 30
0.0
 11
29.480749
 21
99.097081
 31
0.0
  0
LINE
  8
BEND
 10
29.480749
 20
99.638347
 30
0.0
 11
29.164749
 21
99.638347
 31
0.0
  0
LINE
  8
BEND
 10
29.480749
 20
99.277503
 30
0.0
 11
29.164749
 21
99.277503
 31
0.0
  0
LINE
  8
OBJECT
 10
32.667749
 20
98.707925
 30
0.0
 11
32.667749
 21
100.207925
 31
0.0
  0
LINE
  8
OBJECT
 10
32.854749
 20
98.832925
 30
0.0
 11
32.854749
 21
99.833925
 31
0.0
  0
LINE
  8
OBJECT
 10
32.667749
 20
98.707925
 30
0.0
 11
32.729749
 21
98.707925
 31
0.0
  0
ARC
  8
OBJECT
 10
32.729749
 20
98.832925
 30
0.0
 40
0.125
 50
270.0
 51
0.0
  0
LINE
  8
BEND
 10
32.854749
 20
99.277503
 30
0.0
 11
33.170749
 21
99.277503
 31
0.0
  0
LINE
  8
BEND
 10
32.854749
 20
99.638347
 30
0.0
 11
33.170749
 21
99.638347
 31
0.0
  0
LINE
  8
BEND
 10
33.170749
 20
99.097081
 30
0.0
 11
32.854749
 21
99.097081
 31
0.0
  0
LINE
  8
BEND
 10
33.170749
 20
99.818769
 30
0.0
 11
32.854749
 21
99.818769
 31
0.0
  0
ARC
  8
OBJECT
 10
33.041749
 20
99.833925
 30
0.0
 40
0.187
 50
90.0
 51
180.0
  0
LINE
  8
OBJECT
 10
32.667749
 20
100.207925
 30
0.0
 11
34.167749
 21
100.207925
 31
0.0
  0
LINE
  8
BEND
 10
33.170749
 20
99.097081
 30
0.0
 11
33.170749
 21
99.818769
 31
0.0
  0
LINE
  8
OBJECT
 10
34.167749
 20
100.207925
 30
0.0
 11
34.167749
 21
100.145925
 31
0.0
  0
ARC
  8
OBJECT
 10
34.042749
 20
100.145925
 30
0.0
 40
0.125
 50
270.0
 51
0.0
  0
LINE
  8
OBJECT
 10
33.041749
 20
100.020925
 30
0.0
 11
34.042749
 21
100.020925
 31
0.0
  0
POLYLINE
  8
DIM
 66
     1
 10
0.0
 20
0.0
 30
0.0
 41
0.55674
  0
VERTEX
  8
DIM
 10
52.603994
 20
108.639671
 30
0.0
  0
VERTEX
  8
DIM
 10
51.237624
 20
109.220351
 30
0.0
 41
0.0
  0
VERTEX
  8
DIM
 10
48.524132
 20
110.373532
 30
0.0
 41
0.0
  0
VERTEX
  8
DIM
 10
47.039492
 20
110.373532
 30
0.0
 41
0.0
  0
SEQEND
  8
DIM
  0
TEXT
  8
DIM
 10
40.368922
 20
109.858032
 30
0.0
 40
1.031
  1
0.750 DIA.
 41
0.75
  7
TXT
 72
     2
 11
46.297172
 21
110.373532
 31
0.0
 73
     2
  0
TEXT
  8
DIM
 10
40.111172
 20
108.139699
 30
0.0
 40
1.031
  1
(4) HOLES
 41
0.75
  7
TXT
 72
     2
 11
46.297172
 21
108.655199
 31
0.0
 73
     2
  0
CIRCLE
  8
OBJECT
 10
31.167749
 20
99.457925
 30
0.0
 40
0.2065
  0
CIRCLE
  8
OBJECT
 10
31.167749
 20
97.957925
 30
0.0
 40
0.2065
  0
CIRCLE
  8
OBJECT
 10
31.167749
 20
17.332925
 30
0.0
 40
0.2065
  0
CIRCLE
  8
OBJECT
 10
31.167749
 20
18.832925
 30
0.0
 40
0.2065
  0
CIRCLE
  8
OBJECT
 10
51.314766
 20
97.957925
 30
0.0
 40
0.2065
  0
CIRCLE
  8
OBJECT
 10
70.378766
 20
97.957925
 30
0.0
 40
0.2065
  0
POLYLINE
  8
OBJECT
 66
     1
 10
0.0
 20
0.0
 30
0.0
 70
     1
  0
VERTEX
  8
OBJECT
 10
50.705766
 20
116.103862
 30
0.0
  0
VERTEX
  8
OBJECT
 10
51.970766
 20
116.103862
 30
0.0
  0
VERTEX
  8
OBJECT
 10
51.970766
 20
116.006862
 30
0.0
 42
-0.414214
  0
VERTEX
  8
OBJECT
 10
51.880766
 20
115.916862
 30
0.0
  0
VERTEX
  8
OBJECT
 10
51.079766
 20
115.916862
 30
0.0
 42
0.414214
  0
VERTEX
  8
OBJECT
 10
50.861766
 20
115.698862
 30
0.0
  0
VERTEX
  8
OBJECT
 10
50.861766
 20
113.508862
 30
0.0
 42
0.414214
  0
VERTEX
  8
OBJECT
 10
51.079766
 20
113.290862
 30
0.0
  0
VERTEX
  8
OBJECT
 10
51.880766
 20
113.290862
 30
0.0
 42
-0.414214
  0
VERTEX
  8
OBJECT
 10
51.970766
 20
113.200862
 30
0.0
  0
VERTEX
  8
OBJECT
 10
51.970766
 20
113.103862
 30
0.0
  0
VERTEX
  8
OBJECT
 10
50.705766
 20
113.103862
 30
0.0
  0
SEQEND
  8
OBJECT
  0
POLYLINE
  8
OBJECT
 66
     1
 10
0.0
 20
0.0
 30
0.0
 70
     1
  0
VERTEX
  8
OBJECT
 10
70.987766
 20
116.103862
 30
0.0
  0
VERTEX
  8
OBJECT
 10
69.722766
 20
116.103862
 30
0.0
  0
VERTEX
  8
OBJECT
 10
69.722766
 20
116.006862
 30
0.0
 42
0.414214
  0
VERTEX
  8
OBJECT
 10
69.812766
 20
115.916862
 30
0.0
  0
VERTEX
  8
OBJECT
 10
70.613766
 20
115.916862
 30
0.0
 42
-0.414214
  0
VERTEX
  8
OBJECT
 10
70.831766
 20
115.698862
 30
0.0
  0
VERTEX
  8
OBJECT
 10
70.831766
 20
113.508862
 30
0.0
 42
-0.414214
  0
VERTEX
  8
OBJECT
 10
70.613766
 20
113.290862
 30
0.0
  0
VERTEX
  8
OBJECT
 10
69.812766
 20
113.290862
 30
0.0
 42
0.414214
  0
VERTEX
  8
OBJECT
 10
69.722766
 20
113.200862
 30
0.0
  0
VERTEX
  8
OBJECT
 10
69.722766
 20
113.103862
 30
0.0
  0
VERTEX
  8
OBJECT
 10
70.987766
 20
113.103862
 30
0.0
  0
SEQEND
  8
OBJECT
  0
POLYLINE
  8
OBJECT
 66
     1
 10
0.0
 20
0.0
 30
0.0
 70
     1
  0
VERTEX
  8
OBJECT
 10
29.417749
 20
16.925925
 30
0.0
 42
-0.414214
  0
VERTEX
  8
OBJECT
 10
28.824749
 20
16.332925
 30
0.0
  0
VERTEX
  8
OBJECT
 10
23.917749
 20
16.332925
 30
0.0
 42
0.414214
  0
VERTEX
  8
OBJECT
 10
23.667749
 20
16.082925
 30
0.0
 50
90.0
  0
VERTEX
  8
OBJECT
 10
29.355749
 20
16.082925
 30
0.0
 50
90.0
  0
VERTEX
  8
OBJECT
 10
29.667749
 20
16.394925
 30
0.0
  0
VERTEX
  8
OBJECT
 10
29.667749
 20
19.582925
 30
0.0
 42
0.414213
  0
VERTEX
  8
OBJECT
 10
29.417749
 20
19.332925
 30
0.0
  0
SEQEND
  8
OBJECT
  0
POLYLINE
  8
OBJECT
 66
     1
 10
0.0
 20
0.0
 30
0.0
 70
     1
  0
VERTEX
  8
OBJECT
 10
32.667749
 20
19.582925
 30
0.0
 42
-0.414213
  0
VERTEX
  8
OBJECT
 10
32.917749
 20
19.332925
 30
0.0
  0
VERTEX
  8
OBJECT
 10
32.917749
 20
16.925925
 30
0.0
 42
0.414214
  0
VERTEX
  8
OBJECT
 10
33.510749
 20
16.332925
 30
0.0
  0
VERTEX
  8
OBJECT
 10
38.417749
 20
16.332925
 30
0.0
 42
-0.414214
  0
VERTEX
  8
OBJECT
 10
38.667749
 20
16.082925
 30
0.0
  0
VERTEX
  8
OBJECT
 10
32.979749
 20
16.082925
 30
0.0
  0
VERTEX
  8
OBJECT
 10
32.667749
 20
16.394925
 30
0.0
  0
SEQEND
  8
OBJECT
  0
CIRCLE
  8
OBJECT
 10
31.167749
 20
20.832925
 30
0.0
 40
0.11905
  0
CIRCLE
  8
OBJECT
 10
31.167749
 20
95.957925
 30
0.0
 40
0.11905
  0
TEXT
  8
TEXT
 10
56.184613
 20
13.021663
 30
0.0
 40
1.03125
  1
%%UFRONT & REAR
 41
0.75
  7
TXT
 72
     1
 11
60.709222
 21
13.021663
 31
0.0
  0
DIMENSION
  8
DIM
  2
*D10
 10
76.623944
 20
107.103862
 30
0.0
 11
73.042928
 21
104.133862
 31
0.0
 12
0.0
 22
-0.914045
 32
0.0
 13
68.846766
 23
108.353862
 33
0.0
 14
70.971766
 24
107.103862
 34
0.0
 50
90.0
  3
23NSTD
  0
TEXT
  8
TEXT
 10
2.170781
 20
2.567125
 30
0.0
 40
1.03125
  1
ARR-1294-NF
 41
0.75
  7
TXT
 72
     4
 11
6.166875
 21
3.08275
 31
0.0
  0
TEXT
  8
TEXT
 10
2.170781
 20
0.842875
 30
0.0
 40
1.03125
  1
ARR-1294-BT
 41
0.75
  7
TXT
 72
     4
 11
6.166875
 21
1.3585
 31
0.0
  0
LINE
  8
TITLE
 10
0.5115
 20
3.9435
 30
0.0
 11
82.9785
 21
3.9435
 31
0.0
  0
LINE
  8
TITLE
 10
0.5115
 20
2.2275
 30
0.0
 11
82.9785
 21
2.2275
 31
0.0
  0
LINE
  8
TITLE
 10
71.119125
 20
0.5115
 30
0.0
 11
71.119125
 21
10.8075
 31
0.0
  0
LINE
  8
TITLE
 10
59.25975
 20
0.5115
 30
0.0
 11
59.25975
 21
10.8075
 31
0.0
  0
LINE
  8
TITLE
 10
47.400375
 20
0.5115
 30
0.0
 11
47.400375
 21
10.8075
 31
0.0
  0
LINE
  8
TITLE
 10
35.541
 20
0.5115
 30
0.0
 11
35.541
 21
10.8075
 31
0.0
  0
LINE
  8
TITLE
 10
23.681625
 20
0.5115
 30
0.0
 11
23.681625
 21
10.8075
 31
0.0
  0
LINE
  8
TITLE
 10
11.82225
 20
0.5115
 30
0.0
 11
11.82225
 21
10.8075
 31
0.0
  0
TEXT
  8
TEXT
 10
16.011703
 20
0.837375
 30
0.0
 40
1.03125
  1
77.000
 41
0.75
  7
TXT
 72
     4
 11
17.751938
 21
1.353
 31
0.0
  0
TEXT
  8
TEXT
 10
27.806625
 20
0.842875
 30
0.0
 40
1.03125
  1
84.125
 41
0.75
  7
TXT
 72
     4
 11
29.611313
 21
1.3585
 31
0.0
  0
TEXT
  8
TEXT
 10
16.011703
 20
2.561625
 30
0.0
 40
1.03125
  1
77.000
 41
0.75
  7
TXT
 72
     4
 11
17.751938
 21
3.07725
 31
0.0
  0
TEXT
  8
TEXT
 10
27.806625
 20
2.567125
 30
0.0
 40
1.03125
  1
84.125
 41
0.75
  7
TXT
 72
     4
 11
29.611313
 21
3.08275
 31
0.0
  0
TEXT
  8
TEXT
 10
39.666
 20
0.842875
 30
0.0
 40
1.03125
  1
21.752
 41
0.75
  7
TXT
 72
     4
 11
41.470687
 21
1.3585
 31
0.0
  0
TEXT
  8
TEXT
 10
39.666
 20
4.283125
 30
0.0
 40
1.03125
  1
17.752
 41
0.75
  7
TXT
 72
     4
 11
41.470687
 21
4.79875
 31
0.0
  0
TEXT
  8
TEXT
 10
63.320297
 20
0.842875
 30
0.0
 40
1.03125
  1
24.250
 41
0.75
  7
TXT
 72
     4
 11
65.189437
 21
1.3585
 31
0.0
  0
TEXT
  8
TEXT
 10
51.525375
 20
0.842875
 30
0.0
 40
1.03125
  1
22.312
 41
0.75
  7
TXT
 72
     4
 11
53.330062
 21
1.3585
 31
0.0
  0
TEXT
  8
TEXT
 10
75.373031
 20
0.842875
 30
0.0
 40
1.03125
  1
20.000
 41
0.75
  7
TXT
 72
     4
 11
77.048812
 21
1.3585
 31
0.0
  0
TEXT
  8
TEXT
 10
63.38475
 20
4.283125
 30
0.0
 40
1.03125
  1
20.250
 41
0.75
  7
TXT
 72
     4
 11
65.189437
 21
4.79875
 31
0.0
  0
TEXT
  8
TEXT
 10
51.654281
 20
4.283125
 30
0.0
 40
1.03125
  1
18.312
 41
0.75
  7
TXT
 72
     4
 11
53.330062
 21
4.79875
 31
0.0
  0
TEXT
  8
TEXT
 10
75.437484
 20
4.283125
 30
0.0
 40
1.03125
  1
16.000
 41
0.75
  7
TXT
 72
     4
 11
77.048812
 21
4.79875
 31
0.0
  0
TEXT
  8
TEXT
 10
3.151275
 20
111.507542
 30
0.0
 40
1.03125
  1
(SUFFIX -BT) BLACK TEXTURE
 41
0.75
  7
TXT
  0
TEXT
  8
TEXT
 10
55.64925
 20
125.958654
 30
0.0
 40
1.032
  1
ARR-1272-NF  &  ARR-1272-BT
 41
0.75
  7
TXT
 72
     4
 11
65.71125
 21
126.474654
 31
0.0
  0
TEXT
  8
TEXT
 10
55.64925
 20
124.287846
 30
0.0
 40
1.032
  1
ARR-1294 NF  &  ARR-1294-BT
 41
0.75
  7
TXT
 72
     4
 11
65.71125
 21
124.803846
 31
0.0
  0
TEXT
  8
TEXT
 10
2.298297
 20
96.719005
 30
0.0
 40
1.03125
  1
LOAD RATING:  1000 LBS. MAX.
 41
0.75
  7
TXT
  0
ENDSEC
  0
EOF
