  0
SECTION
  2
HEADER
  9
$ACADVER
  1
AC1009
  9
$INSBASE
 10
0.0
 20
0.0
 30
0.0
  9
$EXTMIN
 10
0.0
 20
0.0
 30
0.0
  9
$EXTMAX
 10
62.0
 20
40.48
 30
0.0
  9
$LIMMIN
 10
0.0
 20
0.0
  9
$LIMMAX
 10
62.0
 20
40.48
  9
$ORTHOMODE
 70
     1
  9
$REGENMODE
 70
     1
  9
$FILLMODE
 70
     1
  9
$QTEXTMODE
 70
     0
  9
$MIRRTEXT
 70
     0
  9
$DRAGMODE
 70
     2
  9
$LTSCALE
 40
1.0
  9
$OSMODE
 70
     0
  9
$ATTMODE
 70
     1
  9
$TEXTSIZE
 40
0.625
  9
$TRACEWID
 40
0.05
  9
$TEXTSTYLE
  7
TXT
  9
$CLAYER
  8
OBJECT
  9
$CELTYPE
  6
BYLAYER
  9
$CECOLOR
 62
   256
  9
$DIMSCALE
 40
4.0
  9
$DIMASZ
 40
0.18
  9
$DIMEXO
 40
0.063
  9
$DIMDLI
 40
0.281
  9
$DIMRND
 40
0.0
  9
$DIMDLE
 40
0.0
  9
$DIMEXE
 40
0.093
  9
$DIMTP
 40
0.0
  9
$DIMTM
 40
0.0
  9
$DIMTXT
 40
0.125
  9
$DIMCEN
 40
0.09
  9
$DIMTSZ
 40
0.0
  9
$DIMTOL
 70
     0
  9
$DIMLIM
 70
     0
  9
$DIMTIH
 70
     1
  9
$DIMTOH
 70
     1
  9
$DIMSE1
 70
     0
  9
$DIMSE2
 70
     0
  9
$DIMTAD
 70
     0
  9
$DIMZIN
 70
     0
  9
$DIMBLK
  1

  9
$DIMASO
 70
     1
  9
$DIMSHO
 70
     1
  9
$DIMPOST
  1

  9
$DIMAPOST
  1

  9
$DIMALT
 70
     0
  9
$DIMALTD
 70
     2
  9
$DIMALTF
 40
25.4
  9
$DIMLFAC
 40
1.0
  9
$DIMTOFL
 70
     0
  9
$DIMTVP
 40
0.0
  9
$DIMTIX
 70
     0
  9
$DIMSOXD
 70
     0
  9
$DIMSAH
 70
     0
  9
$DIMBLK1
  1

  9
$DIMBLK2
  1

  9
$DIMSTYLE
  2
23NSTD
  9
$DIMCLRD
 70
     0
  9
$DIMCLRE
 70
     0
  9
$DIMCLRT
 70
     0
  9
$DIMTFAC
 40
1.0
  9
$DIMGAP
 40
0.09
  9
$LUNITS
 70
     2
  9
$LUPREC
 70
     3
  9
$SKETCHINC
 40
0.1
  9
$FILLETRAD
 40
0.072169
  9
$AUNITS
 70
     0
  9
$AUPREC
 70
     0
  9
$MENU
  1
acad
  9
$ELEVATION
 40
0.0
  9
$PELEVATION
 40
0.0
  9
$THICKNESS
 40
0.0
  9
$LIMCHECK
 70
     0
  9
$BLIPMODE
 70
     1
  9
$CHAMFERA
 40
0.0
  9
$CHAMFERB
 40
0.0
  9
$SKPOLY
 70
     0
  9
$TDCREATE
 40
2450360.375638194
  9
$TDUPDATE
 40
2450945.300870833
  9
$TDINDWG
 40
0.0762306713
  9
$TDUSRTIMER
 40
0.0762306713
  9
$USRTIMER
 70
     1
  9
$ANGBASE
 50
0.0
  9
$ANGDIR
 70
     0
  9
$PDMODE
 70
     0
  9
$PDSIZE
 40
0.0
  9
$PLINEWID
 40
0.0
  9
$COORDS
 70
     0
  9
$SPLFRAME
 70
     0
  9
$SPLINETYPE
 70
     6
  9
$SPLINESEGS
 70
     8
  9
$ATTDIA
 70
     0
  9
$ATTREQ
 70
     1
  9
$HANDLING
 70
     0
  9
$HANDSEED
  5
0
  9
$SURFTAB1
 70
     6
  9
$SURFTAB2
 70
     6
  9
$SURFTYPE
 70
     6
  9
$SURFU
 70
     6
  9
$SURFV
 70
     6
  9
$UCSNAME
  2

  9
$UCSORG
 10
0.0
 20
0.0
 30
0.0
  9
$UCSXDIR
 10
1.0
 20
0.0
 30
0.0
  9
$UCSYDIR
 10
0.0
 20
1.0
 30
0.0
  9
$PUCSNAME
  2

  9
$PUCSORG
 10
0.0
 20
0.0
 30
0.0
  9
$PUCSXDIR
 10
1.0
 20
0.0
 30
0.0
  9
$PUCSYDIR
 10
0.0
 20
1.0
 30
0.0
  9
$USERI1
 70
     0
  9
$USERI2
 70
     0
  9
$USERI3
 70
     0
  9
$USERI4
 70
     0
  9
$USERI5
 70
     0
  9
$USERR1
 40
0.0
  9
$USERR2
 40
0.0
  9
$USERR3
 40
0.0
  9
$USERR4
 40
0.0
  9
$USERR5
 40
0.0
  9
$WORLDVIEW
 70
     1
  9
$SHADEDGE
 70
     3
  9
$SHADEDIF
 70
    70
  9
$TILEMODE
 70
     1
  9
$MAXACTVP
 70
    16
  9
$PINSBASE
 10
0.0
 20
0.0
 30
0.0
  9
$PLIMCHECK
 70
     0
  9
$PEXTMIN
 10
1.000000E+20
 20
1.000000E+20
 30
1.000000E+20
  9
$PEXTMAX
 10
-1.000000E+20
 20
-1.000000E+20
 30
-1.000000E+20
  9
$PLIMMIN
 10
0.0
 20
0.0
  9
$PLIMMAX
 10
12.0
 20
9.0
  9
$UNITMODE
 70
     0
  9
$VISRETAIN
 70
     0
  9
$PLINEGEN
 70
     0
  9
$PSLTSCALE
 70
     1
  9
$TREEDEPTH
 70
  3020
  9
$DWGCODEPAGE
  3
ascii
  0
ENDSEC
  0
SECTION
  2
TABLES
  0
TABLE
  2
VPORT
 70
     2
  0
VPORT
  2
*ACTIVE
 70
     0
 10
0.0
 20
0.0
 11
1.0
 21
1.0
 12
31.0
 22
22.754974
 13
0.0
 23
0.0
 14
2.0
 24
2.0
 15
0.0
 25
0.0
 16
0.0
 26
0.0
 36
1.0
 17
0.0
 27
0.0
 37
0.0
 40
45.509948
 41
1.36234
 42
50.0
 43
0.0
 44
0.0
 50
0.0
 51
0.0
 71
     0
 72
   500
 73
     1
 74
     0
 75
     0
 76
     0
 77
     0
 78
     0
  0
ENDTAB
  0
TABLE
  2
LTYPE
 70
     5
  0
LTYPE
  2
CONTINUOUS
 70
    64
  3
Solid line
 72
    65
 73
     0
 40
0.0
  0
LTYPE
  2
HIDDEN
 70
    64
  3
_ _ _ _ _ _ _ _ _ _ _ _ _ _ _ _ _ _ _ _ _ _ _
 72
    65
 73
     2
 40
0.375
 49
0.25
 49
-0.125
  0
LTYPE
  2
PHANTOM
 70
    64
  3
_____ _ _ _____ _ _ _____ _ _ _____ _ _ ____
 72
    65
 73
     6
 40
2.5
 49
1.25
 49
-0.25
 49
0.25
 49
-0.25
 49
0.25
 49
-0.25
  0
LTYPE
  2
CENTER
 70
    64
  3
____ _ ____ _ ____ _ ____ _ ____ _ ____ _ ____
 72
    65
 73
     4
 40
2.0
 49
1.25
 49
-0.25
 49
0.25
 49
-0.25
  0
LTYPE
  2
HIDDEN2
 70
    64
  3
_ _ _ _ _ _ _ _ _ _ _ _ _ _ _ _ _ _ _ _ _ _ _ _
 72
    65
 73
     2
 40
0.1875
 49
0.125
 49
-0.0625
  0
ENDTAB
  0
TABLE
  2
LAYER
 70
     9
  0
LAYER
  2
0
 70
    64
 62
     7
  6
CONTINUOUS
  0
LAYER
  2
OBJECT
 70
    64
 62
     7
  6
CONTINUOUS
  0
LAYER
  2
DIM
 70
    64
 62
     7
  6
CONTINUOUS
  0
LAYER
  2
HIDDEN
 70
    64
 62
     7
  6
HIDDEN
  0
LAYER
  2
BEND
 70
    64
 62
     7
  6
PHANTOM
  0
LAYER
  2
TEXT
 70
    64
 62
     7
  6
CONTINUOUS
  0
LAYER
  2
TITLE
 70
    64
 62
     7
  6
CONTINUOUS
  0
LAYER
  2
CENTER
 70
    64
 62
     7
  6
CENTER
  0
LAYER
  2
DEFPOINTS
 70
    64
 62
     7
  6
CONTINUOUS
  0
ENDTAB
  0
TABLE
  2
STYLE
 70
     3
  0
STYLE
  2
STANDARD
 70
    64
 40
0.0
 41
1.0
 50
0.0
 71
     0
 42
0.2
  3
txt
  4

  0
STYLE
  2
TXT
 70
    64
 40
0.0
 41
0.75
 50
0.0
 71
     0
 42
0.625
  3
TXT.shx
  4

  0
STYLE
  2
SECTION
 70
    64
 40
0.0
 41
0.8
 50
0.0
 71
     0
 42
0.2
  3
ROMANT.SHX
  4

  0
ENDTAB
  0
TABLE
  2
VIEW
 70
     0
  0
ENDTAB
  0
TABLE
  2
UCS
 70
     0
  0
ENDTAB
  0
TABLE
  2
APPID
 70
     1
  0
APPID
  2
ACAD
 70
    64
  0
ENDTAB
  0
TABLE
  2
DIMSTYLE
 70
     2
  0
DIMSTYLE
  2
23NSTD
 70
    64
  3

  4

  5

  6

  7

 40
4.0
 41
0.18
 42
0.063
 43
0.281
 44
0.093
 45
0.0
 46
0.0
 47
0.0
 48
0.0
140
0.125
141
0.09
142
0.0
143
25.4
144
1.0
145
0.0
146
1.0
147
0.09
 71
     0
 72
     0
 73
     1
 74
     1
 75
     0
 76
     0
 77
     0
 78
     0
170
     0
171
     2
172
     0
173
     0
174
     0
175
     0
176
     0
177
     0
178
     0
  0
DIMSTYLE
  2
23NSTDI
 70
    64
  3

  4

  5

  6

  7

 40
4.0
 41
0.18
 42
0.063
 43
0.281
 44
0.093
 45
0.0
 46
0.0
 47
0.0
 48
0.0
140
0.125
141
0.09
142
0.0
143
25.4
144
1.0
145
0.0
146
1.0
147
0.09
 71
     0
 72
     0
 73
     1
 74
     1
 75
     0
 76
     0
 77
     0
 78
     0
170
     0
171
     2
172
     0
173
     0
174
     1
175
     0
176
     0
177
     0
178
     0
  0
ENDTAB
  0
ENDSEC
  0
SECTION
  2
BLOCKS
  0
BLOCK
  8
0
  2
SECTION
 70
    66
 10
0.0
 20
0.0
 30
0.0
  3
SECTION
  0
ATTDEF
  8
0
 10
-0.125
 20
0.671429
 30
0.0
 40
0.25
  1

  3
Enter section
  2
SECTION
 70
     0
 50
270.0
 41
0.8
  7
SECTION
 72
     4
 11
0.0
 21
0.0
 31
0.0
  0
ENDBLK
  8
0
  0
BLOCK
  8
0
  2
*D1
 70
    65
 10
0.0
 20
0.0
 30
0.0
  3
*D
  0
LINE
  8
0
  6
BYBLOCK
 62
     0
 10
50.177198
 20
20.609214
 30
0.0
 11
44.092142
 21
20.609214
 31
0.0
  0
LINE
  8
0
  6
BYBLOCK
 62
     0
 10
45.317698
 20
19.859214
 30
0.0
 11
44.092142
 21
19.859214
 31
0.0
  0
LINE
  8
0
  6
BYBLOCK
 62
     0
 10
44.464142
 20
21.329214
 30
0.0
 11
44.464142
 21
22.049214
 31
0.0
  0
LINE
  8
0
  6
BYBLOCK
 62
     0
 10
44.464142
 20
19.139214
 30
0.0
 11
44.464142
 21
18.419214
 31
0.0
  0
SOLID
  8
0
  6
BYBLOCK
 62
     0
 10
44.344142
 20
21.329214
 30
0.0
 11
44.584142
 21
21.329214
 31
0.0
 12
44.464142
 22
20.609214
 32
0.0
 13
44.464142
 23
20.609214
 33
0.0
  0
SOLID
  8
0
  6
BYBLOCK
 62
     0
 10
44.344142
 20
19.139214
 30
0.0
 11
44.584142
 21
19.139214
 31
0.0
 12
44.464142
 22
19.859214
 32
0.0
 13
44.464142
 23
19.859214
 33
0.0
  0
TEXT
  8
0
  6
BYBLOCK
 62
     0
 10
43.776642
 20
19.984214
 30
0.0
 40
0.5
  1
0.750
 41
0.75
  7
TXT
 72
     1
 11
44.464142
 21
20.234214
 31
0.0
 73
     2
  0
POINT
  8
DEFPOINTS
  6
BYBLOCK
 62
     0
 10
50.429198
 20
20.609214
 30
0.0
  0
POINT
  8
DEFPOINTS
  6
BYBLOCK
 62
     0
 10
45.569698
 20
19.859214
 30
0.0
  0
POINT
  8
DEFPOINTS
  6
BYBLOCK
 62
     0
 10
44.464142
 20
19.859214
 30
0.0
  0
ENDBLK
  8
0
  0
BLOCK
  8
0
  2
*D2
 70
    65
 10
0.0
 20
0.0
 30
0.0
  3
*D
  0
LINE
  8
0
  6
BYBLOCK
 62
     0
 10
50.429198
 20
20.357214
 30
0.0
 11
50.429198
 21
18.618689
 31
0.0
  0
LINE
  8
0
  6
BYBLOCK
 62
     0
 10
55.394198
 20
19.642096
 30
0.0
 11
55.394198
 21
18.618689
 31
0.0
  0
LINE
  8
0
  6
BYBLOCK
 62
     0
 10
51.149198
 20
18.990689
 30
0.0
 11
51.801698
 21
18.990689
 31
0.0
  0
LINE
  8
0
  6
BYBLOCK
 62
     0
 10
54.674198
 20
18.990689
 30
0.0
 11
54.021698
 21
18.990689
 31
0.0
  0
SOLID
  8
0
  6
BYBLOCK
 62
     0
 10
51.149198
 20
19.110689
 30
0.0
 11
51.149198
 21
18.870689
 31
0.0
 12
50.429198
 22
18.990689
 32
0.0
 13
50.429198
 23
18.990689
 33
0.0
  0
SOLID
  8
0
  6
BYBLOCK
 62
     0
 10
54.674198
 20
19.110689
 30
0.0
 11
54.674198
 21
18.870689
 31
0.0
 12
55.394198
 22
18.990689
 32
0.0
 13
55.394198
 23
18.990689
 33
0.0
  0
TEXT
  8
0
  6
BYBLOCK
 62
     0
 10
52.161698
 20
18.740689
 30
0.0
 40
0.5
  1
4.965
 41
0.75
  7
TXT
 72
     1
 11
52.911698
 21
18.990689
 31
0.0
 73
     2
  0
POINT
  8
DEFPOINTS
  6
BYBLOCK
 62
     0
 10
50.429198
 20
20.609214
 30
0.0
  0
POINT
  8
DEFPOINTS
  6
BYBLOCK
 62
     0
 10
55.394198
 20
19.894096
 30
0.0
  0
POINT
  8
DEFPOINTS
  6
BYBLOCK
 62
     0
 10
55.394198
 20
18.990689
 30
0.0
  0
ENDBLK
  8
0
  0
BLOCK
  8
0
  2
*D3
 70
    65
 10
0.0
 20
0.0
 30
0.0
  3
*D
  0
LINE
  8
0
  6
BYBLOCK
 62
     0
 10
45.554198
 20
25.353096
 30
0.0
 11
45.554198
 21
26.48692
 31
0.0
  0
LINE
  8
0
  6
BYBLOCK
 62
     0
 10
55.304198
 20
25.353096
 30
0.0
 11
55.304198
 21
26.48692
 31
0.0
  0
LINE
  8
0
  6
BYBLOCK
 62
     0
 10
46.274198
 20
26.11492
 30
0.0
 11
49.350448
 21
26.11492
 31
0.0
  0
LINE
  8
0
  6
BYBLOCK
 62
     0
 10
54.584198
 20
26.11492
 30
0.0
 11
51.507948
 21
26.11492
 31
0.0
  0
SOLID
  8
0
  6
BYBLOCK
 62
     0
 10
46.274198
 20
26.23492
 30
0.0
 11
46.274198
 21
25.99492
 31
0.0
 12
45.554198
 22
26.11492
 32
0.0
 13
45.554198
 23
26.11492
 33
0.0
  0
SOLID
  8
0
  6
BYBLOCK
 62
     0
 10
54.584198
 20
26.23492
 30
0.0
 11
54.584198
 21
25.99492
 31
0.0
 12
55.304198
 22
26.11492
 32
0.0
 13
55.304198
 23
26.11492
 33
0.0
  0
TEXT
  8
0
  6
BYBLOCK
 62
     0
 10
49.710448
 20
25.86492
 30
0.0
 40
0.5
  1
9.750
 41
0.75
  7
TXT
 72
     1
 11
50.429198
 21
26.11492
 31
0.0
 73
     2
  0
POINT
  8
DEFPOINTS
  6
BYBLOCK
 62
     0
 10
45.554198
 20
25.101096
 30
0.0
  0
POINT
  8
DEFPOINTS
  6
BYBLOCK
 62
     0
 10
55.304198
 20
25.101096
 30
0.0
  0
POINT
  8
DEFPOINTS
  6
BYBLOCK
 62
     0
 10
55.304198
 20
26.11492
 30
0.0
  0
ENDBLK
  8
0
  0
BLOCK
  8
0
  2
*D4
 70
    65
 10
0.0
 20
0.0
 30
0.0
  3
*D
  0
LINE
  8
0
  6
BYBLOCK
 62
     0
 10
45.464198
 20
25.353096
 30
0.0
 11
45.464198
 21
27.61092
 31
0.0
  0
LINE
  8
0
  6
BYBLOCK
 62
     0
 10
55.394198
 20
25.353096
 30
0.0
 11
55.394198
 21
27.61092
 31
0.0
  0
LINE
  8
0
  6
BYBLOCK
 62
     0
 10
46.184198
 20
27.23892
 30
0.0
 11
49.350448
 21
27.23892
 31
0.0
  0
LINE
  8
0
  6
BYBLOCK
 62
     0
 10
54.674198
 20
27.23892
 30
0.0
 11
51.507948
 21
27.23892
 31
0.0
  0
SOLID
  8
0
  6
BYBLOCK
 62
     0
 10
46.184198
 20
27.35892
 30
0.0
 11
46.184198
 21
27.11892
 31
0.0
 12
45.464198
 22
27.23892
 32
0.0
 13
45.464198
 23
27.23892
 33
0.0
  0
SOLID
  8
0
  6
BYBLOCK
 62
     0
 10
54.674198
 20
27.35892
 30
0.0
 11
54.674198
 21
27.11892
 31
0.0
 12
55.394198
 22
27.23892
 32
0.0
 13
55.394198
 23
27.23892
 33
0.0
  0
TEXT
  8
0
  6
BYBLOCK
 62
     0
 10
49.710448
 20
26.98892
 30
0.0
 40
0.5
  1
9.930
 41
0.75
  7
TXT
 72
     1
 11
50.429198
 21
27.23892
 31
0.0
 73
     2
  0
POINT
  8
DEFPOINTS
  6
BYBLOCK
 62
     0
 10
45.464198
 20
25.101096
 30
0.0
  0
POINT
  8
DEFPOINTS
  6
BYBLOCK
 62
     0
 10
55.394198
 20
25.101096
 30
0.0
  0
POINT
  8
DEFPOINTS
  6
BYBLOCK
 62
     0
 10
55.394198
 20
27.23892
 30
0.0
  0
ENDBLK
  8
0
  0
BLOCK
  8
0
  2
*D5
 70
    65
 10
0.0
 20
0.0
 30
0.0
  3
*D
  0
LINE
  8
0
  6
BYBLOCK
 62
     0
 10
3.098756
 20
19.757096
 30
0.0
 11
1.874409
 21
19.757096
 31
0.0
  0
LINE
  8
0
  6
BYBLOCK
 62
     0
 10
3.098756
 20
24.035081
 30
0.0
 11
1.874409
 21
24.035081
 31
0.0
  0
LINE
  8
0
  6
BYBLOCK
 62
     0
 10
2.246409
 20
20.477096
 30
0.0
 11
2.246409
 21
21.286088
 31
0.0
  0
LINE
  8
0
  6
BYBLOCK
 62
     0
 10
2.246409
 20
23.315081
 30
0.0
 11
2.246409
 21
22.506088
 31
0.0
  0
SOLID
  8
0
  6
BYBLOCK
 62
     0
 10
2.126409
 20
20.477096
 30
0.0
 11
2.366409
 21
20.477096
 31
0.0
 12
2.246409
 22
19.757096
 32
0.0
 13
2.246409
 23
19.757096
 33
0.0
  0
SOLID
  8
0
  6
BYBLOCK
 62
     0
 10
2.126409
 20
23.315081
 30
0.0
 11
2.366409
 21
23.315081
 31
0.0
 12
2.246409
 22
24.035081
 32
0.0
 13
2.246409
 23
24.035081
 33
0.0
  0
TEXT
  8
0
  6
BYBLOCK
 62
     0
 10
1.496409
 20
21.646088
 30
0.0
 40
0.5
  1
4.278
 41
0.75
  7
TXT
 72
     1
 11
2.246409
 21
21.896088
 31
0.0
 73
     2
  0
POINT
  8
DEFPOINTS
  6
BYBLOCK
 62
     0
 10
3.350756
 20
19.757096
 30
0.0
  0
POINT
  8
DEFPOINTS
  6
BYBLOCK
 62
     0
 10
3.350756
 20
24.035081
 30
0.0
  0
POINT
  8
DEFPOINTS
  6
BYBLOCK
 62
     0
 10
2.246409
 20
24.035081
 30
0.0
  0
ENDBLK
  8
0
  0
BLOCK
  8
0
  2
*D6
 70
    65
 10
0.0
 20
0.0
 30
0.0
  3
*D
  0
LINE
  8
0
  6
BYBLOCK
 62
     0
 10
3.283876
 20
24.245109
 30
0.0
 11
2.919836
 21
25.567616
 31
0.0
  0
LINE
  8
0
  6
BYBLOCK
 62
     0
 10
7.377876
 20
25.372044
 30
0.0
 11
7.013836
 21
26.694552
 31
0.0
  0
LINE
  8
0
  6
BYBLOCK
 62
     0
 10
2.324382
 20
25.017872
 30
0.0
 11
1.630201
 21
24.826788
 31
0.0
  0
LINE
  8
0
  6
BYBLOCK
 62
     0
 10
7.806743
 20
26.526975
 30
0.0
 11
8.500924
 21
26.718059
 31
0.0
  0
SOLID
  8
0
  6
BYBLOCK
 62
     0
 10
2.292534
 20
25.133569
 30
0.0
 11
2.356229
 21
24.902175
 31
0.0
 12
3.018563
 22
25.208956
 32
0.0
 13
3.018563
 23
25.208956
 33
0.0
  0
SOLID
  8
0
  6
BYBLOCK
 62
     0
 10
7.774896
 20
26.642672
 30
0.0
 11
7.838591
 21
26.411279
 31
0.0
 12
7.112563
 22
26.335892
 32
0.0
 13
7.112563
 23
26.335892
 33
0.0
  0
TEXT
  8
0
  6
BYBLOCK
 62
     0
 10
4.315563
 20
25.522424
 30
0.0
 40
0.5
  1
4.246
 41
0.75
  7
TXT
 72
     1
 11
5.065563
 21
25.772424
 31
0.0
 73
     2
  0
POINT
  8
DEFPOINTS
  6
BYBLOCK
 62
     0
 10
3.350756
 20
24.002145
 30
0.0
  0
POINT
  8
DEFPOINTS
  6
BYBLOCK
 62
     0
 10
7.444756
 20
25.129081
 30
0.0
  0
POINT
  8
DEFPOINTS
  6
BYBLOCK
 62
     0
 10
7.112563
 20
26.335892
 30
0.0
  0
ENDBLK
  8
0
  0
BLOCK
  8
0
  2
*D7
 70
    65
 10
0.0
 20
0.0
 30
0.0
  3
*D
  0
LINE
  8
0
  6
BYBLOCK
 62
     0
 10
7.688117
 20
25.194497
 30
0.0
 11
10.42602
 21
25.930445
 31
0.0
  0
LINE
  8
0
  6
BYBLOCK
 62
     0
 10
8.360117
 20
22.694497
 30
0.0
 11
11.09802
 21
23.430445
 31
0.0
  0
LINE
  8
0
  6
BYBLOCK
 62
     0
 10
9.87987
 20
26.529198
 30
0.0
 11
9.692969
 21
27.224516
 31
0.0
  0
LINE
  8
0
  6
BYBLOCK
 62
     0
 10
10.925674
 20
22.638561
 30
0.0
 11
11.112575
 21
21.943242
 31
0.0
  0
SOLID
  8
0
  6
BYBLOCK
 62
     0
 10
9.995757
 20
26.560348
 30
0.0
 11
9.763984
 21
26.498047
 31
0.0
 12
10.066772
 22
25.833879
 32
0.0
 13
10.066772
 23
25.833879
 33
0.0
  0
SOLID
  8
0
  6
BYBLOCK
 62
     0
 10
11.04156
 20
22.669711
 30
0.0
 11
10.809787
 21
22.60741
 31
0.0
 12
10.738772
 22
23.333879
 32
0.0
 13
10.738772
 23
23.333879
 33
0.0
  0
TEXT
  8
0
  6
BYBLOCK
 62
     0
 10
9.652772
 20
24.333879
 30
0.0
 40
0.5
  1
2.589
 41
0.75
  7
TXT
 72
     1
 11
10.402772
 21
24.583879
 31
0.0
 73
     2
  0
POINT
  8
DEFPOINTS
  6
BYBLOCK
 62
     0
 10
7.444756
 20
25.129081
 30
0.0
  0
POINT
  8
DEFPOINTS
  6
BYBLOCK
 62
     0
 10
8.116756
 20
22.629081
 30
0.0
  0
POINT
  8
DEFPOINTS
  6
BYBLOCK
 62
     0
 10
10.738772
 20
23.333879
 30
0.0
  0
ENDBLK
  8
0
  0
BLOCK
  8
0
  2
*D8
 70
    65
 10
0.0
 20
0.0
 30
0.0
  3
*D
  0
LINE
  8
0
  6
BYBLOCK
 62
     0
 10
8.182139
 20
22.872451
 30
0.0
 11
9.522774
 21
27.862594
 31
0.0
  0
LINE
  8
0
  6
BYBLOCK
 62
     0
 10
12.135139
 20
21.810451
 30
0.0
 11
13.475774
 21
26.800594
 31
0.0
  0
LINE
  8
0
  6
BYBLOCK
 62
     0
 10
8.730913
 20
27.690142
 30
0.0
 11
8.035569
 21
27.876951
 31
0.0
  0
LINE
  8
0
  6
BYBLOCK
 62
     0
 10
14.0746
 20
26.254525
 30
0.0
 11
14.769943
 21
26.067716
 31
0.0
  0
SOLID
  8
0
  6
BYBLOCK
 62
     0
 10
8.762047
 20
27.806033
 30
0.0
 11
8.699778
 21
27.574251
 31
0.0
 12
9.426256
 22
27.503333
 32
0.0
 13
9.426256
 23
27.503333
 33
0.0
  0
SOLID
  8
0
  6
BYBLOCK
 62
     0
 10
14.105734
 20
26.370415
 30
0.0
 11
14.043465
 21
26.138634
 31
0.0
 12
13.379256
 22
26.441333
 32
0.0
 13
13.379256
 23
26.441333
 33
0.0
  0
TEXT
  8
0
  6
BYBLOCK
 62
     0
 10
10.684006
 20
26.722333
 30
0.0
 40
0.5
  1
4.093
 41
0.75
  7
TXT
 72
     1
 11
11.402756
 21
26.972333
 31
0.0
 73
     2
  0
POINT
  8
DEFPOINTS
  6
BYBLOCK
 62
     0
 10
8.116756
 20
22.629081
 30
0.0
  0
POINT
  8
DEFPOINTS
  6
BYBLOCK
 62
     0
 10
12.069756
 20
21.567081
 30
0.0
  0
POINT
  8
DEFPOINTS
  6
BYBLOCK
 62
     0
 10
13.379256
 20
26.441333
 30
0.0
  0
ENDBLK
  8
0
  0
BLOCK
  8
0
  2
*D9
 70
    65
 10
0.0
 20
0.0
 30
0.0
  3
*D
  0
LINE
  8
0
  6
BYBLOCK
 62
     0
 10
11.828726
 20
19.691939
 30
0.0
 11
13.318738
 21
19.293122
 31
0.0
  0
LINE
  8
0
  6
BYBLOCK
 62
     0
 10
12.313186
 20
21.501924
 30
0.0
 11
13.803199
 21
21.103108
 31
0.0
  0
LINE
  8
0
  6
BYBLOCK
 62
     0
 10
12.773226
 20
18.693789
 30
0.0
 11
12.587064
 21
17.998272
 31
0.0
  0
LINE
  8
0
  6
BYBLOCK
 62
     0
 10
13.63001
 20
21.894808
 30
0.0
 11
13.816173
 21
22.590325
 31
0.0
  0
SOLID
  8
0
  6
BYBLOCK
 62
     0
 10
12.657306
 20
18.724816
 30
0.0
 11
12.889145
 21
18.662762
 31
0.0
 12
12.959388
 22
19.389306
 32
0.0
 13
12.959388
 23
19.389306
 33
0.0
  0
SOLID
  8
0
  6
BYBLOCK
 62
     0
 10
13.514091
 20
21.925835
 30
0.0
 11
13.74593
 21
21.863781
 31
0.0
 12
13.443848
 22
21.199291
 32
0.0
 13
13.443848
 23
21.199291
 33
0.0
  0
TEXT
  8
0
  6
BYBLOCK
 62
     0
 10
12.514118
 20
20.044299
 30
0.0
 40
0.5
  1
1.874
 41
0.75
  7
TXT
 72
     1
 11
13.201618
 21
20.294299
 31
0.0
 73
     2
  0
POINT
  8
DEFPOINTS
  6
BYBLOCK
 62
     0
 10
11.585295
 20
19.757096
 30
0.0
  0
POINT
  8
DEFPOINTS
  6
BYBLOCK
 62
     0
 10
12.069756
 20
21.567081
 30
0.0
  0
POINT
  8
DEFPOINTS
  6
BYBLOCK
 62
     0
 10
13.443848
 20
21.199291
 30
0.0
  0
ENDBLK
  8
0
  0
BLOCK
  8
0
  2
*D10
 70
    65
 10
0.0
 20
0.0
 30
0.0
  3
*D
  0
LINE
  8
0
  6
BYBLOCK
 62
     0
 10
3.350756
 20
19.505096
 30
0.0
 11
3.350756
 21
18.588477
 31
0.0
  0
LINE
  8
0
  6
BYBLOCK
 62
     0
 10
11.585295
 20
19.505096
 30
0.0
 11
11.585295
 21
18.588477
 31
0.0
  0
LINE
  8
0
  6
BYBLOCK
 62
     0
 10
4.070756
 20
18.960477
 30
0.0
 11
6.358025
 21
18.960477
 31
0.0
  0
LINE
  8
0
  6
BYBLOCK
 62
     0
 10
10.865295
 20
18.960477
 30
0.0
 11
8.578025
 21
18.960477
 31
0.0
  0
SOLID
  8
0
  6
BYBLOCK
 62
     0
 10
4.070756
 20
19.080477
 30
0.0
 11
4.070756
 21
18.840477
 31
0.0
 12
3.350756
 22
18.960477
 32
0.0
 13
3.350756
 23
18.960477
 33
0.0
  0
SOLID
  8
0
  6
BYBLOCK
 62
     0
 10
10.865295
 20
19.080477
 30
0.0
 11
10.865295
 21
18.840477
 31
0.0
 12
11.585295
 22
18.960477
 32
0.0
 13
11.585295
 23
18.960477
 33
0.0
  0
TEXT
  8
0
  6
BYBLOCK
 62
     0
 10
6.718025
 20
18.710477
 30
0.0
 40
0.5
  1
8.235
 41
0.75
  7
TXT
 72
     1
 11
7.468025
 21
18.960477
 31
0.0
 73
     2
  0
POINT
  8
DEFPOINTS
  6
BYBLOCK
 62
     0
 10
3.350756
 20
19.757096
 30
0.0
  0
POINT
  8
DEFPOINTS
  6
BYBLOCK
 62
     0
 10
11.585295
 20
19.757096
 30
0.0
  0
POINT
  8
DEFPOINTS
  6
BYBLOCK
 62
     0
 10
11.585295
 20
18.960477
 30
0.0
  0
ENDBLK
  8
0
  0
BLOCK
  8
0
  2
*D11
 70
    65
 10
0.0
 20
0.0
 30
0.0
  3
*D
  0
LINE
  8
0
  6
BYBLOCK
 62
     0
 10
3.350756
 20
19.505096
 30
0.0
 11
3.350756
 21
17.464477
 31
0.0
  0
LINE
  8
0
  6
BYBLOCK
 62
     0
 10
12.041716
 20
21.226764
 30
0.0
 11
12.041716
 21
17.464477
 31
0.0
  0
LINE
  8
0
  6
BYBLOCK
 62
     0
 10
4.070756
 20
17.836477
 30
0.0
 11
6.648736
 21
17.836477
 31
0.0
  0
LINE
  8
0
  6
BYBLOCK
 62
     0
 10
11.321716
 20
17.836477
 30
0.0
 11
8.743736
 21
17.836477
 31
0.0
  0
SOLID
  8
0
  6
BYBLOCK
 62
     0
 10
4.070756
 20
17.956477
 30
0.0
 11
4.070756
 21
17.716477
 31
0.0
 12
3.350756
 22
17.836477
 32
0.0
 13
3.350756
 23
17.836477
 33
0.0
  0
SOLID
  8
0
  6
BYBLOCK
 62
     0
 10
11.321716
 20
17.956477
 30
0.0
 11
11.321716
 21
17.716477
 31
0.0
 12
12.041716
 22
17.836477
 32
0.0
 13
12.041716
 23
17.836477
 33
0.0
  0
TEXT
  8
0
  6
BYBLOCK
 62
     0
 10
7.008736
 20
17.586477
 30
0.0
 40
0.5
  1
8.691
 41
0.75
  7
TXT
 72
     1
 11
7.696236
 21
17.836477
 31
0.0
 73
     2
  0
POINT
  8
DEFPOINTS
  6
BYBLOCK
 62
     0
 10
3.350756
 20
19.757096
 30
0.0
  0
POINT
  8
DEFPOINTS
  6
BYBLOCK
 62
     0
 10
12.041716
 20
21.478764
 30
0.0
  0
POINT
  8
DEFPOINTS
  6
BYBLOCK
 62
     0
 10
12.041716
 20
17.836477
 30
0.0
  0
ENDBLK
  8
0
  0
BLOCK
  8
0
  2
*D12
 70
    65
 10
0.0
 20
0.0
 30
0.0
  3
*D
  0
LINE
  8
0
  6
BYBLOCK
 62
     0
 10
25.88721
 20
25.101096
 30
0.0
 11
27.381301
 21
25.101096
 31
0.0
  0
LINE
  8
0
  6
BYBLOCK
 62
     0
 10
25.75021
 20
19.757096
 30
0.0
 11
27.381301
 21
19.757096
 31
0.0
  0
LINE
  8
0
  6
BYBLOCK
 62
     0
 10
27.009301
 20
24.381096
 30
0.0
 11
27.009301
 21
23.039096
 31
0.0
  0
LINE
  8
0
  6
BYBLOCK
 62
     0
 10
27.009301
 20
20.477096
 30
0.0
 11
27.009301
 21
21.819096
 31
0.0
  0
SOLID
  8
0
  6
BYBLOCK
 62
     0
 10
26.889301
 20
24.381096
 30
0.0
 11
27.129301
 21
24.381096
 31
0.0
 12
27.009301
 22
25.101096
 32
0.0
 13
27.009301
 23
25.101096
 33
0.0
  0
SOLID
  8
0
  6
BYBLOCK
 62
     0
 10
26.889301
 20
20.477096
 30
0.0
 11
27.129301
 21
20.477096
 31
0.0
 12
27.009301
 22
19.757096
 32
0.0
 13
27.009301
 23
19.757096
 33
0.0
  0
TEXT
  8
0
  6
BYBLOCK
 62
     0
 10
26.259301
 20
22.179096
 30
0.0
 40
0.5
  1
5.344
 41
0.75
  7
TXT
 72
     1
 11
27.009301
 21
22.429096
 31
0.0
 73
     2
  0
POINT
  8
DEFPOINTS
  6
BYBLOCK
 62
     0
 10
25.63521
 20
25.101096
 30
0.0
  0
POINT
  8
DEFPOINTS
  6
BYBLOCK
 62
     0
 10
25.49821
 20
19.757096
 30
0.0
  0
POINT
  8
DEFPOINTS
  6
BYBLOCK
 62
     0
 10
27.009301
 20
19.757096
 30
0.0
  0
ENDBLK
  8
0
  0
BLOCK
  8
0
  2
*D13
 70
    65
 10
0.0
 20
0.0
 30
0.0
  3
*D
  0
LINE
  8
0
  6
BYBLOCK
 62
     0
 10
31.360868
 20
19.757096
 30
0.0
 11
29.959202
 21
19.757096
 31
0.0
  0
ARC
  8
0
  6
BYBLOCK
 62
     0
 10
31.612868
 20
19.757096
 30
0.0
 40
1.281667
 50
39.732587
 51
72.358564
  0
ARC
  8
0
  6
BYBLOCK
 62
     0
 10
31.612868
 20
19.757096
 30
0.0
 40
1.281667
 50
212.625977
 51
245.251955
  0
SOLID
  8
0
  6
BYBLOCK
 62
     0
 10
31.998507
 20
20.85852
 30
0.0
 11
32.004071
 21
21.098455
 31
0.0
 12
31.281483
 22
20.99518
 32
0.0
 13
31.281483
 23
20.99518
 33
0.0
  0
SOLID
  8
0
  6
BYBLOCK
 62
     0
 10
30.41827
 20
19.032376
 30
0.0
 11
30.648608
 21
19.099788
 31
0.0
 12
30.331202
 22
19.757096
 32
0.0
 13
30.331202
 23
19.757096
 33
0.0
  0
TEXT
  8
0
  6
BYBLOCK
 62
     0
 10
30.158659
 20
20.287462
 30
0.0
 40
0.5
  1
75%%d
 41
0.75
  7
TXT
 72
     1
 11
30.596159
 21
20.537462
 31
0.0
 73
     2
  0
POINT
  8
DEFPOINTS
  6
BYBLOCK
 62
     0
 10
30.368007
 20
20.062037
 30
0.0
  0
POINT
  8
DEFPOINTS
  6
BYBLOCK
 62
     0
 10
31.612868
 20
19.757096
 30
0.0
  0
POINT
  8
DEFPOINTS
  6
BYBLOCK
 62
     0
 10
31.160697
 20
21.446444
 30
0.0
  0
POINT
  8
DEFPOINTS
  6
BYBLOCK
 62
     0
 10
31.612868
 20
19.757096
 30
0.0
  0
POINT
  8
DEFPOINTS
  6
BYBLOCK
 62
     0
 10
39.847408
 20
19.757096
 30
0.0
  0
ENDBLK
  8
0
  0
BLOCK
  8
0
  2
*D14
 70
    65
 10
0.0
 20
0.0
 30
0.0
  3
*D
  0
LINE
  8
0
  6
BYBLOCK
 62
     0
 10
17.609615
 20
48.223786
 30
0.0
 11
11.308502
 21
48.223786
 31
0.0
  0
LINE
  8
0
  6
BYBLOCK
 62
     0
 10
17.205339
 20
49.732562
 30
0.0
 11
11.308502
 21
49.732562
 31
0.0
  0
LINE
  8
0
  6
BYBLOCK
 62
     0
 10
11.680502
 20
47.503786
 30
0.0
 11
11.680502
 21
46.783786
 31
0.0
  0
LINE
  8
0
  6
BYBLOCK
 62
     0
 10
11.680502
 20
50.452562
 30
0.0
 11
11.680502
 21
51.172562
 31
0.0
  0
SOLID
  8
0
  6
BYBLOCK
 62
     0
 10
11.560502
 20
47.503786
 30
0.0
 11
11.800502
 21
47.503786
 31
0.0
 12
11.680502
 22
48.223786
 32
0.0
 13
11.680502
 23
48.223786
 33
0.0
  0
SOLID
  8
0
  6
BYBLOCK
 62
     0
 10
11.560502
 20
50.452562
 30
0.0
 11
11.800502
 21
50.452562
 31
0.0
 12
11.680502
 22
49.732562
 32
0.0
 13
11.680502
 23
49.732562
 33
0.0
  0
TEXT
  8
0
  6
BYBLOCK
 62
     0
 10
11.024252
 20
48.728174
 30
0.0
 40
0.5
  1
1.509
 41
0.75
  7
TXT
 72
     1
 11
11.680502
 21
48.978174
 31
0.0
 73
     2
  0
POINT
  8
DEFPOINTS
  6
BYBLOCK
 62
     0
 10
17.861615
 20
48.223786
 30
0.0
  0
POINT
  8
DEFPOINTS
  6
BYBLOCK
 62
     0
 10
17.457339
 20
49.732562
 30
0.0
  0
POINT
  8
DEFPOINTS
  6
BYBLOCK
 62
     0
 10
11.680502
 20
49.732562
 30
0.0
  0
ENDBLK
  8
0
  0
BLOCK
  8
0
  2
*D15
 70
    65
 10
0.0
 20
0.0
 30
0.0
  3
*D
  0
LINE
  8
0
  6
BYBLOCK
 62
     0
 10
17.618201
 20
48.158564
 30
0.0
 11
13.146614
 21
46.960405
 31
0.0
  0
LINE
  8
0
  6
BYBLOCK
 62
     0
 10
17.213926
 20
49.66734
 30
0.0
 11
12.742338
 21
48.469181
 31
0.0
  0
LINE
  8
0
  6
BYBLOCK
 62
     0
 10
13.692288
 20
46.361219
 30
0.0
 11
13.878637
 21
45.665753
 31
0.0
  0
LINE
  8
0
  6
BYBLOCK
 62
     0
 10
12.915313
 20
49.260929
 30
0.0
 11
12.728963
 21
49.956395
 31
0.0
  0
SOLID
  8
0
  6
BYBLOCK
 62
     0
 10
13.808199
 20
46.392278
 30
0.0
 11
13.576377
 21
46.330161
 31
0.0
 12
13.505938
 22
47.056686
 32
0.0
 13
13.505938
 23
47.056686
 33
0.0
  0
SOLID
  8
0
  6
BYBLOCK
 62
     0
 10
13.031224
 20
49.291987
 30
0.0
 11
12.799402
 21
49.22987
 31
0.0
 12
13.101663
 22
48.565462
 32
0.0
 13
13.101663
 23
48.565462
 33
0.0
  0
TEXT
  8
0
  6
BYBLOCK
 62
     0
 10
12.6163
 20
47.561074
 30
0.0
 40
0.5
  1
1.562
 41
0.75
  7
TXT
 72
     1
 11
13.3038
 21
47.811074
 31
0.0
 73
     2
  0
POINT
  8
DEFPOINTS
  6
BYBLOCK
 62
     0
 10
17.861615
 20
48.223786
 30
0.0
  0
POINT
  8
DEFPOINTS
  6
BYBLOCK
 62
     0
 10
17.457339
 20
49.732562
 30
0.0
  0
POINT
  8
DEFPOINTS
  6
BYBLOCK
 62
     0
 10
13.101663
 20
48.565462
 30
0.0
  0
ENDBLK
  8
0
  0
BLOCK
  8
0
  2
*D16
 70
    65
 10
0.0
 20
0.0
 30
0.0
  3
*D
  0
LINE
  8
0
  6
BYBLOCK
 62
     0
 10
43.001215
 20
23.989783
 30
0.0
 11
43.001215
 21
26.108001
 31
0.0
  0
LINE
  8
0
  6
BYBLOCK
 62
     0
 10
43.251215
 20
24.191098
 30
0.0
 11
43.251215
 21
26.108001
 31
0.0
  0
LINE
  8
0
  6
BYBLOCK
 62
     0
 10
42.281215
 20
25.736001
 30
0.0
 11
41.561215
 21
25.736001
 31
0.0
  0
LINE
  8
0
  6
BYBLOCK
 62
     0
 10
43.971215
 20
25.736001
 30
0.0
 11
44.691215
 21
25.736001
 31
0.0
  0
SOLID
  8
0
  6
BYBLOCK
 62
     0
 10
42.281215
 20
25.856001
 30
0.0
 11
42.281215
 21
25.616001
 31
0.0
 12
43.001215
 22
25.736001
 32
0.0
 13
43.001215
 23
25.736001
 33
0.0
  0
SOLID
  8
0
  6
BYBLOCK
 62
     0
 10
43.971215
 20
25.856001
 30
0.0
 11
43.971215
 21
25.616001
 31
0.0
 12
43.251215
 22
25.736001
 32
0.0
 13
43.251215
 23
25.736001
 33
0.0
  0
TEXT
  8
0
  6
BYBLOCK
 62
     0
 10
46.551215
 20
25.486001
 30
0.0
 40
0.5
  1
 TYP.
 41
0.75
  7
TXT
 72
     1
 11
47.301215
 21
25.736001
 31
0.0
 73
     2
  0
TEXT
  8
0
  6
BYBLOCK
 62
     0
 10
45.051215
 20
25.486001
 30
0.0
 40
0.5
  1
0.250
 41
0.75
  7
TXT
 72
     1
 11
45.738715
 21
25.736001
 31
0.0
 73
     2
  0
POINT
  8
DEFPOINTS
  6
BYBLOCK
 62
     0
 10
43.001215
 20
23.737783
 30
0.0
  0
POINT
  8
DEFPOINTS
  6
BYBLOCK
 62
     0
 10
43.251215
 20
23.939098
 30
0.0
  0
POINT
  8
DEFPOINTS
  6
BYBLOCK
 62
     0
 10
43.251215
 20
25.736001
 30
0.0
  0
ENDBLK
  8
0
  0
BLOCK
  8
0
  2
*D17
 70
    65
 10
0.0
 20
0.0
 30
0.0
  3
*D
  0
LINE
  8
0
  6
BYBLOCK
 62
     0
 10
34.467058
 20
21.810512
 30
0.0
 11
33.668312
 21
24.794693
 31
0.0
  0
LINE
  8
0
  6
BYBLOCK
 62
     0
 10
34.288844
 20
21.501698
 30
0.0
 11
31.305408
 21
20.700178
 31
0.0
  0
ARC
  8
0
  6
BYBLOCK
 62
     0
 10
34.532215
 20
21.567081
 30
0.0
 40
2.969228
 50
118.912304
 51
135.148508
  0
ARC
  8
0
  6
BYBLOCK
 62
     0
 10
34.532215
 20
21.567081
 30
0.0
 40
2.969228
 50
162.879011
 51
181.110053
  0
SOLID
  8
0
  6
BYBLOCK
 62
     0
 10
33.051828
 20
24.277529
 30
0.0
 11
33.141533
 21
24.054924
 31
0.0
 12
33.764496
 22
24.435343
 32
0.0
 13
33.764496
 23
24.435343
 33
0.0
  0
SOLID
  8
0
  6
BYBLOCK
 62
     0
 10
31.682354
 20
21.526413
 30
0.0
 11
31.444733
 21
21.492705
 31
0.0
 12
31.664668
 22
20.796696
 32
0.0
 13
31.664668
 23
20.796696
 33
0.0
  0
TEXT
  8
0
  6
BYBLOCK
 62
     0
 10
31.554248
 20
22.801193
 30
0.0
 40
0.5
  1
90%%d
 41
0.75
  7
TXT
 72
     1
 11
31.960498
 21
23.051193
 31
0.0
 73
     2
  0
POINT
  8
DEFPOINTS
  6
BYBLOCK
 62
     0
 10
32.321687
 20
23.549475
 30
0.0
  0
POINT
  8
DEFPOINTS
  6
BYBLOCK
 62
     0
 10
38.485215
 20
22.629081
 30
0.0
  0
POINT
  8
DEFPOINTS
  6
BYBLOCK
 62
     0
 10
34.564504
 20
21.446444
 30
0.0
  0
POINT
  8
DEFPOINTS
  6
BYBLOCK
 62
     0
 10
35.016675
 20
19.757096
 30
0.0
  0
POINT
  8
DEFPOINTS
  6
BYBLOCK
 62
     0
 10
34.652822
 20
21.599483
 30
0.0
  0
ENDBLK
  8
0
  0
BLOCK
  8
0
  2
*D18
 70
    65
 10
0.0
 20
0.0
 30
0.0
  3
*D
  0
ARC
  8
0
  6
BYBLOCK
 62
     0
 10
38.485215
 20
22.629081
 30
0.0
 40
1.987165
 50
95.829498
 51
104.984415
  0
ARC
  8
0
  6
BYBLOCK
 62
     0
 10
38.485215
 20
22.629081
 30
0.0
 40
1.987165
 50
156.410314
 51
174.162846
  0
SOLID
  8
0
  6
BYBLOCK
 62
     0
 10
38.293022
 20
24.725582
 30
0.0
 11
38.273741
 21
24.486358
 31
0.0
 12
39.001054
 22
24.548126
 32
0.0
 13
39.001054
 23
24.548126
 33
0.0
  0
SOLID
  8
0
  6
BYBLOCK
 62
     0
 10
36.627966
 20
22.840803
 30
0.0
 11
36.38874
 21
22.821554
 31
0.0
 12
36.5661
 22
22.113498
 32
0.0
 13
36.5661
 23
22.113498
 33
0.0
  0
TEXT
  8
0
  6
BYBLOCK
 62
     0
 10
36.548921
 20
23.784313
 30
0.0
 40
0.5
  1
120%%d
 41
0.75
  7
TXT
 72
     1
 11
37.080171
 21
24.034313
 31
0.0
 73
     2
  0
POINT
  8
DEFPOINTS
  6
BYBLOCK
 62
     0
 10
36.72405
 20
23.549475
 30
0.0
  0
POINT
  8
DEFPOINTS
  6
BYBLOCK
 62
     0
 10
39.124814
 20
25.008544
 30
0.0
  0
POINT
  8
DEFPOINTS
  6
BYBLOCK
 62
     0
 10
38.485215
 20
22.629081
 30
0.0
  0
POINT
  8
DEFPOINTS
  6
BYBLOCK
 62
     0
 10
34.652822
 20
21.599483
 30
0.0
  0
POINT
  8
DEFPOINTS
  6
BYBLOCK
 62
     0
 10
38.485215
 20
22.629081
 30
0.0
  0
ENDBLK
  8
0
  0
BLOCK
  8
0
  2
*D19
 70
    65
 10
0.0
 20
0.0
 30
0.0
  3
*D
  0
LINE
  8
0
  6
BYBLOCK
 62
     0
 10
43.251215
 20
24.287081
 30
0.0
 11
43.251215
 21
27.751361
 31
0.0
  0
ARC
  8
0
  6
BYBLOCK
 62
     0
 10
43.251215
 20
24.035081
 30
0.0
 40
3.34428
 50
102.359326
 51
111.750426
  0
ARC
  8
0
  6
BYBLOCK
 62
     0
 10
43.251215
 20
24.035081
 30
0.0
 40
3.34428
 50
142.356589
 51
152.679644
  0
SOLID
  8
0
  6
BYBLOCK
 62
     0
 10
42.522481
 20
27.421159
 30
0.0
 11
42.548316
 21
27.182553
 31
0.0
 12
43.251215
 22
27.379361
 32
0.0
 13
43.251215
 23
27.379361
 33
0.0
  0
SOLID
  8
0
  6
BYBLOCK
 62
     0
 10
40.391898
 20
25.52671
 30
0.0
 11
40.168051
 21
25.613269
 31
0.0
 12
40.0203
 22
24.898447
 32
0.0
 13
40.0203
 23
24.898447
 33
0.0
  0
TEXT
  8
0
  6
BYBLOCK
 62
     0
 10
40.776944
 20
26.437585
 30
0.0
 40
0.5
  1
75%%d
 41
0.75
  7
TXT
 72
     1
 11
41.214444
 21
26.687585
 31
0.0
 73
     2
  0
POINT
  8
DEFPOINTS
  6
BYBLOCK
 62
     0
 10
41.651797
 20
26.972099
 30
0.0
  0
POINT
  8
DEFPOINTS
  6
BYBLOCK
 62
     0
 10
43.251215
 20
23.939098
 30
0.0
  0
POINT
  8
DEFPOINTS
  6
BYBLOCK
 62
     0
 10
43.158485
 20
24.05986
 30
0.0
  0
POINT
  8
DEFPOINTS
  6
BYBLOCK
 62
     0
 10
39.2778
 20
25.096858
 30
0.0
  0
POINT
  8
DEFPOINTS
  6
BYBLOCK
 62
     0
 10
43.251215
 20
19.757096
 30
0.0
  0
ENDBLK
  8
0
  0
BLOCK
  8
0
  2
*D20
 70
    65
 10
0.0
 20
0.0
 30
0.0
  3
*D
  0
LINE
  8
0
  6
BYBLOCK
 62
     0
 10
43.066437
 20
24.055627
 30
0.0
 11
44.150414
 21
28.101086
 31
0.0
  0
LINE
  8
0
  6
BYBLOCK
 62
     0
 10
39.384328
 20
25.042245
 30
0.0
 11
40.468305
 21
29.087704
 31
0.0
  0
LINE
  8
0
  6
BYBLOCK
 62
     0
 10
44.7496
 20
27.555412
 30
0.0
 11
45.445067
 21
27.369062
 31
0.0
  0
LINE
  8
0
  6
BYBLOCK
 62
     0
 10
39.676558
 20
28.914729
 30
0.0
 11
38.981091
 21
29.101079
 31
0.0
  0
SOLID
  8
0
  6
BYBLOCK
 62
     0
 10
44.780659
 20
27.671323
 30
0.0
 11
44.718542
 21
27.439501
 31
0.0
 12
44.054134
 22
27.741761
 32
0.0
 13
44.054134
 23
27.741761
 33
0.0
  0
SOLID
  8
0
  6
BYBLOCK
 62
     0
 10
39.707616
 20
29.03064
 30
0.0
 11
39.6455
 21
28.798818
 31
0.0
 12
40.372025
 22
28.72838
 32
0.0
 13
40.372025
 23
28.72838
 33
0.0
  0
TEXT
  8
0
  6
BYBLOCK
 62
     0
 10
41.525579
 20
27.985071
 30
0.0
 40
0.5
  1
3.812
 41
0.75
  7
TXT
 72
     1
 11
42.213079
 21
28.235071
 31
0.0
 73
     2
  0
POINT
  8
DEFPOINTS
  6
BYBLOCK
 62
     0
 10
43.001215
 20
23.812214
 30
0.0
  0
POINT
  8
DEFPOINTS
  6
BYBLOCK
 62
     0
 10
39.319105
 20
24.798832
 30
0.0
  0
POINT
  8
DEFPOINTS
  6
BYBLOCK
 62
     0
 10
40.372025
 20
28.72838
 30
0.0
  0
ENDBLK
  8
0
  0
BLOCK
  8
0
  2
*D21
 70
    65
 10
0.0
 20
0.0
 30
0.0
  3
*D
  0
LINE
  8
0
  6
BYBLOCK
 62
     0
 10
43.001215
 20
19.607214
 30
0.0
 11
43.001215
 21
17.248046
 31
0.0
  0
LINE
  8
0
  6
BYBLOCK
 62
     0
 10
35.232226
 20
19.607561
 30
0.0
 11
35.232226
 21
17.248046
 31
0.0
  0
LINE
  8
0
  6
BYBLOCK
 62
     0
 10
42.281215
 20
17.620046
 30
0.0
 11
40.22672
 21
17.620046
 31
0.0
  0
LINE
  8
0
  6
BYBLOCK
 62
     0
 10
35.952226
 20
17.620046
 30
0.0
 11
38.00672
 21
17.620046
 31
0.0
  0
SOLID
  8
0
  6
BYBLOCK
 62
     0
 10
42.281215
 20
17.740046
 30
0.0
 11
42.281215
 21
17.500046
 31
0.0
 12
43.001215
 22
17.620046
 32
0.0
 13
43.001215
 23
17.620046
 33
0.0
  0
SOLID
  8
0
  6
BYBLOCK
 62
     0
 10
35.952226
 20
17.740046
 30
0.0
 11
35.952226
 21
17.500046
 31
0.0
 12
35.232226
 22
17.620046
 32
0.0
 13
35.232226
 23
17.620046
 33
0.0
  0
TEXT
  8
0
  6
BYBLOCK
 62
     0
 10
38.36672
 20
17.370046
 30
0.0
 40
0.5
  1
7.769
 41
0.75
  7
TXT
 72
     1
 11
39.11672
 21
17.620046
 31
0.0
 73
     2
  0
POINT
  8
DEFPOINTS
  6
BYBLOCK
 62
     0
 10
43.001215
 20
19.859214
 30
0.0
  0
POINT
  8
DEFPOINTS
  6
BYBLOCK
 62
     0
 10
35.232226
 20
19.859561
 30
0.0
  0
POINT
  8
DEFPOINTS
  6
BYBLOCK
 62
     0
 10
35.232226
 20
17.620046
 30
0.0
  0
ENDBLK
  8
0
  0
BLOCK
  8
0
  2
*D22
 70
    65
 10
0.0
 20
0.0
 30
0.0
  3
*D
  0
LINE
  8
0
  6
BYBLOCK
 62
     0
 10
42.564215
 20
19.607214
 30
0.0
 11
42.564215
 21
18.372046
 31
0.0
  0
LINE
  8
0
  6
BYBLOCK
 62
     0
 10
43.001215
 20
19.607214
 30
0.0
 11
43.001215
 21
18.372046
 31
0.0
  0
LINE
  8
0
  6
BYBLOCK
 62
     0
 10
41.844215
 20
18.744046
 30
0.0
 11
41.124215
 21
18.744046
 31
0.0
  0
LINE
  8
0
  6
BYBLOCK
 62
     0
 10
43.721215
 20
18.744046
 30
0.0
 11
44.441215
 21
18.744046
 31
0.0
  0
SOLID
  8
0
  6
BYBLOCK
 62
     0
 10
41.844215
 20
18.864046
 30
0.0
 11
41.844215
 21
18.624046
 31
0.0
 12
42.564215
 22
18.744046
 32
0.0
 13
42.564215
 23
18.744046
 33
0.0
  0
SOLID
  8
0
  6
BYBLOCK
 62
     0
 10
43.721215
 20
18.864046
 30
0.0
 11
43.721215
 21
18.624046
 31
0.0
 12
43.001215
 22
18.744046
 32
0.0
 13
43.001215
 23
18.744046
 33
0.0
  0
TEXT
  8
0
  6
BYBLOCK
 62
     0
 10
44.801215
 20
18.494046
 30
0.0
 40
0.5
  1
0.437
 41
0.75
  7
TXT
 72
     1
 11
45.519965
 21
18.744046
 31
0.0
 73
     2
  0
POINT
  8
DEFPOINTS
  6
BYBLOCK
 62
     0
 10
42.564215
 20
19.859214
 30
0.0
  0
POINT
  8
DEFPOINTS
  6
BYBLOCK
 62
     0
 10
43.001215
 20
19.859214
 30
0.0
  0
POINT
  8
DEFPOINTS
  6
BYBLOCK
 62
     0
 10
43.001215
 20
18.744046
 30
0.0
  0
ENDBLK
  8
0
  0
BLOCK
  8
0
  2
*D23
 70
    65
 10
0.0
 20
0.0
 30
0.0
  3
*D
  0
LINE
  8
0
  6
BYBLOCK
 62
     0
 10
38.610977
 20
22.642886
 30
0.0
 11
36.888236
 21
29.072241
 31
0.0
  0
LINE
  8
0
  6
BYBLOCK
 62
     0
 10
34.762728
 20
21.61175
 30
0.0
 11
33.039987
 21
28.041106
 31
0.0
  0
LINE
  8
0
  6
BYBLOCK
 62
     0
 10
37.679983
 20
28.899266
 30
0.0
 11
38.37545
 21
29.085616
 31
0.0
  0
LINE
  8
0
  6
BYBLOCK
 62
     0
 10
32.440802
 20
27.495432
 30
0.0
 11
31.745335
 21
27.309082
 31
0.0
  0
SOLID
  8
0
  6
BYBLOCK
 62
     0
 10
37.648925
 20
29.015177
 30
0.0
 11
37.711042
 21
28.783355
 31
0.0
 12
36.984517
 22
28.712916
 32
0.0
 13
36.984517
 23
28.712916
 33
0.0
  0
SOLID
  8
0
  6
BYBLOCK
 62
     0
 10
32.409743
 20
27.611343
 30
0.0
 11
32.47186
 21
27.379521
 31
0.0
 12
33.136268
 22
27.681781
 32
0.0
 13
33.136268
 23
27.681781
 33
0.0
  0
TEXT
  8
0
  6
BYBLOCK
 62
     0
 10
34.310392
 20
27.947349
 30
0.0
 40
0.5
  1
3.984
 41
0.75
  7
TXT
 72
     1
 11
35.060392
 21
28.197349
 31
0.0
 73
     2
  0
POINT
  8
DEFPOINTS
  6
BYBLOCK
 62
     0
 10
38.676199
 20
22.399472
 30
0.0
  0
POINT
  8
DEFPOINTS
  6
BYBLOCK
 62
     0
 10
34.82795
 20
21.368337
 30
0.0
  0
POINT
  8
DEFPOINTS
  6
BYBLOCK
 62
     0
 10
33.136268
 20
27.681781
 30
0.0
  0
ENDBLK
  8
0
  0
BLOCK
  8
0
  2
*D24
 70
    65
 10
0.0
 20
0.0
 30
0.0
  3
*D
  0
LINE
  8
0
  6
BYBLOCK
 62
     0
 10
38.432786
 20
22.464695
 30
0.0
 11
30.115653
 21
24.693264
 31
0.0
  0
LINE
  8
0
  6
BYBLOCK
 62
     0
 10
39.075692
 20
24.864054
 30
0.0
 11
30.758559
 21
27.092623
 31
0.0
  0
LINE
  8
0
  6
BYBLOCK
 62
     0
 10
30.288628
 20
23.901516
 30
0.0
 11
30.102278
 21
23.20605
 31
0.0
  0
LINE
  8
0
  6
BYBLOCK
 62
     0
 10
31.304233
 20
27.691809
 30
0.0
 11
31.490583
 21
28.387276
 31
0.0
  0
SOLID
  8
0
  6
BYBLOCK
 62
     0
 10
30.172716
 20
23.932575
 30
0.0
 11
30.404539
 21
23.870458
 31
0.0
 12
30.474977
 22
24.596983
 32
0.0
 13
30.474977
 23
24.596983
 33
0.0
  0
SOLID
  8
0
  6
BYBLOCK
 62
     0
 10
31.188322
 20
27.722868
 30
0.0
 11
31.420145
 21
27.660751
 31
0.0
 12
31.117884
 22
26.996343
 32
0.0
 13
31.117884
 23
26.996343
 33
0.0
  0
TEXT
  8
0
  6
BYBLOCK
 62
     0
 10
30.04643
 20
25.546663
 30
0.0
 40
0.5
  1
2.484
 41
0.75
  7
TXT
 72
     1
 11
30.79643
 21
25.796663
 31
0.0
 73
     2
  0
POINT
  8
DEFPOINTS
  6
BYBLOCK
 62
     0
 10
38.676199
 20
22.399472
 30
0.0
  0
POINT
  8
DEFPOINTS
  6
BYBLOCK
 62
     0
 10
39.319105
 20
24.798832
 30
0.0
  0
POINT
  8
DEFPOINTS
  6
BYBLOCK
 62
     0
 10
31.117884
 20
26.996343
 30
0.0
  0
ENDBLK
  8
0
  0
BLOCK
  8
0
  2
*D25
 70
    65
 10
0.0
 20
0.0
 30
0.0
  3
*D
  0
LINE
  8
0
  6
BYBLOCK
 62
     0
 10
39.22263
 20
25.372443
 30
0.0
 11
39.981661
 21
28.196217
 31
0.0
  0
LINE
  8
0
  6
BYBLOCK
 62
     0
 10
38.913757
 20
25.194138
 30
0.0
 11
36.088867
 21
25.949006
 31
0.0
  0
ARC
  8
0
  6
BYBLOCK
 62
     0
 10
39.157215
 20
25.129081
 30
0.0
 40
2.804009
 50
89.707382
 51
98.29127
  0
ARC
  8
0
  6
BYBLOCK
 62
     0
 10
39.157215
 20
25.129081
 30
0.0
 40
2.804009
 50
133.689053
 51
150.286116
  0
SOLID
  8
0
  6
BYBLOCK
 62
     0
 10
39.187549
 20
28.05198
 30
0.0
 11
39.155521
 21
27.814127
 31
0.0
 12
39.885095
 22
27.836969
 32
0.0
 13
39.885095
 23
27.836969
 33
0.0
  0
SOLID
  8
0
  6
BYBLOCK
 62
     0
 10
36.832896
 20
26.473335
 30
0.0
 11
36.610905
 21
26.564549
 31
0.0
 12
36.448257
 22
25.85297
 32
0.0
 13
36.448257
 23
25.85297
 33
0.0
  0
TEXT
  8
0
  6
BYBLOCK
 62
     0
 10
37.580361
 20
27.456561
 30
0.0
 40
0.5
  1
90%%d
 41
0.75
  7
TXT
 72
     1
 11
37.986611
 21
27.706561
 31
0.0
 73
     2
  0
POINT
  8
DEFPOINTS
  6
BYBLOCK
 62
     0
 10
38.263971
 20
27.78701
 30
0.0
  0
POINT
  8
DEFPOINTS
  6
BYBLOCK
 62
     0
 10
43.158485
 20
24.05986
 30
0.0
  0
POINT
  8
DEFPOINTS
  6
BYBLOCK
 62
     0
 10
39.124814
 20
25.008544
 30
0.0
  0
POINT
  8
DEFPOINTS
  6
BYBLOCK
 62
     0
 10
38.485215
 20
22.629081
 30
0.0
  0
POINT
  8
DEFPOINTS
  6
BYBLOCK
 62
     0
 10
39.2778
 20
25.096858
 30
0.0
  0
ENDBLK
  8
0
  0
BLOCK
  8
0
  2
*D26
 70
    65
 10
0.0
 20
0.0
 30
0.0
  3
*D
  0
LINE
  8
0
  6
BYBLOCK
 62
     0
 10
43.253215
 20
19.859214
 30
0.0
 11
46.932511
 21
19.859214
 31
0.0
  0
LINE
  8
0
  6
BYBLOCK
 62
     0
 10
39.571105
 20
24.798832
 30
0.0
 11
46.932511
 21
24.798832
 31
0.0
  0
LINE
  8
0
  6
BYBLOCK
 62
     0
 10
46.560511
 20
20.579214
 30
0.0
 11
46.560511
 21
21.719023
 31
0.0
  0
LINE
  8
0
  6
BYBLOCK
 62
     0
 10
46.560511
 20
24.078832
 30
0.0
 11
46.560511
 21
22.939023
 31
0.0
  0
SOLID
  8
0
  6
BYBLOCK
 62
     0
 10
46.440511
 20
20.579214
 30
0.0
 11
46.680511
 21
20.579214
 31
0.0
 12
46.560511
 22
19.859214
 32
0.0
 13
46.560511
 23
19.859214
 33
0.0
  0
SOLID
  8
0
  6
BYBLOCK
 62
     0
 10
46.440511
 20
24.078832
 30
0.0
 11
46.680511
 21
24.078832
 31
0.0
 12
46.560511
 22
24.798832
 32
0.0
 13
46.560511
 23
24.798832
 33
0.0
  0
TEXT
  8
0
  6
BYBLOCK
 62
     0
 10
45.841761
 20
22.079023
 30
0.0
 40
0.5
  1
4.940
 41
0.75
  7
TXT
 72
     1
 11
46.560511
 21
22.329023
 31
0.0
 73
     2
  0
POINT
  8
DEFPOINTS
  6
BYBLOCK
 62
     0
 10
43.001215
 20
19.859214
 30
0.0
  0
POINT
  8
DEFPOINTS
  6
BYBLOCK
 62
     0
 10
39.319105
 20
24.798832
 30
0.0
  0
POINT
  8
DEFPOINTS
  6
BYBLOCK
 62
     0
 10
46.560511
 20
24.798832
 30
0.0
  0
ENDBLK
  8
0
  0
BLOCK
  8
0
  2
*D27
 70
    65
 10
0.0
 20
0.0
 30
0.0
  3
*D
  0
LINE
  8
0
  6
BYBLOCK
 62
     0
 10
43.253215
 20
19.859214
 30
0.0
 11
45.064511
 21
19.859214
 31
0.0
  0
LINE
  8
0
  6
BYBLOCK
 62
     0
 10
43.253215
 20
23.812214
 30
0.0
 11
45.064511
 21
23.812214
 31
0.0
  0
LINE
  8
0
  6
BYBLOCK
 62
     0
 10
44.692511
 20
20.579214
 30
0.0
 11
44.692511
 21
21.225714
 31
0.0
  0
LINE
  8
0
  6
BYBLOCK
 62
     0
 10
44.692511
 20
23.092214
 30
0.0
 11
44.692511
 21
22.445714
 31
0.0
  0
SOLID
  8
0
  6
BYBLOCK
 62
     0
 10
44.572511
 20
20.579214
 30
0.0
 11
44.812511
 21
20.579214
 31
0.0
 12
44.692511
 22
19.859214
 32
0.0
 13
44.692511
 23
19.859214
 33
0.0
  0
SOLID
  8
0
  6
BYBLOCK
 62
     0
 10
44.572511
 20
23.092214
 30
0.0
 11
44.812511
 21
23.092214
 31
0.0
 12
44.692511
 22
23.812214
 32
0.0
 13
44.692511
 23
23.812214
 33
0.0
  0
TEXT
  8
0
  6
BYBLOCK
 62
     0
 10
43.942511
 20
21.585714
 30
0.0
 40
0.5
  1
3.953
 41
0.75
  7
TXT
 72
     1
 11
44.692511
 21
21.835714
 31
0.0
 73
     2
  0
POINT
  8
DEFPOINTS
  6
BYBLOCK
 62
     0
 10
43.001215
 20
19.859214
 30
0.0
  0
POINT
  8
DEFPOINTS
  6
BYBLOCK
 62
     0
 10
43.001215
 20
23.812214
 30
0.0
  0
POINT
  8
DEFPOINTS
  6
BYBLOCK
 62
     0
 10
44.692511
 20
23.812214
 30
0.0
  0
ENDBLK
  8
0
  0
BLOCK
  8
0
  2
HBS
 70
    64
 10
0.0
 20
0.0
 30
0.0
  3
HBS
  0
LINE
  8
TITLE
 10
0.062
 20
9.64
 30
0.0
 11
15.438
 21
9.64
 31
0.0
  0
POLYLINE
  8
TITLE
 66
     1
 10
0.0
 20
0.0
 30
0.0
 70
     1
  0
VERTEX
  8
TITLE
 10
15.5
 20
10.12
 30
0.0
  0
VERTEX
  8
TITLE
 10
15.5
 20
0.0
 30
0.0
  0
VERTEX
  8
TITLE
 10
0.0
 20
0.0
 30
0.0
  0
VERTEX
  8
TITLE
 10
0.0
 20
10.12
 30
0.0
  0
SEQEND
  8
TITLE
  0
POLYLINE
  8
TITLE
 66
     1
 10
0.0
 20
0.0
 30
0.0
 70
     1
  0
VERTEX
  8
TITLE
 10
15.438
 20
10.058
 30
0.0
  0
VERTEX
  8
TITLE
 10
15.438
 20
0.062
 30
0.0
  0
VERTEX
  8
TITLE
 10
0.062
 20
0.062
 30
0.0
  0
VERTEX
  8
TITLE
 10
0.062
 20
10.058
 30
0.0
  0
SEQEND
  8
TITLE
  0
TEXT
  8
TEXT
 10
0.207833
 20
9.680079
 30
0.0
 40
0.125
  1
NAME
 72
     1
 11
0.437
 21
9.680079
 31
0.0
  0
TEXT
  8
TEXT
 10
0.207833
 20
9.888413
 30
0.0
 40
0.125
  1
PART
 72
     1
 11
0.437
 21
9.888413
 31
0.0
  0
LINE
  8
TITLE
 10
0.812
 20
9.64
 30
0.0
 11
0.812
 21
10.058
 31
0.0
  0
TEXT
  8
TEXT
 10
7.926833
 20
9.888413
 30
0.0
 40
0.125
  1
PART
 72
     1
 11
8.156
 21
9.888413
 31
0.0
  0
TEXT
  8
TEXT
 10
8.031
 20
9.680079
 30
0.0
 40
0.125
  1
No.
 72
     1
 11
8.156
 21
9.680079
 31
0.0
  0
LINE
  8
TITLE
 10
7.781
 20
10.058
 30
0.0
 11
7.781
 21
9.64
 31
0.0
  0
LINE
  8
TITLE
 10
7.719
 20
10.058
 30
0.0
 11
7.719
 21
9.64
 31
0.0
  0
LINE
  8
TITLE
 10
8.531
 20
10.058
 30
0.0
 11
8.531
 21
9.64
 31
0.0
  0
ENDBLK
  8
0
  0
ENDSEC
  0
SECTION
  2
ENTITIES
  0
POLYLINE
  8
OBJECT
 62
     7
 66
     1
 10
0.0
 20
0.0
 30
0.0
 70
     1
  0
VERTEX
  8
OBJECT
 62
     7
 10
15.70521
 20
20.420076
 30
0.0
  0
VERTEX
  8
OBJECT
 62
     7
 10
15.79521
 20
20.420076
 30
0.0
  0
VERTEX
  8
OBJECT
 62
     7
 10
15.79521
 20
15.213076
 30
0.0
 42
0.414214
  0
VERTEX
  8
OBJECT
 62
     7
 10
15.84221
 20
15.166076
 30
0.0
  0
VERTEX
  8
OBJECT
 62
     7
 10
25.49821
 20
15.166076
 30
0.0
 42
0.414214
  0
VERTEX
  8
OBJECT
 62
     7
 10
25.54521
 20
15.213076
 30
0.0
  0
VERTEX
  8
OBJECT
 62
     7
 10
25.54521
 20
20.420076
 30
0.0
  0
VERTEX
  8
OBJECT
 62
     7
 10
25.63521
 20
20.420076
 30
0.0
  0
VERTEX
  8
OBJECT
 62
     7
 10
25.63521
 20
15.213076
 30
0.0
 42
-0.414214
  0
VERTEX
  8
OBJECT
 62
     7
 10
25.49821
 20
15.076076
 30
0.0
  0
VERTEX
  8
OBJECT
 62
     7
 10
15.84221
 20
15.076076
 30
0.0
 42
-0.414214
  0
VERTEX
  8
OBJECT
 62
     7
 10
15.70521
 20
15.213076
 30
0.0
  0
SEQEND
  8
OBJECT
 62
     7
  0
LINE
  8
OBJECT
 62
     7
 10
38.485215
 20
17.948061
 30
0.0
 11
34.652822
 21
16.918463
 31
0.0
  0
LINE
  8
OBJECT
 62
     7
 10
34.564504
 20
16.765424
 30
0.0
 11
35.016675
 21
15.076076
 31
0.0
  0
LINE
  8
OBJECT
 62
     7
 10
39.124814
 20
20.327524
 30
0.0
 11
38.485215
 21
17.948061
 31
0.0
  0
LINE
  8
OBJECT
 62
     7
 10
43.158485
 20
19.37884
 30
0.0
 11
39.2778
 21
20.415838
 31
0.0
  0
LINE
  8
OBJECT
 62
     7
 10
43.251215
 20
19.258078
 30
0.0
 11
43.251215
 21
15.076076
 31
0.0
  0
LINE
  8
OBJECT
 62
     7
 10
35.016675
 20
15.076076
 30
0.0
 11
43.251215
 21
15.076076
 31
0.0
  0
LINE
  8
OBJECT
 62
     7
 10
43.251215
 20
15.166076
 30
0.0
 11
35.017215
 21
15.166076
 31
0.0
  0
LINE
  8
OBJECT
 62
     7
 10
35.017215
 20
15.166076
 30
0.0
 11
35.017215
 21
15.076076
 31
0.0
  0
POLYLINE
  8
OBJECT
 62
     7
 66
     1
 10
0.0
 20
0.0
 30
0.0
  0
VERTEX
  8
OBJECT
 62
     7
 10
38.649988
 20
17.711429
 30
0.0
 42
0.267949
  0
VERTEX
  8
OBJECT
 62
     7
 10
38.683222
 20
17.744663
 30
0.0
 42
-0.267949
  0
VERTEX
  8
OBJECT
 62
     7
 10
38.649988
 20
17.711429
 30
0.0
  0
VERTEX
  8
OBJECT
 62
     7
 10
34.921645
 20
16.712422
 30
0.0
 42
0.414214
  0
VERTEX
  8
OBJECT
 62
     7
 10
34.853056
 20
16.593622
 30
0.0
  0
VERTEX
  8
OBJECT
 62
     7
 10
35.212962
 20
15.250435
 30
0.0
 42
0.339454
  0
VERTEX
  8
OBJECT
 62
     7
 10
35.306656
 20
15.178541
 30
0.0
  0
VERTEX
  8
OBJECT
 62
     7
 10
35.669226
 20
15.178541
 30
0.0
  0
VERTEX
  8
OBJECT
 62
     7
 10
35.669226
 20
15.228541
 30
0.0
  0
VERTEX
  8
OBJECT
 62
     7
 10
35.306656
 20
15.228541
 30
0.0
 42
-0.339454
  0
VERTEX
  8
OBJECT
 62
     7
 10
35.261258
 20
15.263376
 30
0.0
  0
VERTEX
  8
OBJECT
 62
     7
 10
34.901352
 20
16.606563
 30
0.0
 42
-0.414214
  0
VERTEX
  8
OBJECT
 62
     7
 10
34.934586
 20
16.664126
 30
0.0
  0
VERTEX
  8
OBJECT
 62
     7
 10
38.662929
 20
17.663133
 30
0.0
 42
0.267949
  0
VERTEX
  8
OBJECT
 62
     7
 10
38.731518
 20
17.731722
 30
0.0
  0
VERTEX
  8
OBJECT
 62
     7
 10
39.342296
 20
20.011176
 30
0.0
 42
-0.414214
  0
VERTEX
  8
OBJECT
 62
     7
 10
39.399859
 20
20.04441
 30
0.0
  0
VERTEX
  8
OBJECT
 62
     7
 10
42.916379
 20
19.102161
 30
0.0
 42
-0.339454
  0
VERTEX
  8
OBJECT
 62
     7
 10
42.951215
 20
19.056763
 30
0.0
  0
VERTEX
  8
OBJECT
 62
     7
 10
42.951215
 20
16.372478
 30
0.0
  0
VERTEX
  8
OBJECT
 62
     7
 10
42.901215
 20
16.372478
 30
0.0
  0
VERTEX
  8
OBJECT
 62
     7
 10
42.901215
 20
15.497478
 30
0.0
  0
VERTEX
  8
OBJECT
 62
     7
 10
42.951215
 20
15.497478
 30
0.0
  0
VERTEX
  8
OBJECT
 62
     7
 10
42.951215
 20
15.275194
 30
0.0
 42
-0.414214
  0
VERTEX
  8
OBJECT
 62
     7
 10
42.904215
 20
15.228194
 30
0.0
  0
VERTEX
  8
OBJECT
 62
     7
 10
42.564215
 20
15.228194
 30
0.0
  0
VERTEX
  8
OBJECT
 62
     7
 10
42.564215
 20
15.178194
 30
0.0
  0
VERTEX
  8
OBJECT
 62
     7
 10
42.904215
 20
15.178194
 30
0.0
 42
0.414214
  0
VERTEX
  8
OBJECT
 62
     7
 10
43.001215
 20
15.275194
 30
0.0
  0
VERTEX
  8
OBJECT
 62
     7
 10
43.001215
 20
19.056763
 30
0.0
 42
0.339454
  0
VERTEX
  8
OBJECT
 62
     7
 10
42.92932
 20
19.150458
 30
0.0
  0
VERTEX
  8
OBJECT
 62
     7
 10
39.4128
 20
20.092706
 30
0.0
 42
0.414214
  0
VERTEX
  8
OBJECT
 62
     7
 10
39.294
 20
20.024117
 30
0.0
  0
VERTEX
  8
OBJECT
 62
     7
 10
38.683222
 20
17.744663
 30
0.0
  0
SEQEND
  8
OBJECT
 62
     7
  0
LINE
  8
OBJECT
 62
     7
 10
25.63521
 20
2.668025
 30
0.0
 11
25.63521
 21
11.358986
 31
0.0
  0
LINE
  8
OBJECT
 62
     7
 10
15.70521
 20
2.668025
 30
0.0
 11
15.70521
 21
11.358986
 31
0.0
  0
LINE
  8
OBJECT
 62
     7
 10
25.63521
 20
11.358986
 30
0.0
 11
25.54521
 21
11.358986
 31
0.0
  0
LINE
  8
OBJECT
 62
     7
 10
25.63521
 20
10.902025
 30
0.0
 11
15.70521
 21
10.902025
 31
0.0
  0
CIRCLE
  8
OBJECT
 62
     7
 10
16.67021
 20
10.433025
 30
0.0
 40
0.1395
  0
CIRCLE
  8
OBJECT
 62
     7
 10
16.67021
 20
10.433025
 30
0.0
 40
0.094
  0
CIRCLE
  8
OBJECT
 62
     7
 10
24.67021
 20
10.433025
 30
0.0
 40
0.1395
  0
CIRCLE
  8
OBJECT
 62
     7
 10
24.67021
 20
10.433025
 30
0.0
 40
0.094
  0
CIRCLE
  8
OBJECT
 62
     7
 10
16.67021
 20
3.168025
 30
0.0
 40
0.1395
  0
CIRCLE
  8
OBJECT
 62
     7
 10
16.67021
 20
3.168025
 30
0.0
 40
0.094
  0
CIRCLE
  8
OBJECT
 62
     7
 10
24.67021
 20
3.168025
 30
0.0
 40
0.1395
  0
CIRCLE
  8
OBJECT
 62
     7
 10
24.67021
 20
3.168025
 30
0.0
 40
0.094
  0
LINE
  8
OBJECT
 62
     7
 10
25.63521
 20
2.668025
 30
0.0
 11
15.70521
 21
2.668025
 31
0.0
  0
LINE
  8
HIDDEN
 62
     7
 10
15.79521
 20
2.668025
 30
0.0
 11
15.79521
 21
10.812025
 31
0.0
  0
LINE
  8
HIDDEN
 62
     7
 10
25.54521
 20
2.668025
 30
0.0
 11
25.54521
 21
10.812025
 31
0.0
  0
LINE
  8
OBJECT
 62
     7
 10
15.79521
 20
11.358986
 30
0.0
 11
15.70521
 21
11.358986
 31
0.0
  0
LINE
  8
OBJECT
 62
     7
 10
15.70521
 20
34.848393
 30
0.0
 11
15.70521
 21
26.157432
 31
0.0
  0
LINE
  8
OBJECT
 62
     7
 10
25.63521
 20
34.848393
 30
0.0
 11
25.63521
 21
26.157432
 31
0.0
  0
LINE
  8
OBJECT
 62
     7
 10
25.54521
 20
34.848393
 30
0.0
 11
25.54521
 21
26.157432
 31
0.0
  0
LINE
  8
OBJECT
 62
     7
 10
15.79521
 20
34.848393
 30
0.0
 11
15.79521
 21
26.157432
 31
0.0
  0
LINE
  8
HIDDEN
 62
     7
 10
25.63521
 20
26.614393
 30
0.0
 11
15.70521
 21
26.614393
 31
0.0
  0
LINE
  8
OBJECT
 62
     7
 10
15.79521
 20
26.157432
 30
0.0
 11
15.70521
 21
26.157432
 31
0.0
  0
LINE
  8
OBJECT
 62
     7
 10
25.63521
 20
26.157432
 30
0.0
 11
25.54521
 21
26.157432
 31
0.0
  0
LINE
  8
OBJECT
 62
     7
 10
25.63521
 20
34.848393
 30
0.0
 11
15.70521
 21
34.848393
 31
0.0
  0
INSERT
  8
TEXT
 62
     7
 66
     1
  2
SECTION
 10
39.133945
 20
11.888933
 30
0.0
 41
1.672
 42
1.672
 50
90.0
 43
1.672
  0
ATTRIB
  8
0
 10
36.75585
 20
11.641314
 30
0.0
 40
0.5
  1
%%uSECTION "A-A"
  2
SECTION
 70
     0
 41
0.8
  7
SECTION
 72
     4
 11
39.133945
 21
11.888933
 31
0.0
  0
SEQEND
  8
TEXT
 62
     7
  0
TEXT
  8
TEXT
 62
     7
 10
18.78896
 20
12.830926
 30
0.0
 40
0.5
  1
%%uFRONT VIEW
 41
0.75
  7
TXT
 72
     1
 11
20.67021
 21
12.830926
 31
0.0
  0
TEXT
  8
TEXT
 62
     7
 10
19.16396
 20
24.816981
 30
0.0
 40
0.5
  1
%%uTOP VIEW
 41
0.75
  7
TXT
 72
     1
 11
20.67021
 21
24.816981
 31
0.0
  0
TEXT
  8
TEXT
 10
18.60146
 20
1.364074
 30
0.0
 40
0.5
  1
%%uBOTTOM VIEW
 41
0.75
  7
TXT
 72
     1
 11
20.67021
 21
1.364074
 31
0.0
  0
TEXT
  8
TEXT
 62
     7
 10
53.557943
 20
12.830926
 30
0.0
 40
0.5
  1
%%uREAR VIEW
 41
0.75
  7
TXT
 72
     1
 11
55.251693
 21
12.830926
 31
0.0
  0
TEXT
  8
TEXT
 62
     7
 10
5.836775
 20
11.863733
 30
0.0
 40
0.5
  1
%%uSIDE VIEW
 41
0.75
  7
TXT
 72
     1
 11
7.468025
 21
11.863733
 31
0.0
  0
POLYLINE
  8
OBJECT
 62
     7
 66
     1
 10
0.0
 20
0.0
 30
0.0
 70
     1
  0
VERTEX
  8
OBJECT
 62
     7
 10
42.699465
 20
15.451076
 30
0.0
  0
VERTEX
  8
OBJECT
 62
     7
 10
42.682215
 20
15.433826
 30
0.0
  0
VERTEX
  8
OBJECT
 62
     7
 10
42.682215
 20
15.145076
 30
0.0
  0
VERTEX
  8
OBJECT
 62
     7
 10
42.624317
 20
15.076076
 30
0.0
  0
VERTEX
  8
OBJECT
 62
     7
 10
42.878113
 20
15.076076
 30
0.0
  0
VERTEX
  8
OBJECT
 62
     7
 10
42.820215
 20
15.145076
 30
0.0
  0
VERTEX
  8
OBJECT
 62
     7
 10
42.820215
 20
15.433826
 30
0.0
  0
VERTEX
  8
OBJECT
 62
     7
 10
42.802965
 20
15.451076
 30
0.0
  0
SEQEND
  8
OBJECT
 62
     7
  0
POLYLINE
  8
OBJECT
 62
     7
 66
     1
 10
0.0
 20
0.0
 30
0.0
 70
     1
  0
VERTEX
  8
OBJECT
 62
     7
 10
35.434465
 20
15.451076
 30
0.0
  0
VERTEX
  8
OBJECT
 62
     7
 10
35.417215
 20
15.433826
 30
0.0
  0
VERTEX
  8
OBJECT
 62
     7
 10
35.417215
 20
15.145076
 30
0.0
  0
VERTEX
  8
OBJECT
 62
     7
 10
35.359317
 20
15.076076
 30
0.0
  0
VERTEX
  8
OBJECT
 62
     7
 10
35.613113
 20
15.076076
 30
0.0
  0
VERTEX
  8
OBJECT
 62
     7
 10
35.555215
 20
15.145076
 30
0.0
  0
VERTEX
  8
OBJECT
 62
     7
 10
35.555215
 20
15.433826
 30
0.0
  0
VERTEX
  8
OBJECT
 62
     7
 10
35.537965
 20
15.451076
 30
0.0
  0
SEQEND
  8
OBJECT
 62
     7
  0
ARC
  8
OBJECT
 62
     7
 10
7.356441
 20
20.295076
 30
0.0
 40
0.125
 50
15.045473
 51
104.961029
  0
POLYLINE
  8
DIM
 62
     7
 66
     1
 10
0.0
 20
0.0
 30
0.0
  0
VERTEX
  8
DIM
 62
     7
 10
7.395164
 20
20.434809
 30
0.0
  0
VERTEX
  8
DIM
 62
     7
 10
7.444756
 20
20.448061
 30
0.0
  0
VERTEX
  8
DIM
 62
     7
 10
7.45808
 20
20.398489
 30
0.0
  0
SEQEND
  8
DIM
 62
     7
  0
LINE
  8
OBJECT
 62
     7
 10
3.443485
 20
19.37884
 30
0.0
 11
7.324171
 21
20.415838
 31
0.0
  0
LINE
  8
OBJECT
 62
     7
 10
11.585295
 20
15.076076
 30
0.0
 11
3.350756
 21
15.076076
 31
0.0
  0
LINE
  8
OBJECT
 62
     7
 10
8.116756
 20
17.948061
 30
0.0
 11
11.949148
 21
16.918463
 31
0.0
  0
POLYLINE
  8
HIDDEN
 62
     7
 66
     1
 10
0.0
 20
0.0
 30
0.0
  0
VERTEX
  8
HIDDEN
 62
     7
 10
7.951982
 20
17.711429
 30
0.0
 42
-0.267949
  0
VERTEX
  8
HIDDEN
 62
     7
 10
7.918748
 20
17.744663
 30
0.0
 42
0.267949
  0
VERTEX
  8
HIDDEN
 62
     7
 10
7.951982
 20
17.711429
 30
0.0
  0
VERTEX
  8
HIDDEN
 62
     7
 10
11.680325
 20
16.712422
 30
0.0
 42
-0.414214
  0
VERTEX
  8
HIDDEN
 62
     7
 10
11.748914
 20
16.593622
 30
0.0
  0
VERTEX
  8
HIDDEN
 62
     7
 10
11.389009
 20
15.250435
 30
0.0
 42
-0.339454
  0
VERTEX
  8
HIDDEN
 62
     7
 10
11.295314
 20
15.178541
 30
0.0
  0
VERTEX
  8
HIDDEN
 62
     7
 10
10.932744
 20
15.178541
 30
0.0
  0
VERTEX
  8
HIDDEN
 62
     7
 10
10.932744
 20
15.228541
 30
0.0
  0
VERTEX
  8
HIDDEN
 62
     7
 10
11.295314
 20
15.228541
 30
0.0
 42
0.339454
  0
VERTEX
  8
HIDDEN
 62
     7
 10
11.340712
 20
15.263376
 30
0.0
  0
VERTEX
  8
HIDDEN
 62
     7
 10
11.700618
 20
16.606563
 30
0.0
 42
0.414214
  0
VERTEX
  8
HIDDEN
 62
     7
 10
11.667384
 20
16.664126
 30
0.0
  0
VERTEX
  8
HIDDEN
 62
     7
 10
7.939041
 20
17.663133
 30
0.0
 42
-0.267949
  0
VERTEX
  8
HIDDEN
 62
     7
 10
7.870452
 20
17.731722
 30
0.0
  0
VERTEX
  8
HIDDEN
 62
     7
 10
7.259674
 20
20.011176
 30
0.0
 42
0.414214
  0
VERTEX
  8
HIDDEN
 62
     7
 10
7.202111
 20
20.04441
 30
0.0
  0
VERTEX
  8
HIDDEN
 62
     7
 10
3.685591
 20
19.102161
 30
0.0
 42
0.339454
  0
VERTEX
  8
HIDDEN
 62
     7
 10
3.650756
 20
19.056763
 30
0.0
  0
VERTEX
  8
HIDDEN
 62
     7
 10
3.650756
 20
16.372478
 30
0.0
  0
VERTEX
  8
HIDDEN
 62
     7
 10
3.700756
 20
16.372478
 30
0.0
  0
VERTEX
  8
HIDDEN
 62
     7
 10
3.700756
 20
15.497478
 30
0.0
  0
VERTEX
  8
HIDDEN
 62
     7
 10
3.650756
 20
15.497478
 30
0.0
  0
VERTEX
  8
HIDDEN
 62
     7
 10
3.650756
 20
15.275194
 30
0.0
 42
0.414214
  0
VERTEX
  8
HIDDEN
 62
     7
 10
3.697756
 20
15.228194
 30
0.0
  0
VERTEX
  8
HIDDEN
 62
     7
 10
4.037756
 20
15.228194
 30
0.0
  0
VERTEX
  8
HIDDEN
 62
     7
 10
4.037756
 20
15.178194
 30
0.0
  0
VERTEX
  8
HIDDEN
 62
     7
 10
3.697756
 20
15.178194
 30
0.0
 42
-0.414214
  0
VERTEX
  8
HIDDEN
 62
     7
 10
3.600756
 20
15.275194
 30
0.0
  0
VERTEX
  8
HIDDEN
 62
     7
 10
3.600756
 20
19.056763
 30
0.0
 42
-0.339454
  0
VERTEX
  8
HIDDEN
 62
     7
 10
3.67265
 20
19.150458
 30
0.0
  0
VERTEX
  8
HIDDEN
 62
     7
 10
7.18917
 20
20.092706
 30
0.0
 42
-0.414214
  0
VERTEX
  8
HIDDEN
 62
     7
 10
7.30797
 20
20.024117
 30
0.0
  0
VERTEX
  8
HIDDEN
 62
     7
 10
7.918748
 20
17.744663
 30
0.0
  0
SEQEND
  8
HIDDEN
 62
     7
  0
LINE
  8
HIDDEN
 62
     7
 10
3.350756
 20
15.166076
 30
0.0
 11
11.584756
 21
15.166076
 31
0.0
  0
LINE
  8
OBJECT
 62
     7
 10
3.350756
 20
19.258078
 30
0.0
 11
3.350756
 21
15.076076
 31
0.0
  0
POLYLINE
  8
HIDDEN
  6
HIDDEN2
 62
     7
 66
     1
 10
0.0
 20
0.0
 30
0.0
 70
     1
  0
VERTEX
  8
HIDDEN
  6
HIDDEN2
 62
     7
 10
3.902506
 20
15.451076
 30
0.0
  0
VERTEX
  8
HIDDEN
  6
HIDDEN2
 62
     7
 10
3.919756
 20
15.433826
 30
0.0
  0
VERTEX
  8
HIDDEN
  6
HIDDEN2
 62
     7
 10
3.919756
 20
15.145076
 30
0.0
  0
VERTEX
  8
HIDDEN
  6
HIDDEN2
 62
     7
 10
3.977653
 20
15.076076
 30
0.0
  0
VERTEX
  8
HIDDEN
  6
HIDDEN2
 62
     7
 10
3.723858
 20
15.076076
 30
0.0
  0
VERTEX
  8
HIDDEN
  6
HIDDEN2
 62
     7
 10
3.781756
 20
15.145076
 30
0.0
  0
VERTEX
  8
HIDDEN
  6
HIDDEN2
 62
     7
 10
3.781756
 20
15.433826
 30
0.0
  0
VERTEX
  8
HIDDEN
  6
HIDDEN2
 62
     7
 10
3.799006
 20
15.451076
 30
0.0
  0
SEQEND
  8
HIDDEN
  6
HIDDEN2
 62
     7
  0
ARC
  8
OBJECT
 62
     7
 10
3.475756
 20
19.258078
 30
0.0
 40
0.125
 50
104.961029
 51
180.0
  0
POLYLINE
  8
DIM
 62
     7
 66
     1
 10
0.0
 20
0.0
 30
0.0
  0
VERTEX
  8
DIM
 62
     7
 10
3.350756
 20
19.321125
 30
0.0
  0
VERTEX
  8
DIM
 62
     7
 10
3.350756
 20
19.354061
 30
0.0
  0
VERTEX
  8
DIM
 62
     7
 10
3.382575
 20
19.362564
 30
0.0
  0
SEQEND
  8
DIM
 62
     7
  0
LINE
  8
OBJECT
 62
     7
 10
7.477156
 20
20.327524
 30
0.0
 11
8.116756
 21
17.948061
 31
0.0
  0
LINE
  8
OBJECT
 62
     7
 10
12.037466
 20
16.765424
 30
0.0
 11
11.585295
 21
15.076076
 31
0.0
  0
LINE
  8
OBJECT
 62
     7
 10
11.584756
 20
15.166076
 30
0.0
 11
11.584756
 21
15.076076
 31
0.0
  0
POLYLINE
  8
HIDDEN
  6
HIDDEN2
 62
     7
 66
     1
 10
0.0
 20
0.0
 30
0.0
 70
     1
  0
VERTEX
  8
HIDDEN
  6
HIDDEN2
 62
     7
 10
11.167506
 20
15.451076
 30
0.0
  0
VERTEX
  8
HIDDEN
  6
HIDDEN2
 62
     7
 10
11.184756
 20
15.433826
 30
0.0
  0
VERTEX
  8
HIDDEN
  6
HIDDEN2
 62
     7
 10
11.184756
 20
15.145076
 30
0.0
  0
VERTEX
  8
HIDDEN
  6
HIDDEN2
 62
     7
 10
11.242653
 20
15.076076
 30
0.0
  0
VERTEX
  8
HIDDEN
  6
HIDDEN2
 62
     7
 10
10.988858
 20
15.076076
 30
0.0
  0
VERTEX
  8
HIDDEN
  6
HIDDEN2
 62
     7
 10
11.046756
 20
15.145076
 30
0.0
  0
VERTEX
  8
HIDDEN
  6
HIDDEN2
 62
     7
 10
11.046756
 20
15.433826
 30
0.0
  0
VERTEX
  8
HIDDEN
  6
HIDDEN2
 62
     7
 10
11.064006
 20
15.451076
 30
0.0
  0
SEQEND
  8
HIDDEN
  6
HIDDEN2
 62
     7
  0
ARC
  8
OBJECT
 62
     7
 10
11.916716
 20
16.797744
 30
0.0
 40
0.125
 50
345.015458
 51
74.962184
  0
POLYLINE
  8
DIM
 62
     7
 66
     1
 10
0.0
 20
0.0
 30
0.0
  0
VERTEX
  8
DIM
 62
     7
 10
12.010037
 20
16.902105
 30
0.0
  0
VERTEX
  8
DIM
 62
     7
 10
12.069756
 20
16.886061
 30
0.0
  0
VERTEX
  8
DIM
 62
     7
 10
12.053767
 20
16.826327
 30
0.0
  0
SEQEND
  8
DIM
 62
     7
  0
POLYLINE
  8
HIDDEN
  6
HIDDEN2
 62
     7
 66
     1
 10
0.0
 20
0.0
 30
0.0
 70
     1
  0
VERTEX
  8
HIDDEN
  6
HIDDEN2
 62
     7
 10
16.61846
 20
15.451076
 30
0.0
  0
VERTEX
  8
HIDDEN
  6
HIDDEN2
 62
     7
 10
16.60121
 20
15.433826
 30
0.0
  0
VERTEX
  8
HIDDEN
  6
HIDDEN2
 62
     7
 10
16.60121
 20
15.145076
 30
0.0
  0
VERTEX
  8
HIDDEN
  6
HIDDEN2
 62
     7
 10
16.543312
 20
15.076076
 30
0.0
  0
VERTEX
  8
HIDDEN
  6
HIDDEN2
 62
     7
 10
16.797108
 20
15.076076
 30
0.0
  0
VERTEX
  8
HIDDEN
  6
HIDDEN2
 62
     7
 10
16.73921
 20
15.145076
 30
0.0
  0
VERTEX
  8
HIDDEN
  6
HIDDEN2
 62
     7
 10
16.73921
 20
15.433826
 30
0.0
  0
VERTEX
  8
HIDDEN
  6
HIDDEN2
 62
     7
 10
16.72196
 20
15.451076
 30
0.0
  0
SEQEND
  8
HIDDEN
  6
HIDDEN2
 62
     7
  0
POLYLINE
  8
HIDDEN
  6
HIDDEN2
 62
     7
 66
     1
 10
0.0
 20
0.0
 30
0.0
 70
     1
  0
VERTEX
  8
HIDDEN
  6
HIDDEN2
 62
     7
 10
24.61846
 20
15.451076
 30
0.0
  0
VERTEX
  8
HIDDEN
  6
HIDDEN2
 62
     7
 10
24.60121
 20
15.433826
 30
0.0
  0
VERTEX
  8
HIDDEN
  6
HIDDEN2
 62
     7
 10
24.60121
 20
15.145076
 30
0.0
  0
VERTEX
  8
HIDDEN
  6
HIDDEN2
 62
     7
 10
24.543312
 20
15.076076
 30
0.0
  0
VERTEX
  8
HIDDEN
  6
HIDDEN2
 62
     7
 10
24.797108
 20
15.076076
 30
0.0
  0
VERTEX
  8
HIDDEN
  6
HIDDEN2
 62
     7
 10
24.73921
 20
15.145076
 30
0.0
  0
VERTEX
  8
HIDDEN
  6
HIDDEN2
 62
     7
 10
24.73921
 20
15.433826
 30
0.0
  0
VERTEX
  8
HIDDEN
  6
HIDDEN2
 62
     7
 10
24.72196
 20
15.451076
 30
0.0
  0
SEQEND
  8
HIDDEN
  6
HIDDEN2
 62
     7
  0
LINE
  8
HIDDEN
 62
     7
 10
25.52971
 20
20.046012
 30
0.0
 11
15.81071
 21
20.046012
 31
0.0
  0
LINE
  8
OBJECT
 62
     7
 10
15.81071
 20
17.718452
 30
0.0
 11
25.52971
 21
17.718452
 31
0.0
  0
LINE
  8
OBJECT
 62
     7
 10
25.52971
 20
16.687317
 30
0.0
 11
15.81071
 21
16.687317
 31
0.0
  0
LINE
  8
HIDDEN
 62
     7
 10
25.52971
 20
15.228194
 30
0.0
 11
15.81071
 21
15.228194
 31
0.0
  0
POLYLINE
  8
OBJECT
 62
     7
 66
     1
 10
0.0
 20
0.0
 30
0.0
 70
     1
  0
VERTEX
  8
OBJECT
 62
     7
 10
25.52971
 20
15.178194
 30
0.0
  0
VERTEX
  8
OBJECT
 62
     7
 10
25.52971
 20
20.096012
 30
0.0
  0
VERTEX
  8
OBJECT
 62
     7
 10
15.81071
 20
20.096012
 30
0.0
  0
VERTEX
  8
OBJECT
 62
     7
 10
15.81071
 20
15.178194
 30
0.0
  0
SEQEND
  8
OBJECT
 62
     7
  0
LINE
  8
HIDDEN
 62
     7
 10
25.52971
 20
2.968025
 30
0.0
 11
15.81071
 21
2.968025
 31
0.0
  0
LINE
  8
HIDDEN
 62
     7
 10
25.52971
 20
3.355025
 30
0.0
 11
15.81071
 21
3.355025
 31
0.0
  0
LINE
  8
HIDDEN
 62
     7
 10
25.52971
 20
10.250014
 30
0.0
 11
15.81071
 21
10.250014
 31
0.0
  0
CIRCLE
  8
OBJECT
 62
     7
 10
16.66971
 20
3.168025
 30
0.0
 40
0.06
  0
CIRCLE
  8
OBJECT
 62
     7
 10
16.66971
 20
10.437014
 30
0.0
 40
0.06
  0
CIRCLE
  8
OBJECT
 62
     7
 10
24.67071
 20
3.168025
 30
0.0
 40
0.06
  0
CIRCLE
  8
OBJECT
 62
     7
 10
24.67071
 20
10.437014
 30
0.0
 40
0.06
  0
LINE
  8
HIDDEN
 62
     7
 10
15.81071
 20
11.019489
 30
0.0
 11
25.52971
 21
11.019489
 31
0.0
  0
LINE
  8
HIDDEN
 62
     7
 10
25.52971
 20
34.548393
 30
0.0
 11
15.81071
 21
34.548393
 31
0.0
  0
LINE
  8
OBJECT
 62
     7
 10
25.52971
 20
30.916284
 30
0.0
 11
15.81071
 21
30.916284
 31
0.0
  0
LINE
  8
OBJECT
 62
     7
 10
25.52971
 20
30.273377
 30
0.0
 11
15.81071
 21
30.273377
 31
0.0
  0
LINE
  8
HIDDEN
 62
     7
 10
15.81071
 20
26.496929
 30
0.0
 11
25.52971
 21
26.496929
 31
0.0
  0
POLYLINE
  8
OBJECT
 62
     7
 66
     1
 10
0.0
 20
0.0
 30
0.0
 70
     1
  0
VERTEX
  8
OBJECT
 62
     7
 10
15.81071
 20
34.598393
 30
0.0
  0
VERTEX
  8
OBJECT
 62
     7
 10
25.52971
 20
34.598393
 30
0.0
  0
VERTEX
  8
OBJECT
 62
     7
 10
25.52971
 20
26.446929
 30
0.0
  0
VERTEX
  8
OBJECT
 62
     7
 10
15.81071
 20
26.446929
 30
0.0
  0
SEQEND
  8
OBJECT
 62
     7
  0
LINE
  8
HIDDEN
 62
     7
 10
15.81071
 20
2.918025
 30
0.0
 11
25.52971
 21
2.918025
 31
0.0
  0
LINE
  8
HIDDEN
 62
     7
 10
25.52971
 20
2.918025
 30
0.0
 11
25.52971
 21
11.069489
 31
0.0
  0
LINE
  8
OBJECT
 62
     7
 10
25.52971
 20
11.069489
 30
0.0
 11
15.81071
 21
11.069489
 31
0.0
  0
LINE
  8
HIDDEN
 62
     7
 10
15.81071
 20
11.069489
 30
0.0
 11
15.81071
 21
2.918025
 31
0.0
  0
LINE
  8
OBJECT
 62
     7
 10
15.79521
 20
10.902025
 30
0.0
 11
15.79521
 21
11.358986
 31
0.0
  0
LINE
  8
OBJECT
 62
     7
 10
25.54521
 20
10.902025
 30
0.0
 11
25.54521
 21
11.358986
 31
0.0
  0
POLYLINE
  8
OBJECT
 62
     7
 66
     1
 10
0.0
 20
0.0
 30
0.0
 70
     1
  0
VERTEX
  8
OBJECT
 62
     7
 10
60.111193
 20
15.178194
 30
0.0
  0
VERTEX
  8
OBJECT
 62
     7
 10
60.111193
 20
20.096012
 30
0.0
  0
VERTEX
  8
OBJECT
 62
     7
 10
50.392193
 20
20.096012
 30
0.0
  0
VERTEX
  8
OBJECT
 62
     7
 10
50.392193
 20
15.178194
 30
0.0
  0
SEQEND
  8
OBJECT
 62
     7
  0
LINE
  8
HIDDEN
 62
     7
 10
60.111193
 20
15.228194
 30
0.0
 11
50.392193
 21
15.228194
 31
0.0
  0
LINE
  8
HIDDEN
 62
     7
 10
60.111193
 20
20.046012
 30
0.0
 11
50.392193
 21
20.046012
 31
0.0
  0
POLYLINE
  8
OBJECT
 62
     7
 66
     1
 10
0.0
 20
0.0
 30
0.0
 70
     1
  0
VERTEX
  8
OBJECT
 62
     7
 10
50.286693
 20
20.420076
 30
0.0
  0
VERTEX
  8
OBJECT
 62
     7
 10
50.376693
 20
20.420076
 30
0.0
  0
VERTEX
  8
OBJECT
 62
     7
 10
50.376693
 20
15.213076
 30
0.0
 42
0.414214
  0
VERTEX
  8
OBJECT
 62
     7
 10
50.423693
 20
15.166076
 30
0.0
  0
VERTEX
  8
OBJECT
 62
     7
 10
60.079693
 20
15.166076
 30
0.0
 42
0.414214
  0
VERTEX
  8
OBJECT
 62
     7
 10
60.126693
 20
15.213076
 30
0.0
  0
VERTEX
  8
OBJECT
 62
     7
 10
60.126693
 20
20.420076
 30
0.0
  0
VERTEX
  8
OBJECT
 62
     7
 10
60.216693
 20
20.420076
 30
0.0
  0
VERTEX
  8
OBJECT
 62
     7
 10
60.216693
 20
15.213076
 30
0.0
 42
-0.414214
  0
VERTEX
  8
OBJECT
 62
     7
 10
60.079693
 20
15.076076
 30
0.0
  0
VERTEX
  8
OBJECT
 62
     7
 10
50.423693
 20
15.076076
 30
0.0
 42
-0.414214
  0
VERTEX
  8
OBJECT
 62
     7
 10
50.286693
 20
15.213076
 30
0.0
  0
SEQEND
  8
OBJECT
 62
     7
  0
POLYLINE
  8
HIDDEN
  6
HIDDEN2
 62
     7
 66
     1
 10
0.0
 20
0.0
 30
0.0
 70
     1
  0
VERTEX
  8
HIDDEN
  6
HIDDEN2
 62
     7
 10
51.199943
 20
15.451076
 30
0.0
  0
VERTEX
  8
HIDDEN
  6
HIDDEN2
 62
     7
 10
51.182693
 20
15.433826
 30
0.0
  0
VERTEX
  8
HIDDEN
  6
HIDDEN2
 62
     7
 10
51.182693
 20
15.145076
 30
0.0
  0
VERTEX
  8
HIDDEN
  6
HIDDEN2
 62
     7
 10
51.124795
 20
15.076076
 30
0.0
  0
VERTEX
  8
HIDDEN
  6
HIDDEN2
 62
     7
 10
51.378591
 20
15.076076
 30
0.0
  0
VERTEX
  8
HIDDEN
  6
HIDDEN2
 62
     7
 10
51.320693
 20
15.145076
 30
0.0
  0
VERTEX
  8
HIDDEN
  6
HIDDEN2
 62
     7
 10
51.320693
 20
15.433826
 30
0.0
  0
VERTEX
  8
HIDDEN
  6
HIDDEN2
 62
     7
 10
51.303443
 20
15.451076
 30
0.0
  0
SEQEND
  8
HIDDEN
  6
HIDDEN2
 62
     7
  0
POLYLINE
  8
HIDDEN
  6
HIDDEN2
 62
     7
 66
     1
 10
0.0
 20
0.0
 30
0.0
 70
     1
  0
VERTEX
  8
HIDDEN
  6
HIDDEN2
 62
     7
 10
59.199943
 20
15.451076
 30
0.0
  0
VERTEX
  8
HIDDEN
  6
HIDDEN2
 62
     7
 10
59.182693
 20
15.433826
 30
0.0
  0
VERTEX
  8
HIDDEN
  6
HIDDEN2
 62
     7
 10
59.182693
 20
15.145076
 30
0.0
  0
VERTEX
  8
HIDDEN
  6
HIDDEN2
 62
     7
 10
59.124795
 20
15.076076
 30
0.0
  0
VERTEX
  8
HIDDEN
  6
HIDDEN2
 62
     7
 10
59.378591
 20
15.076076
 30
0.0
  0
VERTEX
  8
HIDDEN
  6
HIDDEN2
 62
     7
 10
59.320693
 20
15.145076
 30
0.0
  0
VERTEX
  8
HIDDEN
  6
HIDDEN2
 62
     7
 10
59.320693
 20
15.433826
 30
0.0
  0
VERTEX
  8
HIDDEN
  6
HIDDEN2
 62
     7
 10
59.303443
 20
15.451076
 30
0.0
  0
SEQEND
  8
HIDDEN
  6
HIDDEN2
 62
     7
  0
ARC
  8
OBJECT
 62
     7
 10
55.251693
 20
15.928194
 30
0.0
 40
0.4375
 50
97.180756
 51
262.819244
  0
LINE
  8
OBJECT
 62
     7
 10
55.306381
 20
16.311006
 30
0.0
 11
55.306381
 21
16.475069
 31
0.0
  0
LINE
  8
OBJECT
 62
     7
 10
55.306381
 20
15.545381
 30
0.0
 11
55.306381
 21
15.381319
 31
0.0
  0
ARC
  8
OBJECT
 62
     7
 10
55.251693
 20
15.928194
 30
0.0
 40
0.4375
 50
277.180756
 51
82.819244
  0
LINE
  8
OBJECT
 62
     7
 10
55.197006
 20
16.311006
 30
0.0
 11
55.197006
 21
16.475069
 31
0.0
  0
LINE
  8
OBJECT
 62
     7
 10
55.197006
 20
15.545381
 30
0.0
 11
55.197006
 21
15.381319
 31
0.0
  0
LINE
  8
OBJECT
 62
     7
 10
60.111193
 20
19.131194
 30
0.0
 11
50.392193
 21
19.131194
 31
0.0
  0
POLYLINE
  8
BEND
 62
     7
 66
     1
 10
0.0
 20
0.0
 30
0.0
 41
0.313422
  0
VERTEX
  8
BEND
 62
     7
 10
22.094566
 20
14.571082
 30
0.0
  0
VERTEX
  8
BEND
 62
     7
 10
22.721409
 20
14.571082
 30
0.0
 41
0.0
  0
VERTEX
  8
BEND
 62
     7
 10
23.598005
 20
14.571082
 30
0.0
 41
0.0
  0
VERTEX
  8
BEND
 62
     7
 10
23.598005
 20
20.748355
 30
0.0
 41
0.0
  0
VERTEX
  8
BEND
 62
     7
 10
22.721409
 20
20.748355
 30
0.0
 40
0.313422
 41
0.0
  0
VERTEX
  8
BEND
 62
     7
 10
22.094566
 20
20.748355
 30
0.0
 41
0.0
  0
SEQEND
  8
BEND
 62
     7
  0
INSERT
  8
BEND
 62
     7
 66
     1
  2
SECTION
 10
24.072916
 20
14.571082
 30
0.0
 41
1.671582
 42
1.671582
 50
90.0
 43
1.671582
  0
ATTRIB
  8
0
 10
23.844345
 20
14.271082
 30
0.0
 40
0.6
  1
A
  2
SECTION
 70
     0
 41
0.8
  7
SECTION
 72
     4
 11
24.072916
 21
14.571082
 31
0.0
  0
SEQEND
  8
BEND
 62
     7
  0
INSERT
  8
BEND
 62
     7
 66
     1
  2
SECTION
 10
24.072916
 20
20.748355
 30
0.0
 41
1.671582
 42
1.671582
 50
90.0
 43
1.671582
  0
ATTRIB
  8
0
 10
23.844345
 20
20.448355
 30
0.0
 40
0.6
  1
A
  2
SECTION
 70
     0
 41
0.8
  7
SECTION
 72
     4
 11
24.072916
 21
20.748355
 31
0.0
  0
SEQEND
  8
BEND
 62
     7
  0
DIMENSION
  8
DIM
 62
     7
  2
*D1
 10
49.286638
 20
15.178194
 30
0.0
 11
49.286638
 21
15.553194
 31
0.0
 12
4.822495
 22
-4.68102
 32
0.0
 13
55.251693
 23
15.928194
 33
0.0
 14
50.392193
 24
15.178194
 34
0.0
 50
90.0
  3
23NSTDI
  0
DIMENSION
  8
DIM
 62
     7
  2
*D2
 10
60.216693
 20
14.309669
 30
0.0
 11
57.734193
 21
14.309669
 31
0.0
 12
4.822495
 22
-4.68102
 32
0.0
 13
55.251693
 23
15.928194
 33
0.0
 14
60.216693
 24
15.213076
 34
0.0
  3
23NSTD
  0
POLYLINE
  8
DIM
 62
     7
 66
     1
 10
0.0
 20
0.0
 30
0.0
 41
0.27
  0
VERTEX
  8
DIM
 62
     7
 10
54.916903
 20
15.646552
 30
0.0
  0
VERTEX
  8
DIM
 62
     7
 10
54.426118
 20
15.119741
 30
0.0
 41
0.0
  0
VERTEX
  8
DIM
 62
     7
 10
52.621255
 20
13.182392
 30
0.0
 41
0.0
  0
VERTEX
  8
DIM
 62
     7
 10
51.901255
 20
13.182392
 30
0.0
 41
0.0
  0
SEQEND
  8
DIM
 62
     7
  0
TEXT
  8
DIM
 62
     7
 10
48.603755
 20
12.932392
 30
0.0
 40
0.5
  1
0.875 DIA.
 41
0.75
  7
TXT
 72
     2
 11
51.541255
 21
13.182392
 31
0.0
 73
     2
  0
TEXT
  8
DIM
 62
     7
 10
48.666255
 20
12.099059
 30
0.0
 40
0.5
  1
KNOCKOUT
 41
0.75
  7
TXT
 72
     2
 11
51.541255
 21
12.349059
 31
0.0
 73
     2
  0
DIMENSION
  8
DIM
 62
     7
  2
*D3
 10
25.54521
 20
21.4339
 30
0.0
 11
20.67021
 21
21.4339
 31
0.0
 12
-29.758988
 22
-4.68102
 32
0.0
 13
15.79521
 23
20.420076
 33
0.0
 14
25.54521
 24
20.420076
 34
0.0
  3
23NSTD
  0
DIMENSION
  8
DIM
 62
     7
  2
*D4
 10
25.63521
 20
22.5579
 30
0.0
 11
20.67021
 21
22.5579
 31
0.0
 12
-29.758988
 22
-4.68102
 32
0.0
 13
15.70521
 23
20.420076
 33
0.0
 14
25.63521
 24
20.420076
 34
0.0
  3
23NSTD
  0
DIMENSION
  8
DIM
 62
     7
  2
*D5
 10
2.246409
 20
19.354061
 30
0.0
 11
2.246409
 21
17.215068
 31
0.0
 12
0.0
 22
-4.68102
 32
0.0
 13
3.350756
 23
15.076076
 33
0.0
 14
3.350756
 24
19.354061
 34
0.0
 50
90.0
  3
23NSTD
  0
DIMENSION
  8
DIM
 62
     7
  2
*D6
 10
7.112563
 20
21.654872
 30
0.0
 11
5.065563
 21
21.091404
 31
0.0
 12
0.0
 22
-4.68102
 32
0.0
 70
     1
 13
3.350756
 23
19.321125
 33
0.0
 14
7.444756
 24
20.448061
 34
0.0
  3
23NSTDI
  0
DIMENSION
  8
DIM
 62
     7
  2
*D7
 10
10.738772
 20
18.652859
 30
0.0
 11
10.402772
 21
19.902859
 31
0.0
 12
0.0
 22
-4.68102
 32
0.0
 70
     1
 13
7.444756
 23
20.448061
 33
0.0
 14
8.116756
 24
17.948061
 34
0.0
  3
23NSTDI
  0
DIMENSION
  8
DIM
 62
     7
  2
*D8
 10
13.379256
 20
21.760313
 30
0.0
 11
11.402756
 21
22.291313
 31
0.0
 12
0.0
 22
-4.68102
 32
0.0
 70
     1
 13
8.116756
 23
17.948061
 33
0.0
 14
12.069756
 24
16.886061
 34
0.0
  3
23NSTDI
  0
DIMENSION
  8
DIM
 62
     7
  2
*D9
 10
13.443848
 20
16.518271
 30
0.0
 11
13.201618
 21
15.613279
 31
0.0
 12
0.0
 22
-4.68102
 32
0.0
 70
     1
 13
11.585295
 23
15.076076
 33
0.0
 14
12.069756
 24
16.886061
 34
0.0
  3
23NSTDI
  0
DIMENSION
  8
DIM
 62
     7
  2
*D10
 10
11.585295
 20
14.279457
 30
0.0
 11
7.468025
 21
14.279457
 31
0.0
 12
0.0
 22
-4.68102
 32
0.0
 13
3.350756
 23
15.076076
 33
0.0
 14
11.585295
 24
15.076076
 34
0.0
  3
23NSTD
  0
DIMENSION
  8
DIM
 62
     7
  2
*D11
 10
12.041716
 20
13.155457
 30
0.0
 11
7.696236
 21
13.155457
 31
0.0
 12
0.0
 22
-4.68102
 32
0.0
 13
3.350756
 23
15.076076
 33
0.0
 14
12.041716
 24
16.797744
 34
0.0
  3
23NSTD
  0
DIMENSION
  8
DIM
 62
     7
  2
*D12
 10
27.009301
 20
15.076076
 30
0.0
 11
27.009301
 21
17.748076
 31
0.0
 12
0.0
 22
-4.68102
 32
0.0
 13
25.63521
 23
20.420076
 33
0.0
 14
25.49821
 24
15.076076
 34
0.0
 50
90.0
  3
23NSTD
  0
ARC
  8
OBJECT
 62
     7
 10
34.685254
 20
16.797744
 30
0.0
 40
0.125
 50
105.037816
 51
194.984542
  0
ARC
  8
OBJECT
 62
     7
 10
39.245529
 20
20.295076
 30
0.0
 40
0.125
 50
75.038971
 51
164.954527
  0
ARC
  8
OBJECT
 62
     7
 10
43.126215
 20
19.258078
 30
0.0
 40
0.125
 50
0.0
 51
75.038971
  0
DIMENSION
  8
DIM
 62
     7
  2
*D19
 10
43.251215
 20
15.076076
 30
0.0
 11
41.214444
 21
22.006564
 31
0.0
 12
0.0
 22
-4.68102
 32
0.0
 70
     2
 13
43.158485
 23
19.37884
 33
0.0
 14
39.2778
 24
20.415838
 34
0.0
 15
43.251215
 25
19.258078
 35
0.0
 16
41.651797
 26
22.291079
 36
0.0
  3
23NSTD
  0
DIMENSION
  8
DIM
 62
     7
  2
*D25
 10
39.2778
 20
20.415838
 30
0.0
 11
37.986611
 21
23.02554
 31
0.0
 12
0.0
 22
-4.68102
 32
0.0
 70
   130
 13
39.124814
 23
20.327524
 33
0.0
 14
38.485215
 24
17.948061
 34
0.0
 15
43.158485
 25
19.37884
 35
0.0
 16
38.263971
 26
23.10599
 36
0.0
  3
23NSTD
  0
DIMENSION
  8
DIM
 62
     7
  2
*D17
 10
34.652822
 20
16.918463
 30
0.0
 11
31.960498
 21
18.370173
 31
0.0
 12
0.0
 22
-4.68102
 32
0.0
 70
     2
 13
34.564504
 23
16.765424
 33
0.0
 14
35.016675
 24
15.076076
 34
0.0
 15
38.485215
 25
17.948061
 35
0.0
 16
32.321687
 26
18.868455
 36
0.0
  3
23NSTD
  0
DIMENSION
  8
DIM
 62
     7
  2
*D13
 10
43.251215
 20
15.076076
 30
0.0
 11
33.999966
 21
15.856442
 31
0.0
 12
3.403807
 22
-4.68102
 32
0.0
 70
     2
 13
34.564504
 23
16.765424
 33
0.0
 14
35.016675
 24
15.076076
 34
0.0
 15
35.016675
 25
15.076076
 35
0.0
 16
33.771814
 26
15.381017
 36
0.0
  3
23NSTD
  0
DIMENSION
  8
DIM
 62
     7
  2
*D18
 10
38.485215
 20
17.948061
 30
0.0
 11
37.080171
 21
19.353293
 31
0.0
 12
0.0
 22
-4.68102
 32
0.0
 70
     2
 13
38.485215
 23
17.948061
 33
0.0
 14
34.652822
 24
16.918463
 34
0.0
 15
39.124814
 25
20.327524
 35
0.0
 16
36.72405
 26
18.868455
 36
0.0
  3
23NSTD
  0
DIMENSION
  8
DIM
 62
     7
  2
*D16
 10
43.251215
 20
21.054981
 30
0.0
 11
46.551215
 21
21.054981
 31
0.0
 12
0.0
 22
-4.68102
 32
0.0
  1
<> TYP.
 13
43.001215
 23
19.056763
 33
0.0
 14
43.251215
 24
19.258078
 34
0.0
  3
23NSTD
  0
DIMENSION
  8
DIM
 62
     7
  2
*D24
 10
31.117884
 20
22.315323
 30
0.0
 11
30.79643
 21
21.115643
 31
0.0
 12
0.0
 22
-4.68102
 32
0.0
 70
     1
 13
38.676199
 23
17.718452
 33
0.0
 14
39.319105
 24
20.117812
 34
0.0
  3
23NSTDI
  0
DIMENSION
  8
DIM
 62
     7
  2
*D23
 10
33.136268
 20
23.000761
 30
0.0
 11
35.060392
 21
23.516329
 31
0.0
 12
0.0
 22
-4.68102
 32
0.0
 70
     1
 13
38.676199
 23
17.718452
 33
0.0
 14
34.82795
 24
16.687317
 34
0.0
  3
23NSTDI
  0
DIMENSION
  8
DIM
 62
     7
  2
*D20
 10
40.372025
 20
24.04736
 30
0.0
 11
42.213079
 21
23.55405
 31
0.0
 12
0.0
 22
-4.68102
 32
0.0
 70
     1
 13
43.001215
 23
19.131194
 33
0.0
 14
39.319105
 24
20.117812
 34
0.0
  3
23NSTDI
  0
DIMENSION
  8
DIM
 62
     7
  2
*D15
 10
30.472274
 20
15.520217
 30
0.0
 11
30.674411
 21
14.765829
 31
0.0
 12
17.370611
 22
-33.045245
 32
0.0
 70
     1
 13
35.232226
 23
15.178541
 33
0.0
 14
34.82795
 24
16.687317
 34
0.0
  3
23NSTDI
  0
DIMENSION
  8
DIM
 62
     7
  2
*D14
 10
29.051113
 20
16.687317
 30
0.0
 11
29.051113
 21
15.932929
 31
0.0
 12
17.370611
 22
-33.045245
 32
0.0
 13
35.232226
 23
15.178541
 33
0.0
 14
34.82795
 24
16.687317
 34
0.0
 50
270.0
  3
23NSTDI
  0
DIMENSION
  8
DIM
 62
     7
  2
*D26
 10
46.560511
 20
20.117812
 30
0.0
 11
46.560511
 21
17.648003
 31
0.0
 12
0.0
 22
-4.68102
 32
0.0
 13
43.001215
 23
15.178194
 33
0.0
 14
39.319105
 24
20.117812
 34
0.0
 50
270.0
  3
23NSTD
  0
DIMENSION
  8
DIM
 62
     7
  2
*D27
 10
44.692511
 20
19.131194
 30
0.0
 11
44.692511
 21
17.154694
 31
0.0
 12
0.0
 22
-4.68102
 32
0.0
 13
43.001215
 23
15.178194
 33
0.0
 14
43.001215
 24
19.131194
 34
0.0
 50
270.0
  3
23NSTD
  0
DIMENSION
  8
DIM
 62
     7
  2
*D22
 10
43.001215
 20
14.063026
 30
0.0
 11
45.519965
 21
14.063026
 31
0.0
 12
0.0
 22
-4.68102
 32
0.0
 13
42.564215
 23
15.178194
 33
0.0
 14
43.001215
 24
15.178194
 34
0.0
  3
23NSTD
  0
DIMENSION
  8
DIM
 62
     7
  2
*D21
 10
35.232226
 20
12.939026
 30
0.0
 11
39.11672
 21
12.939026
 31
0.0
 12
0.0
 22
-4.68102
 32
0.0
 13
43.001215
 23
15.178194
 33
0.0
 14
35.232226
 24
15.178541
 34
0.0
  3
23NSTD
  0
INSERT
  8
TITLE
  2
HBS
 10
0.0
 20
0.0
 30
0.0
 41
4.0
 42
4.0
 43
4.0
  0
TEXT
  8
TEXT
 62
     7
 10
32.808317
 20
8.474331
 30
0.0
 40
0.5
  1
%%uMATERIAL:
 41
0.75
  7
TXT
  0
TEXT
  8
TEXT
 62
     7
 10
33.480577
 20
7.640998
 30
0.0
 40
0.5
  1
BASE
 41
0.75
  7
TXT
  0
TEXT
  8
TEXT
 62
     7
 10
33.480577
 20
6.807665
 30
0.0
 40
0.5
  1
COVER
 41
0.75
  7
TXT
  0
TEXT
  8
TEXT
 62
     7
 10
36.88921
 20
7.639921
 30
0.0
 40
0.5
  1
0.090 THK. ALUMINUM
 41
0.75
  7
TXT
  0
TEXT
  8
TEXT
 62
     7
 10
36.88921
 20
6.806587
 30
0.0
 40
0.5
  1
0.050 THK. ALUMINUM
 41
0.75
  7
TXT
  0
LINE
  8
TEXT
 62
     7
 10
35.079787
 20
7.639921
 30
0.0
 11
36.560564
 21
7.639921
 31
0.0
  0
LINE
  8
TEXT
 62
     7
 10
35.556874
 20
6.816145
 30
0.0
 11
36.560564
 21
6.816145
 31
0.0
  0
TEXT
  8
TEXT
 62
     7
 10
32.896284
 20
2.121738
 30
0.0
 40
0.5
  1
SUPPLIED WITH FOUR (4) #6-32 x 3/8 LG. SCREWS
 41
0.75
  7
TXT
  0
TEXT
  8
TEXT
 10
32.896284
 20
1.275877
 30
0.0
 40
0.5
  1
AND FOUR (4) SELF-ADHESIVE FEET.
 41
0.75
  7
TXT
  0
TEXT
  8
TEXT
 62
     7
 10
49.278565
 20
6.011771
 30
0.0
 40
0.5
  1
BLACK
 41
0.75
  7
TXT
  0
TEXT
  8
TEXT
 62
     7
 10
49.278565
 20
7.654604
 30
0.0
 40
0.5
  1
BLACK TEXTURED
 41
0.75
  7
TXT
  0
TEXT
  8
TEXT
 62
     7
 10
49.278565
 20
6.821271
 30
0.0
 40
0.5
  1
WHITE (PREPAINTED)
 41
0.75
  7
TXT
  0
TEXT
  8
TEXT
 62
     7
 10
45.126643
 20
8.489015
 30
0.0
 40
0.5
  1
%%uFINISH:
 41
0.75
  7
TXT
  0
LINE
  8
TEXT
 62
     7
 10
47.398112
 20
7.639921
 30
0.0
 11
48.949919
 21
7.639921
 31
0.0
  0
LINE
  8
TEXT
 62
     7
 10
47.383564
 20
6.032396
 30
0.0
 11
48.949919
 21
6.032396
 31
0.0
  0
LINE
  8
TEXT
 62
     7
 10
47.940258
 20
6.794467
 30
0.0
 11
48.949919
 21
6.794467
 31
0.0
  0
TEXT
  8
TEXT
 62
     7
 10
45.798903
 20
7.655682
 30
0.0
 40
0.5
  1
BASE
 41
0.75
  7
TXT
  0
TEXT
  8
TEXT
 62
     7
 10
45.798903
 20
6.012848
 30
0.0
 40
0.5
  1
FEET
 41
0.75
  7
TXT
  0
TEXT
  8
TEXT
 62
     7
 10
45.798903
 20
6.822348
 30
0.0
 40
0.5
  1
COVER
 41
0.75
  7
TXT
  0
TEXT
  8
TEXT
 10
15.389125
 20
39.0835
 30
0.0
 40
0.625
  1
COMPUCAB
 41
0.75
  7
TXT
 72
     4
 11
17.186
 21
39.396
 31
0.0
  0
TEXT
  8
TEXT
 10
46.3755
 20
39.0835
 30
0.0
 40
0.625
  1
SC-13100
 41
0.75
  7
TXT
 72
     4
 11
47.938
 21
39.396
 31
0.0
  0
LINE
  8
OBJECT
 62
     7
 10
51.39355
 20
23.600315
 30
0.0
 11
58.525269
 21
27.717815
 31
0.0
  0
LINE
  8
OBJECT
 62
     7
 10
58.525269
 20
27.717815
 30
0.0
 11
58.525269
 21
31.901686
 31
0.0
  0
LINE
  8
OBJECT
 62
     7
 10
42.793917
 20
28.565315
 30
0.0
 11
51.39355
 21
23.600315
 31
0.0
  0
LINE
  8
OBJECT
 62
     7
 10
42.84341
 20
28.62674
 30
0.0
 11
51.287158
 21
23.75174
 31
0.0
  0
LINE
  8
OBJECT
 62
     7
 10
58.356424
 20
32.016381
 30
0.0
 11
54.944828
 21
31.099375
 31
0.0
  0
LINE
  8
OBJECT
 62
     7
 10
54.892866
 20
31.044187
 30
0.0
 11
54.31985
 21
28.251815
 31
0.0
  0
LINE
  8
OBJECT
 62
     7
 10
54.31985
 20
28.251815
 30
0.0
 11
50.929771
 21
25.242888
 31
0.0
  0
LINE
  8
OBJECT
 62
     7
 10
50.907956
 20
25.170275
 30
0.0
 11
51.287158
 21
23.75174
 31
0.0
  0
LINE
  8
OBJECT
 62
     7
 10
58.434367
 20
31.971381
 30
0.0
 11
55.02277
 21
31.054375
 31
0.0
  0
LINE
  8
OBJECT
 62
     7
 10
54.970808
 20
30.999187
 30
0.0
 11
54.397792
 21
28.206815
 31
0.0
  0
LINE
  8
OBJECT
 62
     7
 10
54.397792
 20
28.206815
 30
0.0
 11
51.007713
 21
25.197888
 31
0.0
  0
LINE
  8
OBJECT
 62
     7
 10
50.985899
 20
25.125275
 30
0.0
 11
51.39355
 21
23.600315
 31
0.0
  0
LINE
  8
OBJECT
 62
     7
 10
49.912677
 20
36.891381
 30
0.0
 11
46.501081
 21
35.974375
 31
0.0
  0
LINE
  8
OBJECT
 62
     7
 10
46.449118
 20
35.919187
 30
0.0
 11
45.876102
 21
33.126815
 31
0.0
  0
LINE
  8
OBJECT
 62
     7
 10
45.876102
 20
33.126815
 30
0.0
 11
42.486023
 21
30.117888
 31
0.0
  0
LINE
  8
OBJECT
 62
     7
 10
42.464209
 20
30.045275
 30
0.0
 11
42.84341
 21
28.62674
 31
0.0
  0
LINE
  8
OBJECT
 62
     7
 10
49.834734
 20
36.936381
 30
0.0
 11
46.423138
 21
36.019375
 31
0.0
  0
LINE
  8
OBJECT
 62
     7
 10
46.371176
 20
35.964187
 30
0.0
 11
45.79816
 21
33.171815
 31
0.0
  0
LINE
  8
OBJECT
 62
     7
 10
45.79816
 20
33.171815
 30
0.0
 11
42.408081
 21
30.162888
 31
0.0
  0
LINE
  8
OBJECT
 62
     7
 10
42.386266
 20
30.090275
 30
0.0
 11
42.793917
 21
28.565315
 31
0.0
  0
LINE
  8
OBJECT
 62
     7
 10
49.70913
 20
36.586669
 30
0.0
 11
46.660068
 21
35.76711
 31
0.0
  0
LINE
  8
OBJECT
 62
     7
 10
46.660068
 20
35.76711
 30
0.0
 11
46.10946
 21
33.083936
 31
0.0
  0
LINE
  8
OBJECT
 62
     7
 10
46.10946
 20
33.083936
 30
0.0
 11
42.708713
 21
30.06554
 31
0.0
  0
LINE
  8
OBJECT
 62
     7
 10
42.708713
 20
30.06554
 30
0.0
 11
43.059917
 21
28.75174
 31
0.0
  0
LINE
  8
OBJECT
 62
     7
 10
50.003579
 20
36.821686
 30
0.0
 11
50.003579
 21
36.416669
 31
0.0
  0
LINE
  8
OBJECT
 62
     7
 10
49.70913
 20
36.586669
 30
0.0
 11
57.857419
 21
31.882253
 31
0.0
  0
LINE
  8
OBJECT
 62
     7
 10
46.10946
 20
33.083936
 30
0.0
 11
54.336701
 21
28.333936
 31
0.0
  0
LINE
  8
OBJECT
 62
     7
 10
42.708713
 20
30.06554
 30
0.0
 11
50.981802
 21
25.28907
 31
0.0
  0
LINE
  8
OBJECT
 62
     7
 10
43.059917
 20
28.75174
 30
0.0
 11
51.208205
 21
24.047323
 31
0.0
  0
LINE
  8
OBJECT
 62
     7
 10
54.887309
 20
31.01711
 30
0.0
 11
46.660068
 21
35.76711
 31
0.0
  0
ARC
  8
OBJECT
 62
     7
 10
58.4531
 20
31.901686
 30
0.0
 40
0.072169
 50
0.0
 51
105.044982
  0
ARC
  8
OBJECT
 62
     7
 10
58.375158
 20
31.946686
 30
0.0
 40
0.072169
 50
59.472557
 51
105.044982
  0
LINE
  8
OBJECT
 62
     7
 10
58.411816
 20
32.008851
 30
0.0
 11
58.497709
 21
31.958201
 31
0.0
  0
ARC
  8
OBJECT
 62
     7
 10
55.041504
 20
30.98468
 30
0.0
 40
0.072169
 50
105.044982
 51
168.403453
  0
ARC
  8
OBJECT
 62
     7
 10
54.963562
 20
31.02968
 30
0.0
 40
0.072169
 50
105.044982
 51
168.403453
  0
ARC
  8
OBJECT
 62
     7
 10
51.055619
 20
25.143913
 30
0.0
 40
0.072169
 50
131.591245
 51
194.96631
  0
ARC
  8
OBJECT
 62
     7
 10
50.977677
 20
25.188913
 30
0.0
 40
0.072169
 50
131.591245
 51
194.96631
  0
ARC
  8
OBJECT
 62
     7
 10
42.533929
 20
30.063913
 30
0.0
 40
0.072169
 50
131.591245
 51
194.96631
  0
ARC
  8
OBJECT
 62
     7
 10
42.455987
 20
30.108913
 30
0.0
 40
0.072169
 50
131.591245
 51
194.96631
  0
ARC
  8
OBJECT
 62
     7
 10
46.519814
 20
35.90468
 30
0.0
 40
0.072169
 50
105.044982
 51
168.403453
  0
ARC
  8
OBJECT
 62
     7
 10
46.441872
 20
35.94968
 30
0.0
 40
0.072169
 50
105.044982
 51
168.403453
  0
ARC
  8
OBJECT
 62
     7
 10
49.93141
 20
36.821686
 30
0.0
 40
0.072169
 50
360.0
 51
105.044982
  0
ARC
  8
OBJECT
 62
     7
 10
49.853468
 20
36.866686
 30
0.0
 40
0.072169
 50
59.472557
 51
105.044982
  0
LINE
  8
OBJECT
 62
     7
 10
49.890126
 20
36.928851
 30
0.0
 11
49.976019
 21
36.878201
 31
0.0
  0
POLYLINE
  8
DIM
 62
     7
 66
     1
 10
0.0
 20
0.0
 30
0.0
 41
0.27
  0
VERTEX
  8
DIM
 62
     7
 10
42.395016
 20
30.057543
 30
0.0
  0
VERTEX
  8
DIM
 62
     7
 10
41.765547
 20
30.407068
 30
0.0
 41
0.0
  0
VERTEX
  8
DIM
 62
     7
 10
40.641682
 20
31.031117
 30
0.0
 41
0.0
  0
VERTEX
  8
DIM
 62
     7
 10
39.921682
 20
31.031117
 30
0.0
 41
0.0
  0
SEQEND
  8
DIM
 62
     7
  0
TEXT
  8
DIM
 62
     7
 10
37.374182
 20
30.781117
 30
0.0
 40
0.5
  1
0.125 R.
 41
0.75
  7
TXT
 72
     2
 11
39.561682
 21
31.031117
 31
0.0
 73
     2
  0
TEXT
  8
DIM
 62
     7
 10
38.436682
 20
29.947784
 30
0.0
 40
0.5
  1
TYP.
 41
0.75
  7
TXT
 72
     2
 11
39.561682
 21
30.197784
 31
0.0
 73
     2
  0
TEXT
  8
TEXT
 62
     7
 10
32.896284
 20
3.740272
 30
0.0
 40
0.5
  1
SHIPPED UNASSEMBLED
 41
0.75
  7
TXT
  0
ENDSEC
  0
EOF
