  0
SECTION
  2
HEADER
  9
$ACADVER
  1
AC1009
  9
$INSBASE
 10
0.0
 20
0.0
 30
0.0
  9
$EXTMIN
 10
0.0
 20
0.0
 30
0.0
  9
$EXTMAX
 10
77.5
 20
50.6
 30
0.0
  9
$LIMMIN
 10
0.0
 20
0.0
  9
$LIMMAX
 10
77.5
 20
50.6
  9
$ORTHOMODE
 70
     0
  9
$REGENMODE
 70
     1
  9
$FILLMODE
 70
     1
  9
$QTEXTMODE
 70
     0
  9
$MIRRTEXT
 70
     0
  9
$DRAGMODE
 70
     2
  9
$LTSCALE
 40
1.0
  9
$OSMODE
 70
     0
  9
$ATTMODE
 70
     1
  9
$TEXTSIZE
 40
0.125
  9
$TRACEWID
 40
0.05
  9
$TEXTSTYLE
  7
TXT
  9
$CLAYER
  8
DIM
  9
$CELTYPE
  6
BYLAYER
  9
$CECOLOR
 62
   256
  9
$DIMSCALE
 40
5.0
  9
$DIMASZ
 40
0.18
  9
$DIMEXO
 40
0.063
  9
$DIMDLI
 40
0.281
  9
$DIMRND
 40
0.0
  9
$DIMDLE
 40
0.0
  9
$DIMEXE
 40
0.093
  9
$DIMTP
 40
0.0
  9
$DIMTM
 40
0.0
  9
$DIMTXT
 40
0.125
  9
$DIMCEN
 40
0.09
  9
$DIMTSZ
 40
0.0
  9
$DIMTOL
 70
     0
  9
$DIMLIM
 70
     0
  9
$DIMTIH
 70
     1
  9
$DIMTOH
 70
     1
  9
$DIMSE1
 70
     0
  9
$DIMSE2
 70
     0
  9
$DIMTAD
 70
     0
  9
$DIMZIN
 70
     0
  9
$DIMBLK
  1

  9
$DIMASO
 70
     1
  9
$DIMSHO
 70
     1
  9
$DIMPOST
  1

  9
$DIMAPOST
  1

  9
$DIMALT
 70
     0
  9
$DIMALTD
 70
     2
  9
$DIMALTF
 40
25.4
  9
$DIMLFAC
 40
1.0
  9
$DIMTOFL
 70
     0
  9
$DIMTVP
 40
0.0
  9
$DIMTIX
 70
     0
  9
$DIMSOXD
 70
     0
  9
$DIMSAH
 70
     0
  9
$DIMBLK1
  1

  9
$DIMBLK2
  1

  9
$DIMSTYLE
  2
23NSTD
  9
$DIMCLRD
 70
     0
  9
$DIMCLRE
 70
     0
  9
$DIMCLRT
 70
     0
  9
$DIMTFAC
 40
1.0
  9
$DIMGAP
 40
0.09
  9
$LUNITS
 70
     2
  9
$LUPREC
 70
     3
  9
$SKETCHINC
 40
0.1
  9
$FILLETRAD
 40
0.0
  9
$AUNITS
 70
     0
  9
$AUPREC
 70
     0
  9
$MENU
  1
acad
  9
$ELEVATION
 40
0.0
  9
$PELEVATION
 40
0.0
  9
$THICKNESS
 40
0.0
  9
$LIMCHECK
 70
     0
  9
$BLIPMODE
 70
     1
  9
$CHAMFERA
 40
0.0
  9
$CHAMFERB
 40
0.0
  9
$SKPOLY
 70
     0
  9
$TDCREATE
 40
2450360.446649074
  9
$TDUPDATE
 40
2450364.628063425
  9
$TDINDWG
 40
0.1103613426
  9
$TDUSRTIMER
 40
0.1103613426
  9
$USRTIMER
 70
     1
  9
$ANGBASE
 50
0.0
  9
$ANGDIR
 70
     0
  9
$PDMODE
 70
     0
  9
$PDSIZE
 40
0.0
  9
$PLINEWID
 40
0.0
  9
$COORDS
 70
     0
  9
$SPLFRAME
 70
     0
  9
$SPLINETYPE
 70
     6
  9
$SPLINESEGS
 70
     8
  9
$ATTDIA
 70
     0
  9
$ATTREQ
 70
     1
  9
$HANDLING
 70
     0
  9
$HANDSEED
  5
0
  9
$SURFTAB1
 70
     6
  9
$SURFTAB2
 70
     6
  9
$SURFTYPE
 70
     6
  9
$SURFU
 70
     6
  9
$SURFV
 70
     6
  9
$UCSNAME
  2

  9
$UCSORG
 10
0.0
 20
0.0
 30
0.0
  9
$UCSXDIR
 10
1.0
 20
0.0
 30
0.0
  9
$UCSYDIR
 10
0.0
 20
1.0
 30
0.0
  9
$PUCSNAME
  2

  9
$PUCSORG
 10
0.0
 20
0.0
 30
0.0
  9
$PUCSXDIR
 10
1.0
 20
0.0
 30
0.0
  9
$PUCSYDIR
 10
0.0
 20
1.0
 30
0.0
  9
$USERI1
 70
     0
  9
$USERI2
 70
     0
  9
$USERI3
 70
     0
  9
$USERI4
 70
     0
  9
$USERI5
 70
     0
  9
$USERR1
 40
0.0
  9
$USERR2
 40
0.0
  9
$USERR3
 40
0.0
  9
$USERR4
 40
0.0
  9
$USERR5
 40
0.0
  9
$WORLDVIEW
 70
     1
  9
$SHADEDGE
 70
     3
  9
$SHADEDIF
 70
    70
  9
$TILEMODE
 70
     1
  9
$MAXACTVP
 70
    16
  9
$PINSBASE
 10
0.0
 20
0.0
 30
0.0
  9
$PLIMCHECK
 70
     0
  9
$PEXTMIN
 10
1.000000E+20
 20
1.000000E+20
 30
1.000000E+20
  9
$PEXTMAX
 10
-1.000000E+20
 20
-1.000000E+20
 30
-1.000000E+20
  9
$PLIMMIN
 10
0.0
 20
0.0
  9
$PLIMMAX
 10
12.0
 20
9.0
  9
$UNITMODE
 70
     0
  9
$VISRETAIN
 70
     0
  9
$PLINEGEN
 70
     0
  9
$PSLTSCALE
 70
     1
  9
$TREEDEPTH
 70
  3020
  9
$DWGCODEPAGE
  3
ascii
  0
ENDSEC
  0
SECTION
  2
TABLES
  0
TABLE
  2
VPORT
 70
     2
  0
VPORT
  2
*ACTIVE
 70
     0
 10
0.0
 20
0.0
 11
1.0
 21
1.0
 12
38.75
 22
28.443717
 13
0.0
 23
0.0
 14
0.25
 24
0.25
 15
0.0
 25
0.0
 16
0.0
 26
0.0
 36
1.0
 17
0.0
 27
0.0
 37
0.0
 40
56.887435
 41
1.36234
 42
50.0
 43
0.0
 44
0.0
 50
0.0
 51
0.0
 71
     0
 72
   500
 73
     1
 74
     0
 75
     0
 76
     0
 77
     0
 78
     1
  0
ENDTAB
  0
TABLE
  2
LTYPE
 70
     5
  0
LTYPE
  2
CONTINUOUS
 70
    64
  3
Solid line
 72
    65
 73
     0
 40
0.0
  0
LTYPE
  2
HIDDEN
 70
    64
  3
_ _ _ _ _ _ _ _ _ _ _ _ _ _ _ _ _ _ _ _ _ _ _
 72
    65
 73
     2
 40
0.375
 49
0.25
 49
-0.125
  0
LTYPE
  2
PHANTOM
 70
    64
  3
_____ _ _ _____ _ _ _____ _ _ _____ _ _ ____
 72
    65
 73
     6
 40
2.5
 49
1.25
 49
-0.25
 49
0.25
 49
-0.25
 49
0.25
 49
-0.25
  0
LTYPE
  2
CENTER
 70
    64
  3
____ _ ____ _ ____ _ ____ _ ____ _ ____ _ ____
 72
    65
 73
     4
 40
2.0
 49
1.25
 49
-0.25
 49
0.25
 49
-0.25
  0
LTYPE
  2
HIDDEN2
 70
    64
  3
_ _ _ _ _ _ _ _ _ _ _ _ _ _ _ _ _ _ _ _ _ _ _ _
 72
    65
 73
     2
 40
0.1875
 49
0.125
 49
-0.0625
  0
ENDTAB
  0
TABLE
  2
LAYER
 70
     9
  0
LAYER
  2
0
 70
    64
 62
     7
  6
CONTINUOUS
  0
LAYER
  2
OBJECT
 70
    64
 62
     7
  6
CONTINUOUS
  0
LAYER
  2
DIM
 70
    64
 62
     7
  6
CONTINUOUS
  0
LAYER
  2
HIDDEN
 70
    64
 62
     7
  6
HIDDEN
  0
LAYER
  2
BEND
 70
    64
 62
     7
  6
PHANTOM
  0
LAYER
  2
TEXT
 70
    64
 62
     7
  6
CONTINUOUS
  0
LAYER
  2
TITLE
 70
    64
 62
     7
  6
CONTINUOUS
  0
LAYER
  2
CENTER
 70
    64
 62
     7
  6
CENTER
  0
LAYER
  2
DEFPOINTS
 70
    64
 62
     7
  6
CONTINUOUS
  0
ENDTAB
  0
TABLE
  2
STYLE
 70
     3
  0
STYLE
  2
STANDARD
 70
    64
 40
0.0
 41
1.0
 50
0.0
 71
     0
 42
0.2
  3
txt
  4

  0
STYLE
  2
TXT
 70
    64
 40
0.0
 41
0.75
 50
0.0
 71
     0
 42
0.125
  3
TXT.shx
  4

  0
STYLE
  2
SECTION
 70
    64
 40
0.0
 41
0.8
 50
0.0
 71
     0
 42
0.2
  3
ROMANT.SHX
  4

  0
ENDTAB
  0
TABLE
  2
VIEW
 70
     0
  0
ENDTAB
  0
TABLE
  2
UCS
 70
     0
  0
ENDTAB
  0
TABLE
  2
APPID
 70
     1
  0
APPID
  2
ACAD
 70
    64
  0
ENDTAB
  0
TABLE
  2
DIMSTYLE
 70
     2
  0
DIMSTYLE
  2
23NSTD
 70
    64
  3

  4

  5

  6

  7

 40
5.0
 41
0.18
 42
0.063
 43
0.281
 44
0.093
 45
0.0
 46
0.0
 47
0.0
 48
0.0
140
0.125
141
0.09
142
0.0
143
25.4
144
1.0
145
0.0
146
1.0
147
0.09
 71
     0
 72
     0
 73
     1
 74
     1
 75
     0
 76
     0
 77
     0
 78
     0
170
     0
171
     2
172
     0
173
     0
174
     0
175
     0
176
     0
177
     0
178
     0
  0
DIMSTYLE
  2
23NSTDI
 70
    64
  3

  4

  5

  6

  7

 40
5.0
 41
0.18
 42
0.063
 43
0.281
 44
0.093
 45
0.0
 46
0.0
 47
0.0
 48
0.0
140
0.125
141
0.09
142
0.0
143
25.4
144
1.0
145
0.0
146
1.0
147
0.09
 71
     0
 72
     0
 73
     1
 74
     1
 75
     0
 76
     0
 77
     0
 78
     0
170
     0
171
     2
172
     0
173
     0
174
     1
175
     0
176
     0
177
     0
178
     0
  0
ENDTAB
  0
ENDSEC
  0
SECTION
  2
BLOCKS
  0
BLOCK
  8
0
  2
SECTION
 70
    66
 10
0.0
 20
0.0
 30
0.0
  3
SECTION
  0
ATTDEF
  8
0
 10
-0.125
 20
0.671429
 30
0.0
 40
0.25
  1

  3
Enter section
  2
SECTION
 70
     0
 50
270.0
 41
0.8
  7
SECTION
 72
     4
 11
0.0
 21
0.0
 31
0.0
  0
ENDBLK
  8
0
  0
BLOCK
  8
0
  2
HBS
 70
    64
 10
0.0
 20
0.0
 30
0.0
  3
HBS
  0
LINE
  8
TITLE
 10
0.062
 20
9.64
 30
0.0
 11
15.438
 21
9.64
 31
0.0
  0
POLYLINE
  8
TITLE
 66
     1
 10
0.0
 20
0.0
 30
0.0
 70
     1
  0
VERTEX
  8
TITLE
 10
15.5
 20
10.12
 30
0.0
  0
VERTEX
  8
TITLE
 10
15.5
 20
0.0
 30
0.0
  0
VERTEX
  8
TITLE
 10
0.0
 20
0.0
 30
0.0
  0
VERTEX
  8
TITLE
 10
0.0
 20
10.12
 30
0.0
  0
SEQEND
  8
TITLE
  0
POLYLINE
  8
TITLE
 66
     1
 10
0.0
 20
0.0
 30
0.0
 70
     1
  0
VERTEX
  8
TITLE
 10
15.438
 20
10.058
 30
0.0
  0
VERTEX
  8
TITLE
 10
15.438
 20
0.062
 30
0.0
  0
VERTEX
  8
TITLE
 10
0.062
 20
0.062
 30
0.0
  0
VERTEX
  8
TITLE
 10
0.062
 20
10.058
 30
0.0
  0
SEQEND
  8
TITLE
  0
TEXT
  8
TEXT
 10
0.207833
 20
9.680079
 30
0.0
 40
0.125
  1
NAME
 72
     1
 11
0.437
 21
9.680079
 31
0.0
  0
TEXT
  8
TEXT
 10
0.207833
 20
9.888413
 30
0.0
 40
0.125
  1
PART
 72
     1
 11
0.437
 21
9.888413
 31
0.0
  0
LINE
  8
TITLE
 10
0.812
 20
9.64
 30
0.0
 11
0.812
 21
10.058
 31
0.0
  0
TEXT
  8
TEXT
 10
7.926833
 20
9.888413
 30
0.0
 40
0.125
  1
PART
 72
     1
 11
8.156
 21
9.888413
 31
0.0
  0
TEXT
  8
TEXT
 10
8.031
 20
9.680079
 30
0.0
 40
0.125
  1
No.
 72
     1
 11
8.156
 21
9.680079
 31
0.0
  0
LINE
  8
TITLE
 10
7.781
 20
10.058
 30
0.0
 11
7.781
 21
9.64
 31
0.0
  0
LINE
  8
TITLE
 10
7.719
 20
10.058
 30
0.0
 11
7.719
 21
9.64
 31
0.0
  0
LINE
  8
TITLE
 10
8.531
 20
10.058
 30
0.0
 11
8.531
 21
9.64
 31
0.0
  0
ENDBLK
  8
0
  0
BLOCK
  8
0
  2
*D2
 70
    65
 10
0.0
 20
0.0
 30
0.0
  3
*D
  0
LINE
  8
0
  6
BYBLOCK
 62
     0
 10
8.712413
 20
29.669551
 30
0.0
 11
10.501482
 21
30.14893
 31
0.0
  0
LINE
  8
0
  6
BYBLOCK
 62
     0
 10
10.272949
 20
23.845551
 30
0.0
 11
12.062018
 21
24.32493
 31
0.0
  0
LINE
  8
0
  6
BYBLOCK
 62
     0
 10
10.285264
 20
29.159246
 30
0.0
 11
10.628283
 21
27.879079
 31
0.0
  0
LINE
  8
0
  6
BYBLOCK
 62
     0
 10
11.379925
 20
25.073913
 30
0.0
 11
11.036906
 21
26.354079
 31
0.0
  0
SOLID
  8
0
  6
BYBLOCK
 62
     0
 10
10.430152
 20
29.198069
 30
0.0
 11
10.140375
 21
29.120423
 31
0.0
 12
10.052326
 22
30.028579
 32
0.0
 13
10.052326
 23
30.028579
 33
0.0
  0
SOLID
  8
0
  6
BYBLOCK
 62
     0
 10
11.524814
 20
25.112735
 30
0.0
 11
11.235036
 21
25.03509
 31
0.0
 12
11.612863
 22
24.204579
 32
0.0
 13
11.612863
 23
24.204579
 33
0.0
  0
TEXT
  8
0
  6
BYBLOCK
 62
     0
 10
9.934157
 20
26.804079
 30
0.0
 40
0.625
  1
6.029
 41
0.75
  7
TXT
 72
     1
 11
10.832594
 21
27.116579
 31
0.0
 73
     2
  0
POINT
  8
DEFPOINTS
  6
BYBLOCK
 62
     0
 10
8.408147
 20
29.588023
 30
0.0
  0
POINT
  8
DEFPOINTS
  6
BYBLOCK
 62
     0
 10
9.968683
 20
23.764023
 30
0.0
  0
POINT
  8
DEFPOINTS
  6
BYBLOCK
 62
     0
 10
11.612863
 20
24.204579
 30
0.0
  0
ENDBLK
  8
0
  0
BLOCK
  8
0
  2
*D3
 70
    65
 10
0.0
 20
0.0
 30
0.0
  3
*D
  0
LINE
  8
0
  6
BYBLOCK
 62
     0
 10
4.049147
 20
19.319773
 30
0.0
 11
4.049147
 21
17.286134
 31
0.0
  0
LINE
  8
0
  6
BYBLOCK
 62
     0
 10
14.794225
 20
22.156023
 30
0.0
 11
14.794225
 21
17.286134
 31
0.0
  0
LINE
  8
0
  6
BYBLOCK
 62
     0
 10
4.949147
 20
17.751134
 30
0.0
 11
7.916998
 21
17.751134
 31
0.0
  0
LINE
  8
0
  6
BYBLOCK
 62
     0
 10
13.894225
 20
17.751134
 30
0.0
 11
10.926373
 21
17.751134
 31
0.0
  0
SOLID
  8
0
  6
BYBLOCK
 62
     0
 10
4.949147
 20
17.901134
 30
0.0
 11
4.949147
 21
17.601134
 31
0.0
 12
4.049147
 22
17.751134
 32
0.0
 13
4.049147
 23
17.751134
 33
0.0
  0
SOLID
  8
0
  6
BYBLOCK
 62
     0
 10
13.894225
 20
17.901134
 30
0.0
 11
13.894225
 21
17.601134
 31
0.0
 12
14.794225
 22
17.751134
 32
0.0
 13
14.794225
 23
17.751134
 33
0.0
  0
TEXT
  8
0
  6
BYBLOCK
 62
     0
 10
8.366998
 20
17.438634
 30
0.0
 40
0.625
  1
10.745
 41
0.75
  7
TXT
 72
     1
 11
9.421686
 21
17.751134
 31
0.0
 73
     2
  0
POINT
  8
DEFPOINTS
  6
BYBLOCK
 62
     0
 10
4.049147
 20
19.634773
 30
0.0
  0
POINT
  8
DEFPOINTS
  6
BYBLOCK
 62
     0
 10
14.794225
 20
22.471023
 30
0.0
  0
POINT
  8
DEFPOINTS
  6
BYBLOCK
 62
     0
 10
14.794225
 20
17.751134
 30
0.0
  0
ENDBLK
  8
0
  0
BLOCK
  8
0
  2
*D4
 70
    65
 10
0.0
 20
0.0
 30
0.0
  3
*D
  0
LINE
  8
0
  6
BYBLOCK
 62
     0
 10
4.049147
 20
19.319773
 30
0.0
 11
4.049147
 21
18.410134
 31
0.0
  0
LINE
  8
0
  6
BYBLOCK
 62
     0
 10
14.049147
 20
19.319773
 30
0.0
 11
14.049147
 21
18.410134
 31
0.0
  0
LINE
  8
0
  6
BYBLOCK
 62
     0
 10
4.949147
 20
18.875134
 30
0.0
 11
7.661647
 21
18.875134
 31
0.0
  0
LINE
  8
0
  6
BYBLOCK
 62
     0
 10
13.149147
 20
18.875134
 30
0.0
 11
10.436647
 21
18.875134
 31
0.0
  0
SOLID
  8
0
  6
BYBLOCK
 62
     0
 10
4.949147
 20
19.025134
 30
0.0
 11
4.949147
 21
18.725134
 31
0.0
 12
4.049147
 22
18.875134
 32
0.0
 13
4.049147
 23
18.875134
 33
0.0
  0
SOLID
  8
0
  6
BYBLOCK
 62
     0
 10
13.149147
 20
19.025134
 30
0.0
 11
13.149147
 21
18.725134
 31
0.0
 12
14.049147
 22
18.875134
 32
0.0
 13
14.049147
 23
18.875134
 33
0.0
  0
TEXT
  8
0
  6
BYBLOCK
 62
     0
 10
8.111647
 20
18.562634
 30
0.0
 40
0.625
  1
10.000
 41
0.75
  7
TXT
 72
     1
 11
9.049147
 21
18.875134
 31
0.0
 73
     2
  0
POINT
  8
DEFPOINTS
  6
BYBLOCK
 62
     0
 10
4.049147
 20
19.634773
 30
0.0
  0
POINT
  8
DEFPOINTS
  6
BYBLOCK
 62
     0
 10
14.049147
 20
19.634773
 30
0.0
  0
POINT
  8
DEFPOINTS
  6
BYBLOCK
 62
     0
 10
14.049147
 20
18.875134
 30
0.0
  0
ENDBLK
  8
0
  0
BLOCK
  8
0
  2
*D5
 70
    65
 10
0.0
 20
0.0
 30
0.0
  3
*D
  0
LINE
  8
0
  6
BYBLOCK
 62
     0
 10
3.734147
 20
28.420032
 30
0.0
 11
2.230436
 21
28.420032
 31
0.0
  0
LINE
  8
0
  6
BYBLOCK
 62
     0
 10
3.734147
 20
19.634773
 30
0.0
 11
2.230436
 21
19.634773
 31
0.0
  0
LINE
  8
0
  6
BYBLOCK
 62
     0
 10
2.695436
 20
27.520032
 30
0.0
 11
2.695436
 21
24.789902
 31
0.0
  0
LINE
  8
0
  6
BYBLOCK
 62
     0
 10
2.695436
 20
20.534773
 30
0.0
 11
2.695436
 21
23.264902
 31
0.0
  0
SOLID
  8
0
  6
BYBLOCK
 62
     0
 10
2.545436
 20
27.520032
 30
0.0
 11
2.845436
 21
27.520032
 31
0.0
 12
2.695436
 22
28.420032
 32
0.0
 13
2.695436
 23
28.420032
 33
0.0
  0
SOLID
  8
0
  6
BYBLOCK
 62
     0
 10
2.545436
 20
20.534773
 30
0.0
 11
2.845436
 21
20.534773
 31
0.0
 12
2.695436
 22
19.634773
 32
0.0
 13
2.695436
 23
19.634773
 33
0.0
  0
TEXT
  8
0
  6
BYBLOCK
 62
     0
 10
1.757936
 20
23.714902
 30
0.0
 40
0.625
  1
8.785
 41
0.75
  7
TXT
 72
     1
 11
2.695436
 21
24.027402
 31
0.0
 73
     2
  0
POINT
  8
DEFPOINTS
  6
BYBLOCK
 62
     0
 10
4.049147
 20
28.420032
 30
0.0
  0
POINT
  8
DEFPOINTS
  6
BYBLOCK
 62
     0
 10
4.049147
 20
19.634773
 30
0.0
  0
POINT
  8
DEFPOINTS
  6
BYBLOCK
 62
     0
 10
2.695436
 20
19.634773
 30
0.0
  0
ENDBLK
  8
0
  0
BLOCK
  8
0
  2
*D6
 70
    65
 10
0.0
 20
0.0
 30
0.0
  3
*D
  0
LINE
  8
0
  6
BYBLOCK
 62
     0
 10
19.423736
 20
29.902773
 30
0.0
 11
19.423736
 21
32.676775
 31
0.0
  0
LINE
  8
0
  6
BYBLOCK
 62
     0
 10
33.353736
 20
29.902773
 30
0.0
 11
33.353736
 21
32.676775
 31
0.0
  0
LINE
  8
0
  6
BYBLOCK
 62
     0
 10
20.323736
 20
32.211775
 30
0.0
 11
24.884048
 21
32.211775
 31
0.0
  0
LINE
  8
0
  6
BYBLOCK
 62
     0
 10
32.453736
 20
32.211775
 30
0.0
 11
27.893423
 21
32.211775
 31
0.0
  0
SOLID
  8
0
  6
BYBLOCK
 62
     0
 10
20.323736
 20
32.361775
 30
0.0
 11
20.323736
 21
32.061775
 31
0.0
 12
19.423736
 22
32.211775
 32
0.0
 13
19.423736
 23
32.211775
 33
0.0
  0
SOLID
  8
0
  6
BYBLOCK
 62
     0
 10
32.453736
 20
32.361775
 30
0.0
 11
32.453736
 21
32.061775
 31
0.0
 12
33.353736
 22
32.211775
 32
0.0
 13
33.353736
 23
32.211775
 33
0.0
  0
TEXT
  8
0
  6
BYBLOCK
 62
     0
 10
25.334048
 20
31.899275
 30
0.0
 40
0.625
  1
13.930
 41
0.75
  7
TXT
 72
     1
 11
26.388736
 21
32.211775
 31
0.0
 73
     2
  0
POINT
  8
DEFPOINTS
  6
BYBLOCK
 62
     0
 10
19.423736
 20
29.587773
 30
0.0
  0
POINT
  8
DEFPOINTS
  6
BYBLOCK
 62
     0
 10
33.353736
 20
29.587773
 30
0.0
  0
POINT
  8
DEFPOINTS
  6
BYBLOCK
 62
     0
 10
33.353736
 20
32.211775
 30
0.0
  0
ENDBLK
  8
0
  0
BLOCK
  8
0
  2
*D7
 70
    65
 10
0.0
 20
0.0
 30
0.0
  3
*D
  0
LINE
  8
0
  6
BYBLOCK
 62
     0
 10
19.513736
 20
29.902773
 30
0.0
 11
19.513736
 21
31.552775
 31
0.0
  0
LINE
  8
0
  6
BYBLOCK
 62
     0
 10
33.263736
 20
29.902773
 30
0.0
 11
33.263736
 21
31.552775
 31
0.0
  0
LINE
  8
0
  6
BYBLOCK
 62
     0
 10
20.413736
 20
31.087775
 30
0.0
 11
24.884048
 21
31.087775
 31
0.0
  0
LINE
  8
0
  6
BYBLOCK
 62
     0
 10
32.363736
 20
31.087775
 30
0.0
 11
27.893423
 21
31.087775
 31
0.0
  0
SOLID
  8
0
  6
BYBLOCK
 62
     0
 10
20.413736
 20
31.237775
 30
0.0
 11
20.413736
 21
30.937775
 31
0.0
 12
19.513736
 22
31.087775
 32
0.0
 13
19.513736
 23
31.087775
 33
0.0
  0
SOLID
  8
0
  6
BYBLOCK
 62
     0
 10
32.363736
 20
31.237775
 30
0.0
 11
32.363736
 21
30.937775
 31
0.0
 12
33.263736
 22
31.087775
 32
0.0
 13
33.263736
 23
31.087775
 33
0.0
  0
TEXT
  8
0
  6
BYBLOCK
 62
     0
 10
25.334048
 20
30.775275
 30
0.0
 40
0.625
  1
13.750
 41
0.75
  7
TXT
 72
     1
 11
26.388736
 21
31.087775
 31
0.0
 73
     2
  0
POINT
  8
DEFPOINTS
  6
BYBLOCK
 62
     0
 10
19.513736
 20
29.587773
 30
0.0
  0
POINT
  8
DEFPOINTS
  6
BYBLOCK
 62
     0
 10
33.263736
 20
29.587773
 30
0.0
  0
POINT
  8
DEFPOINTS
  6
BYBLOCK
 62
     0
 10
33.263736
 20
31.087775
 30
0.0
  0
ENDBLK
  8
0
  0
BLOCK
  8
0
  2
*D8
 70
    65
 10
0.0
 20
0.0
 30
0.0
  3
*D
  0
LINE
  8
0
  6
BYBLOCK
 62
     0
 10
33.668736
 20
19.634773
 30
0.0
 11
35.138526
 21
19.634773
 31
0.0
  0
LINE
  8
0
  6
BYBLOCK
 62
     0
 10
33.668736
 20
29.587773
 30
0.0
 11
35.138526
 21
29.587773
 31
0.0
  0
LINE
  8
0
  6
BYBLOCK
 62
     0
 10
34.673526
 20
20.534773
 30
0.0
 11
34.673526
 21
23.848773
 31
0.0
  0
LINE
  8
0
  6
BYBLOCK
 62
     0
 10
34.673526
 20
28.687773
 30
0.0
 11
34.673526
 21
25.373773
 31
0.0
  0
SOLID
  8
0
  6
BYBLOCK
 62
     0
 10
34.523526
 20
20.534773
 30
0.0
 11
34.823526
 21
20.534773
 31
0.0
 12
34.673526
 22
19.634773
 32
0.0
 13
34.673526
 23
19.634773
 33
0.0
  0
SOLID
  8
0
  6
BYBLOCK
 62
     0
 10
34.523526
 20
28.687773
 30
0.0
 11
34.823526
 21
28.687773
 31
0.0
 12
34.673526
 22
29.587773
 32
0.0
 13
34.673526
 23
29.587773
 33
0.0
  0
TEXT
  8
0
  6
BYBLOCK
 62
     0
 10
33.736026
 20
24.298773
 30
0.0
 40
0.625
  1
9.953
 41
0.75
  7
TXT
 72
     1
 11
34.673526
 21
24.611273
 31
0.0
 73
     2
  0
POINT
  8
DEFPOINTS
  6
BYBLOCK
 62
     0
 10
33.353736
 20
19.634773
 30
0.0
  0
POINT
  8
DEFPOINTS
  6
BYBLOCK
 62
     0
 10
33.353736
 20
29.587773
 30
0.0
  0
POINT
  8
DEFPOINTS
  6
BYBLOCK
 62
     0
 10
34.673526
 20
29.587773
 30
0.0
  0
ENDBLK
  8
0
  0
BLOCK
  8
0
  2
*D9
 70
    65
 10
0.0
 20
0.0
 30
0.0
  3
*D
  0
LINE
  8
0
  6
BYBLOCK
 62
     0
 10
3.967619
 20
28.724299
 30
0.0
 11
3.533876
 21
30.343048
 31
0.0
  0
LINE
  8
0
  6
BYBLOCK
 62
     0
 10
8.326619
 20
29.892289
 30
0.0
 11
7.892876
 21
31.511038
 31
0.0
  0
LINE
  8
0
  6
BYBLOCK
 62
     0
 10
2.784894
 20
29.660955
 30
0.0
 11
1.915561
 21
29.428018
 31
0.0
  0
LINE
  8
0
  6
BYBLOCK
 62
     0
 10
8.88256
 20
31.29482
 30
0.0
 11
9.751894
 21
31.527757
 31
0.0
  0
SOLID
  8
0
  6
BYBLOCK
 62
     0
 10
2.746071
 20
29.805844
 30
0.0
 11
2.823717
 21
29.516066
 31
0.0
 12
3.654227
 22
29.893892
 32
0.0
 13
3.654227
 23
29.893892
 33
0.0
  0
SOLID
  8
0
  6
BYBLOCK
 62
     0
 10
8.843737
 20
31.439709
 30
0.0
 11
8.921383
 21
31.149931
 31
0.0
 12
8.013227
 22
31.061883
 32
0.0
 13
8.013227
 23
31.061883
 33
0.0
  0
TEXT
  8
0
  6
BYBLOCK
 62
     0
 10
4.974352
 20
30.165388
 30
0.0
 40
0.625
  1
4.513
 41
0.75
  7
TXT
 72
     1
 11
5.833727
 21
30.477888
 31
0.0
 73
     2
  0
POINT
  8
DEFPOINTS
  6
BYBLOCK
 62
     0
 10
4.049147
 20
28.420032
 30
0.0
  0
POINT
  8
DEFPOINTS
  6
BYBLOCK
 62
     0
 10
8.408147
 20
29.588023
 30
0.0
  0
POINT
  8
DEFPOINTS
  6
BYBLOCK
 62
     0
 10
8.013227
 20
31.061883
 30
0.0
  0
ENDBLK
  8
0
  0
BLOCK
  8
0
  2
*D10
 70
    65
 10
0.0
 20
0.0
 30
0.0
  3
*D
  0
LINE
  8
0
  6
BYBLOCK
 62
     0
 10
10.050211
 20
24.068289
 30
0.0
 11
10.634707
 21
26.24966
 31
0.0
  0
LINE
  8
0
  6
BYBLOCK
 62
     0
 10
14.875753
 20
22.775289
 30
0.0
 11
15.460249
 21
24.95666
 31
0.0
  0
LINE
  8
0
  6
BYBLOCK
 62
     0
 10
9.645023
 20
26.033442
 30
0.0
 11
8.77569
 21
26.266379
 31
0.0
  0
LINE
  8
0
  6
BYBLOCK
 62
     0
 10
16.209232
 20
24.274568
 30
0.0
 11
17.078565
 21
24.041631
 31
0.0
  0
SOLID
  8
0
  6
BYBLOCK
 62
     0
 10
9.683846
 20
26.178331
 30
0.0
 11
9.6062
 21
25.888553
 31
0.0
 12
10.514357
 22
25.800505
 32
0.0
 13
10.514357
 23
25.800505
 33
0.0
  0
SOLID
  8
0
  6
BYBLOCK
 62
     0
 10
16.248054
 20
24.419457
 30
0.0
 11
16.170409
 21
24.129679
 31
0.0
 12
15.339898
 22
24.507505
 32
0.0
 13
15.339898
 23
24.507505
 33
0.0
  0
TEXT
  8
0
  6
BYBLOCK
 62
     0
 10
11.989627
 20
24.841505
 30
0.0
 40
0.625
  1
4.996
 41
0.75
  7
TXT
 72
     1
 11
12.927127
 21
25.154005
 31
0.0
 73
     2
  0
POINT
  8
DEFPOINTS
  6
BYBLOCK
 62
     0
 10
9.968683
 20
23.764023
 30
0.0
  0
POINT
  8
DEFPOINTS
  6
BYBLOCK
 62
     0
 10
14.794225
 20
22.471023
 30
0.0
  0
POINT
  8
DEFPOINTS
  6
BYBLOCK
 62
     0
 10
15.339898
 20
24.507505
 30
0.0
  0
ENDBLK
  8
0
  0
BLOCK
  8
0
  2
*D11
 70
    65
 10
0.0
 20
0.0
 30
0.0
  3
*D
  0
LINE
  8
0
  6
BYBLOCK
 62
     0
 10
54.521921
 20
62.605127
 30
0.0
 11
56.618837
 21
62.605127
 31
0.0
  0
LINE
  8
0
  6
BYBLOCK
 62
     0
 10
54.446921
 20
61.699127
 30
0.0
 11
56.618837
 21
61.699127
 31
0.0
  0
LINE
  8
0
  6
BYBLOCK
 62
     0
 10
56.153837
 20
63.505127
 30
0.0
 11
56.153837
 21
64.405127
 31
0.0
  0
LINE
  8
0
  6
BYBLOCK
 62
     0
 10
56.153837
 20
60.799127
 30
0.0
 11
56.153837
 21
59.899127
 31
0.0
  0
SOLID
  8
0
  6
BYBLOCK
 62
     0
 10
56.003837
 20
63.505127
 30
0.0
 11
56.303837
 21
63.505127
 31
0.0
 12
56.153837
 22
62.605127
 32
0.0
 13
56.153837
 23
62.605127
 33
0.0
  0
SOLID
  8
0
  6
BYBLOCK
 62
     0
 10
56.003837
 20
60.799127
 30
0.0
 11
56.303837
 21
60.799127
 31
0.0
 12
56.153837
 22
61.699127
 32
0.0
 13
56.153837
 23
61.699127
 33
0.0
  0
TEXT
  8
0
  6
BYBLOCK
 62
     0
 10
55.294462
 20
61.839627
 30
0.0
 40
0.625
  1
0.906
 41
0.75
  7
TXT
 72
     1
 11
56.153837
 21
62.152127
 31
0.0
 73
     2
  0
POINT
  8
DEFPOINTS
  6
BYBLOCK
 62
     0
 10
54.206921
 20
62.605127
 30
0.0
  0
POINT
  8
DEFPOINTS
  6
BYBLOCK
 62
     0
 10
54.131921
 20
61.699127
 30
0.0
  0
POINT
  8
DEFPOINTS
  6
BYBLOCK
 62
     0
 10
56.153837
 20
61.699127
 30
0.0
  0
ENDBLK
  8
0
  0
BLOCK
  8
0
  2
*D12
 70
    65
 10
0.0
 20
0.0
 30
0.0
  3
*D
  0
LINE
  8
0
  6
BYBLOCK
 62
     0
 10
72.397604
 20
26.926773
 30
0.0
 11
74.515613
 21
26.926773
 31
0.0
  0
LINE
  8
0
  6
BYBLOCK
 62
     0
 10
73.397604
 20
27.676773
 30
0.0
 11
74.515613
 21
27.676773
 31
0.0
  0
LINE
  8
0
  6
BYBLOCK
 62
     0
 10
74.050613
 20
26.026773
 30
0.0
 11
74.050613
 21
25.126773
 31
0.0
  0
LINE
  8
0
  6
BYBLOCK
 62
     0
 10
74.050613
 20
28.576773
 30
0.0
 11
74.050613
 21
29.476773
 31
0.0
  0
LINE
  8
0
  6
BYBLOCK
 62
     0
 10
74.050613
 20
29.476773
 30
0.0
 11
74.950613
 21
29.476773
 31
0.0
  0
SOLID
  8
0
  6
BYBLOCK
 62
     0
 10
73.900613
 20
26.026773
 30
0.0
 11
74.200613
 21
26.026773
 31
0.0
 12
74.050613
 22
26.926773
 32
0.0
 13
74.050613
 23
26.926773
 33
0.0
  0
SOLID
  8
0
  6
BYBLOCK
 62
     0
 10
73.900613
 20
28.576773
 30
0.0
 11
74.200613
 21
28.576773
 31
0.0
 12
74.050613
 22
27.676773
 32
0.0
 13
74.050613
 23
27.676773
 33
0.0
  0
TEXT
  8
0
  6
BYBLOCK
 62
     0
 10
75.400613
 20
29.164273
 30
0.0
 40
0.625
  1
0.750
 41
0.75
  7
TXT
 72
     1
 11
76.259988
 21
29.476773
 31
0.0
 73
     2
  0
POINT
  8
DEFPOINTS
  6
BYBLOCK
 62
     0
 10
72.082604
 20
26.926773
 30
0.0
  0
POINT
  8
DEFPOINTS
  6
BYBLOCK
 62
     0
 10
73.082604
 20
27.676773
 30
0.0
  0
POINT
  8
DEFPOINTS
  6
BYBLOCK
 62
     0
 10
74.050613
 20
27.676773
 30
0.0
  0
ENDBLK
  8
0
  0
BLOCK
  8
0
  2
*D13
 70
    65
 10
0.0
 20
0.0
 30
0.0
  3
*D
  0
LINE
  8
0
  6
BYBLOCK
 62
     0
 10
63.863604
 20
20.689773
 30
0.0
 11
63.863604
 21
17.027605
 31
0.0
  0
LINE
  8
0
  6
BYBLOCK
 62
     0
 10
59.261625
 20
19.456773
 30
0.0
 11
59.261625
 21
17.027605
 31
0.0
  0
LINE
  8
0
  6
BYBLOCK
 62
     0
 10
64.763604
 20
17.492605
 30
0.0
 11
65.663604
 21
17.492605
 31
0.0
  0
LINE
  8
0
  6
BYBLOCK
 62
     0
 10
58.361625
 20
17.492605
 30
0.0
 11
57.461625
 21
17.492605
 31
0.0
  0
SOLID
  8
0
  6
BYBLOCK
 62
     0
 10
64.763604
 20
17.642605
 30
0.0
 11
64.763604
 21
17.342605
 31
0.0
 12
63.863604
 22
17.492605
 32
0.0
 13
63.863604
 23
17.492605
 33
0.0
  0
SOLID
  8
0
  6
BYBLOCK
 62
     0
 10
58.361625
 20
17.642605
 30
0.0
 11
58.361625
 21
17.342605
 31
0.0
 12
59.261625
 22
17.492605
 32
0.0
 13
59.261625
 23
17.492605
 33
0.0
  0
TEXT
  8
0
  6
BYBLOCK
 62
     0
 10
60.664177
 20
17.180105
 30
0.0
 40
0.625
  1
4.602
 41
0.75
  7
TXT
 72
     1
 11
61.562615
 21
17.492605
 31
0.0
 73
     2
  0
POINT
  8
DEFPOINTS
  6
BYBLOCK
 62
     0
 10
63.863604
 20
21.004773
 30
0.0
  0
POINT
  8
DEFPOINTS
  6
BYBLOCK
 62
     0
 10
59.261625
 20
19.771773
 30
0.0
  0
POINT
  8
DEFPOINTS
  6
BYBLOCK
 62
     0
 10
59.261625
 20
17.492605
 30
0.0
  0
ENDBLK
  8
0
  0
BLOCK
  8
0
  2
*D14
 70
    65
 10
0.0
 20
0.0
 30
0.0
  3
*D
  0
LINE
  8
0
  6
BYBLOCK
 62
     0
 10
68.582604
 20
20.689773
 30
0.0
 11
68.582604
 21
17.027605
 31
0.0
  0
LINE
  8
0
  6
BYBLOCK
 62
     0
 10
73.184583
 20
19.456773
 30
0.0
 11
73.184583
 21
17.027605
 31
0.0
  0
LINE
  8
0
  6
BYBLOCK
 62
     0
 10
67.682604
 20
17.492605
 30
0.0
 11
66.782604
 21
17.492605
 31
0.0
  0
LINE
  8
0
  6
BYBLOCK
 62
     0
 10
74.084583
 20
17.492605
 30
0.0
 11
74.984583
 21
17.492605
 31
0.0
  0
SOLID
  8
0
  6
BYBLOCK
 62
     0
 10
67.682604
 20
17.642605
 30
0.0
 11
67.682604
 21
17.342605
 31
0.0
 12
68.582604
 22
17.492605
 32
0.0
 13
68.582604
 23
17.492605
 33
0.0
  0
SOLID
  8
0
  6
BYBLOCK
 62
     0
 10
74.084583
 20
17.642605
 30
0.0
 11
74.084583
 21
17.342605
 31
0.0
 12
73.184583
 22
17.492605
 32
0.0
 13
73.184583
 23
17.492605
 33
0.0
  0
TEXT
  8
0
  6
BYBLOCK
 62
     0
 10
69.985156
 20
17.180105
 30
0.0
 40
0.625
  1
4.602
 41
0.75
  7
TXT
 72
     1
 11
70.883594
 21
17.492605
 31
0.0
 73
     2
  0
POINT
  8
DEFPOINTS
  6
BYBLOCK
 62
     0
 10
68.582604
 20
21.004773
 30
0.0
  0
POINT
  8
DEFPOINTS
  6
BYBLOCK
 62
     0
 10
73.184583
 20
19.771773
 30
0.0
  0
POINT
  8
DEFPOINTS
  6
BYBLOCK
 62
     0
 10
73.184583
 20
17.492605
 30
0.0
  0
ENDBLK
  8
0
  0
BLOCK
  8
0
  2
*D15
 70
    65
 10
0.0
 20
0.0
 30
0.0
  3
*D
  0
LINE
  8
0
  6
BYBLOCK
 62
     0
 10
39.843987
 20
22.247923
 30
0.0
 11
35.772789
 21
21.157048
 31
0.0
  0
LINE
  8
0
  6
BYBLOCK
 62
     0
 10
40.539433
 20
19.65248
 30
0.0
 11
36.468235
 21
18.561606
 31
0.0
  0
LINE
  8
0
  6
BYBLOCK
 62
     0
 10
35.989007
 20
22.146732
 30
0.0
 11
35.75607
 21
23.016066
 31
0.0
  0
LINE
  8
0
  6
BYBLOCK
 62
     0
 10
37.150328
 20
17.812623
 30
0.0
 11
37.383265
 21
16.94329
 31
0.0
  0
SOLID
  8
0
  6
BYBLOCK
 62
     0
 10
36.133896
 20
22.185555
 30
0.0
 11
35.844118
 21
22.10791
 31
0.0
 12
36.221944
 22
21.277399
 32
0.0
 13
36.221944
 23
21.277399
 33
0.0
  0
SOLID
  8
0
  6
BYBLOCK
 62
     0
 10
37.295217
 20
17.851446
 30
0.0
 11
37.005439
 21
17.7738
 31
0.0
 12
36.917391
 22
18.681957
 32
0.0
 13
36.917391
 23
18.681957
 33
0.0
  0
TEXT
  8
0
  6
BYBLOCK
 62
     0
 10
35.632167
 20
19.667178
 30
0.0
 40
0.625
  1
2.687
 41
0.75
  7
TXT
 72
     1
 11
36.569667
 21
19.979678
 31
0.0
 73
     2
  0
POINT
  8
DEFPOINTS
  6
BYBLOCK
 62
     0
 10
40.148253
 20
22.329451
 30
0.0
  0
POINT
  8
DEFPOINTS
  6
BYBLOCK
 62
     0
 10
40.8437
 20
19.734008
 30
0.0
  0
POINT
  8
DEFPOINTS
  6
BYBLOCK
 62
     0
 10
36.917391
 20
18.681957
 30
0.0
  0
ENDBLK
  8
0
  0
BLOCK
  8
0
  2
*D16
 70
    65
 10
0.0
 20
0.0
 30
0.0
  3
*D
  0
LINE
  8
0
  6
BYBLOCK
 62
     0
 10
40.302519
 20
19.634773
 30
0.0
 11
38.192436
 21
19.634773
 31
0.0
  0
ARC
  8
0
  6
BYBLOCK
 62
     0
 10
40.632412
 20
19.634773
 30
0.0
 40
1.974976
 50
52.317704
 51
78.658852
  0
ARC
  8
0
  6
BYBLOCK
 62
     0
 10
40.632412
 20
19.634773
 30
0.0
 40
1.974976
 50
206.341148
 51
232.682296
  0
SOLID
  8
0
  6
BYBLOCK
 62
     0
 10
41.02558
 20
21.421262
 30
0.0
 11
41.016003
 21
21.721109
 31
0.0
 12
40.12125
 22
21.542453
 32
0.0
 13
40.12125
 23
21.542453
 33
0.0
  0
SOLID
  8
0
  6
BYBLOCK
 62
     0
 10
38.716447
 20
18.724269
 30
0.0
 11
39.008556
 21
18.792624
 31
0.0
 12
38.657436
 22
19.634773
 32
0.0
 13
38.657436
 23
19.634773
 33
0.0
  0
TEXT
  8
0
  6
BYBLOCK
 62
     0
 10
38.518683
 20
20.524562
 30
0.0
 40
0.625
  1
75%%d
 41
0.75
  7
TXT
 72
     1
 11
39.065558
 21
20.837062
 31
0.0
 73
     2
  0
POINT
  8
DEFPOINTS
  6
BYBLOCK
 62
     0
 10
38.840129
 20
20.464383
 30
0.0
  0
POINT
  8
DEFPOINTS
  6
BYBLOCK
 62
     0
 10
40.617519
 20
19.634773
 30
0.0
  0
POINT
  8
DEFPOINTS
  6
BYBLOCK
 62
     0
 10
39.904793
 20
22.350282
 30
0.0
  0
POINT
  8
DEFPOINTS
  6
BYBLOCK
 62
     0
 10
40.617519
 20
19.690355
 30
0.0
  0
POINT
  8
DEFPOINTS
  6
BYBLOCK
 62
     0
 10
50.617519
 20
19.634773
 30
0.0
  0
ENDBLK
  8
0
  0
BLOCK
  8
0
  2
*D17
 70
    65
 10
0.0
 20
0.0
 30
0.0
  3
*D
  0
ARC
  8
0
  6
BYBLOCK
 62
     0
 10
44.697983
 20
23.764023
 30
0.0
 40
3.119356
 50
91.58892
 51
110.484979
  0
ARC
  8
0
  6
BYBLOCK
 62
     0
 10
44.697983
 20
23.764023
 30
0.0
 40
3.119356
 50
152.440769
 51
178.41108
  0
SOLID
  8
0
  6
BYBLOCK
 62
     0
 10
44.629003
 20
27.031154
 30
0.0
 11
44.593973
 21
26.733206
 31
0.0
 12
45.505332
 22
26.77709
 32
0.0
 13
45.505332
 23
26.77709
 33
0.0
  0
SOLID
  8
0
  6
BYBLOCK
 62
     0
 10
41.7288
 20
23.868032
 30
0.0
 11
41.430852
 21
23.833002
 31
0.0
 12
41.684916
 22
22.956674
 32
0.0
 13
41.684916
 23
22.956674
 33
0.0
  0
TEXT
  8
0
  6
BYBLOCK
 62
     0
 10
41.828202
 20
25.657241
 30
0.0
 40
0.625
  1
120%%d
 41
0.75
  7
TXT
 72
     1
 11
42.492265
 21
25.969741
 31
0.0
 73
     2
  0
POINT
  8
DEFPOINTS
  6
BYBLOCK
 62
     0
 10
42.036188
 20
25.390441
 30
0.0
  0
POINT
  8
DEFPOINTS
  6
BYBLOCK
 62
     0
 10
46.226166
 20
29.467282
 30
0.0
  0
POINT
  8
DEFPOINTS
  6
BYBLOCK
 62
     0
 10
44.697983
 20
23.764023
 30
0.0
  0
POINT
  8
DEFPOINTS
  6
BYBLOCK
 62
     0
 10
39.993182
 20
22.503375
 30
0.0
  0
POINT
  8
DEFPOINTS
  6
BYBLOCK
 62
     0
 10
44.697983
 20
23.764023
 30
0.0
  0
ENDBLK
  8
0
  0
BLOCK
  8
0
  2
*D18
 70
    65
 10
0.0
 20
0.0
 30
0.0
  3
*D
  0
LINE
  8
0
  6
BYBLOCK
 62
     0
 10
39.790913
 20
22.775289
 30
0.0
 11
39.096794
 21
25.365776
 31
0.0
  0
LINE
  8
0
  6
BYBLOCK
 62
     0
 10
39.568174
 20
22.389495
 30
0.0
 11
36.977688
 21
21.695376
 31
0.0
  0
ARC
  8
0
  6
BYBLOCK
 62
     0
 10
39.872441
 20
22.471023
 30
0.0
 40
2.531869
 50
125.475636
 51
126.758893
  0
ARC
  8
0
  6
BYBLOCK
 62
     0
 10
39.872441
 20
22.471023
 30
0.0
 40
2.531869
 50
168.530921
 51
174.524364
  0
SOLID
  8
0
  6
BYBLOCK
 62
     0
 10
38.339097
 20
24.668563
 30
0.0
 11
38.46701
 21
24.3972
 31
0.0
 12
39.217145
 22
24.91662
 32
0.0
 13
39.217145
 23
24.91662
 33
0.0
  0
SOLID
  8
0
  6
BYBLOCK
 62
     0
 10
37.501608
 20
22.725073
 30
0.0
 11
37.202643
 21
22.700167
 31
0.0
 12
37.426843
 22
21.815727
 32
0.0
 13
37.426843
 23
21.815727
 33
0.0
  0
TEXT
  8
0
  6
BYBLOCK
 62
     0
 10
37.171966
 20
23.424457
 30
0.0
 40
0.625
  1
90%%d
 41
0.75
  7
TXT
 72
     1
 11
37.679778
 21
23.736957
 31
0.0
 73
     2
  0
POINT
  8
DEFPOINTS
  6
BYBLOCK
 62
     0
 10
37.502277
 20
23.361349
 30
0.0
  0
POINT
  8
DEFPOINTS
  6
BYBLOCK
 62
     0
 10
44.697983
 20
23.764023
 30
0.0
  0
POINT
  8
DEFPOINTS
  6
BYBLOCK
 62
     0
 10
39.904793
 20
22.350282
 30
0.0
  0
POINT
  8
DEFPOINTS
  6
BYBLOCK
 62
     0
 10
40.617519
 20
19.690355
 30
0.0
  0
POINT
  8
DEFPOINTS
  6
BYBLOCK
 62
     0
 10
39.993182
 20
22.503375
 30
0.0
  0
ENDBLK
  8
0
  0
BLOCK
  8
0
  2
*D19
 70
    65
 10
0.0
 20
0.0
 30
0.0
  3
*D
  0
LINE
  8
0
  6
BYBLOCK
 62
     0
 10
49.940519
 20
20.161773
 30
0.0
 11
48.91327
 21
20.161773
 31
0.0
  0
LINE
  8
0
  6
BYBLOCK
 62
     0
 10
50.302519
 20
19.724773
 30
0.0
 11
48.91327
 21
19.724773
 31
0.0
  0
LINE
  8
0
  6
BYBLOCK
 62
     0
 10
49.37827
 20
21.061773
 30
0.0
 11
49.37827
 21
21.961773
 31
0.0
  0
LINE
  8
0
  6
BYBLOCK
 62
     0
 10
49.37827
 20
18.824773
 30
0.0
 11
49.37827
 21
17.924773
 31
0.0
  0
LINE
  8
0
  6
BYBLOCK
 62
     0
 10
49.37827
 20
17.924773
 30
0.0
 11
48.47827
 21
17.924773
 31
0.0
  0
SOLID
  8
0
  6
BYBLOCK
 62
     0
 10
49.22827
 20
21.061773
 30
0.0
 11
49.52827
 21
21.061773
 31
0.0
 12
49.37827
 22
20.161773
 32
0.0
 13
49.37827
 23
20.161773
 33
0.0
  0
SOLID
  8
0
  6
BYBLOCK
 62
     0
 10
49.22827
 20
18.824773
 30
0.0
 11
49.52827
 21
18.824773
 31
0.0
 12
49.37827
 22
19.724773
 32
0.0
 13
49.37827
 23
19.724773
 33
0.0
  0
TEXT
  8
0
  6
BYBLOCK
 62
     0
 10
46.231395
 20
17.612273
 30
0.0
 40
0.625
  1
0.437
 41
0.75
  7
TXT
 72
     1
 11
47.129832
 21
17.924773
 31
0.0
 73
     2
  0
POINT
  8
DEFPOINTS
  6
BYBLOCK
 62
     0
 10
50.255519
 20
20.161773
 30
0.0
  0
POINT
  8
DEFPOINTS
  6
BYBLOCK
 62
     0
 10
50.617519
 20
19.724773
 30
0.0
  0
POINT
  8
DEFPOINTS
  6
BYBLOCK
 62
     0
 10
49.37827
 20
19.724773
 30
0.0
  0
ENDBLK
  8
0
  0
BLOCK
  8
0
  2
*D20
 70
    65
 10
0.0
 20
0.0
 30
0.0
  3
*D
  0
LINE
  8
0
  6
BYBLOCK
 62
     0
 10
40.8437
 20
19.419008
 30
0.0
 11
40.8437
 21
16.994773
 31
0.0
  0
LINE
  8
0
  6
BYBLOCK
 62
     0
 10
41.2807
 20
19.419008
 30
0.0
 11
41.2807
 21
16.994773
 31
0.0
  0
LINE
  8
0
  6
BYBLOCK
 62
     0
 10
39.9437
 20
17.459773
 30
0.0
 11
39.0437
 21
17.459773
 31
0.0
  0
LINE
  8
0
  6
BYBLOCK
 62
     0
 10
42.1807
 20
17.459773
 30
0.0
 11
43.0807
 21
17.459773
 31
0.0
  0
SOLID
  8
0
  6
BYBLOCK
 62
     0
 10
39.9437
 20
17.609773
 30
0.0
 11
39.9437
 21
17.309773
 31
0.0
 12
40.8437
 22
17.459773
 32
0.0
 13
40.8437
 23
17.459773
 33
0.0
  0
SOLID
  8
0
  6
BYBLOCK
 62
     0
 10
42.1807
 20
17.609773
 30
0.0
 11
42.1807
 21
17.309773
 31
0.0
 12
41.2807
 22
17.459773
 32
0.0
 13
41.2807
 23
17.459773
 33
0.0
  0
TEXT
  8
0
  6
BYBLOCK
 62
     0
 10
43.5307
 20
17.147273
 30
0.0
 40
0.625
  1
0.437
 41
0.75
  7
TXT
 72
     1
 11
44.429138
 21
17.459773
 31
0.0
 73
     2
  0
POINT
  8
DEFPOINTS
  6
BYBLOCK
 62
     0
 10
40.8437
 20
19.734008
 30
0.0
  0
POINT
  8
DEFPOINTS
  6
BYBLOCK
 62
     0
 10
41.2807
 20
19.734008
 30
0.0
  0
POINT
  8
DEFPOINTS
  6
BYBLOCK
 62
     0
 10
41.2807
 20
17.459773
 30
0.0
  0
ENDBLK
  8
0
  0
BLOCK
  8
0
  2
*D21
 70
    65
 10
0.0
 20
0.0
 30
0.0
  3
*D
  0
LINE
  8
0
  6
BYBLOCK
 62
     0
 10
50.380519
 20
27.410033
 30
0.0
 11
50.380519
 21
15.589773
 31
0.0
  0
LINE
  8
0
  6
BYBLOCK
 62
     0
 10
40.8437
 20
19.419008
 30
0.0
 11
40.8437
 21
15.589773
 31
0.0
  0
LINE
  8
0
  6
BYBLOCK
 62
     0
 10
49.480519
 20
16.054773
 30
0.0
 11
46.999609
 21
16.054773
 31
0.0
  0
LINE
  8
0
  6
BYBLOCK
 62
     0
 10
41.7437
 20
16.054773
 30
0.0
 11
44.224609
 21
16.054773
 31
0.0
  0
SOLID
  8
0
  6
BYBLOCK
 62
     0
 10
49.480519
 20
16.204773
 30
0.0
 11
49.480519
 21
15.904773
 31
0.0
 12
50.380519
 22
16.054773
 32
0.0
 13
50.380519
 23
16.054773
 33
0.0
  0
SOLID
  8
0
  6
BYBLOCK
 62
     0
 10
41.7437
 20
16.204773
 30
0.0
 11
41.7437
 21
15.904773
 31
0.0
 12
40.8437
 22
16.054773
 32
0.0
 13
40.8437
 23
16.054773
 33
0.0
  0
TEXT
  8
0
  6
BYBLOCK
 62
     0
 10
44.674609
 20
15.742273
 30
0.0
 40
0.625
  1
9.537
 41
0.75
  7
TXT
 72
     1
 11
45.612109
 21
16.054773
 31
0.0
 73
     2
  0
POINT
  8
DEFPOINTS
  6
BYBLOCK
 62
     0
 10
50.380519
 20
27.725033
 30
0.0
  0
POINT
  8
DEFPOINTS
  6
BYBLOCK
 62
     0
 10
40.8437
 20
19.734008
 30
0.0
  0
POINT
  8
DEFPOINTS
  6
BYBLOCK
 62
     0
 10
40.8437
 20
16.054773
 30
0.0
  0
ENDBLK
  8
0
  0
BLOCK
  8
0
  2
*D22
 70
    65
 10
0.0
 20
0.0
 30
0.0
  3
*D
  0
LINE
  8
0
  6
BYBLOCK
 62
     0
 10
62.803604
 20
24.989773
 30
0.0
 11
66.048674
 21
24.989773
 31
0.0
  0
LINE
  8
0
  6
BYBLOCK
 62
     0
 10
63.178604
 20
26.926773
 30
0.0
 11
66.048674
 21
26.926773
 31
0.0
  0
LINE
  8
0
  6
BYBLOCK
 62
     0
 10
65.583674
 20
24.089773
 30
0.0
 11
65.583674
 21
23.189773
 31
0.0
  0
LINE
  8
0
  6
BYBLOCK
 62
     0
 10
65.583674
 20
27.826773
 30
0.0
 11
65.583674
 21
28.726773
 31
0.0
  0
SOLID
  8
0
  6
BYBLOCK
 62
     0
 10
65.433674
 20
24.089773
 30
0.0
 11
65.733674
 21
24.089773
 31
0.0
 12
65.583674
 22
24.989773
 32
0.0
 13
65.583674
 23
24.989773
 33
0.0
  0
SOLID
  8
0
  6
BYBLOCK
 62
     0
 10
65.433674
 20
27.826773
 30
0.0
 11
65.733674
 21
27.826773
 31
0.0
 12
65.583674
 22
26.926773
 32
0.0
 13
65.583674
 23
26.926773
 33
0.0
  0
TEXT
  8
0
  6
BYBLOCK
 62
     0
 10
65.583674
 20
25.645773
 30
0.0
 40
0.625
  1
 TYP.
 41
0.75
  7
TXT
 72
     1
 11
66.521174
 21
25.958273
 31
0.0
 73
     2
  0
TEXT
  8
0
  6
BYBLOCK
 62
     0
 10
63.708674
 20
25.645773
 30
0.0
 40
0.625
  1
1.937
 41
0.75
  7
TXT
 72
     1
 11
64.568049
 21
25.958273
 31
0.0
 73
     2
  0
POINT
  8
DEFPOINTS
  6
BYBLOCK
 62
     0
 10
62.488604
 20
24.989773
 30
0.0
  0
POINT
  8
DEFPOINTS
  6
BYBLOCK
 62
     0
 10
62.863604
 20
26.926773
 30
0.0
  0
POINT
  8
DEFPOINTS
  6
BYBLOCK
 62
     0
 10
65.583674
 20
26.926773
 30
0.0
  0
ENDBLK
  8
0
  0
BLOCK
  8
0
  2
*D23
 70
    65
 10
0.0
 20
0.0
 30
0.0
  3
*D
  0
LINE
  8
0
  6
BYBLOCK
 62
     0
 10
68.897604
 20
21.004773
 30
0.0
 11
75.01531
 21
21.004773
 31
0.0
  0
LINE
  8
0
  6
BYBLOCK
 62
     0
 10
73.397604
 20
19.754773
 30
0.0
 11
75.01531
 21
19.754773
 31
0.0
  0
LINE
  8
0
  6
BYBLOCK
 62
     0
 10
74.55031
 20
21.904773
 30
0.0
 11
74.55031
 21
22.804773
 31
0.0
  0
LINE
  8
0
  6
BYBLOCK
 62
     0
 10
74.55031
 20
18.854773
 30
0.0
 11
74.55031
 21
17.954773
 31
0.0
  0
SOLID
  8
0
  6
BYBLOCK
 62
     0
 10
74.40031
 20
21.904773
 30
0.0
 11
74.70031
 21
21.904773
 31
0.0
 12
74.55031
 22
21.004773
 32
0.0
 13
74.55031
 23
21.004773
 33
0.0
  0
SOLID
  8
0
  6
BYBLOCK
 62
     0
 10
74.40031
 20
18.854773
 30
0.0
 11
74.70031
 21
18.854773
 31
0.0
 12
74.55031
 22
19.754773
 32
0.0
 13
74.55031
 23
19.754773
 33
0.0
  0
TEXT
  8
0
  6
BYBLOCK
 62
     0
 10
73.729998
 20
20.067273
 30
0.0
 40
0.625
  1
1.250
 41
0.75
  7
TXT
 72
     1
 11
74.55031
 21
20.379773
 31
0.0
 73
     2
  0
POINT
  8
DEFPOINTS
  6
BYBLOCK
 62
     0
 10
68.582604
 20
21.004773
 30
0.0
  0
POINT
  8
DEFPOINTS
  6
BYBLOCK
 62
     0
 10
73.082604
 20
19.754773
 30
0.0
  0
POINT
  8
DEFPOINTS
  6
BYBLOCK
 62
     0
 10
74.55031
 20
19.754773
 30
0.0
  0
ENDBLK
  8
0
  0
BLOCK
  8
0
  2
*D24
 70
    65
 10
0.0
 20
0.0
 30
0.0
  3
*D
  0
LINE
  8
0
  6
BYBLOCK
 62
     0
 10
60.423604
 20
20.504773
 30
0.0
 11
57.54911
 21
20.504773
 31
0.0
  0
LINE
  8
0
  6
BYBLOCK
 62
     0
 10
59.048604
 20
19.754773
 30
0.0
 11
57.54911
 21
19.754773
 31
0.0
  0
LINE
  8
0
  6
BYBLOCK
 62
     0
 10
58.01411
 20
21.404773
 30
0.0
 11
58.01411
 21
22.304773
 31
0.0
  0
LINE
  8
0
  6
BYBLOCK
 62
     0
 10
58.01411
 20
18.854773
 30
0.0
 11
58.01411
 21
17.954773
 31
0.0
  0
LINE
  8
0
  6
BYBLOCK
 62
     0
 10
58.01411
 20
17.954773
 30
0.0
 11
57.11411
 21
17.954773
 31
0.0
  0
SOLID
  8
0
  6
BYBLOCK
 62
     0
 10
57.86411
 20
21.404773
 30
0.0
 11
58.16411
 21
21.404773
 31
0.0
 12
58.01411
 22
20.504773
 32
0.0
 13
58.01411
 23
20.504773
 33
0.0
  0
SOLID
  8
0
  6
BYBLOCK
 62
     0
 10
57.86411
 20
18.854773
 30
0.0
 11
58.16411
 21
18.854773
 31
0.0
 12
58.01411
 22
19.754773
 32
0.0
 13
58.01411
 23
19.754773
 33
0.0
  0
TEXT
  8
0
  6
BYBLOCK
 62
     0
 10
54.94536
 20
17.642273
 30
0.0
 40
0.625
  1
0.750
 41
0.75
  7
TXT
 72
     1
 11
55.804735
 21
17.954773
 31
0.0
 73
     2
  0
POINT
  8
DEFPOINTS
  6
BYBLOCK
 62
     0
 10
60.738604
 20
20.504773
 30
0.0
  0
POINT
  8
DEFPOINTS
  6
BYBLOCK
 62
     0
 10
59.363604
 20
19.754773
 30
0.0
  0
POINT
  8
DEFPOINTS
  6
BYBLOCK
 62
     0
 10
58.01411
 20
19.754773
 30
0.0
  0
ENDBLK
  8
0
  0
BLOCK
  8
0
  2
*D25
 70
    65
 10
0.0
 20
0.0
 30
0.0
  3
*D
  0
LINE
  8
0
  6
BYBLOCK
 62
     0
 10
73.397604
 20
19.754773
 30
0.0
 11
76.42031
 21
19.754773
 31
0.0
  0
LINE
  8
0
  6
BYBLOCK
 62
     0
 10
73.397604
 20
27.676773
 30
0.0
 11
76.42031
 21
27.676773
 31
0.0
  0
LINE
  8
0
  6
BYBLOCK
 62
     0
 10
75.95531
 20
20.654773
 30
0.0
 11
75.95531
 21
22.953273
 31
0.0
  0
LINE
  8
0
  6
BYBLOCK
 62
     0
 10
75.95531
 20
26.776773
 30
0.0
 11
75.95531
 21
24.478273
 31
0.0
  0
SOLID
  8
0
  6
BYBLOCK
 62
     0
 10
75.80531
 20
20.654773
 30
0.0
 11
76.10531
 21
20.654773
 31
0.0
 12
75.95531
 22
19.754773
 32
0.0
 13
75.95531
 23
19.754773
 33
0.0
  0
SOLID
  8
0
  6
BYBLOCK
 62
     0
 10
75.80531
 20
26.776773
 30
0.0
 11
76.10531
 21
26.776773
 31
0.0
 12
75.95531
 22
27.676773
 32
0.0
 13
75.95531
 23
27.676773
 33
0.0
  0
TEXT
  8
0
  6
BYBLOCK
 62
     0
 10
75.01781
 20
23.403273
 30
0.0
 40
0.625
  1
7.922
 41
0.75
  7
TXT
 72
     1
 11
75.95531
 21
23.715773
 31
0.0
 73
     2
  0
POINT
  8
DEFPOINTS
  6
BYBLOCK
 62
     0
 10
73.082604
 20
19.754773
 30
0.0
  0
POINT
  8
DEFPOINTS
  6
BYBLOCK
 62
     0
 10
73.082604
 20
27.676773
 30
0.0
  0
POINT
  8
DEFPOINTS
  6
BYBLOCK
 62
     0
 10
75.95531
 20
27.676773
 30
0.0
  0
ENDBLK
  8
0
  0
BLOCK
  8
0
  2
*D26
 70
    65
 10
0.0
 20
0.0
 30
0.0
  3
*D
  0
LINE
  8
0
  6
BYBLOCK
 62
     0
 10
50.620519
 20
20.161773
 30
0.0
 11
52.792435
 21
20.161773
 31
0.0
  0
LINE
  8
0
  6
BYBLOCK
 62
     0
 10
50.620519
 20
27.319033
 30
0.0
 11
52.792435
 21
27.319033
 31
0.0
  0
LINE
  8
0
  6
BYBLOCK
 62
     0
 10
52.327435
 20
21.061773
 30
0.0
 11
52.327435
 21
22.977903
 31
0.0
  0
LINE
  8
0
  6
BYBLOCK
 62
     0
 10
52.327435
 20
26.419033
 30
0.0
 11
52.327435
 21
24.502903
 31
0.0
  0
SOLID
  8
0
  6
BYBLOCK
 62
     0
 10
52.177435
 20
21.061773
 30
0.0
 11
52.477435
 21
21.061773
 31
0.0
 12
52.327435
 22
20.161773
 32
0.0
 13
52.327435
 23
20.161773
 33
0.0
  0
SOLID
  8
0
  6
BYBLOCK
 62
     0
 10
52.177435
 20
26.419033
 30
0.0
 11
52.477435
 21
26.419033
 31
0.0
 12
52.327435
 22
27.319033
 32
0.0
 13
52.327435
 23
27.319033
 33
0.0
  0
TEXT
  8
0
  6
BYBLOCK
 62
     0
 10
51.46806
 20
23.427903
 30
0.0
 40
0.625
  1
7.157
 41
0.75
  7
TXT
 72
     1
 11
52.327435
 21
23.740403
 31
0.0
 73
     2
  0
POINT
  8
DEFPOINTS
  6
BYBLOCK
 62
     0
 10
50.305519
 20
20.161773
 30
0.0
  0
POINT
  8
DEFPOINTS
  6
BYBLOCK
 62
     0
 10
50.305519
 20
27.319033
 30
0.0
  0
POINT
  8
DEFPOINTS
  6
BYBLOCK
 62
     0
 10
52.327435
 20
27.319033
 30
0.0
  0
ENDBLK
  8
0
  0
BLOCK
  8
0
  2
*D27
 70
    65
 10
0.0
 20
0.0
 30
0.0
  3
*D
  0
LINE
  8
0
  6
BYBLOCK
 62
     0
 10
46.72653
 20
29.28852
 30
0.0
 11
55.602435
 21
29.28852
 31
0.0
  0
LINE
  8
0
  6
BYBLOCK
 62
     0
 10
41.5957
 20
19.734008
 30
0.0
 11
55.602435
 21
19.734008
 31
0.0
  0
LINE
  8
0
  6
BYBLOCK
 62
     0
 10
55.137435
 20
28.38852
 30
0.0
 11
55.137435
 21
24.511264
 31
0.0
  0
LINE
  8
0
  6
BYBLOCK
 62
     0
 10
55.137435
 20
20.634008
 30
0.0
 11
55.137435
 21
22.986264
 31
0.0
  0
SOLID
  8
0
  6
BYBLOCK
 62
     0
 10
54.987435
 20
28.38852
 30
0.0
 11
55.287435
 21
28.38852
 31
0.0
 12
55.137435
 22
29.28852
 32
0.0
 13
55.137435
 23
29.28852
 33
0.0
  0
SOLID
  8
0
  6
BYBLOCK
 62
     0
 10
54.987435
 20
20.634008
 30
0.0
 11
55.287435
 21
20.634008
 31
0.0
 12
55.137435
 22
19.734008
 32
0.0
 13
55.137435
 23
19.734008
 33
0.0
  0
TEXT
  8
0
  6
BYBLOCK
 62
     0
 10
54.199935
 20
23.436264
 30
0.0
 40
0.625
  1
9.555
 41
0.75
  7
TXT
 72
     1
 11
55.137435
 21
23.748764
 31
0.0
 73
     2
  0
POINT
  8
DEFPOINTS
  6
BYBLOCK
 62
     0
 10
46.41153
 20
29.28852
 30
0.0
  0
POINT
  8
DEFPOINTS
  6
BYBLOCK
 62
     0
 10
41.2807
 20
19.734008
 30
0.0
  0
POINT
  8
DEFPOINTS
  6
BYBLOCK
 62
     0
 10
55.137435
 20
19.734008
 30
0.0
  0
ENDBLK
  8
0
  0
BLOCK
  8
0
  2
*D28
 70
    65
 10
0.0
 20
0.0
 30
0.0
  3
*D
  0
LINE
  8
0
  6
BYBLOCK
 62
     0
 10
50.695519
 20
28.225033
 30
0.0
 11
54.197435
 21
28.225033
 31
0.0
  0
LINE
  8
0
  6
BYBLOCK
 62
     0
 10
41.5957
 20
19.734008
 30
0.0
 11
54.197435
 21
19.734008
 31
0.0
  0
LINE
  8
0
  6
BYBLOCK
 62
     0
 10
53.732435
 20
27.325033
 30
0.0
 11
53.732435
 21
25.744748
 31
0.0
  0
LINE
  8
0
  6
BYBLOCK
 62
     0
 10
53.732435
 20
20.634008
 30
0.0
 11
53.732435
 21
24.219748
 31
0.0
  0
SOLID
  8
0
  6
BYBLOCK
 62
     0
 10
53.582435
 20
27.325033
 30
0.0
 11
53.882435
 21
27.325033
 31
0.0
 12
53.732435
 22
28.225033
 32
0.0
 13
53.732435
 23
28.225033
 33
0.0
  0
SOLID
  8
0
  6
BYBLOCK
 62
     0
 10
53.582435
 20
20.634008
 30
0.0
 11
53.882435
 21
20.634008
 31
0.0
 12
53.732435
 22
19.734008
 32
0.0
 13
53.732435
 23
19.734008
 33
0.0
  0
TEXT
  8
0
  6
BYBLOCK
 62
     0
 10
52.87306
 20
24.669748
 30
0.0
 40
0.625
  1
8.491
 41
0.75
  7
TXT
 72
     1
 11
53.732435
 21
24.982248
 31
0.0
 73
     2
  0
POINT
  8
DEFPOINTS
  6
BYBLOCK
 62
     0
 10
50.380519
 20
28.225033
 30
0.0
  0
POINT
  8
DEFPOINTS
  6
BYBLOCK
 62
     0
 10
41.2807
 20
19.734008
 30
0.0
  0
POINT
  8
DEFPOINTS
  6
BYBLOCK
 62
     0
 10
53.732435
 20
19.734008
 30
0.0
  0
ENDBLK
  8
0
  0
BLOCK
  8
0
  2
*D29
 70
    65
 10
0.0
 20
0.0
 30
0.0
  3
*D
  0
LINE
  8
0
  6
BYBLOCK
 62
     0
 10
59.449551
 20
23.44447
 30
0.0
 11
59.449551
 21
27.188673
 31
0.0
  0
LINE
  8
0
  6
BYBLOCK
 62
     0
 10
58.449551
 20
26.10547
 30
0.0
 11
58.449551
 21
27.188673
 31
0.0
  0
LINE
  8
0
  6
BYBLOCK
 62
     0
 10
60.349551
 20
26.723673
 30
0.0
 11
61.249551
 21
26.723673
 31
0.0
  0
LINE
  8
0
  6
BYBLOCK
 62
     0
 10
57.549551
 20
26.723673
 30
0.0
 11
56.649551
 21
26.723673
 31
0.0
  0
SOLID
  8
0
  6
BYBLOCK
 62
     0
 10
60.349551
 20
26.873673
 30
0.0
 11
60.349551
 21
26.573673
 31
0.0
 12
59.449551
 22
26.723673
 32
0.0
 13
59.449551
 23
26.723673
 33
0.0
  0
SOLID
  8
0
  6
BYBLOCK
 62
     0
 10
57.549551
 20
26.873673
 30
0.0
 11
57.549551
 21
26.573673
 31
0.0
 12
58.449551
 22
26.723673
 32
0.0
 13
58.449551
 23
26.723673
 33
0.0
  0
TEXT
  8
0
  6
BYBLOCK
 62
     0
 10
54.715176
 20
26.411173
 30
0.0
 40
0.625
  1
1.000
 41
0.75
  7
TXT
 72
     1
 11
55.457364
 21
26.723673
 31
0.0
 73
     2
  0
POINT
  8
DEFPOINTS
  6
BYBLOCK
 62
     0
 10
59.449551
 20
23.12947
 30
0.0
  0
POINT
  8
DEFPOINTS
  6
BYBLOCK
 62
     0
 10
58.449551
 20
25.79047
 30
0.0
  0
POINT
  8
DEFPOINTS
  6
BYBLOCK
 62
     0
 10
58.449551
 20
26.723673
 30
0.0
  0
ENDBLK
  8
0
  0
BLOCK
  8
0
  2
*D30
 70
    65
 10
0.0
 20
0.0
 30
0.0
  3
*D
  0
LINE
  8
0
  6
BYBLOCK
 62
     0
 10
48.899279
 20
24.937729
 30
0.0
 11
48.899279
 21
27.675393
 31
0.0
  0
ARC
  8
0
  6
BYBLOCK
 62
     0
 10
48.899279
 20
24.622729
 30
0.0
 40
2.587664
 50
49.940921
 51
69.97046
  0
ARC
  8
0
  6
BYBLOCK
 62
     0
 10
48.899279
 20
24.622729
 30
0.0
 40
2.587664
 50
185.02954
 51
205.059079
  0
SOLID
  8
0
  6
BYBLOCK
 62
     0
 10
49.759481
 20
26.906167
 30
0.0
 11
49.811651
 21
27.201596
 31
0.0
 12
48.899279
 22
27.210393
 32
0.0
 13
48.899279
 23
27.210393
 33
0.0
  0
SOLID
  8
0
  6
BYBLOCK
 62
     0
 10
46.172146
 20
24.408906
 30
0.0
 11
46.471011
 21
24.382836
 31
0.0
 12
46.399788
 22
25.292466
 32
0.0
 13
46.399788
 23
25.292466
 33
0.0
  0
TEXT
  8
0
  6
BYBLOCK
 62
     0
 10
46.777134
 20
26.363161
 30
0.0
 40
0.625
  1
75%%d
 41
0.75
  7
TXT
 72
     1
 11
47.324009
 21
26.675661
 31
0.0
 73
     2
  0
POINT
  8
DEFPOINTS
  6
BYBLOCK
 62
     0
 10
47.343819
 20
26.690711
 30
0.0
  0
POINT
  8
DEFPOINTS
  6
BYBLOCK
 62
     0
 10
48.899279
 20
15.83747
 30
0.0
  0
POINT
  8
DEFPOINTS
  6
BYBLOCK
 62
     0
 10
48.806632
 20
24.647554
 30
0.0
  0
POINT
  8
DEFPOINTS
  6
BYBLOCK
 62
     0
 10
44.66102
 20
25.758368
 30
0.0
  0
POINT
  8
DEFPOINTS
  6
BYBLOCK
 62
     0
 10
48.899279
 20
24.526814
 30
0.0
  0
ENDBLK
  8
0
  0
BLOCK
  8
0
  2
*D31
 70
    65
 10
0.0
 20
0.0
 30
0.0
  3
*D
  0
LINE
  8
0
  6
BYBLOCK
 62
     0
 10
44.621807
 20
26.094987
 30
0.0
 11
45.378518
 21
28.919071
 31
0.0
  0
LINE
  8
0
  6
BYBLOCK
 62
     0
 10
44.236013
 20
25.872248
 30
0.0
 11
41.411928
 21
26.628959
 31
0.0
  0
ARC
  8
0
  6
BYBLOCK
 62
     0
 10
44.540279
 20
25.79072
 30
0.0
 40
2.773707
 50
93.673613
 51
98.898323
  0
ARC
  8
0
  6
BYBLOCK
 62
     0
 10
44.540279
 20
25.79072
 30
0.0
 40
2.773707
 50
143.763291
 51
146.326387
  0
SOLID
  8
0
  6
BYBLOCK
 62
     0
 10
44.377362
 20
28.707996
 30
0.0
 11
44.347758
 21
28.40946
 31
0.0
 12
45.258167
 22
28.469915
 32
0.0
 13
45.258167
 23
28.469915
 33
0.0
  0
SOLID
  8
0
  6
BYBLOCK
 62
     0
 10
42.368644
 20
27.266818
 30
0.0
 11
42.095303
 21
27.390448
 31
0.0
 12
41.861084
 22
26.508608
 32
0.0
 13
41.861084
 23
26.508608
 33
0.0
  0
TEXT
  8
0
  6
BYBLOCK
 62
     0
 10
42.645613
 20
27.880321
 30
0.0
 40
0.625
  1
90%%d
 41
0.75
  7
TXT
 72
     1
 11
43.153426
 21
28.192821
 31
0.0
 73
     2
  0
POINT
  8
DEFPOINTS
  6
BYBLOCK
 62
     0
 10
43.240948
 20
28.241269
 30
0.0
  0
POINT
  8
DEFPOINTS
  6
BYBLOCK
 62
     0
 10
44.507927
 20
25.669979
 30
0.0
  0
POINT
  8
DEFPOINTS
  6
BYBLOCK
 62
     0
 10
48.806632
 20
24.647554
 30
0.0
  0
POINT
  8
DEFPOINTS
  6
BYBLOCK
 62
     0
 10
44.66102
 20
25.758368
 30
0.0
  0
POINT
  8
DEFPOINTS
  6
BYBLOCK
 62
     0
 10
42.979743
 20
19.96672
 30
0.0
  0
ENDBLK
  8
0
  0
BLOCK
  8
0
  2
*D32
 70
    65
 10
0.0
 20
0.0
 30
0.0
  3
*D
  0
LINE
  8
0
  6
BYBLOCK
 62
     0
 10
48.743807
 20
24.731996
 30
0.0
 11
49.7274
 21
28.402813
 31
0.0
  0
LINE
  8
0
  6
BYBLOCK
 62
     0
 10
44.774818
 20
25.795484
 30
0.0
 11
45.75841
 21
29.466301
 31
0.0
  0
LINE
  8
0
  6
BYBLOCK
 62
     0
 10
50.476382
 20
27.72072
 30
0.0
 11
51.345715
 21
27.487783
 31
0.0
  0
LINE
  8
0
  6
BYBLOCK
 62
     0
 10
44.768726
 20
29.250082
 30
0.0
 11
43.899393
 21
29.483019
 31
0.0
  0
SOLID
  8
0
  6
BYBLOCK
 62
     0
 10
50.515205
 20
27.865609
 30
0.0
 11
50.437559
 21
27.575832
 31
0.0
 12
49.607049
 22
27.953658
 32
0.0
 13
49.607049
 23
27.953658
 33
0.0
  0
SOLID
  8
0
  6
BYBLOCK
 62
     0
 10
44.807549
 20
29.394971
 30
0.0
 11
44.729903
 21
29.105193
 31
0.0
 12
45.638059
 22
29.017145
 32
0.0
 13
45.638059
 23
29.017145
 33
0.0
  0
TEXT
  8
0
  6
BYBLOCK
 62
     0
 10
46.802242
 20
28.172901
 30
0.0
 40
0.625
  1
4.109
 41
0.75
  7
TXT
 72
     1
 11
47.622554
 21
28.485401
 31
0.0
 73
     2
  0
POINT
  8
DEFPOINTS
  6
BYBLOCK
 62
     0
 10
48.662279
 20
24.42773
 30
0.0
  0
POINT
  8
DEFPOINTS
  6
BYBLOCK
 62
     0
 10
44.69329
 20
25.491217
 30
0.0
  0
POINT
  8
DEFPOINTS
  6
BYBLOCK
 62
     0
 10
45.638059
 20
29.017145
 30
0.0
  0
ENDBLK
  8
0
  0
BLOCK
  8
0
  2
*D33
 70
    65
 10
0.0
 20
0.0
 30
0.0
  3
*D
  0
LINE
  8
0
  6
BYBLOCK
 62
     0
 10
38.348486
 20
18.836415
 30
0.0
 11
37.233756
 21
22.996643
 31
0.0
  0
LINE
  8
0
  6
BYBLOCK
 62
     0
 10
43.087318
 20
20.106181
 30
0.0
 11
41.972588
 21
24.266409
 31
0.0
  0
LINE
  8
0
  6
BYBLOCK
 62
     0
 10
36.484773
 20
22.31455
 30
0.0
 11
35.61544
 21
22.081613
 31
0.0
  0
LINE
  8
0
  6
BYBLOCK
 62
     0
 10
42.962272
 20
24.050191
 30
0.0
 11
43.831605
 21
24.283128
 31
0.0
  0
SOLID
  8
0
  6
BYBLOCK
 62
     0
 10
36.445951
 20
22.459439
 30
0.0
 11
36.523596
 21
22.169662
 31
0.0
 12
37.354107
 22
22.547488
 32
0.0
 13
37.354107
 23
22.547488
 33
0.0
  0
SOLID
  8
0
  6
BYBLOCK
 62
     0
 10
42.923449
 20
24.19508
 30
0.0
 11
43.001095
 21
23.905302
 31
0.0
 12
42.092939
 22
23.817254
 32
0.0
 13
42.092939
 23
23.817254
 33
0.0
  0
TEXT
  8
0
  6
BYBLOCK
 62
     0
 10
38.825085
 20
22.869871
 30
0.0
 40
0.625
  1
4.906
 41
0.75
  7
TXT
 72
     1
 11
39.723523
 21
23.182371
 31
0.0
 73
     2
  0
POINT
  8
DEFPOINTS
  6
BYBLOCK
 62
     0
 10
38.430014
 20
18.532148
 30
0.0
  0
POINT
  8
DEFPOINTS
  6
BYBLOCK
 62
     0
 10
43.168846
 20
19.801914
 30
0.0
  0
POINT
  8
DEFPOINTS
  6
BYBLOCK
 62
     0
 10
42.092939
 20
23.817254
 30
0.0
  0
ENDBLK
  8
0
  0
BLOCK
  8
0
  2
*D34
 70
    65
 10
0.0
 20
0.0
 30
0.0
  3
*D
  0
LINE
  8
0
  6
BYBLOCK
 62
     0
 10
42.864579
 20
19.883442
 30
0.0
 11
34.792565
 21
22.046332
 31
0.0
  0
LINE
  8
0
  6
BYBLOCK
 62
     0
 10
44.389023
 20
25.572745
 30
0.0
 11
36.317009
 21
27.735635
 31
0.0
  0
LINE
  8
0
  6
BYBLOCK
 62
     0
 10
35.474657
 20
22.795314
 30
0.0
 11
35.799631
 21
24.008133
 31
0.0
  0
LINE
  8
0
  6
BYBLOCK
 62
     0
 10
36.533227
 20
26.745951
 30
0.0
 11
36.208254
 21
25.533133
 31
0.0
  0
SOLID
  8
0
  6
BYBLOCK
 62
     0
 10
35.329769
 20
22.834137
 30
0.0
 11
35.619546
 21
22.756491
 31
0.0
 12
35.24172
 22
21.925981
 32
0.0
 13
35.24172
 23
21.925981
 33
0.0
  0
SOLID
  8
0
  6
BYBLOCK
 62
     0
 10
36.388338
 20
26.784774
 30
0.0
 11
36.678116
 21
26.707128
 31
0.0
 12
36.766164
 22
27.615284
 32
0.0
 13
36.766164
 23
27.615284
 33
0.0
  0
TEXT
  8
0
  6
BYBLOCK
 62
     0
 10
35.105505
 20
24.458133
 30
0.0
 40
0.625
  1
5.890
 41
0.75
  7
TXT
 72
     1
 11
36.003942
 21
24.770633
 31
0.0
 73
     2
  0
POINT
  8
DEFPOINTS
  6
BYBLOCK
 62
     0
 10
43.168846
 20
19.801914
 30
0.0
  0
POINT
  8
DEFPOINTS
  6
BYBLOCK
 62
     0
 10
44.69329
 20
25.491217
 30
0.0
  0
POINT
  8
DEFPOINTS
  6
BYBLOCK
 62
     0
 10
36.766164
 20
27.615284
 30
0.0
  0
ENDBLK
  8
0
  0
BLOCK
  8
0
  2
*D35
 70
    65
 10
0.0
 20
0.0
 30
0.0
  3
*D
  0
LINE
  8
0
  6
BYBLOCK
 62
     0
 10
44.292127
 20
25.598708
 30
0.0
 11
36.317009
 21
27.735635
 31
0.0
  0
LINE
  8
0
  6
BYBLOCK
 62
     0
 10
44.356753
 20
25.839896
 30
0.0
 11
36.381635
 21
27.976822
 31
0.0
  0
LINE
  8
0
  6
BYBLOCK
 62
     0
 10
36.533227
 20
26.745951
 30
0.0
 11
36.30029
 21
25.876618
 31
0.0
  0
LINE
  8
0
  6
BYBLOCK
 62
     0
 10
37.063728
 20
28.725805
 30
0.0
 11
37.296665
 21
29.595138
 31
0.0
  0
LINE
  8
0
  6
BYBLOCK
 62
     0
 10
37.296665
 20
29.595138
 30
0.0
 11
38.196665
 21
29.595138
 31
0.0
  0
SOLID
  8
0
  6
BYBLOCK
 62
     0
 10
36.388338
 20
26.784774
 30
0.0
 11
36.678116
 21
26.707128
 31
0.0
 12
36.766164
 22
27.615284
 32
0.0
 13
36.766164
 23
27.615284
 33
0.0
  0
SOLID
  8
0
  6
BYBLOCK
 62
     0
 10
36.918839
 20
28.764627
 30
0.0
 11
37.208616
 21
28.686982
 31
0.0
 12
36.83079
 22
27.856471
 32
0.0
 13
36.83079
 23
27.856471
 33
0.0
  0
TEXT
  8
0
  6
BYBLOCK
 62
     0
 10
40.521665
 20
29.282638
 30
0.0
 40
0.625
  1
 TYP.
 41
0.75
  7
TXT
 72
     1
 11
41.459165
 21
29.595138
 31
0.0
 73
     2
  0
TEXT
  8
0
  6
BYBLOCK
 62
     0
 10
38.646665
 20
29.282638
 30
0.0
 40
0.625
  1
0.250
 41
0.75
  7
TXT
 72
     1
 11
39.50604
 21
29.595138
 31
0.0
 73
     2
  0
POINT
  8
DEFPOINTS
  6
BYBLOCK
 62
     0
 10
44.596394
 20
25.51718
 30
0.0
  0
POINT
  8
DEFPOINTS
  6
BYBLOCK
 62
     0
 10
44.66102
 20
25.758368
 30
0.0
  0
POINT
  8
DEFPOINTS
  6
BYBLOCK
 62
     0
 10
36.83079
 20
27.856471
 30
0.0
  0
ENDBLK
  8
0
  0
BLOCK
  8
0
  2
*D36
 70
    65
 10
0.0
 20
0.0
 30
0.0
  3
*D
  0
LINE
  8
0
  6
BYBLOCK
 62
     0
 10
71.168551
 20
23.44447
 30
0.0
 11
71.168551
 21
27.018289
 31
0.0
  0
LINE
  8
0
  6
BYBLOCK
 62
     0
 10
68.668551
 20
23.44447
 30
0.0
 11
68.668551
 21
27.018289
 31
0.0
  0
LINE
  8
0
  6
BYBLOCK
 62
     0
 10
72.068551
 20
26.553289
 30
0.0
 11
72.968551
 21
26.553289
 31
0.0
  0
LINE
  8
0
  6
BYBLOCK
 62
     0
 10
67.768551
 20
26.553289
 30
0.0
 11
66.868551
 21
26.553289
 31
0.0
  0
SOLID
  8
0
  6
BYBLOCK
 62
     0
 10
72.068551
 20
26.703289
 30
0.0
 11
72.068551
 21
26.403289
 31
0.0
 12
71.168551
 22
26.553289
 32
0.0
 13
71.168551
 23
26.553289
 33
0.0
  0
SOLID
  8
0
  6
BYBLOCK
 62
     0
 10
67.768551
 20
26.703289
 30
0.0
 11
67.768551
 21
26.403289
 31
0.0
 12
68.668551
 22
26.553289
 32
0.0
 13
68.668551
 23
26.553289
 33
0.0
  0
TEXT
  8
0
  6
BYBLOCK
 62
     0
 10
64.543551
 20
26.240789
 30
0.0
 40
0.625
  1
 TYP.
 41
0.75
  7
TXT
 72
     1
 11
65.481051
 21
26.553289
 31
0.0
 73
     2
  0
TEXT
  8
0
  6
BYBLOCK
 62
     0
 10
62.668551
 20
26.240789
 30
0.0
 40
0.625
  1
2.500
 41
0.75
  7
TXT
 72
     1
 11
63.527926
 21
26.553289
 31
0.0
 73
     2
  0
POINT
  8
DEFPOINTS
  6
BYBLOCK
 62
     0
 10
71.168551
 20
23.12947
 30
0.0
  0
POINT
  8
DEFPOINTS
  6
BYBLOCK
 62
     0
 10
68.668551
 20
23.12947
 30
0.0
  0
POINT
  8
DEFPOINTS
  6
BYBLOCK
 62
     0
 10
68.668551
 20
26.553289
 30
0.0
  0
ENDBLK
  8
0
  0
BLOCK
  8
0
  2
*D37
 70
    65
 10
0.0
 20
0.0
 30
0.0
  3
*D
  0
LINE
  8
0
  6
BYBLOCK
 62
     0
 10
71.168551
 20
23.44447
 30
0.0
 11
71.168551
 21
28.423289
 31
0.0
  0
LINE
  8
0
  6
BYBLOCK
 62
     0
 10
72.168551
 20
26.10547
 30
0.0
 11
72.168551
 21
28.423289
 31
0.0
  0
LINE
  8
0
  6
BYBLOCK
 62
     0
 10
70.268551
 20
27.958289
 30
0.0
 11
69.368551
 21
27.958289
 31
0.0
  0
LINE
  8
0
  6
BYBLOCK
 62
     0
 10
73.068551
 20
27.958289
 30
0.0
 11
73.968551
 21
27.958289
 31
0.0
  0
SOLID
  8
0
  6
BYBLOCK
 62
     0
 10
70.268551
 20
28.108289
 30
0.0
 11
70.268551
 21
27.808289
 31
0.0
 12
71.168551
 22
27.958289
 32
0.0
 13
71.168551
 23
27.958289
 33
0.0
  0
SOLID
  8
0
  6
BYBLOCK
 62
     0
 10
73.068551
 20
28.108289
 30
0.0
 11
73.068551
 21
27.808289
 31
0.0
 12
72.168551
 22
27.958289
 32
0.0
 13
72.168551
 23
27.958289
 33
0.0
  0
TEXT
  8
0
  6
BYBLOCK
 62
     0
 10
74.418551
 20
27.645789
 30
0.0
 40
0.625
  1
1.000
 41
0.75
  7
TXT
 72
     1
 11
75.160739
 21
27.958289
 31
0.0
 73
     2
  0
POINT
  8
DEFPOINTS
  6
BYBLOCK
 62
     0
 10
71.168551
 20
23.12947
 30
0.0
  0
POINT
  8
DEFPOINTS
  6
BYBLOCK
 62
     0
 10
72.168551
 20
25.79047
 30
0.0
  0
POINT
  8
DEFPOINTS
  6
BYBLOCK
 62
     0
 10
72.168551
 20
27.958289
 30
0.0
  0
ENDBLK
  8
0
  0
ENDSEC
  0
SECTION
  2
ENTITIES
  0
LINE
  8
OBJECT
 62
     7
 10
30.307578
 20
2.009495
 30
0.0
 11
16.377578
 21
2.009495
 31
0.0
  0
LINE
  8
OBJECT
 62
     7
 10
30.307578
 20
12.009495
 30
0.0
 11
16.377578
 21
12.009495
 31
0.0
  0
CIRCLE
  8
OBJECT
 62
     7
 10
17.342578
 20
11.540495
 30
0.0
 40
0.094
  0
CIRCLE
  8
OBJECT
 62
     7
 10
17.342578
 20
11.540495
 30
0.0
 40
0.064616
  0
CIRCLE
  8
OBJECT
 62
     7
 10
29.342578
 20
11.540495
 30
0.0
 40
0.094
  0
CIRCLE
  8
OBJECT
 62
     7
 10
29.342578
 20
11.540495
 30
0.0
 40
0.064616
  0
DIMENSION
  8
DIM
 62
     7
  2
*D8
 10
31.627369
 20
25.79047
 30
0.0
 11
31.627369
 21
20.81397
 31
0.0
 12
-3.046157
 22
-3.797303
 32
0.0
 13
30.307578
 23
15.83747
 33
0.0
 14
30.307578
 24
25.79047
 34
0.0
 50
90.0
  3
23NSTD
  0
POLYLINE
  8
OBJECT
 62
     7
 66
     1
 10
0.0
 20
0.0
 30
0.0
 70
     1
  0
VERTEX
  8
OBJECT
 62
     7
 10
30.170578
 20
15.92747
 30
0.0
 42
0.414214
  0
VERTEX
  8
OBJECT
 62
     7
 10
30.217578
 20
15.97447
 30
0.0
  0
VERTEX
  8
OBJECT
 62
     7
 10
30.217578
 20
25.79047
 30
0.0
  0
VERTEX
  8
OBJECT
 62
     7
 10
30.307578
 20
25.79047
 30
0.0
  0
VERTEX
  8
OBJECT
 62
     7
 10
30.307578
 20
15.97447
 30
0.0
 42
-0.414214
  0
VERTEX
  8
OBJECT
 62
     7
 10
30.170578
 20
15.83747
 30
0.0
  0
VERTEX
  8
OBJECT
 62
     7
 10
16.514578
 20
15.83747
 30
0.0
 42
-0.414214
  0
VERTEX
  8
OBJECT
 62
     7
 10
16.377578
 20
15.97447
 30
0.0
  0
VERTEX
  8
OBJECT
 62
     7
 10
16.377578
 20
25.79047
 30
0.0
  0
VERTEX
  8
OBJECT
 62
     7
 10
16.467578
 20
25.79047
 30
0.0
  0
VERTEX
  8
OBJECT
 62
     7
 10
16.467578
 20
15.97447
 30
0.0
 42
0.414214
  0
VERTEX
  8
OBJECT
 62
     7
 10
16.514578
 20
15.92747
 30
0.0
  0
SEQEND
  8
OBJECT
 62
     7
  0
LINE
  8
OBJECT
 62
     7
 10
16.377578
 20
2.009495
 30
0.0
 11
16.377578
 21
12.72648
 31
0.0
  0
LINE
  8
OBJECT
 62
     7
 10
30.307578
 20
2.009495
 30
0.0
 11
30.307578
 21
12.72648
 31
0.0
  0
LINE
  8
OBJECT
 62
     7
 10
16.377578
 20
12.72648
 30
0.0
 11
16.467578
 21
12.72648
 31
0.0
  0
LINE
  8
HIDDEN
 62
     7
 10
16.467578
 20
2.009495
 30
0.0
 11
16.467578
 21
11.884495
 31
0.0
  0
LINE
  8
HIDDEN
 62
     7
 10
30.217578
 20
2.009495
 30
0.0
 11
30.217578
 21
11.884495
 31
0.0
  0
LINE
  8
OBJECT
 62
     7
 10
30.217578
 20
12.72648
 30
0.0
 11
30.307578
 21
12.72648
 31
0.0
  0
POLYLINE
  8
HIDDEN
 62
     7
 66
     1
 10
0.0
 20
0.0
 30
0.0
 70
     1
  0
VERTEX
  8
HIDDEN
 62
     7
 10
30.2001
 20
2.321495
 30
0.0
  0
VERTEX
  8
HIDDEN
 62
     7
 10
30.2001
 20
2.931495
 30
0.0
  0
VERTEX
  8
HIDDEN
 62
     7
 10
16.4921
 20
2.931495
 30
0.0
  0
VERTEX
  8
HIDDEN
 62
     7
 10
16.4921
 20
2.321495
 30
0.0
  0
SEQEND
  8
HIDDEN
 62
     7
  0
LINE
  8
HIDDEN
 62
     7
 10
16.4921
 20
2.371495
 30
0.0
 11
30.2001
 21
2.371495
 31
0.0
  0
LINE
  8
OBJECT
 62
     7
 10
30.217578
 20
42.9656
 30
0.0
 11
30.217578
 21
32.248616
 31
0.0
  0
LINE
  8
OBJECT
 62
     7
 10
30.307578
 20
42.9656
 30
0.0
 11
30.307578
 21
32.248616
 31
0.0
  0
LINE
  8
OBJECT
 62
     7
 10
16.467578
 20
42.9656
 30
0.0
 11
16.467578
 21
32.248616
 31
0.0
  0
LINE
  8
OBJECT
 62
     7
 10
16.377578
 20
42.9656
 30
0.0
 11
16.377578
 21
32.248616
 31
0.0
  0
LINE
  8
OBJECT
 62
     7
 10
30.307578
 20
42.9656
 30
0.0
 11
16.377578
 21
42.9656
 31
0.0
  0
LINE
  8
OBJECT
 62
     7
 10
30.24891
 20
32.9656
 30
0.0
 11
16.443289
 21
32.9656
 31
0.0
  0
LINE
  8
OBJECT
 62
     7
 10
16.377578
 20
32.248616
 30
0.0
 11
16.467578
 21
32.248616
 31
0.0
  0
LINE
  8
OBJECT
 62
     7
 10
30.217578
 20
32.248616
 30
0.0
 11
30.307578
 21
32.248616
 31
0.0
  0
LINE
  8
HIDDEN
 62
     7
 10
30.167578
 20
39.008812
 30
0.0
 11
30.167578
 21
42.510293
 31
0.0
  0
CIRCLE
  8
HIDDEN
 62
     7
 10
29.968578
 20
42.148071
 30
0.0
 40
0.06
  0
CIRCLE
  8
HIDDEN
 62
     7
 10
29.968578
 20
39.371034
 30
0.0
 40
0.06
  0
POLYLINE
  8
HIDDEN
 62
     7
 66
     1
 10
0.0
 20
0.0
 30
0.0
 70
     1
  0
VERTEX
  8
HIDDEN
 62
     7
 10
29.780578
 20
42.510293
 30
0.0
  0
VERTEX
  8
HIDDEN
 62
     7
 10
29.780578
 20
39.008812
 30
0.0
  0
VERTEX
  8
HIDDEN
 62
     7
 10
30.167578
 20
39.008812
 30
0.0
  0
VERTEX
  8
HIDDEN
 62
     7
 10
30.167578
 20
38.850932
 30
0.0
  0
VERTEX
  8
HIDDEN
 62
     7
 10
30.217578
 20
38.850932
 30
0.0
  0
VERTEX
  8
HIDDEN
 62
     7
 10
30.217578
 20
39.008812
 30
0.0
  0
VERTEX
  8
HIDDEN
 62
     7
 10
30.217578
 20
42.510293
 30
0.0
  0
SEQEND
  8
HIDDEN
 62
     7
  0
POLYLINE
  8
HIDDEN
 62
     7
 66
     1
 10
0.0
 20
0.0
 30
0.0
 70
     1
  0
VERTEX
  8
HIDDEN
 62
     7
 10
30.167578
 20
25.261645
 30
0.0
  0
VERTEX
  8
HIDDEN
 62
     7
 10
29.780578
 20
25.261645
 30
0.0
  0
VERTEX
  8
HIDDEN
 62
     7
 10
29.780578
 20
25.311645
 30
0.0
  0
VERTEX
  8
HIDDEN
 62
     7
 10
30.217578
 20
25.311645
 30
0.0
  0
VERTEX
  8
HIDDEN
 62
     7
 10
30.217578
 20
24.701645
 30
0.0
  0
VERTEX
  8
HIDDEN
 62
     7
 10
30.167578
 20
24.701645
 30
0.0
  0
SEQEND
  8
HIDDEN
 62
     7
  0
POLYLINE
  8
HIDDEN
 62
     7
 66
     1
 10
0.0
 20
0.0
 30
0.0
  0
VERTEX
  8
HIDDEN
 62
     7
 10
29.780578
 20
25.261645
 30
0.0
  0
VERTEX
  8
HIDDEN
 62
     7
 10
29.780578
 20
24.392508
 30
0.0
  0
VERTEX
  8
HIDDEN
 62
     7
 10
30.167578
 20
24.392508
 30
0.0
  0
VERTEX
  8
HIDDEN
 62
     7
 10
30.167578
 20
23.832508
 30
0.0
  0
VERTEX
  8
HIDDEN
 62
     7
 10
30.217578
 20
23.832508
 30
0.0
  0
VERTEX
  8
HIDDEN
 62
     7
 10
30.217578
 20
24.701645
 30
0.0
  0
VERTEX
  8
HIDDEN
 62
     7
 10
30.167578
 20
24.701645
 30
0.0
  0
VERTEX
  8
HIDDEN
 62
     7
 10
30.167578
 20
24.392508
 30
0.0
  0
SEQEND
  8
HIDDEN
 62
     7
  0
POLYLINE
  8
HIDDEN
 62
     7
 66
     1
 10
0.0
 20
0.0
 30
0.0
 70
     1
  0
VERTEX
  8
HIDDEN
 62
     7
 10
29.908578
 20
25.214588
 30
0.0
 42
0.258622
  0
VERTEX
  8
HIDDEN
 62
     7
 10
29.911073
 20
25.210087
 30
0.0
 42
0.076455
  0
VERTEX
  8
HIDDEN
 62
     7
 10
29.926152
 20
25.203607
 30
0.0
 42
0.036632
 70
     2
 50
345.489181
  0
VERTEX
  8
HIDDEN
 62
     7
 10
29.943894
 20
25.200378
 30
0.0
 42
0.026706
 50
345.489181
  0
VERTEX
  8
HIDDEN
 62
     7
 10
29.968578
 20
25.199059
 30
0.0
 42
0.026706
  0
VERTEX
  8
HIDDEN
 62
     7
 10
29.993263
 20
25.200378
 30
0.0
 42
0.036632
  0
VERTEX
  8
HIDDEN
 62
     7
 10
30.011005
 20
25.203607
 30
0.0
 42
0.076455
 70
     2
 50
14.510819
  0
VERTEX
  8
HIDDEN
 62
     7
 10
30.026084
 20
25.210087
 30
0.0
 42
0.258622
 50
14.510819
  0
VERTEX
  8
HIDDEN
 62
     7
 10
30.028578
 20
25.214588
 30
0.0
 42
0.258622
  0
VERTEX
  8
HIDDEN
 62
     7
 10
30.026084
 20
25.219089
 30
0.0
 42
0.076455
  0
VERTEX
  8
HIDDEN
 62
     7
 10
30.011005
 20
25.225569
 30
0.0
 42
0.036632
 70
     2
 50
165.489181
  0
VERTEX
  8
HIDDEN
 62
     7
 10
29.993263
 20
25.228798
 30
0.0
 42
0.026706
 50
165.489181
  0
VERTEX
  8
HIDDEN
 62
     7
 10
29.968578
 20
25.230117
 30
0.0
 42
0.026706
  0
VERTEX
  8
HIDDEN
 62
     7
 10
29.943894
 20
25.228798
 30
0.0
 42
0.036632
  0
VERTEX
  8
HIDDEN
 62
     7
 10
29.926152
 20
25.225569
 30
0.0
 42
0.076455
 70
     2
 50
194.510819
  0
VERTEX
  8
HIDDEN
 62
     7
 10
29.911073
 20
25.219089
 30
0.0
 42
0.258622
 50
194.510819
  0
SEQEND
  8
HIDDEN
 62
     7
  0
POLYLINE
  8
HIDDEN
 62
     7
 66
     1
 10
0.0
 20
0.0
 30
0.0
 70
     1
  0
VERTEX
  8
HIDDEN
 62
     7
 10
29.908578
 20
24.470483
 30
0.0
 42
0.258622
  0
VERTEX
  8
HIDDEN
 62
     7
 10
29.911073
 20
24.465982
 30
0.0
 42
0.076455
  0
VERTEX
  8
HIDDEN
 62
     7
 10
29.926152
 20
24.459503
 30
0.0
 42
0.036632
 70
     2
 50
345.489181
  0
VERTEX
  8
HIDDEN
 62
     7
 10
29.943894
 20
24.456274
 30
0.0
 42
0.026706
 50
345.489181
  0
VERTEX
  8
HIDDEN
 62
     7
 10
29.968578
 20
24.454954
 30
0.0
 42
0.026706
  0
VERTEX
  8
HIDDEN
 62
     7
 10
29.993263
 20
24.456274
 30
0.0
 42
0.036632
  0
VERTEX
  8
HIDDEN
 62
     7
 10
30.011005
 20
24.459503
 30
0.0
 42
0.076455
 70
     2
 50
14.510819
  0
VERTEX
  8
HIDDEN
 62
     7
 10
30.026084
 20
24.465982
 30
0.0
 42
0.258622
 50
14.510819
  0
VERTEX
  8
HIDDEN
 62
     7
 10
30.028578
 20
24.470483
 30
0.0
 42
0.258622
  0
VERTEX
  8
HIDDEN
 62
     7
 10
30.026084
 20
24.474984
 30
0.0
 42
0.076455
  0
VERTEX
  8
HIDDEN
 62
     7
 10
30.011005
 20
24.481464
 30
0.0
 42
0.036632
 70
     2
 50
165.489181
  0
VERTEX
  8
HIDDEN
 62
     7
 10
29.993263
 20
24.484693
 30
0.0
 42
0.026706
 50
165.489181
  0
VERTEX
  8
HIDDEN
 62
     7
 10
29.968578
 20
24.486013
 30
0.0
 42
0.026706
  0
VERTEX
  8
HIDDEN
 62
     7
 10
29.943894
 20
24.484693
 30
0.0
 42
0.036632
  0
VERTEX
  8
HIDDEN
 62
     7
 10
29.926152
 20
24.481464
 30
0.0
 42
0.076455
 70
     2
 50
194.510819
  0
VERTEX
  8
HIDDEN
 62
     7
 10
29.911073
 20
24.474984
 30
0.0
 42
0.258622
 50
194.510819
  0
SEQEND
  8
HIDDEN
 62
     7
  0
LINE
  8
HIDDEN
 62
     7
 10
16.524621
 20
39.008812
 30
0.0
 11
16.524621
 21
42.510293
 31
0.0
  0
POLYLINE
  8
HIDDEN
 62
     7
 66
     1
 10
0.0
 20
0.0
 30
0.0
 70
     1
  0
VERTEX
  8
HIDDEN
 62
     7
 10
16.911621
 20
42.510293
 30
0.0
  0
VERTEX
  8
HIDDEN
 62
     7
 10
16.911621
 20
39.008812
 30
0.0
  0
VERTEX
  8
HIDDEN
 62
     7
 10
16.524621
 20
39.008812
 30
0.0
  0
VERTEX
  8
HIDDEN
 62
     7
 10
16.524621
 20
38.850932
 30
0.0
  0
VERTEX
  8
HIDDEN
 62
     7
 10
16.474621
 20
38.850932
 30
0.0
  0
VERTEX
  8
HIDDEN
 62
     7
 10
16.474621
 20
39.008812
 30
0.0
  0
VERTEX
  8
HIDDEN
 62
     7
 10
16.474621
 20
42.510293
 30
0.0
  0
SEQEND
  8
HIDDEN
 62
     7
  0
CIRCLE
  8
HIDDEN
 62
     7
 10
16.723621
 20
39.371034
 30
0.0
 40
0.06
  0
CIRCLE
  8
HIDDEN
 62
     7
 10
16.723621
 20
42.148071
 30
0.0
 40
0.06
  0
POLYLINE
  8
HIDDEN
 62
     7
 66
     1
 10
0.0
 20
0.0
 30
0.0
  0
VERTEX
  8
HIDDEN
 62
     7
 10
16.911621
 20
25.261645
 30
0.0
  0
VERTEX
  8
HIDDEN
 62
     7
 10
16.911621
 20
24.392508
 30
0.0
  0
VERTEX
  8
HIDDEN
 62
     7
 10
16.524621
 20
24.392508
 30
0.0
  0
VERTEX
  8
HIDDEN
 62
     7
 10
16.524621
 20
23.832508
 30
0.0
  0
VERTEX
  8
HIDDEN
 62
     7
 10
16.474621
 20
23.832508
 30
0.0
  0
VERTEX
  8
HIDDEN
 62
     7
 10
16.474621
 20
24.701645
 30
0.0
  0
VERTEX
  8
HIDDEN
 62
     7
 10
16.524621
 20
24.701645
 30
0.0
  0
VERTEX
  8
HIDDEN
 62
     7
 10
16.524621
 20
24.392508
 30
0.0
  0
SEQEND
  8
HIDDEN
 62
     7
  0
POLYLINE
  8
HIDDEN
 62
     7
 66
     1
 10
0.0
 20
0.0
 30
0.0
 70
     1
  0
VERTEX
  8
HIDDEN
 62
     7
 10
16.783621
 20
24.470483
 30
0.0
 42
-0.258622
  0
VERTEX
  8
HIDDEN
 62
     7
 10
16.781126
 20
24.465982
 30
0.0
 42
-0.076455
  0
VERTEX
  8
HIDDEN
 62
     7
 10
16.766047
 20
24.459503
 30
0.0
 42
-0.036632
 70
     2
 50
194.510819
  0
VERTEX
  8
HIDDEN
 62
     7
 10
16.748305
 20
24.456274
 30
0.0
 42
-0.026706
  0
VERTEX
  8
HIDDEN
 62
     7
 10
16.723621
 20
24.454954
 30
0.0
 42
-0.026706
  0
VERTEX
  8
HIDDEN
 62
     7
 10
16.698936
 20
24.456274
 30
0.0
 42
-0.036632
  0
VERTEX
  8
HIDDEN
 62
     7
 10
16.681194
 20
24.459503
 30
0.0
 42
-0.076455
 70
     2
 50
165.489181
  0
VERTEX
  8
HIDDEN
 62
     7
 10
16.666116
 20
24.465982
 30
0.0
 42
-0.258622
  0
VERTEX
  8
HIDDEN
 62
     7
 10
16.663621
 20
24.470483
 30
0.0
 42
-0.258622
  0
VERTEX
  8
HIDDEN
 62
     7
 10
16.666116
 20
24.474984
 30
0.0
 42
-0.076455
  0
VERTEX
  8
HIDDEN
 62
     7
 10
16.681194
 20
24.481464
 30
0.0
 42
-0.036632
 70
     2
 50
14.510819
  0
VERTEX
  8
HIDDEN
 62
     7
 10
16.698936
 20
24.484693
 30
0.0
 42
-0.026706
  0
VERTEX
  8
HIDDEN
 62
     7
 10
16.723621
 20
24.486013
 30
0.0
 42
-0.026706
  0
VERTEX
  8
HIDDEN
 62
     7
 10
16.748305
 20
24.484693
 30
0.0
 42
-0.036632
  0
VERTEX
  8
HIDDEN
 62
     7
 10
16.766047
 20
24.481464
 30
0.0
 42
-0.076455
 70
     2
 50
345.489181
  0
VERTEX
  8
HIDDEN
 62
     7
 10
16.781126
 20
24.474984
 30
0.0
 42
-0.258622
  0
SEQEND
  8
HIDDEN
 62
     7
  0
POLYLINE
  8
HIDDEN
 62
     7
 66
     1
 10
0.0
 20
0.0
 30
0.0
 70
     1
  0
VERTEX
  8
HIDDEN
 62
     7
 10
16.524621
 20
25.261645
 30
0.0
  0
VERTEX
  8
HIDDEN
 62
     7
 10
16.911621
 20
25.261645
 30
0.0
  0
VERTEX
  8
HIDDEN
 62
     7
 10
16.911621
 20
25.311645
 30
0.0
  0
VERTEX
  8
HIDDEN
 62
     7
 10
16.474621
 20
25.311645
 30
0.0
  0
VERTEX
  8
HIDDEN
 62
     7
 10
16.474621
 20
24.701645
 30
0.0
  0
VERTEX
  8
HIDDEN
 62
     7
 10
16.524621
 20
24.701645
 30
0.0
  0
SEQEND
  8
HIDDEN
 62
     7
  0
POLYLINE
  8
HIDDEN
 62
     7
 66
     1
 10
0.0
 20
0.0
 30
0.0
 70
     1
  0
VERTEX
  8
HIDDEN
 62
     7
 10
16.783621
 20
25.214588
 30
0.0
 42
-0.258622
  0
VERTEX
  8
HIDDEN
 62
     7
 10
16.781126
 20
25.210087
 30
0.0
 42
-0.076455
  0
VERTEX
  8
HIDDEN
 62
     7
 10
16.766047
 20
25.203607
 30
0.0
 42
-0.036632
 70
     2
 50
194.510819
  0
VERTEX
  8
HIDDEN
 62
     7
 10
16.748305
 20
25.200378
 30
0.0
 42
-0.026706
  0
VERTEX
  8
HIDDEN
 62
     7
 10
16.723621
 20
25.199059
 30
0.0
 42
-0.026706
  0
VERTEX
  8
HIDDEN
 62
     7
 10
16.698936
 20
25.200378
 30
0.0
 42
-0.036632
  0
VERTEX
  8
HIDDEN
 62
     7
 10
16.681194
 20
25.203607
 30
0.0
 42
-0.076455
 70
     2
 50
165.489181
  0
VERTEX
  8
HIDDEN
 62
     7
 10
16.666116
 20
25.210087
 30
0.0
 42
-0.258622
  0
VERTEX
  8
HIDDEN
 62
     7
 10
16.663621
 20
25.214588
 30
0.0
 42
-0.258622
  0
VERTEX
  8
HIDDEN
 62
     7
 10
16.666116
 20
25.219089
 30
0.0
 42
-0.076455
  0
VERTEX
  8
HIDDEN
 62
     7
 10
16.681194
 20
25.225569
 30
0.0
 42
-0.036632
 70
     2
 50
14.510819
  0
VERTEX
  8
HIDDEN
 62
     7
 10
16.698936
 20
25.228798
 30
0.0
 42
-0.026706
  0
VERTEX
  8
HIDDEN
 62
     7
 10
16.723621
 20
25.230117
 30
0.0
 42
-0.026706
  0
VERTEX
  8
HIDDEN
 62
     7
 10
16.748305
 20
25.228798
 30
0.0
 42
-0.036632
  0
VERTEX
  8
HIDDEN
 62
     7
 10
16.766047
 20
25.225569
 30
0.0
 42
-0.076455
 70
     2
 50
345.489181
  0
VERTEX
  8
HIDDEN
 62
     7
 10
16.781126
 20
25.219089
 30
0.0
 42
-0.258622
  0
SEQEND
  8
HIDDEN
 62
     7
  0
LINE
  8
OBJECT
 62
     7
 10
16.467578
 20
12.009495
 30
0.0
 11
16.467578
 21
12.72648
 31
0.0
  0
LINE
  8
OBJECT
 62
     7
 10
30.217578
 20
12.009495
 30
0.0
 11
30.217578
 21
12.72648
 31
0.0
  0
POLYLINE
  8
DIM
 62
     7
 66
     1
 10
0.0
 20
0.0
 30
0.0
 41
0.3375
  0
VERTEX
  8
DIM
 62
     7
 10
67.437695
 20
16.853798
 30
0.0
 41
0.3375
  0
VERTEX
  8
DIM
 62
     7
 10
66.888224
 20
16.141
 30
0.0
 41
0.0
  0
VERTEX
  8
DIM
 62
     7
 10
63.927992
 20
12.300857
 30
0.0
 41
0.0
  0
VERTEX
  8
DIM
 62
     7
 10
63.027992
 20
12.300857
 30
0.0
 41
0.0
  0
SEQEND
  8
DIM
 62
     7
  0
TEXT
  8
DIM
 62
     7
 10
54.687367
 20
11.988357
 30
0.0
 40
0.625
  1
0.875 DIA. KNOCKOUT
 41
0.75
  7
TXT
 72
     2
 11
62.577992
 21
12.300857
 31
0.0
 73
     2
  0
TEXT
  8
DIM
 62
     7
 10
58.359242
 20
10.94669
 30
0.0
 40
0.625
  1
(2) PLACES
 41
0.75
  7
TXT
 72
     2
 11
62.577992
 21
11.25919
 31
0.0
 73
     2
  0
POLYLINE
  8
OBJECT
 62
     7
 66
     1
 10
0.0
 20
0.0
 30
0.0
 70
     1
  0
VERTEX
  8
OBJECT
 62
     7
 10
30.2056
 20
25.469417
 30
0.0
  0
VERTEX
  8
OBJECT
 62
     7
 10
30.2056
 20
15.936705
 30
0.0
  0
VERTEX
  8
OBJECT
 62
     7
 10
16.4866
 20
15.936705
 30
0.0
  0
VERTEX
  8
OBJECT
 62
     7
 10
16.4866
 20
25.469417
 30
0.0
  0
SEQEND
  8
OBJECT
 62
     7
  0
LINE
  8
HIDDEN
 62
     7
 10
16.4866
 20
2.296495
 30
0.0
 11
30.2056
 21
2.296495
 31
0.0
  0
LINE
  8
HIDDEN
 62
     7
 10
16.4866
 20
12.40696
 30
0.0
 11
30.2056
 21
12.40696
 31
0.0
  0
LINE
  8
HIDDEN
 62
     7
 10
16.4866
 20
11.346314
 30
0.0
 11
30.2056
 21
11.346314
 31
0.0
  0
LINE
  8
HIDDEN
 62
     7
 10
16.4866
 20
11.783314
 30
0.0
 11
30.2056
 21
11.783314
 31
0.0
  0
LINE
  8
HIDDEN
 62
     7
 10
30.2056
 20
15.986705
 30
0.0
 11
16.4866
 21
15.986705
 31
0.0
  0
LINE
  8
OBJECT
 62
     7
 10
16.4866
 20
18.532148
 30
0.0
 11
30.2056
 21
18.532148
 31
0.0
  0
LINE
  8
OBJECT
 62
     7
 10
16.4866
 20
19.801914
 30
0.0
 11
30.2056
 21
19.801914
 31
0.0
  0
CIRCLE
  8
OBJECT
 62
     7
 10
17.3456
 20
11.533314
 30
0.0
 40
0.06
  0
CIRCLE
  8
OBJECT
 62
     7
 10
29.3466
 20
11.533314
 30
0.0
 40
0.06
  0
POLYLINE
  8
OBJECT
 62
     7
 66
     1
 10
0.0
 20
0.0
 30
0.0
 70
     1
  0
VERTEX
  8
OBJECT
 62
     7
 10
16.4866
 20
42.7286
 30
0.0
  0
VERTEX
  8
OBJECT
 62
     7
 10
30.2056
 20
42.7286
 30
0.0
  0
VERTEX
  8
OBJECT
 62
     7
 10
30.2056
 20
32.518135
 30
0.0
  0
VERTEX
  8
OBJECT
 62
     7
 10
16.4866
 20
32.518135
 30
0.0
  0
SEQEND
  8
OBJECT
 62
     7
  0
LINE
  8
HIDDEN
 62
     7
 10
16.4866
 20
25.419417
 30
0.0
 11
30.2056
 21
25.419417
 31
0.0
  0
LINE
  8
HIDDEN
 62
     7
 10
16.4866
 20
42.6786
 30
0.0
 11
30.2056
 21
42.6786
 31
0.0
  0
LINE
  8
HIDDEN
 62
     7
 10
16.4866
 20
32.568135
 30
0.0
 11
30.2056
 21
32.568135
 31
0.0
  0
LINE
  8
OBJECT
 62
     7
 10
16.4866
 20
38.759611
 30
0.0
 11
30.2056
 21
38.759611
 31
0.0
  0
LINE
  8
OBJECT
 62
     7
 10
16.4866
 20
37.235167
 30
0.0
 11
30.2056
 21
37.235167
 31
0.0
  0
CIRCLE
  8
OBJECT
 62
     7
 10
16.7366
 20
39.347377
 30
0.0
 40
0.094
  0
CIRCLE
  8
OBJECT
 62
     7
 10
16.7366
 20
42.124414
 30
0.0
 40
0.094
  0
CIRCLE
  8
OBJECT
 62
     7
 10
29.9556
 20
39.347377
 30
0.0
 40
0.094
  0
CIRCLE
  8
OBJECT
 62
     7
 10
29.9556
 20
42.124414
 30
0.0
 40
0.094
  0
POLYLINE
  8
HIDDEN
 62
     7
 66
     1
 10
0.0
 20
0.0
 30
0.0
 70
     1
  0
VERTEX
  8
HIDDEN
 62
     7
 10
58.487572
 20
25.261645
 30
0.0
  0
VERTEX
  8
HIDDEN
 62
     7
 10
58.874572
 20
25.261645
 30
0.0
  0
VERTEX
  8
HIDDEN
 62
     7
 10
58.874572
 20
25.311645
 30
0.0
  0
VERTEX
  8
HIDDEN
 62
     7
 10
58.437572
 20
25.311645
 30
0.0
  0
VERTEX
  8
HIDDEN
 62
     7
 10
58.437572
 20
24.701645
 30
0.0
  0
VERTEX
  8
HIDDEN
 62
     7
 10
58.487572
 20
24.701645
 30
0.0
  0
SEQEND
  8
HIDDEN
 62
     7
  0
POLYLINE
  8
HIDDEN
 62
     7
 66
     1
 10
0.0
 20
0.0
 30
0.0
  0
VERTEX
  8
HIDDEN
 62
     7
 10
58.874572
 20
25.261645
 30
0.0
  0
VERTEX
  8
HIDDEN
 62
     7
 10
58.874572
 20
24.392508
 30
0.0
  0
VERTEX
  8
HIDDEN
 62
     7
 10
58.487572
 20
24.392508
 30
0.0
  0
VERTEX
  8
HIDDEN
 62
     7
 10
58.487572
 20
23.832508
 30
0.0
  0
VERTEX
  8
HIDDEN
 62
     7
 10
58.437572
 20
23.832508
 30
0.0
  0
VERTEX
  8
HIDDEN
 62
     7
 10
58.437572
 20
24.701645
 30
0.0
  0
VERTEX
  8
HIDDEN
 62
     7
 10
58.487572
 20
24.701645
 30
0.0
  0
VERTEX
  8
HIDDEN
 62
     7
 10
58.487572
 20
24.392508
 30
0.0
  0
SEQEND
  8
HIDDEN
 62
     7
  0
POLYLINE
  8
OBJECT
 62
     7
 66
     1
 10
0.0
 20
0.0
 30
0.0
 70
     1
  0
VERTEX
  8
OBJECT
 62
     7
 10
58.484572
 20
15.92747
 30
0.0
 42
-0.414214
  0
VERTEX
  8
OBJECT
 62
     7
 10
58.437572
 20
15.97447
 30
0.0
  0
VERTEX
  8
OBJECT
 62
     7
 10
58.437572
 20
25.79047
 30
0.0
  0
VERTEX
  8
OBJECT
 62
     7
 10
58.347572
 20
25.79047
 30
0.0
  0
VERTEX
  8
OBJECT
 62
     7
 10
58.347572
 20
15.97447
 30
0.0
 42
0.414214
  0
VERTEX
  8
OBJECT
 62
     7
 10
58.484572
 20
15.83747
 30
0.0
  0
VERTEX
  8
OBJECT
 62
     7
 10
72.140572
 20
15.83747
 30
0.0
 42
0.414214
  0
VERTEX
  8
OBJECT
 62
     7
 10
72.277572
 20
15.97447
 30
0.0
  0
VERTEX
  8
OBJECT
 62
     7
 10
72.277572
 20
25.79047
 30
0.0
  0
VERTEX
  8
OBJECT
 62
     7
 10
72.187572
 20
25.79047
 30
0.0
  0
VERTEX
  8
OBJECT
 62
     7
 10
72.187572
 20
15.97447
 30
0.0
 42
-0.414214
  0
VERTEX
  8
OBJECT
 62
     7
 10
72.140572
 20
15.92747
 30
0.0
  0
SEQEND
  8
OBJECT
 62
     7
  0
LINE
  8
HIDDEN
 62
     7
 10
72.163051
 20
15.97747
 30
0.0
 11
58.455051
 21
15.97747
 31
0.0
  0
POLYLINE
  8
HIDDEN
 62
     7
 66
     1
 10
0.0
 20
0.0
 30
0.0
 70
     1
  0
VERTEX
  8
HIDDEN
 62
     7
 10
58.455051
 20
15.92747
 30
0.0
  0
VERTEX
  8
HIDDEN
 62
     7
 10
58.455051
 20
16.36447
 30
0.0
  0
VERTEX
  8
HIDDEN
 62
     7
 10
72.163051
 20
16.36447
 30
0.0
  0
VERTEX
  8
HIDDEN
 62
     7
 10
72.163051
 20
15.92747
 30
0.0
  0
SEQEND
  8
HIDDEN
 62
     7
  0
POLYLINE
  8
OBJECT
 62
     7
 66
     1
 10
0.0
 20
0.0
 30
0.0
 70
     1
  0
VERTEX
  8
OBJECT
 62
     7
 10
58.449551
 20
25.469417
 30
0.0
  0
VERTEX
  8
OBJECT
 62
     7
 10
58.449551
 20
15.936705
 30
0.0
  0
VERTEX
  8
OBJECT
 62
     7
 10
72.168551
 20
15.936705
 30
0.0
  0
VERTEX
  8
OBJECT
 62
     7
 10
72.168551
 20
25.469417
 30
0.0
  0
SEQEND
  8
OBJECT
 62
     7
  0
LINE
  8
HIDDEN
 62
     7
 10
58.449551
 20
15.986705
 30
0.0
 11
72.168551
 21
15.986705
 31
0.0
  0
LINE
  8
HIDDEN
 62
     7
 10
72.168551
 20
25.419417
 30
0.0
 11
58.449551
 21
25.419417
 31
0.0
  0
LINE
  8
OBJECT
 62
     7
 10
72.168551
 20
23.92773
 30
0.0
 11
58.449551
 21
23.92773
 31
0.0
  0
LINE
  8
HIDDEN
 62
     7
 10
72.168551
 20
23.52173
 30
0.0
 11
58.449551
 21
23.52173
 31
0.0
  0
LINE
  8
OBJECT
 62
     7
 10
72.168551
 20
24.42773
 30
0.0
 11
58.449551
 21
24.42773
 31
0.0
  0
CIRCLE
  8
OBJECT
 62
     7
 10
69.309051
 20
16.17647
 30
0.0
 40
0.06
  0
CIRCLE
  8
OBJECT
 62
     7
 10
61.309051
 20
16.17647
 30
0.0
 40
0.06
  0
POLYLINE
  8
HIDDEN
 62
     7
 66
     1
 10
0.0
 20
0.0
 30
0.0
  0
VERTEX
  8
HIDDEN
 62
     7
 10
71.74353
 20
25.261645
 30
0.0
  0
VERTEX
  8
HIDDEN
 62
     7
 10
71.74353
 20
24.392508
 30
0.0
  0
VERTEX
  8
HIDDEN
 62
     7
 10
72.13053
 20
24.392508
 30
0.0
  0
VERTEX
  8
HIDDEN
 62
     7
 10
72.13053
 20
23.832508
 30
0.0
  0
VERTEX
  8
HIDDEN
 62
     7
 10
72.18053
 20
23.832508
 30
0.0
  0
VERTEX
  8
HIDDEN
 62
     7
 10
72.18053
 20
24.701645
 30
0.0
  0
VERTEX
  8
HIDDEN
 62
     7
 10
72.13053
 20
24.701645
 30
0.0
  0
VERTEX
  8
HIDDEN
 62
     7
 10
72.13053
 20
24.392508
 30
0.0
  0
SEQEND
  8
HIDDEN
 62
     7
  0
POLYLINE
  8
HIDDEN
 62
     7
 66
     1
 10
0.0
 20
0.0
 30
0.0
 70
     1
  0
VERTEX
  8
HIDDEN
 62
     7
 10
71.87153
 20
25.214588
 30
0.0
 42
0.258622
  0
VERTEX
  8
HIDDEN
 62
     7
 10
71.874025
 20
25.210087
 30
0.0
 42
0.076455
  0
VERTEX
  8
HIDDEN
 62
     7
 10
71.889104
 20
25.203607
 30
0.0
 42
0.036632
 70
     2
 50
345.489181
  0
VERTEX
  8
HIDDEN
 62
     7
 10
71.906845
 20
25.200378
 30
0.0
 42
0.026706
  0
VERTEX
  8
HIDDEN
 62
     7
 10
71.93153
 20
25.199059
 30
0.0
 42
0.026706
  0
VERTEX
  8
HIDDEN
 62
     7
 10
71.956215
 20
25.200378
 30
0.0
 42
0.036632
  0
VERTEX
  8
HIDDEN
 62
     7
 10
71.973957
 20
25.203607
 30
0.0
 42
0.076455
 70
     2
 50
14.510819
  0
VERTEX
  8
HIDDEN
 62
     7
 10
71.989035
 20
25.210087
 30
0.0
 42
0.258622
  0
VERTEX
  8
HIDDEN
 62
     7
 10
71.99153
 20
25.214588
 30
0.0
 42
0.258622
  0
VERTEX
  8
HIDDEN
 62
     7
 10
71.989035
 20
25.219089
 30
0.0
 42
0.076455
  0
VERTEX
  8
HIDDEN
 62
     7
 10
71.973957
 20
25.225569
 30
0.0
 42
0.036632
 70
     2
 50
165.489181
  0
VERTEX
  8
HIDDEN
 62
     7
 10
71.956215
 20
25.228798
 30
0.0
 42
0.026706
  0
VERTEX
  8
HIDDEN
 62
     7
 10
71.93153
 20
25.230117
 30
0.0
 42
0.026706
  0
VERTEX
  8
HIDDEN
 62
     7
 10
71.906845
 20
25.228798
 30
0.0
 42
0.036632
  0
VERTEX
  8
HIDDEN
 62
     7
 10
71.889104
 20
25.225569
 30
0.0
 42
0.076455
 70
     2
 50
194.510819
  0
VERTEX
  8
HIDDEN
 62
     7
 10
71.874025
 20
25.219089
 30
0.0
 42
0.258622
  0
SEQEND
  8
HIDDEN
 62
     7
  0
POLYLINE
  8
HIDDEN
 62
     7
 66
     1
 10
0.0
 20
0.0
 30
0.0
 70
     1
  0
VERTEX
  8
HIDDEN
 62
     7
 10
71.87153
 20
24.470483
 30
0.0
 42
0.258622
  0
VERTEX
  8
HIDDEN
 62
     7
 10
71.874025
 20
24.465982
 30
0.0
 42
0.076455
  0
VERTEX
  8
HIDDEN
 62
     7
 10
71.889104
 20
24.459503
 30
0.0
 42
0.036632
 70
     2
 50
345.489181
  0
VERTEX
  8
HIDDEN
 62
     7
 10
71.906845
 20
24.456274
 30
0.0
 42
0.026706
  0
VERTEX
  8
HIDDEN
 62
     7
 10
71.93153
 20
24.454954
 30
0.0
 42
0.026706
  0
VERTEX
  8
HIDDEN
 62
     7
 10
71.956215
 20
24.456274
 30
0.0
 42
0.036632
  0
VERTEX
  8
HIDDEN
 62
     7
 10
71.973957
 20
24.459503
 30
0.0
 42
0.076455
 70
     2
 50
14.510819
  0
VERTEX
  8
HIDDEN
 62
     7
 10
71.989035
 20
24.465982
 30
0.0
 42
0.258622
  0
VERTEX
  8
HIDDEN
 62
     7
 10
71.99153
 20
24.470483
 30
0.0
 42
0.258622
  0
VERTEX
  8
HIDDEN
 62
     7
 10
71.989035
 20
24.474984
 30
0.0
 42
0.076455
  0
VERTEX
  8
HIDDEN
 62
     7
 10
71.973957
 20
24.481464
 30
0.0
 42
0.036632
 70
     2
 50
165.489181
  0
VERTEX
  8
HIDDEN
 62
     7
 10
71.956215
 20
24.484693
 30
0.0
 42
0.026706
  0
VERTEX
  8
HIDDEN
 62
     7
 10
71.93153
 20
24.486013
 30
0.0
 42
0.026706
  0
VERTEX
  8
HIDDEN
 62
     7
 10
71.906845
 20
24.484693
 30
0.0
 42
0.036632
  0
VERTEX
  8
HIDDEN
 62
     7
 10
71.889104
 20
24.481464
 30
0.0
 42
0.076455
 70
     2
 50
194.510819
  0
VERTEX
  8
HIDDEN
 62
     7
 10
71.874025
 20
24.474984
 30
0.0
 42
0.258622
  0
SEQEND
  8
HIDDEN
 62
     7
  0
POLYLINE
  8
HIDDEN
 62
     7
 66
     1
 10
0.0
 20
0.0
 30
0.0
 70
     1
  0
VERTEX
  8
HIDDEN
 62
     7
 10
72.13053
 20
25.261645
 30
0.0
  0
VERTEX
  8
HIDDEN
 62
     7
 10
71.74353
 20
25.261645
 30
0.0
  0
VERTEX
  8
HIDDEN
 62
     7
 10
71.74353
 20
25.311645
 30
0.0
  0
VERTEX
  8
HIDDEN
 62
     7
 10
72.18053
 20
25.311645
 30
0.0
  0
VERTEX
  8
HIDDEN
 62
     7
 10
72.18053
 20
24.701645
 30
0.0
  0
VERTEX
  8
HIDDEN
 62
     7
 10
72.13053
 20
24.701645
 30
0.0
  0
SEQEND
  8
HIDDEN
 62
     7
  0
POLYLINE
  8
HIDDEN
 62
     7
 66
     1
 10
0.0
 20
0.0
 30
0.0
 70
     1
  0
VERTEX
  8
HIDDEN
 62
     7
 10
58.746572
 20
24.470483
 30
0.0
 42
-0.258622
  0
VERTEX
  8
HIDDEN
 62
     7
 10
58.744077
 20
24.465982
 30
0.0
 42
-0.076455
  0
VERTEX
  8
HIDDEN
 62
     7
 10
58.728999
 20
24.459503
 30
0.0
 42
-0.036632
 70
     2
 50
194.510819
  0
VERTEX
  8
HIDDEN
 62
     7
 10
58.711257
 20
24.456274
 30
0.0
 42
-0.026706
  0
VERTEX
  8
HIDDEN
 62
     7
 10
58.686572
 20
24.454954
 30
0.0
 42
-0.026706
  0
VERTEX
  8
HIDDEN
 62
     7
 10
58.661888
 20
24.456274
 30
0.0
 42
-0.036632
  0
VERTEX
  8
HIDDEN
 62
     7
 10
58.644146
 20
24.459503
 30
0.0
 42
-0.076455
 70
     2
 50
165.489181
  0
VERTEX
  8
HIDDEN
 62
     7
 10
58.629067
 20
24.465982
 30
0.0
 42
-0.258622
  0
VERTEX
  8
HIDDEN
 62
     7
 10
58.626572
 20
24.470483
 30
0.0
 42
-0.258622
  0
VERTEX
  8
HIDDEN
 62
     7
 10
58.629067
 20
24.474984
 30
0.0
 42
-0.076455
  0
VERTEX
  8
HIDDEN
 62
     7
 10
58.644146
 20
24.481464
 30
0.0
 42
-0.036632
 70
     2
 50
14.510819
  0
VERTEX
  8
HIDDEN
 62
     7
 10
58.661888
 20
24.484693
 30
0.0
 42
-0.026706
  0
VERTEX
  8
HIDDEN
 62
     7
 10
58.686572
 20
24.486013
 30
0.0
 42
-0.026706
  0
VERTEX
  8
HIDDEN
 62
     7
 10
58.711257
 20
24.484693
 30
0.0
 42
-0.036632
  0
VERTEX
  8
HIDDEN
 62
     7
 10
58.728999
 20
24.481464
 30
0.0
 42
-0.076455
 70
     2
 50
345.489181
  0
VERTEX
  8
HIDDEN
 62
     7
 10
58.744077
 20
24.474984
 30
0.0
 42
-0.258622
  0
SEQEND
  8
HIDDEN
 62
     7
  0
POLYLINE
  8
HIDDEN
 62
     7
 66
     1
 10
0.0
 20
0.0
 30
0.0
 70
     1
  0
VERTEX
  8
HIDDEN
 62
     7
 10
58.746572
 20
25.214588
 30
0.0
 42
-0.258622
  0
VERTEX
  8
HIDDEN
 62
     7
 10
58.744077
 20
25.210087
 30
0.0
 42
-0.076455
  0
VERTEX
  8
HIDDEN
 62
     7
 10
58.728999
 20
25.203607
 30
0.0
 42
-0.036632
 70
     2
 50
194.510819
  0
VERTEX
  8
HIDDEN
 62
     7
 10
58.711257
 20
25.200378
 30
0.0
 42
-0.026706
  0
VERTEX
  8
HIDDEN
 62
     7
 10
58.686572
 20
25.199059
 30
0.0
 42
-0.026706
  0
VERTEX
  8
HIDDEN
 62
     7
 10
58.661888
 20
25.200378
 30
0.0
 42
-0.036632
  0
VERTEX
  8
HIDDEN
 62
     7
 10
58.644146
 20
25.203607
 30
0.0
 42
-0.076455
 70
     2
 50
165.489181
  0
VERTEX
  8
HIDDEN
 62
     7
 10
58.629067
 20
25.210087
 30
0.0
 42
-0.258622
  0
VERTEX
  8
HIDDEN
 62
     7
 10
58.626572
 20
25.214588
 30
0.0
 42
-0.258622
  0
VERTEX
  8
HIDDEN
 62
     7
 10
58.629067
 20
25.219089
 30
0.0
 42
-0.076455
  0
VERTEX
  8
HIDDEN
 62
     7
 10
58.644146
 20
25.225569
 30
0.0
 42
-0.036632
 70
     2
 50
14.510819
  0
VERTEX
  8
HIDDEN
 62
     7
 10
58.661888
 20
25.228798
 30
0.0
 42
-0.026706
  0
VERTEX
  8
HIDDEN
 62
     7
 10
58.686572
 20
25.230117
 30
0.0
 42
-0.026706
  0
VERTEX
  8
HIDDEN
 62
     7
 10
58.711257
 20
25.228798
 30
0.0
 42
-0.036632
  0
VERTEX
  8
HIDDEN
 62
     7
 10
58.728999
 20
25.225569
 30
0.0
 42
-0.076455
 70
     2
 50
345.489181
  0
VERTEX
  8
HIDDEN
 62
     7
 10
58.744077
 20
25.219089
 30
0.0
 42
-0.258622
  0
SEQEND
  8
HIDDEN
 62
     7
  0
POLYLINE
  8
OBJECT
 62
     7
 66
     1
 10
0.0
 20
0.0
 30
0.0
 70
     1
  0
VERTEX
  8
OBJECT
 62
     7
 10
72.168551
 20
15.95747
 30
0.0
  0
VERTEX
  8
OBJECT
 62
     7
 10
72.168551
 20
23.87947
 30
0.0
  0
VERTEX
  8
OBJECT
 62
     7
 10
58.449551
 20
23.87947
 30
0.0
  0
VERTEX
  8
OBJECT
 62
     7
 10
58.449551
 20
15.95747
 30
0.0
  0
SEQEND
  8
OBJECT
 62
     7
  0
ARC
  8
OBJECT
 62
     7
 10
59.824551
 20
17.86347
 30
0.0
 40
0.375
 50
180.0
 51
270.0
  0
ARC
  8
OBJECT
 62
     7
 10
59.824551
 20
17.08247
 30
0.0
 40
0.375
 50
180.0
 51
270.0
  0
ARC
  8
OBJECT
 62
     7
 10
59.824551
 20
18.64447
 30
0.0
 40
0.375
 50
180.0
 51
270.0
  0
LINE
  8
OBJECT
 62
     7
 10
61.949551
 20
18.64447
 30
0.0
 11
59.449551
 21
18.64447
 31
0.0
  0
LINE
  8
OBJECT
 62
     7
 10
61.949551
 20
17.86347
 30
0.0
 11
59.449551
 21
17.86347
 31
0.0
  0
LINE
  8
OBJECT
 62
     7
 10
61.949551
 20
17.08247
 30
0.0
 11
59.449551
 21
17.08247
 31
0.0
  0
ARC
  8
OBJECT
 62
     7
 10
61.574551
 20
18.64447
 30
0.0
 40
0.375
 50
270.0
 51
0.0
  0
LINE
  8
OBJECT
 62
     7
 10
59.824551
 20
17.48847
 30
0.0
 11
61.574551
 21
17.48847
 31
0.0
  0
LINE
  8
OBJECT
 62
     7
 10
59.824551
 20
16.70747
 30
0.0
 11
61.574551
 21
16.70747
 31
0.0
  0
CIRCLE
  8
OBJECT
 62
     7
 10
61.308551
 20
16.17647
 30
0.0
 40
0.094
  0
ARC
  8
OBJECT
 62
     7
 10
61.574551
 20
17.86347
 30
0.0
 40
0.375
 50
180.0
 51
180.0
  0
ARC
  8
OBJECT
 62
     7
 10
61.574551
 20
17.86347
 30
0.0
 40
0.375
 50
270.0
 51
0.0
  0
ARC
  8
OBJECT
 62
     7
 10
61.574551
 20
17.08247
 30
0.0
 40
0.375
 50
180.0
 51
180.0
  0
ARC
  8
OBJECT
 62
     7
 10
61.574551
 20
17.08247
 30
0.0
 40
0.375
 50
270.0
 51
0.0
  0
LINE
  8
OBJECT
 62
     7
 10
59.824551
 20
18.26947
 30
0.0
 11
61.574551
 21
18.26947
 31
0.0
  0
ARC
  8
OBJECT
 62
     7
 10
61.574551
 20
18.64447
 30
0.0
 40
0.375
 50
180.0
 51
180.0
  0
ARC
  8
OBJECT
 62
     7
 10
59.824551
 20
21.56747
 30
0.0
 40
0.375
 50
180.0
 51
270.0
  0
ARC
  8
OBJECT
 62
     7
 10
59.824551
 20
22.34847
 30
0.0
 40
0.375
 50
180.0
 51
270.0
  0
ARC
  8
OBJECT
 62
     7
 10
59.824551
 20
23.12947
 30
0.0
 40
0.375
 50
180.0
 51
270.0
  0
LINE
  8
OBJECT
 62
     7
 10
61.949551
 20
21.56747
 30
0.0
 11
59.449551
 21
21.56747
 31
0.0
  0
LINE
  8
OBJECT
 62
     7
 10
61.949551
 20
22.34847
 30
0.0
 11
59.449551
 21
22.34847
 31
0.0
  0
LINE
  8
OBJECT
 62
     7
 10
61.949551
 20
23.12947
 30
0.0
 11
59.449551
 21
23.12947
 31
0.0
  0
LINE
  8
OBJECT
 62
     7
 10
59.824551
 20
21.19247
 30
0.0
 11
61.574551
 21
21.19247
 31
0.0
  0
LINE
  8
OBJECT
 62
     7
 10
59.824551
 20
21.97347
 30
0.0
 11
61.574551
 21
21.97347
 31
0.0
  0
LINE
  8
OBJECT
 62
     7
 10
59.824551
 20
22.75447
 30
0.0
 11
61.574551
 21
22.75447
 31
0.0
  0
ARC
  8
OBJECT
 62
     7
 10
61.574551
 20
21.56747
 30
0.0
 40
0.375
 50
270.0
 51
0.0
  0
ARC
  8
OBJECT
 62
     7
 10
61.574551
 20
21.56747
 30
0.0
 40
0.375
 50
180.0
 51
180.0
  0
ARC
  8
OBJECT
 62
     7
 10
61.574551
 20
22.34847
 30
0.0
 40
0.375
 50
270.0
 51
0.0
  0
ARC
  8
OBJECT
 62
     7
 10
61.574551
 20
22.34847
 30
0.0
 40
0.375
 50
180.0
 51
180.0
  0
ARC
  8
OBJECT
 62
     7
 10
61.574551
 20
23.12947
 30
0.0
 40
0.375
 50
180.0
 51
180.0
  0
ARC
  8
OBJECT
 62
     7
 10
61.574551
 20
23.12947
 30
0.0
 40
0.375
 50
270.0
 51
0.0
  0
CIRCLE
  8
OBJECT
 62
     7
 10
61.308551
 20
23.66047
 30
0.0
 40
0.094
  0
ARC
  8
OBJECT
 62
     7
 10
67.668551
 20
17.20747
 30
0.0
 40
0.4375
 50
277.180756
 51
82.819244
  0
LINE
  8
OBJECT
 62
     7
 10
63.004239
 20
17.590282
 30
0.0
 11
63.004239
 21
17.754345
 31
0.0
  0
LINE
  8
OBJECT
 62
     7
 10
62.894864
 20
17.590282
 30
0.0
 11
62.894864
 21
17.754345
 31
0.0
  0
ARC
  8
OBJECT
 62
     7
 10
62.949551
 20
17.20747
 30
0.0
 40
0.4375
 50
277.180756
 51
82.819244
  0
LINE
  8
OBJECT
 62
     7
 10
62.894864
 20
16.824657
 30
0.0
 11
62.894864
 21
16.660595
 31
0.0
  0
LINE
  8
OBJECT
 62
     7
 10
63.004239
 20
16.824657
 30
0.0
 11
63.004239
 21
16.660595
 31
0.0
  0
ARC
  8
OBJECT
 62
     7
 10
62.949551
 20
17.20747
 30
0.0
 40
0.4375
 50
97.180756
 51
262.819244
  0
LINE
  8
OBJECT
 62
     7
 10
67.723239
 20
17.590282
 30
0.0
 11
67.723239
 21
17.754345
 31
0.0
  0
LINE
  8
OBJECT
 62
     7
 10
67.723239
 20
16.824657
 30
0.0
 11
67.723239
 21
16.660595
 31
0.0
  0
LINE
  8
OBJECT
 62
     7
 10
67.613864
 20
17.590282
 30
0.0
 11
67.613864
 21
17.754345
 31
0.0
  0
LINE
  8
OBJECT
 62
     7
 10
67.613864
 20
16.824657
 30
0.0
 11
67.613864
 21
16.660595
 31
0.0
  0
ARC
  8
OBJECT
 62
     7
 10
67.668551
 20
17.20747
 30
0.0
 40
0.4375
 50
97.180756
 51
262.819244
  0
LINE
  8
OBJECT
 62
     7
 10
69.043551
 20
18.26947
 30
0.0
 11
70.793551
 21
18.26947
 31
0.0
  0
LINE
  8
OBJECT
 62
     7
 10
69.043551
 20
17.48847
 30
0.0
 11
70.793551
 21
17.48847
 31
0.0
  0
LINE
  8
OBJECT
 62
     7
 10
69.043551
 20
16.70747
 30
0.0
 11
70.793551
 21
16.70747
 31
0.0
  0
LINE
  8
OBJECT
 62
     7
 10
71.168551
 20
18.64447
 30
0.0
 11
68.668551
 21
18.64447
 31
0.0
  0
LINE
  8
OBJECT
 62
     7
 10
71.168551
 20
17.86347
 30
0.0
 11
68.668551
 21
17.86347
 31
0.0
  0
LINE
  8
OBJECT
 62
     7
 10
71.168551
 20
17.08247
 30
0.0
 11
68.668551
 21
17.08247
 31
0.0
  0
ARC
  8
OBJECT
 62
     7
 10
69.043551
 20
18.64447
 30
0.0
 40
0.375
 50
180.0
 51
270.0
  0
CIRCLE
  8
OBJECT
 62
     7
 10
69.309551
 20
16.17647
 30
0.0
 40
0.094
  0
ARC
  8
OBJECT
 62
     7
 10
69.043551
 20
17.86347
 30
0.0
 40
0.375
 50
180.0
 51
270.0
  0
ARC
  8
OBJECT
 62
     7
 10
69.043551
 20
17.08247
 30
0.0
 40
0.375
 50
180.0
 51
270.0
  0
ARC
  8
OBJECT
 62
     7
 10
70.793551
 20
17.86347
 30
0.0
 40
0.375
 50
180.0
 51
180.0
  0
ARC
  8
OBJECT
 62
     7
 10
70.793551
 20
17.08247
 30
0.0
 40
0.375
 50
180.0
 51
180.0
  0
ARC
  8
OBJECT
 62
     7
 10
70.793551
 20
18.64447
 30
0.0
 40
0.375
 50
180.0
 51
180.0
  0
ARC
  8
OBJECT
 62
     7
 10
70.793551
 20
18.64447
 30
0.0
 40
0.375
 50
270.0
 51
0.0
  0
ARC
  8
OBJECT
 62
     7
 10
70.793551
 20
17.86347
 30
0.0
 40
0.375
 50
270.0
 51
0.0
  0
ARC
  8
OBJECT
 62
     7
 10
70.793551
 20
17.08247
 30
0.0
 40
0.375
 50
270.0
 51
0.0
  0
LINE
  8
OBJECT
 62
     7
 10
69.043551
 20
21.19247
 30
0.0
 11
70.793551
 21
21.19247
 31
0.0
  0
LINE
  8
OBJECT
 62
     7
 10
69.043551
 20
21.97347
 30
0.0
 11
70.793551
 21
21.97347
 31
0.0
  0
LINE
  8
OBJECT
 62
     7
 10
69.043551
 20
22.75447
 30
0.0
 11
70.793551
 21
22.75447
 31
0.0
  0
LINE
  8
OBJECT
 62
     7
 10
71.168551
 20
21.56747
 30
0.0
 11
68.668551
 21
21.56747
 31
0.0
  0
LINE
  8
OBJECT
 62
     7
 10
71.168551
 20
22.34847
 30
0.0
 11
68.668551
 21
22.34847
 31
0.0
  0
LINE
  8
OBJECT
 62
     7
 10
71.168551
 20
23.12947
 30
0.0
 11
68.668551
 21
23.12947
 31
0.0
  0
ARC
  8
OBJECT
 62
     7
 10
69.043551
 20
21.56747
 30
0.0
 40
0.375
 50
180.0
 51
270.0
  0
ARC
  8
OBJECT
 62
     7
 10
69.043551
 20
22.34847
 30
0.0
 40
0.375
 50
180.0
 51
270.0
  0
ARC
  8
OBJECT
 62
     7
 10
69.043551
 20
23.12947
 30
0.0
 40
0.375
 50
180.0
 51
270.0
  0
ARC
  8
OBJECT
 62
     7
 10
70.793551
 20
21.56747
 30
0.0
 40
0.375
 50
180.0
 51
180.0
  0
ARC
  8
OBJECT
 62
     7
 10
70.793551
 20
22.34847
 30
0.0
 40
0.375
 50
180.0
 51
180.0
  0
ARC
  8
OBJECT
 62
     7
 10
70.793551
 20
23.12947
 30
0.0
 40
0.375
 50
180.0
 51
180.0
  0
CIRCLE
  8
OBJECT
 62
     7
 10
69.309551
 20
23.66047
 30
0.0
 40
0.094
  0
ARC
  8
OBJECT
 62
     7
 10
70.793551
 20
21.56747
 30
0.0
 40
0.375
 50
270.0
 51
0.0
  0
ARC
  8
OBJECT
 62
     7
 10
70.793551
 20
22.34847
 30
0.0
 40
0.375
 50
270.0
 51
0.0
  0
ARC
  8
OBJECT
 62
     7
 10
70.793551
 20
23.12947
 30
0.0
 40
0.375
 50
270.0
 51
0.0
  0
CIRCLE
  8
OBJECT
 62
     7
 10
61.308551
 20
23.67773
 30
0.0
 40
0.06
  0
CIRCLE
  8
OBJECT
 62
     7
 10
69.309551
 20
23.67773
 30
0.0
 40
0.06
  0
POLYLINE
  8
HIDDEN
  6
HIDDEN2
 62
     7
 66
     1
 10
0.0
 20
0.0
 30
0.0
 70
     1
  0
VERTEX
  8
HIDDEN
  6
HIDDEN2
 62
     7
 10
17.290828
 20
16.21247
 30
0.0
  0
VERTEX
  8
HIDDEN
  6
HIDDEN2
 62
     7
 10
17.273578
 20
16.19522
 30
0.0
  0
VERTEX
  8
HIDDEN
  6
HIDDEN2
 62
     7
 10
17.273578
 20
15.90647
 30
0.0
  0
VERTEX
  8
HIDDEN
  6
HIDDEN2
 62
     7
 10
17.215681
 20
15.83747
 30
0.0
  0
VERTEX
  8
HIDDEN
  6
HIDDEN2
 62
     7
 10
17.469476
 20
15.83747
 30
0.0
  0
VERTEX
  8
HIDDEN
  6
HIDDEN2
 62
     7
 10
17.411578
 20
15.90647
 30
0.0
  0
VERTEX
  8
HIDDEN
  6
HIDDEN2
 62
     7
 10
17.411578
 20
16.19522
 30
0.0
  0
VERTEX
  8
HIDDEN
  6
HIDDEN2
 62
     7
 10
17.394328
 20
16.21247
 30
0.0
  0
SEQEND
  8
HIDDEN
  6
HIDDEN2
 62
     7
  0
POLYLINE
  8
HIDDEN
  6
HIDDEN2
 62
     7
 66
     1
 10
0.0
 20
0.0
 30
0.0
 70
     1
  0
VERTEX
  8
HIDDEN
  6
HIDDEN2
 62
     7
 10
29.401371
 20
16.21247
 30
0.0
  0
VERTEX
  8
HIDDEN
  6
HIDDEN2
 62
     7
 10
29.418621
 20
16.19522
 30
0.0
  0
VERTEX
  8
HIDDEN
  6
HIDDEN2
 62
     7
 10
29.418621
 20
15.90647
 30
0.0
  0
VERTEX
  8
HIDDEN
  6
HIDDEN2
 62
     7
 10
29.476518
 20
15.83747
 30
0.0
  0
VERTEX
  8
HIDDEN
  6
HIDDEN2
 62
     7
 10
29.222723
 20
15.83747
 30
0.0
  0
VERTEX
  8
HIDDEN
  6
HIDDEN2
 62
     7
 10
29.280621
 20
15.90647
 30
0.0
  0
VERTEX
  8
HIDDEN
  6
HIDDEN2
 62
     7
 10
29.280621
 20
16.19522
 30
0.0
  0
VERTEX
  8
HIDDEN
  6
HIDDEN2
 62
     7
 10
29.297871
 20
16.21247
 30
0.0
  0
SEQEND
  8
HIDDEN
  6
HIDDEN2
 62
     7
  0
POLYLINE
  8
OBJECT
 62
     7
 66
     1
 10
0.0
 20
0.0
 30
0.0
 70
     1
  0
VERTEX
  8
OBJECT
 62
     7
 10
48.159619
 20
24.526814
 30
0.0
 42
0.339454
  0
VERTEX
  8
OBJECT
 62
     7
 10
48.066971
 20
24.647554
 30
0.0
  0
VERTEX
  8
OBJECT
 62
     7
 10
43.921359
 20
25.758368
 30
0.0
 42
0.414214
  0
VERTEX
  8
OBJECT
 62
     7
 10
43.768266
 20
25.669979
 30
0.0
  0
VERTEX
  8
OBJECT
 62
     7
 10
42.240083
 20
19.96672
 30
0.0
  0
VERTEX
  8
OBJECT
 62
     7
 10
37.535282
 20
18.706072
 30
0.0
 42
0.414214
  0
VERTEX
  8
OBJECT
 62
     7
 10
37.446893
 20
18.552979
 30
0.0
  0
VERTEX
  8
OBJECT
 62
     7
 10
38.159619
 20
15.893052
 30
0.0
  0
VERTEX
  8
OBJECT
 62
     7
 10
38.159619
 20
15.83747
 30
0.0
  0
VERTEX
  8
OBJECT
 62
     7
 10
48.159619
 20
15.83747
 30
0.0
  0
SEQEND
  8
OBJECT
 62
     7
  0
POLYLINE
  8
OBJECT
 62
     7
 66
     1
 10
0.0
 20
0.0
 30
0.0
 70
     1
  0
VERTEX
  8
OBJECT
 62
     7
 10
47.897619
 20
15.95747
 30
0.0
  0
VERTEX
  8
OBJECT
 62
     7
 10
47.847619
 20
15.95747
 30
0.0
  0
VERTEX
  8
OBJECT
 62
     7
 10
47.847619
 20
16.70747
 30
0.0
 42
-0.236068
  0
VERTEX
  8
OBJECT
 62
     7
 10
47.660119
 20
17.08247
 30
0.0
  0
VERTEX
  8
OBJECT
 62
     7
 10
47.847619
 20
17.08247
 30
0.0
  0
VERTEX
  8
OBJECT
 62
     7
 10
47.847619
 20
17.48847
 30
0.0
 42
-0.236068
  0
VERTEX
  8
OBJECT
 62
     7
 10
47.660119
 20
17.86347
 30
0.0
  0
VERTEX
  8
OBJECT
 62
     7
 10
47.847619
 20
17.86347
 30
0.0
  0
VERTEX
  8
OBJECT
 62
     7
 10
47.847619
 20
18.26947
 30
0.0
 42
-0.236068
  0
VERTEX
  8
OBJECT
 62
     7
 10
47.660119
 20
18.64447
 30
0.0
  0
VERTEX
  8
OBJECT
 62
     7
 10
47.847619
 20
18.64447
 30
0.0
  0
VERTEX
  8
OBJECT
 62
     7
 10
47.847619
 20
21.19247
 30
0.0
 42
-0.236068
  0
VERTEX
  8
OBJECT
 62
     7
 10
47.660119
 20
21.56747
 30
0.0
  0
VERTEX
  8
OBJECT
 62
     7
 10
47.847619
 20
21.56747
 30
0.0
  0
VERTEX
  8
OBJECT
 62
     7
 10
47.847619
 20
21.97347
 30
0.0
 42
-0.236068
  0
VERTEX
  8
OBJECT
 62
     7
 10
47.660119
 20
22.34847
 30
0.0
  0
VERTEX
  8
OBJECT
 62
     7
 10
47.847619
 20
22.34847
 30
0.0
  0
VERTEX
  8
OBJECT
 62
     7
 10
47.847619
 20
22.75447
 30
0.0
 42
-0.236068
  0
VERTEX
  8
OBJECT
 62
     7
 10
47.660119
 20
23.12947
 30
0.0
  0
VERTEX
  8
OBJECT
 62
     7
 10
47.847619
 20
23.12947
 30
0.0
  0
VERTEX
  8
OBJECT
 62
     7
 10
47.847619
 20
23.87947
 30
0.0
  0
VERTEX
  8
OBJECT
 62
     7
 10
47.897619
 20
23.87947
 30
0.0
  0
SEQEND
  8
OBJECT
 62
     7
  0
POLYLINE
  8
OBJECT
 62
     7
 66
     1
 10
0.0
 20
0.0
 30
0.0
 70
     1
  0
VERTEX
  8
OBJECT
 62
     7
 10
38.414832
 20
16.021541
 30
0.0
 42
0.339454
  0
VERTEX
  8
OBJECT
 62
     7
 10
38.460231
 20
15.986705
 30
0.0
  0
VERTEX
  8
OBJECT
 62
     7
 10
38.8228
 20
15.986705
 30
0.0
  0
VERTEX
  8
OBJECT
 62
     7
 10
38.8228
 20
15.936705
 30
0.0
  0
VERTEX
  8
OBJECT
 62
     7
 10
38.460231
 20
15.936705
 30
0.0
 42
-0.339454
  0
VERTEX
  8
OBJECT
 62
     7
 10
38.366536
 20
16.0086
 30
0.0
  0
VERTEX
  8
OBJECT
 62
     7
 10
37.715459
 20
18.438453
 30
0.0
 42
-0.414214
  0
VERTEX
  8
OBJECT
 62
     7
 10
37.784048
 20
18.557253
 30
0.0
  0
VERTEX
  8
OBJECT
 62
     7
 10
42.429185
 20
19.801914
 30
0.0
  0
VERTEX
  8
OBJECT
 62
     7
 10
43.928524
 20
25.397522
 30
0.0
 42
-0.414214
  0
VERTEX
  8
OBJECT
 62
     7
 10
44.047324
 20
25.466112
 30
0.0
  0
VERTEX
  8
OBJECT
 62
     7
 10
47.850724
 20
24.446994
 30
0.0
 42
-0.339454
  0
VERTEX
  8
OBJECT
 62
     7
 10
47.922619
 20
24.353299
 30
0.0
  0
VERTEX
  8
OBJECT
 62
     7
 10
47.922619
 20
23.92773
 30
0.0
  0
VERTEX
  8
OBJECT
 62
     7
 10
47.847619
 20
23.92773
 30
0.0
  0
VERTEX
  8
OBJECT
 62
     7
 10
47.847619
 20
23.52173
 30
0.0
  0
VERTEX
  8
OBJECT
 62
     7
 10
47.797619
 20
23.52173
 30
0.0
  0
VERTEX
  8
OBJECT
 62
     7
 10
47.797619
 20
23.99073
 30
0.0
  0
VERTEX
  8
OBJECT
 62
     7
 10
47.872619
 20
23.99073
 30
0.0
  0
VERTEX
  8
OBJECT
 62
     7
 10
47.872619
 20
24.353299
 30
0.0
 42
0.339454
  0
VERTEX
  8
OBJECT
 62
     7
 10
47.837783
 20
24.398698
 30
0.0
  0
VERTEX
  8
OBJECT
 62
     7
 10
44.034383
 20
25.417816
 30
0.0
 42
0.414214
  0
VERTEX
  8
OBJECT
 62
     7
 10
43.97682
 20
25.384582
 30
0.0
  0
VERTEX
  8
OBJECT
 62
     7
 10
42.484505
 20
19.815184
 30
0.0
 42
-0.267949
  0
VERTEX
  8
OBJECT
 62
     7
 10
42.415915
 20
19.746595
 30
0.0
  0
VERTEX
  8
OBJECT
 62
     7
 10
37.796989
 20
18.508957
 30
0.0
 42
0.414214
  0
VERTEX
  8
OBJECT
 62
     7
 10
37.763755
 20
18.451394
 30
0.0
  0
SEQEND
  8
OBJECT
 62
     7
  0
LINE
  8
HIDDEN
 62
     7
 10
38.159619
 20
15.92747
 30
0.0
 11
48.159619
 21
15.92747
 31
0.0
  0
POLYLINE
  8
OBJECT
 62
     7
 66
     1
 10
0.0
 20
0.0
 30
0.0
 70
     1
  0
VERTEX
  8
OBJECT
 62
     7
 10
38.576869
 20
16.21247
 30
0.0
  0
VERTEX
  8
OBJECT
 62
     7
 10
38.559619
 20
16.19522
 30
0.0
  0
VERTEX
  8
OBJECT
 62
     7
 10
38.559619
 20
15.90647
 30
0.0
  0
VERTEX
  8
OBJECT
 62
     7
 10
38.501721
 20
15.83747
 30
0.0
  0
VERTEX
  8
OBJECT
 62
     7
 10
38.755516
 20
15.83747
 30
0.0
  0
VERTEX
  8
OBJECT
 62
     7
 10
38.697619
 20
15.90647
 30
0.0
  0
VERTEX
  8
OBJECT
 62
     7
 10
38.697619
 20
16.19522
 30
0.0
  0
VERTEX
  8
OBJECT
 62
     7
 10
38.680369
 20
16.21247
 30
0.0
  0
SEQEND
  8
OBJECT
 62
     7
  0
POLYLINE
  8
DIM
 62
     7
 66
     1
 10
0.0
 20
0.0
 30
0.0
  0
VERTEX
  8
DIM
 62
     7
 10
38.415064
 20
15.936705
 30
0.0
  0
VERTEX
  8
DIM
 62
     7
 10
38.3858
 20
15.936705
 30
0.0
  0
VERTEX
  8
DIM
 62
     7
 10
38.378226
 20
15.964972
 30
0.0
  0
SEQEND
  8
DIM
 62
     7
  0
POLYLINE
  8
DIM
 62
     7
 66
     1
 10
0.0
 20
0.0
 30
0.0
  0
VERTEX
  8
DIM
 62
     7
 10
37.700967
 20
18.492536
 30
0.0
  0
VERTEX
  8
DIM
 62
     7
 10
37.690353
 20
18.532148
 30
0.0
  0
VERTEX
  8
DIM
 62
     7
 10
37.729965
 20
18.542762
 30
0.0
  0
SEQEND
  8
DIM
 62
     7
  0
LINE
  8
CENTER
 62
     7
 10
37.414541
 20
18.67372
 30
0.0
 11
37.426391
 21
18.629496
 31
0.0
  0
LINE
  8
CENTER
 62
     7
 10
37.458764
 20
18.68557
 30
0.0
 11
37.414541
 21
18.67372
 31
0.0
  0
POLYLINE
  8
OBJECT
 62
     7
 66
     1
 10
0.0
 20
0.0
 30
0.0
 70
     1
  0
VERTEX
  8
OBJECT
 62
     7
 10
47.539869
 20
16.24547
 30
0.0
  0
VERTEX
  8
OBJECT
 62
     7
 10
47.897619
 20
16.24547
 30
0.0
  0
VERTEX
  8
OBJECT
 62
     7
 10
47.897619
 20
16.295982
 30
0.0
 42
-0.866025
  0
VERTEX
  8
OBJECT
 62
     7
 10
47.897619
 20
16.056958
 30
0.0
  0
VERTEX
  8
OBJECT
 62
     7
 10
47.897619
 20
16.10747
 30
0.0
  0
VERTEX
  8
OBJECT
 62
     7
 10
47.539869
 20
16.10747
 30
0.0
  0
VERTEX
  8
OBJECT
 62
     7
 10
47.522619
 20
16.12472
 30
0.0
  0
VERTEX
  8
OBJECT
 62
     7
 10
47.522619
 20
16.22822
 30
0.0
  0
SEQEND
  8
OBJECT
 62
     7
  0
POLYLINE
  8
HIDDEN
 62
     7
 66
     1
 10
0.0
 20
0.0
 30
0.0
  0
VERTEX
  8
HIDDEN
 62
     7
 10
47.847619
 20
16.76997
 30
0.0
  0
VERTEX
  8
HIDDEN
 62
     7
 10
47.797619
 20
16.76997
 30
0.0
  0
VERTEX
  8
HIDDEN
 62
     7
 10
47.797619
 20
17.64497
 30
0.0
  0
VERTEX
  8
HIDDEN
 62
     7
 10
47.847619
 20
17.64497
 30
0.0
  0
SEQEND
  8
HIDDEN
 62
     7
  0
POLYLINE
  8
OBJECT
 62
     7
 66
     1
 10
0.0
 20
0.0
 30
0.0
 70
     1
  0
VERTEX
  8
OBJECT
 62
     7
 10
47.797619
 20
15.97747
 30
0.0
  0
VERTEX
  8
OBJECT
 62
     7
 10
47.797619
 20
16.36447
 30
0.0
  0
VERTEX
  8
OBJECT
 62
     7
 10
47.847619
 20
16.36447
 30
0.0
  0
VERTEX
  8
OBJECT
 62
     7
 10
47.847619
 20
15.92747
 30
0.0
  0
VERTEX
  8
OBJECT
 62
     7
 10
47.237619
 20
15.92747
 30
0.0
  0
VERTEX
  8
OBJECT
 62
     7
 10
47.237619
 20
15.97747
 30
0.0
  0
SEQEND
  8
OBJECT
 62
     7
  0
LINE
  8
HIDDEN
 62
     7
 10
44.189889
 20
25.311645
 30
0.0
 11
47.69137
 21
24.373426
 31
0.0
  0
POLYLINE
  8
OBJECT
 62
     7
 66
     1
 10
0.0
 20
0.0
 30
0.0
 70
     1
  0
VERTEX
  8
OBJECT
 62
     7
 10
44.20283
 20
25.359942
 30
0.0
  0
VERTEX
  8
OBJECT
 62
     7
 10
47.704311
 20
24.421723
 30
0.0
  0
VERTEX
  8
OBJECT
 62
     7
 10
47.546431
 20
23.832508
 30
0.0
  0
VERTEX
  8
OBJECT
 62
     7
 10
44.04495
 20
24.770727
 30
0.0
  0
SEQEND
  8
OBJECT
 62
     7
  0
POLYLINE
  8
DIM
 62
     7
 66
     1
 10
0.0
 20
0.0
 30
0.0
  0
VERTEX
  8
DIM
 62
     7
 10
43.943016
 20
25.451606
 30
0.0
  0
VERTEX
  8
DIM
 62
     7
 10
43.953629
 20
25.491217
 30
0.0
  0
VERTEX
  8
DIM
 62
     7
 10
43.993241
 20
25.480603
 30
0.0
  0
SEQEND
  8
DIM
 62
     7
  0
POLYLINE
  8
OBJECT
 62
     7
 66
     1
 10
0.0
 20
0.0
 30
0.0
 70
     1
  0
VERTEX
  8
OBJECT
 62
     7
 10
44.421936
 20
24.995365
 30
0.0
  0
VERTEX
  8
OBJECT
 62
     7
 10
44.514529
 20
25.340925
 30
0.0
  0
VERTEX
  8
OBJECT
 62
     7
 10
44.465739
 20
25.353998
 30
0.0
 42
-0.866025
  0
VERTEX
  8
OBJECT
 62
     7
 10
44.696617
 20
25.292134
 30
0.0
  0
VERTEX
  8
OBJECT
 62
     7
 10
44.647827
 20
25.305208
 30
0.0
  0
VERTEX
  8
OBJECT
 62
     7
 10
44.555234
 20
24.959648
 30
0.0
  0
VERTEX
  8
OBJECT
 62
     7
 10
44.534107
 20
24.94745
 30
0.0
  0
VERTEX
  8
OBJECT
 62
     7
 10
44.434134
 20
24.974238
 30
0.0
  0
SEQEND
  8
OBJECT
 62
     7
  0
POLYLINE
  8
OBJECT
 62
     7
 66
     1
 10
0.0
 20
0.0
 30
0.0
 70
     1
  0
VERTEX
  8
OBJECT
 62
     7
 10
47.539869
 20
23.74673
 30
0.0
  0
VERTEX
  8
OBJECT
 62
     7
 10
47.897619
 20
23.74673
 30
0.0
  0
VERTEX
  8
OBJECT
 62
     7
 10
47.897619
 20
23.797241
 30
0.0
 42
-0.866025
  0
VERTEX
  8
OBJECT
 62
     7
 10
47.897619
 20
23.558218
 30
0.0
  0
VERTEX
  8
OBJECT
 62
     7
 10
47.897619
 20
23.60873
 30
0.0
  0
VERTEX
  8
OBJECT
 62
     7
 10
47.539869
 20
23.60873
 30
0.0
  0
VERTEX
  8
OBJECT
 62
     7
 10
47.522619
 20
23.62598
 30
0.0
  0
VERTEX
  8
OBJECT
 62
     7
 10
47.522619
 20
23.72948
 30
0.0
  0
SEQEND
  8
OBJECT
 62
     7
  0
POLYLINE
  8
OBJECT
 62
     7
 66
     1
 10
0.0
 20
0.0
 30
0.0
 70
     1
  0
VERTEX
  8
OBJECT
 62
     7
 10
47.198973
 20
24.25126
 30
0.0
  0
VERTEX
  8
OBJECT
 62
     7
 10
47.291566
 20
24.59682
 30
0.0
  0
VERTEX
  8
OBJECT
 62
     7
 10
47.242775
 20
24.609893
 30
0.0
 42
-0.866025
  0
VERTEX
  8
OBJECT
 62
     7
 10
47.473654
 20
24.54803
 30
0.0
  0
VERTEX
  8
OBJECT
 62
     7
 10
47.424863
 20
24.561103
 30
0.0
  0
VERTEX
  8
OBJECT
 62
     7
 10
47.332271
 20
24.215543
 30
0.0
  0
VERTEX
  8
OBJECT
 62
     7
 10
47.311144
 20
24.203345
 30
0.0
  0
VERTEX
  8
OBJECT
 62
     7
 10
47.211171
 20
24.230133
 30
0.0
  0
SEQEND
  8
OBJECT
 62
     7
  0
LINE
  8
CENTER
 62
     7
 10
48.121809
 20
24.632861
 30
0.0
 11
48.159619
 21
24.622729
 31
0.0
  0
LINE
  8
CENTER
 62
     7
 10
48.159619
 20
24.583586
 30
0.0
 11
48.159619
 21
24.622729
 31
0.0
  0
POLYLINE
  8
DIM
 62
     7
 66
     1
 10
0.0
 20
0.0
 30
0.0
  0
VERTEX
  8
DIM
 62
     7
 10
47.894351
 20
24.435304
 30
0.0
  0
VERTEX
  8
DIM
 62
     7
 10
47.922619
 20
24.42773
 30
0.0
  0
VERTEX
  8
DIM
 62
     7
 10
47.922619
 20
24.398465
 30
0.0
  0
SEQEND
  8
DIM
 62
     7
  0
LINE
  8
CENTER
 62
     7
 10
43.800619
 20
25.79072
 30
0.0
 11
43.787517
 21
25.741826
 31
0.0
  0
LINE
  8
CENTER
 62
     7
 10
43.800619
 20
25.79072
 30
0.0
 11
43.849513
 21
25.777619
 31
0.0
  0
POLYLINE
  8
HIDDEN
 62
     7
 66
     1
 10
0.0
 20
0.0
 30
0.0
 70
     1
  0
VERTEX
  8
HIDDEN
 62
     7
 10
12.784592
 20
16.021541
 30
0.0
 42
-0.339454
  0
VERTEX
  8
HIDDEN
 62
     7
 10
12.739193
 20
15.986705
 30
0.0
  0
VERTEX
  8
HIDDEN
 62
     7
 10
12.376624
 20
15.986705
 30
0.0
  0
VERTEX
  8
HIDDEN
 62
     7
 10
12.376624
 20
15.936705
 30
0.0
  0
VERTEX
  8
HIDDEN
 62
     7
 10
12.739193
 20
15.936705
 30
0.0
 42
0.339454
  0
VERTEX
  8
HIDDEN
 62
     7
 10
12.832888
 20
16.0086
 30
0.0
  0
VERTEX
  8
HIDDEN
 62
     7
 10
13.483965
 20
18.438453
 30
0.0
 42
0.414214
  0
VERTEX
  8
HIDDEN
 62
     7
 10
13.415376
 20
18.557253
 30
0.0
  0
VERTEX
  8
HIDDEN
 62
     7
 10
8.770239
 20
19.801914
 30
0.0
  0
VERTEX
  8
HIDDEN
 62
     7
 10
7.2709
 20
25.397522
 30
0.0
 42
0.414214
  0
VERTEX
  8
HIDDEN
 62
     7
 10
7.1521
 20
25.466112
 30
0.0
  0
VERTEX
  8
HIDDEN
 62
     7
 10
3.3487
 20
24.446994
 30
0.0
 42
0.339454
  0
VERTEX
  8
HIDDEN
 62
     7
 10
3.276805
 20
24.353299
 30
0.0
  0
VERTEX
  8
HIDDEN
 62
     7
 10
3.276805
 20
23.92773
 30
0.0
  0
VERTEX
  8
HIDDEN
 62
     7
 10
3.351805
 20
23.92773
 30
0.0
  0
VERTEX
  8
HIDDEN
 62
     7
 10
3.351805
 20
23.52173
 30
0.0
  0
VERTEX
  8
HIDDEN
 62
     7
 10
3.401805
 20
23.52173
 30
0.0
  0
VERTEX
  8
HIDDEN
 62
     7
 10
3.401805
 20
23.99073
 30
0.0
  0
VERTEX
  8
HIDDEN
 62
     7
 10
3.326805
 20
23.99073
 30
0.0
  0
VERTEX
  8
HIDDEN
 62
     7
 10
3.326805
 20
24.353299
 30
0.0
 42
-0.339454
  0
VERTEX
  8
HIDDEN
 62
     7
 10
3.361641
 20
24.398698
 30
0.0
  0
VERTEX
  8
HIDDEN
 62
     7
 10
7.165041
 20
25.417816
 30
0.0
 42
-0.414214
  0
VERTEX
  8
HIDDEN
 62
     7
 10
7.222604
 20
25.384582
 30
0.0
  0
VERTEX
  8
HIDDEN
 62
     7
 10
8.714919
 20
19.815184
 30
0.0
 42
0.267949
  0
VERTEX
  8
HIDDEN
 62
     7
 10
8.783509
 20
19.746595
 30
0.0
  0
VERTEX
  8
HIDDEN
 62
     7
 10
13.402435
 20
18.508957
 30
0.0
 42
-0.414214
  0
VERTEX
  8
HIDDEN
 62
     7
 10
13.435669
 20
18.451394
 30
0.0
  0
SEQEND
  8
HIDDEN
 62
     7
  0
POLYLINE
  8
HIDDEN
 62
     7
 66
     1
 10
0.0
 20
0.0
 30
0.0
 70
     1
  0
VERTEX
  8
HIDDEN
 62
     7
 10
3.301805
 20
15.95747
 30
0.0
  0
VERTEX
  8
HIDDEN
 62
     7
 10
3.351805
 20
15.95747
 30
0.0
  0
VERTEX
  8
HIDDEN
 62
     7
 10
3.351805
 20
16.70747
 30
0.0
 42
0.236068
  0
VERTEX
  8
HIDDEN
 62
     7
 10
3.539305
 20
17.08247
 30
0.0
  0
VERTEX
  8
HIDDEN
 62
     7
 10
3.351805
 20
17.08247
 30
0.0
  0
VERTEX
  8
HIDDEN
 62
     7
 10
3.351805
 20
17.48847
 30
0.0
 42
0.236068
  0
VERTEX
  8
HIDDEN
 62
     7
 10
3.539305
 20
17.86347
 30
0.0
  0
VERTEX
  8
HIDDEN
 62
     7
 10
3.351805
 20
17.86347
 30
0.0
  0
VERTEX
  8
HIDDEN
 62
     7
 10
3.351805
 20
18.26947
 30
0.0
 42
0.236068
  0
VERTEX
  8
HIDDEN
 62
     7
 10
3.539305
 20
18.64447
 30
0.0
  0
VERTEX
  8
HIDDEN
 62
     7
 10
3.351805
 20
18.64447
 30
0.0
  0
VERTEX
  8
HIDDEN
 62
     7
 10
3.351805
 20
21.19247
 30
0.0
 42
0.236068
  0
VERTEX
  8
HIDDEN
 62
     7
 10
3.539305
 20
21.56747
 30
0.0
  0
VERTEX
  8
HIDDEN
 62
     7
 10
3.351805
 20
21.56747
 30
0.0
  0
VERTEX
  8
HIDDEN
 62
     7
 10
3.351805
 20
21.97347
 30
0.0
 42
0.236068
  0
VERTEX
  8
HIDDEN
 62
     7
 10
3.539305
 20
22.34847
 30
0.0
  0
VERTEX
  8
HIDDEN
 62
     7
 10
3.351805
 20
22.34847
 30
0.0
  0
VERTEX
  8
HIDDEN
 62
     7
 10
3.351805
 20
22.75447
 30
0.0
 42
0.236068
  0
VERTEX
  8
HIDDEN
 62
     7
 10
3.539305
 20
23.12947
 30
0.0
  0
VERTEX
  8
HIDDEN
 62
     7
 10
3.351805
 20
23.12947
 30
0.0
  0
VERTEX
  8
HIDDEN
 62
     7
 10
3.351805
 20
23.87947
 30
0.0
  0
VERTEX
  8
HIDDEN
 62
     7
 10
3.301805
 20
23.87947
 30
0.0
  0
SEQEND
  8
HIDDEN
 62
     7
  0
POLYLINE
  8
OBJECT
 62
     7
 66
     1
 10
0.0
 20
0.0
 30
0.0
 70
     1
  0
VERTEX
  8
OBJECT
 62
     7
 10
3.039805
 20
24.526814
 30
0.0
 42
-0.339454
  0
VERTEX
  8
OBJECT
 62
     7
 10
3.132453
 20
24.647554
 30
0.0
  0
VERTEX
  8
OBJECT
 62
     7
 10
7.278065
 20
25.758368
 30
0.0
 42
-0.414214
  0
VERTEX
  8
OBJECT
 62
     7
 10
7.431158
 20
25.669979
 30
0.0
  0
VERTEX
  8
OBJECT
 62
     7
 10
8.959341
 20
19.96672
 30
0.0
  0
VERTEX
  8
OBJECT
 62
     7
 10
13.664142
 20
18.706072
 30
0.0
 42
-0.414214
  0
VERTEX
  8
OBJECT
 62
     7
 10
13.752531
 20
18.552979
 30
0.0
  0
VERTEX
  8
OBJECT
 62
     7
 10
13.039805
 20
15.893052
 30
0.0
  0
VERTEX
  8
OBJECT
 62
     7
 10
13.039805
 20
15.83747
 30
0.0
  0
VERTEX
  8
OBJECT
 62
     7
 10
3.039805
 20
15.83747
 30
0.0
  0
SEQEND
  8
OBJECT
 62
     7
  0
LINE
  8
HIDDEN
 62
     7
 10
13.039805
 20
15.92747
 30
0.0
 11
3.039805
 21
15.92747
 31
0.0
  0
POLYLINE
  8
DIM
 62
     7
 66
     1
 10
0.0
 20
0.0
 30
0.0
  0
VERTEX
  8
DIM
 62
     7
 10
12.78436
 20
15.936705
 30
0.0
  0
VERTEX
  8
DIM
 62
     7
 10
12.813624
 20
15.936705
 30
0.0
  0
VERTEX
  8
DIM
 62
     7
 10
12.821198
 20
15.964972
 30
0.0
  0
SEQEND
  8
DIM
 62
     7
  0
POLYLINE
  8
HIDDEN
  6
HIDDEN2
 62
     7
 66
     1
 10
0.0
 20
0.0
 30
0.0
 70
     1
  0
VERTEX
  8
HIDDEN
  6
HIDDEN2
 62
     7
 10
12.622555
 20
16.21247
 30
0.0
  0
VERTEX
  8
HIDDEN
  6
HIDDEN2
 62
     7
 10
12.639805
 20
16.19522
 30
0.0
  0
VERTEX
  8
HIDDEN
  6
HIDDEN2
 62
     7
 10
12.639805
 20
15.90647
 30
0.0
  0
VERTEX
  8
HIDDEN
  6
HIDDEN2
 62
     7
 10
12.697703
 20
15.83747
 30
0.0
  0
VERTEX
  8
HIDDEN
  6
HIDDEN2
 62
     7
 10
12.443907
 20
15.83747
 30
0.0
  0
VERTEX
  8
HIDDEN
  6
HIDDEN2
 62
     7
 10
12.501805
 20
15.90647
 30
0.0
  0
VERTEX
  8
HIDDEN
  6
HIDDEN2
 62
     7
 10
12.501805
 20
16.19522
 30
0.0
  0
VERTEX
  8
HIDDEN
  6
HIDDEN2
 62
     7
 10
12.519055
 20
16.21247
 30
0.0
  0
SEQEND
  8
HIDDEN
  6
HIDDEN2
 62
     7
  0
LINE
  8
CENTER
 62
     7
 10
13.740659
 20
18.68557
 30
0.0
 11
13.784883
 21
18.67372
 31
0.0
  0
LINE
  8
CENTER
 62
     7
 10
13.784883
 20
18.67372
 30
0.0
 11
13.773033
 21
18.629496
 31
0.0
  0
POLYLINE
  8
DIM
 62
     7
 66
     1
 10
0.0
 20
0.0
 30
0.0
  0
VERTEX
  8
DIM
 62
     7
 10
13.498457
 20
18.492536
 30
0.0
  0
VERTEX
  8
DIM
 62
     7
 10
13.509071
 20
18.532148
 30
0.0
  0
VERTEX
  8
DIM
 62
     7
 10
13.469459
 20
18.542762
 30
0.0
  0
SEQEND
  8
DIM
 62
     7
  0
POLYLINE
  8
HIDDEN
 62
     7
 66
     1
 10
0.0
 20
0.0
 30
0.0
 70
     1
  0
VERTEX
  8
HIDDEN
 62
     7
 10
3.401805
 20
15.97747
 30
0.0
  0
VERTEX
  8
HIDDEN
 62
     7
 10
3.401805
 20
16.36447
 30
0.0
  0
VERTEX
  8
HIDDEN
 62
     7
 10
3.351805
 20
16.36447
 30
0.0
  0
VERTEX
  8
HIDDEN
 62
     7
 10
3.351805
 20
15.92747
 30
0.0
  0
VERTEX
  8
HIDDEN
 62
     7
 10
3.961805
 20
15.92747
 30
0.0
  0
VERTEX
  8
HIDDEN
 62
     7
 10
3.961805
 20
15.97747
 30
0.0
  0
SEQEND
  8
HIDDEN
 62
     7
  0
POLYLINE
  8
HIDDEN
 62
     7
 66
     1
 10
0.0
 20
0.0
 30
0.0
  0
VERTEX
  8
HIDDEN
 62
     7
 10
3.351805
 20
16.76997
 30
0.0
  0
VERTEX
  8
HIDDEN
 62
     7
 10
3.401805
 20
16.76997
 30
0.0
  0
VERTEX
  8
HIDDEN
 62
     7
 10
3.401805
 20
17.64497
 30
0.0
  0
VERTEX
  8
HIDDEN
 62
     7
 10
3.351805
 20
17.64497
 30
0.0
  0
SEQEND
  8
HIDDEN
 62
     7
  0
POLYLINE
  8
HIDDEN
  6
HIDDEN2
 62
     7
 66
     1
 10
0.0
 20
0.0
 30
0.0
 70
     1
  0
VERTEX
  8
HIDDEN
  6
HIDDEN2
 62
     7
 10
3.659555
 20
16.24547
 30
0.0
  0
VERTEX
  8
HIDDEN
  6
HIDDEN2
 62
     7
 10
3.301805
 20
16.24547
 30
0.0
  0
VERTEX
  8
HIDDEN
  6
HIDDEN2
 62
     7
 10
3.301805
 20
16.295982
 30
0.0
 42
0.866025
  0
VERTEX
  8
HIDDEN
  6
HIDDEN2
 62
     7
 10
3.301805
 20
16.056958
 30
0.0
  0
VERTEX
  8
HIDDEN
  6
HIDDEN2
 62
     7
 10
3.301805
 20
16.10747
 30
0.0
  0
VERTEX
  8
HIDDEN
  6
HIDDEN2
 62
     7
 10
3.659555
 20
16.10747
 30
0.0
  0
VERTEX
  8
HIDDEN
  6
HIDDEN2
 62
     7
 10
3.676805
 20
16.12472
 30
0.0
  0
VERTEX
  8
HIDDEN
  6
HIDDEN2
 62
     7
 10
3.676805
 20
16.22822
 30
0.0
  0
SEQEND
  8
HIDDEN
  6
HIDDEN2
 62
     7
  0
POLYLINE
  8
HIDDEN
 62
     7
 66
     1
 10
0.0
 20
0.0
 30
0.0
 70
     1
  0
VERTEX
  8
HIDDEN
 62
     7
 10
6.996594
 20
25.359942
 30
0.0
  0
VERTEX
  8
HIDDEN
 62
     7
 10
3.495113
 20
24.421723
 30
0.0
  0
VERTEX
  8
HIDDEN
 62
     7
 10
3.652992
 20
23.832508
 30
0.0
  0
VERTEX
  8
HIDDEN
 62
     7
 10
7.154474
 20
24.770727
 30
0.0
  0
SEQEND
  8
HIDDEN
 62
     7
  0
LINE
  8
HIDDEN
 62
     7
 10
7.009535
 20
25.311645
 30
0.0
 11
3.508054
 21
24.373426
 31
0.0
  0
POLYLINE
  8
DIM
 62
     7
 66
     1
 10
0.0
 20
0.0
 30
0.0
  0
VERTEX
  8
DIM
 62
     7
 10
7.256408
 20
25.451606
 30
0.0
  0
VERTEX
  8
DIM
 62
     7
 10
7.245794
 20
25.491217
 30
0.0
  0
VERTEX
  8
DIM
 62
     7
 10
7.206183
 20
25.480603
 30
0.0
  0
SEQEND
  8
DIM
 62
     7
  0
LINE
  8
CENTER
 62
     7
 10
7.398805
 20
25.79072
 30
0.0
 11
7.349911
 21
25.777619
 31
0.0
  0
LINE
  8
CENTER
 62
     7
 10
7.398805
 20
25.79072
 30
0.0
 11
7.411906
 21
25.741826
 31
0.0
  0
POLYLINE
  8
HIDDEN
  6
HIDDEN2
 62
     7
 66
     1
 10
0.0
 20
0.0
 30
0.0
 70
     1
  0
VERTEX
  8
HIDDEN
  6
HIDDEN2
 62
     7
 10
6.777487
 20
24.995365
 30
0.0
  0
VERTEX
  8
HIDDEN
  6
HIDDEN2
 62
     7
 10
6.684895
 20
25.340925
 30
0.0
  0
VERTEX
  8
HIDDEN
  6
HIDDEN2
 62
     7
 10
6.733685
 20
25.353998
 30
0.0
 42
0.866025
  0
VERTEX
  8
HIDDEN
  6
HIDDEN2
 62
     7
 10
6.502807
 20
25.292134
 30
0.0
  0
VERTEX
  8
HIDDEN
  6
HIDDEN2
 62
     7
 10
6.551597
 20
25.305208
 30
0.0
  0
VERTEX
  8
HIDDEN
  6
HIDDEN2
 62
     7
 10
6.64419
 20
24.959648
 30
0.0
  0
VERTEX
  8
HIDDEN
  6
HIDDEN2
 62
     7
 10
6.665317
 20
24.94745
 30
0.0
  0
VERTEX
  8
HIDDEN
  6
HIDDEN2
 62
     7
 10
6.76529
 20
24.974238
 30
0.0
  0
SEQEND
  8
HIDDEN
  6
HIDDEN2
 62
     7
  0
POLYLINE
  8
DIM
 62
     7
 66
     1
 10
0.0
 20
0.0
 30
0.0
  0
VERTEX
  8
DIM
 62
     7
 10
3.305072
 20
24.435304
 30
0.0
  0
VERTEX
  8
DIM
 62
     7
 10
3.276805
 20
24.42773
 30
0.0
  0
VERTEX
  8
DIM
 62
     7
 10
3.276805
 20
24.398465
 30
0.0
  0
SEQEND
  8
DIM
 62
     7
  0
LINE
  8
CENTER
 62
     7
 10
3.039805
 20
24.583586
 30
0.0
 11
3.039805
 21
24.622729
 31
0.0
  0
LINE
  8
CENTER
 62
     7
 10
3.077615
 20
24.632861
 30
0.0
 11
3.039805
 21
24.622729
 31
0.0
  0
POLYLINE
  8
HIDDEN
  6
HIDDEN2
 62
     7
 66
     1
 10
0.0
 20
0.0
 30
0.0
 70
     1
  0
VERTEX
  8
HIDDEN
  6
HIDDEN2
 62
     7
 10
4.000451
 20
24.25126
 30
0.0
  0
VERTEX
  8
HIDDEN
  6
HIDDEN2
 62
     7
 10
3.907858
 20
24.59682
 30
0.0
  0
VERTEX
  8
HIDDEN
  6
HIDDEN2
 62
     7
 10
3.956649
 20
24.609893
 30
0.0
 42
0.866025
  0
VERTEX
  8
HIDDEN
  6
HIDDEN2
 62
     7
 10
3.72577
 20
24.54803
 30
0.0
  0
VERTEX
  8
HIDDEN
  6
HIDDEN2
 62
     7
 10
3.77456
 20
24.561103
 30
0.0
  0
VERTEX
  8
HIDDEN
  6
HIDDEN2
 62
     7
 10
3.867153
 20
24.215543
 30
0.0
  0
VERTEX
  8
HIDDEN
  6
HIDDEN2
 62
     7
 10
3.88828
 20
24.203345
 30
0.0
  0
VERTEX
  8
HIDDEN
  6
HIDDEN2
 62
     7
 10
3.988253
 20
24.230133
 30
0.0
  0
SEQEND
  8
HIDDEN
  6
HIDDEN2
 62
     7
  0
POLYLINE
  8
HIDDEN
  6
HIDDEN2
 62
     7
 66
     1
 10
0.0
 20
0.0
 30
0.0
 70
     1
  0
VERTEX
  8
HIDDEN
  6
HIDDEN2
 62
     7
 10
3.659555
 20
23.74673
 30
0.0
  0
VERTEX
  8
HIDDEN
  6
HIDDEN2
 62
     7
 10
3.301805
 20
23.74673
 30
0.0
  0
VERTEX
  8
HIDDEN
  6
HIDDEN2
 62
     7
 10
3.301805
 20
23.797241
 30
0.0
 42
0.866025
  0
VERTEX
  8
HIDDEN
  6
HIDDEN2
 62
     7
 10
3.301805
 20
23.558218
 30
0.0
  0
VERTEX
  8
HIDDEN
  6
HIDDEN2
 62
     7
 10
3.301805
 20
23.60873
 30
0.0
  0
VERTEX
  8
HIDDEN
  6
HIDDEN2
 62
     7
 10
3.659555
 20
23.60873
 30
0.0
  0
VERTEX
  8
HIDDEN
  6
HIDDEN2
 62
     7
 10
3.676805
 20
23.62598
 30
0.0
  0
VERTEX
  8
HIDDEN
  6
HIDDEN2
 62
     7
 10
3.676805
 20
23.72948
 30
0.0
  0
SEQEND
  8
HIDDEN
  6
HIDDEN2
 62
     7
  0
POLYLINE
  8
HIDDEN
 62
     7
 66
     1
 10
0.0
 20
0.0
 30
0.0
  0
VERTEX
  8
HIDDEN
 62
     7
 10
16.4866
 20
11.884495
 30
0.0
  0
VERTEX
  8
HIDDEN
 62
     7
 10
16.4866
 20
2.246495
 30
0.0
  0
SEQEND
  8
HIDDEN
 62
     7
  0
POLYLINE
  8
HIDDEN
 62
     7
 66
     1
 10
0.0
 20
0.0
 30
0.0
  0
VERTEX
  8
HIDDEN
 62
     7
 10
16.4866
 20
2.246495
 30
0.0
  0
VERTEX
  8
HIDDEN
 62
     7
 10
30.2056
 20
2.246495
 30
0.0
  0
VERTEX
  8
HIDDEN
 62
     7
 10
30.2056
 20
11.884495
 30
0.0
  0
SEQEND
  8
HIDDEN
 62
     7
  0
POLYLINE
  8
OBJECT
 62
     7
 66
     1
 10
0.0
 20
0.0
 30
0.0
  0
VERTEX
  8
OBJECT
 62
     7
 10
30.2056
 20
12.009495
 30
0.0
  0
VERTEX
  8
OBJECT
 62
     7
 10
30.2056
 20
12.45696
 30
0.0
  0
VERTEX
  8
OBJECT
 62
     7
 10
16.4866
 20
12.45696
 30
0.0
  0
VERTEX
  8
OBJECT
 62
     7
 10
16.4866
 20
12.009495
 30
0.0
  0
SEQEND
  8
OBJECT
 62
     7
  0
TEXT
  8
TEXT
 62
     7
 10
21.463287
 20
31.172881
 30
0.0
 40
0.625
  1
%%uTOP VIEW
 41
0.75
  7
TXT
 72
     1
 11
23.3461
 21
31.172881
 31
0.0
  0
TEXT
  8
TEXT
 62
     7
 10
20.994537
 20
13.893445
 30
0.0
 40
0.625
  1
%%uFRONT VIEW
 41
0.75
  7
TXT
 72
     1
 11
23.3461
 21
13.893445
 31
0.0
  0
TEXT
  8
TEXT
 10
20.760162
 20
0.807824
 30
0.0
 40
0.625
  1
%%uBOTTOM VIEW
 41
0.75
  7
TXT
 72
     1
 11
23.3461
 21
0.807824
 31
0.0
  0
TEXT
  8
TEXT
 62
     7
 10
4.905021
 20
12.427388
 30
0.0
 40
0.625
  1
%%uLEFT SIDE VIEW
 41
0.75
  7
TXT
 72
     1
 11
8.115958
 21
12.427388
 31
0.0
  0
TEXT
  8
TEXT
 62
     7
 10
63.191864
 20
10.338008
 30
0.0
 40
0.625
  1
%%uREAR VIEW
 41
0.75
  7
TXT
 72
     1
 11
65.309051
 21
10.338008
 31
0.0
  0
TEXT
  8
TEXT
 62
     7
 10
40.781523
 20
11.021154
 30
0.0
 40
0.5
  1
%%uSECTION "A-A"
 41
0.8
  7
SECTION
 72
     1
 11
43.159619
 21
11.021154
 31
0.0
  0
DIMENSION
  8
DIM
 62
     7
  2
*D18
 10
37.535282
 20
18.706072
 30
0.0
 11
35.221878
 21
19.939654
 31
0.0
 12
-2.4579
 22
-3.797303
 32
0.0
 70
     2
 13
37.446893
 23
18.552979
 33
0.0
 14
38.159619
 24
15.893052
 34
0.0
 15
42.240083
 25
19.96672
 35
0.0
 16
35.044377
 26
19.564047
 36
0.0
  3
23NSTD
  0
DIMENSION
  8
DIM
 62
     7
  2
*D31
 10
42.240083
 20
19.96672
 30
0.0
 11
42.413765
 21
28.192821
 31
0.0
 12
-0.739661
 22
0.0
 32
0.0
 70
     2
 13
48.066971
 23
24.647554
 33
0.0
 14
43.921359
 24
25.758368
 34
0.0
 15
43.768266
 25
25.669979
 35
0.0
 16
42.501288
 26
28.241269
 36
0.0
  3
23NSTD
  0
DIMENSION
  8
DIM
 62
     7
  2
*D17
 10
42.240083
 20
19.96672
 30
0.0
 11
40.034364
 21
22.172438
 31
0.0
 12
-2.4579
 22
-3.797303
 32
0.0
 70
     2
 13
42.240083
 23
19.96672
 33
0.0
 14
37.535282
 24
18.706072
 34
0.0
 15
43.768266
 25
25.669979
 35
0.0
 16
39.578288
 26
21.593138
 36
0.0
  3
23NSTD
  0
DIMENSION
  8
DIM
 62
     7
  2
*D16
 10
48.159619
 20
15.83747
 30
0.0
 11
36.607658
 21
17.039759
 31
0.0
 12
-2.4579
 22
-3.797303
 32
0.0
 70
     2
 13
37.446893
 23
18.552979
 33
0.0
 14
38.159619
 24
15.893052
 34
0.0
 15
38.159619
 25
15.83747
 35
0.0
 16
36.382229
 26
16.66708
 36
0.0
  3
23NSTD
  0
DIMENSION
  8
DIM
 62
     7
  2
*D30
 10
48.159619
 20
24.526814
 30
0.0
 11
46.584349
 21
26.675661
 31
0.0
 12
-0.739661
 22
0.0
 32
0.0
 70
     2
 13
48.066971
 23
24.647554
 33
0.0
 14
43.921359
 24
25.758368
 34
0.0
 15
48.159619
 25
15.83747
 35
0.0
 16
46.604158
 26
26.690711
 36
0.0
  3
23NSTD
  0
DIMENSION
  8
DIM
 62
     7
  2
*D35
 10
36.09113
 20
27.856471
 30
0.0
 11
39.782004
 21
29.595138
 31
0.0
 12
-0.739661
 22
0.0
 32
0.0
 70
     1
  1
<> TYP.
 13
43.856733
 23
25.51718
 33
0.0
 14
43.921359
 24
25.758368
 34
0.0
  3
23NSTD
  0
DIMENSION
  8
DIM
 62
     7
  2
*D13
 10
58.347572
 20
13.695303
 30
0.0
 11
60.648562
 21
13.695303
 31
0.0
 12
-0.914053
 22
-3.797303
 32
0.0
 13
62.949551
 23
17.20747
 33
0.0
 14
58.347572
 24
15.97447
 34
0.0
  3
23NSTDI
  0
DIMENSION
  8
DIM
 62
     7
  2
*D14
 10
72.27053
 20
13.695303
 30
0.0
 11
69.969541
 21
13.695303
 31
0.0
 12
-0.914053
 22
-3.797303
 32
0.0
 13
67.668551
 23
17.20747
 33
0.0
 14
72.27053
 24
15.97447
 34
0.0
  3
23NSTDI
  0
DIMENSION
  8
DIM
 62
     7
  2
*D7
 10
30.217578
 20
27.290473
 30
0.0
 11
23.342578
 21
27.290473
 31
0.0
 12
-3.046157
 22
-3.797303
 32
0.0
 13
16.467578
 23
25.79047
 33
0.0
 14
30.217578
 24
25.79047
 34
0.0
  3
23NSTD
  0
DIMENSION
  8
DIM
 62
     7
  2
*D6
 10
30.307578
 20
28.414473
 30
0.0
 11
23.342578
 21
28.414473
 31
0.0
 12
-3.046157
 22
-3.797303
 32
0.0
 13
16.377578
 23
25.79047
 33
0.0
 14
30.307578
 24
25.79047
 34
0.0
  3
23NSTD
  0
DIMENSION
  8
DIM
 62
     7
  2
*D23
 10
73.636257
 20
15.95747
 30
0.0
 11
73.636257
 21
16.58247
 31
0.0
 12
-0.914053
 22
-3.797303
 32
0.0
 13
67.668551
 23
17.20747
 33
0.0
 14
72.168551
 24
15.95747
 34
0.0
 50
270.0
  3
23NSTDI
  0
DIMENSION
  8
DIM
  2
*D9
 10
7.003886
 20
27.26458
 30
0.0
 11
4.824386
 21
26.680585
 31
0.0
 12
-1.009341
 22
-3.797303
 32
0.0
 70
     1
 13
3.039805
 23
24.622729
 33
0.0
 14
7.398805
 24
25.79072
 34
0.0
  3
23NSTDI
  0
DIMENSION
  8
DIM
  2
*D5
 10
1.686094
 20
15.83747
 30
0.0
 11
1.686094
 21
20.2301
 31
0.0
 12
-1.009341
 22
-3.797303
 32
0.0
 13
3.039805
 23
24.622729
 33
0.0
 14
3.039805
 24
15.83747
 34
0.0
 50
90.0
  3
23NSTD
  0
DIMENSION
  8
DIM
 62
     7
  2
*D4
 10
13.039805
 20
15.077831
 30
0.0
 11
8.039805
 21
15.077831
 31
0.0
 12
-1.009341
 22
-3.797303
 32
0.0
 13
3.039805
 23
15.83747
 33
0.0
 14
13.039805
 24
15.83747
 34
0.0
  3
23NSTD
  0
DIMENSION
  8
DIM
 62
     7
  2
*D3
 10
13.784883
 20
13.953831
 30
0.0
 11
8.412344
 21
13.953831
 31
0.0
 12
-1.009341
 22
-3.797303
 32
0.0
 13
3.039805
 23
15.83747
 33
0.0
 14
13.784883
 24
18.67372
 34
0.0
  3
23NSTD
  0
DIMENSION
  8
DIM
 62
     7
  2
*D2
 10
10.603521
 20
20.407277
 30
0.0
 11
9.823253
 21
23.319277
 31
0.0
 12
-1.009341
 22
-3.797303
 32
0.0
 70
     1
 13
7.398805
 23
25.79072
 33
0.0
 14
8.959341
 24
19.96672
 34
0.0
  3
23NSTD
  0
DIMENSION
  8
DIM
 62
     7
  2
*D10
 10
14.330557
 20
20.710202
 30
0.0
 11
11.917786
 21
21.356702
 31
0.0
 12
-1.009341
 22
-3.797303
 32
0.0
 70
     1
 13
8.959341
 23
19.96672
 33
0.0
 14
13.784883
 24
18.67372
 34
0.0
  3
23NSTDI
  0
DIMENSION
  8
DIM
 62
     7
  2
*D24
 10
57.100057
 20
15.95747
 30
0.0
 11
54.890682
 21
14.15747
 31
0.0
 12
-0.914053
 22
-3.797303
 32
0.0
 13
59.824551
 23
16.70747
 33
0.0
 14
58.449551
 24
15.95747
 34
0.0
 50
270.0
  3
23NSTD
  0
DIMENSION
  8
DIM
 62
     7
  2
*D22
 10
64.669621
 20
23.12947
 30
0.0
 11
64.669621
 21
22.16097
 31
0.0
 12
-0.914053
 22
-3.797303
 32
0.0
  1
<> TYP.
 13
61.574551
 23
21.19247
 33
0.0
 14
61.949551
 24
23.12947
 34
0.0
 50
90.0
  3
23NSTDI
  0
DIMENSION
  8
DIM
 62
     7
  2
*D25
 10
75.041257
 20
23.87947
 30
0.0
 11
75.041257
 21
19.91847
 31
0.0
 12
-0.914053
 22
-3.797303
 32
0.0
 13
72.168551
 23
15.95747
 33
0.0
 14
72.168551
 24
23.87947
 34
0.0
 50
90.0
  3
23NSTD
  0
DIMENSION
  8
DIM
 62
     7
  2
*D12
 10
73.13656
 20
23.87947
 30
0.0
 11
75.345935
 21
25.67947
 31
0.0
 12
-0.914053
 22
-3.797303
 32
0.0
 13
71.168551
 23
23.12947
 33
0.0
 14
72.168551
 24
23.87947
 34
0.0
 50
90.0
  3
23NSTD
  0
DIMENSION
  8
DIM
 62
     7
  2
*D36
 10
68.668551
 20
26.553289
 30
0.0
 11
64.543551
 21
26.553289
 31
0.0
  1
<> TYP.
 13
71.168551
 23
23.12947
 33
0.0
 14
68.668551
 24
23.12947
 34
0.0
  3
23NSTD
  0
INSERT
  8
TITLE
  2
HBS
 10
0.0
 20
0.0
 30
0.0
 41
5.0
 42
5.0
 43
5.0
  0
TEXT
  8
TEXT
 62
     7
 10
35.082284
 20
8.456504
 30
0.0
 40
0.625
  1
%%uMATERIAL:
 41
0.75
  7
TXT
  0
TEXT
  8
TEXT
 62
     7
 10
35.922609
 20
7.414837
 30
0.0
 40
0.625
  1
BASE
 41
0.75
  7
TXT
  0
TEXT
  8
TEXT
 62
     7
 10
35.922609
 20
6.373171
 30
0.0
 40
0.625
  1
COVER & BACK PANEL
 41
0.75
  7
TXT
  0
TEXT
  8
TEXT
 62
     7
 10
46.283015
 20
7.41349
 30
0.0
 40
0.625
  1
0.090 THK. ALUMINUM
 41
0.75
  7
TXT
  0
TEXT
  8
TEXT
 62
     7
 10
46.283015
 20
6.371824
 30
0.0
 40
0.625
  1
0.050 THK. ALUMINUM
 41
0.75
  7
TXT
  0
LINE
  8
TEXT
 62
     7
 10
37.921621
 20
7.41349
 30
0.0
 11
45.872208
 21
7.41349
 31
0.0
  0
LINE
  8
TEXT
 62
     7
 10
44.757623
 20
6.383771
 30
0.0
 11
45.872208
 21
6.383771
 31
0.0
  0
TEXT
  8
TEXT
 62
     7
 10
35.192242
 20
3.213319
 30
0.0
 40
0.625
  1
ASSEMBLED WITH TEN (10) #6-32 x 3/8 LG. SCREWS.
 41
0.75
  7
TXT
  0
TEXT
  8
TEXT
 62
     7
 10
35.192242
 20
1.203913
 30
0.0
 40
0.625
  1
SUPPLIED WITH FOUR (4) SELF-ADHESIVE FEET.
 41
0.75
  7
TXT
  0
TEXT
  8
TEXT
 62
     7
 10
68.612449
 20
5.378303
 30
0.0
 40
0.625
  1
BLACK
 41
0.75
  7
TXT
  0
TEXT
  8
TEXT
 62
     7
 10
68.612449
 20
7.431845
 30
0.0
 40
0.625
  1
BLACK TEXTURED
 41
0.75
  7
TXT
  0
TEXT
  8
TEXT
 62
     7
 10
68.612449
 20
6.390178
 30
0.0
 40
0.625
  1
WHITE (PREPAINTED)
 41
0.75
  7
TXT
  0
TEXT
  8
TEXT
 62
     7
 10
57.507982
 20
8.474858
 30
0.0
 40
0.625
  1
%%uFINISH:
 41
0.75
  7
TXT
  0
LINE
  8
TEXT
 62
     7
 10
60.347318
 20
7.41349
 30
0.0
 11
68.201642
 21
7.41349
 31
0.0
  0
LINE
  8
TEXT
 62
     7
 10
60.329134
 20
5.404085
 30
0.0
 11
68.201642
 21
5.404085
 31
0.0
  0
LINE
  8
TEXT
 62
     7
 10
67.115599
 20
6.356673
 30
0.0
 11
68.201642
 21
6.356673
 31
0.0
  0
TEXT
  8
TEXT
 62
     7
 10
58.348307
 20
7.433192
 30
0.0
 40
0.625
  1
BASE
 41
0.75
  7
TXT
  0
TEXT
  8
TEXT
 62
     7
 10
58.348307
 20
5.37965
 30
0.0
 40
0.625
  1
FEET
 41
0.75
  7
TXT
  0
TEXT
  8
TEXT
 62
     7
 10
58.348307
 20
6.391525
 30
0.0
 40
0.625
  1
COVER & BACK PANEL
 41
0.75
  7
TXT
  0
TEXT
  8
TEXT
 10
19.236406
 20
48.854375
 30
0.0
 40
0.78125
  1
COMPUCAB
 41
0.75
  7
TXT
 72
     4
 11
21.4825
 21
49.245
 31
0.0
  0
TEXT
  8
TEXT
 10
58.018203
 20
48.854375
 30
0.0
 40
0.78125
  1
SC-13101
 41
0.75
  7
TXT
 72
     4
 11
59.9225
 21
49.245
 31
0.0
  0
POLYLINE
  8
BEND
 62
     7
 66
     1
 10
0.0
 20
0.0
 30
0.0
 41
0.313422
  0
VERTEX
  8
BEND
 62
     7
 10
25.455245
 20
15.147166
 30
0.0
  0
VERTEX
  8
BEND
 62
     7
 10
26.082088
 20
15.147166
 30
0.0
 41
0.0
  0
VERTEX
  8
BEND
 62
     7
 10
26.958683
 20
15.147166
 30
0.0
 41
0.0
  0
VERTEX
  8
BEND
 62
     7
 10
26.958683
 20
26.247398
 30
0.0
 41
0.0
  0
VERTEX
  8
BEND
 62
     7
 10
26.082088
 20
26.247398
 30
0.0
 40
0.313422
 41
0.0
  0
VERTEX
  8
BEND
 62
     7
 10
25.455245
 20
26.247398
 30
0.0
 41
0.0
  0
SEQEND
  8
BEND
 62
     7
  0
INSERT
  8
TEXT
 62
     7
 66
     1
  2
SECTION
 10
27.433595
 20
15.147166
 30
0.0
 41
1.671582
 42
1.671582
 50
90.0
 43
1.671582
  0
ATTRIB
  8
0
 10
27.205023
 20
14.847166
 30
0.0
 40
0.6
  1
A
  2
SECTION
 70
     0
 41
0.8
  7
SECTION
 72
     4
 11
27.433595
 21
15.147166
 31
0.0
  0
SEQEND
  8
TEXT
 62
     7
  0
INSERT
  8
TEXT
 62
     7
 66
     1
  2
SECTION
 10
27.433595
 20
26.247398
 30
0.0
 41
1.671582
 42
1.671582
 50
90.0
 43
1.671582
  0
ATTRIB
  8
0
 10
27.205023
 20
25.947398
 30
0.0
 40
0.6
  1
A
  2
SECTION
 70
     0
 41
0.8
  7
SECTION
 72
     4
 11
27.433595
 21
26.247398
 31
0.0
  0
SEQEND
  8
TEXT
 62
     7
  0
DIMENSION
  8
DIM
 62
     7
  2
*D27
 10
52.679535
 20
15.936705
 30
0.0
 11
52.679535
 21
19.951461
 31
0.0
 12
-2.4579
 22
-3.797303
 32
0.0
 70
   128
 13
43.953629
 23
25.491217
 33
0.0
 14
38.8228
 24
15.936705
 34
0.0
 50
270.0
  3
23NSTD
  0
DIMENSION
  8
DIM
 62
     7
  2
*D28
 10
51.274535
 20
15.936705
 30
0.0
 11
51.274535
 21
21.184946
 31
0.0
 12
-2.4579
 22
-3.797303
 32
0.0
 70
   128
 13
47.922619
 23
24.42773
 33
0.0
 14
38.8228
 24
15.936705
 34
0.0
 50
270.0
  3
23NSTD
  0
DIMENSION
  8
DIM
 62
     7
  2
*D32
 10
44.898399
 20
29.017145
 30
0.0
 11
46.882893
 21
28.485401
 31
0.0
 12
-0.739661
 22
0.0
 32
0.0
 70
     1
 13
47.922619
 23
24.42773
 33
0.0
 14
43.953629
 24
25.491217
 34
0.0
  3
23NSTDI
  0
DIMENSION
  8
DIM
 62
     7
  2
*D11
 10
49.869535
 20
23.52173
 30
0.0
 11
49.869535
 21
23.97473
 31
0.0
 12
-6.284302
 22
-38.177398
 32
0.0
 13
47.922619
 23
24.42773
 33
0.0
 14
47.847619
 24
23.52173
 34
0.0
 50
270.0
  3
23NSTDI
  0
DIMENSION
  8
DIM
 62
     7
  2
*D21
 10
38.3858
 20
12.25747
 30
0.0
 11
43.154209
 21
12.25747
 31
0.0
 12
-2.4579
 22
-3.797303
 32
0.0
 13
47.922619
 23
23.92773
 33
0.0
 14
38.3858
 24
15.936705
 34
0.0
  3
23NSTD
  0
DIMENSION
  8
DIM
 62
     7
  2
*D20
 10
38.8228
 20
13.66247
 30
0.0
 11
41.971237
 21
13.66247
 31
0.0
 12
-2.4579
 22
-3.797303
 32
0.0
 13
38.3858
 23
15.936705
 33
0.0
 14
38.8228
 24
15.936705
 34
0.0
  3
23NSTD
  0
DIMENSION
  8
DIM
 62
     7
  2
*D15
 10
34.459491
 20
14.884654
 30
0.0
 11
34.111767
 21
16.182375
 31
0.0
 12
-2.4579
 22
-3.797303
 32
0.0
 70
     1
 13
37.690353
 23
18.532148
 33
0.0
 14
38.3858
 24
15.936705
 34
0.0
  3
23NSTDI
  0
DIMENSION
  8
DIM
 62
     7
  2
*D34
 10
36.026504
 20
27.615284
 30
0.0
 11
35.264282
 21
24.770633
 31
0.0
 12
-0.739661
 22
0.0
 32
0.0
 70
     1
 13
42.429185
 23
19.801914
 33
0.0
 14
43.953629
 24
25.491217
 34
0.0
  3
23NSTD
  0
DIMENSION
  8
DIM
 62
     7
  2
*D33
 10
41.353278
 20
23.817254
 30
0.0
 11
38.983862
 21
23.182371
 31
0.0
 12
-0.739661
 22
0.0
 32
0.0
 70
     1
 13
37.690353
 23
18.532148
 33
0.0
 14
42.429185
 24
19.801914
 34
0.0
  3
23NSTDI
  0
DIMENSION
  8
DIM
 62
     7
  2
*D37
 10
72.168551
 20
27.958289
 30
0.0
 11
75.160739
 21
27.958289
 31
0.0
 13
71.168551
 23
23.12947
 33
0.0
 14
72.168551
 24
25.79047
 34
0.0
  3
23NSTD
  0
DIMENSION
  8
DIM
 62
     7
  2
*D29
 10
58.449551
 20
26.723673
 30
0.0
 11
55.457364
 21
26.723673
 31
0.0
 13
59.449551
 23
23.12947
 33
0.0
 14
58.449551
 24
25.79047
 34
0.0
  3
23NSTD
  0
DIMENSION
  8
DIM
 62
     7
  2
*D19
 10
46.920369
 20
15.92747
 30
0.0
 11
44.671932
 21
14.12747
 31
0.0
 12
-2.4579
 22
-3.797303
 32
0.0
 13
47.797619
 23
16.36447
 33
0.0
 14
48.159619
 24
15.92747
 34
0.0
 50
90.0
  3
23NSTD
  0
DIMENSION
  8
DIM
 62
     7
  2
*D26
 10
49.869535
 20
23.52173
 30
0.0
 11
49.869535
 21
19.9431
 31
0.0
 12
-2.4579
 22
-3.797303
 32
0.0
 13
47.847619
 23
16.36447
 33
0.0
 14
47.847619
 24
23.52173
 34
0.0
 50
90.0
  3
23NSTD
  0
LINE
  8
OBJECT
 62
     7
 10
53.27581
 20
27.151955
 30
0.0
 11
61.936064
 21
32.151955
 31
0.0
  0
LINE
  8
OBJECT
 62
     7
 10
61.936064
 20
32.151955
 30
0.0
 11
61.936064
 21
40.654799
 31
0.0
  0
LINE
  8
OBJECT
 62
     7
 10
61.663522
 20
40.863928
 30
0.0
 11
58.290301
 21
39.960084
 31
0.0
  0
LINE
  8
OBJECT
 62
     7
 10
58.134228
 20
39.794371
 30
0.0
 11
56.809194
 21
33.320955
 31
0.0
  0
LINE
  8
OBJECT
 62
     7
 10
56.809194
 20
33.320955
 30
0.0
 11
52.730101
 21
29.703672
 31
0.0
  0
LINE
  8
OBJECT
 62
     7
 10
52.664308
 20
29.486831
 30
0.0
 11
53.27581
 21
27.151955
 31
0.0
  0
LINE
  8
OBJECT
 62
     7
 10
61.58558
 20
40.908928
 30
0.0
 11
58.212359
 21
40.005084
 31
0.0
  0
LINE
  8
OBJECT
 62
     7
 10
58.056286
 20
39.839371
 30
0.0
 11
56.731252
 21
33.365955
 31
0.0
  0
LINE
  8
OBJECT
 62
     7
 10
56.731252
 20
33.365955
 30
0.0
 11
52.652159
 21
29.748672
 31
0.0
  0
LINE
  8
OBJECT
 62
     7
 10
52.586365
 20
29.531831
 30
0.0
 11
53.170098
 21
27.302988
 31
0.0
  0
ARC
  8
OBJECT
 62
     7
 10
58.346337
 20
39.750955
 30
0.0
 40
0.216506
 50
104.999866
 51
168.431999
  0
ARC
  8
OBJECT
 62
     7
 10
58.268395
 20
39.795955
 30
0.0
 40
0.216506
 50
104.999866
 51
168.431999
  0
ARC
  8
OBJECT
 62
     7
 10
61.719558
 20
40.654799
 30
0.0
 40
0.216506
 50
0.0
 51
104.999866
  0
ARC
  8
OBJECT
 62
     7
 10
61.641616
 20
40.699799
 30
0.0
 40
0.216506
 50
60.0
 51
104.999866
  0
ARC
  8
OBJECT
 62
     7
 10
52.87375
 20
29.541684
 30
0.0
 40
0.216506
 50
131.566165
 51
194.6761
  0
ARC
  8
OBJECT
 62
     7
 10
52.795808
 20
29.586684
 30
0.0
 40
0.216506
 50
131.566165
 51
194.6761
  0
LINE
  8
OBJECT
 62
     7
 10
41.212076
 20
34.116955
 30
0.0
 11
53.27581
 21
27.151955
 31
0.0
  0
LINE
  8
OBJECT
 62
     7
 10
41.262249
 20
34.177988
 30
0.0
 11
53.170098
 21
27.302988
 31
0.0
  0
LINE
  8
OBJECT
 62
     7
 10
40.600574
 20
36.451831
 30
0.0
 11
41.212076
 21
34.116955
 31
0.0
  0
LINE
  8
OBJECT
 62
     7
 10
40.678516
 20
36.406831
 30
0.0
 11
41.262249
 21
34.177988
 31
0.0
  0
LINE
  8
OBJECT
 62
     7
 10
40.900232
 20
36.511941
 30
0.0
 11
41.478755
 21
34.302988
 31
0.0
  0
ARC
  8
OBJECT
 62
     7
 10
40.810016
 20
36.506684
 30
0.0
 40
0.216506
 50
131.566165
 51
194.6761
  0
LINE
  8
OBJECT
 62
     7
 10
44.74546
 20
40.285955
 30
0.0
 11
40.666368
 21
36.668672
 31
0.0
  0
LINE
  8
OBJECT
 62
     7
 10
44.823402
 20
40.240955
 30
0.0
 11
40.74431
 21
36.623672
 31
0.0
  0
LINE
  8
OBJECT
 62
     7
 10
44.994142
 20
40.142364
 30
0.0
 11
40.900232
 21
36.511941
 31
0.0
  0
ARC
  8
OBJECT
 62
     7
 10
40.887958
 20
36.461684
 30
0.0
 40
0.216506
 50
131.566165
 51
194.6761
  0
LINE
  8
OBJECT
 62
     7
 10
46.070494
 20
46.759371
 30
0.0
 11
44.74546
 21
40.285955
 31
0.0
  0
LINE
  8
OBJECT
 62
     7
 10
46.148437
 20
46.714371
 30
0.0
 11
44.823402
 21
40.240955
 31
0.0
  0
LINE
  8
OBJECT
 62
     7
 10
46.323125
 20
46.635072
 30
0.0
 11
44.994142
 21
40.142364
 31
0.0
  0
LINE
  8
OBJECT
 62
     7
 10
49.677731
 20
47.783928
 30
0.0
 11
46.30451
 21
46.880084
 31
0.0
  0
LINE
  8
OBJECT
 62
     7
 10
49.733766
 20
47.548942
 30
0.0
 11
46.323125
 21
46.635072
 31
0.0
  0
ARC
  8
OBJECT
 62
     7
 10
46.282603
 20
46.715955
 30
0.0
 40
0.216506
 50
104.999866
 51
168.431999
  0
ARC
  8
OBJECT
 62
     7
 10
46.360545
 20
46.670955
 30
0.0
 40
0.216506
 50
104.999866
 51
168.431999
  0
ARC
  8
OBJECT
 62
     7
 10
49.733766
 20
47.574799
 30
0.0
 40
0.216506
 50
0.0
 51
104.999866
  0
LINE
  8
OBJECT
 62
     7
 10
49.599789
 20
47.828928
 30
0.0
 11
46.226567
 21
46.925084
 31
0.0
  0
ARC
  8
OBJECT
 62
     7
 10
49.655824
 20
47.619799
 30
0.0
 40
0.216506
 50
60.0
 51
104.999866
  0
LINE
  8
OBJECT
 62
     7
 10
49.950273
 20
47.423942
 30
0.0
 11
49.950273
 21
47.574799
 31
0.0
  0
LINE
  8
OBJECT
 62
     7
 10
44.994142
 20
40.142364
 30
0.0
 11
56.731242
 21
33.365946
 31
0.0
  0
LINE
  8
OBJECT
 62
     7
 10
46.323125
 20
46.635072
 30
0.0
 11
58.061026
 21
39.858192
 31
0.0
  0
LINE
  8
OBJECT
 62
     7
 10
40.900232
 20
36.511941
 30
0.0
 11
52.638137
 21
29.735059
 31
0.0
  0
LINE
  8
OBJECT
 62
     7
 10
41.478755
 20
34.302988
 30
0.0
 11
53.092959
 21
27.597524
 31
0.0
  0
LINE
  8
OBJECT
 62
     7
 10
49.733766
 20
47.548942
 30
0.0
 11
61.345862
 21
40.844696
 31
0.0
  0
LINE
  8
OBJECT
 62
     7
 10
61.749869
 20
40.887299
 30
0.0
 11
61.827811
 21
40.842299
 31
0.0
  0
LINE
  8
OBJECT
 62
     7
 10
49.764077
 20
47.807299
 30
0.0
 11
49.842019
 21
47.762299
 31
0.0
  0
LINE
  8
OBJECT
 62
     7
 10
41.478755
 20
34.302988
 30
0.0
 11
41.262249
 21
34.177988
 31
0.0
  0
POLYLINE
  8
DIM
 62
     7
 66
     1
 10
0.0
 20
0.0
 30
0.0
 41
0.3375
  0
VERTEX
  8
DIM
 62
     7
 10
40.596811
 20
36.544349
 30
0.0
  0
VERTEX
  8
DIM
 62
     7
 10
39.815464
 20
36.990999
 30
0.0
 41
0.0
  0
VERTEX
  8
DIM
 62
     7
 10
38.186866
 20
37.921974
 30
0.0
 41
0.0
  0
VERTEX
  8
DIM
 62
     7
 10
37.286866
 20
37.921974
 30
0.0
 41
0.0
  0
SEQEND
  8
DIM
 62
     7
  0
TEXT
  8
DIM
 62
     7
 10
34.102491
 20
37.609474
 30
0.0
 40
0.625
  1
0.125 R.
 41
0.75
  7
TXT
 72
     2
 11
36.836866
 21
37.921974
 31
0.0
 73
     2
  0
TEXT
  8
DIM
 62
     7
 10
35.430616
 20
36.567807
 30
0.0
 40
0.625
  1
TYP.
 41
0.75
  7
TXT
 72
     2
 11
36.836866
 21
36.880307
 31
0.0
 73
     2
  0
INSERT
  8
BEND
 66
     1
  2
SECTION
 10
25.8715
 20
110.590611
 30
0.0
 50
90.0
  0
ATTRIB
  8
0
 10
25.8715
 20
110.590611
 30
0.0
 40
0.25
  1

  2
SECTION
 70
     0
 41
0.8
  7
SECTION
 72
     4
 11
25.8715
 21
110.590611
 31
0.0
  0
SEQEND
  8
BEND
  0
INSERT
  8
BEND
 66
     1
  2
SECTION
 10
25.8715
 20
119.580106
 30
0.0
 50
90.0
  0
ATTRIB
  8
0
 10
25.8715
 20
119.580106
 30
0.0
 40
0.25
  1

  2
SECTION
 70
     0
 41
0.8
  7
SECTION
 72
     4
 11
25.8715
 21
119.580106
 31
0.0
  0
SEQEND
  8
BEND
  0
POLYLINE
  8
OBJECT
 62
     7
 66
     1
 10
0.0
 20
0.0
 30
0.0
 70
     1
  0
VERTEX
  8
OBJECT
 62
     7
 10
49.562172
 20
47.328415
 30
0.0
 42
0.058752
  0
VERTEX
  8
OBJECT
 62
     7
 10
49.44464
 20
47.314556
 30
0.0
 42
0.072341
  0
VERTEX
  8
OBJECT
 62
     7
 10
49.355192
 20
47.278916
 30
0.0
 42
0.106617
 70
     2
 50
210.0
  0
VERTEX
  8
OBJECT
 62
     7
 10
49.288446
 20
47.218455
 30
0.0
 42
0.156851
 50
210.0
  0
VERTEX
  8
OBJECT
 62
     7
 10
49.269458
 20
47.159416
 30
0.0
 42
0.156851
  0
VERTEX
  8
OBJECT
 62
     7
 10
49.288446
 20
47.100377
 30
0.0
 42
0.106617
  0
VERTEX
  8
OBJECT
 62
     7
 10
49.355192
 20
47.039916
 30
0.0
 42
0.072341
 70
     2
 50
330.0
  0
VERTEX
  8
OBJECT
 62
     7
 10
49.44464
 20
47.004276
 30
0.0
 42
0.058752
 50
330.0
  0
VERTEX
  8
OBJECT
 62
     7
 10
49.562172
 20
46.990418
 30
0.0
 42
0.058752
  0
VERTEX
  8
OBJECT
 62
     7
 10
49.679705
 20
47.004276
 30
0.0
 42
0.072341
  0
VERTEX
  8
OBJECT
 62
     7
 10
49.769152
 20
47.039916
 30
0.0
 42
0.106617
 70
     2
 50
30.0
  0
VERTEX
  8
OBJECT
 62
     7
 10
49.835899
 20
47.100377
 30
0.0
 42
0.156851
 50
30.0
  0
VERTEX
  8
OBJECT
 62
     7
 10
49.854886
 20
47.159416
 30
0.0
 42
0.156851
  0
VERTEX
  8
OBJECT
 62
     7
 10
49.835899
 20
47.218455
 30
0.0
 42
0.106617
  0
VERTEX
  8
OBJECT
 62
     7
 10
49.769152
 20
47.278916
 30
0.0
 42
0.072341
 70
     2
 50
150.0
  0
VERTEX
  8
OBJECT
 62
     7
 10
49.679705
 20
47.314556
 30
0.0
 42
0.058752
 50
150.0
  0
SEQEND
  8
OBJECT
 62
     7
  0
LINE
  8
OBJECT
 62
     7
 10
49.269458
 20
47.055416
 30
0.0
 11
49.269458
 21
47.159416
 31
0.0
  0
LINE
  8
OBJECT
 62
     7
 10
49.854886
 20
47.055416
 30
0.0
 11
49.854886
 21
47.159416
 31
0.0
  0
POLYLINE
  8
OBJECT
 62
     7
 66
     1
 10
0.0
 20
0.0
 30
0.0
  0
VERTEX
  8
OBJECT
 62
     7
 10
49.269458
 20
47.055416
 30
0.0
 42
0.156851
  0
VERTEX
  8
OBJECT
 62
     7
 10
49.288446
 20
46.996377
 30
0.0
 42
0.106617
  0
VERTEX
  8
OBJECT
 62
     7
 10
49.355192
 20
46.935916
 30
0.0
 42
0.072341
 70
     2
 50
330.0
  0
VERTEX
  8
OBJECT
 62
     7
 10
49.44464
 20
46.900276
 30
0.0
 42
0.058752
 50
330.0
  0
VERTEX
  8
OBJECT
 62
     7
 10
49.562172
 20
46.886418
 30
0.0
 42
0.058752
  0
VERTEX
  8
OBJECT
 62
     7
 10
49.679705
 20
46.900276
 30
0.0
 42
0.072341
  0
VERTEX
  8
OBJECT
 62
     7
 10
49.769152
 20
46.935916
 30
0.0
 42
0.106617
 70
     2
 50
30.0
  0
VERTEX
  8
OBJECT
 62
     7
 10
49.835899
 20
46.996377
 30
0.0
 42
0.156851
 50
30.0
  0
VERTEX
  8
OBJECT
 62
     7
 10
49.854886
 20
47.055416
 30
0.0
 42
0.156851
  0
SEQEND
  8
OBJECT
 62
     7
  0
LINE
  8
OBJECT
 62
     7
 10
60.722161
 20
40.677578
 30
0.0
 11
60.722161
 21
40.779038
 31
0.0
  0
POLYLINE
  8
OBJECT
 62
     7
 66
     1
 10
0.0
 20
0.0
 30
0.0
  0
VERTEX
  8
OBJECT
 62
     7
 10
61.29345
 20
40.830653
 30
0.0
 42
0.0219
  0
VERTEX
  8
OBJECT
 62
     7
 10
61.288601
 20
40.838077
 30
0.0
 42
0.106617
  0
VERTEX
  8
OBJECT
 62
     7
 10
61.221855
 20
40.898538
 30
0.0
 42
0.072341
 70
     2
 50
150.0
  0
VERTEX
  8
OBJECT
 62
     7
 10
61.132408
 20
40.934179
 30
0.0
 42
0.058752
 50
150.0
  0
VERTEX
  8
OBJECT
 62
     7
 10
61.014875
 20
40.948037
 30
0.0
 42
0.058752
  0
SEQEND
  8
OBJECT
 62
     7
  0
POLYLINE
  8
OBJECT
 62
     7
 66
     1
 10
0.0
 20
0.0
 30
0.0
  0
VERTEX
  8
OBJECT
 62
     7
 10
47.289305
 20
46.471354
 30
0.0
 42
0.156851
  0
VERTEX
  8
OBJECT
 62
     7
 10
47.308293
 20
46.412315
 30
0.0
 42
0.106617
  0
VERTEX
  8
OBJECT
 62
     7
 10
47.375039
 20
46.351854
 30
0.0
 42
0.072341
 70
     2
 50
330.0
  0
VERTEX
  8
OBJECT
 62
     7
 10
47.464486
 20
46.316214
 30
0.0
 42
0.058752
 50
330.0
  0
VERTEX
  8
OBJECT
 62
     7
 10
47.582019
 20
46.302355
 30
0.0
 42
0.058752
  0
VERTEX
  8
OBJECT
 62
     7
 10
47.699552
 20
46.316214
 30
0.0
 42
0.072341
  0
VERTEX
  8
OBJECT
 62
     7
 10
47.788999
 20
46.351854
 30
0.0
 42
0.106617
 70
     2
 50
30.0
  0
VERTEX
  8
OBJECT
 62
     7
 10
47.855745
 20
46.412315
 30
0.0
 42
0.156851
 50
30.0
  0
VERTEX
  8
OBJECT
 62
     7
 10
47.874733
 20
46.471354
 30
0.0
 42
0.156851
  0
SEQEND
  8
OBJECT
 62
     7
  0
LINE
  8
OBJECT
 62
     7
 10
47.874733
 20
46.471354
 30
0.0
 11
47.874733
 21
46.575354
 31
0.0
  0
LINE
  8
OBJECT
 62
     7
 10
47.289305
 20
46.471354
 30
0.0
 11
47.289305
 21
46.575354
 31
0.0
  0
POLYLINE
  8
OBJECT
 62
     7
 66
     1
 10
0.0
 20
0.0
 30
0.0
 70
     1
  0
VERTEX
  8
OBJECT
 62
     7
 10
47.582019
 20
46.744352
 30
0.0
 42
0.058752
  0
VERTEX
  8
OBJECT
 62
     7
 10
47.464486
 20
46.730494
 30
0.0
 42
0.072341
  0
VERTEX
  8
OBJECT
 62
     7
 10
47.375039
 20
46.694854
 30
0.0
 42
0.106617
 70
     2
 50
210.0
  0
VERTEX
  8
OBJECT
 62
     7
 10
47.308293
 20
46.634393
 30
0.0
 42
0.156851
 50
210.0
  0
VERTEX
  8
OBJECT
 62
     7
 10
47.289305
 20
46.575354
 30
0.0
 42
0.156851
  0
VERTEX
  8
OBJECT
 62
     7
 10
47.308293
 20
46.516315
 30
0.0
 42
0.106617
  0
VERTEX
  8
OBJECT
 62
     7
 10
47.375039
 20
46.455854
 30
0.0
 42
0.072341
 70
     2
 50
330.0
  0
VERTEX
  8
OBJECT
 62
     7
 10
47.464486
 20
46.420214
 30
0.0
 42
0.058752
 50
330.0
  0
VERTEX
  8
OBJECT
 62
     7
 10
47.582019
 20
46.406355
 30
0.0
 42
0.058752
  0
VERTEX
  8
OBJECT
 62
     7
 10
47.699552
 20
46.420214
 30
0.0
 42
0.072341
  0
VERTEX
  8
OBJECT
 62
     7
 10
47.788999
 20
46.455854
 30
0.0
 42
0.106617
 70
     2
 50
30.0
  0
VERTEX
  8
OBJECT
 62
     7
 10
47.855745
 20
46.516315
 30
0.0
 42
0.156851
 50
30.0
  0
VERTEX
  8
OBJECT
 62
     7
 10
47.874733
 20
46.575354
 30
0.0
 42
0.156851
  0
VERTEX
  8
OBJECT
 62
     7
 10
47.855745
 20
46.634393
 30
0.0
 42
0.106617
  0
VERTEX
  8
OBJECT
 62
     7
 10
47.788999
 20
46.694854
 30
0.0
 42
0.072341
 70
     2
 50
150.0
  0
VERTEX
  8
OBJECT
 62
     7
 10
47.699552
 20
46.730494
 30
0.0
 42
0.058752
 50
150.0
  0
SEQEND
  8
OBJECT
 62
     7
  0
POLYLINE
  8
OBJECT
 62
     7
 66
     1
 10
0.0
 20
0.0
 30
0.0
  0
VERTEX
  8
OBJECT
 62
     7
 10
61.014875
 20
40.948037
 30
0.0
 42
0.058752
  0
VERTEX
  8
OBJECT
 62
     7
 10
60.897342
 20
40.934179
 30
0.0
 42
0.072341
  0
VERTEX
  8
OBJECT
 62
     7
 10
60.807895
 20
40.898538
 30
0.0
 42
0.106617
 70
     2
 50
210.0
  0
VERTEX
  8
OBJECT
 62
     7
 10
60.741149
 20
40.838077
 30
0.0
 42
0.156851
 50
210.0
  0
VERTEX
  8
OBJECT
 62
     7
 10
60.722161
 20
40.779038
 30
0.0
 42
0.156851
  0
VERTEX
  8
OBJECT
 62
     7
 10
60.741149
 20
40.72
 30
0.0
 42
0.04709
  0
VERTEX
  8
OBJECT
 62
     7
 10
60.767509
 20
40.689728
 30
0.0
 42
0.072341
 70
     2
 50
330.0
  0
SEQEND
  8
OBJECT
 62
     7
  0
LINE
  8
OBJECT
 62
     7
 10
58.174794
 20
39.995019
 30
0.0
 11
58.174794
 21
40.09648
 31
0.0
  0
POLYLINE
  8
OBJECT
 62
     7
 66
     1
 10
0.0
 20
0.0
 30
0.0
  0
VERTEX
  8
OBJECT
 62
     7
 10
58.467508
 20
40.265478
 30
0.0
 42
0.058752
  0
VERTEX
  8
OBJECT
 62
     7
 10
58.349975
 20
40.25162
 30
0.0
 42
0.072341
  0
VERTEX
  8
OBJECT
 62
     7
 10
58.260528
 20
40.21598
 30
0.0
 42
0.106617
 70
     2
 50
210.0
  0
VERTEX
  8
OBJECT
 62
     7
 10
58.193782
 20
40.155519
 30
0.0
 42
0.156851
 50
210.0
  0
VERTEX
  8
OBJECT
 62
     7
 10
58.174794
 20
40.09648
 30
0.0
 42
0.156851
  0
VERTEX
  8
OBJECT
 62
     7
 10
58.193782
 20
40.037441
 30
0.0
 42
0.04709
  0
VERTEX
  8
OBJECT
 62
     7
 10
58.220142
 20
40.00717
 30
0.0
 42
0.072341
 70
     2
 50
330.0
  0
SEQEND
  8
OBJECT
 62
     7
  0
POLYLINE
  8
OBJECT
 62
     7
 66
     1
 10
0.0
 20
0.0
 30
0.0
  0
VERTEX
  8
OBJECT
 62
     7
 10
58.746083
 20
40.148094
 30
0.0
 42
0.0219
  0
VERTEX
  8
OBJECT
 62
     7
 10
58.741235
 20
40.155519
 30
0.0
 42
0.106617
  0
VERTEX
  8
OBJECT
 62
     7
 10
58.674488
 20
40.21598
 30
0.0
 42
0.072341
 70
     2
 50
150.0
  0
VERTEX
  8
OBJECT
 62
     7
 10
58.585041
 20
40.25162
 30
0.0
 42
0.058752
 50
150.0
  0
VERTEX
  8
OBJECT
 62
     7
 10
58.467508
 20
40.265478
 30
0.0
 42
0.058752
  0
SEQEND
  8
OBJECT
 62
     7
  0
ENDSEC
  0
EOF
