  0
SECTION
  2
HEADER
  9
$ACADVER
  1
AC1015
  9
$ACADMAINTVER
 70
     6
  9
$DWGCODEPAGE
  3
ANSI_1252
  9
$INSBASE
 10
0.0
 20
0.0
 30
0.0
  9
$EXTMIN
 10
0.0
 20
0.0
 30
-0.00000001
  9
$EXTMAX
 10
41.49999999999998
 20
25.82
 30
0.00000001
  9
$LIMMIN
 10
0.0
 20
0.0
  9
$LIMMAX
 10
38.75
 20
25.3
  9
$ORTHOMODE
 70
     1
  9
$REGENMODE
 70
     1
  9
$FILLMODE
 70
     1
  9
$QTEXTMODE
 70
     0
  9
$MIRRTEXT
 70
     0
  9
$LTSCALE
 40
0.75
  9
$ATTMODE
 70
     1
  9
$TEXTSIZE
 40
0.18
  9
$TRACEWID
 40
0.05
  9
$TEXTSTYLE
  7
TXT
  9
$CLAYER
  8
OBJECT
  9
$CELTYPE
  6
ByLayer
  9
$CECOLOR
 62
   256
  9
$CELTSCALE
 40
1.0
  9
$DISPSILH
 70
     0
  9
$DIMSCALE
 40
2.5
  9
$DIMASZ
 40
0.18
  9
$DIMEXO
 40
0.063
  9
$DIMDLI
 40
0.281
  9
$DIMRND
 40
0.0
  9
$DIMDLE
 40
0.0
  9
$DIMEXE
 40
0.093
  9
$DIMTP
 40
0.0
  9
$DIMTM
 40
0.0
  9
$DIMTXT
 40
0.125
  9
$DIMCEN
 40
0.09
  9
$DIMTSZ
 40
0.0
  9
$DIMTOL
 70
     0
  9
$DIMLIM
 70
     0
  9
$DIMTIH
 70
     1
  9
$DIMTOH
 70
     1
  9
$DIMSE1
 70
     0
  9
$DIMSE2
 70
     0
  9
$DIMTAD
 70
     0
  9
$DIMZIN
 70
     0
  9
$DIMBLK
  1

  9
$DIMASO
 70
     1
  9
$DIMSHO
 70
     1
  9
$DIMPOST
  1

  9
$DIMAPOST
  1

  9
$DIMALT
 70
     0
  9
$DIMALTD
 70
     2
  9
$DIMALTF
 40
25.4
  9
$DIMLFAC
 40
1.0
  9
$DIMTOFL
 70
     0
  9
$DIMTVP
 40
0.0
  9
$DIMTIX
 70
     0
  9
$DIMSOXD
 70
     0
  9
$DIMSAH
 70
     0
  9
$DIMBLK1
  1

  9
$DIMBLK2
  1

  9
$DIMSTYLE
  2
23NSTD
  9
$DIMCLRD
 70
     0
  9
$DIMCLRE
 70
     0
  9
$DIMCLRT
 70
     0
  9
$DIMTFAC
 40
1.0
  9
$DIMGAP
 40
0.09
  9
$DIMJUST
 70
     0
  9
$DIMSD1
 70
     0
  9
$DIMSD2
 70
     0
  9
$DIMTOLJ
 70
     1
  9
$DIMTZIN
 70
     0
  9
$DIMALTZ
 70
     0
  9
$DIMALTTZ
 70
     0
  9
$DIMUPT
 70
     0
  9
$DIMDEC
 70
     3
  9
$DIMTDEC
 70
     3
  9
$DIMALTU
 70
     2
  9
$DIMALTTD
 70
     2
  9
$DIMTXSTY
  7
TXT
  9
$DIMAUNIT
 70
     0
  9
$DIMADEC
 70
     0
  9
$DIMALTRND
 40
0.0
  9
$DIMAZIN
 70
     0
  9
$DIMDSEP
 70
    46
  9
$DIMATFIT
 70
     1
  9
$DIMFRAC
 70
     0
  9
$DIMLDRBLK
  1

  9
$DIMLUNIT
 70
     2
  9
$DIMLWD
 70
    -2
  9
$DIMLWE
 70
    -2
  9
$DIMTMOVE
 70
     0
  9
$LUNITS
 70
     2
  9
$LUPREC
 70
     3
  9
$SKETCHINC
 40
0.1
  9
$FILLETRAD
 40
0.0
  9
$AUNITS
 70
     0
  9
$AUPREC
 70
     0
  9
$MENU
  1
acad
  9
$ELEVATION
 40
0.0
  9
$PELEVATION
 40
0.0
  9
$THICKNESS
 40
0.0
  9
$LIMCHECK
 70
     0
  9
$CHAMFERA
 40
0.0
  9
$CHAMFERB
 40
0.0
  9
$CHAMFERC
 40
0.0
  9
$CHAMFERD
 40
0.0
  9
$SKPOLY
 70
     0
  9
$TDCREATE
 40
2449123.385881365
  9
$TDUCREATE
 40
2449123.594214699
  9
$TDUPDATE
 40
2454788.495995370
  9
$TDUUPDATE
 40
2454788.704328703
  9
$TDINDWG
 40
0.8300069213
  9
$TDUSRTIMER
 40
0.8300069213
  9
$USRTIMER
 70
     1
  9
$ANGBASE
 50
0.0
  9
$ANGDIR
 70
     0
  9
$PDMODE
 70
     0
  9
$PDSIZE
 40
0.0
  9
$PLINEWID
 40
0.0
  9
$SPLFRAME
 70
     0
  9
$SPLINETYPE
 70
     6
  9
$SPLINESEGS
 70
     8
  9
$HANDSEED
  5
2299
  9
$SURFTAB1
 70
     6
  9
$SURFTAB2
 70
     6
  9
$SURFTYPE
 70
     6
  9
$SURFU
 70
     6
  9
$SURFV
 70
     6
  9
$UCSBASE
  2

  9
$UCSNAME
  2

  9
$UCSORG
 10
0.0
 20
0.0
 30
0.0
  9
$UCSXDIR
 10
1.0
 20
0.0
 30
0.0
  9
$UCSYDIR
 10
0.0
 20
1.0
 30
0.0
  9
$UCSORTHOREF
  2

  9
$UCSORTHOVIEW
 70
     0
  9
$UCSORGTOP
 10
0.0
 20
0.0
 30
0.0
  9
$UCSORGBOTTOM
 10
0.0
 20
0.0
 30
0.0
  9
$UCSORGLEFT
 10
0.0
 20
0.0
 30
0.0
  9
$UCSORGRIGHT
 10
0.0
 20
0.0
 30
0.0
  9
$UCSORGFRONT
 10
0.0
 20
0.0
 30
0.0
  9
$UCSORGBACK
 10
0.0
 20
0.0
 30
0.0
  9
$PUCSBASE
  2

  9
$PUCSNAME
  2

  9
$PUCSORG
 10
0.0
 20
0.0
 30
0.0
  9
$PUCSXDIR
 10
1.0
 20
0.0
 30
0.0
  9
$PUCSYDIR
 10
0.0
 20
1.0
 30
0.0
  9
$PUCSORTHOREF
  2

  9
$PUCSORTHOVIEW
 70
     0
  9
$PUCSORGTOP
 10
0.0
 20
0.0
 30
0.0
  9
$PUCSORGBOTTOM
 10
0.0
 20
0.0
 30
0.0
  9
$PUCSORGLEFT
 10
0.0
 20
0.0
 30
0.0
  9
$PUCSORGRIGHT
 10
0.0
 20
0.0
 30
0.0
  9
$PUCSORGFRONT
 10
0.0
 20
0.0
 30
0.0
  9
$PUCSORGBACK
 10
0.0
 20
0.0
 30
0.0
  9
$USERI1
 70
     0
  9
$USERI2
 70
     0
  9
$USERI3
 70
     0
  9
$USERI4
 70
     0
  9
$USERI5
 70
     0
  9
$USERR1
 40
0.0
  9
$USERR2
 40
0.0
  9
$USERR3
 40
0.0
  9
$USERR4
 40
0.0
  9
$USERR5
 40
0.0
  9
$WORLDVIEW
 70
     0
  9
$SHADEDGE
 70
     3
  9
$SHADEDIF
 70
    70
  9
$TILEMODE
 70
     1
  9
$MAXACTVP
 70
    16
  9
$PINSBASE
 10
0.0
 20
0.0
 30
0.0
  9
$PLIMCHECK
 70
     0
  9
$PEXTMIN
 10
1.000000000000000E+20
 20
1.000000000000000E+20
 30
1.000000000000000E+20
  9
$PEXTMAX
 10
-1.000000000000000E+20
 20
-1.000000000000000E+20
 30
-1.000000000000000E+20
  9
$PLIMMIN
 10
0.0
 20
0.0
  9
$PLIMMAX
 10
12.0
 20
9.0
  9
$UNITMODE
 70
     0
  9
$VISRETAIN
 70
     0
  9
$PLINEGEN
 70
     0
  9
$PSLTSCALE
 70
     0
  9
$TREEDEPTH
 70
  3020
  9
$CMLSTYLE
  2
Standard
  9
$CMLJUST
 70
     0
  9
$CMLSCALE
 40
1.0
  9
$PROXYGRAPHICS
 70
     1
  9
$MEASUREMENT
 70
     0
  9
$CELWEIGHT
370
    -1
  9
$ENDCAPS
280
     0
  9
$JOINSTYLE
280
     0
  9
$LWDISPLAY
290
     0
  9
$INSUNITS
 70
     0
  9
$HYPERLINKBASE
  1

  9
$STYLESHEET
  1
monochrome.ctb
  9
$XEDIT
290
     1
  9
$CEPSNTYPE
380
     0
  9
$PSTYLEMODE
290
     1
  9
$FINGERPRINTGUID
  2
{DB68F1B9-0FBA-4C94-A773-E218756A1A88}
  9
$VERSIONGUID
  2
{2DDB1E95-4F49-47E3-B649-211F2641569B}
  9
$EXTNAMES
290
     1
  9
$PSVPSCALE
 40
0.0
  9
$OLESTARTUP
290
     0
  0
ENDSEC
  0
SECTION
  2
CLASSES
  0
CLASS
  1
ACDBDICTIONARYWDFLT
  2
AcDbDictionaryWithDefault
  3
AutoCAD 2000
 90
        0
280
     0
281
     0
  0
CLASS
  1
ACDBPLACEHOLDER
  2
AcDbPlaceHolder
  3
AutoCAD 2000
 90
        0
280
     0
281
     0
  0
CLASS
  1
LAYOUT
  2
AcDbLayout
  3
AutoCAD 2000
 90
        0
280
     0
281
     0
  0
CLASS
  1
DICTIONARYVAR
  2
AcDbDictionaryVar
  3
AutoCAD 2000
 90
        0
280
     0
281
     0
  0
ENDSEC
  0
SECTION
  2
TABLES
  0
TABLE
  2
VPORT
  5
8
330
0
100
AcDbSymbolTable
 70
     2
  0
VPORT
  5
2298
330
8
100
AcDbSymbolTableRecord
100
AcDbViewportTableRecord
  2
*Active
 70
     0
 10
0.0
 20
0.0
 11
1.0
 21
1.0
 12
20.75000028989185
 22
12.91000018036162
 13
0.0
 23
0.0
 14
1.0
 24
1.0
 15
0.0
 25
0.0
 16
0.0
 26
0.0
 36
1.0
 17
0.0
 27
0.0
 37
0.0
 40
26.09176455638747
 41
1.796327212020033
 42
50.0
 43
0.0
 44
0.0
 50
0.0
 51
0.0
 71
     0
 72
  5000
 73
     1
 74
     0
 75
     0
 76
     0
 77
     0
 78
     0
281
     0
 65
     1
110
0.0
120
0.0
130
0.0
111
1.0
121
0.0
131
0.0
112
0.0
122
1.0
132
0.0
 79
     0
146
0.0
  0
ENDTAB
  0
TABLE
  2
LTYPE
  5
5
330
0
100
AcDbSymbolTable
 70
     6
  0
LTYPE
  5
13
330
5
100
AcDbSymbolTableRecord
100
AcDbLinetypeTableRecord
  2
ByBlock
 70
     0
  3

 72
    65
 73
     0
 40
0.0
  0
LTYPE
  5
14
330
5
100
AcDbSymbolTableRecord
100
AcDbLinetypeTableRecord
  2
ByLayer
 70
     0
  3

 72
    65
 73
     0
 40
0.0
  0
LTYPE
  5
15
330
5
100
AcDbSymbolTableRecord
100
AcDbLinetypeTableRecord
  2
CONTINUOUS
 70
     0
  3
Solid line
 72
    65
 73
     0
 40
0.0
  0
LTYPE
  5
25
330
5
100
AcDbSymbolTableRecord
100
AcDbLinetypeTableRecord
  2
CENTER
 70
     0
  3
____ _ ____ _ ____ _ ____ _ ____ _ ____ _ ____ 
 72
    65
 73
     4
 40
2.0
 49
1.25
 74
     0
 49
-0.25
 74
     0
 49
0.25
 74
     0
 49
-0.25
 74
     0
  0
LTYPE
  5
26
330
5
100
AcDbSymbolTableRecord
100
AcDbLinetypeTableRecord
  2
PHANTOM
 70
     0
  3
______  __  __  ______  __  __  ______  __  __ 
 72
    65
 73
     6
 40
2.5
 49
1.25
 74
     0
 49
-0.25
 74
     0
 49
0.25
 74
     0
 49
-0.25
 74
     0
 49
0.25
 74
     0
 49
-0.25
 74
     0
  0
LTYPE
  5
1AF6
330
5
100
AcDbSymbolTableRecord
100
AcDbLinetypeTableRecord
  2
HIDDEN
 70
     0
  3
_ _ _ _ _ _ _ _ _ _ _ _ _ _ _ _ _ _ _ _ _ _ _
 72
    65
 73
     2
 40
0.375
 49
0.25
 74
     0
 49
-0.125
 74
     0
  0
LTYPE
  5
1AF7
330
5
100
AcDbSymbolTableRecord
100
AcDbLinetypeTableRecord
  2
HIDDEN2
 70
     0
  3
_ _ _ _ _ _ _ _ _ _ _ _ _ _ _ _ _ _ _ _ _ _ _ _
 72
    65
 73
     2
 40
0.1875
 49
0.125
 74
     0
 49
-0.0625
 74
     0
  0
LTYPE
  5
1AF8
330
5
100
AcDbSymbolTableRecord
100
AcDbLinetypeTableRecord
  2
PHANTOM2
 70
     0
  3
___ _ _ ___ _ _ ___ _ _ ___ _ _ ___ _ _ ___ _ _
 72
    65
 73
     6
 40
1.25
 49
0.625
 74
     0
 49
-0.125
 74
     0
 49
0.125
 74
     0
 49
-0.125
 74
     0
 49
0.125
 74
     0
 49
-0.125
 74
     0
  0
ENDTAB
  0
TABLE
  2
LAYER
  5
2
330
0
100
AcDbSymbolTable
 70
     9
  0
LAYER
  5
10
330
2
100
AcDbSymbolTableRecord
100
AcDbLayerTableRecord
  2
0
 70
     0
 62
     7
  6
CONTINUOUS
370
    -3
390
F
  0
LAYER
  5
22
330
2
100
AcDbSymbolTableRecord
100
AcDbLayerTableRecord
  2
OBJECT
 70
     0
 62
     7
  6
CONTINUOUS
370
    -3
390
F
  0
LAYER
  5
27
330
2
100
AcDbSymbolTableRecord
100
AcDbLayerTableRecord
  2
TEXT
 70
     0
 62
     1
  6
CONTINUOUS
370
    -3
390
F
  0
LAYER
  5
28
330
2
100
AcDbSymbolTableRecord
100
AcDbLayerTableRecord
  2
TITLE
 70
     0
 62
     8
  6
CONTINUOUS
370
    -3
390
F
  0
LAYER
  5
29
330
2
100
AcDbSymbolTableRecord
100
AcDbLayerTableRecord
  2
DIM
 70
     0
 62
     2
  6
CONTINUOUS
370
    -3
390
F
  0
LAYER
  5
2A
330
2
100
AcDbSymbolTableRecord
100
AcDbLayerTableRecord
  2
CENTER
 70
     0
 62
     3
  6
CENTER
370
    -3
390
F
  0
LAYER
  5
2B
330
2
100
AcDbSymbolTableRecord
100
AcDbLayerTableRecord
  2
DEFPOINTS
 70
     0
 62
     7
  6
CONTINUOUS
290
     0
370
    -3
390
F
  0
LAYER
  5
2C
330
2
100
AcDbSymbolTableRecord
100
AcDbLayerTableRecord
  2
BEND
 70
     0
 62
     4
  6
PHANTOM
370
    -3
390
F
  0
LAYER
  5
1AF9
330
2
100
AcDbSymbolTableRecord
100
AcDbLayerTableRecord
  2
HIDDEN
 70
     0
 62
     6
  6
HIDDEN
370
    -3
390
F
  0
ENDTAB
  0
TABLE
  2
STYLE
  5
3
330
0
100
AcDbSymbolTable
 70
     2
  0
STYLE
  5
11
330
3
100
AcDbSymbolTableRecord
100
AcDbTextStyleTableRecord
  2
TXT
 70
     0
 40
0.0
 41
0.75
 50
0.0
 71
     0
 42
0.18
  3
txt.shx
  4

  0
STYLE
  5
1F0B
330
3
100
AcDbSymbolTableRecord
100
AcDbTextStyleTableRecord
  2
SECTION
 70
     0
 40
0.0
 41
0.8
 50
0.0
 71
     0
 42
0.2
  3
ROMANT.SHX
  4

  0
ENDTAB
  0
TABLE
  2
VIEW
  5
6
330
0
100
AcDbSymbolTable
 70
     0
  0
ENDTAB
  0
TABLE
  2
UCS
  5
7
330
0
100
AcDbSymbolTable
 70
     0
  0
ENDTAB
  0
TABLE
  2
APPID
  5
9
330
0
100
AcDbSymbolTable
 70
     1
  0
APPID
  5
12
330
9
100
AcDbSymbolTableRecord
100
AcDbRegAppTableRecord
  2
ACAD
 70
     0
  0
ENDTAB
  0
TABLE
  2
DIMSTYLE
  5
A
330
0
100
AcDbSymbolTable
 70
     4
100
AcDbDimStyleTable
 71
     4
340
2D
340
2E
340
30
340
2F
  0
DIMSTYLE
105
2D
102
{ACAD_REACTORS
330
C75
330
C83
330
C91
330
C9F
330
CC9
330
CD7
330
CE5
330
CF3
330
D01
330
D0F
330
D1D
330
D2B
330
D47
330
D55
330
D63
330
D71
330
D7F
330
D98
330
DA6
330
DB6
330
DC9
330
DD7
330
DE5
330
DF3
330
E01
330
E1D
330
E2B
330
E55
330
E63
330
E7F
330
E8D
330
E9B
330
EA9
330
EB7
330
EC5
330
ED3
330
EF3
330
F01
330
F0F
330
F3D
330
F5A
330
1012
330
1020
330
1BA2
330
1D31
330
1D33
330
1D35
330
1D37
102
}
330
A
100
AcDbSymbolTableRecord
100
AcDbDimStyleTableRecord
  2
23NSTD
 70
     0
 40
2.5
 42
0.063
 43
0.281
 44
0.093
140
0.125
271
     3
272
     3
289
     1
340
11
  0
DIMSTYLE
105
2E
102
{ACAD_REACTORS
330
C67
330
CAD
330
CBB
330
D39
330
E0F
330
E71
330
F68
330
F76
102
}
330
A
100
AcDbSymbolTableRecord
100
AcDbDimStyleTableRecord
  2
23NSTDI
 70
     0
 40
2.5
 42
0.063
 43
0.281
 44
0.093
140
0.125
174
     1
271
     3
272
     3
289
     0
340
11
  0
DIMSTYLE
105
2F
102
{ACAD_REACTORS
330
1B95
330
1B99
330
1BA1
102
}
330
A
100
AcDbSymbolTableRecord
100
AcDbDimStyleTableRecord
  2
23NSTD4
 70
     0
 40
2.5
 42
0.063
 43
0.281
 44
0.093
140
0.125
144
0.25
271
     3
272
     3
289
     1
340
11
  0
DIMSTYLE
105
30
102
{ACAD_REACTORS
330
1B8F
330
1B94
102
}
330
A
100
AcDbSymbolTableRecord
100
AcDbDimStyleTableRecord
  2
23NSTD4I
 70
     0
 40
2.5
 42
0.063
 43
0.281
 44
0.093
140
0.125
144
0.25
174
     1
271
     3
272
     3
340
11
  0
ENDTAB
  0
TABLE
  2
BLOCK_RECORD
  5
1
330
0
100
AcDbSymbolTable
 70
    57
  0
BLOCK_RECORD
  5
1E
330
1
100
AcDbSymbolTableRecord
100
AcDbBlockTableRecord
  2
*Model_Space
340
21
  0
BLOCK_RECORD
  5
1A
330
1
100
AcDbSymbolTableRecord
100
AcDbBlockTableRecord
  2
*Paper_Space
340
1D
  0
BLOCK_RECORD
  5
C68
330
1
100
AcDbSymbolTableRecord
100
AcDbBlockTableRecord
  2
*D0
340
0
  0
BLOCK_RECORD
  5
C76
330
1
100
AcDbSymbolTableRecord
100
AcDbBlockTableRecord
  2
*D1
340
0
  0
BLOCK_RECORD
  5
C84
330
1
100
AcDbSymbolTableRecord
100
AcDbBlockTableRecord
  2
*D2
340
0
  0
BLOCK_RECORD
  5
C92
330
1
100
AcDbSymbolTableRecord
100
AcDbBlockTableRecord
  2
*D3
340
0
  0
BLOCK_RECORD
  5
CA0
330
1
100
AcDbSymbolTableRecord
100
AcDbBlockTableRecord
  2
*D4
340
0
  0
BLOCK_RECORD
  5
CAE
330
1
100
AcDbSymbolTableRecord
100
AcDbBlockTableRecord
  2
*D5
340
0
  0
BLOCK_RECORD
  5
CBC
330
1
100
AcDbSymbolTableRecord
100
AcDbBlockTableRecord
  2
*D6
340
0
  0
BLOCK_RECORD
  5
CCA
330
1
100
AcDbSymbolTableRecord
100
AcDbBlockTableRecord
  2
*D7
340
0
  0
BLOCK_RECORD
  5
CD8
330
1
100
AcDbSymbolTableRecord
100
AcDbBlockTableRecord
  2
*D8
340
0
  0
BLOCK_RECORD
  5
CE6
330
1
100
AcDbSymbolTableRecord
100
AcDbBlockTableRecord
  2
*D9
340
0
  0
BLOCK_RECORD
  5
CF4
330
1
100
AcDbSymbolTableRecord
100
AcDbBlockTableRecord
  2
*D10
340
0
  0
BLOCK_RECORD
  5
D02
330
1
100
AcDbSymbolTableRecord
100
AcDbBlockTableRecord
  2
*D11
340
0
  0
BLOCK_RECORD
  5
D10
330
1
100
AcDbSymbolTableRecord
100
AcDbBlockTableRecord
  2
*D12
340
0
  0
BLOCK_RECORD
  5
D1E
330
1
100
AcDbSymbolTableRecord
100
AcDbBlockTableRecord
  2
*D13
340
0
  0
BLOCK_RECORD
  5
D2C
330
1
100
AcDbSymbolTableRecord
100
AcDbBlockTableRecord
  2
*D14
340
0
  0
BLOCK_RECORD
  5
D3A
330
1
100
AcDbSymbolTableRecord
100
AcDbBlockTableRecord
  2
*D15
340
0
  0
BLOCK_RECORD
  5
D48
330
1
100
AcDbSymbolTableRecord
100
AcDbBlockTableRecord
  2
*D16
340
0
  0
BLOCK_RECORD
  5
D56
330
1
100
AcDbSymbolTableRecord
100
AcDbBlockTableRecord
  2
*D17
340
0
  0
BLOCK_RECORD
  5
D64
330
1
100
AcDbSymbolTableRecord
100
AcDbBlockTableRecord
  2
*D18
340
0
  0
BLOCK_RECORD
  5
D72
330
1
100
AcDbSymbolTableRecord
100
AcDbBlockTableRecord
  2
*D19
340
0
  0
BLOCK_RECORD
  5
D80
330
1
100
AcDbSymbolTableRecord
100
AcDbBlockTableRecord
  2
*D20
340
0
  0
BLOCK_RECORD
  5
D99
330
1
100
AcDbSymbolTableRecord
100
AcDbBlockTableRecord
  2
*D21
340
0
  0
BLOCK_RECORD
  5
DA7
330
1
100
AcDbSymbolTableRecord
100
AcDbBlockTableRecord
  2
*D22
340
0
  0
BLOCK_RECORD
  5
DB7
330
1
100
AcDbSymbolTableRecord
100
AcDbBlockTableRecord
  2
*D23
340
0
  0
BLOCK_RECORD
  5
DCA
330
1
100
AcDbSymbolTableRecord
100
AcDbBlockTableRecord
  2
*D24
340
0
  0
BLOCK_RECORD
  5
DD8
330
1
100
AcDbSymbolTableRecord
100
AcDbBlockTableRecord
  2
*D25
340
0
  0
BLOCK_RECORD
  5
DE6
330
1
100
AcDbSymbolTableRecord
100
AcDbBlockTableRecord
  2
*D26
340
0
  0
BLOCK_RECORD
  5
DF4
330
1
100
AcDbSymbolTableRecord
100
AcDbBlockTableRecord
  2
*D27
340
0
  0
BLOCK_RECORD
  5
E02
330
1
100
AcDbSymbolTableRecord
100
AcDbBlockTableRecord
  2
*D28
340
0
  0
BLOCK_RECORD
  5
E10
330
1
100
AcDbSymbolTableRecord
100
AcDbBlockTableRecord
  2
*D29
340
0
  0
BLOCK_RECORD
  5
E1E
330
1
100
AcDbSymbolTableRecord
100
AcDbBlockTableRecord
  2
*D30
340
0
  0
BLOCK_RECORD
  5
E2C
330
1
100
AcDbSymbolTableRecord
100
AcDbBlockTableRecord
  2
*D31
340
0
  0
BLOCK_RECORD
  5
E56
330
1
100
AcDbSymbolTableRecord
100
AcDbBlockTableRecord
  2
*D32
340
0
  0
BLOCK_RECORD
  5
E64
330
1
100
AcDbSymbolTableRecord
100
AcDbBlockTableRecord
  2
*D33
340
0
  0
BLOCK_RECORD
  5
E72
330
1
100
AcDbSymbolTableRecord
100
AcDbBlockTableRecord
  2
*D34
340
0
  0
BLOCK_RECORD
  5
E80
330
1
100
AcDbSymbolTableRecord
100
AcDbBlockTableRecord
  2
*D35
340
0
  0
BLOCK_RECORD
  5
E8E
330
1
100
AcDbSymbolTableRecord
100
AcDbBlockTableRecord
  2
*D36
340
0
  0
BLOCK_RECORD
  5
E9C
330
1
100
AcDbSymbolTableRecord
100
AcDbBlockTableRecord
  2
*D37
340
0
  0
BLOCK_RECORD
  5
EAA
330
1
100
AcDbSymbolTableRecord
100
AcDbBlockTableRecord
  2
*D38
340
0
  0
BLOCK_RECORD
  5
EB8
330
1
100
AcDbSymbolTableRecord
100
AcDbBlockTableRecord
  2
*D39
340
0
  0
BLOCK_RECORD
  5
EC6
330
1
100
AcDbSymbolTableRecord
100
AcDbBlockTableRecord
  2
*D40
340
0
  0
BLOCK_RECORD
  5
ED4
330
1
100
AcDbSymbolTableRecord
100
AcDbBlockTableRecord
  2
*D41
340
0
  0
BLOCK_RECORD
  5
EF4
330
1
100
AcDbSymbolTableRecord
100
AcDbBlockTableRecord
  2
*D42
340
0
  0
BLOCK_RECORD
  5
F02
330
1
100
AcDbSymbolTableRecord
100
AcDbBlockTableRecord
  2
*D43
340
0
  0
BLOCK_RECORD
  5
F10
330
1
100
AcDbSymbolTableRecord
100
AcDbBlockTableRecord
  2
*D44
340
0
  0
BLOCK_RECORD
  5
F3E
330
1
100
AcDbSymbolTableRecord
100
AcDbBlockTableRecord
  2
*D45
340
0
  0
BLOCK_RECORD
  5
F5B
330
1
100
AcDbSymbolTableRecord
100
AcDbBlockTableRecord
  2
*D46
340
0
  0
BLOCK_RECORD
  5
F69
330
1
100
AcDbSymbolTableRecord
100
AcDbBlockTableRecord
  2
*D47
340
0
  0
BLOCK_RECORD
  5
F77
330
1
100
AcDbSymbolTableRecord
100
AcDbBlockTableRecord
  2
*D48
340
0
  0
BLOCK_RECORD
  5
1013
330
1
100
AcDbSymbolTableRecord
100
AcDbBlockTableRecord
  2
*D49
340
0
  0
BLOCK_RECORD
  5
1021
330
1
100
AcDbSymbolTableRecord
100
AcDbBlockTableRecord
  2
*D50
340
0
  0
BLOCK_RECORD
  5
1AFA
330
1
100
AcDbSymbolTableRecord
100
AcDbBlockTableRecord
  2
HBS
340
0
102
{BLKREFS
331
1B13
102
}
  0
BLOCK_RECORD
  5
1BA8
330
1
100
AcDbSymbolTableRecord
100
AcDbBlockTableRecord
  2
*D52
340
0
  0
BLOCK_RECORD
  5
1BB5
330
1
100
AcDbSymbolTableRecord
100
AcDbBlockTableRecord
  2
*D53
340
0
  0
BLOCK_RECORD
  5
1BC2
330
1
100
AcDbSymbolTableRecord
100
AcDbBlockTableRecord
  2
*D54
340
0
  0
BLOCK_RECORD
  5
1BD0
330
1
100
AcDbSymbolTableRecord
100
AcDbBlockTableRecord
  2
*D55
340
0
  0
BLOCK_RECORD
  5
1BDD
330
1
100
AcDbSymbolTableRecord
100
AcDbBlockTableRecord
  2
*D56
340
0
  0
ENDTAB
  0
ENDSEC
  0
SECTION
  2
BLOCKS
  0
BLOCK
  5
1F
330
1E
100
AcDbEntity
  8
0
100
AcDbBlockBegin
  2
*Model_Space
 70
     0
 10
0.0
 20
0.0
 30
0.0
  3
*Model_Space
  1

  0
ENDBLK
  5
20
330
1E
100
AcDbEntity
  8
0
100
AcDbBlockEnd
  0
BLOCK
  5
1B
330
1A
100
AcDbEntity
 67
     1
  8
0
100
AcDbBlockBegin
  2
*Paper_Space
 70
     0
 10
0.0
 20
0.0
 30
0.0
  3
*Paper_Space
  1

  0
ENDBLK
  5
1C
330
1A
100
AcDbEntity
 67
     1
  8
0
100
AcDbBlockEnd
  0
BLOCK
  5
C73
330
C68
100
AcDbEntity
  8
0
100
AcDbBlockBegin
  2
*D0
 70
     1
 10
0.0
 20
0.0
 30
0.0
  3
*D0
  1

  0
LINE
  5
1981
330
C68
100
AcDbEntity
  8
DIM
 62
     0
370
    -2
100
AcDbLine
 10
11.235569
 20
6.410034999999999
 30
0.0
 11
14.130104
 21
6.410034999999998
 31
0.0
  0
LINE
  5
1982
330
C68
100
AcDbEntity
  8
DIM
 62
     0
370
    -2
100
AcDbLine
 10
10.863819
 20
7.207535
 30
0.0
 11
14.130104
 21
7.207535
 31
0.0
  0
LINE
  5
1983
330
C68
100
AcDbEntity
  8
DIM
 62
     0
370
    -2
100
AcDbLine
 10
13.897604
 20
5.960034999999999
 30
0.0
 11
13.897604
 21
5.510034999999999
 31
0.0
  0
LINE
  5
1984
330
C68
100
AcDbEntity
  8
DIM
 62
     0
370
    -2
100
AcDbLine
 10
13.897604
 20
7.657535000000001
 30
0.0
 11
13.897604
 21
8.107535
 31
0.0
  0
SOLID
  5
1985
330
C68
100
AcDbEntity
  8
DIM
 62
     0
100
AcDbTrace
 10
13.822604
 20
5.960034999999999
 30
0.0
 11
13.972604
 21
5.960034999999999
 31
0.0
 12
13.897604
 22
6.410034999999999
 32
0.0
 13
13.897604
 23
6.410034999999999
 33
0.0
  0
SOLID
  5
1986
330
C68
100
AcDbEntity
  8
DIM
 62
     0
100
AcDbTrace
 10
13.822604
 20
7.657535000000001
 30
0.0
 11
13.972604
 21
7.657535000000001
 31
0.0
 12
13.897604
 22
7.207535
 32
0.0
 13
13.897604
 23
7.207535
 33
0.0
  0
MTEXT
  5
1987
330
C68
100
AcDbEntity
  8
DIM
 62
     0
100
AcDbMText
 10
13.897604
 20
6.808785000000002
 30
0.0
 40
0.3125
 41
0.0
 71
     5
 72
     1
  1
\A1;0.798
 73
     1
 44
1.0
  0
POINT
  5
1988
330
C68
100
AcDbEntity
  8
DEFPOINTS
 62
     0
100
AcDbPoint
 10
11.078069
 20
6.410034999999999
 30
0.0
  0
POINT
  5
1989
330
C68
100
AcDbEntity
  8
DEFPOINTS
 62
     0
100
AcDbPoint
 10
10.706319
 20
7.207535
 30
0.0
  0
POINT
  5
198A
330
C68
100
AcDbEntity
  8
DEFPOINTS
 62
     0
100
AcDbPoint
 10
13.897604
 20
7.207535
 30
0.0
  0
ENDBLK
  5
C74
330
C68
100
AcDbEntity
  8
0
100
AcDbBlockEnd
  0
BLOCK
  5
C81
330
C76
100
AcDbEntity
  8
0
100
AcDbBlockBegin
  2
*D1
 70
     1
 10
0.0
 20
0.0
 30
0.0
  3
*D1
  1

  0
LINE
  5
1D3C
330
C76
100
AcDbEntity
  8
DIM
 62
     0
370
    -2
100
AcDbLine
 10
7.501819
 20
7.512535
 30
0.0
 11
3.154970999999998
 21
7.512535000000001
 31
0.0
  0
LINE
  5
1D3D
330
C76
100
AcDbEntity
  8
DIM
 62
     0
370
    -2
100
AcDbLine
 10
7.501819
 20
14.04753499999999
 30
0.0
 11
3.154971
 21
14.047535
 31
0.0
  0
LINE
  5
1D3E
330
C76
100
AcDbEntity
  8
DIM
 62
     0
370
    -2
100
AcDbLine
 10
3.387470999999998
 20
7.962535000000001
 30
0.0
 11
3.387470999999999
 21
10.398785
 31
0.0
  0
LINE
  5
1D3F
330
C76
100
AcDbEntity
  8
DIM
 62
     0
370
    -2
100
AcDbLine
 10
3.387471
 20
13.597535
 30
0.0
 11
3.387470999999999
 21
11.161285
 31
0.0
  0
SOLID
  5
1D40
330
C76
100
AcDbEntity
  8
DIM
 62
     0
100
AcDbTrace
 10
3.312470999999998
 20
7.962535000000001
 30
0.0
 11
3.462470999999998
 21
7.962535000000001
 31
0.0
 12
3.387470999999998
 22
7.512535000000001
 32
0.0
 13
3.387470999999998
 23
7.512535000000001
 33
0.0
  0
SOLID
  5
1D41
330
C76
100
AcDbEntity
  8
DIM
 62
     0
100
AcDbTrace
 10
3.312470999999999
 20
13.597535
 30
0.0
 11
3.462471
 21
13.597535
 31
0.0
 12
3.387471
 22
14.047535
 32
0.0
 13
3.387471
 23
14.047535
 33
0.0
  0
MTEXT
  5
1D42
330
C76
100
AcDbEntity
  8
DIM
 62
     0
100
AcDbMText
 10
3.387470999999997
 20
10.780035
 30
0.0
 40
0.3125
 41
0.0
 71
     5
 72
     1
  1
\A1;6.535
 73
     1
 44
1.0
  0
POINT
  5
1D43
330
C76
100
AcDbEntity
  8
DEFPOINTS
 62
     0
100
AcDbPoint
 10
7.659318999999999
 20
7.512535
 30
0.0
  0
POINT
  5
1D44
330
C76
100
AcDbEntity
  8
DEFPOINTS
 62
     0
100
AcDbPoint
 10
7.659318999999999
 20
14.04753499999999
 30
0.0
  0
POINT
  5
1D45
330
C76
100
AcDbEntity
  8
DEFPOINTS
 62
     0
100
AcDbPoint
 10
3.387471
 20
14.047535
 30
0.0
  0
ENDBLK
  5
C82
330
C76
100
AcDbEntity
  8
0
100
AcDbBlockEnd
  0
BLOCK
  5
C8F
330
C84
100
AcDbEntity
  8
0
100
AcDbBlockBegin
  2
*D2
 70
     1
 10
0.0
 20
0.0
 30
0.0
  3
*D2
  1

  0
LINE
  5
1D46
330
C84
100
AcDbEntity
  8
DIM
 62
     0
370
    -2
100
AcDbLine
 10
11.218319
 20
6.654785
 30
0.0
 11
13.130752
 21
6.654785
 31
0.0
  0
LINE
  5
1D47
330
C84
100
AcDbEntity
  8
DIM
 62
     0
370
    -2
100
AcDbLine
 10
11.235569
 20
10.780035
 30
0.0
 11
13.130752
 21
10.78003499999999
 31
0.0
  0
LINE
  5
1D48
330
C84
100
AcDbEntity
  8
DIM
 62
     0
370
    -2
100
AcDbLine
 10
12.898252
 20
7.104785
 30
0.0
 11
12.898252
 21
8.336159999999999
 31
0.0
  0
LINE
  5
1D49
330
C84
100
AcDbEntity
  8
DIM
 62
     0
370
    -2
100
AcDbLine
 10
12.898252
 20
10.33003499999999
 30
0.0
 11
12.898252
 21
9.098659999999998
 31
0.0
  0
SOLID
  5
1D4A
330
C84
100
AcDbEntity
  8
DIM
 62
     0
100
AcDbTrace
 10
12.823252
 20
7.104785
 30
0.0
 11
12.973252
 21
7.104785
 31
0.0
 12
12.898252
 22
6.654785
 32
0.0
 13
12.898252
 23
6.654785
 33
0.0
  0
SOLID
  5
1D4B
330
C84
100
AcDbEntity
  8
DIM
 62
     0
100
AcDbTrace
 10
12.823252
 20
10.33003499999999
 30
0.0
 11
12.973252
 21
10.33003499999999
 31
0.0
 12
12.898252
 22
10.78003499999999
 32
0.0
 13
12.898252
 23
10.78003499999999
 33
0.0
  0
MTEXT
  5
1D4C
330
C84
100
AcDbEntity
  8
DIM
 62
     0
100
AcDbMText
 10
12.898252
 20
8.717410000000002
 30
0.0
 40
0.3125
 41
0.0
 71
     5
 72
     1
  1
\A1;4.125
 73
     1
 44
1.0
  0
POINT
  5
1D4D
330
C84
100
AcDbEntity
  8
DEFPOINTS
 62
     0
100
AcDbPoint
 10
11.060819
 20
6.654785
 30
0.0
  0
POINT
  5
1D4E
330
C84
100
AcDbEntity
  8
DEFPOINTS
 62
     0
100
AcDbPoint
 10
11.078069
 20
10.780035
 30
0.0
  0
POINT
  5
1D4F
330
C84
100
AcDbEntity
  8
DEFPOINTS
 62
     0
100
AcDbPoint
 10
12.898252
 20
10.78003499999999
 30
0.0
  0
ENDBLK
  5
C90
330
C84
100
AcDbEntity
  8
0
100
AcDbBlockEnd
  0
BLOCK
  5
C9D
330
C92
100
AcDbEntity
  8
0
100
AcDbBlockBegin
  2
*D3
 70
     1
 10
0.0
 20
0.0
 30
0.0
  3
*D3
  1

  0
LINE
  5
1D50
330
C92
100
AcDbEntity
  8
DIM
 62
     0
370
    -2
100
AcDbLine
 10
11.235569
 20
10.780035
 30
0.0
 11
13.130752
 21
10.78003499999999
 31
0.0
  0
LINE
  5
1D51
330
C92
100
AcDbEntity
  8
DIM
 62
     0
370
    -2
100
AcDbLine
 10
11.218319
 20
14.905285
 30
0.0
 11
13.130752
 21
14.90528499999999
 31
0.0
  0
LINE
  5
1D52
330
C92
100
AcDbEntity
  8
DIM
 62
     0
370
    -2
100
AcDbLine
 10
12.898252
 20
11.23003499999999
 30
0.0
 11
12.898252
 21
12.46140999999999
 31
0.0
  0
LINE
  5
1D53
330
C92
100
AcDbEntity
  8
DIM
 62
     0
370
    -2
100
AcDbLine
 10
12.898252
 20
14.45528499999999
 30
0.0
 11
12.898252
 21
13.22390999999999
 31
0.0
  0
SOLID
  5
1D54
330
C92
100
AcDbEntity
  8
DIM
 62
     0
100
AcDbTrace
 10
12.823252
 20
11.23003499999999
 30
0.0
 11
12.97325199999999
 21
11.23003499999999
 31
0.0
 12
12.898252
 22
10.78003499999999
 32
0.0
 13
12.898252
 23
10.78003499999999
 33
0.0
  0
SOLID
  5
1D55
330
C92
100
AcDbEntity
  8
DIM
 62
     0
100
AcDbTrace
 10
12.823252
 20
14.45528499999999
 30
0.0
 11
12.973252
 21
14.45528499999999
 31
0.0
 12
12.898252
 22
14.90528499999999
 32
0.0
 13
12.898252
 23
14.90528499999999
 33
0.0
  0
MTEXT
  5
1D56
330
C92
100
AcDbEntity
  8
DIM
 62
     0
100
AcDbMText
 10
12.89825199999999
 20
12.84266
 30
0.0
 40
0.3125
 41
0.0
 71
     5
 72
     1
  1
\A1;4.125
 73
     1
 44
1.0
  0
POINT
  5
1D57
330
C92
100
AcDbEntity
  8
DEFPOINTS
 62
     0
100
AcDbPoint
 10
11.078069
 20
10.780035
 30
0.0
  0
POINT
  5
1D58
330
C92
100
AcDbEntity
  8
DEFPOINTS
 62
     0
100
AcDbPoint
 10
11.060819
 20
14.905285
 30
0.0
  0
POINT
  5
1D59
330
C92
100
AcDbEntity
  8
DEFPOINTS
 62
     0
100
AcDbPoint
 10
12.898252
 20
14.90528499999999
 30
0.0
  0
ENDBLK
  5
C9E
330
C92
100
AcDbEntity
  8
0
100
AcDbBlockEnd
  0
BLOCK
  5
CAB
330
CA0
100
AcDbEntity
  8
0
100
AcDbBlockBegin
  2
*D4
 70
     1
 10
0.0
 20
0.0
 30
0.0
  3
*D4
  1

  0
LINE
  5
1D5A
330
CA0
100
AcDbEntity
  8
DIM
 62
     0
370
    -2
100
AcDbLine
 10
10.863819
 20
7.207535
 30
0.0
 11
14.130104
 21
7.207535
 31
0.0
  0
LINE
  5
1D5B
330
CA0
100
AcDbEntity
  8
DIM
 62
     0
370
    -2
100
AcDbLine
 10
10.863819
 20
14.352535
 30
0.0
 11
14.130104
 21
14.35253499999999
 31
0.0
  0
LINE
  5
1D5C
330
CA0
100
AcDbEntity
  8
DIM
 62
     0
370
    -2
100
AcDbLine
 10
13.897604
 20
7.657535000000001
 30
0.0
 11
13.897604
 21
10.398785
 31
0.0
  0
LINE
  5
1D5D
330
CA0
100
AcDbEntity
  8
DIM
 62
     0
370
    -2
100
AcDbLine
 10
13.897604
 20
13.902535
 30
0.0
 11
13.897604
 21
11.161285
 31
0.0
  0
SOLID
  5
1D5E
330
CA0
100
AcDbEntity
  8
DIM
 62
     0
100
AcDbTrace
 10
13.822604
 20
7.657535000000001
 30
0.0
 11
13.97260399999999
 21
7.657535000000001
 31
0.0
 12
13.897604
 22
7.207535
 32
0.0
 13
13.897604
 23
7.207535
 33
0.0
  0
SOLID
  5
1D5F
330
CA0
100
AcDbEntity
  8
DIM
 62
     0
100
AcDbTrace
 10
13.822604
 20
13.902535
 30
0.0
 11
13.972604
 21
13.902535
 31
0.0
 12
13.897604
 22
14.35253499999999
 32
0.0
 13
13.897604
 23
14.35253499999999
 33
0.0
  0
MTEXT
  5
1D60
330
CA0
100
AcDbEntity
  8
DIM
 62
     0
100
AcDbMText
 10
13.89760399999999
 20
10.780035
 30
0.0
 40
0.3125
 41
0.0
 71
     5
 72
     1
  1
\A1;7.145
 73
     1
 44
1.0
  0
POINT
  5
1D61
330
CA0
100
AcDbEntity
  8
DEFPOINTS
 62
     0
100
AcDbPoint
 10
10.706319
 20
7.207535
 30
0.0
  0
POINT
  5
1D62
330
CA0
100
AcDbEntity
  8
DEFPOINTS
 62
     0
100
AcDbPoint
 10
10.706319
 20
14.352535
 30
0.0
  0
POINT
  5
1D63
330
CA0
100
AcDbEntity
  8
DEFPOINTS
 62
     0
100
AcDbPoint
 10
13.897604
 20
14.35253499999999
 30
0.0
  0
ENDBLK
  5
CAC
330
CA0
100
AcDbEntity
  8
0
100
AcDbBlockEnd
  0
BLOCK
  5
CB9
330
CAE
100
AcDbEntity
  8
0
100
AcDbBlockBegin
  2
*D5
 70
     1
 10
0.0
 20
0.0
 30
0.0
  3
*D5
  1

  0
LINE
  5
1931
330
CAE
100
AcDbEntity
  8
DIM
 62
     0
370
    -2
100
AcDbLine
 10
6.979068999999999
 20
6.191305999999999
 30
0.0
 11
6.979068999999999
 21
4.667657
 31
0.0
  0
LINE
  5
1932
330
CAE
100
AcDbEntity
  8
DIM
 62
     0
370
    -2
100
AcDbLine
 10
8.426819
 20
6.191305999999999
 30
0.0
 11
8.426819
 21
4.667657
 31
0.0
  0
LINE
  5
1933
330
CAE
100
AcDbEntity
  8
DIM
 62
     0
370
    -2
100
AcDbLine
 10
6.529068999999999
 20
4.900157
 30
0.0
 11
6.079069
 21
4.900157
 31
0.0
  0
LINE
  5
1934
330
CAE
100
AcDbEntity
  8
DIM
 62
     0
370
    -2
100
AcDbLine
 10
8.876818999999999
 20
4.900157
 30
0.0
 11
9.326819
 21
4.900157
 31
0.0
  0
SOLID
  5
1935
330
CAE
100
AcDbEntity
  8
DIM
 62
     0
100
AcDbTrace
 10
6.529068999999999
 20
4.975157
 30
0.0
 11
6.529068999999999
 21
4.825156999999999
 31
0.0
 12
6.979068999999999
 22
4.900157
 32
0.0
 13
6.979068999999999
 23
4.900157
 33
0.0
  0
SOLID
  5
1936
330
CAE
100
AcDbEntity
  8
DIM
 62
     0
100
AcDbTrace
 10
8.876818999999999
 20
4.975157
 30
0.0
 11
8.876818999999999
 21
4.825156999999999
 31
0.0
 12
8.426819
 22
4.900157
 32
0.0
 13
8.426819
 23
4.900157
 33
0.0
  0
MTEXT
  5
1937
330
CAE
100
AcDbEntity
  8
DIM
 62
     0
100
AcDbMText
 10
7.702944
 20
4.900157
 30
0.0
 40
0.3125
 41
0.0
 71
     5
 72
     1
  1
\A1;1.448
 73
     1
 44
1.0
  0
POINT
  5
1938
330
CAE
100
AcDbEntity
  8
DEFPOINTS
 62
     0
100
AcDbPoint
 10
6.979068999999999
 20
6.348805999999999
 30
0.0
  0
POINT
  5
1939
330
CAE
100
AcDbEntity
  8
DEFPOINTS
 62
     0
100
AcDbPoint
 10
8.426819
 20
6.348805999999999
 30
0.0
  0
POINT
  5
193A
330
CAE
100
AcDbEntity
  8
DEFPOINTS
 62
     0
100
AcDbPoint
 10
8.426819
 20
4.900157
 30
0.0
  0
ENDBLK
  5
CBA
330
CAE
100
AcDbEntity
  8
0
100
AcDbBlockEnd
  0
BLOCK
  5
CC7
330
CBC
100
AcDbEntity
  8
0
100
AcDbBlockBegin
  2
*D6
 70
     1
 10
0.0
 20
0.0
 30
0.0
  3
*D6
  1

  0
LINE
  5
1977
330
CBC
100
AcDbEntity
  8
DIM
 62
     0
370
    -2
100
AcDbLine
 10
8.426819
 20
6.191305999999999
 30
0.0
 11
8.426819
 21
3.954761
 31
0.0
  0
LINE
  5
1978
330
CBC
100
AcDbEntity
  8
DIM
 62
     0
370
    -2
100
AcDbLine
 10
9.874569000000001
 20
6.191305999999999
 30
0.0
 11
9.874569000000001
 21
3.954761
 31
0.0
  0
LINE
  5
1979
330
CBC
100
AcDbEntity
  8
DIM
 62
     0
370
    -2
100
AcDbLine
 10
7.976818999999999
 20
4.187261
 30
0.0
 11
7.526818999999999
 21
4.187261
 31
0.0
  0
LINE
  5
197A
330
CBC
100
AcDbEntity
  8
DIM
 62
     0
370
    -2
100
AcDbLine
 10
10.324569
 20
4.187261
 30
0.0
 11
10.774569
 21
4.187261
 31
0.0
  0
SOLID
  5
197B
330
CBC
100
AcDbEntity
  8
DIM
 62
     0
100
AcDbTrace
 10
7.976818999999999
 20
4.262261
 30
0.0
 11
7.976818999999999
 21
4.112261
 31
0.0
 12
8.426819
 22
4.187261
 32
0.0
 13
8.426819
 23
4.187261
 33
0.0
  0
SOLID
  5
197C
330
CBC
100
AcDbEntity
  8
DIM
 62
     0
100
AcDbTrace
 10
10.324569
 20
4.262261
 30
0.0
 11
10.324569
 21
4.112261
 31
0.0
 12
9.874569000000001
 22
4.187261
 32
0.0
 13
9.874569000000001
 23
4.187261
 33
0.0
  0
MTEXT
  5
197D
330
CBC
100
AcDbEntity
  8
DIM
 62
     0
100
AcDbMText
 10
9.150694000000001
 20
4.187261
 30
0.0
 40
0.3125
 41
0.0
 71
     5
 72
     1
  1
\A1;1.448
 73
     1
 44
1.0
  0
POINT
  5
197E
330
CBC
100
AcDbEntity
  8
DEFPOINTS
 62
     0
100
AcDbPoint
 10
8.426819
 20
6.348805999999999
 30
0.0
  0
POINT
  5
197F
330
CBC
100
AcDbEntity
  8
DEFPOINTS
 62
     0
100
AcDbPoint
 10
9.874569000000001
 20
6.348805999999999
 30
0.0
  0
POINT
  5
1980
330
CBC
100
AcDbEntity
  8
DEFPOINTS
 62
     0
100
AcDbPoint
 10
9.874569000000001
 20
4.187261
 30
0.0
  0
ENDBLK
  5
CC8
330
CBC
100
AcDbEntity
  8
0
100
AcDbBlockEnd
  0
BLOCK
  5
CD5
330
CCA
100
AcDbEntity
  8
0
100
AcDbBlockBegin
  2
*D7
 70
     1
 10
0.0
 20
0.0
 30
0.0
  3
*D7
  1

  0
LINE
  5
226A
330
CCA
100
AcDbEntity
  8
DIM
 62
     0
370
    -2
100
AcDbLine
 10
5.792819
 20
15.062785
 30
0.0
 11
5.792819
 21
18.43149967102982
 31
0.0
  0
LINE
  5
226B
330
CCA
100
AcDbEntity
  8
DIM
 62
     0
370
    -2
100
AcDbLine
 10
5.556818999999999
 20
15.088785
 30
0.0
 11
5.556818999999999
 21
18.43149967102982
 31
0.0
  0
LINE
  5
226C
330
CCA
100
AcDbEntity
  8
DIM
 62
     0
370
    -2
100
AcDbLine
 10
6.242819
 20
18.19899967102982
 30
0.0
 11
6.692819
 21
18.19899967102982
 31
0.0
  0
LINE
  5
226D
330
CCA
100
AcDbEntity
  8
DIM
 62
     0
370
    -2
100
AcDbLine
 10
5.106818999999999
 20
18.19899967102982
 30
0.0
 11
4.656818999999999
 21
18.19899967102982
 31
0.0
  0
SOLID
  5
226E
330
CCA
100
AcDbEntity
  8
DIM
 62
     0
100
AcDbTrace
 10
6.242819
 20
18.27399967102982
 30
0.0
 11
6.242819
 21
18.12399967102982
 31
0.0
 12
5.792819
 22
18.19899967102982
 32
0.0
 13
5.792819
 23
18.19899967102982
 33
0.0
  0
SOLID
  5
226F
330
CCA
100
AcDbEntity
  8
DIM
 62
     0
100
AcDbTrace
 10
5.106818999999999
 20
18.27399967102982
 30
0.0
 11
5.106818999999999
 21
18.12399967102982
 31
0.0
 12
5.556818999999999
 22
18.19899967102982
 32
0.0
 13
5.556818999999999
 23
18.19899967102982
 33
0.0
  0
MTEXT
  5
2270
330
CCA
100
AcDbEntity
  8
DIM
 62
     0
100
AcDbMText
 10
3.982600249999999
 20
18.19899967102982
 30
0.0
 40
0.3125
 41
0.0
 71
     5
 72
     1
  1
\A1;0.236
 73
     1
 44
1.0
  0
POINT
  5
2271
330
CCA
100
AcDbEntity
  8
DEFPOINTS
 62
     0
100
AcDbPoint
 10
5.792819
 20
14.905285
 30
0.0
  0
POINT
  5
2272
330
CCA
100
AcDbEntity
  8
DEFPOINTS
 62
     0
100
AcDbPoint
 10
5.556818999999999
 20
14.931285
 30
0.0
  0
POINT
  5
2273
330
CCA
100
AcDbEntity
  8
DEFPOINTS
 62
     0
100
AcDbPoint
 10
5.556818999999999
 20
18.19899967102982
 30
0.0
  0
ENDBLK
  5
CD6
330
CCA
100
AcDbEntity
  8
0
100
AcDbBlockEnd
  0
BLOCK
  5
CE3
330
CD8
100
AcDbEntity
  8
0
100
AcDbBlockBegin
  2
*D8
 70
     1
 10
0.0
 20
0.0
 30
0.0
  3
*D8
  1

  0
LINE
  5
2242
330
CD8
100
AcDbEntity
  8
DIM
 62
     0
370
    -2
100
AcDbLine
 10
6.146818999999999
 20
15.054973
 30
0.0
 11
6.146818999999999
 21
17.75703446470623
 31
0.0
  0
LINE
  5
2243
330
CD8
100
AcDbEntity
  8
DIM
 62
     0
370
    -2
100
AcDbLine
 10
5.556818999999999
 20
15.230535
 30
0.0
 11
5.556818999999999
 21
17.75703446470623
 31
0.0
  0
LINE
  5
2244
330
CD8
100
AcDbEntity
  8
DIM
 62
     0
370
    -2
100
AcDbLine
 10
6.596818999999999
 20
17.52453446470622
 30
0.0
 11
7.046818999999999
 21
17.52453446470622
 31
0.0
  0
LINE
  5
2245
330
CD8
100
AcDbEntity
  8
DIM
 62
     0
370
    -2
100
AcDbLine
 10
5.106818999999999
 20
17.52453446470622
 30
0.0
 11
4.656818999999999
 21
17.52453446470622
 31
0.0
  0
SOLID
  5
2246
330
CD8
100
AcDbEntity
  8
DIM
 62
     0
100
AcDbTrace
 10
6.596818999999999
 20
17.59953446470622
 30
0.0
 11
6.596818999999999
 21
17.44953446470622
 31
0.0
 12
6.146818999999999
 22
17.52453446470622
 32
0.0
 13
6.146818999999999
 23
17.52453446470622
 33
0.0
  0
SOLID
  5
2247
330
CD8
100
AcDbEntity
  8
DIM
 62
     0
100
AcDbTrace
 10
5.106818999999999
 20
17.59953446470622
 30
0.0
 11
5.106818999999999
 21
17.44953446470622
 31
0.0
 12
5.556818999999999
 22
17.52453446470622
 32
0.0
 13
5.556818999999999
 23
17.52453446470622
 33
0.0
  0
MTEXT
  5
2248
330
CD8
100
AcDbEntity
  8
DIM
 62
     0
100
AcDbMText
 10
4.002131499999999
 20
17.52453446470622
 30
0.0
 40
0.3125
 41
0.0
 71
     5
 72
     1
  1
\A1;0.590
 73
     1
 44
1.0
  0
POINT
  5
2249
330
CD8
100
AcDbEntity
  8
DEFPOINTS
 62
     0
100
AcDbPoint
 10
6.146818999999999
 20
14.897473
 30
0.0
  0
POINT
  5
224A
330
CD8
100
AcDbEntity
  8
DEFPOINTS
 62
     0
100
AcDbPoint
 10
5.556818999999999
 20
15.073035
 30
0.0
  0
POINT
  5
224B
330
CD8
100
AcDbEntity
  8
DEFPOINTS
 62
     0
100
AcDbPoint
 10
5.556818999999999
 20
17.52453446470622
 30
0.0
  0
ENDBLK
  5
CE4
330
CD8
100
AcDbEntity
  8
0
100
AcDbBlockEnd
  0
BLOCK
  5
CF1
330
CE6
100
AcDbEntity
  8
0
100
AcDbBlockBegin
  2
*D9
 70
     1
 10
0.0
 20
0.0
 30
0.0
  3
*D9
  1

  0
LINE
  5
2260
330
CE6
100
AcDbEntity
  8
DIM
 62
     0
370
    -2
100
AcDbLine
 10
5.792819
 20
15.062785
 30
0.0
 11
5.792819
 21
18.43149967102982
 31
0.0
  0
LINE
  5
2261
330
CE6
100
AcDbEntity
  8
DIM
 62
     0
370
    -2
100
AcDbLine
 10
11.060819
 20
15.684727
 30
0.0
 11
11.060819
 21
18.43149967102982
 31
0.0
  0
LINE
  5
2262
330
CE6
100
AcDbEntity
  8
DIM
 62
     0
370
    -2
100
AcDbLine
 10
6.242819
 20
18.19899967102982
 30
0.0
 11
7.733069000000002
 21
18.19899967102982
 31
0.0
  0
LINE
  5
2263
330
CE6
100
AcDbEntity
  8
DIM
 62
     0
370
    -2
100
AcDbLine
 10
10.610819
 20
18.19899967102982
 30
0.0
 11
9.120569000000001
 21
18.19899967102982
 31
0.0
  0
SOLID
  5
2264
330
CE6
100
AcDbEntity
  8
DIM
 62
     0
100
AcDbTrace
 10
6.242819
 20
18.27399967102982
 30
0.0
 11
6.242819
 21
18.12399967102982
 31
0.0
 12
5.792819
 22
18.19899967102982
 32
0.0
 13
5.792819
 23
18.19899967102982
 33
0.0
  0
SOLID
  5
2265
330
CE6
100
AcDbEntity
  8
DIM
 62
     0
100
AcDbTrace
 10
10.610819
 20
18.27399967102982
 30
0.0
 11
10.610819
 21
18.12399967102982
 31
0.0
 12
11.060819
 22
18.19899967102982
 32
0.0
 13
11.060819
 23
18.19899967102982
 33
0.0
  0
MTEXT
  5
2266
330
CE6
100
AcDbEntity
  8
DIM
 62
     0
100
AcDbMText
 10
8.426819000000001
 20
18.19899967102982
 30
0.0
 40
0.3125
 41
0.0
 71
     5
 72
     1
  1
\A1;5.268
 73
     1
 44
1.0
  0
POINT
  5
2267
330
CE6
100
AcDbEntity
  8
DEFPOINTS
 62
     0
100
AcDbPoint
 10
5.792819
 20
14.905285
 30
0.0
  0
POINT
  5
2268
330
CE6
100
AcDbEntity
  8
DEFPOINTS
 62
     0
100
AcDbPoint
 10
11.060819
 20
15.52722699999999
 30
0.0
  0
POINT
  5
2269
330
CE6
100
AcDbEntity
  8
DEFPOINTS
 62
     0
100
AcDbPoint
 10
11.060819
 20
18.19899967102982
 30
0.0
  0
ENDBLK
  5
CF2
330
CE6
100
AcDbEntity
  8
0
100
AcDbBlockEnd
  0
BLOCK
  5
CFF
330
CF4
100
AcDbEntity
  8
0
100
AcDbBlockBegin
  2
*D10
 70
     1
 10
0.0
 20
0.0
 30
0.0
  3
*D10
  1

  0
LINE
  5
222E
330
CF4
100
AcDbEntity
  8
DIM
 62
     0
370
    -2
100
AcDbLine
 10
6.146818999999999
 20
15.054973
 30
0.0
 11
6.146818999999999
 21
17.75703446470623
 31
0.0
  0
LINE
  5
222F
330
CF4
100
AcDbEntity
  8
DIM
 62
     0
370
    -2
100
AcDbLine
 10
10.706819
 20
15.054973
 30
0.0
 11
10.706819
 21
17.75703446470623
 31
0.0
  0
LINE
  5
2230
330
CF4
100
AcDbEntity
  8
DIM
 62
     0
370
    -2
100
AcDbLine
 10
6.596818999999999
 20
17.52453446470622
 30
0.0
 11
7.75260025
 21
17.52453446470622
 31
0.0
  0
LINE
  5
2231
330
CF4
100
AcDbEntity
  8
DIM
 62
     0
370
    -2
100
AcDbLine
 10
10.256819
 20
17.52453446470622
 30
0.0
 11
9.101037749999999
 21
17.52453446470622
 31
0.0
  0
SOLID
  5
2232
330
CF4
100
AcDbEntity
  8
DIM
 62
     0
100
AcDbTrace
 10
6.596818999999999
 20
17.59953446470622
 30
0.0
 11
6.596818999999999
 21
17.44953446470622
 31
0.0
 12
6.146818999999999
 22
17.52453446470622
 32
0.0
 13
6.146818999999999
 23
17.52453446470622
 33
0.0
  0
SOLID
  5
2233
330
CF4
100
AcDbEntity
  8
DIM
 62
     0
100
AcDbTrace
 10
10.256819
 20
17.59953446470622
 30
0.0
 11
10.256819
 21
17.44953446470622
 31
0.0
 12
10.706819
 22
17.52453446470622
 32
0.0
 13
10.706819
 23
17.52453446470622
 33
0.0
  0
MTEXT
  5
2234
330
CF4
100
AcDbEntity
  8
DIM
 62
     0
100
AcDbMText
 10
8.426819
 20
17.52453446470622
 30
0.0
 40
0.3125
 41
0.0
 71
     5
 72
     1
  1
\A1;4.560
 73
     1
 44
1.0
  0
POINT
  5
2235
330
CF4
100
AcDbEntity
  8
DEFPOINTS
 62
     0
100
AcDbPoint
 10
6.146818999999999
 20
14.897473
 30
0.0
  0
POINT
  5
2236
330
CF4
100
AcDbEntity
  8
DEFPOINTS
 62
     0
100
AcDbPoint
 10
10.706819
 20
14.897473
 30
0.0
  0
POINT
  5
2237
330
CF4
100
AcDbEntity
  8
DEFPOINTS
 62
     0
100
AcDbPoint
 10
10.706819
 20
17.52453446470622
 30
0.0
  0
ENDBLK
  5
D00
330
CF4
100
AcDbEntity
  8
0
100
AcDbBlockEnd
  0
BLOCK
  5
D0D
330
D02
100
AcDbEntity
  8
0
100
AcDbBlockBegin
  2
*D11
 70
     1
 10
0.0
 20
0.0
 30
0.0
  3
*D11
  1

  0
LINE
  5
2274
330
D02
100
AcDbEntity
  8
DIM
 62
     0
370
    -2
100
AcDbLine
 10
5.556818999999999
 20
15.088785
 30
0.0
 11
5.556818999999999
 21
19.01139610411809
 31
0.0
  0
LINE
  5
2275
330
D02
100
AcDbEntity
  8
DIM
 62
     0
370
    -2
100
AcDbLine
 10
11.296819
 20
15.088785
 30
0.0
 11
11.296819
 21
19.01139610411809
 31
0.0
  0
LINE
  5
2276
330
D02
100
AcDbEntity
  8
DIM
 62
     0
370
    -2
100
AcDbLine
 10
6.006819
 20
18.77889610411808
 30
0.0
 11
7.752600250000002
 21
18.77889610411808
 31
0.0
  0
LINE
  5
2277
330
D02
100
AcDbEntity
  8
DIM
 62
     0
370
    -2
100
AcDbLine
 10
10.846819
 20
18.77889610411808
 30
0.0
 11
9.101037750000001
 21
18.77889610411808
 31
0.0
  0
SOLID
  5
2278
330
D02
100
AcDbEntity
  8
DIM
 62
     0
100
AcDbTrace
 10
6.006819
 20
18.85389610411809
 30
0.0
 11
6.006819
 21
18.70389610411809
 31
0.0
 12
5.556818999999999
 22
18.77889610411808
 32
0.0
 13
5.556818999999999
 23
18.77889610411808
 33
0.0
  0
SOLID
  5
2279
330
D02
100
AcDbEntity
  8
DIM
 62
     0
100
AcDbTrace
 10
10.846819
 20
18.85389610411809
 30
0.0
 11
10.846819
 21
18.70389610411809
 31
0.0
 12
11.296819
 22
18.77889610411808
 32
0.0
 13
11.296819
 23
18.77889610411808
 33
0.0
  0
MTEXT
  5
227A
330
D02
100
AcDbEntity
  8
DIM
 62
     0
100
AcDbMText
 10
8.426819000000001
 20
18.77889610411808
 30
0.0
 40
0.3125
 41
0.0
 71
     5
 72
     1
  1
\A1;5.740
 73
     1
 44
1.0
  0
POINT
  5
227B
330
D02
100
AcDbEntity
  8
DEFPOINTS
 62
     0
100
AcDbPoint
 10
5.556818999999999
 20
14.931285
 30
0.0
  0
POINT
  5
227C
330
D02
100
AcDbEntity
  8
DEFPOINTS
 62
     0
100
AcDbPoint
 10
11.296819
 20
14.931285
 30
0.0
  0
POINT
  5
227D
330
D02
100
AcDbEntity
  8
DEFPOINTS
 62
     0
100
AcDbPoint
 10
11.296819
 20
18.77889610411808
 30
0.0
  0
ENDBLK
  5
D0E
330
D02
100
AcDbEntity
  8
0
100
AcDbBlockEnd
  0
BLOCK
  5
D1B
330
D10
100
AcDbEntity
  8
0
100
AcDbBlockBegin
  2
*D12
 70
     1
 10
0.0
 20
0.0
 30
0.0
  3
*D12
  1

  0
LINE
  5
1D96
330
D10
100
AcDbEntity
  8
DIM
 62
     0
370
    -2
100
AcDbLine
 10
5.731819
 20
12.69103499999999
 30
0.0
 11
5.731819
 21
11.94239799999999
 31
0.0
  0
LINE
  5
1D97
330
D10
100
AcDbEntity
  8
DIM
 62
     0
370
    -2
100
AcDbLine
 10
5.556818999999999
 20
12.33239799999999
 30
0.0
 11
5.556818999999999
 21
12.407398
 31
0.0
  0
LINE
  5
1D98
330
D10
100
AcDbEntity
  8
DIM
 62
     0
370
    -2
100
AcDbLine
 10
6.181819
 20
12.174898
 30
0.0
 11
6.631819
 21
12.174898
 31
0.0
  0
LINE
  5
1D99
330
D10
100
AcDbEntity
  8
DIM
 62
     0
370
    -2
100
AcDbLine
 10
5.106818999999999
 20
12.174898
 30
0.0
 11
4.656818999999999
 21
12.174898
 31
0.0
  0
SOLID
  5
1D9A
330
D10
100
AcDbEntity
  8
DIM
 62
     0
100
AcDbTrace
 10
6.181819
 20
12.24989799999999
 30
0.0
 11
6.181819
 21
12.099898
 31
0.0
 12
5.731819
 22
12.174898
 32
0.0
 13
5.731819
 23
12.174898
 33
0.0
  0
SOLID
  5
1D9B
330
D10
100
AcDbEntity
  8
DIM
 62
     0
100
AcDbTrace
 10
5.106818999999999
 20
12.24989799999999
 30
0.0
 11
5.106818999999999
 21
12.099898
 31
0.0
 12
5.556818999999999
 22
12.174898
 32
0.0
 13
5.556818999999999
 23
12.174898
 33
0.0
  0
MTEXT
  5
1D9C
330
D10
100
AcDbEntity
  8
DIM
 62
     0
100
AcDbMText
 10
4.021662749999999
 20
12.174898
 30
0.0
 40
0.3125
 41
0.0
 71
     5
 72
     1
  1
\A1;0.175
 73
     1
 44
1.0
  0
POINT
  5
1D9D
330
D10
100
AcDbEntity
  8
DEFPOINTS
 62
     0
100
AcDbPoint
 10
5.731819
 20
12.848535
 30
0.0
  0
POINT
  5
1D9E
330
D10
100
AcDbEntity
  8
DEFPOINTS
 62
     0
100
AcDbPoint
 10
5.556818999999999
 20
12.174898
 30
0.0
  0
POINT
  5
1D9F
330
D10
100
AcDbEntity
  8
DEFPOINTS
 62
     0
100
AcDbPoint
 10
5.556818999999999
 20
12.174898
 30
0.0
  0
ENDBLK
  5
D1C
330
D10
100
AcDbEntity
  8
0
100
AcDbBlockEnd
  0
BLOCK
  5
D29
330
D1E
100
AcDbEntity
  8
0
100
AcDbBlockBegin
  2
*D13
 70
     1
 10
0.0
 20
0.0
 30
0.0
  3
*D13
  1

  0
LINE
  5
1DA0
330
D1E
100
AcDbEntity
  8
DIM
 62
     0
370
    -2
100
AcDbLine
 10
11.121819
 20
12.69103499999999
 30
0.0
 11
11.121819
 21
11.94239799999999
 31
0.0
  0
LINE
  5
1DA1
330
D1E
100
AcDbEntity
  8
DIM
 62
     0
370
    -2
100
AcDbLine
 10
5.731819
 20
12.69103499999999
 30
0.0
 11
5.731819
 21
11.94239799999999
 31
0.0
  0
LINE
  5
1DA2
330
D1E
100
AcDbEntity
  8
DIM
 62
     0
370
    -2
100
AcDbLine
 10
10.671819
 20
12.174898
 30
0.0
 11
8.775492121355545
 21
12.174898
 31
0.0
  0
LINE
  5
1DA3
330
D1E
100
AcDbEntity
  8
DIM
 62
     0
370
    -2
100
AcDbLine
 10
6.181819
 20
12.174898
 30
0.0
 11
7.427054621355546
 21
12.174898
 31
0.0
  0
SOLID
  5
1DA4
330
D1E
100
AcDbEntity
  8
DIM
 62
     0
100
AcDbTrace
 10
10.671819
 20
12.24989799999999
 30
0.0
 11
10.671819
 21
12.099898
 31
0.0
 12
11.121819
 22
12.174898
 32
0.0
 13
11.121819
 23
12.174898
 33
0.0
  0
SOLID
  5
1DA5
330
D1E
100
AcDbEntity
  8
DIM
 62
     0
100
AcDbTrace
 10
6.181819
 20
12.24989799999999
 30
0.0
 11
6.181819
 21
12.099898
 31
0.0
 12
5.731819
 22
12.174898
 32
0.0
 13
5.731819
 23
12.174898
 33
0.0
  0
MTEXT
  5
1DA6
330
D1E
100
AcDbEntity
  8
DIM
 62
     0
100
AcDbMText
 10
8.101273371355546
 20
12.174898
 30
0.0
 40
0.3125
 41
0.0
 71
     5
 72
     1
  1
\A1;5.390
 73
     1
 44
1.0
  0
POINT
  5
1DA7
330
D1E
100
AcDbEntity
  8
DEFPOINTS
 62
     0
100
AcDbPoint
 10
11.121819
 20
12.848535
 30
0.0
  0
POINT
  5
1DA8
330
D1E
100
AcDbEntity
  8
DEFPOINTS
 62
     0
100
AcDbPoint
 10
5.731819
 20
12.848535
 30
0.0
  0
POINT
  5
1DA9
330
D1E
100
AcDbEntity
  8
DEFPOINTS
 62
     0
100
AcDbPoint
 10
5.731819
 20
12.174898
 30
0.0
  0
ENDBLK
  5
D2A
330
D1E
100
AcDbEntity
  8
0
100
AcDbBlockEnd
  0
BLOCK
  5
D37
330
D2C
100
AcDbEntity
  8
0
100
AcDbBlockBegin
  2
*D14
 70
     1
 10
0.0
 20
0.0
 30
0.0
  3
*D14
  1

  0
LINE
  5
2148
330
D2C
100
AcDbEntity
  8
DIM
 62
     0
370
    -2
100
AcDbLine
 10
5.556818999999999
 20
15.372285
 30
0.0
 11
5.556818999999999
 21
15.82177584573545
 31
0.0
  0
LINE
  5
2149
330
D2C
100
AcDbEntity
  8
DIM
 62
     0
370
    -2
100
AcDbLine
 10
7.659318999999999
 20
14.205035
 30
0.0
 11
7.659318999999999
 21
15.82177584573545
 31
0.0
  0
LINE
  5
214A
330
D2C
100
AcDbEntity
  8
DIM
 62
     0
370
    -2
100
AcDbLine
 10
5.106818999999999
 20
15.58927584573545
 30
0.0
 11
4.656819
 21
15.58927584573545
 31
0.0
  0
LINE
  5
214B
330
D2C
100
AcDbEntity
  8
DIM
 62
     0
370
    -2
100
AcDbLine
 10
8.109318999999999
 20
15.58927584573545
 30
0.0
 11
8.559319
 21
15.58927584573545
 31
0.0
  0
SOLID
  5
214C
330
D2C
100
AcDbEntity
  8
DIM
 62
     0
100
AcDbTrace
 10
5.106818999999999
 20
15.66427584573545
 30
0.0
 11
5.106818999999999
 21
15.51427584573545
 31
0.0
 12
5.556818999999999
 22
15.58927584573545
 32
0.0
 13
5.556818999999999
 23
15.58927584573545
 33
0.0
  0
SOLID
  5
214D
330
D2C
100
AcDbEntity
  8
DIM
 62
     0
100
AcDbTrace
 10
8.109318999999999
 20
15.66427584573545
 30
0.0
 11
8.109318999999999
 21
15.51427584573545
 31
0.0
 12
7.659318999999999
 22
15.58927584573545
 32
0.0
 13
7.659318999999999
 23
15.58927584573545
 33
0.0
  0
MTEXT
  5
214E
330
D2C
100
AcDbEntity
  8
DIM
 62
     0
100
AcDbMText
 10
6.608069
 20
15.58927584573545
 30
0.0
 40
0.3125
 41
0.0
 71
     5
 72
     1
  1
\A1;     
 73
     1
 44
1.0
  0
POINT
  5
214F
330
D2C
100
AcDbEntity
  8
DEFPOINTS
 62
     0
100
AcDbPoint
 10
5.556818999999999
 20
15.214785
 30
0.0
  0
POINT
  5
2150
330
D2C
100
AcDbEntity
  8
DEFPOINTS
 62
     0
100
AcDbPoint
 10
7.659318999999999
 20
14.04753499999999
 30
0.0
  0
POINT
  5
2151
330
D2C
100
AcDbEntity
  8
DEFPOINTS
 62
     0
100
AcDbPoint
 10
7.659318999999999
 20
15.58927584573545
 30
0.0
  0
ENDBLK
  5
D38
330
D2C
100
AcDbEntity
  8
0
100
AcDbBlockEnd
  0
BLOCK
  5
D45
330
D3A
100
AcDbEntity
  8
0
100
AcDbBlockBegin
  2
*D15
 70
     1
 10
0.0
 20
0.0
 30
0.0
  3
*D15
  1

  0
LINE
  5
2198
330
D3A
100
AcDbEntity
  8
DIM
 62
     0
370
    -2
100
AcDbLine
 10
7.659318999999999
 20
14.205035
 30
0.0
 11
7.659318999999999
 21
16.403431711912
 31
0.0
  0
LINE
  5
2199
330
D3A
100
AcDbEntity
  8
DIM
 62
     0
370
    -2
100
AcDbLine
 10
9.194319
 20
14.734169
 30
0.0
 11
9.194319
 21
16.403431711912
 31
0.0
  0
LINE
  5
219A
330
D3A
100
AcDbEntity
  8
DIM
 62
     0
370
    -2
100
AcDbLine
 10
7.209318999999999
 20
16.170931711912
 30
0.0
 11
6.759318999999999
 21
16.170931711912
 31
0.0
  0
LINE
  5
219B
330
D3A
100
AcDbEntity
  8
DIM
 62
     0
370
    -2
100
AcDbLine
 10
9.644318999999999
 20
16.170931711912
 30
0.0
 11
10.094319
 21
16.170931711912
 31
0.0
  0
SOLID
  5
219C
330
D3A
100
AcDbEntity
  8
DIM
 62
     0
100
AcDbTrace
 10
7.209318999999999
 20
16.245931711912
 30
0.0
 11
7.209318999999999
 21
16.09593171191201
 31
0.0
 12
7.659318999999999
 22
16.170931711912
 32
0.0
 13
7.659318999999999
 23
16.170931711912
 33
0.0
  0
SOLID
  5
219D
330
D3A
100
AcDbEntity
  8
DIM
 62
     0
100
AcDbTrace
 10
9.644318999999999
 20
16.245931711912
 30
0.0
 11
9.644318999999999
 21
16.09593171191201
 31
0.0
 12
9.194319
 22
16.170931711912
 32
0.0
 13
9.194319
 23
16.170931711912
 33
0.0
  0
MTEXT
  5
219E
330
D3A
100
AcDbEntity
  8
DIM
 62
     0
100
AcDbMText
 10
8.426819
 20
16.170931711912
 30
0.0
 40
0.3125
 41
0.0
 71
     5
 72
     1
  1
\A1;1.535
 73
     1
 44
1.0
  0
POINT
  5
219F
330
D3A
100
AcDbEntity
  8
DEFPOINTS
 62
     0
100
AcDbPoint
 10
7.659318999999999
 20
14.04753499999999
 30
0.0
  0
POINT
  5
21A0
330
D3A
100
AcDbEntity
  8
DEFPOINTS
 62
     0
100
AcDbPoint
 10
9.194319
 20
14.576669
 30
0.0
  0
POINT
  5
21A1
330
D3A
100
AcDbEntity
  8
DEFPOINTS
 62
     0
100
AcDbPoint
 10
9.194319
 20
16.170931711912
 30
0.0
  0
ENDBLK
  5
D46
330
D3A
100
AcDbEntity
  8
0
100
AcDbBlockEnd
  0
BLOCK
  5
D53
330
D48
100
AcDbEntity
  8
0
100
AcDbBlockBegin
  2
*D16
 70
     1
 10
0.0
 20
0.0
 30
0.0
  3
*D16
  1

  0
LINE
  5
1DB4
330
D48
100
AcDbEntity
  8
DIM
 62
     0
370
    -2
100
AcDbLine
 10
11.377319
 20
6.410034999999999
 30
0.0
 11
12.208274
 21
6.410034999999999
 31
0.0
  0
LINE
  5
1DB5
330
D48
100
AcDbEntity
  8
DIM
 62
     0
370
    -2
100
AcDbLine
 10
11.515548
 20
8.617785000000001
 30
0.0
 11
12.208274
 21
8.617784999999999
 31
0.0
  0
LINE
  5
1DB6
330
D48
100
AcDbEntity
  8
DIM
 62
     0
370
    -2
100
AcDbLine
 10
11.975774
 20
6.860034999999999
 30
0.0
 11
11.975774
 21
7.13266
 31
0.0
  0
LINE
  5
1DB7
330
D48
100
AcDbEntity
  8
DIM
 62
     0
370
    -2
100
AcDbLine
 10
11.975774
 20
8.167785000000002
 30
0.0
 11
11.975774
 21
7.895159999999999
 31
0.0
  0
SOLID
  5
1DB8
330
D48
100
AcDbEntity
  8
DIM
 62
     0
100
AcDbTrace
 10
11.900774
 20
6.860034999999999
 30
0.0
 11
12.050774
 21
6.860034999999999
 31
0.0
 12
11.975774
 22
6.410034999999999
 32
0.0
 13
11.975774
 23
6.410034999999999
 33
0.0
  0
SOLID
  5
1DB9
330
D48
100
AcDbEntity
  8
DIM
 62
     0
100
AcDbTrace
 10
11.900774
 20
8.167785000000002
 30
0.0
 11
12.050774
 21
8.167785
 31
0.0
 12
11.975774
 22
8.617785000000001
 32
0.0
 13
11.975774
 23
8.617785000000001
 33
0.0
  0
MTEXT
  5
1DBA
330
D48
100
AcDbEntity
  8
DIM
 62
     0
100
AcDbMText
 10
11.97577399999999
 20
7.513910000000001
 30
0.0
 40
0.3125
 41
0.0
 71
     5
 72
     1
  1
\A1;2.208
 73
     1
 44
1.0
  0
POINT
  5
1DBB
330
D48
100
AcDbEntity
  8
DEFPOINTS
 62
     0
100
AcDbPoint
 10
11.219819
 20
6.410034999999999
 30
0.0
  0
POINT
  5
1DBC
330
D48
100
AcDbEntity
  8
DEFPOINTS
 62
     0
100
AcDbPoint
 10
11.358048
 20
8.617785000000001
 30
0.0
  0
POINT
  5
1DBD
330
D48
100
AcDbEntity
  8
DEFPOINTS
 62
     0
100
AcDbPoint
 10
11.975774
 20
8.617785000000001
 30
0.0
  0
ENDBLK
  5
D54
330
D48
100
AcDbEntity
  8
0
100
AcDbBlockEnd
  0
BLOCK
  5
D61
330
D56
100
AcDbEntity
  8
0
100
AcDbBlockBegin
  2
*D17
 70
     1
 10
0.0
 20
0.0
 30
0.0
  3
*D17
  1

  0
LINE
  5
1DBE
330
D56
100
AcDbEntity
  8
DIM
 62
     0
370
    -2
100
AcDbLine
 10
11.515548
 20
8.617785000000001
 30
0.0
 11
12.208274
 21
8.617784999999999
 31
0.0
  0
LINE
  5
1DBF
330
D56
100
AcDbEntity
  8
DIM
 62
     0
370
    -2
100
AcDbLine
 10
11.515548
 20
12.942285
 30
0.0
 11
12.208274
 21
12.942285
 31
0.0
  0
LINE
  5
1DC0
330
D56
100
AcDbEntity
  8
DIM
 62
     0
370
    -2
100
AcDbLine
 10
11.975774
 20
9.067785
 30
0.0
 11
11.975774
 21
10.78003499999999
 31
0.0
  0
LINE
  5
1DC1
330
D56
100
AcDbEntity
  8
DIM
 62
     0
370
    -2
100
AcDbLine
 10
11.975774
 20
12.492285
 30
0.0
 11
11.975774
 21
11.54253499999999
 31
0.0
  0
SOLID
  5
1DC2
330
D56
100
AcDbEntity
  8
DIM
 62
     0
100
AcDbTrace
 10
11.900774
 20
9.067785
 30
0.0
 11
12.050774
 21
9.067784999999998
 31
0.0
 12
11.975774
 22
8.617785000000001
 32
0.0
 13
11.975774
 23
8.617785000000001
 33
0.0
  0
SOLID
  5
1DC3
330
D56
100
AcDbEntity
  8
DIM
 62
     0
100
AcDbTrace
 10
11.900774
 20
12.492285
 30
0.0
 11
12.050774
 21
12.492285
 31
0.0
 12
11.975774
 22
12.942285
 32
0.0
 13
11.975774
 23
12.942285
 33
0.0
  0
MTEXT
  5
1DC4
330
D56
100
AcDbEntity
  8
DIM
 62
     0
100
AcDbMText
 10
11.975774
 20
11.161285
 30
0.0
 40
0.3125
 41
0.0
 71
     5
 72
     1
  1
\A1;4.325
 73
     1
 44
1.0
  0
POINT
  5
1DC5
330
D56
100
AcDbEntity
  8
DEFPOINTS
 62
     0
100
AcDbPoint
 10
11.358048
 20
8.617785000000001
 30
0.0
  0
POINT
  5
1DC6
330
D56
100
AcDbEntity
  8
DEFPOINTS
 62
     0
100
AcDbPoint
 10
11.358048
 20
12.942285
 30
0.0
  0
POINT
  5
1DC7
330
D56
100
AcDbEntity
  8
DEFPOINTS
 62
     0
100
AcDbPoint
 10
11.975774
 20
12.942285
 30
0.0
  0
ENDBLK
  5
D62
330
D56
100
AcDbEntity
  8
0
100
AcDbBlockEnd
  0
BLOCK
  5
D6F
330
D64
100
AcDbEntity
  8
0
100
AcDbBlockBegin
  2
*D18
 70
     1
 10
0.0
 20
0.0
 30
0.0
  3
*D18
  1

  0
LINE
  5
1DC8
330
D64
100
AcDbEntity
  8
DIM
 62
     0
370
    -2
100
AcDbLine
 10
5.476319
 20
6.410034999999999
 30
0.0
 11
0.6180249999999982
 21
6.410035
 31
0.0
  0
LINE
  5
1DC9
330
D64
100
AcDbEntity
  8
DIM
 62
     0
370
    -2
100
AcDbLine
 10
5.618069
 20
15.150035
 30
0.0
 11
0.6180250000000001
 21
15.150035
 31
0.0
  0
LINE
  5
1DCA
330
D64
100
AcDbEntity
  8
DIM
 62
     0
370
    -2
100
AcDbLine
 10
0.8505249999999982
 20
6.860035
 30
0.0
 11
0.8505249999999989
 21
10.398785
 31
0.0
  0
LINE
  5
1DCB
330
D64
100
AcDbEntity
  8
DIM
 62
     0
370
    -2
100
AcDbLine
 10
0.8505249999999998
 20
14.700035
 30
0.0
 11
0.8505249999999991
 21
11.161285
 31
0.0
  0
SOLID
  5
1DCC
330
D64
100
AcDbEntity
  8
DIM
 62
     0
100
AcDbTrace
 10
0.7755249999999983
 20
6.860035
 30
0.0
 11
0.9255249999999982
 21
6.860035
 31
0.0
 12
0.850524999999998
 22
6.410035
 32
0.0
 13
0.850524999999998
 23
6.410035
 33
0.0
  0
SOLID
  5
1DCD
330
D64
100
AcDbEntity
  8
DIM
 62
     0
100
AcDbTrace
 10
0.775525
 20
14.700035
 30
0.0
 11
0.9255249999999998
 21
14.700035
 31
0.0
 12
0.850525
 22
15.150035
 32
0.0
 13
0.850525
 23
15.150035
 33
0.0
  0
MTEXT
  5
1DCE
330
D64
100
AcDbEntity
  8
DIM
 62
     0
100
AcDbMText
 10
0.8505249999999973
 20
10.780035
 30
0.0
 40
0.3125
 41
0.0
 71
     5
 72
     1
  1
\A1;8.740
 73
     1
 44
1.0
  0
POINT
  5
1DCF
330
D64
100
AcDbEntity
  8
DEFPOINTS
 62
     0
100
AcDbPoint
 10
5.633818999999999
 20
6.410034999999999
 30
0.0
  0
POINT
  5
1DD0
330
D64
100
AcDbEntity
  8
DEFPOINTS
 62
     0
100
AcDbPoint
 10
5.775568999999999
 20
15.150035
 30
0.0
  0
POINT
  5
1DD1
330
D64
100
AcDbEntity
  8
DEFPOINTS
 62
     0
100
AcDbPoint
 10
0.850525
 20
15.150035
 30
0.0
  0
ENDBLK
  5
D70
330
D64
100
AcDbEntity
  8
0
100
AcDbBlockEnd
  0
BLOCK
  5
D7D
330
D72
100
AcDbEntity
  8
0
100
AcDbBlockBegin
  2
*D19
 70
     1
 10
0.0
 20
0.0
 30
0.0
  3
*D19
  1

  0
LINE
  5
1DD2
330
D72
100
AcDbEntity
  8
DIM
 62
     0
370
    -2
100
AcDbLine
 10
8.678069
 20
14.969035
 30
0.0
 11
8.980052000000002
 21
14.969035
 31
0.0
  0
LINE
  5
1DD3
330
D72
100
AcDbEntity
  8
DIM
 62
     0
370
    -2
100
AcDbLine
 10
8.678069
 20
6.591035
 30
0.0
 11
8.980052
 21
6.591035
 31
0.0
  0
LINE
  5
1DD4
330
D72
100
AcDbEntity
  8
DIM
 62
     0
370
    -2
100
AcDbLine
 10
8.747552000000002
 20
14.519035
 30
0.0
 11
8.747552
 21
11.161285
 31
0.0
  0
LINE
  5
1DD5
330
D72
100
AcDbEntity
  8
DIM
 62
     0
370
    -2
100
AcDbLine
 10
8.747552
 20
7.041035
 30
0.0
 11
8.747552
 21
10.398785
 31
0.0
  0
SOLID
  5
1DD6
330
D72
100
AcDbEntity
  8
DIM
 62
     0
100
AcDbTrace
 10
8.672552000000003
 20
14.519035
 30
0.0
 11
8.822552000000001
 21
14.519035
 31
0.0
 12
8.747552000000002
 22
14.969035
 32
0.0
 13
8.747552000000002
 23
14.969035
 33
0.0
  0
SOLID
  5
1DD7
330
D72
100
AcDbEntity
  8
DIM
 62
     0
100
AcDbTrace
 10
8.672552000000001
 20
7.041035
 30
0.0
 11
8.822551999999999
 21
7.041035
 31
0.0
 12
8.747552
 22
6.591035
 32
0.0
 13
8.747552
 23
6.591035
 33
0.0
  0
MTEXT
  5
1DD8
330
D72
100
AcDbEntity
  8
DIM
 62
     0
100
AcDbMText
 10
8.747551999999998
 20
10.780035
 30
0.0
 40
0.3125
 41
0.0
 71
     5
 72
     1
  1
\A1;8.378
 73
     1
 44
1.0
  0
POINT
  5
1DD9
330
D72
100
AcDbEntity
  8
DEFPOINTS
 62
     0
100
AcDbPoint
 10
8.520569
 20
14.969035
 30
0.0
  0
POINT
  5
1DDA
330
D72
100
AcDbEntity
  8
DEFPOINTS
 62
     0
100
AcDbPoint
 10
8.520569
 20
6.591035
 30
0.0
  0
POINT
  5
1DDB
330
D72
100
AcDbEntity
  8
DEFPOINTS
 62
     0
100
AcDbPoint
 10
8.747552
 20
6.591035
 30
0.0
  0
ENDBLK
  5
D7E
330
D72
100
AcDbEntity
  8
0
100
AcDbBlockEnd
  0
BLOCK
  5
D8B
330
D80
100
AcDbEntity
  8
0
100
AcDbBlockBegin
  2
*D20
 70
     1
 10
0.0
 20
0.0
 30
0.0
  3
*D20
  1

  0
LINE
  5
1DDC
330
D80
100
AcDbEntity
  8
DIM
 62
     0
370
    -2
100
AcDbLine
 10
8.678069
 20
6.591035
 30
0.0
 11
8.980052
 21
6.591035
 31
0.0
  0
LINE
  5
1DDD
330
D80
100
AcDbEntity
  8
DIM
 62
     0
370
    -2
100
AcDbLine
 10
8.618435999999999
 20
6.410034999999999
 30
0.0
 11
8.515052
 21
6.410034999999999
 31
0.0
  0
LINE
  5
1DDE
330
D80
100
AcDbEntity
  8
DIM
 62
     0
370
    -2
100
AcDbLine
 10
8.747552
 20
7.041035
 30
0.0
 11
8.747552
 21
7.491035
 31
0.0
  0
LINE
  5
1DDF
330
D80
100
AcDbEntity
  8
DIM
 62
     0
370
    -2
100
AcDbLine
 10
8.747552
 20
5.960034999999999
 30
0.0
 11
8.747552
 21
5.510035
 31
0.0
  0
LINE
  5
1DE0
330
D80
100
AcDbEntity
  8
DIM
 62
     0
370
    -2
100
AcDbLine
 10
8.747552
 20
5.510035
 30
0.0
 11
8.297552000000001
 21
5.510035
 31
0.0
  0
SOLID
  5
1DE1
330
D80
100
AcDbEntity
  8
DIM
 62
     0
100
AcDbTrace
 10
8.672552000000001
 20
7.041035
 30
0.0
 11
8.822551999999999
 21
7.041035
 31
0.0
 12
8.747552
 22
6.591035
 32
0.0
 13
8.747552
 23
6.591035
 33
0.0
  0
SOLID
  5
1DE2
330
D80
100
AcDbEntity
  8
DIM
 62
     0
100
AcDbTrace
 10
8.672552000000001
 20
5.960034999999999
 30
0.0
 11
8.822551999999999
 21
5.960034999999999
 31
0.0
 12
8.747552
 22
6.410034999999999
 32
0.0
 13
8.747552
 23
6.410034999999999
 33
0.0
  0
MTEXT
  5
1DE3
330
D80
100
AcDbEntity
  8
DIM
 62
     0
100
AcDbMText
 10
7.701458249999999
 20
5.510035000000001
 30
0.0
 40
0.3125
 41
0.0
 71
     5
 72
     1
  1
\A1;0.181
 73
     1
 44
1.0
  0
POINT
  5
1DE4
330
D80
100
AcDbEntity
  8
DEFPOINTS
 62
     0
100
AcDbPoint
 10
8.520569
 20
6.591035
 30
0.0
  0
POINT
  5
1DE5
330
D80
100
AcDbEntity
  8
DEFPOINTS
 62
     0
100
AcDbPoint
 10
8.775935999999999
 20
6.410034999999999
 30
0.0
  0
POINT
  5
1DE6
330
D80
100
AcDbEntity
  8
DEFPOINTS
 62
     0
100
AcDbPoint
 10
8.747552
 20
6.410034999999999
 30
0.0
  0
ENDBLK
  5
D8C
330
D80
100
AcDbEntity
  8
0
100
AcDbBlockEnd
  0
BLOCK
  5
DA4
330
D99
100
AcDbEntity
  8
0
100
AcDbBlockBegin
  2
*D21
 70
     1
 10
0.0
 20
0.0
 30
0.0
  3
*D21
  1

  0
LINE
  5
1DE7
330
D99
100
AcDbEntity
  8
DIM
 62
     0
370
    -2
100
AcDbLine
 10
16.997117
 20
8.574035
 30
0.0
 11
16.47556699999999
 21
8.574035
 31
0.0
  0
LINE
  5
1DE8
330
D99
100
AcDbEntity
  8
DIM
 62
     0
370
    -2
100
AcDbLine
 10
16.997117
 20
8.524035000000001
 30
0.0
 11
16.47556699999999
 21
8.524035000000001
 31
0.0
  0
LINE
  5
1DE9
330
D99
100
AcDbEntity
  8
DIM
 62
     0
370
    -2
100
AcDbLine
 10
16.70806699999999
 20
9.024034999999999
 30
0.0
 11
16.70806699999999
 21
9.474035
 31
0.0
  0
LINE
  5
1DEA
330
D99
100
AcDbEntity
  8
DIM
 62
     0
370
    -2
100
AcDbLine
 10
16.70806699999999
 20
8.074035000000002
 30
0.0
 11
16.70806699999999
 21
7.624035000000001
 31
0.0
  0
LINE
  5
1DEB
330
D99
100
AcDbEntity
  8
DIM
 62
     0
370
    -2
100
AcDbLine
 10
16.70806699999999
 20
7.624035000000001
 30
0.0
 11
16.25806699999999
 21
7.624035000000001
 31
0.0
  0
SOLID
  5
1DEC
330
D99
100
AcDbEntity
  8
DIM
 62
     0
100
AcDbTrace
 10
16.633067
 20
9.024034999999999
 30
0.0
 11
16.783067
 21
9.024034999999999
 31
0.0
 12
16.70806699999999
 22
8.574035
 32
0.0
 13
16.70806699999999
 23
8.574035
 33
0.0
  0
SOLID
  5
1DED
330
D99
100
AcDbEntity
  8
DIM
 62
     0
100
AcDbTrace
 10
16.633067
 20
8.074035000000002
 30
0.0
 11
16.783067
 21
8.074035000000002
 31
0.0
 12
16.70806699999999
 22
8.524035000000001
 32
0.0
 13
16.70806699999999
 23
8.524035000000001
 33
0.0
  0
MTEXT
  5
1DEE
330
D99
100
AcDbEntity
  8
DIM
 62
     0
100
AcDbMText
 10
15.62291074999999
 20
7.624035000000003
 30
0.0
 40
0.3125
 41
0.0
 71
     5
 72
     1
  1
\A1;0.050
 73
     1
 44
1.0
  0
POINT
  5
1DEF
330
D99
100
AcDbEntity
  8
DEFPOINTS
 62
     0
100
AcDbPoint
 10
17.154617
 20
8.574035
 30
0.0
  0
POINT
  5
1DF0
330
D99
100
AcDbEntity
  8
DEFPOINTS
 62
     0
100
AcDbPoint
 10
17.154617
 20
8.524035000000001
 30
0.0
  0
POINT
  5
1DF1
330
D99
100
AcDbEntity
  8
DEFPOINTS
 62
     0
100
AcDbPoint
 10
16.70806699999999
 20
8.524035000000001
 30
0.0
  0
ENDBLK
  5
DA5
330
D99
100
AcDbEntity
  8
0
100
AcDbBlockEnd
  0
BLOCK
  5
DB2
330
DA7
100
AcDbEntity
  8
0
100
AcDbBlockBegin
  2
*D22
 70
     1
 10
0.0
 20
0.0
 30
0.0
  3
*D22
  1

  0
LINE
  5
1DF2
330
DA7
100
AcDbEntity
  8
DIM
 62
     0
370
    -2
100
AcDbLine
 10
17.154617
 20
8.869035000000002
 30
0.0
 11
17.154617
 21
10.392524
 31
0.0
  0
LINE
  5
1DF3
330
DA7
100
AcDbEntity
  8
DIM
 62
     0
370
    -2
100
AcDbLine
 10
17.044242
 20
10.317524
 30
0.0
 11
17.044242
 21
10.392524
 31
0.0
  0
LINE
  5
1DF4
330
DA7
100
AcDbEntity
  8
DIM
 62
     0
370
    -2
100
AcDbLine
 10
17.604617
 20
10.160024
 30
0.0
 11
18.054617
 21
10.160024
 31
0.0
  0
LINE
  5
1DF5
330
DA7
100
AcDbEntity
  8
DIM
 62
     0
370
    -2
100
AcDbLine
 10
16.594242
 20
10.160024
 30
0.0
 11
16.144242
 21
10.160024
 31
0.0
  0
SOLID
  5
1DF6
330
DA7
100
AcDbEntity
  8
DIM
 62
     0
100
AcDbTrace
 10
17.604617
 20
10.23502399999999
 30
0.0
 11
17.604617
 21
10.085024
 31
0.0
 12
17.154617
 22
10.160024
 32
0.0
 13
17.154617
 23
10.160024
 33
0.0
  0
SOLID
  5
1DF7
330
DA7
100
AcDbEntity
  8
DIM
 62
     0
100
AcDbTrace
 10
16.594242
 20
10.23502399999999
 30
0.0
 11
16.594242
 21
10.085024
 31
0.0
 12
17.044242
 22
10.160024
 32
0.0
 13
17.044242
 23
10.160024
 33
0.0
  0
MTEXT
  5
1DF8
330
DA7
100
AcDbEntity
  8
DIM
 62
     0
100
AcDbMText
 10
15.5676795
 20
10.160024
 30
0.0
 40
0.3125
 41
0.0
 71
     5
 72
     1
  1
\A1;0.110
 73
     1
 44
1.0
  0
POINT
  5
1DF9
330
DA7
100
AcDbEntity
  8
DEFPOINTS
 62
     0
100
AcDbPoint
 10
17.154617
 20
8.711535000000001
 30
0.0
  0
POINT
  5
1DFA
330
DA7
100
AcDbEntity
  8
DEFPOINTS
 62
     0
100
AcDbPoint
 10
17.044242
 20
10.160024
 30
0.0
  0
POINT
  5
1DFB
330
DA7
100
AcDbEntity
  8
DEFPOINTS
 62
     0
100
AcDbPoint
 10
17.044242
 20
10.160024
 30
0.0
  0
ENDBLK
  5
DB3
330
DA7
100
AcDbEntity
  8
0
100
AcDbBlockEnd
  0
BLOCK
  5
DC2
330
DB7
100
AcDbEntity
  8
0
100
AcDbBlockBegin
  2
*D23
 70
     1
 10
0.0
 20
0.0
 30
0.0
  3
*D23
  1

  0
LINE
  5
205B
330
DB7
100
AcDbEntity
  8
DIM
 62
     0
370
    -2
100
AcDbLine
 10
18.684242
 20
6.315034999999999
 30
0.0
 11
18.684242
 21
5.141676999999999
 31
0.0
  0
LINE
  5
205C
330
DB7
100
AcDbEntity
  8
DIM
 62
     0
370
    -2
100
AcDbLine
 10
18.38724206604382
 20
6.894079655598965
 30
0.0
 11
18.38724206604382
 21
5.141676999999999
 31
0.0
  0
LINE
  5
205D
330
DB7
100
AcDbEntity
  8
DIM
 62
     0
370
    -2
100
AcDbLine
 10
19.134242
 20
5.374176999999999
 30
0.0
 11
19.58424199999999
 21
5.374176999999999
 31
0.0
  0
LINE
  5
205E
330
DB7
100
AcDbEntity
  8
DIM
 62
     0
370
    -2
100
AcDbLine
 10
17.93724206604382
 20
5.374176999999999
 30
0.0
 11
17.48724206604382
 21
5.374176999999999
 31
0.0
  0
SOLID
  5
205F
330
DB7
100
AcDbEntity
  8
DIM
 62
     0
100
AcDbTrace
 10
19.134242
 20
5.449176999999999
 30
0.0
 11
19.134242
 21
5.299176999999999
 31
0.0
 12
18.684242
 22
5.374176999999999
 32
0.0
 13
18.684242
 23
5.374176999999999
 33
0.0
  0
SOLID
  5
2060
330
DB7
100
AcDbEntity
  8
DIM
 62
     0
100
AcDbTrace
 10
17.93724206604382
 20
5.449176999999999
 30
0.0
 11
17.93724206604382
 21
5.299176999999999
 31
0.0
 12
18.38724206604382
 22
5.374176999999999
 32
0.0
 13
18.38724206604382
 23
5.374176999999999
 33
0.0
  0
MTEXT
  5
2061
330
DB7
100
AcDbEntity
  8
DIM
 62
     0
100
AcDbMText
 10
16.81302331604382
 20
5.374176999999999
 30
0.0
 40
0.3125
 41
0.0
 71
     5
 72
     1
  1
\A1;0.297
 73
     1
 44
1.0
  0
POINT
  5
2062
330
DB7
100
AcDbEntity
  8
DEFPOINTS
 62
     0
100
AcDbPoint
 10
18.684242
 20
6.472534999999999
 30
0.0
  0
POINT
  5
2063
330
DB7
100
AcDbEntity
  8
DEFPOINTS
 62
     0
100
AcDbPoint
 10
18.38724206604382
 20
7.051579655598965
 30
0.0
  0
POINT
  5
2064
330
DB7
100
AcDbEntity
  8
DEFPOINTS
 62
     0
100
AcDbPoint
 10
18.38724206604382
 20
5.374176999999999
 30
0.0
  0
ENDBLK
  5
DC3
330
DB7
100
AcDbEntity
  8
0
100
AcDbBlockEnd
  0
BLOCK
  5
DD5
330
DCA
100
AcDbEntity
  8
0
100
AcDbBlockBegin
  2
*D24
 70
     1
 10
0.0
 20
0.0
 30
0.0
  3
*D24
  1

  0
LINE
  5
20DD
330
DCA
100
AcDbEntity
  8
DIM
 62
     0
370
    -2
100
AcDbLine
 10
25.13372746702855
 20
15.062785
 30
0.0
 11
25.13372746702855
 21
16.275322
 31
0.0
  0
LINE
  5
20DE
330
DCA
100
AcDbEntity
  8
DIM
 62
     0
370
    -2
100
AcDbLine
 10
24.89747746702855
 20
15.088785
 30
0.0
 11
24.89747746702855
 21
16.275322
 31
0.0
  0
LINE
  5
20DF
330
DCA
100
AcDbEntity
  8
DIM
 62
     0
370
    -2
100
AcDbLine
 10
25.58372746702854
 20
16.042822
 30
0.0
 11
26.03372746702854
 21
16.042822
 31
0.0
  0
LINE
  5
20E0
330
DCA
100
AcDbEntity
  8
DIM
 62
     0
370
    -2
100
AcDbLine
 10
24.44747746702855
 20
16.042822
 30
0.0
 11
23.99747746702855
 21
16.042822
 31
0.0
  0
SOLID
  5
20E1
330
DCA
100
AcDbEntity
  8
DIM
 62
     0
100
AcDbTrace
 10
25.58372746702854
 20
16.117822
 30
0.0
 11
25.58372746702854
 21
15.967822
 31
0.0
 12
25.13372746702855
 22
16.042822
 32
0.0
 13
25.13372746702855
 23
16.042822
 33
0.0
  0
SOLID
  5
20E2
330
DCA
100
AcDbEntity
  8
DIM
 62
     0
100
AcDbTrace
 10
24.44747746702855
 20
16.117822
 30
0.0
 11
24.44747746702855
 21
15.967822
 31
0.0
 12
24.89747746702855
 22
16.042822
 32
0.0
 13
24.89747746702855
 23
16.042822
 33
0.0
  0
MTEXT
  5
20E3
330
DCA
100
AcDbEntity
  8
DIM
 62
     0
100
AcDbMText
 10
23.32325871702855
 20
16.042822
 30
0.0
 40
0.3125
 41
0.0
 71
     5
 72
     1
  1
\A1;0.236
 73
     1
 44
1.0
  0
POINT
  5
20E4
330
DCA
100
AcDbEntity
  8
DEFPOINTS
 62
     0
100
AcDbPoint
 10
25.13372746702855
 20
14.905285
 30
0.0
  0
POINT
  5
20E5
330
DCA
100
AcDbEntity
  8
DEFPOINTS
 62
     0
100
AcDbPoint
 10
24.89747746702855
 20
14.931285
 30
0.0
  0
POINT
  5
20E6
330
DCA
100
AcDbEntity
  8
DEFPOINTS
 62
     0
100
AcDbPoint
 10
24.89747746702855
 20
16.042822
 30
0.0
  0
ENDBLK
  5
DD6
330
DCA
100
AcDbEntity
  8
0
100
AcDbBlockEnd
  0
BLOCK
  5
DE3
330
DD8
100
AcDbEntity
  8
0
100
AcDbBlockBegin
  2
*D25
 70
     1
 10
0.0
 20
0.0
 30
0.0
  3
*D25
  1

  0
LINE
  5
20D3
330
DD8
100
AcDbEntity
  8
DIM
 62
     0
370
    -2
100
AcDbLine
 10
30.40122746702855
 20
15.062785
 30
0.0
 11
30.40122746702855
 21
16.275322
 31
0.0
  0
LINE
  5
20D4
330
DD8
100
AcDbEntity
  8
DIM
 62
     0
370
    -2
100
AcDbLine
 10
25.13372746702855
 20
15.062785
 30
0.0
 11
25.13372746702855
 21
16.275322
 31
0.0
  0
LINE
  5
20D5
330
DD8
100
AcDbEntity
  8
DIM
 62
     0
370
    -2
100
AcDbLine
 10
29.95122746702855
 20
16.042822
 30
0.0
 11
28.46122746702855
 21
16.042822
 31
0.0
  0
LINE
  5
20D6
330
DD8
100
AcDbEntity
  8
DIM
 62
     0
370
    -2
100
AcDbLine
 10
25.58372746702854
 20
16.042822
 30
0.0
 11
27.07372746702854
 21
16.042822
 31
0.0
  0
SOLID
  5
20D7
330
DD8
100
AcDbEntity
  8
DIM
 62
     0
100
AcDbTrace
 10
29.95122746702855
 20
16.117822
 30
0.0
 11
29.95122746702855
 21
15.967822
 31
0.0
 12
30.40122746702855
 22
16.042822
 32
0.0
 13
30.40122746702855
 23
16.042822
 33
0.0
  0
SOLID
  5
20D8
330
DD8
100
AcDbEntity
  8
DIM
 62
     0
100
AcDbTrace
 10
25.58372746702854
 20
16.117822
 30
0.0
 11
25.58372746702854
 21
15.967822
 31
0.0
 12
25.13372746702855
 22
16.042822
 32
0.0
 13
25.13372746702855
 23
16.042822
 33
0.0
  0
MTEXT
  5
20D9
330
DD8
100
AcDbEntity
  8
DIM
 62
     0
100
AcDbMText
 10
27.76747746702854
 20
16.042822
 30
0.0
 40
0.3125
 41
0.0
 71
     5
 72
     1
  1
\A1;5.268
 73
     1
 44
1.0
  0
POINT
  5
20DA
330
DD8
100
AcDbEntity
  8
DEFPOINTS
 62
     0
100
AcDbPoint
 10
30.40122746702855
 20
14.905285
 30
0.0
  0
POINT
  5
20DB
330
DD8
100
AcDbEntity
  8
DEFPOINTS
 62
     0
100
AcDbPoint
 10
25.13372746702855
 20
14.905285
 30
0.0
  0
POINT
  5
20DC
330
DD8
100
AcDbEntity
  8
DEFPOINTS
 62
     0
100
AcDbPoint
 10
25.13372746702855
 20
16.042822
 30
0.0
  0
ENDBLK
  5
DE4
330
DD8
100
AcDbEntity
  8
0
100
AcDbBlockEnd
  0
BLOCK
  5
DF1
330
DE6
100
AcDbEntity
  8
0
100
AcDbBlockBegin
  2
*D26
 70
     1
 10
0.0
 20
0.0
 30
0.0
  3
*D26
  1

  0
LINE
  5
208A
330
DE6
100
AcDbEntity
  8
DIM
 62
     0
370
    -2
100
AcDbLine
 10
24.95922746702855
 20
6.654785
 30
0.0
 11
23.81904346702854
 21
6.654785
 31
0.0
  0
LINE
  5
208B
330
DE6
100
AcDbEntity
  8
DIM
 62
     0
370
    -2
100
AcDbLine
 10
24.95872746702855
 20
6.410034999999999
 30
0.0
 11
23.81904346702854
 21
6.410034999999999
 31
0.0
  0
LINE
  5
208C
330
DE6
100
AcDbEntity
  8
DIM
 62
     0
370
    -2
100
AcDbLine
 10
24.05154346702855
 20
7.104785
 30
0.0
 11
24.05154346702855
 21
7.554785
 31
0.0
  0
LINE
  5
208D
330
DE6
100
AcDbEntity
  8
DIM
 62
     0
370
    -2
100
AcDbLine
 10
24.05154346702855
 20
5.960034999999999
 30
0.0
 11
24.05154346702855
 21
5.510035
 31
0.0
  0
LINE
  5
208E
330
DE6
100
AcDbEntity
  8
DIM
 62
     0
370
    -2
100
AcDbLine
 10
24.05154346702855
 20
5.510035
 30
0.0
 11
23.60154346702855
 21
5.510035
 31
0.0
  0
SOLID
  5
208F
330
DE6
100
AcDbEntity
  8
DIM
 62
     0
100
AcDbTrace
 10
23.97654346702855
 20
7.104785
 30
0.0
 11
24.12654346702855
 21
7.104785
 31
0.0
 12
24.05154346702855
 22
6.654785
 32
0.0
 13
24.05154346702855
 23
6.654785
 33
0.0
  0
SOLID
  5
2090
330
DE6
100
AcDbEntity
  8
DIM
 62
     0
100
AcDbTrace
 10
23.97654346702855
 20
5.960034999999999
 30
0.0
 11
24.12654346702855
 21
5.960034999999999
 31
0.0
 12
24.05154346702855
 22
6.410034999999999
 32
0.0
 13
24.05154346702855
 23
6.410034999999999
 33
0.0
  0
MTEXT
  5
2091
330
DE6
100
AcDbEntity
  8
DIM
 62
     0
100
AcDbMText
 10
22.92732471702854
 20
5.510035000000003
 30
0.0
 40
0.3125
 41
0.0
 71
     5
 72
     1
  1
\A1;0.245
 73
     1
 44
1.0
  0
POINT
  5
2092
330
DE6
100
AcDbEntity
  8
DEFPOINTS
 62
     0
100
AcDbPoint
 10
25.11672746702855
 20
6.654785
 30
0.0
  0
POINT
  5
2093
330
DE6
100
AcDbEntity
  8
DEFPOINTS
 62
     0
100
AcDbPoint
 10
25.11622746702855
 20
6.410034999999999
 30
0.0
  0
POINT
  5
2094
330
DE6
100
AcDbEntity
  8
DEFPOINTS
 62
     0
100
AcDbPoint
 10
24.05154346702855
 20
6.410034999999999
 30
0.0
  0
ENDBLK
  5
DF2
330
DE6
100
AcDbEntity
  8
0
100
AcDbBlockEnd
  0
BLOCK
  5
DFF
330
DF4
100
AcDbEntity
  8
0
100
AcDbBlockBegin
  2
*D27
 70
     1
 10
0.0
 20
0.0
 30
0.0
  3
*D27
  1

  0
LINE
  5
2080
330
DF4
100
AcDbEntity
  8
DIM
 62
     0
370
    -2
100
AcDbLine
 10
24.95922746702855
 20
10.780035
 30
0.0
 11
23.81904346702855
 21
10.780035
 31
0.0
  0
LINE
  5
2081
330
DF4
100
AcDbEntity
  8
DIM
 62
     0
370
    -2
100
AcDbLine
 10
24.95922746702855
 20
6.654785
 30
0.0
 11
23.81904346702854
 21
6.654785
 31
0.0
  0
LINE
  5
2082
330
DF4
100
AcDbEntity
  8
DIM
 62
     0
370
    -2
100
AcDbLine
 10
24.05154346702855
 20
10.330035
 30
0.0
 11
24.05154346702855
 21
9.09866
 31
0.0
  0
LINE
  5
2083
330
DF4
100
AcDbEntity
  8
DIM
 62
     0
370
    -2
100
AcDbLine
 10
24.05154346702855
 20
7.104785
 30
0.0
 11
24.05154346702855
 21
8.336160000000001
 31
0.0
  0
SOLID
  5
2084
330
DF4
100
AcDbEntity
  8
DIM
 62
     0
100
AcDbTrace
 10
23.97654346702855
 20
10.330035
 30
0.0
 11
24.12654346702855
 21
10.330035
 31
0.0
 12
24.05154346702855
 22
10.780035
 32
0.0
 13
24.05154346702855
 23
10.780035
 33
0.0
  0
SOLID
  5
2085
330
DF4
100
AcDbEntity
  8
DIM
 62
     0
100
AcDbTrace
 10
23.97654346702855
 20
7.104785
 30
0.0
 11
24.12654346702855
 21
7.104785
 31
0.0
 12
24.05154346702855
 22
6.654785
 32
0.0
 13
24.05154346702855
 23
6.654785
 33
0.0
  0
MTEXT
  5
2086
330
DF4
100
AcDbEntity
  8
DIM
 62
     0
100
AcDbMText
 10
24.05154346702855
 20
8.717410000000004
 30
0.0
 40
0.3125
 41
0.0
 71
     5
 72
     1
  1
\A1;4.125
 73
     1
 44
1.0
  0
POINT
  5
2087
330
DF4
100
AcDbEntity
  8
DEFPOINTS
 62
     0
100
AcDbPoint
 10
25.11672746702855
 20
10.780035
 30
0.0
  0
POINT
  5
2088
330
DF4
100
AcDbEntity
  8
DEFPOINTS
 62
     0
100
AcDbPoint
 10
25.11672746702855
 20
6.654785
 30
0.0
  0
POINT
  5
2089
330
DF4
100
AcDbEntity
  8
DEFPOINTS
 62
     0
100
AcDbPoint
 10
24.05154346702855
 20
6.654785
 30
0.0
  0
ENDBLK
  5
E00
330
DF4
100
AcDbEntity
  8
0
100
AcDbBlockEnd
  0
BLOCK
  5
E0D
330
E02
100
AcDbEntity
  8
0
100
AcDbBlockBegin
  2
*D28
 70
     1
 10
0.0
 20
0.0
 30
0.0
  3
*D28
  1

  0
LINE
  5
2076
330
E02
100
AcDbEntity
  8
DIM
 62
     0
370
    -2
100
AcDbLine
 10
24.97622746702855
 20
14.905285
 30
0.0
 11
23.81904346702855
 21
14.905285
 31
0.0
  0
LINE
  5
2077
330
E02
100
AcDbEntity
  8
DIM
 62
     0
370
    -2
100
AcDbLine
 10
24.95922746702855
 20
10.780035
 30
0.0
 11
23.81904346702855
 21
10.780035
 31
0.0
  0
LINE
  5
2078
330
E02
100
AcDbEntity
  8
DIM
 62
     0
370
    -2
100
AcDbLine
 10
24.05154346702855
 20
14.455285
 30
0.0
 11
24.05154346702855
 21
13.22391
 31
0.0
  0
LINE
  5
2079
330
E02
100
AcDbEntity
  8
DIM
 62
     0
370
    -2
100
AcDbLine
 10
24.05154346702855
 20
11.230035
 30
0.0
 11
24.05154346702855
 21
12.46141
 31
0.0
  0
SOLID
  5
207A
330
E02
100
AcDbEntity
  8
DIM
 62
     0
100
AcDbTrace
 10
23.97654346702855
 20
14.455285
 30
0.0
 11
24.12654346702855
 21
14.455285
 31
0.0
 12
24.05154346702855
 22
14.905285
 32
0.0
 13
24.05154346702855
 23
14.905285
 33
0.0
  0
SOLID
  5
207B
330
E02
100
AcDbEntity
  8
DIM
 62
     0
100
AcDbTrace
 10
23.97654346702855
 20
11.230035
 30
0.0
 11
24.12654346702855
 21
11.230035
 31
0.0
 12
24.05154346702855
 22
10.780035
 32
0.0
 13
24.05154346702855
 23
10.780035
 33
0.0
  0
MTEXT
  5
207C
330
E02
100
AcDbEntity
  8
DIM
 62
     0
100
AcDbMText
 10
24.05154346702854
 20
12.84266
 30
0.0
 40
0.3125
 41
0.0
 71
     5
 72
     1
  1
\A1;4.125
 73
     1
 44
1.0
  0
POINT
  5
207D
330
E02
100
AcDbEntity
  8
DEFPOINTS
 62
     0
100
AcDbPoint
 10
25.13372746702855
 20
14.905285
 30
0.0
  0
POINT
  5
207E
330
E02
100
AcDbEntity
  8
DEFPOINTS
 62
     0
100
AcDbPoint
 10
25.11672746702855
 20
10.780035
 30
0.0
  0
POINT
  5
207F
330
E02
100
AcDbEntity
  8
DEFPOINTS
 62
     0
100
AcDbPoint
 10
24.05154346702855
 20
10.780035
 30
0.0
  0
ENDBLK
  5
E0E
330
E02
100
AcDbEntity
  8
0
100
AcDbBlockEnd
  0
BLOCK
  5
E1B
330
E10
100
AcDbEntity
  8
0
100
AcDbBlockBegin
  2
*D29
 70
     1
 10
0.0
 20
0.0
 30
0.0
  3
*D29
  1

  0
LINE
  5
2125
330
E10
100
AcDbEntity
  8
DIM
 62
     0
370
    -2
100
AcDbLine
 10
37.08968361253534
 20
15.16346
 30
0.0
 11
37.08968361253534
 21
17.335544
 31
0.0
  0
LINE
  5
2126
330
E10
100
AcDbEntity
  8
DIM
 62
     0
370
    -2
100
AcDbLine
 10
39.26068361253534
 20
15.16346
 30
0.0
 11
39.26068361253534
 21
17.335544
 31
0.0
  0
LINE
  5
2127
330
E10
100
AcDbEntity
  8
DIM
 62
     0
370
    -2
100
AcDbLine
 10
36.63968361253534
 20
17.103044
 30
0.0
 11
36.18968361253534
 21
17.103044
 31
0.0
  0
LINE
  5
2128
330
E10
100
AcDbEntity
  8
DIM
 62
     0
370
    -2
100
AcDbLine
 10
39.71068361253534
 20
17.103044
 30
0.0
 11
40.16068361253534
 21
17.103044
 31
0.0
  0
SOLID
  5
2129
330
E10
100
AcDbEntity
  8
DIM
 62
     0
100
AcDbTrace
 10
36.63968361253534
 20
17.178044
 30
0.0
 11
36.63968361253534
 21
17.028044
 31
0.0
 12
37.08968361253534
 22
17.103044
 32
0.0
 13
37.08968361253534
 23
17.103044
 33
0.0
  0
SOLID
  5
212A
330
E10
100
AcDbEntity
  8
DIM
 62
     0
100
AcDbTrace
 10
39.71068361253534
 20
17.178044
 30
0.0
 11
39.71068361253534
 21
17.028044
 31
0.0
 12
39.26068361253534
 22
17.103044
 32
0.0
 13
39.26068361253534
 23
17.103044
 33
0.0
  0
MTEXT
  5
212B
330
E10
100
AcDbEntity
  8
DIM
 62
     0
100
AcDbMText
 10
38.17518361253535
 20
17.103044
 30
0.0
 40
0.3125
 41
0.0
 71
     5
 72
     1
  1
\A1;2.165
 73
     1
 44
1.0
  0
POINT
  5
212C
330
E10
100
AcDbEntity
  8
DEFPOINTS
 62
     0
100
AcDbPoint
 10
37.08968361253534
 20
15.00595999999999
 30
0.0
  0
POINT
  5
212D
330
E10
100
AcDbEntity
  8
DEFPOINTS
 62
     0
100
AcDbPoint
 10
39.26068361253534
 20
15.00595999999999
 30
0.0
  0
POINT
  5
212E
330
E10
100
AcDbEntity
  8
DEFPOINTS
 62
     0
100
AcDbPoint
 10
39.26068361253534
 20
17.103044
 30
0.0
  0
ENDBLK
  5
E1C
330
E10
100
AcDbEntity
  8
0
100
AcDbBlockEnd
  0
BLOCK
  5
E29
330
E1E
100
AcDbEntity
  8
0
100
AcDbBlockBegin
  2
*D30
 70
     1
 10
0.0
 20
0.0
 30
0.0
  3
*D30
  1

  0
LINE
  5
206C
330
E1E
100
AcDbEntity
  8
DIM
 62
     0
370
    -2
100
AcDbLine
 10
24.95872746702855
 20
6.410034999999999
 30
0.0
 11
22.83388446702854
 21
6.410034999999999
 31
0.0
  0
LINE
  5
206D
330
E1E
100
AcDbEntity
  8
DIM
 62
     0
370
    -2
100
AcDbLine
 10
24.95872746702855
 20
15.150035
 30
0.0
 11
22.83388446702855
 21
15.150035
 31
0.0
  0
LINE
  5
206E
330
E1E
100
AcDbEntity
  8
DIM
 62
     0
370
    -2
100
AcDbLine
 10
23.06638446702855
 20
6.860034999999999
 30
0.0
 11
23.06638446702855
 21
10.398785
 31
0.0
  0
LINE
  5
206F
330
E1E
100
AcDbEntity
  8
DIM
 62
     0
370
    -2
100
AcDbLine
 10
23.06638446702855
 20
14.700035
 30
0.0
 11
23.06638446702855
 21
11.161285
 31
0.0
  0
SOLID
  5
2070
330
E1E
100
AcDbEntity
  8
DIM
 62
     0
100
AcDbTrace
 10
22.99138446702854
 20
6.860034999999999
 30
0.0
 11
23.14138446702854
 21
6.860034999999999
 31
0.0
 12
23.06638446702855
 22
6.410034999999999
 32
0.0
 13
23.06638446702855
 23
6.410034999999999
 33
0.0
  0
SOLID
  5
2071
330
E1E
100
AcDbEntity
  8
DIM
 62
     0
100
AcDbTrace
 10
22.99138446702855
 20
14.700035
 30
0.0
 11
23.14138446702855
 21
14.700035
 31
0.0
 12
23.06638446702855
 22
15.150035
 32
0.0
 13
23.06638446702855
 23
15.150035
 33
0.0
  0
MTEXT
  5
2072
330
E1E
100
AcDbEntity
  8
DIM
 62
     0
100
AcDbMText
 10
23.06638446702855
 20
10.780035
 30
0.0
 40
0.3125
 41
0.0
 71
     5
 72
     1
  1
\A1;8.740
 73
     1
 44
1.0
  0
POINT
  5
2073
330
E1E
100
AcDbEntity
  8
DEFPOINTS
 62
     0
100
AcDbPoint
 10
25.11622746702855
 20
6.410034999999999
 30
0.0
  0
POINT
  5
2074
330
E1E
100
AcDbEntity
  8
DEFPOINTS
 62
     0
100
AcDbPoint
 10
25.11622746702855
 20
15.150035
 30
0.0
  0
POINT
  5
2075
330
E1E
100
AcDbEntity
  8
DEFPOINTS
 62
     0
100
AcDbPoint
 10
23.06638446702855
 20
15.150035
 30
0.0
  0
ENDBLK
  5
E2A
330
E1E
100
AcDbEntity
  8
0
100
AcDbBlockEnd
  0
BLOCK
  5
E37
330
E2C
100
AcDbEntity
  8
0
100
AcDbBlockBegin
  2
*D31
 70
     1
 10
0.0
 20
0.0
 30
0.0
  3
*D31
  1

  0
LINE
  5
20C9
330
E2C
100
AcDbEntity
  8
DIM
 62
     0
370
    -2
100
AcDbLine
 10
24.89747746702855
 20
15.088785
 30
0.0
 11
24.89747746702855
 21
16.92141
 31
0.0
  0
LINE
  5
20CA
330
E2C
100
AcDbEntity
  8
DIM
 62
     0
370
    -2
100
AcDbLine
 10
30.63747746702855
 20
15.088785
 30
0.0
 11
30.63747746702855
 21
16.92141
 31
0.0
  0
LINE
  5
20CB
330
E2C
100
AcDbEntity
  8
DIM
 62
     0
370
    -2
100
AcDbLine
 10
25.34747746702855
 20
16.68891
 30
0.0
 11
27.09325871702854
 21
16.68891
 31
0.0
  0
LINE
  5
20CC
330
E2C
100
AcDbEntity
  8
DIM
 62
     0
370
    -2
100
AcDbLine
 10
30.18747746702855
 20
16.68891
 30
0.0
 11
28.44169621702855
 21
16.68891
 31
0.0
  0
SOLID
  5
20CD
330
E2C
100
AcDbEntity
  8
DIM
 62
     0
100
AcDbTrace
 10
25.34747746702855
 20
16.76390999999999
 30
0.0
 11
25.34747746702855
 21
16.61391
 31
0.0
 12
24.89747746702855
 22
16.68891
 32
0.0
 13
24.89747746702855
 23
16.68891
 33
0.0
  0
SOLID
  5
20CE
330
E2C
100
AcDbEntity
  8
DIM
 62
     0
100
AcDbTrace
 10
30.18747746702855
 20
16.76390999999999
 30
0.0
 11
30.18747746702855
 21
16.61391
 31
0.0
 12
30.63747746702855
 22
16.68891
 32
0.0
 13
30.63747746702855
 23
16.68891
 33
0.0
  0
MTEXT
  5
20CF
330
E2C
100
AcDbEntity
  8
DIM
 62
     0
100
AcDbMText
 10
27.76747746702854
 20
16.68891
 30
0.0
 40
0.3125
 41
0.0
 71
     5
 72
     1
  1
\A1;5.740
 73
     1
 44
1.0
  0
POINT
  5
20D0
330
E2C
100
AcDbEntity
  8
DEFPOINTS
 62
     0
100
AcDbPoint
 10
24.89747746702855
 20
14.931285
 30
0.0
  0
POINT
  5
20D1
330
E2C
100
AcDbEntity
  8
DEFPOINTS
 62
     0
100
AcDbPoint
 10
30.63747746702855
 20
14.931285
 30
0.0
  0
POINT
  5
20D2
330
E2C
100
AcDbEntity
  8
DEFPOINTS
 62
     0
100
AcDbPoint
 10
30.63747746702855
 20
16.68891
 30
0.0
  0
ENDBLK
  5
E38
330
E2C
100
AcDbEntity
  8
0
100
AcDbBlockEnd
  0
BLOCK
  5
E61
330
E56
100
AcDbEntity
  8
0
100
AcDbBlockBegin
  2
*D32
 70
     1
 10
0.0
 20
0.0
 30
0.0
  3
*D32
  1

  0
LINE
  5
211B
330
E56
100
AcDbEntity
  8
DIM
 62
     0
370
    -2
100
AcDbLine
 10
37.68068361253535
 20
15.22596
 30
0.0
 11
37.68068361253535
 21
16.63304399999999
 31
0.0
  0
LINE
  5
211C
330
E56
100
AcDbEntity
  8
DIM
 62
     0
370
    -2
100
AcDbLine
 10
37.08968361253534
 20
15.16346
 30
0.0
 11
37.08968361253534
 21
16.63304399999999
 31
0.0
  0
LINE
  5
211D
330
E56
100
AcDbEntity
  8
DIM
 62
     0
370
    -2
100
AcDbLine
 10
38.13068361253534
 20
16.400544
 30
0.0
 11
38.58068361253534
 21
16.400544
 31
0.0
  0
LINE
  5
211E
330
E56
100
AcDbEntity
  8
DIM
 62
     0
370
    -2
100
AcDbLine
 10
36.63968361253534
 20
16.400544
 30
0.0
 11
36.18968361253534
 21
16.400544
 31
0.0
  0
SOLID
  5
211F
330
E56
100
AcDbEntity
  8
DIM
 62
     0
100
AcDbTrace
 10
38.13068361253534
 20
16.47554399999999
 30
0.0
 11
38.13068361253534
 21
16.325544
 31
0.0
 12
37.68068361253535
 22
16.400544
 32
0.0
 13
37.68068361253535
 23
16.400544
 33
0.0
  0
SOLID
  5
2120
330
E56
100
AcDbEntity
  8
DIM
 62
     0
100
AcDbTrace
 10
36.63968361253534
 20
16.47554399999999
 30
0.0
 11
36.63968361253534
 21
16.325544
 31
0.0
 12
37.08968361253534
 22
16.400544
 32
0.0
 13
37.08968361253534
 23
16.400544
 33
0.0
  0
MTEXT
  5
2121
330
E56
100
AcDbEntity
  8
DIM
 62
     0
100
AcDbMText
 10
35.04671486253534
 20
16.400544
 30
0.0
 40
0.3125
 41
0.0
 71
     5
 72
     1
  1
\A1;0.591 REF.
 73
     1
 44
1.0
  0
POINT
  5
2122
330
E56
100
AcDbEntity
  8
DEFPOINTS
 62
     0
100
AcDbPoint
 10
37.68068361253535
 20
15.06846
 30
0.0
  0
POINT
  5
2123
330
E56
100
AcDbEntity
  8
DEFPOINTS
 62
     0
100
AcDbPoint
 10
37.08968361253534
 20
15.00595999999999
 30
0.0
  0
POINT
  5
2124
330
E56
100
AcDbEntity
  8
DEFPOINTS
 62
     0
100
AcDbPoint
 10
37.08968361253534
 20
16.400544
 30
0.0
  0
ENDBLK
  5
E62
330
E56
100
AcDbEntity
  8
0
100
AcDbBlockEnd
  0
BLOCK
  5
E6F
330
E64
100
AcDbEntity
  8
0
100
AcDbBlockBegin
  2
*D33
 70
     1
 10
0.0
 20
0.0
 30
0.0
  3
*D33
  1

  0
LINE
  5
1E57
330
E64
100
AcDbEntity
  8
DIM
 62
     0
370
    -2
100
AcDbLine
 10
18.564242
 20
13.5153
 30
0.0
 11
18.564242
 21
13.59029999999999
 31
0.0
  0
LINE
  5
1E58
330
E64
100
AcDbEntity
  8
DIM
 62
     0
370
    -2
100
AcDbLine
 10
18.684242
 20
13.5153
 30
0.0
 11
18.684242
 21
13.59029999999999
 31
0.0
  0
LINE
  5
1E59
330
E64
100
AcDbEntity
  8
DIM
 62
     0
370
    -2
100
AcDbLine
 10
18.114242
 20
13.35779999999999
 30
0.0
 11
17.664242
 21
13.35779999999999
 31
0.0
  0
LINE
  5
1E5A
330
E64
100
AcDbEntity
  8
DIM
 62
     0
370
    -2
100
AcDbLine
 10
19.134242
 20
13.35779999999999
 30
0.0
 11
19.58424199999999
 21
13.35779999999999
 31
0.0
  0
SOLID
  5
1E5B
330
E64
100
AcDbEntity
  8
DIM
 62
     0
100
AcDbTrace
 10
18.114242
 20
13.4328
 30
0.0
 11
18.114242
 21
13.2828
 31
0.0
 12
18.564242
 22
13.35779999999999
 32
0.0
 13
18.564242
 23
13.35779999999999
 33
0.0
  0
SOLID
  5
1E5C
330
E64
100
AcDbEntity
  8
DIM
 62
     0
100
AcDbTrace
 10
19.134242
 20
13.4328
 30
0.0
 11
19.134242
 21
13.2828
 31
0.0
 12
18.684242
 22
13.35779999999999
 32
0.0
 13
18.684242
 23
13.35779999999999
 33
0.0
  0
MTEXT
  5
1E5D
330
E64
100
AcDbEntity
  8
DIM
 62
     0
100
AcDbMText
 10
20.199867
 20
13.35779999999999
 30
0.0
 40
0.3125
 41
0.0
 71
     5
 72
     1
  1
\A1;0.120
 73
     1
 44
1.0
  0
POINT
  5
1E5E
330
E64
100
AcDbEntity
  8
DEFPOINTS
 62
     0
100
AcDbPoint
 10
18.564242
 20
13.35779999999999
 30
0.0
  0
POINT
  5
1E5F
330
E64
100
AcDbEntity
  8
DEFPOINTS
 62
     0
100
AcDbPoint
 10
18.684242
 20
13.35779999999999
 30
0.0
  0
POINT
  5
1E60
330
E64
100
AcDbEntity
  8
DEFPOINTS
 62
     0
100
AcDbPoint
 10
18.684242
 20
13.35779999999999
 30
0.0
  0
ENDBLK
  5
E70
330
E64
100
AcDbEntity
  8
0
100
AcDbBlockEnd
  0
BLOCK
  5
E7D
330
E72
100
AcDbEntity
  8
0
100
AcDbBlockBegin
  2
*D34
 70
     1
 10
0.0
 20
0.0
 30
0.0
  3
*D34
  1

  0
LINE
  5
1963
330
E72
100
AcDbEntity
  8
DIM
 62
     0
370
    -2
100
AcDbLine
 10
5.618069
 20
6.410034999999999
 30
0.0
 11
1.864552999999999
 21
6.410035
 31
0.0
  0
LINE
  5
1964
330
E72
100
AcDbEntity
  8
DIM
 62
     0
370
    -2
100
AcDbLine
 10
5.617319
 20
6.90116
 30
0.0
 11
1.864553
 21
6.901160000000001
 31
0.0
  0
LINE
  5
1965
330
E72
100
AcDbEntity
  8
DIM
 62
     0
370
    -2
100
AcDbLine
 10
2.097052999999999
 20
5.960034999999999
 30
0.0
 11
2.097052999999999
 21
5.510034999999999
 31
0.0
  0
LINE
  5
1966
330
E72
100
AcDbEntity
  8
DIM
 62
     0
370
    -2
100
AcDbLine
 10
2.097053
 20
7.351160000000001
 30
0.0
 11
2.097053
 21
7.80116
 31
0.0
  0
SOLID
  5
1967
330
E72
100
AcDbEntity
  8
DIM
 62
     0
100
AcDbTrace
 10
2.022052999999999
 20
5.960034999999999
 30
0.0
 11
2.172053
 21
5.960034999999999
 31
0.0
 12
2.097052999999999
 22
6.410034999999999
 32
0.0
 13
2.097052999999999
 23
6.410034999999999
 33
0.0
  0
SOLID
  5
1968
330
E72
100
AcDbEntity
  8
DIM
 62
     0
100
AcDbTrace
 10
2.022053
 20
7.351160000000001
 30
0.0
 11
2.172053
 21
7.351160000000001
 31
0.0
 12
2.097052999999999
 22
6.90116
 32
0.0
 13
2.097052999999999
 23
6.90116
 33
0.0
  0
MTEXT
  5
1969
330
E72
100
AcDbEntity
  8
DIM
 62
     0
100
AcDbMText
 10
2.097052999999998
 20
6.6555975
 30
0.0
 40
0.3125
 41
0.0
 71
     5
 72
     1
  1
\A1;0.491
 73
     1
 44
1.0
  0
POINT
  5
196A
330
E72
100
AcDbEntity
  8
DEFPOINTS
 62
     0
100
AcDbPoint
 10
5.775568999999999
 20
6.410034999999999
 30
0.0
  0
POINT
  5
196B
330
E72
100
AcDbEntity
  8
DEFPOINTS
 62
     0
100
AcDbPoint
 10
5.774818999999999
 20
6.90116
 30
0.0
  0
POINT
  5
196C
330
E72
100
AcDbEntity
  8
DEFPOINTS
 62
     0
100
AcDbPoint
 10
2.097052999999999
 20
6.90116
 30
0.0
  0
ENDBLK
  5
E7E
330
E72
100
AcDbEntity
  8
0
100
AcDbBlockEnd
  0
BLOCK
  5
E8B
330
E80
100
AcDbEntity
  8
0
100
AcDbBlockBegin
  2
*D35
 70
     1
 10
0.0
 20
0.0
 30
0.0
  3
*D35
  1

  0
LINE
  5
1E61
330
E80
100
AcDbEntity
  8
DIM
 62
     0
370
    -2
100
AcDbLine
 10
5.556818999999999
 20
13.51867
 30
0.0
 11
5.556818999999999
 21
13.59367
 31
0.0
  0
LINE
  5
1E62
330
E80
100
AcDbEntity
  8
DIM
 62
     0
370
    -2
100
AcDbLine
 10
5.674819
 20
13.51867
 30
0.0
 11
5.674819
 21
13.59367
 31
0.0
  0
LINE
  5
1E63
330
E80
100
AcDbEntity
  8
DIM
 62
     0
370
    -2
100
AcDbLine
 10
5.106818999999999
 20
13.36117
 30
0.0
 11
4.656819
 21
13.36117
 31
0.0
  0
LINE
  5
1E64
330
E80
100
AcDbEntity
  8
DIM
 62
     0
370
    -2
100
AcDbLine
 10
6.124819
 20
13.36117
 30
0.0
 11
6.574818999999999
 21
13.36117
 31
0.0
  0
SOLID
  5
1E65
330
E80
100
AcDbEntity
  8
DIM
 62
     0
100
AcDbTrace
 10
5.106818999999999
 20
13.43617
 30
0.0
 11
5.106818999999999
 21
13.28617
 31
0.0
 12
5.556818999999999
 22
13.36117
 32
0.0
 13
5.556818999999999
 23
13.36117
 33
0.0
  0
SOLID
  5
1E66
330
E80
100
AcDbEntity
  8
DIM
 62
     0
100
AcDbTrace
 10
6.124819
 20
13.43617
 30
0.0
 11
6.124819
 21
13.28617
 31
0.0
 12
5.674819
 22
13.36117
 32
0.0
 13
5.674819
 23
13.36117
 33
0.0
  0
MTEXT
  5
1E67
330
E80
100
AcDbEntity
  8
DIM
 62
     0
100
AcDbMText
 10
7.67872525
 20
13.36117
 30
0.0
 40
0.3125
 41
0.0
 71
     5
 72
     1
  1
\A1;0.118 TYP.
 73
     1
 44
1.0
  0
POINT
  5
1E68
330
E80
100
AcDbEntity
  8
DEFPOINTS
 62
     0
100
AcDbPoint
 10
5.556818999999999
 20
13.36117
 30
0.0
  0
POINT
  5
1E69
330
E80
100
AcDbEntity
  8
DEFPOINTS
 62
     0
100
AcDbPoint
 10
5.674819
 20
13.36117
 30
0.0
  0
POINT
  5
1E6A
330
E80
100
AcDbEntity
  8
DEFPOINTS
 62
     0
100
AcDbPoint
 10
5.674819
 20
13.36117
 30
0.0
  0
ENDBLK
  5
E8C
330
E80
100
AcDbEntity
  8
0
100
AcDbBlockEnd
  0
BLOCK
  5
E99
330
E8E
100
AcDbEntity
  8
0
100
AcDbBlockBegin
  2
*D36
 70
     1
 10
0.0
 20
0.0
 30
0.0
  3
*D36
  1

  0
LINE
  5
1E6B
330
E8E
100
AcDbEntity
  8
DIM
 62
     0
370
    -2
100
AcDbLine
 10
10.810819
 20
10.62253499999999
 30
0.0
 11
10.810819
 21
9.768387615421454
 31
0.0
  0
LINE
  5
1E6C
330
E8E
100
AcDbEntity
  8
DIM
 62
     0
370
    -2
100
AcDbLine
 10
6.042819
 20
10.62253499999999
 30
0.0
 11
6.042819
 21
9.768387615421454
 31
0.0
  0
LINE
  5
1E6D
330
E8E
100
AcDbEntity
  8
DIM
 62
     0
370
    -2
100
AcDbLine
 10
10.360819
 20
10.00088761542145
 30
0.0
 11
8.86061549258901
 21
10.00088761542145
 31
0.0
  0
LINE
  5
1E6E
330
E8E
100
AcDbEntity
  8
DIM
 62
     0
370
    -2
100
AcDbLine
 10
6.492819
 20
10.00088761542145
 30
0.0
 11
7.473115492589011
 21
10.00088761542145
 31
0.0
  0
SOLID
  5
1E6F
330
E8E
100
AcDbEntity
  8
DIM
 62
     0
100
AcDbTrace
 10
10.360819
 20
10.07588761542145
 30
0.0
 11
10.360819
 21
9.925887615421455
 31
0.0
 12
10.810819
 22
10.00088761542145
 32
0.0
 13
10.810819
 23
10.00088761542145
 33
0.0
  0
SOLID
  5
1E70
330
E8E
100
AcDbEntity
  8
DIM
 62
     0
100
AcDbTrace
 10
6.492819
 20
10.07588761542145
 30
0.0
 11
6.492819
 21
9.925887615421455
 31
0.0
 12
6.042819
 22
10.00088761542145
 32
0.0
 13
6.042819
 23
10.00088761542145
 33
0.0
  0
MTEXT
  5
1E71
330
E8E
100
AcDbEntity
  8
DIM
 62
     0
100
AcDbMText
 10
8.16686549258901
 20
10.00088761542145
 30
0.0
 40
0.3125
 41
0.0
 71
     5
 72
     1
  1
\A1;4.768
 73
     1
 44
1.0
  0
POINT
  5
1E72
330
E8E
100
AcDbEntity
  8
DEFPOINTS
 62
     0
100
AcDbPoint
 10
10.810819
 20
10.780035
 30
0.0
  0
POINT
  5
1E73
330
E8E
100
AcDbEntity
  8
DEFPOINTS
 62
     0
100
AcDbPoint
 10
6.042819
 20
10.780035
 30
0.0
  0
POINT
  5
1E74
330
E8E
100
AcDbEntity
  8
DEFPOINTS
 62
     0
100
AcDbPoint
 10
6.042819
 20
10.00088761542145
 30
0.0
  0
ENDBLK
  5
E9A
330
E8E
100
AcDbEntity
  8
0
100
AcDbBlockEnd
  0
BLOCK
  5
EA7
330
E9C
100
AcDbEntity
  8
0
100
AcDbBlockBegin
  2
*D37
 70
     1
 10
0.0
 20
0.0
 30
0.0
  3
*D37
  1

  0
LINE
  5
1E75
330
E9C
100
AcDbEntity
  8
DIM
 62
     0
370
    -2
100
AcDbLine
 10
5.475569
 20
6.90116
 30
0.0
 11
1.864552999999998
 21
6.901160000000001
 31
0.0
  0
LINE
  5
1E76
330
E9C
100
AcDbEntity
  8
DIM
 62
     0
370
    -2
100
AcDbLine
 10
5.617319
 20
14.65891
 30
0.0
 11
1.864553
 21
14.65891
 31
0.0
  0
LINE
  5
1E77
330
E9C
100
AcDbEntity
  8
DIM
 62
     0
370
    -2
100
AcDbLine
 10
2.097052999999998
 20
7.351160000000001
 30
0.0
 11
2.097052999999998
 21
10.398785
 31
0.0
  0
LINE
  5
1E78
330
E9C
100
AcDbEntity
  8
DIM
 62
     0
370
    -2
100
AcDbLine
 10
2.097052999999999
 20
14.20891
 30
0.0
 11
2.097052999999999
 21
11.161285
 31
0.0
  0
SOLID
  5
1E79
330
E9C
100
AcDbEntity
  8
DIM
 62
     0
100
AcDbTrace
 10
2.022052999999998
 20
7.351160000000001
 30
0.0
 11
2.172052999999998
 21
7.351160000000001
 31
0.0
 12
2.097052999999998
 22
6.90116
 32
0.0
 13
2.097052999999998
 23
6.90116
 33
0.0
  0
SOLID
  5
1E7A
330
E9C
100
AcDbEntity
  8
DIM
 62
     0
100
AcDbTrace
 10
2.022052999999999
 20
14.20891
 30
0.0
 11
2.172053
 21
14.20891
 31
0.0
 12
2.097052999999999
 22
14.65891
 32
0.0
 13
2.097052999999999
 23
14.65891
 33
0.0
  0
MTEXT
  5
1E7B
330
E9C
100
AcDbEntity
  8
DIM
 62
     0
100
AcDbMText
 10
2.097052999999997
 20
10.780035
 30
0.0
 40
0.3125
 41
0.0
 71
     5
 72
     1
  1
\A1;7.758
 73
     1
 44
1.0
  0
POINT
  5
1E7C
330
E9C
100
AcDbEntity
  8
DEFPOINTS
 62
     0
100
AcDbPoint
 10
5.633068999999999
 20
6.90116
 30
0.0
  0
POINT
  5
1E7D
330
E9C
100
AcDbEntity
  8
DEFPOINTS
 62
     0
100
AcDbPoint
 10
5.774818999999999
 20
14.65891
 30
0.0
  0
POINT
  5
1E7E
330
E9C
100
AcDbEntity
  8
DEFPOINTS
 62
     0
100
AcDbPoint
 10
2.097052999999999
 20
14.65891
 30
0.0
  0
ENDBLK
  5
EA8
330
E9C
100
AcDbEntity
  8
0
100
AcDbBlockEnd
  0
BLOCK
  5
EB5
330
EAA
100
AcDbEntity
  8
0
100
AcDbBlockBegin
  2
*D38
 70
     1
 10
0.0
 20
0.0
 30
0.0
  3
*D38
  1

  0
LINE
  5
1E7F
330
EAA
100
AcDbEntity
  8
DIM
 62
     0
370
    -2
100
AcDbLine
 10
5.556818999999999
 20
6.471285
 30
0.0
 11
5.556818999999999
 21
3.954761
 31
0.0
  0
LINE
  5
1E80
330
EAA
100
AcDbEntity
  8
DIM
 62
     0
370
    -2
100
AcDbLine
 10
8.426819
 20
6.191305999999999
 30
0.0
 11
8.426819
 21
3.954761
 31
0.0
  0
LINE
  5
1E81
330
EAA
100
AcDbEntity
  8
DIM
 62
     0
370
    -2
100
AcDbLine
 10
6.006819
 20
4.187261
 30
0.0
 11
6.317600249999999
 21
4.187261
 31
0.0
  0
LINE
  5
1E82
330
EAA
100
AcDbEntity
  8
DIM
 62
     0
370
    -2
100
AcDbLine
 10
7.976818999999999
 20
4.187261
 30
0.0
 11
7.666037749999999
 21
4.187261
 31
0.0
  0
SOLID
  5
1E83
330
EAA
100
AcDbEntity
  8
DIM
 62
     0
100
AcDbTrace
 10
6.006819
 20
4.262261
 30
0.0
 11
6.006819
 21
4.112261
 31
0.0
 12
5.556818999999999
 22
4.187261
 32
0.0
 13
5.556818999999999
 23
4.187261
 33
0.0
  0
SOLID
  5
1E84
330
EAA
100
AcDbEntity
  8
DIM
 62
     0
100
AcDbTrace
 10
7.976818999999999
 20
4.262261
 30
0.0
 11
7.976818999999999
 21
4.112261
 31
0.0
 12
8.426819
 22
4.187261
 32
0.0
 13
8.426819
 23
4.187261
 33
0.0
  0
MTEXT
  5
1E85
330
EAA
100
AcDbEntity
  8
DIM
 62
     0
100
AcDbMText
 10
6.991818999999999
 20
4.187261
 30
0.0
 40
0.3125
 41
0.0
 71
     5
 72
     1
  1
\A1;2.870
 73
     1
 44
1.0
  0
POINT
  5
1E86
330
EAA
100
AcDbEntity
  8
DEFPOINTS
 62
     0
100
AcDbPoint
 10
5.556818999999999
 20
6.628785
 30
0.0
  0
POINT
  5
1E87
330
EAA
100
AcDbEntity
  8
DEFPOINTS
 62
     0
100
AcDbPoint
 10
8.426819
 20
6.348805999999999
 30
0.0
  0
POINT
  5
1E88
330
EAA
100
AcDbEntity
  8
DEFPOINTS
 62
     0
100
AcDbPoint
 10
8.426819
 20
4.187261
 30
0.0
  0
ENDBLK
  5
EB6
330
EAA
100
AcDbEntity
  8
0
100
AcDbBlockEnd
  0
BLOCK
  5
EC3
330
EB8
100
AcDbEntity
  8
0
100
AcDbBlockBegin
  2
*D39
 70
     1
 10
0.0
 20
0.0
 30
0.0
  3
*D39
  1

  0
LINE
  5
1E89
330
EB8
100
AcDbEntity
  8
DIM
 62
     0
370
    -2
100
AcDbLine
 10
7.501819
 20
7.512535
 30
0.0
 11
4.423679507507136
 21
7.512535000000001
 31
0.0
  0
LINE
  5
1E8A
330
EB8
100
AcDbEntity
  8
DIM
 62
     0
370
    -2
100
AcDbLine
 10
5.618069
 20
6.410034999999999
 30
0.0
 11
4.423679507507136
 21
6.410034999999999
 31
0.0
  0
LINE
  5
1E8B
330
EB8
100
AcDbEntity
  8
DIM
 62
     0
370
    -2
100
AcDbLine
 10
4.656179507507136
 20
7.962535000000001
 30
0.0
 11
4.656179507507136
 21
8.412535
 31
0.0
  0
LINE
  5
1E8C
330
EB8
100
AcDbEntity
  8
DIM
 62
     0
370
    -2
100
AcDbLine
 10
4.656179507507135
 20
5.960034999999999
 30
0.0
 11
4.656179507507135
 21
5.510034999999999
 31
0.0
  0
LINE
  5
1E8D
330
EB8
100
AcDbEntity
  8
DIM
 62
     0
370
    -2
100
AcDbLine
 10
4.656179507507135
 20
5.510034999999999
 30
0.0
 11
4.206179507507135
 21
5.510034999999999
 31
0.0
  0
SOLID
  5
1E8E
330
EB8
100
AcDbEntity
  8
DIM
 62
     0
100
AcDbTrace
 10
4.581179507507136
 20
7.962535000000001
 30
0.0
 11
4.731179507507136
 21
7.962535000000001
 31
0.0
 12
4.656179507507136
 22
7.512535000000001
 32
0.0
 13
4.656179507507136
 23
7.512535000000001
 33
0.0
  0
SOLID
  5
1E8F
330
EB8
100
AcDbEntity
  8
DIM
 62
     0
100
AcDbTrace
 10
4.581179507507135
 20
5.960034999999999
 30
0.0
 11
4.731179507507135
 21
5.960034999999999
 31
0.0
 12
4.656179507507136
 22
6.410034999999999
 32
0.0
 13
4.656179507507136
 23
6.410034999999999
 33
0.0
  0
MTEXT
  5
1E90
330
EB8
100
AcDbEntity
  8
DIM
 62
     0
100
AcDbMText
 10
3.610085757507135
 20
5.510035
 30
0.0
 40
0.3125
 41
0.0
 71
     5
 72
     1
  1
\A1;1.103
 73
     1
 44
1.0
  0
POINT
  5
1E91
330
EB8
100
AcDbEntity
  8
DEFPOINTS
 62
     0
100
AcDbPoint
 10
7.659318999999999
 20
7.512535
 30
0.0
  0
POINT
  5
1E92
330
EB8
100
AcDbEntity
  8
DEFPOINTS
 62
     0
100
AcDbPoint
 10
5.775568999999999
 20
6.410034999999999
 30
0.0
  0
POINT
  5
1E93
330
EB8
100
AcDbEntity
  8
DEFPOINTS
 62
     0
100
AcDbPoint
 10
4.656179507507136
 20
6.410034999999999
 30
0.0
  0
ENDBLK
  5
EC4
330
EB8
100
AcDbEntity
  8
0
100
AcDbBlockEnd
  0
BLOCK
  5
ED1
330
EC6
100
AcDbEntity
  8
0
100
AcDbBlockBegin
  2
*D40
 70
     1
 10
0.0
 20
0.0
 30
0.0
  3
*D40
  1

  0
LINE
  5
2206
330
EC6
100
AcDbEntity
  8
DIM
 62
     0
370
    -2
100
AcDbLine
 10
6.410819
 20
15.05713599999999
 30
0.0
 11
6.410819
 21
17.09445114500029
 31
0.0
  0
LINE
  5
2207
330
EC6
100
AcDbEntity
  8
DIM
 62
     0
370
    -2
100
AcDbLine
 10
5.556818999999999
 20
15.514035
 30
0.0
 11
5.556818999999999
 21
17.09445114500029
 31
0.0
  0
LINE
  5
2208
330
EC6
100
AcDbEntity
  8
DIM
 62
     0
370
    -2
100
AcDbLine
 10
6.860819
 20
16.86195114500029
 30
0.0
 11
7.310819
 21
16.86195114500029
 31
0.0
  0
LINE
  5
2209
330
EC6
100
AcDbEntity
  8
DIM
 62
     0
370
    -2
100
AcDbLine
 10
5.106818999999999
 20
16.86195114500029
 30
0.0
 11
4.656818999999999
 21
16.86195114500029
 31
0.0
  0
SOLID
  5
220A
330
EC6
100
AcDbEntity
  8
DIM
 62
     0
100
AcDbTrace
 10
6.860819
 20
16.93695114500028
 30
0.0
 11
6.860819
 21
16.78695114500029
 31
0.0
 12
6.410819
 22
16.86195114500029
 32
0.0
 13
6.410819
 23
16.86195114500029
 33
0.0
  0
SOLID
  5
220B
330
EC6
100
AcDbEntity
  8
DIM
 62
     0
100
AcDbTrace
 10
5.106818999999999
 20
16.93695114500028
 30
0.0
 11
5.106818999999999
 21
16.78695114500029
 31
0.0
 12
5.556818999999999
 22
16.86195114500029
 32
0.0
 13
5.556818999999999
 23
16.86195114500029
 33
0.0
  0
MTEXT
  5
220C
330
EC6
100
AcDbEntity
  8
DIM
 62
     0
100
AcDbMText
 10
3.982600249999999
 20
16.86195114500029
 30
0.0
 40
0.3125
 41
0.0
 71
     5
 72
     1
  1
\A1;0.854
 73
     1
 44
1.0
  0
POINT
  5
220D
330
EC6
100
AcDbEntity
  8
DEFPOINTS
 62
     0
100
AcDbPoint
 10
6.410819
 20
14.899636
 30
0.0
  0
POINT
  5
220E
330
EC6
100
AcDbEntity
  8
DEFPOINTS
 62
     0
100
AcDbPoint
 10
5.556818999999999
 20
15.356535
 30
0.0
  0
POINT
  5
220F
330
EC6
100
AcDbEntity
  8
DEFPOINTS
 62
     0
100
AcDbPoint
 10
5.556818999999999
 20
16.86195114500029
 30
0.0
  0
ENDBLK
  5
ED2
330
EC6
100
AcDbEntity
  8
0
100
AcDbBlockEnd
  0
BLOCK
  5
EDF
330
ED4
100
AcDbEntity
  8
0
100
AcDbBlockBegin
  2
*D41
 70
     1
 10
0.0
 20
0.0
 30
0.0
  3
*D41
  1

  0
LINE
  5
21DE
330
ED4
100
AcDbEntity
  8
DIM
 62
     0
370
    -2
100
AcDbLine
 10
10.442819
 20
15.05713599999999
 30
0.0
 11
10.442819
 21
17.09445114500029
 31
0.0
  0
LINE
  5
21DF
330
ED4
100
AcDbEntity
  8
DIM
 62
     0
370
    -2
100
AcDbLine
 10
6.410819
 20
15.05713599999999
 30
0.0
 11
6.410819
 21
17.09445114500029
 31
0.0
  0
LINE
  5
21E0
330
ED4
100
AcDbEntity
  8
DIM
 62
     0
370
    -2
100
AcDbLine
 10
9.992819
 20
16.86195114500029
 30
0.0
 11
9.101037749999999
 21
16.86195114500029
 31
0.0
  0
LINE
  5
21E1
330
ED4
100
AcDbEntity
  8
DIM
 62
     0
370
    -2
100
AcDbLine
 10
6.860819
 20
16.86195114500029
 30
0.0
 11
7.75260025
 21
16.86195114500029
 31
0.0
  0
SOLID
  5
21E2
330
ED4
100
AcDbEntity
  8
DIM
 62
     0
100
AcDbTrace
 10
9.992819
 20
16.93695114500028
 30
0.0
 11
9.992819
 21
16.78695114500029
 31
0.0
 12
10.442819
 22
16.86195114500029
 32
0.0
 13
10.442819
 23
16.86195114500029
 33
0.0
  0
SOLID
  5
21E3
330
ED4
100
AcDbEntity
  8
DIM
 62
     0
100
AcDbTrace
 10
6.860819
 20
16.93695114500028
 30
0.0
 11
6.860819
 21
16.78695114500029
 31
0.0
 12
6.410819
 22
16.86195114500029
 32
0.0
 13
6.410819
 23
16.86195114500029
 33
0.0
  0
MTEXT
  5
21E4
330
ED4
100
AcDbEntity
  8
DIM
 62
     0
100
AcDbMText
 10
8.426819
 20
16.86195114500029
 30
0.0
 40
0.3125
 41
0.0
 71
     5
 72
     1
  1
\A1;4.032
 73
     1
 44
1.0
  0
POINT
  5
21E5
330
ED4
100
AcDbEntity
  8
DEFPOINTS
 62
     0
100
AcDbPoint
 10
10.442819
 20
14.899636
 30
0.0
  0
POINT
  5
21E6
330
ED4
100
AcDbEntity
  8
DEFPOINTS
 62
     0
100
AcDbPoint
 10
6.410819
 20
14.899636
 30
0.0
  0
POINT
  5
21E7
330
ED4
100
AcDbEntity
  8
DEFPOINTS
 62
     0
100
AcDbPoint
 10
6.410819
 20
16.86195114500029
 30
0.0
  0
ENDBLK
  5
EE0
330
ED4
100
AcDbEntity
  8
0
100
AcDbBlockEnd
  0
BLOCK
  5
EFF
330
EF4
100
AcDbEntity
  8
0
100
AcDbBlockBegin
  2
*D42
 70
     1
 10
0.0
 20
0.0
 30
0.0
  3
*D42
  1

  0
LINE
  5
1EA8
330
EF4
100
AcDbEntity
  8
DIM
 62
     0
370
    -2
100
AcDbLine
 10
11.218319
 20
14.905285
 30
0.0
 11
13.130752
 21
14.90528499999999
 31
0.0
  0
LINE
  5
1EA9
330
EF4
100
AcDbEntity
  8
DIM
 62
     0
370
    -2
100
AcDbLine
 10
11.235569
 20
15.150035
 30
0.0
 11
13.130752
 21
15.15003499999999
 31
0.0
  0
LINE
  5
1EAA
330
EF4
100
AcDbEntity
  8
DIM
 62
     0
370
    -2
100
AcDbLine
 10
12.898252
 20
14.45528499999999
 30
0.0
 11
12.898252
 21
14.005285
 31
0.0
  0
LINE
  5
1EAB
330
EF4
100
AcDbEntity
  8
DIM
 62
     0
370
    -2
100
AcDbLine
 10
12.898252
 20
15.60003499999999
 30
0.0
 11
12.898252
 21
16.05003499999999
 31
0.0
  0
LINE
  5
1EAC
330
EF4
100
AcDbEntity
  8
DIM
 62
     0
370
    -2
100
AcDbLine
 10
12.898252
 20
16.05003499999999
 30
0.0
 11
13.348252
 21
16.05003499999999
 31
0.0
  0
SOLID
  5
1EAD
330
EF4
100
AcDbEntity
  8
DIM
 62
     0
100
AcDbTrace
 10
12.823252
 20
14.45528499999999
 30
0.0
 11
12.973252
 21
14.45528499999999
 31
0.0
 12
12.898252
 22
14.90528499999999
 32
0.0
 13
12.898252
 23
14.90528499999999
 33
0.0
  0
SOLID
  5
1EAE
330
EF4
100
AcDbEntity
  8
DIM
 62
     0
100
AcDbTrace
 10
12.823252
 20
15.60003499999999
 30
0.0
 11
12.973252
 21
15.60003499999999
 31
0.0
 12
12.898252
 22
15.15003499999999
 32
0.0
 13
12.898252
 23
15.15003499999999
 33
0.0
  0
MTEXT
  5
1EAF
330
EF4
100
AcDbEntity
  8
DIM
 62
     0
100
AcDbMText
 10
14.02247075
 20
16.050035
 30
0.0
 40
0.3125
 41
0.0
 71
     5
 72
     1
  1
\A1;0.245
 73
     1
 44
1.0
  0
POINT
  5
1EB0
330
EF4
100
AcDbEntity
  8
DEFPOINTS
 62
     0
100
AcDbPoint
 10
11.060819
 20
14.905285
 30
0.0
  0
POINT
  5
1EB1
330
EF4
100
AcDbEntity
  8
DEFPOINTS
 62
     0
100
AcDbPoint
 10
11.078069
 20
15.150035
 30
0.0
  0
POINT
  5
1EB2
330
EF4
100
AcDbEntity
  8
DEFPOINTS
 62
     0
100
AcDbPoint
 10
12.898252
 20
15.15003499999999
 30
0.0
  0
ENDBLK
  5
F00
330
EF4
100
AcDbEntity
  8
0
100
AcDbBlockEnd
  0
BLOCK
  5
F0D
330
F02
100
AcDbEntity
  8
0
100
AcDbBlockBegin
  2
*D43
 70
     1
 10
0.0
 20
0.0
 30
0.0
  3
*D43
  1

  0
LINE
  5
2095
330
F02
100
AcDbEntity
  8
DIM
 62
     0
370
    -2
100
AcDbLine
 10
27.57239146702855
 20
6.590035
 30
0.0
 11
27.44104846702855
 21
6.590035
 31
0.0
  0
LINE
  5
2096
330
F02
100
AcDbEntity
  8
DIM
 62
     0
370
    -2
100
AcDbLine
 10
27.57239146702855
 20
6.410034999999999
 30
0.0
 11
27.44104846702855
 21
6.410034999999999
 31
0.0
  0
LINE
  5
2097
330
F02
100
AcDbEntity
  8
DIM
 62
     0
370
    -2
100
AcDbLine
 10
27.67354846702855
 20
7.040035
 30
0.0
 11
27.67354846702855
 21
7.490034999999999
 31
0.0
  0
LINE
  5
2098
330
F02
100
AcDbEntity
  8
DIM
 62
     0
370
    -2
100
AcDbLine
 10
27.67354846702855
 20
5.960034999999999
 30
0.0
 11
27.67354846702855
 21
5.510034999999999
 31
0.0
  0
LINE
  5
2099
330
F02
100
AcDbEntity
  8
DIM
 62
     0
370
    -2
100
AcDbLine
 10
27.67354846702855
 20
5.510034999999999
 30
0.0
 11
27.22354846702855
 21
5.510034999999999
 31
0.0
  0
SOLID
  5
209A
330
F02
100
AcDbEntity
  8
DIM
 62
     0
100
AcDbTrace
 10
27.59854846702855
 20
7.040035
 30
0.0
 11
27.74854846702855
 21
7.040035
 31
0.0
 12
27.67354846702855
 22
6.590035
 32
0.0
 13
27.67354846702855
 23
6.590035
 33
0.0
  0
SOLID
  5
209B
330
F02
100
AcDbEntity
  8
DIM
 62
     0
100
AcDbTrace
 10
27.59854846702855
 20
5.960034999999999
 30
0.0
 11
27.74854846702855
 21
5.960034999999999
 31
0.0
 12
27.67354846702855
 22
6.410034999999999
 32
0.0
 13
27.67354846702855
 23
6.410034999999999
 33
0.0
  0
MTEXT
  5
209C
330
F02
100
AcDbEntity
  8
DIM
 62
     0
100
AcDbMText
 10
26.10011096702855
 20
5.510035000000003
 30
0.0
 40
0.3125
 41
0.0
 71
     5
 72
     1
  1
\A1;0.180 TYP.
 73
     1
 44
1.0
  0
POINT
  5
209D
330
F02
100
AcDbEntity
  8
DEFPOINTS
 62
     0
100
AcDbPoint
 10
27.72989146702855
 20
6.590035
 30
0.0
  0
POINT
  5
209E
330
F02
100
AcDbEntity
  8
DEFPOINTS
 62
     0
100
AcDbPoint
 10
27.72989146702855
 20
6.410034999999999
 30
0.0
  0
POINT
  5
209F
330
F02
100
AcDbEntity
  8
DEFPOINTS
 62
     0
100
AcDbPoint
 10
27.67354846702855
 20
6.410034999999999
 30
0.0
  0
ENDBLK
  5
F0E
330
F02
100
AcDbEntity
  8
0
100
AcDbBlockEnd
  0
BLOCK
  5
F1B
330
F10
100
AcDbEntity
  8
0
100
AcDbBlockBegin
  2
*D44
 70
     1
 10
0.0
 20
0.0
 30
0.0
  3
*D44
  1

  0
LINE
  5
1EBE
330
F10
100
AcDbEntity
  8
DIM
 62
     0
370
    -2
100
AcDbLine
 10
16.997117
 20
8.574035
 30
0.0
 11
14.648892
 21
8.574035
 31
0.0
  0
LINE
  5
1EBF
330
F10
100
AcDbEntity
  8
DIM
 62
     0
370
    -2
100
AcDbLine
 10
16.997117
 20
8.661535
 30
0.0
 11
14.648892
 21
8.661535
 31
0.0
  0
LINE
  5
1EC0
330
F10
100
AcDbEntity
  8
DIM
 62
     0
370
    -2
100
AcDbLine
 10
14.881392
 20
8.124035000000001
 30
0.0
 11
14.881392
 21
7.674034999999999
 31
0.0
  0
LINE
  5
1EC1
330
F10
100
AcDbEntity
  8
DIM
 62
     0
370
    -2
100
AcDbLine
 10
14.881392
 20
9.111534999999999
 30
0.0
 11
14.881392
 21
9.561535000000001
 31
0.0
  0
LINE
  5
1EC2
330
F10
100
AcDbEntity
  8
DIM
 62
     0
370
    -2
100
AcDbLine
 10
14.881392
 20
9.561535000000001
 30
0.0
 11
15.331392
 21
9.561535000000001
 31
0.0
  0
SOLID
  5
1EC3
330
F10
100
AcDbEntity
  8
DIM
 62
     0
100
AcDbTrace
 10
14.806392
 20
8.124035000000001
 30
0.0
 11
14.956392
 21
8.124035000000001
 31
0.0
 12
14.881392
 22
8.574035
 32
0.0
 13
14.881392
 23
8.574035
 33
0.0
  0
SOLID
  5
1EC4
330
F10
100
AcDbEntity
  8
DIM
 62
     0
100
AcDbTrace
 10
14.806392
 20
9.111534999999999
 30
0.0
 11
14.956392
 21
9.111534999999999
 31
0.0
 12
14.881392
 22
8.661535
 32
0.0
 13
14.881392
 23
8.661535
 33
0.0
  0
MTEXT
  5
1EC5
330
F10
100
AcDbEntity
  8
DIM
 62
     0
100
AcDbMText
 10
15.98607949999999
 20
9.561535000000002
 30
0.0
 40
0.3125
 41
0.0
 71
     5
 72
     1
  1
\A1;0.088
 73
     1
 44
1.0
  0
POINT
  5
1EC6
330
F10
100
AcDbEntity
  8
DEFPOINTS
 62
     0
100
AcDbPoint
 10
17.154617
 20
8.574035
 30
0.0
  0
POINT
  5
1EC7
330
F10
100
AcDbEntity
  8
DEFPOINTS
 62
     0
100
AcDbPoint
 10
17.154617
 20
8.661535
 30
0.0
  0
POINT
  5
1EC8
330
F10
100
AcDbEntity
  8
DEFPOINTS
 62
     0
100
AcDbPoint
 10
14.881392
 20
8.661535
 30
0.0
  0
ENDBLK
  5
F1C
330
F10
100
AcDbEntity
  8
0
100
AcDbBlockEnd
  0
BLOCK
  5
F49
330
F3E
100
AcDbEntity
  8
0
100
AcDbBlockBegin
  2
*D45
 70
     1
 10
0.0
 20
0.0
 30
0.0
  3
*D45
  1

  0
LINE
  5
1EC9
330
F3E
100
AcDbEntity
  8
DIM
 62
     0
370
    -2
100
AcDbLine
 10
18.841742
 20
6.550659999999999
 30
0.0
 11
19.289921
 21
6.550659999999999
 31
0.0
  0
LINE
  5
1ECA
330
F3E
100
AcDbEntity
  8
DIM
 62
     0
370
    -2
100
AcDbLine
 10
18.841742
 20
6.722535
 30
0.0
 11
19.289921
 21
6.722535
 31
0.0
  0
LINE
  5
1ECB
330
F3E
100
AcDbEntity
  8
DIM
 62
     0
370
    -2
100
AcDbLine
 10
19.05742099999999
 20
6.100659999999999
 30
0.0
 11
19.05742099999999
 21
5.650659999999999
 31
0.0
  0
LINE
  5
1ECC
330
F3E
100
AcDbEntity
  8
DIM
 62
     0
370
    -2
100
AcDbLine
 10
19.05742099999999
 20
7.172535
 30
0.0
 11
19.05742099999999
 21
7.622535
 31
0.0
  0
LINE
  5
1ECD
330
F3E
100
AcDbEntity
  8
DIM
 62
     0
370
    -2
100
AcDbLine
 10
19.05742099999999
 20
7.622535
 30
0.0
 11
19.50742099999999
 21
7.622535
 31
0.0
  0
SOLID
  5
1ECE
330
F3E
100
AcDbEntity
  8
DIM
 62
     0
100
AcDbTrace
 10
18.982421
 20
6.100659999999999
 30
0.0
 11
19.13242099999999
 21
6.100659999999999
 31
0.0
 12
19.05742099999999
 22
6.550659999999999
 32
0.0
 13
19.05742099999999
 23
6.550659999999999
 33
0.0
  0
SOLID
  5
1ECF
330
F3E
100
AcDbEntity
  8
DIM
 62
     0
100
AcDbTrace
 10
18.982421
 20
7.172535
 30
0.0
 11
19.13242099999999
 21
7.172535
 31
0.0
 12
19.05742099999999
 22
6.722535
 32
0.0
 13
19.05742099999999
 23
6.722535
 33
0.0
  0
MTEXT
  5
1ED0
330
F3E
100
AcDbEntity
  8
DIM
 62
     0
100
AcDbMText
 10
20.61132724999999
 20
7.622535000000004
 30
0.0
 40
0.3125
 41
0.0
 71
     5
 72
     1
  1
\A1;0.172 DIA.
 73
     1
 44
1.0
  0
POINT
  5
1ED1
330
F3E
100
AcDbEntity
  8
DEFPOINTS
 62
     0
100
AcDbPoint
 10
18.684242
 20
6.550659999999999
 30
0.0
  0
POINT
  5
1ED2
330
F3E
100
AcDbEntity
  8
DEFPOINTS
 62
     0
100
AcDbPoint
 10
18.684242
 20
6.722535
 30
0.0
  0
POINT
  5
1ED3
330
F3E
100
AcDbEntity
  8
DEFPOINTS
 62
     0
100
AcDbPoint
 10
19.05742099999999
 20
6.722535
 30
0.0
  0
ENDBLK
  5
F4A
330
F3E
100
AcDbEntity
  8
0
100
AcDbBlockEnd
  0
BLOCK
  5
F66
330
F5B
100
AcDbEntity
  8
0
100
AcDbBlockBegin
  2
*D46
 70
     1
 10
0.0
 20
0.0
 30
0.0
  3
*D46
  1

  0
LINE
  5
1ED4
330
F5B
100
AcDbEntity
  8
DIM
 62
     0
370
    -2
100
AcDbLine
 10
18.841742
 20
14.747785
 30
0.0
 11
19.374982
 21
14.747785
 31
0.0
  0
LINE
  5
1ED5
330
F5B
100
AcDbEntity
  8
DIM
 62
     0
370
    -2
100
AcDbLine
 10
18.841742
 20
15.062785
 30
0.0
 11
19.374982
 21
15.062785
 31
0.0
  0
LINE
  5
1ED6
330
F5B
100
AcDbEntity
  8
DIM
 62
     0
370
    -2
100
AcDbLine
 10
19.142482
 20
14.297785
 30
0.0
 11
19.142482
 21
13.847785
 31
0.0
  0
LINE
  5
1ED7
330
F5B
100
AcDbEntity
  8
DIM
 62
     0
370
    -2
100
AcDbLine
 10
19.142482
 20
15.512785
 30
0.0
 11
19.142482
 21
15.962785
 31
0.0
  0
LINE
  5
1ED8
330
F5B
100
AcDbEntity
  8
DIM
 62
     0
370
    -2
100
AcDbLine
 10
19.142482
 20
15.962785
 30
0.0
 11
19.592482
 21
15.962785
 31
0.0
  0
SOLID
  5
1ED9
330
F5B
100
AcDbEntity
  8
DIM
 62
     0
100
AcDbTrace
 10
19.067482
 20
14.297785
 30
0.0
 11
19.217482
 21
14.297785
 31
0.0
 12
19.142482
 22
14.747785
 32
0.0
 13
19.142482
 23
14.747785
 33
0.0
  0
SOLID
  5
1EDA
330
F5B
100
AcDbEntity
  8
DIM
 62
     0
100
AcDbTrace
 10
19.067482
 20
15.512785
 30
0.0
 11
19.217482
 21
15.512785
 31
0.0
 12
19.142482
 22
15.062785
 32
0.0
 13
19.142482
 23
15.062785
 33
0.0
  0
MTEXT
  5
1EDB
330
F5B
100
AcDbEntity
  8
DIM
 62
     0
100
AcDbMText
 10
20.69638824999999
 20
15.962785
 30
0.0
 40
0.3125
 41
0.0
 71
     5
 72
     1
  1
\A1;0.313 DIA.
 73
     1
 44
1.0
  0
POINT
  5
1EDC
330
F5B
100
AcDbEntity
  8
DEFPOINTS
 62
     0
100
AcDbPoint
 10
18.684242
 20
14.747785
 30
0.0
  0
POINT
  5
1EDD
330
F5B
100
AcDbEntity
  8
DEFPOINTS
 62
     0
100
AcDbPoint
 10
18.684242
 20
15.062785
 30
0.0
  0
POINT
  5
1EDE
330
F5B
100
AcDbEntity
  8
DEFPOINTS
 62
     0
100
AcDbPoint
 10
19.142482
 20
15.062785
 30
0.0
  0
ENDBLK
  5
F67
330
F5B
100
AcDbEntity
  8
0
100
AcDbBlockEnd
  0
BLOCK
  5
F74
330
F69
100
AcDbEntity
  8
0
100
AcDbBlockBegin
  2
*D47
 70
     1
 10
0.0
 20
0.0
 30
0.0
  3
*D47
  1

  0
LINE
  5
18D7
330
F69
100
AcDbEntity
  8
DIM
 62
     0
370
    -2
100
AcDbLine
 10
18.684242
 20
15.245035
 30
0.0
 11
18.684242
 21
17.291896
 31
0.0
  0
LINE
  5
18D8
330
F69
100
AcDbEntity
  8
DIM
 62
     0
370
    -2
100
AcDbLine
 10
17.044242
 20
15.217035
 30
0.0
 11
17.044242
 21
17.291896
 31
0.0
  0
LINE
  5
18D9
330
F69
100
AcDbEntity
  8
DIM
 62
     0
370
    -2
100
AcDbLine
 10
19.134242
 20
17.05939599999999
 30
0.0
 11
19.58424199999999
 21
17.05939599999999
 31
0.0
  0
LINE
  5
18DA
330
F69
100
AcDbEntity
  8
DIM
 62
     0
370
    -2
100
AcDbLine
 10
16.594242
 20
17.05939599999999
 30
0.0
 11
16.144242
 21
17.05939599999999
 31
0.0
  0
SOLID
  5
18DB
330
F69
100
AcDbEntity
  8
DIM
 62
     0
100
AcDbTrace
 10
19.134242
 20
17.134396
 30
0.0
 11
19.134242
 21
16.984396
 31
0.0
 12
18.684242
 22
17.05939599999999
 32
0.0
 13
18.684242
 23
17.05939599999999
 33
0.0
  0
SOLID
  5
18DC
330
F69
100
AcDbEntity
  8
DIM
 62
     0
100
AcDbTrace
 10
16.594242
 20
17.134396
 30
0.0
 11
16.594242
 21
16.984396
 31
0.0
 12
17.044242
 22
17.05939599999999
 32
0.0
 13
17.044242
 23
17.05939599999999
 33
0.0
  0
MTEXT
  5
18DD
330
F69
100
AcDbEntity
  8
DIM
 62
     0
100
AcDbMText
 10
17.864242
 20
17.05939599999999
 30
0.0
 40
0.3125
 41
0.0
 71
     5
 72
     1
  1
\A1;1.640
 73
     1
 44
1.0
  0
POINT
  5
18DE
330
F69
100
AcDbEntity
  8
DEFPOINTS
 62
     0
100
AcDbPoint
 10
18.684242
 20
15.087535
 30
0.0
  0
POINT
  5
18DF
330
F69
100
AcDbEntity
  8
DEFPOINTS
 62
     0
100
AcDbPoint
 10
17.044242
 20
15.059535
 30
0.0
  0
POINT
  5
18E0
330
F69
100
AcDbEntity
  8
DEFPOINTS
 62
     0
100
AcDbPoint
 10
17.044242
 20
17.05939599999999
 30
0.0
  0
ENDBLK
  5
F75
330
F69
100
AcDbEntity
  8
0
100
AcDbBlockEnd
  0
BLOCK
  5
F82
330
F77
100
AcDbEntity
  8
0
100
AcDbBlockBegin
  2
*D48
 70
     1
 10
0.0
 20
0.0
 30
0.0
  3
*D48
  1

  0
LINE
  5
18E1
330
F77
100
AcDbEntity
  8
DIM
 62
     0
370
    -2
100
AcDbLine
 10
17.500492
 20
15.216535
 30
0.0
 11
17.500492
 21
16.517552
 31
0.0
  0
LINE
  5
18E2
330
F77
100
AcDbEntity
  8
DIM
 62
     0
370
    -2
100
AcDbLine
 10
18.684242
 20
15.245035
 30
0.0
 11
18.684242
 21
16.517552
 31
0.0
  0
LINE
  5
18E3
330
F77
100
AcDbEntity
  8
DIM
 62
     0
370
    -2
100
AcDbLine
 10
17.050492
 20
16.285052
 30
0.0
 11
16.600492
 21
16.285052
 31
0.0
  0
LINE
  5
18E4
330
F77
100
AcDbEntity
  8
DIM
 62
     0
370
    -2
100
AcDbLine
 10
19.134242
 20
16.285052
 30
0.0
 11
19.58424199999999
 21
16.285052
 31
0.0
  0
SOLID
  5
18E5
330
F77
100
AcDbEntity
  8
DIM
 62
     0
100
AcDbTrace
 10
17.050492
 20
16.360052
 30
0.0
 11
17.050492
 21
16.210052
 31
0.0
 12
17.500492
 22
16.285052
 32
0.0
 13
17.500492
 23
16.285052
 33
0.0
  0
SOLID
  5
18E6
330
F77
100
AcDbEntity
  8
DIM
 62
     0
100
AcDbTrace
 10
19.134242
 20
16.360052
 30
0.0
 11
19.134242
 21
16.210052
 31
0.0
 12
18.684242
 22
16.285052
 32
0.0
 13
18.684242
 23
16.285052
 33
0.0
  0
MTEXT
  5
18E7
330
F77
100
AcDbEntity
  8
DIM
 62
     0
100
AcDbMText
 10
18.092367
 20
16.285052
 30
0.0
 40
0.3125
 41
0.0
 71
     5
 72
     1
  1
\A1;1.184
 73
     1
 44
1.0
  0
POINT
  5
18E8
330
F77
100
AcDbEntity
  8
DEFPOINTS
 62
     0
100
AcDbPoint
 10
17.500492
 20
15.059035
 30
0.0
  0
POINT
  5
18E9
330
F77
100
AcDbEntity
  8
DEFPOINTS
 62
     0
100
AcDbPoint
 10
18.684242
 20
15.087535
 30
0.0
  0
POINT
  5
18EA
330
F77
100
AcDbEntity
  8
DEFPOINTS
 62
     0
100
AcDbPoint
 10
18.684242
 20
16.285052
 30
0.0
  0
ENDBLK
  5
F83
330
F77
100
AcDbEntity
  8
0
100
AcDbBlockEnd
  0
BLOCK
  5
101E
330
1013
100
AcDbEntity
  8
0
100
AcDbBlockBegin
  2
*D49
 70
     1
 10
0.0
 20
0.0
 30
0.0
  3
*D49
  1

  0
LINE
  5
20F1
330
1013
100
AcDbEntity
  8
DIM
 62
     0
370
    -2
100
AcDbLine
 10
33.62557846702855
 20
13.201645
 30
0.0
 11
33.62557846702855
 21
13.029091
 31
0.0
  0
LINE
  5
20F2
330
1013
100
AcDbEntity
  8
DIM
 62
     0
370
    -2
100
AcDbLine
 10
33.50757846702855
 20
13.201645
 30
0.0
 11
33.50757846702855
 21
13.029091
 31
0.0
  0
LINE
  5
20F3
330
1013
100
AcDbEntity
  8
DIM
 62
     0
370
    -2
100
AcDbLine
 10
34.07557846702855
 20
13.261591
 30
0.0
 11
34.52557846702855
 21
13.261591
 31
0.0
  0
LINE
  5
20F4
330
1013
100
AcDbEntity
  8
DIM
 62
     0
370
    -2
100
AcDbLine
 10
33.05757846702855
 20
13.261591
 30
0.0
 11
32.60757846702855
 21
13.261591
 31
0.0
  0
SOLID
  5
20F5
330
1013
100
AcDbEntity
  8
DIM
 62
     0
100
AcDbTrace
 10
34.07557846702855
 20
13.336591
 30
0.0
 11
34.07557846702855
 21
13.186591
 31
0.0
 12
33.62557846702855
 22
13.261591
 32
0.0
 13
33.62557846702855
 23
13.261591
 33
0.0
  0
SOLID
  5
20F6
330
1013
100
AcDbEntity
  8
DIM
 62
     0
100
AcDbTrace
 10
33.05757846702855
 20
13.336591
 30
0.0
 11
33.05757846702855
 21
13.186591
 31
0.0
 12
33.50757846702855
 22
13.261591
 32
0.0
 13
33.50757846702855
 23
13.261591
 33
0.0
  0
MTEXT
  5
20F7
330
1013
100
AcDbEntity
  8
DIM
 62
     0
100
AcDbMText
 10
31.99195346702855
 20
13.261591
 30
0.0
 40
0.3125
 41
0.0
 71
     5
 72
     1
  1
\A1;0.120
 73
     1
 44
1.0
  0
POINT
  5
20F8
330
1013
100
AcDbEntity
  8
DEFPOINTS
 62
     0
100
AcDbPoint
 10
33.62557846702855
 20
13.359145
 30
0.0
  0
POINT
  5
20F9
330
1013
100
AcDbEntity
  8
DEFPOINTS
 62
     0
100
AcDbPoint
 10
33.50757846702855
 20
13.359145
 30
0.0
  0
POINT
  5
20FA
330
1013
100
AcDbEntity
  8
DEFPOINTS
 62
     0
100
AcDbPoint
 10
33.50757846702855
 20
13.261591
 30
0.0
  0
ENDBLK
  5
101F
330
1013
100
AcDbEntity
  8
0
100
AcDbBlockEnd
  0
BLOCK
  5
102C
330
1021
100
AcDbEntity
  8
0
100
AcDbBlockBegin
  2
*D50
 70
     1
 10
0.0
 20
0.0
 30
0.0
  3
*D50
  1

  0
LINE
  5
20E7
330
1021
100
AcDbEntity
  8
DIM
 62
     0
370
    -2
100
AcDbLine
 10
33.62557846702855
 20
15.245035
 30
0.0
 11
33.62557846702855
 21
15.93054399999999
 31
0.0
  0
LINE
  5
20E8
330
1021
100
AcDbEntity
  8
DIM
 62
     0
370
    -2
100
AcDbLine
 10
33.03457846702855
 20
15.307535
 30
0.0
 11
33.03457846702855
 21
15.93054399999999
 31
0.0
  0
LINE
  5
20E9
330
1021
100
AcDbEntity
  8
DIM
 62
     0
370
    -2
100
AcDbLine
 10
34.07557846702855
 20
15.69804399999999
 30
0.0
 11
34.52557846702855
 21
15.69804399999999
 31
0.0
  0
LINE
  5
20EA
330
1021
100
AcDbEntity
  8
DIM
 62
     0
370
    -2
100
AcDbLine
 10
32.58457846702855
 20
15.69804399999999
 30
0.0
 11
32.13457846702855
 21
15.69804399999999
 31
0.0
  0
SOLID
  5
20EB
330
1021
100
AcDbEntity
  8
DIM
 62
     0
100
AcDbTrace
 10
34.07557846702855
 20
15.773044
 30
0.0
 11
34.07557846702855
 21
15.623044
 31
0.0
 12
33.62557846702855
 22
15.69804399999999
 32
0.0
 13
33.62557846702855
 23
15.69804399999999
 33
0.0
  0
SOLID
  5
20EC
330
1021
100
AcDbEntity
  8
DIM
 62
     0
100
AcDbTrace
 10
32.58457846702855
 20
15.773044
 30
0.0
 11
32.58457846702855
 21
15.623044
 31
0.0
 12
33.03457846702855
 22
15.69804399999999
 32
0.0
 13
33.03457846702855
 23
15.69804399999999
 33
0.0
  0
MTEXT
  5
20ED
330
1021
100
AcDbEntity
  8
DIM
 62
     0
100
AcDbMText
 10
31.49942221702855
 20
15.69804399999999
 30
0.0
 40
0.3125
 41
0.0
 71
     5
 72
     1
  1
\A1;0.591
 73
     1
 44
1.0
  0
POINT
  5
20EE
330
1021
100
AcDbEntity
  8
DEFPOINTS
 62
     0
100
AcDbPoint
 10
33.62557846702855
 20
15.087535
 30
0.0
  0
POINT
  5
20EF
330
1021
100
AcDbEntity
  8
DEFPOINTS
 62
     0
100
AcDbPoint
 10
33.03457846702855
 20
15.150035
 30
0.0
  0
POINT
  5
20F0
330
1021
100
AcDbEntity
  8
DEFPOINTS
 62
     0
100
AcDbPoint
 10
33.03457846702855
 20
15.69804399999999
 30
0.0
  0
ENDBLK
  5
102D
330
1021
100
AcDbEntity
  8
0
100
AcDbBlockEnd
  0
BLOCK
  5
1B11
330
1AFA
100
AcDbEntity
  8
0
100
AcDbBlockBegin
  2
HBS
 70
     0
 10
0.0
 20
0.0
 30
0.0
  3
HBS
  1

  0
LINE
  5
1AFB
330
1AFA
100
AcDbEntity
  8
TITLE
100
AcDbLine
 10
0.0620000000000118
 20
10.266
 30
0.0
 11
16.53800000000001
 21
10.266
 31
0.0
  0
LINE
  5
1AFC
330
1AFA
100
AcDbEntity
  8
TITLE
100
AcDbLine
 10
16.53800000000001
 20
0.0620000000000012
 30
0.0
 11
0.0620000000000118
 21
0.0620000000000012
 31
0.0
  0
LINE
  5
1AFD
330
1AFA
100
AcDbEntity
  8
TITLE
100
AcDbLine
 10
0.0
 20
10.32799999999999
 30
0.0
 11
16.59999999999999
 21
10.32799999999999
 31
0.0
  0
LINE
  5
1AFE
330
1AFA
100
AcDbEntity
  8
TITLE
100
AcDbLine
 10
16.59999999999999
 20
0.0
 30
0.0
 11
0.0
 21
0.0
 31
0.0
  0
LINE
  5
1AFF
330
1AFA
100
AcDbEntity
  8
TITLE
100
AcDbLine
 10
0.0620000000000118
 20
9.848000000000002
 30
0.0
 11
16.53800000000001
 21
9.848000000000006
 31
0.0
  0
LINE
  5
1B00
330
1AFA
100
AcDbEntity
  8
TITLE
100
AcDbLine
 10
0.0620000000000118
 20
0.0620000000000012
 30
0.0
 11
0.0620000000000118
 21
10.266
 31
0.0
  0
LINE
  5
1B01
330
1AFA
100
AcDbEntity
  8
TITLE
100
AcDbLine
 10
0.0
 20
0.0
 30
0.0
 11
0.0
 21
10.32799999999999
 31
0.0
  0
TEXT
  5
1B02
330
1AFA
100
AcDbEntity
  8
TEXT
100
AcDbText
 10
0.2078333333333452
 20
9.888079195640081
 30
0.0
 40
0.125
  1
NAME
 72
     1
 11
0.4370000000000119
 21
9.888079195640081
 31
0.0
100
AcDbText
  0
TEXT
  5
1B03
330
1AFA
100
AcDbEntity
  8
TEXT
100
AcDbText
 10
0.2078333333333452
 20
10.09641252897341
 30
0.0
 40
0.125
  1
PART
 72
     1
 11
0.4370000000000119
 21
10.09641252897341
 31
0.0
100
AcDbText
  0
LINE
  5
1B04
330
1AFA
100
AcDbEntity
  8
TITLE
100
AcDbLine
 10
0.8120000000000118
 20
9.848000000000002
 30
0.0
 11
0.8120000000000118
 21
10.266
 31
0.0
  0
LINE
  5
1B05
330
1AFA
100
AcDbEntity
  8
TITLE
100
AcDbLine
 10
7.0
 20
10.266
 30
0.0
 11
7.0
 21
9.848000000000002
 31
0.0
  0
LINE
  5
1B06
330
1AFA
100
AcDbEntity
  8
TITLE
100
AcDbLine
 10
7.062000000000011
 20
10.266
 30
0.0
 11
7.062000000000011
 21
9.848000000000002
 31
0.0
  0
LINE
  5
1B07
330
1AFA
100
AcDbEntity
  8
TITLE
100
AcDbLine
 10
7.812000000000011
 20
10.266
 30
0.0
 11
7.812000000000011
 21
9.848000000000002
 31
0.0
  0
TEXT
  5
1B08
330
1AFA
100
AcDbEntity
  8
TEXT
100
AcDbText
 10
7.312000000000011
 20
9.888079195640081
 30
0.0
 40
0.125
  1
No.
 72
     1
 11
7.437000000000011
 21
9.888079195640081
 31
0.0
100
AcDbText
  0
TEXT
  5
1B09
330
1AFA
100
AcDbEntity
  8
TEXT
100
AcDbText
 10
7.207833333333344
 20
10.09641252897341
 30
0.0
 40
0.125
  1
PART
 72
     1
 11
7.437000000000011
 21
10.09641252897341
 31
0.0
100
AcDbText
  0
LINE
  5
1B0A
330
1AFA
100
AcDbEntity
  8
TITLE
100
AcDbLine
 10
16.53800000000001
 20
10.266
 30
0.0
 11
16.53800000000001
 21
0.0620000000000012
 31
0.0
  0
LINE
  5
1B0B
330
1AFA
100
AcDbEntity
  8
TITLE
100
AcDbLine
 10
16.59999999999999
 20
10.32799999999999
 30
0.0
 11
16.59999999999999
 21
0.0
 31
0.0
  0
TEXT
  5
1B0C
330
1AFA
100
AcDbEntity
  8
TEXT
100
AcDbText
 10
14.22865779971668
 20
10.09641252897341
 30
0.0
 40
0.125
  1
REV.
 72
     1
 11
14.43699113305001
 21
10.09641252897341
 31
0.0
100
AcDbText
  0
TEXT
  5
1B0D
330
1AFA
100
AcDbEntity
  8
TEXT
100
AcDbText
 10
14.20782446638335
 20
9.888079195640081
 30
0.0
 40
0.125
  1
DATE
 72
     1
 11
14.43699113305001
 21
9.888079195640081
 31
0.0
100
AcDbText
  0
LINE
  5
1B0E
330
1AFA
100
AcDbEntity
  8
TITLE
100
AcDbLine
 10
14.06199113305001
 20
10.266
 30
0.0
 11
14.06199113305001
 21
9.848000000000002
 31
0.0
  0
LINE
  5
1B0F
330
1AFA
100
AcDbEntity
  8
TITLE
100
AcDbLine
 10
14.81199113305001
 20
10.266
 30
0.0
 11
14.81199113305001
 21
9.848000000000002
 31
0.0
  0
LINE
  5
1B10
330
1AFA
100
AcDbEntity
  8
TITLE
100
AcDbLine
 10
13.99999113305
 20
10.266
 30
0.0
 11
13.99999113305
 21
9.848000000000002
 31
0.0
  0
ENDBLK
  5
1B12
330
1AFA
100
AcDbEntity
  8
0
100
AcDbBlockEnd
  0
BLOCK
  5
1BB3
330
1BA8
100
AcDbEntity
  8
0
100
AcDbBlockBegin
  2
*D52
 70
     1
 10
0.0
 20
0.0
 30
0.0
  3
*D52
  1

  0
LINE
  5
20A0
330
1BA8
100
AcDbEntity
  8
DIM
 62
     0
370
    -2
100
AcDbLine
 10
33.25642746702855
 20
19.90965199999999
 30
0.0
 11
34.57153746702855
 21
19.90965199999999
 31
0.0
  0
LINE
  5
20A1
330
1BA8
100
AcDbEntity
  8
DIM
 62
     0
370
    -2
100
AcDbLine
 10
33.25642746702855
 20
21.14965199999999
 30
0.0
 11
34.57153746702855
 21
21.14965199999999
 31
0.0
  0
LINE
  5
20A2
330
1BA8
100
AcDbEntity
  8
DIM
 62
     0
370
    -2
100
AcDbLine
 10
34.33903746702855
 20
19.45965199999999
 30
0.0
 11
34.33903746702855
 21
19.00965199999999
 31
0.0
  0
LINE
  5
20A3
330
1BA8
100
AcDbEntity
  8
DIM
 62
     0
370
    -2
100
AcDbLine
 10
34.33903746702855
 20
21.59965199999999
 30
0.0
 11
34.33903746702855
 21
22.04965199999999
 31
0.0
  0
SOLID
  5
20A4
330
1BA8
100
AcDbEntity
  8
DIM
 62
     0
100
AcDbTrace
 10
34.26403746702854
 20
19.45965199999999
 30
0.0
 11
34.41403746702855
 21
19.45965199999999
 31
0.0
 12
34.33903746702855
 22
19.90965199999999
 32
0.0
 13
34.33903746702855
 23
19.90965199999999
 33
0.0
  0
SOLID
  5
20A5
330
1BA8
100
AcDbEntity
  8
DIM
 62
     0
100
AcDbTrace
 10
34.26403746702854
 20
21.59965199999999
 30
0.0
 11
34.41403746702855
 21
21.59965199999999
 31
0.0
 12
34.33903746702855
 22
21.14965199999999
 32
0.0
 13
34.33903746702855
 23
21.14965199999999
 33
0.0
  0
MTEXT
  5
20A6
330
1BA8
100
AcDbEntity
  8
DIM
 62
     0
100
AcDbMText
 10
34.33903746702854
 20
20.529652
 30
0.0
 40
0.3125
 41
0.0
 71
     5
 72
     1
  1
\A1;0.310 DIA.\PC'BORE
 73
     1
 44
1.0
  0
POINT
  5
20A7
330
1BA8
100
AcDbEntity
  8
DEFPOINTS
 62
     0
100
AcDbPoint
 10
33.09892746702855
 20
19.90965199999999
 30
0.0
  0
POINT
  5
20A8
330
1BA8
100
AcDbEntity
  8
DEFPOINTS
 62
     0
100
AcDbPoint
 10
33.09892746702855
 20
21.14965199999999
 30
0.0
  0
POINT
  5
20A9
330
1BA8
100
AcDbEntity
  8
DEFPOINTS
 62
     0
100
AcDbPoint
 10
34.33903746702855
 20
21.14965199999999
 30
0.0
  0
ENDBLK
  5
1BB4
330
1BA8
100
AcDbEntity
  8
0
100
AcDbBlockEnd
  0
BLOCK
  5
1BC0
330
1BB5
100
AcDbEntity
  8
0
100
AcDbBlockBegin
  2
*D53
 70
     1
 10
0.0
 20
0.0
 30
0.0
  3
*D53
  1

  0
LINE
  5
20BF
330
1BB5
100
AcDbEntity
  8
DIM
 62
     0
370
    -2
100
AcDbLine
 10
30.58101246702855
 20
20.880941
 30
0.0
 11
29.02056146702855
 21
20.880941
 31
0.0
  0
LINE
  5
20C0
330
1BB5
100
AcDbEntity
  8
DIM
 62
     0
370
    -2
100
AcDbLine
 10
30.58101246702855
 20
20.193441
 30
0.0
 11
29.02056146702855
 21
20.193441
 31
0.0
  0
LINE
  5
20C1
330
1BB5
100
AcDbEntity
  8
DIM
 62
     0
370
    -2
100
AcDbLine
 10
29.25306146702855
 20
21.330941
 30
0.0
 11
29.25306146702855
 21
21.780941
 31
0.0
  0
LINE
  5
20C2
330
1BB5
100
AcDbEntity
  8
DIM
 62
     0
370
    -2
100
AcDbLine
 10
29.25306146702855
 20
19.743441
 30
0.0
 11
29.25306146702855
 21
19.293441
 31
0.0
  0
SOLID
  5
20C3
330
1BB5
100
AcDbEntity
  8
DIM
 62
     0
100
AcDbTrace
 10
29.17806146702855
 20
21.330941
 30
0.0
 11
29.32806146702855
 21
21.330941
 31
0.0
 12
29.25306146702855
 22
20.880941
 32
0.0
 13
29.25306146702855
 23
20.880941
 33
0.0
  0
SOLID
  5
20C4
330
1BB5
100
AcDbEntity
  8
DIM
 62
     0
100
AcDbTrace
 10
29.17806146702855
 20
19.743441
 30
0.0
 11
29.32806146702855
 21
19.743441
 31
0.0
 12
29.25306146702855
 22
20.193441
 32
0.0
 13
29.25306146702855
 23
20.193441
 33
0.0
  0
MTEXT
  5
20C5
330
1BB5
100
AcDbEntity
  8
DIM
 62
     0
100
AcDbMText
 10
29.25306146702855
 20
20.537191
 30
0.0
 40
0.3125
 41
0.0
 71
     5
 72
     1
  1
\A1;0.172 DIA.
 73
     1
 44
1.0
  0
POINT
  5
20C6
330
1BB5
100
AcDbEntity
  8
DEFPOINTS
 62
     0
100
AcDbPoint
 10
30.73851246702854
 20
20.880941
 30
0.0
  0
POINT
  5
20C7
330
1BB5
100
AcDbEntity
  8
DEFPOINTS
 62
     0
100
AcDbPoint
 10
30.73851246702854
 20
20.193441
 30
0.0
  0
POINT
  5
20C8
330
1BB5
100
AcDbEntity
  8
DEFPOINTS
 62
     0
100
AcDbPoint
 10
29.25306146702855
 20
20.193441
 30
0.0
  0
ENDBLK
  5
1BC1
330
1BB5
100
AcDbEntity
  8
0
100
AcDbBlockEnd
  0
BLOCK
  5
1BCE
330
1BC2
100
AcDbEntity
  8
0
100
AcDbBlockBegin
  2
*D54
 70
     1
 10
0.0
 20
0.0
 30
0.0
  3
*D54
  1

  0
LINE
  5
20B4
330
1BC2
100
AcDbEntity
  8
DIM
 62
     0
370
    -2
100
AcDbLine
 10
30.58193246702855
 20
21.327376
 30
0.0
 11
27.87818659660396
 21
21.327376
 31
0.0
  0
LINE
  5
20B5
330
1BC2
100
AcDbEntity
  8
DIM
 62
     0
370
    -2
100
AcDbLine
 10
30.58193246702855
 20
21.647376
 30
0.0
 11
27.87818659660396
 21
21.647376
 31
0.0
  0
LINE
  5
20B6
330
1BC2
100
AcDbEntity
  8
DIM
 62
     0
370
    -2
100
AcDbLine
 10
28.11068659660396
 20
22.09737599999999
 30
0.0
 11
28.11068659660396
 21
22.54737599999999
 31
0.0
  0
LINE
  5
20B7
330
1BC2
100
AcDbEntity
  8
DIM
 62
     0
370
    -2
100
AcDbLine
 10
28.11068659660396
 20
20.877376
 30
0.0
 11
28.11068659660396
 21
20.42737599999999
 31
0.0
  0
LINE
  5
20B8
330
1BC2
100
AcDbEntity
  8
DIM
 62
     0
370
    -2
100
AcDbLine
 10
28.11068659660396
 20
20.42737599999999
 30
0.0
 11
27.66068659660396
 21
20.42737599999999
 31
0.0
  0
SOLID
  5
20B9
330
1BC2
100
AcDbEntity
  8
DIM
 62
     0
100
AcDbTrace
 10
28.03568659660396
 20
22.09737599999999
 30
0.0
 11
28.18568659660396
 21
22.09737599999999
 31
0.0
 12
28.11068659660396
 22
21.647376
 32
0.0
 13
28.11068659660396
 23
21.647376
 33
0.0
  0
SOLID
  5
20BA
330
1BC2
100
AcDbEntity
  8
DIM
 62
     0
100
AcDbTrace
 10
28.03568659660396
 20
20.877376
 30
0.0
 11
28.18568659660396
 21
20.877376
 31
0.0
 12
28.11068659660396
 22
21.327376
 32
0.0
 13
28.11068659660396
 23
21.327376
 33
0.0
  0
MTEXT
  5
20BB
330
1BC2
100
AcDbEntity
  8
DIM
 62
     0
100
AcDbMText
 10
27.02553034660395
 20
20.427376
 30
0.0
 40
0.3125
 41
0.0
 71
     5
 72
     1
  1
\A1;0.080
 73
     1
 44
1.0
  0
POINT
  5
20BC
330
1BC2
100
AcDbEntity
  8
DEFPOINTS
 62
     0
100
AcDbPoint
 10
30.73943246702855
 20
21.327376
 30
0.0
  0
POINT
  5
20BD
330
1BC2
100
AcDbEntity
  8
DEFPOINTS
 62
     0
100
AcDbPoint
 10
30.73943246702855
 20
21.647376
 30
0.0
  0
POINT
  5
20BE
330
1BC2
100
AcDbEntity
  8
DEFPOINTS
 62
     0
100
AcDbPoint
 10
28.11068659660396
 20
21.647376
 30
0.0
  0
ENDBLK
  5
1BCF
330
1BC2
100
AcDbEntity
  8
0
100
AcDbBlockEnd
  0
BLOCK
  5
1BDB
330
1BD0
100
AcDbEntity
  8
0
100
AcDbBlockBegin
  2
*D55
 70
     1
 10
0.0
 20
0.0
 30
0.0
  3
*D55
  1

  0
LINE
  5
20FB
330
1BD0
100
AcDbEntity
  8
DIM
 62
     0
370
    -2
100
AcDbLine
 10
33.10343246702855
 20
19.685691
 30
0.0
 11
33.10343246702855
 21
18.66102227763558
 31
0.0
  0
LINE
  5
20FC
330
1BD0
100
AcDbEntity
  8
DIM
 62
     0
370
    -2
100
AcDbLine
 10
32.62343246702855
 20
19.759691
 30
0.0
 11
32.62343246702855
 21
18.66102227763558
 31
0.0
  0
LINE
  5
20FD
330
1BD0
100
AcDbEntity
  8
DIM
 62
     0
370
    -2
100
AcDbLine
 10
33.55343246702854
 20
18.89352227763559
 30
0.0
 11
34.00343246702854
 21
18.89352227763559
 31
0.0
  0
LINE
  5
20FE
330
1BD0
100
AcDbEntity
  8
DIM
 62
     0
370
    -2
100
AcDbLine
 10
32.17343246702855
 20
18.89352227763559
 30
0.0
 11
31.72343246702855
 21
18.89352227763559
 31
0.0
  0
SOLID
  5
20FF
330
1BD0
100
AcDbEntity
  8
DIM
 62
     0
100
AcDbTrace
 10
33.55343246702854
 20
18.96852227763559
 30
0.0
 11
33.55343246702854
 21
18.81852227763559
 31
0.0
 12
33.10343246702855
 22
18.89352227763559
 32
0.0
 13
33.10343246702855
 23
18.89352227763559
 33
0.0
  0
SOLID
  5
2100
330
1BD0
100
AcDbEntity
  8
DIM
 62
     0
100
AcDbTrace
 10
32.17343246702855
 20
18.96852227763559
 30
0.0
 11
32.17343246702855
 21
18.81852227763559
 31
0.0
 12
32.62343246702855
 22
18.89352227763559
 32
0.0
 13
32.62343246702855
 23
18.89352227763559
 33
0.0
  0
MTEXT
  5
2101
330
1BD0
100
AcDbEntity
  8
DIM
 62
     0
100
AcDbMText
 10
31.10780746702855
 20
18.89352227763559
 30
0.0
 40
0.3125
 41
0.0
 71
     5
 72
     1
  1
\A1;0.120
 73
     1
 44
1.0
  0
POINT
  5
2102
330
1BD0
100
AcDbEntity
  8
DEFPOINTS
 62
     0
100
AcDbPoint
 10
33.10343246702855
 20
19.843191
 30
0.0
  0
POINT
  5
2103
330
1BD0
100
AcDbEntity
  8
DEFPOINTS
 62
     0
100
AcDbPoint
 10
32.62343246702855
 20
19.917191
 30
0.0
  0
POINT
  5
2104
330
1BD0
100
AcDbEntity
  8
DEFPOINTS
 62
     0
100
AcDbPoint
 10
32.62343246702855
 20
18.89352227763559
 30
0.0
  0
ENDBLK
  5
1BDC
330
1BD0
100
AcDbEntity
  8
0
100
AcDbBlockEnd
  0
BLOCK
  5
1BE8
330
1BDD
100
AcDbEntity
  8
0
100
AcDbBlockBegin
  2
*D56
 70
     1
 10
0.0
 20
0.0
 30
0.0
  3
*D56
  1

  0
LINE
  5
2105
330
1BDD
100
AcDbEntity
  8
DIM
 62
     0
370
    -2
100
AcDbLine
 10
30.73943246702855
 20
22.74555599999999
 30
0.0
 11
30.73943246702855
 21
23.49542066623146
 31
0.0
  0
LINE
  5
2106
330
1BDD
100
AcDbEntity
  8
DIM
 62
     0
370
    -2
100
AcDbLine
 10
31.19943246702855
 20
21.804876
 30
0.0
 11
31.19943246702855
 21
23.49542066623146
 31
0.0
  0
LINE
  5
2107
330
1BDD
100
AcDbEntity
  8
DIM
 62
     0
370
    -2
100
AcDbLine
 10
30.28943246702855
 20
23.26292066623146
 30
0.0
 11
29.83943246702855
 21
23.26292066623146
 31
0.0
  0
LINE
  5
2108
330
1BDD
100
AcDbEntity
  8
DIM
 62
     0
370
    -2
100
AcDbLine
 10
31.64943246702855
 20
23.26292066623146
 30
0.0
 11
32.09943246702855
 21
23.26292066623146
 31
0.0
  0
SOLID
  5
2109
330
1BDD
100
AcDbEntity
  8
DIM
 62
     0
100
AcDbTrace
 10
30.28943246702855
 20
23.33792066623145
 30
0.0
 11
30.28943246702855
 21
23.18792066623145
 31
0.0
 12
30.73943246702855
 22
23.26292066623146
 32
0.0
 13
30.73943246702855
 23
23.26292066623146
 33
0.0
  0
SOLID
  5
210A
330
1BDD
100
AcDbEntity
  8
DIM
 62
     0
100
AcDbTrace
 10
31.64943246702855
 20
23.33792066623145
 30
0.0
 11
31.64943246702855
 21
23.18792066623145
 31
0.0
 12
31.19943246702855
 22
23.26292066623146
 32
0.0
 13
31.19943246702855
 23
23.26292066623146
 33
0.0
  0
MTEXT
  5
210B
330
1BDD
100
AcDbEntity
  8
DIM
 62
     0
100
AcDbMText
 10
32.69552621702855
 20
23.26292066623146
 30
0.0
 40
0.3125
 41
0.0
 71
     5
 72
     1
  1
\A1;0.115
 73
     1
 44
1.0
  0
POINT
  5
210C
330
1BDD
100
AcDbEntity
  8
DEFPOINTS
 62
     0
100
AcDbPoint
 10
30.73943246702855
 20
22.588056
 30
0.0
  0
POINT
  5
210D
330
1BDD
100
AcDbEntity
  8
DEFPOINTS
 62
     0
100
AcDbPoint
 10
31.19943246702855
 20
21.647376
 30
0.0
  0
POINT
  5
210E
330
1BDD
100
AcDbEntity
  8
DEFPOINTS
 62
     0
100
AcDbPoint
 10
31.19943246702855
 20
23.26292066623146
 30
0.0
  0
ENDBLK
  5
1BE9
330
1BDD
100
AcDbEntity
  8
0
100
AcDbBlockEnd
  0
ENDSEC
  0
SECTION
  2
ENTITIES
  0
LINE
  5
B7E
330
1E
100
AcDbEntity
  8
OBJECT
100
AcDbLine
 10
17.044242
 20
15.072035
 30
0.0
 11
17.104242
 21
15.072035
 31
0.0
  0
LINE
  5
B7F
102
{ACAD_REACTORS
330
205A
102
}
330
1E
100
AcDbEntity
  8
OBJECT
100
AcDbLine
 10
17.104242
 20
15.130035
 30
0.0
 11
17.144242
 21
15.130035
 31
0.0
  0
LINE
  5
B80
102
{ACAD_REACTORS
330
205A
102
}
330
1E
100
AcDbEntity
  8
OBJECT
100
AcDbLine
 10
17.104242
 20
6.430035
 30
0.0
 11
17.144242
 21
6.430035
 31
0.0
  0
LINE
  5
B81
102
{ACAD_REACTORS
330
205A
102
}
330
1E
100
AcDbEntity
  8
OBJECT
100
AcDbLine
 10
17.144242
 20
6.410034999999999
 30
0.0
 11
17.144242
 21
6.430035
 31
0.0
  0
LINE
  5
B82
102
{ACAD_REACTORS
330
205A
102
}
330
1E
100
AcDbEntity
  8
OBJECT
100
AcDbLine
 10
17.104242
 20
6.430035
 30
0.0
 11
17.104242
 21
6.86116
 31
0.0
  0
ARC
  5
B83
102
{ACAD_REACTORS
330
205A
102
}
330
1E
100
AcDbEntity
  8
OBJECT
100
AcDbCircle
 10
18.621742
 20
15.087535
 30
0.0
 40
0.0625
100
AcDbArc
 50
0.0
 51
90.0
  0
ARC
  5
B84
102
{ACAD_REACTORS
330
205A
102
}
330
1E
100
AcDbEntity
  8
OBJECT
100
AcDbCircle
 10
18.621742
 20
6.472534999999999
 30
0.0
 40
0.0625
100
AcDbArc
 50
270.0
 51
0.0
  0
LINE
  5
B85
102
{ACAD_REACTORS
330
205A
102
}
330
1E
100
AcDbEntity
  8
OBJECT
100
AcDbLine
 10
17.044242
 20
6.86116
 30
0.0
 11
17.044242
 21
15.072035
 31
0.0
  0
LINE
  5
B86
102
{ACAD_REACTORS
330
205A
102
}
330
1E
100
AcDbEntity
  8
OBJECT
100
AcDbLine
 10
17.144242
 20
6.410034999999999
 30
0.0
 11
18.621742
 21
6.410034999999999
 31
0.0
  0
LINE
  5
B87
102
{ACAD_REACTORS
330
205A
102
}
330
1E
100
AcDbEntity
  8
OBJECT
100
AcDbLine
 10
18.684242
 20
6.472534999999999
 30
0.0
 11
18.684242
 21
15.087535
 31
0.0
  0
LINE
  5
B88
102
{ACAD_REACTORS
330
205A
102
}
330
1E
100
AcDbEntity
  8
OBJECT
100
AcDbLine
 10
18.621742
 20
15.150035
 30
0.0
 11
17.144242
 21
15.150035
 31
0.0
  0
LINE
  5
B89
330
1E
100
AcDbEntity
  8
OBJECT
100
AcDbLine
 10
11.296819
 20
6.628785
 30
0.0
 11
11.296819
 21
14.931285
 31
0.0
  0
LINE
  5
B8A
330
1E
100
AcDbEntity
  8
OBJECT
100
AcDbLine
 10
11.078069
 20
15.150035
 30
0.0
 11
5.775568999999999
 21
15.150035
 31
0.0
  0
LINE
  5
B8B
330
1E
100
AcDbEntity
  8
OBJECT
100
AcDbLine
 10
5.556818999999999
 20
14.931285
 30
0.0
 11
5.556818999999999
 21
6.628785
 31
0.0
  0
LINE
  5
B8C
330
1E
100
AcDbEntity
  8
OBJECT
100
AcDbLine
 10
5.775568999999999
 20
6.410034999999999
 30
0.0
 11
11.078069
 21
6.410034999999999
 31
0.0
  0
LINE
  5
B8D
330
1E
100
AcDbEntity
  8
CENTER
100
AcDbLine
 10
6.979068999999999
 20
6.348805999999999
 30
0.0
 11
6.979068999999999
 21
6.723324
 31
0.0
  0
LINE
  5
B91
330
1E
100
AcDbEntity
  8
OBJECT
100
AcDbLine
 10
7.072818999999999
 20
6.591035
 30
0.0
 11
7.022819
 21
6.591035
 31
0.0
  0
LINE
  5
B92
330
1E
100
AcDbEntity
  8
OBJECT
100
AcDbLine
 10
7.022819
 20
6.528035
 30
0.0
 11
7.022819
 21
6.591035
 31
0.0
  0
LINE
  5
B93
330
1E
100
AcDbEntity
  8
OBJECT
100
AcDbLine
 10
6.935318999999999
 20
6.528035
 30
0.0
 11
6.935318999999999
 21
6.591035
 31
0.0
  0
LINE
  5
B94
330
1E
100
AcDbEntity
  8
OBJECT
100
AcDbLine
 10
6.885318999999999
 20
6.591035
 30
0.0
 11
6.935318999999999
 21
6.591035
 31
0.0
  0
LINE
  5
B95
330
1E
100
AcDbEntity
  8
OBJECT
100
AcDbLine
 10
6.885318999999999
 20
6.528035
 30
0.0
 11
6.885318999999999
 21
6.591035
 31
0.0
  0
LINE
  5
B96
330
1E
100
AcDbEntity
  8
OBJECT
100
AcDbLine
 10
7.072818999999999
 20
6.528035
 30
0.0
 11
7.072818999999999
 21
6.591035
 31
0.0
  0
LINE
  5
B97
330
1E
100
AcDbEntity
  8
OBJECT
100
AcDbLine
 10
5.775568999999999
 20
6.430035
 30
0.0
 11
11.078069
 21
6.430035
 31
0.0
  0
LINE
  5
B98
330
1E
100
AcDbEntity
  8
OBJECT
100
AcDbLine
 10
5.576819
 20
6.628785
 30
0.0
 11
5.576819
 21
14.931285
 31
0.0
  0
LINE
  5
B99
330
1E
100
AcDbEntity
  8
OBJECT
100
AcDbLine
 10
6.541223999999999
 20
6.528035
 30
0.0
 11
10.312413
 21
6.528035
 31
0.0
  0
LINE
  5
B9A
330
1E
100
AcDbEntity
  8
OBJECT
100
AcDbLine
 10
6.541223999999999
 20
6.488034999999999
 30
0.0
 11
10.312413
 21
6.488034999999999
 31
0.0
  0
CIRCLE
  5
B9B
330
1E
100
AcDbEntity
  8
OBJECT
100
AcDbCircle
 10
7.659318999999999
 20
7.512535
 30
0.0
 40
0.1575
  0
CIRCLE
  5
B9C
330
1E
100
AcDbEntity
  8
OBJECT
100
AcDbCircle
 10
9.194319
 20
7.512535
 30
0.0
 40
0.1575
  0
LINE
  5
B9D
330
1E
100
AcDbEntity
  8
OBJECT
100
AcDbLine
 10
8.520569
 20
6.528035
 30
0.0
 11
8.520569
 21
6.591035
 31
0.0
  0
LINE
  5
B9E
330
1E
100
AcDbEntity
  8
OBJECT
100
AcDbLine
 10
8.333069
 20
6.528035
 30
0.0
 11
8.333069
 21
6.591035
 31
0.0
  0
LINE
  5
B9F
330
1E
100
AcDbEntity
  8
OBJECT
100
AcDbLine
 10
8.333069
 20
6.591035
 30
0.0
 11
8.383069
 21
6.591035
 31
0.0
  0
LINE
  5
BA0
330
1E
100
AcDbEntity
  8
OBJECT
100
AcDbLine
 10
8.383069
 20
6.528035
 30
0.0
 11
8.383069
 21
6.591035
 31
0.0
  0
LINE
  5
BA1
330
1E
100
AcDbEntity
  8
OBJECT
100
AcDbLine
 10
8.470568999999999
 20
6.528035
 30
0.0
 11
8.470568999999999
 21
6.591035
 31
0.0
  0
LINE
  5
BA2
330
1E
100
AcDbEntity
  8
OBJECT
100
AcDbLine
 10
8.520569
 20
6.591035
 30
0.0
 11
8.470568999999999
 21
6.591035
 31
0.0
  0
LINE
  5
BA3
330
1E
100
AcDbEntity
  8
CENTER
100
AcDbLine
 10
8.426819
 20
6.348805999999999
 30
0.0
 11
8.426819
 21
6.723324
 31
0.0
  0
LINE
  5
BA4
330
1E
100
AcDbEntity
  8
OBJECT
100
AcDbLine
 10
9.780819000000001
 20
6.528035
 30
0.0
 11
9.780819000000001
 21
6.591035
 31
0.0
  0
LINE
  5
BA5
330
1E
100
AcDbEntity
  8
OBJECT
100
AcDbLine
 10
9.968319000000001
 20
6.528035
 30
0.0
 11
9.968319000000001
 21
6.591035
 31
0.0
  0
LINE
  5
BA6
330
1E
100
AcDbEntity
  8
OBJECT
100
AcDbLine
 10
9.968319000000001
 20
6.591035
 30
0.0
 11
9.918319
 21
6.591035
 31
0.0
  0
LINE
  5
BA7
330
1E
100
AcDbEntity
  8
OBJECT
100
AcDbLine
 10
9.918319
 20
6.528035
 30
0.0
 11
9.918319
 21
6.591035
 31
0.0
  0
LINE
  5
BA8
330
1E
100
AcDbEntity
  8
OBJECT
100
AcDbLine
 10
9.830818999999999
 20
6.528035
 30
0.0
 11
9.830818999999999
 21
6.591035
 31
0.0
  0
LINE
  5
BA9
330
1E
100
AcDbEntity
  8
OBJECT
100
AcDbLine
 10
9.780819000000001
 20
6.591035
 30
0.0
 11
9.830818999999999
 21
6.591035
 31
0.0
  0
LINE
  5
BAD
330
1E
100
AcDbEntity
  8
CENTER
100
AcDbLine
 10
9.874569000000001
 20
6.348805999999999
 30
0.0
 11
9.874569000000001
 21
6.723324
 31
0.0
  0
LINE
  5
BAE
330
1E
100
AcDbEntity
  8
OBJECT
100
AcDbLine
 10
11.276819
 20
6.628785
 30
0.0
 11
11.276819
 21
14.931285
 31
0.0
  0
LINE
  5
BAF
330
1E
100
AcDbEntity
  8
OBJECT
100
AcDbLine
 10
11.21881899999999
 20
7.00116
 30
0.0
 11
11.21881899999999
 21
10.43003499999999
 31
0.0
  0
LINE
  5
BB0
330
1E
100
AcDbEntity
  8
OBJECT
100
AcDbLine
 10
11.178819
 20
7.00116
 30
0.0
 11
11.178819
 21
10.43003499999999
 31
0.0
  0
LINE
  5
BB1
330
1E
100
AcDbEntity
  8
CENTER
100
AcDbLine
 10
9.874569000000001
 20
15.211264
 30
0.0
 11
9.874569000000001
 21
14.836747
 31
0.0
  0
ARC
  5
BB2
330
1E
100
AcDbEntity
  8
OBJECT
100
AcDbCircle
 10
11.078069
 20
14.931285
 30
0.0
 40
0.19875
100
AcDbArc
 50
0.0
 51
90.0
  0
CIRCLE
  5
BB3
330
1E
100
AcDbEntity
  8
OBJECT
100
AcDbCircle
 10
10.706819
 20
14.897473
 30
0.0
 40
0.085937
  0
LINE
  5
BB7
330
1E
100
AcDbEntity
  8
OBJECT
100
AcDbLine
 10
9.780819000000001
 20
14.969035
 30
0.0
 11
9.830818999999999
 21
14.969035
 31
0.0
  0
LINE
  5
BB8
330
1E
100
AcDbEntity
  8
OBJECT
100
AcDbLine
 10
9.830818999999999
 20
15.032035
 30
0.0
 11
9.830818999999999
 21
14.969035
 31
0.0
  0
LINE
  5
BB9
330
1E
100
AcDbEntity
  8
OBJECT
100
AcDbLine
 10
9.918319
 20
15.032035
 30
0.0
 11
9.918319
 21
14.969035
 31
0.0
  0
LINE
  5
BBA
330
1E
100
AcDbEntity
  8
OBJECT
100
AcDbLine
 10
9.968319000000001
 20
14.969035
 30
0.0
 11
9.918319
 21
14.969035
 31
0.0
  0
LINE
  5
BBB
330
1E
100
AcDbEntity
  8
OBJECT
100
AcDbLine
 10
9.968319000000001
 20
15.032035
 30
0.0
 11
9.968319000000001
 21
14.969035
 31
0.0
  0
LINE
  5
BBC
330
1E
100
AcDbEntity
  8
OBJECT
100
AcDbLine
 10
9.780819000000001
 20
15.032035
 30
0.0
 11
9.780819000000001
 21
14.969035
 31
0.0
  0
CIRCLE
  5
BBD
330
1E
100
AcDbEntity
  8
OBJECT
100
AcDbCircle
 10
11.060819
 20
14.905285
 30
0.0
 40
0.0625
  0
CIRCLE
  5
BBE
330
1E
100
AcDbEntity
  8
OBJECT
100
AcDbCircle
 10
11.060819
 20
14.905285
 30
0.0
 40
0.125
  0
LINE
  5
BBF
330
1E
100
AcDbEntity
  8
OBJECT
100
AcDbLine
 10
11.078819
 20
14.65891
 30
0.0
 11
10.692646
 21
14.65891
 31
0.0
  0
ARC
  5
BC0
330
1E
100
AcDbEntity
  8
OBJECT
100
AcDbCircle
 10
10.692646
 20
14.90891
 30
0.0
 40
0.25
100
AcDbArc
 50
182.125976
 51
270.0
  0
ARC
  5
BC1
330
1E
100
AcDbEntity
  8
OBJECT
100
AcDbCircle
 10
10.305413
 20
14.894535
 30
0.0
 40
0.1375
100
AcDbArc
 50
2.125975999999999
 51
90.0
  0
LINE
  5
BC2
330
1E
100
AcDbEntity
  8
OBJECT
100
AcDbLine
 10
10.91143999999999
 20
15.080035
 30
0.0
 11
10.383413
 21
15.080035
 31
0.0
  0
LINE
  5
BC3
330
1E
100
AcDbEntity
  8
OBJECT
100
AcDbLine
 10
10.92903699999999
 20
14.71691
 30
0.0
 11
10.680646
 21
14.71691
 31
0.0
  0
ARC
  5
BC4
330
1E
100
AcDbEntity
  8
OBJECT
100
AcDbCircle
 10
10.680646
 20
14.89691
 30
0.0
 40
0.18
100
AcDbArc
 50
182.125976
 51
270.0
  0
ARC
  5
BC5
330
1E
100
AcDbEntity
  8
OBJECT
100
AcDbCircle
 10
10.293413
 20
14.882535
 30
0.0
 40
0.2075
100
AcDbArc
 50
2.125975999999999
 51
64.942385
  0
ARC
  5
BC6
330
1E
100
AcDbEntity
  8
OBJECT
100
AcDbCircle
 10
10.383413
 20
15.075035
 30
0.0
 40
0.005
100
AcDbArc
 50
90.0
 51
244.942385
  0
ARC
  5
BC7
330
1E
100
AcDbEntity
  8
OBJECT
100
AcDbCircle
 10
11.078819
 20
14.55891
 30
0.0
 40
0.1
100
AcDbArc
 50
0.0
 51
90.0
  0
CIRCLE
  5
BC8
330
1E
100
AcDbEntity
  8
OBJECT
100
AcDbCircle
 10
11.216819
 20
14.70790199999999
 30
0.0
 40
0.03125
  0
CIRCLE
  5
BC9
330
1E
100
AcDbEntity
  8
OBJECT
100
AcDbCircle
 10
11.060819
 20
14.905285
 30
0.0
 40
0.164063
  0
ARC
  5
BCA
330
1E
100
AcDbEntity
  8
OBJECT
100
AcDbCircle
 10
11.078069
 20
14.931285
 30
0.0
 40
0.21875
100
AcDbArc
 50
0.0
 51
90.0
  0
LINE
  5
BCB
330
1E
100
AcDbEntity
  8
OBJECT
100
AcDbLine
 10
11.078819
 20
14.69891
 30
0.0
 11
10.692646
 21
14.69891
 31
0.0
  0
ARC
  5
BCC
330
1E
100
AcDbEntity
  8
OBJECT
100
AcDbCircle
 10
11.078819
 20
14.55891
 30
0.0
 40
0.14
100
AcDbArc
 50
0.0
 51
90.0
  0
ARC
  5
BCD
330
1E
100
AcDbEntity
  8
OBJECT
100
AcDbCircle
 10
10.692646
 20
14.90891
 30
0.0
 40
0.21
100
AcDbArc
 50
182.125976
 51
270.0
  0
ARC
  5
BCE
330
1E
100
AcDbEntity
  8
OBJECT
100
AcDbCircle
 10
10.305413
 20
14.894535
 30
0.0
 40
0.1775
100
AcDbArc
 50
2.125975999999999
 51
90.0
  0
LINE
  5
BCF
330
1E
100
AcDbEntity
  8
CENTER
100
AcDbLine
 10
8.426819
 20
15.211264
 30
0.0
 11
8.426819
 21
14.836747
 31
0.0
  0
LINE
  5
BD0
330
1E
100
AcDbEntity
  8
OBJECT
100
AcDbLine
 10
8.520569
 20
14.969035
 30
0.0
 11
8.470568999999999
 21
14.969035
 31
0.0
  0
LINE
  5
BD1
330
1E
100
AcDbEntity
  8
OBJECT
100
AcDbLine
 10
8.470568999999999
 20
15.032035
 30
0.0
 11
8.470568999999999
 21
14.969035
 31
0.0
  0
LINE
  5
BD2
330
1E
100
AcDbEntity
  8
OBJECT
100
AcDbLine
 10
8.383069
 20
15.032035
 30
0.0
 11
8.383069
 21
14.969035
 31
0.0
  0
LINE
  5
BD3
330
1E
100
AcDbEntity
  8
OBJECT
100
AcDbLine
 10
8.333069
 20
14.969035
 30
0.0
 11
8.383069
 21
14.969035
 31
0.0
  0
LINE
  5
BD4
330
1E
100
AcDbEntity
  8
OBJECT
100
AcDbLine
 10
8.333069
 20
15.032035
 30
0.0
 11
8.333069
 21
14.969035
 31
0.0
  0
LINE
  5
BD5
330
1E
100
AcDbEntity
  8
OBJECT
100
AcDbLine
 10
8.520569
 20
15.032035
 30
0.0
 11
8.520569
 21
14.969035
 31
0.0
  0
CIRCLE
  5
BD6
330
1E
100
AcDbEntity
  8
OBJECT
100
AcDbCircle
 10
9.194319
 20
14.04753499999999
 30
0.0
 40
0.1575
  0
CIRCLE
  5
BD7
330
1E
100
AcDbEntity
  8
OBJECT
100
AcDbCircle
 10
7.659318999999999
 20
14.04753499999999
 30
0.0
 40
0.1575
  0
LINE
  5
BD8
330
1E
100
AcDbEntity
  8
OBJECT
100
AcDbLine
 10
6.548223999999999
 20
15.072035
 30
0.0
 11
10.305413
 21
15.072035
 31
0.0
  0
ARC
  5
BD9
330
1E
100
AcDbEntity
  8
OBJECT
100
AcDbCircle
 10
6.548223999999999
 20
14.894535
 30
0.0
 40
0.1775
100
AcDbArc
 50
90.0
 51
177.8740239999999
  0
ARC
  5
BDA
330
1E
100
AcDbEntity
  8
OBJECT
100
AcDbCircle
 10
6.160991
 20
14.90891
 30
0.0
 40
0.21
100
AcDbArc
 50
270.0
 51
357.874024
  0
ARC
  5
BDB
330
1E
100
AcDbEntity
  8
OBJECT
100
AcDbCircle
 10
5.774818999999999
 20
14.55891
 30
0.0
 40
0.14
100
AcDbArc
 50
90.0
 51
180.0
  0
LINE
  5
BDC
330
1E
100
AcDbEntity
  8
OBJECT
100
AcDbLine
 10
5.774818999999999
 20
14.69891
 30
0.0
 11
6.160991
 21
14.69891
 31
0.0
  0
LINE
  5
BDD
330
1E
100
AcDbEntity
  8
OBJECT
100
AcDbLine
 10
6.548223999999999
 20
15.032035
 30
0.0
 11
10.305413
 21
15.032035
 31
0.0
  0
LINE
  5
BDE
330
1E
100
AcDbEntity
  8
OBJECT
100
AcDbLine
 10
5.775568999999999
 20
15.130035
 30
0.0
 11
11.078069
 21
15.130035
 31
0.0
  0
ARC
  5
BDF
330
1E
100
AcDbEntity
  8
OBJECT
100
AcDbCircle
 10
5.775568999999999
 20
14.931285
 30
0.0
 40
0.21875
100
AcDbArc
 50
90.0
 51
180.0
  0
CIRCLE
  5
BE0
330
1E
100
AcDbEntity
  8
OBJECT
100
AcDbCircle
 10
5.792819
 20
14.905285
 30
0.0
 40
0.164063
  0
CIRCLE
  5
BE1
330
1E
100
AcDbEntity
  8
OBJECT
100
AcDbCircle
 10
5.636819
 20
14.70790199999999
 30
0.0
 40
0.03125
  0
ARC
  5
BE2
330
1E
100
AcDbEntity
  8
OBJECT
100
AcDbCircle
 10
5.774818999999999
 20
14.55891
 30
0.0
 40
0.1
100
AcDbArc
 50
90.0
 51
180.0
  0
ARC
  5
BE3
330
1E
100
AcDbEntity
  8
OBJECT
100
AcDbCircle
 10
6.470223999999999
 20
15.075035
 30
0.0
 40
0.005
100
AcDbArc
 50
295.057615
 51
90.0
  0
ARC
  5
BE4
330
1E
100
AcDbEntity
  8
OBJECT
100
AcDbCircle
 10
6.560224
 20
14.882535
 30
0.0
 40
0.2075
100
AcDbArc
 50
115.0576149999999
 51
177.8740239999999
  0
ARC
  5
BE5
330
1E
100
AcDbEntity
  8
OBJECT
100
AcDbCircle
 10
6.172991
 20
14.89691
 30
0.0
 40
0.18
100
AcDbArc
 50
270.0
 51
357.874024
  0
LINE
  5
BE6
330
1E
100
AcDbEntity
  8
OBJECT
100
AcDbLine
 10
5.924599999999999
 20
14.71691
 30
0.0
 11
6.172991
 21
14.71691
 31
0.0
  0
LINE
  5
BE7
330
1E
100
AcDbEntity
  8
OBJECT
100
AcDbLine
 10
5.942197
 20
15.080035
 30
0.0
 11
6.470223999999999
 21
15.080035
 31
0.0
  0
ARC
  5
BE8
330
1E
100
AcDbEntity
  8
OBJECT
100
AcDbCircle
 10
6.548223999999999
 20
14.894535
 30
0.0
 40
0.1375
100
AcDbArc
 50
90.0
 51
177.8740239999999
  0
ARC
  5
BE9
330
1E
100
AcDbEntity
  8
OBJECT
100
AcDbCircle
 10
6.160991
 20
14.90891
 30
0.0
 40
0.25
100
AcDbArc
 50
270.0
 51
357.874024
  0
LINE
  5
BEA
330
1E
100
AcDbEntity
  8
OBJECT
100
AcDbLine
 10
5.774818999999999
 20
14.65891
 30
0.0
 11
6.160991
 21
14.65891
 31
0.0
  0
CIRCLE
  5
BEB
330
1E
100
AcDbEntity
  8
OBJECT
100
AcDbCircle
 10
5.792819
 20
14.905285
 30
0.0
 40
0.125
  0
CIRCLE
  5
BEC
330
1E
100
AcDbEntity
  8
OBJECT
100
AcDbCircle
 10
5.792819
 20
14.905285
 30
0.0
 40
0.0625
  0
LINE
  5
BED
330
1E
100
AcDbEntity
  8
OBJECT
100
AcDbLine
 10
7.072818999999999
 20
15.032035
 30
0.0
 11
7.072818999999999
 21
14.969035
 31
0.0
  0
LINE
  5
BEE
330
1E
100
AcDbEntity
  8
OBJECT
100
AcDbLine
 10
6.885318999999999
 20
15.032035
 30
0.0
 11
6.885318999999999
 21
14.969035
 31
0.0
  0
LINE
  5
BEF
330
1E
100
AcDbEntity
  8
OBJECT
100
AcDbLine
 10
6.885318999999999
 20
14.969035
 30
0.0
 11
6.935318999999999
 21
14.969035
 31
0.0
  0
LINE
  5
BF0
330
1E
100
AcDbEntity
  8
OBJECT
100
AcDbLine
 10
6.935318999999999
 20
15.032035
 30
0.0
 11
6.935318999999999
 21
14.969035
 31
0.0
  0
LINE
  5
BF1
330
1E
100
AcDbEntity
  8
OBJECT
100
AcDbLine
 10
7.022819
 20
15.032035
 30
0.0
 11
7.022819
 21
14.969035
 31
0.0
  0
LINE
  5
BF2
330
1E
100
AcDbEntity
  8
OBJECT
100
AcDbLine
 10
7.072818999999999
 20
14.969035
 30
0.0
 11
7.022819
 21
14.969035
 31
0.0
  0
CIRCLE
  5
BF6
330
1E
100
AcDbEntity
  8
OBJECT
100
AcDbCircle
 10
6.146818999999999
 20
14.897473
 30
0.0
 40
0.085937
  0
ARC
  5
BF7
330
1E
100
AcDbEntity
  8
OBJECT
100
AcDbCircle
 10
5.775568999999999
 20
14.931285
 30
0.0
 40
0.19875
100
AcDbArc
 50
90.0
 51
180.0
  0
LINE
  5
BF8
330
1E
100
AcDbEntity
  8
CENTER
100
AcDbLine
 10
6.979068999999999
 20
15.211264
 30
0.0
 11
6.979068999999999
 21
14.836747
 31
0.0
  0
CIRCLE
  5
BF9
330
1E
100
AcDbEntity
  8
OBJECT
100
AcDbCircle
 10
11.227199
 20
10.587782
 30
0.0
 40
0.03125
  0
LINE
  5
BFA
330
1E
100
AcDbEntity
  8
OBJECT
100
AcDbLine
 10
11.078069
 20
11.030035
 30
0.0
 11
11.078819
 21
11.030035
 31
0.0
  0
LINE
  5
BFB
330
1E
100
AcDbEntity
  8
OBJECT
100
AcDbLine
 10
11.078069
 20
10.990035
 30
0.0
 11
11.078819
 21
10.990035
 31
0.0
  0
ARC
  5
BFC
330
1E
100
AcDbEntity
  8
OBJECT
100
AcDbCircle
 10
11.078819
 20
10.43003499999999
 30
0.0
 40
0.1
100
AcDbArc
 50
0.0
 51
90.0
  0
ARC
  5
BFD
330
1E
100
AcDbEntity
  8
OBJECT
100
AcDbCircle
 10
11.078819
 20
10.43003499999999
 30
0.0
 40
0.14
100
AcDbArc
 50
0.0
 51
90.0
  0
ARC
  5
BFE
330
1E
100
AcDbEntity
  8
OBJECT
100
AcDbCircle
 10
11.078819
 20
11.130035
 30
0.0
 40
0.14
100
AcDbArc
 50
270.0
 51
0.0
  0
ARC
  5
BFF
330
1E
100
AcDbEntity
  8
OBJECT
100
AcDbCircle
 10
11.078819
 20
11.130035
 30
0.0
 40
0.1
100
AcDbArc
 50
270.0
 51
0.0
  0
LINE
  5
C00
330
1E
100
AcDbEntity
  8
OBJECT
100
AcDbLine
 10
11.078069
 20
10.570035
 30
0.0
 11
11.078819
 21
10.570035
 31
0.0
  0
LINE
  5
C01
330
1E
100
AcDbEntity
  8
OBJECT
100
AcDbLine
 10
11.078069
 20
10.53003499999999
 30
0.0
 11
11.078819
 21
10.53003499999999
 31
0.0
  0
CIRCLE
  5
C02
330
1E
100
AcDbEntity
  8
OBJECT
100
AcDbCircle
 10
11.227199
 20
10.972288
 30
0.0
 40
0.03125
  0
LINE
  5
C03
330
1E
100
AcDbEntity
  8
OBJECT
100
AcDbLine
 10
11.178819
 20
14.55891
 30
0.0
 11
11.178819
 21
11.130035
 31
0.0
  0
LINE
  5
C04
330
1E
100
AcDbEntity
  8
OBJECT
100
AcDbLine
 10
11.21881899999999
 20
14.55891
 30
0.0
 11
11.21881899999999
 21
11.130035
 31
0.0
  0
CIRCLE
  5
C05
330
1E
100
AcDbEntity
  8
OBJECT
100
AcDbCircle
 10
5.626437999999999
 20
10.972288
 30
0.0
 40
0.03125
  0
LINE
  5
C06
330
1E
100
AcDbEntity
  8
OBJECT
100
AcDbLine
 10
5.775568999999999
 20
10.53003499999999
 30
0.0
 11
5.774818999999999
 21
10.53003499999999
 31
0.0
  0
LINE
  5
C07
330
1E
100
AcDbEntity
  8
OBJECT
100
AcDbLine
 10
5.775568999999999
 20
10.570035
 30
0.0
 11
5.774818999999999
 21
10.570035
 31
0.0
  0
ARC
  5
C08
330
1E
100
AcDbEntity
  8
OBJECT
100
AcDbCircle
 10
5.774818999999999
 20
11.130035
 30
0.0
 40
0.1
100
AcDbArc
 50
180.0
 51
270.0
  0
ARC
  5
C09
330
1E
100
AcDbEntity
  8
OBJECT
100
AcDbCircle
 10
5.774818999999999
 20
11.130035
 30
0.0
 40
0.14
100
AcDbArc
 50
180.0
 51
270.0
  0
ARC
  5
C0A
330
1E
100
AcDbEntity
  8
OBJECT
100
AcDbCircle
 10
5.774818999999999
 20
10.43003499999999
 30
0.0
 40
0.14
100
AcDbArc
 50
90.0
 51
180.0
  0
ARC
  5
C0B
330
1E
100
AcDbEntity
  8
OBJECT
100
AcDbCircle
 10
5.774818999999999
 20
10.43003499999999
 30
0.0
 40
0.1
100
AcDbArc
 50
90.0
 51
180.0
  0
LINE
  5
C0C
330
1E
100
AcDbEntity
  8
OBJECT
100
AcDbLine
 10
5.775568999999999
 20
10.990035
 30
0.0
 11
5.774818999999999
 21
10.990035
 31
0.0
  0
LINE
  5
C0D
330
1E
100
AcDbEntity
  8
OBJECT
100
AcDbLine
 10
5.775568999999999
 20
11.030035
 30
0.0
 11
5.774818999999999
 21
11.030035
 31
0.0
  0
ARC
  5
C0E
330
1E
100
AcDbEntity
  8
OBJECT
100
AcDbCircle
 10
5.792819
 20
10.780035
 30
0.0
 40
0.21
100
AcDbArc
 50
270.0
 51
90.0
  0
ARC
  5
C0F
330
1E
100
AcDbEntity
  8
OBJECT
100
AcDbCircle
 10
5.792819
 20
10.780035
 30
0.0
 40
0.25
100
AcDbArc
 50
270.0
 51
90.0
  0
CIRCLE
  5
C10
330
1E
100
AcDbEntity
  8
OBJECT
100
AcDbCircle
 10
5.626437999999999
 20
10.587782
 30
0.0
 40
0.03125
  0
CIRCLE
  5
C11
330
1E
100
AcDbEntity
  8
OBJECT
100
AcDbCircle
 10
5.792819
 20
10.780035
 30
0.0
 40
0.164063
  0
CIRCLE
  5
C12
330
1E
100
AcDbEntity
  8
OBJECT
100
AcDbCircle
 10
5.792819
 20
10.780035
 30
0.0
 40
0.125
  0
CIRCLE
  5
C13
330
1E
100
AcDbEntity
  8
OBJECT
100
AcDbCircle
 10
5.792819
 20
10.780035
 30
0.0
 40
0.0625
  0
LINE
  5
C14
330
1E
100
AcDbEntity
  8
OBJECT
100
AcDbLine
 10
5.674819
 20
14.55891
 30
0.0
 11
5.674819
 21
11.130035
 31
0.0
  0
LINE
  5
C15
330
1E
100
AcDbEntity
  8
OBJECT
100
AcDbLine
 10
5.634819
 20
14.55891
 30
0.0
 11
5.634819
 21
11.130035
 31
0.0
  0
LINE
  5
C16
330
1E
100
AcDbEntity
  8
OBJECT
100
AcDbLine
 10
5.674819
 20
7.00116
 30
0.0
 11
5.674819
 21
10.43003499999999
 31
0.0
  0
LINE
  5
C17
330
1E
100
AcDbEntity
  8
OBJECT
100
AcDbLine
 10
5.634819
 20
7.00116
 30
0.0
 11
5.634819
 21
10.43003499999999
 31
0.0
  0
LINE
  5
C18
330
1E
100
AcDbEntity
  8
OBJECT
100
AcDbLine
 10
5.674819
 20
8.524035000000001
 30
0.0
 11
5.731819
 21
8.524035000000001
 31
0.0
  0
LINE
  5
C19
330
1E
100
AcDbEntity
  8
OBJECT
100
AcDbLine
 10
5.674819
 20
8.711535000000001
 30
0.0
 11
5.731819
 21
8.711535000000001
 31
0.0
  0
LINE
  5
C1A
330
1E
100
AcDbEntity
  8
OBJECT
100
AcDbLine
 10
5.731819
 20
8.711535000000001
 30
0.0
 11
5.731819
 21
8.661535
 31
0.0
  0
LINE
  5
C1B
330
1E
100
AcDbEntity
  8
OBJECT
100
AcDbLine
 10
5.674819
 20
8.661535
 30
0.0
 11
5.731819
 21
8.661535
 31
0.0
  0
LINE
  5
C1C
330
1E
100
AcDbEntity
  8
OBJECT
100
AcDbLine
 10
5.674819
 20
8.574035
 30
0.0
 11
5.731819
 21
8.574035
 31
0.0
  0
LINE
  5
C1D
330
1E
100
AcDbEntity
  8
OBJECT
100
AcDbLine
 10
5.731819
 20
8.524035000000001
 30
0.0
 11
5.731819
 21
8.574035
 31
0.0
  0
LINE
  5
C1E
330
1E
100
AcDbEntity
  8
CENTER
100
AcDbLine
 10
5.495588999999999
 20
8.617785000000001
 30
0.0
 11
5.870106999999999
 21
8.617785000000001
 31
0.0
  0
LINE
  5
C1F
330
1E
100
AcDbEntity
  8
CENTER
100
AcDbLine
 10
11.358048
 20
8.617785000000001
 30
0.0
 11
10.98353
 21
8.617785000000001
 31
0.0
  0
LINE
  5
C20
330
1E
100
AcDbEntity
  8
OBJECT
100
AcDbLine
 10
11.121819
 20
8.524035000000001
 30
0.0
 11
11.121819
 21
8.574035
 31
0.0
  0
LINE
  5
C21
330
1E
100
AcDbEntity
  8
OBJECT
100
AcDbLine
 10
11.178819
 20
8.574035
 30
0.0
 11
11.121819
 21
8.574035
 31
0.0
  0
LINE
  5
C22
330
1E
100
AcDbEntity
  8
OBJECT
100
AcDbLine
 10
11.178819
 20
8.661535
 30
0.0
 11
11.121819
 21
8.661535
 31
0.0
  0
LINE
  5
C23
330
1E
100
AcDbEntity
  8
OBJECT
100
AcDbLine
 10
11.121819
 20
8.711535000000001
 30
0.0
 11
11.121819
 21
8.661535
 31
0.0
  0
LINE
  5
C24
330
1E
100
AcDbEntity
  8
OBJECT
100
AcDbLine
 10
11.178819
 20
8.711535000000001
 30
0.0
 11
11.121819
 21
8.711535000000001
 31
0.0
  0
LINE
  5
C25
330
1E
100
AcDbEntity
  8
OBJECT
100
AcDbLine
 10
11.178819
 20
8.524035000000001
 30
0.0
 11
11.121819
 21
8.524035000000001
 31
0.0
  0
LINE
  5
C26
330
1E
100
AcDbEntity
  8
OBJECT
100
AcDbLine
 10
11.178819
 20
13.036035
 30
0.0
 11
11.121819
 21
13.036035
 31
0.0
  0
LINE
  5
C27
330
1E
100
AcDbEntity
  8
OBJECT
100
AcDbLine
 10
11.178819
 20
12.848535
 30
0.0
 11
11.121819
 21
12.848535
 31
0.0
  0
LINE
  5
C28
330
1E
100
AcDbEntity
  8
OBJECT
100
AcDbLine
 10
11.121819
 20
12.848535
 30
0.0
 11
11.121819
 21
12.898535
 31
0.0
  0
LINE
  5
C29
330
1E
100
AcDbEntity
  8
OBJECT
100
AcDbLine
 10
11.178819
 20
12.898535
 30
0.0
 11
11.121819
 21
12.898535
 31
0.0
  0
LINE
  5
C2A
330
1E
100
AcDbEntity
  8
OBJECT
100
AcDbLine
 10
11.178819
 20
12.986035
 30
0.0
 11
11.121819
 21
12.986035
 31
0.0
  0
LINE
  5
C2B
330
1E
100
AcDbEntity
  8
OBJECT
100
AcDbLine
 10
11.121819
 20
13.036035
 30
0.0
 11
11.121819
 21
12.986035
 31
0.0
  0
LINE
  5
C2C
330
1E
100
AcDbEntity
  8
CENTER
100
AcDbLine
 10
11.358048
 20
12.942285
 30
0.0
 11
10.98353
 21
12.942285
 31
0.0
  0
LINE
  5
C2D
330
1E
100
AcDbEntity
  8
CENTER
100
AcDbLine
 10
5.495588999999999
 20
12.942285
 30
0.0
 11
5.870106999999999
 21
12.942285
 31
0.0
  0
LINE
  5
C2E
330
1E
100
AcDbEntity
  8
OBJECT
100
AcDbLine
 10
5.731819
 20
13.036035
 30
0.0
 11
5.731819
 21
12.986035
 31
0.0
  0
LINE
  5
C2F
330
1E
100
AcDbEntity
  8
OBJECT
100
AcDbLine
 10
5.674819
 20
12.986035
 30
0.0
 11
5.731819
 21
12.986035
 31
0.0
  0
LINE
  5
C30
330
1E
100
AcDbEntity
  8
OBJECT
100
AcDbLine
 10
5.674819
 20
12.898535
 30
0.0
 11
5.731819
 21
12.898535
 31
0.0
  0
LINE
  5
C31
330
1E
100
AcDbEntity
  8
OBJECT
100
AcDbLine
 10
5.731819
 20
12.848535
 30
0.0
 11
5.731819
 21
12.898535
 31
0.0
  0
LINE
  5
C32
330
1E
100
AcDbEntity
  8
OBJECT
100
AcDbLine
 10
5.674819
 20
12.848535
 30
0.0
 11
5.731819
 21
12.848535
 31
0.0
  0
LINE
  5
C33
330
1E
100
AcDbEntity
  8
OBJECT
100
AcDbLine
 10
5.674819
 20
13.036035
 30
0.0
 11
5.731819
 21
13.036035
 31
0.0
  0
CIRCLE
  5
C34
330
1E
100
AcDbEntity
  8
OBJECT
100
AcDbCircle
 10
24.96709746702855
 20
10.637782
 30
0.0
 40
0.03125
  0
CIRCLE
  5
C35
330
1E
100
AcDbEntity
  8
OBJECT
100
AcDbCircle
 10
24.96709746702855
 20
10.92228799999999
 30
0.0
 40
0.03125
  0
LINE
  5
C36
330
1E
100
AcDbEntity
  8
OBJECT
100
AcDbLine
 10
24.89747746702855
 20
14.931285
 30
0.0
 11
24.89747746702855
 21
6.628785
 31
0.0
  0
LINE
  5
C37
330
1E
100
AcDbEntity
  8
OBJECT
100
AcDbLine
 10
30.63747746702855
 20
6.628785
 30
0.0
 11
30.63747746702855
 21
14.931285
 31
0.0
  0
LINE
  5
C38
330
1E
100
AcDbEntity
  8
OBJECT
100
AcDbLine
 10
25.07747746702855
 20
14.55891
 30
0.0
 11
25.07747746702855
 21
11.130035
 31
0.0
  0
ARC
  5
C39
330
1E
100
AcDbEntity
  8
OBJECT
100
AcDbCircle
 10
25.11547746702855
 20
10.43003499999999
 30
0.0
 40
0.038
100
AcDbArc
 50
90.0
 51
180.0
  0
ARC
  5
C3A
330
1E
100
AcDbEntity
  8
OBJECT
100
AcDbCircle
 10
25.13322746702855
 20
10.780035
 30
0.0
 40
0.312
100
AcDbArc
 50
270.0
 51
90.0
  0
ARC
  5
C3B
330
1E
100
AcDbEntity
  8
OBJECT
100
AcDbCircle
 10
25.11547746702855
 20
11.130035
 30
0.0
 40
0.038
100
AcDbArc
 50
180.0
 51
270.0
  0
LINE
  5
C3C
330
1E
100
AcDbEntity
  8
OBJECT
100
AcDbLine
 10
25.07747746702855
 20
10.43003499999999
 30
0.0
 11
25.07747746702855
 21
7.00116
 31
0.0
  0
CIRCLE
  5
C3D
330
1E
100
AcDbEntity
  8
OBJECT
100
AcDbCircle
 10
25.13372746702855
 20
10.780035
 30
0.0
 40
0.085938
  0
ARC
  5
C3E
330
1E
100
AcDbEntity
  8
OBJECT
100
AcDbCircle
 10
30.41872746702855
 20
14.931285
 30
0.0
 40
0.21875
100
AcDbArc
 50
0.0
 51
90.0
  0
CIRCLE
  5
C3F
330
1E
100
AcDbEntity
  8
OBJECT
100
AcDbCircle
 10
30.55747746702855
 20
14.777417
 30
0.0
 40
0.03125
  0
LINE
  5
C40
330
1E
100
AcDbEntity
  8
OBJECT
100
AcDbLine
 10
30.29263246702855
 20
15.110035
 30
0.0
 11
29.79933146702855
 21
15.110035
 31
0.0
  0
ARC
  5
C41
330
1E
100
AcDbEntity
  8
OBJECT
100
AcDbCircle
 10
29.66207246702855
 20
14.894535
 30
0.0
 40
0.0755
100
AcDbArc
 50
2.125975999999999
 51
90.0
  0
ARC
  5
C42
330
1E
100
AcDbEntity
  8
OBJECT
100
AcDbCircle
 10
30.04930546702855
 20
14.90891
 30
0.0
 40
0.312
100
AcDbArc
 50
182.125976
 51
270.0
  0
LINE
  5
C43
330
1E
100
AcDbEntity
  8
OBJECT
100
AcDbLine
 10
30.41947746702855
 20
14.59691
 30
0.0
 11
30.04930546702855
 21
14.59691
 31
0.0
  0
ARC
  5
C44
330
1E
100
AcDbEntity
  8
OBJECT
100
AcDbCircle
 10
30.41947746702855
 20
14.55891
 30
0.0
 40
0.038
100
AcDbArc
 50
0.0
 51
90.0
  0
CIRCLE
  5
C45
330
1E
100
AcDbEntity
  8
OBJECT
100
AcDbCircle
 10
30.40122746702855
 20
14.905285
 30
0.0
 40
0.085938
  0
CIRCLE
  5
C46
330
1E
100
AcDbEntity
  8
OBJECT
100
AcDbCircle
 10
25.13372746702855
 20
14.905285
 30
0.0
 40
0.085938
  0
ARC
  5
C47
330
1E
100
AcDbEntity
  8
OBJECT
100
AcDbCircle
 10
25.11547746702855
 20
14.55891
 30
0.0
 40
0.038
100
AcDbArc
 50
90.0
 51
180.0
  0
LINE
  5
C48
330
1E
100
AcDbEntity
  8
OBJECT
100
AcDbLine
 10
25.11547746702855
 20
14.59691
 30
0.0
 11
25.48564946702855
 21
14.59691
 31
0.0
  0
ARC
  5
C49
330
1E
100
AcDbEntity
  8
OBJECT
100
AcDbCircle
 10
25.48564946702855
 20
14.90891
 30
0.0
 40
0.312
100
AcDbArc
 50
270.0
 51
357.874024
  0
ARC
  5
C4A
330
1E
100
AcDbEntity
  8
OBJECT
100
AcDbCircle
 10
25.87288346702855
 20
14.894535
 30
0.0
 40
0.0755
100
AcDbArc
 50
90.0
 51
177.8740239999999
  0
LINE
  5
C4B
330
1E
100
AcDbEntity
  8
OBJECT
100
AcDbLine
 10
25.87288346702855
 20
14.970035
 30
0.0
 11
29.66207246702855
 21
14.970035
 31
0.0
  0
LINE
  5
C4C
330
1E
100
AcDbEntity
  8
OBJECT
100
AcDbLine
 10
25.11622746702855
 20
15.150035
 30
0.0
 11
30.41872746702855
 21
15.150035
 31
0.0
  0
CIRCLE
  5
C4D
330
1E
100
AcDbEntity
  8
OBJECT
100
AcDbCircle
 10
24.97747746702855
 20
14.777417
 30
0.0
 40
0.03125
  0
ARC
  5
C4E
330
1E
100
AcDbEntity
  8
OBJECT
100
AcDbCircle
 10
25.11622746702855
 20
14.931285
 30
0.0
 40
0.21875
100
AcDbArc
 50
90.0
 51
180.0
  0
LINE
  5
C4F
330
1E
100
AcDbEntity
  8
OBJECT
100
AcDbLine
 10
30.45747746702855
 20
10.43003499999999
 30
0.0
 11
30.45747746702855
 21
7.00116
 31
0.0
  0
LINE
  5
C50
330
1E
100
AcDbEntity
  8
OBJECT
100
AcDbLine
 10
30.45747746702855
 20
14.55891
 30
0.0
 11
30.45747746702855
 21
11.130035
 31
0.0
  0
LINE
  5
C51
330
1E
100
AcDbEntity
  8
OBJECT
100
AcDbLine
 10
30.20418046702854
 20
14.77691
 30
0.0
 11
30.04930546702855
 21
14.77691
 31
0.0
  0
ARC
  5
C52
330
1E
100
AcDbEntity
  8
OBJECT
100
AcDbCircle
 10
30.04930546702855
 20
14.90891
 30
0.0
 40
0.132
100
AcDbArc
 50
182.125976
 51
270.0
  0
ARC
  5
C53
330
1E
100
AcDbEntity
  8
OBJECT
100
AcDbCircle
 10
29.66207246702855
 20
14.894535
 30
0.0
 40
0.2555
100
AcDbArc
 50
2.125975999999999
 51
57.50562900000001
  0
LINE
  5
C54
330
1E
100
AcDbEntity
  8
OBJECT
100
AcDbLine
 10
25.33077446702855
 20
14.77691
 30
0.0
 11
25.48564946702855
 21
14.77691
 31
0.0
  0
LINE
  5
C55
330
1E
100
AcDbEntity
  8
OBJECT
100
AcDbLine
 10
25.24232246702855
 20
15.110035
 30
0.0
 11
25.73562446702855
 21
15.110035
 31
0.0
  0
ARC
  5
C56
330
1E
100
AcDbEntity
  8
OBJECT
100
AcDbCircle
 10
25.87288346702855
 20
14.894535
 30
0.0
 40
0.2555
100
AcDbArc
 50
122.494371
 51
177.8740239999999
  0
ARC
  5
C57
330
1E
100
AcDbEntity
  8
OBJECT
100
AcDbCircle
 10
25.48564946702855
 20
14.90891
 30
0.0
 40
0.132
100
AcDbArc
 50
270.0
 51
357.874024
  0
LINE
  5
C58
330
1E
100
AcDbEntity
  8
BEND
100
AcDbLine
 10
30.40122746702855
 20
5.903252999999999
 30
0.0
 11
29.69049046702855
 21
5.903252999999999
 31
0.0
  0
LINE
  5
C59
330
1E
100
AcDbEntity
  8
OBJECT
100
AcDbLine
 10
39.19818361253534
 20
15.06846
 30
0.0
 11
37.72068361253534
 21
15.06846
 31
0.0
  0
LINE
  5
C5A
330
1E
100
AcDbEntity
  8
OBJECT
100
AcDbLine
 10
39.26068361253534
 20
6.390959999999999
 30
0.0
 11
39.26068361253534
 21
15.00595999999999
 31
0.0
  0
LINE
  5
C5B
330
1E
100
AcDbEntity
  8
OBJECT
100
AcDbLine
 10
37.72068361253534
 20
6.328459999999999
 30
0.0
 11
39.19818361253534
 21
6.328459999999999
 31
0.0
  0
ARC
  5
C5C
330
1E
100
AcDbEntity
  8
OBJECT
100
AcDbCircle
 10
39.19818361253534
 20
6.390959999999999
 30
0.0
 40
0.0625
100
AcDbArc
 50
270.0
 51
0.0
  0
ARC
  5
C5D
330
1E
100
AcDbEntity
  8
OBJECT
100
AcDbCircle
 10
39.19818361253534
 20
15.00595999999999
 30
0.0
 40
0.0625
100
AcDbArc
 50
0.0
 51
90.0
  0
LINE
  5
C5E
330
1E
100
AcDbEntity
  8
OBJECT
100
AcDbLine
 10
37.72068361253534
 20
6.328459999999999
 30
0.0
 11
37.72068361253534
 21
15.06846
 31
0.0
  0
LINE
  5
C5F
330
1E
100
AcDbEntity
  8
OBJECT
100
AcDbLine
 10
37.68068361253535
 20
6.348459999999999
 30
0.0
 11
37.72068361253534
 21
6.348459999999999
 31
0.0
  0
LINE
  5
C60
330
1E
100
AcDbEntity
  8
OBJECT
100
AcDbLine
 10
37.68068361253535
 20
15.04846
 30
0.0
 11
37.72068361253534
 21
15.04846
 31
0.0
  0
LINE
  5
C61
330
1E
100
AcDbEntity
  8
OBJECT
100
AcDbLine
 10
37.68068361253535
 20
15.06846
 30
0.0
 11
37.15218361253534
 21
15.06846
 31
0.0
  0
ARC
  5
C62
330
1E
100
AcDbEntity
  8
OBJECT
100
AcDbCircle
 10
37.15218361253534
 20
15.00595999999999
 30
0.0
 40
0.0625
100
AcDbArc
 50
90.0
 51
180.0
  0
LINE
  5
C63
330
1E
100
AcDbEntity
  8
OBJECT
100
AcDbLine
 10
37.68068361253535
 20
6.328459999999999
 30
0.0
 11
37.68068361253535
 21
15.06846
 31
0.0
  0
LINE
  5
C64
330
1E
100
AcDbEntity
  8
OBJECT
100
AcDbLine
 10
37.68068361253535
 20
6.328459999999999
 30
0.0
 11
37.15218361253534
 21
6.328459999999999
 31
0.0
  0
LINE
  5
C65
330
1E
100
AcDbEntity
  8
OBJECT
100
AcDbLine
 10
37.08968361253534
 20
6.390959999999999
 30
0.0
 11
37.08968361253534
 21
15.00595999999999
 31
0.0
  0
ARC
  5
C66
330
1E
100
AcDbEntity
  8
OBJECT
100
AcDbCircle
 10
37.15218361253534
 20
6.390959999999999
 30
0.0
 40
0.0625
100
AcDbArc
 50
180.0
 51
270.0
  0
DIMENSION
  5
C67
330
1E
100
AcDbEntity
  8
DIM
100
AcDbDimension
  2
*D0
 10
13.897604
 20
7.207535
 30
0.0
 11
13.897604
 21
6.808785000000002
 31
0.0
 70
    32
 71
     5
 42
0.7975000000000012
  3
23NSTDI
100
AcDbAlignedDimension
 13
11.078069
 23
6.410034999999999
 33
0.0
 14
10.706319
 24
7.207535
 34
0.0
 50
90.0
100
AcDbRotatedDimension
  0
DIMENSION
  5
C75
330
1E
100
AcDbEntity
  8
DIM
100
AcDbDimension
  2
*D1
 10
3.387471
 20
14.047535
 30
0.0
 11
3.387470999999997
 21
10.780035
 31
0.0
 70
    32
 71
     5
 42
6.534999999999999
  3
23NSTD
100
AcDbAlignedDimension
 13
7.659318999999999
 23
7.512535
 33
0.0
 14
7.659318999999999
 24
14.04753499999999
 34
0.0
 50
90.0
100
AcDbRotatedDimension
  0
DIMENSION
  5
C83
330
1E
100
AcDbEntity
  8
DIM
100
AcDbDimension
  2
*D2
 10
12.898252
 20
10.78003499999999
 30
0.0
 11
12.898252
 21
8.717410000000002
 31
0.0
 70
    32
 71
     5
 42
4.125249999999998
  3
23NSTD
100
AcDbAlignedDimension
 13
11.060819
 23
6.654785
 33
0.0
 14
11.078069
 24
10.780035
 34
0.0
 50
90.0
100
AcDbRotatedDimension
  0
DIMENSION
  5
C91
330
1E
100
AcDbEntity
  8
DIM
100
AcDbDimension
  2
*D3
 10
12.898252
 20
14.90528499999999
 30
0.0
 11
12.89825199999999
 21
12.84266
 31
0.0
 70
    32
 71
     5
 42
4.125250000000001
  3
23NSTD
100
AcDbAlignedDimension
 13
11.078069
 23
10.780035
 33
0.0
 14
11.060819
 24
14.905285
 34
0.0
 50
90.0
100
AcDbRotatedDimension
  0
DIMENSION
  5
C9F
330
1E
100
AcDbEntity
  8
DIM
100
AcDbDimension
  2
*D4
 10
13.897604
 20
14.35253499999999
 30
0.0
 11
13.89760399999999
 21
10.780035
 31
0.0
 70
    32
 71
     5
 42
7.144999999999999
  3
23NSTD
100
AcDbAlignedDimension
 13
10.706319
 23
7.207535
 33
0.0
 14
10.706319
 24
14.352535
 34
0.0
 50
90.0
100
AcDbRotatedDimension
  0
DIMENSION
  5
CAD
330
1E
100
AcDbEntity
  8
DIM
100
AcDbDimension
  2
*D5
 10
8.426819
 20
4.900157
 30
0.0
 11
7.702944
 21
4.900157
 31
0.0
 70
    32
 71
     5
 42
1.44775
  3
23NSTDI
100
AcDbAlignedDimension
 13
6.979068999999999
 23
6.348805999999999
 33
0.0
 14
8.426819
 24
6.348805999999999
 34
0.0
100
AcDbRotatedDimension
  0
DIMENSION
  5
CBB
330
1E
100
AcDbEntity
  8
DIM
100
AcDbDimension
  2
*D6
 10
9.874569000000001
 20
4.187261
 30
0.0
 11
9.150694000000001
 21
4.187261
 31
0.0
 70
    32
 71
     5
 42
1.44775
  3
23NSTDI
100
AcDbAlignedDimension
 13
8.426819
 23
6.348805999999999
 33
0.0
 14
9.874569000000001
 24
6.348805999999999
 34
0.0
100
AcDbRotatedDimension
  0
DIMENSION
  5
CC9
330
1E
100
AcDbEntity
  8
DIM
100
AcDbDimension
  2
*D7
 10
5.556818999999999
 20
18.19899967102982
 30
0.0
 11
3.982600249999999
 21
18.19899967102982
 31
0.0
 70
    32
 71
     5
 42
0.2360000000000006
  3
23NSTD
100
AcDbAlignedDimension
 13
5.792819
 23
14.905285
 33
0.0
 14
5.556818999999999
 24
14.931285
 34
0.0
100
AcDbRotatedDimension
  0
DIMENSION
  5
CD7
330
1E
100
AcDbEntity
  8
DIM
100
AcDbDimension
  2
*D8
 10
5.556818999999999
 20
17.52453446470622
 30
0.0
 11
4.002131499999999
 21
17.52453446470622
 31
0.0
 70
    32
 71
     5
 42
0.5899999999999999
  3
23NSTD
100
AcDbAlignedDimension
 13
6.146818999999999
 23
14.897473
 33
0.0
 14
5.556818999999999
 24
15.073035
 34
0.0
100
AcDbRotatedDimension
  0
DIMENSION
  5
CE5
330
1E
100
AcDbEntity
  8
DIM
100
AcDbDimension
  2
*D9
 10
11.060819
 20
18.19899967102982
 30
0.0
 11
8.426819000000001
 21
18.19899967102982
 31
0.0
 70
    32
 71
     5
 42
5.267999999999999
  3
23NSTD
100
AcDbAlignedDimension
 13
5.792819
 23
14.905285
 33
0.0
 14
11.060819
 24
15.52722699999999
 34
0.0
100
AcDbRotatedDimension
  0
DIMENSION
  5
CF3
330
1E
100
AcDbEntity
  8
DIM
100
AcDbDimension
  2
*D10
 10
10.706819
 20
17.52453446470622
 30
0.0
 11
8.426819
 21
17.52453446470622
 31
0.0
 70
    32
 71
     5
 42
4.559999999999999
  3
23NSTD
100
AcDbAlignedDimension
 13
6.146818999999999
 23
14.897473
 33
0.0
 14
10.706819
 24
14.897473
 34
0.0
100
AcDbRotatedDimension
  0
DIMENSION
  5
D01
330
1E
100
AcDbEntity
  8
DIM
100
AcDbDimension
  2
*D11
 10
11.296819
 20
18.77889610411808
 30
0.0
 11
8.426819000000001
 21
18.77889610411808
 31
0.0
 70
    32
 71
     5
 42
5.740000000000001
  3
23NSTD
100
AcDbAlignedDimension
 13
5.556818999999999
 23
14.931285
 33
0.0
 14
11.296819
 24
14.931285
 34
0.0
100
AcDbRotatedDimension
  0
DIMENSION
  5
D0F
330
1E
100
AcDbEntity
  8
DIM
100
AcDbDimension
  2
*D12
 10
5.556818999999999
 20
12.174898
 30
0.0
 11
4.021662749999999
 21
12.174898
 31
0.0
 70
    32
 71
     5
 42
0.1750000000000007
  3
23NSTD
100
AcDbAlignedDimension
 13
5.731819
 23
12.848535
 33
0.0
 14
5.556818999999999
 24
12.174898
 34
0.0
100
AcDbRotatedDimension
  0
DIMENSION
  5
D1D
330
1E
100
AcDbEntity
  8
DIM
100
AcDbDimension
  2
*D13
 10
5.731819
 20
12.174898
 30
0.0
 11
8.101273371355546
 21
12.174898
 31
0.0
 70
   160
 71
     5
 42
5.389999999999999
  3
23NSTD
100
AcDbAlignedDimension
 13
11.121819
 23
12.848535
 33
0.0
 14
5.731819
 24
12.848535
 34
0.0
100
AcDbRotatedDimension
  0
DIMENSION
  5
D2B
330
1E
100
AcDbEntity
  8
DIM
100
AcDbDimension
  2
*D14
 10
7.659318999999999
 20
15.58927584573545
 30
0.0
 11
6.608069
 21
15.58927584573545
 31
0.0
 70
    32
  1
     
 71
     5
 42
2.1025
  3
23NSTD
100
AcDbAlignedDimension
 13
5.556818999999999
 23
15.214785
 33
0.0
 14
7.659318999999999
 24
14.04753499999999
 34
0.0
100
AcDbRotatedDimension
  0
DIMENSION
  5
D39
330
1E
100
AcDbEntity
  8
DIM
100
AcDbDimension
  2
*D15
 10
9.194319
 20
16.170931711912
 30
0.0
 11
8.426819
 21
16.170931711912
 31
0.0
 70
    32
 71
     5
 42
1.535
  3
23NSTDI
100
AcDbAlignedDimension
 13
7.659318999999999
 23
14.04753499999999
 33
0.0
 14
9.194319
 24
14.576669
 34
0.0
100
AcDbRotatedDimension
  0
DIMENSION
  5
D47
330
1E
100
AcDbEntity
  8
DIM
100
AcDbDimension
  2
*D16
 10
11.975774
 20
8.617785000000001
 30
0.0
 11
11.97577399999999
 21
7.513910000000001
 31
0.0
 70
    32
 71
     5
 42
2.20775
  3
23NSTD
100
AcDbAlignedDimension
 13
11.219819
 23
6.410034999999999
 33
0.0
 14
11.358048
 24
8.617785000000001
 34
0.0
 50
90.0
100
AcDbRotatedDimension
  0
DIMENSION
  5
D55
330
1E
100
AcDbEntity
  8
DIM
100
AcDbDimension
  2
*D17
 10
11.975774
 20
12.942285
 30
0.0
 11
11.975774
 21
11.161285
 31
0.0
 70
   160
 71
     5
 42
4.324499999999998
  3
23NSTD
100
AcDbAlignedDimension
 13
11.358048
 23
8.617785000000001
 33
0.0
 14
11.358048
 24
12.942285
 34
0.0
 50
90.0
100
AcDbRotatedDimension
  0
DIMENSION
  5
D63
330
1E
100
AcDbEntity
  8
DIM
100
AcDbDimension
  2
*D18
 10
0.850525
 20
15.150035
 30
0.0
 11
0.8505249999999973
 21
10.780035
 31
0.0
 70
    32
 71
     5
 42
8.740000000000001
  3
23NSTD
100
AcDbAlignedDimension
 13
5.633818999999999
 23
6.410034999999999
 33
0.0
 14
5.775568999999999
 24
15.150035
 34
0.0
 50
90.0
100
AcDbRotatedDimension
  0
DIMENSION
  5
D71
330
1E
100
AcDbEntity
  8
DIM
100
AcDbDimension
  2
*D19
 10
8.747552
 20
6.591035
 30
0.0
 11
8.747551999999998
 21
10.780035
 31
0.0
 70
    32
 71
     5
 42
8.378
  3
23NSTD
100
AcDbAlignedDimension
 13
8.520569
 23
14.969035
 33
0.0
 14
8.520569
 24
6.591035
 34
0.0
 50
90.0
100
AcDbRotatedDimension
  0
DIMENSION
  5
D7F
330
1E
100
AcDbEntity
  8
DIM
100
AcDbDimension
  2
*D20
 10
8.747552
 20
6.410034999999999
 30
0.0
 11
7.701458249999999
 21
5.510035000000001
 31
0.0
 70
    32
 71
     5
 42
0.1810000000000009
  3
23NSTD
100
AcDbAlignedDimension
 13
8.520569
 23
6.591035
 33
0.0
 14
8.775935999999999
 24
6.410034999999999
 34
0.0
 50
90.0
100
AcDbRotatedDimension
  0
LINE
  5
D8D
330
1E
100
AcDbEntity
  8
OBJECT
100
AcDbLine
 10
18.564242
 20
8.524035000000001
 30
0.0
 11
17.154617
 21
8.524035000000001
 31
0.0
  0
LINE
  5
D8E
330
1E
100
AcDbEntity
  8
OBJECT
100
AcDbLine
 10
18.564242
 20
8.711535000000001
 30
0.0
 11
17.154617
 21
8.711535000000001
 31
0.0
  0
LINE
  5
D8F
330
1E
100
AcDbEntity
  8
OBJECT
100
AcDbLine
 10
18.564242
 20
8.661535
 30
0.0
 11
17.154617
 21
8.661535
 31
0.0
  0
LINE
  5
D90
330
1E
100
AcDbEntity
  8
OBJECT
100
AcDbLine
 10
18.564242
 20
8.574035
 30
0.0
 11
17.154617
 21
8.574035
 31
0.0
  0
LINE
  5
D94
330
1E
100
AcDbEntity
  8
OBJECT
100
AcDbLine
 10
18.38724206604382
 20
7.670035
 30
0.0
 11
18.564242
 21
7.670035
 31
0.0
  0
LINE
  5
D95
330
1E
100
AcDbEntity
  8
OBJECT
100
AcDbLine
 10
17.154617
 20
8.661535
 30
0.0
 11
17.154617
 21
8.711535000000001
 31
0.0
  0
LINE
  5
D96
330
1E
100
AcDbEntity
  8
OBJECT
100
AcDbLine
 10
17.154617
 20
8.524035000000001
 30
0.0
 11
17.154617
 21
8.574035
 31
0.0
  0
LINE
  5
D97
102
{ACAD_REACTORS
330
1D25
330
205A
102
}
330
1E
100
AcDbEntity
  8
OBJECT
100
AcDbLine
 10
17.104242
 20
14.700066
 30
0.0
 11
17.104242
 21
15.130035
 31
0.0
  0
DIMENSION
  5
D98
330
1E
100
AcDbEntity
  8
DIM
100
AcDbDimension
  2
*D21
 10
16.70806699999999
 20
8.524035000000001
 30
0.0
 11
15.62291074999999
 21
7.624035000000003
 31
0.0
 70
    32
 71
     5
 42
0.0499999999999989
  3
23NSTD
100
AcDbAlignedDimension
 13
17.154617
 23
8.574035
 33
0.0
 14
17.154617
 24
8.524035000000001
 34
0.0
 50
90.0
100
AcDbRotatedDimension
  0
DIMENSION
  5
DA6
330
1E
100
AcDbEntity
  8
DIM
100
AcDbDimension
  2
*D22
 10
17.044242
 20
10.160024
 30
0.0
 11
15.5676795
 21
10.160024
 31
0.0
 70
    32
 71
     5
 42
0.1103750000000012
  3
23NSTD
100
AcDbAlignedDimension
 13
17.154617
 23
8.711535000000001
 33
0.0
 14
17.044242
 24
10.160024
 34
0.0
100
AcDbRotatedDimension
  0
LINE
  5
DB4
330
1E
100
AcDbEntity
  8
OBJECT
100
AcDbLine
 10
17.044242
 20
11.030035
 30
0.0
 11
18.564242
 21
11.030035
 31
0.0
  0
LINE
  5
DB5
330
1E
100
AcDbEntity
  8
OBJECT
100
AcDbLine
 10
17.044242
 20
10.53003499999999
 30
0.0
 11
18.564242
 21
10.53003499999999
 31
0.0
  0
DIMENSION
  5
DB6
330
1E
100
AcDbEntity
  8
DIM
100
AcDbDimension
  2
*D23
 10
18.38724206604382
 20
5.374176999999999
 30
0.0
 11
16.81302331604382
 21
5.374176999999999
 31
0.0
 70
    32
 71
     5
 42
0.2969999339561795
  3
23NSTD
100
AcDbAlignedDimension
 13
18.684242
 23
6.472534999999999
 33
0.0
 14
18.38724206604382
 24
7.051579655598965
 34
0.0
100
AcDbRotatedDimension
  0
LINE
  5
DC4
102
{ACAD_REACTORS
330
205A
102
}
330
1E
100
AcDbEntity
  8
OBJECT
100
AcDbLine
 10
17.144242
 20
15.130035
 30
0.0
 11
17.144242
 21
15.150035
 31
0.0
  0
SOLID
  5
DC5
330
1E
100
AcDbEntity
  8
BEND
100
AcDbTrace
 10
28.65048546702855
 20
15.382388
 30
0.0
 11
28.65048546702855
 21
15.517388
 31
0.0
 12
28.24548546702855
 22
15.449888
 32
0.0
 13
28.24548546702855
 23
15.449888
 33
0.0
  0
SOLID
  5
DC6
330
1E
100
AcDbEntity
  8
BEND
100
AcDbTrace
 10
30.09549046702855
 20
5.835753
 30
0.0
 11
30.09549046702855
 21
5.970753000000001
 31
0.0
 12
29.69049046702855
 22
5.903252999999999
 32
0.0
 13
29.69049046702855
 23
5.903252999999999
 33
0.0
  0
TEXT
  5
DC7
330
1E
100
AcDbEntity
  8
BEND
100
AcDbText
 10
29.13690246702855
 20
15.345228
 30
0.0
 40
0.28125
  1
B
 41
0.8
  7
SECTION
100
AcDbText
  0
TEXT
  5
DC8
330
1E
100
AcDbEntity
  8
BEND
100
AcDbText
 10
30.63136846702855
 20
5.742893000000002
 30
0.0
 40
0.28125
  1
B
 41
0.8
  7
SECTION
100
AcDbText
  0
DIMENSION
  5
DC9
330
1E
100
AcDbEntity
  8
DIM
100
AcDbDimension
  2
*D24
 10
24.89747746702855
 20
16.042822
 30
0.0
 11
23.32325871702855
 21
16.042822
 31
0.0
 70
    32
 71
     5
 42
0.2362499999999983
  3
23NSTD
100
AcDbAlignedDimension
 13
25.13372746702855
 23
14.905285
 33
0.0
 14
24.89747746702855
 24
14.931285
 34
0.0
100
AcDbRotatedDimension
  0
DIMENSION
  5
DD7
330
1E
100
AcDbEntity
  8
DIM
100
AcDbDimension
  2
*D25
 10
25.13372746702855
 20
16.042822
 30
0.0
 11
27.76747746702854
 21
16.042822
 31
0.0
 70
    32
 71
     5
 42
5.267500000000001
  3
23NSTD
100
AcDbAlignedDimension
 13
30.40122746702855
 23
14.905285
 33
0.0
 14
25.13372746702855
 24
14.905285
 34
0.0
100
AcDbRotatedDimension
  0
DIMENSION
  5
DE5
330
1E
100
AcDbEntity
  8
DIM
100
AcDbDimension
  2
*D26
 10
24.05154346702855
 20
6.410034999999999
 30
0.0
 11
22.92732471702854
 21
5.510035000000003
 31
0.0
 70
    32
 71
     5
 42
0.2447500000000007
  3
23NSTD
100
AcDbAlignedDimension
 13
25.11672746702855
 23
6.654785
 33
0.0
 14
25.11622746702855
 24
6.410034999999999
 34
0.0
 50
90.0
100
AcDbRotatedDimension
  0
DIMENSION
  5
DF3
330
1E
100
AcDbEntity
  8
DIM
100
AcDbDimension
  2
*D27
 10
24.05154346702855
 20
6.654785
 30
0.0
 11
24.05154346702855
 21
8.717410000000004
 31
0.0
 70
    32
 71
     5
 42
4.125249999999999
  3
23NSTD
100
AcDbAlignedDimension
 13
25.11672746702855
 23
10.780035
 33
0.0
 14
25.11672746702855
 24
6.654785
 34
0.0
 50
90.0
100
AcDbRotatedDimension
  0
DIMENSION
  5
E01
330
1E
100
AcDbEntity
  8
DIM
100
AcDbDimension
  2
*D28
 10
24.05154346702855
 20
10.780035
 30
0.0
 11
24.05154346702854
 21
12.84266
 31
0.0
 70
    32
 71
     5
 42
4.125250000000001
  3
23NSTD
100
AcDbAlignedDimension
 13
25.13372746702855
 23
14.905285
 33
0.0
 14
25.11672746702855
 24
10.780035
 34
0.0
 50
90.0
100
AcDbRotatedDimension
  0
DIMENSION
  5
E0F
330
1E
100
AcDbEntity
  8
DIM
100
AcDbDimension
  2
*D29
 10
39.26068361253534
 20
17.103044
 30
0.0
 11
38.17518361253535
 21
17.103044
 31
0.0
 70
    32
  1
2.165
 71
     5
 42
2.170999999999999
  3
23NSTDI
100
AcDbAlignedDimension
 13
37.08968361253534
 23
15.00595999999999
 33
0.0
 14
39.26068361253534
 24
15.00595999999999
 34
0.0
100
AcDbRotatedDimension
  0
DIMENSION
  5
E1D
330
1E
100
AcDbEntity
  8
DIM
100
AcDbDimension
  2
*D30
 10
23.06638446702855
 20
15.150035
 30
0.0
 11
23.06638446702855
 21
10.780035
 31
0.0
 70
    32
 71
     5
 42
8.740000000000001
  3
23NSTD
100
AcDbAlignedDimension
 13
25.11622746702855
 23
6.410034999999999
 33
0.0
 14
25.11622746702855
 24
15.150035
 34
0.0
 50
90.0
100
AcDbRotatedDimension
  0
DIMENSION
  5
E2B
330
1E
100
AcDbEntity
  8
DIM
100
AcDbDimension
  2
*D31
 10
30.63747746702855
 20
16.68891
 30
0.0
 11
27.76747746702854
 21
16.68891
 31
0.0
 70
    32
 71
     5
 42
5.739999999999998
  3
23NSTD
100
AcDbAlignedDimension
 13
24.89747746702855
 23
14.931285
 33
0.0
 14
30.63747746702855
 24
14.931285
 34
0.0
100
AcDbRotatedDimension
  0
TEXT
  5
E39
330
1E
100
AcDbEntity
  8
TEXT
100
AcDbText
 10
16.941869
 20
4.47032
 30
0.0
 40
0.3125
  1
%%USECTION "A-A"
 41
0.8
  7
SECTION
100
AcDbText
  0
SOLID
  5
E3A
330
1E
100
AcDbEntity
  8
BEND
100
AcDbTrace
 10
5.871731999999999
 20
6.017106
 30
0.0
 11
5.871731999999999
 21
6.152105999999999
 31
0.0
 12
5.466732
 22
6.084605999999999
 32
0.0
 13
5.466732
 23
6.084605999999999
 33
0.0
  0
SOLID
  5
E3B
330
1E
100
AcDbEntity
  8
BEND
100
AcDbTrace
 10
10.577919
 20
15.459727
 30
0.0
 11
10.577919
 21
15.59472699999999
 31
0.0
 12
10.172919
 22
15.52722699999999
 32
0.0
 13
10.172919
 23
15.52722699999999
 33
0.0
  0
TEXT
  5
E3C
330
1E
100
AcDbEntity
  8
BEND
100
AcDbText
 10
10.823863
 20
15.66267
 30
0.0
 40
0.28125
  1
A
 41
0.8
  7
SECTION
100
AcDbText
  0
TEXT
  5
E3D
330
1E
100
AcDbEntity
  8
BEND
100
AcDbText
 10
6.310350999999999
 20
5.926866999999999
 30
0.0
 40
0.28125
  1
A
 41
0.8
  7
SECTION
100
AcDbText
  0
LINE
  5
E3E
102
{ACAD_REACTORS
330
205A
102
}
330
1E
100
AcDbEntity
  8
OBJECT
100
AcDbLine
 10
18.38724206604382
 20
14.206285
 30
0.0
 11
18.564242
 21
14.206285
 31
0.0
  0
LINE
  5
E40
102
{ACAD_REACTORS
330
205A
102
}
330
1E
100
AcDbEntity
  8
OBJECT
100
AcDbLine
 10
18.38724206604382
 20
13.890035
 30
0.0
 11
18.564242
 21
13.890035
 31
0.0
  0
LINE
  5
E42
102
{ACAD_REACTORS
330
205A
102
}
330
1E
100
AcDbEntity
  8
OBJECT
100
AcDbLine
 10
18.38724206604382
 20
14.092535
 30
0.0
 11
18.57724206604382
 21
14.092535
 31
0.0
  0
LINE
  5
E43
102
{ACAD_REACTORS
330
205A
102
}
330
1E
100
AcDbEntity
  8
OBJECT
100
AcDbLine
 10
18.38724206604382
 20
14.00253499999999
 30
0.0
 11
18.57724206604382
 21
14.00253499999999
 31
0.0
  0
LINE
  5
E44
102
{ACAD_REACTORS
330
205A
102
}
330
1E
100
AcDbEntity
  8
OBJECT
100
AcDbLine
 10
18.57724206604382
 20
14.00253499999999
 30
0.0
 11
18.57724206604382
 21
14.092535
 31
0.0
  0
LINE
  5
E45
102
{ACAD_REACTORS
330
205A
102
}
330
1E
100
AcDbEntity
  8
OBJECT
100
AcDbLine
 10
17.104242
 20
6.480034999999999
 30
0.0
 11
18.621742
 21
6.480034999999999
 31
0.0
  0
LINE
  5
E46
330
1E
100
AcDbEntity
  8
OBJECT
100
AcDbLine
 10
18.387242
 20
7.270035000000001
 30
0.0
 11
18.574742
 21
7.270035000000001
 31
0.0
  0
LINE
  5
E47
102
{ACAD_REACTORS
330
205A
102
}
330
1E
100
AcDbEntity
  8
OBJECT
100
AcDbLine
 10
18.387242
 20
7.301285000000001
 30
0.0
 11
18.574742
 21
7.301285000000001
 31
0.0
  0
LINE
  5
E48
330
1E
100
AcDbEntity
  8
OBJECT
100
AcDbLine
 10
18.387242
 20
7.145035000000001
 30
0.0
 11
18.574742
 21
7.145035000000001
 31
0.0
  0
LINE
  5
E49
102
{ACAD_REACTORS
330
205A
102
}
330
1E
100
AcDbEntity
  8
OBJECT
100
AcDbLine
 10
18.387242
 20
7.113785000000001
 30
0.0
 11
18.574742
 21
7.113785000000001
 31
0.0
  0
LINE
  5
E4A
330
1E
100
AcDbEntity
  8
OBJECT
100
AcDbLine
 10
18.574742
 20
7.113785000000001
 30
0.0
 11
18.574742
 21
7.301285000000001
 31
0.0
  0
LINE
  5
E4B
102
{ACAD_REACTORS
330
205A
102
}
330
1E
100
AcDbEntity
  8
OBJECT
100
AcDbLine
 10
17.044242
 20
6.90116
 30
0.0
 11
18.564242
 21
6.90116
 31
0.0
  0
LINE
  5
E4C
102
{ACAD_REACTORS
330
205A
102
}
330
1E
100
AcDbEntity
  8
OBJECT
100
AcDbLine
 10
17.104242
 20
6.843160000000001
 30
0.0
 11
18.621742
 21
6.843160000000001
 31
0.0
  0
LINE
  5
E4D
102
{ACAD_REACTORS
330
205A
102
}
330
1E
100
AcDbEntity
  8
OBJECT
100
AcDbLine
 10
17.044242
 20
6.86116
 30
0.0
 11
17.104242
 21
6.86116
 31
0.0
  0
LINE
  5
E4E
102
{ACAD_REACTORS
330
205A
102
}
330
1E
100
AcDbEntity
  8
OBJECT
100
AcDbLine
 10
18.621742
 20
6.480034999999999
 30
0.0
 11
18.621742
 21
6.843160000000001
 31
0.0
  0
LINE
  5
E4F
102
{ACAD_REACTORS
330
205A
102
}
330
1E
100
AcDbEntity
  8
OBJECT
100
AcDbLine
 10
18.621742
 20
6.722535
 30
0.0
 11
18.684242
 21
6.722535
 31
0.0
  0
LINE
  5
E50
102
{ACAD_REACTORS
330
205A
102
}
330
1E
100
AcDbEntity
  8
OBJECT
100
AcDbLine
 10
18.621742
 20
6.550659999999999
 30
0.0
 11
18.684242
 21
6.550659999999999
 31
0.0
  0
LINE
  5
E51
102
{ACAD_REACTORS
330
205A
102
}
330
1E
100
AcDbEntity
  8
OBJECT
100
AcDbLine
 10
18.574742
 20
7.113785000000001
 30
0.0
 11
18.574742
 21
7.301285000000001
 31
0.0
  0
TEXT
  5
E53
330
1E
100
AcDbEntity
  8
TEXT
100
AcDbText
 10
9.855411999999999
 20
2.847945999999999
 30
0.0
 40
0.47
  1
%%UBODY
 41
0.75
 72
     1
 11
10.507537
 21
2.847945999999999
 31
0.0
100
AcDbText
  0
TEXT
  5
E54
330
1E
100
AcDbEntity
  8
TEXT
100
AcDbText
 10
28.66876746702855
 20
4.227056000000001
 30
0.0
 40
0.47
  1
%%UCOVER
 41
0.75
 72
     1
 11
29.55589246702855
 21
4.227056000000001
 31
0.0
100
AcDbText
  0
DIMENSION
  5
E55
330
1E
100
AcDbEntity
  8
DIM
100
AcDbDimension
  2
*D32
 10
37.08968361253534
 20
16.400544
 30
0.0
 11
35.04671486253534
 21
16.400544
 31
0.0
 70
    32
  1
<> REF.
 71
     5
 42
0.5910000000000011
  3
23NSTD
100
AcDbAlignedDimension
 13
37.68068361253535
 23
15.06846
 33
0.0
 14
37.08968361253534
 24
15.00595999999999
 34
0.0
100
AcDbRotatedDimension
  0
DIMENSION
  5
E63
330
1E
100
AcDbEntity
  8
DIM
100
AcDbDimension
  2
*D33
 10
18.684242
 20
13.35779999999999
 30
0.0
 11
20.199867
 21
13.35779999999999
 31
0.0
 70
    32
  1
<>
 71
     5
 42
0.120000000000001
  3
23NSTD
100
AcDbAlignedDimension
 13
18.564242
 23
13.35779999999999
 33
0.0
 14
18.684242
 24
13.35779999999999
 34
0.0
100
AcDbRotatedDimension
  0
DIMENSION
  5
E71
330
1E
100
AcDbEntity
  8
DIM
100
AcDbDimension
  2
*D34
 10
2.097052999999999
 20
6.90116
 30
0.0
 11
2.097052999999998
 21
6.6555975
 31
0.0
 70
    32
  1
<>
 71
     5
 42
0.4911250000000012
  3
23NSTDI
100
AcDbAlignedDimension
 13
5.775568999999999
 23
6.410034999999999
 33
0.0
 14
5.774818999999999
 24
6.90116
 34
0.0
 50
90.0
100
AcDbRotatedDimension
  0
DIMENSION
  5
E7F
330
1E
100
AcDbEntity
  8
DIM
100
AcDbDimension
  2
*D35
 10
5.674819
 20
13.36117
 30
0.0
 11
7.67872525
 21
13.36117
 31
0.0
 70
    32
  1
<> TYP.
 71
     5
 42
0.1180000000000003
  3
23NSTD
100
AcDbAlignedDimension
 13
5.556818999999999
 23
13.36117
 33
0.0
 14
5.674819
 24
13.36117
 34
0.0
100
AcDbRotatedDimension
  0
DIMENSION
  5
E8D
330
1E
100
AcDbEntity
  8
DIM
100
AcDbDimension
  2
*D36
 10
6.042819
 20
10.00088761542145
 30
0.0
 11
8.16686549258901
 21
10.00088761542145
 31
0.0
 70
   160
  1
<>
 71
     5
 42
4.767999999999999
  3
23NSTD
100
AcDbAlignedDimension
 13
10.810819
 23
10.780035
 33
0.0
 14
6.042819
 24
10.780035
 34
0.0
100
AcDbRotatedDimension
  0
DIMENSION
  5
E9B
330
1E
100
AcDbEntity
  8
DIM
100
AcDbDimension
  2
*D37
 10
2.097052999999999
 20
14.65891
 30
0.0
 11
2.097052999999997
 21
10.780035
 31
0.0
 70
    32
 71
     5
 42
7.75775
  3
23NSTD
100
AcDbAlignedDimension
 13
5.633068999999999
 23
6.90116
 33
0.0
 14
5.774818999999999
 24
14.65891
 34
0.0
 50
90.0
100
AcDbRotatedDimension
  0
DIMENSION
  5
EA9
330
1E
100
AcDbEntity
  8
DIM
100
AcDbDimension
  2
*D38
 10
8.426819
 20
4.187261
 30
0.0
 11
6.991818999999999
 21
4.187261
 31
0.0
 70
    32
 71
     5
 42
2.87
  3
23NSTD
100
AcDbAlignedDimension
 13
5.556818999999999
 23
6.628785
 33
0.0
 14
8.426819
 24
6.348805999999999
 34
0.0
100
AcDbRotatedDimension
  0
DIMENSION
  5
EB7
330
1E
100
AcDbEntity
  8
DIM
100
AcDbDimension
  2
*D39
 10
4.656179507507136
 20
6.410034999999999
 30
0.0
 11
3.610085757507135
 21
5.510035
 31
0.0
 70
   160
 71
     5
 42
1.102500000000001
  3
23NSTD
100
AcDbAlignedDimension
 13
7.659318999999999
 23
7.512535
 33
0.0
 14
5.775568999999999
 24
6.410034999999999
 34
0.0
 50
90.0
100
AcDbRotatedDimension
  0
DIMENSION
  5
EC5
330
1E
100
AcDbEntity
  8
DIM
100
AcDbDimension
  2
*D40
 10
5.556818999999999
 20
16.86195114500029
 30
0.0
 11
3.982600249999999
 21
16.86195114500029
 31
0.0
 70
    32
  1
<>
 71
     5
 42
0.854
  3
23NSTD
100
AcDbAlignedDimension
 13
6.410819
 23
14.899636
 33
0.0
 14
5.556818999999999
 24
15.356535
 34
0.0
100
AcDbRotatedDimension
  0
DIMENSION
  5
ED3
330
1E
100
AcDbEntity
  8
DIM
100
AcDbDimension
  2
*D41
 10
6.410819
 20
16.86195114500029
 30
0.0
 11
8.426819
 21
16.86195114500029
 31
0.0
 70
    32
 71
     5
 42
4.032
  3
23NSTD
100
AcDbAlignedDimension
 13
10.442819
 23
14.899636
 33
0.0
 14
6.410819
 24
14.899636
 34
0.0
100
AcDbRotatedDimension
  0
TEXT
  5
EE1
330
1E
100
AcDbEntity
  8
DIM
100
AcDbText
 10
6.596183749999999
 20
15.44706084573545
 30
0.0
 40
0.28125
  1
2.107
 41
0.75
 72
     2
 11
7.334464999999999
 21
15.58768584573545
 31
0.0
100
AcDbText
 73
     2
  0
LINE
  5
EE2
330
1E
100
AcDbEntity
  8
OBJECT
100
AcDbLine
 10
18.564242
 20
13.036035
 30
0.0
 11
17.154617
 21
13.036035
 31
0.0
  0
LINE
  5
EE3
330
1E
100
AcDbEntity
  8
OBJECT
100
AcDbLine
 10
18.564242
 20
12.848535
 30
0.0
 11
17.154617
 21
12.848535
 31
0.0
  0
LINE
  5
EE4
330
1E
100
AcDbEntity
  8
OBJECT
100
AcDbLine
 10
18.564242
 20
12.898535
 30
0.0
 11
17.154617
 21
12.898535
 31
0.0
  0
LINE
  5
EE5
330
1E
100
AcDbEntity
  8
OBJECT
100
AcDbLine
 10
18.564242
 20
12.986035
 30
0.0
 11
17.154617
 21
12.986035
 31
0.0
  0
LINE
  5
EE6
330
1E
100
AcDbEntity
  8
OBJECT
100
AcDbLine
 10
17.154617
 20
12.898535
 30
0.0
 11
17.154617
 21
12.848535
 31
0.0
  0
LINE
  5
EE7
330
1E
100
AcDbEntity
  8
OBJECT
100
AcDbLine
 10
17.154617
 20
13.036035
 30
0.0
 11
17.154617
 21
12.986035
 31
0.0
  0
ARC
  5
EE8
330
1E
100
AcDbEntity
  8
OBJECT
100
AcDbCircle
 10
30.39222746702855
 20
14.905285
 30
0.0
 40
0.227688
100
AcDbArc
 50
115.939375
 51
214.320397
  0
ARC
  5
EE9
330
1E
100
AcDbEntity
  8
OBJECT
100
AcDbCircle
 10
25.14272746702855
 20
14.905285
 30
0.0
 40
0.227688
100
AcDbArc
 50
325.6796029999999
 51
64.060625
  0
ARC
  5
EEA
330
1E
100
AcDbEntity
  8
OBJECT
100
AcDbCircle
 10
11.060819
 20
14.905285
 30
0.0
 40
0.229894
100
AcDbArc
 50
130.5242159999999
 51
235.02455
  0
ARC
  5
EEB
330
1E
100
AcDbEntity
  8
OBJECT
100
AcDbCircle
 10
5.792819
 20
14.905285
 30
0.0
 40
0.229894
100
AcDbArc
 50
304.97545
 51
49.475784
  0
LWPOLYLINE
  5
EEC
330
1E
100
AcDbEntity
  8
BEND
100
AcDbPolyline
 90
        5
 70
     0
 43
0.0
 10
30.40114746702855
 20
5.903253
 10
30.40122746702855
 20
12.783149
 10
28.97322246702855
 20
12.783149
 10
28.97322246702855
 20
15.449888
 10
28.24548546702855
 20
15.449888
  0
DIMENSION
  5
EF3
330
1E
100
AcDbEntity
  8
DIM
100
AcDbDimension
  2
*D42
 10
12.898252
 20
15.15003499999999
 30
0.0
 11
14.02247075
 21
16.050035
 31
0.0
 70
    32
 71
     5
 42
0.2447499999999998
  3
23NSTD
100
AcDbAlignedDimension
 13
11.060819
 23
14.905285
 33
0.0
 14
11.078069
 24
15.150035
 34
0.0
 50
90.0
100
AcDbRotatedDimension
  0
DIMENSION
  5
F01
330
1E
100
AcDbEntity
  8
DIM
100
AcDbDimension
  2
*D43
 10
27.67354846702855
 20
6.410034999999999
 30
0.0
 11
26.10011096702855
 21
5.510035000000003
 31
0.0
 70
    32
  1
<> TYP.
 71
     5
 42
0.1800000000000006
  3
23NSTD
100
AcDbAlignedDimension
 13
27.72989146702855
 23
6.590035
 33
0.0
 14
27.72989146702855
 24
6.410034999999999
 34
0.0
 50
90.0
100
AcDbRotatedDimension
  0
DIMENSION
  5
F0F
330
1E
100
AcDbEntity
  8
DIM
100
AcDbDimension
  2
*D44
 10
14.881392
 20
8.661535
 30
0.0
 11
15.98607949999999
 21
9.561535000000002
 31
0.0
 70
    32
 71
     5
 42
0.0875000000000004
  3
23NSTD
100
AcDbAlignedDimension
 13
17.154617
 23
8.574035
 33
0.0
 14
17.154617
 24
8.661535
 34
0.0
 50
90.0
100
AcDbRotatedDimension
  0
CIRCLE
  5
F39
330
1E
100
AcDbEntity
  8
OBJECT
100
AcDbCircle
 10
7.659318999999999
 20
7.512535
 30
0.0
 40
0.045
  0
CIRCLE
  5
F3A
330
1E
100
AcDbEntity
  8
OBJECT
100
AcDbCircle
 10
9.194319
 20
7.512535
 30
0.0
 40
0.045
  0
CIRCLE
  5
F3B
330
1E
100
AcDbEntity
  8
OBJECT
100
AcDbCircle
 10
7.659318999999999
 20
14.04753499999999
 30
0.0
 40
0.045
  0
CIRCLE
  5
F3C
330
1E
100
AcDbEntity
  8
OBJECT
100
AcDbCircle
 10
9.194319
 20
14.04753499999999
 30
0.0
 40
0.045
  0
DIMENSION
  5
F3D
330
1E
100
AcDbEntity
  8
DIM
100
AcDbDimension
  2
*D45
 10
19.05742099999999
 20
6.722535
 30
0.0
 11
20.61132724999999
 21
7.622535000000004
 31
0.0
 70
    32
  1
<> DIA.
 71
     5
 42
0.1718750000000009
  3
23NSTD
100
AcDbAlignedDimension
 13
18.684242
 23
6.550659999999999
 33
0.0
 14
18.684242
 24
6.722535
 34
0.0
 50
90.0
100
AcDbRotatedDimension
  0
LINE
  5
F4B
102
{ACAD_REACTORS
330
205A
102
}
330
1E
100
AcDbEntity
  8
OBJECT
100
AcDbLine
 10
18.564242
 20
6.90116
 30
0.0
 11
18.564242
 21
6.974619974011099
 31
0.0
  0
LINE
  5
F4C
102
{ACAD_REACTORS
330
205A
102
}
330
1E
100
AcDbEntity
  8
OBJECT
100
AcDbLine
 10
18.564242
 20
14.206285
 30
0.0
 11
18.564242
 21
14.65891
 31
0.0
  0
LINE
  5
F4D
102
{ACAD_REACTORS
330
205A
102
}
330
1E
100
AcDbEntity
  8
OBJECT
100
AcDbLine
 10
18.564242
 20
7.440449999369562
 30
0.0
 11
18.564242
 21
13.890035
 31
0.0
  0
LWPOLYLINE
  5
F4E
330
1E
100
AcDbEntity
  8
BEND
100
AcDbPolyline
 90
       10
 70
     0
 43
0.0
 10
5.871731999999999
 20
6.084605999999999
 10
6.147319
 20
6.084605999999999
 10
6.147319
 20
8.199649
 10
7.503383
 20
8.199649
 10
7.503383
 20
11.50876299999999
 10
9.194319
 20
11.50876299999999
 10
9.194319
 20
14.576669
 10
11.060819
 20
14.576669
 10
11.060819
 20
15.52722699999999
 10
10.577919
 20
15.52722699999999
  0
DIMENSION
  5
F5A
330
1E
100
AcDbEntity
  8
DIM
100
AcDbDimension
  2
*D46
 10
19.142482
 20
15.062785
 30
0.0
 11
20.69638824999999
 21
15.962785
 31
0.0
 70
    32
  1
0.313 DIA.
 71
     5
 42
0.3149999999999995
  3
23NSTD
100
AcDbAlignedDimension
 13
18.684242
 23
14.747785
 33
0.0
 14
18.684242
 24
15.062785
 34
0.0
 50
90.0
100
AcDbRotatedDimension
  0
DIMENSION
  5
F68
330
1E
100
AcDbEntity
  8
DIM
100
AcDbDimension
  2
*D47
 10
17.044242
 20
17.05939599999999
 30
0.0
 11
17.864242
 21
17.05939599999999
 31
0.0
 70
    32
 71
     5
 42
1.64
  3
23NSTDI
100
AcDbAlignedDimension
 13
18.684242
 23
15.087535
 33
0.0
 14
17.044242
 24
15.059535
 34
0.0
100
AcDbRotatedDimension
  0
DIMENSION
  5
F76
330
1E
100
AcDbEntity
  8
DIM
100
AcDbDimension
  2
*D48
 10
18.684242
 20
16.285052
 30
0.0
 11
18.092367
 21
16.285052
 31
0.0
 70
    32
 71
     5
 42
1.183749999999999
  3
23NSTDI
100
AcDbAlignedDimension
 13
17.500492
 23
15.059035
 33
0.0
 14
18.684242
 24
15.087535
 34
0.0
 50
180.0
100
AcDbRotatedDimension
  0
LINE
  5
F84
102
{ACAD_REACTORS
330
205A
102
}
330
1E
100
AcDbEntity
  8
OBJECT
100
AcDbLine
 10
17.500492
 20
15.062785
 30
0.0
 11
18.684242
 21
15.062785
 31
0.0
  0
LINE
  5
F85
102
{ACAD_REACTORS
330
205A
102
}
330
1E
100
AcDbEntity
  8
OBJECT
100
AcDbLine
 10
17.044242
 20
14.65891
 30
0.0
 11
18.564242
 21
14.65891
 31
0.0
  0
LINE
  5
F86
102
{ACAD_REACTORS
330
205A
102
}
330
1E
100
AcDbEntity
  8
OBJECT
100
AcDbLine
 10
17.500492
 20
14.747785
 30
0.0
 11
18.684242
 21
14.747785
 31
0.0
  0
LINE
  5
F87
102
{ACAD_REACTORS
330
1D25
102
}
330
1E
100
AcDbEntity
  8
OBJECT
100
AcDbLine
 10
17.104242
 20
14.967785
 30
0.0
 11
17.43623599999999
 21
14.967785
 31
0.0
  0
LINE
  5
F88
102
{ACAD_REACTORS
330
1D25
330
205A
102
}
330
1E
100
AcDbEntity
  8
OBJECT
100
AcDbLine
 10
17.104242
 20
15.030285
 30
0.0
 11
17.500492
 21
15.030285
 31
0.0
  0
LINE
  5
F89
102
{ACAD_REACTORS
330
1D25
102
}
330
1E
100
AcDbEntity
  8
OBJECT
100
AcDbLine
 10
17.104242
 20
14.842785
 30
0.0
 11
17.43623599999999
 21
14.842785
 31
0.0
  0
LINE
  5
F8A
102
{ACAD_REACTORS
330
1D25
330
205A
102
}
330
1E
100
AcDbEntity
  8
OBJECT
100
AcDbLine
 10
17.104242
 20
14.780285
 30
0.0
 11
17.500492
 21
14.780285
 31
0.0
  0
LINE
  5
F8B
102
{ACAD_REACTORS
330
205A
102
}
330
1E
100
AcDbEntity
  8
OBJECT
100
AcDbLine
 10
17.500492
 20
14.747785
 30
0.0
 11
17.500492
 21
15.062785
 31
0.0
  0
LINE
  5
F8C
102
{ACAD_REACTORS
330
1D25
102
}
330
1E
100
AcDbEntity
  8
OBJECT
100
AcDbLine
 10
17.43623599999999
 20
14.780285
 30
0.0
 11
17.43623599999999
 21
15.030285
 31
0.0
  0
LINE
  5
F8D
102
{ACAD_REACTORS
330
205A
102
}
330
1E
100
AcDbEntity
  8
OBJECT
100
AcDbLine
 10
17.044242
 20
14.700066
 30
0.0
 11
17.104242
 21
14.700066
 31
0.0
  0
ARC
  5
F90
330
1E
100
AcDbEntity
  8
OBJECT
100
AcDbCircle
 10
6.160991
 20
6.65116
 30
0.0
 40
0.25
100
AcDbArc
 50
2.125975999999999
 51
90.0
  0
ARC
  5
F91
330
1E
100
AcDbEntity
  8
OBJECT
100
AcDbCircle
 10
5.774818999999999
 20
7.00116
 30
0.0
 40
0.1
100
AcDbArc
 50
180.0
 51
270.0
  0
ARC
  5
F92
330
1E
100
AcDbEntity
  8
OBJECT
100
AcDbCircle
 10
5.774818999999999
 20
7.00116
 30
0.0
 40
0.14
100
AcDbArc
 50
180.0
 51
270.0
  0
ARC
  5
F93
330
1E
100
AcDbEntity
  8
OBJECT
100
AcDbCircle
 10
5.792819
 20
6.654785
 30
0.0
 40
0.229894
100
AcDbArc
 50
310.524216
 51
55.02455000000001
  0
LINE
  5
F94
330
1E
100
AcDbEntity
  8
OBJECT
100
AcDbLine
 10
5.774818999999999
 20
6.90116
 30
0.0
 11
6.160991
 21
6.90116
 31
0.0
  0
LINE
  5
F95
330
1E
100
AcDbEntity
  8
OBJECT
100
AcDbLine
 10
5.924599999999999
 20
6.843160000000001
 30
0.0
 11
6.172991
 21
6.843160000000001
 31
0.0
  0
CIRCLE
  5
F96
330
1E
100
AcDbEntity
  8
OBJECT
100
AcDbCircle
 10
5.792819
 20
6.654785
 30
0.0
 40
0.164063
  0
LINE
  5
F97
330
1E
100
AcDbEntity
  8
OBJECT
100
AcDbLine
 10
5.774818999999999
 20
6.86116
 30
0.0
 11
6.160991
 21
6.86116
 31
0.0
  0
ARC
  5
F98
330
1E
100
AcDbEntity
  8
OBJECT
100
AcDbCircle
 10
5.775568999999999
 20
6.628785
 30
0.0
 40
0.19875
100
AcDbArc
 50
180.0
 51
270.0
  0
ARC
  5
F99
330
1E
100
AcDbEntity
  8
OBJECT
100
AcDbCircle
 10
5.775568999999999
 20
6.628785
 30
0.0
 40
0.21875
100
AcDbArc
 50
180.0
 51
270.0
  0
CIRCLE
  5
F9A
330
1E
100
AcDbEntity
  8
OBJECT
100
AcDbCircle
 10
5.792819
 20
6.654785
 30
0.0
 40
0.0625
  0
CIRCLE
  5
F9B
330
1E
100
AcDbEntity
  8
OBJECT
100
AcDbCircle
 10
5.792819
 20
6.654785
 30
0.0
 40
0.125
  0
CIRCLE
  5
F9C
330
1E
100
AcDbEntity
  8
OBJECT
100
AcDbCircle
 10
5.636819
 20
6.852167999999998
 30
0.0
 40
0.03125
  0
LINE
  5
F9D
330
1E
100
AcDbEntity
  8
OBJECT
100
AcDbLine
 10
5.942197
 20
6.480034999999999
 30
0.0
 11
6.470223999999999
 21
6.480034999999999
 31
0.0
  0
ARC
  5
F9E
330
1E
100
AcDbEntity
  8
OBJECT
100
AcDbCircle
 10
6.172991
 20
6.66316
 30
0.0
 40
0.18
100
AcDbArc
 50
2.125975999999999
 51
90.0
  0
ARC
  5
F9F
330
1E
100
AcDbEntity
  8
OBJECT
100
AcDbCircle
 10
6.560224
 20
6.677535
 30
0.0
 40
0.2075
100
AcDbArc
 50
182.125976
 51
244.942385
  0
ARC
  5
FA0
330
1E
100
AcDbEntity
  8
OBJECT
100
AcDbCircle
 10
6.160991
 20
6.65116
 30
0.0
 40
0.21
100
AcDbArc
 50
2.125975999999999
 51
90.0
  0
CIRCLE
  5
FA1
330
1E
100
AcDbEntity
  8
OBJECT
100
AcDbCircle
 10
6.146818999999999
 20
6.662598
 30
0.0
 40
0.085937
  0
ARC
  5
FA2
330
1E
100
AcDbEntity
  8
OBJECT
100
AcDbCircle
 10
6.548223999999999
 20
6.665535
 30
0.0
 40
0.1375
100
AcDbArc
 50
182.125976
 51
270.0
  0
ARC
  5
FA3
330
1E
100
AcDbEntity
  8
OBJECT
100
AcDbCircle
 10
6.470223999999999
 20
6.485034999999999
 30
0.0
 40
0.005
100
AcDbArc
 50
270.0
 51
64.942385
  0
ARC
  5
FA4
330
1E
100
AcDbEntity
  8
OBJECT
100
AcDbCircle
 10
6.548223999999999
 20
6.665535
 30
0.0
 40
0.1775
100
AcDbArc
 50
182.125976
 51
270.0
  0
ARC
  5
FA5
330
1E
100
AcDbEntity
  8
OBJECT
100
AcDbCircle
 10
10.692646
 20
6.65116
 30
0.0
 40
0.21
100
AcDbArc
 50
90.0
 51
177.8740239999999
  0
ARC
  5
FA6
330
1E
100
AcDbEntity
  8
OBJECT
100
AcDbCircle
 10
10.680646
 20
6.66316
 30
0.0
 40
0.18
100
AcDbArc
 50
90.0
 51
177.8740239999999
  0
LINE
  5
FA7
330
1E
100
AcDbEntity
  8
OBJECT
100
AcDbLine
 10
10.91143999999999
 20
6.480034999999999
 30
0.0
 11
10.383413
 21
6.480034999999999
 31
0.0
  0
ARC
  5
FA8
330
1E
100
AcDbEntity
  8
OBJECT
100
AcDbCircle
 10
10.692646
 20
6.65116
 30
0.0
 40
0.25
100
AcDbArc
 50
90.0
 51
177.8740239999999
  0
CIRCLE
  5
FA9
330
1E
100
AcDbEntity
  8
OBJECT
100
AcDbCircle
 10
10.706819
 20
6.662598
 30
0.0
 40
0.085937
  0
ARC
  5
FAA
330
1E
100
AcDbEntity
  8
OBJECT
100
AcDbCircle
 10
10.305413
 20
6.665535
 30
0.0
 40
0.1775
100
AcDbArc
 50
270.0
 51
357.874024
  0
ARC
  5
FAB
330
1E
100
AcDbEntity
  8
OBJECT
100
AcDbCircle
 10
10.383413
 20
6.485034999999999
 30
0.0
 40
0.005
100
AcDbArc
 50
115.0576149999999
 51
270.0
  0
ARC
  5
FAC
330
1E
100
AcDbEntity
  8
OBJECT
100
AcDbCircle
 10
10.293413
 20
6.677535
 30
0.0
 40
0.2075
100
AcDbArc
 50
295.057615
 51
357.874024
  0
ARC
  5
FAD
330
1E
100
AcDbEntity
  8
OBJECT
100
AcDbCircle
 10
10.305413
 20
6.665535
 30
0.0
 40
0.1375
100
AcDbArc
 50
270.0
 51
357.874024
  0
ARC
  5
FAE
330
1E
100
AcDbEntity
  8
OBJECT
100
AcDbCircle
 10
11.078819
 20
7.00116
 30
0.0
 40
0.14
100
AcDbArc
 50
270.0
 51
0.0
  0
ARC
  5
FAF
330
1E
100
AcDbEntity
  8
OBJECT
100
AcDbCircle
 10
11.078819
 20
7.00116
 30
0.0
 40
0.1
100
AcDbArc
 50
270.0
 51
0.0
  0
LINE
  5
FB0
330
1E
100
AcDbEntity
  8
OBJECT
100
AcDbLine
 10
11.078819
 20
6.86116
 30
0.0
 11
10.692646
 21
6.86116
 31
0.0
  0
CIRCLE
  5
FB1
330
1E
100
AcDbEntity
  8
OBJECT
100
AcDbCircle
 10
11.060819
 20
6.654785
 30
0.0
 40
0.164063
  0
LINE
  5
FB2
330
1E
100
AcDbEntity
  8
OBJECT
100
AcDbLine
 10
11.078819
 20
6.90116
 30
0.0
 11
10.692646
 21
6.90116
 31
0.0
  0
CIRCLE
  5
FB3
330
1E
100
AcDbEntity
  8
OBJECT
100
AcDbCircle
 10
11.060819
 20
6.654785
 30
0.0
 40
0.125
  0
CIRCLE
  5
FB4
330
1E
100
AcDbEntity
  8
OBJECT
100
AcDbCircle
 10
11.060819
 20
6.654785
 30
0.0
 40
0.0625
  0
ARC
  5
FB5
330
1E
100
AcDbEntity
  8
OBJECT
100
AcDbCircle
 10
11.060819
 20
6.654785
 30
0.0
 40
0.229894
100
AcDbArc
 50
124.9754499999999
 51
229.4757839999999
  0
LINE
  5
FB6
330
1E
100
AcDbEntity
  8
OBJECT
100
AcDbLine
 10
10.92903699999999
 20
6.843160000000001
 30
0.0
 11
10.680646
 21
6.843160000000001
 31
0.0
  0
ARC
  5
FB7
330
1E
100
AcDbEntity
  8
OBJECT
100
AcDbCircle
 10
11.078069
 20
6.628785
 30
0.0
 40
0.21875
100
AcDbArc
 50
270.0
 51
0.0
  0
CIRCLE
  5
FB8
330
1E
100
AcDbEntity
  8
OBJECT
100
AcDbCircle
 10
11.216819
 20
6.852167999999998
 30
0.0
 40
0.03125
  0
ARC
  5
FB9
330
1E
100
AcDbEntity
  8
OBJECT
100
AcDbCircle
 10
11.078069
 20
6.628785
 30
0.0
 40
0.19875
100
AcDbArc
 50
270.0
 51
0.0
  0
LINE
  5
FBA
330
1E
100
AcDbEntity
  8
OBJECT
100
AcDbLine
 10
5.774818999999999
 20
11.030035
 30
0.0
 11
5.792819
 21
11.030035
 31
0.0
  0
LINE
  5
FBB
330
1E
100
AcDbEntity
  8
OBJECT
100
AcDbLine
 10
5.792819
 20
10.990035
 30
0.0
 11
5.775568999999999
 21
10.990035
 31
0.0
  0
LINE
  5
FBC
330
1E
100
AcDbEntity
  8
OBJECT
100
AcDbLine
 10
5.774818999999999
 20
10.570035
 30
0.0
 11
5.792819
 21
10.570035
 31
0.0
  0
LINE
  5
FBD
330
1E
100
AcDbEntity
  8
OBJECT
100
AcDbLine
 10
5.792819
 20
10.53003499999999
 30
0.0
 11
5.774818999999999
 21
10.53003499999999
 31
0.0
  0
ARC
  5
FBE
330
1E
100
AcDbEntity
  8
OBJECT
100
AcDbCircle
 10
11.060819
 20
10.780035
 30
0.0
 40
0.21
100
AcDbArc
 50
90.0
 51
270.0
  0
ARC
  5
FBF
330
1E
100
AcDbEntity
  8
OBJECT
100
AcDbCircle
 10
11.060819
 20
10.780035
 30
0.0
 40
0.25
100
AcDbArc
 50
90.0
 51
270.0
  0
LINE
  5
FC0
330
1E
100
AcDbEntity
  8
OBJECT
100
AcDbLine
 10
11.060819
 20
10.53003499999999
 30
0.0
 11
11.078819
 21
10.53003499999999
 31
0.0
  0
LINE
  5
FC1
330
1E
100
AcDbEntity
  8
OBJECT
100
AcDbLine
 10
11.078069
 20
10.53003499999999
 30
0.0
 11
11.078819
 21
10.53003499999999
 31
0.0
  0
LINE
  5
FC2
330
1E
100
AcDbEntity
  8
OBJECT
100
AcDbLine
 10
11.078819
 20
10.570035
 30
0.0
 11
11.060819
 21
10.570035
 31
0.0
  0
LINE
  5
FC3
330
1E
100
AcDbEntity
  8
OBJECT
100
AcDbLine
 10
11.060819
 20
10.990035
 30
0.0
 11
11.078069
 21
10.990035
 31
0.0
  0
LINE
  5
FC4
330
1E
100
AcDbEntity
  8
OBJECT
100
AcDbLine
 10
11.078819
 20
11.030035
 30
0.0
 11
11.060819
 21
11.030035
 31
0.0
  0
CIRCLE
  5
FC5
330
1E
100
AcDbEntity
  8
OBJECT
100
AcDbCircle
 10
11.060819
 20
10.780035
 30
0.0
 40
0.0625
  0
LINE
  5
FC6
330
1E
100
AcDbEntity
  8
OBJECT
100
AcDbLine
 10
11.078069
 20
11.030035
 30
0.0
 11
11.078819
 21
11.030035
 31
0.0
  0
LINE
  5
FC7
330
1E
100
AcDbEntity
  8
OBJECT
100
AcDbLine
 10
11.078069
 20
10.990035
 30
0.0
 11
11.078819
 21
10.990035
 31
0.0
  0
LINE
  5
FC8
330
1E
100
AcDbEntity
  8
OBJECT
100
AcDbLine
 10
11.078069
 20
10.570035
 30
0.0
 11
11.078819
 21
10.570035
 31
0.0
  0
CIRCLE
  5
FC9
330
1E
100
AcDbEntity
  8
OBJECT
100
AcDbCircle
 10
11.060819
 20
10.780035
 30
0.0
 40
0.164063
  0
CIRCLE
  5
FCA
330
1E
100
AcDbEntity
  8
OBJECT
100
AcDbCircle
 10
11.060819
 20
10.780035
 30
0.0
 40
0.125
  0
LINE
  5
FCB
330
1E
100
AcDbEntity
  8
OBJECT
100
AcDbLine
 10
25.11622746702855
 20
6.410035
 30
0.0
 11
30.41872746702855
 21
6.410035
 31
0.0
  0
LINE
  5
FCC
330
1E
100
AcDbEntity
  8
OBJECT
100
AcDbLine
 10
25.87288346702855
 20
6.590035
 30
0.0
 11
29.66207246702855
 21
6.590035
 31
0.0
  0
ARC
  5
FCD
330
1E
100
AcDbEntity
  8
OBJECT
100
AcDbCircle
 10
25.48564946702855
 20
6.65116
 30
0.0
 40
0.312
100
AcDbArc
 50
2.125975999999999
 51
90.0
  0
LINE
  5
FCE
330
1E
100
AcDbEntity
  8
OBJECT
100
AcDbLine
 10
25.11547746702855
 20
6.96316
 30
0.0
 11
25.48564946702855
 21
6.96316
 31
0.0
  0
ARC
  5
FCF
330
1E
100
AcDbEntity
  8
OBJECT
100
AcDbCircle
 10
25.11547746702855
 20
7.00116
 30
0.0
 40
0.038
100
AcDbArc
 50
180.0
 51
270.0
  0
CIRCLE
  5
FD0
330
1E
100
AcDbEntity
  8
OBJECT
100
AcDbCircle
 10
25.13372746702855
 20
6.654785
 30
0.0
 40
0.085938
  0
ARC
  5
FD1
330
1E
100
AcDbEntity
  8
OBJECT
100
AcDbCircle
 10
25.11622746702855
 20
6.628785
 30
0.0
 40
0.21875
100
AcDbArc
 50
180.0
 51
270.0
  0
CIRCLE
  5
FD2
330
1E
100
AcDbEntity
  8
OBJECT
100
AcDbCircle
 10
24.97747746702855
 20
6.782652999999999
 30
0.0
 40
0.03125
  0
ARC
  5
FD3
330
1E
100
AcDbEntity
  8
OBJECT
100
AcDbCircle
 10
25.48564946702855
 20
6.65116
 30
0.0
 40
0.132
100
AcDbArc
 50
2.125975999999999
 51
90.0
  0
LINE
  5
FD4
330
1E
100
AcDbEntity
  8
OBJECT
100
AcDbLine
 10
25.24232246702855
 20
6.450034999999999
 30
0.0
 11
25.73562446702855
 21
6.450034999999999
 31
0.0
  0
ARC
  5
FD5
330
1E
100
AcDbEntity
  8
OBJECT
100
AcDbCircle
 10
25.14272746702855
 20
6.654785
 30
0.0
 40
0.227688
100
AcDbArc
 50
295.9393749999999
 51
34.320397
  0
LINE
  5
FD6
330
1E
100
AcDbEntity
  8
OBJECT
100
AcDbLine
 10
25.33077446702855
 20
6.78316
 30
0.0
 11
25.48564946702855
 21
6.78316
 31
0.0
  0
ARC
  5
FD7
330
1E
100
AcDbEntity
  8
OBJECT
100
AcDbCircle
 10
25.87288346702855
 20
6.665535
 30
0.0
 40
0.2555
100
AcDbArc
 50
182.125976
 51
237.5056289999999
  0
ARC
  5
FD8
330
1E
100
AcDbEntity
  8
OBJECT
100
AcDbCircle
 10
25.87288346702855
 20
6.665535
 30
0.0
 40
0.0755
100
AcDbArc
 50
182.125976
 51
270.0
  0
ARC
  5
FD9
330
1E
100
AcDbEntity
  8
OBJECT
100
AcDbCircle
 10
30.41872746702855
 20
6.628785
 30
0.0
 40
0.21875
100
AcDbArc
 50
270.0
 51
0.0
  0
ARC
  5
FDA
330
1E
100
AcDbEntity
  8
OBJECT
100
AcDbCircle
 10
30.04930546702855
 20
6.65116
 30
0.0
 40
0.312
100
AcDbArc
 50
90.0
 51
177.8740239999999
  0
LINE
  5
FDB
330
1E
100
AcDbEntity
  8
OBJECT
100
AcDbLine
 10
30.41947746702855
 20
6.96316
 30
0.0
 11
30.04930546702855
 21
6.96316
 31
0.0
  0
ARC
  5
FDC
330
1E
100
AcDbEntity
  8
OBJECT
100
AcDbCircle
 10
30.41947746702855
 20
7.00116
 30
0.0
 40
0.038
100
AcDbArc
 50
270.0
 51
0.0
  0
ARC
  5
FDD
330
1E
100
AcDbEntity
  8
OBJECT
100
AcDbCircle
 10
29.66207246702855
 20
6.665535
 30
0.0
 40
0.2555
100
AcDbArc
 50
302.494371
 51
357.874024
  0
LINE
  5
FDE
330
1E
100
AcDbEntity
  8
OBJECT
100
AcDbLine
 10
30.29263246702855
 20
6.450034999999999
 30
0.0
 11
29.79933146702855
 21
6.450034999999999
 31
0.0
  0
ARC
  5
FDF
330
1E
100
AcDbEntity
  8
OBJECT
100
AcDbCircle
 10
29.66207246702855
 20
6.665535
 30
0.0
 40
0.0755
100
AcDbArc
 50
270.0
 51
357.874024
  0
ARC
  5
FE0
330
1E
100
AcDbEntity
  8
OBJECT
100
AcDbCircle
 10
30.39222746702855
 20
6.654785
 30
0.0
 40
0.227688
100
AcDbArc
 50
145.679603
 51
244.060625
  0
ARC
  5
FE1
330
1E
100
AcDbEntity
  8
OBJECT
100
AcDbCircle
 10
30.04930546702855
 20
6.65116
 30
0.0
 40
0.132
100
AcDbArc
 50
90.0
 51
177.8740239999999
  0
LINE
  5
FE2
330
1E
100
AcDbEntity
  8
OBJECT
100
AcDbLine
 10
30.20418046702854
 20
6.78316
 30
0.0
 11
30.04930546702855
 21
6.78316
 31
0.0
  0
CIRCLE
  5
FE3
330
1E
100
AcDbEntity
  8
OBJECT
100
AcDbCircle
 10
30.40122746702855
 20
6.654785
 30
0.0
 40
0.085938
  0
CIRCLE
  5
FE4
330
1E
100
AcDbEntity
  8
OBJECT
100
AcDbCircle
 10
30.55747746702855
 20
6.782652999999999
 30
0.0
 40
0.03125
  0
LINE
  5
FE5
330
1E
100
AcDbEntity
  8
OBJECT
100
AcDbLine
 10
25.11547746702855
 20
11.092035
 30
0.0
 11
25.13322746702855
 21
11.092035
 31
0.0
  0
LINE
  5
FE6
330
1E
100
AcDbEntity
  8
OBJECT
100
AcDbLine
 10
25.13322746702855
 20
10.46803499999999
 30
0.0
 11
25.11547746702855
 21
10.46803499999999
 31
0.0
  0
ARC
  5
FE7
330
1E
100
AcDbEntity
  8
OBJECT
100
AcDbCircle
 10
30.40172746702855
 20
10.780035
 30
0.0
 40
0.312
100
AcDbArc
 50
90.0
 51
270.0
  0
CIRCLE
  5
FE8
330
1E
100
AcDbEntity
  8
OBJECT
100
AcDbCircle
 10
30.40122746702855
 20
10.780035
 30
0.0
 40
0.085938
  0
LINE
  5
FE9
330
1E
100
AcDbEntity
  8
OBJECT
100
AcDbLine
 10
30.40172746702855
 20
10.46803499999999
 30
0.0
 11
30.41947746702855
 21
10.46803499999999
 31
0.0
  0
ARC
  5
FEA
330
1E
100
AcDbEntity
  8
OBJECT
100
AcDbCircle
 10
30.41947746702855
 20
10.43003499999999
 30
0.0
 40
0.038
100
AcDbArc
 50
0.0
 51
90.0
  0
LINE
  5
FEB
330
1E
100
AcDbEntity
  8
OBJECT
100
AcDbLine
 10
30.41947746702855
 20
11.092035
 30
0.0
 11
30.40172746702855
 21
11.092035
 31
0.0
  0
ARC
  5
FEC
330
1E
100
AcDbEntity
  8
OBJECT
100
AcDbCircle
 10
30.41947746702855
 20
11.130035
 30
0.0
 40
0.038
100
AcDbArc
 50
270.0
 51
0.0
  0
CIRCLE
  5
FED
330
1E
100
AcDbEntity
  8
OBJECT
100
AcDbCircle
 10
30.56785846702855
 20
10.92228799999999
 30
0.0
 40
0.03125
  0
CIRCLE
  5
FEE
330
1E
100
AcDbEntity
  8
OBJECT
100
AcDbCircle
 10
30.56785846702855
 20
10.637782
 30
0.0
 40
0.03125
  0
LINE
  5
FF4
102
{ACAD_REACTORS
330
1CB3
102
}
330
1E
100
AcDbEntity
  8
OBJECT
100
AcDbLine
 10
33.62557846702855
 20
6.472535
 30
0.0
 11
33.62557846702855
 21
15.087535
 31
0.0
  0
LINE
  5
FF5
102
{ACAD_REACTORS
330
1CB3
102
}
330
1E
100
AcDbEntity
  8
OBJECT
100
AcDbLine
 10
33.03457846702855
 20
6.410035
 30
0.0
 11
33.56307846702855
 21
6.410035
 31
0.0
  0
LINE
  5
FF6
102
{ACAD_REACTORS
330
1C3A
330
1CB3
102
}
330
1E
100
AcDbEntity
  8
OBJECT
100
AcDbLine
 10
33.03457846702855
 20
6.410035
 30
0.0
 11
33.03457846702855
 21
15.150035
 31
0.0
  0
ARC
  5
FF7
102
{ACAD_REACTORS
330
1CB3
102
}
330
1E
100
AcDbEntity
  8
OBJECT
100
AcDbCircle
 10
33.56307846702855
 20
6.472535
 30
0.0
 40
0.0625
100
AcDbArc
 50
270.0
 51
0.0
  0
LINE
  5
FF8
102
{ACAD_REACTORS
330
1CB3
102
}
330
1E
100
AcDbEntity
  8
OBJECT
100
AcDbLine
 10
33.50557846702855
 20
6.96316
 30
0.0
 11
33.03457846702855
 21
6.96316
 31
0.0
  0
LINE
  5
FF9
102
{ACAD_REACTORS
330
1CB3
102
}
330
1E
100
AcDbEntity
  8
OBJECT
100
AcDbLine
 10
33.03457846702855
 20
11.092035
 30
0.0
 11
33.50557846702855
 21
11.092035
 31
0.0
  0
LINE
  5
FFA
102
{ACAD_REACTORS
330
1CB3
102
}
330
1E
100
AcDbEntity
  8
OBJECT
100
AcDbLine
 10
33.03457846702855
 20
10.46803499999999
 30
0.0
 11
33.50557846702855
 21
10.46803499999999
 31
0.0
  0
LINE
  5
FFB
102
{ACAD_REACTORS
330
1CB3
102
}
330
1E
100
AcDbEntity
  8
OBJECT
100
AcDbLine
 10
33.03457846702855
 20
6.740722999999999
 30
0.0
 11
33.50557846702856
 21
6.740723
 31
0.0
  0
LINE
  5
FFC
102
{ACAD_REACTORS
330
1CB3
102
}
330
1E
100
AcDbEntity
  8
OBJECT
100
AcDbLine
 10
33.03457846702855
 20
6.568847999999999
 30
0.0
 11
33.50557846702855
 21
6.568847999999999
 31
0.0
  0
LINE
  5
FFD
102
{ACAD_REACTORS
330
1CB3
102
}
330
1E
100
AcDbEntity
  8
OBJECT
100
AcDbLine
 10
33.50557846702855
 20
6.498534999999998
 30
0.0
 11
33.62557846702855
 21
6.498535
 31
0.0
  0
LINE
  5
FFE
102
{ACAD_REACTORS
330
1CB3
102
}
330
1E
100
AcDbEntity
  8
OBJECT
100
AcDbLine
 10
33.50557846702856
 20
6.811035
 30
0.0
 11
33.62557846702855
 21
6.811035
 31
0.0
  0
LINE
  5
1003
330
1E
100
AcDbEntity
  8
OBJECT
100
AcDbLine
 10
33.39031746702855
 20
6.740722999999999
 30
0.0
 11
33.38149446702855
 21
6.568847999999999
 31
0.0
  0
LINE
  5
1004
330
1E
100
AcDbEntity
  8
OBJECT
100
AcDbLine
 10
33.36032346702855
 20
6.740722999999999
 30
0.0
 11
33.35150046702855
 21
6.568847999999999
 31
0.0
  0
ARC
  5
1005
102
{ACAD_REACTORS
330
1CB3
102
}
330
1E
100
AcDbEntity
  8
OBJECT
100
AcDbCircle
 10
33.56307846702855
 20
15.087535
 30
0.0
 40
0.0625
100
AcDbArc
 50
0.0
 51
90.0
  0
LINE
  5
1006
102
{ACAD_REACTORS
330
1CB3
102
}
330
1E
100
AcDbEntity
  8
OBJECT
100
AcDbLine
 10
33.03457846702855
 20
15.150035
 30
0.0
 11
33.56307846702855
 21
15.150035
 31
0.0
  0
LINE
  5
1007
330
1E
100
AcDbEntity
  8
OBJECT
100
AcDbLine
 10
33.36032346702855
 20
10.86597299999999
 30
0.0
 11
33.35150046702855
 21
10.694098
 31
0.0
  0
LINE
  5
1008
330
1E
100
AcDbEntity
  8
OBJECT
100
AcDbLine
 10
33.39031746702855
 20
10.86597299999999
 30
0.0
 11
33.38149446702855
 21
10.694098
 31
0.0
  0
LINE
  5
100F
102
{ACAD_REACTORS
330
1CB3
102
}
330
1E
100
AcDbEntity
  8
OBJECT
100
AcDbLine
 10
33.03457846702855
 20
10.694098
 30
0.0
 11
33.50557846702855
 21
10.694098
 31
0.0
  0
LINE
  5
1010
102
{ACAD_REACTORS
330
1CB3
102
}
330
1E
100
AcDbEntity
  8
OBJECT
100
AcDbLine
 10
33.03457846702855
 20
10.86597299999999
 30
0.0
 11
33.50557846702855
 21
10.86597299999999
 31
0.0
  0
LINE
  5
1011
102
{ACAD_REACTORS
330
1CB3
102
}
330
1E
100
AcDbEntity
  8
OBJECT
100
AcDbLine
 10
33.03457846702855
 20
14.970035
 30
0.0
 11
33.50557846702855
 21
14.970035
 31
0.0
  0
DIMENSION
  5
1012
330
1E
100
AcDbEntity
  8
DIM
100
AcDbDimension
  2
*D49
 10
33.50757846702855
 20
13.261591
 30
0.0
 11
31.99195346702855
 21
13.261591
 31
0.0
 70
    32
  1
0.120
 71
     5
 42
0.1180000000000021
  3
23NSTD
100
AcDbAlignedDimension
 13
33.62557846702855
 23
13.359145
 33
0.0
 14
33.50757846702855
 24
13.359145
 34
0.0
100
AcDbRotatedDimension
  0
DIMENSION
  5
1020
330
1E
100
AcDbEntity
  8
DIM
100
AcDbDimension
  2
*D50
 10
33.03457846702855
 20
15.69804399999999
 30
0.0
 11
31.49942221702855
 21
15.69804399999999
 31
0.0
 70
    32
 71
     5
 42
0.5910000000000011
  3
23NSTD
100
AcDbAlignedDimension
 13
33.62557846702855
 23
15.087535
 33
0.0
 14
33.03457846702855
 24
15.150035
 34
0.0
100
AcDbRotatedDimension
  0
TEXT
  5
102E
330
1E
100
AcDbEntity
  8
TEXT
100
AcDbText
 10
31.97607546702855
 20
4.861446999999998
 30
0.0
 40
0.3125
  1
%%USECTION "B-B"
 41
0.8
  7
SECTION
100
AcDbText
  0
CIRCLE
  5
1036
102
{ACAD_REACTORS
330
1CB3
102
}
330
1E
100
AcDbEntity
  8
BEND
100
AcDbCircle
 10
33.32434746702855
 20
6.693117999999998
 30
0.0
 40
0.6861100000000001
  0
LINE
  5
1037
102
{ACAD_REACTORS
330
1CB3
102
}
330
1E
100
AcDbEntity
  8
OBJECT
100
AcDbLine
 10
33.50557846702855
 20
6.96316
 30
0.0
 11
33.50557846702855
 21
10.46803499999999
 31
0.0
  0
LINE
  5
1038
102
{ACAD_REACTORS
330
1CB3
102
}
330
1E
100
AcDbEntity
  8
OBJECT
100
AcDbLine
 10
33.50557846702855
 20
11.092035
 30
0.0
 11
33.50557846702855
 21
14.970035
 31
0.0
  0
TEXT
  5
1098
330
1E
100
AcDbEntity
  8
TEXT
100
AcDbText
 10
30.30262546702854
 20
18.13137923636506
 30
0.0
 40
0.3125
  1
%%UDETAIL "C"
 41
0.8
  7
SECTION
100
AcDbText
  0
TEXT
  5
111A
330
1E
100
AcDbEntity
  8
TEXT
100
AcDbText
 10
7.323593750000014
 20
24.9471875
 30
0.0
 40
0.390625
  1
NEMA 4X ENCLOSURE
 41
0.75
 72
     4
 11
9.765000000000014
 21
25.1425
 31
0.0
100
AcDbText
  0
TEXT
  5
111B
330
1E
100
AcDbEntity
  8
TEXT
100
AcDbText
 10
22.69955922881251
 20
24.97973958333334
 30
0.0
 40
0.390625
  1
PN-1325, PN-1325-C AND PN-1325-DG
 41
0.75
 72
     4
 11
27.26498891631251
 21
25.1425
 31
0.0
100
AcDbText
  0
LINE
  5
111C
330
1E
100
AcDbEntity
  8
TITLE
100
AcDbLine
 10
36.34500300000003
 20
2.754998000000003
 30
0.0
 11
36.34500300000003
 21
0.1550000000000029
 31
0.0
  0
LINE
  5
111D
330
1E
100
AcDbEntity
  8
TITLE
100
AcDbLine
 10
31.34500600000003
 20
2.754998000000003
 30
0.0
 11
31.34500600000003
 21
0.1550000000000029
 31
0.0
  0
LINE
  5
111E
330
1E
100
AcDbEntity
  8
TITLE
100
AcDbLine
 10
26.34501000000003
 20
2.754998000000003
 30
0.0
 11
26.34501000000003
 21
0.1550000000000029
 31
0.0
  0
LINE
  5
111F
330
1E
100
AcDbEntity
  8
TITLE
100
AcDbLine
 10
21.34501300000003
 20
2.754998000000003
 30
0.0
 11
21.34501300000003
 21
0.1550000000000029
 31
0.0
  0
LINE
  5
1120
330
1E
100
AcDbEntity
  8
TITLE
100
AcDbLine
 10
33.84500500000003
 20
1.194999000000003
 30
0.0
 11
33.84500500000003
 21
0.6749990000000033
 31
0.0
  0
LINE
  5
1122
330
1E
100
AcDbEntity
  8
TITLE
100
AcDbLine
 10
21.34501300000003
 20
0.6749990000000033
 30
0.0
 11
36.34500300000003
 21
0.6749990000000033
 31
0.0
  0
LINE
  5
1123
330
1E
100
AcDbEntity
  8
TITLE
100
AcDbLine
 10
21.34501300000003
 20
1.194999000000003
 30
0.0
 11
36.34500300000003
 21
1.194999000000003
 31
0.0
  0
LINE
  5
1124
330
1E
100
AcDbEntity
  8
TITLE
100
AcDbLine
 10
21.34501300000003
 20
1.714999000000003
 30
0.0
 11
41.34500000000002
 21
1.714999000000003
 31
0.0
  0
LINE
  5
1125
330
1E
100
AcDbEntity
  8
TITLE
100
AcDbLine
 10
21.34501300000003
 20
2.754998000000003
 30
0.0
 11
41.34500000000002
 21
2.754998000000003
 31
0.0
  0
TEXT
  5
1126
330
1E
100
AcDbEntity
  8
TEXT
100
AcDbText
 10
22.59501100000002
 20
2.078748000000003
 30
0.0
 40
0.3125
  1
PART NUMBER
 41
0.75
 72
     4
 11
23.84501100000002
 21
2.234998000000003
 31
0.0
100
AcDbText
  0
TEXT
  5
1128
330
1E
100
AcDbEntity
  8
TEXT
100
AcDbText
 10
23.10282350000002
 20
1.297082000000002
 30
0.0
 40
0.3125
  1
PN-1325
 41
0.75
 72
     4
 11
23.84501100000002
 21
1.453332000000002
 31
0.0
100
AcDbText
  0
TEXT
  5
1129
330
1E
100
AcDbEntity
  8
TEXT
100
AcDbText
 10
22.86844850000002
 20
0.7762490000000031
 30
0.0
 40
0.3125
  1
PN-1325-C
 41
0.75
 72
     4
 11
23.84501100000002
 21
0.9324990000000031
 31
0.0
100
AcDbText
  0
TEXT
  5
112A
330
1E
100
AcDbEntity
  8
TEXT
100
AcDbText
 10
22.75126100000002
 20
0.255416000000003
 30
0.0
 40
0.3125
  1
PN-1325-DG
 41
0.75
 72
     4
 11
23.84501100000002
 21
0.411666000000003
 31
0.0
100
AcDbText
  0
TEXT
  5
112B
330
1E
100
AcDbEntity
  8
TEXT
100
AcDbText
 10
37.47781450000003
 20
2.078748000000003
 30
0.0
 40
0.3125
  1
HARDWARE KIT
 41
0.75
 72
     4
 11
38.84500200000003
 21
2.234998000000003
 31
0.0
100
AcDbText
  0
TEXT
  5
112D
330
1E
100
AcDbEntity
  8
TEXT
100
AcDbText
 10
27.98563300000003
 20
2.338748000000002
 30
0.0
 40
0.3125
  1
MATERIAL
 41
0.75
 72
     4
 11
28.84500800000003
 21
2.494998000000002
 31
0.0
100
AcDbText
  0
TEXT
  5
112E
330
1E
100
AcDbEntity
  8
TEXT
100
AcDbText
 10
33.25906750000003
 20
2.338748000000002
 30
0.0
 40
0.3125
  1
FINISH
 41
0.75
 72
     4
 11
33.84500500000003
 21
2.494998000000002
 31
0.0
100
AcDbText
  0
TEXT
  5
112F
330
1E
100
AcDbEntity
  8
TEXT
100
AcDbText
 10
32.16531850000002
 20
1.818749000000003
 30
0.0
 40
0.3125
  1
BODY
 41
0.75
 72
     4
 11
32.59500600000002
 21
1.974999000000003
 31
0.0
100
AcDbText
  0
TEXT
  5
1130
330
1E
100
AcDbEntity
  8
TEXT
100
AcDbText
 10
27.36063300000003
 20
1.297916000000003
 30
0.0
 40
0.3125
  1
POLYCARBONATE
 41
0.75
 72
     4
 11
28.84500800000003
 21
1.454166000000003
 31
0.0
100
AcDbText
  0
TEXT
  5
1131
330
1E
100
AcDbEntity
  8
TEXT
100
AcDbText
 10
27.36063300000003
 20
0.7770830000000031
 30
0.0
 40
0.3125
  1
POLYCARBONATE
 41
0.75
 72
     4
 11
28.84500800000003
 21
0.933333000000003
 31
0.0
100
AcDbText
  0
TEXT
  5
1132
330
1E
100
AcDbEntity
  8
TEXT
100
AcDbText
 10
27.20438300000003
 20
0.2562500000000032
 30
0.0
 40
0.3125
  1
HIGH-IMPACT ABS
 41
0.75
 72
     4
 11
28.84500800000003
 21
0.4125000000000032
 31
0.0
100
AcDbText
  0
TEXT
  5
1133
330
1E
100
AcDbEntity
  8
TEXT
100
AcDbText
 10
34.50906650000002
 20
1.818749000000003
 30
0.0
 40
0.3125
  1
COVER
 41
0.75
 72
     4
 11
35.09500400000002
 21
1.974999000000003
 31
0.0
100
AcDbText
  0
TEXT
  5
1134
330
1E
100
AcDbEntity
  8
TEXT
100
AcDbText
 10
29.50906950000003
 20
1.818749000000003
 30
0.0
 40
0.3125
  1
COVER
 41
0.75
 72
     4
 11
30.09500700000003
 21
1.974999000000003
 31
0.0
100
AcDbText
  0
TEXT
  5
1135
330
1E
100
AcDbEntity
  8
TEXT
100
AcDbText
 10
27.16532150000003
 20
1.818749000000003
 30
0.0
 40
0.3125
  1
BODY
 41
0.75
 72
     4
 11
27.59500900000003
 21
1.974999000000003
 31
0.0
100
AcDbText
  0
TEXT
  5
1136
330
1E
100
AcDbEntity
  8
TEXT
100
AcDbText
 10
32.75125500000003
 20
1.297916000000003
 30
0.0
 40
0.3125
  1
LIGHT GRAY
 41
0.75
 72
     4
 11
33.84500500000003
 21
1.454166000000003
 31
0.0
100
AcDbText
  0
TEXT
  5
1137
330
1E
100
AcDbEntity
  8
TEXT
100
AcDbText
 10
31.50125600000002
 20
0.7770830000000031
 30
0.0
 40
0.3125
  1
LIGHT GRAY
 41
0.75
 72
     4
 11
32.59500600000002
 21
0.933333000000003
 31
0.0
100
AcDbText
  0
TEXT
  5
1138
330
1E
100
AcDbEntity
  8
TEXT
100
AcDbText
 10
32.82938000000003
 20
0.2562500000000033
 30
0.0
 40
0.3125
  1
DARK GRAY
 41
0.75
 72
     4
 11
33.84500500000003
 21
0.4125000000000032
 31
0.0
100
AcDbText
  0
TEXT
  5
1139
330
1E
100
AcDbEntity
  8
TEXT
100
AcDbText
 10
34.54812900000002
 20
0.7770830000000031
 30
0.0
 40
0.3125
  1
CLEAR
 41
0.75
 72
     4
 11
35.09500400000002
 21
0.933333000000003
 31
0.0
100
AcDbText
  0
LINE
  5
113A
330
1E
100
AcDbEntity
  8
TITLE
100
AcDbLine
 10
33.84500500000003
 20
2.234998000000003
 30
0.0
 11
33.84500500000003
 21
1.714999000000003
 31
0.0
  0
LINE
  5
113B
330
1E
100
AcDbEntity
  8
TITLE
100
AcDbLine
 10
26.34501000000003
 20
2.234998000000003
 30
0.0
 11
36.34500300000003
 21
2.234998000000003
 31
0.0
  0
LINE
  5
113C
330
1E
100
AcDbEntity
  8
TITLE
100
AcDbLine
 10
28.84500800000003
 20
2.234998000000003
 30
0.0
 11
28.84500800000003
 21
1.714999000000003
 31
0.0
  0
TEXT
  5
113D
330
1E
100
AcDbEntity
  8
TEXT
100
AcDbText
 10
37.16531450000003
 20
1.297916000000003
 30
0.0
 40
0.3125
  1
KIT CONTAINS (6)
 41
0.75
 72
     4
 11
38.84500200000003
 21
1.454166000000003
 31
0.0
100
AcDbText
  0
TEXT
  5
113E
330
1E
100
AcDbEntity
  8
TEXT
100
AcDbText
 10
36.61843950000003
 20
0.7770830000000031
 30
0.0
 40
0.3125
  1
M4 x 20mm (0.787") LG.
 41
0.75
 72
     4
 11
38.84500200000003
 21
0.933333000000003
 31
0.0
100
AcDbText
  0
TEXT
  5
113F
330
1E
100
AcDbEntity
  8
TEXT
100
AcDbText
 10
36.61843950000003
 20
0.2562500000000031
 30
0.0
 40
0.3125
  1
SCREWS FOR ASSEMBLY
 41
0.75
 72
     4
 11
38.84500200000003
 21
0.4125000000000032
 31
0.0
100
AcDbText
  0
TEXT
  5
1140
330
1E
100
AcDbEntity
  8
TEXT
100
AcDbText
 10
21.34501300000003
 20
3.012498000000003
 30
0.0
 40
0.3125
  1
%%UNOTE%%U:  ALL DIMENSIONS HAVE %%P0.015 TOLERANCE UNLESS OTHERWISE SPECIFIED.
 41
0.75
100
AcDbText
  0
LWPOLYLINE
  5
114C
102
{ACAD_REACTORS
330
1C3A
330
1CB3
102
}
330
1E
100
AcDbEntity
  8
OBJECT
100
AcDbPolyline
 90
        3
 70
     0
 43
0.0
 10
33.14957846702855
 20
6.92316
 10
33.14957846702855
 20
6.843160000000001
 10
33.03457846702855
 20
6.843160000000001
  0
LWPOLYLINE
  5
1151
102
{ACAD_REACTORS
330
1C3A
330
1CB3
102
}
330
1E
100
AcDbEntity
  8
OBJECT
100
AcDbPolyline
 90
        2
 70
     0
 43
0.0
 10
33.03457846702855
 20
6.92316
 10
33.14957846702855
 20
6.92316
  0
LWPOLYLINE
  5
1155
102
{ACAD_REACTORS
330
1CB3
102
}
330
1E
100
AcDbEntity
  8
OBJECT
100
AcDbPolyline
 90
        3
 70
     0
 43
0.0
 10
33.14957846702855
 20
10.588035
 10
33.14957846702855
 20
10.508035
 10
33.03457846702855
 20
10.508035
  0
LWPOLYLINE
  5
115A
102
{ACAD_REACTORS
330
1CB3
102
}
330
1E
100
AcDbEntity
  8
OBJECT
100
AcDbPolyline
 90
        2
 70
     0
 43
0.0
 10
33.03457846702855
 20
10.588035
 10
33.14957846702855
 20
10.588035
  0
LWPOLYLINE
  5
115E
102
{ACAD_REACTORS
330
1CB3
102
}
330
1E
100
AcDbEntity
  8
OBJECT
100
AcDbPolyline
 90
        3
 70
     0
 43
0.0
 10
33.14957846702855
 20
11.052035
 10
33.14957846702855
 20
10.97203499999999
 10
33.03457846702855
 20
10.97203499999999
  0
LWPOLYLINE
  5
1163
102
{ACAD_REACTORS
330
1CB3
102
}
330
1E
100
AcDbEntity
  8
OBJECT
100
AcDbPolyline
 90
        2
 70
     0
 43
0.0
 10
33.03457846702855
 20
11.052035
 10
33.14957846702855
 20
11.052035
  0
LWPOLYLINE
  5
1167
102
{ACAD_REACTORS
330
1CB3
102
}
330
1E
100
AcDbEntity
  8
OBJECT
100
AcDbPolyline
 90
        3
 70
     0
 43
0.0
 10
33.14957846702855
 20
15.090035
 10
33.14957846702855
 20
15.010035
 10
33.03457846702855
 20
15.010035
  0
LWPOLYLINE
  5
116C
102
{ACAD_REACTORS
330
1CB3
102
}
330
1E
100
AcDbEntity
  8
OBJECT
100
AcDbPolyline
 90
        2
 70
     0
 43
0.0
 10
33.03457846702855
 20
15.090035
 10
33.14957846702855
 20
15.090035
  0
LWPOLYLINE
  5
1171
102
{ACAD_REACTORS
330
1C3F
102
}
330
1E
100
AcDbEntity
  8
OBJECT
100
AcDbPolyline
 90
       32
 70
     1
 43
0.0
 10
30.41947746702855
 20
14.71691
 10
30.04930546702855
 20
14.71691
 42
-0.4033870000000001
 10
29.85743746702855
 20
14.90178799999999
 42
0.4033870000000001
 10
29.66207246702855
 20
15.090035
 10
25.87288346702855
 20
15.090035
 42
0.4033870000000001
 10
25.67751746702855
 20
14.90178799999999
 42
-0.4033870000000001
 10
25.48564946702855
 20
14.71691
 10
25.11547746702855
 20
14.71691
 42
0.4142140000000001
 10
24.95747746702855
 20
14.55891
 10
24.95747746702855
 20
11.130035
 42
0.4142140000000001
 10
25.11547746702855
 20
10.97203499999999
 10
25.13322746702855
 20
10.97203499999999
 42
-1.0
 10
25.13322746702855
 20
10.588035
 10
25.11547746702855
 20
10.588035
 42
0.4142140000000001
 10
24.95747746702855
 20
10.43003499999999
 10
24.95747746702855
 20
7.00116
 42
0.4142140000000001
 10
25.11547746702855
 20
6.843160000000001
 10
25.48564946702855
 20
6.843160000000001
 42
-0.4033870000000001
 10
25.67751746702855
 20
6.658282999999999
 42
0.4033870000000001
 10
25.87288346702855
 20
6.470035
 10
29.66207246702855
 20
6.470035
 42
0.4033870000000001
 10
29.85743746702855
 20
6.658282999999999
 42
-0.4033870000000001
 10
30.04930546702855
 20
6.843160000000001
 10
30.41947746702855
 20
6.843160000000001
 42
0.4142140000000001
 10
30.57747746702855
 20
7.00116
 10
30.57747746702855
 20
10.43003499999999
 42
0.4142140000000001
 10
30.41947746702855
 20
10.588035
 10
30.40172746702855
 20
10.588035
 42
-1.0
 10
30.40172746702855
 20
10.97203499999999
 10
30.41947746702855
 20
10.97203499999999
 42
0.4142140000000001
 10
30.57747746702855
 20
11.130035
 10
30.57747746702855
 20
14.55891
 42
0.4142140000000001
  0
LWPOLYLINE
  5
1193
102
{ACAD_REACTORS
330
1C3F
102
}
330
1E
100
AcDbEntity
  8
OBJECT
100
AcDbPolyline
 90
       32
 70
     1
 43
0.0
 10
25.03747746702855
 20
11.130035
 10
25.03747746702855
 20
14.55891
 42
-0.4142140000000001
 10
25.11547746702855
 20
14.63691
 10
25.48564946702855
 20
14.63691
 42
0.4033870000000001
 10
25.75746246702855
 20
14.89882
 42
-0.4033870000000001
 10
25.87288346702855
 20
15.010035
 10
29.66207246702855
 20
15.010035
 42
-0.4033870000000001
 10
29.77749246702855
 20
14.89882
 42
0.4033870000000001
 10
30.04930546702855
 20
14.63691
 10
30.41947746702855
 20
14.63691
 42
-0.4142140000000001
 10
30.49747746702855
 20
14.55891
 10
30.49747746702855
 20
11.130035
 42
-0.4142140000000001
 10
30.41947746702855
 20
11.052035
 10
30.40172746702855
 20
11.052035
 42
1.0
 10
30.40172746702855
 20
10.508035
 10
30.41947746702855
 20
10.508035
 42
-0.4142140000000001
 10
30.49747746702855
 20
10.43003499999999
 10
30.49747746702855
 20
7.00116
 42
-0.4142140000000001
 10
30.41947746702855
 20
6.92316
 10
30.04930546702855
 20
6.92316
 42
0.4033870000000001
 10
29.77749246702855
 20
6.661249999999999
 42
-0.4033870000000001
 10
29.66207246702855
 20
6.550035
 10
25.87288346702855
 20
6.550035
 42
-0.4033870000000001
 10
25.75746246702855
 20
6.661249999999999
 42
0.4033870000000001
 10
25.48564946702855
 20
6.92316
 10
25.11547746702855
 20
6.92316
 42
-0.4142140000000001
 10
25.03747746702855
 20
7.00116
 10
25.03747746702855
 20
10.43003499999999
 42
-0.4142140000000001
 10
25.11547746702855
 20
10.508035
 10
25.13322746702855
 20
10.508035
 42
1.0
 10
25.13322746702855
 20
11.052035
 10
25.11547746702855
 20
11.052035
 42
-0.4142140000000001
  0
TEXT
  5
11B6
330
1E
100
AcDbEntity
  8
TEXT
100
AcDbText
 10
0.6695020000000001
 20
23.22737599999999
 30
0.0
 40
0.3125
  1
 %%UPOLYCARBONATE%%U (LIGHT GRAY AND CLEAR)
 41
0.75
100
AcDbText
  0
TEXT
  5
11B7
330
1E
100
AcDbEntity
  8
TEXT
100
AcDbText
 10
0.6695020000000001
 20
20.62354399999999
 30
0.0
 40
0.3125
  1
 %%UABS%%U (DARK GRAY)
 41
0.75
100
AcDbText
  0
TEXT
  5
11B8
330
1E
100
AcDbEntity
  8
TEXT
100
AcDbText
 10
0.6695020000000001
 20
19.582045
 30
0.0
 40
0.3125
  1
  SERVICE TEMPERATURE RANGE:  -40%%DC TO +80%%DC
 41
0.75
100
AcDbText
  0
TEXT
  5
11B9
330
1E
100
AcDbEntity
  8
TEXT
100
AcDbText
 10
0.6695020000000001
 20
20.102711
 30
0.0
 40
0.3125
  1
  UL94-HB FLAMMABILITY RATING (UL FILE #E56070)
 41
0.75
100
AcDbText
  0
TEXT
  5
11BA
330
1E
100
AcDbEntity
  8
TEXT
100
AcDbText
 10
0.6695020000000001
 20
23.748209
 30
0.0
 40
0.390625
  1
INDUSTRY STANDARDS:
 41
0.75
100
AcDbText
  0
TEXT
  5
11BB
330
1E
100
AcDbEntity
  8
TEXT
100
AcDbText
 10
0.6695020000000001
 20
21.665043
 30
0.0
 40
0.3125
  1
  SERVICE TEMPERATURE RANGE:  -40%%DC TO +120%%DC
 41
0.75
100
AcDbText
  0
TEXT
  5
11BC
330
1E
100
AcDbEntity
  8
TEXT
100
AcDbText
 10
0.6695020000000001
 20
22.185876
 30
0.0
 40
0.3125
  1
  UV STABILIZED
 41
0.75
100
AcDbText
  0
TEXT
  5
11BD
330
1E
100
AcDbEntity
  8
TEXT
100
AcDbText
 10
0.6695020000000001
 20
22.70654299999999
 30
0.0
 40
0.3125
  1
  UL94-HB FLAMMABILITY RATING (UL FILE #E41613)
 41
0.75
100
AcDbText
  0
INSERT
  5
1B13
330
1E
100
AcDbEntity
  8
OBJECT
100
AcDbBlockReference
  2
HBS
 10
0.0
 20
0.0
 30
0.0
 41
2.5
 42
2.5
 43
2.5
  0
TEXT
  5
1B1A
330
1E
100
AcDbEntity
  8
TEXT
100
AcDbText
 10
38.23534047881253
 20
24.94718750000001
 30
0.0
 40
0.390625
  1
11-17-08
 41
0.75
 72
     4
 11
39.18748891631253
 21
25.14250000000001
 31
0.0
100
AcDbText
  0
DIMENSION
  5
1B8F
330
1E
100
AcDbEntity
  8
DIM
100
AcDbDimension
  2
*D52
 10
34.33903746702855
 20
21.14965199999999
 30
0.0
 11
34.33903746702854
 21
20.529652
 31
0.0
 70
    32
  1
<> DIA.\PC'BORE
 71
     5
 42
0.3100000000000005
  3
23NSTD4I
100
AcDbAlignedDimension
 13
33.09892746702855
 23
19.90965199999999
 33
0.0
 14
33.09892746702855
 24
21.14965199999999
 34
0.0
 50
90.0
100
AcDbRotatedDimension
  0
HATCH
  5
1B90
330
1E
100
AcDbEntity
  8
OBJECT
 62
   151
100
AcDbHatch
 10
0.0
 20
0.0
 30
0.0
210
0.0
220
0.0
230
1.0
  2
ANSI31
 70
     0
 71
     1
 91
        2
 92
        7
 72
     1
 73
     1
 93
        7
 10
30.73943246702854
 20
20.19344099999999
 42
0.0
 10
30.73943246702855
 20
19.593191
 42
0.0
 10
32.85343246702855
 20
19.593191
 42
0.4142135623730868
 10
33.10343246702855
 20
19.843191
 42
0.0
 10
33.10343246702855
 20
19.917191
 42
0.0
 10
32.62343246702855
 20
19.917191
 42
0.0
 10
32.62343246702855
 20
20.193441
 42
0.0
 97
        7
330
1B96
330
1B93
330
1B98
330
1B9A
330
1B92
330
1B9B
330
1B91
 92
        5
 93
       12
 72
     1
 10
30.73943246702855
 20
21.813365
 11
30.73943246702855
 21
21.647376
 72
     1
 10
30.73943246702855
 20
21.647376
 11
31.19943246702854
 21
21.647376
 72
     1
 10
31.19943246702854
 20
21.647376
 11
31.19943246702854
 21
21.327376
 72
     1
 10
31.19943246702854
 20
21.327376
 11
30.73943246702854
 21
21.327376
 72
     1
 10
30.73943246702854
 20
21.327376
 11
30.73943246702854
 21
20.88094099999999
 72
     1
 10
30.73943246702854
 20
20.88094099999999
 11
32.62343246702855
 21
20.880941
 72
     1
 10
32.62343246702855
 20
20.880941
 11
32.62343246702855
 21
21.157191
 72
     1
 10
32.62343246702855
 20
21.157191
 11
33.10343246702855
 21
21.157191
 72
     1
 10
33.10343246702855
 20
21.157191
 11
33.10343246702855
 21
22.548317802849
 72
     4
 94
        3
 73
     0
 74
     0
 95
        9
 96
        5
 40
2.125594875370296
 40
2.125594875370296
 40
2.125594875370296
 40
2.125594875370296
 40
2.276284333985044
 40
2.547541565887204
 40
2.547541565887204
 40
2.547541565887204
 40
2.547541565887204
 10
33.10343246702855
 20
22.548317802849
 10
33.05406310974504
 20
22.54441155458113
 10
32.91712841214298
 20
22.55623594465193
 10
32.78568034563553
 20
22.66377399739479
 10
32.70343246702855
 20
22.67839946247721
 72
     1
 10
32.70343246702855
 20
22.67839946247721
 11
32.70343246702855
 21
21.813365
 72
     1
 10
32.70343246702855
 20
21.813365
 11
30.73943246702855
 21
21.813365
 97
       10
330
1B9F
330
1BA7
330
1BA0
330
1B93
330
1BA5
330
1BA4
330
1B97
330
1B91
330
1BA6
330
1B92
 75
     0
 76
     1
 52
0.0
 41
1.5
 77
     0
 78
     1
 53
45.0
 43
0.8538334670285507
 44
0.0
 45
-0.1325825214724776
 46
0.1325825214724777
 79
     0
 47
0.0089005159099073
 98
        2
 10
31.96818636851701
 20
19.97501445703539
 10
32.00381773096863
 20
21.38129603085658
  0
LINE
  5
1B91
102
{ACAD_REACTORS
330
1B90
102
}
330
1E
100
AcDbEntity
  8
OBJECT
100
AcDbLine
 10
32.62343246702855
 20
19.917191
 30
0.0
 11
32.62343246702855
 21
21.157191
 31
0.0
  0
LINE
  5
1B92
102
{ACAD_REACTORS
330
1B90
102
}
330
1E
100
AcDbEntity
  8
OBJECT
100
AcDbLine
 10
33.10343246702855
 20
19.843191
 30
0.0
 11
33.10343246702855
 21
22.54831780284899
 31
0.0
  0
LINE
  5
1B93
102
{ACAD_REACTORS
330
1B90
330
1C35
102
}
330
1E
100
AcDbEntity
  8
OBJECT
100
AcDbLine
 10
30.73943246702855
 20
19.593191
 30
0.0
 11
30.73943246702855
 21
22.588056
 31
0.0
  0
DIMENSION
  5
1B94
330
1E
100
AcDbEntity
  8
DIM
100
AcDbDimension
  2
*D53
 10
29.25306146702855
 20
20.193441
 30
0.0
 11
29.25306146702855
 21
20.537191
 31
0.0
 70
    32
  1
<> DIA.
 71
     5
 42
0.171875
  3
23NSTD4I
100
AcDbAlignedDimension
 13
30.73851246702854
 23
20.880941
 33
0.0
 14
30.73851246702854
 24
20.193441
 34
0.0
 50
90.0
100
AcDbRotatedDimension
  0
DIMENSION
  5
1B95
330
1E
100
AcDbEntity
  8
DIM
100
AcDbDimension
  2
*D54
 10
28.11068659660396
 20
21.647376
 30
0.0
 11
27.02553034660395
 21
20.427376
 31
0.0
 70
   160
 71
     5
 42
0.0800000000000001
  3
23NSTD4
100
AcDbAlignedDimension
 13
30.73943246702855
 23
21.327376
 33
0.0
 14
30.73943246702855
 24
21.647376
 34
0.0
 50
90.0
100
AcDbRotatedDimension
  0
LINE
  5
1B96
102
{ACAD_REACTORS
330
1B90
102
}
330
1E
100
AcDbEntity
  8
OBJECT
100
AcDbLine
 10
30.73943246702855
 20
20.193441
 30
0.0
 11
32.62343246702855
 21
20.193441
 31
0.0
  0
LINE
  5
1B97
102
{ACAD_REACTORS
330
1B90
102
}
330
1E
100
AcDbEntity
  8
OBJECT
100
AcDbLine
 10
30.73943246702855
 20
20.880941
 30
0.0
 11
32.62343246702855
 21
20.880941
 31
0.0
  0
LINE
  5
1B98
102
{ACAD_REACTORS
330
1B90
102
}
330
1E
100
AcDbEntity
  8
OBJECT
100
AcDbLine
 10
30.73943246702855
 20
19.593191
 30
0.0
 11
32.85343246702855
 21
19.593191
 31
0.0
  0
DIMENSION
  5
1B99
330
1E
100
AcDbEntity
  8
DIM
100
AcDbDimension
  2
*D55
 10
32.62343246702855
 20
18.89352227763559
 30
0.0
 11
31.10780746702855
 21
18.89352227763559
 31
0.0
 70
    32
 71
     5
 42
0.1199999999999992
  3
23NSTD4
100
AcDbAlignedDimension
 13
33.10343246702855
 23
19.843191
 33
0.0
 14
32.62343246702855
 24
19.917191
 34
0.0
100
AcDbRotatedDimension
  0
ARC
  5
1B9A
102
{ACAD_REACTORS
330
1B90
102
}
330
1E
100
AcDbEntity
  8
OBJECT
100
AcDbCircle
 10
32.85343246702855
 20
19.843191
 30
0.0
 40
0.25
100
AcDbArc
 50
270.0
 51
0.0
  0
LINE
  5
1B9B
102
{ACAD_REACTORS
330
1B90
102
}
330
1E
100
AcDbEntity
  8
OBJECT
100
AcDbLine
 10
32.62343246702855
 20
19.917191
 30
0.0
 11
33.10343246702855
 21
19.917191
 31
0.0
  0
LINE
  5
1B9C
330
1E
100
AcDbEntity
  8
OBJECT
100
AcDbLine
 10
32.17121546702855
 20
20.880941
 30
0.0
 11
32.13592146702855
 21
20.193441
 31
0.0
  0
LINE
  5
1B9D
330
1E
100
AcDbEntity
  8
OBJECT
100
AcDbLine
 10
32.29119246702855
 20
20.880941
 30
0.0
 11
32.25589746702855
 21
20.193441
 31
0.0
  0
MTEXT
  5
1B9E
102
{ACAD_REACTORS
330
1BA2
102
}
330
1E
100
AcDbEntity
  8
DIM
100
AcDbMText
 10
28.35629732538588
 20
23.60086215322341
 30
0.0
 40
0.3125
 41
0.0
 71
     3
 72
     1
  1
\A1;SILICONE GASKET\P(CLEAR)
 73
     1
 44
1.0
  0
SPLINE
  5
1B9F
102
{ACAD_REACTORS
330
1B90
102
}
330
1E
100
AcDbEntity
  8
OBJECT
100
AcDbSpline
210
0.0
220
0.0
230
1.0
 70
     8
 71
     3
 72
    14
 73
    10
 74
     0
 42
0.0000000001
 43
0.0000000001
 40
0.0
 40
0.0
 40
0.0
 40
0.0
 40
0.3531960836574035
 40
0.7236385390777751
 40
1.227047298044311
 40
1.678579504381126
 40
2.080941156971004
 40
2.396852107272455
 40
2.547541565887204
 40
2.547541565887204
 40
2.547541565887204
 40
2.547541565887204
 10
30.73943246702855
 20
22.588056
 30
0.0
 10
30.85105182108798
 20
22.66253042344807
 30
0.0
 10
31.0797408412718
 20
22.81511581574503
 30
0.0
 10
31.42626805353415
 20
22.39689639813184
 30
0.0
 10
31.87962635594428
 20
22.83175406300423
 30
0.0
 10
32.29605382441581
 20
22.32676926673188
 30
0.0
 10
32.63312695847031
 20
22.79981258637537
 30
0.0
 10
32.90263690512743
 20
22.55748729463602
 30
0.0
 10
33.05406310974504
 20
22.54441155458113
 30
0.0
 10
33.10343246702855
 20
22.548317802849
 30
0.0
  0
LINE
  5
1BA0
102
{ACAD_REACTORS
330
1B90
102
}
330
1E
100
AcDbEntity
  8
OBJECT
100
AcDbLine
 10
30.73943246702855
 20
21.813365
 30
0.0
 11
32.70343246702855
 21
21.813365
 31
0.0
  0
DIMENSION
  5
1BA1
330
1E
100
AcDbEntity
  8
DIM
100
AcDbDimension
  2
*D56
 10
31.19943246702855
 20
23.26292066623146
 30
0.0
 11
32.69552621702855
 21
23.26292066623146
 31
0.0
 70
   160
 71
     5
 42
0.1150000000000002
  3
23NSTD4
100
AcDbAlignedDimension
 13
30.73943246702855
 23
22.588056
 33
0.0
 14
31.19943246702855
 24
21.647376
 34
0.0
100
AcDbRotatedDimension
  0
LEADER
  5
1BA2
330
1E
100
AcDbEntity
  8
DIM
100
AcDbLeader
  3
23NSTD
 73
     0
 75
     1
 40
0.8333333333333332
 41
3.28125
 76
     3
 10
30.73943246702855
 20
21.454832
 30
0.0
 10
29.03129732538588
 20
23.44461215322341
 30
0.0
 10
28.58129732538588
 20
23.44461215322341
 30
0.0
213
0.0
223
-0.15625
233
0.0
1001
ACAD
1000
DSTYLE
1002
{
1070
   147
1040
0.09
1070
    77
1070
     0
1002
}
  0
LWPOLYLINE
  5
1BA4
102
{ACAD_REACTORS
330
1B90
330
1C35
102
}
330
1E
100
AcDbEntity
  8
OBJECT
100
AcDbPolyline
 90
        3
 70
     0
 43
0.0
 10
31.19943246702855
 20
21.647376
 10
31.19943246702855
 20
21.327376
 10
30.73943246702855
 20
21.327376
  0
LWPOLYLINE
  5
1BA5
102
{ACAD_REACTORS
330
1B90
330
1C35
102
}
330
1E
100
AcDbEntity
  8
OBJECT
100
AcDbPolyline
 90
        2
 70
     0
 43
0.0
 10
30.73943246702855
 20
21.647376
 10
31.19943246702855
 20
21.647376
  0
LINE
  5
1BA6
102
{ACAD_REACTORS
330
1B90
102
}
330
1E
100
AcDbEntity
  8
OBJECT
100
AcDbLine
 10
32.62343246702855
 20
21.157191
 30
0.0
 11
33.10343246702855
 21
21.157191
 31
0.0
  0
LINE
  5
1BA7
102
{ACAD_REACTORS
330
1B90
102
}
330
1E
100
AcDbEntity
  8
OBJECT
100
AcDbLine
 10
32.70343246702855
 20
21.813365
 30
0.0
 11
32.70343246702855
 21
22.67839946247722
 31
0.0
  0
LINE
  5
1C1F
102
{ACAD_REACTORS
330
1CB3
102
}
330
1E
100
AcDbEntity
  8
OBJECT
100
AcDbLine
 10
33.50557846702855
 20
6.498534999999998
 30
0.0
 11
33.50557846702856
 21
6.811035
 31
0.0
  0
LINE
  5
1C21
102
{ACAD_REACTORS
330
1CB3
102
}
330
1E
100
AcDbEntity
  8
OBJECT
100
AcDbLine
 10
33.50557846702855
 20
10.62378499999999
 30
0.0
 11
33.50557846702856
 21
10.936285
 31
0.0
  0
LINE
  5
1C22
102
{ACAD_REACTORS
330
1CB3
102
}
330
1E
100
AcDbEntity
  8
OBJECT
100
AcDbLine
 10
33.50557846702855
 20
10.62378499999999
 30
0.0
 11
33.62557846702855
 21
10.623785
 31
0.0
  0
LINE
  5
1C23
102
{ACAD_REACTORS
330
1CB3
102
}
330
1E
100
AcDbEntity
  8
OBJECT
100
AcDbLine
 10
33.50557846702856
 20
10.936285
 30
0.0
 11
33.62557846702855
 21
10.936285
 31
0.0
  0
HATCH
  5
1C35
330
1E
100
AcDbEntity
  8
OBJECT
 62
   221
100
AcDbHatch
 10
0.0
 20
0.0
 30
0.0
210
0.0
220
0.0
230
1.0
  2
ZIGZAG
 70
     0
 71
     1
 91
        1
 92
        7
 72
     0
 73
     1
 93
        4
 10
30.73943246702855
 20
21.647376
 10
30.73943246702854
 20
21.327376
 10
31.19943246702854
 20
21.327376
 10
31.19943246702854
 20
21.647376
 97
        3
330
1BA5
330
1B93
330
1BA4
 75
     0
 76
     1
 52
0.0
 41
0.875
 77
     0
 78
     2
 53
0.0
 43
0.8538334670285507
 44
0.0
 45
0.109375
 46
0.109375
 79
     2
 49
0.109375
 49
-0.109375
 53
90.0
 43
0.9632084670285507
 44
0.0
 45
-0.109375
 46
0.109375
 79
     2
 49
0.109375
 49
-0.109375
 47
0.0060283717773825
 98
        1
 10
31.00219795112097
 20
21.48883575403566
  0
HATCH
  5
1C3A
330
1E
100
AcDbEntity
  8
OBJECT
 62
   221
100
AcDbHatch
 10
0.0
 20
0.0
 30
0.0
210
0.0
220
0.0
230
1.0
  2
ZIGZAG
 70
     0
 71
     1
 91
        1
 92
        7
 72
     0
 73
     1
 93
        4
 10
33.14957846702855
 20
6.843160000000001
 10
33.14957846702855
 20
6.923160000000001
 10
33.03457846702855
 20
6.923160000000001
 10
33.03457846702855
 20
6.843160000000001
 97
        3
330
1151
330
FF6
330
114C
 75
     0
 76
     1
 52
0.0
 41
0.3125
 77
     0
 78
     2
 53
0.0
 43
0.8538334670285507
 44
0.0
 45
0.0390625
 46
0.0390625
 79
     2
 49
0.0390625
 49
-0.0390625
 53
90.0
 43
0.8928959670285507
 44
0.0
 45
-0.0390625
 46
0.0390625
 79
     2
 49
0.0390625
 49
-0.0390625
 47
0.0022413175873363
 98
        1
 10
33.10930899639167
 20
6.875560458275394
  0
HATCH
  5
1C3B
330
1E
100
AcDbEntity
  8
OBJECT
 62
   221
100
AcDbHatch
 10
0.0
 20
0.0
 30
0.0
210
0.0
220
0.0
230
1.0
  2
ZIGZAG
 70
     0
 71
     0
 91
        1
 92
        7
 72
     0
 73
     1
 93
        4
 10
33.14957846702855
 20
10.588035
 10
33.03457846702855
 20
10.588035
 10
33.03457846702856
 20
10.508035
 10
33.14957846702855
 20
10.508035
 97
        0
 75
     0
 76
     1
 52
0.0
 41
0.3125
 77
     0
 78
     2
 53
0.0
 43
0.8538334670285507
 44
3.664875
 45
0.0390625
 46
0.0390625
 79
     2
 49
0.0390625
 49
-0.0390625
 53
90.0
 43
0.8928959670285507
 44
3.664875
 45
-0.0390625
 46
0.0390625
 79
     2
 49
0.0390625
 49
-0.0390625
 47
0.0022413175873363
 98
        1
 10
33.10930899639167
 20
10.54043545827539
  0
HATCH
  5
1C3C
330
1E
100
AcDbEntity
  8
OBJECT
 62
   221
100
AcDbHatch
 10
0.0
 20
0.0
 30
0.0
210
0.0
220
0.0
230
1.0
  2
ZIGZAG
 70
     0
 71
     0
 91
        1
 92
        7
 72
     0
 73
     1
 93
        4
 10
33.14957846702855
 20
11.052035
 10
33.03457846702855
 20
11.052035
 10
33.03457846702856
 20
10.97203499999999
 10
33.14957846702855
 20
10.97203499999999
 97
        0
 75
     0
 76
     1
 52
0.0
 41
0.3125
 77
     0
 78
     2
 53
0.0
 43
0.8538334670285507
 44
4.128874999999998
 45
0.0390625
 46
0.0390625
 79
     2
 49
0.0390625
 49
-0.0390625
 53
90.0
 43
0.8928959670285507
 44
4.128874999999998
 45
-0.0390625
 46
0.0390625
 79
     2
 49
0.0390625
 49
-0.0390625
 47
0.0022413175873363
 98
        1
 10
33.10930899639167
 20
11.00443545827539
  0
HATCH
  5
1C3D
330
1E
100
AcDbEntity
  8
OBJECT
 62
   221
100
AcDbHatch
 10
0.0
 20
0.0
 30
0.0
210
0.0
220
0.0
230
1.0
  2
ZIGZAG
 70
     0
 71
     0
 91
        1
 92
        7
 72
     0
 73
     1
 93
        4
 10
33.14957846702855
 20
15.090035
 10
33.03457846702855
 20
15.090035
 10
33.03457846702856
 20
15.010035
 10
33.14957846702855
 20
15.01003499999999
 97
        0
 75
     0
 76
     1
 52
0.0
 41
0.3125
 77
     0
 78
     2
 53
0.0
 43
0.8538334670285507
 44
8.166874999999999
 45
0.0390625
 46
0.0390625
 79
     2
 49
0.0390625
 49
-0.0390625
 53
90.0
 43
0.8928959670285507
 44
8.166874999999999
 45
-0.0390625
 46
0.0390625
 79
     2
 49
0.0390625
 49
-0.0390625
 47
0.0022413175873363
 98
        1
 10
33.10930899639167
 20
15.04243545827539
  0
HATCH
  5
1C3F
330
1E
100
AcDbEntity
  8
OBJECT
 62
   221
100
AcDbHatch
 10
0.0
 20
0.0
 30
0.0
210
0.0
220
0.0
230
1.0
  2
ZIGZAG
 70
     0
 71
     1
 91
        2
 92
        1
 93
       32
 72
     1
 10
30.41947746702855
 20
14.71691
 11
30.04930546702855
 21
14.71691
 72
     2
 10
30.04930567765847
 20
14.90891036005983
 40
0.1920003600599501
 50
90.00006285512011
 51
177.8740934571653
 73
     0
 72
     2
 10
29.66207256377639
 20
14.89453552741421
 40
0.1954994725858108
 50
2.12599775221687
 51
90.00002835426224
 73
     1
 72
     1
 10
29.66207246702855
 20
15.090035
 11
25.87288346702855
 21
15.090035
 72
     2
 10
25.8728828702807
 20
14.89453500850871
 40
0.1954999914921944
 50
89.99982510928548
 51
177.8738557113314
 73
     1
 72
     2
 10
25.48564925639862
 20
14.90891036005983
 40
0.1920003600599507
 50
2.125906542834646
 51
89.9999371448799
 73
     0
 72
     1
 10
25.48564946702855
 20
14.71691
 11
25.11547746702855
 21
14.71691
 72
     2
 10
25.11547734899067
 20
14.55891011803787
 40
0.1579998819621654
 50
89.99995719571334
 51
180.0000428042866
 73
     1
 72
     1
 10
24.95747746702855
 20
14.55891
 11
24.95747746702855
 21
11.130035
 72
     2
 10
25.11547734899067
 20
11.13003488196212
 40
0.1579998819621672
 50
179.9999571957126
 51
270.0000428042867
 73
     1
 72
     1
 10
25.11547746702855
 20
10.97203499999999
 11
25.13322746702855
 21
10.97203499999999
 72
     2
 10
25.13322746702855
 20
10.780035
 40
0.1919999999999984
 50
270.0
 51
450.0
 73
     0
 72
     1
 10
25.13322746702855
 20
10.588035
 11
25.11547746702855
 21
10.588035
 72
     2
 10
25.11547734899067
 20
10.43003511803787
 40
0.1579998819621672
 50
89.99995719571334
 51
180.0000428042866
 73
     1
 72
     1
 10
24.95747746702855
 20
10.43003499999999
 11
24.95747746702855
 21
7.00116
 72
     2
 10
25.11547734899067
 20
7.001159881962122
 40
0.1579998819621672
 50
179.9999571957133
 51
270.0000428042867
 73
     1
 72
     1
 10
25.11547746702855
 20
6.843160000000001
 11
25.48564946702855
 21
6.843160000000001
 72
     2
 10
25.48564977530412
 20
6.651160139940166
 40
0.1919998600600815
 50
269.9999080057177
 51
357.8739386077637
 73
     0
 72
     2
 10
25.8728833891862
 20
6.665535491491283
 40
0.1955004914912993
 50
182.1259922113915
 51
270.0000228134372
 73
     1
 72
     1
 10
25.87288346702855
 20
6.470035
 11
29.66207246702855
 21
6.470035
 72
     2
 10
29.6620720448709
 20
6.665534972585785
 40
0.1954999725862409
 50
270.0001237230438
 51
357.874154325089
 73
     1
 72
     2
 10
30.04930515875297
 20
6.651160139940166
 40
0.1919998600600822
 50
182.1260613922362
 51
270.0000919942822
 73
     0
 72
     1
 10
30.04930546702855
 20
6.843160000000001
 11
30.41947746702855
 21
6.843160000000001
 72
     2
 10
30.41947758506642
 20
7.001159881962122
 40
0.1579998819621654
 50
269.9999571957133
 51
360.0000428042867
 73
     1
 72
     1
 10
30.57747746702855
 20
7.00116
 11
30.57747746702855
 21
10.43003499999999
 72
     2
 10
30.41947758506642
 20
10.43003511803787
 40
0.1579998819621672
 50
359.9999571957133
 51
450.0000428042866
 73
     1
 72
     1
 10
30.41947746702855
 20
10.588035
 11
30.40172746702855
 21
10.588035
 72
     2
 10
30.40172746702855
 20
10.780035
 40
0.1920000000000002
 50
90.0
 51
270.0
 73
     0
 72
     1
 10
30.40172746702855
 20
10.97203499999999
 11
30.41947746702855
 21
10.97203499999999
 72
     2
 10
30.41947758506642
 20
11.13003488196212
 40
0.1579998819621654
 50
269.9999571957133
 51
360.0000428042872
 73
     1
 72
     1
 10
30.57747746702855
 20
11.130035
 11
30.57747746702855
 21
14.55891
 72
     2
 10
30.41947758506642
 20
14.55891011803787
 40
0.1579998819621672
 50
359.9999571957133
 51
450.0000428042866
 73
     1
 97
        1
330
1171
 92
       16
 93
       32
 72
     1
 10
25.03747746702855
 20
11.130035
 11
25.03747746702855
 21
14.55891
 72
     2
 10
25.11547740875669
 20
14.55891005827186
 40
0.0779999417281592
 50
179.9999571957121
 51
270.0000428042852
 73
     0
 72
     1
 10
25.11547746702855
 20
14.63691
 11
25.48564946702855
 21
14.63691
 72
     2
 10
25.48564942808891
 20
14.90891026008476
 40
0.2720002600847692
 50
270.0000082024817
 51
357.8740388045273
 73
     1
 72
     2
 10
25.87288304197098
 20
14.89453490853365
 40
0.115500091467133
 50
182.1261802549697
 51
270.0002108570164
 73
     0
 72
     1
 10
25.87288346702855
 20
15.010035
 11
29.66207246702855
 21
15.010035
 72
     2
 10
29.66207239208612
 20
14.89453542743914
 40
0.1154995725608797
 50
270.000037176631
 51
357.8740677786767
 73
     0
 72
     2
 10
30.04930550596819
 20
14.90891026008476
 40
0.2720002600847668
 50
182.1259611954719
 51
269.9999917975174
 73
     1
 72
     1
 10
30.04930546702855
 20
14.63691
 11
30.41947746702855
 21
14.63691
 72
     2
 10
30.41947752530041
 20
14.55891005827186
 40
0.0779999417281592
 50
269.9999571957121
 51
360.0000428042852
 73
     0
 72
     1
 10
30.49747746702855
 20
14.55891
 11
30.49747746702855
 21
11.130035
 72
     2
 10
30.41947752530041
 20
11.13003494172813
 40
0.0779999417281592
 50
359.9999571957134
 51
450.0000428042879
 73
     0
 72
     1
 10
30.41947746702855
 20
11.052035
 11
30.40172746702855
 21
11.052035
 72
     2
 10
30.40172746702855
 20
10.780035
 40
0.2719999999999985
 50
90.0
 51
270.0
 73
     1
 72
     1
 10
30.40172746702855
 20
10.508035
 11
30.41947746702855
 21
10.508035
 72
     2
 10
30.41947752530041
 20
10.43003505827186
 40
0.0779999417281592
 50
269.9999571957121
 51
360.0000428042865
 73
     0
 72
     1
 10
30.49747746702855
 20
10.43003499999999
 11
30.49747746702855
 21
7.00116
 72
     2
 10
30.41947752530041
 20
7.001159941728137
 40
0.0779999417281592
 50
359.9999571957141
 51
450.0000428042879
 73
     0
 72
     1
 10
30.41947746702855
 20
6.92316
 11
30.04930546702855
 21
6.92316
 72
     2
 10
30.04930550596819
 20
6.651159739915238
 40
0.2720002600847647
 50
90.00000820248253
 51
177.8740388045282
 73
     1
 72
     2
 10
29.66207239208612
 20
6.665534572560856
 40
0.1154995725608823
 50
2.12593222132362
 51
89.99996282336892
 73
     0
 72
     1
 10
29.66207246702855
 20
6.550035
 11
25.87288346702855
 21
6.550035
 72
     2
 10
25.87288304197098
 20
6.665535091466351
 40
0.115500091467133
 50
89.99978914298354
 51
177.8738197450297
 73
     0
 72
     2
 10
25.48564942808891
 20
6.651159739915233
 40
0.2720002600847705
 50
2.125961195472697
 51
89.99999179751823
 73
     1
 72
     1
 10
25.48564946702855
 20
6.92316
 11
25.11547746702855
 21
6.92316
 72
     2
 10
25.11547740875669
 20
7.001159941728135
 40
0.0779999417281574
 50
89.99995719571476
 51
180.0000428042872
 73
     0
 72
     1
 10
25.03747746702855
 20
7.00116
 11
25.03747746702855
 21
10.43003499999999
 72
     2
 10
25.11547740875669
 20
10.43003505827186
 40
0.0779999417281592
 50
179.9999571957121
 51
270.0000428042852
 73
     0
 72
     1
 10
25.11547746702855
 20
10.508035
 11
25.13322746702855
 21
10.508035
 72
     2
 10
25.13322746702855
 20
10.780035
 40
0.2720000000000002
 50
270.0
 51
450.0
 73
     1
 72
     1
 10
25.13322746702855
 20
11.052035
 11
25.11547746702855
 21
11.052035
 72
     2
 10
25.11547740875669
 20
11.13003494172813
 40
0.0779999417281574
 50
89.99995719571476
 51
180.0000428042879
 73
     0
 97
        1
330
1193
 75
     0
 76
     1
 52
0.0
 41
0.3125
 77
     0
 78
     2
 53
0.0
 43
0.8538334670285507
 44
0.0
 45
0.0390625
 46
0.0390625
 79
     2
 49
0.0390625
 49
-0.0390625
 53
90.0
 43
0.8928959670285507
 44
0.0
 45
-0.0390625
 46
0.0390625
 79
     2
 49
0.0390625
 49
-0.0390625
 98
        1
 10
0.8538334670285507
 20
0.0
  0
HATCH
  5
1CB3
330
1E
100
AcDbEntity
  8
OBJECT
 62
   151
100
AcDbHatch
 10
0.0
 20
0.0
 30
0.0
210
0.0
220
0.0
230
1.0
  2
ANSI31
 70
     0
 71
     1
 91
        4
 92
        7
 72
     1
 73
     1
 93
       19
 10
33.50557846702855
 20
14.97003500000004
 42
0.0
 10
33.50557846702855
 20
11.092035
 42
0.0
 10
33.03457846702856
 20
11.092035
 42
0.0
 10
33.03457846702857
 20
11.052035
 42
0.0
 10
33.14957846702856
 20
11.052035
 42
0.0
 10
33.14957846702855
 20
10.97203499999999
 42
0.0
 10
33.03457846702855
 20
10.972035
 42
0.0
 10
33.03457846702855
 20
10.865973
 42
0.0
 10
33.50557846702856
 20
10.86597299999999
 42
0.0
 10
33.50557846702857
 20
10.936285
 42
0.0
 10
33.62557846702855
 20
10.936285
 42
0.0
 10
33.62557846702855
 20
15.087535
 42
0.4142135623730951
 10
33.56307846702855
 20
15.150035
 42
0.0
 10
33.03457846702855
 20
15.15003499999999
 42
0.0
 10
33.03457846702855
 20
15.090035
 42
0.0
 10
33.14957846702855
 20
15.09003499999999
 42
0.0
 10
33.14957846702855
 20
15.01003499999999
 42
0.0
 10
33.03457846702855
 20
15.010035
 42
0.0
 10
33.03457846702855
 20
14.970035
 42
0.0
 97
       14
330
1005
330
1006
330
FF6
330
116C
330
1167
330
1011
330
1038
330
FF9
330
1163
330
115E
330
1010
330
1C21
330
1C23
330
FF4
 92
        7
 72
     1
 73
     1
 93
       12
 10
33.50557846702855
 20
10.62378499999999
 42
0.0
 10
33.50557846702855
 20
10.694098
 42
0.0
 10
33.03457846702856
 20
10.694098
 42
0.0
 10
33.03457846702855
 20
10.588035
 42
0.0
 10
33.14957846702855
 20
10.588035
 42
0.0
 10
33.14957846702855
 20
10.508035
 42
0.0
 10
33.03457846702855
 20
10.508035
 42
0.0
 10
33.03457846702856
 20
10.46803499999999
 42
0.0
 10
33.50557846702855
 20
10.46803499999999
 42
0.0
 10
33.50557846702855
 20
7.354859835415442
 42
-0.0468384414518308
 10
33.62557846702855
 20
7.309564929377539
 42
0.0
 10
33.62557846702855
 20
10.623785
 42
0.0
 97
       10
330
1C22
330
1C21
330
100F
330
FF6
330
115A
330
1155
330
FFA
330
1037
330
1036
330
FF4
 92
        7
 72
     1
 73
     1
 93
       12
 10
33.03457846702855
 20
6.96316
 42
0.0
 10
33.03457846702855
 20
6.92316
 42
0.0
 10
33.14957846702855
 20
6.923160000000001
 42
0.0
 10
33.14957846702855
 20
6.84316
 42
0.0
 10
33.03457846702855
 20
6.843160000000001
 42
0.0
 10
33.03457846702855
 20
6.740722999999999
 42
0.0
 10
33.50557846702856
 20
6.740723000000001
 42
0.0
 10
33.50557846702856
 20
6.811035
 42
0.0
 10
33.62557846702854
 20
6.811035
 42
0.0
 10
33.62557846702854
 20
7.309564929377542
 42
0.0468384414518278
 10
33.50557846702855
 20
7.354859835415442
 42
0.0
 10
33.50557846702855
 20
6.963160000000001
 42
0.0
 97
       10
330
1036
330
1037
330
FF8
330
FF6
330
1151
330
114C
330
FFB
330
1C1F
330
FFE
330
FF4
 92
        7
 72
     1
 73
     1
 93
        7
 10
33.03457846702855
 20
6.568848
 42
0.0
 10
33.03457846702855
 20
6.410035
 42
0.0
 10
33.56307846702855
 20
6.410035
 42
0.4142135623730951
 10
33.62557846702855
 20
6.472535
 42
0.0
 10
33.62557846702855
 20
6.498535
 42
0.0
 10
33.50557846702854
 20
6.498534999999998
 42
0.0
 10
33.50557846702855
 20
6.568847999999999
 42
0.0
 97
        7
330
FFC
330
FF6
330
FF5
330
FF7
330
FF4
330
FFD
330
1C1F
 75
     0
 76
     1
 52
0.0
 41
0.75
 77
     0
 78
     1
 53
45.0
 43
0.8538334670285507
 44
0.0
 45
-0.0662912607362388
 46
0.0662912607362388
 79
     0
 47
0.0201109474891217
 98
        4
 10
33.50062804402854
 20
15.03914457109984
 10
33.42011922650941
 20
10.57451419860215
 10
33.37986476166953
 20
6.853988868348082
 10
33.31948317657035
 20
6.491991856159195
  0
HATCH
  5
1D25
330
1E
100
AcDbEntity
  8
OBJECT
 62
   221
100
AcDbHatch
 10
0.0
 20
0.0
 30
0.0
210
0.0
220
0.0
230
1.0
  2
ANSI32
 70
     0
 71
     1
 91
        2
 92
        7
 72
     0
 73
     1
 93
        4
 10
17.104242
 20
15.030285
 10
17.104242
 20
14.967785
 10
17.43623599999999
 20
14.967785
 10
17.43623599999999
 20
15.030285
 97
        4
330
F88
330
D97
330
F87
330
F8C
 92
        7
 72
     0
 73
     1
 93
        4
 10
17.43623599999999
 20
14.780285
 10
17.43623599999999
 20
14.842785
 10
17.104242
 20
14.842785
 10
17.104242
 20
14.780285
 97
        4
330
F89
330
D97
330
F8A
330
F8C
 75
     0
 76
     1
 52
89.99998127603165
 41
0.25
 77
     0
 78
     2
 53
134.9999812760316
 43
0.0
 44
0.0
 45
-0.066291282399881
 46
-0.0662912390725896
 79
     0
 53
134.9999812760316
 43
0.0000000144424304
 44
0.0441941737499977
 45
-0.066291282399881
 46
-0.0662912390725896
 79
     0
 47
0.0016665219069695
 98
        2
 10
17.25131197817167
 20
15.00984873332663
 10
17.27466214747423
 20
14.80986612344182
  0
HATCH
  5
1D2E
330
1E
100
AcDbEntity
  8
OBJECT
 62
   221
100
AcDbHatch
 10
0.0
 20
0.0
 30
0.0
210
0.0
220
0.0
230
1.0
  2
ANSI32
 70
     0
 71
     0
 91
        2
 92
        7
 72
     0
 73
     1
 93
        4
 10
18.57474199999999
 20
7.301285
 10
18.387242
 20
7.301285000000001
 10
18.387242
 20
7.270035
 10
18.574742
 20
7.270035000000001
 97
        0
 92
        7
 72
     0
 73
     1
 93
        4
 10
18.574742
 20
7.145035000000001
 10
18.387242
 20
7.145035
 10
18.387242
 20
7.113785000000001
 10
18.574742
 20
7.113785
 97
        0
 75
     0
 76
     1
 52
89.99998127603165
 41
0.25
 77
     0
 78
     2
 53
134.9999812760316
 43
0.008499999999998
 44
0.0100000000000016
 45
-0.066291282399881
 46
-0.0662912390725896
 79
     0
 53
134.9999812760316
 43
0.0085000144424284
 44
0.0541941737499992
 45
-0.066291282399881
 46
-0.0662912390725896
 79
     0
 47
0.0009769266315876
 98
        2
 10
18.49820497795782
 20
7.280635856575823
 10
18.47669525310651
 20
7.133119923425422
  0
LEADER
  5
1D31
330
1E
100
AcDbEntity
  8
DIM
100
AcDbLeader
  3
23NSTD
 73
     0
 74
     0
 75
     1
 40
0.3125
 41
2.96875
 76
     3
 10
33.94065066951816
 20
6.39159305127925
 30
0.0
 10
34.8101240342612
 20
5.504677245950922
 30
0.0
 10
35.2601240342612
 20
5.504677245950922
 30
0.0
340
1D32
213
0.0
223
-0.15625
233
0.0
1001
ACAD
1000
DSTYLE
1002
{
1070
   147
1040
0.09
1070
    77
1070
     0
1002
}
  0
MTEXT
  5
1D32
102
{ACAD_REACTORS
330
1D31
102
}
330
1E
100
AcDbEntity
  8
DIM
100
AcDbMText
 10
35.4851240342612
 20
5.660927245950922
 30
0.0
 40
0.3125
 41
0.0
 71
     1
 72
     1
  1
\A1;SEE DETAIL "C"
 73
     1
 44
1.0
  0
LEADER
  5
1D33
330
1E
100
AcDbEntity
  8
DIM
100
AcDbLeader
  3
23NSTD
 73
     0
 74
     0
 75
     1
 40
2.395833333333333
 41
4.6875
 76
     3
 10
10.79100432818711
 20
7.076224460857702
 30
0.0
 10
11.54804063562562
 20
4.988265686654784
 30
0.0
 10
11.99804063562562
 20
4.988265686654784
 30
0.0
340
1D34
213
0.0
223
-0.15625
233
0.0
1001
ACAD
1000
DSTYLE
1002
{
1070
   147
1040
0.09
1070
    77
1070
     0
1002
}
  0
MTEXT
  5
1D34
102
{ACAD_REACTORS
330
1D33
102
}
330
1E
100
AcDbEntity
  8
DIM
100
AcDbMText
 10
12.22304063562562
 20
5.144515686654784
 30
0.0
 40
0.3125
 41
0.0
 71
     1
 72
     1
  1
\A1;0.315 DIA. BOSS\PWITH M3 x 0.188 LG.\PTHREADED INSERT\P(4) PLACES\P(SCREWS NOT SUPPLIED)
 73
     1
 44
1.0
  0
LEADER
  5
1D35
330
1E
100
AcDbEntity
  8
DIM
100
AcDbLeader
  3
23NSTD
 73
     0
 74
     0
 75
     1
 40
1.354166666666666
 41
3.359375
 76
     3
 10
11.143982
 20
15.04670799999999
 30
0.0
 10
11.90961052335515
 20
17.69129377980591
 30
0.0
 10
12.35961052335515
 20
17.69129377980591
 30
0.0
340
1D36
213
0.0
223
-0.15625
233
0.0
1001
ACAD
1000
DSTYLE
1002
{
1070
   147
1040
0.09
1070
    77
1070
     0
1002
}
  0
MTEXT
  5
1D36
102
{ACAD_REACTORS
330
1D35
102
}
330
1E
100
AcDbEntity
  8
DIM
100
AcDbMText
 10
12.58461052335515
 20
17.84754377980591
 30
0.0
 40
0.3125
 41
0.0
 71
     1
 72
     1
  1
\A1;M4 x 0.315 LG.\PTHREADED INSERT\P(6) PLACES
 73
     1
 44
1.0
  0
LEADER
  5
1D37
330
1E
100
AcDbEntity
  8
DIM
100
AcDbLeader
  3
23NSTD
 73
     0
 74
     0
 75
     1
 40
2.916666666666666
 41
9.0234375
 76
     3
 10
9.277946225415368
 20
14.18099936666514
 30
0.0
 10
13.28549725199751
 20
21.11104738601523
 30
0.0
 10
13.73549725199751
 20
21.11104738601523
 30
0.0
340
1D38
213
0.0
223
-0.15625
233
0.0
1001
ACAD
1000
DSTYLE
1002
{
1070
   147
1040
0.09
1070
    77
1070
     0
1002
}
  0
MTEXT
  5
1D38
102
{ACAD_REACTORS
330
1D37
102
}
330
1E
100
AcDbEntity
  8
DIM
100
AcDbMText
 10
13.96049725199751
 20
21.26729738601523
 30
0.0
 40
0.3125
 41
0.0
 71
     1
 72
     1
  1
\A1;0.315 DIA. BOSS WITH\P0.090 DIA. HOLE x 0.190 DEEP\P(4) PLACES\PMOUNTING BOSSES USE EITHER M2.5 METRIC\POR #4 STD. SHEET METAL SCREWS x 0.188 LG.\P(NOT SUPPLIED)
 73
     1
 44
1.0
  0
CIRCLE
  5
1F4A
330
1E
100
AcDbEntity
  8
OBJECT
100
AcDbCircle
 10
10.706319
 20
14.352535
 30
0.0
 40
0.09375
  0
CIRCLE
  5
1F4B
330
1E
100
AcDbEntity
  8
OBJECT
100
AcDbCircle
 10
10.706319
 20
14.352535
 30
0.0
 40
0.1559553444010344
  0
LINE
  5
1F4C
330
1E
100
AcDbEntity
  8
OBJECT
100
AcDbLine
 10
10.50840395635498
 20
14.30553505547643
 30
0.0
 11
10.50840395635498
 21
14.39953498291458
 31
0.0
  0
LINE
  5
1F4D
330
1E
100
AcDbEntity
  8
OBJECT
100
AcDbLine
 10
10.47340397401109
 20
14.39953497074026
 30
0.0
 11
10.47340397401109
 21
14.30553509500653
 31
0.0
  0
LINE
  5
1F4E
330
1E
100
AcDbEntity
  8
OBJECT
100
AcDbLine
 10
10.55752284045107
 20
14.305535
 30
0.0
 11
10.47340397401109
 21
14.30553509500653
 31
0.0
  0
LINE
  5
1F4F
330
1E
100
AcDbEntity
  8
OBJECT
100
AcDbLine
 10
10.47340397401109
 20
14.39953497074026
 30
0.0
 11
10.55752284045107
 21
14.399535
 31
0.0
  0
LINE
  5
1F53
330
1E
100
AcDbEntity
  8
OBJECT
100
AcDbLine
 10
10.753319
 20
14.20373884045107
 30
0.0
 11
10.7533191034524
 21
14.11962004318252
 31
0.0
  0
LINE
  5
1F54
330
1E
100
AcDbEntity
  8
OBJECT
100
AcDbLine
 10
10.65931897654654
 20
14.11962004318252
 30
0.0
 11
10.659319
 21
14.20373884045107
 31
0.0
  0
LINE
  5
1F55
330
1E
100
AcDbEntity
  8
OBJECT
100
AcDbLine
 10
10.65931897654654
 20
14.11962004318252
 30
0.0
 11
10.7533191034524
 21
14.11962004318252
 31
0.0
  0
LINE
  5
1F56
330
1E
100
AcDbEntity
  8
OBJECT
100
AcDbLine
 10
10.75331906040813
 20
14.1546200255264
 30
0.0
 11
10.65931898630501
 21
14.1546200255264
 31
0.0
  0
LINE
  5
1F62
330
1E
100
AcDbEntity
  8
OBJECT
100
AcDbLine
 10
10.659319
 20
14.50133115954893
 30
0.0
 11
10.65931897654655
 21
14.5854499952085
 31
0.0
  0
LINE
  5
1F63
330
1E
100
AcDbEntity
  8
OBJECT
100
AcDbLine
 10
10.75331910345237
 20
14.5854499952085
 30
0.0
 11
10.753319
 21
14.50133115954892
 31
0.0
  0
LINE
  5
1F64
330
1E
100
AcDbEntity
  8
OBJECT
100
AcDbLine
 10
10.85511515954893
 20
14.399535
 30
0.0
 11
10.93923399936956
 21
14.39953497074026
 31
0.0
  0
LINE
  5
1F65
330
1E
100
AcDbEntity
  8
OBJECT
100
AcDbLine
 10
10.93923399936956
 20
14.30553509500655
 30
0.0
 11
10.85511515954892
 21
14.305535
 31
0.0
  0
CIRCLE
  5
1F66
330
1E
100
AcDbEntity
  8
OBJECT
100
AcDbCircle
 10
10.706319
 20
14.352535
 30
0.0
 40
0.0590000000000011
  0
LINE
  5
1F68
330
1E
100
AcDbEntity
  8
OBJECT
100
AcDbLine
 10
10.90423401702567
 20
14.39953498291458
 30
0.0
 11
10.90423401702567
 21
14.30553505547643
 31
0.0
  0
LINE
  5
1F69
330
1E
100
AcDbEntity
  8
OBJECT
100
AcDbLine
 10
10.93923399936956
 20
14.30553509500655
 30
0.0
 11
10.93923399936956
 21
14.39953497074026
 31
0.0
  0
LINE
  5
1F6B
330
1E
100
AcDbEntity
  8
OBJECT
100
AcDbLine
 10
10.65931898630501
 20
14.55045001286461
 30
0.0
 11
10.75331906040813
 21
14.55045001286461
 31
0.0
  0
LINE
  5
1F6C
330
1E
100
AcDbEntity
  8
OBJECT
100
AcDbLine
 10
10.75331910345237
 20
14.5854499952085
 30
0.0
 11
10.65931897654655
 21
14.5854499952085
 31
0.0
  0
CIRCLE
  5
1F6F
330
1E
100
AcDbEntity
  8
OBJECT
100
AcDbCircle
 10
6.147319
 20
14.352535
 30
0.0
 40
0.09375
  0
CIRCLE
  5
1F70
330
1E
100
AcDbEntity
  8
OBJECT
100
AcDbCircle
 10
6.147319
 20
14.352535
 30
0.0
 40
0.1559553444010344
  0
LINE
  5
1F71
330
1E
100
AcDbEntity
  8
OBJECT
100
AcDbLine
 10
5.949403956354982
 20
14.30553505547643
 30
0.0
 11
5.949403956354982
 21
14.39953498291458
 31
0.0
  0
LINE
  5
1F72
330
1E
100
AcDbEntity
  8
OBJECT
100
AcDbLine
 10
5.914403974011099
 20
14.39953497074026
 30
0.0
 11
5.914403974011098
 21
14.30553509500653
 31
0.0
  0
LINE
  5
1F73
330
1E
100
AcDbEntity
  8
OBJECT
100
AcDbLine
 10
5.998522840451071
 20
14.305535
 30
0.0
 11
5.914403974011098
 21
14.30553509500653
 31
0.0
  0
LINE
  5
1F74
330
1E
100
AcDbEntity
  8
OBJECT
100
AcDbLine
 10
5.914403974011099
 20
14.39953497074026
 30
0.0
 11
5.998522840451071
 21
14.399535
 31
0.0
  0
LINE
  5
1F75
330
1E
100
AcDbEntity
  8
OBJECT
100
AcDbLine
 10
18.38724206604382
 20
14.50849034440103
 30
0.0
 11
18.38724206604382
 21
14.206285
 31
0.0
  0
LINE
  5
1F78
330
1E
100
AcDbEntity
  8
OBJECT
100
AcDbLine
 10
6.194319
 20
14.20373884045107
 30
0.0
 11
6.194319103452407
 21
14.11962004318252
 31
0.0
  0
LINE
  5
1F79
330
1E
100
AcDbEntity
  8
OBJECT
100
AcDbLine
 10
6.100318976546544
 20
14.11962004318252
 30
0.0
 11
6.100319
 21
14.20373884045107
 31
0.0
  0
LINE
  5
1F7A
330
1E
100
AcDbEntity
  8
OBJECT
100
AcDbLine
 10
6.100318976546544
 20
14.11962004318252
 30
0.0
 11
6.194319103452407
 21
14.11962004318252
 31
0.0
  0
LINE
  5
1F7B
330
1E
100
AcDbEntity
  8
OBJECT
100
AcDbLine
 10
6.194319060408135
 20
14.1546200255264
 30
0.0
 11
6.100318986305012
 21
14.1546200255264
 31
0.0
  0
LINE
  5
1F7E
330
1E
100
AcDbEntity
  8
OBJECT
100
AcDbLine
 10
18.564242
 20
14.58544999936956
 30
0.0
 11
18.39724207586403
 21
14.55045001702568
 31
0.0
  0
LINE
  5
1F81
330
1E
100
AcDbEntity
  8
OBJECT
100
AcDbLine
 10
18.39724207586403
 20
14.50133118445062
 30
0.0
 11
18.564242
 21
14.50133115954892
 31
0.0
  0
LINE
  5
1F82
330
1E
100
AcDbEntity
  8
OBJECT
100
AcDbLine
 10
18.39724207586403
 20
14.39953506040813
 30
0.0
 11
18.564242
 21
14.3995351034524
 31
0.0
  0
LINE
  5
1F83
330
1E
100
AcDbEntity
  8
OBJECT
100
AcDbLine
 10
18.39724207586403
 20
14.30553498630501
 30
0.0
 11
18.564242
 21
14.30553497654654
 31
0.0
  0
LINE
  5
1F86
330
1E
100
AcDbEntity
  8
OBJECT
100
AcDbLine
 10
18.39724207586403
 20
14.55045001702568
 30
0.0
 11
18.39724207586403
 21
14.50133118445062
 31
0.0
  0
LINE
  5
1F87
330
1E
100
AcDbEntity
  8
OBJECT
100
AcDbLine
 10
6.100319000000001
 20
14.50133115954893
 30
0.0
 11
6.100318976546552
 21
14.5854499952085
 31
0.0
  0
LINE
  5
1F88
330
1E
100
AcDbEntity
  8
OBJECT
100
AcDbLine
 10
6.194319103452372
 20
14.5854499952085
 30
0.0
 11
6.194319000000001
 21
14.50133115954892
 31
0.0
  0
LINE
  5
1F89
330
1E
100
AcDbEntity
  8
OBJECT
100
AcDbLine
 10
6.296115159548929
 20
14.399535
 30
0.0
 11
6.380233999369561
 21
14.39953497074026
 31
0.0
  0
LINE
  5
1F8A
330
1E
100
AcDbEntity
  8
OBJECT
100
AcDbLine
 10
6.380233999369561
 20
14.30553509500655
 30
0.0
 11
6.296115159548929
 21
14.305535
 31
0.0
  0
CIRCLE
  5
1F8B
330
1E
100
AcDbEntity
  8
OBJECT
100
AcDbCircle
 10
6.147319
 20
14.352535
 30
0.0
 40
0.0590000000000011
  0
LINE
  5
1F8C
330
1E
100
AcDbEntity
  8
OBJECT
100
AcDbLine
 10
18.39724207586403
 20
14.39953506040813
 30
0.0
 11
18.39724207586403
 21
14.30553498630501
 31
0.0
  0
LINE
  5
1F8D
330
1E
100
AcDbEntity
  8
OBJECT
100
AcDbLine
 10
6.345234017025678
 20
14.39953498291458
 30
0.0
 11
6.345234017025678
 21
14.30553505547643
 31
0.0
  0
LINE
  5
1F8E
330
1E
100
AcDbEntity
  8
OBJECT
100
AcDbLine
 10
6.380233999369561
 20
14.30553509500655
 30
0.0
 11
6.380233999369561
 21
14.39953497074026
 31
0.0
  0
LINE
  5
1F8F
330
1E
100
AcDbEntity
  8
OBJECT
100
AcDbLine
 10
18.39724207586403
 20
14.50857760740599
 30
0.0
 11
18.38724206604382
 21
14.50849034440103
 31
0.0
  0
LINE
  5
1F90
330
1E
100
AcDbEntity
  8
OBJECT
100
AcDbLine
 10
6.100318986305012
 20
14.55045001286461
 30
0.0
 11
6.194319060408135
 21
14.55045001286461
 31
0.0
  0
LINE
  5
1F91
330
1E
100
AcDbEntity
  8
OBJECT
100
AcDbLine
 10
6.194319103452372
 20
14.5854499952085
 30
0.0
 11
6.100318976546552
 21
14.5854499952085
 31
0.0
  0
CIRCLE
  5
1F94
330
1E
100
AcDbEntity
  8
OBJECT
100
AcDbCircle
 10
10.706319
 20
7.207535
 30
0.0
 40
0.09375
  0
CIRCLE
  5
1F95
330
1E
100
AcDbEntity
  8
OBJECT
100
AcDbCircle
 10
10.706319
 20
7.207535
 30
0.0
 40
0.1559553444010344
  0
LINE
  5
1F96
330
1E
100
AcDbEntity
  8
OBJECT
100
AcDbLine
 10
10.50840395635498
 20
7.160535055476437
 30
0.0
 11
10.50840395635498
 21
7.254534982914588
 31
0.0
  0
LINE
  5
1F97
330
1E
100
AcDbEntity
  8
OBJECT
100
AcDbLine
 10
10.47340397401109
 20
7.254534970740264
 30
0.0
 11
10.47340397401109
 21
7.160535095006534
 31
0.0
  0
LINE
  5
1F98
330
1E
100
AcDbEntity
  8
OBJECT
100
AcDbLine
 10
10.55752284045107
 20
7.160535000000002
 30
0.0
 11
10.47340397401109
 21
7.160535095006534
 31
0.0
  0
LINE
  5
1F99
330
1E
100
AcDbEntity
  8
OBJECT
100
AcDbLine
 10
10.47340397401109
 20
7.254534970740264
 30
0.0
 11
10.55752284045107
 21
7.254535000000002
 31
0.0
  0
LINE
  5
1F9D
330
1E
100
AcDbEntity
  8
OBJECT
100
AcDbLine
 10
10.753319
 20
7.058738840451072
 30
0.0
 11
10.7533191034524
 21
6.974620043182524
 31
0.0
  0
LINE
  5
1F9E
330
1E
100
AcDbEntity
  8
OBJECT
100
AcDbLine
 10
10.65931897654654
 20
6.974620043182524
 30
0.0
 11
10.659319
 21
7.058738840451072
 31
0.0
  0
LINE
  5
1F9F
330
1E
100
AcDbEntity
  8
OBJECT
100
AcDbLine
 10
10.65931897654654
 20
6.974620043182524
 30
0.0
 11
10.7533191034524
 21
6.974620043182524
 31
0.0
  0
LINE
  5
1FA0
330
1E
100
AcDbEntity
  8
OBJECT
100
AcDbLine
 10
10.75331906040813
 20
7.009620025526408
 30
0.0
 11
10.65931898630501
 21
7.009620025526408
 31
0.0
  0
LINE
  5
1FAC
330
1E
100
AcDbEntity
  8
OBJECT
100
AcDbLine
 10
10.659319
 20
7.356331159548931
 30
0.0
 11
10.65931897654655
 21
7.440449995208501
 31
0.0
  0
LINE
  5
1FAD
330
1E
100
AcDbEntity
  8
OBJECT
100
AcDbLine
 10
10.75331910345237
 20
7.440449995208501
 30
0.0
 11
10.753319
 21
7.356331159548929
 31
0.0
  0
LINE
  5
1FAE
330
1E
100
AcDbEntity
  8
OBJECT
100
AcDbLine
 10
10.85511515954893
 20
7.254534999999999
 30
0.0
 11
10.93923399936956
 21
7.254534970740259
 31
0.0
  0
LINE
  5
1FAF
330
1E
100
AcDbEntity
  8
OBJECT
100
AcDbLine
 10
10.93923399936956
 20
7.160535095006558
 30
0.0
 11
10.85511515954892
 21
7.160535
 31
0.0
  0
CIRCLE
  5
1FB0
330
1E
100
AcDbEntity
  8
OBJECT
100
AcDbCircle
 10
10.706319
 20
7.207535
 30
0.0
 40
0.0590000000000011
  0
LINE
  5
1FB2
330
1E
100
AcDbEntity
  8
OBJECT
100
AcDbLine
 10
10.90423401702567
 20
7.254534982914588
 30
0.0
 11
10.90423401702567
 21
7.160535055476437
 31
0.0
  0
LINE
  5
1FB3
330
1E
100
AcDbEntity
  8
OBJECT
100
AcDbLine
 10
10.93923399936956
 20
7.160535095006558
 30
0.0
 11
10.93923399936956
 21
7.254534970740259
 31
0.0
  0
LINE
  5
1FB5
330
1E
100
AcDbEntity
  8
OBJECT
100
AcDbLine
 10
10.65931898630501
 20
7.405450012864617
 30
0.0
 11
10.75331906040813
 21
7.405450012864617
 31
0.0
  0
LINE
  5
1FB6
330
1E
100
AcDbEntity
  8
OBJECT
100
AcDbLine
 10
10.75331910345237
 20
7.440449995208501
 30
0.0
 11
10.65931897654655
 21
7.440449995208501
 31
0.0
  0
CIRCLE
  5
1FB9
330
1E
100
AcDbEntity
  8
OBJECT
100
AcDbCircle
 10
6.147319
 20
7.207535
 30
0.0
 40
0.09375
  0
CIRCLE
  5
1FBA
330
1E
100
AcDbEntity
  8
OBJECT
100
AcDbCircle
 10
6.147319
 20
7.207535
 30
0.0
 40
0.1559553444010344
  0
LINE
  5
1FBB
330
1E
100
AcDbEntity
  8
OBJECT
100
AcDbLine
 10
5.949403956354982
 20
7.160535055476437
 30
0.0
 11
5.949403956354982
 21
7.254534982914588
 31
0.0
  0
LINE
  5
1FBC
330
1E
100
AcDbEntity
  8
OBJECT
100
AcDbLine
 10
5.914403974011099
 20
7.254534970740264
 30
0.0
 11
5.914403974011098
 21
7.160535095006534
 31
0.0
  0
LINE
  5
1FBD
330
1E
100
AcDbEntity
  8
OBJECT
100
AcDbLine
 10
5.998522840451071
 20
7.160535000000002
 30
0.0
 11
5.914403974011098
 21
7.160535095006534
 31
0.0
  0
LINE
  5
1FBE
330
1E
100
AcDbEntity
  8
OBJECT
100
AcDbLine
 10
5.914403974011099
 20
7.254534970740264
 30
0.0
 11
5.998522840451071
 21
7.254535000000002
 31
0.0
  0
LINE
  5
1FBF
102
{ACAD_REACTORS
330
205A
102
}
330
1E
100
AcDbEntity
  8
OBJECT
100
AcDbLine
 10
18.38724206604382
 20
7.363490344401036
 30
0.0
 11
18.38724206604382
 21
7.051579655598965
 31
0.0
  0
LINE
  5
1FC0
102
{ACAD_REACTORS
330
205A
102
}
330
1E
100
AcDbEntity
  8
OBJECT
100
AcDbLine
 10
18.564242
 20
6.974619974011099
 30
0.0
 11
18.39724207586403
 21
7.009619956354983
 31
0.0
  0
LINE
  5
1FC2
330
1E
100
AcDbEntity
  8
OBJECT
100
AcDbLine
 10
6.194319
 20
7.058738840451072
 30
0.0
 11
6.194319103452407
 21
6.974620043182524
 31
0.0
  0
LINE
  5
1FC3
330
1E
100
AcDbEntity
  8
OBJECT
100
AcDbLine
 10
6.100318976546544
 20
6.974620043182524
 30
0.0
 11
6.100319
 21
7.058738840451072
 31
0.0
  0
LINE
  5
1FC4
330
1E
100
AcDbEntity
  8
OBJECT
100
AcDbLine
 10
6.100318976546544
 20
6.974620043182524
 30
0.0
 11
6.194319103452407
 21
6.974620043182524
 31
0.0
  0
LINE
  5
1FC5
330
1E
100
AcDbEntity
  8
OBJECT
100
AcDbLine
 10
6.194319060408135
 20
7.009620025526408
 30
0.0
 11
6.100318986305012
 21
7.009620025526408
 31
0.0
  0
LINE
  5
1FC6
102
{ACAD_REACTORS
330
205A
102
}
330
1E
100
AcDbEntity
  8
OBJECT
100
AcDbLine
 10
18.39724207586403
 20
7.051492365974667
 30
0.0
 11
18.39724207586403
 21
7.009619956354983
 31
0.0
  0
LINE
  5
1FC7
102
{ACAD_REACTORS
330
205A
102
}
330
1E
100
AcDbEntity
  8
OBJECT
100
AcDbLine
 10
18.38724206604382
 20
7.051579655598965
 30
0.0
 11
18.39724207586403
 21
7.051492365974667
 31
0.0
  0
LINE
  5
1FC8
102
{ACAD_REACTORS
330
205A
102
}
330
1E
100
AcDbEntity
  8
OBJECT
100
AcDbLine
 10
18.564242
 20
7.440449999369562
 30
0.0
 11
18.39724207586403
 21
7.405450017025677
 31
0.0
  0
LINE
  5
1FD0
102
{ACAD_REACTORS
330
205A
102
}
330
1E
100
AcDbEntity
  8
OBJECT
100
AcDbLine
 10
18.39724207586403
 20
7.405450017025677
 30
0.0
 11
18.39724207586403
 21
7.363577607405994
 31
0.0
  0
LINE
  5
1FD1
330
1E
100
AcDbEntity
  8
OBJECT
100
AcDbLine
 10
6.100319000000001
 20
7.356331159548931
 30
0.0
 11
6.100318976546552
 21
7.440449995208501
 31
0.0
  0
LINE
  5
1FD2
330
1E
100
AcDbEntity
  8
OBJECT
100
AcDbLine
 10
6.194319103452372
 20
7.440449995208501
 30
0.0
 11
6.194319000000001
 21
7.356331159548929
 31
0.0
  0
LINE
  5
1FD3
330
1E
100
AcDbEntity
  8
OBJECT
100
AcDbLine
 10
6.296115159548929
 20
7.254534999999999
 30
0.0
 11
6.380233999369561
 21
7.254534970740259
 31
0.0
  0
LINE
  5
1FD4
330
1E
100
AcDbEntity
  8
OBJECT
100
AcDbLine
 10
6.380233999369561
 20
7.160535095006558
 30
0.0
 11
6.296115159548929
 21
7.160535
 31
0.0
  0
CIRCLE
  5
1FD5
330
1E
100
AcDbEntity
  8
OBJECT
100
AcDbCircle
 10
6.147319
 20
7.207535
 30
0.0
 40
0.0590000000000011
  0
LINE
  5
1FD7
330
1E
100
AcDbEntity
  8
OBJECT
100
AcDbLine
 10
6.345234017025678
 20
7.254534982914588
 30
0.0
 11
6.345234017025678
 21
7.160535055476437
 31
0.0
  0
LINE
  5
1FD8
330
1E
100
AcDbEntity
  8
OBJECT
100
AcDbLine
 10
6.380233999369561
 20
7.160535095006558
 30
0.0
 11
6.380233999369561
 21
7.254534970740259
 31
0.0
  0
LINE
  5
1FD9
102
{ACAD_REACTORS
330
205A
102
}
330
1E
100
AcDbEntity
  8
OBJECT
100
AcDbLine
 10
18.39724207586403
 20
7.363577607405994
 30
0.0
 11
18.38724206604382
 21
7.363490344401036
 31
0.0
  0
LINE
  5
1FDA
330
1E
100
AcDbEntity
  8
OBJECT
100
AcDbLine
 10
6.100318986305012
 20
7.405450012864617
 30
0.0
 11
6.194319060408135
 21
7.405450012864617
 31
0.0
  0
LINE
  5
1FDB
330
1E
100
AcDbEntity
  8
OBJECT
100
AcDbLine
 10
6.194319103452372
 20
7.440449995208501
 30
0.0
 11
6.100318976546552
 21
7.440449995208501
 31
0.0
  0
LINE
  5
1FEC
102
{ACAD_REACTORS
330
205A
102
}
330
1E
100
AcDbEntity
  8
OBJECT
100
AcDbLine
 10
18.38724206604382
 20
14.206285
 30
0.0
 11
18.38724206604382
 21
13.890035
 31
0.0
  0
LINE
  5
2004
330
1E
100
AcDbEntity
  8
OBJECT
100
AcDbLine
 10
18.38724206604382
 20
7.363490344401036
 30
0.0
 11
18.38724206604382
 21
7.670035000000001
 31
0.0
  0
HATCH
  5
205A
330
1E
100
AcDbEntity
  8
OBJECT
 62
   151
100
AcDbHatch
 10
0.0
 20
0.0
 30
0.0
210
0.0
220
0.0
230
1.0
  2
ANSI31
 70
     0
 71
     1
 91
        3
 92
        7
 72
     1
 73
     1
 93
        9
 10
18.621742
 20
15.150035
 42
0.0
 10
17.144242
 20
15.150035
 42
0.0
 10
17.144242
 20
15.13003499999999
 42
0.0
 10
17.104242
 20
15.130035
 42
0.0
 10
17.104242
 20
15.030285
 42
0.0
 10
17.500492
 20
15.030285
 42
0.0
 10
17.500492
 20
15.062785
 42
0.0
 10
18.684242
 20
15.062785
 42
0.0
 10
18.684242
 20
15.087535
 42
0.4142135623730951
 97
        9
330
B88
330
DC4
330
B7F
330
D97
330
F88
330
F8B
330
F84
330
B87
330
B83
 92
        7
 72
     0
 73
     1
 93
       36
 10
18.684242
 20
14.747785
 10
17.500492
 20
14.747785
 10
17.50049199999999
 20
14.780285
 10
17.104242
 20
14.780285
 10
17.104242
 20
14.700066
 10
17.044242
 20
14.700066
 10
17.044242
 20
14.65891
 10
18.564242
 20
14.65891
 10
18.564242
 20
14.206285
 10
18.38724206604382
 20
14.206285
 10
18.38724206604382
 20
14.09253499999999
 10
18.57724206604382
 20
14.092535
 10
18.57724206604382
 20
14.00253499999999
 10
18.38724206604382
 20
14.00253499999999
 10
18.38724206604381
 20
13.890035
 10
18.564242
 20
13.890035
 10
18.564242
 20
7.440449999369564
 10
18.39724207586403
 20
7.405450017025676
 10
18.39724207586403
 20
7.363577607405992
 10
18.38724206604382
 20
7.363490344401036
 10
18.38724206604382
 20
7.301285000000002
 10
18.574742
 20
7.301285000000001
 10
18.574742
 20
7.113785000000002
 10
18.38724206604382
 20
7.113785000000002
 10
18.38724206604382
 20
7.051579655598964
 10
18.39724207586403
 20
7.051492365974668
 10
18.39724207586403
 20
7.009619956354984
 10
18.564242
 20
6.974619974011096
 10
18.56424199999999
 20
6.90116
 10
17.044242
 20
6.90116
 10
17.044242
 20
6.86116
 10
17.104242
 20
6.861159999999999
 10
17.104242
 20
6.843160000000001
 10
18.621742
 20
6.843160000000001
 10
18.621742
 20
6.722534999999999
 10
18.684242
 20
6.722535
 97
       33
330
F86
330
F8B
330
F8A
330
D97
330
F8D
330
B85
330
F85
330
F4C
330
E3E
330
1FEC
330
E42
330
E44
330
E43
330
E40
330
F4D
330
1FC8
330
1FD0
330
1FD9
330
1FBF
330
E47
330
E51
330
E49
330
1FC7
330
1FC6
330
1FC0
330
F4B
330
E4B
330
E4D
330
B82
330
E4C
330
E4E
330
E4F
330
B87
 92
        7
 72
     1
 73
     1
 93
        9
 10
18.684242
 20
6.472534999999998
 42
0.0
 10
18.684242
 20
6.550659999999999
 42
0.0
 10
18.621742
 20
6.550659999999999
 42
0.0
 10
18.62174199999999
 20
6.480034999999999
 42
0.0
 10
17.104242
 20
6.480035000000001
 42
0.0
 10
17.104242
 20
6.430035000000001
 42
0.0
 10
17.144242
 20
6.430035000000001
 42
0.0
 10
17.144242
 20
6.410034999999999
 42
0.0
 10
18.621742
 20
6.410034999999999
 42
0.4142135623730909
 97
        9
330
B87
330
E50
330
E4E
330
E45
330
B82
330
B80
330
B81
330
B86
330
B84
 75
     0
 76
     1
 52
0.0
 41
0.75
 77
     0
 78
     1
 53
45.0
 43
0.0
 44
0.0
 45
-0.0662912607362388
 46
0.0662912607362388
 79
     0
 47
0.0163070313570633
 98
        3
 10
17.94238163568032
 20
15.09046658641055
 10
17.74653907261915
 20
14.69909783781402
 10
17.87710081948429
 20
6.431432856663583
  0
ENDSEC
  0
SECTION
  2
OBJECTS
  0
DICTIONARY
  5
C
330
0
100
AcDbDictionary
281
     1
  3
ACAD_GROUP
350
D
  3
ACAD_LAYOUT
350
19
  3
ACAD_MLINESTYLE
350
16
  3
ACAD_PLOTSETTINGS
350
18
  3
ACAD_PLOTSTYLENAME
350
E
  3
AcadDim
350
1D30
  3
AcDbVariableDictionary
350
1C28
  0
DICTIONARY
  5
D
102
{ACAD_REACTORS
330
C
102
}
330
C
100
AcDbDictionary
281
     1
  0
DICTIONARY
  5
19
102
{ACAD_REACTORS
330
C
102
}
330
C
100
AcDbDictionary
281
     1
  3
Layout1
350
1D
  3
Model
350
21
  0
DICTIONARY
  5
16
102
{ACAD_REACTORS
330
C
102
}
330
C
100
AcDbDictionary
281
     1
  3
Standard
350
17
  0
DICTIONARY
  5
18
102
{ACAD_REACTORS
330
C
102
}
330
C
100
AcDbDictionary
281
     1
  0
ACDBDICTIONARYWDFLT
  5
E
102
{ACAD_REACTORS
330
C
102
}
330
C
100
AcDbDictionary
281
     1
  3
Normal
350
F
100
AcDbDictionaryWithDefault
340
F
  0
XRECORD
  5
1D30
102
{ACAD_REACTORS
330
C
102
}
330
C
100
AcDbXrecord
280
     1
 90
   990106
  3

 60
     0
 61
     0
 62
     1
 63
     1
 64
     0
 65
     0
 66
     0
 67
     3
 68
     1
 69
     0
 70
     0
 71
     0
 72
     0
 40
0.0
170
     2
340
1D38
  0
DICTIONARY
  5
1C28
102
{ACAD_REACTORS
330
C
102
}
330
C
100
AcDbDictionary
281
     1
  3
SORTENTS
350
1C29
  0
LAYOUT
  5
1D
102
{ACAD_REACTORS
330
19
102
}
330
19
100
AcDbPlotSettings
  1

  2
C:\Program Files\ACAD2000\plotters\RICOH Aficio 1060 RPCS.pc3
  4

  6

 40
0.0
 41
0.0
 42
0.0
 43
0.0
 44
0.0
 45
0.0
 46
0.0
 47
0.0
 48
0.0
 49
0.0
140
0.0
141
0.0
142
1.0
143
1.0
 70
   688
 72
     0
 73
     0
 74
     5
  7
monochrome.ctb
 75
    16
147
1.0
148
0.0
149
0.0
100
AcDbLayout
  1
Layout1
 70
     0
 71
     1
 10
0.0
 20
0.0
 11
12.0
 21
9.0
 12
0.0
 22
0.0
 32
0.0
 14
1.000000000000000E+20
 24
1.000000000000000E+20
 34
1.000000000000000E+20
 15
-1.000000000000000E+20
 25
-1.000000000000000E+20
 35
-1.000000000000000E+20
146
0.0
 13
0.0
 23
0.0
 33
0.0
 16
1.0
 26
0.0
 36
0.0
 17
0.0
 27
1.0
 37
0.0
 76
     0
330
1A
  0
LAYOUT
  5
21
102
{ACAD_REACTORS
330
19
102
}
330
19
100
AcDbPlotSettings
  1

  2
Acrobat PDFWriter
  4
Tabloid
  6

 40
3.174999952316284
 41
3.174999952316284
 42
3.17498779296875
 43
3.17498779296875
 44
431.8000183105469
 45
279.3999938964843
 46
0.0
 47
4.064
 48
0.0
 49
0.0
140
0.0
141
0.0
142
1.0
143
2.477838580586556
 70
 11956
 72
     0
 73
     0
 74
     1
  7
monochrome.ctb
 75
     0
147
0.4035775404559561
148
0.0482401055721169
149
0.0300134825513624
100
AcDbLayout
  1
Model
 70
     1
 71
     0
 10
0.0
 20
0.0
 11
12.0
 21
9.0
 12
0.0
 22
0.0
 32
0.0
 14
0.0
 24
0.0
 34
0.0
 15
0.0
 25
0.0
 35
0.0
146
0.0
 13
0.0
 23
0.0
 33
0.0
 16
1.0
 26
0.0
 36
0.0
 17
0.0
 27
1.0
 37
0.0
 76
     0
330
1E
  0
MLINESTYLE
  5
17
102
{ACAD_REACTORS
330
16
102
}
330
16
100
AcDbMlineStyle
  2
STANDARD
 70
     0
  3

 62
   256
 51
90.0
 52
90.0
 71
     2
 49
0.5
 62
   256
  6
BYLAYER
 49
-0.5
 62
   256
  6
BYLAYER
  0
ACDBPLACEHOLDER
  5
F
102
{ACAD_REACTORS
330
E
102
}
330
E
  0
DICTIONARYVAR
  5
1C29
102
{ACAD_REACTORS
330
1C28
102
}
330
1C28
100
DictionaryVariables
280
     0
  1
96
  0
ENDSEC
  0
EOF
