  0
SECTION
  2
HEADER
  9
$ACADVER
  1
AC1015
  9
$ACADMAINTVER
 70
     6
  9
$DWGCODEPAGE
  3
ANSI_1252
  9
$INSBASE
 10
0.0
 20
0.0
 30
0.0
  9
$EXTMIN
 10
0.0
 20
0.0
 30
-0.00000001
  9
$EXTMAX
 10
41.49999999999998
 20
25.82
 30
0.00000001
  9
$LIMMIN
 10
0.0
 20
0.0
  9
$LIMMAX
 10
38.75
 20
25.3
  9
$ORTHOMODE
 70
     1
  9
$REGENMODE
 70
     1
  9
$FILLMODE
 70
     1
  9
$QTEXTMODE
 70
     0
  9
$MIRRTEXT
 70
     0
  9
$LTSCALE
 40
0.75
  9
$ATTMODE
 70
     1
  9
$TEXTSIZE
 40
0.2
  9
$TRACEWID
 40
0.05
  9
$TEXTSTYLE
  7
TXT
  9
$CLAYER
  8
OBJECT
  9
$CELTYPE
  6
ByLayer
  9
$CECOLOR
 62
   256
  9
$CELTSCALE
 40
1.0
  9
$DISPSILH
 70
     0
  9
$DIMSCALE
 40
2.5
  9
$DIMASZ
 40
0.18
  9
$DIMEXO
 40
0.063
  9
$DIMDLI
 40
0.281
  9
$DIMRND
 40
0.0
  9
$DIMDLE
 40
0.0
  9
$DIMEXE
 40
0.093
  9
$DIMTP
 40
0.0
  9
$DIMTM
 40
0.0
  9
$DIMTXT
 40
0.125
  9
$DIMCEN
 40
0.09
  9
$DIMTSZ
 40
0.0
  9
$DIMTOL
 70
     0
  9
$DIMLIM
 70
     0
  9
$DIMTIH
 70
     1
  9
$DIMTOH
 70
     1
  9
$DIMSE1
 70
     0
  9
$DIMSE2
 70
     0
  9
$DIMTAD
 70
     0
  9
$DIMZIN
 70
     0
  9
$DIMBLK
  1

  9
$DIMASO
 70
     1
  9
$DIMSHO
 70
     1
  9
$DIMPOST
  1

  9
$DIMAPOST
  1

  9
$DIMALT
 70
     0
  9
$DIMALTD
 70
     2
  9
$DIMALTF
 40
25.4
  9
$DIMLFAC
 40
1.0
  9
$DIMTOFL
 70
     0
  9
$DIMTVP
 40
0.0
  9
$DIMTIX
 70
     0
  9
$DIMSOXD
 70
     0
  9
$DIMSAH
 70
     0
  9
$DIMBLK1
  1

  9
$DIMBLK2
  1

  9
$DIMSTYLE
  2
23NSTD
  9
$DIMCLRD
 70
     0
  9
$DIMCLRE
 70
     0
  9
$DIMCLRT
 70
     0
  9
$DIMTFAC
 40
1.0
  9
$DIMGAP
 40
0.09
  9
$DIMJUST
 70
     0
  9
$DIMSD1
 70
     0
  9
$DIMSD2
 70
     0
  9
$DIMTOLJ
 70
     1
  9
$DIMTZIN
 70
     0
  9
$DIMALTZ
 70
     0
  9
$DIMALTTZ
 70
     0
  9
$DIMUPT
 70
     0
  9
$DIMDEC
 70
     3
  9
$DIMTDEC
 70
     3
  9
$DIMALTU
 70
     2
  9
$DIMALTTD
 70
     2
  9
$DIMTXSTY
  7
TXT
  9
$DIMAUNIT
 70
     0
  9
$DIMADEC
 70
     0
  9
$DIMALTRND
 40
0.0
  9
$DIMAZIN
 70
     0
  9
$DIMDSEP
 70
    46
  9
$DIMATFIT
 70
     1
  9
$DIMFRAC
 70
     0
  9
$DIMLDRBLK
  1

  9
$DIMLUNIT
 70
     2
  9
$DIMLWD
 70
    -2
  9
$DIMLWE
 70
    -2
  9
$DIMTMOVE
 70
     0
  9
$LUNITS
 70
     2
  9
$LUPREC
 70
     3
  9
$SKETCHINC
 40
0.1
  9
$FILLETRAD
 40
0.0
  9
$AUNITS
 70
     0
  9
$AUPREC
 70
     0
  9
$MENU
  1
acad
  9
$ELEVATION
 40
0.0
  9
$PELEVATION
 40
0.0
  9
$THICKNESS
 40
0.0
  9
$LIMCHECK
 70
     0
  9
$CHAMFERA
 40
0.0
  9
$CHAMFERB
 40
0.0
  9
$CHAMFERC
 40
0.0
  9
$CHAMFERD
 40
0.0
  9
$SKPOLY
 70
     0
  9
$TDCREATE
 40
2449889.618433680
  9
$TDUCREATE
 40
2449889.826767014
  9
$TDUPDATE
 40
2454788.496138229
  9
$TDUUPDATE
 40
2454788.704471562
  9
$TDINDWG
 40
0.2359206597
  9
$TDUSRTIMER
 40
0.2359204861
  9
$USRTIMER
 70
     1
  9
$ANGBASE
 50
0.0
  9
$ANGDIR
 70
     0
  9
$PDMODE
 70
     0
  9
$PDSIZE
 40
0.0
  9
$PLINEWID
 40
0.0
  9
$SPLFRAME
 70
     0
  9
$SPLINETYPE
 70
     6
  9
$SPLINESEGS
 70
     8
  9
$HANDSEED
  5
2585
  9
$SURFTAB1
 70
     6
  9
$SURFTAB2
 70
     6
  9
$SURFTYPE
 70
     6
  9
$SURFU
 70
     6
  9
$SURFV
 70
     6
  9
$UCSBASE
  2

  9
$UCSNAME
  2

  9
$UCSORG
 10
0.0
 20
0.0
 30
0.0
  9
$UCSXDIR
 10
1.0
 20
0.0
 30
0.0
  9
$UCSYDIR
 10
0.0
 20
1.0
 30
0.0
  9
$UCSORTHOREF
  2

  9
$UCSORTHOVIEW
 70
     0
  9
$UCSORGTOP
 10
0.0
 20
0.0
 30
0.0
  9
$UCSORGBOTTOM
 10
0.0
 20
0.0
 30
0.0
  9
$UCSORGLEFT
 10
0.0
 20
0.0
 30
0.0
  9
$UCSORGRIGHT
 10
0.0
 20
0.0
 30
0.0
  9
$UCSORGFRONT
 10
0.0
 20
0.0
 30
0.0
  9
$UCSORGBACK
 10
0.0
 20
0.0
 30
0.0
  9
$PUCSBASE
  2

  9
$PUCSNAME
  2

  9
$PUCSORG
 10
0.0
 20
0.0
 30
0.0
  9
$PUCSXDIR
 10
1.0
 20
0.0
 30
0.0
  9
$PUCSYDIR
 10
0.0
 20
1.0
 30
0.0
  9
$PUCSORTHOREF
  2

  9
$PUCSORTHOVIEW
 70
     0
  9
$PUCSORGTOP
 10
0.0
 20
0.0
 30
0.0
  9
$PUCSORGBOTTOM
 10
0.0
 20
0.0
 30
0.0
  9
$PUCSORGLEFT
 10
0.0
 20
0.0
 30
0.0
  9
$PUCSORGRIGHT
 10
0.0
 20
0.0
 30
0.0
  9
$PUCSORGFRONT
 10
0.0
 20
0.0
 30
0.0
  9
$PUCSORGBACK
 10
0.0
 20
0.0
 30
0.0
  9
$USERI1
 70
     0
  9
$USERI2
 70
     0
  9
$USERI3
 70
     0
  9
$USERI4
 70
     0
  9
$USERI5
 70
     0
  9
$USERR1
 40
0.0
  9
$USERR2
 40
0.0
  9
$USERR3
 40
0.0
  9
$USERR4
 40
0.0
  9
$USERR5
 40
0.0
  9
$WORLDVIEW
 70
     1
  9
$SHADEDGE
 70
     3
  9
$SHADEDIF
 70
    70
  9
$TILEMODE
 70
     1
  9
$MAXACTVP
 70
    16
  9
$PINSBASE
 10
0.0
 20
0.0
 30
0.0
  9
$PLIMCHECK
 70
     0
  9
$PEXTMIN
 10
1.000000000000000E+20
 20
1.000000000000000E+20
 30
1.000000000000000E+20
  9
$PEXTMAX
 10
-1.000000000000000E+20
 20
-1.000000000000000E+20
 30
-1.000000000000000E+20
  9
$PLIMMIN
 10
0.0
 20
0.0
  9
$PLIMMAX
 10
12.0
 20
9.0
  9
$UNITMODE
 70
     0
  9
$VISRETAIN
 70
     0
  9
$PLINEGEN
 70
     0
  9
$PSLTSCALE
 70
     1
  9
$TREEDEPTH
 70
  3020
  9
$CMLSTYLE
  2
Standard
  9
$CMLJUST
 70
     0
  9
$CMLSCALE
 40
1.0
  9
$PROXYGRAPHICS
 70
     1
  9
$MEASUREMENT
 70
     0
  9
$CELWEIGHT
370
    -1
  9
$ENDCAPS
280
     0
  9
$JOINSTYLE
280
     0
  9
$LWDISPLAY
290
     0
  9
$INSUNITS
 70
     0
  9
$HYPERLINKBASE
  1

  9
$STYLESHEET
  1
monochrome.ctb
  9
$XEDIT
290
     1
  9
$CEPSNTYPE
380
     0
  9
$PSTYLEMODE
290
     1
  9
$FINGERPRINTGUID
  2
{686C8ED3-50BF-4E33-B490-90A8343569C1}
  9
$VERSIONGUID
  2
{CA19CFD1-BAFA-44F7-9B64-FF1349CEED37}
  9
$EXTNAMES
290
     1
  9
$PSVPSCALE
 40
0.0
  9
$OLESTARTUP
290
     0
  0
ENDSEC
  0
SECTION
  2
CLASSES
  0
CLASS
  1
ACDBDICTIONARYWDFLT
  2
AcDbDictionaryWithDefault
  3
AutoCAD 2000
 90
        0
280
     0
281
     0
  0
CLASS
  1
ACDBPLACEHOLDER
  2
AcDbPlaceHolder
  3
AutoCAD 2000
 90
        0
280
     0
281
     0
  0
CLASS
  1
LAYOUT
  2
AcDbLayout
  3
AutoCAD 2000
 90
        0
280
     0
281
     0
  0
CLASS
  1
DICTIONARYVAR
  2
AcDbDictionaryVar
  3
AutoCAD 2000
 90
        0
280
     0
281
     0
  0
ENDSEC
  0
SECTION
  2
TABLES
  0
TABLE
  2
VPORT
  5
8
330
0
100
AcDbSymbolTable
 70
     2
  0
VPORT
  5
2584
330
8
100
AcDbSymbolTableRecord
100
AcDbViewportTableRecord
  2
*Active
 70
     0
 10
0.0
 20
0.0
 11
1.0
 21
1.0
 12
20.74980638854469
 22
12.9099921012142
 13
0.0
 23
0.0
 14
1.0
 24
1.0
 15
0.0
 25
0.0
 16
0.0
 26
0.0
 36
1.0
 17
0.0
 27
0.0
 37
0.0
 40
26.09843046351206
 41
1.796327212020033
 42
50.0
 43
0.0
 44
0.0
 50
0.0
 51
0.0
 71
     0
 72
   100
 73
     1
 74
     0
 75
     0
 76
     0
 77
     0
 78
     0
281
     0
 65
     1
110
0.0
120
0.0
130
0.0
111
1.0
121
0.0
131
0.0
112
0.0
122
1.0
132
0.0
 79
     0
146
0.0
  0
ENDTAB
  0
TABLE
  2
LTYPE
  5
5
330
0
100
AcDbSymbolTable
 70
     3
  0
LTYPE
  5
13
330
5
100
AcDbSymbolTableRecord
100
AcDbLinetypeTableRecord
  2
ByBlock
 70
     0
  3

 72
    65
 73
     0
 40
0.0
  0
LTYPE
  5
14
330
5
100
AcDbSymbolTableRecord
100
AcDbLinetypeTableRecord
  2
ByLayer
 70
     0
  3

 72
    65
 73
     0
 40
0.0
  0
LTYPE
  5
15
330
5
100
AcDbSymbolTableRecord
100
AcDbLinetypeTableRecord
  2
CONTINUOUS
 70
     0
  3
Solid line
 72
    65
 73
     0
 40
0.0
  0
LTYPE
  5
25
330
5
100
AcDbSymbolTableRecord
100
AcDbLinetypeTableRecord
  2
PHANTOM
 70
     0
  3
_____ _ _ _____ _ _ _____ _ _ _____ _ _ ____
 72
    65
 73
     6
 40
2.5
 49
1.25
 74
     0
 49
-0.25
 74
     0
 49
0.25
 74
     0
 49
-0.25
 74
     0
 49
0.25
 74
     0
 49
-0.25
 74
     0
  0
LTYPE
  5
2128
330
5
100
AcDbSymbolTableRecord
100
AcDbLinetypeTableRecord
  2
HIDDEN
 70
     0
  3
Hidden __ __ __ __ __ __ __ __ __ __ __ __ __ _
 72
    65
 73
     2
 40
0.375
 49
0.25
 74
     0
 49
-0.125
 74
     0
  0
ENDTAB
  0
TABLE
  2
LAYER
  5
2
330
0
100
AcDbSymbolTable
 70
     8
  0
LAYER
  5
10
330
2
100
AcDbSymbolTableRecord
100
AcDbLayerTableRecord
  2
0
 70
     0
 62
     7
  6
CONTINUOUS
370
    -3
390
F
  0
LAYER
  5
22
330
2
100
AcDbSymbolTableRecord
100
AcDbLayerTableRecord
  2
OBJECT
 70
     0
 62
     7
  6
CONTINUOUS
370
    -3
390
F
  0
LAYER
  5
26
330
2
100
AcDbSymbolTableRecord
100
AcDbLayerTableRecord
  2
DIM
 70
     0
 62
     2
  6
CONTINUOUS
370
    -3
390
F
  0
LAYER
  5
27
330
2
100
AcDbSymbolTableRecord
100
AcDbLayerTableRecord
  2
BEND
 70
     0
 62
     4
  6
PHANTOM
370
    -3
390
F
  0
LAYER
  5
28
330
2
100
AcDbSymbolTableRecord
100
AcDbLayerTableRecord
  2
TEXT
 70
     0
 62
     1
  6
CONTINUOUS
370
    -3
390
F
  0
LAYER
  5
29
330
2
100
AcDbSymbolTableRecord
100
AcDbLayerTableRecord
  2
TITLE
 70
     0
 62
     8
  6
CONTINUOUS
370
    -3
390
F
  0
LAYER
  5
2A
330
2
100
AcDbSymbolTableRecord
100
AcDbLayerTableRecord
  2
DEFPOINTS
 70
     0
 62
     7
  6
CONTINUOUS
290
     0
370
    -3
390
F
  0
LAYER
  5
2129
330
2
100
AcDbSymbolTableRecord
100
AcDbLayerTableRecord
  2
HIDDEN
 70
     0
 62
     6
  6
HIDDEN
370
    -3
390
F
  0
ENDTAB
  0
TABLE
  2
STYLE
  5
3
330
0
100
AcDbSymbolTable
 70
     2
  0
STYLE
  5
11
330
3
100
AcDbSymbolTableRecord
100
AcDbTextStyleTableRecord
  2
TXT
 70
     0
 40
0.0
 41
0.75
 50
0.0
 71
     0
 42
0.2
  3
TXT.shx
  4

  0
STYLE
  5
20C0
330
3
100
AcDbSymbolTableRecord
100
AcDbTextStyleTableRecord
  2
SECTION
 70
     0
 40
0.0
 41
0.8
 50
0.0
 71
     0
 42
0.2
  3
ROMANT.SHX
  4

  0
ENDTAB
  0
TABLE
  2
VIEW
  5
6
330
0
100
AcDbSymbolTable
 70
     0
  0
ENDTAB
  0
TABLE
  2
UCS
  5
7
330
0
100
AcDbSymbolTable
 70
     0
  0
ENDTAB
  0
TABLE
  2
APPID
  5
9
330
0
100
AcDbSymbolTable
 70
     1
  0
APPID
  5
12
330
9
100
AcDbSymbolTableRecord
100
AcDbRegAppTableRecord
  2
ACAD
 70
     0
  0
ENDTAB
  0
TABLE
  2
DIMSTYLE
  5
A
330
0
100
AcDbSymbolTable
 70
     4
100
AcDbDimStyleTable
 71
     4
340
2D
340
2B
340
2E
340
2C
  0
DIMSTYLE
105
2B
102
{ACAD_REACTORS
330
83C
330
858
330
866
330
874
330
882
330
890
330
8A7
330
965
330
975
330
A31
330
A4D
330
A77
330
A85
330
A93
330
AA1
330
AAF
330
ABD
330
ACB
330
AD9
330
AE7
330
AF5
330
B11
330
B1F
330
B49
330
B65
330
B73
330
B81
330
B8F
330
B9D
330
BAB
330
BB9
330
BC7
330
BF5
330
C33
330
C41
102
}
330
A
100
AcDbSymbolTableRecord
100
AcDbDimStyleTableRecord
  2
23NSTD
 70
     0
 40
2.5
 42
0.063
 43
0.281
 44
0.093
140
0.125
271
     3
272
     3
289
     1
340
11
  0
DIMSTYLE
105
2C
102
{ACAD_REACTORS
330
84A
330
983
330
991
330
A07
330
A15
330
A23
330
A3F
330
A5B
330
A69
330
B03
330
B2D
330
B3B
330
B57
330
C03
102
}
330
A
100
AcDbSymbolTableRecord
100
AcDbDimStyleTableRecord
  2
23NSTDI
 70
     0
  4
ction
 40
2.5
 42
0.063
 43
0.281
 44
0.093
140
0.125
174
     1
271
     3
272
     3
340
11
  0
DIMSTYLE
105
2D
102
{ACAD_REACTORS
330
15F1
330
15F6
330
15F9
102
}
330
A
100
AcDbSymbolTableRecord
100
AcDbDimStyleTableRecord
  2
23NSTD4
 70
     0
 40
2.5
 42
0.063
 43
0.281
 44
0.093
140
0.125
144
0.25
271
     3
272
     3
289
     1
340
11
  0
DIMSTYLE
105
2E
102
{ACAD_REACTORS
330
15F7
330
1603
102
}
330
A
100
AcDbSymbolTableRecord
100
AcDbDimStyleTableRecord
  2
23NSTD4I
 70
     0
 40
2.5
 42
0.063
 43
0.281
 44
0.093
140
0.125
144
0.25
174
     1
271
     3
272
     3
340
11
  0
ENDTAB
  0
TABLE
  2
BLOCK_RECORD
  5
1
330
0
100
AcDbSymbolTable
 70
    57
  0
BLOCK_RECORD
  5
1E
330
1
100
AcDbSymbolTableRecord
100
AcDbBlockTableRecord
  2
*Model_Space
340
21
  0
BLOCK_RECORD
  5
1A
330
1
100
AcDbSymbolTableRecord
100
AcDbBlockTableRecord
  2
*Paper_Space
340
1D
  0
BLOCK_RECORD
  5
3A
330
1
100
AcDbSymbolTableRecord
100
AcDbBlockTableRecord
  2
*X0
340
0
102
{BLKREFS
331
9A9
102
}
  0
BLOCK_RECORD
  5
83D
330
1
100
AcDbSymbolTableRecord
100
AcDbBlockTableRecord
  2
*D1
340
0
  0
BLOCK_RECORD
  5
84B
330
1
100
AcDbSymbolTableRecord
100
AcDbBlockTableRecord
  2
*D2
340
0
  0
BLOCK_RECORD
  5
859
330
1
100
AcDbSymbolTableRecord
100
AcDbBlockTableRecord
  2
*D3
340
0
  0
BLOCK_RECORD
  5
867
330
1
100
AcDbSymbolTableRecord
100
AcDbBlockTableRecord
  2
*D4
340
0
  0
BLOCK_RECORD
  5
875
330
1
100
AcDbSymbolTableRecord
100
AcDbBlockTableRecord
  2
*D5
340
0
  0
BLOCK_RECORD
  5
883
330
1
100
AcDbSymbolTableRecord
100
AcDbBlockTableRecord
  2
*D6
340
0
  0
BLOCK_RECORD
  5
891
330
1
100
AcDbSymbolTableRecord
100
AcDbBlockTableRecord
  2
*D7
340
0
  0
BLOCK_RECORD
  5
8A8
330
1
100
AcDbSymbolTableRecord
100
AcDbBlockTableRecord
  2
*D8
340
0
  0
BLOCK_RECORD
  5
966
330
1
100
AcDbSymbolTableRecord
100
AcDbBlockTableRecord
  2
*D9
340
0
  0
BLOCK_RECORD
  5
976
330
1
100
AcDbSymbolTableRecord
100
AcDbBlockTableRecord
  2
*D10
340
0
  0
BLOCK_RECORD
  5
984
330
1
100
AcDbSymbolTableRecord
100
AcDbBlockTableRecord
  2
*D11
340
0
  0
BLOCK_RECORD
  5
992
330
1
100
AcDbSymbolTableRecord
100
AcDbBlockTableRecord
  2
*D12
340
0
  0
BLOCK_RECORD
  5
A08
330
1
100
AcDbSymbolTableRecord
100
AcDbBlockTableRecord
  2
*D13
340
0
  0
BLOCK_RECORD
  5
A16
330
1
100
AcDbSymbolTableRecord
100
AcDbBlockTableRecord
  2
*D14
340
0
  0
BLOCK_RECORD
  5
A24
330
1
100
AcDbSymbolTableRecord
100
AcDbBlockTableRecord
  2
*D15
340
0
  0
BLOCK_RECORD
  5
A32
330
1
100
AcDbSymbolTableRecord
100
AcDbBlockTableRecord
  2
*D16
340
0
  0
BLOCK_RECORD
  5
A40
330
1
100
AcDbSymbolTableRecord
100
AcDbBlockTableRecord
  2
*D17
340
0
  0
BLOCK_RECORD
  5
A4E
330
1
100
AcDbSymbolTableRecord
100
AcDbBlockTableRecord
  2
*D18
340
0
  0
BLOCK_RECORD
  5
A5C
330
1
100
AcDbSymbolTableRecord
100
AcDbBlockTableRecord
  2
*D19
340
0
  0
BLOCK_RECORD
  5
A6A
330
1
100
AcDbSymbolTableRecord
100
AcDbBlockTableRecord
  2
*D20
340
0
  0
BLOCK_RECORD
  5
A78
330
1
100
AcDbSymbolTableRecord
100
AcDbBlockTableRecord
  2
*D21
340
0
  0
BLOCK_RECORD
  5
A86
330
1
100
AcDbSymbolTableRecord
100
AcDbBlockTableRecord
  2
*D22
340
0
  0
BLOCK_RECORD
  5
A94
330
1
100
AcDbSymbolTableRecord
100
AcDbBlockTableRecord
  2
*D23
340
0
  0
BLOCK_RECORD
  5
AA2
330
1
100
AcDbSymbolTableRecord
100
AcDbBlockTableRecord
  2
*D24
340
0
  0
BLOCK_RECORD
  5
AB0
330
1
100
AcDbSymbolTableRecord
100
AcDbBlockTableRecord
  2
*D25
340
0
  0
BLOCK_RECORD
  5
ABE
330
1
100
AcDbSymbolTableRecord
100
AcDbBlockTableRecord
  2
*D26
340
0
  0
BLOCK_RECORD
  5
ACC
330
1
100
AcDbSymbolTableRecord
100
AcDbBlockTableRecord
  2
*D27
340
0
  0
BLOCK_RECORD
  5
ADA
330
1
100
AcDbSymbolTableRecord
100
AcDbBlockTableRecord
  2
*D28
340
0
  0
BLOCK_RECORD
  5
AE8
330
1
100
AcDbSymbolTableRecord
100
AcDbBlockTableRecord
  2
*D29
340
0
  0
BLOCK_RECORD
  5
AF6
330
1
100
AcDbSymbolTableRecord
100
AcDbBlockTableRecord
  2
*D30
340
0
  0
BLOCK_RECORD
  5
B04
330
1
100
AcDbSymbolTableRecord
100
AcDbBlockTableRecord
  2
*D31
340
0
  0
BLOCK_RECORD
  5
B12
330
1
100
AcDbSymbolTableRecord
100
AcDbBlockTableRecord
  2
*D32
340
0
  0
BLOCK_RECORD
  5
B20
330
1
100
AcDbSymbolTableRecord
100
AcDbBlockTableRecord
  2
*D33
340
0
  0
BLOCK_RECORD
  5
B2E
330
1
100
AcDbSymbolTableRecord
100
AcDbBlockTableRecord
  2
*D34
340
0
  0
BLOCK_RECORD
  5
B3C
330
1
100
AcDbSymbolTableRecord
100
AcDbBlockTableRecord
  2
*D35
340
0
  0
BLOCK_RECORD
  5
B4A
330
1
100
AcDbSymbolTableRecord
100
AcDbBlockTableRecord
  2
*D36
340
0
  0
BLOCK_RECORD
  5
B58
330
1
100
AcDbSymbolTableRecord
100
AcDbBlockTableRecord
  2
*D37
340
0
  0
BLOCK_RECORD
  5
B66
330
1
100
AcDbSymbolTableRecord
100
AcDbBlockTableRecord
  2
*D38
340
0
  0
BLOCK_RECORD
  5
B74
330
1
100
AcDbSymbolTableRecord
100
AcDbBlockTableRecord
  2
*D39
340
0
  0
BLOCK_RECORD
  5
B82
330
1
100
AcDbSymbolTableRecord
100
AcDbBlockTableRecord
  2
*D40
340
0
  0
BLOCK_RECORD
  5
B90
330
1
100
AcDbSymbolTableRecord
100
AcDbBlockTableRecord
  2
*D41
340
0
  0
BLOCK_RECORD
  5
B9E
330
1
100
AcDbSymbolTableRecord
100
AcDbBlockTableRecord
  2
*D42
340
0
  0
BLOCK_RECORD
  5
BAC
330
1
100
AcDbSymbolTableRecord
100
AcDbBlockTableRecord
  2
*D43
340
0
  0
BLOCK_RECORD
  5
BBA
330
1
100
AcDbSymbolTableRecord
100
AcDbBlockTableRecord
  2
*D44
340
0
  0
BLOCK_RECORD
  5
BC8
330
1
100
AcDbSymbolTableRecord
100
AcDbBlockTableRecord
  2
*D45
340
0
  0
BLOCK_RECORD
  5
BF6
330
1
100
AcDbSymbolTableRecord
100
AcDbBlockTableRecord
  2
*D46
340
0
  0
BLOCK_RECORD
  5
C04
330
1
100
AcDbSymbolTableRecord
100
AcDbBlockTableRecord
  2
*D47
340
0
  0
BLOCK_RECORD
  5
C34
330
1
100
AcDbSymbolTableRecord
100
AcDbBlockTableRecord
  2
*D48
340
0
  0
BLOCK_RECORD
  5
C42
330
1
100
AcDbSymbolTableRecord
100
AcDbBlockTableRecord
  2
*D49
340
0
  0
BLOCK_RECORD
  5
13E5
330
1
100
AcDbSymbolTableRecord
100
AcDbBlockTableRecord
  2
HBS
340
0
102
{BLKREFS
331
1406
102
}
  0
BLOCK_RECORD
  5
1574
330
1
100
AcDbSymbolTableRecord
100
AcDbBlockTableRecord
  2
*X51
340
0
102
{BLKREFS
331
15FF
102
}
  0
BLOCK_RECORD
  5
1604
330
1
100
AcDbSymbolTableRecord
100
AcDbBlockTableRecord
  2
*D52
340
0
  0
BLOCK_RECORD
  5
1611
330
1
100
AcDbSymbolTableRecord
100
AcDbBlockTableRecord
  2
*D53
340
0
  0
BLOCK_RECORD
  5
161E
330
1
100
AcDbSymbolTableRecord
100
AcDbBlockTableRecord
  2
*D54
340
0
  0
BLOCK_RECORD
  5
162B
330
1
100
AcDbSymbolTableRecord
100
AcDbBlockTableRecord
  2
*D55
340
0
  0
BLOCK_RECORD
  5
1638
330
1
100
AcDbSymbolTableRecord
100
AcDbBlockTableRecord
  2
*D56
340
0
  0
ENDTAB
  0
ENDSEC
  0
SECTION
  2
BLOCKS
  0
BLOCK
  5
1F
330
1E
100
AcDbEntity
  8
0
100
AcDbBlockBegin
  2
*Model_Space
 70
     0
 10
0.0
 20
0.0
 30
0.0
  3
*Model_Space
  1

  0
ENDBLK
  5
20
330
1E
100
AcDbEntity
  8
0
100
AcDbBlockEnd
  0
BLOCK
  5
1B
330
1A
100
AcDbEntity
 67
     1
  8
0
100
AcDbBlockBegin
  2
*Paper_Space
 70
     0
 10
0.0
 20
0.0
 30
0.0
  3
*Paper_Space
  1

  0
ENDBLK
  5
1C
330
1A
100
AcDbEntity
 67
     1
  8
0
100
AcDbBlockEnd
  0
BLOCK
  5
3B
330
3A
100
AcDbEntity
  8
0
100
AcDbBlockBegin
  2
*X0
 70
     1
 10
0.0
 20
0.0
 30
0.0
  3
*X0
  1

  0
LINE
  5
3C
330
3A
100
AcDbEntity
  8
0
 62
     0
100
AcDbLine
 10
17.305909
 20
12.790324
 30
0.0
 11
17.243409
 21
12.852824
 31
0.0
  0
LINE
  5
3D
330
3A
100
AcDbEntity
  8
0
 62
     0
100
AcDbLine
 10
17.118409
 20
12.977824
 30
0.0
 11
17.106767
 21
12.989465
 31
0.0
  0
LINE
  5
3E
330
3A
100
AcDbEntity
  8
0
 62
     0
100
AcDbLine
 10
17.17332599999999
 20
12.790324
 30
0.0
 11
17.110826
 21
12.852824
 31
0.0
  0
LINE
  5
3F
330
3A
100
AcDbEntity
  8
0
 62
     0
100
AcDbLine
 10
17.438491
 20
12.790324
 30
0.0
 11
17.37599099999999
 21
12.852824
 31
0.0
  0
LINE
  5
40
330
3A
100
AcDbEntity
  8
0
 62
     0
100
AcDbLine
 10
17.25099099999999
 20
12.977824
 30
0.0
 11
17.18849099999999
 21
13.040324
 31
0.0
  0
LINE
  5
41
330
3A
100
AcDbEntity
  8
0
 62
     0
100
AcDbLine
 10
17.38357399999999
 20
12.977824
 30
0.0
 11
17.321074
 21
13.040324
 31
0.0
  0
LINE
  5
42
330
3A
100
AcDbEntity
  8
0
 62
     0
100
AcDbLine
 10
17.350103
 20
12.790324
 30
0.0
 11
17.287603
 21
12.852824
 31
0.0
  0
LINE
  5
43
330
3A
100
AcDbEntity
  8
0
 62
     0
100
AcDbLine
 10
17.162603
 20
12.977824
 30
0.0
 11
17.106767
 21
13.03366
 31
0.0
  0
LINE
  5
44
330
3A
100
AcDbEntity
  8
0
 62
     0
100
AcDbLine
 10
17.21752
 20
12.790324
 30
0.0
 11
17.15502
 21
12.852824
 31
0.0
  0
LINE
  5
45
330
3A
100
AcDbEntity
  8
0
 62
     0
100
AcDbLine
 10
17.438762
 20
12.83424799999999
 30
0.0
 11
17.420185
 21
12.852824
 31
0.0
  0
LINE
  5
46
330
3A
100
AcDbEntity
  8
0
 62
     0
100
AcDbLine
 10
17.295185
 20
12.977824
 30
0.0
 11
17.232685
 21
13.040324
 31
0.0
  0
LINE
  5
47
330
3A
100
AcDbEntity
  8
0
 62
     0
100
AcDbLine
 10
17.427768
 20
12.977824
 30
0.0
 11
17.365268
 21
13.040324
 31
0.0
  0
ENDBLK
  5
48
330
3A
100
AcDbEntity
  8
0
100
AcDbBlockEnd
  0
BLOCK
  5
848
330
83D
100
AcDbEntity
  8
0
100
AcDbBlockBegin
  2
*D1
 70
     1
 10
0.0
 20
0.0
 30
0.0
  3
*D1
  1

  0
LINE
  5
254C
330
83D
100
AcDbEntity
  8
DIM
 62
     0
370
    -2
100
AcDbLine
 10
27.05039943170231
 20
13.72409796311898
 30
0.0
 11
27.05039943170231
 21
14.93663496311898
 31
0.0
  0
LINE
  5
254D
330
83D
100
AcDbEntity
  8
DIM
 62
     0
370
    -2
100
AcDbLine
 10
26.81414943170231
 20
13.75009796311898
 30
0.0
 11
26.81414943170231
 21
14.93663496311898
 31
0.0
  0
LINE
  5
254E
330
83D
100
AcDbEntity
  8
DIM
 62
     0
370
    -2
100
AcDbLine
 10
27.50039943170231
 20
14.70413496311898
 30
0.0
 11
27.95039943170231
 21
14.70413496311898
 31
0.0
  0
LINE
  5
254F
330
83D
100
AcDbEntity
  8
DIM
 62
     0
370
    -2
100
AcDbLine
 10
26.36414943170231
 20
14.70413496311898
 30
0.0
 11
25.91414943170232
 21
14.70413496311898
 31
0.0
  0
SOLID
  5
2550
330
83D
100
AcDbEntity
  8
DIM
 62
     0
100
AcDbTrace
 10
27.50039943170231
 20
14.77913496311898
 30
0.0
 11
27.50039943170231
 21
14.62913496311898
 31
0.0
 12
27.05039943170231
 22
14.70413496311898
 32
0.0
 13
27.05039943170231
 23
14.70413496311898
 33
0.0
  0
SOLID
  5
2551
330
83D
100
AcDbEntity
  8
DIM
 62
     0
100
AcDbTrace
 10
26.36414943170231
 20
14.77913496311898
 30
0.0
 11
26.36414943170231
 21
14.62913496311898
 31
0.0
 12
26.81414943170231
 22
14.70413496311898
 32
0.0
 13
26.81414943170231
 23
14.70413496311898
 33
0.0
  0
MTEXT
  5
2552
330
83D
100
AcDbEntity
  8
DIM
 62
     0
100
AcDbMText
 10
25.23993068170231
 20
14.70413496311898
 30
0.0
 40
0.3125
 41
0.0
 71
     5
 72
     1
  1
\A1;0.236
 73
     1
 44
1.0
  0
POINT
  5
2553
330
83D
100
AcDbEntity
  8
DEFPOINTS
 62
     0
100
AcDbPoint
 10
27.05039943170231
 20
13.56659796311898
 30
0.0
  0
POINT
  5
2554
330
83D
100
AcDbEntity
  8
DEFPOINTS
 62
     0
100
AcDbPoint
 10
26.81414943170231
 20
13.59259796311898
 30
0.0
  0
POINT
  5
2555
330
83D
100
AcDbEntity
  8
DEFPOINTS
 62
     0
100
AcDbPoint
 10
26.81414943170231
 20
14.70413496311898
 30
0.0
  0
ENDBLK
  5
849
330
83D
100
AcDbEntity
  8
0
100
AcDbBlockEnd
  0
BLOCK
  5
856
330
84B
100
AcDbEntity
  8
0
100
AcDbBlockBegin
  2
*D2
 70
     1
 10
0.0
 20
0.0
 30
0.0
  3
*D2
  1

  0
LINE
  5
2542
330
84B
100
AcDbEntity
  8
DIM
 62
     0
370
    -2
100
AcDbLine
 10
29.72689943170231
 20
13.72409796311898
 30
0.0
 11
29.72689943170231
 21
15.63913496311898
 31
0.0
  0
LINE
  5
2543
330
84B
100
AcDbEntity
  8
DIM
 62
     0
370
    -2
100
AcDbLine
 10
27.05039943170231
 20
13.72409796311898
 30
0.0
 11
27.05039943170231
 21
15.63913496311898
 31
0.0
  0
LINE
  5
2544
330
84B
100
AcDbEntity
  8
DIM
 62
     0
370
    -2
100
AcDbLine
 10
30.17689943170231
 20
15.40663496311898
 30
0.0
 11
30.62689943170231
 21
15.40663496311898
 31
0.0
  0
LINE
  5
2545
330
84B
100
AcDbEntity
  8
DIM
 62
     0
370
    -2
100
AcDbLine
 10
26.60039943170231
 20
15.40663496311898
 30
0.0
 11
26.15039943170231
 21
15.40663496311898
 31
0.0
  0
SOLID
  5
2546
330
84B
100
AcDbEntity
  8
DIM
 62
     0
100
AcDbTrace
 10
30.17689943170231
 20
15.48163496311898
 30
0.0
 11
30.17689943170231
 21
15.33163496311898
 31
0.0
 12
29.72689943170231
 22
15.40663496311898
 32
0.0
 13
29.72689943170231
 23
15.40663496311898
 33
0.0
  0
SOLID
  5
2547
330
84B
100
AcDbEntity
  8
DIM
 62
     0
100
AcDbTrace
 10
26.60039943170231
 20
15.48163496311898
 30
0.0
 11
26.60039943170231
 21
15.33163496311898
 31
0.0
 12
27.05039943170231
 22
15.40663496311898
 32
0.0
 13
27.05039943170231
 23
15.40663496311898
 33
0.0
  0
MTEXT
  5
2548
330
84B
100
AcDbEntity
  8
DIM
 62
     0
100
AcDbMText
 10
28.38864943170231
 20
15.40663496311898
 30
0.0
 40
0.3125
 41
0.0
 71
     5
 72
     1
  1
\A1;2.677
 73
     1
 44
1.0
  0
POINT
  5
2549
330
84B
100
AcDbEntity
  8
DEFPOINTS
 62
     0
100
AcDbPoint
 10
29.72689943170231
 20
13.56659796311898
 30
0.0
  0
POINT
  5
254A
330
84B
100
AcDbEntity
  8
DEFPOINTS
 62
     0
100
AcDbPoint
 10
27.05039943170231
 20
13.56659796311898
 30
0.0
  0
POINT
  5
254B
330
84B
100
AcDbEntity
  8
DEFPOINTS
 62
     0
100
AcDbPoint
 10
27.05039943170231
 20
15.40663496311898
 30
0.0
  0
ENDBLK
  5
857
330
84B
100
AcDbEntity
  8
0
100
AcDbBlockEnd
  0
BLOCK
  5
864
330
859
100
AcDbEntity
  8
0
100
AcDbBlockBegin
  2
*D3
 70
     1
 10
0.0
 20
0.0
 30
0.0
  3
*D3
  1

  0
LINE
  5
2523
330
859
100
AcDbEntity
  8
DIM
 62
     0
370
    -2
100
AcDbLine
 10
26.87589943170231
 20
6.379097963118987
 30
0.0
 11
25.50321543170231
 21
6.379097963118987
 31
0.0
  0
LINE
  5
2524
330
859
100
AcDbEntity
  8
DIM
 62
     0
370
    -2
100
AcDbLine
 10
26.87539943170231
 20
6.134347963118987
 30
0.0
 11
25.50321543170231
 21
6.134347963118988
 31
0.0
  0
LINE
  5
2525
330
859
100
AcDbEntity
  8
DIM
 62
     0
370
    -2
100
AcDbLine
 10
25.73571543170231
 20
6.829097963118988
 30
0.0
 11
25.73571543170231
 21
7.279097963118987
 31
0.0
  0
LINE
  5
2526
330
859
100
AcDbEntity
  8
DIM
 62
     0
370
    -2
100
AcDbLine
 10
25.73571543170231
 20
5.684347963118987
 30
0.0
 11
25.73571543170231
 21
5.234347963118988
 31
0.0
  0
LINE
  5
2527
330
859
100
AcDbEntity
  8
DIM
 62
     0
370
    -2
100
AcDbLine
 10
25.73571543170231
 20
5.234347963118988
 30
0.0
 11
25.28571543170231
 21
5.234347963118988
 31
0.0
  0
SOLID
  5
2528
330
859
100
AcDbEntity
  8
DIM
 62
     0
100
AcDbTrace
 10
25.66071543170231
 20
6.829097963118988
 30
0.0
 11
25.81071543170231
 21
6.829097963118988
 31
0.0
 12
25.73571543170231
 22
6.379097963118987
 32
0.0
 13
25.73571543170231
 23
6.379097963118987
 33
0.0
  0
SOLID
  5
2529
330
859
100
AcDbEntity
  8
DIM
 62
     0
100
AcDbTrace
 10
25.66071543170231
 20
5.684347963118987
 30
0.0
 11
25.81071543170231
 21
5.684347963118987
 31
0.0
 12
25.73571543170231
 22
6.134347963118988
 32
0.0
 13
25.73571543170231
 23
6.134347963118988
 33
0.0
  0
MTEXT
  5
252A
330
859
100
AcDbEntity
  8
DIM
 62
     0
100
AcDbMText
 10
24.61149668170231
 20
5.234347963118992
 30
0.0
 40
0.3125
 41
0.0
 71
     5
 72
     1
  1
\A1;0.236
 73
     1
 44
1.0
  0
POINT
  5
252B
330
859
100
AcDbEntity
  8
DEFPOINTS
 62
     0
100
AcDbPoint
 10
27.03339943170231
 20
6.379097963118987
 30
0.0
  0
POINT
  5
252C
330
859
100
AcDbEntity
  8
DEFPOINTS
 62
     0
100
AcDbPoint
 10
27.03289943170231
 20
6.134347963118987
 30
0.0
  0
POINT
  5
252D
330
859
100
AcDbEntity
  8
DEFPOINTS
 62
     0
100
AcDbPoint
 10
25.73571543170231
 20
6.134347963118988
 30
0.0
  0
ENDBLK
  5
865
330
859
100
AcDbEntity
  8
0
100
AcDbBlockEnd
  0
BLOCK
  5
872
330
867
100
AcDbEntity
  8
0
100
AcDbBlockBegin
  2
*D4
 70
     1
 10
0.0
 20
0.0
 30
0.0
  3
*D4
  1

  0
LINE
  5
2519
330
867
100
AcDbEntity
  8
DIM
 62
     0
370
    -2
100
AcDbLine
 10
26.89289943170231
 20
9.973347963118987
 30
0.0
 11
25.50321543170232
 21
9.973347963118987
 31
0.0
  0
LINE
  5
251A
330
867
100
AcDbEntity
  8
DIM
 62
     0
370
    -2
100
AcDbLine
 10
26.87589943170231
 20
6.379097963118987
 30
0.0
 11
25.50321543170231
 21
6.379097963118987
 31
0.0
  0
LINE
  5
251B
330
867
100
AcDbEntity
  8
DIM
 62
     0
370
    -2
100
AcDbLine
 10
25.73571543170231
 20
9.523347963118988
 30
0.0
 11
25.73571543170231
 21
8.557472963118987
 31
0.0
  0
LINE
  5
251C
330
867
100
AcDbEntity
  8
DIM
 62
     0
370
    -2
100
AcDbLine
 10
25.73571543170231
 20
6.829097963118988
 30
0.0
 11
25.73571543170231
 21
7.794972963118988
 31
0.0
  0
SOLID
  5
251D
330
867
100
AcDbEntity
  8
DIM
 62
     0
100
AcDbTrace
 10
25.66071543170231
 20
9.523347963118988
 30
0.0
 11
25.81071543170232
 21
9.523347963118988
 31
0.0
 12
25.73571543170231
 22
9.973347963118987
 32
0.0
 13
25.73571543170231
 23
9.973347963118987
 33
0.0
  0
SOLID
  5
251E
330
867
100
AcDbEntity
  8
DIM
 62
     0
100
AcDbTrace
 10
25.66071543170231
 20
6.829097963118988
 30
0.0
 11
25.81071543170231
 21
6.829097963118988
 31
0.0
 12
25.73571543170231
 22
6.379097963118987
 32
0.0
 13
25.73571543170231
 23
6.379097963118987
 33
0.0
  0
MTEXT
  5
251F
330
867
100
AcDbEntity
  8
DIM
 62
     0
100
AcDbMText
 10
25.73571543170231
 20
8.176222963118991
 30
0.0
 40
0.3125
 41
0.0
 71
     5
 72
     1
  1
\A1;3.602
 73
     1
 44
1.0
  0
POINT
  5
2520
330
867
100
AcDbEntity
  8
DEFPOINTS
 62
     0
100
AcDbPoint
 10
27.05039943170231
 20
9.973347963118987
 30
0.0
  0
POINT
  5
2521
330
867
100
AcDbEntity
  8
DEFPOINTS
 62
     0
100
AcDbPoint
 10
27.03339943170231
 20
6.379097963118987
 30
0.0
  0
POINT
  5
2522
330
867
100
AcDbEntity
  8
DEFPOINTS
 62
     0
100
AcDbPoint
 10
25.73571543170231
 20
6.379097963118987
 30
0.0
  0
ENDBLK
  5
873
330
867
100
AcDbEntity
  8
0
100
AcDbBlockEnd
  0
BLOCK
  5
880
330
875
100
AcDbEntity
  8
0
100
AcDbBlockBegin
  2
*D5
 70
     1
 10
0.0
 20
0.0
 30
0.0
  3
*D5
  1

  0
LINE
  5
24FA
330
875
100
AcDbEntity
  8
DIM
 62
     0
370
    -2
100
AcDbLine
 10
26.89289943170231
 20
13.56659796311898
 30
0.0
 11
25.50321543170231
 21
13.56659796311898
 31
0.0
  0
LINE
  5
24FB
330
875
100
AcDbEntity
  8
DIM
 62
     0
370
    -2
100
AcDbLine
 10
26.89289943170231
 20
9.973347963118987
 30
0.0
 11
25.50321543170231
 21
9.973347963118987
 31
0.0
  0
LINE
  5
24FC
330
875
100
AcDbEntity
  8
DIM
 62
     0
370
    -2
100
AcDbLine
 10
25.73571543170231
 20
13.11659796311898
 30
0.0
 11
25.73571543170231
 21
12.15122296311898
 31
0.0
  0
LINE
  5
24FD
330
875
100
AcDbEntity
  8
DIM
 62
     0
370
    -2
100
AcDbLine
 10
25.73571543170231
 20
10.42334796311898
 30
0.0
 11
25.73571543170231
 21
11.38872296311898
 31
0.0
  0
SOLID
  5
24FE
330
875
100
AcDbEntity
  8
DIM
 62
     0
100
AcDbTrace
 10
25.66071543170231
 20
13.11659796311898
 30
0.0
 11
25.81071543170231
 21
13.11659796311898
 31
0.0
 12
25.73571543170231
 22
13.56659796311898
 32
0.0
 13
25.73571543170231
 23
13.56659796311898
 33
0.0
  0
SOLID
  5
24FF
330
875
100
AcDbEntity
  8
DIM
 62
     0
100
AcDbTrace
 10
25.66071543170231
 20
10.42334796311898
 30
0.0
 11
25.81071543170231
 21
10.42334796311898
 31
0.0
 12
25.73571543170231
 22
9.973347963118987
 32
0.0
 13
25.73571543170231
 23
9.973347963118987
 33
0.0
  0
MTEXT
  5
2500
330
875
100
AcDbEntity
  8
DIM
 62
     0
100
AcDbMText
 10
25.73571543170231
 20
11.76997296311899
 30
0.0
 40
0.3125
 41
0.0
 71
     5
 72
     1
  1
\A1;3.602
 73
     1
 44
1.0
  0
POINT
  5
2501
330
875
100
AcDbEntity
  8
DEFPOINTS
 62
     0
100
AcDbPoint
 10
27.05039943170231
 20
13.56659796311898
 30
0.0
  0
POINT
  5
2502
330
875
100
AcDbEntity
  8
DEFPOINTS
 62
     0
100
AcDbPoint
 10
27.05039943170231
 20
9.973347963118987
 30
0.0
  0
POINT
  5
2503
330
875
100
AcDbEntity
  8
DEFPOINTS
 62
     0
100
AcDbPoint
 10
25.73571543170231
 20
9.973347963118987
 30
0.0
  0
ENDBLK
  5
881
330
875
100
AcDbEntity
  8
0
100
AcDbBlockEnd
  0
BLOCK
  5
88E
330
883
100
AcDbEntity
  8
0
100
AcDbBlockBegin
  2
*D6
 70
     1
 10
0.0
 20
0.0
 30
0.0
  3
*D6
  1

  0
LINE
  5
24F0
330
883
100
AcDbEntity
  8
DIM
 62
     0
370
    -2
100
AcDbLine
 10
26.87539943170231
 20
6.134347963118987
 30
0.0
 11
24.5180554317023
 21
6.134347963118988
 31
0.0
  0
LINE
  5
24F1
330
883
100
AcDbEntity
  8
DIM
 62
     0
370
    -2
100
AcDbLine
 10
26.87539943170231
 20
13.81134796311898
 30
0.0
 11
24.51805543170231
 21
13.81134796311898
 31
0.0
  0
LINE
  5
24F2
330
883
100
AcDbEntity
  8
DIM
 62
     0
370
    -2
100
AcDbLine
 10
24.75055543170231
 20
6.584347963118988
 30
0.0
 11
24.75055543170231
 21
9.591597963118989
 31
0.0
  0
LINE
  5
24F3
330
883
100
AcDbEntity
  8
DIM
 62
     0
370
    -2
100
AcDbLine
 10
24.75055543170231
 20
13.36134796311898
 30
0.0
 11
24.75055543170231
 21
10.35409796311898
 31
0.0
  0
SOLID
  5
24F4
330
883
100
AcDbEntity
  8
DIM
 62
     0
100
AcDbTrace
 10
24.67555543170231
 20
6.584347963118988
 30
0.0
 11
24.82555543170231
 21
6.584347963118988
 31
0.0
 12
24.75055543170231
 22
6.134347963118988
 32
0.0
 13
24.75055543170231
 23
6.134347963118988
 33
0.0
  0
SOLID
  5
24F5
330
883
100
AcDbEntity
  8
DIM
 62
     0
100
AcDbTrace
 10
24.67555543170231
 20
13.36134796311898
 30
0.0
 11
24.82555543170231
 21
13.36134796311898
 31
0.0
 12
24.75055543170231
 22
13.81134796311898
 32
0.0
 13
24.75055543170231
 23
13.81134796311898
 33
0.0
  0
MTEXT
  5
24F6
330
883
100
AcDbEntity
  8
DIM
 62
     0
100
AcDbMText
 10
24.75055543170231
 20
9.972847963118992
 30
0.0
 40
0.3125
 41
0.0
 71
     5
 72
     1
  1
\A1;7.677
 73
     1
 44
1.0
  0
POINT
  5
24F7
330
883
100
AcDbEntity
  8
DEFPOINTS
 62
     0
100
AcDbPoint
 10
27.03289943170231
 20
6.134347963118987
 30
0.0
  0
POINT
  5
24F8
330
883
100
AcDbEntity
  8
DEFPOINTS
 62
     0
100
AcDbPoint
 10
27.03289943170231
 20
13.81134796311898
 30
0.0
  0
POINT
  5
24F9
330
883
100
AcDbEntity
  8
DEFPOINTS
 62
     0
100
AcDbPoint
 10
24.75055543170231
 20
13.81134796311898
 30
0.0
  0
ENDBLK
  5
88F
330
883
100
AcDbEntity
  8
0
100
AcDbBlockEnd
  0
BLOCK
  5
89C
330
891
100
AcDbEntity
  8
0
100
AcDbBlockBegin
  2
*D7
 70
     1
 10
0.0
 20
0.0
 30
0.0
  3
*D7
  1

  0
LINE
  5
2538
330
891
100
AcDbEntity
  8
DIM
 62
     0
370
    -2
100
AcDbLine
 10
26.81414943170231
 20
13.75009796311898
 30
0.0
 11
26.81414943170231
 21
16.34163496311898
 31
0.0
  0
LINE
  5
2539
330
891
100
AcDbEntity
  8
DIM
 62
     0
370
    -2
100
AcDbLine
 10
29.96314943170231
 20
13.75009796311898
 30
0.0
 11
29.96314943170231
 21
16.34163496311898
 31
0.0
  0
LINE
  5
253A
330
891
100
AcDbEntity
  8
DIM
 62
     0
370
    -2
100
AcDbLine
 10
27.26414943170231
 20
16.10913496311898
 30
0.0
 11
27.73396193170231
 21
16.10913496311898
 31
0.0
  0
LINE
  5
253B
330
891
100
AcDbEntity
  8
DIM
 62
     0
370
    -2
100
AcDbLine
 10
29.51314943170231
 20
16.10913496311898
 30
0.0
 11
29.04333693170231
 21
16.10913496311898
 31
0.0
  0
SOLID
  5
253C
330
891
100
AcDbEntity
  8
DIM
 62
     0
100
AcDbTrace
 10
27.26414943170231
 20
16.18413496311898
 30
0.0
 11
27.26414943170231
 21
16.03413496311898
 31
0.0
 12
26.81414943170231
 22
16.10913496311898
 32
0.0
 13
26.81414943170231
 23
16.10913496311898
 33
0.0
  0
SOLID
  5
253D
330
891
100
AcDbEntity
  8
DIM
 62
     0
100
AcDbTrace
 10
29.51314943170231
 20
16.18413496311898
 30
0.0
 11
29.51314943170231
 21
16.03413496311898
 31
0.0
 12
29.96314943170231
 22
16.10913496311898
 32
0.0
 13
29.96314943170231
 23
16.10913496311898
 33
0.0
  0
MTEXT
  5
253E
330
891
100
AcDbEntity
  8
DIM
 62
     0
100
AcDbMText
 10
28.38864943170231
 20
16.10913496311898
 30
0.0
 40
0.3125
 41
0.0
 71
     5
 72
     1
  1
\A1;3.149
 73
     1
 44
1.0
  0
POINT
  5
253F
330
891
100
AcDbEntity
  8
DEFPOINTS
 62
     0
100
AcDbPoint
 10
26.81414943170231
 20
13.59259796311898
 30
0.0
  0
POINT
  5
2540
330
891
100
AcDbEntity
  8
DEFPOINTS
 62
     0
100
AcDbPoint
 10
29.96314943170231
 20
13.59259796311898
 30
0.0
  0
POINT
  5
2541
330
891
100
AcDbEntity
  8
DEFPOINTS
 62
     0
100
AcDbPoint
 10
29.96314943170231
 20
16.10913496311898
 30
0.0
  0
ENDBLK
  5
89D
330
891
100
AcDbEntity
  8
0
100
AcDbBlockEnd
  0
BLOCK
  5
8B3
330
8A8
100
AcDbEntity
  8
0
100
AcDbBlockBegin
  2
*D8
 70
     1
 10
0.0
 20
0.0
 30
0.0
  3
*D8
  1

  0
LINE
  5
250E
330
8A8
100
AcDbEntity
  8
DIM
 62
     0
370
    -2
100
AcDbLine
 10
28.76299243170231
 20
6.314347963118986
 30
0.0
 11
28.53049243170231
 21
6.314347963118986
 31
0.0
  0
LINE
  5
250F
330
8A8
100
AcDbEntity
  8
DIM
 62
     0
370
    -2
100
AcDbLine
 10
28.76299243170231
 20
6.134347963118987
 30
0.0
 11
28.53049243170231
 21
6.134347963118987
 31
0.0
  0
LINE
  5
2510
330
8A8
100
AcDbEntity
  8
DIM
 62
     0
370
    -2
100
AcDbLine
 10
28.76299243170231
 20
6.764347963118987
 30
0.0
 11
28.76299243170231
 21
7.214347963118986
 31
0.0
  0
LINE
  5
2511
330
8A8
100
AcDbEntity
  8
DIM
 62
     0
370
    -2
100
AcDbLine
 10
28.76299243170231
 20
5.684347963118987
 30
0.0
 11
28.76299243170231
 21
5.234347963118986
 31
0.0
  0
LINE
  5
2512
330
8A8
100
AcDbEntity
  8
DIM
 62
     0
370
    -2
100
AcDbLine
 10
28.76299243170231
 20
5.234347963118986
 30
0.0
 11
28.31299243170231
 21
5.234347963118986
 31
0.0
  0
SOLID
  5
2513
330
8A8
100
AcDbEntity
  8
DIM
 62
     0
100
AcDbTrace
 10
28.68799243170231
 20
6.764347963118987
 30
0.0
 11
28.83799243170231
 21
6.764347963118987
 31
0.0
 12
28.76299243170231
 22
6.314347963118986
 32
0.0
 13
28.76299243170231
 23
6.314347963118986
 33
0.0
  0
SOLID
  5
2514
330
8A8
100
AcDbEntity
  8
DIM
 62
     0
100
AcDbTrace
 10
28.68799243170231
 20
5.684347963118987
 30
0.0
 11
28.83799243170231
 21
5.684347963118987
 31
0.0
 12
28.76299243170231
 22
6.134347963118987
 32
0.0
 13
28.76299243170231
 23
6.134347963118987
 33
0.0
  0
MTEXT
  5
2515
330
8A8
100
AcDbEntity
  8
DIM
 62
     0
100
AcDbMText
 10
27.18955493170231
 20
5.234347963118991
 30
0.0
 40
0.3125
 41
0.0
 71
     5
 72
     1
  1
\A1;0.180 TYP.
 73
     1
 44
1.0
  0
POINT
  5
2516
330
8A8
100
AcDbEntity
  8
DEFPOINTS
 62
     0
100
AcDbPoint
 10
28.92049243170231
 20
6.314347963118986
 30
0.0
  0
POINT
  5
2517
330
8A8
100
AcDbEntity
  8
DEFPOINTS
 62
     0
100
AcDbPoint
 10
28.92049243170231
 20
6.134347963118987
 30
0.0
  0
POINT
  5
2518
330
8A8
100
AcDbEntity
  8
DEFPOINTS
 62
     0
100
AcDbPoint
 10
28.76299243170231
 20
6.134347963118987
 30
0.0
  0
ENDBLK
  5
8B4
330
8A8
100
AcDbEntity
  8
0
100
AcDbBlockEnd
  0
BLOCK
  5
971
330
966
100
AcDbEntity
  8
0
100
AcDbBlockBegin
  2
*D9
 70
     1
 10
0.0
 20
0.0
 30
0.0
  3
*D9
  1

  0
LINE
  5
2385
330
966
100
AcDbEntity
  8
DIM
 62
     0
370
    -2
100
AcDbLine
 10
18.92785271912186
 20
6.274972963118987
 30
0.0
 11
20.11367271912186
 21
6.274972963118987
 31
0.0
  0
LINE
  5
2386
330
966
100
AcDbEntity
  8
DIM
 62
     0
370
    -2
100
AcDbLine
 10
18.92785271912186
 20
6.446847963118987
 30
0.0
 11
20.11367271912186
 21
6.446847963118987
 31
0.0
  0
LINE
  5
2387
330
966
100
AcDbEntity
  8
DIM
 62
     0
370
    -2
100
AcDbLine
 10
19.88117271912186
 20
5.824972963118987
 30
0.0
 11
19.88117271912186
 21
5.374972963118987
 31
0.0
  0
LINE
  5
2388
330
966
100
AcDbEntity
  8
DIM
 62
     0
370
    -2
100
AcDbLine
 10
19.88117271912186
 20
6.896847963118987
 30
0.0
 11
19.88117271912186
 21
7.346847963118987
 31
0.0
  0
LINE
  5
2389
330
966
100
AcDbEntity
  8
DIM
 62
     0
370
    -2
100
AcDbLine
 10
19.88117271912186
 20
7.346847963118987
 30
0.0
 11
20.33117271912186
 21
7.346847963118987
 31
0.0
  0
SOLID
  5
238A
330
966
100
AcDbEntity
  8
DIM
 62
     0
100
AcDbTrace
 10
19.80617271912186
 20
5.824972963118987
 30
0.0
 11
19.95617271912186
 21
5.824972963118987
 31
0.0
 12
19.88117271912186
 22
6.274972963118987
 32
0.0
 13
19.88117271912186
 23
6.274972963118987
 33
0.0
  0
SOLID
  5
238B
330
966
100
AcDbEntity
  8
DIM
 62
     0
100
AcDbTrace
 10
19.80617271912186
 20
6.896847963118987
 30
0.0
 11
19.95617271912186
 21
6.896847963118987
 31
0.0
 12
19.88117271912186
 22
6.446847963118987
 32
0.0
 13
19.88117271912186
 23
6.446847963118987
 33
0.0
  0
MTEXT
  5
238C
330
966
100
AcDbEntity
  8
DIM
 62
     0
100
AcDbMText
 10
21.43507896912186
 20
7.346847963118991
 30
0.0
 40
0.3125
 41
0.0
 71
     5
 72
     1
  1
\A1;0.177 DIA.
 73
     1
 44
1.0
  0
POINT
  5
238D
330
966
100
AcDbEntity
  8
DEFPOINTS
 62
     0
100
AcDbPoint
 10
18.77035271912186
 20
6.274972963118987
 30
0.0
  0
POINT
  5
238E
330
966
100
AcDbEntity
  8
DEFPOINTS
 62
     0
100
AcDbPoint
 10
18.77035271912186
 20
6.446847963118987
 30
0.0
  0
POINT
  5
238F
330
966
100
AcDbEntity
  8
DEFPOINTS
 62
     0
100
AcDbPoint
 10
19.88117271912186
 20
6.446847963118987
 30
0.0
  0
ENDBLK
  5
972
330
966
100
AcDbEntity
  8
0
100
AcDbBlockEnd
  0
BLOCK
  5
981
330
976
100
AcDbEntity
  8
0
100
AcDbBlockBegin
  2
*D10
 70
     1
 10
0.0
 20
0.0
 30
0.0
  3
*D10
  1

  0
LINE
  5
237A
330
976
100
AcDbEntity
  8
DIM
 62
     0
370
    -2
100
AcDbLine
 10
18.92785271912186
 20
13.40909796311898
 30
0.0
 11
20.11367271912186
 21
13.40909796311898
 31
0.0
  0
LINE
  5
237B
330
976
100
AcDbEntity
  8
DIM
 62
     0
370
    -2
100
AcDbLine
 10
18.92785271912186
 20
13.72409796311898
 30
0.0
 11
20.11367271912186
 21
13.72409796311898
 31
0.0
  0
LINE
  5
237C
330
976
100
AcDbEntity
  8
DIM
 62
     0
370
    -2
100
AcDbLine
 10
19.88117271912186
 20
12.95909796311898
 30
0.0
 11
19.88117271912186
 21
12.50909796311898
 31
0.0
  0
LINE
  5
237D
330
976
100
AcDbEntity
  8
DIM
 62
     0
370
    -2
100
AcDbLine
 10
19.88117271912186
 20
14.17409796311898
 30
0.0
 11
19.88117271912186
 21
14.62409796311898
 31
0.0
  0
LINE
  5
237E
330
976
100
AcDbEntity
  8
DIM
 62
     0
370
    -2
100
AcDbLine
 10
19.88117271912186
 20
14.62409796311898
 30
0.0
 11
20.33117271912186
 21
14.62409796311898
 31
0.0
  0
SOLID
  5
237F
330
976
100
AcDbEntity
  8
DIM
 62
     0
100
AcDbTrace
 10
19.80617271912186
 20
12.95909796311898
 30
0.0
 11
19.95617271912186
 21
12.95909796311898
 31
0.0
 12
19.88117271912186
 22
13.40909796311898
 32
0.0
 13
19.88117271912186
 23
13.40909796311898
 33
0.0
  0
SOLID
  5
2380
330
976
100
AcDbEntity
  8
DIM
 62
     0
100
AcDbTrace
 10
19.80617271912186
 20
14.17409796311898
 30
0.0
 11
19.95617271912186
 21
14.17409796311898
 31
0.0
 12
19.88117271912186
 22
13.72409796311898
 32
0.0
 13
19.88117271912186
 23
13.72409796311898
 33
0.0
  0
MTEXT
  5
2381
330
976
100
AcDbEntity
  8
DIM
 62
     0
100
AcDbMText
 10
21.43507896912186
 20
14.62409796311899
 30
0.0
 40
0.3125
 41
0.0
 71
     5
 72
     1
  1
\A1;0.313 DIA.
 73
     1
 44
1.0
  0
POINT
  5
2382
330
976
100
AcDbEntity
  8
DEFPOINTS
 62
     0
100
AcDbPoint
 10
18.77035271912186
 20
13.40909796311898
 30
0.0
  0
POINT
  5
2383
330
976
100
AcDbEntity
  8
DEFPOINTS
 62
     0
100
AcDbPoint
 10
18.77035271912186
 20
13.72409796311898
 30
0.0
  0
POINT
  5
2384
330
976
100
AcDbEntity
  8
DEFPOINTS
 62
     0
100
AcDbPoint
 10
19.88117271912186
 20
13.72409796311898
 30
0.0
  0
ENDBLK
  5
982
330
976
100
AcDbEntity
  8
0
100
AcDbBlockEnd
  0
BLOCK
  5
98F
330
984
100
AcDbEntity
  8
0
100
AcDbBlockBegin
  2
*D11
 70
     1
 10
0.0
 20
0.0
 30
0.0
  3
*D11
  1

  0
LINE
  5
24E6
330
984
100
AcDbEntity
  8
DIM
 62
     0
370
    -2
100
AcDbLine
 10
18.77035271912186
 20
13.90634796311898
 30
0.0
 11
18.77035271912186
 21
15.40893896311898
 31
0.0
  0
LINE
  5
24E7
330
984
100
AcDbEntity
  8
DIM
 62
     0
370
    -2
100
AcDbLine
 10
16.93835271912186
 20
13.87834796311898
 30
0.0
 11
16.93835271912186
 21
15.40893896311898
 31
0.0
  0
LINE
  5
24E8
330
984
100
AcDbEntity
  8
DIM
 62
     0
370
    -2
100
AcDbLine
 10
19.22035271912186
 20
15.17643896311898
 30
0.0
 11
19.67035271912186
 21
15.17643896311898
 31
0.0
  0
LINE
  5
24E9
330
984
100
AcDbEntity
  8
DIM
 62
     0
370
    -2
100
AcDbLine
 10
16.48835271912186
 20
15.17643896311898
 30
0.0
 11
16.03835271912186
 21
15.17643896311898
 31
0.0
  0
SOLID
  5
24EA
330
984
100
AcDbEntity
  8
DIM
 62
     0
100
AcDbTrace
 10
19.22035271912186
 20
15.25143896311898
 30
0.0
 11
19.22035271912186
 21
15.10143896311898
 31
0.0
 12
18.77035271912186
 22
15.17643896311898
 32
0.0
 13
18.77035271912186
 23
15.17643896311898
 33
0.0
  0
SOLID
  5
24EB
330
984
100
AcDbEntity
  8
DIM
 62
     0
100
AcDbTrace
 10
16.48835271912186
 20
15.25143896311898
 30
0.0
 11
16.48835271912186
 21
15.10143896311898
 31
0.0
 12
16.93835271912186
 22
15.17643896311898
 32
0.0
 13
16.93835271912186
 23
15.17643896311898
 33
0.0
  0
MTEXT
  5
24EC
330
984
100
AcDbEntity
  8
DIM
 62
     0
100
AcDbMText
 10
17.85435271912186
 20
15.17643896311898
 30
0.0
 40
0.3125
 41
0.0
 71
     5
 72
     1
  1
\A1;1.832
 73
     1
 44
1.0
  0
POINT
  5
24ED
330
984
100
AcDbEntity
  8
DEFPOINTS
 62
     0
100
AcDbPoint
 10
18.77035271912186
 20
13.74884796311898
 30
0.0
  0
POINT
  5
24EE
330
984
100
AcDbEntity
  8
DEFPOINTS
 62
     0
100
AcDbPoint
 10
16.93835271912186
 20
13.72084796311898
 30
0.0
  0
POINT
  5
24EF
330
984
100
AcDbEntity
  8
DEFPOINTS
 62
     0
100
AcDbPoint
 10
16.93835271912186
 20
15.17643896311898
 30
0.0
  0
ENDBLK
  5
990
330
984
100
AcDbEntity
  8
0
100
AcDbBlockEnd
  0
BLOCK
  5
99D
330
992
100
AcDbEntity
  8
0
100
AcDbBlockBegin
  2
*D12
 70
     1
 10
0.0
 20
0.0
 30
0.0
  3
*D12
  1

  0
LINE
  5
24DC
330
992
100
AcDbEntity
  8
DIM
 62
     0
370
    -2
100
AcDbLine
 10
17.39460271912186
 20
13.87784796311898
 30
0.0
 11
17.39460271912186
 21
14.70643896311898
 31
0.0
  0
LINE
  5
24DD
330
992
100
AcDbEntity
  8
DIM
 62
     0
370
    -2
100
AcDbLine
 10
18.77035271912186
 20
13.90634796311898
 30
0.0
 11
18.77035271912186
 21
14.70643896311898
 31
0.0
  0
LINE
  5
24DE
330
992
100
AcDbEntity
  8
DIM
 62
     0
370
    -2
100
AcDbLine
 10
16.94460271912186
 20
14.47393896311898
 30
0.0
 11
16.49460271912186
 21
14.47393896311898
 31
0.0
  0
LINE
  5
24DF
330
992
100
AcDbEntity
  8
DIM
 62
     0
370
    -2
100
AcDbLine
 10
19.22035271912186
 20
14.47393896311898
 30
0.0
 11
19.67035271912186
 21
14.47393896311898
 31
0.0
  0
SOLID
  5
24E0
330
992
100
AcDbEntity
  8
DIM
 62
     0
100
AcDbTrace
 10
16.94460271912186
 20
14.54893896311898
 30
0.0
 11
16.94460271912186
 21
14.39893896311899
 31
0.0
 12
17.39460271912186
 22
14.47393896311898
 32
0.0
 13
17.39460271912186
 23
14.47393896311898
 33
0.0
  0
SOLID
  5
24E1
330
992
100
AcDbEntity
  8
DIM
 62
     0
100
AcDbTrace
 10
19.22035271912186
 20
14.54893896311898
 30
0.0
 11
19.22035271912186
 21
14.39893896311899
 31
0.0
 12
18.77035271912186
 22
14.47393896311898
 32
0.0
 13
18.77035271912186
 23
14.47393896311898
 33
0.0
  0
MTEXT
  5
24E2
330
992
100
AcDbEntity
  8
DIM
 62
     0
100
AcDbMText
 10
18.08247771912186
 20
14.47393896311898
 30
0.0
 40
0.3125
 41
0.0
 71
     5
 72
     1
  1
\A1;1.376
 73
     1
 44
1.0
  0
POINT
  5
24E3
330
992
100
AcDbEntity
  8
DEFPOINTS
 62
     0
100
AcDbPoint
 10
17.39460271912186
 20
13.72034796311898
 30
0.0
  0
POINT
  5
24E4
330
992
100
AcDbEntity
  8
DEFPOINTS
 62
     0
100
AcDbPoint
 10
18.77035271912186
 20
13.74884796311898
 30
0.0
  0
POINT
  5
24E5
330
992
100
AcDbEntity
  8
DEFPOINTS
 62
     0
100
AcDbPoint
 10
18.77035271912186
 20
14.47393896311898
 30
0.0
  0
ENDBLK
  5
99E
330
992
100
AcDbEntity
  8
0
100
AcDbBlockEnd
  0
BLOCK
  5
A13
330
A08
100
AcDbEntity
  8
0
100
AcDbBlockBegin
  2
*D13
 70
     1
 10
0.0
 20
0.0
 30
0.0
  3
*D13
  1

  0
LINE
  5
24D2
330
A08
100
AcDbEntity
  8
DIM
 62
     0
370
    -2
100
AcDbLine
 10
9.179801719121861
 20
13.27984796311898
 30
0.0
 11
9.179801719121861
 21
16.10661196311898
 31
0.0
  0
LINE
  5
24D3
330
A08
100
AcDbEntity
  8
DIM
 62
     0
370
    -2
100
AcDbLine
 10
10.95080171912186
 20
13.27984796311898
 30
0.0
 11
10.95080171912186
 21
16.10661196311898
 31
0.0
  0
LINE
  5
24D4
330
A08
100
AcDbEntity
  8
DIM
 62
     0
370
    -2
100
AcDbLine
 10
8.729801719121862
 20
15.87411196311898
 30
0.0
 11
8.279801719121861
 21
15.87411196311898
 31
0.0
  0
LINE
  5
24D5
330
A08
100
AcDbEntity
  8
DIM
 62
     0
370
    -2
100
AcDbLine
 10
11.40080171912186
 20
15.87411196311898
 30
0.0
 11
11.85080171912186
 21
15.87411196311898
 31
0.0
  0
SOLID
  5
24D6
330
A08
100
AcDbEntity
  8
DIM
 62
     0
100
AcDbTrace
 10
8.729801719121862
 20
15.94911196311898
 30
0.0
 11
8.729801719121862
 21
15.79911196311899
 31
0.0
 12
9.179801719121861
 22
15.87411196311898
 32
0.0
 13
9.179801719121861
 23
15.87411196311898
 33
0.0
  0
SOLID
  5
24D7
330
A08
100
AcDbEntity
  8
DIM
 62
     0
100
AcDbTrace
 10
11.40080171912186
 20
15.94911196311898
 30
0.0
 11
11.40080171912186
 21
15.79911196311899
 31
0.0
 12
10.95080171912186
 22
15.87411196311898
 32
0.0
 13
10.95080171912186
 23
15.87411196311898
 33
0.0
  0
MTEXT
  5
24D8
330
A08
100
AcDbEntity
  8
DIM
 62
     0
100
AcDbMText
 10
10.06530171912186
 20
15.87411196311898
 30
0.0
 40
0.3125
 41
0.0
 71
     5
 72
     1
  1
\A1;1.771
 73
     1
 44
1.0
  0
POINT
  5
24D9
330
A08
100
AcDbEntity
  8
DEFPOINTS
 62
     0
100
AcDbPoint
 10
9.179801719121861
 20
13.12234796311898
 30
0.0
  0
POINT
  5
24DA
330
A08
100
AcDbEntity
  8
DEFPOINTS
 62
     0
100
AcDbPoint
 10
10.95080171912186
 20
13.12234796311898
 30
0.0
  0
POINT
  5
24DB
330
A08
100
AcDbEntity
  8
DEFPOINTS
 62
     0
100
AcDbPoint
 10
10.95080171912186
 20
15.87411196311898
 30
0.0
  0
ENDBLK
  5
A14
330
A08
100
AcDbEntity
  8
0
100
AcDbBlockEnd
  0
BLOCK
  5
A21
330
A16
100
AcDbEntity
  8
0
100
AcDbBlockBegin
  2
*D14
 70
     1
 10
0.0
 20
0.0
 30
0.0
  3
*D14
  1

  0
LINE
  5
24BE
330
A16
100
AcDbEntity
  8
DIM
 62
     0
370
    -2
100
AcDbLine
 10
9.080801719121863
 20
13.71628596311898
 30
0.0
 11
9.080801719121863
 21
17.51161196311898
 31
0.0
  0
LINE
  5
24BF
330
A16
100
AcDbEntity
  8
DIM
 62
     0
370
    -2
100
AcDbLine
 10
11.04980171912186
 20
13.71628596311898
 30
0.0
 11
11.04980171912186
 21
17.51161196311898
 31
0.0
  0
LINE
  5
24C0
330
A16
100
AcDbEntity
  8
DIM
 62
     0
370
    -2
100
AcDbLine
 10
8.630801719121864
 20
17.27911196311898
 30
0.0
 11
8.180801719121863
 21
17.27911196311898
 31
0.0
  0
LINE
  5
24C1
330
A16
100
AcDbEntity
  8
DIM
 62
     0
370
    -2
100
AcDbLine
 10
11.49980171912186
 20
17.27911196311898
 30
0.0
 11
11.94980171912186
 21
17.27911196311898
 31
0.0
  0
SOLID
  5
24C2
330
A16
100
AcDbEntity
  8
DIM
 62
     0
100
AcDbTrace
 10
8.630801719121864
 20
17.35411196311899
 30
0.0
 11
8.630801719121864
 21
17.20411196311899
 31
0.0
 12
9.080801719121863
 22
17.27911196311898
 32
0.0
 13
9.080801719121863
 23
17.27911196311898
 33
0.0
  0
SOLID
  5
24C3
330
A16
100
AcDbEntity
  8
DIM
 62
     0
100
AcDbTrace
 10
11.49980171912186
 20
17.35411196311899
 30
0.0
 11
11.49980171912186
 21
17.20411196311899
 31
0.0
 12
11.04980171912186
 22
17.27911196311898
 32
0.0
 13
11.04980171912186
 23
17.27911196311898
 33
0.0
  0
MTEXT
  5
24C4
330
A16
100
AcDbEntity
  8
DIM
 62
     0
100
AcDbMText
 10
10.06530171912186
 20
17.27911196311898
 30
0.0
 40
0.3125
 41
0.0
 71
     5
 72
     1
  1
\A1;1.889
 73
     1
 44
1.0
  0
POINT
  5
24C5
330
A16
100
AcDbEntity
  8
DEFPOINTS
 62
     0
100
AcDbPoint
 10
9.080801719121863
 20
13.55878596311898
 30
0.0
  0
POINT
  5
24C6
330
A16
100
AcDbEntity
  8
DEFPOINTS
 62
     0
100
AcDbPoint
 10
11.04980171912186
 20
13.55878596311898
 30
0.0
  0
POINT
  5
24C7
330
A16
100
AcDbEntity
  8
DEFPOINTS
 62
     0
100
AcDbPoint
 10
11.04980171912186
 20
17.27911196311898
 30
0.0
  0
ENDBLK
  5
A22
330
A16
100
AcDbEntity
  8
0
100
AcDbBlockEnd
  0
BLOCK
  5
A2F
330
A24
100
AcDbEntity
  8
0
100
AcDbBlockBegin
  2
*D15
 70
     1
 10
0.0
 20
0.0
 30
0.0
  3
*D15
  1

  0
LINE
  5
24B4
330
A24
100
AcDbEntity
  8
DIM
 62
     0
370
    -2
100
AcDbLine
 10
8.726801719121862
 20
13.72409796311898
 30
0.0
 11
8.726801719121862
 21
18.91661196311899
 31
0.0
  0
LINE
  5
24B5
330
A24
100
AcDbEntity
  8
DIM
 62
     0
370
    -2
100
AcDbLine
 10
11.40380171912186
 20
13.72409796311898
 30
0.0
 11
11.40380171912186
 21
18.91661196311899
 31
0.0
  0
LINE
  5
24B6
330
A24
100
AcDbEntity
  8
DIM
 62
     0
370
    -2
100
AcDbLine
 10
8.276801719121863
 20
18.68411196311898
 30
0.0
 11
7.826801719121862
 21
18.68411196311898
 31
0.0
  0
LINE
  5
24B7
330
A24
100
AcDbEntity
  8
DIM
 62
     0
370
    -2
100
AcDbLine
 10
11.85380171912186
 20
18.68411196311898
 30
0.0
 11
12.30380171912186
 21
18.68411196311898
 31
0.0
  0
SOLID
  5
24B8
330
A24
100
AcDbEntity
  8
DIM
 62
     0
100
AcDbTrace
 10
8.276801719121863
 20
18.75911196311898
 30
0.0
 11
8.276801719121863
 21
18.60911196311898
 31
0.0
 12
8.726801719121862
 22
18.68411196311898
 32
0.0
 13
8.726801719121862
 23
18.68411196311898
 33
0.0
  0
SOLID
  5
24B9
330
A24
100
AcDbEntity
  8
DIM
 62
     0
100
AcDbTrace
 10
11.85380171912186
 20
18.75911196311898
 30
0.0
 11
11.85380171912186
 21
18.60911196311898
 31
0.0
 12
11.40380171912186
 22
18.68411196311898
 32
0.0
 13
11.40380171912186
 23
18.68411196311898
 33
0.0
  0
MTEXT
  5
24BA
330
A24
100
AcDbEntity
  8
DIM
 62
     0
100
AcDbMText
 10
10.06530171912186
 20
18.68411196311898
 30
0.0
 40
0.3125
 41
0.0
 71
     5
 72
     1
  1
\A1;2.677
 73
     1
 44
1.0
  0
POINT
  5
24BB
330
A24
100
AcDbEntity
  8
DEFPOINTS
 62
     0
100
AcDbPoint
 10
8.726801719121862
 20
13.56659796311898
 30
0.0
  0
POINT
  5
24BC
330
A24
100
AcDbEntity
  8
DEFPOINTS
 62
     0
100
AcDbPoint
 10
11.40380171912186
 20
13.56659796311898
 30
0.0
  0
POINT
  5
24BD
330
A24
100
AcDbEntity
  8
DEFPOINTS
 62
     0
100
AcDbPoint
 10
11.40380171912186
 20
18.68411196311898
 30
0.0
  0
ENDBLK
  5
A30
330
A24
100
AcDbEntity
  8
0
100
AcDbBlockEnd
  0
BLOCK
  5
A3D
330
A32
100
AcDbEntity
  8
0
100
AcDbBlockBegin
  2
*D16
 70
     1
 10
0.0
 20
0.0
 30
0.0
  3
*D16
  1

  0
LINE
  5
23C2
330
A32
100
AcDbEntity
  8
DIM
 62
     0
370
    -2
100
AcDbLine
 10
9.022301719121861
 20
13.12234796311898
 30
0.0
 11
5.849381719121862
 21
13.12234796311898
 31
0.0
  0
LINE
  5
23C3
330
A32
100
AcDbEntity
  8
DIM
 62
     0
370
    -2
100
AcDbLine
 10
9.022301719121861
 20
10.46534796311898
 30
0.0
 11
5.849381719121862
 21
10.46534796311898
 31
0.0
  0
LINE
  5
23C4
330
A32
100
AcDbEntity
  8
DIM
 62
     0
370
    -2
100
AcDbLine
 10
6.081881719121862
 20
12.67234796311898
 30
0.0
 11
6.081881719121862
 21
12.17509796311898
 31
0.0
  0
LINE
  5
23C5
330
A32
100
AcDbEntity
  8
DIM
 62
     0
370
    -2
100
AcDbLine
 10
6.081881719121862
 20
10.91534796311898
 30
0.0
 11
6.081881719121862
 21
11.41259796311898
 31
0.0
  0
SOLID
  5
23C6
330
A32
100
AcDbEntity
  8
DIM
 62
     0
100
AcDbTrace
 10
6.006881719121862
 20
12.67234796311898
 30
0.0
 11
6.156881719121862
 21
12.67234796311898
 31
0.0
 12
6.081881719121862
 22
13.12234796311898
 32
0.0
 13
6.081881719121862
 23
13.12234796311898
 33
0.0
  0
SOLID
  5
23C7
330
A32
100
AcDbEntity
  8
DIM
 62
     0
100
AcDbTrace
 10
6.006881719121862
 20
10.91534796311898
 30
0.0
 11
6.156881719121862
 21
10.91534796311898
 31
0.0
 12
6.081881719121862
 22
10.46534796311898
 32
0.0
 13
6.081881719121862
 23
10.46534796311898
 33
0.0
  0
MTEXT
  5
23C8
330
A32
100
AcDbEntity
  8
DIM
 62
     0
100
AcDbMText
 10
6.08188171912186
 20
11.79384796311898
 30
0.0
 40
0.3125
 41
0.0
 71
     5
 72
     1
  1
\A1;2.657
 73
     1
 44
1.0
  0
POINT
  5
23C9
330
A32
100
AcDbEntity
  8
DEFPOINTS
 62
     0
100
AcDbPoint
 10
9.179801719121861
 20
13.12234796311898
 30
0.0
  0
POINT
  5
23CA
330
A32
100
AcDbEntity
  8
DEFPOINTS
 62
     0
100
AcDbPoint
 10
9.179801719121861
 20
10.46534796311898
 30
0.0
  0
POINT
  5
23CB
330
A32
100
AcDbEntity
  8
DEFPOINTS
 62
     0
100
AcDbPoint
 10
6.081881719121862
 20
10.46534796311898
 30
0.0
  0
ENDBLK
  5
A3E
330
A32
100
AcDbEntity
  8
0
100
AcDbBlockEnd
  0
BLOCK
  5
A4B
330
A40
100
AcDbEntity
  8
0
100
AcDbBlockBegin
  2
*D17
 70
     1
 10
0.0
 20
0.0
 30
0.0
  3
*D17
  1

  0
LINE
  5
2412
330
A40
100
AcDbEntity
  8
DIM
 62
     0
370
    -2
100
AcDbLine
 10
9.022301719121861
 20
10.46534796311898
 30
0.0
 11
5.849381719121863
 21
10.46534796311898
 31
0.0
  0
LINE
  5
2413
330
A40
100
AcDbEntity
  8
DIM
 62
     0
370
    -2
100
AcDbLine
 10
9.022301719121861
 20
9.481347963118986
 30
0.0
 11
5.849381719121862
 21
9.481347963118986
 31
0.0
  0
LINE
  5
2414
330
A40
100
AcDbEntity
  8
DIM
 62
     0
370
    -2
100
AcDbLine
 10
6.081881719121863
 20
10.91534796311898
 30
0.0
 11
6.081881719121863
 21
11.36534796311898
 31
0.0
  0
LINE
  5
2415
330
A40
100
AcDbEntity
  8
DIM
 62
     0
370
    -2
100
AcDbLine
 10
6.081881719121862
 20
9.031347963118987
 30
0.0
 11
6.081881719121862
 21
8.581347963118986
 31
0.0
  0
SOLID
  5
2416
330
A40
100
AcDbEntity
  8
DIM
 62
     0
100
AcDbTrace
 10
6.006881719121863
 20
10.91534796311898
 30
0.0
 11
6.156881719121863
 21
10.91534796311898
 31
0.0
 12
6.081881719121863
 22
10.46534796311898
 32
0.0
 13
6.081881719121863
 23
10.46534796311898
 33
0.0
  0
SOLID
  5
2417
330
A40
100
AcDbEntity
  8
DIM
 62
     0
100
AcDbTrace
 10
6.006881719121862
 20
9.031347963118987
 30
0.0
 11
6.156881719121862
 21
9.031347963118987
 31
0.0
 12
6.081881719121862
 22
9.481347963118986
 32
0.0
 13
6.081881719121862
 23
9.481347963118986
 33
0.0
  0
MTEXT
  5
2418
330
A40
100
AcDbEntity
  8
DIM
 62
     0
100
AcDbMText
 10
6.081881719121861
 20
9.973347963118989
 30
0.0
 40
0.3125
 41
0.0
 71
     5
 72
     1
  1
\A1;0.984
 73
     1
 44
1.0
  0
POINT
  5
2419
330
A40
100
AcDbEntity
  8
DEFPOINTS
 62
     0
100
AcDbPoint
 10
9.179801719121861
 20
10.46534796311898
 30
0.0
  0
POINT
  5
241A
330
A40
100
AcDbEntity
  8
DEFPOINTS
 62
     0
100
AcDbPoint
 10
9.179801719121861
 20
9.481347963118986
 30
0.0
  0
POINT
  5
241B
330
A40
100
AcDbEntity
  8
DEFPOINTS
 62
     0
100
AcDbPoint
 10
6.081881719121862
 20
9.481347963118986
 30
0.0
  0
ENDBLK
  5
A4C
330
A40
100
AcDbEntity
  8
0
100
AcDbBlockEnd
  0
BLOCK
  5
A59
330
A4E
100
AcDbEntity
  8
0
100
AcDbBlockBegin
  2
*D18
 70
     1
 10
0.0
 20
0.0
 30
0.0
  3
*D18
  1

  0
LINE
  5
2408
330
A4E
100
AcDbEntity
  8
DIM
 62
     0
370
    -2
100
AcDbLine
 10
9.022301719121861
 20
9.481347963118986
 30
0.0
 11
5.852574719121863
 21
9.481347963118986
 31
0.0
  0
LINE
  5
2409
330
A4E
100
AcDbEntity
  8
DIM
 62
     0
370
    -2
100
AcDbLine
 10
9.022301719121861
 20
6.823347963118987
 30
0.0
 11
5.852574719121863
 21
6.823347963118988
 31
0.0
  0
LINE
  5
240A
330
A4E
100
AcDbEntity
  8
DIM
 62
     0
370
    -2
100
AcDbLine
 10
6.085074719121863
 20
9.031347963118987
 30
0.0
 11
6.085074719121863
 21
8.533597963118987
 31
0.0
  0
LINE
  5
240B
330
A4E
100
AcDbEntity
  8
DIM
 62
     0
370
    -2
100
AcDbLine
 10
6.085074719121863
 20
7.273347963118987
 30
0.0
 11
6.085074719121863
 21
7.771097963118988
 31
0.0
  0
SOLID
  5
240C
330
A4E
100
AcDbEntity
  8
DIM
 62
     0
100
AcDbTrace
 10
6.010074719121862
 20
9.031347963118987
 30
0.0
 11
6.160074719121863
 21
9.031347963118987
 31
0.0
 12
6.085074719121863
 22
9.481347963118986
 32
0.0
 13
6.085074719121863
 23
9.481347963118986
 33
0.0
  0
SOLID
  5
240D
330
A4E
100
AcDbEntity
  8
DIM
 62
     0
100
AcDbTrace
 10
6.010074719121862
 20
7.273347963118987
 30
0.0
 11
6.160074719121863
 21
7.273347963118987
 31
0.0
 12
6.085074719121863
 22
6.823347963118987
 32
0.0
 13
6.085074719121863
 23
6.823347963118987
 33
0.0
  0
MTEXT
  5
240E
330
A4E
100
AcDbEntity
  8
DIM
 62
     0
100
AcDbMText
 10
6.085074719121862
 20
8.152347963118989
 30
0.0
 40
0.3125
 41
0.0
 71
     5
 72
     1
  1
\A1;2.657
 73
     1
 44
1.0
  0
POINT
  5
240F
330
A4E
100
AcDbEntity
  8
DEFPOINTS
 62
     0
100
AcDbPoint
 10
9.179801719121861
 20
9.481347963118986
 30
0.0
  0
POINT
  5
2410
330
A4E
100
AcDbEntity
  8
DEFPOINTS
 62
     0
100
AcDbPoint
 10
9.179801719121861
 20
6.823347963118987
 30
0.0
  0
POINT
  5
2411
330
A4E
100
AcDbEntity
  8
DEFPOINTS
 62
     0
100
AcDbPoint
 10
6.085074719121863
 20
6.823347963118987
 30
0.0
  0
ENDBLK
  5
A5A
330
A4E
100
AcDbEntity
  8
0
100
AcDbBlockEnd
  0
BLOCK
  5
A67
330
A5C
100
AcDbEntity
  8
0
100
AcDbBlockBegin
  2
*D19
 70
     1
 10
0.0
 20
0.0
 30
0.0
  3
*D19
  1

  0
LINE
  5
23FE
330
A5C
100
AcDbEntity
  8
DIM
 62
     0
370
    -2
100
AcDbLine
 10
9.022301719121861
 20
6.823347963118987
 30
0.0
 11
5.852574719121863
 21
6.823347963118988
 31
0.0
  0
LINE
  5
23FF
330
A5C
100
AcDbEntity
  8
DIM
 62
     0
370
    -2
100
AcDbLine
 10
8.552051719121861
 20
6.134347963118987
 30
0.0
 11
5.852574719121863
 21
6.134347963118988
 31
0.0
  0
LINE
  5
2400
330
A5C
100
AcDbEntity
  8
DIM
 62
     0
370
    -2
100
AcDbLine
 10
6.085074719121863
 20
7.273347963118987
 30
0.0
 11
6.085074719121863
 21
7.723347963118987
 31
0.0
  0
LINE
  5
2401
330
A5C
100
AcDbEntity
  8
DIM
 62
     0
370
    -2
100
AcDbLine
 10
6.085074719121862
 20
5.684347963118987
 30
0.0
 11
6.085074719121862
 21
5.234347963118986
 31
0.0
  0
SOLID
  5
2402
330
A5C
100
AcDbEntity
  8
DIM
 62
     0
100
AcDbTrace
 10
6.010074719121862
 20
7.273347963118987
 30
0.0
 11
6.160074719121863
 21
7.273347963118987
 31
0.0
 12
6.085074719121863
 22
6.823347963118987
 32
0.0
 13
6.085074719121863
 23
6.823347963118987
 33
0.0
  0
SOLID
  5
2403
330
A5C
100
AcDbEntity
  8
DIM
 62
     0
100
AcDbTrace
 10
6.010074719121861
 20
5.684347963118987
 30
0.0
 11
6.160074719121862
 21
5.684347963118987
 31
0.0
 12
6.085074719121863
 22
6.134347963118987
 32
0.0
 13
6.085074719121863
 23
6.134347963118987
 33
0.0
  0
MTEXT
  5
2404
330
A5C
100
AcDbEntity
  8
DIM
 62
     0
100
AcDbMText
 10
6.085074719121861
 20
6.478847963118989
 30
0.0
 40
0.3125
 41
0.0
 71
     5
 72
     1
  1
\A1;0.689
 73
     1
 44
1.0
  0
POINT
  5
2405
330
A5C
100
AcDbEntity
  8
DEFPOINTS
 62
     0
100
AcDbPoint
 10
9.179801719121861
 20
6.823347963118987
 30
0.0
  0
POINT
  5
2406
330
A5C
100
AcDbEntity
  8
DEFPOINTS
 62
     0
100
AcDbPoint
 10
8.709551719121861
 20
6.134347963118987
 30
0.0
  0
POINT
  5
2407
330
A5C
100
AcDbEntity
  8
DEFPOINTS
 62
     0
100
AcDbPoint
 10
6.085074719121863
 20
6.134347963118987
 30
0.0
  0
ENDBLK
  5
A68
330
A5C
100
AcDbEntity
  8
0
100
AcDbBlockEnd
  0
BLOCK
  5
A75
330
A6A
100
AcDbEntity
  8
0
100
AcDbBlockBegin
  2
*D20
 70
     1
 10
0.0
 20
0.0
 30
0.0
  3
*D20
  1

  0
LINE
  5
23B8
330
A6A
100
AcDbEntity
  8
DIM
 62
     0
370
    -2
100
AcDbLine
 10
9.022301719121861
 20
13.12234796311898
 30
0.0
 11
5.852574719121863
 21
13.12234796311898
 31
0.0
  0
LINE
  5
23B9
330
A6A
100
AcDbEntity
  8
DIM
 62
     0
370
    -2
100
AcDbLine
 10
8.552051719121861
 20
13.81134796311898
 30
0.0
 11
5.852574719121863
 21
13.81134796311898
 31
0.0
  0
LINE
  5
23BA
330
A6A
100
AcDbEntity
  8
DIM
 62
     0
370
    -2
100
AcDbLine
 10
6.085074719121863
 20
12.67234796311898
 30
0.0
 11
6.085074719121863
 21
12.22234796311898
 31
0.0
  0
LINE
  5
23BB
330
A6A
100
AcDbEntity
  8
DIM
 62
     0
370
    -2
100
AcDbLine
 10
6.085074719121863
 20
14.26134796311898
 30
0.0
 11
6.085074719121863
 21
14.71134796311898
 31
0.0
  0
SOLID
  5
23BC
330
A6A
100
AcDbEntity
  8
DIM
 62
     0
100
AcDbTrace
 10
6.010074719121862
 20
12.67234796311898
 30
0.0
 11
6.160074719121863
 21
12.67234796311898
 31
0.0
 12
6.085074719121863
 22
13.12234796311898
 32
0.0
 13
6.085074719121863
 23
13.12234796311898
 33
0.0
  0
SOLID
  5
23BD
330
A6A
100
AcDbEntity
  8
DIM
 62
     0
100
AcDbTrace
 10
6.010074719121863
 20
14.26134796311898
 30
0.0
 11
6.160074719121864
 21
14.26134796311898
 31
0.0
 12
6.085074719121863
 22
13.81134796311898
 32
0.0
 13
6.085074719121863
 23
13.81134796311898
 33
0.0
  0
MTEXT
  5
23BE
330
A6A
100
AcDbEntity
  8
DIM
 62
     0
100
AcDbMText
 10
6.085074719121861
 20
13.46684796311898
 30
0.0
 40
0.3125
 41
0.0
 71
     5
 72
     1
  1
\A1;0.689
 73
     1
 44
1.0
  0
POINT
  5
23BF
330
A6A
100
AcDbEntity
  8
DEFPOINTS
 62
     0
100
AcDbPoint
 10
9.179801719121861
 20
13.12234796311898
 30
0.0
  0
POINT
  5
23C0
330
A6A
100
AcDbEntity
  8
DEFPOINTS
 62
     0
100
AcDbPoint
 10
8.709551719121861
 20
13.81134796311898
 30
0.0
  0
POINT
  5
23C1
330
A6A
100
AcDbEntity
  8
DEFPOINTS
 62
     0
100
AcDbPoint
 10
6.085074719121863
 20
13.81134796311898
 30
0.0
  0
ENDBLK
  5
A76
330
A6A
100
AcDbEntity
  8
0
100
AcDbBlockEnd
  0
BLOCK
  5
A83
330
A78
100
AcDbEntity
  8
0
100
AcDbBlockBegin
  2
*D21
 70
     1
 10
0.0
 20
0.0
 30
0.0
  3
*D21
  1

  0
LINE
  5
23AE
330
A78
100
AcDbEntity
  8
DIM
 62
     0
370
    -2
100
AcDbLine
 10
11.56130171912186
 20
13.56659796311898
 30
0.0
 11
14.18767971912186
 21
13.56659796311898
 31
0.0
  0
LINE
  5
23AF
330
A78
100
AcDbEntity
  8
DIM
 62
     0
370
    -2
100
AcDbLine
 10
11.56130171912186
 20
9.973347963118987
 30
0.0
 11
14.18767971912186
 21
9.973347963118985
 31
0.0
  0
LINE
  5
23B0
330
A78
100
AcDbEntity
  8
DIM
 62
     0
370
    -2
100
AcDbLine
 10
13.95517971912186
 20
13.11659796311898
 30
0.0
 11
13.95517971912186
 21
12.15122296311898
 31
0.0
  0
LINE
  5
23B1
330
A78
100
AcDbEntity
  8
DIM
 62
     0
370
    -2
100
AcDbLine
 10
13.95517971912186
 20
10.42334796311898
 30
0.0
 11
13.95517971912186
 21
11.38872296311898
 31
0.0
  0
SOLID
  5
23B2
330
A78
100
AcDbEntity
  8
DIM
 62
     0
100
AcDbTrace
 10
13.88017971912186
 20
13.11659796311898
 30
0.0
 11
14.03017971912186
 21
13.11659796311898
 31
0.0
 12
13.95517971912186
 22
13.56659796311898
 32
0.0
 13
13.95517971912186
 23
13.56659796311898
 33
0.0
  0
SOLID
  5
23B3
330
A78
100
AcDbEntity
  8
DIM
 62
     0
100
AcDbTrace
 10
13.88017971912186
 20
10.42334796311898
 30
0.0
 11
14.03017971912186
 21
10.42334796311898
 31
0.0
 12
13.95517971912186
 22
9.973347963118985
 32
0.0
 13
13.95517971912186
 23
9.973347963118985
 33
0.0
  0
MTEXT
  5
23B4
330
A78
100
AcDbEntity
  8
DIM
 62
     0
100
AcDbMText
 10
13.95517971912186
 20
11.76997296311898
 30
0.0
 40
0.3125
 41
0.0
 71
     5
 72
     1
  1
\A1;3.602
 73
     1
 44
1.0
  0
POINT
  5
23B5
330
A78
100
AcDbEntity
  8
DEFPOINTS
 62
     0
100
AcDbPoint
 10
11.40380171912186
 20
13.56659796311898
 30
0.0
  0
POINT
  5
23B6
330
A78
100
AcDbEntity
  8
DEFPOINTS
 62
     0
100
AcDbPoint
 10
11.40380171912186
 20
9.973347963118987
 30
0.0
  0
POINT
  5
23B7
330
A78
100
AcDbEntity
  8
DEFPOINTS
 62
     0
100
AcDbPoint
 10
13.95517971912186
 20
9.973347963118985
 30
0.0
  0
ENDBLK
  5
A84
330
A78
100
AcDbEntity
  8
0
100
AcDbBlockEnd
  0
BLOCK
  5
A91
330
A86
100
AcDbEntity
  8
0
100
AcDbBlockBegin
  2
*D22
 70
     1
 10
0.0
 20
0.0
 30
0.0
  3
*D22
  1

  0
LINE
  5
2495
330
A86
100
AcDbEntity
  8
DIM
 62
     0
370
    -2
100
AcDbLine
 10
11.56130171912186
 20
13.56659796311898
 30
0.0
 11
14.18767971912186
 21
13.56659796311898
 31
0.0
  0
LINE
  5
2496
330
A86
100
AcDbEntity
  8
DIM
 62
     0
370
    -2
100
AcDbLine
 10
11.57855171912186
 20
13.81134796311898
 30
0.0
 11
14.18767971912186
 21
13.81134796311898
 31
0.0
  0
LINE
  5
2497
330
A86
100
AcDbEntity
  8
DIM
 62
     0
370
    -2
100
AcDbLine
 10
13.95517971912186
 20
13.11659796311898
 30
0.0
 11
13.95517971912186
 21
12.66659796311898
 31
0.0
  0
LINE
  5
2498
330
A86
100
AcDbEntity
  8
DIM
 62
     0
370
    -2
100
AcDbLine
 10
13.95517971912186
 20
14.26134796311898
 30
0.0
 11
13.95517971912186
 21
14.71134796311898
 31
0.0
  0
LINE
  5
2499
330
A86
100
AcDbEntity
  8
DIM
 62
     0
370
    -2
100
AcDbLine
 10
13.95517971912186
 20
14.71134796311898
 30
0.0
 11
14.40517971912186
 21
14.71134796311898
 31
0.0
  0
SOLID
  5
249A
330
A86
100
AcDbEntity
  8
DIM
 62
     0
100
AcDbTrace
 10
13.88017971912186
 20
13.11659796311898
 30
0.0
 11
14.03017971912186
 21
13.11659796311898
 31
0.0
 12
13.95517971912186
 22
13.56659796311898
 32
0.0
 13
13.95517971912186
 23
13.56659796311898
 33
0.0
  0
SOLID
  5
249B
330
A86
100
AcDbEntity
  8
DIM
 62
     0
100
AcDbTrace
 10
13.88017971912186
 20
14.26134796311898
 30
0.0
 11
14.03017971912186
 21
14.26134796311898
 31
0.0
 12
13.95517971912186
 22
13.81134796311898
 32
0.0
 13
13.95517971912186
 23
13.81134796311898
 33
0.0
  0
MTEXT
  5
249C
330
A86
100
AcDbEntity
  8
DIM
 62
     0
100
AcDbMText
 10
15.07939846912186
 20
14.71134796311898
 30
0.0
 40
0.3125
 41
0.0
 71
     5
 72
     1
  1
\A1;0.236
 73
     1
 44
1.0
  0
POINT
  5
249D
330
A86
100
AcDbEntity
  8
DEFPOINTS
 62
     0
100
AcDbPoint
 10
11.40380171912186
 20
13.56659796311898
 30
0.0
  0
POINT
  5
249E
330
A86
100
AcDbEntity
  8
DEFPOINTS
 62
     0
100
AcDbPoint
 10
11.42105171912186
 20
13.81134796311898
 30
0.0
  0
POINT
  5
249F
330
A86
100
AcDbEntity
  8
DEFPOINTS
 62
     0
100
AcDbPoint
 10
13.95517971912186
 20
13.81134796311898
 30
0.0
  0
ENDBLK
  5
A92
330
A86
100
AcDbEntity
  8
0
100
AcDbBlockEnd
  0
BLOCK
  5
A9F
330
A94
100
AcDbEntity
  8
0
100
AcDbBlockBegin
  2
*D23
 70
     1
 10
0.0
 20
0.0
 30
0.0
  3
*D23
  1

  0
LINE
  5
244E
330
A94
100
AcDbEntity
  8
DIM
 62
     0
370
    -2
100
AcDbLine
 10
11.56130171912186
 20
9.973347963118987
 30
0.0
 11
14.18767971912186
 21
9.973347963118985
 31
0.0
  0
LINE
  5
244F
330
A94
100
AcDbEntity
  8
DIM
 62
     0
370
    -2
100
AcDbLine
 10
11.56130171912186
 20
6.379097963118987
 30
0.0
 11
14.18767971912186
 21
6.379097963118986
 31
0.0
  0
LINE
  5
2450
330
A94
100
AcDbEntity
  8
DIM
 62
     0
370
    -2
100
AcDbLine
 10
13.95517971912186
 20
9.523347963118986
 30
0.0
 11
13.95517971912186
 21
8.557472963118986
 31
0.0
  0
LINE
  5
2451
330
A94
100
AcDbEntity
  8
DIM
 62
     0
370
    -2
100
AcDbLine
 10
13.95517971912186
 20
6.829097963118987
 30
0.0
 11
13.95517971912186
 21
7.794972963118987
 31
0.0
  0
SOLID
  5
2452
330
A94
100
AcDbEntity
  8
DIM
 62
     0
100
AcDbTrace
 10
13.88017971912186
 20
9.523347963118986
 30
0.0
 11
14.03017971912186
 21
9.523347963118986
 31
0.0
 12
13.95517971912186
 22
9.973347963118985
 32
0.0
 13
13.95517971912186
 23
9.973347963118985
 33
0.0
  0
SOLID
  5
2453
330
A94
100
AcDbEntity
  8
DIM
 62
     0
100
AcDbTrace
 10
13.88017971912186
 20
6.829097963118987
 30
0.0
 11
14.03017971912186
 21
6.829097963118986
 31
0.0
 12
13.95517971912186
 22
6.379097963118987
 32
0.0
 13
13.95517971912186
 23
6.379097963118987
 33
0.0
  0
MTEXT
  5
2454
330
A94
100
AcDbEntity
  8
DIM
 62
     0
100
AcDbMText
 10
13.95517971912186
 20
8.176222963118989
 30
0.0
 40
0.3125
 41
0.0
 71
     5
 72
     1
  1
\A1;3.602
 73
     1
 44
1.0
  0
POINT
  5
2455
330
A94
100
AcDbEntity
  8
DEFPOINTS
 62
     0
100
AcDbPoint
 10
11.40380171912186
 20
9.973347963118987
 30
0.0
  0
POINT
  5
2456
330
A94
100
AcDbEntity
  8
DEFPOINTS
 62
     0
100
AcDbPoint
 10
11.40380171912186
 20
6.379097963118987
 30
0.0
  0
POINT
  5
2457
330
A94
100
AcDbEntity
  8
DEFPOINTS
 62
     0
100
AcDbPoint
 10
13.95517971912186
 20
6.379097963118987
 30
0.0
  0
ENDBLK
  5
AA0
330
A94
100
AcDbEntity
  8
0
100
AcDbBlockEnd
  0
BLOCK
  5
AAD
330
AA2
100
AcDbEntity
  8
0
100
AcDbBlockBegin
  2
*D24
 70
     1
 10
0.0
 20
0.0
 30
0.0
  3
*D24
  1

  0
LINE
  5
2458
330
AA2
100
AcDbEntity
  8
DIM
 62
     0
370
    -2
100
AcDbLine
 10
11.56130171912186
 20
6.379097963118987
 30
0.0
 11
14.18767971912186
 21
6.379097963118986
 31
0.0
  0
LINE
  5
2459
330
AA2
100
AcDbEntity
  8
DIM
 62
     0
370
    -2
100
AcDbLine
 10
11.57855171912186
 20
6.134347963118987
 30
0.0
 11
14.18767971912186
 21
6.134347963118986
 31
0.0
  0
LINE
  5
245A
330
AA2
100
AcDbEntity
  8
DIM
 62
     0
370
    -2
100
AcDbLine
 10
13.95517971912186
 20
6.829097963118987
 30
0.0
 11
13.95517971912186
 21
7.279097963118986
 31
0.0
  0
LINE
  5
245B
330
AA2
100
AcDbEntity
  8
DIM
 62
     0
370
    -2
100
AcDbLine
 10
13.95517971912186
 20
5.684347963118987
 30
0.0
 11
13.95517971912186
 21
5.234347963118987
 31
0.0
  0
LINE
  5
245C
330
AA2
100
AcDbEntity
  8
DIM
 62
     0
370
    -2
100
AcDbLine
 10
13.95517971912186
 20
5.234347963118987
 30
0.0
 11
13.50517971912186
 21
5.234347963118987
 31
0.0
  0
SOLID
  5
245D
330
AA2
100
AcDbEntity
  8
DIM
 62
     0
100
AcDbTrace
 10
13.88017971912186
 20
6.829097963118987
 30
0.0
 11
14.03017971912186
 21
6.829097963118986
 31
0.0
 12
13.95517971912186
 22
6.379097963118987
 32
0.0
 13
13.95517971912186
 23
6.379097963118987
 33
0.0
  0
SOLID
  5
245E
330
AA2
100
AcDbEntity
  8
DIM
 62
     0
100
AcDbTrace
 10
13.88017971912186
 20
5.684347963118987
 30
0.0
 11
14.03017971912186
 21
5.684347963118986
 31
0.0
 12
13.95517971912186
 22
6.134347963118987
 32
0.0
 13
13.95517971912186
 23
6.134347963118987
 33
0.0
  0
MTEXT
  5
245F
330
AA2
100
AcDbEntity
  8
DIM
 62
     0
100
AcDbMText
 10
12.83096096912186
 20
5.234347963118989
 30
0.0
 40
0.3125
 41
0.0
 71
     5
 72
     1
  1
\A1;0.236
 73
     1
 44
1.0
  0
POINT
  5
2460
330
AA2
100
AcDbEntity
  8
DEFPOINTS
 62
     0
100
AcDbPoint
 10
11.40380171912186
 20
6.379097963118987
 30
0.0
  0
POINT
  5
2461
330
AA2
100
AcDbEntity
  8
DEFPOINTS
 62
     0
100
AcDbPoint
 10
11.42105171912186
 20
6.134347963118987
 30
0.0
  0
POINT
  5
2462
330
AA2
100
AcDbEntity
  8
DEFPOINTS
 62
     0
100
AcDbPoint
 10
13.95517971912186
 20
6.134347963118987
 30
0.0
  0
ENDBLK
  5
AAE
330
AA2
100
AcDbEntity
  8
0
100
AcDbBlockEnd
  0
BLOCK
  5
ABB
330
AB0
100
AcDbEntity
  8
0
100
AcDbBlockBegin
  2
*D25
 70
     1
 10
0.0
 20
0.0
 30
0.0
  3
*D25
  1

  0
LINE
  5
248B
330
AB0
100
AcDbEntity
  8
DIM
 62
     0
370
    -2
100
AcDbLine
 10
8.726801719121862
 20
13.72409796311898
 30
0.0
 11
8.726801719121862
 21
18.21411196311898
 31
0.0
  0
LINE
  5
248C
330
AB0
100
AcDbEntity
  8
DIM
 62
     0
370
    -2
100
AcDbLine
 10
8.490801719121861
 20
13.75009796311898
 30
0.0
 11
8.490801719121861
 21
18.21411196311898
 31
0.0
  0
LINE
  5
248D
330
AB0
100
AcDbEntity
  8
DIM
 62
     0
370
    -2
100
AcDbLine
 10
9.176801719121861
 20
17.98161196311899
 30
0.0
 11
9.626801719121862
 21
17.98161196311899
 31
0.0
  0
LINE
  5
248E
330
AB0
100
AcDbEntity
  8
DIM
 62
     0
370
    -2
100
AcDbLine
 10
8.040801719121862
 20
17.98161196311899
 30
0.0
 11
7.590801719121861
 21
17.98161196311899
 31
0.0
  0
SOLID
  5
248F
330
AB0
100
AcDbEntity
  8
DIM
 62
     0
100
AcDbTrace
 10
9.176801719121861
 20
18.05661196311898
 30
0.0
 11
9.176801719121861
 21
17.90661196311899
 31
0.0
 12
8.726801719121862
 22
17.98161196311899
 32
0.0
 13
8.726801719121862
 23
17.98161196311899
 33
0.0
  0
SOLID
  5
2490
330
AB0
100
AcDbEntity
  8
DIM
 62
     0
100
AcDbTrace
 10
8.040801719121862
 20
18.05661196311898
 30
0.0
 11
8.040801719121862
 21
17.90661196311899
 31
0.0
 12
8.490801719121861
 22
17.98161196311899
 32
0.0
 13
8.490801719121861
 23
17.98161196311899
 33
0.0
  0
MTEXT
  5
2491
330
AB0
100
AcDbEntity
  8
DIM
 62
     0
100
AcDbMText
 10
6.916582969121861
 20
17.98161196311899
 30
0.0
 40
0.3125
 41
0.0
 71
     5
 72
     1
  1
\A1;0.236
 73
     1
 44
1.0
  0
POINT
  5
2492
330
AB0
100
AcDbEntity
  8
DEFPOINTS
 62
     0
100
AcDbPoint
 10
8.726801719121862
 20
13.56659796311898
 30
0.0
  0
POINT
  5
2493
330
AB0
100
AcDbEntity
  8
DEFPOINTS
 62
     0
100
AcDbPoint
 10
8.490801719121861
 20
13.59259796311898
 30
0.0
  0
POINT
  5
2494
330
AB0
100
AcDbEntity
  8
DEFPOINTS
 62
     0
100
AcDbPoint
 10
8.490801719121861
 20
17.98161196311899
 30
0.0
  0
ENDBLK
  5
ABC
330
AB0
100
AcDbEntity
  8
0
100
AcDbBlockEnd
  0
BLOCK
  5
AC9
330
ABE
100
AcDbEntity
  8
0
100
AcDbBlockBegin
  2
*D26
 70
     1
 10
0.0
 20
0.0
 30
0.0
  3
*D26
  1

  0
LINE
  5
24AA
330
ABE
100
AcDbEntity
  8
DIM
 62
     0
370
    -2
100
AcDbLine
 10
11.40380171912186
 20
13.72409796311898
 30
0.0
 11
11.40380171912186
 21
18.44661196311898
 31
0.0
  0
LINE
  5
24AB
330
ABE
100
AcDbEntity
  8
DIM
 62
     0
370
    -2
100
AcDbLine
 10
11.63980171912186
 20
13.75009796311898
 30
0.0
 11
11.63980171912186
 21
18.44661196311898
 31
0.0
  0
LINE
  5
24AC
330
ABE
100
AcDbEntity
  8
DIM
 62
     0
370
    -2
100
AcDbLine
 10
10.95380171912186
 20
18.21411196311898
 30
0.0
 11
10.50380171912186
 21
18.21411196311898
 31
0.0
  0
LINE
  5
24AD
330
ABE
100
AcDbEntity
  8
DIM
 62
     0
370
    -2
100
AcDbLine
 10
12.08980171912186
 20
18.21411196311898
 30
0.0
 11
12.53980171912186
 21
18.21411196311898
 31
0.0
  0
SOLID
  5
24AE
330
ABE
100
AcDbEntity
  8
DIM
 62
     0
100
AcDbTrace
 10
10.95380171912186
 20
18.28911196311898
 30
0.0
 11
10.95380171912186
 21
18.13911196311899
 31
0.0
 12
11.40380171912186
 22
18.21411196311898
 32
0.0
 13
11.40380171912186
 23
18.21411196311898
 33
0.0
  0
SOLID
  5
24AF
330
ABE
100
AcDbEntity
  8
DIM
 62
     0
100
AcDbTrace
 10
12.08980171912186
 20
18.28911196311898
 30
0.0
 11
12.08980171912186
 21
18.13911196311899
 31
0.0
 12
11.63980171912186
 22
18.21411196311898
 32
0.0
 13
11.63980171912186
 23
18.21411196311898
 33
0.0
  0
MTEXT
  5
24B0
330
ABE
100
AcDbEntity
  8
DIM
 62
     0
100
AcDbMText
 10
13.21402046912186
 20
18.21411196311898
 30
0.0
 40
0.3125
 41
0.0
 71
     5
 72
     1
  1
\A1;0.236
 73
     1
 44
1.0
  0
POINT
  5
24B1
330
ABE
100
AcDbEntity
  8
DEFPOINTS
 62
     0
100
AcDbPoint
 10
11.40380171912186
 20
13.56659796311898
 30
0.0
  0
POINT
  5
24B2
330
ABE
100
AcDbEntity
  8
DEFPOINTS
 62
     0
100
AcDbPoint
 10
11.63980171912186
 20
13.59259796311898
 30
0.0
  0
POINT
  5
24B3
330
ABE
100
AcDbEntity
  8
DEFPOINTS
 62
     0
100
AcDbPoint
 10
11.63980171912186
 20
18.21411196311898
 30
0.0
  0
ENDBLK
  5
ACA
330
ABE
100
AcDbEntity
  8
0
100
AcDbBlockEnd
  0
BLOCK
  5
AD7
330
ACC
100
AcDbEntity
  8
0
100
AcDbBlockBegin
  2
*D27
 70
     1
 10
0.0
 20
0.0
 30
0.0
  3
*D27
  1

  0
LINE
  5
2481
330
ACC
100
AcDbEntity
  8
DIM
 62
     0
370
    -2
100
AcDbLine
 10
9.080801719121863
 20
13.71628596311898
 30
0.0
 11
9.080801719121863
 21
16.80911196311898
 31
0.0
  0
LINE
  5
2482
330
ACC
100
AcDbEntity
  8
DIM
 62
     0
370
    -2
100
AcDbLine
 10
8.490801719121861
 20
13.89184796311898
 30
0.0
 11
8.490801719121861
 21
16.80911196311898
 31
0.0
  0
LINE
  5
2483
330
ACC
100
AcDbEntity
  8
DIM
 62
     0
370
    -2
100
AcDbLine
 10
9.530801719121862
 20
16.57661196311899
 30
0.0
 11
9.980801719121863
 21
16.57661196311899
 31
0.0
  0
LINE
  5
2484
330
ACC
100
AcDbEntity
  8
DIM
 62
     0
370
    -2
100
AcDbLine
 10
8.040801719121862
 20
16.57661196311899
 30
0.0
 11
7.590801719121861
 21
16.57661196311899
 31
0.0
  0
SOLID
  5
2485
330
ACC
100
AcDbEntity
  8
DIM
 62
     0
100
AcDbTrace
 10
9.530801719121862
 20
16.65161196311898
 30
0.0
 11
9.530801719121862
 21
16.50161196311898
 31
0.0
 12
9.080801719121863
 22
16.57661196311899
 32
0.0
 13
9.080801719121863
 23
16.57661196311899
 33
0.0
  0
SOLID
  5
2486
330
ACC
100
AcDbEntity
  8
DIM
 62
     0
100
AcDbTrace
 10
8.040801719121862
 20
16.65161196311898
 30
0.0
 11
8.040801719121862
 21
16.50161196311898
 31
0.0
 12
8.490801719121861
 22
16.57661196311899
 32
0.0
 13
8.490801719121861
 23
16.57661196311899
 33
0.0
  0
MTEXT
  5
2487
330
ACC
100
AcDbEntity
  8
DIM
 62
     0
100
AcDbMText
 10
6.936114219121861
 20
16.57661196311899
 30
0.0
 40
0.3125
 41
0.0
 71
     5
 72
     1
  1
\A1;0.630
 73
     1
 44
1.0
  0
POINT
  5
2488
330
ACC
100
AcDbEntity
  8
DEFPOINTS
 62
     0
100
AcDbPoint
 10
9.080801719121863
 20
13.55878596311898
 30
0.0
  0
POINT
  5
2489
330
ACC
100
AcDbEntity
  8
DEFPOINTS
 62
     0
100
AcDbPoint
 10
8.490801719121861
 20
13.73434796311898
 30
0.0
  0
POINT
  5
248A
330
ACC
100
AcDbEntity
  8
DEFPOINTS
 62
     0
100
AcDbPoint
 10
8.490801719121861
 20
16.57661196311899
 30
0.0
  0
ENDBLK
  5
AD8
330
ACC
100
AcDbEntity
  8
0
100
AcDbBlockEnd
  0
BLOCK
  5
AE5
330
ADA
100
AcDbEntity
  8
0
100
AcDbBlockBegin
  2
*D28
 70
     1
 10
0.0
 20
0.0
 30
0.0
  3
*D28
  1

  0
LINE
  5
24A0
330
ADA
100
AcDbEntity
  8
DIM
 62
     0
370
    -2
100
AcDbLine
 10
11.04980171912186
 20
13.71628596311898
 30
0.0
 11
11.04980171912186
 21
17.04161196311899
 31
0.0
  0
LINE
  5
24A1
330
ADA
100
AcDbEntity
  8
DIM
 62
     0
370
    -2
100
AcDbLine
 10
11.63980171912186
 20
13.89184796311898
 30
0.0
 11
11.63980171912186
 21
17.04161196311899
 31
0.0
  0
LINE
  5
24A2
330
ADA
100
AcDbEntity
  8
DIM
 62
     0
370
    -2
100
AcDbLine
 10
10.59980171912186
 20
16.80911196311898
 30
0.0
 11
10.14980171912186
 21
16.80911196311898
 31
0.0
  0
LINE
  5
24A3
330
ADA
100
AcDbEntity
  8
DIM
 62
     0
370
    -2
100
AcDbLine
 10
12.08980171912186
 20
16.80911196311898
 30
0.0
 11
12.53980171912186
 21
16.80911196311898
 31
0.0
  0
SOLID
  5
24A4
330
ADA
100
AcDbEntity
  8
DIM
 62
     0
100
AcDbTrace
 10
10.59980171912186
 20
16.88411196311898
 30
0.0
 11
10.59980171912186
 21
16.73411196311898
 31
0.0
 12
11.04980171912186
 22
16.80911196311898
 32
0.0
 13
11.04980171912186
 23
16.80911196311898
 33
0.0
  0
SOLID
  5
24A5
330
ADA
100
AcDbEntity
  8
DIM
 62
     0
100
AcDbTrace
 10
12.08980171912186
 20
16.88411196311898
 30
0.0
 11
12.08980171912186
 21
16.73411196311898
 31
0.0
 12
11.63980171912186
 22
16.80911196311898
 32
0.0
 13
11.63980171912186
 23
16.80911196311898
 33
0.0
  0
MTEXT
  5
24A6
330
ADA
100
AcDbEntity
  8
DIM
 62
     0
100
AcDbMText
 10
13.19448921912186
 20
16.80911196311898
 30
0.0
 40
0.3125
 41
0.0
 71
     5
 72
     1
  1
\A1;0.630
 73
     1
 44
1.0
  0
POINT
  5
24A7
330
ADA
100
AcDbEntity
  8
DEFPOINTS
 62
     0
100
AcDbPoint
 10
11.04980171912186
 20
13.55878596311898
 30
0.0
  0
POINT
  5
24A8
330
ADA
100
AcDbEntity
  8
DEFPOINTS
 62
     0
100
AcDbPoint
 10
11.63980171912186
 20
13.73434796311898
 30
0.0
  0
POINT
  5
24A9
330
ADA
100
AcDbEntity
  8
DEFPOINTS
 62
     0
100
AcDbPoint
 10
11.63980171912186
 20
16.80911196311898
 30
0.0
  0
ENDBLK
  5
AE6
330
ADA
100
AcDbEntity
  8
0
100
AcDbBlockEnd
  0
BLOCK
  5
AF3
330
AE8
100
AcDbEntity
  8
0
100
AcDbBlockBegin
  2
*D29
 70
     1
 10
0.0
 20
0.0
 30
0.0
  3
*D29
  1

  0
LINE
  5
2477
330
AE8
100
AcDbEntity
  8
DIM
 62
     0
370
    -2
100
AcDbLine
 10
9.179801719121861
 20
13.27984796311898
 30
0.0
 11
9.179801719121861
 21
15.40411196311898
 31
0.0
  0
LINE
  5
2478
330
AE8
100
AcDbEntity
  8
DIM
 62
     0
370
    -2
100
AcDbLine
 10
8.490801719121861
 20
14.03359796311898
 30
0.0
 11
8.490801719121861
 21
15.40411196311898
 31
0.0
  0
LINE
  5
2479
330
AE8
100
AcDbEntity
  8
DIM
 62
     0
370
    -2
100
AcDbLine
 10
9.629801719121861
 20
15.17161196311898
 30
0.0
 11
10.07980171912186
 21
15.17161196311898
 31
0.0
  0
LINE
  5
247A
330
AE8
100
AcDbEntity
  8
DIM
 62
     0
370
    -2
100
AcDbLine
 10
8.040801719121862
 20
15.17161196311898
 30
0.0
 11
7.590801719121861
 21
15.17161196311898
 31
0.0
  0
SOLID
  5
247B
330
AE8
100
AcDbEntity
  8
DIM
 62
     0
100
AcDbTrace
 10
9.629801719121861
 20
15.24661196311898
 30
0.0
 11
9.629801719121861
 21
15.09661196311898
 31
0.0
 12
9.179801719121861
 22
15.17161196311898
 32
0.0
 13
9.179801719121861
 23
15.17161196311898
 33
0.0
  0
SOLID
  5
247C
330
AE8
100
AcDbEntity
  8
DIM
 62
     0
100
AcDbTrace
 10
8.040801719121862
 20
15.24661196311898
 30
0.0
 11
8.040801719121862
 21
15.09661196311898
 31
0.0
 12
8.490801719121861
 22
15.17161196311898
 32
0.0
 13
8.490801719121861
 23
15.17161196311898
 33
0.0
  0
MTEXT
  5
247D
330
AE8
100
AcDbEntity
  8
DIM
 62
     0
100
AcDbMText
 10
6.916582969121861
 20
15.17161196311898
 30
0.0
 40
0.3125
 41
0.0
 71
     5
 72
     1
  1
\A1;0.689
 73
     1
 44
1.0
  0
POINT
  5
247E
330
AE8
100
AcDbEntity
  8
DEFPOINTS
 62
     0
100
AcDbPoint
 10
9.179801719121861
 20
13.12234796311898
 30
0.0
  0
POINT
  5
247F
330
AE8
100
AcDbEntity
  8
DEFPOINTS
 62
     0
100
AcDbPoint
 10
8.490801719121861
 20
13.87609796311898
 30
0.0
  0
POINT
  5
2480
330
AE8
100
AcDbEntity
  8
DEFPOINTS
 62
     0
100
AcDbPoint
 10
8.490801719121861
 20
15.17161196311898
 30
0.0
  0
ENDBLK
  5
AF4
330
AE8
100
AcDbEntity
  8
0
100
AcDbBlockEnd
  0
BLOCK
  5
B01
330
AF6
100
AcDbEntity
  8
0
100
AcDbBlockBegin
  2
*D30
 70
     1
 10
0.0
 20
0.0
 30
0.0
  3
*D30
  1

  0
LINE
  5
24C8
330
AF6
100
AcDbEntity
  8
DIM
 62
     0
370
    -2
100
AcDbLine
 10
10.95080171912186
 20
13.27984796311898
 30
0.0
 11
10.95080171912186
 21
15.63661196311898
 31
0.0
  0
LINE
  5
24C9
330
AF6
100
AcDbEntity
  8
DIM
 62
     0
370
    -2
100
AcDbLine
 10
11.63980171912186
 20
14.03359796311898
 30
0.0
 11
11.63980171912186
 21
15.63661196311898
 31
0.0
  0
LINE
  5
24CA
330
AF6
100
AcDbEntity
  8
DIM
 62
     0
370
    -2
100
AcDbLine
 10
10.50080171912186
 20
15.40411196311898
 30
0.0
 11
10.05080171912186
 21
15.40411196311898
 31
0.0
  0
LINE
  5
24CB
330
AF6
100
AcDbEntity
  8
DIM
 62
     0
370
    -2
100
AcDbLine
 10
12.08980171912186
 20
15.40411196311898
 30
0.0
 11
12.53980171912186
 21
15.40411196311898
 31
0.0
  0
SOLID
  5
24CC
330
AF6
100
AcDbEntity
  8
DIM
 62
     0
100
AcDbTrace
 10
10.50080171912186
 20
15.47911196311899
 30
0.0
 11
10.50080171912186
 21
15.32911196311899
 31
0.0
 12
10.95080171912186
 22
15.40411196311898
 32
0.0
 13
10.95080171912186
 23
15.40411196311898
 33
0.0
  0
SOLID
  5
24CD
330
AF6
100
AcDbEntity
  8
DIM
 62
     0
100
AcDbTrace
 10
12.08980171912186
 20
15.47911196311899
 30
0.0
 11
12.08980171912186
 21
15.32911196311899
 31
0.0
 12
11.63980171912186
 22
15.40411196311898
 32
0.0
 13
11.63980171912186
 23
15.40411196311898
 33
0.0
  0
MTEXT
  5
24CE
330
AF6
100
AcDbEntity
  8
DIM
 62
     0
100
AcDbMText
 10
13.21402046912186
 20
15.40411196311898
 30
0.0
 40
0.3125
 41
0.0
 71
     5
 72
     1
  1
\A1;0.689
 73
     1
 44
1.0
  0
POINT
  5
24CF
330
AF6
100
AcDbEntity
  8
DEFPOINTS
 62
     0
100
AcDbPoint
 10
10.95080171912186
 20
13.12234796311898
 30
0.0
  0
POINT
  5
24D0
330
AF6
100
AcDbEntity
  8
DEFPOINTS
 62
     0
100
AcDbPoint
 10
11.63980171912186
 20
13.87609796311898
 30
0.0
  0
POINT
  5
24D1
330
AF6
100
AcDbEntity
  8
DEFPOINTS
 62
     0
100
AcDbPoint
 10
11.63980171912186
 20
15.40411196311898
 30
0.0
  0
ENDBLK
  5
B02
330
AF6
100
AcDbEntity
  8
0
100
AcDbBlockEnd
  0
BLOCK
  5
B0F
330
B04
100
AcDbEntity
  8
0
100
AcDbBlockBegin
  2
*D31
 70
     1
 10
0.0
 20
0.0
 30
0.0
  3
*D31
  1

  0
LINE
  5
23A4
330
B04
100
AcDbEntity
  8
DIM
 62
     0
370
    -2
100
AcDbLine
 10
8.410301719121862
 20
13.81134796311898
 30
0.0
 11
7.392758719121863
 21
13.81134796311898
 31
0.0
  0
LINE
  5
23A5
330
B04
100
AcDbEntity
  8
DIM
 62
     0
370
    -2
100
AcDbLine
 10
8.937473719121861
 20
13.32022296311898
 30
0.0
 11
7.392758719121863
 21
13.32022296311898
 31
0.0
  0
LINE
  5
23A6
330
B04
100
AcDbEntity
  8
DIM
 62
     0
370
    -2
100
AcDbLine
 10
7.625258719121863
 20
14.26134796311898
 30
0.0
 11
7.625258719121863
 21
14.71134796311898
 31
0.0
  0
LINE
  5
23A7
330
B04
100
AcDbEntity
  8
DIM
 62
     0
370
    -2
100
AcDbLine
 10
7.625258719121863
 20
12.87022296311898
 30
0.0
 11
7.625258719121863
 21
12.42022296311898
 31
0.0
  0
SOLID
  5
23A8
330
B04
100
AcDbEntity
  8
DIM
 62
     0
100
AcDbTrace
 10
7.550258719121863
 20
14.26134796311898
 30
0.0
 11
7.700258719121864
 21
14.26134796311898
 31
0.0
 12
7.625258719121863
 22
13.81134796311898
 32
0.0
 13
7.625258719121863
 23
13.81134796311898
 33
0.0
  0
SOLID
  5
23A9
330
B04
100
AcDbEntity
  8
DIM
 62
     0
100
AcDbTrace
 10
7.550258719121862
 20
12.87022296311898
 30
0.0
 11
7.700258719121863
 21
12.87022296311898
 31
0.0
 12
7.625258719121863
 22
13.32022296311898
 32
0.0
 13
7.625258719121863
 23
13.32022296311898
 33
0.0
  0
MTEXT
  5
23AA
330
B04
100
AcDbEntity
  8
DIM
 62
     0
100
AcDbMText
 10
7.625258719121861
 20
13.56578546311898
 30
0.0
 40
0.3125
 41
0.0
 71
     5
 72
     1
  1
\A1;0.512
 73
     1
 44
1.0
  0
POINT
  5
23AB
330
B04
100
AcDbEntity
  8
DEFPOINTS
 62
     0
100
AcDbPoint
 10
8.567801719121863
 20
13.81134796311898
 30
0.0
  0
POINT
  5
23AC
330
B04
100
AcDbEntity
  8
DEFPOINTS
 62
     0
100
AcDbPoint
 10
9.094973719121862
 20
13.32022296311898
 30
0.0
  0
POINT
  5
23AD
330
B04
100
AcDbEntity
  8
DEFPOINTS
 62
     0
100
AcDbPoint
 10
7.625258719121863
 20
13.32022296311898
 30
0.0
  0
ENDBLK
  5
B10
330
B04
100
AcDbEntity
  8
0
100
AcDbBlockEnd
  0
BLOCK
  5
B1D
330
B12
100
AcDbEntity
  8
0
100
AcDbBlockBegin
  2
*D32
 70
     1
 10
0.0
 20
0.0
 30
0.0
  3
*D32
  1

  0
LINE
  5
239A
330
B12
100
AcDbEntity
  8
DIM
 62
     0
370
    -2
100
AcDbLine
 10
8.569301719121861
 20
10.22334796311898
 30
0.0
 11
7.391694719121863
 21
10.22334796311898
 31
0.0
  0
LINE
  5
239B
330
B12
100
AcDbEntity
  8
DIM
 62
     0
370
    -2
100
AcDbLine
 10
8.795723719121861
 20
13.32022296311898
 30
0.0
 11
7.391694719121863
 21
13.32022296311898
 31
0.0
  0
LINE
  5
239C
330
B12
100
AcDbEntity
  8
DIM
 62
     0
370
    -2
100
AcDbLine
 10
7.624194719121863
 20
10.67334796311898
 30
0.0
 11
7.624194719121863
 21
11.39053546311898
 31
0.0
  0
LINE
  5
239D
330
B12
100
AcDbEntity
  8
DIM
 62
     0
370
    -2
100
AcDbLine
 10
7.624194719121863
 20
12.87022296311898
 30
0.0
 11
7.624194719121863
 21
12.15303546311898
 31
0.0
  0
SOLID
  5
239E
330
B12
100
AcDbEntity
  8
DIM
 62
     0
100
AcDbTrace
 10
7.549194719121863
 20
10.67334796311898
 30
0.0
 11
7.699194719121863
 21
10.67334796311898
 31
0.0
 12
7.624194719121863
 22
10.22334796311898
 32
0.0
 13
7.624194719121863
 23
10.22334796311898
 33
0.0
  0
SOLID
  5
239F
330
B12
100
AcDbEntity
  8
DIM
 62
     0
100
AcDbTrace
 10
7.549194719121863
 20
12.87022296311898
 30
0.0
 11
7.699194719121863
 21
12.87022296311898
 31
0.0
 12
7.624194719121863
 22
13.32022296311898
 32
0.0
 13
7.624194719121863
 23
13.32022296311898
 33
0.0
  0
MTEXT
  5
23A0
330
B12
100
AcDbEntity
  8
DIM
 62
     0
100
AcDbMText
 10
7.624194719121861
 20
11.77178546311898
 30
0.0
 40
0.3125
 41
0.0
 71
     5
 72
     1
  1
\A1;3.070
 73
     1
 44
1.0
  0
POINT
  5
23A1
330
B12
100
AcDbEntity
  8
DEFPOINTS
 62
     0
100
AcDbPoint
 10
8.726801719121862
 20
10.22334796311898
 30
0.0
  0
POINT
  5
23A2
330
B12
100
AcDbEntity
  8
DEFPOINTS
 62
     0
100
AcDbPoint
 10
8.953223719121861
 20
13.32022296311898
 30
0.0
  0
POINT
  5
23A3
330
B12
100
AcDbEntity
  8
DEFPOINTS
 62
     0
100
AcDbPoint
 10
7.624194719121863
 20
13.32022296311898
 30
0.0
  0
ENDBLK
  5
B1E
330
B12
100
AcDbEntity
  8
0
100
AcDbBlockEnd
  0
BLOCK
  5
B2B
330
B20
100
AcDbEntity
  8
0
100
AcDbBlockBegin
  2
*D33
 70
     1
 10
0.0
 20
0.0
 30
0.0
  3
*D33
  1

  0
LINE
  5
23F4
330
B20
100
AcDbEntity
  8
DIM
 62
     0
370
    -2
100
AcDbLine
 10
8.569301719121861
 20
9.722347963118986
 30
0.0
 11
7.391694719121863
 21
9.722347963118986
 31
0.0
  0
LINE
  5
23F5
330
B20
100
AcDbEntity
  8
DIM
 62
     0
370
    -2
100
AcDbLine
 10
8.795723719121861
 20
6.625472963118987
 30
0.0
 11
7.391694719121863
 21
6.625472963118987
 31
0.0
  0
LINE
  5
23F6
330
B20
100
AcDbEntity
  8
DIM
 62
     0
370
    -2
100
AcDbLine
 10
7.624194719121863
 20
9.272347963118987
 30
0.0
 11
7.624194719121863
 21
8.555160463118987
 31
0.0
  0
LINE
  5
23F7
330
B20
100
AcDbEntity
  8
DIM
 62
     0
370
    -2
100
AcDbLine
 10
7.624194719121863
 20
7.075472963118987
 30
0.0
 11
7.624194719121863
 21
7.792660463118988
 31
0.0
  0
SOLID
  5
23F8
330
B20
100
AcDbEntity
  8
DIM
 62
     0
100
AcDbTrace
 10
7.549194719121863
 20
9.272347963118987
 30
0.0
 11
7.699194719121863
 21
9.272347963118987
 31
0.0
 12
7.624194719121863
 22
9.722347963118986
 32
0.0
 13
7.624194719121863
 23
9.722347963118986
 33
0.0
  0
SOLID
  5
23F9
330
B20
100
AcDbEntity
  8
DIM
 62
     0
100
AcDbTrace
 10
7.549194719121863
 20
7.075472963118987
 30
0.0
 11
7.699194719121863
 21
7.075472963118987
 31
0.0
 12
7.624194719121863
 22
6.625472963118987
 32
0.0
 13
7.624194719121863
 23
6.625472963118987
 33
0.0
  0
MTEXT
  5
23FA
330
B20
100
AcDbEntity
  8
DIM
 62
     0
100
AcDbMText
 10
7.624194719121862
 20
8.173910463118989
 30
0.0
 40
0.3125
 41
0.0
 71
     5
 72
     1
  1
\A1;3.070
 73
     1
 44
1.0
  0
POINT
  5
23FB
330
B20
100
AcDbEntity
  8
DEFPOINTS
 62
     0
100
AcDbPoint
 10
8.726801719121862
 20
9.722347963118986
 30
0.0
  0
POINT
  5
23FC
330
B20
100
AcDbEntity
  8
DEFPOINTS
 62
     0
100
AcDbPoint
 10
8.953223719121861
 20
6.625472963118987
 30
0.0
  0
POINT
  5
23FD
330
B20
100
AcDbEntity
  8
DEFPOINTS
 62
     0
100
AcDbPoint
 10
7.624194719121863
 20
6.625472963118987
 30
0.0
  0
ENDBLK
  5
B2C
330
B20
100
AcDbEntity
  8
0
100
AcDbBlockEnd
  0
BLOCK
  5
B39
330
B2E
100
AcDbEntity
  8
0
100
AcDbBlockBegin
  2
*D34
 70
     1
 10
0.0
 20
0.0
 30
0.0
  3
*D34
  1

  0
LINE
  5
23EA
330
B2E
100
AcDbEntity
  8
DIM
 62
     0
370
    -2
100
AcDbLine
 10
8.410301719121862
 20
6.134347963118987
 30
0.0
 11
7.392758719121863
 21
6.134347963118987
 31
0.0
  0
LINE
  5
23EB
330
B2E
100
AcDbEntity
  8
DIM
 62
     0
370
    -2
100
AcDbLine
 10
8.937473719121861
 20
6.625472963118987
 30
0.0
 11
7.392758719121863
 21
6.625472963118987
 31
0.0
  0
LINE
  5
23EC
330
B2E
100
AcDbEntity
  8
DIM
 62
     0
370
    -2
100
AcDbLine
 10
7.625258719121862
 20
5.684347963118987
 30
0.0
 11
7.625258719121862
 21
5.234347963118986
 31
0.0
  0
LINE
  5
23ED
330
B2E
100
AcDbEntity
  8
DIM
 62
     0
370
    -2
100
AcDbLine
 10
7.625258719121863
 20
7.075472963118987
 30
0.0
 11
7.625258719121863
 21
7.525472963118987
 31
0.0
  0
SOLID
  5
23EE
330
B2E
100
AcDbEntity
  8
DIM
 62
     0
100
AcDbTrace
 10
7.550258719121861
 20
5.684347963118987
 30
0.0
 11
7.700258719121862
 21
5.684347963118987
 31
0.0
 12
7.625258719121863
 22
6.134347963118987
 32
0.0
 13
7.625258719121863
 23
6.134347963118987
 33
0.0
  0
SOLID
  5
23EF
330
B2E
100
AcDbEntity
  8
DIM
 62
     0
100
AcDbTrace
 10
7.550258719121862
 20
7.075472963118987
 30
0.0
 11
7.700258719121863
 21
7.075472963118987
 31
0.0
 12
7.625258719121863
 22
6.625472963118987
 32
0.0
 13
7.625258719121863
 23
6.625472963118987
 33
0.0
  0
MTEXT
  5
23F0
330
B2E
100
AcDbEntity
  8
DIM
 62
     0
100
AcDbMText
 10
7.625258719121861
 20
6.379910463118988
 30
0.0
 40
0.3125
 41
0.0
 71
     5
 72
     1
  1
\A1;0.512
 73
     1
 44
1.0
  0
POINT
  5
23F1
330
B2E
100
AcDbEntity
  8
DEFPOINTS
 62
     0
100
AcDbPoint
 10
8.567801719121863
 20
6.134347963118987
 30
0.0
  0
POINT
  5
23F2
330
B2E
100
AcDbEntity
  8
DEFPOINTS
 62
     0
100
AcDbPoint
 10
9.094973719121862
 20
6.625472963118987
 30
0.0
  0
POINT
  5
23F3
330
B2E
100
AcDbEntity
  8
DEFPOINTS
 62
     0
100
AcDbPoint
 10
7.625258719121863
 20
6.625472963118987
 30
0.0
  0
ENDBLK
  5
B3A
330
B2E
100
AcDbEntity
  8
0
100
AcDbBlockEnd
  0
BLOCK
  5
B47
330
B3C
100
AcDbEntity
  8
0
100
AcDbBlockBegin
  2
*D35
 70
     1
 10
0.0
 20
0.0
 30
0.0
  3
*D35
  1

  0
LINE
  5
23E0
330
B3C
100
AcDbEntity
  8
DIM
 62
     0
370
    -2
100
AcDbLine
 10
7.572444719121863
 20
9.722347963118986
 30
0.0
 11
7.857758719121862
 21
9.722347963118986
 31
0.0
  0
LINE
  5
23E1
330
B3C
100
AcDbEntity
  8
DIM
 62
     0
370
    -2
100
AcDbLine
 10
7.572444719121863
 20
10.22334796311898
 30
0.0
 11
7.857758719121862
 21
10.22334796311898
 31
0.0
  0
LINE
  5
23E2
330
B3C
100
AcDbEntity
  8
DIM
 62
     0
370
    -2
100
AcDbLine
 10
7.625258719121862
 20
9.272347963118987
 30
0.0
 11
7.625258719121862
 21
8.822347963118986
 31
0.0
  0
LINE
  5
23E3
330
B3C
100
AcDbEntity
  8
DIM
 62
     0
370
    -2
100
AcDbLine
 10
7.625258719121863
 20
10.67334796311898
 30
0.0
 11
7.625258719121863
 21
11.12334796311898
 31
0.0
  0
SOLID
  5
23E4
330
B3C
100
AcDbEntity
  8
DIM
 62
     0
100
AcDbTrace
 10
7.550258719121861
 20
9.272347963118987
 30
0.0
 11
7.700258719121862
 21
9.272347963118987
 31
0.0
 12
7.625258719121862
 22
9.722347963118986
 32
0.0
 13
7.625258719121862
 23
9.722347963118986
 33
0.0
  0
SOLID
  5
23E5
330
B3C
100
AcDbEntity
  8
DIM
 62
     0
100
AcDbTrace
 10
7.550258719121862
 20
10.67334796311898
 30
0.0
 11
7.700258719121863
 21
10.67334796311898
 31
0.0
 12
7.625258719121863
 22
10.22334796311898
 32
0.0
 13
7.625258719121863
 23
10.22334796311898
 33
0.0
  0
MTEXT
  5
23E6
330
B3C
100
AcDbEntity
  8
DIM
 62
     0
100
AcDbMText
 10
7.625258719121861
 20
9.972847963118988
 30
0.0
 40
0.3125
 41
0.0
 71
     5
 72
     1
  1
\A1;0.551
 73
     1
 44
1.0
  0
POINT
  5
23E7
330
B3C
100
AcDbEntity
  8
DEFPOINTS
 62
     0
100
AcDbPoint
 10
7.414944719121863
 20
9.722347963118986
 30
0.0
  0
POINT
  5
23E8
330
B3C
100
AcDbEntity
  8
DEFPOINTS
 62
     0
100
AcDbPoint
 10
7.414944719121863
 20
10.22334796311898
 30
0.0
  0
POINT
  5
23E9
330
B3C
100
AcDbEntity
  8
DEFPOINTS
 62
     0
100
AcDbPoint
 10
7.625258719121863
 20
10.22334796311898
 30
0.0
  0
ENDBLK
  5
B48
330
B3C
100
AcDbEntity
  8
0
100
AcDbBlockEnd
  0
BLOCK
  5
B55
330
B4A
100
AcDbEntity
  8
0
100
AcDbBlockBegin
  2
*D36
 70
     1
 10
0.0
 20
0.0
 30
0.0
  3
*D36
  1

  0
LINE
  5
2390
330
B4A
100
AcDbEntity
  8
DIM
 62
     0
370
    -2
100
AcDbLine
 10
11.72030171912186
 20
13.81134796311898
 30
0.0
 11
15.29358971912186
 21
13.81134796311898
 31
0.0
  0
LINE
  5
2391
330
B4A
100
AcDbEntity
  8
DIM
 62
     0
370
    -2
100
AcDbLine
 10
11.72030171912186
 20
6.134347963118987
 30
0.0
 11
15.29358971912186
 21
6.134347963118986
 31
0.0
  0
LINE
  5
2392
330
B4A
100
AcDbEntity
  8
DIM
 62
     0
370
    -2
100
AcDbLine
 10
15.06108971912186
 20
13.36134796311898
 30
0.0
 11
15.06108971912186
 21
10.35409796311898
 31
0.0
  0
LINE
  5
2393
330
B4A
100
AcDbEntity
  8
DIM
 62
     0
370
    -2
100
AcDbLine
 10
15.06108971912186
 20
6.584347963118986
 30
0.0
 11
15.06108971912186
 21
9.591597963118987
 31
0.0
  0
SOLID
  5
2394
330
B4A
100
AcDbEntity
  8
DIM
 62
     0
100
AcDbTrace
 10
14.98608971912186
 20
13.36134796311898
 30
0.0
 11
15.13608971912186
 21
13.36134796311898
 31
0.0
 12
15.06108971912186
 22
13.81134796311898
 32
0.0
 13
15.06108971912186
 23
13.81134796311898
 33
0.0
  0
SOLID
  5
2395
330
B4A
100
AcDbEntity
  8
DIM
 62
     0
100
AcDbTrace
 10
14.98608971912186
 20
6.584347963118986
 30
0.0
 11
15.13608971912186
 21
6.584347963118986
 31
0.0
 12
15.06108971912186
 22
6.134347963118986
 32
0.0
 13
15.06108971912186
 23
6.134347963118986
 33
0.0
  0
MTEXT
  5
2396
330
B4A
100
AcDbEntity
  8
DIM
 62
     0
100
AcDbMText
 10
15.06108971912186
 20
9.972847963118988
 30
0.0
 40
0.3125
 41
0.0
 71
     5
 72
     1
  1
\A1;7.677
 73
     1
 44
1.0
  0
POINT
  5
2397
330
B4A
100
AcDbEntity
  8
DEFPOINTS
 62
     0
100
AcDbPoint
 10
11.56280171912186
 20
13.81134796311898
 30
0.0
  0
POINT
  5
2398
330
B4A
100
AcDbEntity
  8
DEFPOINTS
 62
     0
100
AcDbPoint
 10
11.56280171912186
 20
6.134347963118987
 30
0.0
  0
POINT
  5
2399
330
B4A
100
AcDbEntity
  8
DEFPOINTS
 62
     0
100
AcDbPoint
 10
15.06108971912186
 20
6.134347963118986
 30
0.0
  0
ENDBLK
  5
B56
330
B4A
100
AcDbEntity
  8
0
100
AcDbBlockEnd
  0
BLOCK
  5
B63
330
B58
100
AcDbEntity
  8
0
100
AcDbBlockBegin
  2
*D37
 70
     1
 10
0.0
 20
0.0
 30
0.0
  3
*D37
  1

  0
LINE
  5
2444
330
B58
100
AcDbEntity
  8
DIM
 62
     0
370
    -2
100
AcDbLine
 10
10.78580171912186
 20
6.227246963118988
 30
0.0
 11
10.78580171912186
 21
3.903633963118988
 31
0.0
  0
LINE
  5
2445
330
B58
100
AcDbEntity
  8
DIM
 62
     0
370
    -2
100
AcDbLine
 10
9.344801719121862
 20
6.227246963118988
 30
0.0
 11
9.344801719121862
 21
3.903633963118988
 31
0.0
  0
LINE
  5
2446
330
B58
100
AcDbEntity
  8
DIM
 62
     0
370
    -2
100
AcDbLine
 10
11.23580171912186
 20
4.136133963118988
 30
0.0
 11
11.68580171912186
 21
4.136133963118988
 31
0.0
  0
LINE
  5
2447
330
B58
100
AcDbEntity
  8
DIM
 62
     0
370
    -2
100
AcDbLine
 10
8.894801719121863
 20
4.136133963118988
 30
0.0
 11
8.444801719121862
 21
4.136133963118988
 31
0.0
  0
SOLID
  5
2448
330
B58
100
AcDbEntity
  8
DIM
 62
     0
100
AcDbTrace
 10
11.23580171912186
 20
4.211133963118988
 30
0.0
 11
11.23580171912186
 21
4.061133963118987
 31
0.0
 12
10.78580171912186
 22
4.136133963118988
 32
0.0
 13
10.78580171912186
 23
4.136133963118988
 33
0.0
  0
SOLID
  5
2449
330
B58
100
AcDbEntity
  8
DIM
 62
     0
100
AcDbTrace
 10
8.894801719121863
 20
4.211133963118988
 30
0.0
 11
8.894801719121863
 21
4.061133963118987
 31
0.0
 12
9.344801719121862
 22
4.136133963118988
 32
0.0
 13
9.344801719121862
 23
4.136133963118988
 33
0.0
  0
MTEXT
  5
244A
330
B58
100
AcDbEntity
  8
DIM
 62
     0
100
AcDbMText
 10
10.06530171912186
 20
4.136133963118988
 30
0.0
 40
0.3125
 41
0.0
 71
     5
 72
     1
  1
\A1;1.456
 73
     1
 44
1.0
  0
POINT
  5
244B
330
B58
100
AcDbEntity
  8
DEFPOINTS
 62
     0
100
AcDbPoint
 10
10.78580171912186
 20
6.384746963118987
 30
0.0
  0
POINT
  5
244C
330
B58
100
AcDbEntity
  8
DEFPOINTS
 62
     0
100
AcDbPoint
 10
9.344801719121862
 20
6.384746963118987
 30
0.0
  0
POINT
  5
244D
330
B58
100
AcDbEntity
  8
DEFPOINTS
 62
     0
100
AcDbPoint
 10
9.344801719121862
 20
4.136133963118988
 30
0.0
  0
ENDBLK
  5
B64
330
B58
100
AcDbEntity
  8
0
100
AcDbBlockEnd
  0
BLOCK
  5
B71
330
B66
100
AcDbEntity
  8
0
100
AcDbBlockBegin
  2
*D38
 70
     1
 10
0.0
 20
0.0
 30
0.0
  3
*D38
  1

  0
LINE
  5
23D6
330
B66
100
AcDbEntity
  8
DIM
 62
     0
370
    -2
100
AcDbLine
 10
9.344801719121862
 20
6.085496963118988
 30
0.0
 11
9.344801719121862
 21
4.606133963118987
 31
0.0
  0
LINE
  5
23D7
330
B66
100
AcDbEntity
  8
DIM
 62
     0
370
    -2
100
AcDbLine
 10
8.490801719121861
 20
6.195597963118987
 30
0.0
 11
8.490801719121861
 21
4.606133963118987
 31
0.0
  0
LINE
  5
23D8
330
B66
100
AcDbEntity
  8
DIM
 62
     0
370
    -2
100
AcDbLine
 10
9.794801719121862
 20
4.838633963118987
 30
0.0
 11
10.24480171912186
 21
4.838633963118987
 31
0.0
  0
LINE
  5
23D9
330
B66
100
AcDbEntity
  8
DIM
 62
     0
370
    -2
100
AcDbLine
 10
8.040801719121862
 20
4.838633963118987
 30
0.0
 11
7.590801719121861
 21
4.838633963118987
 31
0.0
  0
SOLID
  5
23DA
330
B66
100
AcDbEntity
  8
DIM
 62
     0
100
AcDbTrace
 10
9.794801719121862
 20
4.913633963118988
 30
0.0
 11
9.794801719121862
 21
4.763633963118987
 31
0.0
 12
9.344801719121862
 22
4.838633963118987
 32
0.0
 13
9.344801719121862
 23
4.838633963118987
 33
0.0
  0
SOLID
  5
23DB
330
B66
100
AcDbEntity
  8
DIM
 62
     0
100
AcDbTrace
 10
8.040801719121862
 20
4.913633963118988
 30
0.0
 11
8.040801719121862
 21
4.763633963118987
 31
0.0
 12
8.490801719121861
 22
4.838633963118987
 32
0.0
 13
8.490801719121861
 23
4.838633963118987
 33
0.0
  0
MTEXT
  5
23DC
330
B66
100
AcDbEntity
  8
DIM
 62
     0
100
AcDbMText
 10
6.936114219121861
 20
4.838633963118987
 30
0.0
 40
0.3125
 41
0.0
 71
     5
 72
     1
  1
\A1;1.693
 73
     1
 44
1.0
  0
POINT
  5
23DD
330
B66
100
AcDbEntity
  8
DEFPOINTS
 62
     0
100
AcDbPoint
 10
9.344801719121862
 20
6.242996963118987
 30
0.0
  0
POINT
  5
23DE
330
B66
100
AcDbEntity
  8
DEFPOINTS
 62
     0
100
AcDbPoint
 10
8.490801719121861
 20
6.353097963118987
 30
0.0
  0
POINT
  5
23DF
330
B66
100
AcDbEntity
  8
DEFPOINTS
 62
     0
100
AcDbPoint
 10
8.490801719121861
 20
4.838633963118987
 30
0.0
  0
ENDBLK
  5
B72
330
B66
100
AcDbEntity
  8
0
100
AcDbBlockEnd
  0
BLOCK
  5
B7F
330
B74
100
AcDbEntity
  8
0
100
AcDbBlockBegin
  2
*D39
 70
     1
 10
0.0
 20
0.0
 30
0.0
  3
*D39
  1

  0
LINE
  5
243A
330
B74
100
AcDbEntity
  8
DIM
 62
     0
370
    -2
100
AcDbLine
 10
10.78580171912186
 20
6.085496963118988
 30
0.0
 11
10.78580171912186
 21
4.373633963118987
 31
0.0
  0
LINE
  5
243B
330
B74
100
AcDbEntity
  8
DIM
 62
     0
370
    -2
100
AcDbLine
 10
11.63980171912186
 20
6.195597963118987
 30
0.0
 11
11.63980171912186
 21
4.373633963118987
 31
0.0
  0
LINE
  5
243C
330
B74
100
AcDbEntity
  8
DIM
 62
     0
370
    -2
100
AcDbLine
 10
10.33580171912186
 20
4.606133963118987
 30
0.0
 11
9.885801719121863
 21
4.606133963118987
 31
0.0
  0
LINE
  5
243D
330
B74
100
AcDbEntity
  8
DIM
 62
     0
370
    -2
100
AcDbLine
 10
12.08980171912186
 20
4.606133963118987
 30
0.0
 11
12.53980171912186
 21
4.606133963118987
 31
0.0
  0
SOLID
  5
243E
330
B74
100
AcDbEntity
  8
DIM
 62
     0
100
AcDbTrace
 10
10.33580171912186
 20
4.681133963118988
 30
0.0
 11
10.33580171912186
 21
4.531133963118987
 31
0.0
 12
10.78580171912186
 22
4.606133963118987
 32
0.0
 13
10.78580171912186
 23
4.606133963118987
 33
0.0
  0
SOLID
  5
243F
330
B74
100
AcDbEntity
  8
DIM
 62
     0
100
AcDbTrace
 10
12.08980171912186
 20
4.681133963118988
 30
0.0
 11
12.08980171912186
 21
4.531133963118987
 31
0.0
 12
11.63980171912186
 22
4.606133963118987
 32
0.0
 13
11.63980171912186
 23
4.606133963118987
 33
0.0
  0
MTEXT
  5
2440
330
B74
100
AcDbEntity
  8
DIM
 62
     0
100
AcDbMText
 10
13.19448921912186
 20
4.606133963118987
 30
0.0
 40
0.3125
 41
0.0
 71
     5
 72
     1
  1
\A1;1.693
 73
     1
 44
1.0
  0
POINT
  5
2441
330
B74
100
AcDbEntity
  8
DEFPOINTS
 62
     0
100
AcDbPoint
 10
10.78580171912186
 20
6.242996963118987
 30
0.0
  0
POINT
  5
2442
330
B74
100
AcDbEntity
  8
DEFPOINTS
 62
     0
100
AcDbPoint
 10
11.63980171912186
 20
6.353097963118987
 30
0.0
  0
POINT
  5
2443
330
B74
100
AcDbEntity
  8
DEFPOINTS
 62
     0
100
AcDbPoint
 10
11.63980171912186
 20
4.606133963118987
 30
0.0
  0
ENDBLK
  5
B80
330
B74
100
AcDbEntity
  8
0
100
AcDbBlockEnd
  0
BLOCK
  5
B8D
330
B82
100
AcDbEntity
  8
0
100
AcDbBlockBegin
  2
*D40
 70
     1
 10
0.0
 20
0.0
 30
0.0
  3
*D40
  1

  0
LINE
  5
23CC
330
B82
100
AcDbEntity
  8
DIM
 62
     0
370
    -2
100
AcDbLine
 10
8.608801719121863
 20
6.567972963118987
 30
0.0
 11
8.608801719121863
 21
3.201133963118987
 31
0.0
  0
LINE
  5
23CD
330
B82
100
AcDbEntity
  8
DIM
 62
     0
370
    -2
100
AcDbLine
 10
8.490801719121861
 20
6.195597963118987
 30
0.0
 11
8.490801719121861
 21
3.201133963118987
 31
0.0
  0
LINE
  5
23CE
330
B82
100
AcDbEntity
  8
DIM
 62
     0
370
    -2
100
AcDbLine
 10
9.058801719121863
 20
3.433633963118987
 30
0.0
 11
9.508801719121864
 21
3.433633963118987
 31
0.0
  0
LINE
  5
23CF
330
B82
100
AcDbEntity
  8
DIM
 62
     0
370
    -2
100
AcDbLine
 10
8.040801719121862
 20
3.433633963118987
 30
0.0
 11
7.590801719121861
 21
3.433633963118987
 31
0.0
  0
SOLID
  5
23D0
330
B82
100
AcDbEntity
  8
DIM
 62
     0
100
AcDbTrace
 10
9.058801719121863
 20
3.508633963118987
 30
0.0
 11
9.058801719121863
 21
3.358633963118987
 31
0.0
 12
8.608801719121863
 22
3.433633963118987
 32
0.0
 13
8.608801719121863
 23
3.433633963118987
 33
0.0
  0
SOLID
  5
23D1
330
B82
100
AcDbEntity
  8
DIM
 62
     0
100
AcDbTrace
 10
8.040801719121862
 20
3.508633963118987
 30
0.0
 11
8.040801719121862
 21
3.358633963118987
 31
0.0
 12
8.490801719121861
 22
3.433633963118987
 32
0.0
 13
8.490801719121861
 23
3.433633963118987
 33
0.0
  0
MTEXT
  5
23D2
330
B82
100
AcDbEntity
  8
DIM
 62
     0
100
AcDbMText
 10
6.955645469121861
 20
3.433633963118987
 30
0.0
 40
0.3125
 41
0.0
 71
     5
 72
     1
  1
\A1;0.137
 73
     1
 44
1.0
  0
POINT
  5
23D3
330
B82
100
AcDbEntity
  8
DEFPOINTS
 62
     0
100
AcDbPoint
 10
8.608801719121863
 20
6.725472963118987
 30
0.0
  0
POINT
  5
23D4
330
B82
100
AcDbEntity
  8
DEFPOINTS
 62
     0
100
AcDbPoint
 10
8.490801719121861
 20
6.353097963118987
 30
0.0
  0
POINT
  5
23D5
330
B82
100
AcDbEntity
  8
DEFPOINTS
 62
     0
100
AcDbPoint
 10
8.490801719121861
 20
3.433633963118987
 30
0.0
  0
ENDBLK
  5
B8E
330
B82
100
AcDbEntity
  8
0
100
AcDbBlockEnd
  0
BLOCK
  5
B9B
330
B90
100
AcDbEntity
  8
0
100
AcDbBlockBegin
  2
*D41
 70
     1
 10
0.0
 20
0.0
 30
0.0
  3
*D41
  1

  0
LINE
  5
2430
330
B90
100
AcDbEntity
  8
DIM
 62
     0
370
    -2
100
AcDbLine
 10
8.608801719121863
 20
6.567972963118987
 30
0.0
 11
8.608801719121863
 21
3.201133963118987
 31
0.0
  0
LINE
  5
2431
330
B90
100
AcDbEntity
  8
DIM
 62
     0
370
    -2
100
AcDbLine
 10
11.52180171912186
 20
6.567972963118987
 30
0.0
 11
11.52180171912186
 21
3.201133963118987
 31
0.0
  0
LINE
  5
2432
330
B90
100
AcDbEntity
  8
DIM
 62
     0
370
    -2
100
AcDbLine
 10
9.058801719121863
 20
3.433633963118987
 30
0.0
 11
9.371551719121862
 21
3.433633963118987
 31
0.0
  0
LINE
  5
2433
330
B90
100
AcDbEntity
  8
DIM
 62
     0
370
    -2
100
AcDbLine
 10
11.07180171912186
 20
3.433633963118987
 30
0.0
 11
10.75905171912186
 21
3.433633963118987
 31
0.0
  0
SOLID
  5
2434
330
B90
100
AcDbEntity
  8
DIM
 62
     0
100
AcDbTrace
 10
9.058801719121863
 20
3.508633963118987
 30
0.0
 11
9.058801719121863
 21
3.358633963118987
 31
0.0
 12
8.608801719121863
 22
3.433633963118987
 32
0.0
 13
8.608801719121863
 23
3.433633963118987
 33
0.0
  0
SOLID
  5
2435
330
B90
100
AcDbEntity
  8
DIM
 62
     0
100
AcDbTrace
 10
11.07180171912186
 20
3.508633963118987
 30
0.0
 11
11.07180171912186
 21
3.358633963118987
 31
0.0
 12
11.52180171912186
 22
3.433633963118987
 32
0.0
 13
11.52180171912186
 23
3.433633963118987
 33
0.0
  0
MTEXT
  5
2436
330
B90
100
AcDbEntity
  8
DIM
 62
     0
100
AcDbMText
 10
10.06530171912186
 20
3.433633963118987
 30
0.0
 40
0.3125
 41
0.0
 71
     5
 72
     1
  1
\A1;2.874
 73
     1
 44
1.0
  0
POINT
  5
2437
330
B90
100
AcDbEntity
  8
DEFPOINTS
 62
     0
100
AcDbPoint
 10
8.608801719121863
 20
6.725472963118987
 30
0.0
  0
POINT
  5
2438
330
B90
100
AcDbEntity
  8
DEFPOINTS
 62
     0
100
AcDbPoint
 10
11.52180171912186
 20
6.725472963118987
 30
0.0
  0
POINT
  5
2439
330
B90
100
AcDbEntity
  8
DEFPOINTS
 62
     0
100
AcDbPoint
 10
11.52180171912186
 20
3.433633963118987
 30
0.0
  0
ENDBLK
  5
B9C
330
B90
100
AcDbEntity
  8
0
100
AcDbBlockEnd
  0
BLOCK
  5
BA9
330
B9E
100
AcDbEntity
  8
0
100
AcDbBlockBegin
  2
*D42
 70
     1
 10
0.0
 20
0.0
 30
0.0
  3
*D42
  1

  0
LINE
  5
2426
330
B9E
100
AcDbEntity
  8
DIM
 62
     0
370
    -2
100
AcDbLine
 10
11.52180171912186
 20
6.567972963118987
 30
0.0
 11
11.52180171912186
 21
3.201133963118987
 31
0.0
  0
LINE
  5
2427
330
B9E
100
AcDbEntity
  8
DIM
 62
     0
370
    -2
100
AcDbLine
 10
11.63980171912186
 20
6.195597963118987
 30
0.0
 11
11.63980171912186
 21
3.201133963118987
 31
0.0
  0
LINE
  5
2428
330
B9E
100
AcDbEntity
  8
DIM
 62
     0
370
    -2
100
AcDbLine
 10
11.07180171912186
 20
3.433633963118987
 30
0.0
 11
10.62180171912186
 21
3.433633963118987
 31
0.0
  0
LINE
  5
2429
330
B9E
100
AcDbEntity
  8
DIM
 62
     0
370
    -2
100
AcDbLine
 10
12.08980171912186
 20
3.433633963118987
 30
0.0
 11
12.53980171912186
 21
3.433633963118987
 31
0.0
  0
SOLID
  5
242A
330
B9E
100
AcDbEntity
  8
DIM
 62
     0
100
AcDbTrace
 10
11.07180171912186
 20
3.508633963118987
 30
0.0
 11
11.07180171912186
 21
3.358633963118987
 31
0.0
 12
11.52180171912186
 22
3.433633963118987
 32
0.0
 13
11.52180171912186
 23
3.433633963118987
 33
0.0
  0
SOLID
  5
242B
330
B9E
100
AcDbEntity
  8
DIM
 62
     0
100
AcDbTrace
 10
12.08980171912186
 20
3.508633963118987
 30
0.0
 11
12.08980171912186
 21
3.358633963118987
 31
0.0
 12
11.63980171912186
 22
3.433633963118987
 32
0.0
 13
11.63980171912186
 23
3.433633963118987
 33
0.0
  0
MTEXT
  5
242C
330
B9E
100
AcDbEntity
  8
DIM
 62
     0
100
AcDbMText
 10
13.17495796912186
 20
3.433633963118987
 30
0.0
 40
0.3125
 41
0.0
 71
     5
 72
     1
  1
\A1;0.137
 73
     1
 44
1.0
  0
POINT
  5
242D
330
B9E
100
AcDbEntity
  8
DEFPOINTS
 62
     0
100
AcDbPoint
 10
11.52180171912186
 20
6.725472963118987
 30
0.0
  0
POINT
  5
242E
330
B9E
100
AcDbEntity
  8
DEFPOINTS
 62
     0
100
AcDbPoint
 10
11.63980171912186
 20
6.353097963118987
 30
0.0
  0
POINT
  5
242F
330
B9E
100
AcDbEntity
  8
DEFPOINTS
 62
     0
100
AcDbPoint
 10
11.63980171912186
 20
3.433633963118987
 30
0.0
  0
ENDBLK
  5
BAA
330
B9E
100
AcDbEntity
  8
0
100
AcDbBlockEnd
  0
BLOCK
  5
BB7
330
BAC
100
AcDbEntity
  8
0
100
AcDbBlockBegin
  2
*D43
 70
     1
 10
0.0
 20
0.0
 30
0.0
  3
*D43
  1

  0
LINE
  5
246D
330
BAC
100
AcDbEntity
  8
DIM
 62
     0
370
    -2
100
AcDbLine
 10
18.65035271912186
 20
11.55150372638746
 30
0.0
 11
18.65035271912186
 21
11.78400372638745
 31
0.0
  0
LINE
  5
246E
330
BAC
100
AcDbEntity
  8
DIM
 62
     0
370
    -2
100
AcDbLine
 10
18.77035271912186
 20
11.55150372638746
 30
0.0
 11
18.77035271912186
 21
11.78400372638745
 31
0.0
  0
LINE
  5
246F
330
BAC
100
AcDbEntity
  8
DIM
 62
     0
370
    -2
100
AcDbLine
 10
18.20035271912186
 20
11.55150372638745
 30
0.0
 11
17.75035271912186
 21
11.55150372638745
 31
0.0
  0
LINE
  5
2470
330
BAC
100
AcDbEntity
  8
DIM
 62
     0
370
    -2
100
AcDbLine
 10
19.22035271912186
 20
11.55150372638745
 30
0.0
 11
19.67035271912186
 21
11.55150372638745
 31
0.0
  0
SOLID
  5
2471
330
BAC
100
AcDbEntity
  8
DIM
 62
     0
100
AcDbTrace
 10
18.20035271912186
 20
11.62650372638745
 30
0.0
 11
18.20035271912186
 21
11.47650372638745
 31
0.0
 12
18.65035271912186
 22
11.55150372638745
 32
0.0
 13
18.65035271912186
 23
11.55150372638745
 33
0.0
  0
SOLID
  5
2472
330
BAC
100
AcDbEntity
  8
DIM
 62
     0
100
AcDbTrace
 10
19.22035271912186
 20
11.62650372638745
 30
0.0
 11
19.22035271912186
 21
11.47650372638745
 31
0.0
 12
18.77035271912186
 22
11.55150372638745
 32
0.0
 13
18.77035271912186
 23
11.55150372638745
 33
0.0
  0
MTEXT
  5
2473
330
BAC
100
AcDbEntity
  8
DIM
 62
     0
100
AcDbMText
 10
20.28597771912186
 20
11.55150372638745
 30
0.0
 40
0.3125
 41
0.0
 71
     5
 72
     1
  1
\A1;0.120
 73
     1
 44
1.0
  0
POINT
  5
2474
330
BAC
100
AcDbEntity
  8
DEFPOINTS
 62
     0
100
AcDbPoint
 10
18.65035271912186
 20
11.39400372638746
 30
0.0
  0
POINT
  5
2475
330
BAC
100
AcDbEntity
  8
DEFPOINTS
 62
     0
100
AcDbPoint
 10
18.77035271912186
 20
11.39400372638746
 30
0.0
  0
POINT
  5
2476
330
BAC
100
AcDbEntity
  8
DEFPOINTS
 62
     0
100
AcDbPoint
 10
18.77035271912186
 20
11.55150372638745
 30
0.0
  0
ENDBLK
  5
BB8
330
BAC
100
AcDbEntity
  8
0
100
AcDbBlockEnd
  0
BLOCK
  5
BC5
330
BBA
100
AcDbEntity
  8
0
100
AcDbBlockBegin
  2
*D44
 70
     1
 10
0.0
 20
0.0
 30
0.0
  3
*D44
  1

  0
LINE
  5
2463
330
BBA
100
AcDbEntity
  8
DIM
 62
     0
370
    -2
100
AcDbLine
 10
18.45435271912186
 20
9.166847963118986
 30
0.0
 11
18.45435271912186
 21
8.468313667467912
 31
0.0
  0
LINE
  5
2464
330
BBA
100
AcDbEntity
  8
DIM
 62
     0
370
    -2
100
AcDbLine
 10
18.77035271912186
 20
9.153851847572312
 30
0.0
 11
18.77035271912186
 21
8.468313667467912
 31
0.0
  0
LINE
  5
2465
330
BBA
100
AcDbEntity
  8
DIM
 62
     0
370
    -2
100
AcDbLine
 10
18.00435271912186
 20
8.700813667467912
 30
0.0
 11
17.55435271912186
 21
8.700813667467912
 31
0.0
  0
LINE
  5
2466
330
BBA
100
AcDbEntity
  8
DIM
 62
     0
370
    -2
100
AcDbLine
 10
19.22035271912186
 20
8.700813667467912
 30
0.0
 11
19.67035271912186
 21
8.700813667467912
 31
0.0
  0
SOLID
  5
2467
330
BBA
100
AcDbEntity
  8
DIM
 62
     0
100
AcDbTrace
 10
18.00435271912186
 20
8.775813667467911
 30
0.0
 11
18.00435271912186
 21
8.625813667467912
 31
0.0
 12
18.45435271912186
 22
8.700813667467912
 32
0.0
 13
18.45435271912186
 23
8.700813667467912
 33
0.0
  0
SOLID
  5
2468
330
BBA
100
AcDbEntity
  8
DIM
 62
     0
100
AcDbTrace
 10
19.22035271912186
 20
8.775813667467911
 30
0.0
 11
19.22035271912186
 21
8.625813667467912
 31
0.0
 12
18.77035271912186
 22
8.700813667467912
 32
0.0
 13
18.77035271912186
 23
8.700813667467912
 33
0.0
  0
MTEXT
  5
2469
330
BBA
100
AcDbEntity
  8
DIM
 62
     0
100
AcDbMText
 10
20.30550896912186
 20
8.700813667467912
 30
0.0
 40
0.3125
 41
0.0
 71
     5
 72
     1
  1
\A1;0.316
 73
     1
 44
1.0
  0
POINT
  5
246A
330
BBA
100
AcDbEntity
  8
DEFPOINTS
 62
     0
100
AcDbPoint
 10
18.45435271912186
 20
9.324347963118986
 30
0.0
  0
POINT
  5
246B
330
BBA
100
AcDbEntity
  8
DEFPOINTS
 62
     0
100
AcDbPoint
 10
18.77035271912186
 20
9.311351847572312
 30
0.0
  0
POINT
  5
246C
330
BBA
100
AcDbEntity
  8
DEFPOINTS
 62
     0
100
AcDbPoint
 10
18.77035271912186
 20
8.700813667467912
 30
0.0
  0
ENDBLK
  5
BC6
330
BBA
100
AcDbEntity
  8
0
100
AcDbBlockEnd
  0
BLOCK
  5
BD3
330
BC8
100
AcDbEntity
  8
0
100
AcDbBlockBegin
  2
*D45
 70
     1
 10
0.0
 20
0.0
 30
0.0
  3
*D45
  1

  0
LINE
  5
241C
330
BC8
100
AcDbEntity
  8
DIM
 62
     0
370
    -2
100
AcDbLine
 10
8.490801719121861
 20
6.053847963118987
 30
0.0
 11
8.490801719121861
 21
2.498633963118987
 31
0.0
  0
LINE
  5
241D
330
BC8
100
AcDbEntity
  8
DIM
 62
     0
370
    -2
100
AcDbLine
 10
11.63980171912186
 20
6.053847963118987
 30
0.0
 11
11.63980171912186
 21
2.498633963118987
 31
0.0
  0
LINE
  5
241E
330
BC8
100
AcDbEntity
  8
DIM
 62
     0
370
    -2
100
AcDbLine
 10
8.940801719121861
 20
2.731133963118987
 30
0.0
 11
9.410614219121862
 21
2.731133963118987
 31
0.0
  0
LINE
  5
241F
330
BC8
100
AcDbEntity
  8
DIM
 62
     0
370
    -2
100
AcDbLine
 10
11.18980171912186
 20
2.731133963118987
 30
0.0
 11
10.71998921912186
 21
2.731133963118987
 31
0.0
  0
SOLID
  5
2420
330
BC8
100
AcDbEntity
  8
DIM
 62
     0
100
AcDbTrace
 10
8.940801719121861
 20
2.806133963118988
 30
0.0
 11
8.940801719121861
 21
2.656133963118987
 31
0.0
 12
8.490801719121861
 22
2.731133963118987
 32
0.0
 13
8.490801719121861
 23
2.731133963118987
 33
0.0
  0
SOLID
  5
2421
330
BC8
100
AcDbEntity
  8
DIM
 62
     0
100
AcDbTrace
 10
11.18980171912186
 20
2.806133963118988
 30
0.0
 11
11.18980171912186
 21
2.656133963118987
 31
0.0
 12
11.63980171912186
 22
2.731133963118987
 32
0.0
 13
11.63980171912186
 23
2.731133963118987
 33
0.0
  0
MTEXT
  5
2422
330
BC8
100
AcDbEntity
  8
DIM
 62
     0
100
AcDbMText
 10
10.06530171912186
 20
2.731133963118987
 30
0.0
 40
0.3125
 41
0.0
 71
     5
 72
     1
  1
\A1;3.149
 73
     1
 44
1.0
  0
POINT
  5
2423
330
BC8
100
AcDbEntity
  8
DEFPOINTS
 62
     0
100
AcDbPoint
 10
8.490801719121861
 20
6.211347963118987
 30
0.0
  0
POINT
  5
2424
330
BC8
100
AcDbEntity
  8
DEFPOINTS
 62
     0
100
AcDbPoint
 10
11.63980171912186
 20
6.211347963118987
 30
0.0
  0
POINT
  5
2425
330
BC8
100
AcDbEntity
  8
DEFPOINTS
 62
     0
100
AcDbPoint
 10
11.63980171912186
 20
2.731133963118987
 30
0.0
  0
ENDBLK
  5
BD4
330
BC8
100
AcDbEntity
  8
0
100
AcDbBlockEnd
  0
BLOCK
  5
C01
330
BF6
100
AcDbEntity
  8
0
100
AcDbBlockBegin
  2
*D46
 70
     1
 10
0.0
 20
0.0
 30
0.0
  3
*D46
  1

  0
LINE
  5
2560
330
BF6
100
AcDbEntity
  8
DIM
 62
     0
370
    -2
100
AcDbLine
 10
37.59873943170231
 20
13.95757096311899
 30
0.0
 11
37.59873943170231
 21
15.29435696311898
 31
0.0
  0
LINE
  5
2561
330
BF6
100
AcDbEntity
  8
DIM
 62
     0
370
    -2
100
AcDbLine
 10
37.20573943170231
 20
13.89507096311898
 30
0.0
 11
37.20573943170231
 21
15.29435696311898
 31
0.0
  0
LINE
  5
2562
330
BF6
100
AcDbEntity
  8
DIM
 62
     0
370
    -2
100
AcDbLine
 10
38.04873943170231
 20
15.06185696311898
 30
0.0
 11
38.49873943170231
 21
15.06185696311898
 31
0.0
  0
LINE
  5
2563
330
BF6
100
AcDbEntity
  8
DIM
 62
     0
370
    -2
100
AcDbLine
 10
36.75573943170231
 20
15.06185696311898
 30
0.0
 11
36.30573943170231
 21
15.06185696311898
 31
0.0
  0
SOLID
  5
2564
330
BF6
100
AcDbEntity
  8
DIM
 62
     0
100
AcDbTrace
 10
38.04873943170231
 20
15.13685696311898
 30
0.0
 11
38.04873943170231
 21
14.98685696311898
 31
0.0
 12
37.59873943170231
 22
15.06185696311898
 32
0.0
 13
37.59873943170231
 23
15.06185696311898
 33
0.0
  0
SOLID
  5
2565
330
BF6
100
AcDbEntity
  8
DIM
 62
     0
100
AcDbTrace
 10
36.75573943170231
 20
15.13685696311898
 30
0.0
 11
36.75573943170231
 21
14.98685696311898
 31
0.0
 12
37.20573943170231
 22
15.06185696311898
 32
0.0
 13
37.20573943170231
 23
15.06185696311898
 33
0.0
  0
MTEXT
  5
2566
330
BF6
100
AcDbEntity
  8
DIM
 62
     0
100
AcDbMText
 10
35.63152068170231
 20
15.06185696311898
 30
0.0
 40
0.3125
 41
0.0
 71
     5
 72
     1
  1
\A1;0.393
 73
     1
 44
1.0
  0
POINT
  5
2567
330
BF6
100
AcDbEntity
  8
DEFPOINTS
 62
     0
100
AcDbPoint
 10
37.59873943170231
 20
13.80007096311898
 30
0.0
  0
POINT
  5
2568
330
BF6
100
AcDbEntity
  8
DEFPOINTS
 62
     0
100
AcDbPoint
 10
37.20573943170231
 20
13.73757096311899
 30
0.0
  0
POINT
  5
2569
330
BF6
100
AcDbEntity
  8
DEFPOINTS
 62
     0
100
AcDbPoint
 10
37.20573943170231
 20
15.06185696311898
 30
0.0
  0
ENDBLK
  5
C02
330
BF6
100
AcDbEntity
  8
0
100
AcDbBlockEnd
  0
BLOCK
  5
C0F
330
C04
100
AcDbEntity
  8
0
100
AcDbBlockBegin
  2
*D47
 70
     1
 10
0.0
 20
0.0
 30
0.0
  3
*D47
  1

  0
LINE
  5
2556
330
C04
100
AcDbEntity
  8
DIM
 62
     0
370
    -2
100
AcDbLine
 10
37.20573943170231
 20
13.89507096311898
 30
0.0
 11
37.20573943170231
 21
15.99685696311898
 31
0.0
  0
LINE
  5
2557
330
C04
100
AcDbEntity
  8
DIM
 62
     0
370
    -2
100
AcDbLine
 10
39.37073943170231
 20
13.89507096311898
 30
0.0
 11
39.37073943170231
 21
15.99685696311898
 31
0.0
  0
LINE
  5
2558
330
C04
100
AcDbEntity
  8
DIM
 62
     0
370
    -2
100
AcDbLine
 10
36.75573943170231
 20
15.76435696311898
 30
0.0
 11
36.30573943170231
 21
15.76435696311898
 31
0.0
  0
LINE
  5
2559
330
C04
100
AcDbEntity
  8
DIM
 62
     0
370
    -2
100
AcDbLine
 10
39.82073943170232
 20
15.76435696311898
 30
0.0
 11
40.27073943170232
 21
15.76435696311898
 31
0.0
  0
SOLID
  5
255A
330
C04
100
AcDbEntity
  8
DIM
 62
     0
100
AcDbTrace
 10
36.75573943170231
 20
15.83935696311898
 30
0.0
 11
36.75573943170231
 21
15.68935696311898
 31
0.0
 12
37.20573943170231
 22
15.76435696311898
 32
0.0
 13
37.20573943170231
 23
15.76435696311898
 33
0.0
  0
SOLID
  5
255B
330
C04
100
AcDbEntity
  8
DIM
 62
     0
100
AcDbTrace
 10
39.82073943170232
 20
15.83935696311898
 30
0.0
 11
39.82073943170232
 21
15.68935696311898
 31
0.0
 12
39.37073943170231
 22
15.76435696311898
 32
0.0
 13
39.37073943170231
 23
15.76435696311898
 33
0.0
  0
MTEXT
  5
255C
330
C04
100
AcDbEntity
  8
DIM
 62
     0
100
AcDbMText
 10
38.28823943170231
 20
15.76435696311898
 30
0.0
 40
0.3125
 41
0.0
 71
     5
 72
     1
  1
\A1;2.165
 73
     1
 44
1.0
  0
POINT
  5
255D
330
C04
100
AcDbEntity
  8
DEFPOINTS
 62
     0
100
AcDbPoint
 10
37.20573943170231
 20
13.73757096311899
 30
0.0
  0
POINT
  5
255E
330
C04
100
AcDbEntity
  8
DEFPOINTS
 62
     0
100
AcDbPoint
 10
39.37073943170231
 20
13.73757096311899
 30
0.0
  0
POINT
  5
255F
330
C04
100
AcDbEntity
  8
DEFPOINTS
 62
     0
100
AcDbPoint
 10
39.37073943170231
 20
15.76435696311898
 30
0.0
  0
ENDBLK
  5
C10
330
C04
100
AcDbEntity
  8
0
100
AcDbBlockEnd
  0
BLOCK
  5
C3F
330
C34
100
AcDbEntity
  8
0
100
AcDbBlockBegin
  2
*D48
 70
     1
 10
0.0
 20
0.0
 30
0.0
  3
*D48
  1

  0
LINE
  5
2504
330
C34
100
AcDbEntity
  8
DIM
 62
     0
370
    -2
100
AcDbLine
 10
33.16786243170231
 20
11.86295796311898
 30
0.0
 11
33.16786243170231
 21
11.63045796311898
 31
0.0
  0
LINE
  5
2505
330
C34
100
AcDbEntity
  8
DIM
 62
     0
370
    -2
100
AcDbLine
 10
33.04786243170231
 20
11.86295796311898
 30
0.0
 11
33.04786243170231
 21
11.63045796311898
 31
0.0
  0
LINE
  5
2506
330
C34
100
AcDbEntity
  8
DIM
 62
     0
370
    -2
100
AcDbLine
 10
33.61786243170232
 20
11.86295796311898
 30
0.0
 11
34.06786243170231
 21
11.86295796311898
 31
0.0
  0
LINE
  5
2507
330
C34
100
AcDbEntity
  8
DIM
 62
     0
370
    -2
100
AcDbLine
 10
32.59786243170231
 20
11.86295796311898
 30
0.0
 11
32.14786243170231
 21
11.86295796311898
 31
0.0
  0
SOLID
  5
2508
330
C34
100
AcDbEntity
  8
DIM
 62
     0
100
AcDbTrace
 10
33.61786243170232
 20
11.93795796311898
 30
0.0
 11
33.61786243170232
 21
11.78795796311898
 31
0.0
 12
33.16786243170231
 22
11.86295796311898
 32
0.0
 13
33.16786243170231
 23
11.86295796311898
 33
0.0
  0
SOLID
  5
2509
330
C34
100
AcDbEntity
  8
DIM
 62
     0
100
AcDbTrace
 10
32.59786243170231
 20
11.93795796311898
 30
0.0
 11
32.59786243170231
 21
11.78795796311898
 31
0.0
 12
33.04786243170231
 22
11.86295796311898
 32
0.0
 13
33.04786243170231
 23
11.86295796311898
 33
0.0
  0
MTEXT
  5
250A
330
C34
100
AcDbEntity
  8
DIM
 62
     0
100
AcDbMText
 10
31.53223743170231
 20
11.86295796311898
 30
0.0
 40
0.3125
 41
0.0
 71
     5
 72
     1
  1
\A1;0.120
 73
     1
 44
1.0
  0
POINT
  5
250B
330
C34
100
AcDbEntity
  8
DEFPOINTS
 62
     0
100
AcDbPoint
 10
33.16786243170231
 20
12.02045796311898
 30
0.0
  0
POINT
  5
250C
330
C34
100
AcDbEntity
  8
DEFPOINTS
 62
     0
100
AcDbPoint
 10
33.04786243170231
 20
12.02045796311898
 30
0.0
  0
POINT
  5
250D
330
C34
100
AcDbEntity
  8
DEFPOINTS
 62
     0
100
AcDbPoint
 10
33.04786243170231
 20
11.86295796311898
 30
0.0
  0
ENDBLK
  5
C40
330
C34
100
AcDbEntity
  8
0
100
AcDbBlockEnd
  0
BLOCK
  5
C4D
330
C42
100
AcDbEntity
  8
0
100
AcDbBlockBegin
  2
*D49
 70
     1
 10
0.0
 20
0.0
 30
0.0
  3
*D49
  1

  0
LINE
  5
252E
330
C42
100
AcDbEntity
  8
DIM
 62
     0
370
    -2
100
AcDbLine
 10
33.16786243170231
 20
13.90634796311898
 30
0.0
 11
33.16786243170231
 21
14.59185696311898
 31
0.0
  0
LINE
  5
252F
330
C42
100
AcDbEntity
  8
DIM
 62
     0
370
    -2
100
AcDbLine
 10
32.77486243170232
 20
13.96884796311898
 30
0.0
 11
32.77486243170232
 21
14.59185696311898
 31
0.0
  0
LINE
  5
2530
330
C42
100
AcDbEntity
  8
DIM
 62
     0
370
    -2
100
AcDbLine
 10
33.61786243170232
 20
14.35935696311898
 30
0.0
 11
34.06786243170231
 21
14.35935696311898
 31
0.0
  0
LINE
  5
2531
330
C42
100
AcDbEntity
  8
DIM
 62
     0
370
    -2
100
AcDbLine
 10
32.32486243170231
 20
14.35935696311898
 30
0.0
 11
31.87486243170232
 21
14.35935696311898
 31
0.0
  0
SOLID
  5
2532
330
C42
100
AcDbEntity
  8
DIM
 62
     0
100
AcDbTrace
 10
33.61786243170232
 20
14.43435696311898
 30
0.0
 11
33.61786243170232
 21
14.28435696311898
 31
0.0
 12
33.16786243170231
 22
14.35935696311898
 32
0.0
 13
33.16786243170231
 23
14.35935696311898
 33
0.0
  0
SOLID
  5
2533
330
C42
100
AcDbEntity
  8
DIM
 62
     0
100
AcDbTrace
 10
32.32486243170231
 20
14.43435696311898
 30
0.0
 11
32.32486243170231
 21
14.28435696311898
 31
0.0
 12
32.77486243170232
 22
14.35935696311898
 32
0.0
 13
32.77486243170232
 23
14.35935696311898
 33
0.0
  0
MTEXT
  5
2534
330
C42
100
AcDbEntity
  8
DIM
 62
     0
100
AcDbMText
 10
31.20064368170231
 20
14.35935696311898
 30
0.0
 40
0.3125
 41
0.0
 71
     5
 72
     1
  1
\A1;0.393
 73
     1
 44
1.0
  0
POINT
  5
2535
330
C42
100
AcDbEntity
  8
DEFPOINTS
 62
     0
100
AcDbPoint
 10
33.16786243170231
 20
13.74884796311898
 30
0.0
  0
POINT
  5
2536
330
C42
100
AcDbEntity
  8
DEFPOINTS
 62
     0
100
AcDbPoint
 10
32.77486243170232
 20
13.81134796311898
 30
0.0
  0
POINT
  5
2537
330
C42
100
AcDbEntity
  8
DEFPOINTS
 62
     0
100
AcDbPoint
 10
32.77486243170232
 20
14.35935696311898
 30
0.0
  0
ENDBLK
  5
C4E
330
C42
100
AcDbEntity
  8
0
100
AcDbBlockEnd
  0
BLOCK
  5
13FC
330
13E5
100
AcDbEntity
  8
0
100
AcDbBlockBegin
  2
HBS
 70
     0
 10
0.0
 20
0.0
 30
0.0
  3
HBS
  1

  0
LINE
  5
13E6
330
13E5
100
AcDbEntity
  8
TITLE
100
AcDbLine
 10
0.0620000000000118
 20
10.266
 30
0.0
 11
16.53800000000001
 21
10.266
 31
0.0
  0
LINE
  5
13E7
330
13E5
100
AcDbEntity
  8
TITLE
100
AcDbLine
 10
16.53800000000001
 20
0.0620000000000012
 30
0.0
 11
0.0620000000000118
 21
0.0620000000000012
 31
0.0
  0
LINE
  5
13E8
330
13E5
100
AcDbEntity
  8
TITLE
100
AcDbLine
 10
0.0
 20
10.32799999999999
 30
0.0
 11
16.59999999999999
 21
10.32799999999999
 31
0.0
  0
LINE
  5
13E9
330
13E5
100
AcDbEntity
  8
TITLE
100
AcDbLine
 10
16.59999999999999
 20
0.0
 30
0.0
 11
0.0
 21
0.0
 31
0.0
  0
LINE
  5
13EA
330
13E5
100
AcDbEntity
  8
TITLE
100
AcDbLine
 10
0.0620000000000118
 20
9.848000000000002
 30
0.0
 11
16.53800000000001
 21
9.848000000000006
 31
0.0
  0
LINE
  5
13EB
330
13E5
100
AcDbEntity
  8
TITLE
100
AcDbLine
 10
0.0620000000000118
 20
0.0620000000000012
 30
0.0
 11
0.0620000000000118
 21
10.266
 31
0.0
  0
LINE
  5
13EC
330
13E5
100
AcDbEntity
  8
TITLE
100
AcDbLine
 10
0.0
 20
0.0
 30
0.0
 11
0.0
 21
10.32799999999999
 31
0.0
  0
TEXT
  5
13ED
330
13E5
100
AcDbEntity
  8
TEXT
100
AcDbText
 10
0.2078333333333452
 20
9.888079195640081
 30
0.0
 40
0.125
  1
NAME
 72
     1
 11
0.4370000000000119
 21
9.888079195640081
 31
0.0
100
AcDbText
  0
TEXT
  5
13EE
330
13E5
100
AcDbEntity
  8
TEXT
100
AcDbText
 10
0.2078333333333452
 20
10.09641252897341
 30
0.0
 40
0.125
  1
PART
 72
     1
 11
0.4370000000000119
 21
10.09641252897341
 31
0.0
100
AcDbText
  0
LINE
  5
13EF
330
13E5
100
AcDbEntity
  8
TITLE
100
AcDbLine
 10
0.8120000000000118
 20
9.848000000000002
 30
0.0
 11
0.8120000000000118
 21
10.266
 31
0.0
  0
LINE
  5
13F0
330
13E5
100
AcDbEntity
  8
TITLE
100
AcDbLine
 10
7.0
 20
10.266
 30
0.0
 11
7.0
 21
9.848000000000002
 31
0.0
  0
LINE
  5
13F1
330
13E5
100
AcDbEntity
  8
TITLE
100
AcDbLine
 10
7.062000000000011
 20
10.266
 30
0.0
 11
7.062000000000011
 21
9.848000000000002
 31
0.0
  0
LINE
  5
13F2
330
13E5
100
AcDbEntity
  8
TITLE
100
AcDbLine
 10
7.812000000000011
 20
10.266
 30
0.0
 11
7.812000000000011
 21
9.848000000000002
 31
0.0
  0
TEXT
  5
13F3
330
13E5
100
AcDbEntity
  8
TEXT
100
AcDbText
 10
7.312000000000011
 20
9.888079195640081
 30
0.0
 40
0.125
  1
No.
 72
     1
 11
7.437000000000011
 21
9.888079195640081
 31
0.0
100
AcDbText
  0
TEXT
  5
13F4
330
13E5
100
AcDbEntity
  8
TEXT
100
AcDbText
 10
7.207833333333344
 20
10.09641252897341
 30
0.0
 40
0.125
  1
PART
 72
     1
 11
7.437000000000011
 21
10.09641252897341
 31
0.0
100
AcDbText
  0
LINE
  5
13F5
330
13E5
100
AcDbEntity
  8
TITLE
100
AcDbLine
 10
16.53800000000001
 20
10.266
 30
0.0
 11
16.53800000000001
 21
0.0620000000000012
 31
0.0
  0
LINE
  5
13F6
330
13E5
100
AcDbEntity
  8
TITLE
100
AcDbLine
 10
16.59999999999999
 20
10.32799999999999
 30
0.0
 11
16.59999999999999
 21
0.0
 31
0.0
  0
TEXT
  5
13F7
330
13E5
100
AcDbEntity
  8
TEXT
100
AcDbText
 10
14.22865779971668
 20
10.09641252897341
 30
0.0
 40
0.125
  1
REV.
 72
     1
 11
14.43699113305001
 21
10.09641252897341
 31
0.0
100
AcDbText
  0
TEXT
  5
13F8
330
13E5
100
AcDbEntity
  8
TEXT
100
AcDbText
 10
14.20782446638335
 20
9.888079195640081
 30
0.0
 40
0.125
  1
DATE
 72
     1
 11
14.43699113305001
 21
9.888079195640081
 31
0.0
100
AcDbText
  0
LINE
  5
13F9
330
13E5
100
AcDbEntity
  8
TITLE
100
AcDbLine
 10
14.06199113305001
 20
10.266
 30
0.0
 11
14.06199113305001
 21
9.848000000000002
 31
0.0
  0
LINE
  5
13FA
330
13E5
100
AcDbEntity
  8
TITLE
100
AcDbLine
 10
14.81199113305001
 20
10.266
 30
0.0
 11
14.81199113305001
 21
9.848000000000002
 31
0.0
  0
LINE
  5
13FB
330
13E5
100
AcDbEntity
  8
TITLE
100
AcDbLine
 10
13.99999113305
 20
10.266
 30
0.0
 11
13.99999113305
 21
9.848000000000002
 31
0.0
  0
ENDBLK
  5
13FD
330
13E5
100
AcDbEntity
  8
0
100
AcDbBlockEnd
  0
BLOCK
  5
158D
330
1574
100
AcDbEntity
  8
0
100
AcDbBlockBegin
  2
*X51
 70
     1
 10
0.0
 20
0.0
 30
0.0
  3
*X51
  1

  0
LINE
  5
1575
330
1574
100
AcDbEntity
  8
0
 62
     0
100
AcDbLine
 10
18.375
 20
12.0
 30
0.0
 11
18.46875
 21
12.0
 31
0.0
  0
LINE
  5
1576
330
1574
100
AcDbEntity
  8
0
 62
     0
100
AcDbLine
 10
18.5625
 20
12.0
 30
0.0
 11
18.65625
 21
12.0
 31
0.0
  0
LINE
  5
1577
330
1574
100
AcDbEntity
  8
0
 62
     0
100
AcDbLine
 10
18.75
 20
12.0
 30
0.0
 11
18.79551
 21
12.0
 31
0.0
  0
LINE
  5
1578
330
1574
100
AcDbEntity
  8
0
 62
     0
100
AcDbLine
 10
18.33550999999999
 20
12.09375
 30
0.0
 11
18.375
 21
12.09375
 31
0.0
  0
LINE
  5
1579
330
1574
100
AcDbEntity
  8
0
 62
     0
100
AcDbLine
 10
18.46875
 20
12.09375
 30
0.0
 11
18.5625
 21
12.09375
 31
0.0
  0
LINE
  5
157A
330
1574
100
AcDbEntity
  8
0
 62
     0
100
AcDbLine
 10
18.65625
 20
12.09375
 30
0.0
 11
18.75
 21
12.09375
 31
0.0
  0
LINE
  5
157B
330
1574
100
AcDbEntity
  8
0
 62
     0
100
AcDbLine
 10
18.375
 20
12.1875
 30
0.0
 11
18.46875
 21
12.1875
 31
0.0
  0
LINE
  5
157C
330
1574
100
AcDbEntity
  8
0
 62
     0
100
AcDbLine
 10
18.5625
 20
12.1875
 30
0.0
 11
18.65625
 21
12.1875
 31
0.0
  0
LINE
  5
157D
330
1574
100
AcDbEntity
  8
0
 62
     0
100
AcDbLine
 10
18.75
 20
12.1875
 30
0.0
 11
18.79551
 21
12.1875
 31
0.0
  0
LINE
  5
157E
330
1574
100
AcDbEntity
  8
0
 62
     0
100
AcDbLine
 10
18.33550999999999
 20
11.90625
 30
0.0
 11
18.375
 21
11.90625
 31
0.0
  0
LINE
  5
157F
330
1574
100
AcDbEntity
  8
0
 62
     0
100
AcDbLine
 10
18.46875
 20
11.90625
 30
0.0
 11
18.5625
 21
11.90625
 31
0.0
  0
LINE
  5
1580
330
1574
100
AcDbEntity
  8
0
 62
     0
100
AcDbLine
 10
18.65625
 20
11.90625
 30
0.0
 11
18.75
 21
11.90625
 31
0.0
  0
LINE
  5
1581
330
1574
100
AcDbEntity
  8
0
 62
     0
100
AcDbLine
 10
18.5625
 20
11.90625
 30
0.0
 11
18.5625
 21
12.0
 31
0.0
  0
LINE
  5
1582
330
1574
100
AcDbEntity
  8
0
 62
     0
100
AcDbLine
 10
18.5625
 20
12.09375
 30
0.0
 11
18.5625
 21
12.1875
 31
0.0
  0
LINE
  5
1583
330
1574
100
AcDbEntity
  8
0
 62
     0
100
AcDbLine
 10
18.46875
 20
11.888974
 30
0.0
 11
18.46875
 21
11.90625
 31
0.0
  0
LINE
  5
1584
330
1574
100
AcDbEntity
  8
0
 62
     0
100
AcDbLine
 10
18.46875
 20
12.0
 30
0.0
 11
18.46875
 21
12.09375
 31
0.0
  0
LINE
  5
1585
330
1574
100
AcDbEntity
  8
0
 62
     0
100
AcDbLine
 10
18.46875
 20
12.1875
 30
0.0
 11
18.46875
 21
12.208974
 31
0.0
  0
LINE
  5
1586
330
1574
100
AcDbEntity
  8
0
 62
     0
100
AcDbLine
 10
18.375
 20
11.90625
 30
0.0
 11
18.375
 21
12.0
 31
0.0
  0
LINE
  5
1587
330
1574
100
AcDbEntity
  8
0
 62
     0
100
AcDbLine
 10
18.375
 20
12.09375
 30
0.0
 11
18.375
 21
12.1875
 31
0.0
  0
LINE
  5
1588
330
1574
100
AcDbEntity
  8
0
 62
     0
100
AcDbLine
 10
18.65625
 20
11.888974
 30
0.0
 11
18.65625
 21
11.90625
 31
0.0
  0
LINE
  5
1589
330
1574
100
AcDbEntity
  8
0
 62
     0
100
AcDbLine
 10
18.65625
 20
12.0
 30
0.0
 11
18.65625
 21
12.09375
 31
0.0
  0
LINE
  5
158A
330
1574
100
AcDbEntity
  8
0
 62
     0
100
AcDbLine
 10
18.65625
 20
12.1875
 30
0.0
 11
18.65625
 21
12.208974
 31
0.0
  0
LINE
  5
158B
330
1574
100
AcDbEntity
  8
0
 62
     0
100
AcDbLine
 10
18.75
 20
11.90625
 30
0.0
 11
18.75
 21
12.0
 31
0.0
  0
LINE
  5
158C
330
1574
100
AcDbEntity
  8
0
 62
     0
100
AcDbLine
 10
18.75
 20
12.09375
 30
0.0
 11
18.75
 21
12.1875
 31
0.0
  0
ENDBLK
  5
158E
330
1574
100
AcDbEntity
  8
0
100
AcDbBlockEnd
  0
BLOCK
  5
160F
330
1604
100
AcDbEntity
  8
0
100
AcDbBlockBegin
  2
*D52
 70
     1
 10
0.0
 20
0.0
 30
0.0
  3
*D52
  1

  0
LINE
  5
190E
330
1604
100
AcDbEntity
  8
DIM
 62
     0
370
    -2
100
AcDbLine
 10
32.59372518222547
 20
19.56837194020512
 30
0.0
 11
32.59372518222547
 21
18.60190644020511
 31
0.0
  0
LINE
  5
190F
330
1604
100
AcDbEntity
  8
DIM
 62
     0
370
    -2
100
AcDbLine
 10
32.11372518222546
 20
19.64037194020512
 30
0.0
 11
32.11372518222546
 21
18.60190644020511
 31
0.0
  0
LINE
  5
1910
330
1604
100
AcDbEntity
  8
DIM
 62
     0
370
    -2
100
AcDbLine
 10
33.04372518222547
 20
18.83440644020511
 30
0.0
 11
33.49372518222546
 21
18.83440644020511
 31
0.0
  0
LINE
  5
1911
330
1604
100
AcDbEntity
  8
DIM
 62
     0
370
    -2
100
AcDbLine
 10
31.66372518222546
 20
18.83440644020511
 30
0.0
 11
31.21372518222546
 21
18.83440644020511
 31
0.0
  0
SOLID
  5
1912
330
1604
100
AcDbEntity
  8
DIM
 62
     0
100
AcDbTrace
 10
33.04372518222547
 20
18.90940644020511
 30
0.0
 11
33.04372518222547
 21
18.75940644020511
 31
0.0
 12
32.59372518222547
 22
18.83440644020511
 32
0.0
 13
32.59372518222547
 23
18.83440644020511
 33
0.0
  0
SOLID
  5
1913
330
1604
100
AcDbEntity
  8
DIM
 62
     0
100
AcDbTrace
 10
31.66372518222546
 20
18.90940644020511
 30
0.0
 11
31.66372518222546
 21
18.75940644020511
 31
0.0
 12
32.11372518222546
 22
18.83440644020511
 32
0.0
 13
32.11372518222546
 23
18.83440644020511
 33
0.0
  0
MTEXT
  5
1914
330
1604
100
AcDbEntity
  8
DIM
 62
     0
100
AcDbMText
 10
30.59810018222546
 20
18.83440644020511
 30
0.0
 40
0.3125
 41
0.0
 71
     5
 72
     1
  1
\A1;0.120
 73
     1
 44
1.0
  0
POINT
  5
1915
330
1604
100
AcDbEntity
  8
DEFPOINTS
 62
     0
100
AcDbPoint
 10
32.59372518222547
 20
19.72587194020512
 30
0.0
  0
POINT
  5
1916
330
1604
100
AcDbEntity
  8
DEFPOINTS
 62
     0
100
AcDbPoint
 10
32.11372518222546
 20
19.79787194020511
 30
0.0
  0
POINT
  5
1917
330
1604
100
AcDbEntity
  8
DEFPOINTS
 62
     0
100
AcDbPoint
 10
32.11372518222546
 20
18.83440644020511
 30
0.0
  0
ENDBLK
  5
1610
330
1604
100
AcDbEntity
  8
0
100
AcDbBlockEnd
  0
BLOCK
  5
161C
330
1611
100
AcDbEntity
  8
0
100
AcDbBlockBegin
  2
*D53
 70
     1
 10
0.0
 20
0.0
 30
0.0
  3
*D53
  1

  0
LINE
  5
1918
330
1611
100
AcDbEntity
  8
DIM
 62
     0
370
    -2
100
AcDbLine
 10
31.47772518222547
 20
21.68087194020511
 30
0.0
 11
31.47772518222547
 21
23.87145452390881
 31
0.0
  0
LINE
  5
1919
330
1611
100
AcDbEntity
  8
DIM
 62
     0
370
    -2
100
AcDbLine
 10
31.01772518222547
 20
22.9579545239088
 30
0.0
 11
31.01772518222547
 21
23.87145452390881
 31
0.0
  0
LINE
  5
191A
330
1611
100
AcDbEntity
  8
DIM
 62
     0
370
    -2
100
AcDbLine
 10
31.92772518222547
 20
23.63895452390881
 30
0.0
 11
32.37772518222547
 21
23.63895452390881
 31
0.0
  0
LINE
  5
191B
330
1611
100
AcDbEntity
  8
DIM
 62
     0
370
    -2
100
AcDbLine
 10
30.56772518222548
 20
23.63895452390881
 30
0.0
 11
30.11772518222548
 21
23.63895452390881
 31
0.0
  0
SOLID
  5
191C
330
1611
100
AcDbEntity
  8
DIM
 62
     0
100
AcDbTrace
 10
31.92772518222547
 20
23.7139545239088
 30
0.0
 11
31.92772518222547
 21
23.5639545239088
 31
0.0
 12
31.47772518222547
 22
23.63895452390881
 32
0.0
 13
31.47772518222547
 23
23.63895452390881
 33
0.0
  0
SOLID
  5
191D
330
1611
100
AcDbEntity
  8
DIM
 62
     0
100
AcDbTrace
 10
30.56772518222548
 20
23.7139545239088
 30
0.0
 11
30.56772518222548
 21
23.5639545239088
 31
0.0
 12
31.01772518222547
 22
23.63895452390881
 32
0.0
 13
31.01772518222547
 23
23.63895452390881
 33
0.0
  0
MTEXT
  5
191E
330
1611
100
AcDbEntity
  8
DIM
 62
     0
100
AcDbMText
 10
29.52163143222547
 20
23.63895452390881
 30
0.0
 40
0.3125
 41
0.0
 71
     5
 72
     1
  1
\A1;0.115
 73
     1
 44
1.0
  0
POINT
  5
191F
330
1611
100
AcDbEntity
  8
DEFPOINTS
 62
     0
100
AcDbPoint
 10
31.47772518222547
 20
21.52337194020512
 30
0.0
  0
POINT
  5
1920
330
1611
100
AcDbEntity
  8
DEFPOINTS
 62
     0
100
AcDbPoint
 10
31.01772518222547
 20
22.80045452390881
 30
0.0
  0
POINT
  5
1921
330
1611
100
AcDbEntity
  8
DEFPOINTS
 62
     0
100
AcDbPoint
 10
31.01772518222547
 20
23.63895452390881
 30
0.0
  0
ENDBLK
  5
161D
330
1611
100
AcDbEntity
  8
0
100
AcDbBlockEnd
  0
BLOCK
  5
1629
330
161E
100
AcDbEntity
  8
0
100
AcDbBlockBegin
  2
*D54
 70
     1
 10
0.0
 20
0.0
 30
0.0
  3
*D54
  1

  0
LINE
  5
18D1
330
161E
100
AcDbEntity
  8
DIM
 62
     0
370
    -2
100
AcDbLine
 10
30.86022518222547
 20
20.76161994020512
 30
0.0
 11
29.53227418222547
 21
20.76161994020512
 31
0.0
  0
LINE
  5
18D2
330
161E
100
AcDbEntity
  8
DIM
 62
     0
370
    -2
100
AcDbLine
 10
30.86022518222547
 20
20.07411994020512
 30
0.0
 11
29.53227418222547
 21
20.07411994020512
 31
0.0
  0
LINE
  5
18D3
330
161E
100
AcDbEntity
  8
DIM
 62
     0
370
    -2
100
AcDbLine
 10
29.76477418222547
 20
21.21161994020512
 30
0.0
 11
29.76477418222547
 21
21.66161994020512
 31
0.0
  0
LINE
  5
18D4
330
161E
100
AcDbEntity
  8
DIM
 62
     0
370
    -2
100
AcDbLine
 10
29.76477418222547
 20
19.62411994020513
 30
0.0
 11
29.76477418222547
 21
19.17411994020513
 31
0.0
  0
SOLID
  5
18D5
330
161E
100
AcDbEntity
  8
DIM
 62
     0
100
AcDbTrace
 10
29.68977418222547
 20
21.21161994020512
 30
0.0
 11
29.83977418222547
 21
21.21161994020512
 31
0.0
 12
29.76477418222547
 22
20.76161994020512
 32
0.0
 13
29.76477418222547
 23
20.76161994020512
 33
0.0
  0
SOLID
  5
18D6
330
161E
100
AcDbEntity
  8
DIM
 62
     0
100
AcDbTrace
 10
29.68977418222547
 20
19.62411994020513
 30
0.0
 11
29.83977418222547
 21
19.62411994020513
 31
0.0
 12
29.76477418222547
 22
20.07411994020512
 32
0.0
 13
29.76477418222547
 23
20.07411994020512
 33
0.0
  0
MTEXT
  5
18D7
330
161E
100
AcDbEntity
  8
DIM
 62
     0
100
AcDbMText
 10
29.76477418222547
 20
20.41786994020513
 30
0.0
 40
0.3125
 41
0.0
 71
     5
 72
     1
  1
\A1;0.172 DIA.
 73
     1
 44
1.0
  0
POINT
  5
18D8
330
161E
100
AcDbEntity
  8
DEFPOINTS
 62
     0
100
AcDbPoint
 10
31.01772518222547
 20
20.76161994020512
 30
0.0
  0
POINT
  5
18D9
330
161E
100
AcDbEntity
  8
DEFPOINTS
 62
     0
100
AcDbPoint
 10
31.01772518222547
 20
20.07411994020512
 30
0.0
  0
POINT
  5
18DA
330
161E
100
AcDbEntity
  8
DEFPOINTS
 62
     0
100
AcDbPoint
 10
29.76477418222547
 20
20.07411994020512
 30
0.0
  0
ENDBLK
  5
162A
330
161E
100
AcDbEntity
  8
0
100
AcDbBlockEnd
  0
BLOCK
  5
1636
330
162B
100
AcDbEntity
  8
0
100
AcDbBlockBegin
  2
*D55
 70
     1
 10
0.0
 20
0.0
 30
0.0
  3
*D55
  1

  0
LINE
  5
18DB
330
162B
100
AcDbEntity
  8
DIM
 62
     0
370
    -2
100
AcDbLine
 10
30.86022518222547
 20
21.52337194020512
 30
0.0
 11
28.33399623479484
 21
21.52337194020512
 31
0.0
  0
LINE
  5
18DC
330
162B
100
AcDbEntity
  8
DIM
 62
     0
370
    -2
100
AcDbLine
 10
30.86022518222547
 20
21.20337194020512
 30
0.0
 11
28.33399623479484
 21
21.20337194020512
 31
0.0
  0
LINE
  5
18DD
330
162B
100
AcDbEntity
  8
DIM
 62
     0
370
    -2
100
AcDbLine
 10
28.56649623479484
 20
21.97337194020512
 30
0.0
 11
28.56649623479484
 21
22.42337194020512
 31
0.0
  0
LINE
  5
18DE
330
162B
100
AcDbEntity
  8
DIM
 62
     0
370
    -2
100
AcDbLine
 10
28.56649623479484
 20
20.75337194020512
 30
0.0
 11
28.56649623479484
 21
20.30337194020512
 31
0.0
  0
LINE
  5
18DF
330
162B
100
AcDbEntity
  8
DIM
 62
     0
370
    -2
100
AcDbLine
 10
28.56649623479484
 20
20.30337194020512
 30
0.0
 11
28.11649623479484
 21
20.30337194020512
 31
0.0
  0
SOLID
  5
18E0
330
162B
100
AcDbEntity
  8
DIM
 62
     0
100
AcDbTrace
 10
28.49149623479484
 20
21.97337194020512
 30
0.0
 11
28.64149623479484
 21
21.97337194020512
 31
0.0
 12
28.56649623479484
 22
21.52337194020512
 32
0.0
 13
28.56649623479484
 23
21.52337194020512
 33
0.0
  0
SOLID
  5
18E1
330
162B
100
AcDbEntity
  8
DIM
 62
     0
100
AcDbTrace
 10
28.49149623479484
 20
20.75337194020512
 30
0.0
 11
28.64149623479484
 21
20.75337194020512
 31
0.0
 12
28.56649623479484
 22
21.20337194020512
 32
0.0
 13
28.56649623479484
 23
21.20337194020512
 33
0.0
  0
MTEXT
  5
18E2
330
162B
100
AcDbEntity
  8
DIM
 62
     0
100
AcDbMText
 10
27.48133998479483
 20
20.30337194020512
 30
0.0
 40
0.3125
 41
0.0
 71
     5
 72
     1
  1
\A1;0.080
 73
     1
 44
1.0
  0
POINT
  5
18E3
330
162B
100
AcDbEntity
  8
DEFPOINTS
 62
     0
100
AcDbPoint
 10
31.01772518222547
 20
21.52337194020512
 30
0.0
  0
POINT
  5
18E4
330
162B
100
AcDbEntity
  8
DEFPOINTS
 62
     0
100
AcDbPoint
 10
31.01772518222547
 20
21.20337194020512
 30
0.0
  0
POINT
  5
18E5
330
162B
100
AcDbEntity
  8
DEFPOINTS
 62
     0
100
AcDbPoint
 10
28.56649623479484
 20
21.20337194020512
 30
0.0
  0
ENDBLK
  5
1637
330
162B
100
AcDbEntity
  8
0
100
AcDbBlockEnd
  0
BLOCK
  5
1643
330
1638
100
AcDbEntity
  8
0
100
AcDbBlockBegin
  2
*D56
 70
     1
 10
0.0
 20
0.0
 30
0.0
  3
*D56
  1

  0
LINE
  5
18BD
330
1638
100
AcDbEntity
  8
DIM
 62
     0
370
    -2
100
AcDbLine
 10
32.75122518222547
 20
19.79787194020511
 30
0.0
 11
34.06633518222548
 21
19.79787194020511
 31
0.0
  0
LINE
  5
18BE
330
1638
100
AcDbEntity
  8
DIM
 62
     0
370
    -2
100
AcDbLine
 10
32.75122518222547
 20
21.03787194020513
 30
0.0
 11
34.06633518222548
 21
21.03787194020513
 31
0.0
  0
LINE
  5
18BF
330
1638
100
AcDbEntity
  8
DIM
 62
     0
370
    -2
100
AcDbLine
 10
33.83383518222547
 20
19.34787194020512
 30
0.0
 11
33.83383518222547
 21
18.89787194020512
 31
0.0
  0
LINE
  5
18C0
330
1638
100
AcDbEntity
  8
DIM
 62
     0
370
    -2
100
AcDbLine
 10
33.83383518222547
 20
21.48787194020512
 30
0.0
 11
33.83383518222547
 21
21.93787194020512
 31
0.0
  0
SOLID
  5
18C1
330
1638
100
AcDbEntity
  8
DIM
 62
     0
100
AcDbTrace
 10
33.75883518222547
 20
19.34787194020512
 30
0.0
 11
33.90883518222548
 21
19.34787194020512
 31
0.0
 12
33.83383518222547
 22
19.79787194020511
 32
0.0
 13
33.83383518222547
 23
19.79787194020511
 33
0.0
  0
SOLID
  5
18C2
330
1638
100
AcDbEntity
  8
DIM
 62
     0
100
AcDbTrace
 10
33.75883518222547
 20
21.48787194020512
 30
0.0
 11
33.90883518222548
 21
21.48787194020512
 31
0.0
 12
33.83383518222547
 22
21.03787194020513
 32
0.0
 13
33.83383518222547
 23
21.03787194020513
 33
0.0
  0
MTEXT
  5
18C3
330
1638
100
AcDbEntity
  8
DIM
 62
     0
100
AcDbMText
 10
33.83383518222547
 20
20.41787194020512
 30
0.0
 40
0.3125
 41
0.0
 71
     5
 72
     1
  1
\A1;0.310 DIA.\PC"BORE
 73
     1
 44
1.0
  0
POINT
  5
18C4
330
1638
100
AcDbEntity
  8
DEFPOINTS
 62
     0
100
AcDbPoint
 10
32.59372518222547
 20
19.79787194020511
 30
0.0
  0
POINT
  5
18C5
330
1638
100
AcDbEntity
  8
DEFPOINTS
 62
     0
100
AcDbPoint
 10
32.59372518222547
 20
21.03787194020513
 30
0.0
  0
POINT
  5
18C6
330
1638
100
AcDbEntity
  8
DEFPOINTS
 62
     0
100
AcDbPoint
 10
33.83383518222547
 20
21.03787194020513
 30
0.0
  0
ENDBLK
  5
1644
330
1638
100
AcDbEntity
  8
0
100
AcDbBlockEnd
  0
ENDSEC
  0
SECTION
  2
ENTITIES
  0
TEXT
  5
810
330
1E
100
AcDbEntity
  8
TEXT
100
AcDbText
 10
16.48392371912186
 20
4.328620976925122
 30
0.0
 40
0.3125
  1
%%USECTION "A-A"
 41
0.8
  7
SECTION
100
AcDbText
  0
TEXT
  5
811
330
1E
100
AcDbEntity
  8
TEXT
100
AcDbText
 10
12.97634871912186
 20
1.938321963118987
 30
0.0
 40
0.47
  1
%%UBODY
 41
0.75
 72
     1
 11
13.62847371912186
 21
1.938321963118987
 31
0.0
100
AcDbText
  0
TEXT
  5
812
330
1E
100
AcDbEntity
  8
TEXT
100
AcDbText
 10
26.873646
 20
4.022609613647521
 30
0.0
 40
0.47
  1
%%UCOVER
 41
0.75
 72
     1
 11
27.760771
 21
4.022609613647521
 31
0.0
100
AcDbText
  0
CIRCLE
  5
813
330
1E
100
AcDbEntity
  8
OBJECT
100
AcDbCircle
 10
26.88376843170231
 20
9.831094963118987
 30
0.0
 40
0.03125
  0
CIRCLE
  5
814
330
1E
100
AcDbEntity
  8
OBJECT
100
AcDbCircle
 10
26.88376843170231
 20
10.11560096311898
 30
0.0
 40
0.03125
  0
LINE
  5
815
330
1E
100
AcDbEntity
  8
OBJECT
100
AcDbLine
 10
27.03289943170231
 20
6.134347963118987
 30
0.0
 11
29.74439943170231
 21
6.134347963118987
 31
0.0
  0
LINE
  5
816
330
1E
100
AcDbEntity
  8
OBJECT
100
AcDbLine
 10
26.81414943170231
 20
13.59259796311898
 30
0.0
 11
26.81414943170231
 21
6.353097963118987
 31
0.0
  0
LINE
  5
817
330
1E
100
AcDbEntity
  8
OBJECT
100
AcDbLine
 10
29.96314943170231
 20
6.353097963118987
 30
0.0
 11
29.96314943170231
 21
13.59259796311898
 31
0.0
  0
LINE
  5
818
330
1E
100
AcDbEntity
  8
OBJECT
100
AcDbLine
 10
26.99414943170231
 20
13.22022296311898
 30
0.0
 11
26.99414943170231
 21
10.32334796311898
 31
0.0
  0
LINE
  5
819
330
1E
100
AcDbEntity
  8
OBJECT
100
AcDbLine
 10
27.78955443170231
 20
6.314347963118986
 30
0.0
 11
28.98774343170231
 21
6.314347963118986
 31
0.0
  0
ARC
  5
81A
330
1E
100
AcDbEntity
  8
OBJECT
100
AcDbCircle
 10
27.04989943170231
 20
9.973347963118987
 30
0.0
 40
0.312
100
AcDbArc
 50
270.09182
 51
89.90818
  0
LINE
  5
81B
330
1E
100
AcDbEntity
  8
OBJECT
100
AcDbLine
 10
26.99414943170231
 20
9.623348963118987
 30
0.0
 11
26.99414943170231
 21
6.725472963118987
 31
0.0
  0
CIRCLE
  5
81C
330
1E
100
AcDbEntity
  8
OBJECT
100
AcDbCircle
 10
27.05039943170231
 20
9.973347963118987
 30
0.0
 40
0.085938
  0
ARC
  5
81D
330
1E
100
AcDbEntity
  8
OBJECT
100
AcDbCircle
 10
29.74439943170231
 20
13.59259796311898
 30
0.0
 40
0.21875
100
AcDbArc
 50
0.0
 51
90.0
  0
CIRCLE
  5
81E
330
1E
100
AcDbEntity
  8
OBJECT
100
AcDbCircle
 10
29.88314943170231
 20
13.43872996311898
 30
0.0
 40
0.03125
  0
LINE
  5
81F
330
1E
100
AcDbEntity
  8
OBJECT
100
AcDbLine
 10
29.61830343170231
 20
13.77134796311898
 30
0.0
 11
29.12500243170232
 21
13.77134796311898
 31
0.0
  0
ARC
  5
820
330
1E
100
AcDbEntity
  8
OBJECT
100
AcDbCircle
 10
28.98774343170231
 20
13.55584796311898
 30
0.0
 40
0.0755
100
AcDbArc
 50
2.125975999999999
 51
90.0
  0
ARC
  5
821
330
1E
100
AcDbEntity
  8
OBJECT
100
AcDbCircle
 10
29.37497643170231
 20
13.57022296311898
 30
0.0
 40
0.312
100
AcDbArc
 50
182.125976
 51
270.0
  0
LINE
  5
822
330
1E
100
AcDbEntity
  8
OBJECT
100
AcDbLine
 10
29.74514943170231
 20
13.25822296311898
 30
0.0
 11
29.37497643170231
 21
13.25822296311898
 31
0.0
  0
ARC
  5
823
330
1E
100
AcDbEntity
  8
OBJECT
100
AcDbCircle
 10
29.74514943170231
 20
13.22022296311898
 30
0.0
 40
0.038
100
AcDbArc
 50
0.0
 51
90.0
  0
CIRCLE
  5
824
330
1E
100
AcDbEntity
  8
OBJECT
100
AcDbCircle
 10
29.72689943170231
 20
13.56659796311898
 30
0.0
 40
0.085938
  0
CIRCLE
  5
825
330
1E
100
AcDbEntity
  8
OBJECT
100
AcDbCircle
 10
27.05039943170231
 20
13.56659796311898
 30
0.0
 40
0.085938
  0
ARC
  5
826
330
1E
100
AcDbEntity
  8
OBJECT
100
AcDbCircle
 10
27.03214943170231
 20
13.22022296311898
 30
0.0
 40
0.038
100
AcDbArc
 50
90.0
 51
180.0
  0
LINE
  5
827
330
1E
100
AcDbEntity
  8
OBJECT
100
AcDbLine
 10
27.03214943170231
 20
13.25822296311898
 30
0.0
 11
27.40232143170231
 21
13.25822296311898
 31
0.0
  0
ARC
  5
828
330
1E
100
AcDbEntity
  8
OBJECT
100
AcDbCircle
 10
27.40232143170231
 20
13.57022296311898
 30
0.0
 40
0.312
100
AcDbArc
 50
270.0
 51
357.874024
  0
ARC
  5
829
330
1E
100
AcDbEntity
  8
OBJECT
100
AcDbCircle
 10
27.78955443170231
 20
13.55584796311898
 30
0.0
 40
0.0755
100
AcDbArc
 50
90.0
 51
177.8740239999999
  0
LINE
  5
82A
330
1E
100
AcDbEntity
  8
OBJECT
100
AcDbLine
 10
27.78955443170231
 20
13.63134796311898
 30
0.0
 11
28.98774343170231
 21
13.63134796311898
 31
0.0
  0
LINE
  5
82B
330
1E
100
AcDbEntity
  8
OBJECT
100
AcDbLine
 10
27.03289943170231
 20
13.81134796311898
 30
0.0
 11
29.74439943170231
 21
13.81134796311898
 31
0.0
  0
CIRCLE
  5
82C
330
1E
100
AcDbEntity
  8
OBJECT
100
AcDbCircle
 10
26.89414943170231
 20
13.43872996311898
 30
0.0
 40
0.03125
  0
ARC
  5
82D
330
1E
100
AcDbEntity
  8
OBJECT
100
AcDbCircle
 10
27.03289943170231
 20
13.59259796311898
 30
0.0
 40
0.21875
100
AcDbArc
 50
90.0
 51
180.0
  0
LINE
  5
82E
330
1E
100
AcDbEntity
  8
OBJECT
100
AcDbLine
 10
29.78314943170231
 20
9.623347963118986
 30
0.0
 11
29.78314943170231
 21
6.725472963118987
 31
0.0
  0
LINE
  5
82F
330
1E
100
AcDbEntity
  8
OBJECT
100
AcDbLine
 10
29.78314943170231
 20
13.22022296311898
 30
0.0
 11
29.78314943170231
 21
10.32334796311898
 31
0.0
  0
LINE
  5
830
330
1E
100
AcDbEntity
  8
OBJECT
100
AcDbLine
 10
29.52985243170232
 20
13.43822296311898
 30
0.0
 11
29.37497643170231
 21
13.43822296311898
 31
0.0
  0
ARC
  5
831
330
1E
100
AcDbEntity
  8
OBJECT
100
AcDbCircle
 10
29.37497643170231
 20
13.57022296311898
 30
0.0
 40
0.132
100
AcDbArc
 50
182.125976
 51
270.0
  0
ARC
  5
832
330
1E
100
AcDbEntity
  8
OBJECT
100
AcDbCircle
 10
28.98774343170231
 20
13.55584796311898
 30
0.0
 40
0.2555
100
AcDbArc
 50
2.125975999999999
 51
57.50562900000001
  0
LINE
  5
833
330
1E
100
AcDbEntity
  8
OBJECT
100
AcDbLine
 10
27.24744543170231
 20
13.43822296311898
 30
0.0
 11
27.40232143170231
 21
13.43822296311898
 31
0.0
  0
LINE
  5
834
330
1E
100
AcDbEntity
  8
OBJECT
100
AcDbLine
 10
27.15899443170231
 20
13.77134796311898
 30
0.0
 11
27.65229543170232
 21
13.77134796311898
 31
0.0
  0
ARC
  5
835
330
1E
100
AcDbEntity
  8
OBJECT
100
AcDbCircle
 10
27.78955443170231
 20
13.55584796311898
 30
0.0
 40
0.2555
100
AcDbArc
 50
122.494371
 51
177.8740239999999
  0
ARC
  5
836
330
1E
100
AcDbEntity
  8
OBJECT
100
AcDbCircle
 10
27.40232143170231
 20
13.57022296311898
 30
0.0
 40
0.132
100
AcDbArc
 50
270.0
 51
357.874024
  0
LINE
  5
837
330
1E
100
AcDbEntity
  8
BEND
100
AcDbLine
 10
29.72697943170231
 20
5.627565963118987
 30
0.0
 11
29.01616143170231
 21
5.627565963118987
 31
0.0
  0
SOLID
  5
838
330
1E
100
AcDbEntity
  8
BEND
100
AcDbTrace
 10
27.97615643170231
 20
14.14726496311899
 30
0.0
 11
27.97615643170231
 21
14.28226496311898
 31
0.0
 12
27.57115643170231
 22
14.21476496311898
 32
0.0
 13
27.57115643170231
 23
14.21476496311898
 33
0.0
  0
SOLID
  5
839
330
1E
100
AcDbEntity
  8
BEND
100
AcDbTrace
 10
29.42116143170231
 20
5.560065963118987
 30
0.0
 11
29.42116143170231
 21
5.695065963118988
 31
0.0
 12
29.01616143170231
 22
5.627565963118987
 32
0.0
 13
29.01616143170231
 23
5.627565963118987
 33
0.0
  0
TEXT
  5
83A
330
1E
100
AcDbEntity
  8
BEND
100
AcDbText
 10
28.46257343170231
 20
14.11010496311898
 30
0.0
 40
0.28125
  1
B
 41
0.8
  7
SECTION
100
AcDbText
  0
TEXT
  5
83B
330
1E
100
AcDbEntity
  8
BEND
100
AcDbText
 10
29.95703943170231
 20
5.467205963118988
 30
0.0
 40
0.28125
  1
B
 41
0.8
  7
SECTION
100
AcDbText
  0
DIMENSION
  5
83C
330
1E
100
AcDbEntity
  8
DIM
100
AcDbDimension
  2
*D1
 10
26.81414943170231
 20
14.70413496311898
 30
0.0
 11
25.23993068170231
 21
14.70413496311898
 31
0.0
 70
    32
 71
     5
 42
0.2362499999999983
  3
23NSTD
100
AcDbAlignedDimension
 13
27.05039943170231
 23
13.56659796311898
 33
0.0
 14
26.81414943170231
 24
13.59259796311898
 34
0.0
100
AcDbRotatedDimension
  0
DIMENSION
  5
84A
330
1E
100
AcDbEntity
  8
DIM
100
AcDbDimension
  2
*D2
 10
27.05039943170231
 20
15.40663496311898
 30
0.0
 11
28.38864943170231
 21
15.40663496311898
 31
0.0
 70
    32
 71
     5
 42
2.6765
  3
23NSTDI
100
AcDbAlignedDimension
 13
29.72689943170231
 23
13.56659796311898
 33
0.0
 14
27.05039943170231
 24
13.56659796311898
 34
0.0
100
AcDbRotatedDimension
  0
DIMENSION
  5
858
330
1E
100
AcDbEntity
  8
DIM
100
AcDbDimension
  2
*D3
 10
25.73571543170231
 20
6.134347963118988
 30
0.0
 11
24.61149668170231
 21
5.234347963118992
 31
0.0
 70
    32
  1
0.236
 71
     5
 42
0.2447499999999998
  3
23NSTD
100
AcDbAlignedDimension
 13
27.03339943170231
 23
6.379097963118987
 33
0.0
 14
27.03289943170231
 24
6.134347963118987
 34
0.0
 50
90.0
100
AcDbRotatedDimension
  0
DIMENSION
  5
866
330
1E
100
AcDbEntity
  8
DIM
100
AcDbDimension
  2
*D4
 10
25.73571543170231
 20
6.379097963118987
 30
0.0
 11
25.73571543170231
 21
8.176222963118991
 31
0.0
 70
    32
  1
3.602
 71
     5
 42
3.594249999999999
  3
23NSTD
100
AcDbAlignedDimension
 13
27.05039943170231
 23
9.973347963118987
 33
0.0
 14
27.03339943170231
 24
6.379097963118987
 34
0.0
 50
90.0
100
AcDbRotatedDimension
  0
DIMENSION
  5
874
330
1E
100
AcDbEntity
  8
DIM
100
AcDbDimension
  2
*D5
 10
25.73571543170231
 20
9.973347963118987
 30
0.0
 11
25.73571543170231
 21
11.76997296311899
 31
0.0
 70
    32
  1
3.602
 71
     5
 42
3.593249999999999
  3
23NSTD
100
AcDbAlignedDimension
 13
27.05039943170231
 23
13.56659796311898
 33
0.0
 14
27.05039943170231
 24
9.973347963118987
 34
0.0
 50
90.0
100
AcDbRotatedDimension
  0
DIMENSION
  5
882
330
1E
100
AcDbEntity
  8
DIM
100
AcDbDimension
  2
*D6
 10
24.75055543170231
 20
13.81134796311898
 30
0.0
 11
24.75055543170231
 21
9.972847963118992
 31
0.0
 70
    32
 71
     5
 42
7.676999999999998
  3
23NSTD
100
AcDbAlignedDimension
 13
27.03289943170231
 23
6.134347963118987
 33
0.0
 14
27.03289943170231
 24
13.81134796311898
 34
0.0
 50
90.0
100
AcDbRotatedDimension
  0
DIMENSION
  5
890
330
1E
100
AcDbEntity
  8
DIM
100
AcDbDimension
  2
*D7
 10
29.96314943170231
 20
16.10913496311898
 30
0.0
 11
28.38864943170231
 21
16.10913496311898
 31
0.0
 70
    32
 71
     5
 42
3.148999999999997
  3
23NSTD
100
AcDbAlignedDimension
 13
26.81414943170231
 23
13.59259796311898
 33
0.0
 14
29.96314943170231
 24
13.59259796311898
 34
0.0
100
AcDbRotatedDimension
  0
ARC
  5
89E
330
1E
100
AcDbEntity
  8
OBJECT
100
AcDbCircle
 10
29.71789943170231
 20
13.56659796311898
 30
0.0
 40
0.227688
100
AcDbArc
 50
115.939375
 51
214.320397
  0
ARC
  5
89F
330
1E
100
AcDbEntity
  8
OBJECT
100
AcDbCircle
 10
27.05939943170231
 20
13.56659796311898
 30
0.0
 40
0.227688
100
AcDbArc
 50
325.6796029999999
 51
64.060625
  0
LWPOLYLINE
  5
8A0
330
1E
100
AcDbEntity
  8
BEND
100
AcDbPolyline
 90
        5
 70
     0
 43
0.0
 10
29.72689943170231
 20
5.627565963118987
 10
29.72689943170231
 20
11.44446196311898
 10
28.29889443170231
 20
11.44446196311898
 10
28.29889443170231
 20
14.21476496311898
 10
27.57115643170231
 20
14.21476496311898
  0
DIMENSION
  5
8A7
330
1E
100
AcDbEntity
  8
DIM
100
AcDbDimension
  2
*D8
 10
28.76299243170231
 20
6.134347963118987
 30
0.0
 11
27.18955493170231
 21
5.234347963118991
 31
0.0
 70
    32
  1
<> TYP.
 71
     5
 42
0.1799999999999997
  3
23NSTD
100
AcDbAlignedDimension
 13
28.92049243170231
 23
6.314347963118986
 33
0.0
 14
28.92049243170231
 24
6.134347963118987
 34
0.0
 50
90.0
100
AcDbRotatedDimension
  0
LINE
  5
8B5
330
1E
100
AcDbEntity
  8
OBJECT
100
AcDbLine
 10
27.05039943170231
 20
9.661348963118987
 30
0.0
 11
27.03214943170231
 21
9.661348963118987
 31
0.0
  0
ARC
  5
8B6
330
1E
100
AcDbEntity
  8
OBJECT
100
AcDbCircle
 10
27.03214943170231
 20
9.623348963118987
 30
0.0
 40
0.038
100
AcDbArc
 50
90.0
 51
180.0
  0
ARC
  5
8B7
330
1E
100
AcDbEntity
  8
OBJECT
100
AcDbCircle
 10
27.03214943170231
 20
10.32334796311898
 30
0.0
 40
0.038
100
AcDbArc
 50
180.0
 51
270.0
  0
LINE
  5
8B8
330
1E
100
AcDbEntity
  8
OBJECT
100
AcDbLine
 10
27.05039943170231
 20
10.28534796311898
 30
0.0
 11
27.03214943170231
 21
10.28534796311898
 31
0.0
  0
CIRCLE
  5
8B9
330
1E
100
AcDbEntity
  8
OBJECT
100
AcDbCircle
 10
29.89352943170231
 20
10.11560096311898
 30
0.0
 40
0.03125
  0
CIRCLE
  5
8BA
330
1E
100
AcDbEntity
  8
OBJECT
100
AcDbCircle
 10
29.89352943170231
 20
9.831094963118987
 30
0.0
 40
0.03125
  0
ARC
  5
8BB
330
1E
100
AcDbEntity
  8
OBJECT
100
AcDbCircle
 10
29.72739943170231
 20
9.973347963118987
 30
0.0
 40
0.312
100
AcDbArc
 50
90.09182
 51
269.9081799999999
  0
ARC
  5
8BC
330
1E
100
AcDbEntity
  8
OBJECT
100
AcDbCircle
 10
29.74514943170231
 20
9.623348963118987
 30
0.0
 40
0.038
100
AcDbArc
 50
0.0
 51
90.0
  0
LINE
  5
8BD
330
1E
100
AcDbEntity
  8
OBJECT
100
AcDbLine
 10
29.72689943170231
 20
9.661348963118987
 30
0.0
 11
29.74514943170231
 21
9.661348963118987
 31
0.0
  0
LINE
  5
8BE
330
1E
100
AcDbEntity
  8
OBJECT
100
AcDbLine
 10
29.72689943170231
 20
10.28534796311898
 30
0.0
 11
29.74514943170231
 21
10.28534796311898
 31
0.0
  0
ARC
  5
8BF
330
1E
100
AcDbEntity
  8
OBJECT
100
AcDbCircle
 10
29.74514943170231
 20
10.32334796311898
 30
0.0
 40
0.038
100
AcDbArc
 50
270.0
 51
0.0
  0
CIRCLE
  5
8C0
330
1E
100
AcDbEntity
  8
OBJECT
100
AcDbCircle
 10
29.72689943170231
 20
9.973347963118987
 30
0.0
 40
0.085938
  0
ARC
  5
8C1
330
1E
100
AcDbEntity
  8
OBJECT
100
AcDbCircle
 10
27.03289943170231
 20
6.353097963118987
 30
0.0
 40
0.21875
100
AcDbArc
 50
180.0
 51
270.0
  0
CIRCLE
  5
8C2
330
1E
100
AcDbEntity
  8
OBJECT
100
AcDbCircle
 10
26.89414943170231
 20
6.506965963118988
 30
0.0
 40
0.03125
  0
ARC
  5
8C3
330
1E
100
AcDbEntity
  8
OBJECT
100
AcDbCircle
 10
27.78955443170231
 20
6.389847963118986
 30
0.0
 40
0.2555
100
AcDbArc
 50
182.125976
 51
237.5056289999999
  0
LINE
  5
8C4
330
1E
100
AcDbEntity
  8
OBJECT
100
AcDbLine
 10
27.15899443170231
 20
6.174347963118986
 30
0.0
 11
27.65229543170232
 21
6.174347963118986
 31
0.0
  0
ARC
  5
8C5
330
1E
100
AcDbEntity
  8
OBJECT
100
AcDbCircle
 10
27.40232143170231
 20
6.375472963118987
 30
0.0
 40
0.312
100
AcDbArc
 50
2.125975999999999
 51
90.0
  0
ARC
  5
8C6
330
1E
100
AcDbEntity
  8
OBJECT
100
AcDbCircle
 10
27.05939943170231
 20
6.379097963118987
 30
0.0
 40
0.227688
100
AcDbArc
 50
295.9393749999999
 51
34.320397
  0
LINE
  5
8C7
330
1E
100
AcDbEntity
  8
OBJECT
100
AcDbLine
 10
27.03214943170231
 20
6.687472963118986
 30
0.0
 11
27.40232143170231
 21
6.687472963118986
 31
0.0
  0
ARC
  5
8C8
330
1E
100
AcDbEntity
  8
OBJECT
100
AcDbCircle
 10
27.03214943170231
 20
6.725472963118987
 30
0.0
 40
0.038
100
AcDbArc
 50
180.0
 51
270.0
  0
CIRCLE
  5
8C9
330
1E
100
AcDbEntity
  8
OBJECT
100
AcDbCircle
 10
27.05039943170231
 20
6.379097963118987
 30
0.0
 40
0.085938
  0
ARC
  5
8CA
330
1E
100
AcDbEntity
  8
OBJECT
100
AcDbCircle
 10
27.40232143170231
 20
6.375472963118987
 30
0.0
 40
0.132
100
AcDbArc
 50
2.125975999999999
 51
90.0
  0
LINE
  5
8CB
330
1E
100
AcDbEntity
  8
OBJECT
100
AcDbLine
 10
27.24744543170231
 20
6.507472963118987
 30
0.0
 11
27.40232143170231
 21
6.507472963118987
 31
0.0
  0
ARC
  5
8CC
330
1E
100
AcDbEntity
  8
OBJECT
100
AcDbCircle
 10
27.78955443170231
 20
6.389847963118986
 30
0.0
 40
0.0755
100
AcDbArc
 50
182.125976
 51
270.0
  0
ARC
  5
8CD
330
1E
100
AcDbEntity
  8
OBJECT
100
AcDbCircle
 10
29.74439943170231
 20
6.353097963118987
 30
0.0
 40
0.21875
100
AcDbArc
 50
270.0
 51
0.0
  0
ARC
  5
8CE
330
1E
100
AcDbEntity
  8
OBJECT
100
AcDbCircle
 10
28.98774343170231
 20
6.389847963118986
 30
0.0
 40
0.2555
100
AcDbArc
 50
302.494371
 51
357.874024
  0
ARC
  5
8CF
330
1E
100
AcDbEntity
  8
OBJECT
100
AcDbCircle
 10
29.37497643170231
 20
6.375472963118987
 30
0.0
 40
0.132
100
AcDbArc
 50
90.0
 51
177.8740239999999
  0
ARC
  5
8D0
330
1E
100
AcDbEntity
  8
OBJECT
100
AcDbCircle
 10
29.37497643170231
 20
6.375472963118987
 30
0.0
 40
0.312
100
AcDbArc
 50
90.0
 51
177.8740239999999
  0
LINE
  5
8D1
330
1E
100
AcDbEntity
  8
OBJECT
100
AcDbLine
 10
29.61830343170231
 20
6.174347963118986
 30
0.0
 11
29.12500243170232
 21
6.174347963118986
 31
0.0
  0
ARC
  5
8D2
330
1E
100
AcDbEntity
  8
OBJECT
100
AcDbCircle
 10
28.98774343170231
 20
6.389847963118986
 30
0.0
 40
0.0755
100
AcDbArc
 50
270.0
 51
357.874024
  0
ARC
  5
8D3
330
1E
100
AcDbEntity
  8
OBJECT
100
AcDbCircle
 10
29.71789943170231
 20
6.379097963118987
 30
0.0
 40
0.227688
100
AcDbArc
 50
145.679603
 51
244.060625
  0
LINE
  5
8D4
330
1E
100
AcDbEntity
  8
OBJECT
100
AcDbLine
 10
29.74514943170231
 20
6.687472963118986
 30
0.0
 11
29.37497643170231
 21
6.687472963118986
 31
0.0
  0
LINE
  5
8D5
330
1E
100
AcDbEntity
  8
OBJECT
100
AcDbLine
 10
29.52985243170232
 20
6.507472963118987
 30
0.0
 11
29.37497643170231
 21
6.507472963118987
 31
0.0
  0
CIRCLE
  5
8D6
330
1E
100
AcDbEntity
  8
OBJECT
100
AcDbCircle
 10
29.72689943170231
 20
6.379097963118987
 30
0.0
 40
0.085938
  0
ARC
  5
8D7
330
1E
100
AcDbEntity
  8
OBJECT
100
AcDbCircle
 10
29.74514943170231
 20
6.725472963118987
 30
0.0
 40
0.038
100
AcDbArc
 50
270.0
 51
0.0
  0
CIRCLE
  5
8D8
330
1E
100
AcDbEntity
  8
OBJECT
100
AcDbCircle
 10
29.88314943170231
 20
6.506965963118988
 30
0.0
 40
0.03125
  0
LINE
  5
8D9
330
1E
100
AcDbEntity
  8
OBJECT
100
AcDbLine
 10
16.93835271912186
 20
13.73334796311898
 30
0.0
 11
16.99835271912186
 21
13.73334796311898
 31
0.0
  0
LINE
  5
8DA
102
{ACAD_REACTORS
330
2373
102
}
330
1E
100
AcDbEntity
  8
OBJECT
100
AcDbLine
 10
16.99835271912186
 20
13.79134796311898
 30
0.0
 11
17.03835271912186
 21
13.79134796311898
 31
0.0
  0
LINE
  5
8DB
102
{ACAD_REACTORS
330
2373
102
}
330
1E
100
AcDbEntity
  8
OBJECT
100
AcDbLine
 10
16.99835271912186
 20
6.154347963118986
 30
0.0
 11
17.03835271912186
 21
6.154347963118986
 31
0.0
  0
LINE
  5
8DC
102
{ACAD_REACTORS
330
2373
102
}
330
1E
100
AcDbEntity
  8
OBJECT
100
AcDbLine
 10
17.03835271912186
 20
6.134347963118987
 30
0.0
 11
17.03835271912186
 21
6.154347963118986
 31
0.0
  0
LINE
  5
8DD
102
{ACAD_REACTORS
330
2373
102
}
330
1E
100
AcDbEntity
  8
OBJECT
100
AcDbLine
 10
16.99835271912186
 20
6.154347963118986
 30
0.0
 11
16.99835271912186
 21
6.585472963118988
 31
0.0
  0
ARC
  5
8DE
102
{ACAD_REACTORS
330
2373
102
}
330
1E
100
AcDbEntity
  8
OBJECT
100
AcDbCircle
 10
18.70785271912186
 20
13.74884796311898
 30
0.0
 40
0.0625
100
AcDbArc
 50
0.0
 51
90.0
  0
ARC
  5
8DF
102
{ACAD_REACTORS
330
2373
102
}
330
1E
100
AcDbEntity
  8
OBJECT
100
AcDbCircle
 10
18.70785271912186
 20
6.196847963118987
 30
0.0
 40
0.0625
100
AcDbArc
 50
270.0
 51
0.0
  0
LINE
  5
8E0
102
{ACAD_REACTORS
330
2373
102
}
330
1E
100
AcDbEntity
  8
OBJECT
100
AcDbLine
 10
16.93835271912186
 20
6.585472963118988
 30
0.0
 11
16.93835271912186
 21
13.73334796311898
 31
0.0
  0
LINE
  5
8E1
102
{ACAD_REACTORS
330
2373
102
}
330
1E
100
AcDbEntity
  8
OBJECT
100
AcDbLine
 10
17.03835271912186
 20
6.134347963118987
 30
0.0
 11
18.70785271912186
 21
6.134347963118987
 31
0.0
  0
LINE
  5
8E2
102
{ACAD_REACTORS
330
2373
102
}
330
1E
100
AcDbEntity
  8
OBJECT
100
AcDbLine
 10
18.77035271912186
 20
6.196847963118987
 30
0.0
 11
18.77035271912186
 21
13.74884796311898
 31
0.0
  0
LINE
  5
8E3
102
{ACAD_REACTORS
330
2373
102
}
330
1E
100
AcDbEntity
  8
OBJECT
100
AcDbLine
 10
18.70785271912186
 20
13.81134796311898
 30
0.0
 11
17.03835271912186
 21
13.81134796311898
 31
0.0
  0
LINE
  5
8E4
330
1E
100
AcDbEntity
  8
OBJECT
100
AcDbLine
 10
11.63980171912186
 20
6.353097963118987
 30
0.0
 11
11.63980171912186
 21
13.59259796311898
 31
0.0
  0
LINE
  5
8E5
330
1E
100
AcDbEntity
  8
OBJECT
100
AcDbLine
 10
11.42105171912186
 20
13.81134796311898
 30
0.0
 11
8.709551719121861
 21
13.81134796311898
 31
0.0
  0
LINE
  5
8E6
330
1E
100
AcDbEntity
  8
OBJECT
100
AcDbLine
 10
8.490801719121861
 20
13.59259796311898
 30
0.0
 11
8.490801719121861
 21
6.353097963118987
 31
0.0
  0
LINE
  5
8E7
330
1E
100
AcDbEntity
  8
OBJECT
100
AcDbLine
 10
8.709551719121861
 20
6.134347963118987
 30
0.0
 11
11.42105171912186
 21
6.134347963118987
 31
0.0
  0
LINE
  5
8E8
330
1E
100
AcDbEntity
  8
OBJECT
100
AcDbLine
 10
8.709551719121861
 20
6.154347963118986
 30
0.0
 11
11.42105171912186
 21
6.154347963118986
 31
0.0
  0
LINE
  5
8E9
330
1E
100
AcDbEntity
  8
OBJECT
100
AcDbLine
 10
8.510801719121861
 20
6.353097963118987
 30
0.0
 11
8.510801719121861
 21
13.59259796311898
 31
0.0
  0
LINE
  5
8EA
330
1E
100
AcDbEntity
  8
OBJECT
100
AcDbLine
 10
9.475206719121862
 20
6.252347963118985
 30
0.0
 11
10.65539671912186
 21
6.252347963118985
 31
0.0
  0
LINE
  5
8EB
330
1E
100
AcDbEntity
  8
OBJECT
100
AcDbLine
 10
9.475206719121862
 20
6.212347963118986
 30
0.0
 11
10.65539671912186
 21
6.212347963118986
 31
0.0
  0
LINE
  5
8EC
330
1E
100
AcDbEntity
  8
OBJECT
100
AcDbLine
 10
11.61980171912186
 20
6.353097963118987
 30
0.0
 11
11.61980171912186
 21
13.59259796311898
 31
0.0
  0
LINE
  5
8ED
330
1E
100
AcDbEntity
  8
OBJECT
100
AcDbLine
 10
11.56180171912186
 20
6.725472963118987
 30
0.0
 11
11.56180171912186
 21
9.623347963118986
 31
0.0
  0
LINE
  5
8EE
330
1E
100
AcDbEntity
  8
OBJECT
100
AcDbLine
 10
11.52180171912186
 20
6.725472963118987
 30
0.0
 11
11.52180171912186
 21
9.623347963118986
 31
0.0
  0
ARC
  5
8EF
330
1E
100
AcDbEntity
  8
OBJECT
100
AcDbCircle
 10
11.42105171912186
 20
13.59259796311898
 30
0.0
 40
0.19875
100
AcDbArc
 50
0.0
 51
90.0
  0
CIRCLE
  5
8F0
330
1E
100
AcDbEntity
  8
OBJECT
100
AcDbCircle
 10
11.04980171912186
 20
13.55878596311898
 30
0.0
 40
0.085937
  0
CIRCLE
  5
8F4
330
1E
100
AcDbEntity
  8
OBJECT
100
AcDbCircle
 10
11.40380171912186
 20
13.56659796311898
 30
0.0
 40
0.0625
  0
CIRCLE
  5
8F5
330
1E
100
AcDbEntity
  8
OBJECT
100
AcDbCircle
 10
11.40380171912186
 20
13.56659796311898
 30
0.0
 40
0.125
  0
LINE
  5
8F6
330
1E
100
AcDbEntity
  8
OBJECT
100
AcDbLine
 10
11.42180171912186
 20
13.32022296311898
 30
0.0
 11
11.03562971912186
 21
13.32022296311898
 31
0.0
  0
ARC
  5
8F7
330
1E
100
AcDbEntity
  8
OBJECT
100
AcDbCircle
 10
11.03562971912186
 20
13.57022296311898
 30
0.0
 40
0.25
100
AcDbArc
 50
182.125976
 51
270.0
  0
ARC
  5
8F8
330
1E
100
AcDbEntity
  8
OBJECT
100
AcDbCircle
 10
10.64839671912186
 20
13.55584796311898
 30
0.0
 40
0.1375
100
AcDbArc
 50
2.125975999999999
 51
90.0
  0
LINE
  5
8F9
330
1E
100
AcDbEntity
  8
OBJECT
100
AcDbLine
 10
11.25442371912186
 20
13.74134796311898
 30
0.0
 11
10.72639671912186
 21
13.74134796311898
 31
0.0
  0
LINE
  5
8FA
330
1E
100
AcDbEntity
  8
OBJECT
100
AcDbLine
 10
11.27202071912186
 20
13.37822296311898
 30
0.0
 11
11.02362971912186
 21
13.37822296311898
 31
0.0
  0
ARC
  5
8FB
330
1E
100
AcDbEntity
  8
OBJECT
100
AcDbCircle
 10
11.02362971912186
 20
13.55822296311898
 30
0.0
 40
0.18
100
AcDbArc
 50
182.125976
 51
270.0
  0
ARC
  5
8FC
330
1E
100
AcDbEntity
  8
OBJECT
100
AcDbCircle
 10
10.63639671912186
 20
13.54384796311898
 30
0.0
 40
0.2075
100
AcDbArc
 50
2.125975999999999
 51
64.942385
  0
ARC
  5
8FD
330
1E
100
AcDbEntity
  8
OBJECT
100
AcDbCircle
 10
10.72639671912186
 20
13.73634796311898
 30
0.0
 40
0.005
100
AcDbArc
 50
90.0
 51
244.942385
  0
ARC
  5
8FE
330
1E
100
AcDbEntity
  8
OBJECT
100
AcDbCircle
 10
11.42180171912186
 20
13.22022296311898
 30
0.0
 40
0.1
100
AcDbArc
 50
0.0
 51
90.0
  0
CIRCLE
  5
8FF
330
1E
100
AcDbEntity
  8
OBJECT
100
AcDbCircle
 10
11.55980171912186
 20
13.36921496311898
 30
0.0
 40
0.03125
  0
CIRCLE
  5
900
330
1E
100
AcDbEntity
  8
OBJECT
100
AcDbCircle
 10
11.40380171912186
 20
13.56659796311898
 30
0.0
 40
0.164063
  0
ARC
  5
901
330
1E
100
AcDbEntity
  8
OBJECT
100
AcDbCircle
 10
11.42105171912186
 20
13.59259796311898
 30
0.0
 40
0.21875
100
AcDbArc
 50
0.0
 51
90.0
  0
LINE
  5
902
330
1E
100
AcDbEntity
  8
OBJECT
100
AcDbLine
 10
11.42180171912186
 20
13.36022296311898
 30
0.0
 11
11.03562971912186
 21
13.36022296311898
 31
0.0
  0
ARC
  5
903
330
1E
100
AcDbEntity
  8
OBJECT
100
AcDbCircle
 10
11.42180171912186
 20
13.22022296311898
 30
0.0
 40
0.14
100
AcDbArc
 50
0.0
 51
90.0
  0
ARC
  5
904
330
1E
100
AcDbEntity
  8
OBJECT
100
AcDbCircle
 10
11.03562971912186
 20
13.57022296311898
 30
0.0
 40
0.21
100
AcDbArc
 50
182.125976
 51
270.0
  0
ARC
  5
905
330
1E
100
AcDbEntity
  8
OBJECT
100
AcDbCircle
 10
10.64839671912186
 20
13.55584796311898
 30
0.0
 40
0.1775
100
AcDbArc
 50
2.125975999999999
 51
90.0
  0
CIRCLE
  5
906
330
1E
100
AcDbEntity
  8
OBJECT
100
AcDbCircle
 10
9.179801719121861
 20
10.46534796311898
 30
0.0
 40
0.1575
  0
CIRCLE
  5
907
330
1E
100
AcDbEntity
  8
OBJECT
100
AcDbCircle
 10
10.95080171912186
 20
10.46534796311898
 30
0.0
 40
0.1575
  0
LINE
  5
908
330
1E
100
AcDbEntity
  8
OBJECT
100
AcDbLine
 10
9.482206719121862
 20
13.73334796311898
 30
0.0
 11
10.64839671912186
 21
13.73334796311898
 31
0.0
  0
ARC
  5
909
330
1E
100
AcDbEntity
  8
OBJECT
100
AcDbCircle
 10
9.482206719121862
 20
13.55584796311898
 30
0.0
 40
0.1775
100
AcDbArc
 50
90.0
 51
177.8740239999999
  0
ARC
  5
90A
330
1E
100
AcDbEntity
  8
OBJECT
100
AcDbCircle
 10
9.094973719121862
 20
13.57022296311898
 30
0.0
 40
0.21
100
AcDbArc
 50
270.0
 51
357.874024
  0
ARC
  5
90B
330
1E
100
AcDbEntity
  8
OBJECT
100
AcDbCircle
 10
8.708801719121861
 20
13.22022296311898
 30
0.0
 40
0.14
100
AcDbArc
 50
90.0
 51
180.0
  0
LINE
  5
90C
330
1E
100
AcDbEntity
  8
OBJECT
100
AcDbLine
 10
8.708801719121861
 20
13.36022296311898
 30
0.0
 11
9.094973719121862
 21
13.36022296311898
 31
0.0
  0
LINE
  5
90D
330
1E
100
AcDbEntity
  8
OBJECT
100
AcDbLine
 10
9.482206719121862
 20
13.69334796311898
 30
0.0
 11
10.64839671912186
 21
13.69334796311898
 31
0.0
  0
LINE
  5
90E
330
1E
100
AcDbEntity
  8
OBJECT
100
AcDbLine
 10
8.709551719121861
 20
13.79134796311898
 30
0.0
 11
11.42105171912186
 21
13.79134796311898
 31
0.0
  0
ARC
  5
90F
330
1E
100
AcDbEntity
  8
OBJECT
100
AcDbCircle
 10
8.709551719121861
 20
13.59259796311898
 30
0.0
 40
0.21875
100
AcDbArc
 50
90.0
 51
180.0
  0
CIRCLE
  5
910
330
1E
100
AcDbEntity
  8
OBJECT
100
AcDbCircle
 10
8.726801719121862
 20
13.56659796311898
 30
0.0
 40
0.164063
  0
CIRCLE
  5
911
330
1E
100
AcDbEntity
  8
OBJECT
100
AcDbCircle
 10
8.570801719121863
 20
13.36921496311898
 30
0.0
 40
0.03125
  0
ARC
  5
912
330
1E
100
AcDbEntity
  8
OBJECT
100
AcDbCircle
 10
8.708801719121861
 20
13.22022296311898
 30
0.0
 40
0.1
100
AcDbArc
 50
90.0
 51
180.0
  0
ARC
  5
913
330
1E
100
AcDbEntity
  8
OBJECT
100
AcDbCircle
 10
9.404206719121862
 20
13.73634796311898
 30
0.0
 40
0.005
100
AcDbArc
 50
295.057615
 51
90.0
  0
ARC
  5
914
330
1E
100
AcDbEntity
  8
OBJECT
100
AcDbCircle
 10
9.494206719121862
 20
13.54384796311898
 30
0.0
 40
0.2075
100
AcDbArc
 50
115.0576149999999
 51
177.8740239999999
  0
ARC
  5
915
330
1E
100
AcDbEntity
  8
OBJECT
100
AcDbCircle
 10
9.106973719121862
 20
13.55822296311898
 30
0.0
 40
0.18
100
AcDbArc
 50
270.0
 51
357.874024
  0
LINE
  5
916
330
1E
100
AcDbEntity
  8
OBJECT
100
AcDbLine
 10
8.858582719121862
 20
13.37822296311898
 30
0.0
 11
9.106973719121862
 21
13.37822296311898
 31
0.0
  0
LINE
  5
917
330
1E
100
AcDbEntity
  8
OBJECT
100
AcDbLine
 10
8.876179719121862
 20
13.74134796311898
 30
0.0
 11
9.404206719121862
 21
13.74134796311898
 31
0.0
  0
ARC
  5
918
330
1E
100
AcDbEntity
  8
OBJECT
100
AcDbCircle
 10
9.482206719121862
 20
13.55584796311898
 30
0.0
 40
0.1375
100
AcDbArc
 50
90.0
 51
177.8740239999999
  0
ARC
  5
919
330
1E
100
AcDbEntity
  8
OBJECT
100
AcDbCircle
 10
9.094973719121862
 20
13.57022296311898
 30
0.0
 40
0.25
100
AcDbArc
 50
270.0
 51
357.874024
  0
LINE
  5
91A
330
1E
100
AcDbEntity
  8
OBJECT
100
AcDbLine
 10
8.708801719121861
 20
13.32022296311898
 30
0.0
 11
9.094973719121862
 21
13.32022296311898
 31
0.0
  0
CIRCLE
  5
91B
330
1E
100
AcDbEntity
  8
OBJECT
100
AcDbCircle
 10
8.726801719121862
 20
13.56659796311898
 30
0.0
 40
0.125
  0
CIRCLE
  5
91C
330
1E
100
AcDbEntity
  8
OBJECT
100
AcDbCircle
 10
8.726801719121862
 20
13.56659796311898
 30
0.0
 40
0.0625
  0
CIRCLE
  5
920
330
1E
100
AcDbEntity
  8
OBJECT
100
AcDbCircle
 10
9.080801719121863
 20
13.55878596311898
 30
0.0
 40
0.085937
  0
ARC
  5
921
330
1E
100
AcDbEntity
  8
OBJECT
100
AcDbCircle
 10
8.709551719121861
 20
13.59259796311898
 30
0.0
 40
0.19875
100
AcDbArc
 50
90.0
 51
180.0
  0
CIRCLE
  5
922
330
1E
100
AcDbEntity
  8
OBJECT
100
AcDbCircle
 10
11.57018171912186
 20
9.781094963118986
 30
0.0
 40
0.03125
  0
ARC
  5
923
330
1E
100
AcDbEntity
  8
OBJECT
100
AcDbCircle
 10
11.42180171912186
 20
9.623347963118986
 30
0.0
 40
0.1
100
AcDbArc
 50
0.0
 51
90.0
  0
ARC
  5
924
330
1E
100
AcDbEntity
  8
OBJECT
100
AcDbCircle
 10
11.42180171912186
 20
9.623347963118986
 30
0.0
 40
0.14
100
AcDbArc
 50
0.0
 51
90.0
  0
ARC
  5
925
330
1E
100
AcDbEntity
  8
OBJECT
100
AcDbCircle
 10
11.42180171912186
 20
10.32334796311898
 30
0.0
 40
0.14
100
AcDbArc
 50
270.0
 51
0.0
  0
ARC
  5
926
330
1E
100
AcDbEntity
  8
OBJECT
100
AcDbCircle
 10
11.42180171912186
 20
10.32334796311898
 30
0.0
 40
0.1
100
AcDbArc
 50
270.0
 51
0.0
  0
CIRCLE
  5
927
330
1E
100
AcDbEntity
  8
OBJECT
100
AcDbCircle
 10
11.57018171912186
 20
10.16560096311898
 30
0.0
 40
0.03125
  0
LINE
  5
928
330
1E
100
AcDbEntity
  8
OBJECT
100
AcDbLine
 10
11.52180171912186
 20
13.22022296311898
 30
0.0
 11
11.52180171912186
 21
10.32334796311898
 31
0.0
  0
LINE
  5
929
330
1E
100
AcDbEntity
  8
OBJECT
100
AcDbLine
 10
11.56180171912186
 20
13.22022296311898
 30
0.0
 11
11.56180171912186
 21
10.32334796311898
 31
0.0
  0
CIRCLE
  5
92A
330
1E
100
AcDbEntity
  8
OBJECT
100
AcDbCircle
 10
8.560420719121863
 20
10.16560096311898
 30
0.0
 40
0.03125
  0
LINE
  5
92B
330
1E
100
AcDbEntity
  8
OBJECT
100
AcDbLine
 10
8.709551719121861
 20
9.723347963118987
 30
0.0
 11
8.708801719121861
 21
9.723347963118987
 31
0.0
  0
LINE
  5
92C
330
1E
100
AcDbEntity
  8
OBJECT
100
AcDbLine
 10
8.709551719121861
 20
9.763347963118986
 30
0.0
 11
8.708801719121861
 21
9.763347963118986
 31
0.0
  0
ARC
  5
92D
330
1E
100
AcDbEntity
  8
OBJECT
100
AcDbCircle
 10
8.708801719121861
 20
10.32334796311898
 30
0.0
 40
0.1
100
AcDbArc
 50
180.0
 51
270.0
  0
ARC
  5
92E
330
1E
100
AcDbEntity
  8
OBJECT
100
AcDbCircle
 10
8.708801719121861
 20
10.32334796311898
 30
0.0
 40
0.14
100
AcDbArc
 50
180.0
 51
270.0
  0
ARC
  5
92F
330
1E
100
AcDbEntity
  8
OBJECT
100
AcDbCircle
 10
8.708801719121861
 20
9.623347963118986
 30
0.0
 40
0.14
100
AcDbArc
 50
90.0
 51
180.0
  0
ARC
  5
930
330
1E
100
AcDbEntity
  8
OBJECT
100
AcDbCircle
 10
8.708801719121861
 20
9.623347963118986
 30
0.0
 40
0.1
100
AcDbArc
 50
90.0
 51
180.0
  0
LINE
  5
931
330
1E
100
AcDbEntity
  8
OBJECT
100
AcDbLine
 10
8.709551719121861
 20
10.18334796311898
 30
0.0
 11
8.708801719121861
 21
10.18334796311898
 31
0.0
  0
LINE
  5
932
330
1E
100
AcDbEntity
  8
OBJECT
100
AcDbLine
 10
8.709551719121861
 20
10.22334796311898
 30
0.0
 11
8.708801719121861
 21
10.22334796311898
 31
0.0
  0
ARC
  5
933
330
1E
100
AcDbEntity
  8
OBJECT
100
AcDbCircle
 10
8.726801719121862
 20
9.973347963118987
 30
0.0
 40
0.21
100
AcDbArc
 50
270.0
 51
90.0
  0
ARC
  5
934
330
1E
100
AcDbEntity
  8
OBJECT
100
AcDbCircle
 10
8.726801719121862
 20
9.973347963118987
 30
0.0
 40
0.25
100
AcDbArc
 50
270.0
 51
90.0
  0
CIRCLE
  5
935
330
1E
100
AcDbEntity
  8
OBJECT
100
AcDbCircle
 10
8.560420719121863
 20
9.781094963118986
 30
0.0
 40
0.03125
  0
CIRCLE
  5
936
330
1E
100
AcDbEntity
  8
OBJECT
100
AcDbCircle
 10
8.726801719121862
 20
9.973347963118987
 30
0.0
 40
0.164063
  0
CIRCLE
  5
937
330
1E
100
AcDbEntity
  8
OBJECT
100
AcDbCircle
 10
8.726801719121862
 20
9.973347963118987
 30
0.0
 40
0.125
  0
CIRCLE
  5
938
330
1E
100
AcDbEntity
  8
OBJECT
100
AcDbCircle
 10
8.726801719121862
 20
9.973347963118987
 30
0.0
 40
0.0625
  0
LINE
  5
939
330
1E
100
AcDbEntity
  8
OBJECT
100
AcDbLine
 10
8.608801719121863
 20
13.22022296311898
 30
0.0
 11
8.608801719121863
 21
10.32334796311898
 31
0.0
  0
LINE
  5
93A
330
1E
100
AcDbEntity
  8
OBJECT
100
AcDbLine
 10
8.568801719121863
 20
13.22022296311898
 30
0.0
 11
8.568801719121863
 21
10.32334796311898
 31
0.0
  0
LINE
  5
93B
330
1E
100
AcDbEntity
  8
OBJECT
100
AcDbLine
 10
8.608801719121863
 20
6.725472963118987
 30
0.0
 11
8.608801719121863
 21
9.623347963118986
 31
0.0
  0
LINE
  5
93C
330
1E
100
AcDbEntity
  8
OBJECT
100
AcDbLine
 10
8.568801719121863
 20
6.725472963118987
 30
0.0
 11
8.568801719121863
 21
9.623347963118986
 31
0.0
  0
LINE
  5
93E
102
{ACAD_REACTORS
330
2373
102
}
330
1E
100
AcDbEntity
  8
OBJECT
100
AcDbLine
 10
16.99835271912186
 20
13.36137896311898
 30
0.0
 11
16.99835271912186
 21
13.79134796311898
 31
0.0
  0
LINE
  5
93F
330
1E
100
AcDbEntity
  8
OBJECT
100
AcDbLine
 10
16.93835271912186
 20
10.22334796311898
 30
0.0
 11
18.65035271912186
 21
10.22334796311898
 31
0.0
  0
LINE
  5
940
330
1E
100
AcDbEntity
  8
OBJECT
100
AcDbLine
 10
16.93835271912186
 20
9.723347963118987
 30
0.0
 11
18.65035271912186
 21
9.723347963118987
 31
0.0
  0
LINE
  5
941
102
{ACAD_REACTORS
330
2373
102
}
330
1E
100
AcDbEntity
  8
OBJECT
100
AcDbLine
 10
17.03835271912186
 20
13.79134796311898
 30
0.0
 11
17.03835271912186
 21
13.81134796311898
 31
0.0
  0
SOLID
  5
942
330
1E
100
AcDbEntity
  8
BEND
100
AcDbTrace
 10
10.77371471912186
 20
5.741418963118988
 30
0.0
 11
10.77371471912186
 21
5.876418963118986
 31
0.0
 12
10.36871471912186
 22
5.808918963118987
 32
0.0
 13
10.36871471912186
 23
5.808918963118987
 33
0.0
  0
SOLID
  5
943
330
1E
100
AcDbEntity
  8
BEND
100
AcDbTrace
 10
10.51775671912186
 20
14.12103996311898
 30
0.0
 11
10.51775671912186
 21
14.25603996311898
 31
0.0
 12
10.11275671912186
 22
14.18853996311898
 32
0.0
 13
10.11275671912186
 23
14.18853996311898
 33
0.0
  0
TEXT
  5
944
330
1E
100
AcDbEntity
  8
BEND
100
AcDbText
 10
10.66551471912186
 20
14.32398296311898
 30
0.0
 40
0.28125
  1
A
 41
0.8
  7
SECTION
100
AcDbText
  0
TEXT
  5
945
330
1E
100
AcDbEntity
  8
BEND
100
AcDbText
 10
11.21233371912186
 20
5.651179963118988
 30
0.0
 40
0.28125
  1
A
 41
0.8
  7
SECTION
100
AcDbText
  0
LINE
  5
946
102
{ACAD_REACTORS
330
2373
102
}
330
1E
100
AcDbEntity
  8
OBJECT
100
AcDbLine
 10
18.45435271912186
 20
9.525722963118987
 30
0.0
 11
18.61435271912186
 21
9.525722963118987
 31
0.0
  0
LINE
  5
947
102
{ACAD_REACTORS
330
2373
102
}
330
1E
100
AcDbEntity
  8
OBJECT
100
AcDbLine
 10
18.45435271912186
 20
9.435722963118987
 30
0.0
 11
18.61435271912186
 21
9.435722963118987
 31
0.0
  0
LINE
  5
948
102
{ACAD_REACTORS
330
2373
102
}
330
1E
100
AcDbEntity
  8
OBJECT
100
AcDbLine
 10
18.61435271912186
 20
9.435722963118987
 30
0.0
 11
18.61435271912186
 21
9.525722963118987
 31
0.0
  0
LINE
  5
949
102
{ACAD_REACTORS
330
2373
102
}
330
1E
100
AcDbEntity
  8
OBJECT
100
AcDbLine
 10
16.99835271912186
 20
6.204347963118987
 30
0.0
 11
18.65035271912186
 21
6.204347963118987
 31
0.0
  0
LINE
  5
94A
330
1E
100
AcDbEntity
  8
OBJECT
100
AcDbLine
 10
18.45435271912186
 20
6.886597963118987
 30
0.0
 11
18.64185271912186
 21
6.886597963118987
 31
0.0
  0
LINE
  5
94B
102
{ACAD_REACTORS
330
2373
102
}
330
1E
100
AcDbEntity
  8
OBJECT
100
AcDbLine
 10
18.45435271912186
 20
6.917847963118987
 30
0.0
 11
18.64185271912186
 21
6.917847963118987
 31
0.0
  0
LINE
  5
94C
330
1E
100
AcDbEntity
  8
OBJECT
100
AcDbLine
 10
18.45435271912186
 20
6.761597963118987
 30
0.0
 11
18.64185271912186
 21
6.761597963118987
 31
0.0
  0
LINE
  5
94D
102
{ACAD_REACTORS
330
2373
102
}
330
1E
100
AcDbEntity
  8
OBJECT
100
AcDbLine
 10
18.45435271912186
 20
6.730347963118987
 30
0.0
 11
18.64185271912186
 21
6.730347963118987
 31
0.0
  0
LINE
  5
94E
330
1E
100
AcDbEntity
  8
OBJECT
100
AcDbLine
 10
18.64185271912186
 20
6.730347963118987
 30
0.0
 11
18.64185271912186
 21
6.917847963118987
 31
0.0
  0
LINE
  5
94F
102
{ACAD_REACTORS
330
2373
102
}
330
1E
100
AcDbEntity
  8
OBJECT
100
AcDbLine
 10
16.93835271912186
 20
6.625472963118987
 30
0.0
 11
18.65035271912186
 21
6.625472963118987
 31
0.0
  0
LINE
  5
950
102
{ACAD_REACTORS
330
2373
102
}
330
1E
100
AcDbEntity
  8
OBJECT
100
AcDbLine
 10
16.99835271912186
 20
6.567472963118987
 30
0.0
 11
18.65035271912186
 21
6.567472963118987
 31
0.0
  0
LINE
  5
951
102
{ACAD_REACTORS
330
2373
102
}
330
1E
100
AcDbEntity
  8
OBJECT
100
AcDbLine
 10
16.93835271912186
 20
6.585472963118988
 30
0.0
 11
16.99835271912186
 21
6.585472963118988
 31
0.0
  0
LINE
  5
952
102
{ACAD_REACTORS
330
2373
102
}
330
1E
100
AcDbEntity
  8
OBJECT
100
AcDbLine
 10
18.65035271912186
 20
6.204347963118987
 30
0.0
 11
18.65035271912186
 21
6.567472963118987
 31
0.0
  0
LINE
  5
953
102
{ACAD_REACTORS
330
2373
102
}
330
1E
100
AcDbEntity
  8
OBJECT
100
AcDbLine
 10
18.65035271912186
 20
6.446847963118987
 30
0.0
 11
18.77035271912186
 21
6.446847963118987
 31
0.0
  0
LINE
  5
954
102
{ACAD_REACTORS
330
2373
102
}
330
1E
100
AcDbEntity
  8
OBJECT
100
AcDbLine
 10
18.65035271912186
 20
6.274972963118987
 30
0.0
 11
18.77035271912186
 21
6.274972963118987
 31
0.0
  0
LINE
  5
955
102
{ACAD_REACTORS
330
2373
102
}
330
1E
100
AcDbEntity
  8
OBJECT
100
AcDbLine
 10
18.64185271912186
 20
6.730347963118987
 30
0.0
 11
18.64185271912186
 21
6.917847963118987
 31
0.0
  0
ARC
  5
957
330
1E
100
AcDbEntity
  8
OBJECT
100
AcDbCircle
 10
11.40380171912186
 20
13.56659796311898
 30
0.0
 40
0.229894
100
AcDbArc
 50
130.5242159999999
 51
235.02455
  0
ARC
  5
958
330
1E
100
AcDbEntity
  8
OBJECT
100
AcDbCircle
 10
8.726801719121862
 20
13.56659796311898
 30
0.0
 40
0.229894
100
AcDbArc
 50
304.97545
 51
49.475784
  0
CIRCLE
  5
963
330
1E
100
AcDbEntity
  8
OBJECT
100
AcDbCircle
 10
10.95080171912186
 20
10.46534796311898
 30
0.0
 40
0.045
  0
CIRCLE
  5
964
330
1E
100
AcDbEntity
  8
OBJECT
100
AcDbCircle
 10
9.179801719121861
 20
10.46534796311898
 30
0.0
 40
0.045
  0
DIMENSION
  5
965
330
1E
100
AcDbEntity
  8
DIM
100
AcDbDimension
  2
*D9
 10
19.88117271912186
 20
6.446847963118987
 30
0.0
 11
21.43507896912186
 21
7.346847963118991
 31
0.0
 70
    32
  1
0.177 DIA.
 71
     5
 42
0.171875
  3
23NSTD
100
AcDbAlignedDimension
 13
18.77035271912186
 23
6.274972963118987
 33
0.0
 14
18.77035271912186
 24
6.446847963118987
 34
0.0
 50
90.0
100
AcDbRotatedDimension
  0
LINE
  5
973
102
{ACAD_REACTORS
330
2373
102
}
330
1E
100
AcDbEntity
  8
OBJECT
100
AcDbLine
 10
18.65035271912186
 20
6.625472963118987
 30
0.0
 11
18.65035271912186
 21
6.640012383344523
 31
0.0
  0
DIMENSION
  5
975
330
1E
100
AcDbEntity
  8
DIM
100
AcDbDimension
  2
*D10
 10
19.88117271912186
 20
13.72409796311898
 30
0.0
 11
21.43507896912186
 21
14.62409796311899
 31
0.0
 70
    32
  1
0.313 DIA.
 71
     5
 42
0.3150000000000013
  3
23NSTD
100
AcDbAlignedDimension
 13
18.77035271912186
 23
13.40909796311898
 33
0.0
 14
18.77035271912186
 24
13.72409796311898
 34
0.0
 50
90.0
100
AcDbRotatedDimension
  0
DIMENSION
  5
983
330
1E
100
AcDbEntity
  8
DIM
100
AcDbDimension
  2
*D11
 10
16.93835271912186
 20
15.17643896311898
 30
0.0
 11
17.85435271912186
 21
15.17643896311898
 31
0.0
 70
    32
 71
     5
 42
1.832
  3
23NSTDI
100
AcDbAlignedDimension
 13
18.77035271912186
 23
13.74884796311898
 33
0.0
 14
16.93835271912186
 24
13.72084796311898
 34
0.0
100
AcDbRotatedDimension
  0
DIMENSION
  5
991
330
1E
100
AcDbEntity
  8
DIM
100
AcDbDimension
  2
*D12
 10
18.77035271912186
 20
14.47393896311898
 30
0.0
 11
18.08247771912186
 21
14.47393896311898
 31
0.0
 70
    32
 71
     5
 42
1.37575
  3
23NSTDI
100
AcDbAlignedDimension
 13
17.39460271912186
 23
13.72034796311898
 33
0.0
 14
18.77035271912186
 24
13.74884796311898
 34
0.0
 50
180.0
100
AcDbRotatedDimension
  0
LINE
  5
99F
102
{ACAD_REACTORS
330
2373
102
}
330
1E
100
AcDbEntity
  8
OBJECT
100
AcDbLine
 10
17.39460271912186
 20
13.72409796311898
 30
0.0
 11
18.77035271912186
 21
13.72409796311898
 31
0.0
  0
LINE
  5
9A0
102
{ACAD_REACTORS
330
2373
102
}
330
1E
100
AcDbEntity
  8
OBJECT
100
AcDbLine
 10
16.93835271912186
 20
13.32022296311898
 30
0.0
 11
18.65035271912186
 21
13.32022296311898
 31
0.0
  0
LINE
  5
9A1
102
{ACAD_REACTORS
330
2373
102
}
330
1E
100
AcDbEntity
  8
OBJECT
100
AcDbLine
 10
17.39460271912186
 20
13.40909796311898
 30
0.0
 11
18.77035271912186
 21
13.40909796311898
 31
0.0
  0
LINE
  5
9A2
330
1E
100
AcDbEntity
  8
OBJECT
100
AcDbLine
 10
16.99835271912186
 20
13.62909796311898
 30
0.0
 11
17.33284671912186
 21
13.62909796311898
 31
0.0
  0
LINE
  5
9A3
102
{ACAD_REACTORS
330
2373
102
}
330
1E
100
AcDbEntity
  8
OBJECT
100
AcDbLine
 10
16.99835271912186
 20
13.69159796311898
 30
0.0
 11
17.39460271912186
 21
13.69159796311898
 31
0.0
  0
LINE
  5
9A4
330
1E
100
AcDbEntity
  8
OBJECT
100
AcDbLine
 10
16.99835271912186
 20
13.50409796311898
 30
0.0
 11
17.33284671912186
 21
13.50409796311898
 31
0.0
  0
LINE
  5
9A5
102
{ACAD_REACTORS
330
2373
102
}
330
1E
100
AcDbEntity
  8
OBJECT
100
AcDbLine
 10
16.99835271912186
 20
13.44159796311898
 30
0.0
 11
17.39460271912186
 21
13.44159796311898
 31
0.0
  0
LINE
  5
9A6
102
{ACAD_REACTORS
330
2373
102
}
330
1E
100
AcDbEntity
  8
OBJECT
100
AcDbLine
 10
17.39460271912186
 20
13.40909796311898
 30
0.0
 11
17.39460271912186
 21
13.72409796311898
 31
0.0
  0
LINE
  5
9A7
330
1E
100
AcDbEntity
  8
OBJECT
100
AcDbLine
 10
17.33284671912186
 20
13.44159796311898
 30
0.0
 11
17.33284671912186
 21
13.69159796311898
 31
0.0
  0
LINE
  5
9A8
102
{ACAD_REACTORS
330
2373
102
}
330
1E
100
AcDbEntity
  8
OBJECT
100
AcDbLine
 10
16.93835271912186
 20
13.36137896311898
 30
0.0
 11
16.99835271912186
 21
13.36137896311898
 31
0.0
  0
INSERT
  5
9A9
330
1E
100
AcDbEntity
  8
OBJECT
 62
   221
100
AcDbBlockReference
  2
*X0
 10
-0.1059142808781353
 20
0.6504399631189877
 30
0.0
1001
ACAD
1000
HATCH
1002
{
1070
    16
1000
ANSI32
1040
0.25
1040
1.570795999999999
1002
}
  0
LWPOLYLINE
  5
9AA
330
1E
100
AcDbEntity
  8
BEND
100
AcDbPolyline
 90
        8
 70
     0
 43
0.0
 10
10.77371471912186
 20
5.808918963118987
 10
10.95457071912186
 20
5.808918963118987
 10
10.95457071912186
 20
10.12225188105614
 10
10.57899281139505
 20
10.12225188105614
 10
10.57899281139505
 20
12.51732045017618
 10
11.40380171912186
 20
12.51732045017618
 10
11.40380171912186
 20
14.18853996311898
 10
10.51775671912186
 20
14.18853996311898
  0
ARC
  5
9B4
330
1E
100
AcDbEntity
  8
OBJECT
100
AcDbCircle
 10
8.726801719121862
 20
6.379097963118987
 30
0.0
 40
0.229894
100
AcDbArc
 50
310.524216
 51
55.02455000000001
  0
ARC
  5
9B5
330
1E
100
AcDbEntity
  8
OBJECT
100
AcDbCircle
 10
8.709551719121861
 20
6.353097963118987
 30
0.0
 40
0.19875
100
AcDbArc
 50
180.0
 51
270.0
  0
CIRCLE
  5
9B6
330
1E
100
AcDbEntity
  8
OBJECT
100
AcDbCircle
 10
8.726801719121862
 20
6.379097963118987
 30
0.0
 40
0.125
  0
ARC
  5
9B7
330
1E
100
AcDbEntity
  8
OBJECT
100
AcDbCircle
 10
9.482206719121862
 20
6.389847963118986
 30
0.0
 40
0.1375
100
AcDbArc
 50
182.125976
 51
270.0
  0
ARC
  5
9B8
330
1E
100
AcDbEntity
  8
OBJECT
100
AcDbCircle
 10
9.494206719121862
 20
6.401847963118987
 30
0.0
 40
0.2075
100
AcDbArc
 50
182.125976
 51
244.942385
  0
CIRCLE
  5
9B9
330
1E
100
AcDbEntity
  8
OBJECT
100
AcDbCircle
 10
8.726801719121862
 20
6.379097963118987
 30
0.0
 40
0.164063
  0
ARC
  5
9BA
330
1E
100
AcDbEntity
  8
OBJECT
100
AcDbCircle
 10
8.709551719121861
 20
6.353097963118987
 30
0.0
 40
0.21875
100
AcDbArc
 50
180.0
 51
270.0
  0
ARC
  5
9BB
330
1E
100
AcDbEntity
  8
OBJECT
100
AcDbCircle
 10
9.482206719121862
 20
6.389847963118986
 30
0.0
 40
0.1775
100
AcDbArc
 50
182.125976
 51
270.0
  0
CIRCLE
  5
9BC
330
1E
100
AcDbEntity
  8
OBJECT
100
AcDbCircle
 10
9.080801719121863
 20
6.386910963118987
 30
0.0
 40
0.085937
  0
ARC
  5
9BD
330
1E
100
AcDbEntity
  8
OBJECT
100
AcDbCircle
 10
9.094973719121862
 20
6.375472963118987
 30
0.0
 40
0.25
100
AcDbArc
 50
2.125975999999999
 51
90.0
  0
ARC
  5
9BE
330
1E
100
AcDbEntity
  8
OBJECT
100
AcDbCircle
 10
9.106973719121862
 20
6.387472963118987
 30
0.0
 40
0.18
100
AcDbArc
 50
2.125975999999999
 51
90.0
  0
ARC
  5
9BF
330
1E
100
AcDbEntity
  8
OBJECT
100
AcDbCircle
 10
9.094973719121862
 20
6.375472963118987
 30
0.0
 40
0.21
100
AcDbArc
 50
2.125975999999999
 51
90.0
  0
CIRCLE
  5
9C0
330
1E
100
AcDbEntity
  8
OBJECT
100
AcDbCircle
 10
8.726801719121862
 20
6.379097963118987
 30
0.0
 40
0.0625
  0
LINE
  5
9C1
330
1E
100
AcDbEntity
  8
OBJECT
100
AcDbLine
 10
8.708801719121861
 20
6.625472963118987
 30
0.0
 11
9.094973719121862
 21
6.625472963118987
 31
0.0
  0
LINE
  5
9C2
330
1E
100
AcDbEntity
  8
OBJECT
100
AcDbLine
 10
8.708801719121861
 20
6.585472963118988
 30
0.0
 11
9.094973719121862
 21
6.585472963118988
 31
0.0
  0
ARC
  5
9C3
330
1E
100
AcDbEntity
  8
OBJECT
100
AcDbCircle
 10
8.708801719121861
 20
6.725472963118987
 30
0.0
 40
0.1
100
AcDbArc
 50
180.0
 51
270.0
  0
CIRCLE
  5
9C4
330
1E
100
AcDbEntity
  8
OBJECT
100
AcDbCircle
 10
8.570801719121863
 20
6.576480963118987
 30
0.0
 40
0.03125
  0
ARC
  5
9C5
330
1E
100
AcDbEntity
  8
OBJECT
100
AcDbCircle
 10
8.708801719121861
 20
6.725472963118987
 30
0.0
 40
0.14
100
AcDbArc
 50
180.0
 51
270.0
  0
LINE
  5
9C6
330
1E
100
AcDbEntity
  8
OBJECT
100
AcDbLine
 10
8.858582719121862
 20
6.567472963118987
 30
0.0
 11
9.106973719121862
 21
6.567472963118987
 31
0.0
  0
LINE
  5
9C7
330
1E
100
AcDbEntity
  8
OBJECT
100
AcDbLine
 10
8.876179719121862
 20
6.204347963118987
 30
0.0
 11
9.404206719121862
 21
6.204347963118987
 31
0.0
  0
ARC
  5
9C8
330
1E
100
AcDbEntity
  8
OBJECT
100
AcDbCircle
 10
9.404206719121862
 20
6.209347963118986
 30
0.0
 40
0.005
100
AcDbArc
 50
270.0
 51
64.942385
  0
ARC
  5
9C9
330
1E
100
AcDbEntity
  8
OBJECT
100
AcDbCircle
 10
11.42180171912186
 20
6.725472963118987
 30
0.0
 40
0.14
100
AcDbArc
 50
270.0
 51
0.0
  0
ARC
  5
9CA
330
1E
100
AcDbEntity
  8
OBJECT
100
AcDbCircle
 10
11.42105171912186
 20
6.353097963118987
 30
0.0
 40
0.21875
100
AcDbArc
 50
270.0
 51
0.0
  0
CIRCLE
  5
9CB
330
1E
100
AcDbEntity
  8
OBJECT
100
AcDbCircle
 10
11.40380171912186
 20
6.379097963118987
 30
0.0
 40
0.164063
  0
ARC
  5
9CC
330
1E
100
AcDbEntity
  8
OBJECT
100
AcDbCircle
 10
11.42180171912186
 20
6.725472963118987
 30
0.0
 40
0.1
100
AcDbArc
 50
270.0
 51
0.0
  0
CIRCLE
  5
9CD
330
1E
100
AcDbEntity
  8
OBJECT
100
AcDbCircle
 10
11.40380171912186
 20
6.379097963118987
 30
0.0
 40
0.125
  0
CIRCLE
  5
9CE
330
1E
100
AcDbEntity
  8
OBJECT
100
AcDbCircle
 10
11.40380171912186
 20
6.379097963118987
 30
0.0
 40
0.0625
  0
ARC
  5
9CF
330
1E
100
AcDbEntity
  8
OBJECT
100
AcDbCircle
 10
11.42105171912186
 20
6.353097963118987
 30
0.0
 40
0.19875
100
AcDbArc
 50
270.0
 51
0.0
  0
CIRCLE
  5
9D0
330
1E
100
AcDbEntity
  8
OBJECT
100
AcDbCircle
 10
11.55980171912186
 20
6.576480963118987
 30
0.0
 40
0.03125
  0
LINE
  5
9D1
330
1E
100
AcDbEntity
  8
OBJECT
100
AcDbLine
 10
8.708801719121861
 20
10.22334796311898
 30
0.0
 11
8.726801719121862
 21
10.22334796311898
 31
0.0
  0
LINE
  5
9D2
330
1E
100
AcDbEntity
  8
OBJECT
100
AcDbLine
 10
8.726801719121862
 20
10.18334796311898
 30
0.0
 11
8.708801719121861
 21
10.18334796311898
 31
0.0
  0
LINE
  5
9D3
330
1E
100
AcDbEntity
  8
OBJECT
100
AcDbLine
 10
8.708801719121861
 20
9.763347963118986
 30
0.0
 11
8.726801719121862
 21
9.763347963118986
 31
0.0
  0
LINE
  5
9D4
330
1E
100
AcDbEntity
  8
OBJECT
100
AcDbLine
 10
8.726801719121862
 20
9.723347963118987
 30
0.0
 11
8.708801719121861
 21
9.723347963118987
 31
0.0
  0
ARC
  5
9D5
330
1E
100
AcDbEntity
  8
OBJECT
100
AcDbCircle
 10
11.40380171912186
 20
9.973347963118987
 30
0.0
 40
0.21
100
AcDbArc
 50
90.0
 51
270.0
  0
ARC
  5
9D6
330
1E
100
AcDbEntity
  8
OBJECT
100
AcDbCircle
 10
11.40380171912186
 20
9.973347963118987
 30
0.0
 40
0.25
100
AcDbArc
 50
90.0
 51
270.0
  0
LINE
  5
9D7
330
1E
100
AcDbEntity
  8
OBJECT
100
AcDbLine
 10
11.40380171912186
 20
9.723347963118987
 30
0.0
 11
11.42180171912186
 21
9.723347963118987
 31
0.0
  0
LINE
  5
9D8
330
1E
100
AcDbEntity
  8
OBJECT
100
AcDbLine
 10
11.42180171912186
 20
9.763347963118986
 30
0.0
 11
11.40380171912186
 21
9.763347963118986
 31
0.0
  0
LINE
  5
9D9
330
1E
100
AcDbEntity
  8
OBJECT
100
AcDbLine
 10
11.42105171912186
 20
9.763347963118986
 30
0.0
 11
11.42180171912186
 21
9.763347963118986
 31
0.0
  0
LINE
  5
9DA
330
1E
100
AcDbEntity
  8
OBJECT
100
AcDbLine
 10
11.42105171912186
 20
9.723347963118987
 30
0.0
 11
11.42180171912186
 21
9.723347963118987
 31
0.0
  0
LINE
  5
9DB
330
1E
100
AcDbEntity
  8
OBJECT
100
AcDbLine
 10
11.40380171912186
 20
10.18334796311898
 30
0.0
 11
11.42180171912186
 21
10.18334796311898
 31
0.0
  0
LINE
  5
9DC
330
1E
100
AcDbEntity
  8
OBJECT
100
AcDbLine
 10
11.42180171912186
 20
10.22334796311898
 30
0.0
 11
11.40380171912186
 21
10.22334796311898
 31
0.0
  0
LINE
  5
9DD
330
1E
100
AcDbEntity
  8
OBJECT
100
AcDbLine
 10
11.42105171912186
 20
10.22334796311898
 30
0.0
 11
11.42180171912186
 21
10.22334796311898
 31
0.0
  0
LINE
  5
9DE
330
1E
100
AcDbEntity
  8
OBJECT
100
AcDbLine
 10
11.42105171912186
 20
10.18334796311898
 30
0.0
 11
11.42180171912186
 21
10.18334796311898
 31
0.0
  0
CIRCLE
  5
9DF
330
1E
100
AcDbEntity
  8
OBJECT
100
AcDbCircle
 10
11.40380171912186
 20
9.973347963118987
 30
0.0
 40
0.164063
  0
CIRCLE
  5
9E0
330
1E
100
AcDbEntity
  8
OBJECT
100
AcDbCircle
 10
11.40380171912186
 20
9.973347963118987
 30
0.0
 40
0.125
  0
CIRCLE
  5
9E1
330
1E
100
AcDbEntity
  8
OBJECT
100
AcDbCircle
 10
11.40380171912186
 20
9.973347963118987
 30
0.0
 40
0.0625
  0
LINE
  5
9E4
102
{ACAD_REACTORS
330
2373
102
}
330
1E
100
AcDbEntity
  8
OBJECT
100
AcDbLine
 10
18.45435271912186
 20
9.638347963118986
 30
0.0
 11
18.45435271912186
 21
9.324347963118986
 31
0.0
  0
LINE
  5
9E5
102
{ACAD_REACTORS
330
2373
102
}
330
1E
100
AcDbEntity
  8
OBJECT
100
AcDbLine
 10
18.65035271912186
 20
9.638347963118986
 30
0.0
 11
18.45435271912186
 21
9.638347963118986
 31
0.0
  0
LINE
  5
9E6
102
{ACAD_REACTORS
330
2373
102
}
330
1E
100
AcDbEntity
  8
OBJECT
100
AcDbLine
 10
18.65035271912186
 20
9.324347963118986
 30
0.0
 11
18.45435271912186
 21
9.324347963118986
 31
0.0
  0
LINE
  5
9E7
330
1E
100
AcDbEntity
  8
OBJECT
100
AcDbLine
 10
18.45435271912186
 20
10.62234796311898
 30
0.0
 11
18.45435271912186
 21
10.30834796311898
 31
0.0
  0
LINE
  5
9E8
330
1E
100
AcDbEntity
  8
OBJECT
100
AcDbLine
 10
18.65035271912186
 20
10.62234796311898
 30
0.0
 11
18.45435271912186
 21
10.62234796311898
 31
0.0
  0
LINE
  5
9E9
330
1E
100
AcDbEntity
  8
OBJECT
100
AcDbLine
 10
18.65035271912186
 20
10.30834796311898
 30
0.0
 11
18.45435271912186
 21
10.30834796311898
 31
0.0
  0
LINE
  5
9ED
102
{ACAD_REACTORS
330
2373
102
}
330
1E
100
AcDbEntity
  8
OBJECT
100
AcDbLine
 10
18.65035271912186
 20
9.638347963118986
 30
0.0
 11
18.65035271912186
 21
10.30834796311898
 31
0.0
  0
LINE
  5
9EE
102
{ACAD_REACTORS
330
2373
102
}
330
1E
100
AcDbEntity
  8
OBJECT
100
AcDbLine
 10
18.65035271912186
 20
10.30834796311898
 30
0.0
 11
18.65035271912186
 21
10.62234796311898
 31
0.0
  0
LINE
  5
9EF
102
{ACAD_REACTORS
330
2373
102
}
330
1E
100
AcDbEntity
  8
OBJECT
100
AcDbLine
 10
18.65035271912186
 20
10.62234796311898
 30
0.0
 11
18.65035271912186
 21
13.32022296311898
 31
0.0
  0
CIRCLE
  5
9F0
330
1E
100
AcDbEntity
  8
OBJECT
100
AcDbCircle
 10
9.179801719121861
 20
9.481347963118986
 30
0.0
 40
0.045
  0
CIRCLE
  5
9F1
330
1E
100
AcDbEntity
  8
OBJECT
100
AcDbCircle
 10
9.179801719121861
 20
9.481347963118986
 30
0.0
 40
0.1575
  0
CIRCLE
  5
9F2
330
1E
100
AcDbEntity
  8
OBJECT
100
AcDbCircle
 10
10.95080171912186
 20
9.481347963118986
 30
0.0
 40
0.045
  0
CIRCLE
  5
9F3
330
1E
100
AcDbEntity
  8
OBJECT
100
AcDbCircle
 10
10.95080171912186
 20
9.481347963118986
 30
0.0
 40
0.1575
  0
ARC
  5
9FA
330
1E
100
AcDbEntity
  8
OBJECT
100
AcDbCircle
 10
10.63639671912186
 20
6.401847963118987
 30
0.0
 40
0.2075
100
AcDbArc
 50
295.057615
 51
357.874024
  0
ARC
  5
9FB
330
1E
100
AcDbEntity
  8
OBJECT
100
AcDbCircle
 10
11.03562971912186
 20
6.375472963118987
 30
0.0
 40
0.25
100
AcDbArc
 50
90.0
 51
177.8740239999999
  0
LINE
  5
9FC
330
1E
100
AcDbEntity
  8
OBJECT
100
AcDbLine
 10
11.25442371912186
 20
6.204347963118987
 30
0.0
 11
10.72639671912186
 21
6.204347963118987
 31
0.0
  0
ARC
  5
9FD
330
1E
100
AcDbEntity
  8
OBJECT
100
AcDbCircle
 10
11.03562971912186
 20
6.375472963118987
 30
0.0
 40
0.21
100
AcDbArc
 50
90.0
 51
177.8740239999999
  0
CIRCLE
  5
9FE
330
1E
100
AcDbEntity
  8
OBJECT
100
AcDbCircle
 10
11.04980171912186
 20
6.386910963118987
 30
0.0
 40
0.085937
  0
LINE
  5
9FF
330
1E
100
AcDbEntity
  8
OBJECT
100
AcDbLine
 10
11.27202071912186
 20
6.567472963118987
 30
0.0
 11
11.02362971912186
 21
6.567472963118987
 31
0.0
  0
ARC
  5
A00
330
1E
100
AcDbEntity
  8
OBJECT
100
AcDbCircle
 10
11.40380171912186
 20
6.379097963118987
 30
0.0
 40
0.229894
100
AcDbArc
 50
124.9754499999999
 51
229.4757839999999
  0
ARC
  5
A01
330
1E
100
AcDbEntity
  8
OBJECT
100
AcDbCircle
 10
11.02362971912186
 20
6.387472963118987
 30
0.0
 40
0.18
100
AcDbArc
 50
90.0
 51
177.8740239999999
  0
ARC
  5
A02
330
1E
100
AcDbEntity
  8
OBJECT
100
AcDbCircle
 10
10.72639671912186
 20
6.209347963118986
 30
0.0
 40
0.005
100
AcDbArc
 50
115.0576149999999
 51
270.0
  0
ARC
  5
A03
330
1E
100
AcDbEntity
  8
OBJECT
100
AcDbCircle
 10
10.64839671912186
 20
6.389847963118986
 30
0.0
 40
0.1375
100
AcDbArc
 50
270.0
 51
357.874024
  0
ARC
  5
A04
330
1E
100
AcDbEntity
  8
OBJECT
100
AcDbCircle
 10
10.64839671912186
 20
6.389847963118986
 30
0.0
 40
0.1775
100
AcDbArc
 50
270.0
 51
357.874024
  0
LINE
  5
A05
330
1E
100
AcDbEntity
  8
OBJECT
100
AcDbLine
 10
11.42180171912186
 20
6.585472963118988
 30
0.0
 11
11.03562971912186
 21
6.585472963118988
 31
0.0
  0
LINE
  5
A06
330
1E
100
AcDbEntity
  8
OBJECT
100
AcDbLine
 10
11.42180171912186
 20
6.625472963118987
 30
0.0
 11
11.03562971912186
 21
6.625472963118987
 31
0.0
  0
DIMENSION
  5
A07
330
1E
100
AcDbEntity
  8
DIM
100
AcDbDimension
  2
*D13
 10
10.95080171912186
 20
15.87411196311898
 30
0.0
 11
10.06530171912186
 21
15.87411196311898
 31
0.0
 70
    32
 71
     5
 42
1.771
  3
23NSTDI
100
AcDbAlignedDimension
 13
9.179801719121861
 23
13.12234796311898
 33
0.0
 14
10.95080171912186
 24
13.12234796311898
 34
0.0
100
AcDbRotatedDimension
  0
DIMENSION
  5
A15
330
1E
100
AcDbEntity
  8
DIM
100
AcDbDimension
  2
*D14
 10
11.04980171912186
 20
17.27911196311898
 30
0.0
 11
10.06530171912186
 21
17.27911196311898
 31
0.0
 70
    32
  1
1.889
 71
     5
 42
1.968999999999999
  3
23NSTDI
100
AcDbAlignedDimension
 13
9.080801719121863
 23
13.55878596311898
 33
0.0
 14
11.04980171912186
 24
13.55878596311898
 34
0.0
100
AcDbRotatedDimension
  0
DIMENSION
  5
A23
330
1E
100
AcDbEntity
  8
DIM
100
AcDbDimension
  2
*D15
 10
11.40380171912186
 20
18.68411196311898
 30
0.0
 11
10.06530171912186
 21
18.68411196311898
 31
0.0
 70
    32
 71
     5
 42
2.676999999999999
  3
23NSTDI
100
AcDbAlignedDimension
 13
8.726801719121862
 23
13.56659796311898
 33
0.0
 14
11.40380171912186
 24
13.56659796311898
 34
0.0
100
AcDbRotatedDimension
  0
DIMENSION
  5
A31
330
1E
100
AcDbEntity
  8
DIM
100
AcDbDimension
  2
*D16
 10
6.081881719121862
 20
10.46534796311898
 30
0.0
 11
6.08188171912186
 21
11.79384796311898
 31
0.0
 70
    32
 71
     5
 42
2.657
  3
23NSTD
100
AcDbAlignedDimension
 13
9.179801719121861
 23
13.12234796311898
 33
0.0
 14
9.179801719121861
 24
10.46534796311898
 34
0.0
 50
90.0
100
AcDbRotatedDimension
  0
DIMENSION
  5
A3F
330
1E
100
AcDbEntity
  8
DIM
100
AcDbDimension
  2
*D17
 10
6.081881719121862
 20
9.481347963118986
 30
0.0
 11
6.081881719121861
 21
9.973347963118989
 31
0.0
 70
    32
 71
     5
 42
0.9839999999999999
  3
23NSTDI
100
AcDbAlignedDimension
 13
9.179801719121861
 23
10.46534796311898
 33
0.0
 14
9.179801719121861
 24
9.481347963118986
 34
0.0
 50
90.0
100
AcDbRotatedDimension
  0
DIMENSION
  5
A4D
330
1E
100
AcDbEntity
  8
DIM
100
AcDbDimension
  2
*D18
 10
6.085074719121863
 20
6.823347963118987
 30
0.0
 11
6.085074719121862
 21
8.152347963118989
 31
0.0
 70
    32
  1
2.657
 71
     5
 42
2.657999999999999
  3
23NSTD
100
AcDbAlignedDimension
 13
9.179801719121861
 23
9.481347963118986
 33
0.0
 14
9.179801719121861
 24
6.823347963118987
 34
0.0
 50
90.0
100
AcDbRotatedDimension
  0
DIMENSION
  5
A5B
330
1E
100
AcDbEntity
  8
DIM
100
AcDbDimension
  2
*D19
 10
6.085074719121863
 20
6.134347963118987
 30
0.0
 11
6.085074719121861
 21
6.478847963118989
 31
0.0
 70
    32
 71
     5
 42
0.6890000000000001
  3
23NSTDI
100
AcDbAlignedDimension
 13
9.179801719121861
 23
6.823347963118987
 33
0.0
 14
8.709551719121861
 24
6.134347963118987
 34
0.0
 50
90.0
100
AcDbRotatedDimension
  0
DIMENSION
  5
A69
330
1E
100
AcDbEntity
  8
DIM
100
AcDbDimension
  2
*D20
 10
6.085074719121863
 20
13.81134796311898
 30
0.0
 11
6.085074719121861
 21
13.46684796311898
 31
0.0
 70
    32
 71
     5
 42
0.6890000000000001
  3
23NSTDI
100
AcDbAlignedDimension
 13
9.179801719121861
 23
13.12234796311898
 33
0.0
 14
8.709551719121861
 24
13.81134796311898
 34
0.0
 50
90.0
100
AcDbRotatedDimension
  0
DIMENSION
  5
A77
330
1E
100
AcDbEntity
  8
DIM
100
AcDbDimension
  2
*D21
 10
13.95517971912186
 20
9.973347963118985
 30
0.0
 11
13.95517971912186
 21
11.76997296311898
 31
0.0
 70
    32
  1
3.602
 71
     5
 42
3.593249999999999
  3
23NSTD
100
AcDbAlignedDimension
 13
11.40380171912186
 23
13.56659796311898
 33
0.0
 14
11.40380171912186
 24
9.973347963118987
 34
0.0
 50
90.0
100
AcDbRotatedDimension
  0
DIMENSION
  5
A85
330
1E
100
AcDbEntity
  8
DIM
100
AcDbDimension
  2
*D22
 10
13.95517971912186
 20
13.81134796311898
 30
0.0
 11
15.07939846912186
 21
14.71134796311898
 31
0.0
 70
    32
  1
0.236
 71
     5
 42
0.2447499999999998
  3
23NSTD
100
AcDbAlignedDimension
 13
11.40380171912186
 23
13.56659796311898
 33
0.0
 14
11.42105171912186
 24
13.81134796311898
 34
0.0
 50
90.0
100
AcDbRotatedDimension
  0
DIMENSION
  5
A93
330
1E
100
AcDbEntity
  8
DIM
100
AcDbDimension
  2
*D23
 10
13.95517971912186
 20
6.379097963118987
 30
0.0
 11
13.95517971912186
 21
8.176222963118989
 31
0.0
 70
    32
  1
3.602
 71
     5
 42
3.594249999999999
  3
23NSTD
100
AcDbAlignedDimension
 13
11.40380171912186
 23
9.973347963118987
 33
0.0
 14
11.40380171912186
 24
6.379097963118987
 34
0.0
 50
90.0
100
AcDbRotatedDimension
  0
DIMENSION
  5
AA1
330
1E
100
AcDbEntity
  8
DIM
100
AcDbDimension
  2
*D24
 10
13.95517971912186
 20
6.134347963118987
 30
0.0
 11
12.83096096912186
 21
5.234347963118989
 31
0.0
 70
    32
  1
0.236
 71
     5
 42
0.2447499999999998
  3
23NSTD
100
AcDbAlignedDimension
 13
11.40380171912186
 23
6.379097963118987
 33
0.0
 14
11.42105171912186
 24
6.134347963118987
 34
0.0
 50
90.0
100
AcDbRotatedDimension
  0
DIMENSION
  5
AAF
330
1E
100
AcDbEntity
  8
DIM
100
AcDbDimension
  2
*D25
 10
8.490801719121861
 20
17.98161196311899
 30
0.0
 11
6.916582969121861
 21
17.98161196311899
 31
0.0
 70
    32
 71
     5
 42
0.2360000000000006
  3
23NSTD
100
AcDbAlignedDimension
 13
8.726801719121862
 23
13.56659796311898
 33
0.0
 14
8.490801719121861
 24
13.59259796311898
 34
0.0
100
AcDbRotatedDimension
  0
DIMENSION
  5
ABD
330
1E
100
AcDbEntity
  8
DIM
100
AcDbDimension
  2
*D26
 10
11.63980171912186
 20
18.21411196311898
 30
0.0
 11
13.21402046912186
 21
18.21411196311898
 31
0.0
 70
    32
 71
     5
 42
0.2360000000000006
  3
23NSTD
100
AcDbAlignedDimension
 13
11.40380171912186
 23
13.56659796311898
 33
0.0
 14
11.63980171912186
 24
13.59259796311898
 34
0.0
100
AcDbRotatedDimension
  0
DIMENSION
  5
ACB
330
1E
100
AcDbEntity
  8
DIM
100
AcDbDimension
  2
*D27
 10
8.490801719121861
 20
16.57661196311899
 30
0.0
 11
6.936114219121861
 21
16.57661196311899
 31
0.0
 70
    32
  1
0.630
 71
     5
 42
0.5900000000000017
  3
23NSTD
100
AcDbAlignedDimension
 13
9.080801719121863
 23
13.55878596311898
 33
0.0
 14
8.490801719121861
 24
13.73434796311898
 34
0.0
100
AcDbRotatedDimension
  0
DIMENSION
  5
AD9
330
1E
100
AcDbEntity
  8
DIM
100
AcDbDimension
  2
*D28
 10
11.63980171912186
 20
16.80911196311898
 30
0.0
 11
13.19448921912186
 21
16.80911196311898
 31
0.0
 70
    32
  1
0.630
 71
     5
 42
0.5899999999999999
  3
23NSTD
100
AcDbAlignedDimension
 13
11.04980171912186
 23
13.55878596311898
 33
0.0
 14
11.63980171912186
 24
13.73434796311898
 34
0.0
100
AcDbRotatedDimension
  0
DIMENSION
  5
AE7
330
1E
100
AcDbEntity
  8
DIM
100
AcDbDimension
  2
*D29
 10
8.490801719121861
 20
15.17161196311898
 30
0.0
 11
6.916582969121861
 21
15.17161196311898
 31
0.0
 70
    32
 71
     5
 42
0.6890000000000001
  3
23NSTD
100
AcDbAlignedDimension
 13
9.179801719121861
 23
13.12234796311898
 33
0.0
 14
8.490801719121861
 24
13.87609796311898
 34
0.0
100
AcDbRotatedDimension
  0
DIMENSION
  5
AF5
330
1E
100
AcDbEntity
  8
DIM
100
AcDbDimension
  2
*D30
 10
11.63980171912186
 20
15.40411196311898
 30
0.0
 11
13.21402046912186
 21
15.40411196311898
 31
0.0
 70
    32
 71
     5
 42
0.6890000000000001
  3
23NSTD
100
AcDbAlignedDimension
 13
10.95080171912186
 23
13.12234796311898
 33
0.0
 14
11.63980171912186
 24
13.87609796311898
 34
0.0
100
AcDbRotatedDimension
  0
DIMENSION
  5
B03
330
1E
100
AcDbEntity
  8
DIM
100
AcDbDimension
  2
*D31
 10
7.625258719121863
 20
13.32022296311898
 30
0.0
 11
7.625258719121861
 21
13.56578546311898
 31
0.0
 70
    32
  1
0.512
 71
     5
 42
0.4911250000000003
  3
23NSTDI
100
AcDbAlignedDimension
 13
8.567801719121863
 23
13.81134796311898
 33
0.0
 14
9.094973719121862
 24
13.32022296311898
 34
0.0
 50
90.0
100
AcDbRotatedDimension
  0
DIMENSION
  5
B11
330
1E
100
AcDbEntity
  8
DIM
100
AcDbDimension
  2
*D32
 10
7.624194719121863
 20
13.32022296311898
 30
0.0
 11
7.624194719121861
 21
11.77178546311898
 31
0.0
 70
    32
  1
3.070
 71
     5
 42
3.096874999999998
  3
23NSTD
100
AcDbAlignedDimension
 13
8.726801719121862
 23
10.22334796311898
 33
0.0
 14
8.953223719121861
 24
13.32022296311898
 34
0.0
 50
90.0
100
AcDbRotatedDimension
  0
DIMENSION
  5
B1F
330
1E
100
AcDbEntity
  8
DIM
100
AcDbDimension
  2
*D33
 10
7.624194719121863
 20
6.625472963118987
 30
0.0
 11
7.624194719121862
 21
8.173910463118989
 31
0.0
 70
    32
  1
3.070
 71
     5
 42
3.096874999999998
  3
23NSTD
100
AcDbAlignedDimension
 13
8.726801719121862
 23
9.722347963118986
 33
0.0
 14
8.953223719121861
 24
6.625472963118987
 34
0.0
 50
90.0
100
AcDbRotatedDimension
  0
DIMENSION
  5
B2D
330
1E
100
AcDbEntity
  8
DIM
100
AcDbDimension
  2
*D34
 10
7.625258719121863
 20
6.625472963118987
 30
0.0
 11
7.625258719121861
 21
6.379910463118988
 31
0.0
 70
    32
  1
0.512
 71
     5
 42
0.4911250000000003
  3
23NSTDI
100
AcDbAlignedDimension
 13
8.567801719121863
 23
6.134347963118987
 33
0.0
 14
9.094973719121862
 24
6.625472963118987
 34
0.0
 50
90.0
100
AcDbRotatedDimension
  0
DIMENSION
  5
B3B
330
1E
100
AcDbEntity
  8
DIM
100
AcDbDimension
  2
*D35
 10
7.625258719121863
 20
10.22334796311898
 30
0.0
 11
7.625258719121861
 21
9.972847963118988
 31
0.0
 70
    32
  1
0.551
 71
     5
 42
0.5010000000000013
  3
23NSTDI
100
AcDbAlignedDimension
 13
7.414944719121863
 23
9.722347963118986
 33
0.0
 14
7.414944719121863
 24
10.22334796311898
 34
0.0
 50
90.0
100
AcDbRotatedDimension
  0
DIMENSION
  5
B49
330
1E
100
AcDbEntity
  8
DIM
100
AcDbDimension
  2
*D36
 10
15.06108971912186
 20
6.134347963118986
 30
0.0
 11
15.06108971912186
 21
9.972847963118988
 31
0.0
 70
    32
 71
     5
 42
7.676999999999998
  3
23NSTD
100
AcDbAlignedDimension
 13
11.56280171912186
 23
13.81134796311898
 33
0.0
 14
11.56280171912186
 24
6.134347963118987
 34
0.0
 50
90.0
100
AcDbRotatedDimension
  0
DIMENSION
  5
B57
330
1E
100
AcDbEntity
  8
DIM
100
AcDbDimension
  2
*D37
 10
9.344801719121862
 20
4.136133963118988
 30
0.0
 11
10.06530171912186
 21
4.136133963118988
 31
0.0
 70
    32
  1
1.456
 71
     5
 42
1.441
  3
23NSTDI
100
AcDbAlignedDimension
 13
10.78580171912186
 23
6.384746963118987
 33
0.0
 14
9.344801719121862
 24
6.384746963118987
 34
0.0
100
AcDbRotatedDimension
  0
DIMENSION
  5
B65
330
1E
100
AcDbEntity
  8
DIM
100
AcDbDimension
  2
*D38
 10
8.490801719121861
 20
4.838633963118987
 30
0.0
 11
6.936114219121861
 21
4.838633963118987
 31
0.0
 70
    32
  1
1.693
 71
     5
 42
0.8540000000000009
  3
23NSTD
100
AcDbAlignedDimension
 13
9.344801719121862
 23
6.242996963118987
 33
0.0
 14
8.490801719121861
 24
6.353097963118987
 34
0.0
100
AcDbRotatedDimension
  0
DIMENSION
  5
B73
330
1E
100
AcDbEntity
  8
DIM
100
AcDbDimension
  2
*D39
 10
11.63980171912186
 20
4.606133963118987
 30
0.0
 11
13.19448921912186
 21
4.606133963118987
 31
0.0
 70
    32
  1
1.693
 71
     5
 42
0.8539999999999992
  3
23NSTD
100
AcDbAlignedDimension
 13
10.78580171912186
 23
6.242996963118987
 33
0.0
 14
11.63980171912186
 24
6.353097963118987
 34
0.0
100
AcDbRotatedDimension
  0
DIMENSION
  5
B81
330
1E
100
AcDbEntity
  8
DIM
100
AcDbDimension
  2
*D40
 10
8.490801719121861
 20
3.433633963118987
 30
0.0
 11
6.955645469121861
 21
3.433633963118987
 31
0.0
 70
    32
  1
0.137
 71
     5
 42
0.1180000000000021
  3
23NSTD
100
AcDbAlignedDimension
 13
8.608801719121863
 23
6.725472963118987
 33
0.0
 14
8.490801719121861
 24
6.353097963118987
 34
0.0
100
AcDbRotatedDimension
  0
DIMENSION
  5
B8F
330
1E
100
AcDbEntity
  8
DIM
100
AcDbDimension
  2
*D41
 10
11.52180171912186
 20
3.433633963118987
 30
0.0
 11
10.06530171912186
 21
3.433633963118987
 31
0.0
 70
    32
  1
2.874
 71
     5
 42
2.912999999999998
  3
23NSTD
100
AcDbAlignedDimension
 13
8.608801719121863
 23
6.725472963118987
 33
0.0
 14
11.52180171912186
 24
6.725472963118987
 34
0.0
100
AcDbRotatedDimension
  0
DIMENSION
  5
B9D
330
1E
100
AcDbEntity
  8
DIM
100
AcDbDimension
  2
*D42
 10
11.63980171912186
 20
3.433633963118987
 30
0.0
 11
13.17495796912186
 21
3.433633963118987
 31
0.0
 70
    32
  1
0.137
 71
     5
 42
0.1180000000000003
  3
23NSTD
100
AcDbAlignedDimension
 13
11.52180171912186
 23
6.725472963118987
 33
0.0
 14
11.63980171912186
 24
6.353097963118987
 34
0.0
100
AcDbRotatedDimension
  0
DIMENSION
  5
BAB
330
1E
100
AcDbEntity
  8
DIM
100
AcDbDimension
  2
*D43
 10
18.77035271912186
 20
11.55150372638745
 30
0.0
 11
20.28597771912186
 21
11.55150372638745
 31
0.0
 70
   160
 71
     5
 42
0.120000000000001
  3
23NSTD
100
AcDbAlignedDimension
 13
18.65035271912186
 23
11.39400372638746
 33
0.0
 14
18.77035271912186
 24
11.39400372638746
 34
0.0
100
AcDbRotatedDimension
  0
DIMENSION
  5
BB9
330
1E
100
AcDbEntity
  8
DIM
100
AcDbDimension
  2
*D44
 10
18.77035271912186
 20
8.700813667467912
 30
0.0
 11
20.30550896912186
 21
8.700813667467912
 31
0.0
 70
   160
 71
     5
 42
0.3160000000000025
  3
23NSTD
100
AcDbAlignedDimension
 13
18.45435271912186
 23
9.324347963118986
 33
0.0
 14
18.77035271912186
 24
9.311351847572312
 34
0.0
100
AcDbRotatedDimension
  0
DIMENSION
  5
BC7
330
1E
100
AcDbEntity
  8
DIM
100
AcDbDimension
  2
*D45
 10
11.63980171912186
 20
2.731133963118987
 30
0.0
 11
10.06530171912186
 21
2.731133963118987
 31
0.0
 70
    32
 71
     5
 42
3.149
  3
23NSTD
100
AcDbAlignedDimension
 13
8.490801719121861
 23
6.211347963118987
 33
0.0
 14
11.63980171912186
 24
6.211347963118987
 34
0.0
100
AcDbRotatedDimension
  0
LINE
  5
BE1
330
1E
100
AcDbEntity
  8
OBJECT
100
AcDbLine
 10
39.37073943170231
 20
13.73757096311899
 30
0.0
 11
39.37073943170231
 21
6.185570963118987
 31
0.0
  0
LINE
  5
BE2
330
1E
100
AcDbEntity
  8
OBJECT
100
AcDbLine
 10
37.63873943170231
 20
13.80007096311898
 30
0.0
 11
39.30823943170231
 21
13.80007096311898
 31
0.0
  0
LINE
  5
BE3
330
1E
100
AcDbEntity
  8
OBJECT
100
AcDbLine
 10
37.59873943170231
 20
13.78007096311898
 30
0.0
 11
37.63873943170231
 21
13.78007096311898
 31
0.0
  0
ARC
  5
BE4
330
1E
100
AcDbEntity
  8
OBJECT
100
AcDbCircle
 10
39.30823943170231
 20
13.73757096311899
 30
0.0
 40
0.0625
100
AcDbArc
 50
0.0
 51
90.0
  0
LINE
  5
BE5
330
1E
100
AcDbEntity
  8
OBJECT
100
AcDbLine
 10
39.30823943170231
 20
6.123070963118987
 30
0.0
 11
37.63873943170231
 21
6.123070963118987
 31
0.0
  0
LINE
  5
BE6
330
1E
100
AcDbEntity
  8
OBJECT
100
AcDbLine
 10
37.59873943170231
 20
6.143070963118987
 30
0.0
 11
37.63873943170231
 21
6.143070963118987
 31
0.0
  0
LINE
  5
BE7
330
1E
100
AcDbEntity
  8
OBJECT
100
AcDbLine
 10
37.63873943170231
 20
13.80007096311898
 30
0.0
 11
37.63873943170231
 21
6.123070963118987
 31
0.0
  0
ARC
  5
BE8
330
1E
100
AcDbEntity
  8
OBJECT
100
AcDbCircle
 10
39.30823943170231
 20
6.185570963118987
 30
0.0
 40
0.0625
100
AcDbArc
 50
270.0
 51
0.0
  0
LINE
  5
BE9
330
1E
100
AcDbEntity
  8
OBJECT
100
AcDbLine
 10
37.59873943170231
 20
13.80007096311898
 30
0.0
 11
37.59873943170231
 21
6.123070963118987
 31
0.0
  0
LINE
  5
BEA
330
1E
100
AcDbEntity
  8
OBJECT
100
AcDbLine
 10
37.20573943170231
 20
13.73757096311899
 30
0.0
 11
37.20573943170231
 21
6.185570963118987
 31
0.0
  0
ARC
  5
BEB
330
1E
100
AcDbEntity
  8
OBJECT
100
AcDbCircle
 10
37.26823943170231
 20
13.73757096311899
 30
0.0
 40
0.0625
100
AcDbArc
 50
90.0
 51
180.0
  0
LINE
  5
BEC
330
1E
100
AcDbEntity
  8
OBJECT
100
AcDbLine
 10
37.59873943170231
 20
13.80007096311898
 30
0.0
 11
37.26823943170231
 21
13.80007096311898
 31
0.0
  0
ARC
  5
BED
330
1E
100
AcDbEntity
  8
OBJECT
100
AcDbCircle
 10
37.26823943170231
 20
6.185570963118987
 30
0.0
 40
0.0625
100
AcDbArc
 50
180.0
 51
270.0
  0
LINE
  5
BEE
330
1E
100
AcDbEntity
  8
OBJECT
100
AcDbLine
 10
37.59873943170231
 20
6.123070963118987
 30
0.0
 11
37.26823943170231
 21
6.123070963118987
 31
0.0
  0
DIMENSION
  5
BF5
330
1E
100
AcDbEntity
  8
DIM
100
AcDbDimension
  2
*D46
 10
37.20573943170231
 20
15.06185696311898
 30
0.0
 11
35.63152068170231
 21
15.06185696311898
 31
0.0
 70
    32
 71
     5
 42
0.3930000000000007
  3
23NSTD
100
AcDbAlignedDimension
 13
37.59873943170231
 23
13.80007096311898
 33
0.0
 14
37.20573943170231
 24
13.73757096311899
 34
0.0
100
AcDbRotatedDimension
  0
DIMENSION
  5
C03
330
1E
100
AcDbEntity
  8
DIM
100
AcDbDimension
  2
*D47
 10
39.37073943170231
 20
15.76435696311898
 30
0.0
 11
38.28823943170231
 21
15.76435696311898
 31
0.0
 70
    32
 71
     5
 42
2.165000000000006
  3
23NSTDI
100
AcDbAlignedDimension
 13
37.20573943170231
 23
13.73757096311899
 33
0.0
 14
39.37073943170231
 24
13.73757096311899
 34
0.0
100
AcDbRotatedDimension
  0
LINE
  5
C15
102
{ACAD_REACTORS
330
198D
102
}
330
1E
100
AcDbEntity
  8
OBJECT
100
AcDbLine
 10
33.16786243170231
 20
6.196847963118987
 30
0.0
 11
33.16786243170231
 21
13.74884796311898
 31
0.0
  0
LINE
  5
C16
102
{ACAD_REACTORS
330
198D
102
}
330
1E
100
AcDbEntity
  8
OBJECT
100
AcDbLine
 10
32.77486243170232
 20
6.134347963118987
 30
0.0
 11
33.10536243170231
 21
6.134347963118987
 31
0.0
  0
LINE
  5
C17
102
{ACAD_REACTORS
330
193E
330
1943
330
1949
330
194E
330
198D
102
}
330
1E
100
AcDbEntity
  8
OBJECT
100
AcDbLine
 10
32.77486243170232
 20
6.134347963118987
 30
0.0
 11
32.77486243170232
 21
13.81134796311898
 31
0.0
  0
ARC
  5
C18
102
{ACAD_REACTORS
330
198D
102
}
330
1E
100
AcDbEntity
  8
OBJECT
100
AcDbCircle
 10
33.10536243170231
 20
6.196847963118987
 30
0.0
 40
0.0625
100
AcDbArc
 50
270.0
 51
0.0
  0
LINE
  5
C19
102
{ACAD_REACTORS
330
198D
102
}
330
1E
100
AcDbEntity
  8
OBJECT
100
AcDbLine
 10
33.04786243170231
 20
6.687472963118986
 30
0.0
 11
32.77486243170232
 21
6.687472963118986
 31
0.0
  0
LINE
  5
C1A
102
{ACAD_REACTORS
330
198D
102
}
330
1E
100
AcDbEntity
  8
OBJECT
100
AcDbLine
 10
32.77486243170232
 20
10.28534796311898
 30
0.0
 11
33.04786243170231
 21
10.28534796311898
 31
0.0
  0
LINE
  5
C1B
102
{ACAD_REACTORS
330
198D
102
}
330
1E
100
AcDbEntity
  8
OBJECT
100
AcDbLine
 10
32.77486243170232
 20
9.661347963118986
 30
0.0
 11
33.04786243170231
 21
9.661347963118986
 31
0.0
  0
LINE
  5
C1C
102
{ACAD_REACTORS
330
198D
102
}
330
1E
100
AcDbEntity
  8
OBJECT
100
AcDbLine
 10
32.77486243170232
 20
6.465035963118987
 30
0.0
 11
33.06786243170231
 21
6.465035963118987
 31
0.0
  0
LINE
  5
C1D
102
{ACAD_REACTORS
330
198D
102
}
330
1E
100
AcDbEntity
  8
OBJECT
100
AcDbLine
 10
32.77486243170232
 20
6.293160963118987
 30
0.0
 11
33.06786243170231
 21
6.293160963118987
 31
0.0
  0
LINE
  5
C1E
102
{ACAD_REACTORS
330
198D
102
}
330
1E
100
AcDbEntity
  8
OBJECT
100
AcDbLine
 10
33.12786243170231
 20
6.222847963118987
 30
0.0
 11
33.16786243170231
 21
6.222847963118987
 31
0.0
  0
LINE
  5
C1F
102
{ACAD_REACTORS
330
198D
102
}
330
1E
100
AcDbEntity
  8
OBJECT
100
AcDbLine
 10
33.12786243170231
 20
6.535347963118987
 30
0.0
 11
33.16786243170231
 21
6.535347963118987
 31
0.0
  0
LINE
  5
C20
330
1E
100
AcDbEntity
  8
OBJECT
100
AcDbLine
 10
33.06786243170231
 20
6.293160963118987
 30
0.0
 11
33.06786243170231
 21
6.465035963118987
 31
0.0
  0
LINE
  5
C21
330
1E
100
AcDbEntity
  8
OBJECT
100
AcDbLine
 10
33.12786243170231
 20
6.222847963118987
 30
0.0
 11
33.12786243170231
 21
6.535347963118987
 31
0.0
  0
LINE
  5
C22
102
{ACAD_REACTORS
330
198D
102
}
330
1E
100
AcDbEntity
  8
OBJECT
100
AcDbLine
 10
33.06786243170231
 20
6.465035963118987
 30
0.0
 11
33.12786243170231
 21
6.535347963118987
 31
0.0
  0
LINE
  5
C23
102
{ACAD_REACTORS
330
198D
102
}
330
1E
100
AcDbEntity
  8
OBJECT
100
AcDbLine
 10
33.06786243170231
 20
6.293160963118987
 30
0.0
 11
33.12786243170231
 21
6.222847963118987
 31
0.0
  0
LINE
  5
C24
330
1E
100
AcDbEntity
  8
OBJECT
100
AcDbLine
 10
32.93260243170232
 20
6.465035963118987
 30
0.0
 11
32.92377843170231
 21
6.293160963118987
 31
0.0
  0
LINE
  5
C25
330
1E
100
AcDbEntity
  8
OBJECT
100
AcDbLine
 10
32.90260843170232
 20
6.465035963118987
 30
0.0
 11
32.89378443170231
 21
6.293160963118987
 31
0.0
  0
ARC
  5
C26
102
{ACAD_REACTORS
330
198D
102
}
330
1E
100
AcDbEntity
  8
OBJECT
100
AcDbCircle
 10
33.10536243170231
 20
13.74884796311898
 30
0.0
 40
0.0625
100
AcDbArc
 50
0.0
 51
90.0
  0
LINE
  5
C27
102
{ACAD_REACTORS
330
198D
102
}
330
1E
100
AcDbEntity
  8
OBJECT
100
AcDbLine
 10
32.77486243170232
 20
13.81134796311898
 30
0.0
 11
33.10536243170231
 21
13.81134796311898
 31
0.0
  0
LINE
  5
C28
330
1E
100
AcDbEntity
  8
OBJECT
100
AcDbLine
 10
32.90260843170232
 20
10.05928596311898
 30
0.0
 11
32.89378443170231
 21
9.887410963118988
 31
0.0
  0
LINE
  5
C29
330
1E
100
AcDbEntity
  8
OBJECT
100
AcDbLine
 10
32.93260243170232
 20
10.05928596311898
 30
0.0
 11
32.92377843170231
 21
9.887410963118988
 31
0.0
  0
LINE
  5
C2A
102
{ACAD_REACTORS
330
198D
102
}
330
1E
100
AcDbEntity
  8
OBJECT
100
AcDbLine
 10
33.06786243170231
 20
9.887410963118988
 30
0.0
 11
33.12786243170231
 21
9.817097963118987
 31
0.0
  0
LINE
  5
C2B
102
{ACAD_REACTORS
330
198D
102
}
330
1E
100
AcDbEntity
  8
OBJECT
100
AcDbLine
 10
33.06786243170231
 20
10.05928596311898
 30
0.0
 11
33.12786243170231
 21
10.12959796311898
 31
0.0
  0
LINE
  5
C2C
330
1E
100
AcDbEntity
  8
OBJECT
100
AcDbLine
 10
33.12786243170231
 20
9.817097963118987
 30
0.0
 11
33.12786243170231
 21
10.12959796311898
 31
0.0
  0
LINE
  5
C2D
330
1E
100
AcDbEntity
  8
OBJECT
100
AcDbLine
 10
33.06786243170231
 20
9.887410963118988
 30
0.0
 11
33.06786243170231
 21
10.05928596311898
 31
0.0
  0
LINE
  5
C2E
102
{ACAD_REACTORS
330
198D
102
}
330
1E
100
AcDbEntity
  8
OBJECT
100
AcDbLine
 10
33.12786243170231
 20
10.12959796311898
 30
0.0
 11
33.16786243170231
 21
10.12959796311898
 31
0.0
  0
LINE
  5
C2F
102
{ACAD_REACTORS
330
198D
102
}
330
1E
100
AcDbEntity
  8
OBJECT
100
AcDbLine
 10
33.12786243170231
 20
9.817097963118987
 30
0.0
 11
33.16786243170231
 21
9.817097963118987
 31
0.0
  0
LINE
  5
C30
102
{ACAD_REACTORS
330
198D
102
}
330
1E
100
AcDbEntity
  8
OBJECT
100
AcDbLine
 10
32.77486243170232
 20
9.887410963118988
 30
0.0
 11
33.06786243170231
 21
9.887410963118988
 31
0.0
  0
LINE
  5
C31
102
{ACAD_REACTORS
330
198D
102
}
330
1E
100
AcDbEntity
  8
OBJECT
100
AcDbLine
 10
32.77486243170232
 20
10.05928596311898
 30
0.0
 11
33.06786243170231
 21
10.05928596311898
 31
0.0
  0
LINE
  5
C32
102
{ACAD_REACTORS
330
198D
102
}
330
1E
100
AcDbEntity
  8
OBJECT
100
AcDbLine
 10
32.77486243170232
 20
13.63134796311898
 30
0.0
 11
33.04786243170231
 21
13.63134796311898
 31
0.0
  0
DIMENSION
  5
C33
330
1E
100
AcDbEntity
  8
DIM
100
AcDbDimension
  2
*D48
 10
33.04786243170231
 20
11.86295796311898
 30
0.0
 11
31.53223743170231
 21
11.86295796311898
 31
0.0
 70
    32
  1
0.120
 71
     5
 42
0.1200000000000045
  3
23NSTD
100
AcDbAlignedDimension
 13
33.16786243170231
 23
12.02045796311898
 33
0.0
 14
33.04786243170231
 24
12.02045796311898
 34
0.0
100
AcDbRotatedDimension
  0
DIMENSION
  5
C41
330
1E
100
AcDbEntity
  8
DIM
100
AcDbDimension
  2
*D49
 10
32.77486243170232
 20
14.35935696311898
 30
0.0
 11
31.20064368170231
 21
14.35935696311898
 31
0.0
 70
    32
 71
     5
 42
0.3930000000000007
  3
23NSTD
100
AcDbAlignedDimension
 13
33.16786243170231
 23
13.74884796311898
 33
0.0
 14
32.77486243170232
 24
13.81134796311898
 34
0.0
100
AcDbRotatedDimension
  0
TEXT
  5
C4F
330
1E
100
AcDbEntity
  8
TEXT
100
AcDbText
 10
31.40913643170231
 20
4.624600963118986
 30
0.0
 40
0.3125
  1
%%USECTION "B-B"
 41
0.8
  7
SECTION
100
AcDbText
  0
CIRCLE
  5
C50
102
{ACAD_REACTORS
330
198D
102
}
330
1E
100
AcDbEntity
  8
BEND
100
AcDbCircle
 10
32.86663243170231
 20
6.417430963118988
 30
0.0
 40
0.6861100000000001
  0
LINE
  5
C51
102
{ACAD_REACTORS
330
198D
102
}
330
1E
100
AcDbEntity
  8
OBJECT
100
AcDbLine
 10
33.04786243170231
 20
6.687472963118986
 30
0.0
 11
33.04786243170231
 21
9.661347963118986
 31
0.0
  0
LINE
  5
C52
102
{ACAD_REACTORS
330
198D
102
}
330
1E
100
AcDbEntity
  8
OBJECT
100
AcDbLine
 10
33.04786243170231
 20
10.28534796311898
 30
0.0
 11
33.04786243170231
 21
13.63134796311898
 31
0.0
  0
TEXT
  5
C53
330
1E
100
AcDbEntity
  8
TEXT
100
AcDbText
 10
30.65845853608415
 20
17.89399147870957
 30
0.0
 40
0.3125
  1
%%UDETAIL "C"
 41
0.8
  7
SECTION
100
AcDbText
  0
LINE
  5
D22
330
1E
100
AcDbEntity
  8
TITLE
100
AcDbLine
 10
36.34500300000003
 20
2.754998000000003
 30
0.0
 11
36.34500300000003
 21
0.1550000000000029
 31
0.0
  0
LINE
  5
D23
330
1E
100
AcDbEntity
  8
TITLE
100
AcDbLine
 10
31.34500600000003
 20
2.754998000000003
 30
0.0
 11
31.34500600000003
 21
0.1550000000000029
 31
0.0
  0
LINE
  5
D24
330
1E
100
AcDbEntity
  8
TITLE
100
AcDbLine
 10
26.34501000000003
 20
2.754998000000003
 30
0.0
 11
26.34501000000003
 21
0.1550000000000029
 31
0.0
  0
LINE
  5
D25
330
1E
100
AcDbEntity
  8
TITLE
100
AcDbLine
 10
21.34501300000003
 20
2.754998000000003
 30
0.0
 11
21.34501300000003
 21
0.1550000000000029
 31
0.0
  0
LINE
  5
D26
330
1E
100
AcDbEntity
  8
TITLE
100
AcDbLine
 10
33.84500500000003
 20
1.194999000000003
 30
0.0
 11
33.84500500000003
 21
0.6749990000000033
 31
0.0
  0
LINE
  5
D28
330
1E
100
AcDbEntity
  8
TITLE
100
AcDbLine
 10
21.34501300000003
 20
0.6749990000000033
 30
0.0
 11
36.34500300000003
 21
0.6749990000000033
 31
0.0
  0
LINE
  5
D29
330
1E
100
AcDbEntity
  8
TITLE
100
AcDbLine
 10
21.34501300000003
 20
1.194999000000003
 30
0.0
 11
36.34500300000003
 21
1.194999000000003
 31
0.0
  0
LINE
  5
D2A
330
1E
100
AcDbEntity
  8
TITLE
100
AcDbLine
 10
21.34501300000003
 20
1.714999000000003
 30
0.0
 11
41.34500000000002
 21
1.714999000000003
 31
0.0
  0
LINE
  5
D2B
330
1E
100
AcDbEntity
  8
TITLE
100
AcDbLine
 10
21.34501300000003
 20
2.754998000000003
 30
0.0
 11
41.34500000000002
 21
2.754998000000003
 31
0.0
  0
TEXT
  5
D2C
330
1E
100
AcDbEntity
  8
TEXT
100
AcDbText
 10
22.59501100000002
 20
2.078748000000003
 30
0.0
 40
0.3125
  1
PART NUMBER
 41
0.75
 72
     4
 11
23.84501100000002
 21
2.234998000000003
 31
0.0
100
AcDbText
  0
TEXT
  5
D2E
330
1E
100
AcDbEntity
  8
TEXT
100
AcDbText
 10
23.10282350000002
 20
1.297082000000002
 30
0.0
 40
0.3125
  1
PN-1326
 41
0.75
 72
     4
 11
23.84501100000002
 21
1.453332000000002
 31
0.0
100
AcDbText
  0
TEXT
  5
D2F
330
1E
100
AcDbEntity
  8
TEXT
100
AcDbText
 10
22.86844850000002
 20
0.7762490000000031
 30
0.0
 40
0.3125
  1
PN-1326-C
 41
0.75
 72
     4
 11
23.84501100000002
 21
0.9324990000000031
 31
0.0
100
AcDbText
  0
TEXT
  5
D30
330
1E
100
AcDbEntity
  8
TEXT
100
AcDbText
 10
22.75126100000002
 20
0.255416000000003
 30
0.0
 40
0.3125
  1
PN-1326-DG
 41
0.75
 72
     4
 11
23.84501100000002
 21
0.411666000000003
 31
0.0
100
AcDbText
  0
TEXT
  5
D31
330
1E
100
AcDbEntity
  8
TEXT
100
AcDbText
 10
37.47781450000003
 20
2.078748000000003
 30
0.0
 40
0.3125
  1
HARDWARE KIT
 41
0.75
 72
     4
 11
38.84500200000003
 21
2.234998000000003
 31
0.0
100
AcDbText
  0
TEXT
  5
D33
330
1E
100
AcDbEntity
  8
TEXT
100
AcDbText
 10
27.98563300000003
 20
2.338748000000002
 30
0.0
 40
0.3125
  1
MATERIAL
 41
0.75
 72
     4
 11
28.84500800000003
 21
2.494998000000002
 31
0.0
100
AcDbText
  0
TEXT
  5
D34
330
1E
100
AcDbEntity
  8
TEXT
100
AcDbText
 10
33.25906750000003
 20
2.338748000000002
 30
0.0
 40
0.3125
  1
FINISH
 41
0.75
 72
     4
 11
33.84500500000003
 21
2.494998000000002
 31
0.0
100
AcDbText
  0
TEXT
  5
D35
330
1E
100
AcDbEntity
  8
TEXT
100
AcDbText
 10
32.16531850000002
 20
1.818749000000003
 30
0.0
 40
0.3125
  1
BODY
 41
0.75
 72
     4
 11
32.59500600000002
 21
1.974999000000003
 31
0.0
100
AcDbText
  0
TEXT
  5
D36
330
1E
100
AcDbEntity
  8
TEXT
100
AcDbText
 10
27.36063300000003
 20
1.297916000000003
 30
0.0
 40
0.3125
  1
POLYCARBONATE
 41
0.75
 72
     4
 11
28.84500800000003
 21
1.454166000000003
 31
0.0
100
AcDbText
  0
TEXT
  5
D37
330
1E
100
AcDbEntity
  8
TEXT
100
AcDbText
 10
27.36063300000003
 20
0.7770830000000031
 30
0.0
 40
0.3125
  1
POLYCARBONATE
 41
0.75
 72
     4
 11
28.84500800000003
 21
0.933333000000003
 31
0.0
100
AcDbText
  0
TEXT
  5
D38
330
1E
100
AcDbEntity
  8
TEXT
100
AcDbText
 10
27.20438300000003
 20
0.2562500000000032
 30
0.0
 40
0.3125
  1
HIGH-IMPACT ABS
 41
0.75
 72
     4
 11
28.84500800000003
 21
0.4125000000000032
 31
0.0
100
AcDbText
  0
TEXT
  5
D39
330
1E
100
AcDbEntity
  8
TEXT
100
AcDbText
 10
34.50906650000002
 20
1.818749000000003
 30
0.0
 40
0.3125
  1
COVER
 41
0.75
 72
     4
 11
35.09500400000002
 21
1.974999000000003
 31
0.0
100
AcDbText
  0
TEXT
  5
D3A
330
1E
100
AcDbEntity
  8
TEXT
100
AcDbText
 10
29.50906950000003
 20
1.818749000000003
 30
0.0
 40
0.3125
  1
COVER
 41
0.75
 72
     4
 11
30.09500700000003
 21
1.974999000000003
 31
0.0
100
AcDbText
  0
TEXT
  5
D3B
330
1E
100
AcDbEntity
  8
TEXT
100
AcDbText
 10
27.16532150000003
 20
1.818749000000003
 30
0.0
 40
0.3125
  1
BODY
 41
0.75
 72
     4
 11
27.59500900000003
 21
1.974999000000003
 31
0.0
100
AcDbText
  0
TEXT
  5
D3C
330
1E
100
AcDbEntity
  8
TEXT
100
AcDbText
 10
32.75125500000003
 20
1.297916000000003
 30
0.0
 40
0.3125
  1
LIGHT GRAY
 41
0.75
 72
     4
 11
33.84500500000003
 21
1.454166000000003
 31
0.0
100
AcDbText
  0
TEXT
  5
D3D
330
1E
100
AcDbEntity
  8
TEXT
100
AcDbText
 10
31.50125600000002
 20
0.7770830000000031
 30
0.0
 40
0.3125
  1
LIGHT GRAY
 41
0.75
 72
     4
 11
32.59500600000002
 21
0.933333000000003
 31
0.0
100
AcDbText
  0
TEXT
  5
D3E
330
1E
100
AcDbEntity
  8
TEXT
100
AcDbText
 10
32.82938000000003
 20
0.2562500000000033
 30
0.0
 40
0.3125
  1
DARK GRAY
 41
0.75
 72
     4
 11
33.84500500000003
 21
0.4125000000000032
 31
0.0
100
AcDbText
  0
TEXT
  5
D3F
330
1E
100
AcDbEntity
  8
TEXT
100
AcDbText
 10
34.54812900000002
 20
0.7770830000000031
 30
0.0
 40
0.3125
  1
CLEAR
 41
0.75
 72
     4
 11
35.09500400000002
 21
0.933333000000003
 31
0.0
100
AcDbText
  0
LINE
  5
D40
330
1E
100
AcDbEntity
  8
TITLE
100
AcDbLine
 10
33.84500500000003
 20
2.234998000000003
 30
0.0
 11
33.84500500000003
 21
1.714999000000003
 31
0.0
  0
LINE
  5
D41
330
1E
100
AcDbEntity
  8
TITLE
100
AcDbLine
 10
26.34501000000003
 20
2.234998000000003
 30
0.0
 11
36.34500300000003
 21
2.234998000000003
 31
0.0
  0
LINE
  5
D42
330
1E
100
AcDbEntity
  8
TITLE
100
AcDbLine
 10
28.84500800000003
 20
2.234998000000003
 30
0.0
 11
28.84500800000003
 21
1.714999000000003
 31
0.0
  0
TEXT
  5
D43
330
1E
100
AcDbEntity
  8
TEXT
100
AcDbText
 10
37.16531450000003
 20
1.297916000000003
 30
0.0
 40
0.3125
  1
KIT CONTAINS (6)
 41
0.75
 72
     4
 11
38.84500200000003
 21
1.454166000000003
 31
0.0
100
AcDbText
  0
TEXT
  5
D44
330
1E
100
AcDbEntity
  8
TEXT
100
AcDbText
 10
36.61843950000003
 20
0.7770830000000031
 30
0.0
 40
0.3125
  1
M4 x 20mm (0.787") LG.
 41
0.75
 72
     4
 11
38.84500200000003
 21
0.933333000000003
 31
0.0
100
AcDbText
  0
TEXT
  5
D45
330
1E
100
AcDbEntity
  8
TEXT
100
AcDbText
 10
36.61843950000003
 20
0.2562500000000031
 30
0.0
 40
0.3125
  1
SCREWS FOR ASSEMBLY
 41
0.75
 72
     4
 11
38.84500200000003
 21
0.4125000000000032
 31
0.0
100
AcDbText
  0
TEXT
  5
D46
330
1E
100
AcDbEntity
  8
TEXT
100
AcDbText
 10
21.34501300000003
 20
3.012498000000003
 30
0.0
 40
0.3125
  1
%%UNOTE%%U:  ALL DIMENSIONS HAVE %%P0.015 TOLERANCE UNLESS OTHERWISE SPECIFIED.
 41
0.75
100
AcDbText
  0
LWPOLYLINE
  5
D52
102
{ACAD_REACTORS
330
194E
330
198D
102
}
330
1E
100
AcDbEntity
  8
OBJECT
100
AcDbPolyline
 90
        3
 70
     0
 43
0.0
 10
32.88986243170231
 20
6.647472963118986
 10
32.88986243170231
 20
6.567472963118986
 10
32.77486243170232
 20
6.567472963118986
  0
LWPOLYLINE
  5
D57
102
{ACAD_REACTORS
330
194E
330
198D
102
}
330
1E
100
AcDbEntity
  8
OBJECT
100
AcDbPolyline
 90
        2
 70
     0
 43
0.0
 10
32.77486243170232
 20
6.647472963118986
 10
32.88986243170231
 20
6.647472963118986
  0
LWPOLYLINE
  5
D5B
102
{ACAD_REACTORS
330
1949
330
198D
102
}
330
1E
100
AcDbEntity
  8
OBJECT
100
AcDbPolyline
 90
        3
 70
     0
 43
0.0
 10
32.88986243170231
 20
13.75134796311898
 10
32.88986243170231
 20
13.67134796311898
 10
32.77486243170232
 20
13.67134796311898
  0
LWPOLYLINE
  5
D60
102
{ACAD_REACTORS
330
1949
330
198D
102
}
330
1E
100
AcDbEntity
  8
OBJECT
100
AcDbPolyline
 90
        2
 70
     0
 43
0.0
 10
32.77486243170232
 20
13.75134796311898
 10
32.88986243170231
 20
13.75134796311898
  0
LWPOLYLINE
  5
D64
102
{ACAD_REACTORS
330
1943
330
198D
102
}
330
1E
100
AcDbEntity
  8
OBJECT
100
AcDbPolyline
 90
        3
 70
     0
 43
0.0
 10
32.88986243170231
 20
10.24534796311898
 10
32.88986243170231
 20
10.16534796311898
 10
32.77486243170232
 20
10.16534796311898
  0
LWPOLYLINE
  5
D69
102
{ACAD_REACTORS
330
1943
330
198D
102
}
330
1E
100
AcDbEntity
  8
OBJECT
100
AcDbPolyline
 90
        2
 70
     0
 43
0.0
 10
32.77486243170232
 20
10.24534796311898
 10
32.88986243170231
 20
10.24534796311898
  0
LWPOLYLINE
  5
D6D
102
{ACAD_REACTORS
330
193E
330
198D
102
}
330
1E
100
AcDbEntity
  8
OBJECT
100
AcDbPolyline
 90
        3
 70
     0
 43
0.0
 10
32.88986243170231
 20
9.781347963118987
 10
32.88986243170231
 20
9.701347963118987
 10
32.77486243170232
 20
9.701347963118987
  0
LWPOLYLINE
  5
D72
102
{ACAD_REACTORS
330
193E
330
198D
102
}
330
1E
100
AcDbEntity
  8
OBJECT
100
AcDbPolyline
 90
        2
 70
     0
 43
0.0
 10
32.77486243170232
 20
9.781347963118987
 10
32.88986243170231
 20
9.781347963118987
  0
LWPOLYLINE
  5
D77
102
{ACAD_REACTORS
330
1931
102
}
330
1E
100
AcDbEntity
  8
OBJECT
100
AcDbPolyline
 90
       32
 70
     1
 43
0.0
 10
29.74514943170231
 20
9.781348963118988
 42
-0.350327
 10
29.90314943170231
 20
9.623347963118986
 10
29.90314943170231
 20
6.725472963118987
 42
-0.4142140000000001
 10
29.74514943170231
 20
6.567472963118986
 10
29.37497643170231
 20
6.567472963118986
 42
0.4033870000000001
 10
29.18310943170231
 20
6.382595963118988
 42
-0.4033870000000001
 10
28.98774343170231
 20
6.194347963118986
 10
27.78955443170231
 20
6.194347963118986
 42
-0.4033870000000001
 10
27.59418843170231
 20
6.382595963118988
 42
0.4033870000000001
 10
27.40232143170231
 20
6.567472963118986
 10
27.03214943170231
 20
6.567472963118986
 42
-0.4142140000000001
 10
26.87414943170231
 20
6.725472963118987
 10
26.87414943170231
 20
9.623348963118987
 42
-0.4142140000000001
 10
27.03214943170231
 20
9.781348963118988
 10
27.05039943170231
 20
9.781348963118988
 42
0.9973989999999998
 10
27.05039943170231
 20
10.16534696311898
 10
27.03214943170231
 20
10.16534796311898
 42
-0.4142140000000001
 10
26.87414943170231
 20
10.32334796311898
 10
26.87414943170231
 20
13.22022296311898
 42
-0.4142140000000001
 10
27.03214943170231
 20
13.37822296311898
 10
27.40232143170231
 20
13.37822296311898
 42
0.4033870000000001
 10
27.59418843170231
 20
13.56310096311898
 42
-0.4033870000000001
 10
27.78955443170231
 20
13.75134796311898
 10
28.98774343170231
 20
13.75134796311898
 42
-0.4033870000000001
 10
29.18310943170231
 20
13.56310096311898
 42
0.4033870000000001
 10
29.37497643170231
 20
13.37822296311898
 10
29.74514943170231
 20
13.37822296311898
 42
-0.4142140000000001
 10
29.90314943170231
 20
13.22022296311898
 10
29.90314943170231
 20
10.32334796311898
 42
-0.384434
 10
29.74514943170231
 20
10.16534696311898
 10
29.72689943170231
 20
10.16534696311898
 42
0.9973989999999998
 10
29.72689943170231
 20
9.781348963118988
  0
LWPOLYLINE
  5
D99
102
{ACAD_REACTORS
330
1931
102
}
330
1E
100
AcDbEntity
  8
OBJECT
100
AcDbPolyline
 90
       32
 70
     1
 43
0.0
 10
29.74002643170231
 20
9.701348963118988
 42
-0.328872
 10
29.82314943170231
 20
9.618225963118987
 10
29.82314943170231
 20
6.725472963118987
 42
-0.4142140000000001
 10
29.74514943170231
 20
6.647472963118986
 10
29.37497643170231
 20
6.647472963118986
 42
0.4033870000000001
 10
29.10316443170231
 20
6.385562963118988
 42
-0.4033870000000001
 10
28.98774343170231
 20
6.274347963118986
 10
27.78955443170231
 20
6.274347963118986
 42
-0.4033870000000001
 10
27.67413343170231
 20
6.385562963118988
 42
0.4033870000000001
 10
27.40232143170231
 20
6.647472963118986
 10
27.03214943170231
 20
6.647472963118986
 42
-0.4142140000000001
 10
26.95414943170231
 20
6.725472963118987
 10
26.95414943170231
 20
9.623348963118987
 42
-0.4142140000000001
 10
27.03215043170231
 20
9.701348963118988
 10
27.05049443170231
 20
9.701348963118988
 42
0.997812
 10
27.05049443170231
 20
10.24534696311898
 10
27.03214943170231
 20
10.24534796311898
 42
-0.4142140000000001
 10
26.95414943170231
 20
10.32334796311898
 10
26.95414943170231
 20
13.22022296311898
 42
-0.4142140000000001
 10
27.03214943170231
 20
13.29822296311898
 10
27.40232143170231
 20
13.29822296311898
 42
0.4033870000000001
 10
27.67413343170231
 20
13.56013296311898
 42
-0.4033870000000001
 10
27.78955443170231
 20
13.67134796311898
 10
28.98774343170231
 20
13.67134796311898
 42
-0.4033870000000001
 10
29.10316443170231
 20
13.56013296311898
 42
0.4033870000000001
 10
29.37497643170231
 20
13.29822296311898
 10
29.74514943170231
 20
13.29822296311898
 42
-0.4142140000000001
 10
29.82314943170231
 20
13.22022296311898
 10
29.82314943170231
 20
10.32573596311898
 42
-0.373085
 10
29.74276043170231
 20
10.24534696311898
 10
29.72680343170231
 20
10.24534696311898
 42
0.9978139999999999
 10
29.72680343170231
 20
9.701348963118988
  0
TEXT
  5
DBD
330
1E
100
AcDbEntity
  8
TEXT
100
AcDbText
 10
0.6695020000000001
 20
23.22737599999999
 30
0.0
 40
0.3125
  1
 %%UPOLYCARBONATE%%U (LIGHT GRAY AND CLEAR)
 41
0.75
100
AcDbText
  0
TEXT
  5
DBE
330
1E
100
AcDbEntity
  8
TEXT
100
AcDbText
 10
0.6695020000000001
 20
20.62354399999999
 30
0.0
 40
0.3125
  1
 %%UABS%%U (DARK GRAY)
 41
0.75
100
AcDbText
  0
TEXT
  5
DBF
330
1E
100
AcDbEntity
  8
TEXT
100
AcDbText
 10
0.6695020000000001
 20
19.582045
 30
0.0
 40
0.3125
  1
  SERVICE TEMPERATURE RANGE:  -40%%DC TO +80%%DC
 41
0.75
100
AcDbText
  0
TEXT
  5
DC0
330
1E
100
AcDbEntity
  8
TEXT
100
AcDbText
 10
0.6695020000000001
 20
20.102711
 30
0.0
 40
0.3125
  1
  UL94-HB FLAMMABILITY RATING (UL FILE #E56070)
 41
0.75
100
AcDbText
  0
TEXT
  5
DC1
330
1E
100
AcDbEntity
  8
TEXT
100
AcDbText
 10
0.6695020000000001
 20
23.748209
 30
0.0
 40
0.390625
  1
INDUSTRY STANDARDS:
 41
0.75
100
AcDbText
  0
TEXT
  5
DC2
330
1E
100
AcDbEntity
  8
TEXT
100
AcDbText
 10
0.6695020000000001
 20
21.665043
 30
0.0
 40
0.3125
  1
  SERVICE TEMPERATURE RANGE:  -40%%DC TO +120%%DC
 41
0.75
100
AcDbText
  0
TEXT
  5
DC3
330
1E
100
AcDbEntity
  8
TEXT
100
AcDbText
 10
0.6695020000000001
 20
22.185876
 30
0.0
 40
0.3125
  1
  UV STABILIZED
 41
0.75
100
AcDbText
  0
TEXT
  5
DC4
330
1E
100
AcDbEntity
  8
TEXT
100
AcDbText
 10
0.6695020000000001
 20
22.70654299999999
 30
0.0
 40
0.3125
  1
  UL94-HB FLAMMABILITY RATING (UL FILE #E41613)
 41
0.75
100
AcDbText
  0
INSERT
  5
1406
330
1E
100
AcDbEntity
  8
OBJECT
100
AcDbBlockReference
  2
HBS
 10
0.0
 20
0.0
 30
0.0
 41
2.5
 42
2.5
 43
2.5
  0
TEXT
  5
1407
330
1E
100
AcDbEntity
  8
TEXT
100
AcDbText
 10
7.323593750000014
 20
24.9471875
 30
0.0
 40
0.390625
  1
NEMA 4X ENCLOSURE
 41
0.75
 72
     4
 11
9.765000000000014
 21
25.1425
 31
0.0
100
AcDbText
  0
TEXT
  5
1408
330
1E
100
AcDbEntity
  8
TEXT
100
AcDbText
 10
22.69955922881251
 20
24.97973958333334
 30
0.0
 40
0.390625
  1
PN-1326, PN-1326-C AND PN-1326-DG
 41
0.75
 72
     4
 11
27.26498891631251
 21
25.1425
 31
0.0
100
AcDbText
  0
TEXT
  5
1409
330
1E
100
AcDbEntity
  8
TEXT
100
AcDbText
 10
38.23534047881253
 20
24.94718750000001
 30
0.0
 40
0.390625
  1
11-17-08
 41
0.75
 72
     4
 11
39.18748891631253
 21
25.14250000000001
 31
0.0
100
AcDbText
  0
SPLINE
  5
15EC
102
{ACAD_REACTORS
330
15ED
102
}
330
1E
100
AcDbEntity
  8
OBJECT
100
AcDbSpline
210
0.0
220
0.0
230
1.0
 70
     8
 71
     3
 72
    13
 73
     9
 74
     0
 42
0.0000000001
 43
0.0000000001
 40
0.4093715566903008
 40
0.4093715566903008
 40
0.4093715566903008
 40
0.4093715566903008
 40
0.6286242034890427
 40
0.9973965047472614
 40
1.332045629491351
 40
1.698305562368329
 40
2.010434675026586
 40
2.201246091048794
 40
2.201246091048794
 40
2.201246091048794
 40
2.201246091048794
 10
31.01772518222547
 20
22.80045452390881
 30
0.0
 10
31.07644636880646
 20
22.7494908372125
 30
0.0
 10
31.23096903673283
 20
22.54854580179161
 30
0.0
 10
31.52331588985795
 20
23.00594608579089
 30
0.0
 10
31.80990677135557
 20
22.4997763315403
 30
0.0
 10
32.13894371179682
 20
22.95118761981369
 30
0.0
 10
32.37353805535201
 20
22.60868073974241
 30
0.0
 10
32.53216828565015
 20
22.64628279423742
 30
0.0
 10
32.59372518222546
 20
22.67470222000623
 30
0.0
  0
HATCH
  5
15ED
330
1E
100
AcDbEntity
  8
OBJECT
 62
   151
100
AcDbHatch
 10
0.0
 20
0.0
 30
0.0
210
0.0
220
0.0
230
1.0
  2
ANSI31
 70
     0
 71
     1
 91
        2
 92
        7
 72
     1
 73
     1
 93
        7
 10
32.34372518222547
 20
19.47087194020512
 42
0.4142135623730951
 10
32.59372518222547
 20
19.72087194020512
 42
0.0
 10
32.59372518222547
 20
19.79787194020511
 42
0.0
 10
32.11372518222547
 20
19.79787194020511
 42
0.0
 10
32.11372518222547
 20
20.07411994020512
 42
0.0
 10
31.01772518222547
 20
20.07411994020513
 42
0.0
 10
31.01772518222547
 20
19.47087194020512
 42
0.0
 97
        7
330
15F0
330
15FA
330
15FB
330
15F3
330
15F8
330
15EF
330
1602
 92
        5
 93
       12
 72
     1
 10
32.11372518222547
 20
21.03787194020513
 11
32.59372518222547
 21
21.03787194020513
 72
     1
 10
32.59372518222547
 20
21.03787194020513
 11
32.59372518222547
 21
22.67470222000624
 72
     4
 94
        3
 73
     0
 74
     0
 95
       10
 96
        6
 40
1.671453692657522
 40
1.671453692657522
 40
1.671453692657522
 40
1.671453692657522
 40
1.862265108679729
 40
2.174394221337987
 40
2.201246091048794
 40
2.201246091048794
 40
2.201246091048794
 40
2.201246091048794
 10
32.59372518222546
 20
22.67470222000623
 10
32.53216828565015
 20
22.64628279423742
 10
32.37353805535201
 20
22.60868073974241
 10
32.23054883086583
 20
22.81744448238164
 10
32.12975889371694
 20
22.80879628858838
 10
32.12172518222546
 20
22.80735353682286
 72
     1
 10
32.12172518222546
 20
22.80735353682286
 11
32.12172518222546
 21
21.68337194020512
 72
     1
 10
32.12172518222546
 20
21.68337194020512
 11
31.01772518222547
 21
21.68337194020512
 72
     1
 10
31.01772518222547
 20
21.68337194020512
 11
31.01772518222547
 21
21.52337194020511
 72
     1
 10
31.01772518222547
 20
21.52337194020511
 11
31.47772518222546
 21
21.5233719402051
 72
     1
 10
31.47772518222546
 20
21.5233719402051
 11
31.47772518222546
 21
21.20337194020512
 72
     1
 10
31.47772518222546
 20
21.20337194020512
 11
31.01772518222547
 21
21.20337194020512
 72
     1
 10
31.01772518222547
 20
21.20337194020512
 11
31.01772518222547
 21
20.76161994020512
 72
     1
 10
31.01772518222547
 20
20.76161994020512
 11
32.11372518222546
 21
20.76161994020512
 72
     1
 10
32.11372518222546
 20
20.76161994020512
 11
32.11372518222547
 21
21.03787194020513
 97
        9
330
15EC
330
15F2
330
15F3
330
1601
330
1600
330
15FC
330
15FA
330
15EE
330
1602
 75
     0
 76
     1
 52
0.0
 41
1.5
 77
     0
 78
     1
 53
45.0
 43
12.58976609282289
 44
3.656349967000384
 45
-0.1325825214724776
 46
0.1325825214724777
 79
     0
 47
0.016276767768846
 98
        2
 10
31.75326035298149
 20
19.74045464609549
 10
32.0790634442979
 20
21.25419408516569
  0
LINE
  5
15EE
102
{ACAD_REACTORS
330
15ED
102
}
330
1E
100
AcDbEntity
  8
OBJECT
100
AcDbLine
 10
32.11372518222546
 20
21.03787194020513
 30
0.0
 11
32.59372518222547
 21
21.03787194020513
 31
0.0
  0
ARC
  5
15EF
102
{ACAD_REACTORS
330
15ED
102
}
330
1E
100
AcDbEntity
  8
OBJECT
100
AcDbCircle
 10
32.34372518222547
 20
19.72087194020512
 30
0.0
 40
0.25
100
AcDbArc
 50
270.0
 51
0.0
  0
LINE
  5
15F0
102
{ACAD_REACTORS
330
15ED
102
}
330
1E
100
AcDbEntity
  8
OBJECT
100
AcDbLine
 10
32.11372518222546
 20
19.79787194020511
 30
0.0
 11
32.59372518222547
 21
19.79787194020511
 31
0.0
  0
DIMENSION
  5
15F1
330
1E
100
AcDbEntity
  8
DIM
100
AcDbDimension
  2
*D52
 10
32.11372518222546
 20
18.83440644020511
 30
0.0
 11
30.59810018222546
 21
18.83440644020511
 31
0.0
 70
    32
 71
     5
 42
0.120000000000001
  3
23NSTD4
100
AcDbAlignedDimension
 13
32.59372518222547
 23
19.72587194020512
 33
0.0
 14
32.11372518222546
 24
19.79787194020511
 34
0.0
100
AcDbRotatedDimension
  0
LWPOLYLINE
  5
15F2
102
{ACAD_REACTORS
330
15ED
102
}
330
1E
100
AcDbEntity
  8
OBJECT
100
AcDbPolyline
 90
        3
 70
     0
 43
0.0
 10
31.01772518222547
 20
21.68337194020512
 10
32.12172518222546
 20
21.68337194020512
 10
32.12172518222546
 20
22.80735353682286
  0
LINE
  5
15F3
102
{ACAD_REACTORS
330
15ED
102
}
330
1E
100
AcDbEntity
  8
OBJECT
100
AcDbLine
 10
31.01772518222547
 20
19.47087194020512
 30
0.0
 11
31.01772518222547
 21
22.80045452390881
 31
0.0
  0
MTEXT
  5
15F4
102
{ACAD_REACTORS
330
15F5
102
}
330
1E
100
AcDbEntity
  8
DIM
100
AcDbMText
 10
27.92653134821444
 20
23.40986595055341
 30
0.0
 40
0.312
 41
0.0
 71
     3
 72
     1
  1
\A1;SILICONE GASKET\P(CLEAR)
 73
     1
 44
1.0
  0
LEADER
  5
15F5
330
1E
100
AcDbEntity
  8
DIM
100
AcDbLeader
  3
23NSTD
 73
     0
 75
     1
 40
0.832
 41
3.276
 76
     3
 10
31.01772518222547
 20
21.37548194020511
 30
0.0
 10
28.60153134821444
 20
23.31611595055341
 30
0.0
 10
28.15153134821444
 20
23.31611595055341
 30
0.0
340
15F4
213
0.0
223
-0.09375
233
0.0
1001
ACAD
1000
DSTYLE
1002
{
1070
   147
1040
0.09
1070
    77
1070
     0
1002
}
  0
DIMENSION
  5
15F6
330
1E
100
AcDbEntity
  8
DIM
100
AcDbDimension
  2
*D53
 10
31.01772518222547
 20
23.63895452390881
 30
0.0
 11
29.52163143222547
 21
23.63895452390881
 31
0.0
 70
    32
 71
     5
 42
0.1149999999999984
  3
23NSTD4
100
AcDbAlignedDimension
 13
31.47772518222547
 23
21.52337194020512
 33
0.0
 14
31.01772518222547
 24
22.80045452390881
 34
0.0
100
AcDbRotatedDimension
  0
DIMENSION
  5
15F7
330
1E
100
AcDbEntity
  8
DIM
100
AcDbDimension
  2
*D54
 10
29.76477418222547
 20
20.07411994020512
 30
0.0
 11
29.76477418222547
 21
20.41786994020513
 31
0.0
 70
    32
  1
<> DIA.
 71
     5
 42
0.171875
  3
23NSTD4I
100
AcDbAlignedDimension
 13
31.01772518222547
 23
20.76161994020512
 33
0.0
 14
31.01772518222547
 24
20.07411994020512
 34
0.0
 50
90.0
100
AcDbRotatedDimension
  0
LINE
  5
15F8
102
{ACAD_REACTORS
330
15ED
102
}
330
1E
100
AcDbEntity
  8
OBJECT
100
AcDbLine
 10
31.01772518222547
 20
19.47087194020512
 30
0.0
 11
32.34372518222547
 21
19.47087194020512
 31
0.0
  0
DIMENSION
  5
15F9
330
1E
100
AcDbEntity
  8
DIM
100
AcDbDimension
  2
*D55
 10
28.56649623479484
 20
21.20337194020512
 30
0.0
 11
27.48133998479483
 21
20.30337194020512
 31
0.0
 70
    32
 71
     5
 42
0.0800000000000001
  3
23NSTD4
100
AcDbAlignedDimension
 13
31.01772518222547
 23
21.52337194020512
 33
0.0
 14
31.01772518222547
 24
21.20337194020512
 34
0.0
 50
90.0
100
AcDbRotatedDimension
  0
LINE
  5
15FA
102
{ACAD_REACTORS
330
15ED
102
}
330
1E
100
AcDbEntity
  8
OBJECT
100
AcDbLine
 10
32.11372518222546
 20
19.79787194020511
 30
0.0
 11
32.11372518222546
 21
21.03787194020513
 31
0.0
  0
LINE
  5
15FB
102
{ACAD_REACTORS
330
15ED
102
}
330
1E
100
AcDbEntity
  8
OBJECT
100
AcDbLine
 10
31.01772518222547
 20
20.07411994020512
 30
0.0
 11
32.11372518222546
 21
20.07411994020512
 31
0.0
  0
LINE
  5
15FC
102
{ACAD_REACTORS
330
15ED
102
}
330
1E
100
AcDbEntity
  8
OBJECT
100
AcDbLine
 10
31.01772518222547
 20
20.76161994020512
 30
0.0
 11
32.11372518222546
 21
20.76161994020512
 31
0.0
  0
LINE
  5
15FD
330
1E
100
AcDbEntity
  8
OBJECT
100
AcDbLine
 10
31.65268118222546
 20
20.76161994020512
 30
0.0
 11
31.61738918222546
 21
20.07411994020512
 31
0.0
  0
LINE
  5
15FE
330
1E
100
AcDbEntity
  8
OBJECT
100
AcDbLine
 10
31.53270518222547
 20
20.76161994020512
 30
0.0
 11
31.49740918222546
 21
20.07411994020512
 31
0.0
  0
INSERT
  5
15FF
330
1E
100
AcDbEntity
  8
OBJECT
 62
   221
100
AcDbBlockReference
  2
*X51
 10
12.68221518222547
 20
9.314397940205118
 30
0.0
1001
ACAD
1000
HATCH
1002
{
1070
    16
1000
ZIGZAG
1040
0.75
1040
0.0
1002
}
  0
LWPOLYLINE
  5
1600
102
{ACAD_REACTORS
330
15ED
102
}
330
1E
100
AcDbEntity
  8
OBJECT
100
AcDbPolyline
 90
        3
 70
     0
 43
0.0
 10
31.47772518222546
 20
21.52337194020511
 10
31.47772518222546
 20
21.20337194020512
 10
31.01772518222547
 20
21.20337194020512
  0
LWPOLYLINE
  5
1601
102
{ACAD_REACTORS
330
15ED
102
}
330
1E
100
AcDbEntity
  8
OBJECT
100
AcDbPolyline
 90
        2
 70
     0
 43
0.0
 10
31.01772518222547
 20
21.52337194020511
 10
31.47772518222546
 20
21.52337194020511
  0
LINE
  5
1602
102
{ACAD_REACTORS
330
15ED
102
}
330
1E
100
AcDbEntity
  8
OBJECT
100
AcDbLine
 10
32.59372518222547
 20
19.72087194020512
 30
0.0
 11
32.59372518222547
 21
22.67470222000623
 31
0.0
  0
DIMENSION
  5
1603
330
1E
100
AcDbEntity
  8
DIM
100
AcDbDimension
  2
*D56
 10
33.83383518222547
 20
21.03787194020513
 30
0.0
 11
33.83383518222547
 21
20.41787194020512
 31
0.0
 70
    32
  1
<> DIA.\PC"BORE
 71
     5
 42
0.3100000000000023
  3
23NSTD4I
100
AcDbAlignedDimension
 13
32.59372518222547
 23
19.79787194020511
 33
0.0
 14
32.59372518222547
 24
21.03787194020513
 34
0.0
 50
90.0
100
AcDbRotatedDimension
  0
LEADER
  5
192D
330
1E
100
AcDbEntity
  8
DIM
100
AcDbLeader
  3
23NSTD
 73
     0
 74
     0
 75
     1
 40
0.3125
 41
2.96875
 76
     3
 10
33.48971598014297
 20
6.130178767718156
 30
0.0
 10
34.60151532112209
 20
5.411278085348577
 30
0.0
 10
35.05151532112209
 20
5.411278085348577
 30
0.0
340
192E
213
0.0
223
-0.15625
233
0.0
1001
ACAD
1000
DSTYLE
1002
{
1070
   147
1040
0.09
1070
    77
1070
     0
1002
}
  0
MTEXT
  5
192E
102
{ACAD_REACTORS
330
192D
102
}
330
1E
100
AcDbEntity
  8
DIM
100
AcDbMText
 10
35.27651532112209
 20
5.567528085348577
 30
0.0
 40
0.3125
 41
0.0
 71
     1
 72
     1
  1
\A1;SEE DETAIL "C"
 73
     1
 44
1.0
  0
HATCH
  5
1931
330
1E
100
AcDbEntity
  8
OBJECT
 62
   221
100
AcDbHatch
 10
0.0
 20
0.0
 30
0.0
210
0.0
220
0.0
230
1.0
  2
ZIGZAG
 70
     0
 71
     1
 91
        2
 92
        1
 93
       32
 72
     2
 10
29.72523492170436
 20
9.603434579158275
 40
0.1790254611181848
 50
276.3867101520435
 51
353.6136524783253
 73
     0
 72
     1
 10
29.90314943170231
 20
9.623347963118986
 11
29.90314943170231
 21
6.725472963118987
 72
     2
 10
29.74514954974019
 20
6.725472845081108
 40
0.1579998819621672
 50
359.9999571957133
 51
450.0000428042866
 73
     0
 72
     1
 10
29.74514943170231
 20
6.567472963118986
 11
29.37497643170231
 21
6.567472963118986
 72
     2
 10
29.37497662342673
 20
6.375473621964651
 40
0.1919993411544307
 50
90.00005721373991
 51
177.8740878157857
 73
     1
 72
     2
 10
28.98774350954466
 20
6.389848454610272
 40
0.1955004914912993
 50
2.125992211391723
 51
90.0000228134383
 73
     0
 72
     1
 10
28.98774343170231
 20
6.194347963118986
 11
27.78955443170231
 21
6.194347963118986
 72
     2
 10
27.78955435385996
 20
6.38984845461027
 40
0.1955004914912996
 50
89.99997718656278
 51
177.8740077886087
 73
     0
 72
     2
 10
27.40232123997788
 20
6.375473621964651
 40
0.1919993411544339
 50
2.125912184214188
 51
89.99994278625901
 73
     1
 72
     1
 10
27.40232143170231
 20
6.567472963118986
 11
27.03214943170231
 21
6.567472963118986
 72
     2
 10
27.03214931366443
 20
6.725472845081108
 40
0.1579998819621663
 50
89.99995719571332
 51
180.0000428042866
 73
     0
 72
     1
 10
26.87414943170231
 20
6.725472963118987
 11
26.87414943170231
 21
9.623348963118987
 72
     2
 10
27.03214931366443
 20
9.623349081156867
 40
0.1579998819621672
 50
179.9999571957126
 51
270.0000428042867
 73
     0
 72
     1
 10
27.03214943170231
 20
9.781348963118988
 11
27.05039943170231
 21
9.781348963118988
 72
     2
 10
27.04989939115376
 20
9.973347963118987
 40
0.1919996511495525
 50
270.1492202992772
 51
449.8507797007227
 73
     1
 72
     1
 10
27.05039943170231
 20
10.16534696311898
 11
27.03214943170231
 21
10.16534796311898
 72
     2
 10
27.03214931366443
 20
10.32334784508111
 40
0.1579998819621654
 50
89.99995719571332
 51
180.0000428042866
 73
     0
 72
     1
 10
26.87414943170231
 20
10.32334796311898
 11
26.87414943170231
 21
13.22022296311898
 72
     2
 10
27.03214931366443
 20
13.22022308115686
 40
0.1579998819621672
 50
179.9999571957133
 51
270.0000428042867
 73
     0
 72
     1
 10
27.03214943170231
 20
13.37822296311898
 11
27.40232143170231
 21
13.37822296311898
 72
     2
 10
27.40232072107239
 20
13.57022280427332
 40
0.1919998411556515
 50
270.0002120631732
 51
357.8742426652183
 73
     1
 72
     2
 10
27.78955383495446
 20
13.5558479716277
 40
0.1954999914921943
 50
182.126144288669
 51
270.0001748907145
 73
     0
 72
     1
 10
27.78955443170231
 20
13.75134796311898
 11
28.98774343170231
 21
13.75134796311898
 72
     2
 10
28.98774402845016
 20
13.5558479716277
 40
0.1954999914921944
 50
269.9998251092844
 51
357.8738557113308
 73
     0
 72
     2
 10
29.37497714233224
 20
13.57022280427332
 40
0.19199984115565
 50
182.1257573347816
 51
269.9997879368277
 73
     1
 72
     1
 10
29.37497643170231
 20
13.37822296311898
 11
29.74514943170231
 21
13.37822296311898
 72
     2
 10
29.74514954974019
 20
13.22022308115686
 40
0.1579998819621654
 50
269.9999571957133
 51
360.0000428042867
 73
     0
 72
     1
 10
29.90314943170231
 20
13.22022296311898
 11
29.90314943170231
 21
10.32334796311898
 72
     2
 10
29.73658556433219
 20
10.33191077629091
 40
0.1667838232044905
 50
2.942904381969759
 51
87.05673298766251
 73
     0
 72
     1
 10
29.74514943170231
 20
10.16534696311898
 11
29.72689943170231
 21
10.16534696311898
 72
     2
 10
29.72739947225086
 20
9.973347963118987
 40
0.1919996511495525
 50
90.14922029927729
 51
269.8507797007227
 73
     1
 72
     1
 10
29.72689943170231
 20
9.781348963118988
 11
29.74514943170231
 21
9.781348963118988
 97
        1
330
D77
 92
       16
 93
       32
 72
     2
 10
29.72523418089146
 20
9.603433712308138
 40
0.0990262946161413
 50
278.5908245333211
 51
351.4091754666809
 73
     0
 72
     1
 10
29.82314943170231
 20
9.618225963118987
 11
29.82314943170231
 21
6.725472963118987
 72
     2
 10
29.74514948997417
 20
6.725472904847122
 40
0.0779999417281592
 50
359.9999571957127
 51
450.0000428042852
 73
     0
 72
     1
 10
29.74514943170231
 20
6.647472963118986
 11
29.37497643170231
 21
6.647472963118986
 72
     2
 10
29.37497697064195
 20
6.375473221939719
 40
0.2719997411798014
 50
90.00011352572148
 51
177.8741441277671
 73
     1
 72
     2
 10
28.98774385675988
 20
6.389848054585341
 40
0.1155000914671366
 50
2.126180254971053
 51
90.00021085701645
 73
     0
 72
     1
 10
28.98774343170231
 20
6.274347963118986
 11
27.78955443170231
 21
6.274347963118986
 72
     2
 10
27.78955400664474
 20
6.389848054585341
 40
0.1155000914671366
 50
89.99978914298354
 51
177.8738197450289
 73
     0
 72
     2
 10
27.40232089276267
 20
6.375473221939721
 40
0.2719997411797979
 50
2.125855872232522
 51
89.99988647427853
 73
     1
 72
     1
 10
27.40232143170231
 20
6.647472963118986
 11
27.03214943170231
 21
6.647472963118986
 72
     2
 10
27.03214937343044
 20
6.725472904847124
 40
0.0779999417281592
 50
89.99995719571211
 51
180.0000428042859
 73
     0
 72
     1
 10
26.95414943170231
 20
6.725472963118987
 11
26.95414943170231
 21
9.623348963118987
 72
     2
 10
27.03214987343045
 20
9.623348521391598
 40
0.0780004417293869
 50
180.0003244739967
 51
270.000410082573
 73
     0
 72
     1
 10
27.03215043170231
 20
9.701348963118988
 11
27.05049443170231
 21
9.701348963118988
 72
     2
 10
27.04989864538624
 20
9.973347963118987
 40
0.2719996525040684
 50
270.1255004129036
 51
449.8744995870963
 73
     1
 72
     1
 10
27.05049443170231
 20
10.24534696311898
 11
27.03214943170231
 21
10.24534796311898
 72
     2
 10
27.03214937343044
 20
10.32334790484712
 40
0.0779999417281592
 50
89.99995719571211
 51
180.0000428042852
 73
     0
 72
     1
 10
26.95414943170231
 20
10.32334796311898
 11
26.95414943170231
 21
13.22022296311898
 72
     2
 10
27.03214937343044
 20
13.22022302139085
 40
0.0779999417281592
 50
179.9999571957134
 51
270.0000428042879
 73
     0
 72
     1
 10
27.03214943170231
 20
13.29822296311898
 11
27.40232143170231
 21
13.29822296311898
 72
     2
 10
27.40232089276267
 20
13.57022270429825
 40
0.2719997411798005
 50
270.0001135257222
 51
357.874144127768
 73
     1
 72
     2
 10
27.78955400664474
 20
13.55584787165263
 40
0.1155000914671366
 50
182.1261802549715
 51
270.0002108570164
 73
     0
 72
     1
 10
27.78955443170231
 20
13.67134796311898
 11
28.98774343170231
 21
13.67134796311898
 72
     2
 10
28.98774385675988
 20
13.55584787165263
 40
0.1155000914671339
 50
269.9997891429835
 51
357.8738197450284
 73
     0
 72
     2
 10
29.37497697064196
 20
13.57022270429825
 40
0.271999741179805
 50
182.1258558722326
 51
269.9998864742777
 73
     1
 72
     1
 10
29.37497643170231
 20
13.29822296311898
 11
29.74514943170231
 21
13.29822296311898
 72
     2
 10
29.74514948997417
 20
13.22022302139085
 40
0.0779999417281574
 50
269.9999571957147
 51
360.0000428042865
 73
     0
 72
     1
 10
29.82314943170231
 20
13.22022296311898
 11
29.82314943170231
 21
10.32573596311898
 72
     2
 10
29.73658516290184
 20
10.33191123191946
 40
0.086784253051568
 50
4.080418820936606
 51
85.91958117906466
 73
     0
 72
     1
 10
29.74276043170231
 20
10.24534696311898
 11
29.72680343170231
 21
10.24534696311898
 72
     2
 10
29.72739867282674
 20
9.973347963118987
 40
0.2719996513104305
 50
90.12538557045926
 51
269.8746144295407
 73
     1
 72
     1
 10
29.72680343170231
 20
9.701348963118988
 11
29.74002643170231
 21
9.701348963118988
 97
        1
330
D99
 75
     0
 76
     1
 52
0.0
 41
0.375
 77
     0
 78
     2
 53
0.0
 43
2.247131431702314
 44
-1.082670036881012
 45
0.046875
 46
0.046875
 79
     2
 49
0.046875
 49
-0.046875
 53
90.0
 43
2.294006431702314
 44
-1.082670036881012
 45
-0.046875
 46
0.046875
 79
     2
 49
0.046875
 49
-0.046875
 98
        1
 10
2.247131431702314
 20
-1.082670036881012
  0
HATCH
  5
193E
330
1E
100
AcDbEntity
  8
OBJECT
 62
   221
100
AcDbHatch
 10
0.0
 20
0.0
 30
0.0
210
0.0
220
0.0
230
1.0
  2
ZIGZAG
 70
     0
 71
     1
 91
        1
 92
        7
 72
     0
 73
     1
 93
        4
 10
32.77486243170232
 20
9.781347963118989
 10
32.77486243170232
 20
9.701347963118987
 10
32.88986243170231
 20
9.701347963118987
 10
32.88986243170231
 20
9.781347963118987
 97
        3
330
D72
330
C17
330
D6D
 75
     0
 76
     1
 52
0.0
 41
0.25
 77
     0
 78
     2
 53
0.0
 43
0.0
 44
-0.3642556505285341
 45
0.03125
 46
0.03125
 79
     2
 49
0.03125
 49
-0.03125
 53
90.0
 43
0.03125
 44
-0.3642556505285341
 45
-0.03125
 46
0.03125
 79
     2
 49
0.03125
 49
-0.03125
 47
0.0029367197115333
 98
        1
 10
32.84553191284844
 20
9.748587787852592
  0
HATCH
  5
1943
330
1E
100
AcDbEntity
  8
OBJECT
 62
   221
100
AcDbHatch
 10
0.0
 20
0.0
 30
0.0
210
0.0
220
0.0
230
1.0
  2
ZIGZAG
 70
     0
 71
     1
 91
        1
 92
        7
 72
     0
 73
     1
 93
        4
 10
32.88986243170231
 20
10.16534796311898
 10
32.88986243170231
 20
10.24534796311898
 10
32.77486243170232
 20
10.24534796311898
 10
32.77486243170232
 20
10.16534796311898
 97
        3
330
D69
330
C17
330
D64
 75
     0
 76
     1
 52
0.0
 41
0.25
 77
     0
 78
     2
 53
0.0
 43
0.0
 44
-0.3642556505285341
 45
0.03125
 46
0.03125
 79
     2
 49
0.03125
 49
-0.03125
 53
90.0
 43
0.03125
 44
-0.3642556505285341
 45
-0.03125
 46
0.03125
 79
     2
 49
0.03125
 49
-0.03125
 47
0.0029367197115333
 98
        1
 10
32.83083654996777
 20
10.19790586545092
  0
HATCH
  5
1949
330
1E
100
AcDbEntity
  8
OBJECT
 62
   221
100
AcDbHatch
 10
0.0
 20
0.0
 30
0.0
210
0.0
220
0.0
230
1.0
  2
ZIGZAG
 70
     0
 71
     1
 91
        1
 92
        7
 72
     0
 73
     1
 93
        4
 10
32.88986243170231
 20
13.67134796311898
 10
32.88986243170231
 20
13.75134796311898
 10
32.77486243170232
 20
13.75134796311898
 10
32.77486243170232
 20
13.67134796311898
 97
        3
330
D60
330
C17
330
D5B
 75
     0
 76
     1
 52
0.0
 41
0.25
 77
     0
 78
     2
 53
0.0
 43
0.0
 44
-0.3642556505285341
 45
0.03125
 46
0.03125
 79
     2
 49
0.03125
 49
-0.03125
 53
90.0
 43
0.03125
 44
-0.3642556505285341
 45
-0.03125
 46
0.03125
 79
     2
 49
0.03125
 49
-0.03125
 47
0.002768632756731
 98
        1
 10
32.84063109277859
 20
13.70437535151513
  0
HATCH
  5
194E
330
1E
100
AcDbEntity
  8
OBJECT
 62
   221
100
AcDbHatch
 10
0.0
 20
0.0
 30
0.0
210
0.0
220
0.0
230
1.0
  2
ZIGZAG
 70
     0
 71
     1
 91
        1
 92
        7
 72
     0
 73
     1
 93
        4
 10
32.88986243170231
 20
6.567472963118986
 10
32.88986243170231
 20
6.647472963118986
 10
32.77486243170232
 20
6.647472963118986
 10
32.77486243170231
 20
6.567472963118986
 97
        3
330
D57
330
C17
330
D52
 75
     0
 76
     1
 52
0.0
 41
0.25
 77
     0
 78
     2
 53
0.0
 43
0.0
 44
-0.3642556505285341
 45
0.03125
 46
0.03125
 79
     2
 49
0.03125
 49
-0.03125
 53
90.0
 43
0.03125
 44
-0.3642556505285341
 45
-0.03125
 46
0.03125
 79
     2
 49
0.03125
 49
-0.03125
 47
0.0025503092066654
 98
        1
 10
32.84301819921874
 20
6.592270894825176
  0
HATCH
  5
198D
330
1E
100
AcDbEntity
  8
OBJECT
 62
   151
100
AcDbHatch
 10
0.0
 20
0.0
 30
0.0
210
0.0
220
0.0
230
1.0
  2
ANSI31
 70
     0
 71
     1
 91
        4
 92
        7
 72
     1
 73
     1
 93
        7
 10
33.10536243170231
 20
6.134347963118987
 42
0.4142135623730951
 10
33.16786243170231
 20
6.196847963118987
 42
0.0
 10
33.16786243170231
 20
6.222847963118987
 42
0.0
 10
33.12786243170231
 20
6.222847963118987
 42
0.0
 10
33.06786243170231
 20
6.293160963118987
 42
0.0
 10
32.77486243170232
 20
6.293160963118987
 42
0.0
 10
32.77486243170232
 20
6.134347963118987
 42
0.0
 97
        7
330
C1E
330
C23
330
C1D
330
C17
330
C16
330
C18
330
C15
 92
        7
 72
     1
 73
     1
 93
       12
 10
33.04786243170231
 20
6.687472963118986
 42
0.0
 10
32.77486243170232
 20
6.687472963118986
 42
0.0
 10
32.77486243170232
 20
6.647472963118987
 42
0.0
 10
32.88986243170231
 20
6.647472963118985
 42
0.0
 10
32.88986243170231
 20
6.567472963118986
 42
0.0
 10
32.77486243170232
 20
6.567472963118986
 42
0.0
 10
32.77486243170231
 20
6.465035963118987
 42
0.0
 10
33.06786243170231
 20
6.465035963118988
 42
0.0
 10
33.12786243170231
 20
6.535347963118987
 42
0.0
 10
33.16786243170231
 20
6.535347963118987
 42
0.0
 10
33.16786243170231
 20
7.03387838115235
 42
0.0468384136319334
 10
33.04786243170231
 20
7.079173072403262
 42
0.0
 97
       10
330
C50
330
C51
330
C19
330
C17
330
D57
330
D52
330
C1C
330
C22
330
C1F
330
C15
 92
        7
 72
     1
 73
     1
 93
       12
 10
33.16786243170231
 20
9.817097963118987
 42
0.0
 10
33.1278624317023
 20
9.817097963118985
 42
0.0
 10
33.06786243170231
 20
9.887410963118986
 42
0.0
 10
32.77486243170232
 20
9.887410963118988
 42
0.0
 10
32.77486243170232
 20
9.781347963118987
 42
0.0
 10
32.88986243170231
 20
9.781347963118987
 42
0.0
 10
32.88986243170231
 20
9.701347963118987
 42
0.0
 10
32.77486243170232
 20
9.701347963118989
 42
0.0
 10
32.77486243170232
 20
9.661347963118986
 42
0.0
 10
33.04786243170231
 20
9.661347963118988
 42
0.0
 10
33.04786243170231
 20
7.079173072403262
 42
-0.0468384136319334
 10
33.16786243170231
 20
7.03387838115235
 42
0.0
 97
       10
330
C2F
330
C2A
330
C30
330
C17
330
D72
330
D6D
330
C1B
330
C51
330
C50
330
C15
 92
        7
 72
     1
 73
     1
 93
       19
 10
33.04786243170231
 20
10.28534796311898
 42
0.0
 10
32.77486243170232
 20
10.28534796311898
 42
0.0
 10
32.77486243170232
 20
10.24534796311898
 42
0.0
 10
32.88986243170231
 20
10.24534796311898
 42
0.0
 10
32.88986243170231
 20
10.16534796311898
 42
0.0
 10
32.77486243170232
 20
10.16534796311898
 42
0.0
 10
32.77486243170232
 20
10.05928596311898
 42
0.0
 10
33.06786243170231
 20
10.05928596311898
 42
0.0
 10
33.12786243170231
 20
10.12959796311898
 42
0.0
 10
33.16786243170231
 20
10.12959796311898
 42
0.0
 10
33.16786243170231
 20
13.74884796311898
 42
0.4142135623730951
 10
33.10536243170231
 20
13.81134796311898
 42
0.0
 10
32.77486243170232
 20
13.81134796311898
 42
0.0
 10
32.77486243170232
 20
13.75134796311898
 42
0.0
 10
32.88986243170231
 20
13.75134796311898
 42
0.0
 10
32.88986243170231
 20
13.67134796311898
 42
0.0
 10
32.77486243170232
 20
13.67134796311898
 42
0.0
 10
32.77486243170232
 20
13.63134796311898
 42
0.0
 10
33.04786243170231
 20
13.63134796311898
 42
0.0
 97
       14
330
C26
330
C27
330
C17
330
D60
330
D5B
330
C32
330
C52
330
C1A
330
D69
330
D64
330
C31
330
C2B
330
C2E
330
C15
 75
     0
 76
     1
 52
0.0
 41
0.625
 77
     0
 78
     1
 53
45.0
 43
2.247131431702314
 44
-1.082670036881012
 45
-0.055242717280199
 46
0.055242717280199
 79
     0
 47
0.0147608808259244
 98
        4
 10
32.98223848689117
 20
6.198673181143952
 10
33.02655695581769
 20
6.597216941069646
 10
33.11519389367076
 20
8.088065944531663
 10
33.10042103253756
 20
10.90739418824271
  0
LEADER
  5
1F2F
330
1E
100
AcDbEntity
  8
DIM
100
AcDbLeader
  3
23NSTD
 73
     0
 75
     1
 40
1.354166666666666
 41
3.359375
 76
     3
 10
8.61016030986358
 20
13.68197321876438
 30
0.0
 10
5.445802146153684
 20
15.25591773658074
 30
0.0
 10
4.995802146153684
 20
15.25591773658074
 30
0.0
340
1F30
213
0.0
223
-0.15625
233
0.0
1001
ACAD
1000
DSTYLE
1002
{
1070
   147
1040
0.09
1070
    77
1070
     0
1002
}
  0
MTEXT
  5
1F30
102
{ACAD_REACTORS
330
1F2F
102
}
330
1E
100
AcDbEntity
  8
DIM
100
AcDbMText
 10
4.770802146153684
 20
15.41216773658074
 30
0.0
 40
0.3125
 41
0.0
 71
     3
 72
     1
  1
\A1;M4 x 0.315 LG.\PTHREADED INSERT\P(6) PLACES
 73
     1
 44
1.0
  0
LEADER
  5
1F31
330
1E
100
AcDbEntity
  8
DIM
100
AcDbLeader
  3
23NSTD
 73
     0
 75
     1
 40
2.395833333333333
 41
4.6875
 76
     3
 10
9.046302439265195
 20
6.742156801175388
 30
0.0
 10
6.084243053065097
 20
4.99528943328454
 30
0.0
 10
5.634243053065096
 20
4.99528943328454
 30
0.0
340
1F32
213
0.0
223
-0.15625
233
0.0
1001
ACAD
1000
DSTYLE
1002
{
1070
   147
1040
0.09
1070
    77
1070
     0
1002
}
  0
MTEXT
  5
1F32
102
{ACAD_REACTORS
330
1F31
102
}
330
1E
100
AcDbEntity
  8
DIM
100
AcDbMText
 10
5.409243053065097
 20
5.15153943328454
 30
0.0
 40
0.3125
 41
0.0
 71
     3
 72
     1
  1
\A1;0.315 DIA. BOSS\PWITH M3 x 0.188 LG.\PTHREADED INSERT\P(4) PLACES\P(SCREWS NOT SUPPLIED)
 73
     1
 44
1.0
  0
LEADER
  5
20AA
330
1E
100
AcDbEntity
  8
DIM
100
AcDbLeader
  3
23NSTD
 73
     0
 74
     0
 75
     1
 40
2.916666666666666
 41
9.0234375
 76
     3
 10
11.03290771912186
 20
10.59975396311898
 30
0.0
 10
16.01920398168149
 20
18.95429118059427
 30
0.0
 10
16.46920398168149
 20
18.95429118059427
 30
0.0
340
20AB
213
0.0
223
-0.15625
233
0.0
1001
ACAD
1000
DSTYLE
1002
{
1070
   147
1040
0.09
1070
    77
1070
     0
1002
}
  0
MTEXT
  5
20AB
102
{ACAD_REACTORS
330
20AA
102
}
330
1E
100
AcDbEntity
  8
DIM
100
AcDbMText
 10
16.69420398168149
 20
19.11054118059427
 30
0.0
 40
0.3125
 41
0.0
 71
     1
 72
     1
  1
\A1;0.315 DIA. BOSS WITH\P0.090 DIA. HOLE x 0.160 DEEP\P(4) PLACES\PMOUNTING BOSSES USE EITHER M2.5 METRIC\POR #4 STD. SHEET METAL SCREWS x 0.188 LG.\P(NOT SUPPLIED)
 73
     1
 44
1.0
  0
HATCH
  5
20B9
330
1E
100
AcDbEntity
  8
OBJECT
 62
   221
100
AcDbHatch
 10
0.0
 20
0.0
 30
0.0
210
0.0
220
0.0
230
1.0
  2
ANSI32
 70
     0
 71
     0
 91
        2
 92
        7
 72
     0
 73
     1
 93
        4
 10
18.64185271912186
 20
6.886597963118988
 10
18.64185271912186
 20
6.917847963118987
 10
18.45435271912186
 20
6.917847963118988
 10
18.45435271912186
 20
6.886597963118987
 97
        0
 92
        7
 72
     0
 73
     1
 93
        4
 10
18.64185271912186
 20
6.730347963118988
 10
18.64185271912186
 20
6.761597963118988
 10
18.45435271912186
 20
6.761597963118987
 10
18.45435271912186
 20
6.730347963118986
 97
        0
 75
     0
 76
     1
 52
89.99998127603165
 41
0.25
 77
     0
 78
     2
 53
134.9999812760316
 43
0.0
 44
-0.3642556505285341
 45
-0.066291282399881
 46
-0.0662912390725896
 79
     0
 53
134.9999812760316
 43
0.0000000144424304
 44
-0.3200614767785365
 45
-0.066291282399881
 46
-0.0662912390725896
 79
     0
 47
0.0008555568216358
 98
        2
 10
18.52827679395856
 20
6.899225659261006
 10
18.53683928068959
 20
6.74522542080772
  0
CIRCLE
  5
217B
330
1E
100
AcDbEntity
  8
OBJECT
100
AcDbCircle
 10
9.179801719121861
 20
13.12234796311898
 30
0.0
 40
0.09375
  0
CIRCLE
  5
217C
330
1E
100
AcDbEntity
  8
OBJECT
100
AcDbCircle
 10
9.179801719121861
 20
13.12234796311898
 30
0.0
 40
0.1559553444010344
  0
LINE
  5
217D
330
1E
100
AcDbEntity
  8
OBJECT
100
AcDbLine
 10
8.981886675476843
 20
13.07534801859542
 30
0.0
 11
8.981886675476843
 21
13.16934794603357
 31
0.0
  0
LINE
  5
217E
330
1E
100
AcDbEntity
  8
OBJECT
100
AcDbLine
 10
8.94688669313296
 20
13.16934793385925
 30
0.0
 11
8.94688669313296
 21
13.07534805812552
 31
0.0
  0
LINE
  5
217F
330
1E
100
AcDbEntity
  8
OBJECT
100
AcDbLine
 10
9.031005559572932
 20
13.07534796311898
 30
0.0
 11
8.94688669313296
 21
13.07534805812552
 31
0.0
  0
LINE
  5
2180
330
1E
100
AcDbEntity
  8
OBJECT
100
AcDbLine
 10
8.94688669313296
 20
13.16934793385925
 30
0.0
 11
9.031005559572932
 21
13.16934796311898
 31
0.0
  0
LINE
  5
2181
330
1E
100
AcDbEntity
  8
OBJECT
100
AcDbLine
 10
18.45435271912186
 20
13.27830330752002
 30
0.0
 11
18.45435271912186
 21
12.96639261871795
 31
0.0
  0
LINE
  5
2182
330
1E
100
AcDbEntity
  8
OBJECT
100
AcDbLine
 10
18.65035271912186
 20
12.88943293713008
 30
0.0
 11
18.46435272894207
 21
12.92443291947396
 31
0.0
  0
LINE
  5
2183
330
1E
100
AcDbEntity
  8
OBJECT
100
AcDbLine
 10
18.46435272894207
 20
12.97355175204902
 30
0.0
 11
18.65035271912186
 21
12.97355180357005
 31
0.0
  0
LINE
  5
2184
330
1E
100
AcDbEntity
  8
OBJECT
100
AcDbLine
 10
9.226801719121862
 20
12.97355180357006
 30
0.0
 11
9.226801822574268
 21
12.88943300630151
 31
0.0
  0
LINE
  5
2185
330
1E
100
AcDbEntity
  8
OBJECT
100
AcDbLine
 10
9.132801695668407
 20
12.88943300630151
 30
0.0
 11
9.132801719121861
 21
12.97355180357006
 31
0.0
  0
LINE
  5
2186
330
1E
100
AcDbEntity
  8
OBJECT
100
AcDbLine
 10
9.132801695668407
 20
12.88943300630151
 30
0.0
 11
9.226801822574268
 21
12.88943300630151
 31
0.0
  0
LINE
  5
2187
330
1E
100
AcDbEntity
  8
OBJECT
100
AcDbLine
 10
9.226801779529996
 20
12.92443298864539
 30
0.0
 11
9.132801705426874
 21
12.92443298864539
 31
0.0
  0
LINE
  5
2188
330
1E
100
AcDbEntity
  8
OBJECT
100
AcDbLine
 10
18.46435272894207
 20
12.97355175204902
 30
0.0
 11
18.46435272894207
 21
12.92443291947396
 31
0.0
  0
LINE
  5
2189
330
1E
100
AcDbEntity
  8
OBJECT
100
AcDbLine
 10
18.45435271912186
 20
12.96639261871795
 30
0.0
 11
18.46435272894207
 21
12.96630532909365
 31
0.0
  0
LINE
  5
218A
330
1E
100
AcDbEntity
  8
OBJECT
100
AcDbLine
 10
18.65035271912186
 20
13.30568354289345
 30
0.0
 11
18.46435272894207
 21
13.29068354289344
 31
0.0
  0
LINE
  5
218D
330
1E
100
AcDbEntity
  8
OBJECT
100
AcDbLine
 10
18.46435272894207
 20
13.2711441475696
 30
0.0
 11
18.65035271912186
 21
13.27114412266791
 31
0.0
  0
LINE
  5
218E
330
1E
100
AcDbEntity
  8
OBJECT
100
AcDbLine
 10
18.46435272894207
 20
13.16934802352712
 30
0.0
 11
18.65035271912186
 21
13.16934806657139
 31
0.0
  0
LINE
  5
218F
330
1E
100
AcDbEntity
  8
OBJECT
100
AcDbLine
 10
18.46435272894207
 20
13.07534794942399
 30
0.0
 11
18.65035271912186
 21
13.07534793966553
 31
0.0
  0
LINE
  5
2192
330
1E
100
AcDbEntity
  8
OBJECT
100
AcDbLine
 10
18.46435272894207
 20
13.29068354289344
 30
0.0
 11
18.46435272894207
 21
13.2711441475696
 31
0.0
  0
LINE
  5
2195
330
1E
100
AcDbEntity
  8
OBJECT
100
AcDbLine
 10
9.328597878670791
 20
13.16934796311898
 30
0.0
 11
9.412716718491424
 21
13.16934793385924
 31
0.0
  0
LINE
  5
2196
330
1E
100
AcDbEntity
  8
OBJECT
100
AcDbLine
 10
9.412716718491424
 20
13.07534805812554
 30
0.0
 11
9.328597878670789
 21
13.07534796311898
 31
0.0
  0
CIRCLE
  5
2197
330
1E
100
AcDbEntity
  8
OBJECT
100
AcDbCircle
 10
9.179801719121861
 20
13.12234796311898
 30
0.0
 40
0.0590000000000011
  0
LINE
  5
2198
330
1E
100
AcDbEntity
  8
OBJECT
100
AcDbLine
 10
18.46435272894207
 20
13.16934802352712
 30
0.0
 11
18.46435272894207
 21
13.07534794942399
 31
0.0
  0
LINE
  5
2199
330
1E
100
AcDbEntity
  8
OBJECT
100
AcDbLine
 10
9.377716736147538
 20
13.16934794603357
 30
0.0
 11
9.377716736147538
 21
13.07534801859542
 31
0.0
  0
LINE
  5
219A
330
1E
100
AcDbEntity
  8
OBJECT
100
AcDbLine
 10
9.412716718491424
 20
13.07534805812554
 30
0.0
 11
9.412716718491424
 21
13.16934793385924
 31
0.0
  0
LINE
  5
219B
330
1E
100
AcDbEntity
  8
OBJECT
100
AcDbLine
 10
18.46435272894207
 20
13.27839057052497
 30
0.0
 11
18.45435271912186
 21
13.27830330752002
 31
0.0
  0
CIRCLE
  5
21C7
330
1E
100
AcDbEntity
  8
OBJECT
100
AcDbCircle
 10
10.95080171912186
 20
13.12234796311898
 30
0.0
 40
0.09375
  0
CIRCLE
  5
21C8
330
1E
100
AcDbEntity
  8
OBJECT
100
AcDbCircle
 10
10.95080171912186
 20
13.12234796311898
 30
0.0
 40
0.1559553444010344
  0
LINE
  5
21C9
330
1E
100
AcDbEntity
  8
OBJECT
100
AcDbLine
 10
10.75288667547684
 20
13.07534801859542
 30
0.0
 11
10.75288667547684
 21
13.16934794603357
 31
0.0
  0
LINE
  5
21CA
330
1E
100
AcDbEntity
  8
OBJECT
100
AcDbLine
 10
10.71788669313296
 20
13.16934793385925
 30
0.0
 11
10.71788669313296
 21
13.07534805812552
 31
0.0
  0
LINE
  5
21CB
330
1E
100
AcDbEntity
  8
OBJECT
100
AcDbLine
 10
10.80200555957293
 20
13.07534796311898
 30
0.0
 11
10.71788669313296
 21
13.07534805812552
 31
0.0
  0
LINE
  5
21CC
330
1E
100
AcDbEntity
  8
OBJECT
100
AcDbLine
 10
10.71788669313296
 20
13.16934793385925
 30
0.0
 11
10.80200555957293
 21
13.16934796311898
 31
0.0
  0
LINE
  5
21D0
330
1E
100
AcDbEntity
  8
OBJECT
100
AcDbLine
 10
10.99780171912186
 20
12.97355180357006
 30
0.0
 11
10.99780182257426
 21
12.88943300630151
 31
0.0
  0
LINE
  5
21D1
330
1E
100
AcDbEntity
  8
OBJECT
100
AcDbLine
 10
10.9038016956684
 20
12.88943300630151
 30
0.0
 11
10.90380171912186
 21
12.97355180357006
 31
0.0
  0
LINE
  5
21D2
330
1E
100
AcDbEntity
  8
OBJECT
100
AcDbLine
 10
10.9038016956684
 20
12.88943300630151
 30
0.0
 11
10.99780182257426
 21
12.88943300630151
 31
0.0
  0
LINE
  5
21D3
330
1E
100
AcDbEntity
  8
OBJECT
100
AcDbLine
 10
10.99780177952999
 20
12.92443298864539
 30
0.0
 11
10.90380170542687
 21
12.92443298864539
 31
0.0
  0
LINE
  5
21E1
330
1E
100
AcDbEntity
  8
OBJECT
100
AcDbLine
 10
11.09959787867079
 20
13.16934796311898
 30
0.0
 11
11.18371671849142
 21
13.16934793385924
 31
0.0
  0
LINE
  5
21E2
330
1E
100
AcDbEntity
  8
OBJECT
100
AcDbLine
 10
11.18371671849142
 20
13.07534805812554
 30
0.0
 11
11.09959787867079
 21
13.07534796311898
 31
0.0
  0
CIRCLE
  5
21E3
330
1E
100
AcDbEntity
  8
OBJECT
100
AcDbCircle
 10
10.95080171912186
 20
13.12234796311898
 30
0.0
 40
0.0590000000000011
  0
LINE
  5
21E5
330
1E
100
AcDbEntity
  8
OBJECT
100
AcDbLine
 10
11.14871673614753
 20
13.16934794603357
 30
0.0
 11
11.14871673614753
 21
13.07534801859542
 31
0.0
  0
LINE
  5
21E6
330
1E
100
AcDbEntity
  8
OBJECT
100
AcDbLine
 10
11.18371671849142
 20
13.07534805812554
 30
0.0
 11
11.18371671849142
 21
13.16934793385924
 31
0.0
  0
CIRCLE
  5
2214
330
1E
100
AcDbEntity
  8
OBJECT
100
AcDbCircle
 10
9.179801719121861
 20
6.823347963118987
 30
0.0
 40
0.09375
  0
CIRCLE
  5
2215
330
1E
100
AcDbEntity
  8
OBJECT
100
AcDbCircle
 10
9.179801719121861
 20
6.823347963118987
 30
0.0
 40
0.1559553444010344
  0
LINE
  5
2216
330
1E
100
AcDbEntity
  8
OBJECT
100
AcDbLine
 10
8.981886675476843
 20
6.776348018595424
 30
0.0
 11
8.981886675476843
 21
6.870347946033573
 31
0.0
  0
LINE
  5
2217
330
1E
100
AcDbEntity
  8
OBJECT
100
AcDbLine
 10
8.94688669313296
 20
6.870347933859251
 30
0.0
 11
8.94688669313296
 21
6.77634805812552
 31
0.0
  0
LINE
  5
2218
330
1E
100
AcDbEntity
  8
OBJECT
100
AcDbLine
 10
9.031005559572932
 20
6.776347963118988
 30
0.0
 11
8.94688669313296
 21
6.77634805812552
 31
0.0
  0
LINE
  5
2219
330
1E
100
AcDbEntity
  8
OBJECT
100
AcDbLine
 10
8.94688669313296
 20
6.870347933859251
 30
0.0
 11
9.031005559572932
 21
6.870347963118987
 31
0.0
  0
LINE
  5
221A
102
{ACAD_REACTORS
330
2373
102
}
330
1E
100
AcDbEntity
  8
OBJECT
100
AcDbLine
 10
18.45435271912186
 20
6.979303307520023
 30
0.0
 11
18.45435271912186
 21
6.667392618717952
 31
0.0
  0
LINE
  5
221B
102
{ACAD_REACTORS
330
2373
102
}
330
1E
100
AcDbEntity
  8
OBJECT
100
AcDbLine
 10
18.65035271912186
 20
6.640012383344523
 30
0.0
 11
18.46435272894207
 21
6.655012383344525
 31
0.0
  0
LINE
  5
2221
102
{ACAD_REACTORS
330
2373
102
}
330
1E
100
AcDbEntity
  8
OBJECT
100
AcDbLine
 10
18.46435272894207
 20
6.667305329093655
 30
0.0
 11
18.46435272894207
 21
6.655012383344525
 31
0.0
  0
LINE
  5
2222
102
{ACAD_REACTORS
330
2373
102
}
330
1E
100
AcDbEntity
  8
OBJECT
100
AcDbLine
 10
18.45435271912186
 20
6.667392618717952
 30
0.0
 11
18.46435272894207
 21
6.667305329093655
 31
0.0
  0
LINE
  5
2223
102
{ACAD_REACTORS
330
2373
102
}
330
1E
100
AcDbEntity
  8
OBJECT
100
AcDbLine
 10
18.65035271912186
 20
7.056262962488549
 30
0.0
 11
18.46435272894207
 21
7.021262980144665
 31
0.0
  0
LINE
  5
222B
102
{ACAD_REACTORS
330
2373
102
}
330
1E
100
AcDbEntity
  8
OBJECT
100
AcDbLine
 10
18.46435272894207
 20
7.021262980144665
 30
0.0
 11
18.46435272894207
 21
6.979390570524981
 31
0.0
  0
LINE
  5
222C
330
1E
100
AcDbEntity
  8
OBJECT
100
AcDbLine
 10
9.132801719121863
 20
6.972144122667916
 30
0.0
 11
9.132801695668414
 21
7.056262958327487
 31
0.0
  0
LINE
  5
222D
330
1E
100
AcDbEntity
  8
OBJECT
100
AcDbLine
 10
9.226801822574234
 20
7.056262958327487
 30
0.0
 11
9.226801719121862
 21
6.972144122667915
 31
0.0
  0
LINE
  5
222E
330
1E
100
AcDbEntity
  8
OBJECT
100
AcDbLine
 10
9.328597878670791
 20
6.870347963118986
 30
0.0
 11
9.412716718491424
 21
6.870347933859245
 31
0.0
  0
LINE
  5
222F
330
1E
100
AcDbEntity
  8
OBJECT
100
AcDbLine
 10
9.412716718491424
 20
6.776348058125544
 30
0.0
 11
9.328597878670789
 21
6.776347963118986
 31
0.0
  0
CIRCLE
  5
2230
330
1E
100
AcDbEntity
  8
OBJECT
100
AcDbCircle
 10
9.179801719121861
 20
6.823347963118987
 30
0.0
 40
0.0590000000000011
  0
LINE
  5
2232
330
1E
100
AcDbEntity
  8
OBJECT
100
AcDbLine
 10
9.377716736147538
 20
6.870347946033573
 30
0.0
 11
9.377716736147538
 21
6.776348018595424
 31
0.0
  0
LINE
  5
2233
330
1E
100
AcDbEntity
  8
OBJECT
100
AcDbLine
 10
9.412716718491424
 20
6.776348058125544
 30
0.0
 11
9.412716718491424
 21
6.870347933859245
 31
0.0
  0
LINE
  5
2234
102
{ACAD_REACTORS
330
2373
102
}
330
1E
100
AcDbEntity
  8
OBJECT
100
AcDbLine
 10
18.46435272894207
 20
6.979390570524981
 30
0.0
 11
18.45435271912186
 21
6.979303307520023
 31
0.0
  0
LINE
  5
2235
330
1E
100
AcDbEntity
  8
OBJECT
100
AcDbLine
 10
9.132801705426874
 20
7.021262975983603
 30
0.0
 11
9.226801779529996
 21
7.021262975983603
 31
0.0
  0
LINE
  5
2236
330
1E
100
AcDbEntity
  8
OBJECT
100
AcDbLine
 10
9.226801822574234
 20
7.056262958327487
 30
0.0
 11
9.132801695668414
 21
7.056262958327487
 31
0.0
  0
CIRCLE
  5
2260
330
1E
100
AcDbEntity
  8
OBJECT
100
AcDbCircle
 10
10.95080171912186
 20
6.823347963118987
 30
0.0
 40
0.09375
  0
CIRCLE
  5
2261
330
1E
100
AcDbEntity
  8
OBJECT
100
AcDbCircle
 10
10.95080171912186
 20
6.823347963118987
 30
0.0
 40
0.1559553444010344
  0
LINE
  5
2262
330
1E
100
AcDbEntity
  8
OBJECT
100
AcDbLine
 10
10.75288667547684
 20
6.776348018595424
 30
0.0
 11
10.75288667547684
 21
6.870347946033573
 31
0.0
  0
LINE
  5
2263
330
1E
100
AcDbEntity
  8
OBJECT
100
AcDbLine
 10
10.71788669313296
 20
6.870347933859251
 30
0.0
 11
10.71788669313296
 21
6.77634805812552
 31
0.0
  0
LINE
  5
2264
330
1E
100
AcDbEntity
  8
OBJECT
100
AcDbLine
 10
10.80200555957293
 20
6.776347963118988
 30
0.0
 11
10.71788669313296
 21
6.77634805812552
 31
0.0
  0
LINE
  5
2265
330
1E
100
AcDbEntity
  8
OBJECT
100
AcDbLine
 10
10.71788669313296
 20
6.870347933859251
 30
0.0
 11
10.80200555957293
 21
6.870347963118987
 31
0.0
  0
LINE
  5
2269
330
1E
100
AcDbEntity
  8
OBJECT
100
AcDbLine
 10
9.226801719121862
 20
6.674551803570059
 30
0.0
 11
9.226801770848066
 21
6.640012383344523
 31
0.0
  0
LINE
  5
226A
330
1E
100
AcDbEntity
  8
OBJECT
100
AcDbLine
 10
9.132801707395135
 20
6.640012383344523
 30
0.0
 11
9.132801719121861
 21
6.674551803570059
 31
0.0
  0
LINE
  5
226C
330
1E
100
AcDbEntity
  8
OBJECT
100
AcDbLine
 10
9.226801770848066
 20
6.655012383344523
 30
0.0
 11
9.132801707395135
 21
6.655012383344523
 31
0.0
  0
LINE
  5
2278
330
1E
100
AcDbEntity
  8
OBJECT
100
AcDbLine
 10
10.90380171912186
 20
6.972144122667916
 30
0.0
 11
10.90380169566841
 21
7.056262958327487
 31
0.0
  0
LINE
  5
2279
330
1E
100
AcDbEntity
  8
OBJECT
100
AcDbLine
 10
10.99780182257423
 20
7.056262958327487
 30
0.0
 11
10.99780171912186
 21
6.972144122667915
 31
0.0
  0
LINE
  5
227A
330
1E
100
AcDbEntity
  8
OBJECT
100
AcDbLine
 10
11.09959787867079
 20
6.870347963118986
 30
0.0
 11
11.18371671849142
 21
6.870347933859245
 31
0.0
  0
LINE
  5
227B
330
1E
100
AcDbEntity
  8
OBJECT
100
AcDbLine
 10
11.18371671849142
 20
6.776348058125544
 30
0.0
 11
11.09959787867079
 21
6.776347963118986
 31
0.0
  0
CIRCLE
  5
227C
330
1E
100
AcDbEntity
  8
OBJECT
100
AcDbCircle
 10
10.95080171912186
 20
6.823347963118987
 30
0.0
 40
0.0590000000000011
  0
LINE
  5
227E
330
1E
100
AcDbEntity
  8
OBJECT
100
AcDbLine
 10
11.14871673614753
 20
6.870347946033573
 30
0.0
 11
11.14871673614753
 21
6.776348018595424
 31
0.0
  0
LINE
  5
227F
330
1E
100
AcDbEntity
  8
OBJECT
100
AcDbLine
 10
11.18371671849142
 20
6.776348058125544
 30
0.0
 11
11.18371671849142
 21
6.870347933859245
 31
0.0
  0
LINE
  5
2281
330
1E
100
AcDbEntity
  8
OBJECT
100
AcDbLine
 10
10.90380170542687
 20
7.021262975983603
 30
0.0
 11
10.99780177952999
 21
7.021262975983603
 31
0.0
  0
LINE
  5
2282
330
1E
100
AcDbEntity
  8
OBJECT
100
AcDbLine
 10
10.99780182257423
 20
7.056262958327487
 30
0.0
 11
10.90380169566841
 21
7.056262958327487
 31
0.0
  0
LINE
  5
229E
330
1E
100
AcDbEntity
  8
OBJECT
100
AcDbLine
 10
9.226801770848066
 20
6.640012383344523
 30
0.0
 11
9.132801707395135
 21
6.640012383344523
 31
0.0
  0
LINE
  5
22A9
330
1E
100
AcDbEntity
  8
OBJECT
100
AcDbLine
 10
10.99780177084806
 20
6.655012383344523
 30
0.0
 11
10.90380170739513
 21
6.655012383344523
 31
0.0
  0
LINE
  5
22AA
330
1E
100
AcDbEntity
  8
OBJECT
100
AcDbLine
 10
10.99780177084806
 20
6.640012383344523
 30
0.0
 11
10.90380170739513
 21
6.640012383344523
 31
0.0
  0
LINE
  5
22AB
330
1E
100
AcDbEntity
  8
OBJECT
100
AcDbLine
 10
10.90380170739513
 20
6.640012383344523
 30
0.0
 11
10.90380171912186
 21
6.674551803570059
 31
0.0
  0
LINE
  5
22AC
330
1E
100
AcDbEntity
  8
OBJECT
100
AcDbLine
 10
10.99780171912186
 20
6.674551803570059
 30
0.0
 11
10.99780177084806
 21
6.640012383344523
 31
0.0
  0
LINE
  5
22C1
330
1E
100
AcDbEntity
  8
OBJECT
100
AcDbLine
 10
9.226801770848066
 20
13.29068354289345
 30
0.0
 11
9.132801707395135
 21
13.29068354289345
 31
0.0
  0
LINE
  5
22C2
330
1E
100
AcDbEntity
  8
OBJECT
100
AcDbLine
 10
9.226801770848066
 20
13.30568354289345
 30
0.0
 11
9.132801707395135
 21
13.30568354289345
 31
0.0
  0
LINE
  5
22C3
330
1E
100
AcDbEntity
  8
OBJECT
100
AcDbLine
 10
9.132801707395135
 20
13.30568354289345
 30
0.0
 11
9.132801719121861
 21
13.27114412266791
 31
0.0
  0
LINE
  5
22C4
330
1E
100
AcDbEntity
  8
OBJECT
100
AcDbLine
 10
9.226801719121862
 20
13.27114412266791
 30
0.0
 11
9.226801770848066
 21
13.30568354289345
 31
0.0
  0
LINE
  5
22C5
330
1E
100
AcDbEntity
  8
OBJECT
100
AcDbLine
 10
10.99780177084806
 20
13.29068354289345
 30
0.0
 11
10.90380170739513
 21
13.29068354289345
 31
0.0
  0
LINE
  5
22C6
330
1E
100
AcDbEntity
  8
OBJECT
100
AcDbLine
 10
10.99780171912186
 20
13.27114412266791
 30
0.0
 11
10.99780177084806
 21
13.30568354289345
 31
0.0
  0
LINE
  5
22C7
330
1E
100
AcDbEntity
  8
OBJECT
100
AcDbLine
 10
10.90380170739513
 20
13.30568354289345
 30
0.0
 11
10.90380171912186
 21
13.27114412266791
 31
0.0
  0
LINE
  5
22C8
330
1E
100
AcDbEntity
  8
OBJECT
100
AcDbLine
 10
10.99780177084806
 20
13.30568354289345
 30
0.0
 11
10.90380170739513
 21
13.30568354289345
 31
0.0
  0
LINE
  5
22FB
102
{ACAD_REACTORS
330
2373
102
}
330
1E
100
AcDbEntity
  8
OBJECT
100
AcDbLine
 10
18.65035271912186
 20
9.324347963118986
 30
0.0
 11
18.65035271912186
 21
7.056262962488549
 31
0.0
  0
HATCH
  5
2373
330
1E
100
AcDbEntity
  8
OBJECT
 62
   151
100
AcDbHatch
 10
0.0
 20
0.0
 30
0.0
210
0.0
220
0.0
230
1.0
  2
ANSI31
 70
     0
 71
     1
 91
        3
 92
        7
 72
     1
 73
     1
 93
        9
 10
18.77035271912186
 20
13.72409796311898
 42
0.0
 10
18.77035271912186
 20
13.74884796311898
 42
0.4142135623730951
 10
18.70785271912186
 20
13.81134796311898
 42
0.0
 10
17.03835271912186
 20
13.81134796311898
 42
0.0
 10
17.03835271912186
 20
13.79134796311898
 42
0.0
 10
16.99835271912186
 20
13.79134796311898
 42
0.0
 10
16.99835271912186
 20
13.69159796311898
 42
0.0
 10
17.39460271912186
 20
13.69159796311898
 42
0.0
 10
17.39460271912186
 20
13.72409796311898
 42
0.0
 97
        9
330
8E3
330
941
330
8DA
330
93E
330
9A3
330
9A6
330
99F
330
8E2
330
8DE
 92
        7
 72
     0
 73
     1
 93
       38
 10
18.65035271912186
 20
13.32022296311898
 10
18.65035271912186
 20
10.62234796311898
 10
18.65035271912186
 20
10.30834796311898
 10
18.65035271912186
 20
9.638347963118986
 10
18.45435271912186
 20
9.638347963118986
 10
18.45435271912186
 20
9.525722963118987
 10
18.61435271912186
 20
9.525722963118989
 10
18.61435271912186
 20
9.435722963118987
 10
18.45435271912186
 20
9.435722963118987
 10
18.45435271912186
 20
9.324347963118986
 10
18.65035271912186
 20
9.324347963118986
 10
18.65035271912186
 20
7.056262962488549
 10
18.46435272894207
 20
7.021262980144665
 10
18.46435272894207
 20
6.97939057052498
 10
18.45435271912186
 20
6.979303307520024
 10
18.45435271912186
 20
6.917847963118987
 10
18.64185271912186
 20
6.917847963118987
 10
18.64185271912186
 20
6.730347963118987
 10
18.45435271912186
 20
6.730347963118987
 10
18.45435271912186
 20
6.667392618717953
 10
18.46435272894207
 20
6.667305329093655
 10
18.46435272894207
 20
6.655012383344524
 10
18.65035271912186
 20
6.640012383344524
 10
18.65035271912186
 20
6.625472963118987
 10
16.93835271912186
 20
6.625472963118988
 10
16.93835271912186
 20
6.585472963118989
 10
16.99835271912186
 20
6.585472963118988
 10
16.99835271912186
 20
6.567472963118987
 10
18.65035271912186
 20
6.567472963118987
 10
18.65035271912186
 20
6.446847963118988
 10
18.77035271912186
 20
6.446847963118987
 10
18.77035271912186
 20
13.40909796311898
 10
17.39460271912186
 20
13.40909796311898
 10
17.39460271912186
 20
13.44159796311898
 10
16.99835271912186
 20
13.44159796311898
 10
16.99835271912186
 20
13.36137896311898
 10
16.93835271912186
 20
13.36137896311898
 10
16.93835271912186
 20
13.32022296311898
 97
       35
330
9A1
330
9A6
330
9A5
330
93E
330
9A8
330
8E0
330
9A0
330
9EF
330
9EE
330
9ED
330
9E5
330
9E4
330
946
330
948
330
947
330
9E6
330
22FB
330
2223
330
222B
330
2234
330
221A
330
94B
330
955
330
94D
330
2222
330
2221
330
221B
330
973
330
94F
330
951
330
8DD
330
950
330
952
330
953
330
8E2
 92
        7
 72
     1
 73
     1
 93
        9
 10
18.70785271912186
 20
6.134347963118987
 42
0.4142135623730951
 10
18.77035271912186
 20
6.196847963118987
 42
0.0
 10
18.77035271912186
 20
6.274972963118987
 42
0.0
 10
18.65035271912186
 20
6.274972963118987
 42
0.0
 10
18.65035271912186
 20
6.204347963118987
 42
0.0
 10
16.99835271912186
 20
6.204347963118987
 42
0.0
 10
16.99835271912186
 20
6.154347963118986
 42
0.0
 10
17.03835271912186
 20
6.154347963118986
 42
0.0
 10
17.03835271912186
 20
6.134347963118988
 42
0.0
 97
        9
330
8E2
330
954
330
952
330
949
330
8DD
330
8DB
330
8DC
330
8E1
330
8DF
 75
     0
 76
     1
 52
0.0
 41
0.625
 77
     0
 78
     1
 53
45.0
 43
0.0
 44
-0.3642556505285341
 45
-0.055242717280199
 46
0.055242717280199
 79
     0
 47
0.0142212078955962
 98
        3
 10
17.57579675413593
 20
13.75701221160285
 10
17.50463332002057
 20
13.35881841540816
 10
18.14510502832125
 20
6.162887149249591
  0
ENDSEC
  0
SECTION
  2
OBJECTS
  0
DICTIONARY
  5
C
330
0
100
AcDbDictionary
281
     1
  3
ACAD_GROUP
350
D
  3
ACAD_LAYOUT
350
19
  3
ACAD_MLINESTYLE
350
16
  3
ACAD_PLOTSETTINGS
350
18
  3
ACAD_PLOTSTYLENAME
350
E
  3
AcadDim
350
192C
  3
AcDbVariableDictionary
350
192F
  0
DICTIONARY
  5
D
102
{ACAD_REACTORS
330
C
102
}
330
C
100
AcDbDictionary
281
     1
  0
DICTIONARY
  5
19
102
{ACAD_REACTORS
330
C
102
}
330
C
100
AcDbDictionary
281
     1
  3
Layout1
350
1D
  3
Model
350
21
  0
DICTIONARY
  5
16
102
{ACAD_REACTORS
330
C
102
}
330
C
100
AcDbDictionary
281
     1
  3
Standard
350
17
  0
DICTIONARY
  5
18
102
{ACAD_REACTORS
330
C
102
}
330
C
100
AcDbDictionary
281
     1
  0
ACDBDICTIONARYWDFLT
  5
E
102
{ACAD_REACTORS
330
C
102
}
330
C
100
AcDbDictionary
281
     1
  3
Normal
350
F
100
AcDbDictionaryWithDefault
340
F
  0
XRECORD
  5
192C
102
{ACAD_REACTORS
330
C
102
}
330
C
100
AcDbXrecord
280
     1
 90
   990106
  3

 60
     0
 61
     0
 62
     1
 63
     1
 64
     0
 65
     0
 66
     0
 67
     3
 68
     1
 69
     0
 70
     0
 71
     0
 72
     0
 40
0.0
170
     2
340
20AB
  0
DICTIONARY
  5
192F
102
{ACAD_REACTORS
330
C
102
}
330
C
100
AcDbDictionary
281
     1
  3
SORTENTS
350
1930
  0
LAYOUT
  5
1D
102
{ACAD_REACTORS
330
19
102
}
330
19
100
AcDbPlotSettings
  1

  2
C:\Program Files\ACAD2000\plotters\RICOH Aficio 1060 RPCS.pc3
  4

  6

 40
0.0
 41
0.0
 42
0.0
 43
0.0
 44
0.0
 45
0.0
 46
0.0
 47
0.0
 48
0.0
 49
0.0
140
0.0
141
0.0
142
1.0
143
1.0
 70
   688
 72
     0
 73
     0
 74
     5
  7
monochrome.ctb
 75
    16
147
1.0
148
0.0
149
0.0
100
AcDbLayout
  1
Layout1
 70
     1
 71
     1
 10
0.0
 20
0.0
 11
12.0
 21
9.0
 12
0.0
 22
0.0
 32
0.0
 14
1.000000000000000E+20
 24
1.000000000000000E+20
 34
1.000000000000000E+20
 15
-1.000000000000000E+20
 25
-1.000000000000000E+20
 35
-1.000000000000000E+20
146
0.0
 13
0.0
 23
0.0
 33
0.0
 16
1.0
 26
0.0
 36
0.0
 17
0.0
 27
1.0
 37
0.0
 76
     0
330
1A
  0
LAYOUT
  5
21
102
{ACAD_REACTORS
330
19
102
}
330
19
100
AcDbPlotSettings
  1

  2
Acrobat PDFWriter
  4
Tabloid
  6

 40
3.174999952316284
 41
3.174999952316284
 42
3.17498779296875
 43
3.17498779296875
 44
431.8000183105469
 45
279.3999938964843
 46
0.0
 47
4.064
 48
0.0
 49
0.0
140
0.0
141
0.0
142
1.0
143
2.477719643495883
 70
 11956
 72
     0
 73
     0
 74
     1
  7
monochrome.ctb
 75
     0
147
0.4035969132444187
148
0.0278643051019657
149
0.0199883084803574
100
AcDbLayout
  1
Model
 70
     1
 71
     0
 10
0.0
 20
0.0
 11
12.0
 21
9.0
 12
0.0
 22
0.0
 32
0.0
 14
0.0
 24
0.0
 34
0.0
 15
0.0
 25
0.0
 35
0.0
146
0.0
 13
0.0
 23
0.0
 33
0.0
 16
1.0
 26
0.0
 36
0.0
 17
0.0
 27
1.0
 37
0.0
 76
     0
330
1E
  0
MLINESTYLE
  5
17
102
{ACAD_REACTORS
330
16
102
}
330
16
100
AcDbMlineStyle
  2
STANDARD
 70
     0
  3

 62
   256
 51
90.0
 52
90.0
 71
     2
 49
0.5
 62
   256
  6
BYLAYER
 49
-0.5
 62
   256
  6
BYLAYER
  0
ACDBPLACEHOLDER
  5
F
102
{ACAD_REACTORS
330
E
102
}
330
E
  0
DICTIONARYVAR
  5
1930
102
{ACAD_REACTORS
330
192F
102
}
330
192F
100
DictionaryVariables
280
     0
  1
96
  0
ENDSEC
  0
EOF
