  0
SECTION
  2
HEADER
  9
$ACADVER
  1
AC1015
  9
$ACADMAINTVER
 70
     6
  9
$DWGCODEPAGE
  3
ANSI_1252
  9
$INSBASE
 10
0.0
 20
0.0
 30
0.0
  9
$EXTMIN
 10
0.0
 20
0.0
 30
-0.00000001
  9
$EXTMAX
 10
24.89999999999999
 20
15.49199999999999
 30
0.00000001
  9
$LIMMIN
 10
0.0
 20
0.0
  9
$LIMMAX
 10
23.25
 20
15.17999999999999
  9
$ORTHOMODE
 70
     1
  9
$REGENMODE
 70
     1
  9
$FILLMODE
 70
     1
  9
$QTEXTMODE
 70
     0
  9
$MIRRTEXT
 70
     0
  9
$LTSCALE
 40
0.312
  9
$ATTMODE
 70
     1
  9
$TEXTSIZE
 40
0.2
  9
$TRACEWID
 40
0.05
  9
$TEXTSTYLE
  7
TXT
  9
$CLAYER
  8
OBJECT
  9
$CELTYPE
  6
ByLayer
  9
$CECOLOR
 62
   256
  9
$CELTSCALE
 40
1.0
  9
$DISPSILH
 70
     0
  9
$DIMSCALE
 40
1.5
  9
$DIMASZ
 40
0.18
  9
$DIMEXO
 40
0.063
  9
$DIMDLI
 40
0.281
  9
$DIMRND
 40
0.0
  9
$DIMDLE
 40
0.0
  9
$DIMEXE
 40
0.093
  9
$DIMTP
 40
0.0
  9
$DIMTM
 40
0.0
  9
$DIMTXT
 40
0.125
  9
$DIMCEN
 40
0.09
  9
$DIMTSZ
 40
0.0
  9
$DIMTOL
 70
     0
  9
$DIMLIM
 70
     0
  9
$DIMTIH
 70
     1
  9
$DIMTOH
 70
     1
  9
$DIMSE1
 70
     0
  9
$DIMSE2
 70
     0
  9
$DIMTAD
 70
     0
  9
$DIMZIN
 70
     0
  9
$DIMBLK
  1

  9
$DIMASO
 70
     1
  9
$DIMSHO
 70
     1
  9
$DIMPOST
  1

  9
$DIMAPOST
  1

  9
$DIMALT
 70
     0
  9
$DIMALTD
 70
     2
  9
$DIMALTF
 40
25.4
  9
$DIMLFAC
 40
1.0
  9
$DIMTOFL
 70
     0
  9
$DIMTVP
 40
0.0
  9
$DIMTIX
 70
     0
  9
$DIMSOXD
 70
     0
  9
$DIMSAH
 70
     0
  9
$DIMBLK1
  1

  9
$DIMBLK2
  1

  9
$DIMSTYLE
  2
23NSTD
  9
$DIMCLRD
 70
     0
  9
$DIMCLRE
 70
     0
  9
$DIMCLRT
 70
     0
  9
$DIMTFAC
 40
1.0
  9
$DIMGAP
 40
0.09
  9
$DIMJUST
 70
     0
  9
$DIMSD1
 70
     0
  9
$DIMSD2
 70
     0
  9
$DIMTOLJ
 70
     1
  9
$DIMTZIN
 70
     0
  9
$DIMALTZ
 70
     0
  9
$DIMALTTZ
 70
     0
  9
$DIMUPT
 70
     0
  9
$DIMDEC
 70
     3
  9
$DIMTDEC
 70
     3
  9
$DIMALTU
 70
     2
  9
$DIMALTTD
 70
     2
  9
$DIMTXSTY
  7
TXT
  9
$DIMAUNIT
 70
     0
  9
$DIMADEC
 70
     0
  9
$DIMALTRND
 40
0.0
  9
$DIMAZIN
 70
     0
  9
$DIMDSEP
 70
    46
  9
$DIMATFIT
 70
     1
  9
$DIMFRAC
 70
     0
  9
$DIMLDRBLK
  1

  9
$DIMLUNIT
 70
     2
  9
$DIMLWD
 70
    -2
  9
$DIMLWE
 70
    -2
  9
$DIMTMOVE
 70
     0
  9
$LUNITS
 70
     2
  9
$LUPREC
 70
     3
  9
$SKETCHINC
 40
0.1
  9
$FILLETRAD
 40
0.0
  9
$AUNITS
 70
     0
  9
$AUPREC
 70
     0
  9
$MENU
  1
acad
  9
$ELEVATION
 40
0.0
  9
$PELEVATION
 40
0.0
  9
$THICKNESS
 40
0.0
  9
$LIMCHECK
 70
     0
  9
$CHAMFERA
 40
0.0
  9
$CHAMFERB
 40
0.0
  9
$CHAMFERC
 40
0.0
  9
$CHAMFERD
 40
0.0
  9
$SKPOLY
 70
     0
  9
$TDCREATE
 40
2450114.378905787
  9
$TDUCREATE
 40
2450114.587239120
  9
$TDUPDATE
 40
2454788.496914594
  9
$TDUUPDATE
 40
2454788.705247928
  9
$TDINDWG
 40
0.1768671759
  9
$TDUSRTIMER
 40
0.1768671759
  9
$USRTIMER
 70
     1
  9
$ANGBASE
 50
0.0
  9
$ANGDIR
 70
     0
  9
$PDMODE
 70
     0
  9
$PDSIZE
 40
0.0
  9
$PLINEWID
 40
0.0
  9
$SPLFRAME
 70
     0
  9
$SPLINETYPE
 70
     6
  9
$SPLINESEGS
 70
     8
  9
$HANDSEED
  5
12D7
  9
$SURFTAB1
 70
     6
  9
$SURFTAB2
 70
     6
  9
$SURFTYPE
 70
     6
  9
$SURFU
 70
     6
  9
$SURFV
 70
     6
  9
$UCSBASE
  2

  9
$UCSNAME
  2

  9
$UCSORG
 10
0.0
 20
0.0
 30
0.0
  9
$UCSXDIR
 10
1.0
 20
0.0
 30
0.0
  9
$UCSYDIR
 10
0.0
 20
1.0
 30
0.0
  9
$UCSORTHOREF
  2

  9
$UCSORTHOVIEW
 70
     0
  9
$UCSORGTOP
 10
0.0
 20
0.0
 30
0.0
  9
$UCSORGBOTTOM
 10
0.0
 20
0.0
 30
0.0
  9
$UCSORGLEFT
 10
0.0
 20
0.0
 30
0.0
  9
$UCSORGRIGHT
 10
0.0
 20
0.0
 30
0.0
  9
$UCSORGFRONT
 10
0.0
 20
0.0
 30
0.0
  9
$UCSORGBACK
 10
0.0
 20
0.0
 30
0.0
  9
$PUCSBASE
  2

  9
$PUCSNAME
  2

  9
$PUCSORG
 10
0.0
 20
0.0
 30
0.0
  9
$PUCSXDIR
 10
1.0
 20
0.0
 30
0.0
  9
$PUCSYDIR
 10
0.0
 20
1.0
 30
0.0
  9
$PUCSORTHOREF
  2

  9
$PUCSORTHOVIEW
 70
     0
  9
$PUCSORGTOP
 10
0.0
 20
0.0
 30
0.0
  9
$PUCSORGBOTTOM
 10
0.0
 20
0.0
 30
0.0
  9
$PUCSORGLEFT
 10
0.0
 20
0.0
 30
0.0
  9
$PUCSORGRIGHT
 10
0.0
 20
0.0
 30
0.0
  9
$PUCSORGFRONT
 10
0.0
 20
0.0
 30
0.0
  9
$PUCSORGBACK
 10
0.0
 20
0.0
 30
0.0
  9
$USERI1
 70
     0
  9
$USERI2
 70
     0
  9
$USERI3
 70
     0
  9
$USERI4
 70
     0
  9
$USERI5
 70
     0
  9
$USERR1
 40
0.0
  9
$USERR2
 40
0.0
  9
$USERR3
 40
0.0
  9
$USERR4
 40
0.0
  9
$USERR5
 40
0.0
  9
$WORLDVIEW
 70
     1
  9
$SHADEDGE
 70
     3
  9
$SHADEDIF
 70
    70
  9
$TILEMODE
 70
     1
  9
$MAXACTVP
 70
    16
  9
$PINSBASE
 10
0.0
 20
0.0
 30
0.0
  9
$PLIMCHECK
 70
     0
  9
$PEXTMIN
 10
1.000000000000000E+20
 20
1.000000000000000E+20
 30
1.000000000000000E+20
  9
$PEXTMAX
 10
-1.000000000000000E+20
 20
-1.000000000000000E+20
 30
-1.000000000000000E+20
  9
$PLIMMIN
 10
0.0
 20
0.0
  9
$PLIMMAX
 10
12.0
 20
9.0
  9
$UNITMODE
 70
     0
  9
$VISRETAIN
 70
     0
  9
$PLINEGEN
 70
     0
  9
$PSLTSCALE
 70
     1
  9
$TREEDEPTH
 70
  3020
  9
$CMLSTYLE
  2
Standard
  9
$CMLJUST
 70
     0
  9
$CMLSCALE
 40
1.0
  9
$PROXYGRAPHICS
 70
     1
  9
$MEASUREMENT
 70
     0
  9
$CELWEIGHT
370
    -1
  9
$ENDCAPS
280
     0
  9
$JOINSTYLE
280
     0
  9
$LWDISPLAY
290
     0
  9
$INSUNITS
 70
     0
  9
$HYPERLINKBASE
  1

  9
$STYLESHEET
  1
monochrome.ctb
  9
$XEDIT
290
     1
  9
$CEPSNTYPE
380
     0
  9
$PSTYLEMODE
290
     1
  9
$FINGERPRINTGUID
  2
{0DDB1D8C-0E30-4FFF-98FB-FFEF75ED2A30}
  9
$VERSIONGUID
  2
{8792F850-2B15-4F3D-AB00-59C909705A24}
  9
$EXTNAMES
290
     1
  9
$PSVPSCALE
 40
0.0
  9
$OLESTARTUP
290
     0
  0
ENDSEC
  0
SECTION
  2
CLASSES
  0
CLASS
  1
ACDBDICTIONARYWDFLT
  2
AcDbDictionaryWithDefault
  3
AutoCAD 2000
 90
        0
280
     0
281
     0
  0
CLASS
  1
ACDBPLACEHOLDER
  2
AcDbPlaceHolder
  3
AutoCAD 2000
 90
        0
280
     0
281
     0
  0
CLASS
  1
LAYOUT
  2
AcDbLayout
  3
AutoCAD 2000
 90
        0
280
     0
281
     0
  0
CLASS
  1
DICTIONARYVAR
  2
AcDbDictionaryVar
  3
AutoCAD 2000
 90
        0
280
     0
281
     0
  0
ENDSEC
  0
SECTION
  2
TABLES
  0
TABLE
  2
VPORT
  5
8
330
0
100
AcDbSymbolTable
 70
     2
  0
VPORT
  5
12D6
330
8
100
AcDbSymbolTableRecord
100
AcDbViewportTableRecord
  2
*Active
 70
     0
 10
0.0
 20
0.0
 11
1.0
 21
1.0
 12
12.44905034331465
 22
7.745409153358668
 13
0.0
 23
0.0
 14
1.0
 24
1.0
 15
0.25
 25
0.25
 16
0.0
 26
0.0
 36
1.0
 17
0.0
 27
0.0
 37
0.0
 40
15.65666179497172
 41
1.796327212020033
 42
50.0
 43
0.0
 44
0.0
 50
0.0
 51
0.0
 71
     0
 72
   500
 73
     1
 74
     0
 75
     0
 76
     0
 77
     0
 78
     0
281
     0
 65
     1
110
0.0
120
0.0
130
0.0
111
1.0
121
0.0
131
0.0
112
0.0
122
1.0
132
0.0
 79
     0
146
0.0
  0
ENDTAB
  0
TABLE
  2
LTYPE
  5
5
330
0
100
AcDbSymbolTable
 70
     6
  0
LTYPE
  5
13
330
5
100
AcDbSymbolTableRecord
100
AcDbLinetypeTableRecord
  2
ByBlock
 70
     0
  3

 72
    65
 73
     0
 40
0.0
  0
LTYPE
  5
14
330
5
100
AcDbSymbolTableRecord
100
AcDbLinetypeTableRecord
  2
ByLayer
 70
     0
  3

 72
    65
 73
     0
 40
0.0
  0
LTYPE
  5
15
330
5
100
AcDbSymbolTableRecord
100
AcDbLinetypeTableRecord
  2
CONTINUOUS
 70
     0
  3
Solid line
 72
    65
 73
     0
 40
0.0
  0
LTYPE
  5
25
330
5
100
AcDbSymbolTableRecord
100
AcDbLinetypeTableRecord
  2
HIDDEN
 70
     0
  3
_ _ _ _ _ _ _ _ _ _ _ _ _ _ _ _ _ _ _ _ _ _ _
 72
    65
 73
     2
 40
0.375
 49
0.25
 74
     0
 49
-0.125
 74
     0
  0
LTYPE
  5
26
330
5
100
AcDbSymbolTableRecord
100
AcDbLinetypeTableRecord
  2
PHANTOM
 70
     0
  3
_____ _ _ _____ _ _ _____ _ _ _____ _ _ ____
 72
    65
 73
     6
 40
2.5
 49
1.25
 74
     0
 49
-0.25
 74
     0
 49
0.25
 74
     0
 49
-0.25
 74
     0
 49
0.25
 74
     0
 49
-0.25
 74
     0
  0
LTYPE
  5
27
330
5
100
AcDbSymbolTableRecord
100
AcDbLinetypeTableRecord
  2
CENTER
 70
     0
  3
____ _ ____ _ ____ _ ____ _ ____ _ ____ _ ____
 72
    65
 73
     4
 40
2.0
 49
1.25
 74
     0
 49
-0.25
 74
     0
 49
0.25
 74
     0
 49
-0.25
 74
     0
  0
LTYPE
  5
10C5
330
5
100
AcDbSymbolTableRecord
100
AcDbLinetypeTableRecord
  2
HIDDEN2
 70
     0
  3
_ _ _ _ _ _ _ _ _ _ _ _ _ _ _ _ _ _ _ _ _ _ _ _
 72
    65
 73
     2
 40
0.1875
 49
0.125
 74
     0
 49
-0.0625
 74
     0
  0
LTYPE
  5
10C6
330
5
100
AcDbSymbolTableRecord
100
AcDbLinetypeTableRecord
  2
PHANTOM2
 70
     0
  3
___ _ _ ___ _ _ ___ _ _ ___ _ _ ___ _ _ ___ _ _
 72
    65
 73
     6
 40
1.25
 49
0.625
 74
     0
 49
-0.125
 74
     0
 49
0.125
 74
     0
 49
-0.125
 74
     0
 49
0.125
 74
     0
 49
-0.125
 74
     0
  0
ENDTAB
  0
TABLE
  2
LAYER
  5
2
330
0
100
AcDbSymbolTable
 70
     9
  0
LAYER
  5
10
330
2
100
AcDbSymbolTableRecord
100
AcDbLayerTableRecord
  2
0
 70
     0
 62
     7
  6
CONTINUOUS
370
    -3
390
F
  0
LAYER
  5
22
330
2
100
AcDbSymbolTableRecord
100
AcDbLayerTableRecord
  2
OBJECT
 70
     0
 62
     7
  6
CONTINUOUS
370
    -3
390
F
  0
LAYER
  5
28
330
2
100
AcDbSymbolTableRecord
100
AcDbLayerTableRecord
  2
DIM
 70
     0
 62
     2
  6
CONTINUOUS
370
    -3
390
F
  0
LAYER
  5
29
330
2
100
AcDbSymbolTableRecord
100
AcDbLayerTableRecord
  2
HIDDEN
 70
     0
 62
     6
  6
HIDDEN
370
    -3
390
F
  0
LAYER
  5
2A
330
2
100
AcDbSymbolTableRecord
100
AcDbLayerTableRecord
  2
BEND
 70
     0
 62
     4
  6
PHANTOM
370
    -3
390
F
  0
LAYER
  5
2B
330
2
100
AcDbSymbolTableRecord
100
AcDbLayerTableRecord
  2
TEXT
 70
     0
 62
     1
  6
CONTINUOUS
370
    -3
390
F
  0
LAYER
  5
2C
330
2
100
AcDbSymbolTableRecord
100
AcDbLayerTableRecord
  2
TITLE
 70
     0
 62
     8
  6
CONTINUOUS
370
    -3
390
F
  0
LAYER
  5
2D
330
2
100
AcDbSymbolTableRecord
100
AcDbLayerTableRecord
  2
CENTER
 70
     0
 62
     3
  6
CENTER
370
    -3
390
F
  0
LAYER
  5
2E
330
2
100
AcDbSymbolTableRecord
100
AcDbLayerTableRecord
  2
DEFPOINTS
 70
     0
 62
     7
  6
CONTINUOUS
290
     0
370
    -3
390
F
  0
ENDTAB
  0
TABLE
  2
STYLE
  5
3
330
0
100
AcDbSymbolTable
 70
     2
  0
STYLE
  5
11
330
3
100
AcDbSymbolTableRecord
100
AcDbTextStyleTableRecord
  2
TXT
 70
     0
 40
0.0
 41
0.75
 50
0.0
 71
     0
 42
0.2
  3
txt.shx
  4

  0
STYLE
  5
2F
330
3
100
AcDbSymbolTableRecord
100
AcDbTextStyleTableRecord
  2
SECTION
 70
     0
 40
0.0
 41
0.8
 50
0.0
 71
     0
 42
0.2
  3
ROMANT.SHX
  4

  0
ENDTAB
  0
TABLE
  2
VIEW
  5
6
330
0
100
AcDbSymbolTable
 70
     0
  0
ENDTAB
  0
TABLE
  2
UCS
  5
7
330
0
100
AcDbSymbolTable
 70
     0
  0
ENDTAB
  0
TABLE
  2
APPID
  5
9
330
0
100
AcDbSymbolTable
 70
     1
  0
APPID
  5
12
330
9
100
AcDbSymbolTableRecord
100
AcDbRegAppTableRecord
  2
ACAD
 70
     0
  0
ENDTAB
  0
TABLE
  2
DIMSTYLE
  5
A
330
0
100
AcDbSymbolTable
 70
     4
100
AcDbDimStyleTable
 71
     4
340
30
340
31
340
33
340
32
  0
DIMSTYLE
105
30
102
{ACAD_REACTORS
330
5D7
330
5E5
330
5F3
330
601
330
60F
330
61D
330
62B
330
639
330
655
330
671
330
67F
330
69B
330
6A9
330
6B7
330
770
330
7C2
330
7DE
330
7EC
330
808
330
82B
330
839
330
862
330
870
330
87E
330
88C
330
89A
330
8A8
330
8BE
330
900
330
990
330
99E
102
}
330
A
100
AcDbSymbolTableRecord
100
AcDbDimStyleTableRecord
  2
23NSTD
 70
     0
 40
1.5
 42
0.063
 43
0.281
 44
0.093
140
0.125
271
     3
272
     3
289
     1
340
11
  0
DIMSTYLE
105
31
102
{ACAD_REACTORS
330
647
330
663
330
68D
330
7D0
330
7FA
330
847
330
90E
330
91E
102
}
330
A
100
AcDbSymbolTableRecord
100
AcDbDimStyleTableRecord
  2
23NSTDI
 70
     0
 40
1.5
 42
0.063
 43
0.281
 44
0.093
140
0.125
174
     1
271
     3
272
     3
340
11
  0
DIMSTYLE
105
32
102
{ACAD_REACTORS
330
9F3
330
A5E
102
}
330
A
100
AcDbSymbolTableRecord
100
AcDbDimStyleTableRecord
  2
23NSTD4
 70
     0
 40
1.5
 42
0.063
 43
0.281
 44
0.093
140
0.125
144
0.25
271
     3
272
     3
289
     1
340
11
  0
DIMSTYLE
105
33
102
{ACAD_REACTORS
330
A42
330
A50
330
A6C
102
}
330
A
100
AcDbSymbolTableRecord
100
AcDbDimStyleTableRecord
  2
23NSTD4I
 70
     0
 40
1.5
 42
0.063
 43
0.281
 44
0.093
140
0.125
144
0.25
174
     1
271
     3
272
     3
340
11
  0
ENDTAB
  0
TABLE
  2
BLOCK_RECORD
  5
1
330
0
100
AcDbSymbolTable
 70
    46
  0
BLOCK_RECORD
  5
1E
330
1
100
AcDbSymbolTableRecord
100
AcDbBlockTableRecord
  2
*Model_Space
340
21
  0
BLOCK_RECORD
  5
1A
330
1
100
AcDbSymbolTableRecord
100
AcDbBlockTableRecord
  2
*Paper_Space
340
1D
  0
BLOCK_RECORD
  5
36
330
1
100
AcDbSymbolTableRecord
100
AcDbBlockTableRecord
  2
SECTION
340
0
102
{BLKREFS
331
75E
331
76D
331
8CC
331
8CF
102
}
  0
BLOCK_RECORD
  5
5D8
330
1
100
AcDbSymbolTableRecord
100
AcDbBlockTableRecord
  2
*D1
340
0
  0
BLOCK_RECORD
  5
5E6
330
1
100
AcDbSymbolTableRecord
100
AcDbBlockTableRecord
  2
*D2
340
0
  0
BLOCK_RECORD
  5
5F4
330
1
100
AcDbSymbolTableRecord
100
AcDbBlockTableRecord
  2
*D3
340
0
  0
BLOCK_RECORD
  5
602
330
1
100
AcDbSymbolTableRecord
100
AcDbBlockTableRecord
  2
*D4
340
0
  0
BLOCK_RECORD
  5
610
330
1
100
AcDbSymbolTableRecord
100
AcDbBlockTableRecord
  2
*D5
340
0
  0
BLOCK_RECORD
  5
61E
330
1
100
AcDbSymbolTableRecord
100
AcDbBlockTableRecord
  2
*D6
340
0
  0
BLOCK_RECORD
  5
62C
330
1
100
AcDbSymbolTableRecord
100
AcDbBlockTableRecord
  2
*D7
340
0
  0
BLOCK_RECORD
  5
63A
330
1
100
AcDbSymbolTableRecord
100
AcDbBlockTableRecord
  2
*D8
340
0
  0
BLOCK_RECORD
  5
648
330
1
100
AcDbSymbolTableRecord
100
AcDbBlockTableRecord
  2
*D9
340
0
  0
BLOCK_RECORD
  5
656
330
1
100
AcDbSymbolTableRecord
100
AcDbBlockTableRecord
  2
*D10
340
0
  0
BLOCK_RECORD
  5
664
330
1
100
AcDbSymbolTableRecord
100
AcDbBlockTableRecord
  2
*D11
340
0
  0
BLOCK_RECORD
  5
672
330
1
100
AcDbSymbolTableRecord
100
AcDbBlockTableRecord
  2
*D12
340
0
  0
BLOCK_RECORD
  5
680
330
1
100
AcDbSymbolTableRecord
100
AcDbBlockTableRecord
  2
*D13
340
0
  0
BLOCK_RECORD
  5
68E
330
1
100
AcDbSymbolTableRecord
100
AcDbBlockTableRecord
  2
*D14
340
0
  0
BLOCK_RECORD
  5
69C
330
1
100
AcDbSymbolTableRecord
100
AcDbBlockTableRecord
  2
*D15
340
0
  0
BLOCK_RECORD
  5
6AA
330
1
100
AcDbSymbolTableRecord
100
AcDbBlockTableRecord
  2
*D16
340
0
  0
BLOCK_RECORD
  5
6B8
330
1
100
AcDbSymbolTableRecord
100
AcDbBlockTableRecord
  2
*D17
340
0
  0
BLOCK_RECORD
  5
771
330
1
100
AcDbSymbolTableRecord
100
AcDbBlockTableRecord
  2
*D18
340
0
  0
BLOCK_RECORD
  5
7C3
330
1
100
AcDbSymbolTableRecord
100
AcDbBlockTableRecord
  2
*D19
340
0
  0
BLOCK_RECORD
  5
7D1
330
1
100
AcDbSymbolTableRecord
100
AcDbBlockTableRecord
  2
*D20
340
0
  0
BLOCK_RECORD
  5
7DF
330
1
100
AcDbSymbolTableRecord
100
AcDbBlockTableRecord
  2
*D21
340
0
  0
BLOCK_RECORD
  5
7ED
330
1
100
AcDbSymbolTableRecord
100
AcDbBlockTableRecord
  2
*D22
340
0
  0
BLOCK_RECORD
  5
7FB
330
1
100
AcDbSymbolTableRecord
100
AcDbBlockTableRecord
  2
*D23
340
0
  0
BLOCK_RECORD
  5
809
330
1
100
AcDbSymbolTableRecord
100
AcDbBlockTableRecord
  2
*D24
340
0
  0
BLOCK_RECORD
  5
82C
330
1
100
AcDbSymbolTableRecord
100
AcDbBlockTableRecord
  2
*D25
340
0
  0
BLOCK_RECORD
  5
83A
330
1
100
AcDbSymbolTableRecord
100
AcDbBlockTableRecord
  2
*D26
340
0
  0
BLOCK_RECORD
  5
848
330
1
100
AcDbSymbolTableRecord
100
AcDbBlockTableRecord
  2
*D27
340
0
  0
BLOCK_RECORD
  5
863
330
1
100
AcDbSymbolTableRecord
100
AcDbBlockTableRecord
  2
*D28
340
0
  0
BLOCK_RECORD
  5
871
330
1
100
AcDbSymbolTableRecord
100
AcDbBlockTableRecord
  2
*D29
340
0
  0
BLOCK_RECORD
  5
87F
330
1
100
AcDbSymbolTableRecord
100
AcDbBlockTableRecord
  2
*D30
340
0
  0
BLOCK_RECORD
  5
88D
330
1
100
AcDbSymbolTableRecord
100
AcDbBlockTableRecord
  2
*D31
340
0
  0
BLOCK_RECORD
  5
89B
330
1
100
AcDbSymbolTableRecord
100
AcDbBlockTableRecord
  2
*D32
340
0
  0
BLOCK_RECORD
  5
8A9
330
1
100
AcDbSymbolTableRecord
100
AcDbBlockTableRecord
  2
*D33
340
0
  0
BLOCK_RECORD
  5
8BF
330
1
100
AcDbSymbolTableRecord
100
AcDbBlockTableRecord
  2
*D34
340
0
  0
BLOCK_RECORD
  5
901
330
1
100
AcDbSymbolTableRecord
100
AcDbBlockTableRecord
  2
*D35
340
0
  0
BLOCK_RECORD
  5
90F
330
1
100
AcDbSymbolTableRecord
100
AcDbBlockTableRecord
  2
*D36
340
0
  0
BLOCK_RECORD
  5
91F
330
1
100
AcDbSymbolTableRecord
100
AcDbBlockTableRecord
  2
*D37
340
0
  0
BLOCK_RECORD
  5
991
330
1
100
AcDbSymbolTableRecord
100
AcDbBlockTableRecord
  2
*D38
340
0
  0
BLOCK_RECORD
  5
99F
330
1
100
AcDbSymbolTableRecord
100
AcDbBlockTableRecord
  2
*D39
340
0
  0
BLOCK_RECORD
  5
9F4
330
1
100
AcDbSymbolTableRecord
100
AcDbBlockTableRecord
  2
*D40
340
0
  0
BLOCK_RECORD
  5
A43
330
1
100
AcDbSymbolTableRecord
100
AcDbBlockTableRecord
  2
*D41
340
0
  0
BLOCK_RECORD
  5
A51
330
1
100
AcDbSymbolTableRecord
100
AcDbBlockTableRecord
  2
*D42
340
0
  0
BLOCK_RECORD
  5
A5F
330
1
100
AcDbSymbolTableRecord
100
AcDbBlockTableRecord
  2
*D43
340
0
  0
BLOCK_RECORD
  5
A6D
330
1
100
AcDbSymbolTableRecord
100
AcDbBlockTableRecord
  2
*D44
340
0
  0
BLOCK_RECORD
  5
10C7
330
1
100
AcDbSymbolTableRecord
100
AcDbBlockTableRecord
  2
HBS
340
0
102
{BLKREFS
331
10E0
102
}
  0
ENDTAB
  0
ENDSEC
  0
SECTION
  2
BLOCKS
  0
BLOCK
  5
1F
330
1E
100
AcDbEntity
  8
0
100
AcDbBlockBegin
  2
*Model_Space
 70
     0
 10
0.0
 20
0.0
 30
0.0
  3
*Model_Space
  1

  0
ENDBLK
  5
20
330
1E
100
AcDbEntity
  8
0
100
AcDbBlockEnd
  0
BLOCK
  5
1B
330
1A
100
AcDbEntity
 67
     1
  8
0
100
AcDbBlockBegin
  2
*Paper_Space
 70
     0
 10
0.0
 20
0.0
 30
0.0
  3
*Paper_Space
  1

  0
ENDBLK
  5
1C
330
1A
100
AcDbEntity
 67
     1
  8
0
100
AcDbBlockEnd
  0
BLOCK
  5
37
330
36
100
AcDbEntity
  8
0
100
AcDbBlockBegin
  2
SECTION
 70
     2
 10
0.0
 20
0.0
 30
0.0
  3
SECTION
  1

  0
ATTDEF
  5
38
330
36
100
AcDbEntity
  8
0
100
AcDbText
 10
0.0
 20
0.0
 30
0.0
 40
0.25
  1

 50
270.0
 41
0.8
  7
SECTION
 72
     4
 11
0.0
 21
0.0
 31
0.0
100
AcDbAttributeDefinition
  3
Enter section
  2
SECTION
 70
     0
  0
ENDBLK
  5
39
330
36
100
AcDbEntity
  8
0
100
AcDbBlockEnd
  0
BLOCK
  5
5E3
330
5D8
100
AcDbEntity
  8
0
100
AcDbBlockBegin
  2
*D1
 70
     1
 10
0.0
 20
0.0
 30
0.0
  3
*D1
  1

  0
LINE
  5
D64
330
5D8
100
AcDbEntity
  8
DIM
 62
     0
370
    -2
100
AcDbLine
 10
2.379293
 20
7.579774999999999
 30
0.0
 11
0.9274389999999998
 21
7.579775
 31
0.0
  0
LINE
  5
D65
330
5D8
100
AcDbEntity
  8
DIM
 62
     0
370
    -2
100
AcDbLine
 10
2.362042999999999
 20
7.815775
 30
0.0
 11
0.9274389999999998
 21
7.815775000000001
 31
0.0
  0
LINE
  5
D66
330
5D8
100
AcDbEntity
  8
DIM
 62
     0
370
    -2
100
AcDbLine
 10
1.066938999999999
 20
7.309775
 30
0.0
 11
1.066938999999999
 21
7.039775
 31
0.0
  0
LINE
  5
D67
330
5D8
100
AcDbEntity
  8
DIM
 62
     0
370
    -2
100
AcDbLine
 10
1.066938999999999
 20
8.085775000000001
 30
0.0
 11
1.066938999999999
 21
8.355775000000001
 31
0.0
  0
LINE
  5
D68
330
5D8
100
AcDbEntity
  8
DIM
 62
     0
370
    -2
100
AcDbLine
 10
1.066938999999999
 20
8.355775000000001
 30
0.0
 11
1.336938999999999
 21
8.355775000000001
 31
0.0
  0
SOLID
  5
D69
330
5D8
100
AcDbEntity
  8
DIM
 62
     0
100
AcDbTrace
 10
1.021938999999999
 20
7.309775
 30
0.0
 11
1.111938999999999
 21
7.309775
 31
0.0
 12
1.066938999999999
 22
7.579775
 32
0.0
 13
1.066938999999999
 23
7.579775
 33
0.0
  0
SOLID
  5
D6A
330
5D8
100
AcDbEntity
  8
DIM
 62
     0
100
AcDbTrace
 10
1.021938999999999
 20
8.085775000000001
 30
0.0
 11
1.111938999999999
 21
8.085775000000001
 31
0.0
 12
1.066938999999999
 22
7.815775000000001
 32
0.0
 13
1.066938999999999
 23
7.815775000000001
 33
0.0
  0
MTEXT
  5
D6B
330
5D8
100
AcDbEntity
  8
DIM
 62
     0
100
AcDbMText
 10
1.741470249999998
 20
8.355775000000001
 30
0.0
 40
0.1875
 41
0.0
 71
     5
 72
     1
  1
\A1;0.236
 73
     1
 44
1.0
  0
POINT
  5
D6C
330
5D8
100
AcDbEntity
  8
DEFPOINTS
 62
     0
100
AcDbPoint
 10
2.473793
 20
7.579774999999999
 30
0.0
  0
POINT
  5
D6D
330
5D8
100
AcDbEntity
  8
DEFPOINTS
 62
     0
100
AcDbPoint
 10
2.456542999999999
 20
7.815775
 30
0.0
  0
POINT
  5
D6E
330
5D8
100
AcDbEntity
  8
DEFPOINTS
 62
     0
100
AcDbPoint
 10
1.066938999999999
 20
7.815775000000001
 30
0.0
  0
ENDBLK
  5
5E4
330
5D8
100
AcDbEntity
  8
0
100
AcDbBlockEnd
  0
BLOCK
  5
5F1
330
5E6
100
AcDbEntity
  8
0
100
AcDbBlockBegin
  2
*D2
 70
     1
 10
0.0
 20
0.0
 30
0.0
  3
*D2
  1

  0
LINE
  5
DA1
330
5E6
100
AcDbEntity
  8
DIM
 62
     0
370
    -2
100
AcDbLine
 10
2.379293
 20
4.823775
 30
0.0
 11
0.9274389999999993
 21
4.823775000000001
 31
0.0
  0
LINE
  5
DA2
330
5E6
100
AcDbEntity
  8
DIM
 62
     0
370
    -2
100
AcDbLine
 10
2.379293
 20
7.579774999999999
 30
0.0
 11
0.9274389999999998
 21
7.579775
 31
0.0
  0
LINE
  5
DA3
330
5E6
100
AcDbEntity
  8
DIM
 62
     0
370
    -2
100
AcDbLine
 10
1.066938999999999
 20
5.093775
 30
0.0
 11
1.066938999999999
 21
5.973025
 31
0.0
  0
LINE
  5
DA4
330
5E6
100
AcDbEntity
  8
DIM
 62
     0
370
    -2
100
AcDbLine
 10
1.066938999999999
 20
7.309775
 30
0.0
 11
1.066938999999999
 21
6.430525
 31
0.0
  0
SOLID
  5
DA5
330
5E6
100
AcDbEntity
  8
DIM
 62
     0
100
AcDbTrace
 10
1.021938999999999
 20
5.093775
 30
0.0
 11
1.111938999999999
 21
5.093775
 31
0.0
 12
1.066938999999999
 22
4.823775000000001
 32
0.0
 13
1.066938999999999
 23
4.823775000000001
 33
0.0
  0
SOLID
  5
DA6
330
5E6
100
AcDbEntity
  8
DIM
 62
     0
100
AcDbTrace
 10
1.021938999999999
 20
7.309775
 30
0.0
 11
1.111938999999999
 21
7.309775
 31
0.0
 12
1.066938999999999
 22
7.579775
 32
0.0
 13
1.066938999999999
 23
7.579775
 33
0.0
  0
MTEXT
  5
DA7
330
5E6
100
AcDbEntity
  8
DIM
 62
     0
100
AcDbMText
 10
1.066938999999998
 20
6.201775
 30
0.0
 40
0.1875
 41
0.0
 71
     5
 72
     1
  1
\A1;2.756
 73
     1
 44
1.0
  0
POINT
  5
DA8
330
5E6
100
AcDbEntity
  8
DEFPOINTS
 62
     0
100
AcDbPoint
 10
2.473793
 20
4.823775
 30
0.0
  0
POINT
  5
DA9
330
5E6
100
AcDbEntity
  8
DEFPOINTS
 62
     0
100
AcDbPoint
 10
2.473793
 20
7.579774999999999
 30
0.0
  0
POINT
  5
DAA
330
5E6
100
AcDbEntity
  8
DEFPOINTS
 62
     0
100
AcDbPoint
 10
1.066938999999999
 20
7.579775
 30
0.0
  0
ENDBLK
  5
5F2
330
5E6
100
AcDbEntity
  8
0
100
AcDbBlockEnd
  0
BLOCK
  5
5FF
330
5F4
100
AcDbEntity
  8
0
100
AcDbBlockBegin
  2
*D3
 70
     1
 10
0.0
 20
0.0
 30
0.0
  3
*D3
  1

  0
LINE
  5
D5A
330
5F4
100
AcDbEntity
  8
DIM
 62
     0
370
    -2
100
AcDbLine
 10
2.473793
 20
7.674274999999999
 30
0.0
 11
2.473793
 21
9.808999
 31
0.0
  0
LINE
  5
D5B
330
5F4
100
AcDbEntity
  8
DIM
 62
     0
370
    -2
100
AcDbLine
 10
2.237792999999999
 20
7.691525
 30
0.0
 11
2.237792999999999
 21
9.808999
 31
0.0
  0
LINE
  5
D5C
330
5F4
100
AcDbEntity
  8
DIM
 62
     0
370
    -2
100
AcDbLine
 10
2.743793
 20
9.669499
 30
0.0
 11
3.013793
 21
9.669499
 31
0.0
  0
LINE
  5
D5D
330
5F4
100
AcDbEntity
  8
DIM
 62
     0
370
    -2
100
AcDbLine
 10
1.967792999999999
 20
9.669499
 30
0.0
 11
1.697792999999999
 21
9.669499
 31
0.0
  0
SOLID
  5
D5E
330
5F4
100
AcDbEntity
  8
DIM
 62
     0
100
AcDbTrace
 10
2.743793
 20
9.714498999999999
 30
0.0
 11
2.743793
 21
9.624499
 31
0.0
 12
2.473793
 22
9.669499
 32
0.0
 13
2.473793
 23
9.669499
 33
0.0
  0
SOLID
  5
D5F
330
5F4
100
AcDbEntity
  8
DIM
 62
     0
100
AcDbTrace
 10
1.967792999999999
 20
9.714498999999999
 30
0.0
 11
1.967792999999999
 21
9.624499
 31
0.0
 12
2.237792999999999
 22
9.669499
 32
0.0
 13
2.237792999999999
 23
9.669499
 33
0.0
  0
MTEXT
  5
D60
330
5F4
100
AcDbEntity
  8
DIM
 62
     0
100
AcDbMText
 10
1.293261749999999
 20
9.669499
 30
0.0
 40
0.1875
 41
0.0
 71
     5
 72
     1
  1
\A1;0.236
 73
     1
 44
1.0
  0
POINT
  5
D61
330
5F4
100
AcDbEntity
  8
DEFPOINTS
 62
     0
100
AcDbPoint
 10
2.473793
 20
7.579774999999999
 30
0.0
  0
POINT
  5
D62
330
5F4
100
AcDbEntity
  8
DEFPOINTS
 62
     0
100
AcDbPoint
 10
2.237792999999999
 20
7.597025
 30
0.0
  0
POINT
  5
D63
330
5F4
100
AcDbEntity
  8
DEFPOINTS
 62
     0
100
AcDbPoint
 10
2.237792999999999
 20
9.669499
 30
0.0
  0
ENDBLK
  5
600
330
5F4
100
AcDbEntity
  8
0
100
AcDbBlockEnd
  0
BLOCK
  5
60D
330
602
100
AcDbEntity
  8
0
100
AcDbBlockBegin
  2
*D4
 70
     1
 10
0.0
 20
0.0
 30
0.0
  3
*D4
  1

  0
LINE
  5
D50
330
602
100
AcDbEntity
  8
DIM
 62
     0
370
    -2
100
AcDbLine
 10
2.828793
 20
7.674274999999999
 30
0.0
 11
2.828793
 21
8.965999
 31
0.0
  0
LINE
  5
D51
330
602
100
AcDbEntity
  8
DIM
 62
     0
370
    -2
100
AcDbLine
 10
2.237792999999999
 20
7.691525
 30
0.0
 11
2.237792999999999
 21
8.965999
 31
0.0
  0
LINE
  5
D52
330
602
100
AcDbEntity
  8
DIM
 62
     0
370
    -2
100
AcDbLine
 10
3.098793
 20
8.826499
 30
0.0
 11
3.368793
 21
8.826499
 31
0.0
  0
LINE
  5
D53
330
602
100
AcDbEntity
  8
DIM
 62
     0
370
    -2
100
AcDbLine
 10
1.967792999999999
 20
8.826499
 30
0.0
 11
1.697792999999999
 21
8.826499
 31
0.0
  0
SOLID
  5
D54
330
602
100
AcDbEntity
  8
DIM
 62
     0
100
AcDbTrace
 10
3.098793
 20
8.871499
 30
0.0
 11
3.098793
 21
8.781499
 31
0.0
 12
2.828793
 22
8.826499
 32
0.0
 13
2.828793
 23
8.826499
 33
0.0
  0
SOLID
  5
D55
330
602
100
AcDbEntity
  8
DIM
 62
     0
100
AcDbTrace
 10
1.967792999999999
 20
8.871499
 30
0.0
 11
1.967792999999999
 21
8.781499
 31
0.0
 12
2.237792999999999
 22
8.826499
 32
0.0
 13
2.237792999999999
 23
8.826499
 33
0.0
  0
MTEXT
  5
D56
330
602
100
AcDbEntity
  8
DIM
 62
     0
100
AcDbMText
 10
1.316699249999999
 20
8.826499
 30
0.0
 40
0.1875
 41
0.0
 71
     5
 72
     1
  1
\A1;0.591
 73
     1
 44
1.0
  0
POINT
  5
D57
330
602
100
AcDbEntity
  8
DEFPOINTS
 62
     0
100
AcDbPoint
 10
2.828793
 20
7.579774999999999
 30
0.0
  0
POINT
  5
D58
330
602
100
AcDbEntity
  8
DEFPOINTS
 62
     0
100
AcDbPoint
 10
2.237792999999999
 20
7.597025
 30
0.0
  0
POINT
  5
D59
330
602
100
AcDbEntity
  8
DEFPOINTS
 62
     0
100
AcDbPoint
 10
2.237792999999999
 20
8.826499
 30
0.0
  0
ENDBLK
  5
60E
330
602
100
AcDbEntity
  8
0
100
AcDbBlockEnd
  0
BLOCK
  5
61B
330
610
100
AcDbEntity
  8
0
100
AcDbBlockBegin
  2
*D5
 70
     1
 10
0.0
 20
0.0
 30
0.0
  3
*D5
  1

  0
LINE
  5
D46
330
610
100
AcDbEntity
  8
DIM
 62
     0
370
    -2
100
AcDbLine
 10
2.828793
 20
7.674274999999999
 30
0.0
 11
2.828793
 21
8.965999
 31
0.0
  0
LINE
  5
D47
330
610
100
AcDbEntity
  8
DIM
 62
     0
370
    -2
100
AcDbLine
 10
4.796793
 20
8.222677
 30
0.0
 11
4.796793
 21
8.965999
 31
0.0
  0
LINE
  5
D48
330
610
100
AcDbEntity
  8
DIM
 62
     0
370
    -2
100
AcDbLine
 10
3.098793
 20
8.826499
 30
0.0
 11
3.4199805
 21
8.826499
 31
0.0
  0
LINE
  5
D49
330
610
100
AcDbEntity
  8
DIM
 62
     0
370
    -2
100
AcDbLine
 10
4.526792999999999
 20
8.826499
 30
0.0
 11
4.205605499999999
 21
8.826499
 31
0.0
  0
SOLID
  5
D4A
330
610
100
AcDbEntity
  8
DIM
 62
     0
100
AcDbTrace
 10
3.098793
 20
8.871499
 30
0.0
 11
3.098793
 21
8.781499
 31
0.0
 12
2.828793
 22
8.826499
 32
0.0
 13
2.828793
 23
8.826499
 33
0.0
  0
SOLID
  5
D4B
330
610
100
AcDbEntity
  8
DIM
 62
     0
100
AcDbTrace
 10
4.526792999999999
 20
8.871499
 30
0.0
 11
4.526792999999999
 21
8.781499
 31
0.0
 12
4.796793
 22
8.826499
 32
0.0
 13
4.796793
 23
8.826499
 33
0.0
  0
MTEXT
  5
D4C
330
610
100
AcDbEntity
  8
DIM
 62
     0
100
AcDbMText
 10
3.812793
 20
8.826499
 30
0.0
 40
0.1875
 41
0.0
 71
     5
 72
     1
  1
\A1;1.968
 73
     1
 44
1.0
  0
POINT
  5
D4D
330
610
100
AcDbEntity
  8
DEFPOINTS
 62
     0
100
AcDbPoint
 10
2.828793
 20
7.579774999999999
 30
0.0
  0
POINT
  5
D4E
330
610
100
AcDbEntity
  8
DEFPOINTS
 62
     0
100
AcDbPoint
 10
4.796793
 20
8.128177
 30
0.0
  0
POINT
  5
D4F
330
610
100
AcDbEntity
  8
DEFPOINTS
 62
     0
100
AcDbPoint
 10
4.796793
 20
8.826499
 30
0.0
  0
ENDBLK
  5
61C
330
610
100
AcDbEntity
  8
0
100
AcDbBlockEnd
  0
BLOCK
  5
629
330
61E
100
AcDbEntity
  8
0
100
AcDbBlockBegin
  2
*D6
 70
     1
 10
0.0
 20
0.0
 30
0.0
  3
*D6
  1

  0
LINE
  5
D3C
330
61E
100
AcDbEntity
  8
DIM
 62
     0
370
    -2
100
AcDbLine
 10
2.473793
 20
7.674274999999999
 30
0.0
 11
2.473793
 21
9.808999
 31
0.0
  0
LINE
  5
D3D
330
61E
100
AcDbEntity
  8
DIM
 62
     0
370
    -2
100
AcDbLine
 10
5.151792999999999
 20
7.674274999999999
 30
0.0
 11
5.151792999999999
 21
9.808999
 31
0.0
  0
LINE
  5
D3E
330
61E
100
AcDbEntity
  8
DIM
 62
     0
370
    -2
100
AcDbLine
 10
2.743793
 20
9.669499
 30
0.0
 11
3.396543
 21
9.669499
 31
0.0
  0
LINE
  5
D3F
330
61E
100
AcDbEntity
  8
DIM
 62
     0
370
    -2
100
AcDbLine
 10
4.881793
 20
9.669499
 30
0.0
 11
4.229042999999999
 21
9.669499
 31
0.0
  0
SOLID
  5
D40
330
61E
100
AcDbEntity
  8
DIM
 62
     0
100
AcDbTrace
 10
2.743793
 20
9.714498999999999
 30
0.0
 11
2.743793
 21
9.624499
 31
0.0
 12
2.473793
 22
9.669499
 32
0.0
 13
2.473793
 23
9.669499
 33
0.0
  0
SOLID
  5
D41
330
61E
100
AcDbEntity
  8
DIM
 62
     0
100
AcDbTrace
 10
4.881793
 20
9.714498999999999
 30
0.0
 11
4.881793
 21
9.624499
 31
0.0
 12
5.151792999999999
 22
9.669499
 32
0.0
 13
5.151792999999999
 23
9.669499
 33
0.0
  0
MTEXT
  5
D42
330
61E
100
AcDbEntity
  8
DIM
 62
     0
100
AcDbMText
 10
3.812793
 20
9.669499
 30
0.0
 40
0.1875
 41
0.0
 71
     5
 72
     1
  1
\A1;2.678
 73
     1
 44
1.0
  0
POINT
  5
D43
330
61E
100
AcDbEntity
  8
DEFPOINTS
 62
     0
100
AcDbPoint
 10
2.473793
 20
7.579774999999999
 30
0.0
  0
POINT
  5
D44
330
61E
100
AcDbEntity
  8
DEFPOINTS
 62
     0
100
AcDbPoint
 10
5.151792999999999
 20
7.579774999999999
 30
0.0
  0
POINT
  5
D45
330
61E
100
AcDbEntity
  8
DEFPOINTS
 62
     0
100
AcDbPoint
 10
5.151792999999999
 20
9.669499
 30
0.0
  0
ENDBLK
  5
62A
330
61E
100
AcDbEntity
  8
0
100
AcDbBlockEnd
  0
BLOCK
  5
637
330
62C
100
AcDbEntity
  8
0
100
AcDbBlockBegin
  2
*D7
 70
     1
 10
0.0
 20
0.0
 30
0.0
  3
*D7
  1

  0
LINE
  5
D32
330
62C
100
AcDbEntity
  8
DIM
 62
     0
370
    -2
100
AcDbLine
 10
2.670793
 20
7.152275
 30
0.0
 11
2.670793
 21
9.387499
 31
0.0
  0
LINE
  5
D33
330
62C
100
AcDbEntity
  8
DIM
 62
     0
370
    -2
100
AcDbLine
 10
2.237792999999999
 20
7.691525
 30
0.0
 11
2.237792999999999
 21
9.387499
 31
0.0
  0
LINE
  5
D34
330
62C
100
AcDbEntity
  8
DIM
 62
     0
370
    -2
100
AcDbLine
 10
2.940793
 20
9.247999
 30
0.0
 11
3.210793
 21
9.247999
 31
0.0
  0
LINE
  5
D35
330
62C
100
AcDbEntity
  8
DIM
 62
     0
370
    -2
100
AcDbLine
 10
1.967792999999999
 20
9.247999
 30
0.0
 11
1.697792999999999
 21
9.247999
 31
0.0
  0
SOLID
  5
D36
330
62C
100
AcDbEntity
  8
DIM
 62
     0
100
AcDbTrace
 10
2.940793
 20
9.292999
 30
0.0
 11
2.940793
 21
9.202999
 31
0.0
 12
2.670793
 22
9.247999
 32
0.0
 13
2.670793
 23
9.247999
 33
0.0
  0
SOLID
  5
D37
330
62C
100
AcDbEntity
  8
DIM
 62
     0
100
AcDbTrace
 10
1.967792999999999
 20
9.292999
 30
0.0
 11
1.967792999999999
 21
9.202999
 31
0.0
 12
2.237792999999999
 22
9.247999
 32
0.0
 13
2.237792999999999
 23
9.247999
 33
0.0
  0
MTEXT
  5
D38
330
62C
100
AcDbEntity
  8
DIM
 62
     0
100
AcDbMText
 10
1.316699249999999
 20
9.247999
 30
0.0
 40
0.1875
 41
0.0
 71
     5
 72
     1
  1
\A1;0.431
 73
     1
 44
1.0
  0
POINT
  5
D39
330
62C
100
AcDbEntity
  8
DEFPOINTS
 62
     0
100
AcDbPoint
 10
2.670793
 20
7.057775
 30
0.0
  0
POINT
  5
D3A
330
62C
100
AcDbEntity
  8
DEFPOINTS
 62
     0
100
AcDbPoint
 10
2.237792999999999
 20
7.597025
 30
0.0
  0
POINT
  5
D3B
330
62C
100
AcDbEntity
  8
DEFPOINTS
 62
     0
100
AcDbPoint
 10
2.237792999999999
 20
9.247999
 30
0.0
  0
ENDBLK
  5
638
330
62C
100
AcDbEntity
  8
0
100
AcDbBlockEnd
  0
BLOCK
  5
645
330
63A
100
AcDbEntity
  8
0
100
AcDbBlockBegin
  2
*D8
 70
     1
 10
0.0
 20
0.0
 30
0.0
  3
*D8
  1

  0
LINE
  5
125F
330
63A
100
AcDbEntity
  8
DIM
 62
     0
370
    -2
100
AcDbLine
 10
4.954793
 20
7.40819086003079
 30
0.0
 11
4.954793
 21
9.387499
 31
0.0
  0
LINE
  5
1260
330
63A
100
AcDbEntity
  8
DIM
 62
     0
370
    -2
100
AcDbLine
 10
2.670793
 20
7.152275
 30
0.0
 11
2.670793
 21
9.387499
 31
0.0
  0
LINE
  5
1261
330
63A
100
AcDbEntity
  8
DIM
 62
     0
370
    -2
100
AcDbLine
 10
4.684793
 20
9.247999
 30
0.0
 11
4.229043
 21
9.247999
 31
0.0
  0
LINE
  5
1262
330
63A
100
AcDbEntity
  8
DIM
 62
     0
370
    -2
100
AcDbLine
 10
2.940793
 20
9.247999
 30
0.0
 11
3.396543
 21
9.247999
 31
0.0
  0
SOLID
  5
1263
330
63A
100
AcDbEntity
  8
DIM
 62
     0
100
AcDbTrace
 10
4.684793
 20
9.292999
 30
0.0
 11
4.684793
 21
9.202999
 31
0.0
 12
4.954793
 22
9.247999
 32
0.0
 13
4.954793
 23
9.247999
 33
0.0
  0
SOLID
  5
1264
330
63A
100
AcDbEntity
  8
DIM
 62
     0
100
AcDbTrace
 10
2.940793
 20
9.292999
 30
0.0
 11
2.940793
 21
9.202999
 31
0.0
 12
2.670793
 22
9.247999
 32
0.0
 13
2.670793
 23
9.247999
 33
0.0
  0
MTEXT
  5
1265
330
63A
100
AcDbEntity
  8
DIM
 62
     0
100
AcDbMText
 10
3.812793
 20
9.247999
 30
0.0
 40
0.1875
 41
0.0
 71
     5
 72
     1
  1
\A1;2.284
 73
     1
 44
1.0
  0
POINT
  5
1266
330
63A
100
AcDbEntity
  8
DEFPOINTS
 62
     0
100
AcDbPoint
 10
4.954793
 20
7.31369086003079
 30
0.0
  0
POINT
  5
1267
330
63A
100
AcDbEntity
  8
DEFPOINTS
 62
     0
100
AcDbPoint
 10
2.670793
 20
7.057775
 30
0.0
  0
POINT
  5
1268
330
63A
100
AcDbEntity
  8
DEFPOINTS
 62
     0
100
AcDbPoint
 10
2.670793
 20
9.247999
 30
0.0
  0
ENDBLK
  5
646
330
63A
100
AcDbEntity
  8
0
100
AcDbBlockEnd
  0
BLOCK
  5
653
330
648
100
AcDbEntity
  8
0
100
AcDbBlockBegin
  2
*D9
 70
     1
 10
0.0
 20
0.0
 30
0.0
  3
*D9
  1

  0
LINE
  5
DB5
330
648
100
AcDbEntity
  8
DIM
 62
     0
370
    -2
100
AcDbLine
 10
3.052792999999999
 20
4.709274999999999
 30
0.0
 11
3.052792999999999
 21
4.077246999999999
 31
0.0
  0
LINE
  5
DB6
330
648
100
AcDbEntity
  8
DIM
 62
     0
370
    -2
100
AcDbLine
 10
2.237792999999999
 20
4.712024999999999
 30
0.0
 11
2.237792999999999
 21
4.077246999999999
 31
0.0
  0
LINE
  5
DB7
330
648
100
AcDbEntity
  8
DIM
 62
     0
370
    -2
100
AcDbLine
 10
3.322792999999999
 20
4.216746999999999
 30
0.0
 11
3.592792999999999
 21
4.216746999999999
 31
0.0
  0
LINE
  5
DB8
330
648
100
AcDbEntity
  8
DIM
 62
     0
370
    -2
100
AcDbLine
 10
1.967792999999999
 20
4.216746999999999
 30
0.0
 11
1.697792999999999
 21
4.216746999999999
 31
0.0
  0
SOLID
  5
DB9
330
648
100
AcDbEntity
  8
DIM
 62
     0
100
AcDbTrace
 10
3.322792999999999
 20
4.261746999999999
 30
0.0
 11
3.322792999999999
 21
4.171746999999999
 31
0.0
 12
3.052792999999999
 22
4.216746999999999
 32
0.0
 13
3.052792999999999
 23
4.216746999999999
 33
0.0
  0
SOLID
  5
DBA
330
648
100
AcDbEntity
  8
DIM
 62
     0
100
AcDbTrace
 10
1.967792999999999
 20
4.261746999999999
 30
0.0
 11
1.967792999999999
 21
4.171746999999999
 31
0.0
 12
2.237792999999999
 22
4.216746999999999
 32
0.0
 13
2.237792999999999
 23
4.216746999999999
 33
0.0
  0
MTEXT
  5
DBB
330
648
100
AcDbEntity
  8
DIM
 62
     0
100
AcDbMText
 10
2.645292999999999
 20
4.216746999999999
 30
0.0
 40
0.1875
 41
0.0
 71
     5
 72
     1
  1
\A1;0.815
 73
     1
 44
1.0
  0
POINT
  5
DBC
330
648
100
AcDbEntity
  8
DEFPOINTS
 62
     0
100
AcDbPoint
 10
3.052792999999999
 20
4.803774999999999
 30
0.0
  0
POINT
  5
DBD
330
648
100
AcDbEntity
  8
DEFPOINTS
 62
     0
100
AcDbPoint
 10
2.237792999999999
 20
4.806524999999999
 30
0.0
  0
POINT
  5
DBE
330
648
100
AcDbEntity
  8
DEFPOINTS
 62
     0
100
AcDbPoint
 10
2.237792999999999
 20
4.216746999999999
 30
0.0
  0
ENDBLK
  5
654
330
648
100
AcDbEntity
  8
0
100
AcDbBlockEnd
  0
BLOCK
  5
661
330
656
100
AcDbEntity
  8
0
100
AcDbBlockBegin
  2
*D10
 70
     1
 10
0.0
 20
0.0
 30
0.0
  3
*D10
  1

  0
LINE
  5
D1E
330
656
100
AcDbEntity
  8
DIM
 62
     0
370
    -2
100
AcDbLine
 10
2.237792999999999
 20
7.691525
 30
0.0
 11
2.237792999999999
 21
10.23049899999999
 31
0.0
  0
LINE
  5
D1F
330
656
100
AcDbEntity
  8
DIM
 62
     0
370
    -2
100
AcDbLine
 10
5.387793
 20
7.691525
 30
0.0
 11
5.387793
 21
10.23049899999999
 31
0.0
  0
LINE
  5
D20
330
656
100
AcDbEntity
  8
DIM
 62
     0
370
    -2
100
AcDbLine
 10
2.507792999999999
 20
10.090999
 30
0.0
 11
3.43169925
 21
10.090999
 31
0.0
  0
LINE
  5
D21
330
656
100
AcDbEntity
  8
DIM
 62
     0
370
    -2
100
AcDbLine
 10
5.117793
 20
10.090999
 30
0.0
 11
4.193886749999999
 21
10.090999
 31
0.0
  0
SOLID
  5
D22
330
656
100
AcDbEntity
  8
DIM
 62
     0
100
AcDbTrace
 10
2.507792999999999
 20
10.13599899999999
 30
0.0
 11
2.507792999999999
 21
10.045999
 31
0.0
 12
2.237792999999999
 22
10.090999
 32
0.0
 13
2.237792999999999
 23
10.090999
 33
0.0
  0
SOLID
  5
D23
330
656
100
AcDbEntity
  8
DIM
 62
     0
100
AcDbTrace
 10
5.117793
 20
10.13599899999999
 30
0.0
 11
5.117793
 21
10.045999
 31
0.0
 12
5.387793
 22
10.090999
 32
0.0
 13
5.387793
 23
10.090999
 33
0.0
  0
MTEXT
  5
D24
330
656
100
AcDbEntity
  8
DIM
 62
     0
100
AcDbMText
 10
3.812793
 20
10.090999
 30
0.0
 40
0.1875
 41
0.0
 71
     5
 72
     1
  1
\A1;3.150
 73
     1
 44
1.0
  0
POINT
  5
D25
330
656
100
AcDbEntity
  8
DEFPOINTS
 62
     0
100
AcDbPoint
 10
2.237792999999999
 20
7.597025
 30
0.0
  0
POINT
  5
D26
330
656
100
AcDbEntity
  8
DEFPOINTS
 62
     0
100
AcDbPoint
 10
5.387793
 20
7.597025
 30
0.0
  0
POINT
  5
D27
330
656
100
AcDbEntity
  8
DEFPOINTS
 62
     0
100
AcDbPoint
 10
5.387793
 20
10.090999
 30
0.0
  0
ENDBLK
  5
662
330
656
100
AcDbEntity
  8
0
100
AcDbBlockEnd
  0
BLOCK
  5
66F
330
664
100
AcDbEntity
  8
0
100
AcDbBlockBegin
  2
*D11
 70
     1
 10
0.0
 20
0.0
 30
0.0
  3
*D11
  1

  0
LINE
  5
DD3
330
664
100
AcDbEntity
  8
DIM
 62
     0
370
    -2
100
AcDbLine
 10
5.263543
 20
4.587774999999999
 30
0.0
 11
6.166166
 21
4.587774999999998
 31
0.0
  0
LINE
  5
DD4
330
664
100
AcDbEntity
  8
DIM
 62
     0
370
    -2
100
AcDbLine
 10
5.266042999999999
 20
5.047525
 30
0.0
 11
6.166166
 21
5.047524999999999
 31
0.0
  0
LINE
  5
DD5
330
664
100
AcDbEntity
  8
DIM
 62
     0
370
    -2
100
AcDbLine
 10
6.026666
 20
4.317774999999999
 30
0.0
 11
6.026666
 21
4.047774999999998
 31
0.0
  0
LINE
  5
DD6
330
664
100
AcDbEntity
  8
DIM
 62
     0
370
    -2
100
AcDbLine
 10
6.026666
 20
5.317524999999999
 30
0.0
 11
6.026666
 21
5.587524999999999
 31
0.0
  0
SOLID
  5
DD7
330
664
100
AcDbEntity
  8
DIM
 62
     0
100
AcDbTrace
 10
5.981666
 20
4.317775
 30
0.0
 11
6.071666
 21
4.317774999999999
 31
0.0
 12
6.026666
 22
4.587774999999998
 32
0.0
 13
6.026666
 23
4.587774999999998
 33
0.0
  0
SOLID
  5
DD8
330
664
100
AcDbEntity
  8
DIM
 62
     0
100
AcDbTrace
 10
5.981666
 20
5.317525
 30
0.0
 11
6.071666
 21
5.317524999999999
 31
0.0
 12
6.026666
 22
5.047524999999999
 32
0.0
 13
6.026666
 23
5.047524999999999
 33
0.0
  0
MTEXT
  5
DD9
330
664
100
AcDbEntity
  8
DIM
 62
     0
100
AcDbMText
 10
6.026665999999999
 20
4.81765
 30
0.0
 40
0.1875
 41
0.0
 71
     5
 72
     1
  1
\A1;0.460
 73
     1
 44
1.0
  0
POINT
  5
DDA
330
664
100
AcDbEntity
  8
DEFPOINTS
 62
     0
100
AcDbPoint
 10
5.169043
 20
4.587774999999999
 30
0.0
  0
POINT
  5
DDB
330
664
100
AcDbEntity
  8
DEFPOINTS
 62
     0
100
AcDbPoint
 10
5.171542999999999
 20
5.047525
 30
0.0
  0
POINT
  5
DDC
330
664
100
AcDbEntity
  8
DEFPOINTS
 62
     0
100
AcDbPoint
 10
6.026666
 20
5.047524999999999
 30
0.0
  0
ENDBLK
  5
670
330
664
100
AcDbEntity
  8
0
100
AcDbBlockEnd
  0
BLOCK
  5
67D
330
672
100
AcDbEntity
  8
0
100
AcDbBlockBegin
  2
*D12
 70
     1
 10
0.0
 20
0.0
 30
0.0
  3
*D12
  1

  0
LINE
  5
DC9
330
672
100
AcDbEntity
  8
DIM
 62
     0
370
    -2
100
AcDbLine
 10
5.266042999999999
 20
5.047525
 30
0.0
 11
6.166165999999999
 21
5.047524999999999
 31
0.0
  0
LINE
  5
DCA
330
672
100
AcDbEntity
  8
DIM
 62
     0
370
    -2
100
AcDbLine
 10
5.266042999999999
 20
7.356024999999999
 30
0.0
 11
6.166166
 21
7.356024999999998
 31
0.0
  0
LINE
  5
DCB
330
672
100
AcDbEntity
  8
DIM
 62
     0
370
    -2
100
AcDbLine
 10
6.026665999999999
 20
5.317524999999999
 30
0.0
 11
6.026665999999999
 21
5.973024999999999
 31
0.0
  0
LINE
  5
DCC
330
672
100
AcDbEntity
  8
DIM
 62
     0
370
    -2
100
AcDbLine
 10
6.026666
 20
7.086024999999999
 30
0.0
 11
6.026666
 21
6.430524999999999
 31
0.0
  0
SOLID
  5
DCD
330
672
100
AcDbEntity
  8
DIM
 62
     0
100
AcDbTrace
 10
5.981665999999999
 20
5.317525
 30
0.0
 11
6.071665999999999
 21
5.317524999999999
 31
0.0
 12
6.026665999999999
 22
5.047524999999999
 32
0.0
 13
6.026665999999999
 23
5.047524999999999
 33
0.0
  0
SOLID
  5
DCE
330
672
100
AcDbEntity
  8
DIM
 62
     0
100
AcDbTrace
 10
5.981666
 20
7.086025
 30
0.0
 11
6.071666
 21
7.086024999999999
 31
0.0
 12
6.026666
 22
7.356024999999998
 32
0.0
 13
6.026666
 23
7.356024999999998
 33
0.0
  0
MTEXT
  5
DCF
330
672
100
AcDbEntity
  8
DIM
 62
     0
100
AcDbMText
 10
6.026665999999998
 20
6.201775000000001
 30
0.0
 40
0.1875
 41
0.0
 71
     5
 72
     1
  1
\A1;2.309
 73
     1
 44
1.0
  0
POINT
  5
DD0
330
672
100
AcDbEntity
  8
DEFPOINTS
 62
     0
100
AcDbPoint
 10
5.171542999999999
 20
5.047525
 30
0.0
  0
POINT
  5
DD1
330
672
100
AcDbEntity
  8
DEFPOINTS
 62
     0
100
AcDbPoint
 10
5.171542999999999
 20
7.356024999999999
 30
0.0
  0
POINT
  5
DD2
330
672
100
AcDbEntity
  8
DEFPOINTS
 62
     0
100
AcDbPoint
 10
6.026666
 20
7.356024999999998
 30
0.0
  0
ENDBLK
  5
67E
330
672
100
AcDbEntity
  8
0
100
AcDbBlockEnd
  0
BLOCK
  5
68B
330
680
100
AcDbEntity
  8
0
100
AcDbBlockBegin
  2
*D13
 70
     1
 10
0.0
 20
0.0
 30
0.0
  3
*D13
  1

  0
LINE
  5
D14
330
680
100
AcDbEntity
  8
DIM
 62
     0
370
    -2
100
AcDbLine
 10
5.389542999999999
 20
4.587774999999999
 30
0.0
 11
7.633892999999998
 21
4.587774999999998
 31
0.0
  0
LINE
  5
D15
330
680
100
AcDbEntity
  8
DIM
 62
     0
370
    -2
100
AcDbLine
 10
5.263543
 20
7.815775
 30
0.0
 11
7.633892999999999
 21
7.815774999999999
 31
0.0
  0
LINE
  5
D16
330
680
100
AcDbEntity
  8
DIM
 62
     0
370
    -2
100
AcDbLine
 10
7.494392999999998
 20
4.857774999999998
 30
0.0
 11
7.494392999999998
 21
5.973024999999998
 31
0.0
  0
LINE
  5
D17
330
680
100
AcDbEntity
  8
DIM
 62
     0
370
    -2
100
AcDbLine
 10
7.494392999999999
 20
7.545774999999999
 30
0.0
 11
7.494392999999999
 21
6.430524999999998
 31
0.0
  0
SOLID
  5
D18
330
680
100
AcDbEntity
  8
DIM
 62
     0
100
AcDbTrace
 10
7.449392999999998
 20
4.857774999999998
 30
0.0
 11
7.539392999999998
 21
4.857774999999998
 31
0.0
 12
7.494392999999998
 22
4.587774999999998
 32
0.0
 13
7.494392999999998
 23
4.587774999999998
 33
0.0
  0
SOLID
  5
D19
330
680
100
AcDbEntity
  8
DIM
 62
     0
100
AcDbTrace
 10
7.449392999999999
 20
7.545774999999999
 30
0.0
 11
7.539392999999999
 21
7.545774999999999
 31
0.0
 12
7.494392999999999
 22
7.815774999999999
 32
0.0
 13
7.494392999999999
 23
7.815774999999999
 33
0.0
  0
MTEXT
  5
D1A
330
680
100
AcDbEntity
  8
DIM
 62
     0
100
AcDbMText
 10
7.494392999999997
 20
6.201774999999999
 30
0.0
 40
0.1875
 41
0.0
 71
     5
 72
     1
  1
\A1;3.228
 73
     1
 44
1.0
  0
POINT
  5
D1B
330
680
100
AcDbEntity
  8
DEFPOINTS
 62
     0
100
AcDbPoint
 10
5.295042999999999
 20
4.587774999999999
 30
0.0
  0
POINT
  5
D1C
330
680
100
AcDbEntity
  8
DEFPOINTS
 62
     0
100
AcDbPoint
 10
5.169043
 20
7.815775
 30
0.0
  0
POINT
  5
D1D
330
680
100
AcDbEntity
  8
DEFPOINTS
 62
     0
100
AcDbPoint
 10
7.494392999999999
 20
7.815774999999999
 30
0.0
  0
ENDBLK
  5
68C
330
680
100
AcDbEntity
  8
0
100
AcDbBlockEnd
  0
BLOCK
  5
699
330
68E
100
AcDbEntity
  8
0
100
AcDbBlockBegin
  2
*D14
 70
     1
 10
0.0
 20
0.0
 30
0.0
  3
*D14
  1

  0
LINE
  5
DBF
330
68E
100
AcDbEntity
  8
DIM
 62
     0
370
    -2
100
AcDbLine
 10
5.049293
 20
5.345774999999999
 30
0.0
 11
6.881025999999999
 21
5.345774999999998
 31
0.0
  0
LINE
  5
DC0
330
68E
100
AcDbEntity
  8
DIM
 62
     0
370
    -2
100
AcDbLine
 10
5.263543
 20
4.587774999999999
 30
0.0
 11
6.881025999999999
 21
4.587774999999998
 31
0.0
  0
LINE
  5
DC1
330
68E
100
AcDbEntity
  8
DIM
 62
     0
370
    -2
100
AcDbLine
 10
6.741525999999999
 20
5.615774999999999
 30
0.0
 11
6.741525999999999
 21
5.885774999999998
 31
0.0
  0
LINE
  5
DC2
330
68E
100
AcDbEntity
  8
DIM
 62
     0
370
    -2
100
AcDbLine
 10
6.741525999999999
 20
4.317774999999999
 30
0.0
 11
6.741525999999999
 21
4.047774999999998
 31
0.0
  0
SOLID
  5
DC3
330
68E
100
AcDbEntity
  8
DIM
 62
     0
100
AcDbTrace
 10
6.696525999999999
 20
5.615774999999999
 30
0.0
 11
6.786525999999999
 21
5.615774999999999
 31
0.0
 12
6.741525999999999
 22
5.345774999999998
 32
0.0
 13
6.741525999999999
 23
5.345774999999998
 33
0.0
  0
SOLID
  5
DC4
330
68E
100
AcDbEntity
  8
DIM
 62
     0
100
AcDbTrace
 10
6.696525999999999
 20
4.317774999999999
 30
0.0
 11
6.786525999999999
 21
4.317774999999999
 31
0.0
 12
6.741525999999999
 22
4.587774999999998
 32
0.0
 13
6.741525999999999
 23
4.587774999999998
 33
0.0
  0
MTEXT
  5
DC5
330
68E
100
AcDbEntity
  8
DIM
 62
     0
100
AcDbMText
 10
6.741525999999998
 20
4.966775
 30
0.0
 40
0.1875
 41
0.0
 71
     5
 72
     1
  1
\A1;0.758
 73
     1
 44
1.0
  0
POINT
  5
DC6
330
68E
100
AcDbEntity
  8
DEFPOINTS
 62
     0
100
AcDbPoint
 10
4.954793
 20
5.345774999999999
 30
0.0
  0
POINT
  5
DC7
330
68E
100
AcDbEntity
  8
DEFPOINTS
 62
     0
100
AcDbPoint
 10
5.169043
 20
4.587774999999999
 30
0.0
  0
POINT
  5
DC8
330
68E
100
AcDbEntity
  8
DEFPOINTS
 62
     0
100
AcDbPoint
 10
6.741525999999999
 20
4.587774999999998
 30
0.0
  0
ENDBLK
  5
69A
330
68E
100
AcDbEntity
  8
0
100
AcDbBlockEnd
  0
BLOCK
  5
6A7
330
69C
100
AcDbEntity
  8
0
100
AcDbBlockBegin
  2
*D15
 70
     1
 10
0.0
 20
0.0
 30
0.0
  3
*D15
  1

  0
LINE
  5
DDD
330
69C
100
AcDbEntity
  8
DIM
 62
     0
370
    -2
100
AcDbLine
 10
5.049293
 20
5.345774999999999
 30
0.0
 11
6.881025999999998
 21
5.345774999999998
 31
0.0
  0
LINE
  5
DDE
330
69C
100
AcDbEntity
  8
DIM
 62
     0
370
    -2
100
AcDbLine
 10
5.049293
 20
7.057775
 30
0.0
 11
6.881025999999999
 21
7.057774999999999
 31
0.0
  0
LINE
  5
DDF
330
69C
100
AcDbEntity
  8
DIM
 62
     0
370
    -2
100
AcDbLine
 10
6.741525999999998
 20
5.615774999999999
 30
0.0
 11
6.741525999999998
 21
5.973024999999999
 31
0.0
  0
LINE
  5
DE0
330
69C
100
AcDbEntity
  8
DIM
 62
     0
370
    -2
100
AcDbLine
 10
6.741525999999999
 20
6.787774999999999
 30
0.0
 11
6.741525999999999
 21
6.430524999999999
 31
0.0
  0
SOLID
  5
DE1
330
69C
100
AcDbEntity
  8
DIM
 62
     0
100
AcDbTrace
 10
6.696525999999998
 20
5.615774999999999
 30
0.0
 11
6.786525999999998
 21
5.615774999999999
 31
0.0
 12
6.741525999999998
 22
5.345774999999998
 32
0.0
 13
6.741525999999998
 23
5.345774999999998
 33
0.0
  0
SOLID
  5
DE2
330
69C
100
AcDbEntity
  8
DIM
 62
     0
100
AcDbTrace
 10
6.696525999999999
 20
6.787774999999999
 30
0.0
 11
6.786525999999999
 21
6.787774999999999
 31
0.0
 12
6.741525999999999
 22
7.057774999999999
 32
0.0
 13
6.741525999999999
 23
7.057774999999999
 33
0.0
  0
MTEXT
  5
DE3
330
69C
100
AcDbEntity
  8
DIM
 62
     0
100
AcDbMText
 10
6.741525999999997
 20
6.201775000000001
 30
0.0
 40
0.1875
 41
0.0
 71
     5
 72
     1
  1
\A1;1.712
 73
     1
 44
1.0
  0
POINT
  5
DE4
330
69C
100
AcDbEntity
  8
DEFPOINTS
 62
     0
100
AcDbPoint
 10
4.954793
 20
5.345774999999999
 30
0.0
  0
POINT
  5
DE5
330
69C
100
AcDbEntity
  8
DEFPOINTS
 62
     0
100
AcDbPoint
 10
4.954793
 20
7.057775
 30
0.0
  0
POINT
  5
DE6
330
69C
100
AcDbEntity
  8
DEFPOINTS
 62
     0
100
AcDbPoint
 10
6.741525999999999
 20
7.057774999999999
 30
0.0
  0
ENDBLK
  5
6A8
330
69C
100
AcDbEntity
  8
0
100
AcDbBlockEnd
  0
BLOCK
  5
6B5
330
6AA
100
AcDbEntity
  8
0
100
AcDbBlockBegin
  2
*D16
 70
     1
 10
0.0
 20
0.0
 30
0.0
  3
*D16
  1

  0
LINE
  5
D8D
330
6AA
100
AcDbEntity
  8
DIM
 62
     0
370
    -2
100
AcDbLine
 10
2.355793
 20
6.516253999999999
 30
0.0
 11
2.355793
 21
6.463686999999999
 31
0.0
  0
LINE
  5
D8E
330
6AA
100
AcDbEntity
  8
DIM
 62
     0
370
    -2
100
AcDbLine
 10
2.237792999999999
 20
6.516253999999999
 30
0.0
 11
2.237792999999999
 21
6.463686999999999
 31
0.0
  0
LINE
  5
D8F
330
6AA
100
AcDbEntity
  8
DIM
 62
     0
370
    -2
100
AcDbLine
 10
2.625793
 20
6.603186999999999
 30
0.0
 11
2.895793
 21
6.603186999999999
 31
0.0
  0
LINE
  5
D90
330
6AA
100
AcDbEntity
  8
DIM
 62
     0
370
    -2
100
AcDbLine
 10
1.967792999999999
 20
6.603186999999999
 30
0.0
 11
1.697792999999999
 21
6.603186999999999
 31
0.0
  0
SOLID
  5
D91
330
6AA
100
AcDbEntity
  8
DIM
 62
     0
100
AcDbTrace
 10
2.625793
 20
6.648186999999999
 30
0.0
 11
2.625793
 21
6.558186999999999
 31
0.0
 12
2.355793
 22
6.603186999999999
 32
0.0
 13
2.355793
 23
6.603186999999999
 33
0.0
  0
SOLID
  5
D92
330
6AA
100
AcDbEntity
  8
DIM
 62
     0
100
AcDbTrace
 10
1.967792999999999
 20
6.648186999999999
 30
0.0
 11
1.967792999999999
 21
6.558186999999999
 31
0.0
 12
2.237792999999999
 22
6.603186999999999
 32
0.0
 13
2.237792999999999
 23
6.603186999999999
 33
0.0
  0
MTEXT
  5
D93
330
6AA
100
AcDbEntity
  8
DIM
 62
     0
100
AcDbMText
 10
1.035449249999999
 20
6.603186999999999
 30
0.0
 40
0.1875
 41
0.0
 71
     5
 72
     1
  1
\A1;0.118 TYP.
 73
     1
 44
1.0
  0
POINT
  5
D94
330
6AA
100
AcDbEntity
  8
DEFPOINTS
 62
     0
100
AcDbPoint
 10
2.355793
 20
6.610753999999999
 30
0.0
  0
POINT
  5
D95
330
6AA
100
AcDbEntity
  8
DEFPOINTS
 62
     0
100
AcDbPoint
 10
2.237792999999999
 20
6.610753999999999
 30
0.0
  0
POINT
  5
D96
330
6AA
100
AcDbEntity
  8
DEFPOINTS
 62
     0
100
AcDbPoint
 10
2.237792999999999
 20
6.603186999999999
 30
0.0
  0
ENDBLK
  5
6B6
330
6AA
100
AcDbEntity
  8
0
100
AcDbBlockEnd
  0
BLOCK
  5
6C3
330
6B8
100
AcDbEntity
  8
0
100
AcDbBlockBegin
  2
*D17
 70
     1
 10
0.0
 20
0.0
 30
0.0
  3
*D17
  1

  0
LINE
  5
D83
330
6B8
100
AcDbEntity
  8
DIM
 62
     0
370
    -2
100
AcDbLine
 10
2.355793
 20
6.516253999999999
 30
0.0
 11
2.355793
 21
6.463686999999999
 31
0.0
  0
LINE
  5
D84
330
6B8
100
AcDbEntity
  8
DIM
 62
     0
370
    -2
100
AcDbLine
 10
5.269792999999999
 20
6.516253999999999
 30
0.0
 11
5.269792999999999
 21
6.463686999999999
 31
0.0
  0
LINE
  5
D85
330
6B8
100
AcDbEntity
  8
DIM
 62
     0
370
    -2
100
AcDbLine
 10
2.625793
 20
6.603186999999999
 30
0.0
 11
3.536894499999999
 21
6.603186999999999
 31
0.0
  0
LINE
  5
D86
330
6B8
100
AcDbEntity
  8
DIM
 62
     0
370
    -2
100
AcDbLine
 10
4.999793
 20
6.603186999999999
 30
0.0
 11
4.3225195
 21
6.603186999999999
 31
0.0
  0
SOLID
  5
D87
330
6B8
100
AcDbEntity
  8
DIM
 62
     0
100
AcDbTrace
 10
2.625793
 20
6.648186999999999
 30
0.0
 11
2.625793
 21
6.558186999999999
 31
0.0
 12
2.355793
 22
6.603186999999999
 32
0.0
 13
2.355793
 23
6.603186999999999
 33
0.0
  0
SOLID
  5
D88
330
6B8
100
AcDbEntity
  8
DIM
 62
     0
100
AcDbTrace
 10
4.999793
 20
6.648186999999999
 30
0.0
 11
4.999793
 21
6.558186999999999
 31
0.0
 12
5.269792999999999
 22
6.603186999999999
 32
0.0
 13
5.269792999999999
 23
6.603186999999999
 33
0.0
  0
MTEXT
  5
D89
330
6B8
100
AcDbEntity
  8
DIM
 62
     0
100
AcDbMText
 10
3.929707
 20
6.603186999999999
 30
0.0
 40
0.1875
 41
0.0
 71
     5
 72
     1
  1
\A1;2.914
 73
     1
 44
1.0
  0
POINT
  5
D8A
330
6B8
100
AcDbEntity
  8
DEFPOINTS
 62
     0
100
AcDbPoint
 10
2.355793
 20
6.610753999999999
 30
0.0
  0
POINT
  5
D8B
330
6B8
100
AcDbEntity
  8
DEFPOINTS
 62
     0
100
AcDbPoint
 10
5.269792999999999
 20
6.610753999999999
 30
0.0
  0
POINT
  5
D8C
330
6B8
100
AcDbEntity
  8
DEFPOINTS
 62
     0
100
AcDbPoint
 10
5.269792999999999
 20
6.603186999999999
 30
0.0
  0
ENDBLK
  5
6C4
330
6B8
100
AcDbEntity
  8
0
100
AcDbBlockEnd
  0
BLOCK
  5
77C
330
771
100
AcDbEntity
  8
0
100
AcDbBlockBegin
  2
*D18
 70
     1
 10
0.0
 20
0.0
 30
0.0
  3
*D18
  1

  0
LINE
  5
D79
330
771
100
AcDbEntity
  8
DIM
 62
     0
370
    -2
100
AcDbLine
 10
4.380042999999999
 20
4.705524999999999
 30
0.0
 11
4.174606999999999
 21
4.705524999999999
 31
0.0
  0
LINE
  5
D7A
330
771
100
AcDbEntity
  8
DIM
 62
     0
370
    -2
100
AcDbLine
 10
4.380042999999999
 20
7.698025
 30
0.0
 11
4.174606999999999
 21
7.698025
 31
0.0
  0
LINE
  5
D7B
330
771
100
AcDbEntity
  8
DIM
 62
     0
370
    -2
100
AcDbLine
 10
4.314106999999999
 20
4.975525
 30
0.0
 11
4.314106999999999
 21
5.973025
 31
0.0
  0
LINE
  5
D7C
330
771
100
AcDbEntity
  8
DIM
 62
     0
370
    -2
100
AcDbLine
 10
4.314106999999999
 20
7.428025
 30
0.0
 11
4.314106999999999
 21
6.430525
 31
0.0
  0
SOLID
  5
D7D
330
771
100
AcDbEntity
  8
DIM
 62
     0
100
AcDbTrace
 10
4.269106999999999
 20
4.975525
 30
0.0
 11
4.359106999999998
 21
4.975525
 31
0.0
 12
4.314106999999999
 22
4.705524999999999
 32
0.0
 13
4.314106999999999
 23
4.705524999999999
 33
0.0
  0
SOLID
  5
D7E
330
771
100
AcDbEntity
  8
DIM
 62
     0
100
AcDbTrace
 10
4.269106999999999
 20
7.428025
 30
0.0
 11
4.359106999999999
 21
7.428025
 31
0.0
 12
4.314106999999999
 22
7.698025
 32
0.0
 13
4.314106999999999
 23
7.698025
 33
0.0
  0
MTEXT
  5
D7F
330
771
100
AcDbEntity
  8
DIM
 62
     0
100
AcDbMText
 10
4.314106999999998
 20
6.201775000000001
 30
0.0
 40
0.1875
 41
0.0
 71
     5
 72
     1
  1
\A1;2.993
 73
     1
 44
1.0
  0
POINT
  5
D80
330
771
100
AcDbEntity
  8
DEFPOINTS
 62
     0
100
AcDbPoint
 10
4.474542999999999
 20
4.705524999999999
 30
0.0
  0
POINT
  5
D81
330
771
100
AcDbEntity
  8
DEFPOINTS
 62
     0
100
AcDbPoint
 10
4.474542999999999
 20
7.698025
 30
0.0
  0
POINT
  5
D82
330
771
100
AcDbEntity
  8
DEFPOINTS
 62
     0
100
AcDbPoint
 10
4.314106999999999
 20
7.698025
 30
0.0
  0
ENDBLK
  5
77D
330
771
100
AcDbEntity
  8
0
100
AcDbBlockEnd
  0
BLOCK
  5
7CE
330
7C3
100
AcDbEntity
  8
0
100
AcDbBlockBegin
  2
*D19
 70
     1
 10
0.0
 20
0.0
 30
0.0
  3
*D19
  1

  0
LINE
  5
D0A
330
7C3
100
AcDbEntity
  8
DIM
 62
     0
370
    -2
100
AcDbLine
 10
10.27832599999999
 20
7.860274999999999
 30
0.0
 11
10.27832599999999
 21
8.294816
 31
0.0
  0
LINE
  5
D0B
330
7C3
100
AcDbEntity
  8
DIM
 62
     0
370
    -2
100
AcDbLine
 10
8.638325999999999
 20
7.832275
 30
0.0
 11
8.638325999999999
 21
8.294816
 31
0.0
  0
LINE
  5
D0C
330
7C3
100
AcDbEntity
  8
DIM
 62
     0
370
    -2
100
AcDbLine
 10
10.008326
 20
8.155316
 30
0.0
 11
9.839419749999999
 21
8.155316
 31
0.0
  0
LINE
  5
D0D
330
7C3
100
AcDbEntity
  8
DIM
 62
     0
370
    -2
100
AcDbLine
 10
8.908325999999998
 20
8.155316
 30
0.0
 11
9.077232249999999
 21
8.155316
 31
0.0
  0
SOLID
  5
D0E
330
7C3
100
AcDbEntity
  8
DIM
 62
     0
100
AcDbTrace
 10
10.008326
 20
8.200316
 30
0.0
 11
10.008326
 21
8.110316
 31
0.0
 12
10.27832599999999
 22
8.155316
 32
0.0
 13
10.27832599999999
 23
8.155316
 33
0.0
  0
SOLID
  5
D0F
330
7C3
100
AcDbEntity
  8
DIM
 62
     0
100
AcDbTrace
 10
8.908325999999998
 20
8.200316
 30
0.0
 11
8.908325999999998
 21
8.110316
 31
0.0
 12
8.638325999999999
 22
8.155316
 32
0.0
 13
8.638325999999999
 23
8.155316
 33
0.0
  0
MTEXT
  5
D10
330
7C3
100
AcDbEntity
  8
DIM
 62
     0
100
AcDbMText
 10
9.458325999999999
 20
8.155316
 30
0.0
 40
0.1875
 41
0.0
 71
     5
 72
     1
  1
\A1;1.640
 73
     1
 44
1.0
  0
POINT
  5
D11
330
7C3
100
AcDbEntity
  8
DEFPOINTS
 62
     0
100
AcDbPoint
 10
10.27832599999999
 20
7.765774999999999
 30
0.0
  0
POINT
  5
D12
330
7C3
100
AcDbEntity
  8
DEFPOINTS
 62
     0
100
AcDbPoint
 10
8.638325999999999
 20
7.737775
 30
0.0
  0
POINT
  5
D13
330
7C3
100
AcDbEntity
  8
DEFPOINTS
 62
     0
100
AcDbPoint
 10
8.638325999999999
 20
8.155316
 30
0.0
  0
ENDBLK
  5
7CF
330
7C3
100
AcDbEntity
  8
0
100
AcDbBlockEnd
  0
BLOCK
  5
7DC
330
7D1
100
AcDbEntity
  8
0
100
AcDbBlockBegin
  2
*D20
 70
     1
 10
0.0
 20
0.0
 30
0.0
  3
*D20
  1

  0
LINE
  5
DF1
330
7D1
100
AcDbEntity
  8
DIM
 62
     0
370
    -2
100
AcDbLine
 10
10.27832599999999
 20
4.543275
 30
0.0
 11
10.27832599999999
 21
4.071435
 31
0.0
  0
LINE
  5
DF2
330
7D1
100
AcDbEntity
  8
DIM
 62
     0
370
    -2
100
AcDbLine
 10
9.013325999999999
 20
4.572025
 30
0.0
 11
9.013325999999999
 21
4.071435
 31
0.0
  0
LINE
  5
DF3
330
7D1
100
AcDbEntity
  8
DIM
 62
     0
370
    -2
100
AcDbLine
 10
10.54832599999999
 20
4.210935
 30
0.0
 11
10.818326
 21
4.210935
 31
0.0
  0
LINE
  5
DF4
330
7D1
100
AcDbEntity
  8
DIM
 62
     0
370
    -2
100
AcDbLine
 10
8.743325999999999
 20
4.210935
 30
0.0
 11
8.473326
 21
4.210935
 31
0.0
  0
SOLID
  5
DF5
330
7D1
100
AcDbEntity
  8
DIM
 62
     0
100
AcDbTrace
 10
10.54832599999999
 20
4.255935
 30
0.0
 11
10.54832599999999
 21
4.165935
 31
0.0
 12
10.27832599999999
 22
4.210935
 32
0.0
 13
10.27832599999999
 23
4.210935
 33
0.0
  0
SOLID
  5
DF6
330
7D1
100
AcDbEntity
  8
DIM
 62
     0
100
AcDbTrace
 10
8.743325999999999
 20
4.255935
 30
0.0
 11
8.743325999999999
 21
4.165935
 31
0.0
 12
9.013325999999999
 22
4.210935
 32
0.0
 13
9.013325999999999
 23
4.210935
 33
0.0
  0
MTEXT
  5
DF7
330
7D1
100
AcDbEntity
  8
DIM
 62
     0
100
AcDbMText
 10
9.645825999999999
 20
4.210935
 30
0.0
 40
0.1875
 41
0.0
 71
     5
 72
     1
  1
\A1;1.265
 73
     1
 44
1.0
  0
POINT
  5
DF8
330
7D1
100
AcDbEntity
  8
DEFPOINTS
 62
     0
100
AcDbPoint
 10
10.27832599999999
 20
4.637775
 30
0.0
  0
POINT
  5
DF9
330
7D1
100
AcDbEntity
  8
DEFPOINTS
 62
     0
100
AcDbPoint
 10
9.013325999999999
 20
4.666525
 30
0.0
  0
POINT
  5
DFA
330
7D1
100
AcDbEntity
  8
DEFPOINTS
 62
     0
100
AcDbPoint
 10
9.013325999999999
 20
4.210935
 30
0.0
  0
ENDBLK
  5
7DD
330
7D1
100
AcDbEntity
  8
0
100
AcDbBlockEnd
  0
BLOCK
  5
7EA
330
7DF
100
AcDbEntity
  8
0
100
AcDbBlockBegin
  2
*D21
 70
     1
 10
0.0
 20
0.0
 30
0.0
  3
*D21
  1

  0
LINE
  5
E05
330
7DF
100
AcDbEntity
  8
DIM
 62
     0
370
    -2
100
AcDbLine
 10
10.12132599999999
 20
6.083565
 30
0.0
 11
10.12132599999999
 21
6.274530999999999
 31
0.0
  0
LINE
  5
E06
330
7DF
100
AcDbEntity
  8
DIM
 62
     0
370
    -2
100
AcDbLine
 10
10.27832599999999
 20
6.083565
 30
0.0
 11
10.27832599999999
 21
6.274530999999999
 31
0.0
  0
LINE
  5
E07
330
7DF
100
AcDbEntity
  8
DIM
 62
     0
370
    -2
100
AcDbLine
 10
9.851326
 20
6.135030999999999
 30
0.0
 11
9.581326
 21
6.135030999999999
 31
0.0
  0
LINE
  5
E08
330
7DF
100
AcDbEntity
  8
DIM
 62
     0
370
    -2
100
AcDbLine
 10
10.54832599999999
 20
6.135030999999999
 30
0.0
 11
10.818326
 21
6.135030999999999
 31
0.0
  0
SOLID
  5
E09
330
7DF
100
AcDbEntity
  8
DIM
 62
     0
100
AcDbTrace
 10
9.851326
 20
6.180030999999999
 30
0.0
 11
9.851326
 21
6.090030999999999
 31
0.0
 12
10.12132599999999
 22
6.135030999999999
 32
0.0
 13
10.12132599999999
 23
6.135030999999999
 33
0.0
  0
SOLID
  5
E0A
330
7DF
100
AcDbEntity
  8
DIM
 62
     0
100
AcDbTrace
 10
10.54832599999999
 20
6.180030999999999
 30
0.0
 11
10.54832599999999
 21
6.090030999999999
 31
0.0
 12
10.27832599999999
 22
6.135030999999999
 32
0.0
 13
10.27832599999999
 23
6.135030999999999
 33
0.0
  0
MTEXT
  5
E0B
330
7DF
100
AcDbEntity
  8
DIM
 62
     0
100
AcDbMText
 10
11.19941975
 20
6.135030999999999
 30
0.0
 40
0.1875
 41
0.0
 71
     5
 72
     1
  1
\A1;0.157
 73
     1
 44
1.0
  0
POINT
  5
E0C
330
7DF
100
AcDbEntity
  8
DEFPOINTS
 62
     0
100
AcDbPoint
 10
10.12132599999999
 20
5.989065
 30
0.0
  0
POINT
  5
E0D
330
7DF
100
AcDbEntity
  8
DEFPOINTS
 62
     0
100
AcDbPoint
 10
10.27832599999999
 20
5.989065
 30
0.0
  0
POINT
  5
E0E
330
7DF
100
AcDbEntity
  8
DEFPOINTS
 62
     0
100
AcDbPoint
 10
10.27832599999999
 20
6.135030999999999
 30
0.0
  0
ENDBLK
  5
7EB
330
7DF
100
AcDbEntity
  8
0
100
AcDbBlockEnd
  0
BLOCK
  5
7F8
330
7ED
100
AcDbEntity
  8
0
100
AcDbBlockBegin
  2
*D22
 70
     1
 10
0.0
 20
0.0
 30
0.0
  3
*D22
  1

  0
LINE
  5
1255
330
7ED
100
AcDbEntity
  8
DIM
 62
     0
370
    -2
100
AcDbLine
 10
9.865325999999999
 20
6.805774999999999
 30
0.0
 11
9.865325999999999
 21
6.516395
 31
0.0
  0
LINE
  5
1256
330
7ED
100
AcDbEntity
  8
DIM
 62
     0
370
    -2
100
AcDbLine
 10
10.27832599999999
 20
6.805774999999999
 30
0.0
 11
10.27832599999999
 21
6.516395
 31
0.0
  0
LINE
  5
1257
330
7ED
100
AcDbEntity
  8
DIM
 62
     0
370
    -2
100
AcDbLine
 10
9.595326
 20
6.655895
 30
0.0
 11
9.325326
 21
6.655895
 31
0.0
  0
LINE
  5
1258
330
7ED
100
AcDbEntity
  8
DIM
 62
     0
370
    -2
100
AcDbLine
 10
10.54832599999999
 20
6.655895
 30
0.0
 11
10.818326
 21
6.655895
 31
0.0
  0
SOLID
  5
1259
330
7ED
100
AcDbEntity
  8
DIM
 62
     0
100
AcDbTrace
 10
9.595326
 20
6.700895
 30
0.0
 11
9.595326
 21
6.610895
 31
0.0
 12
9.865325999999999
 22
6.655895
 32
0.0
 13
9.865325999999999
 23
6.655895
 33
0.0
  0
SOLID
  5
125A
330
7ED
100
AcDbEntity
  8
DIM
 62
     0
100
AcDbTrace
 10
10.54832599999999
 20
6.700895
 30
0.0
 11
10.54832599999999
 21
6.610895
 31
0.0
 12
10.27832599999999
 22
6.655895
 32
0.0
 13
10.27832599999999
 23
6.655895
 33
0.0
  0
MTEXT
  5
125B
330
7ED
100
AcDbEntity
  8
DIM
 62
     0
100
AcDbMText
 10
11.19941975
 20
6.655895
 30
0.0
 40
0.1875
 41
0.0
 71
     5
 72
     1
  1
\A1;0.413
 73
     1
 44
1.0
  0
POINT
  5
125C
330
7ED
100
AcDbEntity
  8
DEFPOINTS
 62
     0
100
AcDbPoint
 10
9.865325999999999
 20
6.900274999999999
 30
0.0
  0
POINT
  5
125D
330
7ED
100
AcDbEntity
  8
DEFPOINTS
 62
     0
100
AcDbPoint
 10
10.27832599999999
 20
6.900274999999999
 30
0.0
  0
POINT
  5
125E
330
7ED
100
AcDbEntity
  8
DEFPOINTS
 62
     0
100
AcDbPoint
 10
10.27832599999999
 20
6.655895
 30
0.0
  0
ENDBLK
  5
7F9
330
7ED
100
AcDbEntity
  8
0
100
AcDbBlockEnd
  0
BLOCK
  5
806
330
7FB
100
AcDbEntity
  8
0
100
AcDbBlockBegin
  2
*D23
 70
     1
 10
0.0
 20
0.0
 30
0.0
  3
*D23
  1

  0
LINE
  5
DE7
330
7FB
100
AcDbEntity
  8
DIM
 62
     0
370
    -2
100
AcDbLine
 10
10.37282599999999
 20
4.666525
 30
0.0
 11
11.203761
 21
4.666525
 31
0.0
  0
LINE
  5
DE8
330
7FB
100
AcDbEntity
  8
DIM
 62
     0
370
    -2
100
AcDbLine
 10
10.37282599999999
 20
4.976524999999999
 30
0.0
 11
11.203761
 21
4.976524999999999
 31
0.0
  0
LINE
  5
DE9
330
7FB
100
AcDbEntity
  8
DIM
 62
     0
370
    -2
100
AcDbLine
 10
11.06426099999999
 20
4.396524999999999
 30
0.0
 11
11.06426099999999
 21
4.126524999999999
 31
0.0
  0
LINE
  5
DEA
330
7FB
100
AcDbEntity
  8
DIM
 62
     0
370
    -2
100
AcDbLine
 10
11.06426099999999
 20
5.246524999999999
 30
0.0
 11
11.06426099999999
 21
5.516524999999999
 31
0.0
  0
SOLID
  5
DEB
330
7FB
100
AcDbEntity
  8
DIM
 62
     0
100
AcDbTrace
 10
11.019261
 20
4.396524999999999
 30
0.0
 11
11.109261
 21
4.396524999999999
 31
0.0
 12
11.06426099999999
 22
4.666525
 32
0.0
 13
11.06426099999999
 23
4.666525
 33
0.0
  0
SOLID
  5
DEC
330
7FB
100
AcDbEntity
  8
DIM
 62
     0
100
AcDbTrace
 10
11.019261
 20
5.246524999999999
 30
0.0
 11
11.109261
 21
5.246524999999999
 31
0.0
 12
11.06426099999999
 22
4.976524999999999
 32
0.0
 13
11.06426099999999
 23
4.976524999999999
 33
0.0
  0
MTEXT
  5
DED
330
7FB
100
AcDbEntity
  8
DIM
 62
     0
100
AcDbMText
 10
11.06426099999999
 20
4.821525000000002
 30
0.0
 40
0.1875
 41
0.0
 71
     5
 72
     1
  1
\A1;0.310 DIA.
 73
     1
 44
1.0
  0
POINT
  5
DEE
330
7FB
100
AcDbEntity
  8
DEFPOINTS
 62
     0
100
AcDbPoint
 10
10.27832599999999
 20
4.666525
 30
0.0
  0
POINT
  5
DEF
330
7FB
100
AcDbEntity
  8
DEFPOINTS
 62
     0
100
AcDbPoint
 10
10.27832599999999
 20
4.976524999999999
 30
0.0
  0
POINT
  5
DF0
330
7FB
100
AcDbEntity
  8
DEFPOINTS
 62
     0
100
AcDbPoint
 10
11.06426099999999
 20
4.976524999999999
 30
0.0
  0
ENDBLK
  5
807
330
7FB
100
AcDbEntity
  8
0
100
AcDbBlockEnd
  0
BLOCK
  5
814
330
809
100
AcDbEntity
  8
0
100
AcDbBlockBegin
  2
*D24
 70
     1
 10
0.0
 20
0.0
 30
0.0
  3
*D24
  1

  0
LINE
  5
CF5
330
809
100
AcDbEntity
  8
DIM
 62
     0
370
    -2
100
AcDbLine
 10
10.37282599999999
 20
7.497275
 30
0.0
 11
10.834794
 21
7.497275
 31
0.0
  0
LINE
  5
CF6
330
809
100
AcDbEntity
  8
DIM
 62
     0
370
    -2
100
AcDbLine
 10
10.37282599999999
 20
7.662275
 30
0.0
 11
10.834794
 21
7.662275
 31
0.0
  0
LINE
  5
CF7
330
809
100
AcDbEntity
  8
DIM
 62
     0
370
    -2
100
AcDbLine
 10
10.695294
 20
7.227274999999999
 30
0.0
 11
10.695294
 21
6.957275
 31
0.0
  0
LINE
  5
CF8
330
809
100
AcDbEntity
  8
DIM
 62
     0
370
    -2
100
AcDbLine
 10
10.695294
 20
7.932274999999999
 30
0.0
 11
10.695294
 21
8.202275000000001
 31
0.0
  0
LINE
  5
CF9
330
809
100
AcDbEntity
  8
DIM
 62
     0
370
    -2
100
AcDbLine
 10
10.695294
 20
8.202275000000001
 30
0.0
 11
10.965294
 21
8.202275000000001
 31
0.0
  0
SOLID
  5
CFA
330
809
100
AcDbEntity
  8
DIM
 62
     0
100
AcDbTrace
 10
10.650294
 20
7.227274999999999
 30
0.0
 11
10.740294
 21
7.227274999999999
 31
0.0
 12
10.695294
 22
7.497275
 32
0.0
 13
10.695294
 23
7.497275
 33
0.0
  0
SOLID
  5
CFB
330
809
100
AcDbEntity
  8
DIM
 62
     0
100
AcDbTrace
 10
10.650294
 20
7.932274999999999
 30
0.0
 11
10.740294
 21
7.932274999999999
 31
0.0
 12
10.695294
 22
7.662275
 32
0.0
 13
10.695294
 23
7.662275
 33
0.0
  0
MTEXT
  5
CFC
330
809
100
AcDbEntity
  8
DIM
 62
     0
100
AcDbMText
 10
11.62763774999999
 20
8.202275000000003
 30
0.0
 40
0.1875
 41
0.0
 71
     5
 72
     1
  1
\A1;0.165 DIA.
 73
     1
 44
1.0
  0
POINT
  5
CFD
330
809
100
AcDbEntity
  8
DEFPOINTS
 62
     0
100
AcDbPoint
 10
10.27832599999999
 20
7.497275
 30
0.0
  0
POINT
  5
CFE
330
809
100
AcDbEntity
  8
DEFPOINTS
 62
     0
100
AcDbPoint
 10
10.27832599999999
 20
7.662275
 30
0.0
  0
POINT
  5
CFF
330
809
100
AcDbEntity
  8
DEFPOINTS
 62
     0
100
AcDbPoint
 10
10.695294
 20
7.662275
 30
0.0
  0
ENDBLK
  5
815
330
809
100
AcDbEntity
  8
0
100
AcDbBlockEnd
  0
BLOCK
  5
837
330
82C
100
AcDbEntity
  8
0
100
AcDbBlockBegin
  2
*D25
 70
     1
 10
0.0
 20
0.0
 30
0.0
  3
*D25
  1

  0
LINE
  5
D97
330
82C
100
AcDbEntity
  8
DIM
 62
     0
370
    -2
100
AcDbLine
 10
3.718293
 20
5.059775
 30
0.0
 11
3.267551999999999
 21
5.059775
 31
0.0
  0
LINE
  5
D98
330
82C
100
AcDbEntity
  8
DIM
 62
     0
370
    -2
100
AcDbLine
 10
3.718293
 20
7.332896999999999
 30
0.0
 11
3.267551999999999
 21
7.332896999999999
 31
0.0
  0
LINE
  5
D99
330
82C
100
AcDbEntity
  8
DIM
 62
     0
370
    -2
100
AcDbLine
 10
3.407051999999999
 20
5.329775
 30
0.0
 11
3.407051999999999
 21
5.967586
 31
0.0
  0
LINE
  5
D9A
330
82C
100
AcDbEntity
  8
DIM
 62
     0
370
    -2
100
AcDbLine
 10
3.407051999999999
 20
7.062897
 30
0.0
 11
3.407051999999999
 21
6.425086
 31
0.0
  0
SOLID
  5
D9B
330
82C
100
AcDbEntity
  8
DIM
 62
     0
100
AcDbTrace
 10
3.362051999999999
 20
5.329775
 30
0.0
 11
3.452051999999999
 21
5.329775
 31
0.0
 12
3.407051999999999
 22
5.059775
 32
0.0
 13
3.407051999999999
 23
5.059775
 33
0.0
  0
SOLID
  5
D9C
330
82C
100
AcDbEntity
  8
DIM
 62
     0
100
AcDbTrace
 10
3.362051999999999
 20
7.062897
 30
0.0
 11
3.452051999999999
 21
7.062897
 31
0.0
 12
3.407051999999999
 22
7.332896999999999
 32
0.0
 13
3.407051999999999
 23
7.332896999999999
 33
0.0
  0
MTEXT
  5
D9D
330
82C
100
AcDbEntity
  8
DIM
 62
     0
100
AcDbMText
 10
3.407051999999998
 20
6.196336000000001
 30
0.0
 40
0.1875
 41
0.0
 71
     5
 72
     1
  1
\A1;2.273
 73
     1
 44
1.0
  0
POINT
  5
D9E
330
82C
100
AcDbEntity
  8
DEFPOINTS
 62
     0
100
AcDbPoint
 10
3.812793
 20
5.059775
 30
0.0
  0
POINT
  5
D9F
330
82C
100
AcDbEntity
  8
DEFPOINTS
 62
     0
100
AcDbPoint
 10
3.812793
 20
7.332896999999999
 30
0.0
  0
POINT
  5
DA0
330
82C
100
AcDbEntity
  8
DEFPOINTS
 62
     0
100
AcDbPoint
 10
3.407051999999999
 20
7.332896999999999
 30
0.0
  0
ENDBLK
  5
838
330
82C
100
AcDbEntity
  8
0
100
AcDbBlockEnd
  0
BLOCK
  5
845
330
83A
100
AcDbEntity
  8
0
100
AcDbBlockBegin
  2
*D26
 70
     1
 10
0.0
 20
0.0
 30
0.0
  3
*D26
  1

  0
LINE
  5
D00
330
83A
100
AcDbEntity
  8
DIM
 62
     0
370
    -2
100
AcDbLine
 10
3.718293
 20
7.332896999999999
 30
0.0
 11
3.267551999999999
 21
7.332896999999999
 31
0.0
  0
LINE
  5
D01
330
83A
100
AcDbEntity
  8
DIM
 62
     0
370
    -2
100
AcDbLine
 10
3.425069
 20
7.815775
 30
0.0
 11
3.546551999999999
 21
7.815775
 31
0.0
  0
LINE
  5
D02
330
83A
100
AcDbEntity
  8
DIM
 62
     0
370
    -2
100
AcDbLine
 10
3.407051999999999
 20
7.062897
 30
0.0
 11
3.407051999999999
 21
6.792896999999999
 31
0.0
  0
LINE
  5
D03
330
83A
100
AcDbEntity
  8
DIM
 62
     0
370
    -2
100
AcDbLine
 10
3.407051999999999
 20
8.085775000000001
 30
0.0
 11
3.407051999999999
 21
8.355775000000001
 31
0.0
  0
SOLID
  5
D04
330
83A
100
AcDbEntity
  8
DIM
 62
     0
100
AcDbTrace
 10
3.362051999999999
 20
7.062897
 30
0.0
 11
3.452051999999999
 21
7.062897
 31
0.0
 12
3.407051999999999
 22
7.332896999999999
 32
0.0
 13
3.407051999999999
 23
7.332896999999999
 33
0.0
  0
SOLID
  5
D05
330
83A
100
AcDbEntity
  8
DIM
 62
     0
100
AcDbTrace
 10
3.362051999999999
 20
8.085775000000001
 30
0.0
 11
3.452051999999999
 21
8.085775000000001
 31
0.0
 12
3.407051999999999
 22
7.815775
 32
0.0
 13
3.407051999999999
 23
7.815775
 33
0.0
  0
MTEXT
  5
D06
330
83A
100
AcDbEntity
  8
DIM
 62
     0
100
AcDbMText
 10
3.407051999999998
 20
7.574336
 30
0.0
 40
0.1875
 41
0.0
 71
     5
 72
     1
  1
\A1;0.483
 73
     1
 44
1.0
  0
POINT
  5
D07
330
83A
100
AcDbEntity
  8
DEFPOINTS
 62
     0
100
AcDbPoint
 10
3.812793
 20
7.332896999999999
 30
0.0
  0
POINT
  5
D08
330
83A
100
AcDbEntity
  8
DEFPOINTS
 62
     0
100
AcDbPoint
 10
3.330569
 20
7.815775
 30
0.0
  0
POINT
  5
D09
330
83A
100
AcDbEntity
  8
DEFPOINTS
 62
     0
100
AcDbPoint
 10
3.407051999999999
 20
7.815775
 30
0.0
  0
ENDBLK
  5
846
330
83A
100
AcDbEntity
  8
0
100
AcDbBlockEnd
  0
BLOCK
  5
853
330
848
100
AcDbEntity
  8
0
100
AcDbBlockBegin
  2
*D27
 70
     1
 10
0.0
 20
0.0
 30
0.0
  3
*D27
  1

  0
LINE
  5
DAB
330
848
100
AcDbEntity
  8
DIM
 62
     0
370
    -2
100
AcDbLine
 10
3.812793
 20
4.965275
 30
0.0
 11
3.812793
 21
3.655747
 31
0.0
  0
LINE
  5
DAC
330
848
100
AcDbEntity
  8
DIM
 62
     0
370
    -2
100
AcDbLine
 10
2.237792999999999
 20
4.712024999999999
 30
0.0
 11
2.237792999999999
 21
3.655747
 31
0.0
  0
LINE
  5
DAD
330
848
100
AcDbEntity
  8
DIM
 62
     0
370
    -2
100
AcDbLine
 10
4.082793
 20
3.795247
 30
0.0
 11
4.352793
 21
3.795247
 31
0.0
  0
LINE
  5
DAE
330
848
100
AcDbEntity
  8
DIM
 62
     0
370
    -2
100
AcDbLine
 10
1.967792999999999
 20
3.795247
 30
0.0
 11
1.697792999999999
 21
3.795247
 31
0.0
  0
SOLID
  5
DAF
330
848
100
AcDbEntity
  8
DIM
 62
     0
100
AcDbTrace
 10
4.082793
 20
3.840247
 30
0.0
 11
4.082793
 21
3.750247
 31
0.0
 12
3.812793
 22
3.795247
 32
0.0
 13
3.812793
 23
3.795247
 33
0.0
  0
SOLID
  5
DB0
330
848
100
AcDbEntity
  8
DIM
 62
     0
100
AcDbTrace
 10
1.967792999999999
 20
3.840247
 30
0.0
 11
1.967792999999999
 21
3.750247
 31
0.0
 12
2.237792999999999
 22
3.795247
 32
0.0
 13
2.237792999999999
 23
3.795247
 33
0.0
  0
MTEXT
  5
DB1
330
848
100
AcDbEntity
  8
DIM
 62
     0
100
AcDbMText
 10
3.025293
 20
3.795247
 30
0.0
 40
0.1875
 41
0.0
 71
     5
 72
     1
  1
\A1;1.575
 73
     1
 44
1.0
  0
POINT
  5
DB2
330
848
100
AcDbEntity
  8
DEFPOINTS
 62
     0
100
AcDbPoint
 10
3.812793
 20
5.059775
 30
0.0
  0
POINT
  5
DB3
330
848
100
AcDbEntity
  8
DEFPOINTS
 62
     0
100
AcDbPoint
 10
2.237792999999999
 20
4.806524999999999
 30
0.0
  0
POINT
  5
DB4
330
848
100
AcDbEntity
  8
DEFPOINTS
 62
     0
100
AcDbPoint
 10
2.237792999999999
 20
3.795247
 30
0.0
  0
ENDBLK
  5
854
330
848
100
AcDbEntity
  8
0
100
AcDbBlockEnd
  0
BLOCK
  5
86E
330
863
100
AcDbEntity
  8
0
100
AcDbBlockBegin
  2
*D28
 70
     1
 10
0.0
 20
0.0
 30
0.0
  3
*D28
  1

  0
LINE
  5
E2D
330
863
100
AcDbEntity
  8
DIM
 62
     0
370
    -2
100
AcDbLine
 10
15.80749599999999
 20
7.579774999999999
 30
0.0
 11
16.599685
 21
7.579774999999999
 31
0.0
  0
LINE
  5
E2E
330
863
100
AcDbEntity
  8
DIM
 62
     0
370
    -2
100
AcDbLine
 10
15.824746
 20
7.815775
 30
0.0
 11
16.599685
 21
7.815775
 31
0.0
  0
LINE
  5
E2F
330
863
100
AcDbEntity
  8
DIM
 62
     0
370
    -2
100
AcDbLine
 10
16.460185
 20
7.309775
 30
0.0
 11
16.460185
 21
7.039774999999999
 31
0.0
  0
LINE
  5
E30
330
863
100
AcDbEntity
  8
DIM
 62
     0
370
    -2
100
AcDbLine
 10
16.460185
 20
8.085774999999999
 30
0.0
 11
16.460185
 21
8.355775000000001
 31
0.0
  0
LINE
  5
E31
330
863
100
AcDbEntity
  8
DIM
 62
     0
370
    -2
100
AcDbLine
 10
16.460185
 20
8.355775000000001
 30
0.0
 11
16.730185
 21
8.355775000000001
 31
0.0
  0
SOLID
  5
E32
330
863
100
AcDbEntity
  8
DIM
 62
     0
100
AcDbTrace
 10
16.41518499999999
 20
7.309775
 30
0.0
 11
16.505185
 21
7.309775
 31
0.0
 12
16.460185
 22
7.579774999999999
 32
0.0
 13
16.460185
 23
7.579774999999999
 33
0.0
  0
SOLID
  5
E33
330
863
100
AcDbEntity
  8
DIM
 62
     0
100
AcDbTrace
 10
16.415185
 20
8.085774999999999
 30
0.0
 11
16.505185
 21
8.085774999999999
 31
0.0
 12
16.460185
 22
7.815775
 32
0.0
 13
16.460185
 23
7.815775
 33
0.0
  0
MTEXT
  5
E34
330
863
100
AcDbEntity
  8
DIM
 62
     0
100
AcDbMText
 10
17.13471625
 20
8.355775000000003
 30
0.0
 40
0.1875
 41
0.0
 71
     5
 72
     1
  1
\A1;0.236
 73
     1
 44
1.0
  0
POINT
  5
E35
330
863
100
AcDbEntity
  8
DEFPOINTS
 62
     0
100
AcDbPoint
 10
15.71299599999999
 20
7.579774999999999
 30
0.0
  0
POINT
  5
E36
330
863
100
AcDbEntity
  8
DEFPOINTS
 62
     0
100
AcDbPoint
 10
15.730246
 20
7.815775
 30
0.0
  0
POINT
  5
E37
330
863
100
AcDbEntity
  8
DEFPOINTS
 62
     0
100
AcDbPoint
 10
16.460185
 20
7.815775
 30
0.0
  0
ENDBLK
  5
86F
330
863
100
AcDbEntity
  8
0
100
AcDbBlockEnd
  0
BLOCK
  5
87C
330
871
100
AcDbEntity
  8
0
100
AcDbBlockBegin
  2
*D29
 70
     1
 10
0.0
 20
0.0
 30
0.0
  3
*D29
  1

  0
LINE
  5
E4D
330
871
100
AcDbEntity
  8
DIM
 62
     0
370
    -2
100
AcDbLine
 10
15.80749599999999
 20
4.823775
 30
0.0
 11
16.599685
 21
4.823775
 31
0.0
  0
LINE
  5
E4E
330
871
100
AcDbEntity
  8
DIM
 62
     0
370
    -2
100
AcDbLine
 10
15.80749599999999
 20
7.579774999999999
 30
0.0
 11
16.599685
 21
7.579774999999999
 31
0.0
  0
LINE
  5
E4F
330
871
100
AcDbEntity
  8
DIM
 62
     0
370
    -2
100
AcDbLine
 10
16.460185
 20
5.093775
 30
0.0
 11
16.460185
 21
5.973025
 31
0.0
  0
LINE
  5
E50
330
871
100
AcDbEntity
  8
DIM
 62
     0
370
    -2
100
AcDbLine
 10
16.460185
 20
7.309775
 30
0.0
 11
16.460185
 21
6.430525
 31
0.0
  0
SOLID
  5
E51
330
871
100
AcDbEntity
  8
DIM
 62
     0
100
AcDbTrace
 10
16.41518499999999
 20
5.093775
 30
0.0
 11
16.505185
 21
5.093775
 31
0.0
 12
16.460185
 22
4.823775
 32
0.0
 13
16.460185
 23
4.823775
 33
0.0
  0
SOLID
  5
E52
330
871
100
AcDbEntity
  8
DIM
 62
     0
100
AcDbTrace
 10
16.41518499999999
 20
7.309775
 30
0.0
 11
16.505185
 21
7.309775
 31
0.0
 12
16.460185
 22
7.579774999999999
 32
0.0
 13
16.460185
 23
7.579774999999999
 33
0.0
  0
MTEXT
  5
E53
330
871
100
AcDbEntity
  8
DIM
 62
     0
100
AcDbMText
 10
16.460185
 20
6.201775000000003
 30
0.0
 40
0.1875
 41
0.0
 71
     5
 72
     1
  1
\A1;2.756
 73
     1
 44
1.0
  0
POINT
  5
E54
330
871
100
AcDbEntity
  8
DEFPOINTS
 62
     0
100
AcDbPoint
 10
15.71299599999999
 20
4.823775
 30
0.0
  0
POINT
  5
E55
330
871
100
AcDbEntity
  8
DEFPOINTS
 62
     0
100
AcDbPoint
 10
15.71299599999999
 20
7.579774999999999
 30
0.0
  0
POINT
  5
E56
330
871
100
AcDbEntity
  8
DEFPOINTS
 62
     0
100
AcDbPoint
 10
16.460185
 20
7.579774999999999
 30
0.0
  0
ENDBLK
  5
87D
330
871
100
AcDbEntity
  8
0
100
AcDbBlockEnd
  0
BLOCK
  5
88A
330
87F
100
AcDbEntity
  8
0
100
AcDbBlockBegin
  2
*D30
 70
     1
 10
0.0
 20
0.0
 30
0.0
  3
*D30
  1

  0
LINE
  5
E23
330
87F
100
AcDbEntity
  8
DIM
 62
     0
370
    -2
100
AcDbLine
 10
15.824746
 20
4.587774999999999
 30
0.0
 11
17.36051099999999
 21
4.587774999999999
 31
0.0
  0
LINE
  5
E24
330
87F
100
AcDbEntity
  8
DIM
 62
     0
370
    -2
100
AcDbLine
 10
15.824746
 20
7.815775
 30
0.0
 11
17.36051099999999
 21
7.815775
 31
0.0
  0
LINE
  5
E25
330
87F
100
AcDbEntity
  8
DIM
 62
     0
370
    -2
100
AcDbLine
 10
17.22101099999999
 20
4.857775
 30
0.0
 11
17.22101099999999
 21
5.973025
 31
0.0
  0
LINE
  5
E26
330
87F
100
AcDbEntity
  8
DIM
 62
     0
370
    -2
100
AcDbLine
 10
17.22101099999999
 20
7.545775
 30
0.0
 11
17.22101099999999
 21
6.430525
 31
0.0
  0
SOLID
  5
E27
330
87F
100
AcDbEntity
  8
DIM
 62
     0
100
AcDbTrace
 10
17.17601099999999
 20
4.857775
 30
0.0
 11
17.26601099999999
 21
4.857775
 31
0.0
 12
17.22101099999999
 22
4.587774999999999
 32
0.0
 13
17.22101099999999
 23
4.587774999999999
 33
0.0
  0
SOLID
  5
E28
330
87F
100
AcDbEntity
  8
DIM
 62
     0
100
AcDbTrace
 10
17.17601099999999
 20
7.545775
 30
0.0
 11
17.26601099999999
 21
7.545775
 31
0.0
 12
17.22101099999999
 22
7.815775
 32
0.0
 13
17.22101099999999
 23
7.815775
 33
0.0
  0
MTEXT
  5
E29
330
87F
100
AcDbEntity
  8
DIM
 62
     0
100
AcDbMText
 10
17.22101099999999
 20
6.201775000000003
 30
0.0
 40
0.1875
 41
0.0
 71
     5
 72
     1
  1
\A1;3.228
 73
     1
 44
1.0
  0
POINT
  5
E2A
330
87F
100
AcDbEntity
  8
DEFPOINTS
 62
     0
100
AcDbPoint
 10
15.730246
 20
4.587774999999999
 30
0.0
  0
POINT
  5
E2B
330
87F
100
AcDbEntity
  8
DEFPOINTS
 62
     0
100
AcDbPoint
 10
15.730246
 20
7.815775
 30
0.0
  0
POINT
  5
E2C
330
87F
100
AcDbEntity
  8
DEFPOINTS
 62
     0
100
AcDbPoint
 10
17.22101099999999
 20
7.815775
 30
0.0
  0
ENDBLK
  5
88B
330
87F
100
AcDbEntity
  8
0
100
AcDbBlockEnd
  0
BLOCK
  5
898
330
88D
100
AcDbEntity
  8
0
100
AcDbBlockBegin
  2
*D31
 70
     1
 10
0.0
 20
0.0
 30
0.0
  3
*D31
  1

  0
LINE
  5
CEB
330
88D
100
AcDbEntity
  8
DIM
 62
     0
370
    -2
100
AcDbLine
 10
13.034996
 20
7.674274999999999
 30
0.0
 11
13.034996
 21
8.822269999999999
 31
0.0
  0
LINE
  5
CEC
330
88D
100
AcDbEntity
  8
DIM
 62
     0
370
    -2
100
AcDbLine
 10
12.798996
 20
7.691525
 30
0.0
 11
12.798996
 21
8.822269999999999
 31
0.0
  0
LINE
  5
CED
330
88D
100
AcDbEntity
  8
DIM
 62
     0
370
    -2
100
AcDbLine
 10
13.304996
 20
8.682769999999999
 30
0.0
 11
13.574996
 21
8.682769999999999
 31
0.0
  0
LINE
  5
CEE
330
88D
100
AcDbEntity
  8
DIM
 62
     0
370
    -2
100
AcDbLine
 10
12.528996
 20
8.682769999999999
 30
0.0
 11
12.25899599999999
 21
8.682769999999999
 31
0.0
  0
SOLID
  5
CEF
330
88D
100
AcDbEntity
  8
DIM
 62
     0
100
AcDbTrace
 10
13.304996
 20
8.727769999999999
 30
0.0
 11
13.304996
 21
8.637769999999999
 31
0.0
 12
13.034996
 22
8.682769999999999
 32
0.0
 13
13.034996
 23
8.682769999999999
 33
0.0
  0
SOLID
  5
CF0
330
88D
100
AcDbEntity
  8
DIM
 62
     0
100
AcDbTrace
 10
12.528996
 20
8.727769999999999
 30
0.0
 11
12.528996
 21
8.637769999999999
 31
0.0
 12
12.798996
 22
8.682769999999999
 32
0.0
 13
12.798996
 23
8.682769999999999
 33
0.0
  0
MTEXT
  5
CF1
330
88D
100
AcDbEntity
  8
DIM
 62
     0
100
AcDbMText
 10
11.85446474999999
 20
8.682769999999999
 30
0.0
 40
0.1875
 41
0.0
 71
     5
 72
     1
  1
\A1;0.236
 73
     1
 44
1.0
  0
POINT
  5
CF2
330
88D
100
AcDbEntity
  8
DEFPOINTS
 62
     0
100
AcDbPoint
 10
13.034996
 20
7.579774999999999
 30
0.0
  0
POINT
  5
CF3
330
88D
100
AcDbEntity
  8
DEFPOINTS
 62
     0
100
AcDbPoint
 10
12.798996
 20
7.597025
 30
0.0
  0
POINT
  5
CF4
330
88D
100
AcDbEntity
  8
DEFPOINTS
 62
     0
100
AcDbPoint
 10
12.798996
 20
8.682769999999999
 30
0.0
  0
ENDBLK
  5
899
330
88D
100
AcDbEntity
  8
0
100
AcDbBlockEnd
  0
BLOCK
  5
8A6
330
89B
100
AcDbEntity
  8
0
100
AcDbBlockBegin
  2
*D32
 70
     1
 10
0.0
 20
0.0
 30
0.0
  3
*D32
  1

  0
LINE
  5
E19
330
89B
100
AcDbEntity
  8
DIM
 62
     0
370
    -2
100
AcDbLine
 10
15.71299599999999
 20
7.674274999999999
 30
0.0
 11
15.71299599999999
 21
8.822269999999999
 31
0.0
  0
LINE
  5
E1A
330
89B
100
AcDbEntity
  8
DIM
 62
     0
370
    -2
100
AcDbLine
 10
13.034996
 20
7.674274999999999
 30
0.0
 11
13.034996
 21
8.822269999999999
 31
0.0
  0
LINE
  5
E1B
330
89B
100
AcDbEntity
  8
DIM
 62
     0
370
    -2
100
AcDbLine
 10
15.44299599999999
 20
8.682769999999999
 30
0.0
 11
14.79024599999999
 21
8.682769999999999
 31
0.0
  0
LINE
  5
E1C
330
89B
100
AcDbEntity
  8
DIM
 62
     0
370
    -2
100
AcDbLine
 10
13.304996
 20
8.682769999999999
 30
0.0
 11
13.957746
 21
8.682769999999999
 31
0.0
  0
SOLID
  5
E1D
330
89B
100
AcDbEntity
  8
DIM
 62
     0
100
AcDbTrace
 10
15.44299599999999
 20
8.727769999999999
 30
0.0
 11
15.44299599999999
 21
8.637769999999999
 31
0.0
 12
15.71299599999999
 22
8.682769999999999
 32
0.0
 13
15.71299599999999
 23
8.682769999999999
 33
0.0
  0
SOLID
  5
E1E
330
89B
100
AcDbEntity
  8
DIM
 62
     0
100
AcDbTrace
 10
13.304996
 20
8.727769999999999
 30
0.0
 11
13.304996
 21
8.637769999999999
 31
0.0
 12
13.034996
 22
8.682769999999999
 32
0.0
 13
13.034996
 23
8.682769999999999
 33
0.0
  0
MTEXT
  5
E1F
330
89B
100
AcDbEntity
  8
DIM
 62
     0
100
AcDbMText
 10
14.37399599999999
 20
8.682769999999999
 30
0.0
 40
0.1875
 41
0.0
 71
     5
 72
     1
  1
\A1;2.678
 73
     1
 44
1.0
  0
POINT
  5
E20
330
89B
100
AcDbEntity
  8
DEFPOINTS
 62
     0
100
AcDbPoint
 10
15.71299599999999
 20
7.579774999999999
 30
0.0
  0
POINT
  5
E21
330
89B
100
AcDbEntity
  8
DEFPOINTS
 62
     0
100
AcDbPoint
 10
13.034996
 20
7.579774999999999
 30
0.0
  0
POINT
  5
E22
330
89B
100
AcDbEntity
  8
DEFPOINTS
 62
     0
100
AcDbPoint
 10
13.034996
 20
8.682769999999999
 30
0.0
  0
ENDBLK
  5
8A7
330
89B
100
AcDbEntity
  8
0
100
AcDbBlockEnd
  0
BLOCK
  5
8B4
330
8A9
100
AcDbEntity
  8
0
100
AcDbBlockBegin
  2
*D33
 70
     1
 10
0.0
 20
0.0
 30
0.0
  3
*D33
  1

  0
LINE
  5
E0F
330
8A9
100
AcDbEntity
  8
DIM
 62
     0
370
    -2
100
AcDbLine
 10
15.94899599999999
 20
7.691525
 30
0.0
 11
15.94899599999999
 21
9.243769999999999
 31
0.0
  0
LINE
  5
E10
330
8A9
100
AcDbEntity
  8
DIM
 62
     0
370
    -2
100
AcDbLine
 10
12.798996
 20
7.691525
 30
0.0
 11
12.798996
 21
9.243769999999999
 31
0.0
  0
LINE
  5
E11
330
8A9
100
AcDbEntity
  8
DIM
 62
     0
370
    -2
100
AcDbLine
 10
15.678996
 20
9.104269999999999
 30
0.0
 11
14.75508975
 21
9.104269999999999
 31
0.0
  0
LINE
  5
E12
330
8A9
100
AcDbEntity
  8
DIM
 62
     0
370
    -2
100
AcDbLine
 10
13.068996
 20
9.104269999999999
 30
0.0
 11
13.99290225
 21
9.104269999999999
 31
0.0
  0
SOLID
  5
E13
330
8A9
100
AcDbEntity
  8
DIM
 62
     0
100
AcDbTrace
 10
15.678996
 20
9.149269999999999
 30
0.0
 11
15.678996
 21
9.059269999999999
 31
0.0
 12
15.94899599999999
 22
9.104269999999999
 32
0.0
 13
15.94899599999999
 23
9.104269999999999
 33
0.0
  0
SOLID
  5
E14
330
8A9
100
AcDbEntity
  8
DIM
 62
     0
100
AcDbTrace
 10
13.068996
 20
9.149269999999999
 30
0.0
 11
13.068996
 21
9.059269999999999
 31
0.0
 12
12.798996
 22
9.104269999999999
 32
0.0
 13
12.798996
 23
9.104269999999999
 33
0.0
  0
MTEXT
  5
E15
330
8A9
100
AcDbEntity
  8
DIM
 62
     0
100
AcDbMText
 10
14.37399599999999
 20
9.104269999999999
 30
0.0
 40
0.1875
 41
0.0
 71
     5
 72
     1
  1
\A1;3.150
 73
     1
 44
1.0
  0
POINT
  5
E16
330
8A9
100
AcDbEntity
  8
DEFPOINTS
 62
     0
100
AcDbPoint
 10
15.94899599999999
 20
7.597025
 30
0.0
  0
POINT
  5
E17
330
8A9
100
AcDbEntity
  8
DEFPOINTS
 62
     0
100
AcDbPoint
 10
12.798996
 20
7.597025
 30
0.0
  0
POINT
  5
E18
330
8A9
100
AcDbEntity
  8
DEFPOINTS
 62
     0
100
AcDbPoint
 10
12.798996
 20
9.104269999999999
 30
0.0
  0
ENDBLK
  5
8B5
330
8A9
100
AcDbEntity
  8
0
100
AcDbBlockEnd
  0
BLOCK
  5
8CA
330
8BF
100
AcDbEntity
  8
0
100
AcDbBlockBegin
  2
*D34
 70
     1
 10
0.0
 20
0.0
 30
0.0
  3
*D34
  1

  0
LINE
  5
E42
330
8BF
100
AcDbEntity
  8
DIM
 62
     0
370
    -2
100
AcDbLine
 10
14.462944
 20
4.765774999999999
 30
0.0
 11
14.566537
 21
4.765774999999999
 31
0.0
  0
LINE
  5
E43
330
8BF
100
AcDbEntity
  8
DIM
 62
     0
370
    -2
100
AcDbLine
 10
14.462944
 20
4.587774999999999
 30
0.0
 11
14.566537
 21
4.587774999999999
 31
0.0
  0
LINE
  5
E44
330
8BF
100
AcDbEntity
  8
DIM
 62
     0
370
    -2
100
AcDbLine
 10
14.427037
 20
5.035774999999999
 30
0.0
 11
14.427037
 21
5.305774999999999
 31
0.0
  0
LINE
  5
E45
330
8BF
100
AcDbEntity
  8
DIM
 62
     0
370
    -2
100
AcDbLine
 10
14.427037
 20
4.317774999999999
 30
0.0
 11
14.427037
 21
4.047774999999999
 31
0.0
  0
LINE
  5
E46
330
8BF
100
AcDbEntity
  8
DIM
 62
     0
370
    -2
100
AcDbLine
 10
14.427037
 20
4.047774999999999
 30
0.0
 11
14.157037
 21
4.047774999999999
 31
0.0
  0
SOLID
  5
E47
330
8BF
100
AcDbEntity
  8
DIM
 62
     0
100
AcDbTrace
 10
14.382037
 20
5.035774999999999
 30
0.0
 11
14.472037
 21
5.035774999999999
 31
0.0
 12
14.427037
 22
4.765774999999999
 32
0.0
 13
14.427037
 23
4.765774999999999
 33
0.0
  0
SOLID
  5
E48
330
8BF
100
AcDbEntity
  8
DIM
 62
     0
100
AcDbTrace
 10
14.382037
 20
4.317774999999999
 30
0.0
 11
14.472037
 21
4.317774999999999
 31
0.0
 12
14.427037
 22
4.587774999999999
 32
0.0
 13
14.427037
 23
4.587774999999999
 33
0.0
  0
MTEXT
  5
E49
330
8BF
100
AcDbEntity
  8
DIM
 62
     0
100
AcDbMText
 10
13.47125574999999
 20
4.047775000000002
 30
0.0
 40
0.1875
 41
0.0
 71
     5
 72
     1
  1
\A1;0.178 TYP.
 73
     1
 44
1.0
  0
POINT
  5
E4A
330
8BF
100
AcDbEntity
  8
DEFPOINTS
 62
     0
100
AcDbPoint
 10
14.368444
 20
4.765774999999999
 30
0.0
  0
POINT
  5
E4B
330
8BF
100
AcDbEntity
  8
DEFPOINTS
 62
     0
100
AcDbPoint
 10
14.368444
 20
4.587774999999999
 30
0.0
  0
POINT
  5
E4C
330
8BF
100
AcDbEntity
  8
DEFPOINTS
 62
     0
100
AcDbPoint
 10
14.427037
 20
4.587774999999999
 30
0.0
  0
ENDBLK
  5
8CB
330
8BF
100
AcDbEntity
  8
0
100
AcDbBlockEnd
  0
BLOCK
  5
90C
330
901
100
AcDbEntity
  8
0
100
AcDbBlockBegin
  2
*D35
 70
     1
 10
0.0
 20
0.0
 30
0.0
  3
*D35
  1

  0
LINE
  5
E57
330
901
100
AcDbEntity
  8
DIM
 62
     0
370
    -2
100
AcDbLine
 10
20.59447699999999
 20
4.555774999999999
 30
0.0
 11
20.59447699999999
 21
3.908274999999999
 31
0.0
  0
LINE
  5
E58
330
901
100
AcDbEntity
  8
DIM
 62
     0
370
    -2
100
AcDbLine
 10
21.185477
 20
4.493274999999999
 30
0.0
 11
21.185477
 21
3.908274999999999
 31
0.0
  0
LINE
  5
E59
330
901
100
AcDbEntity
  8
DIM
 62
     0
370
    -2
100
AcDbLine
 10
20.324477
 20
4.047774999999999
 30
0.0
 11
20.05447699999999
 21
4.047774999999999
 31
0.0
  0
LINE
  5
E5A
330
901
100
AcDbEntity
  8
DIM
 62
     0
370
    -2
100
AcDbLine
 10
21.45547699999999
 20
4.047774999999999
 30
0.0
 11
21.72547699999999
 21
4.047774999999999
 31
0.0
  0
SOLID
  5
E5B
330
901
100
AcDbEntity
  8
DIM
 62
     0
100
AcDbTrace
 10
20.324477
 20
4.092774999999999
 30
0.0
 11
20.324477
 21
4.002774999999999
 31
0.0
 12
20.59447699999999
 22
4.047774999999999
 32
0.0
 13
20.59447699999999
 23
4.047774999999999
 33
0.0
  0
SOLID
  5
E5C
330
901
100
AcDbEntity
  8
DIM
 62
     0
100
AcDbTrace
 10
21.45547699999999
 20
4.092774999999999
 30
0.0
 11
21.45547699999999
 21
4.002774999999999
 31
0.0
 12
21.185477
 22
4.047774999999999
 32
0.0
 13
21.185477
 23
4.047774999999999
 33
0.0
  0
MTEXT
  5
E5D
330
901
100
AcDbEntity
  8
DIM
 62
     0
100
AcDbMText
 10
22.41125825
 20
4.047774999999999
 30
0.0
 40
0.1875
 41
0.0
 71
     5
 72
     1
  1
\A1;0.591 REF.
 73
     1
 44
1.0
  0
POINT
  5
E5E
330
901
100
AcDbEntity
  8
DEFPOINTS
 62
     0
100
AcDbPoint
 10
20.59447699999999
 20
4.650274999999999
 30
0.0
  0
POINT
  5
E5F
330
901
100
AcDbEntity
  8
DEFPOINTS
 62
     0
100
AcDbPoint
 10
21.185477
 20
4.587774999999999
 30
0.0
  0
POINT
  5
E60
330
901
100
AcDbEntity
  8
DEFPOINTS
 62
     0
100
AcDbPoint
 10
21.185477
 20
4.047774999999999
 30
0.0
  0
ENDBLK
  5
90D
330
901
100
AcDbEntity
  8
0
100
AcDbBlockEnd
  0
BLOCK
  5
91A
330
90F
100
AcDbEntity
  8
0
100
AcDbBlockBegin
  2
*D36
 70
     1
 10
0.0
 20
0.0
 30
0.0
  3
*D36
  1

  0
LINE
  5
EA9
330
90F
100
AcDbEntity
  8
DIM
 62
     0
370
    -2
100
AcDbLine
 10
20.59447699999999
 20
7.847775
 30
0.0
 11
20.59447699999999
 21
8.33858
 31
0.0
  0
LINE
  5
EAA
330
90F
100
AcDbEntity
  8
DIM
 62
     0
370
    -2
100
AcDbLine
 10
22.765477
 20
7.860274999999999
 30
0.0
 11
22.765477
 21
8.33858
 31
0.0
  0
LINE
  5
EAB
330
90F
100
AcDbEntity
  8
DIM
 62
     0
370
    -2
100
AcDbLine
 10
20.86447699999999
 20
8.19908
 30
0.0
 11
21.31060199999999
 21
8.19908
 31
0.0
  0
LINE
  5
EAC
330
90F
100
AcDbEntity
  8
DIM
 62
     0
370
    -2
100
AcDbLine
 10
22.495477
 20
8.19908
 30
0.0
 11
22.049352
 21
8.19908
 31
0.0
  0
SOLID
  5
EAD
330
90F
100
AcDbEntity
  8
DIM
 62
     0
100
AcDbTrace
 10
20.86447699999999
 20
8.24408
 30
0.0
 11
20.86447699999999
 21
8.15408
 31
0.0
 12
20.59447699999999
 22
8.19908
 32
0.0
 13
20.59447699999999
 23
8.19908
 33
0.0
  0
SOLID
  5
EAE
330
90F
100
AcDbEntity
  8
DIM
 62
     0
100
AcDbTrace
 10
22.495477
 20
8.24408
 30
0.0
 11
22.495477
 21
8.15408
 31
0.0
 12
22.765477
 22
8.19908
 32
0.0
 13
22.765477
 23
8.19908
 33
0.0
  0
MTEXT
  5
EAF
330
90F
100
AcDbEntity
  8
DIM
 62
     0
100
AcDbMText
 10
21.679977
 20
8.19908
 30
0.0
 40
0.1875
 41
0.0
 71
     5
 72
     1
  1
\A1;2.171
 73
     1
 44
1.0
  0
POINT
  5
EB0
330
90F
100
AcDbEntity
  8
DEFPOINTS
 62
     0
100
AcDbPoint
 10
20.59447699999999
 20
7.753275
 30
0.0
  0
POINT
  5
EB1
330
90F
100
AcDbEntity
  8
DEFPOINTS
 62
     0
100
AcDbPoint
 10
22.765477
 20
7.765774999999999
 30
0.0
  0
POINT
  5
EB2
330
90F
100
AcDbEntity
  8
DEFPOINTS
 62
     0
100
AcDbPoint
 10
22.765477
 20
8.19908
 30
0.0
  0
ENDBLK
  5
91B
330
90F
100
AcDbEntity
  8
0
100
AcDbBlockEnd
  0
BLOCK
  5
92A
330
91F
100
AcDbEntity
  8
0
100
AcDbBlockBegin
  2
*D37
 70
     1
 10
0.0
 20
0.0
 30
0.0
  3
*D37
  1

  0
LINE
  5
D6F
330
91F
100
AcDbEntity
  8
DIM
 62
     0
370
    -2
100
AcDbLine
 10
4.572792999999999
 20
4.926337999999999
 30
0.0
 11
4.572792999999999
 21
5.78845
 31
0.0
  0
LINE
  5
D70
330
91F
100
AcDbEntity
  8
DIM
 62
     0
370
    -2
100
AcDbLine
 10
3.052792999999999
 20
4.926337999999999
 30
0.0
 11
3.052792999999999
 21
5.78845
 31
0.0
  0
LINE
  5
D71
330
91F
100
AcDbEntity
  8
DIM
 62
     0
370
    -2
100
AcDbLine
 10
4.842793
 20
5.64895
 30
0.0
 11
5.112792999999999
 21
5.64895
 31
0.0
  0
LINE
  5
D72
330
91F
100
AcDbEntity
  8
DIM
 62
     0
370
    -2
100
AcDbLine
 10
2.782792999999999
 20
5.64895
 30
0.0
 11
2.512792999999999
 21
5.64895
 31
0.0
  0
SOLID
  5
D73
330
91F
100
AcDbEntity
  8
DIM
 62
     0
100
AcDbTrace
 10
4.842793
 20
5.69395
 30
0.0
 11
4.842793
 21
5.60395
 31
0.0
 12
4.572792999999999
 22
5.64895
 32
0.0
 13
4.572792999999999
 23
5.64895
 33
0.0
  0
SOLID
  5
D74
330
91F
100
AcDbEntity
  8
DIM
 62
     0
100
AcDbTrace
 10
2.782792999999999
 20
5.69395
 30
0.0
 11
2.782792999999999
 21
5.60395
 31
0.0
 12
3.052792999999999
 22
5.64895
 32
0.0
 13
3.052792999999999
 23
5.64895
 33
0.0
  0
MTEXT
  5
D75
330
91F
100
AcDbEntity
  8
DIM
 62
     0
100
AcDbMText
 10
3.812793
 20
5.64895
 30
0.0
 40
0.1875
 41
0.0
 71
     5
 72
     1
  1
\A1;1.520
 73
     1
 44
1.0
  0
POINT
  5
D76
330
91F
100
AcDbEntity
  8
DEFPOINTS
 62
     0
100
AcDbPoint
 10
4.572792999999999
 20
4.831837999999999
 30
0.0
  0
POINT
  5
D77
330
91F
100
AcDbEntity
  8
DEFPOINTS
 62
     0
100
AcDbPoint
 10
3.052792999999999
 20
4.831837999999999
 30
0.0
  0
POINT
  5
D78
330
91F
100
AcDbEntity
  8
DEFPOINTS
 62
     0
100
AcDbPoint
 10
3.052792999999999
 20
5.64895
 30
0.0
  0
ENDBLK
  5
92B
330
91F
100
AcDbEntity
  8
0
100
AcDbBlockEnd
  0
BLOCK
  5
99C
330
991
100
AcDbEntity
  8
0
100
AcDbBlockBegin
  2
*D38
 70
     1
 10
0.0
 20
0.0
 30
0.0
  3
*D38
  1

  0
LINE
  5
E38
330
991
100
AcDbEntity
  8
DIM
 62
     0
370
    -2
100
AcDbLine
 10
18.733359
 20
5.929994999999999
 30
0.0
 11
18.733359
 21
5.833512999999999
 31
0.0
  0
LINE
  5
E39
330
991
100
AcDbEntity
  8
DIM
 62
     0
370
    -2
100
AcDbLine
 10
18.853359
 20
5.929994999999999
 30
0.0
 11
18.853359
 21
5.833512999999999
 31
0.0
  0
LINE
  5
E3A
330
991
100
AcDbEntity
  8
DIM
 62
     0
370
    -2
100
AcDbLine
 10
18.463359
 20
5.973012999999999
 30
0.0
 11
18.193359
 21
5.973012999999999
 31
0.0
  0
LINE
  5
E3B
330
991
100
AcDbEntity
  8
DIM
 62
     0
370
    -2
100
AcDbLine
 10
19.123359
 20
5.973012999999999
 30
0.0
 11
19.393359
 21
5.973012999999999
 31
0.0
  0
SOLID
  5
E3C
330
991
100
AcDbEntity
  8
DIM
 62
     0
100
AcDbTrace
 10
18.463359
 20
6.018012999999999
 30
0.0
 11
18.463359
 21
5.928012999999999
 31
0.0
 12
18.733359
 22
5.973012999999999
 32
0.0
 13
18.733359
 23
5.973012999999999
 33
0.0
  0
SOLID
  5
E3D
330
991
100
AcDbEntity
  8
DIM
 62
     0
100
AcDbTrace
 10
19.123359
 20
6.018012999999999
 30
0.0
 11
19.123359
 21
5.928012999999999
 31
0.0
 12
18.853359
 22
5.973012999999999
 32
0.0
 13
18.853359
 23
5.973012999999999
 33
0.0
  0
MTEXT
  5
E3E
330
991
100
AcDbEntity
  8
DIM
 62
     0
100
AcDbMText
 10
19.762734
 20
5.973012999999999
 30
0.0
 40
0.1875
 41
0.0
 71
     5
 72
     1
  1
\A1;0.120
 73
     1
 44
1.0
  0
POINT
  5
E3F
330
991
100
AcDbEntity
  8
DEFPOINTS
 62
     0
100
AcDbPoint
 10
18.733359
 20
6.024494999999999
 30
0.0
  0
POINT
  5
E40
330
991
100
AcDbEntity
  8
DEFPOINTS
 62
     0
100
AcDbPoint
 10
18.853359
 20
6.024494999999999
 30
0.0
  0
POINT
  5
E41
330
991
100
AcDbEntity
  8
DEFPOINTS
 62
     0
100
AcDbPoint
 10
18.853359
 20
5.973012999999999
 30
0.0
  0
ENDBLK
  5
99D
330
991
100
AcDbEntity
  8
0
100
AcDbBlockEnd
  0
BLOCK
  5
9AA
330
99F
100
AcDbEntity
  8
0
100
AcDbBlockBegin
  2
*D39
 70
     1
 10
0.0
 20
0.0
 30
0.0
  3
*D39
  1

  0
LINE
  5
E75
330
99F
100
AcDbEntity
  8
DIM
 62
     0
370
    -2
100
AcDbLine
 10
18.262359
 20
7.910275
 30
0.0
 11
18.262359
 21
8.400769999999999
 31
0.0
  0
LINE
  5
E76
330
99F
100
AcDbEntity
  8
DIM
 62
     0
370
    -2
100
AcDbLine
 10
18.853359
 20
7.847775
 30
0.0
 11
18.853359
 21
8.400769999999999
 31
0.0
  0
LINE
  5
E77
330
99F
100
AcDbEntity
  8
DIM
 62
     0
370
    -2
100
AcDbLine
 10
17.992359
 20
8.261269999999999
 30
0.0
 11
17.722359
 21
8.261269999999999
 31
0.0
  0
LINE
  5
E78
330
99F
100
AcDbEntity
  8
DIM
 62
     0
370
    -2
100
AcDbLine
 10
19.123359
 20
8.261269999999999
 30
0.0
 11
19.393359
 21
8.261269999999999
 31
0.0
  0
SOLID
  5
E79
330
99F
100
AcDbEntity
  8
DIM
 62
     0
100
AcDbTrace
 10
17.992359
 20
8.306269999999999
 30
0.0
 11
17.992359
 21
8.216269999999999
 31
0.0
 12
18.262359
 22
8.261269999999999
 32
0.0
 13
18.262359
 23
8.261269999999999
 33
0.0
  0
SOLID
  5
E7A
330
99F
100
AcDbEntity
  8
DIM
 62
     0
100
AcDbTrace
 10
19.123359
 20
8.306269999999999
 30
0.0
 11
19.123359
 21
8.216269999999999
 31
0.0
 12
18.853359
 22
8.261269999999999
 32
0.0
 13
18.853359
 23
8.261269999999999
 33
0.0
  0
MTEXT
  5
E7B
330
99F
100
AcDbEntity
  8
DIM
 62
     0
100
AcDbMText
 10
19.77445275
 20
8.261269999999999
 30
0.0
 40
0.1875
 41
0.0
 71
     5
 72
     1
  1
\A1;0.591
 73
     1
 44
1.0
  0
POINT
  5
E7C
330
99F
100
AcDbEntity
  8
DEFPOINTS
 62
     0
100
AcDbPoint
 10
18.262359
 20
7.815775
 30
0.0
  0
POINT
  5
E7D
330
99F
100
AcDbEntity
  8
DEFPOINTS
 62
     0
100
AcDbPoint
 10
18.853359
 20
7.753275
 30
0.0
  0
POINT
  5
E7E
330
99F
100
AcDbEntity
  8
DEFPOINTS
 62
     0
100
AcDbPoint
 10
18.853359
 20
8.261269999999999
 30
0.0
  0
ENDBLK
  5
9AB
330
99F
100
AcDbEntity
  8
0
100
AcDbBlockEnd
  0
BLOCK
  5
9FF
330
9F4
100
AcDbEntity
  8
0
100
AcDbBlockBegin
  2
*D40
 70
     1
 10
0.0
 20
0.0
 30
0.0
  3
*D40
  1

  0
LINE
  5
1075
330
9F4
100
AcDbEntity
  8
DIM
 62
     0
370
    -2
100
AcDbLine
 10
20.404846
 20
10.781278
 30
0.0
 11
20.404846
 21
10.10874381248825
 31
0.0
  0
LINE
  5
1076
330
9F4
100
AcDbEntity
  8
DIM
 62
     0
370
    -2
100
AcDbLine
 10
19.924846
 20
10.85527799999999
 30
0.0
 11
19.924846
 21
10.10874381248825
 31
0.0
  0
LINE
  5
1077
330
9F4
100
AcDbEntity
  8
DIM
 62
     0
370
    -2
100
AcDbLine
 10
20.67484599999999
 20
10.24824381248825
 30
0.0
 11
20.94484599999999
 21
10.24824381248825
 31
0.0
  0
LINE
  5
1078
330
9F4
100
AcDbEntity
  8
DIM
 62
     0
370
    -2
100
AcDbLine
 10
19.65484599999999
 20
10.24824381248825
 30
0.0
 11
19.38484599999999
 21
10.24824381248825
 31
0.0
  0
SOLID
  5
1079
330
9F4
100
AcDbEntity
  8
DIM
 62
     0
100
AcDbTrace
 10
20.67484599999999
 20
10.29324381248825
 30
0.0
 11
20.67484599999999
 21
10.20324381248825
 31
0.0
 12
20.404846
 22
10.24824381248825
 32
0.0
 13
20.404846
 23
10.24824381248825
 33
0.0
  0
SOLID
  5
107A
330
9F4
100
AcDbEntity
  8
DIM
 62
     0
100
AcDbTrace
 10
19.65484599999999
 20
10.29324381248825
 30
0.0
 11
19.65484599999999
 21
10.20324381248825
 31
0.0
 12
19.924846
 22
10.24824381248825
 32
0.0
 13
19.924846
 23
10.24824381248825
 33
0.0
  0
MTEXT
  5
107B
330
9F4
100
AcDbEntity
  8
DIM
 62
     0
100
AcDbMText
 10
19.01547099999999
 20
10.24824381248825
 30
0.0
 40
0.1875
 41
0.0
 71
     5
 72
     1
  1
\A1;0.120
 73
     1
 44
1.0
  0
POINT
  5
107C
330
9F4
100
AcDbEntity
  8
DEFPOINTS
 62
     0
100
AcDbPoint
 10
20.404846
 20
10.875778
 30
0.0
  0
POINT
  5
107D
330
9F4
100
AcDbEntity
  8
DEFPOINTS
 62
     0
100
AcDbPoint
 10
19.924846
 20
10.94977799999999
 30
0.0
  0
POINT
  5
107E
330
9F4
100
AcDbEntity
  8
DEFPOINTS
 62
     0
100
AcDbPoint
 10
19.924846
 20
10.24824381248825
 30
0.0
  0
ENDBLK
  5
A00
330
9F4
100
AcDbEntity
  8
0
100
AcDbBlockEnd
  0
BLOCK
  5
A4E
330
A43
100
AcDbEntity
  8
0
100
AcDbBlockBegin
  2
*D41
 70
     1
 10
0.0
 20
0.0
 30
0.0
  3
*D41
  1

  0
LINE
  5
1006
330
A43
100
AcDbEntity
  8
DIM
 62
     0
370
    -2
100
AcDbLine
 10
20.494841
 20
10.94224
 30
0.0
 11
21.314951
 21
10.94224
 31
0.0
  0
LINE
  5
1007
330
A43
100
AcDbEntity
  8
DIM
 62
     0
370
    -2
100
AcDbLine
 10
20.494841
 20
12.18224
 30
0.0
 11
21.314951
 21
12.18224
 31
0.0
  0
LINE
  5
1008
330
A43
100
AcDbEntity
  8
DIM
 62
     0
370
    -2
100
AcDbLine
 10
21.175451
 20
10.67224
 30
0.0
 11
21.175451
 21
10.40224
 31
0.0
  0
LINE
  5
1009
330
A43
100
AcDbEntity
  8
DIM
 62
     0
370
    -2
100
AcDbLine
 10
21.175451
 20
12.45224
 30
0.0
 11
21.175451
 21
12.72224
 31
0.0
  0
SOLID
  5
100A
330
A43
100
AcDbEntity
  8
DIM
 62
     0
100
AcDbTrace
 10
21.130451
 20
10.67224
 30
0.0
 11
21.220451
 21
10.67224
 31
0.0
 12
21.175451
 22
10.94224
 32
0.0
 13
21.175451
 23
10.94224
 33
0.0
  0
SOLID
  5
100B
330
A43
100
AcDbEntity
  8
DIM
 62
     0
100
AcDbTrace
 10
21.130451
 20
12.45224
 30
0.0
 11
21.220451
 21
12.45224
 31
0.0
 12
21.175451
 22
12.18224
 32
0.0
 13
21.175451
 23
12.18224
 33
0.0
  0
MTEXT
  5
100C
330
A43
100
AcDbEntity
  8
DIM
 62
     0
100
AcDbMText
 10
21.175451
 20
11.56224
 30
0.0
 40
0.1875
 41
0.0
 71
     5
 72
     1
  1
\A1;0.310 DIA.\PC'BORE
 73
     1
 44
1.0
  0
POINT
  5
100D
330
A43
100
AcDbEntity
  8
DEFPOINTS
 62
     0
100
AcDbPoint
 10
20.400341
 20
10.94224
 30
0.0
  0
POINT
  5
100E
330
A43
100
AcDbEntity
  8
DEFPOINTS
 62
     0
100
AcDbPoint
 10
20.400341
 20
12.18224
 30
0.0
  0
POINT
  5
100F
330
A43
100
AcDbEntity
  8
DEFPOINTS
 62
     0
100
AcDbPoint
 10
21.175451
 20
12.18224
 30
0.0
  0
ENDBLK
  5
A4F
330
A43
100
AcDbEntity
  8
0
100
AcDbBlockEnd
  0
BLOCK
  5
A5C
330
A51
100
AcDbEntity
  8
0
100
AcDbBlockBegin
  2
*D42
 70
     1
 10
0.0
 20
0.0
 30
0.0
  3
*D42
  1

  0
LINE
  5
E7F
330
A51
100
AcDbEntity
  8
DIM
 62
     0
370
    -2
100
AcDbLine
 10
17.946346
 20
12.679963
 30
0.0
 11
17.06989499999999
 21
12.679963
 31
0.0
  0
LINE
  5
E80
330
A51
100
AcDbEntity
  8
DIM
 62
     0
370
    -2
100
AcDbLine
 10
17.946346
 20
12.359963
 30
0.0
 11
17.06989499999999
 21
12.359963
 31
0.0
  0
LINE
  5
E81
330
A51
100
AcDbEntity
  8
DIM
 62
     0
370
    -2
100
AcDbLine
 10
17.209395
 20
12.949963
 30
0.0
 11
17.209395
 21
13.219963
 31
0.0
  0
LINE
  5
E82
330
A51
100
AcDbEntity
  8
DIM
 62
     0
370
    -2
100
AcDbLine
 10
17.209395
 20
12.089963
 30
0.0
 11
17.209395
 21
11.819963
 31
0.0
  0
SOLID
  5
E83
330
A51
100
AcDbEntity
  8
DIM
 62
     0
100
AcDbTrace
 10
17.16439499999999
 20
12.949963
 30
0.0
 11
17.254395
 21
12.949963
 31
0.0
 12
17.209395
 22
12.679963
 32
0.0
 13
17.209395
 23
12.679963
 33
0.0
  0
SOLID
  5
E84
330
A51
100
AcDbEntity
  8
DIM
 62
     0
100
AcDbTrace
 10
17.16439499999999
 20
12.089963
 30
0.0
 11
17.254395
 21
12.089963
 31
0.0
 12
17.209395
 22
12.359963
 32
0.0
 13
17.209395
 23
12.359963
 33
0.0
  0
MTEXT
  5
E85
330
A51
100
AcDbEntity
  8
DIM
 62
     0
100
AcDbMText
 10
17.20939499999999
 20
12.519963
 30
0.0
 40
0.1875
 41
0.0
 71
     5
 72
     1
  1
\A1;0.080
 73
     1
 44
1.0
  0
POINT
  5
E86
330
A51
100
AcDbEntity
  8
DEFPOINTS
 62
     0
100
AcDbPoint
 10
18.04084599999999
 20
12.679963
 30
0.0
  0
POINT
  5
E87
330
A51
100
AcDbEntity
  8
DEFPOINTS
 62
     0
100
AcDbPoint
 10
18.04084599999999
 20
12.359963
 30
0.0
  0
POINT
  5
E88
330
A51
100
AcDbEntity
  8
DEFPOINTS
 62
     0
100
AcDbPoint
 10
17.209395
 20
12.359963
 30
0.0
  0
ENDBLK
  5
A5D
330
A51
100
AcDbEntity
  8
0
100
AcDbBlockEnd
  0
BLOCK
  5
A6A
330
A5F
100
AcDbEntity
  8
0
100
AcDbBlockBegin
  2
*D43
 70
     1
 10
0.0
 20
0.0
 30
0.0
  3
*D43
  1

  0
LINE
  5
E61
330
A5F
100
AcDbEntity
  8
DIM
 62
     0
370
    -2
100
AcDbLine
 10
18.50084599999999
 20
12.774463
 30
0.0
 11
18.50084599999999
 21
14.32954699999999
 31
0.0
  0
LINE
  5
E62
330
A5F
100
AcDbEntity
  8
DIM
 62
     0
370
    -2
100
AcDbLine
 10
18.04084599999999
 20
13.715143
 30
0.0
 11
18.04084599999999
 21
14.32954699999999
 31
0.0
  0
LINE
  5
E63
330
A5F
100
AcDbEntity
  8
DIM
 62
     0
370
    -2
100
AcDbLine
 10
18.77084599999999
 20
14.190047
 30
0.0
 11
19.040846
 21
14.190047
 31
0.0
  0
LINE
  5
E64
330
A5F
100
AcDbEntity
  8
DIM
 62
     0
370
    -2
100
AcDbLine
 10
17.770846
 20
14.190047
 30
0.0
 11
17.500846
 21
14.190047
 31
0.0
  0
SOLID
  5
E65
330
A5F
100
AcDbEntity
  8
DIM
 62
     0
100
AcDbTrace
 10
18.77084599999999
 20
14.235047
 30
0.0
 11
18.77084599999999
 21
14.145047
 31
0.0
 12
18.50084599999999
 22
14.190047
 32
0.0
 13
18.50084599999999
 23
14.190047
 33
0.0
  0
SOLID
  5
E66
330
A5F
100
AcDbEntity
  8
DIM
 62
     0
100
AcDbTrace
 10
17.770846
 20
14.235047
 30
0.0
 11
17.770846
 21
14.145047
 31
0.0
 12
18.04084599999999
 22
14.190047
 32
0.0
 13
18.04084599999999
 23
14.190047
 33
0.0
  0
MTEXT
  5
E67
330
A5F
100
AcDbEntity
  8
DIM
 62
     0
100
AcDbMText
 10
17.14318974999999
 20
14.190047
 30
0.0
 40
0.1875
 41
0.0
 71
     5
 72
     1
  1
\A1;0.115
 73
     1
 44
1.0
  0
POINT
  5
E68
330
A5F
100
AcDbEntity
  8
DEFPOINTS
 62
     0
100
AcDbPoint
 10
18.50084599999999
 20
12.679963
 30
0.0
  0
POINT
  5
E69
330
A5F
100
AcDbEntity
  8
DEFPOINTS
 62
     0
100
AcDbPoint
 10
18.04084599999999
 20
13.620643
 30
0.0
  0
POINT
  5
E6A
330
A5F
100
AcDbEntity
  8
DEFPOINTS
 62
     0
100
AcDbPoint
 10
18.04084599999999
 20
14.190047
 30
0.0
  0
ENDBLK
  5
A6B
330
A5F
100
AcDbEntity
  8
0
100
AcDbBlockEnd
  0
BLOCK
  5
A78
330
A6D
100
AcDbEntity
  8
0
100
AcDbBlockBegin
  2
*D44
 70
     1
 10
0.0
 20
0.0
 30
0.0
  3
*D44
  1

  0
LINE
  5
E89
330
A6D
100
AcDbEntity
  8
DIM
 62
     0
370
    -2
100
AcDbLine
 10
17.945426
 20
11.91352799999999
 30
0.0
 11
16.647475
 21
11.91352799999999
 31
0.0
  0
LINE
  5
E8A
330
A6D
100
AcDbEntity
  8
DIM
 62
     0
370
    -2
100
AcDbLine
 10
17.945426
 20
11.22602799999999
 30
0.0
 11
16.647475
 21
11.22602799999999
 31
0.0
  0
LINE
  5
E8B
330
A6D
100
AcDbEntity
  8
DIM
 62
     0
370
    -2
100
AcDbLine
 10
16.786975
 20
12.18352799999999
 30
0.0
 11
16.786975
 21
12.453528
 31
0.0
  0
LINE
  5
E8C
330
A6D
100
AcDbEntity
  8
DIM
 62
     0
370
    -2
100
AcDbLine
 10
16.786975
 20
10.95602799999999
 30
0.0
 11
16.786975
 21
10.686028
 31
0.0
  0
SOLID
  5
E8D
330
A6D
100
AcDbEntity
  8
DIM
 62
     0
100
AcDbTrace
 10
16.741975
 20
12.18352799999999
 30
0.0
 11
16.831975
 21
12.18352799999999
 31
0.0
 12
16.786975
 22
11.91352799999999
 32
0.0
 13
16.786975
 23
11.91352799999999
 33
0.0
  0
SOLID
  5
E8E
330
A6D
100
AcDbEntity
  8
DIM
 62
     0
100
AcDbTrace
 10
16.741975
 20
10.95602799999999
 30
0.0
 11
16.831975
 21
10.95602799999999
 31
0.0
 12
16.786975
 22
11.22602799999999
 32
0.0
 13
16.786975
 23
11.22602799999999
 33
0.0
  0
MTEXT
  5
E8F
330
A6D
100
AcDbEntity
  8
DIM
 62
     0
100
AcDbMText
 10
16.78697499999999
 20
11.569778
 30
0.0
 40
0.1875
 41
0.0
 71
     5
 72
     1
  1
\A1;0.172 DIA.
 73
     1
 44
1.0
  0
POINT
  5
E90
330
A6D
100
AcDbEntity
  8
DEFPOINTS
 62
     0
100
AcDbPoint
 10
18.039926
 20
11.91352799999999
 30
0.0
  0
POINT
  5
E91
330
A6D
100
AcDbEntity
  8
DEFPOINTS
 62
     0
100
AcDbPoint
 10
18.039926
 20
11.22602799999999
 30
0.0
  0
POINT
  5
E92
330
A6D
100
AcDbEntity
  8
DEFPOINTS
 62
     0
100
AcDbPoint
 10
16.786975
 20
11.22602799999999
 30
0.0
  0
ENDBLK
  5
A79
330
A6D
100
AcDbEntity
  8
0
100
AcDbBlockEnd
  0
BLOCK
  5
10DE
330
10C7
100
AcDbEntity
  8
0
100
AcDbBlockBegin
  2
HBS
 70
     0
 10
0.0
 20
0.0
 30
0.0
  3
HBS
  1

  0
LINE
  5
10C8
330
10C7
100
AcDbEntity
  8
TITLE
100
AcDbLine
 10
0.0620000000000118
 20
10.266
 30
0.0
 11
16.53800000000001
 21
10.266
 31
0.0
  0
LINE
  5
10C9
330
10C7
100
AcDbEntity
  8
TITLE
100
AcDbLine
 10
16.53800000000001
 20
0.0620000000000012
 30
0.0
 11
0.0620000000000118
 21
0.0620000000000012
 31
0.0
  0
LINE
  5
10CA
330
10C7
100
AcDbEntity
  8
TITLE
100
AcDbLine
 10
0.0
 20
10.32799999999999
 30
0.0
 11
16.59999999999999
 21
10.32799999999999
 31
0.0
  0
LINE
  5
10CB
330
10C7
100
AcDbEntity
  8
TITLE
100
AcDbLine
 10
16.59999999999999
 20
0.0
 30
0.0
 11
0.0
 21
0.0
 31
0.0
  0
LINE
  5
10CC
330
10C7
100
AcDbEntity
  8
TITLE
100
AcDbLine
 10
0.0620000000000118
 20
9.848000000000002
 30
0.0
 11
16.53800000000001
 21
9.848000000000006
 31
0.0
  0
LINE
  5
10CD
330
10C7
100
AcDbEntity
  8
TITLE
100
AcDbLine
 10
0.0620000000000118
 20
0.0620000000000012
 30
0.0
 11
0.0620000000000118
 21
10.266
 31
0.0
  0
LINE
  5
10CE
330
10C7
100
AcDbEntity
  8
TITLE
100
AcDbLine
 10
0.0
 20
0.0
 30
0.0
 11
0.0
 21
10.32799999999999
 31
0.0
  0
TEXT
  5
10CF
330
10C7
100
AcDbEntity
  8
TEXT
100
AcDbText
 10
0.2078333333333452
 20
9.888079195640081
 30
0.0
 40
0.125
  1
NAME
 72
     1
 11
0.4370000000000119
 21
9.888079195640081
 31
0.0
100
AcDbText
  0
TEXT
  5
10D0
330
10C7
100
AcDbEntity
  8
TEXT
100
AcDbText
 10
0.2078333333333452
 20
10.09641252897341
 30
0.0
 40
0.125
  1
PART
 72
     1
 11
0.4370000000000119
 21
10.09641252897341
 31
0.0
100
AcDbText
  0
LINE
  5
10D1
330
10C7
100
AcDbEntity
  8
TITLE
100
AcDbLine
 10
0.8120000000000118
 20
9.848000000000002
 30
0.0
 11
0.8120000000000118
 21
10.266
 31
0.0
  0
LINE
  5
10D2
330
10C7
100
AcDbEntity
  8
TITLE
100
AcDbLine
 10
7.0
 20
10.266
 30
0.0
 11
7.0
 21
9.848000000000002
 31
0.0
  0
LINE
  5
10D3
330
10C7
100
AcDbEntity
  8
TITLE
100
AcDbLine
 10
7.062000000000011
 20
10.266
 30
0.0
 11
7.062000000000011
 21
9.848000000000002
 31
0.0
  0
LINE
  5
10D4
330
10C7
100
AcDbEntity
  8
TITLE
100
AcDbLine
 10
7.812000000000011
 20
10.266
 30
0.0
 11
7.812000000000011
 21
9.848000000000002
 31
0.0
  0
TEXT
  5
10D5
330
10C7
100
AcDbEntity
  8
TEXT
100
AcDbText
 10
7.312000000000011
 20
9.888079195640081
 30
0.0
 40
0.125
  1
No.
 72
     1
 11
7.437000000000011
 21
9.888079195640081
 31
0.0
100
AcDbText
  0
TEXT
  5
10D6
330
10C7
100
AcDbEntity
  8
TEXT
100
AcDbText
 10
7.207833333333344
 20
10.09641252897341
 30
0.0
 40
0.125
  1
PART
 72
     1
 11
7.437000000000011
 21
10.09641252897341
 31
0.0
100
AcDbText
  0
LINE
  5
10D7
330
10C7
100
AcDbEntity
  8
TITLE
100
AcDbLine
 10
16.53800000000001
 20
10.266
 30
0.0
 11
16.53800000000001
 21
0.0620000000000012
 31
0.0
  0
LINE
  5
10D8
330
10C7
100
AcDbEntity
  8
TITLE
100
AcDbLine
 10
16.59999999999999
 20
10.32799999999999
 30
0.0
 11
16.59999999999999
 21
0.0
 31
0.0
  0
TEXT
  5
10D9
330
10C7
100
AcDbEntity
  8
TEXT
100
AcDbText
 10
14.22865779971668
 20
10.09641252897341
 30
0.0
 40
0.125
  1
REV.
 72
     1
 11
14.43699113305001
 21
10.09641252897341
 31
0.0
100
AcDbText
  0
TEXT
  5
10DA
330
10C7
100
AcDbEntity
  8
TEXT
100
AcDbText
 10
14.20782446638335
 20
9.888079195640081
 30
0.0
 40
0.125
  1
DATE
 72
     1
 11
14.43699113305001
 21
9.888079195640081
 31
0.0
100
AcDbText
  0
LINE
  5
10DB
330
10C7
100
AcDbEntity
  8
TITLE
100
AcDbLine
 10
14.06199113305001
 20
10.266
 30
0.0
 11
14.06199113305001
 21
9.848000000000002
 31
0.0
  0
LINE
  5
10DC
330
10C7
100
AcDbEntity
  8
TITLE
100
AcDbLine
 10
14.81199113305001
 20
10.266
 30
0.0
 11
14.81199113305001
 21
9.848000000000002
 31
0.0
  0
LINE
  5
10DD
330
10C7
100
AcDbEntity
  8
TITLE
100
AcDbLine
 10
13.99999113305
 20
10.266
 30
0.0
 11
13.99999113305
 21
9.848000000000002
 31
0.0
  0
ENDBLK
  5
10DF
330
10C7
100
AcDbEntity
  8
0
100
AcDbBlockEnd
  0
ENDSEC
  0
SECTION
  2
ENTITIES
  0
TEXT
  5
5B0
330
1E
100
AcDbEntity
  8
TEXT
100
AcDbText
 10
18.422276
 20
9.661015897216806
 30
0.0
 40
0.1875
  1
%%UDETAIL "C"
 41
0.8
  7
SECTION
100
AcDbText
  0
LINE
  5
5B1
330
1E
100
AcDbEntity
  8
OBJECT
100
AcDbLine
 10
2.456542999999999
 20
4.587774999999999
 30
0.0
 11
5.169043
 21
4.587774999999999
 31
0.0
  0
LINE
  5
5B2
330
1E
100
AcDbEntity
  8
OBJECT
100
AcDbLine
 10
5.169043
 20
4.607775
 30
0.0
 11
2.456542999999999
 21
4.607775
 31
0.0
  0
LINE
  5
5B3
330
1E
100
AcDbEntity
  8
OBJECT
100
AcDbLine
 10
2.315793
 20
5.145775
 30
0.0
 11
2.315793
 21
7.257774999999999
 31
0.0
  0
LINE
  5
5B4
330
1E
100
AcDbEntity
  8
OBJECT
100
AcDbLine
 10
2.355793
 20
5.145775
 30
0.0
 11
2.355793
 21
7.257774999999999
 31
0.0
  0
LINE
  5
5B5
330
1E
100
AcDbEntity
  8
OBJECT
100
AcDbLine
 10
2.257792999999999
 20
4.806524999999999
 30
0.0
 11
2.257792999999999
 21
7.597025
 31
0.0
  0
LINE
  5
5B6
330
1E
100
AcDbEntity
  8
OBJECT
100
AcDbLine
 10
2.456542999999999
 20
7.815775
 30
0.0
 11
5.169043
 21
7.815775
 31
0.0
  0
LINE
  5
5B7
330
1E
100
AcDbEntity
  8
OBJECT
100
AcDbLine
 10
5.367792999999999
 20
7.597025
 30
0.0
 11
5.367792999999999
 21
4.806524999999999
 31
0.0
  0
LINE
  5
5B8
330
1E
100
AcDbEntity
  8
OBJECT
100
AcDbLine
 10
2.456542999999999
 20
7.795774999999999
 30
0.0
 11
5.169043
 21
7.795774999999999
 31
0.0
  0
ARC
  5
5B9
330
1E
100
AcDbEntity
  8
OBJECT
100
AcDbCircle
 10
2.456542999999999
 20
4.806524999999999
 30
0.0
 40
0.21875
100
AcDbArc
 50
180.0
 51
270.0
  0
ARC
  5
5BA
330
1E
100
AcDbEntity
  8
OBJECT
100
AcDbCircle
 10
2.456542999999999
 20
4.806524999999999
 30
0.0
 40
0.19875
100
AcDbArc
 50
180.0
 51
270.0
  0
TEXT
  5
5BB
330
1E
100
AcDbEntity
  8
TEXT
100
AcDbText
 10
8.781418999999999
 20
3.670145999999999
 30
0.0
 40
0.1875
  1
%%USECTION "A-A"
 41
0.8
  7
SECTION
100
AcDbText
  0
LINE
  5
5BF
102
{ACAD_REACTORS
330
12BA
102
}
330
1E
100
AcDbEntity
  8
OBJECT
100
AcDbLine
 10
9.865325999999999
 20
6.964025
 30
0.0
 11
10.08332599999999
 21
6.964025
 31
0.0
  0
LINE
  5
5C0
102
{ACAD_REACTORS
330
12BA
102
}
330
1E
100
AcDbEntity
  8
OBJECT
100
AcDbLine
 10
9.865325999999999
 20
7.151525
 30
0.0
 11
10.08332599999999
 21
7.151525
 31
0.0
  0
LINE
  5
5C1
330
1E
100
AcDbEntity
  8
OBJECT
100
AcDbLine
 10
9.865325999999999
 20
6.995275
 30
0.0
 11
10.08332599999999
 21
6.995275
 31
0.0
  0
LINE
  5
5C2
330
1E
100
AcDbEntity
  8
OBJECT
100
AcDbLine
 10
9.865325999999999
 20
7.120275
 30
0.0
 11
10.08332599999999
 21
7.120275
 31
0.0
  0
LINE
  5
5C3
102
{ACAD_REACTORS
330
12BA
102
}
330
1E
100
AcDbEntity
  8
OBJECT
100
AcDbLine
 10
10.08332599999999
 20
7.151525
 30
0.0
 11
10.08332599999999
 21
6.964025
 31
0.0
  0
CIRCLE
  5
5C4
330
1E
100
AcDbEntity
  8
OBJECT
100
AcDbCircle
 10
2.473793
 20
4.823775
 30
0.0
 40
0.125
  0
CIRCLE
  5
5C5
330
1E
100
AcDbEntity
  8
OBJECT
100
AcDbCircle
 10
2.473793
 20
4.823775
 30
0.0
 40
0.0625
  0
LINE
  5
5C6
330
1E
100
AcDbEntity
  8
OBJECT
100
AcDbLine
 10
2.237792999999999
 20
7.597025
 30
0.0
 11
2.237792999999999
 21
4.806524999999999
 31
0.0
  0
LINE
  5
5C7
330
1E
100
AcDbEntity
  8
OBJECT
100
AcDbLine
 10
5.387793
 20
7.597025
 30
0.0
 11
5.387793
 21
4.806524999999999
 31
0.0
  0
CIRCLE
  5
5C8
330
1E
100
AcDbEntity
  8
OBJECT
100
AcDbCircle
 10
5.151792999999999
 20
4.823775
 30
0.0
 40
0.0625
  0
CIRCLE
  5
5C9
330
1E
100
AcDbEntity
  8
OBJECT
100
AcDbCircle
 10
5.151792999999999
 20
4.823775
 30
0.0
 40
0.125
  0
ARC
  5
5CA
330
1E
100
AcDbEntity
  8
OBJECT
100
AcDbCircle
 10
5.169043
 20
4.806524999999999
 30
0.0
 40
0.19875
100
AcDbArc
 50
270.0
 51
0.0
  0
ARC
  5
5CB
330
1E
100
AcDbEntity
  8
OBJECT
100
AcDbCircle
 10
5.169043
 20
4.806524999999999
 30
0.0
 40
0.21875
100
AcDbArc
 50
270.0
 51
0.0
  0
CIRCLE
  5
5CC
330
1E
100
AcDbEntity
  8
OBJECT
100
AcDbCircle
 10
2.473793
 20
7.579774999999999
 30
0.0
 40
0.0625
  0
CIRCLE
  5
5CD
330
1E
100
AcDbEntity
  8
OBJECT
100
AcDbCircle
 10
2.473793
 20
7.579774999999999
 30
0.0
 40
0.125
  0
ARC
  5
5D1
330
1E
100
AcDbEntity
  8
OBJECT
100
AcDbCircle
 10
2.456542999999999
 20
7.597025
 30
0.0
 40
0.19875
100
AcDbArc
 50
90.0
 51
180.0
  0
ARC
  5
5D2
330
1E
100
AcDbEntity
  8
OBJECT
100
AcDbCircle
 10
2.456542999999999
 20
7.597025
 30
0.0
 40
0.21875
100
AcDbArc
 50
90.0
 51
180.0
  0
ARC
  5
5D3
330
1E
100
AcDbEntity
  8
OBJECT
100
AcDbCircle
 10
5.169043
 20
7.597025
 30
0.0
 40
0.21875
100
AcDbArc
 50
0.0
 51
90.0
  0
ARC
  5
5D4
330
1E
100
AcDbEntity
  8
OBJECT
100
AcDbCircle
 10
5.169043
 20
7.597025
 30
0.0
 40
0.19875
100
AcDbArc
 50
0.0
 51
90.0
  0
CIRCLE
  5
5D5
330
1E
100
AcDbEntity
  8
OBJECT
100
AcDbCircle
 10
5.151792999999999
 20
7.579774999999999
 30
0.0
 40
0.125
  0
CIRCLE
  5
5D6
330
1E
100
AcDbEntity
  8
OBJECT
100
AcDbCircle
 10
5.151792999999999
 20
7.579774999999999
 30
0.0
 40
0.0625
  0
DIMENSION
  5
5D7
330
1E
100
AcDbEntity
  8
DIM
100
AcDbDimension
  2
*D1
 10
1.066938999999999
 20
7.815775000000001
 30
0.0
 11
1.741470249999998
 21
8.355775000000001
 31
0.0
 70
    32
 71
     5
 42
0.2360000000000006
  3
23NSTD
100
AcDbAlignedDimension
 13
2.473793
 23
7.579774999999999
 33
0.0
 14
2.456542999999999
 24
7.815775
 34
0.0
 50
90.0
100
AcDbRotatedDimension
  0
DIMENSION
  5
5E5
330
1E
100
AcDbEntity
  8
DIM
100
AcDbDimension
  2
*D2
 10
1.066938999999999
 20
7.579775
 30
0.0
 11
1.066938999999998
 21
6.201775
 31
0.0
 70
    32
  1
<>
 71
     5
 42
2.755999999999999
  3
23NSTD
100
AcDbAlignedDimension
 13
2.473793
 23
4.823775
 33
0.0
 14
2.473793
 24
7.579774999999999
 34
0.0
 50
90.0
100
AcDbRotatedDimension
  0
DIMENSION
  5
5F3
330
1E
100
AcDbEntity
  8
DIM
100
AcDbDimension
  2
*D3
 10
2.237792999999999
 20
9.669499
 30
0.0
 11
1.293261749999999
 21
9.669499
 31
0.0
 70
    32
 71
     5
 42
0.2360000000000002
  3
23NSTD
100
AcDbAlignedDimension
 13
2.473793
 23
7.579774999999999
 33
0.0
 14
2.237792999999999
 24
7.597025
 34
0.0
100
AcDbRotatedDimension
  0
DIMENSION
  5
601
330
1E
100
AcDbEntity
  8
DIM
100
AcDbDimension
  2
*D4
 10
2.237792999999999
 20
8.826499
 30
0.0
 11
1.316699249999999
 21
8.826499
 31
0.0
 70
    32
 71
     5
 42
0.5910000000000002
  3
23NSTD
100
AcDbAlignedDimension
 13
2.828793
 23
7.579774999999999
 33
0.0
 14
2.237792999999999
 24
7.597025
 34
0.0
100
AcDbRotatedDimension
  0
DIMENSION
  5
60F
330
1E
100
AcDbEntity
  8
DIM
100
AcDbDimension
  2
*D5
 10
4.796793
 20
8.826499
 30
0.0
 11
3.812793
 21
8.826499
 31
0.0
 70
    32
  1
<>
 71
     5
 42
1.967999999999999
  3
23NSTD
100
AcDbAlignedDimension
 13
2.828793
 23
7.579774999999999
 33
0.0
 14
4.796793
 24
8.128177
 34
0.0
100
AcDbRotatedDimension
  0
DIMENSION
  5
61D
330
1E
100
AcDbEntity
  8
DIM
100
AcDbDimension
  2
*D6
 10
5.151792999999999
 20
9.669499
 30
0.0
 11
3.812793
 21
9.669499
 31
0.0
 70
    32
  1
<>
 71
     5
 42
2.677999999999999
  3
23NSTD
100
AcDbAlignedDimension
 13
2.473793
 23
7.579774999999999
 33
0.0
 14
5.151792999999999
 24
7.579774999999999
 34
0.0
100
AcDbRotatedDimension
  0
DIMENSION
  5
62B
330
1E
100
AcDbEntity
  8
DIM
100
AcDbDimension
  2
*D7
 10
2.237792999999999
 20
9.247999
 30
0.0
 11
1.316699249999999
 21
9.247999
 31
0.0
 70
    32
  1
0.431
 71
     5
 42
0.4330000000000003
  3
23NSTD
100
AcDbAlignedDimension
 13
2.670793
 23
7.057775
 33
0.0
 14
2.237792999999999
 24
7.597025
 34
0.0
100
AcDbRotatedDimension
  0
DIMENSION
  5
639
330
1E
100
AcDbEntity
  8
DIM
100
AcDbDimension
  2
*D8
 10
2.670793
 20
9.247999
 30
0.0
 11
3.812793
 21
9.247999
 31
0.0
 70
    32
  1
<>
 71
     5
 42
2.284
  3
23NSTD
100
AcDbAlignedDimension
 13
4.954793
 23
7.31369086003079
 33
0.0
 14
2.670793
 24
7.057775
 34
0.0
100
AcDbRotatedDimension
  0
DIMENSION
  5
647
330
1E
100
AcDbEntity
  8
DIM
100
AcDbDimension
  2
*D9
 10
2.237792999999999
 20
4.216746999999999
 30
0.0
 11
2.645292999999999
 21
4.216746999999999
 31
0.0
 70
    32
 71
     5
 42
0.8149999999999998
  3
23NSTDI
100
AcDbAlignedDimension
 13
3.052792999999999
 23
4.803774999999999
 33
0.0
 14
2.237792999999999
 24
4.806524999999999
 34
0.0
100
AcDbRotatedDimension
  0
DIMENSION
  5
655
330
1E
100
AcDbEntity
  8
DIM
100
AcDbDimension
  2
*D10
 10
5.387793
 20
10.090999
 30
0.0
 11
3.812793
 21
10.090999
 31
0.0
 70
    32
  1
<>
 71
     5
 42
3.15
  3
23NSTD
100
AcDbAlignedDimension
 13
2.237792999999999
 23
7.597025
 33
0.0
 14
5.387793
 24
7.597025
 34
0.0
 50
180.0
100
AcDbRotatedDimension
  0
DIMENSION
  5
663
330
1E
100
AcDbEntity
  8
DIM
100
AcDbDimension
  2
*D11
 10
6.026666
 20
5.047524999999999
 30
0.0
 11
6.026665999999999
 21
4.81765
 31
0.0
 70
    32
 71
     5
 42
0.4597500000000006
  3
23NSTDI
100
AcDbAlignedDimension
 13
5.169043
 23
4.587774999999999
 33
0.0
 14
5.171542999999999
 24
5.047525
 34
0.0
 50
90.0
100
AcDbRotatedDimension
  0
DIMENSION
  5
671
330
1E
100
AcDbEntity
  8
DIM
100
AcDbDimension
  2
*D12
 10
6.026666
 20
7.356024999999998
 30
0.0
 11
6.026665999999998
 21
6.201775000000001
 31
0.0
 70
    32
  1
<>
 71
     5
 42
2.308499999999999
  3
23NSTD
100
AcDbAlignedDimension
 13
5.171542999999999
 23
5.047525
 33
0.0
 14
5.171542999999999
 24
7.356024999999999
 34
0.0
 50
90.0
100
AcDbRotatedDimension
  0
DIMENSION
  5
67F
330
1E
100
AcDbEntity
  8
DIM
100
AcDbDimension
  2
*D13
 10
7.494392999999999
 20
7.815774999999999
 30
0.0
 11
7.494392999999997
 21
6.201774999999999
 31
0.0
 70
    32
  1
<>
 71
     5
 42
3.228
  3
23NSTD
100
AcDbAlignedDimension
 13
5.295042999999999
 23
4.587774999999999
 33
0.0
 14
5.169043
 24
7.815775
 34
0.0
 50
90.0
100
AcDbRotatedDimension
  0
DIMENSION
  5
68D
330
1E
100
AcDbEntity
  8
DIM
100
AcDbDimension
  2
*D14
 10
6.741525999999999
 20
4.587774999999998
 30
0.0
 11
6.741525999999998
 21
4.966775
 31
0.0
 70
    32
 71
     5
 42
0.758
  3
23NSTDI
100
AcDbAlignedDimension
 13
4.954793
 23
5.345774999999999
 33
0.0
 14
5.169043
 24
4.587774999999999
 34
0.0
 50
270.0
100
AcDbRotatedDimension
  0
DIMENSION
  5
69B
330
1E
100
AcDbEntity
  8
DIM
100
AcDbDimension
  2
*D15
 10
6.741525999999999
 20
7.057774999999999
 30
0.0
 11
6.741525999999997
 21
6.201775000000001
 31
0.0
 70
    32
  1
<>
 71
     5
 42
1.712
  3
23NSTD
100
AcDbAlignedDimension
 13
4.954793
 23
5.345774999999999
 33
0.0
 14
4.954793
 24
7.057775
 34
0.0
 50
270.0
100
AcDbRotatedDimension
  0
DIMENSION
  5
6A9
330
1E
100
AcDbEntity
  8
DIM
100
AcDbDimension
  2
*D16
 10
2.237792999999999
 20
6.603186999999999
 30
0.0
 11
1.035449249999999
 21
6.603186999999999
 31
0.0
 70
    32
  1
<> TYP.
 71
     5
 42
0.1180000000000003
  3
23NSTD
100
AcDbAlignedDimension
 13
2.355793
 23
6.610753999999999
 33
0.0
 14
2.237792999999999
 24
6.610753999999999
 34
0.0
100
AcDbRotatedDimension
  0
DIMENSION
  5
6B7
330
1E
100
AcDbEntity
  8
DIM
100
AcDbDimension
  2
*D17
 10
5.269792999999999
 20
6.603186999999999
 30
0.0
 11
3.929707
 21
6.603186999999999
 31
0.0
 70
   160
 71
     5
 42
2.913999999999999
  3
23NSTD
100
AcDbAlignedDimension
 13
2.355793
 23
6.610753999999999
 33
0.0
 14
5.269792999999999
 24
6.610753999999999
 34
0.0
100
AcDbRotatedDimension
  0
LINE
  5
6CC
330
1E
100
AcDbEntity
  8
HIDDEN
100
AcDbLine
 10
2.355793
 20
1.709288
 30
0.0
 11
5.269792999999999
 21
1.709288
 31
0.0
  0
LINE
  5
6CD
330
1E
100
AcDbEntity
  8
OBJECT
100
AcDbLine
 10
2.237792999999999
 20
3.092287999999999
 30
0.0
 11
5.387793
 21
3.092287999999999
 31
0.0
  0
LINE
  5
6CE
330
1E
100
AcDbEntity
  8
OBJECT
100
AcDbLine
 10
5.367792999999999
 20
3.132287999999999
 30
0.0
 11
2.257792999999999
 21
3.132287999999999
 31
0.0
  0
LINE
  5
6CF
330
1E
100
AcDbEntity
  8
OBJECT
100
AcDbLine
 10
2.315793
 20
3.192288
 30
0.0
 11
5.309792999999999
 21
3.192288
 31
0.0
  0
LINE
  5
6D0
330
1E
100
AcDbEntity
  8
OBJECT
100
AcDbLine
 10
2.287793
 20
1.552287999999999
 30
0.0
 11
5.337793
 21
1.552287999999999
 31
0.0
  0
LINE
  5
6D1
330
1E
100
AcDbEntity
  8
OBJECT
100
AcDbLine
 10
5.387793
 20
3.092287999999999
 30
0.0
 11
5.387793
 21
1.602287999999999
 31
0.0
  0
ARC
  5
6D2
330
1E
100
AcDbEntity
  8
OBJECT
100
AcDbCircle
 10
5.337793
 20
1.602287999999999
 30
0.0
 40
0.05
100
AcDbArc
 50
270.0
 51
0.0
  0
LINE
  5
6D3
330
1E
100
AcDbEntity
  8
OBJECT
100
AcDbLine
 10
5.309792999999999
 20
3.132287999999999
 30
0.0
 11
5.309792999999999
 21
3.192288
 31
0.0
  0
LINE
  5
6D4
330
1E
100
AcDbEntity
  8
OBJECT
100
AcDbLine
 10
5.367792999999999
 20
3.092287999999999
 30
0.0
 11
5.367792999999999
 21
3.132287999999999
 31
0.0
  0
LINE
  5
6D5
330
1E
100
AcDbEntity
  8
OBJECT
100
AcDbLine
 10
2.237792999999999
 20
3.092287999999999
 30
0.0
 11
2.237792999999999
 21
1.602287999999999
 31
0.0
  0
ARC
  5
6D6
330
1E
100
AcDbEntity
  8
OBJECT
100
AcDbCircle
 10
2.287793
 20
1.602287999999999
 30
0.0
 40
0.05
100
AcDbArc
 50
180.0
 51
270.0
  0
LINE
  5
6D7
330
1E
100
AcDbEntity
  8
OBJECT
100
AcDbLine
 10
2.315793
 20
3.192288
 30
0.0
 11
2.315793
 21
3.132287999999999
 31
0.0
  0
LINE
  5
6D8
330
1E
100
AcDbEntity
  8
OBJECT
100
AcDbLine
 10
2.257792999999999
 20
3.132287999999999
 30
0.0
 11
2.257792999999999
 21
3.092287999999999
 31
0.0
  0
LINE
  5
6D9
330
1E
100
AcDbEntity
  8
HIDDEN
100
AcDbLine
 10
2.994841999999999
 20
3.132287999999999
 30
0.0
 11
2.994841999999999
 21
1.709288
 31
0.0
  0
LINE
  5
6DA
330
1E
100
AcDbEntity
  8
HIDDEN
100
AcDbLine
 10
3.052792999999999
 20
3.192288
 30
0.0
 11
3.052792999999999
 21
1.709288
 31
0.0
  0
LINE
  5
6DB
330
1E
100
AcDbEntity
  8
OBJECT
100
AcDbLine
 10
3.012820999999999
 20
3.192288
 30
0.0
 11
3.012820999999999
 21
3.132287999999999
 31
0.0
  0
LINE
  5
6DC
330
1E
100
AcDbEntity
  8
HIDDEN
100
AcDbLine
 10
4.630745
 20
3.132287999999999
 30
0.0
 11
4.630745
 21
1.709288
 31
0.0
  0
LINE
  5
6DD
330
1E
100
AcDbEntity
  8
HIDDEN
100
AcDbLine
 10
4.933792999999999
 20
3.132287999999999
 30
0.0
 11
4.933792999999999
 21
1.709288
 31
0.0
  0
LINE
  5
6DE
330
1E
100
AcDbEntity
  8
HIDDEN
100
AcDbLine
 10
4.999043
 20
2.817287999999999
 30
0.0
 11
4.999043
 21
1.552287999999999
 31
0.0
  0
LINE
  5
6DF
330
1E
100
AcDbEntity
  8
HIDDEN
100
AcDbLine
 10
5.309042999999999
 20
2.817287999999999
 30
0.0
 11
5.309042999999999
 21
1.552287999999999
 31
0.0
  0
LINE
  5
6E0
330
1E
100
AcDbEntity
  8
HIDDEN
100
AcDbLine
 10
4.797292999999999
 20
1.965288
 30
0.0
 11
4.797292999999999
 21
1.709288
 31
0.0
  0
LINE
  5
6E1
330
1E
100
AcDbEntity
  8
HIDDEN
100
AcDbLine
 10
5.112293
 20
1.965288
 30
0.0
 11
5.112293
 21
1.709288
 31
0.0
  0
LINE
  5
6E2
330
1E
100
AcDbEntity
  8
HIDDEN
100
AcDbLine
 10
5.112293
 20
1.965288
 30
0.0
 11
4.797292999999999
 21
1.965288
 31
0.0
  0
LINE
  5
6E3
330
1E
100
AcDbEntity
  8
HIDDEN
100
AcDbLine
 10
5.279042999999999
 20
3.132287999999999
 30
0.0
 11
5.279042999999999
 21
2.817287999999999
 31
0.0
  0
LINE
  5
6E4
330
1E
100
AcDbEntity
  8
HIDDEN
100
AcDbLine
 10
5.091542999999999
 20
3.132287999999999
 30
0.0
 11
5.091542999999999
 21
2.817287999999999
 31
0.0
  0
LINE
  5
6E5
330
1E
100
AcDbEntity
  8
HIDDEN
100
AcDbLine
 10
5.029042999999999
 20
3.132287999999999
 30
0.0
 11
5.029042999999999
 21
2.817287999999999
 31
0.0
  0
LINE
  5
6E6
330
1E
100
AcDbEntity
  8
HIDDEN
100
AcDbLine
 10
5.216542999999999
 20
3.132287999999999
 30
0.0
 11
5.216542999999999
 21
2.817287999999999
 31
0.0
  0
LINE
  5
6E7
330
1E
100
AcDbEntity
  8
OBJECT
100
AcDbLine
 10
4.612766
 20
3.192288
 30
0.0
 11
4.612766
 21
3.132287999999999
 31
0.0
  0
LINE
  5
6E8
330
1E
100
AcDbEntity
  8
HIDDEN
100
AcDbLine
 10
4.572792999999999
 20
3.192288
 30
0.0
 11
4.572792999999999
 21
1.709288
 31
0.0
  0
LINE
  5
6E9
330
1E
100
AcDbEntity
  8
HIDDEN
100
AcDbLine
 10
5.269792999999999
 20
3.192288
 30
0.0
 11
5.269792999999999
 21
1.709288
 31
0.0
  0
LWPOLYLINE
  5
6EA
330
1E
100
AcDbEntity
  8
OBJECT
100
AcDbPolyline
 90
        6
 70
     0
 43
0.0
 10
3.151043
 20
7.738025
 42
0.4142140000000001
 10
3.012792999999999
 20
7.599775
 10
3.012792999999999
 20
7.571713
 42
-0.4142140000000001
 10
2.837106
 20
7.396024999999999
 10
2.454042999999999
 20
7.396024999999999
 42
0.4142140000000001
 10
2.315793
 20
7.257774999999999
 42
0.4142140000000001
  0
LWPOLYLINE
  5
6F2
330
1E
100
AcDbEntity
  8
OBJECT
100
AcDbPolyline
 90
        6
 70
     0
 43
0.0
 10
3.151043
 20
7.698025
 42
0.4142140000000001
 10
3.052792999999999
 20
7.599775
 10
3.052792999999999
 20
7.571713
 42
-0.4142140000000001
 10
2.837106
 20
7.356024999999999
 10
2.454042999999999
 20
7.356024999999999
 42
0.4142140000000001
 10
2.355793
 20
7.257774999999999
 42
0.4142140000000001
  0
LINE
  5
6FA
330
1E
100
AcDbEntity
  8
OBJECT
100
AcDbLine
 10
3.151043
 20
7.738025
 30
0.0
 11
4.474542999999999
 21
7.738025
 31
0.0
  0
LINE
  5
6FB
330
1E
100
AcDbEntity
  8
OBJECT
100
AcDbLine
 10
3.151043
 20
7.698025
 30
0.0
 11
4.474542999999999
 21
7.698025
 31
0.0
  0
LWPOLYLINE
  5
6FC
330
1E
100
AcDbEntity
  8
OBJECT
100
AcDbPolyline
 90
        6
 70
     1
 43
0.0
 10
2.609008
 20
7.750774999999999
 10
3.088998
 20
7.750774999999999
 42
0.304122
 10
2.987792999999999
 20
7.599775
 10
2.987792999999999
 20
7.571713
 42
-0.4142140000000001
 10
2.837106
 20
7.421025
 10
2.6232
 20
7.421025
 42
0.4578470000000001
  0
LWPOLYLINE
  5
704
330
1E
100
AcDbEntity
  8
OBJECT
100
AcDbPolyline
 90
        6
 70
     1
 43
0.0
 10
5.016579
 20
7.750774999999999
 10
4.536588
 20
7.750774999999999
 42
-0.304122
 10
4.637793
 20
7.599775
 10
4.637793
 20
7.571713
 42
0.4142140000000001
 10
4.788480999999999
 20
7.421025
 10
5.002386
 20
7.421025
 42
-0.4578470000000001
  0
LWPOLYLINE
  5
70C
330
1E
100
AcDbEntity
  8
OBJECT
100
AcDbPolyline
 90
        6
 70
     0
 43
0.0
 10
4.474542999999999
 20
7.698025
 42
-0.4142140000000001
 10
4.572792999999999
 20
7.599775
 10
4.572792999999999
 20
7.571713
 42
0.4142140000000001
 10
4.788480999999999
 20
7.356024999999999
 10
5.171542999999999
 20
7.356024999999999
 42
-0.4142140000000001
 10
5.269792999999999
 20
7.257774999999999
 42
-0.4142140000000001
  0
LWPOLYLINE
  5
714
330
1E
100
AcDbEntity
  8
OBJECT
100
AcDbPolyline
 90
        6
 70
     0
 43
0.0
 10
4.474542999999999
 20
7.738025
 42
-0.4142140000000001
 10
4.612792999999999
 20
7.599775
 10
4.612792999999999
 20
7.571713
 42
0.4142140000000001
 10
4.788480999999999
 20
7.396024999999999
 10
5.171542999999999
 20
7.396024999999999
 42
-0.4142140000000001
 10
5.309792999999999
 20
7.257774999999999
 42
-0.4142140000000001
  0
LINE
  5
71C
330
1E
100
AcDbEntity
  8
OBJECT
100
AcDbLine
 10
5.269792999999999
 20
5.145775
 30
0.0
 11
5.269792999999999
 21
7.257774999999999
 31
0.0
  0
LINE
  5
71D
330
1E
100
AcDbEntity
  8
OBJECT
100
AcDbLine
 10
5.309792999999999
 20
5.145775
 30
0.0
 11
5.309792999999999
 21
7.257774999999999
 31
0.0
  0
LINE
  5
71E
330
1E
100
AcDbEntity
  8
OBJECT
100
AcDbLine
 10
3.151043
 20
4.705524999999999
 30
0.0
 11
4.474542999999999
 21
4.705524999999999
 31
0.0
  0
LWPOLYLINE
  5
71F
330
1E
100
AcDbEntity
  8
OBJECT
100
AcDbPolyline
 90
        6
 70
     1
 43
0.0
 10
2.609008
 20
4.652775
 10
3.088998
 20
4.652775
 42
-0.304122
 10
2.987792999999999
 20
4.803774999999999
 10
2.987792999999999
 20
4.831837999999999
 42
0.4142140000000001
 10
2.837106
 20
4.982524999999999
 10
2.6232
 20
4.982524999999999
 42
-0.4578470000000001
  0
LWPOLYLINE
  5
727
330
1E
100
AcDbEntity
  8
OBJECT
100
AcDbPolyline
 90
        6
 70
     0
 43
0.0
 10
3.151043
 20
4.705524999999999
 42
-0.4142140000000001
 10
3.052792999999999
 20
4.803774999999999
 10
3.052792999999999
 20
4.831837999999999
 42
0.4142140000000001
 10
2.837106
 20
5.047525
 10
2.454042999999999
 20
5.047525
 42
-0.4142140000000001
 10
2.355793
 20
5.145775
 42
-0.4142140000000001
  0
LWPOLYLINE
  5
72F
330
1E
100
AcDbEntity
  8
OBJECT
100
AcDbPolyline
 90
        6
 70
     0
 43
0.0
 10
3.151043
 20
4.665524999999999
 42
-0.4142140000000001
 10
3.012792999999999
 20
4.803774999999999
 10
3.012792999999999
 20
4.831837999999999
 42
0.4142140000000001
 10
2.837106
 20
5.007525
 10
2.454042999999999
 20
5.007525
 42
-0.4142140000000001
 10
2.315793
 20
5.145775
 42
-0.4142140000000001
  0
LWPOLYLINE
  5
737
330
1E
100
AcDbEntity
  8
OBJECT
100
AcDbPolyline
 90
        6
 70
     0
 43
0.0
 10
4.474542999999999
 20
4.665524999999999
 42
0.4142140000000001
 10
4.612792999999999
 20
4.803774999999999
 10
4.612792999999999
 20
4.831837999999999
 42
-0.4142140000000001
 10
4.788480999999999
 20
5.007525
 10
5.171542999999999
 20
5.007525
 42
0.4142140000000001
 10
5.309792999999999
 20
5.145775
 42
0.4142140000000001
  0
LWPOLYLINE
  5
73F
330
1E
100
AcDbEntity
  8
OBJECT
100
AcDbPolyline
 90
        6
 70
     0
 43
0.0
 10
4.474542999999999
 20
4.705524999999999
 42
0.4142140000000001
 10
4.572792999999999
 20
4.803774999999999
 10
4.572792999999999
 20
4.831837999999999
 42
-0.4142140000000001
 10
4.788480999999999
 20
5.047525
 10
5.171542999999999
 20
5.047525
 42
0.4142140000000001
 10
5.269792999999999
 20
5.145775
 42
0.4142140000000001
  0
LWPOLYLINE
  5
747
330
1E
100
AcDbEntity
  8
OBJECT
100
AcDbPolyline
 90
        6
 70
     1
 43
0.0
 10
5.016579
 20
4.652775
 10
4.536588
 20
4.652775
 42
0.304122
 10
4.637793
 20
4.803774999999999
 10
4.637793
 20
4.831837999999999
 42
-0.4142140000000001
 10
4.788480999999999
 20
4.982524999999999
 10
5.002386
 20
4.982524999999999
 42
0.4578470000000001
  0
LINE
  5
74F
330
1E
100
AcDbEntity
  8
OBJECT
100
AcDbLine
 10
3.151043
 20
4.665524999999999
 30
0.0
 11
4.474542999999999
 21
4.665524999999999
 31
0.0
  0
CIRCLE
  5
750
330
1E
100
AcDbEntity
  8
OBJECT
100
AcDbCircle
 10
3.812793
 20
5.059775
 30
0.0
 40
0.1575
  0
CIRCLE
  5
751
330
1E
100
AcDbEntity
  8
OBJECT
100
AcDbCircle
 10
3.812793
 20
5.059775
 30
0.0
 40
0.045
  0
CIRCLE
  5
752
330
1E
100
AcDbEntity
  8
OBJECT
100
AcDbCircle
 10
3.812793
 20
7.343774999999999
 30
0.0
 40
0.045
  0
CIRCLE
  5
753
330
1E
100
AcDbEntity
  8
OBJECT
100
AcDbCircle
 10
3.812793
 20
7.343774999999999
 30
0.0
 40
0.1575
  0
CIRCLE
  5
75A
330
1E
100
AcDbEntity
  8
OBJECT
100
AcDbCircle
 10
4.796793
 20
4.823775
 30
0.0
 40
0.0825
  0
CIRCLE
  5
75B
330
1E
100
AcDbEntity
  8
OBJECT
100
AcDbCircle
 10
2.828793
 20
4.823775
 30
0.0
 40
0.0825
  0
CIRCLE
  5
75C
330
1E
100
AcDbEntity
  8
OBJECT
100
AcDbCircle
 10
2.828793
 20
7.579774999999999
 30
0.0
 40
0.0825
  0
CIRCLE
  5
75D
330
1E
100
AcDbEntity
  8
OBJECT
100
AcDbCircle
 10
4.796793
 20
7.579774999999999
 30
0.0
 40
0.0825
  0
INSERT
  5
75E
330
1E
100
AcDbEntity
  8
BEND
100
AcDbBlockReference
 66
     1
  2
SECTION
 10
5.276378
 20
4.373778999999999
 30
0.0
 41
0.9404999999999999
 42
0.9404999999999999
 43
0.9404999999999999
 50
90.0
  0
ATTRIB
  5
75F
330
75E
100
AcDbEntity
  8
0
100
AcDbText
 10
5.187235142857143
 20
4.256778999999999
 30
0.0
 40
0.234
  1
A
 41
0.8
  7
SECTION
 72
     4
 11
5.276378
 21
4.373778999999999
 31
0.0
100
AcDbAttribute
  2
SECTION
 70
     0
  0
SEQEND
  5
760
330
75E
100
AcDbEntity
  8
BEND
 62
     7
  0
LWPOLYLINE
  5
761
330
1E
100
AcDbEntity
  8
BEND
100
AcDbPolyline
 90
       10
 70
     0
 10
4.652950999999999
 20
4.373778999999999
 40
0.0
 41
0.117621
 10
4.888193
 20
4.373778999999999
 40
0.0
 41
0.0
 10
5.151792999999999
 20
4.373778999999999
 40
0.0
 41
0.0
 10
5.151792999999999
 20
6.050726999999999
 40
0.0
 41
0.0
 10
4.954793
 20
6.050726999999999
 40
0.0
 41
0.0
 10
4.954793
 20
7.31369086003079
 40
0.0
 41
0.0
 10
4.796793
 20
7.31369086003079
 40
0.0
 41
0.0
 10
4.796793
 20
8.128177
 40
0.0
 41
0.0
 10
4.533192999999999
 20
8.128177
 40
0.117621
 41
0.0
 10
4.297951
 20
8.128177
 40
0.0
 41
0.0
  0
INSERT
  5
76D
330
1E
100
AcDbEntity
  8
BEND
100
AcDbBlockReference
 66
     1
  2
SECTION
 10
5.064348999999999
 20
8.154847999999999
 30
0.0
 41
0.9404999999999999
 42
0.9404999999999999
 43
0.9404999999999999
 50
90.0
  0
ATTRIB
  5
76E
330
76D
100
AcDbEntity
  8
0
100
AcDbText
 10
4.975206142857143
 20
8.037847999999998
 30
0.0
 40
0.234
  1
A
 41
0.8
  7
SECTION
 72
     4
 11
5.064348999999999
 21
8.154847999999999
 31
0.0
100
AcDbAttribute
  2
SECTION
 70
     0
  0
SEQEND
  5
76F
330
76D
100
AcDbEntity
  8
BEND
 62
     7
  0
DIMENSION
  5
770
330
1E
100
AcDbEntity
  8
DIM
100
AcDbDimension
  2
*D18
 10
4.314106999999999
 20
7.698025
 30
0.0
 11
4.314106999999998
 21
6.201775000000001
 31
0.0
 70
    32
 71
     5
 42
2.9925
  3
23NSTD
100
AcDbAlignedDimension
 13
4.474542999999999
 23
4.705524999999999
 33
0.0
 14
4.474542999999999
 24
7.698025
 34
0.0
 50
270.0
100
AcDbRotatedDimension
  0
LINE
  5
77E
330
1E
100
AcDbEntity
  8
HIDDEN
100
AcDbLine
 10
4.714292999999999
 20
1.709288
 30
0.0
 11
4.714292999999999
 21
1.552287999999999
 31
0.0
  0
LINE
  5
77F
330
1E
100
AcDbEntity
  8
HIDDEN
100
AcDbLine
 10
4.879292999999999
 20
1.709288
 30
0.0
 11
4.879292999999999
 21
1.552287999999999
 31
0.0
  0
LINE
  5
780
330
1E
100
AcDbEntity
  8
HIDDEN
100
AcDbLine
 10
5.309042999999999
 20
2.817287999999999
 30
0.0
 11
4.999043
 21
2.817287999999999
 31
0.0
  0
LINE
  5
781
330
1E
100
AcDbEntity
  8
HIDDEN
100
AcDbLine
 10
2.691793
 20
3.132287999999999
 30
0.0
 11
2.691793
 21
1.709288
 31
0.0
  0
LINE
  5
782
330
1E
100
AcDbEntity
  8
HIDDEN
100
AcDbLine
 10
2.626542999999999
 20
2.817287999999999
 30
0.0
 11
2.626542999999999
 21
1.552287999999999
 31
0.0
  0
LINE
  5
783
330
1E
100
AcDbEntity
  8
HIDDEN
100
AcDbLine
 10
2.316543
 20
2.817287999999999
 30
0.0
 11
2.316543
 21
1.552287999999999
 31
0.0
  0
LINE
  5
784
330
1E
100
AcDbEntity
  8
HIDDEN
100
AcDbLine
 10
2.746293
 20
1.709288
 30
0.0
 11
2.746293
 21
1.552287999999999
 31
0.0
  0
LINE
  5
785
330
1E
100
AcDbEntity
  8
HIDDEN
100
AcDbLine
 10
2.911293
 20
1.709288
 30
0.0
 11
2.911293
 21
1.552287999999999
 31
0.0
  0
LINE
  5
786
330
1E
100
AcDbEntity
  8
HIDDEN
100
AcDbLine
 10
2.316543
 20
2.817287999999999
 30
0.0
 11
2.626542999999999
 21
2.817287999999999
 31
0.0
  0
LINE
  5
787
330
1E
100
AcDbEntity
  8
HIDDEN
100
AcDbLine
 10
2.346543
 20
3.132287999999999
 30
0.0
 11
2.346543
 21
2.817287999999999
 31
0.0
  0
LINE
  5
788
330
1E
100
AcDbEntity
  8
HIDDEN
100
AcDbLine
 10
2.409043
 20
3.132287999999999
 30
0.0
 11
2.409043
 21
2.817287999999999
 31
0.0
  0
LINE
  5
789
330
1E
100
AcDbEntity
  8
HIDDEN
100
AcDbLine
 10
2.534043
 20
3.132287999999999
 30
0.0
 11
2.534043
 21
2.817287999999999
 31
0.0
  0
LINE
  5
78A
330
1E
100
AcDbEntity
  8
HIDDEN
100
AcDbLine
 10
2.596543
 20
3.132287999999999
 30
0.0
 11
2.596543
 21
2.817287999999999
 31
0.0
  0
LINE
  5
78B
330
1E
100
AcDbEntity
  8
HIDDEN
100
AcDbLine
 10
2.355793
 20
3.192288
 30
0.0
 11
2.355793
 21
1.709288
 31
0.0
  0
LINE
  5
78C
330
1E
100
AcDbEntity
  8
HIDDEN
100
AcDbLine
 10
3.970292999999999
 20
1.965288
 30
0.0
 11
3.970292999999999
 21
1.709288
 31
0.0
  0
LINE
  5
78D
330
1E
100
AcDbEntity
  8
HIDDEN
100
AcDbLine
 10
3.970292999999999
 20
1.965288
 30
0.0
 11
3.655292999999999
 21
1.965288
 31
0.0
  0
LINE
  5
78E
330
1E
100
AcDbEntity
  8
HIDDEN
100
AcDbLine
 10
3.655292999999999
 20
1.965288
 30
0.0
 11
3.655292999999999
 21
1.709288
 31
0.0
  0
LINE
  5
78F
330
1E
100
AcDbEntity
  8
HIDDEN
100
AcDbLine
 10
3.767793
 20
1.965288
 30
0.0
 11
3.767793
 21
1.684288
 31
0.0
  0
LINE
  5
790
330
1E
100
AcDbEntity
  8
HIDDEN
100
AcDbLine
 10
3.857793
 20
1.965288
 30
0.0
 11
3.857793
 21
1.684288
 31
0.0
  0
LINE
  5
791
330
1E
100
AcDbEntity
  8
HIDDEN
100
AcDbLine
 10
3.857793
 20
1.684288
 30
0.0
 11
3.767793
 21
1.684288
 31
0.0
  0
LINE
  5
792
330
1E
100
AcDbEntity
  8
HIDDEN
100
AcDbLine
 10
2.513292999999999
 20
1.965288
 30
0.0
 11
2.513292999999999
 21
1.709288
 31
0.0
  0
LINE
  5
793
330
1E
100
AcDbEntity
  8
HIDDEN
100
AcDbLine
 10
2.513292999999999
 20
1.965288
 30
0.0
 11
2.828293
 21
1.965288
 31
0.0
  0
LINE
  5
794
330
1E
100
AcDbEntity
  8
HIDDEN
100
AcDbLine
 10
2.828293
 20
1.965288
 30
0.0
 11
2.828293
 21
1.709288
 31
0.0
  0
LINE
  5
795
102
{ACAD_REACTORS
330
12BA
102
}
330
1E
100
AcDbEntity
  8
OBJECT
100
AcDbLine
 10
8.638325999999999
 20
7.737775
 30
0.0
 11
8.638325999999999
 21
4.665775
 31
0.0
  0
LINE
  5
796
102
{ACAD_REACTORS
330
12BA
102
}
330
1E
100
AcDbEntity
  8
OBJECT
100
AcDbLine
 10
10.27832599999999
 20
7.765774999999999
 30
0.0
 11
10.27832599999999
 21
4.637775
 31
0.0
  0
LINE
  5
797
102
{ACAD_REACTORS
330
F87
330
12BA
102
}
330
1E
100
AcDbEntity
  8
OBJECT
100
AcDbLine
 10
8.698325999999999
 20
4.607775
 30
0.0
 11
8.698325999999999
 21
5.007552999999999
 31
0.0
  0
LINE
  5
798
102
{ACAD_REACTORS
330
12BA
102
}
330
1E
100
AcDbEntity
  8
OBJECT
100
AcDbLine
 10
8.738325999999998
 20
7.815775
 30
0.0
 11
8.738325999999998
 21
7.795774999999999
 31
0.0
  0
LINE
  5
799
102
{ACAD_REACTORS
330
12BA
102
}
330
1E
100
AcDbEntity
  8
OBJECT
100
AcDbLine
 10
10.12132599999999
 20
7.750774999999999
 30
0.0
 11
10.12132599999999
 21
7.421025
 31
0.0
  0
LINE
  5
79A
102
{ACAD_REACTORS
330
12BA
102
}
330
1E
100
AcDbEntity
  8
OBJECT
100
AcDbLine
 10
8.738325999999998
 20
4.587774999999999
 30
0.0
 11
10.22832599999999
 21
4.587774999999999
 31
0.0
  0
LINE
  5
79B
102
{ACAD_REACTORS
330
12BA
102
}
330
1E
100
AcDbEntity
  8
OBJECT
100
AcDbLine
 10
9.013325999999999
 20
4.976524999999999
 30
0.0
 11
10.27832599999999
 21
4.976524999999999
 31
0.0
  0
LINE
  5
79C
102
{ACAD_REACTORS
330
12BA
102
}
330
1E
100
AcDbEntity
  8
OBJECT
100
AcDbLine
 10
8.638325999999999
 20
5.047525
 30
0.0
 11
10.12132599999999
 21
5.047525
 31
0.0
  0
LINE
  5
79D
102
{ACAD_REACTORS
330
12BA
102
}
330
1E
100
AcDbEntity
  8
OBJECT
100
AcDbLine
 10
9.013325999999999
 20
4.666525
 30
0.0
 11
10.27832599999999
 21
4.666525
 31
0.0
  0
ARC
  5
79E
102
{ACAD_REACTORS
330
12BA
102
}
330
1E
100
AcDbEntity
  8
OBJECT
100
AcDbCircle
 10
10.22832599999999
 20
4.637775
 30
0.0
 40
0.05
100
AcDbArc
 50
270.0
 51
0.0
  0
LINE
  5
7A2
102
{ACAD_REACTORS
330
F87
330
12BA
102
}
330
1E
100
AcDbEntity
  8
OBJECT
100
AcDbLine
 10
9.013325999999999
 20
4.666525
 30
0.0
 11
9.013325999999999
 21
4.976524999999999
 31
0.0
  0
LINE
  5
7A3
330
1E
100
AcDbEntity
  8
OBJECT
100
AcDbLine
 10
8.698325999999999
 20
4.665775
 30
0.0
 11
8.638325999999999
 21
4.665775
 31
0.0
  0
LINE
  5
7A4
102
{ACAD_REACTORS
330
12BA
102
}
330
1E
100
AcDbEntity
  8
OBJECT
100
AcDbLine
 10
8.738325999999998
 20
4.607775
 30
0.0
 11
8.698325999999999
 21
4.607775
 31
0.0
  0
LINE
  5
7A5
102
{ACAD_REACTORS
330
F87
330
12BA
102
}
330
1E
100
AcDbEntity
  8
OBJECT
100
AcDbLine
 10
8.698325999999999
 20
4.696525
 30
0.0
 11
9.013325999999999
 21
4.696525
 31
0.0
  0
LINE
  5
7A6
102
{ACAD_REACTORS
330
F87
102
}
330
1E
100
AcDbEntity
  8
OBJECT
100
AcDbLine
 10
8.698325999999999
 20
4.759025
 30
0.0
 11
9.013325999999999
 21
4.759025
 31
0.0
  0
LINE
  5
7A7
102
{ACAD_REACTORS
330
12BA
102
}
330
1E
100
AcDbEntity
  8
OBJECT
100
AcDbLine
 10
8.638325999999999
 20
5.007552999999999
 30
0.0
 11
8.698325999999999
 21
5.007552999999999
 31
0.0
  0
LINE
  5
7A8
102
{ACAD_REACTORS
330
F87
102
}
330
1E
100
AcDbEntity
  8
OBJECT
100
AcDbLine
 10
8.698325999999999
 20
4.884025
 30
0.0
 11
9.013325999999999
 21
4.884025
 31
0.0
  0
LINE
  5
7A9
102
{ACAD_REACTORS
330
F87
330
12BA
102
}
330
1E
100
AcDbEntity
  8
OBJECT
100
AcDbLine
 10
8.698325999999999
 20
4.946525
 30
0.0
 11
9.013325999999999
 21
4.946525
 31
0.0
  0
LINE
  5
7AA
102
{ACAD_REACTORS
330
12BA
102
}
330
1E
100
AcDbEntity
  8
OBJECT
100
AcDbLine
 10
8.738325999999998
 20
7.815775
 30
0.0
 11
10.22832599999999
 21
7.815775
 31
0.0
  0
LINE
  5
7AB
102
{ACAD_REACTORS
330
12BA
102
}
330
1E
100
AcDbEntity
  8
OBJECT
100
AcDbLine
 10
8.638325999999999
 20
7.356024999999999
 30
0.0
 11
10.12132599999999
 21
7.356024999999999
 31
0.0
  0
LINE
  5
7AC
102
{ACAD_REACTORS
330
12BA
102
}
330
1E
100
AcDbEntity
  8
OBJECT
100
AcDbLine
 10
8.698325999999999
 20
7.421025
 30
0.0
 11
10.12132599999999
 21
7.421025
 31
0.0
  0
LINE
  5
7AF
102
{ACAD_REACTORS
330
12BA
102
}
330
1E
100
AcDbEntity
  8
OBJECT
100
AcDbLine
 10
10.12132599999999
 20
7.662275
 30
0.0
 11
10.27832599999999
 21
7.662275
 31
0.0
  0
LINE
  5
7B0
102
{ACAD_REACTORS
330
12BA
102
}
330
1E
100
AcDbEntity
  8
OBJECT
100
AcDbLine
 10
10.12132599999999
 20
7.497275
 30
0.0
 11
10.27832599999999
 21
7.497275
 31
0.0
  0
ARC
  5
7B1
102
{ACAD_REACTORS
330
12BA
102
}
330
1E
100
AcDbEntity
  8
OBJECT
100
AcDbCircle
 10
10.22832599999999
 20
7.765774999999999
 30
0.0
 40
0.05
100
AcDbArc
 50
0.0
 51
90.0
  0
LINE
  5
7B2
102
{ACAD_REACTORS
330
12BA
102
}
330
1E
100
AcDbEntity
  8
OBJECT
100
AcDbLine
 10
8.638325999999999
 20
7.395997999999999
 30
0.0
 11
8.698325999999999
 21
7.395997999999999
 31
0.0
  0
LINE
  5
7B3
330
1E
100
AcDbEntity
  8
OBJECT
100
AcDbLine
 10
8.638325999999999
 20
7.737775
 30
0.0
 11
8.698325999999999
 21
7.737775
 31
0.0
  0
LINE
  5
7B4
102
{ACAD_REACTORS
330
12BA
102
}
330
1E
100
AcDbEntity
  8
OBJECT
100
AcDbLine
 10
8.698325999999999
 20
7.795774999999999
 30
0.0
 11
8.738325999999998
 21
7.795774999999999
 31
0.0
  0
LINE
  5
7B5
102
{ACAD_REACTORS
330
12BA
102
}
330
1E
100
AcDbEntity
  8
OBJECT
100
AcDbLine
 10
8.738325999999998
 20
4.607775
 30
0.0
 11
8.738325999999998
 21
4.587774999999999
 31
0.0
  0
LINE
  5
7B6
102
{ACAD_REACTORS
330
12BA
102
}
330
1E
100
AcDbEntity
  8
OBJECT
100
AcDbLine
 10
8.698325999999999
 20
7.395997999999999
 30
0.0
 11
8.698325999999999
 21
7.795774999999999
 31
0.0
  0
LINE
  5
7B7
102
{ACAD_REACTORS
330
12BA
102
}
330
1E
100
AcDbEntity
  8
OBJECT
100
AcDbLine
 10
8.698325999999999
 20
7.750774999999999
 30
0.0
 11
10.12132599999999
 21
7.750774999999999
 31
0.0
  0
LINE
  5
7B8
102
{ACAD_REACTORS
330
12BA
102
}
330
1E
100
AcDbEntity
  8
OBJECT
100
AcDbLine
 10
10.12132599999999
 20
7.356024999999999
 30
0.0
 11
10.12132599999999
 21
7.290689999369561
 31
0.0
  0
LINE
  5
7B9
102
{ACAD_REACTORS
330
12BA
102
}
330
1E
100
AcDbEntity
  8
OBJECT
100
AcDbLine
 10
10.12132599999999
 20
6.824859974011098
 30
0.0
 11
10.12132599999999
 21
5.047525
 31
0.0
  0
LINE
  5
7BA
330
1E
100
AcDbEntity
  8
HIDDEN
100
AcDbLine
 10
9.865325999999999
 20
5.408274999999999
 30
0.0
 11
10.08332599999999
 21
5.408274999999999
 31
0.0
  0
LINE
  5
7BB
330
1E
100
AcDbEntity
  8
HIDDEN
100
AcDbLine
 10
9.865325999999999
 20
5.283274999999999
 30
0.0
 11
10.08332599999999
 21
5.283274999999999
 31
0.0
  0
LINE
  5
7BC
330
1E
100
AcDbEntity
  8
HIDDEN
100
AcDbLine
 10
9.865325999999999
 20
5.439524999999999
 30
0.0
 11
10.08332599999999
 21
5.439524999999999
 31
0.0
  0
LINE
  5
7BD
330
1E
100
AcDbEntity
  8
HIDDEN
100
AcDbLine
 10
9.865325999999999
 20
5.252024999999999
 30
0.0
 11
10.08332599999999
 21
5.252024999999999
 31
0.0
  0
LINE
  5
7BE
330
1E
100
AcDbEntity
  8
HIDDEN
100
AcDbLine
 10
10.08332599999999
 20
5.439524999999999
 30
0.0
 11
10.08332599999999
 21
5.252024999999999
 31
0.0
  0
DIMENSION
  5
7C2
330
1E
100
AcDbEntity
  8
DIM
100
AcDbDimension
  2
*D19
 10
8.638325999999999
 20
8.155316
 30
0.0
 11
9.458325999999999
 21
8.155316
 31
0.0
 70
    32
 71
     5
 42
1.64
  3
23NSTD
100
AcDbAlignedDimension
 13
10.27832599999999
 23
7.765774999999999
 33
0.0
 14
8.638325999999999
 24
7.737775
 34
0.0
100
AcDbRotatedDimension
  0
DIMENSION
  5
7D0
330
1E
100
AcDbEntity
  8
DIM
100
AcDbDimension
  2
*D20
 10
9.013325999999999
 20
4.210935
 30
0.0
 11
9.645825999999999
 21
4.210935
 31
0.0
 70
    32
 71
     5
 42
1.265
  3
23NSTDI
100
AcDbAlignedDimension
 13
10.27832599999999
 23
4.637775
 33
0.0
 14
9.013325999999999
 24
4.666525
 34
0.0
100
AcDbRotatedDimension
  0
DIMENSION
  5
7DE
330
1E
100
AcDbEntity
  8
DIM
100
AcDbDimension
  2
*D21
 10
10.27832599999999
 20
6.135030999999999
 30
0.0
 11
11.19941975
 21
6.135030999999999
 31
0.0
 70
    32
 71
     5
 42
0.157
  3
23NSTD
100
AcDbAlignedDimension
 13
10.12132599999999
 23
5.989065
 33
0.0
 14
10.27832599999999
 24
5.989065
 34
0.0
100
AcDbRotatedDimension
  0
DIMENSION
  5
7EC
330
1E
100
AcDbEntity
  8
DIM
100
AcDbDimension
  2
*D22
 10
10.27832599999999
 20
6.655895
 30
0.0
 11
11.19941975
 21
6.655895
 31
0.0
 70
    32
  1
<>
 71
     5
 42
0.4130000000000003
  3
23NSTD
100
AcDbAlignedDimension
 13
9.865325999999999
 23
6.900274999999999
 33
0.0
 14
10.27832599999999
 24
6.900274999999999
 34
0.0
100
AcDbRotatedDimension
  0
DIMENSION
  5
7FA
330
1E
100
AcDbEntity
  8
DIM
100
AcDbDimension
  2
*D23
 10
11.06426099999999
 20
4.976524999999999
 30
0.0
 11
11.06426099999999
 21
4.821525000000002
 31
0.0
 70
    32
  1
<> DIA.
 71
     5
 42
0.3099999999999996
  3
23NSTDI
100
AcDbAlignedDimension
 13
10.27832599999999
 23
4.666525
 33
0.0
 14
10.27832599999999
 24
4.976524999999999
 34
0.0
 50
90.0
100
AcDbRotatedDimension
  0
DIMENSION
  5
808
330
1E
100
AcDbEntity
  8
DIM
100
AcDbDimension
  2
*D24
 10
10.695294
 20
7.662275
 30
0.0
 11
11.62763774999999
 21
8.202275000000003
 31
0.0
 70
    32
  1
<> DIA.
 71
     5
 42
0.165
  3
23NSTD
100
AcDbAlignedDimension
 13
10.27832599999999
 23
7.497275
 33
0.0
 14
10.27832599999999
 24
7.662275
 34
0.0
 50
90.0
100
AcDbRotatedDimension
  0
DIMENSION
  5
82B
330
1E
100
AcDbEntity
  8
DIM
100
AcDbDimension
  2
*D25
 10
3.407051999999999
 20
7.332896999999999
 30
0.0
 11
3.407051999999998
 21
6.196336000000001
 31
0.0
 70
    32
 71
     5
 42
2.273121999999999
  3
23NSTD
100
AcDbAlignedDimension
 13
3.812793
 23
5.059775
 33
0.0
 14
3.812793
 24
7.332896999999999
 34
0.0
 50
90.0
100
AcDbRotatedDimension
  0
DIMENSION
  5
839
330
1E
100
AcDbEntity
  8
DIM
100
AcDbDimension
  2
*D26
 10
3.407051999999999
 20
7.815775
 30
0.0
 11
3.407051999999998
 21
7.574336
 31
0.0
 70
    32
 71
     5
 42
0.4828780000000004
  3
23NSTD
100
AcDbAlignedDimension
 13
3.812793
 23
7.332896999999999
 33
0.0
 14
3.330569
 24
7.815775
 34
0.0
 50
90.0
100
AcDbRotatedDimension
  0
DIMENSION
  5
847
330
1E
100
AcDbEntity
  8
DIM
100
AcDbDimension
  2
*D27
 10
2.237792999999999
 20
3.795247
 30
0.0
 11
3.025293
 21
3.795247
 31
0.0
 70
    32
 71
     5
 42
1.575
  3
23NSTDI
100
AcDbAlignedDimension
 13
3.812793
 23
5.059775
 33
0.0
 14
2.237792999999999
 24
4.806524999999999
 34
0.0
100
AcDbRotatedDimension
  0
TEXT
  5
855
330
1E
100
AcDbEntity
  8
TEXT
100
AcDbText
 10
17.76934899999999
 20
3.589557
 30
0.0
 40
0.1875
  1
%%USECTION "B-B"
 41
0.8
  7
SECTION
100
AcDbText
  0
LINE
  5
856
330
1E
100
AcDbEntity
  8
OBJECT
100
AcDbLine
 10
12.798996
 20
7.597025
 30
0.0
 11
12.798996
 21
4.806524999999999
 31
0.0
  0
LINE
  5
857
330
1E
100
AcDbEntity
  8
OBJECT
100
AcDbLine
 10
15.730246
 20
4.587774999999999
 30
0.0
 11
13.017746
 21
4.587774999999999
 31
0.0
  0
LINE
  5
858
330
1E
100
AcDbEntity
  8
OBJECT
100
AcDbLine
 10
15.94899599999999
 20
7.597025
 30
0.0
 11
15.94899599999999
 21
4.806524999999999
 31
0.0
  0
CIRCLE
  5
859
330
1E
100
AcDbEntity
  8
OBJECT
100
AcDbCircle
 10
15.71299599999999
 20
4.823775
 30
0.0
 40
0.085938
  0
ARC
  5
85A
330
1E
100
AcDbEntity
  8
OBJECT
100
AcDbCircle
 10
15.730246
 20
4.806524999999999
 30
0.0
 40
0.21875
100
AcDbArc
 50
270.0
 51
0.0
  0
ARC
  5
85B
330
1E
100
AcDbEntity
  8
OBJECT
100
AcDbCircle
 10
13.017746
 20
4.806524999999999
 30
0.0
 40
0.21875
100
AcDbArc
 50
180.0
 51
270.0
  0
CIRCLE
  5
85C
330
1E
100
AcDbEntity
  8
OBJECT
100
AcDbCircle
 10
13.034996
 20
4.823775
 30
0.0
 40
0.085938
  0
CIRCLE
  5
85D
330
1E
100
AcDbEntity
  8
OBJECT
100
AcDbCircle
 10
13.034996
 20
7.579774999999999
 30
0.0
 40
0.085938
  0
ARC
  5
85E
330
1E
100
AcDbEntity
  8
OBJECT
100
AcDbCircle
 10
13.017746
 20
7.597025
 30
0.0
 40
0.21875
100
AcDbArc
 50
90.0
 51
180.0
  0
ARC
  5
85F
330
1E
100
AcDbEntity
  8
OBJECT
100
AcDbCircle
 10
15.730246
 20
7.597025
 30
0.0
 40
0.21875
100
AcDbArc
 50
0.0
 51
90.0
  0
CIRCLE
  5
860
330
1E
100
AcDbEntity
  8
OBJECT
100
AcDbCircle
 10
15.71299599999999
 20
7.579774999999999
 30
0.0
 40
0.085938
  0
LINE
  5
861
330
1E
100
AcDbEntity
  8
OBJECT
100
AcDbLine
 10
15.730246
 20
7.815775
 30
0.0
 11
13.017746
 21
7.815775
 31
0.0
  0
DIMENSION
  5
862
330
1E
100
AcDbEntity
  8
DIM
100
AcDbDimension
  2
*D28
 10
16.460185
 20
7.815775
 30
0.0
 11
17.13471625
 21
8.355775000000003
 31
0.0
 70
    32
 71
     5
 42
0.2360000000000006
  3
23NSTD
100
AcDbAlignedDimension
 13
15.71299599999999
 23
7.579774999999999
 33
0.0
 14
15.730246
 24
7.815775
 34
0.0
 50
90.0
100
AcDbRotatedDimension
  0
DIMENSION
  5
870
330
1E
100
AcDbEntity
  8
DIM
100
AcDbDimension
  2
*D29
 10
16.460185
 20
7.579774999999999
 30
0.0
 11
16.460185
 21
6.201775000000003
 31
0.0
 70
    32
  1
<>
 71
     5
 42
2.755999999999999
  3
23NSTD
100
AcDbAlignedDimension
 13
15.71299599999999
 23
4.823775
 33
0.0
 14
15.71299599999999
 24
7.579774999999999
 34
0.0
 50
90.0
100
AcDbRotatedDimension
  0
DIMENSION
  5
87E
330
1E
100
AcDbEntity
  8
DIM
100
AcDbDimension
  2
*D30
 10
17.22101099999999
 20
7.815775
 30
0.0
 11
17.22101099999999
 21
6.201775000000003
 31
0.0
 70
    32
  1
<>
 71
     5
 42
3.228
  3
23NSTD
100
AcDbAlignedDimension
 13
15.730246
 23
4.587774999999999
 33
0.0
 14
15.730246
 24
7.815775
 34
0.0
 50
90.0
100
AcDbRotatedDimension
  0
DIMENSION
  5
88C
330
1E
100
AcDbEntity
  8
DIM
100
AcDbDimension
  2
*D31
 10
12.798996
 20
8.682769999999999
 30
0.0
 11
11.85446474999999
 21
8.682769999999999
 31
0.0
 70
    32
 71
     5
 42
0.2360000000000006
  3
23NSTD
100
AcDbAlignedDimension
 13
13.034996
 23
7.579774999999999
 33
0.0
 14
12.798996
 24
7.597025
 34
0.0
100
AcDbRotatedDimension
  0
DIMENSION
  5
89A
330
1E
100
AcDbEntity
  8
DIM
100
AcDbDimension
  2
*D32
 10
13.034996
 20
8.682769999999999
 30
0.0
 11
14.37399599999999
 21
8.682769999999999
 31
0.0
 70
    32
  1
<>
 71
     5
 42
2.677999999999997
  3
23NSTD
100
AcDbAlignedDimension
 13
15.71299599999999
 23
7.579774999999999
 33
0.0
 14
13.034996
 24
7.579774999999999
 34
0.0
100
AcDbRotatedDimension
  0
DIMENSION
  5
8A8
330
1E
100
AcDbEntity
  8
DIM
100
AcDbDimension
  2
*D33
 10
12.798996
 20
9.104269999999999
 30
0.0
 11
14.37399599999999
 21
9.104269999999999
 31
0.0
 70
    32
  1
<>
 71
     5
 42
3.149999999999998
  3
23NSTD
100
AcDbAlignedDimension
 13
15.94899599999999
 23
7.597025
 33
0.0
 14
12.798996
 24
7.597025
 34
0.0
100
AcDbRotatedDimension
  0
CIRCLE
  5
8B6
102
{ACAD_REACTORS
330
FFA
102
}
330
1E
100
AcDbEntity
  8
BEND
100
AcDbCircle
 10
18.511429
 20
4.870858
 30
0.0
 40
0.6126960000000001
  0
DIMENSION
  5
8BE
330
1E
100
AcDbEntity
  8
DIM
100
AcDbDimension
  2
*D34
 10
14.427037
 20
4.587774999999999
 30
0.0
 11
13.47125574999999
 21
4.047775000000002
 31
0.0
 70
    32
  1
<> TYP.
 71
     5
 42
0.1779999999999999
  3
23NSTD
100
AcDbAlignedDimension
 13
14.368444
 23
4.765774999999999
 33
0.0
 14
14.368444
 24
4.587774999999999
 34
0.0
 50
90.0
100
AcDbRotatedDimension
  0
INSERT
  5
8CC
330
1E
100
AcDbEntity
  8
BEND
100
AcDbBlockReference
 66
     1
  2
SECTION
 10
15.83409899999999
 20
4.332918
 30
0.0
 41
0.627
 42
0.627
 43
0.627
 50
90.0
  0
ATTRIB
  5
8CD
330
8CC
100
AcDbEntity
  8
0
100
AcDbText
 10
15.74049899999999
 20
4.215918
 30
0.0
 40
0.234
  1
B
 41
0.8
  7
SECTION
 72
     4
 11
15.83409899999999
 21
4.332918
 31
0.0
100
AcDbAttribute
  2
SECTION
 70
     0
  0
SEQEND
  5
8CE
330
8CC
100
AcDbEntity
  8
BEND
 62
     7
  0
INSERT
  5
8CF
330
1E
100
AcDbEntity
  8
BEND
100
AcDbBlockReference
 66
     1
  2
SECTION
 10
15.548795
 20
8.059505999999998
 30
0.0
 41
0.627
 42
0.627
 43
0.627
 50
90.0
  0
ATTRIB
  5
8D0
330
8CF
100
AcDbEntity
  8
0
100
AcDbText
 10
15.455195
 20
7.942505999999998
 30
0.0
 40
0.234
  1
B
 41
0.8
  7
SECTION
 72
     4
 11
15.548795
 21
8.059505999999998
 31
0.0
100
AcDbAttribute
  2
SECTION
 70
     0
  0
SEQEND
  5
8D1
330
8CF
100
AcDbEntity
  8
BEND
 62
     7
  0
LWPOLYLINE
  5
8D2
330
1E
100
AcDbEntity
  8
OBJECT
100
AcDbPolyline
 90
        6
 70
     1
 43
0.0
 10
13.548295
 20
7.735775
 42
0.167252
 10
13.50424599999999
 20
7.607775
 10
13.50424599999999
 20
7.571713
 42
-0.4142140000000001
 10
13.39830899999999
 20
7.465774999999999
 10
13.220813
 20
7.465774999999999
 42
0.3503
 10
13.187272
 20
7.735775
  0
LWPOLYLINE
  5
8DA
330
1E
100
AcDbEntity
  8
OBJECT
100
AcDbPolyline
 90
        6
 70
     1
 43
0.0
 10
15.199698
 20
7.735775
 42
-0.167252
 10
15.24374599999999
 20
7.607775
 10
15.24374599999999
 20
7.571713
 42
0.4142140000000001
 10
15.349684
 20
7.465774999999999
 10
15.527179
 20
7.465774999999999
 42
-0.3503
 10
15.56072
 20
7.735775
  0
LWPOLYLINE
  5
8E2
330
1E
100
AcDbEntity
  8
OBJECT
100
AcDbPolyline
 90
        6
 70
     1
 43
0.0
 10
13.548295
 20
4.667774999999999
 42
-0.167252
 10
13.50424599999999
 20
4.795774999999999
 10
13.50424599999999
 20
4.831837999999999
 42
0.4142140000000001
 10
13.39830899999999
 20
4.937775
 10
13.220813
 20
4.937775
 42
-0.3503
 10
13.187272
 20
4.667774999999999
  0
LWPOLYLINE
  5
8EA
330
1E
100
AcDbEntity
  8
OBJECT
100
AcDbPolyline
 90
        6
 70
     1
 43
0.0
 10
15.199698
 20
4.667774999999999
 42
0.167252
 10
15.24374599999999
 20
4.795774999999999
 10
15.24374599999999
 20
4.831837999999999
 42
-0.4142140000000001
 10
15.349684
 20
4.937775
 10
15.527179
 20
4.937775
 42
0.3503
 10
15.56072
 20
4.667774999999999
  0
LINE
  5
8F2
330
1E
100
AcDbEntity
  8
OBJECT
100
AcDbLine
 10
21.22547699999999
 20
4.587774999999999
 30
0.0
 11
21.22547699999999
 21
7.815775
 31
0.0
  0
LINE
  5
8F3
330
1E
100
AcDbEntity
  8
OBJECT
100
AcDbLine
 10
22.765477
 20
4.637775
 30
0.0
 11
22.765477
 21
7.765774999999999
 31
0.0
  0
LINE
  5
8F4
330
1E
100
AcDbEntity
  8
OBJECT
100
AcDbLine
 10
21.22547699999999
 20
4.587774999999999
 30
0.0
 11
22.715477
 21
4.587774999999999
 31
0.0
  0
ARC
  5
8F5
330
1E
100
AcDbEntity
  8
OBJECT
100
AcDbCircle
 10
22.715477
 20
4.637775
 30
0.0
 40
0.05
100
AcDbArc
 50
270.0
 51
0.0
  0
LINE
  5
8F6
330
1E
100
AcDbEntity
  8
OBJECT
100
AcDbLine
 10
21.185477
 20
4.607775
 30
0.0
 11
21.22547699999999
 21
4.607775
 31
0.0
  0
LINE
  5
8F7
330
1E
100
AcDbEntity
  8
OBJECT
100
AcDbLine
 10
21.22547699999999
 20
7.815775
 30
0.0
 11
22.715477
 21
7.815775
 31
0.0
  0
ARC
  5
8F8
330
1E
100
AcDbEntity
  8
OBJECT
100
AcDbCircle
 10
22.715477
 20
7.765774999999999
 30
0.0
 40
0.05
100
AcDbArc
 50
0.0
 51
90.0
  0
LINE
  5
8F9
330
1E
100
AcDbEntity
  8
OBJECT
100
AcDbLine
 10
21.22547699999999
 20
7.795774999999999
 30
0.0
 11
21.185477
 21
7.795774999999999
 31
0.0
  0
LINE
  5
8FA
330
1E
100
AcDbEntity
  8
OBJECT
100
AcDbLine
 10
20.59447699999999
 20
7.753275
 30
0.0
 11
20.59447699999999
 21
4.650274999999999
 31
0.0
  0
LINE
  5
8FB
330
1E
100
AcDbEntity
  8
OBJECT
100
AcDbLine
 10
21.185477
 20
7.815775
 30
0.0
 11
21.185477
 21
4.587774999999999
 31
0.0
  0
LINE
  5
8FC
330
1E
100
AcDbEntity
  8
OBJECT
100
AcDbLine
 10
21.185477
 20
4.587774999999999
 30
0.0
 11
20.65697699999999
 21
4.587774999999999
 31
0.0
  0
ARC
  5
8FD
330
1E
100
AcDbEntity
  8
OBJECT
100
AcDbCircle
 10
20.65697699999999
 20
4.650274999999999
 30
0.0
 40
0.0625
100
AcDbArc
 50
180.0
 51
270.0
  0
LINE
  5
8FE
330
1E
100
AcDbEntity
  8
OBJECT
100
AcDbLine
 10
21.185477
 20
7.815775
 30
0.0
 11
20.65697699999999
 21
7.815775
 31
0.0
  0
ARC
  5
8FF
330
1E
100
AcDbEntity
  8
OBJECT
100
AcDbCircle
 10
20.65697699999999
 20
7.753275
 30
0.0
 40
0.0625
100
AcDbArc
 50
90.0
 51
180.0
  0
DIMENSION
  5
900
330
1E
100
AcDbEntity
  8
DIM
100
AcDbDimension
  2
*D35
 10
21.185477
 20
4.047774999999999
 30
0.0
 11
22.41125825
 21
4.047774999999999
 31
0.0
 70
    32
  1
<> REF.
 71
     5
 42
0.5910000000000011
  3
23NSTD
100
AcDbAlignedDimension
 13
20.59447699999999
 23
4.650274999999999
 33
0.0
 14
21.185477
 24
4.587774999999999
 34
0.0
 50
180.0
100
AcDbRotatedDimension
  0
DIMENSION
  5
90E
330
1E
100
AcDbEntity
  8
DIM
100
AcDbDimension
  2
*D36
 10
22.765477
 20
8.19908
 30
0.0
 11
21.679977
 21
8.19908
 31
0.0
 70
    32
 71
     5
 42
2.171000000000002
  3
23NSTDI
100
AcDbAlignedDimension
 13
20.59447699999999
 23
7.753275
 33
0.0
 14
22.765477
 24
7.765774999999999
 34
0.0
100
AcDbRotatedDimension
  0
TEXT
  5
91C
330
1E
100
AcDbEntity
  8
TEXT
100
AcDbText
 10
17.07987100000001
 20
2.996169
 30
0.0
 40
0.27
  1
%%UCOVER
 41
0.75
 72
     1
 11
17.58949600000001
 21
2.996169
 31
0.0
100
AcDbText
  0
TEXT
  5
91D
330
1E
100
AcDbEntity
  8
TEXT
100
AcDbText
 10
4.983076999999999
 20
0.9405610000000001
 30
0.0
 40
0.27
  1
%%UBODY
 41
0.75
 72
     1
 11
5.357701999999999
 21
0.9405610000000001
 31
0.0
100
AcDbText
  0
DIMENSION
  5
91E
330
1E
100
AcDbEntity
  8
DIM
100
AcDbDimension
  2
*D37
 10
3.052792999999999
 20
5.64895
 30
0.0
 11
3.812793
 21
5.64895
 31
0.0
 70
    32
 71
     5
 42
1.52
  3
23NSTDI
100
AcDbAlignedDimension
 13
4.572792999999999
 23
4.831837999999999
 33
0.0
 14
3.052792999999999
 24
4.831837999999999
 34
0.0
100
AcDbRotatedDimension
  0
LWPOLYLINE
  5
92F
102
{ACAD_REACTORS
330
F5C
102
}
330
1E
100
AcDbEntity
  8
BEND
100
AcDbPolyline
 90
       10
 70
     0
 10
15.214153
 20
4.332918
 40
0.0
 41
0.117621
 10
15.449396
 20
4.332918
 40
0.0
 41
0.0
 10
15.71299599999999
 20
4.332918
 40
0.0
 41
0.0
 10
15.71299599999999
 20
6.009866999999999
 40
0.0
 41
0.0
 10
15.403687
 20
6.009866999999999
 40
0.0
 41
0.0
 10
15.403687
 20
7.234275
 40
0.0
 41
0.0
 10
15.403687
 20
7.234275
 40
0.0
 41
0.0
 10
15.403687
 20
8.087317
 40
0.0
 41
0.0
 10
15.14008599999999
 20
8.087317
 40
0.117621
 41
0.0
 10
14.904844
 20
8.087317
 40
0.0
 41
0.0
  0
LWPOLYLINE
  5
93B
102
{ACAD_REACTORS
330
F5C
102
}
330
1E
100
AcDbEntity
  8
OBJECT
100
AcDbPolyline
 90
       24
 70
     1
 43
0.0
 10
15.035746
 20
4.645775
 10
13.71224599999999
 20
4.645775
 42
-0.4142140000000001
 10
13.554246
 20
4.803774999999999
 10
13.554246
 20
4.831837999999999
 42
0.4142140000000001
 10
13.39830899999999
 20
4.987775
 10
13.015246
 20
4.987775
 42
-0.4142140000000001
 10
12.85724599999999
 20
5.145775
 10
12.85724599999999
 20
7.257774999999999
 42
-0.4142140000000001
 10
13.015246
 20
7.415775
 10
13.39830899999999
 20
7.415775
 42
0.4142140000000001
 10
13.554246
 20
7.571713
 10
13.554246
 20
7.599775
 42
-0.4142140000000001
 10
13.71224599999999
 20
7.757774999999999
 10
15.035746
 20
7.757774999999999
 42
-0.4142140000000001
 10
15.19374599999999
 20
7.599775
 10
15.19374599999999
 20
7.571713
 42
0.4142140000000001
 10
15.349684
 20
7.415775
 10
15.732996
 20
7.415775
 42
-0.4142140000000001
 10
15.89099599999999
 20
7.257774999999999
 10
15.89099599999999
 20
5.145775
 42
-0.4142140000000001
 10
15.732996
 20
4.987775
 10
15.349684
 20
4.987775
 42
0.4142140000000001
 10
15.19374599999999
 20
4.831837999999999
 10
15.19374599999999
 20
4.803774999999999
 42
-0.4142140000000001
  0
LWPOLYLINE
  5
955
330
1E
100
AcDbEntity
  8
OBJECT
100
AcDbPolyline
 90
       24
 70
     1
 43
0.0
 10
15.035746
 20
7.637775
 42
-0.4142140000000001
 10
15.073746
 20
7.599775
 10
15.073746
 20
7.571713
 42
0.4142140000000001
 10
15.349684
 20
7.295774999999999
 10
15.732996
 20
7.295774999999999
 42
-0.4142140000000001
 10
15.77099599999999
 20
7.257774999999999
 10
15.77099599999999
 20
5.145775
 42
-0.4142140000000001
 10
15.732996
 20
5.107775
 10
15.349684
 20
5.107775
 42
0.4142140000000001
 10
15.073746
 20
4.831837999999999
 10
15.073746
 20
4.803774999999999
 42
-0.4142140000000001
 10
15.035746
 20
4.765774999999999
 10
13.71224599999999
 20
4.765774999999999
 42
-0.4142140000000001
 10
13.67424599999999
 20
4.803774999999999
 10
13.67424599999999
 20
4.831837999999999
 42
0.4142140000000001
 10
13.39830899999999
 20
5.107775
 10
13.015246
 20
5.107775
 42
-0.4142140000000001
 10
12.977246
 20
5.145775
 10
12.977246
 20
7.257774999999999
 42
-0.4142140000000001
 10
13.015246
 20
7.295774999999999
 10
13.39830899999999
 20
7.295774999999999
 42
0.4142140000000001
 10
13.67424599999999
 20
7.571713
 10
13.67424599999999
 20
7.599775
 42
-0.4142140000000001
 10
13.71224599999999
 20
7.637775
  0
LWPOLYLINE
  5
96F
102
{ACAD_REACTORS
330
F5C
102
}
330
1E
100
AcDbEntity
  8
OBJECT
100
AcDbPolyline
 90
       24
 70
     1
 43
0.0
 10
12.937246
 20
7.257774999999999
 42
-0.4142140000000001
 10
13.015246
 20
7.335774999999999
 10
13.39830899999999
 20
7.335774999999999
 42
0.4142140000000001
 10
13.634246
 20
7.571713
 10
13.634246
 20
7.599775
 42
-0.4142140000000001
 10
13.71224599999999
 20
7.677774999999999
 10
15.035746
 20
7.677774999999999
 42
-0.4142140000000001
 10
15.11374599999999
 20
7.599775
 10
15.11374599999999
 20
7.571713
 42
0.4142140000000001
 10
15.349684
 20
7.335774999999999
 10
15.732996
 20
7.335774999999999
 42
-0.4142140000000001
 10
15.81099599999999
 20
7.257774999999999
 10
15.81099599999999
 20
5.145775
 42
-0.4142140000000001
 10
15.732996
 20
5.067775
 10
15.349684
 20
5.067775
 42
0.4142140000000001
 10
15.11374599999999
 20
4.831837999999999
 10
15.11374599999999
 20
4.803774999999999
 42
-0.4142140000000001
 10
15.035746
 20
4.725774999999999
 10
13.71224599999999
 20
4.725774999999999
 42
-0.4142140000000001
 10
13.634246
 20
4.803774999999999
 10
13.634246
 20
4.831837999999999
 42
0.4142140000000001
 10
13.39830899999999
 20
5.067775
 10
13.015246
 20
5.067775
 42
-0.4142140000000001
 10
12.937246
 20
5.145775
  0
LINE
  5
989
102
{ACAD_REACTORS
330
FFA
102
}
330
1E
100
AcDbEntity
  8
OBJECT
100
AcDbLine
 10
18.262359
 20
4.587774999999999
 30
0.0
 11
18.790859
 21
4.587774999999999
 31
0.0
  0
ARC
  5
98A
102
{ACAD_REACTORS
330
FFA
102
}
330
1E
100
AcDbEntity
  8
OBJECT
100
AcDbCircle
 10
18.790859
 20
4.650274999999999
 30
0.0
 40
0.0625
100
AcDbArc
 50
270.0
 51
0.0
  0
ARC
  5
98B
102
{ACAD_REACTORS
330
FFA
102
}
330
1E
100
AcDbEntity
  8
OBJECT
100
AcDbCircle
 10
18.790859
 20
7.753275
 30
0.0
 40
0.0625
100
AcDbArc
 50
0.0
 51
90.0
  0
LINE
  5
98C
102
{ACAD_REACTORS
330
FFA
102
}
330
1E
100
AcDbEntity
  8
OBJECT
100
AcDbLine
 10
18.262359
 20
7.815775
 30
0.0
 11
18.790859
 21
7.815775
 31
0.0
  0
LINE
  5
98D
102
{ACAD_REACTORS
330
FFA
102
}
330
1E
100
AcDbEntity
  8
OBJECT
100
AcDbLine
 10
18.853359
 20
7.753275
 30
0.0
 11
18.853359
 21
4.650274999999999
 31
0.0
  0
LINE
  5
98E
102
{ACAD_REACTORS
330
FFA
102
}
330
1E
100
AcDbEntity
  8
OBJECT
100
AcDbLine
 10
18.262359
 20
4.909712999999999
 30
0.0
 11
18.733359
 21
4.909713
 31
0.0
  0
LINE
  5
98F
102
{ACAD_REACTORS
330
FFA
102
}
330
1E
100
AcDbEntity
  8
OBJECT
100
AcDbLine
 10
18.262359
 20
4.737837999999999
 30
0.0
 11
18.733359
 21
4.737837999999999
 31
0.0
  0
DIMENSION
  5
990
330
1E
100
AcDbEntity
  8
DIM
100
AcDbDimension
  2
*D38
 10
18.853359
 20
5.973012999999999
 30
0.0
 11
19.762734
 21
5.973012999999999
 31
0.0
 70
    32
  1
0.120
 71
     5
 42
0.120000000000001
  3
23NSTD
100
AcDbAlignedDimension
 13
18.733359
 23
6.024494999999999
 33
0.0
 14
18.853359
 24
6.024494999999999
 34
0.0
100
AcDbRotatedDimension
  0
DIMENSION
  5
99E
330
1E
100
AcDbEntity
  8
DIM
100
AcDbDimension
  2
*D39
 10
18.853359
 20
8.261269999999999
 30
0.0
 11
19.77445275
 21
8.261269999999999
 31
0.0
 70
    32
 71
     5
 42
0.5910000000000011
  3
23NSTD
100
AcDbAlignedDimension
 13
18.262359
 23
7.815775
 33
0.0
 14
18.853359
 24
7.753275
 34
0.0
 50
180.0
100
AcDbRotatedDimension
  0
LINE
  5
9AF
102
{ACAD_REACTORS
330
FFA
102
}
330
1E
100
AcDbEntity
  8
OBJECT
100
AcDbLine
 10
18.733359
 20
4.668775
 30
0.0
 11
18.853359
 21
4.668775
 31
0.0
  0
LINE
  5
9B1
102
{ACAD_REACTORS
330
FFA
102
}
330
1E
100
AcDbEntity
  8
OBJECT
100
AcDbLine
 10
18.733359
 20
4.978774999999999
 30
0.0
 11
18.853359
 21
4.978774999999999
 31
0.0
  0
LINE
  5
9B2
102
{ACAD_REACTORS
330
FFA
102
}
330
1E
100
AcDbEntity
  8
OBJECT
100
AcDbLine
 10
18.733359
 20
7.735775
 30
0.0
 11
18.733359
 21
7.465774999999999
 31
0.0
  0
LINE
  5
9B3
102
{ACAD_REACTORS
330
FFA
102
}
330
1E
100
AcDbEntity
  8
OBJECT
100
AcDbLine
 10
18.733359
 20
7.295774999999999
 30
0.0
 11
18.733359
 21
5.107775
 31
0.0
  0
LINE
  5
9B4
102
{ACAD_REACTORS
330
FFA
102
}
330
1E
100
AcDbEntity
  8
OBJECT
100
AcDbLine
 10
18.262359
 20
5.107775
 30
0.0
 11
18.733359
 21
5.107775
 31
0.0
  0
LINE
  5
9B5
102
{ACAD_REACTORS
330
FFA
102
}
330
1E
100
AcDbEntity
  8
OBJECT
100
AcDbLine
 10
18.262359
 20
7.295774999999999
 30
0.0
 11
18.733359
 21
7.295774999999999
 31
0.0
  0
LINE
  5
9B6
102
{ACAD_REACTORS
330
FFA
102
}
330
1E
100
AcDbEntity
  8
OBJECT
100
AcDbLine
 10
18.262359
 20
7.465774999999999
 30
0.0
 11
18.733359
 21
7.465774999999999
 31
0.0
  0
LINE
  5
9B7
102
{ACAD_REACTORS
330
FFA
102
}
330
1E
100
AcDbEntity
  8
OBJECT
100
AcDbLine
 10
18.262359
 20
7.735775
 30
0.0
 11
18.733359
 21
7.735775
 31
0.0
  0
LINE
  5
9B8
330
1E
100
AcDbEntity
  8
HIDDEN
100
AcDbLine
 10
15.77099599999999
 20
10.139304
 30
0.0
 11
12.976996
 21
10.139304
 31
0.0
  0
LINE
  5
9B9
330
1E
100
AcDbEntity
  8
OBJECT
100
AcDbLine
 10
15.94899599999999
 20
9.668303999999999
 30
0.0
 11
12.798996
 21
9.668303999999999
 31
0.0
  0
LINE
  5
9BA
330
1E
100
AcDbEntity
  8
OBJECT
100
AcDbLine
 10
15.886496
 20
10.259304
 30
0.0
 11
12.861496
 21
10.259304
 31
0.0
  0
LINE
  5
9BB
330
1E
100
AcDbEntity
  8
HIDDEN
100
AcDbLine
 10
13.120934
 20
9.668303999999999
 30
0.0
 11
13.120934
 21
10.139304
 31
0.0
  0
LINE
  5
9BC
330
1E
100
AcDbEntity
  8
HIDDEN
100
AcDbLine
 10
12.949059
 20
9.668303999999999
 30
0.0
 11
12.949059
 21
10.139304
 31
0.0
  0
LINE
  5
9BD
330
1E
100
AcDbEntity
  8
OBJECT
100
AcDbLine
 10
12.798996
 20
9.668303999999999
 30
0.0
 11
12.798996
 21
10.196804
 31
0.0
  0
ARC
  5
9C1
330
1E
100
AcDbEntity
  8
OBJECT
100
AcDbCircle
 10
12.861496
 20
10.196804
 30
0.0
 40
0.0625
100
AcDbArc
 50
90.0
 51
180.0
  0
LINE
  5
9C5
330
1E
100
AcDbEntity
  8
HIDDEN
100
AcDbLine
 10
12.936996
 20
9.783303999999999
 30
0.0
 11
12.856996
 21
9.783303999999999
 31
0.0
  0
LINE
  5
9C6
330
1E
100
AcDbEntity
  8
HIDDEN
100
AcDbLine
 10
12.856996
 20
9.668303999999999
 30
0.0
 11
12.856996
 21
9.783303999999999
 31
0.0
  0
LINE
  5
9C7
330
1E
100
AcDbEntity
  8
HIDDEN
100
AcDbLine
 10
12.976996
 20
9.668303999999999
 30
0.0
 11
12.976996
 21
10.139304
 31
0.0
  0
LINE
  5
9C8
330
1E
100
AcDbEntity
  8
HIDDEN
100
AcDbLine
 10
13.50424599999999
 20
9.668303999999999
 30
0.0
 11
13.50424599999999
 21
10.139304
 31
0.0
  0
LINE
  5
9C9
330
1E
100
AcDbEntity
  8
HIDDEN
100
AcDbLine
 10
13.67424599999999
 20
9.668303999999999
 30
0.0
 11
13.67424599999999
 21
10.139304
 31
0.0
  0
LINE
  5
9CA
330
1E
100
AcDbEntity
  8
HIDDEN
100
AcDbLine
 10
13.634246
 20
9.668303999999999
 30
0.0
 11
13.634246
 21
9.783303999999999
 31
0.0
  0
LINE
  5
9CB
330
1E
100
AcDbEntity
  8
HIDDEN
100
AcDbLine
 10
13.554246
 20
9.668303999999999
 30
0.0
 11
13.554246
 21
9.783303999999999
 31
0.0
  0
LINE
  5
9CC
330
1E
100
AcDbEntity
  8
HIDDEN
100
AcDbLine
 10
12.936996
 20
9.668303999999999
 30
0.0
 11
12.936996
 21
9.783303999999999
 31
0.0
  0
LINE
  5
9CD
330
1E
100
AcDbEntity
  8
HIDDEN
100
AcDbLine
 10
13.634246
 20
9.783303999999999
 30
0.0
 11
13.554246
 21
9.783303999999999
 31
0.0
  0
LINE
  5
9CE
330
1E
100
AcDbEntity
  8
HIDDEN
100
AcDbLine
 10
15.798934
 20
9.668303999999999
 30
0.0
 11
15.798934
 21
10.139304
 31
0.0
  0
LINE
  5
9CF
330
1E
100
AcDbEntity
  8
HIDDEN
100
AcDbLine
 10
15.627059
 20
9.668303999999999
 30
0.0
 11
15.627059
 21
10.139304
 31
0.0
  0
LINE
  5
9D0
330
1E
100
AcDbEntity
  8
OBJECT
100
AcDbLine
 10
15.94899599999999
 20
9.668303999999999
 30
0.0
 11
15.94899599999999
 21
10.196804
 31
0.0
  0
ARC
  5
9D7
330
1E
100
AcDbEntity
  8
OBJECT
100
AcDbCircle
 10
15.886496
 20
10.196804
 30
0.0
 40
0.0625
100
AcDbArc
 50
0.0
 51
90.0
  0
LINE
  5
9D8
330
1E
100
AcDbEntity
  8
HIDDEN
100
AcDbLine
 10
15.81099599999999
 20
9.668303999999999
 30
0.0
 11
15.81099599999999
 21
9.783303999999999
 31
0.0
  0
LINE
  5
9D9
330
1E
100
AcDbEntity
  8
HIDDEN
100
AcDbLine
 10
15.89099599999999
 20
9.668303999999999
 30
0.0
 11
15.89099599999999
 21
9.783303999999999
 31
0.0
  0
LINE
  5
9DA
330
1E
100
AcDbEntity
  8
HIDDEN
100
AcDbLine
 10
15.81099599999999
 20
9.783303999999999
 30
0.0
 11
15.89099599999999
 21
9.783303999999999
 31
0.0
  0
LINE
  5
9DB
330
1E
100
AcDbEntity
  8
HIDDEN
100
AcDbLine
 10
13.187272
 20
9.668303999999999
 30
0.0
 11
13.187272
 21
10.139304
 31
0.0
  0
LINE
  5
9DC
330
1E
100
AcDbEntity
  8
HIDDEN
100
AcDbLine
 10
15.24374599999999
 20
9.668303999999999
 30
0.0
 11
15.24374599999999
 21
10.139304
 31
0.0
  0
LINE
  5
9DD
330
1E
100
AcDbEntity
  8
HIDDEN
100
AcDbLine
 10
15.073746
 20
9.668303999999999
 30
0.0
 11
15.073746
 21
10.139304
 31
0.0
  0
LINE
  5
9DE
330
1E
100
AcDbEntity
  8
HIDDEN
100
AcDbLine
 10
15.11374599999999
 20
9.668303999999999
 30
0.0
 11
15.11374599999999
 21
9.783303999999999
 31
0.0
  0
LINE
  5
9DF
330
1E
100
AcDbEntity
  8
HIDDEN
100
AcDbLine
 10
15.19374599999999
 20
9.668303999999999
 30
0.0
 11
15.19374599999999
 21
9.783303999999999
 31
0.0
  0
LINE
  5
9E0
330
1E
100
AcDbEntity
  8
HIDDEN
100
AcDbLine
 10
15.11374599999999
 20
9.783303999999999
 30
0.0
 11
15.19374599999999
 21
9.783303999999999
 31
0.0
  0
LINE
  5
9E1
330
1E
100
AcDbEntity
  8
HIDDEN
100
AcDbLine
 10
15.56072
 20
9.668303999999999
 30
0.0
 11
15.56072
 21
10.139304
 31
0.0
  0
LINE
  5
9E2
330
1E
100
AcDbEntity
  8
HIDDEN
100
AcDbLine
 10
15.77099599999999
 20
9.668303999999999
 30
0.0
 11
15.77099599999999
 21
10.139304
 31
0.0
  0
DIMENSION
  5
9F3
330
1E
100
AcDbEntity
  8
DIM
100
AcDbDimension
  2
*D40
 10
19.924846
 20
10.24824381248825
 30
0.0
 11
19.01547099999999
 21
10.24824381248825
 31
0.0
 70
    32
 71
     5
 42
0.1200000000000001
  3
23NSTD4
100
AcDbAlignedDimension
 13
20.404846
 23
10.875778
 33
0.0
 14
19.924846
 24
10.94977799999999
 34
0.0
100
AcDbRotatedDimension
  0
DIMENSION
  5
A42
330
1E
100
AcDbEntity
  8
DIM
100
AcDbDimension
  2
*D41
 10
21.175451
 20
12.18224
 30
0.0
 11
21.175451
 21
11.56224
 31
0.0
 70
    32
  1
<> DIA.\PC'BORE
 71
     5
 42
0.31
  3
23NSTD4I
100
AcDbAlignedDimension
 13
20.400341
 23
10.94224
 33
0.0
 14
20.400341
 24
12.18224
 34
0.0
 50
90.0
100
AcDbRotatedDimension
  0
DIMENSION
  5
A50
330
1E
100
AcDbEntity
  8
DIM
100
AcDbDimension
  2
*D42
 10
17.209395
 20
12.359963
 30
0.0
 11
17.20939499999999
 21
12.519963
 31
0.0
 70
    32
 71
     5
 42
0.0800000000000001
  3
23NSTD4I
100
AcDbAlignedDimension
 13
18.04084599999999
 23
12.679963
 33
0.0
 14
18.04084599999999
 24
12.359963
 34
0.0
 50
90.0
100
AcDbRotatedDimension
  0
DIMENSION
  5
A5E
330
1E
100
AcDbEntity
  8
DIM
100
AcDbDimension
  2
*D43
 10
18.04084599999999
 20
14.190047
 30
0.0
 11
17.14318974999999
 21
14.190047
 31
0.0
 70
    32
 71
     5
 42
0.1150000000000002
  3
23NSTD4
100
AcDbAlignedDimension
 13
18.50084599999999
 23
12.679963
 33
0.0
 14
18.04084599999999
 24
13.620643
 34
0.0
100
AcDbRotatedDimension
  0
DIMENSION
  5
A6C
330
1E
100
AcDbEntity
  8
DIM
100
AcDbDimension
  2
*D44
 10
16.786975
 20
11.22602799999999
 30
0.0
 11
16.78697499999999
 21
11.569778
 31
0.0
 70
    32
  1
<> DIA.
 71
     5
 42
0.171875
  3
23NSTD4I
100
AcDbAlignedDimension
 13
18.039926
 23
11.91352799999999
 33
0.0
 14
18.039926
 24
11.22602799999999
 34
0.0
 50
90.0
100
AcDbRotatedDimension
  0
LINE
  5
A81
102
{ACAD_REACTORS
330
109B
102
}
330
1E
100
AcDbEntity
  8
OBJECT
100
AcDbLine
 10
18.04084599999999
 20
12.845953
 30
0.0
 11
20.004846
 21
12.845953
 31
0.0
  0
LINE
  5
A82
102
{ACAD_REACTORS
330
109B
102
}
330
1E
100
AcDbEntity
  8
OBJECT
100
AcDbLine
 10
18.04084599999999
 20
10.625778
 30
0.0
 11
20.154846
 21
10.625778
 31
0.0
  0
LINE
  5
A83
102
{ACAD_REACTORS
330
109B
102
}
330
1E
100
AcDbEntity
  8
OBJECT
100
AcDbLine
 10
18.04084599999999
 20
11.91352799999999
 30
0.0
 11
19.924846
 21
11.91352799999999
 31
0.0
  0
LINE
  5
A84
102
{ACAD_REACTORS
330
109B
102
}
330
1E
100
AcDbEntity
  8
OBJECT
100
AcDbLine
 10
18.04084599999999
 20
11.22602799999999
 30
0.0
 11
19.924846
 21
11.22602799999999
 31
0.0
  0
LINE
  5
A85
102
{ACAD_REACTORS
330
F7D
330
109B
102
}
330
1E
100
AcDbEntity
  8
OBJECT
100
AcDbLine
 10
18.04084599999999
 20
10.625778
 30
0.0
 11
18.04084599999999
 21
13.620643
 31
0.0
  0
LINE
  5
A86
102
{ACAD_REACTORS
330
109B
102
}
330
1E
100
AcDbEntity
  8
OBJECT
100
AcDbLine
 10
20.004846
 20
12.845953
 30
0.0
 11
20.004846
 21
13.57376628834449
 31
0.0
  0
LINE
  5
A87
102
{ACAD_REACTORS
330
109B
102
}
330
1E
100
AcDbEntity
  8
OBJECT
100
AcDbLine
 10
20.404846
 20
10.875778
 30
0.0
 11
20.404846
 21
13.64667696457496
 31
0.0
  0
LINE
  5
A8C
102
{ACAD_REACTORS
330
109B
102
}
330
1E
100
AcDbEntity
  8
OBJECT
100
AcDbLine
 10
19.924846
 20
10.94977799999999
 30
0.0
 11
20.404846
 21
10.949778
 31
0.0
  0
ARC
  5
A8D
102
{ACAD_REACTORS
330
109B
102
}
330
1E
100
AcDbEntity
  8
OBJECT
100
AcDbCircle
 10
20.154846
 20
10.875778
 30
0.0
 40
0.25
100
AcDbArc
 50
270.0
 51
0.0
  0
LINE
  5
A8E
102
{ACAD_REACTORS
330
109B
102
}
330
1E
100
AcDbEntity
  8
OBJECT
100
AcDbLine
 10
19.924846
 20
12.189778
 30
0.0
 11
20.404846
 21
12.189778
 31
0.0
  0
LINE
  5
AAB
102
{ACAD_REACTORS
330
F67
330
F72
330
FFA
102
}
330
1E
100
AcDbEntity
  8
OBJECT
100
AcDbLine
 10
18.262359
 20
7.815775
 30
0.0
 11
18.262359
 21
4.587774999999999
 31
0.0
  0
TEXT
  5
AC3
330
1E
100
AcDbEntity
  8
TEXT
100
AcDbText
 10
13.70762616228751
 20
14.98783975
 30
0.0
 40
0.234375
  1
PN-1331, PN-1331-C AND PN-1331-DG
 41
0.75
 72
     4
 11
16.35899334978751
 21
15.085496
 31
0.0
100
AcDbText
  0
LINE
  5
AC4
330
1E
100
AcDbEntity
  8
TITLE
100
AcDbLine
 10
21.80700100000001
 20
1.653000000000001
 30
0.0
 11
21.80700100000001
 21
0.0930000000000018
 31
0.0
  0
LINE
  5
AC5
330
1E
100
AcDbEntity
  8
TITLE
100
AcDbLine
 10
18.80700200000001
 20
1.653000000000001
 30
0.0
 11
18.80700200000001
 21
0.0930000000000018
 31
0.0
  0
LINE
  5
AC6
330
1E
100
AcDbEntity
  8
TITLE
100
AcDbLine
 10
15.80700200000001
 20
1.653000000000001
 30
0.0
 11
15.80700200000001
 21
0.0930000000000018
 31
0.0
  0
LINE
  5
AC7
330
1E
100
AcDbEntity
  8
TITLE
100
AcDbLine
 10
12.80700300000001
 20
1.653000000000001
 30
0.0
 11
12.80700300000001
 21
0.0930000000000018
 31
0.0
  0
LINE
  5
AC8
330
1E
100
AcDbEntity
  8
TITLE
100
AcDbLine
 10
20.30700100000002
 20
0.7170000000000019
 30
0.0
 11
20.30700100000002
 21
0.4050000000000019
 31
0.0
  0
LINE
  5
ACA
330
1E
100
AcDbEntity
  8
TITLE
100
AcDbLine
 10
12.80700300000001
 20
0.4050000000000019
 30
0.0
 11
21.80700100000001
 21
0.4050000000000019
 31
0.0
  0
LINE
  5
ACB
330
1E
100
AcDbEntity
  8
TITLE
100
AcDbLine
 10
12.80700300000001
 20
0.7170000000000019
 30
0.0
 11
21.80700100000001
 21
0.7170000000000019
 31
0.0
  0
LINE
  5
ACC
330
1E
100
AcDbEntity
  8
TITLE
100
AcDbLine
 10
12.80700300000001
 20
1.029000000000001
 30
0.0
 11
24.80700000000001
 21
1.029000000000001
 31
0.0
  0
LINE
  5
ACD
330
1E
100
AcDbEntity
  8
TITLE
100
AcDbLine
 10
12.80700300000001
 20
1.653000000000001
 30
0.0
 11
24.80700000000001
 21
1.653000000000001
 31
0.0
  0
TEXT
  5
ACE
330
1E
100
AcDbEntity
  8
TEXT
100
AcDbText
 10
13.55700300000001
 20
1.247250000000001
 30
0.0
 40
0.1875
  1
PART NUMBER
 41
0.75
 72
     4
 11
14.30700300000001
 21
1.341000000000001
 31
0.0
100
AcDbText
  0
TEXT
  5
AD0
330
1E
100
AcDbEntity
  8
TEXT
100
AcDbText
 10
13.88512800000001
 20
0.7782500000000019
 30
0.0
 40
0.1875
  1
PN-1331
 41
0.75
 72
     4
 11
14.30700300000001
 21
0.8720000000000018
 31
0.0
100
AcDbText
  0
TEXT
  5
AD1
330
1E
100
AcDbEntity
  8
TEXT
100
AcDbText
 10
13.74450300000001
 20
0.4657500000000017
 30
0.0
 40
0.1875
  1
PN-1331-C
 41
0.75
 72
     4
 11
14.30700300000001
 21
0.5595000000000017
 31
0.0
100
AcDbText
  0
TEXT
  5
AD2
330
1E
100
AcDbEntity
  8
TEXT
100
AcDbText
 10
13.67419050000001
 20
0.1532500000000017
 30
0.0
 40
0.1875
  1
PN-1331-DG
 41
0.75
 72
     4
 11
14.30700300000001
 21
0.2470000000000017
 31
0.0
100
AcDbText
  0
TEXT
  5
AD3
330
1E
100
AcDbEntity
  8
TEXT
100
AcDbText
 10
22.48668850000001
 20
1.247250000000001
 30
0.0
 40
0.1875
  1
HARDWARE KIT
 41
0.75
 72
     4
 11
23.30700100000001
 21
1.341000000000001
 31
0.0
100
AcDbText
  0
TEXT
  5
AD5
330
1E
100
AcDbEntity
  8
TEXT
100
AcDbText
 10
16.79137700000001
 20
1.403250000000001
 30
0.0
 40
0.1875
  1
MATERIAL
 41
0.75
 72
     4
 11
17.30700200000001
 21
1.497000000000001
 31
0.0
100
AcDbText
  0
TEXT
  5
AD6
330
1E
100
AcDbEntity
  8
TEXT
100
AcDbText
 10
19.95543850000001
 20
1.403250000000001
 30
0.0
 40
0.1875
  1
FINISH
 41
0.75
 72
     4
 11
20.30700100000002
 21
1.497000000000001
 31
0.0
100
AcDbText
  0
TEXT
  5
AD7
330
1E
100
AcDbEntity
  8
TEXT
100
AcDbText
 10
19.29918950000001
 20
1.091250000000001
 30
0.0
 40
0.1875
  1
BODY
 41
0.75
 72
     4
 11
19.55700200000001
 21
1.185000000000001
 31
0.0
100
AcDbText
  0
TEXT
  5
AD8
330
1E
100
AcDbEntity
  8
TEXT
100
AcDbText
 10
16.41637700000001
 20
0.7787500000000019
 30
0.0
 40
0.1875
  1
POLYCARBONATE
 41
0.75
 72
     4
 11
17.30700200000001
 21
0.8725000000000019
 31
0.0
100
AcDbText
  0
TEXT
  5
AD9
330
1E
100
AcDbEntity
  8
TEXT
100
AcDbText
 10
16.41637700000001
 20
0.4662500000000019
 30
0.0
 40
0.1875
  1
POLYCARBONATE
 41
0.75
 72
     4
 11
17.30700200000001
 21
0.5600000000000019
 31
0.0
100
AcDbText
  0
TEXT
  5
ADA
330
1E
100
AcDbEntity
  8
TEXT
100
AcDbText
 10
16.32262700000001
 20
0.1537500000000018
 30
0.0
 40
0.1875
  1
HIGH-IMPACT ABS
 41
0.75
 72
     4
 11
17.30700200000001
 21
0.2475000000000018
 31
0.0
100
AcDbText
  0
TEXT
  5
ADB
330
1E
100
AcDbEntity
  8
TEXT
100
AcDbText
 10
20.70543850000001
 20
1.091250000000001
 30
0.0
 40
0.1875
  1
COVER
 41
0.75
 72
     4
 11
21.05700100000001
 21
1.185000000000001
 31
0.0
100
AcDbText
  0
TEXT
  5
ADC
330
1E
100
AcDbEntity
  8
TEXT
100
AcDbText
 10
17.70543950000001
 20
1.091250000000001
 30
0.0
 40
0.1875
  1
COVER
 41
0.75
 72
     4
 11
18.05700200000001
 21
1.185000000000001
 31
0.0
100
AcDbText
  0
TEXT
  5
ADD
330
1E
100
AcDbEntity
  8
TEXT
100
AcDbText
 10
16.29918950000001
 20
1.091250000000001
 30
0.0
 40
0.1875
  1
BODY
 41
0.75
 72
     4
 11
16.55700200000001
 21
1.185000000000001
 31
0.0
100
AcDbText
  0
TEXT
  5
ADE
330
1E
100
AcDbEntity
  8
TEXT
100
AcDbText
 10
19.65075100000001
 20
0.7787500000000019
 30
0.0
 40
0.1875
  1
LIGHT GRAY
 41
0.75
 72
     4
 11
20.30700100000002
 21
0.8725000000000019
 31
0.0
100
AcDbText
  0
TEXT
  5
ADF
330
1E
100
AcDbEntity
  8
TEXT
100
AcDbText
 10
18.90075200000001
 20
0.4662500000000019
 30
0.0
 40
0.1875
  1
LIGHT GRAY
 41
0.75
 72
     4
 11
19.55700200000001
 21
0.5600000000000019
 31
0.0
100
AcDbText
  0
TEXT
  5
AE0
330
1E
100
AcDbEntity
  8
TEXT
100
AcDbText
 10
19.69762600000001
 20
0.1537500000000018
 30
0.0
 40
0.1875
  1
DARK GRAY
 41
0.75
 72
     4
 11
20.30700100000002
 21
0.2475000000000018
 31
0.0
100
AcDbText
  0
TEXT
  5
AE1
330
1E
100
AcDbEntity
  8
TEXT
100
AcDbText
 10
20.72887600000001
 20
0.4662500000000019
 30
0.0
 40
0.1875
  1
CLEAR
 41
0.75
 72
     4
 11
21.05700100000001
 21
0.5600000000000019
 31
0.0
100
AcDbText
  0
LINE
  5
AE2
330
1E
100
AcDbEntity
  8
TITLE
100
AcDbLine
 10
20.30700100000002
 20
1.341000000000001
 30
0.0
 11
20.30700100000002
 21
1.029000000000001
 31
0.0
  0
LINE
  5
AE3
330
1E
100
AcDbEntity
  8
TITLE
100
AcDbLine
 10
15.80700200000001
 20
1.341000000000001
 30
0.0
 11
21.80700100000001
 21
1.341000000000001
 31
0.0
  0
LINE
  5
AE4
330
1E
100
AcDbEntity
  8
TITLE
100
AcDbLine
 10
17.30700200000001
 20
1.341000000000001
 30
0.0
 11
17.30700200000001
 21
1.029000000000001
 31
0.0
  0
TEXT
  5
AE5
330
1E
100
AcDbEntity
  8
TEXT
100
AcDbText
 10
22.29918850000002
 20
0.7787500000000019
 30
0.0
 40
0.1875
  1
KIT CONTAINS (4)
 41
0.75
 72
     4
 11
23.30700100000001
 21
0.8725000000000019
 31
0.0
100
AcDbText
  0
TEXT
  5
AE6
330
1E
100
AcDbEntity
  8
TEXT
100
AcDbText
 10
21.97106350000001
 20
0.4662500000000019
 30
0.0
 40
0.1875
  1
M4 x 20mm (0.787") LG.
 41
0.75
 72
     4
 11
23.30700100000001
 21
0.5600000000000019
 31
0.0
100
AcDbText
  0
TEXT
  5
AE7
330
1E
100
AcDbEntity
  8
TEXT
100
AcDbText
 10
21.97106350000001
 20
0.1537500000000018
 30
0.0
 40
0.1875
  1
SCREWS FOR ASSEMBLY
 41
0.75
 72
     4
 11
23.30700100000001
 21
0.2475000000000018
 31
0.0
100
AcDbText
  0
TEXT
  5
AE8
330
1E
100
AcDbEntity
  8
TEXT
100
AcDbText
 10
12.80700300000001
 20
1.807500000000001
 30
0.0
 40
0.1875
  1
%%UNOTE%%U:  ALL DIMENSIONS HAVE %%P0.015 TOLERANCE UNLESS OTHERWISE SPECIFIED.
 41
0.75
100
AcDbText
  0
LWPOLYLINE
  5
AEA
102
{ACAD_REACTORS
330
F7D
330
109B
102
}
330
1E
100
AcDbEntity
  8
OBJECT
100
AcDbPolyline
 90
        3
 70
     0
 43
0.0
 10
18.50084599999999
 20
12.679963
 10
18.50084599999999
 20
12.359963
 10
18.04084599999999
 20
12.359963
  0
LWPOLYLINE
  5
AEF
102
{ACAD_REACTORS
330
F7D
330
109B
102
}
330
1E
100
AcDbEntity
  8
OBJECT
100
AcDbPolyline
 90
        2
 70
     0
 43
0.0
 10
18.04084599999999
 20
12.679963
 10
18.50084599999999
 20
12.679963
  0
LWPOLYLINE
  5
AF4
102
{ACAD_REACTORS
330
F72
330
FFA
102
}
330
1E
100
AcDbEntity
  8
OBJECT
100
AcDbPolyline
 90
        3
 70
     0
 43
0.0
 10
18.377359
 20
7.420096
 10
18.377359
 20
7.340096
 10
18.262359
 20
7.340096
  0
LWPOLYLINE
  5
AF9
102
{ACAD_REACTORS
330
F72
330
FFA
102
}
330
1E
100
AcDbEntity
  8
OBJECT
100
AcDbPolyline
 90
        2
 70
     0
 43
0.0
 10
18.262359
 20
7.420096
 10
18.377359
 20
7.420096
  0
LWPOLYLINE
  5
AFD
102
{ACAD_REACTORS
330
F67
330
FFA
102
}
330
1E
100
AcDbEntity
  8
OBJECT
100
AcDbPolyline
 90
        3
 70
     0
 43
0.0
 10
18.377359
 20
5.072096
 10
18.377359
 20
4.992096
 10
18.262359
 20
4.992096
  0
LWPOLYLINE
  5
B02
102
{ACAD_REACTORS
330
F67
330
FFA
102
}
330
1E
100
AcDbEntity
  8
OBJECT
100
AcDbPolyline
 90
        2
 70
     0
 43
0.0
 10
18.262359
 20
5.072096
 10
18.377359
 20
5.072096
  0
TEXT
  5
B0C
330
1E
100
AcDbEntity
  8
TEXT
100
AcDbText
 10
0.401701
 20
13.936431
 30
0.0
 40
0.1875
  1
 %%UPOLYCARBONATE%%U (LIGHT GRAY AND CLEAR)
 41
0.75
100
AcDbText
  0
TEXT
  5
B0D
330
1E
100
AcDbEntity
  8
TEXT
100
AcDbText
 10
0.401701
 20
12.686431
 30
0.0
 40
0.1875
  1
 %%UABS%%U (DARK GRAY)
 41
0.75
100
AcDbText
  0
TEXT
  5
B0E
330
1E
100
AcDbEntity
  8
TEXT
100
AcDbText
 10
0.401701
 20
12.061431
 30
0.0
 40
0.1875
  1
  SERVICE TEMPERATURE RANGE: -40%%DC TO +80%%DC
 41
0.75
100
AcDbText
  0
TEXT
  5
B0F
330
1E
100
AcDbEntity
  8
TEXT
100
AcDbText
 10
0.401701
 20
12.373931
 30
0.0
 40
0.1875
  1
  UL94-HB FLAMMABILITY RATING (UL FILE #E56070)
 41
0.75
100
AcDbText
  0
TEXT
  5
B10
330
1E
100
AcDbEntity
  8
TEXT
100
AcDbText
 10
0.401701
 20
11.436431
 30
0.0
 40
0.1875
  1

 41
0.75
100
AcDbText
  0
TEXT
  5
B11
330
1E
100
AcDbEntity
  8
TEXT
100
AcDbText
 10
0.401701
 20
12.373931
 30
0.0
 40
0.1875
  1

 41
0.75
100
AcDbText
  0
TEXT
  5
B12
330
1E
100
AcDbEntity
  8
TEXT
100
AcDbText
 10
0.401701
 20
10.811431
 30
0.0
 40
0.1875
  1

 41
0.75
100
AcDbText
  0
TEXT
  5
B13
330
1E
100
AcDbEntity
  8
TEXT
100
AcDbText
 10
0.401701
 20
14.248931
 30
0.0
 40
0.234375
  1
INDUSTRY STANDARDS:
 41
0.75
100
AcDbText
  0
TEXT
  5
B14
330
1E
100
AcDbEntity
  8
TEXT
100
AcDbText
 10
0.401701
 20
12.998931
 30
0.0
 40
0.1875
  1
  SERVICE TEMPERATURE RANGE: -40%%DC TO +120%%DC
 41
0.75
100
AcDbText
  0
TEXT
  5
B15
330
1E
100
AcDbEntity
  8
TEXT
100
AcDbText
 10
0.401701
 20
13.311431
 30
0.0
 40
0.1875
  1
  UV STABILIZED
 41
0.75
100
AcDbText
  0
TEXT
  5
B16
330
1E
100
AcDbEntity
  8
TEXT
100
AcDbText
 10
0.401701
 20
13.623931
 30
0.0
 40
0.1875
  1
  UL94-HB FLAMMABILITY RATING (UL FILE #E41613)
 41
0.75
100
AcDbText
  0
TEXT
  5
B17
330
1E
100
AcDbEntity
  8
TEXT
100
AcDbText
 10
0.401701
 20
13.311431
 30
0.0
 40
0.1875
  1

 41
0.75
100
AcDbText
  0
TEXT
  5
F12
330
1E
100
AcDbEntity
  8
TEXT
100
AcDbText
 10
4.394156250000008
 20
14.9683125
 30
0.0
 40
0.234375
  1
NEMA 4X ENCLOSURE
 41
0.75
 72
     4
 11
5.859000000000008
 21
15.0855
 31
0.0
100
AcDbText
  0
TEXT
  5
F14
330
1E
100
AcDbEntity
  8
TEXT
100
AcDbText
 10
22.94120428728751
 20
14.96831250000001
 30
0.0
 40
0.234375
  1
11-17-08
 41
0.75
 72
     4
 11
23.51249334978751
 21
15.08550000000001
 31
0.0
100
AcDbText
  0
HATCH
  5
F5C
330
1E
100
AcDbEntity
  8
OBJECT
 62
   221
100
AcDbHatch
 10
0.0
 20
0.0
 30
0.0
210
0.0
220
0.0
230
1.0
  2
ZIGZAG
 70
     0
 71
     1
 91
        2
 92
        7
 72
     1
 73
     1
 93
       44
 10
13.71224594172813
 20
4.725774999999999
 42
-0.4142135623730157
 10
13.634246
 20
4.803774941728157
 42
0.0
 10
13.634246
 20
4.831838176262676
 42
0.4142135623730138
 10
13.39830917626261
 20
5.067775
 42
0.0
 10
13.01524594172813
 20
5.067775
 42
-0.4142135623730091
 10
12.937246
 20
5.145774941728157
 42
0.0
 10
12.937246
 20
7.257775058271863
 42
-0.4142135623730091
 10
13.01524594172815
 20
7.335774999999999
 42
0.0
 10
13.39830867626342
 20
7.335774999999999
 42
0.4142135623718913
 10
13.634246
 20
7.571712323737544
 42
0.0
 10
13.634246
 20
7.599775058271864
 42
-0.4142135623730122
 10
13.71224594172815
 20
7.677774999999999
 42
0.0
 10
15.03574605827186
 20
7.677774999999999
 42
-0.4142135623730158
 10
15.11374599999999
 20
7.599775058271842
 42
0.0
 10
15.11374599999999
 20
7.571712823736575
 42
0.4142135623730119
 10
15.34968382373664
 20
7.335774999999999
 42
0.0
 10
15.403687
 20
7.335774999999999
 42
0.0
 10
15.40368699999999
 20
7.415775
 42
0.0
 10
15.34968388350259
 20
7.415775
 42
-0.414213562373015
 10
15.19374599999999
 20
7.571712883502634
 42
0.0
 10
15.19374599999999
 20
7.599775118037879
 42
0.4142135623730122
 10
15.03574611803783
 20
7.757774999999999
 42
0.0
 10
13.71224588196212
 20
7.757774999999999
 42
0.4142135623730154
 10
13.554246
 20
7.599775118037834
 42
0.0
 10
13.554246
 20
7.571712383503337
 42
-0.4142135623722108
 10
13.39830861649619
 20
7.415775
 42
0.0
 10
13.01524588196212
 20
7.415775
 42
0.4142135623730122
 10
12.85724599999999
 20
7.257775118037834
 42
0.0
 10
12.85724599999999
 20
5.145774881962122
 42
0.4142135623730138
 10
13.01524588196216
 20
4.987775
 42
0.0
 10
13.39830911649666
 20
4.987775
 42
-0.4142135623730147
 10
13.554246
 20
4.831838116496619
 42
0.0
 10
13.554246
 20
4.80377488196212
 42
0.4142135623730154
 10
13.71224588196216
 20
4.645775
 42
0.0
 10
15.03574611803788
 20
4.645775
 42
0.4142135623730105
 10
15.19374599999999
 20
4.803774881962164
 42
0.0
 10
15.19374599999999
 20
4.831837616497409
 42
-0.414213562370806
 10
15.3496833835038
 20
4.987775
 42
0.0
 10
15.71299599999999
 20
4.987775
 42
0.0
 10
15.712996
 20
5.067775
 42
0.0
 10
15.34968332373732
 20
5.067775
 42
0.4142135623728197
 10
15.11374599999999
 20
4.831837676262454
 42
0.0
 10
15.11374599999999
 20
4.803774941728135
 42
-0.4142135623730124
 10
15.03574605827184
 20
4.725774999999999
 42
0.0
 97
        3
330
93B
330
92F
330
96F
 92
        7
 72
     1
 73
     1
 93
       12
 10
15.81099599999999
 20
5.145774941728135
 42
-0.4142135623730124
 10
15.73299605827184
 20
5.067775
 42
0.0
 10
15.71299599999999
 20
5.067775
 42
0.0
 10
15.71299599999999
 20
4.987775
 42
0.0
 10
15.73299611803788
 20
4.987775
 42
0.4142135623730105
 10
15.89099599999999
 20
5.145774881962164
 42
0.0
 10
15.89099599999999
 20
7.257775118037878
 42
0.4142135623730121
 10
15.73299611803783
 20
7.415775
 42
0.0
 10
15.403687
 20
7.415775
 42
0.0
 10
15.40368699999999
 20
7.335774999999999
 42
0.0
 10
15.73299605827186
 20
7.335774999999999
 42
-0.4142135623730124
 10
15.81099599999999
 20
7.257775058271842
 42
0.0
 97
        3
330
93B
330
92F
330
96F
 75
     0
 76
     1
 52
0.0
 41
0.375
 77
     0
 78
     2
 53
0.0
 43
0.0
 44
0.0
 45
0.046875
 46
0.046875
 79
     2
 49
0.046875
 49
-0.046875
 53
90.0
 43
0.046875
 44
0.0
 45
-0.046875
 46
0.046875
 79
     2
 49
0.046875
 49
-0.046875
 47
0.0070024020413499
 98
        2
 10
14.61606724793384
 20
4.692788452743847
 10
15.8494864255045
 20
6.555427426027264
  0
HATCH
  5
F67
330
1E
100
AcDbEntity
  8
OBJECT
 62
   221
100
AcDbHatch
 10
0.0
 20
0.0
 30
0.0
210
0.0
220
0.0
230
1.0
  2
ZIGZAG
 70
     0
 71
     1
 91
        1
 92
        7
 72
     0
 73
     1
 93
        4
 10
18.262359
 20
5.072096
 10
18.262359
 20
4.992096
 10
18.377359
 20
4.992096
 10
18.377359
 20
5.072096
 97
        3
330
B02
330
AAB
330
AFD
 75
     0
 76
     1
 52
0.0
 41
0.375
 77
     0
 78
     2
 53
0.0
 43
0.0
 44
0.0
 45
0.046875
 46
0.046875
 79
     2
 49
0.046875
 49
-0.046875
 53
90.0
 43
0.046875
 44
0.0
 45
-0.046875
 46
0.046875
 79
     2
 49
0.046875
 49
-0.046875
 47
0.0057032326655
 98
        1
 10
18.31366467305005
 20
5.035151835723688
  0
HATCH
  5
F72
330
1E
100
AcDbEntity
  8
OBJECT
 62
   221
100
AcDbHatch
 10
0.0
 20
0.0
 30
0.0
210
0.0
220
0.0
230
1.0
  2
ZIGZAG
 70
     0
 71
     1
 91
        1
 92
        7
 72
     0
 73
     1
 93
        4
 10
18.262359
 20
7.420096000000001
 10
18.262359
 20
7.340095999999999
 10
18.377359
 20
7.340095999999999
 10
18.377359
 20
7.420096
 97
        3
330
AF9
330
AAB
330
AF4
 75
     0
 76
     1
 52
0.0
 41
0.375
 77
     0
 78
     2
 53
0.0
 43
0.0
 44
0.0
 45
0.046875
 46
0.046875
 79
     2
 49
0.046875
 49
-0.046875
 53
90.0
 43
0.046875
 44
0.0
 45
-0.046875
 46
0.046875
 79
     2
 49
0.046875
 49
-0.046875
 47
0.0057032326655
 98
        1
 10
18.31937256090435
 20
7.384883724269933
  0
HATCH
  5
F7D
330
1E
100
AcDbEntity
  8
OBJECT
 62
   221
100
AcDbHatch
 10
0.0
 20
0.0
 30
0.0
210
0.0
220
0.0
230
1.0
  2
ZIGZAG
 70
     0
 71
     1
 91
        1
 92
        7
 72
     0
 73
     1
 93
        4
 10
18.04084599999999
 20
12.679963
 10
18.04084599999999
 20
12.359963
 10
18.50084599999999
 20
12.359963
 10
18.50084599999999
 20
12.679963
 97
        3
330
AEF
330
A85
330
AEA
 75
     0
 76
     1
 52
0.0
 41
0.75
 77
     0
 78
     2
 53
0.0
 43
0.0
 44
0.0
 45
0.09375
 46
0.09375
 79
     2
 49
0.09375
 49
-0.09375
 53
90.0
 43
0.09375
 44
0.0
 45
-0.09375
 46
0.09375
 79
     2
 49
0.09375
 49
-0.09375
 47
0.0057032326655
 98
        1
 10
18.26904625039638
 20
12.53355565366522
  0
HATCH
  5
F87
330
1E
100
AcDbEntity
  8
OBJECT
 62
   221
100
AcDbHatch
 10
0.0
 20
0.0
 30
0.0
210
0.0
220
0.0
230
1.0
  2
ANSI32
 70
     0
 71
     1
 91
        2
 92
        7
 72
     0
 73
     1
 93
        4
 10
8.698325999999999
 20
4.759025
 10
8.698325999999999
 20
4.696525
 10
9.013325999999999
 20
4.696525
 10
9.013326000000001
 20
4.759025
 97
        4
330
7A6
330
797
330
7A5
330
7A2
 92
        7
 72
     0
 73
     1
 93
        4
 10
9.013325999999999
 20
4.884025
 10
9.013325999999997
 20
4.946525
 10
8.698325999999998
 20
4.946525
 10
8.698325999999998
 20
4.884025
 97
        4
330
7A9
330
797
330
7A8
330
7A2
 75
     0
 76
     1
 52
89.99998127603165
 41
0.25
 77
     0
 78
     2
 53
134.9999812760316
 43
0.0
 44
0.0
 45
-0.066291282399881
 46
-0.0662912390725896
 79
     0
 53
134.9999812760316
 43
0.0000000144424304
 44
0.0441941737499977
 45
-0.066291282399881
 46
-0.0662912390725896
 79
     0
 47
0.0017191726510992
 98
        2
 10
8.84340398696915
 20
4.730764190394786
 10
8.807272146880194
 20
4.906119781300446
  0
HATCH
  5
F91
330
1E
100
AcDbEntity
  8
OBJECT
 62
   221
100
AcDbHatch
 10
0.0
 20
0.0
 30
0.0
210
0.0
220
0.0
230
1.0
  2
ANSI32
 70
     0
 71
     0
 91
        2
 92
        7
 72
     0
 73
     1
 93
        4
 10
10.08332599999999
 20
7.151525
 10
9.865325999999999
 20
7.151525
 10
9.865325999999997
 20
7.120274999999999
 10
10.08332599999999
 20
7.120275
 97
        0
 92
        7
 72
     0
 73
     1
 93
        4
 10
10.08332599999999
 20
6.995275
 10
9.865325999999999
 20
6.995275
 10
9.865325999999997
 20
6.964025
 10
10.08332599999999
 20
6.964025
 97
        0
 75
     0
 76
     1
 52
89.99998127603165
 41
0.25
 77
     0
 78
     2
 53
134.9999812760316
 43
0.0
 44
0.0
 45
-0.066291282399881
 46
-0.0662912390725896
 79
     0
 53
134.9999812760316
 43
0.0000000144424304
 44
0.0441941737499977
 45
-0.066291282399881
 46
-0.0662912390725896
 79
     0
 47
0.0009783137684828
 98
        2
 10
9.900337947981725
 20
7.130966747201107
 10
9.930690182851321
 20
6.980306397101713
  0
LINE
  5
FCB
102
{ACAD_REACTORS
330
FFA
102
}
330
1E
100
AcDbEntity
  8
OBJECT
100
AcDbLine
 10
18.733359
 20
4.978774999999999
 30
0.0
 11
18.733359
 21
4.668775
 31
0.0
  0
HATCH
  5
FFA
330
1E
100
AcDbEntity
  8
OBJECT
 62
   151
100
AcDbHatch
 10
0.0
 20
0.0
 30
0.0
210
0.0
220
0.0
230
1.0
  2
ANSI31
 70
     0
 71
     1
 91
        3
 92
        7
 72
     1
 73
     1
 93
       15
 10
18.73335899999999
 20
7.735775
 42
0.0
 10
18.733359
 20
7.465775
 42
0.0
 10
18.262359
 20
7.465775
 42
0.0
 10
18.262359
 20
7.420096
 42
0.0
 10
18.377359
 20
7.420096
 42
0.0
 10
18.37735899999999
 20
7.340096
 42
0.0
 10
18.262359
 20
7.340095999999999
 42
0.0
 10
18.262359
 20
7.295774999999999
 42
0.0
 10
18.733359
 20
7.295775
 42
0.0
 10
18.733359
 20
5.441947715820552
 42
-0.0554106720786034
 10
18.853359
 20
5.379267543100834
 42
0.0
 10
18.853359
 20
7.753275
 42
0.4142135623730951
 10
18.790859
 20
7.815775
 42
0.0
 10
18.262359
 20
7.815774999999999
 42
0.0
 10
18.262359
 20
7.735775
 42
0.0
 97
       12
330
98C
330
AAB
330
9B7
330
9B2
330
9B6
330
AF9
330
AF4
330
9B5
330
9B3
330
8B6
330
98D
330
98B
 92
        7
 72
     1
 73
     1
 93
       12
 10
18.262359
 20
5.107775
 42
0.0
 10
18.26235899999999
 20
5.072096
 42
0.0
 10
18.37735899999999
 20
5.072095999999999
 42
0.0
 10
18.377359
 20
4.992096
 42
0.0
 10
18.262359
 20
4.992096
 42
0.0
 10
18.262359
 20
4.909712999999999
 42
0.0
 10
18.733359
 20
4.909712999999999
 42
0.0
 10
18.733359
 20
4.978774999999999
 42
0.0
 10
18.85335899999999
 20
4.978774999999999
 42
0.0
 10
18.85335899999999
 20
5.379267543100836
 42
0.0554106720786016
 10
18.733359
 20
5.441947715820552
 42
0.0
 10
18.733359
 20
5.107775
 42
0.0
 97
       10
330
8B6
330
9B3
330
9B4
330
AAB
330
B02
330
AFD
330
98E
330
FCB
330
9B1
330
98D
 92
        7
 72
     1
 73
     1
 93
        7
 10
18.790859
 20
4.587774999999999
 42
0.4142135623730951
 10
18.853359
 20
4.650274999999999
 42
0.0
 10
18.853359
 20
4.668775
 42
0.0
 10
18.733359
 20
4.668775000000001
 42
0.0
 10
18.733359
 20
4.737837999999999
 42
0.0
 10
18.262359
 20
4.737837999999999
 42
0.0
 10
18.262359
 20
4.587775
 42
0.0
 97
        7
330
98D
330
9AF
330
FCB
330
98F
330
AAB
330
989
330
98A
 75
     0
 76
     1
 52
0.0
 41
0.625
 77
     0
 78
     1
 53
45.0
 43
0.0
 44
0.0
 45
-0.055242717280199
 46
0.055242717280199
 79
     0
 47
0.0083472342068998
 98
        3
 10
18.5338068175763
 20
7.772338229923732
 10
18.58393069065525
 20
5.042792651402159
 10
18.52545278332821
 20
4.625430932708106
  0
LINE
  5
FFB
102
{ACAD_REACTORS
330
109B
102
}
330
1E
100
AcDbEntity
  8
OBJECT
100
AcDbLine
 10
19.924846
 20
10.94977799999999
 30
0.0
 11
19.924846
 21
12.189778
 31
0.0
  0
SPLINE
  5
107F
102
{ACAD_REACTORS
330
109B
102
}
330
1E
100
AcDbEntity
  8
OBJECT
100
AcDbSpline
210
0.0
220
0.0
230
1.0
 70
     8
 71
     3
 72
    12
 73
     8
 74
     0
 42
0.0000000001
 43
0.0000000001
 40
0.0
 40
0.0
 40
0.0
 40
0.0
 40
0.5909269825078372
 40
1.008581959747528
 40
1.592398464414073
 40
2.183094479650121
 40
2.459281636834975
 40
2.459281636834975
 40
2.459281636834975
 40
2.459281636834975
 10
18.04084599999999
 20
13.620643
 30
0.0
 10
18.2372460414412
 20
13.71381369326368
 30
0.0
 10
18.57245757273836
 20
13.87283550676105
 30
0.0
 10
19.04062854358038
 20
13.44694978880807
 30
0.0
 10
19.57695311279962
 20
13.87855119181909
 30
0.0
 10
20.03387761462394
 20
13.46695945200425
 30
0.0
 10
20.31637909806345
 20
13.60760283892892
 30
0.0
 10
20.40484600001413
 20
13.64667696454296
 30
0.0
  0
HATCH
  5
109B
330
1E
100
AcDbEntity
  8
OBJECT
 62
   151
100
AcDbHatch
 10
0.0
 20
0.0
 30
0.0
210
0.0
220
0.0
230
1.0
  2
ANSI31
 70
     0
 71
     1
 91
        2
 92
        5
 93
       12
 72
     1
 10
18.04084599999999
 20
12.845953
 11
18.040846
 21
12.679963
 72
     1
 10
18.040846
 20
12.679963
 11
18.50084599999999
 21
12.679963
 72
     1
 10
18.50084599999999
 20
12.679963
 11
18.500846
 21
12.359963
 72
     1
 10
18.500846
 20
12.359963
 11
18.04084599999999
 21
12.359963
 72
     1
 10
18.04084599999999
 20
12.359963
 11
18.04084599999999
 21
11.91352799999999
 72
     1
 10
18.04084599999999
 20
11.91352799999999
 11
19.924846
 21
11.91352799999999
 72
     1
 10
19.924846
 20
11.91352799999999
 11
19.924846
 21
12.189778
 72
     1
 10
19.924846
 20
12.189778
 11
20.40484599999999
 21
12.189778
 72
     1
 10
20.40484599999999
 20
12.189778
 11
20.404846
 21
13.64667696453665
 72
     4
 94
        3
 73
     0
 74
     0
 95
        9
 96
        5
 40
2.045522276716948
 40
2.045522276716948
 40
2.045522276716948
 40
2.045522276716948
 40
2.321709433901803
 40
2.459281636834975
 40
2.459281636834975
 40
2.459281636834975
 40
2.459281636834975
 10
20.40484600001413
 20
13.64667696454296
 10
20.31637909806345
 20
13.60760283892892
 10
20.1815424364013
 20
13.54047439575442
 10
20.04886102771342
 20
13.56141651542138
 10
20.00484599999999
 20
13.57376628834574
 72
     1
 10
20.004846
 20
13.57376628834574
 11
20.004846
 21
12.84595299999999
 72
     1
 10
20.004846
 20
12.84595299999999
 11
18.04084599999999
 21
12.845953
 97
       10
330
107F
330
A86
330
A81
330
A85
330
AEF
330
AEA
330
A83
330
FFB
330
A8E
330
A87
 92
        7
 72
     1
 73
     1
 93
        7
 10
18.04084599999999
 20
11.22602799999999
 42
0.0
 10
18.04084599999999
 20
10.625778
 42
0.0
 10
20.154846
 20
10.625778
 42
0.4142135623730951
 10
20.404846
 20
10.875778
 42
0.0
 10
20.40484599999999
 20
10.949778
 42
0.0
 10
19.924846
 20
10.94977799999999
 42
0.0
 10
19.924846
 20
11.22602799999999
 42
0.0
 97
        7
330
A84
330
A85
330
A82
330
A8D
330
A87
330
A8C
330
FFB
 75
     0
 76
     1
 52
0.0
 41
1.5
 77
     0
 78
     1
 53
45.0
 43
0.0
 44
0.0
 45
-0.1325825214724776
 46
0.1325825214724777
 79
     0
 47
0.0093210782647503
 98
        2
 10
19.25111226844326
 20
12.43869722982767
 10
19.1951406461828
 20
11.10578302324366
  0
LEADER
  5
109E
330
1E
100
AcDbEntity
  8
DIM
100
AcDbLeader
  3
23NSTD
 73
     0
 75
     1
 40
0.5
 41
1.96875
 76
     3
 10
18.04084599999999
 20
12.5625
 30
0.0
 10
17.45010872686546
 20
13.68045770660388
 30
0.0
 10
17.18010872686547
 20
13.68045770660388
 30
0.0
340
109F
213
0.0
223
-0.09375
233
0.0
1001
ACAD
1000
DSTYLE
1002
{
1070
   147
1040
0.09
1070
    77
1070
     0
1002
}
  0
MTEXT
  5
109F
102
{ACAD_REACTORS
330
109E
102
}
330
1E
100
AcDbEntity
  8
DIM
100
AcDbMText
 10
17.04510872686546
 20
13.77420770660388
 30
0.0
 40
0.1875
 41
0.0
 71
     3
 72
     1
  1
\A1;SILICONE GASKET\P(CLEAR)
 73
     1
 44
1.0
  0
LEADER
  5
10A1
330
1E
100
AcDbEntity
  8
DIM
100
AcDbLeader
  3
23NSTD
 73
     0
 75
     1
 40
0.1875
 41
1.78125
 76
     3
 10
18.07737263324565
 20
4.43843290949759
 30
0.0
 10
17.26314670853581
 20
3.775728863042672
 30
0.0
 10
16.99314670853581
 20
3.775728863042672
 30
0.0
340
10A2
213
0.0
223
-0.09375
233
0.0
1001
ACAD
1000
DSTYLE
1002
{
1070
   147
1040
0.09
1070
    77
1070
     0
1002
}
  0
MTEXT
  5
10A2
102
{ACAD_REACTORS
330
10A1
102
}
330
1E
100
AcDbEntity
  8
DIM
100
AcDbMText
 10
16.85814670853581
 20
3.869478863042672
 30
0.0
 40
0.1875
 41
0.0
 71
     3
 72
     1
  1
\A1;SEE DETAIL "C"
 73
     1
 44
1.0
  0
LEADER
  5
10A5
330
1E
100
AcDbEntity
  8
DIM
100
AcDbLeader
  3
23NSTD
 73
     0
 74
     0
 75
     1
 40
1.4375
 41
2.8125
 76
     3
 10
5.066487
 20
7.168819999999999
 30
0.0
 10
6.024860276706734
 20
9.96406098561701
 30
0.0
 10
6.294860276706733
 20
9.96406098561701
 30
0.0
340
10A6
213
0.0
223
-0.09375
233
0.0
1001
ACAD
1000
DSTYLE
1002
{
1070
   147
1040
0.09
1070
    77
1070
     0
1002
}
  0
MTEXT
  5
10A6
102
{ACAD_REACTORS
330
10A5
102
}
330
1E
100
AcDbEntity
  8
DIM
100
AcDbMText
 10
6.429860276706733
 20
10.05781098561701
 30
0.0
 40
0.1875
 41
0.0
 71
     1
 72
     1
  1
\A1;0.315 DIA. BOSS\PWITH M3 x 0.218 LG.\PTHREADED INSERT\P(4) PLACES\P(SCREWS NOT SUPPLIED)
 73
     1
 44
1.0
  0
LEADER
  5
10A7
330
1E
100
AcDbEntity
  8
DIM
100
AcDbLeader
  3
23NSTD
 73
     0
 74
     0
 75
     1
 40
0.8125
 41
2.015625
 76
     3
 10
5.238198999999999
 20
4.733446999999999
 30
0.0
 10
6.12230015921432
 20
3.797889483011026
 30
0.0
 10
6.39230015921432
 20
3.797889483011026
 30
0.0
340
10A8
213
0.0
223
-0.09375
233
0.0
1001
ACAD
1000
DSTYLE
1002
{
1070
   147
1040
0.09
1070
    77
1070
     0
1002
}
  0
MTEXT
  5
10A8
102
{ACAD_REACTORS
330
10A7
102
}
330
1E
100
AcDbEntity
  8
DIM
100
AcDbMText
 10
6.52730015921432
 20
3.891639483011026
 30
0.0
 40
0.1875
 41
0.0
 71
     1
 72
     1
  1
\A1;M4 x 0.315 LG.\PTHREADED INSERT\P(4) PLACES
 73
     1
 44
1.0
  0
LEADER
  5
10A9
330
1E
100
AcDbEntity
  8
DIM
100
AcDbLeader
  3
23NSTD
 73
     0
 74
     0
 75
     1
 40
2.0625
 41
3.65625
 76
     3
 10
3.926510035529234
 20
4.950803967929807
 30
0.0
 10
6.029576088194959
 20
2.70535792712095
 30
0.0
 10
6.299576088194958
 20
2.70535792712095
 30
0.0
340
10AA
213
0.0
223
-0.09375
233
0.0
1001
ACAD
1000
DSTYLE
1002
{
1070
   147
1040
0.09
1070
    77
1070
     0
1002
}
  0
MTEXT
  5
10AA
102
{ACAD_REACTORS
330
10A9
102
}
330
1E
100
AcDbEntity
  8
DIM
100
AcDbMText
 10
6.434576088194958
 20
2.79910792712095
 30
0.0
 40
0.1875
 41
0.0
 71
     1
 72
     1
  1
\A1;0.315 DIA. BOSS WITH\P0.090 DIA. HOLE x 0.285 DEEP\P(2) PLACES\PMOUNTING BOSSES USE EITHER\PM2.5 METRIC OR #4 STD. SHEET\PMETAL SCREWS x 0.250 LG.\P(NOT SUPPLIED)
 73
     1
 44
1.0
  0
LWPOLYLINE
  5
10B3
330
1E
100
AcDbEntity
  8
HIDDEN
100
AcDbPolyline
 90
        4
 70
     0
 43
0.0
 10
12.879996
 20
10.259304
 10
12.879996
 20
10.139304
 10
13.18999599999999
 20
10.139304
 10
13.18999599999999
 20
10.259304
  0
LWPOLYLINE
  5
10B4
330
1E
100
AcDbEntity
  8
HIDDEN
100
AcDbPolyline
 90
        4
 70
     0
 43
0.0
 10
15.86799599999999
 20
10.259304
 10
15.86799599999999
 20
10.139304
 10
15.557996
 20
10.139304
 10
15.557996
 20
10.259304
  0
INSERT
  5
10E0
330
1E
100
AcDbEntity
  8
TITLE
100
AcDbBlockReference
  2
HBS
 10
0.0
 20
0.0
 30
0.0
 41
1.5
 42
1.5
 43
1.5
  0
CIRCLE
  5
1140
330
1E
100
AcDbEntity
  8
OBJECT
100
AcDbCircle
 10
2.670793
 20
7.057775
 30
0.0
 40
0.09375
  0
LINE
  5
1141
330
1E
100
AcDbEntity
  8
OBJECT
100
AcDbLine
 10
2.623792976546544
 20
6.824860043182523
 30
0.0
 11
2.717793103452406
 21
6.824860043182524
 31
0.0
  0
LINE
  5
1142
330
1E
100
AcDbEntity
  8
OBJECT
100
AcDbLine
 10
2.717793060408134
 20
6.859860025526407
 30
0.0
 11
2.623792986305012
 21
6.859860025526407
 31
0.0
  0
LINE
  5
1143
330
1E
100
AcDbEntity
  8
OBJECT
100
AcDbLine
 10
2.623792986305012
 20
7.255690012864617
 30
0.0
 11
2.717793060408134
 21
7.255690012864617
 31
0.0
  0
LINE
  5
1144
330
1E
100
AcDbEntity
  8
OBJECT
100
AcDbLine
 10
2.717793103452372
 20
7.2906899952085
 30
0.0
 11
2.623792976546552
 21
7.2906899952085
 31
0.0
  0
CIRCLE
  5
1145
330
1E
100
AcDbEntity
  8
OBJECT
100
AcDbCircle
 10
2.670793
 20
7.057775
 30
0.0
 40
0.0590000000000011
  0
CIRCLE
  5
1146
330
1E
100
AcDbEntity
  8
OBJECT
100
AcDbCircle
 10
2.670793
 20
7.057775
 30
0.0
 40
0.1559553444010344
  0
LINE
  5
1147
330
1E
100
AcDbEntity
  8
OBJECT
100
AcDbLine
 10
2.623792976546544
 20
6.824860043182523
 30
0.0
 11
2.623793
 21
6.908978840451071
 31
0.0
  0
LINE
  5
1148
330
1E
100
AcDbEntity
  8
OBJECT
100
AcDbLine
 10
2.623793000000001
 20
7.20657115954893
 30
0.0
 11
2.623792976546552
 21
7.2906899952085
 31
0.0
  0
LINE
  5
1149
330
1E
100
AcDbEntity
  8
OBJECT
100
AcDbLine
 10
2.472877956354982
 20
7.010775055476437
 30
0.0
 11
2.472877956354982
 21
7.104774982914587
 31
0.0
  0
LINE
  5
114A
330
1E
100
AcDbEntity
  8
OBJECT
100
AcDbLine
 10
2.437877974011098
 20
7.104774970740264
 30
0.0
 11
2.437877974011098
 21
7.010775095006533
 31
0.0
  0
LINE
  5
114B
330
1E
100
AcDbEntity
  8
OBJECT
100
AcDbLine
 10
2.521996840451071
 20
7.010775000000002
 30
0.0
 11
2.437877974011098
 21
7.010775095006533
 31
0.0
  0
LINE
  5
114C
330
1E
100
AcDbEntity
  8
OBJECT
100
AcDbLine
 10
2.437877974011098
 20
7.104774970740264
 30
0.0
 11
2.521996840451071
 21
7.104775000000001
 31
0.0
  0
LINE
  5
1150
330
1E
100
AcDbEntity
  8
OBJECT
100
AcDbLine
 10
2.717792999999999
 20
6.908978840451071
 30
0.0
 11
2.717793103452406
 21
6.824860043182524
 31
0.0
  0
LINE
  5
115C
330
1E
100
AcDbEntity
  8
OBJECT
100
AcDbLine
 10
2.717793103452372
 20
7.2906899952085
 30
0.0
 11
2.717793000000001
 21
7.206571159548929
 31
0.0
  0
LINE
  5
115D
330
1E
100
AcDbEntity
  8
OBJECT
100
AcDbLine
 10
2.819589159548929
 20
7.104774999999999
 30
0.0
 11
2.903707999369561
 21
7.104774970740258
 31
0.0
  0
LINE
  5
115E
330
1E
100
AcDbEntity
  8
OBJECT
100
AcDbLine
 10
2.903707999369562
 20
7.010775095006557
 30
0.0
 11
2.819589159548928
 21
7.010774999999999
 31
0.0
  0
LINE
  5
115F
330
1E
100
AcDbEntity
  8
OBJECT
100
AcDbLine
 10
2.868708017025677
 20
7.104774982914587
 30
0.0
 11
2.868708017025677
 21
7.010775055476437
 31
0.0
  0
LINE
  5
1161
330
1E
100
AcDbEntity
  8
OBJECT
100
AcDbLine
 10
2.903707999369562
 20
7.010775095006557
 30
0.0
 11
2.903707999369561
 21
7.104774970740258
 31
0.0
  0
CIRCLE
  5
118C
330
1E
100
AcDbEntity
  8
OBJECT
100
AcDbCircle
 10
2.670793
 20
5.345774999999999
 30
0.0
 40
0.09375
  0
LINE
  5
118D
330
1E
100
AcDbEntity
  8
OBJECT
100
AcDbLine
 10
2.623792976546544
 20
5.112860043182523
 30
0.0
 11
2.717793103452406
 21
5.112860043182523
 31
0.0
  0
LINE
  5
118E
330
1E
100
AcDbEntity
  8
OBJECT
100
AcDbLine
 10
2.717793060408134
 20
5.147860025526407
 30
0.0
 11
2.623792986305012
 21
5.147860025526407
 31
0.0
  0
LINE
  5
118F
330
1E
100
AcDbEntity
  8
OBJECT
100
AcDbLine
 10
2.623792986305012
 20
5.543690012864615
 30
0.0
 11
2.717793060408134
 21
5.543690012864615
 31
0.0
  0
LINE
  5
1190
330
1E
100
AcDbEntity
  8
OBJECT
100
AcDbLine
 10
2.717793103452372
 20
5.5786899952085
 30
0.0
 11
2.623792976546552
 21
5.5786899952085
 31
0.0
  0
CIRCLE
  5
1191
330
1E
100
AcDbEntity
  8
OBJECT
100
AcDbCircle
 10
2.670793
 20
5.345774999999999
 30
0.0
 40
0.0590000000000011
  0
CIRCLE
  5
1192
330
1E
100
AcDbEntity
  8
OBJECT
100
AcDbCircle
 10
2.670793
 20
5.345774999999999
 30
0.0
 40
0.1559553444010344
  0
LINE
  5
1193
330
1E
100
AcDbEntity
  8
OBJECT
100
AcDbLine
 10
2.623792976546544
 20
5.112860043182523
 30
0.0
 11
2.623793
 21
5.196978840451071
 31
0.0
  0
LINE
  5
1194
330
1E
100
AcDbEntity
  8
OBJECT
100
AcDbLine
 10
2.623793000000001
 20
5.494571159548929
 30
0.0
 11
2.623792976546552
 21
5.5786899952085
 31
0.0
  0
LINE
  5
1195
330
1E
100
AcDbEntity
  8
OBJECT
100
AcDbLine
 10
2.472877956354982
 20
5.298775055476436
 30
0.0
 11
2.472877956354982
 21
5.392774982914586
 31
0.0
  0
LINE
  5
1196
330
1E
100
AcDbEntity
  8
OBJECT
100
AcDbLine
 10
2.437877974011098
 20
5.392774970740263
 30
0.0
 11
2.437877974011098
 21
5.298775095006533
 31
0.0
  0
LINE
  5
1197
330
1E
100
AcDbEntity
  8
OBJECT
100
AcDbLine
 10
2.521996840451071
 20
5.298775
 30
0.0
 11
2.437877974011098
 21
5.298775095006533
 31
0.0
  0
LINE
  5
1198
330
1E
100
AcDbEntity
  8
OBJECT
100
AcDbLine
 10
2.437877974011098
 20
5.392774970740263
 30
0.0
 11
2.521996840451071
 21
5.392775
 31
0.0
  0
LINE
  5
119C
330
1E
100
AcDbEntity
  8
OBJECT
100
AcDbLine
 10
2.717792999999999
 20
5.196978840451071
 30
0.0
 11
2.717793103452406
 21
5.112860043182523
 31
0.0
  0
LINE
  5
11A8
330
1E
100
AcDbEntity
  8
OBJECT
100
AcDbLine
 10
2.717793103452372
 20
5.5786899952085
 30
0.0
 11
2.717793000000001
 21
5.494571159548928
 31
0.0
  0
LINE
  5
11A9
330
1E
100
AcDbEntity
  8
OBJECT
100
AcDbLine
 10
2.819589159548929
 20
5.392774999999998
 30
0.0
 11
2.903707999369561
 21
5.392774970740258
 31
0.0
  0
LINE
  5
11AA
330
1E
100
AcDbEntity
  8
OBJECT
100
AcDbLine
 10
2.903707999369562
 20
5.298775095006557
 30
0.0
 11
2.819589159548928
 21
5.298774999999999
 31
0.0
  0
LINE
  5
11AB
330
1E
100
AcDbEntity
  8
OBJECT
100
AcDbLine
 10
2.868708017025677
 20
5.392774982914586
 30
0.0
 11
2.868708017025677
 21
5.298775055476436
 31
0.0
  0
LINE
  5
11AD
330
1E
100
AcDbEntity
  8
OBJECT
100
AcDbLine
 10
2.903707999369562
 20
5.298775095006557
 30
0.0
 11
2.903707999369561
 21
5.392774970740258
 31
0.0
  0
CIRCLE
  5
11D8
330
1E
100
AcDbEntity
  8
OBJECT
100
AcDbCircle
 10
4.954793
 20
5.345774999999999
 30
0.0
 40
0.09375
  0
LINE
  5
11D9
330
1E
100
AcDbEntity
  8
OBJECT
100
AcDbLine
 10
4.907792976546545
 20
5.112860043182523
 30
0.0
 11
5.001793103452406
 21
5.112860043182523
 31
0.0
  0
LINE
  5
11DA
330
1E
100
AcDbEntity
  8
OBJECT
100
AcDbLine
 10
5.001793060408134
 20
5.147860025526407
 30
0.0
 11
4.907792986305012
 21
5.147860025526407
 31
0.0
  0
LINE
  5
11DB
330
1E
100
AcDbEntity
  8
OBJECT
100
AcDbLine
 10
4.907792986305012
 20
5.543690012864615
 30
0.0
 11
5.001793060408134
 21
5.543690012864615
 31
0.0
  0
LINE
  5
11DC
330
1E
100
AcDbEntity
  8
OBJECT
100
AcDbLine
 10
5.001793103452373
 20
5.5786899952085
 30
0.0
 11
4.907792976546552
 21
5.5786899952085
 31
0.0
  0
CIRCLE
  5
11DD
330
1E
100
AcDbEntity
  8
OBJECT
100
AcDbCircle
 10
4.954793
 20
5.345774999999999
 30
0.0
 40
0.0590000000000011
  0
CIRCLE
  5
11DE
330
1E
100
AcDbEntity
  8
OBJECT
100
AcDbCircle
 10
4.954793
 20
5.345774999999999
 30
0.0
 40
0.1559553444010344
  0
LINE
  5
11DF
330
1E
100
AcDbEntity
  8
OBJECT
100
AcDbLine
 10
4.907792976546545
 20
5.112860043182523
 30
0.0
 11
4.907793
 21
5.196978840451071
 31
0.0
  0
LINE
  5
11E0
330
1E
100
AcDbEntity
  8
OBJECT
100
AcDbLine
 10
4.907793000000001
 20
5.494571159548929
 30
0.0
 11
4.907792976546552
 21
5.5786899952085
 31
0.0
  0
LINE
  5
11E1
330
1E
100
AcDbEntity
  8
OBJECT
100
AcDbLine
 10
4.756877956354983
 20
5.298775055476436
 30
0.0
 11
4.756877956354983
 21
5.392774982914586
 31
0.0
  0
LINE
  5
11E2
330
1E
100
AcDbEntity
  8
OBJECT
100
AcDbLine
 10
4.721877974011098
 20
5.392774970740263
 30
0.0
 11
4.721877974011098
 21
5.298775095006533
 31
0.0
  0
LINE
  5
11E3
330
1E
100
AcDbEntity
  8
OBJECT
100
AcDbLine
 10
4.80599684045107
 20
5.298775
 30
0.0
 11
4.721877974011098
 21
5.298775095006533
 31
0.0
  0
LINE
  5
11E4
330
1E
100
AcDbEntity
  8
OBJECT
100
AcDbLine
 10
4.721877974011098
 20
5.392774970740263
 30
0.0
 11
4.805996840451071
 21
5.392775
 31
0.0
  0
LINE
  5
11E5
330
1E
100
AcDbEntity
  8
OBJECT
100
AcDbLine
 10
9.865325999999999
 20
5.501730344401035
 30
0.0
 11
9.865325999999999
 21
5.189819655598964
 31
0.0
  0
LINE
  5
11E6
330
1E
100
AcDbEntity
  8
OBJECT
100
AcDbLine
 10
10.12132599999999
 20
5.112859974011097
 30
0.0
 11
9.875326009820216
 21
5.147859956354982
 31
0.0
  0
LINE
  5
11E7
330
1E
100
AcDbEntity
  8
OBJECT
100
AcDbLine
 10
9.875326009820216
 20
5.196978788930036
 30
0.0
 11
10.12132599999999
 21
5.196978864823329
 31
0.0
  0
LINE
  5
11E8
330
1E
100
AcDbEntity
  8
OBJECT
100
AcDbLine
 10
5.001793
 20
5.196978840451071
 30
0.0
 11
5.001793103452406
 21
5.112860043182523
 31
0.0
  0
LINE
  5
11E9
330
1E
100
AcDbEntity
  8
OBJECT
100
AcDbLine
 10
9.875326009820216
 20
5.196978788930036
 30
0.0
 11
9.875326009820216
 21
5.147859956354982
 31
0.0
  0
LINE
  5
11EA
330
1E
100
AcDbEntity
  8
OBJECT
100
AcDbLine
 10
9.865325999999999
 20
5.189819655598964
 30
0.0
 11
9.875326009820216
 21
5.189732365974666
 31
0.0
  0
LINE
  5
11EB
330
1E
100
AcDbEntity
  8
OBJECT
100
AcDbLine
 10
10.12132599999999
 20
5.578689999369561
 30
0.0
 11
9.875326009820216
 21
5.543690017025676
 31
0.0
  0
LINE
  5
11EE
330
1E
100
AcDbEntity
  8
OBJECT
100
AcDbLine
 10
9.875326009820216
 20
5.494571184450622
 30
0.0
 11
10.12132599999999
 21
5.494571147769068
 31
0.0
  0
LINE
  5
11EF
330
1E
100
AcDbEntity
  8
OBJECT
100
AcDbLine
 10
9.875326009820216
 20
5.392775060408133
 30
0.0
 11
10.12132599999999
 21
5.392775123814693
 31
0.0
  0
LINE
  5
11F0
330
1E
100
AcDbEntity
  8
OBJECT
100
AcDbLine
 10
9.875326009820216
 20
5.298774986305011
 30
0.0
 11
10.12132599999999
 21
5.298774971930256
 31
0.0
  0
LINE
  5
11F3
330
1E
100
AcDbEntity
  8
OBJECT
100
AcDbLine
 10
9.875326009820216
 20
5.543690017025676
 30
0.0
 11
9.875326009820216
 21
5.494571184450622
 31
0.0
  0
LINE
  5
11F4
330
1E
100
AcDbEntity
  8
OBJECT
100
AcDbLine
 10
5.001793103452373
 20
5.5786899952085
 30
0.0
 11
5.001793000000001
 21
5.494571159548928
 31
0.0
  0
LINE
  5
11F5
330
1E
100
AcDbEntity
  8
OBJECT
100
AcDbLine
 10
5.103589159548929
 20
5.392774999999998
 30
0.0
 11
5.187707999369561
 21
5.392774970740258
 31
0.0
  0
LINE
  5
11F6
330
1E
100
AcDbEntity
  8
OBJECT
100
AcDbLine
 10
5.187707999369562
 20
5.298775095006557
 30
0.0
 11
5.103589159548928
 21
5.298774999999999
 31
0.0
  0
LINE
  5
11F7
330
1E
100
AcDbEntity
  8
OBJECT
100
AcDbLine
 10
5.152708017025677
 20
5.392774982914586
 30
0.0
 11
5.152708017025677
 21
5.298775055476436
 31
0.0
  0
LINE
  5
11F8
330
1E
100
AcDbEntity
  8
OBJECT
100
AcDbLine
 10
9.875326009820216
 20
5.392775060408133
 30
0.0
 11
9.875326009820216
 21
5.298774986305011
 31
0.0
  0
LINE
  5
11F9
330
1E
100
AcDbEntity
  8
OBJECT
100
AcDbLine
 10
5.187707999369562
 20
5.298775095006557
 30
0.0
 11
5.187707999369561
 21
5.392774970740258
 31
0.0
  0
LINE
  5
11FA
330
1E
100
AcDbEntity
  8
OBJECT
100
AcDbLine
 10
9.875326009820216
 20
5.501817607405993
 30
0.0
 11
9.865325999999999
 21
5.501730344401035
 31
0.0
  0
CIRCLE
  5
1224
330
1E
100
AcDbEntity
  8
OBJECT
100
AcDbCircle
 10
4.954793
 20
7.057775
 30
0.0
 40
0.09375
  0
LINE
  5
1225
330
1E
100
AcDbEntity
  8
OBJECT
100
AcDbLine
 10
4.907792976546545
 20
6.824860043182523
 30
0.0
 11
5.001793103452406
 21
6.824860043182524
 31
0.0
  0
LINE
  5
1226
330
1E
100
AcDbEntity
  8
OBJECT
100
AcDbLine
 10
5.001793060408134
 20
6.859860025526407
 30
0.0
 11
4.907792986305012
 21
6.859860025526407
 31
0.0
  0
LINE
  5
1227
330
1E
100
AcDbEntity
  8
OBJECT
100
AcDbLine
 10
4.907792986305012
 20
7.255690012864617
 30
0.0
 11
5.001793060408134
 21
7.255690012864617
 31
0.0
  0
LINE
  5
1228
330
1E
100
AcDbEntity
  8
OBJECT
100
AcDbLine
 10
5.001793103452373
 20
7.2906899952085
 30
0.0
 11
4.907792976546552
 21
7.2906899952085
 31
0.0
  0
CIRCLE
  5
1229
330
1E
100
AcDbEntity
  8
OBJECT
100
AcDbCircle
 10
4.954793
 20
7.057775
 30
0.0
 40
0.0590000000000011
  0
CIRCLE
  5
122A
330
1E
100
AcDbEntity
  8
OBJECT
100
AcDbCircle
 10
4.954793
 20
7.057775
 30
0.0
 40
0.1559553444010344
  0
LINE
  5
122B
330
1E
100
AcDbEntity
  8
OBJECT
100
AcDbLine
 10
4.907792976546545
 20
6.824860043182523
 30
0.0
 11
4.907793
 21
6.908978840451071
 31
0.0
  0
LINE
  5
122C
330
1E
100
AcDbEntity
  8
OBJECT
100
AcDbLine
 10
4.907793000000001
 20
7.20657115954893
 30
0.0
 11
4.907792976546552
 21
7.2906899952085
 31
0.0
  0
LINE
  5
122D
330
1E
100
AcDbEntity
  8
OBJECT
100
AcDbLine
 10
4.756877956354983
 20
7.010775055476437
 30
0.0
 11
4.756877956354983
 21
7.104774982914587
 31
0.0
  0
LINE
  5
122E
330
1E
100
AcDbEntity
  8
OBJECT
100
AcDbLine
 10
4.721877974011098
 20
7.104774970740264
 30
0.0
 11
4.721877974011098
 21
7.010775095006533
 31
0.0
  0
LINE
  5
122F
330
1E
100
AcDbEntity
  8
OBJECT
100
AcDbLine
 10
4.80599684045107
 20
7.010775000000002
 30
0.0
 11
4.721877974011098
 21
7.010775095006533
 31
0.0
  0
LINE
  5
1230
330
1E
100
AcDbEntity
  8
OBJECT
100
AcDbLine
 10
4.721877974011098
 20
7.104774970740264
 30
0.0
 11
4.805996840451071
 21
7.104775000000001
 31
0.0
  0
LINE
  5
1231
102
{ACAD_REACTORS
330
12BA
102
}
330
1E
100
AcDbEntity
  8
OBJECT
100
AcDbLine
 10
9.865325999999999
 20
7.213730344401035
 30
0.0
 11
9.865325999999999
 21
6.901819655598965
 31
0.0
  0
LINE
  5
1232
102
{ACAD_REACTORS
330
12BA
102
}
330
1E
100
AcDbEntity
  8
OBJECT
100
AcDbLine
 10
10.12132599999999
 20
6.824859974011098
 30
0.0
 11
9.875326009820216
 21
6.859859956354982
 31
0.0
  0
LINE
  5
1234
330
1E
100
AcDbEntity
  8
OBJECT
100
AcDbLine
 10
5.001793
 20
6.908978840451071
 30
0.0
 11
5.001793103452406
 21
6.824860043182524
 31
0.0
  0
LINE
  5
1235
102
{ACAD_REACTORS
330
12BA
102
}
330
1E
100
AcDbEntity
  8
OBJECT
100
AcDbLine
 10
9.875326009820216
 20
6.901732365974667
 30
0.0
 11
9.875326009820216
 21
6.859859956354982
 31
0.0
  0
LINE
  5
1236
102
{ACAD_REACTORS
330
12BA
102
}
330
1E
100
AcDbEntity
  8
OBJECT
100
AcDbLine
 10
9.865325999999999
 20
6.901819655598965
 30
0.0
 11
9.875326009820216
 21
6.901732365974667
 31
0.0
  0
LINE
  5
1237
102
{ACAD_REACTORS
330
12BA
102
}
330
1E
100
AcDbEntity
  8
OBJECT
100
AcDbLine
 10
10.12132599999999
 20
7.290689999369561
 30
0.0
 11
9.875326009820216
 21
7.255690017025677
 31
0.0
  0
LINE
  5
123F
102
{ACAD_REACTORS
330
12BA
102
}
330
1E
100
AcDbEntity
  8
OBJECT
100
AcDbLine
 10
9.875326009820216
 20
7.255690017025677
 30
0.0
 11
9.875326009820216
 21
7.213817607405993
 31
0.0
  0
LINE
  5
1240
330
1E
100
AcDbEntity
  8
OBJECT
100
AcDbLine
 10
5.001793103452373
 20
7.2906899952085
 30
0.0
 11
5.001793000000001
 21
7.206571159548929
 31
0.0
  0
LINE
  5
1241
330
1E
100
AcDbEntity
  8
OBJECT
100
AcDbLine
 10
5.103589159548929
 20
7.104774999999999
 30
0.0
 11
5.187707999369561
 21
7.104774970740258
 31
0.0
  0
LINE
  5
1242
330
1E
100
AcDbEntity
  8
OBJECT
100
AcDbLine
 10
5.187707999369562
 20
7.010775095006557
 30
0.0
 11
5.103589159548928
 21
7.010774999999999
 31
0.0
  0
LINE
  5
1243
330
1E
100
AcDbEntity
  8
OBJECT
100
AcDbLine
 10
5.152708017025677
 20
7.104774982914587
 30
0.0
 11
5.152708017025677
 21
7.010775055476437
 31
0.0
  0
LINE
  5
1245
330
1E
100
AcDbEntity
  8
OBJECT
100
AcDbLine
 10
5.187707999369562
 20
7.010775095006557
 30
0.0
 11
5.187707999369561
 21
7.104774970740258
 31
0.0
  0
LINE
  5
1246
102
{ACAD_REACTORS
330
12BA
102
}
330
1E
100
AcDbEntity
  8
OBJECT
100
AcDbLine
 10
9.875326009820216
 20
7.213817607405993
 30
0.0
 11
9.865325999999999
 21
7.213730344401035
 31
0.0
  0
HATCH
  5
12BA
330
1E
100
AcDbEntity
  8
OBJECT
 62
   151
100
AcDbHatch
 10
0.0
 20
0.0
 30
0.0
210
0.0
220
0.0
230
1.0
  2
ANSI31
 70
     0
 71
     1
 91
        3
 92
        7
 72
     1
 73
     1
 93
        9
 10
10.22832599999999
 20
7.815775
 42
0.0
 10
8.738325999999998
 20
7.815775
 42
0.0
 10
8.738325999999997
 20
7.795774999999999
 42
0.0
 10
8.698325999999999
 20
7.795774999999999
 42
0.0
 10
8.698325999999999
 20
7.750774999999999
 42
0.0
 10
10.12132599999999
 20
7.750774999999999
 42
0.0
 10
10.121326
 20
7.662275000000001
 42
0.0
 10
10.27832599999999
 20
7.662274999999998
 42
0.0
 10
10.27832599999999
 20
7.765774999999999
 42
0.4142135623731004
 97
        9
330
7AA
330
798
330
7B4
330
7B6
330
7B7
330
799
330
7AF
330
796
330
7B1
 92
        7
 72
     0
 73
     1
 93
       28
 10
10.27832599999999
 20
7.497275
 10
10.12132599999999
 20
7.497274999999999
 10
10.12132599999999
 20
7.421025
 10
8.698325999999999
 20
7.421025
 10
8.698325999999999
 20
7.395997999999999
 10
8.638325999999999
 20
7.395997999999999
 10
8.638326000000001
 20
7.356024999999999
 10
10.121326
 20
7.356025
 10
10.12132599999999
 20
7.290689999369561
 10
9.875326009820216
 20
7.255690017025676
 10
9.875326009820216
 20
7.213817607405992
 10
9.865325999999999
 20
7.213730344401035
 10
9.865325999999999
 20
7.151525
 10
10.08332599999999
 20
7.151525
 10
10.08332599999999
 20
6.964024999999999
 10
9.865325999999999
 20
6.964024999999999
 10
9.865325999999999
 20
6.901819655598964
 10
9.875326009820216
 20
6.901732365974668
 10
9.875326009820216
 20
6.859859956354981
 10
10.12132599999999
 20
6.824859974011098
 10
10.12132599999999
 20
5.047525
 10
8.638325999999999
 20
5.047525
 10
8.638325999999999
 20
5.007552999999999
 10
8.698325999999999
 20
5.007552999999999
 10
8.698325999999999
 20
4.946525000000001
 10
9.013325999999999
 20
4.946525
 10
9.013325999999999
 20
4.976524999999999
 10
10.27832599999999
 20
4.976524999999999
 97
       26
330
7B0
330
799
330
7AC
330
7B6
330
7B2
330
795
330
7AB
330
7B8
330
1237
330
123F
330
1246
330
1231
330
5C0
330
5C3
330
5BF
330
1236
330
1235
330
1232
330
7B9
330
79C
330
7A7
330
797
330
7A9
330
7A2
330
79B
330
796
 92
        7
 72
     1
 73
     1
 93
        9
 10
10.27832599999999
 20
4.637775000000001
 42
0.0
 10
10.278326
 20
4.666525
 42
0.0
 10
9.013325999999999
 20
4.666525
 42
0.0
 10
9.013325999999999
 20
4.696525
 42
0.0
 10
8.698325999999999
 20
4.696525
 42
0.0
 10
8.698325999999999
 20
4.607775
 42
0.0
 10
8.738325999999997
 20
4.607775
 42
0.0
 10
8.738325999999998
 20
4.587774999999999
 42
0.0
 10
10.22832599999999
 20
4.587774999999999
 42
0.4142135623731055
 97
        9
330
796
330
79D
330
7A2
330
7A5
330
797
330
7A4
330
7B5
330
79A
330
79E
 75
     0
 76
     1
 52
0.0
 41
0.625
 77
     0
 78
     1
 53
45.0
 43
0.0
 44
0.0
 45
-0.055242717280199
 46
0.055242717280199
 79
     0
 47
0.0072342715438363
 98
        3
 10
9.693509971844221
 20
7.788570985711494
 10
9.715230333130278
 20
7.390686071249753
 10
9.353224334589256
 20
4.627194319863193
  0
ENDSEC
  0
SECTION
  2
OBJECTS
  0
DICTIONARY
  5
C
330
0
100
AcDbDictionary
281
     1
  3
ACAD_GROUP
350
D
  3
ACAD_LAYOUT
350
19
  3
ACAD_MLINESTYLE
350
16
  3
ACAD_PLOTSETTINGS
350
18
  3
ACAD_PLOTSTYLENAME
350
E
  3
AcadDim
350
109D
  3
AcDbVariableDictionary
350
F17
  0
DICTIONARY
  5
D
102
{ACAD_REACTORS
330
C
102
}
330
C
100
AcDbDictionary
281
     1
  0
DICTIONARY
  5
19
102
{ACAD_REACTORS
330
C
102
}
330
C
100
AcDbDictionary
281
     1
  3
Layout1
350
1D
  3
Model
350
21
  0
DICTIONARY
  5
16
102
{ACAD_REACTORS
330
C
102
}
330
C
100
AcDbDictionary
281
     1
  3
Standard
350
17
  0
DICTIONARY
  5
18
102
{ACAD_REACTORS
330
C
102
}
330
C
100
AcDbDictionary
281
     1
  0
ACDBDICTIONARYWDFLT
  5
E
102
{ACAD_REACTORS
330
C
102
}
330
C
100
AcDbDictionary
281
     1
  3
Normal
350
F
100
AcDbDictionaryWithDefault
340
F
  0
XRECORD
  5
109D
102
{ACAD_REACTORS
330
C
102
}
330
C
100
AcDbXrecord
280
     1
 90
   990106
  3

 60
     0
 61
     0
 62
     1
 63
     1
 64
     0
 65
     0
 66
     0
 67
     3
 68
     1
 69
     0
 70
     0
 71
     0
 72
     0
 40
0.0
170
     2
340
10AA
  0
DICTIONARY
  5
F17
102
{ACAD_REACTORS
330
C
102
}
330
C
100
AcDbDictionary
281
     1
  3
SORTENTS
350
F18
  0
LAYOUT
  5
1D
102
{ACAD_REACTORS
330
19
102
}
330
19
100
AcDbPlotSettings
  1

  2
C:\Program Files\ACAD2000\plotters\RICOH Aficio 1060 RPCS.pc3
  4

  6

 40
0.0
 41
0.0
 42
0.0
 43
0.0
 44
0.0
 45
0.0
 46
0.0
 47
0.0
 48
0.0
 49
0.0
140
0.0
141
0.0
142
1.0
143
1.0
 70
   688
 72
     0
 73
     0
 74
     5
  7
monochrome.ctb
 75
    16
147
1.0
148
0.0
149
0.0
100
AcDbLayout
  1
Layout1
 70
     1
 71
     1
 10
0.0
 20
0.0
 11
12.0
 21
9.0
 12
0.0
 22
0.0
 32
0.0
 14
1.000000000000000E+20
 24
1.000000000000000E+20
 34
1.000000000000000E+20
 15
-1.000000000000000E+20
 25
-1.000000000000000E+20
 35
-1.000000000000000E+20
146
0.0
 13
0.0
 23
0.0
 33
0.0
 16
1.0
 26
0.0
 36
0.0
 17
0.0
 27
1.0
 37
0.0
 76
     0
330
1A
  0
LAYOUT
  5
21
102
{ACAD_REACTORS
330
19
102
}
330
19
100
AcDbPlotSettings
  1

  2
Acrobat PDFWriter
  4
Tabloid
  6

 40
3.174999952316284
 41
3.174999952316284
 42
3.17498779296875
 43
3.17498779296875
 44
431.8000183105469
 45
279.3999938964843
 46
0.0
 47
4.064
 48
0.0
 49
0.0
140
0.0
141
0.0
142
1.0
143
1.486657778118551
 70
 11956
 72
     0
 73
     0
 74
     1
  7
monochrome.ctb
 75
     0
147
0.6726497615783211
148
0.0192901025592349
149
0.0120016975440407
100
AcDbLayout
  1
Model
 70
     1
 71
     0
 10
0.0
 20
0.0
 11
12.0
 21
9.0
 12
0.0
 22
0.0
 32
0.0
 14
0.0
 24
0.0
 34
0.0
 15
0.0
 25
0.0
 35
0.0
146
0.0
 13
0.0
 23
0.0
 33
0.0
 16
1.0
 26
0.0
 36
0.0
 17
0.0
 27
1.0
 37
0.0
 76
     0
330
1E
  0
MLINESTYLE
  5
17
102
{ACAD_REACTORS
330
16
102
}
330
16
100
AcDbMlineStyle
  2
STANDARD
 70
     0
  3

 62
   256
 51
90.0
 52
90.0
 71
     2
 49
0.5
 62
   256
  6
BYLAYER
 49
-0.5
 62
   256
  6
BYLAYER
  0
ACDBPLACEHOLDER
  5
F
102
{ACAD_REACTORS
330
E
102
}
330
E
  0
DICTIONARYVAR
  5
F18
102
{ACAD_REACTORS
330
F17
102
}
330
F17
100
DictionaryVariables
280
     0
  1
96
  0
ENDSEC
  0
EOF
