  0
SECTION
  2
HEADER
  9
$ACADVER
  1
AC1015
  9
$ACADMAINTVER
 70
     6
  9
$DWGCODEPAGE
  3
ANSI_1252
  9
$INSBASE
 10
0.0
 20
0.0
 30
0.0
  9
$EXTMIN
 10
0.0
 20
0.0
 30
-0.00000001
  9
$EXTMAX
 10
29.05000000829998
 20
18.07400000516399
 30
0.00000001
  9
$LIMMIN
 10
0.0
 20
0.0
  9
$LIMMAX
 10
27.125
 20
17.71
  9
$ORTHOMODE
 70
     1
  9
$REGENMODE
 70
     1
  9
$FILLMODE
 70
     1
  9
$QTEXTMODE
 70
     0
  9
$MIRRTEXT
 70
     0
  9
$LTSCALE
 40
0.5
  9
$ATTMODE
 70
     1
  9
$TEXTSIZE
 40
0.2
  9
$TRACEWID
 40
0.05
  9
$TEXTSTYLE
  7
TXT
  9
$CLAYER
  8
OBJECT
  9
$CELTYPE
  6
ByLayer
  9
$CECOLOR
 62
   256
  9
$CELTSCALE
 40
1.0
  9
$DISPSILH
 70
     0
  9
$DIMSCALE
 40
1.75
  9
$DIMASZ
 40
0.18
  9
$DIMEXO
 40
0.063
  9
$DIMDLI
 40
0.281
  9
$DIMRND
 40
0.0
  9
$DIMDLE
 40
0.0
  9
$DIMEXE
 40
0.093
  9
$DIMTP
 40
0.0
  9
$DIMTM
 40
0.0
  9
$DIMTXT
 40
0.125
  9
$DIMCEN
 40
0.09
  9
$DIMTSZ
 40
0.0
  9
$DIMTOL
 70
     0
  9
$DIMLIM
 70
     0
  9
$DIMTIH
 70
     1
  9
$DIMTOH
 70
     1
  9
$DIMSE1
 70
     0
  9
$DIMSE2
 70
     0
  9
$DIMTAD
 70
     0
  9
$DIMZIN
 70
     0
  9
$DIMBLK
  1

  9
$DIMASO
 70
     1
  9
$DIMSHO
 70
     1
  9
$DIMPOST
  1

  9
$DIMAPOST
  1

  9
$DIMALT
 70
     0
  9
$DIMALTD
 70
     2
  9
$DIMALTF
 40
25.4
  9
$DIMLFAC
 40
1.0
  9
$DIMTOFL
 70
     0
  9
$DIMTVP
 40
0.0
  9
$DIMTIX
 70
     0
  9
$DIMSOXD
 70
     0
  9
$DIMSAH
 70
     0
  9
$DIMBLK1
  1

  9
$DIMBLK2
  1

  9
$DIMSTYLE
  2
23NSTD
  9
$DIMCLRD
 70
     0
  9
$DIMCLRE
 70
     0
  9
$DIMCLRT
 70
     0
  9
$DIMTFAC
 40
1.0
  9
$DIMGAP
 40
0.09
  9
$DIMJUST
 70
     0
  9
$DIMSD1
 70
     0
  9
$DIMSD2
 70
     0
  9
$DIMTOLJ
 70
     1
  9
$DIMTZIN
 70
     0
  9
$DIMALTZ
 70
     0
  9
$DIMALTTZ
 70
     0
  9
$DIMUPT
 70
     0
  9
$DIMDEC
 70
     3
  9
$DIMTDEC
 70
     3
  9
$DIMALTU
 70
     2
  9
$DIMALTTD
 70
     2
  9
$DIMTXSTY
  7
TXT
  9
$DIMAUNIT
 70
     0
  9
$DIMADEC
 70
     0
  9
$DIMALTRND
 40
0.0
  9
$DIMAZIN
 70
     0
  9
$DIMDSEP
 70
    46
  9
$DIMATFIT
 70
     1
  9
$DIMFRAC
 70
     0
  9
$DIMLDRBLK
  1

  9
$DIMLUNIT
 70
     2
  9
$DIMLWD
 70
    -2
  9
$DIMLWE
 70
    -2
  9
$DIMTMOVE
 70
     0
  9
$LUNITS
 70
     2
  9
$LUPREC
 70
     3
  9
$SKETCHINC
 40
0.1
  9
$FILLETRAD
 40
0.0
  9
$AUNITS
 70
     0
  9
$AUPREC
 70
     0
  9
$MENU
  1
acad
  9
$ELEVATION
 40
0.0
  9
$PELEVATION
 40
0.0
  9
$THICKNESS
 40
0.0
  9
$LIMCHECK
 70
     0
  9
$CHAMFERA
 40
0.0
  9
$CHAMFERB
 40
0.0
  9
$CHAMFERC
 40
0.0
  9
$CHAMFERD
 40
0.0
  9
$SKPOLY
 70
     0
  9
$TDCREATE
 40
2450114.437653124
  9
$TDUCREATE
 40
2450114.645986458
  9
$TDUPDATE
 40
2454788.497283345
  9
$TDUUPDATE
 40
2454788.705616678
  9
$TDINDWG
 40
0.2349324306
  9
$TDUSRTIMER
 40
0.2349322454
  9
$USRTIMER
 70
     1
  9
$ANGBASE
 50
0.0
  9
$ANGDIR
 70
     0
  9
$PDMODE
 70
     0
  9
$PDSIZE
 40
0.0
  9
$PLINEWID
 40
0.0
  9
$SPLFRAME
 70
     0
  9
$SPLINETYPE
 70
     6
  9
$SPLINESEGS
 70
     8
  9
$HANDSEED
  5
1952
  9
$SURFTAB1
 70
     6
  9
$SURFTAB2
 70
     6
  9
$SURFTYPE
 70
     6
  9
$SURFU
 70
     6
  9
$SURFV
 70
     6
  9
$UCSBASE
  2

  9
$UCSNAME
  2

  9
$UCSORG
 10
0.0
 20
0.0
 30
0.0
  9
$UCSXDIR
 10
1.0
 20
0.0
 30
0.0
  9
$UCSYDIR
 10
0.0
 20
1.0
 30
0.0
  9
$UCSORTHOREF
  2

  9
$UCSORTHOVIEW
 70
     0
  9
$UCSORGTOP
 10
0.0
 20
0.0
 30
0.0
  9
$UCSORGBOTTOM
 10
0.0
 20
0.0
 30
0.0
  9
$UCSORGLEFT
 10
0.0
 20
0.0
 30
0.0
  9
$UCSORGRIGHT
 10
0.0
 20
0.0
 30
0.0
  9
$UCSORGFRONT
 10
0.0
 20
0.0
 30
0.0
  9
$UCSORGBACK
 10
0.0
 20
0.0
 30
0.0
  9
$PUCSBASE
  2

  9
$PUCSNAME
  2

  9
$PUCSORG
 10
0.0
 20
0.0
 30
0.0
  9
$PUCSXDIR
 10
1.0
 20
0.0
 30
0.0
  9
$PUCSYDIR
 10
0.0
 20
1.0
 30
0.0
  9
$PUCSORTHOREF
  2

  9
$PUCSORTHOVIEW
 70
     0
  9
$PUCSORGTOP
 10
0.0
 20
0.0
 30
0.0
  9
$PUCSORGBOTTOM
 10
0.0
 20
0.0
 30
0.0
  9
$PUCSORGLEFT
 10
0.0
 20
0.0
 30
0.0
  9
$PUCSORGRIGHT
 10
0.0
 20
0.0
 30
0.0
  9
$PUCSORGFRONT
 10
0.0
 20
0.0
 30
0.0
  9
$PUCSORGBACK
 10
0.0
 20
0.0
 30
0.0
  9
$USERI1
 70
     0
  9
$USERI2
 70
     0
  9
$USERI3
 70
     0
  9
$USERI4
 70
     0
  9
$USERI5
 70
     0
  9
$USERR1
 40
0.0
  9
$USERR2
 40
0.0
  9
$USERR3
 40
0.0
  9
$USERR4
 40
0.0
  9
$USERR5
 40
0.0
  9
$WORLDVIEW
 70
     1
  9
$SHADEDGE
 70
     3
  9
$SHADEDIF
 70
    70
  9
$TILEMODE
 70
     1
  9
$MAXACTVP
 70
    16
  9
$PINSBASE
 10
0.0
 20
0.0
 30
0.0
  9
$PLIMCHECK
 70
     0
  9
$PEXTMIN
 10
1.000000000000000E+20
 20
1.000000000000000E+20
 30
1.000000000000000E+20
  9
$PEXTMAX
 10
-1.000000000000000E+20
 20
-1.000000000000000E+20
 30
-1.000000000000000E+20
  9
$PLIMMIN
 10
0.0
 20
0.0
  9
$PLIMMAX
 10
12.0
 20
9.0
  9
$UNITMODE
 70
     0
  9
$VISRETAIN
 70
     0
  9
$PLINEGEN
 70
     0
  9
$PSLTSCALE
 70
     1
  9
$TREEDEPTH
 70
  3020
  9
$CMLSTYLE
  2
Standard
  9
$CMLJUST
 70
     0
  9
$CMLSCALE
 40
1.0
  9
$PROXYGRAPHICS
 70
     1
  9
$MEASUREMENT
 70
     0
  9
$CELWEIGHT
370
    -1
  9
$ENDCAPS
280
     0
  9
$JOINSTYLE
280
     0
  9
$LWDISPLAY
290
     0
  9
$INSUNITS
 70
     0
  9
$HYPERLINKBASE
  1

  9
$STYLESHEET
  1
monochrome.ctb
  9
$XEDIT
290
     1
  9
$CEPSNTYPE
380
     0
  9
$PSTYLEMODE
290
     1
  9
$FINGERPRINTGUID
  2
{3CA559E1-D437-4462-BF72-D1DE169353A7}
  9
$VERSIONGUID
  2
{7070D27D-EF80-4BB5-A262-70DDEAC7E289}
  9
$EXTNAMES
290
     1
  9
$PSVPSCALE
 40
0.0
  9
$OLESTARTUP
290
     0
  0
ENDSEC
  0
SECTION
  2
CLASSES
  0
CLASS
  1
ACDBDICTIONARYWDFLT
  2
AcDbDictionaryWithDefault
  3
AutoCAD 2000
 90
        0
280
     0
281
     0
  0
CLASS
  1
ACDBPLACEHOLDER
  2
AcDbPlaceHolder
  3
AutoCAD 2000
 90
        0
280
     0
281
     0
  0
CLASS
  1
LAYOUT
  2
AcDbLayout
  3
AutoCAD 2000
 90
        0
280
     0
281
     0
  0
CLASS
  1
DICTIONARYVAR
  2
AcDbDictionaryVar
  3
AutoCAD 2000
 90
        0
280
     0
281
     0
  0
ENDSEC
  0
SECTION
  2
TABLES
  0
TABLE
  2
VPORT
  5
8
330
0
100
AcDbSymbolTable
 70
     2
  0
VPORT
  5
1951
330
8
100
AcDbSymbolTableRecord
100
AcDbViewportTableRecord
  2
*Active
 70
     0
 10
0.0
 20
0.0
 11
1.0
 21
1.0
 12
14.52500027471367
 22
9.037000170918235
 13
0.0
 23
0.0
 14
1.0
 24
1.0
 15
0.25
 25
0.25
 16
0.0
 26
0.0
 36
1.0
 17
0.0
 27
0.0
 37
0.0
 40
18.27006366942569
 41
1.796327212020033
 42
50.0
 43
0.0
 44
0.0
 50
0.0
 51
0.0
 71
     0
 72
   500
 73
     1
 74
     0
 75
     0
 76
     0
 77
     0
 78
     0
281
     0
 65
     1
110
0.0
120
0.0
130
0.0
111
1.0
121
0.0
131
0.0
112
0.0
122
1.0
132
0.0
 79
     0
146
0.0
  0
ENDTAB
  0
TABLE
  2
LTYPE
  5
5
330
0
100
AcDbSymbolTable
 70
     5
  0
LTYPE
  5
13
330
5
100
AcDbSymbolTableRecord
100
AcDbLinetypeTableRecord
  2
ByBlock
 70
     0
  3

 72
    65
 73
     0
 40
0.0
  0
LTYPE
  5
14
330
5
100
AcDbSymbolTableRecord
100
AcDbLinetypeTableRecord
  2
ByLayer
 70
     0
  3

 72
    65
 73
     0
 40
0.0
  0
LTYPE
  5
15
330
5
100
AcDbSymbolTableRecord
100
AcDbLinetypeTableRecord
  2
CONTINUOUS
 70
     0
  3
Solid line
 72
    65
 73
     0
 40
0.0
  0
LTYPE
  5
25
330
5
100
AcDbSymbolTableRecord
100
AcDbLinetypeTableRecord
  2
HIDDEN
 70
     0
  3
_ _ _ _ _ _ _ _ _ _ _ _ _ _ _ _ _ _ _ _ _ _ _
 72
    65
 73
     2
 40
0.375
 49
0.25
 74
     0
 49
-0.125
 74
     0
  0
LTYPE
  5
26
330
5
100
AcDbSymbolTableRecord
100
AcDbLinetypeTableRecord
  2
PHANTOM
 70
     0
  3
_____ _ _ _____ _ _ _____ _ _ _____ _ _ ____
 72
    65
 73
     6
 40
2.5
 49
1.25
 74
     0
 49
-0.25
 74
     0
 49
0.25
 74
     0
 49
-0.25
 74
     0
 49
0.25
 74
     0
 49
-0.25
 74
     0
  0
LTYPE
  5
27
330
5
100
AcDbSymbolTableRecord
100
AcDbLinetypeTableRecord
  2
CENTER
 70
     0
  3
____ _ ____ _ ____ _ ____ _ ____ _ ____ _ ____
 72
    65
 73
     4
 40
2.0
 49
1.25
 74
     0
 49
-0.25
 74
     0
 49
0.25
 74
     0
 49
-0.25
 74
     0
  0
LTYPE
  5
17C4
330
5
100
AcDbSymbolTableRecord
100
AcDbLinetypeTableRecord
  2
HIDDEN2
 70
     0
  3
Hidden (.5x) _ _ _ _ _ _ _ _ _ _ _ _ _ _ _ _ _
 72
    65
 73
     2
 40
0.1875
 49
0.125
 74
     0
 49
-0.0625
 74
     0
  0
ENDTAB
  0
TABLE
  2
LAYER
  5
2
330
0
100
AcDbSymbolTable
 70
     9
  0
LAYER
  5
10
330
2
100
AcDbSymbolTableRecord
100
AcDbLayerTableRecord
  2
0
 70
     0
 62
     7
  6
CONTINUOUS
370
    -3
390
F
  0
LAYER
  5
22
330
2
100
AcDbSymbolTableRecord
100
AcDbLayerTableRecord
  2
OBJECT
 70
     0
 62
     7
  6
CONTINUOUS
370
    -3
390
F
  0
LAYER
  5
28
330
2
100
AcDbSymbolTableRecord
100
AcDbLayerTableRecord
  2
DIM
 70
     0
 62
     2
  6
CONTINUOUS
370
    -3
390
F
  0
LAYER
  5
29
330
2
100
AcDbSymbolTableRecord
100
AcDbLayerTableRecord
  2
HIDDEN
 70
     0
 62
     6
  6
HIDDEN
370
    -3
390
F
  0
LAYER
  5
2A
330
2
100
AcDbSymbolTableRecord
100
AcDbLayerTableRecord
  2
BEND
 70
     0
 62
     4
  6
PHANTOM
370
    -3
390
F
  0
LAYER
  5
2B
330
2
100
AcDbSymbolTableRecord
100
AcDbLayerTableRecord
  2
TEXT
 70
     0
 62
     1
  6
CONTINUOUS
370
    -3
390
F
  0
LAYER
  5
2C
330
2
100
AcDbSymbolTableRecord
100
AcDbLayerTableRecord
  2
TITLE
 70
     0
 62
     8
  6
CONTINUOUS
370
    -3
390
F
  0
LAYER
  5
2D
330
2
100
AcDbSymbolTableRecord
100
AcDbLayerTableRecord
  2
CENTER
 70
     0
 62
     3
  6
CENTER
370
    -3
390
F
  0
LAYER
  5
2E
330
2
100
AcDbSymbolTableRecord
100
AcDbLayerTableRecord
  2
DEFPOINTS
 70
     0
 62
     7
  6
CONTINUOUS
290
     0
370
    -3
390
F
  0
ENDTAB
  0
TABLE
  2
STYLE
  5
3
330
0
100
AcDbSymbolTable
 70
     2
  0
STYLE
  5
11
330
3
100
AcDbSymbolTableRecord
100
AcDbTextStyleTableRecord
  2
TXT
 70
     0
 40
0.0
 41
0.75
 50
0.0
 71
     0
 42
0.2
  3
txt.shx
  4

  0
STYLE
  5
2F
330
3
100
AcDbSymbolTableRecord
100
AcDbTextStyleTableRecord
  2
SECTION
 70
     0
 40
0.0
 41
0.8
 50
0.0
 71
     0
 42
0.2
  3
ROMANT.SHX
  4

  0
ENDTAB
  0
TABLE
  2
VIEW
  5
6
330
0
100
AcDbSymbolTable
 70
     0
  0
ENDTAB
  0
TABLE
  2
UCS
  5
7
330
0
100
AcDbSymbolTable
 70
     0
  0
ENDTAB
  0
TABLE
  2
APPID
  5
9
330
0
100
AcDbSymbolTable
 70
     1
  0
APPID
  5
12
330
9
100
AcDbSymbolTableRecord
100
AcDbRegAppTableRecord
  2
ACAD
 70
     0
  0
ENDTAB
  0
TABLE
  2
DIMSTYLE
  5
A
330
0
100
AcDbSymbolTable
 70
     4
100
AcDbDimStyleTable
 71
     4
340
31
340
30
340
33
340
32
  0
DIMSTYLE
105
30
102
{ACAD_REACTORS
330
6CB
330
6D9
330
6E7
330
6F5
330
703
330
711
330
71F
330
72D
330
757
330
773
330
781
330
78F
330
79D
330
7AB
330
7B9
330
86E
330
8DC
330
8EA
330
906
330
91A
330
928
330
936
330
963
330
99A
330
9A8
330
9B6
330
9C4
330
9D2
330
9E0
330
9F6
330
A7C
330
AA0
330
AAE
102
}
330
A
100
AcDbSymbolTableRecord
100
AcDbDimStyleTableRecord
  2
23NSTD
 70
     0
 40
1.75
 42
0.063
 43
0.281
 44
0.093
140
0.125
271
     3
272
     3
289
     1
340
11
  0
DIMSTYLE
105
31
102
{ACAD_REACTORS
330
73B
330
749
330
765
330
8C0
330
8CE
330
8F8
330
971
330
97F
330
A6E
102
}
330
A
100
AcDbSymbolTableRecord
100
AcDbDimStyleTableRecord
  2
23NSTDI
 70
     0
 40
1.75
 42
0.063
 43
0.281
 44
0.093
140
0.125
174
     1
271
     3
272
     3
340
11
  0
DIMSTYLE
105
32
102
{ACAD_REACTORS
330
B03
330
B6E
102
}
330
A
100
AcDbSymbolTableRecord
100
AcDbDimStyleTableRecord
  2
23NSTD4
 70
     0
 40
1.75
 42
0.063
 43
0.281
 44
0.093
140
0.125
144
0.25
271
     3
272
     3
289
     1
340
11
  0
DIMSTYLE
105
33
102
{ACAD_REACTORS
330
B52
330
B60
330
B7C
102
}
330
A
100
AcDbSymbolTableRecord
100
AcDbDimStyleTableRecord
  2
23NSTD4I
 70
     0
 40
1.75
 42
0.063
 43
0.281
 44
0.093
140
0.125
144
0.25
174
     1
271
     3
272
     3
340
11
  0
ENDTAB
  0
TABLE
  2
BLOCK_RECORD
  5
1
330
0
100
AcDbSymbolTable
 70
    49
  0
BLOCK_RECORD
  5
1E
330
1
100
AcDbSymbolTableRecord
100
AcDbBlockTableRecord
  2
*Model_Space
340
21
  0
BLOCK_RECORD
  5
1A
330
1
100
AcDbSymbolTableRecord
100
AcDbBlockTableRecord
  2
*Paper_Space
340
1D
  0
BLOCK_RECORD
  5
36
330
1
100
AcDbSymbolTableRecord
100
AcDbBlockTableRecord
  2
SECTION
340
0
102
{BLKREFS
331
85C
331
86B
331
A04
331
A07
102
}
  0
BLOCK_RECORD
  5
6CC
330
1
100
AcDbSymbolTableRecord
100
AcDbBlockTableRecord
  2
*D1
340
0
  0
BLOCK_RECORD
  5
6DA
330
1
100
AcDbSymbolTableRecord
100
AcDbBlockTableRecord
  2
*D2
340
0
  0
BLOCK_RECORD
  5
6E8
330
1
100
AcDbSymbolTableRecord
100
AcDbBlockTableRecord
  2
*D3
340
0
  0
BLOCK_RECORD
  5
6F6
330
1
100
AcDbSymbolTableRecord
100
AcDbBlockTableRecord
  2
*D4
340
0
  0
BLOCK_RECORD
  5
704
330
1
100
AcDbSymbolTableRecord
100
AcDbBlockTableRecord
  2
*D5
340
0
  0
BLOCK_RECORD
  5
712
330
1
100
AcDbSymbolTableRecord
100
AcDbBlockTableRecord
  2
*D6
340
0
  0
BLOCK_RECORD
  5
720
330
1
100
AcDbSymbolTableRecord
100
AcDbBlockTableRecord
  2
*D7
340
0
  0
BLOCK_RECORD
  5
72E
330
1
100
AcDbSymbolTableRecord
100
AcDbBlockTableRecord
  2
*D8
340
0
  0
BLOCK_RECORD
  5
73C
330
1
100
AcDbSymbolTableRecord
100
AcDbBlockTableRecord
  2
*D9
340
0
  0
BLOCK_RECORD
  5
74A
330
1
100
AcDbSymbolTableRecord
100
AcDbBlockTableRecord
  2
*D10
340
0
  0
BLOCK_RECORD
  5
758
330
1
100
AcDbSymbolTableRecord
100
AcDbBlockTableRecord
  2
*D11
340
0
  0
BLOCK_RECORD
  5
766
330
1
100
AcDbSymbolTableRecord
100
AcDbBlockTableRecord
  2
*D12
340
0
  0
BLOCK_RECORD
  5
774
330
1
100
AcDbSymbolTableRecord
100
AcDbBlockTableRecord
  2
*D13
340
0
  0
BLOCK_RECORD
  5
782
330
1
100
AcDbSymbolTableRecord
100
AcDbBlockTableRecord
  2
*D14
340
0
  0
BLOCK_RECORD
  5
790
330
1
100
AcDbSymbolTableRecord
100
AcDbBlockTableRecord
  2
*D15
340
0
  0
BLOCK_RECORD
  5
79E
330
1
100
AcDbSymbolTableRecord
100
AcDbBlockTableRecord
  2
*D16
340
0
  0
BLOCK_RECORD
  5
7AC
330
1
100
AcDbSymbolTableRecord
100
AcDbBlockTableRecord
  2
*D17
340
0
  0
BLOCK_RECORD
  5
7BA
330
1
100
AcDbSymbolTableRecord
100
AcDbBlockTableRecord
  2
*D18
340
0
  0
BLOCK_RECORD
  5
86F
330
1
100
AcDbSymbolTableRecord
100
AcDbBlockTableRecord
  2
*D19
340
0
  0
BLOCK_RECORD
  5
8C1
330
1
100
AcDbSymbolTableRecord
100
AcDbBlockTableRecord
  2
*D20
340
0
  0
BLOCK_RECORD
  5
8CF
330
1
100
AcDbSymbolTableRecord
100
AcDbBlockTableRecord
  2
*D21
340
0
  0
BLOCK_RECORD
  5
8DD
330
1
100
AcDbSymbolTableRecord
100
AcDbBlockTableRecord
  2
*D22
340
0
  0
BLOCK_RECORD
  5
8EB
330
1
100
AcDbSymbolTableRecord
100
AcDbBlockTableRecord
  2
*D23
340
0
  0
BLOCK_RECORD
  5
8F9
330
1
100
AcDbSymbolTableRecord
100
AcDbBlockTableRecord
  2
*D24
340
0
  0
BLOCK_RECORD
  5
907
330
1
100
AcDbSymbolTableRecord
100
AcDbBlockTableRecord
  2
*D25
340
0
  0
BLOCK_RECORD
  5
91B
330
1
100
AcDbSymbolTableRecord
100
AcDbBlockTableRecord
  2
*D26
340
0
  0
BLOCK_RECORD
  5
929
330
1
100
AcDbSymbolTableRecord
100
AcDbBlockTableRecord
  2
*D27
340
0
  0
BLOCK_RECORD
  5
937
330
1
100
AcDbSymbolTableRecord
100
AcDbBlockTableRecord
  2
*D28
340
0
  0
BLOCK_RECORD
  5
964
330
1
100
AcDbSymbolTableRecord
100
AcDbBlockTableRecord
  2
*D29
340
0
  0
BLOCK_RECORD
  5
972
330
1
100
AcDbSymbolTableRecord
100
AcDbBlockTableRecord
  2
*D30
340
0
  0
BLOCK_RECORD
  5
980
330
1
100
AcDbSymbolTableRecord
100
AcDbBlockTableRecord
  2
*D31
340
0
  0
BLOCK_RECORD
  5
99B
330
1
100
AcDbSymbolTableRecord
100
AcDbBlockTableRecord
  2
*D32
340
0
  0
BLOCK_RECORD
  5
9A9
330
1
100
AcDbSymbolTableRecord
100
AcDbBlockTableRecord
  2
*D33
340
0
  0
BLOCK_RECORD
  5
9B7
330
1
100
AcDbSymbolTableRecord
100
AcDbBlockTableRecord
  2
*D34
340
0
  0
BLOCK_RECORD
  5
9C5
330
1
100
AcDbSymbolTableRecord
100
AcDbBlockTableRecord
  2
*D35
340
0
  0
BLOCK_RECORD
  5
9D3
330
1
100
AcDbSymbolTableRecord
100
AcDbBlockTableRecord
  2
*D36
340
0
  0
BLOCK_RECORD
  5
9E1
330
1
100
AcDbSymbolTableRecord
100
AcDbBlockTableRecord
  2
*D37
340
0
  0
BLOCK_RECORD
  5
9F7
330
1
100
AcDbSymbolTableRecord
100
AcDbBlockTableRecord
  2
*D38
340
0
  0
BLOCK_RECORD
  5
A6F
330
1
100
AcDbSymbolTableRecord
100
AcDbBlockTableRecord
  2
*D39
340
0
  0
BLOCK_RECORD
  5
A7D
330
1
100
AcDbSymbolTableRecord
100
AcDbBlockTableRecord
  2
*D40
340
0
  0
BLOCK_RECORD
  5
AA1
330
1
100
AcDbSymbolTableRecord
100
AcDbBlockTableRecord
  2
*D41
340
0
  0
BLOCK_RECORD
  5
AAF
330
1
100
AcDbSymbolTableRecord
100
AcDbBlockTableRecord
  2
*D42
340
0
  0
BLOCK_RECORD
  5
B04
330
1
100
AcDbSymbolTableRecord
100
AcDbBlockTableRecord
  2
*D43
340
0
  0
BLOCK_RECORD
  5
B53
330
1
100
AcDbSymbolTableRecord
100
AcDbBlockTableRecord
  2
*D44
340
0
  0
BLOCK_RECORD
  5
B61
330
1
100
AcDbSymbolTableRecord
100
AcDbBlockTableRecord
  2
*D45
340
0
  0
BLOCK_RECORD
  5
B6F
330
1
100
AcDbSymbolTableRecord
100
AcDbBlockTableRecord
  2
*D46
340
0
  0
BLOCK_RECORD
  5
B7D
330
1
100
AcDbSymbolTableRecord
100
AcDbBlockTableRecord
  2
*D47
340
0
  0
BLOCK_RECORD
  5
103B
330
1
100
AcDbSymbolTableRecord
100
AcDbBlockTableRecord
  2
HBS
340
0
102
{BLKREFS
331
105C
102
}
  0
ENDTAB
  0
ENDSEC
  0
SECTION
  2
BLOCKS
  0
BLOCK
  5
1F
330
1E
100
AcDbEntity
  8
0
100
AcDbBlockBegin
  2
*Model_Space
 70
     0
 10
0.0
 20
0.0
 30
0.0
  3
*Model_Space
  1

  0
ENDBLK
  5
20
330
1E
100
AcDbEntity
  8
0
100
AcDbBlockEnd
  0
BLOCK
  5
1B
330
1A
100
AcDbEntity
 67
     1
  8
0
100
AcDbBlockBegin
  2
*Paper_Space
 70
     0
 10
0.0
 20
0.0
 30
0.0
  3
*Paper_Space
  1

  0
ENDBLK
  5
1C
330
1A
100
AcDbEntity
 67
     1
  8
0
100
AcDbBlockEnd
  0
BLOCK
  5
37
330
36
100
AcDbEntity
  8
0
100
AcDbBlockBegin
  2
SECTION
 70
     2
 10
0.0
 20
0.0
 30
0.0
  3
SECTION
  1

  0
ATTDEF
  5
38
330
36
100
AcDbEntity
  8
0
100
AcDbText
 10
0.0
 20
0.0
 30
0.0
 40
0.25
  1

 50
270.0
 41
0.8
  7
SECTION
 72
     4
 11
0.0
 21
0.0
 31
0.0
100
AcDbAttributeDefinition
  3
Enter section
  2
SECTION
 70
     0
  0
ENDBLK
  5
39
330
36
100
AcDbEntity
  8
0
100
AcDbBlockEnd
  0
BLOCK
  5
6D7
330
6CC
100
AcDbEntity
  8
0
100
AcDbBlockBegin
  2
*D1
 70
     1
 10
0.0
 20
0.0
 30
0.0
  3
*D1
  1

  0
LINE
  5
177A
330
6CC
100
AcDbEntity
  8
DIM
 62
     0
370
    -2
100
AcDbLine
 10
4.271193710273529
 20
11.098885
 30
0.0
 11
0.923766710273531
 21
11.098885
 31
0.0
  0
LINE
  5
177B
330
6CC
100
AcDbEntity
  8
DIM
 62
     0
370
    -2
100
AcDbLine
 10
4.253943710273529
 20
11.334885
 30
0.0
 11
0.923766710273531
 21
11.334885
 31
0.0
  0
LINE
  5
177C
330
6CC
100
AcDbEntity
  8
DIM
 62
     0
370
    -2
100
AcDbLine
 10
1.08651671027353
 20
10.783885
 30
0.0
 11
1.08651671027353
 21
10.468885
 31
0.0
  0
LINE
  5
177D
330
6CC
100
AcDbEntity
  8
DIM
 62
     0
370
    -2
100
AcDbLine
 10
1.086516710273531
 20
11.649885
 30
0.0
 11
1.086516710273531
 21
11.964885
 31
0.0
  0
LINE
  5
177E
330
6CC
100
AcDbEntity
  8
DIM
 62
     0
370
    -2
100
AcDbLine
 10
1.086516710273531
 20
11.964885
 30
0.0
 11
1.401516710273531
 21
11.964885
 31
0.0
  0
SOLID
  5
177F
330
6CC
100
AcDbEntity
  8
DIM
 62
     0
100
AcDbTrace
 10
1.03401671027353
 20
10.783885
 30
0.0
 11
1.13901671027353
 21
10.783885
 31
0.0
 12
1.08651671027353
 22
11.098885
 32
0.0
 13
1.08651671027353
 23
11.098885
 33
0.0
  0
SOLID
  5
1780
330
6CC
100
AcDbEntity
  8
DIM
 62
     0
100
AcDbTrace
 10
1.034016710273531
 20
11.649885
 30
0.0
 11
1.139016710273531
 21
11.649885
 31
0.0
 12
1.08651671027353
 22
11.334885
 32
0.0
 13
1.08651671027353
 23
11.334885
 33
0.0
  0
MTEXT
  5
1781
330
6CC
100
AcDbEntity
  8
DIM
 62
     0
100
AcDbMText
 10
1.873469835273528
 20
11.964885
 30
0.0
 40
0.21875
 41
0.0
 71
     5
 72
     1
  1
\A1;0.236
 73
     1
 44
1.0
  0
POINT
  5
1782
330
6CC
100
AcDbEntity
  8
DEFPOINTS
 62
     0
100
AcDbPoint
 10
4.381443710273528
 20
11.098885
 30
0.0
  0
POINT
  5
1783
330
6CC
100
AcDbEntity
  8
DEFPOINTS
 62
     0
100
AcDbPoint
 10
4.364193710273529
 20
11.334885
 30
0.0
  0
POINT
  5
1784
330
6CC
100
AcDbEntity
  8
DEFPOINTS
 62
     0
100
AcDbPoint
 10
1.08651671027353
 20
11.334885
 30
0.0
  0
ENDBLK
  5
6D8
330
6CC
100
AcDbEntity
  8
0
100
AcDbBlockEnd
  0
BLOCK
  5
6E5
330
6DA
100
AcDbEntity
  8
0
100
AcDbBlockBegin
  2
*D2
 70
     1
 10
0.0
 20
0.0
 30
0.0
  3
*D2
  1

  0
LINE
  5
1680
330
6DA
100
AcDbEntity
  8
DIM
 62
     0
370
    -2
100
AcDbLine
 10
4.271193710273529
 20
5.271885
 30
0.0
 11
0.9237667102735315
 21
5.271885000000001
 31
0.0
  0
LINE
  5
1681
330
6DA
100
AcDbEntity
  8
DIM
 62
     0
370
    -2
100
AcDbLine
 10
4.271193710273529
 20
11.098885
 30
0.0
 11
0.9237667102735327
 21
11.098885
 31
0.0
  0
LINE
  5
1682
330
6DA
100
AcDbEntity
  8
DIM
 62
     0
370
    -2
100
AcDbLine
 10
1.086516710273531
 20
5.586885000000001
 30
0.0
 11
1.086516710273532
 21
7.918510000000002
 31
0.0
  0
LINE
  5
1683
330
6DA
100
AcDbEntity
  8
DIM
 62
     0
370
    -2
100
AcDbLine
 10
1.086516710273532
 20
10.783885
 30
0.0
 11
1.086516710273532
 21
8.452260000000002
 31
0.0
  0
SOLID
  5
1684
330
6DA
100
AcDbEntity
  8
DIM
 62
     0
100
AcDbTrace
 10
1.034016710273531
 20
5.586885000000001
 30
0.0
 11
1.139016710273531
 21
5.586885000000001
 31
0.0
 12
1.086516710273531
 22
5.271885000000001
 32
0.0
 13
1.086516710273531
 23
5.271885000000001
 33
0.0
  0
SOLID
  5
1685
330
6DA
100
AcDbEntity
  8
DIM
 62
     0
100
AcDbTrace
 10
1.034016710273532
 20
10.783885
 30
0.0
 11
1.139016710273532
 21
10.783885
 31
0.0
 12
1.086516710273532
 22
11.098885
 32
0.0
 13
1.086516710273532
 23
11.098885
 33
0.0
  0
MTEXT
  5
1686
330
6DA
100
AcDbEntity
  8
DIM
 62
     0
100
AcDbMText
 10
1.08651671027353
 20
8.185385000000001
 30
0.0
 40
0.21875
 41
0.0
 71
     5
 72
     1
  1
\A1;5.827
 73
     1
 44
1.0
  0
POINT
  5
1687
330
6DA
100
AcDbEntity
  8
DEFPOINTS
 62
     0
100
AcDbPoint
 10
4.381443710273528
 20
5.271885
 30
0.0
  0
POINT
  5
1688
330
6DA
100
AcDbEntity
  8
DEFPOINTS
 62
     0
100
AcDbPoint
 10
4.381443710273528
 20
11.098885
 30
0.0
  0
POINT
  5
1689
330
6DA
100
AcDbEntity
  8
DEFPOINTS
 62
     0
100
AcDbPoint
 10
1.086516710273532
 20
11.098885
 30
0.0
  0
ENDBLK
  5
6E6
330
6DA
100
AcDbEntity
  8
0
100
AcDbBlockEnd
  0
BLOCK
  5
6F3
330
6E8
100
AcDbEntity
  8
0
100
AcDbBlockBegin
  2
*D3
 70
     1
 10
0.0
 20
0.0
 30
0.0
  3
*D3
  1

  0
LINE
  5
1785
330
6E8
100
AcDbEntity
  8
DIM
 62
     0
370
    -2
100
AcDbLine
 10
4.381443710273528
 20
11.209135
 30
0.0
 11
4.381443710273528
 21
13.35135799999999
 31
0.0
  0
LINE
  5
1786
330
6E8
100
AcDbEntity
  8
DIM
 62
     0
370
    -2
100
AcDbLine
 10
4.145443710273529
 20
11.226385
 30
0.0
 11
4.145443710273529
 21
13.35135799999999
 31
0.0
  0
LINE
  5
1787
330
6E8
100
AcDbEntity
  8
DIM
 62
     0
370
    -2
100
AcDbLine
 10
4.696443710273529
 20
13.18860799999999
 30
0.0
 11
5.011443710273528
 21
13.18860799999999
 31
0.0
  0
LINE
  5
1788
330
6E8
100
AcDbEntity
  8
DIM
 62
     0
370
    -2
100
AcDbLine
 10
3.830443710273529
 20
13.18860799999999
 30
0.0
 11
3.515443710273529
 21
13.18860799999999
 31
0.0
  0
SOLID
  5
1789
330
6E8
100
AcDbEntity
  8
DIM
 62
     0
100
AcDbTrace
 10
4.696443710273529
 20
13.24110799999999
 30
0.0
 11
4.696443710273529
 21
13.13610799999999
 31
0.0
 12
4.381443710273528
 22
13.18860799999999
 32
0.0
 13
4.381443710273528
 23
13.18860799999999
 33
0.0
  0
SOLID
  5
178A
330
6E8
100
AcDbEntity
  8
DIM
 62
     0
100
AcDbTrace
 10
3.830443710273529
 20
13.24110799999999
 30
0.0
 11
3.830443710273529
 21
13.13610799999999
 31
0.0
 12
4.145443710273529
 22
13.18860799999999
 32
0.0
 13
4.145443710273529
 23
13.18860799999999
 33
0.0
  0
MTEXT
  5
178B
330
6E8
100
AcDbEntity
  8
DIM
 62
     0
100
AcDbMText
 10
3.043490585273529
 20
13.18860799999999
 30
0.0
 40
0.21875
 41
0.0
 71
     5
 72
     1
  1
\A1;0.236
 73
     1
 44
1.0
  0
POINT
  5
178C
330
6E8
100
AcDbEntity
  8
DEFPOINTS
 62
     0
100
AcDbPoint
 10
4.381443710273528
 20
11.098885
 30
0.0
  0
POINT
  5
178D
330
6E8
100
AcDbEntity
  8
DEFPOINTS
 62
     0
100
AcDbPoint
 10
4.145443710273529
 20
11.116135
 30
0.0
  0
POINT
  5
178E
330
6E8
100
AcDbEntity
  8
DEFPOINTS
 62
     0
100
AcDbPoint
 10
4.145443710273529
 20
13.18860799999999
 30
0.0
  0
ENDBLK
  5
6F4
330
6E8
100
AcDbEntity
  8
0
100
AcDbBlockEnd
  0
BLOCK
  5
701
330
6F6
100
AcDbEntity
  8
0
100
AcDbBlockBegin
  2
*D4
 70
     1
 10
0.0
 20
0.0
 30
0.0
  3
*D4
  1

  0
LINE
  5
1770
330
6F6
100
AcDbEntity
  8
DIM
 62
     0
370
    -2
100
AcDbLine
 10
4.736443710273529
 20
11.209135
 30
0.0
 11
4.736443710273529
 21
12.508358
 31
0.0
  0
LINE
  5
1771
330
6F6
100
AcDbEntity
  8
DIM
 62
     0
370
    -2
100
AcDbLine
 10
4.145443710273529
 20
11.226385
 30
0.0
 11
4.145443710273529
 21
12.508358
 31
0.0
  0
LINE
  5
1772
330
6F6
100
AcDbEntity
  8
DIM
 62
     0
370
    -2
100
AcDbLine
 10
5.051443710273529
 20
12.345608
 30
0.0
 11
5.366443710273529
 21
12.345608
 31
0.0
  0
LINE
  5
1773
330
6F6
100
AcDbEntity
  8
DIM
 62
     0
370
    -2
100
AcDbLine
 10
3.830443710273529
 20
12.345608
 30
0.0
 11
3.515443710273529
 21
12.345608
 31
0.0
  0
SOLID
  5
1774
330
6F6
100
AcDbEntity
  8
DIM
 62
     0
100
AcDbTrace
 10
5.051443710273529
 20
12.398108
 30
0.0
 11
5.051443710273529
 21
12.293108
 31
0.0
 12
4.736443710273529
 22
12.345608
 32
0.0
 13
4.736443710273529
 23
12.345608
 33
0.0
  0
SOLID
  5
1775
330
6F6
100
AcDbEntity
  8
DIM
 62
     0
100
AcDbTrace
 10
3.830443710273529
 20
12.398108
 30
0.0
 11
3.830443710273529
 21
12.293108
 31
0.0
 12
4.145443710273529
 22
12.345608
 32
0.0
 13
4.145443710273529
 23
12.345608
 33
0.0
  0
MTEXT
  5
1776
330
6F6
100
AcDbEntity
  8
DIM
 62
     0
100
AcDbMText
 10
3.070834335273529
 20
12.345608
 30
0.0
 40
0.21875
 41
0.0
 71
     5
 72
     1
  1
\A1;0.591
 73
     1
 44
1.0
  0
POINT
  5
1777
330
6F6
100
AcDbEntity
  8
DEFPOINTS
 62
     0
100
AcDbPoint
 10
4.736443710273529
 20
11.098885
 30
0.0
  0
POINT
  5
1778
330
6F6
100
AcDbEntity
  8
DEFPOINTS
 62
     0
100
AcDbPoint
 10
4.145443710273529
 20
11.116135
 30
0.0
  0
POINT
  5
1779
330
6F6
100
AcDbEntity
  8
DEFPOINTS
 62
     0
100
AcDbPoint
 10
4.145443710273529
 20
12.345608
 30
0.0
  0
ENDBLK
  5
702
330
6F6
100
AcDbEntity
  8
0
100
AcDbBlockEnd
  0
BLOCK
  5
70F
330
704
100
AcDbEntity
  8
0
100
AcDbBlockBegin
  2
*D5
 70
     1
 10
0.0
 20
0.0
 30
0.0
  3
*D5
  1

  0
LINE
  5
1766
330
704
100
AcDbEntity
  8
DIM
 62
     0
370
    -2
100
AcDbLine
 10
4.736443710273529
 20
11.209135
 30
0.0
 11
4.736443710273529
 21
12.508358
 31
0.0
  0
LINE
  5
1767
330
704
100
AcDbEntity
  8
DIM
 62
     0
370
    -2
100
AcDbLine
 10
6.704443710273529
 20
11.757537
 30
0.0
 11
6.704443710273529
 21
12.508358
 31
0.0
  0
LINE
  5
1768
330
704
100
AcDbEntity
  8
DIM
 62
     0
370
    -2
100
AcDbLine
 10
5.051443710273529
 20
12.345608
 30
0.0
 11
5.262162460273529
 21
12.345608
 31
0.0
  0
LINE
  5
1769
330
704
100
AcDbEntity
  8
DIM
 62
     0
370
    -2
100
AcDbLine
 10
6.389443710273528
 20
12.345608
 30
0.0
 11
6.178724960273529
 21
12.345608
 31
0.0
  0
SOLID
  5
176A
330
704
100
AcDbEntity
  8
DIM
 62
     0
100
AcDbTrace
 10
5.051443710273529
 20
12.398108
 30
0.0
 11
5.051443710273529
 21
12.293108
 31
0.0
 12
4.736443710273529
 22
12.345608
 32
0.0
 13
4.736443710273529
 23
12.345608
 33
0.0
  0
SOLID
  5
176B
330
704
100
AcDbEntity
  8
DIM
 62
     0
100
AcDbTrace
 10
6.389443710273528
 20
12.398108
 30
0.0
 11
6.389443710273528
 21
12.293108
 31
0.0
 12
6.704443710273529
 22
12.345608
 32
0.0
 13
6.704443710273529
 23
12.345608
 33
0.0
  0
MTEXT
  5
176C
330
704
100
AcDbEntity
  8
DIM
 62
     0
100
AcDbMText
 10
5.720443710273529
 20
12.345608
 30
0.0
 40
0.21875
 41
0.0
 71
     5
 72
     1
  1
\A1;1.968
 73
     1
 44
1.0
  0
POINT
  5
176D
330
704
100
AcDbEntity
  8
DEFPOINTS
 62
     0
100
AcDbPoint
 10
4.736443710273529
 20
11.098885
 30
0.0
  0
POINT
  5
176E
330
704
100
AcDbEntity
  8
DEFPOINTS
 62
     0
100
AcDbPoint
 10
6.704443710273529
 20
11.647287
 30
0.0
  0
POINT
  5
176F
330
704
100
AcDbEntity
  8
DEFPOINTS
 62
     0
100
AcDbPoint
 10
6.704443710273529
 20
12.345608
 30
0.0
  0
ENDBLK
  5
710
330
704
100
AcDbEntity
  8
0
100
AcDbBlockEnd
  0
BLOCK
  5
71D
330
712
100
AcDbEntity
  8
0
100
AcDbBlockBegin
  2
*D6
 70
     1
 10
0.0
 20
0.0
 30
0.0
  3
*D6
  1

  0
LINE
  5
175C
330
712
100
AcDbEntity
  8
DIM
 62
     0
370
    -2
100
AcDbLine
 10
4.381443710273528
 20
11.209135
 30
0.0
 11
4.381443710273528
 21
13.35135799999999
 31
0.0
  0
LINE
  5
175D
330
712
100
AcDbEntity
  8
DIM
 62
     0
370
    -2
100
AcDbLine
 10
7.059443710273527
 20
11.209135
 30
0.0
 11
7.059443710273527
 21
13.35135799999999
 31
0.0
  0
LINE
  5
175E
330
712
100
AcDbEntity
  8
DIM
 62
     0
370
    -2
100
AcDbLine
 10
4.696443710273529
 20
13.18860799999999
 30
0.0
 11
5.234818710273528
 21
13.18860799999999
 31
0.0
  0
LINE
  5
175F
330
712
100
AcDbEntity
  8
DIM
 62
     0
370
    -2
100
AcDbLine
 10
6.744443710273527
 20
13.18860799999999
 30
0.0
 11
6.206068710273528
 21
13.18860799999999
 31
0.0
  0
SOLID
  5
1760
330
712
100
AcDbEntity
  8
DIM
 62
     0
100
AcDbTrace
 10
4.696443710273529
 20
13.24110799999999
 30
0.0
 11
4.696443710273529
 21
13.13610799999999
 31
0.0
 12
4.381443710273528
 22
13.18860799999999
 32
0.0
 13
4.381443710273528
 23
13.18860799999999
 33
0.0
  0
SOLID
  5
1761
330
712
100
AcDbEntity
  8
DIM
 62
     0
100
AcDbTrace
 10
6.744443710273527
 20
13.24110799999999
 30
0.0
 11
6.744443710273527
 21
13.13610799999999
 31
0.0
 12
7.059443710273527
 22
13.18860799999999
 32
0.0
 13
7.059443710273527
 23
13.18860799999999
 33
0.0
  0
MTEXT
  5
1762
330
712
100
AcDbEntity
  8
DIM
 62
     0
100
AcDbMText
 10
5.720443710273528
 20
13.18860799999999
 30
0.0
 40
0.21875
 41
0.0
 71
     5
 72
     1
  1
\A1;2.678
 73
     1
 44
1.0
  0
POINT
  5
1763
330
712
100
AcDbEntity
  8
DEFPOINTS
 62
     0
100
AcDbPoint
 10
4.381443710273528
 20
11.098885
 30
0.0
  0
POINT
  5
1764
330
712
100
AcDbEntity
  8
DEFPOINTS
 62
     0
100
AcDbPoint
 10
7.059443710273527
 20
11.098885
 30
0.0
  0
POINT
  5
1765
330
712
100
AcDbEntity
  8
DEFPOINTS
 62
     0
100
AcDbPoint
 10
7.059443710273527
 20
13.18860799999999
 30
0.0
  0
ENDBLK
  5
71E
330
712
100
AcDbEntity
  8
0
100
AcDbBlockEnd
  0
BLOCK
  5
72B
330
720
100
AcDbEntity
  8
0
100
AcDbBlockBegin
  2
*D7
 70
     1
 10
0.0
 20
0.0
 30
0.0
  3
*D7
  1

  0
LINE
  5
1752
330
720
100
AcDbEntity
  8
DIM
 62
     0
370
    -2
100
AcDbLine
 10
4.578443710273528
 20
10.687135
 30
0.0
 11
4.578443710273528
 21
12.929858
 31
0.0
  0
LINE
  5
1753
330
720
100
AcDbEntity
  8
DIM
 62
     0
370
    -2
100
AcDbLine
 10
4.145443710273529
 20
11.226385
 30
0.0
 11
4.145443710273529
 21
12.929858
 31
0.0
  0
LINE
  5
1754
330
720
100
AcDbEntity
  8
DIM
 62
     0
370
    -2
100
AcDbLine
 10
4.893443710273529
 20
12.767108
 30
0.0
 11
5.208443710273528
 21
12.767108
 31
0.0
  0
LINE
  5
1755
330
720
100
AcDbEntity
  8
DIM
 62
     0
370
    -2
100
AcDbLine
 10
3.830443710273529
 20
12.767108
 30
0.0
 11
3.515443710273529
 21
12.767108
 31
0.0
  0
SOLID
  5
1756
330
720
100
AcDbEntity
  8
DIM
 62
     0
100
AcDbTrace
 10
4.893443710273529
 20
12.819608
 30
0.0
 11
4.893443710273529
 21
12.714608
 31
0.0
 12
4.578443710273528
 22
12.767108
 32
0.0
 13
4.578443710273528
 23
12.767108
 33
0.0
  0
SOLID
  5
1757
330
720
100
AcDbEntity
  8
DIM
 62
     0
100
AcDbTrace
 10
3.830443710273529
 20
12.819608
 30
0.0
 11
3.830443710273529
 21
12.714608
 31
0.0
 12
4.145443710273529
 22
12.767108
 32
0.0
 13
4.145443710273529
 23
12.767108
 33
0.0
  0
MTEXT
  5
1758
330
720
100
AcDbEntity
  8
DIM
 62
     0
100
AcDbMText
 10
3.070834335273529
 20
12.767108
 30
0.0
 40
0.21875
 41
0.0
 71
     5
 72
     1
  1
\A1;0.431
 73
     1
 44
1.0
  0
POINT
  5
1759
330
720
100
AcDbEntity
  8
DEFPOINTS
 62
     0
100
AcDbPoint
 10
4.578443710273528
 20
10.576885
 30
0.0
  0
POINT
  5
175A
330
720
100
AcDbEntity
  8
DEFPOINTS
 62
     0
100
AcDbPoint
 10
4.145443710273529
 20
11.116135
 30
0.0
  0
POINT
  5
175B
330
720
100
AcDbEntity
  8
DEFPOINTS
 62
     0
100
AcDbPoint
 10
4.145443710273529
 20
12.767108
 30
0.0
  0
ENDBLK
  5
72C
330
720
100
AcDbEntity
  8
0
100
AcDbBlockEnd
  0
BLOCK
  5
739
330
72E
100
AcDbEntity
  8
0
100
AcDbBlockBegin
  2
*D8
 70
     1
 10
0.0
 20
0.0
 30
0.0
  3
*D8
  1

  0
LINE
  5
1748
330
72E
100
AcDbEntity
  8
DIM
 62
     0
370
    -2
100
AcDbLine
 10
6.862443710273528
 20
10.904494
 30
0.0
 11
6.862443710273528
 21
12.929858
 31
0.0
  0
LINE
  5
1749
330
72E
100
AcDbEntity
  8
DIM
 62
     0
370
    -2
100
AcDbLine
 10
4.578443710273528
 20
10.687135
 30
0.0
 11
4.578443710273528
 21
12.929858
 31
0.0
  0
LINE
  5
174A
330
72E
100
AcDbEntity
  8
DIM
 62
     0
370
    -2
100
AcDbLine
 10
6.547443710273528
 20
12.767108
 30
0.0
 11
6.206068710273528
 21
12.767108
 31
0.0
  0
LINE
  5
174B
330
72E
100
AcDbEntity
  8
DIM
 62
     0
370
    -2
100
AcDbLine
 10
4.893443710273529
 20
12.767108
 30
0.0
 11
5.234818710273528
 21
12.767108
 31
0.0
  0
SOLID
  5
174C
330
72E
100
AcDbEntity
  8
DIM
 62
     0
100
AcDbTrace
 10
6.547443710273528
 20
12.819608
 30
0.0
 11
6.547443710273528
 21
12.714608
 31
0.0
 12
6.862443710273528
 22
12.767108
 32
0.0
 13
6.862443710273528
 23
12.767108
 33
0.0
  0
SOLID
  5
174D
330
72E
100
AcDbEntity
  8
DIM
 62
     0
100
AcDbTrace
 10
4.893443710273529
 20
12.819608
 30
0.0
 11
4.893443710273529
 21
12.714608
 31
0.0
 12
4.578443710273528
 22
12.767108
 32
0.0
 13
4.578443710273528
 23
12.767108
 33
0.0
  0
MTEXT
  5
174E
330
72E
100
AcDbEntity
  8
DIM
 62
     0
100
AcDbMText
 10
5.720443710273528
 20
12.767108
 30
0.0
 40
0.21875
 41
0.0
 71
     5
 72
     1
  1
\A1;2.284
 73
     1
 44
1.0
  0
POINT
  5
174F
330
72E
100
AcDbEntity
  8
DEFPOINTS
 62
     0
100
AcDbPoint
 10
6.862443710273528
 20
10.794244
 30
0.0
  0
POINT
  5
1750
330
72E
100
AcDbEntity
  8
DEFPOINTS
 62
     0
100
AcDbPoint
 10
4.578443710273528
 20
10.576885
 30
0.0
  0
POINT
  5
1751
330
72E
100
AcDbEntity
  8
DEFPOINTS
 62
     0
100
AcDbPoint
 10
4.578443710273528
 20
12.767108
 30
0.0
  0
ENDBLK
  5
73A
330
72E
100
AcDbEntity
  8
0
100
AcDbBlockEnd
  0
BLOCK
  5
747
330
73C
100
AcDbEntity
  8
0
100
AcDbBlockBegin
  2
*D9
 70
     1
 10
0.0
 20
0.0
 30
0.0
  3
*D9
  1

  0
LINE
  5
16F8
330
73C
100
AcDbEntity
  8
DIM
 62
     0
370
    -2
100
AcDbLine
 10
4.960443710273529
 20
5.141634999999999
 30
0.0
 11
4.960443710273529
 21
3.534084999999999
 31
0.0
  0
LINE
  5
16F9
330
73C
100
AcDbEntity
  8
DIM
 62
     0
370
    -2
100
AcDbLine
 10
4.145443710273529
 20
5.144384999999999
 30
0.0
 11
4.145443710273529
 21
3.534084999999999
 31
0.0
  0
LINE
  5
16FA
330
73C
100
AcDbEntity
  8
DIM
 62
     0
370
    -2
100
AcDbLine
 10
5.275443710273529
 20
3.696834999999999
 30
0.0
 11
5.590443710273529
 21
3.696834999999999
 31
0.0
  0
LINE
  5
16FB
330
73C
100
AcDbEntity
  8
DIM
 62
     0
370
    -2
100
AcDbLine
 10
3.830443710273529
 20
3.696834999999999
 30
0.0
 11
3.515443710273529
 21
3.696834999999999
 31
0.0
  0
SOLID
  5
16FC
330
73C
100
AcDbEntity
  8
DIM
 62
     0
100
AcDbTrace
 10
5.275443710273529
 20
3.749334999999999
 30
0.0
 11
5.275443710273529
 21
3.644334999999999
 31
0.0
 12
4.960443710273529
 22
3.696834999999999
 32
0.0
 13
4.960443710273529
 23
3.696834999999999
 33
0.0
  0
SOLID
  5
16FD
330
73C
100
AcDbEntity
  8
DIM
 62
     0
100
AcDbTrace
 10
3.830443710273529
 20
3.749334999999999
 30
0.0
 11
3.830443710273529
 21
3.644334999999999
 31
0.0
 12
4.145443710273529
 22
3.696834999999999
 32
0.0
 13
4.145443710273529
 23
3.696834999999999
 33
0.0
  0
MTEXT
  5
16FE
330
73C
100
AcDbEntity
  8
DIM
 62
     0
100
AcDbMText
 10
4.552943710273529
 20
3.696834999999999
 30
0.0
 40
0.21875
 41
0.0
 71
     5
 72
     1
  1
\A1;0.815
 73
     1
 44
1.0
  0
POINT
  5
16FF
330
73C
100
AcDbEntity
  8
DEFPOINTS
 62
     0
100
AcDbPoint
 10
4.960443710273529
 20
5.251884999999999
 30
0.0
  0
POINT
  5
1700
330
73C
100
AcDbEntity
  8
DEFPOINTS
 62
     0
100
AcDbPoint
 10
4.145443710273529
 20
5.254634999999999
 30
0.0
  0
POINT
  5
1701
330
73C
100
AcDbEntity
  8
DEFPOINTS
 62
     0
100
AcDbPoint
 10
4.145443710273529
 20
3.696834999999999
 30
0.0
  0
ENDBLK
  5
748
330
73C
100
AcDbEntity
  8
0
100
AcDbBlockEnd
  0
BLOCK
  5
755
330
74A
100
AcDbEntity
  8
0
100
AcDbBlockBegin
  2
*D10
 70
     1
 10
0.0
 20
0.0
 30
0.0
  3
*D10
  1

  0
LINE
  5
16EE
330
74A
100
AcDbEntity
  8
DIM
 62
     0
370
    -2
100
AcDbLine
 10
4.960443710273529
 20
5.141634999999999
 30
0.0
 11
4.960443710273529
 21
3.955585
 31
0.0
  0
LINE
  5
16EF
330
74A
100
AcDbEntity
  8
DIM
 62
     0
370
    -2
100
AcDbLine
 10
6.480443710273529
 20
5.141634999999999
 30
0.0
 11
6.480443710273529
 21
3.955585
 31
0.0
  0
LINE
  5
16F0
330
74A
100
AcDbEntity
  8
DIM
 62
     0
370
    -2
100
AcDbLine
 10
4.645443710273529
 20
4.118335
 30
0.0
 11
4.330443710273529
 21
4.118335
 31
0.0
  0
LINE
  5
16F1
330
74A
100
AcDbEntity
  8
DIM
 62
     0
370
    -2
100
AcDbLine
 10
6.795443710273529
 20
4.118335
 30
0.0
 11
7.110443710273528
 21
4.118335
 31
0.0
  0
SOLID
  5
16F2
330
74A
100
AcDbEntity
  8
DIM
 62
     0
100
AcDbTrace
 10
4.645443710273529
 20
4.170835
 30
0.0
 11
4.645443710273529
 21
4.065834999999999
 31
0.0
 12
4.960443710273529
 22
4.118335
 32
0.0
 13
4.960443710273529
 23
4.118335
 33
0.0
  0
SOLID
  5
16F3
330
74A
100
AcDbEntity
  8
DIM
 62
     0
100
AcDbTrace
 10
6.795443710273529
 20
4.170835
 30
0.0
 11
6.795443710273529
 21
4.065834999999999
 31
0.0
 12
6.480443710273529
 22
4.118335
 32
0.0
 13
6.480443710273529
 23
4.118335
 33
0.0
  0
MTEXT
  5
16F4
330
74A
100
AcDbEntity
  8
DIM
 62
     0
100
AcDbMText
 10
5.720443710273529
 20
4.118335
 30
0.0
 40
0.21875
 41
0.0
 71
     5
 72
     1
  1
\A1;1.520
 73
     1
 44
1.0
  0
POINT
  5
16F5
330
74A
100
AcDbEntity
  8
DEFPOINTS
 62
     0
100
AcDbPoint
 10
4.960443710273529
 20
5.251884999999999
 30
0.0
  0
POINT
  5
16F6
330
74A
100
AcDbEntity
  8
DEFPOINTS
 62
     0
100
AcDbPoint
 10
6.480443710273529
 20
5.251884999999999
 30
0.0
  0
POINT
  5
16F7
330
74A
100
AcDbEntity
  8
DEFPOINTS
 62
     0
100
AcDbPoint
 10
6.480443710273529
 20
4.118335
 30
0.0
  0
ENDBLK
  5
756
330
74A
100
AcDbEntity
  8
0
100
AcDbBlockEnd
  0
BLOCK
  5
763
330
758
100
AcDbEntity
  8
0
100
AcDbBlockBegin
  2
*D11
 70
     1
 10
0.0
 20
0.0
 30
0.0
  3
*D11
  1

  0
LINE
  5
16E4
330
758
100
AcDbEntity
  8
DIM
 62
     0
370
    -2
100
AcDbLine
 10
4.145443710273529
 20
5.144384999999999
 30
0.0
 11
4.145443710273529
 21
3.089186
 31
0.0
  0
LINE
  5
16E5
330
758
100
AcDbEntity
  8
DIM
 62
     0
370
    -2
100
AcDbLine
 10
7.295443710273528
 20
5.144384999999999
 30
0.0
 11
7.295443710273528
 21
3.089186
 31
0.0
  0
LINE
  5
16E6
330
758
100
AcDbEntity
  8
DIM
 62
     0
370
    -2
100
AcDbLine
 10
4.460443710273529
 20
3.251936
 30
0.0
 11
5.275834335273528
 21
3.251936
 31
0.0
  0
LINE
  5
16E7
330
758
100
AcDbEntity
  8
DIM
 62
     0
370
    -2
100
AcDbLine
 10
6.980443710273528
 20
3.251936
 30
0.0
 11
6.165053085273528
 21
3.251936
 31
0.0
  0
SOLID
  5
16E8
330
758
100
AcDbEntity
  8
DIM
 62
     0
100
AcDbTrace
 10
4.460443710273529
 20
3.304436
 30
0.0
 11
4.460443710273529
 21
3.199435999999999
 31
0.0
 12
4.145443710273529
 22
3.251936
 32
0.0
 13
4.145443710273529
 23
3.251936
 33
0.0
  0
SOLID
  5
16E9
330
758
100
AcDbEntity
  8
DIM
 62
     0
100
AcDbTrace
 10
6.980443710273528
 20
3.304436
 30
0.0
 11
6.980443710273528
 21
3.199435999999999
 31
0.0
 12
7.295443710273528
 22
3.251936
 32
0.0
 13
7.295443710273528
 23
3.251936
 33
0.0
  0
MTEXT
  5
16EA
330
758
100
AcDbEntity
  8
DIM
 62
     0
100
AcDbMText
 10
5.720443710273528
 20
3.251936
 30
0.0
 40
0.21875
 41
0.0
 71
     5
 72
     1
  1
\A1;3.150
 73
     1
 44
1.0
  0
POINT
  5
16EB
330
758
100
AcDbEntity
  8
DEFPOINTS
 62
     0
100
AcDbPoint
 10
4.145443710273529
 20
5.254634999999999
 30
0.0
  0
POINT
  5
16EC
330
758
100
AcDbEntity
  8
DEFPOINTS
 62
     0
100
AcDbPoint
 10
7.295443710273528
 20
5.254634999999999
 30
0.0
  0
POINT
  5
16ED
330
758
100
AcDbEntity
  8
DEFPOINTS
 62
     0
100
AcDbPoint
 10
7.295443710273528
 20
3.251936
 30
0.0
  0
ENDBLK
  5
764
330
758
100
AcDbEntity
  8
0
100
AcDbBlockEnd
  0
BLOCK
  5
771
330
766
100
AcDbEntity
  8
0
100
AcDbBlockBegin
  2
*D12
 70
     1
 10
0.0
 20
0.0
 30
0.0
  3
*D12
  1

  0
LINE
  5
1720
330
766
100
AcDbEntity
  8
DIM
 62
     0
370
    -2
100
AcDbLine
 10
7.186943710273528
 20
5.035884999999999
 30
0.0
 11
8.09706671027353
 21
5.035884999999999
 31
0.0
  0
LINE
  5
1721
330
766
100
AcDbEntity
  8
DIM
 62
     0
370
    -2
100
AcDbLine
 10
7.189443710273527
 20
5.495635
 30
0.0
 11
8.09706671027353
 21
5.495635
 31
0.0
  0
LINE
  5
1722
330
766
100
AcDbEntity
  8
DIM
 62
     0
370
    -2
100
AcDbLine
 10
7.934316710273529
 20
4.720884999999999
 30
0.0
 11
7.934316710273529
 21
4.405884999999999
 31
0.0
  0
LINE
  5
1723
330
766
100
AcDbEntity
  8
DIM
 62
     0
370
    -2
100
AcDbLine
 10
7.934316710273529
 20
5.810635
 30
0.0
 11
7.93431671027353
 21
6.125634999999999
 31
0.0
  0
SOLID
  5
1724
330
766
100
AcDbEntity
  8
DIM
 62
     0
100
AcDbTrace
 10
7.881816710273529
 20
4.720884999999999
 30
0.0
 11
7.986816710273529
 21
4.720884999999999
 31
0.0
 12
7.934316710273529
 22
5.035884999999999
 32
0.0
 13
7.934316710273529
 23
5.035884999999999
 33
0.0
  0
SOLID
  5
1725
330
766
100
AcDbEntity
  8
DIM
 62
     0
100
AcDbTrace
 10
7.881816710273529
 20
5.810635
 30
0.0
 11
7.986816710273529
 21
5.810635
 31
0.0
 12
7.934316710273529
 22
5.495635
 32
0.0
 13
7.934316710273529
 23
5.495635
 33
0.0
  0
MTEXT
  5
1726
330
766
100
AcDbEntity
  8
DIM
 62
     0
100
AcDbMText
 10
7.934316710273528
 20
5.265760000000001
 30
0.0
 40
0.21875
 41
0.0
 71
     5
 72
     1
  1
\A1;0.460
 73
     1
 44
1.0
  0
POINT
  5
1727
330
766
100
AcDbEntity
  8
DEFPOINTS
 62
     0
100
AcDbPoint
 10
7.076693710273528
 20
5.035884999999999
 30
0.0
  0
POINT
  5
1728
330
766
100
AcDbEntity
  8
DEFPOINTS
 62
     0
100
AcDbPoint
 10
7.079193710273528
 20
5.495635
 30
0.0
  0
POINT
  5
1729
330
766
100
AcDbEntity
  8
DEFPOINTS
 62
     0
100
AcDbPoint
 10
7.934316710273529
 20
5.495635
 30
0.0
  0
ENDBLK
  5
772
330
766
100
AcDbEntity
  8
0
100
AcDbBlockEnd
  0
BLOCK
  5
77F
330
774
100
AcDbEntity
  8
0
100
AcDbBlockBegin
  2
*D13
 70
     1
 10
0.0
 20
0.0
 30
0.0
  3
*D13
  1

  0
LINE
  5
16C6
330
774
100
AcDbEntity
  8
DIM
 62
     0
370
    -2
100
AcDbLine
 10
7.189443710273527
 20
5.495635
 30
0.0
 11
8.09706671027353
 21
5.495635
 31
0.0
  0
LINE
  5
16C7
330
774
100
AcDbEntity
  8
DIM
 62
     0
370
    -2
100
AcDbLine
 10
7.189443710273527
 20
10.875135
 30
0.0
 11
8.09706671027353
 21
10.875135
 31
0.0
  0
LINE
  5
16C8
330
774
100
AcDbEntity
  8
DIM
 62
     0
370
    -2
100
AcDbLine
 10
7.934316710273529
 20
5.810635
 30
0.0
 11
7.93431671027353
 21
7.91851
 31
0.0
  0
LINE
  5
16C9
330
774
100
AcDbEntity
  8
DIM
 62
     0
370
    -2
100
AcDbLine
 10
7.934316710273531
 20
10.560135
 30
0.0
 11
7.93431671027353
 21
8.45226
 31
0.0
  0
SOLID
  5
16CA
330
774
100
AcDbEntity
  8
DIM
 62
     0
100
AcDbTrace
 10
7.881816710273529
 20
5.810635
 30
0.0
 11
7.986816710273529
 21
5.810635
 31
0.0
 12
7.934316710273529
 22
5.495635
 32
0.0
 13
7.934316710273529
 23
5.495635
 33
0.0
  0
SOLID
  5
16CB
330
774
100
AcDbEntity
  8
DIM
 62
     0
100
AcDbTrace
 10
7.881816710273531
 20
10.560135
 30
0.0
 11
7.986816710273531
 21
10.560135
 31
0.0
 12
7.934316710273531
 22
10.875135
 32
0.0
 13
7.934316710273531
 23
10.875135
 33
0.0
  0
MTEXT
  5
16CC
330
774
100
AcDbEntity
  8
DIM
 62
     0
100
AcDbMText
 10
7.934316710273529
 20
8.185385000000001
 30
0.0
 40
0.21875
 41
0.0
 71
     5
 72
     1
  1
\A1;5.380
 73
     1
 44
1.0
  0
POINT
  5
16CD
330
774
100
AcDbEntity
  8
DEFPOINTS
 62
     0
100
AcDbPoint
 10
7.079193710273528
 20
5.495635
 30
0.0
  0
POINT
  5
16CE
330
774
100
AcDbEntity
  8
DEFPOINTS
 62
     0
100
AcDbPoint
 10
7.079193710273528
 20
10.875135
 30
0.0
  0
POINT
  5
16CF
330
774
100
AcDbEntity
  8
DEFPOINTS
 62
     0
100
AcDbPoint
 10
7.934316710273531
 20
10.875135
 30
0.0
  0
ENDBLK
  5
780
330
774
100
AcDbEntity
  8
0
100
AcDbBlockEnd
  0
BLOCK
  5
78D
330
782
100
AcDbEntity
  8
0
100
AcDbBlockBegin
  2
*D14
 70
     1
 10
0.0
 20
0.0
 30
0.0
  3
*D14
  1

  0
LINE
  5
168A
330
782
100
AcDbEntity
  8
DIM
 62
     0
370
    -2
100
AcDbLine
 10
7.312943710273527
 20
5.035884999999999
 30
0.0
 11
8.98656671027353
 21
5.035884999999999
 31
0.0
  0
LINE
  5
168B
330
782
100
AcDbEntity
  8
DIM
 62
     0
370
    -2
100
AcDbLine
 10
7.186943710273528
 20
11.334885
 30
0.0
 11
8.98656671027353
 21
11.334885
 31
0.0
  0
LINE
  5
168C
330
782
100
AcDbEntity
  8
DIM
 62
     0
370
    -2
100
AcDbLine
 10
8.823816710273531
 20
5.350884999999999
 30
0.0
 11
8.823816710273531
 21
7.91851
 31
0.0
  0
LINE
  5
168D
330
782
100
AcDbEntity
  8
DIM
 62
     0
370
    -2
100
AcDbLine
 10
8.823816710273531
 20
11.019885
 30
0.0
 11
8.823816710273531
 21
8.45226
 31
0.0
  0
SOLID
  5
168E
330
782
100
AcDbEntity
  8
DIM
 62
     0
100
AcDbTrace
 10
8.771316710273531
 20
5.350884999999999
 30
0.0
 11
8.876316710273531
 21
5.350884999999999
 31
0.0
 12
8.823816710273531
 22
5.035884999999999
 32
0.0
 13
8.823816710273531
 23
5.035884999999999
 33
0.0
  0
SOLID
  5
168F
330
782
100
AcDbEntity
  8
DIM
 62
     0
100
AcDbTrace
 10
8.771316710273531
 20
11.019885
 30
0.0
 11
8.876316710273531
 21
11.019885
 31
0.0
 12
8.823816710273531
 22
11.334885
 32
0.0
 13
8.823816710273531
 23
11.334885
 33
0.0
  0
MTEXT
  5
1690
330
782
100
AcDbEntity
  8
DIM
 62
     0
100
AcDbMText
 10
8.823816710273529
 20
8.185385000000001
 30
0.0
 40
0.21875
 41
0.0
 71
     5
 72
     1
  1
\A1;6.299
 73
     1
 44
1.0
  0
POINT
  5
1691
330
782
100
AcDbEntity
  8
DEFPOINTS
 62
     0
100
AcDbPoint
 10
7.202693710273528
 20
5.035884999999999
 30
0.0
  0
POINT
  5
1692
330
782
100
AcDbEntity
  8
DEFPOINTS
 62
     0
100
AcDbPoint
 10
7.076693710273528
 20
11.334885
 30
0.0
  0
POINT
  5
1693
330
782
100
AcDbEntity
  8
DEFPOINTS
 62
     0
100
AcDbPoint
 10
8.823816710273531
 20
11.334885
 30
0.0
  0
ENDBLK
  5
78E
330
782
100
AcDbEntity
  8
0
100
AcDbBlockEnd
  0
BLOCK
  5
79B
330
790
100
AcDbEntity
  8
0
100
AcDbBlockBegin
  2
*D15
 70
     1
 10
0.0
 20
0.0
 30
0.0
  3
*D15
  1

  0
LINE
  5
170C
330
790
100
AcDbEntity
  8
DIM
 62
     0
370
    -2
100
AcDbLine
 10
4.468193710273529
 20
5.793884999999999
 30
0.0
 11
1.758587710273529
 21
5.793885
 31
0.0
  0
LINE
  5
170D
330
790
100
AcDbEntity
  8
DIM
 62
     0
370
    -2
100
AcDbLine
 10
4.253943710273529
 20
5.035884999999999
 30
0.0
 11
1.758587710273529
 21
5.035885
 31
0.0
  0
LINE
  5
170E
330
790
100
AcDbEntity
  8
DIM
 62
     0
370
    -2
100
AcDbLine
 10
1.921337710273529
 20
6.108885
 30
0.0
 11
1.921337710273529
 21
6.423885
 31
0.0
  0
LINE
  5
170F
330
790
100
AcDbEntity
  8
DIM
 62
     0
370
    -2
100
AcDbLine
 10
1.921337710273529
 20
4.720884999999999
 30
0.0
 11
1.921337710273528
 21
4.405885
 31
0.0
  0
SOLID
  5
1710
330
790
100
AcDbEntity
  8
DIM
 62
     0
100
AcDbTrace
 10
1.868837710273529
 20
6.108885
 30
0.0
 11
1.973837710273529
 21
6.108885
 31
0.0
 12
1.921337710273529
 22
5.793885
 32
0.0
 13
1.921337710273529
 23
5.793885
 33
0.0
  0
SOLID
  5
1711
330
790
100
AcDbEntity
  8
DIM
 62
     0
100
AcDbTrace
 10
1.868837710273529
 20
4.720884999999999
 30
0.0
 11
1.973837710273529
 21
4.720884999999999
 31
0.0
 12
1.921337710273529
 22
5.035885
 32
0.0
 13
1.921337710273529
 23
5.035885
 33
0.0
  0
MTEXT
  5
1712
330
790
100
AcDbEntity
  8
DIM
 62
     0
100
AcDbMText
 10
1.921337710273528
 20
5.414884999999999
 30
0.0
 40
0.21875
 41
0.0
 71
     5
 72
     1
  1
\A1;0.758
 73
     1
 44
1.0
  0
POINT
  5
1713
330
790
100
AcDbEntity
  8
DEFPOINTS
 62
     0
100
AcDbPoint
 10
4.578443710273528
 20
5.793884999999999
 30
0.0
  0
POINT
  5
1714
330
790
100
AcDbEntity
  8
DEFPOINTS
 62
     0
100
AcDbPoint
 10
4.364193710273529
 20
5.035884999999999
 30
0.0
  0
POINT
  5
1715
330
790
100
AcDbEntity
  8
DEFPOINTS
 62
     0
100
AcDbPoint
 10
1.921337710273529
 20
5.035885
 30
0.0
  0
ENDBLK
  5
79C
330
790
100
AcDbEntity
  8
0
100
AcDbBlockEnd
  0
BLOCK
  5
7A9
330
79E
100
AcDbEntity
  8
0
100
AcDbBlockBegin
  2
*D16
 70
     1
 10
0.0
 20
0.0
 30
0.0
  3
*D16
  1

  0
LINE
  5
16BC
330
79E
100
AcDbEntity
  8
DIM
 62
     0
370
    -2
100
AcDbLine
 10
4.468193710273529
 20
5.793884999999999
 30
0.0
 11
1.758587710273529
 21
5.793885
 31
0.0
  0
LINE
  5
16BD
330
79E
100
AcDbEntity
  8
DIM
 62
     0
370
    -2
100
AcDbLine
 10
4.468193710273529
 20
10.576885
 30
0.0
 11
1.75858771027353
 21
10.576885
 31
0.0
  0
LINE
  5
16BE
330
79E
100
AcDbEntity
  8
DIM
 62
     0
370
    -2
100
AcDbLine
 10
1.921337710273529
 20
6.108885
 30
0.0
 11
1.92133771027353
 21
7.918510000000002
 31
0.0
  0
LINE
  5
16BF
330
79E
100
AcDbEntity
  8
DIM
 62
     0
370
    -2
100
AcDbLine
 10
1.92133771027353
 20
10.261885
 30
0.0
 11
1.92133771027353
 21
8.452260000000002
 31
0.0
  0
SOLID
  5
16C0
330
79E
100
AcDbEntity
  8
DIM
 62
     0
100
AcDbTrace
 10
1.868837710273529
 20
6.108885
 30
0.0
 11
1.973837710273529
 21
6.108885
 31
0.0
 12
1.921337710273529
 22
5.793885
 32
0.0
 13
1.921337710273529
 23
5.793885
 33
0.0
  0
SOLID
  5
16C1
330
79E
100
AcDbEntity
  8
DIM
 62
     0
100
AcDbTrace
 10
1.86883771027353
 20
10.261885
 30
0.0
 11
1.97383771027353
 21
10.261885
 31
0.0
 12
1.92133771027353
 22
10.576885
 32
0.0
 13
1.92133771027353
 23
10.576885
 33
0.0
  0
MTEXT
  5
16C2
330
79E
100
AcDbEntity
  8
DIM
 62
     0
100
AcDbMText
 10
1.921337710273528
 20
8.185385000000001
 30
0.0
 40
0.21875
 41
0.0
 71
     5
 72
     1
  1
\A1;4.783
 73
     1
 44
1.0
  0
POINT
  5
16C3
330
79E
100
AcDbEntity
  8
DEFPOINTS
 62
     0
100
AcDbPoint
 10
4.578443710273528
 20
5.793884999999999
 30
0.0
  0
POINT
  5
16C4
330
79E
100
AcDbEntity
  8
DEFPOINTS
 62
     0
100
AcDbPoint
 10
4.578443710273528
 20
10.576885
 30
0.0
  0
POINT
  5
16C5
330
79E
100
AcDbEntity
  8
DEFPOINTS
 62
     0
100
AcDbPoint
 10
1.92133771027353
 20
10.576885
 30
0.0
  0
ENDBLK
  5
7AA
330
79E
100
AcDbEntity
  8
0
100
AcDbBlockEnd
  0
BLOCK
  5
7B7
330
7AC
100
AcDbEntity
  8
0
100
AcDbBlockBegin
  2
*D17
 70
     1
 10
0.0
 20
0.0
 30
0.0
  3
*D17
  1

  0
LINE
  5
1702
330
7AC
100
AcDbEntity
  8
DIM
 62
     0
370
    -2
100
AcDbLine
 10
4.263443710273529
 20
6.108172
 30
0.0
 11
4.263443710273529
 21
6.048105
 31
0.0
  0
LINE
  5
1703
330
7AC
100
AcDbEntity
  8
DIM
 62
     0
370
    -2
100
AcDbLine
 10
4.145443710273529
 20
6.108172
 30
0.0
 11
4.145443710273529
 21
6.048105
 31
0.0
  0
LINE
  5
1704
330
7AC
100
AcDbEntity
  8
DIM
 62
     0
370
    -2
100
AcDbLine
 10
4.578443710273529
 20
6.210855
 30
0.0
 11
4.893443710273529
 21
6.210855
 31
0.0
  0
LINE
  5
1705
330
7AC
100
AcDbEntity
  8
DIM
 62
     0
370
    -2
100
AcDbLine
 10
3.830443710273529
 20
6.210855
 30
0.0
 11
3.515443710273529
 21
6.210855
 31
0.0
  0
SOLID
  5
1706
330
7AC
100
AcDbEntity
  8
DIM
 62
     0
100
AcDbTrace
 10
4.578443710273529
 20
6.263355
 30
0.0
 11
4.578443710273529
 21
6.158355
 31
0.0
 12
4.263443710273529
 22
6.210855
 32
0.0
 13
4.263443710273529
 23
6.210855
 33
0.0
  0
SOLID
  5
1707
330
7AC
100
AcDbEntity
  8
DIM
 62
     0
100
AcDbTrace
 10
3.830443710273529
 20
6.263355
 30
0.0
 11
3.830443710273529
 21
6.158355
 31
0.0
 12
4.145443710273529
 22
6.210855
 32
0.0
 13
4.145443710273529
 23
6.210855
 33
0.0
  0
MTEXT
  5
1708
330
7AC
100
AcDbEntity
  8
DIM
 62
     0
100
AcDbMText
 10
2.742709335273529
 20
6.210855
 30
0.0
 40
0.21875
 41
0.0
 71
     5
 72
     1
  1
\A1;0.118 TYP.
 73
     1
 44
1.0
  0
POINT
  5
1709
330
7AC
100
AcDbEntity
  8
DEFPOINTS
 62
     0
100
AcDbPoint
 10
4.263443710273529
 20
6.218422
 30
0.0
  0
POINT
  5
170A
330
7AC
100
AcDbEntity
  8
DEFPOINTS
 62
     0
100
AcDbPoint
 10
4.145443710273529
 20
6.218422
 30
0.0
  0
POINT
  5
170B
330
7AC
100
AcDbEntity
  8
DEFPOINTS
 62
     0
100
AcDbPoint
 10
4.145443710273529
 20
6.210855
 30
0.0
  0
ENDBLK
  5
7B8
330
7AC
100
AcDbEntity
  8
0
100
AcDbBlockEnd
  0
BLOCK
  5
7C5
330
7BA
100
AcDbEntity
  8
0
100
AcDbBlockBegin
  2
*D18
 70
     1
 10
0.0
 20
0.0
 30
0.0
  3
*D18
  1

  0
LINE
  5
16DA
330
7BA
100
AcDbEntity
  8
DIM
 62
     0
370
    -2
100
AcDbLine
 10
4.263443710273529
 20
6.108172
 30
0.0
 11
4.263443710273529
 21
6.048105
 31
0.0
  0
LINE
  5
16DB
330
7BA
100
AcDbEntity
  8
DIM
 62
     0
370
    -2
100
AcDbLine
 10
7.177443710273528
 20
6.108172
 30
0.0
 11
7.177443710273528
 21
6.048105
 31
0.0
  0
LINE
  5
16DC
330
7BA
100
AcDbEntity
  8
DIM
 62
     0
370
    -2
100
AcDbLine
 10
4.578443710273529
 20
6.210855
 30
0.0
 11
5.262162460273528
 21
6.210855
 31
0.0
  0
LINE
  5
16DD
330
7BA
100
AcDbEntity
  8
DIM
 62
     0
370
    -2
100
AcDbLine
 10
6.862443710273527
 20
6.210855
 30
0.0
 11
6.178724960273528
 21
6.210855
 31
0.0
  0
SOLID
  5
16DE
330
7BA
100
AcDbEntity
  8
DIM
 62
     0
100
AcDbTrace
 10
4.578443710273529
 20
6.263355
 30
0.0
 11
4.578443710273529
 21
6.158355
 31
0.0
 12
4.263443710273529
 22
6.210855
 32
0.0
 13
4.263443710273529
 23
6.210855
 33
0.0
  0
SOLID
  5
16DF
330
7BA
100
AcDbEntity
  8
DIM
 62
     0
100
AcDbTrace
 10
6.862443710273527
 20
6.263355
 30
0.0
 11
6.862443710273527
 21
6.158355
 31
0.0
 12
7.177443710273528
 22
6.210855
 32
0.0
 13
7.177443710273528
 23
6.210855
 33
0.0
  0
MTEXT
  5
16E0
330
7BA
100
AcDbEntity
  8
DIM
 62
     0
100
AcDbMText
 10
5.720443710273528
 20
6.210855
 30
0.0
 40
0.21875
 41
0.0
 71
     5
 72
     1
  1
\A1;2.914
 73
     1
 44
1.0
  0
POINT
  5
16E1
330
7BA
100
AcDbEntity
  8
DEFPOINTS
 62
     0
100
AcDbPoint
 10
4.263443710273529
 20
6.218422
 30
0.0
  0
POINT
  5
16E2
330
7BA
100
AcDbEntity
  8
DEFPOINTS
 62
     0
100
AcDbPoint
 10
7.177443710273528
 20
6.218422
 30
0.0
  0
POINT
  5
16E3
330
7BA
100
AcDbEntity
  8
DEFPOINTS
 62
     0
100
AcDbPoint
 10
7.177443710273528
 20
6.210855
 30
0.0
  0
ENDBLK
  5
7C6
330
7BA
100
AcDbEntity
  8
0
100
AcDbBlockEnd
  0
BLOCK
  5
87A
330
86F
100
AcDbEntity
  8
0
100
AcDbBlockBegin
  2
*D19
 70
     1
 10
0.0
 20
0.0
 30
0.0
  3
*D19
  1

  0
LINE
  5
16B2
330
86F
100
AcDbEntity
  8
DIM
 62
     0
370
    -2
100
AcDbLine
 10
6.271943710273529
 20
5.153634999999999
 30
0.0
 11
6.059006710273527
 21
5.153634999999999
 31
0.0
  0
LINE
  5
16B3
330
86F
100
AcDbEntity
  8
DIM
 62
     0
370
    -2
100
AcDbLine
 10
6.271943710273529
 20
11.217135
 30
0.0
 11
6.059006710273528
 21
11.217135
 31
0.0
  0
LINE
  5
16B4
330
86F
100
AcDbEntity
  8
DIM
 62
     0
370
    -2
100
AcDbLine
 10
6.221756710273527
 20
5.468634999999999
 30
0.0
 11
6.221756710273528
 21
7.91851
 31
0.0
  0
LINE
  5
16B5
330
86F
100
AcDbEntity
  8
DIM
 62
     0
370
    -2
100
AcDbLine
 10
6.221756710273528
 20
10.902135
 30
0.0
 11
6.221756710273528
 21
8.45226
 31
0.0
  0
SOLID
  5
16B6
330
86F
100
AcDbEntity
  8
DIM
 62
     0
100
AcDbTrace
 10
6.169256710273526
 20
5.468634999999999
 30
0.0
 11
6.274256710273527
 21
5.468634999999999
 31
0.0
 12
6.221756710273527
 22
5.153634999999999
 32
0.0
 13
6.221756710273527
 23
5.153634999999999
 33
0.0
  0
SOLID
  5
16B7
330
86F
100
AcDbEntity
  8
DIM
 62
     0
100
AcDbTrace
 10
6.169256710273528
 20
10.902135
 30
0.0
 11
6.274256710273529
 21
10.902135
 31
0.0
 12
6.221756710273528
 22
11.217135
 32
0.0
 13
6.221756710273528
 23
11.217135
 33
0.0
  0
MTEXT
  5
16B8
330
86F
100
AcDbEntity
  8
DIM
 62
     0
100
AcDbMText
 10
6.221756710273527
 20
8.185385000000001
 30
0.0
 40
0.21875
 41
0.0
 71
     5
 72
     1
  1
\A1;6.064
 73
     1
 44
1.0
  0
POINT
  5
16B9
330
86F
100
AcDbEntity
  8
DEFPOINTS
 62
     0
100
AcDbPoint
 10
6.382193710273528
 20
5.153634999999999
 30
0.0
  0
POINT
  5
16BA
330
86F
100
AcDbEntity
  8
DEFPOINTS
 62
     0
100
AcDbPoint
 10
6.382193710273528
 20
11.217135
 30
0.0
  0
POINT
  5
16BB
330
86F
100
AcDbEntity
  8
DEFPOINTS
 62
     0
100
AcDbPoint
 10
6.221756710273528
 20
11.217135
 30
0.0
  0
ENDBLK
  5
87B
330
86F
100
AcDbEntity
  8
0
100
AcDbBlockEnd
  0
BLOCK
  5
8CC
330
8C1
100
AcDbEntity
  8
0
100
AcDbBlockBegin
  2
*D20
 70
     1
 10
0.0
 20
0.0
 30
0.0
  3
*D20
  1

  0
LINE
  5
179A
330
8C1
100
AcDbEntity
  8
DIM
 62
     0
370
    -2
100
AcDbLine
 10
11.53754971027352
 20
11.395135
 30
0.0
 11
11.53754971027352
 21
11.905448
 31
0.0
  0
LINE
  5
179B
330
8C1
100
AcDbEntity
  8
DIM
 62
     0
370
    -2
100
AcDbLine
 10
9.89754971027353
 20
11.367135
 30
0.0
 11
9.89754971027353
 21
11.905448
 31
0.0
  0
LINE
  5
179C
330
8C1
100
AcDbEntity
  8
DIM
 62
     0
370
    -2
100
AcDbLine
 10
11.22254971027353
 20
11.742698
 30
0.0
 11
11.16215908527353
 21
11.742698
 31
0.0
  0
LINE
  5
179D
330
8C1
100
AcDbEntity
  8
DIM
 62
     0
370
    -2
100
AcDbLine
 10
10.21254971027353
 20
11.742698
 30
0.0
 11
10.27294033527353
 21
11.742698
 31
0.0
  0
SOLID
  5
179E
330
8C1
100
AcDbEntity
  8
DIM
 62
     0
100
AcDbTrace
 10
11.22254971027353
 20
11.795198
 30
0.0
 11
11.22254971027353
 21
11.69019799999999
 31
0.0
 12
11.53754971027352
 22
11.742698
 32
0.0
 13
11.53754971027352
 23
11.742698
 33
0.0
  0
SOLID
  5
179F
330
8C1
100
AcDbEntity
  8
DIM
 62
     0
100
AcDbTrace
 10
10.21254971027353
 20
11.795198
 30
0.0
 11
10.21254971027353
 21
11.69019799999999
 31
0.0
 12
9.89754971027353
 22
11.742698
 32
0.0
 13
9.89754971027353
 23
11.742698
 33
0.0
  0
MTEXT
  5
17A0
330
8C1
100
AcDbEntity
  8
DIM
 62
     0
100
AcDbMText
 10
10.71754971027353
 20
11.742698
 30
0.0
 40
0.21875
 41
0.0
 71
     5
 72
     1
  1
\A1;1.640
 73
     1
 44
1.0
  0
POINT
  5
17A1
330
8C1
100
AcDbEntity
  8
DEFPOINTS
 62
     0
100
AcDbPoint
 10
11.53754971027352
 20
11.284885
 30
0.0
  0
POINT
  5
17A2
330
8C1
100
AcDbEntity
  8
DEFPOINTS
 62
     0
100
AcDbPoint
 10
9.89754971027353
 20
11.256885
 30
0.0
  0
POINT
  5
17A3
330
8C1
100
AcDbEntity
  8
DEFPOINTS
 62
     0
100
AcDbPoint
 10
9.89754971027353
 20
11.742698
 30
0.0
  0
ENDBLK
  5
8CD
330
8C1
100
AcDbEntity
  8
0
100
AcDbBlockEnd
  0
BLOCK
  5
8DA
330
8CF
100
AcDbEntity
  8
0
100
AcDbBlockBegin
  2
*D21
 70
     1
 10
0.0
 20
0.0
 30
0.0
  3
*D21
  1

  0
LINE
  5
1734
330
8CF
100
AcDbEntity
  8
DIM
 62
     0
370
    -2
100
AcDbLine
 10
11.53754971027352
 20
4.975635
 30
0.0
 11
11.53754971027352
 21
4.496294
 31
0.0
  0
LINE
  5
1735
330
8CF
100
AcDbEntity
  8
DIM
 62
     0
370
    -2
100
AcDbLine
 10
10.27254971027353
 20
5.004385
 30
0.0
 11
10.27254971027353
 21
4.496294
 31
0.0
  0
LINE
  5
1736
330
8CF
100
AcDbEntity
  8
DIM
 62
     0
370
    -2
100
AcDbLine
 10
11.85254971027353
 20
4.659044
 30
0.0
 11
12.16754971027353
 21
4.659044
 31
0.0
  0
LINE
  5
1737
330
8CF
100
AcDbEntity
  8
DIM
 62
     0
370
    -2
100
AcDbLine
 10
9.95754971027353
 20
4.659044
 30
0.0
 11
9.642549710273529
 21
4.659044
 31
0.0
  0
SOLID
  5
1738
330
8CF
100
AcDbEntity
  8
DIM
 62
     0
100
AcDbTrace
 10
11.85254971027353
 20
4.711544
 30
0.0
 11
11.85254971027353
 21
4.606544
 31
0.0
 12
11.53754971027352
 22
4.659044
 32
0.0
 13
11.53754971027352
 23
4.659044
 33
0.0
  0
SOLID
  5
1739
330
8CF
100
AcDbEntity
  8
DIM
 62
     0
100
AcDbTrace
 10
9.95754971027353
 20
4.711544
 30
0.0
 11
9.95754971027353
 21
4.606544
 31
0.0
 12
10.27254971027353
 22
4.659044
 32
0.0
 13
10.27254971027353
 23
4.659044
 33
0.0
  0
MTEXT
  5
173A
330
8CF
100
AcDbEntity
  8
DIM
 62
     0
100
AcDbMText
 10
10.90504971027353
 20
4.659044
 30
0.0
 40
0.21875
 41
0.0
 71
     5
 72
     1
  1
\A1;1.265
 73
     1
 44
1.0
  0
POINT
  5
173B
330
8CF
100
AcDbEntity
  8
DEFPOINTS
 62
     0
100
AcDbPoint
 10
11.53754971027352
 20
5.085885
 30
0.0
  0
POINT
  5
173C
330
8CF
100
AcDbEntity
  8
DEFPOINTS
 62
     0
100
AcDbPoint
 10
10.27254971027353
 20
5.114634999999999
 30
0.0
  0
POINT
  5
173D
330
8CF
100
AcDbEntity
  8
DEFPOINTS
 62
     0
100
AcDbPoint
 10
10.27254971027353
 20
4.659044
 30
0.0
  0
ENDBLK
  5
8DB
330
8CF
100
AcDbEntity
  8
0
100
AcDbBlockEnd
  0
BLOCK
  5
8E8
330
8DD
100
AcDbEntity
  8
0
100
AcDbBlockBegin
  2
*D22
 70
     1
 10
0.0
 20
0.0
 30
0.0
  3
*D22
  1

  0
LINE
  5
173E
330
8DD
100
AcDbEntity
  8
DIM
 62
     0
370
    -2
100
AcDbLine
 10
11.38054971027352
 20
8.642250999999999
 30
0.0
 11
11.38054971027352
 21
8.840716
 31
0.0
  0
LINE
  5
173F
330
8DD
100
AcDbEntity
  8
DIM
 62
     0
370
    -2
100
AcDbLine
 10
11.53754971027352
 20
8.642250999999999
 30
0.0
 11
11.53754971027352
 21
8.840716
 31
0.0
  0
LINE
  5
1740
330
8DD
100
AcDbEntity
  8
DIM
 62
     0
370
    -2
100
AcDbLine
 10
11.06554971027353
 20
8.677965999999999
 30
0.0
 11
10.75054971027352
 21
8.677965999999999
 31
0.0
  0
LINE
  5
1741
330
8DD
100
AcDbEntity
  8
DIM
 62
     0
370
    -2
100
AcDbLine
 10
11.85254971027353
 20
8.677965999999999
 30
0.0
 11
12.16754971027352
 21
8.677965999999999
 31
0.0
  0
SOLID
  5
1742
330
8DD
100
AcDbEntity
  8
DIM
 62
     0
100
AcDbTrace
 10
11.06554971027353
 20
8.730465999999999
 30
0.0
 11
11.06554971027353
 21
8.625465999999999
 31
0.0
 12
11.38054971027352
 22
8.677965999999999
 32
0.0
 13
11.38054971027352
 23
8.677965999999999
 33
0.0
  0
SOLID
  5
1743
330
8DD
100
AcDbEntity
  8
DIM
 62
     0
100
AcDbTrace
 10
11.85254971027353
 20
8.730465999999999
 30
0.0
 11
11.85254971027353
 21
8.625465999999999
 31
0.0
 12
11.53754971027352
 22
8.677965999999999
 32
0.0
 13
11.53754971027352
 23
8.677965999999999
 33
0.0
  0
MTEXT
  5
1744
330
8DD
100
AcDbEntity
  8
DIM
 62
     0
100
AcDbMText
 10
12.61215908527352
 20
8.677965999999999
 30
0.0
 40
0.21875
 41
0.0
 71
     5
 72
     1
  1
\A1;0.157
 73
     1
 44
1.0
  0
POINT
  5
1745
330
8DD
100
AcDbEntity
  8
DEFPOINTS
 62
     0
100
AcDbPoint
 10
11.38054971027352
 20
8.532000999999999
 30
0.0
  0
POINT
  5
1746
330
8DD
100
AcDbEntity
  8
DEFPOINTS
 62
     0
100
AcDbPoint
 10
11.53754971027352
 20
8.532000999999999
 30
0.0
  0
POINT
  5
1747
330
8DD
100
AcDbEntity
  8
DEFPOINTS
 62
     0
100
AcDbPoint
 10
11.53754971027352
 20
8.677965999999999
 30
0.0
  0
ENDBLK
  5
8E9
330
8DD
100
AcDbEntity
  8
0
100
AcDbBlockEnd
  0
BLOCK
  5
8F6
330
8EB
100
AcDbEntity
  8
0
100
AcDbBlockBegin
  2
*D23
 70
     1
 10
0.0
 20
0.0
 30
0.0
  3
*D23
  1

  0
LINE
  5
18BB
330
8EB
100
AcDbEntity
  8
DIM
 62
     0
370
    -2
100
AcDbLine
 10
11.20254971027353
 20
10.309135
 30
0.0
 11
11.20254971027353
 21
9.646001999999999
 31
0.0
  0
LINE
  5
18BC
330
8EB
100
AcDbEntity
  8
DIM
 62
     0
370
    -2
100
AcDbLine
 10
11.53754971027352
 20
10.309135
 30
0.0
 11
11.53754971027352
 21
9.646001999999999
 31
0.0
  0
LINE
  5
18BD
330
8EB
100
AcDbEntity
  8
DIM
 62
     0
370
    -2
100
AcDbLine
 10
10.88754971027353
 20
9.808752
 30
0.0
 11
10.57254971027352
 21
9.808752
 31
0.0
  0
LINE
  5
18BE
330
8EB
100
AcDbEntity
  8
DIM
 62
     0
370
    -2
100
AcDbLine
 10
11.85254971027353
 20
9.808752
 30
0.0
 11
12.16754971027352
 21
9.808752
 31
0.0
  0
SOLID
  5
18BF
330
8EB
100
AcDbEntity
  8
DIM
 62
     0
100
AcDbTrace
 10
10.88754971027353
 20
9.861252
 30
0.0
 11
10.88754971027353
 21
9.756251999999999
 31
0.0
 12
11.20254971027353
 22
9.808752
 32
0.0
 13
11.20254971027353
 23
9.808752
 33
0.0
  0
SOLID
  5
18C0
330
8EB
100
AcDbEntity
  8
DIM
 62
     0
100
AcDbTrace
 10
11.85254971027353
 20
9.861252
 30
0.0
 11
11.85254971027353
 21
9.756251999999999
 31
0.0
 12
11.53754971027352
 22
9.808752
 32
0.0
 13
11.53754971027352
 23
9.808752
 33
0.0
  0
MTEXT
  5
18C1
330
8EB
100
AcDbEntity
  8
DIM
 62
     0
100
AcDbMText
 10
12.63950283527353
 20
9.808752
 30
0.0
 40
0.21875
 41
0.0
 71
     5
 72
     1
  1
\A1;0.335
 73
     1
 44
1.0
  0
POINT
  5
18C2
330
8EB
100
AcDbEntity
  8
DEFPOINTS
 62
     0
100
AcDbPoint
 10
11.20254971027353
 20
10.419385
 30
0.0
  0
POINT
  5
18C3
330
8EB
100
AcDbEntity
  8
DEFPOINTS
 62
     0
100
AcDbPoint
 10
11.53754971027352
 20
10.419385
 30
0.0
  0
POINT
  5
18C4
330
8EB
100
AcDbEntity
  8
DEFPOINTS
 62
     0
100
AcDbPoint
 10
11.53754971027352
 20
9.808752
 30
0.0
  0
ENDBLK
  5
8F7
330
8EB
100
AcDbEntity
  8
0
100
AcDbBlockEnd
  0
BLOCK
  5
904
330
8F9
100
AcDbEntity
  8
0
100
AcDbBlockBegin
  2
*D24
 70
     1
 10
0.0
 20
0.0
 30
0.0
  3
*D24
  1

  0
LINE
  5
172A
330
8F9
100
AcDbEntity
  8
DIM
 62
     0
370
    -2
100
AcDbLine
 10
11.64779971027352
 20
5.114634999999999
 30
0.0
 11
12.48623571027352
 21
5.114634999999999
 31
0.0
  0
LINE
  5
172B
330
8F9
100
AcDbEntity
  8
DIM
 62
     0
370
    -2
100
AcDbLine
 10
11.64779971027352
 20
5.424634999999999
 30
0.0
 11
12.48623571027352
 21
5.424634999999999
 31
0.0
  0
LINE
  5
172C
330
8F9
100
AcDbEntity
  8
DIM
 62
     0
370
    -2
100
AcDbLine
 10
12.32348571027352
 20
4.799634999999999
 30
0.0
 11
12.32348571027352
 21
4.484634999999999
 31
0.0
  0
LINE
  5
172D
330
8F9
100
AcDbEntity
  8
DIM
 62
     0
370
    -2
100
AcDbLine
 10
12.32348571027352
 20
5.739634999999999
 30
0.0
 11
12.32348571027352
 21
6.054634999999999
 31
0.0
  0
SOLID
  5
172E
330
8F9
100
AcDbEntity
  8
DIM
 62
     0
100
AcDbTrace
 10
12.27098571027352
 20
4.799634999999999
 30
0.0
 11
12.37598571027352
 21
4.799634999999999
 31
0.0
 12
12.32348571027352
 22
5.114634999999999
 32
0.0
 13
12.32348571027352
 23
5.114634999999999
 33
0.0
  0
SOLID
  5
172F
330
8F9
100
AcDbEntity
  8
DIM
 62
     0
100
AcDbTrace
 10
12.27098571027352
 20
5.739634999999999
 30
0.0
 11
12.37598571027352
 21
5.739634999999999
 31
0.0
 12
12.32348571027352
 22
5.424634999999999
 32
0.0
 13
12.32348571027352
 23
5.424634999999999
 33
0.0
  0
MTEXT
  5
1730
330
8F9
100
AcDbEntity
  8
DIM
 62
     0
100
AcDbMText
 10
12.32348571027352
 20
5.269635000000001
 30
0.0
 40
0.21875
 41
0.0
 71
     5
 72
     1
  1
\A1;0.310 DIA.
 73
     1
 44
1.0
  0
POINT
  5
1731
330
8F9
100
AcDbEntity
  8
DEFPOINTS
 62
     0
100
AcDbPoint
 10
11.53754971027352
 20
5.114634999999999
 30
0.0
  0
POINT
  5
1732
330
8F9
100
AcDbEntity
  8
DEFPOINTS
 62
     0
100
AcDbPoint
 10
11.53754971027352
 20
5.424634999999999
 30
0.0
  0
POINT
  5
1733
330
8F9
100
AcDbEntity
  8
DEFPOINTS
 62
     0
100
AcDbPoint
 10
12.32348571027352
 20
5.424634999999999
 30
0.0
  0
ENDBLK
  5
905
330
8F9
100
AcDbEntity
  8
0
100
AcDbBlockEnd
  0
BLOCK
  5
912
330
907
100
AcDbEntity
  8
0
100
AcDbBlockBegin
  2
*D25
 70
     1
 10
0.0
 20
0.0
 30
0.0
  3
*D25
  1

  0
LINE
  5
17A4
330
907
100
AcDbEntity
  8
DIM
 62
     0
370
    -2
100
AcDbLine
 10
11.64779971027352
 20
11.016385
 30
0.0
 11
12.50715971027353
 21
11.01638499999999
 31
0.0
  0
LINE
  5
17A5
330
907
100
AcDbEntity
  8
DIM
 62
     0
370
    -2
100
AcDbLine
 10
11.64779971027352
 20
11.181385
 30
0.0
 11
12.50715971027353
 21
11.18138499999999
 31
0.0
  0
LINE
  5
17A6
330
907
100
AcDbEntity
  8
DIM
 62
     0
370
    -2
100
AcDbLine
 10
12.34440971027352
 20
10.701385
 30
0.0
 11
12.34440971027352
 21
10.386385
 31
0.0
  0
LINE
  5
17A7
330
907
100
AcDbEntity
  8
DIM
 62
     0
370
    -2
100
AcDbLine
 10
12.34440971027352
 20
11.49638499999999
 30
0.0
 11
12.34440971027352
 21
11.811385
 31
0.0
  0
LINE
  5
17A8
330
907
100
AcDbEntity
  8
DIM
 62
     0
370
    -2
100
AcDbLine
 10
12.34440971027352
 20
11.811385
 30
0.0
 11
12.65940971027353
 21
11.811385
 31
0.0
  0
SOLID
  5
17A9
330
907
100
AcDbEntity
  8
DIM
 62
     0
100
AcDbTrace
 10
12.29190971027352
 20
10.701385
 30
0.0
 11
12.39690971027353
 21
10.701385
 31
0.0
 12
12.34440971027352
 22
11.01638499999999
 32
0.0
 13
12.34440971027352
 23
11.01638499999999
 33
0.0
  0
SOLID
  5
17AA
330
907
100
AcDbEntity
  8
DIM
 62
     0
100
AcDbTrace
 10
12.29190971027352
 20
11.49638499999999
 30
0.0
 11
12.39690971027353
 21
11.49638499999999
 31
0.0
 12
12.34440971027352
 22
11.18138499999999
 32
0.0
 13
12.34440971027352
 23
11.18138499999999
 33
0.0
  0
MTEXT
  5
17AB
330
907
100
AcDbEntity
  8
DIM
 62
     0
100
AcDbMText
 10
13.43214408527352
 20
11.811385
 30
0.0
 40
0.21875
 41
0.0
 71
     5
 72
     1
  1
\A1;0.165 DIA.
 73
     1
 44
1.0
  0
POINT
  5
17AC
330
907
100
AcDbEntity
  8
DEFPOINTS
 62
     0
100
AcDbPoint
 10
11.53754971027352
 20
11.016385
 30
0.0
  0
POINT
  5
17AD
330
907
100
AcDbEntity
  8
DEFPOINTS
 62
     0
100
AcDbPoint
 10
11.53754971027352
 20
11.181385
 30
0.0
  0
POINT
  5
17AE
330
907
100
AcDbEntity
  8
DEFPOINTS
 62
     0
100
AcDbPoint
 10
12.34440971027352
 20
11.18138499999999
 30
0.0
  0
ENDBLK
  5
913
330
907
100
AcDbEntity
  8
0
100
AcDbBlockEnd
  0
BLOCK
  5
926
330
91B
100
AcDbEntity
  8
0
100
AcDbBlockBegin
  2
*D26
 70
     1
 10
0.0
 20
0.0
 30
0.0
  3
*D26
  1

  0
LINE
  5
16A8
330
91B
100
AcDbEntity
  8
DIM
 62
     0
370
    -2
100
AcDbLine
 10
5.610193710273529
 20
5.507884999999999
 30
0.0
 11
5.151951710273526
 21
5.507884999999999
 31
0.0
  0
LINE
  5
16A9
330
91B
100
AcDbEntity
  8
DIM
 62
     0
370
    -2
100
AcDbLine
 10
5.610193710273529
 20
10.852006
 30
0.0
 11
5.151951710273528
 21
10.852006
 31
0.0
  0
LINE
  5
16AA
330
91B
100
AcDbEntity
  8
DIM
 62
     0
370
    -2
100
AcDbLine
 10
5.314701710273526
 20
5.822885
 30
0.0
 11
5.314701710273527
 21
7.913070500000001
 31
0.0
  0
LINE
  5
16AB
330
91B
100
AcDbEntity
  8
DIM
 62
     0
370
    -2
100
AcDbLine
 10
5.314701710273528
 20
10.53700599999999
 30
0.0
 11
5.314701710273527
 21
8.446820500000001
 31
0.0
  0
SOLID
  5
16AC
330
91B
100
AcDbEntity
  8
DIM
 62
     0
100
AcDbTrace
 10
5.262201710273526
 20
5.822885
 30
0.0
 11
5.367201710273526
 21
5.822885
 31
0.0
 12
5.314701710273526
 22
5.507884999999999
 32
0.0
 13
5.314701710273526
 23
5.507884999999999
 33
0.0
  0
SOLID
  5
16AD
330
91B
100
AcDbEntity
  8
DIM
 62
     0
100
AcDbTrace
 10
5.262201710273528
 20
10.53700599999999
 30
0.0
 11
5.367201710273528
 21
10.53700599999999
 31
0.0
 12
5.314701710273528
 22
10.852006
 32
0.0
 13
5.314701710273528
 23
10.852006
 33
0.0
  0
MTEXT
  5
16AE
330
91B
100
AcDbEntity
  8
DIM
 62
     0
100
AcDbMText
 10
5.314701710273526
 20
8.179945500000002
 30
0.0
 40
0.21875
 41
0.0
 71
     5
 72
     1
  1
\A1;5.344
 73
     1
 44
1.0
  0
POINT
  5
16AF
330
91B
100
AcDbEntity
  8
DEFPOINTS
 62
     0
100
AcDbPoint
 10
5.720443710273529
 20
5.507884999999999
 30
0.0
  0
POINT
  5
16B0
330
91B
100
AcDbEntity
  8
DEFPOINTS
 62
     0
100
AcDbPoint
 10
5.720443710273529
 20
10.852006
 30
0.0
  0
POINT
  5
16B1
330
91B
100
AcDbEntity
  8
DEFPOINTS
 62
     0
100
AcDbPoint
 10
5.314701710273528
 20
10.852006
 30
0.0
  0
ENDBLK
  5
927
330
91B
100
AcDbEntity
  8
0
100
AcDbBlockEnd
  0
BLOCK
  5
934
330
929
100
AcDbEntity
  8
0
100
AcDbBlockBegin
  2
*D27
 70
     1
 10
0.0
 20
0.0
 30
0.0
  3
*D27
  1

  0
LINE
  5
178F
330
929
100
AcDbEntity
  8
DIM
 62
     0
370
    -2
100
AcDbLine
 10
5.610193710273529
 20
10.852006
 30
0.0
 11
5.151951710273528
 21
10.852006
 31
0.0
  0
LINE
  5
1790
330
929
100
AcDbEntity
  8
DIM
 62
     0
370
    -2
100
AcDbLine
 10
5.348469710273528
 20
11.334885
 30
0.0
 11
5.477451710273528
 21
11.334885
 31
0.0
  0
LINE
  5
1791
330
929
100
AcDbEntity
  8
DIM
 62
     0
370
    -2
100
AcDbLine
 10
5.314701710273528
 20
10.53700599999999
 30
0.0
 11
5.314701710273528
 21
10.22200599999999
 31
0.0
  0
LINE
  5
1792
330
929
100
AcDbEntity
  8
DIM
 62
     0
370
    -2
100
AcDbLine
 10
5.314701710273528
 20
11.64988499999999
 30
0.0
 11
5.314701710273528
 21
11.964885
 31
0.0
  0
LINE
  5
1793
330
929
100
AcDbEntity
  8
DIM
 62
     0
370
    -2
100
AcDbLine
 10
5.314701710273528
 20
11.964885
 30
0.0
 11
5.629701710273528
 21
11.964885
 31
0.0
  0
SOLID
  5
1794
330
929
100
AcDbEntity
  8
DIM
 62
     0
100
AcDbTrace
 10
5.262201710273528
 20
10.53700599999999
 30
0.0
 11
5.367201710273528
 21
10.53700599999999
 31
0.0
 12
5.314701710273528
 22
10.852006
 32
0.0
 13
5.314701710273528
 23
10.852006
 33
0.0
  0
SOLID
  5
1795
330
929
100
AcDbEntity
  8
DIM
 62
     0
100
AcDbTrace
 10
5.262201710273528
 20
11.64988499999999
 30
0.0
 11
5.367201710273528
 21
11.64988499999999
 31
0.0
 12
5.314701710273528
 22
11.334885
 32
0.0
 13
5.314701710273528
 23
11.334885
 33
0.0
  0
MTEXT
  5
1796
330
929
100
AcDbEntity
  8
DIM
 62
     0
100
AcDbMText
 10
6.101654835273526
 20
11.964885
 30
0.0
 40
0.21875
 41
0.0
 71
     5
 72
     1
  1
\A1;0.483
 73
     1
 44
1.0
  0
POINT
  5
1797
330
929
100
AcDbEntity
  8
DEFPOINTS
 62
     0
100
AcDbPoint
 10
5.720443710273529
 20
10.852006
 30
0.0
  0
POINT
  5
1798
330
929
100
AcDbEntity
  8
DEFPOINTS
 62
     0
100
AcDbPoint
 10
5.238219710273528
 20
11.334885
 30
0.0
  0
POINT
  5
1799
330
929
100
AcDbEntity
  8
DEFPOINTS
 62
     0
100
AcDbPoint
 10
5.314701710273528
 20
11.334885
 30
0.0
  0
ENDBLK
  5
935
330
929
100
AcDbEntity
  8
0
100
AcDbBlockEnd
  0
BLOCK
  5
941
330
937
100
AcDbEntity
  8
0
100
AcDbBlockBegin
  2
*D28
 70
     1
 10
0.0
 20
0.0
 30
0.0
  3
*D28
  1

  0
LINE
  5
16D0
330
937
100
AcDbEntity
  8
DIM
 62
     0
370
    -2
100
AcDbLine
 10
5.720443710273529
 20
5.397635
 30
0.0
 11
5.720443710273529
 21
4.377085
 31
0.0
  0
LINE
  5
16D1
330
937
100
AcDbEntity
  8
DIM
 62
     0
370
    -2
100
AcDbLine
 10
4.145443710273529
 20
5.144384999999999
 30
0.0
 11
4.145443710273529
 21
4.377085
 31
0.0
  0
LINE
  5
16D2
330
937
100
AcDbEntity
  8
DIM
 62
     0
370
    -2
100
AcDbLine
 10
6.035443710273529
 20
4.539835
 30
0.0
 11
6.350443710273529
 21
4.539835
 31
0.0
  0
LINE
  5
16D3
330
937
100
AcDbEntity
  8
DIM
 62
     0
370
    -2
100
AcDbLine
 10
3.830443710273529
 20
4.539835
 30
0.0
 11
3.515443710273529
 21
4.539835
 31
0.0
  0
SOLID
  5
16D4
330
937
100
AcDbEntity
  8
DIM
 62
     0
100
AcDbTrace
 10
6.035443710273529
 20
4.592335
 30
0.0
 11
6.035443710273529
 21
4.487334999999999
 31
0.0
 12
5.720443710273529
 22
4.539835
 32
0.0
 13
5.720443710273529
 23
4.539835
 33
0.0
  0
SOLID
  5
16D5
330
937
100
AcDbEntity
  8
DIM
 62
     0
100
AcDbTrace
 10
3.830443710273529
 20
4.592335
 30
0.0
 11
3.830443710273529
 21
4.487334999999999
 31
0.0
 12
4.145443710273529
 22
4.539835
 32
0.0
 13
4.145443710273529
 23
4.539835
 33
0.0
  0
MTEXT
  5
16D6
330
937
100
AcDbEntity
  8
DIM
 62
     0
100
AcDbMText
 10
3.057162460273529
 20
4.539835
 30
0.0
 40
0.21875
 41
0.0
 71
     5
 72
     1
  1
\A1;1.575
 73
     1
 44
1.0
  0
POINT
  5
16D7
330
937
100
AcDbEntity
  8
DEFPOINTS
 62
     0
100
AcDbPoint
 10
5.720443710273529
 20
5.507884999999999
 30
0.0
  0
POINT
  5
16D8
330
937
100
AcDbEntity
  8
DEFPOINTS
 62
     0
100
AcDbPoint
 10
4.145443710273529
 20
5.254634999999999
 30
0.0
  0
POINT
  5
16D9
330
937
100
AcDbEntity
  8
DEFPOINTS
 62
     0
100
AcDbPoint
 10
4.145443710273529
 20
4.539835
 30
0.0
  0
ENDBLK
  5
942
330
937
100
AcDbEntity
  8
0
100
AcDbBlockEnd
  0
BLOCK
  5
96F
330
964
100
AcDbEntity
  8
0
100
AcDbBlockBegin
  2
*D29
 70
     1
 10
0.0
 20
0.0
 30
0.0
  3
*D29
  1

  0
LINE
  5
169E
330
964
100
AcDbEntity
  8
DIM
 62
     0
370
    -2
100
AcDbLine
 10
4.468193710273529
 20
8.185385
 30
0.0
 11
2.796793710273527
 21
8.185385000000001
 31
0.0
  0
LINE
  5
169F
330
964
100
AcDbEntity
  8
DIM
 62
     0
370
    -2
100
AcDbLine
 10
4.253943710273529
 20
11.334885
 30
0.0
 11
2.796793710273528
 21
11.334885
 31
0.0
  0
LINE
  5
16A0
330
964
100
AcDbEntity
  8
DIM
 62
     0
370
    -2
100
AcDbLine
 10
2.959543710273527
 20
8.500385000000001
 30
0.0
 11
2.959543710273528
 21
9.493260000000001
 31
0.0
  0
LINE
  5
16A1
330
964
100
AcDbEntity
  8
DIM
 62
     0
370
    -2
100
AcDbLine
 10
2.959543710273528
 20
11.019885
 30
0.0
 11
2.959543710273528
 21
10.02701
 31
0.0
  0
SOLID
  5
16A2
330
964
100
AcDbEntity
  8
DIM
 62
     0
100
AcDbTrace
 10
2.907043710273527
 20
8.500385000000001
 30
0.0
 11
3.012043710273527
 21
8.500385000000001
 31
0.0
 12
2.959543710273527
 22
8.185385000000001
 32
0.0
 13
2.959543710273527
 23
8.185385000000001
 33
0.0
  0
SOLID
  5
16A3
330
964
100
AcDbEntity
  8
DIM
 62
     0
100
AcDbTrace
 10
2.907043710273528
 20
11.019885
 30
0.0
 11
3.012043710273528
 21
11.019885
 31
0.0
 12
2.959543710273528
 22
11.334885
 32
0.0
 13
2.959543710273528
 23
11.334885
 33
0.0
  0
MTEXT
  5
16A4
330
964
100
AcDbEntity
  8
DIM
 62
     0
100
AcDbMText
 10
2.959543710273526
 20
9.760135000000001
 30
0.0
 40
0.21875
 41
0.0
 71
     5
 72
     1
  1
\A1;3.150
 73
     1
 44
1.0
  0
POINT
  5
16A5
330
964
100
AcDbEntity
  8
DEFPOINTS
 62
     0
100
AcDbPoint
 10
4.578443710273528
 20
8.185385
 30
0.0
  0
POINT
  5
16A6
330
964
100
AcDbEntity
  8
DEFPOINTS
 62
     0
100
AcDbPoint
 10
4.364193710273529
 20
11.334885
 30
0.0
  0
POINT
  5
16A7
330
964
100
AcDbEntity
  8
DEFPOINTS
 62
     0
100
AcDbPoint
 10
2.959543710273528
 20
11.334885
 30
0.0
  0
ENDBLK
  5
970
330
964
100
AcDbEntity
  8
0
100
AcDbBlockEnd
  0
BLOCK
  5
97D
330
972
100
AcDbEntity
  8
0
100
AcDbBlockBegin
  2
*D30
 70
     1
 10
0.0
 20
0.0
 30
0.0
  3
*D30
  1

  0
LINE
  5
1694
330
972
100
AcDbEntity
  8
DIM
 62
     0
370
    -2
100
AcDbLine
 10
4.468193710273529
 20
9.366385000000001
 30
0.0
 11
3.357793710273529
 21
9.366385000000002
 31
0.0
  0
LINE
  5
1695
330
972
100
AcDbEntity
  8
DIM
 62
     0
370
    -2
100
AcDbLine
 10
4.468193710273529
 20
8.185385
 30
0.0
 11
3.357793710273528
 21
8.185385000000001
 31
0.0
  0
LINE
  5
1696
330
972
100
AcDbEntity
  8
DIM
 62
     0
370
    -2
100
AcDbLine
 10
3.520543710273529
 20
9.681385000000002
 30
0.0
 11
3.520543710273529
 21
9.996385000000003
 31
0.0
  0
LINE
  5
1697
330
972
100
AcDbEntity
  8
DIM
 62
     0
370
    -2
100
AcDbLine
 10
3.520543710273528
 20
7.870385
 30
0.0
 11
3.520543710273528
 21
7.555385000000001
 31
0.0
  0
SOLID
  5
1698
330
972
100
AcDbEntity
  8
DIM
 62
     0
100
AcDbTrace
 10
3.468043710273529
 20
9.681385000000002
 30
0.0
 11
3.573043710273529
 21
9.681385000000002
 31
0.0
 12
3.520543710273529
 22
9.366385000000002
 32
0.0
 13
3.520543710273529
 23
9.366385000000002
 33
0.0
  0
SOLID
  5
1699
330
972
100
AcDbEntity
  8
DIM
 62
     0
100
AcDbTrace
 10
3.468043710273528
 20
7.870385
 30
0.0
 11
3.573043710273529
 21
7.870385
 31
0.0
 12
3.520543710273528
 22
8.185385000000001
 32
0.0
 13
3.520543710273528
 23
8.185385000000001
 33
0.0
  0
MTEXT
  5
169A
330
972
100
AcDbEntity
  8
DIM
 62
     0
100
AcDbMText
 10
3.520543710273527
 20
8.775885000000002
 30
0.0
 40
0.21875
 41
0.0
 71
     5
 72
     1
  1
\A1;1.181
 73
     1
 44
1.0
  0
POINT
  5
169B
330
972
100
AcDbEntity
  8
DEFPOINTS
 62
     0
100
AcDbPoint
 10
4.578443710273528
 20
9.366385000000001
 30
0.0
  0
POINT
  5
169C
330
972
100
AcDbEntity
  8
DEFPOINTS
 62
     0
100
AcDbPoint
 10
4.578443710273528
 20
8.185385
 30
0.0
  0
POINT
  5
169D
330
972
100
AcDbEntity
  8
DEFPOINTS
 62
     0
100
AcDbPoint
 10
3.520543710273528
 20
8.185385000000001
 30
0.0
  0
ENDBLK
  5
97E
330
972
100
AcDbEntity
  8
0
100
AcDbBlockEnd
  0
BLOCK
  5
98B
330
980
100
AcDbEntity
  8
0
100
AcDbBlockBegin
  2
*D31
 70
     1
 10
0.0
 20
0.0
 30
0.0
  3
*D31
  1

  0
LINE
  5
1716
330
980
100
AcDbEntity
  8
DIM
 62
     0
370
    -2
100
AcDbLine
 10
4.468193710273529
 20
8.185385
 30
0.0
 11
2.796793710273528
 21
8.185385000000001
 31
0.0
  0
LINE
  5
1717
330
980
100
AcDbEntity
  8
DIM
 62
     0
370
    -2
100
AcDbLine
 10
4.468193710273529
 20
7.004385
 30
0.0
 11
2.796793710273528
 21
7.004385
 31
0.0
  0
LINE
  5
1718
330
980
100
AcDbEntity
  8
DIM
 62
     0
370
    -2
100
AcDbLine
 10
2.959543710273528
 20
8.500385000000001
 30
0.0
 11
2.959543710273528
 21
8.815385000000002
 31
0.0
  0
LINE
  5
1719
330
980
100
AcDbEntity
  8
DIM
 62
     0
370
    -2
100
AcDbLine
 10
2.959543710273528
 20
6.689385
 30
0.0
 11
2.959543710273528
 21
6.374385000000001
 31
0.0
  0
SOLID
  5
171A
330
980
100
AcDbEntity
  8
DIM
 62
     0
100
AcDbTrace
 10
2.907043710273528
 20
8.500385000000001
 30
0.0
 11
3.012043710273528
 21
8.500385000000001
 31
0.0
 12
2.959543710273528
 22
8.185385000000001
 32
0.0
 13
2.959543710273528
 23
8.185385000000001
 33
0.0
  0
SOLID
  5
171B
330
980
100
AcDbEntity
  8
DIM
 62
     0
100
AcDbTrace
 10
2.907043710273527
 20
6.689385
 30
0.0
 11
3.012043710273528
 21
6.689385
 31
0.0
 12
2.959543710273528
 22
7.004385
 32
0.0
 13
2.959543710273528
 23
7.004385
 33
0.0
  0
MTEXT
  5
171C
330
980
100
AcDbEntity
  8
DIM
 62
     0
100
AcDbMText
 10
2.959543710273527
 20
7.594885000000001
 30
0.0
 40
0.21875
 41
0.0
 71
     5
 72
     1
  1
\A1;1.181
 73
     1
 44
1.0
  0
POINT
  5
171D
330
980
100
AcDbEntity
  8
DEFPOINTS
 62
     0
100
AcDbPoint
 10
4.578443710273528
 20
8.185385
 30
0.0
  0
POINT
  5
171E
330
980
100
AcDbEntity
  8
DEFPOINTS
 62
     0
100
AcDbPoint
 10
4.578443710273528
 20
7.004385
 30
0.0
  0
POINT
  5
171F
330
980
100
AcDbEntity
  8
DEFPOINTS
 62
     0
100
AcDbPoint
 10
2.959543710273528
 20
7.004385
 30
0.0
  0
ENDBLK
  5
98C
330
980
100
AcDbEntity
  8
0
100
AcDbBlockEnd
  0
BLOCK
  5
9A6
330
99B
100
AcDbEntity
  8
0
100
AcDbBlockBegin
  2
*D32
 70
     1
 10
0.0
 20
0.0
 30
0.0
  3
*D32
  1

  0
LINE
  5
15DD
330
99B
100
AcDbEntity
  8
DIM
 62
     0
370
    -2
100
AcDbLine
 10
18.8678866960393
 20
11.098885
 30
0.0
 11
19.6675756960393
 21
11.098885
 31
0.0
  0
LINE
  5
15DE
330
99B
100
AcDbEntity
  8
DIM
 62
     0
370
    -2
100
AcDbLine
 10
18.8851366960393
 20
11.334885
 30
0.0
 11
19.6675756960393
 21
11.334885
 31
0.0
  0
LINE
  5
15DF
330
99B
100
AcDbEntity
  8
DIM
 62
     0
370
    -2
100
AcDbLine
 10
19.5048256960393
 20
10.783885
 30
0.0
 11
19.5048256960393
 21
10.468885
 31
0.0
  0
LINE
  5
15E0
330
99B
100
AcDbEntity
  8
DIM
 62
     0
370
    -2
100
AcDbLine
 10
19.5048256960393
 20
11.64988499999999
 30
0.0
 11
19.5048256960393
 21
11.964885
 31
0.0
  0
LINE
  5
15E1
330
99B
100
AcDbEntity
  8
DIM
 62
     0
370
    -2
100
AcDbLine
 10
19.5048256960393
 20
11.964885
 30
0.0
 11
19.8198256960393
 21
11.964885
 31
0.0
  0
SOLID
  5
15E2
330
99B
100
AcDbEntity
  8
DIM
 62
     0
100
AcDbTrace
 10
19.4523256960393
 20
10.783885
 30
0.0
 11
19.55732569603929
 21
10.783885
 31
0.0
 12
19.5048256960393
 22
11.098885
 32
0.0
 13
19.5048256960393
 23
11.098885
 33
0.0
  0
SOLID
  5
15E3
330
99B
100
AcDbEntity
  8
DIM
 62
     0
100
AcDbTrace
 10
19.4523256960393
 20
11.64988499999999
 30
0.0
 11
19.55732569603929
 21
11.64988499999999
 31
0.0
 12
19.5048256960393
 22
11.334885
 32
0.0
 13
19.5048256960393
 23
11.334885
 33
0.0
  0
MTEXT
  5
15E4
330
99B
100
AcDbEntity
  8
DIM
 62
     0
100
AcDbMText
 10
20.29177882103929
 20
11.964885
 30
0.0
 40
0.21875
 41
0.0
 71
     5
 72
     1
  1
\A1;0.236
 73
     1
 44
1.0
  0
POINT
  5
15E5
330
99B
100
AcDbEntity
  8
DEFPOINTS
 62
     0
100
AcDbPoint
 10
18.7576366960393
 20
11.098885
 30
0.0
  0
POINT
  5
15E6
330
99B
100
AcDbEntity
  8
DEFPOINTS
 62
     0
100
AcDbPoint
 10
18.7748866960393
 20
11.334885
 30
0.0
  0
POINT
  5
15E7
330
99B
100
AcDbEntity
  8
DEFPOINTS
 62
     0
100
AcDbPoint
 10
19.5048256960393
 20
11.334885
 30
0.0
  0
ENDBLK
  5
9A7
330
99B
100
AcDbEntity
  8
0
100
AcDbBlockEnd
  0
BLOCK
  5
9B4
330
9A9
100
AcDbEntity
  8
0
100
AcDbBlockBegin
  2
*D33
 70
     1
 10
0.0
 20
0.0
 30
0.0
  3
*D33
  1

  0
LINE
  5
158C
330
9A9
100
AcDbEntity
  8
DIM
 62
     0
370
    -2
100
AcDbLine
 10
18.8678866960393
 20
5.271885
 30
0.0
 11
19.66757569603929
 21
5.271885
 31
0.0
  0
LINE
  5
158D
330
9A9
100
AcDbEntity
  8
DIM
 62
     0
370
    -2
100
AcDbLine
 10
18.8678866960393
 20
11.098885
 30
0.0
 11
19.6675756960393
 21
11.098885
 31
0.0
  0
LINE
  5
158E
330
9A9
100
AcDbEntity
  8
DIM
 62
     0
370
    -2
100
AcDbLine
 10
19.50482569603929
 20
5.586885
 30
0.0
 11
19.50482569603929
 21
7.918510000000001
 31
0.0
  0
LINE
  5
158F
330
9A9
100
AcDbEntity
  8
DIM
 62
     0
370
    -2
100
AcDbLine
 10
19.5048256960393
 20
10.783885
 30
0.0
 11
19.5048256960393
 21
8.452260000000002
 31
0.0
  0
SOLID
  5
1590
330
9A9
100
AcDbEntity
  8
DIM
 62
     0
100
AcDbTrace
 10
19.4523256960393
 20
5.586885
 30
0.0
 11
19.55732569603929
 21
5.586885
 31
0.0
 12
19.50482569603929
 22
5.271885
 32
0.0
 13
19.50482569603929
 23
5.271885
 33
0.0
  0
SOLID
  5
1591
330
9A9
100
AcDbEntity
  8
DIM
 62
     0
100
AcDbTrace
 10
19.4523256960393
 20
10.783885
 30
0.0
 11
19.55732569603929
 21
10.783885
 31
0.0
 12
19.5048256960393
 22
11.098885
 32
0.0
 13
19.5048256960393
 23
11.098885
 33
0.0
  0
MTEXT
  5
1592
330
9A9
100
AcDbEntity
  8
DIM
 62
     0
100
AcDbMText
 10
19.50482569603929
 20
8.185385000000003
 30
0.0
 40
0.21875
 41
0.0
 71
     5
 72
     1
  1
\A1;5.827
 73
     1
 44
1.0
  0
POINT
  5
1593
330
9A9
100
AcDbEntity
  8
DEFPOINTS
 62
     0
100
AcDbPoint
 10
18.7576366960393
 20
5.271885
 30
0.0
  0
POINT
  5
1594
330
9A9
100
AcDbEntity
  8
DEFPOINTS
 62
     0
100
AcDbPoint
 10
18.7576366960393
 20
11.098885
 30
0.0
  0
POINT
  5
1595
330
9A9
100
AcDbEntity
  8
DEFPOINTS
 62
     0
100
AcDbPoint
 10
19.5048256960393
 20
11.098885
 30
0.0
  0
ENDBLK
  5
9B5
330
9A9
100
AcDbEntity
  8
0
100
AcDbBlockEnd
  0
BLOCK
  5
9C2
330
9B7
100
AcDbEntity
  8
0
100
AcDbBlockBegin
  2
*D34
 70
     1
 10
0.0
 20
0.0
 30
0.0
  3
*D34
  1

  0
LINE
  5
1596
330
9B7
100
AcDbEntity
  8
DIM
 62
     0
370
    -2
100
AcDbLine
 10
15.9521366960393
 20
5.035884999999999
 30
0.0
 11
15.0435476960393
 21
5.035884999999999
 31
0.0
  0
LINE
  5
1597
330
9B7
100
AcDbEntity
  8
DIM
 62
     0
370
    -2
100
AcDbLine
 10
15.9521366960393
 20
11.334885
 30
0.0
 11
15.0435476960393
 21
11.334885
 31
0.0
  0
LINE
  5
1598
330
9B7
100
AcDbEntity
  8
DIM
 62
     0
370
    -2
100
AcDbLine
 10
15.2062976960393
 20
5.350884999999999
 30
0.0
 11
15.2062976960393
 21
7.91851
 31
0.0
  0
LINE
  5
1599
330
9B7
100
AcDbEntity
  8
DIM
 62
     0
370
    -2
100
AcDbLine
 10
15.2062976960393
 20
11.019885
 30
0.0
 11
15.2062976960393
 21
8.45226
 31
0.0
  0
SOLID
  5
159A
330
9B7
100
AcDbEntity
  8
DIM
 62
     0
100
AcDbTrace
 10
15.1537976960393
 20
5.350884999999999
 30
0.0
 11
15.2587976960393
 21
5.350884999999999
 31
0.0
 12
15.2062976960393
 22
5.035884999999999
 32
0.0
 13
15.2062976960393
 23
5.035884999999999
 33
0.0
  0
SOLID
  5
159B
330
9B7
100
AcDbEntity
  8
DIM
 62
     0
100
AcDbTrace
 10
15.1537976960393
 20
11.019885
 30
0.0
 11
15.2587976960393
 21
11.019885
 31
0.0
 12
15.2062976960393
 22
11.334885
 32
0.0
 13
15.2062976960393
 23
11.334885
 33
0.0
  0
MTEXT
  5
159C
330
9B7
100
AcDbEntity
  8
DIM
 62
     0
100
AcDbMText
 10
15.2062976960393
 20
8.185385000000001
 30
0.0
 40
0.21875
 41
0.0
 71
     5
 72
     1
  1
\A1;6.299
 73
     1
 44
1.0
  0
POINT
  5
159D
330
9B7
100
AcDbEntity
  8
DEFPOINTS
 62
     0
100
AcDbPoint
 10
16.0623866960393
 20
5.035884999999999
 30
0.0
  0
POINT
  5
159E
330
9B7
100
AcDbEntity
  8
DEFPOINTS
 62
     0
100
AcDbPoint
 10
16.0623866960393
 20
11.334885
 30
0.0
  0
POINT
  5
159F
330
9B7
100
AcDbEntity
  8
DEFPOINTS
 62
     0
100
AcDbPoint
 10
15.2062976960393
 20
11.334885
 30
0.0
  0
ENDBLK
  5
9C3
330
9B7
100
AcDbEntity
  8
0
100
AcDbBlockEnd
  0
BLOCK
  5
9D0
330
9C5
100
AcDbEntity
  8
0
100
AcDbBlockBegin
  2
*D35
 70
     1
 10
0.0
 20
0.0
 30
0.0
  3
*D35
  1

  0
LINE
  5
1449
330
9C5
100
AcDbEntity
  8
DIM
 62
     0
370
    -2
100
AcDbLine
 10
16.0796366960393
 20
11.209135
 30
0.0
 11
16.0796366960393
 21
12.530089
 31
0.0
  0
LINE
  5
144A
330
9C5
100
AcDbEntity
  8
DIM
 62
     0
370
    -2
100
AcDbLine
 10
15.8436366960393
 20
11.226385
 30
0.0
 11
15.8436366960393
 21
12.530089
 31
0.0
  0
LINE
  5
144B
330
9C5
100
AcDbEntity
  8
DIM
 62
     0
370
    -2
100
AcDbLine
 10
16.3946366960393
 20
12.36733899999999
 30
0.0
 11
16.7096366960393
 21
12.36733899999999
 31
0.0
  0
LINE
  5
144C
330
9C5
100
AcDbEntity
  8
DIM
 62
     0
370
    -2
100
AcDbLine
 10
15.5286366960393
 20
12.36733899999999
 30
0.0
 11
15.2136366960393
 21
12.36733899999999
 31
0.0
  0
SOLID
  5
144D
330
9C5
100
AcDbEntity
  8
DIM
 62
     0
100
AcDbTrace
 10
16.3946366960393
 20
12.419839
 30
0.0
 11
16.3946366960393
 21
12.31483899999999
 31
0.0
 12
16.0796366960393
 22
12.36733899999999
 32
0.0
 13
16.0796366960393
 23
12.36733899999999
 33
0.0
  0
SOLID
  5
144E
330
9C5
100
AcDbEntity
  8
DIM
 62
     0
100
AcDbTrace
 10
15.5286366960393
 20
12.419839
 30
0.0
 11
15.5286366960393
 21
12.31483899999999
 31
0.0
 12
15.8436366960393
 22
12.36733899999999
 32
0.0
 13
15.8436366960393
 23
12.36733899999999
 33
0.0
  0
MTEXT
  5
144F
330
9C5
100
AcDbEntity
  8
DIM
 62
     0
100
AcDbMText
 10
14.7416835710393
 20
12.36733899999999
 30
0.0
 40
0.21875
 41
0.0
 71
     5
 72
     1
  1
\A1;0.236
 73
     1
 44
1.0
  0
POINT
  5
1450
330
9C5
100
AcDbEntity
  8
DEFPOINTS
 62
     0
100
AcDbPoint
 10
16.0796366960393
 20
11.098885
 30
0.0
  0
POINT
  5
1451
330
9C5
100
AcDbEntity
  8
DEFPOINTS
 62
     0
100
AcDbPoint
 10
15.8436366960393
 20
11.116135
 30
0.0
  0
POINT
  5
1452
330
9C5
100
AcDbEntity
  8
DEFPOINTS
 62
     0
100
AcDbPoint
 10
15.8436366960393
 20
12.36733899999999
 30
0.0
  0
ENDBLK
  5
9D1
330
9C5
100
AcDbEntity
  8
0
100
AcDbBlockEnd
  0
BLOCK
  5
9DE
330
9D3
100
AcDbEntity
  8
0
100
AcDbBlockBegin
  2
*D36
 70
     1
 10
0.0
 20
0.0
 30
0.0
  3
*D36
  1

  0
LINE
  5
15E8
330
9D3
100
AcDbEntity
  8
DIM
 62
     0
370
    -2
100
AcDbLine
 10
18.7576366960393
 20
11.209135
 30
0.0
 11
18.7576366960393
 21
12.530089
 31
0.0
  0
LINE
  5
15E9
330
9D3
100
AcDbEntity
  8
DIM
 62
     0
370
    -2
100
AcDbLine
 10
16.0796366960393
 20
11.209135
 30
0.0
 11
16.0796366960393
 21
12.530089
 31
0.0
  0
LINE
  5
15EA
330
9D3
100
AcDbEntity
  8
DIM
 62
     0
370
    -2
100
AcDbLine
 10
18.4426366960393
 20
12.36733899999999
 30
0.0
 11
17.9042616960393
 21
12.36733899999999
 31
0.0
  0
LINE
  5
15EB
330
9D3
100
AcDbEntity
  8
DIM
 62
     0
370
    -2
100
AcDbLine
 10
16.3946366960393
 20
12.36733899999999
 30
0.0
 11
16.9330116960393
 21
12.36733899999999
 31
0.0
  0
SOLID
  5
15EC
330
9D3
100
AcDbEntity
  8
DIM
 62
     0
100
AcDbTrace
 10
18.4426366960393
 20
12.419839
 30
0.0
 11
18.4426366960393
 21
12.31483899999999
 31
0.0
 12
18.7576366960393
 22
12.36733899999999
 32
0.0
 13
18.7576366960393
 23
12.36733899999999
 33
0.0
  0
SOLID
  5
15ED
330
9D3
100
AcDbEntity
  8
DIM
 62
     0
100
AcDbTrace
 10
16.3946366960393
 20
12.419839
 30
0.0
 11
16.3946366960393
 21
12.31483899999999
 31
0.0
 12
16.0796366960393
 22
12.36733899999999
 32
0.0
 13
16.0796366960393
 23
12.36733899999999
 33
0.0
  0
MTEXT
  5
15EE
330
9D3
100
AcDbEntity
  8
DIM
 62
     0
100
AcDbMText
 10
17.4186366960393
 20
12.36733899999999
 30
0.0
 40
0.21875
 41
0.0
 71
     5
 72
     1
  1
\A1;2.678
 73
     1
 44
1.0
  0
POINT
  5
15EF
330
9D3
100
AcDbEntity
  8
DEFPOINTS
 62
     0
100
AcDbPoint
 10
18.7576366960393
 20
11.098885
 30
0.0
  0
POINT
  5
15F0
330
9D3
100
AcDbEntity
  8
DEFPOINTS
 62
     0
100
AcDbPoint
 10
16.0796366960393
 20
11.098885
 30
0.0
  0
POINT
  5
15F1
330
9D3
100
AcDbEntity
  8
DEFPOINTS
 62
     0
100
AcDbPoint
 10
16.0796366960393
 20
12.36733899999999
 30
0.0
  0
ENDBLK
  5
9DF
330
9D3
100
AcDbEntity
  8
0
100
AcDbBlockEnd
  0
BLOCK
  5
9EC
330
9E1
100
AcDbEntity
  8
0
100
AcDbBlockBegin
  2
*D37
 70
     1
 10
0.0
 20
0.0
 30
0.0
  3
*D37
  1

  0
LINE
  5
15F2
330
9E1
100
AcDbEntity
  8
DIM
 62
     0
370
    -2
100
AcDbLine
 10
18.9936366960393
 20
11.226385
 30
0.0
 11
18.9936366960393
 21
13.021839
 31
0.0
  0
LINE
  5
15F3
330
9E1
100
AcDbEntity
  8
DIM
 62
     0
370
    -2
100
AcDbLine
 10
15.8436366960393
 20
11.226385
 30
0.0
 11
15.8436366960393
 21
13.021839
 31
0.0
  0
LINE
  5
15F4
330
9E1
100
AcDbEntity
  8
DIM
 62
     0
370
    -2
100
AcDbLine
 10
18.6786366960393
 20
12.85908899999999
 30
0.0
 11
17.8632460710393
 21
12.85908899999999
 31
0.0
  0
LINE
  5
15F5
330
9E1
100
AcDbEntity
  8
DIM
 62
     0
370
    -2
100
AcDbLine
 10
16.1586366960393
 20
12.85908899999999
 30
0.0
 11
16.9740273210393
 21
12.85908899999999
 31
0.0
  0
SOLID
  5
15F6
330
9E1
100
AcDbEntity
  8
DIM
 62
     0
100
AcDbTrace
 10
18.6786366960393
 20
12.911589
 30
0.0
 11
18.6786366960393
 21
12.80658899999999
 31
0.0
 12
18.9936366960393
 22
12.85908899999999
 32
0.0
 13
18.9936366960393
 23
12.85908899999999
 33
0.0
  0
SOLID
  5
15F7
330
9E1
100
AcDbEntity
  8
DIM
 62
     0
100
AcDbTrace
 10
16.1586366960393
 20
12.911589
 30
0.0
 11
16.1586366960393
 21
12.80658899999999
 31
0.0
 12
15.8436366960393
 22
12.85908899999999
 32
0.0
 13
15.8436366960393
 23
12.85908899999999
 33
0.0
  0
MTEXT
  5
15F8
330
9E1
100
AcDbEntity
  8
DIM
 62
     0
100
AcDbMText
 10
17.4186366960393
 20
12.85908899999999
 30
0.0
 40
0.21875
 41
0.0
 71
     5
 72
     1
  1
\A1;3.150
 73
     1
 44
1.0
  0
POINT
  5
15F9
330
9E1
100
AcDbEntity
  8
DEFPOINTS
 62
     0
100
AcDbPoint
 10
18.9936366960393
 20
11.116135
 30
0.0
  0
POINT
  5
15FA
330
9E1
100
AcDbEntity
  8
DEFPOINTS
 62
     0
100
AcDbPoint
 10
15.8436366960393
 20
11.116135
 30
0.0
  0
POINT
  5
15FB
330
9E1
100
AcDbEntity
  8
DEFPOINTS
 62
     0
100
AcDbPoint
 10
15.8436366960393
 20
12.85908899999999
 30
0.0
  0
ENDBLK
  5
9ED
330
9E1
100
AcDbEntity
  8
0
100
AcDbBlockEnd
  0
BLOCK
  5
A02
330
9F7
100
AcDbEntity
  8
0
100
AcDbBlockBegin
  2
*D38
 70
     1
 10
0.0
 20
0.0
 30
0.0
  3
*D38
  1

  0
LINE
  5
15A0
330
9F7
100
AcDbEntity
  8
DIM
 62
     0
370
    -2
100
AcDbLine
 10
17.5233346960393
 20
5.213884999999999
 30
0.0
 11
17.6344276960393
 21
5.213884999999999
 31
0.0
  0
LINE
  5
15A1
330
9F7
100
AcDbEntity
  8
DIM
 62
     0
370
    -2
100
AcDbLine
 10
17.5233346960393
 20
5.035884999999999
 30
0.0
 11
17.6344276960393
 21
5.035884999999999
 31
0.0
  0
LINE
  5
15A2
330
9F7
100
AcDbEntity
  8
DIM
 62
     0
370
    -2
100
AcDbLine
 10
17.4716776960393
 20
5.528884999999999
 30
0.0
 11
17.4716776960393
 21
5.843884999999999
 31
0.0
  0
LINE
  5
15A3
330
9F7
100
AcDbEntity
  8
DIM
 62
     0
370
    -2
100
AcDbLine
 10
17.4716776960393
 20
4.720884999999999
 30
0.0
 11
17.4716776960393
 21
4.405884999999999
 31
0.0
  0
LINE
  5
15A4
330
9F7
100
AcDbEntity
  8
DIM
 62
     0
370
    -2
100
AcDbLine
 10
17.4716776960393
 20
4.405884999999999
 30
0.0
 11
17.15667769603929
 21
4.405884999999999
 31
0.0
  0
SOLID
  5
15A5
330
9F7
100
AcDbEntity
  8
DIM
 62
     0
100
AcDbTrace
 10
17.4191776960393
 20
5.528884999999999
 30
0.0
 11
17.5241776960393
 21
5.528884999999999
 31
0.0
 12
17.4716776960393
 22
5.213884999999999
 32
0.0
 13
17.4716776960393
 23
5.213884999999999
 33
0.0
  0
SOLID
  5
15A6
330
9F7
100
AcDbEntity
  8
DIM
 62
     0
100
AcDbTrace
 10
17.4191776960393
 20
4.720884999999999
 30
0.0
 11
17.5241776960393
 21
4.720884999999999
 31
0.0
 12
17.4716776960393
 22
5.035884999999999
 32
0.0
 13
17.4716776960393
 23
5.035884999999999
 33
0.0
  0
MTEXT
  5
15A7
330
9F7
100
AcDbEntity
  8
DIM
 62
     0
100
AcDbMText
 10
16.3565995710393
 20
4.405885000000002
 30
0.0
 40
0.21875
 41
0.0
 71
     5
 72
     1
  1
\A1;0.178 TYP.
 73
     1
 44
1.0
  0
POINT
  5
15A8
330
9F7
100
AcDbEntity
  8
DEFPOINTS
 62
     0
100
AcDbPoint
 10
17.4130846960393
 20
5.213884999999999
 30
0.0
  0
POINT
  5
15A9
330
9F7
100
AcDbEntity
  8
DEFPOINTS
 62
     0
100
AcDbPoint
 10
17.4130846960393
 20
5.035884999999999
 30
0.0
  0
POINT
  5
15AA
330
9F7
100
AcDbEntity
  8
DEFPOINTS
 62
     0
100
AcDbPoint
 10
17.4716776960393
 20
5.035884999999999
 30
0.0
  0
ENDBLK
  5
A03
330
9F7
100
AcDbEntity
  8
0
100
AcDbBlockEnd
  0
BLOCK
  5
A7A
330
A6F
100
AcDbEntity
  8
0
100
AcDbBlockBegin
  2
*D39
 70
     1
 10
0.0
 20
0.0
 30
0.0
  3
*D39
  1

  0
LINE
  5
1610
330
A6F
100
AcDbEntity
  8
DIM
 62
     0
370
    -2
100
AcDbLine
 10
25.06525440631284
 20
11.382635
 30
0.0
 11
25.06525440631284
 21
11.880939
 31
0.0
  0
LINE
  5
1611
330
A6F
100
AcDbEntity
  8
DIM
 62
     0
370
    -2
100
AcDbLine
 10
27.23625440631284
 20
11.395135
 30
0.0
 11
27.23625440631284
 21
11.880939
 31
0.0
  0
LINE
  5
1612
330
A6F
100
AcDbEntity
  8
DIM
 62
     0
370
    -2
100
AcDbLine
 10
25.38025440631284
 20
11.718189
 30
0.0
 11
25.71981690631284
 21
11.718189
 31
0.0
  0
LINE
  5
1613
330
A6F
100
AcDbEntity
  8
DIM
 62
     0
370
    -2
100
AcDbLine
 10
26.92125440631284
 20
11.718189
 30
0.0
 11
26.58169190631284
 21
11.718189
 31
0.0
  0
SOLID
  5
1614
330
A6F
100
AcDbEntity
  8
DIM
 62
     0
100
AcDbTrace
 10
25.38025440631284
 20
11.770689
 30
0.0
 11
25.38025440631284
 21
11.665689
 31
0.0
 12
25.06525440631284
 22
11.718189
 32
0.0
 13
25.06525440631284
 23
11.718189
 33
0.0
  0
SOLID
  5
1615
330
A6F
100
AcDbEntity
  8
DIM
 62
     0
100
AcDbTrace
 10
26.92125440631284
 20
11.770689
 30
0.0
 11
26.92125440631284
 21
11.665689
 31
0.0
 12
27.23625440631284
 22
11.718189
 32
0.0
 13
27.23625440631284
 23
11.718189
 33
0.0
  0
MTEXT
  5
1616
330
A6F
100
AcDbEntity
  8
DIM
 62
     0
100
AcDbMText
 10
26.15075440631284
 20
11.718189
 30
0.0
 40
0.21875
 41
0.0
 71
     5
 72
     1
  1
\A1;2.171
 73
     1
 44
1.0
  0
POINT
  5
1617
330
A6F
100
AcDbEntity
  8
DEFPOINTS
 62
     0
100
AcDbPoint
 10
25.06525440631284
 20
11.272385
 30
0.0
  0
POINT
  5
1618
330
A6F
100
AcDbEntity
  8
DEFPOINTS
 62
     0
100
AcDbPoint
 10
27.23625440631284
 20
11.284885
 30
0.0
  0
POINT
  5
1619
330
A6F
100
AcDbEntity
  8
DEFPOINTS
 62
     0
100
AcDbPoint
 10
27.23625440631284
 20
11.718189
 30
0.0
  0
ENDBLK
  5
A7B
330
A6F
100
AcDbEntity
  8
0
100
AcDbBlockEnd
  0
BLOCK
  5
A88
330
A7D
100
AcDbEntity
  8
0
100
AcDbBlockBegin
  2
*D40
 70
     1
 10
0.0
 20
0.0
 30
0.0
  3
*D40
  1

  0
LINE
  5
15B5
330
A7D
100
AcDbEntity
  8
DIM
 62
     0
370
    -2
100
AcDbLine
 10
25.06525440631284
 20
4.988134999999999
 30
0.0
 11
25.06525440631284
 21
4.453851999999999
 31
0.0
  0
LINE
  5
15B6
330
A7D
100
AcDbEntity
  8
DIM
 62
     0
370
    -2
100
AcDbLine
 10
25.65625440631285
 20
4.925634999999999
 30
0.0
 11
25.65625440631285
 21
4.453851999999999
 31
0.0
  0
LINE
  5
15B7
330
A7D
100
AcDbEntity
  8
DIM
 62
     0
370
    -2
100
AcDbLine
 10
24.75025440631284
 20
4.616601999999999
 30
0.0
 11
24.43525440631284
 21
4.616601999999999
 31
0.0
  0
LINE
  5
15B8
330
A7D
100
AcDbEntity
  8
DIM
 62
     0
370
    -2
100
AcDbLine
 10
25.97125440631284
 20
4.616601999999999
 30
0.0
 11
26.28625440631285
 21
4.616601999999999
 31
0.0
  0
SOLID
  5
15B9
330
A7D
100
AcDbEntity
  8
DIM
 62
     0
100
AcDbTrace
 10
24.75025440631284
 20
4.669101999999999
 30
0.0
 11
24.75025440631284
 21
4.564101999999999
 31
0.0
 12
25.06525440631284
 22
4.616601999999999
 32
0.0
 13
25.06525440631284
 23
4.616601999999999
 33
0.0
  0
SOLID
  5
15BA
330
A7D
100
AcDbEntity
  8
DIM
 62
     0
100
AcDbTrace
 10
25.97125440631284
 20
4.669101999999999
 30
0.0
 11
25.97125440631284
 21
4.564101999999999
 31
0.0
 12
25.65625440631285
 22
4.616601999999999
 32
0.0
 13
25.65625440631285
 23
4.616601999999999
 33
0.0
  0
MTEXT
  5
15BB
330
A7D
100
AcDbEntity
  8
DIM
 62
     0
100
AcDbMText
 10
27.08633253131285
 20
4.616601999999999
 30
0.0
 40
0.21875
 41
0.0
 71
     5
 72
     1
  1
\A1;0.591 REF.
 73
     1
 44
1.0
  0
POINT
  5
15BC
330
A7D
100
AcDbEntity
  8
DEFPOINTS
 62
     0
100
AcDbPoint
 10
25.06525440631284
 20
5.098384999999999
 30
0.0
  0
POINT
  5
15BD
330
A7D
100
AcDbEntity
  8
DEFPOINTS
 62
     0
100
AcDbPoint
 10
25.65625440631285
 20
5.035884999999999
 30
0.0
  0
POINT
  5
15BE
330
A7D
100
AcDbEntity
  8
DEFPOINTS
 62
     0
100
AcDbPoint
 10
25.65625440631285
 20
4.616601999999999
 30
0.0
  0
ENDBLK
  5
A89
330
A7D
100
AcDbEntity
  8
0
100
AcDbBlockEnd
  0
BLOCK
  5
AAC
330
AA1
100
AcDbEntity
  8
0
100
AcDbBlockBegin
  2
*D41
 70
     1
 10
0.0
 20
0.0
 30
0.0
  3
*D41
  1

  0
LINE
  5
15AB
330
AA1
100
AcDbEntity
  8
DIM
 62
     0
370
    -2
100
AcDbLine
 10
21.9739726960393
 20
7.897353999999999
 30
0.0
 11
21.9739726960393
 21
7.793371999999999
 31
0.0
  0
LINE
  5
15AC
330
AA1
100
AcDbEntity
  8
DIM
 62
     0
370
    -2
100
AcDbLine
 10
22.0939726960393
 20
7.897353999999999
 30
0.0
 11
22.0939726960393
 21
7.793371999999999
 31
0.0
  0
LINE
  5
15AD
330
AA1
100
AcDbEntity
  8
DIM
 62
     0
370
    -2
100
AcDbLine
 10
21.6589726960393
 20
7.956121999999999
 30
0.0
 11
21.3439726960393
 21
7.956121999999999
 31
0.0
  0
LINE
  5
15AE
330
AA1
100
AcDbEntity
  8
DIM
 62
     0
370
    -2
100
AcDbLine
 10
22.4089726960393
 20
7.956121999999999
 30
0.0
 11
22.7239726960393
 21
7.956121999999999
 31
0.0
  0
SOLID
  5
15AF
330
AA1
100
AcDbEntity
  8
DIM
 62
     0
100
AcDbTrace
 10
21.6589726960393
 20
8.008621999999999
 30
0.0
 11
21.6589726960393
 21
7.903621999999999
 31
0.0
 12
21.9739726960393
 22
7.956121999999999
 32
0.0
 13
21.9739726960393
 23
7.956121999999999
 33
0.0
  0
SOLID
  5
15B0
330
AA1
100
AcDbEntity
  8
DIM
 62
     0
100
AcDbTrace
 10
22.4089726960393
 20
8.008621999999999
 30
0.0
 11
22.4089726960393
 21
7.903621999999999
 31
0.0
 12
22.0939726960393
 22
7.956121999999999
 32
0.0
 13
22.0939726960393
 23
7.956121999999999
 33
0.0
  0
MTEXT
  5
15B1
330
AA1
100
AcDbEntity
  8
DIM
 62
     0
100
AcDbMText
 10
23.1549101960393
 20
7.956121999999999
 30
0.0
 40
0.21875
 41
0.0
 71
     5
 72
     1
  1
\A1;0.120
 73
     1
 44
1.0
  0
POINT
  5
15B2
330
AA1
100
AcDbEntity
  8
DEFPOINTS
 62
     0
100
AcDbPoint
 10
21.9739726960393
 20
8.007603999999998
 30
0.0
  0
POINT
  5
15B3
330
AA1
100
AcDbEntity
  8
DEFPOINTS
 62
     0
100
AcDbPoint
 10
22.0939726960393
 20
8.007603999999998
 30
0.0
  0
POINT
  5
15B4
330
AA1
100
AcDbEntity
  8
DEFPOINTS
 62
     0
100
AcDbPoint
 10
22.0939726960393
 20
7.956121999999999
 30
0.0
  0
ENDBLK
  5
AAD
330
AA1
100
AcDbEntity
  8
0
100
AcDbBlockEnd
  0
BLOCK
  5
ABA
330
AAF
100
AcDbEntity
  8
0
100
AcDbBlockBegin
  2
*D42
 70
     1
 10
0.0
 20
0.0
 30
0.0
  3
*D42
  1

  0
LINE
  5
15FC
330
AAF
100
AcDbEntity
  8
DIM
 62
     0
370
    -2
100
AcDbLine
 10
21.50297269603929
 20
11.445135
 30
0.0
 11
21.50297269603929
 21
11.880939
 31
0.0
  0
LINE
  5
15FD
330
AAF
100
AcDbEntity
  8
DIM
 62
     0
370
    -2
100
AcDbLine
 10
22.0939726960393
 20
11.382635
 30
0.0
 11
22.0939726960393
 21
11.880939
 31
0.0
  0
LINE
  5
15FE
330
AAF
100
AcDbEntity
  8
DIM
 62
     0
370
    -2
100
AcDbLine
 10
21.1879726960393
 20
11.718189
 30
0.0
 11
20.8729726960393
 21
11.718189
 31
0.0
  0
LINE
  5
15FF
330
AAF
100
AcDbEntity
  8
DIM
 62
     0
370
    -2
100
AcDbLine
 10
22.4089726960393
 20
11.718189
 30
0.0
 11
22.7239726960393
 21
11.718189
 31
0.0
  0
SOLID
  5
1600
330
AAF
100
AcDbEntity
  8
DIM
 62
     0
100
AcDbTrace
 10
21.1879726960393
 20
11.770689
 30
0.0
 11
21.1879726960393
 21
11.665689
 31
0.0
 12
21.50297269603929
 22
11.718189
 32
0.0
 13
21.50297269603929
 23
11.718189
 33
0.0
  0
SOLID
  5
1601
330
AAF
100
AcDbEntity
  8
DIM
 62
     0
100
AcDbTrace
 10
22.4089726960393
 20
11.770689
 30
0.0
 11
22.4089726960393
 21
11.665689
 31
0.0
 12
22.0939726960393
 22
11.718189
 32
0.0
 13
22.0939726960393
 23
11.718189
 33
0.0
  0
MTEXT
  5
1602
330
AAF
100
AcDbEntity
  8
DIM
 62
     0
100
AcDbMText
 10
23.1685820710393
 20
11.718189
 30
0.0
 40
0.21875
 41
0.0
 71
     5
 72
     1
  1
\A1;0.591
 73
     1
 44
1.0
  0
POINT
  5
1603
330
AAF
100
AcDbEntity
  8
DEFPOINTS
 62
     0
100
AcDbPoint
 10
21.50297269603929
 20
11.334885
 30
0.0
  0
POINT
  5
1604
330
AAF
100
AcDbEntity
  8
DEFPOINTS
 62
     0
100
AcDbPoint
 10
22.0939726960393
 20
11.272385
 30
0.0
  0
POINT
  5
1605
330
AAF
100
AcDbEntity
  8
DEFPOINTS
 62
     0
100
AcDbPoint
 10
22.0939726960393
 20
11.718189
 30
0.0
  0
ENDBLK
  5
ABB
330
AAF
100
AcDbEntity
  8
0
100
AcDbBlockEnd
  0
BLOCK
  5
B0F
330
B04
100
AcDbEntity
  8
0
100
AcDbBlockBegin
  2
*D43
 70
     1
 10
0.0
 20
0.0
 30
0.0
  3
*D43
  1

  0
LINE
  5
161A
330
B04
100
AcDbEntity
  8
DIM
 62
     0
370
    -2
100
AcDbLine
 10
25.83520540631284
 20
13.57034099999999
 30
0.0
 11
25.83520540631284
 21
12.85869613904042
 31
0.0
  0
LINE
  5
161B
330
B04
100
AcDbEntity
  8
DIM
 62
     0
370
    -2
100
AcDbLine
 10
25.35520540631284
 20
13.64434099999999
 30
0.0
 11
25.35520540631284
 21
12.85869613904042
 31
0.0
  0
LINE
  5
161C
330
B04
100
AcDbEntity
  8
DIM
 62
     0
370
    -2
100
AcDbLine
 10
26.15020540631284
 20
13.02144613904042
 30
0.0
 11
26.46520540631284
 21
13.02144613904042
 31
0.0
  0
LINE
  5
161D
330
B04
100
AcDbEntity
  8
DIM
 62
     0
370
    -2
100
AcDbLine
 10
25.04020540631284
 20
13.02144613904042
 30
0.0
 11
24.72520540631284
 21
13.02144613904042
 31
0.0
  0
SOLID
  5
161E
330
B04
100
AcDbEntity
  8
DIM
 62
     0
100
AcDbTrace
 10
26.15020540631284
 20
13.07394613904042
 30
0.0
 11
26.15020540631284
 21
12.96894613904042
 31
0.0
 12
25.83520540631284
 22
13.02144613904042
 32
0.0
 13
25.83520540631284
 23
13.02144613904042
 33
0.0
  0
SOLID
  5
161F
330
B04
100
AcDbEntity
  8
DIM
 62
     0
100
AcDbTrace
 10
25.04020540631284
 20
13.07394613904042
 30
0.0
 11
25.04020540631284
 21
12.96894613904042
 31
0.0
 12
25.35520540631284
 22
13.02144613904042
 32
0.0
 13
25.35520540631284
 23
13.02144613904042
 33
0.0
  0
MTEXT
  5
1620
330
B04
100
AcDbEntity
  8
DIM
 62
     0
100
AcDbMText
 10
24.29426790631284
 20
13.02144613904042
 30
0.0
 40
0.21875
 41
0.0
 71
     5
 72
     1
  1
\A1;0.120
 73
     1
 44
1.0
  0
POINT
  5
1621
330
B04
100
AcDbEntity
  8
DEFPOINTS
 62
     0
100
AcDbPoint
 10
25.83520540631284
 20
13.68059099999999
 30
0.0
  0
POINT
  5
1622
330
B04
100
AcDbEntity
  8
DEFPOINTS
 62
     0
100
AcDbPoint
 10
25.35520540631284
 20
13.75459099999999
 30
0.0
  0
POINT
  5
1623
330
B04
100
AcDbEntity
  8
DEFPOINTS
 62
     0
100
AcDbPoint
 10
25.35520540631284
 20
13.02144613904042
 30
0.0
  0
ENDBLK
  5
B10
330
B04
100
AcDbEntity
  8
0
100
AcDbBlockEnd
  0
BLOCK
  5
B5E
330
B53
100
AcDbEntity
  8
0
100
AcDbBlockBegin
  2
*D44
 70
     1
 10
0.0
 20
0.0
 30
0.0
  3
*D44
  1

  0
LINE
  5
1606
330
B53
100
AcDbEntity
  8
DIM
 62
     0
370
    -2
100
AcDbLine
 10
25.94095040631284
 20
13.74705199999999
 30
0.0
 11
26.76856040631284
 21
13.74705199999999
 31
0.0
  0
LINE
  5
1607
330
B53
100
AcDbEntity
  8
DIM
 62
     0
370
    -2
100
AcDbLine
 10
25.94095040631284
 20
14.98705199999999
 30
0.0
 11
26.76856040631284
 21
14.98705199999999
 31
0.0
  0
LINE
  5
1608
330
B53
100
AcDbEntity
  8
DIM
 62
     0
370
    -2
100
AcDbLine
 10
26.60581040631284
 20
13.43205199999999
 30
0.0
 11
26.60581040631284
 21
13.11705199999999
 31
0.0
  0
LINE
  5
1609
330
B53
100
AcDbEntity
  8
DIM
 62
     0
370
    -2
100
AcDbLine
 10
26.60581040631284
 20
15.30205199999999
 30
0.0
 11
26.60581040631284
 21
15.617052
 31
0.0
  0
SOLID
  5
160A
330
B53
100
AcDbEntity
  8
DIM
 62
     0
100
AcDbTrace
 10
26.55331040631284
 20
13.43205199999999
 30
0.0
 11
26.65831040631284
 21
13.43205199999999
 31
0.0
 12
26.60581040631284
 22
13.74705199999999
 32
0.0
 13
26.60581040631284
 23
13.74705199999999
 33
0.0
  0
SOLID
  5
160B
330
B53
100
AcDbEntity
  8
DIM
 62
     0
100
AcDbTrace
 10
26.55331040631284
 20
15.30205199999999
 30
0.0
 11
26.65831040631284
 21
15.30205199999999
 31
0.0
 12
26.60581040631284
 22
14.98705199999999
 32
0.0
 13
26.60581040631284
 23
14.98705199999999
 33
0.0
  0
MTEXT
  5
160C
330
B53
100
AcDbEntity
  8
DIM
 62
     0
100
AcDbMText
 10
26.60581040631284
 20
14.367052
 30
0.0
 40
0.21875
 41
0.0
 71
     5
 72
     1
  1
\A1;0.310 DIA.\PC'BORE
 73
     1
 44
1.0
  0
POINT
  5
160D
330
B53
100
AcDbEntity
  8
DEFPOINTS
 62
     0
100
AcDbPoint
 10
25.83070040631284
 20
13.74705199999999
 30
0.0
  0
POINT
  5
160E
330
B53
100
AcDbEntity
  8
DEFPOINTS
 62
     0
100
AcDbPoint
 10
25.83070040631284
 20
14.98705199999999
 30
0.0
  0
POINT
  5
160F
330
B53
100
AcDbEntity
  8
DEFPOINTS
 62
     0
100
AcDbPoint
 10
26.60581040631284
 20
14.98705199999999
 30
0.0
  0
ENDBLK
  5
B5F
330
B53
100
AcDbEntity
  8
0
100
AcDbBlockEnd
  0
BLOCK
  5
B6C
330
B61
100
AcDbEntity
  8
0
100
AcDbBlockBegin
  2
*D45
 70
     1
 10
0.0
 20
0.0
 30
0.0
  3
*D45
  1

  0
LINE
  5
15C9
330
B61
100
AcDbEntity
  8
DIM
 62
     0
370
    -2
100
AcDbLine
 10
23.36095540631284
 20
15.484776
 30
0.0
 11
22.47700440631284
 21
15.484776
 31
0.0
  0
LINE
  5
15CA
330
B61
100
AcDbEntity
  8
DIM
 62
     0
370
    -2
100
AcDbLine
 10
23.36095540631284
 20
15.164776
 30
0.0
 11
22.47700440631284
 21
15.164776
 31
0.0
  0
LINE
  5
15CB
330
B61
100
AcDbEntity
  8
DIM
 62
     0
370
    -2
100
AcDbLine
 10
22.63975440631284
 20
15.799776
 30
0.0
 11
22.63975440631284
 21
16.114776
 31
0.0
  0
LINE
  5
15CC
330
B61
100
AcDbEntity
  8
DIM
 62
     0
370
    -2
100
AcDbLine
 10
22.63975440631284
 20
14.849776
 30
0.0
 11
22.63975440631284
 21
14.534776
 31
0.0
  0
SOLID
  5
15CD
330
B61
100
AcDbEntity
  8
DIM
 62
     0
100
AcDbTrace
 10
22.58725440631284
 20
15.799776
 30
0.0
 11
22.69225440631284
 21
15.799776
 31
0.0
 12
22.63975440631284
 22
15.484776
 32
0.0
 13
22.63975440631284
 23
15.484776
 33
0.0
  0
SOLID
  5
15CE
330
B61
100
AcDbEntity
  8
DIM
 62
     0
100
AcDbTrace
 10
22.58725440631284
 20
14.849776
 30
0.0
 11
22.69225440631284
 21
14.849776
 31
0.0
 12
22.63975440631284
 22
15.164776
 32
0.0
 13
22.63975440631284
 23
15.164776
 33
0.0
  0
MTEXT
  5
15CF
330
B61
100
AcDbEntity
  8
DIM
 62
     0
100
AcDbMText
 10
22.63975440631284
 20
15.324776
 30
0.0
 40
0.21875
 41
0.0
 71
     5
 72
     1
  1
\A1;0.080
 73
     1
 44
1.0
  0
POINT
  5
15D0
330
B61
100
AcDbEntity
  8
DEFPOINTS
 62
     0
100
AcDbPoint
 10
23.47120540631284
 20
15.484776
 30
0.0
  0
POINT
  5
15D1
330
B61
100
AcDbEntity
  8
DEFPOINTS
 62
     0
100
AcDbPoint
 10
23.47120540631284
 20
15.164776
 30
0.0
  0
POINT
  5
15D2
330
B61
100
AcDbEntity
  8
DEFPOINTS
 62
     0
100
AcDbPoint
 10
22.63975440631284
 20
15.164776
 30
0.0
  0
ENDBLK
  5
B6D
330
B61
100
AcDbEntity
  8
0
100
AcDbBlockEnd
  0
BLOCK
  5
B7A
330
B6F
100
AcDbEntity
  8
0
100
AcDbBlockBegin
  2
*D46
 70
     1
 10
0.0
 20
0.0
 30
0.0
  3
*D46
  1

  0
LINE
  5
15BF
330
B6F
100
AcDbEntity
  8
DIM
 62
     0
370
    -2
100
AcDbLine
 10
23.47120540631284
 20
16.38303830822288
 30
0.0
 11
23.47120540631284
 21
16.85272530822287
 31
0.0
  0
LINE
  5
15C0
330
B6F
100
AcDbEntity
  8
DIM
 62
     0
370
    -2
100
AcDbLine
 10
23.93120540631284
 20
15.595026
 30
0.0
 11
23.93120540631284
 21
16.85272530822287
 31
0.0
  0
LINE
  5
15C1
330
B6F
100
AcDbEntity
  8
DIM
 62
     0
370
    -2
100
AcDbLine
 10
23.15620540631284
 20
16.68997530822288
 30
0.0
 11
22.84120540631284
 21
16.68997530822288
 31
0.0
  0
LINE
  5
15C2
330
B6F
100
AcDbEntity
  8
DIM
 62
     0
370
    -2
100
AcDbLine
 10
24.24620540631284
 20
16.68997530822288
 30
0.0
 11
24.56120540631284
 21
16.68997530822288
 31
0.0
  0
SOLID
  5
15C3
330
B6F
100
AcDbEntity
  8
DIM
 62
     0
100
AcDbTrace
 10
23.15620540631284
 20
16.74247530822287
 30
0.0
 11
23.15620540631284
 21
16.63747530822288
 31
0.0
 12
23.47120540631284
 22
16.68997530822288
 32
0.0
 13
23.47120540631284
 23
16.68997530822288
 33
0.0
  0
SOLID
  5
15C4
330
B6F
100
AcDbEntity
  8
DIM
 62
     0
100
AcDbTrace
 10
24.24620540631284
 20
16.74247530822287
 30
0.0
 11
24.24620540631284
 21
16.63747530822288
 31
0.0
 12
23.93120540631284
 22
16.68997530822288
 32
0.0
 13
23.93120540631284
 23
16.68997530822288
 33
0.0
  0
MTEXT
  5
15C5
330
B6F
100
AcDbEntity
  8
DIM
 62
     0
100
AcDbMText
 10
24.97847103131284
 20
16.68997530822288
 30
0.0
 40
0.21875
 41
0.0
 71
     5
 72
     1
  1
\A1;0.115
 73
     1
 44
1.0
  0
POINT
  5
15C6
330
B6F
100
AcDbEntity
  8
DEFPOINTS
 62
     0
100
AcDbPoint
 10
23.47120540631284
 20
16.27278830822288
 30
0.0
  0
POINT
  5
15C7
330
B6F
100
AcDbEntity
  8
DEFPOINTS
 62
     0
100
AcDbPoint
 10
23.93120540631284
 20
15.484776
 30
0.0
  0
POINT
  5
15C8
330
B6F
100
AcDbEntity
  8
DEFPOINTS
 62
     0
100
AcDbPoint
 10
23.93120540631284
 20
16.68997530822288
 30
0.0
  0
ENDBLK
  5
B7B
330
B6F
100
AcDbEntity
  8
0
100
AcDbBlockEnd
  0
BLOCK
  5
B88
330
B7D
100
AcDbEntity
  8
0
100
AcDbBlockBegin
  2
*D47
 70
     1
 10
0.0
 20
0.0
 30
0.0
  3
*D47
  1

  0
LINE
  5
15D3
330
B7D
100
AcDbEntity
  8
DIM
 62
     0
370
    -2
100
AcDbLine
 10
23.36003540631284
 20
14.718341
 30
0.0
 11
21.82237840631284
 21
14.718341
 31
0.0
  0
LINE
  5
15D4
330
B7D
100
AcDbEntity
  8
DIM
 62
     0
370
    -2
100
AcDbLine
 10
23.36003540631284
 20
14.030841
 30
0.0
 11
21.82237840631284
 21
14.030841
 31
0.0
  0
LINE
  5
15D5
330
B7D
100
AcDbEntity
  8
DIM
 62
     0
370
    -2
100
AcDbLine
 10
21.98512840631284
 20
15.033341
 30
0.0
 11
21.98512840631284
 21
15.348341
 31
0.0
  0
LINE
  5
15D6
330
B7D
100
AcDbEntity
  8
DIM
 62
     0
370
    -2
100
AcDbLine
 10
21.98512840631284
 20
13.715841
 30
0.0
 11
21.98512840631284
 21
13.400841
 31
0.0
  0
SOLID
  5
15D7
330
B7D
100
AcDbEntity
  8
DIM
 62
     0
100
AcDbTrace
 10
21.93262840631284
 20
15.033341
 30
0.0
 11
22.03762840631284
 21
15.033341
 31
0.0
 12
21.98512840631284
 22
14.718341
 32
0.0
 13
21.98512840631284
 23
14.718341
 33
0.0
  0
SOLID
  5
15D8
330
B7D
100
AcDbEntity
  8
DIM
 62
     0
100
AcDbTrace
 10
21.93262840631284
 20
13.715841
 30
0.0
 11
22.03762840631284
 21
13.715841
 31
0.0
 12
21.98512840631284
 22
14.030841
 32
0.0
 13
21.98512840631284
 23
14.030841
 33
0.0
  0
MTEXT
  5
15D9
330
B7D
100
AcDbEntity
  8
DIM
 62
     0
100
AcDbMText
 10
21.98512840631284
 20
14.374591
 30
0.0
 40
0.21875
 41
0.0
 71
     5
 72
     1
  1
\A1;0.172 DIA.
 73
     1
 44
1.0
  0
POINT
  5
15DA
330
B7D
100
AcDbEntity
  8
DEFPOINTS
 62
     0
100
AcDbPoint
 10
23.47028540631284
 20
14.718341
 30
0.0
  0
POINT
  5
15DB
330
B7D
100
AcDbEntity
  8
DEFPOINTS
 62
     0
100
AcDbPoint
 10
23.47028540631284
 20
14.030841
 30
0.0
  0
POINT
  5
15DC
330
B7D
100
AcDbEntity
  8
DEFPOINTS
 62
     0
100
AcDbPoint
 10
21.98512840631284
 20
14.030841
 30
0.0
  0
ENDBLK
  5
B89
330
B7D
100
AcDbEntity
  8
0
100
AcDbBlockEnd
  0
BLOCK
  5
1052
330
103B
100
AcDbEntity
  8
0
100
AcDbBlockBegin
  2
HBS
 70
     0
 10
0.0
 20
0.0
 30
0.0
  3
HBS
  1

  0
LINE
  5
103C
330
103B
100
AcDbEntity
  8
TITLE
100
AcDbLine
 10
0.0620000000000118
 20
10.266
 30
0.0
 11
16.53800000000001
 21
10.266
 31
0.0
  0
LINE
  5
103D
330
103B
100
AcDbEntity
  8
TITLE
100
AcDbLine
 10
16.53800000000001
 20
0.0620000000000012
 30
0.0
 11
0.0620000000000118
 21
0.0620000000000012
 31
0.0
  0
LINE
  5
103E
330
103B
100
AcDbEntity
  8
TITLE
100
AcDbLine
 10
0.0
 20
10.32799999999999
 30
0.0
 11
16.59999999999999
 21
10.32799999999999
 31
0.0
  0
LINE
  5
103F
330
103B
100
AcDbEntity
  8
TITLE
100
AcDbLine
 10
16.59999999999999
 20
0.0
 30
0.0
 11
0.0
 21
0.0
 31
0.0
  0
LINE
  5
1040
330
103B
100
AcDbEntity
  8
TITLE
100
AcDbLine
 10
0.0620000000000118
 20
9.848000000000002
 30
0.0
 11
16.53800000000001
 21
9.848000000000006
 31
0.0
  0
LINE
  5
1041
330
103B
100
AcDbEntity
  8
TITLE
100
AcDbLine
 10
0.0620000000000118
 20
0.0620000000000012
 30
0.0
 11
0.0620000000000118
 21
10.266
 31
0.0
  0
LINE
  5
1042
330
103B
100
AcDbEntity
  8
TITLE
100
AcDbLine
 10
0.0
 20
0.0
 30
0.0
 11
0.0
 21
10.32799999999999
 31
0.0
  0
TEXT
  5
1043
330
103B
100
AcDbEntity
  8
TEXT
100
AcDbText
 10
0.2078333333333452
 20
9.888079195640081
 30
0.0
 40
0.125
  1
NAME
 72
     1
 11
0.4370000000000119
 21
9.888079195640081
 31
0.0
100
AcDbText
  0
TEXT
  5
1044
330
103B
100
AcDbEntity
  8
TEXT
100
AcDbText
 10
0.2078333333333452
 20
10.09641252897341
 30
0.0
 40
0.125
  1
PART
 72
     1
 11
0.4370000000000119
 21
10.09641252897341
 31
0.0
100
AcDbText
  0
LINE
  5
1045
330
103B
100
AcDbEntity
  8
TITLE
100
AcDbLine
 10
0.8120000000000118
 20
9.848000000000002
 30
0.0
 11
0.8120000000000118
 21
10.266
 31
0.0
  0
LINE
  5
1046
330
103B
100
AcDbEntity
  8
TITLE
100
AcDbLine
 10
7.0
 20
10.266
 30
0.0
 11
7.0
 21
9.848000000000002
 31
0.0
  0
LINE
  5
1047
330
103B
100
AcDbEntity
  8
TITLE
100
AcDbLine
 10
7.062000000000011
 20
10.266
 30
0.0
 11
7.062000000000011
 21
9.848000000000002
 31
0.0
  0
LINE
  5
1048
330
103B
100
AcDbEntity
  8
TITLE
100
AcDbLine
 10
7.812000000000011
 20
10.266
 30
0.0
 11
7.812000000000011
 21
9.848000000000002
 31
0.0
  0
TEXT
  5
1049
330
103B
100
AcDbEntity
  8
TEXT
100
AcDbText
 10
7.312000000000011
 20
9.888079195640081
 30
0.0
 40
0.125
  1
No.
 72
     1
 11
7.437000000000011
 21
9.888079195640081
 31
0.0
100
AcDbText
  0
TEXT
  5
104A
330
103B
100
AcDbEntity
  8
TEXT
100
AcDbText
 10
7.207833333333344
 20
10.09641252897341
 30
0.0
 40
0.125
  1
PART
 72
     1
 11
7.437000000000011
 21
10.09641252897341
 31
0.0
100
AcDbText
  0
LINE
  5
104B
330
103B
100
AcDbEntity
  8
TITLE
100
AcDbLine
 10
16.53800000000001
 20
10.266
 30
0.0
 11
16.53800000000001
 21
0.0620000000000012
 31
0.0
  0
LINE
  5
104C
330
103B
100
AcDbEntity
  8
TITLE
100
AcDbLine
 10
16.59999999999999
 20
10.32799999999999
 30
0.0
 11
16.59999999999999
 21
0.0
 31
0.0
  0
TEXT
  5
104D
330
103B
100
AcDbEntity
  8
TEXT
100
AcDbText
 10
14.22865779971668
 20
10.09641252897341
 30
0.0
 40
0.125
  1
REV.
 72
     1
 11
14.43699113305001
 21
10.09641252897341
 31
0.0
100
AcDbText
  0
TEXT
  5
104E
330
103B
100
AcDbEntity
  8
TEXT
100
AcDbText
 10
14.20782446638335
 20
9.888079195640081
 30
0.0
 40
0.125
  1
DATE
 72
     1
 11
14.43699113305001
 21
9.888079195640081
 31
0.0
100
AcDbText
  0
LINE
  5
104F
330
103B
100
AcDbEntity
  8
TITLE
100
AcDbLine
 10
14.06199113305001
 20
10.266
 30
0.0
 11
14.06199113305001
 21
9.848000000000002
 31
0.0
  0
LINE
  5
1050
330
103B
100
AcDbEntity
  8
TITLE
100
AcDbLine
 10
14.81199113305001
 20
10.266
 30
0.0
 11
14.81199113305001
 21
9.848000000000002
 31
0.0
  0
LINE
  5
1051
330
103B
100
AcDbEntity
  8
TITLE
100
AcDbLine
 10
13.99999113305
 20
10.266
 30
0.0
 11
13.99999113305
 21
9.848000000000002
 31
0.0
  0
ENDBLK
  5
1053
330
103B
100
AcDbEntity
  8
0
100
AcDbBlockEnd
  0
ENDSEC
  0
SECTION
  2
ENTITIES
  0
TEXT
  5
6A2
330
1E
100
AcDbEntity
  8
TEXT
100
AcDbText
 10
22.44947392719947
 20
12.64724659622866
 30
0.0
 40
0.21875
  1
%%UDETAIL "C"
 41
0.8
  7
SECTION
100
AcDbText
  0
TEXT
  5
6A3
330
1E
100
AcDbEntity
  8
TEXT
100
AcDbText
 10
18.0892606960393
 20
3.172429000000001
 30
0.0
 40
0.3279999999999999
  1
%%UCOVER
 41
0.75
 72
     1
 11
18.7083606960393
 21
3.172429000000001
 31
0.0
100
AcDbText
  0
TEXT
  5
6A4
330
1E
100
AcDbEntity
  8
TEXT
100
AcDbText
 10
7.723478710273528
 20
0.6736699999999996
 30
0.0
 40
0.3279999999999999
  1
%%UBODY
 41
0.75
 72
     1
 11
8.178578710273528
 21
0.6736699999999996
 31
0.0
100
AcDbText
  0
LINE
  5
6A5
330
1E
100
AcDbEntity
  8
OBJECT
100
AcDbLine
 10
4.364193710273529
 20
5.035885
 30
0.0
 11
7.076693710273528
 21
5.035885
 31
0.0
  0
LINE
  5
6A6
330
1E
100
AcDbEntity
  8
OBJECT
100
AcDbLine
 10
7.076693710273528
 20
5.055884999999999
 30
0.0
 11
4.364193710273529
 21
5.055884999999999
 31
0.0
  0
LINE
  5
6A7
330
1E
100
AcDbEntity
  8
OBJECT
100
AcDbLine
 10
4.223443710273528
 20
5.593885
 30
0.0
 11
4.223443710273528
 21
10.776885
 31
0.0
  0
LINE
  5
6A8
330
1E
100
AcDbEntity
  8
OBJECT
100
AcDbLine
 10
4.263443710273529
 20
5.593885
 30
0.0
 11
4.263443710273529
 21
10.776885
 31
0.0
  0
LINE
  5
6A9
330
1E
100
AcDbEntity
  8
OBJECT
100
AcDbLine
 10
4.165443710273528
 20
5.254635
 30
0.0
 11
4.165443710273528
 21
11.116135
 31
0.0
  0
LINE
  5
6AA
330
1E
100
AcDbEntity
  8
OBJECT
100
AcDbLine
 10
4.364193710273529
 20
11.334885
 30
0.0
 11
7.076693710273528
 21
11.334885
 31
0.0
  0
LINE
  5
6AB
330
1E
100
AcDbEntity
  8
OBJECT
100
AcDbLine
 10
7.275443710273528
 20
11.116135
 30
0.0
 11
7.275443710273528
 21
5.254635
 31
0.0
  0
LINE
  5
6AC
330
1E
100
AcDbEntity
  8
OBJECT
100
AcDbLine
 10
4.364193710273529
 20
11.314885
 30
0.0
 11
7.076693710273528
 21
11.314885
 31
0.0
  0
ARC
  5
6AD
330
1E
100
AcDbEntity
  8
OBJECT
100
AcDbCircle
 10
4.364193710273529
 20
5.254635
 30
0.0
 40
0.21875
100
AcDbArc
 50
180.0
 51
270.0
  0
ARC
  5
6AE
330
1E
100
AcDbEntity
  8
OBJECT
100
AcDbCircle
 10
4.364193710273529
 20
5.254635
 30
0.0
 40
0.19875
100
AcDbArc
 50
180.0
 51
270.0
  0
TEXT
  5
6AF
330
1E
100
AcDbEntity
  8
TEXT
100
AcDbText
 10
9.921078710273528
 20
4.076679
 30
0.0
 40
0.21875
  1
%%USECTION "A-A"
 41
0.8
  7
SECTION
100
AcDbText
  0
LINE
  5
6B3
102
{ACAD_REACTORS
330
1939
102
}
330
1E
100
AcDbEntity
  8
OBJECT
100
AcDbLine
 10
11.20254971027353
 20
10.483135
 30
0.0
 11
11.42054971027353
 21
10.483135
 31
0.0
  0
LINE
  5
6B4
102
{ACAD_REACTORS
330
1939
102
}
330
1E
100
AcDbEntity
  8
OBJECT
100
AcDbLine
 10
11.20254971027353
 20
10.670635
 30
0.0
 11
11.42054971027353
 21
10.670635
 31
0.0
  0
LINE
  5
6B5
330
1E
100
AcDbEntity
  8
OBJECT
100
AcDbLine
 10
11.20254971027353
 20
10.514385
 30
0.0
 11
11.42054971027353
 21
10.514385
 31
0.0
  0
LINE
  5
6B6
330
1E
100
AcDbEntity
  8
OBJECT
100
AcDbLine
 10
11.20254971027353
 20
10.639385
 30
0.0
 11
11.42054971027353
 21
10.639385
 31
0.0
  0
LINE
  5
6B7
102
{ACAD_REACTORS
330
1939
102
}
330
1E
100
AcDbEntity
  8
OBJECT
100
AcDbLine
 10
11.42054971027353
 20
10.670635
 30
0.0
 11
11.42054971027353
 21
10.483135
 31
0.0
  0
CIRCLE
  5
6B8
330
1E
100
AcDbEntity
  8
OBJECT
100
AcDbCircle
 10
4.381443710273528
 20
5.271885000000001
 30
0.0
 40
0.125
  0
CIRCLE
  5
6B9
330
1E
100
AcDbEntity
  8
OBJECT
100
AcDbCircle
 10
4.381443710273528
 20
5.271885000000001
 30
0.0
 40
0.0625
  0
LINE
  5
6BA
330
1E
100
AcDbEntity
  8
OBJECT
100
AcDbLine
 10
4.145443710273529
 20
11.116135
 30
0.0
 11
4.145443710273529
 21
5.254635
 31
0.0
  0
LINE
  5
6BB
330
1E
100
AcDbEntity
  8
OBJECT
100
AcDbLine
 10
7.295443710273528
 20
11.116135
 30
0.0
 11
7.295443710273528
 21
5.254635
 31
0.0
  0
CIRCLE
  5
6BC
330
1E
100
AcDbEntity
  8
OBJECT
100
AcDbCircle
 10
7.059443710273527
 20
5.271885000000001
 30
0.0
 40
0.0625
  0
CIRCLE
  5
6BD
330
1E
100
AcDbEntity
  8
OBJECT
100
AcDbCircle
 10
7.059443710273527
 20
5.271885000000001
 30
0.0
 40
0.125
  0
ARC
  5
6BE
330
1E
100
AcDbEntity
  8
OBJECT
100
AcDbCircle
 10
7.076693710273528
 20
5.254635
 30
0.0
 40
0.19875
100
AcDbArc
 50
270.0
 51
0.0
  0
ARC
  5
6BF
330
1E
100
AcDbEntity
  8
OBJECT
100
AcDbCircle
 10
7.076693710273528
 20
5.254635
 30
0.0
 40
0.21875
100
AcDbArc
 50
270.0
 51
0.0
  0
CIRCLE
  5
6C0
330
1E
100
AcDbEntity
  8
OBJECT
100
AcDbCircle
 10
4.381443710273528
 20
11.098885
 30
0.0
 40
0.0625
  0
CIRCLE
  5
6C1
330
1E
100
AcDbEntity
  8
OBJECT
100
AcDbCircle
 10
4.381443710273528
 20
11.098885
 30
0.0
 40
0.125
  0
ARC
  5
6C5
330
1E
100
AcDbEntity
  8
OBJECT
100
AcDbCircle
 10
4.364193710273529
 20
11.116135
 30
0.0
 40
0.19875
100
AcDbArc
 50
90.0
 51
180.0
  0
ARC
  5
6C6
330
1E
100
AcDbEntity
  8
OBJECT
100
AcDbCircle
 10
4.364193710273529
 20
11.116135
 30
0.0
 40
0.21875
100
AcDbArc
 50
90.0
 51
180.0
  0
ARC
  5
6C7
330
1E
100
AcDbEntity
  8
OBJECT
100
AcDbCircle
 10
7.076693710273528
 20
11.116135
 30
0.0
 40
0.21875
100
AcDbArc
 50
0.0
 51
90.0
  0
ARC
  5
6C8
330
1E
100
AcDbEntity
  8
OBJECT
100
AcDbCircle
 10
7.076693710273528
 20
11.116135
 30
0.0
 40
0.19875
100
AcDbArc
 50
0.0
 51
90.0
  0
CIRCLE
  5
6C9
330
1E
100
AcDbEntity
  8
OBJECT
100
AcDbCircle
 10
7.059443710273527
 20
11.098885
 30
0.0
 40
0.125
  0
CIRCLE
  5
6CA
330
1E
100
AcDbEntity
  8
OBJECT
100
AcDbCircle
 10
7.059443710273527
 20
11.098885
 30
0.0
 40
0.0625
  0
DIMENSION
  5
6CB
330
1E
100
AcDbEntity
  8
DIM
100
AcDbDimension
  2
*D1
 10
1.08651671027353
 20
11.334885
 30
0.0
 11
1.873469835273528
 21
11.964885
 31
0.0
 70
    32
 71
     5
 42
0.2359999999999989
  3
23NSTD
100
AcDbAlignedDimension
 13
4.381443710273528
 23
11.098885
 33
0.0
 14
4.364193710273529
 24
11.334885
 34
0.0
 50
90.0
100
AcDbRotatedDimension
  0
DIMENSION
  5
6D9
330
1E
100
AcDbEntity
  8
DIM
100
AcDbDimension
  2
*D2
 10
1.086516710273532
 20
11.098885
 30
0.0
 11
1.08651671027353
 21
8.185385000000001
 31
0.0
 70
    32
  1
<>
 71
     5
 42
5.827000000000001
  3
23NSTD
100
AcDbAlignedDimension
 13
4.381443710273528
 23
5.271885
 33
0.0
 14
4.381443710273528
 24
11.098885
 34
0.0
 50
90.0
100
AcDbRotatedDimension
  0
DIMENSION
  5
6E7
330
1E
100
AcDbEntity
  8
DIM
100
AcDbDimension
  2
*D3
 10
4.145443710273529
 20
13.18860799999999
 30
0.0
 11
3.043490585273529
 21
13.18860799999999
 31
0.0
 70
    32
 71
     5
 42
0.2359999999999998
  3
23NSTD
100
AcDbAlignedDimension
 13
4.381443710273528
 23
11.098885
 33
0.0
 14
4.145443710273529
 24
11.116135
 34
0.0
100
AcDbRotatedDimension
  0
DIMENSION
  5
6F5
330
1E
100
AcDbEntity
  8
DIM
100
AcDbDimension
  2
*D4
 10
4.145443710273529
 20
12.345608
 30
0.0
 11
3.070834335273529
 21
12.345608
 31
0.0
 70
    32
 71
     5
 42
0.5910000000000002
  3
23NSTD
100
AcDbAlignedDimension
 13
4.736443710273529
 23
11.098885
 33
0.0
 14
4.145443710273529
 24
11.116135
 34
0.0
100
AcDbRotatedDimension
  0
DIMENSION
  5
703
330
1E
100
AcDbEntity
  8
DIM
100
AcDbDimension
  2
*D5
 10
6.704443710273529
 20
12.345608
 30
0.0
 11
5.720443710273529
 21
12.345608
 31
0.0
 70
    32
  1
<>
 71
     5
 42
1.967999999999999
  3
23NSTD
100
AcDbAlignedDimension
 13
4.736443710273529
 23
11.098885
 33
0.0
 14
6.704443710273529
 24
11.647287
 34
0.0
100
AcDbRotatedDimension
  0
DIMENSION
  5
711
330
1E
100
AcDbEntity
  8
DIM
100
AcDbDimension
  2
*D6
 10
7.059443710273527
 20
13.18860799999999
 30
0.0
 11
5.720443710273528
 21
13.18860799999999
 31
0.0
 70
    32
  1
<>
 71
     5
 42
2.677999999999999
  3
23NSTD
100
AcDbAlignedDimension
 13
4.381443710273528
 23
11.098885
 33
0.0
 14
7.059443710273527
 24
11.098885
 34
0.0
100
AcDbRotatedDimension
  0
DIMENSION
  5
71F
330
1E
100
AcDbEntity
  8
DIM
100
AcDbDimension
  2
*D7
 10
4.145443710273529
 20
12.767108
 30
0.0
 11
3.070834335273529
 21
12.767108
 31
0.0
 70
    32
  1
0.431
 71
     5
 42
0.4329999999999999
  3
23NSTD
100
AcDbAlignedDimension
 13
4.578443710273528
 23
10.576885
 33
0.0
 14
4.145443710273529
 24
11.116135
 34
0.0
100
AcDbRotatedDimension
  0
DIMENSION
  5
72D
330
1E
100
AcDbEntity
  8
DIM
100
AcDbDimension
  2
*D8
 10
4.578443710273528
 20
12.767108
 30
0.0
 11
5.720443710273528
 21
12.767108
 31
0.0
 70
    32
  1
<>
 71
     5
 42
2.283999999999999
  3
23NSTD
100
AcDbAlignedDimension
 13
6.862443710273528
 23
10.794244
 33
0.0
 14
4.578443710273528
 24
10.576885
 34
0.0
100
AcDbRotatedDimension
  0
DIMENSION
  5
73B
330
1E
100
AcDbEntity
  8
DIM
100
AcDbDimension
  2
*D9
 10
4.145443710273529
 20
3.696834999999999
 30
0.0
 11
4.552943710273529
 21
3.696834999999999
 31
0.0
 70
    32
 71
     5
 42
0.8150000000000003
  3
23NSTDI
100
AcDbAlignedDimension
 13
4.960443710273529
 23
5.251884999999999
 33
0.0
 14
4.145443710273529
 24
5.254634999999999
 34
0.0
100
AcDbRotatedDimension
  0
DIMENSION
  5
749
330
1E
100
AcDbEntity
  8
DIM
100
AcDbDimension
  2
*D10
 10
6.480443710273529
 20
4.118335
 30
0.0
 11
5.720443710273529
 21
4.118335
 31
0.0
 70
    32
  1
<>
 71
     5
 42
1.519999999999999
  3
23NSTDI
100
AcDbAlignedDimension
 13
4.960443710273529
 23
5.251884999999999
 33
0.0
 14
6.480443710273529
 24
5.251884999999999
 34
0.0
100
AcDbRotatedDimension
  0
DIMENSION
  5
757
330
1E
100
AcDbEntity
  8
DIM
100
AcDbDimension
  2
*D11
 10
7.295443710273528
 20
3.251936
 30
0.0
 11
5.720443710273528
 21
3.251936
 31
0.0
 70
    32
  1
<>
 71
     5
 42
3.149999999999999
  3
23NSTD
100
AcDbAlignedDimension
 13
4.145443710273529
 23
5.254634999999999
 33
0.0
 14
7.295443710273528
 24
5.254634999999999
 34
0.0
100
AcDbRotatedDimension
  0
DIMENSION
  5
765
330
1E
100
AcDbEntity
  8
DIM
100
AcDbDimension
  2
*D12
 10
7.934316710273529
 20
5.495635
 30
0.0
 11
7.934316710273528
 21
5.265760000000001
 31
0.0
 70
    32
 71
     5
 42
0.4597500000000006
  3
23NSTDI
100
AcDbAlignedDimension
 13
7.076693710273528
 23
5.035884999999999
 33
0.0
 14
7.079193710273528
 24
5.495635
 34
0.0
 50
90.0
100
AcDbRotatedDimension
  0
DIMENSION
  5
773
330
1E
100
AcDbEntity
  8
DIM
100
AcDbDimension
  2
*D13
 10
7.934316710273531
 20
10.875135
 30
0.0
 11
7.934316710273529
 21
8.185385000000001
 31
0.0
 70
    32
  1
<>
 71
     5
 42
5.3795
  3
23NSTD
100
AcDbAlignedDimension
 13
7.079193710273528
 23
5.495635
 33
0.0
 14
7.079193710273528
 24
10.875135
 34
0.0
 50
90.0
100
AcDbRotatedDimension
  0
DIMENSION
  5
781
330
1E
100
AcDbEntity
  8
DIM
100
AcDbDimension
  2
*D14
 10
8.823816710273531
 20
11.334885
 30
0.0
 11
8.823816710273529
 21
8.185385000000001
 31
0.0
 70
    32
  1
<>
 71
     5
 42
6.299
  3
23NSTD
100
AcDbAlignedDimension
 13
7.202693710273528
 23
5.035884999999999
 33
0.0
 14
7.076693710273528
 24
11.334885
 34
0.0
 50
90.0
100
AcDbRotatedDimension
  0
DIMENSION
  5
78F
330
1E
100
AcDbEntity
  8
DIM
100
AcDbDimension
  2
*D15
 10
1.921337710273529
 20
5.035885
 30
0.0
 11
1.921337710273528
 21
5.414884999999999
 31
0.0
 70
    32
 71
     5
 42
0.758
  3
23NSTD
100
AcDbAlignedDimension
 13
4.578443710273528
 23
5.793884999999999
 33
0.0
 14
4.364193710273529
 24
5.035884999999999
 34
0.0
 50
90.0
100
AcDbRotatedDimension
  0
DIMENSION
  5
79D
330
1E
100
AcDbEntity
  8
DIM
100
AcDbDimension
  2
*D16
 10
1.92133771027353
 20
10.576885
 30
0.0
 11
1.921337710273528
 21
8.185385000000001
 31
0.0
 70
    32
  1
<>
 71
     5
 42
4.783000000000002
  3
23NSTD
100
AcDbAlignedDimension
 13
4.578443710273528
 23
5.793884999999999
 33
0.0
 14
4.578443710273528
 24
10.576885
 34
0.0
 50
90.0
100
AcDbRotatedDimension
  0
DIMENSION
  5
7AB
330
1E
100
AcDbEntity
  8
DIM
100
AcDbDimension
  2
*D17
 10
4.145443710273529
 20
6.210855
 30
0.0
 11
2.742709335273529
 21
6.210855
 31
0.0
 70
    32
  1
<> TYP.
 71
     5
 42
0.1180000000000003
  3
23NSTD
100
AcDbAlignedDimension
 13
4.263443710273529
 23
6.218422
 33
0.0
 14
4.145443710273529
 24
6.218422
 34
0.0
100
AcDbRotatedDimension
  0
DIMENSION
  5
7B9
330
1E
100
AcDbEntity
  8
DIM
100
AcDbDimension
  2
*D18
 10
7.177443710273528
 20
6.210855
 30
0.0
 11
5.720443710273528
 21
6.210855
 31
0.0
 70
    32
 71
     5
 42
2.913999999999998
  3
23NSTD
100
AcDbAlignedDimension
 13
4.263443710273529
 23
6.218422
 33
0.0
 14
7.177443710273528
 24
6.218422
 34
0.0
100
AcDbRotatedDimension
  0
LINE
  5
7CA
330
1E
100
AcDbEntity
  8
HIDDEN
100
AcDbLine
 10
4.263443710273529
 20
1.400188999999999
 30
0.0
 11
7.177443710273528
 21
1.400188999999999
 31
0.0
  0
LINE
  5
7CB
330
1E
100
AcDbEntity
  8
OBJECT
100
AcDbLine
 10
4.145443710273529
 20
2.783189
 30
0.0
 11
7.295443710273528
 21
2.783189
 31
0.0
  0
LINE
  5
7CC
330
1E
100
AcDbEntity
  8
OBJECT
100
AcDbLine
 10
7.275443710273528
 20
2.823188999999999
 30
0.0
 11
4.165443710273528
 21
2.823188999999999
 31
0.0
  0
LINE
  5
7CD
330
1E
100
AcDbEntity
  8
OBJECT
100
AcDbLine
 10
4.223443710273528
 20
2.883188999999999
 30
0.0
 11
7.217443710273528
 21
2.883188999999999
 31
0.0
  0
LINE
  5
7CE
330
1E
100
AcDbEntity
  8
OBJECT
100
AcDbLine
 10
4.195443710273529
 20
1.243188999999999
 30
0.0
 11
7.245443710273528
 21
1.243188999999999
 31
0.0
  0
LINE
  5
7CF
330
1E
100
AcDbEntity
  8
OBJECT
100
AcDbLine
 10
7.295443710273528
 20
2.783189
 30
0.0
 11
7.295443710273528
 21
1.293188999999999
 31
0.0
  0
ARC
  5
7D0
330
1E
100
AcDbEntity
  8
OBJECT
100
AcDbCircle
 10
7.245443710273528
 20
1.293188999999999
 30
0.0
 40
0.05
100
AcDbArc
 50
270.0
 51
0.0
  0
LINE
  5
7D1
330
1E
100
AcDbEntity
  8
OBJECT
100
AcDbLine
 10
7.217443710273528
 20
2.823188999999999
 30
0.0
 11
7.217443710273528
 21
2.883188999999999
 31
0.0
  0
LINE
  5
7D2
330
1E
100
AcDbEntity
  8
OBJECT
100
AcDbLine
 10
7.275443710273528
 20
2.783189
 30
0.0
 11
7.275443710273528
 21
2.823188999999999
 31
0.0
  0
LINE
  5
7D3
330
1E
100
AcDbEntity
  8
OBJECT
100
AcDbLine
 10
4.145443710273529
 20
2.783189
 30
0.0
 11
4.145443710273529
 21
1.293188999999999
 31
0.0
  0
ARC
  5
7D4
330
1E
100
AcDbEntity
  8
OBJECT
100
AcDbCircle
 10
4.195443710273529
 20
1.293188999999999
 30
0.0
 40
0.05
100
AcDbArc
 50
180.0
 51
270.0
  0
LINE
  5
7D5
330
1E
100
AcDbEntity
  8
OBJECT
100
AcDbLine
 10
4.223443710273528
 20
2.883188999999999
 30
0.0
 11
4.223443710273528
 21
2.823188999999999
 31
0.0
  0
LINE
  5
7D6
330
1E
100
AcDbEntity
  8
OBJECT
100
AcDbLine
 10
4.165443710273528
 20
2.823188999999999
 30
0.0
 11
4.165443710273528
 21
2.783189
 31
0.0
  0
LINE
  5
7D7
330
1E
100
AcDbEntity
  8
HIDDEN
100
AcDbLine
 10
4.902491710273528
 20
2.823188999999999
 30
0.0
 11
4.902491710273528
 21
1.400188999999999
 31
0.0
  0
LINE
  5
7D8
330
1E
100
AcDbEntity
  8
HIDDEN
100
AcDbLine
 10
4.960443710273529
 20
2.883188999999999
 30
0.0
 11
4.960443710273529
 21
1.400188999999999
 31
0.0
  0
LINE
  5
7D9
330
1E
100
AcDbEntity
  8
OBJECT
100
AcDbLine
 10
4.920470710273528
 20
2.883188999999999
 30
0.0
 11
4.920470710273528
 21
2.823188999999999
 31
0.0
  0
LINE
  5
7DA
330
1E
100
AcDbEntity
  8
HIDDEN
100
AcDbLine
 10
6.538395710273528
 20
2.823188999999999
 30
0.0
 11
6.538395710273528
 21
1.400188999999999
 31
0.0
  0
LINE
  5
7DB
330
1E
100
AcDbEntity
  8
HIDDEN
100
AcDbLine
 10
6.841443710273528
 20
2.823188999999999
 30
0.0
 11
6.841443710273528
 21
1.400188999999999
 31
0.0
  0
LINE
  5
7DC
330
1E
100
AcDbEntity
  8
HIDDEN
100
AcDbLine
 10
6.906693710273528
 20
2.508188999999999
 30
0.0
 11
6.906693710273528
 21
1.243188999999999
 31
0.0
  0
LINE
  5
7DD
330
1E
100
AcDbEntity
  8
HIDDEN
100
AcDbLine
 10
7.216693710273528
 20
2.508188999999999
 30
0.0
 11
7.216693710273528
 21
1.243188999999999
 31
0.0
  0
LINE
  5
7E1
330
1E
100
AcDbEntity
  8
HIDDEN
100
AcDbLine
 10
7.186693710273527
 20
2.823188999999999
 30
0.0
 11
7.186693710273527
 21
2.508188999999999
 31
0.0
  0
LINE
  5
7E2
330
1E
100
AcDbEntity
  8
HIDDEN
100
AcDbLine
 10
6.999193710273528
 20
2.823188999999999
 30
0.0
 11
6.999193710273528
 21
2.508188999999999
 31
0.0
  0
LINE
  5
7E3
330
1E
100
AcDbEntity
  8
HIDDEN
100
AcDbLine
 10
6.936693710273528
 20
2.823188999999999
 30
0.0
 11
6.936693710273528
 21
2.508188999999999
 31
0.0
  0
LINE
  5
7E4
330
1E
100
AcDbEntity
  8
HIDDEN
100
AcDbLine
 10
7.124193710273527
 20
2.823188999999999
 30
0.0
 11
7.124193710273527
 21
2.508188999999999
 31
0.0
  0
LINE
  5
7E5
330
1E
100
AcDbEntity
  8
OBJECT
100
AcDbLine
 10
6.520415710273528
 20
2.883188999999999
 30
0.0
 11
6.520415710273528
 21
2.823188999999999
 31
0.0
  0
LINE
  5
7E6
330
1E
100
AcDbEntity
  8
HIDDEN
100
AcDbLine
 10
6.480443710273529
 20
2.883188999999999
 30
0.0
 11
6.480443710273529
 21
1.400188999999999
 31
0.0
  0
LINE
  5
7E7
330
1E
100
AcDbEntity
  8
HIDDEN
100
AcDbLine
 10
7.177443710273528
 20
2.883188999999999
 30
0.0
 11
7.177443710273528
 21
1.400188999999999
 31
0.0
  0
LWPOLYLINE
  5
7E8
330
1E
100
AcDbEntity
  8
OBJECT
100
AcDbPolyline
 90
        6
 70
     0
 43
0.0
 10
5.058693710273528
 20
11.257135
 42
0.4142140000000001
 10
4.920443710273529
 20
11.118885
 10
4.920443710273529
 20
11.090822
 42
-0.4142140000000001
 10
4.744755710273528
 20
10.915135
 10
4.361693710273529
 20
10.915135
 42
0.4142140000000001
 10
4.223443710273528
 20
10.776885
 42
0.4142140000000001
  0
LWPOLYLINE
  5
7F0
330
1E
100
AcDbEntity
  8
OBJECT
100
AcDbPolyline
 90
        6
 70
     0
 43
0.0
 10
5.058693710273528
 20
11.217135
 42
0.4142140000000001
 10
4.960443710273529
 20
11.118885
 10
4.960443710273529
 20
11.090822
 42
-0.4142140000000001
 10
4.744755710273528
 20
10.875135
 10
4.361693710273529
 20
10.875135
 42
0.4142140000000001
 10
4.263443710273529
 20
10.776885
 42
0.4142140000000001
  0
LINE
  5
7F8
330
1E
100
AcDbEntity
  8
OBJECT
100
AcDbLine
 10
5.058693710273528
 20
11.257135
 30
0.0
 11
6.382193710273528
 21
11.257135
 31
0.0
  0
LINE
  5
7F9
330
1E
100
AcDbEntity
  8
OBJECT
100
AcDbLine
 10
5.058693710273528
 20
11.217135
 30
0.0
 11
6.382193710273528
 21
11.217135
 31
0.0
  0
LWPOLYLINE
  5
7FA
330
1E
100
AcDbEntity
  8
OBJECT
100
AcDbPolyline
 90
        6
 70
     1
 43
0.0
 10
4.516658710273529
 20
11.269885
 10
4.996648710273528
 20
11.269885
 42
0.304122
 10
4.895443710273529
 20
11.118885
 10
4.895443710273529
 20
11.090822
 42
-0.4142140000000001
 10
4.744755710273528
 20
10.94013499999999
 10
4.530850710273528
 20
10.94013499999999
 42
0.4578470000000001
  0
LWPOLYLINE
  5
802
330
1E
100
AcDbEntity
  8
OBJECT
100
AcDbPolyline
 90
        6
 70
     1
 43
0.0
 10
6.924228710273529
 20
11.269885
 10
6.444238710273528
 20
11.269885
 42
-0.304122
 10
6.545443710273529
 20
11.118885
 10
6.545443710273529
 20
11.090822
 42
0.4142140000000001
 10
6.696130710273529
 20
10.94013499999999
 10
6.910036710273528
 20
10.94013499999999
 42
-0.4578470000000001
  0
LWPOLYLINE
  5
80A
330
1E
100
AcDbEntity
  8
OBJECT
100
AcDbPolyline
 90
        6
 70
     0
 43
0.0
 10
6.382193710273528
 20
11.217135
 42
-0.4142140000000001
 10
6.480443710273529
 20
11.118885
 10
6.480443710273529
 20
11.090822
 42
0.4142140000000001
 10
6.696130710273529
 20
10.875135
 10
7.079193710273528
 20
10.875135
 42
-0.4142140000000001
 10
7.177443710273528
 20
10.776885
 42
-0.4142140000000001
  0
LWPOLYLINE
  5
812
330
1E
100
AcDbEntity
  8
OBJECT
100
AcDbPolyline
 90
        6
 70
     0
 43
0.0
 10
6.382193710273528
 20
11.257135
 42
-0.4142140000000001
 10
6.520443710273529
 20
11.118885
 10
6.520443710273529
 20
11.090822
 42
0.4142140000000001
 10
6.696130710273529
 20
10.915135
 10
7.079193710273528
 20
10.915135
 42
-0.4142140000000001
 10
7.217443710273528
 20
10.776885
 42
-0.4142140000000001
  0
LINE
  5
81A
330
1E
100
AcDbEntity
  8
OBJECT
100
AcDbLine
 10
7.177443710273528
 20
5.593885
 30
0.0
 11
7.177443710273528
 21
10.776885
 31
0.0
  0
LINE
  5
81B
330
1E
100
AcDbEntity
  8
OBJECT
100
AcDbLine
 10
7.217443710273528
 20
5.593885
 30
0.0
 11
7.217443710273528
 21
10.776885
 31
0.0
  0
LINE
  5
81C
330
1E
100
AcDbEntity
  8
OBJECT
100
AcDbLine
 10
5.058693710273528
 20
5.153634999999999
 30
0.0
 11
6.382193710273528
 21
5.153634999999999
 31
0.0
  0
LWPOLYLINE
  5
81D
330
1E
100
AcDbEntity
  8
OBJECT
100
AcDbPolyline
 90
        6
 70
     1
 43
0.0
 10
4.516658710273529
 20
5.100884999999999
 10
4.996648710273528
 20
5.100884999999999
 42
-0.304122
 10
4.895443710273529
 20
5.251884999999999
 10
4.895443710273529
 20
5.279946999999999
 42
0.4142140000000001
 10
4.744755710273528
 20
5.430634999999999
 10
4.530850710273528
 20
5.430634999999999
 42
-0.4578470000000001
  0
LWPOLYLINE
  5
825
330
1E
100
AcDbEntity
  8
OBJECT
100
AcDbPolyline
 90
        6
 70
     0
 43
0.0
 10
5.058693710273528
 20
5.153634999999999
 42
-0.4142140000000001
 10
4.960443710273529
 20
5.251884999999999
 10
4.960443710273529
 20
5.279946999999999
 42
0.4142140000000001
 10
4.744755710273528
 20
5.495635
 10
4.361693710273529
 20
5.495635
 42
-0.4142140000000001
 10
4.263443710273529
 20
5.593885
 42
-0.4142140000000001
  0
LWPOLYLINE
  5
82D
330
1E
100
AcDbEntity
  8
OBJECT
100
AcDbPolyline
 90
        6
 70
     0
 43
0.0
 10
5.058693710273528
 20
5.113634999999999
 42
-0.4142140000000001
 10
4.920443710273529
 20
5.251884999999999
 10
4.920443710273529
 20
5.279946999999999
 42
0.4142140000000001
 10
4.744755710273528
 20
5.455635
 10
4.361693710273529
 20
5.455635
 42
-0.4142140000000001
 10
4.223443710273528
 20
5.593885
 42
-0.4142140000000001
  0
LWPOLYLINE
  5
835
330
1E
100
AcDbEntity
  8
OBJECT
100
AcDbPolyline
 90
        6
 70
     0
 43
0.0
 10
6.382193710273528
 20
5.113634999999999
 42
0.4142140000000001
 10
6.520443710273529
 20
5.251884999999999
 10
6.520443710273529
 20
5.279946999999999
 42
-0.4142140000000001
 10
6.696130710273529
 20
5.455635
 10
7.079193710273528
 20
5.455635
 42
0.4142140000000001
 10
7.217443710273528
 20
5.593885
 42
0.4142140000000001
  0
LWPOLYLINE
  5
83D
330
1E
100
AcDbEntity
  8
OBJECT
100
AcDbPolyline
 90
        6
 70
     0
 43
0.0
 10
6.382193710273528
 20
5.153634999999999
 42
0.4142140000000001
 10
6.480443710273529
 20
5.251884999999999
 10
6.480443710273529
 20
5.279946999999999
 42
-0.4142140000000001
 10
6.696130710273529
 20
5.495635
 10
7.079193710273528
 20
5.495635
 42
0.4142140000000001
 10
7.177443710273528
 20
5.593885
 42
0.4142140000000001
  0
LWPOLYLINE
  5
845
330
1E
100
AcDbEntity
  8
OBJECT
100
AcDbPolyline
 90
        6
 70
     1
 43
0.0
 10
6.924228710273529
 20
5.100884999999999
 10
6.444238710273528
 20
5.100884999999999
 42
0.304122
 10
6.545443710273529
 20
5.251884999999999
 10
6.545443710273529
 20
5.279946999999999
 42
-0.4142140000000001
 10
6.696130710273529
 20
5.430634999999999
 10
6.910036710273528
 20
5.430634999999999
 42
0.4578470000000001
  0
LINE
  5
84D
330
1E
100
AcDbEntity
  8
OBJECT
100
AcDbLine
 10
5.058693710273528
 20
5.113634999999998
 30
0.0
 11
6.382193710273528
 21
5.113634999999998
 31
0.0
  0
CIRCLE
  5
84E
330
1E
100
AcDbEntity
  8
OBJECT
100
AcDbCircle
 10
5.720443710273529
 20
5.507884999999999
 30
0.0
 40
0.1575
  0
CIRCLE
  5
84F
330
1E
100
AcDbEntity
  8
OBJECT
100
AcDbCircle
 10
5.720443710273529
 20
5.507884999999999
 30
0.0
 40
0.045
  0
CIRCLE
  5
850
330
1E
100
AcDbEntity
  8
OBJECT
100
AcDbCircle
 10
5.720443710273529
 20
10.86288499999999
 30
0.0
 40
0.045
  0
CIRCLE
  5
851
330
1E
100
AcDbEntity
  8
OBJECT
100
AcDbCircle
 10
5.720443710273529
 20
10.86288499999999
 30
0.0
 40
0.1575
  0
CIRCLE
  5
858
330
1E
100
AcDbEntity
  8
OBJECT
100
AcDbCircle
 10
6.704443710273529
 20
5.271885000000001
 30
0.0
 40
0.0825
  0
CIRCLE
  5
859
330
1E
100
AcDbEntity
  8
OBJECT
100
AcDbCircle
 10
4.736443710273529
 20
5.271885000000001
 30
0.0
 40
0.0825
  0
CIRCLE
  5
85A
330
1E
100
AcDbEntity
  8
OBJECT
100
AcDbCircle
 10
4.736443710273529
 20
11.098885
 30
0.0
 40
0.0825
  0
CIRCLE
  5
85B
330
1E
100
AcDbEntity
  8
OBJECT
100
AcDbCircle
 10
6.704443710273529
 20
11.098885
 30
0.0
 40
0.0825
  0
INSERT
  5
85C
330
1E
100
AcDbEntity
  8
BEND
100
AcDbBlockReference
 66
     1
  2
SECTION
 10
7.184027710273529
 20
4.821887999999999
 30
0.0
 41
0.9404999999999999
 42
0.9404999999999999
 43
0.9404999999999999
 50
90.0
  0
ATTRIB
  5
85D
330
85C
100
AcDbEntity
  8
0
100
AcDbText
 10
7.094884853130672
 20
4.704887999999999
 30
0.0
 40
0.234
  1
A
 41
0.8
  7
SECTION
 72
     4
 11
7.184027710273529
 21
4.821887999999999
 31
0.0
100
AcDbAttribute
  2
SECTION
 70
     0
  0
SEQEND
  5
85E
330
85C
100
AcDbEntity
  8
BEND
 62
     7
  0
LWPOLYLINE
  5
85F
330
1E
100
AcDbEntity
  8
BEND
100
AcDbPolyline
 90
       10
 70
     0
 10
6.560600710273528
 20
4.821887999999999
 40
0.0
 41
0.117621
 10
6.795843710273529
 20
4.821887999999999
 40
0.0
 41
0.0
 10
7.059443710273527
 20
4.821887999999999
 40
0.0
 41
0.0
 10
7.059443710273527
 20
8.796794999999999
 40
0.0
 41
0.0
 10
6.862443710273528
 20
8.796794999999999
 40
0.0
 41
0.0
 10
6.862443710273528
 20
10.794244
 40
0.0
 41
0.0
 10
6.704443710273529
 20
10.794244
 40
0.0
 41
0.0
 10
6.704443710273529
 20
11.647287
 40
0.0
 41
0.0
 10
6.440843710273528
 20
11.647287
 40
0.117621
 41
0.0
 10
6.205600710273529
 20
11.647287
 40
0.0
 41
0.0
  0
INSERT
  5
86B
330
1E
100
AcDbEntity
  8
BEND
100
AcDbBlockReference
 66
     1
  2
SECTION
 10
6.971999710273529
 20
11.673957
 30
0.0
 41
0.9404999999999999
 42
0.9404999999999999
 43
0.9404999999999999
 50
90.0
  0
ATTRIB
  5
86C
330
86B
100
AcDbEntity
  8
0
100
AcDbText
 10
6.882856853130672
 20
11.556957
 30
0.0
 40
0.234
  1
A
 41
0.8
  7
SECTION
 72
     4
 11
6.971999710273529
 21
11.673957
 31
0.0
100
AcDbAttribute
  2
SECTION
 70
     0
  0
SEQEND
  5
86D
330
86B
100
AcDbEntity
  8
BEND
 62
     7
  0
DIMENSION
  5
86E
330
1E
100
AcDbEntity
  8
DIM
100
AcDbDimension
  2
*D19
 10
6.221756710273528
 20
11.217135
 30
0.0
 11
6.221756710273527
 21
8.185385000000001
 31
0.0
 70
    32
 71
     5
 42
6.063500000000001
  3
23NSTD
100
AcDbAlignedDimension
 13
6.382193710273528
 23
5.153634999999999
 33
0.0
 14
6.382193710273528
 24
11.217135
 34
0.0
 50
270.0
100
AcDbRotatedDimension
  0
LINE
  5
87C
330
1E
100
AcDbEntity
  8
HIDDEN
100
AcDbLine
 10
6.621943710273528
 20
1.400188999999999
 30
0.0
 11
6.621943710273528
 21
1.243188999999999
 31
0.0
  0
LINE
  5
87D
330
1E
100
AcDbEntity
  8
HIDDEN
100
AcDbLine
 10
6.786943710273528
 20
1.400188999999999
 30
0.0
 11
6.786943710273528
 21
1.243188999999999
 31
0.0
  0
LINE
  5
87E
330
1E
100
AcDbEntity
  8
HIDDEN
100
AcDbLine
 10
7.216693710273528
 20
2.508188999999999
 30
0.0
 11
6.906693710273528
 21
2.508188999999999
 31
0.0
  0
LINE
  5
87F
330
1E
100
AcDbEntity
  8
HIDDEN
100
AcDbLine
 10
4.599443710273528
 20
2.823188999999999
 30
0.0
 11
4.599443710273528
 21
1.400188999999999
 31
0.0
  0
LINE
  5
880
330
1E
100
AcDbEntity
  8
HIDDEN
100
AcDbLine
 10
4.534193710273529
 20
2.508188999999999
 30
0.0
 11
4.534193710273529
 21
1.243188999999999
 31
0.0
  0
LINE
  5
881
330
1E
100
AcDbEntity
  8
HIDDEN
100
AcDbLine
 10
4.224193710273528
 20
2.508188999999999
 30
0.0
 11
4.224193710273528
 21
1.243188999999999
 31
0.0
  0
LINE
  5
882
330
1E
100
AcDbEntity
  8
HIDDEN
100
AcDbLine
 10
4.653943710273528
 20
1.400188999999999
 30
0.0
 11
4.653943710273528
 21
1.243188999999999
 31
0.0
  0
LINE
  5
883
330
1E
100
AcDbEntity
  8
HIDDEN
100
AcDbLine
 10
4.818943710273528
 20
1.400188999999999
 30
0.0
 11
4.818943710273528
 21
1.243188999999999
 31
0.0
  0
LINE
  5
884
330
1E
100
AcDbEntity
  8
HIDDEN
100
AcDbLine
 10
4.224193710273528
 20
2.508188999999999
 30
0.0
 11
4.534193710273529
 21
2.508188999999999
 31
0.0
  0
LINE
  5
885
330
1E
100
AcDbEntity
  8
HIDDEN
100
AcDbLine
 10
4.254193710273529
 20
2.823188999999999
 30
0.0
 11
4.254193710273529
 21
2.508188999999999
 31
0.0
  0
LINE
  5
886
330
1E
100
AcDbEntity
  8
HIDDEN
100
AcDbLine
 10
4.316693710273529
 20
2.823188999999999
 30
0.0
 11
4.316693710273529
 21
2.508188999999999
 31
0.0
  0
LINE
  5
887
330
1E
100
AcDbEntity
  8
HIDDEN
100
AcDbLine
 10
4.441693710273529
 20
2.823188999999999
 30
0.0
 11
4.441693710273529
 21
2.508188999999999
 31
0.0
  0
LINE
  5
888
330
1E
100
AcDbEntity
  8
HIDDEN
100
AcDbLine
 10
4.504193710273528
 20
2.823188999999999
 30
0.0
 11
4.504193710273528
 21
2.508188999999999
 31
0.0
  0
LINE
  5
889
330
1E
100
AcDbEntity
  8
HIDDEN
100
AcDbLine
 10
4.263443710273529
 20
2.883188999999999
 30
0.0
 11
4.263443710273529
 21
1.400188999999999
 31
0.0
  0
LINE
  5
88A
330
1E
100
AcDbEntity
  8
HIDDEN
100
AcDbLine
 10
5.877943710273529
 20
1.578189
 30
0.0
 11
5.877943710273529
 21
1.400188999999999
 31
0.0
  0
LINE
  5
88B
330
1E
100
AcDbEntity
  8
HIDDEN
100
AcDbLine
 10
5.877943710273529
 20
1.578189
 30
0.0
 11
5.562943710273528
 21
1.578189
 31
0.0
  0
LINE
  5
88C
330
1E
100
AcDbEntity
  8
HIDDEN
100
AcDbLine
 10
5.562943710273528
 20
1.578189
 30
0.0
 11
5.562943710273528
 21
1.400188999999999
 31
0.0
  0
LINE
  5
88D
330
1E
100
AcDbEntity
  8
HIDDEN
100
AcDbLine
 10
5.675443710273529
 20
1.578189
 30
0.0
 11
5.675443710273529
 21
1.360189
 31
0.0
  0
LINE
  5
88E
330
1E
100
AcDbEntity
  8
HIDDEN
100
AcDbLine
 10
5.765443710273529
 20
1.578189
 30
0.0
 11
5.765443710273529
 21
1.360189
 31
0.0
  0
LINE
  5
88F
330
1E
100
AcDbEntity
  8
HIDDEN
100
AcDbLine
 10
5.765443710273529
 20
1.360189
 30
0.0
 11
5.675443710273529
 21
1.360189
 31
0.0
  0
LINE
  5
893
102
{ACAD_REACTORS
330
1939
102
}
330
1E
100
AcDbEntity
  8
OBJECT
100
AcDbLine
 10
9.89754971027353
 20
11.256885
 30
0.0
 11
9.89754971027353
 21
5.113884999999999
 31
0.0
  0
LINE
  5
894
102
{ACAD_REACTORS
330
1939
102
}
330
1E
100
AcDbEntity
  8
OBJECT
100
AcDbLine
 10
11.53754971027352
 20
11.284885
 30
0.0
 11
11.53754971027352
 21
5.085885000000001
 31
0.0
  0
LINE
  5
895
102
{ACAD_REACTORS
330
1077
330
1939
102
}
330
1E
100
AcDbEntity
  8
OBJECT
100
AcDbLine
 10
9.957549710273529
 20
5.055884999999999
 30
0.0
 11
9.957549710273529
 21
5.455662
 31
0.0
  0
LINE
  5
896
102
{ACAD_REACTORS
330
1939
102
}
330
1E
100
AcDbEntity
  8
OBJECT
100
AcDbLine
 10
9.99754971027353
 20
11.334885
 30
0.0
 11
9.99754971027353
 21
11.314885
 31
0.0
  0
LINE
  5
897
102
{ACAD_REACTORS
330
1939
102
}
330
1E
100
AcDbEntity
  8
OBJECT
100
AcDbLine
 10
11.38054971027352
 20
11.269885
 30
0.0
 11
11.38054971027352
 21
10.94013499999999
 31
0.0
  0
LINE
  5
898
102
{ACAD_REACTORS
330
1939
102
}
330
1E
100
AcDbEntity
  8
OBJECT
100
AcDbLine
 10
9.99754971027353
 20
5.035885
 30
0.0
 11
11.48754971027353
 21
5.035885
 31
0.0
  0
LINE
  5
899
102
{ACAD_REACTORS
330
1939
102
}
330
1E
100
AcDbEntity
  8
OBJECT
100
AcDbLine
 10
10.27254971027353
 20
5.424634999999998
 30
0.0
 11
11.53754971027352
 21
5.424634999999998
 31
0.0
  0
LINE
  5
89A
102
{ACAD_REACTORS
330
1939
102
}
330
1E
100
AcDbEntity
  8
OBJECT
100
AcDbLine
 10
9.89754971027353
 20
5.495635
 30
0.0
 11
11.38054971027352
 21
5.495635
 31
0.0
  0
LINE
  5
89B
102
{ACAD_REACTORS
330
1939
102
}
330
1E
100
AcDbEntity
  8
OBJECT
100
AcDbLine
 10
10.27254971027353
 20
5.114634999999999
 30
0.0
 11
11.53754971027352
 21
5.114634999999999
 31
0.0
  0
ARC
  5
89C
102
{ACAD_REACTORS
330
1939
102
}
330
1E
100
AcDbEntity
  8
OBJECT
100
AcDbCircle
 10
11.48754971027353
 20
5.085885000000001
 30
0.0
 40
0.05
100
AcDbArc
 50
270.0
 51
0.0
  0
LINE
  5
8A0
102
{ACAD_REACTORS
330
1077
330
1939
102
}
330
1E
100
AcDbEntity
  8
OBJECT
100
AcDbLine
 10
10.27254971027353
 20
5.114634999999999
 30
0.0
 11
10.27254971027353
 21
5.424634999999998
 31
0.0
  0
LINE
  5
8A1
330
1E
100
AcDbEntity
  8
OBJECT
100
AcDbLine
 10
9.957549710273529
 20
5.113884999999999
 30
0.0
 11
9.89754971027353
 21
5.113884999999999
 31
0.0
  0
LINE
  5
8A2
102
{ACAD_REACTORS
330
1939
102
}
330
1E
100
AcDbEntity
  8
OBJECT
100
AcDbLine
 10
9.99754971027353
 20
5.055884999999999
 30
0.0
 11
9.957549710273529
 21
5.055884999999999
 31
0.0
  0
LINE
  5
8A3
102
{ACAD_REACTORS
330
1077
330
1939
102
}
330
1E
100
AcDbEntity
  8
OBJECT
100
AcDbLine
 10
9.957549710273529
 20
5.144635
 30
0.0
 11
10.27254971027353
 21
5.144635
 31
0.0
  0
LINE
  5
8A4
102
{ACAD_REACTORS
330
1077
102
}
330
1E
100
AcDbEntity
  8
OBJECT
100
AcDbLine
 10
9.957549710273529
 20
5.207135
 30
0.0
 11
10.27254971027353
 21
5.207135
 31
0.0
  0
LINE
  5
8A5
102
{ACAD_REACTORS
330
1939
102
}
330
1E
100
AcDbEntity
  8
OBJECT
100
AcDbLine
 10
9.89754971027353
 20
5.455662
 30
0.0
 11
9.957549710273529
 21
5.455662
 31
0.0
  0
LINE
  5
8A6
102
{ACAD_REACTORS
330
1077
102
}
330
1E
100
AcDbEntity
  8
OBJECT
100
AcDbLine
 10
9.957549710273529
 20
5.332135
 30
0.0
 11
10.27254971027353
 21
5.332135
 31
0.0
  0
LINE
  5
8A7
102
{ACAD_REACTORS
330
1077
330
1939
102
}
330
1E
100
AcDbEntity
  8
OBJECT
100
AcDbLine
 10
9.957549710273529
 20
5.394635
 30
0.0
 11
10.27254971027353
 21
5.394635
 31
0.0
  0
LINE
  5
8A8
102
{ACAD_REACTORS
330
1939
102
}
330
1E
100
AcDbEntity
  8
OBJECT
100
AcDbLine
 10
9.99754971027353
 20
11.334885
 30
0.0
 11
11.48754971027353
 21
11.334885
 31
0.0
  0
LINE
  5
8A9
102
{ACAD_REACTORS
330
1939
102
}
330
1E
100
AcDbEntity
  8
OBJECT
100
AcDbLine
 10
9.89754971027353
 20
10.875135
 30
0.0
 11
11.38054971027352
 21
10.875135
 31
0.0
  0
LINE
  5
8AA
102
{ACAD_REACTORS
330
1939
102
}
330
1E
100
AcDbEntity
  8
OBJECT
100
AcDbLine
 10
9.957549710273529
 20
10.94013499999999
 30
0.0
 11
11.38054971027352
 21
10.94013499999999
 31
0.0
  0
LINE
  5
8AD
102
{ACAD_REACTORS
330
1939
102
}
330
1E
100
AcDbEntity
  8
OBJECT
100
AcDbLine
 10
11.38054971027352
 20
11.181385
 30
0.0
 11
11.53754971027352
 21
11.181385
 31
0.0
  0
LINE
  5
8AE
102
{ACAD_REACTORS
330
1939
102
}
330
1E
100
AcDbEntity
  8
OBJECT
100
AcDbLine
 10
11.38054971027352
 20
11.016385
 30
0.0
 11
11.53754971027352
 21
11.016385
 31
0.0
  0
ARC
  5
8AF
102
{ACAD_REACTORS
330
1939
102
}
330
1E
100
AcDbEntity
  8
OBJECT
100
AcDbCircle
 10
11.48754971027353
 20
11.284885
 30
0.0
 40
0.05
100
AcDbArc
 50
0.0
 51
90.0
  0
LINE
  5
8B0
102
{ACAD_REACTORS
330
1939
102
}
330
1E
100
AcDbEntity
  8
OBJECT
100
AcDbLine
 10
9.89754971027353
 20
10.915107
 30
0.0
 11
9.957549710273529
 21
10.915107
 31
0.0
  0
LINE
  5
8B1
330
1E
100
AcDbEntity
  8
OBJECT
100
AcDbLine
 10
9.89754971027353
 20
11.256885
 30
0.0
 11
9.957549710273529
 21
11.256885
 31
0.0
  0
LINE
  5
8B2
102
{ACAD_REACTORS
330
1939
102
}
330
1E
100
AcDbEntity
  8
OBJECT
100
AcDbLine
 10
9.957549710273529
 20
11.314885
 30
0.0
 11
9.99754971027353
 21
11.314885
 31
0.0
  0
LINE
  5
8B3
102
{ACAD_REACTORS
330
1939
102
}
330
1E
100
AcDbEntity
  8
OBJECT
100
AcDbLine
 10
9.99754971027353
 20
5.055884999999999
 30
0.0
 11
9.99754971027353
 21
5.035885
 31
0.0
  0
LINE
  5
8B4
102
{ACAD_REACTORS
330
1939
102
}
330
1E
100
AcDbEntity
  8
OBJECT
100
AcDbLine
 10
9.957549710273529
 20
10.915107
 30
0.0
 11
9.957549710273529
 21
11.314885
 31
0.0
  0
LINE
  5
8B5
102
{ACAD_REACTORS
330
1939
102
}
330
1E
100
AcDbEntity
  8
OBJECT
100
AcDbLine
 10
9.957549710273529
 20
11.269885
 30
0.0
 11
11.38054971027352
 21
11.269885
 31
0.0
  0
LINE
  5
8B6
102
{ACAD_REACTORS
330
1939
102
}
330
1E
100
AcDbEntity
  8
OBJECT
100
AcDbLine
 10
11.38054971027352
 20
10.875135
 30
0.0
 11
11.38054971027352
 21
10.81000959403888
 31
0.0
  0
LINE
  5
8B7
102
{ACAD_REACTORS
330
1939
102
}
330
1E
100
AcDbEntity
  8
OBJECT
100
AcDbLine
 10
11.38054971027352
 20
10.34376037934177
 30
0.0
 11
11.38054971027352
 21
9.523884999999999
 31
0.0
  0
LINE
  5
8B8
330
1E
100
AcDbEntity
  8
HIDDEN
100
AcDbLine
 10
11.20254971027353
 20
5.856384999999999
 30
0.0
 11
11.42054971027353
 21
5.856384999999999
 31
0.0
  0
LINE
  5
8B9
330
1E
100
AcDbEntity
  8
HIDDEN
100
AcDbLine
 10
11.20254971027353
 20
5.731384999999999
 30
0.0
 11
11.42054971027353
 21
5.731384999999999
 31
0.0
  0
LINE
  5
8BA
102
{ACAD_REACTORS
330
1939
102
}
330
1E
100
AcDbEntity
  8
HIDDEN
100
AcDbLine
 10
11.20254971027353
 20
5.887634999999999
 30
0.0
 11
11.42054971027353
 21
5.887634999999999
 31
0.0
  0
LINE
  5
8BB
102
{ACAD_REACTORS
330
1939
102
}
330
1E
100
AcDbEntity
  8
HIDDEN
100
AcDbLine
 10
11.20254971027353
 20
5.700134999999999
 30
0.0
 11
11.42054971027353
 21
5.700134999999999
 31
0.0
  0
LINE
  5
8BC
102
{ACAD_REACTORS
330
1939
102
}
330
1E
100
AcDbEntity
  8
HIDDEN
100
AcDbLine
 10
11.42054971027353
 20
5.887634999999999
 30
0.0
 11
11.42054971027353
 21
5.700134999999999
 31
0.0
  0
DIMENSION
  5
8C0
330
1E
100
AcDbEntity
  8
DIM
100
AcDbDimension
  2
*D20
 10
9.89754971027353
 20
11.742698
 30
0.0
 11
10.71754971027353
 21
11.742698
 31
0.0
 70
   160
 71
     5
 42
1.639999999999998
  3
23NSTDI
100
AcDbAlignedDimension
 13
11.53754971027352
 23
11.284885
 33
0.0
 14
9.89754971027353
 24
11.256885
 34
0.0
100
AcDbRotatedDimension
  0
DIMENSION
  5
8CE
330
1E
100
AcDbEntity
  8
DIM
100
AcDbDimension
  2
*D21
 10
10.27254971027353
 20
4.659044
 30
0.0
 11
10.90504971027353
 21
4.659044
 31
0.0
 70
    32
 71
     5
 42
1.264999999999998
  3
23NSTDI
100
AcDbAlignedDimension
 13
11.53754971027352
 23
5.085885
 33
0.0
 14
10.27254971027353
 24
5.114634999999999
 34
0.0
100
AcDbRotatedDimension
  0
DIMENSION
  5
8DC
330
1E
100
AcDbEntity
  8
DIM
100
AcDbDimension
  2
*D22
 10
11.53754971027352
 20
8.677965999999999
 30
0.0
 11
12.61215908527352
 21
8.677965999999999
 31
0.0
 70
    32
 71
     5
 42
0.157
  3
23NSTD
100
AcDbAlignedDimension
 13
11.38054971027352
 23
8.532000999999999
 33
0.0
 14
11.53754971027352
 24
8.532000999999999
 34
0.0
100
AcDbRotatedDimension
  0
DIMENSION
  5
8EA
330
1E
100
AcDbEntity
  8
DIM
100
AcDbDimension
  2
*D23
 10
11.53754971027352
 20
9.808752
 30
0.0
 11
12.63950283527353
 21
9.808752
 31
0.0
 70
    32
  1
<>
 71
     5
 42
0.3349999999999991
  3
23NSTD
100
AcDbAlignedDimension
 13
11.20254971027353
 23
10.419385
 33
0.0
 14
11.53754971027352
 24
10.419385
 34
0.0
100
AcDbRotatedDimension
  0
DIMENSION
  5
8F8
330
1E
100
AcDbEntity
  8
DIM
100
AcDbDimension
  2
*D24
 10
12.32348571027352
 20
5.424634999999999
 30
0.0
 11
12.32348571027352
 21
5.269635000000001
 31
0.0
 70
    32
  1
<> DIA.
 71
     5
 42
0.3099999999999996
  3
23NSTDI
100
AcDbAlignedDimension
 13
11.53754971027352
 23
5.114634999999999
 33
0.0
 14
11.53754971027352
 24
5.424634999999999
 34
0.0
 50
90.0
100
AcDbRotatedDimension
  0
DIMENSION
  5
906
330
1E
100
AcDbEntity
  8
DIM
100
AcDbDimension
  2
*D25
 10
12.34440971027352
 20
11.18138499999999
 30
0.0
 11
13.43214408527352
 21
11.811385
 31
0.0
 70
    32
  1
<> DIA.
 71
     5
 42
0.1649999999999991
  3
23NSTD
100
AcDbAlignedDimension
 13
11.53754971027352
 23
11.016385
 33
0.0
 14
11.53754971027352
 24
11.181385
 34
0.0
 50
90.0
100
AcDbRotatedDimension
  0
DIMENSION
  5
91A
330
1E
100
AcDbEntity
  8
DIM
100
AcDbDimension
  2
*D26
 10
5.314701710273528
 20
10.852006
 30
0.0
 11
5.314701710273526
 21
8.179945500000002
 31
0.0
 70
    32
 71
     5
 42
5.344121
  3
23NSTD
100
AcDbAlignedDimension
 13
5.720443710273529
 23
5.507884999999999
 33
0.0
 14
5.720443710273529
 24
10.852006
 34
0.0
 50
90.0
100
AcDbRotatedDimension
  0
DIMENSION
  5
928
330
1E
100
AcDbEntity
  8
DIM
100
AcDbDimension
  2
*D27
 10
5.314701710273528
 20
11.334885
 30
0.0
 11
6.101654835273526
 21
11.964885
 31
0.0
 70
    32
 71
     5
 42
0.4828790000000005
  3
23NSTD
100
AcDbAlignedDimension
 13
5.720443710273529
 23
10.852006
 33
0.0
 14
5.238219710273528
 24
11.334885
 34
0.0
 50
90.0
100
AcDbRotatedDimension
  0
DIMENSION
  5
936
330
1E
100
AcDbEntity
  8
DIM
100
AcDbDimension
  2
*D28
 10
4.145443710273529
 20
4.539835
 30
0.0
 11
3.057162460273529
 21
4.539835
 31
0.0
 70
   160
 71
     5
 42
1.575
  3
23NSTD
100
AcDbAlignedDimension
 13
5.720443710273529
 23
5.507884999999999
 33
0.0
 14
4.145443710273529
 24
5.254634999999999
 34
0.0
100
AcDbRotatedDimension
  0
CIRCLE
  5
943
330
1E
100
AcDbEntity
  8
OBJECT
100
AcDbCircle
 10
4.578443710273528
 20
9.366385000000001
 30
0.0
 40
0.045
  0
CIRCLE
  5
944
330
1E
100
AcDbEntity
  8
OBJECT
100
AcDbCircle
 10
4.578443710273528
 20
9.366385000000001
 30
0.0
 40
0.1575
  0
CIRCLE
  5
945
330
1E
100
AcDbEntity
  8
OBJECT
100
AcDbCircle
 10
4.578443710273528
 20
8.185385
 30
0.0
 40
0.045
  0
CIRCLE
  5
946
330
1E
100
AcDbEntity
  8
OBJECT
100
AcDbCircle
 10
4.578443710273528
 20
8.185385
 30
0.0
 40
0.1575
  0
CIRCLE
  5
947
330
1E
100
AcDbEntity
  8
OBJECT
100
AcDbCircle
 10
6.862443710273528
 20
8.185385
 30
0.0
 40
0.1575
  0
CIRCLE
  5
948
330
1E
100
AcDbEntity
  8
OBJECT
100
AcDbCircle
 10
6.862443710273528
 20
8.185385
 30
0.0
 40
0.045
  0
CIRCLE
  5
949
330
1E
100
AcDbEntity
  8
OBJECT
100
AcDbCircle
 10
6.862443710273528
 20
9.366385000000001
 30
0.0
 40
0.1575
  0
CIRCLE
  5
94A
330
1E
100
AcDbEntity
  8
OBJECT
100
AcDbCircle
 10
6.862443710273528
 20
9.366385000000001
 30
0.0
 40
0.045
  0
CIRCLE
  5
94B
330
1E
100
AcDbEntity
  8
OBJECT
100
AcDbCircle
 10
4.578443710273528
 20
7.004385
 30
0.0
 40
0.1575
  0
CIRCLE
  5
94C
330
1E
100
AcDbEntity
  8
OBJECT
100
AcDbCircle
 10
4.578443710273528
 20
7.004385
 30
0.0
 40
0.045
  0
CIRCLE
  5
94D
330
1E
100
AcDbEntity
  8
OBJECT
100
AcDbCircle
 10
6.862443710273528
 20
7.004385
 30
0.0
 40
0.045
  0
CIRCLE
  5
94E
330
1E
100
AcDbEntity
  8
OBJECT
100
AcDbCircle
 10
6.862443710273528
 20
7.004385
 30
0.0
 40
0.1575
  0
LINE
  5
94F
102
{ACAD_REACTORS
330
1939
102
}
330
1E
100
AcDbEntity
  8
HIDDEN
100
AcDbLine
 10
11.20254971027353
 20
7.049385
 30
0.0
 11
11.42054971027353
 21
7.049385
 31
0.0
  0
LINE
  5
950
102
{ACAD_REACTORS
330
1939
102
}
330
1E
100
AcDbEntity
  8
HIDDEN
100
AcDbLine
 10
11.20254971027353
 20
6.959385000000001
 30
0.0
 11
11.42054971027353
 21
6.959385000000001
 31
0.0
  0
LINE
  5
951
330
1E
100
AcDbEntity
  8
OBJECT
100
AcDbLine
 10
11.20254971027353
 20
6.846885
 30
0.0
 11
11.38054971027352
 21
6.846885
 31
0.0
  0
LINE
  5
952
330
1E
100
AcDbEntity
  8
OBJECT
100
AcDbLine
 10
11.20254971027353
 20
7.161885000000001
 30
0.0
 11
11.38054971027352
 21
7.161885000000001
 31
0.0
  0
LINE
  5
953
102
{ACAD_REACTORS
330
1939
102
}
330
1E
100
AcDbEntity
  8
HIDDEN
100
AcDbLine
 10
11.20254971027353
 20
8.230385
 30
0.0
 11
11.42054971027353
 21
8.230385
 31
0.0
  0
LINE
  5
954
102
{ACAD_REACTORS
330
1939
102
}
330
1E
100
AcDbEntity
  8
HIDDEN
100
AcDbLine
 10
11.20254971027353
 20
8.140385
 30
0.0
 11
11.42054971027353
 21
8.140385
 31
0.0
  0
LINE
  5
955
330
1E
100
AcDbEntity
  8
OBJECT
100
AcDbLine
 10
11.20254971027353
 20
8.027885000000001
 30
0.0
 11
11.38054971027352
 21
8.027885000000001
 31
0.0
  0
LINE
  5
956
330
1E
100
AcDbEntity
  8
OBJECT
100
AcDbLine
 10
11.20254971027353
 20
8.342885
 30
0.0
 11
11.38054971027352
 21
8.342885
 31
0.0
  0
LINE
  5
957
102
{ACAD_REACTORS
330
1939
102
}
330
1E
100
AcDbEntity
  8
OBJECT
100
AcDbLine
 10
11.20254971027353
 20
9.523884999999999
 30
0.0
 11
11.38054971027352
 21
9.523884999999999
 31
0.0
  0
LINE
  5
958
102
{ACAD_REACTORS
330
1939
102
}
330
1E
100
AcDbEntity
  8
OBJECT
100
AcDbLine
 10
11.20254971027353
 20
9.208885
 30
0.0
 11
11.38054971027352
 21
9.208885
 31
0.0
  0
LINE
  5
959
102
{ACAD_REACTORS
330
1939
102
}
330
1E
100
AcDbEntity
  8
OBJECT
100
AcDbLine
 10
11.20254971027353
 20
9.321385000000001
 30
0.0
 11
11.42054971027353
 21
9.321385000000001
 31
0.0
  0
LINE
  5
95A
102
{ACAD_REACTORS
330
1939
102
}
330
1E
100
AcDbEntity
  8
OBJECT
100
AcDbLine
 10
11.20254971027353
 20
9.411385
 30
0.0
 11
11.42054971027353
 21
9.411385
 31
0.0
  0
LINE
  5
95B
102
{ACAD_REACTORS
330
1939
102
}
330
1E
100
AcDbEntity
  8
HIDDEN
100
AcDbLine
 10
11.42054971027353
 20
6.959385000000001
 30
0.0
 11
11.42054971027353
 21
7.049385
 31
0.0
  0
LINE
  5
95C
102
{ACAD_REACTORS
330
1939
102
}
330
1E
100
AcDbEntity
  8
HIDDEN
100
AcDbLine
 10
11.42054971027353
 20
8.140385
 30
0.0
 11
11.42054971027353
 21
8.230385
 31
0.0
  0
LINE
  5
95D
102
{ACAD_REACTORS
330
1939
102
}
330
1E
100
AcDbEntity
  8
OBJECT
100
AcDbLine
 10
11.42054971027353
 20
9.321385000000001
 30
0.0
 11
11.42054971027353
 21
9.411385
 31
0.0
  0
LINE
  5
95E
330
1E
100
AcDbEntity
  8
OBJECT
100
AcDbLine
 10
11.20254971027353
 20
6.846885
 30
0.0
 11
11.20254971027353
 21
7.161885000000001
 31
0.0
  0
LINE
  5
95F
330
1E
100
AcDbEntity
  8
OBJECT
100
AcDbLine
 10
11.20254971027353
 20
8.027885000000001
 30
0.0
 11
11.20254971027353
 21
8.342885
 31
0.0
  0
LINE
  5
960
102
{ACAD_REACTORS
330
1939
102
}
330
1E
100
AcDbEntity
  8
OBJECT
100
AcDbLine
 10
11.20254971027353
 20
9.208885
 30
0.0
 11
11.20254971027353
 21
9.523884999999999
 31
0.0
  0
LINE
  5
961
102
{ACAD_REACTORS
330
1939
102
}
330
1E
100
AcDbEntity
  8
OBJECT
100
AcDbLine
 10
11.38054971027352
 20
9.208885
 30
0.0
 11
11.38054971027352
 21
5.495635
 31
0.0
  0
DIMENSION
  5
963
330
1E
100
AcDbEntity
  8
DIM
100
AcDbDimension
  2
*D29
 10
2.959543710273528
 20
11.334885
 30
0.0
 11
2.959543710273526
 21
9.760135000000001
 31
0.0
 70
    32
 71
     5
 42
3.149499999999999
  3
23NSTD
100
AcDbAlignedDimension
 13
4.578443710273528
 23
8.185385
 33
0.0
 14
4.364193710273529
 24
11.334885
 34
0.0
 50
90.0
100
AcDbRotatedDimension
  0
DIMENSION
  5
971
330
1E
100
AcDbEntity
  8
DIM
100
AcDbDimension
  2
*D30
 10
3.520543710273528
 20
8.185385000000001
 30
0.0
 11
3.520543710273527
 21
8.775885000000002
 31
0.0
 70
    32
 71
     5
 42
1.181
  3
23NSTDI
100
AcDbAlignedDimension
 13
4.578443710273528
 23
9.366385000000001
 33
0.0
 14
4.578443710273528
 24
8.185385
 34
0.0
 50
90.0
100
AcDbRotatedDimension
  0
DIMENSION
  5
97F
330
1E
100
AcDbEntity
  8
DIM
100
AcDbDimension
  2
*D31
 10
2.959543710273528
 20
7.004385
 30
0.0
 11
2.959543710273527
 21
7.594885000000001
 31
0.0
 70
    32
 71
     5
 42
1.181
  3
23NSTDI
100
AcDbAlignedDimension
 13
4.578443710273528
 23
8.185385
 33
0.0
 14
4.578443710273528
 24
7.004385
 34
0.0
 50
90.0
100
AcDbRotatedDimension
  0
TEXT
  5
98D
330
1E
100
AcDbEntity
  8
TEXT
100
AcDbText
 10
20.9558636960393
 20
3.915980000000001
 30
0.0
 40
0.21875
  1
%%USECTION "B-B"
 41
0.8
  7
SECTION
100
AcDbText
  0
LINE
  5
98E
330
1E
100
AcDbEntity
  8
OBJECT
100
AcDbLine
 10
15.8436366960393
 20
11.116135
 30
0.0
 11
15.8436366960393
 21
5.254635
 31
0.0
  0
LINE
  5
98F
330
1E
100
AcDbEntity
  8
OBJECT
100
AcDbLine
 10
18.7748866960393
 20
5.035885
 30
0.0
 11
16.0623866960393
 21
5.035885
 31
0.0
  0
LINE
  5
990
330
1E
100
AcDbEntity
  8
OBJECT
100
AcDbLine
 10
18.9936366960393
 20
11.116135
 30
0.0
 11
18.9936366960393
 21
5.254635
 31
0.0
  0
CIRCLE
  5
991
330
1E
100
AcDbEntity
  8
OBJECT
100
AcDbCircle
 10
18.7576366960393
 20
5.271885000000001
 30
0.0
 40
0.085938
  0
ARC
  5
992
330
1E
100
AcDbEntity
  8
OBJECT
100
AcDbCircle
 10
18.7748866960393
 20
5.254635
 30
0.0
 40
0.21875
100
AcDbArc
 50
270.0
 51
0.0
  0
ARC
  5
993
330
1E
100
AcDbEntity
  8
OBJECT
100
AcDbCircle
 10
16.0623866960393
 20
5.254635
 30
0.0
 40
0.21875
100
AcDbArc
 50
180.0
 51
270.0
  0
CIRCLE
  5
994
330
1E
100
AcDbEntity
  8
OBJECT
100
AcDbCircle
 10
16.0796366960393
 20
5.271885000000001
 30
0.0
 40
0.085938
  0
CIRCLE
  5
995
330
1E
100
AcDbEntity
  8
OBJECT
100
AcDbCircle
 10
16.0796366960393
 20
11.098885
 30
0.0
 40
0.085938
  0
ARC
  5
996
330
1E
100
AcDbEntity
  8
OBJECT
100
AcDbCircle
 10
16.0623866960393
 20
11.116135
 30
0.0
 40
0.21875
100
AcDbArc
 50
90.0
 51
180.0
  0
ARC
  5
997
330
1E
100
AcDbEntity
  8
OBJECT
100
AcDbCircle
 10
18.7748866960393
 20
11.116135
 30
0.0
 40
0.21875
100
AcDbArc
 50
0.0
 51
90.0
  0
CIRCLE
  5
998
330
1E
100
AcDbEntity
  8
OBJECT
100
AcDbCircle
 10
18.7576366960393
 20
11.098885
 30
0.0
 40
0.085938
  0
LINE
  5
999
330
1E
100
AcDbEntity
  8
OBJECT
100
AcDbLine
 10
18.7748866960393
 20
11.334885
 30
0.0
 11
16.0623866960393
 21
11.334885
 31
0.0
  0
DIMENSION
  5
99A
330
1E
100
AcDbEntity
  8
DIM
100
AcDbDimension
  2
*D32
 10
19.5048256960393
 20
11.334885
 30
0.0
 11
20.29177882103929
 21
11.964885
 31
0.0
 70
    32
 71
     5
 42
0.2359999999999989
  3
23NSTD
100
AcDbAlignedDimension
 13
18.7576366960393
 23
11.098885
 33
0.0
 14
18.7748866960393
 24
11.334885
 34
0.0
 50
90.0
100
AcDbRotatedDimension
  0
DIMENSION
  5
9A8
330
1E
100
AcDbEntity
  8
DIM
100
AcDbDimension
  2
*D33
 10
19.5048256960393
 20
11.098885
 30
0.0
 11
19.50482569603929
 21
8.185385000000003
 31
0.0
 70
    32
  1
<>
 71
     5
 42
5.826999999999999
  3
23NSTD
100
AcDbAlignedDimension
 13
18.7576366960393
 23
5.271885
 33
0.0
 14
18.7576366960393
 24
11.098885
 34
0.0
 50
90.0
100
AcDbRotatedDimension
  0
DIMENSION
  5
9B6
330
1E
100
AcDbEntity
  8
DIM
100
AcDbDimension
  2
*D34
 10
15.2062976960393
 20
11.334885
 30
0.0
 11
15.2062976960393
 21
8.185385000000001
 31
0.0
 70
    32
  1
<>
 71
     5
 42
6.299
  3
23NSTD
100
AcDbAlignedDimension
 13
16.0623866960393
 23
5.035884999999999
 33
0.0
 14
16.0623866960393
 24
11.334885
 34
0.0
 50
270.0
100
AcDbRotatedDimension
  0
DIMENSION
  5
9C4
330
1E
100
AcDbEntity
  8
DIM
100
AcDbDimension
  2
*D35
 10
15.8436366960393
 20
12.36733899999999
 30
0.0
 11
14.7416835710393
 21
12.36733899999999
 31
0.0
 70
    32
 71
     5
 42
0.2359999999999989
  3
23NSTD
100
AcDbAlignedDimension
 13
16.0796366960393
 23
11.098885
 33
0.0
 14
15.8436366960393
 24
11.116135
 34
0.0
100
AcDbRotatedDimension
  0
DIMENSION
  5
9D2
330
1E
100
AcDbEntity
  8
DIM
100
AcDbDimension
  2
*D36
 10
16.0796366960393
 20
12.36733899999999
 30
0.0
 11
17.4186366960393
 21
12.36733899999999
 31
0.0
 70
    32
  1
<>
 71
     5
 42
2.678
  3
23NSTD
100
AcDbAlignedDimension
 13
18.7576366960393
 23
11.098885
 33
0.0
 14
16.0796366960393
 24
11.098885
 34
0.0
100
AcDbRotatedDimension
  0
DIMENSION
  5
9E0
330
1E
100
AcDbEntity
  8
DIM
100
AcDbDimension
  2
*D37
 10
15.8436366960393
 20
12.85908899999999
 30
0.0
 11
17.4186366960393
 21
12.85908899999999
 31
0.0
 70
    32
  1
<>
 71
     5
 42
3.15
  3
23NSTD
100
AcDbAlignedDimension
 13
18.9936366960393
 23
11.116135
 33
0.0
 14
15.8436366960393
 24
11.116135
 34
0.0
100
AcDbRotatedDimension
  0
CIRCLE
  5
9EE
102
{ACAD_REACTORS
330
119C
102
}
330
1E
100
AcDbEntity
  8
BEND
100
AcDbCircle
 10
21.7814726960393
 20
5.318967
 30
0.0
 40
0.6126960000000001
  0
LWPOLYLINE
  5
9EF
330
1E
100
AcDbEntity
  8
DIM
100
AcDbPolyline
 90
        4
 70
     0
 10
21.3281386960393
 20
4.906795999999999
 40
0.0
 41
0.118159
 10
21.1387856960393
 20
4.654949
 40
0.0
 41
0.0
 10
20.8105356960393
 20
4.218363
 40
0.0
 41
0.0
 10
20.6004756960393
 20
4.218363
 40
0.0
 41
0.0
  0
TEXT
  5
9F5
330
1E
100
AcDbEntity
  8
DIM
100
AcDbText
 10
18.3116921960393
 20
4.108956499999999
 30
0.0
 40
0.218813
  1
SEE DETAIL "C"
 41
0.75
 72
     2
 11
20.3904156960393
 21
4.218363
 31
0.0
100
AcDbText
 73
     2
  0
DIMENSION
  5
9F6
330
1E
100
AcDbEntity
  8
DIM
100
AcDbDimension
  2
*D38
 10
17.4716776960393
 20
5.035884999999999
 30
0.0
 11
16.3565995710393
 21
4.405885000000002
 31
0.0
 70
    32
  1
<> TYP.
 71
     5
 42
0.1779999999999999
  3
23NSTD
100
AcDbAlignedDimension
 13
17.4130846960393
 23
5.213884999999999
 33
0.0
 14
17.4130846960393
 24
5.035884999999999
 34
0.0
 50
90.0
100
AcDbRotatedDimension
  0
INSERT
  5
A04
330
1E
100
AcDbEntity
  8
BEND
100
AcDbBlockReference
 66
     1
  2
SECTION
 10
18.8787396960393
 20
4.781027999999999
 30
0.0
 41
0.627
 42
0.627
 43
0.627
 50
90.0
  0
ATTRIB
  5
A05
330
A04
100
AcDbEntity
  8
0
100
AcDbText
 10
18.7851396960393
 20
4.664027999999999
 30
0.0
 40
0.234
  1
B
 41
0.8
  7
SECTION
 72
     4
 11
18.8787396960393
 21
4.781027999999999
 31
0.0
100
AcDbAttribute
  2
SECTION
 70
     0
  0
SEQEND
  5
A06
330
A04
100
AcDbEntity
  8
BEND
 62
     7
  0
INSERT
  5
A07
330
1E
100
AcDbEntity
  8
BEND
100
AcDbBlockReference
 66
     1
  2
SECTION
 10
18.5934356960393
 20
11.578616
 30
0.0
 41
0.627
 42
0.627
 43
0.627
 50
90.0
  0
ATTRIB
  5
A08
330
A07
100
AcDbEntity
  8
0
100
AcDbText
 10
18.4998356960393
 20
11.461616
 30
0.0
 40
0.234
  1
B
 41
0.8
  7
SECTION
 72
     4
 11
18.5934356960393
 21
11.578616
 31
0.0
100
AcDbAttribute
  2
SECTION
 70
     0
  0
SEQEND
  5
A09
330
A07
100
AcDbEntity
  8
BEND
 62
     7
  0
LWPOLYLINE
  5
A0A
330
1E
100
AcDbEntity
  8
OBJECT
100
AcDbPolyline
 90
        6
 70
     0
 43
0.0
 10
16.7568866960393
 20
11.156885
 42
0.4142140000000001
 10
16.7188866960393
 20
11.118885
 10
16.7188866960393
 20
11.090822
 42
-0.4142140000000001
 10
16.44294969603929
 20
10.814885
 10
16.0598866960393
 20
10.814885
 42
0.4142140000000001
 10
16.0218866960393
 20
10.776885
 42
0.268895
  0
LINE
  5
A12
330
1E
100
AcDbEntity
  8
OBJECT
100
AcDbLine
 10
16.0218866960393
 20
5.593885
 30
0.0
 11
16.0218866960393
 21
10.776885
 31
0.0
  0
LWPOLYLINE
  5
A13
330
1E
100
AcDbEntity
  8
OBJECT
100
AcDbPolyline
 90
        6
 70
     1
 43
0.0
 10
16.5929356960393
 20
11.254885
 42
0.167252
 10
16.5488866960393
 20
11.126885
 10
16.5488866960393
 20
11.090822
 42
-0.4142140000000001
 10
16.44294969603929
 20
10.98488499999999
 10
16.2654536960393
 20
10.98488499999999
 42
0.3503
 10
16.2319126960393
 20
11.254885
  0
LINE
  5
A1B
330
1E
100
AcDbEntity
  8
OBJECT
100
AcDbLine
 10
18.0803866960393
 20
11.156885
 30
0.0
 11
16.7568866960393
 21
11.156885
 31
0.0
  0
LWPOLYLINE
  5
A1C
330
1E
100
AcDbEntity
  8
OBJECT
100
AcDbPolyline
 90
        6
 70
     0
 43
0.0
 10
18.0803866960393
 20
11.156885
 42
-0.4142140000000001
 10
18.1183866960393
 20
11.118885
 10
18.1183866960393
 20
11.090822
 42
0.4142140000000001
 10
18.3943246960393
 20
10.814885
 10
18.7776366960393
 20
10.814885
 42
-0.4142140000000001
 10
18.8156366960393
 20
10.776885
 42
-0.268823
  0
LWPOLYLINE
  5
A24
330
1E
100
AcDbEntity
  8
OBJECT
100
AcDbPolyline
 90
        6
 70
     1
 43
0.0
 10
18.2443376960393
 20
11.254885
 42
-0.167252
 10
18.2883866960393
 20
11.126885
 10
18.2883866960393
 20
11.090822
 42
0.4142140000000001
 10
18.3943246960393
 20
10.98488499999999
 10
18.5718196960393
 20
10.98488499999999
 42
-0.3503
 10
18.6053606960393
 20
11.254885
  0
LWPOLYLINE
  5
A2C
330
1E
100
AcDbEntity
  8
OBJECT
100
AcDbPolyline
 90
        6
 70
     1
 43
0.0
 10
16.5929356960393
 20
5.115884999999999
 42
-0.167252
 10
16.5488866960393
 20
5.243884999999999
 10
16.5488866960393
 20
5.279946999999999
 42
0.4142140000000001
 10
16.44294969603929
 20
5.385885
 10
16.2654536960393
 20
5.385885
 42
-0.3503
 10
16.2319126960393
 20
5.115884999999999
  0
LWPOLYLINE
  5
A34
330
1E
100
AcDbEntity
  8
OBJECT
100
AcDbPolyline
 90
        6
 70
     0
 43
0.0
 10
16.7568866960393
 20
5.213884999999999
 42
-0.4142140000000001
 10
16.7188866960393
 20
5.251884999999999
 10
16.7188866960393
 20
5.279946999999999
 42
0.4142140000000001
 10
16.44294969603929
 20
5.555884999999999
 10
16.0598866960393
 20
5.555884999999999
 42
-0.4142140000000001
 10
16.0218866960393
 20
5.593885
 42
-0.268895
  0
LWPOLYLINE
  5
A3C
330
1E
100
AcDbEntity
  8
OBJECT
100
AcDbPolyline
 90
        6
 70
     1
 43
0.0
 10
18.2443376960393
 20
5.115884999999999
 42
0.167252
 10
18.2883866960393
 20
5.243884999999999
 10
18.2883866960393
 20
5.279946999999999
 42
-0.4142140000000001
 10
18.3943246960393
 20
5.385885
 10
18.5718196960393
 20
5.385885
 42
0.3503
 10
18.6053606960393
 20
5.115884999999999
  0
LWPOLYLINE
  5
A44
330
1E
100
AcDbEntity
  8
OBJECT
100
AcDbPolyline
 90
        6
 70
     0
 43
0.0
 10
18.0803866960393
 20
5.213884999999999
 42
0.4142140000000001
 10
18.1183866960393
 20
5.251884999999999
 10
18.1183866960393
 20
5.279946999999999
 42
-0.4142140000000001
 10
18.3943246960393
 20
5.555884999999999
 10
18.7776366960393
 20
5.555884999999999
 42
0.4142140000000001
 10
18.8156366960393
 20
5.593885
 42
0.268823
  0
LINE
  5
A4C
330
1E
100
AcDbEntity
  8
OBJECT
100
AcDbLine
 10
18.0803866960393
 20
5.213884999999999
 30
0.0
 11
16.7568866960393
 21
5.213884999999999
 31
0.0
  0
LINE
  5
A4D
330
1E
100
AcDbEntity
  8
OBJECT
100
AcDbLine
 10
18.8156366960393
 20
5.593885
 30
0.0
 11
18.8156366960393
 21
10.776885
 31
0.0
  0
LINE
  5
A4E
330
1E
100
AcDbEntity
  8
OBJECT
100
AcDbLine
 10
25.69625440631284
 20
11.334885
 30
0.0
 11
25.69625440631284
 21
5.035884999999999
 31
0.0
  0
LINE
  5
A4F
330
1E
100
AcDbEntity
  8
OBJECT
100
AcDbLine
 10
27.23625440631284
 20
11.284885
 30
0.0
 11
27.23625440631284
 21
5.085885
 31
0.0
  0
LINE
  5
A50
330
1E
100
AcDbEntity
  8
OBJECT
100
AcDbLine
 10
25.69625440631284
 20
5.035884999999999
 30
0.0
 11
27.18625440631284
 21
5.035884999999999
 31
0.0
  0
ARC
  5
A51
330
1E
100
AcDbEntity
  8
OBJECT
100
AcDbCircle
 10
27.18625440631284
 20
5.085885
 30
0.0
 40
0.05
100
AcDbArc
 50
270.0
 51
0.0
  0
LINE
  5
A52
330
1E
100
AcDbEntity
  8
OBJECT
100
AcDbLine
 10
25.69625440631284
 20
5.055884999999999
 30
0.0
 11
25.65625440631285
 21
5.055884999999999
 31
0.0
  0
LINE
  5
A53
330
1E
100
AcDbEntity
  8
OBJECT
100
AcDbLine
 10
25.69625440631284
 20
11.334885
 30
0.0
 11
27.18625440631284
 21
11.334885
 31
0.0
  0
ARC
  5
A54
330
1E
100
AcDbEntity
  8
OBJECT
100
AcDbCircle
 10
27.18625440631284
 20
11.284885
 30
0.0
 40
0.05
100
AcDbArc
 50
0.0
 51
90.0
  0
LINE
  5
A55
330
1E
100
AcDbEntity
  8
OBJECT
100
AcDbLine
 10
25.65625440631285
 20
11.314885
 30
0.0
 11
25.69625440631284
 21
11.314885
 31
0.0
  0
LINE
  5
A56
330
1E
100
AcDbEntity
  8
OBJECT
100
AcDbLine
 10
25.06525440631284
 20
11.272385
 30
0.0
 11
25.06525440631284
 21
5.098384999999999
 31
0.0
  0
LINE
  5
A57
330
1E
100
AcDbEntity
  8
OBJECT
100
AcDbLine
 10
25.65625440631285
 20
11.334885
 30
0.0
 11
25.65625440631285
 21
5.035884999999999
 31
0.0
  0
LINE
  5
A58
330
1E
100
AcDbEntity
  8
OBJECT
100
AcDbLine
 10
25.65625440631285
 20
5.035884999999999
 30
0.0
 11
25.12775440631284
 21
5.035884999999999
 31
0.0
  0
ARC
  5
A59
330
1E
100
AcDbEntity
  8
OBJECT
100
AcDbCircle
 10
25.12775440631284
 20
5.098384999999999
 30
0.0
 40
0.0625
100
AcDbArc
 50
180.0
 51
270.0
  0
LINE
  5
A5A
330
1E
100
AcDbEntity
  8
OBJECT
100
AcDbLine
 10
25.65625440631285
 20
11.334885
 30
0.0
 11
25.12775440631284
 21
11.334885
 31
0.0
  0
ARC
  5
A5B
330
1E
100
AcDbEntity
  8
OBJECT
100
AcDbCircle
 10
25.12775440631284
 20
11.272385
 30
0.0
 40
0.0625
100
AcDbArc
 50
90.0
 51
180.0
  0
DIMENSION
  5
A6E
330
1E
100
AcDbEntity
  8
DIM
100
AcDbDimension
  2
*D39
 10
27.23625440631284
 20
11.718189
 30
0.0
 11
26.15075440631284
 21
11.718189
 31
0.0
 70
    32
 71
     5
 42
2.170999999999999
  3
23NSTDI
100
AcDbAlignedDimension
 13
25.06525440631284
 23
11.272385
 33
0.0
 14
27.23625440631284
 24
11.284885
 34
0.0
100
AcDbRotatedDimension
  0
DIMENSION
  5
A7C
330
1E
100
AcDbEntity
  8
DIM
100
AcDbDimension
  2
*D40
 10
25.65625440631285
 20
4.616601999999999
 30
0.0
 11
27.08633253131285
 21
4.616601999999999
 31
0.0
 70
    32
  1
<> REF.
 71
     5
 42
0.5910000000000011
  3
23NSTD
100
AcDbAlignedDimension
 13
25.06525440631284
 23
5.098384999999999
 33
0.0
 14
25.65625440631285
 24
5.035884999999999
 34
0.0
 50
180.0
100
AcDbRotatedDimension
  0
LWPOLYLINE
  5
A8D
330
1E
100
AcDbEntity
  8
BEND
100
AcDbPolyline
 90
       10
 70
     0
 10
18.2587936960393
 20
4.781028
 40
0.0
 41
0.117621
 10
18.4940366960393
 20
4.781028
 40
0.0
 41
0.0
 10
18.7576366960393
 20
4.781028
 40
0.0
 41
0.0
 10
18.7576366960393
 20
8.755935
 40
0.0
 41
0.0
 10
18.5606366960393
 20
8.755935
 40
0.0
 41
0.0
 10
18.5606366960393
 20
10.753384
 40
0.0
 41
0.0
 10
18.4467406960393
 20
10.753384
 40
0.0
 41
0.0
 10
18.4467406960393
 20
11.578616
 40
0.0
 41
0.0
 10
18.1831406960393
 20
11.578616
 40
0.117621
 41
0.0
 10
17.9478976960393
 20
11.578616
 40
0.0
 41
0.0
  0
LINE
  5
A99
102
{ACAD_REACTORS
330
119C
102
}
330
1E
100
AcDbEntity
  8
OBJECT
100
AcDbLine
 10
21.50297269603929
 20
5.035885
 30
0.0
 11
22.0314726960393
 21
5.035885
 31
0.0
  0
ARC
  5
A9A
102
{ACAD_REACTORS
330
119C
102
}
330
1E
100
AcDbEntity
  8
OBJECT
100
AcDbCircle
 10
22.0314726960393
 20
5.098385
 30
0.0
 40
0.0625
100
AcDbArc
 50
270.0
 51
0.0
  0
ARC
  5
A9B
102
{ACAD_REACTORS
330
119C
102
}
330
1E
100
AcDbEntity
  8
OBJECT
100
AcDbCircle
 10
22.0314726960393
 20
11.272385
 30
0.0
 40
0.0625
100
AcDbArc
 50
0.0
 51
90.0
  0
LINE
  5
A9C
102
{ACAD_REACTORS
330
119C
102
}
330
1E
100
AcDbEntity
  8
OBJECT
100
AcDbLine
 10
21.50297269603929
 20
11.334885
 30
0.0
 11
22.0314726960393
 21
11.334885
 31
0.0
  0
LINE
  5
A9D
102
{ACAD_REACTORS
330
119C
102
}
330
1E
100
AcDbEntity
  8
OBJECT
100
AcDbLine
 10
22.0939726960393
 20
11.272385
 30
0.0
 11
22.0939726960393
 21
5.098385
 31
0.0
  0
LINE
  5
A9E
102
{ACAD_REACTORS
330
119C
102
}
330
1E
100
AcDbEntity
  8
OBJECT
100
AcDbLine
 10
21.50297269603929
 20
5.357822
 30
0.0
 11
21.97397269603929
 21
5.357822
 31
0.0
  0
LINE
  5
A9F
102
{ACAD_REACTORS
330
119C
102
}
330
1E
100
AcDbEntity
  8
OBJECT
100
AcDbLine
 10
21.50297269603929
 20
5.185947
 30
0.0
 11
21.97397269603929
 21
5.185947
 31
0.0
  0
DIMENSION
  5
AA0
330
1E
100
AcDbEntity
  8
DIM
100
AcDbDimension
  2
*D41
 10
22.0939726960393
 20
7.956121999999999
 30
0.0
 11
23.1549101960393
 21
7.956121999999999
 31
0.0
 70
    32
  1
0.120
 71
     5
 42
0.120000000000001
  3
23NSTD
100
AcDbAlignedDimension
 13
21.9739726960393
 23
8.007603999999998
 33
0.0
 14
22.0939726960393
 24
8.007603999999998
 34
0.0
100
AcDbRotatedDimension
  0
DIMENSION
  5
AAE
330
1E
100
AcDbEntity
  8
DIM
100
AcDbDimension
  2
*D42
 10
22.0939726960393
 20
11.718189
 30
0.0
 11
23.1685820710393
 21
11.718189
 31
0.0
 70
    32
 71
     5
 42
0.5910000000000011
  3
23NSTD
100
AcDbAlignedDimension
 13
21.50297269603929
 23
11.334885
 33
0.0
 14
22.0939726960393
 24
11.272385
 34
0.0
 50
180.0
100
AcDbRotatedDimension
  0
LINE
  5
ABF
102
{ACAD_REACTORS
330
119C
102
}
330
1E
100
AcDbEntity
  8
OBJECT
100
AcDbLine
 10
21.97397269603929
 20
5.116884999999999
 30
0.0
 11
22.0939726960393
 21
5.116884999999999
 31
0.0
  0
LINE
  5
AC1
102
{ACAD_REACTORS
330
119C
102
}
330
1E
100
AcDbEntity
  8
OBJECT
100
AcDbLine
 10
21.97397269603929
 20
5.426884999999998
 30
0.0
 11
22.0939726960393
 21
5.426884999999998
 31
0.0
  0
LINE
  5
AC2
102
{ACAD_REACTORS
330
119C
102
}
330
1E
100
AcDbEntity
  8
OBJECT
100
AcDbLine
 10
21.9739726960393
 20
11.254885
 30
0.0
 11
21.9739726960393
 21
10.98488499999999
 31
0.0
  0
LINE
  5
AC3
102
{ACAD_REACTORS
330
119C
102
}
330
1E
100
AcDbEntity
  8
OBJECT
100
AcDbLine
 10
21.9739726960393
 20
10.814885
 30
0.0
 11
21.9739726960393
 21
5.555884999999999
 31
0.0
  0
LINE
  5
AC4
102
{ACAD_REACTORS
330
119C
102
}
330
1E
100
AcDbEntity
  8
OBJECT
100
AcDbLine
 10
21.50297269603929
 20
5.555884999999999
 30
0.0
 11
21.9739726960393
 21
5.555884999999999
 31
0.0
  0
LINE
  5
AC5
102
{ACAD_REACTORS
330
119C
102
}
330
1E
100
AcDbEntity
  8
OBJECT
100
AcDbLine
 10
21.50297269603929
 20
10.814885
 30
0.0
 11
21.9739726960393
 21
10.814885
 31
0.0
  0
LINE
  5
AC6
102
{ACAD_REACTORS
330
119C
102
}
330
1E
100
AcDbEntity
  8
OBJECT
100
AcDbLine
 10
21.50297269603929
 20
10.98488499999999
 30
0.0
 11
21.9739726960393
 21
10.98488499999999
 31
0.0
  0
LINE
  5
AC7
102
{ACAD_REACTORS
330
119C
102
}
330
1E
100
AcDbEntity
  8
OBJECT
100
AcDbLine
 10
21.50297269603929
 20
11.254885
 30
0.0
 11
21.9739726960393
 21
11.254885
 31
0.0
  0
LINE
  5
AC8
330
1E
100
AcDbEntity
  8
HIDDEN
100
AcDbLine
 10
18.8156366960393
 20
14.230032
 30
0.0
 11
16.0216366960393
 21
14.230032
 31
0.0
  0
LINE
  5
AC9
330
1E
100
AcDbEntity
  8
OBJECT
100
AcDbLine
 10
18.9936366960393
 20
13.759032
 30
0.0
 11
15.8436366960393
 21
13.759032
 31
0.0
  0
LINE
  5
ACA
330
1E
100
AcDbEntity
  8
OBJECT
100
AcDbLine
 10
18.9311366960393
 20
14.350032
 30
0.0
 11
15.9061366960393
 21
14.350032
 31
0.0
  0
LINE
  5
ACB
330
1E
100
AcDbEntity
  8
HIDDEN
100
AcDbLine
 10
16.1655746960393
 20
13.759032
 30
0.0
 11
16.1655746960393
 21
14.230032
 31
0.0
  0
LINE
  5
ACC
330
1E
100
AcDbEntity
  8
HIDDEN
100
AcDbLine
 10
15.9936996960393
 20
13.759032
 30
0.0
 11
15.9936996960393
 21
14.230032
 31
0.0
  0
LINE
  5
ACD
330
1E
100
AcDbEntity
  8
OBJECT
100
AcDbLine
 10
15.8436366960393
 20
13.759032
 30
0.0
 11
15.8436366960393
 21
14.287532
 31
0.0
  0
ARC
  5
AD1
330
1E
100
AcDbEntity
  8
OBJECT
100
AcDbCircle
 10
15.9061366960393
 20
14.287532
 30
0.0
 40
0.0625
100
AcDbArc
 50
90.0
 51
180.0
  0
LINE
  5
AD5
330
1E
100
AcDbEntity
  8
HIDDEN
  6
HIDDEN2
100
AcDbLine
 10
15.9816366960393
 20
13.874032
 30
0.0
 11
15.9016366960393
 21
13.874032
 31
0.0
  0
LINE
  5
AD6
330
1E
100
AcDbEntity
  8
HIDDEN
  6
HIDDEN2
100
AcDbLine
 10
15.9016366960393
 20
13.759032
 30
0.0
 11
15.9016366960393
 21
13.874032
 31
0.0
  0
LINE
  5
AD7
330
1E
100
AcDbEntity
  8
HIDDEN
100
AcDbLine
 10
16.0216366960393
 20
13.759032
 30
0.0
 11
16.0216366960393
 21
14.230032
 31
0.0
  0
LINE
  5
AD8
330
1E
100
AcDbEntity
  8
HIDDEN
100
AcDbLine
 10
16.5488866960393
 20
13.759032
 30
0.0
 11
16.5488866960393
 21
14.230032
 31
0.0
  0
LINE
  5
AD9
330
1E
100
AcDbEntity
  8
HIDDEN
100
AcDbLine
 10
16.7188866960393
 20
13.759032
 30
0.0
 11
16.7188866960393
 21
14.230032
 31
0.0
  0
LINE
  5
ADA
330
1E
100
AcDbEntity
  8
HIDDEN
  6
HIDDEN2
100
AcDbLine
 10
16.6788866960393
 20
13.759032
 30
0.0
 11
16.6788866960393
 21
13.874032
 31
0.0
  0
LINE
  5
ADB
330
1E
100
AcDbEntity
  8
HIDDEN
  6
HIDDEN2
100
AcDbLine
 10
16.5988866960393
 20
13.759032
 30
0.0
 11
16.5988866960393
 21
13.874032
 31
0.0
  0
LINE
  5
ADC
330
1E
100
AcDbEntity
  8
HIDDEN
  6
HIDDEN2
100
AcDbLine
 10
15.9816366960393
 20
13.759032
 30
0.0
 11
15.9816366960393
 21
13.874032
 31
0.0
  0
LINE
  5
ADD
330
1E
100
AcDbEntity
  8
HIDDEN
  6
HIDDEN2
100
AcDbLine
 10
16.6788866960393
 20
13.874032
 30
0.0
 11
16.5988866960393
 21
13.874032
 31
0.0
  0
LINE
  5
ADE
330
1E
100
AcDbEntity
  8
HIDDEN
100
AcDbLine
 10
18.8435746960393
 20
13.759032
 30
0.0
 11
18.8435746960393
 21
14.230032
 31
0.0
  0
LINE
  5
ADF
330
1E
100
AcDbEntity
  8
HIDDEN
100
AcDbLine
 10
18.6716996960393
 20
13.759032
 30
0.0
 11
18.6716996960393
 21
14.230032
 31
0.0
  0
LINE
  5
AE0
330
1E
100
AcDbEntity
  8
OBJECT
100
AcDbLine
 10
18.9936366960393
 20
13.759032
 30
0.0
 11
18.9936366960393
 21
14.287532
 31
0.0
  0
ARC
  5
AE7
330
1E
100
AcDbEntity
  8
OBJECT
100
AcDbCircle
 10
18.9311366960393
 20
14.287532
 30
0.0
 40
0.0625
100
AcDbArc
 50
0.0
 51
90.0
  0
LINE
  5
AE8
330
1E
100
AcDbEntity
  8
HIDDEN
  6
HIDDEN2
100
AcDbLine
 10
18.8556366960393
 20
13.759032
 30
0.0
 11
18.8556366960393
 21
13.874032
 31
0.0
  0
LINE
  5
AE9
330
1E
100
AcDbEntity
  8
HIDDEN
  6
HIDDEN2
100
AcDbLine
 10
18.9356366960393
 20
13.759032
 30
0.0
 11
18.9356366960393
 21
13.874032
 31
0.0
  0
LINE
  5
AEA
330
1E
100
AcDbEntity
  8
HIDDEN
  6
HIDDEN2
100
AcDbLine
 10
18.8556366960393
 20
13.874032
 30
0.0
 11
18.9356366960393
 21
13.874032
 31
0.0
  0
LINE
  5
AEB
330
1E
100
AcDbEntity
  8
HIDDEN
100
AcDbLine
 10
16.2319126960393
 20
13.759032
 30
0.0
 11
16.2319126960393
 21
14.230032
 31
0.0
  0
LINE
  5
AEC
330
1E
100
AcDbEntity
  8
HIDDEN
100
AcDbLine
 10
18.2883866960393
 20
13.759032
 30
0.0
 11
18.2883866960393
 21
14.230032
 31
0.0
  0
LINE
  5
AED
330
1E
100
AcDbEntity
  8
HIDDEN
100
AcDbLine
 10
18.1183866960393
 20
13.759032
 30
0.0
 11
18.1183866960393
 21
14.230032
 31
0.0
  0
LINE
  5
AEE
330
1E
100
AcDbEntity
  8
HIDDEN
  6
HIDDEN2
100
AcDbLine
 10
18.1583866960393
 20
13.759032
 30
0.0
 11
18.1583866960393
 21
13.874032
 31
0.0
  0
LINE
  5
AEF
330
1E
100
AcDbEntity
  8
HIDDEN
  6
HIDDEN2
100
AcDbLine
 10
18.2383866960393
 20
13.759032
 30
0.0
 11
18.2383866960393
 21
13.874032
 31
0.0
  0
LINE
  5
AF0
330
1E
100
AcDbEntity
  8
HIDDEN
  6
HIDDEN2
100
AcDbLine
 10
18.1583866960393
 20
13.874032
 30
0.0
 11
18.2383866960393
 21
13.874032
 31
0.0
  0
LINE
  5
AF1
330
1E
100
AcDbEntity
  8
HIDDEN
100
AcDbLine
 10
18.6053606960393
 20
13.759032
 30
0.0
 11
18.6053606960393
 21
14.230032
 31
0.0
  0
LINE
  5
AF2
330
1E
100
AcDbEntity
  8
HIDDEN
100
AcDbLine
 10
18.8156366960393
 20
13.759032
 30
0.0
 11
18.8156366960393
 21
14.230032
 31
0.0
  0
DIMENSION
  5
B03
330
1E
100
AcDbEntity
  8
DIM
100
AcDbDimension
  2
*D43
 10
25.35520540631284
 20
13.02144613904042
 30
0.0
 11
24.29426790631284
 21
13.02144613904042
 31
0.0
 70
    32
 71
     5
 42
0.120000000000001
  3
23NSTD4
100
AcDbAlignedDimension
 13
25.83520540631284
 23
13.68059099999999
 33
0.0
 14
25.35520540631284
 24
13.75459099999999
 34
0.0
100
AcDbRotatedDimension
  0
DIMENSION
  5
B52
330
1E
100
AcDbEntity
  8
DIM
100
AcDbDimension
  2
*D44
 10
26.60581040631284
 20
14.98705199999999
 30
0.0
 11
26.60581040631284
 21
14.367052
 31
0.0
 70
    32
  1
<> DIA.\PC'BORE
 71
     5
 42
0.31
  3
23NSTD4I
100
AcDbAlignedDimension
 13
25.83070040631284
 23
13.74705199999999
 33
0.0
 14
25.83070040631284
 24
14.98705199999999
 34
0.0
 50
90.0
100
AcDbRotatedDimension
  0
DIMENSION
  5
B60
330
1E
100
AcDbEntity
  8
DIM
100
AcDbDimension
  2
*D45
 10
22.63975440631284
 20
15.164776
 30
0.0
 11
22.63975440631284
 21
15.324776
 31
0.0
 70
    32
 71
     5
 42
0.0799999999999996
  3
23NSTD4I
100
AcDbAlignedDimension
 13
23.47120540631284
 23
15.484776
 33
0.0
 14
23.47120540631284
 24
15.164776
 34
0.0
 50
90.0
100
AcDbRotatedDimension
  0
DIMENSION
  5
B6E
330
1E
100
AcDbEntity
  8
DIM
100
AcDbDimension
  2
*D46
 10
23.93120540631284
 20
16.68997530822288
 30
0.0
 11
24.97847103131284
 21
16.68997530822288
 31
0.0
 70
    32
 71
     5
 42
0.1150000000000002
  3
23NSTD4
100
AcDbAlignedDimension
 13
23.47120540631284
 23
16.27278830822288
 33
0.0
 14
23.93120540631284
 24
15.484776
 34
0.0
100
AcDbRotatedDimension
  0
DIMENSION
  5
B7C
330
1E
100
AcDbEntity
  8
DIM
100
AcDbDimension
  2
*D47
 10
21.98512840631284
 20
14.030841
 30
0.0
 11
21.98512840631284
 21
14.374591
 31
0.0
 70
    32
  1
<> DIA.
 71
     5
 42
0.171875
  3
23NSTD4I
100
AcDbAlignedDimension
 13
23.47028540631284
 23
14.718341
 33
0.0
 14
23.47028540631284
 24
14.030841
 34
0.0
 50
90.0
100
AcDbRotatedDimension
  0
LINE
  5
B91
102
{ACAD_REACTORS
330
1263
102
}
330
1E
100
AcDbEntity
  8
OBJECT
100
AcDbLine
 10
23.47120540631284
 20
15.650766
 30
0.0
 11
25.43520540631284
 21
15.650766
 31
0.0
  0
LINE
  5
B92
102
{ACAD_REACTORS
330
1263
102
}
330
1E
100
AcDbEntity
  8
OBJECT
100
AcDbLine
 10
23.47120540631284
 20
13.430591
 30
0.0
 11
25.58520540631284
 21
13.430591
 31
0.0
  0
LINE
  5
B93
102
{ACAD_REACTORS
330
1263
102
}
330
1E
100
AcDbEntity
  8
OBJECT
100
AcDbLine
 10
23.47120540631284
 20
14.718341
 30
0.0
 11
25.35520540631284
 21
14.718341
 31
0.0
  0
LINE
  5
B94
102
{ACAD_REACTORS
330
1263
102
}
330
1E
100
AcDbEntity
  8
OBJECT
100
AcDbLine
 10
23.47120540631284
 20
14.030841
 30
0.0
 11
25.35520540631284
 21
14.030841
 31
0.0
  0
LINE
  5
B95
102
{ACAD_REACTORS
330
1106
330
1263
102
}
330
1E
100
AcDbEntity
  8
OBJECT
100
AcDbLine
 10
23.47120540631284
 20
13.430591
 30
0.0
 11
23.47120540631284
 21
16.27278830822288
 31
0.0
  0
LINE
  5
B96
102
{ACAD_REACTORS
330
1263
102
}
330
1E
100
AcDbEntity
  8
OBJECT
100
AcDbLine
 10
25.43520540631284
 20
15.650766
 30
0.0
 11
25.43520540631284
 21
16.28784690754948
 31
0.0
  0
LINE
  5
B97
102
{ACAD_REACTORS
330
1263
102
}
330
1E
100
AcDbEntity
  8
OBJECT
100
AcDbLine
 10
25.83520540631284
 20
13.68059099999999
 30
0.0
 11
25.83520540631284
 21
16.19843030822288
 31
0.0
  0
LINE
  5
B9C
102
{ACAD_REACTORS
330
1263
102
}
330
1E
100
AcDbEntity
  8
OBJECT
100
AcDbLine
 10
25.35520540631284
 20
13.75459099999999
 30
0.0
 11
25.83520540631284
 21
13.754591
 31
0.0
  0
ARC
  5
B9D
102
{ACAD_REACTORS
330
1263
102
}
330
1E
100
AcDbEntity
  8
OBJECT
100
AcDbCircle
 10
25.58520540631284
 20
13.68059099999999
 30
0.0
 40
0.25
100
AcDbArc
 50
270.0
 51
0.0
  0
LINE
  5
B9E
102
{ACAD_REACTORS
330
1263
102
}
330
1E
100
AcDbEntity
  8
OBJECT
100
AcDbLine
 10
25.35520540631285
 20
14.994591
 30
0.0
 11
25.83520540631284
 21
14.994591
 31
0.0
  0
LINE
  5
BBB
102
{ACAD_REACTORS
330
10F5
330
10FC
330
119C
102
}
330
1E
100
AcDbEntity
  8
OBJECT
100
AcDbLine
 10
21.50297269603929
 20
11.334885
 30
0.0
 11
21.50297269603929
 21
5.035885
 31
0.0
  0
LWPOLYLINE
  5
BBD
102
{ACAD_REACTORS
330
1106
330
1263
102
}
330
1E
100
AcDbEntity
  8
OBJECT
100
AcDbPolyline
 90
        3
 70
     0
 43
0.0
 10
23.93120540631284
 20
15.484776
 10
23.93120540631284
 20
15.164776
 10
23.47120540631284
 20
15.164776
  0
LWPOLYLINE
  5
BC2
102
{ACAD_REACTORS
330
1106
330
1263
102
}
330
1E
100
AcDbEntity
  8
OBJECT
100
AcDbPolyline
 90
        2
 70
     0
 43
0.0
 10
23.47120540631284
 20
15.484776
 10
23.93120540631284
 20
15.484776
  0
LWPOLYLINE
  5
BC7
102
{ACAD_REACTORS
330
10FC
330
119C
102
}
330
1E
100
AcDbEntity
  8
OBJECT
100
AcDbPolyline
 90
        3
 70
     0
 43
0.0
 10
21.6179726960393
 20
10.939205
 10
21.6179726960393
 20
10.859205
 10
21.50297269603929
 20
10.859205
  0
LWPOLYLINE
  5
BCC
102
{ACAD_REACTORS
330
10FC
330
119C
102
}
330
1E
100
AcDbEntity
  8
OBJECT
100
AcDbPolyline
 90
        2
 70
     0
 43
0.0
 10
21.50297269603929
 20
10.939205
 10
21.6179726960393
 20
10.939205
  0
LWPOLYLINE
  5
BD0
102
{ACAD_REACTORS
330
10F5
330
119C
102
}
330
1E
100
AcDbEntity
  8
OBJECT
100
AcDbPolyline
 90
        3
 70
     0
 43
0.0
 10
21.6179726960393
 20
5.520205
 10
21.6179726960393
 20
5.440205
 10
21.50297269603929
 20
5.440205
  0
LWPOLYLINE
  5
BD5
102
{ACAD_REACTORS
330
10F5
330
119C
102
}
330
1E
100
AcDbEntity
  8
OBJECT
100
AcDbPolyline
 90
        2
 70
     0
 43
0.0
 10
21.50297269603929
 20
5.520205
 10
21.6179726960393
 20
5.520205
  0
LWPOLYLINE
  5
BD9
102
{ACAD_REACTORS
330
10EF
102
}
330
1E
100
AcDbEntity
  8
OBJECT
100
AcDbPolyline
 90
       24
 70
     1
 43
0.0
 10
16.7568866960393
 20
11.276885
 42
0.4142140000000001
 10
16.5988866960393
 20
11.118885
 10
16.5988866960393
 20
11.090822
 42
-0.4142140000000001
 10
16.44294969603929
 20
10.934885
 10
16.0598866960393
 20
10.934885
 42
0.4142140000000001
 10
15.9018866960393
 20
10.776885
 10
15.9018866960393
 20
5.593885
 42
0.4142140000000001
 10
16.0598866960393
 20
5.435884999999999
 10
16.44294969603929
 20
5.435884999999999
 42
-0.4142140000000001
 10
16.5988866960393
 20
5.279946999999999
 10
16.5988866960393
 20
5.251884999999999
 42
0.4142140000000001
 10
16.7568866960393
 20
5.093885
 10
18.0803866960393
 20
5.093885
 42
0.4142140000000001
 10
18.2383866960393
 20
5.251884999999999
 10
18.2383866960393
 20
5.279946999999999
 42
-0.4142140000000001
 10
18.3943246960393
 20
5.435884999999999
 10
18.7776366960393
 20
5.435884999999999
 42
0.4142140000000001
 10
18.9356366960393
 20
5.593885
 10
18.9356366960393
 20
10.776885
 42
0.4142140000000001
 10
18.7776366960393
 20
10.934885
 10
18.3943246960393
 20
10.934885
 42
-0.4142140000000001
 10
18.2383866960393
 20
11.090822
 10
18.2383866960393
 20
11.118885
 42
0.4142140000000001
 10
18.0803866960393
 20
11.276885
  0
LWPOLYLINE
  5
BF3
102
{ACAD_REACTORS
330
10EF
102
}
330
1E
100
AcDbEntity
  8
OBJECT
100
AcDbPolyline
 90
       24
 70
     1
 43
0.0
 10
18.8556366960393
 20
5.593885
 42
-0.4142140000000001
 10
18.7776366960393
 20
5.515884999999999
 10
18.3943246960393
 20
5.515884999999999
 42
0.4142140000000001
 10
18.1583866960393
 20
5.279946999999999
 10
18.1583866960393
 20
5.251884999999999
 42
-0.4142140000000001
 10
18.0803866960393
 20
5.173885
 10
16.7568866960393
 20
5.173885
 42
-0.4142140000000001
 10
16.6788866960393
 20
5.251884999999999
 10
16.6788866960393
 20
5.279946999999999
 42
0.4142140000000001
 10
16.44294969603929
 20
5.515884999999999
 10
16.0598866960393
 20
5.515884999999999
 42
-0.4142140000000001
 10
15.9818866960393
 20
5.593885
 10
15.9818866960393
 20
10.776885
 42
-0.4142140000000001
 10
16.0598866960393
 20
10.854885
 10
16.44294969603929
 20
10.854885
 42
0.4142140000000001
 10
16.6788866960393
 20
11.090822
 10
16.6788866960393
 20
11.118885
 42
-0.4142140000000001
 10
16.7568866960393
 20
11.196885
 10
18.0803866960393
 20
11.196885
 42
-0.4142140000000001
 10
18.1583866960393
 20
11.118885
 10
18.1583866960393
 20
11.090822
 42
0.4142140000000001
 10
18.3943246960393
 20
10.854885
 10
18.7776366960393
 20
10.854885
 42
-0.4142140000000001
 10
18.8556366960393
 20
10.776885
  0
TEXT
  5
C25
330
1E
100
AcDbEntity
  8
TEXT
100
AcDbText
 10
15.88969730937176
 20
17.48580391666666
 30
0.0
 40
0.273437
  1
PN-1332, PN-1332-C AND PN-1332-DG
 41
0.75
 72
     4
 11
19.08549224687176
 21
17.599736
 31
0.0
100
AcDbText
  0
LINE
  5
C26
330
1E
100
AcDbEntity
  8
TITLE
100
AcDbLine
 10
25.44150300826901
 20
1.928498000031002
 30
0.0
 11
25.44150300826901
 21
0.108500000031002
 31
0.0
  0
LINE
  5
C27
330
1E
100
AcDbEntity
  8
TITLE
100
AcDbLine
 10
21.94150600826901
 20
1.928498000031002
 30
0.0
 11
21.94150600826901
 21
0.108500000031002
 31
0.0
  0
LINE
  5
C28
330
1E
100
AcDbEntity
  8
TITLE
100
AcDbLine
 10
18.44150800826901
 20
1.928498000031002
 30
0.0
 11
18.44150800826901
 21
0.108500000031002
 31
0.0
  0
LINE
  5
C29
330
1E
100
AcDbEntity
  8
TITLE
100
AcDbLine
 10
14.94151100826901
 20
1.928498000031002
 30
0.0
 11
14.94151100826901
 21
0.108500000031002
 31
0.0
  0
LINE
  5
C2A
330
1E
100
AcDbEntity
  8
TITLE
100
AcDbLine
 10
23.69150400826901
 20
0.8364990000310021
 30
0.0
 11
23.69150400826901
 21
0.472499000031002
 31
0.0
  0
LINE
  5
C2C
330
1E
100
AcDbEntity
  8
TITLE
100
AcDbLine
 10
14.94151100826901
 20
0.472499000031002
 30
0.0
 11
25.44150300826901
 21
0.472499000031002
 31
0.0
  0
LINE
  5
C2D
330
1E
100
AcDbEntity
  8
TITLE
100
AcDbLine
 10
14.94151100826901
 20
0.8364990000310021
 30
0.0
 11
25.44150300826901
 21
0.8364990000310021
 31
0.0
  0
LINE
  5
C2E
330
1E
100
AcDbEntity
  8
TITLE
100
AcDbLine
 10
14.94151100826901
 20
1.200499000031002
 30
0.0
 11
28.94150000826902
 21
1.200499000031002
 31
0.0
  0
LINE
  5
C2F
330
1E
100
AcDbEntity
  8
TITLE
100
AcDbLine
 10
14.94151100826901
 20
1.928498000031002
 30
0.0
 11
28.94150000826902
 21
1.928498000031002
 31
0.0
  0
TEXT
  5
C30
330
1E
100
AcDbEntity
  8
TEXT
100
AcDbText
 10
15.81651000826902
 20
1.455124000031002
 30
0.0
 40
0.21875
  1
PART NUMBER
 41
0.75
 72
     4
 11
16.69151000826902
 21
1.564499000031002
 31
0.0
100
AcDbText
  0
TEXT
  5
C32
330
1E
100
AcDbEntity
  8
TEXT
100
AcDbText
 10
16.17197875826902
 20
0.9079570000310019
 30
0.0
 40
0.21875
  1
PN-1332
 41
0.75
 72
     4
 11
16.69151000826902
 21
1.017332000031001
 31
0.0
100
AcDbText
  0
TEXT
  5
C33
330
1E
100
AcDbEntity
  8
TEXT
100
AcDbText
 10
16.00791625826902
 20
0.5433740000310019
 30
0.0
 40
0.21875
  1
PN-1332-C
 41
0.75
 72
     4
 11
16.69151000826902
 21
0.652749000031002
 31
0.0
100
AcDbText
  0
TEXT
  5
C34
330
1E
100
AcDbEntity
  8
TEXT
100
AcDbText
 10
15.92588500826902
 20
0.178791000031002
 30
0.0
 40
0.21875
  1
PN-1332-DG
 41
0.75
 72
     4
 11
16.69151000826902
 21
0.2881660000310021
 31
0.0
100
AcDbText
  0
TEXT
  5
C35
330
1E
100
AcDbEntity
  8
TEXT
100
AcDbText
 10
26.23446975826901
 20
1.455124000031002
 30
0.0
 40
0.21875
  1
HARDWARE KIT
 41
0.75
 72
     4
 11
27.19150100826901
 21
1.564499000031002
 31
0.0
100
AcDbText
  0
TEXT
  5
C37
330
1E
100
AcDbEntity
  8
TEXT
100
AcDbText
 10
19.58994450826901
 20
1.637123000031001
 30
0.0
 40
0.21875
  1
MATERIAL
 41
0.75
 72
     4
 11
20.19150700826901
 21
1.746498000031001
 31
0.0
100
AcDbText
  0
TEXT
  5
C38
330
1E
100
AcDbEntity
  8
TEXT
100
AcDbText
 10
23.28134775826901
 20
1.637123000031001
 30
0.0
 40
0.21875
  1
FINISH
 41
0.75
 72
     4
 11
23.69150400826901
 21
1.746498000031001
 31
0.0
100
AcDbText
  0
TEXT
  5
C39
330
1E
100
AcDbEntity
  8
TEXT
100
AcDbText
 10
22.51572375826901
 20
1.273124000031002
 30
0.0
 40
0.21875
  1
BODY
 41
0.75
 72
     4
 11
22.81650500826901
 21
1.382499000031002
 31
0.0
100
AcDbText
  0
TEXT
  5
C3A
330
1E
100
AcDbEntity
  8
TEXT
100
AcDbText
 10
19.15244450826901
 20
0.9085410000310019
 30
0.0
 40
0.21875
  1
POLYCARBONATE
 41
0.75
 72
     4
 11
20.19150700826901
 21
1.017916000031001
 31
0.0
100
AcDbText
  0
TEXT
  5
C3B
330
1E
100
AcDbEntity
  8
TEXT
100
AcDbText
 10
19.15244450826901
 20
0.5439580000310022
 30
0.0
 40
0.21875
  1
POLYCARBONATE
 41
0.75
 72
     4
 11
20.19150700826901
 21
0.6533330000310022
 31
0.0
100
AcDbText
  0
TEXT
  5
C3C
330
1E
100
AcDbEntity
  8
TEXT
100
AcDbText
 10
19.04306950826901
 20
0.1793750000310023
 30
0.0
 40
0.21875
  1
HIGH-IMPACT ABS
 41
0.75
 72
     4
 11
20.19150700826901
 21
0.2887500000310022
 31
0.0
100
AcDbText
  0
TEXT
  5
C3D
330
1E
100
AcDbEntity
  8
TEXT
100
AcDbText
 10
24.15634675826901
 20
1.273124000031002
 30
0.0
 40
0.21875
  1
COVER
 41
0.75
 72
     4
 11
24.56650300826901
 21
1.382499000031002
 31
0.0
100
AcDbText
  0
TEXT
  5
C3E
330
1E
100
AcDbEntity
  8
TEXT
100
AcDbText
 10
20.65634975826901
 20
1.273124000031002
 30
0.0
 40
0.21875
  1
COVER
 41
0.75
 72
     4
 11
21.06650600826901
 21
1.382499000031002
 31
0.0
100
AcDbText
  0
TEXT
  5
C3F
330
1E
100
AcDbEntity
  8
TEXT
100
AcDbText
 10
19.01572675826901
 20
1.273124000031002
 30
0.0
 40
0.21875
  1
BODY
 41
0.75
 72
     4
 11
19.31650800826901
 21
1.382499000031002
 31
0.0
100
AcDbText
  0
TEXT
  5
C40
330
1E
100
AcDbEntity
  8
TEXT
100
AcDbText
 10
22.92587900826901
 20
0.9085410000310019
 30
0.0
 40
0.21875
  1
LIGHT GRAY
 41
0.75
 72
     4
 11
23.69150400826901
 21
1.017916000031001
 31
0.0
100
AcDbText
  0
TEXT
  5
C41
330
1E
100
AcDbEntity
  8
TEXT
100
AcDbText
 10
22.05088000826901
 20
0.5439580000310023
 30
0.0
 40
0.21875
  1
LIGHT GRAY
 41
0.75
 72
     4
 11
22.81650500826901
 21
0.6533330000310022
 31
0.0
100
AcDbText
  0
TEXT
  5
C42
330
1E
100
AcDbEntity
  8
TEXT
100
AcDbText
 10
22.98056650826902
 20
0.1793750000310023
 30
0.0
 40
0.21875
  1
DARK GRAY
 41
0.75
 72
     4
 11
23.69150400826901
 21
0.2887500000310022
 31
0.0
100
AcDbText
  0
TEXT
  5
C43
330
1E
100
AcDbEntity
  8
TEXT
100
AcDbText
 10
24.18369050826902
 20
0.5439580000310022
 30
0.0
 40
0.21875
  1
CLEAR
 41
0.75
 72
     4
 11
24.56650300826901
 21
0.6533330000310022
 31
0.0
100
AcDbText
  0
LINE
  5
C44
330
1E
100
AcDbEntity
  8
TITLE
100
AcDbLine
 10
23.69150400826901
 20
1.564499000031002
 30
0.0
 11
23.69150400826901
 21
1.200499000031002
 31
0.0
  0
LINE
  5
C45
330
1E
100
AcDbEntity
  8
TITLE
100
AcDbLine
 10
18.44150800826901
 20
1.564499000031002
 30
0.0
 11
25.44150300826901
 21
1.564499000031002
 31
0.0
  0
LINE
  5
C46
330
1E
100
AcDbEntity
  8
TITLE
100
AcDbLine
 10
20.19150700826901
 20
1.564499000031002
 30
0.0
 11
20.19150700826901
 21
1.200499000031002
 31
0.0
  0
TEXT
  5
C47
330
1E
100
AcDbEntity
  8
TEXT
100
AcDbText
 10
26.01571975826901
 20
0.9085410000310019
 30
0.0
 40
0.21875
  1
KIT CONTAINS (4)
 41
0.75
 72
     4
 11
27.19150100826901
 21
1.017916000031001
 31
0.0
100
AcDbText
  0
TEXT
  5
C48
330
1E
100
AcDbEntity
  8
TEXT
100
AcDbText
 10
25.63290725826901
 20
0.5439580000310022
 30
0.0
 40
0.21875
  1
M4 x 20mm (0.787") LG.
 41
0.75
 72
     4
 11
27.19150100826901
 21
0.6533330000310022
 31
0.0
100
AcDbText
  0
TEXT
  5
C49
330
1E
100
AcDbEntity
  8
TEXT
100
AcDbText
 10
25.63290725826901
 20
0.1793750000310023
 30
0.0
 40
0.21875
  1
SCREWS FOR ASSEMBLY
 41
0.75
 72
     4
 11
27.19150100826901
 21
0.2887500000310022
 31
0.0
100
AcDbText
  0
TEXT
  5
C4A
330
1E
100
AcDbEntity
  8
TEXT
100
AcDbText
 10
14.94151100826901
 20
2.108748000031002
 30
0.0
 40
0.21875
  1
%%UNOTE%%U:  ALL DIMENSIONS HAVE %%P0.015 TOLERANCE UNLESS OTHERWISE SPECIFIED.
 41
0.75
100
AcDbText
  0
TEXT
  5
C4F
330
1E
100
AcDbEntity
  8
TEXT
100
AcDbText
 10
0.4686510000000001
 20
16.25916
 30
0.0
 40
0.21875
  1
 %%UPOLYCARBONATE%%U (LIGHT GRAY AND CLEAR)
 41
0.75
100
AcDbText
  0
TEXT
  5
C50
330
1E
100
AcDbEntity
  8
TEXT
100
AcDbText
 10
0.4686510000000001
 20
14.79966099999999
 30
0.0
 40
0.21875
  1
 %%UABS%%U (DARK GRAY)
 41
0.75
100
AcDbText
  0
TEXT
  5
C51
330
1E
100
AcDbEntity
  8
TEXT
100
AcDbText
 10
0.4686510000000001
 20
14.069912
 30
0.0
 40
0.21875
  1
  SERVICE TEMPERATURE RANGE:  -40%%DC TO +80%%DC
 41
0.75
100
AcDbText
  0
TEXT
  5
C52
330
1E
100
AcDbEntity
  8
TEXT
100
AcDbText
 10
0.4686510000000001
 20
14.435078
 30
0.0
 40
0.21875
  1
  UL94-HB FLAMMABILITY RATING (UL FILE #E56070)
 41
0.75
100
AcDbText
  0
TEXT
  5
C53
330
1E
100
AcDbEntity
  8
TEXT
100
AcDbText
 10
0.4686510000000001
 20
16.623743
 30
0.0
 40
0.273437
  1
INDUSTRY STANDARDS:
 41
0.75
100
AcDbText
  0
TEXT
  5
C54
330
1E
100
AcDbEntity
  8
TEXT
100
AcDbText
 10
0.4686510000000001
 20
15.164828
 30
0.0
 40
0.21875
  1
  SERVICE TEMPERATURE RANGE:  -40%%DC TO +120%%DC
 41
0.75
100
AcDbText
  0
TEXT
  5
C55
330
1E
100
AcDbEntity
  8
TEXT
100
AcDbText
 10
0.4686510000000001
 20
15.52941099999999
 30
0.0
 40
0.21875
  1
  UV STABILIZED
 41
0.75
100
AcDbText
  0
TEXT
  5
C56
330
1E
100
AcDbEntity
  8
TEXT
100
AcDbText
 10
0.4686510000000001
 20
15.89457699999999
 30
0.0
 40
0.21875
  1
  UL94-HB FLAMMABILITY RATING (UL FILE #E41613)
 41
0.75
100
AcDbText
  0
INSERT
  5
105C
330
1E
100
AcDbEntity
  8
TEXT
100
AcDbBlockReference
  2
HBS
 10
0.0
 20
0.0
 30
0.0
 41
1.7500000005
 42
1.7500000005
 43
1.7500000005
  0
TEXT
  5
105D
330
1E
100
AcDbEntity
  8
TEXT
100
AcDbText
 10
5.12651562646473
 20
17.46303125498944
 30
0.0
 40
0.273437500078125
  1
NEMA 4X ENCLOSURE
 41
0.75
 72
     4
 11
6.83550000195301
 21
17.5997500050285
 31
0.0
100
AcDbText
  0
TEXT
  5
105F
330
1E
100
AcDbEntity
  8
TEXT
100
AcDbText
 10
26.76473834281584
 20
17.46303125498945
 30
0.0
 40
0.273437500078125
  1
11-17-08
 41
0.75
 72
     4
 11
27.43124224925627
 21
17.59975000502851
 31
0.0
100
AcDbText
  0
HATCH
  5
106D
330
1E
100
AcDbEntity
  8
OBJECT
 62
   221
100
AcDbHatch
 10
0.0
 20
0.0
 30
0.0
210
0.0
220
0.0
230
1.0
  2
ANSI32
 70
     0
 71
     0
 91
        2
 92
        7
 72
     0
 73
     1
 93
        4
 10
11.42054971027352
 20
10.63938499999999
 10
11.42054971027353
 20
10.670635
 10
11.20254971027353
 20
10.670635
 10
11.20254971027353
 20
10.63938499999999
 97
        0
 92
        7
 72
     0
 73
     1
 93
        4
 10
11.42054971027353
 20
10.483135
 10
11.42054971027353
 20
10.514385
 10
11.20254971027353
 20
10.514385
 10
11.20254971027353
 20
10.483135
 97
        0
 75
     0
 76
     1
 52
89.99998127603165
 41
0.25
 77
     0
 78
     2
 53
134.9999812760316
 43
0.5033427102735289
 44
0.0
 45
-0.066291282399881
 46
-0.0662912390725896
 79
     0
 53
134.9999812760316
 43
0.5033427247159593
 44
0.0441941737499977
 45
-0.066291282399881
 46
-0.0662912390725896
 79
     0
 47
0.0016770723866105
 98
        2
 10
11.30368836225072
 20
10.65236494639558
 10
11.29193937326303
 20
10.48968893155395
  0
HATCH
  5
1077
330
1E
100
AcDbEntity
  8
OBJECT
 62
   221
100
AcDbHatch
 10
0.0
 20
0.0
 30
0.0
210
0.0
220
0.0
230
1.0
  2
ANSI32
 70
     0
 71
     1
 91
        2
 92
        7
 72
     0
 73
     1
 93
        4
 10
9.957549710273529
 20
5.394635
 10
9.957549710273527
 20
5.332135
 10
10.27254971027353
 20
5.332135
 10
10.27254971027353
 20
5.394635
 97
        4
330
8A7
330
895
330
8A6
330
8A0
 92
        7
 72
     0
 73
     1
 93
        4
 10
10.27254971027353
 20
5.144635
 10
10.27254971027353
 20
5.207135
 10
9.95754971027353
 20
5.207135000000001
 10
9.957549710273529
 20
5.144635
 97
        4
330
8A4
330
895
330
8A3
330
8A0
 75
     0
 76
     1
 52
89.99998127603165
 41
0.25
 77
     0
 78
     2
 53
134.9999812760316
 43
0.5033427102735289
 44
0.0
 45
-0.066291282399881
 46
-0.0662912390725896
 79
     0
 53
134.9999812760316
 43
0.5033427247159593
 44
0.0441941737499977
 45
-0.066291282399881
 46
-0.0662912390725896
 79
     0
 47
0.0014606759590714
 98
        2
 10
10.06387119328014
 20
5.376565531575536
 10
10.01416809257867
 20
5.167688850766822
  0
HATCH
  5
10EF
330
1E
100
AcDbEntity
  8
OBJECT
 62
   221
100
AcDbHatch
 10
0.0
 20
0.0
 30
0.0
210
0.0
220
0.0
230
1.0
  2
ZIGZAG
 70
     0
 71
     1
 91
        2
 92
        1
 93
       24
 72
     2
 10
16.75688657800142
 20
11.11888511803788
 40
0.1579998819621654
 50
89.99995719571334
 51
180.0000428042866
 73
     1
 72
     1
 10
16.5988866960393
 20
11.118885
 11
16.5988866960393
 21
11.090822
 72
     2
 10
16.44294981253596
 20
11.09082188350333
 40
0.1559368835033803
 50
359.9999571957136
 51
450.0000428042876
 73
     0
 72
     1
 10
16.44294969603929
 20
10.934885
 11
16.0598866960393
 21
10.934885
 72
     2
 10
16.05988657800142
 20
10.77688511803787
 40
0.1579998819621654
 50
89.99995719571334
 51
180.0000428042873
 73
     1
 72
     1
 10
15.9018866960393
 20
10.776885
 11
15.9018866960393
 21
5.593885
 72
     2
 10
16.05988657800142
 20
5.59388488196212
 40
0.1579998819621654
 50
179.9999571957126
 51
270.0000428042867
 73
     1
 72
     1
 10
16.0598866960393
 20
5.435884999999999
 11
16.44294969603929
 21
5.435884999999999
 72
     2
 10
16.44294931253671
 20
5.279947616496661
 40
0.1559373835038098
 50
270.0001409096345
 51
360.0002265182088
 73
     0
 72
     1
 10
16.5988866960393
 20
5.279946999999999
 11
16.5988866960393
 21
5.251884999999999
 72
     2
 10
16.75688657800142
 20
5.251884881962121
 40
0.1579998819621672
 50
179.9999571957133
 51
270.0000428042867
 73
     1
 72
     1
 10
16.7568866960393
 20
5.093885
 11
18.0803866960393
 21
5.093885
 72
     2
 10
18.08038681407717
 20
5.251884881962121
 40
0.1579998819621654
 50
269.9999571957133
 51
360.0000428042867
 73
     1
 72
     1
 10
18.2383866960393
 20
5.251884999999999
 11
18.2383866960393
 21
5.279946999999999
 72
     2
 10
18.39432457954189
 20
5.27994711649741
 40
0.1559378835026317
 50
179.9999571957127
 51
270.0000428042872
 73
     0
 72
     1
 10
18.3943246960393
 20
5.435884999999999
 11
18.7776366960393
 21
5.435884999999999
 72
     2
 10
18.77763681407718
 20
5.593884881962122
 40
0.1579998819621663
 50
269.9999571957133
 51
360.0000428042867
 73
     1
 72
     1
 10
18.9356366960393
 20
5.593885
 11
18.9356366960393
 21
10.776885
 72
     2
 10
18.77763681407718
 20
10.77688511803787
 40
0.1579998819621672
 50
359.9999571957133
 51
450.0000428042866
 73
     1
 72
     1
 10
18.7776366960393
 20
10.934885
 11
18.3943246960393
 21
10.934885
 72
     2
 10
18.39432407954263
 20
11.09082238350259
 40
0.1559373835038081
 50
89.99977348179051
 51
179.9998590903641
 73
     0
 72
     1
 10
18.2383866960393
 20
11.090822
 11
18.2383866960393
 21
11.118885
 72
     2
 10
18.08038681407717
 20
11.11888511803788
 40
0.1579998819621672
 50
359.9999571957133
 51
450.0000428042866
 73
     1
 72
     1
 10
18.0803866960393
 20
11.276885
 11
16.7568866960393
 21
11.276885
 97
        1
330
BD9
 92
       16
 93
       24
 72
     2
 10
18.77763675431116
 20
5.593884941728137
 40
0.0779999417281592
 50
359.9999571957141
 51
450.0000428042879
 73
     0
 72
     1
 10
18.7776366960393
 20
5.515884999999999
 11
18.3943246960393
 21
5.515884999999999
 72
     2
 10
18.39432451977588
 20
5.279947176263426
 40
0.2359378237366397
 50
89.99995719571332
 51
180.0000428042873
 73
     1
 72
     1
 10
18.1583866960393
 20
5.279946999999999
 11
18.1583866960393
 21
5.251884999999999
 72
     2
 10
18.08038675431116
 20
5.251884941728137
 40
0.0779999417281592
 50
359.9999571957147
 51
450.0000428042879
 73
     0
 72
     1
 10
18.0803866960393
 20
5.173885
 11
16.7568866960393
 21
5.173885
 72
     2
 10
16.75688663776743
 20
5.251884941728135
 40
0.0779999417281574
 50
89.99995719571211
 51
180.0000428042865
 73
     0
 72
     1
 10
16.6788866960393
 20
5.251884999999999
 11
16.6788866960393
 21
5.279946999999999
 72
     2
 10
16.44294937230272
 20
5.279947676262676
 40
0.2359373237375443
 50
359.9998357741938
 51
449.9999213827684
 73
     1
 72
     1
 10
16.44294969603929
 20
5.515884999999999
 11
16.0598866960393
 21
5.515884999999999
 72
     2
 10
16.05988663776744
 20
5.593884941728135
 40
0.0779999417281574
 50
89.99995719571476
 51
180.0000428042872
 73
     0
 72
     1
 10
15.9818866960393
 20
5.593885
 11
15.9818866960393
 21
10.776885
 72
     2
 10
16.05988663776744
 20
10.77688505827186
 40
0.0779999417281592
 50
179.9999571957121
 51
270.0000428042852
 73
     0
 72
     1
 10
16.0598866960393
 20
10.854885
 11
16.44294969603929
 21
10.854885
 72
     2
 10
16.44294987230198
 20
11.09082182373732
 40
0.2359368237373901
 50
269.9999571957122
 51
360.000042804286
 73
     1
 72
     1
 10
16.6788866960393
 20
11.090822
 11
16.6788866960393
 21
11.118885
 72
     2
 10
16.75688663776743
 20
11.11888505827186
 40
0.0779999417281556
 50
179.9999571957134
 51
270.0000428042879
 73
     0
 72
     1
 10
16.7568866960393
 20
11.196885
 11
18.0803866960393
 21
11.196885
 72
     2
 10
18.08038675431116
 20
11.11888505827186
 40
0.0779999417281574
 50
269.9999571957121
 51
360.0000428042865
 73
     0
 72
     1
 10
18.1583866960393
 20
11.118885
 11
18.1583866960393
 21
11.090822
 72
     2
 10
18.39432401977662
 20
11.09082232373657
 40
0.2359373237375433
 50
180.0000786172325
 51
270.000164225806
 73
     1
 72
     1
 10
18.3943246960393
 20
10.854885
 11
18.7776366960393
 21
10.854885
 72
     2
 10
18.77763675431116
 20
10.77688505827186
 40
0.0779999417281592
 50
269.9999571957121
 51
360.0000428042865
 73
     0
 72
     1
 10
18.8556366960393
 20
10.776885
 11
18.8556366960393
 21
5.593885
 97
        1
330
BF3
 75
     0
 76
     1
 52
0.0
 41
0.375
 77
     0
 78
     2
 53
0.0
 43
1.226897696039301
 44
0.0
 45
0.046875
 46
0.046875
 79
     2
 49
0.046875
 49
-0.046875
 53
90.0
 43
1.273772696039301
 44
0.0
 45
-0.046875
 46
0.046875
 79
     2
 49
0.046875
 49
-0.046875
 98
        1
 10
1.226897696039301
 20
0.0
  0
HATCH
  5
10F5
330
1E
100
AcDbEntity
  8
OBJECT
 62
   221
100
AcDbHatch
 10
0.0
 20
0.0
 30
0.0
210
0.0
220
0.0
230
1.0
  2
ZIGZAG
 70
     0
 71
     1
 91
        1
 92
        7
 72
     0
 73
     1
 93
        4
 10
21.6179726960393
 20
5.440204999999999
 10
21.6179726960393
 20
5.520205000000001
 10
21.50297269603929
 20
5.520205
 10
21.50297269603929
 20
5.440205
 97
        3
330
BD5
330
BBB
330
BD0
 75
     0
 76
     1
 52
0.0
 41
0.25
 77
     0
 78
     2
 53
0.0
 43
1.226897696039301
 44
0.0
 45
0.03125
 46
0.03125
 79
     2
 49
0.03125
 49
-0.03125
 53
90.0
 43
1.258147696039301
 44
0.0
 45
-0.03125
 46
0.03125
 79
     2
 49
0.03125
 49
-0.03125
 47
0.0034623431333554
 98
        1
 10
21.56575153378655
 20
5.476675974348658
  0
HATCH
  5
10FC
330
1E
100
AcDbEntity
  8
OBJECT
 62
   151
100
AcDbHatch
 10
0.0
 20
0.0
 30
0.0
210
0.0
220
0.0
230
1.0
  2
ZIGZAG
 70
     0
 71
     1
 91
        1
 92
        7
 72
     0
 73
     1
 93
        4
 10
21.50297269603929
 20
10.939205
 10
21.50297269603929
 20
10.859205
 10
21.6179726960393
 20
10.859205
 10
21.6179726960393
 20
10.939205
 97
        3
330
BCC
330
BBB
330
BC7
 75
     0
 76
     1
 52
0.0
 41
0.25
 77
     0
 78
     2
 53
0.0
 43
1.226897696039301
 44
0.0
 45
0.03125
 46
0.03125
 79
     2
 49
0.03125
 49
-0.03125
 53
90.0
 43
1.258147696039301
 44
0.0
 45
-0.03125
 46
0.03125
 79
     2
 49
0.03125
 49
-0.03125
 47
0.0034623431333554
 98
        1
 10
21.55917934015944
 20
10.90826839385247
  0
HATCH
  5
1106
330
1E
100
AcDbEntity
  8
OBJECT
 62
   221
100
AcDbHatch
 10
0.0
 20
0.0
 30
0.0
210
0.0
220
0.0
230
1.0
  2
ZIGZAG
 70
     0
 71
     1
 91
        1
 92
        7
 72
     0
 73
     1
 93
        4
 10
23.47120540631284
 20
15.484776
 10
23.47120540631284
 20
15.164776
 10
23.93120540631284
 20
15.16477599999999
 10
23.93120540631284
 20
15.484776
 97
        3
330
BC2
330
B95
330
BBD
 75
     0
 76
     1
 52
0.0
 41
0.75
 77
     0
 78
     2
 53
0.0
 43
1.730240406312844
 44
0.0
 45
0.09375
 46
0.09375
 79
     2
 49
0.09375
 49
-0.09375
 53
90.0
 43
1.823990406312844
 44
0.0
 45
-0.09375
 46
0.09375
 79
     2
 49
0.09375
 49
-0.09375
 47
0.0045984244511181
 98
        1
 10
23.72437656376104
 20
15.32609534778405
  0
LINE
  5
116C
102
{ACAD_REACTORS
330
119C
102
}
330
1E
100
AcDbEntity
  8
OBJECT
100
AcDbLine
 10
21.97397269603929
 20
5.426884999999998
 30
0.0
 11
21.97397269603929
 21
5.116884999999999
 31
0.0
  0
HATCH
  5
119C
330
1E
100
AcDbEntity
  8
OBJECT
 62
   151
100
AcDbHatch
 10
0.0
 20
0.0
 30
0.0
210
0.0
220
0.0
230
1.0
  2
ANSI31
 70
     0
 71
     1
 91
        3
 92
        7
 72
     1
 73
     1
 93
        7
 10
22.0314726960393
 20
5.035885
 42
0.4142135623730951
 10
22.0939726960393
 20
5.098385
 42
0.0
 10
22.09397269603929
 20
5.116885
 42
0.0
 10
21.97397269603929
 20
5.116884999999999
 42
0.0
 10
21.97397269603929
 20
5.185947
 42
0.0
 10
21.50297269603929
 20
5.185946999999999
 42
0.0
 10
21.50297269603929
 20
5.035885
 42
0.0
 97
        7
330
A9D
330
ABF
330
116C
330
A9F
330
BBB
330
A99
330
A9A
 92
        7
 72
     1
 73
     1
 93
       12
 10
21.50297269603929
 20
5.555884999999999
 42
0.0
 10
21.50297269603929
 20
5.520205
 42
0.0
 10
21.6179726960393
 20
5.520205000000001
 42
0.0
 10
21.6179726960393
 20
5.440205000000001
 42
0.0
 10
21.50297269603929
 20
5.440205
 42
0.0
 10
21.50297269603929
 20
5.357822
 42
0.0
 10
21.97397269603929
 20
5.357821999999999
 42
0.0
 10
21.97397269603929
 20
5.426884999999998
 42
0.0
 10
22.0939726960393
 20
5.426884999999998
 42
0.0
 10
22.0939726960393
 20
5.845977567651162
 42
0.0539607969633716
 10
21.9739726960393
 20
5.900637128523032
 42
0.0
 10
21.9739726960393
 20
5.555885
 42
0.0
 97
       10
330
9EE
330
AC3
330
AC4
330
BBB
330
BD5
330
BD0
330
A9E
330
116C
330
AC1
330
A9D
 92
        7
 72
     1
 73
     1
 93
       15
 10
22.0939726960393
 20
11.272385
 42
0.4142135623730951
 10
22.0314726960393
 20
11.334885
 42
0.0
 10
21.50297269603929
 20
11.334885
 42
0.0
 10
21.50297269603929
 20
11.254885
 42
0.0
 10
21.9739726960393
 20
11.25488499999999
 42
0.0
 10
21.9739726960393
 20
10.984885
 42
0.0
 10
21.50297269603929
 20
10.984885
 42
0.0
 10
21.50297269603929
 20
10.939205
 42
0.0
 10
21.6179726960393
 20
10.939205
 42
0.0
 10
21.6179726960393
 20
10.859205
 42
0.0
 10
21.50297269603929
 20
10.859205
 42
0.0
 10
21.5029726960393
 20
10.814885
 42
0.0
 10
21.9739726960393
 20
10.814885
 42
0.0
 10
21.9739726960393
 20
5.900637128523032
 42
-0.0539607969633716
 10
22.0939726960393
 20
5.845977567651162
 42
0.0
 97
       12
330
A9B
330
A9C
330
BBB
330
AC7
330
AC2
330
AC6
330
BCC
330
BC7
330
AC5
330
AC3
330
9EE
330
A9D
 75
     0
 76
     1
 52
0.0
 41
1.0
 77
     0
 78
     1
 53
45.0
 43
1.226897696039301
 44
0.0
 45
-0.0883883476483184
 46
0.0883883476483185
 79
     0
 47
0.0121182008935614
 98
        3
 10
21.73232202369702
 20
5.083808146352822
 10
21.8293459922052
 20
5.483708778767642
 10
22.05977796749102
 20
6.586465088769209
  0
LINE
  5
119D
102
{ACAD_REACTORS
330
1263
102
}
330
1E
100
AcDbEntity
  8
OBJECT
100
AcDbLine
 10
25.35520540631284
 20
13.75459099999999
 30
0.0
 11
25.35520540631285
 21
14.994591
 31
0.0
  0
SPLINE
  5
11FE
102
{ACAD_REACTORS
330
1263
102
}
330
1E
100
AcDbEntity
  8
OBJECT
100
AcDbSpline
210
0.0
220
0.0
230
1.0
 70
     8
 71
     3
 72
    13
 73
     9
 74
     7
 42
0.0000000001
 43
0.0000000001
 44
0.0000000001
 40
0.0
 40
0.0
 40
0.0
 40
0.0
 40
0.4600000000000009
 40
0.7484497271005744
 40
1.158329611685036
 40
1.712054641607084
 40
2.114447013477011
 40
2.46559512029134
 40
2.46559512029134
 40
2.46559512029134
 40
2.46559512029134
 10
23.47120540631284
 20
16.27278830822288
 30
0.0
 10
23.62860668769946
 20
16.30043595288004
 30
0.0
 10
23.88470874443664
 20
16.34542045744226
 30
0.0
 10
24.23106148163043
 20
16.07521270612815
 30
0.0
 10
24.63890218943571
 20
16.40779574978103
 30
0.0
 10
25.09443442293942
 20
15.99624617256268
 30
0.0
 10
25.48047766151374
 20
16.39473202468553
 30
0.0
 10
25.72244785847912
 20
16.2608288674233
 30
0.0
 10
25.83520540631284
 20
16.19843030822288
 30
0.0
 11
23.47120540631284
 21
16.27278830822288
 31
0.0
 11
23.93120540631284
 21
16.27278830822288
 31
0.0
 11
24.19793696086627
 21
16.1629815558353
 31
0.0
 11
24.59339635515718
 21
16.27074698282391
 31
0.0
 11
25.13265909271187
 21
16.14502065842368
 31
0.0
 11
25.50115537015661
 21
16.30666877764713
 31
0.0
 11
25.83520540631284
 21
16.19843030822288
 31
0.0
  0
HATCH
  5
1263
330
1E
100
AcDbEntity
  8
OBJECT
 62
   151
100
AcDbHatch
 10
0.0
 20
0.0
 30
0.0
210
0.0
220
0.0
230
1.0
  2
ANSI31
 70
     0
 71
     1
 91
        2
 92
        5
 93
       12
 72
     1
 10
23.47120540631284
 20
15.650766
 11
23.47120540631284
 21
15.484776
 72
     1
 10
23.47120540631284
 20
15.484776
 11
23.93120540631284
 21
15.484776
 72
     1
 10
23.93120540631284
 20
15.484776
 11
23.93120540631284
 21
15.16477599999999
 72
     1
 10
23.93120540631284
 20
15.16477599999999
 11
23.47120540631284
 21
15.164776
 72
     1
 10
23.47120540631284
 20
15.164776
 11
23.47120540631284
 21
14.71834099999999
 72
     1
 10
23.47120540631284
 20
14.71834099999999
 11
25.35520540631285
 21
14.718341
 72
     1
 10
25.35520540631285
 20
14.718341
 11
25.35520540631285
 21
14.994591
 72
     1
 10
25.35520540631285
 20
14.994591
 11
25.83520540631285
 21
14.994591
 72
     1
 10
25.83520540631285
 20
14.994591
 11
25.83520540631284
 21
16.19843030822288
 72
     4
 94
        3
 73
     0
 74
     0
 95
        9
 96
        5
 40
2.042828084444479
 40
2.042828084444479
 40
2.042828084444479
 40
2.042828084444479
 40
2.393976191258808
 40
2.465595120291341
 40
2.465595120291341
 40
2.465595120291341
 40
2.465595120291341
 10
25.83520540631284
 20
16.19843030822288
 10
25.72244785847912
 20
16.2608288674233
 10
25.58669267899235
 20
16.33595401661918
 10
25.4570582160886
 20
16.29662980930068
 10
25.43520540631284
 20
16.28784690754948
 72
     1
 10
25.43520540631284
 20
16.28784690754948
 11
25.43520540631284
 21
15.650766
 72
     1
 10
25.43520540631284
 20
15.650766
 11
23.47120540631284
 21
15.650766
 97
       10
330
11FE
330
B96
330
B91
330
B95
330
BC2
330
BBD
330
B93
330
119D
330
B9E
330
B97
 92
        7
 72
     1
 73
     1
 93
        7
 10
25.58520540631284
 20
13.430591
 42
0.4142135623730951
 10
25.83520540631284
 20
13.68059099999999
 42
0.0
 10
25.83520540631284
 20
13.754591
 42
0.0
 10
25.35520540631284
 20
13.754591
 42
0.0
 10
25.35520540631284
 20
14.030841
 42
0.0
 10
23.47120540631284
 20
14.030841
 42
0.0
 10
23.47120540631284
 20
13.43059099999999
 42
0.0
 97
        7
330
B9C
330
119D
330
B94
330
B95
330
B92
330
B9D
330
B97
 75
     0
 76
     1
 52
0.0
 41
1.5
 77
     0
 78
     1
 53
45.0
 43
1.730240406312844
 44
0.0
 45
-0.1325825214724776
 46
0.1325825214724777
 79
     0
 47
0.0089804524015147
 98
        2
 10
24.7282120195143
 20
15.28289719999579
 10
24.37769126013531
 20
13.69335712002447
  0
LEADER
  5
1269
330
1E
100
AcDbEntity
  8
DIM
100
AcDbLeader
  3
23NSTD
 73
     0
 75
     1
 40
0.5833333333333333
 41
2.296875
 76
     3
 10
23.48024040631284
 20
15.375
 30
0.0
 10
22.71047906484571
 20
16.5228389709206
 30
0.0
 10
22.39547906484571
 20
16.5228389709206
 30
0.0
340
126A
213
0.0
223
-0.109375
233
0.0
1001
ACAD
1000
DSTYLE
1002
{
1070
   147
1040
0.09
1070
    77
1070
     0
1002
}
  0
MTEXT
  5
126A
102
{ACAD_REACTORS
330
1269
102
}
330
1E
100
AcDbEntity
  8
DIM
100
AcDbMText
 10
22.23797906484571
 20
16.6322139709206
 30
0.0
 40
0.21875
 41
0.0
 71
     3
 72
     1
  1
\A1;SILICONE GASKET\P(CLEAR)
 73
     1
 44
1.0
  0
LEADER
  5
166D
330
1E
100
AcDbEntity
  8
DIM
100
AcDbLeader
  3
23NSTD
 73
     0
 75
     1
 40
0.9479166666666664
 41
2.3515625
 76
     3
 10
4.294050710273529
 20
5.182512
 30
0.0
 10
3.287251923749
 20
3.915218367180351
 30
0.0
 10
2.972251923749
 20
3.915218367180351
 30
0.0
340
166E
213
0.0
223
-0.109375
233
0.0
1001
ACAD
1000
DSTYLE
1002
{
1070
   147
1040
0.09
1070
    77
1070
     0
1002
}
  0
MTEXT
  5
166E
102
{ACAD_REACTORS
330
166D
102
}
330
1E
100
AcDbEntity
  8
DIM
100
AcDbMText
 10
2.814751923749
 20
4.024593367180351
 30
0.0
 40
0.21875
 41
0.0
 71
     3
 72
     1
  1
\A1;M4 x 0.315 LG.\PTHREADED INSERT\P(4) PLACES
 73
     1
 44
1.0
  0
LEADER
  5
166F
330
1E
100
AcDbEntity
  8
DIM
100
AcDbLeader
  3
23NSTD
 73
     0
 74
     0
 75
     1
 40
1.677083333333333
 41
3.28125
 76
     3
 10
6.955549876572377
 20
10.70391842787286
 30
0.0
 10
8.152208346349848
 20
13.84081209792255
 30
0.0
 10
8.467208346349847
 20
13.84081209792255
 30
0.0
340
1670
213
0.0
223
-0.109375
233
0.0
1001
ACAD
1000
DSTYLE
1002
{
1070
   147
1040
0.09
1070
    77
1070
     0
1002
}
  0
MTEXT
  5
1670
102
{ACAD_REACTORS
330
166F
102
}
330
1E
100
AcDbEntity
  8
DIM
100
AcDbMText
 10
8.624708346349848
 20
13.95018709792255
 30
0.0
 40
0.21875
 41
0.0
 71
     1
 72
     1
  1
\A1;0.315 DIA. BOSS\PWITH M3 x 0.218 LG.\PTHREADED INSERT\P(4) PLACES\P(SCREWS NOT SUPPLIED)
 73
     1
 44
1.0
  0
LEADER
  5
167D
330
1E
100
AcDbEntity
  8
DIM
100
AcDbLeader
  3
23NSTD
 73
     0
 74
     0
 75
     1
 40
2.041666666666666
 41
6.31640625
 76
     3
 10
5.846293710273529
 20
5.413184999999999
 30
0.0
 10
7.631275284790174
 20
3.55116325059231
 30
0.0
 10
7.946275284790174
 20
3.55116325059231
 30
0.0
340
167E
213
0.0
223
-0.109375
233
0.0
1001
ACAD
1000
DSTYLE
1002
{
1070
   147
1040
0.09
1070
    77
1070
     0
1002
}
  0
MTEXT
  5
167E
102
{ACAD_REACTORS
330
167D
102
}
330
1E
100
AcDbEntity
  8
DIM
100
AcDbMText
 10
8.103775284790174
 20
3.66053825059231
 30
0.0
 40
0.21875
 41
0.0
 71
     1
 72
     1
  1
\A1;0.315 DIA. BOSS WITH\P0.090 DIA. HOLE x 0.220 DEEP\P(8) PLACES\PMOUNTING BOSSES USE EITHER M2.5 METRIC\POR #4 STD. SHEET METAL SCREWS x 0.188 LG.\P(NOT SUPPLIED)
 73
     1
 44
1.0
  0
LWPOLYLINE
  5
17C0
330
1E
100
AcDbEntity
  8
HIDDEN
  6
HIDDEN2
100
AcDbPolyline
 90
        4
 70
     0
 43
0.0
 10
15.9246366960393
 20
14.350032
 10
15.9246366960393
 20
14.230032
 10
16.2346366960393
 20
14.230032
 10
16.2346366960393
 20
14.350032
  0
LWPOLYLINE
  5
17C1
330
1E
100
AcDbEntity
  8
HIDDEN
  6
HIDDEN2
100
AcDbPolyline
 90
        4
 70
     0
 43
0.0
 10
18.9126366960393
 20
14.350032
 10
18.9126366960393
 20
14.230032
 10
18.6026366960393
 20
14.230032
 10
18.6026366960393
 20
14.350032
  0
CIRCLE
  5
182B
330
1E
100
AcDbEntity
  8
OBJECT
100
AcDbCircle
 10
4.578443710273528
 20
10.576885
 30
0.0
 40
0.09375
  0
LINE
  5
182D
330
1E
100
AcDbEntity
  8
HIDDEN
  6
HIDDEN2
100
AcDbLine
 10
4.734399054674564
 20
1.578189
 30
0.0
 11
4.422488365872494
 21
1.578189
 31
0.0
  0
LINE
  5
182E
330
1E
100
AcDbEntity
  8
HIDDEN
  6
HIDDEN2
100
AcDbLine
 10
4.625443770681663
 20
1.568188990179782
 30
0.0
 11
4.53144369657854
 21
1.568188990179782
 31
0.0
  0
LINE
  5
182F
330
1E
100
AcDbEntity
  8
OBJECT
100
AcDbLine
 10
4.531443686820074
 20
10.34397004318252
 30
0.0
 11
4.625443813725935
 21
10.34397004318252
 31
0.0
  0
LINE
  5
1830
330
1E
100
AcDbEntity
  8
OBJECT
100
AcDbLine
 10
4.625443770681663
 20
10.3789700255264
 30
0.0
 11
4.53144369657854
 21
10.3789700255264
 31
0.0
  0
LINE
  5
1831
330
1E
100
AcDbEntity
  8
OBJECT
100
AcDbLine
 10
4.53144369657854
 20
10.77480001286461
 30
0.0
 11
4.625443770681663
 21
10.77480001286461
 31
0.0
  0
LINE
  5
1832
330
1E
100
AcDbEntity
  8
OBJECT
100
AcDbLine
 10
4.625443813725901
 20
10.8097999952085
 30
0.0
 11
4.531443686820081
 21
10.8097999952085
 31
0.0
  0
CIRCLE
  5
1833
330
1E
100
AcDbEntity
  8
OBJECT
100
AcDbCircle
 10
4.578443710273528
 20
10.576885
 30
0.0
 40
0.0590000000000011
  0
CIRCLE
  5
1834
330
1E
100
AcDbEntity
  8
OBJECT
100
AcDbCircle
 10
4.578443710273528
 20
10.576885
 30
0.0
 40
0.1559553444010344
  0
LINE
  5
1836
330
1E
100
AcDbEntity
  8
HIDDEN
  6
HIDDEN2
100
AcDbLine
 10
4.53144369657854
 20
1.568188990179782
 30
0.0
 11
4.531443686761636
 21
1.400188999999999
 31
0.0
  0
LINE
  5
1837
330
1E
100
AcDbEntity
  8
HIDDEN
  6
HIDDEN2
100
AcDbLine
 10
4.429647499203566
 20
1.568188990179782
 30
0.0
 11
4.42964755103313
 21
1.400188999999999
 31
0.0
  0
LINE
  5
1839
330
1E
100
AcDbEntity
  8
HIDDEN
  6
HIDDEN2
100
AcDbLine
 10
4.345319089615301
 20
1.400188999999999
 30
0.0
 11
4.380528666628511
 21
1.568188990179782
 31
0.0
  0
LINE
  5
183A
330
1E
100
AcDbEntity
  8
HIDDEN
  6
HIDDEN2
100
AcDbLine
 10
4.429647499203566
 20
1.568188990179782
 30
0.0
 11
4.380528666628511
 21
1.568188990179782
 31
0.0
  0
LINE
  5
183B
330
1E
100
AcDbEntity
  8
HIDDEN
  6
HIDDEN2
100
AcDbLine
 10
4.422488365872494
 20
1.578189
 30
0.0
 11
4.422401076248196
 21
1.568188990179782
 31
0.0
  0
LINE
  5
183C
330
1E
100
AcDbEntity
  8
OBJECT
100
AcDbLine
 10
4.531443686820074
 20
10.34397004318252
 30
0.0
 11
4.531443710273529
 21
10.42808884045107
 31
0.0
  0
LINE
  5
183D
330
1E
100
AcDbEntity
  8
OBJECT
100
AcDbLine
 10
4.53144371027353
 20
10.72568115954892
 30
0.0
 11
4.531443686820081
 21
10.8097999952085
 31
0.0
  0
LINE
  5
183E
330
1E
100
AcDbEntity
  8
OBJECT
100
AcDbLine
 10
4.380528666628511
 20
10.52988505547643
 30
0.0
 11
4.380528666628511
 21
10.62388498291458
 31
0.0
  0
LINE
  5
183F
330
1E
100
AcDbEntity
  8
OBJECT
100
AcDbLine
 10
4.345528684284627
 20
10.62388497074026
 30
0.0
 11
4.345528684284627
 21
10.52988509500653
 31
0.0
  0
LINE
  5
1840
330
1E
100
AcDbEntity
  8
OBJECT
100
AcDbLine
 10
4.429647550724599
 20
10.529885
 30
0.0
 11
4.345528684284627
 21
10.52988509500653
 31
0.0
  0
LINE
  5
1841
330
1E
100
AcDbEntity
  8
OBJECT
100
AcDbLine
 10
4.345528684284627
 20
10.62388497074026
 30
0.0
 11
4.4296475507246
 21
10.623885
 31
0.0
  0
LINE
  5
1842
102
{ACAD_REACTORS
330
1939
102
}
330
1E
100
AcDbEntity
  8
OBJECT
100
AcDbLine
 10
11.20254971027353
 20
10.73284034440103
 30
0.0
 11
11.20254971027353
 21
10.42092965559896
 31
0.0
  0
LINE
  5
1843
102
{ACAD_REACTORS
330
1939
102
}
330
1E
100
AcDbEntity
  8
OBJECT
100
AcDbLine
 10
11.38054971027353
 20
10.34376037934177
 30
0.0
 11
11.21254972009374
 21
10.37896995635498
 31
0.0
  0
LINE
  5
1846
330
1E
100
AcDbEntity
  8
HIDDEN
  6
HIDDEN2
100
AcDbLine
 10
4.625443770681663
 20
1.568188990179782
 30
0.0
 11
4.625443813983702
 21
1.400188999999999
 31
0.0
  0
LINE
  5
1847
330
1E
100
AcDbEntity
  8
HIDDEN
  6
HIDDEN2
100
AcDbLine
 10
4.727239894724151
 20
1.568188990179782
 30
0.0
 11
4.727239869673335
 21
1.400188999999999
 31
0.0
  0
LINE
  5
1849
330
1E
100
AcDbEntity
  8
HIDDEN
  6
HIDDEN2
100
AcDbLine
 10
4.811568304312415
 20
1.400188999999999
 30
0.0
 11
4.776358727299205
 21
1.568188990179782
 31
0.0
  0
LINE
  5
184A
330
1E
100
AcDbEntity
  8
HIDDEN
  6
HIDDEN2
100
AcDbLine
 10
4.776358727299205
 20
1.568188990179782
 30
0.0
 11
4.727239894724151
 21
1.568188990179782
 31
0.0
  0
LINE
  5
184B
330
1E
100
AcDbEntity
  8
HIDDEN
  6
HIDDEN2
100
AcDbLine
 10
4.734486317679522
 20
1.568188990179782
 30
0.0
 11
4.734399054674564
 21
1.578189
 31
0.0
  0
LINE
  5
184C
330
1E
100
AcDbEntity
  8
OBJECT
100
AcDbLine
 10
4.625443710273528
 20
10.42808884045107
 30
0.0
 11
4.625443813725935
 21
10.34397004318252
 31
0.0
  0
LINE
  5
184D
102
{ACAD_REACTORS
330
1939
102
}
330
1E
100
AcDbEntity
  8
OBJECT
100
AcDbLine
 10
11.21254972009374
 20
10.42084236597466
 30
0.0
 11
11.21254972009374
 21
10.37896995635498
 31
0.0
  0
LINE
  5
184E
102
{ACAD_REACTORS
330
1939
102
}
330
1E
100
AcDbEntity
  8
OBJECT
100
AcDbLine
 10
11.20254971027353
 20
10.42092965559896
 30
0.0
 11
11.21254972009374
 21
10.42084236597466
 31
0.0
  0
LINE
  5
184F
102
{ACAD_REACTORS
330
1939
102
}
330
1E
100
AcDbEntity
  8
OBJECT
100
AcDbLine
 10
11.38054971027352
 20
10.81000959403888
 30
0.0
 11
11.21254972009374
 21
10.77480001702567
 31
0.0
  0
LINE
  5
1857
102
{ACAD_REACTORS
330
1939
102
}
330
1E
100
AcDbEntity
  8
OBJECT
100
AcDbLine
 10
11.21254972009374
 20
10.77480001702567
 30
0.0
 11
11.21254972009374
 21
10.73292760740599
 31
0.0
  0
LINE
  5
1858
330
1E
100
AcDbEntity
  8
OBJECT
100
AcDbLine
 10
4.625443813725901
 20
10.8097999952085
 30
0.0
 11
4.625443710273529
 21
10.72568115954892
 31
0.0
  0
LINE
  5
1859
330
1E
100
AcDbEntity
  8
OBJECT
100
AcDbLine
 10
4.727239869822458
 20
10.62388499999999
 30
0.0
 11
4.81135870964309
 21
10.62388497074026
 31
0.0
  0
LINE
  5
185A
330
1E
100
AcDbEntity
  8
OBJECT
100
AcDbLine
 10
4.811358709643091
 20
10.52988509500655
 30
0.0
 11
4.727239869822456
 21
10.529885
 31
0.0
  0
LINE
  5
185B
330
1E
100
AcDbEntity
  8
OBJECT
100
AcDbLine
 10
4.776358727299205
 20
10.62388498291458
 30
0.0
 11
4.776358727299205
 21
10.52988505547643
 31
0.0
  0
LINE
  5
185D
330
1E
100
AcDbEntity
  8
OBJECT
100
AcDbLine
 10
4.811358709643091
 20
10.52988509500655
 30
0.0
 11
4.81135870964309
 21
10.62388497074026
 31
0.0
  0
LINE
  5
185E
102
{ACAD_REACTORS
330
1939
102
}
330
1E
100
AcDbEntity
  8
OBJECT
100
AcDbLine
 10
11.21254972009374
 20
10.73292760740599
 30
0.0
 11
11.20254971027353
 21
10.73284034440103
 31
0.0
  0
LINE
  5
1860
330
1E
100
AcDbEntity
  8
OBJECT
100
AcDbLine
 10
11.20254971027353
 20
5.949840344401033
 30
0.0
 11
11.20254971027353
 21
5.637929655598965
 31
0.0
  0
CIRCLE
  5
1861
330
1E
100
AcDbEntity
  8
OBJECT
100
AcDbCircle
 10
4.578443710273528
 20
5.793884999999999
 30
0.0
 40
0.1559553444010344
  0
LINE
  5
1862
330
1E
100
AcDbEntity
  8
OBJECT
100
AcDbLine
 10
4.625443770681663
 20
5.595970025526407
 30
0.0
 11
4.53144369657854
 21
5.595970025526407
 31
0.0
  0
LINE
  5
1863
330
1E
100
AcDbEntity
  8
OBJECT
100
AcDbLine
 10
4.531443686820074
 20
5.560970043182523
 30
0.0
 11
4.625443813725935
 21
5.560970043182523
 31
0.0
  0
LINE
  5
1864
330
1E
100
AcDbEntity
  8
OBJECT
100
AcDbLine
 10
4.531443686820074
 20
5.560970043182523
 30
0.0
 11
4.531443710273529
 21
5.645088840451071
 31
0.0
  0
LINE
  5
1865
330
1E
100
AcDbEntity
  8
OBJECT
100
AcDbLine
 10
4.625443710273528
 20
5.645088840451071
 30
0.0
 11
4.625443813725935
 21
5.560970043182523
 31
0.0
  0
LINE
  5
1866
330
1E
100
AcDbEntity
  8
OBJECT
100
AcDbLine
 10
11.20254971027353
 20
5.637929655598965
 30
0.0
 11
11.21254972009374
 21
5.637842365974666
 31
0.0
  0
LINE
  5
1867
330
1E
100
AcDbEntity
  8
OBJECT
100
AcDbLine
 10
11.21254972009374
 20
5.645088788930037
 30
0.0
 11
11.21254972009374
 21
5.595969956354981
 31
0.0
  0
LINE
  5
1868
330
1E
100
AcDbEntity
  8
OBJECT
100
AcDbLine
 10
11.21254972009374
 20
5.645088788930037
 30
0.0
 11
11.38054971027352
 21
5.645088840759599
 31
0.0
  0
LINE
  5
1869
330
1E
100
AcDbEntity
  8
OBJECT
100
AcDbLine
 10
11.38054971027352
 20
5.560760379341772
 30
0.0
 11
11.21254972009374
 21
5.595969956354981
 31
0.0
  0
LINE
  5
186A
330
1E
100
AcDbEntity
  8
OBJECT
100
AcDbLine
 10
4.625443813725901
 20
6.026799995208499
 30
0.0
 11
4.625443710273529
 21
5.942681159548929
 31
0.0
  0
LINE
  5
186B
330
1E
100
AcDbEntity
  8
OBJECT
100
AcDbLine
 10
4.53144371027353
 20
5.942681159548929
 30
0.0
 11
4.531443686820081
 21
6.026799995208499
 31
0.0
  0
CIRCLE
  5
186C
330
1E
100
AcDbEntity
  8
OBJECT
100
AcDbCircle
 10
4.578443710273528
 20
5.793884999999999
 30
0.0
 40
0.0590000000000011
  0
LINE
  5
186D
330
1E
100
AcDbEntity
  8
OBJECT
100
AcDbLine
 10
4.53144369657854
 20
5.991800012864615
 30
0.0
 11
4.625443770681663
 21
5.991800012864615
 31
0.0
  0
CIRCLE
  5
186E
330
1E
100
AcDbEntity
  8
OBJECT
100
AcDbCircle
 10
4.578443710273528
 20
5.793884999999999
 30
0.0
 40
0.09375
  0
LINE
  5
186F
330
1E
100
AcDbEntity
  8
OBJECT
100
AcDbLine
 10
4.345528684284627
 20
5.840884970740262
 30
0.0
 11
4.4296475507246
 21
5.840885
 31
0.0
  0
LINE
  5
1870
330
1E
100
AcDbEntity
  8
OBJECT
100
AcDbLine
 10
4.429647550724599
 20
5.746885
 30
0.0
 11
4.345528684284627
 21
5.746885095006533
 31
0.0
  0
LINE
  5
1871
330
1E
100
AcDbEntity
  8
OBJECT
100
AcDbLine
 10
4.345528684284627
 20
5.840884970740262
 30
0.0
 11
4.345528684284627
 21
5.746885095006533
 31
0.0
  0
LINE
  5
1872
330
1E
100
AcDbEntity
  8
OBJECT
100
AcDbLine
 10
4.380528666628511
 20
5.746885055476436
 30
0.0
 11
4.380528666628511
 21
5.840884982914586
 31
0.0
  0
LINE
  5
1873
330
1E
100
AcDbEntity
  8
OBJECT
100
AcDbLine
 10
4.811358709643091
 20
5.746885095006556
 30
0.0
 11
4.81135870964309
 21
5.840884970740258
 31
0.0
  0
LINE
  5
1874
330
1E
100
AcDbEntity
  8
OBJECT
100
AcDbLine
 10
4.776358727299205
 20
5.840884982914586
 30
0.0
 11
4.776358727299205
 21
5.746885055476436
 31
0.0
  0
LINE
  5
1875
330
1E
100
AcDbEntity
  8
OBJECT
100
AcDbLine
 10
4.811358709643091
 20
5.746885095006556
 30
0.0
 11
4.727239869822456
 21
5.746884999999998
 31
0.0
  0
LINE
  5
1876
330
1E
100
AcDbEntity
  8
OBJECT
100
AcDbLine
 10
4.727239869822458
 20
5.840884999999998
 30
0.0
 11
4.81135870964309
 21
5.840884970740258
 31
0.0
  0
LINE
  5
1877
330
1E
100
AcDbEntity
  8
OBJECT
100
AcDbLine
 10
4.625443813725901
 20
6.026799995208499
 30
0.0
 11
4.531443686820081
 21
6.026799995208499
 31
0.0
  0
LINE
  5
1878
330
1E
100
AcDbEntity
  8
OBJECT
100
AcDbLine
 10
11.38054971027352
 20
6.027009594038883
 30
0.0
 11
11.21254972009374
 21
5.991800017025676
 31
0.0
  0
LINE
  5
187A
330
1E
100
AcDbEntity
  8
OBJECT
100
AcDbLine
 10
11.21254972009374
 20
5.949927607405992
 30
0.0
 11
11.20254971027353
 21
5.949840344401033
 31
0.0
  0
LINE
  5
187B
330
1E
100
AcDbEntity
  8
OBJECT
100
AcDbLine
 10
11.21254972009374
 20
5.840885060408133
 30
0.0
 11
11.21254972009374
 21
5.74688498630501
 31
0.0
  0
LINE
  5
187C
330
1E
100
AcDbEntity
  8
OBJECT
100
AcDbLine
 10
11.21254972009374
 20
5.991800017025676
 30
0.0
 11
11.21254972009374
 21
5.942681184450622
 31
0.0
  0
LINE
  5
187F
330
1E
100
AcDbEntity
  8
OBJECT
100
AcDbLine
 10
11.21254972009374
 20
5.74688498630501
 30
0.0
 11
11.38054971027352
 21
5.746884976488106
 31
0.0
  0
LINE
  5
1880
330
1E
100
AcDbEntity
  8
OBJECT
100
AcDbLine
 10
11.21254972009374
 20
5.840885060408133
 30
0.0
 11
11.38054971027352
 21
5.840885103710173
 31
0.0
  0
LINE
  5
1881
330
1E
100
AcDbEntity
  8
OBJECT
100
AcDbLine
 10
11.21254972009374
 20
5.942681184450622
 30
0.0
 11
11.38054971027352
 21
5.942681159399804
 31
0.0
  0
CIRCLE
  5
1884
330
1E
100
AcDbEntity
  8
OBJECT
100
AcDbCircle
 10
6.862443710273528
 20
10.576885
 30
0.0
 40
0.1559553444010344
  0
LINE
  5
188A
330
1E
100
AcDbEntity
  8
OBJECT
100
AcDbLine
 10
6.909443770681662
 20
10.3789700255264
 30
0.0
 11
6.81544369657854
 21
10.3789700255264
 31
0.0
  0
LINE
  5
188B
330
1E
100
AcDbEntity
  8
OBJECT
100
AcDbLine
 10
6.815443686820073
 20
10.34397004318252
 30
0.0
 11
6.909443813725935
 21
10.34397004318252
 31
0.0
  0
LINE
  5
188E
330
1E
100
AcDbEntity
  8
OBJECT
100
AcDbLine
 10
6.815443686820073
 20
10.34397004318252
 30
0.0
 11
6.815443710273529
 21
10.42808884045107
 31
0.0
  0
LINE
  5
1894
330
1E
100
AcDbEntity
  8
OBJECT
100
AcDbLine
 10
6.909443710273528
 20
10.42808884045107
 30
0.0
 11
6.909443813725935
 21
10.34397004318252
 31
0.0
  0
LINE
  5
189A
330
1E
100
AcDbEntity
  8
OBJECT
100
AcDbLine
 10
6.909443813725901
 20
10.8097999952085
 30
0.0
 11
6.909443710273529
 21
10.72568115954892
 31
0.0
  0
LINE
  5
189B
330
1E
100
AcDbEntity
  8
OBJECT
100
AcDbLine
 10
6.815443710273529
 20
10.72568115954892
 30
0.0
 11
6.81544368682008
 21
10.8097999952085
 31
0.0
  0
CIRCLE
  5
189C
330
1E
100
AcDbEntity
  8
OBJECT
100
AcDbCircle
 10
6.862443710273528
 20
10.576885
 30
0.0
 40
0.0590000000000011
  0
LINE
  5
189D
330
1E
100
AcDbEntity
  8
OBJECT
100
AcDbLine
 10
6.81544369657854
 20
10.77480001286461
 30
0.0
 11
6.909443770681662
 21
10.77480001286461
 31
0.0
  0
CIRCLE
  5
189E
330
1E
100
AcDbEntity
  8
OBJECT
100
AcDbCircle
 10
6.862443710273528
 20
10.576885
 30
0.0
 40
0.09375
  0
LINE
  5
189F
330
1E
100
AcDbEntity
  8
OBJECT
100
AcDbLine
 10
6.629528684284626
 20
10.62388497074026
 30
0.0
 11
6.7136475507246
 21
10.623885
 31
0.0
  0
LINE
  5
18A0
330
1E
100
AcDbEntity
  8
OBJECT
100
AcDbLine
 10
6.713647550724599
 20
10.529885
 30
0.0
 11
6.629528684284626
 21
10.52988509500653
 31
0.0
  0
LINE
  5
18A1
330
1E
100
AcDbEntity
  8
OBJECT
100
AcDbLine
 10
6.629528684284626
 20
10.62388497074026
 30
0.0
 11
6.629528684284626
 21
10.52988509500653
 31
0.0
  0
LINE
  5
18A2
330
1E
100
AcDbEntity
  8
OBJECT
100
AcDbLine
 10
6.664528666628511
 20
10.52988505547643
 30
0.0
 11
6.664528666628511
 21
10.62388498291458
 31
0.0
  0
LINE
  5
18A3
330
1E
100
AcDbEntity
  8
OBJECT
100
AcDbLine
 10
7.095358709643091
 20
10.52988509500655
 30
0.0
 11
7.09535870964309
 21
10.62388497074026
 31
0.0
  0
LINE
  5
18A4
330
1E
100
AcDbEntity
  8
OBJECT
100
AcDbLine
 10
7.060358727299205
 20
10.62388498291458
 30
0.0
 11
7.060358727299205
 21
10.52988505547643
 31
0.0
  0
LINE
  5
18A5
330
1E
100
AcDbEntity
  8
OBJECT
100
AcDbLine
 10
7.095358709643091
 20
10.52988509500655
 30
0.0
 11
7.011239869822456
 21
10.529885
 31
0.0
  0
LINE
  5
18A6
330
1E
100
AcDbEntity
  8
OBJECT
100
AcDbLine
 10
7.011239869822458
 20
10.62388499999999
 30
0.0
 11
7.09535870964309
 21
10.62388497074026
 31
0.0
  0
LINE
  5
18A7
330
1E
100
AcDbEntity
  8
OBJECT
100
AcDbLine
 10
6.909443813725901
 20
10.8097999952085
 30
0.0
 11
6.81544368682008
 21
10.8097999952085
 31
0.0
  0
CIRCLE
  5
18A8
330
1E
100
AcDbEntity
  8
OBJECT
100
AcDbCircle
 10
6.862443710273528
 20
5.793884999999999
 30
0.0
 40
0.09375
  0
CIRCLE
  5
18A9
330
1E
100
AcDbEntity
  8
OBJECT
100
AcDbCircle
 10
6.862443710273528
 20
5.793884999999999
 30
0.0
 40
0.1559553444010344
  0
CIRCLE
  5
18AA
330
1E
100
AcDbEntity
  8
OBJECT
100
AcDbCircle
 10
6.862443710273528
 20
5.793884999999999
 30
0.0
 40
0.0590000000000011
  0
LINE
  5
18AB
330
1E
100
AcDbEntity
  8
OBJECT
100
AcDbLine
 10
6.815443686820073
 20
5.560970043182523
 30
0.0
 11
6.909443813725935
 21
5.560970043182523
 31
0.0
  0
LINE
  5
18AC
330
1E
100
AcDbEntity
  8
OBJECT
100
AcDbLine
 10
6.909443770681662
 20
5.595970025526407
 30
0.0
 11
6.81544369657854
 21
5.595970025526407
 31
0.0
  0
LINE
  5
18AD
330
1E
100
AcDbEntity
  8
OBJECT
100
AcDbLine
 10
6.664528666628511
 20
5.746885055476436
 30
0.0
 11
6.664528666628511
 21
5.840884982914586
 31
0.0
  0
LINE
  5
18AE
330
1E
100
AcDbEntity
  8
OBJECT
100
AcDbLine
 10
6.629528684284626
 20
5.840884970740262
 30
0.0
 11
6.629528684284626
 21
5.746885095006533
 31
0.0
  0
LINE
  5
18AF
330
1E
100
AcDbEntity
  8
OBJECT
100
AcDbLine
 10
6.713647550724599
 20
5.746885
 30
0.0
 11
6.629528684284626
 21
5.746885095006533
 31
0.0
  0
LINE
  5
18B0
330
1E
100
AcDbEntity
  8
OBJECT
100
AcDbLine
 10
6.629528684284626
 20
5.840884970740262
 30
0.0
 11
6.7136475507246
 21
5.840885
 31
0.0
  0
LINE
  5
18B1
330
1E
100
AcDbEntity
  8
OBJECT
100
AcDbLine
 10
6.815443686820073
 20
5.560970043182523
 30
0.0
 11
6.815443710273529
 21
5.645088840451071
 31
0.0
  0
LINE
  5
18B2
330
1E
100
AcDbEntity
  8
OBJECT
100
AcDbLine
 10
7.011239869822458
 20
5.840884999999998
 30
0.0
 11
7.09535870964309
 21
5.840884970740258
 31
0.0
  0
LINE
  5
18B3
330
1E
100
AcDbEntity
  8
OBJECT
100
AcDbLine
 10
7.095358709643091
 20
5.746885095006556
 30
0.0
 11
7.011239869822456
 21
5.746884999999998
 31
0.0
  0
LINE
  5
18B4
330
1E
100
AcDbEntity
  8
OBJECT
100
AcDbLine
 10
7.060358727299205
 20
5.840884982914586
 30
0.0
 11
7.060358727299205
 21
5.746885055476436
 31
0.0
  0
LINE
  5
18B5
330
1E
100
AcDbEntity
  8
OBJECT
100
AcDbLine
 10
7.095358709643091
 20
5.746885095006556
 30
0.0
 11
7.09535870964309
 21
5.840884970740258
 31
0.0
  0
LINE
  5
18B6
330
1E
100
AcDbEntity
  8
OBJECT
100
AcDbLine
 10
6.909443710273528
 20
5.645088840451071
 30
0.0
 11
6.909443813725935
 21
5.560970043182523
 31
0.0
  0
LINE
  5
18B7
330
1E
100
AcDbEntity
  8
OBJECT
100
AcDbLine
 10
6.909443813725901
 20
6.026799995208499
 30
0.0
 11
6.81544368682008
 21
6.026799995208499
 31
0.0
  0
LINE
  5
18B8
330
1E
100
AcDbEntity
  8
OBJECT
100
AcDbLine
 10
6.81544369657854
 20
5.991800012864615
 30
0.0
 11
6.909443770681662
 21
5.991800012864615
 31
0.0
  0
LINE
  5
18B9
330
1E
100
AcDbEntity
  8
OBJECT
100
AcDbLine
 10
6.815443710273529
 20
5.942681159548929
 30
0.0
 11
6.81544368682008
 21
6.026799995208499
 31
0.0
  0
LINE
  5
18BA
330
1E
100
AcDbEntity
  8
OBJECT
100
AcDbLine
 10
6.909443813725901
 20
6.026799995208499
 30
0.0
 11
6.909443710273529
 21
5.942681159548929
 31
0.0
  0
LINE
  5
18C7
330
1E
100
AcDbEntity
  8
HIDDEN
  6
HIDDEN2
100
AcDbLine
 10
6.909443770681662
 20
1.568188990179782
 30
0.0
 11
6.81544369657854
 21
1.568188990179782
 31
0.0
  0
LINE
  5
18C8
330
1E
100
AcDbEntity
  8
HIDDEN
  6
HIDDEN2
100
AcDbLine
 10
7.018399054674564
 20
1.578189
 30
0.0
 11
6.706488365872494
 21
1.578189
 31
0.0
  0
LINE
  5
18C9
330
1E
100
AcDbEntity
  8
HIDDEN
  6
HIDDEN2
100
AcDbLine
 10
6.81544369657854
 20
1.568188990179782
 30
0.0
 11
6.815443686761636
 21
1.400188999999999
 31
0.0
  0
LINE
  5
18CA
330
1E
100
AcDbEntity
  8
HIDDEN
  6
HIDDEN2
100
AcDbLine
 10
6.713647499203566
 20
1.568188990179782
 30
0.0
 11
6.71364755103313
 21
1.400188999999999
 31
0.0
  0
LINE
  5
18CB
330
1E
100
AcDbEntity
  8
HIDDEN
  6
HIDDEN2
100
AcDbLine
 10
6.629319089615301
 20
1.400188999999999
 30
0.0
 11
6.664528666628511
 21
1.568188990179782
 31
0.0
  0
LINE
  5
18CC
330
1E
100
AcDbEntity
  8
HIDDEN
  6
HIDDEN2
100
AcDbLine
 10
6.706488365872494
 20
1.578189
 30
0.0
 11
6.706401076248195
 21
1.568188990179782
 31
0.0
  0
LINE
  5
18CD
330
1E
100
AcDbEntity
  8
HIDDEN
  6
HIDDEN2
100
AcDbLine
 10
6.713647499203566
 20
1.568188990179782
 30
0.0
 11
6.664528666628511
 21
1.568188990179782
 31
0.0
  0
LINE
  5
18CE
330
1E
100
AcDbEntity
  8
HIDDEN
  6
HIDDEN2
100
AcDbLine
 10
7.095568304312415
 20
1.400188999999999
 30
0.0
 11
7.060358727299205
 21
1.568188990179782
 31
0.0
  0
LINE
  5
18CF
330
1E
100
AcDbEntity
  8
HIDDEN
  6
HIDDEN2
100
AcDbLine
 10
7.011239894724151
 20
1.568188990179782
 30
0.0
 11
7.011239869673334
 21
1.400188999999999
 31
0.0
  0
LINE
  5
18D0
330
1E
100
AcDbEntity
  8
HIDDEN
  6
HIDDEN2
100
AcDbLine
 10
6.909443770681662
 20
1.568188990179782
 30
0.0
 11
6.909443813983702
 21
1.400188999999999
 31
0.0
  0
LINE
  5
18D1
330
1E
100
AcDbEntity
  8
HIDDEN
  6
HIDDEN2
100
AcDbLine
 10
7.018486317679522
 20
1.568188990179782
 30
0.0
 11
7.018399054674564
 21
1.578189
 31
0.0
  0
LINE
  5
18D2
330
1E
100
AcDbEntity
  8
HIDDEN
  6
HIDDEN2
100
AcDbLine
 10
7.060358727299205
 20
1.568188990179782
 30
0.0
 11
7.011239894724151
 21
1.568188990179782
 31
0.0
  0
HATCH
  5
1939
330
1E
100
AcDbEntity
  8
OBJECT
 62
   151
100
AcDbHatch
 10
0.0
 20
0.0
 30
0.0
210
0.0
220
0.0
230
1.0
  2
ANSI31
 70
     0
 71
     1
 91
        3
 92
        7
 72
     1
 73
     1
 93
        9
 10
11.48754971027353
 20
11.334885
 42
0.0
 10
9.99754971027353
 20
11.334885
 42
0.0
 10
9.997549710273528
 20
11.314885
 42
0.0
 10
9.957549710273529
 20
11.314885
 42
0.0
 10
9.957549710273529
 20
11.269885
 42
0.0
 10
11.38054971027352
 20
11.269885
 42
0.0
 10
11.38054971027352
 20
11.181385
 42
0.0
 10
11.53754971027353
 20
11.181385
 42
0.0
 10
11.53754971027352
 20
11.284885
 42
0.4142135623730744
 97
        9
330
8A8
330
896
330
8B2
330
8B4
330
8B5
330
897
330
8AD
330
894
330
8AF
 92
        7
 72
     0
 73
     1
 93
       48
 10
11.53754971027352
 20
11.016385
 10
11.38054971027352
 20
11.016385
 10
11.38054971027352
 20
10.940135
 10
9.957549710273529
 20
10.940135
 10
9.957549710273529
 20
10.915107
 10
9.89754971027353
 20
10.915107
 10
9.89754971027353
 20
10.87513499999999
 10
11.38054971027352
 20
10.875135
 10
11.38054971027352
 20
10.81000959403888
 10
11.21254972009374
 20
10.77480001702567
 10
11.21254972009374
 20
10.73292760740599
 10
11.20254971027353
 20
10.73284034440103
 10
11.20254971027353
 20
10.670635
 10
11.42054971027353
 20
10.670635
 10
11.42054971027353
 20
10.483135
 10
11.20254971027353
 20
10.483135
 10
11.20254971027353
 20
10.42092965559896
 10
11.21254972009374
 20
10.42084236597466
 10
11.21254972009374
 20
10.37896995635498
 10
11.38054971027352
 20
10.34376037934177
 10
11.38054971027352
 20
9.523884999999999
 10
11.20254971027353
 20
9.523884999999998
 10
11.20254971027353
 20
9.411385
 10
11.42054971027353
 20
9.411385
 10
11.42054971027353
 20
9.321384999999999
 10
11.20254971027353
 20
9.321385000000002
 10
11.20254971027353
 20
9.208885
 10
11.38054971027353
 20
9.208885
 10
11.38054971027353
 20
8.230385
 10
11.42054971027353
 20
8.230385
 10
11.42054971027353
 20
8.140385
 10
11.38054971027353
 20
8.140385
 10
11.38054971027352
 20
7.049385
 10
11.42054971027352
 20
7.049385
 10
11.42054971027353
 20
6.959385000000001
 10
11.38054971027353
 20
6.959385000000001
 10
11.38054971027353
 20
5.887634999999999
 10
11.42054971027352
 20
5.887634999999999
 10
11.42054971027353
 20
5.700134999999999
 10
11.38054971027352
 20
5.700134999999998
 10
11.38054971027352
 20
5.495635
 10
9.897549710273528
 20
5.495635
 10
9.897549710273528
 20
5.455662000000001
 10
9.957549710273529
 20
5.455662
 10
9.95754971027353
 20
5.394635000000001
 10
10.27254971027353
 20
5.394635
 10
10.27254971027353
 20
5.424634999999997
 10
11.53754971027353
 20
5.424634999999998
 97
       42
330
8AE
330
897
330
8AA
330
8B4
330
8B0
330
893
330
8A9
330
8B6
330
184F
330
1857
330
185E
330
1842
330
6B4
330
6B7
330
6B3
330
184E
330
184D
330
1843
330
8B7
330
957
330
960
330
95A
330
95D
330
959
330
958
330
961
330
953
330
95C
330
954
330
94F
330
95B
330
950
330
8BA
330
8BC
330
8BB
330
89A
330
8A5
330
895
330
8A7
330
8A0
330
899
330
894
 92
        7
 72
     1
 73
     1
 93
        9
 10
11.53754971027352
 20
5.114634999999999
 42
0.0
 10
10.27254971027353
 20
5.114634999999999
 42
0.0
 10
10.27254971027353
 20
5.144635
 42
0.0
 10
9.95754971027353
 20
5.144635000000001
 42
0.0
 10
9.95754971027353
 20
5.055884999999999
 42
0.0
 10
9.997549710273528
 20
5.055884999999999
 42
0.0
 10
9.997549710273531
 20
5.035885
 42
0.0
 10
11.48754971027353
 20
5.035885
 42
0.4142135623730899
 10
11.53754971027352
 20
5.085885000000001
 42
0.0
 97
        9
330
89B
330
8A0
330
8A3
330
895
330
8A2
330
8B3
330
898
330
89C
330
894
 75
     0
 76
     1
 52
0.0
 41
1.0
 77
     0
 78
     1
 53
45.0
 43
0.0
 44
0.0
 45
-0.0883883476483184
 46
0.0883883476483185
 79
     0
 47
0.0122271554989088
 98
        3
 10
10.81538991373386
 20
11.31141334384347
 10
11.46395313743003
 20
9.098298198980074
 10
10.21577488205288
 20
5.087791166065024
  0
ENDSEC
  0
SECTION
  2
OBJECTS
  0
DICTIONARY
  5
C
330
0
100
AcDbDictionary
281
     1
  3
ACAD_GROUP
350
D
  3
ACAD_LAYOUT
350
19
  3
ACAD_MLINESTYLE
350
16
  3
ACAD_PLOTSETTINGS
350
18
  3
ACAD_PLOTSTYLENAME
350
E
  3
AcadDim
350
1448
  3
AcDbVariableDictionary
350
1061
  0
DICTIONARY
  5
D
102
{ACAD_REACTORS
330
C
102
}
330
C
100
AcDbDictionary
281
     1
  0
DICTIONARY
  5
19
102
{ACAD_REACTORS
330
C
102
}
330
C
100
AcDbDictionary
281
     1
  3
Layout1
350
1D
  3
Model
350
21
  0
DICTIONARY
  5
16
102
{ACAD_REACTORS
330
C
102
}
330
C
100
AcDbDictionary
281
     1
  3
Standard
350
17
  0
DICTIONARY
  5
18
102
{ACAD_REACTORS
330
C
102
}
330
C
100
AcDbDictionary
281
     1
  0
ACDBDICTIONARYWDFLT
  5
E
102
{ACAD_REACTORS
330
C
102
}
330
C
100
AcDbDictionary
281
     1
  3
Normal
350
F
100
AcDbDictionaryWithDefault
340
F
  0
XRECORD
  5
1448
102
{ACAD_REACTORS
330
C
102
}
330
C
100
AcDbXrecord
280
     1
 90
   990106
  3

 60
     0
 61
     0
 62
     1
 63
     1
 64
     0
 65
     0
 66
     0
 67
     3
 68
     1
 69
     0
 70
     0
 71
     0
 72
     0
 40
0.0
170
     2
340
167E
  0
DICTIONARY
  5
1061
102
{ACAD_REACTORS
330
C
102
}
330
C
100
AcDbDictionary
281
     1
  3
SORTENTS
350
1062
  0
LAYOUT
  5
1D
102
{ACAD_REACTORS
330
19
102
}
330
19
100
AcDbPlotSettings
  1

  2
C:\Program Files\ACAD2000\plotters\RICOH Aficio 1060 RPCS.pc3
  4

  6

 40
0.0
 41
0.0
 42
0.0
 43
0.0
 44
0.0
 45
0.0
 46
0.0
 47
0.0
 48
0.0
 49
0.0
140
0.0
141
0.0
142
1.0
143
1.0
 70
   688
 72
     0
 73
     0
 74
     5
  7
monochrome.ctb
 75
    16
147
1.0
148
0.0
149
0.0
100
AcDbLayout
  1
Layout1
 70
     1
 71
     1
 10
0.0
 20
0.0
 11
12.0
 21
9.0
 12
0.0
 22
0.0
 32
0.0
 14
1.000000000000000E+20
 24
1.000000000000000E+20
 34
1.000000000000000E+20
 15
-1.000000000000000E+20
 25
-1.000000000000000E+20
 35
-1.000000000000000E+20
146
0.0
 13
0.0
 23
0.0
 33
0.0
 16
1.0
 26
0.0
 36
0.0
 17
0.0
 27
1.0
 37
0.0
 76
     0
330
1A
  0
LAYOUT
  5
21
102
{ACAD_REACTORS
330
19
102
}
330
19
100
AcDbPlotSettings
  1

  2
Acrobat PDFWriter
  4
Tabloid
  6

 40
3.174999952316284
 41
3.174999952316284
 42
3.17498779296875
 43
3.17498779296875
 44
431.8000183105469
 45
279.3999938964843
 46
0.0
 47
4.064
 48
0.0
 49
0.0
140
0.0
141
0.0
142
1.0
143
1.734460540734756
 70
 11956
 72
     0
 73
     0
 74
     1
  7
monochrome.ctb
 75
     0
147
0.576548140770258
148
0.0562864226278791
149
0.035019648969957
100
AcDbLayout
  1
Model
 70
     1
 71
     0
 10
0.0
 20
0.0
 11
12.0
 21
9.0
 12
0.0
 22
0.0
 32
0.0
 14
0.0
 24
0.0
 34
0.0
 15
0.0
 25
0.0
 35
0.0
146
0.0
 13
0.0
 23
0.0
 33
0.0
 16
1.0
 26
0.0
 36
0.0
 17
0.0
 27
1.0
 37
0.0
 76
     0
330
1E
  0
MLINESTYLE
  5
17
102
{ACAD_REACTORS
330
16
102
}
330
16
100
AcDbMlineStyle
  2
STANDARD
 70
     0
  3

 62
   256
 51
90.0
 52
90.0
 71
     2
 49
0.5
 62
   256
  6
BYLAYER
 49
-0.5
 62
   256
  6
BYLAYER
  0
ACDBPLACEHOLDER
  5
F
102
{ACAD_REACTORS
330
E
102
}
330
E
  0
DICTIONARYVAR
  5
1062
102
{ACAD_REACTORS
330
1061
102
}
330
1061
100
DictionaryVariables
280
     0
  1
96
  0
ENDSEC
  0
EOF
