  0
SECTION
  2
HEADER
  9
$ACADVER
  1
AC1015
  9
$ACADMAINTVER
 70
     6
  9
$DWGCODEPAGE
  3
ANSI_1252
  9
$INSBASE
 10
0.0
 20
0.0
 30
0.0
  9
$EXTMIN
 10
0.0
 20
0.0
 30
-0.00000001
  9
$EXTMAX
 10
29.04999999999999
 20
18.07399999999999
 30
0.00000001
  9
$LIMMIN
 10
0.0
 20
0.0
  9
$LIMMAX
 10
27.125
 20
17.71
  9
$ORTHOMODE
 70
     1
  9
$REGENMODE
 70
     1
  9
$FILLMODE
 70
     1
  9
$QTEXTMODE
 70
     0
  9
$MIRRTEXT
 70
     0
  9
$LTSCALE
 40
0.5
  9
$ATTMODE
 70
     1
  9
$TEXTSIZE
 40
0.2
  9
$TRACEWID
 40
0.05
  9
$TEXTSTYLE
  7
TXT
  9
$CLAYER
  8
OBJECT
  9
$CELTYPE
  6
ByLayer
  9
$CECOLOR
 62
   256
  9
$CELTSCALE
 40
1.0
  9
$DISPSILH
 70
     0
  9
$DIMSCALE
 40
1.75
  9
$DIMASZ
 40
0.18
  9
$DIMEXO
 40
0.063
  9
$DIMDLI
 40
0.281
  9
$DIMRND
 40
0.0
  9
$DIMDLE
 40
0.0
  9
$DIMEXE
 40
0.093
  9
$DIMTP
 40
0.0
  9
$DIMTM
 40
0.0
  9
$DIMTXT
 40
0.125
  9
$DIMCEN
 40
0.09
  9
$DIMTSZ
 40
0.0
  9
$DIMTOL
 70
     0
  9
$DIMLIM
 70
     0
  9
$DIMTIH
 70
     1
  9
$DIMTOH
 70
     1
  9
$DIMSE1
 70
     0
  9
$DIMSE2
 70
     0
  9
$DIMTAD
 70
     0
  9
$DIMZIN
 70
     0
  9
$DIMBLK
  1

  9
$DIMASO
 70
     1
  9
$DIMSHO
 70
     1
  9
$DIMPOST
  1

  9
$DIMAPOST
  1

  9
$DIMALT
 70
     0
  9
$DIMALTD
 70
     2
  9
$DIMALTF
 40
25.4
  9
$DIMLFAC
 40
1.0
  9
$DIMTOFL
 70
     0
  9
$DIMTVP
 40
0.0
  9
$DIMTIX
 70
     0
  9
$DIMSOXD
 70
     0
  9
$DIMSAH
 70
     0
  9
$DIMBLK1
  1

  9
$DIMBLK2
  1

  9
$DIMSTYLE
  2
23NSTD
  9
$DIMCLRD
 70
     0
  9
$DIMCLRE
 70
     0
  9
$DIMCLRT
 70
     0
  9
$DIMTFAC
 40
1.0
  9
$DIMGAP
 40
0.09
  9
$DIMJUST
 70
     0
  9
$DIMSD1
 70
     0
  9
$DIMSD2
 70
     0
  9
$DIMTOLJ
 70
     1
  9
$DIMTZIN
 70
     0
  9
$DIMALTZ
 70
     0
  9
$DIMALTTZ
 70
     0
  9
$DIMUPT
 70
     0
  9
$DIMDEC
 70
     3
  9
$DIMTDEC
 70
     3
  9
$DIMALTU
 70
     2
  9
$DIMALTTD
 70
     2
  9
$DIMTXSTY
  7
TXT
  9
$DIMAUNIT
 70
     0
  9
$DIMADEC
 70
     0
  9
$DIMALTRND
 40
0.0
  9
$DIMAZIN
 70
     0
  9
$DIMDSEP
 70
    46
  9
$DIMATFIT
 70
     1
  9
$DIMFRAC
 70
     0
  9
$DIMLDRBLK
  1

  9
$DIMLUNIT
 70
     2
  9
$DIMLWD
 70
    -2
  9
$DIMLWE
 70
    -2
  9
$DIMTMOVE
 70
     0
  9
$LUNITS
 70
     2
  9
$LUPREC
 70
     3
  9
$SKETCHINC
 40
0.1
  9
$FILLETRAD
 40
0.0
  9
$AUNITS
 70
     0
  9
$AUPREC
 70
     0
  9
$MENU
  1
acad
  9
$ELEVATION
 40
0.0
  9
$PELEVATION
 40
0.0
  9
$THICKNESS
 40
0.0
  9
$LIMCHECK
 70
     0
  9
$CHAMFERA
 40
0.0
  9
$CHAMFERB
 40
0.0
  9
$CHAMFERC
 40
0.0
  9
$CHAMFERD
 40
0.0
  9
$SKPOLY
 70
     0
  9
$TDCREATE
 40
2450114.480140972
  9
$TDUCREATE
 40
2450114.688474305
  9
$TDUPDATE
 40
2454788.497465810
  9
$TDUUPDATE
 40
2454788.705799143
  9
$TDINDWG
 40
0.1885816319
  9
$TDUSRTIMER
 40
0.1885816319
  9
$USRTIMER
 70
     1
  9
$ANGBASE
 50
0.0
  9
$ANGDIR
 70
     0
  9
$PDMODE
 70
     0
  9
$PDSIZE
 40
0.0
  9
$PLINEWID
 40
0.0
  9
$SPLFRAME
 70
     0
  9
$SPLINETYPE
 70
     6
  9
$SPLINESEGS
 70
     8
  9
$HANDSEED
  5
1BF2
  9
$SURFTAB1
 70
     6
  9
$SURFTAB2
 70
     6
  9
$SURFTYPE
 70
     6
  9
$SURFU
 70
     6
  9
$SURFV
 70
     6
  9
$UCSBASE
  2

  9
$UCSNAME
  2

  9
$UCSORG
 10
0.0
 20
0.0
 30
0.0
  9
$UCSXDIR
 10
1.0
 20
0.0
 30
0.0
  9
$UCSYDIR
 10
0.0
 20
1.0
 30
0.0
  9
$UCSORTHOREF
  2

  9
$UCSORTHOVIEW
 70
     0
  9
$UCSORGTOP
 10
0.0
 20
0.0
 30
0.0
  9
$UCSORGBOTTOM
 10
0.0
 20
0.0
 30
0.0
  9
$UCSORGLEFT
 10
0.0
 20
0.0
 30
0.0
  9
$UCSORGRIGHT
 10
0.0
 20
0.0
 30
0.0
  9
$UCSORGFRONT
 10
0.0
 20
0.0
 30
0.0
  9
$UCSORGBACK
 10
0.0
 20
0.0
 30
0.0
  9
$PUCSBASE
  2

  9
$PUCSNAME
  2

  9
$PUCSORG
 10
0.0
 20
0.0
 30
0.0
  9
$PUCSXDIR
 10
1.0
 20
0.0
 30
0.0
  9
$PUCSYDIR
 10
0.0
 20
1.0
 30
0.0
  9
$PUCSORTHOREF
  2

  9
$PUCSORTHOVIEW
 70
     0
  9
$PUCSORGTOP
 10
0.0
 20
0.0
 30
0.0
  9
$PUCSORGBOTTOM
 10
0.0
 20
0.0
 30
0.0
  9
$PUCSORGLEFT
 10
0.0
 20
0.0
 30
0.0
  9
$PUCSORGRIGHT
 10
0.0
 20
0.0
 30
0.0
  9
$PUCSORGFRONT
 10
0.0
 20
0.0
 30
0.0
  9
$PUCSORGBACK
 10
0.0
 20
0.0
 30
0.0
  9
$USERI1
 70
     0
  9
$USERI2
 70
     0
  9
$USERI3
 70
     0
  9
$USERI4
 70
     0
  9
$USERI5
 70
     0
  9
$USERR1
 40
0.0
  9
$USERR2
 40
0.0
  9
$USERR3
 40
0.0
  9
$USERR4
 40
0.0
  9
$USERR5
 40
0.0
  9
$WORLDVIEW
 70
     1
  9
$SHADEDGE
 70
     3
  9
$SHADEDIF
 70
    70
  9
$TILEMODE
 70
     1
  9
$MAXACTVP
 70
    16
  9
$PINSBASE
 10
0.0
 20
0.0
 30
0.0
  9
$PLIMCHECK
 70
     0
  9
$PEXTMIN
 10
1.000000000000000E+20
 20
1.000000000000000E+20
 30
1.000000000000000E+20
  9
$PEXTMAX
 10
-1.000000000000000E+20
 20
-1.000000000000000E+20
 30
-1.000000000000000E+20
  9
$PLIMMIN
 10
0.0
 20
0.0
  9
$PLIMMAX
 10
12.0
 20
9.0
  9
$UNITMODE
 70
     0
  9
$VISRETAIN
 70
     0
  9
$PLINEGEN
 70
     0
  9
$PSLTSCALE
 70
     1
  9
$TREEDEPTH
 70
  3020
  9
$CMLSTYLE
  2
Standard
  9
$CMLJUST
 70
     0
  9
$CMLSCALE
 40
1.0
  9
$PROXYGRAPHICS
 70
     1
  9
$MEASUREMENT
 70
     0
  9
$CELWEIGHT
370
    -1
  9
$ENDCAPS
280
     0
  9
$JOINSTYLE
280
     0
  9
$LWDISPLAY
290
     0
  9
$INSUNITS
 70
     0
  9
$HYPERLINKBASE
  1

  9
$STYLESHEET
  1
monochrome.ctb
  9
$XEDIT
290
     1
  9
$CEPSNTYPE
380
     0
  9
$PSTYLEMODE
290
     1
  9
$FINGERPRINTGUID
  2
{38991C96-E974-41DE-AE25-D9A2E8BEFB40}
  9
$VERSIONGUID
  2
{062CA21A-6E58-4CD3-BECA-9DFA733076E6}
  9
$EXTNAMES
290
     1
  9
$PSVPSCALE
 40
0.0
  9
$OLESTARTUP
290
     0
  0
ENDSEC
  0
SECTION
  2
CLASSES
  0
CLASS
  1
ACDBDICTIONARYWDFLT
  2
AcDbDictionaryWithDefault
  3
AutoCAD 2000
 90
        0
280
     0
281
     0
  0
CLASS
  1
ACDBPLACEHOLDER
  2
AcDbPlaceHolder
  3
AutoCAD 2000
 90
        0
280
     0
281
     0
  0
CLASS
  1
LAYOUT
  2
AcDbLayout
  3
AutoCAD 2000
 90
        0
280
     0
281
     0
  0
CLASS
  1
DICTIONARYVAR
  2
AcDbDictionaryVar
  3
AutoCAD 2000
 90
        0
280
     0
281
     0
  0
ENDSEC
  0
SECTION
  2
TABLES
  0
TABLE
  2
VPORT
  5
8
330
0
100
AcDbSymbolTable
 70
     2
  0
VPORT
  5
1BF1
330
8
100
AcDbSymbolTableRecord
100
AcDbViewportTableRecord
  2
*Active
 70
     0
 10
0.0
 20
0.0
 11
1.0
 21
1.0
 12
14.52500027471367
 22
9.037000170918236
 13
0.0
 23
0.0
 14
1.0
 24
1.0
 15
0.25
 25
0.25
 16
0.0
 26
0.0
 36
1.0
 17
0.0
 27
0.0
 37
0.0
 40
18.27429311236324
 41
1.796327212020033
 42
50.0
 43
0.0
 44
0.0
 50
0.0
 51
0.0
 71
     0
 72
   500
 73
     1
 74
     0
 75
     0
 76
     0
 77
     0
 78
     0
281
     0
 65
     1
110
0.0
120
0.0
130
0.0
111
1.0
121
0.0
131
0.0
112
0.0
122
1.0
132
0.0
 79
     0
146
0.0
  0
ENDTAB
  0
TABLE
  2
LTYPE
  5
5
330
0
100
AcDbSymbolTable
 70
     6
  0
LTYPE
  5
13
330
5
100
AcDbSymbolTableRecord
100
AcDbLinetypeTableRecord
  2
ByBlock
 70
     0
  3

 72
    65
 73
     0
 40
0.0
  0
LTYPE
  5
14
330
5
100
AcDbSymbolTableRecord
100
AcDbLinetypeTableRecord
  2
ByLayer
 70
     0
  3

 72
    65
 73
     0
 40
0.0
  0
LTYPE
  5
15
330
5
100
AcDbSymbolTableRecord
100
AcDbLinetypeTableRecord
  2
CONTINUOUS
 70
     0
  3
Solid line
 72
    65
 73
     0
 40
0.0
  0
LTYPE
  5
25
330
5
100
AcDbSymbolTableRecord
100
AcDbLinetypeTableRecord
  2
HIDDEN
 70
     0
  3
_ _ _ _ _ _ _ _ _ _ _ _ _ _ _ _ _ _ _ _ _ _ _
 72
    65
 73
     2
 40
0.375
 49
0.25
 74
     0
 49
-0.125
 74
     0
  0
LTYPE
  5
26
330
5
100
AcDbSymbolTableRecord
100
AcDbLinetypeTableRecord
  2
PHANTOM
 70
     0
  3
_____ _ _ _____ _ _ _____ _ _ _____ _ _ ____
 72
    65
 73
     6
 40
2.5
 49
1.25
 74
     0
 49
-0.25
 74
     0
 49
0.25
 74
     0
 49
-0.25
 74
     0
 49
0.25
 74
     0
 49
-0.25
 74
     0
  0
LTYPE
  5
1751
330
5
100
AcDbSymbolTableRecord
100
AcDbLinetypeTableRecord
  2
HIDDEN2
 70
     0
  3
Hidden (.5x) _ _ _ _ _ _ _ _ _ _ _ _ _ _ _ _ _
 72
    65
 73
     2
 40
0.1875
 49
0.125
 74
     0
 49
-0.0625
 74
     0
  0
LTYPE
  5
1A5F
330
5
100
AcDbSymbolTableRecord
100
AcDbLinetypeTableRecord
  2
CENTER
 70
     0
  3
____ _ ____ _ ____ _ ____ _ ____ _ ____ _ ____
 72
    65
 73
     4
 40
2.0
 49
1.25
 74
     0
 49
-0.25
 74
     0
 49
0.25
 74
     0
 49
-0.25
 74
     0
  0
LTYPE
  5
1A60
330
5
100
AcDbSymbolTableRecord
100
AcDbLinetypeTableRecord
  2
PHANTOM2
 70
     0
  3
___ _ _ ___ _ _ ___ _ _ ___ _ _ ___ _ _ ___ _ _
 72
    65
 73
     6
 40
1.25
 49
0.625
 74
     0
 49
-0.125
 74
     0
 49
0.125
 74
     0
 49
-0.125
 74
     0
 49
0.125
 74
     0
 49
-0.125
 74
     0
  0
ENDTAB
  0
TABLE
  2
LAYER
  5
2
330
0
100
AcDbSymbolTable
 70
     9
  0
LAYER
  5
10
330
2
100
AcDbSymbolTableRecord
100
AcDbLayerTableRecord
  2
0
 70
     0
 62
     7
  6
CONTINUOUS
370
    -3
390
F
  0
LAYER
  5
22
330
2
100
AcDbSymbolTableRecord
100
AcDbLayerTableRecord
  2
OBJECT
 70
     0
 62
     7
  6
CONTINUOUS
370
    -3
390
F
  0
LAYER
  5
27
330
2
100
AcDbSymbolTableRecord
100
AcDbLayerTableRecord
  2
DIM
 70
     0
 62
     2
  6
CONTINUOUS
370
    -3
390
F
  0
LAYER
  5
28
330
2
100
AcDbSymbolTableRecord
100
AcDbLayerTableRecord
  2
HIDDEN
 70
     0
 62
     6
  6
HIDDEN
370
    -3
390
F
  0
LAYER
  5
29
330
2
100
AcDbSymbolTableRecord
100
AcDbLayerTableRecord
  2
BEND
 70
     0
 62
     4
  6
PHANTOM
370
    -3
390
F
  0
LAYER
  5
2A
330
2
100
AcDbSymbolTableRecord
100
AcDbLayerTableRecord
  2
TEXT
 70
     0
 62
     1
  6
CONTINUOUS
370
    -3
390
F
  0
LAYER
  5
2B
330
2
100
AcDbSymbolTableRecord
100
AcDbLayerTableRecord
  2
TITLE
 70
     0
 62
     8
  6
CONTINUOUS
370
    -3
390
F
  0
LAYER
  5
2C
330
2
100
AcDbSymbolTableRecord
100
AcDbLayerTableRecord
  2
DEFPOINTS
 70
     0
 62
     7
  6
CONTINUOUS
290
     0
370
    -3
390
F
  0
LAYER
  5
1A61
330
2
100
AcDbSymbolTableRecord
100
AcDbLayerTableRecord
  2
CENTER
 70
     0
 62
     3
  6
CENTER
370
    -3
390
F
  0
ENDTAB
  0
TABLE
  2
STYLE
  5
3
330
0
100
AcDbSymbolTable
 70
     2
  0
STYLE
  5
11
330
3
100
AcDbSymbolTableRecord
100
AcDbTextStyleTableRecord
  2
TXT
 70
     0
 40
0.0
 41
0.75
 50
0.0
 71
     0
 42
0.2
  3
txt.shx
  4

  0
STYLE
  5
2D
330
3
100
AcDbSymbolTableRecord
100
AcDbTextStyleTableRecord
  2
SECTION
 70
     0
 40
0.0
 41
0.8
 50
0.0
 71
     0
 42
0.2
  3
ROMANT.SHX
  4

  0
ENDTAB
  0
TABLE
  2
VIEW
  5
6
330
0
100
AcDbSymbolTable
 70
     0
  0
ENDTAB
  0
TABLE
  2
UCS
  5
7
330
0
100
AcDbSymbolTable
 70
     0
  0
ENDTAB
  0
TABLE
  2
APPID
  5
9
330
0
100
AcDbSymbolTable
 70
     1
  0
APPID
  5
12
330
9
100
AcDbSymbolTableRecord
100
AcDbRegAppTableRecord
  2
ACAD
 70
     0
  0
ENDTAB
  0
TABLE
  2
DIMSTYLE
  5
A
330
0
100
AcDbSymbolTable
 70
     4
100
AcDbDimStyleTable
 71
     4
340
2F
340
2E
340
31
340
30
  0
DIMSTYLE
105
2E
102
{ACAD_REACTORS
330
687
330
695
330
6A3
330
6B1
330
6BF
330
6CD
330
6E3
330
76A
330
795
330
7A3
330
7B1
330
7BF
330
7CD
330
7DB
330
7E9
330
7F7
330
821
330
83D
330
84B
330
859
330
867
330
875
330
906
330
965
330
981
330
98F
330
9AB
330
9BF
330
9CD
330
9DB
330
A49
330
A57
330
1518
330
1754
330
1756
330
1762
102
}
330
A
100
AcDbSymbolTableRecord
100
AcDbDimStyleTableRecord
  2
23NSTD
 70
     0
 40
1.75
 42
0.063
 43
0.281
 44
0.093
140
0.125
271
     3
272
     3
289
     1
340
11
  0
DIMSTYLE
105
2F
102
{ACAD_REACTORS
330
75C
330
805
330
813
330
82F
330
973
330
99D
330
9FD
330
A0B
102
}
330
A
100
AcDbSymbolTableRecord
100
AcDbDimStyleTableRecord
  2
23NSTDI
 70
     0
 40
1.75
 42
0.063
 43
0.281
 44
0.093
140
0.125
174
     1
271
     3
272
     3
340
11
  0
DIMSTYLE
105
30
102
{ACAD_REACTORS
330
AAC
330
B17
102
}
330
A
100
AcDbSymbolTableRecord
100
AcDbDimStyleTableRecord
  2
23NSTD4
 70
     0
 40
1.75
 42
0.063
 43
0.281
 44
0.093
140
0.125
144
0.25
271
     3
272
     3
289
     1
340
11
  0
DIMSTYLE
105
31
102
{ACAD_REACTORS
330
AFB
330
B09
330
B25
102
}
330
A
100
AcDbSymbolTableRecord
100
AcDbDimStyleTableRecord
  2
23NSTD4I
 70
     0
 40
1.75
 42
0.063
 43
0.281
 44
0.093
140
0.125
144
0.25
174
     1
271
     3
272
     3
340
11
  0
ENDTAB
  0
TABLE
  2
BLOCK_RECORD
  5
1
330
0
100
AcDbSymbolTable
 70
    47
  0
BLOCK_RECORD
  5
1E
330
1
100
AcDbSymbolTableRecord
100
AcDbBlockTableRecord
  2
*Model_Space
340
21
  0
BLOCK_RECORD
  5
1A
330
1
100
AcDbSymbolTableRecord
100
AcDbBlockTableRecord
  2
*Paper_Space
340
1D
  0
BLOCK_RECORD
  5
34
330
1
100
AcDbSymbolTableRecord
100
AcDbBlockTableRecord
  2
SECTION
340
0
102
{BLKREFS
331
6FB
331
6FE
331
8F4
331
903
102
}
  0
BLOCK_RECORD
  5
688
330
1
100
AcDbSymbolTableRecord
100
AcDbBlockTableRecord
  2
*D1
340
0
  0
BLOCK_RECORD
  5
696
330
1
100
AcDbSymbolTableRecord
100
AcDbBlockTableRecord
  2
*D2
340
0
  0
BLOCK_RECORD
  5
6A4
330
1
100
AcDbSymbolTableRecord
100
AcDbBlockTableRecord
  2
*D3
340
0
  0
BLOCK_RECORD
  5
6B2
330
1
100
AcDbSymbolTableRecord
100
AcDbBlockTableRecord
  2
*D4
340
0
  0
BLOCK_RECORD
  5
6C0
330
1
100
AcDbSymbolTableRecord
100
AcDbBlockTableRecord
  2
*D5
340
0
  0
BLOCK_RECORD
  5
6CE
330
1
100
AcDbSymbolTableRecord
100
AcDbBlockTableRecord
  2
*D6
340
0
  0
BLOCK_RECORD
  5
6E4
330
1
100
AcDbSymbolTableRecord
100
AcDbBlockTableRecord
  2
*D7
340
0
  0
BLOCK_RECORD
  5
75D
330
1
100
AcDbSymbolTableRecord
100
AcDbBlockTableRecord
  2
*D8
340
0
  0
BLOCK_RECORD
  5
76B
330
1
100
AcDbSymbolTableRecord
100
AcDbBlockTableRecord
  2
*D9
340
0
  0
BLOCK_RECORD
  5
796
330
1
100
AcDbSymbolTableRecord
100
AcDbBlockTableRecord
  2
*D10
340
0
  0
BLOCK_RECORD
  5
7A4
330
1
100
AcDbSymbolTableRecord
100
AcDbBlockTableRecord
  2
*D11
340
0
  0
BLOCK_RECORD
  5
7B2
330
1
100
AcDbSymbolTableRecord
100
AcDbBlockTableRecord
  2
*D12
340
0
  0
BLOCK_RECORD
  5
7C0
330
1
100
AcDbSymbolTableRecord
100
AcDbBlockTableRecord
  2
*D13
340
0
  0
BLOCK_RECORD
  5
7CE
330
1
100
AcDbSymbolTableRecord
100
AcDbBlockTableRecord
  2
*D14
340
0
  0
BLOCK_RECORD
  5
7DC
330
1
100
AcDbSymbolTableRecord
100
AcDbBlockTableRecord
  2
*D15
340
0
  0
BLOCK_RECORD
  5
7EA
330
1
100
AcDbSymbolTableRecord
100
AcDbBlockTableRecord
  2
*D16
340
0
  0
BLOCK_RECORD
  5
7F8
330
1
100
AcDbSymbolTableRecord
100
AcDbBlockTableRecord
  2
*D17
340
0
  0
BLOCK_RECORD
  5
806
330
1
100
AcDbSymbolTableRecord
100
AcDbBlockTableRecord
  2
*D18
340
0
  0
BLOCK_RECORD
  5
814
330
1
100
AcDbSymbolTableRecord
100
AcDbBlockTableRecord
  2
*D19
340
0
  0
BLOCK_RECORD
  5
822
330
1
100
AcDbSymbolTableRecord
100
AcDbBlockTableRecord
  2
*D20
340
0
  0
BLOCK_RECORD
  5
830
330
1
100
AcDbSymbolTableRecord
100
AcDbBlockTableRecord
  2
*D21
340
0
  0
BLOCK_RECORD
  5
83E
330
1
100
AcDbSymbolTableRecord
100
AcDbBlockTableRecord
  2
*D22
340
0
  0
BLOCK_RECORD
  5
84C
330
1
100
AcDbSymbolTableRecord
100
AcDbBlockTableRecord
  2
*D23
340
0
  0
BLOCK_RECORD
  5
85A
330
1
100
AcDbSymbolTableRecord
100
AcDbBlockTableRecord
  2
*D24
340
0
  0
BLOCK_RECORD
  5
868
330
1
100
AcDbSymbolTableRecord
100
AcDbBlockTableRecord
  2
*D25
340
0
  0
BLOCK_RECORD
  5
876
330
1
100
AcDbSymbolTableRecord
100
AcDbBlockTableRecord
  2
*D26
340
0
  0
BLOCK_RECORD
  5
907
330
1
100
AcDbSymbolTableRecord
100
AcDbBlockTableRecord
  2
*D27
340
0
  0
BLOCK_RECORD
  5
966
330
1
100
AcDbSymbolTableRecord
100
AcDbBlockTableRecord
  2
*D28
340
0
  0
BLOCK_RECORD
  5
974
330
1
100
AcDbSymbolTableRecord
100
AcDbBlockTableRecord
  2
*D29
340
0
  0
BLOCK_RECORD
  5
982
330
1
100
AcDbSymbolTableRecord
100
AcDbBlockTableRecord
  2
*D30
340
0
  0
BLOCK_RECORD
  5
990
330
1
100
AcDbSymbolTableRecord
100
AcDbBlockTableRecord
  2
*D31
340
0
  0
BLOCK_RECORD
  5
99E
330
1
100
AcDbSymbolTableRecord
100
AcDbBlockTableRecord
  2
*D32
340
0
  0
BLOCK_RECORD
  5
9AC
330
1
100
AcDbSymbolTableRecord
100
AcDbBlockTableRecord
  2
*D33
340
0
  0
BLOCK_RECORD
  5
9C0
330
1
100
AcDbSymbolTableRecord
100
AcDbBlockTableRecord
  2
*D34
340
0
  0
BLOCK_RECORD
  5
9CE
330
1
100
AcDbSymbolTableRecord
100
AcDbBlockTableRecord
  2
*D35
340
0
  0
BLOCK_RECORD
  5
9DC
330
1
100
AcDbSymbolTableRecord
100
AcDbBlockTableRecord
  2
*D36
340
0
  0
BLOCK_RECORD
  5
9FE
330
1
100
AcDbSymbolTableRecord
100
AcDbBlockTableRecord
  2
*D37
340
0
  0
BLOCK_RECORD
  5
A0C
330
1
100
AcDbSymbolTableRecord
100
AcDbBlockTableRecord
  2
*D38
340
0
  0
BLOCK_RECORD
  5
A4A
330
1
100
AcDbSymbolTableRecord
100
AcDbBlockTableRecord
  2
*D39
340
0
  0
BLOCK_RECORD
  5
A58
330
1
100
AcDbSymbolTableRecord
100
AcDbBlockTableRecord
  2
*D40
340
0
  0
BLOCK_RECORD
  5
AAD
330
1
100
AcDbSymbolTableRecord
100
AcDbBlockTableRecord
  2
*D41
340
0
  0
BLOCK_RECORD
  5
AFC
330
1
100
AcDbSymbolTableRecord
100
AcDbBlockTableRecord
  2
*D42
340
0
  0
BLOCK_RECORD
  5
B0A
330
1
100
AcDbSymbolTableRecord
100
AcDbBlockTableRecord
  2
*D43
340
0
  0
BLOCK_RECORD
  5
B18
330
1
100
AcDbSymbolTableRecord
100
AcDbBlockTableRecord
  2
*D44
340
0
  0
BLOCK_RECORD
  5
B26
330
1
100
AcDbSymbolTableRecord
100
AcDbBlockTableRecord
  2
*D45
340
0
  0
BLOCK_RECORD
  5
1A62
330
1
100
AcDbSymbolTableRecord
100
AcDbBlockTableRecord
  2
HBS
340
0
102
{BLKREFS
331
1A7B
102
}
  0
ENDTAB
  0
ENDSEC
  0
SECTION
  2
BLOCKS
  0
BLOCK
  5
1F
330
1E
100
AcDbEntity
  8
0
100
AcDbBlockBegin
  2
*Model_Space
 70
     0
 10
0.0
 20
0.0
 30
0.0
  3
*Model_Space
  1

  0
ENDBLK
  5
20
330
1E
100
AcDbEntity
  8
0
100
AcDbBlockEnd
  0
BLOCK
  5
1B
330
1A
100
AcDbEntity
 67
     1
  8
0
100
AcDbBlockBegin
  2
*Paper_Space
 70
     0
 10
0.0
 20
0.0
 30
0.0
  3
*Paper_Space
  1

  0
ENDBLK
  5
1C
330
1A
100
AcDbEntity
 67
     1
  8
0
100
AcDbBlockEnd
  0
BLOCK
  5
35
330
34
100
AcDbEntity
  8
0
100
AcDbBlockBegin
  2
SECTION
 70
     2
 10
0.0
 20
0.0
 30
0.0
  3
SECTION
  1

  0
ATTDEF
  5
36
330
34
100
AcDbEntity
  8
0
100
AcDbText
 10
0.0
 20
0.0
 30
0.0
 40
0.25
  1

 50
270.0
 41
0.8
  7
SECTION
 72
     4
 11
0.0
 21
0.0
 31
0.0
100
AcDbAttributeDefinition
  3
Enter section
  2
SECTION
 70
     0
  0
ENDBLK
  5
37
330
34
100
AcDbEntity
  8
0
100
AcDbBlockEnd
  0
BLOCK
  5
693
330
688
100
AcDbEntity
  8
0
100
AcDbBlockBegin
  2
*D1
 70
     1
 10
0.0
 20
0.0
 30
0.0
  3
*D1
  1

  0
LINE
  5
1897
330
688
100
AcDbEntity
  8
DIM
 62
     0
370
    -2
100
AcDbLine
 10
20.33018136172021
 20
11.099588
 30
0.0
 11
21.12986936172021
 21
11.099588
 31
0.0
  0
LINE
  5
1898
330
688
100
AcDbEntity
  8
DIM
 62
     0
370
    -2
100
AcDbLine
 10
20.34743136172021
 20
11.335588
 30
0.0
 11
21.12986936172021
 21
11.335588
 31
0.0
  0
LINE
  5
1899
330
688
100
AcDbEntity
  8
DIM
 62
     0
370
    -2
100
AcDbLine
 10
20.96711936172021
 20
10.784588
 30
0.0
 11
20.96711936172021
 21
10.469588
 31
0.0
  0
LINE
  5
189A
330
688
100
AcDbEntity
  8
DIM
 62
     0
370
    -2
100
AcDbLine
 10
20.96711936172021
 20
11.650588
 30
0.0
 11
20.96711936172021
 21
11.965588
 31
0.0
  0
LINE
  5
189B
330
688
100
AcDbEntity
  8
DIM
 62
     0
370
    -2
100
AcDbLine
 10
20.96711936172021
 20
11.965588
 30
0.0
 11
21.28211936172021
 21
11.965588
 31
0.0
  0
SOLID
  5
189C
330
688
100
AcDbEntity
  8
DIM
 62
     0
100
AcDbTrace
 10
20.91461936172021
 20
10.784588
 30
0.0
 11
21.0196193617202
 21
10.784588
 31
0.0
 12
20.96711936172021
 22
11.099588
 32
0.0
 13
20.96711936172021
 23
11.099588
 33
0.0
  0
SOLID
  5
189D
330
688
100
AcDbEntity
  8
DIM
 62
     0
100
AcDbTrace
 10
20.91461936172021
 20
11.650588
 30
0.0
 11
21.0196193617202
 21
11.650588
 31
0.0
 12
20.96711936172021
 22
11.335588
 32
0.0
 13
20.96711936172021
 23
11.335588
 33
0.0
  0
MTEXT
  5
189E
330
688
100
AcDbEntity
  8
DIM
 62
     0
100
AcDbMText
 10
21.75407248672021
 20
11.965588
 30
0.0
 40
0.21875
 41
0.0
 71
     5
 72
     1
  1
\A1;0.236
 73
     1
 44
1.0
  0
POINT
  5
189F
330
688
100
AcDbEntity
  8
DEFPOINTS
 62
     0
100
AcDbPoint
 10
20.21993136172021
 20
11.099588
 30
0.0
  0
POINT
  5
18A0
330
688
100
AcDbEntity
  8
DEFPOINTS
 62
     0
100
AcDbPoint
 10
20.23718136172021
 20
11.335588
 30
0.0
  0
POINT
  5
18A1
330
688
100
AcDbEntity
  8
DEFPOINTS
 62
     0
100
AcDbPoint
 10
20.96711936172021
 20
11.335588
 30
0.0
  0
ENDBLK
  5
694
330
688
100
AcDbEntity
  8
0
100
AcDbBlockEnd
  0
BLOCK
  5
6A1
330
696
100
AcDbEntity
  8
0
100
AcDbBlockBegin
  2
*D2
 70
     1
 10
0.0
 20
0.0
 30
0.0
  3
*D2
  1

  0
LINE
  5
18A2
330
696
100
AcDbEntity
  8
DIM
 62
     0
370
    -2
100
AcDbLine
 10
20.33018136172021
 20
5.272587999999999
 30
0.0
 11
21.1298693617202
 21
5.272587999999999
 31
0.0
  0
LINE
  5
18A3
330
696
100
AcDbEntity
  8
DIM
 62
     0
370
    -2
100
AcDbLine
 10
20.33018136172021
 20
11.099588
 30
0.0
 11
21.12986936172021
 21
11.099588
 31
0.0
  0
LINE
  5
18A4
330
696
100
AcDbEntity
  8
DIM
 62
     0
370
    -2
100
AcDbLine
 10
20.9671193617202
 20
5.587588
 30
0.0
 11
20.9671193617202
 21
7.919213
 31
0.0
  0
LINE
  5
18A5
330
696
100
AcDbEntity
  8
DIM
 62
     0
370
    -2
100
AcDbLine
 10
20.96711936172021
 20
10.784588
 30
0.0
 11
20.96711936172021
 21
8.452963
 31
0.0
  0
SOLID
  5
18A6
330
696
100
AcDbEntity
  8
DIM
 62
     0
100
AcDbTrace
 10
20.91461936172021
 20
5.587588
 30
0.0
 11
21.0196193617202
 21
5.587588
 31
0.0
 12
20.9671193617202
 22
5.272587999999999
 32
0.0
 13
20.9671193617202
 23
5.272587999999999
 33
0.0
  0
SOLID
  5
18A7
330
696
100
AcDbEntity
  8
DIM
 62
     0
100
AcDbTrace
 10
20.91461936172021
 20
10.784588
 30
0.0
 11
21.0196193617202
 21
10.784588
 31
0.0
 12
20.96711936172021
 22
11.099588
 32
0.0
 13
20.96711936172021
 23
11.099588
 33
0.0
  0
MTEXT
  5
18A8
330
696
100
AcDbEntity
  8
DIM
 62
     0
100
AcDbMText
 10
20.9671193617202
 20
8.186088000000003
 30
0.0
 40
0.21875
 41
0.0
 71
     5
 72
     1
  1
\A1;5.827
 73
     1
 44
1.0
  0
POINT
  5
18A9
330
696
100
AcDbEntity
  8
DEFPOINTS
 62
     0
100
AcDbPoint
 10
20.21993136172021
 20
5.272587999999999
 30
0.0
  0
POINT
  5
18AA
330
696
100
AcDbEntity
  8
DEFPOINTS
 62
     0
100
AcDbPoint
 10
20.21993136172021
 20
11.099588
 30
0.0
  0
POINT
  5
18AB
330
696
100
AcDbEntity
  8
DEFPOINTS
 62
     0
100
AcDbPoint
 10
20.96711936172021
 20
11.099588
 30
0.0
  0
ENDBLK
  5
6A2
330
696
100
AcDbEntity
  8
0
100
AcDbBlockEnd
  0
BLOCK
  5
6AF
330
6A4
100
AcDbEntity
  8
0
100
AcDbBlockBegin
  2
*D3
 70
     1
 10
0.0
 20
0.0
 30
0.0
  3
*D3
  1

  0
LINE
  5
18AC
330
6A4
100
AcDbEntity
  8
DIM
 62
     0
370
    -2
100
AcDbLine
 10
17.41443136172021
 20
5.036588
 30
0.0
 11
16.5058423617202
 21
5.036588
 31
0.0
  0
LINE
  5
18AD
330
6A4
100
AcDbEntity
  8
DIM
 62
     0
370
    -2
100
AcDbLine
 10
17.41443136172021
 20
11.335588
 30
0.0
 11
16.50584236172021
 21
11.335588
 31
0.0
  0
LINE
  5
18AE
330
6A4
100
AcDbEntity
  8
DIM
 62
     0
370
    -2
100
AcDbLine
 10
16.6685923617202
 20
5.351588
 30
0.0
 11
16.6685923617202
 21
7.919213000000001
 31
0.0
  0
LINE
  5
18AF
330
6A4
100
AcDbEntity
  8
DIM
 62
     0
370
    -2
100
AcDbLine
 10
16.66859236172021
 20
11.020588
 30
0.0
 11
16.66859236172021
 21
8.452963000000002
 31
0.0
  0
SOLID
  5
18B0
330
6A4
100
AcDbEntity
  8
DIM
 62
     0
100
AcDbTrace
 10
16.6160923617202
 20
5.351588
 30
0.0
 11
16.7210923617202
 21
5.351588
 31
0.0
 12
16.6685923617202
 22
5.036588
 32
0.0
 13
16.6685923617202
 23
5.036588
 33
0.0
  0
SOLID
  5
18B1
330
6A4
100
AcDbEntity
  8
DIM
 62
     0
100
AcDbTrace
 10
16.61609236172021
 20
11.020588
 30
0.0
 11
16.72109236172021
 21
11.020588
 31
0.0
 12
16.66859236172021
 22
11.335588
 32
0.0
 13
16.66859236172021
 23
11.335588
 33
0.0
  0
MTEXT
  5
18B2
330
6A4
100
AcDbEntity
  8
DIM
 62
     0
100
AcDbMText
 10
16.6685923617202
 20
8.186088000000003
 30
0.0
 40
0.21875
 41
0.0
 71
     5
 72
     1
  1
\A1;6.299
 73
     1
 44
1.0
  0
POINT
  5
18B3
330
6A4
100
AcDbEntity
  8
DEFPOINTS
 62
     0
100
AcDbPoint
 10
17.52468136172021
 20
5.036588
 30
0.0
  0
POINT
  5
18B4
330
6A4
100
AcDbEntity
  8
DEFPOINTS
 62
     0
100
AcDbPoint
 10
17.52468136172021
 20
11.335588
 30
0.0
  0
POINT
  5
18B5
330
6A4
100
AcDbEntity
  8
DEFPOINTS
 62
     0
100
AcDbPoint
 10
16.66859236172021
 20
11.335588
 30
0.0
  0
ENDBLK
  5
6B0
330
6A4
100
AcDbEntity
  8
0
100
AcDbBlockEnd
  0
BLOCK
  5
6BD
330
6B2
100
AcDbEntity
  8
0
100
AcDbBlockBegin
  2
*D4
 70
     1
 10
0.0
 20
0.0
 30
0.0
  3
*D4
  1

  0
LINE
  5
18B6
330
6B2
100
AcDbEntity
  8
DIM
 62
     0
370
    -2
100
AcDbLine
 10
20.21993136172021
 20
11.209838
 30
0.0
 11
20.21993136172021
 21
12.53079199999999
 31
0.0
  0
LINE
  5
18B7
330
6B2
100
AcDbEntity
  8
DIM
 62
     0
370
    -2
100
AcDbLine
 10
20.4559313617202
 20
11.227088
 30
0.0
 11
20.4559313617202
 21
12.53079199999999
 31
0.0
  0
LINE
  5
18B8
330
6B2
100
AcDbEntity
  8
DIM
 62
     0
370
    -2
100
AcDbLine
 10
19.90493136172021
 20
12.36804199999999
 30
0.0
 11
19.58993136172021
 21
12.36804199999999
 31
0.0
  0
LINE
  5
18B9
330
6B2
100
AcDbEntity
  8
DIM
 62
     0
370
    -2
100
AcDbLine
 10
20.77093136172021
 20
12.36804199999999
 30
0.0
 11
21.08593136172021
 21
12.36804199999999
 31
0.0
  0
SOLID
  5
18BA
330
6B2
100
AcDbEntity
  8
DIM
 62
     0
100
AcDbTrace
 10
19.90493136172021
 20
12.420542
 30
0.0
 11
19.90493136172021
 21
12.31554199999999
 31
0.0
 12
20.21993136172021
 22
12.36804199999999
 32
0.0
 13
20.21993136172021
 23
12.36804199999999
 33
0.0
  0
SOLID
  5
18BB
330
6B2
100
AcDbEntity
  8
DIM
 62
     0
100
AcDbTrace
 10
20.77093136172021
 20
12.420542
 30
0.0
 11
20.77093136172021
 21
12.31554199999999
 31
0.0
 12
20.4559313617202
 22
12.36804199999999
 32
0.0
 13
20.4559313617202
 23
12.36804199999999
 33
0.0
  0
MTEXT
  5
18BC
330
6B2
100
AcDbEntity
  8
DIM
 62
     0
100
AcDbMText
 10
21.55788448672021
 20
12.36804199999999
 30
0.0
 40
0.21875
 41
0.0
 71
     5
 72
     1
  1
\A1;0.236
 73
     1
 44
1.0
  0
POINT
  5
18BD
330
6B2
100
AcDbEntity
  8
DEFPOINTS
 62
     0
100
AcDbPoint
 10
20.21993136172021
 20
11.099588
 30
0.0
  0
POINT
  5
18BE
330
6B2
100
AcDbEntity
  8
DEFPOINTS
 62
     0
100
AcDbPoint
 10
20.4559313617202
 20
11.116838
 30
0.0
  0
POINT
  5
18BF
330
6B2
100
AcDbEntity
  8
DEFPOINTS
 62
     0
100
AcDbPoint
 10
20.4559313617202
 20
12.36804199999999
 30
0.0
  0
ENDBLK
  5
6BE
330
6B2
100
AcDbEntity
  8
0
100
AcDbBlockEnd
  0
BLOCK
  5
6CB
330
6C0
100
AcDbEntity
  8
0
100
AcDbBlockBegin
  2
*D5
 70
     1
 10
0.0
 20
0.0
 30
0.0
  3
*D5
  1

  0
LINE
  5
18C0
330
6C0
100
AcDbEntity
  8
DIM
 62
     0
370
    -2
100
AcDbLine
 10
20.21993136172021
 20
11.209838
 30
0.0
 11
20.21993136172021
 21
12.53079199999999
 31
0.0
  0
LINE
  5
18C1
330
6C0
100
AcDbEntity
  8
DIM
 62
     0
370
    -2
100
AcDbLine
 10
17.54193136172021
 20
11.209838
 30
0.0
 11
17.54193136172021
 21
12.53079199999999
 31
0.0
  0
LINE
  5
18C2
330
6C0
100
AcDbEntity
  8
DIM
 62
     0
370
    -2
100
AcDbLine
 10
19.90493136172021
 20
12.36804199999999
 30
0.0
 11
19.36655636172021
 21
12.36804199999999
 31
0.0
  0
LINE
  5
18C3
330
6C0
100
AcDbEntity
  8
DIM
 62
     0
370
    -2
100
AcDbLine
 10
17.85693136172021
 20
12.36804199999999
 30
0.0
 11
18.39530636172021
 21
12.36804199999999
 31
0.0
  0
SOLID
  5
18C4
330
6C0
100
AcDbEntity
  8
DIM
 62
     0
100
AcDbTrace
 10
19.90493136172021
 20
12.420542
 30
0.0
 11
19.90493136172021
 21
12.31554199999999
 31
0.0
 12
20.21993136172021
 22
12.36804199999999
 32
0.0
 13
20.21993136172021
 23
12.36804199999999
 33
0.0
  0
SOLID
  5
18C5
330
6C0
100
AcDbEntity
  8
DIM
 62
     0
100
AcDbTrace
 10
17.85693136172021
 20
12.420542
 30
0.0
 11
17.85693136172021
 21
12.31554199999999
 31
0.0
 12
17.54193136172021
 22
12.36804199999999
 32
0.0
 13
17.54193136172021
 23
12.36804199999999
 33
0.0
  0
MTEXT
  5
18C6
330
6C0
100
AcDbEntity
  8
DIM
 62
     0
100
AcDbMText
 10
18.88093136172021
 20
12.36804199999999
 30
0.0
 40
0.21875
 41
0.0
 71
     5
 72
     1
  1
\A1;2.678
 73
     1
 44
1.0
  0
POINT
  5
18C7
330
6C0
100
AcDbEntity
  8
DEFPOINTS
 62
     0
100
AcDbPoint
 10
20.21993136172021
 20
11.099588
 30
0.0
  0
POINT
  5
18C8
330
6C0
100
AcDbEntity
  8
DEFPOINTS
 62
     0
100
AcDbPoint
 10
17.54193136172021
 20
11.099588
 30
0.0
  0
POINT
  5
18C9
330
6C0
100
AcDbEntity
  8
DEFPOINTS
 62
     0
100
AcDbPoint
 10
17.54193136172021
 20
12.36804199999999
 30
0.0
  0
ENDBLK
  5
6CC
330
6C0
100
AcDbEntity
  8
0
100
AcDbBlockEnd
  0
BLOCK
  5
6D9
330
6CE
100
AcDbEntity
  8
0
100
AcDbBlockBegin
  2
*D6
 70
     1
 10
0.0
 20
0.0
 30
0.0
  3
*D6
  1

  0
LINE
  5
18CA
330
6CE
100
AcDbEntity
  8
DIM
 62
     0
370
    -2
100
AcDbLine
 10
20.4559313617202
 20
11.227088
 30
0.0
 11
20.4559313617202
 21
13.022542
 31
0.0
  0
LINE
  5
18CB
330
6CE
100
AcDbEntity
  8
DIM
 62
     0
370
    -2
100
AcDbLine
 10
17.30593136172021
 20
11.227088
 30
0.0
 11
17.30593136172021
 21
13.022542
 31
0.0
  0
LINE
  5
18CC
330
6CE
100
AcDbEntity
  8
DIM
 62
     0
370
    -2
100
AcDbLine
 10
20.14093136172021
 20
12.859792
 30
0.0
 11
19.32554073672021
 21
12.859792
 31
0.0
  0
LINE
  5
18CD
330
6CE
100
AcDbEntity
  8
DIM
 62
     0
370
    -2
100
AcDbLine
 10
17.62093136172021
 20
12.859792
 30
0.0
 11
18.43632198672021
 21
12.859792
 31
0.0
  0
SOLID
  5
18CE
330
6CE
100
AcDbEntity
  8
DIM
 62
     0
100
AcDbTrace
 10
20.14093136172021
 20
12.912292
 30
0.0
 11
20.14093136172021
 21
12.807292
 31
0.0
 12
20.4559313617202
 22
12.859792
 32
0.0
 13
20.4559313617202
 23
12.859792
 33
0.0
  0
SOLID
  5
18CF
330
6CE
100
AcDbEntity
  8
DIM
 62
     0
100
AcDbTrace
 10
17.62093136172021
 20
12.912292
 30
0.0
 11
17.62093136172021
 21
12.807292
 31
0.0
 12
17.30593136172021
 22
12.859792
 32
0.0
 13
17.30593136172021
 23
12.859792
 33
0.0
  0
MTEXT
  5
18D0
330
6CE
100
AcDbEntity
  8
DIM
 62
     0
100
AcDbMText
 10
18.88093136172021
 20
12.859792
 30
0.0
 40
0.21875
 41
0.0
 71
     5
 72
     1
  1
\A1;3.150
 73
     1
 44
1.0
  0
POINT
  5
18D1
330
6CE
100
AcDbEntity
  8
DEFPOINTS
 62
     0
100
AcDbPoint
 10
20.4559313617202
 20
11.116838
 30
0.0
  0
POINT
  5
18D2
330
6CE
100
AcDbEntity
  8
DEFPOINTS
 62
     0
100
AcDbPoint
 10
17.30593136172021
 20
11.116838
 30
0.0
  0
POINT
  5
18D3
330
6CE
100
AcDbEntity
  8
DEFPOINTS
 62
     0
100
AcDbPoint
 10
17.30593136172021
 20
12.859792
 30
0.0
  0
ENDBLK
  5
6DA
330
6CE
100
AcDbEntity
  8
0
100
AcDbBlockEnd
  0
BLOCK
  5
6EF
330
6E4
100
AcDbEntity
  8
0
100
AcDbBlockBegin
  2
*D7
 70
     1
 10
0.0
 20
0.0
 30
0.0
  3
*D7
  1

  0
LINE
  5
18D4
330
6E4
100
AcDbEntity
  8
DIM
 62
     0
370
    -2
100
AcDbLine
 10
18.57303036172021
 20
5.214588
 30
0.0
 11
18.68412336172021
 21
5.214588
 31
0.0
  0
LINE
  5
18D5
330
6E4
100
AcDbEntity
  8
DIM
 62
     0
370
    -2
100
AcDbLine
 10
18.57303036172021
 20
5.036588
 30
0.0
 11
18.68412336172021
 21
5.036588
 31
0.0
  0
LINE
  5
18D6
330
6E4
100
AcDbEntity
  8
DIM
 62
     0
370
    -2
100
AcDbLine
 10
18.52137336172021
 20
5.529588
 30
0.0
 11
18.52137336172021
 21
5.844587999999999
 31
0.0
  0
LINE
  5
18D7
330
6E4
100
AcDbEntity
  8
DIM
 62
     0
370
    -2
100
AcDbLine
 10
18.52137336172021
 20
4.721587999999999
 30
0.0
 11
18.52137336172021
 21
4.406588
 31
0.0
  0
LINE
  5
18D8
330
6E4
100
AcDbEntity
  8
DIM
 62
     0
370
    -2
100
AcDbLine
 10
18.52137336172021
 20
4.406588
 30
0.0
 11
18.20637336172021
 21
4.406588
 31
0.0
  0
SOLID
  5
18D9
330
6E4
100
AcDbEntity
  8
DIM
 62
     0
100
AcDbTrace
 10
18.46887336172021
 20
5.529588
 30
0.0
 11
18.57387336172021
 21
5.529588
 31
0.0
 12
18.52137336172021
 22
5.214588
 32
0.0
 13
18.52137336172021
 23
5.214588
 33
0.0
  0
SOLID
  5
18DA
330
6E4
100
AcDbEntity
  8
DIM
 62
     0
100
AcDbTrace
 10
18.46887336172021
 20
4.721587999999999
 30
0.0
 11
18.57387336172021
 21
4.721587999999999
 31
0.0
 12
18.52137336172021
 22
5.036588
 32
0.0
 13
18.52137336172021
 23
5.036588
 33
0.0
  0
MTEXT
  5
18DB
330
6E4
100
AcDbEntity
  8
DIM
 62
     0
100
AcDbMText
 10
17.40629523672021
 20
4.406588000000003
 30
0.0
 40
0.21875
 41
0.0
 71
     5
 72
     1
  1
\A1;0.178 TYP.
 73
     1
 44
1.0
  0
POINT
  5
18DC
330
6E4
100
AcDbEntity
  8
DEFPOINTS
 62
     0
100
AcDbPoint
 10
18.4627803617202
 20
5.214588
 30
0.0
  0
POINT
  5
18DD
330
6E4
100
AcDbEntity
  8
DEFPOINTS
 62
     0
100
AcDbPoint
 10
18.4627803617202
 20
5.036588
 30
0.0
  0
POINT
  5
18DE
330
6E4
100
AcDbEntity
  8
DEFPOINTS
 62
     0
100
AcDbPoint
 10
18.52137336172021
 20
5.036588
 30
0.0
  0
ENDBLK
  5
6F0
330
6E4
100
AcDbEntity
  8
0
100
AcDbBlockEnd
  0
BLOCK
  5
768
330
75D
100
AcDbEntity
  8
0
100
AcDbBlockBegin
  2
*D8
 70
     1
 10
0.0
 20
0.0
 30
0.0
  3
*D8
  1

  0
LINE
  5
1A0F
330
75D
100
AcDbEntity
  8
DIM
 62
     0
370
    -2
100
AcDbLine
 10
24.73730604128134
 20
11.383338
 30
0.0
 11
24.73730604128134
 21
11.881643
 31
0.0
  0
LINE
  5
1A10
330
75D
100
AcDbEntity
  8
DIM
 62
     0
370
    -2
100
AcDbLine
 10
28.08930604128134
 20
11.395838
 30
0.0
 11
28.08930604128134
 21
11.881643
 31
0.0
  0
LINE
  5
1A11
330
75D
100
AcDbEntity
  8
DIM
 62
     0
370
    -2
100
AcDbLine
 10
25.05230604128134
 20
11.71889299999999
 30
0.0
 11
25.92768104128134
 21
11.71889299999999
 31
0.0
  0
LINE
  5
1A12
330
75D
100
AcDbEntity
  8
DIM
 62
     0
370
    -2
100
AcDbLine
 10
27.77430604128134
 20
11.71889299999999
 30
0.0
 11
26.89893104128134
 21
11.71889299999999
 31
0.0
  0
SOLID
  5
1A13
330
75D
100
AcDbEntity
  8
DIM
 62
     0
100
AcDbTrace
 10
25.05230604128134
 20
11.771393
 30
0.0
 11
25.05230604128134
 21
11.66639299999999
 31
0.0
 12
24.73730604128134
 22
11.71889299999999
 32
0.0
 13
24.73730604128134
 23
11.71889299999999
 33
0.0
  0
SOLID
  5
1A14
330
75D
100
AcDbEntity
  8
DIM
 62
     0
100
AcDbTrace
 10
27.77430604128134
 20
11.771393
 30
0.0
 11
27.77430604128134
 21
11.66639299999999
 31
0.0
 12
28.08930604128134
 22
11.71889299999999
 32
0.0
 13
28.08930604128134
 23
11.71889299999999
 33
0.0
  0
MTEXT
  5
1A15
330
75D
100
AcDbEntity
  8
DIM
 62
     0
100
AcDbMText
 10
26.41330604128134
 20
11.71889299999999
 30
0.0
 40
0.21875
 41
0.0
 71
     5
 72
     1
  1
\A1;3.352
 73
     1
 44
1.0
  0
POINT
  5
1A16
330
75D
100
AcDbEntity
  8
DEFPOINTS
 62
     0
100
AcDbPoint
 10
24.73730604128134
 20
11.273088
 30
0.0
  0
POINT
  5
1A17
330
75D
100
AcDbEntity
  8
DEFPOINTS
 62
     0
100
AcDbPoint
 10
28.08930604128134
 20
11.285588
 30
0.0
  0
POINT
  5
1A18
330
75D
100
AcDbEntity
  8
DEFPOINTS
 62
     0
100
AcDbPoint
 10
28.08930604128134
 20
11.71889299999999
 30
0.0
  0
ENDBLK
  5
769
330
75D
100
AcDbEntity
  8
0
100
AcDbBlockEnd
  0
BLOCK
  5
776
330
76B
100
AcDbEntity
  8
0
100
AcDbBlockBegin
  2
*D9
 70
     1
 10
0.0
 20
0.0
 30
0.0
  3
*D9
  1

  0
LINE
  5
18DF
330
76B
100
AcDbEntity
  8
DIM
 62
     0
370
    -2
100
AcDbLine
 10
24.73730604128134
 20
4.988838
 30
0.0
 11
24.73730604128134
 21
4.454556
 31
0.0
  0
LINE
  5
18E0
330
76B
100
AcDbEntity
  8
DIM
 62
     0
370
    -2
100
AcDbLine
 10
25.32830604128134
 20
4.926338
 30
0.0
 11
25.32830604128134
 21
4.454556
 31
0.0
  0
LINE
  5
18E1
330
76B
100
AcDbEntity
  8
DIM
 62
     0
370
    -2
100
AcDbLine
 10
24.42230604128134
 20
4.617306
 30
0.0
 11
24.10730604128134
 21
4.617306
 31
0.0
  0
LINE
  5
18E2
330
76B
100
AcDbEntity
  8
DIM
 62
     0
370
    -2
100
AcDbLine
 10
25.64330604128134
 20
4.617306
 30
0.0
 11
25.95830604128134
 21
4.617306
 31
0.0
  0
SOLID
  5
18E3
330
76B
100
AcDbEntity
  8
DIM
 62
     0
100
AcDbTrace
 10
24.42230604128134
 20
4.669806
 30
0.0
 11
24.42230604128134
 21
4.564805999999999
 31
0.0
 12
24.73730604128134
 22
4.617306
 32
0.0
 13
24.73730604128134
 23
4.617306
 33
0.0
  0
SOLID
  5
18E4
330
76B
100
AcDbEntity
  8
DIM
 62
     0
100
AcDbTrace
 10
25.64330604128134
 20
4.669806
 30
0.0
 11
25.64330604128134
 21
4.564805999999999
 31
0.0
 12
25.32830604128134
 22
4.617306
 32
0.0
 13
25.32830604128134
 23
4.617306
 33
0.0
  0
MTEXT
  5
18E5
330
76B
100
AcDbEntity
  8
DIM
 62
     0
100
AcDbMText
 10
26.75838416628134
 20
4.617306
 30
0.0
 40
0.21875
 41
0.0
 71
     5
 72
     1
  1
\A1;0.591 REF.
 73
     1
 44
1.0
  0
POINT
  5
18E6
330
76B
100
AcDbEntity
  8
DEFPOINTS
 62
     0
100
AcDbPoint
 10
24.73730604128134
 20
5.099088
 30
0.0
  0
POINT
  5
18E7
330
76B
100
AcDbEntity
  8
DEFPOINTS
 62
     0
100
AcDbPoint
 10
25.32830604128134
 20
5.036588
 30
0.0
  0
POINT
  5
18E8
330
76B
100
AcDbEntity
  8
DEFPOINTS
 62
     0
100
AcDbPoint
 10
25.32830604128134
 20
4.617306
 30
0.0
  0
ENDBLK
  5
777
330
76B
100
AcDbEntity
  8
0
100
AcDbBlockEnd
  0
BLOCK
  5
7A1
330
796
100
AcDbEntity
  8
0
100
AcDbBlockBegin
  2
*D10
 70
     1
 10
0.0
 20
0.0
 30
0.0
  3
*D10
  1

  0
LINE
  5
18E9
330
796
100
AcDbEntity
  8
DIM
 62
     0
370
    -2
100
AcDbLine
 10
6.300154809540956
 20
11.099588
 30
0.0
 11
4.605699809540955
 21
11.099588
 31
0.0
  0
LINE
  5
18EA
330
796
100
AcDbEntity
  8
DIM
 62
     0
370
    -2
100
AcDbLine
 10
6.282904809540956
 20
11.335588
 30
0.0
 11
4.605699809540955
 21
11.335588
 31
0.0
  0
LINE
  5
18EB
330
796
100
AcDbEntity
  8
DIM
 62
     0
370
    -2
100
AcDbLine
 10
4.768449809540955
 20
10.784588
 30
0.0
 11
4.768449809540955
 21
10.469588
 31
0.0
  0
LINE
  5
18EC
330
796
100
AcDbEntity
  8
DIM
 62
     0
370
    -2
100
AcDbLine
 10
4.768449809540955
 20
11.650588
 30
0.0
 11
4.768449809540955
 21
11.965588
 31
0.0
  0
LINE
  5
18ED
330
796
100
AcDbEntity
  8
DIM
 62
     0
370
    -2
100
AcDbLine
 10
4.768449809540955
 20
11.965588
 30
0.0
 11
5.083449809540955
 21
11.965588
 31
0.0
  0
SOLID
  5
18EE
330
796
100
AcDbEntity
  8
DIM
 62
     0
100
AcDbTrace
 10
4.715949809540955
 20
10.784588
 30
0.0
 11
4.820949809540955
 21
10.784588
 31
0.0
 12
4.768449809540955
 22
11.099588
 32
0.0
 13
4.768449809540955
 23
11.099588
 33
0.0
  0
SOLID
  5
18EF
330
796
100
AcDbEntity
  8
DIM
 62
     0
100
AcDbTrace
 10
4.715949809540955
 20
11.650588
 30
0.0
 11
4.820949809540955
 21
11.650588
 31
0.0
 12
4.768449809540955
 22
11.335588
 32
0.0
 13
4.768449809540955
 23
11.335588
 33
0.0
  0
MTEXT
  5
18F0
330
796
100
AcDbEntity
  8
DIM
 62
     0
100
AcDbMText
 10
5.555402934540953
 20
11.965588
 30
0.0
 40
0.21875
 41
0.0
 71
     5
 72
     1
  1
\A1;0.236
 73
     1
 44
1.0
  0
POINT
  5
18F1
330
796
100
AcDbEntity
  8
DEFPOINTS
 62
     0
100
AcDbPoint
 10
6.410404809540955
 20
11.099588
 30
0.0
  0
POINT
  5
18F2
330
796
100
AcDbEntity
  8
DEFPOINTS
 62
     0
100
AcDbPoint
 10
6.393154809540956
 20
11.335588
 30
0.0
  0
POINT
  5
18F3
330
796
100
AcDbEntity
  8
DEFPOINTS
 62
     0
100
AcDbPoint
 10
4.768449809540955
 20
11.335588
 30
0.0
  0
ENDBLK
  5
7A2
330
796
100
AcDbEntity
  8
0
100
AcDbBlockEnd
  0
BLOCK
  5
7AF
330
7A4
100
AcDbEntity
  8
0
100
AcDbBlockBegin
  2
*D11
 70
     1
 10
0.0
 20
0.0
 30
0.0
  3
*D11
  1

  0
LINE
  5
18F4
330
7A4
100
AcDbEntity
  8
DIM
 62
     0
370
    -2
100
AcDbLine
 10
6.300154809540956
 20
5.272587999999999
 30
0.0
 11
4.605699809540955
 21
5.272588
 31
0.0
  0
LINE
  5
18F5
330
7A4
100
AcDbEntity
  8
DIM
 62
     0
370
    -2
100
AcDbLine
 10
6.300154809540956
 20
11.099588
 30
0.0
 11
4.605699809540957
 21
11.099588
 31
0.0
  0
LINE
  5
18F6
330
7A4
100
AcDbEntity
  8
DIM
 62
     0
370
    -2
100
AcDbLine
 10
4.768449809540955
 20
5.587588000000001
 30
0.0
 11
4.768449809540956
 21
7.919213
 31
0.0
  0
LINE
  5
18F7
330
7A4
100
AcDbEntity
  8
DIM
 62
     0
370
    -2
100
AcDbLine
 10
4.768449809540957
 20
10.784588
 30
0.0
 11
4.768449809540956
 21
8.452963
 31
0.0
  0
SOLID
  5
18F8
330
7A4
100
AcDbEntity
  8
DIM
 62
     0
100
AcDbTrace
 10
4.715949809540955
 20
5.587588000000001
 30
0.0
 11
4.820949809540955
 21
5.587588000000001
 31
0.0
 12
4.768449809540955
 22
5.272588
 32
0.0
 13
4.768449809540955
 23
5.272588
 33
0.0
  0
SOLID
  5
18F9
330
7A4
100
AcDbEntity
  8
DIM
 62
     0
100
AcDbTrace
 10
4.715949809540957
 20
10.784588
 30
0.0
 11
4.820949809540957
 21
10.784588
 31
0.0
 12
4.768449809540957
 22
11.099588
 32
0.0
 13
4.768449809540957
 23
11.099588
 33
0.0
  0
MTEXT
  5
18FA
330
7A4
100
AcDbEntity
  8
DIM
 62
     0
100
AcDbMText
 10
4.768449809540955
 20
8.186088000000001
 30
0.0
 40
0.21875
 41
0.0
 71
     5
 72
     1
  1
\A1;5.827
 73
     1
 44
1.0
  0
POINT
  5
18FB
330
7A4
100
AcDbEntity
  8
DEFPOINTS
 62
     0
100
AcDbPoint
 10
6.410404809540955
 20
5.272587999999999
 30
0.0
  0
POINT
  5
18FC
330
7A4
100
AcDbEntity
  8
DEFPOINTS
 62
     0
100
AcDbPoint
 10
6.410404809540955
 20
11.099588
 30
0.0
  0
POINT
  5
18FD
330
7A4
100
AcDbEntity
  8
DEFPOINTS
 62
     0
100
AcDbPoint
 10
4.768449809540957
 20
11.099588
 30
0.0
  0
ENDBLK
  5
7B0
330
7A4
100
AcDbEntity
  8
0
100
AcDbBlockEnd
  0
BLOCK
  5
7BD
330
7B2
100
AcDbEntity
  8
0
100
AcDbBlockBegin
  2
*D12
 70
     1
 10
0.0
 20
0.0
 30
0.0
  3
*D12
  1

  0
LINE
  5
18FE
330
7B2
100
AcDbEntity
  8
DIM
 62
     0
370
    -2
100
AcDbLine
 10
6.410404809540955
 20
11.209838
 30
0.0
 11
6.410404809540955
 21
13.492562
 31
0.0
  0
LINE
  5
18FF
330
7B2
100
AcDbEntity
  8
DIM
 62
     0
370
    -2
100
AcDbLine
 10
6.174404809540956
 20
11.227088
 30
0.0
 11
6.174404809540956
 21
13.492562
 31
0.0
  0
LINE
  5
1900
330
7B2
100
AcDbEntity
  8
DIM
 62
     0
370
    -2
100
AcDbLine
 10
6.725404809540956
 20
13.32981199999999
 30
0.0
 11
7.040404809540955
 21
13.32981199999999
 31
0.0
  0
LINE
  5
1901
330
7B2
100
AcDbEntity
  8
DIM
 62
     0
370
    -2
100
AcDbLine
 10
5.859404809540955
 20
13.32981199999999
 30
0.0
 11
5.544404809540956
 21
13.32981199999999
 31
0.0
  0
SOLID
  5
1902
330
7B2
100
AcDbEntity
  8
DIM
 62
     0
100
AcDbTrace
 10
6.725404809540956
 20
13.382312
 30
0.0
 11
6.725404809540956
 21
13.27731199999999
 31
0.0
 12
6.410404809540955
 22
13.32981199999999
 32
0.0
 13
6.410404809540955
 23
13.32981199999999
 33
0.0
  0
SOLID
  5
1903
330
7B2
100
AcDbEntity
  8
DIM
 62
     0
100
AcDbTrace
 10
5.859404809540955
 20
13.382312
 30
0.0
 11
5.859404809540955
 21
13.27731199999999
 31
0.0
 12
6.174404809540956
 22
13.32981199999999
 32
0.0
 13
6.174404809540956
 23
13.32981199999999
 33
0.0
  0
MTEXT
  5
1904
330
7B2
100
AcDbEntity
  8
DIM
 62
     0
100
AcDbMText
 10
5.072451684540956
 20
13.32981199999999
 30
0.0
 40
0.21875
 41
0.0
 71
     5
 72
     1
  1
\A1;0.236
 73
     1
 44
1.0
  0
POINT
  5
1905
330
7B2
100
AcDbEntity
  8
DEFPOINTS
 62
     0
100
AcDbPoint
 10
6.410404809540955
 20
11.099588
 30
0.0
  0
POINT
  5
1906
330
7B2
100
AcDbEntity
  8
DEFPOINTS
 62
     0
100
AcDbPoint
 10
6.174404809540956
 20
11.116838
 30
0.0
  0
POINT
  5
1907
330
7B2
100
AcDbEntity
  8
DEFPOINTS
 62
     0
100
AcDbPoint
 10
6.174404809540956
 20
13.32981199999999
 30
0.0
  0
ENDBLK
  5
7BE
330
7B2
100
AcDbEntity
  8
0
100
AcDbBlockEnd
  0
BLOCK
  5
7CB
330
7C0
100
AcDbEntity
  8
0
100
AcDbBlockBegin
  2
*D13
 70
     1
 10
0.0
 20
0.0
 30
0.0
  3
*D13
  1

  0
LINE
  5
1908
330
7C0
100
AcDbEntity
  8
DIM
 62
     0
370
    -2
100
AcDbLine
 10
6.765404809540955
 20
11.209838
 30
0.0
 11
6.765404809540955
 21
12.509062
 31
0.0
  0
LINE
  5
1909
330
7C0
100
AcDbEntity
  8
DIM
 62
     0
370
    -2
100
AcDbLine
 10
6.174404809540956
 20
11.227088
 30
0.0
 11
6.174404809540956
 21
12.509062
 31
0.0
  0
LINE
  5
190A
330
7C0
100
AcDbEntity
  8
DIM
 62
     0
370
    -2
100
AcDbLine
 10
7.080404809540955
 20
12.34631199999999
 30
0.0
 11
7.395404809540955
 21
12.34631199999999
 31
0.0
  0
LINE
  5
190B
330
7C0
100
AcDbEntity
  8
DIM
 62
     0
370
    -2
100
AcDbLine
 10
5.859404809540955
 20
12.34631199999999
 30
0.0
 11
5.544404809540956
 21
12.34631199999999
 31
0.0
  0
SOLID
  5
190C
330
7C0
100
AcDbEntity
  8
DIM
 62
     0
100
AcDbTrace
 10
7.080404809540955
 20
12.398812
 30
0.0
 11
7.080404809540955
 21
12.29381199999999
 31
0.0
 12
6.765404809540955
 22
12.34631199999999
 32
0.0
 13
6.765404809540955
 23
12.34631199999999
 33
0.0
  0
SOLID
  5
190D
330
7C0
100
AcDbEntity
  8
DIM
 62
     0
100
AcDbTrace
 10
5.859404809540955
 20
12.398812
 30
0.0
 11
5.859404809540955
 21
12.29381199999999
 31
0.0
 12
6.174404809540956
 22
12.34631199999999
 32
0.0
 13
6.174404809540956
 23
12.34631199999999
 33
0.0
  0
MTEXT
  5
190E
330
7C0
100
AcDbEntity
  8
DIM
 62
     0
100
AcDbMText
 10
5.099795434540956
 20
12.34631199999999
 30
0.0
 40
0.21875
 41
0.0
 71
     5
 72
     1
  1
\A1;0.591
 73
     1
 44
1.0
  0
POINT
  5
190F
330
7C0
100
AcDbEntity
  8
DEFPOINTS
 62
     0
100
AcDbPoint
 10
6.765404809540955
 20
11.099588
 30
0.0
  0
POINT
  5
1910
330
7C0
100
AcDbEntity
  8
DEFPOINTS
 62
     0
100
AcDbPoint
 10
6.174404809540956
 20
11.116838
 30
0.0
  0
POINT
  5
1911
330
7C0
100
AcDbEntity
  8
DEFPOINTS
 62
     0
100
AcDbPoint
 10
6.174404809540956
 20
12.34631199999999
 30
0.0
  0
ENDBLK
  5
7CC
330
7C0
100
AcDbEntity
  8
0
100
AcDbBlockEnd
  0
BLOCK
  5
7D9
330
7CE
100
AcDbEntity
  8
0
100
AcDbBlockBegin
  2
*D14
 70
     1
 10
0.0
 20
0.0
 30
0.0
  3
*D14
  1

  0
LINE
  5
1912
330
7CE
100
AcDbEntity
  8
DIM
 62
     0
370
    -2
100
AcDbLine
 10
6.765404809540955
 20
11.209838
 30
0.0
 11
6.765404809540955
 21
12.509062
 31
0.0
  0
LINE
  5
1913
330
7CE
100
AcDbEntity
  8
DIM
 62
     0
370
    -2
100
AcDbLine
 10
8.733404809540955
 20
11.75824
 30
0.0
 11
8.733404809540955
 21
12.509062
 31
0.0
  0
LINE
  5
1914
330
7CE
100
AcDbEntity
  8
DIM
 62
     0
370
    -2
100
AcDbLine
 10
7.080404809540955
 20
12.34631199999999
 30
0.0
 11
7.291123559540955
 21
12.34631199999999
 31
0.0
  0
LINE
  5
1915
330
7CE
100
AcDbEntity
  8
DIM
 62
     0
370
    -2
100
AcDbLine
 10
8.418404809540955
 20
12.34631199999999
 30
0.0
 11
8.207686059540955
 21
12.34631199999999
 31
0.0
  0
SOLID
  5
1916
330
7CE
100
AcDbEntity
  8
DIM
 62
     0
100
AcDbTrace
 10
7.080404809540955
 20
12.398812
 30
0.0
 11
7.080404809540955
 21
12.29381199999999
 31
0.0
 12
6.765404809540955
 22
12.34631199999999
 32
0.0
 13
6.765404809540955
 23
12.34631199999999
 33
0.0
  0
SOLID
  5
1917
330
7CE
100
AcDbEntity
  8
DIM
 62
     0
100
AcDbTrace
 10
8.418404809540955
 20
12.398812
 30
0.0
 11
8.418404809540955
 21
12.29381199999999
 31
0.0
 12
8.733404809540955
 22
12.34631199999999
 32
0.0
 13
8.733404809540955
 23
12.34631199999999
 33
0.0
  0
MTEXT
  5
1918
330
7CE
100
AcDbEntity
  8
DIM
 62
     0
100
AcDbMText
 10
7.749404809540955
 20
12.34631199999999
 30
0.0
 40
0.21875
 41
0.0
 71
     5
 72
     1
  1
\A1;1.968
 73
     1
 44
1.0
  0
POINT
  5
1919
330
7CE
100
AcDbEntity
  8
DEFPOINTS
 62
     0
100
AcDbPoint
 10
6.765404809540955
 20
11.099588
 30
0.0
  0
POINT
  5
191A
330
7CE
100
AcDbEntity
  8
DEFPOINTS
 62
     0
100
AcDbPoint
 10
8.733404809540955
 20
11.64799
 30
0.0
  0
POINT
  5
191B
330
7CE
100
AcDbEntity
  8
DEFPOINTS
 62
     0
100
AcDbPoint
 10
8.733404809540955
 20
12.34631199999999
 30
0.0
  0
ENDBLK
  5
7DA
330
7CE
100
AcDbEntity
  8
0
100
AcDbBlockEnd
  0
BLOCK
  5
7E7
330
7DC
100
AcDbEntity
  8
0
100
AcDbBlockBegin
  2
*D15
 70
     1
 10
0.0
 20
0.0
 30
0.0
  3
*D15
  1

  0
LINE
  5
191C
330
7DC
100
AcDbEntity
  8
DIM
 62
     0
370
    -2
100
AcDbLine
 10
6.410404809540955
 20
11.209838
 30
0.0
 11
6.410404809540955
 21
13.492562
 31
0.0
  0
LINE
  5
191D
330
7DC
100
AcDbEntity
  8
DIM
 62
     0
370
    -2
100
AcDbLine
 10
9.088404809540955
 20
11.209838
 30
0.0
 11
9.088404809540955
 21
13.492562
 31
0.0
  0
LINE
  5
191E
330
7DC
100
AcDbEntity
  8
DIM
 62
     0
370
    -2
100
AcDbLine
 10
6.725404809540956
 20
13.32981199999999
 30
0.0
 11
7.263779809540956
 21
13.32981199999999
 31
0.0
  0
LINE
  5
191F
330
7DC
100
AcDbEntity
  8
DIM
 62
     0
370
    -2
100
AcDbLine
 10
8.773404809540956
 20
13.32981199999999
 30
0.0
 11
8.235029809540955
 21
13.32981199999999
 31
0.0
  0
SOLID
  5
1920
330
7DC
100
AcDbEntity
  8
DIM
 62
     0
100
AcDbTrace
 10
6.725404809540956
 20
13.382312
 30
0.0
 11
6.725404809540956
 21
13.27731199999999
 31
0.0
 12
6.410404809540955
 22
13.32981199999999
 32
0.0
 13
6.410404809540955
 23
13.32981199999999
 33
0.0
  0
SOLID
  5
1921
330
7DC
100
AcDbEntity
  8
DIM
 62
     0
100
AcDbTrace
 10
8.773404809540956
 20
13.382312
 30
0.0
 11
8.773404809540956
 21
13.27731199999999
 31
0.0
 12
9.088404809540955
 22
13.32981199999999
 32
0.0
 13
9.088404809540955
 23
13.32981199999999
 33
0.0
  0
MTEXT
  5
1922
330
7DC
100
AcDbEntity
  8
DIM
 62
     0
100
AcDbMText
 10
7.749404809540956
 20
13.32981199999999
 30
0.0
 40
0.21875
 41
0.0
 71
     5
 72
     1
  1
\A1;2.678
 73
     1
 44
1.0
  0
POINT
  5
1923
330
7DC
100
AcDbEntity
  8
DEFPOINTS
 62
     0
100
AcDbPoint
 10
6.410404809540955
 20
11.099588
 30
0.0
  0
POINT
  5
1924
330
7DC
100
AcDbEntity
  8
DEFPOINTS
 62
     0
100
AcDbPoint
 10
9.088404809540955
 20
11.099588
 30
0.0
  0
POINT
  5
1925
330
7DC
100
AcDbEntity
  8
DEFPOINTS
 62
     0
100
AcDbPoint
 10
9.088404809540955
 20
13.32981199999999
 30
0.0
  0
ENDBLK
  5
7E8
330
7DC
100
AcDbEntity
  8
0
100
AcDbBlockEnd
  0
BLOCK
  5
7F5
330
7EA
100
AcDbEntity
  8
0
100
AcDbBlockBegin
  2
*D16
 70
     1
 10
0.0
 20
0.0
 30
0.0
  3
*D16
  1

  0
LINE
  5
1926
330
7EA
100
AcDbEntity
  8
DIM
 62
     0
370
    -2
100
AcDbLine
 10
6.607404809540955
 20
10.687838
 30
0.0
 11
6.607404809540955
 21
13.000812
 31
0.0
  0
LINE
  5
1927
330
7EA
100
AcDbEntity
  8
DIM
 62
     0
370
    -2
100
AcDbLine
 10
6.174404809540956
 20
11.227088
 30
0.0
 11
6.174404809540956
 21
13.000812
 31
0.0
  0
LINE
  5
1928
330
7EA
100
AcDbEntity
  8
DIM
 62
     0
370
    -2
100
AcDbLine
 10
6.922404809540956
 20
12.83806199999999
 30
0.0
 11
7.237404809540955
 21
12.83806199999999
 31
0.0
  0
LINE
  5
1929
330
7EA
100
AcDbEntity
  8
DIM
 62
     0
370
    -2
100
AcDbLine
 10
5.859404809540955
 20
12.83806199999999
 30
0.0
 11
5.544404809540956
 21
12.83806199999999
 31
0.0
  0
SOLID
  5
192A
330
7EA
100
AcDbEntity
  8
DIM
 62
     0
100
AcDbTrace
 10
6.922404809540956
 20
12.890562
 30
0.0
 11
6.922404809540956
 21
12.78556199999999
 31
0.0
 12
6.607404809540955
 22
12.83806199999999
 32
0.0
 13
6.607404809540955
 23
12.83806199999999
 33
0.0
  0
SOLID
  5
192B
330
7EA
100
AcDbEntity
  8
DIM
 62
     0
100
AcDbTrace
 10
5.859404809540955
 20
12.890562
 30
0.0
 11
5.859404809540955
 21
12.78556199999999
 31
0.0
 12
6.174404809540956
 22
12.83806199999999
 32
0.0
 13
6.174404809540956
 23
12.83806199999999
 33
0.0
  0
MTEXT
  5
192C
330
7EA
100
AcDbEntity
  8
DIM
 62
     0
100
AcDbMText
 10
5.099795434540956
 20
12.83806199999999
 30
0.0
 40
0.21875
 41
0.0
 71
     5
 72
     1
  1
\A1;0.431
 73
     1
 44
1.0
  0
POINT
  5
192D
330
7EA
100
AcDbEntity
  8
DEFPOINTS
 62
     0
100
AcDbPoint
 10
6.607404809540955
 20
10.57758799999999
 30
0.0
  0
POINT
  5
192E
330
7EA
100
AcDbEntity
  8
DEFPOINTS
 62
     0
100
AcDbPoint
 10
6.174404809540956
 20
11.116838
 30
0.0
  0
POINT
  5
192F
330
7EA
100
AcDbEntity
  8
DEFPOINTS
 62
     0
100
AcDbPoint
 10
6.174404809540956
 20
12.83806199999999
 30
0.0
  0
ENDBLK
  5
7F6
330
7EA
100
AcDbEntity
  8
0
100
AcDbBlockEnd
  0
BLOCK
  5
803
330
7F8
100
AcDbEntity
  8
0
100
AcDbBlockBegin
  2
*D17
 70
     1
 10
0.0
 20
0.0
 30
0.0
  3
*D17
  1

  0
LINE
  5
1930
330
7F8
100
AcDbEntity
  8
DIM
 62
     0
370
    -2
100
AcDbLine
 10
8.891404809540954
 20
10.905198
 30
0.0
 11
8.891404809540954
 21
13.000812
 31
0.0
  0
LINE
  5
1931
330
7F8
100
AcDbEntity
  8
DIM
 62
     0
370
    -2
100
AcDbLine
 10
6.607404809540955
 20
10.687838
 30
0.0
 11
6.607404809540955
 21
13.000812
 31
0.0
  0
LINE
  5
1932
330
7F8
100
AcDbEntity
  8
DIM
 62
     0
370
    -2
100
AcDbLine
 10
8.576404809540955
 20
12.83806199999999
 30
0.0
 11
8.235029809540955
 21
12.83806199999999
 31
0.0
  0
LINE
  5
1933
330
7F8
100
AcDbEntity
  8
DIM
 62
     0
370
    -2
100
AcDbLine
 10
6.922404809540956
 20
12.83806199999999
 30
0.0
 11
7.263779809540955
 21
12.83806199999999
 31
0.0
  0
SOLID
  5
1934
330
7F8
100
AcDbEntity
  8
DIM
 62
     0
100
AcDbTrace
 10
8.576404809540955
 20
12.890562
 30
0.0
 11
8.576404809540955
 21
12.78556199999999
 31
0.0
 12
8.891404809540954
 22
12.83806199999999
 32
0.0
 13
8.891404809540954
 23
12.83806199999999
 33
0.0
  0
SOLID
  5
1935
330
7F8
100
AcDbEntity
  8
DIM
 62
     0
100
AcDbTrace
 10
6.922404809540956
 20
12.890562
 30
0.0
 11
6.922404809540956
 21
12.78556199999999
 31
0.0
 12
6.607404809540955
 22
12.83806199999999
 32
0.0
 13
6.607404809540955
 23
12.83806199999999
 33
0.0
  0
MTEXT
  5
1936
330
7F8
100
AcDbEntity
  8
DIM
 62
     0
100
AcDbMText
 10
7.749404809540955
 20
12.83806199999999
 30
0.0
 40
0.21875
 41
0.0
 71
     5
 72
     1
  1
\A1;2.284
 73
     1
 44
1.0
  0
POINT
  5
1937
330
7F8
100
AcDbEntity
  8
DEFPOINTS
 62
     0
100
AcDbPoint
 10
8.891404809540954
 20
10.79494799999999
 30
0.0
  0
POINT
  5
1938
330
7F8
100
AcDbEntity
  8
DEFPOINTS
 62
     0
100
AcDbPoint
 10
6.607404809540955
 20
10.57758799999999
 30
0.0
  0
POINT
  5
1939
330
7F8
100
AcDbEntity
  8
DEFPOINTS
 62
     0
100
AcDbPoint
 10
6.607404809540955
 20
12.83806199999999
 30
0.0
  0
ENDBLK
  5
804
330
7F8
100
AcDbEntity
  8
0
100
AcDbBlockEnd
  0
BLOCK
  5
811
330
806
100
AcDbEntity
  8
0
100
AcDbBlockBegin
  2
*D18
 70
     1
 10
0.0
 20
0.0
 30
0.0
  3
*D18
  1

  0
LINE
  5
1A19
330
806
100
AcDbEntity
  8
DIM
 62
     0
370
    -2
100
AcDbLine
 10
6.989404809540954
 20
5.142337999999999
 30
0.0
 11
6.989404809540954
 21
3.394287999999999
 31
0.0
  0
LINE
  5
1A1A
330
806
100
AcDbEntity
  8
DIM
 62
     0
370
    -2
100
AcDbLine
 10
6.174404809540956
 20
5.145088
 30
0.0
 11
6.174404809540956
 21
3.394287999999999
 31
0.0
  0
LINE
  5
1A1B
330
806
100
AcDbEntity
  8
DIM
 62
     0
370
    -2
100
AcDbLine
 10
7.304404809540955
 20
3.557037999999999
 30
0.0
 11
7.619404809540954
 21
3.557037999999999
 31
0.0
  0
LINE
  5
1A1C
330
806
100
AcDbEntity
  8
DIM
 62
     0
370
    -2
100
AcDbLine
 10
5.859404809540955
 20
3.557037999999999
 30
0.0
 11
5.544404809540956
 21
3.557037999999999
 31
0.0
  0
SOLID
  5
1A1D
330
806
100
AcDbEntity
  8
DIM
 62
     0
100
AcDbTrace
 10
7.304404809540955
 20
3.609538
 30
0.0
 11
7.304404809540955
 21
3.504537999999999
 31
0.0
 12
6.989404809540954
 22
3.557037999999999
 32
0.0
 13
6.989404809540954
 23
3.557037999999999
 33
0.0
  0
SOLID
  5
1A1E
330
806
100
AcDbEntity
  8
DIM
 62
     0
100
AcDbTrace
 10
5.859404809540955
 20
3.609538
 30
0.0
 11
5.859404809540955
 21
3.504537999999999
 31
0.0
 12
6.174404809540956
 22
3.557037999999999
 32
0.0
 13
6.174404809540956
 23
3.557037999999999
 33
0.0
  0
MTEXT
  5
1A1F
330
806
100
AcDbEntity
  8
DIM
 62
     0
100
AcDbMText
 10
6.581904809540954
 20
3.557037999999999
 30
0.0
 40
0.21875
 41
0.0
 71
     5
 72
     1
  1
\A1;0.815
 73
     1
 44
1.0
  0
POINT
  5
1A20
330
806
100
AcDbEntity
  8
DEFPOINTS
 62
     0
100
AcDbPoint
 10
6.989404809540954
 20
5.252587999999999
 30
0.0
  0
POINT
  5
1A21
330
806
100
AcDbEntity
  8
DEFPOINTS
 62
     0
100
AcDbPoint
 10
6.174404809540956
 20
5.255338
 30
0.0
  0
POINT
  5
1A22
330
806
100
AcDbEntity
  8
DEFPOINTS
 62
     0
100
AcDbPoint
 10
6.174404809540956
 20
3.557037999999999
 30
0.0
  0
ENDBLK
  5
812
330
806
100
AcDbEntity
  8
0
100
AcDbBlockEnd
  0
BLOCK
  5
81F
330
814
100
AcDbEntity
  8
0
100
AcDbBlockBegin
  2
*D19
 70
     1
 10
0.0
 20
0.0
 30
0.0
  3
*D19
  1

  0
LINE
  5
1A23
330
814
100
AcDbEntity
  8
DIM
 62
     0
370
    -2
100
AcDbLine
 10
6.989404809540954
 20
5.142337999999999
 30
0.0
 11
6.989404809540954
 21
3.886038
 31
0.0
  0
LINE
  5
1A24
330
814
100
AcDbEntity
  8
DIM
 62
     0
370
    -2
100
AcDbLine
 10
8.509404809540955
 20
5.142337999999999
 30
0.0
 11
8.509404809540955
 21
3.886038
 31
0.0
  0
LINE
  5
1A25
330
814
100
AcDbEntity
  8
DIM
 62
     0
370
    -2
100
AcDbLine
 10
6.674404809540954
 20
4.048788
 30
0.0
 11
6.359404809540954
 21
4.048788
 31
0.0
  0
LINE
  5
1A26
330
814
100
AcDbEntity
  8
DIM
 62
     0
370
    -2
100
AcDbLine
 10
8.824404809540954
 20
4.048788
 30
0.0
 11
9.139404809540955
 21
4.048788
 31
0.0
  0
SOLID
  5
1A27
330
814
100
AcDbEntity
  8
DIM
 62
     0
100
AcDbTrace
 10
6.674404809540954
 20
4.101288
 30
0.0
 11
6.674404809540954
 21
3.996287999999999
 31
0.0
 12
6.989404809540954
 22
4.048788
 32
0.0
 13
6.989404809540954
 23
4.048788
 33
0.0
  0
SOLID
  5
1A28
330
814
100
AcDbEntity
  8
DIM
 62
     0
100
AcDbTrace
 10
8.824404809540954
 20
4.101288
 30
0.0
 11
8.824404809540954
 21
3.996287999999999
 31
0.0
 12
8.509404809540955
 22
4.048788
 32
0.0
 13
8.509404809540955
 23
4.048788
 33
0.0
  0
MTEXT
  5
1A29
330
814
100
AcDbEntity
  8
DIM
 62
     0
100
AcDbMText
 10
7.749404809540955
 20
4.048788
 30
0.0
 40
0.21875
 41
0.0
 71
     5
 72
     1
  1
\A1;1.520
 73
     1
 44
1.0
  0
POINT
  5
1A2A
330
814
100
AcDbEntity
  8
DEFPOINTS
 62
     0
100
AcDbPoint
 10
6.989404809540954
 20
5.252587999999999
 30
0.0
  0
POINT
  5
1A2B
330
814
100
AcDbEntity
  8
DEFPOINTS
 62
     0
100
AcDbPoint
 10
8.509404809540955
 20
5.252587999999999
 30
0.0
  0
POINT
  5
1A2C
330
814
100
AcDbEntity
  8
DEFPOINTS
 62
     0
100
AcDbPoint
 10
8.509404809540955
 20
4.048788
 30
0.0
  0
ENDBLK
  5
820
330
814
100
AcDbEntity
  8
0
100
AcDbBlockEnd
  0
BLOCK
  5
82D
330
822
100
AcDbEntity
  8
0
100
AcDbBlockBegin
  2
*D20
 70
     1
 10
0.0
 20
0.0
 30
0.0
  3
*D20
  1

  0
LINE
  5
193A
330
822
100
AcDbEntity
  8
DIM
 62
     0
370
    -2
100
AcDbLine
 10
6.174404809540956
 20
5.145088
 30
0.0
 11
6.174404809540956
 21
2.902538
 31
0.0
  0
LINE
  5
193B
330
822
100
AcDbEntity
  8
DIM
 62
     0
370
    -2
100
AcDbLine
 10
9.324404809540954
 20
5.145088
 30
0.0
 11
9.324404809540954
 21
2.902538
 31
0.0
  0
LINE
  5
193C
330
822
100
AcDbEntity
  8
DIM
 62
     0
370
    -2
100
AcDbLine
 10
6.489404809540956
 20
3.065288
 30
0.0
 11
7.304795434540955
 21
3.065288
 31
0.0
  0
LINE
  5
193D
330
822
100
AcDbEntity
  8
DIM
 62
     0
370
    -2
100
AcDbLine
 10
9.009404809540955
 20
3.065288
 30
0.0
 11
8.194014184540955
 21
3.065288
 31
0.0
  0
SOLID
  5
193E
330
822
100
AcDbEntity
  8
DIM
 62
     0
100
AcDbTrace
 10
6.489404809540956
 20
3.117788
 30
0.0
 11
6.489404809540956
 21
3.012788
 31
0.0
 12
6.174404809540956
 22
3.065288
 32
0.0
 13
6.174404809540956
 23
3.065288
 33
0.0
  0
SOLID
  5
193F
330
822
100
AcDbEntity
  8
DIM
 62
     0
100
AcDbTrace
 10
9.009404809540955
 20
3.117788
 30
0.0
 11
9.009404809540955
 21
3.012788
 31
0.0
 12
9.324404809540954
 22
3.065288
 32
0.0
 13
9.324404809540954
 23
3.065288
 33
0.0
  0
MTEXT
  5
1940
330
822
100
AcDbEntity
  8
DIM
 62
     0
100
AcDbMText
 10
7.749404809540955
 20
3.065288
 30
0.0
 40
0.21875
 41
0.0
 71
     5
 72
     1
  1
\A1;3.150
 73
     1
 44
1.0
  0
POINT
  5
1941
330
822
100
AcDbEntity
  8
DEFPOINTS
 62
     0
100
AcDbPoint
 10
6.174404809540956
 20
5.255338
 30
0.0
  0
POINT
  5
1942
330
822
100
AcDbEntity
  8
DEFPOINTS
 62
     0
100
AcDbPoint
 10
9.324404809540954
 20
5.255338
 30
0.0
  0
POINT
  5
1943
330
822
100
AcDbEntity
  8
DEFPOINTS
 62
     0
100
AcDbPoint
 10
9.324404809540954
 20
3.065288
 30
0.0
  0
ENDBLK
  5
82E
330
822
100
AcDbEntity
  8
0
100
AcDbBlockEnd
  0
BLOCK
  5
83B
330
830
100
AcDbEntity
  8
0
100
AcDbBlockBegin
  2
*D21
 70
     1
 10
0.0
 20
0.0
 30
0.0
  3
*D21
  1

  0
LINE
  5
1A2D
330
830
100
AcDbEntity
  8
DIM
 62
     0
370
    -2
100
AcDbLine
 10
9.215904809540955
 20
5.036588
 30
0.0
 11
10.61777780954095
 21
5.036587999999999
 31
0.0
  0
LINE
  5
1A2E
330
830
100
AcDbEntity
  8
DIM
 62
     0
370
    -2
100
AcDbLine
 10
9.218404809540956
 20
5.496337999999999
 30
0.0
 11
10.61777780954095
 21
5.496337999999998
 31
0.0
  0
LINE
  5
1A2F
330
830
100
AcDbEntity
  8
DIM
 62
     0
370
    -2
100
AcDbLine
 10
10.45502780954095
 20
4.721587999999998
 30
0.0
 11
10.45502780954095
 21
4.406587999999999
 31
0.0
  0
LINE
  5
1A30
330
830
100
AcDbEntity
  8
DIM
 62
     0
370
    -2
100
AcDbLine
 10
10.45502780954095
 20
5.811337999999999
 30
0.0
 11
10.45502780954095
 21
6.126337999999998
 31
0.0
  0
SOLID
  5
1A31
330
830
100
AcDbEntity
  8
DIM
 62
     0
100
AcDbTrace
 10
10.40252780954095
 20
4.721587999999998
 30
0.0
 11
10.50752780954095
 21
4.721587999999998
 31
0.0
 12
10.45502780954095
 22
5.036587999999999
 32
0.0
 13
10.45502780954095
 23
5.036587999999999
 33
0.0
  0
SOLID
  5
1A32
330
830
100
AcDbEntity
  8
DIM
 62
     0
100
AcDbTrace
 10
10.40252780954095
 20
5.811337999999999
 30
0.0
 11
10.50752780954095
 21
5.811337999999999
 31
0.0
 12
10.45502780954095
 22
5.496337999999998
 32
0.0
 13
10.45502780954095
 23
5.496337999999998
 33
0.0
  0
MTEXT
  5
1A33
330
830
100
AcDbEntity
  8
DIM
 62
     0
100
AcDbMText
 10
10.45502780954095
 20
5.266463
 30
0.0
 40
0.21875
 41
0.0
 71
     5
 72
     1
  1
\A1;0.460
 73
     1
 44
1.0
  0
POINT
  5
1A34
330
830
100
AcDbEntity
  8
DEFPOINTS
 62
     0
100
AcDbPoint
 10
9.105654809540954
 20
5.036588
 30
0.0
  0
POINT
  5
1A35
330
830
100
AcDbEntity
  8
DEFPOINTS
 62
     0
100
AcDbPoint
 10
9.108154809540955
 20
5.496337999999999
 30
0.0
  0
POINT
  5
1A36
330
830
100
AcDbEntity
  8
DEFPOINTS
 62
     0
100
AcDbPoint
 10
10.45502780954095
 20
5.496337999999998
 30
0.0
  0
ENDBLK
  5
83C
330
830
100
AcDbEntity
  8
0
100
AcDbBlockEnd
  0
BLOCK
  5
849
330
83E
100
AcDbEntity
  8
0
100
AcDbBlockBegin
  2
*D22
 70
     1
 10
0.0
 20
0.0
 30
0.0
  3
*D22
  1

  0
LINE
  5
1944
330
83E
100
AcDbEntity
  8
DIM
 62
     0
370
    -2
100
AcDbLine
 10
9.218404809540956
 20
5.496337999999999
 30
0.0
 11
10.61777780954095
 21
5.496337999999998
 31
0.0
  0
LINE
  5
1945
330
83E
100
AcDbEntity
  8
DIM
 62
     0
370
    -2
100
AcDbLine
 10
9.218404809540956
 20
10.87583799999999
 30
0.0
 11
10.61777780954095
 21
10.87583799999999
 31
0.0
  0
LINE
  5
1946
330
83E
100
AcDbEntity
  8
DIM
 62
     0
370
    -2
100
AcDbLine
 10
10.45502780954095
 20
5.811337999999999
 30
0.0
 11
10.45502780954095
 21
7.919212999999999
 31
0.0
  0
LINE
  5
1947
330
83E
100
AcDbEntity
  8
DIM
 62
     0
370
    -2
100
AcDbLine
 10
10.45502780954095
 20
10.560838
 30
0.0
 11
10.45502780954095
 21
8.452963
 31
0.0
  0
SOLID
  5
1948
330
83E
100
AcDbEntity
  8
DIM
 62
     0
100
AcDbTrace
 10
10.40252780954095
 20
5.811337999999999
 30
0.0
 11
10.50752780954095
 21
5.811337999999999
 31
0.0
 12
10.45502780954095
 22
5.496337999999998
 32
0.0
 13
10.45502780954095
 23
5.496337999999998
 33
0.0
  0
SOLID
  5
1949
330
83E
100
AcDbEntity
  8
DIM
 62
     0
100
AcDbTrace
 10
10.40252780954095
 20
10.560838
 30
0.0
 11
10.50752780954095
 21
10.560838
 31
0.0
 12
10.45502780954095
 22
10.87583799999999
 32
0.0
 13
10.45502780954095
 23
10.87583799999999
 33
0.0
  0
MTEXT
  5
194A
330
83E
100
AcDbEntity
  8
DIM
 62
     0
100
AcDbMText
 10
10.45502780954095
 20
8.186088000000001
 30
0.0
 40
0.21875
 41
0.0
 71
     5
 72
     1
  1
\A1;5.380
 73
     1
 44
1.0
  0
POINT
  5
194B
330
83E
100
AcDbEntity
  8
DEFPOINTS
 62
     0
100
AcDbPoint
 10
9.108154809540955
 20
5.496337999999999
 30
0.0
  0
POINT
  5
194C
330
83E
100
AcDbEntity
  8
DEFPOINTS
 62
     0
100
AcDbPoint
 10
9.108154809540955
 20
10.87583799999999
 30
0.0
  0
POINT
  5
194D
330
83E
100
AcDbEntity
  8
DEFPOINTS
 62
     0
100
AcDbPoint
 10
10.45502780954095
 20
10.87583799999999
 30
0.0
  0
ENDBLK
  5
84A
330
83E
100
AcDbEntity
  8
0
100
AcDbBlockEnd
  0
BLOCK
  5
857
330
84C
100
AcDbEntity
  8
0
100
AcDbBlockBegin
  2
*D23
 70
     1
 10
0.0
 20
0.0
 30
0.0
  3
*D23
  1

  0
LINE
  5
194E
330
84C
100
AcDbEntity
  8
DIM
 62
     0
370
    -2
100
AcDbLine
 10
6.156904809540955
 20
5.036588
 30
0.0
 11
3.672502809540956
 21
5.036588
 31
0.0
  0
LINE
  5
194F
330
84C
100
AcDbEntity
  8
DIM
 62
     0
370
    -2
100
AcDbLine
 10
6.282904809540956
 20
11.335588
 30
0.0
 11
3.672502809540957
 21
11.335588
 31
0.0
  0
LINE
  5
1950
330
84C
100
AcDbEntity
  8
DIM
 62
     0
370
    -2
100
AcDbLine
 10
3.835252809540956
 20
5.351588000000001
 30
0.0
 11
3.835252809540956
 21
7.919213000000002
 31
0.0
  0
LINE
  5
1951
330
84C
100
AcDbEntity
  8
DIM
 62
     0
370
    -2
100
AcDbLine
 10
3.835252809540957
 20
11.020588
 30
0.0
 11
3.835252809540956
 21
8.452963000000004
 31
0.0
  0
SOLID
  5
1952
330
84C
100
AcDbEntity
  8
DIM
 62
     0
100
AcDbTrace
 10
3.782752809540955
 20
5.351588000000001
 30
0.0
 11
3.887752809540956
 21
5.351588000000001
 31
0.0
 12
3.835252809540956
 22
5.036588
 32
0.0
 13
3.835252809540956
 23
5.036588
 33
0.0
  0
SOLID
  5
1953
330
84C
100
AcDbEntity
  8
DIM
 62
     0
100
AcDbTrace
 10
3.782752809540957
 20
11.020588
 30
0.0
 11
3.887752809540957
 21
11.020588
 31
0.0
 12
3.835252809540957
 22
11.335588
 32
0.0
 13
3.835252809540957
 23
11.335588
 33
0.0
  0
MTEXT
  5
1954
330
84C
100
AcDbEntity
  8
DIM
 62
     0
100
AcDbMText
 10
3.835252809540955
 20
8.186088000000003
 30
0.0
 40
0.21875
 41
0.0
 71
     5
 72
     1
  1
\A1;6.299
 73
     1
 44
1.0
  0
POINT
  5
1955
330
84C
100
AcDbEntity
  8
DEFPOINTS
 62
     0
100
AcDbPoint
 10
6.267154809540955
 20
5.036588
 30
0.0
  0
POINT
  5
1956
330
84C
100
AcDbEntity
  8
DEFPOINTS
 62
     0
100
AcDbPoint
 10
6.393154809540956
 20
11.335588
 30
0.0
  0
POINT
  5
1957
330
84C
100
AcDbEntity
  8
DEFPOINTS
 62
     0
100
AcDbPoint
 10
3.835252809540957
 20
11.335588
 30
0.0
  0
ENDBLK
  5
858
330
84C
100
AcDbEntity
  8
0
100
AcDbBlockEnd
  0
BLOCK
  5
865
330
85A
100
AcDbEntity
  8
0
100
AcDbBlockBegin
  2
*D24
 70
     1
 10
0.0
 20
0.0
 30
0.0
  3
*D24
  1

  0
LINE
  5
1958
330
85A
100
AcDbEntity
  8
DIM
 62
     0
370
    -2
100
AcDbLine
 10
9.001654809540955
 20
10.57758799999999
 30
0.0
 11
10.01748280954095
 21
10.57758799999999
 31
0.0
  0
LINE
  5
1959
330
85A
100
AcDbEntity
  8
DIM
 62
     0
370
    -2
100
AcDbLine
 10
9.215904809540955
 20
11.335588
 30
0.0
 11
10.01748280954095
 21
11.335588
 31
0.0
  0
LINE
  5
195A
330
85A
100
AcDbEntity
  8
DIM
 62
     0
370
    -2
100
AcDbLine
 10
9.854732809540955
 20
10.262588
 30
0.0
 11
9.854732809540955
 21
9.947587999999999
 31
0.0
  0
LINE
  5
195B
330
85A
100
AcDbEntity
  8
DIM
 62
     0
370
    -2
100
AcDbLine
 10
9.854732809540955
 20
11.650588
 30
0.0
 11
9.854732809540955
 21
11.965588
 31
0.0
  0
LINE
  5
195C
330
85A
100
AcDbEntity
  8
DIM
 62
     0
370
    -2
100
AcDbLine
 10
9.854732809540955
 20
11.965588
 30
0.0
 11
10.16973280954095
 21
11.965588
 31
0.0
  0
SOLID
  5
195D
330
85A
100
AcDbEntity
  8
DIM
 62
     0
100
AcDbTrace
 10
9.802232809540955
 20
10.262588
 30
0.0
 11
9.907232809540955
 21
10.262588
 31
0.0
 12
9.854732809540955
 22
10.57758799999999
 32
0.0
 13
9.854732809540955
 23
10.57758799999999
 33
0.0
  0
SOLID
  5
195E
330
85A
100
AcDbEntity
  8
DIM
 62
     0
100
AcDbTrace
 10
9.802232809540955
 20
11.650588
 30
0.0
 11
9.907232809540955
 21
11.650588
 31
0.0
 12
9.854732809540955
 22
11.335588
 32
0.0
 13
9.854732809540955
 23
11.335588
 33
0.0
  0
MTEXT
  5
195F
330
85A
100
AcDbEntity
  8
DIM
 62
     0
100
AcDbMText
 10
10.64168593454095
 20
11.965588
 30
0.0
 40
0.21875
 41
0.0
 71
     5
 72
     1
  1
\A1;0.758
 73
     1
 44
1.0
  0
POINT
  5
1960
330
85A
100
AcDbEntity
  8
DEFPOINTS
 62
     0
100
AcDbPoint
 10
8.891404809540954
 20
10.57758799999999
 30
0.0
  0
POINT
  5
1961
330
85A
100
AcDbEntity
  8
DEFPOINTS
 62
     0
100
AcDbPoint
 10
9.105654809540954
 20
11.335588
 30
0.0
  0
POINT
  5
1962
330
85A
100
AcDbEntity
  8
DEFPOINTS
 62
     0
100
AcDbPoint
 10
9.854732809540955
 20
11.335588
 30
0.0
  0
ENDBLK
  5
866
330
85A
100
AcDbEntity
  8
0
100
AcDbBlockEnd
  0
BLOCK
  5
873
330
868
100
AcDbEntity
  8
0
100
AcDbBlockBegin
  2
*D25
 70
     1
 10
0.0
 20
0.0
 30
0.0
  3
*D25
  1

  0
LINE
  5
1963
330
868
100
AcDbEntity
  8
DIM
 62
     0
370
    -2
100
AcDbLine
 10
6.292404809540955
 20
9.430621999999999
 30
0.0
 11
6.292404809540955
 21
9.370554999999999
 31
0.0
  0
LINE
  5
1964
330
868
100
AcDbEntity
  8
DIM
 62
     0
370
    -2
100
AcDbLine
 10
6.174404809540956
 20
9.430621999999999
 30
0.0
 11
6.174404809540956
 21
9.370554999999999
 31
0.0
  0
LINE
  5
1965
330
868
100
AcDbEntity
  8
DIM
 62
     0
370
    -2
100
AcDbLine
 10
6.607404809540955
 20
9.533305
 30
0.0
 11
6.922404809540955
 21
9.533305
 31
0.0
  0
LINE
  5
1966
330
868
100
AcDbEntity
  8
DIM
 62
     0
370
    -2
100
AcDbLine
 10
5.859404809540955
 20
9.533305
 30
0.0
 11
5.544404809540956
 21
9.533305
 31
0.0
  0
SOLID
  5
1967
330
868
100
AcDbEntity
  8
DIM
 62
     0
100
AcDbTrace
 10
6.607404809540955
 20
9.585805
 30
0.0
 11
6.607404809540955
 21
9.480805
 31
0.0
 12
6.292404809540955
 22
9.533305
 32
0.0
 13
6.292404809540955
 23
9.533305
 33
0.0
  0
SOLID
  5
1968
330
868
100
AcDbEntity
  8
DIM
 62
     0
100
AcDbTrace
 10
5.859404809540955
 20
9.585805
 30
0.0
 11
5.859404809540955
 21
9.480805
 31
0.0
 12
6.174404809540956
 22
9.533305
 32
0.0
 13
6.174404809540956
 23
9.533305
 33
0.0
  0
MTEXT
  5
1969
330
868
100
AcDbEntity
  8
DIM
 62
     0
100
AcDbMText
 10
4.771670434540956
 20
9.533305
 30
0.0
 40
0.21875
 41
0.0
 71
     5
 72
     1
  1
\A1;0.118 TYP.
 73
     1
 44
1.0
  0
POINT
  5
196A
330
868
100
AcDbEntity
  8
DEFPOINTS
 62
     0
100
AcDbPoint
 10
6.292404809540955
 20
9.540872
 30
0.0
  0
POINT
  5
196B
330
868
100
AcDbEntity
  8
DEFPOINTS
 62
     0
100
AcDbPoint
 10
6.174404809540956
 20
9.540872
 30
0.0
  0
POINT
  5
196C
330
868
100
AcDbEntity
  8
DEFPOINTS
 62
     0
100
AcDbPoint
 10
6.174404809540956
 20
9.533305
 30
0.0
  0
ENDBLK
  5
874
330
868
100
AcDbEntity
  8
0
100
AcDbBlockEnd
  0
BLOCK
  5
881
330
876
100
AcDbEntity
  8
0
100
AcDbBlockBegin
  2
*D26
 70
     1
 10
0.0
 20
0.0
 30
0.0
  3
*D26
  1

  0
LINE
  5
196D
330
876
100
AcDbEntity
  8
DIM
 62
     0
370
    -2
100
AcDbLine
 10
6.292404809540955
 20
9.430621999999999
 30
0.0
 11
6.292404809540955
 21
9.370554999999999
 31
0.0
  0
LINE
  5
196E
330
876
100
AcDbEntity
  8
DIM
 62
     0
370
    -2
100
AcDbLine
 10
9.206404809540954
 20
9.430621999999999
 30
0.0
 11
9.206404809540954
 21
9.370554999999999
 31
0.0
  0
LINE
  5
196F
330
876
100
AcDbEntity
  8
DIM
 62
     0
370
    -2
100
AcDbLine
 10
6.607404809540955
 20
9.533305
 30
0.0
 11
7.291123559540955
 21
9.533305
 31
0.0
  0
LINE
  5
1970
330
876
100
AcDbEntity
  8
DIM
 62
     0
370
    -2
100
AcDbLine
 10
8.891404809540954
 20
9.533305
 30
0.0
 11
8.207686059540955
 21
9.533305
 31
0.0
  0
SOLID
  5
1971
330
876
100
AcDbEntity
  8
DIM
 62
     0
100
AcDbTrace
 10
6.607404809540955
 20
9.585805
 30
0.0
 11
6.607404809540955
 21
9.480805
 31
0.0
 12
6.292404809540955
 22
9.533305
 32
0.0
 13
6.292404809540955
 23
9.533305
 33
0.0
  0
SOLID
  5
1972
330
876
100
AcDbEntity
  8
DIM
 62
     0
100
AcDbTrace
 10
8.891404809540954
 20
9.585805
 30
0.0
 11
8.891404809540954
 21
9.480805
 31
0.0
 12
9.206404809540954
 22
9.533305
 32
0.0
 13
9.206404809540954
 23
9.533305
 33
0.0
  0
MTEXT
  5
1973
330
876
100
AcDbEntity
  8
DIM
 62
     0
100
AcDbMText
 10
7.749404809540955
 20
9.533305
 30
0.0
 40
0.21875
 41
0.0
 71
     5
 72
     1
  1
\A1;2.914
 73
     1
 44
1.0
  0
POINT
  5
1974
330
876
100
AcDbEntity
  8
DEFPOINTS
 62
     0
100
AcDbPoint
 10
6.292404809540955
 20
9.540872
 30
0.0
  0
POINT
  5
1975
330
876
100
AcDbEntity
  8
DEFPOINTS
 62
     0
100
AcDbPoint
 10
9.206404809540954
 20
9.540872
 30
0.0
  0
POINT
  5
1976
330
876
100
AcDbEntity
  8
DEFPOINTS
 62
     0
100
AcDbPoint
 10
9.206404809540954
 20
9.533305
 30
0.0
  0
ENDBLK
  5
882
330
876
100
AcDbEntity
  8
0
100
AcDbBlockEnd
  0
BLOCK
  5
912
330
907
100
AcDbEntity
  8
0
100
AcDbBlockBegin
  2
*D27
 70
     1
 10
0.0
 20
0.0
 30
0.0
  3
*D27
  1

  0
LINE
  5
1977
330
907
100
AcDbEntity
  8
DIM
 62
     0
370
    -2
100
AcDbLine
 10
8.300904809540954
 20
5.154338
 30
0.0
 11
8.087967809540954
 21
5.154338
 31
0.0
  0
LINE
  5
1978
330
907
100
AcDbEntity
  8
DIM
 62
     0
370
    -2
100
AcDbLine
 10
8.300904809540954
 20
11.21783799999999
 30
0.0
 11
8.087967809540954
 21
11.21783799999999
 31
0.0
  0
LINE
  5
1979
330
907
100
AcDbEntity
  8
DIM
 62
     0
370
    -2
100
AcDbLine
 10
8.250717809540955
 20
5.469338
 30
0.0
 11
8.250717809540955
 21
7.919213
 31
0.0
  0
LINE
  5
197A
330
907
100
AcDbEntity
  8
DIM
 62
     0
370
    -2
100
AcDbLine
 10
8.250717809540955
 20
10.902838
 30
0.0
 11
8.250717809540955
 21
8.452963
 31
0.0
  0
SOLID
  5
197B
330
907
100
AcDbEntity
  8
DIM
 62
     0
100
AcDbTrace
 10
8.198217809540954
 20
5.469338
 30
0.0
 11
8.303217809540955
 21
5.469338
 31
0.0
 12
8.250717809540955
 22
5.154338
 32
0.0
 13
8.250717809540955
 23
5.154338
 33
0.0
  0
SOLID
  5
197C
330
907
100
AcDbEntity
  8
DIM
 62
     0
100
AcDbTrace
 10
8.198217809540954
 20
10.902838
 30
0.0
 11
8.303217809540955
 21
10.902838
 31
0.0
 12
8.250717809540955
 22
11.21783799999999
 32
0.0
 13
8.250717809540955
 23
11.21783799999999
 33
0.0
  0
MTEXT
  5
197D
330
907
100
AcDbEntity
  8
DIM
 62
     0
100
AcDbMText
 10
8.250717809540953
 20
8.186088000000001
 30
0.0
 40
0.21875
 41
0.0
 71
     5
 72
     1
  1
\A1;6.064
 73
     1
 44
1.0
  0
POINT
  5
197E
330
907
100
AcDbEntity
  8
DEFPOINTS
 62
     0
100
AcDbPoint
 10
8.411154809540954
 20
5.154338
 30
0.0
  0
POINT
  5
197F
330
907
100
AcDbEntity
  8
DEFPOINTS
 62
     0
100
AcDbPoint
 10
8.411154809540954
 20
11.21783799999999
 30
0.0
  0
POINT
  5
1980
330
907
100
AcDbEntity
  8
DEFPOINTS
 62
     0
100
AcDbPoint
 10
8.250717809540955
 20
11.21783799999999
 30
0.0
  0
ENDBLK
  5
913
330
907
100
AcDbEntity
  8
0
100
AcDbBlockEnd
  0
BLOCK
  5
971
330
966
100
AcDbEntity
  8
0
100
AcDbBlockBegin
  2
*D28
 70
     1
 10
0.0
 20
0.0
 30
0.0
  3
*D28
  1

  0
LINE
  5
1981
330
966
100
AcDbEntity
  8
DIM
 62
     0
370
    -2
100
AcDbLine
 10
14.00990580954095
 20
11.395838
 30
0.0
 11
14.00990580954095
 21
11.934457
 31
0.0
  0
LINE
  5
1982
330
966
100
AcDbEntity
  8
DIM
 62
     0
370
    -2
100
AcDbLine
 10
11.18890580954095
 20
11.367838
 30
0.0
 11
11.18890580954095
 21
11.934457
 31
0.0
  0
LINE
  5
1983
330
966
100
AcDbEntity
  8
DIM
 62
     0
370
    -2
100
AcDbLine
 10
13.69490580954095
 20
11.771707
 30
0.0
 11
13.05768705954095
 21
11.771707
 31
0.0
  0
LINE
  5
1984
330
966
100
AcDbEntity
  8
DIM
 62
     0
370
    -2
100
AcDbLine
 10
11.50390580954095
 20
11.771707
 30
0.0
 11
12.14112455954095
 21
11.771707
 31
0.0
  0
SOLID
  5
1985
330
966
100
AcDbEntity
  8
DIM
 62
     0
100
AcDbTrace
 10
13.69490580954095
 20
11.824207
 30
0.0
 11
13.69490580954095
 21
11.719207
 31
0.0
 12
14.00990580954095
 22
11.771707
 32
0.0
 13
14.00990580954095
 23
11.771707
 33
0.0
  0
SOLID
  5
1986
330
966
100
AcDbEntity
  8
DIM
 62
     0
100
AcDbTrace
 10
11.50390580954095
 20
11.824207
 30
0.0
 11
11.50390580954095
 21
11.719207
 31
0.0
 12
11.18890580954095
 22
11.771707
 32
0.0
 13
11.18890580954095
 23
11.771707
 33
0.0
  0
MTEXT
  5
1987
330
966
100
AcDbEntity
  8
DIM
 62
     0
100
AcDbMText
 10
12.59940580954095
 20
11.771707
 30
0.0
 40
0.21875
 41
0.0
 71
     5
 72
     1
  1
\A1;2.821
 73
     1
 44
1.0
  0
POINT
  5
1988
330
966
100
AcDbEntity
  8
DEFPOINTS
 62
     0
100
AcDbPoint
 10
14.00990580954095
 20
11.285588
 30
0.0
  0
POINT
  5
1989
330
966
100
AcDbEntity
  8
DEFPOINTS
 62
     0
100
AcDbPoint
 10
11.18890580954095
 20
11.257588
 30
0.0
  0
POINT
  5
198A
330
966
100
AcDbEntity
  8
DEFPOINTS
 62
     0
100
AcDbPoint
 10
11.18890580954095
 20
11.771707
 30
0.0
  0
ENDBLK
  5
972
330
966
100
AcDbEntity
  8
0
100
AcDbBlockEnd
  0
BLOCK
  5
97F
330
974
100
AcDbEntity
  8
0
100
AcDbBlockBegin
  2
*D29
 70
     1
 10
0.0
 20
0.0
 30
0.0
  3
*D29
  1

  0
LINE
  5
1A37
330
974
100
AcDbEntity
  8
DIM
 62
     0
370
    -2
100
AcDbLine
 10
14.00990580954095
 20
4.976338
 30
0.0
 11
14.00990580954095
 21
4.496998
 31
0.0
  0
LINE
  5
1A38
330
974
100
AcDbEntity
  8
DIM
 62
     0
370
    -2
100
AcDbLine
 10
11.56390580954095
 20
5.005087999999999
 30
0.0
 11
11.56390580954095
 21
4.496998
 31
0.0
  0
LINE
  5
1A39
330
974
100
AcDbEntity
  8
DIM
 62
     0
370
    -2
100
AcDbLine
 10
13.69490580954095
 20
4.659748
 30
0.0
 11
13.27253080954095
 21
4.659748
 31
0.0
  0
LINE
  5
1A3A
330
974
100
AcDbEntity
  8
DIM
 62
     0
370
    -2
100
AcDbLine
 10
11.87890580954095
 20
4.659748
 30
0.0
 11
12.30128080954095
 21
4.659748
 31
0.0
  0
SOLID
  5
1A3B
330
974
100
AcDbEntity
  8
DIM
 62
     0
100
AcDbTrace
 10
13.69490580954095
 20
4.712248
 30
0.0
 11
13.69490580954095
 21
4.607248
 31
0.0
 12
14.00990580954095
 22
4.659748
 32
0.0
 13
14.00990580954095
 23
4.659748
 33
0.0
  0
SOLID
  5
1A3C
330
974
100
AcDbEntity
  8
DIM
 62
     0
100
AcDbTrace
 10
11.87890580954095
 20
4.712248
 30
0.0
 11
11.87890580954095
 21
4.607248
 31
0.0
 12
11.56390580954095
 22
4.659748
 32
0.0
 13
11.56390580954095
 23
4.659748
 33
0.0
  0
MTEXT
  5
1A3D
330
974
100
AcDbEntity
  8
DIM
 62
     0
100
AcDbMText
 10
12.78690580954095
 20
4.659748
 30
0.0
 40
0.21875
 41
0.0
 71
     5
 72
     1
  1
\A1;2.446
 73
     1
 44
1.0
  0
POINT
  5
1A3E
330
974
100
AcDbEntity
  8
DEFPOINTS
 62
     0
100
AcDbPoint
 10
14.00990580954095
 20
5.086587999999999
 30
0.0
  0
POINT
  5
1A3F
330
974
100
AcDbEntity
  8
DEFPOINTS
 62
     0
100
AcDbPoint
 10
11.56390580954095
 20
5.115337999999999
 30
0.0
  0
POINT
  5
1A40
330
974
100
AcDbEntity
  8
DEFPOINTS
 62
     0
100
AcDbPoint
 10
11.56390580954095
 20
4.659748
 30
0.0
  0
ENDBLK
  5
980
330
974
100
AcDbEntity
  8
0
100
AcDbBlockEnd
  0
BLOCK
  5
98D
330
982
100
AcDbEntity
  8
0
100
AcDbBlockBegin
  2
*D30
 70
     1
 10
0.0
 20
0.0
 30
0.0
  3
*D30
  1

  0
LINE
  5
198B
330
982
100
AcDbEntity
  8
DIM
 62
     0
370
    -2
100
AcDbLine
 10
13.85290580954095
 20
8.642953999999999
 30
0.0
 11
13.85290580954095
 21
8.841420000000001
 31
0.0
  0
LINE
  5
198C
330
982
100
AcDbEntity
  8
DIM
 62
     0
370
    -2
100
AcDbLine
 10
14.00990580954095
 20
8.642953999999999
 30
0.0
 11
14.00990580954095
 21
8.841420000000001
 31
0.0
  0
LINE
  5
198D
330
982
100
AcDbEntity
  8
DIM
 62
     0
370
    -2
100
AcDbLine
 10
13.53790580954095
 20
8.67867
 30
0.0
 11
13.22290580954095
 21
8.67867
 31
0.0
  0
LINE
  5
198E
330
982
100
AcDbEntity
  8
DIM
 62
     0
370
    -2
100
AcDbLine
 10
14.32490580954095
 20
8.67867
 30
0.0
 11
14.63990580954095
 21
8.67867
 31
0.0
  0
SOLID
  5
198F
330
982
100
AcDbEntity
  8
DIM
 62
     0
100
AcDbTrace
 10
13.53790580954095
 20
8.73117
 30
0.0
 11
13.53790580954095
 21
8.62617
 31
0.0
 12
13.85290580954095
 22
8.67867
 32
0.0
 13
13.85290580954095
 23
8.67867
 33
0.0
  0
SOLID
  5
1990
330
982
100
AcDbEntity
  8
DIM
 62
     0
100
AcDbTrace
 10
14.32490580954095
 20
8.73117
 30
0.0
 11
14.32490580954095
 21
8.62617
 31
0.0
 12
14.00990580954095
 22
8.67867
 32
0.0
 13
14.00990580954095
 23
8.67867
 33
0.0
  0
MTEXT
  5
1991
330
982
100
AcDbEntity
  8
DIM
 62
     0
100
AcDbMText
 10
15.08451518454095
 20
8.67867
 30
0.0
 40
0.21875
 41
0.0
 71
     5
 72
     1
  1
\A1;0.157
 73
     1
 44
1.0
  0
POINT
  5
1992
330
982
100
AcDbEntity
  8
DEFPOINTS
 62
     0
100
AcDbPoint
 10
13.85290580954095
 20
8.532703999999998
 30
0.0
  0
POINT
  5
1993
330
982
100
AcDbEntity
  8
DEFPOINTS
 62
     0
100
AcDbPoint
 10
14.00990580954095
 20
8.532703999999998
 30
0.0
  0
POINT
  5
1994
330
982
100
AcDbEntity
  8
DEFPOINTS
 62
     0
100
AcDbPoint
 10
14.00990580954095
 20
8.67867
 30
0.0
  0
ENDBLK
  5
98E
330
982
100
AcDbEntity
  8
0
100
AcDbBlockEnd
  0
BLOCK
  5
99B
330
990
100
AcDbEntity
  8
0
100
AcDbBlockBegin
  2
*D31
 70
     1
 10
0.0
 20
0.0
 30
0.0
  3
*D31
  1

  0
LINE
  5
1A82
330
990
100
AcDbEntity
  8
DIM
 62
     0
370
    -2
100
AcDbLine
 10
13.67490580954095
 20
10.309838
 30
0.0
 11
13.67490580954095
 21
9.646705999999998
 31
0.0
  0
LINE
  5
1A83
330
990
100
AcDbEntity
  8
DIM
 62
     0
370
    -2
100
AcDbLine
 10
14.00990580954095
 20
10.309838
 30
0.0
 11
14.00990580954095
 21
9.646705999999998
 31
0.0
  0
LINE
  5
1A84
330
990
100
AcDbEntity
  8
DIM
 62
     0
370
    -2
100
AcDbLine
 10
13.35990580954095
 20
9.809455999999999
 30
0.0
 11
13.04490580954095
 21
9.809455999999999
 31
0.0
  0
LINE
  5
1A85
330
990
100
AcDbEntity
  8
DIM
 62
     0
370
    -2
100
AcDbLine
 10
14.32490580954095
 20
9.809455999999999
 30
0.0
 11
14.63990580954095
 21
9.809455999999999
 31
0.0
  0
SOLID
  5
1A86
330
990
100
AcDbEntity
  8
DIM
 62
     0
100
AcDbTrace
 10
13.35990580954095
 20
9.861955999999999
 30
0.0
 11
13.35990580954095
 21
9.756955999999998
 31
0.0
 12
13.67490580954095
 22
9.809455999999999
 32
0.0
 13
13.67490580954095
 23
9.809455999999999
 33
0.0
  0
SOLID
  5
1A87
330
990
100
AcDbEntity
  8
DIM
 62
     0
100
AcDbTrace
 10
14.32490580954095
 20
9.861955999999999
 30
0.0
 11
14.32490580954095
 21
9.756955999999998
 31
0.0
 12
14.00990580954095
 22
9.809455999999999
 32
0.0
 13
14.00990580954095
 23
9.809455999999999
 33
0.0
  0
MTEXT
  5
1A88
330
990
100
AcDbEntity
  8
DIM
 62
     0
100
AcDbMText
 10
15.11185893454095
 20
9.809455999999999
 30
0.0
 40
0.21875
 41
0.0
 71
     5
 72
     1
  1
\A1;0.335
 73
     1
 44
1.0
  0
POINT
  5
1A89
330
990
100
AcDbEntity
  8
DEFPOINTS
 62
     0
100
AcDbPoint
 10
13.67490580954095
 20
10.420088
 30
0.0
  0
POINT
  5
1A8A
330
990
100
AcDbEntity
  8
DEFPOINTS
 62
     0
100
AcDbPoint
 10
14.00990580954095
 20
10.420088
 30
0.0
  0
POINT
  5
1A8B
330
990
100
AcDbEntity
  8
DEFPOINTS
 62
     0
100
AcDbPoint
 10
14.00990580954095
 20
9.809455999999999
 30
0.0
  0
ENDBLK
  5
99C
330
990
100
AcDbEntity
  8
0
100
AcDbBlockEnd
  0
BLOCK
  5
9A9
330
99E
100
AcDbEntity
  8
0
100
AcDbBlockBegin
  2
*D32
 70
     1
 10
0.0
 20
0.0
 30
0.0
  3
*D32
  1

  0
LINE
  5
1A41
330
99E
100
AcDbEntity
  8
DIM
 62
     0
370
    -2
100
AcDbLine
 10
14.12015580954095
 20
5.115337999999999
 30
0.0
 11
14.95859080954095
 21
5.115337999999999
 31
0.0
  0
LINE
  5
1A42
330
99E
100
AcDbEntity
  8
DIM
 62
     0
370
    -2
100
AcDbLine
 10
14.12015580954095
 20
5.425337999999999
 30
0.0
 11
14.95859080954095
 21
5.425337999999999
 31
0.0
  0
LINE
  5
1A43
330
99E
100
AcDbEntity
  8
DIM
 62
     0
370
    -2
100
AcDbLine
 10
14.79584080954095
 20
4.800337999999999
 30
0.0
 11
14.79584080954095
 21
4.485337999999999
 31
0.0
  0
LINE
  5
1A44
330
99E
100
AcDbEntity
  8
DIM
 62
     0
370
    -2
100
AcDbLine
 10
14.79584080954095
 20
5.740338
 30
0.0
 11
14.79584080954095
 21
6.055337999999999
 31
0.0
  0
SOLID
  5
1A45
330
99E
100
AcDbEntity
  8
DIM
 62
     0
100
AcDbTrace
 10
14.74334080954095
 20
4.800337999999999
 30
0.0
 11
14.84834080954095
 21
4.800337999999999
 31
0.0
 12
14.79584080954095
 22
5.115337999999999
 32
0.0
 13
14.79584080954095
 23
5.115337999999999
 33
0.0
  0
SOLID
  5
1A46
330
99E
100
AcDbEntity
  8
DIM
 62
     0
100
AcDbTrace
 10
14.74334080954095
 20
5.740338
 30
0.0
 11
14.84834080954095
 21
5.740338
 31
0.0
 12
14.79584080954095
 22
5.425337999999999
 32
0.0
 13
14.79584080954095
 23
5.425337999999999
 33
0.0
  0
MTEXT
  5
1A47
330
99E
100
AcDbEntity
  8
DIM
 62
     0
100
AcDbMText
 10
14.79584080954095
 20
5.270338000000002
 30
0.0
 40
0.21875
 41
0.0
 71
     5
 72
     1
  1
\A1;0.310 DIA.
 73
     1
 44
1.0
  0
POINT
  5
1A48
330
99E
100
AcDbEntity
  8
DEFPOINTS
 62
     0
100
AcDbPoint
 10
14.00990580954095
 20
5.115337999999999
 30
0.0
  0
POINT
  5
1A49
330
99E
100
AcDbEntity
  8
DEFPOINTS
 62
     0
100
AcDbPoint
 10
14.00990580954095
 20
5.425337999999999
 30
0.0
  0
POINT
  5
1A4A
330
99E
100
AcDbEntity
  8
DEFPOINTS
 62
     0
100
AcDbPoint
 10
14.79584080954095
 20
5.425337999999999
 30
0.0
  0
ENDBLK
  5
9AA
330
99E
100
AcDbEntity
  8
0
100
AcDbBlockEnd
  0
BLOCK
  5
9B7
330
9AC
100
AcDbEntity
  8
0
100
AcDbBlockBegin
  2
*D33
 70
     1
 10
0.0
 20
0.0
 30
0.0
  3
*D33
  1

  0
LINE
  5
199F
330
9AC
100
AcDbEntity
  8
DIM
 62
     0
370
    -2
100
AcDbLine
 10
14.12015580954095
 20
11.017088
 30
0.0
 11
14.68738180954095
 21
11.017088
 31
0.0
  0
LINE
  5
19A0
330
9AC
100
AcDbEntity
  8
DIM
 62
     0
370
    -2
100
AcDbLine
 10
14.12015580954095
 20
11.182088
 30
0.0
 11
14.68738180954095
 21
11.182088
 31
0.0
  0
LINE
  5
19A1
330
9AC
100
AcDbEntity
  8
DIM
 62
     0
370
    -2
100
AcDbLine
 10
14.52463180954095
 20
10.702088
 30
0.0
 11
14.52463180954095
 21
10.38708799999999
 31
0.0
  0
LINE
  5
19A2
330
9AC
100
AcDbEntity
  8
DIM
 62
     0
370
    -2
100
AcDbLine
 10
14.52463180954095
 20
11.49708799999999
 30
0.0
 11
14.52463180954095
 21
11.812088
 31
0.0
  0
LINE
  5
19A3
330
9AC
100
AcDbEntity
  8
DIM
 62
     0
370
    -2
100
AcDbLine
 10
14.52463180954095
 20
11.812088
 30
0.0
 11
14.83963180954095
 21
11.812088
 31
0.0
  0
SOLID
  5
19A4
330
9AC
100
AcDbEntity
  8
DIM
 62
     0
100
AcDbTrace
 10
14.47213180954095
 20
10.702088
 30
0.0
 11
14.57713180954095
 21
10.702088
 31
0.0
 12
14.52463180954095
 22
11.017088
 32
0.0
 13
14.52463180954095
 23
11.017088
 33
0.0
  0
SOLID
  5
19A5
330
9AC
100
AcDbEntity
  8
DIM
 62
     0
100
AcDbTrace
 10
14.47213180954095
 20
11.49708799999999
 30
0.0
 11
14.57713180954095
 21
11.49708799999999
 31
0.0
 12
14.52463180954095
 22
11.182088
 32
0.0
 13
14.52463180954095
 23
11.182088
 33
0.0
  0
MTEXT
  5
19A6
330
9AC
100
AcDbEntity
  8
DIM
 62
     0
100
AcDbMText
 10
15.61236618454095
 20
11.812088
 30
0.0
 40
0.21875
 41
0.0
 71
     5
 72
     1
  1
\A1;0.165 DIA.
 73
     1
 44
1.0
  0
POINT
  5
19A7
330
9AC
100
AcDbEntity
  8
DEFPOINTS
 62
     0
100
AcDbPoint
 10
14.00990580954095
 20
11.017088
 30
0.0
  0
POINT
  5
19A8
330
9AC
100
AcDbEntity
  8
DEFPOINTS
 62
     0
100
AcDbPoint
 10
14.00990580954095
 20
11.182088
 30
0.0
  0
POINT
  5
19A9
330
9AC
100
AcDbEntity
  8
DEFPOINTS
 62
     0
100
AcDbPoint
 10
14.52463180954095
 20
11.182088
 30
0.0
  0
ENDBLK
  5
9B8
330
9AC
100
AcDbEntity
  8
0
100
AcDbBlockEnd
  0
BLOCK
  5
9CB
330
9C0
100
AcDbEntity
  8
0
100
AcDbBlockBegin
  2
*D34
 70
     1
 10
0.0
 20
0.0
 30
0.0
  3
*D34
  1

  0
LINE
  5
19AA
330
9C0
100
AcDbEntity
  8
DIM
 62
     0
370
    -2
100
AcDbLine
 10
7.639154809540955
 20
5.508587999999999
 30
0.0
 11
7.180912809540953
 21
5.508587999999999
 31
0.0
  0
LINE
  5
19AB
330
9C0
100
AcDbEntity
  8
DIM
 62
     0
370
    -2
100
AcDbLine
 10
7.639154809540955
 20
10.85271
 30
0.0
 11
7.180912809540955
 21
10.85271
 31
0.0
  0
LINE
  5
19AC
330
9C0
100
AcDbEntity
  8
DIM
 62
     0
370
    -2
100
AcDbLine
 10
7.343662809540953
 20
5.823587999999999
 30
0.0
 11
7.343662809540954
 21
7.913774
 31
0.0
  0
LINE
  5
19AD
330
9C0
100
AcDbEntity
  8
DIM
 62
     0
370
    -2
100
AcDbLine
 10
7.343662809540955
 20
10.53771
 30
0.0
 11
7.343662809540954
 21
8.447524000000001
 31
0.0
  0
SOLID
  5
19AE
330
9C0
100
AcDbEntity
  8
DIM
 62
     0
100
AcDbTrace
 10
7.291162809540953
 20
5.823587999999999
 30
0.0
 11
7.396162809540953
 21
5.823587999999999
 31
0.0
 12
7.343662809540953
 22
5.508587999999999
 32
0.0
 13
7.343662809540953
 23
5.508587999999999
 33
0.0
  0
SOLID
  5
19AF
330
9C0
100
AcDbEntity
  8
DIM
 62
     0
100
AcDbTrace
 10
7.291162809540955
 20
10.53771
 30
0.0
 11
7.396162809540955
 21
10.53771
 31
0.0
 12
7.343662809540955
 22
10.85271
 32
0.0
 13
7.343662809540955
 23
10.85271
 33
0.0
  0
MTEXT
  5
19B0
330
9C0
100
AcDbEntity
  8
DIM
 62
     0
100
AcDbMText
 10
7.343662809540953
 20
8.180649000000002
 30
0.0
 40
0.21875
 41
0.0
 71
     5
 72
     1
  1
\A1;5.344
 73
     1
 44
1.0
  0
POINT
  5
19B1
330
9C0
100
AcDbEntity
  8
DEFPOINTS
 62
     0
100
AcDbPoint
 10
7.749404809540955
 20
5.508587999999999
 30
0.0
  0
POINT
  5
19B2
330
9C0
100
AcDbEntity
  8
DEFPOINTS
 62
     0
100
AcDbPoint
 10
7.749404809540955
 20
10.85271
 30
0.0
  0
POINT
  5
19B3
330
9C0
100
AcDbEntity
  8
DEFPOINTS
 62
     0
100
AcDbPoint
 10
7.343662809540955
 20
10.85271
 30
0.0
  0
ENDBLK
  5
9CC
330
9C0
100
AcDbEntity
  8
0
100
AcDbBlockEnd
  0
BLOCK
  5
9D9
330
9CE
100
AcDbEntity
  8
0
100
AcDbBlockBegin
  2
*D35
 70
     1
 10
0.0
 20
0.0
 30
0.0
  3
*D35
  1

  0
LINE
  5
19B4
330
9CE
100
AcDbEntity
  8
DIM
 62
     0
370
    -2
100
AcDbLine
 10
7.639154809540955
 20
10.85271
 30
0.0
 11
7.180912809540955
 21
10.85271
 31
0.0
  0
LINE
  5
19B5
330
9CE
100
AcDbEntity
  8
DIM
 62
     0
370
    -2
100
AcDbLine
 10
7.377430809540955
 20
11.335588
 30
0.0
 11
7.506412809540955
 21
11.335588
 31
0.0
  0
LINE
  5
19B6
330
9CE
100
AcDbEntity
  8
DIM
 62
     0
370
    -2
100
AcDbLine
 10
7.343662809540955
 20
10.53771
 30
0.0
 11
7.343662809540955
 21
10.22270999999999
 31
0.0
  0
LINE
  5
19B7
330
9CE
100
AcDbEntity
  8
DIM
 62
     0
370
    -2
100
AcDbLine
 10
7.343662809540955
 20
11.650588
 30
0.0
 11
7.343662809540955
 21
11.965588
 31
0.0
  0
LINE
  5
19B8
330
9CE
100
AcDbEntity
  8
DIM
 62
     0
370
    -2
100
AcDbLine
 10
7.343662809540955
 20
11.965588
 30
0.0
 11
7.658662809540955
 21
11.965588
 31
0.0
  0
SOLID
  5
19B9
330
9CE
100
AcDbEntity
  8
DIM
 62
     0
100
AcDbTrace
 10
7.291162809540955
 20
10.53771
 30
0.0
 11
7.396162809540955
 21
10.53771
 31
0.0
 12
7.343662809540955
 22
10.85271
 32
0.0
 13
7.343662809540955
 23
10.85271
 33
0.0
  0
SOLID
  5
19BA
330
9CE
100
AcDbEntity
  8
DIM
 62
     0
100
AcDbTrace
 10
7.291162809540955
 20
11.650588
 30
0.0
 11
7.396162809540955
 21
11.650588
 31
0.0
 12
7.343662809540955
 22
11.335588
 32
0.0
 13
7.343662809540955
 23
11.335588
 33
0.0
  0
MTEXT
  5
19BB
330
9CE
100
AcDbEntity
  8
DIM
 62
     0
100
AcDbMText
 10
8.130615934540951
 20
11.965588
 30
0.0
 40
0.21875
 41
0.0
 71
     5
 72
     1
  1
\A1;0.483
 73
     1
 44
1.0
  0
POINT
  5
19BC
330
9CE
100
AcDbEntity
  8
DEFPOINTS
 62
     0
100
AcDbPoint
 10
7.749404809540955
 20
10.85271
 30
0.0
  0
POINT
  5
19BD
330
9CE
100
AcDbEntity
  8
DEFPOINTS
 62
     0
100
AcDbPoint
 10
7.267180809540955
 20
11.335588
 30
0.0
  0
POINT
  5
19BE
330
9CE
100
AcDbEntity
  8
DEFPOINTS
 62
     0
100
AcDbPoint
 10
7.343662809540955
 20
11.335588
 30
0.0
  0
ENDBLK
  5
9DA
330
9CE
100
AcDbEntity
  8
0
100
AcDbBlockEnd
  0
BLOCK
  5
9E6
330
9DC
100
AcDbEntity
  8
0
100
AcDbBlockBegin
  2
*D36
 70
     1
 10
0.0
 20
0.0
 30
0.0
  3
*D36
  1

  0
LINE
  5
19BF
330
9DC
100
AcDbEntity
  8
DIM
 62
     0
370
    -2
100
AcDbLine
 10
7.749404809540955
 20
5.398337999999999
 30
0.0
 11
7.749404809540955
 21
4.377787999999999
 31
0.0
  0
LINE
  5
19C0
330
9DC
100
AcDbEntity
  8
DIM
 62
     0
370
    -2
100
AcDbLine
 10
6.174404809540956
 20
5.145088
 30
0.0
 11
6.174404809540956
 21
4.377787999999999
 31
0.0
  0
LINE
  5
19C1
330
9DC
100
AcDbEntity
  8
DIM
 62
     0
370
    -2
100
AcDbLine
 10
8.064404809540954
 20
4.540537999999999
 30
0.0
 11
8.379404809540956
 21
4.540537999999999
 31
0.0
  0
LINE
  5
19C2
330
9DC
100
AcDbEntity
  8
DIM
 62
     0
370
    -2
100
AcDbLine
 10
5.859404809540955
 20
4.540537999999999
 30
0.0
 11
5.544404809540956
 21
4.540537999999999
 31
0.0
  0
SOLID
  5
19C3
330
9DC
100
AcDbEntity
  8
DIM
 62
     0
100
AcDbTrace
 10
8.064404809540954
 20
4.593037999999999
 30
0.0
 11
8.064404809540954
 21
4.488037999999999
 31
0.0
 12
7.749404809540955
 22
4.540537999999999
 32
0.0
 13
7.749404809540955
 23
4.540537999999999
 33
0.0
  0
SOLID
  5
19C4
330
9DC
100
AcDbEntity
  8
DIM
 62
     0
100
AcDbTrace
 10
5.859404809540955
 20
4.593037999999999
 30
0.0
 11
5.859404809540955
 21
4.488037999999999
 31
0.0
 12
6.174404809540956
 22
4.540537999999999
 32
0.0
 13
6.174404809540956
 23
4.540537999999999
 33
0.0
  0
MTEXT
  5
19C5
330
9DC
100
AcDbEntity
  8
DIM
 62
     0
100
AcDbMText
 10
5.086123559540956
 20
4.540537999999999
 30
0.0
 40
0.21875
 41
0.0
 71
     5
 72
     1
  1
\A1;1.575
 73
     1
 44
1.0
  0
POINT
  5
19C6
330
9DC
100
AcDbEntity
  8
DEFPOINTS
 62
     0
100
AcDbPoint
 10
7.749404809540955
 20
5.508587999999999
 30
0.0
  0
POINT
  5
19C7
330
9DC
100
AcDbEntity
  8
DEFPOINTS
 62
     0
100
AcDbPoint
 10
6.174404809540956
 20
5.255338
 30
0.0
  0
POINT
  5
19C8
330
9DC
100
AcDbEntity
  8
DEFPOINTS
 62
     0
100
AcDbPoint
 10
6.174404809540956
 20
4.540537999999999
 30
0.0
  0
ENDBLK
  5
9E7
330
9DC
100
AcDbEntity
  8
0
100
AcDbBlockEnd
  0
BLOCK
  5
A09
330
9FE
100
AcDbEntity
  8
0
100
AcDbBlockBegin
  2
*D37
 70
     1
 10
0.0
 20
0.0
 30
0.0
  3
*D37
  1

  0
LINE
  5
1A4B
330
9FE
100
AcDbEntity
  8
DIM
 62
     0
370
    -2
100
AcDbLine
 10
9.001654809540955
 20
10.57758799999999
 30
0.0
 11
10.01748280954095
 21
10.57758799999999
 31
0.0
  0
LINE
  5
1A4C
330
9FE
100
AcDbEntity
  8
DIM
 62
     0
370
    -2
100
AcDbLine
 10
9.001654809540955
 20
8.186087999999999
 30
0.0
 11
10.01748280954095
 21
8.186087999999999
 31
0.0
  0
LINE
  5
1A4D
330
9FE
100
AcDbEntity
  8
DIM
 62
     0
370
    -2
100
AcDbLine
 10
9.854732809540955
 20
10.262588
 30
0.0
 11
9.854732809540955
 21
9.648713
 31
0.0
  0
LINE
  5
1A4E
330
9FE
100
AcDbEntity
  8
DIM
 62
     0
370
    -2
100
AcDbLine
 10
9.854732809540955
 20
8.501087999999999
 30
0.0
 11
9.854732809540955
 21
9.114962999999999
 31
0.0
  0
SOLID
  5
1A4F
330
9FE
100
AcDbEntity
  8
DIM
 62
     0
100
AcDbTrace
 10
9.802232809540955
 20
10.262588
 30
0.0
 11
9.907232809540955
 21
10.262588
 31
0.0
 12
9.854732809540955
 22
10.57758799999999
 32
0.0
 13
9.854732809540955
 23
10.57758799999999
 33
0.0
  0
SOLID
  5
1A50
330
9FE
100
AcDbEntity
  8
DIM
 62
     0
100
AcDbTrace
 10
9.802232809540955
 20
8.501087999999999
 30
0.0
 11
9.907232809540955
 21
8.501087999999999
 31
0.0
 12
9.854732809540955
 22
8.186087999999999
 32
0.0
 13
9.854732809540955
 23
8.186087999999999
 33
0.0
  0
MTEXT
  5
1A51
330
9FE
100
AcDbEntity
  8
DIM
 62
     0
100
AcDbMText
 10
9.854732809540953
 20
9.381838000000001
 30
0.0
 40
0.21875
 41
0.0
 71
     5
 72
     1
  1
\A1;2.392
 73
     1
 44
1.0
  0
POINT
  5
1A52
330
9FE
100
AcDbEntity
  8
DEFPOINTS
 62
     0
100
AcDbPoint
 10
8.891404809540954
 20
10.57758799999999
 30
0.0
  0
POINT
  5
1A53
330
9FE
100
AcDbEntity
  8
DEFPOINTS
 62
     0
100
AcDbPoint
 10
8.891404809540954
 20
8.186087999999999
 30
0.0
  0
POINT
  5
1A54
330
9FE
100
AcDbEntity
  8
DEFPOINTS
 62
     0
100
AcDbPoint
 10
9.854732809540955
 20
8.186087999999999
 30
0.0
  0
ENDBLK
  5
A0A
330
9FE
100
AcDbEntity
  8
0
100
AcDbBlockEnd
  0
BLOCK
  5
A17
330
A0C
100
AcDbEntity
  8
0
100
AcDbBlockBegin
  2
*D38
 70
     1
 10
0.0
 20
0.0
 30
0.0
  3
*D38
  1

  0
LINE
  5
1A55
330
A0C
100
AcDbEntity
  8
DIM
 62
     0
370
    -2
100
AcDbLine
 10
9.001654809540955
 20
8.186087999999999
 30
0.0
 11
10.01748280954095
 21
8.186087999999999
 31
0.0
  0
LINE
  5
1A56
330
A0C
100
AcDbEntity
  8
DIM
 62
     0
370
    -2
100
AcDbLine
 10
9.001654809540955
 20
5.794588
 30
0.0
 11
10.01748280954095
 21
5.794587999999999
 31
0.0
  0
LINE
  5
1A57
330
A0C
100
AcDbEntity
  8
DIM
 62
     0
370
    -2
100
AcDbLine
 10
9.854732809540955
 20
7.871087999999999
 30
0.0
 11
9.854732809540955
 21
7.257212999999999
 31
0.0
  0
LINE
  5
1A58
330
A0C
100
AcDbEntity
  8
DIM
 62
     0
370
    -2
100
AcDbLine
 10
9.854732809540955
 20
6.109588
 30
0.0
 11
9.854732809540955
 21
6.723462999999999
 31
0.0
  0
SOLID
  5
1A59
330
A0C
100
AcDbEntity
  8
DIM
 62
     0
100
AcDbTrace
 10
9.802232809540955
 20
7.871087999999999
 30
0.0
 11
9.907232809540955
 21
7.871087999999999
 31
0.0
 12
9.854732809540955
 22
8.186087999999999
 32
0.0
 13
9.854732809540955
 23
8.186087999999999
 33
0.0
  0
SOLID
  5
1A5A
330
A0C
100
AcDbEntity
  8
DIM
 62
     0
100
AcDbTrace
 10
9.802232809540955
 20
6.109588
 30
0.0
 11
9.907232809540955
 21
6.109588
 31
0.0
 12
9.854732809540955
 22
5.794588
 32
0.0
 13
9.854732809540955
 23
5.794588
 33
0.0
  0
MTEXT
  5
1A5B
330
A0C
100
AcDbEntity
  8
DIM
 62
     0
100
AcDbMText
 10
9.854732809540953
 20
6.990338
 30
0.0
 40
0.21875
 41
0.0
 71
     5
 72
     1
  1
\A1;2.392
 73
     1
 44
1.0
  0
POINT
  5
1A5C
330
A0C
100
AcDbEntity
  8
DEFPOINTS
 62
     0
100
AcDbPoint
 10
8.891404809540954
 20
8.186087999999999
 30
0.0
  0
POINT
  5
1A5D
330
A0C
100
AcDbEntity
  8
DEFPOINTS
 62
     0
100
AcDbPoint
 10
8.891404809540954
 20
5.794588
 30
0.0
  0
POINT
  5
1A5E
330
A0C
100
AcDbEntity
  8
DEFPOINTS
 62
     0
100
AcDbPoint
 10
9.854732809540955
 20
5.794588
 30
0.0
  0
ENDBLK
  5
A18
330
A0C
100
AcDbEntity
  8
0
100
AcDbBlockEnd
  0
BLOCK
  5
A55
330
A4A
100
AcDbEntity
  8
0
100
AcDbBlockBegin
  2
*D39
 70
     1
 10
0.0
 20
0.0
 30
0.0
  3
*D39
  1

  0
LINE
  5
19C9
330
A4A
100
AcDbEntity
  8
DIM
 62
     0
370
    -2
100
AcDbLine
 10
22.71312236172021
 20
7.898057
 30
0.0
 11
22.71312236172021
 21
7.794075999999999
 31
0.0
  0
LINE
  5
19CA
330
A4A
100
AcDbEntity
  8
DIM
 62
     0
370
    -2
100
AcDbLine
 10
22.83312236172021
 20
7.898057
 30
0.0
 11
22.83312236172021
 21
7.794075999999999
 31
0.0
  0
LINE
  5
19CB
330
A4A
100
AcDbEntity
  8
DIM
 62
     0
370
    -2
100
AcDbLine
 10
22.3981223617202
 20
7.956825999999999
 30
0.0
 11
22.08312236172021
 21
7.956825999999999
 31
0.0
  0
LINE
  5
19CC
330
A4A
100
AcDbEntity
  8
DIM
 62
     0
370
    -2
100
AcDbLine
 10
23.14812236172021
 20
7.956825999999999
 30
0.0
 11
23.46312236172021
 21
7.956825999999999
 31
0.0
  0
SOLID
  5
19CD
330
A4A
100
AcDbEntity
  8
DIM
 62
     0
100
AcDbTrace
 10
22.3981223617202
 20
8.009325999999999
 30
0.0
 11
22.3981223617202
 21
7.904325999999999
 31
0.0
 12
22.71312236172021
 22
7.956825999999999
 32
0.0
 13
22.71312236172021
 23
7.956825999999999
 33
0.0
  0
SOLID
  5
19CE
330
A4A
100
AcDbEntity
  8
DIM
 62
     0
100
AcDbTrace
 10
23.14812236172021
 20
8.009325999999999
 30
0.0
 11
23.14812236172021
 21
7.904325999999999
 31
0.0
 12
22.83312236172021
 22
7.956825999999999
 32
0.0
 13
22.83312236172021
 23
7.956825999999999
 33
0.0
  0
MTEXT
  5
19CF
330
A4A
100
AcDbEntity
  8
DIM
 62
     0
100
AcDbMText
 10
23.89405986172021
 20
7.956825999999999
 30
0.0
 40
0.21875
 41
0.0
 71
     5
 72
     1
  1
\A1;0.120
 73
     1
 44
1.0
  0
POINT
  5
19D0
330
A4A
100
AcDbEntity
  8
DEFPOINTS
 62
     0
100
AcDbPoint
 10
22.71312236172021
 20
8.008307
 30
0.0
  0
POINT
  5
19D1
330
A4A
100
AcDbEntity
  8
DEFPOINTS
 62
     0
100
AcDbPoint
 10
22.83312236172021
 20
8.008307
 30
0.0
  0
POINT
  5
19D2
330
A4A
100
AcDbEntity
  8
DEFPOINTS
 62
     0
100
AcDbPoint
 10
22.83312236172021
 20
7.956825999999999
 30
0.0
  0
ENDBLK
  5
A56
330
A4A
100
AcDbEntity
  8
0
100
AcDbBlockEnd
  0
BLOCK
  5
A63
330
A58
100
AcDbEntity
  8
0
100
AcDbBlockBegin
  2
*D40
 70
     1
 10
0.0
 20
0.0
 30
0.0
  3
*D40
  1

  0
LINE
  5
19D3
330
A58
100
AcDbEntity
  8
DIM
 62
     0
370
    -2
100
AcDbLine
 10
22.24212236172021
 20
11.445838
 30
0.0
 11
22.24212236172021
 21
11.771338
 31
0.0
  0
LINE
  5
19D4
330
A58
100
AcDbEntity
  8
DIM
 62
     0
370
    -2
100
AcDbLine
 10
22.83312236172021
 20
11.383338
 30
0.0
 11
22.83312236172021
 21
11.771338
 31
0.0
  0
LINE
  5
19D5
330
A58
100
AcDbEntity
  8
DIM
 62
     0
370
    -2
100
AcDbLine
 10
21.9271223617202
 20
11.608588
 30
0.0
 11
21.6121223617202
 21
11.608588
 31
0.0
  0
LINE
  5
19D6
330
A58
100
AcDbEntity
  8
DIM
 62
     0
370
    -2
100
AcDbLine
 10
23.14812236172021
 20
11.608588
 30
0.0
 11
23.46312236172021
 21
11.608588
 31
0.0
  0
SOLID
  5
19D7
330
A58
100
AcDbEntity
  8
DIM
 62
     0
100
AcDbTrace
 10
21.9271223617202
 20
11.661088
 30
0.0
 11
21.9271223617202
 21
11.556088
 31
0.0
 12
22.24212236172021
 22
11.608588
 32
0.0
 13
22.24212236172021
 23
11.608588
 33
0.0
  0
SOLID
  5
19D8
330
A58
100
AcDbEntity
  8
DIM
 62
     0
100
AcDbTrace
 10
23.14812236172021
 20
11.661088
 30
0.0
 11
23.14812236172021
 21
11.556088
 31
0.0
 12
22.83312236172021
 22
11.608588
 32
0.0
 13
22.83312236172021
 23
11.608588
 33
0.0
  0
MTEXT
  5
19D9
330
A58
100
AcDbEntity
  8
DIM
 62
     0
100
AcDbMText
 10
23.90773173672021
 20
11.608588
 30
0.0
 40
0.21875
 41
0.0
 71
     5
 72
     1
  1
\A1;0.591
 73
     1
 44
1.0
  0
POINT
  5
19DA
330
A58
100
AcDbEntity
  8
DEFPOINTS
 62
     0
100
AcDbPoint
 10
22.24212236172021
 20
11.335588
 30
0.0
  0
POINT
  5
19DB
330
A58
100
AcDbEntity
  8
DEFPOINTS
 62
     0
100
AcDbPoint
 10
22.83312236172021
 20
11.273088
 30
0.0
  0
POINT
  5
19DC
330
A58
100
AcDbEntity
  8
DEFPOINTS
 62
     0
100
AcDbPoint
 10
22.83312236172021
 20
11.608588
 30
0.0
  0
ENDBLK
  5
A64
330
A58
100
AcDbEntity
  8
0
100
AcDbBlockEnd
  0
BLOCK
  5
AB8
330
AAD
100
AcDbEntity
  8
0
100
AcDbBlockBegin
  2
*D41
 70
     1
 10
0.0
 20
0.0
 30
0.0
  3
*D41
  1

  0
LINE
  5
19DD
330
AAD
100
AcDbEntity
  8
DIM
 62
     0
370
    -2
100
AcDbLine
 10
26.87326516108461
 20
13.616795
 30
0.0
 11
26.87326516108461
 21
12.94711547003657
 31
0.0
  0
LINE
  5
19DE
330
AAD
100
AcDbEntity
  8
DIM
 62
     0
370
    -2
100
AcDbLine
 10
26.39326516108461
 20
13.690795
 30
0.0
 11
26.39326516108461
 21
12.94711547003657
 31
0.0
  0
LINE
  5
19DF
330
AAD
100
AcDbEntity
  8
DIM
 62
     0
370
    -2
100
AcDbLine
 10
27.18826516108461
 20
13.10986547003657
 30
0.0
 11
27.50326516108461
 21
13.10986547003657
 31
0.0
  0
LINE
  5
19E0
330
AAD
100
AcDbEntity
  8
DIM
 62
     0
370
    -2
100
AcDbLine
 10
26.07826516108461
 20
13.10986547003657
 30
0.0
 11
25.76326516108461
 21
13.10986547003657
 31
0.0
  0
SOLID
  5
19E1
330
AAD
100
AcDbEntity
  8
DIM
 62
     0
100
AcDbTrace
 10
27.18826516108461
 20
13.16236547003657
 30
0.0
 11
27.18826516108461
 21
13.05736547003657
 31
0.0
 12
26.87326516108461
 22
13.10986547003657
 32
0.0
 13
26.87326516108461
 23
13.10986547003657
 33
0.0
  0
SOLID
  5
19E2
330
AAD
100
AcDbEntity
  8
DIM
 62
     0
100
AcDbTrace
 10
26.07826516108461
 20
13.16236547003657
 30
0.0
 11
26.07826516108461
 21
13.05736547003657
 31
0.0
 12
26.39326516108461
 22
13.10986547003657
 32
0.0
 13
26.39326516108461
 23
13.10986547003657
 33
0.0
  0
MTEXT
  5
19E3
330
AAD
100
AcDbEntity
  8
DIM
 62
     0
100
AcDbMText
 10
25.33232766108461
 20
13.10986547003657
 30
0.0
 40
0.21875
 41
0.0
 71
     5
 72
     1
  1
\A1;0.120
 73
     1
 44
1.0
  0
POINT
  5
19E4
330
AAD
100
AcDbEntity
  8
DEFPOINTS
 62
     0
100
AcDbPoint
 10
26.87326516108461
 20
13.727045
 30
0.0
  0
POINT
  5
19E5
330
AAD
100
AcDbEntity
  8
DEFPOINTS
 62
     0
100
AcDbPoint
 10
26.39326516108461
 20
13.801045
 30
0.0
  0
POINT
  5
19E6
330
AAD
100
AcDbEntity
  8
DEFPOINTS
 62
     0
100
AcDbPoint
 10
26.39326516108461
 20
13.10986547003657
 30
0.0
  0
ENDBLK
  5
AB9
330
AAD
100
AcDbEntity
  8
0
100
AcDbBlockEnd
  0
BLOCK
  5
B07
330
AFC
100
AcDbEntity
  8
0
100
AcDbBlockBegin
  2
*D42
 70
     1
 10
0.0
 20
0.0
 30
0.0
  3
*D42
  1

  0
LINE
  5
19F1
330
AFC
100
AcDbEntity
  8
DIM
 62
     0
370
    -2
100
AcDbLine
 10
26.97901016108461
 20
13.79350599999999
 30
0.0
 11
27.80662016108461
 21
13.79350599999999
 31
0.0
  0
LINE
  5
19F2
330
AFC
100
AcDbEntity
  8
DIM
 62
     0
370
    -2
100
AcDbLine
 10
26.97901016108461
 20
15.033506
 30
0.0
 11
27.80662016108461
 21
15.033506
 31
0.0
  0
LINE
  5
19F3
330
AFC
100
AcDbEntity
  8
DIM
 62
     0
370
    -2
100
AcDbLine
 10
27.64387016108461
 20
13.478506
 30
0.0
 11
27.64387016108461
 21
13.16350599999999
 31
0.0
  0
LINE
  5
19F4
330
AFC
100
AcDbEntity
  8
DIM
 62
     0
370
    -2
100
AcDbLine
 10
27.64387016108461
 20
15.34850599999999
 30
0.0
 11
27.64387016108461
 21
15.66350599999999
 31
0.0
  0
SOLID
  5
19F5
330
AFC
100
AcDbEntity
  8
DIM
 62
     0
100
AcDbTrace
 10
27.59137016108461
 20
13.478506
 30
0.0
 11
27.69637016108461
 21
13.478506
 31
0.0
 12
27.64387016108461
 22
13.79350599999999
 32
0.0
 13
27.64387016108461
 23
13.79350599999999
 33
0.0
  0
SOLID
  5
19F6
330
AFC
100
AcDbEntity
  8
DIM
 62
     0
100
AcDbTrace
 10
27.59137016108461
 20
15.34850599999999
 30
0.0
 11
27.69637016108461
 21
15.34850599999999
 31
0.0
 12
27.64387016108461
 22
15.033506
 32
0.0
 13
27.64387016108461
 23
15.033506
 33
0.0
  0
MTEXT
  5
19F7
330
AFC
100
AcDbEntity
  8
DIM
 62
     0
100
AcDbMText
 10
27.6438701610846
 20
14.413506
 30
0.0
 40
0.21875
 41
0.0
 71
     5
 72
     1
  1
\A1;0.310 DIA.\PC'BORE
 73
     1
 44
1.0
  0
POINT
  5
19F8
330
AFC
100
AcDbEntity
  8
DEFPOINTS
 62
     0
100
AcDbPoint
 10
26.86876016108461
 20
13.79350599999999
 30
0.0
  0
POINT
  5
19F9
330
AFC
100
AcDbEntity
  8
DEFPOINTS
 62
     0
100
AcDbPoint
 10
26.86876016108461
 20
15.033506
 30
0.0
  0
POINT
  5
19FA
330
AFC
100
AcDbEntity
  8
DEFPOINTS
 62
     0
100
AcDbPoint
 10
27.64387016108461
 20
15.033506
 30
0.0
  0
ENDBLK
  5
B08
330
AFC
100
AcDbEntity
  8
0
100
AcDbBlockEnd
  0
BLOCK
  5
B15
330
B0A
100
AcDbEntity
  8
0
100
AcDbBlockBegin
  2
*D43
 70
     1
 10
0.0
 20
0.0
 30
0.0
  3
*D43
  1

  0
LINE
  5
19FB
330
B0A
100
AcDbEntity
  8
DIM
 62
     0
370
    -2
100
AcDbLine
 10
24.39901516108461
 20
15.53123
 30
0.0
 11
23.67673638621874
 21
15.53123
 31
0.0
  0
LINE
  5
19FC
330
B0A
100
AcDbEntity
  8
DIM
 62
     0
370
    -2
100
AcDbLine
 10
24.39901516108461
 20
15.21123
 30
0.0
 11
23.67673638621874
 21
15.21123
 31
0.0
  0
LINE
  5
19FD
330
B0A
100
AcDbEntity
  8
DIM
 62
     0
370
    -2
100
AcDbLine
 10
23.83948638621874
 20
15.84622999999999
 30
0.0
 11
23.83948638621874
 21
16.16122999999999
 31
0.0
  0
LINE
  5
19FE
330
B0A
100
AcDbEntity
  8
DIM
 62
     0
370
    -2
100
AcDbLine
 10
23.83948638621874
 20
14.89622999999999
 30
0.0
 11
23.83948638621874
 21
14.58122999999999
 31
0.0
  0
SOLID
  5
19FF
330
B0A
100
AcDbEntity
  8
DIM
 62
     0
100
AcDbTrace
 10
23.78698638621874
 20
15.84622999999999
 30
0.0
 11
23.89198638621873
 21
15.84622999999999
 31
0.0
 12
23.83948638621874
 22
15.53123
 32
0.0
 13
23.83948638621874
 23
15.53123
 33
0.0
  0
SOLID
  5
1A00
330
B0A
100
AcDbEntity
  8
DIM
 62
     0
100
AcDbTrace
 10
23.78698638621874
 20
14.89622999999999
 30
0.0
 11
23.89198638621873
 21
14.89622999999999
 31
0.0
 12
23.83948638621874
 22
15.21123
 32
0.0
 13
23.83948638621874
 23
15.21123
 33
0.0
  0
MTEXT
  5
1A01
330
B0A
100
AcDbEntity
  8
DIM
 62
     0
100
AcDbMText
 10
23.83948638621873
 20
15.37123
 30
0.0
 40
0.21875
 41
0.0
 71
     5
 72
     1
  1
\A1;0.080
 73
     1
 44
1.0
  0
POINT
  5
1A02
330
B0A
100
AcDbEntity
  8
DEFPOINTS
 62
     0
100
AcDbPoint
 10
24.50926516108461
 20
15.53123
 30
0.0
  0
POINT
  5
1A03
330
B0A
100
AcDbEntity
  8
DEFPOINTS
 62
     0
100
AcDbPoint
 10
24.50926516108461
 20
15.21123
 30
0.0
  0
POINT
  5
1A04
330
B0A
100
AcDbEntity
  8
DEFPOINTS
 62
     0
100
AcDbPoint
 10
23.83948638621874
 20
15.21123
 30
0.0
  0
ENDBLK
  5
B16
330
B0A
100
AcDbEntity
  8
0
100
AcDbBlockEnd
  0
BLOCK
  5
B23
330
B18
100
AcDbEntity
  8
0
100
AcDbBlockBegin
  2
*D44
 70
     1
 10
0.0
 20
0.0
 30
0.0
  3
*D44
  1

  0
LINE
  5
19E7
330
B18
100
AcDbEntity
  8
DIM
 62
     0
370
    -2
100
AcDbLine
 10
24.50926516108461
 20
16.58216
 30
0.0
 11
24.50926516108461
 21
16.975448
 31
0.0
  0
LINE
  5
19E8
330
B18
100
AcDbEntity
  8
DIM
 62
     0
370
    -2
100
AcDbLine
 10
24.96926516108461
 20
15.64148
 30
0.0
 11
24.96926516108461
 21
16.975448
 31
0.0
  0
LINE
  5
19E9
330
B18
100
AcDbEntity
  8
DIM
 62
     0
370
    -2
100
AcDbLine
 10
24.1942651610846
 20
16.812698
 30
0.0
 11
23.87926516108461
 21
16.812698
 31
0.0
  0
LINE
  5
19EA
330
B18
100
AcDbEntity
  8
DIM
 62
     0
370
    -2
100
AcDbLine
 10
25.28426516108461
 20
16.812698
 30
0.0
 11
25.59926516108461
 21
16.812698
 31
0.0
  0
SOLID
  5
19EB
330
B18
100
AcDbEntity
  8
DIM
 62
     0
100
AcDbTrace
 10
24.1942651610846
 20
16.865198
 30
0.0
 11
24.1942651610846
 21
16.760198
 31
0.0
 12
24.50926516108461
 22
16.812698
 32
0.0
 13
24.50926516108461
 23
16.812698
 33
0.0
  0
SOLID
  5
19EC
330
B18
100
AcDbEntity
  8
DIM
 62
     0
100
AcDbTrace
 10
25.28426516108461
 20
16.865198
 30
0.0
 11
25.28426516108461
 21
16.760198
 31
0.0
 12
24.96926516108461
 22
16.812698
 32
0.0
 13
24.96926516108461
 23
16.812698
 33
0.0
  0
MTEXT
  5
19ED
330
B18
100
AcDbEntity
  8
DIM
 62
     0
100
AcDbMText
 10
26.01653078608461
 20
16.812698
 30
0.0
 40
0.21875
 41
0.0
 71
     5
 72
     1
  1
\A1;0.115
 73
     1
 44
1.0
  0
POINT
  5
19EE
330
B18
100
AcDbEntity
  8
DEFPOINTS
 62
     0
100
AcDbPoint
 10
24.50926516108461
 20
16.47191
 30
0.0
  0
POINT
  5
19EF
330
B18
100
AcDbEntity
  8
DEFPOINTS
 62
     0
100
AcDbPoint
 10
24.96926516108461
 20
15.53123
 30
0.0
  0
POINT
  5
19F0
330
B18
100
AcDbEntity
  8
DEFPOINTS
 62
     0
100
AcDbPoint
 10
24.96926516108461
 20
16.812698
 30
0.0
  0
ENDBLK
  5
B24
330
B18
100
AcDbEntity
  8
0
100
AcDbBlockEnd
  0
BLOCK
  5
B31
330
B26
100
AcDbEntity
  8
0
100
AcDbBlockBegin
  2
*D45
 70
     1
 10
0.0
 20
0.0
 30
0.0
  3
*D45
  1

  0
LINE
  5
1A05
330
B26
100
AcDbEntity
  8
DIM
 62
     0
370
    -2
100
AcDbLine
 10
24.39809516108461
 20
14.764795
 30
0.0
 11
23.09533269968931
 21
14.764795
 31
0.0
  0
LINE
  5
1A06
330
B26
100
AcDbEntity
  8
DIM
 62
     0
370
    -2
100
AcDbLine
 10
24.39809516108461
 20
14.077295
 30
0.0
 11
23.09533269968931
 21
14.077295
 31
0.0
  0
LINE
  5
1A07
330
B26
100
AcDbEntity
  8
DIM
 62
     0
370
    -2
100
AcDbLine
 10
23.25808269968931
 20
15.079795
 30
0.0
 11
23.25808269968931
 21
15.394795
 31
0.0
  0
LINE
  5
1A08
330
B26
100
AcDbEntity
  8
DIM
 62
     0
370
    -2
100
AcDbLine
 10
23.25808269968931
 20
13.762295
 30
0.0
 11
23.25808269968931
 21
13.447295
 31
0.0
  0
SOLID
  5
1A09
330
B26
100
AcDbEntity
  8
DIM
 62
     0
100
AcDbTrace
 10
23.20558269968931
 20
15.079795
 30
0.0
 11
23.31058269968931
 21
15.079795
 31
0.0
 12
23.25808269968931
 22
14.764795
 32
0.0
 13
23.25808269968931
 23
14.764795
 33
0.0
  0
SOLID
  5
1A0A
330
B26
100
AcDbEntity
  8
DIM
 62
     0
100
AcDbTrace
 10
23.20558269968931
 20
13.762295
 30
0.0
 11
23.31058269968931
 21
13.762295
 31
0.0
 12
23.25808269968931
 22
14.077295
 32
0.0
 13
23.25808269968931
 23
14.077295
 33
0.0
  0
MTEXT
  5
1A0B
330
B26
100
AcDbEntity
  8
DIM
 62
     0
100
AcDbMText
 10
23.25808269968931
 20
14.421045
 30
0.0
 40
0.21875
 41
0.0
 71
     5
 72
     1
  1
\A1;0.172 DIA.
 73
     1
 44
1.0
  0
POINT
  5
1A0C
330
B26
100
AcDbEntity
  8
DEFPOINTS
 62
     0
100
AcDbPoint
 10
24.50834516108461
 20
14.764795
 30
0.0
  0
POINT
  5
1A0D
330
B26
100
AcDbEntity
  8
DEFPOINTS
 62
     0
100
AcDbPoint
 10
24.50834516108461
 20
14.077295
 30
0.0
  0
POINT
  5
1A0E
330
B26
100
AcDbEntity
  8
DEFPOINTS
 62
     0
100
AcDbPoint
 10
23.25808269968931
 20
14.077295
 30
0.0
  0
ENDBLK
  5
B32
330
B26
100
AcDbEntity
  8
0
100
AcDbBlockEnd
  0
BLOCK
  5
1A79
330
1A62
100
AcDbEntity
  8
0
100
AcDbBlockBegin
  2
HBS
 70
     0
 10
0.0
 20
0.0
 30
0.0
  3
HBS
  1

  0
LINE
  5
1A63
330
1A62
100
AcDbEntity
  8
TITLE
100
AcDbLine
 10
0.0620000000000118
 20
10.266
 30
0.0
 11
16.53800000000001
 21
10.266
 31
0.0
  0
LINE
  5
1A64
330
1A62
100
AcDbEntity
  8
TITLE
100
AcDbLine
 10
16.53800000000001
 20
0.0620000000000012
 30
0.0
 11
0.0620000000000118
 21
0.0620000000000012
 31
0.0
  0
LINE
  5
1A65
330
1A62
100
AcDbEntity
  8
TITLE
100
AcDbLine
 10
0.0
 20
10.32799999999999
 30
0.0
 11
16.59999999999999
 21
10.32799999999999
 31
0.0
  0
LINE
  5
1A66
330
1A62
100
AcDbEntity
  8
TITLE
100
AcDbLine
 10
16.59999999999999
 20
0.0
 30
0.0
 11
0.0
 21
0.0
 31
0.0
  0
LINE
  5
1A67
330
1A62
100
AcDbEntity
  8
TITLE
100
AcDbLine
 10
0.0620000000000118
 20
9.848000000000002
 30
0.0
 11
16.53800000000001
 21
9.848000000000006
 31
0.0
  0
LINE
  5
1A68
330
1A62
100
AcDbEntity
  8
TITLE
100
AcDbLine
 10
0.0620000000000118
 20
0.0620000000000012
 30
0.0
 11
0.0620000000000118
 21
10.266
 31
0.0
  0
LINE
  5
1A69
330
1A62
100
AcDbEntity
  8
TITLE
100
AcDbLine
 10
0.0
 20
0.0
 30
0.0
 11
0.0
 21
10.32799999999999
 31
0.0
  0
TEXT
  5
1A6A
330
1A62
100
AcDbEntity
  8
TEXT
100
AcDbText
 10
0.2078333333333452
 20
9.888079195640081
 30
0.0
 40
0.125
  1
NAME
 72
     1
 11
0.4370000000000119
 21
9.888079195640081
 31
0.0
100
AcDbText
  0
TEXT
  5
1A6B
330
1A62
100
AcDbEntity
  8
TEXT
100
AcDbText
 10
0.2078333333333452
 20
10.09641252897341
 30
0.0
 40
0.125
  1
PART
 72
     1
 11
0.4370000000000119
 21
10.09641252897341
 31
0.0
100
AcDbText
  0
LINE
  5
1A6C
330
1A62
100
AcDbEntity
  8
TITLE
100
AcDbLine
 10
0.8120000000000118
 20
9.848000000000002
 30
0.0
 11
0.8120000000000118
 21
10.266
 31
0.0
  0
LINE
  5
1A6D
330
1A62
100
AcDbEntity
  8
TITLE
100
AcDbLine
 10
7.0
 20
10.266
 30
0.0
 11
7.0
 21
9.848000000000002
 31
0.0
  0
LINE
  5
1A6E
330
1A62
100
AcDbEntity
  8
TITLE
100
AcDbLine
 10
7.062000000000011
 20
10.266
 30
0.0
 11
7.062000000000011
 21
9.848000000000002
 31
0.0
  0
LINE
  5
1A6F
330
1A62
100
AcDbEntity
  8
TITLE
100
AcDbLine
 10
7.812000000000011
 20
10.266
 30
0.0
 11
7.812000000000011
 21
9.848000000000002
 31
0.0
  0
TEXT
  5
1A70
330
1A62
100
AcDbEntity
  8
TEXT
100
AcDbText
 10
7.312000000000011
 20
9.888079195640081
 30
0.0
 40
0.125
  1
No.
 72
     1
 11
7.437000000000011
 21
9.888079195640081
 31
0.0
100
AcDbText
  0
TEXT
  5
1A71
330
1A62
100
AcDbEntity
  8
TEXT
100
AcDbText
 10
7.207833333333344
 20
10.09641252897341
 30
0.0
 40
0.125
  1
PART
 72
     1
 11
7.437000000000011
 21
10.09641252897341
 31
0.0
100
AcDbText
  0
LINE
  5
1A72
330
1A62
100
AcDbEntity
  8
TITLE
100
AcDbLine
 10
16.53800000000001
 20
10.266
 30
0.0
 11
16.53800000000001
 21
0.0620000000000012
 31
0.0
  0
LINE
  5
1A73
330
1A62
100
AcDbEntity
  8
TITLE
100
AcDbLine
 10
16.59999999999999
 20
10.32799999999999
 30
0.0
 11
16.59999999999999
 21
0.0
 31
0.0
  0
TEXT
  5
1A74
330
1A62
100
AcDbEntity
  8
TEXT
100
AcDbText
 10
14.22865779971668
 20
10.09641252897341
 30
0.0
 40
0.125
  1
REV.
 72
     1
 11
14.43699113305001
 21
10.09641252897341
 31
0.0
100
AcDbText
  0
TEXT
  5
1A75
330
1A62
100
AcDbEntity
  8
TEXT
100
AcDbText
 10
14.20782446638335
 20
9.888079195640081
 30
0.0
 40
0.125
  1
DATE
 72
     1
 11
14.43699113305001
 21
9.888079195640081
 31
0.0
100
AcDbText
  0
LINE
  5
1A76
330
1A62
100
AcDbEntity
  8
TITLE
100
AcDbLine
 10
14.06199113305001
 20
10.266
 30
0.0
 11
14.06199113305001
 21
9.848000000000002
 31
0.0
  0
LINE
  5
1A77
330
1A62
100
AcDbEntity
  8
TITLE
100
AcDbLine
 10
14.81199113305001
 20
10.266
 30
0.0
 11
14.81199113305001
 21
9.848000000000002
 31
0.0
  0
LINE
  5
1A78
330
1A62
100
AcDbEntity
  8
TITLE
100
AcDbLine
 10
13.99999113305
 20
10.266
 30
0.0
 11
13.99999113305
 21
9.848000000000002
 31
0.0
  0
ENDBLK
  5
1A7A
330
1A62
100
AcDbEntity
  8
0
100
AcDbBlockEnd
  0
ENDSEC
  0
SECTION
  2
ENTITIES
  0
TEXT
  5
678
330
1E
100
AcDbEntity
  8
TEXT
100
AcDbText
 10
19.55327636172021
 20
3.229918999999998
 30
0.0
 40
0.3279999999999999
  1
%%UCOVER
 41
0.75
 72
     1
 11
20.17237636172021
 21
3.229918999999998
 31
0.0
100
AcDbText
  0
TEXT
  5
679
330
1E
100
AcDbEntity
  8
TEXT
100
AcDbText
 10
7.001125809540956
 20
2.351129999999999
 30
0.0
 40
0.3279999999999999
  1
%%UBODY
 41
0.75
 72
     1
 11
7.456225809540955
 21
2.351129999999999
 31
0.0
100
AcDbText
  0
TEXT
  5
67A
330
1E
100
AcDbEntity
  8
TEXT
100
AcDbText
 10
21.70194336172021
 20
3.916684
 30
0.0
 40
0.21875
  1
%%USECTION "B-B"
 41
0.8
  7
SECTION
100
AcDbText
  0
LINE
  5
67B
330
1E
100
AcDbEntity
  8
OBJECT
100
AcDbLine
 10
17.30593136172021
 20
11.116838
 30
0.0
 11
17.30593136172021
 21
5.255338
 31
0.0
  0
LINE
  5
67C
330
1E
100
AcDbEntity
  8
OBJECT
100
AcDbLine
 10
20.23718136172021
 20
5.036588
 30
0.0
 11
17.52468136172021
 21
5.036588
 31
0.0
  0
LINE
  5
67D
330
1E
100
AcDbEntity
  8
OBJECT
100
AcDbLine
 10
20.4559313617202
 20
11.116838
 30
0.0
 11
20.4559313617202
 21
5.255338
 31
0.0
  0
CIRCLE
  5
67E
330
1E
100
AcDbEntity
  8
OBJECT
100
AcDbCircle
 10
20.21993136172021
 20
5.272587999999998
 30
0.0
 40
0.085938
  0
ARC
  5
67F
330
1E
100
AcDbEntity
  8
OBJECT
100
AcDbCircle
 10
20.23718136172021
 20
5.255338
 30
0.0
 40
0.21875
100
AcDbArc
 50
270.0
 51
0.0
  0
ARC
  5
680
330
1E
100
AcDbEntity
  8
OBJECT
100
AcDbCircle
 10
17.52468136172021
 20
5.255338
 30
0.0
 40
0.21875
100
AcDbArc
 50
180.0
 51
270.0
  0
CIRCLE
  5
681
330
1E
100
AcDbEntity
  8
OBJECT
100
AcDbCircle
 10
17.54193136172021
 20
5.272587999999998
 30
0.0
 40
0.085938
  0
CIRCLE
  5
682
330
1E
100
AcDbEntity
  8
OBJECT
100
AcDbCircle
 10
17.54193136172021
 20
11.099588
 30
0.0
 40
0.085938
  0
ARC
  5
683
330
1E
100
AcDbEntity
  8
OBJECT
100
AcDbCircle
 10
17.52468136172021
 20
11.116838
 30
0.0
 40
0.21875
100
AcDbArc
 50
90.0
 51
180.0
  0
ARC
  5
684
330
1E
100
AcDbEntity
  8
OBJECT
100
AcDbCircle
 10
20.23718136172021
 20
11.116838
 30
0.0
 40
0.21875
100
AcDbArc
 50
0.0
 51
90.0
  0
CIRCLE
  5
685
330
1E
100
AcDbEntity
  8
OBJECT
100
AcDbCircle
 10
20.21993136172021
 20
11.099588
 30
0.0
 40
0.085938
  0
LINE
  5
686
330
1E
100
AcDbEntity
  8
OBJECT
100
AcDbLine
 10
20.23718136172021
 20
11.335588
 30
0.0
 11
17.52468136172021
 21
11.335588
 31
0.0
  0
DIMENSION
  5
687
330
1E
100
AcDbEntity
  8
DIM
100
AcDbDimension
  2
*D1
 10
20.96711936172021
 20
11.335588
 30
0.0
 11
21.75407248672021
 21
11.965588
 31
0.0
 70
    32
 71
     5
 42
0.2360000000000006
  3
23NSTD
100
AcDbAlignedDimension
 13
20.21993136172021
 23
11.099588
 33
0.0
 14
20.23718136172021
 24
11.335588
 34
0.0
 50
90.0
100
AcDbRotatedDimension
  0
DIMENSION
  5
695
330
1E
100
AcDbEntity
  8
DIM
100
AcDbDimension
  2
*D2
 10
20.96711936172021
 20
11.099588
 30
0.0
 11
20.9671193617202
 21
8.186088000000003
 31
0.0
 70
    32
  1
<>
 71
     5
 42
5.827000000000001
  3
23NSTD
100
AcDbAlignedDimension
 13
20.21993136172021
 23
5.272587999999999
 33
0.0
 14
20.21993136172021
 24
11.099588
 34
0.0
 50
90.0
100
AcDbRotatedDimension
  0
DIMENSION
  5
6A3
330
1E
100
AcDbEntity
  8
DIM
100
AcDbDimension
  2
*D3
 10
16.66859236172021
 20
11.335588
 30
0.0
 11
16.6685923617202
 21
8.186088000000003
 31
0.0
 70
    32
  1
<>
 71
     5
 42
6.299000000000001
  3
23NSTD
100
AcDbAlignedDimension
 13
17.52468136172021
 23
5.036588
 33
0.0
 14
17.52468136172021
 24
11.335588
 34
0.0
 50
270.0
100
AcDbRotatedDimension
  0
DIMENSION
  5
6B1
330
1E
100
AcDbEntity
  8
DIM
100
AcDbDimension
  2
*D4
 10
20.4559313617202
 20
12.36804199999999
 30
0.0
 11
21.55788448672021
 21
12.36804199999999
 31
0.0
 70
    32
 71
     5
 42
0.2359999999999971
  3
23NSTD
100
AcDbAlignedDimension
 13
20.21993136172021
 23
11.099588
 33
0.0
 14
20.4559313617202
 24
11.116838
 34
0.0
100
AcDbRotatedDimension
  0
DIMENSION
  5
6BF
330
1E
100
AcDbEntity
  8
DIM
100
AcDbDimension
  2
*D5
 10
17.54193136172021
 20
12.36804199999999
 30
0.0
 11
18.88093136172021
 21
12.36804199999999
 31
0.0
 70
    32
  1
<>
 71
     5
 42
2.678
  3
23NSTD
100
AcDbAlignedDimension
 13
20.21993136172021
 23
11.099588
 33
0.0
 14
17.54193136172021
 24
11.099588
 34
0.0
100
AcDbRotatedDimension
  0
DIMENSION
  5
6CD
330
1E
100
AcDbEntity
  8
DIM
100
AcDbDimension
  2
*D6
 10
17.30593136172021
 20
12.859792
 30
0.0
 11
18.88093136172021
 21
12.859792
 31
0.0
 70
    32
  1
<>
 71
     5
 42
3.149999999999998
  3
23NSTD
100
AcDbAlignedDimension
 13
20.4559313617202
 23
11.116838
 33
0.0
 14
17.30593136172021
 24
11.116838
 34
0.0
100
AcDbRotatedDimension
  0
CIRCLE
  5
6DB
102
{ACAD_REACTORS
330
14D9
102
}
330
1E
100
AcDbEntity
  8
BEND
100
AcDbCircle
 10
22.52755236172021
 20
5.319669999999998
 30
0.0
 40
0.6126960000000001
  0
LWPOLYLINE
  5
6DC
330
1E
100
AcDbEntity
  8
DIM
100
AcDbPolyline
 90
        4
 70
     0
 10
22.07421836172021
 20
4.907499999999999
 40
0.0
 41
0.118159
 10
21.88486536172021
 20
4.655651999999999
 40
0.0
 41
0.0
 10
21.55661536172021
 20
4.219066
 40
0.0
 41
0.0
 10
21.3465553617202
 20
4.219066
 40
0.0
 41
0.0
  0
TEXT
  5
6E2
330
1E
100
AcDbEntity
  8
DIM
100
AcDbText
 10
19.05777186172021
 20
4.109659500000001
 30
0.0
 40
0.218813
  1
SEE DETAIL "C"
 41
0.75
 72
     2
 11
21.13649536172021
 21
4.219066000000001
 31
0.0
100
AcDbText
 73
     2
  0
DIMENSION
  5
6E3
330
1E
100
AcDbEntity
  8
DIM
100
AcDbDimension
  2
*D7
 10
18.52137336172021
 20
5.036588
 30
0.0
 11
17.40629523672021
 21
4.406588000000003
 31
0.0
 70
    32
  1
<> TYP.
 71
     5
 42
0.1779999999999999
  3
23NSTD
100
AcDbAlignedDimension
 13
18.4627803617202
 23
5.214588
 33
0.0
 14
18.4627803617202
 24
5.036588
 34
0.0
 50
90.0
100
AcDbRotatedDimension
  0
LWPOLYLINE
  5
6F1
330
1E
100
AcDbEntity
  8
BEND
100
AcDbPolyline
 90
        8
 70
     0
 10
19.76437436172021
 20
4.781730999999999
 40
0.0
 41
0.117563
 10
19.99949936172021
 20
4.781730999999999
 40
0.0
 41
0.0
 10
20.21993136172021
 20
4.781730999999999
 40
0.0
 41
0.0
 10
20.21993136172021
 20
7.625596
 40
0.0
 41
0.0
 10
19.90903536172021
 20
7.625596
 40
0.0
 41
0.0
 10
19.90903536172021
 20
11.579319
 40
0.0
 41
0.0
 10
19.71419536172021
 20
11.579319
 40
0.117563
 41
0.0
 10
19.47907036172021
 20
11.579319
 40
0.0
 41
0.0
  0
INSERT
  5
6FB
330
1E
100
AcDbEntity
  8
BEND
100
AcDbBlockReference
 66
     1
  2
SECTION
 10
20.34103336172021
 20
4.781731
 30
0.0
 41
0.627
 42
0.627
 43
0.627
 50
90.0
  0
ATTRIB
  5
6FC
330
6FB
100
AcDbEntity
  8
0
100
AcDbText
 10
20.24743336172021
 20
4.664731
 30
0.0
 40
0.234
  1
B
 41
0.8
  7
SECTION
 72
     4
 11
20.34103336172021
 21
4.781731
 31
0.0
100
AcDbAttribute
  2
SECTION
 70
     0
  0
SEQEND
  5
6FD
330
6FB
100
AcDbEntity
  8
BEND
 62
     7
  0
INSERT
  5
6FE
330
1E
100
AcDbEntity
  8
BEND
100
AcDbBlockReference
 66
     1
  2
SECTION
 10
20.05572936172021
 20
11.579319
 30
0.0
 41
0.627
 42
0.627
 43
0.627
 50
90.0
  0
ATTRIB
  5
6FF
330
6FE
100
AcDbEntity
  8
0
100
AcDbText
 10
19.96212936172021
 20
11.462319
 30
0.0
 40
0.234
  1
B
 41
0.8
  7
SECTION
 72
     4
 11
20.05572936172021
 21
11.579319
 31
0.0
100
AcDbAttribute
  2
SECTION
 70
     0
  0
SEQEND
  5
700
330
6FE
100
AcDbEntity
  8
BEND
 62
     7
  0
LWPOLYLINE
  5
701
330
1E
100
AcDbEntity
  8
OBJECT
100
AcDbPolyline
 90
        6
 70
     0
 43
0.0
 10
18.21918136172021
 20
11.157588
 42
0.4142140000000001
 10
18.18118136172021
 20
11.119588
 10
18.18118136172021
 20
11.091525
 42
-0.4142140000000001
 10
17.90524336172021
 20
10.815588
 10
17.52218136172021
 20
10.815588
 42
0.4142140000000001
 10
17.48418136172021
 20
10.777588
 42
0.268895
  0
LINE
  5
709
330
1E
100
AcDbEntity
  8
OBJECT
100
AcDbLine
 10
17.48418136172021
 20
5.594587999999999
 30
0.0
 11
17.48418136172021
 21
10.777588
 31
0.0
  0
LWPOLYLINE
  5
70A
330
1E
100
AcDbEntity
  8
OBJECT
100
AcDbPolyline
 90
        6
 70
     1
 43
0.0
 10
18.05523036172021
 20
11.255588
 42
0.167252
 10
18.01118136172021
 20
11.127588
 10
18.01118136172021
 20
11.091525
 42
-0.4142140000000001
 10
17.90524336172021
 20
10.98558799999999
 10
17.72774836172021
 20
10.98558799999999
 42
0.3503
 10
17.69420736172021
 20
11.255588
  0
LINE
  5
712
330
1E
100
AcDbEntity
  8
OBJECT
100
AcDbLine
 10
19.54268136172021
 20
11.157588
 30
0.0
 11
18.21918136172021
 21
11.157588
 31
0.0
  0
LWPOLYLINE
  5
713
330
1E
100
AcDbEntity
  8
OBJECT
100
AcDbPolyline
 90
        6
 70
     0
 43
0.0
 10
19.54268136172021
 20
11.157588
 42
-0.4142140000000001
 10
19.58068136172021
 20
11.119588
 10
19.58068136172021
 20
11.091525
 42
0.4142140000000001
 10
19.85661836172021
 20
10.815588
 10
20.23993136172021
 20
10.815588
 42
-0.4142140000000001
 10
20.27793136172021
 20
10.777588
 42
-0.268823
  0
LWPOLYLINE
  5
71B
330
1E
100
AcDbEntity
  8
OBJECT
100
AcDbPolyline
 90
        6
 70
     1
 43
0.0
 10
19.70663236172021
 20
11.255588
 42
-0.167252
 10
19.75068136172021
 20
11.127588
 10
19.75068136172021
 20
11.091525
 42
0.4142140000000001
 10
19.85661836172021
 20
10.98558799999999
 10
20.0341143617202
 20
10.98558799999999
 42
-0.3503
 10
20.06765536172021
 20
11.255588
  0
LWPOLYLINE
  5
723
330
1E
100
AcDbEntity
  8
OBJECT
100
AcDbPolyline
 90
        6
 70
     1
 43
0.0
 10
18.05523036172021
 20
5.116588
 42
-0.167252
 10
18.01118136172021
 20
5.244587999999999
 10
18.01118136172021
 20
5.280649999999999
 42
0.4142140000000001
 10
17.90524336172021
 20
5.386587999999999
 10
17.72774836172021
 20
5.386587999999999
 42
-0.3503
 10
17.69420736172021
 20
5.116588
  0
LWPOLYLINE
  5
72B
330
1E
100
AcDbEntity
  8
OBJECT
100
AcDbPolyline
 90
        6
 70
     0
 43
0.0
 10
18.21918136172021
 20
5.214588
 42
-0.4142140000000001
 10
18.18118136172021
 20
5.252587999999999
 10
18.18118136172021
 20
5.280649999999999
 42
0.4142140000000001
 10
17.90524336172021
 20
5.556587999999999
 10
17.52218136172021
 20
5.556587999999999
 42
-0.4142140000000001
 10
17.48418136172021
 20
5.594587999999999
 42
-0.268895
  0
LWPOLYLINE
  5
733
330
1E
100
AcDbEntity
  8
OBJECT
100
AcDbPolyline
 90
        6
 70
     1
 43
0.0
 10
19.70663236172021
 20
5.116588
 42
0.167252
 10
19.75068136172021
 20
5.244587999999999
 10
19.75068136172021
 20
5.280649999999999
 42
-0.4142140000000001
 10
19.85661836172021
 20
5.386587999999999
 10
20.0341143617202
 20
5.386587999999999
 42
0.3503
 10
20.06765536172021
 20
5.116588
  0
LWPOLYLINE
  5
73B
330
1E
100
AcDbEntity
  8
OBJECT
100
AcDbPolyline
 90
        6
 70
     0
 43
0.0
 10
19.54268136172021
 20
5.214588
 42
0.4142140000000001
 10
19.58068136172021
 20
5.252587999999999
 10
19.58068136172021
 20
5.280649999999999
 42
-0.4142140000000001
 10
19.85661836172021
 20
5.556587999999999
 10
20.23993136172021
 20
5.556587999999999
 42
0.4142140000000001
 10
20.27793136172021
 20
5.594587999999999
 42
0.268823
  0
LINE
  5
743
330
1E
100
AcDbEntity
  8
OBJECT
100
AcDbLine
 10
19.54268136172021
 20
5.214587999999999
 30
0.0
 11
18.21918136172021
 21
5.214587999999999
 31
0.0
  0
LINE
  5
744
330
1E
100
AcDbEntity
  8
OBJECT
100
AcDbLine
 10
20.27793136172021
 20
5.594587999999999
 30
0.0
 11
20.27793136172021
 21
10.777588
 31
0.0
  0
LINE
  5
745
330
1E
100
AcDbEntity
  8
OBJECT
100
AcDbLine
 10
25.36830604128134
 20
11.335588
 30
0.0
 11
25.36830604128134
 21
5.036588
 31
0.0
  0
LINE
  5
746
330
1E
100
AcDbEntity
  8
OBJECT
100
AcDbLine
 10
28.08930604128134
 20
11.285588
 30
0.0
 11
28.08930604128134
 21
5.086587999999999
 31
0.0
  0
LINE
  5
747
330
1E
100
AcDbEntity
  8
OBJECT
100
AcDbLine
 10
25.36830604128134
 20
5.036588
 30
0.0
 11
28.03930604128134
 21
5.036588
 31
0.0
  0
ARC
  5
748
330
1E
100
AcDbEntity
  8
OBJECT
100
AcDbCircle
 10
28.03930604128134
 20
5.086587999999999
 30
0.0
 40
0.05
100
AcDbArc
 50
270.0
 51
0.0
  0
LINE
  5
749
330
1E
100
AcDbEntity
  8
OBJECT
100
AcDbLine
 10
25.36830604128134
 20
5.056587999999999
 30
0.0
 11
25.32830604128134
 21
5.056587999999999
 31
0.0
  0
LINE
  5
74A
330
1E
100
AcDbEntity
  8
OBJECT
100
AcDbLine
 10
25.36830604128134
 20
11.335588
 30
0.0
 11
28.03930604128134
 21
11.335588
 31
0.0
  0
ARC
  5
74B
330
1E
100
AcDbEntity
  8
OBJECT
100
AcDbCircle
 10
28.03930604128134
 20
11.285588
 30
0.0
 40
0.05
100
AcDbArc
 50
0.0
 51
90.0
  0
LINE
  5
74C
330
1E
100
AcDbEntity
  8
OBJECT
100
AcDbLine
 10
25.32830604128134
 20
11.315588
 30
0.0
 11
25.36830604128134
 21
11.315588
 31
0.0
  0
LINE
  5
74D
330
1E
100
AcDbEntity
  8
OBJECT
100
AcDbLine
 10
24.73730604128134
 20
11.273088
 30
0.0
 11
24.73730604128134
 21
5.099088
 31
0.0
  0
LINE
  5
74E
330
1E
100
AcDbEntity
  8
OBJECT
100
AcDbLine
 10
25.32830604128134
 20
11.335588
 30
0.0
 11
25.32830604128134
 21
5.036588
 31
0.0
  0
LINE
  5
74F
330
1E
100
AcDbEntity
  8
OBJECT
100
AcDbLine
 10
25.32830604128134
 20
5.036588
 30
0.0
 11
24.79980604128134
 21
5.036588
 31
0.0
  0
ARC
  5
750
330
1E
100
AcDbEntity
  8
OBJECT
100
AcDbCircle
 10
24.79980604128134
 20
5.099088
 30
0.0
 40
0.0625
100
AcDbArc
 50
180.0
 51
270.0
  0
LINE
  5
751
330
1E
100
AcDbEntity
  8
OBJECT
100
AcDbLine
 10
25.32830604128134
 20
11.335588
 30
0.0
 11
24.79980604128134
 21
11.335588
 31
0.0
  0
ARC
  5
752
330
1E
100
AcDbEntity
  8
OBJECT
100
AcDbCircle
 10
24.79980604128134
 20
11.273088
 30
0.0
 40
0.0625
100
AcDbArc
 50
90.0
 51
180.0
  0
DIMENSION
  5
75C
330
1E
100
AcDbEntity
  8
DIM
100
AcDbDimension
  2
*D8
 10
28.08930604128134
 20
11.71889299999999
 30
0.0
 11
26.41330604128134
 21
11.71889299999999
 31
0.0
 70
    32
 71
     5
 42
3.352
  3
23NSTDI
100
AcDbAlignedDimension
 13
24.73730604128134
 23
11.273088
 33
0.0
 14
28.08930604128134
 24
11.285588
 34
0.0
100
AcDbRotatedDimension
  0
DIMENSION
  5
76A
330
1E
100
AcDbEntity
  8
DIM
100
AcDbDimension
  2
*D9
 10
25.32830604128134
 20
4.617306
 30
0.0
 11
26.75838416628134
 21
4.617306
 31
0.0
 70
    32
  1
<> REF.
 71
     5
 42
0.5910000000000011
  3
23NSTD
100
AcDbAlignedDimension
 13
24.73730604128134
 23
5.099088
 33
0.0
 14
25.32830604128134
 24
5.036588
 34
0.0
 50
180.0
100
AcDbRotatedDimension
  0
LINE
  5
778
330
1E
100
AcDbEntity
  8
OBJECT
100
AcDbLine
 10
6.393154809540956
 20
5.036588
 30
0.0
 11
9.105654809540954
 21
5.036588
 31
0.0
  0
LINE
  5
779
330
1E
100
AcDbEntity
  8
OBJECT
100
AcDbLine
 10
9.105654809540954
 20
5.056587999999999
 30
0.0
 11
6.393154809540956
 21
5.056587999999999
 31
0.0
  0
LINE
  5
77A
330
1E
100
AcDbEntity
  8
OBJECT
100
AcDbLine
 10
6.252404809540955
 20
5.594587999999999
 30
0.0
 11
6.252404809540955
 21
10.777588
 31
0.0
  0
LINE
  5
77B
330
1E
100
AcDbEntity
  8
OBJECT
100
AcDbLine
 10
6.292404809540955
 20
5.594587999999999
 30
0.0
 11
6.292404809540955
 21
10.777588
 31
0.0
  0
LINE
  5
77C
330
1E
100
AcDbEntity
  8
OBJECT
100
AcDbLine
 10
6.194404809540955
 20
5.255338
 30
0.0
 11
6.194404809540955
 21
11.116838
 31
0.0
  0
LINE
  5
77D
330
1E
100
AcDbEntity
  8
OBJECT
100
AcDbLine
 10
6.393154809540956
 20
11.335588
 30
0.0
 11
9.105654809540954
 21
11.335588
 31
0.0
  0
LINE
  5
77E
330
1E
100
AcDbEntity
  8
OBJECT
100
AcDbLine
 10
9.304404809540955
 20
11.116838
 30
0.0
 11
9.304404809540955
 21
5.255338
 31
0.0
  0
LINE
  5
77F
330
1E
100
AcDbEntity
  8
OBJECT
100
AcDbLine
 10
6.393154809540956
 20
11.315588
 30
0.0
 11
9.105654809540954
 21
11.315588
 31
0.0
  0
ARC
  5
780
330
1E
100
AcDbEntity
  8
OBJECT
100
AcDbCircle
 10
6.393154809540956
 20
5.255338
 30
0.0
 40
0.21875
100
AcDbArc
 50
180.0
 51
270.0
  0
ARC
  5
781
330
1E
100
AcDbEntity
  8
OBJECT
100
AcDbCircle
 10
6.393154809540956
 20
5.255338
 30
0.0
 40
0.19875
100
AcDbArc
 50
180.0
 51
270.0
  0
TEXT
  5
782
330
1E
100
AcDbEntity
  8
TEXT
100
AcDbText
 10
11.68370080954095
 20
3.957602999999998
 30
0.0
 40
0.21875
  1
%%USECTION "A-A"
 41
0.8
  7
SECTION
100
AcDbText
  0
CIRCLE
  5
784
330
1E
100
AcDbEntity
  8
OBJECT
100
AcDbCircle
 10
6.410404809540955
 20
5.272587999999998
 30
0.0
 40
0.125
  0
CIRCLE
  5
785
330
1E
100
AcDbEntity
  8
OBJECT
100
AcDbCircle
 10
6.410404809540955
 20
5.272587999999998
 30
0.0
 40
0.0625
  0
LINE
  5
786
330
1E
100
AcDbEntity
  8
OBJECT
100
AcDbLine
 10
6.174404809540956
 20
11.116838
 30
0.0
 11
6.174404809540956
 21
5.255338
 31
0.0
  0
LINE
  5
787
330
1E
100
AcDbEntity
  8
OBJECT
100
AcDbLine
 10
9.324404809540954
 20
11.116838
 30
0.0
 11
9.324404809540954
 21
5.255338
 31
0.0
  0
CIRCLE
  5
788
330
1E
100
AcDbEntity
  8
OBJECT
100
AcDbCircle
 10
9.088404809540955
 20
5.272587999999998
 30
0.0
 40
0.0625
  0
CIRCLE
  5
789
330
1E
100
AcDbEntity
  8
OBJECT
100
AcDbCircle
 10
9.088404809540955
 20
5.272587999999998
 30
0.0
 40
0.125
  0
ARC
  5
78A
330
1E
100
AcDbEntity
  8
OBJECT
100
AcDbCircle
 10
9.105654809540954
 20
5.255338
 30
0.0
 40
0.19875
100
AcDbArc
 50
270.0
 51
0.0
  0
ARC
  5
78B
330
1E
100
AcDbEntity
  8
OBJECT
100
AcDbCircle
 10
9.105654809540954
 20
5.255338
 30
0.0
 40
0.21875
100
AcDbArc
 50
270.0
 51
0.0
  0
CIRCLE
  5
78C
330
1E
100
AcDbEntity
  8
OBJECT
100
AcDbCircle
 10
6.410404809540955
 20
11.099588
 30
0.0
 40
0.0625
  0
CIRCLE
  5
78D
330
1E
100
AcDbEntity
  8
OBJECT
100
AcDbCircle
 10
6.410404809540955
 20
11.099588
 30
0.0
 40
0.125
  0
ARC
  5
78F
330
1E
100
AcDbEntity
  8
OBJECT
100
AcDbCircle
 10
6.393154809540956
 20
11.116838
 30
0.0
 40
0.19875
100
AcDbArc
 50
90.0
 51
180.0
  0
ARC
  5
790
330
1E
100
AcDbEntity
  8
OBJECT
100
AcDbCircle
 10
6.393154809540956
 20
11.116838
 30
0.0
 40
0.21875
100
AcDbArc
 50
90.0
 51
180.0
  0
ARC
  5
791
330
1E
100
AcDbEntity
  8
OBJECT
100
AcDbCircle
 10
9.105654809540954
 20
11.116838
 30
0.0
 40
0.21875
100
AcDbArc
 50
0.0
 51
90.0
  0
ARC
  5
792
330
1E
100
AcDbEntity
  8
OBJECT
100
AcDbCircle
 10
9.105654809540954
 20
11.116838
 30
0.0
 40
0.19875
100
AcDbArc
 50
0.0
 51
90.0
  0
CIRCLE
  5
793
330
1E
100
AcDbEntity
  8
OBJECT
100
AcDbCircle
 10
9.088404809540955
 20
11.099588
 30
0.0
 40
0.125
  0
CIRCLE
  5
794
330
1E
100
AcDbEntity
  8
OBJECT
100
AcDbCircle
 10
9.088404809540955
 20
11.099588
 30
0.0
 40
0.0625
  0
DIMENSION
  5
795
330
1E
100
AcDbEntity
  8
DIM
100
AcDbDimension
  2
*D10
 10
4.768449809540955
 20
11.335588
 30
0.0
 11
5.555402934540953
 21
11.965588
 31
0.0
 70
    32
 71
     5
 42
0.2360000000000006
  3
23NSTD
100
AcDbAlignedDimension
 13
6.410404809540955
 23
11.099588
 33
0.0
 14
6.393154809540956
 24
11.335588
 34
0.0
 50
90.0
100
AcDbRotatedDimension
  0
DIMENSION
  5
7A3
330
1E
100
AcDbEntity
  8
DIM
100
AcDbDimension
  2
*D11
 10
4.768449809540957
 20
11.099588
 30
0.0
 11
4.768449809540955
 21
8.186088000000001
 31
0.0
 70
    32
  1
<>
 71
     5
 42
5.827
  3
23NSTD
100
AcDbAlignedDimension
 13
6.410404809540955
 23
5.272587999999999
 33
0.0
 14
6.410404809540955
 24
11.099588
 34
0.0
 50
90.0
100
AcDbRotatedDimension
  0
DIMENSION
  5
7B1
330
1E
100
AcDbEntity
  8
DIM
100
AcDbDimension
  2
*D12
 10
6.174404809540956
 20
13.32981199999999
 30
0.0
 11
5.072451684540956
 21
13.32981199999999
 31
0.0
 70
    32
 71
     5
 42
0.2359999999999998
  3
23NSTD
100
AcDbAlignedDimension
 13
6.410404809540955
 23
11.099588
 33
0.0
 14
6.174404809540956
 24
11.116838
 34
0.0
100
AcDbRotatedDimension
  0
DIMENSION
  5
7BF
330
1E
100
AcDbEntity
  8
DIM
100
AcDbDimension
  2
*D13
 10
6.174404809540956
 20
12.34631199999999
 30
0.0
 11
5.099795434540956
 21
12.34631199999999
 31
0.0
 70
    32
 71
     5
 42
0.5909999999999993
  3
23NSTD
100
AcDbAlignedDimension
 13
6.765404809540955
 23
11.099588
 33
0.0
 14
6.174404809540956
 24
11.116838
 34
0.0
100
AcDbRotatedDimension
  0
DIMENSION
  5
7CD
330
1E
100
AcDbEntity
  8
DIM
100
AcDbDimension
  2
*D14
 10
8.733404809540955
 20
12.34631199999999
 30
0.0
 11
7.749404809540955
 21
12.34631199999999
 31
0.0
 70
    32
  1
<>
 71
     5
 42
1.967999999999999
  3
23NSTD
100
AcDbAlignedDimension
 13
6.765404809540955
 23
11.099588
 33
0.0
 14
8.733404809540955
 24
11.64799
 34
0.0
100
AcDbRotatedDimension
  0
DIMENSION
  5
7DB
330
1E
100
AcDbEntity
  8
DIM
100
AcDbDimension
  2
*D15
 10
9.088404809540955
 20
13.32981199999999
 30
0.0
 11
7.749404809540956
 21
13.32981199999999
 31
0.0
 70
    32
  1
<>
 71
     5
 42
2.677999999999999
  3
23NSTD
100
AcDbAlignedDimension
 13
6.410404809540955
 23
11.099588
 33
0.0
 14
9.088404809540955
 24
11.099588
 34
0.0
100
AcDbRotatedDimension
  0
DIMENSION
  5
7E9
330
1E
100
AcDbEntity
  8
DIM
100
AcDbDimension
  2
*D16
 10
6.174404809540956
 20
12.83806199999999
 30
0.0
 11
5.099795434540956
 21
12.83806199999999
 31
0.0
 70
    32
  1
0.431
 71
     5
 42
0.4329999999999999
  3
23NSTD
100
AcDbAlignedDimension
 13
6.607404809540955
 23
10.57758799999999
 33
0.0
 14
6.174404809540956
 24
11.116838
 34
0.0
100
AcDbRotatedDimension
  0
DIMENSION
  5
7F7
330
1E
100
AcDbEntity
  8
DIM
100
AcDbDimension
  2
*D17
 10
6.607404809540955
 20
12.83806199999999
 30
0.0
 11
7.749404809540955
 21
12.83806199999999
 31
0.0
 70
    32
  1
<>
 71
     5
 42
2.283999999999998
  3
23NSTD
100
AcDbAlignedDimension
 13
8.891404809540954
 23
10.79494799999999
 33
0.0
 14
6.607404809540955
 24
10.57758799999999
 34
0.0
100
AcDbRotatedDimension
  0
DIMENSION
  5
805
330
1E
100
AcDbEntity
  8
DIM
100
AcDbDimension
  2
*D18
 10
6.174404809540956
 20
3.557037999999999
 30
0.0
 11
6.581904809540954
 21
3.557037999999999
 31
0.0
 70
    32
 71
     5
 42
0.8149999999999986
  3
23NSTDI
100
AcDbAlignedDimension
 13
6.989404809540954
 23
5.252587999999999
 33
0.0
 14
6.174404809540956
 24
5.255338
 34
0.0
100
AcDbRotatedDimension
  0
DIMENSION
  5
813
330
1E
100
AcDbEntity
  8
DIM
100
AcDbDimension
  2
*D19
 10
8.509404809540955
 20
4.048788
 30
0.0
 11
7.749404809540955
 21
4.048788
 31
0.0
 70
    32
  1
<>
 71
     5
 42
1.52
  3
23NSTDI
100
AcDbAlignedDimension
 13
6.989404809540954
 23
5.252587999999999
 33
0.0
 14
8.509404809540955
 24
5.252587999999999
 34
0.0
100
AcDbRotatedDimension
  0
DIMENSION
  5
821
330
1E
100
AcDbEntity
  8
DIM
100
AcDbDimension
  2
*D20
 10
9.324404809540954
 20
3.065288
 30
0.0
 11
7.749404809540955
 21
3.065288
 31
0.0
 70
    32
  1
<>
 71
     5
 42
3.149999999999998
  3
23NSTD
100
AcDbAlignedDimension
 13
6.174404809540956
 23
5.255338
 33
0.0
 14
9.324404809540954
 24
5.255338
 34
0.0
100
AcDbRotatedDimension
  0
DIMENSION
  5
82F
330
1E
100
AcDbEntity
  8
DIM
100
AcDbDimension
  2
*D21
 10
10.45502780954095
 20
5.496337999999998
 30
0.0
 11
10.45502780954095
 21
5.266463
 31
0.0
 70
    32
 71
     5
 42
0.4597499999999997
  3
23NSTDI
100
AcDbAlignedDimension
 13
9.105654809540954
 23
5.036588
 33
0.0
 14
9.108154809540955
 24
5.496337999999999
 34
0.0
 50
90.0
100
AcDbRotatedDimension
  0
DIMENSION
  5
83D
330
1E
100
AcDbEntity
  8
DIM
100
AcDbDimension
  2
*D22
 10
10.45502780954095
 20
10.87583799999999
 30
0.0
 11
10.45502780954095
 21
8.186088000000001
 31
0.0
 70
    32
  1
<>
 71
     5
 42
5.3795
  3
23NSTD
100
AcDbAlignedDimension
 13
9.108154809540955
 23
5.496337999999999
 33
0.0
 14
9.108154809540955
 24
10.87583799999999
 34
0.0
 50
90.0
100
AcDbRotatedDimension
  0
DIMENSION
  5
84B
330
1E
100
AcDbEntity
  8
DIM
100
AcDbDimension
  2
*D23
 10
3.835252809540957
 20
11.335588
 30
0.0
 11
3.835252809540955
 21
8.186088000000003
 31
0.0
 70
    32
  1
<>
 71
     5
 42
6.299000000000001
  3
23NSTD
100
AcDbAlignedDimension
 13
6.267154809540955
 23
5.036588
 33
0.0
 14
6.393154809540956
 24
11.335588
 34
0.0
 50
270.0
100
AcDbRotatedDimension
  0
DIMENSION
  5
859
330
1E
100
AcDbEntity
  8
DIM
100
AcDbDimension
  2
*D24
 10
9.854732809540955
 20
11.335588
 30
0.0
 11
10.64168593454095
 21
11.965588
 31
0.0
 70
   160
 71
     5
 42
0.7580000000000009
  3
23NSTD
100
AcDbAlignedDimension
 13
8.891404809540954
 23
10.57758799999999
 33
0.0
 14
9.105654809540954
 24
11.335588
 34
0.0
 50
270.0
100
AcDbRotatedDimension
  0
DIMENSION
  5
867
330
1E
100
AcDbEntity
  8
DIM
100
AcDbDimension
  2
*D25
 10
6.174404809540956
 20
9.533305
 30
0.0
 11
4.771670434540956
 21
9.533305
 31
0.0
 70
    32
  1
<> TYP.
 71
     5
 42
0.1179999999999994
  3
23NSTD
100
AcDbAlignedDimension
 13
6.292404809540955
 23
9.540872
 33
0.0
 14
6.174404809540956
 24
9.540872
 34
0.0
100
AcDbRotatedDimension
  0
DIMENSION
  5
875
330
1E
100
AcDbEntity
  8
DIM
100
AcDbDimension
  2
*D26
 10
9.206404809540954
 20
9.533305
 30
0.0
 11
7.749404809540955
 21
9.533305
 31
0.0
 70
    32
 71
     5
 42
2.913999999999998
  3
23NSTD
100
AcDbAlignedDimension
 13
6.292404809540955
 23
9.540872
 33
0.0
 14
9.206404809540954
 24
9.540872
 34
0.0
100
AcDbRotatedDimension
  0
LWPOLYLINE
  5
886
330
1E
100
AcDbEntity
  8
OBJECT
100
AcDbPolyline
 90
        6
 70
     0
 43
0.0
 10
7.087654809540954
 20
11.257838
 42
0.4142140000000001
 10
6.949404809540954
 20
11.119588
 10
6.949404809540954
 20
11.091525
 42
-0.4142140000000001
 10
6.773717809540955
 20
10.915838
 10
6.390654809540955
 20
10.915838
 42
0.4142140000000001
 10
6.252404809540955
 20
10.777588
 42
0.4142140000000001
  0
LWPOLYLINE
  5
88E
330
1E
100
AcDbEntity
  8
OBJECT
100
AcDbPolyline
 90
        6
 70
     0
 43
0.0
 10
7.087654809540954
 20
11.21783799999999
 42
0.4142140000000001
 10
6.989404809540954
 20
11.119588
 10
6.989404809540954
 20
11.091525
 42
-0.4142140000000001
 10
6.773717809540955
 20
10.87583799999999
 10
6.390654809540955
 20
10.87583799999999
 42
0.4142140000000001
 10
6.292404809540955
 20
10.777588
 42
0.4142140000000001
  0
LINE
  5
896
330
1E
100
AcDbEntity
  8
OBJECT
100
AcDbLine
 10
7.087654809540954
 20
11.257838
 30
0.0
 11
8.411154809540954
 21
11.257838
 31
0.0
  0
LINE
  5
897
330
1E
100
AcDbEntity
  8
OBJECT
100
AcDbLine
 10
7.087654809540954
 20
11.21783799999999
 30
0.0
 11
8.411154809540954
 21
11.21783799999999
 31
0.0
  0
LWPOLYLINE
  5
898
330
1E
100
AcDbEntity
  8
OBJECT
100
AcDbPolyline
 90
        6
 70
     1
 43
0.0
 10
6.545619809540956
 20
11.270588
 10
7.025609809540955
 20
11.270588
 42
0.304122
 10
6.924404809540955
 20
11.119588
 10
6.924404809540955
 20
11.091525
 42
-0.4142140000000001
 10
6.773717809540955
 20
10.940838
 10
6.559811809540955
 20
10.940838
 42
0.4578470000000001
  0
LWPOLYLINE
  5
8A0
330
1E
100
AcDbEntity
  8
OBJECT
100
AcDbPolyline
 90
        6
 70
     1
 43
0.0
 10
8.953190809540954
 20
11.270588
 10
8.473199809540956
 20
11.270588
 42
-0.304122
 10
8.574404809540954
 20
11.119588
 10
8.574404809540954
 20
11.091525
 42
0.4142140000000001
 10
8.725092809540955
 20
10.940838
 10
8.938997809540955
 20
10.940838
 42
-0.4578470000000001
  0
LWPOLYLINE
  5
8A8
330
1E
100
AcDbEntity
  8
OBJECT
100
AcDbPolyline
 90
        6
 70
     0
 43
0.0
 10
8.411154809540954
 20
11.21783799999999
 42
-0.4142140000000001
 10
8.509404809540955
 20
11.119588
 10
8.509404809540955
 20
11.091525
 42
0.4142140000000001
 10
8.725092809540955
 20
10.87583799999999
 10
9.108154809540955
 20
10.87583799999999
 42
-0.4142140000000001
 10
9.206404809540954
 20
10.777588
 42
-0.4142140000000001
  0
LWPOLYLINE
  5
8B0
330
1E
100
AcDbEntity
  8
OBJECT
100
AcDbPolyline
 90
        6
 70
     0
 43
0.0
 10
8.411154809540954
 20
11.257838
 42
-0.4142140000000001
 10
8.549404809540954
 20
11.119588
 10
8.549404809540954
 20
11.091525
 42
0.4142140000000001
 10
8.725092809540955
 20
10.915838
 10
9.108154809540955
 20
10.915838
 42
-0.4142140000000001
 10
9.246404809540955
 20
10.777588
 42
-0.4142140000000001
  0
LINE
  5
8B8
330
1E
100
AcDbEntity
  8
OBJECT
100
AcDbLine
 10
9.206404809540954
 20
5.594587999999999
 30
0.0
 11
9.206404809540954
 21
10.777588
 31
0.0
  0
LINE
  5
8B9
330
1E
100
AcDbEntity
  8
OBJECT
100
AcDbLine
 10
9.246404809540955
 20
5.594587999999999
 30
0.0
 11
9.246404809540955
 21
10.777588
 31
0.0
  0
LINE
  5
8BA
330
1E
100
AcDbEntity
  8
OBJECT
100
AcDbLine
 10
7.087654809540954
 20
5.154337999999999
 30
0.0
 11
8.411154809540954
 21
5.154337999999999
 31
0.0
  0
LWPOLYLINE
  5
8BB
330
1E
100
AcDbEntity
  8
OBJECT
100
AcDbPolyline
 90
        6
 70
     1
 43
0.0
 10
6.545619809540956
 20
5.101587999999999
 10
7.025609809540955
 20
5.101587999999999
 42
-0.304122
 10
6.924404809540955
 20
5.252587999999999
 10
6.924404809540955
 20
5.280649999999999
 42
0.4142140000000001
 10
6.773717809540955
 20
5.431337999999999
 10
6.559811809540955
 20
5.431337999999999
 42
-0.4578470000000001
  0
LWPOLYLINE
  5
8C3
330
1E
100
AcDbEntity
  8
OBJECT
100
AcDbPolyline
 90
        6
 70
     0
 43
0.0
 10
7.087654809540954
 20
5.154338
 42
-0.4142140000000001
 10
6.989404809540954
 20
5.252587999999999
 10
6.989404809540954
 20
5.280649999999999
 42
0.4142140000000001
 10
6.773717809540955
 20
5.496337999999999
 10
6.390654809540955
 20
5.496337999999999
 42
-0.4142140000000001
 10
6.292404809540955
 20
5.594587999999999
 42
-0.4142140000000001
  0
LWPOLYLINE
  5
8CB
330
1E
100
AcDbEntity
  8
OBJECT
100
AcDbPolyline
 90
        6
 70
     0
 43
0.0
 10
7.087654809540954
 20
5.114338
 42
-0.4142140000000001
 10
6.949404809540954
 20
5.252587999999999
 10
6.949404809540954
 20
5.280649999999999
 42
0.4142140000000001
 10
6.773717809540955
 20
5.456337999999999
 10
6.390654809540955
 20
5.456337999999999
 42
-0.4142140000000001
 10
6.252404809540955
 20
5.594587999999999
 42
-0.4142140000000001
  0
LWPOLYLINE
  5
8D3
330
1E
100
AcDbEntity
  8
OBJECT
100
AcDbPolyline
 90
        6
 70
     0
 43
0.0
 10
8.411154809540954
 20
5.114338
 42
0.4142140000000001
 10
8.549404809540954
 20
5.252587999999999
 10
8.549404809540954
 20
5.280649999999999
 42
-0.4142140000000001
 10
8.725092809540955
 20
5.456337999999999
 10
9.108154809540955
 20
5.456337999999999
 42
0.4142140000000001
 10
9.246404809540955
 20
5.594587999999999
 42
0.4142140000000001
  0
LWPOLYLINE
  5
8DB
330
1E
100
AcDbEntity
  8
OBJECT
100
AcDbPolyline
 90
        6
 70
     0
 43
0.0
 10
8.411154809540954
 20
5.154338
 42
0.4142140000000001
 10
8.509404809540955
 20
5.252587999999999
 10
8.509404809540955
 20
5.280649999999999
 42
-0.4142140000000001
 10
8.725092809540955
 20
5.496337999999999
 10
9.108154809540955
 20
5.496337999999999
 42
0.4142140000000001
 10
9.206404809540954
 20
5.594587999999999
 42
0.4142140000000001
  0
LWPOLYLINE
  5
8E3
330
1E
100
AcDbEntity
  8
OBJECT
100
AcDbPolyline
 90
        6
 70
     1
 43
0.0
 10
8.953190809540954
 20
5.101587999999999
 10
8.473199809540956
 20
5.101587999999999
 42
0.304122
 10
8.574404809540954
 20
5.252587999999999
 10
8.574404809540954
 20
5.280649999999999
 42
-0.4142140000000001
 10
8.725092809540955
 20
5.431337999999999
 10
8.938997809540955
 20
5.431337999999999
 42
0.4578470000000001
  0
LINE
  5
8EB
330
1E
100
AcDbEntity
  8
OBJECT
100
AcDbLine
 10
7.087654809540954
 20
5.114338
 30
0.0
 11
8.411154809540954
 21
5.114338
 31
0.0
  0
CIRCLE
  5
8EC
330
1E
100
AcDbEntity
  8
OBJECT
100
AcDbCircle
 10
7.749404809540955
 20
5.508587999999999
 30
0.0
 40
0.1575
  0
CIRCLE
  5
8ED
330
1E
100
AcDbEntity
  8
OBJECT
100
AcDbCircle
 10
7.749404809540955
 20
10.86358799999999
 30
0.0
 40
0.1575
  0
CIRCLE
  5
8EE
330
1E
100
AcDbEntity
  8
OBJECT
100
AcDbCircle
 10
8.891404809540954
 20
5.794588
 30
0.0
 40
0.1575
  0
CIRCLE
  5
8F0
330
1E
100
AcDbEntity
  8
OBJECT
100
AcDbCircle
 10
8.733404809540955
 20
5.272587999999998
 30
0.0
 40
0.0825
  0
CIRCLE
  5
8F1
330
1E
100
AcDbEntity
  8
OBJECT
100
AcDbCircle
 10
6.765404809540955
 20
5.272587999999998
 30
0.0
 40
0.0825
  0
CIRCLE
  5
8F2
330
1E
100
AcDbEntity
  8
OBJECT
100
AcDbCircle
 10
6.765404809540955
 20
11.099588
 30
0.0
 40
0.0825
  0
CIRCLE
  5
8F3
330
1E
100
AcDbEntity
  8
OBJECT
100
AcDbCircle
 10
8.733404809540955
 20
11.099588
 30
0.0
 40
0.0825
  0
INSERT
  5
8F4
330
1E
100
AcDbEntity
  8
BEND
100
AcDbBlockReference
 66
     1
  2
SECTION
 10
9.212989809540955
 20
4.822590999999999
 30
0.0
 41
0.9404999999999999
 42
0.9404999999999999
 43
0.9404999999999999
 50
90.0
  0
ATTRIB
  5
8F5
330
8F4
100
AcDbEntity
  8
0
100
AcDbText
 10
9.123846952398098
 20
4.705590999999999
 30
0.0
 40
0.234
  1
A
 41
0.8
  7
SECTION
 72
     4
 11
9.212989809540955
 21
4.822590999999999
 31
0.0
100
AcDbAttribute
  2
SECTION
 70
     0
  0
SEQEND
  5
8F6
330
8F4
100
AcDbEntity
  8
BEND
 62
     7
  0
LWPOLYLINE
  5
8F7
330
1E
100
AcDbEntity
  8
BEND
100
AcDbPolyline
 90
       10
 70
     0
 10
8.589561809540954
 20
4.822591
 40
0.0
 41
0.117621
 10
8.824804809540955
 20
4.822591
 40
0.0
 41
0.0
 10
9.088404809540955
 20
4.822591
 40
0.0
 41
0.0
 10
9.088404809540955
 20
8.797497999999999
 40
0.0
 41
0.0
 10
8.891404809540954
 20
8.797497999999999
 40
0.0
 41
0.0
 10
8.891404809540954
 20
10.79494799999999
 40
0.0
 41
0.0
 10
8.733404809540955
 20
10.79494799999999
 40
0.0
 41
0.0
 10
8.733404809540955
 20
11.64799
 40
0.0
 41
0.0
 10
8.469804809540955
 20
11.64799
 40
0.117621
 41
0.0
 10
8.234561809540956
 20
11.64799
 40
0.0
 41
0.0
  0
INSERT
  5
903
330
1E
100
AcDbEntity
  8
BEND
100
AcDbBlockReference
 66
     1
  2
SECTION
 10
9.000960809540956
 20
11.674661
 30
0.0
 41
0.9404999999999999
 42
0.9404999999999999
 43
0.9404999999999999
 50
90.0
  0
ATTRIB
  5
904
330
903
100
AcDbEntity
  8
0
100
AcDbText
 10
8.911817952398099
 20
11.55766099999999
 30
0.0
 40
0.234
  1
A
 41
0.8
  7
SECTION
 72
     4
 11
9.000960809540956
 21
11.674661
 31
0.0
100
AcDbAttribute
  2
SECTION
 70
     0
  0
SEQEND
  5
905
330
903
100
AcDbEntity
  8
BEND
 62
     7
  0
DIMENSION
  5
906
330
1E
100
AcDbEntity
  8
DIM
100
AcDbDimension
  2
*D27
 10
8.250717809540955
 20
11.21783799999999
 30
0.0
 11
8.250717809540953
 21
8.186088000000001
 31
0.0
 70
    32
 71
     5
 42
6.0635
  3
23NSTD
100
AcDbAlignedDimension
 13
8.411154809540954
 23
5.154338
 33
0.0
 14
8.411154809540954
 24
11.21783799999999
 34
0.0
 50
270.0
100
AcDbRotatedDimension
  0
LINE
  5
914
330
1E
100
AcDbEntity
  8
HIDDEN
100
AcDbLine
 10
3.272356009021363
 20
11.217588
 30
0.0
 11
0.6083560090213638
 21
11.217588
 31
0.0
  0
LINE
  5
915
330
1E
100
AcDbEntity
  8
HIDDEN
100
AcDbLine
 10
3.272356009021363
 20
10.87583799999999
 30
0.0
 11
0.6083560090213638
 21
10.87583799999999
 31
0.0
  0
LINE
  5
916
330
1E
100
AcDbEntity
  8
OBJECT
100
AcDbLine
 10
3.272356009021363
 20
10.91581
 30
0.0
 11
3.212356009021362
 21
10.91581
 31
0.0
  0
LINE
  5
917
330
1E
100
AcDbEntity
  8
OBJECT
100
AcDbLine
 10
3.212356009021362
 20
5.114587999999999
 30
0.0
 11
3.272356009021363
 21
5.114587999999999
 31
0.0
  0
LINE
  5
918
330
1E
100
AcDbEntity
  8
OBJECT
100
AcDbLine
 10
3.272356009021363
 20
11.257588
 30
0.0
 11
3.212356009021362
 21
11.257588
 31
0.0
  0
LINE
  5
919
330
1E
100
AcDbEntity
  8
OBJECT
100
AcDbLine
 10
0.4513560090213638
 20
11.285588
 30
0.0
 11
0.4513560090213638
 21
5.086587999999998
 31
0.0
  0
LINE
  5
91A
330
1E
100
AcDbEntity
  8
OBJECT
100
AcDbLine
 10
3.212356009021362
 20
5.056587999999999
 30
0.0
 11
3.212356009021362
 21
11.315588
 31
0.0
  0
LINE
  5
91B
330
1E
100
AcDbEntity
  8
OBJECT
100
AcDbLine
 10
3.172356009021363
 20
11.335588
 30
0.0
 11
3.172356009021363
 21
5.036588
 31
0.0
  0
LINE
  5
91C
330
1E
100
AcDbEntity
  8
HIDDEN
100
AcDbLine
 10
0.6083560090213638
 20
11.217588
 30
0.0
 11
0.6083560090213638
 21
5.154588
 31
0.0
  0
LINE
  5
91D
330
1E
100
AcDbEntity
  8
HIDDEN
100
AcDbLine
 10
2.897356009021363
 20
11.256838
 30
0.0
 11
0.4513560090213638
 21
11.256838
 31
0.0
  0
LINE
  5
91E
330
1E
100
AcDbEntity
  8
HIDDEN
100
AcDbLine
 10
2.897356009021363
 20
10.946838
 30
0.0
 11
0.4513560090213638
 21
10.946838
 31
0.0
  0
LINE
  5
91F
330
1E
100
AcDbEntity
  8
OBJECT
100
AcDbLine
 10
3.172356009021363
 20
11.335588
 30
0.0
 11
0.5013560090213645
 21
11.335588
 31
0.0
  0
ARC
  5
920
330
1E
100
AcDbEntity
  8
OBJECT
100
AcDbCircle
 10
0.5013560090213645
 20
11.285588
 30
0.0
 40
0.05
100
AcDbArc
 50
90.0
 51
180.0
  0
LINE
  5
924
330
1E
100
AcDbEntity
  8
HIDDEN
100
AcDbLine
 10
0.6083560090213638
 20
11.017088
 30
0.0
 11
0.4513560090213638
 21
11.017088
 31
0.0
  0
LINE
  5
925
330
1E
100
AcDbEntity
  8
HIDDEN
100
AcDbLine
 10
0.6083560090213638
 20
11.182088
 30
0.0
 11
0.4513560090213638
 21
11.182088
 31
0.0
  0
LINE
  5
926
330
1E
100
AcDbEntity
  8
HIDDEN
100
AcDbLine
 10
2.897356009021363
 20
11.256838
 30
0.0
 11
2.897356009021363
 21
10.946838
 31
0.0
  0
LINE
  5
927
330
1E
100
AcDbEntity
  8
HIDDEN
100
AcDbLine
 10
3.212356009021362
 20
11.164338
 30
0.0
 11
2.897356009021363
 21
11.164338
 31
0.0
  0
LINE
  5
928
330
1E
100
AcDbEntity
  8
HIDDEN
100
AcDbLine
 10
3.212356009021362
 20
11.226838
 30
0.0
 11
2.897356009021363
 21
11.226838
 31
0.0
  0
LINE
  5
929
330
1E
100
AcDbEntity
  8
OBJECT
100
AcDbLine
 10
3.212356009021362
 20
11.315588
 30
0.0
 11
3.172356009021363
 21
11.315588
 31
0.0
  0
LINE
  5
92A
330
1E
100
AcDbEntity
  8
HIDDEN
100
AcDbLine
 10
3.212356009021362
 20
10.976838
 30
0.0
 11
2.897356009021363
 21
10.976838
 31
0.0
  0
LINE
  5
92B
330
1E
100
AcDbEntity
  8
HIDDEN
100
AcDbLine
 10
3.212356009021362
 20
11.039338
 30
0.0
 11
2.897356009021363
 21
11.039338
 31
0.0
  0
LINE
  5
92C
330
1E
100
AcDbEntity
  8
OBJECT
100
AcDbLine
 10
3.172356009021363
 20
5.036588
 30
0.0
 11
0.5013560090213645
 21
5.036588
 31
0.0
  0
ARC
  5
92D
330
1E
100
AcDbEntity
  8
OBJECT
100
AcDbCircle
 10
0.5013560090213645
 20
5.086587999999998
 30
0.0
 40
0.05
100
AcDbArc
 50
180.0
 51
270.0
  0
LINE
  5
92E
330
1E
100
AcDbEntity
  8
OBJECT
100
AcDbLine
 10
3.172356009021363
 20
5.056587999999999
 30
0.0
 11
3.212356009021362
 21
5.056587999999999
 31
0.0
  0
LINE
  5
92F
330
1E
100
AcDbEntity
  8
OBJECT
100
AcDbLine
 10
3.272356009021363
 20
11.257588
 30
0.0
 11
3.272356009021363
 21
5.114587999999999
 31
0.0
  0
LINE
  5
930
330
1E
100
AcDbEntity
  8
HIDDEN
100
AcDbLine
 10
2.897356009021363
 20
5.425337999999999
 30
0.0
 11
0.4513560090213638
 21
5.425337999999999
 31
0.0
  0
LINE
  5
931
330
1E
100
AcDbEntity
  8
HIDDEN
100
AcDbLine
 10
3.272356009021363
 20
5.496337999999999
 30
0.0
 11
0.6083560090213638
 21
5.496337999999999
 31
0.0
  0
LINE
  5
932
330
1E
100
AcDbEntity
  8
HIDDEN
100
AcDbLine
 10
3.272356009021363
 20
5.154588
 30
0.0
 11
0.6083560090213638
 21
5.154588
 31
0.0
  0
LINE
  5
933
330
1E
100
AcDbEntity
  8
HIDDEN
100
AcDbLine
 10
0.6083560090213638
 20
5.355087999999998
 30
0.0
 11
0.4513560090213638
 21
5.355087999999998
 31
0.0
  0
LINE
  5
934
330
1E
100
AcDbEntity
  8
HIDDEN
100
AcDbLine
 10
0.6083560090213638
 20
5.190087999999999
 30
0.0
 11
0.4513560090213638
 21
5.190087999999999
 31
0.0
  0
LINE
  5
938
330
1E
100
AcDbEntity
  8
OBJECT
100
AcDbLine
 10
3.272356009021363
 20
5.456364999999999
 30
0.0
 11
3.212356009021362
 21
5.456364999999999
 31
0.0
  0
LINE
  5
939
330
1E
100
AcDbEntity
  8
HIDDEN
100
AcDbLine
 10
3.212356009021362
 20
5.145337999999998
 30
0.0
 11
2.897356009021363
 21
5.145337999999998
 31
0.0
  0
LINE
  5
93A
330
1E
100
AcDbEntity
  8
HIDDEN
100
AcDbLine
 10
3.212356009021362
 20
5.207837999999998
 30
0.0
 11
2.897356009021363
 21
5.207837999999998
 31
0.0
  0
LINE
  5
93B
330
1E
100
AcDbEntity
  8
HIDDEN
100
AcDbLine
 10
3.212356009021362
 20
5.332837999999998
 30
0.0
 11
2.897356009021363
 21
5.332837999999998
 31
0.0
  0
LINE
  5
93C
330
1E
100
AcDbEntity
  8
HIDDEN
100
AcDbLine
 10
3.212356009021362
 20
5.395337999999998
 30
0.0
 11
2.897356009021363
 21
5.395337999999998
 31
0.0
  0
LINE
  5
93D
330
1E
100
AcDbEntity
  8
HIDDEN
100
AcDbLine
 10
2.897356009021363
 20
5.115337999999999
 30
0.0
 11
2.897356009021363
 21
5.425337999999999
 31
0.0
  0
LINE
  5
93E
330
1E
100
AcDbEntity
  8
HIDDEN
100
AcDbLine
 10
2.897356009021363
 20
5.115337999999999
 30
0.0
 11
0.4513560090213638
 21
5.115337999999999
 31
0.0
  0
LINE
  5
93F
102
{ACAD_REACTORS
330
1BD9
102
}
330
1E
100
AcDbEntity
  8
OBJECT
100
AcDbLine
 10
11.18890580954095
 20
11.257588
 30
0.0
 11
11.18890580954095
 21
5.114587999999999
 31
0.0
  0
LINE
  5
940
102
{ACAD_REACTORS
330
1BD9
102
}
330
1E
100
AcDbEntity
  8
OBJECT
100
AcDbLine
 10
14.00990580954095
 20
11.285588
 30
0.0
 11
14.00990580954095
 21
5.086587999999998
 31
0.0
  0
LINE
  5
941
102
{ACAD_REACTORS
330
13F3
330
1BD9
102
}
330
1E
100
AcDbEntity
  8
OBJECT
100
AcDbLine
 10
11.24890580954095
 20
5.056587999999999
 30
0.0
 11
11.24890580954095
 21
5.456364999999999
 31
0.0
  0
LINE
  5
942
102
{ACAD_REACTORS
330
1BD9
102
}
330
1E
100
AcDbEntity
  8
OBJECT
100
AcDbLine
 10
11.28890580954095
 20
11.335588
 30
0.0
 11
11.28890580954095
 21
11.315588
 31
0.0
  0
LINE
  5
943
102
{ACAD_REACTORS
330
1BD9
102
}
330
1E
100
AcDbEntity
  8
OBJECT
100
AcDbLine
 10
13.85290580954095
 20
11.270588
 30
0.0
 11
13.85290580954095
 21
10.940838
 31
0.0
  0
LINE
  5
944
102
{ACAD_REACTORS
330
1BD9
102
}
330
1E
100
AcDbEntity
  8
OBJECT
100
AcDbLine
 10
11.28890580954095
 20
5.036588
 30
0.0
 11
13.95990580954095
 21
5.036588
 31
0.0
  0
LINE
  5
945
102
{ACAD_REACTORS
330
1BD9
102
}
330
1E
100
AcDbEntity
  8
OBJECT
100
AcDbLine
 10
11.56390580954095
 20
5.425337999999999
 30
0.0
 11
14.00990580954095
 21
5.425337999999999
 31
0.0
  0
LINE
  5
946
102
{ACAD_REACTORS
330
1BD9
102
}
330
1E
100
AcDbEntity
  8
OBJECT
100
AcDbLine
 10
11.18890580954095
 20
5.496337999999999
 30
0.0
 11
13.85290580954095
 21
5.496337999999999
 31
0.0
  0
LINE
  5
947
102
{ACAD_REACTORS
330
1BD9
102
}
330
1E
100
AcDbEntity
  8
OBJECT
100
AcDbLine
 10
11.56390580954095
 20
5.115337999999999
 30
0.0
 11
14.00990580954095
 21
5.115337999999999
 31
0.0
  0
ARC
  5
948
102
{ACAD_REACTORS
330
1BD9
102
}
330
1E
100
AcDbEntity
  8
OBJECT
100
AcDbCircle
 10
13.95990580954095
 20
5.086587999999998
 30
0.0
 40
0.05
100
AcDbArc
 50
270.0
 51
0.0
  0
LINE
  5
94C
102
{ACAD_REACTORS
330
13F3
330
1BD9
102
}
330
1E
100
AcDbEntity
  8
OBJECT
100
AcDbLine
 10
11.56390580954095
 20
5.115337999999999
 30
0.0
 11
11.56390580954095
 21
5.425337999999999
 31
0.0
  0
LINE
  5
94D
330
1E
100
AcDbEntity
  8
OBJECT
100
AcDbLine
 10
11.24890580954095
 20
5.114587999999999
 30
0.0
 11
11.18890580954095
 21
5.114587999999999
 31
0.0
  0
LINE
  5
94E
102
{ACAD_REACTORS
330
1BD9
102
}
330
1E
100
AcDbEntity
  8
OBJECT
100
AcDbLine
 10
11.28890580954095
 20
5.056587999999999
 30
0.0
 11
11.24890580954095
 21
5.056587999999999
 31
0.0
  0
LINE
  5
94F
102
{ACAD_REACTORS
330
13F3
330
1BD9
102
}
330
1E
100
AcDbEntity
  8
OBJECT
100
AcDbLine
 10
11.24890580954095
 20
5.145337999999998
 30
0.0
 11
11.56390580954095
 21
5.145337999999998
 31
0.0
  0
LINE
  5
950
102
{ACAD_REACTORS
330
13F3
102
}
330
1E
100
AcDbEntity
  8
OBJECT
100
AcDbLine
 10
11.24890580954095
 20
5.207837999999998
 30
0.0
 11
11.56390580954095
 21
5.207837999999998
 31
0.0
  0
LINE
  5
951
102
{ACAD_REACTORS
330
1BD9
102
}
330
1E
100
AcDbEntity
  8
OBJECT
100
AcDbLine
 10
11.18890580954095
 20
5.456364999999999
 30
0.0
 11
11.24890580954095
 21
5.456364999999999
 31
0.0
  0
LINE
  5
952
102
{ACAD_REACTORS
330
13F3
102
}
330
1E
100
AcDbEntity
  8
OBJECT
100
AcDbLine
 10
11.24890580954095
 20
5.332837999999998
 30
0.0
 11
11.56390580954095
 21
5.332837999999998
 31
0.0
  0
LINE
  5
953
102
{ACAD_REACTORS
330
13F3
330
1BD9
102
}
330
1E
100
AcDbEntity
  8
OBJECT
100
AcDbLine
 10
11.24890580954095
 20
5.395337999999998
 30
0.0
 11
11.56390580954095
 21
5.395337999999998
 31
0.0
  0
LINE
  5
954
102
{ACAD_REACTORS
330
1BD9
102
}
330
1E
100
AcDbEntity
  8
OBJECT
100
AcDbLine
 10
11.28890580954095
 20
11.335588
 30
0.0
 11
13.95990580954095
 21
11.335588
 31
0.0
  0
LINE
  5
955
102
{ACAD_REACTORS
330
1BD9
102
}
330
1E
100
AcDbEntity
  8
OBJECT
100
AcDbLine
 10
11.18890580954095
 20
10.87583799999999
 30
0.0
 11
13.85290580954095
 21
10.87583799999999
 31
0.0
  0
LINE
  5
956
102
{ACAD_REACTORS
330
1BD9
102
}
330
1E
100
AcDbEntity
  8
OBJECT
100
AcDbLine
 10
11.24890580954095
 20
10.940838
 30
0.0
 11
13.85290580954095
 21
10.940838
 31
0.0
  0
LINE
  5
959
102
{ACAD_REACTORS
330
1BD9
102
}
330
1E
100
AcDbEntity
  8
OBJECT
100
AcDbLine
 10
13.85290580954095
 20
11.182088
 30
0.0
 11
14.00990580954095
 21
11.182088
 31
0.0
  0
LINE
  5
95A
102
{ACAD_REACTORS
330
1BD9
102
}
330
1E
100
AcDbEntity
  8
OBJECT
100
AcDbLine
 10
13.85290580954095
 20
11.017088
 30
0.0
 11
14.00990580954095
 21
11.017088
 31
0.0
  0
ARC
  5
95B
102
{ACAD_REACTORS
330
1BD9
102
}
330
1E
100
AcDbEntity
  8
OBJECT
100
AcDbCircle
 10
13.95990580954095
 20
11.285588
 30
0.0
 40
0.05
100
AcDbArc
 50
0.0
 51
90.0
  0
LINE
  5
95C
102
{ACAD_REACTORS
330
1BD9
102
}
330
1E
100
AcDbEntity
  8
OBJECT
100
AcDbLine
 10
11.18890580954095
 20
10.91581
 30
0.0
 11
11.24890580954095
 21
10.91581
 31
0.0
  0
LINE
  5
95D
330
1E
100
AcDbEntity
  8
OBJECT
100
AcDbLine
 10
11.18890580954095
 20
11.257588
 30
0.0
 11
11.24890580954095
 21
11.257588
 31
0.0
  0
LINE
  5
95E
102
{ACAD_REACTORS
330
1BD9
102
}
330
1E
100
AcDbEntity
  8
OBJECT
100
AcDbLine
 10
11.24890580954095
 20
11.315588
 30
0.0
 11
11.28890580954095
 21
11.315588
 31
0.0
  0
LINE
  5
95F
102
{ACAD_REACTORS
330
1BD9
102
}
330
1E
100
AcDbEntity
  8
OBJECT
100
AcDbLine
 10
11.28890580954095
 20
5.056587999999999
 30
0.0
 11
11.28890580954095
 21
5.036588
 31
0.0
  0
LINE
  5
960
102
{ACAD_REACTORS
330
1BD9
102
}
330
1E
100
AcDbEntity
  8
OBJECT
100
AcDbLine
 10
11.24890580954095
 20
10.91581
 30
0.0
 11
11.24890580954095
 21
11.315588
 31
0.0
  0
LINE
  5
961
102
{ACAD_REACTORS
330
1BD9
102
}
330
1E
100
AcDbEntity
  8
OBJECT
100
AcDbLine
 10
11.24890580954095
 20
11.270588
 30
0.0
 11
13.85290580954095
 21
11.270588
 31
0.0
  0
LINE
  5
962
102
{ACAD_REACTORS
330
1BD9
102
}
330
1E
100
AcDbEntity
  8
OBJECT
100
AcDbLine
 10
13.85290580954095
 20
10.87583799999999
 30
0.0
 11
13.85290580954095
 21
10.81071259403888
 31
0.0
  0
DIMENSION
  5
965
330
1E
100
AcDbEntity
  8
DIM
100
AcDbDimension
  2
*D28
 10
11.18890580954095
 20
11.771707
 30
0.0
 11
12.59940580954095
 21
11.771707
 31
0.0
 70
    32
 71
     5
 42
2.821000000000001
  3
23NSTD
100
AcDbAlignedDimension
 13
14.00990580954095
 23
11.285588
 33
0.0
 14
11.18890580954095
 24
11.257588
 34
0.0
100
AcDbRotatedDimension
  0
DIMENSION
  5
973
330
1E
100
AcDbEntity
  8
DIM
100
AcDbDimension
  2
*D29
 10
11.56390580954095
 20
4.659748
 30
0.0
 11
12.78690580954095
 21
4.659748
 31
0.0
 70
    32
 71
     5
 42
2.446000000000001
  3
23NSTDI
100
AcDbAlignedDimension
 13
14.00990580954095
 23
5.086587999999999
 33
0.0
 14
11.56390580954095
 24
5.115337999999999
 34
0.0
100
AcDbRotatedDimension
  0
DIMENSION
  5
981
330
1E
100
AcDbEntity
  8
DIM
100
AcDbDimension
  2
*D30
 10
14.00990580954095
 20
8.67867
 30
0.0
 11
15.08451518454095
 21
8.67867
 31
0.0
 70
    32
 71
     5
 42
0.157
  3
23NSTD
100
AcDbAlignedDimension
 13
13.85290580954095
 23
8.532703999999998
 33
0.0
 14
14.00990580954095
 24
8.532703999999998
 34
0.0
100
AcDbRotatedDimension
  0
DIMENSION
  5
98F
330
1E
100
AcDbEntity
  8
DIM
100
AcDbDimension
  2
*D31
 10
14.00990580954095
 20
9.809455999999999
 30
0.0
 11
15.11185893454095
 21
9.809455999999999
 31
0.0
 70
    32
 71
     5
 42
0.3350000000000008
  3
23NSTD
100
AcDbAlignedDimension
 13
13.67490580954095
 23
10.420088
 33
0.0
 14
14.00990580954095
 24
10.420088
 34
0.0
100
AcDbRotatedDimension
  0
DIMENSION
  5
99D
330
1E
100
AcDbEntity
  8
DIM
100
AcDbDimension
  2
*D32
 10
14.79584080954095
 20
5.425337999999999
 30
0.0
 11
14.79584080954095
 21
5.270338000000002
 31
0.0
 70
    32
  1
<> DIA.
 71
     5
 42
0.3100000000000005
  3
23NSTDI
100
AcDbAlignedDimension
 13
14.00990580954095
 23
5.115337999999999
 33
0.0
 14
14.00990580954095
 24
5.425337999999999
 34
0.0
 50
90.0
100
AcDbRotatedDimension
  0
DIMENSION
  5
9AB
330
1E
100
AcDbEntity
  8
DIM
100
AcDbDimension
  2
*D33
 10
14.52463180954095
 20
11.182088
 30
0.0
 11
15.61236618454095
 21
11.812088
 31
0.0
 70
    32
  1
<> DIA.
 71
     5
 42
0.1649999999999991
  3
23NSTD
100
AcDbAlignedDimension
 13
14.00990580954095
 23
11.017088
 33
0.0
 14
14.00990580954095
 24
11.182088
 34
0.0
 50
90.0
100
AcDbRotatedDimension
  0
DIMENSION
  5
9BF
330
1E
100
AcDbEntity
  8
DIM
100
AcDbDimension
  2
*D34
 10
7.343662809540955
 20
10.85271
 30
0.0
 11
7.343662809540953
 21
8.180649000000002
 31
0.0
 70
    32
 71
     5
 42
5.344122
  3
23NSTD
100
AcDbAlignedDimension
 13
7.749404809540955
 23
5.508587999999999
 33
0.0
 14
7.749404809540955
 24
10.85271
 34
0.0
 50
90.0
100
AcDbRotatedDimension
  0
DIMENSION
  5
9CD
330
1E
100
AcDbEntity
  8
DIM
100
AcDbDimension
  2
*D35
 10
7.343662809540955
 20
11.335588
 30
0.0
 11
8.130615934540951
 21
11.965588
 31
0.0
 70
    32
 71
     5
 42
0.4828780000000013
  3
23NSTD
100
AcDbAlignedDimension
 13
7.749404809540955
 23
10.85271
 33
0.0
 14
7.267180809540955
 24
11.335588
 34
0.0
 50
90.0
100
AcDbRotatedDimension
  0
DIMENSION
  5
9DB
330
1E
100
AcDbEntity
  8
DIM
100
AcDbDimension
  2
*D36
 10
6.174404809540956
 20
4.540537999999999
 30
0.0
 11
5.086123559540956
 21
4.540537999999999
 31
0.0
 70
   160
 71
     5
 42
1.574999999999999
  3
23NSTD
100
AcDbAlignedDimension
 13
7.749404809540955
 23
5.508587999999999
 33
0.0
 14
6.174404809540956
 24
5.255338
 34
0.0
100
AcDbRotatedDimension
  0
LINE
  5
9EB
330
1E
100
AcDbEntity
  8
HIDDEN
  6
HIDDEN2
100
AcDbLine
 10
0.7863560090213646
 20
5.351088
 30
0.0
 11
0.6083560090213638
 21
5.351088
 31
0.0
  0
LINE
  5
9EC
330
1E
100
AcDbEntity
  8
HIDDEN
  6
HIDDEN2
100
AcDbLine
 10
0.7863560090213646
 20
5.666087999999998
 30
0.0
 11
0.6083560090213638
 21
5.666087999999998
 31
0.0
  0
LINE
  5
9ED
330
1E
100
AcDbEntity
  8
HIDDEN
  6
HIDDEN2
100
AcDbLine
 10
0.7863560090213646
 20
5.351088
 30
0.0
 11
0.7863560090213646
 21
5.666087999999998
 31
0.0
  0
CIRCLE
  5
9EE
330
1E
100
AcDbEntity
  8
OBJECT
100
AcDbCircle
 10
6.607404809540955
 20
8.186087999999999
 30
0.0
 40
0.1575
  0
CIRCLE
  5
9EF
330
1E
100
AcDbEntity
  8
OBJECT
100
AcDbCircle
 10
8.891404809540954
 20
8.186087999999999
 30
0.0
 40
0.1575
  0
LINE
  5
9F0
330
1E
100
AcDbEntity
  8
HIDDEN
100
AcDbLine
 10
0.7863560090213646
 20
8.343588
 30
0.0
 11
0.6083560090213638
 21
8.343588
 31
0.0
  0
LINE
  5
9F1
330
1E
100
AcDbEntity
  8
HIDDEN
100
AcDbLine
 10
0.7863560090213646
 20
8.028588
 30
0.0
 11
0.6083560090213638
 21
8.028588
 31
0.0
  0
LINE
  5
9F2
330
1E
100
AcDbEntity
  8
HIDDEN
100
AcDbLine
 10
0.7863560090213646
 20
8.141087999999999
 30
0.0
 11
0.5963560090213634
 21
8.141087999999999
 31
0.0
  0
LINE
  5
9F3
330
1E
100
AcDbEntity
  8
HIDDEN
100
AcDbLine
 10
0.7863560090213646
 20
8.231087999999999
 30
0.0
 11
0.5963560090213634
 21
8.231087999999999
 31
0.0
  0
LINE
  5
9F4
330
1E
100
AcDbEntity
  8
HIDDEN
100
AcDbLine
 10
0.5963560090213634
 20
8.141087999999999
 30
0.0
 11
0.5963560090213634
 21
8.231087999999999
 31
0.0
  0
LINE
  5
9F5
330
1E
100
AcDbEntity
  8
HIDDEN
100
AcDbLine
 10
0.7863560090213646
 20
8.028588
 30
0.0
 11
0.7863560090213646
 21
8.343588
 31
0.0
  0
LINE
  5
9F8
330
1E
100
AcDbEntity
  8
OBJECT
100
AcDbLine
 10
13.67490580954095
 20
8.028588
 30
0.0
 11
13.85290580954095
 21
8.028588
 31
0.0
  0
LINE
  5
9F9
330
1E
100
AcDbEntity
  8
OBJECT
100
AcDbLine
 10
13.67490580954095
 20
8.343588
 30
0.0
 11
13.85290580954095
 21
8.343588
 31
0.0
  0
LINE
  5
9FB
330
1E
100
AcDbEntity
  8
OBJECT
100
AcDbLine
 10
13.67490580954095
 20
8.028588
 30
0.0
 11
13.67490580954095
 21
8.343588
 31
0.0
  0
LINE
  5
9FC
102
{ACAD_REACTORS
330
1BD9
102
}
330
1E
100
AcDbEntity
  8
OBJECT
100
AcDbLine
 10
13.85290580954095
 20
10.34446337934177
 30
0.0
 11
13.85290580954095
 21
5.496337999999999
 31
0.0
  0
DIMENSION
  5
9FD
330
1E
100
AcDbEntity
  8
DIM
100
AcDbDimension
  2
*D37
 10
9.854732809540955
 20
8.186087999999999
 30
0.0
 11
9.854732809540953
 21
9.381838000000001
 31
0.0
 70
    32
 71
     5
 42
2.3915
  3
23NSTDI
100
AcDbAlignedDimension
 13
8.891404809540954
 23
10.57758799999999
 33
0.0
 14
8.891404809540954
 24
8.186087999999999
 34
0.0
 50
270.0
100
AcDbRotatedDimension
  0
DIMENSION
  5
A0B
330
1E
100
AcDbEntity
  8
DIM
100
AcDbDimension
  2
*D38
 10
9.854732809540955
 20
5.794588
 30
0.0
 11
9.854732809540953
 21
6.990338
 31
0.0
 70
    32
 71
     5
 42
2.391499999999999
  3
23NSTDI
100
AcDbAlignedDimension
 13
8.891404809540954
 23
8.186087999999999
 33
0.0
 14
8.891404809540954
 24
5.794588
 34
0.0
 50
270.0
100
AcDbRotatedDimension
  0
CIRCLE
  5
A19
330
1E
100
AcDbEntity
  8
OBJECT
100
AcDbCircle
 10
7.749404809540955
 20
10.86358799999999
 30
0.0
 40
0.045
  0
CIRCLE
  5
A1C
330
1E
100
AcDbEntity
  8
OBJECT
100
AcDbCircle
 10
6.607404809540955
 20
8.186087999999999
 30
0.0
 40
0.045
  0
CIRCLE
  5
A1D
330
1E
100
AcDbEntity
  8
OBJECT
100
AcDbCircle
 10
8.891404809540954
 20
8.186087999999999
 30
0.0
 40
0.045
  0
CIRCLE
  5
A1F
330
1E
100
AcDbEntity
  8
OBJECT
100
AcDbCircle
 10
7.749404809540955
 20
5.508587999999999
 30
0.0
 40
0.045
  0
TEXT
  5
A41
330
1E
100
AcDbEntity
  8
TEXT
100
AcDbText
 10
24.37669974160901
 20
12.56831684539409
 30
0.0
 40
0.21875
  1
%%UDETAIL "C"
 41
0.8
  7
SECTION
100
AcDbText
  0
LINE
  5
A42
102
{ACAD_REACTORS
330
14D9
102
}
330
1E
100
AcDbEntity
  8
OBJECT
100
AcDbLine
 10
22.24212236172021
 20
5.036588
 30
0.0
 11
22.7706223617202
 21
5.036588
 31
0.0
  0
ARC
  5
A43
102
{ACAD_REACTORS
330
14D9
102
}
330
1E
100
AcDbEntity
  8
OBJECT
100
AcDbCircle
 10
22.7706223617202
 20
5.099088
 30
0.0
 40
0.0625
100
AcDbArc
 50
270.0
 51
0.0
  0
ARC
  5
A44
102
{ACAD_REACTORS
330
14D9
102
}
330
1E
100
AcDbEntity
  8
OBJECT
100
AcDbCircle
 10
22.7706223617202
 20
11.273088
 30
0.0
 40
0.0625
100
AcDbArc
 50
0.0
 51
90.0
  0
LINE
  5
A45
102
{ACAD_REACTORS
330
14D9
102
}
330
1E
100
AcDbEntity
  8
OBJECT
100
AcDbLine
 10
22.24212236172021
 20
11.335588
 30
0.0
 11
22.7706223617202
 21
11.335588
 31
0.0
  0
LINE
  5
A46
102
{ACAD_REACTORS
330
14D9
102
}
330
1E
100
AcDbEntity
  8
OBJECT
100
AcDbLine
 10
22.83312236172021
 20
11.273088
 30
0.0
 11
22.83312236172021
 21
5.099088
 31
0.0
  0
LINE
  5
A47
102
{ACAD_REACTORS
330
14D9
102
}
330
1E
100
AcDbEntity
  8
OBJECT
100
AcDbLine
 10
22.24212236172021
 20
5.358525
 30
0.0
 11
22.71312236172021
 21
5.358525
 31
0.0
  0
LINE
  5
A48
102
{ACAD_REACTORS
330
14D9
102
}
330
1E
100
AcDbEntity
  8
OBJECT
100
AcDbLine
 10
22.24212236172021
 20
5.18665
 30
0.0
 11
22.71312236172021
 21
5.18665
 31
0.0
  0
DIMENSION
  5
A49
330
1E
100
AcDbEntity
  8
DIM
100
AcDbDimension
  2
*D39
 10
22.83312236172021
 20
7.956825999999999
 30
0.0
 11
23.89405986172021
 21
7.956825999999999
 31
0.0
 70
    32
  1
0.120
 71
     5
 42
0.120000000000001
  3
23NSTD
100
AcDbAlignedDimension
 13
22.71312236172021
 23
8.008307
 33
0.0
 14
22.83312236172021
 24
8.008307
 34
0.0
100
AcDbRotatedDimension
  0
DIMENSION
  5
A57
330
1E
100
AcDbEntity
  8
DIM
100
AcDbDimension
  2
*D40
 10
22.83312236172021
 20
11.608588
 30
0.0
 11
23.90773173672021
 21
11.608588
 31
0.0
 70
    32
 71
     5
 42
0.5910000000000011
  3
23NSTD
100
AcDbAlignedDimension
 13
22.24212236172021
 23
11.335588
 33
0.0
 14
22.83312236172021
 24
11.273088
 34
0.0
 50
180.0
100
AcDbRotatedDimension
  0
LINE
  5
A68
102
{ACAD_REACTORS
330
14D9
102
}
330
1E
100
AcDbEntity
  8
OBJECT
100
AcDbLine
 10
22.71312236172021
 20
5.117587999999999
 30
0.0
 11
22.83312236172021
 21
5.117587999999999
 31
0.0
  0
LINE
  5
A6A
102
{ACAD_REACTORS
330
14D9
102
}
330
1E
100
AcDbEntity
  8
OBJECT
100
AcDbLine
 10
22.71312236172021
 20
5.427588
 30
0.0
 11
22.83312236172021
 21
5.427588
 31
0.0
  0
LINE
  5
A6B
102
{ACAD_REACTORS
330
14D9
102
}
330
1E
100
AcDbEntity
  8
OBJECT
100
AcDbLine
 10
22.71312236172021
 20
11.255588
 30
0.0
 11
22.71312236172021
 21
10.98558799999999
 31
0.0
  0
LINE
  5
A6C
102
{ACAD_REACTORS
330
14D9
102
}
330
1E
100
AcDbEntity
  8
OBJECT
100
AcDbLine
 10
22.71312236172021
 20
10.815588
 30
0.0
 11
22.71312236172021
 21
5.556587999999999
 31
0.0
  0
LINE
  5
A6D
102
{ACAD_REACTORS
330
14D9
102
}
330
1E
100
AcDbEntity
  8
OBJECT
100
AcDbLine
 10
22.24212236172021
 20
5.556587999999999
 30
0.0
 11
22.71312236172021
 21
5.556587999999999
 31
0.0
  0
LINE
  5
A6E
102
{ACAD_REACTORS
330
14D9
102
}
330
1E
100
AcDbEntity
  8
OBJECT
100
AcDbLine
 10
22.24212236172021
 20
10.815588
 30
0.0
 11
22.71312236172021
 21
10.815588
 31
0.0
  0
LINE
  5
A6F
102
{ACAD_REACTORS
330
14D9
102
}
330
1E
100
AcDbEntity
  8
OBJECT
100
AcDbLine
 10
22.24212236172021
 20
10.98558799999999
 30
0.0
 11
22.71312236172021
 21
10.98558799999999
 31
0.0
  0
LINE
  5
A70
102
{ACAD_REACTORS
330
14D9
102
}
330
1E
100
AcDbEntity
  8
OBJECT
100
AcDbLine
 10
22.24212236172021
 20
11.255588
 30
0.0
 11
22.71312236172021
 21
11.255588
 31
0.0
  0
LINE
  5
A71
330
1E
100
AcDbEntity
  8
HIDDEN
100
AcDbLine
 10
20.27793136172021
 20
13.92094
 30
0.0
 11
17.48393136172021
 21
13.92094
 31
0.0
  0
LINE
  5
A72
330
1E
100
AcDbEntity
  8
OBJECT
100
AcDbLine
 10
20.4559313617202
 20
13.44994
 30
0.0
 11
17.30593136172021
 21
13.44994
 31
0.0
  0
LINE
  5
A73
330
1E
100
AcDbEntity
  8
OBJECT
100
AcDbLine
 10
20.39343136172021
 20
14.04093999999999
 30
0.0
 11
17.36843136172021
 21
14.04093999999999
 31
0.0
  0
LINE
  5
A74
330
1E
100
AcDbEntity
  8
HIDDEN
100
AcDbLine
 10
17.62786836172021
 20
13.44994
 30
0.0
 11
17.62786836172021
 21
13.92094
 31
0.0
  0
LINE
  5
A75
330
1E
100
AcDbEntity
  8
HIDDEN
100
AcDbLine
 10
17.45599336172021
 20
13.44994
 30
0.0
 11
17.45599336172021
 21
13.92094
 31
0.0
  0
LINE
  5
A76
330
1E
100
AcDbEntity
  8
OBJECT
100
AcDbLine
 10
17.30593136172021
 20
13.44994
 30
0.0
 11
17.30593136172021
 21
13.97844
 31
0.0
  0
ARC
  5
A7A
330
1E
100
AcDbEntity
  8
OBJECT
100
AcDbCircle
 10
17.36843136172021
 20
13.97844
 30
0.0
 40
0.0625
100
AcDbArc
 50
90.0
 51
180.0
  0
LINE
  5
A7E
330
1E
100
AcDbEntity
  8
HIDDEN
  6
HIDDEN2
100
AcDbLine
 10
17.44393136172021
 20
13.56494
 30
0.0
 11
17.36393136172021
 21
13.56494
 31
0.0
  0
LINE
  5
A7F
330
1E
100
AcDbEntity
  8
HIDDEN
  6
HIDDEN2
100
AcDbLine
 10
17.36393136172021
 20
13.44994
 30
0.0
 11
17.36393136172021
 21
13.56494
 31
0.0
  0
LINE
  5
A80
330
1E
100
AcDbEntity
  8
HIDDEN
100
AcDbLine
 10
17.48393136172021
 20
13.44994
 30
0.0
 11
17.48393136172021
 21
13.92094
 31
0.0
  0
LINE
  5
A81
330
1E
100
AcDbEntity
  8
HIDDEN
100
AcDbLine
 10
18.01118136172021
 20
13.44994
 30
0.0
 11
18.01118136172021
 21
13.92094
 31
0.0
  0
LINE
  5
A82
330
1E
100
AcDbEntity
  8
HIDDEN
100
AcDbLine
 10
18.18118136172021
 20
13.44994
 30
0.0
 11
18.18118136172021
 21
13.92094
 31
0.0
  0
LINE
  5
A83
330
1E
100
AcDbEntity
  8
HIDDEN
  6
HIDDEN2
100
AcDbLine
 10
18.14118136172021
 20
13.44994
 30
0.0
 11
18.14118136172021
 21
13.56494
 31
0.0
  0
LINE
  5
A84
330
1E
100
AcDbEntity
  8
HIDDEN
  6
HIDDEN2
100
AcDbLine
 10
18.06118136172021
 20
13.44994
 30
0.0
 11
18.06118136172021
 21
13.56494
 31
0.0
  0
LINE
  5
A85
330
1E
100
AcDbEntity
  8
HIDDEN
  6
HIDDEN2
100
AcDbLine
 10
17.44393136172021
 20
13.44994
 30
0.0
 11
17.44393136172021
 21
13.56494
 31
0.0
  0
LINE
  5
A86
330
1E
100
AcDbEntity
  8
HIDDEN
  6
HIDDEN2
100
AcDbLine
 10
18.14118136172021
 20
13.56494
 30
0.0
 11
18.06118136172021
 21
13.56494
 31
0.0
  0
LINE
  5
A87
330
1E
100
AcDbEntity
  8
HIDDEN
100
AcDbLine
 10
20.30586836172021
 20
13.44994
 30
0.0
 11
20.30586836172021
 21
13.92094
 31
0.0
  0
LINE
  5
A88
330
1E
100
AcDbEntity
  8
HIDDEN
100
AcDbLine
 10
20.13399336172021
 20
13.44994
 30
0.0
 11
20.13399336172021
 21
13.92094
 31
0.0
  0
LINE
  5
A89
330
1E
100
AcDbEntity
  8
OBJECT
100
AcDbLine
 10
20.4559313617202
 20
13.44994
 30
0.0
 11
20.4559313617202
 21
13.97844
 31
0.0
  0
ARC
  5
A90
330
1E
100
AcDbEntity
  8
OBJECT
100
AcDbCircle
 10
20.39343136172021
 20
13.97844
 30
0.0
 40
0.0625
100
AcDbArc
 50
0.0
 51
90.0
  0
LINE
  5
A91
330
1E
100
AcDbEntity
  8
HIDDEN
  6
HIDDEN2
100
AcDbLine
 10
20.31793136172021
 20
13.44994
 30
0.0
 11
20.31793136172021
 21
13.56494
 31
0.0
  0
LINE
  5
A92
330
1E
100
AcDbEntity
  8
HIDDEN
  6
HIDDEN2
100
AcDbLine
 10
20.39793136172021
 20
13.44994
 30
0.0
 11
20.39793136172021
 21
13.56494
 31
0.0
  0
LINE
  5
A93
330
1E
100
AcDbEntity
  8
HIDDEN
  6
HIDDEN2
100
AcDbLine
 10
20.31793136172021
 20
13.56494
 30
0.0
 11
20.39793136172021
 21
13.56494
 31
0.0
  0
LINE
  5
A94
330
1E
100
AcDbEntity
  8
HIDDEN
100
AcDbLine
 10
17.69420736172021
 20
13.44994
 30
0.0
 11
17.69420736172021
 21
13.92094
 31
0.0
  0
LINE
  5
A95
330
1E
100
AcDbEntity
  8
HIDDEN
100
AcDbLine
 10
19.75068136172021
 20
13.44994
 30
0.0
 11
19.75068136172021
 21
13.92094
 31
0.0
  0
LINE
  5
A96
330
1E
100
AcDbEntity
  8
HIDDEN
100
AcDbLine
 10
19.58068136172021
 20
13.44994
 30
0.0
 11
19.58068136172021
 21
13.92094
 31
0.0
  0
LINE
  5
A97
330
1E
100
AcDbEntity
  8
HIDDEN
  6
HIDDEN2
100
AcDbLine
 10
19.62068136172021
 20
13.44994
 30
0.0
 11
19.62068136172021
 21
13.56494
 31
0.0
  0
LINE
  5
A98
330
1E
100
AcDbEntity
  8
HIDDEN
  6
HIDDEN2
100
AcDbLine
 10
19.70068136172021
 20
13.44994
 30
0.0
 11
19.70068136172021
 21
13.56494
 31
0.0
  0
LINE
  5
A99
330
1E
100
AcDbEntity
  8
HIDDEN
  6
HIDDEN2
100
AcDbLine
 10
19.62068136172021
 20
13.56494
 30
0.0
 11
19.70068136172021
 21
13.56494
 31
0.0
  0
LINE
  5
A9A
330
1E
100
AcDbEntity
  8
HIDDEN
100
AcDbLine
 10
20.06765536172021
 20
13.44994
 30
0.0
 11
20.06765536172021
 21
13.92094
 31
0.0
  0
LINE
  5
A9B
330
1E
100
AcDbEntity
  8
HIDDEN
100
AcDbLine
 10
20.27793136172021
 20
13.44994
 30
0.0
 11
20.27793136172021
 21
13.92094
 31
0.0
  0
DIMENSION
  5
AAC
330
1E
100
AcDbEntity
  8
DIM
100
AcDbDimension
  2
*D41
 10
26.39326516108461
 20
13.10986547003657
 30
0.0
 11
25.33232766108461
 21
13.10986547003657
 31
0.0
 70
    32
 71
     5
 42
0.1199999999999992
  3
23NSTD4
100
AcDbAlignedDimension
 13
26.87326516108461
 23
13.727045
 33
0.0
 14
26.39326516108461
 24
13.801045
 34
0.0
100
AcDbRotatedDimension
  0
DIMENSION
  5
AFB
330
1E
100
AcDbEntity
  8
DIM
100
AcDbDimension
  2
*D42
 10
27.64387016108461
 20
15.033506
 30
0.0
 11
27.6438701610846
 21
14.413506
 31
0.0
 70
    32
  1
<> DIA.\PC'BORE
 71
     5
 42
0.31
  3
23NSTD4I
100
AcDbAlignedDimension
 13
26.86876016108461
 23
13.79350599999999
 33
0.0
 14
26.86876016108461
 24
15.033506
 34
0.0
 50
90.0
100
AcDbRotatedDimension
  0
DIMENSION
  5
B09
330
1E
100
AcDbEntity
  8
DIM
100
AcDbDimension
  2
*D43
 10
23.83948638621874
 20
15.21123
 30
0.0
 11
23.83948638621873
 21
15.37123
 31
0.0
 70
    32
 71
     5
 42
0.0800000000000001
  3
23NSTD4I
100
AcDbAlignedDimension
 13
24.50926516108461
 23
15.53123
 33
0.0
 14
24.50926516108461
 24
15.21123
 34
0.0
 50
90.0
100
AcDbRotatedDimension
  0
DIMENSION
  5
B17
330
1E
100
AcDbEntity
  8
DIM
100
AcDbDimension
  2
*D44
 10
24.96926516108461
 20
16.812698
 30
0.0
 11
26.01653078608461
 21
16.812698
 31
0.0
 70
    32
 71
     5
 42
0.1150000000000002
  3
23NSTD4
100
AcDbAlignedDimension
 13
24.50926516108461
 23
16.47191
 33
0.0
 14
24.96926516108461
 24
15.53123
 34
0.0
100
AcDbRotatedDimension
  0
DIMENSION
  5
B25
330
1E
100
AcDbEntity
  8
DIM
100
AcDbDimension
  2
*D45
 10
23.25808269968931
 20
14.077295
 30
0.0
 11
23.25808269968931
 21
14.421045
 31
0.0
 70
    32
  1
<> DIA.
 71
     5
 42
0.171875
  3
23NSTD4I
100
AcDbAlignedDimension
 13
24.50834516108461
 23
14.764795
 33
0.0
 14
24.50834516108461
 24
14.077295
 34
0.0
 50
90.0
100
AcDbRotatedDimension
  0
LINE
  5
B3A
102
{ACAD_REACTORS
330
14F4
102
}
330
1E
100
AcDbEntity
  8
OBJECT
100
AcDbLine
 10
24.50926516108461
 20
15.697219
 30
0.0
 11
26.39326516108461
 21
15.697219
 31
0.0
  0
LINE
  5
B3B
102
{ACAD_REACTORS
330
14F4
102
}
330
1E
100
AcDbEntity
  8
OBJECT
100
AcDbLine
 10
24.50926516108461
 20
13.477045
 30
0.0
 11
26.62326516108461
 21
13.477045
 31
0.0
  0
LINE
  5
B3C
102
{ACAD_REACTORS
330
14F4
102
}
330
1E
100
AcDbEntity
  8
OBJECT
100
AcDbLine
 10
24.50926516108461
 20
14.764795
 30
0.0
 11
26.39326516108461
 21
14.764795
 31
0.0
  0
LINE
  5
B3D
102
{ACAD_REACTORS
330
14F4
102
}
330
1E
100
AcDbEntity
  8
OBJECT
100
AcDbLine
 10
24.50926516108461
 20
14.077295
 30
0.0
 11
26.39326516108461
 21
14.077295
 31
0.0
  0
LINE
  5
B3E
102
{ACAD_REACTORS
330
144E
330
14F4
102
}
330
1E
100
AcDbEntity
  8
OBJECT
100
AcDbLine
 10
24.50926516108461
 20
13.477045
 30
0.0
 11
24.50926516108461
 21
16.47191
 31
0.0
  0
LINE
  5
B40
102
{ACAD_REACTORS
330
14F4
102
}
330
1E
100
AcDbEntity
  8
OBJECT
100
AcDbLine
 10
26.87326516108461
 20
13.727045
 30
0.0
 11
26.87326516108461
 21
16.397551
 31
0.0
  0
LINE
  5
B45
102
{ACAD_REACTORS
330
14F4
102
}
330
1E
100
AcDbEntity
  8
OBJECT
100
AcDbLine
 10
26.39326516108461
 20
13.801045
 30
0.0
 11
26.87326516108461
 21
13.801045
 31
0.0
  0
ARC
  5
B46
102
{ACAD_REACTORS
330
14F4
102
}
330
1E
100
AcDbEntity
  8
OBJECT
100
AcDbCircle
 10
26.62326516108461
 20
13.727045
 30
0.0
 40
0.25
100
AcDbArc
 50
270.0
 51
0.0
  0
LINE
  5
B47
102
{ACAD_REACTORS
330
14F4
102
}
330
1E
100
AcDbEntity
  8
OBJECT
100
AcDbLine
 10
26.39326516108461
 20
15.041045
 30
0.0
 11
26.87326516108461
 21
15.041045
 31
0.0
  0
LINE
  5
B64
102
{ACAD_REACTORS
330
13E4
330
14D9
102
}
330
1E
100
AcDbEntity
  8
OBJECT
100
AcDbLine
 10
22.24212236172021
 20
11.335588
 30
0.0
 11
22.24212236172021
 21
5.036588
 31
0.0
  0
TEXT
  5
B7C
330
1E
100
AcDbEntity
  8
TEXT
100
AcDbText
 10
15.88969730937176
 20
17.48580391666666
 30
0.0
 40
0.273437
  1
PN-1333, PN-1333-C AND PN-1333-DG
 41
0.75
 72
     4
 11
19.08549224687176
 21
17.599736
 31
0.0
100
AcDbText
  0
LINE
  5
B7D
330
1E
100
AcDbEntity
  8
TITLE
100
AcDbLine
 10
25.44150300826901
 20
1.928498000031002
 30
0.0
 11
25.44150300826901
 21
0.108500000031002
 31
0.0
  0
LINE
  5
B7E
330
1E
100
AcDbEntity
  8
TITLE
100
AcDbLine
 10
21.94150600826901
 20
1.928498000031002
 30
0.0
 11
21.94150600826901
 21
0.108500000031002
 31
0.0
  0
LINE
  5
B7F
330
1E
100
AcDbEntity
  8
TITLE
100
AcDbLine
 10
18.44150800826901
 20
1.928498000031002
 30
0.0
 11
18.44150800826901
 21
0.108500000031002
 31
0.0
  0
LINE
  5
B80
330
1E
100
AcDbEntity
  8
TITLE
100
AcDbLine
 10
14.94151100826901
 20
1.928498000031002
 30
0.0
 11
14.94151100826901
 21
0.108500000031002
 31
0.0
  0
LINE
  5
B81
330
1E
100
AcDbEntity
  8
TITLE
100
AcDbLine
 10
23.69150400826901
 20
0.8364990000310021
 30
0.0
 11
23.69150400826901
 21
0.472499000031002
 31
0.0
  0
LINE
  5
B83
330
1E
100
AcDbEntity
  8
TITLE
100
AcDbLine
 10
14.94151100826901
 20
0.472499000031002
 30
0.0
 11
25.44150300826901
 21
0.472499000031002
 31
0.0
  0
LINE
  5
B84
330
1E
100
AcDbEntity
  8
TITLE
100
AcDbLine
 10
14.94151100826901
 20
0.8364990000310021
 30
0.0
 11
25.44150300826901
 21
0.8364990000310021
 31
0.0
  0
LINE
  5
B85
330
1E
100
AcDbEntity
  8
TITLE
100
AcDbLine
 10
14.94151100826901
 20
1.200499000031002
 30
0.0
 11
28.94150000826902
 21
1.200499000031002
 31
0.0
  0
LINE
  5
B86
330
1E
100
AcDbEntity
  8
TITLE
100
AcDbLine
 10
14.94151100826901
 20
1.928498000031002
 30
0.0
 11
28.94150000826902
 21
1.928498000031002
 31
0.0
  0
TEXT
  5
B87
330
1E
100
AcDbEntity
  8
TEXT
100
AcDbText
 10
15.81651000826902
 20
1.455124000031002
 30
0.0
 40
0.21875
  1
PART NUMBER
 41
0.75
 72
     4
 11
16.69151000826902
 21
1.564499000031002
 31
0.0
100
AcDbText
  0
TEXT
  5
B89
330
1E
100
AcDbEntity
  8
TEXT
100
AcDbText
 10
16.17197875826902
 20
0.9079570000310019
 30
0.0
 40
0.21875
  1
PN-1333
 41
0.75
 72
     4
 11
16.69151000826902
 21
1.017332000031001
 31
0.0
100
AcDbText
  0
TEXT
  5
B8A
330
1E
100
AcDbEntity
  8
TEXT
100
AcDbText
 10
16.00791625826902
 20
0.5433740000310019
 30
0.0
 40
0.21875
  1
PN-1333-C
 41
0.75
 72
     4
 11
16.69151000826902
 21
0.652749000031002
 31
0.0
100
AcDbText
  0
TEXT
  5
B8B
330
1E
100
AcDbEntity
  8
TEXT
100
AcDbText
 10
15.92588500826902
 20
0.178791000031002
 30
0.0
 40
0.21875
  1
PN-1333-DG
 41
0.75
 72
     4
 11
16.69151000826902
 21
0.2881660000310021
 31
0.0
100
AcDbText
  0
TEXT
  5
B8C
330
1E
100
AcDbEntity
  8
TEXT
100
AcDbText
 10
26.23446975826901
 20
1.455124000031002
 30
0.0
 40
0.21875
  1
HARDWARE KIT
 41
0.75
 72
     4
 11
27.19150100826901
 21
1.564499000031002
 31
0.0
100
AcDbText
  0
TEXT
  5
B8E
330
1E
100
AcDbEntity
  8
TEXT
100
AcDbText
 10
19.58994450826901
 20
1.637123000031001
 30
0.0
 40
0.21875
  1
MATERIAL
 41
0.75
 72
     4
 11
20.19150700826901
 21
1.746498000031001
 31
0.0
100
AcDbText
  0
TEXT
  5
B8F
330
1E
100
AcDbEntity
  8
TEXT
100
AcDbText
 10
23.28134775826901
 20
1.637123000031001
 30
0.0
 40
0.21875
  1
FINISH
 41
0.75
 72
     4
 11
23.69150400826901
 21
1.746498000031001
 31
0.0
100
AcDbText
  0
TEXT
  5
B90
330
1E
100
AcDbEntity
  8
TEXT
100
AcDbText
 10
22.51572375826901
 20
1.273124000031002
 30
0.0
 40
0.21875
  1
BODY
 41
0.75
 72
     4
 11
22.81650500826901
 21
1.382499000031002
 31
0.0
100
AcDbText
  0
TEXT
  5
B91
330
1E
100
AcDbEntity
  8
TEXT
100
AcDbText
 10
19.15244450826901
 20
0.9085410000310019
 30
0.0
 40
0.21875
  1
POLYCARBONATE
 41
0.75
 72
     4
 11
20.19150700826901
 21
1.017916000031001
 31
0.0
100
AcDbText
  0
TEXT
  5
B92
330
1E
100
AcDbEntity
  8
TEXT
100
AcDbText
 10
19.15244450826901
 20
0.5439580000310022
 30
0.0
 40
0.21875
  1
POLYCARBONATE
 41
0.75
 72
     4
 11
20.19150700826901
 21
0.6533330000310022
 31
0.0
100
AcDbText
  0
TEXT
  5
B93
330
1E
100
AcDbEntity
  8
TEXT
100
AcDbText
 10
19.04306950826901
 20
0.1793750000310023
 30
0.0
 40
0.21875
  1
HIGH-IMPACT ABS
 41
0.75
 72
     4
 11
20.19150700826901
 21
0.2887500000310022
 31
0.0
100
AcDbText
  0
TEXT
  5
B94
330
1E
100
AcDbEntity
  8
TEXT
100
AcDbText
 10
24.15634675826901
 20
1.273124000031002
 30
0.0
 40
0.21875
  1
COVER
 41
0.75
 72
     4
 11
24.56650300826901
 21
1.382499000031002
 31
0.0
100
AcDbText
  0
TEXT
  5
B95
330
1E
100
AcDbEntity
  8
TEXT
100
AcDbText
 10
20.65634975826901
 20
1.273124000031002
 30
0.0
 40
0.21875
  1
COVER
 41
0.75
 72
     4
 11
21.06650600826901
 21
1.382499000031002
 31
0.0
100
AcDbText
  0
TEXT
  5
B96
330
1E
100
AcDbEntity
  8
TEXT
100
AcDbText
 10
19.01572675826901
 20
1.273124000031002
 30
0.0
 40
0.21875
  1
BODY
 41
0.75
 72
     4
 11
19.31650800826901
 21
1.382499000031002
 31
0.0
100
AcDbText
  0
TEXT
  5
B97
330
1E
100
AcDbEntity
  8
TEXT
100
AcDbText
 10
22.92587900826901
 20
0.9085410000310019
 30
0.0
 40
0.21875
  1
LIGHT GRAY
 41
0.75
 72
     4
 11
23.69150400826901
 21
1.017916000031001
 31
0.0
100
AcDbText
  0
TEXT
  5
B98
330
1E
100
AcDbEntity
  8
TEXT
100
AcDbText
 10
22.05088000826901
 20
0.5439580000310023
 30
0.0
 40
0.21875
  1
LIGHT GRAY
 41
0.75
 72
     4
 11
22.81650500826901
 21
0.6533330000310022
 31
0.0
100
AcDbText
  0
TEXT
  5
B99
330
1E
100
AcDbEntity
  8
TEXT
100
AcDbText
 10
22.98056650826902
 20
0.1793750000310023
 30
0.0
 40
0.21875
  1
DARK GRAY
 41
0.75
 72
     4
 11
23.69150400826901
 21
0.2887500000310022
 31
0.0
100
AcDbText
  0
TEXT
  5
B9A
330
1E
100
AcDbEntity
  8
TEXT
100
AcDbText
 10
24.18369050826902
 20
0.5439580000310022
 30
0.0
 40
0.21875
  1
CLEAR
 41
0.75
 72
     4
 11
24.56650300826901
 21
0.6533330000310022
 31
0.0
100
AcDbText
  0
LINE
  5
B9B
330
1E
100
AcDbEntity
  8
TITLE
100
AcDbLine
 10
23.69150400826901
 20
1.564499000031002
 30
0.0
 11
23.69150400826901
 21
1.200499000031002
 31
0.0
  0
LINE
  5
B9C
330
1E
100
AcDbEntity
  8
TITLE
100
AcDbLine
 10
18.44150800826901
 20
1.564499000031002
 30
0.0
 11
25.44150300826901
 21
1.564499000031002
 31
0.0
  0
LINE
  5
B9D
330
1E
100
AcDbEntity
  8
TITLE
100
AcDbLine
 10
20.19150700826901
 20
1.564499000031002
 30
0.0
 11
20.19150700826901
 21
1.200499000031002
 31
0.0
  0
TEXT
  5
B9E
330
1E
100
AcDbEntity
  8
TEXT
100
AcDbText
 10
26.01571975826901
 20
0.9085410000310019
 30
0.0
 40
0.21875
  1
KIT CONTAINS (4)
 41
0.75
 72
     4
 11
27.19150100826901
 21
1.017916000031001
 31
0.0
100
AcDbText
  0
TEXT
  5
B9F
330
1E
100
AcDbEntity
  8
TEXT
100
AcDbText
 10
25.63290725826901
 20
0.5439580000310022
 30
0.0
 40
0.21875
  1
M4 x 20mm (0.787") LG.
 41
0.75
 72
     4
 11
27.19150100826901
 21
0.6533330000310022
 31
0.0
100
AcDbText
  0
TEXT
  5
BA0
330
1E
100
AcDbEntity
  8
TEXT
100
AcDbText
 10
25.63290725826901
 20
0.1793750000310023
 30
0.0
 40
0.21875
  1
SCREWS FOR ASSEMBLY
 41
0.75
 72
     4
 11
27.19150100826901
 21
0.2887500000310022
 31
0.0
100
AcDbText
  0
TEXT
  5
BA1
330
1E
100
AcDbEntity
  8
TEXT
100
AcDbText
 10
14.94151100826901
 20
2.108748000031002
 30
0.0
 40
0.21875
  1
%%UNOTE%%U:  ALL DIMENSIONS HAVE %%P0.015 TOLERANCE UNLESS OTHERWISE SPECIFIED.
 41
0.75
100
AcDbText
  0
LWPOLYLINE
  5
BA3
102
{ACAD_REACTORS
330
144E
330
14F4
102
}
330
1E
100
AcDbEntity
  8
OBJECT
100
AcDbPolyline
 90
        3
 70
     0
 43
0.0
 10
24.96926516108461
 20
15.53123
 10
24.96926516108461
 20
15.21123
 10
24.50926516108461
 20
15.21123
  0
LWPOLYLINE
  5
BA8
102
{ACAD_REACTORS
330
144E
330
14F4
102
}
330
1E
100
AcDbEntity
  8
OBJECT
100
AcDbPolyline
 90
        2
 70
     0
 43
0.0
 10
24.50926516108461
 20
15.53123
 10
24.96926516108461
 20
15.53123
  0
LWPOLYLINE
  5
BB2
102
{ACAD_REACTORS
330
14D9
102
}
330
1E
100
AcDbEntity
  8
OBJECT
100
AcDbPolyline
 90
        3
 70
     0
 43
0.0
 10
22.35712236172021
 20
10.939909
 10
22.35712236172021
 20
10.859909
 10
22.24212236172021
 20
10.859909
  0
LWPOLYLINE
  5
BB7
102
{ACAD_REACTORS
330
14D9
102
}
330
1E
100
AcDbEntity
  8
OBJECT
100
AcDbPolyline
 90
        2
 70
     0
 43
0.0
 10
22.24212236172021
 20
10.939909
 10
22.35712236172021
 20
10.939909
  0
LWPOLYLINE
  5
BBB
102
{ACAD_REACTORS
330
13E4
330
14D9
102
}
330
1E
100
AcDbEntity
  8
OBJECT
100
AcDbPolyline
 90
        3
 70
     0
 43
0.0
 10
22.35712236172021
 20
5.520908999999999
 10
22.35712236172021
 20
5.440908999999999
 10
22.24212236172021
 20
5.440908999999999
  0
LWPOLYLINE
  5
BC0
102
{ACAD_REACTORS
330
13E4
330
14D9
102
}
330
1E
100
AcDbEntity
  8
OBJECT
100
AcDbPolyline
 90
        2
 70
     0
 43
0.0
 10
22.24212236172021
 20
5.520908999999999
 10
22.35712236172021
 20
5.520908999999999
  0
LWPOLYLINE
  5
BC4
102
{ACAD_REACTORS
330
13DF
102
}
330
1E
100
AcDbEntity
  8
OBJECT
100
AcDbPolyline
 90
       24
 70
     1
 43
0.0
 10
17.36418136172021
 20
10.777588
 10
17.36418136172021
 20
5.594587999999999
 42
0.4142140000000001
 10
17.52218136172021
 20
5.436587999999999
 10
17.90524336172021
 20
5.436587999999999
 42
-0.4142140000000001
 10
18.06118136172021
 20
5.280649999999999
 10
18.06118136172021
 20
5.252587999999999
 42
0.4142140000000001
 10
18.21918136172021
 20
5.094587999999999
 10
19.54268136172021
 20
5.094587999999999
 42
0.4142140000000001
 10
19.70068136172021
 20
5.252587999999999
 10
19.70068136172021
 20
5.280649999999999
 42
-0.4142140000000001
 10
19.85661836172021
 20
5.436587999999999
 10
20.23993136172021
 20
5.436587999999999
 42
0.4142140000000001
 10
20.39793136172021
 20
5.594587999999999
 10
20.39793136172021
 20
10.777588
 42
0.4142140000000001
 10
20.23993136172021
 20
10.935588
 10
19.85661836172021
 20
10.935588
 42
-0.4142140000000001
 10
19.70068136172021
 20
11.091525
 10
19.70068136172021
 20
11.119588
 42
0.4142140000000001
 10
19.54268136172021
 20
11.277588
 10
18.21918136172021
 20
11.277588
 42
0.4142140000000001
 10
18.06118136172021
 20
11.119588
 10
18.06118136172021
 20
11.091525
 42
-0.4142140000000001
 10
17.90524336172021
 20
10.935588
 10
17.52218136172021
 20
10.935588
 42
0.4142140000000001
  0
LWPOLYLINE
  5
BDE
102
{ACAD_REACTORS
330
13DF
102
}
330
1E
100
AcDbEntity
  8
OBJECT
100
AcDbPolyline
 90
       24
 70
     1
 43
0.0
 10
20.31793136172021
 20
10.777588
 10
20.31793136172021
 20
5.594587999999999
 42
-0.4142140000000001
 10
20.23993136172021
 20
5.516587999999999
 10
19.85661836172021
 20
5.516587999999999
 42
0.4142140000000001
 10
19.62068136172021
 20
5.280649999999999
 10
19.62068136172021
 20
5.252587999999999
 42
-0.4142140000000001
 10
19.54268136172021
 20
5.174587999999999
 10
18.21918136172021
 20
5.174587999999999
 42
-0.4142140000000001
 10
18.14118136172021
 20
5.252587999999999
 10
18.14118136172021
 20
5.280649999999999
 42
0.4142140000000001
 10
17.90524336172021
 20
5.516587999999999
 10
17.52218136172021
 20
5.516587999999999
 42
-0.4142140000000001
 10
17.44418136172021
 20
5.594587999999999
 10
17.44418136172021
 20
10.777588
 42
-0.4142140000000001
 10
17.52218136172021
 20
10.855588
 10
17.90524336172021
 20
10.855588
 42
0.4142140000000001
 10
18.14118136172021
 20
11.091525
 10
18.14118136172021
 20
11.119588
 42
-0.4142140000000001
 10
18.21918136172021
 20
11.197588
 10
19.54268136172021
 20
11.197588
 42
-0.4142140000000001
 10
19.62068136172021
 20
11.119588
 10
19.62068136172021
 20
11.091525
 42
0.4142140000000001
 10
19.85661836172021
 20
10.855588
 10
20.23993136172021
 20
10.855588
 42
-0.4142140000000001
  0
TEXT
  5
BFA
330
1E
100
AcDbEntity
  8
TEXT
100
AcDbText
 10
0.4686510000000001
 20
16.25916
 30
0.0
 40
0.21875
  1
 %%UPOLYCARBONATE%%U (LIGHT GRAY AND CLEAR)
 41
0.75
100
AcDbText
  0
TEXT
  5
BFB
330
1E
100
AcDbEntity
  8
TEXT
100
AcDbText
 10
0.4686510000000001
 20
14.79966099999999
 30
0.0
 40
0.21875
  1
 %%UABS%%U (DARK GRAY)
 41
0.75
100
AcDbText
  0
TEXT
  5
BFC
330
1E
100
AcDbEntity
  8
TEXT
100
AcDbText
 10
0.4686510000000001
 20
14.069912
 30
0.0
 40
0.21875
  1
  SERVICE TEMPERATURE RANGE:  -40%%DC TO +80%%DC
 41
0.75
100
AcDbText
  0
TEXT
  5
BFD
330
1E
100
AcDbEntity
  8
TEXT
100
AcDbText
 10
0.4686510000000001
 20
14.435078
 30
0.0
 40
0.21875
  1
  UL94-HB FLAMMABILITY RATING (UL FILE #E56070)
 41
0.75
100
AcDbText
  0
TEXT
  5
BFE
330
1E
100
AcDbEntity
  8
TEXT
100
AcDbText
 10
0.4686510000000001
 20
16.623743
 30
0.0
 40
0.273437
  1
INDUSTRY STANDARDS:
 41
0.75
100
AcDbText
  0
TEXT
  5
BFF
330
1E
100
AcDbEntity
  8
TEXT
100
AcDbText
 10
0.4686510000000001
 20
15.164828
 30
0.0
 40
0.21875
  1
  SERVICE TEMPERATURE RANGE:  -40%%DC TO +120%%DC
 41
0.75
100
AcDbText
  0
TEXT
  5
C00
330
1E
100
AcDbEntity
  8
TEXT
100
AcDbText
 10
0.4686510000000001
 20
15.52941099999999
 30
0.0
 40
0.21875
  1
  UV STABILIZED
 41
0.75
100
AcDbText
  0
TEXT
  5
C01
330
1E
100
AcDbEntity
  8
TEXT
100
AcDbText
 10
0.4686510000000001
 20
15.89457699999999
 30
0.0
 40
0.21875
  1
  UL94-HB FLAMMABILITY RATING (UL FILE #E41613)
 41
0.75
100
AcDbText
  0
TEXT
  5
11C7
330
1E
100
AcDbEntity
  8
TEXT
100
AcDbText
 10
5.12651562646473
 20
17.46303125498944
 30
0.0
 40
0.273437500078125
  1
NEMA 4X ENCLOSURE
 41
0.75
 72
     4
 11
6.83550000195301
 21
17.5997500050285
 31
0.0
100
AcDbText
  0
TEXT
  5
11C9
330
1E
100
AcDbEntity
  8
TEXT
100
AcDbText
 10
26.76473834281584
 20
17.46303125498945
 30
0.0
 40
0.273437500078125
  1
11-17-08
 41
0.75
 72
     4
 11
27.43124224925627
 21
17.59975000502851
 31
0.0
100
AcDbText
  0
SPLINE
  5
13A9
102
{ACAD_REACTORS
330
14F4
102
}
330
1E
100
AcDbEntity
  8
OBJECT
100
AcDbSpline
210
0.0
220
0.0
230
1.0
 70
     8
 71
     3
 72
    13
 73
     9
 74
     7
 42
0.0000000001
 43
0.0000000001
 44
0.0000000001
 40
0.0
 40
0.0
 40
0.0
 40
0.0
 40
0.3613731286707795
 40
0.7739084165062059
 40
1.30729722858864
 40
1.799201267448198
 40
2.23836902309925
 40
2.517402006587253
 40
2.517402006587253
 40
2.517402006587253
 40
2.517402006587253
 10
24.50926516108461
 20
16.47191
 30
0.0
 10
24.62648955374946
 20
16.53139985631863
 30
0.0
 10
24.87753462850877
 20
16.65880197022532
 30
0.0
 10
25.26408204691759
 20
16.27759662827686
 30
0.0
 10
25.75189692640192
 20
16.65913568221565
 30
0.0
 10
26.21657351016096
 20
16.22535353635392
 30
0.0
 10
26.59856229586517
 20
16.6563972103489
 30
0.0
 10
26.79640137447603
 20
16.46997798346376
 30
0.0
 10
26.87326516108461
 20
16.397551
 30
0.0
 11
24.50926516108461
 21
16.47191
 31
0.0
 11
24.85609518403686
 21
16.57339632077403
 31
0.0
 11
25.23618958326828
 21
16.41304167823955
 31
0.0
 11
25.75987524710028
 21
16.51431828141891
 31
0.0
 11
26.23288159488389
 21
16.37928281051309
 31
0.0
 11
26.63831565213951
 21
16.548077190813
 31
0.0
 11
26.87326516108461
 21
16.397551
 31
0.0
  0
LINE
  5
13C8
102
{ACAD_REACTORS
330
14F4
102
}
330
1E
100
AcDbEntity
  8
OBJECT
100
AcDbLine
 10
26.39326516108461
 20
13.801045
 30
0.0
 11
26.39326516108461
 21
15.041045
 31
0.0
  0
HATCH
  5
13DF
330
1E
100
AcDbEntity
  8
OBJECT
 62
   221
100
AcDbHatch
 10
0.0
 20
0.0
 30
0.0
210
0.0
220
0.0
230
1.0
  2
ZIGZAG
 70
     0
 71
     1
 91
        2
 92
        1
 93
       24
 72
     1
 10
17.36418136172021
 20
10.777588
 11
17.36418136172021
 21
5.594587999999999
 72
     2
 10
17.52218124368233
 20
5.594587881962119
 40
0.1579998819621672
 50
179.9999571957126
 51
270.0000428042853
 73
     1
 72
     1
 10
17.52218136172021
 20
5.436587999999999
 11
17.90524336172021
 21
5.436587999999999
 72
     2
 10
17.90524347821762
 20
5.28065011649741
 40
0.1559378835026326
 50
269.9999571957127
 51
360.0000428042872
 73
     0
 72
     1
 10
18.06118136172021
 20
5.280649999999999
 11
18.06118136172021
 21
5.252587999999999
 72
     2
 10
18.21918124368233
 20
5.252587881962121
 40
0.1579998819621672
 50
179.9999571957133
 51
270.0000428042867
 73
     1
 72
     1
 10
18.21918136172021
 20
5.094587999999999
 11
19.54268136172021
 21
5.094587999999999
 72
     2
 10
19.54268147975809
 20
5.252587881962121
 40
0.1579998819621654
 50
269.9999571957133
 51
360.0000428042867
 73
     1
 72
     1
 10
19.70068136172021
 20
5.252587999999999
 11
19.70068136172021
 21
5.280649999999999
 72
     2
 10
19.8566187452228
 20
5.280650616496663
 40
0.1559373835038046
 50
179.9997734817905
 51
269.9998590903654
 73
     0
 72
     1
 10
19.85661836172021
 20
5.436587999999999
 11
20.23993136172021
 21
5.436587999999999
 72
     2
 10
20.23993147975808
 20
5.594587881962119
 40
0.1579998819621645
 50
269.9999571957146
 51
360.0000428042872
 73
     1
 72
     1
 10
20.39793136172021
 20
5.594587999999999
 11
20.39793136172021
 21
10.777588
 72
     2
 10
20.23993147975808
 20
10.77758811803787
 40
0.1579998819621672
 50
359.9999571957127
 51
450.0000428042853
 73
     1
 72
     1
 10
20.23993136172021
 20
10.935588
 11
19.85661836172021
 21
10.935588
 72
     2
 10
19.85661824522354
 20
11.09152488350333
 40
0.1559368835033785
 50
89.99995719571236
 51
180.0000428042876
 73
     0
 72
     1
 10
19.70068136172021
 20
11.091525
 11
19.70068136172021
 21
11.119588
 72
     2
 10
19.54268147975809
 20
11.11958811803787
 40
0.1579998819621672
 50
359.9999571957133
 51
450.0000428042866
 73
     1
 72
     1
 10
19.54268136172021
 20
11.277588
 11
18.21918136172021
 21
11.277588
 72
     2
 10
18.21918124368233
 20
11.11958811803787
 40
0.1579998819621654
 50
89.99995719571334
 51
180.0000428042866
 73
     1
 72
     1
 10
18.06118136172021
 20
11.119588
 11
18.06118136172021
 21
11.091525
 72
     2
 10
17.90524397821687
 20
11.09152538350259
 40
0.1559373835038071
 50
0.0001409096351722
 51
90.00022651820948
 73
     0
 72
     1
 10
17.90524336172021
 20
10.935588
 11
17.52218136172021
 21
10.935588
 72
     2
 10
17.52218124368233
 20
10.77758811803787
 40
0.1579998819621654
 50
89.99995719571463
 51
180.0000428042873
 73
     1
 97
        1
330
BC4
 92
       16
 93
       24
 72
     1
 10
20.31793136172021
 20
10.777588
 11
20.31793136172021
 21
5.594587999999999
 72
     2
 10
20.23993141999207
 20
5.594587941728135
 40
0.0779999417281592
 50
359.9999571957127
 51
450.0000428042852
 73
     0
 72
     1
 10
20.23993136172021
 20
5.516587999999999
 11
19.85661836172021
 21
5.516587999999999
 72
     2
 10
19.85661868545678
 20
5.280650676262677
 40
0.2359373237375442
 50
90.00007861723252
 51
180.0001642258065
 73
     1
 72
     1
 10
19.62068136172021
 20
5.280649999999999
 11
19.62068136172021
 21
5.252587999999999
 72
     2
 10
19.54268141999207
 20
5.252587941728135
 40
0.0779999417281556
 50
359.9999571957134
 51
450.0000428042879
 73
     0
 72
     1
 10
19.54268136172021
 20
5.174587999999999
 11
18.21918136172021
 21
5.174587999999999
 72
     2
 10
18.21918130344834
 20
5.252587941728137
 40
0.0779999417281592
 50
89.99995719571211
 51
180.0000428042852
 73
     0
 72
     1
 10
18.14118136172021
 20
5.252587999999999
 11
18.14118136172021
 21
5.280649999999999
 72
     2
 10
17.90524353798363
 20
5.280650176263425
 40
0.2359378237366397
 50
359.9999571957126
 51
450.0000428042866
 73
     1
 72
     1
 10
17.90524336172021
 20
5.516587999999999
 11
17.52218136172021
 21
5.516587999999999
 72
     2
 10
17.52218130344834
 20
5.594587941728135
 40
0.0779999417281574
 50
89.99995719571476
 51
180.0000428042872
 73
     0
 72
     1
 10
17.44418136172021
 20
5.594587999999999
 11
17.44418136172021
 21
10.777588
 72
     2
 10
17.52218130344834
 20
10.77758805827186
 40
0.0779999417281592
 50
179.9999571957121
 51
270.0000428042852
 73
     0
 72
     1
 10
17.52218136172021
 20
10.855588
 11
17.90524336172021
 21
10.855588
 72
     2
 10
17.90524403798289
 20
11.09152532373657
 40
0.2359373237375443
 50
269.9998357741939
 51
359.9999213827674
 73
     1
 72
     1
 10
18.14118136172021
 20
11.091525
 11
18.14118136172021
 21
11.119588
 72
     2
 10
18.21918130344834
 20
11.11958805827186
 40
0.0779999417281592
 50
179.9999571957147
 51
270.0000428042879
 73
     0
 72
     1
 10
18.21918136172021
 20
11.197588
 11
19.54268136172021
 21
11.197588
 72
     2
 10
19.54268141999207
 20
11.11958805827186
 40
0.0779999417281556
 50
269.9999571957121
 51
360.0000428042879
 73
     0
 72
     1
 10
19.62068136172021
 20
11.119588
 11
19.62068136172021
 21
11.091525
 72
     2
 10
19.85661818545753
 20
11.09152482373732
 40
0.2359368237373883
 50
179.999957195713
 51
270.0000428042869
 73
     1
 72
     1
 10
19.85661836172021
 20
10.855588
 11
20.23993136172021
 21
10.855588
 72
     2
 10
20.23993141999207
 20
10.77758805827186
 40
0.0779999417281574
 50
269.9999571957147
 51
360.0000428042879
 73
     0
 97
        1
330
BDE
 75
     0
 76
     1
 52
0.0
 41
0.375
 77
     0
 78
     2
 53
0.0
 43
1.132486361720211
 44
0.0
 45
0.046875
 46
0.046875
 79
     2
 49
0.046875
 49
-0.046875
 53
90.0
 43
1.179361361720211
 44
0.0
 45
-0.046875
 46
0.046875
 79
     2
 49
0.046875
 49
-0.046875
 98
        1
 10
1.132486361720211
 20
0.0
  0
HATCH
  5
13E4
330
1E
100
AcDbEntity
  8
OBJECT
 62
   221
100
AcDbHatch
 10
0.0
 20
0.0
 30
0.0
210
0.0
220
0.0
230
1.0
  2
ZIGZAG
 70
     0
 71
     1
 91
        1
 92
        7
 72
     0
 73
     1
 93
        4
 10
22.3571223617202
 20
5.440908999999999
 10
22.3571223617202
 20
5.520908999999999
 10
22.24212236172021
 20
5.520908999999999
 10
22.24212236172021
 20
5.440908999999998
 97
        3
330
BC0
330
B64
330
BBB
 75
     0
 76
     1
 52
0.0
 41
0.25
 77
     0
 78
     2
 53
0.0
 43
1.132486361720211
 44
0.0
 45
0.03125
 46
0.03125
 79
     2
 49
0.03125
 49
-0.03125
 53
90.0
 43
1.163736361720211
 44
0.0
 45
-0.03125
 46
0.03125
 79
     2
 49
0.03125
 49
-0.03125
 47
0.0016230228661219
 98
        1
 10
22.30705324777105
 20
5.479764516656565
  0
HATCH
  5
13E5
330
1E
100
AcDbEntity
  8
OBJECT
 62
   221
100
AcDbHatch
 10
0.0
 20
0.0
 30
0.0
210
0.0
220
0.0
230
1.0
  2
ZIGZAG
 70
     0
 71
     0
 91
        1
 92
        7
 72
     0
 73
     1
 93
        4
 10
22.35712236172021
 20
10.859909
 10
22.35712236172021
 20
10.939909
 10
22.24212236172021
 20
10.939909
 10
22.24212236172021
 20
10.85990899999999
 97
        0
 75
     0
 76
     1
 52
0.0
 41
0.25
 77
     0
 78
     2
 53
0.0
 43
1.132486361720211
 44
5.419
 45
0.03125
 46
0.03125
 79
     2
 49
0.03125
 49
-0.03125
 53
90.0
 43
1.163736361720211
 44
5.419
 45
-0.03125
 46
0.03125
 79
     2
 49
0.03125
 49
-0.03125
 47
0.0016230228661219
 98
        1
 10
22.30705324777105
 20
10.89876451665656
  0
LINE
  5
13E6
102
{ACAD_REACTORS
330
14D9
102
}
330
1E
100
AcDbEntity
  8
OBJECT
100
AcDbLine
 10
22.71312236172021
 20
5.427588
 30
0.0
 11
22.71312236172021
 21
5.117587999999999
 31
0.0
  0
LINE
  5
13E8
102
{ACAD_REACTORS
330
14F4
102
}
330
1E
100
AcDbEntity
  8
OBJECT
100
AcDbLine
 10
26.39326516108461
 20
15.697219
 30
0.0
 11
26.39326516108461
 21
16.44718415736172
 31
0.0
  0
HATCH
  5
13F3
330
1E
100
AcDbEntity
  8
OBJECT
 62
   221
100
AcDbHatch
 10
0.0
 20
0.0
 30
0.0
210
0.0
220
0.0
230
1.0
  2
ANSI32
 70
     0
 71
     1
 91
        2
 92
        7
 72
     0
 73
     1
 93
        4
 10
11.56390580954095
 20
5.332837999999999
 10
11.56390580954095
 20
5.395337999999999
 10
11.24890580954095
 20
5.395337999999998
 10
11.24890580954095
 20
5.332837999999998
 97
        4
330
953
330
941
330
952
330
94C
 92
        7
 72
     0
 73
     1
 93
        4
 10
11.24890580954095
 20
5.207837999999998
 10
11.24890580954095
 20
5.145337999999998
 10
11.56390580954095
 20
5.145337999999998
 10
11.56390580954095
 20
5.207837999999997
 97
        4
330
950
330
941
330
94F
330
94C
 75
     0
 76
     1
 52
89.99998127603165
 41
0.25
 77
     0
 78
     2
 53
134.9999812760316
 43
0.1572898095409556
 44
0.0
 45
-0.066291282399881
 46
-0.0662912390725896
 79
     0
 53
134.9999812760316
 43
0.1572898239833861
 44
0.0441941737499977
 45
-0.066291282399881
 46
-0.0662912390725896
 79
     0
 47
0.0012443174948349
 98
        2
 10
11.37530540153521
 20
5.353899092151692
 10
11.36534277342826
 20
5.180938948392885
  0
HATCH
  5
1417
330
1E
100
AcDbEntity
  8
OBJECT
 62
   221
100
AcDbHatch
 10
0.0
 20
0.0
 30
0.0
210
0.0
220
0.0
230
1.0
  2
ANSI32
 70
     0
 71
     0
 91
        2
 92
        7
 72
     0
 73
     1
 93
        4
 10
13.89290580954095
 20
10.640088
 10
13.89290580954095
 20
10.671338
 10
13.67490580954095
 20
10.671338
 10
13.67490580954095
 20
10.640088
 97
        0
 92
        7
 72
     0
 73
     1
 93
        4
 10
13.89290580954095
 20
10.483838
 10
13.89290580954095
 20
10.515088
 10
13.67490580954095
 20
10.515088
 10
13.67490580954095
 20
10.483838
 97
        0
 75
     0
 76
     1
 52
89.99998127603165
 41
0.25
 77
     0
 78
     2
 53
134.9999812760316
 43
2.975698809540955
 44
0.0007030000000015
 45
-0.066291282399881
 46
-0.0662912390725896
 79
     0
 53
134.9999812760316
 43
2.975698823983385
 44
0.0448971737499999
 45
-0.066291282399881
 46
-0.0662912390725896
 79
     0
 47
0.0016770723866105
 98
        2
 10
13.77604446151815
 20
10.65306794639558
 10
13.76429547253046
 20
10.49039193155395
  0
LINE
  5
1418
102
{ACAD_REACTORS
330
1BD9
102
}
330
1E
100
AcDbEntity
  8
OBJECT
100
AcDbLine
 10
13.67490580954095
 20
10.483838
 30
0.0
 11
13.89290580954095
 21
10.483838
 31
0.0
  0
LINE
  5
1419
102
{ACAD_REACTORS
330
1BD9
102
}
330
1E
100
AcDbEntity
  8
OBJECT
100
AcDbLine
 10
13.67490580954095
 20
10.671338
 30
0.0
 11
13.89290580954095
 21
10.671338
 31
0.0
  0
LINE
  5
141A
330
1E
100
AcDbEntity
  8
OBJECT
100
AcDbLine
 10
13.67490580954095
 20
10.515088
 30
0.0
 11
13.89290580954095
 21
10.515088
 31
0.0
  0
LINE
  5
141B
330
1E
100
AcDbEntity
  8
OBJECT
100
AcDbLine
 10
13.67490580954095
 20
10.640088
 30
0.0
 11
13.89290580954095
 21
10.640088
 31
0.0
  0
LINE
  5
141C
102
{ACAD_REACTORS
330
1BD9
102
}
330
1E
100
AcDbEntity
  8
OBJECT
100
AcDbLine
 10
13.89290580954095
 20
10.671338
 30
0.0
 11
13.89290580954095
 21
10.483838
 31
0.0
  0
LINE
  5
1425
102
{ACAD_REACTORS
330
1BD9
102
}
330
1E
100
AcDbEntity
  8
HIDDEN
100
AcDbLine
 10
13.67490580954095
 20
5.700838000000002
 30
0.0
 11
13.89290580954095
 21
5.700838000000002
 31
0.0
  0
LINE
  5
1426
102
{ACAD_REACTORS
330
1BD9
102
}
330
1E
100
AcDbEntity
  8
HIDDEN
100
AcDbLine
 10
13.67490580954095
 20
5.888338000000002
 30
0.0
 11
13.89290580954095
 21
5.888338000000002
 31
0.0
  0
LINE
  5
1427
330
1E
100
AcDbEntity
  8
HIDDEN
100
AcDbLine
 10
13.67490580954095
 20
5.732088000000002
 30
0.0
 11
13.89290580954095
 21
5.732088000000002
 31
0.0
  0
LINE
  5
1428
330
1E
100
AcDbEntity
  8
HIDDEN
100
AcDbLine
 10
13.67490580954095
 20
5.857088000000002
 30
0.0
 11
13.89290580954095
 21
5.857088000000002
 31
0.0
  0
LINE
  5
1429
102
{ACAD_REACTORS
330
1BD9
102
}
330
1E
100
AcDbEntity
  8
HIDDEN
100
AcDbLine
 10
13.89290580954095
 20
5.888338000000002
 30
0.0
 11
13.89290580954095
 21
5.700838000000002
 31
0.0
  0
LINE
  5
1430
102
{ACAD_REACTORS
330
1BD9
102
}
330
1E
100
AcDbEntity
  8
HIDDEN
100
AcDbLine
 10
13.67490580954095
 20
8.141087999999999
 30
0.0
 11
13.86490580954095
 21
8.141087999999999
 31
0.0
  0
LINE
  5
1431
102
{ACAD_REACTORS
330
1BD9
102
}
330
1E
100
AcDbEntity
  8
HIDDEN
100
AcDbLine
 10
13.67490580954095
 20
8.231087999999999
 30
0.0
 11
13.86490580954095
 21
8.231087999999999
 31
0.0
  0
LINE
  5
1432
102
{ACAD_REACTORS
330
1BD9
102
}
330
1E
100
AcDbEntity
  8
HIDDEN
100
AcDbLine
 10
13.86490580954095
 20
8.141087999999999
 30
0.0
 11
13.86490580954095
 21
8.231087999999999
 31
0.0
  0
HATCH
  5
144E
330
1E
100
AcDbEntity
  8
OBJECT
 62
   221
100
AcDbHatch
 10
0.0
 20
0.0
 30
0.0
210
0.0
220
0.0
230
1.0
  2
ZIGZAG
 70
     0
 71
     1
 91
        1
 92
        7
 72
     0
 73
     1
 93
        4
 10
24.50926516108461
 20
15.53123
 10
24.50926516108461
 20
15.21123
 10
24.96926516108461
 20
15.21122999999999
 10
24.96926516108461
 20
15.53123
 97
        3
330
BA8
330
B3E
330
BA3
 75
     0
 76
     1
 52
0.0
 41
0.75
 77
     0
 78
     2
 53
0.0
 43
2.76830016108461
 44
0.0
 45
0.09375
 46
0.09375
 79
     2
 49
0.09375
 49
-0.09375
 53
90.0
 43
2.86205016108461
 44
0.0
 45
-0.09375
 46
0.09375
 79
     2
 49
0.09375
 49
-0.09375
 47
0.0036788518298763
 98
        1
 10
24.66696849711688
 20
15.40070819816298
  0
HATCH
  5
14D9
330
1E
100
AcDbEntity
  8
OBJECT
 62
   151
100
AcDbHatch
 10
0.0
 20
0.0
 30
0.0
210
0.0
220
0.0
230
1.0
  2
ANSI31
 70
     0
 71
     1
 91
        3
 92
        7
 72
     1
 73
     1
 93
       15
 10
22.71312236172021
 20
10.815588
 42
0.0
 10
22.71312236172021
 20
5.903587942450819
 42
-0.053657849669717
 10
22.83312236172021
 20
5.850728719461415
 42
0.0
 10
22.83312236172021
 20
11.273088
 42
0.4142135623730951
 10
22.7706223617202
 20
11.335588
 42
0.0
 10
22.24212236172021
 20
11.335588
 42
0.0
 10
22.24212236172021
 20
11.255588
 42
0.0
 10
22.71312236172021
 20
11.25558799999999
 42
0.0
 10
22.71312236172021
 20
10.98558799999999
 42
0.0
 10
22.24212236172021
 20
10.98558799999999
 42
0.0
 10
22.24212236172021
 20
10.939909
 42
0.0
 10
22.3571223617202
 20
10.939909
 42
0.0
 10
22.3571223617202
 20
10.85990899999999
 42
0.0
 10
22.24212236172021
 20
10.859909
 42
0.0
 10
22.24212236172021
 20
10.81558799999999
 42
0.0
 97
       12
330
A44
330
A45
330
B64
330
A70
330
A6B
330
A6F
330
BB7
330
BB2
330
A6E
330
A6C
330
6DB
330
A46
 92
        7
 72
     1
 73
     1
 93
       12
 10
22.24212236172021
 20
5.556587999999999
 42
0.0
 10
22.24212236172021
 20
5.520908999999999
 42
0.0
 10
22.3571223617202
 20
5.520908999999999
 42
0.0
 10
22.3571223617202
 20
5.440908999999998
 42
0.0
 10
22.24212236172021
 20
5.440909
 42
0.0
 10
22.24212236172021
 20
5.358525
 42
0.0
 10
22.71312236172021
 20
5.358525
 42
0.0
 10
22.71312236172021
 20
5.427588
 42
0.0
 10
22.83312236172021
 20
5.427587999999999
 42
0.0
 10
22.83312236172021
 20
5.850728719461414
 42
0.0536578496697186
 10
22.71312236172021
 20
5.903587942450819
 42
0.0
 10
22.71312236172021
 20
5.556587999999999
 42
0.0
 97
       10
330
6DB
330
A6C
330
A6D
330
B64
330
BC0
330
BBB
330
A47
330
13E6
330
A6A
330
A46
 92
        7
 72
     1
 73
     1
 93
        7
 10
22.7706223617202
 20
5.036588
 42
0.4142135623730951
 10
22.83312236172021
 20
5.099088
 42
0.0
 10
22.83312236172021
 20
5.117587999999999
 42
0.0
 10
22.71312236172021
 20
5.117587999999999
 42
0.0
 10
22.71312236172021
 20
5.18665
 42
0.0
 10
22.24212236172021
 20
5.186649999999999
 42
0.0
 10
22.24212236172021
 20
5.036588
 42
0.0
 97
        7
330
A46
330
A68
330
13E6
330
A48
330
B64
330
A42
330
A43
 75
     0
 76
     1
 52
0.0
 41
0.625
 77
     0
 78
     1
 53
45.0
 43
1.132486361720211
 44
0.0
 45
-0.055242717280199
 46
0.055242717280199
 79
     0
 47
0.0120103691375851
 98
        3
 10
22.63840852955503
 20
10.87439661186493
 10
22.61436833110618
 20
5.481740854243781
 10
22.5302277543181
 20
5.085398686831737
  0
HATCH
  5
14F4
330
1E
100
AcDbEntity
  8
OBJECT
 62
   151
100
AcDbHatch
 10
0.0
 20
0.0
 30
0.0
210
0.0
220
0.0
230
1.0
  2
ANSI31
 70
     0
 71
     1
 91
        2
 92
        5
 93
       12
 72
     1
 10
24.5092651610846
 20
15.697219
 11
24.50926516108461
 21
15.53123
 72
     1
 10
24.50926516108461
 20
15.53123
 11
24.96926516108461
 21
15.53122999999999
 72
     1
 10
24.96926516108461
 20
15.53122999999999
 11
24.96926516108461
 21
15.21123
 72
     1
 10
24.96926516108461
 20
15.21123
 11
24.50926516108461
 21
15.21122999999999
 72
     1
 10
24.50926516108461
 20
15.21122999999999
 11
24.50926516108461
 21
14.764795
 72
     1
 10
24.50926516108461
 20
14.764795
 11
26.39326516108461
 21
14.764795
 72
     1
 10
26.39326516108461
 20
14.764795
 11
26.39326516108461
 21
15.041045
 72
     1
 10
26.39326516108461
 20
15.041045
 11
26.87326516108461
 21
15.041045
 72
     1
 10
26.87326516108461
 20
15.041045
 11
26.87326516108461
 21
16.39755099999999
 72
     4
 94
        3
 73
     0
 74
     0
 95
        9
 96
        5
 40
1.968944276613994
 40
1.968944276613994
 40
1.968944276613994
 40
1.968944276613994
 40
2.247977260101997
 40
2.517402006587253
 40
2.517402006587253
 40
2.517402006587253
 40
2.517402006587253
 10
26.87326516108461
 20
16.397551
 10
26.79640137447603
 20
16.46997798346376
 10
26.6453205330876
 20
16.61233799568452
 10
26.47740220272616
 20
16.4967943663567
 10
26.39326516108461
 20
16.44718415736173
 72
     1
 10
26.39326516108461
 20
16.44718415736173
 11
26.3932651610846
 21
15.69721899999999
 72
     1
 10
26.3932651610846
 20
15.69721899999999
 11
24.5092651610846
 21
15.697219
 97
       10
330
13A9
330
13E8
330
B3A
330
B3E
330
BA8
330
BA3
330
B3C
330
13C8
330
B47
330
B40
 92
        7
 72
     1
 73
     1
 93
        7
 10
24.5092651610846
 20
14.077295
 42
0.0
 10
24.50926516108461
 20
13.47704499999999
 42
0.0
 10
26.62326516108461
 20
13.477045
 42
0.4142135623730951
 10
26.87326516108461
 20
13.727045
 42
0.0
 10
26.87326516108461
 20
13.801045
 42
0.0
 10
26.39326516108461
 20
13.801045
 42
0.0
 10
26.3932651610846
 20
14.077295
 42
0.0
 97
        7
330
B3D
330
B3E
330
B3B
330
B46
330
B40
330
B45
330
13C8
 75
     0
 76
     1
 52
0.0
 41
1.5
 77
     0
 78
     1
 53
45.0
 43
2.76830016108461
 44
0.0
 45
-0.1325825214724776
 46
0.1325825214724777
 79
     0
 47
0.0071542076807713
 98
        2
 10
25.95285775385515
 20
15.44491001686653
 10
25.40869835806244
 20
13.79944220080433
  0
LEADER
  5
1518
330
1E
100
AcDbEntity
  8
DIM
100
AcDbLeader
  3
23NSTD
 73
     0
 75
     1
 40
0.5833333333333333
 41
2.296875
 76
     3
 10
24.50926516108461
 20
15.375
 30
0.0
 10
23.82957327749536
 20
16.59364124918212
 30
0.0
 10
23.51457327749535
 20
16.59364124918212
 30
0.0
340
1519
213
0.0
223
-0.109375
233
0.0
1001
ACAD
1000
DSTYLE
1002
{
1070
   147
1040
0.09
1070
    77
1070
     0
1002
}
  0
MTEXT
  5
1519
102
{ACAD_REACTORS
330
1518
102
}
330
1E
100
AcDbEntity
  8
DIM
100
AcDbMText
 10
23.35707327749536
 20
16.70301624918212
 30
0.0
 40
0.21875
 41
0.0
 71
     3
 72
     1
  1
\A1;SILICONE GASKET\P(CLEAR)
 73
     1
 44
1.0
  0
LWPOLYLINE
  5
174D
330
1E
100
AcDbEntity
  8
HIDDEN
  6
HIDDEN2
100
AcDbPolyline
 90
        4
 70
     0
 43
0.0
 10
20.06493136172021
 20
14.04093999999999
 10
20.06493136172021
 20
13.92094
 10
20.37493136172021
 20
13.92094
 10
20.37493136172021
 20
14.04093999999999
  0
LWPOLYLINE
  5
174E
330
1E
100
AcDbEntity
  8
HIDDEN
  6
HIDDEN2
100
AcDbPolyline
 90
        4
 70
     0
 43
0.0
 10
17.38693136172021
 20
14.04093999999999
 10
17.38693136172021
 20
13.92094
 10
17.69693136172021
 20
13.92094
 10
17.69693136172021
 20
14.04093999999999
  0
LEADER
  5
1754
330
1E
100
AcDbEntity
  8
DIM
100
AcDbLeader
  3
23NSTD
 73
     0
 74
     0
 75
     1
 40
0.9479166666666664
 41
2.3515625
 76
     3
 10
9.175071809540956
 20
11.18966499999999
 30
0.0
 10
9.737507312558147
 20
13.24305127264538
 30
0.0
 10
10.05250731255814
 20
13.24305127264538
 30
0.0
340
1755
213
0.0
223
-0.109375
233
0.0
1001
ACAD
1000
DSTYLE
1002
{
1070
   147
1040
0.09
1070
    77
1070
     0
1002
}
  0
MTEXT
  5
1755
102
{ACAD_REACTORS
330
1754
102
}
330
1E
100
AcDbEntity
  8
DIM
100
AcDbMText
 10
10.21000731255814
 20
13.35242627264538
 30
0.0
 40
0.21875
 41
0.0
 71
     1
 72
     1
  1
\A1;M4 x 0.315 LG.\PTHREADED INSERT\P(4) PLACES
 73
     1
 44
1.0
  0
LEADER
  5
1756
330
1E
100
AcDbEntity
  8
DIM
100
AcDbLeader
  3
23NSTD
 73
     0
 75
     1
 40
1.677083333333333
 41
3.28125
 76
     3
 10
6.508350809540955
 20
5.664750999999999
 30
0.0
 10
5.285275109522036
 20
3.857245316823103
 30
0.0
 10
4.970275109522035
 20
3.857245316823103
 30
0.0
340
1757
213
0.0
223
-0.109375
233
0.0
1001
ACAD
1000
DSTYLE
1002
{
1070
   147
1040
0.09
1070
    77
1070
     0
1002
}
  0
MTEXT
  5
1757
102
{ACAD_REACTORS
330
1756
102
}
330
1E
100
AcDbEntity
  8
DIM
100
AcDbMText
 10
4.812775109522036
 20
3.966620316823103
 30
0.0
 40
0.21875
 41
0.0
 71
     3
 72
     1
  1
\A1;0.315 DIA. BOSS\PWITH M3 x 0.218 LG.\PTHREADED INSERT\P(4) PLACES\P(SCREWS NOT SUPPLIED)
 73
     1
 44
1.0
  0
LEADER
  5
1762
330
1E
100
AcDbEntity
  8
DIM
100
AcDbLeader
  3
23NSTD
 73
     0
 74
     0
 75
     1
 40
2.406249999999999
 41
4.62109375
 76
     3
 10
7.856354809540954
 20
5.392967999999999
 30
0.0
 10
9.596797803134034
 20
3.416670163316659
 30
0.0
 10
9.911797803134033
 20
3.416670163316659
 30
0.0
340
1763
213
0.0
223
-0.109375
233
0.0
1001
ACAD
1000
DSTYLE
1002
{
1070
   147
1040
0.09
1070
    77
1070
     0
1002
}
  0
MTEXT
  5
1763
102
{ACAD_REACTORS
330
1762
102
}
330
1E
100
AcDbEntity
  8
DIM
100
AcDbMText
 10
10.06929780313403
 20
3.526045163316659
 30
0.0
 40
0.21875
 41
0.0
 71
     1
 72
     1
  1
\A1;0.315 DIA. BOSS WITH\P0.090 DIA. HOLE x 0.190 DEEP\P(4) PLACES\PMOUNTING BOSSES USE EITHER\PM2.5 METRIC OR #4 STD.\PSHEET METAL SCREWS x 0.188 LG.\P(NOT SUPPLIED)
 73
     1
 44
1.0
  0
INSERT
  5
1A7B
330
1E
100
AcDbEntity
  8
TITLE
100
AcDbBlockReference
  2
HBS
 10
0.0
 20
0.0
 30
0.0
 41
1.75
 42
1.75
 43
1.75
  0
CIRCLE
  5
1AC5
330
1E
100
AcDbEntity
  8
OBJECT
100
AcDbCircle
 10
6.607404809540955
 20
10.57758799999999
 30
0.0
 40
0.09375
  0
LINE
  5
1AC9
330
1E
100
AcDbEntity
  8
OBJECT
100
AcDbLine
 10
6.5604047860875
 20
10.34467304318252
 30
0.0
 11
6.654404912993362
 21
10.34467304318252
 31
0.0
  0
LINE
  5
1ACA
330
1E
100
AcDbEntity
  8
OBJECT
100
AcDbLine
 10
6.65440486994909
 20
10.3796730255264
 30
0.0
 11
6.560404795845967
 21
10.3796730255264
 31
0.0
  0
LINE
  5
1ACB
330
1E
100
AcDbEntity
  8
OBJECT
100
AcDbLine
 10
6.560404795845967
 20
10.77550301286461
 30
0.0
 11
6.65440486994909
 21
10.77550301286461
 31
0.0
  0
LINE
  5
1ACC
330
1E
100
AcDbEntity
  8
OBJECT
100
AcDbLine
 10
6.654404912993328
 20
10.8105029952085
 30
0.0
 11
6.560404786087508
 21
10.8105029952085
 31
0.0
  0
CIRCLE
  5
1ACD
330
1E
100
AcDbEntity
  8
OBJECT
100
AcDbCircle
 10
6.607404809540955
 20
10.57758799999999
 30
0.0
 40
0.0590000000000011
  0
CIRCLE
  5
1ACE
330
1E
100
AcDbEntity
  8
OBJECT
100
AcDbCircle
 10
6.607404809540955
 20
10.57758799999999
 30
0.0
 40
0.1559553444010344
  0
LINE
  5
1AD6
330
1E
100
AcDbEntity
  8
OBJECT
100
AcDbLine
 10
6.5604047860875
 20
10.34467304318252
 30
0.0
 11
6.560404809540956
 21
10.42879184045107
 31
0.0
  0
LINE
  5
1AD7
330
1E
100
AcDbEntity
  8
OBJECT
100
AcDbLine
 10
6.560404809540957
 20
10.72638415954892
 30
0.0
 11
6.560404786087508
 21
10.8105029952085
 31
0.0
  0
LINE
  5
1AD8
330
1E
100
AcDbEntity
  8
OBJECT
100
AcDbLine
 10
6.409489765895938
 20
10.53058805547643
 30
0.0
 11
6.409489765895938
 21
10.62458798291458
 31
0.0
  0
LINE
  5
1AD9
330
1E
100
AcDbEntity
  8
OBJECT
100
AcDbLine
 10
6.374489783552053
 20
10.62458797074026
 30
0.0
 11
6.374489783552053
 21
10.53058809500653
 31
0.0
  0
LINE
  5
1ADA
330
1E
100
AcDbEntity
  8
OBJECT
100
AcDbLine
 10
6.458608649992026
 20
10.530588
 30
0.0
 11
6.374489783552053
 21
10.53058809500653
 31
0.0
  0
LINE
  5
1ADB
330
1E
100
AcDbEntity
  8
OBJECT
100
AcDbLine
 10
6.374489783552053
 20
10.62458797074026
 30
0.0
 11
6.458608649992027
 21
10.624588
 31
0.0
  0
LINE
  5
1ADC
102
{ACAD_REACTORS
330
1BD9
102
}
330
1E
100
AcDbEntity
  8
OBJECT
100
AcDbLine
 10
13.67490580954095
 20
10.73354334440103
 30
0.0
 11
13.67490580954095
 21
10.42163265559896
 31
0.0
  0
LINE
  5
1ADD
102
{ACAD_REACTORS
330
1BD9
102
}
330
1E
100
AcDbEntity
  8
OBJECT
100
AcDbLine
 10
13.85290580954095
 20
10.34446337934177
 30
0.0
 11
13.68490581936117
 21
10.37967295635498
 31
0.0
  0
LINE
  5
1AE6
330
1E
100
AcDbEntity
  8
OBJECT
100
AcDbLine
 10
6.654404809540955
 20
10.42879184045107
 30
0.0
 11
6.654404912993362
 21
10.34467304318252
 31
0.0
  0
LINE
  5
1AE7
102
{ACAD_REACTORS
330
1BD9
102
}
330
1E
100
AcDbEntity
  8
OBJECT
100
AcDbLine
 10
13.68490581936117
 20
10.42154536597466
 30
0.0
 11
13.68490581936117
 21
10.37967295635498
 31
0.0
  0
LINE
  5
1AE8
102
{ACAD_REACTORS
330
1BD9
102
}
330
1E
100
AcDbEntity
  8
OBJECT
100
AcDbLine
 10
13.67490580954095
 20
10.42163265559896
 30
0.0
 11
13.68490581936117
 21
10.42154536597466
 31
0.0
  0
LINE
  5
1AE9
102
{ACAD_REACTORS
330
1BD9
102
}
330
1E
100
AcDbEntity
  8
OBJECT
100
AcDbLine
 10
13.85290580954095
 20
10.81071259403888
 30
0.0
 11
13.68490581936117
 21
10.77550301702567
 31
0.0
  0
LINE
  5
1AF1
102
{ACAD_REACTORS
330
1BD9
102
}
330
1E
100
AcDbEntity
  8
OBJECT
100
AcDbLine
 10
13.68490581936117
 20
10.77550301702567
 30
0.0
 11
13.68490581936117
 21
10.73363060740599
 31
0.0
  0
LINE
  5
1AF2
330
1E
100
AcDbEntity
  8
OBJECT
100
AcDbLine
 10
6.654404912993328
 20
10.8105029952085
 30
0.0
 11
6.654404809540956
 21
10.72638415954892
 31
0.0
  0
LINE
  5
1AF3
330
1E
100
AcDbEntity
  8
OBJECT
100
AcDbLine
 10
6.756200969089885
 20
10.62458799999999
 30
0.0
 11
6.840319808910517
 21
10.62458797074026
 31
0.0
  0
LINE
  5
1AF4
330
1E
100
AcDbEntity
  8
OBJECT
100
AcDbLine
 10
6.840319808910518
 20
10.53058809500655
 30
0.0
 11
6.756200969089883
 21
10.530588
 31
0.0
  0
LINE
  5
1AF5
330
1E
100
AcDbEntity
  8
OBJECT
100
AcDbLine
 10
6.805319826566632
 20
10.62458798291458
 30
0.0
 11
6.805319826566632
 21
10.53058805547643
 31
0.0
  0
LINE
  5
1AF7
330
1E
100
AcDbEntity
  8
OBJECT
100
AcDbLine
 10
6.840319808910518
 20
10.53058809500655
 30
0.0
 11
6.840319808910517
 21
10.62458797074026
 31
0.0
  0
LINE
  5
1AF8
102
{ACAD_REACTORS
330
1BD9
102
}
330
1E
100
AcDbEntity
  8
OBJECT
100
AcDbLine
 10
13.68490581936117
 20
10.73363060740599
 30
0.0
 11
13.67490580954095
 21
10.73354334440103
 31
0.0
  0
LINE
  5
1AFA
330
1E
100
AcDbEntity
  8
OBJECT
100
AcDbLine
 10
13.67490580954095
 20
5.950543344401033
 30
0.0
 11
13.67490580954095
 21
5.638632655598964
 31
0.0
  0
CIRCLE
  5
1AFB
330
1E
100
AcDbEntity
  8
OBJECT
100
AcDbCircle
 10
6.607404809540955
 20
5.794587999999999
 30
0.0
 40
0.1559553444010344
  0
LINE
  5
1AFC
330
1E
100
AcDbEntity
  8
OBJECT
100
AcDbLine
 10
6.65440486994909
 20
5.596673025526406
 30
0.0
 11
6.560404795845967
 21
5.596673025526406
 31
0.0
  0
LINE
  5
1AFD
330
1E
100
AcDbEntity
  8
OBJECT
100
AcDbLine
 10
6.5604047860875
 20
5.561673043182523
 30
0.0
 11
6.654404912993362
 21
5.561673043182523
 31
0.0
  0
LINE
  5
1AFE
330
1E
100
AcDbEntity
  8
OBJECT
100
AcDbLine
 10
6.5604047860875
 20
5.561673043182523
 30
0.0
 11
6.560404809540956
 21
5.645791840451071
 31
0.0
  0
LINE
  5
1AFF
330
1E
100
AcDbEntity
  8
OBJECT
100
AcDbLine
 10
13.68490581936117
 20
5.645791788930036
 30
0.0
 11
13.85290580954095
 21
5.645791840759598
 31
0.0
  0
LINE
  5
1B00
330
1E
100
AcDbEntity
  8
OBJECT
100
AcDbLine
 10
13.85290580954095
 20
5.561463379341772
 30
0.0
 11
13.68490581936117
 21
5.59667295635498
 31
0.0
  0
LINE
  5
1B01
330
1E
100
AcDbEntity
  8
OBJECT
100
AcDbLine
 10
6.654404809540955
 20
5.645791840451071
 30
0.0
 11
6.654404912993362
 21
5.561673043182523
 31
0.0
  0
LINE
  5
1B02
330
1E
100
AcDbEntity
  8
OBJECT
100
AcDbLine
 10
13.67490580954095
 20
5.638632655598964
 30
0.0
 11
13.68490581936117
 21
5.638545365974666
 31
0.0
  0
LINE
  5
1B03
330
1E
100
AcDbEntity
  8
OBJECT
100
AcDbLine
 10
13.68490581936117
 20
5.645791788930036
 30
0.0
 11
13.68490581936117
 21
5.59667295635498
 31
0.0
  0
CIRCLE
  5
1B04
330
1E
100
AcDbEntity
  8
OBJECT
100
AcDbCircle
 10
6.607404809540955
 20
5.794587999999999
 30
0.0
 40
0.0590000000000011
  0
LINE
  5
1B05
330
1E
100
AcDbEntity
  8
OBJECT
100
AcDbLine
 10
6.654404912993328
 20
6.0275029952085
 30
0.0
 11
6.560404786087508
 21
6.0275029952085
 31
0.0
  0
LINE
  5
1B06
330
1E
100
AcDbEntity
  8
OBJECT
100
AcDbLine
 10
6.560404795845967
 20
5.992503012864615
 30
0.0
 11
6.65440486994909
 21
5.992503012864615
 31
0.0
  0
CIRCLE
  5
1B07
330
1E
100
AcDbEntity
  8
OBJECT
100
AcDbCircle
 10
6.607404809540955
 20
5.794587999999999
 30
0.0
 40
0.09375
  0
LINE
  5
1B08
330
1E
100
AcDbEntity
  8
OBJECT
100
AcDbLine
 10
6.560404809540957
 20
5.943384159548928
 30
0.0
 11
6.560404786087508
 21
6.0275029952085
 31
0.0
  0
LINE
  5
1B09
330
1E
100
AcDbEntity
  8
OBJECT
100
AcDbLine
 10
6.374489783552053
 20
5.841587970740262
 30
0.0
 11
6.458608649992027
 21
5.841587999999999
 31
0.0
  0
LINE
  5
1B0A
330
1E
100
AcDbEntity
  8
OBJECT
100
AcDbLine
 10
6.458608649992026
 20
5.747588
 30
0.0
 11
6.374489783552053
 21
5.747588095006532
 31
0.0
  0
LINE
  5
1B0B
330
1E
100
AcDbEntity
  8
OBJECT
100
AcDbLine
 10
6.374489783552053
 20
5.841587970740262
 30
0.0
 11
6.374489783552053
 21
5.747588095006532
 31
0.0
  0
LINE
  5
1B0C
330
1E
100
AcDbEntity
  8
OBJECT
100
AcDbLine
 10
6.409489765895938
 20
5.747588055476436
 30
0.0
 11
6.409489765895938
 21
5.841587982914585
 31
0.0
  0
LINE
  5
1B0F
330
1E
100
AcDbEntity
  8
OBJECT
100
AcDbLine
 10
13.68490581936117
 20
5.74758798630501
 30
0.0
 11
13.85290580954095
 21
5.747587976488107
 31
0.0
  0
LINE
  5
1B10
330
1E
100
AcDbEntity
  8
OBJECT
100
AcDbLine
 10
13.68490581936117
 20
5.841588060408133
 30
0.0
 11
13.85290580954095
 21
5.841588103710172
 31
0.0
  0
LINE
  5
1B11
330
1E
100
AcDbEntity
  8
OBJECT
100
AcDbLine
 10
13.68490581936117
 20
5.943384184450621
 30
0.0
 11
13.85290580954095
 21
5.943384159399805
 31
0.0
  0
LINE
  5
1B14
330
1E
100
AcDbEntity
  8
OBJECT
100
AcDbLine
 10
13.85290580954095
 20
6.027712594038883
 30
0.0
 11
13.68490581936117
 21
5.992503017025676
 31
0.0
  0
LINE
  5
1B15
330
1E
100
AcDbEntity
  8
OBJECT
100
AcDbLine
 10
6.654404912993328
 20
6.0275029952085
 30
0.0
 11
6.654404809540956
 21
5.943384159548926
 31
0.0
  0
LINE
  5
1B16
330
1E
100
AcDbEntity
  8
OBJECT
100
AcDbLine
 10
6.840319808910518
 20
5.747588095006555
 30
0.0
 11
6.840319808910517
 21
5.841587970740258
 31
0.0
  0
LINE
  5
1B17
330
1E
100
AcDbEntity
  8
OBJECT
100
AcDbLine
 10
6.805319826566632
 20
5.841587982914585
 30
0.0
 11
6.805319826566632
 21
5.747588055476436
 31
0.0
  0
LINE
  5
1B18
330
1E
100
AcDbEntity
  8
OBJECT
100
AcDbLine
 10
6.840319808910518
 20
5.747588095006555
 30
0.0
 11
6.756200969089883
 21
5.747587999999998
 31
0.0
  0
LINE
  5
1B19
330
1E
100
AcDbEntity
  8
OBJECT
100
AcDbLine
 10
6.756200969089885
 20
5.841587999999998
 30
0.0
 11
6.840319808910517
 21
5.841587970740258
 31
0.0
  0
LINE
  5
1B1A
330
1E
100
AcDbEntity
  8
OBJECT
100
AcDbLine
 10
13.68490581936117
 20
5.950630607405992
 30
0.0
 11
13.67490580954095
 21
5.950543344401033
 31
0.0
  0
LINE
  5
1B1B
330
1E
100
AcDbEntity
  8
OBJECT
100
AcDbLine
 10
13.68490581936117
 20
5.841588060408133
 30
0.0
 11
13.68490581936117
 21
5.74758798630501
 31
0.0
  0
LINE
  5
1B1C
330
1E
100
AcDbEntity
  8
OBJECT
100
AcDbLine
 10
13.68490581936117
 20
5.992503017025676
 30
0.0
 11
13.68490581936117
 21
5.943384184450621
 31
0.0
  0
CIRCLE
  5
1B1E
330
1E
100
AcDbEntity
  8
OBJECT
100
AcDbCircle
 10
8.891404809540954
 20
5.794587999999999
 30
0.0
 40
0.09375
  0
LINE
  5
1B1F
330
1E
100
AcDbEntity
  8
OBJECT
100
AcDbLine
 10
8.844404795845967
 20
5.992503012864615
 30
0.0
 11
8.938404869949089
 21
5.992503012864615
 31
0.0
  0
LINE
  5
1B20
330
1E
100
AcDbEntity
  8
OBJECT
100
AcDbLine
 10
8.938404912993327
 20
6.0275029952085
 30
0.0
 11
8.844404786087507
 21
6.0275029952085
 31
0.0
  0
CIRCLE
  5
1B21
330
1E
100
AcDbEntity
  8
OBJECT
100
AcDbCircle
 10
8.891404809540954
 20
5.794587999999999
 30
0.0
 40
0.0590000000000011
  0
LINE
  5
1B22
330
1E
100
AcDbEntity
  8
OBJECT
100
AcDbLine
 10
8.844404786087499
 20
5.561673043182523
 30
0.0
 11
8.938404912993361
 21
5.561673043182523
 31
0.0
  0
LINE
  5
1B23
330
1E
100
AcDbEntity
  8
OBJECT
100
AcDbLine
 10
8.938404869949089
 20
5.596673025526406
 30
0.0
 11
8.844404795845967
 21
5.596673025526406
 31
0.0
  0
CIRCLE
  5
1B24
330
1E
100
AcDbEntity
  8
OBJECT
100
AcDbCircle
 10
8.891404809540954
 20
5.794587999999999
 30
0.0
 40
0.1559553444010344
  0
LINE
  5
1B25
330
1E
100
AcDbEntity
  8
OBJECT
100
AcDbLine
 10
8.693489765895936
 20
5.747588055476436
 30
0.0
 11
8.693489765895936
 21
5.841587982914585
 31
0.0
  0
LINE
  5
1B26
330
1E
100
AcDbEntity
  8
OBJECT
100
AcDbLine
 10
8.658489783552052
 20
5.841587970740262
 30
0.0
 11
8.658489783552052
 21
5.747588095006532
 31
0.0
  0
LINE
  5
1B27
330
1E
100
AcDbEntity
  8
OBJECT
100
AcDbLine
 10
8.742608649992025
 20
5.747588
 30
0.0
 11
8.658489783552052
 21
5.747588095006532
 31
0.0
  0
LINE
  5
1B28
330
1E
100
AcDbEntity
  8
OBJECT
100
AcDbLine
 10
8.658489783552052
 20
5.841587970740262
 30
0.0
 11
8.742608649992025
 21
5.841587999999999
 31
0.0
  0
LINE
  5
1B29
330
1E
100
AcDbEntity
  8
OBJECT
100
AcDbLine
 10
8.844404786087499
 20
5.561673043182523
 30
0.0
 11
8.844404809540954
 21
5.645791840451071
 31
0.0
  0
LINE
  5
1B2A
330
1E
100
AcDbEntity
  8
OBJECT
100
AcDbLine
 10
8.844404809540955
 20
5.943384159548928
 30
0.0
 11
8.844404786087507
 21
6.0275029952085
 31
0.0
  0
LINE
  5
1B2B
330
1E
100
AcDbEntity
  8
OBJECT
100
AcDbLine
 10
9.040200969089884
 20
5.841587999999998
 30
0.0
 11
9.124319808910517
 21
5.841587970740258
 31
0.0
  0
LINE
  5
1B2C
330
1E
100
AcDbEntity
  8
OBJECT
100
AcDbLine
 10
9.124319808910517
 20
5.747588095006555
 30
0.0
 11
9.040200969089882
 21
5.747587999999998
 31
0.0
  0
LINE
  5
1B2D
330
1E
100
AcDbEntity
  8
OBJECT
100
AcDbLine
 10
9.089319826566631
 20
5.841587982914585
 30
0.0
 11
9.089319826566631
 21
5.747588055476436
 31
0.0
  0
LINE
  5
1B2E
330
1E
100
AcDbEntity
  8
OBJECT
100
AcDbLine
 10
9.124319808910517
 20
5.747588095006555
 30
0.0
 11
9.124319808910517
 21
5.841587970740258
 31
0.0
  0
LINE
  5
1B2F
330
1E
100
AcDbEntity
  8
OBJECT
100
AcDbLine
 10
8.938404809540955
 20
5.645791840451071
 30
0.0
 11
8.938404912993361
 21
5.561673043182523
 31
0.0
  0
LINE
  5
1B30
330
1E
100
AcDbEntity
  8
OBJECT
100
AcDbLine
 10
8.938404912993327
 20
6.0275029952085
 30
0.0
 11
8.938404809540955
 21
5.943384159548926
 31
0.0
  0
CIRCLE
  5
1B31
330
1E
100
AcDbEntity
  8
OBJECT
100
AcDbCircle
 10
8.891404809540954
 20
10.57758799999999
 30
0.0
 40
0.1559553444010344
  0
LINE
  5
1B32
330
1E
100
AcDbEntity
  8
OBJECT
100
AcDbLine
 10
8.938404869949089
 20
10.3796730255264
 30
0.0
 11
8.844404795845967
 21
10.3796730255264
 31
0.0
  0
LINE
  5
1B33
330
1E
100
AcDbEntity
  8
OBJECT
100
AcDbLine
 10
8.844404786087499
 20
10.34467304318252
 30
0.0
 11
8.938404912993361
 21
10.34467304318252
 31
0.0
  0
LINE
  5
1B39
330
1E
100
AcDbEntity
  8
OBJECT
100
AcDbLine
 10
8.844404786087499
 20
10.34467304318252
 30
0.0
 11
8.844404809540954
 21
10.42879184045107
 31
0.0
  0
LINE
  5
1B41
330
1E
100
AcDbEntity
  8
OBJECT
100
AcDbLine
 10
8.938404809540955
 20
10.42879184045107
 30
0.0
 11
8.938404912993361
 21
10.34467304318252
 31
0.0
  0
CIRCLE
  5
1B47
330
1E
100
AcDbEntity
  8
OBJECT
100
AcDbCircle
 10
8.891404809540954
 20
10.57758799999999
 30
0.0
 40
0.0590000000000011
  0
LINE
  5
1B48
330
1E
100
AcDbEntity
  8
OBJECT
100
AcDbLine
 10
8.938404912993327
 20
10.8105029952085
 30
0.0
 11
8.844404786087507
 21
10.8105029952085
 31
0.0
  0
LINE
  5
1B49
330
1E
100
AcDbEntity
  8
OBJECT
100
AcDbLine
 10
8.844404795845967
 20
10.77550301286461
 30
0.0
 11
8.938404869949089
 21
10.77550301286461
 31
0.0
  0
CIRCLE
  5
1B4A
330
1E
100
AcDbEntity
  8
OBJECT
100
AcDbCircle
 10
8.891404809540954
 20
10.57758799999999
 30
0.0
 40
0.09375
  0
LINE
  5
1B4B
330
1E
100
AcDbEntity
  8
OBJECT
100
AcDbLine
 10
8.844404809540955
 20
10.72638415954892
 30
0.0
 11
8.844404786087507
 21
10.8105029952085
 31
0.0
  0
LINE
  5
1B4C
330
1E
100
AcDbEntity
  8
OBJECT
100
AcDbLine
 10
8.658489783552052
 20
10.62458797074026
 30
0.0
 11
8.742608649992025
 21
10.624588
 31
0.0
  0
LINE
  5
1B4D
330
1E
100
AcDbEntity
  8
OBJECT
100
AcDbLine
 10
8.742608649992025
 20
10.530588
 30
0.0
 11
8.658489783552052
 21
10.53058809500653
 31
0.0
  0
LINE
  5
1B4E
330
1E
100
AcDbEntity
  8
OBJECT
100
AcDbLine
 10
8.658489783552052
 20
10.62458797074026
 30
0.0
 11
8.658489783552052
 21
10.53058809500653
 31
0.0
  0
LINE
  5
1B4F
330
1E
100
AcDbEntity
  8
OBJECT
100
AcDbLine
 10
8.693489765895936
 20
10.53058805547643
 30
0.0
 11
8.693489765895936
 21
10.62458798291458
 31
0.0
  0
LINE
  5
1B50
330
1E
100
AcDbEntity
  8
OBJECT
100
AcDbLine
 10
8.938404912993327
 20
10.8105029952085
 30
0.0
 11
8.938404809540955
 21
10.72638415954892
 31
0.0
  0
LINE
  5
1B51
330
1E
100
AcDbEntity
  8
OBJECT
100
AcDbLine
 10
9.124319808910517
 20
10.53058809500655
 30
0.0
 11
9.124319808910517
 21
10.62458797074026
 31
0.0
  0
LINE
  5
1B52
330
1E
100
AcDbEntity
  8
OBJECT
100
AcDbLine
 10
9.089319826566631
 20
10.62458798291458
 30
0.0
 11
9.089319826566631
 21
10.53058805547643
 31
0.0
  0
LINE
  5
1B53
330
1E
100
AcDbEntity
  8
OBJECT
100
AcDbLine
 10
9.124319808910517
 20
10.53058809500655
 30
0.0
 11
9.040200969089882
 21
10.530588
 31
0.0
  0
LINE
  5
1B54
330
1E
100
AcDbEntity
  8
OBJECT
100
AcDbLine
 10
9.040200969089884
 20
10.62458799999999
 30
0.0
 11
9.124319808910517
 21
10.62458797074026
 31
0.0
  0
LINE
  5
1B55
330
1E
100
AcDbEntity
  8
HIDDEN
  6
HIDDEN2
100
AcDbLine
 10
0.7863560090213611
 20
5.950543344401033
 30
0.0
 11
0.7863560090213611
 21
5.666087999999998
 31
0.0
  0
LINE
  5
1B56
330
1E
100
AcDbEntity
  8
HIDDEN
  6
HIDDEN2
100
AcDbLine
 10
0.5683560090213593
 20
5.888338000000002
 30
0.0
 11
0.5683560090213593
 21
5.700838000000002
 31
0.0
  0
LINE
  5
1B57
330
1E
100
AcDbEntity
  8
HIDDEN
  6
HIDDEN2
100
AcDbLine
 10
0.7763559992011438
 20
5.841588060408133
 30
0.0
 11
0.6083560090213638
 21
5.841588103710172
 31
0.0
  0
LINE
  5
1B58
330
1E
100
AcDbEntity
  8
HIDDEN
  6
HIDDEN2
100
AcDbLine
 10
0.7763559992011438
 20
5.74758798630501
 30
0.0
 11
0.6083560090213638
 21
5.747587976488107
 31
0.0
  0
LINE
  5
1B5D
330
1E
100
AcDbEntity
  8
HIDDEN
  6
HIDDEN2
100
AcDbLine
 10
0.7763559992011438
 20
5.841588060408133
 30
0.0
 11
0.7763559992011438
 21
5.74758798630501
 31
0.0
  0
LINE
  5
1B5E
330
1E
100
AcDbEntity
  8
HIDDEN
  6
HIDDEN2
100
AcDbLine
 10
0.7863560090213593
 20
5.857088000000002
 30
0.0
 11
0.5683560090213593
 21
5.857088000000002
 31
0.0
  0
LINE
  5
1B5F
330
1E
100
AcDbEntity
  8
HIDDEN
  6
HIDDEN2
100
AcDbLine
 10
0.7863560090213593
 20
5.732088000000002
 30
0.0
 11
0.5683560090213593
 21
5.732088000000002
 31
0.0
  0
LINE
  5
1B60
330
1E
100
AcDbEntity
  8
HIDDEN
  6
HIDDEN2
100
AcDbLine
 10
0.7863560090213593
 20
5.700838000000002
 30
0.0
 11
0.5683560090213593
 21
5.700838000000002
 31
0.0
  0
LINE
  5
1B61
330
1E
100
AcDbEntity
  8
HIDDEN
  6
HIDDEN2
100
AcDbLine
 10
0.6083560090213656
 20
6.027712594038883
 30
0.0
 11
0.7763559992011438
 21
5.992503017025676
 31
0.0
  0
LINE
  5
1B62
330
1E
100
AcDbEntity
  8
HIDDEN
  6
HIDDEN2
100
AcDbLine
 10
0.7763559992011438
 20
5.943384184450621
 30
0.0
 11
0.6083560090213638
 21
5.943384159399805
 31
0.0
  0
LINE
  5
1B63
330
1E
100
AcDbEntity
  8
HIDDEN
  6
HIDDEN2
100
AcDbLine
 10
0.7763559992011438
 20
5.950630607405992
 30
0.0
 11
0.7863560090213611
 21
5.950543344401033
 31
0.0
  0
LINE
  5
1B64
330
1E
100
AcDbEntity
  8
HIDDEN
  6
HIDDEN2
100
AcDbLine
 10
0.7763559992011438
 20
5.992503017025676
 30
0.0
 11
0.7763559992011438
 21
5.943384184450621
 31
0.0
  0
LINE
  5
1B65
330
1E
100
AcDbEntity
  8
HIDDEN
  6
HIDDEN2
100
AcDbLine
 10
0.7863560090213593
 20
5.888338000000002
 30
0.0
 11
0.5683560090213593
 21
5.888338000000002
 31
0.0
  0
LINE
  5
1B68
330
1E
100
AcDbEntity
  8
HIDDEN
  6
HIDDEN2
100
AcDbLine
 10
0.7863560090213646
 20
5.553587999999999
 30
0.0
 11
0.5963560090213647
 21
5.553587999999999
 31
0.0
  0
LINE
  5
1B6A
330
1E
100
AcDbEntity
  8
HIDDEN
  6
HIDDEN2
100
AcDbLine
 10
0.7863560090213646
 20
5.463588
 30
0.0
 11
0.5963560090213647
 21
5.463588
 31
0.0
  0
LINE
  5
1B6B
330
1E
100
AcDbEntity
  8
HIDDEN
  6
HIDDEN2
100
AcDbLine
 10
0.5963560090213647
 20
5.463588
 30
0.0
 11
0.5963560090213647
 21
5.553587999999999
 31
0.0
  0
LINE
  5
1B6D
330
1E
100
AcDbEntity
  8
HIDDEN
  6
HIDDEN2
100
AcDbLine
 10
0.5963560090213647
 20
10.90858799999999
 30
0.0
 11
0.5963560090213647
 21
10.818588
 31
0.0
  0
LINE
  5
1B6E
330
1E
100
AcDbEntity
  8
HIDDEN
  6
HIDDEN2
100
AcDbLine
 10
0.7863560090213646
 20
11.02108799999999
 30
0.0
 11
0.7863560090213646
 21
10.706088
 31
0.0
  0
LINE
  5
1B6F
330
1E
100
AcDbEntity
  8
HIDDEN
  6
HIDDEN2
100
AcDbLine
 10
0.7863560090213646
 20
10.90858799999999
 30
0.0
 11
0.5963560090213647
 21
10.90858799999999
 31
0.0
  0
LINE
  5
1B70
330
1E
100
AcDbEntity
  8
HIDDEN
  6
HIDDEN2
100
AcDbLine
 10
0.7863560090213646
 20
11.02108799999999
 30
0.0
 11
0.6083560090213638
 21
11.02108799999999
 31
0.0
  0
LINE
  5
1B71
330
1E
100
AcDbEntity
  8
HIDDEN
  6
HIDDEN2
100
AcDbLine
 10
0.5683560090213593
 20
10.48383799999999
 30
0.0
 11
0.5683560090213593
 21
10.67133799999999
 31
0.0
  0
LINE
  5
1B72
330
1E
100
AcDbEntity
  8
HIDDEN
  6
HIDDEN2
100
AcDbLine
 10
0.7863560090213611
 20
10.42163265559896
 30
0.0
 11
0.7863560090213611
 21
10.706088
 31
0.0
  0
LINE
  5
1B73
330
1E
100
AcDbEntity
  8
HIDDEN
  6
HIDDEN2
100
AcDbLine
 10
0.7763559992011438
 20
10.53058793959186
 30
0.0
 11
0.6083560090213638
 21
10.53058789628982
 31
0.0
  0
LINE
  5
1B74
330
1E
100
AcDbEntity
  8
HIDDEN
  6
HIDDEN2
100
AcDbLine
 10
0.7763559992011438
 20
10.62458801369498
 30
0.0
 11
0.6083560090213638
 21
10.62458802351189
 31
0.0
  0
LINE
  5
1B75
330
1E
100
AcDbEntity
  8
HIDDEN
  6
HIDDEN2
100
AcDbLine
 10
0.7863560090213593
 20
10.51508799999999
 30
0.0
 11
0.5683560090213593
 21
10.51508799999999
 31
0.0
  0
LINE
  5
1B76
330
1E
100
AcDbEntity
  8
HIDDEN
  6
HIDDEN2
100
AcDbLine
 10
0.7863560090213593
 20
10.64008799999999
 30
0.0
 11
0.5683560090213593
 21
10.64008799999999
 31
0.0
  0
LINE
  5
1B77
330
1E
100
AcDbEntity
  8
HIDDEN
  6
HIDDEN2
100
AcDbLine
 10
0.7863560090213593
 20
10.67133799999999
 30
0.0
 11
0.5683560090213593
 21
10.67133799999999
 31
0.0
  0
LINE
  5
1B78
330
1E
100
AcDbEntity
  8
HIDDEN
  6
HIDDEN2
100
AcDbLine
 10
0.7863560090213646
 20
10.818588
 30
0.0
 11
0.5963560090213647
 21
10.818588
 31
0.0
  0
LINE
  5
1B79
330
1E
100
AcDbEntity
  8
HIDDEN
  6
HIDDEN2
100
AcDbLine
 10
0.7863560090213646
 20
10.706088
 30
0.0
 11
0.6083560090213638
 21
10.706088
 31
0.0
  0
LINE
  5
1B7A
330
1E
100
AcDbEntity
  8
HIDDEN
  6
HIDDEN2
100
AcDbLine
 10
0.7763559992011438
 20
10.53058793959186
 30
0.0
 11
0.7763559992011438
 21
10.62458801369498
 31
0.0
  0
LINE
  5
1B7B
330
1E
100
AcDbEntity
  8
HIDDEN
  6
HIDDEN2
100
AcDbLine
 10
0.6083560090213656
 20
10.34446340596111
 30
0.0
 11
0.7763559992011438
 21
10.37967298297432
 31
0.0
  0
LINE
  5
1B7C
330
1E
100
AcDbEntity
  8
HIDDEN
  6
HIDDEN2
100
AcDbLine
 10
0.7763559992011438
 20
10.42879181554937
 30
0.0
 11
0.6083560090213638
 21
10.42879184060019
 31
0.0
  0
LINE
  5
1B7D
330
1E
100
AcDbEntity
  8
HIDDEN
  6
HIDDEN2
100
AcDbLine
 10
0.7863560090213593
 20
10.48383799999999
 30
0.0
 11
0.5683560090213593
 21
10.48383799999999
 31
0.0
  0
LINE
  5
1B7E
330
1E
100
AcDbEntity
  8
HIDDEN
  6
HIDDEN2
100
AcDbLine
 10
0.7763559992011438
 20
10.421545392594
 30
0.0
 11
0.7863560090213611
 21
10.42163265559896
 31
0.0
  0
LINE
  5
1B7F
330
1E
100
AcDbEntity
  8
HIDDEN
  6
HIDDEN2
100
AcDbLine
 10
0.7763559992011438
 20
10.37967298297432
 30
0.0
 11
0.7763559992011438
 21
10.42879181554937
 31
0.0
  0
HATCH
  5
1BD9
330
1E
100
AcDbEntity
  8
OBJECT
 62
   151
100
AcDbHatch
 10
0.0
 20
0.0
 30
0.0
210
0.0
220
0.0
230
1.0
  2
ANSI31
 70
     0
 71
     1
 91
        3
 92
        7
 72
     1
 73
     1
 93
        9
 10
13.95990580954095
 20
11.335588
 42
0.0
 10
11.28890580954095
 20
11.335588
 42
0.0
 10
11.28890580954095
 20
11.315588
 42
0.0
 10
11.24890580954095
 20
11.31558799999999
 42
0.0
 10
11.24890580954095
 20
11.270588
 42
0.0
 10
13.85290580954095
 20
11.270588
 42
0.0
 10
13.85290580954095
 20
11.182088
 42
0.0
 10
14.00990580954095
 20
11.182088
 42
0.0
 10
14.00990580954095
 20
11.285588
 42
0.4142135623730847
 97
        9
330
954
330
942
330
95E
330
960
330
961
330
943
330
959
330
940
330
95B
 92
        7
 72
     0
 73
     1
 93
       36
 10
14.00990580954095
 20
11.017088
 10
13.85290580954095
 20
11.01708799999999
 10
13.85290580954095
 20
10.940838
 10
11.24890580954095
 20
10.940838
 10
11.24890580954095
 20
10.91581
 10
11.18890580954095
 20
10.91581
 10
11.18890580954095
 20
10.87583799999999
 10
13.85290580954095
 20
10.87583799999999
 10
13.85290580954095
 20
10.81071259403888
 10
13.68490581936117
 20
10.77550301702567
 10
13.68490581936117
 20
10.73363060740599
 10
13.67490580954095
 20
10.73354334440103
 10
13.67490580954095
 20
10.671338
 10
13.89290580954095
 20
10.671338
 10
13.89290580954096
 20
10.483838
 10
13.67490580954095
 20
10.483838
 10
13.67490580954095
 20
10.42163265559896
 10
13.68490581936117
 20
10.42154536597466
 10
13.68490581936117
 20
10.37967295635498
 10
13.85290580954095
 20
10.34446337934177
 10
13.85290580954095
 20
8.231087999999999
 10
13.86490580954095
 20
8.231087999999999
 10
13.86490580954095
 20
8.141087999999999
 10
13.85290580954095
 20
8.141087999999999
 10
13.85290580954095
 20
5.888338000000002
 10
13.89290580954095
 20
5.888338000000002
 10
13.89290580954096
 20
5.700838000000002
 10
13.85290580954095
 20
5.700838000000002
 10
13.85290580954095
 20
5.496337999999998
 10
11.18890580954095
 20
5.496338
 10
11.18890580954095
 20
5.456364999999999
 10
11.24890580954095
 20
5.456364999999999
 10
11.24890580954095
 20
5.395337999999998
 10
11.56390580954095
 20
5.395337999999997
 10
11.56390580954095
 20
5.425337999999999
 10
14.00990580954095
 20
5.425337999999999
 97
       32
330
95A
330
943
330
956
330
960
330
95C
330
93F
330
955
330
962
330
1AE9
330
1AF1
330
1AF8
330
1ADC
330
1419
330
141C
330
1418
330
1AE8
330
1AE7
330
1ADD
330
9FC
330
1431
330
1432
330
1430
330
1426
330
1429
330
1425
330
946
330
951
330
941
330
953
330
94C
330
945
330
940
 92
        7
 72
     1
 73
     1
 93
        9
 10
14.00990580954095
 20
5.115337999999999
 42
0.0
 10
11.56390580954095
 20
5.115337999999999
 42
0.0
 10
11.56390580954095
 20
5.145337999999998
 42
0.0
 10
11.24890580954095
 20
5.145337999999998
 42
0.0
 10
11.24890580954095
 20
5.056588
 42
0.0
 10
11.28890580954095
 20
5.056588
 42
0.0
 10
11.28890580954095
 20
5.036588
 42
0.0
 10
13.95990580954095
 20
5.036588
 42
0.4142135623731004
 10
14.00990580954095
 20
5.086588
 42
0.0
 97
        9
330
947
330
94C
330
94F
330
941
330
94E
330
95F
330
944
330
948
330
940
 75
     0
 76
     1
 52
0.0
 41
0.625
 77
     0
 78
     1
 53
45.0
 43
0.0
 44
0.0
 45
-0.055242717280199
 46
0.055242717280199
 79
     0
 47
0.0117943357924869
 98
        3
 10
12.86387593216242
 20
11.28222486824134
 10
13.9498320934894
 20
10.27970632083036
 10
12.45074042903793
 20
5.10199288985256
  0
ENDSEC
  0
SECTION
  2
OBJECTS
  0
DICTIONARY
  5
C
330
0
100
AcDbDictionary
281
     1
  3
ACAD_GROUP
350
D
  3
ACAD_LAYOUT
350
19
  3
ACAD_MLINESTYLE
350
16
  3
ACAD_PLOTSETTINGS
350
18
  3
ACAD_PLOTSTYLENAME
350
E
  3
AcadDim
350
1517
  3
AcDbVariableDictionary
350
13DD
  0
DICTIONARY
  5
D
102
{ACAD_REACTORS
330
C
102
}
330
C
100
AcDbDictionary
281
     1
  0
DICTIONARY
  5
19
102
{ACAD_REACTORS
330
C
102
}
330
C
100
AcDbDictionary
281
     1
  3
Layout1
350
1D
  3
Model
350
21
  0
DICTIONARY
  5
16
102
{ACAD_REACTORS
330
C
102
}
330
C
100
AcDbDictionary
281
     1
  3
Standard
350
17
  0
DICTIONARY
  5
18
102
{ACAD_REACTORS
330
C
102
}
330
C
100
AcDbDictionary
281
     1
  0
ACDBDICTIONARYWDFLT
  5
E
102
{ACAD_REACTORS
330
C
102
}
330
C
100
AcDbDictionary
281
     1
  3
Normal
350
F
100
AcDbDictionaryWithDefault
340
F
  0
XRECORD
  5
1517
102
{ACAD_REACTORS
330
C
102
}
330
C
100
AcDbXrecord
280
     1
 90
   990106
  3

 60
     0
 61
     0
 62
     1
 63
     1
 64
     0
 65
     0
 66
     0
 67
     3
 68
     1
 69
     0
 70
     0
 71
     0
 72
     0
 40
0.0
170
     2
340
1763
  0
DICTIONARY
  5
13DD
102
{ACAD_REACTORS
330
C
102
}
330
C
100
AcDbDictionary
281
     1
  3
SORTENTS
350
13DE
  0
LAYOUT
  5
1D
102
{ACAD_REACTORS
330
19
102
}
330
19
100
AcDbPlotSettings
  1

  2
C:\Program Files\ACAD2000\plotters\RICOH Aficio 1060 RPCS.pc3
  4

  6

 40
0.0
 41
0.0
 42
0.0
 43
0.0
 44
0.0
 45
0.0
 46
0.0
 47
0.0
 48
0.0
 49
0.0
140
0.0
141
0.0
142
1.0
143
1.0
 70
   688
 72
     0
 73
     0
 74
     5
  7
monochrome.ctb
 75
    16
147
1.0
148
0.0
149
0.0
100
AcDbLayout
  1
Layout1
 70
     1
 71
     1
 10
0.0
 20
0.0
 11
12.0
 21
9.0
 12
0.0
 22
0.0
 32
0.0
 14
1.000000000000000E+20
 24
1.000000000000000E+20
 34
1.000000000000000E+20
 15
-1.000000000000000E+20
 25
-1.000000000000000E+20
 35
-1.000000000000000E+20
146
0.0
 13
0.0
 23
0.0
 33
0.0
 16
1.0
 26
0.0
 36
0.0
 17
0.0
 27
1.0
 37
0.0
 76
     0
330
1A
  0
LAYOUT
  5
21
102
{ACAD_REACTORS
330
19
102
}
330
19
100
AcDbPlotSettings
  1

  2
Acrobat PDFWriter
  4
Tabloid
  6

 40
3.174999952316284
 41
3.174999952316284
 42
3.17498779296875
 43
3.17498779296875
 44
431.8000183105469
 45
279.3999938964843
 46
0.0
 47
4.064
 48
0.0
 49
0.0
140
0.0
141
0.0
142
1.0
143
1.734460540734756
 70
 11956
 72
     0
 73
     0
 74
     1
  7
monochrome.ctb
 75
     0
147
0.576548140770258
148
0.0562864226278791
149
0.035019648969957
100
AcDbLayout
  1
Model
 70
     1
 71
     0
 10
0.0
 20
0.0
 11
12.0
 21
9.0
 12
0.0
 22
0.0
 32
0.0
 14
0.0
 24
0.0
 34
0.0
 15
0.0
 25
0.0
 35
0.0
146
0.0
 13
0.0
 23
0.0
 33
0.0
 16
1.0
 26
0.0
 36
0.0
 17
0.0
 27
1.0
 37
0.0
 76
     0
330
1E
  0
MLINESTYLE
  5
17
102
{ACAD_REACTORS
330
16
102
}
330
16
100
AcDbMlineStyle
  2
STANDARD
 70
     0
  3

 62
   256
 51
90.0
 52
90.0
 71
     2
 49
0.5
 62
   256
  6
BYLAYER
 49
-0.5
 62
   256
  6
BYLAYER
  0
ACDBPLACEHOLDER
  5
F
102
{ACAD_REACTORS
330
E
102
}
330
E
  0
DICTIONARYVAR
  5
13DE
102
{ACAD_REACTORS
330
13DD
102
}
330
13DD
100
DictionaryVariables
280
     0
  1
96
  0
ENDSEC
  0
EOF
