  0
SECTION
  2
HEADER
  9
$ACADVER
  1
AC1015
  9
$ACADMAINTVER
 70
     6
  9
$DWGCODEPAGE
  3
ANSI_1252
  9
$INSBASE
 10
0.0
 20
0.0
 30
0.0
  9
$EXTMIN
 10
0.0
 20
0.0
 30
-0.00000001
  9
$EXTMAX
 10
41.49999999999998
 20
25.82
 30
0.00000001
  9
$LIMMIN
 10
0.0
 20
0.0
  9
$LIMMAX
 10
34.875
 20
22.76999999999998
  9
$ORTHOMODE
 70
     1
  9
$REGENMODE
 70
     1
  9
$FILLMODE
 70
     1
  9
$QTEXTMODE
 70
     0
  9
$MIRRTEXT
 70
     0
  9
$LTSCALE
 40
0.75
  9
$ATTMODE
 70
     1
  9
$TEXTSIZE
 40
0.2
  9
$TRACEWID
 40
0.05
  9
$TEXTSTYLE
  7
TXT
  9
$CLAYER
  8
OBJECT
  9
$CELTYPE
  6
ByLayer
  9
$CECOLOR
 62
   256
  9
$CELTSCALE
 40
1.0
  9
$DISPSILH
 70
     0
  9
$DIMSCALE
 40
2.5
  9
$DIMASZ
 40
0.18
  9
$DIMEXO
 40
0.063
  9
$DIMDLI
 40
0.281
  9
$DIMRND
 40
0.0
  9
$DIMDLE
 40
0.0
  9
$DIMEXE
 40
0.093
  9
$DIMTP
 40
0.0
  9
$DIMTM
 40
0.0
  9
$DIMTXT
 40
0.125
  9
$DIMCEN
 40
0.09
  9
$DIMTSZ
 40
0.0
  9
$DIMTOL
 70
     0
  9
$DIMLIM
 70
     0
  9
$DIMTIH
 70
     1
  9
$DIMTOH
 70
     1
  9
$DIMSE1
 70
     0
  9
$DIMSE2
 70
     0
  9
$DIMTAD
 70
     0
  9
$DIMZIN
 70
     0
  9
$DIMBLK
  1

  9
$DIMASO
 70
     1
  9
$DIMSHO
 70
     1
  9
$DIMPOST
  1

  9
$DIMAPOST
  1

  9
$DIMALT
 70
     0
  9
$DIMALTD
 70
     2
  9
$DIMALTF
 40
25.4
  9
$DIMLFAC
 40
1.0
  9
$DIMTOFL
 70
     0
  9
$DIMTVP
 40
0.0
  9
$DIMTIX
 70
     0
  9
$DIMSOXD
 70
     0
  9
$DIMSAH
 70
     0
  9
$DIMBLK1
  1

  9
$DIMBLK2
  1

  9
$DIMSTYLE
  2
23NSTD
  9
$DIMCLRD
 70
     0
  9
$DIMCLRE
 70
     0
  9
$DIMCLRT
 70
     0
  9
$DIMTFAC
 40
1.0
  9
$DIMGAP
 40
0.09
  9
$DIMJUST
 70
     0
  9
$DIMSD1
 70
     0
  9
$DIMSD2
 70
     0
  9
$DIMTOLJ
 70
     1
  9
$DIMTZIN
 70
     0
  9
$DIMALTZ
 70
     0
  9
$DIMALTTZ
 70
     0
  9
$DIMUPT
 70
     0
  9
$DIMDEC
 70
     3
  9
$DIMTDEC
 70
     3
  9
$DIMALTU
 70
     2
  9
$DIMALTTD
 70
     2
  9
$DIMTXSTY
  7
TXT
  9
$DIMAUNIT
 70
     0
  9
$DIMADEC
 70
     0
  9
$DIMALTRND
 40
0.0
  9
$DIMAZIN
 70
     0
  9
$DIMDSEP
 70
    46
  9
$DIMATFIT
 70
     1
  9
$DIMFRAC
 70
     0
  9
$DIMLDRBLK
  1

  9
$DIMLUNIT
 70
     2
  9
$DIMLWD
 70
    -2
  9
$DIMLWE
 70
    -2
  9
$DIMTMOVE
 70
     0
  9
$LUNITS
 70
     2
  9
$LUPREC
 70
     8
  9
$SKETCHINC
 40
0.1
  9
$FILLETRAD
 40
0.0
  9
$AUNITS
 70
     0
  9
$AUPREC
 70
     0
  9
$MENU
  1
acad
  9
$ELEVATION
 40
0.0
  9
$PELEVATION
 40
0.0
  9
$THICKNESS
 40
0.0
  9
$LIMCHECK
 70
     0
  9
$CHAMFERA
 40
0.0
  9
$CHAMFERB
 40
0.0
  9
$CHAMFERC
 40
0.0
  9
$CHAMFERD
 40
0.0
  9
$SKPOLY
 70
     0
  9
$TDCREATE
 40
2450114.505773263
  9
$TDUCREATE
 40
2450114.714106597
  9
$TDUPDATE
 40
2454788.497628217
  9
$TDUUPDATE
 40
2454788.705961551
  9
$TDINDWG
 40
0.5679548727
  9
$TDUSRTIMER
 40
0.5679548727
  9
$USRTIMER
 70
     1
  9
$ANGBASE
 50
0.0
  9
$ANGDIR
 70
     0
  9
$PDMODE
 70
     0
  9
$PDSIZE
 40
0.0
  9
$PLINEWID
 40
0.0
  9
$SPLFRAME
 70
     0
  9
$SPLINETYPE
 70
     6
  9
$SPLINESEGS
 70
     8
  9
$HANDSEED
  5
2C1E
  9
$SURFTAB1
 70
     6
  9
$SURFTAB2
 70
     6
  9
$SURFTYPE
 70
     6
  9
$SURFU
 70
     6
  9
$SURFV
 70
     6
  9
$UCSBASE
  2

  9
$UCSNAME
  2

  9
$UCSORG
 10
0.0
 20
0.0
 30
0.0
  9
$UCSXDIR
 10
1.0
 20
0.0
 30
0.0
  9
$UCSYDIR
 10
0.0
 20
1.0
 30
0.0
  9
$UCSORTHOREF
  2

  9
$UCSORTHOVIEW
 70
     0
  9
$UCSORGTOP
 10
0.0
 20
0.0
 30
0.0
  9
$UCSORGBOTTOM
 10
0.0
 20
0.0
 30
0.0
  9
$UCSORGLEFT
 10
0.0
 20
0.0
 30
0.0
  9
$UCSORGRIGHT
 10
0.0
 20
0.0
 30
0.0
  9
$UCSORGFRONT
 10
0.0
 20
0.0
 30
0.0
  9
$UCSORGBACK
 10
0.0
 20
0.0
 30
0.0
  9
$PUCSBASE
  2

  9
$PUCSNAME
  2

  9
$PUCSORG
 10
0.0
 20
0.0
 30
0.0
  9
$PUCSXDIR
 10
1.0
 20
0.0
 30
0.0
  9
$PUCSYDIR
 10
0.0
 20
1.0
 30
0.0
  9
$PUCSORTHOREF
  2

  9
$PUCSORTHOVIEW
 70
     0
  9
$PUCSORGTOP
 10
0.0
 20
0.0
 30
0.0
  9
$PUCSORGBOTTOM
 10
0.0
 20
0.0
 30
0.0
  9
$PUCSORGLEFT
 10
0.0
 20
0.0
 30
0.0
  9
$PUCSORGRIGHT
 10
0.0
 20
0.0
 30
0.0
  9
$PUCSORGFRONT
 10
0.0
 20
0.0
 30
0.0
  9
$PUCSORGBACK
 10
0.0
 20
0.0
 30
0.0
  9
$USERI1
 70
     0
  9
$USERI2
 70
     0
  9
$USERI3
 70
     0
  9
$USERI4
 70
     0
  9
$USERI5
 70
     0
  9
$USERR1
 40
0.0
  9
$USERR2
 40
0.0
  9
$USERR3
 40
0.0
  9
$USERR4
 40
0.0
  9
$USERR5
 40
0.0
  9
$WORLDVIEW
 70
     0
  9
$SHADEDGE
 70
     3
  9
$SHADEDIF
 70
    70
  9
$TILEMODE
 70
     1
  9
$MAXACTVP
 70
    16
  9
$PINSBASE
 10
0.0
 20
0.0
 30
0.0
  9
$PLIMCHECK
 70
     0
  9
$PEXTMIN
 10
1.000000000000000E+20
 20
1.000000000000000E+20
 30
1.000000000000000E+20
  9
$PEXTMAX
 10
-1.000000000000000E+20
 20
-1.000000000000000E+20
 30
-1.000000000000000E+20
  9
$PLIMMIN
 10
0.0
 20
0.0
  9
$PLIMMAX
 10
12.0
 20
9.0
  9
$UNITMODE
 70
     0
  9
$VISRETAIN
 70
     0
  9
$PLINEGEN
 70
     0
  9
$PSLTSCALE
 70
     1
  9
$TREEDEPTH
 70
  3020
  9
$CMLSTYLE
  2
Standard
  9
$CMLJUST
 70
     0
  9
$CMLSCALE
 40
1.0
  9
$PROXYGRAPHICS
 70
     1
  9
$MEASUREMENT
 70
     0
  9
$CELWEIGHT
370
    -1
  9
$ENDCAPS
280
     0
  9
$JOINSTYLE
280
     0
  9
$LWDISPLAY
290
     0
  9
$INSUNITS
 70
     0
  9
$HYPERLINKBASE
  1

  9
$STYLESHEET
  1
monochrome.ctb
  9
$XEDIT
290
     1
  9
$CEPSNTYPE
380
     0
  9
$PSTYLEMODE
290
     1
  9
$FINGERPRINTGUID
  2
{A4359028-9ABA-11D4-81CD-00C04F604D1B}
  9
$VERSIONGUID
  2
{047B0262-C646-4D04-BA81-DB84EBCE6E28}
  9
$EXTNAMES
290
     1
  9
$PSVPSCALE
 40
0.0
  9
$OLESTARTUP
290
     0
  0
ENDSEC
  0
SECTION
  2
CLASSES
  0
CLASS
  1
ACDBDICTIONARYWDFLT
  2
AcDbDictionaryWithDefault
  3
AutoCAD 2000
 90
        0
280
     0
281
     0
  0
CLASS
  1
ACDBPLACEHOLDER
  2
AcDbPlaceHolder
  3
AutoCAD 2000
 90
        0
280
     0
281
     0
  0
CLASS
  1
LAYOUT
  2
AcDbLayout
  3
AutoCAD 2000
 90
        0
280
     0
281
     0
  0
CLASS
  1
DICTIONARYVAR
  2
AcDbDictionaryVar
  3
AutoCAD 2000
 90
        0
280
     0
281
     0
  0
ENDSEC
  0
SECTION
  2
TABLES
  0
TABLE
  2
VPORT
  5
8
330
0
100
AcDbSymbolTable
 70
     2
  0
VPORT
  5
2C1D
330
8
100
AcDbSymbolTableRecord
100
AcDbViewportTableRecord
  2
*Active
 70
     0
 10
0.0
 20
0.0
 11
1.0
 21
1.0
 12
20.75000038651952
 22
12.91000024048032
 13
0.0
 23
0.0
 14
1.0
 24
1.0
 15
0.25
 25
0.25
 16
0.0
 26
0.0
 36
1.0
 17
0.0
 27
0.0
 37
0.0
 40
26.11313313389812
 41
1.796327212020033
 42
50.0
 43
0.0
 44
0.0
 50
0.0
 51
0.0
 71
     0
 72
   500
 73
     1
 74
     0
 75
     0
 76
     0
 77
     0
 78
     0
281
     0
 65
     1
110
0.0
120
0.0
130
0.0
111
1.0
121
0.0
131
0.0
112
0.0
122
1.0
132
0.0
 79
     0
146
0.0
  0
ENDTAB
  0
TABLE
  2
LTYPE
  5
5
330
0
100
AcDbSymbolTable
 70
     4
  0
LTYPE
  5
13
330
5
100
AcDbSymbolTableRecord
100
AcDbLinetypeTableRecord
  2
ByBlock
 70
     0
  3

 72
    65
 73
     0
 40
0.0
  0
LTYPE
  5
14
330
5
100
AcDbSymbolTableRecord
100
AcDbLinetypeTableRecord
  2
ByLayer
 70
     0
  3

 72
    65
 73
     0
 40
0.0
  0
LTYPE
  5
15
330
5
100
AcDbSymbolTableRecord
100
AcDbLinetypeTableRecord
  2
CONTINUOUS
 70
     0
  3
Solid line
 72
    65
 73
     0
 40
0.0
  0
LTYPE
  5
5E
330
5
100
AcDbSymbolTableRecord
100
AcDbLinetypeTableRecord
  2
HIDDEN
 70
     0
  3
_ _ _ _ _ _ _ _ _ _ _ _ _ _ _ _ _ _ _ _ _ _ _
 72
    65
 73
     2
 40
0.375
 49
0.25
 74
     0
 49
-0.125
 74
     0
  0
LTYPE
  5
5F
330
5
100
AcDbSymbolTableRecord
100
AcDbLinetypeTableRecord
  2
PHANTOM
 70
     0
  3
_____ _ _ _____ _ _ _____ _ _ _____ _ _ ____
 72
    65
 73
     6
 40
2.5
 49
1.25
 74
     0
 49
-0.25
 74
     0
 49
0.25
 74
     0
 49
-0.25
 74
     0
 49
0.25
 74
     0
 49
-0.25
 74
     0
  0
LTYPE
  5
2BE0
330
5
100
AcDbSymbolTableRecord
100
AcDbLinetypeTableRecord
  2
HIDDEN2
 70
     0
  3
Hidden (.5x) _ _ _ _ _ _ _ _ _ _ _ _ _ _ _ _ _
 72
    65
 73
     2
 40
0.1875
 49
0.125
 74
     0
 49
-0.0625
 74
     0
  0
ENDTAB
  0
TABLE
  2
LAYER
  5
2
330
0
100
AcDbSymbolTable
 70
     8
  0
LAYER
  5
10
330
2
100
AcDbSymbolTableRecord
100
AcDbLayerTableRecord
  2
0
 70
     0
 62
     7
  6
CONTINUOUS
370
    -3
390
F
  0
LAYER
  5
66
330
2
100
AcDbSymbolTableRecord
100
AcDbLayerTableRecord
  2
OBJECT
 70
     0
 62
     7
  6
CONTINUOUS
370
    -3
390
F
  0
LAYER
  5
67
330
2
100
AcDbSymbolTableRecord
100
AcDbLayerTableRecord
  2
DIM
 70
     0
 62
     2
  6
CONTINUOUS
370
    -3
390
F
  0
LAYER
  5
68
330
2
100
AcDbSymbolTableRecord
100
AcDbLayerTableRecord
  2
HIDDEN
 70
     0
 62
     6
  6
HIDDEN
370
    -3
390
F
  0
LAYER
  5
69
330
2
100
AcDbSymbolTableRecord
100
AcDbLayerTableRecord
  2
BEND
 70
     0
 62
     4
  6
PHANTOM
370
    -3
390
F
  0
LAYER
  5
6A
330
2
100
AcDbSymbolTableRecord
100
AcDbLayerTableRecord
  2
TEXT
 70
     0
 62
     1
  6
CONTINUOUS
370
    -3
390
F
  0
LAYER
  5
6B
330
2
100
AcDbSymbolTableRecord
100
AcDbLayerTableRecord
  2
TITLE
 70
     0
 62
     8
  6
CONTINUOUS
370
    -3
390
F
  0
LAYER
  5
6C
330
2
100
AcDbSymbolTableRecord
100
AcDbLayerTableRecord
  2
DEFPOINTS
 70
     0
 62
     7
  6
CONTINUOUS
290
     0
370
    -3
390
F
  0
ENDTAB
  0
TABLE
  2
STYLE
  5
3
330
0
100
AcDbSymbolTable
 70
     2
  0
STYLE
  5
11
330
3
100
AcDbSymbolTableRecord
100
AcDbTextStyleTableRecord
  2
TXT
 70
     0
 40
0.0
 41
0.75
 50
0.0
 71
     0
 42
0.2
  3
txt.shx
  4

  0
STYLE
  5
5D
330
3
100
AcDbSymbolTableRecord
100
AcDbTextStyleTableRecord
  2
SECTION
 70
     0
 40
0.0
 41
0.8
 50
0.0
 71
     0
 42
0.2
  3
ROMANT.SHX
  4

  0
ENDTAB
  0
TABLE
  2
VIEW
  5
6
330
0
100
AcDbSymbolTable
 70
     0
  0
ENDTAB
  0
TABLE
  2
UCS
  5
7
330
0
100
AcDbSymbolTable
 70
     0
  0
ENDTAB
  0
TABLE
  2
APPID
  5
9
330
0
100
AcDbSymbolTable
 70
     1
  0
APPID
  5
12
330
9
100
AcDbSymbolTableRecord
100
AcDbRegAppTableRecord
  2
ACAD
 70
     0
  0
ENDTAB
  0
TABLE
  2
DIMSTYLE
  5
A
330
0
100
AcDbSymbolTable
 70
     4
100
AcDbDimStyleTable
 71
     4
340
62
340
63
340
65
340
64
  0
DIMSTYLE
105
62
102
{ACAD_REACTORS
330
A12
330
A13
330
A14
330
A15
330
A16
330
A17
330
A18
330
A1A
330
A1C
330
A1D
330
A1E
330
A1F
330
A20
330
A21
330
A9D
330
AE4
330
AE5
330
AE6
330
AE7
330
AEE
330
AEF
330
B1B
330
B1C
330
B1D
330
B1E
330
B41
330
B42
330
B43
330
B44
330
B45
330
B46
330
B4F
330
C07
330
C08
330
1005
330
130A
330
1322
330
110B
330
1119
330
1363
102
}
330
A
100
AcDbSymbolTableRecord
100
AcDbDimStyleTableRecord
  2
23NSTD
 70
     0
 40
2.5
 42
0.063
 43
0.281
 44
0.093
140
0.125
271
     3
272
     3
289
     1
340
11
  0
DIMSTYLE
105
63
102
{ACAD_REACTORS
330
A19
330
A1B
330
AF0
330
AFC
330
1E86
102
}
330
A
100
AcDbSymbolTableRecord
100
AcDbDimStyleTableRecord
  2
23NSTDI
 70
     0
 40
2.5
 42
0.063
 43
0.281
 44
0.093
140
0.125
174
     1
271
     3
272
     3
340
11
  0
DIMSTYLE
105
64
102
{ACAD_REACTORS
330
C77
330
C78
330
1158
102
}
330
A
100
AcDbSymbolTableRecord
100
AcDbDimStyleTableRecord
  2
23NSTD4
 70
     0
 40
2.5
 42
0.063
 43
0.281
 44
0.093
140
0.125
144
0.25
271
     3
272
     3
289
     1
340
11
  0
DIMSTYLE
105
65
102
{ACAD_REACTORS
330
C76
330
C79
102
}
330
A
100
AcDbSymbolTableRecord
100
AcDbDimStyleTableRecord
  2
23NSTD4I
 70
     0
 40
2.5
 42
0.063
 43
0.281
 44
0.093
140
0.125
144
0.25
174
     1
271
     3
272
     3
340
11
  0
ENDTAB
  0
TABLE
  2
BLOCK_RECORD
  5
1
330
0
100
AcDbSymbolTable
 70
    51
  0
BLOCK_RECORD
  5
1E
330
1
100
AcDbSymbolTableRecord
100
AcDbBlockTableRecord
  2
*Model_Space
340
21
  0
BLOCK_RECORD
  5
1A
330
1
100
AcDbSymbolTableRecord
100
AcDbBlockTableRecord
  2
*Paper_Space
340
1D
  0
BLOCK_RECORD
  5
22
330
1
100
AcDbSymbolTableRecord
100
AcDbBlockTableRecord
  2
SECTION
340
0
102
{BLKREFS
331
A97
331
A9A
331
B50
331
B53
102
}
  0
BLOCK_RECORD
  5
D1B
330
1
100
AcDbSymbolTableRecord
100
AcDbBlockTableRecord
  2
*D1
340
0
  0
BLOCK_RECORD
  5
D33
330
1
100
AcDbSymbolTableRecord
100
AcDbBlockTableRecord
  2
*D2
340
0
  0
BLOCK_RECORD
  5
D40
330
1
100
AcDbSymbolTableRecord
100
AcDbBlockTableRecord
  2
*D3
340
0
  0
BLOCK_RECORD
  5
D4D
330
1
100
AcDbSymbolTableRecord
100
AcDbBlockTableRecord
  2
*D4
340
0
  0
BLOCK_RECORD
  5
D5A
330
1
100
AcDbSymbolTableRecord
100
AcDbBlockTableRecord
  2
*D5
340
0
  0
BLOCK_RECORD
  5
D67
330
1
100
AcDbSymbolTableRecord
100
AcDbBlockTableRecord
  2
*D6
340
0
  0
BLOCK_RECORD
  5
D74
330
1
100
AcDbSymbolTableRecord
100
AcDbBlockTableRecord
  2
*D7
340
0
  0
BLOCK_RECORD
  5
D81
330
1
100
AcDbSymbolTableRecord
100
AcDbBlockTableRecord
  2
*D8
340
0
  0
BLOCK_RECORD
  5
D8E
330
1
100
AcDbSymbolTableRecord
100
AcDbBlockTableRecord
  2
*D9
340
0
  0
BLOCK_RECORD
  5
D9B
330
1
100
AcDbSymbolTableRecord
100
AcDbBlockTableRecord
  2
*D10
340
0
  0
BLOCK_RECORD
  5
DA8
330
1
100
AcDbSymbolTableRecord
100
AcDbBlockTableRecord
  2
*D11
340
0
  0
BLOCK_RECORD
  5
DB5
330
1
100
AcDbSymbolTableRecord
100
AcDbBlockTableRecord
  2
*D12
340
0
  0
BLOCK_RECORD
  5
DC2
330
1
100
AcDbSymbolTableRecord
100
AcDbBlockTableRecord
  2
*D13
340
0
  0
BLOCK_RECORD
  5
DCF
330
1
100
AcDbSymbolTableRecord
100
AcDbBlockTableRecord
  2
*D14
340
0
  0
BLOCK_RECORD
  5
DDC
330
1
100
AcDbSymbolTableRecord
100
AcDbBlockTableRecord
  2
*D15
340
0
  0
BLOCK_RECORD
  5
DE9
330
1
100
AcDbSymbolTableRecord
100
AcDbBlockTableRecord
  2
*D16
340
0
  0
BLOCK_RECORD
  5
DF6
330
1
100
AcDbSymbolTableRecord
100
AcDbBlockTableRecord
  2
*D17
340
0
  0
BLOCK_RECORD
  5
E03
330
1
100
AcDbSymbolTableRecord
100
AcDbBlockTableRecord
  2
*D18
340
0
  0
BLOCK_RECORD
  5
E11
330
1
100
AcDbSymbolTableRecord
100
AcDbBlockTableRecord
  2
*D19
340
0
  0
BLOCK_RECORD
  5
E1F
330
1
100
AcDbSymbolTableRecord
100
AcDbBlockTableRecord
  2
*D20
340
0
  0
BLOCK_RECORD
  5
E2C
330
1
100
AcDbSymbolTableRecord
100
AcDbBlockTableRecord
  2
*D21
340
0
  0
BLOCK_RECORD
  5
E3A
330
1
100
AcDbSymbolTableRecord
100
AcDbBlockTableRecord
  2
*D22
340
0
  0
BLOCK_RECORD
  5
E47
330
1
100
AcDbSymbolTableRecord
100
AcDbBlockTableRecord
  2
*D23
340
0
  0
BLOCK_RECORD
  5
E54
330
1
100
AcDbSymbolTableRecord
100
AcDbBlockTableRecord
  2
*D24
340
0
  0
BLOCK_RECORD
  5
E61
330
1
100
AcDbSymbolTableRecord
100
AcDbBlockTableRecord
  2
*D25
340
0
  0
BLOCK_RECORD
  5
E6E
330
1
100
AcDbSymbolTableRecord
100
AcDbBlockTableRecord
  2
*D26
340
0
  0
BLOCK_RECORD
  5
E7C
330
1
100
AcDbSymbolTableRecord
100
AcDbBlockTableRecord
  2
*D27
340
0
  0
BLOCK_RECORD
  5
E89
330
1
100
AcDbSymbolTableRecord
100
AcDbBlockTableRecord
  2
*D28
340
0
  0
BLOCK_RECORD
  5
E96
330
1
100
AcDbSymbolTableRecord
100
AcDbBlockTableRecord
  2
*D29
340
0
  0
BLOCK_RECORD
  5
EA3
330
1
100
AcDbSymbolTableRecord
100
AcDbBlockTableRecord
  2
*D30
340
0
  0
BLOCK_RECORD
  5
EB0
330
1
100
AcDbSymbolTableRecord
100
AcDbBlockTableRecord
  2
*D31
340
0
  0
BLOCK_RECORD
  5
EBD
330
1
100
AcDbSymbolTableRecord
100
AcDbBlockTableRecord
  2
*D32
340
0
  0
BLOCK_RECORD
  5
ED8
330
1
100
AcDbSymbolTableRecord
100
AcDbBlockTableRecord
  2
*D33
340
0
  0
BLOCK_RECORD
  5
EE5
330
1
100
AcDbSymbolTableRecord
100
AcDbBlockTableRecord
  2
*D34
340
0
  0
BLOCK_RECORD
  5
F1B
330
1
100
AcDbSymbolTableRecord
100
AcDbBlockTableRecord
  2
*D35
340
0
  0
BLOCK_RECORD
  5
F29
330
1
100
AcDbSymbolTableRecord
100
AcDbBlockTableRecord
  2
*D36
340
0
  0
BLOCK_RECORD
  5
F36
330
1
100
AcDbSymbolTableRecord
100
AcDbBlockTableRecord
  2
*D37
340
0
  0
BLOCK_RECORD
  5
F43
330
1
100
AcDbSymbolTableRecord
100
AcDbBlockTableRecord
  2
*D38
340
0
  0
BLOCK_RECORD
  5
F50
330
1
100
AcDbSymbolTableRecord
100
AcDbBlockTableRecord
  2
*D39
340
0
  0
BLOCK_RECORD
  5
F5D
330
1
100
AcDbSymbolTableRecord
100
AcDbBlockTableRecord
  2
*D40
340
0
  0
BLOCK_RECORD
  5
F84
330
1
100
AcDbSymbolTableRecord
100
AcDbBlockTableRecord
  2
*D41
340
0
  0
BLOCK_RECORD
  5
F91
330
1
100
AcDbSymbolTableRecord
100
AcDbBlockTableRecord
  2
*D42
340
0
  0
BLOCK_RECORD
  5
1006
330
1
100
AcDbSymbolTableRecord
100
AcDbBlockTableRecord
  2
*D43
340
0
  0
BLOCK_RECORD
  5
110C
330
1
100
AcDbSymbolTableRecord
100
AcDbBlockTableRecord
  2
*D44
340
0
  0
BLOCK_RECORD
  5
111A
330
1
100
AcDbSymbolTableRecord
100
AcDbBlockTableRecord
  2
*D45
340
0
  0
BLOCK_RECORD
  5
1159
330
1
100
AcDbSymbolTableRecord
100
AcDbBlockTableRecord
  2
*D46
340
0
  0
BLOCK_RECORD
  5
130B
330
1
100
AcDbSymbolTableRecord
100
AcDbBlockTableRecord
  2
*D47
340
0
  0
BLOCK_RECORD
  5
1323
330
1
100
AcDbSymbolTableRecord
100
AcDbBlockTableRecord
  2
*D48
340
0
  0
BLOCK_RECORD
  5
1BC7
330
1
100
AcDbSymbolTableRecord
100
AcDbBlockTableRecord
  2
HBS
340
0
102
{BLKREFS
331
1BE8
102
}
  0
BLOCK_RECORD
  5
1E8D
330
1
100
AcDbSymbolTableRecord
100
AcDbBlockTableRecord
  2
*D50
340
0
  0
ENDTAB
  0
ENDSEC
  0
SECTION
  2
BLOCKS
  0
BLOCK
  5
6F
330
1E
100
AcDbEntity
  8
0
100
AcDbBlockBegin
  2
*Model_Space
 70
     0
 10
0.0
 20
0.0
 30
0.0
  3
*Model_Space
  1

  0
ENDBLK
  5
70
330
1E
100
AcDbEntity
  8
0
100
AcDbBlockEnd
  0
BLOCK
  5
6D
330
1A
100
AcDbEntity
 67
     1
  8
0
100
AcDbBlockBegin
  2
*Paper_Space
 70
     0
 10
0.0
 20
0.0
 30
0.0
  3
*Paper_Space
  1

  0
ENDBLK
  5
6E
330
1A
100
AcDbEntity
 67
     1
  8
0
100
AcDbBlockEnd
  0
BLOCK
  5
71
330
22
100
AcDbEntity
  8
0
100
AcDbBlockBegin
  2
SECTION
 70
     2
 10
0.0
 20
0.0
 30
0.0
  3
SECTION
  1

  0
ATTDEF
  5
72
330
22
100
AcDbEntity
  8
0
100
AcDbText
 10
0.0
 20
0.0
 30
0.0
 40
0.25
  1

 50
270.0
 41
0.8
  7
SECTION
 72
     4
 11
0.0
 21
0.0
 31
0.0
100
AcDbAttributeDefinition
  3
Enter section
  2
SECTION
 70
     0
  0
ENDBLK
  5
74
330
22
100
AcDbEntity
  8
0
100
AcDbBlockEnd
  0
BLOCK
  5
D26
330
D1B
100
AcDbEntity
  8
0
100
AcDbBlockBegin
  2
*D1
 70
     1
 10
0.0
 20
0.0
 30
0.0
  3
*D1
  1

  0
LINE
  5
28E6
330
D1B
100
AcDbEntity
  8
DIM
 62
     0
370
    -2
100
AcDbLine
 10
4.198582240213921
 20
15.21585970879745
 30
0.0
 11
0.7655388820841031
 21
15.21585970879746
 31
0.0
  0
LINE
  5
28E7
330
D1B
100
AcDbEntity
  8
DIM
 62
     0
370
    -2
100
AcDbLine
 10
4.181332240213918
 20
15.45185970879744
 30
0.0
 11
0.7655388820841033
 21
15.45185970879744
 31
0.0
  0
LINE
  5
28E8
330
D1B
100
AcDbEntity
  8
DIM
 62
     0
370
    -2
100
AcDbLine
 10
0.998038882084103
 20
14.76585970879746
 30
0.0
 11
0.9980388820841028
 21
14.31585970879746
 31
0.0
  0
LINE
  5
28E9
330
D1B
100
AcDbEntity
  8
DIM
 62
     0
370
    -2
100
AcDbLine
 10
0.9980388820841032
 20
15.90185970879744
 30
0.0
 11
0.9980388820841032
 21
16.35185970879744
 31
0.0
  0
LINE
  5
28EA
330
D1B
100
AcDbEntity
  8
DIM
 62
     0
370
    -2
100
AcDbLine
 10
0.9980388820841032
 20
16.35185970879744
 30
0.0
 11
1.448038882084103
 21
16.35185970879744
 31
0.0
  0
SOLID
  5
28EB
330
D1B
100
AcDbEntity
  8
DIM
 62
     0
100
AcDbTrace
 10
0.923038882084103
 20
14.76585970879746
 30
0.0
 11
1.073038882084103
 21
14.76585970879746
 31
0.0
 12
0.998038882084103
 22
15.21585970879746
 32
0.0
 13
0.998038882084103
 23
15.21585970879746
 33
0.0
  0
SOLID
  5
28EC
330
D1B
100
AcDbEntity
  8
DIM
 62
     0
100
AcDbTrace
 10
0.9230388820841032
 20
15.90185970879744
 30
0.0
 11
1.073038882084103
 21
15.90185970879744
 31
0.0
 12
0.998038882084103
 22
15.45185970879744
 32
0.0
 13
0.998038882084103
 23
15.45185970879744
 33
0.0
  0
MTEXT
  5
28ED
330
D1B
100
AcDbEntity
  8
DIM
 62
     0
100
AcDbMText
 10
2.1222576320841
 20
16.35185970879744
 30
0.0
 40
0.3125
 41
0.0
 71
     5
 72
     1
  1
\A1;0.236
 73
     1
 44
1.0
  0
POINT
  5
28EE
330
D1B
100
AcDbEntity
  8
DEFPOINTS
 62
     0
100
AcDbPoint
 10
4.356082240213921
 20
15.21585970879745
 30
0.0
  0
POINT
  5
28EF
330
D1B
100
AcDbEntity
  8
DEFPOINTS
 62
     0
100
AcDbPoint
 10
4.338832240213918
 20
15.45185970879744
 30
0.0
  0
POINT
  5
28F0
330
D1B
100
AcDbEntity
  8
DEFPOINTS
 62
     0
100
AcDbPoint
 10
0.998038882084103
 20
15.45185970879744
 30
0.0
  0
ENDBLK
  5
D27
330
D1B
100
AcDbEntity
  8
0
100
AcDbBlockEnd
  0
BLOCK
  5
D3E
330
D33
100
AcDbEntity
  8
0
100
AcDbBlockBegin
  2
*D2
 70
     1
 10
0.0
 20
0.0
 30
0.0
  3
*D2
  1

  0
LINE
  5
27FE
330
D33
100
AcDbEntity
  8
DIM
 62
     0
370
    -2
100
AcDbLine
 10
4.198582240213915
 20
7.813859708797458
 30
0.0
 11
0.7655388820841016
 21
7.813859708797459
 31
0.0
  0
LINE
  5
27FF
330
D33
100
AcDbEntity
  8
DIM
 62
     0
370
    -2
100
AcDbLine
 10
4.198582240213921
 20
15.21585970879744
 30
0.0
 11
0.7655388820841031
 21
15.21585970879745
 31
0.0
  0
LINE
  5
2800
330
D33
100
AcDbEntity
  8
DIM
 62
     0
370
    -2
100
AcDbLine
 10
0.9980388820841016
 20
8.263859708797459
 30
0.0
 11
0.9980388820841021
 21
11.13360970879745
 31
0.0
  0
LINE
  5
2801
330
D33
100
AcDbEntity
  8
DIM
 62
     0
370
    -2
100
AcDbLine
 10
0.998038882084103
 20
14.76585970879745
 30
0.0
 11
0.9980388820841024
 21
11.89610970879745
 31
0.0
  0
SOLID
  5
2802
330
D33
100
AcDbEntity
  8
DIM
 62
     0
100
AcDbTrace
 10
0.9230388820841016
 20
8.263859708797459
 30
0.0
 11
1.073038882084101
 21
8.263859708797459
 31
0.0
 12
0.9980388820841014
 22
7.813859708797459
 32
0.0
 13
0.9980388820841014
 23
7.813859708797459
 33
0.0
  0
SOLID
  5
2803
330
D33
100
AcDbEntity
  8
DIM
 62
     0
100
AcDbTrace
 10
0.9230388820841032
 20
14.76585970879745
 30
0.0
 11
1.073038882084103
 21
14.76585970879745
 31
0.0
 12
0.998038882084103
 22
15.21585970879745
 32
0.0
 13
0.998038882084103
 23
15.21585970879745
 33
0.0
  0
MTEXT
  5
2804
330
D33
100
AcDbEntity
  8
DIM
 62
     0
100
AcDbMText
 10
0.9980388820841003
 20
11.51485970879745
 30
0.0
 40
0.3125
 41
0.0
 71
     5
 72
     1
  1
\A1;7.402
 73
     1
 44
1.0
  0
POINT
  5
2805
330
D33
100
AcDbEntity
  8
DEFPOINTS
 62
     0
100
AcDbPoint
 10
4.356082240213915
 20
7.813859708797458
 30
0.0
  0
POINT
  5
2806
330
D33
100
AcDbEntity
  8
DEFPOINTS
 62
     0
100
AcDbPoint
 10
4.356082240213921
 20
15.21585970879744
 30
0.0
  0
POINT
  5
2807
330
D33
100
AcDbEntity
  8
DEFPOINTS
 62
     0
100
AcDbPoint
 10
0.998038882084103
 20
15.21585970879745
 30
0.0
  0
ENDBLK
  5
D3F
330
D33
100
AcDbEntity
  8
0
100
AcDbBlockEnd
  0
BLOCK
  5
D4B
330
D40
100
AcDbEntity
  8
0
100
AcDbBlockBegin
  2
*D3
 70
     1
 10
0.0
 20
0.0
 30
0.0
  3
*D3
  1

  0
LINE
  5
28DC
330
D40
100
AcDbEntity
  8
DIM
 62
     0
370
    -2
100
AcDbLine
 10
4.356082240213921
 20
15.37335970879744
 30
0.0
 11
4.356082240213921
 21
18.73943563404265
 31
0.0
  0
LINE
  5
28DD
330
D40
100
AcDbEntity
  8
DIM
 62
     0
370
    -2
100
AcDbLine
 10
4.120082240213918
 20
15.39060970879744
 30
0.0
 11
4.120082240213918
 21
18.73943563404265
 31
0.0
  0
LINE
  5
28DE
330
D40
100
AcDbEntity
  8
DIM
 62
     0
370
    -2
100
AcDbLine
 10
4.806082240213921
 20
18.50693563404266
 30
0.0
 11
5.25608224021392
 21
18.50693563404266
 31
0.0
  0
LINE
  5
28DF
330
D40
100
AcDbEntity
  8
DIM
 62
     0
370
    -2
100
AcDbLine
 10
3.670082240213917
 20
18.50693563404266
 30
0.0
 11
3.220082240213918
 21
18.50693563404266
 31
0.0
  0
SOLID
  5
28E0
330
D40
100
AcDbEntity
  8
DIM
 62
     0
100
AcDbTrace
 10
4.806082240213921
 20
18.58193563404265
 30
0.0
 11
4.806082240213921
 21
18.43193563404265
 31
0.0
 12
4.356082240213921
 22
18.50693563404266
 32
0.0
 13
4.356082240213921
 23
18.50693563404266
 33
0.0
  0
SOLID
  5
28E1
330
D40
100
AcDbEntity
  8
DIM
 62
     0
100
AcDbTrace
 10
3.670082240213917
 20
18.58193563404265
 30
0.0
 11
3.670082240213917
 21
18.43193563404265
 31
0.0
 12
4.120082240213918
 22
18.50693563404266
 32
0.0
 13
4.120082240213918
 23
18.50693563404266
 33
0.0
  0
MTEXT
  5
28E2
330
D40
100
AcDbEntity
  8
DIM
 62
     0
100
AcDbMText
 10
2.545863490213918
 20
18.50693563404266
 30
0.0
 40
0.3125
 41
0.0
 71
     5
 72
     1
  1
\A1;0.236
 73
     1
 44
1.0
  0
POINT
  5
28E3
330
D40
100
AcDbEntity
  8
DEFPOINTS
 62
     0
100
AcDbPoint
 10
4.356082240213921
 20
15.21585970879744
 30
0.0
  0
POINT
  5
28E4
330
D40
100
AcDbEntity
  8
DEFPOINTS
 62
     0
100
AcDbPoint
 10
4.120082240213918
 20
15.23310970879744
 30
0.0
  0
POINT
  5
28E5
330
D40
100
AcDbEntity
  8
DEFPOINTS
 62
     0
100
AcDbPoint
 10
4.120082240213918
 20
18.50693563404266
 30
0.0
  0
ENDBLK
  5
D4C
330
D40
100
AcDbEntity
  8
0
100
AcDbBlockEnd
  0
BLOCK
  5
D58
330
D4D
100
AcDbEntity
  8
0
100
AcDbBlockBegin
  2
*D4
 70
     1
 10
0.0
 20
0.0
 30
0.0
  3
*D4
  1

  0
LINE
  5
2905
330
D4D
100
AcDbEntity
  8
DIM
 62
     0
370
    -2
100
AcDbLine
 10
4.711082240213912
 20
15.37335970879744
 30
0.0
 11
4.711082240213912
 21
18.10718563404265
 31
0.0
  0
LINE
  5
2906
330
D4D
100
AcDbEntity
  8
DIM
 62
     0
370
    -2
100
AcDbLine
 10
4.120082240213918
 20
15.39060970879744
 30
0.0
 11
4.120082240213918
 21
18.10718563404265
 31
0.0
  0
LINE
  5
2907
330
D4D
100
AcDbEntity
  8
DIM
 62
     0
370
    -2
100
AcDbLine
 10
5.161082240213912
 20
17.87468563404265
 30
0.0
 11
5.611082240213912
 21
17.87468563404265
 31
0.0
  0
LINE
  5
2908
330
D4D
100
AcDbEntity
  8
DIM
 62
     0
370
    -2
100
AcDbLine
 10
3.670082240213917
 20
17.87468563404265
 30
0.0
 11
3.220082240213918
 21
17.87468563404265
 31
0.0
  0
SOLID
  5
2909
330
D4D
100
AcDbEntity
  8
DIM
 62
     0
100
AcDbTrace
 10
5.161082240213912
 20
17.94968563404266
 30
0.0
 11
5.161082240213912
 21
17.79968563404266
 31
0.0
 12
4.711082240213912
 22
17.87468563404265
 32
0.0
 13
4.711082240213912
 23
17.87468563404265
 33
0.0
  0
SOLID
  5
290A
330
D4D
100
AcDbEntity
  8
DIM
 62
     0
100
AcDbTrace
 10
3.670082240213917
 20
17.94968563404266
 30
0.0
 11
3.670082240213917
 21
17.79968563404266
 31
0.0
 12
4.120082240213918
 22
17.87468563404265
 32
0.0
 13
4.120082240213918
 23
17.87468563404265
 33
0.0
  0
MTEXT
  5
290B
330
D4D
100
AcDbEntity
  8
DIM
 62
     0
100
AcDbMText
 10
2.584925990213918
 20
17.87468563404265
 30
0.0
 40
0.3125
 41
0.0
 71
     5
 72
     1
  1
\A1;0.591
 73
     1
 44
1.0
  0
POINT
  5
290C
330
D4D
100
AcDbEntity
  8
DEFPOINTS
 62
     0
100
AcDbPoint
 10
4.711082240213912
 20
15.21585970879744
 30
0.0
  0
POINT
  5
290D
330
D4D
100
AcDbEntity
  8
DEFPOINTS
 62
     0
100
AcDbPoint
 10
4.120082240213918
 20
15.23310970879744
 30
0.0
  0
POINT
  5
290E
330
D4D
100
AcDbEntity
  8
DEFPOINTS
 62
     0
100
AcDbPoint
 10
4.120082240213918
 20
17.87468563404265
 30
0.0
  0
ENDBLK
  5
D59
330
D4D
100
AcDbEntity
  8
0
100
AcDbBlockEnd
  0
BLOCK
  5
D65
330
D5A
100
AcDbEntity
  8
0
100
AcDbBlockBegin
  2
*D5
 70
     1
 10
0.0
 20
0.0
 30
0.0
  3
*D5
  1

  0
LINE
  5
2BFD
330
D5A
100
AcDbEntity
  8
DIM
 62
     0
370
    -2
100
AcDbLine
 10
4.711082240213912
 20
15.37335970879744
 30
0.0
 11
4.711082240213912
 21
18.10718563404265
 31
0.0
  0
LINE
  5
2BFE
330
D5A
100
AcDbEntity
  8
DIM
 62
     0
370
    -2
100
AcDbLine
 10
8.252769104237756
 20
15.37330541473624
 30
0.0
 11
8.252769104237756
 21
18.10718563404265
 31
0.0
  0
LINE
  5
2BFF
330
D5A
100
AcDbEntity
  8
DIM
 62
     0
370
    -2
100
AcDbLine
 10
5.161082240213912
 20
17.87468563404265
 30
0.0
 11
5.788175672225834
 21
17.87468563404265
 31
0.0
  0
LINE
  5
2C00
330
D5A
100
AcDbEntity
  8
DIM
 62
     0
370
    -2
100
AcDbLine
 10
7.802769104237756
 20
17.87468563404265
 30
0.0
 11
7.175675672225834
 21
17.87468563404265
 31
0.0
  0
SOLID
  5
2C01
330
D5A
100
AcDbEntity
  8
DIM
 62
     0
100
AcDbTrace
 10
5.161082240213912
 20
17.94968563404266
 30
0.0
 11
5.161082240213912
 21
17.79968563404266
 31
0.0
 12
4.711082240213912
 22
17.87468563404265
 32
0.0
 13
4.711082240213912
 23
17.87468563404265
 33
0.0
  0
SOLID
  5
2C02
330
D5A
100
AcDbEntity
  8
DIM
 62
     0
100
AcDbTrace
 10
7.802769104237756
 20
17.94968563404266
 30
0.0
 11
7.802769104237756
 21
17.79968563404266
 31
0.0
 12
8.252769104237756
 22
17.87468563404265
 32
0.0
 13
8.252769104237756
 23
17.87468563404265
 33
0.0
  0
MTEXT
  5
2C03
330
D5A
100
AcDbEntity
  8
DIM
 62
     0
100
AcDbMText
 10
6.481925672225834
 20
17.87468563404265
 30
0.0
 40
0.3125
 41
0.0
 71
     5
 72
     1
  1
\A1;3.542
 73
     1
 44
1.0
  0
POINT
  5
2C04
330
D5A
100
AcDbEntity
  8
DEFPOINTS
 62
     0
100
AcDbPoint
 10
4.711082240213912
 20
15.21585970879744
 30
0.0
  0
POINT
  5
2C05
330
D5A
100
AcDbEntity
  8
DEFPOINTS
 62
     0
100
AcDbPoint
 10
8.252769104237756
 20
15.21580541473624
 30
0.0
  0
POINT
  5
2C06
330
D5A
100
AcDbEntity
  8
DEFPOINTS
 62
     0
100
AcDbPoint
 10
8.252769104237756
 20
17.87468563404265
 30
0.0
  0
ENDBLK
  5
D66
330
D5A
100
AcDbEntity
  8
0
100
AcDbBlockEnd
  0
BLOCK
  5
D72
330
D67
100
AcDbEntity
  8
0
100
AcDbBlockBegin
  2
*D6
 70
     1
 10
0.0
 20
0.0
 30
0.0
  3
*D6
  1

  0
LINE
  5
28C8
330
D67
100
AcDbEntity
  8
DIM
 62
     0
370
    -2
100
AcDbLine
 10
4.356082240213921
 20
15.37335970879744
 30
0.0
 11
4.356082240213921
 21
18.73943563404265
 31
0.0
  0
LINE
  5
28C9
330
D67
100
AcDbEntity
  8
DIM
 62
     0
370
    -2
100
AcDbLine
 10
8.608082240213914
 20
15.37335970879744
 30
0.0
 11
8.608082240213914
 21
18.73943563404265
 31
0.0
  0
LINE
  5
28CA
330
D67
100
AcDbEntity
  8
DIM
 62
     0
370
    -2
100
AcDbLine
 10
4.806082240213921
 20
18.50693563404266
 30
0.0
 11
5.788332240213918
 21
18.50693563404266
 31
0.0
  0
LINE
  5
28CB
330
D67
100
AcDbEntity
  8
DIM
 62
     0
370
    -2
100
AcDbLine
 10
8.158082240213914
 20
18.50693563404266
 30
0.0
 11
7.175832240213917
 21
18.50693563404266
 31
0.0
  0
SOLID
  5
28CC
330
D67
100
AcDbEntity
  8
DIM
 62
     0
100
AcDbTrace
 10
4.806082240213921
 20
18.58193563404265
 30
0.0
 11
4.806082240213921
 21
18.43193563404265
 31
0.0
 12
4.356082240213921
 22
18.50693563404266
 32
0.0
 13
4.356082240213921
 23
18.50693563404266
 33
0.0
  0
SOLID
  5
28CD
330
D67
100
AcDbEntity
  8
DIM
 62
     0
100
AcDbTrace
 10
8.158082240213914
 20
18.58193563404265
 30
0.0
 11
8.158082240213914
 21
18.43193563404265
 31
0.0
 12
8.608082240213914
 22
18.50693563404266
 32
0.0
 13
8.608082240213914
 23
18.50693563404266
 33
0.0
  0
MTEXT
  5
28CE
330
D67
100
AcDbEntity
  8
DIM
 62
     0
100
AcDbMText
 10
6.482082240213918
 20
18.50693563404266
 30
0.0
 40
0.3125
 41
0.0
 71
     5
 72
     1
  1
\A1;4.252
 73
     1
 44
1.0
  0
POINT
  5
28CF
330
D67
100
AcDbEntity
  8
DEFPOINTS
 62
     0
100
AcDbPoint
 10
4.356082240213921
 20
15.21585970879744
 30
0.0
  0
POINT
  5
28D0
330
D67
100
AcDbEntity
  8
DEFPOINTS
 62
     0
100
AcDbPoint
 10
8.608082240213914
 20
15.21585970879744
 30
0.0
  0
POINT
  5
28D1
330
D67
100
AcDbEntity
  8
DEFPOINTS
 62
     0
100
AcDbPoint
 10
8.608082240213914
 20
18.50693563404266
 30
0.0
  0
ENDBLK
  5
D73
330
D67
100
AcDbEntity
  8
0
100
AcDbBlockEnd
  0
BLOCK
  5
D7F
330
D74
100
AcDbEntity
  8
0
100
AcDbBlockBegin
  2
*D7
 70
     1
 10
0.0
 20
0.0
 30
0.0
  3
*D7
  1

  0
LINE
  5
2863
330
D74
100
AcDbEntity
  8
DIM
 62
     0
370
    -2
100
AcDbLine
 10
4.959082240213915
 20
7.648359708797459
 30
0.0
 11
4.959082240213915
 21
5.758526496969048
 31
0.0
  0
LINE
  5
2864
330
D74
100
AcDbEntity
  8
DIM
 62
     0
370
    -2
100
AcDbLine
 10
4.120082240213918
 20
7.639109708797458
 30
0.0
 11
4.120082240213918
 21
5.758526496969048
 31
0.0
  0
LINE
  5
2865
330
D74
100
AcDbEntity
  8
DIM
 62
     0
370
    -2
100
AcDbLine
 10
5.409082240213916
 20
5.991026496969048
 30
0.0
 11
5.859082240213915
 21
5.991026496969048
 31
0.0
  0
LINE
  5
2866
330
D74
100
AcDbEntity
  8
DIM
 62
     0
370
    -2
100
AcDbLine
 10
3.670082240213917
 20
5.991026496969048
 30
0.0
 11
3.220082240213918
 21
5.991026496969048
 31
0.0
  0
SOLID
  5
2867
330
D74
100
AcDbEntity
  8
DIM
 62
     0
100
AcDbTrace
 10
5.409082240213916
 20
6.066026496969048
 30
0.0
 11
5.409082240213916
 21
5.916026496969048
 31
0.0
 12
4.959082240213915
 22
5.991026496969048
 32
0.0
 13
4.959082240213915
 23
5.991026496969048
 33
0.0
  0
SOLID
  5
2868
330
D74
100
AcDbEntity
  8
DIM
 62
     0
100
AcDbTrace
 10
3.670082240213917
 20
6.066026496969048
 30
0.0
 11
3.670082240213917
 21
5.916026496969048
 31
0.0
 12
4.120082240213918
 22
5.991026496969048
 32
0.0
 13
4.120082240213918
 23
5.991026496969048
 33
0.0
  0
MTEXT
  5
2869
330
D74
100
AcDbEntity
  8
DIM
 62
     0
100
AcDbMText
 10
2.545863490213918
 20
5.991026496969048
 30
0.0
 40
0.3125
 41
0.0
 71
     5
 72
     1
  1
\A1;0.839
 73
     1
 44
1.0
  0
POINT
  5
286A
330
D74
100
AcDbEntity
  8
DEFPOINTS
 62
     0
100
AcDbPoint
 10
4.959082240213915
 20
7.805859708797459
 30
0.0
  0
POINT
  5
286B
330
D74
100
AcDbEntity
  8
DEFPOINTS
 62
     0
100
AcDbPoint
 10
4.120082240213918
 20
7.796609708797458
 30
0.0
  0
POINT
  5
286C
330
D74
100
AcDbEntity
  8
DEFPOINTS
 62
     0
100
AcDbPoint
 10
4.120082240213918
 20
5.991026496969048
 30
0.0
  0
ENDBLK
  5
D80
330
D74
100
AcDbEntity
  8
0
100
AcDbBlockEnd
  0
BLOCK
  5
D8C
330
D81
100
AcDbEntity
  8
0
100
AcDbBlockBegin
  2
*D8
 70
     1
 10
0.0
 20
0.0
 30
0.0
  3
*D8
  1

  0
LINE
  5
2830
330
D81
100
AcDbEntity
  8
DIM
 62
     0
370
    -2
100
AcDbLine
 10
4.120082240213918
 20
7.639109708797458
 30
0.0
 11
4.120082240213918
 21
5.075626449245421
 31
0.0
  0
LINE
  5
2831
330
D81
100
AcDbEntity
  8
DIM
 62
     0
370
    -2
100
AcDbLine
 10
8.844082240213914
 20
7.639109708797458
 30
0.0
 11
8.844082240213914
 21
5.075626449245421
 31
0.0
  0
LINE
  5
2832
330
D81
100
AcDbEntity
  8
DIM
 62
     0
370
    -2
100
AcDbLine
 10
4.570082240213918
 20
5.30812644924542
 30
0.0
 11
5.788332240213916
 21
5.30812644924542
 31
0.0
  0
LINE
  5
2833
330
D81
100
AcDbEntity
  8
DIM
 62
     0
370
    -2
100
AcDbLine
 10
8.394082240213915
 20
5.30812644924542
 30
0.0
 11
7.175832240213916
 21
5.30812644924542
 31
0.0
  0
SOLID
  5
2834
330
D81
100
AcDbEntity
  8
DIM
 62
     0
100
AcDbTrace
 10
4.570082240213918
 20
5.383126449245421
 30
0.0
 11
4.570082240213918
 21
5.23312644924542
 31
0.0
 12
4.120082240213918
 22
5.30812644924542
 32
0.0
 13
4.120082240213918
 23
5.30812644924542
 33
0.0
  0
SOLID
  5
2835
330
D81
100
AcDbEntity
  8
DIM
 62
     0
100
AcDbTrace
 10
8.394082240213915
 20
5.383126449245421
 30
0.0
 11
8.394082240213915
 21
5.23312644924542
 31
0.0
 12
8.844082240213914
 22
5.30812644924542
 32
0.0
 13
8.844082240213914
 23
5.30812644924542
 33
0.0
  0
MTEXT
  5
2836
330
D81
100
AcDbEntity
  8
DIM
 62
     0
100
AcDbMText
 10
6.482082240213916
 20
5.30812644924542
 30
0.0
 40
0.3125
 41
0.0
 71
     5
 72
     1
  1
\A1;4.724
 73
     1
 44
1.0
  0
POINT
  5
2837
330
D81
100
AcDbEntity
  8
DEFPOINTS
 62
     0
100
AcDbPoint
 10
4.120082240213918
 20
7.796609708797458
 30
0.0
  0
POINT
  5
2838
330
D81
100
AcDbEntity
  8
DEFPOINTS
 62
     0
100
AcDbPoint
 10
8.844082240213914
 20
7.796609708797458
 30
0.0
  0
POINT
  5
2839
330
D81
100
AcDbEntity
  8
DEFPOINTS
 62
     0
100
AcDbPoint
 10
8.844082240213914
 20
5.30812644924542
 30
0.0
  0
ENDBLK
  5
D8D
330
D81
100
AcDbEntity
  8
0
100
AcDbBlockEnd
  0
BLOCK
  5
D99
330
D8E
100
AcDbEntity
  8
0
100
AcDbBlockBegin
  2
*D9
 70
     1
 10
0.0
 20
0.0
 30
0.0
  3
*D9
  1

  0
LINE
  5
2826
330
D8E
100
AcDbEntity
  8
DIM
 62
     0
370
    -2
100
AcDbLine
 10
8.773332240213912
 20
8.055609708797462
 30
0.0
 11
10.19925954699323
 21
8.055609708797462
 31
0.0
  0
LINE
  5
2827
330
D8E
100
AcDbEntity
  8
DIM
 62
     0
370
    -2
100
AcDbLine
 10
8.773332240213912
 20
14.97410970879744
 30
0.0
 11
10.19925954699323
 21
14.97410970879744
 31
0.0
  0
LINE
  5
2828
330
D8E
100
AcDbEntity
  8
DIM
 62
     0
370
    -2
100
AcDbLine
 10
9.966759546993232
 20
8.505609708797461
 30
0.0
 11
9.966759546993232
 21
11.13360970879745
 31
0.0
  0
LINE
  5
2829
330
D8E
100
AcDbEntity
  8
DIM
 62
     0
370
    -2
100
AcDbLine
 10
9.966759546993234
 20
14.52410970879744
 30
0.0
 11
9.966759546993232
 21
11.89610970879745
 31
0.0
  0
SOLID
  5
282A
330
D8E
100
AcDbEntity
  8
DIM
 62
     0
100
AcDbTrace
 10
9.891759546993233
 20
8.505609708797461
 30
0.0
 11
10.04175954699323
 21
8.505609708797461
 31
0.0
 12
9.966759546993232
 22
8.055609708797462
 32
0.0
 13
9.966759546993232
 23
8.055609708797462
 33
0.0
  0
SOLID
  5
282B
330
D8E
100
AcDbEntity
  8
DIM
 62
     0
100
AcDbTrace
 10
9.891759546993235
 20
14.52410970879744
 30
0.0
 11
10.04175954699323
 21
14.52410970879744
 31
0.0
 12
9.966759546993234
 22
14.97410970879744
 32
0.0
 13
9.966759546993234
 23
14.97410970879744
 33
0.0
  0
MTEXT
  5
282C
330
D8E
100
AcDbEntity
  8
DIM
 62
     0
100
AcDbMText
 10
9.96675954699323
 20
11.51485970879745
 30
0.0
 40
0.3125
 41
0.0
 71
     5
 72
     1
  1
\A1;6.919
 73
     1
 44
1.0
  0
POINT
  5
282D
330
D8E
100
AcDbEntity
  8
DEFPOINTS
 62
     0
100
AcDbPoint
 10
8.615832240213912
 20
8.055609708797462
 30
0.0
  0
POINT
  5
282E
330
D8E
100
AcDbEntity
  8
DEFPOINTS
 62
     0
100
AcDbPoint
 10
8.615832240213912
 20
14.97410970879744
 30
0.0
  0
POINT
  5
282F
330
D8E
100
AcDbEntity
  8
DEFPOINTS
 62
     0
100
AcDbPoint
 10
9.966759546993234
 20
14.97410970879744
 30
0.0
  0
ENDBLK
  5
D9A
330
D8E
100
AcDbEntity
  8
0
100
AcDbBlockEnd
  0
BLOCK
  5
DA6
330
D9B
100
AcDbEntity
  8
0
100
AcDbBlockBegin
  2
*D10
 70
     1
 10
0.0
 20
0.0
 30
0.0
  3
*D10
  1

  0
LINE
  5
2808
330
D9B
100
AcDbEntity
  8
DIM
 62
     0
370
    -2
100
AcDbLine
 10
8.90883224021392
 20
7.577859708797458
 30
0.0
 11
11.56697609779799
 21
7.577859708797457
 31
0.0
  0
LINE
  5
2809
330
D9B
100
AcDbEntity
  8
DIM
 62
     0
370
    -2
100
AcDbLine
 10
8.782832240213915
 20
15.45185970879744
 30
0.0
 11
11.56697609779799
 21
15.45185970879744
 31
0.0
  0
LINE
  5
280A
330
D9B
100
AcDbEntity
  8
DIM
 62
     0
370
    -2
100
AcDbLine
 10
11.33447609779799
 20
8.027859708797457
 30
0.0
 11
11.33447609779799
 21
11.13360970879745
 31
0.0
  0
LINE
  5
280B
330
D9B
100
AcDbEntity
  8
DIM
 62
     0
370
    -2
100
AcDbLine
 10
11.33447609779799
 20
15.00185970879744
 30
0.0
 11
11.33447609779799
 21
11.89610970879745
 31
0.0
  0
SOLID
  5
280C
330
D9B
100
AcDbEntity
  8
DIM
 62
     0
100
AcDbTrace
 10
11.25947609779799
 20
8.027859708797457
 30
0.0
 11
11.40947609779799
 21
8.027859708797457
 31
0.0
 12
11.33447609779799
 22
7.577859708797457
 32
0.0
 13
11.33447609779799
 23
7.577859708797457
 33
0.0
  0
SOLID
  5
280D
330
D9B
100
AcDbEntity
  8
DIM
 62
     0
100
AcDbTrace
 10
11.25947609779799
 20
15.00185970879744
 30
0.0
 11
11.40947609779799
 21
15.00185970879744
 31
0.0
 12
11.33447609779799
 22
15.45185970879744
 32
0.0
 13
11.33447609779799
 23
15.45185970879744
 33
0.0
  0
MTEXT
  5
280E
330
D9B
100
AcDbEntity
  8
DIM
 62
     0
100
AcDbMText
 10
11.33447609779798
 20
11.51485970879745
 30
0.0
 40
0.3125
 41
0.0
 71
     5
 72
     1
  1
\A1;7.874
 73
     1
 44
1.0
  0
POINT
  5
280F
330
D9B
100
AcDbEntity
  8
DEFPOINTS
 62
     0
100
AcDbPoint
 10
8.751332240213919
 20
7.577859708797458
 30
0.0
  0
POINT
  5
2810
330
D9B
100
AcDbEntity
  8
DEFPOINTS
 62
     0
100
AcDbPoint
 10
8.625332240213914
 20
15.45185970879744
 30
0.0
  0
POINT
  5
2811
330
D9B
100
AcDbEntity
  8
DEFPOINTS
 62
     0
100
AcDbPoint
 10
11.33447609779799
 20
15.45185970879744
 30
0.0
  0
ENDBLK
  5
DA7
330
D9B
100
AcDbEntity
  8
0
100
AcDbBlockEnd
  0
BLOCK
  5
DB3
330
DA8
100
AcDbEntity
  8
0
100
AcDbBlockBegin
  2
*D11
 70
     1
 10
0.0
 20
0.0
 30
0.0
  3
*D11
  1

  0
LINE
  5
2B18
330
DA8
100
AcDbEntity
  8
DIM
 62
     0
370
    -2
100
AcDbLine
 10
4.544582240213911
 20
8.35285970879746
 30
0.0
 11
3.063821003518148
 21
8.352859708797462
 31
0.0
  0
LINE
  5
2B19
330
DA8
100
AcDbEntity
  8
DIM
 62
     0
370
    -2
100
AcDbLine
 10
4.181332240213918
 20
7.577859708797458
 30
0.0
 11
3.063821003518148
 21
7.577859708797458
 31
0.0
  0
LINE
  5
2B1A
330
DA8
100
AcDbEntity
  8
DIM
 62
     0
370
    -2
100
AcDbLine
 10
3.296321003518148
 20
8.802859708797461
 30
0.0
 11
3.296321003518149
 21
9.252859708797462
 31
0.0
  0
LINE
  5
2B1B
330
DA8
100
AcDbEntity
  8
DIM
 62
     0
370
    -2
100
AcDbLine
 10
3.296321003518148
 20
7.127859708797458
 30
0.0
 11
3.296321003518148
 21
6.677859708797458
 31
0.0
  0
LINE
  5
2B1C
330
DA8
100
AcDbEntity
  8
DIM
 62
     0
370
    -2
100
AcDbLine
 10
3.296321003518148
 20
6.677859708797458
 30
0.0
 11
2.846321003518148
 21
6.677859708797458
 31
0.0
  0
SOLID
  5
2B1D
330
DA8
100
AcDbEntity
  8
DIM
 62
     0
100
AcDbTrace
 10
3.221321003518148
 20
8.802859708797461
 30
0.0
 11
3.371321003518148
 21
8.802859708797461
 31
0.0
 12
3.296321003518148
 22
8.352859708797462
 32
0.0
 13
3.296321003518148
 23
8.352859708797462
 33
0.0
  0
SOLID
  5
2B1E
330
DA8
100
AcDbEntity
  8
DIM
 62
     0
100
AcDbTrace
 10
3.221321003518148
 20
7.127859708797458
 30
0.0
 11
3.371321003518148
 21
7.127859708797458
 31
0.0
 12
3.296321003518148
 22
7.577859708797458
 32
0.0
 13
3.296321003518148
 23
7.577859708797458
 33
0.0
  0
MTEXT
  5
2B1F
330
DA8
100
AcDbEntity
  8
DIM
 62
     0
100
AcDbMText
 10
2.172102253518147
 20
6.677859708797459
 30
0.0
 40
0.3125
 41
0.0
 71
     5
 72
     1
  1
\A1;0.775
 73
     1
 44
1.0
  0
POINT
  5
2B20
330
DA8
100
AcDbEntity
  8
DEFPOINTS
 62
     0
100
AcDbPoint
 10
4.70208224021391
 20
8.35285970879746
 30
0.0
  0
POINT
  5
2B21
330
DA8
100
AcDbEntity
  8
DEFPOINTS
 62
     0
100
AcDbPoint
 10
4.338832240213918
 20
7.577859708797458
 30
0.0
  0
POINT
  5
2B22
330
DA8
100
AcDbEntity
  8
DEFPOINTS
 62
     0
100
AcDbPoint
 10
3.296321003518148
 20
7.577859708797458
 30
0.0
  0
ENDBLK
  5
DB4
330
DA8
100
AcDbEntity
  8
0
100
AcDbBlockEnd
  0
BLOCK
  5
DC0
330
DB5
100
AcDbEntity
  8
0
100
AcDbBlockBegin
  2
*D12
 70
     1
 10
0.0
 20
0.0
 30
0.0
  3
*D12
  1

  0
LINE
  5
2B0E
330
DB5
100
AcDbEntity
  8
DIM
 62
     0
370
    -2
100
AcDbLine
 10
4.85958224021391
 20
8.35285970879746
 30
0.0
 11
5.473468810992773
 21
8.35285970879746
 31
0.0
  0
LINE
  5
2B0F
330
DB5
100
AcDbEntity
  8
DIM
 62
     0
370
    -2
100
AcDbLine
 10
4.85958224021391
 20
14.67685970879745
 30
0.0
 11
5.473468810992775
 21
14.67685970879745
 31
0.0
  0
LINE
  5
2B10
330
DB5
100
AcDbEntity
  8
DIM
 62
     0
370
    -2
100
AcDbLine
 10
5.240968810992773
 20
8.802859708797459
 30
0.0
 11
5.240968810992774
 21
11.13360970879746
 31
0.0
  0
LINE
  5
2B11
330
DB5
100
AcDbEntity
  8
DIM
 62
     0
370
    -2
100
AcDbLine
 10
5.240968810992775
 20
14.22685970879745
 30
0.0
 11
5.240968810992774
 21
11.89610970879745
 31
0.0
  0
SOLID
  5
2B12
330
DB5
100
AcDbEntity
  8
DIM
 62
     0
100
AcDbTrace
 10
5.165968810992773
 20
8.802859708797459
 30
0.0
 11
5.315968810992774
 21
8.802859708797459
 31
0.0
 12
5.240968810992773
 22
8.35285970879746
 32
0.0
 13
5.240968810992773
 23
8.35285970879746
 33
0.0
  0
SOLID
  5
2B13
330
DB5
100
AcDbEntity
  8
DIM
 62
     0
100
AcDbTrace
 10
5.165968810992775
 20
14.22685970879745
 30
0.0
 11
5.315968810992775
 21
14.22685970879745
 31
0.0
 12
5.240968810992775
 22
14.67685970879745
 32
0.0
 13
5.240968810992775
 23
14.67685970879745
 33
0.0
  0
MTEXT
  5
2B14
330
DB5
100
AcDbEntity
  8
DIM
 62
     0
100
AcDbMText
 10
5.240968810992773
 20
11.51485970879746
 30
0.0
 40
0.3125
 41
0.0
 71
     5
 72
     1
  1
\A1;6.324
 73
     1
 44
1.0
  0
POINT
  5
2B15
330
DB5
100
AcDbEntity
  8
DEFPOINTS
 62
     0
100
AcDbPoint
 10
4.70208224021391
 20
8.35285970879746
 30
0.0
  0
POINT
  5
2B16
330
DB5
100
AcDbEntity
  8
DEFPOINTS
 62
     0
100
AcDbPoint
 10
4.70208224021391
 20
14.67685970879745
 30
0.0
  0
POINT
  5
2B17
330
DB5
100
AcDbEntity
  8
DEFPOINTS
 62
     0
100
AcDbPoint
 10
5.240968810992775
 20
14.67685970879745
 30
0.0
  0
ENDBLK
  5
DC1
330
DB5
100
AcDbEntity
  8
0
100
AcDbBlockEnd
  0
BLOCK
  5
DCD
330
DC2
100
AcDbEntity
  8
0
100
AcDbBlockBegin
  2
*D13
 70
     1
 10
0.0
 20
0.0
 30
0.0
  3
*D13
  1

  0
LINE
  5
2878
330
DC2
100
AcDbEntity
  8
DIM
 62
     0
370
    -2
100
AcDbLine
 10
4.250082240213913
 20
9.631342092367365
 30
0.0
 11
4.250082240213913
 21
9.548775700333454
 31
0.0
  0
LINE
  5
2879
330
DC2
100
AcDbEntity
  8
DIM
 62
     0
370
    -2
100
AcDbLine
 10
4.120082240213918
 20
9.631342092367365
 30
0.0
 11
4.120082240213918
 21
9.548775700333454
 31
0.0
  0
LINE
  5
287A
330
DC2
100
AcDbEntity
  8
DIM
 62
     0
370
    -2
100
AcDbLine
 10
4.700082240213913
 20
9.781275700333454
 30
0.0
 11
5.150082240213913
 21
9.781275700333454
 31
0.0
  0
LINE
  5
287B
330
DC2
100
AcDbEntity
  8
DIM
 62
     0
370
    -2
100
AcDbLine
 10
3.670082240213917
 20
9.781275700333454
 30
0.0
 11
3.220082240213918
 21
9.781275700333454
 31
0.0
  0
SOLID
  5
287C
330
DC2
100
AcDbEntity
  8
DIM
 62
     0
100
AcDbTrace
 10
4.700082240213913
 20
9.856275700333453
 30
0.0
 11
4.700082240213913
 21
9.706275700333454
 31
0.0
 12
4.250082240213913
 22
9.781275700333454
 32
0.0
 13
4.250082240213913
 23
9.781275700333454
 33
0.0
  0
SOLID
  5
287D
330
DC2
100
AcDbEntity
  8
DIM
 62
     0
100
AcDbTrace
 10
3.670082240213917
 20
9.856275700333453
 30
0.0
 11
3.670082240213917
 21
9.706275700333454
 31
0.0
 12
4.120082240213918
 22
9.781275700333454
 32
0.0
 13
4.120082240213918
 23
9.781275700333454
 33
0.0
  0
MTEXT
  5
287E
330
DC2
100
AcDbEntity
  8
DIM
 62
     0
100
AcDbMText
 10
2.096644740213918
 20
9.781275700333454
 30
0.0
 40
0.3125
 41
0.0
 71
     5
 72
     1
  1
\A1;0.130 TYP.
 73
     1
 44
1.0
  0
POINT
  5
287F
330
DC2
100
AcDbEntity
  8
DEFPOINTS
 62
     0
100
AcDbPoint
 10
4.250082240213913
 20
9.788842092367366
 30
0.0
  0
POINT
  5
2880
330
DC2
100
AcDbEntity
  8
DEFPOINTS
 62
     0
100
AcDbPoint
 10
4.120082240213918
 20
9.788842092367366
 30
0.0
  0
POINT
  5
2881
330
DC2
100
AcDbEntity
  8
DEFPOINTS
 62
     0
100
AcDbPoint
 10
4.120082240213918
 20
9.781275700333454
 30
0.0
  0
ENDBLK
  5
DCE
330
DC2
100
AcDbEntity
  8
0
100
AcDbBlockEnd
  0
BLOCK
  5
DDA
330
DCF
100
AcDbEntity
  8
0
100
AcDbBlockBegin
  2
*D14
 70
     1
 10
0.0
 20
0.0
 30
0.0
  3
*D14
  1

  0
LINE
  5
2844
330
DCF
100
AcDbEntity
  8
DIM
 62
     0
370
    -2
100
AcDbLine
 10
4.250082240213913
 20
9.631342092367365
 30
0.0
 11
4.250082240213913
 21
9.548775700333454
 31
0.0
  0
LINE
  5
2845
330
DCF
100
AcDbEntity
  8
DIM
 62
     0
370
    -2
100
AcDbLine
 10
8.714082240213922
 20
9.631342092367365
 30
0.0
 11
8.714082240213922
 21
9.548775700333454
 31
0.0
  0
LINE
  5
2846
330
DCF
100
AcDbEntity
  8
DIM
 62
     0
370
    -2
100
AcDbLine
 10
4.700082240213913
 20
9.781275700333454
 30
0.0
 11
5.623643561483632
 21
9.781275700333454
 31
0.0
  0
LINE
  5
2847
330
DCF
100
AcDbEntity
  8
DIM
 62
     0
370
    -2
100
AcDbLine
 10
8.264082240213923
 20
9.781275700333454
 30
0.0
 11
7.011143561483631
 21
9.781275700333454
 31
0.0
  0
SOLID
  5
2848
330
DCF
100
AcDbEntity
  8
DIM
 62
     0
100
AcDbTrace
 10
4.700082240213913
 20
9.856275700333453
 30
0.0
 11
4.700082240213913
 21
9.706275700333454
 31
0.0
 12
4.250082240213913
 22
9.781275700333454
 32
0.0
 13
4.250082240213913
 23
9.781275700333454
 33
0.0
  0
SOLID
  5
2849
330
DCF
100
AcDbEntity
  8
DIM
 62
     0
100
AcDbTrace
 10
8.264082240213923
 20
9.856275700333453
 30
0.0
 11
8.264082240213923
 21
9.706275700333454
 31
0.0
 12
8.714082240213922
 22
9.781275700333454
 32
0.0
 13
8.714082240213922
 23
9.781275700333454
 33
0.0
  0
MTEXT
  5
284A
330
DCF
100
AcDbEntity
  8
DIM
 62
     0
100
AcDbMText
 10
6.317393561483632
 20
9.781275700333454
 30
0.0
 40
0.3125
 41
0.0
 71
     5
 72
     1
  1
\A1;4.464
 73
     1
 44
1.0
  0
POINT
  5
284B
330
DCF
100
AcDbEntity
  8
DEFPOINTS
 62
     0
100
AcDbPoint
 10
4.250082240213913
 20
9.788842092367366
 30
0.0
  0
POINT
  5
284C
330
DCF
100
AcDbEntity
  8
DEFPOINTS
 62
     0
100
AcDbPoint
 10
8.714082240213922
 20
9.788842092367366
 30
0.0
  0
POINT
  5
284D
330
DCF
100
AcDbEntity
  8
DEFPOINTS
 62
     0
100
AcDbPoint
 10
8.714082240213922
 20
9.781275700333454
 30
0.0
  0
ENDBLK
  5
DDB
330
DCF
100
AcDbEntity
  8
0
100
AcDbBlockEnd
  0
BLOCK
  5
DE7
330
DDC
100
AcDbEntity
  8
0
100
AcDbBlockBegin
  2
*D15
 70
     1
 10
0.0
 20
0.0
 30
0.0
  3
*D15
  1

  0
LINE
  5
2812
330
DDC
100
AcDbEntity
  8
DIM
 62
     0
370
    -2
100
AcDbLine
 10
7.749332240213905
 20
7.707609708797463
 30
0.0
 11
7.53789549585487
 21
7.707609708797463
 31
0.0
  0
LINE
  5
2813
330
DDC
100
AcDbEntity
  8
DIM
 62
     0
370
    -2
100
AcDbLine
 10
7.749332240213905
 20
15.32210970879744
 30
0.0
 11
7.537895495854872
 21
15.32210970879744
 31
0.0
  0
LINE
  5
2814
330
DDC
100
AcDbEntity
  8
DIM
 62
     0
370
    -2
100
AcDbLine
 10
7.77039549585487
 20
8.157609708797462
 30
0.0
 11
7.770395495854871
 21
11.13360970879745
 31
0.0
  0
LINE
  5
2815
330
DDC
100
AcDbEntity
  8
DIM
 62
     0
370
    -2
100
AcDbLine
 10
7.770395495854872
 20
14.87210970879744
 30
0.0
 11
7.770395495854871
 21
11.89610970879745
 31
0.0
  0
SOLID
  5
2816
330
DDC
100
AcDbEntity
  8
DIM
 62
     0
100
AcDbTrace
 10
7.69539549585487
 20
8.157609708797462
 30
0.0
 11
7.84539549585487
 21
8.157609708797462
 31
0.0
 12
7.77039549585487
 22
7.707609708797463
 32
0.0
 13
7.77039549585487
 23
7.707609708797463
 33
0.0
  0
SOLID
  5
2817
330
DDC
100
AcDbEntity
  8
DIM
 62
     0
100
AcDbTrace
 10
7.695395495854872
 20
14.87210970879744
 30
0.0
 11
7.845395495854872
 21
14.87210970879744
 31
0.0
 12
7.770395495854872
 22
15.32210970879744
 32
0.0
 13
7.770395495854872
 23
15.32210970879744
 33
0.0
  0
MTEXT
  5
2818
330
DDC
100
AcDbEntity
  8
DIM
 62
     0
100
AcDbMText
 10
7.770395495854869
 20
11.51485970879745
 30
0.0
 40
0.3125
 41
0.0
 71
     5
 72
     1
  1
\A1;7.615
 73
     1
 44
1.0
  0
POINT
  5
2819
330
DDC
100
AcDbEntity
  8
DEFPOINTS
 62
     0
100
AcDbPoint
 10
7.906832240213905
 20
7.707609708797463
 30
0.0
  0
POINT
  5
281A
330
DDC
100
AcDbEntity
  8
DEFPOINTS
 62
     0
100
AcDbPoint
 10
7.906832240213905
 20
15.32210970879744
 30
0.0
  0
POINT
  5
281B
330
DDC
100
AcDbEntity
  8
DEFPOINTS
 62
     0
100
AcDbPoint
 10
7.770395495854872
 20
15.32210970879744
 30
0.0
  0
ENDBLK
  5
DE8
330
DDC
100
AcDbEntity
  8
0
100
AcDbBlockEnd
  0
BLOCK
  5
DF4
330
DE9
100
AcDbEntity
  8
0
100
AcDbBlockBegin
  2
*D16
 70
     1
 10
0.0
 20
0.0
 30
0.0
  3
*D16
  1

  0
LINE
  5
27EA
330
DE9
100
AcDbEntity
  8
DIM
 62
     0
370
    -2
100
AcDbLine
 10
16.25976537978136
 20
11.66496665778351
 30
0.0
 11
16.25976537978136
 21
12.08248767131506
 31
0.0
  0
LINE
  5
27EB
330
DE9
100
AcDbEntity
  8
DIM
 62
     0
370
    -2
100
AcDbLine
 10
16.41676537978136
 20
11.66496665778351
 30
0.0
 11
16.41676537978136
 21
12.08248767131506
 31
0.0
  0
LINE
  5
27EC
330
DE9
100
AcDbEntity
  8
DIM
 62
     0
370
    -2
100
AcDbLine
 10
15.80976537978136
 20
11.84998767131506
 30
0.0
 11
15.35976537978136
 21
11.84998767131506
 31
0.0
  0
LINE
  5
27ED
330
DE9
100
AcDbEntity
  8
DIM
 62
     0
370
    -2
100
AcDbLine
 10
16.86676537978136
 20
11.84998767131506
 30
0.0
 11
17.31676537978136
 21
11.84998767131506
 31
0.0
  0
SOLID
  5
27EE
330
DE9
100
AcDbEntity
  8
DIM
 62
     0
100
AcDbTrace
 10
15.80976537978136
 20
11.92498767131506
 30
0.0
 11
15.80976537978136
 21
11.77498767131506
 31
0.0
 12
16.25976537978136
 22
11.84998767131506
 32
0.0
 13
16.25976537978136
 23
11.84998767131506
 33
0.0
  0
SOLID
  5
27EF
330
DE9
100
AcDbEntity
  8
DIM
 62
     0
100
AcDbTrace
 10
16.86676537978136
 20
11.92498767131506
 30
0.0
 11
16.86676537978136
 21
11.77498767131506
 31
0.0
 12
16.41676537978136
 22
11.84998767131506
 32
0.0
 13
16.41676537978136
 23
11.84998767131506
 33
0.0
  0
MTEXT
  5
27F0
330
DE9
100
AcDbEntity
  8
DIM
 62
     0
100
AcDbMText
 10
17.95192162978136
 20
11.84998767131506
 30
0.0
 40
0.3125
 41
0.0
 71
     5
 72
     1
  1
\A1;0.157
 73
     1
 44
1.0
  0
POINT
  5
27F1
330
DE9
100
AcDbEntity
  8
DEFPOINTS
 62
     0
100
AcDbPoint
 10
16.25976537978136
 20
11.50746665778351
 30
0.0
  0
POINT
  5
27F2
330
DE9
100
AcDbEntity
  8
DEFPOINTS
 62
     0
100
AcDbPoint
 10
16.41676537978136
 20
11.50746665778351
 30
0.0
  0
POINT
  5
27F3
330
DE9
100
AcDbEntity
  8
DEFPOINTS
 62
     0
100
AcDbPoint
 10
16.41676537978136
 20
11.84998767131506
 30
0.0
  0
ENDBLK
  5
DF5
330
DE9
100
AcDbEntity
  8
0
100
AcDbBlockEnd
  0
BLOCK
  5
E01
330
DF6
100
AcDbEntity
  8
0
100
AcDbBlockBegin
  2
*D17
 70
     1
 10
0.0
 20
0.0
 30
0.0
  3
*D17
  1

  0
LINE
  5
29DE
330
DF6
100
AcDbEntity
  8
DIM
 62
     0
370
    -2
100
AcDbLine
 10
16.08176537978136
 20
13.50785970879744
 30
0.0
 11
16.08176537978136
 21
12.76349230168839
 31
0.0
  0
LINE
  5
29DF
330
DF6
100
AcDbEntity
  8
DIM
 62
     0
370
    -2
100
AcDbLine
 10
16.41676537978136
 20
13.48284344022042
 30
0.0
 11
16.41676537978136
 21
12.76349230168839
 31
0.0
  0
LINE
  5
29E0
330
DF6
100
AcDbEntity
  8
DIM
 62
     0
370
    -2
100
AcDbLine
 10
15.63176537978136
 20
12.99599230168839
 30
0.0
 11
15.18176537978136
 21
12.99599230168839
 31
0.0
  0
LINE
  5
29E1
330
DF6
100
AcDbEntity
  8
DIM
 62
     0
370
    -2
100
AcDbLine
 10
16.86676537978136
 20
12.99599230168839
 30
0.0
 11
17.31676537978136
 21
12.99599230168839
 31
0.0
  0
SOLID
  5
29E2
330
DF6
100
AcDbEntity
  8
DIM
 62
     0
100
AcDbTrace
 10
15.63176537978136
 20
13.07099230168838
 30
0.0
 11
15.63176537978136
 21
12.92099230168838
 31
0.0
 12
16.08176537978136
 22
12.99599230168839
 32
0.0
 13
16.08176537978136
 23
12.99599230168839
 33
0.0
  0
SOLID
  5
29E3
330
DF6
100
AcDbEntity
  8
DIM
 62
     0
100
AcDbTrace
 10
16.86676537978136
 20
13.07099230168838
 30
0.0
 11
16.86676537978136
 21
12.92099230168838
 31
0.0
 12
16.41676537978136
 22
12.99599230168839
 32
0.0
 13
16.41676537978136
 23
12.99599230168839
 33
0.0
  0
MTEXT
  5
29E4
330
DF6
100
AcDbEntity
  8
DIM
 62
     0
100
AcDbMText
 10
17.99098412978136
 20
12.99599230168839
 30
0.0
 40
0.3125
 41
0.0
 71
     5
 72
     1
  1
\A1;0.335
 73
     1
 44
1.0
  0
POINT
  5
29E5
330
DF6
100
AcDbEntity
  8
DEFPOINTS
 62
     0
100
AcDbPoint
 10
16.08176537978136
 20
13.66535970879744
 30
0.0
  0
POINT
  5
29E6
330
DF6
100
AcDbEntity
  8
DEFPOINTS
 62
     0
100
AcDbPoint
 10
16.41676537978136
 20
13.64034344022043
 30
0.0
  0
POINT
  5
29E7
330
DF6
100
AcDbEntity
  8
DEFPOINTS
 62
     0
100
AcDbPoint
 10
16.41676537978136
 20
12.99599230168839
 30
0.0
  0
ENDBLK
  5
E02
330
DF6
100
AcDbEntity
  8
0
100
AcDbBlockEnd
  0
BLOCK
  5
E0F
330
E03
100
AcDbEntity
  8
0
100
AcDbBlockBegin
  2
*D18
 70
     1
 10
0.0
 20
0.0
 30
0.0
  3
*D18
  1

  0
LINE
  5
291A
330
E03
100
AcDbEntity
  8
DIM
 62
     0
370
    -2
100
AcDbLine
 10
16.57426537978136
 20
7.656609708797445
 30
0.0
 11
17.79624162831668
 21
7.656609708797445
 31
0.0
  0
LINE
  5
291B
330
E03
100
AcDbEntity
  8
DIM
 62
     0
370
    -2
100
AcDbLine
 10
16.57426537978136
 20
7.966609708797445
 30
0.0
 11
17.79624162831668
 21
7.966609708797445
 31
0.0
  0
LINE
  5
291C
330
E03
100
AcDbEntity
  8
DIM
 62
     0
370
    -2
100
AcDbLine
 10
17.56374162831667
 20
7.206609708797445
 30
0.0
 11
17.56374162831667
 21
6.756609708797444
 31
0.0
  0
LINE
  5
291D
330
E03
100
AcDbEntity
  8
DIM
 62
     0
370
    -2
100
AcDbLine
 10
17.56374162831668
 20
8.416609708797444
 30
0.0
 11
17.56374162831668
 21
8.866609708797446
 31
0.0
  0
LINE
  5
291E
330
E03
100
AcDbEntity
  8
DIM
 62
     0
370
    -2
100
AcDbLine
 10
17.56374162831668
 20
8.866609708797446
 30
0.0
 11
18.01374162831668
 21
8.866609708797446
 31
0.0
  0
SOLID
  5
291F
330
E03
100
AcDbEntity
  8
DIM
 62
     0
100
AcDbTrace
 10
17.48874162831667
 20
7.206609708797445
 30
0.0
 11
17.63874162831667
 21
7.206609708797445
 31
0.0
 12
17.56374162831667
 22
7.656609708797445
 32
0.0
 13
17.56374162831667
 23
7.656609708797445
 33
0.0
  0
SOLID
  5
2920
330
E03
100
AcDbEntity
  8
DIM
 62
     0
100
AcDbTrace
 10
17.48874162831668
 20
8.416609708797444
 30
0.0
 11
17.63874162831668
 21
8.416609708797444
 31
0.0
 12
17.56374162831667
 22
7.966609708797445
 32
0.0
 13
17.56374162831667
 23
7.966609708797445
 33
0.0
  0
MTEXT
  5
2921
330
E03
100
AcDbEntity
  8
DIM
 62
     0
100
AcDbMText
 10
19.09811662831667
 20
8.866609708797447
 30
0.0
 40
0.3125
 41
0.0
 71
     5
 72
     1
  1
\A1;0.310 DIA.
 73
     1
 44
1.0
  0
POINT
  5
2922
330
E03
100
AcDbEntity
  8
DEFPOINTS
 62
     0
100
AcDbPoint
 10
16.41676537978136
 20
7.656609708797445
 30
0.0
  0
POINT
  5
2923
330
E03
100
AcDbEntity
  8
DEFPOINTS
 62
     0
100
AcDbPoint
 10
16.41676537978136
 20
7.966609708797445
 30
0.0
  0
POINT
  5
2924
330
E03
100
AcDbEntity
  8
DEFPOINTS
 62
     0
100
AcDbPoint
 10
17.56374162831667
 20
7.966609708797445
 30
0.0
  0
ENDBLK
  5
E10
330
E03
100
AcDbEntity
  8
0
100
AcDbBlockEnd
  0
BLOCK
  5
E1D
330
E11
100
AcDbEntity
  8
0
100
AcDbBlockBegin
  2
*D19
 70
     1
 10
0.0
 20
0.0
 30
0.0
  3
*D19
  1

  0
LINE
  5
290F
330
E11
100
AcDbEntity
  8
DIM
 62
     0
370
    -2
100
AcDbLine
 10
16.57426537978136
 20
15.13295970879745
 30
0.0
 11
17.27176537978137
 21
15.13295970879745
 31
0.0
  0
LINE
  5
2910
330
E11
100
AcDbEntity
  8
DIM
 62
     0
370
    -2
100
AcDbLine
 10
16.57426537978136
 20
15.29775970879744
 30
0.0
 11
17.27176537978137
 21
15.29775970879744
 31
0.0
  0
LINE
  5
2911
330
E11
100
AcDbEntity
  8
DIM
 62
     0
370
    -2
100
AcDbLine
 10
17.03926537978136
 20
14.68295970879746
 30
0.0
 11
17.03926537978136
 21
14.23295970879745
 31
0.0
  0
LINE
  5
2912
330
E11
100
AcDbEntity
  8
DIM
 62
     0
370
    -2
100
AcDbLine
 10
17.03926537978136
 20
15.74775970879744
 30
0.0
 11
17.03926537978136
 21
16.19775970879744
 31
0.0
  0
LINE
  5
2913
330
E11
100
AcDbEntity
  8
DIM
 62
     0
370
    -2
100
AcDbLine
 10
17.03926537978136
 20
16.19775970879744
 30
0.0
 11
17.48926537978136
 21
16.19775970879744
 31
0.0
  0
SOLID
  5
2914
330
E11
100
AcDbEntity
  8
DIM
 62
     0
100
AcDbTrace
 10
16.96426537978137
 20
14.68295970879746
 30
0.0
 11
17.11426537978137
 21
14.68295970879746
 31
0.0
 12
17.03926537978136
 22
15.13295970879745
 32
0.0
 13
17.03926537978136
 23
15.13295970879745
 33
0.0
  0
SOLID
  5
2915
330
E11
100
AcDbEntity
  8
DIM
 62
     0
100
AcDbTrace
 10
16.96426537978137
 20
15.74775970879744
 30
0.0
 11
17.11426537978137
 21
15.74775970879744
 31
0.0
 12
17.03926537978136
 22
15.29775970879744
 32
0.0
 13
17.03926537978136
 23
15.29775970879744
 33
0.0
  0
MTEXT
  5
2916
330
E11
100
AcDbEntity
  8
DIM
 62
     0
100
AcDbMText
 10
18.59317162978136
 20
16.19775970879745
 30
0.0
 40
0.3125
 41
0.0
 71
     5
 72
     1
  1
\A1;0.165 DIA.
 73
     1
 44
1.0
  0
POINT
  5
2917
330
E11
100
AcDbEntity
  8
DEFPOINTS
 62
     0
100
AcDbPoint
 10
16.41676537978136
 20
15.13295970879745
 30
0.0
  0
POINT
  5
2918
330
E11
100
AcDbEntity
  8
DEFPOINTS
 62
     0
100
AcDbPoint
 10
16.41676537978136
 20
15.29775970879744
 30
0.0
  0
POINT
  5
2919
330
E11
100
AcDbEntity
  8
DEFPOINTS
 62
     0
100
AcDbPoint
 10
17.03926537978136
 20
15.29775970879744
 30
0.0
  0
ENDBLK
  5
E1E
330
E11
100
AcDbEntity
  8
0
100
AcDbBlockEnd
  0
BLOCK
  5
E2A
330
E1F
100
AcDbEntity
  8
0
100
AcDbBlockBegin
  2
*D20
 70
     1
 10
0.0
 20
0.0
 30
0.0
  3
*D20
  1

  0
LINE
  5
27F4
330
E1F
100
AcDbEntity
  8
DIM
 62
     0
370
    -2
100
AcDbLine
 10
7.111582240213912
 20
8.049859708797459
 30
0.0
 11
6.630840503770481
 21
8.049859708797459
 31
0.0
  0
LINE
  5
27F5
330
E1F
100
AcDbEntity
  8
DIM
 62
     0
370
    -2
100
AcDbLine
 10
7.111582240213912
 20
14.97985970879746
 30
0.0
 11
6.630840503770483
 21
14.97985970879746
 31
0.0
  0
LINE
  5
27F6
330
E1F
100
AcDbEntity
  8
DIM
 62
     0
370
    -2
100
AcDbLine
 10
6.863340503770481
 20
8.499859708797458
 30
0.0
 11
6.863340503770482
 21
10.37110970879745
 31
0.0
  0
LINE
  5
27F7
330
E1F
100
AcDbEntity
  8
DIM
 62
     0
370
    -2
100
AcDbLine
 10
6.863340503770483
 20
14.52985970879746
 30
0.0
 11
6.863340503770482
 21
11.13360970879745
 31
0.0
  0
SOLID
  5
27F8
330
E1F
100
AcDbEntity
  8
DIM
 62
     0
100
AcDbTrace
 10
6.788340503770481
 20
8.499859708797458
 30
0.0
 11
6.938340503770481
 21
8.499859708797458
 31
0.0
 12
6.863340503770481
 22
8.049859708797459
 32
0.0
 13
6.863340503770481
 23
8.049859708797459
 33
0.0
  0
SOLID
  5
27F9
330
E1F
100
AcDbEntity
  8
DIM
 62
     0
100
AcDbTrace
 10
6.788340503770482
 20
14.52985970879746
 30
0.0
 11
6.938340503770483
 21
14.52985970879746
 31
0.0
 12
6.863340503770483
 22
14.97985970879746
 32
0.0
 13
6.863340503770483
 23
14.97985970879746
 33
0.0
  0
MTEXT
  5
27FA
330
E1F
100
AcDbEntity
  8
DIM
 62
     0
100
AcDbMText
 10
6.86334050377048
 20
10.75235970879745
 30
0.0
 40
0.3125
 41
0.0
 71
     5
 72
     1
  1
\A1;6.930
 73
     1
 44
1.0
  0
POINT
  5
27FB
330
E1F
100
AcDbEntity
  8
DEFPOINTS
 62
     0
100
AcDbPoint
 10
7.269082240213911
 20
8.049859708797459
 30
0.0
  0
POINT
  5
27FC
330
E1F
100
AcDbEntity
  8
DEFPOINTS
 62
     0
100
AcDbPoint
 10
7.269082240213911
 20
14.97985970879746
 30
0.0
  0
POINT
  5
27FD
330
E1F
100
AcDbEntity
  8
DEFPOINTS
 62
     0
100
AcDbPoint
 10
6.863340503770483
 20
14.97985970879746
 30
0.0
  0
ENDBLK
  5
E2B
330
E1F
100
AcDbEntity
  8
0
100
AcDbBlockEnd
  0
BLOCK
  5
E38
330
E2C
100
AcDbEntity
  8
0
100
AcDbBlockBegin
  2
*D21
 70
     1
 10
0.0
 20
0.0
 30
0.0
  3
*D21
  1

  0
LINE
  5
284E
330
E2C
100
AcDbEntity
  8
DIM
 62
     0
370
    -2
100
AcDbLine
 10
7.111582240213912
 20
8.049859708797455
 30
0.0
 11
6.63084050377048
 21
8.049859708797455
 31
0.0
  0
LINE
  5
284F
330
E2C
100
AcDbEntity
  8
DIM
 62
     0
370
    -2
100
AcDbLine
 10
6.944357814807553
 20
7.577859708797458
 30
0.0
 11
7.09584050377048
 21
7.577859708797458
 31
0.0
  0
LINE
  5
2850
330
E2C
100
AcDbEntity
  8
DIM
 62
     0
370
    -2
100
AcDbLine
 10
6.86334050377048
 20
8.499859708797455
 30
0.0
 11
6.86334050377048
 21
8.949859708797456
 31
0.0
  0
LINE
  5
2851
330
E2C
100
AcDbEntity
  8
DIM
 62
     0
370
    -2
100
AcDbLine
 10
6.86334050377048
 20
7.127859708797458
 30
0.0
 11
6.86334050377048
 21
6.677859708797457
 31
0.0
  0
LINE
  5
2852
330
E2C
100
AcDbEntity
  8
DIM
 62
     0
370
    -2
100
AcDbLine
 10
6.86334050377048
 20
6.677859708797457
 30
0.0
 11
6.41334050377048
 21
6.677859708797457
 31
0.0
  0
SOLID
  5
2853
330
E2C
100
AcDbEntity
  8
DIM
 62
     0
100
AcDbTrace
 10
6.78834050377048
 20
8.499859708797455
 30
0.0
 11
6.93834050377048
 21
8.499859708797455
 31
0.0
 12
6.86334050377048
 22
8.049859708797455
 32
0.0
 13
6.86334050377048
 23
8.049859708797455
 33
0.0
  0
SOLID
  5
2854
330
E2C
100
AcDbEntity
  8
DIM
 62
     0
100
AcDbTrace
 10
6.78834050377048
 20
7.127859708797458
 30
0.0
 11
6.93834050377048
 21
7.127859708797458
 31
0.0
 12
6.86334050377048
 22
7.577859708797458
 32
0.0
 13
6.86334050377048
 23
7.577859708797458
 33
0.0
  0
MTEXT
  5
2855
330
E2C
100
AcDbEntity
  8
DIM
 62
     0
100
AcDbMText
 10
5.739121753770478
 20
6.677859708797459
 30
0.0
 40
0.3125
 41
0.0
 71
     5
 72
     1
  1
\A1;0.472
 73
     1
 44
1.0
  0
POINT
  5
2856
330
E2C
100
AcDbEntity
  8
DEFPOINTS
 62
     0
100
AcDbPoint
 10
7.269082240213911
 20
8.049859708797455
 30
0.0
  0
POINT
  5
2857
330
E2C
100
AcDbEntity
  8
DEFPOINTS
 62
     0
100
AcDbPoint
 10
6.786857814807553
 20
7.577859708797458
 30
0.0
  0
POINT
  5
2858
330
E2C
100
AcDbEntity
  8
DEFPOINTS
 62
     0
100
AcDbPoint
 10
6.86334050377048
 20
7.577859708797458
 30
0.0
  0
ENDBLK
  5
E39
330
E2C
100
AcDbEntity
  8
0
100
AcDbBlockEnd
  0
BLOCK
  5
E45
330
E3A
100
AcDbEntity
  8
0
100
AcDbBlockBegin
  2
*D22
 70
     1
 10
0.0
 20
0.0
 30
0.0
  3
*D22
  1

  0
LINE
  5
28A0
330
E3A
100
AcDbEntity
  8
DIM
 62
     0
370
    -2
100
AcDbLine
 10
8.262082240213914
 20
12.75627014139243
 30
0.0
 11
8.262082240213914
 21
12.24751555371057
 31
0.0
  0
LINE
  5
28A1
330
E3A
100
AcDbEntity
  8
DIM
 62
     0
370
    -2
100
AcDbLine
 10
4.70208224021391
 20
13.65035970879744
 30
0.0
 11
4.70208224021391
 21
12.24751555371057
 31
0.0
  0
LINE
  5
28A2
330
E3A
100
AcDbEntity
  8
DIM
 62
     0
370
    -2
100
AcDbLine
 10
7.812082240213913
 20
12.48001555371057
 30
0.0
 11
6.946848117385362
 21
12.48001555371057
 31
0.0
  0
LINE
  5
28A3
330
E3A
100
AcDbEntity
  8
DIM
 62
     0
370
    -2
100
AcDbLine
 10
5.152082240213911
 20
12.48001555371057
 30
0.0
 11
5.598410617385363
 21
12.48001555371057
 31
0.0
  0
SOLID
  5
28A4
330
E3A
100
AcDbEntity
  8
DIM
 62
     0
100
AcDbTrace
 10
7.812082240213913
 20
12.55501555371056
 30
0.0
 11
7.812082240213913
 21
12.40501555371056
 31
0.0
 12
8.262082240213914
 22
12.48001555371057
 32
0.0
 13
8.262082240213914
 23
12.48001555371057
 33
0.0
  0
SOLID
  5
28A5
330
E3A
100
AcDbEntity
  8
DIM
 62
     0
100
AcDbTrace
 10
5.152082240213911
 20
12.55501555371056
 30
0.0
 11
5.152082240213911
 21
12.40501555371056
 31
0.0
 12
4.70208224021391
 22
12.48001555371057
 32
0.0
 13
4.70208224021391
 23
12.48001555371057
 33
0.0
  0
MTEXT
  5
28A6
330
E3A
100
AcDbEntity
  8
DIM
 62
     0
100
AcDbMText
 10
6.272629367385363
 20
12.48001555371057
 30
0.0
 40
0.3125
 41
0.0
 71
     5
 72
     1
  1
\A1;3.560
 73
     1
 44
1.0
  0
POINT
  5
28A7
330
E3A
100
AcDbEntity
  8
DEFPOINTS
 62
     0
100
AcDbPoint
 10
8.262082240213914
 20
12.91377014139243
 30
0.0
  0
POINT
  5
28A8
330
E3A
100
AcDbEntity
  8
DEFPOINTS
 62
     0
100
AcDbPoint
 10
4.70208224021391
 20
13.80785970879744
 30
0.0
  0
POINT
  5
28A9
330
E3A
100
AcDbEntity
  8
DEFPOINTS
 62
     0
100
AcDbPoint
 10
4.70208224021391
 20
12.48001555371057
 30
0.0
  0
ENDBLK
  5
E46
330
E3A
100
AcDbEntity
  8
0
100
AcDbBlockEnd
  0
BLOCK
  5
E52
330
E47
100
AcDbEntity
  8
0
100
AcDbBlockBegin
  2
*D23
 70
     1
 10
0.0
 20
0.0
 30
0.0
  3
*D23
  1

  0
LINE
  5
28FB
330
E47
100
AcDbEntity
  8
DIM
 62
     0
370
    -2
100
AcDbLine
 10
4.70208224021391
 20
13.65035970879744
 30
0.0
 11
4.70208224021391
 21
12.24751555371057
 31
0.0
  0
LINE
  5
28FC
330
E47
100
AcDbEntity
  8
DIM
 62
     0
370
    -2
100
AcDbLine
 10
4.120082240213918
 20
12.63751555371056
 30
0.0
 11
4.120082240213918
 21
12.71251555371057
 31
0.0
  0
LINE
  5
28FD
330
E47
100
AcDbEntity
  8
DIM
 62
     0
370
    -2
100
AcDbLine
 10
5.152082240213911
 20
12.48001555371057
 30
0.0
 11
5.60208224021391
 21
12.48001555371057
 31
0.0
  0
LINE
  5
28FE
330
E47
100
AcDbEntity
  8
DIM
 62
     0
370
    -2
100
AcDbLine
 10
3.670082240213917
 20
12.48001555371057
 30
0.0
 11
3.220082240213918
 21
12.48001555371057
 31
0.0
  0
SOLID
  5
28FF
330
E47
100
AcDbEntity
  8
DIM
 62
     0
100
AcDbTrace
 10
5.152082240213911
 20
12.55501555371056
 30
0.0
 11
5.152082240213911
 21
12.40501555371056
 31
0.0
 12
4.70208224021391
 22
12.48001555371057
 32
0.0
 13
4.70208224021391
 23
12.48001555371057
 33
0.0
  0
SOLID
  5
2900
330
E47
100
AcDbEntity
  8
DIM
 62
     0
100
AcDbTrace
 10
3.670082240213917
 20
12.55501555371056
 30
0.0
 11
3.670082240213917
 21
12.40501555371056
 31
0.0
 12
4.120082240213918
 22
12.48001555371057
 32
0.0
 13
4.120082240213918
 23
12.48001555371057
 33
0.0
  0
MTEXT
  5
2901
330
E47
100
AcDbEntity
  8
DIM
 62
     0
100
AcDbMText
 10
2.545863490213918
 20
12.48001555371057
 30
0.0
 40
0.3125
 41
0.0
 71
     5
 72
     1
  1
\A1;0.582
 73
     1
 44
1.0
  0
POINT
  5
2902
330
E47
100
AcDbEntity
  8
DEFPOINTS
 62
     0
100
AcDbPoint
 10
4.70208224021391
 20
13.80785970879744
 30
0.0
  0
POINT
  5
2903
330
E47
100
AcDbEntity
  8
DEFPOINTS
 62
     0
100
AcDbPoint
 10
4.120082240213918
 20
12.48001555371057
 30
0.0
  0
POINT
  5
2904
330
E47
100
AcDbEntity
  8
DEFPOINTS
 62
     0
100
AcDbPoint
 10
4.120082240213918
 20
12.48001555371057
 30
0.0
  0
ENDBLK
  5
E53
330
E47
100
AcDbEntity
  8
0
100
AcDbBlockEnd
  0
BLOCK
  5
E5F
330
E54
100
AcDbEntity
  8
0
100
AcDbBlockBegin
  2
*D24
 70
     1
 10
0.0
 20
0.0
 30
0.0
  3
*D24
  1

  0
LINE
  5
28B4
330
E54
100
AcDbEntity
  8
DIM
 62
     0
370
    -2
100
AcDbLine
 10
6.482082240213911
 20
15.13735970879745
 30
0.0
 11
6.482082240213911
 21
16.28068563404266
 31
0.0
  0
LINE
  5
28B5
330
E54
100
AcDbEntity
  8
DIM
 62
     0
370
    -2
100
AcDbLine
 10
5.695082240213911
 20
15.13735970879745
 30
0.0
 11
5.695082240213911
 21
16.28068563404266
 31
0.0
  0
LINE
  5
28B6
330
E54
100
AcDbEntity
  8
DIM
 62
     0
370
    -2
100
AcDbLine
 10
6.932082240213911
 20
16.04818563404266
 30
0.0
 11
7.382082240213911
 21
16.04818563404266
 31
0.0
  0
LINE
  5
28B7
330
E54
100
AcDbEntity
  8
DIM
 62
     0
370
    -2
100
AcDbLine
 10
5.245082240213911
 20
16.04818563404266
 30
0.0
 11
4.068684031626409
 21
16.04818563404266
 31
0.0
  0
SOLID
  5
28B8
330
E54
100
AcDbEntity
  8
DIM
 62
     0
100
AcDbTrace
 10
6.932082240213911
 20
16.12318563404266
 30
0.0
 11
6.932082240213911
 21
15.97318563404266
 31
0.0
 12
6.482082240213911
 22
16.04818563404266
 32
0.0
 13
6.482082240213911
 23
16.04818563404266
 33
0.0
  0
SOLID
  5
28B9
330
E54
100
AcDbEntity
  8
DIM
 62
     0
100
AcDbTrace
 10
5.245082240213911
 20
16.12318563404266
 30
0.0
 11
5.245082240213911
 21
15.97318563404266
 31
0.0
 12
5.695082240213911
 22
16.04818563404266
 32
0.0
 13
5.695082240213911
 23
16.04818563404266
 33
0.0
  0
MTEXT
  5
28BA
330
E54
100
AcDbEntity
  8
DIM
 62
     0
100
AcDbMText
 10
3.394465281626409
 20
16.04818563404266
 30
0.0
 40
0.3125
 41
0.0
 71
     5
 72
     1
  1
\A1;0.787
 73
     1
 44
1.0
  0
POINT
  5
28BB
330
E54
100
AcDbEntity
  8
DEFPOINTS
 62
     0
100
AcDbPoint
 10
6.482082240213911
 20
14.97985970879746
 30
0.0
  0
POINT
  5
28BC
330
E54
100
AcDbEntity
  8
DEFPOINTS
 62
     0
100
AcDbPoint
 10
5.695082240213911
 20
14.97985970879746
 30
0.0
  0
POINT
  5
28BD
330
E54
100
AcDbEntity
  8
DEFPOINTS
 62
     0
100
AcDbPoint
 10
5.695082240213911
 20
16.04818563404266
 30
0.0
  0
ENDBLK
  5
E60
330
E54
100
AcDbEntity
  8
0
100
AcDbBlockEnd
  0
BLOCK
  5
E6C
330
E61
100
AcDbEntity
  8
0
100
AcDbBlockBegin
  2
*D25
 70
     1
 10
0.0
 20
0.0
 30
0.0
  3
*D25
  1

  0
LINE
  5
28AA
330
E61
100
AcDbEntity
  8
DIM
 62
     0
370
    -2
100
AcDbLine
 10
7.269082240213911
 20
15.13735970879745
 30
0.0
 11
7.269082240213911
 21
16.84268563404266
 31
0.0
  0
LINE
  5
28AB
330
E61
100
AcDbEntity
  8
DIM
 62
     0
370
    -2
100
AcDbLine
 10
6.482082240213911
 20
15.13735970879745
 30
0.0
 11
6.482082240213911
 21
16.84268563404266
 31
0.0
  0
LINE
  5
28AC
330
E61
100
AcDbEntity
  8
DIM
 62
     0
370
    -2
100
AcDbLine
 10
7.719082240213912
 20
16.61018563404266
 30
0.0
 11
8.169082240213912
 21
16.61018563404266
 31
0.0
  0
LINE
  5
28AD
330
E61
100
AcDbEntity
  8
DIM
 62
     0
370
    -2
100
AcDbLine
 10
6.03208224021391
 20
16.61018563404266
 30
0.0
 11
4.09342257418678
 21
16.61018563404266
 31
0.0
  0
SOLID
  5
28AE
330
E61
100
AcDbEntity
  8
DIM
 62
     0
100
AcDbTrace
 10
7.719082240213912
 20
16.68518563404266
 30
0.0
 11
7.719082240213912
 21
16.53518563404266
 31
0.0
 12
7.269082240213911
 22
16.61018563404266
 32
0.0
 13
7.269082240213911
 23
16.61018563404266
 33
0.0
  0
SOLID
  5
28AF
330
E61
100
AcDbEntity
  8
DIM
 62
     0
100
AcDbTrace
 10
6.03208224021391
 20
16.68518563404266
 30
0.0
 11
6.03208224021391
 21
16.53518563404266
 31
0.0
 12
6.482082240213911
 22
16.61018563404266
 32
0.0
 13
6.482082240213911
 23
16.61018563404266
 33
0.0
  0
MTEXT
  5
28B0
330
E61
100
AcDbEntity
  8
DIM
 62
     0
100
AcDbMText
 10
3.41920382418678
 20
16.61018563404266
 30
0.0
 40
0.3125
 41
0.0
 71
     5
 72
     1
  1
\A1;0.787
 73
     1
 44
1.0
  0
POINT
  5
28B1
330
E61
100
AcDbEntity
  8
DEFPOINTS
 62
     0
100
AcDbPoint
 10
7.269082240213911
 20
14.97985970879746
 30
0.0
  0
POINT
  5
28B2
330
E61
100
AcDbEntity
  8
DEFPOINTS
 62
     0
100
AcDbPoint
 10
6.482082240213911
 20
14.97985970879746
 30
0.0
  0
POINT
  5
28B3
330
E61
100
AcDbEntity
  8
DEFPOINTS
 62
     0
100
AcDbPoint
 10
6.482082240213911
 20
16.61018563404266
 30
0.0
  0
ENDBLK
  5
E6D
330
E61
100
AcDbEntity
  8
0
100
AcDbBlockEnd
  0
BLOCK
  5
E7A
330
E6E
100
AcDbEntity
  8
0
100
AcDbBlockBegin
  2
*D26
 70
     1
 10
0.0
 20
0.0
 30
0.0
  3
*D26
  1

  0
LINE
  5
2958
330
E6E
100
AcDbEntity
  8
DIM
 62
     0
370
    -2
100
AcDbLine
 10
25.04361785580361
 20
15.21585970879744
 30
0.0
 11
26.07505638590421
 21
15.21585970879744
 31
0.0
  0
LINE
  5
2959
330
E6E
100
AcDbEntity
  8
DIM
 62
     0
370
    -2
100
AcDbLine
 10
25.06086785580361
 20
15.45185970879744
 30
0.0
 11
26.07505638590421
 21
15.45185970879744
 31
0.0
  0
LINE
  5
295A
330
E6E
100
AcDbEntity
  8
DIM
 62
     0
370
    -2
100
AcDbLine
 10
25.84255638590422
 20
14.76585970879744
 30
0.0
 11
25.84255638590422
 21
14.31585970879744
 31
0.0
  0
LINE
  5
295B
330
E6E
100
AcDbEntity
  8
DIM
 62
     0
370
    -2
100
AcDbLine
 10
25.84255638590422
 20
15.90185970879744
 30
0.0
 11
25.84255638590422
 21
16.35185970879744
 31
0.0
  0
LINE
  5
295C
330
E6E
100
AcDbEntity
  8
DIM
 62
     0
370
    -2
100
AcDbLine
 10
25.84255638590422
 20
16.35185970879744
 30
0.0
 11
26.29255638590421
 21
16.35185970879744
 31
0.0
  0
SOLID
  5
295D
330
E6E
100
AcDbEntity
  8
DIM
 62
     0
100
AcDbTrace
 10
25.76755638590421
 20
14.76585970879744
 30
0.0
 11
25.91755638590421
 21
14.76585970879744
 31
0.0
 12
25.84255638590422
 22
15.21585970879744
 32
0.0
 13
25.84255638590422
 23
15.21585970879744
 33
0.0
  0
SOLID
  5
295E
330
E6E
100
AcDbEntity
  8
DIM
 62
     0
100
AcDbTrace
 10
25.76755638590421
 20
15.90185970879744
 30
0.0
 11
25.91755638590421
 21
15.90185970879744
 31
0.0
 12
25.84255638590422
 22
15.45185970879744
 32
0.0
 13
25.84255638590422
 23
15.45185970879744
 33
0.0
  0
MTEXT
  5
295F
330
E6E
100
AcDbEntity
  8
DIM
 62
     0
100
AcDbMText
 10
26.96677513590421
 20
16.35185970879745
 30
0.0
 40
0.3125
 41
0.0
 71
     5
 72
     1
  1
\A1;0.236
 73
     1
 44
1.0
  0
POINT
  5
2960
330
E6E
100
AcDbEntity
  8
DEFPOINTS
 62
     0
100
AcDbPoint
 10
24.8861178558036
 20
15.21585970879744
 30
0.0
  0
POINT
  5
2961
330
E6E
100
AcDbEntity
  8
DEFPOINTS
 62
     0
100
AcDbPoint
 10
24.90336785580361
 20
15.45185970879744
 30
0.0
  0
POINT
  5
2962
330
E6E
100
AcDbEntity
  8
DEFPOINTS
 62
     0
100
AcDbPoint
 10
25.84255638590422
 20
15.45185970879744
 30
0.0
  0
ENDBLK
  5
E7B
330
E6E
100
AcDbEntity
  8
0
100
AcDbBlockEnd
  0
BLOCK
  5
E87
330
E7C
100
AcDbEntity
  8
0
100
AcDbBlockBegin
  2
*D27
 70
     1
 10
0.0
 20
0.0
 30
0.0
  3
*D27
  1

  0
LINE
  5
292F
330
E7C
100
AcDbEntity
  8
DIM
 62
     0
370
    -2
100
AcDbLine
 10
25.04361785580362
 20
7.813859708797455
 30
0.0
 11
26.07505638590421
 21
7.813859708797454
 31
0.0
  0
LINE
  5
2930
330
E7C
100
AcDbEntity
  8
DIM
 62
     0
370
    -2
100
AcDbLine
 10
25.04361785580361
 20
15.21585970879744
 30
0.0
 11
26.07505638590421
 21
15.21585970879744
 31
0.0
  0
LINE
  5
2931
330
E7C
100
AcDbEntity
  8
DIM
 62
     0
370
    -2
100
AcDbLine
 10
25.84255638590422
 20
8.263859708797454
 30
0.0
 11
25.84255638590422
 21
11.13360970879745
 31
0.0
  0
LINE
  5
2932
330
E7C
100
AcDbEntity
  8
DIM
 62
     0
370
    -2
100
AcDbLine
 10
25.84255638590422
 20
14.76585970879744
 30
0.0
 11
25.84255638590422
 21
11.89610970879745
 31
0.0
  0
SOLID
  5
2933
330
E7C
100
AcDbEntity
  8
DIM
 62
     0
100
AcDbTrace
 10
25.76755638590421
 20
8.263859708797454
 30
0.0
 11
25.91755638590421
 21
8.263859708797454
 31
0.0
 12
25.84255638590421
 22
7.813859708797455
 32
0.0
 13
25.84255638590421
 23
7.813859708797455
 33
0.0
  0
SOLID
  5
2934
330
E7C
100
AcDbEntity
  8
DIM
 62
     0
100
AcDbTrace
 10
25.76755638590421
 20
14.76585970879744
 30
0.0
 11
25.91755638590421
 21
14.76585970879744
 31
0.0
 12
25.84255638590422
 22
15.21585970879744
 32
0.0
 13
25.84255638590422
 23
15.21585970879744
 33
0.0
  0
MTEXT
  5
2935
330
E7C
100
AcDbEntity
  8
DIM
 62
     0
100
AcDbMText
 10
25.84255638590421
 20
11.51485970879745
 30
0.0
 40
0.3125
 41
0.0
 71
     5
 72
     1
  1
\A1;7.402
 73
     1
 44
1.0
  0
POINT
  5
2936
330
E7C
100
AcDbEntity
  8
DEFPOINTS
 62
     0
100
AcDbPoint
 10
24.88611785580362
 20
7.813859708797455
 30
0.0
  0
POINT
  5
2937
330
E7C
100
AcDbEntity
  8
DEFPOINTS
 62
     0
100
AcDbPoint
 10
24.8861178558036
 20
15.21585970879744
 30
0.0
  0
POINT
  5
2938
330
E7C
100
AcDbEntity
  8
DEFPOINTS
 62
     0
100
AcDbPoint
 10
25.84255638590422
 20
15.21585970879744
 30
0.0
  0
ENDBLK
  5
E88
330
E7C
100
AcDbEntity
  8
0
100
AcDbBlockEnd
  0
BLOCK
  5
E94
330
E89
100
AcDbEntity
  8
0
100
AcDbBlockBegin
  2
*D28
 70
     1
 10
0.0
 20
0.0
 30
0.0
  3
*D28
  1

  0
LINE
  5
2925
330
E89
100
AcDbEntity
  8
DIM
 62
     0
370
    -2
100
AcDbLine
 10
25.06086785580362
 20
7.577859708797458
 30
0.0
 11
27.27763283514791
 21
7.577859708797457
 31
0.0
  0
LINE
  5
2926
330
E89
100
AcDbEntity
  8
DIM
 62
     0
370
    -2
100
AcDbLine
 10
25.06086785580362
 20
15.45185970879744
 30
0.0
 11
27.27763283514791
 21
15.45185970879744
 31
0.0
  0
LINE
  5
2927
330
E89
100
AcDbEntity
  8
DIM
 62
     0
370
    -2
100
AcDbLine
 10
27.04513283514791
 20
8.027859708797457
 30
0.0
 11
27.04513283514791
 21
11.13360970879745
 31
0.0
  0
LINE
  5
2928
330
E89
100
AcDbEntity
  8
DIM
 62
     0
370
    -2
100
AcDbLine
 10
27.04513283514791
 20
15.00185970879744
 30
0.0
 11
27.04513283514791
 21
11.89610970879745
 31
0.0
  0
SOLID
  5
2929
330
E89
100
AcDbEntity
  8
DIM
 62
     0
100
AcDbTrace
 10
26.97013283514791
 20
8.027859708797457
 30
0.0
 11
27.12013283514791
 21
8.027859708797457
 31
0.0
 12
27.04513283514791
 22
7.577859708797457
 32
0.0
 13
27.04513283514791
 23
7.577859708797457
 33
0.0
  0
SOLID
  5
292A
330
E89
100
AcDbEntity
  8
DIM
 62
     0
100
AcDbTrace
 10
26.97013283514791
 20
15.00185970879744
 30
0.0
 11
27.12013283514791
 21
15.00185970879744
 31
0.0
 12
27.04513283514791
 22
15.45185970879744
 32
0.0
 13
27.04513283514791
 23
15.45185970879744
 33
0.0
  0
MTEXT
  5
292B
330
E89
100
AcDbEntity
  8
DIM
 62
     0
100
AcDbMText
 10
27.04513283514791
 20
11.51485970879745
 30
0.0
 40
0.3125
 41
0.0
 71
     5
 72
     1
  1
\A1;7.874
 73
     1
 44
1.0
  0
POINT
  5
292C
330
E89
100
AcDbEntity
  8
DEFPOINTS
 62
     0
100
AcDbPoint
 10
24.90336785580362
 20
7.577859708797458
 30
0.0
  0
POINT
  5
292D
330
E89
100
AcDbEntity
  8
DEFPOINTS
 62
     0
100
AcDbPoint
 10
24.90336785580362
 20
15.45185970879744
 30
0.0
  0
POINT
  5
292E
330
E89
100
AcDbEntity
  8
DEFPOINTS
 62
     0
100
AcDbPoint
 10
27.04513283514791
 20
15.45185970879744
 30
0.0
  0
ENDBLK
  5
E95
330
E89
100
AcDbEntity
  8
0
100
AcDbBlockEnd
  0
BLOCK
  5
EA1
330
E96
100
AcDbEntity
  8
0
100
AcDbBlockBegin
  2
*D29
 70
     1
 10
0.0
 20
0.0
 30
0.0
  3
*D29
  1

  0
LINE
  5
2963
330
E96
100
AcDbEntity
  8
DIM
 62
     0
370
    -2
100
AcDbLine
 10
24.88611785580362
 20
15.37335970879744
 30
0.0
 11
24.88611785580362
 21
17.25889023674455
 31
0.0
  0
LINE
  5
2964
330
E96
100
AcDbEntity
  8
DIM
 62
     0
370
    -2
100
AcDbLine
 10
25.12211785580361
 20
15.39060970879744
 30
0.0
 11
25.12211785580361
 21
17.25889023674455
 31
0.0
  0
LINE
  5
2965
330
E96
100
AcDbEntity
  8
DIM
 62
     0
370
    -2
100
AcDbLine
 10
24.43611785580362
 20
17.02639023674455
 30
0.0
 11
23.98611785580362
 21
17.02639023674455
 31
0.0
  0
LINE
  5
2966
330
E96
100
AcDbEntity
  8
DIM
 62
     0
370
    -2
100
AcDbLine
 10
25.57211785580361
 20
17.02639023674455
 30
0.0
 11
26.02211785580361
 21
17.02639023674455
 31
0.0
  0
SOLID
  5
2967
330
E96
100
AcDbEntity
  8
DIM
 62
     0
100
AcDbTrace
 10
24.43611785580362
 20
17.10139023674455
 30
0.0
 11
24.43611785580362
 21
16.95139023674455
 31
0.0
 12
24.88611785580362
 22
17.02639023674455
 32
0.0
 13
24.88611785580362
 23
17.02639023674455
 33
0.0
  0
SOLID
  5
2968
330
E96
100
AcDbEntity
  8
DIM
 62
     0
100
AcDbTrace
 10
25.57211785580361
 20
17.10139023674455
 30
0.0
 11
25.57211785580361
 21
16.95139023674455
 31
0.0
 12
25.12211785580361
 22
17.02639023674455
 32
0.0
 13
25.12211785580361
 23
17.02639023674455
 33
0.0
  0
MTEXT
  5
2969
330
E96
100
AcDbEntity
  8
DIM
 62
     0
100
AcDbMText
 10
26.69633660580361
 20
17.02639023674455
 30
0.0
 40
0.3125
 41
0.0
 71
     5
 72
     1
  1
\A1;0.236
 73
     1
 44
1.0
  0
POINT
  5
296A
330
E96
100
AcDbEntity
  8
DEFPOINTS
 62
     0
100
AcDbPoint
 10
24.88611785580362
 20
15.21585970879744
 30
0.0
  0
POINT
  5
296B
330
E96
100
AcDbEntity
  8
DEFPOINTS
 62
     0
100
AcDbPoint
 10
25.12211785580361
 20
15.23310970879744
 30
0.0
  0
POINT
  5
296C
330
E96
100
AcDbEntity
  8
DEFPOINTS
 62
     0
100
AcDbPoint
 10
25.12211785580361
 20
17.02639023674455
 30
0.0
  0
ENDBLK
  5
EA2
330
E96
100
AcDbEntity
  8
0
100
AcDbBlockEnd
  0
BLOCK
  5
EAE
330
EA3
100
AcDbEntity
  8
0
100
AcDbBlockBegin
  2
*D30
 70
     1
 10
0.0
 20
0.0
 30
0.0
  3
*D30
  1

  0
LINE
  5
2944
330
EA3
100
AcDbEntity
  8
DIM
 62
     0
370
    -2
100
AcDbLine
 10
24.8861178558036
 20
15.37335970879744
 30
0.0
 11
24.8861178558036
 21
17.25889023674455
 31
0.0
  0
LINE
  5
2945
330
EA3
100
AcDbEntity
  8
DIM
 62
     0
370
    -2
100
AcDbLine
 10
20.63411785580362
 20
15.37335970879744
 30
0.0
 11
20.63411785580362
 21
17.25889023674455
 31
0.0
  0
LINE
  5
2946
330
EA3
100
AcDbEntity
  8
DIM
 62
     0
370
    -2
100
AcDbLine
 10
24.4361178558036
 20
17.02639023674455
 30
0.0
 11
23.45386785580362
 21
17.02639023674455
 31
0.0
  0
LINE
  5
2947
330
EA3
100
AcDbEntity
  8
DIM
 62
     0
370
    -2
100
AcDbLine
 10
21.08411785580362
 20
17.02639023674455
 30
0.0
 11
22.06636785580361
 21
17.02639023674455
 31
0.0
  0
SOLID
  5
2948
330
EA3
100
AcDbEntity
  8
DIM
 62
     0
100
AcDbTrace
 10
24.4361178558036
 20
17.10139023674455
 30
0.0
 11
24.4361178558036
 21
16.95139023674455
 31
0.0
 12
24.8861178558036
 22
17.02639023674455
 32
0.0
 13
24.8861178558036
 23
17.02639023674455
 33
0.0
  0
SOLID
  5
2949
330
EA3
100
AcDbEntity
  8
DIM
 62
     0
100
AcDbTrace
 10
21.08411785580362
 20
17.10139023674455
 30
0.0
 11
21.08411785580362
 21
16.95139023674455
 31
0.0
 12
20.63411785580362
 22
17.02639023674455
 32
0.0
 13
20.63411785580362
 23
17.02639023674455
 33
0.0
  0
MTEXT
  5
294A
330
EA3
100
AcDbEntity
  8
DIM
 62
     0
100
AcDbMText
 10
22.76011785580361
 20
17.02639023674455
 30
0.0
 40
0.3125
 41
0.0
 71
     5
 72
     1
  1
\A1;4.252
 73
     1
 44
1.0
  0
POINT
  5
294B
330
EA3
100
AcDbEntity
  8
DEFPOINTS
 62
     0
100
AcDbPoint
 10
24.8861178558036
 20
15.21585970879744
 30
0.0
  0
POINT
  5
294C
330
EA3
100
AcDbEntity
  8
DEFPOINTS
 62
     0
100
AcDbPoint
 10
20.63411785580362
 20
15.21585970879744
 30
0.0
  0
POINT
  5
294D
330
EA3
100
AcDbEntity
  8
DEFPOINTS
 62
     0
100
AcDbPoint
 10
20.63411785580362
 20
17.02639023674455
 30
0.0
  0
ENDBLK
  5
EAF
330
EA3
100
AcDbEntity
  8
0
100
AcDbBlockEnd
  0
BLOCK
  5
EBB
330
EB0
100
AcDbEntity
  8
0
100
AcDbBlockBegin
  2
*D31
 70
     1
 10
0.0
 20
0.0
 30
0.0
  3
*D31
  1

  0
LINE
  5
294E
330
EB0
100
AcDbEntity
  8
DIM
 62
     0
370
    -2
100
AcDbLine
 10
25.12211785580361
 20
15.39060970879744
 30
0.0
 11
25.12211785580361
 21
17.89114023674455
 31
0.0
  0
LINE
  5
294F
330
EB0
100
AcDbEntity
  8
DIM
 62
     0
370
    -2
100
AcDbLine
 10
20.39811785580361
 20
15.39060970879744
 30
0.0
 11
20.39811785580361
 21
17.89114023674455
 31
0.0
  0
LINE
  5
2950
330
EB0
100
AcDbEntity
  8
DIM
 62
     0
370
    -2
100
AcDbLine
 10
24.67211785580361
 20
17.65864023674455
 30
0.0
 11
23.45386785580362
 21
17.65864023674455
 31
0.0
  0
LINE
  5
2951
330
EB0
100
AcDbEntity
  8
DIM
 62
     0
370
    -2
100
AcDbLine
 10
20.84811785580361
 20
17.65864023674455
 30
0.0
 11
22.06636785580361
 21
17.65864023674455
 31
0.0
  0
SOLID
  5
2952
330
EB0
100
AcDbEntity
  8
DIM
 62
     0
100
AcDbTrace
 10
24.67211785580361
 20
17.73364023674455
 30
0.0
 11
24.67211785580361
 21
17.58364023674455
 31
0.0
 12
25.12211785580361
 22
17.65864023674455
 32
0.0
 13
25.12211785580361
 23
17.65864023674455
 33
0.0
  0
SOLID
  5
2953
330
EB0
100
AcDbEntity
  8
DIM
 62
     0
100
AcDbTrace
 10
20.84811785580361
 20
17.73364023674455
 30
0.0
 11
20.84811785580361
 21
17.58364023674455
 31
0.0
 12
20.39811785580361
 22
17.65864023674455
 32
0.0
 13
20.39811785580361
 23
17.65864023674455
 33
0.0
  0
MTEXT
  5
2954
330
EB0
100
AcDbEntity
  8
DIM
 62
     0
100
AcDbMText
 10
22.76011785580361
 20
17.65864023674455
 30
0.0
 40
0.3125
 41
0.0
 71
     5
 72
     1
  1
\A1;4.724
 73
     1
 44
1.0
  0
POINT
  5
2955
330
EB0
100
AcDbEntity
  8
DEFPOINTS
 62
     0
100
AcDbPoint
 10
25.12211785580361
 20
15.23310970879744
 30
0.0
  0
POINT
  5
2956
330
EB0
100
AcDbEntity
  8
DEFPOINTS
 62
     0
100
AcDbPoint
 10
20.39811785580361
 20
15.23310970879744
 30
0.0
  0
POINT
  5
2957
330
EB0
100
AcDbEntity
  8
DEFPOINTS
 62
     0
100
AcDbPoint
 10
20.39811785580361
 20
17.65864023674455
 30
0.0
  0
ENDBLK
  5
EBC
330
EB0
100
AcDbEntity
  8
0
100
AcDbBlockEnd
  0
BLOCK
  5
EC9
330
EBD
100
AcDbEntity
  8
0
100
AcDbBlockBegin
  2
*D32
 70
     1
 10
0.0
 20
0.0
 30
0.0
  3
*D32
  1

  0
LINE
  5
2939
330
EBD
100
AcDbEntity
  8
DIM
 62
     0
370
    -2
100
AcDbLine
 10
22.6483474208331
 20
7.767609708797465
 30
0.0
 11
22.41584742083311
 21
7.767609708797465
 31
0.0
  0
LINE
  5
293A
330
EBD
100
AcDbEntity
  8
DIM
 62
     0
370
    -2
100
AcDbLine
 10
22.64834742083312
 20
7.577859708797458
 30
0.0
 11
22.41584742083311
 21
7.577859708797458
 31
0.0
  0
LINE
  5
293B
330
EBD
100
AcDbEntity
  8
DIM
 62
     0
370
    -2
100
AcDbLine
 10
22.64834742083312
 20
8.217609708797464
 30
0.0
 11
22.64834742083312
 21
8.667609708797465
 31
0.0
  0
LINE
  5
293C
330
EBD
100
AcDbEntity
  8
DIM
 62
     0
370
    -2
100
AcDbLine
 10
22.64834742083312
 20
7.127859708797458
 30
0.0
 11
22.64834742083312
 21
6.677859708797457
 31
0.0
  0
LINE
  5
293D
330
EBD
100
AcDbEntity
  8
DIM
 62
     0
370
    -2
100
AcDbLine
 10
22.64834742083312
 20
6.677859708797457
 30
0.0
 11
22.19834742083312
 21
6.677859708797457
 31
0.0
  0
SOLID
  5
293E
330
EBD
100
AcDbEntity
  8
DIM
 62
     0
100
AcDbTrace
 10
22.57334742083312
 20
8.217609708797464
 30
0.0
 11
22.72334742083312
 21
8.217609708797464
 31
0.0
 12
22.64834742083312
 22
7.767609708797465
 32
0.0
 13
22.64834742083312
 23
7.767609708797465
 33
0.0
  0
SOLID
  5
293F
330
EBD
100
AcDbEntity
  8
DIM
 62
     0
100
AcDbTrace
 10
22.57334742083311
 20
7.127859708797458
 30
0.0
 11
22.72334742083311
 21
7.127859708797458
 31
0.0
 12
22.64834742083312
 22
7.577859708797458
 32
0.0
 13
22.64834742083312
 23
7.577859708797458
 33
0.0
  0
MTEXT
  5
2940
330
EBD
100
AcDbEntity
  8
DIM
 62
     0
100
AcDbMText
 10
21.07490992083311
 20
6.677859708797462
 30
0.0
 40
0.3125
 41
0.0
 71
     5
 72
     1
  1
\A1;0.190 TYP.
 73
     1
 44
1.0
  0
POINT
  5
2941
330
EBD
100
AcDbEntity
  8
DEFPOINTS
 62
     0
100
AcDbPoint
 10
22.8058474208331
 20
7.767609708797465
 30
0.0
  0
POINT
  5
2942
330
EBD
100
AcDbEntity
  8
DEFPOINTS
 62
     0
100
AcDbPoint
 10
22.80584742083311
 20
7.577859708797458
 30
0.0
  0
POINT
  5
2943
330
EBD
100
AcDbEntity
  8
DEFPOINTS
 62
     0
100
AcDbPoint
 10
22.64834742083312
 20
7.577859708797458
 30
0.0
  0
ENDBLK
  5
ECA
330
EBD
100
AcDbEntity
  8
0
100
AcDbBlockEnd
  0
BLOCK
  5
EE3
330
ED8
100
AcDbEntity
  8
0
100
AcDbBlockBegin
  2
*D33
 70
     1
 10
0.0
 20
0.0
 30
0.0
  3
*D33
  1

  0
LINE
  5
2995
330
ED8
100
AcDbEntity
  8
DIM
 62
     0
370
    -2
100
AcDbLine
 10
28.88220621496532
 20
11.23002774205066
 30
0.0
 11
28.88220621496532
 21
11.10354601799186
 31
0.0
  0
LINE
  5
2996
330
ED8
100
AcDbEntity
  8
DIM
 62
     0
370
    -2
100
AcDbLine
 10
29.00220621496534
 20
11.23002774205066
 30
0.0
 11
29.00220621496534
 21
11.10354601799186
 31
0.0
  0
LINE
  5
2997
330
ED8
100
AcDbEntity
  8
DIM
 62
     0
370
    -2
100
AcDbLine
 10
28.43220621496532
 20
11.33604601799186
 30
0.0
 11
27.98220621496533
 21
11.33604601799186
 31
0.0
  0
LINE
  5
2998
330
ED8
100
AcDbEntity
  8
DIM
 62
     0
370
    -2
100
AcDbLine
 10
29.45220621496534
 20
11.33604601799186
 30
0.0
 11
29.90220621496534
 21
11.33604601799186
 31
0.0
  0
SOLID
  5
2999
330
ED8
100
AcDbEntity
  8
DIM
 62
     0
100
AcDbTrace
 10
28.43220621496532
 20
11.41104601799186
 30
0.0
 11
28.43220621496532
 21
11.26104601799186
 31
0.0
 12
28.88220621496532
 22
11.33604601799186
 32
0.0
 13
28.88220621496532
 23
11.33604601799186
 33
0.0
  0
SOLID
  5
299A
330
ED8
100
AcDbEntity
  8
DIM
 62
     0
100
AcDbTrace
 10
29.45220621496534
 20
11.41104601799186
 30
0.0
 11
29.45220621496534
 21
11.26104601799186
 31
0.0
 12
29.00220621496534
 22
11.33604601799186
 32
0.0
 13
29.00220621496534
 23
11.33604601799186
 33
0.0
  0
MTEXT
  5
299B
330
ED8
100
AcDbEntity
  8
DIM
 62
     0
100
AcDbMText
 10
30.51783121496534
 20
11.33604601799186
 30
0.0
 40
0.3125
 41
0.0
 71
     5
 72
     1
  1
\A1;0.120
 73
     1
 44
1.0
  0
POINT
  5
299C
330
ED8
100
AcDbEntity
  8
DEFPOINTS
 62
     0
100
AcDbPoint
 10
28.88220621496532
 20
11.38752774205066
 30
0.0
  0
POINT
  5
299D
330
ED8
100
AcDbEntity
  8
DEFPOINTS
 62
     0
100
AcDbPoint
 10
29.00220621496534
 20
11.38752774205066
 30
0.0
  0
POINT
  5
299E
330
ED8
100
AcDbEntity
  8
DEFPOINTS
 62
     0
100
AcDbPoint
 10
29.00220621496534
 20
11.33604601799186
 30
0.0
  0
ENDBLK
  5
EE4
330
ED8
100
AcDbEntity
  8
0
100
AcDbBlockEnd
  0
BLOCK
  5
EF0
330
EE5
100
AcDbEntity
  8
0
100
AcDbBlockBegin
  2
*D34
 70
     1
 10
0.0
 20
0.0
 30
0.0
  3
*D34
  1

  0
LINE
  5
298B
330
EE5
100
AcDbEntity
  8
DIM
 62
     0
370
    -2
100
AcDbLine
 10
28.41120621496532
 20
15.60935970879745
 30
0.0
 11
28.41120621496532
 21
16.12985459328668
 31
0.0
  0
LINE
  5
298C
330
EE5
100
AcDbEntity
  8
DIM
 62
     0
370
    -2
100
AcDbLine
 10
29.00220621496534
 20
15.54685970879745
 30
0.0
 11
29.00220621496534
 21
16.12985459328668
 31
0.0
  0
LINE
  5
298D
330
EE5
100
AcDbEntity
  8
DIM
 62
     0
370
    -2
100
AcDbLine
 10
27.96120621496533
 20
15.89735459328667
 30
0.0
 11
27.51120621496533
 21
15.89735459328667
 31
0.0
  0
LINE
  5
298E
330
EE5
100
AcDbEntity
  8
DIM
 62
     0
370
    -2
100
AcDbLine
 10
29.45220621496534
 20
15.89735459328667
 30
0.0
 11
29.90220621496534
 21
15.89735459328667
 31
0.0
  0
SOLID
  5
298F
330
EE5
100
AcDbEntity
  8
DIM
 62
     0
100
AcDbTrace
 10
27.96120621496533
 20
15.97235459328667
 30
0.0
 11
27.96120621496533
 21
15.82235459328668
 31
0.0
 12
28.41120621496532
 22
15.89735459328667
 32
0.0
 13
28.41120621496532
 23
15.89735459328667
 33
0.0
  0
SOLID
  5
2990
330
EE5
100
AcDbEntity
  8
DIM
 62
     0
100
AcDbTrace
 10
29.45220621496534
 20
15.97235459328667
 30
0.0
 11
29.45220621496534
 21
15.82235459328668
 31
0.0
 12
29.00220621496534
 22
15.89735459328667
 32
0.0
 13
29.00220621496534
 23
15.89735459328667
 33
0.0
  0
MTEXT
  5
2991
330
EE5
100
AcDbEntity
  8
DIM
 62
     0
100
AcDbMText
 10
28.70670621496533
 20
15.89735459328667
 30
0.0
 40
0.3125
 41
0.0
 71
     5
 72
     1
  1
\A1;A
 73
     1
 44
1.0
  0
POINT
  5
2992
330
EE5
100
AcDbEntity
  8
DEFPOINTS
 62
     0
100
AcDbPoint
 10
28.41120621496532
 20
15.45185970879745
 30
0.0
  0
POINT
  5
2993
330
EE5
100
AcDbEntity
  8
DEFPOINTS
 62
     0
100
AcDbPoint
 10
29.00220621496534
 20
15.38935970879745
 30
0.0
  0
POINT
  5
2994
330
EE5
100
AcDbEntity
  8
DEFPOINTS
 62
     0
100
AcDbPoint
 10
29.00220621496534
 20
15.89735459328667
 30
0.0
  0
ENDBLK
  5
EF1
330
EE5
100
AcDbEntity
  8
0
100
AcDbBlockEnd
  0
BLOCK
  5
F27
330
F1B
100
AcDbEntity
  8
0
100
AcDbBlockBegin
  2
*D35
 70
     1
 10
0.0
 20
0.0
 30
0.0
  3
*D35
  1

  0
LINE
  5
299F
330
F1B
100
AcDbEntity
  8
DIM
 62
     0
370
    -2
100
AcDbLine
 10
31.52571733171515
 20
19.85858016003017
 30
0.0
 11
29.13641133738493
 21
19.85858016003017
 31
0.0
  0
LINE
  5
29A0
330
F1B
100
AcDbEntity
  8
DIM
 62
     0
370
    -2
100
AcDbLine
 10
31.52571733171515
 20
19.53858016003017
 30
0.0
 11
29.13641133738493
 21
19.53858016003017
 31
0.0
  0
LINE
  5
29A1
330
F1B
100
AcDbEntity
  8
DIM
 62
     0
370
    -2
100
AcDbLine
 10
29.36891133738493
 20
20.30858016003017
 30
0.0
 11
29.36891133738493
 21
20.75858016003017
 31
0.0
  0
LINE
  5
29A2
330
F1B
100
AcDbEntity
  8
DIM
 62
     0
370
    -2
100
AcDbLine
 10
29.36891133738493
 20
19.08858016003017
 30
0.0
 11
29.36891133738493
 21
18.63858016003017
 31
0.0
  0
LINE
  5
29A3
330
F1B
100
AcDbEntity
  8
DIM
 62
     0
370
    -2
100
AcDbLine
 10
29.36891133738493
 20
18.63858016003017
 30
0.0
 11
28.91891133738493
 21
18.63858016003017
 31
0.0
  0
SOLID
  5
29A4
330
F1B
100
AcDbEntity
  8
DIM
 62
     0
100
AcDbTrace
 10
29.29391133738493
 20
20.30858016003017
 30
0.0
 11
29.44391133738493
 21
20.30858016003017
 31
0.0
 12
29.36891133738493
 22
19.85858016003017
 32
0.0
 13
29.36891133738493
 23
19.85858016003017
 33
0.0
  0
SOLID
  5
29A5
330
F1B
100
AcDbEntity
  8
DIM
 62
     0
100
AcDbTrace
 10
29.29391133738493
 20
19.08858016003017
 30
0.0
 11
29.44391133738493
 21
19.08858016003017
 31
0.0
 12
29.36891133738493
 22
19.53858016003017
 32
0.0
 13
29.36891133738493
 23
19.53858016003017
 33
0.0
  0
MTEXT
  5
29A6
330
F1B
100
AcDbEntity
  8
DIM
 62
     0
100
AcDbMText
 10
28.28375508738492
 20
18.63858016003017
 30
0.0
 40
0.3125
 41
0.0
 71
     5
 72
     1
  1
\A1;0.080
 73
     1
 44
1.0
  0
POINT
  5
29A7
330
F1B
100
AcDbEntity
  8
DEFPOINTS
 62
     0
100
AcDbPoint
 10
31.68321733171515
 20
19.85858016003017
 30
0.0
  0
POINT
  5
29A8
330
F1B
100
AcDbEntity
  8
DEFPOINTS
 62
     0
100
AcDbPoint
 10
31.68321733171515
 20
19.53858016003017
 30
0.0
  0
POINT
  5
29A9
330
F1B
100
AcDbEntity
  8
DEFPOINTS
 62
     0
100
AcDbPoint
 10
29.36891133738493
 20
19.53858016003017
 30
0.0
  0
ENDBLK
  5
F28
330
F1B
100
AcDbEntity
  8
0
100
AcDbBlockEnd
  0
BLOCK
  5
F34
330
F29
100
AcDbEntity
  8
0
100
AcDbBlockBegin
  2
*D36
 70
     1
 10
0.0
 20
0.0
 30
0.0
  3
*D36
  1

  0
LINE
  5
29C8
330
F29
100
AcDbEntity
  8
DIM
 62
     0
370
    -2
100
AcDbLine
 10
31.68321733171515
 20
20.65766935034862
 30
0.0
 11
31.68321733171515
 21
21.55019038718993
 31
0.0
  0
LINE
  5
29C9
330
F29
100
AcDbEntity
  8
DIM
 62
     0
370
    -2
100
AcDbLine
 10
32.14321733171514
 20
20.01608016003017
 30
0.0
 11
32.14321733171514
 21
21.55019038718993
 31
0.0
  0
LINE
  5
29CA
330
F29
100
AcDbEntity
  8
DIM
 62
     0
370
    -2
100
AcDbLine
 10
31.23321733171515
 20
21.31769038718992
 30
0.0
 11
30.78321733171515
 21
21.31769038718992
 31
0.0
  0
LINE
  5
29CB
330
F29
100
AcDbEntity
  8
DIM
 62
     0
370
    -2
100
AcDbLine
 10
32.59321733171514
 20
21.31769038718992
 30
0.0
 11
33.04321733171514
 21
21.31769038718992
 31
0.0
  0
SOLID
  5
29CC
330
F29
100
AcDbEntity
  8
DIM
 62
     0
100
AcDbTrace
 10
31.23321733171515
 20
21.39269038718992
 30
0.0
 11
31.23321733171515
 21
21.24269038718992
 31
0.0
 12
31.68321733171515
 22
21.31769038718992
 32
0.0
 13
31.68321733171515
 23
21.31769038718992
 33
0.0
  0
SOLID
  5
29CD
330
F29
100
AcDbEntity
  8
DIM
 62
     0
100
AcDbTrace
 10
32.59321733171514
 20
21.39269038718992
 30
0.0
 11
32.59321733171514
 21
21.24269038718992
 31
0.0
 12
32.14321733171514
 22
21.31769038718992
 32
0.0
 13
32.14321733171514
 23
21.31769038718992
 33
0.0
  0
MTEXT
  5
29CE
330
F29
100
AcDbEntity
  8
DIM
 62
     0
100
AcDbMText
 10
33.63931108171514
 20
21.31769038718992
 30
0.0
 40
0.3125
 41
0.0
 71
     5
 72
     1
  1
\A1;0.115
 73
     1
 44
1.0
  0
POINT
  5
29CF
330
F29
100
AcDbEntity
  8
DEFPOINTS
 62
     0
100
AcDbPoint
 10
31.68321733171515
 20
20.50016935034862
 30
0.0
  0
POINT
  5
29D0
330
F29
100
AcDbEntity
  8
DEFPOINTS
 62
     0
100
AcDbPoint
 10
32.14321733171514
 20
19.85858016003017
 30
0.0
  0
POINT
  5
29D1
330
F29
100
AcDbEntity
  8
DEFPOINTS
 62
     0
100
AcDbPoint
 10
32.14321733171514
 20
21.31769038718992
 30
0.0
  0
ENDBLK
  5
F35
330
F29
100
AcDbEntity
  8
0
100
AcDbBlockEnd
  0
BLOCK
  5
F41
330
F36
100
AcDbEntity
  8
0
100
AcDbBlockBegin
  2
*D37
 70
     1
 10
0.0
 20
0.0
 30
0.0
  3
*D37
  1

  0
LINE
  5
29AA
330
F36
100
AcDbEntity
  8
DIM
 62
     0
370
    -2
100
AcDbLine
 10
34.20021246055001
 20
18.12085672908661
 30
0.0
 11
35.49207216314485
 21
18.12085672908661
 31
0.0
  0
LINE
  5
29AB
330
F36
100
AcDbEntity
  8
DIM
 62
     0
370
    -2
100
AcDbLine
 10
34.20021246055001
 20
19.36085672908661
 30
0.0
 11
35.49207216314485
 21
19.36085672908661
 31
0.0
  0
LINE
  5
29AC
330
F36
100
AcDbEntity
  8
DIM
 62
     0
370
    -2
100
AcDbLine
 10
35.25957216314485
 20
17.67085672908661
 30
0.0
 11
35.25957216314485
 21
17.22085672908661
 31
0.0
  0
LINE
  5
29AD
330
F36
100
AcDbEntity
  8
DIM
 62
     0
370
    -2
100
AcDbLine
 10
35.25957216314485
 20
19.81085672908661
 30
0.0
 11
35.25957216314485
 21
20.26085672908661
 31
0.0
  0
SOLID
  5
29AE
330
F36
100
AcDbEntity
  8
DIM
 62
     0
100
AcDbTrace
 10
35.18457216314485
 20
17.67085672908661
 30
0.0
 11
35.33457216314485
 21
17.67085672908661
 31
0.0
 12
35.25957216314485
 22
18.12085672908661
 32
0.0
 13
35.25957216314485
 23
18.12085672908661
 33
0.0
  0
SOLID
  5
29AF
330
F36
100
AcDbEntity
  8
DIM
 62
     0
100
AcDbTrace
 10
35.18457216314485
 20
19.81085672908661
 30
0.0
 11
35.33457216314485
 21
19.81085672908661
 31
0.0
 12
35.25957216314485
 22
19.36085672908661
 32
0.0
 13
35.25957216314485
 23
19.36085672908661
 33
0.0
  0
MTEXT
  5
29B0
330
F36
100
AcDbEntity
  8
DIM
 62
     0
100
AcDbMText
 10
35.25957216314484
 20
18.74085672908662
 30
0.0
 40
0.3125
 41
0.0
 71
     5
 72
     1
  1
\A1;0.310 DIA.\PC'BORE
 73
     1
 44
1.0
  0
POINT
  5
29B1
330
F36
100
AcDbEntity
  8
DEFPOINTS
 62
     0
100
AcDbPoint
 10
34.04271246055001
 20
18.12085672908661
 30
0.0
  0
POINT
  5
29B2
330
F36
100
AcDbEntity
  8
DEFPOINTS
 62
     0
100
AcDbPoint
 10
34.04271246055001
 20
19.36085672908661
 30
0.0
  0
POINT
  5
29B3
330
F36
100
AcDbEntity
  8
DEFPOINTS
 62
     0
100
AcDbPoint
 10
35.25957216314485
 20
19.36085672908661
 30
0.0
  0
ENDBLK
  5
F42
330
F36
100
AcDbEntity
  8
0
100
AcDbBlockEnd
  0
BLOCK
  5
F4E
330
F43
100
AcDbEntity
  8
0
100
AcDbBlockBegin
  2
*D38
 70
     1
 10
0.0
 20
0.0
 30
0.0
  3
*D38
  1

  0
LINE
  5
29B4
330
F43
100
AcDbEntity
  8
DIM
 62
     0
370
    -2
100
AcDbLine
 10
31.52479741760508
 20
19.09214565801781
 30
0.0
 11
30.37985213934579
 21
19.09214565801781
 31
0.0
  0
LINE
  5
29B5
330
F43
100
AcDbEntity
  8
DIM
 62
     0
370
    -2
100
AcDbLine
 10
31.52479741760508
 20
18.40464565801781
 30
0.0
 11
30.37985213934579
 21
18.40464565801781
 31
0.0
  0
LINE
  5
29B6
330
F43
100
AcDbEntity
  8
DIM
 62
     0
370
    -2
100
AcDbLine
 10
30.61235213934579
 20
19.54214565801781
 30
0.0
 11
30.61235213934579
 21
19.99214565801781
 31
0.0
  0
LINE
  5
29B7
330
F43
100
AcDbEntity
  8
DIM
 62
     0
370
    -2
100
AcDbLine
 10
30.61235213934579
 20
17.95464565801781
 30
0.0
 11
30.61235213934579
 21
17.50464565801781
 31
0.0
  0
SOLID
  5
29B8
330
F43
100
AcDbEntity
  8
DIM
 62
     0
100
AcDbTrace
 10
30.53735213934579
 20
19.54214565801781
 30
0.0
 11
30.68735213934579
 21
19.54214565801781
 31
0.0
 12
30.61235213934579
 22
19.09214565801781
 32
0.0
 13
30.61235213934579
 23
19.09214565801781
 33
0.0
  0
SOLID
  5
29B9
330
F43
100
AcDbEntity
  8
DIM
 62
     0
100
AcDbTrace
 10
30.53735213934579
 20
17.95464565801781
 30
0.0
 11
30.68735213934579
 21
17.95464565801781
 31
0.0
 12
30.61235213934579
 22
18.40464565801781
 32
0.0
 13
30.61235213934579
 23
18.40464565801781
 33
0.0
  0
MTEXT
  5
29BA
330
F43
100
AcDbEntity
  8
DIM
 62
     0
100
AcDbMText
 10
30.61235213934578
 20
18.74839565801782
 30
0.0
 40
0.3125
 41
0.0
 71
     5
 72
     1
  1
\A1;0.172 DIA.
 73
     1
 44
1.0
  0
POINT
  5
29BB
330
F43
100
AcDbEntity
  8
DEFPOINTS
 62
     0
100
AcDbPoint
 10
31.68229741760508
 20
19.09214565801781
 30
0.0
  0
POINT
  5
29BC
330
F43
100
AcDbEntity
  8
DEFPOINTS
 62
     0
100
AcDbPoint
 10
31.68229741760508
 20
18.40464565801781
 30
0.0
  0
POINT
  5
29BD
330
F43
100
AcDbEntity
  8
DEFPOINTS
 62
     0
100
AcDbPoint
 10
30.61235213934579
 20
18.40464565801781
 30
0.0
  0
ENDBLK
  5
F4F
330
F43
100
AcDbEntity
  8
0
100
AcDbBlockEnd
  0
BLOCK
  5
F5B
330
F50
100
AcDbEntity
  8
0
100
AcDbBlockBegin
  2
*D39
 70
     1
 10
0.0
 20
0.0
 30
0.0
  3
*D39
  1

  0
LINE
  5
283A
330
F50
100
AcDbEntity
  8
DIM
 62
     0
370
    -2
100
AcDbLine
 10
4.959082240213915
 20
7.636359708797459
 30
0.0
 11
4.959082240213915
 21
5.758526496969048
 31
0.0
  0
LINE
  5
283B
330
F50
100
AcDbEntity
  8
DIM
 62
     0
370
    -2
100
AcDbLine
 10
8.00508224021391
 20
7.636359708797459
 30
0.0
 11
8.00508224021391
 21
5.758526496969048
 31
0.0
  0
LINE
  5
283C
330
F50
100
AcDbEntity
  8
DIM
 62
     0
370
    -2
100
AcDbLine
 10
5.409082240213916
 20
5.991026496969048
 30
0.0
 11
5.807863490213913
 21
5.991026496969048
 31
0.0
  0
LINE
  5
283D
330
F50
100
AcDbEntity
  8
DIM
 62
     0
370
    -2
100
AcDbLine
 10
7.55508224021391
 20
5.991026496969048
 30
0.0
 11
7.156300990213912
 21
5.991026496969048
 31
0.0
  0
SOLID
  5
283E
330
F50
100
AcDbEntity
  8
DIM
 62
     0
100
AcDbTrace
 10
5.409082240213916
 20
6.066026496969048
 30
0.0
 11
5.409082240213916
 21
5.916026496969048
 31
0.0
 12
4.959082240213915
 22
5.991026496969048
 32
0.0
 13
4.959082240213915
 23
5.991026496969048
 33
0.0
  0
SOLID
  5
283F
330
F50
100
AcDbEntity
  8
DIM
 62
     0
100
AcDbTrace
 10
7.55508224021391
 20
6.066026496969048
 30
0.0
 11
7.55508224021391
 21
5.916026496969048
 31
0.0
 12
8.00508224021391
 22
5.991026496969048
 32
0.0
 13
8.00508224021391
 23
5.991026496969048
 33
0.0
  0
MTEXT
  5
2840
330
F50
100
AcDbEntity
  8
DIM
 62
     0
100
AcDbMText
 10
6.482082240213912
 20
5.991026496969048
 30
0.0
 40
0.3125
 41
0.0
 71
     5
 72
     1
  1
\A1;3.046
 73
     1
 44
1.0
  0
POINT
  5
2841
330
F50
100
AcDbEntity
  8
DEFPOINTS
 62
     0
100
AcDbPoint
 10
4.959082240213915
 20
7.793859708797459
 30
0.0
  0
POINT
  5
2842
330
F50
100
AcDbEntity
  8
DEFPOINTS
 62
     0
100
AcDbPoint
 10
8.00508224021391
 20
7.793859708797459
 30
0.0
  0
POINT
  5
2843
330
F50
100
AcDbEntity
  8
DEFPOINTS
 62
     0
100
AcDbPoint
 10
8.00508224021391
 20
5.991026496969048
 30
0.0
  0
ENDBLK
  5
F5C
330
F50
100
AcDbEntity
  8
0
100
AcDbBlockEnd
  0
BLOCK
  5
F68
330
F5D
100
AcDbEntity
  8
0
100
AcDbBlockBegin
  2
*D40
 70
     1
 10
0.0
 20
0.0
 30
0.0
  3
*D40
  1

  0
LINE
  5
288C
330
F5D
100
AcDbEntity
  8
DIM
 62
     0
370
    -2
100
AcDbLine
 10
8.782832240213918
 20
7.577859708797458
 30
0.0
 11
10.19925954699323
 21
7.577859708797457
 31
0.0
  0
LINE
  5
288D
330
F5D
100
AcDbEntity
  8
DIM
 62
     0
370
    -2
100
AcDbLine
 10
8.773332240213912
 20
8.055609708797462
 30
0.0
 11
10.19925954699323
 21
8.055609708797462
 31
0.0
  0
LINE
  5
288E
330
F5D
100
AcDbEntity
  8
DIM
 62
     0
370
    -2
100
AcDbLine
 10
9.96675954699323
 20
7.127859708797458
 30
0.0
 11
9.96675954699323
 21
6.677859708797457
 31
0.0
  0
LINE
  5
288F
330
F5D
100
AcDbEntity
  8
DIM
 62
     0
370
    -2
100
AcDbLine
 10
9.96675954699323
 20
8.505609708797461
 30
0.0
 11
9.96675954699323
 21
8.955609708797462
 31
0.0
  0
SOLID
  5
2890
330
F5D
100
AcDbEntity
  8
DIM
 62
     0
100
AcDbTrace
 10
9.891759546993231
 20
7.127859708797458
 30
0.0
 11
10.04175954699322
 21
7.127859708797457
 31
0.0
 12
9.96675954699323
 22
7.577859708797458
 32
0.0
 13
9.96675954699323
 23
7.577859708797458
 33
0.0
  0
SOLID
  5
2891
330
F5D
100
AcDbEntity
  8
DIM
 62
     0
100
AcDbTrace
 10
9.891759546993231
 20
8.505609708797461
 30
0.0
 11
10.04175954699322
 21
8.505609708797461
 31
0.0
 12
9.96675954699323
 22
8.055609708797462
 32
0.0
 13
9.96675954699323
 23
8.055609708797462
 33
0.0
  0
MTEXT
  5
2892
330
F5D
100
AcDbEntity
  8
DIM
 62
     0
100
AcDbMText
 10
9.966759546993229
 20
7.816734708797461
 30
0.0
 40
0.3125
 41
0.0
 71
     5
 72
     1
  1
\A1;0.478
 73
     1
 44
1.0
  0
POINT
  5
2893
330
F5D
100
AcDbEntity
  8
DEFPOINTS
 62
     0
100
AcDbPoint
 10
8.625332240213918
 20
7.577859708797458
 30
0.0
  0
POINT
  5
2894
330
F5D
100
AcDbEntity
  8
DEFPOINTS
 62
     0
100
AcDbPoint
 10
8.615832240213912
 20
8.055609708797462
 30
0.0
  0
POINT
  5
2895
330
F5D
100
AcDbEntity
  8
DEFPOINTS
 62
     0
100
AcDbPoint
 10
9.96675954699323
 20
8.055609708797462
 30
0.0
  0
ENDBLK
  5
F69
330
F5D
100
AcDbEntity
  8
0
100
AcDbBlockEnd
  0
BLOCK
  5
F8F
330
F84
100
AcDbEntity
  8
0
100
AcDbBlockBegin
  2
*D41
 70
     1
 10
0.0
 20
0.0
 30
0.0
  3
*D41
  1

  0
LINE
  5
28BE
330
F84
100
AcDbEntity
  8
DIM
 62
     0
370
    -2
100
AcDbLine
 10
6.482082240213911
 20
15.13735970879745
 30
0.0
 11
6.482082240213911
 21
17.47493563404265
 31
0.0
  0
LINE
  5
28BF
330
F84
100
AcDbEntity
  8
DIM
 62
     0
370
    -2
100
AcDbLine
 10
4.120082240213918
 20
15.39060970879744
 30
0.0
 11
4.120082240213918
 21
17.47493563404265
 31
0.0
  0
LINE
  5
28C0
330
F84
100
AcDbEntity
  8
DIM
 62
     0
370
    -2
100
AcDbLine
 10
6.932082240213911
 20
17.24243563404265
 30
0.0
 11
7.382082240213911
 21
17.24243563404265
 31
0.0
  0
LINE
  5
28C1
330
F84
100
AcDbEntity
  8
DIM
 62
     0
370
    -2
100
AcDbLine
 10
3.670082240213917
 20
17.24243563404265
 30
0.0
 11
3.220082240213918
 21
17.24243563404265
 31
0.0
  0
SOLID
  5
28C2
330
F84
100
AcDbEntity
  8
DIM
 62
     0
100
AcDbTrace
 10
6.932082240213911
 20
17.31743563404265
 30
0.0
 11
6.932082240213911
 21
17.16743563404265
 31
0.0
 12
6.482082240213911
 22
17.24243563404265
 32
0.0
 13
6.482082240213911
 23
17.24243563404265
 33
0.0
  0
SOLID
  5
28C3
330
F84
100
AcDbEntity
  8
DIM
 62
     0
100
AcDbTrace
 10
3.670082240213917
 20
17.31743563404265
 30
0.0
 11
3.670082240213917
 21
17.16743563404265
 31
0.0
 12
4.120082240213918
 22
17.24243563404265
 32
0.0
 13
4.120082240213918
 23
17.24243563404265
 33
0.0
  0
MTEXT
  5
28C4
330
F84
100
AcDbEntity
  8
DIM
 62
     0
100
AcDbMText
 10
5.301082240213914
 20
17.24243563404265
 30
0.0
 40
0.3125
 41
0.0
 71
     5
 72
     1
  1
\A1;2.362
 73
     1
 44
1.0
  0
POINT
  5
28C5
330
F84
100
AcDbEntity
  8
DEFPOINTS
 62
     0
100
AcDbPoint
 10
6.482082240213911
 20
14.97985970879746
 30
0.0
  0
POINT
  5
28C6
330
F84
100
AcDbEntity
  8
DEFPOINTS
 62
     0
100
AcDbPoint
 10
4.120082240213918
 20
15.23310970879744
 30
0.0
  0
POINT
  5
28C7
330
F84
100
AcDbEntity
  8
DEFPOINTS
 62
     0
100
AcDbPoint
 10
4.120082240213918
 20
17.24243563404265
 30
0.0
  0
ENDBLK
  5
F90
330
F84
100
AcDbEntity
  8
0
100
AcDbBlockEnd
  0
BLOCK
  5
F9C
330
F91
100
AcDbEntity
  8
0
100
AcDbBlockBegin
  2
*D42
 70
     1
 10
0.0
 20
0.0
 30
0.0
  3
*D42
  1

  0
LINE
  5
28F1
330
F91
100
AcDbEntity
  8
DIM
 62
     0
370
    -2
100
AcDbLine
 10
4.544582240213911
 20
13.80785970879744
 30
0.0
 11
3.262682269117193
 21
13.80785970879744
 31
0.0
  0
LINE
  5
28F2
330
F91
100
AcDbEntity
  8
DIM
 62
     0
370
    -2
100
AcDbLine
 10
4.544582240213911
 20
14.67685970879745
 30
0.0
 11
3.262682269117193
 21
14.67685970879746
 31
0.0
  0
LINE
  5
28F3
330
F91
100
AcDbEntity
  8
DIM
 62
     0
370
    -2
100
AcDbLine
 10
3.495182269117193
 20
13.35785970879745
 30
0.0
 11
3.495182269117193
 21
12.90785970879744
 31
0.0
  0
LINE
  5
28F4
330
F91
100
AcDbEntity
  8
DIM
 62
     0
370
    -2
100
AcDbLine
 10
3.495182269117194
 20
15.12685970879745
 30
0.0
 11
3.495182269117194
 21
15.57685970879746
 31
0.0
  0
SOLID
  5
28F5
330
F91
100
AcDbEntity
  8
DIM
 62
     0
100
AcDbTrace
 10
3.420182269117193
 20
13.35785970879745
 30
0.0
 11
3.570182269117193
 21
13.35785970879745
 31
0.0
 12
3.495182269117193
 22
13.80785970879744
 32
0.0
 13
3.495182269117193
 23
13.80785970879744
 33
0.0
  0
SOLID
  5
28F6
330
F91
100
AcDbEntity
  8
DIM
 62
     0
100
AcDbTrace
 10
3.420182269117193
 20
15.12685970879745
 30
0.0
 11
3.570182269117194
 21
15.12685970879745
 31
0.0
 12
3.495182269117193
 22
14.67685970879746
 32
0.0
 13
3.495182269117193
 23
14.67685970879746
 33
0.0
  0
MTEXT
  5
28F7
330
F91
100
AcDbEntity
  8
DIM
 62
     0
100
AcDbMText
 10
3.495182269117191
 20
14.24235970879745
 30
0.0
 40
0.3125
 41
0.0
 71
     5
 72
     1
  1
\A1;0.869
 73
     1
 44
1.0
  0
POINT
  5
28F8
330
F91
100
AcDbEntity
  8
DEFPOINTS
 62
     0
100
AcDbPoint
 10
4.70208224021391
 20
13.80785970879744
 30
0.0
  0
POINT
  5
28F9
330
F91
100
AcDbEntity
  8
DEFPOINTS
 62
     0
100
AcDbPoint
 10
4.70208224021391
 20
14.67685970879745
 30
0.0
  0
POINT
  5
28FA
330
F91
100
AcDbEntity
  8
DEFPOINTS
 62
     0
100
AcDbPoint
 10
3.495182269117193
 20
14.67685970879746
 30
0.0
  0
ENDBLK
  5
F9D
330
F91
100
AcDbEntity
  8
0
100
AcDbBlockEnd
  0
BLOCK
  5
1011
330
1006
100
AcDbEntity
  8
0
100
AcDbBlockBegin
  2
*D43
 70
     1
 10
0.0
 20
0.0
 30
0.0
  3
*D43
  1

  0
LINE
  5
2896
330
1006
100
AcDbEntity
  8
DIM
 62
     0
370
    -2
100
AcDbLine
 10
14.36476537978136
 20
7.498359708797457
 30
0.0
 11
14.36476537978136
 21
7.005359708797459
 31
0.0
  0
LINE
  5
2897
330
1006
100
AcDbEntity
  8
DIM
 62
     0
370
    -2
100
AcDbLine
 10
16.41676537978136
 20
7.470359708797459
 30
0.0
 11
16.41676537978136
 21
7.005359708797459
 31
0.0
  0
LINE
  5
2898
330
1006
100
AcDbEntity
  8
DIM
 62
     0
370
    -2
100
AcDbLine
 10
13.91476537978136
 20
7.237859708797459
 30
0.0
 11
13.46476537978136
 21
7.237859708797459
 31
0.0
  0
LINE
  5
2899
330
1006
100
AcDbEntity
  8
DIM
 62
     0
370
    -2
100
AcDbLine
 10
16.86676537978136
 20
7.237859708797459
 30
0.0
 11
17.31676537978136
 21
7.237859708797459
 31
0.0
  0
SOLID
  5
289A
330
1006
100
AcDbEntity
  8
DIM
 62
     0
100
AcDbTrace
 10
13.91476537978136
 20
7.312859708797459
 30
0.0
 11
13.91476537978136
 21
7.162859708797459
 31
0.0
 12
14.36476537978136
 22
7.237859708797459
 32
0.0
 13
14.36476537978136
 23
7.237859708797459
 33
0.0
  0
SOLID
  5
289B
330
1006
100
AcDbEntity
  8
DIM
 62
     0
100
AcDbTrace
 10
16.86676537978136
 20
7.312859708797459
 30
0.0
 11
16.86676537978136
 21
7.162859708797459
 31
0.0
 12
16.41676537978136
 22
7.237859708797459
 32
0.0
 13
16.41676537978136
 23
7.237859708797459
 33
0.0
  0
MTEXT
  5
289C
330
1006
100
AcDbEntity
  8
DIM
 62
     0
100
AcDbMText
 10
15.39076537978136
 20
7.237859708797459
 30
0.0
 40
0.3125
 41
0.0
 71
     5
 72
     1
  1
\A1;2.052
 73
     1
 44
1.0
  0
POINT
  5
289D
330
1006
100
AcDbEntity
  8
DEFPOINTS
 62
     0
100
AcDbPoint
 10
14.36476537978136
 20
7.655859708797457
 30
0.0
  0
POINT
  5
289E
330
1006
100
AcDbEntity
  8
DEFPOINTS
 62
     0
100
AcDbPoint
 10
16.41676537978136
 20
7.627859708797458
 30
0.0
  0
POINT
  5
289F
330
1006
100
AcDbEntity
  8
DEFPOINTS
 62
     0
100
AcDbPoint
 10
16.41676537978136
 20
7.237859708797459
 30
0.0
  0
ENDBLK
  5
1012
330
1006
100
AcDbEntity
  8
0
100
AcDbBlockEnd
  0
BLOCK
  5
1117
330
110C
100
AcDbEntity
  8
0
100
AcDbBlockBegin
  2
*D44
 70
     1
 10
0.0
 20
0.0
 30
0.0
  3
*D44
  1

  0
LINE
  5
2859
330
110C
100
AcDbEntity
  8
DIM
 62
     0
370
    -2
100
AcDbLine
 10
4.052582240213921
 20
4.030453608383104
 30
0.0
 11
3.187592211277818
 21
4.030453608383104
 31
0.0
  0
LINE
  5
285A
330
110C
100
AcDbEntity
  8
DIM
 62
     0
370
    -2
100
AcDbLine
 10
4.012582240213915
 20
1.60345360838311
 30
0.0
 11
3.187592211277818
 21
1.60345360838311
 31
0.0
  0
LINE
  5
285B
330
110C
100
AcDbEntity
  8
DIM
 62
     0
370
    -2
100
AcDbLine
 10
3.420092211277818
 20
3.580453608383104
 30
0.0
 11
3.420092211277818
 21
3.198203608383107
 31
0.0
  0
LINE
  5
285C
330
110C
100
AcDbEntity
  8
DIM
 62
     0
370
    -2
100
AcDbLine
 10
3.420092211277818
 20
2.05345360838311
 30
0.0
 11
3.420092211277818
 21
2.435703608383107
 31
0.0
  0
SOLID
  5
285D
330
110C
100
AcDbEntity
  8
DIM
 62
     0
100
AcDbTrace
 10
3.345092211277818
 20
3.580453608383104
 30
0.0
 11
3.495092211277818
 21
3.580453608383104
 31
0.0
 12
3.420092211277818
 22
4.030453608383104
 32
0.0
 13
3.420092211277818
 23
4.030453608383104
 33
0.0
  0
SOLID
  5
285E
330
110C
100
AcDbEntity
  8
DIM
 62
     0
100
AcDbTrace
 10
3.345092211277818
 20
2.05345360838311
 30
0.0
 11
3.495092211277818
 21
2.05345360838311
 31
0.0
 12
3.420092211277818
 22
1.60345360838311
 32
0.0
 13
3.420092211277818
 23
1.60345360838311
 33
0.0
  0
MTEXT
  5
285F
330
110C
100
AcDbEntity
  8
DIM
 62
     0
100
AcDbMText
 10
3.420092211277817
 20
2.816953608383108
 30
0.0
 40
0.3125
 41
0.0
 71
     5
 72
     1
  1
\A1;2.427
 73
     1
 44
1.0
  0
POINT
  5
2860
330
110C
100
AcDbEntity
  8
DEFPOINTS
 62
     0
100
AcDbPoint
 10
4.210082240213921
 20
4.030453608383104
 30
0.0
  0
POINT
  5
2861
330
110C
100
AcDbEntity
  8
DEFPOINTS
 62
     0
100
AcDbPoint
 10
4.170082240213915
 20
1.60345360838311
 30
0.0
  0
POINT
  5
2862
330
110C
100
AcDbEntity
  8
DEFPOINTS
 62
     0
100
AcDbPoint
 10
3.420092211277818
 20
1.60345360838311
 30
0.0
  0
ENDBLK
  5
1118
330
110C
100
AcDbEntity
  8
0
100
AcDbBlockEnd
  0
BLOCK
  5
1125
330
111A
100
AcDbEntity
  8
0
100
AcDbBlockBegin
  2
*D45
 70
     1
 10
0.0
 20
0.0
 30
0.0
  3
*D45
  1

  0
LINE
  5
2882
330
111A
100
AcDbEntity
  8
DIM
 62
     0
370
    -2
100
AcDbLine
 10
8.981582240213914
 20
3.970453608383109
 30
0.0
 11
9.731681858407792
 21
3.970453608383108
 31
0.0
  0
LINE
  5
2883
330
111A
100
AcDbEntity
  8
DIM
 62
     0
370
    -2
100
AcDbLine
 10
8.951582240213914
 20
1.60345360838311
 30
0.0
 11
9.731681858407792
 21
1.603453608383109
 31
0.0
  0
LINE
  5
2884
330
111A
100
AcDbEntity
  8
DIM
 62
     0
370
    -2
100
AcDbLine
 10
9.499181858407792
 20
3.520453608383108
 30
0.0
 11
9.499181858407792
 21
3.168203608383109
 31
0.0
  0
LINE
  5
2885
330
111A
100
AcDbEntity
  8
DIM
 62
     0
370
    -2
100
AcDbLine
 10
9.499181858407792
 20
2.053453608383109
 30
0.0
 11
9.499181858407792
 21
2.405703608383109
 31
0.0
  0
SOLID
  5
2886
330
111A
100
AcDbEntity
  8
DIM
 62
     0
100
AcDbTrace
 10
9.424181858407793
 20
3.520453608383108
 30
0.0
 11
9.574181858407792
 21
3.520453608383108
 31
0.0
 12
9.499181858407792
 22
3.970453608383108
 32
0.0
 13
9.499181858407792
 23
3.970453608383108
 33
0.0
  0
SOLID
  5
2887
330
111A
100
AcDbEntity
  8
DIM
 62
     0
100
AcDbTrace
 10
9.424181858407793
 20
2.053453608383109
 30
0.0
 11
9.574181858407792
 21
2.053453608383109
 31
0.0
 12
9.499181858407792
 22
1.60345360838311
 32
0.0
 13
9.499181858407792
 23
1.60345360838311
 33
0.0
  0
MTEXT
  5
2888
330
111A
100
AcDbEntity
  8
DIM
 62
     0
100
AcDbMText
 10
9.499181858407792
 20
2.786953608383111
 30
0.0
 40
0.3125
 41
0.0
 71
     5
 72
     1
  1
\A1;2.367
 73
     1
 44
1.0
  0
POINT
  5
2889
330
111A
100
AcDbEntity
  8
DEFPOINTS
 62
     0
100
AcDbPoint
 10
8.824082240213913
 20
3.970453608383109
 30
0.0
  0
POINT
  5
288A
330
111A
100
AcDbEntity
  8
DEFPOINTS
 62
     0
100
AcDbPoint
 10
8.794082240213914
 20
1.60345360838311
 30
0.0
  0
POINT
  5
288B
330
111A
100
AcDbEntity
  8
DEFPOINTS
 62
     0
100
AcDbPoint
 10
9.499181858407792
 20
1.60345360838311
 30
0.0
  0
ENDBLK
  5
1126
330
111A
100
AcDbEntity
  8
0
100
AcDbBlockEnd
  0
BLOCK
  5
1164
330
1159
100
AcDbEntity
  8
0
100
AcDbBlockBegin
  2
*D46
 70
     1
 10
0.0
 20
0.0
 30
0.0
  3
*D46
  1

  0
LINE
  5
29BE
330
1159
100
AcDbEntity
  8
DIM
 62
     0
370
    -2
100
AcDbLine
 10
34.04721733171515
 20
17.8968956580178
 30
0.0
 11
34.04721733171515
 21
17.1068956580178
 31
0.0
  0
LINE
  5
29BF
330
1159
100
AcDbEntity
  8
DIM
 62
     0
370
    -2
100
AcDbLine
 10
33.54721733171514
 20
17.97089565801781
 30
0.0
 11
33.54721733171514
 21
17.1068956580178
 31
0.0
  0
LINE
  5
29C0
330
1159
100
AcDbEntity
  8
DIM
 62
     0
370
    -2
100
AcDbLine
 10
34.49721733171515
 20
17.3393956580178
 30
0.0
 11
34.94721733171515
 21
17.3393956580178
 31
0.0
  0
LINE
  5
29C1
330
1159
100
AcDbEntity
  8
DIM
 62
     0
370
    -2
100
AcDbLine
 10
33.09721733171514
 20
17.3393956580178
 30
0.0
 11
32.64721733171514
 21
17.3393956580178
 31
0.0
  0
SOLID
  5
29C2
330
1159
100
AcDbEntity
  8
DIM
 62
     0
100
AcDbTrace
 10
34.49721733171515
 20
17.4143956580178
 30
0.0
 11
34.49721733171515
 21
17.2643956580178
 31
0.0
 12
34.04721733171515
 22
17.3393956580178
 32
0.0
 13
34.04721733171515
 23
17.3393956580178
 33
0.0
  0
SOLID
  5
29C3
330
1159
100
AcDbEntity
  8
DIM
 62
     0
100
AcDbTrace
 10
33.09721733171514
 20
17.4143956580178
 30
0.0
 11
33.09721733171514
 21
17.2643956580178
 31
0.0
 12
33.54721733171514
 22
17.3393956580178
 32
0.0
 13
33.54721733171514
 23
17.3393956580178
 33
0.0
  0
MTEXT
  5
29C4
330
1159
100
AcDbEntity
  8
DIM
 62
     0
100
AcDbMText
 10
32.34409233171514
 20
17.3393956580178
 30
0.0
 40
0.3125
 41
0.0
 71
     5
 72
     1
  1
\A1;B
 73
     1
 44
1.0
  0
POINT
  5
29C5
330
1159
100
AcDbEntity
  8
DEFPOINTS
 62
     0
100
AcDbPoint
 10
34.04721733171515
 20
18.0543956580178
 30
0.0
  0
POINT
  5
29C6
330
1159
100
AcDbEntity
  8
DEFPOINTS
 62
     0
100
AcDbPoint
 10
33.54721733171514
 20
18.12839565801781
 30
0.0
  0
POINT
  5
29C7
330
1159
100
AcDbEntity
  8
DEFPOINTS
 62
     0
100
AcDbPoint
 10
33.54721733171514
 20
17.3393956580178
 30
0.0
  0
ENDBLK
  5
1165
330
1159
100
AcDbEntity
  8
0
100
AcDbBlockEnd
  0
BLOCK
  5
1316
330
130B
100
AcDbEntity
  8
0
100
AcDbBlockBegin
  2
*D47
 70
     1
 10
0.0
 20
0.0
 30
0.0
  3
*D47
  1

  0
LINE
  5
296D
330
130B
100
AcDbEntity
  8
DIM
 62
     0
370
    -2
100
AcDbLine
 10
35.68902280072801
 20
14.86485970879744
 30
0.0
 11
36.68308909862853
 21
14.86485970879744
 31
0.0
  0
LINE
  5
296E
330
130B
100
AcDbEntity
  8
DIM
 62
     0
370
    -2
100
AcDbLine
 10
35.68902280072801
 20
8.164859708797454
 30
0.0
 11
36.68308909862853
 21
8.164859708797452
 31
0.0
  0
LINE
  5
296F
330
130B
100
AcDbEntity
  8
DIM
 62
     0
370
    -2
100
AcDbLine
 10
36.45058909862853
 20
14.41485970879744
 30
0.0
 11
36.45058909862853
 21
11.89610970879744
 31
0.0
  0
LINE
  5
2970
330
130B
100
AcDbEntity
  8
DIM
 62
     0
370
    -2
100
AcDbLine
 10
36.45058909862853
 20
8.614859708797451
 30
0.0
 11
36.45058909862853
 21
11.13360970879744
 31
0.0
  0
SOLID
  5
2971
330
130B
100
AcDbEntity
  8
DIM
 62
     0
100
AcDbTrace
 10
36.37558909862853
 20
14.41485970879744
 30
0.0
 11
36.52558909862853
 21
14.41485970879744
 31
0.0
 12
36.45058909862853
 22
14.86485970879744
 32
0.0
 13
36.45058909862853
 23
14.86485970879744
 33
0.0
  0
SOLID
  5
2972
330
130B
100
AcDbEntity
  8
DIM
 62
     0
100
AcDbTrace
 10
36.37558909862853
 20
8.614859708797451
 30
0.0
 11
36.52558909862853
 21
8.614859708797451
 31
0.0
 12
36.45058909862853
 22
8.164859708797452
 32
0.0
 13
36.45058909862853
 23
8.164859708797452
 33
0.0
  0
MTEXT
  5
2973
330
130B
100
AcDbEntity
  8
DIM
 62
     0
100
AcDbMText
 10
36.45058909862853
 20
11.51485970879745
 30
0.0
 40
0.3125
 41
0.0
 71
     5
 72
     1
  1
\A1;6.700
 73
     1
 44
1.0
  0
POINT
  5
2974
330
130B
100
AcDbEntity
  8
DEFPOINTS
 62
     0
100
AcDbPoint
 10
35.53152280072801
 20
14.86485970879744
 30
0.0
  0
POINT
  5
2975
330
130B
100
AcDbEntity
  8
DEFPOINTS
 62
     0
100
AcDbPoint
 10
35.53152280072801
 20
8.164859708797454
 30
0.0
  0
POINT
  5
2976
330
130B
100
AcDbEntity
  8
DEFPOINTS
 62
     0
100
AcDbPoint
 10
36.45058909862853
 20
8.164859708797452
 30
0.0
  0
ENDBLK
  5
1317
330
130B
100
AcDbEntity
  8
0
100
AcDbBlockEnd
  0
BLOCK
  5
132E
330
1323
100
AcDbEntity
  8
0
100
AcDbBlockBegin
  2
*D48
 70
     1
 10
0.0
 20
0.0
 30
0.0
  3
*D48
  1

  0
LINE
  5
2977
330
1323
100
AcDbEntity
  8
DIM
 62
     0
370
    -2
100
AcDbLine
 10
35.53152280072801
 20
8.007359708797453
 30
0.0
 11
35.53152280072801
 21
6.751868924486916
 31
0.0
  0
LINE
  5
2978
330
1323
100
AcDbEntity
  8
DIM
 62
     0
370
    -2
100
AcDbLine
 10
31.36652280072802
 20
8.007359708797453
 30
0.0
 11
31.36652280072802
 21
6.751868924486916
 31
0.0
  0
LINE
  5
2979
330
1323
100
AcDbEntity
  8
DIM
 62
     0
370
    -2
100
AcDbLine
 10
35.08152280072801
 20
6.984368924486916
 30
0.0
 11
34.10371030072802
 21
6.984368924486916
 31
0.0
  0
LINE
  5
297A
330
1323
100
AcDbEntity
  8
DIM
 62
     0
370
    -2
100
AcDbLine
 10
31.81652280072801
 20
6.984368924486916
 30
0.0
 11
32.79433530072801
 21
6.984368924486916
 31
0.0
  0
SOLID
  5
297B
330
1323
100
AcDbEntity
  8
DIM
 62
     0
100
AcDbTrace
 10
35.08152280072801
 20
7.059368924486916
 30
0.0
 11
35.08152280072801
 21
6.909368924486916
 31
0.0
 12
35.53152280072801
 22
6.984368924486916
 32
0.0
 13
35.53152280072801
 23
6.984368924486916
 33
0.0
  0
SOLID
  5
297C
330
1323
100
AcDbEntity
  8
DIM
 62
     0
100
AcDbTrace
 10
31.81652280072801
 20
7.059368924486916
 30
0.0
 11
31.81652280072801
 21
6.909368924486916
 31
0.0
 12
31.36652280072802
 22
6.984368924486916
 32
0.0
 13
31.36652280072802
 23
6.984368924486916
 33
0.0
  0
MTEXT
  5
297D
330
1323
100
AcDbEntity
  8
DIM
 62
     0
100
AcDbMText
 10
33.44902280072801
 20
6.984368924486916
 30
0.0
 40
0.3125
 41
0.0
 71
     5
 72
     1
  1
\A1;4.165
 73
     1
 44
1.0
  0
POINT
  5
297E
330
1323
100
AcDbEntity
  8
DEFPOINTS
 62
     0
100
AcDbPoint
 10
35.53152280072801
 20
8.164859708797454
 30
0.0
  0
POINT
  5
297F
330
1323
100
AcDbEntity
  8
DEFPOINTS
 62
     0
100
AcDbPoint
 10
31.36652280072802
 20
8.164859708797454
 30
0.0
  0
POINT
  5
2980
330
1323
100
AcDbEntity
  8
DEFPOINTS
 62
     0
100
AcDbPoint
 10
31.36652280072802
 20
6.984368924486916
 30
0.0
  0
ENDBLK
  5
132F
330
1323
100
AcDbEntity
  8
0
100
AcDbBlockEnd
  0
BLOCK
  5
1BDE
330
1BC7
100
AcDbEntity
  8
0
100
AcDbBlockBegin
  2
HBS
 70
     0
 10
0.0
 20
0.0
 30
0.0
  3
HBS
  1

  0
LINE
  5
1BC8
330
1BC7
100
AcDbEntity
  8
TITLE
100
AcDbLine
 10
0.0620000000000118
 20
10.266
 30
0.0
 11
16.53800000000001
 21
10.266
 31
0.0
  0
LINE
  5
1BC9
330
1BC7
100
AcDbEntity
  8
TITLE
100
AcDbLine
 10
16.53800000000001
 20
0.0620000000000012
 30
0.0
 11
0.0620000000000118
 21
0.0620000000000012
 31
0.0
  0
LINE
  5
1BCA
330
1BC7
100
AcDbEntity
  8
TITLE
100
AcDbLine
 10
0.0
 20
10.32799999999999
 30
0.0
 11
16.59999999999999
 21
10.32799999999999
 31
0.0
  0
LINE
  5
1BCB
330
1BC7
100
AcDbEntity
  8
TITLE
100
AcDbLine
 10
16.59999999999999
 20
0.0
 30
0.0
 11
0.0
 21
0.0
 31
0.0
  0
LINE
  5
1BCC
330
1BC7
100
AcDbEntity
  8
TITLE
100
AcDbLine
 10
0.0620000000000118
 20
9.848000000000002
 30
0.0
 11
16.53800000000001
 21
9.848000000000006
 31
0.0
  0
LINE
  5
1BCD
330
1BC7
100
AcDbEntity
  8
TITLE
100
AcDbLine
 10
0.0620000000000118
 20
0.0620000000000012
 30
0.0
 11
0.0620000000000118
 21
10.266
 31
0.0
  0
LINE
  5
1BCE
330
1BC7
100
AcDbEntity
  8
TITLE
100
AcDbLine
 10
0.0
 20
0.0
 30
0.0
 11
0.0
 21
10.32799999999999
 31
0.0
  0
TEXT
  5
1BCF
330
1BC7
100
AcDbEntity
  8
TEXT
100
AcDbText
 10
0.2078333333333452
 20
9.888079195640081
 30
0.0
 40
0.125
  1
NAME
 72
     1
 11
0.4370000000000119
 21
9.888079195640081
 31
0.0
100
AcDbText
  0
TEXT
  5
1BD0
330
1BC7
100
AcDbEntity
  8
TEXT
100
AcDbText
 10
0.2078333333333452
 20
10.09641252897341
 30
0.0
 40
0.125
  1
PART
 72
     1
 11
0.4370000000000119
 21
10.09641252897341
 31
0.0
100
AcDbText
  0
LINE
  5
1BD1
330
1BC7
100
AcDbEntity
  8
TITLE
100
AcDbLine
 10
0.8120000000000118
 20
9.848000000000002
 30
0.0
 11
0.8120000000000118
 21
10.266
 31
0.0
  0
LINE
  5
1BD2
330
1BC7
100
AcDbEntity
  8
TITLE
100
AcDbLine
 10
7.0
 20
10.266
 30
0.0
 11
7.0
 21
9.848000000000002
 31
0.0
  0
LINE
  5
1BD3
330
1BC7
100
AcDbEntity
  8
TITLE
100
AcDbLine
 10
7.062000000000011
 20
10.266
 30
0.0
 11
7.062000000000011
 21
9.848000000000002
 31
0.0
  0
LINE
  5
1BD4
330
1BC7
100
AcDbEntity
  8
TITLE
100
AcDbLine
 10
7.812000000000011
 20
10.266
 30
0.0
 11
7.812000000000011
 21
9.848000000000002
 31
0.0
  0
TEXT
  5
1BD5
330
1BC7
100
AcDbEntity
  8
TEXT
100
AcDbText
 10
7.312000000000011
 20
9.888079195640081
 30
0.0
 40
0.125
  1
No.
 72
     1
 11
7.437000000000011
 21
9.888079195640081
 31
0.0
100
AcDbText
  0
TEXT
  5
1BD6
330
1BC7
100
AcDbEntity
  8
TEXT
100
AcDbText
 10
7.207833333333344
 20
10.09641252897341
 30
0.0
 40
0.125
  1
PART
 72
     1
 11
7.437000000000011
 21
10.09641252897341
 31
0.0
100
AcDbText
  0
LINE
  5
1BD7
330
1BC7
100
AcDbEntity
  8
TITLE
100
AcDbLine
 10
16.53800000000001
 20
10.266
 30
0.0
 11
16.53800000000001
 21
0.0620000000000012
 31
0.0
  0
LINE
  5
1BD8
330
1BC7
100
AcDbEntity
  8
TITLE
100
AcDbLine
 10
16.59999999999999
 20
10.32799999999999
 30
0.0
 11
16.59999999999999
 21
0.0
 31
0.0
  0
TEXT
  5
1BD9
330
1BC7
100
AcDbEntity
  8
TEXT
100
AcDbText
 10
14.22865779971668
 20
10.09641252897341
 30
0.0
 40
0.125
  1
REV.
 72
     1
 11
14.43699113305001
 21
10.09641252897341
 31
0.0
100
AcDbText
  0
TEXT
  5
1BDA
330
1BC7
100
AcDbEntity
  8
TEXT
100
AcDbText
 10
14.20782446638335
 20
9.888079195640081
 30
0.0
 40
0.125
  1
DATE
 72
     1
 11
14.43699113305001
 21
9.888079195640081
 31
0.0
100
AcDbText
  0
LINE
  5
1BDB
330
1BC7
100
AcDbEntity
  8
TITLE
100
AcDbLine
 10
14.06199113305001
 20
10.266
 30
0.0
 11
14.06199113305001
 21
9.848000000000002
 31
0.0
  0
LINE
  5
1BDC
330
1BC7
100
AcDbEntity
  8
TITLE
100
AcDbLine
 10
14.81199113305001
 20
10.266
 30
0.0
 11
14.81199113305001
 21
9.848000000000002
 31
0.0
  0
LINE
  5
1BDD
330
1BC7
100
AcDbEntity
  8
TITLE
100
AcDbLine
 10
13.99999113305
 20
10.266
 30
0.0
 11
13.99999113305
 21
9.848000000000002
 31
0.0
  0
ENDBLK
  5
1BDF
330
1BC7
100
AcDbEntity
  8
0
100
AcDbBlockEnd
  0
BLOCK
  5
1E98
330
1E8D
100
AcDbEntity
  8
0
100
AcDbBlockBegin
  2
*D50
 70
     1
 10
0.0
 20
0.0
 30
0.0
  3
*D50
  1

  0
LINE
  5
2981
330
1E8D
100
AcDbEntity
  8
DIM
 62
     0
370
    -2
100
AcDbLine
 10
37.24438758964213
 20
15.54685970879744
 30
0.0
 11
37.24438758964213
 21
16.34300827948034
 31
0.0
  0
LINE
  5
2982
330
1E8D
100
AcDbEntity
  8
DIM
 62
     0
370
    -2
100
AcDbLine
 10
40.20238758964211
 20
15.54685970879746
 30
0.0
 11
40.20238758964211
 21
16.34300827948034
 31
0.0
  0
LINE
  5
2983
330
1E8D
100
AcDbEntity
  8
DIM
 62
     0
370
    -2
100
AcDbLine
 10
37.69438758964213
 20
16.11050827948034
 30
0.0
 11
38.42026258964212
 21
16.11050827948034
 31
0.0
  0
LINE
  5
2984
330
1E8D
100
AcDbEntity
  8
DIM
 62
     0
370
    -2
100
AcDbLine
 10
39.75238758964211
 20
16.11050827948034
 30
0.0
 11
39.02651258964212
 21
16.11050827948034
 31
0.0
  0
SOLID
  5
2985
330
1E8D
100
AcDbEntity
  8
DIM
 62
     0
100
AcDbTrace
 10
37.69438758964213
 20
16.18550827948034
 30
0.0
 11
37.69438758964213
 21
16.03550827948034
 31
0.0
 12
37.24438758964213
 22
16.11050827948034
 32
0.0
 13
37.24438758964213
 23
16.11050827948034
 33
0.0
  0
SOLID
  5
2986
330
1E8D
100
AcDbEntity
  8
DIM
 62
     0
100
AcDbTrace
 10
39.75238758964211
 20
16.18550827948034
 30
0.0
 11
39.75238758964211
 21
16.03550827948034
 31
0.0
 12
40.20238758964211
 22
16.11050827948034
 32
0.0
 13
40.20238758964211
 23
16.11050827948034
 33
0.0
  0
MTEXT
  5
2987
330
1E8D
100
AcDbEntity
  8
DIM
 62
     0
100
AcDbMText
 10
38.72338758964212
 20
16.11050827948034
 30
0.0
 40
0.3125
 41
0.0
 71
     5
 72
     1
  1
\A1;C
 73
     1
 44
1.0
  0
POINT
  5
2988
330
1E8D
100
AcDbEntity
  8
DEFPOINTS
 62
     0
100
AcDbPoint
 10
37.24438758964213
 20
15.38935970879744
 30
0.0
  0
POINT
  5
2989
330
1E8D
100
AcDbEntity
  8
DEFPOINTS
 62
     0
100
AcDbPoint
 10
40.20238758964211
 20
15.38935970879746
 30
0.0
  0
POINT
  5
298A
330
1E8D
100
AcDbEntity
  8
DEFPOINTS
 62
     0
100
AcDbPoint
 10
40.20238758964211
 20
16.11050827948034
 30
0.0
  0
ENDBLK
  5
1E99
330
1E8D
100
AcDbEntity
  8
0
100
AcDbBlockEnd
  0
ENDSEC
  0
SECTION
  2
ENTITIES
  0
TEXT
  5
9E9
330
1E
100
AcDbEntity
  8
TEXT
100
AcDbText
 10
31.35440614366104
 20
16.5265680347686
 30
0.0
 40
0.312
  1
%%UDETAIL "C"
 41
0.8
  7
SECTION
100
AcDbText
  0
TEXT
  5
9EA
330
1E
100
AcDbEntity
  8
TEXT
100
AcDbText
 10
24.14632922067845
 20
5.591094891827204
 30
0.0
 40
0.45
  1
%%UCOVER
 41
0.75
 72
     1
 11
24.99570422067844
 21
5.591094891827204
 31
0.0
100
AcDbText
  0
TEXT
  5
9EB
330
1E
100
AcDbEntity
  8
TEXT
100
AcDbText
 10
7.649684268532766
 20
0.7100388086092338
 30
0.0
 40
0.45
  1
%%UBODY
 41
0.75
 72
     1
 11
8.274059268532766
 21
0.7100388086092338
 31
0.0
100
AcDbText
  0
LINE
  5
9EC
330
1E
100
AcDbEntity
  8
OBJECT
100
AcDbLine
 10
4.338832240213918
 20
7.577859708797458
 30
0.0
 11
8.625332240213921
 21
7.577859708797458
 31
0.0
  0
LINE
  5
9ED
330
1E
100
AcDbEntity
  8
OBJECT
100
AcDbLine
 10
8.625332240213921
 20
7.597859708797457
 30
0.0
 11
4.338832240213918
 21
7.597859708797457
 31
0.0
  0
LINE
  5
9EE
330
1E
100
AcDbEntity
  8
OBJECT
100
AcDbLine
 10
4.210082240213907
 20
8.153859708797462
 30
0.0
 11
4.210082240213914
 21
14.87585970879744
 31
0.0
  0
LINE
  5
9EF
330
1E
100
AcDbEntity
  8
OBJECT
100
AcDbLine
 10
4.250082240213913
 20
8.153859708797462
 30
0.0
 11
4.250082240213913
 21
14.87585970879744
 31
0.0
  0
LINE
  5
9F0
330
1E
100
AcDbEntity
  8
OBJECT
100
AcDbLine
 10
4.140082240213914
 20
7.796609708797458
 30
0.0
 11
4.140082240213914
 21
15.23310970879744
 31
0.0
  0
LINE
  5
9F1
330
1E
100
AcDbEntity
  8
OBJECT
100
AcDbLine
 10
4.338832240213918
 20
15.45185970879744
 30
0.0
 11
8.625332240213914
 21
15.45185970879744
 31
0.0
  0
LINE
  5
9F2
330
1E
100
AcDbEntity
  8
OBJECT
100
AcDbLine
 10
8.824082240213918
 20
15.23310970879744
 30
0.0
 11
8.824082240213918
 21
7.796609708797458
 31
0.0
  0
LINE
  5
9F3
330
1E
100
AcDbEntity
  8
OBJECT
100
AcDbLine
 10
4.338832240213918
 20
15.43185970879744
 30
0.0
 11
8.625332240213914
 21
15.43185970879744
 31
0.0
  0
ARC
  5
9F4
330
1E
100
AcDbEntity
  8
OBJECT
100
AcDbCircle
 10
4.338832240213918
 20
7.796609708797458
 30
0.0
 40
0.21875
100
AcDbArc
 50
180.0
 51
270.0
  0
ARC
  5
9F5
330
1E
100
AcDbEntity
  8
OBJECT
100
AcDbCircle
 10
4.338832240213918
 20
7.796609708797458
 30
0.0
 40
0.19875
100
AcDbArc
 50
180.0
 51
270.0
  0
TEXT
  5
9F6
330
1E
100
AcDbEntity
  8
TEXT
100
AcDbText
 10
13.88952965407173
 20
6.293185772481422
 30
0.0
 40
0.312
  1
%%USECTION "A-A"
 41
0.8
  7
SECTION
100
AcDbText
  0
LINE
  5
9FA
102
{ACAD_REACTORS
330
2BCB
102
}
330
1E
100
AcDbEntity
  8
OBJECT
100
AcDbLine
 10
16.08176537978136
 20
14.58310970879745
 30
0.0
 11
16.29976537978136
 21
14.58310970879745
 31
0.0
  0
LINE
  5
9FB
102
{ACAD_REACTORS
330
2BCB
102
}
330
1E
100
AcDbEntity
  8
OBJECT
100
AcDbLine
 10
16.08176537978136
 20
14.77060970879746
 30
0.0
 11
16.29976537978136
 21
14.77060970879746
 31
0.0
  0
LINE
  5
9FC
330
1E
100
AcDbEntity
  8
OBJECT
100
AcDbLine
 10
16.08176537978136
 20
14.61785970879745
 30
0.0
 11
16.29976537978136
 21
14.61785970879745
 31
0.0
  0
LINE
  5
9FD
330
1E
100
AcDbEntity
  8
OBJECT
100
AcDbLine
 10
16.08176537978136
 20
14.73585970879747
 30
0.0
 11
16.29976537978136
 21
14.73585970879747
 31
0.0
  0
LINE
  5
9FE
102
{ACAD_REACTORS
330
2BCB
102
}
330
1E
100
AcDbEntity
  8
OBJECT
100
AcDbLine
 10
16.29976537978136
 20
14.77060970879746
 30
0.0
 11
16.29976537978135
 21
14.58310970879745
 31
0.0
  0
CIRCLE
  5
9FF
330
1E
100
AcDbEntity
  8
OBJECT
 62
     4
100
AcDbCircle
 10
4.356082240213915
 20
7.813859708797458
 30
0.0
 40
0.125
  0
CIRCLE
  5
A00
330
1E
100
AcDbEntity
  8
OBJECT
 62
     4
100
AcDbCircle
 10
4.356082240213915
 20
7.813859708797458
 30
0.0
 40
0.0785
  0
LINE
  5
A01
330
1E
100
AcDbEntity
  8
OBJECT
100
AcDbLine
 10
4.120082240213918
 20
15.23310970879744
 30
0.0
 11
4.120082240213918
 21
7.796609708797458
 31
0.0
  0
LINE
  5
A02
330
1E
100
AcDbEntity
  8
OBJECT
100
AcDbLine
 10
8.844082240213914
 20
15.23310970879744
 30
0.0
 11
8.844082240213914
 21
7.796609708797458
 31
0.0
  0
CIRCLE
  5
A03
330
1E
100
AcDbEntity
  8
OBJECT
 62
     4
100
AcDbCircle
 10
8.608082240213917
 20
7.813859708797458
 30
0.0
 40
0.0785
  0
CIRCLE
  5
A04
330
1E
100
AcDbEntity
  8
OBJECT
 62
     4
100
AcDbCircle
 10
8.608082240213917
 20
7.813859708797458
 30
0.0
 40
0.125
  0
ARC
  5
A05
330
1E
100
AcDbEntity
  8
OBJECT
100
AcDbCircle
 10
8.625332240213921
 20
7.796609708797458
 30
0.0
 40
0.19875
100
AcDbArc
 50
270.0
 51
0.0
  0
ARC
  5
A06
330
1E
100
AcDbEntity
  8
OBJECT
100
AcDbCircle
 10
8.625332240213921
 20
7.796609708797458
 30
0.0
 40
0.21875
100
AcDbArc
 50
270.0
 51
0.0
  0
CIRCLE
  5
A07
330
1E
100
AcDbEntity
  8
OBJECT
 62
     4
100
AcDbCircle
 10
4.356082240213922
 20
15.21585970879744
 30
0.0
 40
0.0785
  0
CIRCLE
  5
A08
330
1E
100
AcDbEntity
  8
OBJECT
 62
     4
100
AcDbCircle
 10
4.356082240213922
 20
15.21585970879744
 30
0.0
 40
0.125
  0
ARC
  5
A0C
330
1E
100
AcDbEntity
  8
OBJECT
100
AcDbCircle
 10
4.338832240213918
 20
15.23310970879744
 30
0.0
 40
0.19875
100
AcDbArc
 50
90.0
 51
180.0
  0
ARC
  5
A0D
330
1E
100
AcDbEntity
  8
OBJECT
100
AcDbCircle
 10
4.338832240213918
 20
15.23310970879744
 30
0.0
 40
0.21875
100
AcDbArc
 50
90.0
 51
180.0
  0
ARC
  5
A0E
330
1E
100
AcDbEntity
  8
OBJECT
100
AcDbCircle
 10
8.625332240213921
 20
15.23310970879744
 30
0.0
 40
0.21875
100
AcDbArc
 50
0.0
 51
90.0
  0
ARC
  5
A0F
330
1E
100
AcDbEntity
  8
OBJECT
100
AcDbCircle
 10
8.625332240213921
 20
15.23310970879744
 30
0.0
 40
0.19875
100
AcDbArc
 50
0.0
 51
90.0
  0
CIRCLE
  5
A10
330
1E
100
AcDbEntity
  8
OBJECT
 62
     4
100
AcDbCircle
 10
8.608082240213917
 20
15.21585970879744
 30
0.0
 40
0.125
  0
CIRCLE
  5
A11
330
1E
100
AcDbEntity
  8
OBJECT
 62
     4
100
AcDbCircle
 10
8.608082240213917
 20
15.21585970879744
 30
0.0
 40
0.0785
  0
DIMENSION
  5
A12
330
1E
100
AcDbEntity
  8
DIM
100
AcDbDimension
  2
*D1
 10
0.998038882084103
 20
15.45185970879744
 30
0.0
 11
2.1222576320841
 21
16.35185970879744
 31
0.0
 70
    32
  1
<>
 71
     5
 42
0.2359999999999882
  3
23NSTD
100
AcDbAlignedDimension
 13
4.356082240213921
 23
15.21585970879745
 33
0.0
 14
4.338832240213918
 24
15.45185970879744
 34
0.0
 50
90.0
100
AcDbRotatedDimension
  0
DIMENSION
  5
A13
330
1E
100
AcDbEntity
  8
DIM
100
AcDbDimension
  2
*D2
 10
0.998038882084103
 20
15.21585970879745
 30
0.0
 11
0.9980388820841003
 21
11.51485970879745
 31
0.0
 70
    32
  1
<>
 71
     5
 42
7.401999999999989
  3
23NSTD
100
AcDbAlignedDimension
 13
4.356082240213915
 23
7.813859708797458
 33
0.0
 14
4.356082240213921
 24
15.21585970879744
 34
0.0
 50
90.0
100
AcDbRotatedDimension
  0
DIMENSION
  5
A14
330
1E
100
AcDbEntity
  8
DIM
100
AcDbDimension
  2
*D3
 10
4.120082240213918
 20
18.50693563404266
 30
0.0
 11
2.545863490213918
 21
18.50693563404266
 31
0.0
 70
    32
  1
<>
 71
     5
 42
0.2360000000000033
  3
23NSTD
100
AcDbAlignedDimension
 13
4.356082240213921
 23
15.21585970879744
 33
0.0
 14
4.120082240213918
 24
15.23310970879744
 34
0.0
100
AcDbRotatedDimension
  0
DIMENSION
  5
A15
330
1E
100
AcDbEntity
  8
DIM
100
AcDbDimension
  2
*D4
 10
4.120082240213918
 20
17.87468563404265
 30
0.0
 11
2.584925990213918
 21
17.87468563404265
 31
0.0
 70
    32
  1
<>
 71
     5
 42
0.590999999999994
  3
23NSTD
100
AcDbAlignedDimension
 13
4.711082240213912
 23
15.21585970879744
 33
0.0
 14
4.120082240213918
 24
15.23310970879744
 34
0.0
100
AcDbRotatedDimension
  0
DIMENSION
  5
A16
330
1E
100
AcDbEntity
  8
DIM
100
AcDbDimension
  2
*D5
 10
8.252769104237756
 20
17.87468563404265
 30
0.0
 11
6.481925672225834
 21
17.87468563404265
 31
0.0
 70
    32
 71
     5
 42
3.541686864023844
  3
23NSTD
100
AcDbAlignedDimension
 13
4.711082240213912
 23
15.21585970879744
 33
0.0
 14
8.252769104237756
 24
15.21580541473624
 34
0.0
100
AcDbRotatedDimension
  0
DIMENSION
  5
A17
330
1E
100
AcDbEntity
  8
DIM
100
AcDbDimension
  2
*D6
 10
8.608082240213914
 20
18.50693563404266
 30
0.0
 11
6.482082240213918
 21
18.50693563404266
 31
0.0
 70
    32
  1
<>
 71
     5
 42
4.251999999999992
  3
23NSTD
100
AcDbAlignedDimension
 13
4.356082240213921
 23
15.21585970879744
 33
0.0
 14
8.608082240213914
 24
15.21585970879744
 34
0.0
100
AcDbRotatedDimension
  0
DIMENSION
  5
A18
330
1E
100
AcDbEntity
  8
DIM
100
AcDbDimension
  2
*D7
 10
4.120082240213918
 20
5.991026496969048
 30
0.0
 11
2.545863490213918
 21
5.991026496969048
 31
0.0
 70
    32
  1
<>
 71
     5
 42
0.8389999999999977
  3
23NSTD
100
AcDbAlignedDimension
 13
4.959082240213915
 23
7.805859708797459
 33
0.0
 14
4.120082240213918
 24
7.796609708797458
 34
0.0
100
AcDbRotatedDimension
  0
DIMENSION
  5
A19
330
1E
100
AcDbEntity
  8
DIM
100
AcDbDimension
  2
*D39
 10
8.00508224021391
 20
5.991026496969048
 30
0.0
 11
6.482082240213912
 21
5.991026496969048
 31
0.0
 70
    32
  1
<>
 71
     5
 42
3.045999999999994
  3
23NSTDI
100
AcDbAlignedDimension
 13
4.959082240213915
 23
7.793859708797459
 33
0.0
 14
8.00508224021391
 24
7.793859708797459
 34
0.0
100
AcDbRotatedDimension
  0
DIMENSION
  5
A1A
330
1E
100
AcDbEntity
  8
DIM
100
AcDbDimension
  2
*D8
 10
8.844082240213914
 20
5.30812644924542
 30
0.0
 11
6.482082240213916
 21
5.30812644924542
 31
0.0
 70
   160
  1
<>
 71
     5
 42
4.723999999999996
  3
23NSTD
100
AcDbAlignedDimension
 13
4.120082240213918
 23
7.796609708797458
 33
0.0
 14
8.844082240213914
 24
7.796609708797458
 34
0.0
100
AcDbRotatedDimension
  0
DIMENSION
  5
A1B
330
1E
100
AcDbEntity
  8
DIM
100
AcDbDimension
  2
*D40
 10
9.96675954699323
 20
8.055609708797462
 30
0.0
 11
9.966759546993229
 21
7.816734708797461
 31
0.0
 70
    32
  1
<>
 71
     5
 42
0.4777500000000039
  3
23NSTDI
100
AcDbAlignedDimension
 13
8.625332240213918
 23
7.577859708797458
 33
0.0
 14
8.615832240213912
 24
8.055609708797462
 34
0.0
 50
90.0
100
AcDbRotatedDimension
  0
DIMENSION
  5
A1C
330
1E
100
AcDbEntity
  8
DIM
100
AcDbDimension
  2
*D9
 10
9.966759546993234
 20
14.97410970879744
 30
0.0
 11
9.96675954699323
 21
11.51485970879745
 31
0.0
 70
    32
  1
<>
 71
     5
 42
6.918499999999983
  3
23NSTD
100
AcDbAlignedDimension
 13
8.615832240213912
 23
8.055609708797462
 33
0.0
 14
8.615832240213912
 24
14.97410970879744
 34
0.0
 50
90.0
100
AcDbRotatedDimension
  0
DIMENSION
  5
A1D
330
1E
100
AcDbEntity
  8
DIM
100
AcDbDimension
  2
*D10
 10
11.33447609779799
 20
15.45185970879744
 30
0.0
 11
11.33447609779798
 21
11.51485970879745
 31
0.0
 70
    32
 71
     5
 42
7.873999999999988
  3
23NSTD
100
AcDbAlignedDimension
 13
8.751332240213919
 23
7.577859708797458
 33
0.0
 14
8.625332240213914
 24
15.45185970879744
 34
0.0
 50
90.0
100
AcDbRotatedDimension
  0
DIMENSION
  5
A1E
330
1E
100
AcDbEntity
  8
DIM
100
AcDbDimension
  2
*D11
 10
3.296321003518148
 20
7.577859708797458
 30
0.0
 11
2.172102253518147
 21
6.677859708797459
 31
0.0
 70
   160
  1
<>
 71
     5
 42
0.7750000000000031
  3
23NSTD
100
AcDbAlignedDimension
 13
4.70208224021391
 23
8.35285970879746
 33
0.0
 14
4.338832240213918
 24
7.577859708797458
 34
0.0
 50
90.0
100
AcDbRotatedDimension
  0
DIMENSION
  5
A1F
330
1E
100
AcDbEntity
  8
DIM
100
AcDbDimension
  2
*D12
 10
5.240968810992775
 20
14.67685970879745
 30
0.0
 11
5.240968810992773
 21
11.51485970879746
 31
0.0
 70
    32
  1
<>
 71
     5
 42
6.323999999999998
  3
23NSTD
100
AcDbAlignedDimension
 13
4.70208224021391
 23
8.35285970879746
 33
0.0
 14
4.70208224021391
 24
14.67685970879745
 34
0.0
 50
90.0
100
AcDbRotatedDimension
  0
DIMENSION
  5
A20
330
1E
100
AcDbEntity
  8
DIM
100
AcDbDimension
  2
*D13
 10
4.120082240213918
 20
9.781275700333454
 30
0.0
 11
2.096644740213918
 21
9.781275700333454
 31
0.0
 70
    32
  1
<> TYP.
 71
     5
 42
0.1299999999999954
  3
23NSTD
100
AcDbAlignedDimension
 13
4.250082240213913
 23
9.788842092367366
 33
0.0
 14
4.120082240213918
 24
9.788842092367366
 34
0.0
100
AcDbRotatedDimension
  0
DIMENSION
  5
A21
330
1E
100
AcDbEntity
  8
DIM
100
AcDbDimension
  2
*D14
 10
8.714082240213922
 20
9.781275700333454
 30
0.0
 11
6.317393561483632
 21
9.781275700333454
 31
0.0
 70
   160
 71
     5
 42
4.464000000000009
  3
23NSTD
100
AcDbAlignedDimension
 13
4.250082240213913
 23
9.788842092367366
 33
0.0
 14
8.714082240213922
 24
9.788842092367366
 34
0.0
100
AcDbRotatedDimension
  0
LINE
  5
A25
330
1E
100
AcDbEntity
  8
HIDDEN
100
AcDbLine
 10
4.250082240213913
 20
1.760453608383109
 30
0.0
 11
8.714082240213926
 21
1.760453608383109
 31
0.0
  0
LINE
  5
A26
330
1E
100
AcDbEntity
  8
OBJECT
100
AcDbLine
 10
4.120082240213918
 20
3.930453608383103
 30
0.0
 11
8.844082240213914
 21
3.930453608383103
 31
0.0
  0
LINE
  5
A27
330
1E
100
AcDbEntity
  8
OBJECT
100
AcDbLine
 10
8.824082240213911
 20
3.97045360838311
 30
0.0
 11
4.140082240213914
 21
3.97045360838311
 31
0.0
  0
LINE
  5
A28
330
1E
100
AcDbEntity
  8
OBJECT
100
AcDbLine
 10
4.210082240213921
 20
4.030453608383105
 30
0.0
 11
8.754082240213911
 21
4.030453608383105
 31
0.0
  0
LINE
  5
A29
330
1E
100
AcDbEntity
  8
OBJECT
100
AcDbLine
 10
4.170082240213915
 20
1.603453608383112
 30
0.0
 11
8.79408224021391
 21
1.603453608383112
 31
0.0
  0
LINE
  5
A2A
330
1E
100
AcDbEntity
  8
OBJECT
100
AcDbLine
 10
8.844082240213914
 20
3.930453608383103
 30
0.0
 11
8.844082240213914
 21
1.653453608383109
 31
0.0
  0
ARC
  5
A2B
330
1E
100
AcDbEntity
  8
OBJECT
100
AcDbCircle
 10
8.79408224021391
 20
1.653453608383109
 30
0.0
 40
0.05
100
AcDbArc
 50
270.0
 51
0.0
  0
LINE
  5
A2C
330
1E
100
AcDbEntity
  8
OBJECT
100
AcDbLine
 10
8.754082240213911
 20
3.970453608383103
 30
0.0
 11
8.754082240213911
 21
4.030453608383105
 31
0.0
  0
LINE
  5
A2D
330
1E
100
AcDbEntity
  8
OBJECT
100
AcDbLine
 10
8.824082240213911
 20
3.930453608383103
 30
0.0
 11
8.824082240213911
 21
3.97045360838311
 31
0.0
  0
LINE
  5
A2E
330
1E
100
AcDbEntity
  8
OBJECT
100
AcDbLine
 10
4.120082240213918
 20
3.930453608383103
 30
0.0
 11
4.120082240213918
 21
1.653453608383109
 31
0.0
  0
ARC
  5
A2F
330
1E
100
AcDbEntity
  8
OBJECT
100
AcDbCircle
 10
4.170082240213915
 20
1.653453608383109
 30
0.0
 40
0.05
100
AcDbArc
 50
180.0
 51
270.0
  0
LINE
  5
A30
330
1E
100
AcDbEntity
  8
OBJECT
100
AcDbLine
 10
4.210082240213921
 20
4.030453608383105
 30
0.0
 11
4.210082240213921
 21
3.97045360838311
 31
0.0
  0
LINE
  5
A31
330
1E
100
AcDbEntity
  8
OBJECT
100
AcDbLine
 10
4.140082240213914
 20
3.97045360838311
 30
0.0
 11
4.140082240213914
 21
3.930453608383103
 31
0.0
  0
LINE
  5
A32
330
1E
100
AcDbEntity
  8
HIDDEN
100
AcDbLine
 10
4.901130422769426
 20
3.97045360838311
 30
0.0
 11
4.901130422769426
 21
1.760453608383109
 31
0.0
  0
LINE
  5
A33
330
1E
100
AcDbEntity
  8
HIDDEN
100
AcDbLine
 10
4.959082240213916
 20
4.030453608383105
 30
0.0
 11
4.959082240213902
 21
1.760453608383109
 31
0.0
  0
LINE
  5
A34
330
1E
100
AcDbEntity
  8
OBJECT
100
AcDbLine
 10
4.919109773102775
 20
4.030453608383105
 30
0.0
 11
4.919109773102775
 21
3.97045360838311
 31
0.0
  0
LINE
  5
A35
330
1E
100
AcDbEntity
  8
HIDDEN
100
AcDbLine
 10
8.063034057658413
 20
3.97045360838311
 30
0.0
 11
8.063034057658413
 21
1.760453608383109
 31
0.0
  0
LINE
  5
A36
330
1E
100
AcDbEntity
  8
HIDDEN
100
AcDbLine
 10
8.390082240213914
 20
3.97045360838311
 30
0.0
 11
8.390082240213914
 21
1.760453608383109
 31
0.0
  0
LINE
  5
A37
330
1E
100
AcDbEntity
  8
HIDDEN
100
AcDbLine
 10
8.455332240213927
 20
3.655453608383108
 30
0.0
 11
8.45533224021392
 21
1.603453608383112
 31
0.0
  0
LINE
  5
A38
330
1E
100
AcDbEntity
  8
HIDDEN
100
AcDbLine
 10
8.765332240213922
 20
3.655453608383108
 30
0.0
 11
8.765332240213922
 21
1.603453608383112
 31
0.0
  0
LINE
  5
A3C
330
1E
100
AcDbEntity
  8
HIDDEN
100
AcDbLine
 10
8.735332240213921
 20
3.970453608383103
 30
0.0
 11
8.735332240213921
 21
3.655453608383108
 31
0.0
  0
LINE
  5
A3D
330
1E
100
AcDbEntity
  8
HIDDEN
100
AcDbLine
 10
8.547832240213921
 20
3.970453608383103
 30
0.0
 11
8.547832240213921
 21
3.655453608383108
 31
0.0
  0
LINE
  5
A3E
330
1E
100
AcDbEntity
  8
HIDDEN
100
AcDbLine
 10
8.485332240213921
 20
3.97045360838311
 30
0.0
 11
8.485332240213921
 21
3.655453608383108
 31
0.0
  0
LINE
  5
A3F
330
1E
100
AcDbEntity
  8
HIDDEN
100
AcDbLine
 10
8.672832240213921
 20
3.970453608383103
 30
0.0
 11
8.672832240213921
 21
3.655453608383108
 31
0.0
  0
LINE
  5
A40
330
1E
100
AcDbEntity
  8
OBJECT
100
AcDbLine
 10
8.04505470732505
 20
4.030453608383105
 30
0.0
 11
8.04505470732505
 21
3.97045360838311
 31
0.0
  0
LINE
  5
A41
330
1E
100
AcDbEntity
  8
HIDDEN
100
AcDbLine
 10
8.005082240213909
 20
4.030453608383105
 30
0.0
 11
8.005082240213923
 21
1.760453608383109
 31
0.0
  0
LINE
  5
A42
330
1E
100
AcDbEntity
  8
HIDDEN
100
AcDbLine
 10
8.714082240213926
 20
4.030453608383105
 30
0.0
 11
8.714082240213926
 21
1.760453608383109
 31
0.0
  0
LWPOLYLINE
  5
A43
330
1E
100
AcDbEntity
  8
OBJECT
100
AcDbPolyline
 90
        6
 70
     0
 43
0.0
 10
5.057332240213916
 20
15.36210970879746
 42
0.4142135623730943
 10
4.919082240213916
 20
15.22385970879746
 10
4.919082240213916
 20
15.17779720879744
 42
-0.4285919442752058
 10
4.743394740213915
 20
15.01410970879746
 10
4.348332240213919
 20
15.01410970879746
 42
0.4142135623730943
 10
4.210082240213921
 20
14.87585970879744
 42
0.4085342013378912
  0
LWPOLYLINE
  5
A4B
330
1E
100
AcDbEntity
  8
OBJECT
100
AcDbPolyline
 90
        6
 70
     0
 43
0.0
 10
5.057332240213916
 20
15.32210970879744
 42
0.4142135623731055
 10
4.959082240213915
 20
15.22385970879746
 10
4.959082240213915
 20
15.17779720879746
 42
-0.4258915568176446
 10
4.743394740213915
 20
14.97410970879744
 10
4.348332240213919
 20
14.97410970879744
 42
0.4142135623731002
 10
4.250082240213913
 20
14.87585970879744
 42
0.4081938992575477
  0
LINE
  5
A53
330
1E
100
AcDbEntity
  8
OBJECT
100
AcDbLine
 10
5.057332240213916
 20
15.36210970879746
 30
0.0
 11
7.906832240213915
 21
15.36210970879746
 31
0.0
  0
LINE
  5
A54
330
1E
100
AcDbEntity
  8
OBJECT
100
AcDbLine
 10
5.057332240213916
 20
15.32210970879744
 30
0.0
 11
7.906832240213915
 21
15.32210970879744
 31
0.0
  0
LWPOLYLINE
  5
A55
330
1E
100
AcDbEntity
  8
OBJECT
100
AcDbPolyline
 90
        6
 70
     0
 43
0.0
 10
7.906832240213911
 20
15.32210970879744
 42
-0.4142135623731055
 10
8.00508224021391
 20
15.22385970879746
 10
8.00508224021391
 20
15.17779720879746
 42
0.4258915568176446
 10
8.22076974021391
 20
14.97410970879744
 10
8.615832240213912
 20
14.97410970879744
 42
-0.4142135623731002
 10
8.714082240213915
 20
14.87585970879744
 42
-0.408193899257547
  0
LWPOLYLINE
  5
A5D
330
1E
100
AcDbEntity
  8
OBJECT
100
AcDbPolyline
 90
        6
 70
     0
 43
0.0
 10
7.906832240213911
 20
15.36210970879746
 42
-0.4142135623730943
 10
8.045082240213911
 20
15.22385970879746
 10
8.045082240213911
 20
15.17779720879744
 42
0.4285919442752058
 10
8.22076974021391
 20
15.01410970879746
 10
8.615832240213912
 20
15.01410970879746
 42
-0.4142135623730943
 10
8.754082240213913
 20
14.87585970879744
 42
-0.4085342013378905
  0
LINE
  5
A65
330
1E
100
AcDbEntity
  8
OBJECT
100
AcDbLine
 10
8.714082240213926
 20
8.153859708797462
 30
0.0
 11
8.714082240213919
 21
14.87585970879744
 31
0.0
  0
LINE
  5
A66
330
1E
100
AcDbEntity
  8
OBJECT
100
AcDbLine
 10
8.754082240213918
 20
8.153859708797462
 30
0.0
 11
8.754082240213918
 21
14.87585970879744
 31
0.0
  0
LINE
  5
A67
330
1E
100
AcDbEntity
  8
OBJECT
100
AcDbLine
 10
5.057332240213916
 20
7.707609708797463
 30
0.0
 11
7.906832240213915
 21
7.707609708797463
 31
0.0
  0
LWPOLYLINE
  5
A68
330
1E
100
AcDbEntity
  8
OBJECT
100
AcDbPolyline
 90
        6
 70
     0
 43
0.0
 10
5.057332240213916
 20
7.707609708797463
 42
-0.4142135623731055
 10
4.959082240213915
 20
7.805859708797459
 10
4.959082240213915
 20
7.839922208797446
 42
0.4142135623731121
 10
4.743394740213915
 20
8.055609708797462
 10
4.348332240213919
 20
8.055609708797462
 42
-0.4142135623731002
 10
4.250082240213913
 20
8.153859708797462
 42
-0.4081938992575476
  0
LWPOLYLINE
  5
A70
330
1E
100
AcDbEntity
  8
OBJECT
100
AcDbPolyline
 90
        6
 70
     0
 43
0.0
 10
5.057332240213916
 20
7.667609708797463
 42
-0.4142135623730943
 10
4.919082240213916
 20
7.805859708797459
 10
4.919082240213916
 20
7.83992220879746
 42
0.4142135623730958
 10
4.743394740213915
 20
8.015609708797462
 10
4.348332240213919
 20
8.015609708797462
 42
-0.4142135623730943
 10
4.210082240213921
 20
8.153859708797462
 42
-0.4085342013378913
  0
LWPOLYLINE
  5
A78
330
1E
100
AcDbEntity
  8
OBJECT
100
AcDbPolyline
 90
        6
 70
     0
 43
0.0
 10
7.906832240213911
 20
7.667609708797463
 42
0.4142135623730943
 10
8.045082240213911
 20
7.805859708797459
 10
8.045082240213911
 20
7.83992220879746
 42
-0.4142135623730958
 10
8.22076974021391
 20
8.015609708797462
 10
8.615832240213912
 20
8.015609708797462
 42
0.4142135623730943
 10
8.754082240213913
 20
8.153859708797462
 42
0.4085342013378906
  0
LWPOLYLINE
  5
A80
330
1E
100
AcDbEntity
  8
OBJECT
100
AcDbPolyline
 90
        6
 70
     0
 43
0.0
 10
7.906832240213911
 20
7.707609708797463
 42
0.4142135623731055
 10
8.00508224021391
 20
7.805859708797459
 10
8.00508224021391
 20
7.839922208797446
 42
-0.4142135623731121
 10
8.22076974021391
 20
8.055609708797462
 10
8.615832240213912
 20
8.055609708797462
 42
0.4142135623731002
 10
8.714082240213915
 20
8.153859708797462
 42
0.408193899257547
  0
LINE
  5
A88
330
1E
100
AcDbEntity
  8
OBJECT
100
AcDbLine
 10
5.057332240213916
 20
7.667609708797463
 30
0.0
 11
7.906832240213915
 21
7.667609708797463
 31
0.0
  0
CIRCLE
  5
A89
330
1E
100
AcDbEntity
  8
OBJECT
100
AcDbCircle
 10
6.482082240213912
 20
8.049859708797459
 30
0.0
 40
0.1425
  0
CIRCLE
  5
A8A
330
1E
100
AcDbEntity
  8
OBJECT
100
AcDbCircle
 10
6.482082240213912
 20
8.049859708797459
 30
0.0
 40
0.045
  0
CIRCLE
  5
A8B
330
1E
100
AcDbEntity
  8
OBJECT
100
AcDbCircle
 10
6.482082240213912
 20
14.97985970879746
 30
0.0
 40
0.045
  0
CIRCLE
  5
A8C
330
1E
100
AcDbEntity
  8
OBJECT
100
AcDbCircle
 10
6.482082240213912
 20
14.97985970879746
 30
0.0
 40
0.1425
  0
CIRCLE
  5
A93
330
1E
100
AcDbEntity
  8
OBJECT
100
AcDbCircle
 10
8.252769104237756
 20
7.81380541473624
 30
0.0
 40
0.0825
  0
CIRCLE
  5
A94
330
1E
100
AcDbEntity
  8
OBJECT
100
AcDbCircle
 10
4.710769104237755
 20
7.81380541473624
 30
0.0
 40
0.0825
  0
CIRCLE
  5
A95
330
1E
100
AcDbEntity
  8
OBJECT
100
AcDbCircle
 10
4.710769104237755
 20
15.21580541473624
 30
0.0
 40
0.0825
  0
CIRCLE
  5
A96
330
1E
100
AcDbEntity
  8
OBJECT
100
AcDbCircle
 10
8.252769104237756
 20
15.21580541473624
 30
0.0
 40
0.0825
  0
INSERT
  5
A97
330
1E
100
AcDbEntity
  8
BEND
100
AcDbBlockReference
 66
     1
  2
SECTION
 10
8.528695811690987
 20
7.151349944735947
 30
0.0
 50
90.0
  0
ATTRIB
  5
A98
330
A97
100
AcDbEntity
  8
0
100
AcDbText
 10
8.4148759083974
 20
7.001961321663114
 30
0.0
 40
0.2987772461456671
  1
A
 41
0.8000000000000003
  7
SECTION
 72
     4
 11
8.528695811690987
 21
7.151349944735947
 31
0.0
100
AcDbAttribute
  2
SECTION
 70
     0
  0
SEQEND
  5
A99
330
A97
100
AcDbEntity
  8
BEND
  0
INSERT
  5
A9A
330
1E
100
AcDbEntity
  8
BEND
100
AcDbBlockReference
 66
     1
  2
SECTION
 10
8.422211512973575
 20
15.79093256419159
 30
0.0
 41
0.9404999999999999
 42
0.9404999999999999
 43
0.9404999999999999
 50
90.0
  0
ATTRIB
  5
A9B
330
A9A
100
AcDbEntity
  8
0
100
AcDbText
 10
8.315163893925955
 20
15.65043256419158
 30
0.0
 40
0.281
  1
A
 41
0.8000000000000001
  7
SECTION
 72
     4
 11
8.422211512973575
 21
15.79093256419159
 31
0.0
100
AcDbAttribute
  2
SECTION
 70
     0
  0
SEQEND
  5
A9C
330
A9A
100
AcDbEntity
  8
BEND
  0
DIMENSION
  5
A9D
330
1E
100
AcDbEntity
  8
DIM
100
AcDbDimension
  2
*D15
 10
7.770395495854872
 20
15.32210970879744
 30
0.0
 11
7.770395495854869
 21
11.51485970879745
 31
0.0
 70
    32
 71
     5
 42
7.614499999999983
  3
23NSTD
100
AcDbAlignedDimension
 13
7.906832240213905
 23
7.707609708797463
 33
0.0
 14
7.906832240213905
 24
15.32210970879744
 34
0.0
 50
270.0
100
AcDbRotatedDimension
  0
LINE
  5
A9E
330
1E
100
AcDbEntity
  8
HIDDEN
100
AcDbLine
 10
8.170182240213918
 20
1.760453608383109
 30
0.0
 11
8.170182240213918
 21
1.603453608383112
 31
0.0
  0
LINE
  5
A9F
330
1E
100
AcDbEntity
  8
HIDDEN
100
AcDbLine
 10
8.335982240213922
 20
1.760453608383109
 30
0.0
 11
8.335982240213922
 21
1.603453608383112
 31
0.0
  0
LINE
  5
AA0
330
1E
100
AcDbEntity
  8
HIDDEN
100
AcDbLine
 10
8.765332240213922
 20
3.655453608383108
 30
0.0
 11
8.455332240213927
 21
3.655453608383108
 31
0.0
  0
LINE
  5
AA1
330
1E
100
AcDbEntity
  8
HIDDEN
100
AcDbLine
 10
4.574082240213911
 20
3.97045360838311
 30
0.0
 11
4.574082240213911
 21
1.760453608383109
 31
0.0
  0
LINE
  5
AA2
330
1E
100
AcDbEntity
  8
HIDDEN
100
AcDbLine
 10
4.508832240213898
 20
3.655453608383108
 30
0.0
 11
4.508832240213898
 21
1.603453608383112
 31
0.0
  0
LINE
  5
AA3
330
1E
100
AcDbEntity
  8
HIDDEN
100
AcDbLine
 10
4.198832240213903
 20
3.655453608383108
 30
0.0
 11
4.198832240213903
 21
1.603453608383112
 31
0.0
  0
LINE
  5
AA4
330
1E
100
AcDbEntity
  8
HIDDEN
100
AcDbLine
 10
4.628182240213909
 20
1.760453608383109
 30
0.0
 11
4.628182240213909
 21
1.603453608383112
 31
0.0
  0
LINE
  5
AA5
330
1E
100
AcDbEntity
  8
HIDDEN
100
AcDbLine
 10
4.793982240213914
 20
1.760453608383109
 30
0.0
 11
4.793982240213914
 21
1.603453608383112
 31
0.0
  0
LINE
  5
AA6
330
1E
100
AcDbEntity
  8
HIDDEN
100
AcDbLine
 10
4.198832240213903
 20
3.655453608383108
 30
0.0
 11
4.508832240213898
 21
3.655453608383108
 31
0.0
  0
LINE
  5
AA7
330
1E
100
AcDbEntity
  8
HIDDEN
100
AcDbLine
 10
4.228832240213904
 20
3.970453608383103
 30
0.0
 11
4.228832240213904
 21
3.655453608383108
 31
0.0
  0
LINE
  5
AA8
330
1E
100
AcDbEntity
  8
HIDDEN
100
AcDbLine
 10
4.291332240213904
 20
3.970453608383103
 30
0.0
 11
4.291332240213904
 21
3.655453608383108
 31
0.0
  0
LINE
  5
AA9
330
1E
100
AcDbEntity
  8
HIDDEN
100
AcDbLine
 10
4.416332240213904
 20
3.970453608383103
 30
0.0
 11
4.416332240213904
 21
3.655453608383108
 31
0.0
  0
LINE
  5
AAA
330
1E
100
AcDbEntity
  8
HIDDEN
100
AcDbLine
 10
4.478832240213904
 20
3.97045360838311
 30
0.0
 11
4.478832240213904
 21
3.655453608383108
 31
0.0
  0
LINE
  5
AAB
330
1E
100
AcDbEntity
  8
HIDDEN
100
AcDbLine
 10
4.250082240213906
 20
4.030453608383105
 30
0.0
 11
4.250082240213906
 21
1.760453608383109
 31
0.0
  0
LINE
  5
AAF
330
1E
100
AcDbEntity
  8
HIDDEN
  6
HIDDEN2
100
AcDbLine
 10
6.437082240213911
 20
1.93845360838311
 30
0.0
 11
6.437082240213911
 21
1.698453608383111
 31
0.0
  0
LINE
  5
AB0
330
1E
100
AcDbEntity
  8
HIDDEN
  6
HIDDEN2
100
AcDbLine
 10
6.527082240213914
 20
1.93845360838311
 30
0.0
 11
6.527082240213914
 21
1.698453608383111
 31
0.0
  0
LINE
  5
AB1
330
1E
100
AcDbEntity
  8
HIDDEN
  6
HIDDEN2
100
AcDbLine
 10
6.527082240213914
 20
1.698453608383111
 30
0.0
 11
6.437082240213911
 21
1.698453608383111
 31
0.0
  0
LINE
  5
AB5
102
{ACAD_REACTORS
330
2BCB
102
}
330
1E
100
AcDbEntity
  8
OBJECT
100
AcDbLine
 10
13.98976537978136
 20
15.37385970879744
 30
0.0
 11
13.98976537978136
 21
7.655859708797457
 31
0.0
  0
LINE
  5
AB6
102
{ACAD_REACTORS
330
2BCB
102
}
330
1E
100
AcDbEntity
  8
OBJECT
100
AcDbLine
 10
16.41676537978136
 20
15.40185970879744
 30
0.0
 11
16.41676537978136
 21
7.627859708797458
 31
0.0
  0
LINE
  5
AB7
102
{ACAD_REACTORS
330
2BCB
102
}
330
1E
100
AcDbEntity
  8
OBJECT
100
AcDbLine
 10
14.04976537978135
 20
7.597859708797457
 30
0.0
 11
14.04976537978135
 21
8.015637241686324
 31
0.0
  0
LINE
  5
AB8
102
{ACAD_REACTORS
330
2BCB
102
}
330
1E
100
AcDbEntity
  8
OBJECT
100
AcDbLine
 10
14.08976537978136
 20
15.45185970879744
 30
0.0
 11
14.08976537978136
 21
15.43185970879744
 31
0.0
  0
LINE
  5
AB9
102
{ACAD_REACTORS
330
2BCB
102
}
330
1E
100
AcDbEntity
  8
OBJECT
100
AcDbLine
 10
16.25976537978137
 20
15.38685970879744
 30
0.0
 11
16.25976537978137
 21
15.03910970879744
 31
0.0
  0
LINE
  5
ABA
102
{ACAD_REACTORS
330
2BCB
102
}
330
1E
100
AcDbEntity
  8
OBJECT
100
AcDbLine
 10
14.08976537978136
 20
7.577859708797458
 30
0.0
 11
16.36676537978136
 21
7.577859708797458
 31
0.0
  0
LINE
  5
ABB
102
{ACAD_REACTORS
330
2BCB
102
}
330
1E
100
AcDbEntity
  8
OBJECT
100
AcDbLine
 10
14.36476537978136
 20
7.966609708797445
 30
0.0
 11
16.41676537978136
 21
7.966609708797445
 31
0.0
  0
LINE
  5
ABC
102
{ACAD_REACTORS
330
2BCB
102
}
330
1E
100
AcDbEntity
  8
OBJECT
100
AcDbLine
 10
13.98976537978136
 20
8.055609708797462
 30
0.0
 11
16.25976537978136
 21
8.055609708797447
 31
0.0
  0
LINE
  5
ABD
102
{ACAD_REACTORS
330
2BCB
102
}
330
1E
100
AcDbEntity
  8
OBJECT
100
AcDbLine
 10
14.36476537978136
 20
7.656609708797445
 30
0.0
 11
16.41676537978136
 21
7.656609708797445
 31
0.0
  0
ARC
  5
ABE
102
{ACAD_REACTORS
330
2BCB
102
}
330
1E
100
AcDbEntity
  8
OBJECT
100
AcDbCircle
 10
16.36676537978136
 20
7.627859708797458
 30
0.0
 40
0.05
100
AcDbArc
 50
270.0
 51
0.0
  0
LINE
  5
AC2
102
{ACAD_REACTORS
330
2BCB
102
}
330
1E
100
AcDbEntity
  8
OBJECT
100
AcDbLine
 10
14.36476537978136
 20
7.656609708797445
 30
0.0
 11
14.36476537978136
 21
7.966609708797445
 31
0.0
  0
LINE
  5
AC3
330
1E
100
AcDbEntity
  8
OBJECT
100
AcDbLine
 10
14.04976537978136
 20
7.655859708797457
 30
0.0
 11
13.98976537978136
 21
7.655859708797457
 31
0.0
  0
LINE
  5
AC4
102
{ACAD_REACTORS
330
2BCB
102
}
330
1E
100
AcDbEntity
  8
OBJECT
100
AcDbLine
 10
14.08976537978136
 20
7.597859708797457
 30
0.0
 11
14.04976537978135
 21
7.597859708797457
 31
0.0
  0
LINE
  5
AC5
102
{ACAD_REACTORS
330
2BCB
102
}
330
1E
100
AcDbEntity
  8
OBJECT
100
AcDbLine
 10
14.04976537978136
 20
7.686609708797448
 30
0.0
 11
14.36476537978136
 21
7.686609708797448
 31
0.0
  0
LINE
  5
AC6
330
1E
100
AcDbEntity
  8
OBJECT
100
AcDbLine
 10
14.04976537978136
 20
7.733109708797448
 30
0.0
 11
14.36476537978136
 21
7.733109708797448
 31
0.0
  0
LINE
  5
AC7
102
{ACAD_REACTORS
330
2BCB
102
}
330
1E
100
AcDbEntity
  8
OBJECT
100
AcDbLine
 10
13.98976537978136
 20
8.015637241686324
 30
0.0
 11
14.04976537978135
 21
8.015637241686324
 31
0.0
  0
LINE
  5
AC8
330
1E
100
AcDbEntity
  8
OBJECT
100
AcDbLine
 10
14.04976537978136
 20
7.890109708797448
 30
0.0
 11
14.36476537978136
 21
7.890109708797448
 31
0.0
  0
LINE
  5
AC9
102
{ACAD_REACTORS
330
2BCB
102
}
330
1E
100
AcDbEntity
  8
OBJECT
100
AcDbLine
 10
14.04976537978135
 20
7.936609708797448
 30
0.0
 11
14.36476537978136
 21
7.936609708797448
 31
0.0
  0
LINE
  5
ACA
102
{ACAD_REACTORS
330
2BCB
102
}
330
1E
100
AcDbEntity
  8
OBJECT
100
AcDbLine
 10
14.08976537978136
 20
15.45185970879744
 30
0.0
 11
16.36676537978136
 21
15.45185970879744
 31
0.0
  0
LINE
  5
ACB
102
{ACAD_REACTORS
330
2BCB
102
}
330
1E
100
AcDbEntity
  8
OBJECT
100
AcDbLine
 10
13.98976537978136
 20
14.97410970879744
 30
0.0
 11
16.25976537978137
 21
14.97410970879745
 31
0.0
  0
LINE
  5
ACC
102
{ACAD_REACTORS
330
2BCB
102
}
330
1E
100
AcDbEntity
  8
OBJECT
100
AcDbLine
 10
14.04976537978135
 20
15.03910970879744
 30
0.0
 11
16.25976537978137
 21
15.03910970879744
 31
0.0
  0
LINE
  5
ACF
102
{ACAD_REACTORS
330
2BCB
102
}
330
1E
100
AcDbEntity
  8
OBJECT
100
AcDbLine
 10
16.25976537978136
 20
15.29775970879744
 30
0.0
 11
16.41676537978136
 21
15.29775970879744
 31
0.0
  0
LINE
  5
AD0
102
{ACAD_REACTORS
330
2BCB
102
}
330
1E
100
AcDbEntity
  8
OBJECT
100
AcDbLine
 10
16.25976537978136
 20
15.13295970879745
 30
0.0
 11
16.41676537978136
 21
15.13295970879745
 31
0.0
  0
ARC
  5
AD1
102
{ACAD_REACTORS
330
2BCB
102
}
330
1E
100
AcDbEntity
  8
OBJECT
100
AcDbCircle
 10
16.36676537978136
 20
15.40185970879744
 30
0.0
 40
0.05
100
AcDbArc
 50
0.0
 51
90.0
  0
LINE
  5
AD2
102
{ACAD_REACTORS
330
2BCB
102
}
330
1E
100
AcDbEntity
  8
OBJECT
100
AcDbLine
 10
13.98976537978136
 20
15.01408217590858
 30
0.0
 11
14.04976537978135
 21
15.01408217590858
 31
0.0
  0
LINE
  5
AD3
330
1E
100
AcDbEntity
  8
OBJECT
100
AcDbLine
 10
13.98976537978136
 20
15.37385970879744
 30
0.0
 11
14.04976537978135
 21
15.37385970879744
 31
0.0
  0
LINE
  5
AD4
102
{ACAD_REACTORS
330
2BCB
102
}
330
1E
100
AcDbEntity
  8
OBJECT
100
AcDbLine
 10
14.04976537978135
 20
15.43185970879744
 30
0.0
 11
14.08976537978136
 21
15.43185970879744
 31
0.0
  0
LINE
  5
AD5
102
{ACAD_REACTORS
330
2BCB
102
}
330
1E
100
AcDbEntity
  8
OBJECT
100
AcDbLine
 10
14.08976537978137
 20
7.597859708797457
 30
0.0
 11
14.08976537978136
 21
7.577859708797458
 31
0.0
  0
LINE
  5
AD6
102
{ACAD_REACTORS
330
2BCB
102
}
330
1E
100
AcDbEntity
  8
OBJECT
100
AcDbLine
 10
14.04976537978135
 20
15.01408217590858
 30
0.0
 11
14.04976537978135
 21
15.43185970879744
 31
0.0
  0
LINE
  5
AD7
102
{ACAD_REACTORS
330
2BCB
102
}
330
1E
100
AcDbEntity
  8
OBJECT
100
AcDbLine
 10
14.04976537978135
 20
15.38685970879744
 30
0.0
 11
16.25976537978137
 21
15.38685970879744
 31
0.0
  0
LINE
  5
AD8
102
{ACAD_REACTORS
330
2BCB
102
}
330
1E
100
AcDbEntity
  8
OBJECT
100
AcDbLine
 10
16.25976537978137
 20
14.97410970879745
 30
0.0
 11
16.25976537978137
 21
14.90998430283634
 31
0.0
  0
LINE
  5
AD9
102
{ACAD_REACTORS
330
2BCB
102
}
330
1E
100
AcDbEntity
  8
OBJECT
100
AcDbLine
 10
16.25976537978137
 20
14.44373508813923
 30
0.0
 11
16.25976537978137
 21
13.97537597737448
 31
0.0
  0
LINE
  5
ADA
330
1E
100
AcDbEntity
  8
HIDDEN
100
AcDbLine
 10
16.08176537978136
 20
8.41535970879746
 30
0.0
 11
16.29976537978132
 21
8.41535970879746
 31
0.0
  0
LINE
  5
ADB
330
1E
100
AcDbEntity
  8
HIDDEN
100
AcDbLine
 10
16.08176537978136
 20
8.29035970879746
 30
0.0
 11
16.29976537978132
 21
8.29035970879746
 31
0.0
  0
LINE
  5
ADC
102
{ACAD_REACTORS
330
2BCB
102
}
330
1E
100
AcDbEntity
  8
HIDDEN
100
AcDbLine
 10
16.08176537978136
 20
8.44660970879746
 30
0.0
 11
16.29976537978132
 21
8.44660970879746
 31
0.0
  0
LINE
  5
ADD
102
{ACAD_REACTORS
330
2BCB
102
}
330
1E
100
AcDbEntity
  8
HIDDEN
100
AcDbLine
 10
16.08176537978136
 20
8.25910970879746
 30
0.0
 11
16.29976537978132
 21
8.25910970879746
 31
0.0
  0
LINE
  5
ADE
102
{ACAD_REACTORS
330
2BCB
102
}
330
1E
100
AcDbEntity
  8
HIDDEN
100
AcDbLine
 10
16.29976537978132
 20
8.44660970879746
 30
0.0
 11
16.29976537978132
 21
8.25910970879746
 31
0.0
  0
DIMENSION
  5
AE4
330
1E
100
AcDbEntity
  8
DIM
100
AcDbDimension
  2
*D16
 10
16.41676537978136
 20
11.84998767131506
 30
0.0
 11
17.95192162978136
 21
11.84998767131506
 31
0.0
 70
   160
 71
     5
 42
0.157
  3
23NSTD
100
AcDbAlignedDimension
 13
16.25976537978136
 23
11.50746665778351
 33
0.0
 14
16.41676537978136
 24
11.50746665778351
 34
0.0
100
AcDbRotatedDimension
  0
DIMENSION
  5
AE5
330
1E
100
AcDbEntity
  8
DIM
100
AcDbDimension
  2
*D17
 10
16.41676537978136
 20
12.99599230168839
 30
0.0
 11
17.99098412978136
 21
12.99599230168839
 31
0.0
 70
   160
 71
     5
 42
0.3350000000000008
  3
23NSTD
100
AcDbAlignedDimension
 13
16.08176537978136
 23
13.66535970879744
 33
0.0
 14
16.41676537978136
 24
13.64034344022043
 34
0.0
100
AcDbRotatedDimension
  0
DIMENSION
  5
AE6
330
1E
100
AcDbEntity
  8
DIM
100
AcDbDimension
  2
*D18
 10
17.56374162831667
 20
7.966609708797445
 30
0.0
 11
19.09811662831667
 21
8.866609708797447
 31
0.0
 70
    32
  1
<> DIA.
 71
     5
 42
0.3100000000000005
  3
23NSTD
100
AcDbAlignedDimension
 13
16.41676537978136
 23
7.656609708797445
 33
0.0
 14
16.41676537978136
 24
7.966609708797445
 34
0.0
 50
90.0
100
AcDbRotatedDimension
  0
DIMENSION
  5
AE7
330
1E
100
AcDbEntity
  8
DIM
100
AcDbDimension
  2
*D19
 10
17.03926537978136
 20
15.29775970879744
 30
0.0
 11
18.59317162978136
 21
16.19775970879745
 31
0.0
 70
    32
  1
<> DIA.
 71
     5
 42
0.1647999999999872
  3
23NSTD
100
AcDbAlignedDimension
 13
16.41676537978136
 23
15.13295970879745
 33
0.0
 14
16.41676537978136
 24
15.29775970879744
 34
0.0
 50
90.0
100
AcDbRotatedDimension
  0
DIMENSION
  5
AEE
330
1E
100
AcDbEntity
  8
DIM
100
AcDbDimension
  2
*D20
 10
6.863340503770483
 20
14.97985970879746
 30
0.0
 11
6.86334050377048
 21
10.75235970879745
 31
0.0
 70
   160
 71
     5
 42
6.929999999999999
  3
23NSTD
100
AcDbAlignedDimension
 13
7.269082240213911
 23
8.049859708797459
 33
0.0
 14
7.269082240213911
 24
14.97985970879746
 34
0.0
 50
90.0
100
AcDbRotatedDimension
  0
DIMENSION
  5
AEF
330
1E
100
AcDbEntity
  8
DIM
100
AcDbDimension
  2
*D21
 10
6.86334050377048
 20
7.577859708797458
 30
0.0
 11
5.739121753770478
 21
6.677859708797459
 31
0.0
 70
    32
 71
     5
 42
0.4719999999999978
  3
23NSTD
100
AcDbAlignedDimension
 13
7.269082240213911
 23
8.049859708797455
 33
0.0
 14
6.786857814807553
 24
7.577859708797458
 34
0.0
 50
90.0
100
AcDbRotatedDimension
  0
DIMENSION
  5
AF0
330
1E
100
AcDbEntity
  8
DIM
100
AcDbDimension
  2
*D41
 10
4.120082240213918
 20
17.24243563404265
 30
0.0
 11
5.301082240213914
 21
17.24243563404265
 31
0.0
 70
    32
 71
     5
 42
2.361999999999992
  3
23NSTDI
100
AcDbAlignedDimension
 13
6.482082240213911
 23
14.97985970879746
 33
0.0
 14
4.120082240213918
 24
15.23310970879744
 34
0.0
 50
180.0
100
AcDbRotatedDimension
  0
CIRCLE
  5
AF1
330
1E
100
AcDbEntity
  8
OBJECT
100
AcDbCircle
 10
4.702082240213911
 20
13.80785970879744
 30
0.0
 40
0.045
  0
CIRCLE
  5
AF2
330
1E
100
AcDbEntity
  8
OBJECT
100
AcDbCircle
 10
4.702082240213911
 20
13.80785970879744
 30
0.0
 40
0.1425
  0
CIRCLE
  5
AF3
330
1E
100
AcDbEntity
  8
OBJECT
100
AcDbCircle
 10
8.262082240213899
 20
13.80785970879744
 30
0.0
 40
0.1425
  0
CIRCLE
  5
AF4
330
1E
100
AcDbEntity
  8
OBJECT
100
AcDbCircle
 10
8.262082240213899
 20
13.80785970879744
 30
0.0
 40
0.045
  0
LINE
  5
AF7
102
{ACAD_REACTORS
330
2BCB
102
}
330
1E
100
AcDbEntity
  8
OBJECT
100
AcDbLine
 10
16.08176537978136
 20
13.76285970879744
 30
0.0
 11
16.32176537978136
 21
13.76285970879744
 31
0.0
  0
LINE
  5
AF8
102
{ACAD_REACTORS
330
2BCB
102
}
330
1E
100
AcDbEntity
  8
OBJECT
100
AcDbLine
 10
16.08176537978136
 20
13.85285970879746
 30
0.0
 11
16.32176537978136
 21
13.85285970879746
 31
0.0
  0
LINE
  5
AF9
102
{ACAD_REACTORS
330
2BCB
102
}
330
1E
100
AcDbEntity
  8
OBJECT
100
AcDbLine
 10
16.32176537978136
 20
13.76285970879744
 30
0.0
 11
16.32176537978136
 21
13.85285970879746
 31
0.0
  0
LINE
  5
AFB
102
{ACAD_REACTORS
330
2BCB
102
}
330
1E
100
AcDbEntity
  8
OBJECT
100
AcDbLine
 10
16.25976537978137
 20
13.64034344022043
 30
0.0
 11
16.25976537978136
 21
8.055609708797447
 31
0.0
  0
DIMENSION
  5
AFC
330
1E
100
AcDbEntity
  8
DIM
100
AcDbDimension
  2
*D42
 10
3.495182269117193
 20
14.67685970879746
 30
0.0
 11
3.495182269117191
 21
14.24235970879745
 31
0.0
 70
    32
 71
     5
 42
0.8690000000000122
  3
23NSTDI
100
AcDbAlignedDimension
 13
4.70208224021391
 23
13.80785970879744
 33
0.0
 14
4.70208224021391
 24
14.67685970879745
 34
0.0
 50
90.0
100
AcDbRotatedDimension
  0
CIRCLE
  5
B07
330
1E
100
AcDbEntity
  8
OBJECT
100
AcDbCircle
 10
5.695082240213906
 20
8.049859708797459
 30
0.0
 40
0.1425
  0
CIRCLE
  5
B08
330
1E
100
AcDbEntity
  8
OBJECT
100
AcDbCircle
 10
5.695082240213906
 20
8.049859708797459
 30
0.0
 40
0.045
  0
CIRCLE
  5
B09
330
1E
100
AcDbEntity
  8
OBJECT
100
AcDbCircle
 10
5.695082240213906
 20
14.97985970879746
 30
0.0
 40
0.1425
  0
CIRCLE
  5
B0A
330
1E
100
AcDbEntity
  8
OBJECT
100
AcDbCircle
 10
5.695082240213906
 20
14.97985970879746
 30
0.0
 40
0.045
  0
CIRCLE
  5
B0B
330
1E
100
AcDbEntity
  8
OBJECT
100
AcDbCircle
 10
7.269082240213911
 20
8.049859708797459
 30
0.0
 40
0.1425
  0
CIRCLE
  5
B0C
330
1E
100
AcDbEntity
  8
OBJECT
100
AcDbCircle
 10
7.269082240213911
 20
8.049859708797459
 30
0.0
 40
0.045
  0
CIRCLE
  5
B0D
330
1E
100
AcDbEntity
  8
OBJECT
100
AcDbCircle
 10
7.269082240213911
 20
14.97985970879746
 30
0.0
 40
0.1425
  0
CIRCLE
  5
B0E
330
1E
100
AcDbEntity
  8
OBJECT
100
AcDbCircle
 10
7.269082240213911
 20
14.97985970879746
 30
0.0
 40
0.045
  0
LINE
  5
B12
330
1E
100
AcDbEntity
  8
HIDDEN
  6
HIDDEN2
100
AcDbLine
 10
5.650082240213919
 20
1.93845360838311
 30
0.0
 11
5.650082240213919
 21
1.698453608383111
 31
0.0
  0
LINE
  5
B13
330
1E
100
AcDbEntity
  8
HIDDEN
  6
HIDDEN2
100
AcDbLine
 10
5.740082240213915
 20
1.93845360838311
 30
0.0
 11
5.740082240213915
 21
1.698453608383111
 31
0.0
  0
LINE
  5
B14
330
1E
100
AcDbEntity
  8
HIDDEN
  6
HIDDEN2
100
AcDbLine
 10
5.740082240213915
 20
1.698453608383111
 30
0.0
 11
5.650082240213919
 21
1.698453608383111
 31
0.0
  0
LINE
  5
B18
330
1E
100
AcDbEntity
  8
HIDDEN
  6
HIDDEN2
100
AcDbLine
 10
7.22408224021391
 20
1.93845360838311
 30
0.0
 11
7.22408224021391
 21
1.698453608383111
 31
0.0
  0
LINE
  5
B19
330
1E
100
AcDbEntity
  8
HIDDEN
  6
HIDDEN2
100
AcDbLine
 10
7.314082240213913
 20
1.93845360838311
 30
0.0
 11
7.314082240213913
 21
1.698453608383111
 31
0.0
  0
LINE
  5
B1A
330
1E
100
AcDbEntity
  8
HIDDEN
  6
HIDDEN2
100
AcDbLine
 10
7.314082240213913
 20
1.698453608383111
 30
0.0
 11
7.22408224021391
 21
1.698453608383111
 31
0.0
  0
DIMENSION
  5
B1B
330
1E
100
AcDbEntity
  8
DIM
100
AcDbDimension
  2
*D22
 10
4.70208224021391
 20
12.48001555371057
 30
0.0
 11
6.272629367385363
 21
12.48001555371057
 31
0.0
 70
   160
 71
     5
 42
3.560000000000003
  3
23NSTD
100
AcDbAlignedDimension
 13
8.262082240213914
 23
12.91377014139243
 33
0.0
 14
4.70208224021391
 24
13.80785970879744
 34
0.0
100
AcDbRotatedDimension
  0
DIMENSION
  5
B1C
330
1E
100
AcDbEntity
  8
DIM
100
AcDbDimension
  2
*D23
 10
4.120082240213918
 20
12.48001555371057
 30
0.0
 11
2.545863490213918
 21
12.48001555371057
 31
0.0
 70
    32
  1
<>
 71
     5
 42
0.5819999999999928
  3
23NSTD
100
AcDbAlignedDimension
 13
4.70208224021391
 23
13.80785970879744
 33
0.0
 14
4.120082240213918
 24
12.48001555371057
 34
0.0
100
AcDbRotatedDimension
  0
DIMENSION
  5
B1D
330
1E
100
AcDbEntity
  8
DIM
100
AcDbDimension
  2
*D24
 10
5.695082240213911
 20
16.04818563404266
 30
0.0
 11
3.394465281626409
 21
16.04818563404266
 31
0.0
 70
   160
 71
     5
 42
0.787
  3
23NSTD
100
AcDbAlignedDimension
 13
6.482082240213911
 23
14.97985970879746
 33
0.0
 14
5.695082240213911
 24
14.97985970879746
 34
0.0
100
AcDbRotatedDimension
  0
DIMENSION
  5
B1E
330
1E
100
AcDbEntity
  8
DIM
100
AcDbDimension
  2
*D25
 10
6.482082240213911
 20
16.61018563404266
 30
0.0
 11
3.41920382418678
 21
16.61018563404266
 31
0.0
 70
   160
 71
     5
 42
0.7870000000000008
  3
23NSTD
100
AcDbAlignedDimension
 13
7.269082240213911
 23
14.97985970879746
 33
0.0
 14
6.482082240213911
 24
14.97985970879746
 34
0.0
100
AcDbRotatedDimension
  0
LWPOLYLINE
  5
B1F
330
1E
100
AcDbEntity
  8
OBJECT
100
AcDbPolyline
 90
        6
 70
     1
 43
0.0
 10
5.048301044279894
 20
7.642859708797459
 42
-0.3980934295651995
 10
4.894082240213919
 20
7.805859708797459
 10
4.894082240213919
 20
7.839922208797464
 42
0.4142135623730937
 10
4.743394740213915
 20
7.99060970879746
 10
4.483688813320476
 20
7.99060970879746
 42
-0.4976979877289529
 10
4.491296884391237
 20
7.642859708797459
  0
LWPOLYLINE
  5
B27
330
1E
100
AcDbEntity
  8
OBJECT
100
AcDbPolyline
 90
        6
 70
     1
 43
0.0
 10
7.915863436147938
 20
7.642859708797459
 42
0.3980934295651995
 10
8.070082240213912
 20
7.805859708797459
 10
8.070082240213912
 20
7.839922208797464
 42
-0.4142135623730937
 10
8.220769740213917
 20
7.99060970879746
 10
8.480475667107356
 20
7.99060970879746
 42
0.4976979877289529
 10
8.472867596036593
 20
7.642859708797459
  0
LWPOLYLINE
  5
B2F
330
1E
100
AcDbEntity
  8
OBJECT
100
AcDbPolyline
 90
        6
 70
     1
 43
0.0
 10
7.915863436147938
 20
15.38685970879744
 42
-0.3980934295651995
 10
8.070082240213912
 20
15.22385970879744
 10
8.070082240213912
 20
15.18979720879744
 42
0.4142135623730937
 10
8.220769740213917
 20
15.03910970879744
 10
8.480475667107356
 20
15.03910970879744
 42
-0.4976979877289529
 10
8.472867596036593
 20
15.38685970879744
  0
LWPOLYLINE
  5
B37
330
1E
100
AcDbEntity
  8
OBJECT
100
AcDbPolyline
 90
        6
 70
     1
 43
0.0
 10
5.048301044279894
 20
15.38685970879744
 42
0.3980934295651995
 10
4.894082240213919
 20
15.22385970879744
 10
4.894082240213919
 20
15.18979720879744
 42
-0.4142135623730937
 10
4.743394740213915
 20
15.03910970879744
 10
4.483688813320476
 20
15.03910970879744
 42
0.4976979877289529
 10
4.491296884391237
 20
15.38685970879744
  0
TEXT
  5
B40
330
1E
100
AcDbEntity
  8
TEXT
100
AcDbText
 10
27.64625960066897
 20
6.152948090196638
 30
0.0
 40
0.312
  1
%%USECTION "B-B"
 41
0.8
  7
SECTION
100
AcDbText
  0
DIMENSION
  5
B41
330
1E
100
AcDbEntity
  8
DIM
100
AcDbDimension
  2
*D26
 10
25.84255638590422
 20
15.45185970879744
 30
0.0
 11
26.96677513590421
 21
16.35185970879745
 31
0.0
 70
    32
  1
<>
 71
     5
 42
0.2359999999999989
  3
23NSTD
100
AcDbAlignedDimension
 13
24.8861178558036
 23
15.21585970879744
 33
0.0
 14
24.90336785580361
 24
15.45185970879744
 34
0.0
 50
90.0
100
AcDbRotatedDimension
  0
DIMENSION
  5
B42
330
1E
100
AcDbEntity
  8
DIM
100
AcDbDimension
  2
*D27
 10
25.84255638590422
 20
15.21585970879744
 30
0.0
 11
25.84255638590421
 21
11.51485970879745
 31
0.0
 70
    32
  1
<>
 71
     5
 42
7.401999999999992
  3
23NSTD
100
AcDbAlignedDimension
 13
24.88611785580362
 23
7.813859708797455
 33
0.0
 14
24.8861178558036
 24
15.21585970879744
 34
0.0
 50
90.0
100
AcDbRotatedDimension
  0
DIMENSION
  5
B43
330
1E
100
AcDbEntity
  8
DIM
100
AcDbDimension
  2
*D28
 10
27.04513283514791
 20
15.45185970879744
 30
0.0
 11
27.04513283514791
 21
11.51485970879745
 31
0.0
 70
    32
  1
<>
 71
     5
 42
7.873999999999988
  3
23NSTD
100
AcDbAlignedDimension
 13
24.90336785580362
 23
7.577859708797458
 33
0.0
 14
24.90336785580362
 24
15.45185970879744
 34
0.0
 50
90.0
100
AcDbRotatedDimension
  0
DIMENSION
  5
B44
330
1E
100
AcDbEntity
  8
DIM
100
AcDbDimension
  2
*D29
 10
25.12211785580361
 20
17.02639023674455
 30
0.0
 11
26.69633660580361
 21
17.02639023674455
 31
0.0
 70
    32
  1
<>
 71
     5
 42
0.23599999999999
  3
23NSTD
100
AcDbAlignedDimension
 13
24.88611785580362
 23
15.21585970879744
 33
0.0
 14
25.12211785580361
 24
15.23310970879744
 34
0.0
100
AcDbRotatedDimension
  0
DIMENSION
  5
B45
330
1E
100
AcDbEntity
  8
DIM
100
AcDbDimension
  2
*D30
 10
20.63411785580362
 20
17.02639023674455
 30
0.0
 11
22.76011785580361
 21
17.02639023674455
 31
0.0
 70
    32
  1
<>
 71
     5
 42
4.251999999999981
  3
23NSTD
100
AcDbAlignedDimension
 13
24.8861178558036
 23
15.21585970879744
 33
0.0
 14
20.63411785580362
 24
15.21585970879744
 34
0.0
100
AcDbRotatedDimension
  0
DIMENSION
  5
B46
330
1E
100
AcDbEntity
  8
DIM
100
AcDbDimension
  2
*D31
 10
20.39811785580361
 20
17.65864023674455
 30
0.0
 11
22.76011785580361
 21
17.65864023674455
 31
0.0
 70
    32
  1
<>
 71
     5
 42
4.723999999999996
  3
23NSTD
100
AcDbAlignedDimension
 13
25.12211785580361
 23
15.23310970879744
 33
0.0
 14
20.39811785580361
 24
15.23310970879744
 34
0.0
100
AcDbRotatedDimension
  0
CIRCLE
  5
B47
330
1E
100
AcDbEntity
  8
BEND
100
AcDbCircle
 10
28.68715351305976
 20
7.860942203755062
 30
0.0
 40
0.6126960201613274
  0
DIMENSION
  5
B4F
330
1E
100
AcDbEntity
  8
DIM
100
AcDbDimension
  2
*D32
 10
22.64834742083312
 20
7.577859708797458
 30
0.0
 11
21.07490992083311
 21
6.677859708797462
 31
0.0
 70
    32
  1
<> TYP.
 71
     5
 42
0.1897500000000072
  3
23NSTD
100
AcDbAlignedDimension
 13
22.8058474208331
 23
7.767609708797465
 33
0.0
 14
22.80584742083311
 24
7.577859708797458
 34
0.0
 50
90.0
100
AcDbRotatedDimension
  0
INSERT
  5
B50
330
1E
100
AcDbEntity
  8
BEND
100
AcDbBlockReference
 66
     1
  2
SECTION
 10
25.02910443791776
 20
7.323002865736778
 30
0.0
 41
0.627
 42
0.627
 43
0.627
 50
90.0
  0
ATTRIB
  5
B51
330
B50
100
AcDbEntity
  8
0
100
AcDbText
 10
24.91670443791776
 20
7.182502865736778
 30
0.0
 40
0.281
  1
B
 41
0.8
  7
SECTION
 72
     4
 11
25.02910443791776
 21
7.323002865736778
 31
0.0
100
AcDbAttribute
  2
SECTION
 70
     0
  0
SEQEND
  5
B52
330
B50
100
AcDbEntity
  8
BEND
  0
INSERT
  5
B53
330
1E
100
AcDbEntity
  8
BEND
100
AcDbBlockReference
 66
     1
  2
SECTION
 10
24.72191652176226
 20
15.80141133938415
 30
0.0
 41
0.627
 42
0.627
 43
0.627
 50
90.0
  0
ATTRIB
  5
B54
330
B53
100
AcDbEntity
  8
0
100
AcDbText
 10
24.60951652176224
 20
15.66091133938415
 30
0.0
 40
0.281
  1
B
 41
0.8
  7
SECTION
 72
     4
 11
24.72191652176224
 21
15.80141133938415
 31
0.0
100
AcDbAttribute
  2
SECTION
 70
     0
  0
SEQEND
  5
B55
330
B53
100
AcDbEntity
  8
BEND
  0
LWPOLYLINE
  5
B56
330
1E
100
AcDbEntity
  8
OBJECT
100
AcDbPolyline
 90
       24
 70
     1
 43
0.0
 10
24.93211785580361
 20
14.87585970879745
 42
0.4142135623731355
 10
24.89386785580361
 20
14.91410970879745
 10
24.50015900603935
 20
14.91410970879745
 42
-0.4243758672850407
 10
24.22311785580361
 20
15.17763674473968
 10
24.22311785580361
 20
15.22385970879746
 42
0.4142135623731356
 10
24.18486785580362
 20
15.26210970879746
 10
21.33536785580362
 20
15.26210970879746
 42
0.4142135623731082
 10
21.29711785579813
 20
15.22385904597027
 10
21.29711708683285
 20
15.17745387153559
 42
-0.4243751948338457
 10
21.02006924702569
 20
14.91410970879745
 10
20.62636785580362
 20
14.91410970879745
 42
0.4142135623731081
 10
20.58811785580362
 20
14.87585970879745
 10
20.58811785580362
 20
8.153859708797465
 42
0.4142135623731082
 10
20.62636785580362
 20
8.115609708797464
 10
21.02143035580362
 20
8.115609708797467
 42
-0.4142135623730934
 10
21.29711785580362
 20
7.839922208797471
 10
21.29711785580362
 20
7.805859708797463
 42
0.4142135623731082
 10
21.33536785580362
 20
7.767609708797465
 10
24.18486785580362
 20
7.767609708797465
 42
0.4142135623730809
 10
24.22311785580361
 20
7.805859708797459
 10
24.22311785580361
 20
7.839922208797464
 42
-0.4142135623730859
 10
24.49880535580361
 20
8.11560970879746
 10
24.89386785580361
 20
8.115609708797464
 42
0.4142135623730809
 10
24.93211785580361
 20
8.153859708797465
  0
LWPOLYLINE
  5
B70
102
{ACAD_REACTORS
330
1F94
102
}
330
1E
100
AcDbEntity
  8
OBJECT
100
AcDbPolyline
 90
       24
 70
     1
 43
0.0
 10
24.97211785580361
 20
14.87585970879745
 42
0.4142135623730851
 10
24.89386785580361
 20
14.95410970879746
 10
24.49927879629115
 20
14.95410970879746
 42
-0.4252428448825249
 10
24.26311785580361
 20
15.17779720879746
 10
24.26311785580361
 20
15.22385970879746
 42
0.4142135623730983
 10
24.18486785580362
 20
15.30210970879744
 10
21.33536785580362
 20
15.30210970879744
 42
0.4142135623730851
 10
21.25711785580362
 20
15.22385970879746
 10
21.25711708961579
 20
15.177622146163
 42
-0.4252428448898621
 10
21.02095691531072
 20
14.95410970879746
 10
20.62636785580362
 20
14.95410970879746
 42
0.4142135623730983
 10
20.54811785580362
 20
14.87585970879745
 10
20.54811785580362
 20
8.153859708797469
 42
0.4142135623730983
 10
20.62636785580362
 20
8.075609708797463
 10
21.02143035580362
 20
8.075609708797468
 42
-0.4142135623731073
 10
21.25711785580362
 20
7.839922208797467
 10
21.25711785580362
 20
7.805859708797463
 42
0.4142135623730718
 10
21.33536785580362
 20
7.727609708797466
 10
24.18486785580362
 20
7.727609708797466
 42
0.4142135623730851
 10
24.26311785580361
 20
7.805859708797459
 10
24.26311785580361
 20
7.839922208797464
 42
-0.4142135623730984
 10
24.49880535580361
 20
8.075609708797463
 10
24.89386785580361
 20
8.075609708797463
 42
0.4142135623730851
 10
24.97211785580361
 20
8.153859708797465
  0
LWPOLYLINE
  5
B8A
102
{ACAD_REACTORS
330
1F94
102
}
330
1E
100
AcDbEntity
  8
OBJECT
100
AcDbPolyline
 90
       24
 70
     1
 43
0.0
 10
20.46811785580362
 20
14.87585970879744
 10
20.46811785580362
 20
8.153859708797465
 42
0.4142135623731001
 10
20.62636785580362
 20
7.995609708797466
 10
21.02143035580362
 20
7.995609708797466
 42
-0.4142135623730833
 10
21.17711785580361
 20
7.839922208797467
 10
21.17711785580361
 20
7.805859708797466
 42
0.4142135623731001
 10
21.33536785580362
 20
7.647609708797467
 10
24.18486785580362
 20
7.647609708797467
 42
0.4142135623730935
 10
24.34311785580362
 20
7.805859708797463
 10
24.34311785580362
 20
7.839922208797467
 42
-0.4142135623730966
 10
24.49880535580361
 20
7.995609708797466
 10
24.89386785580361
 20
7.995609708797466
 42
0.4142135623730871
 10
25.05211785580362
 20
8.153859708797465
 10
25.05211785580363
 20
14.87585970879744
 42
0.4142135623731067
 10
24.89386785580361
 20
15.03410970879744
 10
24.49818830887442
 20
15.03410970879744
 42
-0.4295521328638831
 10
24.34311785580362
 20
15.17790996279994
 10
24.34311785580362
 20
15.22385970879746
 42
0.4142135623731001
 10
24.18486785580362
 20
15.38210970879744
 10
21.33536785580362
 20
15.38210970879744
 42
0.4142135623731001
 10
21.17711785580361
 20
15.22385970879746
 10
21.17711785580361
 20
15.17790996279427
 42
-0.4295521328549196
 10
21.02204740273171
 20
15.03410970879744
 10
20.62636785580362
 20
15.03410970879744
 42
0.4142135623731001
  0
LINE
  5
BA4
330
1E
100
AcDbEntity
  8
OBJECT
100
AcDbLine
 10
25.12211785580361
 20
15.23310970879744
 30
0.0
 11
25.12211785580362
 21
7.796609708797454
 31
0.0
  0
LINE
  5
BA5
330
1E
100
AcDbEntity
  8
OBJECT
100
AcDbLine
 10
20.39811785580362
 20
15.23310970879745
 30
0.0
 11
20.39811785580361
 21
7.796609708797461
 31
0.0
  0
LINE
  5
BA6
330
1E
100
AcDbEntity
  8
OBJECT
100
AcDbLine
 10
24.90336785580362
 20
7.577859708797454
 30
0.0
 11
20.61686785580362
 21
7.577859708797454
 31
0.0
  0
CIRCLE
  5
BA7
330
1E
100
AcDbEntity
  8
OBJECT
100
AcDbCircle
 10
20.63411785580362
 20
7.813859708797455
 30
0.0
 40
0.0859375
  0
ARC
  5
BA8
330
1E
100
AcDbEntity
  8
OBJECT
100
AcDbCircle
 10
20.61686785580362
 20
7.796609708797454
 30
0.0
 40
0.21875
100
AcDbArc
 50
180.0
 51
270.0
  0
LWPOLYLINE
  5
BA9
330
1E
100
AcDbEntity
  8
OBJECT
100
AcDbPolyline
 90
        6
 70
     1
 43
0.0
 10
21.16822551377144
 20
7.65785970879747
 42
-0.1831916580218484
 10
21.11211785580362
 20
7.805859708797466
 10
21.11211785580362
 20
7.851375366905802
 42
0.4348609967556984
 10
21.02442342450387
 20
7.930609708797465
 10
20.81821956003255
 20
7.930609708797465
 42
-0.3544787570607089
 10
20.78639392089589
 20
7.65785970879747
  0
ARC
  5
BB1
330
1E
100
AcDbEntity
  8
OBJECT
100
AcDbCircle
 10
24.90336785580361
 20
7.796609708797454
 30
0.0
 40
0.21875
100
AcDbArc
 50
270.0
 51
0.0
  0
LWPOLYLINE
  5
BB2
330
1E
100
AcDbEntity
  8
OBJECT
100
AcDbPolyline
 90
        6
 70
     1
 43
0.0
 10
24.35201019783579
 20
7.65785970879747
 42
0.1831916580218484
 10
24.40811785580361
 20
7.805859708797466
 10
24.40811785580361
 20
7.851375366905802
 42
-0.4348609967556984
 10
24.49581228710337
 20
7.930609708797465
 10
24.70201615157467
 20
7.930609708797465
 42
0.3544787570607089
 10
24.73384179071135
 20
7.65785970879747
  0
CIRCLE
  5
BBA
330
1E
100
AcDbEntity
  8
OBJECT
100
AcDbCircle
 10
24.88611785580362
 20
7.813859708797458
 30
0.0
 40
0.0859375
  0
LINE
  5
BBB
330
1E
100
AcDbEntity
  8
OBJECT
100
AcDbLine
 10
24.90336785580362
 20
15.45185970879744
 30
0.0
 11
20.61686785580362
 21
15.45185970879744
 31
0.0
  0
LWPOLYLINE
  5
BBC
330
1E
100
AcDbEntity
  8
OBJECT
100
AcDbPolyline
 90
        6
 70
     1
 43
0.0
 10
21.16822551377144
 20
15.37185970879744
 42
0.1831916580218484
 10
21.11211785580362
 20
15.22385970879746
 10
21.11211785580362
 20
15.17834405068911
 42
-0.4348609967556984
 10
21.02442342450387
 20
15.09910970879746
 10
20.81821956003255
 20
15.09910970879746
 42
0.3544787570607089
 10
20.78639392089589
 20
15.37185970879744
  0
ARC
  5
BC4
330
1E
100
AcDbEntity
  8
OBJECT
100
AcDbCircle
 10
20.61686785580362
 20
15.23310970879744
 30
0.0
 40
0.21875
100
AcDbArc
 50
90.0
 51
180.0
  0
CIRCLE
  5
BC5
330
1E
100
AcDbEntity
  8
OBJECT
100
AcDbCircle
 10
20.63411785580362
 20
15.21585970879744
 30
0.0
 40
0.0859375
  0
LWPOLYLINE
  5
BC6
330
1E
100
AcDbEntity
  8
OBJECT
100
AcDbPolyline
 90
        6
 70
     1
 43
0.0
 10
24.35201019783579
 20
15.37185970879744
 42
-0.1831916580218484
 10
24.40811785580361
 20
15.22385970879746
 10
24.40811785580361
 20
15.17834405068911
 42
0.4348609967556984
 10
24.49581228710337
 20
15.09910970879746
 10
24.70201615157467
 20
15.09910970879746
 42
-0.3544787570607089
 10
24.73384179071135
 20
15.37185970879744
  0
ARC
  5
BCE
330
1E
100
AcDbEntity
  8
OBJECT
100
AcDbCircle
 10
24.90336785580361
 20
15.23310970879744
 30
0.0
 40
0.21875
100
AcDbArc
 50
0.0
 51
90.0
  0
CIRCLE
  5
BCF
330
1E
100
AcDbEntity
  8
OBJECT
100
AcDbCircle
 10
24.88611785580361
 20
15.21585970879744
 30
0.0
 40
0.0859375
  0
LWPOLYLINE
  5
BE9
330
1E
100
AcDbEntity
  8
BEND
100
AcDbPolyline
 90
        8
 70
     0
 10
24.12442672244568
 20
7.323002865736778
 40
0.0
 41
0.17634375
 10
24.47711422244568
 20
7.323002865736778
 40
0.0
 41
0.0
 10
24.88611785580362
 20
7.323002865736778
 40
0.0
 41
0.0
 10
24.88611785580362
 20
9.016767307828541
 40
0.0
 41
0.0
 10
24.57522178949673
 20
9.016767307828541
 40
0.0
 41
0.0
 10
24.57522178949673
 20
15.80141133938415
 40
0.0
 41
0.0
 10
24.20900817310235
 20
15.80141133938415
 40
0.17634375
 41
0.0
 10
23.85632067310234
 20
15.80141133938415
 40
0.0
 41
0.0
  0
LWPOLYLINE
  5
BF3
330
1E
100
AcDbEntity
  8
BEND
100
AcDbPolyline
 90
        8
 70
     0
 10
7.846391106855977
 20
7.363863123993555
 40
0.0
 41
0.17634375
 10
8.199078606855977
 20
7.363863123993555
 40
0.0
 41
0.0
 10
8.608082240213914
 20
7.363863123993555
 40
0.0
 41
0.0
 10
8.608082240213914
 20
9.057627566085319
 40
0.0
 41
0.0
 10
8.262082240213914
 20
9.057627566085319
 40
0.0
 41
0.0
 10
8.262082240213914
 20
15.73645107135125
 40
0.0
 41
0.0
 10
7.895868623819533
 20
15.73645107135125
 40
0.17634375
 41
0.0
 10
7.543181123819535
 20
15.73645107135125
 40
0.0
 41
0.0
  0
LINE
  5
C00
330
1E
100
AcDbEntity
  8
OBJECT
100
AcDbLine
 10
28.41120621496532
 20
7.577859708797458
 30
0.0
 11
28.93970621496534
 21
7.577859708797458
 31
0.0
  0
ARC
  5
C01
330
1E
100
AcDbEntity
  8
OBJECT
100
AcDbCircle
 10
28.93970621496534
 20
7.640359708797458
 30
0.0
 40
0.0625
100
AcDbArc
 50
270.0
 51
0.0
  0
ARC
  5
C02
330
1E
100
AcDbEntity
  8
OBJECT
100
AcDbCircle
 10
28.93970621496534
 20
15.38935970879744
 30
0.0
 40
0.0625
100
AcDbArc
 50
0.0
 51
90.0
  0
LINE
  5
C03
330
1E
100
AcDbEntity
  8
OBJECT
100
AcDbLine
 10
28.41120621496532
 20
15.45185970879744
 30
0.0
 11
28.93970621496534
 21
15.45185970879744
 31
0.0
  0
LINE
  5
C04
330
1E
100
AcDbEntity
  8
OBJECT
100
AcDbLine
 10
29.00220621496534
 20
15.38935970879744
 30
0.0
 11
29.00220621496534
 21
7.640359708797458
 31
0.0
  0
LINE
  5
C05
330
1E
100
AcDbEntity
  8
OBJECT
100
AcDbLine
 10
28.41120621496532
 20
7.899797208797455
 30
0.0
 11
28.87720621496533
 21
7.899797208797455
 31
0.0
  0
LINE
  5
C06
330
1E
100
AcDbEntity
  8
OBJECT
100
AcDbLine
 10
28.41120621496532
 20
7.727922208797455
 30
0.0
 11
28.87720621496534
 21
7.727922208797462
 31
0.0
  0
DIMENSION
  5
C07
330
1E
100
AcDbEntity
  8
DIM
100
AcDbDimension
  2
*D33
 10
29.00220621496534
 20
11.33604601799186
 30
0.0
 11
30.51783121496534
 21
11.33604601799186
 31
0.0
 70
    32
  1
0.120
 71
     5
 42
0.1200000000000116
  3
23NSTD
100
AcDbAlignedDimension
 13
28.88220621496532
 23
11.38752774205066
 33
0.0
 14
29.00220621496534
 24
11.38752774205066
 34
0.0
100
AcDbRotatedDimension
  0
DIMENSION
  5
C08
330
1E
100
AcDbEntity
  8
DIM
100
AcDbDimension
  2
*D34
 10
29.00220621496534
 20
15.89735459328667
 30
0.0
 11
28.70670621496533
 21
15.89735459328667
 31
0.0
 70
   160
  1
A
 71
     5
 42
0.5910000000000118
  3
23NSTD
100
AcDbAlignedDimension
 13
28.41120621496532
 23
15.45185970879745
 33
0.0
 14
29.00220621496534
 24
15.38935970879745
 34
0.0
 50
180.0
100
AcDbRotatedDimension
  0
LINE
  5
C0C
330
1E
100
AcDbEntity
  8
OBJECT
100
AcDbLine
 10
28.87720621496534
 20
7.658859708797457
 30
0.0
 11
29.00220621496534
 21
7.658859708797457
 31
0.0
  0
LINE
  5
C0E
330
1E
100
AcDbEntity
  8
OBJECT
100
AcDbLine
 10
28.87720621496533
 20
7.968859708797456
 30
0.0
 11
29.00220621496534
 21
7.968859708797456
 31
0.0
  0
LINE
  5
C0F
330
1E
100
AcDbEntity
  8
OBJECT
100
AcDbLine
 10
28.88220621496532
 20
15.37185970879744
 30
0.0
 11
28.88220621496532
 21
15.09910970879746
 31
0.0
  0
LINE
  5
C10
330
1E
100
AcDbEntity
  8
OBJECT
100
AcDbLine
 10
28.88220621496532
 20
14.91410970879745
 30
0.0
 11
28.88220621496534
 21
8.11560970879746
 31
0.0
  0
LINE
  5
C11
330
1E
100
AcDbEntity
  8
OBJECT
100
AcDbLine
 10
28.41120621496532
 20
8.11560970879746
 30
0.0
 11
28.88220621496534
 21
8.11560970879746
 31
0.0
  0
LINE
  5
C12
330
1E
100
AcDbEntity
  8
OBJECT
100
AcDbLine
 10
28.41120621496532
 20
14.91410970879745
 30
0.0
 11
28.88220621496532
 21
14.91410970879745
 31
0.0
  0
LINE
  5
C13
330
1E
100
AcDbEntity
  8
OBJECT
100
AcDbLine
 10
28.41120621496532
 20
15.09910970879746
 30
0.0
 11
28.88220621496532
 21
15.09910970879746
 31
0.0
  0
LINE
  5
C14
330
1E
100
AcDbEntity
  8
OBJECT
100
AcDbLine
 10
28.41120621496532
 20
15.37185970879744
 30
0.0
 11
28.88220621496532
 21
15.37185970879744
 31
0.0
  0
LINE
  5
C15
330
1E
100
AcDbEntity
  8
HIDDEN
100
AcDbLine
 10
24.93211785580361
 20
18.87649750397471
 30
0.0
 11
20.58811785580362
 21
18.87649750397472
 31
0.0
  0
LINE
  5
C16
330
1E
100
AcDbEntity
  8
OBJECT
100
AcDbLine
 10
25.1221178558036
 20
18.40549750397471
 30
0.0
 11
20.39811785580361
 21
18.40549750397471
 31
0.0
  0
LINE
  5
C17
330
1E
100
AcDbEntity
  8
OBJECT
100
AcDbLine
 10
25.0596178558036
 20
18.99649750397472
 30
0.0
 11
20.46061785580362
 21
18.99649750397472
 31
0.0
  0
LINE
  5
C18
330
1E
100
AcDbEntity
  8
HIDDEN
100
AcDbLine
 10
20.72005535580362
 20
18.40549750397471
 30
0.0
 11
20.72005535580362
 21
18.87149750397472
 31
0.0
  0
LINE
  5
C19
330
1E
100
AcDbEntity
  8
HIDDEN
100
AcDbLine
 10
20.54818035580362
 20
18.40549750397471
 30
0.0
 11
20.54818035580362
 21
18.87149750397472
 31
0.0
  0
LINE
  5
C1A
330
1E
100
AcDbEntity
  8
OBJECT
100
AcDbLine
 10
20.39811785580361
 20
18.40549750397471
 30
0.0
 11
20.39811785580361
 21
18.93399750397472
 31
0.0
  0
LINE
  5
C1D
330
1E
100
AcDbEntity
  8
HIDDEN
100
AcDbLine
 10
20.47911785580362
 20
18.87149750397472
 30
0.0
 11
20.47911785580362
 21
18.99649750397472
 31
0.0
  0
ARC
  5
C1E
330
1E
100
AcDbEntity
  8
OBJECT
100
AcDbCircle
 10
20.46061785580362
 20
18.93399750397472
 30
0.0
 40
0.0625
100
AcDbArc
 50
90.0
 51
180.0
  0
LINE
  5
C21
330
1E
100
AcDbEntity
  8
HIDDEN
100
AcDbLine
 10
20.7891178558036
 20
18.87149750397472
 30
0.0
 11
20.78911785580361
 21
18.99649750397472
 31
0.0
  0
LINE
  5
C22
330
1E
100
AcDbEntity
  8
HIDDEN
100
AcDbLine
 10
20.54811785580362
 20
18.52049750397472
 30
0.0
 11
20.46811785580362
 21
18.52049750397472
 31
0.0
  0
LINE
  5
C23
330
1E
100
AcDbEntity
  8
HIDDEN
100
AcDbLine
 10
20.46811785580362
 20
18.40549750397471
 30
0.0
 11
20.46811785580362
 21
18.52049750397472
 31
0.0
  0
LINE
  5
C24
330
1E
100
AcDbEntity
  8
HIDDEN
100
AcDbLine
 10
20.58811785580362
 20
18.40549750397473
 30
0.0
 11
20.58811785580362
 21
18.87649750397472
 31
0.0
  0
LINE
  5
C25
330
1E
100
AcDbEntity
  8
HIDDEN
100
AcDbLine
 10
21.11211785580362
 20
18.40549750397471
 30
0.0
 11
21.11211785580362
 21
18.87649750397472
 31
0.0
  0
LINE
  5
C26
330
1E
100
AcDbEntity
  8
HIDDEN
100
AcDbLine
 10
21.29711708683285
 20
18.40549750397471
 30
0.0
 11
21.29711708683285
 21
18.87649750397472
 31
0.0
  0
LINE
  5
C27
330
1E
100
AcDbEntity
  8
HIDDEN
100
AcDbLine
 10
21.25711708961579
 20
18.40549750397471
 30
0.0
 11
21.25711708961579
 21
18.52049750397472
 31
0.0
  0
LINE
  5
C28
330
1E
100
AcDbEntity
  8
HIDDEN
100
AcDbLine
 10
21.1771170896158
 20
18.40549750397471
 30
0.0
 11
21.1771170896158
 21
18.52049750397472
 31
0.0
  0
LINE
  5
C29
330
1E
100
AcDbEntity
  8
HIDDEN
100
AcDbLine
 10
20.54811785580362
 20
18.40549750397471
 30
0.0
 11
20.54811785580362
 21
18.52049750397472
 31
0.0
  0
LINE
  5
C2A
330
1E
100
AcDbEntity
  8
HIDDEN
100
AcDbLine
 10
21.25711708961579
 20
18.52049750397472
 30
0.0
 11
21.1771170896158
 21
18.52049750397472
 31
0.0
  0
LINE
  5
C2D
330
1E
100
AcDbEntity
  8
OBJECT
100
AcDbLine
 10
25.1221178558036
 20
18.40549750397471
 30
0.0
 11
25.1221178558036
 21
18.93399750397472
 31
0.0
  0
ARC
  5
C34
330
1E
100
AcDbEntity
  8
OBJECT
100
AcDbCircle
 10
25.0596178558036
 20
18.93399750397472
 30
0.0
 40
0.0625
100
AcDbArc
 50
0.0
 51
90.0
  0
LINE
  5
C38
330
1E
100
AcDbEntity
  8
HIDDEN
100
AcDbLine
 10
20.78639392089589
 20
18.40549750397471
 30
0.0
 11
20.78639392089589
 21
18.87649750397472
 31
0.0
  0
DIMENSION
  5
C76
330
1E
100
AcDbEntity
  8
DIM
100
AcDbDimension
  2
*D37
 10
35.25957216314485
 20
19.36085672908661
 30
0.0
 11
35.25957216314484
 21
18.74085672908662
 31
0.0
 70
    32
  1
<> DIA.\PC'BORE
 71
     5
 42
0.3100000000000005
  3
23NSTD4I
100
AcDbAlignedDimension
 13
34.04271246055001
 23
18.12085672908661
 33
0.0
 14
34.04271246055001
 24
19.36085672908661
 34
0.0
 50
90.0
100
AcDbRotatedDimension
  0
DIMENSION
  5
C77
330
1E
100
AcDbEntity
  8
DIM
100
AcDbDimension
  2
*D35
 10
29.36891133738493
 20
19.53858016003017
 30
0.0
 11
28.28375508738492
 21
18.63858016003017
 31
0.0
 70
    32
 71
     5
 42
0.080000000000001
  3
23NSTD4
100
AcDbAlignedDimension
 13
31.68321733171515
 23
19.85858016003017
 33
0.0
 14
31.68321733171515
 24
19.53858016003017
 34
0.0
 50
90.0
100
AcDbRotatedDimension
  0
DIMENSION
  5
C78
330
1E
100
AcDbEntity
  8
DIM
100
AcDbDimension
  2
*D36
 10
32.14321733171514
 20
21.31769038718992
 30
0.0
 11
33.63931108171514
 21
21.31769038718992
 31
0.0
 70
   160
 71
     5
 42
0.1149999999999975
  3
23NSTD4
100
AcDbAlignedDimension
 13
31.68321733171515
 23
20.50016935034862
 33
0.0
 14
32.14321733171514
 24
19.85858016003017
 34
0.0
100
AcDbRotatedDimension
  0
DIMENSION
  5
C79
330
1E
100
AcDbEntity
  8
DIM
100
AcDbDimension
  2
*D38
 10
30.61235213934579
 20
18.40464565801781
 30
0.0
 11
30.61235213934578
 21
18.74839565801782
 31
0.0
 70
    32
  1
<> DIA.
 71
     5
 42
0.171875
  3
23NSTD4I
100
AcDbAlignedDimension
 13
31.68229741760508
 23
19.09214565801781
 33
0.0
 14
31.68229741760508
 24
18.40464565801781
 34
0.0
 50
90.0
100
AcDbRotatedDimension
  0
LINE
  5
C81
330
1E
100
AcDbEntity
  8
OBJECT
100
AcDbLine
 10
31.68321733171515
 20
20.02456997160926
 30
0.0
 11
33.64721733171514
 21
20.02456997160928
 31
0.0
  0
LINE
  5
C82
330
1E
100
AcDbEntity
  8
OBJECT
100
AcDbLine
 10
31.68321733171515
 20
17.8043956580178
 30
0.0
 11
33.79721733171515
 21
17.8043956580178
 31
0.0
  0
LINE
  5
C83
330
1E
100
AcDbEntity
  8
OBJECT
100
AcDbLine
 10
31.68321733171515
 20
19.09214565801781
 30
0.0
 11
33.54721733171516
 21
19.09214565801781
 31
0.0
  0
LINE
  5
C84
330
1E
100
AcDbEntity
  8
OBJECT
100
AcDbLine
 10
31.68321733171515
 20
18.40464565801781
 30
0.0
 11
33.54721733171516
 21
18.40464565801781
 31
0.0
  0
LINE
  5
C85
102
{ACAD_REACTORS
330
1FAB
102
}
330
1E
100
AcDbEntity
  8
OBJECT
100
AcDbLine
 10
31.68321733171515
 20
17.8043956580178
 30
0.0
 11
31.68321733171515
 21
20.50016935034862
 31
0.0
  0
LINE
  5
C86
330
1E
100
AcDbEntity
  8
OBJECT
100
AcDbLine
 10
33.64721733171514
 20
20.02456997160928
 30
0.0
 11
33.64721733171514
 21
20.66855700182672
 31
0.0
  0
LINE
  5
C87
330
1E
100
AcDbEntity
  8
OBJECT
100
AcDbLine
 10
34.04721733171515
 20
18.0543956580178
 30
0.0
 11
34.04721733171515
 21
20.42581083297356
 31
0.0
  0
LINE
  5
C8C
330
1E
100
AcDbEntity
  8
OBJECT
100
AcDbLine
 10
33.54721733171514
 20
18.12839565801781
 30
0.0
 11
34.04721733171515
 21
18.12839565801781
 31
0.0
  0
ARC
  5
C8D
330
1E
100
AcDbEntity
  8
OBJECT
100
AcDbCircle
 10
33.79721733171515
 20
18.0543956580178
 30
0.0
 40
0.25
100
AcDbArc
 50
270.0
 51
0.0
  0
LINE
  5
C8E
330
1E
100
AcDbEntity
  8
OBJECT
100
AcDbLine
 10
33.54721733171514
 20
19.36839565801781
 30
0.0
 11
34.04721733171515
 21
19.36839565801781
 31
0.0
  0
LINE
  5
CAB
102
{ACAD_REACTORS
330
1F9A
330
1F9F
102
}
330
1E
100
AcDbEntity
  8
OBJECT
100
AcDbLine
 10
28.41120621496532
 20
15.45185970879744
 30
0.0
 11
28.41120621496532
 21
7.577859708797458
 31
0.0
  0
TEXT
  5
CC3
330
1E
100
AcDbEntity
  8
TEXT
100
AcDbText
 10
22.85748892318002
 20
25.24397433995213
 30
0.0
 40
0.343999999464
  1
PN-1334,  PN-1334-C  AND  PN-1334-DG
 41
0.75
 72
     4
 11
27.26498891631251
 21
25.38730767306213
 31
0.0
100
AcDbText
  0
LWPOLYLINE
  5
CEA
102
{ACAD_REACTORS
330
1FAB
102
}
330
1E
100
AcDbEntity
  8
OBJECT
100
AcDbPolyline
 90
        3
 70
     0
 43
0.0
 10
32.14321733171514
 20
19.85858016003017
 10
32.14321733171514
 20
19.53858016003017
 10
31.68321733171515
 20
19.53858016003017
  0
LWPOLYLINE
  5
CEF
102
{ACAD_REACTORS
330
1FAB
102
}
330
1E
100
AcDbEntity
  8
OBJECT
100
AcDbPolyline
 90
        2
 70
     0
 43
0.0
 10
31.68321733171515
 20
19.85858016003017
 10
32.14321733171514
 20
19.85858016003017
  0
LWPOLYLINE
  5
CF3
102
{ACAD_REACTORS
330
1F9A
102
}
330
1E
100
AcDbEntity
  8
OBJECT
100
AcDbPolyline
 90
        3
 70
     0
 43
0.0
 10
28.52620621496534
 20
8.075609708797463
 10
28.52620621496534
 20
7.995609708797463
 10
28.41120621496532
 20
7.995609708797463
  0
LWPOLYLINE
  5
CF8
102
{ACAD_REACTORS
330
1F9A
102
}
330
1E
100
AcDbEntity
  8
OBJECT
100
AcDbPolyline
 90
        2
 70
     0
 43
0.0
 10
28.41120621496532
 20
8.075609708797465
 10
28.52620621496534
 20
8.075609708797463
  0
LWPOLYLINE
  5
CFC
102
{ACAD_REACTORS
330
1F9F
102
}
330
1E
100
AcDbEntity
  8
OBJECT
100
AcDbPolyline
 90
        3
 70
     0
 43
0.0
 10
28.52620621496534
 20
15.03410970879744
 10
28.52620621496534
 20
14.95410970879744
 10
28.41120621496532
 20
14.95410970879744
  0
LWPOLYLINE
  5
D01
102
{ACAD_REACTORS
330
1F9F
102
}
330
1E
100
AcDbEntity
  8
OBJECT
100
AcDbPolyline
 90
        2
 70
     0
 43
0.0
 10
28.41120621496532
 20
15.03410970879744
 10
28.52620621496534
 20
15.03410970879744
  0
DIMENSION
  5
1005
330
1E
100
AcDbEntity
  8
DIM
100
AcDbDimension
  2
*D43
 10
16.41676537978136
 20
7.237859708797459
 30
0.0
 11
15.39076537978136
 21
7.237859708797459
 31
0.0
 70
    32
 71
     5
 42
2.052000000000001
  3
23NSTD
100
AcDbAlignedDimension
 13
14.36476537978136
 23
7.655859708797457
 33
0.0
 14
16.41676537978136
 24
7.627859708797458
 34
0.0
100
AcDbRotatedDimension
  0
DIMENSION
  5
110B
330
1E
100
AcDbEntity
  8
DIM
100
AcDbDimension
  2
*D44
 10
3.420092211277818
 20
1.60345360838311
 30
0.0
 11
3.420092211277817
 21
2.816953608383108
 31
0.0
 70
    32
 71
     5
 42
2.426999999999994
  3
23NSTD
100
AcDbAlignedDimension
 13
4.210082240213921
 23
4.030453608383104
 33
0.0
 14
4.170082240213915
 24
1.60345360838311
 34
0.0
 50
90.0
100
AcDbRotatedDimension
  0
DIMENSION
  5
1119
330
1E
100
AcDbEntity
  8
DIM
100
AcDbDimension
  2
*D45
 10
9.499181858407792
 20
1.60345360838311
 30
0.0
 11
9.499181858407792
 21
2.786953608383111
 31
0.0
 70
    32
 71
     5
 42
2.366999999999999
  3
23NSTD
100
AcDbAlignedDimension
 13
8.824082240213913
 23
3.970453608383109
 33
0.0
 14
8.794082240213914
 24
1.60345360838311
 34
0.0
 50
90.0
100
AcDbRotatedDimension
  0
TEXT
  5
1146
330
1E
100
AcDbEntity
  8
TEXT
100
AcDbText
 10
22.40598892388351
 20
24.72888297268685
 30
0.0
 40
0.343999999464
  1
PNR-2604,  PNR-2604-C  AND  PNR-2604-DG
 41
0.75
 72
     4
 11
27.26498891631251
 21
24.87221630579685
 31
0.0
100
AcDbText
  0
LINE
  5
1147
330
1E
100
AcDbEntity
  8
OBJECT
100
AcDbLine
 10
28.87720621496533
 20
7.968859708797456
 30
0.0
 11
28.87720621496534
 21
7.658859708797457
 31
0.0
  0
LINE
  5
1148
330
1E
100
AcDbEntity
  8
HIDDEN
100
AcDbLine
 10
20.7891178558036
 20
18.87149750397472
 30
0.0
 11
20.47911785580362
 21
18.87149750397472
 31
0.0
  0
LINE
  5
1156
330
1E
100
AcDbEntity
  8
OBJECT
100
AcDbLine
 10
33.54721733171514
 20
18.12839565801781
 30
0.0
 11
33.54721733171514
 21
19.36839565801781
 31
0.0
  0
DIMENSION
  5
1158
330
1E
100
AcDbEntity
  8
DIM
100
AcDbDimension
  2
*D46
 10
33.54721733171514
 20
17.3393956580178
 30
0.0
 11
32.34409233171514
 21
17.3393956580178
 31
0.0
 70
    32
  1
B
 71
     5
 42
0.1250000000000018
  3
23NSTD4
100
AcDbAlignedDimension
 13
34.04721733171515
 23
18.0543956580178
 33
0.0
 14
33.54721733171514
 24
18.12839565801781
 34
0.0
100
AcDbRotatedDimension
  0
LWPOLYLINE
  5
126E
330
1E
100
AcDbEntity
  8
HIDDEN
100
AcDbPolyline
 90
       24
 70
     1
 43
0.0
 10
31.27702280072802
 20
14.87585970879745
 42
-0.4142135623731355
 10
31.31527280072802
 20
14.91410970879745
 10
31.70898165049229
 20
14.91410970879745
 42
0.4243758672850407
 10
31.98602280072802
 20
15.17763674473968
 10
31.98602280072802
 20
15.22385970879746
 42
-0.4142135623731356
 10
32.02427280072801
 20
15.26210970879746
 10
34.87377280072801
 20
15.26210970879746
 42
-0.4142135623731082
 10
34.9120228007335
 20
15.22385904597027
 10
34.91202356969878
 20
15.17745387153559
 42
0.4243751948338457
 10
35.18907140950593
 20
14.91410970879745
 10
35.582772800728
 20
14.91410970879745
 42
-0.4142135623731081
 10
35.621022800728
 20
14.87585970879745
 10
35.621022800728
 20
8.153859708797465
 42
-0.4142135623731082
 10
35.58277280072801
 20
8.115609708797464
 10
35.187710300728
 20
8.115609708797467
 42
0.4142135623730934
 10
34.91202280072802
 20
7.839922208797471
 10
34.91202280072802
 20
7.805859708797463
 42
-0.4142135623731082
 10
34.87377280072801
 20
7.767609708797465
 10
32.02427280072801
 20
7.767609708797465
 42
-0.4142135623730809
 10
31.98602280072802
 20
7.805859708797459
 10
31.98602280072802
 20
7.839922208797464
 42
0.4142135623730859
 10
31.71033530072801
 20
8.11560970879746
 10
31.31527280072802
 20
8.115609708797464
 42
-0.4142135623730809
 10
31.27702280072802
 20
8.153859708797465
  0
LINE
  5
1271
330
1E
100
AcDbEntity
  8
OBJECT
100
AcDbLine
 10
31.08702280072802
 20
15.23310970879744
 30
0.0
 11
31.08702280072801
 21
7.796609708797454
 31
0.0
  0
LINE
  5
1272
330
1E
100
AcDbEntity
  8
OBJECT
100
AcDbLine
 10
35.811022800728
 20
15.23310970879745
 30
0.0
 11
35.81102280072802
 21
7.796609708797461
 31
0.0
  0
LINE
  5
1275
330
1E
100
AcDbEntity
  8
OBJECT
100
AcDbLine
 10
31.30577280072801
 20
7.577859708797454
 30
0.0
 11
35.59227280072802
 21
7.577859708797454
 31
0.0
  0
CIRCLE
  5
1277
330
1E
100
AcDbEntity
  8
OBJECT
100
AcDbCircle
 10
35.57502280072801
 20
7.813859708797455
 30
0.0
 40
0.0859375
  0
ARC
  5
1278
330
1E
100
AcDbEntity
  8
OBJECT
100
AcDbCircle
 10
35.592272800728
 20
7.796609708797454
 30
0.0
 40
0.21875
100
AcDbArc
 50
270.0
 51
0.000000000000007
  0
ARC
  5
1279
330
1E
100
AcDbEntity
  8
OBJECT
100
AcDbCircle
 10
31.30577280072802
 20
7.796609708797454
 30
0.0
 40
0.21875
100
AcDbArc
 50
180.0
 51
270.0
  0
CIRCLE
  5
127A
330
1E
100
AcDbEntity
  8
OBJECT
100
AcDbCircle
 10
31.32302280072801
 20
7.813859708797458
 30
0.0
 40
0.0859375
  0
LINE
  5
127C
330
1E
100
AcDbEntity
  8
OBJECT
100
AcDbLine
 10
31.30577280072801
 20
15.45185970879744
 30
0.0
 11
35.59227280072802
 21
15.45185970879744
 31
0.0
  0
ARC
  5
127E
330
1E
100
AcDbEntity
  8
OBJECT
100
AcDbCircle
 10
35.592272800728
 20
15.23310970879744
 30
0.0
 40
0.21875
100
AcDbArc
 50
0.000000000000007
 51
90.0
  0
CIRCLE
  5
127F
330
1E
100
AcDbEntity
  8
OBJECT
100
AcDbCircle
 10
35.57502280072801
 20
15.21585970879744
 30
0.0
 40
0.0859375
  0
ARC
  5
1280
330
1E
100
AcDbEntity
  8
OBJECT
100
AcDbCircle
 10
31.30577280072802
 20
15.23310970879744
 30
0.0
 40
0.21875
100
AcDbArc
 50
90.0
 51
180.0
  0
CIRCLE
  5
1281
330
1E
100
AcDbEntity
  8
OBJECT
100
AcDbCircle
 10
31.32302280072802
 20
15.21585970879744
 30
0.0
 40
0.0859375
  0
CIRCLE
  5
1284
330
1E
100
AcDbEntity
  8
OBJECT
100
AcDbCircle
 10
31.32302280072802
 20
15.21585970879744
 30
0.0
 40
0.155
  0
CIRCLE
  5
1286
330
1E
100
AcDbEntity
  8
OBJECT
100
AcDbCircle
 10
35.57502280072801
 20
15.21585970879744
 30
0.0
 40
0.155
  0
CIRCLE
  5
1287
330
1E
100
AcDbEntity
  8
OBJECT
100
AcDbCircle
 10
31.32302280072802
 20
7.813859708797455
 30
0.0
 40
0.155
  0
CIRCLE
  5
1288
330
1E
100
AcDbEntity
  8
OBJECT
100
AcDbCircle
 10
35.57502280072801
 20
7.813859708797455
 30
0.0
 40
0.155
  0
LINE
  5
128B
330
1E
100
AcDbEntity
  8
OBJECT
100
AcDbLine
 10
31.36652280072802
 20
14.86485970879744
 30
0.0
 11
31.36652280072802
 21
8.164859708797454
 31
0.0
  0
LINE
  5
128C
330
1E
100
AcDbEntity
  8
OBJECT
100
AcDbLine
 10
35.53152280072801
 20
14.86485970879744
 30
0.0
 11
35.53152280072801
 21
8.164859708797454
 31
0.0
  0
LINE
  5
128D
330
1E
100
AcDbEntity
  8
OBJECT
100
AcDbLine
 10
31.36652280072802
 20
14.86485970879744
 30
0.0
 11
35.53152280072801
 21
14.86485970879744
 31
0.0
  0
LINE
  5
128E
330
1E
100
AcDbEntity
  8
OBJECT
100
AcDbLine
 10
31.36652280072802
 20
8.164859708797454
 30
0.0
 11
35.53152280072801
 21
8.164859708797454
 31
0.0
  0
DIMENSION
  5
130A
330
1E
100
AcDbEntity
  8
DIM
100
AcDbDimension
  2
*D47
 10
36.45058909862853
 20
8.164859708797452
 30
0.0
 11
36.45058909862853
 21
11.51485970879745
 31
0.0
 70
    32
 71
     5
 42
6.699999999999992
  3
23NSTD
100
AcDbAlignedDimension
 13
35.53152280072801
 23
14.86485970879744
 33
0.0
 14
35.53152280072801
 24
8.164859708797454
 34
0.0
 50
90.0
100
AcDbRotatedDimension
  0
DIMENSION
  5
1322
330
1E
100
AcDbEntity
  8
DIM
100
AcDbDimension
  2
*D48
 10
31.36652280072802
 20
6.984368924486916
 30
0.0
 11
33.44902280072801
 21
6.984368924486916
 31
0.0
 70
    32
 71
     5
 42
4.164999999999995
  3
23NSTD
100
AcDbAlignedDimension
 13
35.53152280072801
 23
8.164859708797454
 33
0.0
 14
31.36652280072802
 24
8.164859708797454
 34
0.0
100
AcDbRotatedDimension
  0
LEADER
  5
1363
330
1E
100
AcDbEntity
  8
DIM
100
AcDbLeader
  3
23NSTD
 73
     0
 40
1.352
 41
3.665999999999999
 76
     3
 10
32.68573473744789
 20
8.826621843406691
 30
0.0
 10
31.93296499520574
 20
6.253535164352498
 30
0.0
 10
32.12080618901282
 20
6.253535164352498
 30
0.0
340
1364
213
0.0
223
-0.140625
233
0.0
  0
MTEXT
  5
1364
102
{ACAD_REACTORS
330
1363
102
}
330
1E
100
AcDbEntity
  8
DIM
100
AcDbMText
 10
32.34580618901282
 20
6.394160164352498
 30
0.0
 40
0.312
 41
0.0
 71
     1
 72
     1
  1
\A1;RECESSED AREA\P0.045 DEEP\P"PNR" SERIES ONLY
 73
     1
 44
1.0
  0
LWPOLYLINE
  5
13B4
102
{ACAD_REACTORS
330
2BCB
102
}
330
1E
100
AcDbEntity
  8
OBJECT
100
AcDbPolyline
 90
        4
 70
     0
 43
0.0
 10
16.25976537978137
 20
13.64034344022043
 10
16.08176537978136
 20
13.66535970879744
 10
16.08176537978136
 20
13.95035970879744
 10
16.25976537978137
 20
13.97537597737448
  0
CIRCLE
  5
13FB
330
1E
100
AcDbEntity
  8
OBJECT
100
AcDbCircle
 10
5.695082240213906
 20
8.049859708797459
 30
0.0
 40
0.1675
  0
CIRCLE
  5
13FC
330
1E
100
AcDbEntity
  8
OBJECT
100
AcDbCircle
 10
6.482082240213912
 20
8.049859708797459
 30
0.0
 40
0.1675
  0
CIRCLE
  5
13FD
330
1E
100
AcDbEntity
  8
OBJECT
100
AcDbCircle
 10
7.269082240213911
 20
8.049859708797459
 30
0.0
 40
0.1675
  0
CIRCLE
  5
13FF
330
1E
100
AcDbEntity
  8
OBJECT
100
AcDbCircle
 10
4.702082240213911
 20
13.80785970879744
 30
0.0
 40
0.1675
  0
CIRCLE
  5
1401
330
1E
100
AcDbEntity
  8
OBJECT
100
AcDbCircle
 10
5.695082240213906
 20
14.97985970879746
 30
0.0
 40
0.1675
  0
CIRCLE
  5
1402
330
1E
100
AcDbEntity
  8
OBJECT
100
AcDbCircle
 10
6.482082240213912
 20
14.97985970879746
 30
0.0
 40
0.1675
  0
CIRCLE
  5
1403
330
1E
100
AcDbEntity
  8
OBJECT
100
AcDbCircle
 10
7.269082240213911
 20
14.97985970879746
 30
0.0
 40
0.1675
  0
CIRCLE
  5
1405
330
1E
100
AcDbEntity
  8
OBJECT
100
AcDbCircle
 10
8.262082240213899
 20
13.80785970879744
 30
0.0
 40
0.1675
  0
LWPOLYLINE
  5
1409
330
1E
100
AcDbEntity
  8
HIDDEN
  6
HIDDEN2
100
AcDbPolyline
 90
        4
 70
     0
 43
0.0
 10
5.527565971636891
 20
1.759577651145473
 10
5.552582240213917
 20
1.937577651145481
 10
5.837582240213917
 20
1.937577651145481
 10
5.862598508790942
 20
1.759577651145472
  0
LWPOLYLINE
  5
140A
330
1E
100
AcDbEntity
  8
HIDDEN
  6
HIDDEN2
100
AcDbPolyline
 90
        4
 70
     0
 43
0.0
 10
6.31456597163689
 20
1.759577651145473
 10
6.339582240213916
 20
1.937577651145481
 10
6.624582240213916
 20
1.937577651145481
 10
6.649598508790942
 20
1.759577651145472
  0
LWPOLYLINE
  5
140B
330
1E
100
AcDbEntity
  8
HIDDEN
  6
HIDDEN2
100
AcDbPolyline
 90
        4
 70
     0
 43
0.0
 10
7.101565971636889
 20
1.759577651145473
 10
7.126582240213915
 20
1.937577651145481
 10
7.411582240213915
 20
1.937577651145481
 10
7.43659850879094
 20
1.759577651145472
  0
LINE
  5
1631
330
1E
100
AcDbEntity
  8
HIDDEN
100
AcDbLine
 10
20.8521178558036
 20
18.40549750397471
 30
0.0
 11
20.8521178558036
 21
18.87649750397472
 31
0.0
  0
LINE
  5
1638
330
1E
100
AcDbEntity
  8
HIDDEN
100
AcDbLine
 10
24.22311862477437
 20
18.40549750397471
 30
0.0
 11
24.22311862477437
 21
18.87649750397472
 31
0.0
  0
LINE
  5
1639
330
1E
100
AcDbEntity
  8
HIDDEN
100
AcDbLine
 10
24.66811785580362
 20
18.40549750397471
 30
0.0
 11
24.66811785580362
 21
18.87649750397472
 31
0.0
  0
LINE
  5
163A
330
1E
100
AcDbEntity
  8
HIDDEN
100
AcDbLine
 10
24.9321178558036
 20
18.40549750397473
 30
0.0
 11
24.9321178558036
 21
18.87649750397472
 31
0.0
  0
LINE
  5
163B
330
1E
100
AcDbEntity
  8
HIDDEN
100
AcDbLine
 10
24.73384179071134
 20
18.40549750397471
 30
0.0
 11
24.73384179071134
 21
18.87649750397472
 31
0.0
  0
LINE
  5
163D
330
1E
100
AcDbEntity
  8
HIDDEN
100
AcDbLine
 10
24.73111785580362
 20
18.87149750397472
 30
0.0
 11
24.73111785580361
 21
18.99649750397472
 31
0.0
  0
LINE
  5
163E
330
1E
100
AcDbEntity
  8
HIDDEN
100
AcDbLine
 10
25.04111785580361
 20
18.87149750397472
 30
0.0
 11
25.04111785580361
 21
18.99649750397472
 31
0.0
  0
LINE
  5
163F
330
1E
100
AcDbEntity
  8
HIDDEN
100
AcDbLine
 10
25.05211785580361
 20
18.40549750397471
 30
0.0
 11
25.05211785580361
 21
18.52049750397472
 31
0.0
  0
LINE
  5
1640
330
1E
100
AcDbEntity
  8
HIDDEN
100
AcDbLine
 10
24.97211785580361
 20
18.40549750397471
 30
0.0
 11
24.97211785580361
 21
18.52049750397472
 31
0.0
  0
LINE
  5
1641
330
1E
100
AcDbEntity
  8
HIDDEN
100
AcDbLine
 10
24.97205535580361
 20
18.40549750397471
 30
0.0
 11
24.97205535580361
 21
18.87149750397472
 31
0.0
  0
LINE
  5
1642
330
1E
100
AcDbEntity
  8
HIDDEN
100
AcDbLine
 10
24.80018035580361
 20
18.40549750397471
 30
0.0
 11
24.80018035580361
 21
18.87149750397472
 31
0.0
  0
LINE
  5
1643
330
1E
100
AcDbEntity
  8
HIDDEN
100
AcDbLine
 10
24.73111785580362
 20
18.87149750397472
 30
0.0
 11
25.04111785580361
 21
18.87149750397472
 31
0.0
  0
LINE
  5
1644
330
1E
100
AcDbEntity
  8
HIDDEN
100
AcDbLine
 10
24.97211785580361
 20
18.52049750397472
 30
0.0
 11
25.05211785580361
 21
18.52049750397472
 31
0.0
  0
LINE
  5
1645
330
1E
100
AcDbEntity
  8
HIDDEN
100
AcDbLine
 10
24.26311862199143
 20
18.40549750397471
 30
0.0
 11
24.26311862199143
 21
18.52049750397472
 31
0.0
  0
LINE
  5
1646
330
1E
100
AcDbEntity
  8
HIDDEN
100
AcDbLine
 10
24.34311862199143
 20
18.40549750397471
 30
0.0
 11
24.34311862199143
 21
18.52049750397472
 31
0.0
  0
LINE
  5
1647
330
1E
100
AcDbEntity
  8
HIDDEN
100
AcDbLine
 10
24.26311862199143
 20
18.52049750397472
 30
0.0
 11
24.34311862199143
 21
18.52049750397472
 31
0.0
  0
LINE
  5
16D8
330
1E
100
AcDbEntity
  8
HIDDEN
100
AcDbLine
 10
24.4081178558036
 20
18.40549750397471
 30
0.0
 11
24.40811785580359
 21
18.87649750397472
 31
0.0
  0
LINE
  5
16DD
330
1E
100
AcDbEntity
  8
HIDDEN
100
AcDbLine
 10
24.84261785580361
 20
18.95149750397473
 30
0.0
 11
20.67761785580362
 21
18.95149750397473
 31
0.0
  0
LINE
  5
16DF
330
1E
100
AcDbEntity
  8
HIDDEN
100
AcDbLine
 10
20.67761785580362
 20
18.99649750397472
 30
0.0
 11
20.67761785580362
 21
18.95149750397473
 31
0.0
  0
LINE
  5
16E0
330
1E
100
AcDbEntity
  8
HIDDEN
100
AcDbLine
 10
24.84261785580361
 20
18.99649750397472
 30
0.0
 11
24.84261785580361
 21
18.95149750397473
 31
0.0
  0
LINE
  5
16ED
330
1E
100
AcDbEntity
  8
OBJECT
100
AcDbLine
 10
28.95720621496534
 20
9.016767307828541
 30
0.0
 11
29.00220621496534
 21
9.016767307828541
 31
0.0
  0
LINE
  5
16EE
330
1E
100
AcDbEntity
  8
OBJECT
100
AcDbLine
 10
29.00220621496534
 20
14.86485970879744
 30
0.0
 11
28.95720621496534
 21
14.86485970879744
 31
0.0
  0
LINE
  5
16EF
330
1E
100
AcDbEntity
  8
OBJECT
100
AcDbLine
 10
28.95720621496534
 20
14.86485970879744
 30
0.0
 11
28.95720621496534
 21
9.016767307828541
 31
0.0
  0
HATCH
  5
1712
330
1E
100
AcDbEntity
  8
OBJECT
 62
   151
100
AcDbHatch
 10
0.0
 20
0.0
 30
0.0
210
0.0
220
0.0
230
1.0
  2
ANSI31
 70
     0
 71
     0
 91
        2
 92
        7
 72
     1
 73
     1
 93
       27
 10
29.00220621496534
 20
15.38935970879744
 42
0.4142135623730951
 10
28.93970621496534
 20
15.45185970879744
 42
0.0
 10
28.41120621496532
 20
15.45185970879744
 42
0.0
 10
28.41120621496532
 20
15.37185970879744
 42
0.0
 10
28.88220621496532
 20
15.37185970879744
 42
0.0
 10
28.88220621496532
 20
15.09910970879746
 42
0.0
 10
28.41120621496532
 20
15.09910970879746
 42
0.0
 10
28.41120621496532
 20
15.03410970879744
 42
0.0
 10
28.52620621496533
 20
15.03410970879744
 42
0.0
 10
28.52620621496533
 20
14.95410970879743
 42
0.0
 10
28.41120621496532
 20
14.95410970879744
 42
0.0
 10
28.41120621496532
 20
14.91410970879745
 42
0.0
 10
28.88220621496534
 20
14.91410970879745
 42
0.0
 10
28.88220621496534
 20
8.11560970879746
 42
0.0
 10
28.41120621496532
 20
8.11560970879746
 42
0.0
 10
28.41120621496532
 20
8.075609708797465
 42
0.0
 10
28.52620621496534
 20
8.075609708797463
 42
0.0
 10
28.52620621496534
 20
7.995609708797463
 42
0.0
 10
28.41120621496532
 20
7.995609708797463
 42
0.0
 10
28.41120621496532
 20
7.899797208797455
 42
0.0
 10
28.87720621496534
 20
7.899797208797455
 42
0.0
 10
28.87720621496534
 20
7.968859708797456
 42
0.0
 10
29.00220621496534
 20
7.968859708797456
 42
0.0
 10
29.00220621496534
 20
9.016767307828541
 42
0.0
 10
28.95720621496533
 20
9.016767307828541
 42
0.0
 10
28.95720621496534
 20
14.86485970879744
 42
0.0
 10
29.00220621496534
 20
14.86485970879744
 42
0.0
 97
        0
 92
        7
 72
     1
 73
     1
 93
        7
 10
28.87720621496534
 20
7.727922208797458
 42
0.0
 10
28.41120621496532
 20
7.727922208797455
 42
0.0
 10
28.41120621496532
 20
7.577859708797458
 42
0.0
 10
28.93970621496534
 20
7.577859708797458
 42
0.4142135623730951
 10
29.00220621496534
 20
7.640359708797458
 42
0.0
 10
29.00220621496534
 20
7.658859708797457
 42
0.0
 10
28.87720621496533
 20
7.658859708797457
 42
0.0
 97
        0
 75
     0
 76
     1
 52
0.0
 41
0.625
 77
     0
 78
     1
 53
45.0
 43
2.160532994780069
 44
0.8981379671569982
 45
-0.055242717280199
 46
0.055242717280199
 79
     0
 47
0.0149978385716669
 98
        2
 10
28.78994620753184
 20
14.99765169591107
 10
28.74491985366463
 20
7.678706392956428
  0
HATCH
  5
1747
330
1E
100
AcDbEntity
  8
OBJECT
 62
   221
100
AcDbHatch
 10
0.0
 20
0.0
 30
0.0
210
0.0
220
0.0
230
1.0
  2
ANSI32
 70
     0
 71
     0
 91
        2
 92
        7
 72
     0
 73
     1
 93
        4
 10
14.36476537978136
 20
7.890109708797448
 10
14.36476537978136
 20
7.936609708797448
 10
14.04976537978135
 20
7.936609708797448
 10
14.04976537978135
 20
7.890109708797448
 97
        0
 92
        7
 72
     0
 73
     1
 93
        4
 10
14.36476537978136
 20
7.686609708797448
 10
14.36476537978136
 20
7.733109708797448
 10
14.04976537978135
 20
7.733109708797448
 10
14.04976537978135
 20
7.686609708797448
 97
        0
 75
     0
 76
     1
 52
90.0
 41
0.25
 77
     0
 78
     2
 53
135.0
 43
1.752605074393926
 44
0.8981379671569982
 45
-0.0662912607362388
 46
-0.0662912607362388
 79
     0
 53
135.0
 43
1.752605074393926
 44
0.9423321409069982
 45
-0.0662912607362388
 46
-0.0662912607362388
 79
     0
 47
0.0017620679928966
 98
        2
 10
14.14177722200826
 20
7.906027004131125
 10
14.15235734584848
 20
7.708675363448044
  0
INSERT
  5
1BE8
330
1E
100
AcDbEntity
  8
OBJECT
100
AcDbBlockReference
  2
HBS
 10
0.0
 20
0.0
 30
0.0
 41
2.5
 42
2.5
 43
2.5
  0
TEXT
  5
1BE9
330
1E
100
AcDbEntity
  8
TEXT
100
AcDbText
 10
7.323593750000014
 20
24.9471875
 30
0.0
 40
0.390625
  1
NEMA 4X ENCLOSURE
 41
0.75
 72
     4
 11
9.765000000000014
 21
25.1425
 31
0.0
100
AcDbText
  0
TEXT
  5
1BEB
330
1E
100
AcDbEntity
  8
TEXT
100
AcDbText
 10
38.23534047881253
 20
24.94718750000001
 30
0.0
 40
0.390625
  1
11-17-08
 41
0.75
 72
     4
 11
39.18748891631253
 21
25.14250000000001
 31
0.0
100
AcDbText
  0
TEXT
  5
1DF4
330
1E
100
AcDbEntity
  8
TEXT
100
AcDbText
 10
0.6695021810844568
 20
22.70654253272514
 30
0.0
 40
0.312499875
  1
  UL94-HB FLAMMABILITY RATING (UL FILE #E41613)
 41
0.75
100
AcDbText
  0
TEXT
  5
1DF5
330
1E
100
AcDbEntity
  8
TEXT
100
AcDbText
 10
0.6695021810844568
 20
21.66504315772515
 30
0.0
 40
0.312499875
  1
  SERVICE TEMPERATURE RANGE:  -40%%DC TO +120%%DC
 41
0.75
100
AcDbText
  0
TEXT
  5
1DF6
330
1E
100
AcDbEntity
  8
TEXT
100
AcDbText
 10
0.6695021810844568
 20
20.62354378272514
 30
0.0
 40
0.312499875
  1
  UL94-HB FLAMMABILITY RATING (UL FILE #E56070)
 41
0.75
100
AcDbText
  0
TEXT
  5
1DF7
330
1E
100
AcDbEntity
  8
TEXT
100
AcDbText
 10
0.6695021810844568
 20
20.10287753272514
 30
0.0
 40
0.312499875
  1
  SERVICE TEMPERATURE RANGE:  -40%%DC TO +80%%DC
 41
0.75
100
AcDbText
  0
TEXT
  5
1DF8
330
1E
100
AcDbEntity
  8
TEXT
100
AcDbText
 10
0.6695021810844568
 20
23.22737565772513
 30
0.0
 40
0.312499875
  1
 %%UPOLYCARBONATE%%U (LIGHT GRAY AND CLEAR)
 41
0.75
100
AcDbText
  0
TEXT
  5
1DF9
330
1E
100
AcDbEntity
  8
TEXT
100
AcDbText
 10
0.6695021810844568
 20
22.18587628272513
 30
0.0
 40
0.312499875
  1
  UV STABILIZED
 41
0.75
100
AcDbText
  0
TEXT
  5
1DFA
330
1E
100
AcDbEntity
  8
TEXT
100
AcDbText
 10
0.6695021810844568
 20
23.74820878272513
 30
0.0
 40
0.39062484375
  1
INDUSTRY STANDARDS:
 41
0.75
100
AcDbText
  0
TEXT
  5
1DFB
330
1E
100
AcDbEntity
  8
TEXT
100
AcDbText
 10
0.6695021810844568
 20
21.14437690772514
 30
0.0
 40
0.312499875
  1
 %%UABS%%U (DARK GRAY)
 41
0.75
100
AcDbText
  0
TEXT
  5
1E25
330
1E
100
AcDbEntity
  8
TEXT
100
AcDbText
 10
20.34501299999802
 20
3.012498142625285
 30
0.0
 40
0.3124997968750312
  1
%%UNOTE%%U:  ALL DIMENSIONS HAVE %%P0.015 TOLERANCE UNLESS OTHERWISE SPECIFIED.
 41
0.75
100
AcDbText
  0
LINE
  5
1E26
330
1E
100
AcDbEntity
  8
TITLE
100
AcDbLine
 10
26.34500974999852
 20
2.234998648000207
 30
0.0
 11
36.34500324999952
 21
2.234998648000207
 31
0.0
  0
TEXT
  5
1E27
330
1E
100
AcDbEntity
  8
TEXT
100
AcDbText
 10
32.82938053515541
 20
0.2562499341875106
 30
0.0
 40
0.3124997968750312
  1
DARK GRAY
 41
0.75
 72
     4
 11
33.84500487499926
 21
0.4124998326250262
 31
0.0
100
AcDbText
  0
TEXT
  5
1E28
330
1E
100
AcDbEntity
  8
TEXT
100
AcDbText
 10
32.75125558593665
 20
1.297915923770942
 30
0.0
 40
0.3124997968750312
  1
LIGHT GRAY
 41
0.75
 72
     4
 11
33.84500487499926
 21
1.454165822208458
 31
0.0
100
AcDbText
  0
TEXT
  5
1E29
330
1E
100
AcDbEntity
  8
TEXT
100
AcDbText
 10
33.25906775585859
 20
2.338748580562722
 30
0.0
 40
0.3124997968750312
  1
FINISH
 41
0.75
 72
     4
 11
33.84500487499927
 21
2.494998479000237
 31
0.0
100
AcDbText
  0
LINE
  5
1E2A
330
1E
100
AcDbEntity
  8
TITLE
100
AcDbLine
 10
20.34501299999802
 20
2.754998310000263
 30
0.0
 11
41.34500000000002
 21
2.754998310000263
 31
0.0
  0
LINE
  5
1E2B
330
1E
100
AcDbEntity
  8
TITLE
100
AcDbLine
 10
20.34501299999802
 20
1.714998986000161
 30
0.0
 11
41.34500000000002
 21
1.714998986000161
 31
0.0
  0
LINE
  5
1E2C
330
1E
100
AcDbEntity
  8
TITLE
100
AcDbLine
 10
20.34501299999802
 20
1.194999324000106
 30
0.0
 11
36.34500324999952
 21
1.194999324000106
 31
0.0
  0
LINE
  5
1E2D
330
1E
100
AcDbEntity
  8
TITLE
100
AcDbLine
 10
20.34501299999802
 20
0.6749996620000514
 30
0.0
 11
36.34500324999952
 21
0.6749996620000514
 31
0.0
  0
TEXT
  5
1E2E
330
1E
100
AcDbEntity
  8
TEXT
100
AcDbText
 10
27.16532171679548
 20
1.818748918562667
 30
0.0
 40
0.3124997968750312
  1
BODY
 41
0.75
 72
     4
 11
27.59500893749865
 21
1.974998817000183
 31
0.0
100
AcDbText
  0
TEXT
  5
1E2F
330
1E
100
AcDbEntity
  8
TEXT
100
AcDbText
 10
27.20438419140486
 20
0.2562499341875132
 30
0.0
 40
0.3124997968750312
  1
HIGH-IMPACT ABS
 41
0.75
 72
     4
 11
28.84500812499877
 21
0.4124998326250289
 31
0.0
100
AcDbText
  0
TEXT
  5
1E30
330
1E
100
AcDbEntity
  8
TEXT
100
AcDbText
 10
20.86454423730271
 20
0.7762495961875655
 30
0.0
 40
0.3124997968750312
  1
PN-1334-C & PNR-2604-C
 41
0.75
 72
     4
 11
23.34501137499827
 21
0.9324994946250811
 31
0.0
100
AcDbText
  0
LINE
  5
1E31
330
1E
100
AcDbEntity
  8
TITLE
100
AcDbLine
 10
20.34501299999802
 20
2.754998310000263
 30
0.0
 11
20.34501299999802
 21
0.1550000000000029
 31
0.0
  0
LINE
  5
1E32
330
1E
100
AcDbEntity
  8
TITLE
100
AcDbLine
 10
26.34500974999852
 20
2.754998310000263
 30
0.0
 11
26.34500974999852
 21
0.1550000000000029
 31
0.0
  0
TEXT
  5
1E33
330
1E
100
AcDbEntity
  8
TEXT
100
AcDbText
 10
20.63016938964644
 20
0.2554166013958465
 30
0.0
 40
0.3124997968750312
  1
PN-1334-DG & PNR-2604-DG
 41
0.75
 72
     4
 11
23.34501137499827
 21
0.4116664998333622
 31
0.0
100
AcDbText
  0
TEXT
  5
1E34
330
1E
100
AcDbEntity
  8
TEXT
100
AcDbText
 10
21.33329393261526
 20
1.297082590979284
 30
0.0
 40
0.3124997968750312
  1
PN-1334 & PNR-2604
 41
0.75
 72
     4
 11
23.34501137499827
 21
1.4533324894168
 31
0.0
100
AcDbText
  0
TEXT
  5
1E36
330
1E
100
AcDbEntity
  8
TEXT
100
AcDbText
 10
22.09501218749815
 20
2.078748749562691
 30
0.0
 40
0.3124997968750312
  1
PART NUMBER
 41
0.75
 72
     4
 11
23.34501137499827
 21
2.234998648000207
 31
0.0
100
AcDbText
  0
TEXT
  5
1E37
330
1E
100
AcDbEntity
  8
TEXT
100
AcDbText
 10
31.50125639843653
 20
0.777082928979233
 30
0.0
 40
0.3124997968750312
  1
LIGHT GRAY
 41
0.75
 72
     4
 11
32.59500568749913
 21
0.9333328274167485
 31
0.0
100
AcDbText
  0
TEXT
  5
1E38
330
1E
100
AcDbEntity
  8
TEXT
100
AcDbText
 10
27.36063408984237
 20
0.777082928979233
 30
0.0
 40
0.3124997968750312
  1
POLYCARBONATE
 41
0.75
 72
     4
 11
28.84500812499877
 21
0.9333328274167485
 31
0.0
100
AcDbText
  0
LINE
  5
1E39
330
1E
100
AcDbEntity
  8
TITLE
100
AcDbLine
 10
31.34500649999902
 20
2.754998310000263
 30
0.0
 11
31.34500649999902
 21
0.1550000000000029
 31
0.0
  0
TEXT
  5
1E3A
330
1E
100
AcDbEntity
  8
TEXT
100
AcDbText
 10
29.50907019335823
 20
1.818748918562667
 30
0.0
 40
0.3124997968750312
  1
COVER
 41
0.75
 72
     4
 11
30.09500731249891
 21
1.974998817000183
 31
0.0
100
AcDbText
  0
TEXT
  5
1E3B
330
1E
100
AcDbEntity
  8
TEXT
100
AcDbText
 10
27.36063408984237
 20
1.297915923770948
 30
0.0
 40
0.3124997968750312
  1
POLYCARBONATE
 41
0.75
 72
     4
 11
28.84500812499877
 21
1.454165822208464
 31
0.0
100
AcDbText
  0
TEXT
  5
1E3C
330
1E
100
AcDbEntity
  8
TEXT
100
AcDbText
 10
27.98563368359244
 20
2.338748580562722
 30
0.0
 40
0.3124997968750312
  1
MATERIAL
 41
0.75
 72
     4
 11
28.84500812499877
 21
2.494998479000237
 31
0.0
100
AcDbText
  0
LINE
  5
1E3D
330
1E
100
AcDbEntity
  8
TITLE
100
AcDbLine
 10
28.84500812499877
 20
2.234998648000207
 30
0.0
 11
28.84500812499877
 21
1.714998986000161
 31
0.0
  0
TEXT
  5
1E3E
330
1E
100
AcDbEntity
  8
TEXT
100
AcDbText
 10
32.16531846679597
 20
1.818748918562667
 30
0.0
 40
0.3124997968750312
  1
BODY
 41
0.75
 72
     4
 11
32.59500568749913
 21
1.974998817000183
 31
0.0
100
AcDbText
  0
TEXT
  5
1E3F
330
1E
100
AcDbEntity
  8
TEXT
100
AcDbText
 10
36.61844057226517
 20
0.2562499341875106
 30
0.0
 40
0.3124997968750312
  1
SCREWS FOR ASSEMBLY
 41
0.75
 72
     4
 11
38.84500162499977
 21
0.4124998326250262
 31
0.0
100
AcDbText
  0
TEXT
  5
1E40
330
1E
100
AcDbEntity
  8
TEXT
100
AcDbText
 10
36.61844057226517
 20
0.7770829289792265
 30
0.0
 40
0.3124997968750312
  1
M4 x 20mm (0.787") LG.
 41
0.75
 72
     4
 11
38.84500162499977
 21
0.9333328274167421
 31
0.0
100
AcDbText
  0
TEXT
  5
1E41
330
1E
100
AcDbEntity
  8
TEXT
100
AcDbText
 10
37.16531521679647
 20
1.297915923770942
 30
0.0
 40
0.3124997968750312
  1
KIT CONTAINS (4)
 41
0.75
 72
     4
 11
38.84500162499977
 21
1.454165822208458
 31
0.0
100
AcDbText
  0
TEXT
  5
1E42
330
1E
100
AcDbEntity
  8
TEXT
100
AcDbText
 10
34.54812941796809
 20
0.777082928979233
 30
0.0
 40
0.3124997968750312
  1
CLEAR
 41
0.75
 72
     4
 11
35.09500406249939
 21
0.9333328274167485
 31
0.0
100
AcDbText
  0
LINE
  5
1E43
330
1E
100
AcDbEntity
  8
TITLE
100
AcDbLine
 10
33.84500487499927
 20
1.194999324000106
 30
0.0
 11
33.84500487499927
 21
0.6749996620000514
 31
0.0
  0
LINE
  5
1E44
330
1E
100
AcDbEntity
  8
TITLE
100
AcDbLine
 10
36.34500324999952
 20
2.754998310000263
 30
0.0
 11
36.34500324999952
 21
0.1550000000000029
 31
0.0
  0
TEXT
  5
1E45
330
1E
100
AcDbEntity
  8
TEXT
100
AcDbText
 10
34.50906694335872
 20
1.818748918562667
 30
0.0
 40
0.3124997968750312
  1
COVER
 41
0.75
 72
     4
 11
35.09500406249939
 21
1.974998817000183
 31
0.0
100
AcDbText
  0
LINE
  5
1E46
330
1E
100
AcDbEntity
  8
TITLE
100
AcDbLine
 10
33.84500487499927
 20
2.234998648000207
 30
0.0
 11
33.84500487499927
 21
1.714998986000161
 31
0.0
  0
TEXT
  5
1E48
330
1E
100
AcDbEntity
  8
TEXT
100
AcDbText
 10
37.47781501367152
 20
2.078748749562691
 30
0.0
 40
0.3124997968750312
  1
HARDWARE KIT
 41
0.75
 72
     4
 11
38.84500162499978
 21
2.234998648000207
 31
0.0
100
AcDbText
  0
LINE
  5
1E7D
330
1E
100
AcDbEntity
  8
OBJECT
100
AcDbLine
 10
37.24438758964213
 20
7.640359708797454
 30
0.0
 11
37.24438758964213
 21
15.38935970879744
 31
0.0
  0
LINE
  5
1E7E
330
1E
100
AcDbEntity
  8
OBJECT
100
AcDbLine
 10
37.83538758964212
 20
7.577859708797454
 30
0.0
 11
37.83538758964212
 21
15.45185970879744
 31
0.0
  0
LINE
  5
1E7F
330
1E
100
AcDbEntity
  8
OBJECT
100
AcDbLine
 10
37.87538758964212
 20
7.577859708797451
 30
0.0
 11
37.87538758964211
 21
15.45185970879746
 31
0.0
  0
LINE
  5
1E80
330
1E
100
AcDbEntity
  8
OBJECT
100
AcDbLine
 10
40.20238758964213
 20
7.640359708797451
 30
0.0
 11
40.20238758964211
 21
15.38935970879746
 31
0.0
  0
LINE
  5
1E81
330
1E
100
AcDbEntity
  8
OBJECT
100
AcDbLine
 10
37.83538758964212
 20
7.577859708797454
 30
0.0
 11
37.30688758964213
 21
7.577859708797454
 31
0.0
  0
ARC
  5
1E82
330
1E
100
AcDbEntity
  8
OBJECT
100
AcDbCircle
 10
37.30688758964213
 20
7.640359708797454
 30
0.0
 40
0.0625
100
AcDbArc
 50
180.0
 51
270.0
  0
LINE
  5
1E83
330
1E
100
AcDbEntity
  8
OBJECT
100
AcDbLine
 10
37.87538758964212
 20
7.577859708797451
 30
0.0
 11
40.13988758964212
 21
7.577859708797451
 31
0.0
  0
LINE
  5
1E84
330
1E
100
AcDbEntity
  8
OBJECT
100
AcDbLine
 10
37.83538758964212
 20
7.59785970879745
 30
0.0
 11
37.87538758964212
 21
7.59785970879745
 31
0.0
  0
ARC
  5
1E85
330
1E
100
AcDbEntity
  8
OBJECT
100
AcDbCircle
 10
40.13988758964212
 20
7.640359708797451
 30
0.0
 40
0.0625
100
AcDbArc
 50
270.0
 51
0.0
  0
DIMENSION
  5
1E86
330
1E
100
AcDbEntity
  8
DIM
100
AcDbDimension
  2
*D50
 10
40.20238758964211
 20
16.11050827948034
 30
0.0
 11
38.72338758964212
 21
16.11050827948034
 31
0.0
 70
    32
  1
C
 71
     5
 42
2.957999999999984
  3
23NSTDI
100
AcDbAlignedDimension
 13
37.24438758964213
 23
15.38935970879744
 33
0.0
 14
40.20238758964211
 24
15.38935970879746
 34
0.0
100
AcDbRotatedDimension
  0
LINE
  5
1E88
330
1E
100
AcDbEntity
  8
OBJECT
100
AcDbLine
 10
37.83538758964212
 20
15.45185970879744
 30
0.0
 11
37.30688758964213
 21
15.45185970879744
 31
0.0
  0
ARC
  5
1E89
330
1E
100
AcDbEntity
  8
OBJECT
100
AcDbCircle
 10
37.30688758964213
 20
15.38935970879744
 30
0.0
 40
0.0625
100
AcDbArc
 50
90.0
 51
180.0
  0
LINE
  5
1E8A
330
1E
100
AcDbEntity
  8
OBJECT
100
AcDbLine
 10
40.13988758964211
 20
15.45185970879746
 30
0.0
 11
37.87538758964211
 21
15.45185970879746
 31
0.0
  0
LINE
  5
1E8B
330
1E
100
AcDbEntity
  8
OBJECT
100
AcDbLine
 10
37.83538758964212
 20
15.43185970879745
 30
0.0
 11
37.87538758964212
 21
15.43185970879745
 31
0.0
  0
ARC
  5
1E8C
330
1E
100
AcDbEntity
  8
OBJECT
100
AcDbCircle
 10
40.13988758964211
 20
15.38935970879746
 30
0.0
 40
0.0625
100
AcDbArc
 50
0.0
 51
90.0
  0
LINE
  5
1F0A
330
1E
100
AcDbEntity
  8
TITLE
100
AcDbLine
 10
25.35313299200002
 20
22.54332800000001
 30
0.0
 11
41.34500000000002
 21
22.54332800000001
 31
0.0
  0
LINE
  5
1F0B
330
1E
100
AcDbEntity
  8
TITLE
100
AcDbLine
 10
25.35313299200002
 20
23.58166400000001
 30
0.0
 11
41.34500000000002
 21
23.58166400000001
 31
0.0
  0
LINE
  5
1F0C
330
1E
100
AcDbEntity
  8
TITLE
100
AcDbLine
 10
25.35313299200002
 20
23.06249600000001
 30
0.0
 11
41.34500000000002
 21
23.06249600000001
 31
0.0
  0
TEXT
  5
1F0D
330
1E
100
AcDbEntity
  8
TEXT
100
AcDbText
 10
25.95815132800002
 20
23.19041600000001
 30
0.0
 40
0.312
  1
PN-1334, PN-1334-C AND PN-1334-DG
 41
0.75
 72
     4
 11
29.60465132800002
 21
23.32041600000001
 31
0.0
100
AcDbText
  0
TEXT
  5
1F0E
330
1E
100
AcDbEntity
  8
TEXT
100
AcDbText
 10
25.54865132800002
 20
22.67041600000001
 30
0.0
 40
0.312
  1
PNR-2604, PNR-2604-C AND PNR-2604-DG
 41
0.75
 72
     4
 11
29.60465132800002
 21
22.80041600000001
 31
0.0
100
AcDbText
  0
LINE
  5
1F0F
330
1E
100
AcDbEntity
  8
TITLE
100
AcDbLine
 10
25.35313299200002
 20
24.62000000000001
 30
0.0
 11
25.35313299200002
 21
22.54332800000001
 31
0.0
  0
TEXT
  5
1F11
330
1E
100
AcDbEntity
  8
TEXT
100
AcDbText
 10
28.35665132800002
 20
23.94441600000001
 30
0.0
 40
0.312
  1
PART NUMBER
 41
0.75
 72
     4
 11
29.60465132800002
 21
24.10041600000001
 31
0.0
100
AcDbText
  0
TEXT
  5
1F12
330
1E
100
AcDbEntity
  8
TEXT
100
AcDbText
 10
39.62900000000002
 20
22.64524800000001
 30
0.0
 40
0.312
  1
3.547
 41
0.75
 72
     4
 11
40.09700000000003
 21
22.80124800000001
 31
0.0
100
AcDbText
  0
TEXT
  5
1F13
330
1E
100
AcDbEntity
  8
TEXT
100
AcDbText
 10
39.62900000000002
 20
23.16524800000001
 30
0.0
 40
0.312
  1
2.958
 41
0.75
 72
     4
 11
40.09700000000003
 21
23.32124800000001
 31
0.0
100
AcDbText
  0
LINE
  5
1F14
330
1E
100
AcDbEntity
  8
TITLE
100
AcDbLine
 10
33.85700166400002
 20
24.10083200000001
 30
0.0
 11
41.34500000000002
 21
24.10083200000001
 31
0.0
  0
TEXT
  5
1F15
330
1E
100
AcDbEntity
  8
TEXT
100
AcDbText
 10
37.21100166400002
 20
23.16524800000001
 30
0.0
 40
0.312
  1
0.120
 41
0.75
 72
     4
 11
37.60100166400002
 21
23.32124800000001
 31
0.0
100
AcDbText
  0
TEXT
  5
1F16
330
1E
100
AcDbEntity
  8
TEXT
100
AcDbText
 10
34.69550166400002
 20
23.16524800000001
 30
0.0
 40
0.312
  1
0.591
 41
0.75
 72
     4
 11
35.10500166400002
 21
23.32124800000001
 31
0.0
100
AcDbText
  0
LINE
  5
1F17
330
1E
100
AcDbEntity
  8
TITLE
100
AcDbLine
 10
38.84900166400002
 20
24.10083200000001
 30
0.0
 11
38.84900166400002
 21
22.54332800000001
 31
0.0
  0
LINE
  5
1F18
330
1E
100
AcDbEntity
  8
TITLE
100
AcDbLine
 10
33.85700166400002
 20
24.62000000000001
 30
0.0
 11
33.85700166400002
 21
22.54332800000001
 31
0.0
  0
LINE
  5
1F19
330
1E
100
AcDbEntity
  8
TITLE
100
AcDbLine
 10
36.35300166400002
 20
24.10083200000001
 30
0.0
 11
36.35300166400002
 21
22.54332800000001
 31
0.0
  0
TEXT
  5
1F1A
330
1E
100
AcDbEntity
  8
TEXT
100
AcDbText
 10
34.73450166400002
 20
22.64524800000001
 30
0.0
 40
0.312
  1
1.180
 41
0.75
 72
     4
 11
35.10500166400002
 21
22.80124800000001
 31
0.0
100
AcDbText
  0
TEXT
  5
1F1B
330
1E
100
AcDbEntity
  8
TEXT
100
AcDbText
 10
37.21100166400002
 20
22.64524800000001
 30
0.0
 40
0.312
  1
0.710
 41
0.75
 72
     4
 11
37.60100166400002
 21
22.80124800000001
 31
0.0
100
AcDbText
  0
TEXT
  5
1F1C
330
1E
100
AcDbEntity
  8
TEXT
100
AcDbText
 10
36.66500166400002
 20
24.20441600000001
 30
0.0
 40
0.312
  1
DIMENSION
 41
0.75
 72
     4
 11
37.60100166400002
 21
24.36041600000001
 31
0.0
100
AcDbText
  0
TEXT
  5
1F1D
330
1E
100
AcDbEntity
  8
TEXT
100
AcDbText
 10
35.02700166400002
 20
23.68524800000001
 30
0.0
 40
0.312
  1
A
 41
0.75
 72
     4
 11
35.10500166400002
 21
23.84124800000001
 31
0.0
100
AcDbText
  0
TEXT
  5
1F1E
330
1E
100
AcDbEntity
  8
TEXT
100
AcDbText
 10
37.52300166400002
 20
23.68524800000001
 30
0.0
 40
0.312
  1
B
 41
0.75
 72
     4
 11
37.60100166400002
 21
23.84124800000001
 31
0.0
100
AcDbText
  0
TEXT
  5
1F1F
330
1E
100
AcDbEntity
  8
TEXT
100
AcDbText
 10
40.01900000000002
 20
23.68524800000001
 30
0.0
 40
0.312
  1
C
 41
0.75
 72
     4
 11
40.09700000000003
 21
23.84124800000001
 31
0.0
100
AcDbText
  0
HATCH
  5
1F92
330
1E
100
AcDbEntity
  8
OBJECT
 62
   221
100
AcDbHatch
 10
0.0
 20
0.0
 30
0.0
210
0.0
220
0.0
230
1.0
  2
ANSI32
 70
     0
 71
     0
 91
        2
 92
        7
 72
     0
 73
     1
 93
        4
 10
16.29976537978136
 20
14.73585970879747
 10
16.29976537978136
 20
14.77060970879746
 10
16.08176537978136
 20
14.77060970879746
 10
16.08176537978136
 20
14.73585970879747
 97
        0
 92
        7
 72
     0
 73
     1
 93
        4
 10
16.08176537978136
 20
14.61785970879745
 10
16.08176537978136
 20
14.58310970879745
 10
16.29976537978135
 20
14.58310970879746
 10
16.29976537978136
 20
14.61785970879745
 97
        0
 75
     0
 76
     1
 52
90.0
 41
0.25
 77
     0
 78
     2
 53
135.0
 43
1.752605074393926
 44
0.8811379671570094
 45
-0.0662912607362388
 46
-0.0662912607362388
 79
     0
 53
135.0
 43
1.752605074393926
 44
0.9253321409070094
 45
-0.0662912607362388
 46
-0.0662912607362388
 79
     0
 47
0.0007225633650482
 98
        2
 10
16.17687927492257
 20
14.74878436230716
 10
16.17615610593857
 20
14.60065886688449
  0
HATCH
  5
1F94
330
1E
100
AcDbEntity
  8
OBJECT
 62
   221
100
AcDbHatch
 10
0.0
 20
0.0
 30
0.0
210
0.0
220
0.0
230
1.0
  2
ZIGZAG
 70
     0
 71
     1
 91
        2
 92
        1
 93
       24
 72
     1
 10
20.46811785580362
 20
14.87585970879744
 11
20.46811785580362
 21
8.153859708797465
 72
     2
 10
20.62636785580362
 20
8.153859708797464
 40
0.1582499999999953
 50
179.9999999999993
 51
270.0000000000012
 73
     1
 72
     1
 10
20.62636785580362
 20
7.995609708797466
 11
21.02143035580362
 21
7.995609708797466
 72
     2
 10
21.02143035580362
 20
7.839922208797467
 40
0.1556874999999991
 50
270.0000000000026
 51
360.0
 73
     0
 72
     1
 10
21.17711785580361
 20
7.839922208797467
 11
21.17711785580361
 21
7.805859708797466
 72
     2
 10
21.33536785580361
 20
7.805859708797468
 40
0.1582499999999989
 50
180.0000000000006
 51
270.0000000000025
 73
     1
 72
     1
 10
21.33536785580362
 20
7.647609708797467
 11
24.18486785580362
 21
7.647609708797467
 72
     2
 10
24.18486785580363
 20
7.805859708797466
 40
0.1582499999999989
 50
269.9999999999987
 51
359.9999999999987
 73
     1
 72
     1
 10
24.34311785580362
 20
7.805859708797463
 11
24.34311785580362
 21
7.839922208797467
 72
     2
 10
24.49880535580362
 20
7.839922208797473
 40
0.155687499999992
 50
179.999999999998
 51
269.9999999999986
 73
     0
 72
     1
 10
24.49880535580361
 20
7.995609708797466
 11
24.89386785580361
 21
7.995609708797466
 72
     2
 10
24.89386785580362
 20
8.153859708797472
 40
0.158250000000006
 50
269.9999999999987
 51
359.9999999999973
 73
     1
 72
     1
 10
25.05211785580362
 20
8.153859708797465
 11
25.05211785580363
 21
14.87585970879744
 72
     2
 10
24.89386785580363
 20
14.87585970879744
 40
0.158250000000006
 50
0.0000000000019294
 51
90.00000000000385
 73
     1
 72
     1
 10
24.89386785580361
 20
15.03410970879744
 11
24.49818830887442
 21
15.03410970879744
 72
     2
 10
24.48890262421782
 20
15.17960836630502
 40
0.1457946613427508
 50
86.34835126830898
 51
179.3325300601403
 73
     0
 72
     1
 10
24.34311785580362
 20
15.17790996279994
 11
24.34311785580362
 21
15.22385970879746
 72
     2
 10
24.18486785580363
 20
15.22385970879745
 40
0.1582499999999953
 50
0.0000000000019294
 51
90.00000000000259
 73
     1
 72
     1
 10
24.18486785580362
 20
15.38210970879744
 11
21.33536785580362
 21
15.38210970879744
 72
     2
 10
21.33536785580361
 20
15.22385970879745
 40
0.1582499999999953
 50
89.99999999999614
 51
179.9999999999974
 73
     1
 72
     1
 10
21.17711785580361
 20
15.22385970879746
 11
21.17711785580361
 21
15.17790996279427
 72
     2
 10
21.03133308738948
 20
15.17960836630494
 40
0.1457946613427528
 50
0.6674699420580086
 51
93.65164873215414
 73
     0
 72
     1
 10
21.02204740273171
 20
15.03410970879744
 11
20.62636785580362
 21
15.03410970879744
 72
     2
 10
20.62636785580362
 20
14.87585970879744
 40
0.1582500000000007
 50
89.99999999999872
 51
179.9999999999993
 73
     1
 97
        1
330
B8A
 92
       16
 93
       24
 72
     2
 10
24.89386785580361
 20
14.87585970879745
 40
0.0782500000000006
 50
0.0000000000013007
 51
90.0
 73
     1
 72
     1
 10
24.89386785580361
 20
14.95410970879746
 11
24.49927879629115
 21
14.95410970879746
 72
     2
 10
24.48892368884067
 20
15.1796858890478
 40
0.2258137315281031
 50
87.3716740579548
 51
179.5207790590394
 73
     0
 72
     1
 10
24.26311785580361
 20
15.17779720879746
 11
24.26311785580361
 21
15.22385970879746
 72
     2
 10
24.18486785580363
 20
15.22385970879745
 40
0.07824999999999
 50
0.0000000000026013
 51
90.00000000000261
 73
     1
 72
     1
 10
24.18486785580362
 20
15.30210970879744
 11
21.33536785580362
 21
15.30210970879744
 72
     2
 10
21.33536785580362
 20
15.22385970879745
 40
0.0782499999999953
 50
89.9999999999974
 51
179.9999999999948
 73
     1
 72
     1
 10
21.25711785580362
 20
15.22385970879746
 11
21.25711708961579
 21
15.177622146163
 72
     2
 10
21.03139594785173
 20
15.17959798874295
 40
0.225729789334887
 50
0.5015239096500494
 51
92.6506289121596
 73
     0
 72
     1
 10
21.02095691531072
 20
14.95410970879746
 11
20.62636785580362
 21
14.95410970879746
 72
     2
 10
20.62636785580362
 20
14.87585970879745
 40
0.0782500000000006
 50
89.9999999999974
 51
180.0
 73
     1
 72
     1
 10
20.54811785580362
 20
14.87585970879745
 11
20.54811785580362
 21
8.153859708797469
 72
     2
 10
20.62636785580362
 20
8.153859708797462
 40
0.0782500000000006
 50
179.9999999999948
 51
269.9999999999948
 73
     1
 72
     1
 10
20.62636785580362
 20
8.075609708797463
 11
21.02143035580362
 21
8.075609708797468
 72
     2
 10
21.02143035580362
 20
7.839922208797474
 40
0.2356874999999938
 50
269.9999999999991
 51
360.0000000000016
 73
     0
 72
     1
 10
21.25711785580362
 20
7.839922208797467
 11
21.25711785580362
 21
7.805859708797463
 72
     2
 10
21.33536785580362
 20
7.805859708797468
 40
0.0782500000000042
 50
180.0000000000038
 51
269.9999999999973
 73
     1
 72
     1
 10
21.33536785580362
 20
7.727609708797466
 11
24.18486785580362
 21
7.727609708797466
 72
     2
 10
24.18486785580362
 20
7.805859708797461
 40
0.0782499999999953
 50
270.0
 51
359.9999999999987
 73
     1
 72
     1
 10
24.26311785580361
 20
7.805859708797459
 11
24.26311785580361
 21
7.839922208797464
 72
     2
 10
24.49880535580361
 20
7.839922208797466
 40
0.2356874999999974
 50
179.9999999999995
 51
270.0
 73
     0
 72
     1
 10
24.49880535580361
 20
8.075609708797463
 11
24.89386785580361
 21
8.075609708797463
 72
     2
 10
24.89386785580361
 20
8.153859708797465
 40
0.0782500000000024
 50
270.0
 51
360.0
 73
     1
 72
     1
 10
24.97211785580361
 20
8.153859708797465
 11
24.97211785580361
 21
14.87585970879745
 97
        1
330
B70
 75
     0
 76
     1
 52
0.0
 41
0.3125
 77
     0
 78
     2
 53
0.0
 43
1.482973507056996
 44
0.8981379671569982
 45
0.0390625
 46
0.0390625
 79
     2
 49
0.0390625
 49
-0.0390625
 53
90.0
 43
1.522036007056996
 44
0.8981379671569982
 45
-0.0390625
 46
0.0390625
 79
     2
 49
0.0390625
 49
-0.0390625
 98
        1
 10
1.482973507056996
 20
0.8981379671569982
  0
HATCH
  5
1F9A
330
1E
100
AcDbEntity
  8
OBJECT
 62
   221
100
AcDbHatch
 10
0.0
 20
0.0
 30
0.0
210
0.0
220
0.0
230
1.0
  2
ZIGZAG
 70
     0
 71
     1
 91
        1
 92
        7
 72
     0
 73
     1
 93
        4
 10
28.52620621496534
 20
7.995609708797463
 10
28.52620621496534
 20
8.075609708797465
 10
28.41120621496533
 20
8.075609708797465
 10
28.41120621496533
 20
7.995609708797462
 97
        3
330
CF8
330
CAB
330
CF3
 75
     0
 76
     1
 52
0.0
 41
0.3125
 77
     0
 78
     2
 53
0.0
 43
2.160532994780069
 44
0.8981379671569982
 45
0.0390625
 46
0.0390625
 79
     2
 49
0.0390625
 49
-0.0390625
 53
90.0
 43
2.199595494780069
 44
0.8981379671569982
 45
-0.0390625
 46
0.0390625
 79
     2
 49
0.0390625
 49
-0.0390625
 47
0.0020093966797956
 98
        1
 10
28.46935676144943
 20
8.034444029797036
  0
HATCH
  5
1F9F
330
1E
100
AcDbEntity
  8
OBJECT
 62
   221
100
AcDbHatch
 10
0.0
 20
0.0
 30
0.0
210
0.0
220
0.0
230
1.0
  2
ZIGZAG
 70
     0
 71
     1
 91
        1
 92
        7
 72
     0
 73
     1
 93
        4
 10
28.52620621496534
 20
14.95410970879744
 10
28.52620621496534
 20
15.03410970879745
 10
28.41120621496533
 20
15.03410970879745
 10
28.41120621496533
 20
14.95410970879744
 97
        3
330
D01
330
CAB
330
CFC
 75
     0
 76
     1
 52
0.0
 41
0.3125
 77
     0
 78
     2
 53
0.0
 43
2.160532994780069
 44
0.8981379671569982
 45
0.0390625
 46
0.0390625
 79
     2
 49
0.0390625
 49
-0.0390625
 53
90.0
 43
2.199595494780069
 44
0.8981379671569982
 45
-0.0390625
 46
0.0390625
 79
     2
 49
0.0390625
 49
-0.0390625
 47
0.0007165336176699
 98
        1
 10
28.45915093578009
 20
14.98953023811407
  0
SPLINE
  5
1FA0
330
1E
100
AcDbEntity
  8
OBJECT
100
AcDbSpline
210
0.0
220
0.0
230
1.0
 70
     8
 71
     3
 72
    13
 73
     9
 74
     7
 42
0.0000000001
 43
0.0000000001
 44
0.0000000001
 40
0.0
 40
0.0
 40
0.0
 40
0.0
 40
0.3886104348819226
 40
0.8526947301515683
 40
1.197516866069635
 40
1.721077568827277
 40
2.164872543798964
 40
2.680814589169073
 40
2.680814589169073
 40
2.680814589169073
 40
2.680814589169073
 10
31.68321733171515
 20
20.50016935034862
 30
0.0
 10
31.80257672707621
 20
20.58767669850806
 30
0.0
 10
32.06447686737837
 20
20.7796866085038
 30
0.0
 10
32.44812352394095
 20
20.25681470124402
 30
0.0
 10
32.75675874416688
 20
20.88283162271137
 30
0.0
 10
33.18929350084793
 20
20.22055010465996
 30
0.0
 10
33.60218172437927
 20
20.82843301375405
 30
0.0
 10
33.89161941964433
 20
20.56657972797922
 30
0.0
 10
34.04721733171515
 20
20.42581083297356
 30
0.0
 11
31.68321733171515
 21
20.50016935034862
 31
0.0
 11
32.04363764887993
 21
20.64548027586337
 31
0.0
 11
32.46270359521749
 21
20.44608627962444
 31
0.0
 11
32.72877721193974
 21
20.66541966947522
 31
0.0
 11
33.20105776832564
 21
20.43943983512733
 31
0.0
 11
33.58686451257291
 21
20.65877322497811
 31
0.0
 11
34.04721733171515
 21
20.42581083297356
 31
0.0
  0
HATCH
  5
1FAB
330
1E
100
AcDbEntity
  8
OBJECT
 62
   221
100
AcDbHatch
 10
0.0
 20
0.0
 30
0.0
210
0.0
220
0.0
230
1.0
  2
ZIGZAG
 70
     0
 71
     1
 91
        1
 92
        7
 72
     0
 73
     1
 93
        4
 10
32.14321733171514
 20
19.53858016003017
 10
32.14321733171514
 20
19.85858016003017
 10
31.68321733171515
 20
19.85858016003017
 10
31.68321733171515
 20
19.53858016003017
 97
        3
330
CEF
330
C85
330
CEA
 75
     0
 76
     1
 52
0.0
 41
0.75
 77
     0
 78
     2
 53
0.0
 43
1.662727847516251
 44
0.8980457422686356
 45
0.09375
 46
0.09375
 79
     2
 49
0.09375
 49
-0.09375
 53
90.0
 43
1.756477847516251
 44
0.8980457422686356
 45
-0.09375
 46
0.09375
 79
     2
 49
0.09375
 49
-0.09375
 47
0.0066464661239384
 98
        1
 10
31.85073439005241
 20
19.68174269751573
  0
HATCH
  5
1FE5
330
1E
100
AcDbEntity
  8
OBJECT
 62
   151
100
AcDbHatch
 10
0.0
 20
0.0
 30
0.0
210
0.0
220
0.0
230
1.0
  2
ANSI31
 70
     0
 71
     0
 91
        2
 92
        7
 72
     1
 73
     1
 93
        7
 10
34.04721733171515
 20
18.05439565801788
 42
0.0
 10
34.04721733171515
 20
18.12839565801781
 42
0.0
 10
33.54721733171514
 20
18.12839565801781
 42
0.0
 10
33.54721733171514
 20
18.40464565801781
 42
0.0
 10
31.68321733171515
 20
18.40464565801781
 42
0.0
 10
31.68321733171516
 20
17.80439565801781
 42
0.0
 10
33.79721733171515
 20
17.8043956580178
 42
0.4142135623731825
 97
        0
 92
        5
 93
       12
 72
     4
 94
        3
 73
     0
 74
     0
 95
        8
 96
        4
 40
2.234077499482164
 40
2.234077499482164
 40
2.234077499482164
 40
2.234077499482164
 40
2.680814589169073
 40
2.680814589169073
 40
2.680814589169073
 40
2.680814589169073
 10
34.04721733171515
 20
20.42581083297356
 10
33.91249026493768
 20
20.54769794614372
 10
33.77776319816021
 20
20.66958505931389
 10
33.64721733171514
 20
20.66855700182647
 72
     1
 10
33.64721733171514
 20
20.66855700182647
 11
33.64721733171514
 21
20.02456997160928
 72
     1
 10
33.64721733171514
 20
20.02456997160928
 11
31.68321733171515
 21
20.02456997160926
 72
     1
 10
31.68321733171515
 20
20.02456997160926
 11
31.68321733171515
 21
19.85858016003017
 72
     1
 10
31.68321733171515
 20
19.85858016003017
 11
32.14321733171514
 21
19.85858016003017
 72
     1
 10
32.14321733171514
 20
19.85858016003017
 11
32.14321733171514
 21
19.53858016003016
 72
     1
 10
32.14321733171514
 20
19.53858016003016
 11
31.68321733171515
 21
19.53858016003017
 72
     1
 10
31.68321733171515
 20
19.53858016003017
 11
31.68321733171515
 21
19.09214565801781
 72
     1
 10
31.68321733171515
 20
19.09214565801781
 11
33.54721733171514
 21
19.09214565801781
 72
     1
 10
33.54721733171514
 20
19.09214565801781
 11
33.54721733171515
 21
19.36839565801781
 72
     1
 10
33.54721733171515
 20
19.36839565801781
 11
34.04721733171515
 21
19.36839565801781
 72
     1
 10
34.04721733171515
 20
19.36839565801781
 11
34.04721733171515
 21
20.42581083297356
 97
        0
 75
     0
 76
     1
 52
0.0
 41
1.5
 77
     0
 78
     1
 53
45.0
 43
1.662727847516251
 44
0.8980457422686356
 45
-0.1325825214724776
 46
0.1325825214724777
 79
     0
 47
0.0066464661239384
 98
        2
 10
32.7487327331939
 20
18.05335850511861
 10
32.91502874364532
 20
19.59533861845073
  0
LEADER
  5
206A
330
1E
100
AcDbEntity
  8
DIM
100
AcDbLeader
  3
23NSTD
 73
     0
 75
     1
 40
0.8333333333333332
 41
3.28125
 76
     3
 10
31.68321733171515
 20
19.64804574226863
 30
0.0
 10
29.6683438435431
 20
21.09537252295311
 30
0.0
 10
29.2183438435431
 20
21.09537252295311
 30
0.0
340
206B
213
0.0
223
-0.15625
233
0.0
1001
ACAD
1000
DSTYLE
1002
{
1070
   147
1040
0.09
1070
    77
1070
     0
1002
}
  0
MTEXT
  5
206B
102
{ACAD_REACTORS
330
206A
102
}
330
1E
100
AcDbEntity
  8
DIM
100
AcDbMText
 10
28.9933438435431
 20
21.25162252295311
 30
0.0
 40
0.3125
 41
0.0
 71
     3
 72
     1
  1
SILICONE GASKET\P(CLEAR)
 73
     1
 44
1.0
  0
LEADER
  5
21B3
330
1E
100
AcDbEntity
  8
DIM
100
AcDbLeader
  3
23NSTD
 73
     0
 75
     1
 40
0.3125
 41
2.96875
 76
     3
 10
28.23070034543142
 20
7.452228466668103
 30
0.0
 10
27.332446278859
 20
6.616300421466071
 30
0.0
 10
26.882446278859
 20
6.616300421466071
 30
0.0
340
21B4
213
0.0
223
-0.15625
233
0.0
1001
ACAD
1000
DSTYLE
1002
{
1070
   147
1040
0.09
1070
    77
1070
     0
1002
}
  0
MTEXT
  5
21B4
102
{ACAD_REACTORS
330
21B3
102
}
330
1E
100
AcDbEntity
  8
DIM
100
AcDbMText
 10
26.65744627885899
 20
6.772550421466071
 30
0.0
 40
0.3125
 41
0.0
 71
     3
 72
     1
  1
\A1;SEE DETAIL "C"
 73
     1
 44
1.0
  0
LEADER
  5
22EC
330
1E
100
AcDbEntity
  8
DIM
100
AcDbLeader
  3
23NSTD
 73
     0
 74
     0
 75
     1
 40
2.395833333333333
 41
4.6875
 76
     3
 10
8.383839449528013
 20
14.79188767052869
 30
0.0
 10
9.487478837263379
 20
18.29188116784152
 30
0.0
 10
9.937478837263379
 20
18.29188116784152
 30
0.0
340
22ED
213
0.0
223
-0.15625
233
0.0
1001
ACAD
1000
DSTYLE
1002
{
1070
   147
1040
0.09
1070
    77
1070
     0
1002
}
  0
MTEXT
  5
22ED
102
{ACAD_REACTORS
330
22EC
102
}
330
1E
100
AcDbEntity
  8
DIM
100
AcDbMText
 10
10.16247883726338
 20
18.44813116784152
 30
0.0
 40
0.3125
 41
0.0
 71
     1
 72
     1
  1
0.285 DIA. BOSS\PWITH M3 x 0.218 LG.\PTHREADED INSERT\P(4) PLACES\P(SCREWS NOT SUPPLIED)
 73
     1
 44
1.0
  0
LEADER
  5
27BC
330
1E
100
AcDbEntity
  8
DIM
100
AcDbLeader
  3
23NSTD
 73
     0
 74
     0
 75
     1
 40
3.437499999999999
 41
6.09375
 76
     3
 10
7.348427238539395
 20
7.902344891776493
 30
0.0
 10
10.32218510916453
 20
4.090541732483892
 30
0.0
 10
10.77218510916453
 20
4.090541732483892
 30
0.0
340
27BD
213
0.0
223
-0.15625
233
0.0
1001
ACAD
1000
DSTYLE
1002
{
1070
   147
1040
0.09
1070
    77
1070
     0
1002
}
  0
MTEXT
  5
27BD
102
{ACAD_REACTORS
330
27BC
102
}
330
1E
100
AcDbEntity
  8
DIM
100
AcDbMText
 10
10.99718510916453
 20
4.246791732483892
 30
0.0
 40
0.3125
 41
0.0
 71
     1
 72
     1
  1
\A1;0.285 DIA. BOSS WITH\P0.090 DIA. HOLE x 0.240 DEEP\P(8) PLACES\PMOUNTING BOSSES USE EITHER\PM2.5 METRIC OR #4 STD. SHEET\PMETAL SCREWS x 0.188 LG.\P(NOT SUPPLIED)
 73
     1
 44
1.0
  0
LEADER
  5
27BE
330
1E
100
AcDbEntity
  8
DIM
100
AcDbLeader
  3
23NSTD
 73
     0
 74
     0
 75
     1
 40
1.354166666666666
 41
3.359375
 76
     3
 10
8.69487400525552
 20
7.723903110812858
 30
0.0
 10
9.666123782345648
 20
6.162866537328554
 30
0.0
 10
10.11612378234564
 20
6.162866537328554
 30
0.0
340
27BF
213
0.0
223
-0.15625
233
0.0
1001
ACAD
1000
DSTYLE
1002
{
1070
   147
1040
0.09
1070
    77
1070
     0
1002
}
  0
MTEXT
  5
27BF
102
{ACAD_REACTORS
330
27BE
102
}
330
1E
100
AcDbEntity
  8
DIM
100
AcDbMText
 10
10.34112378234564
 20
6.319116537328554
 30
0.0
 40
0.3125
 41
0.0
 71
     1
 72
     1
  1
\A1;M4 x 0.315 LG.\PTHREADED INSERT\P(4) PLACES
 73
     1
 44
1.0
  0
LINE
  5
2A50
102
{ACAD_REACTORS
330
2BCB
102
}
330
1E
100
AcDbEntity
  8
OBJECT
100
AcDbLine
 10
16.25976537978137
 20
14.44373508813923
 30
0.0
 11
16.09176538960158
 21
14.47894466515244
 31
0.0
  0
LINE
  5
2A5A
102
{ACAD_REACTORS
330
2BCB
102
}
330
1E
100
AcDbEntity
  8
OBJECT
100
AcDbLine
 10
16.09176538960158
 20
14.53435970879746
 30
0.0
 11
16.09176538960158
 21
14.47894466515244
 31
0.0
  0
LINE
  5
2A5C
102
{ACAD_REACTORS
330
2BCB
102
}
330
1E
100
AcDbEntity
  8
OBJECT
100
AcDbLine
 10
16.25976537978137
 20
14.90998430283634
 30
0.0
 11
16.09176538960158
 21
14.87477472582313
 31
0.0
  0
LINE
  5
2A64
102
{ACAD_REACTORS
330
2BCB
102
}
330
1E
100
AcDbEntity
  8
OBJECT
100
AcDbLine
 10
16.09176538960158
 20
14.87477472582313
 30
0.0
 11
16.09176538960158
 21
14.81935970879746
 31
0.0
  0
LINE
  5
2ABB
330
1E
100
AcDbEntity
  8
OBJECT
100
AcDbLine
 10
16.09176538960158
 20
8.550774725823137
 30
0.0
 11
16.09176538960158
 21
8.487385734716955
 31
0.0
  0
LINE
  5
2ABE
330
1E
100
AcDbEntity
  8
OBJECT
100
AcDbLine
 10
16.09176537978136
 20
8.305859695102473
 30
0.0
 11
16.25976537978137
 21
8.305859685285566
 31
0.0
  0
LINE
  5
2ABF
330
1E
100
AcDbEntity
  8
OBJECT
100
AcDbLine
 10
16.09176537978136
 20
8.399859769205594
 30
0.0
 11
16.25976537978137
 21
8.399859812507635
 31
0.0
  0
LINE
  5
2AC3
330
1E
100
AcDbEntity
  8
OBJECT
100
AcDbLine
 10
16.25976537978136
 20
8.585984302836346
 30
0.0
 11
16.09176538960158
 21
8.550774725823137
 31
0.0
  0
LINE
  5
2AC5
330
1E
100
AcDbEntity
  8
OBJECT
100
AcDbLine
 10
16.09176538960157
 20
8.218333682877961
 30
0.0
 11
16.09176538960158
 21
8.154944665152441
 31
0.0
  0
LINE
  5
2AC7
330
1E
100
AcDbEntity
  8
OBJECT
100
AcDbLine
 10
16.25976537978137
 20
8.119735088139231
 30
0.0
 11
16.09176538960158
 21
8.154944665152441
 31
0.0
  0
LINE
  5
2AC9
330
1E
100
AcDbEntity
  8
OBJECT
100
AcDbLine
 10
8.127556226056848
 20
8.305859692680302
 30
0.0
 11
8.029167214225012
 21
8.305859803803993
 31
0.0
  0
LINE
  5
2ACA
330
1E
100
AcDbEntity
  8
OBJECT
100
AcDbLine
 10
8.029167214225012
 20
8.399859679537723
 30
0.0
 11
8.12755622216011
 21
8.399859713761157
 31
0.0
  0
LINE
  5
2ACB
330
1E
100
AcDbEntity
  8
OBJECT
100
AcDbLine
 10
8.064167196568895
 20
8.305859764273897
 30
0.0
 11
8.064167196568895
 21
8.399859691712046
 31
0.0
  0
LINE
  5
2ACC
330
1E
100
AcDbEntity
  8
OBJECT
100
AcDbLine
 10
8.029167214225012
 20
8.399859679537723
 30
0.0
 11
8.029167214225012
 21
8.305859803803993
 31
0.0
  0
CIRCLE
  5
2ACD
330
1E
100
AcDbEntity
  8
OBJECT
100
AcDbCircle
 10
8.262082240213914
 20
8.35285970879746
 30
0.0
 40
0.09375
  0
CIRCLE
  5
2ACE
330
1E
100
AcDbEntity
  8
OBJECT
100
AcDbCircle
 10
8.262082240213914
 20
8.35285970879746
 30
0.0
 40
0.0590000000000011
  0
CIRCLE
  5
2ACF
330
1E
100
AcDbEntity
  8
OBJECT
100
AcDbCircle
 10
8.262082240213914
 20
8.35285970879746
 30
0.0
 40
0.1425
  0
LINE
  5
2AD0
330
1E
100
AcDbEntity
  8
OBJECT
100
AcDbLine
 10
8.459997257239592
 20
8.399859691712046
 30
0.0
 11
8.459997257239592
 21
8.305859764273897
 31
0.0
  0
LINE
  5
2AD1
330
1E
100
AcDbEntity
  8
OBJECT
100
AcDbLine
 10
8.494997239583476
 20
8.305859803804017
 30
0.0
 11
8.494997239583476
 21
8.399859679537719
 31
0.0
  0
LINE
  5
2AD2
330
1E
100
AcDbEntity
  8
OBJECT
100
AcDbLine
 10
8.215082216760457
 20
8.119944751979984
 30
0.0
 11
8.309082343666322
 21
8.119944751979984
 31
0.0
  0
LINE
  5
2AD3
330
1E
100
AcDbEntity
  8
OBJECT
100
AcDbLine
 10
8.309082300622048
 20
8.154944734323867
 30
0.0
 11
8.215082226518926
 21
8.154944734323867
 31
0.0
  0
LINE
  5
2AD4
330
1E
100
AcDbEntity
  8
OBJECT
100
AcDbLine
 10
8.215082216760457
 20
8.119944751979984
 30
0.0
 11
8.215082244192622
 21
8.218333687619406
 31
0.0
  0
LINE
  5
2AD5
330
1E
100
AcDbEntity
  8
OBJECT
100
AcDbLine
 10
8.309082222663978
 20
8.218333682877961
 30
0.0
 11
8.309082343666322
 21
8.119944751979984
 31
0.0
  0
LINE
  5
2AD6
330
1E
100
AcDbEntity
  8
OBJECT
100
AcDbLine
 10
8.494997239583476
 20
8.305859803804017
 30
0.0
 11
8.396608254370974
 21
8.305859692680291
 31
0.0
  0
LINE
  5
2AD7
330
1E
100
AcDbEntity
  8
OBJECT
100
AcDbLine
 10
8.215082226518926
 20
8.550774721662076
 30
0.0
 11
8.309082300622048
 21
8.550774721662076
 31
0.0
  0
LINE
  5
2AD8
330
1E
100
AcDbEntity
  8
OBJECT
100
AcDbLine
 10
8.309082343666286
 20
8.585774704005959
 30
0.0
 11
8.215082216760466
 21
8.585774704005959
 31
0.0
  0
LINE
  5
2AD9
330
1E
100
AcDbEntity
  8
OBJECT
100
AcDbLine
 10
8.21508224419262
 20
8.487385729975514
 30
0.0
 11
8.215082216760466
 21
8.585774704005959
 31
0.0
  0
LINE
  5
2ADA
330
1E
100
AcDbEntity
  8
OBJECT
100
AcDbLine
 10
8.309082343666286
 20
8.585774704005959
 30
0.0
 11
8.30908222266399
 21
8.487385734716953
 31
0.0
  0
LINE
  5
2ADB
330
1E
100
AcDbEntity
  8
OBJECT
100
AcDbLine
 10
8.396608258267718
 20
8.399859713761157
 30
0.0
 11
8.494997239583476
 21
8.399859679537719
 31
0.0
  0
LINE
  5
2B08
102
{ACAD_REACTORS
330
2BCB
102
}
330
1E
100
AcDbEntity
  8
OBJECT
100
AcDbLine
 10
16.08176537978136
 20
14.53435970879746
 30
0.0
 11
16.08176537978136
 21
14.81935970879745
 31
0.0
  0
LINE
  5
2B0B
102
{ACAD_REACTORS
330
2BCB
102
}
330
1E
100
AcDbEntity
  8
OBJECT
100
AcDbLine
 10
16.08176537978136
 20
14.81935970879745
 30
0.0
 11
16.09176538960158
 21
14.81935970879746
 31
0.0
  0
LINE
  5
2B0C
102
{ACAD_REACTORS
330
2BCB
102
}
330
1E
100
AcDbEntity
  8
OBJECT
100
AcDbLine
 10
16.08176537978136
 20
14.53435970879746
 30
0.0
 11
16.09176538960158
 21
14.53435970879746
 31
0.0
  0
LINE
  5
2B26
330
1E
100
AcDbEntity
  8
OBJECT
100
AcDbLine
 10
16.08176537978136
 20
8.21035970879746
 30
0.0
 11
16.08176537978136
 21
8.49535970879746
 31
0.0
  0
LINE
  5
2B28
330
1E
100
AcDbEntity
  8
OBJECT
100
AcDbLine
 10
16.09176537978136
 20
8.305859695102473
 30
0.0
 11
16.09176537978136
 21
8.399859769205594
 31
0.0
  0
LINE
  5
2B29
330
1E
100
AcDbEntity
  8
OBJECT
100
AcDbLine
 10
16.08176537978136
 20
8.49535970879746
 30
0.0
 11
16.09176538960158
 21
8.49535970879746
 31
0.0
  0
LINE
  5
2B2A
330
1E
100
AcDbEntity
  8
OBJECT
100
AcDbLine
 10
16.08176537978136
 20
8.21035970879746
 30
0.0
 11
16.09176538960158
 21
8.21035970879746
 31
0.0
  0
LINE
  5
2B3F
330
1E
100
AcDbEntity
  8
OBJECT
100
AcDbLine
 10
16.09176538960158
 20
8.487385734716955
 30
0.0
 11
16.25976537978137
 21
8.487385734716955
 31
0.0
  0
LINE
  5
2B41
330
1E
100
AcDbEntity
  8
OBJECT
100
AcDbLine
 10
16.09176538960157
 20
8.218333682877961
 30
0.0
 11
16.25976537978136
 21
8.218333682877961
 31
0.0
  0
CIRCLE
  5
2B44
330
1E
100
AcDbEntity
  8
OBJECT
100
AcDbCircle
 10
4.70208224021391
 20
8.35285970879746
 30
0.0
 40
0.1425
  0
LINE
  5
2B45
330
1E
100
AcDbEntity
  8
OBJECT
100
AcDbLine
 10
4.934997239583473
 20
8.305859803804017
 30
0.0
 11
4.934997239583473
 21
8.399859679537719
 31
0.0
  0
LINE
  5
2B46
330
1E
100
AcDbEntity
  8
OBJECT
100
AcDbLine
 10
4.899997257239589
 20
8.399859691712046
 30
0.0
 11
4.899997257239589
 21
8.305859764273897
 31
0.0
  0
CIRCLE
  5
2B47
330
1E
100
AcDbEntity
  8
OBJECT
100
AcDbCircle
 10
4.70208224021391
 20
8.35285970879746
 30
0.0
 40
0.0590000000000011
  0
CIRCLE
  5
2B48
330
1E
100
AcDbEntity
  8
OBJECT
100
AcDbCircle
 10
4.70208224021391
 20
8.35285970879746
 30
0.0
 40
0.09375
  0
LINE
  5
2B49
330
1E
100
AcDbEntity
  8
OBJECT
100
AcDbLine
 10
4.469167214225008
 20
8.399859679537723
 30
0.0
 11
4.469167214225008
 21
8.305859803803993
 31
0.0
  0
LINE
  5
2B4A
330
1E
100
AcDbEntity
  8
OBJECT
100
AcDbLine
 10
4.504167196568892
 20
8.305859764273897
 30
0.0
 11
4.504167196568892
 21
8.399859691712046
 31
0.0
  0
LINE
  5
2B4B
330
1E
100
AcDbEntity
  8
OBJECT
100
AcDbLine
 10
4.567556226056844
 20
8.305859692680302
 30
0.0
 11
4.469167214225008
 21
8.305859803803993
 31
0.0
  0
LINE
  5
2B4C
330
1E
100
AcDbEntity
  8
OBJECT
100
AcDbLine
 10
4.934997239583473
 20
8.305859803804017
 30
0.0
 11
4.836608254370971
 21
8.305859692680291
 31
0.0
  0
LINE
  5
2B4D
330
1E
100
AcDbEntity
  8
OBJECT
100
AcDbLine
 10
4.749082222663974
 20
8.218333682877961
 30
0.0
 11
4.749082343666318
 21
8.119944751979984
 31
0.0
  0
LINE
  5
2B4E
330
1E
100
AcDbEntity
  8
OBJECT
100
AcDbLine
 10
4.655082216760454
 20
8.119944751979984
 30
0.0
 11
4.655082244192619
 21
8.218333687619406
 31
0.0
  0
LINE
  5
2B4F
330
1E
100
AcDbEntity
  8
OBJECT
100
AcDbLine
 10
4.749082300622045
 20
8.154944734323867
 30
0.0
 11
4.655082226518923
 21
8.154944734323867
 31
0.0
  0
LINE
  5
2B50
330
1E
100
AcDbEntity
  8
OBJECT
100
AcDbLine
 10
4.655082216760454
 20
8.119944751979984
 30
0.0
 11
4.749082343666318
 21
8.119944751979984
 31
0.0
  0
LINE
  5
2B51
330
1E
100
AcDbEntity
  8
OBJECT
100
AcDbLine
 10
4.469167214225008
 20
8.399859679537723
 30
0.0
 11
4.567556222160107
 21
8.399859713761157
 31
0.0
  0
LINE
  5
2B52
330
1E
100
AcDbEntity
  8
OBJECT
100
AcDbLine
 10
4.655082244192617
 20
8.487385729975514
 30
0.0
 11
4.655082216760463
 21
8.585774704005959
 31
0.0
  0
LINE
  5
2B53
330
1E
100
AcDbEntity
  8
OBJECT
100
AcDbLine
 10
4.749082343666283
 20
8.585774704005959
 30
0.0
 11
4.749082222663987
 21
8.487385734716953
 31
0.0
  0
LINE
  5
2B54
330
1E
100
AcDbEntity
  8
OBJECT
100
AcDbLine
 10
4.836608258267715
 20
8.399859713761157
 30
0.0
 11
4.934997239583473
 21
8.399859679537719
 31
0.0
  0
LINE
  5
2B55
330
1E
100
AcDbEntity
  8
OBJECT
100
AcDbLine
 10
4.749082343666283
 20
8.585774704005959
 30
0.0
 11
4.655082216760463
 21
8.585774704005959
 31
0.0
  0
LINE
  5
2B56
330
1E
100
AcDbEntity
  8
OBJECT
100
AcDbLine
 10
4.655082226518923
 20
8.550774721662076
 30
0.0
 11
4.749082300622045
 21
8.550774721662076
 31
0.0
  0
LINE
  5
2B57
330
1E
100
AcDbEntity
  8
OBJECT
100
AcDbLine
 10
4.469167214225008
 20
14.72385967953772
 30
0.0
 11
4.567556222160107
 21
14.72385971376115
 31
0.0
  0
LINE
  5
2B58
330
1E
100
AcDbEntity
  8
OBJECT
100
AcDbLine
 10
4.567556226056844
 20
14.6298596926803
 30
0.0
 11
4.469167214225008
 21
14.62985980380399
 31
0.0
  0
LINE
  5
2B59
330
1E
100
AcDbEntity
  8
OBJECT
100
AcDbLine
 10
4.504167196568892
 20
14.62985976427389
 30
0.0
 11
4.504167196568892
 21
14.72385969171204
 31
0.0
  0
LINE
  5
2B5A
330
1E
100
AcDbEntity
  8
OBJECT
100
AcDbLine
 10
4.469167214225008
 20
14.72385967953772
 30
0.0
 11
4.469167214225008
 21
14.62985980380399
 31
0.0
  0
CIRCLE
  5
2B5B
330
1E
100
AcDbEntity
  8
OBJECT
100
AcDbCircle
 10
4.70208224021391
 20
14.67685970879745
 30
0.0
 40
0.09375
  0
CIRCLE
  5
2B5C
330
1E
100
AcDbEntity
  8
OBJECT
100
AcDbCircle
 10
4.70208224021391
 20
14.67685970879745
 30
0.0
 40
0.0590000000000011
  0
LINE
  5
2B5D
330
1E
100
AcDbEntity
  8
OBJECT
100
AcDbLine
 10
4.899997257239589
 20
14.72385969171204
 30
0.0
 11
4.899997257239589
 21
14.62985976427389
 31
0.0
  0
LINE
  5
2B5E
330
1E
100
AcDbEntity
  8
OBJECT
100
AcDbLine
 10
4.934997239583473
 20
14.62985980380401
 30
0.0
 11
4.934997239583473
 21
14.72385967953771
 31
0.0
  0
CIRCLE
  5
2B5F
330
1E
100
AcDbEntity
  8
OBJECT
100
AcDbCircle
 10
4.70208224021391
 20
14.67685970879745
 30
0.0
 40
0.1425
  0
LINE
  5
2B60
330
1E
100
AcDbEntity
  8
OBJECT
100
AcDbLine
 10
4.655082216760454
 20
14.44394475197998
 30
0.0
 11
4.749082343666318
 21
14.44394475197998
 31
0.0
  0
LINE
  5
2B61
330
1E
100
AcDbEntity
  8
OBJECT
100
AcDbLine
 10
4.749082300622045
 20
14.47894473432386
 30
0.0
 11
4.655082226518923
 21
14.47894473432386
 31
0.0
  0
LINE
  5
2B62
330
1E
100
AcDbEntity
  8
OBJECT
100
AcDbLine
 10
4.655082216760454
 20
14.44394475197998
 30
0.0
 11
4.655082244192619
 21
14.5423336876194
 31
0.0
  0
LINE
  5
2B63
330
1E
100
AcDbEntity
  8
OBJECT
100
AcDbLine
 10
4.749082222663974
 20
14.54233368287796
 30
0.0
 11
4.749082343666318
 21
14.44394475197998
 31
0.0
  0
LINE
  5
2B64
330
1E
100
AcDbEntity
  8
OBJECT
100
AcDbLine
 10
4.934997239583473
 20
14.62985980380401
 30
0.0
 11
4.836608254370971
 21
14.62985969268029
 31
0.0
  0
LINE
  5
2B65
330
1E
100
AcDbEntity
  8
OBJECT
100
AcDbLine
 10
4.655082226518923
 20
14.87477472166207
 30
0.0
 11
4.749082300622045
 21
14.87477472166207
 31
0.0
  0
LINE
  5
2B66
330
1E
100
AcDbEntity
  8
OBJECT
100
AcDbLine
 10
4.749082343666283
 20
14.90977470400595
 30
0.0
 11
4.655082216760463
 21
14.90977470400595
 31
0.0
  0
LINE
  5
2B67
330
1E
100
AcDbEntity
  8
OBJECT
100
AcDbLine
 10
4.836608258267715
 20
14.72385971376115
 30
0.0
 11
4.934997239583473
 21
14.72385967953771
 31
0.0
  0
LINE
  5
2B68
330
1E
100
AcDbEntity
  8
OBJECT
100
AcDbLine
 10
4.749082343666283
 20
14.90977470400595
 30
0.0
 11
4.749082222663987
 21
14.81138573471695
 31
0.0
  0
LINE
  5
2B69
330
1E
100
AcDbEntity
  8
OBJECT
100
AcDbLine
 10
4.655082244192617
 20
14.81138572997551
 30
0.0
 11
4.655082216760463
 21
14.90977470400595
 31
0.0
  0
CIRCLE
  5
2B6A
330
1E
100
AcDbEntity
  8
OBJECT
100
AcDbCircle
 10
8.262082240213914
 20
14.67685970879745
 30
0.0
 40
0.1425
  0
LINE
  5
2B6B
330
1E
100
AcDbEntity
  8
OBJECT
100
AcDbLine
 10
8.494997239583476
 20
14.62985980380401
 30
0.0
 11
8.494997239583476
 21
14.72385967953771
 31
0.0
  0
LINE
  5
2B6C
330
1E
100
AcDbEntity
  8
OBJECT
100
AcDbLine
 10
8.459997257239592
 20
14.72385969171204
 30
0.0
 11
8.459997257239592
 21
14.62985976427389
 31
0.0
  0
CIRCLE
  5
2B6D
330
1E
100
AcDbEntity
  8
OBJECT
100
AcDbCircle
 10
8.262082240213914
 20
14.67685970879745
 30
0.0
 40
0.0590000000000011
  0
CIRCLE
  5
2B6E
330
1E
100
AcDbEntity
  8
OBJECT
100
AcDbCircle
 10
8.262082240213914
 20
14.67685970879745
 30
0.0
 40
0.09375
  0
LINE
  5
2B6F
330
1E
100
AcDbEntity
  8
OBJECT
100
AcDbLine
 10
8.029167214225012
 20
14.72385967953772
 30
0.0
 11
8.029167214225012
 21
14.62985980380399
 31
0.0
  0
LINE
  5
2B70
330
1E
100
AcDbEntity
  8
OBJECT
100
AcDbLine
 10
8.064167196568895
 20
14.62985976427389
 30
0.0
 11
8.064167196568895
 21
14.72385969171204
 31
0.0
  0
LINE
  5
2B71
330
1E
100
AcDbEntity
  8
OBJECT
100
AcDbLine
 10
8.127556226056848
 20
14.6298596926803
 30
0.0
 11
8.029167214225012
 21
14.62985980380399
 31
0.0
  0
LINE
  5
2B72
330
1E
100
AcDbEntity
  8
OBJECT
100
AcDbLine
 10
8.494997239583476
 20
14.62985980380401
 30
0.0
 11
8.396608254370974
 21
14.62985969268029
 31
0.0
  0
LINE
  5
2B73
330
1E
100
AcDbEntity
  8
OBJECT
100
AcDbLine
 10
8.309082222663978
 20
14.54233368287796
 30
0.0
 11
8.309082343666322
 21
14.44394475197998
 31
0.0
  0
LINE
  5
2B74
330
1E
100
AcDbEntity
  8
OBJECT
100
AcDbLine
 10
8.215082216760457
 20
14.44394475197998
 30
0.0
 11
8.215082244192622
 21
14.5423336876194
 31
0.0
  0
LINE
  5
2B75
330
1E
100
AcDbEntity
  8
OBJECT
100
AcDbLine
 10
8.309082300622048
 20
14.47894473432386
 30
0.0
 11
8.215082226518926
 21
14.47894473432386
 31
0.0
  0
LINE
  5
2B76
330
1E
100
AcDbEntity
  8
OBJECT
100
AcDbLine
 10
8.215082216760457
 20
14.44394475197998
 30
0.0
 11
8.309082343666322
 21
14.44394475197998
 31
0.0
  0
LINE
  5
2B77
330
1E
100
AcDbEntity
  8
OBJECT
100
AcDbLine
 10
8.029167214225012
 20
14.72385967953772
 30
0.0
 11
8.12755622216011
 21
14.72385971376115
 31
0.0
  0
LINE
  5
2B78
330
1E
100
AcDbEntity
  8
OBJECT
100
AcDbLine
 10
8.21508224419262
 20
14.81138572997551
 30
0.0
 11
8.215082216760466
 21
14.90977470400595
 31
0.0
  0
LINE
  5
2B79
330
1E
100
AcDbEntity
  8
OBJECT
100
AcDbLine
 10
8.309082343666286
 20
14.90977470400595
 30
0.0
 11
8.30908222266399
 21
14.81138573471695
 31
0.0
  0
LINE
  5
2B7A
330
1E
100
AcDbEntity
  8
OBJECT
100
AcDbLine
 10
8.396608258267718
 20
14.72385971376115
 30
0.0
 11
8.494997239583476
 21
14.72385967953771
 31
0.0
  0
LINE
  5
2B7B
330
1E
100
AcDbEntity
  8
OBJECT
100
AcDbLine
 10
8.309082343666286
 20
14.90977470400595
 30
0.0
 11
8.215082216760466
 21
14.90977470400595
 31
0.0
  0
LINE
  5
2B7C
330
1E
100
AcDbEntity
  8
OBJECT
100
AcDbLine
 10
8.215082226518926
 20
14.87477472166207
 30
0.0
 11
8.309082300622048
 21
14.87477472166207
 31
0.0
  0
HATCH
  5
2BCB
330
1E
100
AcDbEntity
  8
OBJECT
 62
   151
100
AcDbHatch
 10
0.0
 20
0.0
 30
0.0
210
0.0
220
0.0
230
1.0
  2
ANSI31
 70
     0
 71
     1
 91
        3
 92
        7
 72
     1
 73
     1
 93
        9
 10
16.25976537978137
 20
15.38685970879744
 42
0.0
 10
16.25976537978137
 20
15.29775970879744
 42
0.0
 10
16.41676537978137
 20
15.29775970879744
 42
0.0
 10
16.41676537978136
 20
15.40185970879744
 42
0.414213562373064
 10
16.36676537978137
 20
15.45185970879744
 42
0.0
 10
14.08976537978136
 20
15.45185970879744
 42
0.0
 10
14.08976537978136
 20
15.43185970879744
 42
0.0
 10
14.04976537978135
 20
15.43185970879744
 42
0.0
 10
14.04976537978135
 20
15.38685970879744
 42
0.0
 97
        9
330
ACA
330
AB8
330
AD4
330
AD6
330
AD7
330
AB9
330
ACF
330
AB6
330
AD1
 92
        7
 72
     0
 73
     1
 93
       40
 10
16.41676537978136
 20
15.13295970879745
 10
16.25976537978137
 20
15.13295970879745
 10
16.25976537978137
 20
15.03910970879744
 10
14.04976537978135
 20
15.03910970879744
 10
14.04976537978135
 20
15.01408217590859
 10
13.98976537978136
 20
15.01408217590858
 10
13.98976537978136
 20
14.97410970879744
 10
16.25976537978137
 20
14.97410970879745
 10
16.25976537978137
 20
14.90998430283634
 10
16.09176538960157
 20
14.87477472582313
 10
16.09176538960158
 20
14.81935970879746
 10
16.08176537978136
 20
14.81935970879745
 10
16.08176537978136
 20
14.77060970879746
 10
16.29976537978136
 20
14.77060970879746
 10
16.29976537978135
 20
14.58310970879745
 10
16.08176537978136
 20
14.58310970879745
 10
16.08176537978136
 20
14.53435970879746
 10
16.09176538960158
 20
14.53435970879746
 10
16.09176538960158
 20
14.47894466515244
 10
16.25976537978137
 20
14.44373508813922
 10
16.25976537978137
 20
13.97537597737448
 10
16.08176537978136
 20
13.95035970879744
 10
16.08176537978136
 20
13.85285970879746
 10
16.32176537978136
 20
13.85285970879746
 10
16.32176537978136
 20
13.76285970879744
 10
16.08176537978136
 20
13.76285970879744
 10
16.08176537978136
 20
13.66535970879744
 10
16.25976537978138
 20
13.64034344022043
 10
16.25976537978136
 20
8.44660970879746
 10
16.29976537978132
 20
8.44660970879746
 10
16.29976537978132
 20
8.25910970879746
 10
16.25976537978136
 20
8.25910970879746
 10
16.25976537978136
 20
8.055609708797447
 10
13.98976537978136
 20
8.055609708797462
 10
13.98976537978136
 20
8.015637241686324
 10
14.04976537978135
 20
8.015637241686324
 10
14.04976537978135
 20
7.936609708797448
 10
14.36476537978136
 20
7.936609708797447
 10
14.36476537978136
 20
7.966609708797446
 10
16.41676537978136
 20
7.966609708797446
 97
       34
330
AD0
330
AB9
330
ACC
330
AD6
330
AD2
330
AB5
330
ACB
330
AD8
330
2A5C
330
2A64
330
2B0B
330
2B08
330
9FB
330
9FE
330
9FA
330
2B0C
330
2A5A
330
2A50
330
AD9
330
13B4
330
AF8
330
AF9
330
AF7
330
AFB
330
ADC
330
ADE
330
ADD
330
ABC
330
AC7
330
AB7
330
AC9
330
AC2
330
ABB
330
AB6
 92
        7
 72
     1
 73
     1
 93
        9
 10
16.36676537978137
 20
7.577859708797458
 42
0.4142135623730797
 10
16.41676537978136
 20
7.627859708797458
 42
0.0
 10
16.41676537978136
 20
7.656609708797445
 42
0.0
 10
14.36476537978137
 20
7.656609708797444
 42
0.0
 10
14.36476537978137
 20
7.686609708797448
 42
0.0
 10
14.04976537978135
 20
7.686609708797448
 42
0.0
 10
14.04976537978135
 20
7.597859708797457
 42
0.0
 10
14.08976537978137
 20
7.597859708797457
 42
0.0
 10
14.08976537978137
 20
7.577859708797458
 42
0.0
 97
        9
330
AB6
330
ABD
330
AC2
330
AC5
330
AB7
330
AC4
330
AD5
330
ABA
330
ABE
 75
     0
 76
     1
 52
0.0
 41
1.0
 77
     0
 78
     1
 53
45.0
 43
0.0
 44
0.0
 45
-0.0883883476483184
 46
0.0883883476483185
 79
     0
 47
0.015379617124884
 98
        3
 10
15.43390261435479
 20
15.40694663752831
 10
16.34203371149068
 20
14.26885493811114
 10
14.64890805899545
 20
7.609480693210997
  0
LINE
  5
2BCD
330
1E
100
AcDbEntity
  8
HIDDEN
  6
HIDDEN2
100
AcDbLine
 10
4.559582240213909
 20
1.938453608383113
 30
0.0
 11
4.844582240213909
 21
1.938453608383113
 31
0.0
  0
LINE
  5
2BCE
330
1E
100
AcDbEntity
  8
HIDDEN
  6
HIDDEN2
100
AcDbLine
 10
4.655082226518922
 20
1.928453608383112
 30
0.0
 11
4.749082300622043
 21
1.928453608383112
 31
0.0
  0
LINE
  5
2BD1
330
1E
100
AcDbEntity
  8
HIDDEN
  6
HIDDEN2
100
AcDbLine
 10
4.655082226518922
 20
1.928453608383112
 30
0.0
 11
4.655082216702015
 21
1.760453608383109
 31
0.0
  0
LINE
  5
2BD2
330
1E
100
AcDbEntity
  8
HIDDEN
  6
HIDDEN2
100
AcDbLine
 10
4.56755621429441
 20
1.928453598562899
 30
0.0
 11
4.56755621429441
 21
1.760453608383112
 31
0.0
  0
LINE
  5
2BD3
330
1E
100
AcDbEntity
  8
HIDDEN
  6
HIDDEN2
100
AcDbLine
 10
4.46895761955568
 20
1.760453608383109
 30
0.0
 11
4.50416719656889
 21
1.928453598562896
 31
0.0
  0
LINE
  5
2BD4
330
1E
100
AcDbEntity
  8
HIDDEN
  6
HIDDEN2
100
AcDbLine
 10
4.559582240213909
 20
1.938453608383113
 30
0.0
 11
4.559582240213909
 21
1.928453598562896
 31
0.0
  0
LINE
  5
2BD5
330
1E
100
AcDbEntity
  8
HIDDEN
  6
HIDDEN2
100
AcDbLine
 10
4.56755621429441
 20
1.928453598562899
 30
0.0
 11
4.50416719656889
 21
1.928453598562896
 31
0.0
  0
LINE
  5
2BD8
330
1E
100
AcDbEntity
  8
HIDDEN
  6
HIDDEN2
100
AcDbLine
 10
4.935206834252794
 20
1.760453608383112
 30
0.0
 11
4.899997257239586
 21
1.928453598562896
 31
0.0
  0
LINE
  5
2BD9
330
1E
100
AcDbEntity
  8
HIDDEN
  6
HIDDEN2
100
AcDbLine
 10
4.836608266133404
 20
1.928453598562896
 30
0.0
 11
4.836608266133404
 21
1.760453608383109
 31
0.0
  0
LINE
  5
2BDA
330
1E
100
AcDbEntity
  8
HIDDEN
  6
HIDDEN2
100
AcDbLine
 10
4.749082300622043
 20
1.928453608383112
 30
0.0
 11
4.749082343924084
 21
1.760453608383109
 31
0.0
  0
LINE
  5
2BDB
330
1E
100
AcDbEntity
  8
HIDDEN
  6
HIDDEN2
100
AcDbLine
 10
4.844582240213909
 20
1.938453608383113
 30
0.0
 11
4.844582240213909
 21
1.928453598562896
 31
0.0
  0
LINE
  5
2BDC
330
1E
100
AcDbEntity
  8
HIDDEN
  6
HIDDEN2
100
AcDbLine
 10
4.899997257239586
 20
1.928453598562896
 30
0.0
 11
4.836608266133404
 21
1.928453598562896
 31
0.0
  0
LINE
  5
2BE1
330
1E
100
AcDbEntity
  8
HIDDEN
  6
HIDDEN2
100
AcDbLine
 10
8.127556214294413
 20
1.928453598562899
 30
0.0
 11
8.064167196568893
 21
1.928453598562896
 31
0.0
  0
LINE
  5
2BE2
330
1E
100
AcDbEntity
  8
HIDDEN
  6
HIDDEN2
100
AcDbLine
 10
8.028957619555683
 20
1.760453608383109
 30
0.0
 11
8.064167196568893
 21
1.928453598562896
 31
0.0
  0
LINE
  5
2BE3
330
1E
100
AcDbEntity
  8
HIDDEN
  6
HIDDEN2
100
AcDbLine
 10
8.495206834252797
 20
1.760453608383112
 30
0.0
 11
8.459997257239589
 21
1.928453598562896
 31
0.0
  0
LINE
  5
2BE4
330
1E
100
AcDbEntity
  8
HIDDEN
  6
HIDDEN2
100
AcDbLine
 10
8.396608266133407
 20
1.928453598562896
 30
0.0
 11
8.396608266133407
 21
1.760453608383109
 31
0.0
  0
LINE
  5
2BE5
330
1E
100
AcDbEntity
  8
HIDDEN
  6
HIDDEN2
100
AcDbLine
 10
8.309082300622046
 20
1.928453608383112
 30
0.0
 11
8.309082343924087
 21
1.760453608383109
 31
0.0
  0
LINE
  5
2BE6
330
1E
100
AcDbEntity
  8
HIDDEN
  6
HIDDEN2
100
AcDbLine
 10
8.215082226518925
 20
1.928453608383112
 30
0.0
 11
8.215082216702018
 21
1.760453608383109
 31
0.0
  0
LINE
  5
2BE7
330
1E
100
AcDbEntity
  8
HIDDEN
  6
HIDDEN2
100
AcDbLine
 10
8.127556214294413
 20
1.928453598562899
 30
0.0
 11
8.127556214294413
 21
1.760453608383112
 31
0.0
  0
LINE
  5
2BE8
330
1E
100
AcDbEntity
  8
HIDDEN
  6
HIDDEN2
100
AcDbLine
 10
8.119582240213912
 20
1.938453608383113
 30
0.0
 11
8.404582240213912
 21
1.938453608383113
 31
0.0
  0
LINE
  5
2BE9
330
1E
100
AcDbEntity
  8
HIDDEN
  6
HIDDEN2
100
AcDbLine
 10
8.215082226518925
 20
1.928453608383112
 30
0.0
 11
8.309082300622046
 21
1.928453608383112
 31
0.0
  0
LINE
  5
2BEA
330
1E
100
AcDbEntity
  8
HIDDEN
  6
HIDDEN2
100
AcDbLine
 10
8.119582240213912
 20
1.938453608383113
 30
0.0
 11
8.119582240213912
 21
1.928453598562896
 31
0.0
  0
LINE
  5
2BEB
330
1E
100
AcDbEntity
  8
HIDDEN
  6
HIDDEN2
100
AcDbLine
 10
8.404582240213912
 20
1.938453608383113
 30
0.0
 11
8.404582240213912
 21
1.928453598562896
 31
0.0
  0
LINE
  5
2BEC
330
1E
100
AcDbEntity
  8
HIDDEN
  6
HIDDEN2
100
AcDbLine
 10
8.459997257239589
 20
1.928453598562896
 30
0.0
 11
8.396608266133407
 21
1.928453598562896
 31
0.0
  0
ENDSEC
  0
SECTION
  2
OBJECTS
  0
DICTIONARY
  5
C
330
0
100
AcDbDictionary
281
     1
  3
ACAD_GROUP
350
D
  3
ACAD_LAYOUT
350
19
  3
ACAD_MLINESTYLE
350
16
  3
ACAD_PLOTSETTINGS
350
18
  3
ACAD_PLOTSTYLENAME
350
E
  3
AcadDim
350
2069
  3
AcDbVariableDictionary
350
118E
  0
DICTIONARY
  5
D
102
{ACAD_REACTORS
330
C
102
}
330
C
100
AcDbDictionary
281
     1
  0
DICTIONARY
  5
19
102
{ACAD_REACTORS
330
C
102
}
330
C
100
AcDbDictionary
281
     1
  3
Layout1
350
1D
  3
Model
350
21
  0
DICTIONARY
  5
16
102
{ACAD_REACTORS
330
C
102
}
330
C
100
AcDbDictionary
281
     1
  3
Standard
350
17
  0
DICTIONARY
  5
18
102
{ACAD_REACTORS
330
C
102
}
330
C
100
AcDbDictionary
281
     1
  0
ACDBDICTIONARYWDFLT
  5
E
102
{ACAD_REACTORS
330
C
102
}
330
C
100
AcDbDictionary
281
     1
  3
Normal
350
F
100
AcDbDictionaryWithDefault
340
F
  0
XRECORD
  5
2069
102
{ACAD_REACTORS
330
C
102
}
330
C
100
AcDbXrecord
280
     1
 90
   990106
  3

 60
     0
 61
     0
 62
     1
 63
     1
 64
     0
 65
     0
 66
     0
 67
     3
 68
     1
 69
     0
 70
     0
 71
     0
 72
     0
 40
0.0
170
     2
340
27BF
  0
DICTIONARY
  5
118E
102
{ACAD_REACTORS
330
C
102
}
330
C
100
AcDbDictionary
281
     1
  3
SORTENTS
350
118F
  0
LAYOUT
  5
1D
102
{ACAD_REACTORS
330
19
102
}
330
19
100
AcDbPlotSettings
  1

  2
HP DesignJet 430 (D/A1) by HP
  4

  6

 40
0.0
 41
0.0
 42
0.0
 43
0.0
 44
0.0
 45
0.0
 46
0.0
 47
0.0
 48
0.0
 49
0.0
140
0.0
141
0.0
142
1.0
143
1.0
 70
   688
 72
     0
 73
     0
 74
     5
  7
monochrome.ctb
 75
    16
147
1.0
148
0.0
149
0.0
100
AcDbLayout
  1
Layout1
 70
     1
 71
     1
 10
0.0
 20
0.0
 11
12.0
 21
9.0
 12
0.0
 22
0.0
 32
0.0
 14
1.000000000000000E+20
 24
1.000000000000000E+20
 34
1.000000000000000E+20
 15
-1.000000000000000E+20
 25
-1.000000000000000E+20
 35
-1.000000000000000E+20
146
0.0
 13
0.0
 23
0.0
 33
0.0
 16
1.0
 26
0.0
 36
0.0
 17
0.0
 27
1.0
 37
0.0
 76
     0
330
1A
  0
LAYOUT
  5
21
102
{ACAD_REACTORS
330
19
102
}
330
19
100
AcDbPlotSettings
  1

  2
Acrobat PDFWriter
  4
Tabloid
  6

 40
3.174999952316284
 41
3.174999952316284
 42
3.17498779296875
 43
3.17498779296875
 44
431.8000183105469
 45
279.3999938964843
 46
0.0
 47
4.064
 48
0.0
 49
0.0
140
0.0
141
0.0
142
1.0
143
2.47780077177028
 70
 11956
 72
     0
 73
     0
 74
     1
  7
monochrome.ctb
 75
     0
147
0.4035836986544902
148
0.0804091751601504
149
0.0500280699434683
100
AcDbLayout
  1
Model
 70
     1
 71
     0
 10
0.0
 20
0.0
 11
12.0
 21
9.0
 12
0.0
 22
0.0
 32
0.0
 14
0.0
 24
0.0
 34
0.0
 15
0.0
 25
0.0
 35
0.0
146
0.0
 13
0.0
 23
0.0
 33
0.0
 16
1.0
 26
0.0
 36
0.0
 17
0.0
 27
1.0
 37
0.0
 76
     0
330
1E
  0
MLINESTYLE
  5
17
102
{ACAD_REACTORS
330
16
102
}
330
16
100
AcDbMlineStyle
  2
STANDARD
 70
     0
  3

 62
   256
 51
90.0
 52
90.0
 71
     2
 49
0.5
 62
   256
  6
BYLAYER
 49
-0.5
 62
   256
  6
BYLAYER
  0
ACDBPLACEHOLDER
  5
F
102
{ACAD_REACTORS
330
E
102
}
330
E
  0
DICTIONARYVAR
  5
118F
102
{ACAD_REACTORS
330
118E
102
}
330
118E
100
DictionaryVariables
280
     0
  1
96
  0
ENDSEC
  0
EOF
