  0
SECTION
  2
HEADER
  9
$ACADVER
  1
AC1015
  9
$ACADMAINTVER
 70
     6
  9
$DWGCODEPAGE
  3
ANSI_1252
  9
$INSBASE
 10
0.0
 20
0.0
 30
0.0
  9
$EXTMIN
 10
0.0
 20
0.0
 30
-0.00000001
  9
$EXTMAX
 10
33.19999999999998
 20
20.65599999999999
 30
0.00000001
  9
$LIMMIN
 10
0.0
 20
0.0
  9
$LIMMAX
 10
31.0
 20
20.24
  9
$ORTHOMODE
 70
     1
  9
$REGENMODE
 70
     1
  9
$FILLMODE
 70
     1
  9
$QTEXTMODE
 70
     0
  9
$MIRRTEXT
 70
     0
  9
$LTSCALE
 40
0.5
  9
$ATTMODE
 70
     1
  9
$TEXTSIZE
 40
0.2
  9
$TRACEWID
 40
0.05
  9
$TEXTSTYLE
  7
TXT
  9
$CLAYER
  8
DIM
  9
$CELTYPE
  6
ByLayer
  9
$CECOLOR
 62
   256
  9
$CELTSCALE
 40
1.0
  9
$DISPSILH
 70
     0
  9
$DIMSCALE
 40
2.0
  9
$DIMASZ
 40
0.18
  9
$DIMEXO
 40
0.063
  9
$DIMDLI
 40
0.281
  9
$DIMRND
 40
0.0
  9
$DIMDLE
 40
0.0
  9
$DIMEXE
 40
0.093
  9
$DIMTP
 40
0.0
  9
$DIMTM
 40
0.0
  9
$DIMTXT
 40
0.125
  9
$DIMCEN
 40
0.09
  9
$DIMTSZ
 40
0.0
  9
$DIMTOL
 70
     0
  9
$DIMLIM
 70
     0
  9
$DIMTIH
 70
     1
  9
$DIMTOH
 70
     1
  9
$DIMSE1
 70
     0
  9
$DIMSE2
 70
     0
  9
$DIMTAD
 70
     0
  9
$DIMZIN
 70
     0
  9
$DIMBLK
  1

  9
$DIMASO
 70
     1
  9
$DIMSHO
 70
     1
  9
$DIMPOST
  1

  9
$DIMAPOST
  1

  9
$DIMALT
 70
     0
  9
$DIMALTD
 70
     2
  9
$DIMALTF
 40
25.4
  9
$DIMLFAC
 40
1.0
  9
$DIMTOFL
 70
     0
  9
$DIMTVP
 40
0.0
  9
$DIMTIX
 70
     0
  9
$DIMSOXD
 70
     0
  9
$DIMSAH
 70
     0
  9
$DIMBLK1
  1

  9
$DIMBLK2
  1

  9
$DIMSTYLE
  2
23NSTD
  9
$DIMCLRD
 70
     0
  9
$DIMCLRE
 70
     0
  9
$DIMCLRT
 70
     0
  9
$DIMTFAC
 40
1.0
  9
$DIMGAP
 40
0.09
  9
$DIMJUST
 70
     0
  9
$DIMSD1
 70
     0
  9
$DIMSD2
 70
     0
  9
$DIMTOLJ
 70
     1
  9
$DIMTZIN
 70
     0
  9
$DIMALTZ
 70
     0
  9
$DIMALTTZ
 70
     0
  9
$DIMUPT
 70
     0
  9
$DIMDEC
 70
     3
  9
$DIMTDEC
 70
     3
  9
$DIMALTU
 70
     2
  9
$DIMALTTD
 70
     2
  9
$DIMTXSTY
  7
TXT
  9
$DIMAUNIT
 70
     0
  9
$DIMADEC
 70
     0
  9
$DIMALTRND
 40
0.0
  9
$DIMAZIN
 70
     0
  9
$DIMDSEP
 70
    46
  9
$DIMATFIT
 70
     1
  9
$DIMFRAC
 70
     0
  9
$DIMLDRBLK
  1

  9
$DIMLUNIT
 70
     2
  9
$DIMLWD
 70
    -2
  9
$DIMLWE
 70
    -2
  9
$DIMTMOVE
 70
     0
  9
$LUNITS
 70
     2
  9
$LUPREC
 70
     3
  9
$SKETCHINC
 40
0.1
  9
$FILLETRAD
 40
0.0
  9
$AUNITS
 70
     0
  9
$AUPREC
 70
     0
  9
$MENU
  1
acad
  9
$ELEVATION
 40
0.0
  9
$PELEVATION
 40
0.0
  9
$THICKNESS
 40
0.0
  9
$LIMCHECK
 70
     0
  9
$CHAMFERA
 40
0.0
  9
$CHAMFERB
 40
0.0
  9
$CHAMFERC
 40
0.0
  9
$CHAMFERD
 40
0.0
  9
$SKPOLY
 70
     0
  9
$TDCREATE
 40
2450114.480140972
  9
$TDUCREATE
 40
2450114.688474305
  9
$TDUPDATE
 40
2454788.497913773
  9
$TDUUPDATE
 40
2454788.706247106
  9
$TDINDWG
 40
0.3179595255
  9
$TDUSRTIMER
 40
0.3179591667
  9
$USRTIMER
 70
     1
  9
$ANGBASE
 50
0.0
  9
$ANGDIR
 70
     0
  9
$PDMODE
 70
     0
  9
$PDSIZE
 40
0.0
  9
$PLINEWID
 40
0.0
  9
$SPLFRAME
 70
     0
  9
$SPLINETYPE
 70
     6
  9
$SPLINESEGS
 70
     8
  9
$HANDSEED
  5
1CB1
  9
$SURFTAB1
 70
     6
  9
$SURFTAB2
 70
     6
  9
$SURFTYPE
 70
     6
  9
$SURFU
 70
     6
  9
$SURFV
 70
     6
  9
$UCSBASE
  2

  9
$UCSNAME
  2

  9
$UCSORG
 10
0.0
 20
0.0
 30
0.0
  9
$UCSXDIR
 10
1.0
 20
0.0
 30
0.0
  9
$UCSYDIR
 10
0.0
 20
1.0
 30
0.0
  9
$UCSORTHOREF
  2

  9
$UCSORTHOVIEW
 70
     0
  9
$UCSORGTOP
 10
0.0
 20
0.0
 30
0.0
  9
$UCSORGBOTTOM
 10
0.0
 20
0.0
 30
0.0
  9
$UCSORGLEFT
 10
0.0
 20
0.0
 30
0.0
  9
$UCSORGRIGHT
 10
0.0
 20
0.0
 30
0.0
  9
$UCSORGFRONT
 10
0.0
 20
0.0
 30
0.0
  9
$UCSORGBACK
 10
0.0
 20
0.0
 30
0.0
  9
$PUCSBASE
  2

  9
$PUCSNAME
  2

  9
$PUCSORG
 10
0.0
 20
0.0
 30
0.0
  9
$PUCSXDIR
 10
1.0
 20
0.0
 30
0.0
  9
$PUCSYDIR
 10
0.0
 20
1.0
 30
0.0
  9
$PUCSORTHOREF
  2

  9
$PUCSORTHOVIEW
 70
     0
  9
$PUCSORGTOP
 10
0.0
 20
0.0
 30
0.0
  9
$PUCSORGBOTTOM
 10
0.0
 20
0.0
 30
0.0
  9
$PUCSORGLEFT
 10
0.0
 20
0.0
 30
0.0
  9
$PUCSORGRIGHT
 10
0.0
 20
0.0
 30
0.0
  9
$PUCSORGFRONT
 10
0.0
 20
0.0
 30
0.0
  9
$PUCSORGBACK
 10
0.0
 20
0.0
 30
0.0
  9
$USERI1
 70
     0
  9
$USERI2
 70
     0
  9
$USERI3
 70
     0
  9
$USERI4
 70
     0
  9
$USERI5
 70
     0
  9
$USERR1
 40
0.0
  9
$USERR2
 40
0.0
  9
$USERR3
 40
0.0
  9
$USERR4
 40
0.0
  9
$USERR5
 40
0.0
  9
$WORLDVIEW
 70
     1
  9
$SHADEDGE
 70
     3
  9
$SHADEDIF
 70
    70
  9
$TILEMODE
 70
     1
  9
$MAXACTVP
 70
    16
  9
$PINSBASE
 10
0.0
 20
0.0
 30
0.0
  9
$PLIMCHECK
 70
     0
  9
$PEXTMIN
 10
1.000000000000000E+20
 20
1.000000000000000E+20
 30
1.000000000000000E+20
  9
$PEXTMAX
 10
-1.000000000000000E+20
 20
-1.000000000000000E+20
 30
-1.000000000000000E+20
  9
$PLIMMIN
 10
0.0
 20
0.0
  9
$PLIMMAX
 10
12.0
 20
9.0
  9
$UNITMODE
 70
     0
  9
$VISRETAIN
 70
     0
  9
$PLINEGEN
 70
     0
  9
$PSLTSCALE
 70
     1
  9
$TREEDEPTH
 70
  3020
  9
$CMLSTYLE
  2
Standard
  9
$CMLJUST
 70
     0
  9
$CMLSCALE
 40
1.0
  9
$PROXYGRAPHICS
 70
     1
  9
$MEASUREMENT
 70
     0
  9
$CELWEIGHT
370
    -1
  9
$ENDCAPS
280
     0
  9
$JOINSTYLE
280
     0
  9
$LWDISPLAY
290
     0
  9
$INSUNITS
 70
     0
  9
$HYPERLINKBASE
  1

  9
$STYLESHEET
  1
monochrome.ctb
  9
$XEDIT
290
     1
  9
$CEPSNTYPE
380
     0
  9
$PSTYLEMODE
290
     1
  9
$FINGERPRINTGUID
  2
{3253F293-49CF-44C2-8201-B62AF3EFD927}
  9
$VERSIONGUID
  2
{1EA09154-E9A6-4146-AE80-344389C6C818}
  9
$EXTNAMES
290
     1
  9
$PSVPSCALE
 40
0.0
  9
$OLESTARTUP
290
     0
  0
ENDSEC
  0
SECTION
  2
CLASSES
  0
CLASS
  1
ACDBDICTIONARYWDFLT
  2
AcDbDictionaryWithDefault
  3
AutoCAD 2000
 90
        0
280
     0
281
     0
  0
CLASS
  1
ACDBPLACEHOLDER
  2
AcDbPlaceHolder
  3
AutoCAD 2000
 90
        0
280
     0
281
     0
  0
CLASS
  1
LAYOUT
  2
AcDbLayout
  3
AutoCAD 2000
 90
        0
280
     0
281
     0
  0
CLASS
  1
DICTIONARYVAR
  2
AcDbDictionaryVar
  3
AutoCAD 2000
 90
        0
280
     0
281
     0
  0
ENDSEC
  0
SECTION
  2
TABLES
  0
TABLE
  2
VPORT
  5
8
330
0
100
AcDbSymbolTable
 70
     2
  0
VPORT
  5
1CB0
330
8
100
AcDbSymbolTableRecord
100
AcDbViewportTableRecord
  2
*Active
 70
     0
 10
0.0
 20
0.0
 11
1.0
 21
1.0
 12
16.59873379108619
 22
10.32721220447822
 13
0.0
 23
0.0
 14
1.0
 24
1.0
 15
0.25
 25
0.25
 16
0.0
 26
0.0
 36
1.0
 17
0.0
 27
0.0
 37
0.0
 40
20.9044672129654
 41
1.796327212020033
 42
50.0
 43
0.0
 44
0.0
 50
0.0
 51
0.0
 71
     0
 72
   500
 73
     1
 74
     0
 75
     0
 76
     0
 77
     0
 78
     0
281
     0
 65
     1
110
0.0
120
0.0
130
0.0
111
1.0
121
0.0
131
0.0
112
0.0
122
1.0
132
0.0
 79
     0
146
0.0
  0
ENDTAB
  0
TABLE
  2
LTYPE
  5
5
330
0
100
AcDbSymbolTable
 70
     6
  0
LTYPE
  5
13
330
5
100
AcDbSymbolTableRecord
100
AcDbLinetypeTableRecord
  2
ByBlock
 70
     0
  3

 72
    65
 73
     0
 40
0.0
  0
LTYPE
  5
14
330
5
100
AcDbSymbolTableRecord
100
AcDbLinetypeTableRecord
  2
ByLayer
 70
     0
  3

 72
    65
 73
     0
 40
0.0
  0
LTYPE
  5
15
330
5
100
AcDbSymbolTableRecord
100
AcDbLinetypeTableRecord
  2
CONTINUOUS
 70
     0
  3
Solid line
 72
    65
 73
     0
 40
0.0
  0
LTYPE
  5
25
330
5
100
AcDbSymbolTableRecord
100
AcDbLinetypeTableRecord
  2
HIDDEN
 70
     0
  3
_ _ _ _ _ _ _ _ _ _ _ _ _ _ _ _ _ _ _ _ _ _ _
 72
    65
 73
     2
 40
0.375
 49
0.25
 74
     0
 49
-0.125
 74
     0
  0
LTYPE
  5
26
330
5
100
AcDbSymbolTableRecord
100
AcDbLinetypeTableRecord
  2
PHANTOM
 70
     0
  3
_____ _ _ _____ _ _ _____ _ _ _____ _ _ ____
 72
    65
 73
     6
 40
2.5
 49
1.25
 74
     0
 49
-0.25
 74
     0
 49
0.25
 74
     0
 49
-0.25
 74
     0
 49
0.25
 74
     0
 49
-0.25
 74
     0
  0
LTYPE
  5
27
330
5
100
AcDbSymbolTableRecord
100
AcDbLinetypeTableRecord
  2
CENTER
 70
     0
  3
____ _ ____ _ ____ _ ____ _ ____ _ ____ _ ____
 72
    65
 73
     4
 40
2.0
 49
1.25
 74
     0
 49
-0.25
 74
     0
 49
0.25
 74
     0
 49
-0.25
 74
     0
  0
LTYPE
  5
28
330
5
100
AcDbSymbolTableRecord
100
AcDbLinetypeTableRecord
  2
PHANTOM2
 70
     0
  3
___ _ _ ___ _ _ ___ _ _ ___ _ _ ___ _ _ ___ _ _
 72
    65
 73
     6
 40
1.25
 49
0.625
 74
     0
 49
-0.125
 74
     0
 49
0.125
 74
     0
 49
-0.125
 74
     0
 49
0.125
 74
     0
 49
-0.125
 74
     0
  0
LTYPE
  5
1C5E
330
5
100
AcDbSymbolTableRecord
100
AcDbLinetypeTableRecord
  2
HIDDEN2
 70
     0
  3
Hidden (.5x) _ _ _ _ _ _ _ _ _ _ _ _ _ _ _ _ _
 72
    65
 73
     2
 40
0.1875
 49
0.125
 74
     0
 49
-0.0625
 74
     0
  0
ENDTAB
  0
TABLE
  2
LAYER
  5
2
330
0
100
AcDbSymbolTable
 70
     9
  0
LAYER
  5
10
330
2
100
AcDbSymbolTableRecord
100
AcDbLayerTableRecord
  2
0
 70
     0
 62
     7
  6
CONTINUOUS
370
    -3
390
F
  0
LAYER
  5
22
330
2
100
AcDbSymbolTableRecord
100
AcDbLayerTableRecord
  2
OBJECT
 70
     0
 62
     7
  6
CONTINUOUS
370
    -3
390
F
  0
LAYER
  5
29
330
2
100
AcDbSymbolTableRecord
100
AcDbLayerTableRecord
  2
DIM
 70
     0
 62
     2
  6
CONTINUOUS
370
    -3
390
F
  0
LAYER
  5
2A
330
2
100
AcDbSymbolTableRecord
100
AcDbLayerTableRecord
  2
HIDDEN
 70
     0
 62
     6
  6
HIDDEN
370
    -3
390
F
  0
LAYER
  5
2B
330
2
100
AcDbSymbolTableRecord
100
AcDbLayerTableRecord
  2
BEND
 70
     0
 62
     4
  6
PHANTOM
370
    -3
390
F
  0
LAYER
  5
2C
330
2
100
AcDbSymbolTableRecord
100
AcDbLayerTableRecord
  2
TEXT
 70
     0
 62
     1
  6
CONTINUOUS
370
    -3
390
F
  0
LAYER
  5
2D
330
2
100
AcDbSymbolTableRecord
100
AcDbLayerTableRecord
  2
TITLE
 70
     0
 62
     8
  6
CONTINUOUS
370
    -3
390
F
  0
LAYER
  5
2E
330
2
100
AcDbSymbolTableRecord
100
AcDbLayerTableRecord
  2
CENTER
 70
     0
 62
     3
  6
CENTER
370
    -3
390
F
  0
LAYER
  5
2F
330
2
100
AcDbSymbolTableRecord
100
AcDbLayerTableRecord
  2
DEFPOINTS
 70
     0
 62
     7
  6
CONTINUOUS
290
     0
370
    -3
390
F
  0
ENDTAB
  0
TABLE
  2
STYLE
  5
3
330
0
100
AcDbSymbolTable
 70
     2
  0
STYLE
  5
11
330
3
100
AcDbSymbolTableRecord
100
AcDbTextStyleTableRecord
  2
TXT
 70
     0
 40
0.0
 41
0.75
 50
0.0
 71
     0
 42
0.2
  3
txt.shx
  4

  0
STYLE
  5
30
330
3
100
AcDbSymbolTableRecord
100
AcDbTextStyleTableRecord
  2
SECTION
 70
     0
 40
0.0
 41
0.8
 50
0.0
 71
     0
 42
0.2
  3
ROMANT.SHX
  4

  0
ENDTAB
  0
TABLE
  2
VIEW
  5
6
330
0
100
AcDbSymbolTable
 70
     0
  0
ENDTAB
  0
TABLE
  2
UCS
  5
7
330
0
100
AcDbSymbolTable
 70
     0
  0
ENDTAB
  0
TABLE
  2
APPID
  5
9
330
0
100
AcDbSymbolTable
 70
     1
  0
APPID
  5
12
330
9
100
AcDbSymbolTableRecord
100
AcDbRegAppTableRecord
  2
ACAD
 70
     0
  0
ENDTAB
  0
TABLE
  2
DIMSTYLE
  5
A
330
0
100
AcDbSymbolTable
 70
     4
100
AcDbDimStyleTable
 71
     4
340
31
340
32
340
33
340
34
  0
DIMSTYLE
105
31
102
{ACAD_REACTORS
330
CF8
330
D06
330
D22
330
D30
330
D3E
330
D4C
330
D5A
330
D68
330
D76
330
D84
330
D92
330
DD8
330
DF4
330
E02
330
E10
330
E2C
330
E3A
330
E48
330
E56
330
E64
330
E72
330
ED0
330
EDE
330
EEC
330
EFA
330
F08
330
F16
330
F2C
330
FD1
330
FDE
330
FFB
330
1038
102
}
330
A
100
AcDbSymbolTableRecord
100
AcDbDimStyleTableRecord
  2
23NSTD
 70
     0
 40
2.0
 42
0.063
 43
0.281
 44
0.093
140
0.125
271
     3
272
     3
289
     1
340
11
  0
DIMSTYLE
105
32
102
{ACAD_REACTORS
330
D14
330
DA0
330
DAE
330
DBC
330
DCA
330
DE6
330
E1E
330
1009
330
1017
102
}
330
A
100
AcDbSymbolTableRecord
100
AcDbDimStyleTableRecord
  2
23NSTDI
 70
     0
 40
2.0
 42
0.063
 43
0.281
 44
0.093
140
0.125
174
     1
271
     3
272
     3
340
11
  0
DIMSTYLE
105
33
102
{ACAD_REACTORS
330
E9C
330
1175
330
1183
330
1191
102
}
330
A
100
AcDbSymbolTableRecord
100
AcDbDimStyleTableRecord
  2
23NSTD4
 70
     0
 40
2.0
 42
0.063
 43
0.281
 44
0.093
140
0.125
144
0.25
271
     3
272
     3
289
     1
340
11
  0
DIMSTYLE
105
34
102
{ACAD_REACTORS
330
E8E
330
EAA
330
EB8
330
113B
330
1159
102
}
330
A
100
AcDbSymbolTableRecord
100
AcDbDimStyleTableRecord
  2
23NSTD4I
 70
     0
 40
2.0
 42
0.063
 43
0.281
 44
0.093
140
0.125
144
0.25
174
     1
271
     3
272
     3
340
11
  0
ENDTAB
  0
TABLE
  2
BLOCK_RECORD
  5
1
330
0
100
AcDbSymbolTable
 70
    51
  0
BLOCK_RECORD
  5
1E
330
1
100
AcDbSymbolTableRecord
100
AcDbBlockTableRecord
  2
*Model_Space
340
21
  0
BLOCK_RECORD
  5
1A
330
1
100
AcDbSymbolTableRecord
100
AcDbBlockTableRecord
  2
*Paper_Space
340
1D
  0
BLOCK_RECORD
  5
CF9
330
1
100
AcDbSymbolTableRecord
100
AcDbBlockTableRecord
  2
*D0
340
0
  0
BLOCK_RECORD
  5
D07
330
1
100
AcDbSymbolTableRecord
100
AcDbBlockTableRecord
  2
*D1
340
0
  0
BLOCK_RECORD
  5
D15
330
1
100
AcDbSymbolTableRecord
100
AcDbBlockTableRecord
  2
*D2
340
0
  0
BLOCK_RECORD
  5
D23
330
1
100
AcDbSymbolTableRecord
100
AcDbBlockTableRecord
  2
*D3
340
0
  0
BLOCK_RECORD
  5
D31
330
1
100
AcDbSymbolTableRecord
100
AcDbBlockTableRecord
  2
*D4
340
0
  0
BLOCK_RECORD
  5
D3F
330
1
100
AcDbSymbolTableRecord
100
AcDbBlockTableRecord
  2
*D5
340
0
  0
BLOCK_RECORD
  5
D4D
330
1
100
AcDbSymbolTableRecord
100
AcDbBlockTableRecord
  2
*D6
340
0
  0
BLOCK_RECORD
  5
D5B
330
1
100
AcDbSymbolTableRecord
100
AcDbBlockTableRecord
  2
*D7
340
0
  0
BLOCK_RECORD
  5
D69
330
1
100
AcDbSymbolTableRecord
100
AcDbBlockTableRecord
  2
*D8
340
0
  0
BLOCK_RECORD
  5
D77
330
1
100
AcDbSymbolTableRecord
100
AcDbBlockTableRecord
  2
*D9
340
0
  0
BLOCK_RECORD
  5
D85
330
1
100
AcDbSymbolTableRecord
100
AcDbBlockTableRecord
  2
*D10
340
0
  0
BLOCK_RECORD
  5
D93
330
1
100
AcDbSymbolTableRecord
100
AcDbBlockTableRecord
  2
*D11
340
0
  0
BLOCK_RECORD
  5
DA1
330
1
100
AcDbSymbolTableRecord
100
AcDbBlockTableRecord
  2
*D12
340
0
  0
BLOCK_RECORD
  5
DAF
330
1
100
AcDbSymbolTableRecord
100
AcDbBlockTableRecord
  2
*D13
340
0
  0
BLOCK_RECORD
  5
DBD
330
1
100
AcDbSymbolTableRecord
100
AcDbBlockTableRecord
  2
*D14
340
0
  0
BLOCK_RECORD
  5
DCB
330
1
100
AcDbSymbolTableRecord
100
AcDbBlockTableRecord
  2
*D15
340
0
  0
BLOCK_RECORD
  5
DD9
330
1
100
AcDbSymbolTableRecord
100
AcDbBlockTableRecord
  2
*D16
340
0
  0
BLOCK_RECORD
  5
DE7
330
1
100
AcDbSymbolTableRecord
100
AcDbBlockTableRecord
  2
*D17
340
0
  0
BLOCK_RECORD
  5
DF5
330
1
100
AcDbSymbolTableRecord
100
AcDbBlockTableRecord
  2
*D18
340
0
  0
BLOCK_RECORD
  5
E03
330
1
100
AcDbSymbolTableRecord
100
AcDbBlockTableRecord
  2
*D19
340
0
  0
BLOCK_RECORD
  5
E11
330
1
100
AcDbSymbolTableRecord
100
AcDbBlockTableRecord
  2
*D20
340
0
  0
BLOCK_RECORD
  5
E1F
330
1
100
AcDbSymbolTableRecord
100
AcDbBlockTableRecord
  2
*D21
340
0
  0
BLOCK_RECORD
  5
E2D
330
1
100
AcDbSymbolTableRecord
100
AcDbBlockTableRecord
  2
*D22
340
0
  0
BLOCK_RECORD
  5
E3B
330
1
100
AcDbSymbolTableRecord
100
AcDbBlockTableRecord
  2
*D23
340
0
  0
BLOCK_RECORD
  5
E49
330
1
100
AcDbSymbolTableRecord
100
AcDbBlockTableRecord
  2
*D24
340
0
  0
BLOCK_RECORD
  5
E57
330
1
100
AcDbSymbolTableRecord
100
AcDbBlockTableRecord
  2
*D25
340
0
  0
BLOCK_RECORD
  5
E65
330
1
100
AcDbSymbolTableRecord
100
AcDbBlockTableRecord
  2
*D26
340
0
  0
BLOCK_RECORD
  5
E73
330
1
100
AcDbSymbolTableRecord
100
AcDbBlockTableRecord
  2
*D27
340
0
  0
BLOCK_RECORD
  5
E8F
330
1
100
AcDbSymbolTableRecord
100
AcDbBlockTableRecord
  2
*D28
340
0
  0
BLOCK_RECORD
  5
E9D
330
1
100
AcDbSymbolTableRecord
100
AcDbBlockTableRecord
  2
*D29
340
0
  0
BLOCK_RECORD
  5
EAB
330
1
100
AcDbSymbolTableRecord
100
AcDbBlockTableRecord
  2
*D30
340
0
  0
BLOCK_RECORD
  5
EB9
330
1
100
AcDbSymbolTableRecord
100
AcDbBlockTableRecord
  2
*D31
340
0
  0
BLOCK_RECORD
  5
ED1
330
1
100
AcDbSymbolTableRecord
100
AcDbBlockTableRecord
  2
*D32
340
0
  0
BLOCK_RECORD
  5
EDF
330
1
100
AcDbSymbolTableRecord
100
AcDbBlockTableRecord
  2
*D33
340
0
  0
BLOCK_RECORD
  5
EED
330
1
100
AcDbSymbolTableRecord
100
AcDbBlockTableRecord
  2
*D34
340
0
  0
BLOCK_RECORD
  5
EFB
330
1
100
AcDbSymbolTableRecord
100
AcDbBlockTableRecord
  2
*D35
340
0
  0
BLOCK_RECORD
  5
F09
330
1
100
AcDbSymbolTableRecord
100
AcDbBlockTableRecord
  2
*D36
340
0
  0
BLOCK_RECORD
  5
F17
330
1
100
AcDbSymbolTableRecord
100
AcDbBlockTableRecord
  2
*D37
340
0
  0
BLOCK_RECORD
  5
F2D
330
1
100
AcDbSymbolTableRecord
100
AcDbBlockTableRecord
  2
*D38
340
0
  0
BLOCK_RECORD
  5
FD2
330
1
100
AcDbSymbolTableRecord
100
AcDbBlockTableRecord
  2
*D39
340
0
  0
BLOCK_RECORD
  5
FDF
330
1
100
AcDbSymbolTableRecord
100
AcDbBlockTableRecord
  2
*D40
340
0
  0
BLOCK_RECORD
  5
FFC
330
1
100
AcDbSymbolTableRecord
100
AcDbBlockTableRecord
  2
*D41
340
0
  0
BLOCK_RECORD
  5
100A
330
1
100
AcDbSymbolTableRecord
100
AcDbBlockTableRecord
  2
*D42
340
0
  0
BLOCK_RECORD
  5
1018
330
1
100
AcDbSymbolTableRecord
100
AcDbBlockTableRecord
  2
*D43
340
0
  0
BLOCK_RECORD
  5
1039
330
1
100
AcDbSymbolTableRecord
100
AcDbBlockTableRecord
  2
*D44
340
0
  0
BLOCK_RECORD
  5
113C
330
1
100
AcDbSymbolTableRecord
100
AcDbBlockTableRecord
  2
*D45
340
0
  0
BLOCK_RECORD
  5
115A
330
1
100
AcDbSymbolTableRecord
100
AcDbBlockTableRecord
  2
*D46
340
0
  0
BLOCK_RECORD
  5
1176
330
1
100
AcDbSymbolTableRecord
100
AcDbBlockTableRecord
  2
*D47
340
0
  0
BLOCK_RECORD
  5
1184
330
1
100
AcDbSymbolTableRecord
100
AcDbBlockTableRecord
  2
*D48
340
0
  0
BLOCK_RECORD
  5
1192
330
1
100
AcDbSymbolTableRecord
100
AcDbBlockTableRecord
  2
*D49
340
0
  0
BLOCK_RECORD
  5
182C
330
1
100
AcDbSymbolTableRecord
100
AcDbBlockTableRecord
  2
HBS
340
0
102
{BLKREFS
331
184D
102
}
  0
ENDTAB
  0
ENDSEC
  0
SECTION
  2
BLOCKS
  0
BLOCK
  5
1F
330
1E
100
AcDbEntity
  8
0
100
AcDbBlockBegin
  2
*Model_Space
 70
     0
 10
0.0
 20
0.0
 30
0.0
  3
*Model_Space
  1

  0
ENDBLK
  5
20
330
1E
100
AcDbEntity
  8
0
100
AcDbBlockEnd
  0
BLOCK
  5
1B
330
1A
100
AcDbEntity
 67
     1
  8
0
100
AcDbBlockBegin
  2
*Paper_Space
 70
     0
 10
0.0
 20
0.0
 30
0.0
  3
*Paper_Space
  1

  0
ENDBLK
  5
1C
330
1A
100
AcDbEntity
 67
     1
  8
0
100
AcDbBlockEnd
  0
BLOCK
  5
D04
330
CF9
100
AcDbEntity
  8
0
100
AcDbBlockBegin
  2
*D0
 70
     1
 10
0.0
 20
0.0
 30
0.0
  3
*D0
  1

  0
LINE
  5
1662
330
CF9
100
AcDbEntity
  8
DIM
 62
     0
370
    -2
100
AcDbLine
 10
14.202003
 20
9.982060999999999
 30
0.0
 11
14.202003
 21
10.733966
 31
0.0
  0
LINE
  5
1663
330
CF9
100
AcDbEntity
  8
DIM
 62
     0
370
    -2
100
AcDbLine
 10
14.489003
 20
10.18756099999999
 30
0.0
 11
14.489003
 21
10.733966
 31
0.0
  0
LINE
  5
1664
330
CF9
100
AcDbEntity
  8
DIM
 62
     0
370
    -2
100
AcDbLine
 10
13.842003
 20
10.547966
 30
0.0
 11
13.482003
 21
10.547966
 31
0.0
  0
LINE
  5
1665
330
CF9
100
AcDbEntity
  8
DIM
 62
     0
370
    -2
100
AcDbLine
 10
14.849003
 20
10.547966
 30
0.0
 11
15.209003
 21
10.547966
 31
0.0
  0
SOLID
  5
1666
330
CF9
100
AcDbEntity
  8
DIM
 62
     0
100
AcDbTrace
 10
13.842003
 20
10.607966
 30
0.0
 11
13.842003
 21
10.48796599999999
 31
0.0
 12
14.202003
 22
10.547966
 32
0.0
 13
14.202003
 23
10.547966
 33
0.0
  0
SOLID
  5
1667
330
CF9
100
AcDbEntity
  8
DIM
 62
     0
100
AcDbTrace
 10
14.849003
 20
10.607966
 30
0.0
 11
14.849003
 21
10.48796599999999
 31
0.0
 12
14.489003
 22
10.547966
 32
0.0
 13
14.489003
 23
10.547966
 33
0.0
  0
MTEXT
  5
1668
330
CF9
100
AcDbEntity
  8
DIM
 62
     0
100
AcDbMText
 10
15.748378
 20
10.547966
 30
0.0
 40
0.25
 41
0.0
 71
     5
 72
     1
  1
\A1;0.287
 73
     1
 44
1.0
  0
POINT
  5
1669
330
CF9
100
AcDbEntity
  8
DEFPOINTS
 62
     0
100
AcDbPoint
 10
14.202003
 20
9.856061
 30
0.0
  0
POINT
  5
166A
330
CF9
100
AcDbEntity
  8
DEFPOINTS
 62
     0
100
AcDbPoint
 10
14.489003
 20
10.06156099999999
 30
0.0
  0
POINT
  5
166B
330
CF9
100
AcDbEntity
  8
DEFPOINTS
 62
     0
100
AcDbPoint
 10
14.489003
 20
10.547966
 30
0.0
  0
ENDBLK
  5
D05
330
CF9
100
AcDbEntity
  8
0
100
AcDbBlockEnd
  0
BLOCK
  5
D12
330
D07
100
AcDbEntity
  8
0
100
AcDbBlockBegin
  2
*D1
 70
     1
 10
0.0
 20
0.0
 30
0.0
  3
*D1
  1

  0
LINE
  5
1658
330
D07
100
AcDbEntity
  8
DIM
 62
     0
370
    -2
100
AcDbLine
 10
14.37100299999999
 20
9.366386999999999
 30
0.0
 11
14.37100299999999
 21
9.222692
 31
0.0
  0
LINE
  5
1659
330
D07
100
AcDbEntity
  8
DIM
 62
     0
370
    -2
100
AcDbLine
 10
14.489003
 20
9.366386999999999
 30
0.0
 11
14.489003
 21
9.222692
 31
0.0
  0
LINE
  5
165A
330
D07
100
AcDbEntity
  8
DIM
 62
     0
370
    -2
100
AcDbLine
 10
14.011003
 20
9.408692
 30
0.0
 11
13.65100299999999
 21
9.408692
 31
0.0
  0
LINE
  5
165B
330
D07
100
AcDbEntity
  8
DIM
 62
     0
370
    -2
100
AcDbLine
 10
14.849003
 20
9.408692
 30
0.0
 11
15.209003
 21
9.408692
 31
0.0
  0
SOLID
  5
165C
330
D07
100
AcDbEntity
  8
DIM
 62
     0
100
AcDbTrace
 10
14.011003
 20
9.468692
 30
0.0
 11
14.011003
 21
9.348691999999999
 31
0.0
 12
14.37100299999999
 22
9.408692
 32
0.0
 13
14.37100299999999
 23
9.408692
 33
0.0
  0
SOLID
  5
165D
330
D07
100
AcDbEntity
  8
DIM
 62
     0
100
AcDbTrace
 10
14.849003
 20
9.468692
 30
0.0
 11
14.849003
 21
9.348691999999999
 31
0.0
 12
14.489003
 22
9.408692
 32
0.0
 13
14.489003
 23
9.408692
 33
0.0
  0
MTEXT
  5
165E
330
D07
100
AcDbEntity
  8
DIM
 62
     0
100
AcDbMText
 10
15.685878
 20
9.408692
 30
0.0
 40
0.25
 41
0.0
 71
     5
 72
     1
  1
\A1;0.118
 73
     1
 44
1.0
  0
POINT
  5
165F
330
D07
100
AcDbEntity
  8
DEFPOINTS
 62
     0
100
AcDbPoint
 10
14.37100299999999
 20
9.492386999999999
 30
0.0
  0
POINT
  5
1660
330
D07
100
AcDbEntity
  8
DEFPOINTS
 62
     0
100
AcDbPoint
 10
14.489003
 20
9.492386999999999
 30
0.0
  0
POINT
  5
1661
330
D07
100
AcDbEntity
  8
DEFPOINTS
 62
     0
100
AcDbPoint
 10
14.489003
 20
9.408692
 30
0.0
  0
ENDBLK
  5
D13
330
D07
100
AcDbEntity
  8
0
100
AcDbBlockEnd
  0
BLOCK
  5
D20
330
D15
100
AcDbEntity
  8
0
100
AcDbBlockBegin
  2
*D2
 70
     1
 10
0.0
 20
0.0
 30
0.0
  3
*D2
  1

  0
LINE
  5
1B5C
330
D15
100
AcDbEntity
  8
DIM
 62
     0
370
    -2
100
AcDbLine
 10
13.639003
 20
5.364060999999999
 30
0.0
 11
13.639003
 21
4.778560999999999
 31
0.0
  0
LINE
  5
1B5D
330
D15
100
AcDbEntity
  8
DIM
 62
     0
370
    -2
100
AcDbLine
 10
14.489003
 20
5.336560999999999
 30
0.0
 11
14.489003
 21
4.778560999999999
 31
0.0
  0
LINE
  5
1B5E
330
D15
100
AcDbEntity
  8
DIM
 62
     0
370
    -2
100
AcDbLine
 10
13.279003
 20
4.964560999999999
 30
0.0
 11
12.919003
 21
4.964560999999999
 31
0.0
  0
LINE
  5
1B5F
330
D15
100
AcDbEntity
  8
DIM
 62
     0
370
    -2
100
AcDbLine
 10
14.849003
 20
4.964560999999999
 30
0.0
 11
15.209003
 21
4.964560999999999
 31
0.0
  0
SOLID
  5
1B60
330
D15
100
AcDbEntity
  8
DIM
 62
     0
100
AcDbTrace
 10
13.279003
 20
5.024560999999999
 30
0.0
 11
13.279003
 21
4.904561
 31
0.0
 12
13.639003
 22
4.964560999999999
 32
0.0
 13
13.639003
 23
4.964560999999999
 33
0.0
  0
SOLID
  5
1B61
330
D15
100
AcDbEntity
  8
DIM
 62
     0
100
AcDbTrace
 10
14.849003
 20
5.024560999999999
 30
0.0
 11
14.849003
 21
4.904561
 31
0.0
 12
14.489003
 22
4.964560999999999
 32
0.0
 13
14.489003
 23
4.964560999999999
 33
0.0
  0
MTEXT
  5
1B62
330
D15
100
AcDbEntity
  8
DIM
 62
     0
100
AcDbMText
 10
14.064003
 20
4.964560999999999
 30
0.0
 40
0.25
 41
0.0
 71
     5
 72
     1
  1
\A1;0.850
 73
     1
 44
1.0
  0
POINT
  5
1B63
330
D15
100
AcDbEntity
  8
DEFPOINTS
 62
     0
100
AcDbPoint
 10
13.639003
 20
5.490060999999999
 30
0.0
  0
POINT
  5
1B64
330
D15
100
AcDbEntity
  8
DEFPOINTS
 62
     0
100
AcDbPoint
 10
14.489003
 20
5.462560999999999
 30
0.0
  0
POINT
  5
1B65
330
D15
100
AcDbEntity
  8
DEFPOINTS
 62
     0
100
AcDbPoint
 10
14.489003
 20
4.964560999999999
 30
0.0
  0
ENDBLK
  5
D21
330
D15
100
AcDbEntity
  8
0
100
AcDbBlockEnd
  0
BLOCK
  5
D2E
330
D23
100
AcDbEntity
  8
0
100
AcDbBlockBegin
  2
*D3
 70
     1
 10
0.0
 20
0.0
 30
0.0
  3
*D3
  1

  0
LINE
  5
164D
330
D23
100
AcDbEntity
  8
DIM
 62
     0
370
    -2
100
AcDbLine
 10
14.61500299999999
 20
5.984060999999999
 30
0.0
 11
14.996175
 21
5.984060999999999
 31
0.0
  0
LINE
  5
164E
330
D23
100
AcDbEntity
  8
DIM
 62
     0
370
    -2
100
AcDbLine
 10
14.61500299999999
 20
6.154061
 30
0.0
 11
14.996175
 21
6.154061
 31
0.0
  0
LINE
  5
164F
330
D23
100
AcDbEntity
  8
DIM
 62
     0
370
    -2
100
AcDbLine
 10
14.810175
 20
5.624060999999999
 30
0.0
 11
14.810175
 21
5.264060999999999
 31
0.0
  0
LINE
  5
1650
330
D23
100
AcDbEntity
  8
DIM
 62
     0
370
    -2
100
AcDbLine
 10
14.810175
 20
6.514061
 30
0.0
 11
14.810175
 21
6.874061
 31
0.0
  0
LINE
  5
1651
330
D23
100
AcDbEntity
  8
DIM
 62
     0
370
    -2
100
AcDbLine
 10
14.810175
 20
6.874061
 30
0.0
 11
15.17017499999999
 21
6.874061
 31
0.0
  0
SOLID
  5
1652
330
D23
100
AcDbEntity
  8
DIM
 62
     0
100
AcDbTrace
 10
14.75017499999999
 20
5.624060999999999
 30
0.0
 11
14.870175
 21
5.624060999999999
 31
0.0
 12
14.810175
 22
5.984060999999999
 32
0.0
 13
14.810175
 23
5.984060999999999
 33
0.0
  0
SOLID
  5
1653
330
D23
100
AcDbEntity
  8
DIM
 62
     0
100
AcDbTrace
 10
14.75017499999999
 20
6.514061
 30
0.0
 11
14.870175
 21
6.514061
 31
0.0
 12
14.810175
 22
6.154061
 32
0.0
 13
14.810175
 23
6.154061
 33
0.0
  0
MTEXT
  5
1654
330
D23
100
AcDbEntity
  8
DIM
 62
     0
100
AcDbMText
 10
16.03767499999999
 20
6.874061000000002
 30
0.0
 40
0.25
 41
0.0
 71
     5
 72
     1
  1
\A1;0.170 DIA.
 73
     1
 44
1.0
  0
POINT
  5
1655
330
D23
100
AcDbEntity
  8
DEFPOINTS
 62
     0
100
AcDbPoint
 10
14.489003
 20
5.984060999999999
 30
0.0
  0
POINT
  5
1656
330
D23
100
AcDbEntity
  8
DEFPOINTS
 62
     0
100
AcDbPoint
 10
14.489003
 20
6.154061
 30
0.0
  0
POINT
  5
1657
330
D23
100
AcDbEntity
  8
DEFPOINTS
 62
     0
100
AcDbPoint
 10
14.810175
 20
6.154061
 30
0.0
  0
ENDBLK
  5
D2F
330
D23
100
AcDbEntity
  8
0
100
AcDbBlockEnd
  0
BLOCK
  5
D3C
330
D31
100
AcDbEntity
  8
0
100
AcDbBlockBegin
  2
*D4
 70
     1
 10
0.0
 20
0.0
 30
0.0
  3
*D4
  1

  0
LINE
  5
16F1
330
D31
100
AcDbEntity
  8
DIM
 62
     0
370
    -2
100
AcDbLine
 10
7.611702999999999
 20
5.524060999999999
 30
0.0
 11
7.611702999999999
 21
3.986663
 31
0.0
  0
LINE
  5
16F2
330
D31
100
AcDbEntity
  8
DIM
 62
     0
370
    -2
100
AcDbLine
 10
4.263702999999999
 20
5.524060999999999
 30
0.0
 11
4.263702999999999
 21
3.986663
 31
0.0
  0
LINE
  5
16F3
330
D31
100
AcDbEntity
  8
DIM
 62
     0
370
    -2
100
AcDbLine
 10
7.251702999999999
 20
4.172663
 30
0.0
 11
6.492702999999998
 21
4.172663
 31
0.0
  0
LINE
  5
16F4
330
D31
100
AcDbEntity
  8
DIM
 62
     0
370
    -2
100
AcDbLine
 10
4.623702999999999
 20
4.172663
 30
0.0
 11
5.382702999999999
 21
4.172663
 31
0.0
  0
SOLID
  5
16F5
330
D31
100
AcDbEntity
  8
DIM
 62
     0
100
AcDbTrace
 10
7.251702999999999
 20
4.232662999999999
 30
0.0
 11
7.251702999999999
 21
4.112663
 31
0.0
 12
7.611702999999999
 22
4.172663
 32
0.0
 13
7.611702999999999
 23
4.172663
 33
0.0
  0
SOLID
  5
16F6
330
D31
100
AcDbEntity
  8
DIM
 62
     0
100
AcDbTrace
 10
4.623702999999999
 20
4.232662999999999
 30
0.0
 11
4.623702999999999
 21
4.112663
 31
0.0
 12
4.263702999999999
 22
4.172663
 32
0.0
 13
4.263702999999999
 23
4.172663
 33
0.0
  0
MTEXT
  5
16F7
330
D31
100
AcDbEntity
  8
DIM
 62
     0
100
AcDbMText
 10
5.937702999999999
 20
4.172663
 30
0.0
 40
0.25
 41
0.0
 71
     5
 72
     1
  1
\A1;3.348
 73
     1
 44
1.0
  0
POINT
  5
16F8
330
D31
100
AcDbEntity
  8
DEFPOINTS
 62
     0
100
AcDbPoint
 10
7.611702999999999
 20
5.650060999999999
 30
0.0
  0
POINT
  5
16F9
330
D31
100
AcDbEntity
  8
DEFPOINTS
 62
     0
100
AcDbPoint
 10
4.263702999999999
 20
5.650060999999999
 30
0.0
  0
POINT
  5
16FA
330
D31
100
AcDbEntity
  8
DEFPOINTS
 62
     0
100
AcDbPoint
 10
4.263702999999999
 20
4.172663
 30
0.0
  0
ENDBLK
  5
D3D
330
D31
100
AcDbEntity
  8
0
100
AcDbBlockEnd
  0
BLOCK
  5
D4A
330
D3F
100
AcDbEntity
  8
0
100
AcDbBlockBegin
  2
*D5
 70
     1
 10
0.0
 20
0.0
 30
0.0
  3
*D5
  1

  0
LINE
  5
1719
330
D3F
100
AcDbEntity
  8
DIM
 62
     0
370
    -2
100
AcDbLine
 10
4.263702999999999
 20
5.524060999999999
 30
0.0
 11
4.263702999999999
 21
3.986663
 31
0.0
  0
LINE
  5
171A
330
D3F
100
AcDbEntity
  8
DIM
 62
     0
370
    -2
100
AcDbLine
 10
3.575702999999999
 20
5.524060999999999
 30
0.0
 11
3.575702999999999
 21
3.986663
 31
0.0
  0
LINE
  5
171B
330
D3F
100
AcDbEntity
  8
DIM
 62
     0
370
    -2
100
AcDbLine
 10
4.623702999999999
 20
4.172663
 30
0.0
 11
4.983702999999999
 21
4.172663
 31
0.0
  0
LINE
  5
171C
330
D3F
100
AcDbEntity
  8
DIM
 62
     0
370
    -2
100
AcDbLine
 10
3.215702999999999
 20
4.172663
 30
0.0
 11
2.855703
 21
4.172663
 31
0.0
  0
SOLID
  5
171D
330
D3F
100
AcDbEntity
  8
DIM
 62
     0
100
AcDbTrace
 10
4.623702999999999
 20
4.232662999999999
 30
0.0
 11
4.623702999999999
 21
4.112663
 31
0.0
 12
4.263702999999999
 22
4.172663
 32
0.0
 13
4.263702999999999
 23
4.172663
 33
0.0
  0
SOLID
  5
171E
330
D3F
100
AcDbEntity
  8
DIM
 62
     0
100
AcDbTrace
 10
3.215702999999999
 20
4.232662999999999
 30
0.0
 11
3.215702999999999
 21
4.112663
 31
0.0
 12
3.575702999999999
 22
4.172663
 32
0.0
 13
3.575702999999999
 23
4.172663
 33
0.0
  0
MTEXT
  5
171F
330
D3F
100
AcDbEntity
  8
DIM
 62
     0
100
AcDbMText
 10
2.316327999999999
 20
4.172663
 30
0.0
 40
0.25
 41
0.0
 71
     5
 72
     1
  1
\A1;0.688
 73
     1
 44
1.0
  0
POINT
  5
1720
330
D3F
100
AcDbEntity
  8
DEFPOINTS
 62
     0
100
AcDbPoint
 10
4.263702999999999
 20
5.650060999999999
 30
0.0
  0
POINT
  5
1721
330
D3F
100
AcDbEntity
  8
DEFPOINTS
 62
     0
100
AcDbPoint
 10
3.575702999999999
 20
5.650060999999999
 30
0.0
  0
POINT
  5
1722
330
D3F
100
AcDbEntity
  8
DEFPOINTS
 62
     0
100
AcDbPoint
 10
3.575702999999999
 20
4.172663
 30
0.0
  0
ENDBLK
  5
D4B
330
D3F
100
AcDbEntity
  8
0
100
AcDbBlockEnd
  0
BLOCK
  5
D58
330
D4D
100
AcDbEntity
  8
0
100
AcDbBlockBegin
  2
*D6
 70
     1
 10
0.0
 20
0.0
 30
0.0
  3
*D6
  1

  0
LINE
  5
16C8
330
D4D
100
AcDbEntity
  8
DIM
 62
     0
370
    -2
100
AcDbLine
 10
3.575702999999999
 20
10.000061
 30
0.0
 11
3.575702999999999
 21
11.592061
 31
0.0
  0
LINE
  5
16C9
330
D4D
100
AcDbEntity
  8
DIM
 62
     0
370
    -2
100
AcDbLine
 10
5.937702999999999
 20
9.857060999999999
 30
0.0
 11
5.937702999999999
 21
11.592061
 31
0.0
  0
LINE
  5
16CA
330
D4D
100
AcDbEntity
  8
DIM
 62
     0
370
    -2
100
AcDbLine
 10
3.935702999999999
 20
11.406061
 30
0.0
 11
4.201703
 21
11.406061
 31
0.0
  0
LINE
  5
16CB
330
D4D
100
AcDbEntity
  8
DIM
 62
     0
370
    -2
100
AcDbLine
 10
5.577702999999999
 20
11.406061
 30
0.0
 11
5.311702999999999
 21
11.406061
 31
0.0
  0
SOLID
  5
16CC
330
D4D
100
AcDbEntity
  8
DIM
 62
     0
100
AcDbTrace
 10
3.935702999999999
 20
11.466061
 30
0.0
 11
3.935702999999999
 21
11.34606099999999
 31
0.0
 12
3.575702999999999
 22
11.406061
 32
0.0
 13
3.575702999999999
 23
11.406061
 33
0.0
  0
SOLID
  5
16CD
330
D4D
100
AcDbEntity
  8
DIM
 62
     0
100
AcDbTrace
 10
5.577702999999999
 20
11.466061
 30
0.0
 11
5.577702999999999
 21
11.34606099999999
 31
0.0
 12
5.937702999999999
 22
11.406061
 32
0.0
 13
5.937702999999999
 23
11.406061
 33
0.0
  0
MTEXT
  5
16CE
330
D4D
100
AcDbEntity
  8
DIM
 62
     0
100
AcDbMText
 10
4.756702999999999
 20
11.406061
 30
0.0
 40
0.25
 41
0.0
 71
     5
 72
     1
  1
\A1;2.362
 73
     1
 44
1.0
  0
POINT
  5
16CF
330
D4D
100
AcDbEntity
  8
DEFPOINTS
 62
     0
100
AcDbPoint
 10
3.575702999999999
 20
9.874060999999999
 30
0.0
  0
POINT
  5
16D0
330
D4D
100
AcDbEntity
  8
DEFPOINTS
 62
     0
100
AcDbPoint
 10
5.937702999999999
 20
9.731061
 30
0.0
  0
POINT
  5
16D1
330
D4D
100
AcDbEntity
  8
DEFPOINTS
 62
     0
100
AcDbPoint
 10
5.937702999999999
 20
11.406061
 30
0.0
  0
ENDBLK
  5
D59
330
D4D
100
AcDbEntity
  8
0
100
AcDbBlockEnd
  0
BLOCK
  5
D66
330
D5B
100
AcDbEntity
  8
0
100
AcDbBlockBegin
  2
*D7
 70
     1
 10
0.0
 20
0.0
 30
0.0
  3
*D7
  1

  0
LINE
  5
16BE
330
D5B
100
AcDbEntity
  8
DIM
 62
     0
370
    -2
100
AcDbLine
 10
3.575702999999999
 20
10.000061
 30
0.0
 11
3.575702999999999
 21
13.278061
 31
0.0
  0
LINE
  5
16BF
330
D5B
100
AcDbEntity
  8
DIM
 62
     0
370
    -2
100
AcDbLine
 10
8.299702999999999
 20
10.000061
 30
0.0
 11
8.299702999999999
 21
13.278061
 31
0.0
  0
LINE
  5
16C0
330
D5B
100
AcDbEntity
  8
DIM
 62
     0
370
    -2
100
AcDbLine
 10
3.935702999999999
 20
13.09206099999999
 30
0.0
 11
5.382702999999999
 21
13.09206099999999
 31
0.0
  0
LINE
  5
16C1
330
D5B
100
AcDbEntity
  8
DIM
 62
     0
370
    -2
100
AcDbLine
 10
7.939702999999998
 20
13.09206099999999
 30
0.0
 11
6.492702999999998
 21
13.09206099999999
 31
0.0
  0
SOLID
  5
16C2
330
D5B
100
AcDbEntity
  8
DIM
 62
     0
100
AcDbTrace
 10
3.935702999999999
 20
13.152061
 30
0.0
 11
3.935702999999999
 21
13.03206099999999
 31
0.0
 12
3.575702999999999
 22
13.09206099999999
 32
0.0
 13
3.575702999999999
 23
13.09206099999999
 33
0.0
  0
SOLID
  5
16C3
330
D5B
100
AcDbEntity
  8
DIM
 62
     0
100
AcDbTrace
 10
7.939702999999998
 20
13.152061
 30
0.0
 11
7.939702999999998
 21
13.03206099999999
 31
0.0
 12
8.299702999999999
 22
13.09206099999999
 32
0.0
 13
8.299702999999999
 23
13.09206099999999
 33
0.0
  0
MTEXT
  5
16C4
330
D5B
100
AcDbEntity
  8
DIM
 62
     0
100
AcDbMText
 10
5.937702999999999
 20
13.09206099999999
 30
0.0
 40
0.25
 41
0.0
 71
     5
 72
     1
  1
\A1;4.724
 73
     1
 44
1.0
  0
POINT
  5
16C5
330
D5B
100
AcDbEntity
  8
DEFPOINTS
 62
     0
100
AcDbPoint
 10
3.575702999999999
 20
9.874060999999999
 30
0.0
  0
POINT
  5
16C6
330
D5B
100
AcDbEntity
  8
DEFPOINTS
 62
     0
100
AcDbPoint
 10
8.299702999999999
 20
9.874060999999999
 30
0.0
  0
POINT
  5
16C7
330
D5B
100
AcDbEntity
  8
DEFPOINTS
 62
     0
100
AcDbPoint
 10
8.299702999999999
 20
13.09206099999999
 30
0.0
  0
ENDBLK
  5
D67
330
D5B
100
AcDbEntity
  8
0
100
AcDbBlockEnd
  0
BLOCK
  5
D74
330
D69
100
AcDbEntity
  8
0
100
AcDbBlockBegin
  2
*D8
 70
     1
 10
0.0
 20
0.0
 30
0.0
  3
*D8
  1

  0
LINE
  5
16B4
330
D69
100
AcDbEntity
  8
DIM
 62
     0
370
    -2
100
AcDbLine
 10
8.023702999999999
 20
9.974060999999998
 30
0.0
 11
8.023702999999999
 21
12.716061
 31
0.0
  0
LINE
  5
16B5
330
D69
100
AcDbEntity
  8
DIM
 62
     0
370
    -2
100
AcDbLine
 10
3.851703
 20
9.974060999999998
 30
0.0
 11
3.851703
 21
12.716061
 31
0.0
  0
LINE
  5
16B6
330
D69
100
AcDbEntity
  8
DIM
 62
     0
370
    -2
100
AcDbLine
 10
7.663702999999999
 20
12.530061
 30
0.0
 11
6.461452999999998
 21
12.530061
 31
0.0
  0
LINE
  5
16B7
330
D69
100
AcDbEntity
  8
DIM
 62
     0
370
    -2
100
AcDbLine
 10
4.211702999999999
 20
12.530061
 30
0.0
 11
5.413952999999999
 21
12.530061
 31
0.0
  0
SOLID
  5
16B8
330
D69
100
AcDbEntity
  8
DIM
 62
     0
100
AcDbTrace
 10
7.663702999999999
 20
12.590061
 30
0.0
 11
7.663702999999999
 21
12.470061
 31
0.0
 12
8.023702999999999
 22
12.530061
 32
0.0
 13
8.023702999999999
 23
12.530061
 33
0.0
  0
SOLID
  5
16B9
330
D69
100
AcDbEntity
  8
DIM
 62
     0
100
AcDbTrace
 10
4.211702999999999
 20
12.590061
 30
0.0
 11
4.211702999999999
 21
12.470061
 31
0.0
 12
3.851703
 22
12.530061
 32
0.0
 13
3.851703
 23
12.530061
 33
0.0
  0
MTEXT
  5
16BA
330
D69
100
AcDbEntity
  8
DIM
 62
     0
100
AcDbMText
 10
5.937702999999999
 20
12.530061
 30
0.0
 40
0.25
 41
0.0
 71
     5
 72
     1
  1
\A1;4.172
 73
     1
 44
1.0
  0
POINT
  5
16BB
330
D69
100
AcDbEntity
  8
DEFPOINTS
 62
     0
100
AcDbPoint
 10
8.023702999999999
 20
9.848060999999999
 30
0.0
  0
POINT
  5
16BC
330
D69
100
AcDbEntity
  8
DEFPOINTS
 62
     0
100
AcDbPoint
 10
3.851703
 20
9.848060999999999
 30
0.0
  0
POINT
  5
16BD
330
D69
100
AcDbEntity
  8
DEFPOINTS
 62
     0
100
AcDbPoint
 10
3.851703
 20
12.530061
 30
0.0
  0
ENDBLK
  5
D75
330
D69
100
AcDbEntity
  8
0
100
AcDbBlockEnd
  0
BLOCK
  5
D82
330
D77
100
AcDbEntity
  8
0
100
AcDbBlockBegin
  2
*D9
 70
     1
 10
0.0
 20
0.0
 30
0.0
  3
*D9
  1

  0
LINE
  5
16AA
330
D77
100
AcDbEntity
  8
DIM
 62
     0
370
    -2
100
AcDbLine
 10
3.851703
 20
9.974060999999998
 30
0.0
 11
3.851703
 21
12.716061
 31
0.0
  0
LINE
  5
16AB
330
D77
100
AcDbEntity
  8
DIM
 62
     0
370
    -2
100
AcDbLine
 10
3.575702999999999
 20
10.000061
 30
0.0
 11
3.575702999999999
 21
12.716061
 31
0.0
  0
LINE
  5
16AC
330
D77
100
AcDbEntity
  8
DIM
 62
     0
370
    -2
100
AcDbLine
 10
4.211702999999999
 20
12.530061
 30
0.0
 11
4.571703
 21
12.530061
 31
0.0
  0
LINE
  5
16AD
330
D77
100
AcDbEntity
  8
DIM
 62
     0
370
    -2
100
AcDbLine
 10
3.215702999999999
 20
12.530061
 30
0.0
 11
2.855703
 21
12.530061
 31
0.0
  0
SOLID
  5
16AE
330
D77
100
AcDbEntity
  8
DIM
 62
     0
100
AcDbTrace
 10
4.211702999999999
 20
12.590061
 30
0.0
 11
4.211702999999999
 21
12.470061
 31
0.0
 12
3.851703
 22
12.530061
 32
0.0
 13
3.851703
 23
12.530061
 33
0.0
  0
SOLID
  5
16AF
330
D77
100
AcDbEntity
  8
DIM
 62
     0
100
AcDbTrace
 10
3.215702999999999
 20
12.590061
 30
0.0
 11
3.215702999999999
 21
12.470061
 31
0.0
 12
3.575702999999999
 22
12.530061
 32
0.0
 13
3.575702999999999
 23
12.530061
 33
0.0
  0
MTEXT
  5
16B0
330
D77
100
AcDbEntity
  8
DIM
 62
     0
100
AcDbMText
 10
2.316327999999999
 20
12.530061
 30
0.0
 40
0.25
 41
0.0
 71
     5
 72
     1
  1
\A1;0.276
 73
     1
 44
1.0
  0
POINT
  5
16B1
330
D77
100
AcDbEntity
  8
DEFPOINTS
 62
     0
100
AcDbPoint
 10
3.851703
 20
9.848060999999999
 30
0.0
  0
POINT
  5
16B2
330
D77
100
AcDbEntity
  8
DEFPOINTS
 62
     0
100
AcDbPoint
 10
3.575702999999999
 20
9.874060999999999
 30
0.0
  0
POINT
  5
16B3
330
D77
100
AcDbEntity
  8
DEFPOINTS
 62
     0
100
AcDbPoint
 10
3.575702999999999
 20
12.530061
 30
0.0
  0
ENDBLK
  5
D83
330
D77
100
AcDbEntity
  8
0
100
AcDbBlockEnd
  0
BLOCK
  5
D90
330
D85
100
AcDbEntity
  8
0
100
AcDbBlockBegin
  2
*D10
 70
     1
 10
0.0
 20
0.0
 30
0.0
  3
*D10
  1

  0
LINE
  5
16A0
330
D85
100
AcDbEntity
  8
DIM
 62
     0
370
    -2
100
AcDbLine
 10
7.866703
 20
8.990060999999998
 30
0.0
 11
7.866703
 21
12.154061
 31
0.0
  0
LINE
  5
16A1
330
D85
100
AcDbEntity
  8
DIM
 62
     0
370
    -2
100
AcDbLine
 10
4.008702999999999
 20
8.990060999999998
 30
0.0
 11
4.008702999999999
 21
12.154061
 31
0.0
  0
LINE
  5
16A2
330
D85
100
AcDbEntity
  8
DIM
 62
     0
370
    -2
100
AcDbLine
 10
7.506702999999999
 20
11.968061
 30
0.0
 11
6.492702999999999
 21
11.968061
 31
0.0
  0
LINE
  5
16A3
330
D85
100
AcDbEntity
  8
DIM
 62
     0
370
    -2
100
AcDbLine
 10
4.368703
 20
11.968061
 30
0.0
 11
5.382703
 21
11.968061
 31
0.0
  0
SOLID
  5
16A4
330
D85
100
AcDbEntity
  8
DIM
 62
     0
100
AcDbTrace
 10
7.506702999999999
 20
12.028061
 30
0.0
 11
7.506702999999999
 21
11.908061
 31
0.0
 12
7.866703
 22
11.968061
 32
0.0
 13
7.866703
 23
11.968061
 33
0.0
  0
SOLID
  5
16A5
330
D85
100
AcDbEntity
  8
DIM
 62
     0
100
AcDbTrace
 10
4.368703
 20
12.028061
 30
0.0
 11
4.368703
 21
11.908061
 31
0.0
 12
4.008702999999999
 22
11.968061
 32
0.0
 13
4.008702999999999
 23
11.968061
 33
0.0
  0
MTEXT
  5
16A6
330
D85
100
AcDbEntity
  8
DIM
 62
     0
100
AcDbMText
 10
5.937702999999999
 20
11.968061
 30
0.0
 40
0.25
 41
0.0
 71
     5
 72
     1
  1
\A1;3.858
 73
     1
 44
1.0
  0
POINT
  5
16A7
330
D85
100
AcDbEntity
  8
DEFPOINTS
 62
     0
100
AcDbPoint
 10
7.866703
 20
8.864060999999999
 30
0.0
  0
POINT
  5
16A8
330
D85
100
AcDbEntity
  8
DEFPOINTS
 62
     0
100
AcDbPoint
 10
4.008702999999999
 20
8.864060999999999
 30
0.0
  0
POINT
  5
16A9
330
D85
100
AcDbEntity
  8
DEFPOINTS
 62
     0
100
AcDbPoint
 10
4.008702999999999
 20
11.968061
 30
0.0
  0
ENDBLK
  5
D91
330
D85
100
AcDbEntity
  8
0
100
AcDbBlockEnd
  0
BLOCK
  5
D9E
330
D93
100
AcDbEntity
  8
0
100
AcDbBlockBegin
  2
*D11
 70
     1
 10
0.0
 20
0.0
 30
0.0
  3
*D11
  1

  0
LINE
  5
1696
330
D93
100
AcDbEntity
  8
DIM
 62
     0
370
    -2
100
AcDbLine
 10
4.008702999999999
 20
8.990060999999998
 30
0.0
 11
4.008702999999999
 21
12.154061
 31
0.0
  0
LINE
  5
1697
330
D93
100
AcDbEntity
  8
DIM
 62
     0
370
    -2
100
AcDbLine
 10
3.575702999999999
 20
10.000061
 30
0.0
 11
3.575702999999999
 21
12.154061
 31
0.0
  0
LINE
  5
1698
330
D93
100
AcDbEntity
  8
DIM
 62
     0
370
    -2
100
AcDbLine
 10
4.368703
 20
11.968061
 30
0.0
 11
4.728702999999999
 21
11.968061
 31
0.0
  0
LINE
  5
1699
330
D93
100
AcDbEntity
  8
DIM
 62
     0
370
    -2
100
AcDbLine
 10
3.215702999999999
 20
11.968061
 30
0.0
 11
2.855703
 21
11.968061
 31
0.0
  0
SOLID
  5
169A
330
D93
100
AcDbEntity
  8
DIM
 62
     0
100
AcDbTrace
 10
4.368703
 20
12.028061
 30
0.0
 11
4.368703
 21
11.908061
 31
0.0
 12
4.008702999999999
 22
11.968061
 32
0.0
 13
4.008702999999999
 23
11.968061
 33
0.0
  0
SOLID
  5
169B
330
D93
100
AcDbEntity
  8
DIM
 62
     0
100
AcDbTrace
 10
3.215702999999999
 20
12.028061
 30
0.0
 11
3.215702999999999
 21
11.908061
 31
0.0
 12
3.575702999999999
 22
11.968061
 32
0.0
 13
3.575702999999999
 23
11.968061
 33
0.0
  0
MTEXT
  5
169C
330
D93
100
AcDbEntity
  8
DIM
 62
     0
100
AcDbMText
 10
2.316327999999999
 20
11.968061
 30
0.0
 40
0.25
 41
0.0
 71
     5
 72
     1
  1
\A1;0.433
 73
     1
 44
1.0
  0
POINT
  5
169D
330
D93
100
AcDbEntity
  8
DEFPOINTS
 62
     0
100
AcDbPoint
 10
4.008702999999999
 20
8.864060999999999
 30
0.0
  0
POINT
  5
169E
330
D93
100
AcDbEntity
  8
DEFPOINTS
 62
     0
100
AcDbPoint
 10
3.575702999999999
 20
9.874060999999999
 30
0.0
  0
POINT
  5
169F
330
D93
100
AcDbEntity
  8
DEFPOINTS
 62
     0
100
AcDbPoint
 10
3.575702999999999
 20
11.968061
 30
0.0
  0
ENDBLK
  5
D9F
330
D93
100
AcDbEntity
  8
0
100
AcDbBlockEnd
  0
BLOCK
  5
DAC
330
DA1
100
AcDbEntity
  8
0
100
AcDbBlockBegin
  2
*D12
 70
     1
 10
0.0
 20
0.0
 30
0.0
  3
*D12
  1

  0
LINE
  5
175F
330
DA1
100
AcDbEntity
  8
DIM
 62
     0
370
    -2
100
AcDbLine
 10
7.992703
 20
7.762061
 30
0.0
 11
9.136983999999999
 21
7.762061
 31
0.0
  0
LINE
  5
1760
330
DA1
100
AcDbEntity
  8
DIM
 62
     0
370
    -2
100
AcDbLine
 10
7.992703
 20
8.510061
 30
0.0
 11
9.136983999999999
 21
8.510061
 31
0.0
  0
LINE
  5
1761
330
DA1
100
AcDbEntity
  8
DIM
 62
     0
370
    -2
100
AcDbLine
 10
8.950984
 20
7.402060999999999
 30
0.0
 11
8.950984
 21
7.042061
 31
0.0
  0
LINE
  5
1762
330
DA1
100
AcDbEntity
  8
DIM
 62
     0
370
    -2
100
AcDbLine
 10
8.950984
 20
8.870060999999999
 30
0.0
 11
8.950984
 21
9.230061
 31
0.0
  0
SOLID
  5
1763
330
DA1
100
AcDbEntity
  8
DIM
 62
     0
100
AcDbTrace
 10
8.890983999999999
 20
7.402060999999999
 30
0.0
 11
9.010984
 21
7.402060999999999
 31
0.0
 12
8.950984
 22
7.762061
 32
0.0
 13
8.950984
 23
7.762061
 33
0.0
  0
SOLID
  5
1764
330
DA1
100
AcDbEntity
  8
DIM
 62
     0
100
AcDbTrace
 10
8.890983999999999
 20
8.870060999999999
 30
0.0
 11
9.010984
 21
8.870060999999999
 31
0.0
 12
8.950984
 22
8.510061
 32
0.0
 13
8.950984
 23
8.510061
 33
0.0
  0
MTEXT
  5
1765
330
DA1
100
AcDbEntity
  8
DIM
 62
     0
100
AcDbMText
 10
8.950983999999998
 20
8.136061000000001
 30
0.0
 40
0.25
 41
0.0
 71
     5
 72
     1
  1
\A1;0.748
 73
     1
 44
1.0
  0
POINT
  5
1766
330
DA1
100
AcDbEntity
  8
DEFPOINTS
 62
     0
100
AcDbPoint
 10
7.866703
 20
7.762061
 30
0.0
  0
POINT
  5
1767
330
DA1
100
AcDbEntity
  8
DEFPOINTS
 62
     0
100
AcDbPoint
 10
7.866703
 20
8.510061
 30
0.0
  0
POINT
  5
1768
330
DA1
100
AcDbEntity
  8
DEFPOINTS
 62
     0
100
AcDbPoint
 10
8.950984
 20
8.510061
 30
0.0
  0
ENDBLK
  5
DAD
330
DA1
100
AcDbEntity
  8
0
100
AcDbBlockEnd
  0
BLOCK
  5
DBA
330
DAF
100
AcDbEntity
  8
0
100
AcDbBlockBegin
  2
*D13
 70
     1
 10
0.0
 20
0.0
 30
0.0
  3
*D13
  1

  0
LINE
  5
1755
330
DAF
100
AcDbEntity
  8
DIM
 62
     0
370
    -2
100
AcDbLine
 10
7.992703
 20
7.762061
 30
0.0
 11
10.26098399999999
 21
7.762060999999999
 31
0.0
  0
LINE
  5
1756
330
DAF
100
AcDbEntity
  8
DIM
 62
     0
370
    -2
100
AcDbLine
 10
7.992703
 20
8.864060999999999
 30
0.0
 11
10.26098399999999
 21
8.864060999999999
 31
0.0
  0
LINE
  5
1757
330
DAF
100
AcDbEntity
  8
DIM
 62
     0
370
    -2
100
AcDbLine
 10
10.074984
 20
7.402060999999998
 30
0.0
 11
10.074984
 21
7.042060999999999
 31
0.0
  0
LINE
  5
1758
330
DAF
100
AcDbEntity
  8
DIM
 62
     0
370
    -2
100
AcDbLine
 10
10.074984
 20
9.224060999999998
 30
0.0
 11
10.074984
 21
9.584061
 31
0.0
  0
SOLID
  5
1759
330
DAF
100
AcDbEntity
  8
DIM
 62
     0
100
AcDbTrace
 10
10.01498399999999
 20
7.402060999999998
 30
0.0
 11
10.134984
 21
7.402060999999998
 31
0.0
 12
10.074984
 22
7.762060999999999
 32
0.0
 13
10.074984
 23
7.762060999999999
 33
0.0
  0
SOLID
  5
175A
330
DAF
100
AcDbEntity
  8
DIM
 62
     0
100
AcDbTrace
 10
10.01498399999999
 20
9.224060999999998
 30
0.0
 11
10.134984
 21
9.224060999999998
 31
0.0
 12
10.074984
 22
8.864060999999999
 32
0.0
 13
10.074984
 23
8.864060999999999
 33
0.0
  0
MTEXT
  5
175B
330
DAF
100
AcDbEntity
  8
DIM
 62
     0
100
AcDbMText
 10
10.07498399999999
 20
8.313061000000001
 30
0.0
 40
0.25
 41
0.0
 71
     5
 72
     1
  1
\A1;1.102
 73
     1
 44
1.0
  0
POINT
  5
175C
330
DAF
100
AcDbEntity
  8
DEFPOINTS
 62
     0
100
AcDbPoint
 10
7.866703
 20
7.762061
 30
0.0
  0
POINT
  5
175D
330
DAF
100
AcDbEntity
  8
DEFPOINTS
 62
     0
100
AcDbPoint
 10
7.866703
 20
8.864060999999999
 30
0.0
  0
POINT
  5
175E
330
DAF
100
AcDbEntity
  8
DEFPOINTS
 62
     0
100
AcDbPoint
 10
10.074984
 20
8.864060999999999
 30
0.0
  0
ENDBLK
  5
DBB
330
DAF
100
AcDbEntity
  8
0
100
AcDbBlockEnd
  0
BLOCK
  5
DC8
330
DBD
100
AcDbEntity
  8
0
100
AcDbBlockBegin
  2
*D14
 70
     1
 10
0.0
 20
0.0
 30
0.0
  3
*D14
  1

  0
LINE
  5
174B
330
DBD
100
AcDbEntity
  8
DIM
 62
     0
370
    -2
100
AcDbLine
 10
7.992703
 20
7.762061
 30
0.0
 11
9.698983999999999
 21
7.762061
 31
0.0
  0
LINE
  5
174C
330
DBD
100
AcDbEntity
  8
DIM
 62
     0
370
    -2
100
AcDbLine
 10
7.992703
 20
7.014060999999999
 30
0.0
 11
9.698983999999999
 21
7.014060999999999
 31
0.0
  0
LINE
  5
174D
330
DBD
100
AcDbEntity
  8
DIM
 62
     0
370
    -2
100
AcDbLine
 10
9.512983999999999
 20
8.122061
 30
0.0
 11
9.512983999999999
 21
8.482060999999999
 31
0.0
  0
LINE
  5
174E
330
DBD
100
AcDbEntity
  8
DIM
 62
     0
370
    -2
100
AcDbLine
 10
9.512983999999999
 20
6.654060999999999
 30
0.0
 11
9.512983999999999
 21
6.294061
 31
0.0
  0
SOLID
  5
174F
330
DBD
100
AcDbEntity
  8
DIM
 62
     0
100
AcDbTrace
 10
9.452983999999998
 20
8.122061
 30
0.0
 11
9.572983999999999
 21
8.122061
 31
0.0
 12
9.512983999999999
 22
7.762061
 32
0.0
 13
9.512983999999999
 23
7.762061
 33
0.0
  0
SOLID
  5
1750
330
DBD
100
AcDbEntity
  8
DIM
 62
     0
100
AcDbTrace
 10
9.452983999999998
 20
6.654060999999999
 30
0.0
 11
9.572983999999999
 21
6.654060999999999
 31
0.0
 12
9.512983999999999
 22
7.014060999999999
 32
0.0
 13
9.512983999999999
 23
7.014060999999999
 33
0.0
  0
MTEXT
  5
1751
330
DBD
100
AcDbEntity
  8
DIM
 62
     0
100
AcDbMText
 10
9.512983999999997
 20
7.388061000000001
 30
0.0
 40
0.25
 41
0.0
 71
     5
 72
     1
  1
\A1;0.748
 73
     1
 44
1.0
  0
POINT
  5
1752
330
DBD
100
AcDbEntity
  8
DEFPOINTS
 62
     0
100
AcDbPoint
 10
7.866703
 20
7.762061
 30
0.0
  0
POINT
  5
1753
330
DBD
100
AcDbEntity
  8
DEFPOINTS
 62
     0
100
AcDbPoint
 10
7.866703
 20
7.014060999999999
 30
0.0
  0
POINT
  5
1754
330
DBD
100
AcDbEntity
  8
DEFPOINTS
 62
     0
100
AcDbPoint
 10
9.512983999999999
 20
7.014060999999999
 30
0.0
  0
ENDBLK
  5
DC9
330
DBD
100
AcDbEntity
  8
0
100
AcDbBlockEnd
  0
BLOCK
  5
DD6
330
DCB
100
AcDbEntity
  8
0
100
AcDbBlockBegin
  2
*D15
 70
     1
 10
0.0
 20
0.0
 30
0.0
  3
*D15
  1

  0
LINE
  5
1737
330
DCB
100
AcDbEntity
  8
DIM
 62
     0
370
    -2
100
AcDbLine
 10
7.992703
 20
7.762061
 30
0.0
 11
11.00898399999999
 21
7.762060999999999
 31
0.0
  0
LINE
  5
1738
330
DCB
100
AcDbEntity
  8
DIM
 62
     0
370
    -2
100
AcDbLine
 10
7.992703
 20
6.660060999999999
 30
0.0
 11
11.00898399999999
 21
6.660060999999998
 31
0.0
  0
LINE
  5
1739
330
DCB
100
AcDbEntity
  8
DIM
 62
     0
370
    -2
100
AcDbLine
 10
10.82298399999999
 20
8.122061
 30
0.0
 11
10.82298399999999
 21
8.482060999999999
 31
0.0
  0
LINE
  5
173A
330
DCB
100
AcDbEntity
  8
DIM
 62
     0
370
    -2
100
AcDbLine
 10
10.82298399999999
 20
6.300060999999998
 30
0.0
 11
10.82298399999999
 21
5.940060999999999
 31
0.0
  0
SOLID
  5
173B
330
DCB
100
AcDbEntity
  8
DIM
 62
     0
100
AcDbTrace
 10
10.76298399999999
 20
8.122061
 30
0.0
 11
10.882984
 21
8.122061
 31
0.0
 12
10.82298399999999
 22
7.762060999999999
 32
0.0
 13
10.82298399999999
 23
7.762060999999999
 33
0.0
  0
SOLID
  5
173C
330
DCB
100
AcDbEntity
  8
DIM
 62
     0
100
AcDbTrace
 10
10.76298399999999
 20
6.300060999999998
 30
0.0
 11
10.882984
 21
6.300060999999998
 31
0.0
 12
10.82298399999999
 22
6.660060999999998
 32
0.0
 13
10.82298399999999
 23
6.660060999999998
 33
0.0
  0
MTEXT
  5
173D
330
DCB
100
AcDbEntity
  8
DIM
 62
     0
100
AcDbMText
 10
10.82298399999999
 20
7.211061
 30
0.0
 40
0.25
 41
0.0
 71
     5
 72
     1
  1
\A1;1.102
 73
     1
 44
1.0
  0
POINT
  5
173E
330
DCB
100
AcDbEntity
  8
DEFPOINTS
 62
     0
100
AcDbPoint
 10
7.866703
 20
7.762061
 30
0.0
  0
POINT
  5
173F
330
DCB
100
AcDbEntity
  8
DEFPOINTS
 62
     0
100
AcDbPoint
 10
7.866703
 20
6.660060999999999
 30
0.0
  0
POINT
  5
1740
330
DCB
100
AcDbEntity
  8
DEFPOINTS
 62
     0
100
AcDbPoint
 10
10.82298399999999
 20
6.660060999999998
 30
0.0
  0
ENDBLK
  5
DD7
330
DCB
100
AcDbEntity
  8
0
100
AcDbBlockEnd
  0
BLOCK
  5
DE4
330
DD9
100
AcDbEntity
  8
0
100
AcDbBlockBegin
  2
*D16
 70
     1
 10
0.0
 20
0.0
 30
0.0
  3
*D16
  1

  0
LINE
  5
170F
330
DD9
100
AcDbEntity
  8
DIM
 62
     0
370
    -2
100
AcDbLine
 10
3.725703
 20
6.069061
 30
0.0
 11
1.833688999999999
 21
6.069061000000001
 31
0.0
  0
LINE
  5
1710
330
DD9
100
AcDbEntity
  8
DIM
 62
     0
370
    -2
100
AcDbLine
 10
3.725703
 20
9.455061
 30
0.0
 11
1.833688999999999
 21
9.455061
 31
0.0
  0
LINE
  5
1711
330
DD9
100
AcDbEntity
  8
DIM
 62
     0
370
    -2
100
AcDbLine
 10
2.019688999999999
 20
6.429061
 30
0.0
 11
2.019688999999999
 21
7.457061
 31
0.0
  0
LINE
  5
1712
330
DD9
100
AcDbEntity
  8
DIM
 62
     0
370
    -2
100
AcDbLine
 10
2.019689
 20
9.095061000000001
 30
0.0
 11
2.019688999999999
 21
8.067061
 31
0.0
  0
SOLID
  5
1713
330
DD9
100
AcDbEntity
  8
DIM
 62
     0
100
AcDbTrace
 10
1.959688999999999
 20
6.429061000000001
 30
0.0
 11
2.079688999999999
 21
6.429061
 31
0.0
 12
2.019688999999999
 22
6.069061
 32
0.0
 13
2.019688999999999
 23
6.069061
 33
0.0
  0
SOLID
  5
1714
330
DD9
100
AcDbEntity
  8
DIM
 62
     0
100
AcDbTrace
 10
1.959688999999999
 20
9.095061000000001
 30
0.0
 11
2.079689
 21
9.095061000000001
 31
0.0
 12
2.019689
 22
9.455061
 32
0.0
 13
2.019689
 23
9.455061
 33
0.0
  0
MTEXT
  5
1715
330
DD9
100
AcDbEntity
  8
DIM
 62
     0
100
AcDbMText
 10
2.019688999999998
 20
7.762061
 30
0.0
 40
0.25
 41
0.0
 71
     5
 72
     1
  1
\A1;3.386
 73
     1
 44
1.0
  0
POINT
  5
1716
330
DD9
100
AcDbEntity
  8
DEFPOINTS
 62
     0
100
AcDbPoint
 10
3.851703
 20
6.069061
 30
0.0
  0
POINT
  5
1717
330
DD9
100
AcDbEntity
  8
DEFPOINTS
 62
     0
100
AcDbPoint
 10
3.851703
 20
9.455061
 30
0.0
  0
POINT
  5
1718
330
DD9
100
AcDbEntity
  8
DEFPOINTS
 62
     0
100
AcDbPoint
 10
2.019689
 20
9.455061
 30
0.0
  0
ENDBLK
  5
DE5
330
DD9
100
AcDbEntity
  8
0
100
AcDbBlockEnd
  0
BLOCK
  5
DF2
330
DE7
100
AcDbEntity
  8
0
100
AcDbBlockBegin
  2
*D17
 70
     1
 10
0.0
 20
0.0
 30
0.0
  3
*D17
  1

  0
LINE
  5
168C
330
DE7
100
AcDbEntity
  8
DIM
 62
     0
370
    -2
100
AcDbLine
 10
3.725703
 20
9.455061
 30
0.0
 11
1.833688999999999
 21
9.455061
 31
0.0
  0
LINE
  5
168D
330
DE7
100
AcDbEntity
  8
DIM
 62
     0
370
    -2
100
AcDbLine
 10
3.699702999999999
 20
10.12406099999999
 30
0.0
 11
1.833689
 21
10.12406099999999
 31
0.0
  0
LINE
  5
168E
330
DE7
100
AcDbEntity
  8
DIM
 62
     0
370
    -2
100
AcDbLine
 10
2.019689
 20
9.095061000000001
 30
0.0
 11
2.019688999999999
 21
8.735060999999999
 31
0.0
  0
LINE
  5
168F
330
DE7
100
AcDbEntity
  8
DIM
 62
     0
370
    -2
100
AcDbLine
 10
2.019689
 20
10.484061
 30
0.0
 11
2.019689
 21
10.844061
 31
0.0
  0
SOLID
  5
1690
330
DE7
100
AcDbEntity
  8
DIM
 62
     0
100
AcDbTrace
 10
1.959688999999999
 20
9.095061000000001
 30
0.0
 11
2.079689
 21
9.095061000000001
 31
0.0
 12
2.019689
 22
9.455061
 32
0.0
 13
2.019689
 23
9.455061
 33
0.0
  0
SOLID
  5
1691
330
DE7
100
AcDbEntity
  8
DIM
 62
     0
100
AcDbTrace
 10
1.959689
 20
10.484061
 30
0.0
 11
2.079689
 21
10.484061
 31
0.0
 12
2.019689
 22
10.12406099999999
 32
0.0
 13
2.019689
 23
10.12406099999999
 33
0.0
  0
MTEXT
  5
1692
330
DE7
100
AcDbEntity
  8
DIM
 62
     0
100
AcDbMText
 10
2.019688999999998
 20
9.789560999999999
 30
0.0
 40
0.25
 41
0.0
 71
     5
 72
     1
  1
\A1;0.669
 73
     1
 44
1.0
  0
POINT
  5
1693
330
DE7
100
AcDbEntity
  8
DEFPOINTS
 62
     0
100
AcDbPoint
 10
3.851703
 20
9.455061
 30
0.0
  0
POINT
  5
1694
330
DE7
100
AcDbEntity
  8
DEFPOINTS
 62
     0
100
AcDbPoint
 10
3.825702999999999
 20
10.12406099999999
 30
0.0
  0
POINT
  5
1695
330
DE7
100
AcDbEntity
  8
DEFPOINTS
 62
     0
100
AcDbPoint
 10
2.019689
 20
10.12406099999999
 30
0.0
  0
ENDBLK
  5
DF3
330
DE7
100
AcDbEntity
  8
0
100
AcDbBlockEnd
  0
BLOCK
  5
E00
330
DF5
100
AcDbEntity
  8
0
100
AcDbBlockBegin
  2
*D18
 70
     1
 10
0.0
 20
0.0
 30
0.0
  3
*D18
  1

  0
LINE
  5
172D
330
DF5
100
AcDbEntity
  8
DIM
 62
     0
370
    -2
100
AcDbLine
 10
8.149702999999998
 20
5.676060999999999
 30
0.0
 11
11.75698399999999
 21
5.676060999999998
 31
0.0
  0
LINE
  5
172E
330
DF5
100
AcDbEntity
  8
DIM
 62
     0
370
    -2
100
AcDbLine
 10
8.149702999999998
 20
9.848060999999999
 30
0.0
 11
11.75698399999999
 21
9.848060999999999
 31
0.0
  0
LINE
  5
172F
330
DF5
100
AcDbEntity
  8
DIM
 62
     0
370
    -2
100
AcDbLine
 10
11.57098399999999
 20
6.036060999999999
 30
0.0
 11
11.57098399999999
 21
7.457060999999999
 31
0.0
  0
LINE
  5
1730
330
DF5
100
AcDbEntity
  8
DIM
 62
     0
370
    -2
100
AcDbLine
 10
11.57098399999999
 20
9.488061
 30
0.0
 11
11.57098399999999
 21
8.067061
 31
0.0
  0
SOLID
  5
1731
330
DF5
100
AcDbEntity
  8
DIM
 62
     0
100
AcDbTrace
 10
11.51098399999999
 20
6.036060999999999
 30
0.0
 11
11.63098399999999
 21
6.036060999999999
 31
0.0
 12
11.57098399999999
 22
5.676060999999998
 32
0.0
 13
11.57098399999999
 23
5.676060999999998
 33
0.0
  0
SOLID
  5
1732
330
DF5
100
AcDbEntity
  8
DIM
 62
     0
100
AcDbTrace
 10
11.51098399999999
 20
9.488061
 30
0.0
 11
11.63098399999999
 21
9.488061
 31
0.0
 12
11.57098399999999
 22
9.848060999999999
 32
0.0
 13
11.57098399999999
 23
9.848060999999999
 33
0.0
  0
MTEXT
  5
1733
330
DF5
100
AcDbEntity
  8
DIM
 62
     0
100
AcDbMText
 10
11.57098399999999
 20
7.762061
 30
0.0
 40
0.25
 41
0.0
 71
     5
 72
     1
  1
\A1;4.172
 73
     1
 44
1.0
  0
POINT
  5
1734
330
DF5
100
AcDbEntity
  8
DEFPOINTS
 62
     0
100
AcDbPoint
 10
8.023702999999999
 20
5.676060999999999
 30
0.0
  0
POINT
  5
1735
330
DF5
100
AcDbEntity
  8
DEFPOINTS
 62
     0
100
AcDbPoint
 10
8.023702999999999
 20
9.848060999999999
 30
0.0
  0
POINT
  5
1736
330
DF5
100
AcDbEntity
  8
DEFPOINTS
 62
     0
100
AcDbPoint
 10
11.57098399999999
 20
9.848060999999999
 30
0.0
  0
ENDBLK
  5
E01
330
DF5
100
AcDbEntity
  8
0
100
AcDbBlockEnd
  0
BLOCK
  5
E0E
330
E03
100
AcDbEntity
  8
0
100
AcDbBlockBegin
  2
*D19
 70
     1
 10
0.0
 20
0.0
 30
0.0
  3
*D19
  1

  0
LINE
  5
1681
330
E03
100
AcDbEntity
  8
DIM
 62
     0
370
    -2
100
AcDbLine
 10
8.149702999999998
 20
9.848060999999999
 30
0.0
 11
11.75698399999999
 21
9.848060999999999
 31
0.0
  0
LINE
  5
1682
330
E03
100
AcDbEntity
  8
DIM
 62
     0
370
    -2
100
AcDbLine
 10
8.175702999999998
 20
10.12406099999999
 30
0.0
 11
11.75698399999999
 21
10.12406099999999
 31
0.0
  0
LINE
  5
1683
330
E03
100
AcDbEntity
  8
DIM
 62
     0
370
    -2
100
AcDbLine
 10
11.57098399999999
 20
9.488061
 30
0.0
 11
11.57098399999999
 21
9.128060999999998
 31
0.0
  0
LINE
  5
1684
330
E03
100
AcDbEntity
  8
DIM
 62
     0
370
    -2
100
AcDbLine
 10
11.57098399999999
 20
10.484061
 30
0.0
 11
11.57098399999999
 21
10.844061
 31
0.0
  0
LINE
  5
1685
330
E03
100
AcDbEntity
  8
DIM
 62
     0
370
    -2
100
AcDbLine
 10
11.57098399999999
 20
10.844061
 30
0.0
 11
11.930984
 21
10.844061
 31
0.0
  0
SOLID
  5
1686
330
E03
100
AcDbEntity
  8
DIM
 62
     0
100
AcDbTrace
 10
11.51098399999999
 20
9.488061
 30
0.0
 11
11.63098399999999
 21
9.488061
 31
0.0
 12
11.57098399999999
 22
9.848060999999999
 32
0.0
 13
11.57098399999999
 23
9.848060999999999
 33
0.0
  0
SOLID
  5
1687
330
E03
100
AcDbEntity
  8
DIM
 62
     0
100
AcDbTrace
 10
11.51098399999999
 20
10.484061
 30
0.0
 11
11.63098399999999
 21
10.484061
 31
0.0
 12
11.57098399999999
 22
10.12406099999999
 32
0.0
 13
11.57098399999999
 23
10.12406099999999
 33
0.0
  0
MTEXT
  5
1688
330
E03
100
AcDbEntity
  8
DIM
 62
     0
100
AcDbMText
 10
12.47035899999999
 20
10.844061
 30
0.0
 40
0.25
 41
0.0
 71
     5
 72
     1
  1
\A1;0.276
 73
     1
 44
1.0
  0
POINT
  5
1689
330
E03
100
AcDbEntity
  8
DEFPOINTS
 62
     0
100
AcDbPoint
 10
8.023702999999999
 20
9.848060999999999
 30
0.0
  0
POINT
  5
168A
330
E03
100
AcDbEntity
  8
DEFPOINTS
 62
     0
100
AcDbPoint
 10
8.049702999999999
 20
10.12406099999999
 30
0.0
  0
POINT
  5
168B
330
E03
100
AcDbEntity
  8
DEFPOINTS
 62
     0
100
AcDbPoint
 10
11.57098399999999
 20
10.12406099999999
 30
0.0
  0
ENDBLK
  5
E0F
330
E03
100
AcDbEntity
  8
0
100
AcDbBlockEnd
  0
BLOCK
  5
E1C
330
E11
100
AcDbEntity
  8
0
100
AcDbBlockBegin
  2
*D20
 70
     1
 10
0.0
 20
0.0
 30
0.0
  3
*D20
  1

  0
LINE
  5
1705
330
E11
100
AcDbEntity
  8
DIM
 62
     0
370
    -2
100
AcDbLine
 10
3.699702999999999
 20
6.338060999999999
 30
0.0
 11
2.813688999999999
 21
6.338060999999999
 31
0.0
  0
LINE
  5
1706
330
E11
100
AcDbEntity
  8
DIM
 62
     0
370
    -2
100
AcDbLine
 10
3.699702999999999
 20
9.186061
 30
0.0
 11
2.813689
 21
9.186061
 31
0.0
  0
LINE
  5
1707
330
E11
100
AcDbEntity
  8
DIM
 62
     0
370
    -2
100
AcDbLine
 10
2.999688999999999
 20
6.698061
 30
0.0
 11
2.999688999999999
 21
7.457061
 31
0.0
  0
LINE
  5
1708
330
E11
100
AcDbEntity
  8
DIM
 62
     0
370
    -2
100
AcDbLine
 10
2.999688999999999
 20
8.826061000000001
 30
0.0
 11
2.999688999999999
 21
8.067061
 31
0.0
  0
SOLID
  5
1709
330
E11
100
AcDbEntity
  8
DIM
 62
     0
100
AcDbTrace
 10
2.939688999999999
 20
6.698061
 30
0.0
 11
3.059688999999999
 21
6.698061
 31
0.0
 12
2.999688999999999
 22
6.338060999999999
 32
0.0
 13
2.999688999999999
 23
6.338060999999999
 33
0.0
  0
SOLID
  5
170A
330
E11
100
AcDbEntity
  8
DIM
 62
     0
100
AcDbTrace
 10
2.939688999999999
 20
8.826061000000001
 30
0.0
 11
3.059688999999999
 21
8.826061000000001
 31
0.0
 12
2.999689
 22
9.186061
 32
0.0
 13
2.999689
 23
9.186061
 33
0.0
  0
MTEXT
  5
170B
330
E11
100
AcDbEntity
  8
DIM
 62
     0
100
AcDbMText
 10
2.999688999999998
 20
7.762061
 30
0.0
 40
0.25
 41
0.0
 71
     5
 72
     1
  1
\A1;2.848
 73
     1
 44
1.0
  0
POINT
  5
170C
330
E11
100
AcDbEntity
  8
DEFPOINTS
 62
     0
100
AcDbPoint
 10
3.825702999999999
 20
6.338060999999999
 30
0.0
  0
POINT
  5
170D
330
E11
100
AcDbEntity
  8
DEFPOINTS
 62
     0
100
AcDbPoint
 10
3.825702999999999
 20
9.186061
 30
0.0
  0
POINT
  5
170E
330
E11
100
AcDbEntity
  8
DEFPOINTS
 62
     0
100
AcDbPoint
 10
2.999689
 20
9.186061
 30
0.0
  0
ENDBLK
  5
E1D
330
E11
100
AcDbEntity
  8
0
100
AcDbBlockEnd
  0
BLOCK
  5
E2A
330
E1F
100
AcDbEntity
  8
0
100
AcDbBlockBegin
  2
*D21
 70
     1
 10
0.0
 20
0.0
 30
0.0
  3
*D21
  1

  0
LINE
  5
1677
330
E1F
100
AcDbEntity
  8
DIM
 62
     0
370
    -2
100
AcDbLine
 10
3.699702999999999
 20
9.186061
 30
0.0
 11
2.813689
 21
9.186061
 31
0.0
  0
LINE
  5
1678
330
E1F
100
AcDbEntity
  8
DIM
 62
     0
370
    -2
100
AcDbLine
 10
3.699702999999999
 20
10.12406099999999
 30
0.0
 11
2.813689
 21
10.12406099999999
 31
0.0
  0
LINE
  5
1679
330
E1F
100
AcDbEntity
  8
DIM
 62
     0
370
    -2
100
AcDbLine
 10
2.999688999999999
 20
8.826061000000001
 30
0.0
 11
2.999688999999999
 21
8.466060999999999
 31
0.0
  0
LINE
  5
167A
330
E1F
100
AcDbEntity
  8
DIM
 62
     0
370
    -2
100
AcDbLine
 10
2.999689
 20
10.484061
 30
0.0
 11
2.999689
 21
10.844061
 31
0.0
  0
SOLID
  5
167B
330
E1F
100
AcDbEntity
  8
DIM
 62
     0
100
AcDbTrace
 10
2.939688999999999
 20
8.826061000000001
 30
0.0
 11
3.059688999999999
 21
8.826061000000001
 31
0.0
 12
2.999689
 22
9.186061
 32
0.0
 13
2.999689
 23
9.186061
 33
0.0
  0
SOLID
  5
167C
330
E1F
100
AcDbEntity
  8
DIM
 62
     0
100
AcDbTrace
 10
2.939688999999999
 20
10.484061
 30
0.0
 11
3.059689
 21
10.484061
 31
0.0
 12
2.999689
 22
10.12406099999999
 32
0.0
 13
2.999689
 23
10.12406099999999
 33
0.0
  0
MTEXT
  5
167D
330
E1F
100
AcDbEntity
  8
DIM
 62
     0
100
AcDbMText
 10
2.999688999999998
 20
9.655060999999999
 30
0.0
 40
0.25
 41
0.0
 71
     5
 72
     1
  1
\A1;0.938
 73
     1
 44
1.0
  0
POINT
  5
167E
330
E1F
100
AcDbEntity
  8
DEFPOINTS
 62
     0
100
AcDbPoint
 10
3.825702999999999
 20
9.186061
 30
0.0
  0
POINT
  5
167F
330
E1F
100
AcDbEntity
  8
DEFPOINTS
 62
     0
100
AcDbPoint
 10
3.825702999999999
 20
10.12406099999999
 30
0.0
  0
POINT
  5
1680
330
E1F
100
AcDbEntity
  8
DEFPOINTS
 62
     0
100
AcDbPoint
 10
2.999689
 20
10.12406099999999
 30
0.0
  0
ENDBLK
  5
E2B
330
E1F
100
AcDbEntity
  8
0
100
AcDbBlockEnd
  0
BLOCK
  5
E38
330
E2D
100
AcDbEntity
  8
0
100
AcDbBlockBegin
  2
*D22
 70
     1
 10
0.0
 20
0.0
 30
0.0
  3
*D22
  1

  0
LINE
  5
16FB
330
E2D
100
AcDbEntity
  8
DIM
 62
     0
370
    -2
100
AcDbLine
 10
3.699702999999999
 20
10.12406099999999
 30
0.0
 11
0.853689000000001
 21
10.12406099999999
 31
0.0
  0
LINE
  5
16FC
330
E2D
100
AcDbEntity
  8
DIM
 62
     0
370
    -2
100
AcDbLine
 10
3.699702999999999
 20
5.400060999999999
 30
0.0
 11
0.8536889999999999
 21
5.400061
 31
0.0
  0
LINE
  5
16FD
330
E2D
100
AcDbEntity
  8
DIM
 62
     0
370
    -2
100
AcDbLine
 10
1.039689
 20
9.764060999999999
 30
0.0
 11
1.039689
 21
8.067061
 31
0.0
  0
LINE
  5
16FE
330
E2D
100
AcDbEntity
  8
DIM
 62
     0
370
    -2
100
AcDbLine
 10
1.039689
 20
5.760061000000001
 30
0.0
 11
1.039689
 21
7.457061000000001
 31
0.0
  0
SOLID
  5
16FF
330
E2D
100
AcDbEntity
  8
DIM
 62
     0
100
AcDbTrace
 10
0.9796890000000008
 20
9.764060999999999
 30
0.0
 11
1.099689000000001
 21
9.764060999999999
 31
0.0
 12
1.039689
 22
10.12406099999999
 32
0.0
 13
1.039689
 23
10.12406099999999
 33
0.0
  0
SOLID
  5
1700
330
E2D
100
AcDbEntity
  8
DIM
 62
     0
100
AcDbTrace
 10
0.9796890000000001
 20
5.760061000000001
 30
0.0
 11
1.099689
 21
5.760061000000001
 31
0.0
 12
1.039688999999999
 22
5.400061
 32
0.0
 13
1.039688999999999
 23
5.400061
 33
0.0
  0
MTEXT
  5
1701
330
E2D
100
AcDbEntity
  8
DIM
 62
     0
100
AcDbMText
 10
1.039688999999999
 20
7.762061
 30
0.0
 40
0.25
 41
0.0
 71
     5
 72
     1
  1
\A1;4.724
 73
     1
 44
1.0
  0
POINT
  5
1702
330
E2D
100
AcDbEntity
  8
DEFPOINTS
 62
     0
100
AcDbPoint
 10
3.825702999999999
 20
10.12406099999999
 30
0.0
  0
POINT
  5
1703
330
E2D
100
AcDbEntity
  8
DEFPOINTS
 62
     0
100
AcDbPoint
 10
3.825702999999999
 20
5.400060999999999
 30
0.0
  0
POINT
  5
1704
330
E2D
100
AcDbEntity
  8
DEFPOINTS
 62
     0
100
AcDbPoint
 10
1.039688999999999
 20
5.400061
 30
0.0
  0
ENDBLK
  5
E39
330
E2D
100
AcDbEntity
  8
0
100
AcDbBlockEnd
  0
BLOCK
  5
E46
330
E3B
100
AcDbEntity
  8
0
100
AcDbBlockBegin
  2
*D23
 70
     1
 10
0.0
 20
0.0
 30
0.0
  3
*D23
  1

  0
LINE
  5
16E7
330
E3B
100
AcDbEntity
  8
DIM
 62
     0
370
    -2
100
AcDbLine
 10
5.811702999999999
 20
5.793060999999999
 30
0.0
 11
4.908919999999999
 21
5.793060999999999
 31
0.0
  0
LINE
  5
16E8
330
E3B
100
AcDbEntity
  8
DIM
 62
     0
370
    -2
100
AcDbLine
 10
5.811702999999999
 20
9.731061
 30
0.0
 11
4.90892
 21
9.731061
 31
0.0
  0
LINE
  5
16E9
330
E3B
100
AcDbEntity
  8
DIM
 62
     0
370
    -2
100
AcDbLine
 10
5.09492
 20
6.153061
 30
0.0
 11
5.09492
 21
7.457061000000001
 31
0.0
  0
LINE
  5
16EA
330
E3B
100
AcDbEntity
  8
DIM
 62
     0
370
    -2
100
AcDbLine
 10
5.09492
 20
9.371061
 30
0.0
 11
5.09492
 21
8.067061
 31
0.0
  0
SOLID
  5
16EB
330
E3B
100
AcDbEntity
  8
DIM
 62
     0
100
AcDbTrace
 10
5.03492
 20
6.153061
 30
0.0
 11
5.154919999999999
 21
6.153061
 31
0.0
 12
5.094919999999999
 22
5.793060999999999
 32
0.0
 13
5.094919999999999
 23
5.793060999999999
 33
0.0
  0
SOLID
  5
16EC
330
E3B
100
AcDbEntity
  8
DIM
 62
     0
100
AcDbTrace
 10
5.03492
 20
9.371061
 30
0.0
 11
5.154919999999999
 21
9.371061
 31
0.0
 12
5.09492
 22
9.731061
 32
0.0
 13
5.09492
 23
9.731061
 33
0.0
  0
MTEXT
  5
16ED
330
E3B
100
AcDbEntity
  8
DIM
 62
     0
100
AcDbMText
 10
5.094919999999999
 20
7.762061000000001
 30
0.0
 40
0.25
 41
0.0
 71
     5
 72
     1
  1
\A1;3.938
 73
     1
 44
1.0
  0
POINT
  5
16EE
330
E3B
100
AcDbEntity
  8
DEFPOINTS
 62
     0
100
AcDbPoint
 10
5.937702999999999
 20
5.793060999999999
 30
0.0
  0
POINT
  5
16EF
330
E3B
100
AcDbEntity
  8
DEFPOINTS
 62
     0
100
AcDbPoint
 10
5.937702999999999
 20
9.731061
 30
0.0
  0
POINT
  5
16F0
330
E3B
100
AcDbEntity
  8
DEFPOINTS
 62
     0
100
AcDbPoint
 10
5.09492
 20
9.731061
 30
0.0
  0
ENDBLK
  5
E47
330
E3B
100
AcDbEntity
  8
0
100
AcDbBlockEnd
  0
BLOCK
  5
E54
330
E49
100
AcDbEntity
  8
0
100
AcDbBlockBegin
  2
*D24
 70
     1
 10
0.0
 20
0.0
 30
0.0
  3
*D24
  1

  0
LINE
  5
16DD
330
E49
100
AcDbEntity
  8
DIM
 62
     0
370
    -2
100
AcDbLine
 10
3.693702999999999
 20
7.147322
 30
0.0
 11
3.693702999999999
 21
7.471092999999998
 31
0.0
  0
LINE
  5
16DE
330
E49
100
AcDbEntity
  8
DIM
 62
     0
370
    -2
100
AcDbLine
 10
8.181703
 20
7.147322
 30
0.0
 11
8.181703
 21
7.471092999999998
 31
0.0
  0
LINE
  5
16DF
330
E49
100
AcDbEntity
  8
DIM
 62
     0
370
    -2
100
AcDbLine
 10
4.053702999999999
 20
7.285092999999998
 30
0.0
 11
5.382703
 21
7.285092999999998
 31
0.0
  0
LINE
  5
16E0
330
E49
100
AcDbEntity
  8
DIM
 62
     0
370
    -2
100
AcDbLine
 10
7.821703
 20
7.285092999999998
 30
0.0
 11
6.492702999999999
 21
7.285092999999998
 31
0.0
  0
SOLID
  5
16E1
330
E49
100
AcDbEntity
  8
DIM
 62
     0
100
AcDbTrace
 10
4.053702999999999
 20
7.345092999999998
 30
0.0
 11
4.053702999999999
 21
7.225092999999999
 31
0.0
 12
3.693702999999999
 22
7.285092999999998
 32
0.0
 13
3.693702999999999
 23
7.285092999999998
 33
0.0
  0
SOLID
  5
16E2
330
E49
100
AcDbEntity
  8
DIM
 62
     0
100
AcDbTrace
 10
7.821703
 20
7.345092999999998
 30
0.0
 11
7.821703
 21
7.225092999999999
 31
0.0
 12
8.181703
 22
7.285092999999998
 32
0.0
 13
8.181703
 23
7.285092999999998
 33
0.0
  0
MTEXT
  5
16E3
330
E49
100
AcDbEntity
  8
DIM
 62
     0
100
AcDbMText
 10
5.937702999999999
 20
7.285092999999998
 30
0.0
 40
0.25
 41
0.0
 71
     5
 72
     1
  1
\A1;4.488
 73
     1
 44
1.0
  0
POINT
  5
16E4
330
E49
100
AcDbEntity
  8
DEFPOINTS
 62
     0
100
AcDbPoint
 10
3.693702999999999
 20
7.021322
 30
0.0
  0
POINT
  5
16E5
330
E49
100
AcDbEntity
  8
DEFPOINTS
 62
     0
100
AcDbPoint
 10
8.181703
 20
7.021322
 30
0.0
  0
POINT
  5
16E6
330
E49
100
AcDbEntity
  8
DEFPOINTS
 62
     0
100
AcDbPoint
 10
8.181703
 20
7.285092999999998
 30
0.0
  0
ENDBLK
  5
E55
330
E49
100
AcDbEntity
  8
0
100
AcDbBlockEnd
  0
BLOCK
  5
E62
330
E57
100
AcDbEntity
  8
0
100
AcDbBlockBegin
  2
*D25
 70
     1
 10
0.0
 20
0.0
 30
0.0
  3
*D25
  1

  0
LINE
  5
1741
330
E57
100
AcDbEntity
  8
DIM
 62
     0
370
    -2
100
AcDbLine
 10
6.756225999999998
 20
5.518061
 30
0.0
 11
6.601725999999997
 21
5.518061
 31
0.0
  0
LINE
  5
1742
330
E57
100
AcDbEntity
  8
DIM
 62
     0
370
    -2
100
AcDbLine
 10
6.756225999999998
 20
10.006061
 30
0.0
 11
6.601725999999999
 21
10.006061
 31
0.0
  0
LINE
  5
1743
330
E57
100
AcDbEntity
  8
DIM
 62
     0
370
    -2
100
AcDbLine
 10
6.787725999999997
 20
5.878061
 30
0.0
 11
6.787725999999998
 21
7.457061000000001
 31
0.0
  0
LINE
  5
1744
330
E57
100
AcDbEntity
  8
DIM
 62
     0
370
    -2
100
AcDbLine
 10
6.787725999999998
 20
9.646061000000001
 30
0.0
 11
6.787725999999998
 21
8.067061
 31
0.0
  0
SOLID
  5
1745
330
E57
100
AcDbEntity
  8
DIM
 62
     0
100
AcDbTrace
 10
6.727725999999997
 20
5.878061
 30
0.0
 11
6.847725999999997
 21
5.878061
 31
0.0
 12
6.787725999999997
 22
5.518061
 32
0.0
 13
6.787725999999997
 23
5.518061
 33
0.0
  0
SOLID
  5
1746
330
E57
100
AcDbEntity
  8
DIM
 62
     0
100
AcDbTrace
 10
6.727725999999998
 20
9.646061000000001
 30
0.0
 11
6.847725999999997
 21
9.646061000000001
 31
0.0
 12
6.787725999999999
 22
10.006061
 32
0.0
 13
6.787725999999999
 23
10.006061
 33
0.0
  0
MTEXT
  5
1747
330
E57
100
AcDbEntity
  8
DIM
 62
     0
100
AcDbMText
 10
6.787725999999997
 20
7.762061000000002
 30
0.0
 40
0.25
 41
0.0
 71
     5
 72
     1
  1
\A1;4.488
 73
     1
 44
1.0
  0
POINT
  5
1748
330
E57
100
AcDbEntity
  8
DEFPOINTS
 62
     0
100
AcDbPoint
 10
6.882225999999999
 20
5.518061
 30
0.0
  0
POINT
  5
1749
330
E57
100
AcDbEntity
  8
DEFPOINTS
 62
     0
100
AcDbPoint
 10
6.882225999999999
 20
10.006061
 30
0.0
  0
POINT
  5
174A
330
E57
100
AcDbEntity
  8
DEFPOINTS
 62
     0
100
AcDbPoint
 10
6.787725999999999
 20
10.006061
 30
0.0
  0
ENDBLK
  5
E63
330
E57
100
AcDbEntity
  8
0
100
AcDbBlockEnd
  0
BLOCK
  5
E70
330
E65
100
AcDbEntity
  8
0
100
AcDbBlockBegin
  2
*D26
 70
     1
 10
0.0
 20
0.0
 30
0.0
  3
*D26
  1

  0
LINE
  5
16D2
330
E65
100
AcDbEntity
  8
DIM
 62
     0
370
    -2
100
AcDbLine
 10
6.756225999999998
 20
5.518061
 30
0.0
 11
6.601725999999999
 21
5.518061
 31
0.0
  0
LINE
  5
16D3
330
E65
100
AcDbEntity
  8
DIM
 62
     0
370
    -2
100
AcDbLine
 10
6.756225999999998
 20
5.400060999999999
 30
0.0
 11
6.601725999999999
 21
5.400060999999999
 31
0.0
  0
LINE
  5
16D4
330
E65
100
AcDbEntity
  8
DIM
 62
     0
370
    -2
100
AcDbLine
 10
6.787725999999999
 20
5.878061
 30
0.0
 11
6.787726
 21
6.238061
 31
0.0
  0
LINE
  5
16D5
330
E65
100
AcDbEntity
  8
DIM
 62
     0
370
    -2
100
AcDbLine
 10
6.787725999999999
 20
5.040060999999999
 30
0.0
 11
6.787725999999999
 21
4.680061
 31
0.0
  0
LINE
  5
16D6
330
E65
100
AcDbEntity
  8
DIM
 62
     0
370
    -2
100
AcDbLine
 10
6.787725999999999
 20
4.680061
 30
0.0
 11
6.427725999999998
 21
4.680061
 31
0.0
  0
SOLID
  5
16D7
330
E65
100
AcDbEntity
  8
DIM
 62
     0
100
AcDbTrace
 10
6.727725999999999
 20
5.878061
 30
0.0
 11
6.847725999999998
 21
5.878061
 31
0.0
 12
6.787725999999999
 22
5.518061
 32
0.0
 13
6.787725999999999
 23
5.518061
 33
0.0
  0
SOLID
  5
16D8
330
E65
100
AcDbEntity
  8
DIM
 62
     0
100
AcDbTrace
 10
6.727725999999999
 20
5.040060999999999
 30
0.0
 11
6.847725999999998
 21
5.040060999999999
 31
0.0
 12
6.787725999999999
 22
5.400060999999999
 32
0.0
 13
6.787725999999999
 23
5.400060999999999
 33
0.0
  0
MTEXT
  5
16D9
330
E65
100
AcDbEntity
  8
DIM
 62
     0
100
AcDbMText
 10
5.544600999999998
 20
4.680061000000002
 30
0.0
 40
0.25
 41
0.0
 71
     5
 72
     1
  1
\A1;0.118 TYP.
 73
     1
 44
1.0
  0
POINT
  5
16DA
330
E65
100
AcDbEntity
  8
DEFPOINTS
 62
     0
100
AcDbPoint
 10
6.882225999999999
 20
5.518061
 30
0.0
  0
POINT
  5
16DB
330
E65
100
AcDbEntity
  8
DEFPOINTS
 62
     0
100
AcDbPoint
 10
6.882225999999999
 20
5.400060999999999
 30
0.0
  0
POINT
  5
16DC
330
E65
100
AcDbEntity
  8
DEFPOINTS
 62
     0
100
AcDbPoint
 10
6.787725999999999
 20
5.400060999999999
 30
0.0
  0
ENDBLK
  5
E71
330
E65
100
AcDbEntity
  8
0
100
AcDbBlockEnd
  0
BLOCK
  5
E7E
330
E73
100
AcDbEntity
  8
0
100
AcDbBlockBegin
  2
*D27
 70
     1
 10
0.0
 20
0.0
 30
0.0
  3
*D27
  1

  0
LINE
  5
166C
330
E73
100
AcDbEntity
  8
DIM
 62
     0
370
    -2
100
AcDbLine
 10
5.811702999999999
 20
9.731061
 30
0.0
 11
4.399111999999999
 21
9.731061
 31
0.0
  0
LINE
  5
166D
330
E73
100
AcDbEntity
  8
DIM
 62
     0
370
    -2
100
AcDbLine
 10
5.189365999999999
 20
10.12406099999999
 30
0.0
 11
4.399112
 21
10.12406099999999
 31
0.0
  0
LINE
  5
166E
330
E73
100
AcDbEntity
  8
DIM
 62
     0
370
    -2
100
AcDbLine
 10
4.585111999999999
 20
9.371061
 30
0.0
 11
4.585111999999999
 21
9.011060999999999
 31
0.0
  0
LINE
  5
166F
330
E73
100
AcDbEntity
  8
DIM
 62
     0
370
    -2
100
AcDbLine
 10
4.585112
 20
10.484061
 30
0.0
 11
4.585112
 21
10.844061
 31
0.0
  0
LINE
  5
1670
330
E73
100
AcDbEntity
  8
DIM
 62
     0
370
    -2
100
AcDbLine
 10
4.585112
 20
10.844061
 30
0.0
 11
4.945112
 21
10.844061
 31
0.0
  0
SOLID
  5
1671
330
E73
100
AcDbEntity
  8
DIM
 62
     0
100
AcDbTrace
 10
4.525112
 20
9.371061
 30
0.0
 11
4.645111999999999
 21
9.371061
 31
0.0
 12
4.585111999999999
 22
9.731061
 32
0.0
 13
4.585111999999999
 23
9.731061
 33
0.0
  0
SOLID
  5
1672
330
E73
100
AcDbEntity
  8
DIM
 62
     0
100
AcDbTrace
 10
4.525112
 20
10.484061
 30
0.0
 11
4.645112
 21
10.484061
 31
0.0
 12
4.585112
 22
10.12406099999999
 32
0.0
 13
4.585112
 23
10.12406099999999
 33
0.0
  0
MTEXT
  5
1673
330
E73
100
AcDbEntity
  8
DIM
 62
     0
100
AcDbMText
 10
5.484486999999998
 20
10.844061
 30
0.0
 40
0.25
 41
0.0
 71
     5
 72
     1
  1
\A1;0.393
 73
     1
 44
1.0
  0
POINT
  5
1674
330
E73
100
AcDbEntity
  8
DEFPOINTS
 62
     0
100
AcDbPoint
 10
5.937702999999999
 20
9.731061
 30
0.0
  0
POINT
  5
1675
330
E73
100
AcDbEntity
  8
DEFPOINTS
 62
     0
100
AcDbPoint
 10
5.315366
 20
10.12406099999999
 30
0.0
  0
POINT
  5
1676
330
E73
100
AcDbEntity
  8
DEFPOINTS
 62
     0
100
AcDbPoint
 10
4.585112
 20
10.12406099999999
 30
0.0
  0
ENDBLK
  5
E7F
330
E73
100
AcDbEntity
  8
0
100
AcDbBlockEnd
  0
BLOCK
  5
E9A
330
E8F
100
AcDbEntity
  8
0
100
AcDbBlockBegin
  2
*D28
 70
     1
 10
0.0
 20
0.0
 30
0.0
  3
*D28
  1

  0
LINE
  5
1643
330
E8F
100
AcDbEntity
  8
DIM
 62
     0
370
    -2
100
AcDbLine
 10
15.484156
 20
17.25243999999999
 30
0.0
 11
15.484156
 21
18.4886
 31
0.0
  0
LINE
  5
1644
330
E8F
100
AcDbEntity
  8
DIM
 62
     0
370
    -2
100
AcDbLine
 10
16.902156
 20
17.31994
 30
0.0
 11
16.902156
 21
18.4886
 31
0.0
  0
LINE
  5
1645
330
E8F
100
AcDbEntity
  8
DIM
 62
     0
370
    -2
100
AcDbLine
 10
15.124156
 20
18.3026
 30
0.0
 11
14.764156
 21
18.3026
 31
0.0
  0
LINE
  5
1646
330
E8F
100
AcDbEntity
  8
DIM
 62
     0
370
    -2
100
AcDbLine
 10
17.262156
 20
18.3026
 30
0.0
 11
17.622156
 21
18.3026
 31
0.0
  0
SOLID
  5
1647
330
E8F
100
AcDbEntity
  8
DIM
 62
     0
100
AcDbTrace
 10
15.124156
 20
18.3626
 30
0.0
 11
15.124156
 21
18.2426
 31
0.0
 12
15.484156
 22
18.3026
 32
0.0
 13
15.484156
 23
18.3026
 33
0.0
  0
SOLID
  5
1648
330
E8F
100
AcDbEntity
  8
DIM
 62
     0
100
AcDbTrace
 10
17.262156
 20
18.3626
 30
0.0
 11
17.262156
 21
18.2426
 31
0.0
 12
16.902156
 22
18.3026
 32
0.0
 13
16.902156
 23
18.3026
 33
0.0
  0
MTEXT
  5
1649
330
E8F
100
AcDbEntity
  8
DIM
 62
     0
100
AcDbMText
 10
16.193156
 20
18.3026
 30
0.0
 40
0.25
 41
0.0
 71
     5
 72
     1
  1
\A1;0.355
 73
     1
 44
1.0
  0
POINT
  5
164A
330
E8F
100
AcDbEntity
  8
DEFPOINTS
 62
     0
100
AcDbPoint
 10
15.484156
 20
17.12644
 30
0.0
  0
POINT
  5
164B
330
E8F
100
AcDbEntity
  8
DEFPOINTS
 62
     0
100
AcDbPoint
 10
16.902156
 20
17.19393999999999
 30
0.0
  0
POINT
  5
164C
330
E8F
100
AcDbEntity
  8
DEFPOINTS
 62
     0
100
AcDbPoint
 10
16.902156
 20
18.3026
 30
0.0
  0
ENDBLK
  5
E9B
330
E8F
100
AcDbEntity
  8
0
100
AcDbBlockEnd
  0
BLOCK
  5
EA8
330
E9D
100
AcDbEntity
  8
0
100
AcDbBlockBegin
  2
*D29
 70
     1
 10
0.0
 20
0.0
 30
0.0
  3
*D29
  1

  0
LINE
  5
1639
330
E9D
100
AcDbEntity
  8
DIM
 62
     0
370
    -2
100
AcDbLine
 10
15.484156
 20
17.25243999999999
 30
0.0
 11
15.484156
 21
19.05059999999999
 31
0.0
  0
LINE
  5
163A
330
E9D
100
AcDbEntity
  8
DIM
 62
     0
370
    -2
100
AcDbLine
 10
18.320156
 20
17.25243999999999
 30
0.0
 11
18.320156
 21
19.05059999999999
 31
0.0
  0
LINE
  5
163B
330
E9D
100
AcDbEntity
  8
DIM
 62
     0
370
    -2
100
AcDbLine
 10
15.84415599999999
 20
18.86459999999999
 30
0.0
 11
16.378406
 21
18.86459999999999
 31
0.0
  0
LINE
  5
163C
330
E9D
100
AcDbEntity
  8
DIM
 62
     0
370
    -2
100
AcDbLine
 10
17.960156
 20
18.86459999999999
 30
0.0
 11
17.425906
 21
18.86459999999999
 31
0.0
  0
SOLID
  5
163D
330
E9D
100
AcDbEntity
  8
DIM
 62
     0
100
AcDbTrace
 10
15.84415599999999
 20
18.92459999999999
 30
0.0
 11
15.84415599999999
 21
18.8046
 31
0.0
 12
15.484156
 22
18.86459999999999
 32
0.0
 13
15.484156
 23
18.86459999999999
 33
0.0
  0
SOLID
  5
163E
330
E9D
100
AcDbEntity
  8
DIM
 62
     0
100
AcDbTrace
 10
17.960156
 20
18.92459999999999
 30
0.0
 11
17.960156
 21
18.8046
 31
0.0
 12
18.320156
 22
18.86459999999999
 32
0.0
 13
18.320156
 23
18.86459999999999
 33
0.0
  0
MTEXT
  5
163F
330
E9D
100
AcDbEntity
  8
DIM
 62
     0
100
AcDbMText
 10
16.902156
 20
18.86459999999999
 30
0.0
 40
0.25
 41
0.0
 71
     5
 72
     1
  1
\A1;0.709
 73
     1
 44
1.0
  0
POINT
  5
1640
330
E9D
100
AcDbEntity
  8
DEFPOINTS
 62
     0
100
AcDbPoint
 10
15.484156
 20
17.12644
 30
0.0
  0
POINT
  5
1641
330
E9D
100
AcDbEntity
  8
DEFPOINTS
 62
     0
100
AcDbPoint
 10
18.320156
 20
17.12644
 30
0.0
  0
POINT
  5
1642
330
E9D
100
AcDbEntity
  8
DEFPOINTS
 62
     0
100
AcDbPoint
 10
18.320156
 20
18.86459999999999
 30
0.0
  0
ENDBLK
  5
EA9
330
E9D
100
AcDbEntity
  8
0
100
AcDbBlockEnd
  0
BLOCK
  5
EB6
330
EAB
100
AcDbEntity
  8
0
100
AcDbBlockBegin
  2
*D30
 70
     1
 10
0.0
 20
0.0
 30
0.0
  3
*D30
  1

  0
LINE
  5
162F
330
EAB
100
AcDbEntity
  8
DIM
 62
     0
370
    -2
100
AcDbLine
 10
15.594156
 20
16.89043999999999
 30
0.0
 11
14.437842
 21
16.89043999999999
 31
0.0
  0
LINE
  5
1630
330
EAB
100
AcDbEntity
  8
DIM
 62
     0
370
    -2
100
AcDbLine
 10
15.594156
 20
17.36244
 30
0.0
 11
14.437842
 21
17.36244
 31
0.0
  0
LINE
  5
1631
330
EAB
100
AcDbEntity
  8
DIM
 62
     0
370
    -2
100
AcDbLine
 10
14.623842
 20
16.53043999999999
 30
0.0
 11
14.623842
 21
16.17043999999999
 31
0.0
  0
LINE
  5
1632
330
EAB
100
AcDbEntity
  8
DIM
 62
     0
370
    -2
100
AcDbLine
 10
14.623842
 20
17.72243999999999
 30
0.0
 11
14.623842
 21
18.08244
 31
0.0
  0
SOLID
  5
1633
330
EAB
100
AcDbEntity
  8
DIM
 62
     0
100
AcDbTrace
 10
14.563842
 20
16.53043999999999
 30
0.0
 11
14.683842
 21
16.53043999999999
 31
0.0
 12
14.623842
 22
16.89043999999999
 32
0.0
 13
14.623842
 23
16.89043999999999
 33
0.0
  0
SOLID
  5
1634
330
EAB
100
AcDbEntity
  8
DIM
 62
     0
100
AcDbTrace
 10
14.563842
 20
17.72243999999999
 30
0.0
 11
14.683842
 21
17.72243999999999
 31
0.0
 12
14.623842
 22
17.36244
 32
0.0
 13
14.623842
 23
17.36244
 33
0.0
  0
MTEXT
  5
1635
330
EAB
100
AcDbEntity
  8
DIM
 62
     0
100
AcDbMText
 10
14.62384199999999
 20
17.12644
 30
0.0
 40
0.25
 41
0.0
 71
     5
 72
     1
  1
\A1;0.118
 73
     1
 44
1.0
  0
POINT
  5
1636
330
EAB
100
AcDbEntity
  8
DEFPOINTS
 62
     0
100
AcDbPoint
 10
15.720156
 20
16.89043999999999
 30
0.0
  0
POINT
  5
1637
330
EAB
100
AcDbEntity
  8
DEFPOINTS
 62
     0
100
AcDbPoint
 10
15.720156
 20
17.36244
 30
0.0
  0
POINT
  5
1638
330
EAB
100
AcDbEntity
  8
DEFPOINTS
 62
     0
100
AcDbPoint
 10
14.623842
 20
17.36244
 30
0.0
  0
ENDBLK
  5
EB7
330
EAB
100
AcDbEntity
  8
0
100
AcDbBlockEnd
  0
BLOCK
  5
EC4
330
EB9
100
AcDbEntity
  8
0
100
AcDbBlockBegin
  2
*D31
 70
     1
 10
0.0
 20
0.0
 30
0.0
  3
*D31
  1

  0
LINE
  5
17ED
330
EB9
100
AcDbEntity
  8
DIM
 62
     0
370
    -2
100
AcDbLine
 10
17.028156
 20
17.62643999999999
 30
0.0
 11
19.208654
 21
17.62643999999999
 31
0.0
  0
LINE
  5
17EE
330
EB9
100
AcDbEntity
  8
DIM
 62
     0
370
    -2
100
AcDbLine
 10
17.028156
 20
16.62644
 30
0.0
 11
19.208654
 21
16.62644
 31
0.0
  0
LINE
  5
17EF
330
EB9
100
AcDbEntity
  8
DIM
 62
     0
370
    -2
100
AcDbLine
 10
19.022654
 20
17.98643999999999
 30
0.0
 11
19.022654
 21
18.34643999999999
 31
0.0
  0
LINE
  5
17F0
330
EB9
100
AcDbEntity
  8
DIM
 62
     0
370
    -2
100
AcDbLine
 10
19.022654
 20
16.26643999999999
 30
0.0
 11
19.022654
 21
15.90643999999999
 31
0.0
  0
SOLID
  5
17F1
330
EB9
100
AcDbEntity
  8
DIM
 62
     0
100
AcDbTrace
 10
18.962654
 20
17.98643999999999
 30
0.0
 11
19.08265399999999
 21
17.98643999999999
 31
0.0
 12
19.022654
 22
17.62643999999999
 32
0.0
 13
19.022654
 23
17.62643999999999
 33
0.0
  0
SOLID
  5
17F2
330
EB9
100
AcDbEntity
  8
DIM
 62
     0
100
AcDbTrace
 10
18.962654
 20
16.26643999999999
 30
0.0
 11
19.08265399999999
 21
16.26643999999999
 31
0.0
 12
19.022654
 22
16.62644
 32
0.0
 13
19.022654
 23
16.62644
 33
0.0
  0
MTEXT
  5
17F3
330
EB9
100
AcDbEntity
  8
DIM
 62
     0
100
AcDbMText
 10
19.02265399999999
 20
17.12644
 30
0.0
 40
0.25
 41
0.0
 71
     5
 72
     1
  1
\A1;0.250
 73
     1
 44
1.0
  0
POINT
  5
17F4
330
EB9
100
AcDbEntity
  8
DEFPOINTS
 62
     0
100
AcDbPoint
 10
16.902156
 20
17.62643999999999
 30
0.0
  0
POINT
  5
17F5
330
EB9
100
AcDbEntity
  8
DEFPOINTS
 62
     0
100
AcDbPoint
 10
16.902156
 20
16.62644
 30
0.0
  0
POINT
  5
17F6
330
EB9
100
AcDbEntity
  8
DEFPOINTS
 62
     0
100
AcDbPoint
 10
19.022654
 20
16.62644
 30
0.0
  0
ENDBLK
  5
EC5
330
EB9
100
AcDbEntity
  8
0
100
AcDbBlockEnd
  0
BLOCK
  5
EDC
330
ED1
100
AcDbEntity
  8
0
100
AcDbBlockBegin
  2
*D32
 70
     1
 10
0.0
 20
0.0
 30
0.0
  3
*D32
  1

  0
LINE
  5
1AFE
330
ED1
100
AcDbEntity
  8
DIM
 62
     0
370
    -2
100
AcDbLine
 10
23.15694375438674
 20
9.848060999999999
 30
0.0
 11
23.96188275438674
 21
9.848060999999999
 31
0.0
  0
LINE
  5
1AFF
330
ED1
100
AcDbEntity
  8
DIM
 62
     0
370
    -2
100
AcDbLine
 10
23.18294375438673
 20
10.12406099999999
 30
0.0
 11
23.96188275438674
 21
10.12406099999999
 31
0.0
  0
LINE
  5
1B00
330
ED1
100
AcDbEntity
  8
DIM
 62
     0
370
    -2
100
AcDbLine
 10
23.77588275438673
 20
9.488061
 30
0.0
 11
23.77588275438673
 21
9.128060999999998
 31
0.0
  0
LINE
  5
1B01
330
ED1
100
AcDbEntity
  8
DIM
 62
     0
370
    -2
100
AcDbLine
 10
23.77588275438673
 20
10.484061
 30
0.0
 11
23.77588275438673
 21
10.844061
 31
0.0
  0
LINE
  5
1B02
330
ED1
100
AcDbEntity
  8
DIM
 62
     0
370
    -2
100
AcDbLine
 10
23.77588275438673
 20
10.844061
 30
0.0
 11
24.13588275438673
 21
10.844061
 31
0.0
  0
SOLID
  5
1B03
330
ED1
100
AcDbEntity
  8
DIM
 62
     0
100
AcDbTrace
 10
23.71588275438674
 20
9.488061
 30
0.0
 11
23.83588275438673
 21
9.488061
 31
0.0
 12
23.77588275438673
 22
9.848060999999999
 32
0.0
 13
23.77588275438673
 23
9.848060999999999
 33
0.0
  0
SOLID
  5
1B04
330
ED1
100
AcDbEntity
  8
DIM
 62
     0
100
AcDbTrace
 10
23.71588275438674
 20
10.484061
 30
0.0
 11
23.83588275438673
 21
10.484061
 31
0.0
 12
23.77588275438673
 22
10.12406099999999
 32
0.0
 13
23.77588275438673
 23
10.12406099999999
 33
0.0
  0
MTEXT
  5
1B05
330
ED1
100
AcDbEntity
  8
DIM
 62
     0
100
AcDbMText
 10
24.67525775438673
 20
10.844061
 30
0.0
 40
0.25
 41
0.0
 71
     5
 72
     1
  1
\A1;0.276
 73
     1
 44
1.0
  0
POINT
  5
1B06
330
ED1
100
AcDbEntity
  8
DEFPOINTS
 62
     0
100
AcDbPoint
 10
23.03094375438673
 20
9.848060999999999
 30
0.0
  0
POINT
  5
1B07
330
ED1
100
AcDbEntity
  8
DEFPOINTS
 62
     0
100
AcDbPoint
 10
23.05694375438673
 20
10.12406099999999
 30
0.0
  0
POINT
  5
1B08
330
ED1
100
AcDbEntity
  8
DEFPOINTS
 62
     0
100
AcDbPoint
 10
23.77588275438673
 20
10.12406099999999
 30
0.0
  0
ENDBLK
  5
EDD
330
ED1
100
AcDbEntity
  8
0
100
AcDbBlockEnd
  0
BLOCK
  5
EEA
330
EDF
100
AcDbEntity
  8
0
100
AcDbBlockBegin
  2
*D33
 70
     1
 10
0.0
 20
0.0
 30
0.0
  3
*D33
  1

  0
LINE
  5
1B28
330
EDF
100
AcDbEntity
  8
DIM
 62
     0
370
    -2
100
AcDbLine
 10
23.15694375438674
 20
5.676060999999999
 30
0.0
 11
23.96188275438673
 21
5.676060999999999
 31
0.0
  0
LINE
  5
1B29
330
EDF
100
AcDbEntity
  8
DIM
 62
     0
370
    -2
100
AcDbLine
 10
23.15694375438674
 20
9.848060999999999
 30
0.0
 11
23.96188275438674
 21
9.848060999999999
 31
0.0
  0
LINE
  5
1B2A
330
EDF
100
AcDbEntity
  8
DIM
 62
     0
370
    -2
100
AcDbLine
 10
23.77588275438673
 20
6.036061
 30
0.0
 11
23.77588275438673
 21
7.457061
 31
0.0
  0
LINE
  5
1B2B
330
EDF
100
AcDbEntity
  8
DIM
 62
     0
370
    -2
100
AcDbLine
 10
23.77588275438673
 20
9.488061
 30
0.0
 11
23.77588275438673
 21
8.067061
 31
0.0
  0
SOLID
  5
1B2C
330
EDF
100
AcDbEntity
  8
DIM
 62
     0
100
AcDbTrace
 10
23.71588275438673
 20
6.036061
 30
0.0
 11
23.83588275438673
 21
6.036061
 31
0.0
 12
23.77588275438673
 22
5.676060999999999
 32
0.0
 13
23.77588275438673
 23
5.676060999999999
 33
0.0
  0
SOLID
  5
1B2D
330
EDF
100
AcDbEntity
  8
DIM
 62
     0
100
AcDbTrace
 10
23.71588275438674
 20
9.488061
 30
0.0
 11
23.83588275438673
 21
9.488061
 31
0.0
 12
23.77588275438673
 22
9.848060999999999
 32
0.0
 13
23.77588275438673
 23
9.848060999999999
 33
0.0
  0
MTEXT
  5
1B2E
330
EDF
100
AcDbEntity
  8
DIM
 62
     0
100
AcDbMText
 10
23.77588275438673
 20
7.762061000000003
 30
0.0
 40
0.25
 41
0.0
 71
     5
 72
     1
  1
\A1;4.172
 73
     1
 44
1.0
  0
POINT
  5
1B2F
330
EDF
100
AcDbEntity
  8
DEFPOINTS
 62
     0
100
AcDbPoint
 10
23.03094375438673
 20
5.676060999999999
 30
0.0
  0
POINT
  5
1B30
330
EDF
100
AcDbEntity
  8
DEFPOINTS
 62
     0
100
AcDbPoint
 10
23.03094375438673
 20
9.848060999999999
 30
0.0
  0
POINT
  5
1B31
330
EDF
100
AcDbEntity
  8
DEFPOINTS
 62
     0
100
AcDbPoint
 10
23.77588275438673
 20
9.848060999999999
 30
0.0
  0
ENDBLK
  5
EEB
330
EDF
100
AcDbEntity
  8
0
100
AcDbBlockEnd
  0
BLOCK
  5
EF8
330
EED
100
AcDbEntity
  8
0
100
AcDbBlockBegin
  2
*D34
 70
     1
 10
0.0
 20
0.0
 30
0.0
  3
*D34
  1

  0
LINE
  5
1B13
330
EED
100
AcDbEntity
  8
DIM
 62
     0
370
    -2
100
AcDbLine
 10
18.70694375438673
 20
5.400060999999999
 30
0.0
 11
17.85305275438673
 21
5.400061
 31
0.0
  0
LINE
  5
1B14
330
EED
100
AcDbEntity
  8
DIM
 62
     0
370
    -2
100
AcDbLine
 10
18.70694375438673
 20
10.12406099999999
 30
0.0
 11
17.85305275438673
 21
10.12406099999999
 31
0.0
  0
LINE
  5
1B15
330
EED
100
AcDbEntity
  8
DIM
 62
     0
370
    -2
100
AcDbLine
 10
18.03905275438673
 20
5.760061
 30
0.0
 11
18.03905275438673
 21
7.457061
 31
0.0
  0
LINE
  5
1B16
330
EED
100
AcDbEntity
  8
DIM
 62
     0
370
    -2
100
AcDbLine
 10
18.03905275438673
 20
9.764060999999999
 30
0.0
 11
18.03905275438673
 21
8.067061
 31
0.0
  0
SOLID
  5
1B17
330
EED
100
AcDbEntity
  8
DIM
 62
     0
100
AcDbTrace
 10
17.97905275438673
 20
5.760061000000001
 30
0.0
 11
18.09905275438673
 21
5.760061
 31
0.0
 12
18.03905275438673
 22
5.400060999999999
 32
0.0
 13
18.03905275438673
 23
5.400060999999999
 33
0.0
  0
SOLID
  5
1B18
330
EED
100
AcDbEntity
  8
DIM
 62
     0
100
AcDbTrace
 10
17.97905275438673
 20
9.764060999999999
 30
0.0
 11
18.09905275438673
 21
9.764060999999999
 31
0.0
 12
18.03905275438673
 22
10.12406099999999
 32
0.0
 13
18.03905275438673
 23
10.12406099999999
 33
0.0
  0
MTEXT
  5
1B19
330
EED
100
AcDbEntity
  8
DIM
 62
     0
100
AcDbMText
 10
18.03905275438673
 20
7.762061000000003
 30
0.0
 40
0.25
 41
0.0
 71
     5
 72
     1
  1
\A1;4.724
 73
     1
 44
1.0
  0
POINT
  5
1B1A
330
EED
100
AcDbEntity
  8
DEFPOINTS
 62
     0
100
AcDbPoint
 10
18.83294375438673
 20
5.400060999999999
 30
0.0
  0
POINT
  5
1B1B
330
EED
100
AcDbEntity
  8
DEFPOINTS
 62
     0
100
AcDbPoint
 10
18.83294375438673
 20
10.12406099999999
 30
0.0
  0
POINT
  5
1B1C
330
EED
100
AcDbEntity
  8
DEFPOINTS
 62
     0
100
AcDbPoint
 10
18.03905275438673
 20
10.12406099999999
 30
0.0
  0
ENDBLK
  5
EF9
330
EED
100
AcDbEntity
  8
0
100
AcDbBlockEnd
  0
BLOCK
  5
F06
330
EFB
100
AcDbEntity
  8
0
100
AcDbBlockBegin
  2
*D35
 70
     1
 10
0.0
 20
0.0
 30
0.0
  3
*D35
  1

  0
LINE
  5
1AF4
330
EFB
100
AcDbEntity
  8
DIM
 62
     0
370
    -2
100
AcDbLine
 10
23.03094375438673
 20
9.974060999999998
 30
0.0
 11
23.03094375438673
 21
11.52336299999999
 31
0.0
  0
LINE
  5
1AF5
330
EFB
100
AcDbEntity
  8
DIM
 62
     0
370
    -2
100
AcDbLine
 10
23.30694375438673
 20
10.000061
 30
0.0
 11
23.30694375438673
 21
11.52336299999999
 31
0.0
  0
LINE
  5
1AF6
330
EFB
100
AcDbEntity
  8
DIM
 62
     0
370
    -2
100
AcDbLine
 10
22.67094375438673
 20
11.337363
 30
0.0
 11
22.31094375438674
 21
11.337363
 31
0.0
  0
LINE
  5
1AF7
330
EFB
100
AcDbEntity
  8
DIM
 62
     0
370
    -2
100
AcDbLine
 10
23.66694375438673
 20
11.337363
 30
0.0
 11
24.02694375438673
 21
11.337363
 31
0.0
  0
SOLID
  5
1AF8
330
EFB
100
AcDbEntity
  8
DIM
 62
     0
100
AcDbTrace
 10
22.67094375438673
 20
11.397363
 30
0.0
 11
22.67094375438673
 21
11.277363
 31
0.0
 12
23.03094375438673
 22
11.337363
 32
0.0
 13
23.03094375438673
 23
11.337363
 33
0.0
  0
SOLID
  5
1AF9
330
EFB
100
AcDbEntity
  8
DIM
 62
     0
100
AcDbTrace
 10
23.66694375438673
 20
11.397363
 30
0.0
 11
23.66694375438673
 21
11.277363
 31
0.0
 12
23.30694375438673
 22
11.337363
 32
0.0
 13
23.30694375438673
 23
11.337363
 33
0.0
  0
MTEXT
  5
1AFA
330
EFB
100
AcDbEntity
  8
DIM
 62
     0
100
AcDbMText
 10
24.56631875438673
 20
11.337363
 30
0.0
 40
0.25
 41
0.0
 71
     5
 72
     1
  1
\A1;0.276
 73
     1
 44
1.0
  0
POINT
  5
1AFB
330
EFB
100
AcDbEntity
  8
DEFPOINTS
 62
     0
100
AcDbPoint
 10
23.03094375438673
 20
9.848060999999999
 30
0.0
  0
POINT
  5
1AFC
330
EFB
100
AcDbEntity
  8
DEFPOINTS
 62
     0
100
AcDbPoint
 10
23.30694375438673
 20
9.874060999999999
 30
0.0
  0
POINT
  5
1AFD
330
EFB
100
AcDbEntity
  8
DEFPOINTS
 62
     0
100
AcDbPoint
 10
23.30694375438673
 20
11.337363
 30
0.0
  0
ENDBLK
  5
F07
330
EFB
100
AcDbEntity
  8
0
100
AcDbBlockEnd
  0
BLOCK
  5
F14
330
F09
100
AcDbEntity
  8
0
100
AcDbBlockBegin
  2
*D36
 70
     1
 10
0.0
 20
0.0
 30
0.0
  3
*D36
  1

  0
LINE
  5
1AEA
330
F09
100
AcDbEntity
  8
DIM
 62
     0
370
    -2
100
AcDbLine
 10
23.03094375438673
 20
9.974060999999998
 30
0.0
 11
23.03094375438673
 21
11.52336299999999
 31
0.0
  0
LINE
  5
1AEB
330
F09
100
AcDbEntity
  8
DIM
 62
     0
370
    -2
100
AcDbLine
 10
18.85894375438673
 20
9.974060999999998
 30
0.0
 11
18.85894375438673
 21
11.52336299999999
 31
0.0
  0
LINE
  5
1AEC
330
F09
100
AcDbEntity
  8
DIM
 62
     0
370
    -2
100
AcDbLine
 10
22.67094375438673
 20
11.337363
 30
0.0
 11
21.46869375438673
 21
11.337363
 31
0.0
  0
LINE
  5
1AED
330
F09
100
AcDbEntity
  8
DIM
 62
     0
370
    -2
100
AcDbLine
 10
19.21894375438673
 20
11.337363
 30
0.0
 11
20.42119375438673
 21
11.337363
 31
0.0
  0
SOLID
  5
1AEE
330
F09
100
AcDbEntity
  8
DIM
 62
     0
100
AcDbTrace
 10
22.67094375438673
 20
11.397363
 30
0.0
 11
22.67094375438673
 21
11.277363
 31
0.0
 12
23.03094375438673
 22
11.337363
 32
0.0
 13
23.03094375438673
 23
11.337363
 33
0.0
  0
SOLID
  5
1AEF
330
F09
100
AcDbEntity
  8
DIM
 62
     0
100
AcDbTrace
 10
19.21894375438673
 20
11.397363
 30
0.0
 11
19.21894375438673
 21
11.277363
 31
0.0
 12
18.85894375438673
 22
11.337363
 32
0.0
 13
18.85894375438673
 23
11.337363
 33
0.0
  0
MTEXT
  5
1AF0
330
F09
100
AcDbEntity
  8
DIM
 62
     0
100
AcDbMText
 10
20.94494375438673
 20
11.337363
 30
0.0
 40
0.25
 41
0.0
 71
     5
 72
     1
  1
\A1;4.172
 73
     1
 44
1.0
  0
POINT
  5
1AF1
330
F09
100
AcDbEntity
  8
DEFPOINTS
 62
     0
100
AcDbPoint
 10
23.03094375438673
 20
9.848060999999999
 30
0.0
  0
POINT
  5
1AF2
330
F09
100
AcDbEntity
  8
DEFPOINTS
 62
     0
100
AcDbPoint
 10
18.85894375438673
 20
9.848060999999999
 30
0.0
  0
POINT
  5
1AF3
330
F09
100
AcDbEntity
  8
DEFPOINTS
 62
     0
100
AcDbPoint
 10
18.85894375438673
 20
11.337363
 30
0.0
  0
ENDBLK
  5
F15
330
F09
100
AcDbEntity
  8
0
100
AcDbBlockEnd
  0
BLOCK
  5
F22
330
F17
100
AcDbEntity
  8
0
100
AcDbBlockBegin
  2
*D37
 70
     1
 10
0.0
 20
0.0
 30
0.0
  3
*D37
  1

  0
LINE
  5
1AE0
330
F17
100
AcDbEntity
  8
DIM
 62
     0
370
    -2
100
AcDbLine
 10
23.30694375438673
 20
10.000061
 30
0.0
 11
23.30694375438673
 21
12.015113
 31
0.0
  0
LINE
  5
1AE1
330
F17
100
AcDbEntity
  8
DIM
 62
     0
370
    -2
100
AcDbLine
 10
18.58294375438673
 20
10.000061
 30
0.0
 11
18.58294375438673
 21
12.015113
 31
0.0
  0
LINE
  5
1AE2
330
F17
100
AcDbEntity
  8
DIM
 62
     0
370
    -2
100
AcDbLine
 10
22.94694375438673
 20
11.829113
 30
0.0
 11
21.49994375438673
 21
11.829113
 31
0.0
  0
LINE
  5
1AE3
330
F17
100
AcDbEntity
  8
DIM
 62
     0
370
    -2
100
AcDbLine
 10
18.94294375438673
 20
11.829113
 30
0.0
 11
20.38994375438673
 21
11.829113
 31
0.0
  0
SOLID
  5
1AE4
330
F17
100
AcDbEntity
  8
DIM
 62
     0
100
AcDbTrace
 10
22.94694375438673
 20
11.889113
 30
0.0
 11
22.94694375438673
 21
11.769113
 31
0.0
 12
23.30694375438673
 22
11.829113
 32
0.0
 13
23.30694375438673
 23
11.829113
 33
0.0
  0
SOLID
  5
1AE5
330
F17
100
AcDbEntity
  8
DIM
 62
     0
100
AcDbTrace
 10
18.94294375438673
 20
11.889113
 30
0.0
 11
18.94294375438673
 21
11.769113
 31
0.0
 12
18.58294375438673
 22
11.829113
 32
0.0
 13
18.58294375438673
 23
11.829113
 33
0.0
  0
MTEXT
  5
1AE6
330
F17
100
AcDbEntity
  8
DIM
 62
     0
100
AcDbMText
 10
20.94494375438673
 20
11.829113
 30
0.0
 40
0.25
 41
0.0
 71
     5
 72
     1
  1
\A1;4.724
 73
     1
 44
1.0
  0
POINT
  5
1AE7
330
F17
100
AcDbEntity
  8
DEFPOINTS
 62
     0
100
AcDbPoint
 10
23.30694375438673
 20
9.874060999999999
 30
0.0
  0
POINT
  5
1AE8
330
F17
100
AcDbEntity
  8
DEFPOINTS
 62
     0
100
AcDbPoint
 10
18.58294375438673
 20
9.874060999999999
 30
0.0
  0
POINT
  5
1AE9
330
F17
100
AcDbEntity
  8
DEFPOINTS
 62
     0
100
AcDbPoint
 10
18.58294375438673
 20
11.829113
 30
0.0
  0
ENDBLK
  5
F23
330
F17
100
AcDbEntity
  8
0
100
AcDbBlockEnd
  0
BLOCK
  5
F38
330
F2D
100
AcDbEntity
  8
0
100
AcDbBlockBegin
  2
*D38
 70
     1
 10
0.0
 20
0.0
 30
0.0
  3
*D38
  1

  0
LINE
  5
1B1D
330
F2D
100
AcDbEntity
  8
DIM
 62
     0
370
    -2
100
AcDbLine
 10
20.58907875438674
 20
5.580060999999999
 30
0.0
 11
20.70767175438673
 21
5.580060999999999
 31
0.0
  0
LINE
  5
1B1E
330
F2D
100
AcDbEntity
  8
DIM
 62
     0
370
    -2
100
AcDbLine
 10
20.58907875438674
 20
5.400060999999999
 30
0.0
 11
20.70767175438673
 21
5.400060999999999
 31
0.0
  0
LINE
  5
1B1F
330
F2D
100
AcDbEntity
  8
DIM
 62
     0
370
    -2
100
AcDbLine
 10
20.52167175438673
 20
5.940061
 30
0.0
 11
20.52167175438673
 21
6.300060999999999
 31
0.0
  0
LINE
  5
1B20
330
F2D
100
AcDbEntity
  8
DIM
 62
     0
370
    -2
100
AcDbLine
 10
20.52167175438673
 20
5.040060999999999
 30
0.0
 11
20.52167175438673
 21
4.680061
 31
0.0
  0
LINE
  5
1B21
330
F2D
100
AcDbEntity
  8
DIM
 62
     0
370
    -2
100
AcDbLine
 10
20.52167175438673
 20
4.680061
 30
0.0
 11
20.16167175438674
 21
4.680061
 31
0.0
  0
SOLID
  5
1B22
330
F2D
100
AcDbEntity
  8
DIM
 62
     0
100
AcDbTrace
 10
20.46167175438673
 20
5.940061
 30
0.0
 11
20.58167175438673
 21
5.940061
 31
0.0
 12
20.52167175438673
 22
5.580060999999999
 32
0.0
 13
20.52167175438673
 23
5.580060999999999
 33
0.0
  0
SOLID
  5
1B23
330
F2D
100
AcDbEntity
  8
DIM
 62
     0
100
AcDbTrace
 10
20.46167175438673
 20
5.040060999999999
 30
0.0
 11
20.58167175438673
 21
5.040060999999999
 31
0.0
 12
20.52167175438673
 22
5.400060999999999
 32
0.0
 13
20.52167175438673
 23
5.400060999999999
 33
0.0
  0
MTEXT
  5
1B24
330
F2D
100
AcDbEntity
  8
DIM
 62
     0
100
AcDbMText
 10
19.26292175438673
 20
4.680061000000003
 30
0.0
 40
0.25
 41
0.0
 71
     5
 72
     1
  1
\A1;0.180 TYP.
 73
     1
 44
1.0
  0
POINT
  5
1B25
330
F2D
100
AcDbEntity
  8
DEFPOINTS
 62
     0
100
AcDbPoint
 10
20.46307875438674
 20
5.580060999999999
 30
0.0
  0
POINT
  5
1B26
330
F2D
100
AcDbEntity
  8
DEFPOINTS
 62
     0
100
AcDbPoint
 10
20.46307875438674
 20
5.400060999999999
 30
0.0
  0
POINT
  5
1B27
330
F2D
100
AcDbEntity
  8
DEFPOINTS
 62
     0
100
AcDbPoint
 10
20.52167175438673
 20
5.400060999999999
 30
0.0
  0
ENDBLK
  5
F39
330
F2D
100
AcDbEntity
  8
0
100
AcDbBlockEnd
  0
BLOCK
  5
FDC
330
FD2
100
AcDbEntity
  8
0
100
AcDbBlockBegin
  2
*D39
 70
     1
 10
0.0
 20
0.0
 30
0.0
  3
*D39
  1

  0
LINE
  5
1AD6
330
FD2
100
AcDbEntity
  8
DIM
 62
     0
370
    -2
100
AcDbLine
 10
30.36460059015482
 20
10.25006099999999
 30
0.0
 11
30.36460059015482
 21
10.779
 31
0.0
  0
LINE
  5
1AD7
330
FD2
100
AcDbEntity
  8
DIM
 62
     0
370
    -2
100
AcDbLine
 10
29.18360059015482
 20
10.18756099999999
 30
0.0
 11
29.18360059015482
 21
10.779
 31
0.0
  0
LINE
  5
1AD8
330
FD2
100
AcDbEntity
  8
DIM
 62
     0
370
    -2
100
AcDbLine
 10
30.72460059015481
 20
10.593
 30
0.0
 11
31.08460059015481
 21
10.593
 31
0.0
  0
LINE
  5
1AD9
330
FD2
100
AcDbEntity
  8
DIM
 62
     0
370
    -2
100
AcDbLine
 10
28.82360059015482
 20
10.593
 30
0.0
 11
28.46360059015482
 21
10.593
 31
0.0
  0
SOLID
  5
1ADA
330
FD2
100
AcDbEntity
  8
DIM
 62
     0
100
AcDbTrace
 10
30.72460059015481
 20
10.653
 30
0.0
 11
30.72460059015481
 21
10.53299999999999
 31
0.0
 12
30.36460059015482
 22
10.593
 32
0.0
 13
30.36460059015482
 23
10.593
 33
0.0
  0
SOLID
  5
1ADB
330
FD2
100
AcDbEntity
  8
DIM
 62
     0
100
AcDbTrace
 10
28.82360059015482
 20
10.653
 30
0.0
 11
28.82360059015482
 21
10.53299999999999
 31
0.0
 12
29.18360059015482
 22
10.593
 32
0.0
 13
29.18360059015482
 23
10.593
 33
0.0
  0
MTEXT
  5
1ADC
330
FD2
100
AcDbEntity
  8
DIM
 62
     0
100
AcDbMText
 10
27.59610059015482
 20
10.593
 30
0.0
 40
0.25
 41
0.0
 71
     5
 72
     1
  1
\A1;1.181 REF.
 73
     1
 44
1.0
  0
POINT
  5
1ADD
330
FD2
100
AcDbEntity
  8
DEFPOINTS
 62
     0
100
AcDbPoint
 10
30.36460059015482
 20
10.12406099999999
 30
0.0
  0
POINT
  5
1ADE
330
FD2
100
AcDbEntity
  8
DEFPOINTS
 62
     0
100
AcDbPoint
 10
29.18360059015482
 20
10.06156099999999
 30
0.0
  0
POINT
  5
1ADF
330
FD2
100
AcDbEntity
  8
DEFPOINTS
 62
     0
100
AcDbPoint
 10
29.18360059015482
 20
10.593
 30
0.0
  0
ENDBLK
  5
FDD
330
FD2
100
AcDbEntity
  8
0
100
AcDbBlockEnd
  0
BLOCK
  5
FEA
330
FDF
100
AcDbEntity
  8
0
100
AcDbBlockBegin
  2
*D40
 70
     1
 10
0.0
 20
0.0
 30
0.0
  3
*D40
  1

  0
LINE
  5
1ACC
330
FDF
100
AcDbEntity
  8
DIM
 62
     0
370
    -2
100
AcDbLine
 10
29.18360059015482
 20
10.18756099999999
 30
0.0
 11
29.18360059015482
 21
11.34099999999999
 31
0.0
  0
LINE
  5
1ACD
330
FDF
100
AcDbEntity
  8
DIM
 62
     0
370
    -2
100
AcDbLine
 10
31.54560059015482
 20
10.18756099999999
 30
0.0
 11
31.54560059015482
 21
11.34099999999999
 31
0.0
  0
LINE
  5
1ACE
330
FDF
100
AcDbEntity
  8
DIM
 62
     0
370
    -2
100
AcDbLine
 10
29.54360059015482
 20
11.15499999999999
 30
0.0
 11
29.80960059015482
 21
11.15499999999999
 31
0.0
  0
LINE
  5
1ACF
330
FDF
100
AcDbEntity
  8
DIM
 62
     0
370
    -2
100
AcDbLine
 10
31.18560059015482
 20
11.15499999999999
 30
0.0
 11
30.91960059015482
 21
11.15499999999999
 31
0.0
  0
SOLID
  5
1AD0
330
FDF
100
AcDbEntity
  8
DIM
 62
     0
100
AcDbTrace
 10
29.54360059015482
 20
11.21499999999999
 30
0.0
 11
29.54360059015482
 21
11.09499999999999
 31
0.0
 12
29.18360059015482
 22
11.15499999999999
 32
0.0
 13
29.18360059015482
 23
11.15499999999999
 33
0.0
  0
SOLID
  5
1AD1
330
FDF
100
AcDbEntity
  8
DIM
 62
     0
100
AcDbTrace
 10
31.18560059015482
 20
11.21499999999999
 30
0.0
 11
31.18560059015482
 21
11.09499999999999
 31
0.0
 12
31.54560059015482
 22
11.15499999999999
 32
0.0
 13
31.54560059015482
 23
11.15499999999999
 33
0.0
  0
MTEXT
  5
1AD2
330
FDF
100
AcDbEntity
  8
DIM
 62
     0
100
AcDbMText
 10
30.36460059015482
 20
11.15499999999999
 30
0.0
 40
0.25
 41
0.0
 71
     5
 72
     1
  1
\A1;2.362
 73
     1
 44
1.0
  0
POINT
  5
1AD3
330
FDF
100
AcDbEntity
  8
DEFPOINTS
 62
     0
100
AcDbPoint
 10
29.18360059015482
 20
10.06156099999999
 30
0.0
  0
POINT
  5
1AD4
330
FDF
100
AcDbEntity
  8
DEFPOINTS
 62
     0
100
AcDbPoint
 10
31.54560059015482
 20
10.06156099999999
 30
0.0
  0
POINT
  5
1AD5
330
FDF
100
AcDbEntity
  8
DEFPOINTS
 62
     0
100
AcDbPoint
 10
31.54560059015482
 20
11.15499999999999
 30
0.0
  0
ENDBLK
  5
FEB
330
FDF
100
AcDbEntity
  8
0
100
AcDbBlockEnd
  0
BLOCK
  5
1007
330
FFC
100
AcDbEntity
  8
0
100
AcDbBlockBegin
  2
*D41
 70
     1
 10
0.0
 20
0.0
 30
0.0
  3
*D41
  1

  0
LINE
  5
1723
330
FFC
100
AcDbEntity
  8
DIM
 62
     0
370
    -2
100
AcDbLine
 10
7.992703
 20
7.762061
 30
0.0
 11
11.00898399999999
 21
7.762060999999999
 31
0.0
  0
LINE
  5
1724
330
FFC
100
AcDbEntity
  8
DIM
 62
     0
370
    -2
100
AcDbLine
 10
8.175702999999998
 20
10.12406099999999
 30
0.0
 11
11.00898399999999
 21
10.12406099999999
 31
0.0
  0
LINE
  5
1725
330
FFC
100
AcDbEntity
  8
DIM
 62
     0
370
    -2
100
AcDbLine
 10
10.82298399999999
 20
8.122061
 30
0.0
 11
10.82298399999999
 21
8.638061
 31
0.0
  0
LINE
  5
1726
330
FFC
100
AcDbEntity
  8
DIM
 62
     0
370
    -2
100
AcDbLine
 10
10.82298399999999
 20
9.764060999999999
 30
0.0
 11
10.82298399999999
 21
9.248060999999999
 31
0.0
  0
SOLID
  5
1727
330
FFC
100
AcDbEntity
  8
DIM
 62
     0
100
AcDbTrace
 10
10.76298399999999
 20
8.122061
 30
0.0
 11
10.882984
 21
8.122061
 31
0.0
 12
10.82298399999999
 22
7.762060999999999
 32
0.0
 13
10.82298399999999
 23
7.762060999999999
 33
0.0
  0
SOLID
  5
1728
330
FFC
100
AcDbEntity
  8
DIM
 62
     0
100
AcDbTrace
 10
10.76298399999999
 20
9.764060999999999
 30
0.0
 11
10.882984
 21
9.764060999999999
 31
0.0
 12
10.82298399999999
 22
10.12406099999999
 32
0.0
 13
10.82298399999999
 23
10.12406099999999
 33
0.0
  0
MTEXT
  5
1729
330
FFC
100
AcDbEntity
  8
DIM
 62
     0
100
AcDbMText
 10
10.82298399999999
 20
8.943061000000001
 30
0.0
 40
0.25
 41
0.0
 71
     5
 72
     1
  1
\A1;2.362
 73
     1
 44
1.0
  0
POINT
  5
172A
330
FFC
100
AcDbEntity
  8
DEFPOINTS
 62
     0
100
AcDbPoint
 10
7.866703
 20
7.762061
 30
0.0
  0
POINT
  5
172B
330
FFC
100
AcDbEntity
  8
DEFPOINTS
 62
     0
100
AcDbPoint
 10
8.049702999999999
 20
10.12406099999999
 30
0.0
  0
POINT
  5
172C
330
FFC
100
AcDbEntity
  8
DEFPOINTS
 62
     0
100
AcDbPoint
 10
10.82298399999999
 20
10.12406099999999
 30
0.0
  0
ENDBLK
  5
1008
330
FFC
100
AcDbEntity
  8
0
100
AcDbBlockEnd
  0
BLOCK
  5
1015
330
100A
100
AcDbEntity
  8
0
100
AcDbBlockBegin
  2
*D42
 70
     1
 10
0.0
 20
0.0
 30
0.0
  3
*D42
  1

  0
LINE
  5
1B32
330
100A
100
AcDbEntity
  8
DIM
 62
     0
370
    -2
100
AcDbLine
 10
23.37044375438674
 20
13.62367
 30
0.0
 11
24.10700675438674
 21
13.62367
 31
0.0
  0
LINE
  5
1B33
330
100A
100
AcDbEntity
  8
DIM
 62
     0
370
    -2
100
AcDbLine
 10
23.43294375438673
 20
12.44267
 30
0.0
 11
24.10700675438674
 21
12.44267
 31
0.0
  0
LINE
  5
1B34
330
100A
100
AcDbEntity
  8
DIM
 62
     0
370
    -2
100
AcDbLine
 10
23.92100675438673
 20
13.98367
 30
0.0
 11
23.92100675438673
 21
14.34367
 31
0.0
  0
LINE
  5
1B35
330
100A
100
AcDbEntity
  8
DIM
 62
     0
370
    -2
100
AcDbLine
 10
23.92100675438673
 20
12.08267
 30
0.0
 11
23.92100675438673
 21
11.72266999999999
 31
0.0
  0
SOLID
  5
1B36
330
100A
100
AcDbEntity
  8
DIM
 62
     0
100
AcDbTrace
 10
23.86100675438674
 20
13.98367
 30
0.0
 11
23.98100675438673
 21
13.98367
 31
0.0
 12
23.92100675438673
 22
13.62367
 32
0.0
 13
23.92100675438673
 23
13.62367
 33
0.0
  0
SOLID
  5
1B37
330
100A
100
AcDbEntity
  8
DIM
 62
     0
100
AcDbTrace
 10
23.86100675438674
 20
12.08267
 30
0.0
 11
23.98100675438673
 21
12.08267
 31
0.0
 12
23.92100675438673
 22
12.44267
 32
0.0
 13
23.92100675438673
 23
12.44267
 33
0.0
  0
MTEXT
  5
1B38
330
100A
100
AcDbEntity
  8
DIM
 62
     0
100
AcDbMText
 10
23.92100675438673
 20
13.03317
 30
0.0
 40
0.25
 41
0.0
 71
     5
 72
     1
  1
\A1;1.181
 73
     1
 44
1.0
  0
POINT
  5
1B39
330
100A
100
AcDbEntity
  8
DEFPOINTS
 62
     0
100
AcDbPoint
 10
23.24444375438673
 20
13.62367
 30
0.0
  0
POINT
  5
1B3A
330
100A
100
AcDbEntity
  8
DEFPOINTS
 62
     0
100
AcDbPoint
 10
23.30694375438673
 20
12.44267
 30
0.0
  0
POINT
  5
1B3B
330
100A
100
AcDbEntity
  8
DEFPOINTS
 62
     0
100
AcDbPoint
 10
23.92100675438673
 20
12.44267
 30
0.0
  0
ENDBLK
  5
1016
330
100A
100
AcDbEntity
  8
0
100
AcDbBlockEnd
  0
BLOCK
  5
1023
330
1018
100
AcDbEntity
  8
0
100
AcDbBlockBegin
  2
*D43
 70
     1
 10
0.0
 20
0.0
 30
0.0
  3
*D43
  1

  0
LINE
  5
1773
330
1018
100
AcDbEntity
  8
DIM
 62
     0
370
    -2
100
AcDbLine
 10
8.363202999999998
 20
14.848516
 30
0.0
 11
9.103949
 21
14.848516
 31
0.0
  0
LINE
  5
1774
330
1018
100
AcDbEntity
  8
DIM
 62
     0
370
    -2
100
AcDbLine
 10
8.347702999999999
 20
13.627516
 30
0.0
 11
9.103949
 21
13.627516
 31
0.0
  0
LINE
  5
1775
330
1018
100
AcDbEntity
  8
DIM
 62
     0
370
    -2
100
AcDbLine
 10
8.917949
 20
15.208516
 30
0.0
 11
8.917949
 21
15.568516
 31
0.0
  0
LINE
  5
1776
330
1018
100
AcDbEntity
  8
DIM
 62
     0
370
    -2
100
AcDbLine
 10
8.917949
 20
13.267516
 30
0.0
 11
8.917949
 21
12.907516
 31
0.0
  0
SOLID
  5
1777
330
1018
100
AcDbEntity
  8
DIM
 62
     0
100
AcDbTrace
 10
8.857948999999999
 20
15.208516
 30
0.0
 11
8.977949
 21
15.208516
 31
0.0
 12
8.917949
 22
14.848516
 32
0.0
 13
8.917949
 23
14.848516
 33
0.0
  0
SOLID
  5
1778
330
1018
100
AcDbEntity
  8
DIM
 62
     0
100
AcDbTrace
 10
8.857948999999999
 20
13.267516
 30
0.0
 11
8.977949
 21
13.267516
 31
0.0
 12
8.917949
 22
13.627516
 32
0.0
 13
8.917949
 23
13.627516
 33
0.0
  0
MTEXT
  5
1779
330
1018
100
AcDbEntity
  8
DIM
 62
     0
100
AcDbMText
 10
8.917948999999996
 20
14.238016
 30
0.0
 40
0.25
 41
0.0
 71
     5
 72
     1
  1
\A1;1.221
 73
     1
 44
1.0
  0
POINT
  5
177A
330
1018
100
AcDbEntity
  8
DEFPOINTS
 62
     0
100
AcDbPoint
 10
8.237202999999999
 20
14.848516
 30
0.0
  0
POINT
  5
177B
330
1018
100
AcDbEntity
  8
DEFPOINTS
 62
     0
100
AcDbPoint
 10
8.221702999999999
 20
13.627516
 30
0.0
  0
POINT
  5
177C
330
1018
100
AcDbEntity
  8
DEFPOINTS
 62
     0
100
AcDbPoint
 10
8.917949
 20
13.627516
 30
0.0
  0
ENDBLK
  5
1024
330
1018
100
AcDbEntity
  8
0
100
AcDbBlockEnd
  0
BLOCK
  5
1044
330
1039
100
AcDbEntity
  8
0
100
AcDbBlockBegin
  2
*D44
 70
     1
 10
0.0
 20
0.0
 30
0.0
  3
*D44
  1

  0
LINE
  5
1B09
330
1039
100
AcDbEntity
  8
DIM
 62
     0
370
    -2
100
AcDbLine
 10
25.84647375438674
 20
8.088781
 30
0.0
 11
25.84647375438674
 21
7.977299
 31
0.0
  0
LINE
  5
1B0A
330
1039
100
AcDbEntity
  8
DIM
 62
     0
370
    -2
100
AcDbLine
 10
25.96647375438674
 20
8.088781
 30
0.0
 11
25.96647375438674
 21
7.977299
 31
0.0
  0
LINE
  5
1B0B
330
1039
100
AcDbEntity
  8
DIM
 62
     0
370
    -2
100
AcDbLine
 10
25.48647375438674
 20
8.163299
 30
0.0
 11
25.12647375438674
 21
8.163299
 31
0.0
  0
LINE
  5
1B0C
330
1039
100
AcDbEntity
  8
DIM
 62
     0
370
    -2
100
AcDbLine
 10
26.32647375438674
 20
8.163299
 30
0.0
 11
26.68647375438673
 21
8.163299
 31
0.0
  0
SOLID
  5
1B0D
330
1039
100
AcDbEntity
  8
DIM
 62
     0
100
AcDbTrace
 10
25.48647375438674
 20
8.223299
 30
0.0
 11
25.48647375438674
 21
8.103298999999999
 31
0.0
 12
25.84647375438674
 22
8.163299
 32
0.0
 13
25.84647375438674
 23
8.163299
 33
0.0
  0
SOLID
  5
1B0E
330
1039
100
AcDbEntity
  8
DIM
 62
     0
100
AcDbTrace
 10
26.32647375438674
 20
8.223299
 30
0.0
 11
26.32647375438674
 21
8.103298999999999
 31
0.0
 12
25.96647375438674
 22
8.163299
 32
0.0
 13
25.96647375438674
 23
8.163299
 33
0.0
  0
MTEXT
  5
1B0F
330
1039
100
AcDbEntity
  8
DIM
 62
     0
100
AcDbMText
 10
27.17897375438674
 20
8.163299
 30
0.0
 40
0.25
 41
0.0
 71
     5
 72
     1
  1
\A1;0.120
 73
     1
 44
1.0
  0
POINT
  5
1B10
330
1039
100
AcDbEntity
  8
DEFPOINTS
 62
     0
100
AcDbPoint
 10
25.84647375438674
 20
8.214781
 30
0.0
  0
POINT
  5
1B11
330
1039
100
AcDbEntity
  8
DEFPOINTS
 62
     0
100
AcDbPoint
 10
25.96647375438674
 20
8.214781
 30
0.0
  0
POINT
  5
1B12
330
1039
100
AcDbEntity
  8
DEFPOINTS
 62
     0
100
AcDbPoint
 10
25.96647375438674
 20
8.163299
 30
0.0
  0
ENDBLK
  5
1045
330
1039
100
AcDbEntity
  8
0
100
AcDbBlockEnd
  0
BLOCK
  5
1147
330
113C
100
AcDbEntity
  8
0
100
AcDbBlockBegin
  2
*D45
 70
     1
 10
0.0
 20
0.0
 30
0.0
  3
*D45
  1

  0
LINE
  5
1A33
330
113C
100
AcDbEntity
  8
DIM
 62
     0
370
    -2
100
AcDbLine
 10
31.31029699815826
 20
14.2844555407906
 30
0.0
 11
32.18802799815827
 21
14.2844555407906
 31
0.0
  0
LINE
  5
1A34
330
113C
100
AcDbEntity
  8
DIM
 62
     0
370
    -2
100
AcDbLine
 10
31.31029699815826
 20
15.5244555407906
 30
0.0
 11
32.18802799815827
 21
15.5244555407906
 31
0.0
  0
LINE
  5
1A35
330
113C
100
AcDbEntity
  8
DIM
 62
     0
370
    -2
100
AcDbLine
 10
32.00202799815826
 20
13.9244555407906
 30
0.0
 11
32.00202799815826
 21
13.5644555407906
 31
0.0
  0
LINE
  5
1A36
330
113C
100
AcDbEntity
  8
DIM
 62
     0
370
    -2
100
AcDbLine
 10
32.00202799815826
 20
15.8844555407906
 30
0.0
 11
32.00202799815827
 21
16.2444555407906
 31
0.0
  0
SOLID
  5
1A37
330
113C
100
AcDbEntity
  8
DIM
 62
     0
100
AcDbTrace
 10
31.94202799815827
 20
13.9244555407906
 30
0.0
 11
32.06202799815827
 21
13.9244555407906
 31
0.0
 12
32.00202799815826
 22
14.2844555407906
 32
0.0
 13
32.00202799815826
 23
14.2844555407906
 33
0.0
  0
SOLID
  5
1A38
330
113C
100
AcDbEntity
  8
DIM
 62
     0
100
AcDbTrace
 10
31.94202799815827
 20
15.8844555407906
 30
0.0
 11
32.06202799815827
 21
15.8844555407906
 31
0.0
 12
32.00202799815826
 22
15.5244555407906
 32
0.0
 13
32.00202799815826
 23
15.5244555407906
 33
0.0
  0
MTEXT
  5
1A39
330
113C
100
AcDbEntity
  8
DIM
 62
     0
100
AcDbMText
 10
32.00202799815826
 20
14.90445554079061
 30
0.0
 40
0.25
 41
0.0
 71
     5
 72
     1
  1
\A1;0.310 DIA.\PC'BORE
 73
     1
 44
1.0
  0
POINT
  5
1A3A
330
113C
100
AcDbEntity
  8
DEFPOINTS
 62
     0
100
AcDbPoint
 10
31.18429699815826
 20
14.2844555407906
 30
0.0
  0
POINT
  5
1A3B
330
113C
100
AcDbEntity
  8
DEFPOINTS
 62
     0
100
AcDbPoint
 10
31.18429699815826
 20
15.5244555407906
 30
0.0
  0
POINT
  5
1A3C
330
113C
100
AcDbEntity
  8
DEFPOINTS
 62
     0
100
AcDbPoint
 10
32.00202799815826
 20
15.5244555407906
 30
0.0
  0
ENDBLK
  5
1148
330
113C
100
AcDbEntity
  8
0
100
AcDbBlockEnd
  0
BLOCK
  5
1165
330
115A
100
AcDbEntity
  8
0
100
AcDbBlockBegin
  2
*D46
 70
     1
 10
0.0
 20
0.0
 30
0.0
  3
*D46
  1

  0
LINE
  5
19F5
330
115A
100
AcDbEntity
  8
DIM
 62
     0
370
    -2
100
AcDbLine
 10
26.33429699815827
 20
15.2482055407906
 30
0.0
 11
25.45211599815827
 21
15.2482055407906
 31
0.0
  0
LINE
  5
19F6
330
115A
100
AcDbEntity
  8
DIM
 62
     0
370
    -2
100
AcDbLine
 10
26.33429699815827
 20
14.5607055407906
 30
0.0
 11
25.45211599815827
 21
14.5607055407906
 31
0.0
  0
LINE
  5
19F7
330
115A
100
AcDbEntity
  8
DIM
 62
     0
370
    -2
100
AcDbLine
 10
25.63811599815827
 20
15.6082055407906
 30
0.0
 11
25.63811599815827
 21
15.9682055407906
 31
0.0
  0
LINE
  5
19F8
330
115A
100
AcDbEntity
  8
DIM
 62
     0
370
    -2
100
AcDbLine
 10
25.63811599815827
 20
14.2007055407906
 30
0.0
 11
25.63811599815827
 21
13.8407055407906
 31
0.0
  0
SOLID
  5
19F9
330
115A
100
AcDbEntity
  8
DIM
 62
     0
100
AcDbTrace
 10
25.57811599815827
 20
15.6082055407906
 30
0.0
 11
25.69811599815826
 21
15.6082055407906
 31
0.0
 12
25.63811599815827
 22
15.2482055407906
 32
0.0
 13
25.63811599815827
 23
15.2482055407906
 33
0.0
  0
SOLID
  5
19FA
330
115A
100
AcDbEntity
  8
DIM
 62
     0
100
AcDbTrace
 10
25.57811599815827
 20
14.2007055407906
 30
0.0
 11
25.69811599815826
 21
14.2007055407906
 31
0.0
 12
25.63811599815827
 22
14.5607055407906
 32
0.0
 13
25.63811599815827
 23
14.5607055407906
 33
0.0
  0
MTEXT
  5
19FB
330
115A
100
AcDbEntity
  8
DIM
 62
     0
100
AcDbMText
 10
25.63811599815826
 20
14.90445554079061
 30
0.0
 40
0.25
 41
0.0
 71
     5
 72
     1
  1
\A1;0.172 DIA.
 73
     1
 44
1.0
  0
POINT
  5
19FC
330
115A
100
AcDbEntity
  8
DEFPOINTS
 62
     0
100
AcDbPoint
 10
26.46029699815827
 20
15.2482055407906
 30
0.0
  0
POINT
  5
19FD
330
115A
100
AcDbEntity
  8
DEFPOINTS
 62
     0
100
AcDbPoint
 10
26.46029699815827
 20
14.5607055407906
 30
0.0
  0
POINT
  5
19FE
330
115A
100
AcDbEntity
  8
DEFPOINTS
 62
     0
100
AcDbPoint
 10
25.63811599815827
 20
14.5607055407906
 30
0.0
  0
ENDBLK
  5
1166
330
115A
100
AcDbEntity
  8
0
100
AcDbBlockEnd
  0
BLOCK
  5
1181
330
1176
100
AcDbEntity
  8
0
100
AcDbBlockBegin
  2
*D47
 70
     1
 10
0.0
 20
0.0
 30
0.0
  3
*D47
  1

  0
LINE
  5
1A29
330
1176
100
AcDbEntity
  8
DIM
 62
     0
370
    -2
100
AcDbLine
 10
31.18429699815826
 20
13.9244555407906
 30
0.0
 11
31.18429699815826
 21
13.08756118066198
 31
0.0
  0
LINE
  5
1A2A
330
1176
100
AcDbEntity
  8
DIM
 62
     0
370
    -2
100
AcDbLine
 10
28.24829699815824
 20
14.1584555407906
 30
0.0
 11
28.24829699815824
 21
13.08756118066198
 31
0.0
  0
LINE
  5
1A2B
330
1176
100
AcDbEntity
  8
DIM
 62
     0
370
    -2
100
AcDbLine
 10
30.82429699815826
 20
13.27356118066198
 30
0.0
 11
30.25567199815825
 21
13.27356118066198
 31
0.0
  0
LINE
  5
1A2C
330
1176
100
AcDbEntity
  8
DIM
 62
     0
370
    -2
100
AcDbLine
 10
28.60829699815823
 20
13.27356118066198
 30
0.0
 11
29.17692199815825
 21
13.27356118066198
 31
0.0
  0
SOLID
  5
1A2D
330
1176
100
AcDbEntity
  8
DIM
 62
     0
100
AcDbTrace
 10
30.82429699815826
 20
13.33356118066198
 30
0.0
 11
30.82429699815826
 21
13.21356118066198
 31
0.0
 12
31.18429699815826
 22
13.27356118066198
 32
0.0
 13
31.18429699815826
 23
13.27356118066198
 33
0.0
  0
SOLID
  5
1A2E
330
1176
100
AcDbEntity
  8
DIM
 62
     0
100
AcDbTrace
 10
28.60829699815823
 20
13.33356118066198
 30
0.0
 11
28.60829699815823
 21
13.21356118066198
 31
0.0
 12
28.24829699815824
 22
13.27356118066198
 32
0.0
 13
28.24829699815824
 23
13.27356118066198
 33
0.0
  0
MTEXT
  5
1A2F
330
1176
100
AcDbEntity
  8
DIM
 62
     0
100
AcDbMText
 10
29.71629699815825
 20
13.27356118066198
 30
0.0
 40
0.25
 41
0.0
 71
     5
 72
     1
  1
\A1;0.734
 73
     1
 44
1.0
  0
POINT
  5
1A30
330
1176
100
AcDbEntity
  8
DEFPOINTS
 62
     0
100
AcDbPoint
 10
31.18429699815826
 20
14.0504555407906
 30
0.0
  0
POINT
  5
1A31
330
1176
100
AcDbEntity
  8
DEFPOINTS
 62
     0
100
AcDbPoint
 10
28.24829699815824
 20
14.2844555407906
 30
0.0
  0
POINT
  5
1A32
330
1176
100
AcDbEntity
  8
DEFPOINTS
 62
     0
100
AcDbPoint
 10
28.24829699815824
 20
13.27356118066198
 30
0.0
  0
ENDBLK
  5
1182
330
1176
100
AcDbEntity
  8
0
100
AcDbBlockEnd
  0
BLOCK
  5
118F
330
1184
100
AcDbEntity
  8
0
100
AcDbBlockBegin
  2
*D48
 70
     1
 10
0.0
 20
0.0
 30
0.0
  3
*D48
  1

  0
LINE
  5
19EA
330
1184
100
AcDbEntity
  8
DIM
 62
     0
370
    -2
100
AcDbLine
 10
26.33429699815827
 20
17.3377385407906
 30
0.0
 11
24.75258199815827
 21
17.3377385407906
 31
0.0
  0
LINE
  5
19EB
330
1184
100
AcDbEntity
  8
DIM
 62
     0
370
    -2
100
AcDbLine
 10
26.33429699815827
 20
17.6577385407906
 30
0.0
 11
24.75258199815827
 21
17.6577385407906
 31
0.0
  0
LINE
  5
19EC
330
1184
100
AcDbEntity
  8
DIM
 62
     0
370
    -2
100
AcDbLine
 10
24.93858199815827
 20
16.9777385407906
 30
0.0
 11
24.93858199815827
 21
16.6177385407906
 31
0.0
  0
LINE
  5
19ED
330
1184
100
AcDbEntity
  8
DIM
 62
     0
370
    -2
100
AcDbLine
 10
24.93858199815827
 20
18.0177385407906
 30
0.0
 11
24.93858199815827
 21
18.3777385407906
 31
0.0
  0
LINE
  5
19EE
330
1184
100
AcDbEntity
  8
DIM
 62
     0
370
    -2
100
AcDbLine
 10
24.93858199815827
 20
18.3777385407906
 30
0.0
 11
25.29858199815826
 21
18.3777385407906
 31
0.0
  0
SOLID
  5
19EF
330
1184
100
AcDbEntity
  8
DIM
 62
     0
100
AcDbTrace
 10
24.87858199815827
 20
16.9777385407906
 30
0.0
 11
24.99858199815827
 21
16.9777385407906
 31
0.0
 12
24.93858199815827
 22
17.3377385407906
 32
0.0
 13
24.93858199815827
 23
17.3377385407906
 33
0.0
  0
SOLID
  5
19F0
330
1184
100
AcDbEntity
  8
DIM
 62
     0
100
AcDbTrace
 10
24.87858199815827
 20
18.0177385407906
 30
0.0
 11
24.99858199815827
 21
18.0177385407906
 31
0.0
 12
24.93858199815827
 22
17.6577385407906
 32
0.0
 13
24.93858199815827
 23
17.6577385407906
 33
0.0
  0
MTEXT
  5
19F1
330
1184
100
AcDbEntity
  8
DIM
 62
     0
100
AcDbMText
 10
25.80670699815826
 20
18.37773854079061
 30
0.0
 40
0.25
 41
0.0
 71
     5
 72
     1
  1
\A1;0.080
 73
     1
 44
1.0
  0
POINT
  5
19F2
330
1184
100
AcDbEntity
  8
DEFPOINTS
 62
     0
100
AcDbPoint
 10
26.46029699815827
 20
17.3377385407906
 30
0.0
  0
POINT
  5
19F3
330
1184
100
AcDbEntity
  8
DEFPOINTS
 62
     0
100
AcDbPoint
 10
26.46029699815827
 20
17.6577385407906
 30
0.0
  0
POINT
  5
19F4
330
1184
100
AcDbEntity
  8
DEFPOINTS
 62
     0
100
AcDbPoint
 10
24.93858199815827
 20
17.6577385407906
 30
0.0
  0
ENDBLK
  5
1190
330
1184
100
AcDbEntity
  8
0
100
AcDbBlockEnd
  0
BLOCK
  5
119D
330
1192
100
AcDbEntity
  8
0
100
AcDbBlockBegin
  2
*D49
 70
     1
 10
0.0
 20
0.0
 30
0.0
  3
*D49
  1

  0
LINE
  5
1A1F
330
1192
100
AcDbEntity
  8
DIM
 62
     0
370
    -2
100
AcDbLine
 10
26.92029699815826
 20
17.7837385407906
 30
0.0
 11
26.92029699815826
 21
19.1734955407906
 31
0.0
  0
LINE
  5
1A20
330
1192
100
AcDbEntity
  8
DIM
 62
     0
370
    -2
100
AcDbLine
 10
26.46029699815827
 20
18.42992565569343
 30
0.0
 11
26.46029699815827
 21
19.1734955407906
 31
0.0
  0
LINE
  5
1A21
330
1192
100
AcDbEntity
  8
DIM
 62
     0
370
    -2
100
AcDbLine
 10
27.28029699815826
 20
18.9874955407906
 30
0.0
 11
27.64029699815826
 21
18.9874955407906
 31
0.0
  0
LINE
  5
1A22
330
1192
100
AcDbEntity
  8
DIM
 62
     0
370
    -2
100
AcDbLine
 10
26.10029699815827
 20
18.9874955407906
 30
0.0
 11
25.74029699815827
 21
18.9874955407906
 31
0.0
  0
SOLID
  5
1A23
330
1192
100
AcDbEntity
  8
DIM
 62
     0
100
AcDbTrace
 10
27.28029699815826
 20
19.0474955407906
 30
0.0
 11
27.28029699815826
 21
18.9274955407906
 31
0.0
 12
26.92029699815826
 22
18.9874955407906
 32
0.0
 13
26.92029699815826
 23
18.9874955407906
 33
0.0
  0
SOLID
  5
1A24
330
1192
100
AcDbEntity
  8
DIM
 62
     0
100
AcDbTrace
 10
26.10029699815827
 20
19.0474955407906
 30
0.0
 11
26.10029699815827
 21
18.9274955407906
 31
0.0
 12
26.46029699815827
 22
18.9874955407906
 32
0.0
 13
26.46029699815827
 23
18.9874955407906
 33
0.0
  0
MTEXT
  5
1A25
330
1192
100
AcDbEntity
  8
DIM
 62
     0
100
AcDbMText
 10
25.26342199815827
 20
18.9874955407906
 30
0.0
 40
0.25
 41
0.0
 71
     5
 72
     1
  1
\A1;0.115
 73
     1
 44
1.0
  0
POINT
  5
1A26
330
1192
100
AcDbEntity
  8
DEFPOINTS
 62
     0
100
AcDbPoint
 10
26.92029699815826
 20
17.6577385407906
 30
0.0
  0
POINT
  5
1A27
330
1192
100
AcDbEntity
  8
DEFPOINTS
 62
     0
100
AcDbPoint
 10
26.46029699815827
 20
18.30392565569343
 30
0.0
  0
POINT
  5
1A28
330
1192
100
AcDbEntity
  8
DEFPOINTS
 62
     0
100
AcDbPoint
 10
26.46029699815827
 20
18.9874955407906
 30
0.0
  0
ENDBLK
  5
119E
330
1192
100
AcDbEntity
  8
0
100
AcDbBlockEnd
  0
BLOCK
  5
1843
330
182C
100
AcDbEntity
  8
0
100
AcDbBlockBegin
  2
HBS
 70
     0
 10
0.0
 20
0.0
 30
0.0
  3
HBS
  1

  0
LINE
  5
182D
330
182C
100
AcDbEntity
  8
TITLE
100
AcDbLine
 10
0.0620000000000118
 20
10.266
 30
0.0
 11
16.53800000000001
 21
10.266
 31
0.0
  0
LINE
  5
182E
330
182C
100
AcDbEntity
  8
TITLE
100
AcDbLine
 10
16.53800000000001
 20
0.0620000000000012
 30
0.0
 11
0.0620000000000118
 21
0.0620000000000012
 31
0.0
  0
LINE
  5
182F
330
182C
100
AcDbEntity
  8
TITLE
100
AcDbLine
 10
0.0
 20
10.32799999999999
 30
0.0
 11
16.59999999999999
 21
10.32799999999999
 31
0.0
  0
LINE
  5
1830
330
182C
100
AcDbEntity
  8
TITLE
100
AcDbLine
 10
16.59999999999999
 20
0.0
 30
0.0
 11
0.0
 21
0.0
 31
0.0
  0
LINE
  5
1831
330
182C
100
AcDbEntity
  8
TITLE
100
AcDbLine
 10
0.0620000000000118
 20
9.848000000000002
 30
0.0
 11
16.53800000000001
 21
9.848000000000006
 31
0.0
  0
LINE
  5
1832
330
182C
100
AcDbEntity
  8
TITLE
100
AcDbLine
 10
0.0620000000000118
 20
0.0620000000000012
 30
0.0
 11
0.0620000000000118
 21
10.266
 31
0.0
  0
LINE
  5
1833
330
182C
100
AcDbEntity
  8
TITLE
100
AcDbLine
 10
0.0
 20
0.0
 30
0.0
 11
0.0
 21
10.32799999999999
 31
0.0
  0
TEXT
  5
1834
330
182C
100
AcDbEntity
  8
TEXT
100
AcDbText
 10
0.2078333333333452
 20
9.888079195640081
 30
0.0
 40
0.125
  1
NAME
 72
     1
 11
0.4370000000000119
 21
9.888079195640081
 31
0.0
100
AcDbText
  0
TEXT
  5
1835
330
182C
100
AcDbEntity
  8
TEXT
100
AcDbText
 10
0.2078333333333452
 20
10.09641252897341
 30
0.0
 40
0.125
  1
PART
 72
     1
 11
0.4370000000000119
 21
10.09641252897341
 31
0.0
100
AcDbText
  0
LINE
  5
1836
330
182C
100
AcDbEntity
  8
TITLE
100
AcDbLine
 10
0.8120000000000118
 20
9.848000000000002
 30
0.0
 11
0.8120000000000118
 21
10.266
 31
0.0
  0
LINE
  5
1837
330
182C
100
AcDbEntity
  8
TITLE
100
AcDbLine
 10
7.0
 20
10.266
 30
0.0
 11
7.0
 21
9.848000000000002
 31
0.0
  0
LINE
  5
1838
330
182C
100
AcDbEntity
  8
TITLE
100
AcDbLine
 10
7.062000000000011
 20
10.266
 30
0.0
 11
7.062000000000011
 21
9.848000000000002
 31
0.0
  0
LINE
  5
1839
330
182C
100
AcDbEntity
  8
TITLE
100
AcDbLine
 10
7.812000000000011
 20
10.266
 30
0.0
 11
7.812000000000011
 21
9.848000000000002
 31
0.0
  0
TEXT
  5
183A
330
182C
100
AcDbEntity
  8
TEXT
100
AcDbText
 10
7.312000000000011
 20
9.888079195640081
 30
0.0
 40
0.125
  1
No.
 72
     1
 11
7.437000000000011
 21
9.888079195640081
 31
0.0
100
AcDbText
  0
TEXT
  5
183B
330
182C
100
AcDbEntity
  8
TEXT
100
AcDbText
 10
7.207833333333344
 20
10.09641252897341
 30
0.0
 40
0.125
  1
PART
 72
     1
 11
7.437000000000011
 21
10.09641252897341
 31
0.0
100
AcDbText
  0
LINE
  5
183C
330
182C
100
AcDbEntity
  8
TITLE
100
AcDbLine
 10
16.53800000000001
 20
10.266
 30
0.0
 11
16.53800000000001
 21
0.0620000000000012
 31
0.0
  0
LINE
  5
183D
330
182C
100
AcDbEntity
  8
TITLE
100
AcDbLine
 10
16.59999999999999
 20
10.32799999999999
 30
0.0
 11
16.59999999999999
 21
0.0
 31
0.0
  0
TEXT
  5
183E
330
182C
100
AcDbEntity
  8
TEXT
100
AcDbText
 10
14.22865779971668
 20
10.09641252897341
 30
0.0
 40
0.125
  1
REV.
 72
     1
 11
14.43699113305001
 21
10.09641252897341
 31
0.0
100
AcDbText
  0
TEXT
  5
183F
330
182C
100
AcDbEntity
  8
TEXT
100
AcDbText
 10
14.20782446638335
 20
9.888079195640081
 30
0.0
 40
0.125
  1
DATE
 72
     1
 11
14.43699113305001
 21
9.888079195640081
 31
0.0
100
AcDbText
  0
LINE
  5
1840
330
182C
100
AcDbEntity
  8
TITLE
100
AcDbLine
 10
14.06199113305001
 20
10.266
 30
0.0
 11
14.06199113305001
 21
9.848000000000002
 31
0.0
  0
LINE
  5
1841
330
182C
100
AcDbEntity
  8
TITLE
100
AcDbLine
 10
14.81199113305001
 20
10.266
 30
0.0
 11
14.81199113305001
 21
9.848000000000002
 31
0.0
  0
LINE
  5
1842
330
182C
100
AcDbEntity
  8
TITLE
100
AcDbLine
 10
13.99999113305
 20
10.266
 30
0.0
 11
13.99999113305
 21
9.848000000000002
 31
0.0
  0
ENDBLK
  5
1844
330
182C
100
AcDbEntity
  8
0
100
AcDbBlockEnd
  0
ENDSEC
  0
SECTION
  2
ENTITIES
  0
TEXT
  5
B20
330
1E
100
AcDbEntity
  8
TEXT
100
AcDbText
 10
21.85154375438673
 20
3.321391999999999
 30
0.0
 40
0.36
  1
%%UCOVER
 41
0.75
 72
     1
 11
22.53104375438673
 21
3.321391999999999
 31
0.0
100
AcDbText
  0
TEXT
  5
B21
330
1E
100
AcDbEntity
  8
TEXT
100
AcDbText
 10
7.3310212157384
 20
2.491292623212473
 30
0.0
 40
0.36
  1
%%UBODY
 41
0.75
 72
     1
 11
7.8305212157384
 21
2.491292623212473
 31
0.0
100
AcDbText
  0
LWPOLYLINE
  5
B3E
330
1E
100
AcDbEntity
  8
OBJECT
100
AcDbPolyline
 90
        8
 70
     1
 43
0.0
 10
3.825702999999999
 20
5.400060999999999
 10
8.049702999999999
 20
5.400060999999999
 42
0.4142140000000001
 10
8.299702999999999
 20
5.650060999999999
 10
8.299702999999999
 20
9.874060999999999
 42
0.4142140000000001
 10
8.049702999999999
 20
10.12406099999999
 10
3.825702999999999
 20
10.12406099999999
 42
0.4142140000000001
 10
3.575702999999999
 20
9.874060999999999
 10
3.575702999999999
 20
5.650060999999999
 42
0.4142140000000001
  0
CIRCLE
  5
B48
330
1E
100
AcDbEntity
  8
OBJECT
100
AcDbCircle
 10
8.023702999999999
 20
9.848060999999999
 30
0.0
 40
0.125
  0
CIRCLE
  5
B49
330
1E
100
AcDbEntity
  8
OBJECT
100
AcDbCircle
 10
8.023702999999999
 20
9.455061
 30
0.0
 40
0.085
  0
LWPOLYLINE
  5
B4A
330
1E
100
AcDbEntity
  8
OBJECT
100
AcDbPolyline
 90
        6
 70
     1
 43
0.0
 10
8.204703
 20
9.175651
 42
0.230352
 10
8.049702999999999
 20
9.251060999999999
 10
7.854702999999999
 20
9.251060999999999
 42
-0.4142140000000001
 10
7.676702999999999
 20
9.429061
 10
7.676702999999999
 20
9.644061
 10
8.204703
 20
9.644061
  0
LWPOLYLINE
  5
B52
330
1E
100
AcDbEntity
  8
OBJECT
100
AcDbPolyline
 90
        6
 70
     1
 43
0.0
 10
3.670703
 20
9.175651
 42
-0.230352
 10
3.825702999999999
 20
9.251060999999999
 10
4.020703
 20
9.251060999999999
 42
0.4142140000000001
 10
4.198703
 20
9.429061
 10
4.198703
 20
9.644061
 10
3.670703
 20
9.644061
  0
CIRCLE
  5
B5A
330
1E
100
AcDbEntity
  8
OBJECT
100
AcDbCircle
 10
3.851703
 20
9.455061
 30
0.0
 40
0.085
  0
LWPOLYLINE
  5
B5B
330
1E
100
AcDbEntity
  8
OBJECT
100
AcDbPolyline
 90
        6
 70
     1
 43
0.0
 10
3.670703
 20
6.348472
 42
0.230352
 10
3.825702999999999
 20
6.273061
 10
4.020703
 20
6.273061
 42
-0.4142140000000001
 10
4.198703
 20
6.095061
 10
4.198703
 20
5.880061
 10
3.670703
 20
5.880061
  0
CIRCLE
  5
B63
330
1E
100
AcDbEntity
  8
OBJECT
100
AcDbCircle
 10
3.851703
 20
6.069061
 30
0.0
 40
0.085
  0
LWPOLYLINE
  5
B64
330
1E
100
AcDbEntity
  8
OBJECT
100
AcDbPolyline
 90
        6
 70
     1
 43
0.0
 10
8.204703
 20
6.348472
 42
-0.230352
 10
8.049702999999999
 20
6.273061
 10
7.854702999999999
 20
6.273061
 42
0.4142140000000001
 10
7.676702999999999
 20
6.095061
 10
7.676702999999999
 20
5.880061
 10
8.204703
 20
5.880061
  0
CIRCLE
  5
B6C
330
1E
100
AcDbEntity
  8
OBJECT
100
AcDbCircle
 10
8.023702999999999
 20
6.069061
 30
0.0
 40
0.085
  0
CIRCLE
  5
B6D
330
1E
100
AcDbEntity
  8
OBJECT
100
AcDbCircle
 10
8.023702999999999
 20
9.848060999999999
 30
0.0
 40
0.066
  0
CIRCLE
  5
B6E
330
1E
100
AcDbEntity
  8
OBJECT
100
AcDbCircle
 10
3.851703
 20
9.848060999999999
 30
0.0
 40
0.066
  0
CIRCLE
  5
B6F
330
1E
100
AcDbEntity
  8
OBJECT
100
AcDbCircle
 10
3.851703
 20
9.848060999999999
 30
0.0
 40
0.125
  0
CIRCLE
  5
B70
330
1E
100
AcDbEntity
  8
OBJECT
100
AcDbCircle
 10
3.851703
 20
5.676060999999999
 30
0.0
 40
0.125
  0
CIRCLE
  5
B71
330
1E
100
AcDbEntity
  8
OBJECT
100
AcDbCircle
 10
3.851703
 20
5.676060999999999
 30
0.0
 40
0.066
  0
CIRCLE
  5
B72
330
1E
100
AcDbEntity
  8
OBJECT
100
AcDbCircle
 10
8.023702999999999
 20
5.676060999999999
 30
0.0
 40
0.066
  0
CIRCLE
  5
B73
330
1E
100
AcDbEntity
  8
OBJECT
100
AcDbCircle
 10
8.023702999999999
 20
5.676060999999999
 30
0.0
 40
0.125
  0
LWPOLYLINE
  5
B74
330
1E
100
AcDbEntity
  8
OBJECT
100
AcDbPolyline
 90
       24
 70
     1
 43
0.0
 10
3.693702999999999
 20
9.054061
 10
3.693702999999999
 20
6.470061
 42
0.4142140000000001
 10
3.825702999999999
 20
6.338060999999999
 10
4.020703
 20
6.338060999999999
 42
-0.4142140000000001
 10
4.263702999999999
 20
6.095061
 10
4.263702999999999
 20
5.650060999999999
 42
0.4142140000000001
 10
4.395703
 20
5.518061
 10
7.479702999999999
 20
5.518061
 42
0.4142140000000001
 10
7.611702999999999
 20
5.650060999999999
 10
7.611702999999999
 20
6.095061
 42
-0.4142140000000001
 10
7.854702999999999
 20
6.338060999999999
 10
8.049702999999999
 20
6.338060999999999
 42
0.4142140000000001
 10
8.181703
 20
6.470061
 10
8.181703
 20
9.054061
 42
0.4142140000000001
 10
8.049702999999999
 20
9.186061
 10
7.854702999999999
 20
9.186061
 42
-0.4142140000000001
 10
7.611702999999999
 20
9.429061
 10
7.611702999999999
 20
9.874060999999999
 42
0.4142140000000001
 10
7.479702999999999
 20
10.006061
 10
4.395703
 20
10.006061
 42
0.4142140000000001
 10
4.263702999999999
 20
9.874060999999999
 10
4.263702999999999
 20
9.429061
 42
-0.4142140000000001
 10
4.020703
 20
9.186061
 10
3.825702999999999
 20
9.186061
 42
0.4142140000000001
  0
LWPOLYLINE
  5
B8E
330
1E
100
AcDbEntity
  8
OBJECT
100
AcDbPolyline
 90
       24
 70
     1
 43
0.0
 10
3.653702999999999
 20
9.054061
 10
3.653702999999999
 20
6.470061
 42
0.4142140000000001
 10
3.825702999999999
 20
6.298060999999999
 10
4.020703
 20
6.298060999999999
 42
-0.4142140000000001
 10
4.223702999999999
 20
6.095061
 10
4.223702999999999
 20
5.650060999999999
 42
0.4142140000000001
 10
4.395703
 20
5.478061
 10
7.479702999999999
 20
5.478061
 42
0.4142140000000001
 10
7.651702999999999
 20
5.650060999999999
 10
7.651702999999999
 20
6.095061
 42
-0.4142140000000001
 10
7.854702999999999
 20
6.298060999999999
 10
8.049702999999999
 20
6.298060999999999
 42
0.4142140000000001
 10
8.221702999999999
 20
6.470061
 10
8.221702999999999
 20
9.054061
 42
0.4142140000000001
 10
8.049702999999999
 20
9.226060999999999
 10
7.854702999999999
 20
9.226060999999999
 42
-0.4142140000000001
 10
7.651702999999999
 20
9.429061
 10
7.651702999999999
 20
9.874060999999999
 42
0.4142140000000001
 10
7.479702999999999
 20
10.04606099999999
 10
4.395703
 20
10.04606099999999
 42
0.4142140000000001
 10
4.223702999999999
 20
9.874060999999999
 10
4.223702999999999
 20
9.429061
 42
-0.4142140000000001
 10
4.020703
 20
9.226060999999999
 10
3.825702999999999
 20
9.226060999999999
 42
0.4142140000000001
  0
LWPOLYLINE
  5
BA8
330
1E
100
AcDbEntity
  8
HIDDEN
100
AcDbPolyline
 90
        6
 70
     1
 43
0.0
 10
8.209702999999999
 20
9.710060999999999
 10
8.209702999999999
 20
9.874060999999999
 42
0.4142140000000001
 10
8.049702999999999
 20
10.034061
 10
7.594632999999999
 20
10.034061
 42
-0.241509
 10
7.676702999999999
 20
9.874060999999999
 10
7.676702999999999
 20
9.710060999999999
  0
ARC
  5
BB0
330
1E
100
AcDbEntity
  8
HIDDEN
100
AcDbCircle
 10
8.023702999999999
 20
9.848060999999999
 30
0.0
 40
0.191
100
AcDbArc
 50
103.138868
 51
226.262357
  0
ARC
  5
BB1
330
1E
100
AcDbEntity
  8
HIDDEN
100
AcDbCircle
 10
3.851703
 20
9.848060999999999
 30
0.0
 40
0.191
100
AcDbArc
 50
313.7376429999999
 51
76.861132
  0
LWPOLYLINE
  5
BB2
330
1E
100
AcDbEntity
  8
HIDDEN
100
AcDbPolyline
 90
        6
 70
     1
 43
0.0
 10
3.665702999999999
 20
9.710060999999999
 10
3.665702999999999
 20
9.874060999999999
 42
-0.4142140000000001
 10
3.825702999999999
 20
10.034061
 10
4.280771999999999
 20
10.034061
 42
0.241509
 10
4.198703
 20
9.874060999999999
 10
4.198703
 20
9.710060999999999
  0
ARC
  5
BBA
330
1E
100
AcDbEntity
  8
HIDDEN
100
AcDbCircle
 10
3.851703
 20
5.676060999999999
 30
0.0
 40
0.191
100
AcDbArc
 50
283.1388679999999
 51
46.262357
  0
LWPOLYLINE
  5
BBB
330
1E
100
AcDbEntity
  8
HIDDEN
100
AcDbPolyline
 90
        6
 70
     1
 43
0.0
 10
3.665702999999999
 20
5.814060999999999
 10
3.665702999999999
 20
5.650060999999999
 42
0.4142140000000001
 10
3.825702999999999
 20
5.490060999999999
 10
4.280771999999999
 20
5.490060999999999
 42
-0.241509
 10
4.198703
 20
5.650060999999999
 10
4.198703
 20
5.814060999999999
  0
LWPOLYLINE
  5
BC3
330
1E
100
AcDbEntity
  8
HIDDEN
100
AcDbPolyline
 90
        6
 70
     1
 43
0.0
 10
8.209702999999999
 20
5.814060999999999
 10
8.209702999999999
 20
5.650060999999999
 42
-0.4142140000000001
 10
8.049702999999999
 20
5.490060999999999
 10
7.594632999999999
 20
5.490060999999999
 42
0.241509
 10
7.676702999999999
 20
5.650060999999999
 10
7.676702999999999
 20
5.814060999999999
  0
ARC
  5
BCB
330
1E
100
AcDbEntity
  8
HIDDEN
100
AcDbCircle
 10
8.023702999999999
 20
5.676060999999999
 30
0.0
 40
0.191
100
AcDbArc
 50
133.7376429999999
 51
256.861132
  0
LWPOLYLINE
  5
BCC
330
1E
100
AcDbEntity
  8
OBJECT
100
AcDbPolyline
 90
        8
 70
     1
 43
0.0
 10
3.825702999999999
 20
5.420061
 10
8.049702999999999
 20
5.420061
 42
0.4142140000000001
 10
8.279702999999999
 20
5.650060999999999
 10
8.279702999999999
 20
9.874060999999999
 42
0.4142140000000001
 10
8.049702999999999
 20
10.10406099999999
 10
3.825702999999999
 20
10.10406099999999
 42
0.4142140000000001
 10
3.595702999999999
 20
9.874060999999999
 10
3.595702999999999
 20
5.650060999999999
 42
0.4142140000000001
  0
LINE
  5
BD6
330
1E
100
AcDbEntity
  8
OBJECT
100
AcDbLine
 10
3.638202999999999
 20
14.848516
 30
0.0
 11
8.237202999999999
 21
14.848516
 31
0.0
  0
LINE
  5
BD7
330
1E
100
AcDbEntity
  8
OBJECT
100
AcDbLine
 10
3.575702999999999
 20
13.707516
 30
0.0
 11
8.299702999999999
 21
13.707516
 31
0.0
  0
LINE
  5
BD8
330
1E
100
AcDbEntity
  8
OBJECT
100
AcDbLine
 10
3.595702999999999
 20
13.667516
 30
0.0
 11
8.279702999999999
 21
13.667516
 31
0.0
  0
LINE
  5
BD9
330
1E
100
AcDbEntity
  8
OBJECT
100
AcDbLine
 10
8.221702999999999
 20
13.627516
 30
0.0
 11
3.653702999999999
 21
13.627516
 31
0.0
  0
LINE
  5
BDA
330
1E
100
AcDbEntity
  8
HIDDEN
100
AcDbLine
 10
3.693702999999999
 20
14.73051599999999
 30
0.0
 11
8.181703
 21
14.73051599999999
 31
0.0
  0
ARC
  5
BDB
330
1E
100
AcDbEntity
  8
OBJECT
100
AcDbCircle
 10
8.237202999999999
 20
14.786016
 30
0.0
 40
0.0625
100
AcDbArc
 50
0.0
 51
90.0
  0
LINE
  5
BDC
330
1E
100
AcDbEntity
  8
OBJECT
100
AcDbLine
 10
8.299702999999999
 20
13.707516
 30
0.0
 11
8.299702999999999
 21
14.786016
 31
0.0
  0
LINE
  5
BDD
330
1E
100
AcDbEntity
  8
OBJECT
100
AcDbLine
 10
8.279702999999999
 20
13.667516
 30
0.0
 11
8.279702999999999
 21
13.707516
 31
0.0
  0
LINE
  5
BDE
330
1E
100
AcDbEntity
  8
HIDDEN
100
AcDbLine
 10
8.181703
 20
14.73051599999999
 30
0.0
 11
8.181703
 21
13.627516
 31
0.0
  0
LINE
  5
BDF
330
1E
100
AcDbEntity
  8
HIDDEN
100
AcDbLine
 10
7.611702999999999
 20
14.73051599999999
 30
0.0
 11
7.611702999999999
 21
13.627516
 31
0.0
  0
LINE
  5
BE0
330
1E
100
AcDbEntity
  8
HIDDEN
100
AcDbLine
 10
8.209702999999999
 20
13.778516
 30
0.0
 11
8.209702999999999
 21
14.848516
 31
0.0
  0
LINE
  5
BE1
330
1E
100
AcDbEntity
  8
HIDDEN
100
AcDbLine
 10
7.885702999999999
 20
13.778516
 30
0.0
 11
7.885702999999999
 21
14.848516
 31
0.0
  0
LINE
  5
BE2
330
1E
100
AcDbEntity
  8
HIDDEN
100
AcDbLine
 10
7.819702999999999
 20
14.73051599999999
 30
0.0
 11
7.819702999999999
 21
13.667516
 31
0.0
  0
LINE
  5
BE3
330
1E
100
AcDbEntity
  8
HIDDEN
100
AcDbLine
 10
7.676702999999999
 20
14.73051599999999
 30
0.0
 11
7.676702999999999
 21
13.667516
 31
0.0
  0
LINE
  5
BE4
330
1E
100
AcDbEntity
  8
OBJECT
100
AcDbLine
 10
8.221702999999999
 20
13.627516
 30
0.0
 11
8.221702999999999
 21
13.667516
 31
0.0
  0
LINE
  5
BE5
330
1E
100
AcDbEntity
  8
HIDDEN
100
AcDbLine
 10
7.957702999999999
 20
13.667516
 30
0.0
 11
7.957702999999999
 21
13.998516
 31
0.0
  0
LINE
  5
BE6
330
1E
100
AcDbEntity
  8
HIDDEN
100
AcDbLine
 10
8.089703
 20
13.667516
 30
0.0
 11
8.089703
 21
13.998516
 31
0.0
  0
LINE
  5
BE7
330
1E
100
AcDbEntity
  8
HIDDEN
100
AcDbLine
 10
7.898703
 20
13.667516
 30
0.0
 11
7.898703
 21
13.998516
 31
0.0
  0
LINE
  5
BE8
330
1E
100
AcDbEntity
  8
HIDDEN
100
AcDbLine
 10
8.148702999999999
 20
13.667516
 30
0.0
 11
8.148702999999999
 21
13.998516
 31
0.0
  0
LINE
  5
BE9
330
1E
100
AcDbEntity
  8
HIDDEN
100
AcDbLine
 10
8.209702999999999
 20
13.778516
 30
0.0
 11
7.885702999999999
 21
13.778516
 31
0.0
  0
LINE
  5
BEA
330
1E
100
AcDbEntity
  8
HIDDEN
100
AcDbLine
 10
8.209702999999999
 20
13.998516
 30
0.0
 11
7.885702999999999
 21
13.998516
 31
0.0
  0
LINE
  5
BEB
330
1E
100
AcDbEntity
  8
OBJECT
100
AcDbLine
 10
7.651702999999999
 20
13.627516
 30
0.0
 11
7.651702999999999
 21
13.667516
 31
0.0
  0
LINE
  5
BEC
330
1E
100
AcDbEntity
  8
HIDDEN
100
AcDbLine
 10
4.263702999999999
 20
14.73051599999999
 30
0.0
 11
4.263702999999999
 21
13.627516
 31
0.0
  0
LINE
  5
BED
330
1E
100
AcDbEntity
  8
HIDDEN
100
AcDbLine
 10
4.198703
 20
14.73051599999999
 30
0.0
 11
4.198703
 21
13.667516
 31
0.0
  0
LINE
  5
BEE
330
1E
100
AcDbEntity
  8
OBJECT
100
AcDbLine
 10
4.223702999999999
 20
13.627516
 30
0.0
 11
4.223702999999999
 21
13.667516
 31
0.0
  0
LINE
  5
BEF
330
1E
100
AcDbEntity
  8
HIDDEN
100
AcDbLine
 10
3.693702999999999
 20
14.73051599999999
 30
0.0
 11
3.693702999999999
 21
13.627516
 31
0.0
  0
LINE
  5
BF0
330
1E
100
AcDbEntity
  8
OBJECT
100
AcDbLine
 10
3.575702999999999
 20
13.707516
 30
0.0
 11
3.575702999999999
 21
14.786016
 31
0.0
  0
LINE
  5
BF1
330
1E
100
AcDbEntity
  8
HIDDEN
100
AcDbLine
 10
4.055703
 20
14.73051599999999
 30
0.0
 11
4.055703
 21
13.667516
 31
0.0
  0
LINE
  5
BF2
330
1E
100
AcDbEntity
  8
HIDDEN
100
AcDbLine
 10
3.989703
 20
13.778516
 30
0.0
 11
3.989703
 21
14.848516
 31
0.0
  0
LINE
  5
BF3
330
1E
100
AcDbEntity
  8
HIDDEN
100
AcDbLine
 10
3.665702999999999
 20
13.778516
 30
0.0
 11
3.665702999999999
 21
14.848516
 31
0.0
  0
LINE
  5
BF4
330
1E
100
AcDbEntity
  8
OBJECT
100
AcDbLine
 10
3.595702999999999
 20
13.667516
 30
0.0
 11
3.595702999999999
 21
13.707516
 31
0.0
  0
LINE
  5
BF5
330
1E
100
AcDbEntity
  8
OBJECT
100
AcDbLine
 10
3.653702999999999
 20
13.627516
 30
0.0
 11
3.653702999999999
 21
13.667516
 31
0.0
  0
LINE
  5
BF6
330
1E
100
AcDbEntity
  8
HIDDEN
100
AcDbLine
 10
3.665702999999999
 20
13.998516
 30
0.0
 11
3.989703
 21
13.998516
 31
0.0
  0
LINE
  5
BF7
330
1E
100
AcDbEntity
  8
HIDDEN
100
AcDbLine
 10
3.665702999999999
 20
13.778516
 30
0.0
 11
3.989703
 21
13.778516
 31
0.0
  0
LINE
  5
BF8
330
1E
100
AcDbEntity
  8
HIDDEN
100
AcDbLine
 10
3.726703
 20
13.667516
 30
0.0
 11
3.726703
 21
13.998516
 31
0.0
  0
LINE
  5
BF9
330
1E
100
AcDbEntity
  8
HIDDEN
100
AcDbLine
 10
3.976703
 20
13.667516
 30
0.0
 11
3.976703
 21
13.998516
 31
0.0
  0
LINE
  5
BFA
330
1E
100
AcDbEntity
  8
HIDDEN
100
AcDbLine
 10
3.785702999999999
 20
13.667516
 30
0.0
 11
3.785702999999999
 21
13.998516
 31
0.0
  0
LINE
  5
BFB
330
1E
100
AcDbEntity
  8
HIDDEN
100
AcDbLine
 10
3.917702999999999
 20
13.667516
 30
0.0
 11
3.917702999999999
 21
13.998516
 31
0.0
  0
ARC
  5
BFC
330
1E
100
AcDbEntity
  8
OBJECT
100
AcDbCircle
 10
3.638202999999999
 20
14.786016
 30
0.0
 40
0.0625
100
AcDbArc
 50
90.0
 51
180.0
  0
CIRCLE
  5
BFD
330
1E
100
AcDbEntity
  8
OBJECT
100
AcDbCircle
 10
5.937702999999999
 20
9.731061
 30
0.0
 40
0.045
  0
LWPOLYLINE
  5
BFE
330
1E
100
AcDbEntity
  8
OBJECT
100
AcDbPolyline
 90
        8
 70
     1
 43
0.0
 10
6.233202999999999
 20
9.790060999999999
 10
6.047902999999999
 20
9.790060999999999
 42
0.598912
 10
5.827503
 20
9.790060999999999
 10
5.642203
 20
9.790060999999999
 42
1.0
 10
5.642203
 20
9.672060999999999
 10
5.827503
 20
9.672060999999999
 42
0.598912
 10
6.047902999999999
 20
9.672060999999999
 10
6.233202999999999
 20
9.672060999999999
 42
1.0
  0
LWPOLYLINE
  5
C08
330
1E
100
AcDbEntity
  8
OBJECT
100
AcDbPolyline
 90
        8
 70
     1
 43
0.0
 10
3.949702999999999
 20
8.057560999999999
 10
3.949702999999999
 20
7.872260999999999
 42
0.598912
 10
3.949702999999999
 20
7.651861999999999
 10
3.949702999999999
 20
7.466561
 42
1.0
 10
4.067702999999999
 20
7.466561
 10
4.067702999999999
 20
7.651861999999999
 42
0.598912
 10
4.067702999999999
 20
7.872260999999999
 10
4.067702999999999
 20
8.057560999999999
 42
1.0
  0
CIRCLE
  5
C12
330
1E
100
AcDbEntity
  8
OBJECT
100
AcDbCircle
 10
4.008702999999999
 20
7.762061
 30
0.0
 40
0.045
  0
LWPOLYLINE
  5
C13
330
1E
100
AcDbEntity
  8
OBJECT
100
AcDbPolyline
 90
        8
 70
     1
 43
0.0
 10
6.233202999999999
 20
5.734060999999999
 10
6.047902999999999
 20
5.734060999999999
 42
-0.598912
 10
5.827503
 20
5.734060999999999
 10
5.642203
 20
5.734060999999999
 42
-1.0
 10
5.642203
 20
5.852060999999999
 10
5.827503
 20
5.852060999999999
 42
-0.598912
 10
6.047902999999999
 20
5.852060999999999
 10
6.233202999999999
 20
5.852060999999999
 42
-1.0
  0
CIRCLE
  5
C1D
330
1E
100
AcDbEntity
  8
OBJECT
100
AcDbCircle
 10
5.937702999999999
 20
5.793060999999999
 30
0.0
 40
0.045
  0
CIRCLE
  5
C1E
330
1E
100
AcDbEntity
  8
OBJECT
100
AcDbCircle
 10
4.008702999999999
 20
8.510061
 30
0.0
 40
0.087
  0
CIRCLE
  5
C1F
330
1E
100
AcDbEntity
  8
OBJECT
100
AcDbCircle
 10
4.008702999999999
 20
8.510061
 30
0.0
 40
0.149
  0
CIRCLE
  5
C20
330
1E
100
AcDbEntity
  8
OBJECT
100
AcDbCircle
 10
4.008702999999999
 20
8.510061
 30
0.0
 40
0.175
  0
CIRCLE
  5
C26
330
1E
100
AcDbEntity
  8
OBJECT
100
AcDbCircle
 10
4.008702999999999
 20
7.014060999999999
 30
0.0
 40
0.175
  0
CIRCLE
  5
C27
330
1E
100
AcDbEntity
  8
OBJECT
100
AcDbCircle
 10
4.008702999999999
 20
7.014060999999999
 30
0.0
 40
0.149
  0
CIRCLE
  5
C2B
330
1E
100
AcDbEntity
  8
OBJECT
100
AcDbCircle
 10
4.008702999999999
 20
7.014060999999999
 30
0.0
 40
0.087
  0
CIRCLE
  5
C2C
330
1E
100
AcDbEntity
  8
OBJECT
100
AcDbCircle
 10
7.866703
 20
7.014060999999999
 30
0.0
 40
0.149
  0
CIRCLE
  5
C2D
330
1E
100
AcDbEntity
  8
OBJECT
100
AcDbCircle
 10
7.866703
 20
7.014060999999999
 30
0.0
 40
0.175
  0
CIRCLE
  5
C2F
330
1E
100
AcDbEntity
  8
OBJECT
100
AcDbCircle
 10
7.866703
 20
7.014060999999999
 30
0.0
 40
0.087
  0
CIRCLE
  5
C34
330
1E
100
AcDbEntity
  8
OBJECT
100
AcDbCircle
 10
7.866703
 20
8.510061
 30
0.0
 40
0.175
  0
CIRCLE
  5
C35
330
1E
100
AcDbEntity
  8
OBJECT
100
AcDbCircle
 10
7.866703
 20
8.510061
 30
0.0
 40
0.149
  0
CIRCLE
  5
C36
330
1E
100
AcDbEntity
  8
OBJECT
100
AcDbCircle
 10
7.866703
 20
7.762061
 30
0.0
 40
0.045
  0
LWPOLYLINE
  5
C37
330
1E
100
AcDbEntity
  8
OBJECT
100
AcDbPolyline
 90
        8
 70
     1
 43
0.0
 10
7.925702999999999
 20
8.057560999999999
 10
7.925702999999999
 20
7.872260999999999
 42
-0.598912
 10
7.925702999999999
 20
7.651861999999999
 10
7.925702999999999
 20
7.466561
 42
-1.0
 10
7.807703
 20
7.466561
 10
7.807703
 20
7.651861999999999
 42
-0.598912
 10
7.807703
 20
7.872260999999999
 10
7.807703
 20
8.057560999999999
 42
-1.0
  0
CIRCLE
  5
C44
330
1E
100
AcDbEntity
  8
OBJECT
100
AcDbCircle
 10
7.866703
 20
8.510061
 30
0.0
 40
0.087
  0
LWPOLYLINE
  5
C45
330
1E
100
AcDbEntity
  8
HIDDEN
100
AcDbPolyline
 90
        4
 70
     0
 43
0.0
 10
6.292202999999999
 20
14.73051599999999
 10
6.292202999999999
 20
14.561516
 10
5.583203
 20
14.561516
 10
5.583203
 20
14.73051599999999
  0
LWPOLYLINE
  5
C4B
330
1E
100
AcDbEntity
  8
BEND
100
AcDbPolyline
 90
       10
 70
     0
 10
7.393085000000001
 20
5.071162999999999
 40
0.0
 41
0.156711
 10
7.706507000000001
 20
5.071162999999999
 40
0.026118
 41
0.026118
 10
8.023702999999999
 20
5.071162999999999
 40
0.026118
 41
0.026118
 10
8.023702999999999
 20
6.434294
 40
0.026118
 41
0.026118
 10
7.866703
 20
6.434294
 40
0.026118
 41
0.026118
 10
7.866703
 20
8.237224000000001
 40
0.026118
 41
0.026118
 10
7.403764999999999
 20
8.237224000000001
 40
0.026118
 41
0.026118
 10
7.403764999999999
 20
10.47228999999999
 40
0.026118
 41
0.026118
 10
7.027458999999999
 20
10.47228999999999
 40
0.156711
 41
0.0
 10
6.714036999999999
 20
10.47228999999999
 40
0.0
 41
0.0
  0
LINE
  5
C57
330
1E
100
AcDbEntity
  8
OBJECT
100
AcDbLine
 10
13.30800299999999
 20
10.10406099999999
 30
0.0
 11
13.30800299999999
 21
10.04606099999999
 31
0.0
  0
LINE
  5
C58
330
1E
100
AcDbEntity
  8
OBJECT
100
AcDbLine
 10
14.37100299999999
 20
10.006061
 30
0.0
 11
14.37100299999999
 21
8.116561
 31
0.0
  0
LINE
  5
C59
330
1E
100
AcDbEntity
  8
OBJECT
100
AcDbLine
 10
14.489003
 20
10.06156099999999
 30
0.0
 11
14.489003
 21
5.462560999999999
 31
0.0
  0
LINE
  5
C5A
330
1E
100
AcDbEntity
  8
OBJECT
100
AcDbLine
 10
13.268003
 20
5.478061
 30
0.0
 11
13.268003
 21
10.04606099999999
 31
0.0
  0
LINE
  5
C5B
330
1E
100
AcDbEntity
  8
OBJECT
100
AcDbLine
 10
13.348003
 20
10.12406099999999
 30
0.0
 11
13.348003
 21
10.10406099999999
 31
0.0
  0
LINE
  5
C5C
330
1E
100
AcDbEntity
  8
OBJECT
100
AcDbLine
 10
13.30800299999999
 20
5.801060999999999
 30
0.0
 11
13.639003
 21
5.801060999999999
 31
0.0
  0
LINE
  5
C5D
330
1E
100
AcDbEntity
  8
OBJECT
100
AcDbLine
 10
13.30800299999999
 20
5.551060999999999
 30
0.0
 11
13.639003
 21
5.551060999999999
 31
0.0
  0
LINE
  5
C5E
330
1E
100
AcDbEntity
  8
OBJECT
100
AcDbLine
 10
13.30800299999999
 20
5.610060999999999
 30
0.0
 11
13.639003
 21
5.610060999999999
 31
0.0
  0
LINE
  5
C5F
330
1E
100
AcDbEntity
  8
OBJECT
100
AcDbLine
 10
13.30800299999999
 20
5.742060999999999
 30
0.0
 11
13.639003
 21
5.742060999999999
 31
0.0
  0
LINE
  5
C60
330
1E
100
AcDbEntity
  8
OBJECT
100
AcDbLine
 10
13.348003
 20
5.400060999999999
 30
0.0
 11
14.426503
 21
5.400060999999999
 31
0.0
  0
LINE
  5
C61
330
1E
100
AcDbEntity
  8
OBJECT
100
AcDbLine
 10
14.37100299999999
 20
6.338060999999999
 30
0.0
 11
13.268003
 21
6.338060999999999
 31
0.0
  0
LINE
  5
C62
330
1E
100
AcDbEntity
  8
OBJECT
100
AcDbLine
 10
14.37100299999999
 20
6.273061
 30
0.0
 11
13.30800299999999
 21
6.273061
 31
0.0
  0
LINE
  5
C63
330
1E
100
AcDbEntity
  8
OBJECT
100
AcDbLine
 10
14.37100299999999
 20
5.880061
 30
0.0
 11
13.30800299999999
 21
5.880061
 31
0.0
  0
LINE
  5
C64
330
1E
100
AcDbEntity
  8
OBJECT
100
AcDbLine
 10
13.639003
 20
5.814060999999999
 30
0.0
 11
14.489003
 21
5.814060999999999
 31
0.0
  0
LINE
  5
C65
330
1E
100
AcDbEntity
  8
OBJECT
100
AcDbLine
 10
13.639003
 20
5.490060999999999
 30
0.0
 11
14.489003
 21
5.490060999999999
 31
0.0
  0
ARC
  5
C66
330
1E
100
AcDbEntity
  8
OBJECT
100
AcDbCircle
 10
14.426503
 20
5.462560999999999
 30
0.0
 40
0.0625
100
AcDbArc
 50
270.0
 51
0.0
  0
LINE
  5
C67
330
1E
100
AcDbEntity
  8
OBJECT
100
AcDbLine
 10
13.639003
 20
5.490060999999999
 30
0.0
 11
13.639003
 21
5.814060999999999
 31
0.0
  0
LWPOLYLINE
  5
C68
330
1E
100
AcDbEntity
  8
OBJECT
100
AcDbPolyline
 90
        4
 70
     0
 43
0.0
 10
14.202003
 20
6.566310999999999
 10
14.390003
 20
6.566310999999999
 10
14.390003
 20
6.753810999999999
 10
14.202003
 20
6.753810999999999
  0
LWPOLYLINE
  5
C76
330
1E
100
AcDbEntity
  8
OBJECT
100
AcDbPolyline
 90
        4
 70
     0
 43
0.0
 10
14.37100299999999
 20
7.189060999999999
 10
14.202003
 20
7.163060999999999
 10
14.202003
 20
6.865060999999999
 10
14.37100299999999
 20
6.839061
  0
LWPOLYLINE
  5
C7C
330
1E
100
AcDbEntity
  8
OBJECT
100
AcDbPolyline
 90
        4
 70
     0
 43
0.0
 10
14.202003
 20
7.097061
 10
14.405003
 20
7.097061
 10
14.405003
 20
6.931060999999999
 10
14.202003
 20
6.931060999999999
  0
LINE
  5
C82
330
1E
100
AcDbEntity
  8
OBJECT
100
AcDbLine
 10
13.30800299999999
 20
5.420061
 30
0.0
 11
13.348003
 21
5.420061
 31
0.0
  0
LINE
  5
C83
330
1E
100
AcDbEntity
  8
OBJECT
100
AcDbLine
 10
13.268003
 20
5.478061
 30
0.0
 11
13.30800299999999
 21
5.478061
 31
0.0
  0
LINE
  5
C84
330
1E
100
AcDbEntity
  8
OBJECT
100
AcDbLine
 10
13.268003
 20
6.298060999999999
 30
0.0
 11
13.30800299999999
 21
6.298060999999999
 31
0.0
  0
LINE
  5
C85
330
1E
100
AcDbEntity
  8
OBJECT
100
AcDbLine
 10
14.37100299999999
 20
9.186061
 30
0.0
 11
13.268003
 21
9.186061
 31
0.0
  0
LWPOLYLINE
  5
C86
330
1E
100
AcDbEntity
  8
HIDDEN
100
AcDbPolyline
 90
        4
 70
     0
 43
0.0
 10
14.202003
 20
8.427061
 10
14.405003
 20
8.427061
 10
14.405003
 20
8.593061
 10
14.202003
 20
8.593061
  0
LWPOLYLINE
  5
C8C
330
1E
100
AcDbEntity
  8
OBJECT
100
AcDbPolyline
 90
        4
 70
     0
 43
0.0
 10
14.37100299999999
 20
8.335060999999999
 10
14.202003
 20
8.361060999999999
 10
14.202003
 20
8.659060999999999
 10
14.37100299999999
 20
8.685060999999999
  0
LWPOLYLINE
  5
C92
330
1E
100
AcDbEntity
  8
OBJECT
100
AcDbPolyline
 90
        4
 70
     0
 43
0.0
 10
14.202003
 20
7.807061
 10
14.405003
 20
7.807061
 10
14.405003
 20
7.717061
 10
14.202003
 20
7.717061
  0
LWPOLYLINE
  5
C98
330
1E
100
AcDbEntity
  8
OBJECT
100
AcDbPolyline
 90
        4
 70
     0
 43
0.0
 10
14.37100299999999
 20
7.407561
 10
14.202003
 20
7.407561
 10
14.202003
 20
8.116561
 10
14.37100299999999
 20
8.116561
  0
LINE
  5
C9E
330
1E
100
AcDbEntity
  8
HIDDEN
100
AcDbLine
 10
14.202003
 20
8.926560999999999
 30
0.0
 11
14.390003
 21
8.926560999999999
 31
0.0
  0
LINE
  5
C9F
330
1E
100
AcDbEntity
  8
HIDDEN
100
AcDbLine
 10
14.202003
 20
8.801560999999999
 30
0.0
 11
14.390003
 21
8.801560999999999
 31
0.0
  0
LWPOLYLINE
  5
CA0
330
1E
100
AcDbEntity
  8
HIDDEN
100
AcDbPolyline
 90
        4
 70
     0
 43
0.0
 10
14.202003
 20
8.957810999999999
 10
14.390003
 20
8.957810999999999
 10
14.390003
 20
8.770310999999999
 10
14.202003
 20
8.770310999999999
  0
LINE
  5
CAC
330
1E
100
AcDbEntity
  8
OBJECT
100
AcDbLine
 10
13.348003
 20
10.12406099999999
 30
0.0
 11
14.426503
 21
10.12406099999999
 31
0.0
  0
LINE
  5
CAD
330
1E
100
AcDbEntity
  8
OBJECT
100
AcDbLine
 10
14.37100299999999
 20
10.006061
 30
0.0
 11
13.268003
 21
10.006061
 31
0.0
  0
ARC
  5
CAE
330
1E
100
AcDbEntity
  8
OBJECT
100
AcDbCircle
 10
14.426503
 20
10.06156099999999
 30
0.0
 40
0.0625
100
AcDbArc
 50
0.0
 51
90.0
  0
LINE
  5
CAF
330
1E
100
AcDbEntity
  8
OBJECT
100
AcDbLine
 10
13.30800299999999
 20
10.10406099999999
 30
0.0
 11
13.348003
 21
10.10406099999999
 31
0.0
  0
LINE
  5
CB0
330
1E
100
AcDbEntity
  8
OBJECT
100
AcDbLine
 10
13.268003
 20
10.04606099999999
 30
0.0
 11
13.30800299999999
 21
10.04606099999999
 31
0.0
  0
LINE
  5
CB1
330
1E
100
AcDbEntity
  8
OBJECT
100
AcDbLine
 10
14.37100299999999
 20
6.273061
 30
0.0
 11
14.37100299999999
 21
5.880061
 31
0.0
  0
LINE
  5
CB2
330
1E
100
AcDbEntity
  8
OBJECT
100
AcDbLine
 10
13.30800299999999
 20
6.298060999999999
 30
0.0
 11
13.30800299999999
 21
5.420061
 31
0.0
  0
LINE
  5
CB3
330
1E
100
AcDbEntity
  8
OBJECT
100
AcDbLine
 10
13.348003
 20
5.420061
 30
0.0
 11
13.348003
 21
5.400060999999999
 31
0.0
  0
LINE
  5
CB4
330
1E
100
AcDbEntity
  8
OBJECT
100
AcDbLine
 10
14.37100299999999
 20
6.839061
 30
0.0
 11
14.37100299999999
 21
6.808060999999999
 31
0.0
  0
LINE
  5
CB5
330
1E
100
AcDbEntity
  8
OBJECT
100
AcDbLine
 10
14.37100299999999
 20
6.512061
 30
0.0
 11
14.37100299999999
 21
6.338060999999999
 31
0.0
  0
LINE
  5
CB6
330
1E
100
AcDbEntity
  8
OBJECT
100
AcDbLine
 10
14.37100299999999
 20
6.154061
 30
0.0
 11
14.489003
 21
6.154061
 31
0.0
  0
LINE
  5
CB7
330
1E
100
AcDbEntity
  8
OBJECT
100
AcDbLine
 10
14.37100299999999
 20
5.984060999999999
 30
0.0
 11
14.489003
 21
5.984060999999999
 31
0.0
  0
LINE
  5
CB8
330
1E
100
AcDbEntity
  8
HIDDEN
100
AcDbLine
 10
5.827503
 20
14.561516
 30
0.0
 11
5.827503
 21
14.73051599999999
 31
0.0
  0
LWPOLYLINE
  5
CB9
330
1E
100
AcDbEntity
  8
HIDDEN
100
AcDbPolyline
 90
        4
 70
     0
 43
0.0
 10
5.982702999999999
 20
14.561516
 10
5.982702999999999
 20
14.764516
 10
5.892703
 20
14.764516
 10
5.892703
 20
14.561516
  0
LINE
  5
CBF
330
1E
100
AcDbEntity
  8
HIDDEN
100
AcDbLine
 10
6.047902999999999
 20
14.561516
 30
0.0
 11
6.047902999999999
 21
14.73051599999999
 31
0.0
  0
LINE
  5
CC0
330
1E
100
AcDbEntity
  8
OBJECT
100
AcDbLine
 10
14.37100299999999
 20
7.407561
 30
0.0
 11
14.37100299999999
 21
7.189060999999999
 31
0.0
  0
LWPOLYLINE
  5
CC1
330
1E
100
AcDbEntity
  8
OBJECT
100
AcDbPolyline
 90
        4
 70
     0
 43
0.0
 10
14.37100299999999
 20
9.606061
 10
14.202003
 20
9.606061
 10
14.202003
 20
9.856061
 10
14.37100299999999
 20
9.856061
  0
LWPOLYLINE
  5
CC7
330
1E
100
AcDbEntity
  8
HIDDEN
100
AcDbPolyline
 90
        4
 70
     0
 43
0.0
 10
14.202003
 20
9.776061
 10
14.405003
 20
9.776061
 10
14.405003
 20
9.686061
 10
14.202003
 20
9.686061
  0
LINE
  5
CCD
330
1E
100
AcDbEntity
  8
OBJECT
100
AcDbLine
 10
13.30800299999999
 20
5.801060999999999
 30
0.0
 11
13.30800299999999
 21
5.742060999999999
 31
0.0
  0
LINE
  5
CCE
330
1E
100
AcDbEntity
  8
OBJECT
100
AcDbLine
 10
13.30800299999999
 20
5.742060999999999
 30
0.0
 11
13.639003
 21
5.742060999999999
 31
0.0
  0
LINE
  5
CCF
330
1E
100
AcDbEntity
  8
OBJECT
100
AcDbLine
 10
13.639003
 20
5.742060999999999
 30
0.0
 11
13.639003
 21
5.801060999999999
 31
0.0
  0
LINE
  5
CD0
330
1E
100
AcDbEntity
  8
OBJECT
100
AcDbLine
 10
13.639003
 20
5.801060999999999
 30
0.0
 11
13.30800299999999
 21
5.801060999999999
 31
0.0
  0
LINE
  5
CD1
330
1E
100
AcDbEntity
  8
OBJECT
100
AcDbLine
 10
13.30800299999999
 20
5.610060999999999
 30
0.0
 11
13.30800299999999
 21
5.551060999999999
 31
0.0
  0
LINE
  5
CD2
330
1E
100
AcDbEntity
  8
OBJECT
100
AcDbLine
 10
13.30800299999999
 20
5.551060999999999
 30
0.0
 11
13.639003
 21
5.551060999999999
 31
0.0
  0
LINE
  5
CD3
330
1E
100
AcDbEntity
  8
OBJECT
100
AcDbLine
 10
13.639003
 20
5.551060999999999
 30
0.0
 11
13.639003
 21
5.610060999999999
 31
0.0
  0
LINE
  5
CD4
330
1E
100
AcDbEntity
  8
OBJECT
100
AcDbLine
 10
13.639003
 20
5.610060999999999
 30
0.0
 11
13.30800299999999
 21
5.610060999999999
 31
0.0
  0
LWPOLYLINE
  5
CDD
330
1E
100
AcDbEntity
  8
OBJECT
100
AcDbPolyline
 90
        4
 70
     1
 43
0.0
 10
14.390003
 20
6.566310999999999
 10
14.390003
 20
6.597560999999999
 10
14.202003
 20
6.597560999999999
 10
14.202003
 20
6.566310999999999
  0
LWPOLYLINE
  5
CE3
330
1E
100
AcDbEntity
  8
OBJECT
100
AcDbPolyline
 90
        4
 70
     1
 43
0.0
 10
14.390003
 20
6.722560999999999
 10
14.390003
 20
6.753810999999999
 10
14.202003
 20
6.753810999999999
 10
14.202003
 20
6.722560999999999
  0
LWPOLYLINE
  5
CE9
102
{ACAD_REACTORS
330
1865
102
}
330
1E
100
AcDbEntity
  8
OBJECT
100
AcDbPolyline
 90
        4
 70
     1
 43
0.0
 10
13.30800299999999
 20
5.610060999999999
 10
13.30800299999999
 20
5.551060999999999
 10
13.639003
 20
5.551060999999999
 10
13.639003
 20
5.610060999999999
  0
LWPOLYLINE
  5
CEF
102
{ACAD_REACTORS
330
1865
102
}
330
1E
100
AcDbEntity
  8
OBJECT
100
AcDbPolyline
 90
        4
 70
     1
 43
0.0
 10
13.30800299999999
 20
5.801060999999999
 10
13.30800299999999
 20
5.742060999999999
 10
13.639003
 20
5.742060999999999
 10
13.639003
 20
5.801060999999999
  0
TEXT
  5
CF7
330
1E
100
AcDbEntity
  8
TEXT
100
AcDbText
 10
12.85845091855639
 20
4.339654112280392
 30
0.0
 40
0.25
  1
%%USECTION "A-A"
 41
0.8
  7
SECTION
 72
     1
 11
14.07606996617543
 21
4.339654112280392
 31
0.0
100
AcDbText
  0
DIMENSION
  5
CF8
330
1E
100
AcDbEntity
  8
DIM
100
AcDbDimension
  2
*D0
 10
14.489003
 20
10.547966
 30
0.0
 11
15.748378
 21
10.547966
 31
0.0
 70
    32
 71
     5
 42
0.2870000000000008
  3
23NSTD
100
AcDbAlignedDimension
 13
14.202003
 23
9.856061
 33
0.0
 14
14.489003
 24
10.06156099999999
 34
0.0
100
AcDbRotatedDimension
  0
DIMENSION
  5
D06
330
1E
100
AcDbEntity
  8
DIM
100
AcDbDimension
  2
*D1
 10
14.489003
 20
9.408692
 30
0.0
 11
15.685878
 21
9.408692
 31
0.0
 70
    32
 71
     5
 42
0.1180000000000003
  3
23NSTD
100
AcDbAlignedDimension
 13
14.37100299999999
 23
9.492386999999999
 33
0.0
 14
14.489003
 24
9.492386999999999
 34
0.0
100
AcDbRotatedDimension
  0
DIMENSION
  5
D14
330
1E
100
AcDbEntity
  8
DIM
100
AcDbDimension
  2
*D2
 10
14.489003
 20
4.964560999999999
 30
0.0
 11
14.064003
 21
4.964560999999999
 31
0.0
 70
    32
 71
     5
 42
0.8499999999999996
  3
23NSTDI
100
AcDbAlignedDimension
 13
13.639003
 23
5.490060999999999
 33
0.0
 14
14.489003
 24
5.462560999999999
 34
0.0
100
AcDbRotatedDimension
  0
DIMENSION
  5
D22
330
1E
100
AcDbEntity
  8
DIM
100
AcDbDimension
  2
*D3
 10
14.810175
 20
6.154061
 30
0.0
 11
16.03767499999999
 21
6.874061000000002
 31
0.0
 70
    32
  1
<> DIA.
 71
     5
 42
0.1700000000000008
  3
23NSTD
100
AcDbAlignedDimension
 13
14.489003
 23
5.984060999999999
 33
0.0
 14
14.489003
 24
6.154061
 34
0.0
 50
90.0
100
AcDbRotatedDimension
  0
DIMENSION
  5
D30
330
1E
100
AcDbEntity
  8
DIM
100
AcDbDimension
  2
*D4
 10
4.263702999999999
 20
4.172663
 30
0.0
 11
5.937702999999999
 21
4.172663
 31
0.0
 70
    32
 71
     5
 42
3.347999999999999
  3
23NSTD
100
AcDbAlignedDimension
 13
7.611702999999999
 23
5.650060999999999
 33
0.0
 14
4.263702999999999
 24
5.650060999999999
 34
0.0
100
AcDbRotatedDimension
  0
DIMENSION
  5
D3E
330
1E
100
AcDbEntity
  8
DIM
100
AcDbDimension
  2
*D5
 10
3.575702999999999
 20
4.172663
 30
0.0
 11
2.316327999999999
 21
4.172663
 31
0.0
 70
    32
 71
     5
 42
0.6879999999999998
  3
23NSTD
100
AcDbAlignedDimension
 13
4.263702999999999
 23
5.650060999999999
 33
0.0
 14
3.575702999999999
 24
5.650060999999999
 34
0.0
100
AcDbRotatedDimension
  0
DIMENSION
  5
D4C
330
1E
100
AcDbEntity
  8
DIM
100
AcDbDimension
  2
*D6
 10
5.937702999999999
 20
11.406061
 30
0.0
 11
4.756702999999999
 21
11.406061
 31
0.0
 70
    32
 71
     5
 42
2.362
  3
23NSTD
100
AcDbAlignedDimension
 13
3.575702999999999
 23
9.874060999999999
 33
0.0
 14
5.937702999999999
 24
9.731061
 34
0.0
 50
180.0
100
AcDbRotatedDimension
  0
DIMENSION
  5
D5A
330
1E
100
AcDbEntity
  8
DIM
100
AcDbDimension
  2
*D7
 10
8.299702999999999
 20
13.09206099999999
 30
0.0
 11
5.937702999999999
 21
13.09206099999999
 31
0.0
 70
    32
 71
     5
 42
4.723999999999999
  3
23NSTD
100
AcDbAlignedDimension
 13
3.575702999999999
 23
9.874060999999999
 33
0.0
 14
8.299702999999999
 24
9.874060999999999
 34
0.0
 50
180.0
100
AcDbRotatedDimension
  0
DIMENSION
  5
D68
330
1E
100
AcDbEntity
  8
DIM
100
AcDbDimension
  2
*D8
 10
3.851703
 20
12.530061
 30
0.0
 11
5.937702999999999
 21
12.530061
 31
0.0
 70
    32
 71
     5
 42
4.171999999999998
  3
23NSTD
100
AcDbAlignedDimension
 13
8.023702999999999
 23
9.848060999999999
 33
0.0
 14
3.851703
 24
9.848060999999999
 34
0.0
 50
180.0
100
AcDbRotatedDimension
  0
DIMENSION
  5
D76
330
1E
100
AcDbEntity
  8
DIM
100
AcDbDimension
  2
*D9
 10
3.575702999999999
 20
12.530061
 30
0.0
 11
2.316327999999999
 21
12.530061
 31
0.0
 70
    32
 71
     5
 42
0.2760000000000002
  3
23NSTD
100
AcDbAlignedDimension
 13
3.851703
 23
9.848060999999999
 33
0.0
 14
3.575702999999999
 24
9.874060999999999
 34
0.0
 50
180.0
100
AcDbRotatedDimension
  0
DIMENSION
  5
D84
330
1E
100
AcDbEntity
  8
DIM
100
AcDbDimension
  2
*D10
 10
4.008702999999999
 20
11.968061
 30
0.0
 11
5.937702999999999
 21
11.968061
 31
0.0
 70
    32
 71
     5
 42
3.858
  3
23NSTD
100
AcDbAlignedDimension
 13
7.866703
 23
8.864060999999999
 33
0.0
 14
4.008702999999999
 24
8.864060999999999
 34
0.0
100
AcDbRotatedDimension
  0
DIMENSION
  5
D92
330
1E
100
AcDbEntity
  8
DIM
100
AcDbDimension
  2
*D11
 10
3.575702999999999
 20
11.968061
 30
0.0
 11
2.316327999999999
 21
11.968061
 31
0.0
 70
    32
 71
     5
 42
0.4329999999999999
  3
23NSTD
100
AcDbAlignedDimension
 13
4.008702999999999
 23
8.864060999999999
 33
0.0
 14
3.575702999999999
 24
9.874060999999999
 34
0.0
100
AcDbRotatedDimension
  0
DIMENSION
  5
DA0
330
1E
100
AcDbEntity
  8
DIM
100
AcDbDimension
  2
*D12
 10
8.950984
 20
8.510061
 30
0.0
 11
8.950983999999998
 21
8.136061000000001
 31
0.0
 70
    32
 71
     5
 42
0.7480000000000003
  3
23NSTDI
100
AcDbAlignedDimension
 13
7.866703
 23
7.762061
 33
0.0
 14
7.866703
 24
8.510061
 34
0.0
 50
90.0
100
AcDbRotatedDimension
  0
DIMENSION
  5
DAE
330
1E
100
AcDbEntity
  8
DIM
100
AcDbDimension
  2
*D13
 10
10.074984
 20
8.864060999999999
 30
0.0
 11
10.07498399999999
 21
8.313061000000001
 31
0.0
 70
    32
 71
     5
 42
1.101999999999999
  3
23NSTDI
100
AcDbAlignedDimension
 13
7.866703
 23
7.762061
 33
0.0
 14
7.866703
 24
8.864060999999999
 34
0.0
 50
90.0
100
AcDbRotatedDimension
  0
DIMENSION
  5
DBC
330
1E
100
AcDbEntity
  8
DIM
100
AcDbDimension
  2
*D14
 10
9.512983999999999
 20
7.014060999999999
 30
0.0
 11
9.512983999999997
 21
7.388061000000001
 31
0.0
 70
    32
 71
     5
 42
0.7480000000000003
  3
23NSTDI
100
AcDbAlignedDimension
 13
7.866703
 23
7.762061
 33
0.0
 14
7.866703
 24
7.014060999999999
 34
0.0
 50
90.0
100
AcDbRotatedDimension
  0
DIMENSION
  5
DCA
330
1E
100
AcDbEntity
  8
DIM
100
AcDbDimension
  2
*D15
 10
10.82298399999999
 20
6.660060999999998
 30
0.0
 11
10.82298399999999
 21
7.211061
 31
0.0
 70
    32
 71
     5
 42
1.102
  3
23NSTDI
100
AcDbAlignedDimension
 13
7.866703
 23
7.762061
 33
0.0
 14
7.866703
 24
6.660060999999999
 34
0.0
 50
90.0
100
AcDbRotatedDimension
  0
DIMENSION
  5
DD8
330
1E
100
AcDbEntity
  8
DIM
100
AcDbDimension
  2
*D16
 10
2.019689
 20
9.455061
 30
0.0
 11
2.019688999999998
 21
7.762061
 31
0.0
 70
    32
 71
     5
 42
3.385999999999999
  3
23NSTD
100
AcDbAlignedDimension
 13
3.851703
 23
6.069061
 33
0.0
 14
3.851703
 24
9.455061
 34
0.0
 50
270.0
100
AcDbRotatedDimension
  0
DIMENSION
  5
DE6
330
1E
100
AcDbEntity
  8
DIM
100
AcDbDimension
  2
*D17
 10
2.019689
 20
10.12406099999999
 30
0.0
 11
2.019688999999998
 21
9.789560999999999
 31
0.0
 70
    32
 71
     5
 42
0.6689999999999987
  3
23NSTDI
100
AcDbAlignedDimension
 13
3.851703
 23
9.455061
 33
0.0
 14
3.825702999999999
 24
10.12406099999999
 34
0.0
 50
270.0
100
AcDbRotatedDimension
  0
DIMENSION
  5
DF4
330
1E
100
AcDbEntity
  8
DIM
100
AcDbDimension
  2
*D18
 10
11.57098399999999
 20
9.848060999999999
 30
0.0
 11
11.57098399999999
 21
7.762061
 31
0.0
 70
    32
 71
     5
 42
4.171999999999999
  3
23NSTD
100
AcDbAlignedDimension
 13
8.023702999999999
 23
5.676060999999999
 33
0.0
 14
8.023702999999999
 24
9.848060999999999
 34
0.0
 50
270.0
100
AcDbRotatedDimension
  0
DIMENSION
  5
E02
330
1E
100
AcDbEntity
  8
DIM
100
AcDbDimension
  2
*D19
 10
11.57098399999999
 20
10.12406099999999
 30
0.0
 11
12.47035899999999
 21
10.844061
 31
0.0
 70
    32
 71
     5
 42
0.2759999999999998
  3
23NSTD
100
AcDbAlignedDimension
 13
8.023702999999999
 23
9.848060999999999
 33
0.0
 14
8.049702999999999
 24
10.12406099999999
 34
0.0
 50
270.0
100
AcDbRotatedDimension
  0
DIMENSION
  5
E10
330
1E
100
AcDbEntity
  8
DIM
100
AcDbDimension
  2
*D20
 10
2.999689
 20
9.186061
 30
0.0
 11
2.999688999999998
 21
7.762061
 31
0.0
 70
    32
 71
     5
 42
2.847999999999999
  3
23NSTD
100
AcDbAlignedDimension
 13
3.825702999999999
 23
6.338060999999999
 33
0.0
 14
3.825702999999999
 24
9.186061
 34
0.0
 50
90.0
100
AcDbRotatedDimension
  0
DIMENSION
  5
E1E
330
1E
100
AcDbEntity
  8
DIM
100
AcDbDimension
  2
*D21
 10
2.999689
 20
10.12406099999999
 30
0.0
 11
2.999688999999998
 21
9.655060999999999
 31
0.0
 70
    32
 71
     5
 42
0.9379999999999988
  3
23NSTDI
100
AcDbAlignedDimension
 13
3.825702999999999
 23
9.186061
 33
0.0
 14
3.825702999999999
 24
10.12406099999999
 34
0.0
 50
90.0
100
AcDbRotatedDimension
  0
DIMENSION
  5
E2C
330
1E
100
AcDbEntity
  8
DIM
100
AcDbDimension
  2
*D22
 10
1.039688999999999
 20
5.400061
 30
0.0
 11
1.039688999999999
 21
7.762061
 31
0.0
 70
    32
 71
     5
 42
4.723999999999998
  3
23NSTD
100
AcDbAlignedDimension
 13
3.825702999999999
 23
10.12406099999999
 33
0.0
 14
3.825702999999999
 24
5.400060999999999
 34
0.0
 50
90.0
100
AcDbRotatedDimension
  0
DIMENSION
  5
E3A
330
1E
100
AcDbEntity
  8
DIM
100
AcDbDimension
  2
*D23
 10
5.09492
 20
9.731061
 30
0.0
 11
5.094919999999999
 21
7.762061000000001
 31
0.0
 70
    32
 71
     5
 42
3.938000000000001
  3
23NSTD
100
AcDbAlignedDimension
 13
5.937702999999999
 23
5.793060999999999
 33
0.0
 14
5.937702999999999
 24
9.731061
 34
0.0
 50
90.0
100
AcDbRotatedDimension
  0
DIMENSION
  5
E48
330
1E
100
AcDbEntity
  8
DIM
100
AcDbDimension
  2
*D24
 10
8.181703
 20
7.285092999999998
 30
0.0
 11
5.937702999999999
 21
7.285092999999998
 31
0.0
 70
    32
 71
     5
 42
4.488000000000001
  3
23NSTD
100
AcDbAlignedDimension
 13
3.693702999999999
 23
7.021322
 33
0.0
 14
8.181703
 24
7.021322
 34
0.0
100
AcDbRotatedDimension
  0
DIMENSION
  5
E56
330
1E
100
AcDbEntity
  8
DIM
100
AcDbDimension
  2
*D25
 10
6.787725999999999
 20
10.006061
 30
0.0
 11
6.787725999999997
 21
7.762061000000002
 31
0.0
 70
    32
 71
     5
 42
4.488
  3
23NSTD
100
AcDbAlignedDimension
 13
6.882225999999999
 23
5.518061
 33
0.0
 14
6.882225999999999
 24
10.006061
 34
0.0
 50
270.0
100
AcDbRotatedDimension
  0
DIMENSION
  5
E64
330
1E
100
AcDbEntity
  8
DIM
100
AcDbDimension
  2
*D26
 10
6.787725999999999
 20
5.400060999999999
 30
0.0
 11
5.544600999999998
 21
4.680061000000002
 31
0.0
 70
    32
  1
<> TYP.
 71
     5
 42
0.1180000000000003
  3
23NSTD
100
AcDbAlignedDimension
 13
6.882225999999999
 23
5.518061
 33
0.0
 14
6.882225999999999
 24
5.400060999999999
 34
0.0
 50
270.0
100
AcDbRotatedDimension
  0
DIMENSION
  5
E72
330
1E
100
AcDbEntity
  8
DIM
100
AcDbDimension
  2
*D27
 10
4.585112
 20
10.12406099999999
 30
0.0
 11
5.484486999999998
 21
10.844061
 31
0.0
 70
    32
 71
     5
 42
0.3929999999999989
  3
23NSTD
100
AcDbAlignedDimension
 13
5.937702999999999
 23
9.731061
 33
0.0
 14
5.315366
 24
10.12406099999999
 34
0.0
 50
90.0
100
AcDbRotatedDimension
  0
LWPOLYLINE
  5
E80
330
1E
100
AcDbEntity
  8
OBJECT
100
AcDbPolyline
 90
        8
 70
     1
 43
0.0
 10
18.084156
 20
17.36244
 10
17.34295499999999
 20
17.36244
 42
0.598912
 10
16.461357
 20
17.36244
 10
15.720156
 20
17.36244
 42
1.0
 10
15.720156
 20
16.89043999999999
 10
16.461357
 20
16.89043999999999
 42
0.598912
 10
17.34295499999999
 20
16.89043999999999
 10
18.084156
 20
16.89043999999999
 42
1.0
  0
CIRCLE
  5
E8A
330
1E
100
AcDbEntity
  8
OBJECT
100
AcDbCircle
 10
16.902156
 20
17.12644
 30
0.0
 40
0.18
  0
TEXT
  5
E8B
330
1E
100
AcDbEntity
  8
TEXT
100
AcDbText
 10
15.91521719047619
 20
15.220741
 30
0.0
 40
0.25
  1
%%UDETAIL "C"
 41
0.8
  7
SECTION
 72
     1
 11
16.794741
 21
15.220741
 31
0.0
100
AcDbText
  0
LINE
  5
E8C
330
1E
100
AcDbEntity
  8
CENTER
100
AcDbLine
 10
16.83465599999999
 20
17.12644
 30
0.0
 11
16.969656
 21
17.12644
 31
0.0
  0
LINE
  5
E8D
330
1E
100
AcDbEntity
  8
CENTER
100
AcDbLine
 10
16.902156
 20
17.05893999999999
 30
0.0
 11
16.902156
 21
17.19393999999999
 31
0.0
  0
DIMENSION
  5
E8E
330
1E
100
AcDbEntity
  8
DIM
100
AcDbDimension
  2
*D28
 10
16.902156
 20
18.3026
 30
0.0
 11
16.193156
 21
18.3026
 31
0.0
 70
    32
 71
     5
 42
0.3545000000000003
  3
23NSTD4I
100
AcDbAlignedDimension
 13
15.484156
 23
17.12644
 33
0.0
 14
16.902156
 24
17.19393999999999
 34
0.0
100
AcDbRotatedDimension
  0
DIMENSION
  5
E9C
330
1E
100
AcDbEntity
  8
DIM
100
AcDbDimension
  2
*D29
 10
18.320156
 20
18.86459999999999
 30
0.0
 11
16.902156
 21
18.86459999999999
 31
0.0
 70
    32
 71
     5
 42
0.7090000000000001
  3
23NSTD4
100
AcDbAlignedDimension
 13
15.484156
 23
17.12644
 33
0.0
 14
18.320156
 24
17.12644
 34
0.0
100
AcDbRotatedDimension
  0
DIMENSION
  5
EAA
330
1E
100
AcDbEntity
  8
DIM
100
AcDbDimension
  2
*D30
 10
14.623842
 20
17.36244
 30
0.0
 11
14.62384199999999
 21
17.12644
 31
0.0
 70
    32
 71
     5
 42
0.1180000000000003
  3
23NSTD4I
100
AcDbAlignedDimension
 13
15.720156
 23
16.89043999999999
 33
0.0
 14
15.720156
 24
17.36244
 34
0.0
 50
270.0
100
AcDbRotatedDimension
  0
DIMENSION
  5
EB8
330
1E
100
AcDbEntity
  8
DIM
100
AcDbDimension
  2
*D31
 10
19.022654
 20
16.62644
 30
0.0
 11
19.02265399999999
 21
17.12644
 31
0.0
 70
    32
 71
     5
 42
0.25
  3
23NSTD4I
100
AcDbAlignedDimension
 13
16.902156
 23
17.62643999999999
 33
0.0
 14
16.902156
 24
16.62644
 34
0.0
 50
270.0
100
AcDbRotatedDimension
  0
TEXT
  5
EC6
330
1E
100
AcDbEntity
  8
TEXT
100
AcDbText
 10
15.950991
 20
14.80407399999999
 30
0.0
 40
0.25
  1
(4) PLACES
 41
0.75
 72
     1
 11
16.794741
 21
14.80407399999999
 31
0.0
100
AcDbText
  0
TEXT
  5
ECF
330
1E
100
AcDbEntity
  8
TEXT
100
AcDbText
 10
24.23566908772007
 20
4.132716999999999
 30
0.0
 40
0.25
  1
%%USECTION "B-B"
 41
0.8
  7
SECTION
 72
     1
 11
25.47233575438673
 21
4.132716999999999
 31
0.0
100
AcDbText
  0
DIMENSION
  5
ED0
330
1E
100
AcDbEntity
  8
DIM
100
AcDbDimension
  2
*D32
 10
23.77588275438673
 20
10.12406099999999
 30
0.0
 11
24.67525775438673
 21
10.844061
 31
0.0
 70
    32
 71
     5
 42
0.2759999999999998
  3
23NSTD
100
AcDbAlignedDimension
 13
23.03094375438673
 23
9.848060999999999
 33
0.0
 14
23.05694375438673
 24
10.12406099999999
 34
0.0
 50
90.0
100
AcDbRotatedDimension
  0
DIMENSION
  5
EDE
330
1E
100
AcDbEntity
  8
DIM
100
AcDbDimension
  2
*D33
 10
23.77588275438673
 20
9.848060999999999
 30
0.0
 11
23.77588275438673
 21
7.762061000000003
 31
0.0
 70
    32
  1
<>
 71
     5
 42
4.171999999999999
  3
23NSTD
100
AcDbAlignedDimension
 13
23.03094375438673
 23
5.676060999999999
 33
0.0
 14
23.03094375438673
 24
9.848060999999999
 34
0.0
 50
90.0
100
AcDbRotatedDimension
  0
DIMENSION
  5
EEC
330
1E
100
AcDbEntity
  8
DIM
100
AcDbDimension
  2
*D34
 10
18.03905275438673
 20
10.12406099999999
 30
0.0
 11
18.03905275438673
 21
7.762061000000003
 31
0.0
 70
    32
  1
<>
 71
     5
 42
4.723999999999998
  3
23NSTD
100
AcDbAlignedDimension
 13
18.83294375438673
 23
5.400060999999999
 33
0.0
 14
18.83294375438673
 24
10.12406099999999
 34
0.0
 50
270.0
100
AcDbRotatedDimension
  0
DIMENSION
  5
EFA
330
1E
100
AcDbEntity
  8
DIM
100
AcDbDimension
  2
*D35
 10
23.30694375438673
 20
11.337363
 30
0.0
 11
24.56631875438673
 21
11.337363
 31
0.0
 70
    32
 71
     5
 42
0.2759999999999998
  3
23NSTD
100
AcDbAlignedDimension
 13
23.03094375438673
 23
9.848060999999999
 33
0.0
 14
23.30694375438673
 24
9.874060999999999
 34
0.0
100
AcDbRotatedDimension
  0
DIMENSION
  5
F08
330
1E
100
AcDbEntity
  8
DIM
100
AcDbDimension
  2
*D36
 10
18.85894375438673
 20
11.337363
 30
0.0
 11
20.94494375438673
 21
11.337363
 31
0.0
 70
    32
  1
<>
 71
     5
 42
4.172
  3
23NSTD
100
AcDbAlignedDimension
 13
23.03094375438673
 23
9.848060999999999
 33
0.0
 14
18.85894375438673
 24
9.848060999999999
 34
0.0
100
AcDbRotatedDimension
  0
DIMENSION
  5
F16
330
1E
100
AcDbEntity
  8
DIM
100
AcDbDimension
  2
*D37
 10
18.58294375438673
 20
11.829113
 30
0.0
 11
20.94494375438673
 21
11.829113
 31
0.0
 70
    32
  1
<>
 71
     5
 42
4.724
  3
23NSTD
100
AcDbAlignedDimension
 13
23.30694375438673
 23
9.874060999999999
 33
0.0
 14
18.58294375438673
 24
9.874060999999999
 34
0.0
100
AcDbRotatedDimension
  0
CIRCLE
  5
F24
102
{ACAD_REACTORS
330
1ACA
102
}
330
1E
100
AcDbEntity
  8
BEND
100
AcDbCircle
 10
25.35751575438673
 20
5.845919
 30
0.0
 40
0.854662
  0
DIMENSION
  5
F2C
330
1E
100
AcDbEntity
  8
DIM
100
AcDbDimension
  2
*D38
 10
20.52167175438673
 20
5.400060999999999
 30
0.0
 11
19.26292175438673
 21
4.680061000000003
 31
0.0
 70
    32
  1
<> TYP.
 71
     5
 42
0.1799999999999997
  3
23NSTD
100
AcDbAlignedDimension
 13
20.46307875438674
 23
5.580060999999999
 33
0.0
 14
20.46307875438674
 24
5.400060999999999
 34
0.0
 50
90.0
100
AcDbRotatedDimension
  0
LWPOLYLINE
  5
F3A
330
1E
100
AcDbEntity
  8
OBJECT
100
AcDbPolyline
 90
        8
 70
     1
 43
0.0
 10
18.83294375438673
 20
5.400060999999999
 10
23.05694375438673
 20
5.400060999999999
 42
0.4142140000000001
 10
23.30694375438673
 20
5.650060999999999
 10
23.30694375438673
 20
9.874060999999999
 42
0.4142140000000001
 10
23.05694375438673
 20
10.12406099999999
 10
18.83294375438673
 20
10.12406099999999
 42
0.4142140000000001
 10
18.58294375438673
 20
9.874060999999999
 10
18.58294375438673
 20
5.650060999999999
 42
0.4142140000000001
  0
LWPOLYLINE
  5
F44
330
1E
100
AcDbEntity
  8
OBJECT
100
AcDbPolyline
 90
        8
 70
     1
 43
0.0
 10
23.24694375438673
 20
9.216542
 42
0.219243
 10
23.05694375438673
 20
9.304061
 10
22.86194375438673
 20
9.304061
 42
-0.4142140000000001
 10
22.73694375438673
 20
9.429061
 10
22.73694375438673
 20
9.874060999999999
 42
0.219243
 10
22.64942475438673
 20
10.064061
 10
23.05694375438673
 20
10.064061
 42
-0.4142140000000001
 10
23.24694375438673
 20
9.874060999999999
  0
CIRCLE
  5
F4E
330
1E
100
AcDbEntity
  8
OBJECT
100
AcDbCircle
 10
23.03094375438673
 20
9.848060999999999
 30
0.0
 40
0.085
  0
CIRCLE
  5
F4F
330
1E
100
AcDbEntity
  8
OBJECT
100
AcDbCircle
 10
23.03094375438673
 20
9.848060999999999
 30
0.0
 40
0.1775
  0
LWPOLYLINE
  5
F50
330
1E
100
AcDbEntity
  8
OBJECT
100
AcDbPolyline
 90
        8
 70
     1
 43
0.0
 10
18.64294375438674
 20
9.216542
 42
-0.219243
 10
18.83294375438673
 20
9.304061
 10
19.02794375438673
 20
9.304061
 42
0.4142140000000001
 10
19.15294375438673
 20
9.429061
 10
19.15294375438673
 20
9.874060999999999
 42
-0.219243
 10
19.24046375438673
 20
10.064061
 10
18.83294375438673
 20
10.064061
 42
0.4142140000000001
 10
18.64294375438674
 20
9.874060999999999
  0
CIRCLE
  5
F5A
330
1E
100
AcDbEntity
  8
OBJECT
100
AcDbCircle
 10
18.85894375438673
 20
9.848060999999999
 30
0.0
 40
0.1775
  0
CIRCLE
  5
F5B
330
1E
100
AcDbEntity
  8
OBJECT
100
AcDbCircle
 10
18.85894375438673
 20
9.848060999999999
 30
0.0
 40
0.085
  0
LWPOLYLINE
  5
F5C
330
1E
100
AcDbEntity
  8
OBJECT
100
AcDbPolyline
 90
        8
 70
     1
 43
0.0
 10
23.24694375438673
 20
6.307580999999999
 42
-0.219243
 10
23.05694375438673
 20
6.220061
 10
22.86194375438673
 20
6.220061
 42
0.4142140000000001
 10
22.73694375438673
 20
6.095061
 10
22.73694375438673
 20
5.650060999999999
 42
-0.219243
 10
22.64942475438673
 20
5.460061
 10
23.05694375438673
 20
5.460061
 42
0.4142140000000001
 10
23.24694375438673
 20
5.650060999999999
  0
CIRCLE
  5
F66
330
1E
100
AcDbEntity
  8
OBJECT
100
AcDbCircle
 10
23.03094375438673
 20
5.676060999999999
 30
0.0
 40
0.1775
  0
CIRCLE
  5
F67
330
1E
100
AcDbEntity
  8
OBJECT
100
AcDbCircle
 10
23.03094375438673
 20
5.676060999999999
 30
0.0
 40
0.085
  0
LWPOLYLINE
  5
F68
330
1E
100
AcDbEntity
  8
OBJECT
100
AcDbPolyline
 90
        8
 70
     1
 43
0.0
 10
18.64294375438674
 20
6.307580999999999
 42
0.219243
 10
18.83294375438673
 20
6.220061
 10
19.02794375438673
 20
6.220061
 42
-0.4142140000000001
 10
19.15294375438673
 20
6.095061
 10
19.15294375438673
 20
5.650060999999999
 42
0.219243
 10
19.24046375438673
 20
5.460061
 10
18.83294375438673
 20
5.460061
 42
-0.4142140000000001
 10
18.64294375438674
 20
5.650060999999999
  0
CIRCLE
  5
F72
330
1E
100
AcDbEntity
  8
OBJECT
100
AcDbCircle
 10
18.85894375438673
 20
5.676060999999999
 30
0.0
 40
0.085
  0
CIRCLE
  5
F73
330
1E
100
AcDbEntity
  8
OBJECT
100
AcDbCircle
 10
18.85894375438673
 20
5.676060999999999
 30
0.0
 40
0.1775
  0
LWPOLYLINE
  5
F74
102
{ACAD_REACTORS
330
1871
102
}
330
1E
100
AcDbEntity
  8
OBJECT
100
AcDbPolyline
 90
       24
 70
     1
 43
0.0
 10
18.64294375438674
 20
9.054061
 10
18.64294375438674
 20
6.470061
 42
0.4142140000000001
 10
18.83294375438673
 20
6.280060999999999
 10
19.02794375438673
 20
6.280060999999999
 42
-0.4142140000000001
 10
19.21294375438673
 20
6.095061
 10
19.21294375438673
 20
5.650060999999999
 42
0.4142140000000001
 10
19.40294375438673
 20
5.460061
 10
22.48694375438673
 20
5.460061
 42
0.4142140000000001
 10
22.67694375438674
 20
5.650060999999999
 10
22.67694375438674
 20
6.095061
 42
-0.4142140000000001
 10
22.86194375438673
 20
6.280060999999999
 10
23.05694375438673
 20
6.280060999999999
 42
0.4142140000000001
 10
23.24694375438673
 20
6.470061
 10
23.24694375438673
 20
9.054061
 42
0.4142140000000001
 10
23.05694375438673
 20
9.244061
 10
22.86194375438673
 20
9.244061
 42
-0.4142140000000001
 10
22.67694375438674
 20
9.429061
 10
22.67694375438674
 20
9.874060999999999
 42
0.4142140000000001
 10
22.48694375438673
 20
10.064061
 10
19.40294375438673
 20
10.064061
 42
0.4142140000000001
 10
19.21294375438673
 20
9.874060999999999
 10
19.21294375438673
 20
9.429061
 42
-0.4142140000000001
 10
19.02794375438673
 20
9.244061
 10
18.83294375438673
 20
9.244061
 42
0.4142140000000001
  0
LWPOLYLINE
  5
F8E
102
{ACAD_REACTORS
330
1871
102
}
330
1E
100
AcDbEntity
  8
OBJECT
100
AcDbPolyline
 90
       24
 70
     1
 43
0.0
 10
18.72294375438673
 20
9.054061
 10
18.72294375438673
 20
6.470061
 42
0.4142140000000001
 10
18.83294375438673
 20
6.360060999999999
 10
19.02794375438673
 20
6.360060999999999
 42
-0.4142140000000001
 10
19.29294375438673
 20
6.095061
 10
19.29294375438673
 20
5.650060999999999
 42
0.4142140000000001
 10
19.40294375438673
 20
5.540060999999999
 10
22.48694375438673
 20
5.540060999999999
 42
0.4142140000000001
 10
22.59694375438673
 20
5.650060999999999
 10
22.59694375438673
 20
6.095061
 42
-0.4142140000000001
 10
22.86194375438673
 20
6.360060999999999
 10
23.05694375438673
 20
6.360060999999999
 42
0.4142140000000001
 10
23.16694375438673
 20
6.470061
 10
23.16694375438673
 20
9.054061
 42
0.4142140000000001
 10
23.05694375438673
 20
9.164061
 10
22.86194375438673
 20
9.164061
 42
-0.4142140000000001
 10
22.59694375438673
 20
9.429061
 10
22.59694375438673
 20
9.874060999999999
 42
0.4142140000000001
 10
22.48694375438673
 20
9.984061
 10
19.40294375438673
 20
9.984061
 42
0.4142140000000001
 10
19.29294375438673
 20
9.874060999999999
 10
19.29294375438673
 20
9.429061
 42
-0.4142140000000001
 10
19.02794375438673
 20
9.164061
 10
18.83294375438673
 20
9.164061
 42
0.4142140000000001
  0
LWPOLYLINE
  5
FA8
330
1E
100
AcDbEntity
  8
OBJECT
100
AcDbPolyline
 90
       24
 70
     1
 43
0.0
 10
18.76294375438673
 20
9.054061
 10
18.76294375438673
 20
6.470061
 42
0.4142140000000001
 10
18.83294375438673
 20
6.400060999999999
 10
19.02794375438673
 20
6.400060999999999
 42
-0.4142140000000001
 10
19.33294375438673
 20
6.095061
 10
19.33294375438673
 20
5.650060999999999
 42
0.4142140000000001
 10
19.40294375438673
 20
5.580060999999999
 10
22.48694375438673
 20
5.580060999999999
 42
0.4142140000000001
 10
22.55694375438673
 20
5.650060999999999
 10
22.55694375438673
 20
6.095061
 42
-0.4142140000000001
 10
22.86194375438673
 20
6.400060999999999
 10
23.05694375438673
 20
6.400060999999999
 42
0.4142140000000001
 10
23.12694375438673
 20
6.470061
 10
23.12694375438673
 20
9.054061
 42
0.4142140000000001
 10
23.05694375438673
 20
9.124060999999999
 10
22.86194375438673
 20
9.124060999999999
 42
-0.4142140000000001
 10
22.55694375438673
 20
9.429061
 10
22.55694375438673
 20
9.874060999999999
 42
0.4142140000000001
 10
22.48694375438673
 20
9.944060999999999
 10
19.40294375438673
 20
9.944060999999999
 42
0.4142140000000001
 10
19.33294375438673
 20
9.874060999999999
 10
19.33294375438673
 20
9.429061
 42
-0.4142140000000001
 10
19.02794375438673
 20
9.124060999999999
 10
18.83294375438673
 20
9.124060999999999
 42
0.4142140000000001
  0
ARC
  5
FC2
330
1E
100
AcDbEntity
  8
OBJECT
100
AcDbCircle
 10
23.03094375438673
 20
9.848060999999999
 30
0.0
 40
0.25
100
AcDbArc
 50
120.231286
 51
329.7687139999999
  0
ARC
  5
FC3
330
1E
100
AcDbEntity
  8
OBJECT
100
AcDbCircle
 10
18.85894375438673
 20
9.848060999999999
 30
0.0
 40
0.25
100
AcDbArc
 50
210.231286
 51
59.768714
  0
ARC
  5
FC4
330
1E
100
AcDbEntity
  8
OBJECT
100
AcDbCircle
 10
18.85894375438673
 20
5.676060999999999
 30
0.0
 40
0.25
100
AcDbArc
 50
300.2312859999999
 51
149.768714
  0
ARC
  5
FC5
330
1E
100
AcDbEntity
  8
OBJECT
100
AcDbCircle
 10
23.03094375438673
 20
5.676060999999999
 30
0.0
 40
0.25
100
AcDbArc
 50
30.23128599999999
 51
239.7687139999999
  0
LWPOLYLINE
  5
FC6
330
1E
100
AcDbEntity
  8
BEND
100
AcDbPolyline
 90
        8
 70
     0
 10
22.32341575438673
 20
5.144573
 40
0.0
 41
0.156711
 10
22.63683675438673
 20
5.144573
 40
0.026118
 41
0.026118
 10
23.03094375438673
 20
5.144573
 40
0.026118
 41
0.026118
 10
23.03094375438673
 20
8.812885000000001
 40
0.026118
 41
0.026118
 10
21.92211875438673
 20
8.812885000000001
 40
0.026118
 41
0.026118
 10
21.92211875438673
 20
10.52280099999999
 40
0.026118
 41
0.026118
 10
21.53593775438673
 20
10.52280099999999
 40
0.156711
 41
0.0
 10
21.22251575438673
 20
10.52280099999999
 40
0.0
 41
0.0
  0
TEXT
  5
FD0
330
1E
100
AcDbEntity
  8
TEXT
100
AcDbText
 10
26.80633329056627
 20
12.59106983512849
 30
0.0
 40
0.25
  1
%%UDETAIL "D"
 41
0.8
  7
SECTION
 72
     1
 11
27.69061900485198
 21
12.59106983512849
 31
0.0
100
AcDbText
  0
DIMENSION
  5
FD1
330
1E
100
AcDbEntity
  8
DIM
100
AcDbDimension
  2
*D39
 10
29.18360059015482
 20
10.593
 30
0.0
 11
27.59610059015482
 21
10.593
 31
0.0
 70
    32
  1
<> REF.
 71
     5
 42
1.180999999999997
  3
23NSTD
100
AcDbAlignedDimension
 13
30.36460059015482
 23
10.12406099999999
 33
0.0
 14
29.18360059015482
 24
10.06156099999999
 34
0.0
 50
180.0
100
AcDbRotatedDimension
  0
DIMENSION
  5
FDE
330
1E
100
AcDbEntity
  8
DIM
100
AcDbDimension
  2
*D40
 10
31.54560059015482
 20
11.15499999999999
 30
0.0
 11
30.36460059015482
 21
11.15499999999999
 31
0.0
 70
    32
 71
     5
 42
2.361999999999998
  3
23NSTD
100
AcDbAlignedDimension
 13
29.18360059015482
 23
10.06156099999999
 33
0.0
 14
31.54560059015482
 24
10.06156099999999
 34
0.0
 50
180.0
100
AcDbRotatedDimension
  0
ARC
  5
FEC
330
1E
100
AcDbEntity
  8
OBJECT
100
AcDbCircle
 10
31.48310059015482
 20
10.06156099999999
 30
0.0
 40
0.0625
100
AcDbArc
 50
0.0
 51
90.0
  0
ARC
  5
FED
330
1E
100
AcDbEntity
  8
OBJECT
100
AcDbCircle
 10
31.48310059015482
 20
5.462560999999999
 30
0.0
 40
0.0625
100
AcDbArc
 50
270.0
 51
0.0
  0
LINE
  5
FEE
330
1E
100
AcDbEntity
  8
OBJECT
100
AcDbLine
 10
31.54560059015482
 20
10.06156099999999
 30
0.0
 11
31.54560059015482
 21
5.462560999999999
 31
0.0
  0
LINE
  5
FEF
330
1E
100
AcDbEntity
  8
OBJECT
100
AcDbLine
 10
30.40460059015482
 20
10.12406099999999
 30
0.0
 11
30.40460059015482
 21
5.400060999999999
 31
0.0
  0
LINE
  5
FF0
330
1E
100
AcDbEntity
  8
OBJECT
100
AcDbLine
 10
30.40460059015482
 20
5.400060999999999
 30
0.0
 11
31.48310059015482
 21
5.400060999999999
 31
0.0
  0
LINE
  5
FF1
330
1E
100
AcDbEntity
  8
OBJECT
100
AcDbLine
 10
30.36460059015482
 20
5.420061
 30
0.0
 11
30.40460059015482
 21
5.420061
 31
0.0
  0
LINE
  5
FF2
330
1E
100
AcDbEntity
  8
OBJECT
100
AcDbLine
 10
30.40460059015482
 20
10.12406099999999
 30
0.0
 11
31.48310059015482
 21
10.12406099999999
 31
0.0
  0
LINE
  5
FF3
330
1E
100
AcDbEntity
  8
OBJECT
100
AcDbLine
 10
30.36460059015482
 20
10.10406099999999
 30
0.0
 11
30.40460059015482
 21
10.10406099999999
 31
0.0
  0
LINE
  5
FF4
330
1E
100
AcDbEntity
  8
OBJECT
100
AcDbLine
 10
30.36460059015482
 20
10.12406099999999
 30
0.0
 11
29.24610059015482
 21
10.12406099999999
 31
0.0
  0
LINE
  5
FF5
330
1E
100
AcDbEntity
  8
OBJECT
100
AcDbLine
 10
30.36460059015482
 20
5.400060999999999
 30
0.0
 11
29.24610059015482
 21
5.400060999999999
 31
0.0
  0
LINE
  5
FF6
330
1E
100
AcDbEntity
  8
OBJECT
100
AcDbLine
 10
30.36460059015482
 20
10.12406099999999
 30
0.0
 11
30.36460059015482
 21
5.400060999999999
 31
0.0
  0
LINE
  5
FF7
330
1E
100
AcDbEntity
  8
OBJECT
100
AcDbLine
 10
29.18360059015482
 20
10.06156099999999
 30
0.0
 11
29.18360059015482
 21
5.462560999999999
 31
0.0
  0
ARC
  5
FF8
330
1E
100
AcDbEntity
  8
OBJECT
100
AcDbCircle
 10
29.24610059015482
 20
5.462560999999999
 30
0.0
 40
0.0625
100
AcDbArc
 50
180.0
 51
270.0
  0
ARC
  5
FF9
330
1E
100
AcDbEntity
  8
OBJECT
100
AcDbCircle
 10
29.24610059015482
 20
10.06156099999999
 30
0.0
 40
0.0625
100
AcDbArc
 50
90.0
 51
180.0
  0
DIMENSION
  5
FFB
330
1E
100
AcDbEntity
  8
DIM
100
AcDbDimension
  2
*D41
 10
10.82298399999999
 20
10.12406099999999
 30
0.0
 11
10.82298399999999
 21
8.943061000000001
 31
0.0
 70
    32
 71
     5
 42
2.361999999999999
  3
23NSTD
100
AcDbAlignedDimension
 13
7.866703
 23
7.762061
 33
0.0
 14
8.049702999999999
 24
10.12406099999999
 34
0.0
 50
90.0
100
AcDbRotatedDimension
  0
DIMENSION
  5
1009
330
1E
100
AcDbEntity
  8
DIM
100
AcDbDimension
  2
*D42
 10
23.92100675438673
 20
12.44267
 30
0.0
 11
23.92100675438673
 21
13.03317
 31
0.0
 70
    32
 71
     5
 42
1.181
  3
23NSTDI
100
AcDbAlignedDimension
 13
23.24444375438673
 23
13.62367
 33
0.0
 14
23.30694375438673
 24
12.44267
 34
0.0
 50
90.0
100
AcDbRotatedDimension
  0
DIMENSION
  5
1017
330
1E
100
AcDbEntity
  8
DIM
100
AcDbDimension
  2
*D43
 10
8.917949
 20
13.627516
 30
0.0
 11
8.917948999999996
 21
14.238016
 31
0.0
 70
    32
 71
     5
 42
1.221
  3
23NSTDI
100
AcDbAlignedDimension
 13
8.237202999999999
 23
14.848516
 33
0.0
 14
8.221702999999999
 24
13.627516
 34
0.0
 50
90.0
100
AcDbRotatedDimension
  0
CIRCLE
  5
1025
330
1E
100
AcDbEntity
  8
BEND
100
AcDbCircle
 10
5.937702999999999
 20
5.793060999999999
 30
0.0
 40
0.590743
  0
ATTDEF
  5
1026
330
1E
100
AcDbEntity
  8
BEND
100
AcDbText
 10
22.03981675438674
 20
10.39780099999999
 30
0.0
 40
0.25
  1

  7
SECTION
 72
     4
 11
22.16481675438673
 21
10.52280099999999
 31
0.0
100
AcDbAttributeDefinition
  3

  2
B
 70
     0
  0
ATTDEF
  5
1027
330
1E
100
AcDbEntity
  8
BEND
100
AcDbText
 10
23.16034075438673
 20
5.019573
 30
0.0
 40
0.25
  1

  7
SECTION
 72
     4
 11
23.28534075438673
 21
5.144573
 31
0.0
100
AcDbAttributeDefinition
  3

  2
B
 70
     0
  0
ATTDEF
  5
1028
330
1E
100
AcDbEntity
  8
BEND
100
AcDbText
 10
8.051326380952382
 20
4.946162999999999
 30
0.0
 40
0.25
  1

  7
SECTION
 72
     4
 11
8.170374
 21
5.071162999999999
 31
0.0
100
AcDbAttributeDefinition
  3

  2
A
 70
     0
  0
ATTDEF
  5
1029
330
1E
100
AcDbEntity
  8
BEND
100
AcDbText
 10
7.475483380952381
 20
10.34729
 30
0.0
 40
0.25
  1

  7
SECTION
 72
     4
 11
7.594530999999999
 21
10.47228999999999
 31
0.0
100
AcDbAttributeDefinition
  3

  2
A
 70
     0
  0
TEXT
  5
1031
330
1E
100
AcDbEntity
  8
DIM
100
AcDbText
 10
15.212642
 20
6.346060999999999
 30
0.0
 40
0.25
  1
(4) PLACES
 41
0.75
100
AcDbText
  0
DIMENSION
  5
1038
330
1E
100
AcDbEntity
  8
DIM
100
AcDbDimension
  2
*D44
 10
25.96647375438674
 20
8.163299
 30
0.0
 11
27.17897375438674
 21
8.163299
 31
0.0
 70
    32
  1
0.120
 71
     5
 42
0.120000000000001
  3
23NSTD
100
AcDbAlignedDimension
 13
25.84647375438674
 23
8.214781
 33
0.0
 14
25.96647375438674
 24
8.214781
 34
0.0
100
AcDbRotatedDimension
  0
LINE
  5
1046
330
1E
100
AcDbEntity
  8
OBJECT
100
AcDbLine
 10
18.58294375438673
 20
12.44267
 30
0.0
 11
23.30694375438673
 21
12.44267
 31
0.0
  0
LINE
  5
1047
330
1E
100
AcDbEntity
  8
HIDDEN
100
AcDbLine
 10
18.64294375438674
 20
13.50367
 30
0.0
 11
23.24694375438673
 21
13.50367
 31
0.0
  0
LINE
  5
1048
330
1E
100
AcDbEntity
  8
OBJECT
100
AcDbLine
 10
18.64544375438673
 20
13.62367
 30
0.0
 11
23.24444375438673
 21
13.62367
 31
0.0
  0
LINE
  5
1049
330
1E
100
AcDbEntity
  8
OBJECT
100
AcDbLine
 10
23.30694375438673
 20
12.44267
 30
0.0
 11
23.30694375438673
 21
13.56117
 31
0.0
  0
LINE
  5
104A
330
1E
100
AcDbEntity
  8
HIDDEN
100
AcDbLine
 10
22.73694375438673
 20
12.44267
 30
0.0
 11
22.73694375438673
 21
13.50367
 31
0.0
  0
LINE
  5
104B
330
1E
100
AcDbEntity
  8
HIDDEN
100
AcDbLine
 10
22.85344375438673
 20
12.44267
 30
0.0
 11
22.85344375438673
 21
12.74267
 31
0.0
  0
LINE
  5
104C
330
1E
100
AcDbEntity
  8
HIDDEN
100
AcDbLine
 10
22.55694375438673
 20
12.44267
 30
0.0
 11
22.55694375438673
 21
13.50367
 31
0.0
  0
LINE
  5
104D
330
1E
100
AcDbEntity
  8
HIDDEN
100
AcDbLine
 10
23.11688175438673
 20
12.44267
 30
0.0
 11
23.11688175438673
 21
12.964607
 31
0.0
  0
LINE
  5
104E
330
1E
100
AcDbEntity
  8
HIDDEN
100
AcDbLine
 10
22.94500675438674
 20
12.44267
 30
0.0
 11
22.94500675438674
 21
12.964607
 31
0.0
  0
LINE
  5
104F
330
1E
100
AcDbEntity
  8
HIDDEN
100
AcDbLine
 10
23.24694375438673
 20
13.50367
 30
0.0
 11
23.24694375438673
 21
12.44267
 31
0.0
  0
LINE
  5
1050
330
1E
100
AcDbEntity
  8
HIDDEN
100
AcDbLine
 10
23.20844375438674
 20
12.44267
 30
0.0
 11
23.20844375438674
 21
12.74267
 31
0.0
  0
LINE
  5
1051
330
1E
100
AcDbEntity
  8
HIDDEN
100
AcDbLine
 10
22.59694375438673
 20
12.55767
 30
0.0
 11
22.67694375438674
 21
12.55767
 31
0.0
  0
LINE
  5
1052
330
1E
100
AcDbEntity
  8
HIDDEN
100
AcDbLine
 10
22.87594375438673
 20
13.03366999999999
 30
0.0
 11
22.87594375438673
 21
13.62367
 31
0.0
  0
LINE
  5
1053
330
1E
100
AcDbEntity
  8
HIDDEN
100
AcDbLine
 10
23.18594375438673
 20
13.03366999999999
 30
0.0
 11
23.18594375438673
 21
13.62367
 31
0.0
  0
LINE
  5
1054
330
1E
100
AcDbEntity
  8
HIDDEN
100
AcDbLine
 10
22.78094375438673
 20
12.74267
 30
0.0
 11
22.78094375438673
 21
13.50367
 31
0.0
  0
LINE
  5
1055
330
1E
100
AcDbEntity
  8
HIDDEN
100
AcDbLine
 10
22.78094375438673
 20
12.74267
 30
0.0
 11
22.85344375438673
 21
12.74267
 31
0.0
  0
LINE
  5
1056
330
1E
100
AcDbEntity
  8
HIDDEN
100
AcDbLine
 10
22.94500675438674
 20
12.964607
 30
0.0
 11
22.87594375438673
 21
13.03366999999999
 31
0.0
  0
LINE
  5
1057
330
1E
100
AcDbEntity
  8
HIDDEN
100
AcDbLine
 10
23.11688175438673
 20
12.964607
 30
0.0
 11
23.18594375438673
 21
13.03366999999999
 31
0.0
  0
LINE
  5
1058
330
1E
100
AcDbEntity
  8
HIDDEN
100
AcDbLine
 10
23.11688175438673
 20
12.964607
 30
0.0
 11
22.94500675438674
 21
12.964607
 31
0.0
  0
LINE
  5
1059
330
1E
100
AcDbEntity
  8
HIDDEN
100
AcDbLine
 10
23.18594375438673
 20
13.03366999999999
 30
0.0
 11
22.87594375438673
 21
13.03366999999999
 31
0.0
  0
LINE
  5
105A
330
1E
100
AcDbEntity
  8
HIDDEN
100
AcDbLine
 10
23.24694375438673
 20
12.74267
 30
0.0
 11
23.20844375438674
 21
12.74267
 31
0.0
  0
LINE
  5
105B
330
1E
100
AcDbEntity
  8
HIDDEN
100
AcDbLine
 10
19.33094375438673
 20
12.44267
 30
0.0
 11
19.33094375438673
 21
13.50367
 31
0.0
  0
LINE
  5
105C
330
1E
100
AcDbEntity
  8
HIDDEN
100
AcDbLine
 10
19.15294375438673
 20
13.50367
 30
0.0
 11
19.15294375438673
 21
12.44267
 31
0.0
  0
LINE
  5
105D
330
1E
100
AcDbEntity
  8
OBJECT
100
AcDbLine
 10
18.58294375438673
 20
12.44267
 30
0.0
 11
18.58294375438673
 21
13.56117
 31
0.0
  0
LINE
  5
105E
330
1E
100
AcDbEntity
  8
HIDDEN
100
AcDbLine
 10
18.94488175438674
 20
12.44267
 30
0.0
 11
18.94488175438674
 21
12.964607
 31
0.0
  0
LINE
  5
105F
330
1E
100
AcDbEntity
  8
HIDDEN
100
AcDbLine
 10
18.77300675438673
 20
12.44267
 30
0.0
 11
18.77300675438673
 21
12.964607
 31
0.0
  0
LINE
  5
1060
330
1E
100
AcDbEntity
  8
HIDDEN
100
AcDbLine
 10
18.68144375438673
 20
12.44267
 30
0.0
 11
18.68144375438673
 21
12.74267
 31
0.0
  0
LINE
  5
1061
330
1E
100
AcDbEntity
  8
HIDDEN
100
AcDbLine
 10
18.64294375438674
 20
13.50367
 30
0.0
 11
18.64294375438674
 21
12.44267
 31
0.0
  0
LINE
  5
1062
330
1E
100
AcDbEntity
  8
HIDDEN
100
AcDbLine
 10
19.03644375438673
 20
12.44267
 30
0.0
 11
19.03644375438673
 21
12.74267
 31
0.0
  0
ARC
  5
1063
330
1E
100
AcDbEntity
  8
OBJECT
100
AcDbCircle
 10
18.64544375438673
 20
13.56117
 30
0.0
 40
0.0625
100
AcDbArc
 50
90.0
 51
180.0
  0
LINE
  5
1064
330
1E
100
AcDbEntity
  8
HIDDEN
100
AcDbLine
 10
18.70394375438674
 20
13.03366999999999
 30
0.0
 11
18.70394375438674
 21
13.62367
 31
0.0
  0
LINE
  5
1065
330
1E
100
AcDbEntity
  8
HIDDEN
100
AcDbLine
 10
19.01394375438673
 20
13.03366999999999
 30
0.0
 11
19.01394375438673
 21
13.62367
 31
0.0
  0
LINE
  5
1066
330
1E
100
AcDbEntity
  8
HIDDEN
100
AcDbLine
 10
18.77300675438673
 20
12.964607
 30
0.0
 11
18.94488175438674
 21
12.964607
 31
0.0
  0
LINE
  5
1067
330
1E
100
AcDbEntity
  8
HIDDEN
100
AcDbLine
 10
18.77300675438673
 20
12.964607
 30
0.0
 11
18.70394375438674
 21
13.03366999999999
 31
0.0
  0
LINE
  5
1068
330
1E
100
AcDbEntity
  8
HIDDEN
100
AcDbLine
 10
18.64294375438674
 20
12.74267
 30
0.0
 11
18.68144375438673
 21
12.74267
 31
0.0
  0
LINE
  5
1069
330
1E
100
AcDbEntity
  8
HIDDEN
100
AcDbLine
 10
19.10894375438673
 20
12.74267
 30
0.0
 11
19.03644375438673
 21
12.74267
 31
0.0
  0
LINE
  5
106A
330
1E
100
AcDbEntity
  8
HIDDEN
100
AcDbLine
 10
19.10894375438673
 20
12.74267
 30
0.0
 11
19.10894375438673
 21
13.50367
 31
0.0
  0
LINE
  5
106B
330
1E
100
AcDbEntity
  8
HIDDEN
100
AcDbLine
 10
18.70394375438674
 20
13.03366999999999
 30
0.0
 11
19.01394375438673
 21
13.03366999999999
 31
0.0
  0
LINE
  5
106C
330
1E
100
AcDbEntity
  8
HIDDEN
100
AcDbLine
 10
18.94488175438674
 20
12.964607
 30
0.0
 11
19.01394375438673
 21
13.03366999999999
 31
0.0
  0
LINE
  5
106D
330
1E
100
AcDbEntity
  8
HIDDEN
100
AcDbLine
 10
22.67694375438674
 20
12.44267
 30
0.0
 11
22.67694375438674
 21
12.55767
 31
0.0
  0
LINE
  5
106E
330
1E
100
AcDbEntity
  8
HIDDEN
100
AcDbLine
 10
22.59694375438673
 20
12.44267
 30
0.0
 11
22.59694375438673
 21
12.55767
 31
0.0
  0
LINE
  5
106F
330
1E
100
AcDbEntity
  8
HIDDEN
100
AcDbLine
 10
19.21294375438673
 20
12.44267
 30
0.0
 11
19.21294375438673
 21
12.55767
 31
0.0
  0
LINE
  5
1070
330
1E
100
AcDbEntity
  8
HIDDEN
100
AcDbLine
 10
19.29294375438673
 20
12.55767
 30
0.0
 11
19.21294375438673
 21
12.55767
 31
0.0
  0
LINE
  5
1071
330
1E
100
AcDbEntity
  8
HIDDEN
100
AcDbLine
 10
19.29294375438673
 20
12.44267
 30
0.0
 11
19.29294375438673
 21
12.55767
 31
0.0
  0
ARC
  5
1072
330
1E
100
AcDbEntity
  8
OBJECT
100
AcDbCircle
 10
23.24444375438673
 20
13.56117
 30
0.0
 40
0.0625
100
AcDbArc
 50
0.0
 51
90.0
  0
LINE
  5
1073
330
1E
100
AcDbEntity
  8
HIDDEN
100
AcDbLine
 10
23.16694375438673
 20
12.44267
 30
0.0
 11
23.16694375438673
 21
12.55767
 31
0.0
  0
LINE
  5
1074
330
1E
100
AcDbEntity
  8
HIDDEN
100
AcDbLine
 10
23.24694375438673
 20
12.44267
 30
0.0
 11
23.24694375438673
 21
12.55767
 31
0.0
  0
LINE
  5
1075
330
1E
100
AcDbEntity
  8
HIDDEN
100
AcDbLine
 10
23.16694375438673
 20
12.55767
 30
0.0
 11
23.24694375438673
 21
12.55767
 31
0.0
  0
LINE
  5
1076
330
1E
100
AcDbEntity
  8
HIDDEN
100
AcDbLine
 10
23.12694375438673
 20
12.44267
 30
0.0
 11
23.12694375438673
 21
13.50367
 31
0.0
  0
LINE
  5
1077
330
1E
100
AcDbEntity
  8
HIDDEN
100
AcDbLine
 10
18.72294375438673
 20
12.44267
 30
0.0
 11
18.72294375438673
 21
12.55767
 31
0.0
  0
LINE
  5
1078
330
1E
100
AcDbEntity
  8
HIDDEN
100
AcDbLine
 10
18.72294375438673
 20
12.55767
 30
0.0
 11
18.64294375438674
 21
12.55767
 31
0.0
  0
LINE
  5
1079
330
1E
100
AcDbEntity
  8
HIDDEN
100
AcDbLine
 10
18.64294375438674
 20
12.44267
 30
0.0
 11
18.64294375438674
 21
12.55767
 31
0.0
  0
LINE
  5
107A
330
1E
100
AcDbEntity
  8
HIDDEN
100
AcDbLine
 10
18.76094375438673
 20
12.44267
 30
0.0
 11
18.76094375438673
 21
13.50367
 31
0.0
  0
LINE
  5
107B
102
{ACAD_REACTORS
330
1ACA
102
}
330
1E
100
AcDbEntity
  8
OBJECT
100
AcDbLine
 10
25.84647375438674
 20
9.944060999999999
 30
0.0
 11
25.84647375438674
 21
6.400060999999999
 31
0.0
  0
LINE
  5
107C
102
{ACAD_REACTORS
330
1ACA
102
}
330
1E
100
AcDbEntity
  8
OBJECT
100
AcDbLine
 10
25.96647375438674
 20
10.06156099999999
 30
0.0
 11
25.96647375438674
 21
5.462560999999999
 31
0.0
  0
ARC
  5
107F
102
{ACAD_REACTORS
330
1ACA
102
}
330
1E
100
AcDbEntity
  8
OBJECT
100
AcDbCircle
 10
25.90397375438674
 20
5.462560999999999
 30
0.0
 40
0.0625
100
AcDbArc
 50
270.0
 51
0.0
  0
LINE
  5
1080
102
{ACAD_REACTORS
330
1ACA
102
}
330
1E
100
AcDbEntity
  8
OBJECT
100
AcDbLine
 10
25.23247375438673
 20
5.521060999999999
 30
0.0
 11
25.96647375438674
 21
5.521061
 31
0.0
  0
LINE
  5
1081
102
{ACAD_REACTORS
330
1ACA
102
}
330
1E
100
AcDbEntity
  8
OBJECT
100
AcDbLine
 10
24.78547375438674
 20
5.498561
 30
0.0
 11
25.08547375438674
 21
5.498561
 31
0.0
  0
LINE
  5
1082
102
{ACAD_REACTORS
330
1ACA
102
}
330
1E
100
AcDbEntity
  8
OBJECT
100
AcDbLine
 10
24.78547375438674
 20
5.400060999999999
 30
0.0
 11
25.90397375438674
 21
5.400060999999999
 31
0.0
  0
LINE
  5
1083
102
{ACAD_REACTORS
330
1ACA
102
}
330
1E
100
AcDbEntity
  8
OBJECT
100
AcDbLine
 10
25.08547375438674
 20
5.460061
 30
0.0
 11
24.78547375438674
 21
5.460061
 31
0.0
  0
LINE
  5
1085
102
{ACAD_REACTORS
330
1ACA
102
}
330
1E
100
AcDbEntity
  8
OBJECT
100
AcDbLine
 10
25.23247375438673
 20
5.831061
 30
0.0
 11
25.96647375438674
 21
5.831061
 31
0.0
  0
LINE
  5
1086
102
{ACAD_REACTORS
330
1ACA
102
}
330
1E
100
AcDbEntity
  8
OBJECT
100
AcDbLine
 10
24.78547375438674
 20
5.853561
 30
0.0
 11
25.08547375438674
 21
5.853561
 31
0.0
  0
LINE
  5
1087
102
{ACAD_REACTORS
330
1ACA
102
}
330
1E
100
AcDbEntity
  8
OBJECT
100
AcDbLine
 10
24.78547375438674
 20
5.590123999999999
 30
0.0
 11
25.23247375438673
 21
5.590123999999999
 31
0.0
  0
LINE
  5
1088
102
{ACAD_REACTORS
330
1ACA
102
}
330
1E
100
AcDbEntity
  8
OBJECT
100
AcDbLine
 10
24.78547375438674
 20
5.761998999999999
 30
0.0
 11
25.23247375438673
 21
5.761998999999998
 31
0.0
  0
LINE
  5
1089
102
{ACAD_REACTORS
330
1ACA
102
}
330
1E
100
AcDbEntity
  8
OBJECT
100
AcDbLine
 10
24.78547375438674
 20
6.400060999999999
 30
0.0
 11
25.84647375438674
 21
6.400060999999999
 31
0.0
  0
LINE
  5
108A
102
{ACAD_REACTORS
330
1ACA
102
}
330
1E
100
AcDbEntity
  8
OBJECT
100
AcDbLine
 10
24.78547375438674
 20
6.220061
 30
0.0
 11
25.84647375438674
 21
6.220061
 31
0.0
  0
LINE
  5
108E
102
{ACAD_REACTORS
330
1ACA
102
}
330
1E
100
AcDbEntity
  8
OBJECT
100
AcDbLine
 10
25.08547375438674
 20
5.926060999999999
 30
0.0
 11
25.84647375438674
 21
5.926060999999999
 31
0.0
  0
ARC
  5
108F
102
{ACAD_REACTORS
330
1ACA
102
}
330
1E
100
AcDbEntity
  8
OBJECT
100
AcDbCircle
 10
25.90397375438674
 20
10.06156099999999
 30
0.0
 40
0.0625
100
AcDbArc
 50
0.0
 51
90.0
  0
LINE
  5
1090
102
{ACAD_REACTORS
330
1ACA
102
}
330
1E
100
AcDbEntity
  8
OBJECT
100
AcDbLine
 10
24.78547375438674
 20
10.12406099999999
 30
0.0
 11
25.90397375438674
 21
10.12406099999999
 31
0.0
  0
LINE
  5
1091
102
{ACAD_REACTORS
330
1ACA
102
}
330
1E
100
AcDbEntity
  8
OBJECT
100
AcDbLine
 10
24.78547375438674
 20
9.944060999999999
 30
0.0
 11
25.84647375438674
 21
9.944060999999999
 31
0.0
  0
LINE
  5
1092
102
{ACAD_REACTORS
330
1ACA
102
}
330
1E
100
AcDbEntity
  8
OBJECT
100
AcDbLine
 10
25.84647375438674
 20
6.220061
 30
0.0
 11
25.84647375438674
 21
5.926060999999999
 31
0.0
  0
DIMENSION
  5
113B
330
1E
100
AcDbEntity
  8
DIM
100
AcDbDimension
  2
*D45
 10
32.00202799815826
 20
15.5244555407906
 30
0.0
 11
32.00202799815826
 21
14.90445554079061
 31
0.0
 70
    32
  1
<> DIA.\PC'BORE
 71
     5
 42
0.31
  3
23NSTD4I
100
AcDbAlignedDimension
 13
31.18429699815826
 23
14.2844555407906
 33
0.0
 14
31.18429699815826
 24
15.5244555407906
 34
0.0
 50
90.0
100
AcDbRotatedDimension
  0
DIMENSION
  5
1159
330
1E
100
AcDbEntity
  8
DIM
100
AcDbDimension
  2
*D46
 10
25.63811599815827
 20
14.5607055407906
 30
0.0
 11
25.63811599815826
 21
14.90445554079061
 31
0.0
 70
    32
  1
<> DIA.
 71
     5
 42
0.171875
  3
23NSTD4I
100
AcDbAlignedDimension
 13
26.46029699815827
 23
15.2482055407906
 33
0.0
 14
26.46029699815827
 24
14.5607055407906
 34
0.0
 50
90.0
100
AcDbRotatedDimension
  0
DIMENSION
  5
1175
330
1E
100
AcDbEntity
  8
DIM
100
AcDbDimension
  2
*D47
 10
28.24829699815824
 20
13.27356118066198
 30
0.0
 11
29.71629699815825
 21
13.27356118066198
 31
0.0
 70
    32
 71
     5
 42
0.7340000000000071
  3
23NSTD4
100
AcDbAlignedDimension
 13
31.18429699815826
 23
14.0504555407906
 33
0.0
 14
28.24829699815824
 24
14.2844555407906
 34
0.0
100
AcDbRotatedDimension
  0
DIMENSION
  5
1183
330
1E
100
AcDbEntity
  8
DIM
100
AcDbDimension
  2
*D48
 10
24.93858199815827
 20
17.6577385407906
 30
0.0
 11
25.80670699815826
 21
18.37773854079061
 31
0.0
 70
    32
 71
     5
 42
0.0800000000000001
  3
23NSTD4
100
AcDbAlignedDimension
 13
26.46029699815827
 23
17.3377385407906
 33
0.0
 14
26.46029699815827
 24
17.6577385407906
 34
0.0
 50
90.0
100
AcDbRotatedDimension
  0
DIMENSION
  5
1191
330
1E
100
AcDbEntity
  8
DIM
100
AcDbDimension
  2
*D49
 10
26.46029699815827
 20
18.9874955407906
 30
0.0
 11
25.26342199815827
 21
18.9874955407906
 31
0.0
 70
    32
 71
     5
 42
0.1149999999999975
  3
23NSTD4
100
AcDbAlignedDimension
 13
26.92029699815826
 23
17.6577385407906
 33
0.0
 14
26.46029699815827
 24
18.30392565569343
 34
0.0
100
AcDbRotatedDimension
  0
LINE
  5
11A8
102
{ACAD_REACTORS
330
1880
330
188E
330
1ACA
102
}
330
1E
100
AcDbEntity
  8
OBJECT
100
AcDbLine
 10
24.78547375438674
 20
10.12406099999999
 30
0.0
 11
24.78547375438674
 21
5.400060999999999
 31
0.0
  0
TEXT
  5
11C0
330
1E
100
AcDbEntity
  8
TEXT
100
AcDbText
 10
18.15964738305001
 20
19.98379166666667
 30
0.0
 40
0.3125
  1
PN-1336, PN-1336-C AND PN-1336-DG
 41
0.75
 72
     4
 11
21.81199113305001
 21
20.114
 31
0.0
100
AcDbText
  0
LINE
  5
11C1
330
1E
100
AcDbEntity
  8
TITLE
100
AcDbLine
 10
29.07600200000002
 20
2.203999000000002
 30
0.0
 11
29.07600200000002
 21
0.1240000000000023
 31
0.0
  0
LINE
  5
11C2
330
1E
100
AcDbEntity
  8
TITLE
100
AcDbLine
 10
25.07600400000002
 20
2.203999000000002
 30
0.0
 11
25.07600400000002
 21
0.1240000000000023
 31
0.0
  0
LINE
  5
11C3
330
1E
100
AcDbEntity
  8
TITLE
100
AcDbLine
 10
21.07600600000002
 20
2.203999000000002
 30
0.0
 11
21.07600600000002
 21
0.1240000000000023
 31
0.0
  0
LINE
  5
11C4
330
1E
100
AcDbEntity
  8
TITLE
100
AcDbLine
 10
17.07600800000002
 20
2.203999000000002
 30
0.0
 11
17.07600800000002
 21
0.1240000000000023
 31
0.0
  0
LINE
  5
11C5
330
1E
100
AcDbEntity
  8
TITLE
100
AcDbLine
 10
27.07600300000002
 20
0.9559990000000022
 30
0.0
 11
27.07600300000002
 21
0.5400000000000023
 31
0.0
  0
LINE
  5
11C7
330
1E
100
AcDbEntity
  8
TITLE
100
AcDbLine
 10
17.07600800000002
 20
0.5400000000000023
 30
0.0
 11
29.07600200000002
 21
0.5400000000000023
 31
0.0
  0
LINE
  5
11C8
330
1E
100
AcDbEntity
  8
TITLE
100
AcDbLine
 10
17.07600800000002
 20
0.9559990000000022
 30
0.0
 11
29.07600200000002
 21
0.9559990000000022
 31
0.0
  0
LINE
  5
11C9
330
1E
100
AcDbEntity
  8
TITLE
100
AcDbLine
 10
17.07600800000002
 20
1.371999000000002
 30
0.0
 11
33.07600000000002
 21
1.371999000000002
 31
0.0
  0
LINE
  5
11CA
330
1E
100
AcDbEntity
  8
TITLE
100
AcDbLine
 10
17.07600800000002
 20
2.203999000000002
 30
0.0
 11
33.07600000000002
 21
2.203999000000002
 31
0.0
  0
TEXT
  5
11CB
330
1E
100
AcDbEntity
  8
TEXT
100
AcDbText
 10
18.07600700000002
 20
1.662999000000002
 30
0.0
 40
0.25
  1
PART NUMBER
 41
0.75
 72
     4
 11
19.07600700000002
 21
1.787999000000002
 31
0.0
100
AcDbText
  0
TEXT
  5
11CD
330
1E
100
AcDbEntity
  8
TEXT
100
AcDbText
 10
18.48225700000002
 20
1.037666000000002
 30
0.0
 40
0.25
  1
PN-1336
 41
0.75
 72
     4
 11
19.07600700000002
 21
1.162666000000002
 31
0.0
100
AcDbText
  0
TEXT
  5
11CE
330
1E
100
AcDbEntity
  8
TEXT
100
AcDbText
 10
18.29475700000002
 20
0.6210000000000023
 30
0.0
 40
0.25
  1
PN-1336-C
 41
0.75
 72
     4
 11
19.07600700000002
 21
0.7460000000000023
 31
0.0
100
AcDbText
  0
TEXT
  5
11CF
330
1E
100
AcDbEntity
  8
TEXT
100
AcDbText
 10
18.20100700000002
 20
0.2043330000000023
 30
0.0
 40
0.25
  1
PN-1336-DG
 41
0.75
 72
     4
 11
19.07600700000002
 21
0.3293330000000023
 31
0.0
100
AcDbText
  0
TEXT
  5
11D0
330
1E
100
AcDbEntity
  8
TEXT
100
AcDbText
 10
29.98225100000002
 20
1.662999000000002
 30
0.0
 40
0.25
  1
HARDWARE KIT
 41
0.75
 72
     4
 11
31.07600100000002
 21
1.787999000000002
 31
0.0
100
AcDbText
  0
TEXT
  5
11D2
330
1E
100
AcDbEntity
  8
TEXT
100
AcDbText
 10
22.38850500000002
 20
1.870999000000002
 30
0.0
 40
0.25
  1
MATERIAL
 41
0.75
 72
     4
 11
23.07600500000002
 21
1.995999000000002
 31
0.0
100
AcDbText
  0
TEXT
  5
11D3
330
1E
100
AcDbEntity
  8
TEXT
100
AcDbText
 10
26.60725300000002
 20
1.870999000000002
 30
0.0
 40
0.25
  1
FINISH
 41
0.75
 72
     4
 11
27.07600300000002
 21
1.995999000000002
 31
0.0
100
AcDbText
  0
TEXT
  5
11D4
330
1E
100
AcDbEntity
  8
TEXT
100
AcDbText
 10
25.73225300000002
 20
1.454999000000002
 30
0.0
 40
0.25
  1
BODY
 41
0.75
 72
     4
 11
26.07600300000002
 21
1.579999000000002
 31
0.0
100
AcDbText
  0
TEXT
  5
11D5
330
1E
100
AcDbEntity
  8
TEXT
100
AcDbText
 10
21.88850500000002
 20
1.038333000000002
 30
0.0
 40
0.25
  1
POLYCARBONATE
 41
0.75
 72
     4
 11
23.07600500000002
 21
1.163333000000002
 31
0.0
100
AcDbText
  0
TEXT
  5
11D6
330
1E
100
AcDbEntity
  8
TEXT
100
AcDbText
 10
21.88850500000002
 20
0.6216660000000023
 30
0.0
 40
0.25
  1
POLYCARBONATE
 41
0.75
 72
     4
 11
23.07600500000002
 21
0.7466660000000023
 31
0.0
100
AcDbText
  0
TEXT
  5
11D7
330
1E
100
AcDbEntity
  8
TEXT
100
AcDbText
 10
21.76350500000002
 20
0.2050000000000023
 30
0.0
 40
0.25
  1
HIGH-IMPACT ABS
 41
0.75
 72
     4
 11
23.07600500000002
 21
0.3300000000000023
 31
0.0
100
AcDbText
  0
TEXT
  5
11D8
330
1E
100
AcDbEntity
  8
TEXT
100
AcDbText
 10
27.60725200000002
 20
1.454999000000002
 30
0.0
 40
0.25
  1
COVER
 41
0.75
 72
     4
 11
28.07600200000002
 21
1.579999000000002
 31
0.0
100
AcDbText
  0
TEXT
  5
11D9
330
1E
100
AcDbEntity
  8
TEXT
100
AcDbText
 10
23.60725400000002
 20
1.454999000000002
 30
0.0
 40
0.25
  1
COVER
 41
0.75
 72
     4
 11
24.07600400000002
 21
1.579999000000002
 31
0.0
100
AcDbText
  0
TEXT
  5
11DA
330
1E
100
AcDbEntity
  8
TEXT
100
AcDbText
 10
21.73225500000002
 20
1.454999000000002
 30
0.0
 40
0.25
  1
BODY
 41
0.75
 72
     4
 11
22.07600500000002
 21
1.579999000000002
 31
0.0
100
AcDbText
  0
TEXT
  5
11DB
330
1E
100
AcDbEntity
  8
TEXT
100
AcDbText
 10
26.20100300000002
 20
1.038333000000002
 30
0.0
 40
0.25
  1
LIGHT GRAY
 41
0.75
 72
     4
 11
27.07600300000002
 21
1.163333000000002
 31
0.0
100
AcDbText
  0
TEXT
  5
11DC
330
1E
100
AcDbEntity
  8
TEXT
100
AcDbText
 10
25.20100300000002
 20
0.6216660000000023
 30
0.0
 40
0.25
  1
LIGHT GRAY
 41
0.75
 72
     4
 11
26.07600300000002
 21
0.7466660000000023
 31
0.0
100
AcDbText
  0
TEXT
  5
11DD
330
1E
100
AcDbEntity
  8
TEXT
100
AcDbText
 10
26.26350300000002
 20
0.2050000000000023
 30
0.0
 40
0.25
  1
DARK GRAY
 41
0.75
 72
     4
 11
27.07600300000002
 21
0.3300000000000023
 31
0.0
100
AcDbText
  0
TEXT
  5
11DE
330
1E
100
AcDbEntity
  8
TEXT
100
AcDbText
 10
27.63850200000002
 20
0.6216660000000023
 30
0.0
 40
0.25
  1
CLEAR
 41
0.75
 72
     4
 11
28.07600200000002
 21
0.7466660000000023
 31
0.0
100
AcDbText
  0
LINE
  5
11DF
330
1E
100
AcDbEntity
  8
TITLE
100
AcDbLine
 10
27.07600300000002
 20
1.787999000000002
 30
0.0
 11
27.07600300000002
 21
1.371999000000002
 31
0.0
  0
LINE
  5
11E0
330
1E
100
AcDbEntity
  8
TITLE
100
AcDbLine
 10
21.07600600000002
 20
1.787999000000002
 30
0.0
 11
29.07600200000002
 21
1.787999000000002
 31
0.0
  0
LINE
  5
11E1
330
1E
100
AcDbEntity
  8
TITLE
100
AcDbLine
 10
23.07600500000002
 20
1.787999000000002
 30
0.0
 11
23.07600500000002
 21
1.371999000000002
 31
0.0
  0
TEXT
  5
11E2
330
1E
100
AcDbEntity
  8
TEXT
100
AcDbText
 10
29.73225100000002
 20
1.038333000000002
 30
0.0
 40
0.25
  1
KIT CONTAINS (4)
 41
0.75
 72
     4
 11
31.07600100000002
 21
1.163333000000002
 31
0.0
100
AcDbText
  0
TEXT
  5
11E3
330
1E
100
AcDbEntity
  8
TEXT
100
AcDbText
 10
29.29475100000002
 20
0.6216660000000023
 30
0.0
 40
0.25
  1
M4 x 20mm (0.787") LG.
 41
0.75
 72
     4
 11
31.07600100000002
 21
0.7466660000000023
 31
0.0
100
AcDbText
  0
TEXT
  5
11E4
330
1E
100
AcDbEntity
  8
TEXT
100
AcDbText
 10
29.29475100000002
 20
0.2050000000000023
 30
0.0
 40
0.25
  1
SCREWS FOR ASSEMBLY
 41
0.75
 72
     4
 11
31.07600100000002
 21
0.3300000000000023
 31
0.0
100
AcDbText
  0
TEXT
  5
11E5
330
1E
100
AcDbEntity
  8
TEXT
100
AcDbText
 10
17.07600800000002
 20
2.409999000000002
 30
0.0
 40
0.25
  1
%%UNOTE%%U:  ALL DIMENSIONS HAVE %%P0.015 TOLERANCE UNLESS OTHERWISE SPECIFIED.
 41
0.75
100
AcDbText
  0
LWPOLYLINE
  5
11EB
102
{ACAD_REACTORS
330
1880
330
1ACA
102
}
330
1E
100
AcDbEntity
  8
OBJECT
100
AcDbPolyline
 90
        3
 70
     0
 43
0.0
 10
24.90047375438674
 20
6.364381999999999
 10
24.90047375438674
 20
6.284381999999999
 10
24.78547375438674
 20
6.284381999999999
  0
LWPOLYLINE
  5
11F0
102
{ACAD_REACTORS
330
1880
330
1ACA
102
}
330
1E
100
AcDbEntity
  8
OBJECT
100
AcDbPolyline
 90
        2
 70
     0
 43
0.0
 10
24.78547375438674
 20
6.364381999999999
 10
24.90047375438674
 20
6.364381999999999
  0
LWPOLYLINE
  5
11F4
102
{ACAD_REACTORS
330
188E
330
1ACA
102
}
330
1E
100
AcDbEntity
  8
OBJECT
100
AcDbPolyline
 90
        3
 70
     0
 43
0.0
 10
24.90047375438674
 20
10.068382
 10
24.90047375438674
 20
9.988382000000001
 10
24.78547375438674
 20
9.988382000000001
  0
LWPOLYLINE
  5
11F9
102
{ACAD_REACTORS
330
188E
330
1ACA
102
}
330
1E
100
AcDbEntity
  8
OBJECT
100
AcDbPolyline
 90
        2
 70
     0
 43
0.0
 10
24.78547375438674
 20
10.068382
 10
24.90047375438674
 20
10.068382
  0
TEXT
  5
120A
330
1E
100
AcDbEntity
  8
TEXT
100
AcDbText
 10
0.535602
 20
18.581903
 30
0.0
 40
0.25
  1
 %%UPOLYCARBONATE%%U (LIGHT GRAY AND CLEAR)
 41
0.75
100
AcDbText
  0
TEXT
  5
120B
330
1E
100
AcDbEntity
  8
TEXT
100
AcDbText
 10
0.535602
 20
16.915904
 30
0.0
 40
0.25
  1
 %%UABS%%U (DARK GRAY)
 41
0.75
100
AcDbText
  0
TEXT
  5
120C
330
1E
100
AcDbEntity
  8
TEXT
100
AcDbText
 10
0.535602
 20
16.082904
 30
0.0
 40
0.25
  1
  SERVICE TEMPERATURE RANGE:  -40%%DC TO +80%%DC
 41
0.75
100
AcDbText
  0
TEXT
  5
120D
330
1E
100
AcDbEntity
  8
TEXT
100
AcDbText
 10
0.535602
 20
16.499237
 30
0.0
 40
0.25
  1
  UL94-HB FLAMMABILITY RATING (UL FILE #E56070)
 41
0.75
100
AcDbText
  0
TEXT
  5
120E
330
1E
100
AcDbEntity
  8
TEXT
100
AcDbText
 10
0.535602
 20
18.99857
 30
0.0
 40
0.3125
  1
INDUSTRY STANDARDS:
 41
0.75
100
AcDbText
  0
TEXT
  5
120F
330
1E
100
AcDbEntity
  8
TEXT
100
AcDbText
 10
0.535602
 20
17.33223699999999
 30
0.0
 40
0.25
  1
  SERVICE TEMPERATURE RANGE:  -40%%DC TO +120%%DC
 41
0.75
100
AcDbText
  0
TEXT
  5
1210
330
1E
100
AcDbEntity
  8
TEXT
100
AcDbText
 10
0.535602
 20
17.748904
 30
0.0
 40
0.25
  1
  UV STABILIZED
 41
0.75
100
AcDbText
  0
TEXT
  5
1211
330
1E
100
AcDbEntity
  8
TEXT
100
AcDbText
 10
0.535602
 20
18.165237
 30
0.0
 40
0.25
  1
  UL94-HB FLAMMABILITY RATING (UL FILE #E41613)
 41
0.75
100
AcDbText
  0
INSERT
  5
184D
330
1E
100
AcDbEntity
  8
TITLE
100
AcDbBlockReference
  2
HBS
 10
0.0
 20
0.0
 30
0.0
 41
2.0
 42
2.0
 43
2.0
  0
TEXT
  5
184E
330
1E
100
AcDbEntity
  8
TEXT
100
AcDbText
 10
5.858875000000011
 20
19.95775
 30
0.0
 40
0.3125
  1
NEMA 4X ENCLOSURE
 41
0.75
 72
     4
 11
7.812000000000011
 21
20.114
 31
0.0
100
AcDbText
  0
TEXT
  5
1850
330
1E
100
AcDbEntity
  8
TEXT
100
AcDbText
 10
30.58827238305002
 20
19.95775000000001
 30
0.0
 40
0.3125
  1
11-17-08
 41
0.75
 72
     4
 11
31.34999113305002
 21
20.11400000000001
 31
0.0
100
AcDbText
  0
LINE
  5
1853
102
{ACAD_REACTORS
330
1ACA
102
}
330
1E
100
AcDbEntity
  8
OBJECT
100
AcDbLine
 10
25.23247375438673
 20
5.831061
 30
0.0
 11
25.23247375438673
 21
5.521060999999999
 31
0.0
  0
LINE
  5
1855
102
{ACAD_REACTORS
330
1ACA
102
}
330
1E
100
AcDbEntity
  8
OBJECT
100
AcDbLine
 10
25.08547375438674
 20
5.926060999999998
 30
0.0
 11
25.08547375438674
 21
5.853560999999999
 31
0.0
  0
LINE
  5
1856
102
{ACAD_REACTORS
330
1ACA
102
}
330
1E
100
AcDbEntity
  8
OBJECT
100
AcDbLine
 10
25.08547375438674
 20
5.498561
 30
0.0
 11
25.08547375438674
 21
5.460061
 31
0.0
  0
HATCH
  5
1865
330
1E
100
AcDbEntity
  8
OBJECT
 62
   221
100
AcDbHatch
 10
0.0
 20
0.0
 30
0.0
210
0.0
220
0.0
230
1.0
  2
ANSI32
 70
     0
 71
     1
 91
        2
 92
        7
 72
     0
 73
     1
 93
        4
 10
13.639003
 20
5.551060999999999
 10
13.639003
 20
5.610061
 10
13.308003
 20
5.610060999999999
 10
13.30800299999999
 20
5.551060999999999
 97
        1
330
CE9
 92
        7
 72
     0
 73
     1
 93
        4
 10
13.308003
 20
5.801061
 10
13.30800299999999
 20
5.742060999999999
 10
13.639003
 20
5.742061
 10
13.639003
 20
5.801061
 97
        1
330
CEF
 75
     0
 76
     1
 52
89.99998127603165
 41
0.25
 77
     0
 78
     2
 53
134.9999812760316
 43
0.0
 44
0.0
 45
-0.066291282399881
 46
-0.0662912390725896
 79
     0
 53
134.9999812760316
 43
0.0000000144424304
 44
0.0441941737499977
 45
-0.066291282399881
 46
-0.0662912390725896
 79
     0
 47
0.0030263042391287
 98
        2
 10
13.45926508051699
 20
5.577217249714813
 10
13.46532254185156
 20
5.773927040020197
  0
HATCH
  5
1870
330
1E
100
AcDbEntity
  8
OBJECT
 62
   221
100
AcDbHatch
 10
0.0
 20
0.0
 30
0.0
210
0.0
220
0.0
230
1.0
  2
ANSI32
 70
     0
 71
     0
 91
        2
 92
        7
 72
     0
 73
     1
 93
        4
 10
14.390003
 20
6.597560999999998
 10
14.202003
 20
6.597560999999999
 10
14.202003
 20
6.566310999999999
 10
14.390003
 20
6.566310999999999
 97
        0
 92
        7
 72
     0
 73
     1
 93
        4
 10
14.390003
 20
6.753810999999999
 10
14.202003
 20
6.753810999999999
 10
14.202003
 20
6.722560999999999
 10
14.390003
 20
6.722560999999999
 97
        0
 75
     0
 76
     1
 52
89.99998127603165
 41
0.25
 77
     0
 78
     2
 53
134.9999812760316
 43
0.0
 44
0.0
 45
-0.066291282399881
 46
-0.0662912390725896
 79
     0
 53
134.9999812760316
 43
0.0000000144424304
 44
0.0441941737499977
 45
-0.066291282399881
 46
-0.0662912390725896
 79
     0
 47
0.0030263042391287
 98
        2
 10
14.30428662027834
 20
6.581950304230446
 10
14.30125780080499
 20
6.742344422091036
  0
HATCH
  5
1871
330
1E
100
AcDbEntity
  8
OBJECT
 62
   221
100
AcDbHatch
 10
0.0
 20
0.0
 30
0.0
210
0.0
220
0.0
230
1.0
  2
ZIGZAG
 70
     0
 71
     1
 91
        2
 92
        1
 93
       24
 72
     1
 10
18.64294375438674
 20
9.054061
 11
18.64294375438674
 21
6.470061
 72
     2
 10
18.83294361244245
 20
6.470060858055713
 40
0.1899998580557669
 50
179.9999571957125
 51
270.0000428042867
 73
     1
 72
     1
 10
18.83294375438673
 20
6.280060999999999
 11
19.02794375438673
 21
6.280060999999999
 72
     2
 10
19.02794389259564
 20
6.095061138208909
 40
0.184999861791142
 50
269.9999571957135
 51
360.000042804287
 73
     0
 72
     1
 10
19.21294375438673
 20
6.095061
 11
19.21294375438673
 21
5.650060999999999
 72
     2
 10
19.40294361244244
 20
5.650060858055716
 40
0.1899998580557669
 50
179.9999571957133
 51
270.0000428042877
 73
     1
 72
     1
 10
19.40294375438673
 20
5.460061
 11
22.48694375438673
 21
5.460061
 72
     2
 10
22.48694389633102
 20
5.650060858055716
 40
0.1899998580557687
 50
269.9999571957133
 51
360.0000428042867
 73
     1
 72
     1
 10
22.67694375438674
 20
5.650060999999999
 11
22.67694375438674
 21
6.095061
 72
     2
 10
22.86194361617782
 20
6.095061138208909
 40
0.1849998617911394
 50
179.9999571957129
 51
270.0000428042875
 73
     0
 72
     1
 10
22.86194375438673
 20
6.280060999999999
 11
23.05694375438673
 21
6.280060999999999
 72
     2
 10
23.05694389633102
 20
6.470060858055715
 40
0.1899998580557687
 50
269.9999571957133
 51
360.0000428042869
 73
     1
 72
     1
 10
23.24694375438673
 20
6.470061
 11
23.24694375438673
 21
9.054061
 72
     2
 10
23.05694389633102
 20
9.054061141944284
 40
0.1899998580557704
 50
359.9999571957133
 51
450.0000428042866
 73
     1
 72
     1
 10
23.05694375438673
 20
9.244061
 11
22.86194375438673
 21
9.244061
 72
     2
 10
22.86194361617782
 20
9.429060861791089
 40
0.1849998617911411
 50
89.99995719571241
 51
180.0000428042876
 73
     0
 72
     1
 10
22.67694375438674
 20
9.429061
 11
22.67694375438674
 21
9.874060999999999
 72
     2
 10
22.48694389633102
 20
9.874061141944284
 40
0.1899998580557704
 50
359.9999571957127
 51
450.0000428042866
 73
     1
 72
     1
 10
22.48694375438673
 20
10.064061
 11
19.40294375438673
 21
10.064061
 72
     2
 10
19.40294361244244
 20
9.874061141944284
 40
0.1899998580557687
 50
89.99995719571225
 51
180.0000428042872
 73
     1
 72
     1
 10
19.21294375438673
 20
9.874060999999999
 11
19.21294375438673
 21
9.429061
 72
     2
 10
19.02794389259564
 20
9.429060861791089
 40
0.1849998617911429
 50
359.9999571957123
 51
450.0000428042865
 73
     0
 72
     1
 10
19.02794375438673
 20
9.244061
 11
18.83294375438673
 21
9.244061
 72
     2
 10
18.83294361244245
 20
9.054061141944286
 40
0.1899998580557669
 50
89.99995719571332
 51
180.0000428042872
 73
     1
 97
        1
330
F74
 92
       16
 93
       24
 72
     1
 10
18.72294375438673
 20
9.054061
 11
18.72294375438673
 21
6.470061
 72
     2
 10
18.83294367220846
 20
6.470060917821729
 40
0.1099999178217588
 50
179.9999571957129
 51
270.0000428042875
 73
     1
 72
     1
 10
18.83294375438673
 20
6.360060999999999
 11
19.02794375438673
 21
6.360060999999999
 72
     2
 10
19.02794395236166
 20
6.095061197974922
 40
0.2649998020251509
 50
269.999957195713
 51
360.0000428042867
 73
     0
 72
     1
 10
19.29294375438673
 20
6.095061
 11
19.29294375438673
 21
5.650060999999999
 72
     2
 10
19.40294367220846
 20
5.650060917821729
 40
0.1099999178217588
 50
179.9999571957129
 51
270.0000428042875
 73
     1
 72
     1
 10
19.40294375438673
 20
5.540060999999999
 11
22.48694375438673
 21
5.540060999999999
 72
     2
 10
22.486943836565
 20
5.650060917821729
 40
0.1099999178217606
 50
269.9999571957124
 51
360.0000428042871
 73
     1
 72
     1
 10
22.59694375438673
 20
5.650060999999999
 11
22.59694375438673
 21
6.095061
 72
     2
 10
22.86194355641181
 20
6.095061197974922
 40
0.2649998020251509
 50
179.9999571957132
 51
270.0000428042869
 73
     0
 72
     1
 10
22.86194375438673
 20
6.360060999999999
 11
23.05694375438673
 21
6.360060999999999
 72
     2
 10
23.056943836565
 20
6.470060917821729
 40
0.1099999178217606
 50
269.9999571957124
 51
360.0000428042871
 73
     1
 72
     1
 10
23.16694375438673
 20
6.470061
 11
23.16694375438673
 21
9.054061
 72
     2
 10
23.056943836565
 20
9.054061082178272
 40
0.1099999178217588
 50
359.9999571957124
 51
450.0000428042875
 73
     1
 72
     1
 10
23.05694375438673
 20
9.164061
 11
22.86194375438673
 21
9.164061
 72
     2
 10
22.86194355641181
 20
9.429060802025077
 40
0.2649998020251509
 50
89.99995719571302
 51
180.0000428042869
 73
     0
 72
     1
 10
22.59694375438673
 20
9.429061
 11
22.59694375438673
 21
9.874060999999999
 72
     2
 10
22.486943836565
 20
9.87406108217827
 40
0.1099999178217624
 50
359.9999571957124
 51
450.0000428042857
 73
     1
 72
     1
 10
22.48694375438673
 20
9.984061
 11
19.40294375438673
 21
9.984061
 72
     2
 10
19.40294367220847
 20
9.87406108217827
 40
0.1099999178217606
 50
89.9999571957143
 51
180.0000428042875
 73
     1
 72
     1
 10
19.29294375438673
 20
9.874060999999999
 11
19.29294375438673
 21
9.429061
 72
     2
 10
19.02794395236166
 20
9.429060802025077
 40
0.2649998020251509
 50
359.999957195713
 51
450.0000428042869
 73
     0
 72
     1
 10
19.02794375438673
 20
9.164061
 11
18.83294375438673
 21
9.164061
 72
     2
 10
18.83294367220846
 20
9.054061082178272
 40
0.1099999178217588
 50
89.99995719571245
 51
180.0000428042875
 73
     1
 97
        1
330
F8E
 75
     0
 76
     1
 52
0.0
 41
0.25
 77
     0
 78
     2
 53
0.0
 43
0.826969754386738
 44
0.0
 45
0.03125
 46
0.03125
 79
     2
 49
0.03125
 49
-0.03125
 53
90.0
 43
0.858219754386738
 44
0.0
 45
-0.03125
 46
0.03125
 79
     2
 49
0.03125
 49
-0.03125
 98
        1
 10
0.826969754386738
 20
0.0
  0
HATCH
  5
1880
330
1E
100
AcDbEntity
  8
OBJECT
 62
   221
100
AcDbHatch
 10
0.0
 20
0.0
 30
0.0
210
0.0
220
0.0
230
1.0
  2
ZIGZAG
 70
     0
 71
     1
 91
        1
 92
        7
 72
     0
 73
     1
 93
        4
 10
24.78547375438673
 20
6.364381999999999
 10
24.78547375438673
 20
6.284381999999999
 10
24.90047375438674
 20
6.284381999999999
 10
24.90047375438674
 20
6.364381999999999
 97
        3
330
11F0
330
11A8
330
11EB
 75
     0
 76
     1
 52
0.0
 41
0.25
 77
     0
 78
     2
 53
0.0
 43
0.826969754386738
 44
0.0
 45
0.03125
 46
0.03125
 79
     2
 49
0.03125
 49
-0.03125
 53
90.0
 43
0.858219754386738
 44
0.0
 45
-0.03125
 46
0.03125
 79
     2
 49
0.03125
 49
-0.03125
 47
0.0076952196709331
 98
        1
 10
24.85069632579187
 20
6.334678748877074
  0
HATCH
  5
188E
330
1E
100
AcDbEntity
  8
OBJECT
 62
   221
100
AcDbHatch
 10
0.0
 20
0.0
 30
0.0
210
0.0
220
0.0
230
1.0
  2
ZIGZAG
 70
     0
 71
     1
 91
        1
 92
        7
 72
     0
 73
     1
 93
        4
 10
24.90047375438673
 20
9.988381999999999
 10
24.90047375438674
 20
10.068382
 10
24.78547375438674
 20
10.068382
 10
24.78547375438674
 20
9.988382000000001
 97
        3
330
11F9
330
11A8
330
11F4
 75
     0
 76
     1
 52
0.0
 41
0.25
 77
     0
 78
     2
 53
0.0
 43
0.826969754386738
 44
0.0
 45
0.03125
 46
0.03125
 79
     2
 49
0.03125
 49
-0.03125
 53
90.0
 43
0.858219754386738
 44
0.0
 45
-0.03125
 46
0.03125
 79
     2
 49
0.03125
 49
-0.03125
 47
0.0076952196709331
 98
        1
 10
24.84299488667946
 20
10.02068901221457
  0
LINE
  5
1890
102
{ACAD_REACTORS
330
199F
102
}
330
1E
100
AcDbEntity
  8
OBJECT
100
AcDbLine
 10
27.66029699815828
 20
14.1944555407906
 30
0.0
 11
27.66029699815828
 21
14.0404555407906
 31
0.0
  0
LINE
  5
1891
102
{ACAD_REACTORS
330
199F
102
}
330
1E
100
AcDbEntity
  8
OBJECT
100
AcDbLine
 10
27.66029699815827
 20
14.0404555407906
 30
0.0
 11
26.46029699815827
 21
14.0404555407906
 31
0.0
  0
LINE
  5
1892
102
{ACAD_REACTORS
330
199F
102
}
330
1E
100
AcDbEntity
  8
OBJECT
100
AcDbLine
 10
26.46029699815827
 20
13.8004555407906
 30
0.0
 11
30.93429699815827
 21
13.8004555407906
 31
0.0
  0
ARC
  5
1893
102
{ACAD_REACTORS
330
199F
102
}
330
1E
100
AcDbEntity
  8
OBJECT
100
AcDbCircle
 10
30.93429699815827
 20
14.0504555407906
 30
0.0
 40
0.25
100
AcDbArc
 50
270.0
 51
0.0
  0
LWPOLYLINE
  5
1895
102
{ACAD_REACTORS
330
18C6
330
199F
102
}
330
1E
100
AcDbEntity
  8
OBJECT
100
AcDbPolyline
 90
        2
 70
     0
 43
0.0
 10
26.46029699815827
 20
17.6577395407906
 10
26.92029699815826
 20
17.6577395407906
  0
LWPOLYLINE
  5
1896
102
{ACAD_REACTORS
330
18C6
330
199F
102
}
330
1E
100
AcDbEntity
  8
OBJECT
100
AcDbPolyline
 90
        3
 70
     0
 43
0.0
 10
26.92029699815826
 20
17.6577395407906
 10
26.92029699815826
 20
17.3377395407906
 10
26.46029699815827
 20
17.3377395407906
  0
LINE
  5
1897
102
{ACAD_REACTORS
330
199F
102
}
330
1E
100
AcDbEntity
  8
OBJECT
100
AcDbLine
 10
26.46029699815827
 20
14.1944555407906
 30
0.0
 11
27.66029699815827
 21
14.1944555407906
 31
0.0
  0
LINE
  5
1898
102
{ACAD_REACTORS
330
199F
102
}
330
1E
100
AcDbEntity
  8
OBJECT
100
AcDbLine
 10
26.46029699815827
 20
15.6144555407906
 30
0.0
 11
27.66029699815827
 21
15.6144555407906
 31
0.0
  0
LINE
  5
1899
102
{ACAD_REACTORS
330
199F
102
}
330
1E
100
AcDbEntity
  8
OBJECT
100
AcDbLine
 10
26.46029699815827
 20
15.2482075407906
 30
0.0
 11
28.24829699815825
 21
15.2482075407906
 31
0.0
  0
LINE
  5
189A
102
{ACAD_REACTORS
330
199F
102
}
330
1E
100
AcDbEntity
  8
OBJECT
100
AcDbLine
 10
26.46029699815827
 20
14.5607075407906
 30
0.0
 11
28.24829699815825
 21
14.5607075407906
 31
0.0
  0
LINE
  5
189B
102
{ACAD_REACTORS
330
199F
102
}
330
1E
100
AcDbEntity
  8
OBJECT
100
AcDbLine
 10
26.46029699815827
 20
17.8004555407906
 30
0.0
 11
30.70429699815825
 21
17.8004555407906
 31
0.0
  0
LINE
  5
189C
102
{ACAD_REACTORS
330
199F
102
}
330
1E
100
AcDbEntity
  8
OBJECT
100
AcDbLine
 10
26.46029699815827
 20
17.08045554079061
 30
0.0
 11
30.70429699815825
 21
17.08045554079061
 31
0.0
  0
LINE
  5
189D
102
{ACAD_REACTORS
330
199F
102
}
330
1E
100
AcDbEntity
  8
OBJECT
100
AcDbLine
 10
27.66029699815827
 20
15.9044555407906
 30
0.0
 11
30.70429699815825
 21
15.9044555407906
 31
0.0
  0
LINE
  5
189E
102
{ACAD_REACTORS
330
199F
102
}
330
1E
100
AcDbEntity
  8
OBJECT
100
AcDbLine
 10
28.24829699815824
 20
14.2844555407906
 30
0.0
 11
31.18429699815827
 21
14.2844555407906
 31
0.0
  0
LINE
  5
189F
102
{ACAD_REACTORS
330
199F
102
}
330
1E
100
AcDbEntity
  8
OBJECT
100
AcDbLine
 10
28.24829699815826
 20
15.52445554079061
 30
0.0
 11
31.18429699815827
 21
15.5244555407906
 31
0.0
  0
LINE
  5
18A0
102
{ACAD_REACTORS
330
199F
102
}
330
1E
100
AcDbEntity
  8
OBJECT
100
AcDbLine
 10
27.66029699815826
 20
15.9044555407906
 30
0.0
 11
27.66029699815826
 21
15.6144555407906
 31
0.0
  0
LINE
  5
18A1
102
{ACAD_REACTORS
330
199F
102
}
330
1E
100
AcDbEntity
  8
OBJECT
100
AcDbLine
 10
28.24829699815826
 20
15.52445554079061
 30
0.0
 11
28.24829699815824
 21
14.2844555407906
 31
0.0
  0
LINE
  5
18A2
102
{ACAD_REACTORS
330
199F
102
}
330
1E
100
AcDbEntity
  8
OBJECT
100
AcDbLine
 10
30.70429699815825
 20
17.08045554079061
 30
0.0
 11
30.70429699815825
 21
15.9044555407906
 31
0.0
  0
LINE
  5
18A3
102
{ACAD_REACTORS
330
18C6
330
199F
102
}
330
1E
100
AcDbEntity
  8
OBJECT
100
AcDbLine
 10
26.46029699815827
 20
18.30392565569343
 30
0.0
 11
26.46029699815827
 21
13.8004555407906
 31
0.0
  0
LINE
  5
18A4
102
{ACAD_REACTORS
330
199F
102
}
330
1E
100
AcDbEntity
  8
OBJECT
100
AcDbLine
 10
30.70429699815825
 20
18.50635809730345
 30
0.0
 11
30.70429699815825
 21
17.8004555407906
 31
0.0
  0
LINE
  5
18A5
102
{ACAD_REACTORS
330
199F
102
}
330
1E
100
AcDbEntity
  8
OBJECT
100
AcDbLine
 10
31.18429699815825
 20
18.46129435231196
 30
0.0
 11
31.18429699815827
 21
14.0504555407906
 31
0.0
  0
SPLINE
  5
18A7
102
{ACAD_REACTORS
330
199F
102
}
330
1E
100
AcDbEntity
  8
OBJECT
100
AcDbSpline
210
0.0
220
0.0
230
1.0
 70
     8
 71
     3
 72
    13
 73
     9
 74
     0
 42
0.0000000001
 43
0.0000000001
 40
0.0
 40
0.0
 40
0.0
 40
0.0
 40
0.8254813544104703
 40
1.58793229656407
 40
2.580407811337047
 40
3.614624615676575
 40
4.704091181086933
 40
4.97034986082285
 40
4.97034986082285
 40
4.97034986082285
 40
4.97034986082285
 10
26.46029699815827
 20
18.30392565569343
 30
0.0
 10
26.71740025521188
 20
18.47046263997786
 30
0.0
 10
27.2119754061174
 20
18.79082051905615
 30
0.0
 10
28.00805442776105
 20
18.09551986769974
 30
0.0
 10
28.93848527148209
 20
18.85290972174907
 30
0.0
 10
29.89778701563386
 20
17.90426750212803
 30
0.0
 10
30.68650028285775
 20
18.64665226785532
 30
0.0
 10
31.10274349502489
 20
18.49918637591839
 30
0.0
 10
31.18429699815767
 20
18.46129435231072
 30
0.0
  0
HATCH
  5
18C6
330
1E
100
AcDbEntity
  8
OBJECT
 62
   221
100
AcDbHatch
 10
0.0
 20
0.0
 30
0.0
210
0.0
220
0.0
230
1.0
  2
ZIGZAG
 70
     0
 71
     1
 91
        1
 92
        7
 72
     0
 73
     1
 93
        4
 10
26.92029699815826
 20
17.3377395407906
 10
26.92029699815826
 20
17.6577395407906
 10
26.46029699815827
 20
17.6577395407906
 10
26.46029699815827
 20
17.3377395407906
 97
        3
330
1895
330
18A3
330
1896
 75
     0
 76
     1
 52
0.0
 41
1.0
 77
     0
 78
     2
 53
0.0
 43
-4.580527297896722
 44
1.611170138118019
 45
0.125
 46
0.125
 79
     2
 49
0.125
 49
-0.125
 53
90.0
 43
-4.455527297896722
 44
1.611170138118019
 45
-0.125
 46
0.125
 79
     2
 49
0.125
 49
-0.125
 47
0.0132311014412873
 98
        1
 10
26.72715266252075
 20
17.47669025596349
  0
HATCH
  5
199F
330
1E
100
AcDbEntity
  8
OBJECT
 62
   151
100
AcDbHatch
 10
0.0
 20
0.0
 30
0.0
210
0.0
220
0.0
230
1.0
  2
ANSI31
 70
     0
 71
     1
 91
        2
 92
        5
 93
       18
 72
     1
 10
30.70429699815825
 20
17.08045554079061
 11
30.70429699815826
 21
15.9044555407906
 72
     1
 10
30.70429699815826
 20
15.9044555407906
 11
27.66029699815826
 21
15.9044555407906
 72
     1
 10
27.66029699815826
 20
15.9044555407906
 11
27.66029699815825
 21
15.6144555407906
 72
     1
 10
27.66029699815825
 20
15.6144555407906
 11
26.46029699815827
 21
15.61445554079059
 72
     1
 10
26.46029699815827
 20
15.61445554079059
 11
26.46029699815827
 21
15.2482075407906
 72
     1
 10
26.46029699815827
 20
15.2482075407906
 11
28.24829699815825
 21
15.2482075407906
 72
     1
 10
28.24829699815825
 20
15.2482075407906
 11
28.24829699815826
 21
15.52445554079061
 72
     1
 10
28.24829699815826
 20
15.52445554079061
 11
31.18429699815827
 21
15.5244555407906
 72
     1
 10
31.18429699815827
 20
15.5244555407906
 11
31.18429699815825
 21
18.46129435231048
 72
     4
 94
        3
 73
     0
 74
     0
 95
        9
 96
        5
 40
4.456911714331091
 40
4.456911714331091
 40
4.456911714331091
 40
4.456911714331091
 40
4.723170394067008
 40
4.97034986082285
 40
4.97034986082285
 40
4.97034986082285
 40
4.97034986082285
 10
31.18429699815767
 20
18.46129435231072
 10
31.10274349502489
 20
18.49918637591839
 10
30.94510451610198
 20
18.5550344280941
 10
30.78299568704951
 20
18.52933049660396
 10
30.70429699813736
 20
18.50635809729736
 72
     1
 10
30.70429699815825
 20
18.50635809730217
 11
30.70429699815826
 21
17.8004555407906
 72
     1
 10
30.70429699815826
 20
17.8004555407906
 11
26.46029699815827
 21
17.80045554079061
 72
     1
 10
26.46029699815827
 20
17.80045554079061
 11
26.46029699815827
 21
17.6577395407906
 72
     1
 10
26.46029699815827
 20
17.6577395407906
 11
26.92029699815826
 21
17.6577395407906
 72
     1
 10
26.92029699815826
 20
17.6577395407906
 11
26.92029699815826
 21
17.3377395407906
 72
     1
 10
26.92029699815826
 20
17.3377395407906
 11
26.46029699815827
 21
17.3377395407906
 72
     1
 10
26.46029699815827
 20
17.3377395407906
 11
26.46029699815827
 21
17.08045554079061
 72
     1
 10
26.46029699815827
 20
17.08045554079061
 11
30.70429699815825
 21
17.08045554079061
 97
       15
330
18A7
330
18A4
330
189B
330
18A3
330
1895
330
1896
330
189C
330
18A2
330
189D
330
18A0
330
1898
330
1899
330
18A1
330
189F
330
18A5
 92
        7
 72
     1
 73
     1
 93
       11
 10
28.24829699815823
 20
14.2844555407906
 42
0.0
 10
28.24829699815824
 20
14.5607075407906
 42
0.0
 10
26.46029699815827
 20
14.5607075407906
 42
0.0
 10
26.46029699815827
 20
14.1944555407906
 42
0.0
 10
27.66029699815829
 20
14.1944555407906
 42
0.0
 10
27.66029699815828
 20
14.0404555407906
 42
0.0
 10
26.46029699815827
 20
14.0404555407906
 42
0.0
 10
26.46029699815827
 20
13.8004555407906
 42
0.0
 10
30.93429699815827
 20
13.8004555407906
 42
0.4142135623730972
 10
31.18429699815827
 20
14.05045554079061
 42
0.0
 10
31.18429699815827
 20
14.2844555407906
 42
0.0
 97
       10
330
189E
330
18A1
330
189A
330
18A3
330
1897
330
1890
330
1891
330
1892
330
1893
330
18A5
 75
     0
 76
     1
 52
0.0
 41
1.5
 77
     0
 78
     1
 53
45.0
 43
-7.182833214615428
 44
1.611170138118019
 45
-0.1325825214724776
 46
0.1325825214724777
 79
     0
 47
0.0359218220861592
 98
        2
 10
29.33534248716426
 20
17.43576133865242
 10
28.97583388867527
 20
14.0591100621479
  0
LEADER
  5
1A3E
330
1E
100
AcDbEntity
  8
DIM
100
AcDbLeader
  3
23NSTD
 73
     0
 75
     1
 40
0.6666666666666666
 41
2.625
 76
     3
 10
26.46029699815827
 20
17.36117013811802
 30
0.0
 10
25.55721428505664
 20
16.21399083875777
 30
0.0
 10
25.19721428505664
 20
16.21399083875777
 30
0.0
340
1A3F
213
0.0
223
-0.125
233
0.0
1001
ACAD
1000
DSTYLE
1002
{
1070
   147
1040
0.09
1070
    77
1070
     0
1002
}
  0
MTEXT
  5
1A3F
102
{ACAD_REACTORS
330
1A3E
102
}
330
1E
100
AcDbEntity
  8
DIM
100
AcDbMText
 10
25.01721428505664
 20
16.33899083875777
 30
0.0
 40
0.25
 41
0.0
 71
     3
 72
     1
  1
\A1;SILICONE GASKET\P(CLEAR)
 73
     1
 44
1.0
  0
HATCH
  5
1A94
330
1E
100
AcDbEntity
  8
OBJECT
 62
   151
100
AcDbHatch
 10
0.0
 20
0.0
 30
0.0
210
0.0
220
0.0
230
1.0
  2
ANSI31
 70
     0
 71
     0
 91
        3
 92
        7
 72
     1
 73
     1
 93
        9
 10
14.489003
 20
5.462560999999999
 42
0.0
 10
14.489003
 20
5.490060999999998
 42
0.0
 10
13.639003
 20
5.490060999999998
 42
0.0
 10
13.639003
 20
5.551060999999999
 42
0.0
 10
13.30800299999999
 20
5.551060999999999
 42
0.0
 10
13.30800299999999
 20
5.420061000000001
 42
0.0
 10
13.348003
 20
5.420061000000001
 42
0.0
 10
13.348003
 20
5.400060999999999
 42
0.0
 10
14.426503
 20
5.400060999999999
 42
0.4142135623730909
 97
        0
 92
        7
 72
     0
 73
     1
 93
        8
 10
14.489003
 20
5.984060999999998
 10
14.37100299999999
 20
5.984060999999999
 10
14.37100299999999
 20
5.880061000000001
 10
13.30800299999999
 20
5.880061000000001
 10
13.30800299999999
 20
5.801061
 10
13.639003
 20
5.801060999999999
 10
13.639003
 20
5.814061
 10
14.489003
 20
5.814061
 97
        0
 92
        7
 72
     1
 73
     1
 93
       54
 10
14.489003
 20
10.06156099999999
 42
0.4142135623730951
 10
14.426503
 20
10.12406099999999
 42
0.0
 10
13.348003
 20
10.12406099999999
 42
0.0
 10
13.348003
 20
10.10406099999999
 42
0.0
 10
13.30800299999999
 20
10.10406099999999
 42
0.0
 10
13.308003
 20
10.04606099999999
 42
0.0
 10
13.268003
 20
10.04606099999999
 42
0.0
 10
13.26800299999999
 20
10.006061
 42
0.0
 10
14.37100299999999
 20
10.006061
 42
0.0
 10
14.37100299999999
 20
9.776061
 42
0.0
 10
14.405003
 20
9.776060999999998
 42
0.0
 10
14.405003
 20
9.686061
 42
0.0
 10
14.37100299999999
 20
9.686061
 42
0.0
 10
14.371003
 20
8.957810999999999
 42
0.0
 10
14.390003
 20
8.957810999999999
 42
0.0
 10
14.390003
 20
8.770310999999999
 42
0.0
 10
14.37100299999999
 20
8.770310999999999
 42
0.0
 10
14.371003
 20
8.593061
 42
0.0
 10
14.405003
 20
8.593061
 42
0.0
 10
14.405003
 20
8.427061
 42
0.0
 10
14.37100299999999
 20
8.427061
 42
0.0
 10
14.37100299999999
 20
8.116561
 42
0.0
 10
14.202003
 20
8.116561
 42
0.0
 10
14.202003
 20
7.807061
 42
0.0
 10
14.405003
 20
7.807061
 42
0.0
 10
14.405003
 20
7.717061000000001
 42
0.0
 10
14.202003
 20
7.717061
 42
0.0
 10
14.202003
 20
7.407561
 42
0.0
 10
14.37100299999999
 20
7.407561
 42
0.0
 10
14.37100299999999
 20
7.189061
 42
0.0
 10
14.202003
 20
7.163060999999999
 42
0.0
 10
14.202003
 20
7.097061
 42
0.0
 10
14.405003
 20
7.097061
 42
0.0
 10
14.405003
 20
6.931061
 42
0.0
 10
14.202003
 20
6.931060999999999
 42
0.0
 10
14.202003
 20
6.865060999999998
 42
0.0
 10
14.371003
 20
6.839061
 42
0.0
 10
14.371003
 20
6.808061000000001
 42
0.0
 10
14.20200299999999
 20
6.785061
 42
0.0
 10
14.202003
 20
6.753810999999999
 42
0.0
 10
14.390003
 20
6.753810999999999
 42
0.0
 10
14.390003
 20
6.722560999999999
 42
0.0
 10
14.390003
 20
6.566310999999999
 42
0.0
 10
14.202003
 20
6.566310999999999
 42
0.0
 10
14.202003
 20
6.535060999999999
 42
0.0
 10
14.371003
 20
6.512061
 42
0.0
 10
14.37100299999999
 20
6.338060999999999
 42
0.0
 10
13.26800299999999
 20
6.338060999999999
 42
0.0
 10
13.26800299999999
 20
6.298061
 42
0.0
 10
13.30800299999999
 20
6.298060999999999
 42
0.0
 10
13.30800299999999
 20
6.273061
 42
0.0
 10
14.37100299999999
 20
6.273061
 42
0.0
 10
14.37100299999999
 20
6.154061000000001
 42
0.0
 10
14.489003
 20
6.154061
 42
0.0
 97
        0
 75
     0
 76
     1
 52
0.0
 41
0.625
 77
     0
 78
     1
 53
45.0
 43
0.0
 44
0.0
 45
-0.055242717280199
 46
0.055242717280199
 79
     0
 47
0.0092123089500915
 98
        3
 10
13.81946370209013
 20
5.434373198253751
 10
14.27123176155984
 20
5.858139423097782
 10
14.24357249261272
 20
6.300330258217648
  0
HATCH
  5
1ACA
330
1E
100
AcDbEntity
  8
OBJECT
 62
   151
100
AcDbHatch
 10
0.0
 20
0.0
 30
0.0
210
0.0
220
0.0
230
1.0
  2
ANSI31
 70
     0
 71
     1
 91
        3
 92
        7
 72
     1
 73
     1
 93
       11
 10
24.78547375438674
 20
10.12406099999999
 42
0.0
 10
24.78547375438674
 20
10.068382
 42
0.0
 10
24.90047375438674
 20
10.068382
 42
0.0
 10
24.90047375438674
 20
9.988382000000001
 42
0.0
 10
24.78547375438674
 20
9.988382000000001
 42
0.0
 10
24.78547375438674
 20
9.944060999999999
 42
0.0
 10
25.84647375438674
 20
9.944060999999999
 42
0.0
 10
25.84647375438674
 20
6.546894897217583
 42
-0.0460327851252997
 10
25.96647375438674
 20
6.445599988926607
 42
0.0
 10
25.96647375438674
 20
10.06156099999999
 42
0.4142135623730951
 10
25.90397375438674
 20
10.12406099999999
 42
0.0
 97
        9
330
108F
330
1090
330
11A8
330
11F9
330
11F4
330
1091
330
107B
330
F24
330
107C
 92
        7
 72
     1
 73
     1
 93
       18
 10
24.78547375438674
 20
6.400060999999999
 42
0.0
 10
24.78547375438674
 20
6.364381999999999
 42
0.0
 10
24.90047375438674
 20
6.364381999999999
 42
0.0
 10
24.90047375438674
 20
6.284381999999999
 42
0.0
 10
24.78547375438674
 20
6.284382
 42
0.0
 10
24.78547375438674
 20
6.220061
 42
0.0
 10
25.84647375438674
 20
6.220061
 42
0.0
 10
25.84647375438674
 20
5.926060999999999
 42
0.0
 10
25.08547375438674
 20
5.926060999999999
 42
0.0
 10
25.08547375438673
 20
5.853561
 42
0.0
 10
24.78547375438674
 20
5.853561
 42
0.0
 10
24.78547375438674
 20
5.761998999999999
 42
0.0
 10
25.23247375438673
 20
5.761998999999998
 42
0.0
 10
25.23247375438674
 20
5.831061
 42
0.0
 10
25.96647375438673
 20
5.831061
 42
0.0
 10
25.96647375438673
 20
6.445599988926611
 42
0.0460327851252983
 10
25.84647375438674
 20
6.546894897217583
 42
0.0
 10
25.84647375438674
 20
6.400060999999999
 42
0.0
 97
       15
330
F24
330
107B
330
1089
330
11A8
330
11F0
330
11EB
330
108A
330
1092
330
108E
330
1855
330
1086
330
1088
330
1853
330
1085
330
107C
 92
        7
 72
     1
 73
     1
 93
       11
 10
25.90397375438674
 20
5.400060999999999
 42
0.4142135623730951
 10
25.96647375438674
 20
5.462560999999999
 42
0.0
 10
25.96647375438673
 20
5.521061
 42
0.0
 10
25.23247375438673
 20
5.521060999999999
 42
0.0
 10
25.23247375438673
 20
5.590124
 42
0.0
 10
24.78547375438673
 20
5.590123999999999
 42
0.0
 10
24.78547375438674
 20
5.498561000000001
 42
0.0
 10
25.08547375438674
 20
5.498561
 42
0.0
 10
25.08547375438674
 20
5.460061
 42
0.0
 10
24.78547375438673
 20
5.460061
 42
0.0
 10
24.78547375438673
 20
5.400060999999999
 42
0.0
 97
       10
330
107C
330
1080
330
1853
330
1087
330
11A8
330
1081
330
1856
330
1083
330
1082
330
107F
 75
     0
 76
     1
 52
0.0
 41
0.625
 77
     0
 78
     1
 53
45.0
 43
0.826969754386738
 44
0.0
 45
-0.055242717280199
 46
0.055242717280199
 79
     0
 47
0.0106087678964746
 98
        3
 10
25.37327007833133
 20
10.03871277809921
 10
25.36265269224751
 20
6.315035253087657
 10
25.47944349513933
 20
5.445116261487072
  0
LEADER
  5
1B3D
330
1E
100
AcDbEntity
  8
DIM
100
AcDbLeader
  3
23NSTD
 73
     0
 75
     1
 40
0.25
 41
2.375
 76
     3
 10
24.72214775438674
 20
5.274294
 30
0.0
 10
24.34164854737539
 20
4.59288694017831
 30
0.0
 10
23.98164854737539
 20
4.59288694017831
 30
0.0
340
1B3E
213
0.0
223
-0.125
233
0.0
1001
ACAD
1000
DSTYLE
1002
{
1070
   147
1040
0.09
1070
    77
1070
     0
1002
}
  0
MTEXT
  5
1B3E
102
{ACAD_REACTORS
330
1B3D
102
}
330
1E
100
AcDbEntity
  8
DIM
100
AcDbMText
 10
23.80164854737539
 20
4.71788694017831
 30
0.0
 40
0.25
 41
0.0
 71
     3
 72
     1
  1
\A1;SEE DETAIL "D"
 73
     1
 44
1.0
  0
LEADER
  5
1B3F
330
1E
100
AcDbEntity
  8
DIM
100
AcDbLeader
  3
23NSTD
 73
     0
 75
     1
 40
0.25
 41
2.375
 76
     3
 10
5.378677872817199
 20
5.602094512816373
 30
0.0
 10
3.581103669304234
 20
4.813423315060973
 30
0.0
 10
3.221103669304234
 20
4.813423315060973
 30
0.0
340
1B40
213
0.0
223
-0.125
233
0.0
1001
ACAD
1000
DSTYLE
1002
{
1070
   147
1040
0.09
1070
    77
1070
     0
1002
}
  0
MTEXT
  5
1B40
102
{ACAD_REACTORS
330
1B3F
102
}
330
1E
100
AcDbEntity
  8
DIM
100
AcDbMText
 10
3.041103669304234
 20
4.938423315060973
 30
0.0
 40
0.25
 41
0.0
 71
     3
 72
     1
  1
\A1;SEE DETAIL "C"
 73
     1
 44
1.0
  0
LEADER
  5
1B43
330
1E
100
AcDbEntity
  8
DIM
100
AcDbLeader
  3
23NSTD
 73
     0
 75
     1
 40
1.916666666666666
 41
4.875
 76
     3
 10
16.81452278368069
 20
16.96921271420795
 30
0.0
 10
15.81869130697781
 20
15.73650130645565
 30
0.0
 10
15.45869130697782
 20
15.73650130645565
 30
0.0
340
1B44
213
0.0
223
-0.125
233
0.0
1001
ACAD
1000
DSTYLE
1002
{
1070
   147
1040
0.09
1070
    77
1070
     0
1002
}
  0
MTEXT
  5
1B44
102
{ACAD_REACTORS
330
1B43
102
}
330
1E
100
AcDbEntity
  8
DIM
100
AcDbMText
 10
15.27869130697782
 20
15.86150130645565
 30
0.0
 40
0.25
 41
0.0
 71
     3
 72
     1
  1
\A1;0.090 DIA. HOLE x 0.203 DEEP\PMOUNTING BOSSES USE EITHER\PM2.5 METRIC OR #4 STD. SHEET\PMETAL SCREWS x 0.188 LG.\P(NOT SUPPLIED)
 73
     1
 44
1.0
  0
LEADER
  5
1B45
330
1E
100
AcDbEntity
  8
DIM
100
AcDbLeader
  3
23NSTD
 73
     0
 74
     0
 75
     1
 40
2.749999999999999
 41
4.71875
 76
     3
 10
8.009911750882199
 20
6.913481411261727
 30
0.0
 10
8.645081732203315
 20
4.311692526253608
 30
0.0
 10
9.005081732203315
 20
4.311692526253608
 30
0.0
340
1B46
213
0.0
223
-0.125
233
0.0
1001
ACAD
1000
DSTYLE
1002
{
1070
   147
1040
0.09
1070
    77
1070
     0
1002
}
  0
MTEXT
  5
1B46
102
{ACAD_REACTORS
330
1B45
102
}
330
1E
100
AcDbEntity
  8
DIM
100
AcDbMText
 10
9.185081732203315
 20
4.436692526253608
 30
0.0
 40
0.25
 41
0.0
 71
     1
 72
     1
  1
\A1;0.298 DIA. BOSS WITH\P0.174 DIA. HOLE x 0.203 DEEP\P(4) PLACES\PMOUNTING BOSSES USE EITHER\PM5 METRIC OR #10 STD. SHEET\PMETAL SCREWS x 0.312 LG.\P(NOT SUPPLIED)
 73
     1
 44
1.0
  0
LEADER
  5
1B66
330
1E
100
AcDbEntity
  8
DIM
100
AcDbLeader
  3
23NSTD
 73
     0
 75
     1
 40
1.916666666666666
 41
3.75
 76
     3
 10
7.763050899102938
 20
6.554418953542988
 30
0.0
 10
6.71524952726282
 20
3.365313480216322
 30
0.0
 10
6.35524952726282
 20
3.365313480216322
 30
0.0
340
1B67
213
0.0
223
-0.125
233
0.0
1001
ACAD
1000
DSTYLE
1002
{
1070
   147
1040
0.09
1070
    77
1070
     0
1002
}
  0
MTEXT
  5
1B67
102
{ACAD_REACTORS
330
1B66
102
}
330
1E
100
AcDbEntity
  8
DIM
100
AcDbMText
 10
6.17524952726282
 20
3.490313480216322
 30
0.0
 40
0.25
 41
0.0
 71
     3
 72
     1
  1
\A1;0.250 DIA. BOSS WITH\PM3 x 0.188 LG.\PTHREADED INSERT\P(4) PLACES\P(SCREWS NOT SUPPLIED)
 73
     1
 44
1.0
  0
LEADER
  5
1B69
330
1E
100
AcDbEntity
  8
DIM
100
AcDbLeader
  3
23NSTD
 73
     0
 74
     0
 75
     1
 40
1.083333333333333
 41
2.6875
 76
     3
 10
8.100567999999999
 20
9.946635
 30
0.0
 10
8.849401386079797
 20
12.06258305658638
 30
0.0
 10
9.209401386079797
 20
12.06258305658638
 30
0.0
340
1B6A
213
0.0
223
-0.125
233
0.0
1001
ACAD
1000
DSTYLE
1002
{
1070
   147
1040
0.09
1070
    77
1070
     0
1002
}
  0
MTEXT
  5
1B6A
102
{ACAD_REACTORS
330
1B69
102
}
330
1E
100
AcDbEntity
  8
DIM
100
AcDbMText
 10
9.389401386079796
 20
12.18758305658638
 30
0.0
 40
0.25
 41
0.0
 71
     1
 72
     1
  1
\A1;M4 x 0.315 LG.\PTHREADED INSERT\P(4) PLACES
 73
     1
 44
1.0
  0
CIRCLE
  5
1BB0
330
1E
100
AcDbEntity
  8
OBJECT
100
AcDbCircle
 10
4.008702999999999
 20
8.864060999999999
 30
0.0
 40
0.09375
  0
LINE
  5
1BB2
330
1E
100
AcDbEntity
  8
HIDDEN
  6
HIDDEN2
100
AcDbLine
 10
4.133702999999999
 20
14.56151599999999
 30
0.0
 11
3.883702999999999
 21
14.56151599999999
 31
0.0
  0
CIRCLE
  5
1BB8
330
1E
100
AcDbEntity
  8
OBJECT
100
AcDbCircle
 10
4.008702999999999
 20
8.864060999999999
 30
0.0
 40
0.0590000000000011
  0
CIRCLE
  5
1BB9
330
1E
100
AcDbEntity
  8
OBJECT
100
AcDbCircle
 10
4.008702999999999
 20
8.864060999999999
 30
0.0
 40
0.125
  0
LINE
  5
1BBB
330
1E
100
AcDbEntity
  8
HIDDEN
  6
HIDDEN2
100
AcDbLine
 10
3.961702986305012
 20
14.57151599999999
 30
0.0
 11
3.961702977014012
 21
14.73051599999999
 31
0.0
  0
LINE
  5
1BBC
330
1E
100
AcDbEntity
  8
HIDDEN
  6
HIDDEN2
100
AcDbLine
 10
3.892875490594401
 20
14.57151599999999
 30
0.0
 11
3.892875539647384
 21
14.73051599999999
 31
0.0
  0
LINE
  5
1BBE
330
1E
100
AcDbEntity
  8
HIDDEN
  6
HIDDEN2
100
AcDbLine
 10
3.808756675675466
 20
14.73051599999999
 30
0.0
 11
3.843756660077477
 21
14.57151599999999
 31
0.0
  0
LINE
  5
1BC3
330
1E
100
AcDbEntity
  8
OBJECT
100
AcDbLine
 10
3.843756658019349
 20
8.817061055476434
 30
0.0
 11
3.843756658019349
 21
8.911060982914584
 31
0.0
  0
LINE
  5
1BC4
330
1E
100
AcDbEntity
  8
OBJECT
100
AcDbLine
 10
3.808756675675465
 20
8.91106097074026
 30
0.0
 11
3.808756675675464
 21
8.817061095006531
 31
0.0
  0
LINE
  5
1BC5
330
1E
100
AcDbEntity
  8
OBJECT
100
AcDbLine
 10
3.892875542115437
 20
8.817060999999998
 30
0.0
 11
3.808756675675464
 21
8.817061095006531
 31
0.0
  0
LINE
  5
1BC6
330
1E
100
AcDbEntity
  8
OBJECT
100
AcDbLine
 10
3.808756675675465
 20
8.91106097074026
 30
0.0
 11
3.892875542115437
 21
8.911060999999998
 31
0.0
  0
LINE
  5
1BCB
330
1E
100
AcDbEntity
  8
HIDDEN
  6
HIDDEN2
100
AcDbLine
 10
4.055703060408131
 20
14.57151599999999
 30
0.0
 11
4.055703
 21
14.73051599999999
 31
0.0
  0
LINE
  5
1BCC
330
1E
100
AcDbEntity
  8
HIDDEN
  6
HIDDEN2
100
AcDbLine
 10
4.124530482786257
 20
14.57151599999999
 30
0.0
 11
4.12453045788456
 21
14.73051599999999
 31
0.0
  0
LINE
  5
1BCE
330
1E
100
AcDbEntity
  8
HIDDEN
  6
HIDDEN2
100
AcDbLine
 10
4.208649297705194
 20
14.73051599999999
 30
0.0
 11
4.173649313303181
 21
14.57151599999999
 31
0.0
  0
LINE
  5
1BDE
330
1E
100
AcDbEntity
  8
OBJECT
100
AcDbLine
 10
4.124530457884561
 20
8.911060999999998
 30
0.0
 11
4.208649297705194
 21
8.911060970740258
 31
0.0
  0
LINE
  5
1BDF
330
1E
100
AcDbEntity
  8
OBJECT
100
AcDbLine
 10
4.208649297705194
 20
8.817061095006556
 30
0.0
 11
4.124530457884561
 21
8.817060999999998
 31
0.0
  0
LINE
  5
1BE0
330
1E
100
AcDbEntity
  8
OBJECT
100
AcDbLine
 10
4.17364931536131
 20
8.911060982914586
 30
0.0
 11
4.17364931536131
 21
8.817061055476436
 31
0.0
  0
LINE
  5
1BE2
330
1E
100
AcDbEntity
  8
OBJECT
100
AcDbLine
 10
4.208649297705194
 20
8.817061095006556
 30
0.0
 11
4.208649297705194
 21
8.911060970740258
 31
0.0
  0
LINE
  5
1BE6
330
1E
100
AcDbEntity
  8
HIDDEN
  6
HIDDEN2
100
AcDbLine
 10
3.883702999999999
 20
14.56151599999999
 30
0.0
 11
3.883702999999999
 21
14.57151599999999
 31
0.0
  0
LINE
  5
1BE8
330
1E
100
AcDbEntity
  8
HIDDEN
  6
HIDDEN2
100
AcDbLine
 10
4.133702999999999
 20
14.56151599999999
 30
0.0
 11
4.133702999999999
 21
14.57151599999999
 31
0.0
  0
LINE
  5
1BEA
330
1E
100
AcDbEntity
  8
HIDDEN
  6
HIDDEN2
100
AcDbLine
 10
4.173649313303181
 20
14.57151599999999
 30
0.0
 11
4.124530482786258
 21
14.57151599999999
 31
0.0
  0
LINE
  5
1BEB
330
1E
100
AcDbEntity
  8
HIDDEN
  6
HIDDEN2
100
AcDbLine
 10
3.892875490594401
 20
14.57151599999999
 30
0.0
 11
3.843756660077477
 21
14.57151599999999
 31
0.0
  0
LINE
  5
1BEC
330
1E
100
AcDbEntity
  8
HIDDEN
  6
HIDDEN2
100
AcDbLine
 10
4.055703060408131
 20
14.57151599999999
 30
0.0
 11
3.961702986305012
 21
14.57151599999999
 31
0.0
  0
LINE
  5
1BED
330
1E
100
AcDbEntity
  8
OBJECT
100
AcDbLine
 10
14.202003
 20
8.989060999999999
 30
0.0
 11
14.202003
 21
8.739060999999999
 31
0.0
  0
LINE
  5
1BF2
330
1E
100
AcDbEntity
  8
OBJECT
100
AcDbLine
 10
14.202003
 20
8.739060999999999
 30
0.0
 11
14.37100299999999
 21
8.716060999999999
 31
0.0
  0
LINE
  5
1BF6
330
1E
100
AcDbEntity
  8
OBJECT
100
AcDbLine
 10
14.21200299999999
 20
8.91106106040813
 30
0.0
 11
14.21200299999999
 21
8.817060986305012
 31
0.0
  0
LINE
  5
1BF9
330
1E
100
AcDbEntity
  8
OBJECT
100
AcDbLine
 10
14.21200299999999
 20
8.91106106040813
 30
0.0
 11
14.37100299999999
 21
8.911061101390423
 31
0.0
  0
LINE
  5
1BFA
330
1E
100
AcDbEntity
  8
OBJECT
100
AcDbLine
 10
14.21200299999999
 20
8.817060986305012
 30
0.0
 11
14.37100299999999
 21
8.817060976546542
 31
0.0
  0
LINE
  5
1BFB
330
1E
100
AcDbEntity
  8
OBJECT
100
AcDbLine
 10
14.202003
 20
8.989060999999999
 30
0.0
 11
14.37100299999999
 21
9.012060999999999
 31
0.0
  0
ARC
  5
1C19
330
1E
100
AcDbEntity
  8
OBJECT
100
AcDbCircle
 10
4.008702999999999
 20
8.864060999999999
 30
0.0
 40
0.148
100
AcDbArc
 50
18.51588181190401
 51
161.4841181880931
  0
ARC
  5
1C1A
330
1E
100
AcDbEntity
  8
OBJECT
100
AcDbCircle
 10
4.008702999999999
 20
8.864060999999999
 30
0.0
 40
0.148
100
AcDbArc
 50
198.5158739903274
 51
341.4841260096783
  0
ARC
  5
1C1C
330
1E
100
AcDbEntity
  8
OBJECT
100
AcDbCircle
 10
7.866703
 20
8.864060999999999
 30
0.0
 40
0.148
100
AcDbArc
 50
18.51588181190401
 51
161.4841181880931
  0
ARC
  5
1C1D
330
1E
100
AcDbEntity
  8
OBJECT
100
AcDbCircle
 10
7.866703
 20
8.864060999999999
 30
0.0
 40
0.148
100
AcDbArc
 50
198.5158739903274
 51
341.4841260096783
  0
CIRCLE
  5
1C1E
330
1E
100
AcDbEntity
  8
OBJECT
100
AcDbCircle
 10
7.866703
 20
8.864060999999999
 30
0.0
 40
0.125
  0
CIRCLE
  5
1C1F
330
1E
100
AcDbEntity
  8
OBJECT
100
AcDbCircle
 10
7.866703
 20
8.864060999999999
 30
0.0
 40
0.0590000000000011
  0
CIRCLE
  5
1C20
330
1E
100
AcDbEntity
  8
OBJECT
100
AcDbCircle
 10
7.866703
 20
8.864060999999999
 30
0.0
 40
0.09375
  0
LINE
  5
1C21
330
1E
100
AcDbEntity
  8
OBJECT
100
AcDbLine
 10
7.701756658019349
 20
8.817061055476434
 30
0.0
 11
7.701756658019349
 21
8.911060982914584
 31
0.0
  0
LINE
  5
1C22
330
1E
100
AcDbEntity
  8
OBJECT
100
AcDbLine
 10
7.666756675675465
 20
8.91106097074026
 30
0.0
 11
7.666756675675465
 21
8.817061095006531
 31
0.0
  0
LINE
  5
1C23
330
1E
100
AcDbEntity
  8
OBJECT
100
AcDbLine
 10
7.750875542115437
 20
8.817060999999998
 30
0.0
 11
7.666756675675465
 21
8.817061095006531
 31
0.0
  0
LINE
  5
1C24
330
1E
100
AcDbEntity
  8
OBJECT
100
AcDbLine
 10
7.666756675675465
 20
8.91106097074026
 30
0.0
 11
7.750875542115438
 21
8.911060999999998
 31
0.0
  0
LINE
  5
1C25
330
1E
100
AcDbEntity
  8
OBJECT
100
AcDbLine
 10
7.982530457884561
 20
8.911060999999998
 30
0.0
 11
8.066649297705193
 21
8.911060970740258
 31
0.0
  0
LINE
  5
1C26
330
1E
100
AcDbEntity
  8
OBJECT
100
AcDbLine
 10
8.066649297705193
 20
8.817061095006556
 30
0.0
 11
7.982530457884561
 21
8.817060999999998
 31
0.0
  0
LINE
  5
1C27
330
1E
100
AcDbEntity
  8
OBJECT
100
AcDbLine
 10
8.03164931536131
 20
8.911060982914586
 30
0.0
 11
8.03164931536131
 21
8.817061055476436
 31
0.0
  0
LINE
  5
1C28
330
1E
100
AcDbEntity
  8
OBJECT
100
AcDbLine
 10
8.066649297705193
 20
8.817061095006556
 30
0.0
 11
8.066649297705193
 21
8.911060970740258
 31
0.0
  0
ARC
  5
1C29
330
1E
100
AcDbEntity
  8
OBJECT
100
AcDbCircle
 10
4.008702999999999
 20
6.660060999999999
 30
0.0
 40
0.148
100
AcDbArc
 50
18.51588181190401
 51
161.4841181880931
  0
ARC
  5
1C2A
330
1E
100
AcDbEntity
  8
OBJECT
100
AcDbCircle
 10
4.008702999999999
 20
6.660060999999999
 30
0.0
 40
0.148
100
AcDbArc
 50
198.5158739903274
 51
341.4841260096783
  0
CIRCLE
  5
1C2B
330
1E
100
AcDbEntity
  8
OBJECT
100
AcDbCircle
 10
4.008702999999999
 20
6.660060999999999
 30
0.0
 40
0.125
  0
CIRCLE
  5
1C2C
330
1E
100
AcDbEntity
  8
OBJECT
100
AcDbCircle
 10
4.008702999999999
 20
6.660060999999999
 30
0.0
 40
0.0590000000000011
  0
CIRCLE
  5
1C2D
330
1E
100
AcDbEntity
  8
OBJECT
100
AcDbCircle
 10
4.008702999999999
 20
6.660060999999999
 30
0.0
 40
0.09375
  0
LINE
  5
1C2E
330
1E
100
AcDbEntity
  8
OBJECT
100
AcDbLine
 10
3.843756658019349
 20
6.613061055476435
 30
0.0
 11
3.843756658019349
 21
6.707060982914584
 31
0.0
  0
LINE
  5
1C2F
330
1E
100
AcDbEntity
  8
OBJECT
100
AcDbLine
 10
3.808756675675465
 20
6.70706097074026
 30
0.0
 11
3.808756675675464
 21
6.613061095006531
 31
0.0
  0
LINE
  5
1C30
330
1E
100
AcDbEntity
  8
OBJECT
100
AcDbLine
 10
3.892875542115437
 20
6.613060999999999
 30
0.0
 11
3.808756675675464
 21
6.613061095006531
 31
0.0
  0
LINE
  5
1C31
330
1E
100
AcDbEntity
  8
OBJECT
100
AcDbLine
 10
3.808756675675465
 20
6.70706097074026
 30
0.0
 11
3.892875542115437
 21
6.707060999999998
 31
0.0
  0
LINE
  5
1C32
330
1E
100
AcDbEntity
  8
OBJECT
100
AcDbLine
 10
4.124530457884561
 20
6.707060999999998
 30
0.0
 11
4.208649297705194
 21
6.707060970740259
 31
0.0
  0
LINE
  5
1C33
330
1E
100
AcDbEntity
  8
OBJECT
100
AcDbLine
 10
4.208649297705194
 20
6.613061095006556
 30
0.0
 11
4.124530457884561
 21
6.613060999999999
 31
0.0
  0
LINE
  5
1C34
330
1E
100
AcDbEntity
  8
OBJECT
100
AcDbLine
 10
4.17364931536131
 20
6.707060982914586
 30
0.0
 11
4.17364931536131
 21
6.613061055476436
 31
0.0
  0
LINE
  5
1C35
330
1E
100
AcDbEntity
  8
OBJECT
100
AcDbLine
 10
4.208649297705194
 20
6.613061095006556
 30
0.0
 11
4.208649297705194
 21
6.707060970740259
 31
0.0
  0
LINE
  5
1C36
330
1E
100
AcDbEntity
  8
OBJECT
100
AcDbLine
 10
14.202003
 20
6.535060999999999
 30
0.0
 11
14.37100299999999
 21
6.512061
 31
0.0
  0
LINE
  5
1C37
330
1E
100
AcDbEntity
  8
OBJECT
100
AcDbLine
 10
14.202003
 20
6.785060999999999
 30
0.0
 11
14.37100299999999
 21
6.808060999999999
 31
0.0
  0
LINE
  5
1C39
330
1E
100
AcDbEntity
  8
OBJECT
100
AcDbLine
 10
14.202003
 20
6.785060999999999
 30
0.0
 11
14.202003
 21
6.535060999999999
 31
0.0
  0
CIRCLE
  5
1C41
330
1E
100
AcDbEntity
  8
OBJECT
100
AcDbCircle
 10
7.866703
 20
6.660060999999999
 30
0.0
 40
0.09375
  0
CIRCLE
  5
1C42
330
1E
100
AcDbEntity
  8
OBJECT
100
AcDbCircle
 10
7.866703
 20
6.660060999999999
 30
0.0
 40
0.0590000000000011
  0
CIRCLE
  5
1C43
330
1E
100
AcDbEntity
  8
OBJECT
100
AcDbCircle
 10
7.866703
 20
6.660060999999999
 30
0.0
 40
0.125
  0
ARC
  5
1C44
330
1E
100
AcDbEntity
  8
OBJECT
100
AcDbCircle
 10
7.866703
 20
6.660060999999999
 30
0.0
 40
0.148
100
AcDbArc
 50
198.5158739903274
 51
341.4841260096783
  0
ARC
  5
1C45
330
1E
100
AcDbEntity
  8
OBJECT
100
AcDbCircle
 10
7.866703
 20
6.660060999999999
 30
0.0
 40
0.148
100
AcDbArc
 50
18.51588181190401
 51
161.4841181880931
  0
LINE
  5
1C46
330
1E
100
AcDbEntity
  8
OBJECT
100
AcDbLine
 10
7.666756675675465
 20
6.70706097074026
 30
0.0
 11
7.750875542115438
 21
6.707060999999998
 31
0.0
  0
LINE
  5
1C47
330
1E
100
AcDbEntity
  8
OBJECT
100
AcDbLine
 10
7.750875542115437
 20
6.613060999999999
 30
0.0
 11
7.666756675675465
 21
6.613061095006531
 31
0.0
  0
LINE
  5
1C48
330
1E
100
AcDbEntity
  8
OBJECT
100
AcDbLine
 10
7.666756675675465
 20
6.70706097074026
 30
0.0
 11
7.666756675675465
 21
6.613061095006531
 31
0.0
  0
LINE
  5
1C49
330
1E
100
AcDbEntity
  8
OBJECT
100
AcDbLine
 10
7.701756658019349
 20
6.613061055476435
 30
0.0
 11
7.701756658019349
 21
6.707060982914584
 31
0.0
  0
LINE
  5
1C4A
330
1E
100
AcDbEntity
  8
OBJECT
100
AcDbLine
 10
8.066649297705193
 20
6.613061095006556
 30
0.0
 11
8.066649297705193
 21
6.707060970740259
 31
0.0
  0
LINE
  5
1C4B
330
1E
100
AcDbEntity
  8
OBJECT
100
AcDbLine
 10
8.03164931536131
 20
6.707060982914586
 30
0.0
 11
8.03164931536131
 21
6.613061055476436
 31
0.0
  0
LINE
  5
1C4C
330
1E
100
AcDbEntity
  8
OBJECT
100
AcDbLine
 10
8.066649297705193
 20
6.613061095006556
 30
0.0
 11
7.982530457884561
 21
6.613060999999999
 31
0.0
  0
LINE
  5
1C4D
330
1E
100
AcDbEntity
  8
OBJECT
100
AcDbLine
 10
7.982530457884561
 20
6.707060999999998
 30
0.0
 11
8.066649297705193
 21
6.707060970740259
 31
0.0
  0
LINE
  5
1C5F
330
1E
100
AcDbEntity
  8
HIDDEN
  6
HIDDEN2
100
AcDbLine
 10
7.741702999999998
 20
14.56151599999999
 30
0.0
 11
7.991702999999998
 21
14.56151599999999
 31
0.0
  0
LINE
  5
1C60
330
1E
100
AcDbEntity
  8
HIDDEN
  6
HIDDEN2
100
AcDbLine
 10
7.982530509405597
 20
14.57151599999999
 30
0.0
 11
8.03164933992252
 21
14.57151599999999
 31
0.0
  0
LINE
  5
1C61
330
1E
100
AcDbEntity
  8
HIDDEN
  6
HIDDEN2
100
AcDbLine
 10
7.991702999999998
 20
14.56151599999999
 30
0.0
 11
7.991702999999998
 21
14.57151599999999
 31
0.0
  0
LINE
  5
1C62
330
1E
100
AcDbEntity
  8
HIDDEN
  6
HIDDEN2
100
AcDbLine
 10
8.066649324324531
 20
14.73051599999999
 30
0.0
 11
8.03164933992252
 21
14.57151599999999
 31
0.0
  0
LINE
  5
1C63
330
1E
100
AcDbEntity
  8
HIDDEN
  6
HIDDEN2
100
AcDbLine
 10
7.982530509405597
 20
14.57151599999999
 30
0.0
 11
7.982530460352613
 21
14.73051599999999
 31
0.0
  0
LINE
  5
1C64
330
1E
100
AcDbEntity
  8
HIDDEN
  6
HIDDEN2
100
AcDbLine
 10
7.819702939591866
 20
14.57151599999999
 30
0.0
 11
7.913703013694986
 21
14.57151599999999
 31
0.0
  0
LINE
  5
1C65
330
1E
100
AcDbEntity
  8
HIDDEN
  6
HIDDEN2
100
AcDbLine
 10
7.701756686696816
 20
14.57151599999999
 30
0.0
 11
7.75087551721374
 21
14.57151599999999
 31
0.0
  0
LINE
  5
1C66
330
1E
100
AcDbEntity
  8
HIDDEN
  6
HIDDEN2
100
AcDbLine
 10
7.741702999999998
 20
14.56151599999999
 30
0.0
 11
7.741702999999998
 21
14.57151599999999
 31
0.0
  0
LINE
  5
1C67
330
1E
100
AcDbEntity
  8
HIDDEN
  6
HIDDEN2
100
AcDbLine
 10
7.666756702294803
 20
14.73051599999999
 30
0.0
 11
7.701756686696816
 21
14.57151599999999
 31
0.0
  0
LINE
  5
1C68
330
1E
100
AcDbEntity
  8
HIDDEN
  6
HIDDEN2
100
AcDbLine
 10
7.75087551721374
 20
14.57151599999999
 30
0.0
 11
7.750875542115437
 21
14.73051599999999
 31
0.0
  0
LINE
  5
1C69
330
1E
100
AcDbEntity
  8
HIDDEN
  6
HIDDEN2
100
AcDbLine
 10
7.819702939591866
 20
14.57151599999999
 30
0.0
 11
7.819702999999997
 21
14.73051599999999
 31
0.0
  0
LINE
  5
1C6A
330
1E
100
AcDbEntity
  8
HIDDEN
  6
HIDDEN2
100
AcDbLine
 10
7.913703013694986
 20
14.57151599999999
 30
0.0
 11
7.913703022985986
 21
14.73051599999999
 31
0.0
  0
ENDSEC
  0
SECTION
  2
OBJECTS
  0
DICTIONARY
  5
C
330
0
100
AcDbDictionary
281
     1
  3
ACAD_GROUP
350
D
  3
ACAD_LAYOUT
350
19
  3
ACAD_MLINESTYLE
350
16
  3
ACAD_PLOTSETTINGS
350
18
  3
ACAD_PLOTSTYLENAME
350
E
  3
AcadDim
350
1A3D
  3
AcDbVariableDictionary
350
1859
  0
DICTIONARY
  5
D
102
{ACAD_REACTORS
330
C
102
}
330
C
100
AcDbDictionary
281
     1
  0
DICTIONARY
  5
19
102
{ACAD_REACTORS
330
C
102
}
330
C
100
AcDbDictionary
281
     1
  3
Layout1
350
1D
  3
Model
350
21
  0
DICTIONARY
  5
16
102
{ACAD_REACTORS
330
C
102
}
330
C
100
AcDbDictionary
281
     1
  3
Standard
350
17
  0
DICTIONARY
  5
18
102
{ACAD_REACTORS
330
C
102
}
330
C
100
AcDbDictionary
281
     1
  0
ACDBDICTIONARYWDFLT
  5
E
102
{ACAD_REACTORS
330
C
102
}
330
C
100
AcDbDictionary
281
     1
  3
Normal
350
F
100
AcDbDictionaryWithDefault
340
F
  0
XRECORD
  5
1A3D
102
{ACAD_REACTORS
330
C
102
}
330
C
100
AcDbXrecord
280
     1
 90
   990106
  3

 60
     0
 61
     0
 62
     1
 63
     1
 64
     0
 65
     0
 66
     0
 67
     3
 68
     1
 69
     0
 70
     0
 71
     0
 72
     0
 40
0.0
170
     2
340
1B6A
  0
DICTIONARY
  5
1859
102
{ACAD_REACTORS
330
C
102
}
330
C
100
AcDbDictionary
281
     1
  3
SORTENTS
350
185A
  0
LAYOUT
  5
1D
102
{ACAD_REACTORS
330
19
102
}
330
19
100
AcDbPlotSettings
  1

  2
C:\Program Files\ACAD2000\plotters\RICOH Aficio 1060 RPCS.pc3
  4

  6

 40
0.0
 41
0.0
 42
0.0
 43
0.0
 44
0.0
 45
0.0
 46
0.0
 47
0.0
 48
0.0
 49
0.0
140
0.0
141
0.0
142
1.0
143
1.0
 70
   688
 72
     0
 73
     0
 74
     5
  7
monochrome.ctb
 75
    16
147
1.0
148
0.0
149
0.0
100
AcDbLayout
  1
Layout1
 70
     1
 71
     1
 10
0.0
 20
0.0
 11
12.0
 21
9.0
 12
0.0
 22
0.0
 32
0.0
 14
1.000000000000000E+20
 24
1.000000000000000E+20
 34
1.000000000000000E+20
 15
-1.000000000000000E+20
 25
-1.000000000000000E+20
 35
-1.000000000000000E+20
146
0.0
 13
0.0
 23
0.0
 33
0.0
 16
1.0
 26
0.0
 36
0.0
 17
0.0
 27
1.0
 37
0.0
 76
     0
330
1A
  0
LAYOUT
  5
21
102
{ACAD_REACTORS
330
19
102
}
330
19
100
AcDbPlotSettings
  1

  2
Acrobat PDFWriter
  4
Tabloid
  6

 40
3.174999952316284
 41
3.174999952316284
 42
3.17498779296875
 43
3.17498779296875
 44
431.8000183105469
 45
279.3999938964843
 46
0.0
 47
4.064
 48
0.0
 49
0.0
140
0.0
141
0.0
142
1.0
143
1.982210370824733
 70
 11956
 72
     0
 73
     0
 74
     1
  7
monochrome.ctb
 75
     0
147
0.5044873211837411
148
0.0257201367457668
149
0.016002263391934
100
AcDbLayout
  1
Model
 70
     1
 71
     0
 10
0.0
 20
0.0
 11
12.0
 21
9.0
 12
0.0
 22
0.0
 32
0.0
 14
0.0
 24
0.0
 34
0.0
 15
0.0
 25
0.0
 35
0.0
146
0.0
 13
0.0
 23
0.0
 33
0.0
 16
1.0
 26
0.0
 36
0.0
 17
0.0
 27
1.0
 37
0.0
 76
     0
330
1E
  0
MLINESTYLE
  5
17
102
{ACAD_REACTORS
330
16
102
}
330
16
100
AcDbMlineStyle
  2
STANDARD
 70
     0
  3

 62
   256
 51
90.0
 52
90.0
 71
     2
 49
0.5
 62
   256
  6
BYLAYER
 49
-0.5
 62
   256
  6
BYLAYER
  0
ACDBPLACEHOLDER
  5
F
102
{ACAD_REACTORS
330
E
102
}
330
E
  0
DICTIONARYVAR
  5
185A
102
{ACAD_REACTORS
330
1859
102
}
330
1859
100
DictionaryVariables
280
     0
  1
96
  0
ENDSEC
  0
EOF
