  0
SECTION
  2
HEADER
  9
$ACADVER
  1
AC1015
  9
$ACADMAINTVER
 70
     6
  9
$DWGCODEPAGE
  3
ANSI_1252
  9
$INSBASE
 10
0.0
 20
0.0
 30
0.0
  9
$EXTMIN
 10
0.0
 20
0.0
 30
-0.00000001
  9
$EXTMAX
 10
33.19999999999998
 20
20.65599999999999
 30
0.00000001
  9
$LIMMIN
 10
0.0
 20
0.0
  9
$LIMMAX
 10
31.0
 20
20.24
  9
$ORTHOMODE
 70
     1
  9
$REGENMODE
 70
     1
  9
$FILLMODE
 70
     1
  9
$QTEXTMODE
 70
     0
  9
$MIRRTEXT
 70
     0
  9
$LTSCALE
 40
0.5
  9
$ATTMODE
 70
     1
  9
$TEXTSIZE
 40
0.2
  9
$TRACEWID
 40
0.05
  9
$TEXTSTYLE
  7
TXT
  9
$CLAYER
  8
OBJECT
  9
$CELTYPE
  6
ByLayer
  9
$CECOLOR
 62
   256
  9
$CELTSCALE
 40
1.0
  9
$DISPSILH
 70
     0
  9
$DIMSCALE
 40
2.0
  9
$DIMASZ
 40
0.18
  9
$DIMEXO
 40
0.063
  9
$DIMDLI
 40
0.281
  9
$DIMRND
 40
0.0
  9
$DIMDLE
 40
0.0
  9
$DIMEXE
 40
0.093
  9
$DIMTP
 40
0.0
  9
$DIMTM
 40
0.0
  9
$DIMTXT
 40
0.125
  9
$DIMCEN
 40
0.09
  9
$DIMTSZ
 40
0.0
  9
$DIMTOL
 70
     0
  9
$DIMLIM
 70
     0
  9
$DIMTIH
 70
     1
  9
$DIMTOH
 70
     1
  9
$DIMSE1
 70
     0
  9
$DIMSE2
 70
     0
  9
$DIMTAD
 70
     0
  9
$DIMZIN
 70
     0
  9
$DIMBLK
  1

  9
$DIMASO
 70
     1
  9
$DIMSHO
 70
     1
  9
$DIMPOST
  1

  9
$DIMAPOST
  1

  9
$DIMALT
 70
     0
  9
$DIMALTD
 70
     2
  9
$DIMALTF
 40
25.4
  9
$DIMLFAC
 40
1.0
  9
$DIMTOFL
 70
     0
  9
$DIMTVP
 40
0.0
  9
$DIMTIX
 70
     0
  9
$DIMSOXD
 70
     0
  9
$DIMSAH
 70
     0
  9
$DIMBLK1
  1

  9
$DIMBLK2
  1

  9
$DIMSTYLE
  2
23NSTD
  9
$DIMCLRD
 70
     0
  9
$DIMCLRE
 70
     0
  9
$DIMCLRT
 70
     0
  9
$DIMTFAC
 40
1.0
  9
$DIMGAP
 40
0.09
  9
$DIMJUST
 70
     0
  9
$DIMSD1
 70
     0
  9
$DIMSD2
 70
     0
  9
$DIMTOLJ
 70
     1
  9
$DIMTZIN
 70
     0
  9
$DIMALTZ
 70
     0
  9
$DIMALTTZ
 70
     0
  9
$DIMUPT
 70
     0
  9
$DIMDEC
 70
     3
  9
$DIMTDEC
 70
     3
  9
$DIMALTU
 70
     2
  9
$DIMALTTD
 70
     2
  9
$DIMTXSTY
  7
TXT
  9
$DIMAUNIT
 70
     0
  9
$DIMADEC
 70
     0
  9
$DIMALTRND
 40
0.0
  9
$DIMAZIN
 70
     0
  9
$DIMDSEP
 70
    46
  9
$DIMATFIT
 70
     1
  9
$DIMFRAC
 70
     0
  9
$DIMLDRBLK
  1

  9
$DIMLUNIT
 70
     2
  9
$DIMLWD
 70
    -2
  9
$DIMLWE
 70
    -2
  9
$DIMTMOVE
 70
     0
  9
$LUNITS
 70
     2
  9
$LUPREC
 70
     3
  9
$SKETCHINC
 40
0.1
  9
$FILLETRAD
 40
0.0
  9
$AUNITS
 70
     0
  9
$AUPREC
 70
     0
  9
$MENU
  1
acad
  9
$ELEVATION
 40
0.0
  9
$PELEVATION
 40
0.0
  9
$THICKNESS
 40
0.0
  9
$LIMCHECK
 70
     0
  9
$CHAMFERA
 40
0.0
  9
$CHAMFERB
 40
0.0
  9
$CHAMFERC
 40
0.0
  9
$CHAMFERD
 40
0.0
  9
$SKPOLY
 70
     0
  9
$TDCREATE
 40
2450114.480140972
  9
$TDUCREATE
 40
2450114.688474305
  9
$TDUPDATE
 40
2454788.498096967
  9
$TDUUPDATE
 40
2454788.706430301
  9
$TDINDWG
 40
0.2925982176
  9
$TDUSRTIMER
 40
0.2925978588
  9
$USRTIMER
 70
     1
  9
$ANGBASE
 50
0.0
  9
$ANGDIR
 70
     0
  9
$PDMODE
 70
     0
  9
$PDSIZE
 40
0.0
  9
$PLINEWID
 40
0.0
  9
$SPLFRAME
 70
     0
  9
$SPLINETYPE
 70
     6
  9
$SPLINESEGS
 70
     8
  9
$HANDSEED
  5
200C
  9
$SURFTAB1
 70
     6
  9
$SURFTAB2
 70
     6
  9
$SURFTYPE
 70
     6
  9
$SURFU
 70
     6
  9
$SURFV
 70
     6
  9
$UCSBASE
  2

  9
$UCSNAME
  2

  9
$UCSORG
 10
0.0
 20
0.0
 30
0.0
  9
$UCSXDIR
 10
1.0
 20
0.0
 30
0.0
  9
$UCSYDIR
 10
0.0
 20
1.0
 30
0.0
  9
$UCSORTHOREF
  2

  9
$UCSORTHOVIEW
 70
     0
  9
$UCSORGTOP
 10
0.0
 20
0.0
 30
0.0
  9
$UCSORGBOTTOM
 10
0.0
 20
0.0
 30
0.0
  9
$UCSORGLEFT
 10
0.0
 20
0.0
 30
0.0
  9
$UCSORGRIGHT
 10
0.0
 20
0.0
 30
0.0
  9
$UCSORGFRONT
 10
0.0
 20
0.0
 30
0.0
  9
$UCSORGBACK
 10
0.0
 20
0.0
 30
0.0
  9
$PUCSBASE
  2

  9
$PUCSNAME
  2

  9
$PUCSORG
 10
0.0
 20
0.0
 30
0.0
  9
$PUCSXDIR
 10
1.0
 20
0.0
 30
0.0
  9
$PUCSYDIR
 10
0.0
 20
1.0
 30
0.0
  9
$PUCSORTHOREF
  2

  9
$PUCSORTHOVIEW
 70
     0
  9
$PUCSORGTOP
 10
0.0
 20
0.0
 30
0.0
  9
$PUCSORGBOTTOM
 10
0.0
 20
0.0
 30
0.0
  9
$PUCSORGLEFT
 10
0.0
 20
0.0
 30
0.0
  9
$PUCSORGRIGHT
 10
0.0
 20
0.0
 30
0.0
  9
$PUCSORGFRONT
 10
0.0
 20
0.0
 30
0.0
  9
$PUCSORGBACK
 10
0.0
 20
0.0
 30
0.0
  9
$USERI1
 70
     0
  9
$USERI2
 70
     0
  9
$USERI3
 70
     0
  9
$USERI4
 70
     0
  9
$USERI5
 70
     0
  9
$USERR1
 40
0.0
  9
$USERR2
 40
0.0
  9
$USERR3
 40
0.0
  9
$USERR4
 40
0.0
  9
$USERR5
 40
0.0
  9
$WORLDVIEW
 70
     1
  9
$SHADEDGE
 70
     3
  9
$SHADEDIF
 70
    70
  9
$TILEMODE
 70
     1
  9
$MAXACTVP
 70
    16
  9
$PINSBASE
 10
0.0
 20
0.0
 30
0.0
  9
$PLIMCHECK
 70
     0
  9
$PEXTMIN
 10
1.000000000000000E+20
 20
1.000000000000000E+20
 30
1.000000000000000E+20
  9
$PEXTMAX
 10
-1.000000000000000E+20
 20
-1.000000000000000E+20
 30
-1.000000000000000E+20
  9
$PLIMMIN
 10
0.0
 20
0.0
  9
$PLIMMAX
 10
12.0
 20
9.0
  9
$UNITMODE
 70
     0
  9
$VISRETAIN
 70
     0
  9
$PLINEGEN
 70
     0
  9
$PSLTSCALE
 70
     1
  9
$TREEDEPTH
 70
  3020
  9
$CMLSTYLE
  2
Standard
  9
$CMLJUST
 70
     0
  9
$CMLSCALE
 40
1.0
  9
$PROXYGRAPHICS
 70
     1
  9
$MEASUREMENT
 70
     0
  9
$CELWEIGHT
370
    -1
  9
$ENDCAPS
280
     0
  9
$JOINSTYLE
280
     0
  9
$LWDISPLAY
290
     0
  9
$INSUNITS
 70
     0
  9
$HYPERLINKBASE
  1

  9
$STYLESHEET
  1
monochrome.ctb
  9
$XEDIT
290
     1
  9
$CEPSNTYPE
380
     0
  9
$PSTYLEMODE
290
     1
  9
$FINGERPRINTGUID
  2
{3253F293-49CF-44C2-8201-B62AF3EFD927}
  9
$VERSIONGUID
  2
{4BA44C30-A4F1-4134-8E01-74B8A2D48F64}
  9
$EXTNAMES
290
     1
  9
$PSVPSCALE
 40
0.0
  9
$OLESTARTUP
290
     0
  0
ENDSEC
  0
SECTION
  2
CLASSES
  0
CLASS
  1
ACDBDICTIONARYWDFLT
  2
AcDbDictionaryWithDefault
  3
AutoCAD 2000
 90
        0
280
     0
281
     0
  0
CLASS
  1
ACDBPLACEHOLDER
  2
AcDbPlaceHolder
  3
AutoCAD 2000
 90
        0
280
     0
281
     0
  0
CLASS
  1
LAYOUT
  2
AcDbLayout
  3
AutoCAD 2000
 90
        0
280
     0
281
     0
  0
CLASS
  1
DICTIONARYVAR
  2
AcDbDictionaryVar
  3
AutoCAD 2000
 90
        0
280
     0
281
     0
  0
ENDSEC
  0
SECTION
  2
TABLES
  0
TABLE
  2
VPORT
  5
8
330
0
100
AcDbSymbolTable
 70
     2
  0
VPORT
  5
200B
330
8
100
AcDbSymbolTableRecord
100
AcDbViewportTableRecord
  2
*Active
 70
     0
 10
0.0
 20
0.0
 11
1.0
 21
1.0
 12
16.60104446757631
 22
10.32799538477862
 13
0.0
 23
0.0
 14
1.0
 24
1.0
 15
0.25
 25
0.25
 16
0.0
 26
0.0
 36
1.0
 17
0.0
 27
0.0
 37
0.0
 40
20.86784540893202
 41
1.796327212020033
 42
50.0
 43
0.0
 44
0.0
 50
0.0
 51
0.0
 71
     0
 72
   500
 73
     1
 74
     0
 75
     0
 76
     0
 77
     0
 78
     0
281
     0
 65
     1
110
0.0
120
0.0
130
0.0
111
1.0
121
0.0
131
0.0
112
0.0
122
1.0
132
0.0
 79
     0
146
0.0
  0
ENDTAB
  0
TABLE
  2
LTYPE
  5
5
330
0
100
AcDbSymbolTable
 70
     6
  0
LTYPE
  5
13
330
5
100
AcDbSymbolTableRecord
100
AcDbLinetypeTableRecord
  2
ByBlock
 70
     0
  3

 72
    65
 73
     0
 40
0.0
  0
LTYPE
  5
14
330
5
100
AcDbSymbolTableRecord
100
AcDbLinetypeTableRecord
  2
ByLayer
 70
     0
  3

 72
    65
 73
     0
 40
0.0
  0
LTYPE
  5
15
330
5
100
AcDbSymbolTableRecord
100
AcDbLinetypeTableRecord
  2
CONTINUOUS
 70
     0
  3
Solid line
 72
    65
 73
     0
 40
0.0
  0
LTYPE
  5
25
330
5
100
AcDbSymbolTableRecord
100
AcDbLinetypeTableRecord
  2
HIDDEN
 70
     0
  3
_ _ _ _ _ _ _ _ _ _ _ _ _ _ _ _ _ _ _ _ _ _ _
 72
    65
 73
     2
 40
0.375
 49
0.25
 74
     0
 49
-0.125
 74
     0
  0
LTYPE
  5
26
330
5
100
AcDbSymbolTableRecord
100
AcDbLinetypeTableRecord
  2
PHANTOM
 70
     0
  3
_____ _ _ _____ _ _ _____ _ _ _____ _ _ ____
 72
    65
 73
     6
 40
2.5
 49
1.25
 74
     0
 49
-0.25
 74
     0
 49
0.25
 74
     0
 49
-0.25
 74
     0
 49
0.25
 74
     0
 49
-0.25
 74
     0
  0
LTYPE
  5
27
330
5
100
AcDbSymbolTableRecord
100
AcDbLinetypeTableRecord
  2
CENTER
 70
     0
  3
____ _ ____ _ ____ _ ____ _ ____ _ ____ _ ____
 72
    65
 73
     4
 40
2.0
 49
1.25
 74
     0
 49
-0.25
 74
     0
 49
0.25
 74
     0
 49
-0.25
 74
     0
  0
LTYPE
  5
28
330
5
100
AcDbSymbolTableRecord
100
AcDbLinetypeTableRecord
  2
PHANTOM2
 70
     0
  3
___ _ _ ___ _ _ ___ _ _ ___ _ _ ___ _ _ ___ _ _
 72
    65
 73
     6
 40
1.25
 49
0.625
 74
     0
 49
-0.125
 74
     0
 49
0.125
 74
     0
 49
-0.125
 74
     0
 49
0.125
 74
     0
 49
-0.125
 74
     0
  0
LTYPE
  5
1F7E
330
5
100
AcDbSymbolTableRecord
100
AcDbLinetypeTableRecord
  2
HIDDEN2
 70
     0
  3
Hidden (.5x) _ _ _ _ _ _ _ _ _ _ _ _ _ _ _ _ _
 72
    65
 73
     2
 40
0.1875
 49
0.125
 74
     0
 49
-0.0625
 74
     0
  0
ENDTAB
  0
TABLE
  2
LAYER
  5
2
330
0
100
AcDbSymbolTable
 70
     9
  0
LAYER
  5
10
330
2
100
AcDbSymbolTableRecord
100
AcDbLayerTableRecord
  2
0
 70
     0
 62
     7
  6
CONTINUOUS
370
    -3
390
F
  0
LAYER
  5
22
330
2
100
AcDbSymbolTableRecord
100
AcDbLayerTableRecord
  2
OBJECT
 70
     0
 62
     7
  6
CONTINUOUS
370
    -3
390
F
  0
LAYER
  5
29
330
2
100
AcDbSymbolTableRecord
100
AcDbLayerTableRecord
  2
DIM
 70
     0
 62
     2
  6
CONTINUOUS
370
    -3
390
F
  0
LAYER
  5
2A
330
2
100
AcDbSymbolTableRecord
100
AcDbLayerTableRecord
  2
HIDDEN
 70
     0
 62
     6
  6
HIDDEN
370
    -3
390
F
  0
LAYER
  5
2B
330
2
100
AcDbSymbolTableRecord
100
AcDbLayerTableRecord
  2
BEND
 70
     0
 62
     4
  6
PHANTOM
370
    -3
390
F
  0
LAYER
  5
2C
330
2
100
AcDbSymbolTableRecord
100
AcDbLayerTableRecord
  2
TEXT
 70
     0
 62
     1
  6
CONTINUOUS
370
    -3
390
F
  0
LAYER
  5
2D
330
2
100
AcDbSymbolTableRecord
100
AcDbLayerTableRecord
  2
TITLE
 70
     0
 62
     8
  6
CONTINUOUS
370
    -3
390
F
  0
LAYER
  5
2E
330
2
100
AcDbSymbolTableRecord
100
AcDbLayerTableRecord
  2
CENTER
 70
     0
 62
     3
  6
CENTER
370
    -3
390
F
  0
LAYER
  5
2F
330
2
100
AcDbSymbolTableRecord
100
AcDbLayerTableRecord
  2
DEFPOINTS
 70
     0
 62
     7
  6
CONTINUOUS
290
     0
370
    -3
390
F
  0
ENDTAB
  0
TABLE
  2
STYLE
  5
3
330
0
100
AcDbSymbolTable
 70
     2
  0
STYLE
  5
11
330
3
100
AcDbSymbolTableRecord
100
AcDbTextStyleTableRecord
  2
TXT
 70
     0
 40
0.0
 41
0.75
 50
0.0
 71
     0
 42
0.2
  3
txt.shx
  4

  0
STYLE
  5
30
330
3
100
AcDbSymbolTableRecord
100
AcDbTextStyleTableRecord
  2
SECTION
 70
     0
 40
0.0
 41
0.8
 50
0.0
 71
     0
 42
0.2
  3
ROMANT.SHX
  4

  0
ENDTAB
  0
TABLE
  2
VIEW
  5
6
330
0
100
AcDbSymbolTable
 70
     0
  0
ENDTAB
  0
TABLE
  2
UCS
  5
7
330
0
100
AcDbSymbolTable
 70
     0
  0
ENDTAB
  0
TABLE
  2
APPID
  5
9
330
0
100
AcDbSymbolTable
 70
     1
  0
APPID
  5
12
330
9
100
AcDbSymbolTableRecord
100
AcDbRegAppTableRecord
  2
ACAD
 70
     0
  0
ENDTAB
  0
TABLE
  2
DIMSTYLE
  5
A
330
0
100
AcDbSymbolTable
 70
     4
100
AcDbDimStyleTable
 71
     4
340
31
340
32
340
33
340
34
  0
DIMSTYLE
105
31
102
{ACAD_REACTORS
330
CF8
330
D06
330
D22
330
D30
330
D3E
330
D4C
330
D5A
330
D68
330
D76
330
D84
330
D92
330
DD8
330
DF4
330
E02
330
E10
330
E2C
330
E3A
330
E48
330
E56
330
E64
330
E72
330
ED0
330
EDE
330
EEC
330
EFA
330
F08
330
F16
330
F2C
330
FD1
330
FDE
330
FFB
330
1038
102
}
330
A
100
AcDbSymbolTableRecord
100
AcDbDimStyleTableRecord
  2
23NSTD
 70
     0
 40
2.0
 42
0.063
 43
0.281
 44
0.093
140
0.125
271
     3
272
     3
289
     1
340
11
  0
DIMSTYLE
105
32
102
{ACAD_REACTORS
330
D14
330
DA0
330
DAE
330
DBC
330
DCA
330
DE6
330
E1E
330
1009
330
1017
102
}
330
A
100
AcDbSymbolTableRecord
100
AcDbDimStyleTableRecord
  2
23NSTDI
 70
     0
 40
2.0
 42
0.063
 43
0.281
 44
0.093
140
0.125
174
     1
271
     3
272
     3
340
11
  0
DIMSTYLE
105
33
102
{ACAD_REACTORS
330
E9C
330
1175
330
1183
330
1191
102
}
330
A
100
AcDbSymbolTableRecord
100
AcDbDimStyleTableRecord
  2
23NSTD4
 70
     0
 40
2.0
 42
0.063
 43
0.281
 44
0.093
140
0.125
144
0.25
271
     3
272
     3
289
     1
340
11
  0
DIMSTYLE
105
34
102
{ACAD_REACTORS
330
E8E
330
EAA
330
EB8
330
113B
330
1159
102
}
330
A
100
AcDbSymbolTableRecord
100
AcDbDimStyleTableRecord
  2
23NSTD4I
 70
     0
 40
2.0
 42
0.063
 43
0.281
 44
0.093
140
0.125
144
0.25
174
     1
271
     3
272
     3
340
11
  0
ENDTAB
  0
TABLE
  2
BLOCK_RECORD
  5
1
330
0
100
AcDbSymbolTable
 70
    51
  0
BLOCK_RECORD
  5
1E
330
1
100
AcDbSymbolTableRecord
100
AcDbBlockTableRecord
  2
*Model_Space
340
21
  0
BLOCK_RECORD
  5
1A
330
1
100
AcDbSymbolTableRecord
100
AcDbBlockTableRecord
  2
*Paper_Space
340
1D
  0
BLOCK_RECORD
  5
CF9
330
1
100
AcDbSymbolTableRecord
100
AcDbBlockTableRecord
  2
*D0
340
0
  0
BLOCK_RECORD
  5
D07
330
1
100
AcDbSymbolTableRecord
100
AcDbBlockTableRecord
  2
*D1
340
0
  0
BLOCK_RECORD
  5
D15
330
1
100
AcDbSymbolTableRecord
100
AcDbBlockTableRecord
  2
*D2
340
0
  0
BLOCK_RECORD
  5
D23
330
1
100
AcDbSymbolTableRecord
100
AcDbBlockTableRecord
  2
*D3
340
0
  0
BLOCK_RECORD
  5
D31
330
1
100
AcDbSymbolTableRecord
100
AcDbBlockTableRecord
  2
*D4
340
0
  0
BLOCK_RECORD
  5
D3F
330
1
100
AcDbSymbolTableRecord
100
AcDbBlockTableRecord
  2
*D5
340
0
  0
BLOCK_RECORD
  5
D4D
330
1
100
AcDbSymbolTableRecord
100
AcDbBlockTableRecord
  2
*D6
340
0
  0
BLOCK_RECORD
  5
D5B
330
1
100
AcDbSymbolTableRecord
100
AcDbBlockTableRecord
  2
*D7
340
0
  0
BLOCK_RECORD
  5
D69
330
1
100
AcDbSymbolTableRecord
100
AcDbBlockTableRecord
  2
*D8
340
0
  0
BLOCK_RECORD
  5
D77
330
1
100
AcDbSymbolTableRecord
100
AcDbBlockTableRecord
  2
*D9
340
0
  0
BLOCK_RECORD
  5
D85
330
1
100
AcDbSymbolTableRecord
100
AcDbBlockTableRecord
  2
*D10
340
0
  0
BLOCK_RECORD
  5
D93
330
1
100
AcDbSymbolTableRecord
100
AcDbBlockTableRecord
  2
*D11
340
0
  0
BLOCK_RECORD
  5
DA1
330
1
100
AcDbSymbolTableRecord
100
AcDbBlockTableRecord
  2
*D12
340
0
  0
BLOCK_RECORD
  5
DAF
330
1
100
AcDbSymbolTableRecord
100
AcDbBlockTableRecord
  2
*D13
340
0
  0
BLOCK_RECORD
  5
DBD
330
1
100
AcDbSymbolTableRecord
100
AcDbBlockTableRecord
  2
*D14
340
0
  0
BLOCK_RECORD
  5
DCB
330
1
100
AcDbSymbolTableRecord
100
AcDbBlockTableRecord
  2
*D15
340
0
  0
BLOCK_RECORD
  5
DD9
330
1
100
AcDbSymbolTableRecord
100
AcDbBlockTableRecord
  2
*D16
340
0
  0
BLOCK_RECORD
  5
DE7
330
1
100
AcDbSymbolTableRecord
100
AcDbBlockTableRecord
  2
*D17
340
0
  0
BLOCK_RECORD
  5
DF5
330
1
100
AcDbSymbolTableRecord
100
AcDbBlockTableRecord
  2
*D18
340
0
  0
BLOCK_RECORD
  5
E03
330
1
100
AcDbSymbolTableRecord
100
AcDbBlockTableRecord
  2
*D19
340
0
  0
BLOCK_RECORD
  5
E11
330
1
100
AcDbSymbolTableRecord
100
AcDbBlockTableRecord
  2
*D20
340
0
  0
BLOCK_RECORD
  5
E1F
330
1
100
AcDbSymbolTableRecord
100
AcDbBlockTableRecord
  2
*D21
340
0
  0
BLOCK_RECORD
  5
E2D
330
1
100
AcDbSymbolTableRecord
100
AcDbBlockTableRecord
  2
*D22
340
0
  0
BLOCK_RECORD
  5
E3B
330
1
100
AcDbSymbolTableRecord
100
AcDbBlockTableRecord
  2
*D23
340
0
  0
BLOCK_RECORD
  5
E49
330
1
100
AcDbSymbolTableRecord
100
AcDbBlockTableRecord
  2
*D24
340
0
  0
BLOCK_RECORD
  5
E57
330
1
100
AcDbSymbolTableRecord
100
AcDbBlockTableRecord
  2
*D25
340
0
  0
BLOCK_RECORD
  5
E65
330
1
100
AcDbSymbolTableRecord
100
AcDbBlockTableRecord
  2
*D26
340
0
  0
BLOCK_RECORD
  5
E73
330
1
100
AcDbSymbolTableRecord
100
AcDbBlockTableRecord
  2
*D27
340
0
  0
BLOCK_RECORD
  5
E8F
330
1
100
AcDbSymbolTableRecord
100
AcDbBlockTableRecord
  2
*D28
340
0
  0
BLOCK_RECORD
  5
E9D
330
1
100
AcDbSymbolTableRecord
100
AcDbBlockTableRecord
  2
*D29
340
0
  0
BLOCK_RECORD
  5
EAB
330
1
100
AcDbSymbolTableRecord
100
AcDbBlockTableRecord
  2
*D30
340
0
  0
BLOCK_RECORD
  5
EB9
330
1
100
AcDbSymbolTableRecord
100
AcDbBlockTableRecord
  2
*D31
340
0
  0
BLOCK_RECORD
  5
ED1
330
1
100
AcDbSymbolTableRecord
100
AcDbBlockTableRecord
  2
*D32
340
0
  0
BLOCK_RECORD
  5
EDF
330
1
100
AcDbSymbolTableRecord
100
AcDbBlockTableRecord
  2
*D33
340
0
  0
BLOCK_RECORD
  5
EED
330
1
100
AcDbSymbolTableRecord
100
AcDbBlockTableRecord
  2
*D34
340
0
  0
BLOCK_RECORD
  5
EFB
330
1
100
AcDbSymbolTableRecord
100
AcDbBlockTableRecord
  2
*D35
340
0
  0
BLOCK_RECORD
  5
F09
330
1
100
AcDbSymbolTableRecord
100
AcDbBlockTableRecord
  2
*D36
340
0
  0
BLOCK_RECORD
  5
F17
330
1
100
AcDbSymbolTableRecord
100
AcDbBlockTableRecord
  2
*D37
340
0
  0
BLOCK_RECORD
  5
F2D
330
1
100
AcDbSymbolTableRecord
100
AcDbBlockTableRecord
  2
*D38
340
0
  0
BLOCK_RECORD
  5
FD2
330
1
100
AcDbSymbolTableRecord
100
AcDbBlockTableRecord
  2
*D39
340
0
  0
BLOCK_RECORD
  5
FDF
330
1
100
AcDbSymbolTableRecord
100
AcDbBlockTableRecord
  2
*D40
340
0
  0
BLOCK_RECORD
  5
FFC
330
1
100
AcDbSymbolTableRecord
100
AcDbBlockTableRecord
  2
*D41
340
0
  0
BLOCK_RECORD
  5
100A
330
1
100
AcDbSymbolTableRecord
100
AcDbBlockTableRecord
  2
*D42
340
0
  0
BLOCK_RECORD
  5
1018
330
1
100
AcDbSymbolTableRecord
100
AcDbBlockTableRecord
  2
*D43
340
0
  0
BLOCK_RECORD
  5
1039
330
1
100
AcDbSymbolTableRecord
100
AcDbBlockTableRecord
  2
*D44
340
0
  0
BLOCK_RECORD
  5
113C
330
1
100
AcDbSymbolTableRecord
100
AcDbBlockTableRecord
  2
*D45
340
0
  0
BLOCK_RECORD
  5
115A
330
1
100
AcDbSymbolTableRecord
100
AcDbBlockTableRecord
  2
*D46
340
0
  0
BLOCK_RECORD
  5
1176
330
1
100
AcDbSymbolTableRecord
100
AcDbBlockTableRecord
  2
*D47
340
0
  0
BLOCK_RECORD
  5
1184
330
1
100
AcDbSymbolTableRecord
100
AcDbBlockTableRecord
  2
*D48
340
0
  0
BLOCK_RECORD
  5
1192
330
1
100
AcDbSymbolTableRecord
100
AcDbBlockTableRecord
  2
*D49
340
0
  0
BLOCK_RECORD
  5
182C
330
1
100
AcDbSymbolTableRecord
100
AcDbBlockTableRecord
  2
HBS
340
0
102
{BLKREFS
331
184D
102
}
  0
ENDTAB
  0
ENDSEC
  0
SECTION
  2
BLOCKS
  0
BLOCK
  5
1F
330
1E
100
AcDbEntity
  8
0
100
AcDbBlockBegin
  2
*Model_Space
 70
     0
 10
0.0
 20
0.0
 30
0.0
  3
*Model_Space
  1

  0
ENDBLK
  5
20
330
1E
100
AcDbEntity
  8
0
100
AcDbBlockEnd
  0
BLOCK
  5
1B
330
1A
100
AcDbEntity
 67
     1
  8
0
100
AcDbBlockBegin
  2
*Paper_Space
 70
     0
 10
0.0
 20
0.0
 30
0.0
  3
*Paper_Space
  1

  0
ENDBLK
  5
1C
330
1A
100
AcDbEntity
 67
     1
  8
0
100
AcDbBlockEnd
  0
BLOCK
  5
D04
330
CF9
100
AcDbEntity
  8
0
100
AcDbBlockBegin
  2
*D0
 70
     1
 10
0.0
 20
0.0
 30
0.0
  3
*D0
  1

  0
LINE
  5
1DD7
330
CF9
100
AcDbEntity
  8
DIM
 62
     0
370
    -2
100
AcDbLine
 10
15.05942546284063
 20
9.407311841114312
 30
0.0
 11
15.05942546284063
 21
10.15921684111431
 31
0.0
  0
LINE
  5
1DD8
330
CF9
100
AcDbEntity
  8
DIM
 62
     0
370
    -2
100
AcDbLine
 10
15.34642546284063
 20
9.612811841114311
 30
0.0
 11
15.34642546284063
 21
10.15921684111431
 31
0.0
  0
LINE
  5
1DD9
330
CF9
100
AcDbEntity
  8
DIM
 62
     0
370
    -2
100
AcDbLine
 10
14.69942546284063
 20
9.973216841114313
 30
0.0
 11
14.33942546284063
 21
9.973216841114313
 31
0.0
  0
LINE
  5
1DDA
330
CF9
100
AcDbEntity
  8
DIM
 62
     0
370
    -2
100
AcDbLine
 10
15.70642546284063
 20
9.973216841114313
 30
0.0
 11
16.06642546284063
 21
9.973216841114313
 31
0.0
  0
SOLID
  5
1DDB
330
CF9
100
AcDbEntity
  8
DIM
 62
     0
100
AcDbTrace
 10
14.69942546284063
 20
10.03321684111431
 30
0.0
 11
14.69942546284063
 21
9.913216841114312
 31
0.0
 12
15.05942546284063
 22
9.973216841114313
 32
0.0
 13
15.05942546284063
 23
9.973216841114313
 33
0.0
  0
SOLID
  5
1DDC
330
CF9
100
AcDbEntity
  8
DIM
 62
     0
100
AcDbTrace
 10
15.70642546284063
 20
10.03321684111431
 30
0.0
 11
15.70642546284063
 21
9.913216841114312
 31
0.0
 12
15.34642546284063
 22
9.973216841114313
 32
0.0
 13
15.34642546284063
 23
9.973216841114313
 33
0.0
  0
MTEXT
  5
1DDD
330
CF9
100
AcDbEntity
  8
DIM
 62
     0
100
AcDbMText
 10
16.60580046284063
 20
9.973216841114313
 30
0.0
 40
0.25
 41
0.0
 71
     5
 72
     1
  1
\A1;0.287
 73
     1
 44
1.0
  0
POINT
  5
1DDE
330
CF9
100
AcDbEntity
  8
DEFPOINTS
 62
     0
100
AcDbPoint
 10
15.05942546284063
 20
9.281311841114312
 30
0.0
  0
POINT
  5
1DDF
330
CF9
100
AcDbEntity
  8
DEFPOINTS
 62
     0
100
AcDbPoint
 10
15.34642546284063
 20
9.486811841114311
 30
0.0
  0
POINT
  5
1DE0
330
CF9
100
AcDbEntity
  8
DEFPOINTS
 62
     0
100
AcDbPoint
 10
15.34642546284063
 20
9.973216841114313
 30
0.0
  0
ENDBLK
  5
D05
330
CF9
100
AcDbEntity
  8
0
100
AcDbBlockEnd
  0
BLOCK
  5
D12
330
D07
100
AcDbEntity
  8
0
100
AcDbBlockBegin
  2
*D1
 70
     1
 10
0.0
 20
0.0
 30
0.0
  3
*D1
  1

  0
LINE
  5
1DCD
330
D07
100
AcDbEntity
  8
DIM
 62
     0
370
    -2
100
AcDbLine
 10
15.22842546284063
 20
8.791637841114312
 30
0.0
 11
15.22842546284063
 21
8.647942841114312
 31
0.0
  0
LINE
  5
1DCE
330
D07
100
AcDbEntity
  8
DIM
 62
     0
370
    -2
100
AcDbLine
 10
15.34642546284063
 20
8.791637841114312
 30
0.0
 11
15.34642546284063
 21
8.647942841114312
 31
0.0
  0
LINE
  5
1DCF
330
D07
100
AcDbEntity
  8
DIM
 62
     0
370
    -2
100
AcDbLine
 10
14.86842546284063
 20
8.833942841114312
 30
0.0
 11
14.50842546284063
 21
8.833942841114312
 31
0.0
  0
LINE
  5
1DD0
330
D07
100
AcDbEntity
  8
DIM
 62
     0
370
    -2
100
AcDbLine
 10
15.70642546284063
 20
8.833942841114312
 30
0.0
 11
16.06642546284063
 21
8.833942841114312
 31
0.0
  0
SOLID
  5
1DD1
330
D07
100
AcDbEntity
  8
DIM
 62
     0
100
AcDbTrace
 10
14.86842546284063
 20
8.893942841114313
 30
0.0
 11
14.86842546284063
 21
8.773942841114312
 31
0.0
 12
15.22842546284063
 22
8.833942841114312
 32
0.0
 13
15.22842546284063
 23
8.833942841114312
 33
0.0
  0
SOLID
  5
1DD2
330
D07
100
AcDbEntity
  8
DIM
 62
     0
100
AcDbTrace
 10
15.70642546284063
 20
8.893942841114313
 30
0.0
 11
15.70642546284063
 21
8.773942841114312
 31
0.0
 12
15.34642546284063
 22
8.833942841114312
 32
0.0
 13
15.34642546284063
 23
8.833942841114312
 33
0.0
  0
MTEXT
  5
1DD3
330
D07
100
AcDbEntity
  8
DIM
 62
     0
100
AcDbMText
 10
16.54330046284063
 20
8.833942841114312
 30
0.0
 40
0.25
 41
0.0
 71
     5
 72
     1
  1
\A1;0.118
 73
     1
 44
1.0
  0
POINT
  5
1DD4
330
D07
100
AcDbEntity
  8
DEFPOINTS
 62
     0
100
AcDbPoint
 10
15.22842546284063
 20
8.917637841114311
 30
0.0
  0
POINT
  5
1DD5
330
D07
100
AcDbEntity
  8
DEFPOINTS
 62
     0
100
AcDbPoint
 10
15.34642546284063
 20
8.917637841114311
 30
0.0
  0
POINT
  5
1DD6
330
D07
100
AcDbEntity
  8
DEFPOINTS
 62
     0
100
AcDbPoint
 10
15.34642546284063
 20
8.833942841114312
 30
0.0
  0
ENDBLK
  5
D13
330
D07
100
AcDbEntity
  8
0
100
AcDbBlockEnd
  0
BLOCK
  5
D20
330
D15
100
AcDbEntity
  8
0
100
AcDbBlockBegin
  2
*D2
 70
     1
 10
0.0
 20
0.0
 30
0.0
  3
*D2
  1

  0
LINE
  5
1EFD
330
D15
100
AcDbEntity
  8
DIM
 62
     0
370
    -2
100
AcDbLine
 10
13.31542546284063
 20
4.789311841114312
 30
0.0
 11
13.31542546284063
 21
4.203811841114312
 31
0.0
  0
LINE
  5
1EFE
330
D15
100
AcDbEntity
  8
DIM
 62
     0
370
    -2
100
AcDbLine
 10
15.34642546284063
 20
4.761811841114312
 30
0.0
 11
15.34642546284063
 21
4.203811841114312
 31
0.0
  0
LINE
  5
1EFF
330
D15
100
AcDbEntity
  8
DIM
 62
     0
370
    -2
100
AcDbLine
 10
13.67542546284063
 20
4.389811841114312
 30
0.0
 11
13.82280046284063
 21
4.389811841114312
 31
0.0
  0
LINE
  5
1F00
330
D15
100
AcDbEntity
  8
DIM
 62
     0
370
    -2
100
AcDbLine
 10
14.98642546284063
 20
4.389811841114312
 30
0.0
 11
14.83905046284063
 21
4.389811841114312
 31
0.0
  0
SOLID
  5
1F01
330
D15
100
AcDbEntity
  8
DIM
 62
     0
100
AcDbTrace
 10
13.67542546284063
 20
4.449811841114311
 30
0.0
 11
13.67542546284063
 21
4.329811841114312
 31
0.0
 12
13.31542546284063
 22
4.389811841114312
 32
0.0
 13
13.31542546284063
 23
4.389811841114312
 33
0.0
  0
SOLID
  5
1F02
330
D15
100
AcDbEntity
  8
DIM
 62
     0
100
AcDbTrace
 10
14.98642546284063
 20
4.449811841114311
 30
0.0
 11
14.98642546284063
 21
4.329811841114312
 31
0.0
 12
15.34642546284063
 22
4.389811841114312
 32
0.0
 13
15.34642546284063
 23
4.389811841114312
 33
0.0
  0
MTEXT
  5
1F03
330
D15
100
AcDbEntity
  8
DIM
 62
     0
100
AcDbMText
 10
14.33092546284063
 20
4.389811841114312
 30
0.0
 40
0.25
 41
0.0
 71
     5
 72
     1
  1
\A1;2.031
 73
     1
 44
1.0
  0
POINT
  5
1F04
330
D15
100
AcDbEntity
  8
DEFPOINTS
 62
     0
100
AcDbPoint
 10
13.31542546284063
 20
4.915311841114312
 30
0.0
  0
POINT
  5
1F05
330
D15
100
AcDbEntity
  8
DEFPOINTS
 62
     0
100
AcDbPoint
 10
15.34642546284063
 20
4.887811841114312
 30
0.0
  0
POINT
  5
1F06
330
D15
100
AcDbEntity
  8
DEFPOINTS
 62
     0
100
AcDbPoint
 10
15.34642546284063
 20
4.389811841114312
 30
0.0
  0
ENDBLK
  5
D21
330
D15
100
AcDbEntity
  8
0
100
AcDbBlockEnd
  0
BLOCK
  5
D2E
330
D23
100
AcDbEntity
  8
0
100
AcDbBlockBegin
  2
*D3
 70
     1
 10
0.0
 20
0.0
 30
0.0
  3
*D3
  1

  0
LINE
  5
1EF2
330
D23
100
AcDbEntity
  8
DIM
 62
     0
370
    -2
100
AcDbLine
 10
15.47242546284063
 20
5.409311841114312
 30
0.0
 11
15.85359746284063
 21
5.409311841114312
 31
0.0
  0
LINE
  5
1EF3
330
D23
100
AcDbEntity
  8
DIM
 62
     0
370
    -2
100
AcDbLine
 10
15.47242546284063
 20
5.579311841114312
 30
0.0
 11
15.85359746284063
 21
5.579311841114312
 31
0.0
  0
LINE
  5
1EF4
330
D23
100
AcDbEntity
  8
DIM
 62
     0
370
    -2
100
AcDbLine
 10
15.66759746284063
 20
5.049311841114311
 30
0.0
 11
15.66759746284063
 21
4.689311841114312
 31
0.0
  0
LINE
  5
1EF5
330
D23
100
AcDbEntity
  8
DIM
 62
     0
370
    -2
100
AcDbLine
 10
15.66759746284063
 20
5.939311841114313
 30
0.0
 11
15.66759746284063
 21
6.299311841114312
 31
0.0
  0
LINE
  5
1EF6
330
D23
100
AcDbEntity
  8
DIM
 62
     0
370
    -2
100
AcDbLine
 10
15.66759746284063
 20
6.299311841114312
 30
0.0
 11
16.02759746284063
 21
6.299311841114312
 31
0.0
  0
SOLID
  5
1EF7
330
D23
100
AcDbEntity
  8
DIM
 62
     0
100
AcDbTrace
 10
15.60759746284063
 20
5.049311841114311
 30
0.0
 11
15.72759746284063
 21
5.049311841114311
 31
0.0
 12
15.66759746284063
 22
5.409311841114312
 32
0.0
 13
15.66759746284063
 23
5.409311841114312
 33
0.0
  0
SOLID
  5
1EF8
330
D23
100
AcDbEntity
  8
DIM
 62
     0
100
AcDbTrace
 10
15.60759746284063
 20
5.939311841114313
 30
0.0
 11
15.72759746284063
 21
5.939311841114313
 31
0.0
 12
15.66759746284063
 22
5.579311841114312
 32
0.0
 13
15.66759746284063
 23
5.579311841114312
 33
0.0
  0
MTEXT
  5
1EF9
330
D23
100
AcDbEntity
  8
DIM
 62
     0
100
AcDbMText
 10
17.05134746284063
 20
6.299311841114315
 30
0.0
 40
0.25
 41
0.0
 71
     5
 72
     1
  1
\A1;0.170 DIA.\P(4) PLACES
 73
     1
 44
1.0
  0
POINT
  5
1EFA
330
D23
100
AcDbEntity
  8
DEFPOINTS
 62
     0
100
AcDbPoint
 10
15.34642546284063
 20
5.409311841114312
 30
0.0
  0
POINT
  5
1EFB
330
D23
100
AcDbEntity
  8
DEFPOINTS
 62
     0
100
AcDbPoint
 10
15.34642546284063
 20
5.579311841114312
 30
0.0
  0
POINT
  5
1EFC
330
D23
100
AcDbEntity
  8
DEFPOINTS
 62
     0
100
AcDbPoint
 10
15.66759746284063
 20
5.579311841114312
 30
0.0
  0
ENDBLK
  5
D2F
330
D23
100
AcDbEntity
  8
0
100
AcDbBlockEnd
  0
BLOCK
  5
D3C
330
D31
100
AcDbEntity
  8
0
100
AcDbBlockBegin
  2
*D4
 70
     1
 10
0.0
 20
0.0
 30
0.0
  3
*D4
  1

  0
LINE
  5
1E48
330
D31
100
AcDbEntity
  8
DIM
 62
     0
370
    -2
100
AcDbLine
 10
7.288125462840633
 20
4.949311841114312
 30
0.0
 11
7.288125462840633
 21
3.411913841114312
 31
0.0
  0
LINE
  5
1E49
330
D31
100
AcDbEntity
  8
DIM
 62
     0
370
    -2
100
AcDbLine
 10
3.940125462840633
 20
4.949311841114312
 30
0.0
 11
3.940125462840633
 21
3.411913841114312
 31
0.0
  0
LINE
  5
1E4A
330
D31
100
AcDbEntity
  8
DIM
 62
     0
370
    -2
100
AcDbLine
 10
6.928125462840633
 20
3.597913841114312
 30
0.0
 11
6.169125462840632
 21
3.597913841114312
 31
0.0
  0
LINE
  5
1E4B
330
D31
100
AcDbEntity
  8
DIM
 62
     0
370
    -2
100
AcDbLine
 10
4.300125462840633
 20
3.597913841114312
 30
0.0
 11
5.059125462840633
 21
3.597913841114312
 31
0.0
  0
SOLID
  5
1E4C
330
D31
100
AcDbEntity
  8
DIM
 62
     0
100
AcDbTrace
 10
6.928125462840633
 20
3.657913841114312
 30
0.0
 11
6.928125462840633
 21
3.537913841114312
 31
0.0
 12
7.288125462840633
 22
3.597913841114312
 32
0.0
 13
7.288125462840633
 23
3.597913841114312
 33
0.0
  0
SOLID
  5
1E4D
330
D31
100
AcDbEntity
  8
DIM
 62
     0
100
AcDbTrace
 10
4.300125462840633
 20
3.657913841114312
 30
0.0
 11
4.300125462840633
 21
3.537913841114312
 31
0.0
 12
3.940125462840633
 22
3.597913841114312
 32
0.0
 13
3.940125462840633
 23
3.597913841114312
 33
0.0
  0
MTEXT
  5
1E4E
330
D31
100
AcDbEntity
  8
DIM
 62
     0
100
AcDbMText
 10
5.614125462840632
 20
3.597913841114312
 30
0.0
 40
0.25
 41
0.0
 71
     5
 72
     1
  1
\A1;3.348
 73
     1
 44
1.0
  0
POINT
  5
1E4F
330
D31
100
AcDbEntity
  8
DEFPOINTS
 62
     0
100
AcDbPoint
 10
7.288125462840633
 20
5.075311841114312
 30
0.0
  0
POINT
  5
1E50
330
D31
100
AcDbEntity
  8
DEFPOINTS
 62
     0
100
AcDbPoint
 10
3.940125462840633
 20
5.075311841114312
 30
0.0
  0
POINT
  5
1E51
330
D31
100
AcDbEntity
  8
DEFPOINTS
 62
     0
100
AcDbPoint
 10
3.940125462840633
 20
3.597913841114312
 30
0.0
  0
ENDBLK
  5
D3D
330
D31
100
AcDbEntity
  8
0
100
AcDbBlockEnd
  0
BLOCK
  5
D4A
330
D3F
100
AcDbEntity
  8
0
100
AcDbBlockBegin
  2
*D5
 70
     1
 10
0.0
 20
0.0
 30
0.0
  3
*D5
  1

  0
LINE
  5
1E52
330
D3F
100
AcDbEntity
  8
DIM
 62
     0
370
    -2
100
AcDbLine
 10
3.940125462840633
 20
4.949311841114312
 30
0.0
 11
3.940125462840633
 21
3.411913841114312
 31
0.0
  0
LINE
  5
1E53
330
D3F
100
AcDbEntity
  8
DIM
 62
     0
370
    -2
100
AcDbLine
 10
3.252125462840633
 20
4.949311841114312
 30
0.0
 11
3.252125462840633
 21
3.411913841114312
 31
0.0
  0
LINE
  5
1E54
330
D3F
100
AcDbEntity
  8
DIM
 62
     0
370
    -2
100
AcDbLine
 10
4.300125462840633
 20
3.597913841114312
 30
0.0
 11
4.660125462840633
 21
3.597913841114312
 31
0.0
  0
LINE
  5
1E55
330
D3F
100
AcDbEntity
  8
DIM
 62
     0
370
    -2
100
AcDbLine
 10
2.892125462840633
 20
3.597913841114312
 30
0.0
 11
2.532125462840634
 21
3.597913841114312
 31
0.0
  0
SOLID
  5
1E56
330
D3F
100
AcDbEntity
  8
DIM
 62
     0
100
AcDbTrace
 10
4.300125462840633
 20
3.657913841114312
 30
0.0
 11
4.300125462840633
 21
3.537913841114312
 31
0.0
 12
3.940125462840633
 22
3.597913841114312
 32
0.0
 13
3.940125462840633
 23
3.597913841114312
 33
0.0
  0
SOLID
  5
1E57
330
D3F
100
AcDbEntity
  8
DIM
 62
     0
100
AcDbTrace
 10
2.892125462840633
 20
3.657913841114312
 30
0.0
 11
2.892125462840633
 21
3.537913841114312
 31
0.0
 12
3.252125462840633
 22
3.597913841114312
 32
0.0
 13
3.252125462840633
 23
3.597913841114312
 33
0.0
  0
MTEXT
  5
1E58
330
D3F
100
AcDbEntity
  8
DIM
 62
     0
100
AcDbMText
 10
1.992750462840633
 20
3.597913841114312
 30
0.0
 40
0.25
 41
0.0
 71
     5
 72
     1
  1
\A1;0.688
 73
     1
 44
1.0
  0
POINT
  5
1E59
330
D3F
100
AcDbEntity
  8
DEFPOINTS
 62
     0
100
AcDbPoint
 10
3.940125462840633
 20
5.075311841114312
 30
0.0
  0
POINT
  5
1E5A
330
D3F
100
AcDbEntity
  8
DEFPOINTS
 62
     0
100
AcDbPoint
 10
3.252125462840633
 20
5.075311841114312
 30
0.0
  0
POINT
  5
1E5B
330
D3F
100
AcDbEntity
  8
DEFPOINTS
 62
     0
100
AcDbPoint
 10
3.252125462840633
 20
3.597913841114312
 30
0.0
  0
ENDBLK
  5
D4B
330
D3F
100
AcDbEntity
  8
0
100
AcDbBlockEnd
  0
BLOCK
  5
D58
330
D4D
100
AcDbEntity
  8
0
100
AcDbBlockBegin
  2
*D6
 70
     1
 10
0.0
 20
0.0
 30
0.0
  3
*D6
  1

  0
LINE
  5
1E29
330
D4D
100
AcDbEntity
  8
DIM
 62
     0
370
    -2
100
AcDbLine
 10
3.252125462840633
 20
9.425311841114311
 30
0.0
 11
3.252125462840633
 21
11.01731184111431
 31
0.0
  0
LINE
  5
1E2A
330
D4D
100
AcDbEntity
  8
DIM
 62
     0
370
    -2
100
AcDbLine
 10
5.614125462840633
 20
9.282311841114312
 30
0.0
 11
5.614125462840633
 21
11.01731184111431
 31
0.0
  0
LINE
  5
1E2B
330
D4D
100
AcDbEntity
  8
DIM
 62
     0
370
    -2
100
AcDbLine
 10
3.612125462840633
 20
10.83131184111431
 30
0.0
 11
3.878125462840634
 21
10.83131184111431
 31
0.0
  0
LINE
  5
1E2C
330
D4D
100
AcDbEntity
  8
DIM
 62
     0
370
    -2
100
AcDbLine
 10
5.254125462840633
 20
10.83131184111431
 30
0.0
 11
4.988125462840633
 21
10.83131184111431
 31
0.0
  0
SOLID
  5
1E2D
330
D4D
100
AcDbEntity
  8
DIM
 62
     0
100
AcDbTrace
 10
3.612125462840633
 20
10.89131184111431
 30
0.0
 11
3.612125462840633
 21
10.77131184111431
 31
0.0
 12
3.252125462840633
 22
10.83131184111431
 32
0.0
 13
3.252125462840633
 23
10.83131184111431
 33
0.0
  0
SOLID
  5
1E2E
330
D4D
100
AcDbEntity
  8
DIM
 62
     0
100
AcDbTrace
 10
5.254125462840633
 20
10.89131184111431
 30
0.0
 11
5.254125462840633
 21
10.77131184111431
 31
0.0
 12
5.614125462840633
 22
10.83131184111431
 32
0.0
 13
5.614125462840633
 23
10.83131184111431
 33
0.0
  0
MTEXT
  5
1E2F
330
D4D
100
AcDbEntity
  8
DIM
 62
     0
100
AcDbMText
 10
4.433125462840633
 20
10.83131184111431
 30
0.0
 40
0.25
 41
0.0
 71
     5
 72
     1
  1
\A1;2.362
 73
     1
 44
1.0
  0
POINT
  5
1E30
330
D4D
100
AcDbEntity
  8
DEFPOINTS
 62
     0
100
AcDbPoint
 10
3.252125462840633
 20
9.299311841114311
 30
0.0
  0
POINT
  5
1E31
330
D4D
100
AcDbEntity
  8
DEFPOINTS
 62
     0
100
AcDbPoint
 10
5.614125462840633
 20
9.156311841114312
 30
0.0
  0
POINT
  5
1E32
330
D4D
100
AcDbEntity
  8
DEFPOINTS
 62
     0
100
AcDbPoint
 10
5.614125462840633
 20
10.83131184111431
 30
0.0
  0
ENDBLK
  5
D59
330
D4D
100
AcDbEntity
  8
0
100
AcDbBlockEnd
  0
BLOCK
  5
D66
330
D5B
100
AcDbEntity
  8
0
100
AcDbBlockBegin
  2
*D7
 70
     1
 10
0.0
 20
0.0
 30
0.0
  3
*D7
  1

  0
LINE
  5
1E1F
330
D5B
100
AcDbEntity
  8
DIM
 62
     0
370
    -2
100
AcDbLine
 10
3.252125462840633
 20
9.425311841114311
 30
0.0
 11
3.252125462840633
 21
12.70331184111431
 31
0.0
  0
LINE
  5
1E20
330
D5B
100
AcDbEntity
  8
DIM
 62
     0
370
    -2
100
AcDbLine
 10
7.976125462840633
 20
9.425311841114311
 30
0.0
 11
7.976125462840633
 21
12.70331184111431
 31
0.0
  0
LINE
  5
1E21
330
D5B
100
AcDbEntity
  8
DIM
 62
     0
370
    -2
100
AcDbLine
 10
3.612125462840633
 20
12.51731184111431
 30
0.0
 11
5.059125462840633
 21
12.51731184111431
 31
0.0
  0
LINE
  5
1E22
330
D5B
100
AcDbEntity
  8
DIM
 62
     0
370
    -2
100
AcDbLine
 10
7.616125462840632
 20
12.51731184111431
 30
0.0
 11
6.169125462840632
 21
12.51731184111431
 31
0.0
  0
SOLID
  5
1E23
330
D5B
100
AcDbEntity
  8
DIM
 62
     0
100
AcDbTrace
 10
3.612125462840633
 20
12.57731184111431
 30
0.0
 11
3.612125462840633
 21
12.45731184111431
 31
0.0
 12
3.252125462840633
 22
12.51731184111431
 32
0.0
 13
3.252125462840633
 23
12.51731184111431
 33
0.0
  0
SOLID
  5
1E24
330
D5B
100
AcDbEntity
  8
DIM
 62
     0
100
AcDbTrace
 10
7.616125462840632
 20
12.57731184111431
 30
0.0
 11
7.616125462840632
 21
12.45731184111431
 31
0.0
 12
7.976125462840633
 22
12.51731184111431
 32
0.0
 13
7.976125462840633
 23
12.51731184111431
 33
0.0
  0
MTEXT
  5
1E25
330
D5B
100
AcDbEntity
  8
DIM
 62
     0
100
AcDbMText
 10
5.614125462840632
 20
12.51731184111431
 30
0.0
 40
0.25
 41
0.0
 71
     5
 72
     1
  1
\A1;4.724
 73
     1
 44
1.0
  0
POINT
  5
1E26
330
D5B
100
AcDbEntity
  8
DEFPOINTS
 62
     0
100
AcDbPoint
 10
3.252125462840633
 20
9.299311841114311
 30
0.0
  0
POINT
  5
1E27
330
D5B
100
AcDbEntity
  8
DEFPOINTS
 62
     0
100
AcDbPoint
 10
7.976125462840633
 20
9.299311841114311
 30
0.0
  0
POINT
  5
1E28
330
D5B
100
AcDbEntity
  8
DEFPOINTS
 62
     0
100
AcDbPoint
 10
7.976125462840633
 20
12.51731184111431
 30
0.0
  0
ENDBLK
  5
D67
330
D5B
100
AcDbEntity
  8
0
100
AcDbBlockEnd
  0
BLOCK
  5
D74
330
D69
100
AcDbEntity
  8
0
100
AcDbBlockBegin
  2
*D8
 70
     1
 10
0.0
 20
0.0
 30
0.0
  3
*D8
  1

  0
LINE
  5
1E15
330
D69
100
AcDbEntity
  8
DIM
 62
     0
370
    -2
100
AcDbLine
 10
7.700125462840633
 20
9.399311841114311
 30
0.0
 11
7.700125462840633
 21
12.14131184111431
 31
0.0
  0
LINE
  5
1E16
330
D69
100
AcDbEntity
  8
DIM
 62
     0
370
    -2
100
AcDbLine
 10
3.528125462840633
 20
9.399311841114311
 30
0.0
 11
3.528125462840633
 21
12.14131184111431
 31
0.0
  0
LINE
  5
1E17
330
D69
100
AcDbEntity
  8
DIM
 62
     0
370
    -2
100
AcDbLine
 10
7.340125462840632
 20
11.95531184111431
 30
0.0
 11
6.137875462840632
 21
11.95531184111431
 31
0.0
  0
LINE
  5
1E18
330
D69
100
AcDbEntity
  8
DIM
 62
     0
370
    -2
100
AcDbLine
 10
3.888125462840633
 20
11.95531184111431
 30
0.0
 11
5.090375462840633
 21
11.95531184111431
 31
0.0
  0
SOLID
  5
1E19
330
D69
100
AcDbEntity
  8
DIM
 62
     0
100
AcDbTrace
 10
7.340125462840632
 20
12.01531184111431
 30
0.0
 11
7.340125462840632
 21
11.89531184111431
 31
0.0
 12
7.700125462840633
 22
11.95531184111431
 32
0.0
 13
7.700125462840633
 23
11.95531184111431
 33
0.0
  0
SOLID
  5
1E1A
330
D69
100
AcDbEntity
  8
DIM
 62
     0
100
AcDbTrace
 10
3.888125462840633
 20
12.01531184111431
 30
0.0
 11
3.888125462840633
 21
11.89531184111431
 31
0.0
 12
3.528125462840633
 22
11.95531184111431
 32
0.0
 13
3.528125462840633
 23
11.95531184111431
 33
0.0
  0
MTEXT
  5
1E1B
330
D69
100
AcDbEntity
  8
DIM
 62
     0
100
AcDbMText
 10
5.614125462840632
 20
11.95531184111431
 30
0.0
 40
0.25
 41
0.0
 71
     5
 72
     1
  1
\A1;4.172
 73
     1
 44
1.0
  0
POINT
  5
1E1C
330
D69
100
AcDbEntity
  8
DEFPOINTS
 62
     0
100
AcDbPoint
 10
7.700125462840633
 20
9.273311841114312
 30
0.0
  0
POINT
  5
1E1D
330
D69
100
AcDbEntity
  8
DEFPOINTS
 62
     0
100
AcDbPoint
 10
3.528125462840633
 20
9.273311841114312
 30
0.0
  0
POINT
  5
1E1E
330
D69
100
AcDbEntity
  8
DEFPOINTS
 62
     0
100
AcDbPoint
 10
3.528125462840633
 20
11.95531184111431
 30
0.0
  0
ENDBLK
  5
D75
330
D69
100
AcDbEntity
  8
0
100
AcDbBlockEnd
  0
BLOCK
  5
D82
330
D77
100
AcDbEntity
  8
0
100
AcDbBlockBegin
  2
*D9
 70
     1
 10
0.0
 20
0.0
 30
0.0
  3
*D9
  1

  0
LINE
  5
1E0B
330
D77
100
AcDbEntity
  8
DIM
 62
     0
370
    -2
100
AcDbLine
 10
3.528125462840633
 20
9.399311841114311
 30
0.0
 11
3.528125462840633
 21
12.14131184111431
 31
0.0
  0
LINE
  5
1E0C
330
D77
100
AcDbEntity
  8
DIM
 62
     0
370
    -2
100
AcDbLine
 10
3.252125462840633
 20
9.425311841114311
 30
0.0
 11
3.252125462840633
 21
12.14131184111431
 31
0.0
  0
LINE
  5
1E0D
330
D77
100
AcDbEntity
  8
DIM
 62
     0
370
    -2
100
AcDbLine
 10
3.888125462840633
 20
11.95531184111431
 30
0.0
 11
4.248125462840634
 21
11.95531184111431
 31
0.0
  0
LINE
  5
1E0E
330
D77
100
AcDbEntity
  8
DIM
 62
     0
370
    -2
100
AcDbLine
 10
2.892125462840633
 20
11.95531184111431
 30
0.0
 11
2.532125462840634
 21
11.95531184111431
 31
0.0
  0
SOLID
  5
1E0F
330
D77
100
AcDbEntity
  8
DIM
 62
     0
100
AcDbTrace
 10
3.888125462840633
 20
12.01531184111431
 30
0.0
 11
3.888125462840633
 21
11.89531184111431
 31
0.0
 12
3.528125462840633
 22
11.95531184111431
 32
0.0
 13
3.528125462840633
 23
11.95531184111431
 33
0.0
  0
SOLID
  5
1E10
330
D77
100
AcDbEntity
  8
DIM
 62
     0
100
AcDbTrace
 10
2.892125462840633
 20
12.01531184111431
 30
0.0
 11
2.892125462840633
 21
11.89531184111431
 31
0.0
 12
3.252125462840633
 22
11.95531184111431
 32
0.0
 13
3.252125462840633
 23
11.95531184111431
 33
0.0
  0
MTEXT
  5
1E11
330
D77
100
AcDbEntity
  8
DIM
 62
     0
100
AcDbMText
 10
1.992750462840633
 20
11.95531184111431
 30
0.0
 40
0.25
 41
0.0
 71
     5
 72
     1
  1
\A1;0.276
 73
     1
 44
1.0
  0
POINT
  5
1E12
330
D77
100
AcDbEntity
  8
DEFPOINTS
 62
     0
100
AcDbPoint
 10
3.528125462840633
 20
9.273311841114312
 30
0.0
  0
POINT
  5
1E13
330
D77
100
AcDbEntity
  8
DEFPOINTS
 62
     0
100
AcDbPoint
 10
3.252125462840633
 20
9.299311841114311
 30
0.0
  0
POINT
  5
1E14
330
D77
100
AcDbEntity
  8
DEFPOINTS
 62
     0
100
AcDbPoint
 10
3.252125462840633
 20
11.95531184111431
 30
0.0
  0
ENDBLK
  5
D83
330
D77
100
AcDbEntity
  8
0
100
AcDbBlockEnd
  0
BLOCK
  5
D90
330
D85
100
AcDbEntity
  8
0
100
AcDbBlockBegin
  2
*D10
 70
     1
 10
0.0
 20
0.0
 30
0.0
  3
*D10
  1

  0
LINE
  5
1E01
330
D85
100
AcDbEntity
  8
DIM
 62
     0
370
    -2
100
AcDbLine
 10
7.543125462840634
 20
8.415311841114311
 30
0.0
 11
7.543125462840634
 21
11.57931184111431
 31
0.0
  0
LINE
  5
1E02
330
D85
100
AcDbEntity
  8
DIM
 62
     0
370
    -2
100
AcDbLine
 10
3.685125462840633
 20
8.415311841114311
 30
0.0
 11
3.685125462840633
 21
11.57931184111431
 31
0.0
  0
LINE
  5
1E03
330
D85
100
AcDbEntity
  8
DIM
 62
     0
370
    -2
100
AcDbLine
 10
7.183125462840633
 20
11.39331184111431
 30
0.0
 11
6.169125462840633
 21
11.39331184111431
 31
0.0
  0
LINE
  5
1E04
330
D85
100
AcDbEntity
  8
DIM
 62
     0
370
    -2
100
AcDbLine
 10
4.045125462840633
 20
11.39331184111431
 30
0.0
 11
5.059125462840634
 21
11.39331184111431
 31
0.0
  0
SOLID
  5
1E05
330
D85
100
AcDbEntity
  8
DIM
 62
     0
100
AcDbTrace
 10
7.183125462840633
 20
11.45331184111431
 30
0.0
 11
7.183125462840633
 21
11.33331184111431
 31
0.0
 12
7.543125462840634
 22
11.39331184111431
 32
0.0
 13
7.543125462840634
 23
11.39331184111431
 33
0.0
  0
SOLID
  5
1E06
330
D85
100
AcDbEntity
  8
DIM
 62
     0
100
AcDbTrace
 10
4.045125462840633
 20
11.45331184111431
 30
0.0
 11
4.045125462840633
 21
11.33331184111431
 31
0.0
 12
3.685125462840633
 22
11.39331184111431
 32
0.0
 13
3.685125462840633
 23
11.39331184111431
 33
0.0
  0
MTEXT
  5
1E07
330
D85
100
AcDbEntity
  8
DIM
 62
     0
100
AcDbMText
 10
5.614125462840633
 20
11.39331184111431
 30
0.0
 40
0.25
 41
0.0
 71
     5
 72
     1
  1
\A1;3.858
 73
     1
 44
1.0
  0
POINT
  5
1E08
330
D85
100
AcDbEntity
  8
DEFPOINTS
 62
     0
100
AcDbPoint
 10
7.543125462840634
 20
8.289311841114312
 30
0.0
  0
POINT
  5
1E09
330
D85
100
AcDbEntity
  8
DEFPOINTS
 62
     0
100
AcDbPoint
 10
3.685125462840633
 20
8.289311841114312
 30
0.0
  0
POINT
  5
1E0A
330
D85
100
AcDbEntity
  8
DEFPOINTS
 62
     0
100
AcDbPoint
 10
3.685125462840633
 20
11.39331184111431
 30
0.0
  0
ENDBLK
  5
D91
330
D85
100
AcDbEntity
  8
0
100
AcDbBlockEnd
  0
BLOCK
  5
D9E
330
D93
100
AcDbEntity
  8
0
100
AcDbBlockBegin
  2
*D11
 70
     1
 10
0.0
 20
0.0
 30
0.0
  3
*D11
  1

  0
LINE
  5
1DF7
330
D93
100
AcDbEntity
  8
DIM
 62
     0
370
    -2
100
AcDbLine
 10
3.685125462840633
 20
8.415311841114311
 30
0.0
 11
3.685125462840633
 21
11.57931184111431
 31
0.0
  0
LINE
  5
1DF8
330
D93
100
AcDbEntity
  8
DIM
 62
     0
370
    -2
100
AcDbLine
 10
3.252125462840633
 20
9.425311841114311
 30
0.0
 11
3.252125462840633
 21
11.57931184111431
 31
0.0
  0
LINE
  5
1DF9
330
D93
100
AcDbEntity
  8
DIM
 62
     0
370
    -2
100
AcDbLine
 10
4.045125462840633
 20
11.39331184111431
 30
0.0
 11
4.405125462840633
 21
11.39331184111431
 31
0.0
  0
LINE
  5
1DFA
330
D93
100
AcDbEntity
  8
DIM
 62
     0
370
    -2
100
AcDbLine
 10
2.892125462840633
 20
11.39331184111431
 30
0.0
 11
2.532125462840634
 21
11.39331184111431
 31
0.0
  0
SOLID
  5
1DFB
330
D93
100
AcDbEntity
  8
DIM
 62
     0
100
AcDbTrace
 10
4.045125462840633
 20
11.45331184111431
 30
0.0
 11
4.045125462840633
 21
11.33331184111431
 31
0.0
 12
3.685125462840633
 22
11.39331184111431
 32
0.0
 13
3.685125462840633
 23
11.39331184111431
 33
0.0
  0
SOLID
  5
1DFC
330
D93
100
AcDbEntity
  8
DIM
 62
     0
100
AcDbTrace
 10
2.892125462840633
 20
11.45331184111431
 30
0.0
 11
2.892125462840633
 21
11.33331184111431
 31
0.0
 12
3.252125462840633
 22
11.39331184111431
 32
0.0
 13
3.252125462840633
 23
11.39331184111431
 33
0.0
  0
MTEXT
  5
1DFD
330
D93
100
AcDbEntity
  8
DIM
 62
     0
100
AcDbMText
 10
1.992750462840633
 20
11.39331184111431
 30
0.0
 40
0.25
 41
0.0
 71
     5
 72
     1
  1
\A1;0.433
 73
     1
 44
1.0
  0
POINT
  5
1DFE
330
D93
100
AcDbEntity
  8
DEFPOINTS
 62
     0
100
AcDbPoint
 10
3.685125462840633
 20
8.289311841114312
 30
0.0
  0
POINT
  5
1DFF
330
D93
100
AcDbEntity
  8
DEFPOINTS
 62
     0
100
AcDbPoint
 10
3.252125462840633
 20
9.299311841114311
 30
0.0
  0
POINT
  5
1E00
330
D93
100
AcDbEntity
  8
DEFPOINTS
 62
     0
100
AcDbPoint
 10
3.252125462840633
 20
11.39331184111431
 30
0.0
  0
ENDBLK
  5
D9F
330
D93
100
AcDbEntity
  8
0
100
AcDbBlockEnd
  0
BLOCK
  5
DAC
330
DA1
100
AcDbEntity
  8
0
100
AcDbBlockBegin
  2
*D12
 70
     1
 10
0.0
 20
0.0
 30
0.0
  3
*D12
  1

  0
LINE
  5
1ECA
330
DA1
100
AcDbEntity
  8
DIM
 62
     0
370
    -2
100
AcDbLine
 10
7.669125462840634
 20
7.187311841114312
 30
0.0
 11
8.813406462840633
 21
7.187311841114312
 31
0.0
  0
LINE
  5
1ECB
330
DA1
100
AcDbEntity
  8
DIM
 62
     0
370
    -2
100
AcDbLine
 10
7.669125462840634
 20
7.935311841114312
 30
0.0
 11
8.813406462840633
 21
7.935311841114312
 31
0.0
  0
LINE
  5
1ECC
330
DA1
100
AcDbEntity
  8
DIM
 62
     0
370
    -2
100
AcDbLine
 10
8.627406462840633
 20
6.827311841114312
 30
0.0
 11
8.627406462840633
 21
6.467311841114312
 31
0.0
  0
LINE
  5
1ECD
330
DA1
100
AcDbEntity
  8
DIM
 62
     0
370
    -2
100
AcDbLine
 10
8.627406462840633
 20
8.295311841114312
 30
0.0
 11
8.627406462840633
 21
8.655311841114313
 31
0.0
  0
SOLID
  5
1ECE
330
DA1
100
AcDbEntity
  8
DIM
 62
     0
100
AcDbTrace
 10
8.567406462840633
 20
6.827311841114312
 30
0.0
 11
8.687406462840634
 21
6.827311841114312
 31
0.0
 12
8.627406462840633
 22
7.187311841114312
 32
0.0
 13
8.627406462840633
 23
7.187311841114312
 33
0.0
  0
SOLID
  5
1ECF
330
DA1
100
AcDbEntity
  8
DIM
 62
     0
100
AcDbTrace
 10
8.567406462840633
 20
8.295311841114312
 30
0.0
 11
8.687406462840634
 21
8.295311841114312
 31
0.0
 12
8.627406462840633
 22
7.935311841114312
 32
0.0
 13
8.627406462840633
 23
7.935311841114312
 33
0.0
  0
MTEXT
  5
1ED0
330
DA1
100
AcDbEntity
  8
DIM
 62
     0
100
AcDbMText
 10
8.627406462840632
 20
7.561311841114313
 30
0.0
 40
0.25
 41
0.0
 71
     5
 72
     1
  1
\A1;0.748
 73
     1
 44
1.0
  0
POINT
  5
1ED1
330
DA1
100
AcDbEntity
  8
DEFPOINTS
 62
     0
100
AcDbPoint
 10
7.543125462840634
 20
7.187311841114312
 30
0.0
  0
POINT
  5
1ED2
330
DA1
100
AcDbEntity
  8
DEFPOINTS
 62
     0
100
AcDbPoint
 10
7.543125462840634
 20
7.935311841114312
 30
0.0
  0
POINT
  5
1ED3
330
DA1
100
AcDbEntity
  8
DEFPOINTS
 62
     0
100
AcDbPoint
 10
8.627406462840633
 20
7.935311841114312
 30
0.0
  0
ENDBLK
  5
DAD
330
DA1
100
AcDbEntity
  8
0
100
AcDbBlockEnd
  0
BLOCK
  5
DBA
330
DAF
100
AcDbEntity
  8
0
100
AcDbBlockBegin
  2
*D13
 70
     1
 10
0.0
 20
0.0
 30
0.0
  3
*D13
  1

  0
LINE
  5
1EC0
330
DAF
100
AcDbEntity
  8
DIM
 62
     0
370
    -2
100
AcDbLine
 10
7.669125462840634
 20
7.187311841114312
 30
0.0
 11
9.937406462840632
 21
7.187311841114312
 31
0.0
  0
LINE
  5
1EC1
330
DAF
100
AcDbEntity
  8
DIM
 62
     0
370
    -2
100
AcDbLine
 10
7.669125462840634
 20
8.289311841114312
 30
0.0
 11
9.937406462840632
 21
8.289311841114312
 31
0.0
  0
LINE
  5
1EC2
330
DAF
100
AcDbEntity
  8
DIM
 62
     0
370
    -2
100
AcDbLine
 10
9.751406462840632
 20
6.827311841114312
 30
0.0
 11
9.751406462840632
 21
6.467311841114312
 31
0.0
  0
LINE
  5
1EC3
330
DAF
100
AcDbEntity
  8
DIM
 62
     0
370
    -2
100
AcDbLine
 10
9.751406462840632
 20
8.649311841114311
 30
0.0
 11
9.751406462840632
 21
9.009311841114312
 31
0.0
  0
SOLID
  5
1EC4
330
DAF
100
AcDbEntity
  8
DIM
 62
     0
100
AcDbTrace
 10
9.691406462840632
 20
6.827311841114312
 30
0.0
 11
9.811406462840633
 21
6.827311841114312
 31
0.0
 12
9.751406462840632
 22
7.187311841114312
 32
0.0
 13
9.751406462840632
 23
7.187311841114312
 33
0.0
  0
SOLID
  5
1EC5
330
DAF
100
AcDbEntity
  8
DIM
 62
     0
100
AcDbTrace
 10
9.691406462840632
 20
8.649311841114311
 30
0.0
 11
9.811406462840633
 21
8.649311841114311
 31
0.0
 12
9.751406462840632
 22
8.289311841114312
 32
0.0
 13
9.751406462840632
 23
8.289311841114312
 33
0.0
  0
MTEXT
  5
1EC6
330
DAF
100
AcDbEntity
  8
DIM
 62
     0
100
AcDbMText
 10
9.75140646284063
 20
7.738311841114312
 30
0.0
 40
0.25
 41
0.0
 71
     5
 72
     1
  1
\A1;1.102
 73
     1
 44
1.0
  0
POINT
  5
1EC7
330
DAF
100
AcDbEntity
  8
DEFPOINTS
 62
     0
100
AcDbPoint
 10
7.543125462840634
 20
7.187311841114312
 30
0.0
  0
POINT
  5
1EC8
330
DAF
100
AcDbEntity
  8
DEFPOINTS
 62
     0
100
AcDbPoint
 10
7.543125462840634
 20
8.289311841114312
 30
0.0
  0
POINT
  5
1EC9
330
DAF
100
AcDbEntity
  8
DEFPOINTS
 62
     0
100
AcDbPoint
 10
9.751406462840632
 20
8.289311841114312
 30
0.0
  0
ENDBLK
  5
DBB
330
DAF
100
AcDbEntity
  8
0
100
AcDbBlockEnd
  0
BLOCK
  5
DC8
330
DBD
100
AcDbEntity
  8
0
100
AcDbBlockBegin
  2
*D14
 70
     1
 10
0.0
 20
0.0
 30
0.0
  3
*D14
  1

  0
LINE
  5
1EB6
330
DBD
100
AcDbEntity
  8
DIM
 62
     0
370
    -2
100
AcDbLine
 10
7.669125462840634
 20
7.187311841114312
 30
0.0
 11
9.375406462840633
 21
7.187311841114312
 31
0.0
  0
LINE
  5
1EB7
330
DBD
100
AcDbEntity
  8
DIM
 62
     0
370
    -2
100
AcDbLine
 10
7.669125462840634
 20
6.439311841114312
 30
0.0
 11
9.375406462840633
 21
6.439311841114312
 31
0.0
  0
LINE
  5
1EB8
330
DBD
100
AcDbEntity
  8
DIM
 62
     0
370
    -2
100
AcDbLine
 10
9.189406462840633
 20
7.547311841114312
 30
0.0
 11
9.189406462840633
 21
7.907311841114312
 31
0.0
  0
LINE
  5
1EB9
330
DBD
100
AcDbEntity
  8
DIM
 62
     0
370
    -2
100
AcDbLine
 10
9.189406462840633
 20
6.079311841114312
 30
0.0
 11
9.189406462840633
 21
5.719311841114312
 31
0.0
  0
SOLID
  5
1EBA
330
DBD
100
AcDbEntity
  8
DIM
 62
     0
100
AcDbTrace
 10
9.129406462840632
 20
7.547311841114312
 30
0.0
 11
9.249406462840633
 21
7.547311841114312
 31
0.0
 12
9.189406462840633
 22
7.187311841114312
 32
0.0
 13
9.189406462840633
 23
7.187311841114312
 33
0.0
  0
SOLID
  5
1EBB
330
DBD
100
AcDbEntity
  8
DIM
 62
     0
100
AcDbTrace
 10
9.129406462840632
 20
6.079311841114312
 30
0.0
 11
9.249406462840633
 21
6.079311841114312
 31
0.0
 12
9.189406462840633
 22
6.439311841114312
 32
0.0
 13
9.189406462840633
 23
6.439311841114312
 33
0.0
  0
MTEXT
  5
1EBC
330
DBD
100
AcDbEntity
  8
DIM
 62
     0
100
AcDbMText
 10
9.189406462840631
 20
6.813311841114313
 30
0.0
 40
0.25
 41
0.0
 71
     5
 72
     1
  1
\A1;0.748
 73
     1
 44
1.0
  0
POINT
  5
1EBD
330
DBD
100
AcDbEntity
  8
DEFPOINTS
 62
     0
100
AcDbPoint
 10
7.543125462840634
 20
7.187311841114312
 30
0.0
  0
POINT
  5
1EBE
330
DBD
100
AcDbEntity
  8
DEFPOINTS
 62
     0
100
AcDbPoint
 10
7.543125462840634
 20
6.439311841114312
 30
0.0
  0
POINT
  5
1EBF
330
DBD
100
AcDbEntity
  8
DEFPOINTS
 62
     0
100
AcDbPoint
 10
9.189406462840633
 20
6.439311841114312
 30
0.0
  0
ENDBLK
  5
DC9
330
DBD
100
AcDbEntity
  8
0
100
AcDbBlockEnd
  0
BLOCK
  5
DD6
330
DCB
100
AcDbEntity
  8
0
100
AcDbBlockBegin
  2
*D15
 70
     1
 10
0.0
 20
0.0
 30
0.0
  3
*D15
  1

  0
LINE
  5
1EAC
330
DCB
100
AcDbEntity
  8
DIM
 62
     0
370
    -2
100
AcDbLine
 10
7.669125462840634
 20
7.187311841114312
 30
0.0
 11
10.68540646284063
 21
7.187311841114311
 31
0.0
  0
LINE
  5
1EAD
330
DCB
100
AcDbEntity
  8
DIM
 62
     0
370
    -2
100
AcDbLine
 10
7.669125462840634
 20
6.085311841114312
 30
0.0
 11
10.68540646284063
 21
6.085311841114311
 31
0.0
  0
LINE
  5
1EAE
330
DCB
100
AcDbEntity
  8
DIM
 62
     0
370
    -2
100
AcDbLine
 10
10.49940646284063
 20
7.547311841114312
 30
0.0
 11
10.49940646284063
 21
7.907311841114311
 31
0.0
  0
LINE
  5
1EAF
330
DCB
100
AcDbEntity
  8
DIM
 62
     0
370
    -2
100
AcDbLine
 10
10.49940646284063
 20
5.725311841114311
 30
0.0
 11
10.49940646284063
 21
5.365311841114311
 31
0.0
  0
SOLID
  5
1EB0
330
DCB
100
AcDbEntity
  8
DIM
 62
     0
100
AcDbTrace
 10
10.43940646284063
 20
7.547311841114312
 30
0.0
 11
10.55940646284063
 21
7.547311841114312
 31
0.0
 12
10.49940646284063
 22
7.187311841114311
 32
0.0
 13
10.49940646284063
 23
7.187311841114311
 33
0.0
  0
SOLID
  5
1EB1
330
DCB
100
AcDbEntity
  8
DIM
 62
     0
100
AcDbTrace
 10
10.43940646284063
 20
5.725311841114311
 30
0.0
 11
10.55940646284063
 21
5.725311841114311
 31
0.0
 12
10.49940646284063
 22
6.085311841114311
 32
0.0
 13
10.49940646284063
 23
6.085311841114311
 33
0.0
  0
MTEXT
  5
1EB2
330
DCB
100
AcDbEntity
  8
DIM
 62
     0
100
AcDbMText
 10
10.49940646284063
 20
6.636311841114313
 30
0.0
 40
0.25
 41
0.0
 71
     5
 72
     1
  1
\A1;1.102
 73
     1
 44
1.0
  0
POINT
  5
1EB3
330
DCB
100
AcDbEntity
  8
DEFPOINTS
 62
     0
100
AcDbPoint
 10
7.543125462840634
 20
7.187311841114312
 30
0.0
  0
POINT
  5
1EB4
330
DCB
100
AcDbEntity
  8
DEFPOINTS
 62
     0
100
AcDbPoint
 10
7.543125462840634
 20
6.085311841114312
 30
0.0
  0
POINT
  5
1EB5
330
DCB
100
AcDbEntity
  8
DEFPOINTS
 62
     0
100
AcDbPoint
 10
10.49940646284063
 20
6.085311841114311
 30
0.0
  0
ENDBLK
  5
DD7
330
DCB
100
AcDbEntity
  8
0
100
AcDbBlockEnd
  0
BLOCK
  5
DE4
330
DD9
100
AcDbEntity
  8
0
100
AcDbBlockBegin
  2
*D16
 70
     1
 10
0.0
 20
0.0
 30
0.0
  3
*D16
  1

  0
LINE
  5
1E7A
330
DD9
100
AcDbEntity
  8
DIM
 62
     0
370
    -2
100
AcDbLine
 10
3.402125462840634
 20
5.494311841114313
 30
0.0
 11
1.510111462840632
 21
5.494311841114313
 31
0.0
  0
LINE
  5
1E7B
330
DD9
100
AcDbEntity
  8
DIM
 62
     0
370
    -2
100
AcDbLine
 10
3.402125462840634
 20
8.880311841114313
 30
0.0
 11
1.510111462840633
 21
8.880311841114313
 31
0.0
  0
LINE
  5
1E7C
330
DD9
100
AcDbEntity
  8
DIM
 62
     0
370
    -2
100
AcDbLine
 10
1.696111462840633
 20
5.854311841114314
 30
0.0
 11
1.696111462840633
 21
6.882311841114313
 31
0.0
  0
LINE
  5
1E7D
330
DD9
100
AcDbEntity
  8
DIM
 62
     0
370
    -2
100
AcDbLine
 10
1.696111462840633
 20
8.520311841114313
 30
0.0
 11
1.696111462840633
 21
7.492311841114313
 31
0.0
  0
SOLID
  5
1E7E
330
DD9
100
AcDbEntity
  8
DIM
 62
     0
100
AcDbTrace
 10
1.636111462840633
 20
5.854311841114314
 30
0.0
 11
1.756111462840633
 21
5.854311841114314
 31
0.0
 12
1.696111462840633
 22
5.494311841114313
 32
0.0
 13
1.696111462840633
 23
5.494311841114313
 33
0.0
  0
SOLID
  5
1E7F
330
DD9
100
AcDbEntity
  8
DIM
 62
     0
100
AcDbTrace
 10
1.636111462840633
 20
8.520311841114313
 30
0.0
 11
1.756111462840634
 21
8.520311841114313
 31
0.0
 12
1.696111462840633
 22
8.880311841114313
 32
0.0
 13
1.696111462840633
 23
8.880311841114313
 33
0.0
  0
MTEXT
  5
1E80
330
DD9
100
AcDbEntity
  8
DIM
 62
     0
100
AcDbMText
 10
1.696111462840632
 20
7.187311841114313
 30
0.0
 40
0.25
 41
0.0
 71
     5
 72
     1
  1
\A1;3.386
 73
     1
 44
1.0
  0
POINT
  5
1E81
330
DD9
100
AcDbEntity
  8
DEFPOINTS
 62
     0
100
AcDbPoint
 10
3.528125462840633
 20
5.494311841114313
 30
0.0
  0
POINT
  5
1E82
330
DD9
100
AcDbEntity
  8
DEFPOINTS
 62
     0
100
AcDbPoint
 10
3.528125462840633
 20
8.880311841114313
 30
0.0
  0
POINT
  5
1E83
330
DD9
100
AcDbEntity
  8
DEFPOINTS
 62
     0
100
AcDbPoint
 10
1.696111462840633
 20
8.880311841114313
 30
0.0
  0
ENDBLK
  5
DE5
330
DD9
100
AcDbEntity
  8
0
100
AcDbBlockEnd
  0
BLOCK
  5
DF2
330
DE7
100
AcDbEntity
  8
0
100
AcDbBlockBegin
  2
*D17
 70
     1
 10
0.0
 20
0.0
 30
0.0
  3
*D17
  1

  0
LINE
  5
1E8E
330
DE7
100
AcDbEntity
  8
DIM
 62
     0
370
    -2
100
AcDbLine
 10
3.402125462840634
 20
8.880311841114313
 30
0.0
 11
1.510111462840633
 21
8.880311841114313
 31
0.0
  0
LINE
  5
1E8F
330
DE7
100
AcDbEntity
  8
DIM
 62
     0
370
    -2
100
AcDbLine
 10
3.376125462840633
 20
9.549311841114311
 30
0.0
 11
1.510111462840634
 21
9.549311841114311
 31
0.0
  0
LINE
  5
1E90
330
DE7
100
AcDbEntity
  8
DIM
 62
     0
370
    -2
100
AcDbLine
 10
1.696111462840633
 20
8.520311841114313
 30
0.0
 11
1.696111462840633
 21
8.160311841114312
 31
0.0
  0
LINE
  5
1E91
330
DE7
100
AcDbEntity
  8
DIM
 62
     0
370
    -2
100
AcDbLine
 10
1.696111462840633
 20
9.909311841114311
 30
0.0
 11
1.696111462840633
 21
10.26931184111431
 31
0.0
  0
SOLID
  5
1E92
330
DE7
100
AcDbEntity
  8
DIM
 62
     0
100
AcDbTrace
 10
1.636111462840633
 20
8.520311841114313
 30
0.0
 11
1.756111462840633
 21
8.520311841114313
 31
0.0
 12
1.696111462840633
 22
8.880311841114313
 32
0.0
 13
1.696111462840633
 23
8.880311841114313
 33
0.0
  0
SOLID
  5
1E93
330
DE7
100
AcDbEntity
  8
DIM
 62
     0
100
AcDbTrace
 10
1.636111462840633
 20
9.909311841114311
 30
0.0
 11
1.756111462840634
 21
9.909311841114311
 31
0.0
 12
1.696111462840633
 22
9.549311841114311
 32
0.0
 13
1.696111462840633
 23
9.549311841114311
 33
0.0
  0
MTEXT
  5
1E94
330
DE7
100
AcDbEntity
  8
DIM
 62
     0
100
AcDbMText
 10
1.696111462840632
 20
9.214811841114311
 30
0.0
 40
0.25
 41
0.0
 71
     5
 72
     1
  1
\A1;0.669
 73
     1
 44
1.0
  0
POINT
  5
1E95
330
DE7
100
AcDbEntity
  8
DEFPOINTS
 62
     0
100
AcDbPoint
 10
3.528125462840633
 20
8.880311841114313
 30
0.0
  0
POINT
  5
1E96
330
DE7
100
AcDbEntity
  8
DEFPOINTS
 62
     0
100
AcDbPoint
 10
3.502125462840633
 20
9.549311841114311
 30
0.0
  0
POINT
  5
1E97
330
DE7
100
AcDbEntity
  8
DEFPOINTS
 62
     0
100
AcDbPoint
 10
1.696111462840633
 20
9.549311841114311
 30
0.0
  0
ENDBLK
  5
DF3
330
DE7
100
AcDbEntity
  8
0
100
AcDbBlockEnd
  0
BLOCK
  5
E00
330
DF5
100
AcDbEntity
  8
0
100
AcDbBlockBegin
  2
*D18
 70
     1
 10
0.0
 20
0.0
 30
0.0
  3
*D18
  1

  0
LINE
  5
1E98
330
DF5
100
AcDbEntity
  8
DIM
 62
     0
370
    -2
100
AcDbLine
 10
7.826125462840633
 20
5.101311841114312
 30
0.0
 11
11.43340646284063
 21
5.101311841114311
 31
0.0
  0
LINE
  5
1E99
330
DF5
100
AcDbEntity
  8
DIM
 62
     0
370
    -2
100
AcDbLine
 10
7.826125462840633
 20
9.273311841114312
 30
0.0
 11
11.43340646284063
 21
9.273311841114312
 31
0.0
  0
LINE
  5
1E9A
330
DF5
100
AcDbEntity
  8
DIM
 62
     0
370
    -2
100
AcDbLine
 10
11.24740646284063
 20
5.461311841114311
 30
0.0
 11
11.24740646284063
 21
6.882311841114312
 31
0.0
  0
LINE
  5
1E9B
330
DF5
100
AcDbEntity
  8
DIM
 62
     0
370
    -2
100
AcDbLine
 10
11.24740646284063
 20
8.913311841114312
 30
0.0
 11
11.24740646284063
 21
7.492311841114311
 31
0.0
  0
SOLID
  5
1E9C
330
DF5
100
AcDbEntity
  8
DIM
 62
     0
100
AcDbTrace
 10
11.18740646284063
 20
5.461311841114311
 30
0.0
 11
11.30740646284063
 21
5.461311841114311
 31
0.0
 12
11.24740646284063
 22
5.101311841114311
 32
0.0
 13
11.24740646284063
 23
5.101311841114311
 33
0.0
  0
SOLID
  5
1E9D
330
DF5
100
AcDbEntity
  8
DIM
 62
     0
100
AcDbTrace
 10
11.18740646284063
 20
8.913311841114312
 30
0.0
 11
11.30740646284063
 21
8.913311841114312
 31
0.0
 12
11.24740646284063
 22
9.273311841114312
 32
0.0
 13
11.24740646284063
 23
9.273311841114312
 33
0.0
  0
MTEXT
  5
1E9E
330
DF5
100
AcDbEntity
  8
DIM
 62
     0
100
AcDbMText
 10
11.24740646284063
 20
7.187311841114313
 30
0.0
 40
0.25
 41
0.0
 71
     5
 72
     1
  1
\A1;4.172
 73
     1
 44
1.0
  0
POINT
  5
1E9F
330
DF5
100
AcDbEntity
  8
DEFPOINTS
 62
     0
100
AcDbPoint
 10
7.700125462840633
 20
5.101311841114312
 30
0.0
  0
POINT
  5
1EA0
330
DF5
100
AcDbEntity
  8
DEFPOINTS
 62
     0
100
AcDbPoint
 10
7.700125462840633
 20
9.273311841114312
 30
0.0
  0
POINT
  5
1EA1
330
DF5
100
AcDbEntity
  8
DEFPOINTS
 62
     0
100
AcDbPoint
 10
11.24740646284063
 20
9.273311841114312
 30
0.0
  0
ENDBLK
  5
E01
330
DF5
100
AcDbEntity
  8
0
100
AcDbBlockEnd
  0
BLOCK
  5
E0E
330
E03
100
AcDbEntity
  8
0
100
AcDbBlockBegin
  2
*D19
 70
     1
 10
0.0
 20
0.0
 30
0.0
  3
*D19
  1

  0
LINE
  5
1DEC
330
E03
100
AcDbEntity
  8
DIM
 62
     0
370
    -2
100
AcDbLine
 10
7.826125462840633
 20
9.273311841114312
 30
0.0
 11
11.43340646284063
 21
9.273311841114312
 31
0.0
  0
LINE
  5
1DED
330
E03
100
AcDbEntity
  8
DIM
 62
     0
370
    -2
100
AcDbLine
 10
7.852125462840633
 20
9.549311841114311
 30
0.0
 11
11.43340646284063
 21
9.549311841114311
 31
0.0
  0
LINE
  5
1DEE
330
E03
100
AcDbEntity
  8
DIM
 62
     0
370
    -2
100
AcDbLine
 10
11.24740646284063
 20
8.913311841114312
 30
0.0
 11
11.24740646284063
 21
8.553311841114311
 31
0.0
  0
LINE
  5
1DEF
330
E03
100
AcDbEntity
  8
DIM
 62
     0
370
    -2
100
AcDbLine
 10
11.24740646284063
 20
9.909311841114311
 30
0.0
 11
11.24740646284063
 21
10.26931184111431
 31
0.0
  0
LINE
  5
1DF0
330
E03
100
AcDbEntity
  8
DIM
 62
     0
370
    -2
100
AcDbLine
 10
11.24740646284063
 20
10.26931184111431
 30
0.0
 11
11.60740646284063
 21
10.26931184111431
 31
0.0
  0
SOLID
  5
1DF1
330
E03
100
AcDbEntity
  8
DIM
 62
     0
100
AcDbTrace
 10
11.18740646284063
 20
8.913311841114312
 30
0.0
 11
11.30740646284063
 21
8.913311841114312
 31
0.0
 12
11.24740646284063
 22
9.273311841114312
 32
0.0
 13
11.24740646284063
 23
9.273311841114312
 33
0.0
  0
SOLID
  5
1DF2
330
E03
100
AcDbEntity
  8
DIM
 62
     0
100
AcDbTrace
 10
11.18740646284063
 20
9.909311841114311
 30
0.0
 11
11.30740646284063
 21
9.909311841114311
 31
0.0
 12
11.24740646284063
 22
9.549311841114311
 32
0.0
 13
11.24740646284063
 23
9.549311841114311
 33
0.0
  0
MTEXT
  5
1DF3
330
E03
100
AcDbEntity
  8
DIM
 62
     0
100
AcDbMText
 10
12.14678146284063
 20
10.26931184111431
 30
0.0
 40
0.25
 41
0.0
 71
     5
 72
     1
  1
\A1;0.276
 73
     1
 44
1.0
  0
POINT
  5
1DF4
330
E03
100
AcDbEntity
  8
DEFPOINTS
 62
     0
100
AcDbPoint
 10
7.700125462840633
 20
9.273311841114312
 30
0.0
  0
POINT
  5
1DF5
330
E03
100
AcDbEntity
  8
DEFPOINTS
 62
     0
100
AcDbPoint
 10
7.726125462840633
 20
9.549311841114311
 30
0.0
  0
POINT
  5
1DF6
330
E03
100
AcDbEntity
  8
DEFPOINTS
 62
     0
100
AcDbPoint
 10
11.24740646284063
 20
9.549311841114311
 30
0.0
  0
ENDBLK
  5
E0F
330
E03
100
AcDbEntity
  8
0
100
AcDbBlockEnd
  0
BLOCK
  5
E1C
330
E11
100
AcDbEntity
  8
0
100
AcDbBlockBegin
  2
*D20
 70
     1
 10
0.0
 20
0.0
 30
0.0
  3
*D20
  1

  0
LINE
  5
1E70
330
E11
100
AcDbEntity
  8
DIM
 62
     0
370
    -2
100
AcDbLine
 10
3.376125462840633
 20
5.763311841114312
 30
0.0
 11
2.490111462840633
 21
5.763311841114312
 31
0.0
  0
LINE
  5
1E71
330
E11
100
AcDbEntity
  8
DIM
 62
     0
370
    -2
100
AcDbLine
 10
3.376125462840633
 20
8.611311841114313
 30
0.0
 11
2.490111462840634
 21
8.611311841114313
 31
0.0
  0
LINE
  5
1E72
330
E11
100
AcDbEntity
  8
DIM
 62
     0
370
    -2
100
AcDbLine
 10
2.676111462840633
 20
6.123311841114312
 30
0.0
 11
2.676111462840633
 21
6.882311841114312
 31
0.0
  0
LINE
  5
1E73
330
E11
100
AcDbEntity
  8
DIM
 62
     0
370
    -2
100
AcDbLine
 10
2.676111462840633
 20
8.251311841114313
 30
0.0
 11
2.676111462840633
 21
7.492311841114312
 31
0.0
  0
SOLID
  5
1E74
330
E11
100
AcDbEntity
  8
DIM
 62
     0
100
AcDbTrace
 10
2.616111462840633
 20
6.123311841114312
 30
0.0
 11
2.736111462840633
 21
6.123311841114312
 31
0.0
 12
2.676111462840633
 22
5.763311841114312
 32
0.0
 13
2.676111462840633
 23
5.763311841114312
 33
0.0
  0
SOLID
  5
1E75
330
E11
100
AcDbEntity
  8
DIM
 62
     0
100
AcDbTrace
 10
2.616111462840633
 20
8.251311841114313
 30
0.0
 11
2.736111462840634
 21
8.251311841114313
 31
0.0
 12
2.676111462840633
 22
8.611311841114313
 32
0.0
 13
2.676111462840633
 23
8.611311841114313
 33
0.0
  0
MTEXT
  5
1E76
330
E11
100
AcDbEntity
  8
DIM
 62
     0
100
AcDbMText
 10
2.676111462840632
 20
7.187311841114313
 30
0.0
 40
0.25
 41
0.0
 71
     5
 72
     1
  1
\A1;2.848
 73
     1
 44
1.0
  0
POINT
  5
1E77
330
E11
100
AcDbEntity
  8
DEFPOINTS
 62
     0
100
AcDbPoint
 10
3.502125462840633
 20
5.763311841114312
 30
0.0
  0
POINT
  5
1E78
330
E11
100
AcDbEntity
  8
DEFPOINTS
 62
     0
100
AcDbPoint
 10
3.502125462840633
 20
8.611311841114313
 30
0.0
  0
POINT
  5
1E79
330
E11
100
AcDbEntity
  8
DEFPOINTS
 62
     0
100
AcDbPoint
 10
2.676111462840633
 20
8.611311841114313
 30
0.0
  0
ENDBLK
  5
E1D
330
E11
100
AcDbEntity
  8
0
100
AcDbBlockEnd
  0
BLOCK
  5
E2A
330
E1F
100
AcDbEntity
  8
0
100
AcDbBlockBegin
  2
*D21
 70
     1
 10
0.0
 20
0.0
 30
0.0
  3
*D21
  1

  0
LINE
  5
1E84
330
E1F
100
AcDbEntity
  8
DIM
 62
     0
370
    -2
100
AcDbLine
 10
3.376125462840633
 20
8.611311841114313
 30
0.0
 11
2.490111462840633
 21
8.611311841114313
 31
0.0
  0
LINE
  5
1E85
330
E1F
100
AcDbEntity
  8
DIM
 62
     0
370
    -2
100
AcDbLine
 10
3.376125462840633
 20
9.549311841114311
 30
0.0
 11
2.490111462840634
 21
9.549311841114311
 31
0.0
  0
LINE
  5
1E86
330
E1F
100
AcDbEntity
  8
DIM
 62
     0
370
    -2
100
AcDbLine
 10
2.676111462840633
 20
8.251311841114313
 30
0.0
 11
2.676111462840633
 21
7.891311841114312
 31
0.0
  0
LINE
  5
1E87
330
E1F
100
AcDbEntity
  8
DIM
 62
     0
370
    -2
100
AcDbLine
 10
2.676111462840633
 20
9.909311841114311
 30
0.0
 11
2.676111462840633
 21
10.26931184111431
 31
0.0
  0
SOLID
  5
1E88
330
E1F
100
AcDbEntity
  8
DIM
 62
     0
100
AcDbTrace
 10
2.616111462840633
 20
8.251311841114313
 30
0.0
 11
2.736111462840633
 21
8.251311841114313
 31
0.0
 12
2.676111462840633
 22
8.611311841114313
 32
0.0
 13
2.676111462840633
 23
8.611311841114313
 33
0.0
  0
SOLID
  5
1E89
330
E1F
100
AcDbEntity
  8
DIM
 62
     0
100
AcDbTrace
 10
2.616111462840633
 20
9.909311841114311
 30
0.0
 11
2.736111462840634
 21
9.909311841114311
 31
0.0
 12
2.676111462840633
 22
9.549311841114311
 32
0.0
 13
2.676111462840633
 23
9.549311841114311
 33
0.0
  0
MTEXT
  5
1E8A
330
E1F
100
AcDbEntity
  8
DIM
 62
     0
100
AcDbMText
 10
2.676111462840632
 20
9.080311841114312
 30
0.0
 40
0.25
 41
0.0
 71
     5
 72
     1
  1
\A1;0.938
 73
     1
 44
1.0
  0
POINT
  5
1E8B
330
E1F
100
AcDbEntity
  8
DEFPOINTS
 62
     0
100
AcDbPoint
 10
3.502125462840633
 20
8.611311841114313
 30
0.0
  0
POINT
  5
1E8C
330
E1F
100
AcDbEntity
  8
DEFPOINTS
 62
     0
100
AcDbPoint
 10
3.502125462840633
 20
9.549311841114311
 30
0.0
  0
POINT
  5
1E8D
330
E1F
100
AcDbEntity
  8
DEFPOINTS
 62
     0
100
AcDbPoint
 10
2.676111462840633
 20
9.549311841114311
 30
0.0
  0
ENDBLK
  5
E2B
330
E1F
100
AcDbEntity
  8
0
100
AcDbBlockEnd
  0
BLOCK
  5
E38
330
E2D
100
AcDbEntity
  8
0
100
AcDbBlockBegin
  2
*D22
 70
     1
 10
0.0
 20
0.0
 30
0.0
  3
*D22
  1

  0
LINE
  5
1E5C
330
E2D
100
AcDbEntity
  8
DIM
 62
     0
370
    -2
100
AcDbLine
 10
3.376125462840633
 20
9.549311841114311
 30
0.0
 11
0.5301114628406349
 21
9.549311841114311
 31
0.0
  0
LINE
  5
1E5D
330
E2D
100
AcDbEntity
  8
DIM
 62
     0
370
    -2
100
AcDbLine
 10
3.376125462840633
 20
4.825311841114312
 30
0.0
 11
0.5301114628406339
 21
4.825311841114313
 31
0.0
  0
LINE
  5
1E5E
330
E2D
100
AcDbEntity
  8
DIM
 62
     0
370
    -2
100
AcDbLine
 10
0.7161114628406347
 20
9.189311841114312
 30
0.0
 11
0.7161114628406344
 21
7.492311841114313
 31
0.0
  0
LINE
  5
1E5F
330
E2D
100
AcDbEntity
  8
DIM
 62
     0
370
    -2
100
AcDbLine
 10
0.7161114628406338
 20
5.185311841114313
 30
0.0
 11
0.7161114628406342
 21
6.882311841114313
 31
0.0
  0
SOLID
  5
1E60
330
E2D
100
AcDbEntity
  8
DIM
 62
     0
100
AcDbTrace
 10
0.6561114628406346
 20
9.189311841114312
 30
0.0
 11
0.7761114628406347
 21
9.189311841114312
 31
0.0
 12
0.7161114628406348
 22
9.549311841114311
 32
0.0
 13
0.7161114628406348
 23
9.549311841114311
 33
0.0
  0
SOLID
  5
1E61
330
E2D
100
AcDbEntity
  8
DIM
 62
     0
100
AcDbTrace
 10
0.6561114628406337
 20
5.185311841114313
 30
0.0
 11
0.7761114628406338
 21
5.185311841114313
 31
0.0
 12
0.7161114628406338
 22
4.825311841114313
 32
0.0
 13
0.7161114628406338
 23
4.825311841114313
 33
0.0
  0
MTEXT
  5
1E62
330
E2D
100
AcDbEntity
  8
DIM
 62
     0
100
AcDbMText
 10
0.7161114628406331
 20
7.187311841114313
 30
0.0
 40
0.25
 41
0.0
 71
     5
 72
     1
  1
\A1;4.724
 73
     1
 44
1.0
  0
POINT
  5
1E63
330
E2D
100
AcDbEntity
  8
DEFPOINTS
 62
     0
100
AcDbPoint
 10
3.502125462840633
 20
9.549311841114311
 30
0.0
  0
POINT
  5
1E64
330
E2D
100
AcDbEntity
  8
DEFPOINTS
 62
     0
100
AcDbPoint
 10
3.502125462840633
 20
4.825311841114312
 30
0.0
  0
POINT
  5
1E65
330
E2D
100
AcDbEntity
  8
DEFPOINTS
 62
     0
100
AcDbPoint
 10
0.7161114628406338
 20
4.825311841114313
 30
0.0
  0
ENDBLK
  5
E39
330
E2D
100
AcDbEntity
  8
0
100
AcDbBlockEnd
  0
BLOCK
  5
E46
330
E3B
100
AcDbEntity
  8
0
100
AcDbBlockBegin
  2
*D23
 70
     1
 10
0.0
 20
0.0
 30
0.0
  3
*D23
  1

  0
LINE
  5
1E66
330
E3B
100
AcDbEntity
  8
DIM
 62
     0
370
    -2
100
AcDbLine
 10
5.488125462840633
 20
5.218311841114312
 30
0.0
 11
4.585342462840633
 21
5.218311841114312
 31
0.0
  0
LINE
  5
1E67
330
E3B
100
AcDbEntity
  8
DIM
 62
     0
370
    -2
100
AcDbLine
 10
5.488125462840633
 20
9.156311841114312
 30
0.0
 11
4.585342462840634
 21
9.156311841114312
 31
0.0
  0
LINE
  5
1E68
330
E3B
100
AcDbEntity
  8
DIM
 62
     0
370
    -2
100
AcDbLine
 10
4.771342462840633
 20
5.578311841114312
 30
0.0
 11
4.771342462840634
 21
6.882311841114313
 31
0.0
  0
LINE
  5
1E69
330
E3B
100
AcDbEntity
  8
DIM
 62
     0
370
    -2
100
AcDbLine
 10
4.771342462840634
 20
8.796311841114313
 30
0.0
 11
4.771342462840634
 21
7.492311841114313
 31
0.0
  0
SOLID
  5
1E6A
330
E3B
100
AcDbEntity
  8
DIM
 62
     0
100
AcDbTrace
 10
4.711342462840633
 20
5.578311841114312
 30
0.0
 11
4.831342462840632
 21
5.578311841114312
 31
0.0
 12
4.771342462840633
 22
5.218311841114312
 32
0.0
 13
4.771342462840633
 23
5.218311841114312
 33
0.0
  0
SOLID
  5
1E6B
330
E3B
100
AcDbEntity
  8
DIM
 62
     0
100
AcDbTrace
 10
4.711342462840634
 20
8.796311841114313
 30
0.0
 11
4.831342462840633
 21
8.796311841114313
 31
0.0
 12
4.771342462840634
 22
9.156311841114312
 32
0.0
 13
4.771342462840634
 23
9.156311841114312
 33
0.0
  0
MTEXT
  5
1E6C
330
E3B
100
AcDbEntity
  8
DIM
 62
     0
100
AcDbMText
 10
4.771342462840632
 20
7.187311841114314
 30
0.0
 40
0.25
 41
0.0
 71
     5
 72
     1
  1
\A1;3.938
 73
     1
 44
1.0
  0
POINT
  5
1E6D
330
E3B
100
AcDbEntity
  8
DEFPOINTS
 62
     0
100
AcDbPoint
 10
5.614125462840633
 20
5.218311841114312
 30
0.0
  0
POINT
  5
1E6E
330
E3B
100
AcDbEntity
  8
DEFPOINTS
 62
     0
100
AcDbPoint
 10
5.614125462840633
 20
9.156311841114312
 30
0.0
  0
POINT
  5
1E6F
330
E3B
100
AcDbEntity
  8
DEFPOINTS
 62
     0
100
AcDbPoint
 10
4.771342462840634
 20
9.156311841114312
 30
0.0
  0
ENDBLK
  5
E47
330
E3B
100
AcDbEntity
  8
0
100
AcDbBlockEnd
  0
BLOCK
  5
E54
330
E49
100
AcDbEntity
  8
0
100
AcDbBlockBegin
  2
*D24
 70
     1
 10
0.0
 20
0.0
 30
0.0
  3
*D24
  1

  0
LINE
  5
1E3E
330
E49
100
AcDbEntity
  8
DIM
 62
     0
370
    -2
100
AcDbLine
 10
3.370125462840633
 20
6.572572841114313
 30
0.0
 11
3.370125462840633
 21
6.896343841114311
 31
0.0
  0
LINE
  5
1E3F
330
E49
100
AcDbEntity
  8
DIM
 62
     0
370
    -2
100
AcDbLine
 10
7.858125462840634
 20
6.572572841114313
 30
0.0
 11
7.858125462840634
 21
6.896343841114311
 31
0.0
  0
LINE
  5
1E40
330
E49
100
AcDbEntity
  8
DIM
 62
     0
370
    -2
100
AcDbLine
 10
3.730125462840633
 20
6.710343841114311
 30
0.0
 11
5.059125462840634
 21
6.710343841114311
 31
0.0
  0
LINE
  5
1E41
330
E49
100
AcDbEntity
  8
DIM
 62
     0
370
    -2
100
AcDbLine
 10
7.498125462840634
 20
6.710343841114311
 30
0.0
 11
6.169125462840633
 21
6.710343841114311
 31
0.0
  0
SOLID
  5
1E42
330
E49
100
AcDbEntity
  8
DIM
 62
     0
100
AcDbTrace
 10
3.730125462840633
 20
6.770343841114311
 30
0.0
 11
3.730125462840633
 21
6.650343841114311
 31
0.0
 12
3.370125462840633
 22
6.710343841114311
 32
0.0
 13
3.370125462840633
 23
6.710343841114311
 33
0.0
  0
SOLID
  5
1E43
330
E49
100
AcDbEntity
  8
DIM
 62
     0
100
AcDbTrace
 10
7.498125462840634
 20
6.770343841114311
 30
0.0
 11
7.498125462840634
 21
6.650343841114311
 31
0.0
 12
7.858125462840634
 22
6.710343841114311
 32
0.0
 13
7.858125462840634
 23
6.710343841114311
 33
0.0
  0
MTEXT
  5
1E44
330
E49
100
AcDbEntity
  8
DIM
 62
     0
100
AcDbMText
 10
5.614125462840633
 20
6.710343841114311
 30
0.0
 40
0.25
 41
0.0
 71
     5
 72
     1
  1
\A1;4.488
 73
     1
 44
1.0
  0
POINT
  5
1E45
330
E49
100
AcDbEntity
  8
DEFPOINTS
 62
     0
100
AcDbPoint
 10
3.370125462840633
 20
6.446572841114313
 30
0.0
  0
POINT
  5
1E46
330
E49
100
AcDbEntity
  8
DEFPOINTS
 62
     0
100
AcDbPoint
 10
7.858125462840634
 20
6.446572841114313
 30
0.0
  0
POINT
  5
1E47
330
E49
100
AcDbEntity
  8
DEFPOINTS
 62
     0
100
AcDbPoint
 10
7.858125462840634
 20
6.710343841114311
 30
0.0
  0
ENDBLK
  5
E55
330
E49
100
AcDbEntity
  8
0
100
AcDbBlockEnd
  0
BLOCK
  5
E62
330
E57
100
AcDbEntity
  8
0
100
AcDbBlockBegin
  2
*D25
 70
     1
 10
0.0
 20
0.0
 30
0.0
  3
*D25
  1

  0
LINE
  5
1EA2
330
E57
100
AcDbEntity
  8
DIM
 62
     0
370
    -2
100
AcDbLine
 10
6.432648462840632
 20
4.943311841114312
 30
0.0
 11
6.278148462840632
 21
4.943311841114312
 31
0.0
  0
LINE
  5
1EA3
330
E57
100
AcDbEntity
  8
DIM
 62
     0
370
    -2
100
AcDbLine
 10
6.432648462840632
 20
9.431311841114313
 30
0.0
 11
6.278148462840633
 21
9.431311841114313
 31
0.0
  0
LINE
  5
1EA4
330
E57
100
AcDbEntity
  8
DIM
 62
     0
370
    -2
100
AcDbLine
 10
6.464148462840632
 20
5.303311841114313
 30
0.0
 11
6.464148462840633
 21
6.882311841114313
 31
0.0
  0
LINE
  5
1EA5
330
E57
100
AcDbEntity
  8
DIM
 62
     0
370
    -2
100
AcDbLine
 10
6.464148462840633
 20
9.071311841114313
 30
0.0
 11
6.464148462840633
 21
7.492311841114313
 31
0.0
  0
SOLID
  5
1EA6
330
E57
100
AcDbEntity
  8
DIM
 62
     0
100
AcDbTrace
 10
6.404148462840632
 20
5.303311841114313
 30
0.0
 11
6.524148462840631
 21
5.303311841114313
 31
0.0
 12
6.464148462840632
 22
4.943311841114312
 32
0.0
 13
6.464148462840632
 23
4.943311841114312
 33
0.0
  0
SOLID
  5
1EA7
330
E57
100
AcDbEntity
  8
DIM
 62
     0
100
AcDbTrace
 10
6.404148462840633
 20
9.071311841114313
 30
0.0
 11
6.524148462840632
 21
9.071311841114313
 31
0.0
 12
6.464148462840633
 22
9.431311841114313
 32
0.0
 13
6.464148462840633
 23
9.431311841114313
 33
0.0
  0
MTEXT
  5
1EA8
330
E57
100
AcDbEntity
  8
DIM
 62
     0
100
AcDbMText
 10
6.464148462840631
 20
7.187311841114315
 30
0.0
 40
0.25
 41
0.0
 71
     5
 72
     1
  1
\A1;4.488
 73
     1
 44
1.0
  0
POINT
  5
1EA9
330
E57
100
AcDbEntity
  8
DEFPOINTS
 62
     0
100
AcDbPoint
 10
6.558648462840633
 20
4.943311841114312
 30
0.0
  0
POINT
  5
1EAA
330
E57
100
AcDbEntity
  8
DEFPOINTS
 62
     0
100
AcDbPoint
 10
6.558648462840633
 20
9.431311841114313
 30
0.0
  0
POINT
  5
1EAB
330
E57
100
AcDbEntity
  8
DEFPOINTS
 62
     0
100
AcDbPoint
 10
6.464148462840633
 20
9.431311841114313
 30
0.0
  0
ENDBLK
  5
E63
330
E57
100
AcDbEntity
  8
0
100
AcDbBlockEnd
  0
BLOCK
  5
E70
330
E65
100
AcDbEntity
  8
0
100
AcDbBlockBegin
  2
*D26
 70
     1
 10
0.0
 20
0.0
 30
0.0
  3
*D26
  1

  0
LINE
  5
1E33
330
E65
100
AcDbEntity
  8
DIM
 62
     0
370
    -2
100
AcDbLine
 10
6.432648462840632
 20
4.943311841114312
 30
0.0
 11
6.278148462840633
 21
4.943311841114312
 31
0.0
  0
LINE
  5
1E34
330
E65
100
AcDbEntity
  8
DIM
 62
     0
370
    -2
100
AcDbLine
 10
6.432648462840632
 20
4.825311841114312
 30
0.0
 11
6.278148462840633
 21
4.825311841114312
 31
0.0
  0
LINE
  5
1E35
330
E65
100
AcDbEntity
  8
DIM
 62
     0
370
    -2
100
AcDbLine
 10
6.464148462840633
 20
5.303311841114313
 30
0.0
 11
6.464148462840633
 21
5.663311841114312
 31
0.0
  0
LINE
  5
1E36
330
E65
100
AcDbEntity
  8
DIM
 62
     0
370
    -2
100
AcDbLine
 10
6.464148462840633
 20
4.465311841114312
 30
0.0
 11
6.464148462840633
 21
4.105311841114312
 31
0.0
  0
LINE
  5
1E37
330
E65
100
AcDbEntity
  8
DIM
 62
     0
370
    -2
100
AcDbLine
 10
6.464148462840633
 20
4.105311841114312
 30
0.0
 11
6.104148462840632
 21
4.105311841114312
 31
0.0
  0
SOLID
  5
1E38
330
E65
100
AcDbEntity
  8
DIM
 62
     0
100
AcDbTrace
 10
6.404148462840633
 20
5.303311841114313
 30
0.0
 11
6.524148462840632
 21
5.303311841114313
 31
0.0
 12
6.464148462840633
 22
4.943311841114312
 32
0.0
 13
6.464148462840633
 23
4.943311841114312
 33
0.0
  0
SOLID
  5
1E39
330
E65
100
AcDbEntity
  8
DIM
 62
     0
100
AcDbTrace
 10
6.404148462840633
 20
4.465311841114312
 30
0.0
 11
6.524148462840632
 21
4.465311841114312
 31
0.0
 12
6.464148462840633
 22
4.825311841114312
 32
0.0
 13
6.464148462840633
 23
4.825311841114312
 33
0.0
  0
MTEXT
  5
1E3A
330
E65
100
AcDbEntity
  8
DIM
 62
     0
100
AcDbMText
 10
5.221023462840632
 20
4.105311841114314
 30
0.0
 40
0.25
 41
0.0
 71
     5
 72
     1
  1
\A1;0.118 TYP.
 73
     1
 44
1.0
  0
POINT
  5
1E3B
330
E65
100
AcDbEntity
  8
DEFPOINTS
 62
     0
100
AcDbPoint
 10
6.558648462840633
 20
4.943311841114312
 30
0.0
  0
POINT
  5
1E3C
330
E65
100
AcDbEntity
  8
DEFPOINTS
 62
     0
100
AcDbPoint
 10
6.558648462840633
 20
4.825311841114312
 30
0.0
  0
POINT
  5
1E3D
330
E65
100
AcDbEntity
  8
DEFPOINTS
 62
     0
100
AcDbPoint
 10
6.464148462840633
 20
4.825311841114312
 30
0.0
  0
ENDBLK
  5
E71
330
E65
100
AcDbEntity
  8
0
100
AcDbBlockEnd
  0
BLOCK
  5
E7E
330
E73
100
AcDbEntity
  8
0
100
AcDbBlockBegin
  2
*D27
 70
     1
 10
0.0
 20
0.0
 30
0.0
  3
*D27
  1

  0
LINE
  5
1DE1
330
E73
100
AcDbEntity
  8
DIM
 62
     0
370
    -2
100
AcDbLine
 10
5.488125462840633
 20
9.156311841114312
 30
0.0
 11
4.075534462840634
 21
9.156311841114312
 31
0.0
  0
LINE
  5
1DE2
330
E73
100
AcDbEntity
  8
DIM
 62
     0
370
    -2
100
AcDbLine
 10
4.865788462840633
 20
9.549311841114311
 30
0.0
 11
4.075534462840634
 21
9.549311841114311
 31
0.0
  0
LINE
  5
1DE3
330
E73
100
AcDbEntity
  8
DIM
 62
     0
370
    -2
100
AcDbLine
 10
4.261534462840634
 20
8.796311841114313
 30
0.0
 11
4.261534462840634
 21
8.436311841114312
 31
0.0
  0
LINE
  5
1DE4
330
E73
100
AcDbEntity
  8
DIM
 62
     0
370
    -2
100
AcDbLine
 10
4.261534462840634
 20
9.909311841114311
 30
0.0
 11
4.261534462840635
 21
10.26931184111431
 31
0.0
  0
LINE
  5
1DE5
330
E73
100
AcDbEntity
  8
DIM
 62
     0
370
    -2
100
AcDbLine
 10
4.261534462840635
 20
10.26931184111431
 30
0.0
 11
4.621534462840635
 21
10.26931184111431
 31
0.0
  0
SOLID
  5
1DE6
330
E73
100
AcDbEntity
  8
DIM
 62
     0
100
AcDbTrace
 10
4.201534462840634
 20
8.796311841114313
 30
0.0
 11
4.321534462840634
 21
8.796311841114313
 31
0.0
 12
4.261534462840634
 22
9.156311841114312
 32
0.0
 13
4.261534462840634
 23
9.156311841114312
 33
0.0
  0
SOLID
  5
1DE7
330
E73
100
AcDbEntity
  8
DIM
 62
     0
100
AcDbTrace
 10
4.201534462840634
 20
9.909311841114311
 30
0.0
 11
4.321534462840634
 21
9.909311841114311
 31
0.0
 12
4.261534462840634
 22
9.549311841114311
 32
0.0
 13
4.261534462840634
 23
9.549311841114311
 33
0.0
  0
MTEXT
  5
1DE8
330
E73
100
AcDbEntity
  8
DIM
 62
     0
100
AcDbMText
 10
5.160909462840633
 20
10.26931184111431
 30
0.0
 40
0.25
 41
0.0
 71
     5
 72
     1
  1
\A1;0.393
 73
     1
 44
1.0
  0
POINT
  5
1DE9
330
E73
100
AcDbEntity
  8
DEFPOINTS
 62
     0
100
AcDbPoint
 10
5.614125462840633
 20
9.156311841114312
 30
0.0
  0
POINT
  5
1DEA
330
E73
100
AcDbEntity
  8
DEFPOINTS
 62
     0
100
AcDbPoint
 10
4.991788462840633
 20
9.549311841114311
 30
0.0
  0
POINT
  5
1DEB
330
E73
100
AcDbEntity
  8
DEFPOINTS
 62
     0
100
AcDbPoint
 10
4.261534462840634
 20
9.549311841114311
 30
0.0
  0
ENDBLK
  5
E7F
330
E73
100
AcDbEntity
  8
0
100
AcDbBlockEnd
  0
BLOCK
  5
E9A
330
E8F
100
AcDbEntity
  8
0
100
AcDbBlockBegin
  2
*D28
 70
     1
 10
0.0
 20
0.0
 30
0.0
  3
*D28
  1

  0
LINE
  5
1643
330
E8F
100
AcDbEntity
  8
DIM
 62
     0
370
    -2
100
AcDbLine
 10
15.484156
 20
17.25243999999999
 30
0.0
 11
15.484156
 21
18.4886
 31
0.0
  0
LINE
  5
1644
330
E8F
100
AcDbEntity
  8
DIM
 62
     0
370
    -2
100
AcDbLine
 10
16.902156
 20
17.31994
 30
0.0
 11
16.902156
 21
18.4886
 31
0.0
  0
LINE
  5
1645
330
E8F
100
AcDbEntity
  8
DIM
 62
     0
370
    -2
100
AcDbLine
 10
15.124156
 20
18.3026
 30
0.0
 11
14.764156
 21
18.3026
 31
0.0
  0
LINE
  5
1646
330
E8F
100
AcDbEntity
  8
DIM
 62
     0
370
    -2
100
AcDbLine
 10
17.262156
 20
18.3026
 30
0.0
 11
17.622156
 21
18.3026
 31
0.0
  0
SOLID
  5
1647
330
E8F
100
AcDbEntity
  8
DIM
 62
     0
100
AcDbTrace
 10
15.124156
 20
18.3626
 30
0.0
 11
15.124156
 21
18.2426
 31
0.0
 12
15.484156
 22
18.3026
 32
0.0
 13
15.484156
 23
18.3026
 33
0.0
  0
SOLID
  5
1648
330
E8F
100
AcDbEntity
  8
DIM
 62
     0
100
AcDbTrace
 10
17.262156
 20
18.3626
 30
0.0
 11
17.262156
 21
18.2426
 31
0.0
 12
16.902156
 22
18.3026
 32
0.0
 13
16.902156
 23
18.3026
 33
0.0
  0
MTEXT
  5
1649
330
E8F
100
AcDbEntity
  8
DIM
 62
     0
100
AcDbMText
 10
16.193156
 20
18.3026
 30
0.0
 40
0.25
 41
0.0
 71
     5
 72
     1
  1
\A1;0.355
 73
     1
 44
1.0
  0
POINT
  5
164A
330
E8F
100
AcDbEntity
  8
DEFPOINTS
 62
     0
100
AcDbPoint
 10
15.484156
 20
17.12644
 30
0.0
  0
POINT
  5
164B
330
E8F
100
AcDbEntity
  8
DEFPOINTS
 62
     0
100
AcDbPoint
 10
16.902156
 20
17.19393999999999
 30
0.0
  0
POINT
  5
164C
330
E8F
100
AcDbEntity
  8
DEFPOINTS
 62
     0
100
AcDbPoint
 10
16.902156
 20
18.3026
 30
0.0
  0
ENDBLK
  5
E9B
330
E8F
100
AcDbEntity
  8
0
100
AcDbBlockEnd
  0
BLOCK
  5
EA8
330
E9D
100
AcDbEntity
  8
0
100
AcDbBlockBegin
  2
*D29
 70
     1
 10
0.0
 20
0.0
 30
0.0
  3
*D29
  1

  0
LINE
  5
1639
330
E9D
100
AcDbEntity
  8
DIM
 62
     0
370
    -2
100
AcDbLine
 10
15.484156
 20
17.25243999999999
 30
0.0
 11
15.484156
 21
19.05059999999999
 31
0.0
  0
LINE
  5
163A
330
E9D
100
AcDbEntity
  8
DIM
 62
     0
370
    -2
100
AcDbLine
 10
18.320156
 20
17.25243999999999
 30
0.0
 11
18.320156
 21
19.05059999999999
 31
0.0
  0
LINE
  5
163B
330
E9D
100
AcDbEntity
  8
DIM
 62
     0
370
    -2
100
AcDbLine
 10
15.84415599999999
 20
18.86459999999999
 30
0.0
 11
16.378406
 21
18.86459999999999
 31
0.0
  0
LINE
  5
163C
330
E9D
100
AcDbEntity
  8
DIM
 62
     0
370
    -2
100
AcDbLine
 10
17.960156
 20
18.86459999999999
 30
0.0
 11
17.425906
 21
18.86459999999999
 31
0.0
  0
SOLID
  5
163D
330
E9D
100
AcDbEntity
  8
DIM
 62
     0
100
AcDbTrace
 10
15.84415599999999
 20
18.92459999999999
 30
0.0
 11
15.84415599999999
 21
18.8046
 31
0.0
 12
15.484156
 22
18.86459999999999
 32
0.0
 13
15.484156
 23
18.86459999999999
 33
0.0
  0
SOLID
  5
163E
330
E9D
100
AcDbEntity
  8
DIM
 62
     0
100
AcDbTrace
 10
17.960156
 20
18.92459999999999
 30
0.0
 11
17.960156
 21
18.8046
 31
0.0
 12
18.320156
 22
18.86459999999999
 32
0.0
 13
18.320156
 23
18.86459999999999
 33
0.0
  0
MTEXT
  5
163F
330
E9D
100
AcDbEntity
  8
DIM
 62
     0
100
AcDbMText
 10
16.902156
 20
18.86459999999999
 30
0.0
 40
0.25
 41
0.0
 71
     5
 72
     1
  1
\A1;0.709
 73
     1
 44
1.0
  0
POINT
  5
1640
330
E9D
100
AcDbEntity
  8
DEFPOINTS
 62
     0
100
AcDbPoint
 10
15.484156
 20
17.12644
 30
0.0
  0
POINT
  5
1641
330
E9D
100
AcDbEntity
  8
DEFPOINTS
 62
     0
100
AcDbPoint
 10
18.320156
 20
17.12644
 30
0.0
  0
POINT
  5
1642
330
E9D
100
AcDbEntity
  8
DEFPOINTS
 62
     0
100
AcDbPoint
 10
18.320156
 20
18.86459999999999
 30
0.0
  0
ENDBLK
  5
EA9
330
E9D
100
AcDbEntity
  8
0
100
AcDbBlockEnd
  0
BLOCK
  5
EB6
330
EAB
100
AcDbEntity
  8
0
100
AcDbBlockBegin
  2
*D30
 70
     1
 10
0.0
 20
0.0
 30
0.0
  3
*D30
  1

  0
LINE
  5
162F
330
EAB
100
AcDbEntity
  8
DIM
 62
     0
370
    -2
100
AcDbLine
 10
15.594156
 20
16.89043999999999
 30
0.0
 11
14.437842
 21
16.89043999999999
 31
0.0
  0
LINE
  5
1630
330
EAB
100
AcDbEntity
  8
DIM
 62
     0
370
    -2
100
AcDbLine
 10
15.594156
 20
17.36244
 30
0.0
 11
14.437842
 21
17.36244
 31
0.0
  0
LINE
  5
1631
330
EAB
100
AcDbEntity
  8
DIM
 62
     0
370
    -2
100
AcDbLine
 10
14.623842
 20
16.53043999999999
 30
0.0
 11
14.623842
 21
16.17043999999999
 31
0.0
  0
LINE
  5
1632
330
EAB
100
AcDbEntity
  8
DIM
 62
     0
370
    -2
100
AcDbLine
 10
14.623842
 20
17.72243999999999
 30
0.0
 11
14.623842
 21
18.08244
 31
0.0
  0
SOLID
  5
1633
330
EAB
100
AcDbEntity
  8
DIM
 62
     0
100
AcDbTrace
 10
14.563842
 20
16.53043999999999
 30
0.0
 11
14.683842
 21
16.53043999999999
 31
0.0
 12
14.623842
 22
16.89043999999999
 32
0.0
 13
14.623842
 23
16.89043999999999
 33
0.0
  0
SOLID
  5
1634
330
EAB
100
AcDbEntity
  8
DIM
 62
     0
100
AcDbTrace
 10
14.563842
 20
17.72243999999999
 30
0.0
 11
14.683842
 21
17.72243999999999
 31
0.0
 12
14.623842
 22
17.36244
 32
0.0
 13
14.623842
 23
17.36244
 33
0.0
  0
MTEXT
  5
1635
330
EAB
100
AcDbEntity
  8
DIM
 62
     0
100
AcDbMText
 10
14.62384199999999
 20
17.12644
 30
0.0
 40
0.25
 41
0.0
 71
     5
 72
     1
  1
\A1;0.118
 73
     1
 44
1.0
  0
POINT
  5
1636
330
EAB
100
AcDbEntity
  8
DEFPOINTS
 62
     0
100
AcDbPoint
 10
15.720156
 20
16.89043999999999
 30
0.0
  0
POINT
  5
1637
330
EAB
100
AcDbEntity
  8
DEFPOINTS
 62
     0
100
AcDbPoint
 10
15.720156
 20
17.36244
 30
0.0
  0
POINT
  5
1638
330
EAB
100
AcDbEntity
  8
DEFPOINTS
 62
     0
100
AcDbPoint
 10
14.623842
 20
17.36244
 30
0.0
  0
ENDBLK
  5
EB7
330
EAB
100
AcDbEntity
  8
0
100
AcDbBlockEnd
  0
BLOCK
  5
EC4
330
EB9
100
AcDbEntity
  8
0
100
AcDbBlockBegin
  2
*D31
 70
     1
 10
0.0
 20
0.0
 30
0.0
  3
*D31
  1

  0
LINE
  5
17ED
330
EB9
100
AcDbEntity
  8
DIM
 62
     0
370
    -2
100
AcDbLine
 10
17.028156
 20
17.62643999999999
 30
0.0
 11
19.208654
 21
17.62643999999999
 31
0.0
  0
LINE
  5
17EE
330
EB9
100
AcDbEntity
  8
DIM
 62
     0
370
    -2
100
AcDbLine
 10
17.028156
 20
16.62644
 30
0.0
 11
19.208654
 21
16.62644
 31
0.0
  0
LINE
  5
17EF
330
EB9
100
AcDbEntity
  8
DIM
 62
     0
370
    -2
100
AcDbLine
 10
19.022654
 20
17.98643999999999
 30
0.0
 11
19.022654
 21
18.34643999999999
 31
0.0
  0
LINE
  5
17F0
330
EB9
100
AcDbEntity
  8
DIM
 62
     0
370
    -2
100
AcDbLine
 10
19.022654
 20
16.26643999999999
 30
0.0
 11
19.022654
 21
15.90643999999999
 31
0.0
  0
SOLID
  5
17F1
330
EB9
100
AcDbEntity
  8
DIM
 62
     0
100
AcDbTrace
 10
18.962654
 20
17.98643999999999
 30
0.0
 11
19.08265399999999
 21
17.98643999999999
 31
0.0
 12
19.022654
 22
17.62643999999999
 32
0.0
 13
19.022654
 23
17.62643999999999
 33
0.0
  0
SOLID
  5
17F2
330
EB9
100
AcDbEntity
  8
DIM
 62
     0
100
AcDbTrace
 10
18.962654
 20
16.26643999999999
 30
0.0
 11
19.08265399999999
 21
16.26643999999999
 31
0.0
 12
19.022654
 22
16.62644
 32
0.0
 13
19.022654
 23
16.62644
 33
0.0
  0
MTEXT
  5
17F3
330
EB9
100
AcDbEntity
  8
DIM
 62
     0
100
AcDbMText
 10
19.02265399999999
 20
17.12644
 30
0.0
 40
0.25
 41
0.0
 71
     5
 72
     1
  1
\A1;0.250
 73
     1
 44
1.0
  0
POINT
  5
17F4
330
EB9
100
AcDbEntity
  8
DEFPOINTS
 62
     0
100
AcDbPoint
 10
16.902156
 20
17.62643999999999
 30
0.0
  0
POINT
  5
17F5
330
EB9
100
AcDbEntity
  8
DEFPOINTS
 62
     0
100
AcDbPoint
 10
16.902156
 20
16.62644
 30
0.0
  0
POINT
  5
17F6
330
EB9
100
AcDbEntity
  8
DEFPOINTS
 62
     0
100
AcDbPoint
 10
19.022654
 20
16.62644
 30
0.0
  0
ENDBLK
  5
EC5
330
EB9
100
AcDbEntity
  8
0
100
AcDbBlockEnd
  0
BLOCK
  5
EDC
330
ED1
100
AcDbEntity
  8
0
100
AcDbBlockBegin
  2
*D32
 70
     1
 10
0.0
 20
0.0
 30
0.0
  3
*D32
  1

  0
LINE
  5
1D12
330
ED1
100
AcDbEntity
  8
DIM
 62
     0
370
    -2
100
AcDbLine
 10
23.15694375438674
 20
9.273311841114312
 30
0.0
 11
23.96188275438674
 21
9.273311841114312
 31
0.0
  0
LINE
  5
1D13
330
ED1
100
AcDbEntity
  8
DIM
 62
     0
370
    -2
100
AcDbLine
 10
23.18294375438673
 20
9.549311841114311
 30
0.0
 11
23.96188275438674
 21
9.549311841114311
 31
0.0
  0
LINE
  5
1D14
330
ED1
100
AcDbEntity
  8
DIM
 62
     0
370
    -2
100
AcDbLine
 10
23.77588275438673
 20
8.913311841114312
 30
0.0
 11
23.77588275438673
 21
8.553311841114311
 31
0.0
  0
LINE
  5
1D15
330
ED1
100
AcDbEntity
  8
DIM
 62
     0
370
    -2
100
AcDbLine
 10
23.77588275438673
 20
9.909311841114311
 30
0.0
 11
23.77588275438673
 21
10.26931184111431
 31
0.0
  0
LINE
  5
1D16
330
ED1
100
AcDbEntity
  8
DIM
 62
     0
370
    -2
100
AcDbLine
 10
23.77588275438673
 20
10.26931184111431
 30
0.0
 11
24.13588275438673
 21
10.26931184111431
 31
0.0
  0
SOLID
  5
1D17
330
ED1
100
AcDbEntity
  8
DIM
 62
     0
100
AcDbTrace
 10
23.71588275438674
 20
8.913311841114312
 30
0.0
 11
23.83588275438673
 21
8.913311841114312
 31
0.0
 12
23.77588275438673
 22
9.273311841114312
 32
0.0
 13
23.77588275438673
 23
9.273311841114312
 33
0.0
  0
SOLID
  5
1D18
330
ED1
100
AcDbEntity
  8
DIM
 62
     0
100
AcDbTrace
 10
23.71588275438674
 20
9.909311841114311
 30
0.0
 11
23.83588275438673
 21
9.909311841114311
 31
0.0
 12
23.77588275438673
 22
9.549311841114311
 32
0.0
 13
23.77588275438673
 23
9.549311841114311
 33
0.0
  0
MTEXT
  5
1D19
330
ED1
100
AcDbEntity
  8
DIM
 62
     0
100
AcDbMText
 10
24.67525775438673
 20
10.26931184111431
 30
0.0
 40
0.25
 41
0.0
 71
     5
 72
     1
  1
\A1;0.276
 73
     1
 44
1.0
  0
POINT
  5
1D1A
330
ED1
100
AcDbEntity
  8
DEFPOINTS
 62
     0
100
AcDbPoint
 10
23.03094375438673
 20
9.273311841114312
 30
0.0
  0
POINT
  5
1D1B
330
ED1
100
AcDbEntity
  8
DEFPOINTS
 62
     0
100
AcDbPoint
 10
23.05694375438673
 20
9.549311841114311
 30
0.0
  0
POINT
  5
1D1C
330
ED1
100
AcDbEntity
  8
DEFPOINTS
 62
     0
100
AcDbPoint
 10
23.77588275438673
 20
9.549311841114311
 30
0.0
  0
ENDBLK
  5
EDD
330
ED1
100
AcDbEntity
  8
0
100
AcDbBlockEnd
  0
BLOCK
  5
EEA
330
EDF
100
AcDbEntity
  8
0
100
AcDbBlockBegin
  2
*D33
 70
     1
 10
0.0
 20
0.0
 30
0.0
  3
*D33
  1

  0
LINE
  5
1D32
330
EDF
100
AcDbEntity
  8
DIM
 62
     0
370
    -2
100
AcDbLine
 10
23.15694375438674
 20
5.101311841114312
 30
0.0
 11
23.96188275438673
 21
5.101311841114312
 31
0.0
  0
LINE
  5
1D33
330
EDF
100
AcDbEntity
  8
DIM
 62
     0
370
    -2
100
AcDbLine
 10
23.15694375438674
 20
9.273311841114312
 30
0.0
 11
23.96188275438674
 21
9.273311841114312
 31
0.0
  0
LINE
  5
1D34
330
EDF
100
AcDbEntity
  8
DIM
 62
     0
370
    -2
100
AcDbLine
 10
23.77588275438673
 20
5.461311841114312
 30
0.0
 11
23.77588275438673
 21
6.882311841114312
 31
0.0
  0
LINE
  5
1D35
330
EDF
100
AcDbEntity
  8
DIM
 62
     0
370
    -2
100
AcDbLine
 10
23.77588275438673
 20
8.913311841114312
 30
0.0
 11
23.77588275438673
 21
7.492311841114312
 31
0.0
  0
SOLID
  5
1D36
330
EDF
100
AcDbEntity
  8
DIM
 62
     0
100
AcDbTrace
 10
23.71588275438673
 20
5.461311841114312
 30
0.0
 11
23.83588275438673
 21
5.461311841114312
 31
0.0
 12
23.77588275438673
 22
5.101311841114312
 32
0.0
 13
23.77588275438673
 23
5.101311841114312
 33
0.0
  0
SOLID
  5
1D37
330
EDF
100
AcDbEntity
  8
DIM
 62
     0
100
AcDbTrace
 10
23.71588275438674
 20
8.913311841114312
 30
0.0
 11
23.83588275438673
 21
8.913311841114312
 31
0.0
 12
23.77588275438673
 22
9.273311841114312
 32
0.0
 13
23.77588275438673
 23
9.273311841114312
 33
0.0
  0
MTEXT
  5
1D38
330
EDF
100
AcDbEntity
  8
DIM
 62
     0
100
AcDbMText
 10
23.77588275438673
 20
7.187311841114316
 30
0.0
 40
0.25
 41
0.0
 71
     5
 72
     1
  1
\A1;4.172
 73
     1
 44
1.0
  0
POINT
  5
1D39
330
EDF
100
AcDbEntity
  8
DEFPOINTS
 62
     0
100
AcDbPoint
 10
23.03094375438673
 20
5.101311841114312
 30
0.0
  0
POINT
  5
1D3A
330
EDF
100
AcDbEntity
  8
DEFPOINTS
 62
     0
100
AcDbPoint
 10
23.03094375438673
 20
9.273311841114312
 30
0.0
  0
POINT
  5
1D3B
330
EDF
100
AcDbEntity
  8
DEFPOINTS
 62
     0
100
AcDbPoint
 10
23.77588275438673
 20
9.273311841114312
 30
0.0
  0
ENDBLK
  5
EEB
330
EDF
100
AcDbEntity
  8
0
100
AcDbBlockEnd
  0
BLOCK
  5
EF8
330
EED
100
AcDbEntity
  8
0
100
AcDbBlockBegin
  2
*D34
 70
     1
 10
0.0
 20
0.0
 30
0.0
  3
*D34
  1

  0
LINE
  5
1D1D
330
EED
100
AcDbEntity
  8
DIM
 62
     0
370
    -2
100
AcDbLine
 10
18.70694375438673
 20
4.825311841114312
 30
0.0
 11
17.85305275438673
 21
4.825311841114313
 31
0.0
  0
LINE
  5
1D1E
330
EED
100
AcDbEntity
  8
DIM
 62
     0
370
    -2
100
AcDbLine
 10
18.70694375438673
 20
9.549311841114311
 30
0.0
 11
17.85305275438673
 21
9.549311841114311
 31
0.0
  0
LINE
  5
1D1F
330
EED
100
AcDbEntity
  8
DIM
 62
     0
370
    -2
100
AcDbLine
 10
18.03905275438673
 20
5.185311841114312
 30
0.0
 11
18.03905275438673
 21
6.882311841114312
 31
0.0
  0
LINE
  5
1D20
330
EED
100
AcDbEntity
  8
DIM
 62
     0
370
    -2
100
AcDbLine
 10
18.03905275438673
 20
9.189311841114312
 30
0.0
 11
18.03905275438673
 21
7.492311841114312
 31
0.0
  0
SOLID
  5
1D21
330
EED
100
AcDbEntity
  8
DIM
 62
     0
100
AcDbTrace
 10
17.97905275438673
 20
5.185311841114313
 30
0.0
 11
18.09905275438673
 21
5.185311841114312
 31
0.0
 12
18.03905275438673
 22
4.825311841114312
 32
0.0
 13
18.03905275438673
 23
4.825311841114312
 33
0.0
  0
SOLID
  5
1D22
330
EED
100
AcDbEntity
  8
DIM
 62
     0
100
AcDbTrace
 10
17.97905275438673
 20
9.189311841114312
 30
0.0
 11
18.09905275438673
 21
9.189311841114312
 31
0.0
 12
18.03905275438673
 22
9.549311841114311
 32
0.0
 13
18.03905275438673
 23
9.549311841114311
 33
0.0
  0
MTEXT
  5
1D23
330
EED
100
AcDbEntity
  8
DIM
 62
     0
100
AcDbMText
 10
18.03905275438673
 20
7.187311841114316
 30
0.0
 40
0.25
 41
0.0
 71
     5
 72
     1
  1
\A1;4.724
 73
     1
 44
1.0
  0
POINT
  5
1D24
330
EED
100
AcDbEntity
  8
DEFPOINTS
 62
     0
100
AcDbPoint
 10
18.83294375438673
 20
4.825311841114312
 30
0.0
  0
POINT
  5
1D25
330
EED
100
AcDbEntity
  8
DEFPOINTS
 62
     0
100
AcDbPoint
 10
18.83294375438673
 20
9.549311841114311
 30
0.0
  0
POINT
  5
1D26
330
EED
100
AcDbEntity
  8
DEFPOINTS
 62
     0
100
AcDbPoint
 10
18.03905275438673
 20
9.549311841114311
 30
0.0
  0
ENDBLK
  5
EF9
330
EED
100
AcDbEntity
  8
0
100
AcDbBlockEnd
  0
BLOCK
  5
F06
330
EFB
100
AcDbEntity
  8
0
100
AcDbBlockBegin
  2
*D35
 70
     1
 10
0.0
 20
0.0
 30
0.0
  3
*D35
  1

  0
LINE
  5
1D08
330
EFB
100
AcDbEntity
  8
DIM
 62
     0
370
    -2
100
AcDbLine
 10
23.03094375438673
 20
9.399311841114311
 30
0.0
 11
23.03094375438673
 21
10.94861384111431
 31
0.0
  0
LINE
  5
1D09
330
EFB
100
AcDbEntity
  8
DIM
 62
     0
370
    -2
100
AcDbLine
 10
23.30694375438673
 20
9.425311841114311
 30
0.0
 11
23.30694375438673
 21
10.94861384111431
 31
0.0
  0
LINE
  5
1D0A
330
EFB
100
AcDbEntity
  8
DIM
 62
     0
370
    -2
100
AcDbLine
 10
22.67094375438673
 20
10.76261384111431
 30
0.0
 11
22.31094375438674
 21
10.76261384111431
 31
0.0
  0
LINE
  5
1D0B
330
EFB
100
AcDbEntity
  8
DIM
 62
     0
370
    -2
100
AcDbLine
 10
23.66694375438673
 20
10.76261384111431
 30
0.0
 11
24.02694375438673
 21
10.76261384111431
 31
0.0
  0
SOLID
  5
1D0C
330
EFB
100
AcDbEntity
  8
DIM
 62
     0
100
AcDbTrace
 10
22.67094375438673
 20
10.82261384111431
 30
0.0
 11
22.67094375438673
 21
10.70261384111431
 31
0.0
 12
23.03094375438673
 22
10.76261384111431
 32
0.0
 13
23.03094375438673
 23
10.76261384111431
 33
0.0
  0
SOLID
  5
1D0D
330
EFB
100
AcDbEntity
  8
DIM
 62
     0
100
AcDbTrace
 10
23.66694375438673
 20
10.82261384111431
 30
0.0
 11
23.66694375438673
 21
10.70261384111431
 31
0.0
 12
23.30694375438673
 22
10.76261384111431
 32
0.0
 13
23.30694375438673
 23
10.76261384111431
 33
0.0
  0
MTEXT
  5
1D0E
330
EFB
100
AcDbEntity
  8
DIM
 62
     0
100
AcDbMText
 10
24.56631875438673
 20
10.76261384111431
 30
0.0
 40
0.25
 41
0.0
 71
     5
 72
     1
  1
\A1;0.276
 73
     1
 44
1.0
  0
POINT
  5
1D0F
330
EFB
100
AcDbEntity
  8
DEFPOINTS
 62
     0
100
AcDbPoint
 10
23.03094375438673
 20
9.273311841114312
 30
0.0
  0
POINT
  5
1D10
330
EFB
100
AcDbEntity
  8
DEFPOINTS
 62
     0
100
AcDbPoint
 10
23.30694375438673
 20
9.299311841114311
 30
0.0
  0
POINT
  5
1D11
330
EFB
100
AcDbEntity
  8
DEFPOINTS
 62
     0
100
AcDbPoint
 10
23.30694375438673
 20
10.76261384111431
 30
0.0
  0
ENDBLK
  5
F07
330
EFB
100
AcDbEntity
  8
0
100
AcDbBlockEnd
  0
BLOCK
  5
F14
330
F09
100
AcDbEntity
  8
0
100
AcDbBlockBegin
  2
*D36
 70
     1
 10
0.0
 20
0.0
 30
0.0
  3
*D36
  1

  0
LINE
  5
1CFE
330
F09
100
AcDbEntity
  8
DIM
 62
     0
370
    -2
100
AcDbLine
 10
23.03094375438673
 20
9.399311841114311
 30
0.0
 11
23.03094375438673
 21
10.94861384111431
 31
0.0
  0
LINE
  5
1CFF
330
F09
100
AcDbEntity
  8
DIM
 62
     0
370
    -2
100
AcDbLine
 10
18.85894375438673
 20
9.399311841114311
 30
0.0
 11
18.85894375438673
 21
10.94861384111431
 31
0.0
  0
LINE
  5
1D00
330
F09
100
AcDbEntity
  8
DIM
 62
     0
370
    -2
100
AcDbLine
 10
22.67094375438673
 20
10.76261384111431
 30
0.0
 11
21.46869375438673
 21
10.76261384111431
 31
0.0
  0
LINE
  5
1D01
330
F09
100
AcDbEntity
  8
DIM
 62
     0
370
    -2
100
AcDbLine
 10
19.21894375438673
 20
10.76261384111431
 30
0.0
 11
20.42119375438673
 21
10.76261384111431
 31
0.0
  0
SOLID
  5
1D02
330
F09
100
AcDbEntity
  8
DIM
 62
     0
100
AcDbTrace
 10
22.67094375438673
 20
10.82261384111431
 30
0.0
 11
22.67094375438673
 21
10.70261384111431
 31
0.0
 12
23.03094375438673
 22
10.76261384111431
 32
0.0
 13
23.03094375438673
 23
10.76261384111431
 33
0.0
  0
SOLID
  5
1D03
330
F09
100
AcDbEntity
  8
DIM
 62
     0
100
AcDbTrace
 10
19.21894375438673
 20
10.82261384111431
 30
0.0
 11
19.21894375438673
 21
10.70261384111431
 31
0.0
 12
18.85894375438673
 22
10.76261384111431
 32
0.0
 13
18.85894375438673
 23
10.76261384111431
 33
0.0
  0
MTEXT
  5
1D04
330
F09
100
AcDbEntity
  8
DIM
 62
     0
100
AcDbMText
 10
20.94494375438673
 20
10.76261384111431
 30
0.0
 40
0.25
 41
0.0
 71
     5
 72
     1
  1
\A1;4.172
 73
     1
 44
1.0
  0
POINT
  5
1D05
330
F09
100
AcDbEntity
  8
DEFPOINTS
 62
     0
100
AcDbPoint
 10
23.03094375438673
 20
9.273311841114312
 30
0.0
  0
POINT
  5
1D06
330
F09
100
AcDbEntity
  8
DEFPOINTS
 62
     0
100
AcDbPoint
 10
18.85894375438673
 20
9.273311841114312
 30
0.0
  0
POINT
  5
1D07
330
F09
100
AcDbEntity
  8
DEFPOINTS
 62
     0
100
AcDbPoint
 10
18.85894375438673
 20
10.76261384111431
 30
0.0
  0
ENDBLK
  5
F15
330
F09
100
AcDbEntity
  8
0
100
AcDbBlockEnd
  0
BLOCK
  5
F22
330
F17
100
AcDbEntity
  8
0
100
AcDbBlockBegin
  2
*D37
 70
     1
 10
0.0
 20
0.0
 30
0.0
  3
*D37
  1

  0
LINE
  5
1CF4
330
F17
100
AcDbEntity
  8
DIM
 62
     0
370
    -2
100
AcDbLine
 10
23.30694375438673
 20
9.425311841114311
 30
0.0
 11
23.30694375438673
 21
11.44036384111431
 31
0.0
  0
LINE
  5
1CF5
330
F17
100
AcDbEntity
  8
DIM
 62
     0
370
    -2
100
AcDbLine
 10
18.58294375438673
 20
9.425311841114311
 30
0.0
 11
18.58294375438673
 21
11.44036384111431
 31
0.0
  0
LINE
  5
1CF6
330
F17
100
AcDbEntity
  8
DIM
 62
     0
370
    -2
100
AcDbLine
 10
22.94694375438673
 20
11.25436384111431
 30
0.0
 11
21.49994375438673
 21
11.25436384111431
 31
0.0
  0
LINE
  5
1CF7
330
F17
100
AcDbEntity
  8
DIM
 62
     0
370
    -2
100
AcDbLine
 10
18.94294375438673
 20
11.25436384111431
 30
0.0
 11
20.38994375438673
 21
11.25436384111431
 31
0.0
  0
SOLID
  5
1CF8
330
F17
100
AcDbEntity
  8
DIM
 62
     0
100
AcDbTrace
 10
22.94694375438673
 20
11.31436384111431
 30
0.0
 11
22.94694375438673
 21
11.19436384111431
 31
0.0
 12
23.30694375438673
 22
11.25436384111431
 32
0.0
 13
23.30694375438673
 23
11.25436384111431
 33
0.0
  0
SOLID
  5
1CF9
330
F17
100
AcDbEntity
  8
DIM
 62
     0
100
AcDbTrace
 10
18.94294375438673
 20
11.31436384111431
 30
0.0
 11
18.94294375438673
 21
11.19436384111431
 31
0.0
 12
18.58294375438673
 22
11.25436384111431
 32
0.0
 13
18.58294375438673
 23
11.25436384111431
 33
0.0
  0
MTEXT
  5
1CFA
330
F17
100
AcDbEntity
  8
DIM
 62
     0
100
AcDbMText
 10
20.94494375438673
 20
11.25436384111431
 30
0.0
 40
0.25
 41
0.0
 71
     5
 72
     1
  1
\A1;4.724
 73
     1
 44
1.0
  0
POINT
  5
1CFB
330
F17
100
AcDbEntity
  8
DEFPOINTS
 62
     0
100
AcDbPoint
 10
23.30694375438673
 20
9.299311841114311
 30
0.0
  0
POINT
  5
1CFC
330
F17
100
AcDbEntity
  8
DEFPOINTS
 62
     0
100
AcDbPoint
 10
18.58294375438673
 20
9.299311841114311
 30
0.0
  0
POINT
  5
1CFD
330
F17
100
AcDbEntity
  8
DEFPOINTS
 62
     0
100
AcDbPoint
 10
18.58294375438673
 20
11.25436384111431
 30
0.0
  0
ENDBLK
  5
F23
330
F17
100
AcDbEntity
  8
0
100
AcDbBlockEnd
  0
BLOCK
  5
F38
330
F2D
100
AcDbEntity
  8
0
100
AcDbBlockBegin
  2
*D38
 70
     1
 10
0.0
 20
0.0
 30
0.0
  3
*D38
  1

  0
LINE
  5
1D27
330
F2D
100
AcDbEntity
  8
DIM
 62
     0
370
    -2
100
AcDbLine
 10
20.58907875438674
 20
5.005311841114312
 30
0.0
 11
20.70767175438673
 21
5.005311841114312
 31
0.0
  0
LINE
  5
1D28
330
F2D
100
AcDbEntity
  8
DIM
 62
     0
370
    -2
100
AcDbLine
 10
20.58907875438674
 20
4.825311841114312
 30
0.0
 11
20.70767175438673
 21
4.825311841114312
 31
0.0
  0
LINE
  5
1D29
330
F2D
100
AcDbEntity
  8
DIM
 62
     0
370
    -2
100
AcDbLine
 10
20.52167175438673
 20
5.365311841114312
 30
0.0
 11
20.52167175438673
 21
5.725311841114312
 31
0.0
  0
LINE
  5
1D2A
330
F2D
100
AcDbEntity
  8
DIM
 62
     0
370
    -2
100
AcDbLine
 10
20.52167175438673
 20
4.465311841114312
 30
0.0
 11
20.52167175438673
 21
4.105311841114312
 31
0.0
  0
LINE
  5
1D2B
330
F2D
100
AcDbEntity
  8
DIM
 62
     0
370
    -2
100
AcDbLine
 10
20.52167175438673
 20
4.105311841114312
 30
0.0
 11
20.16167175438674
 21
4.105311841114312
 31
0.0
  0
SOLID
  5
1D2C
330
F2D
100
AcDbEntity
  8
DIM
 62
     0
100
AcDbTrace
 10
20.46167175438673
 20
5.365311841114312
 30
0.0
 11
20.58167175438673
 21
5.365311841114312
 31
0.0
 12
20.52167175438673
 22
5.005311841114312
 32
0.0
 13
20.52167175438673
 23
5.005311841114312
 33
0.0
  0
SOLID
  5
1D2D
330
F2D
100
AcDbEntity
  8
DIM
 62
     0
100
AcDbTrace
 10
20.46167175438673
 20
4.465311841114312
 30
0.0
 11
20.58167175438673
 21
4.465311841114312
 31
0.0
 12
20.52167175438673
 22
4.825311841114312
 32
0.0
 13
20.52167175438673
 23
4.825311841114312
 33
0.0
  0
MTEXT
  5
1D2E
330
F2D
100
AcDbEntity
  8
DIM
 62
     0
100
AcDbMText
 10
19.26292175438673
 20
4.105311841114316
 30
0.0
 40
0.25
 41
0.0
 71
     5
 72
     1
  1
\A1;0.180 TYP.
 73
     1
 44
1.0
  0
POINT
  5
1D2F
330
F2D
100
AcDbEntity
  8
DEFPOINTS
 62
     0
100
AcDbPoint
 10
20.46307875438674
 20
5.005311841114312
 30
0.0
  0
POINT
  5
1D30
330
F2D
100
AcDbEntity
  8
DEFPOINTS
 62
     0
100
AcDbPoint
 10
20.46307875438674
 20
4.825311841114312
 30
0.0
  0
POINT
  5
1D31
330
F2D
100
AcDbEntity
  8
DEFPOINTS
 62
     0
100
AcDbPoint
 10
20.52167175438673
 20
4.825311841114312
 30
0.0
  0
ENDBLK
  5
F39
330
F2D
100
AcDbEntity
  8
0
100
AcDbBlockEnd
  0
BLOCK
  5
FDC
330
FD2
100
AcDbEntity
  8
0
100
AcDbBlockBegin
  2
*D39
 70
     1
 10
0.0
 20
0.0
 30
0.0
  3
*D39
  1

  0
LINE
  5
1D46
330
FD2
100
AcDbEntity
  8
DIM
 62
     0
370
    -2
100
AcDbLine
 10
30.04104280139567
 20
9.675311841114311
 30
0.0
 11
30.04104280139567
 21
10.20425084111431
 31
0.0
  0
LINE
  5
1D47
330
FD2
100
AcDbEntity
  8
DIM
 62
     0
370
    -2
100
AcDbLine
 10
28.86004280139567
 20
9.612811841114311
 30
0.0
 11
28.86004280139567
 21
10.20425084111431
 31
0.0
  0
LINE
  5
1D48
330
FD2
100
AcDbEntity
  8
DIM
 62
     0
370
    -2
100
AcDbLine
 10
30.40104280139567
 20
10.01825084111431
 30
0.0
 11
30.76104280139567
 21
10.01825084111431
 31
0.0
  0
LINE
  5
1D49
330
FD2
100
AcDbEntity
  8
DIM
 62
     0
370
    -2
100
AcDbLine
 10
28.50004280139567
 20
10.01825084111431
 30
0.0
 11
28.14004280139567
 21
10.01825084111431
 31
0.0
  0
SOLID
  5
1D4A
330
FD2
100
AcDbEntity
  8
DIM
 62
     0
100
AcDbTrace
 10
30.40104280139567
 20
10.07825084111431
 30
0.0
 11
30.40104280139567
 21
9.958250841114312
 31
0.0
 12
30.04104280139567
 22
10.01825084111431
 32
0.0
 13
30.04104280139567
 23
10.01825084111431
 33
0.0
  0
SOLID
  5
1D4B
330
FD2
100
AcDbEntity
  8
DIM
 62
     0
100
AcDbTrace
 10
28.50004280139567
 20
10.07825084111431
 30
0.0
 11
28.50004280139567
 21
9.958250841114312
 31
0.0
 12
28.86004280139567
 22
10.01825084111431
 32
0.0
 13
28.86004280139567
 23
10.01825084111431
 33
0.0
  0
MTEXT
  5
1D4C
330
FD2
100
AcDbEntity
  8
DIM
 62
     0
100
AcDbMText
 10
27.27254280139567
 20
10.01825084111431
 30
0.0
 40
0.25
 41
0.0
 71
     5
 72
     1
  1
\A1;1.181 REF.
 73
     1
 44
1.0
  0
POINT
  5
1D4D
330
FD2
100
AcDbEntity
  8
DEFPOINTS
 62
     0
100
AcDbPoint
 10
30.04104280139567
 20
9.549311841114311
 30
0.0
  0
POINT
  5
1D4E
330
FD2
100
AcDbEntity
  8
DEFPOINTS
 62
     0
100
AcDbPoint
 10
28.86004280139567
 20
9.486811841114311
 30
0.0
  0
POINT
  5
1D4F
330
FD2
100
AcDbEntity
  8
DEFPOINTS
 62
     0
100
AcDbPoint
 10
28.86004280139567
 20
10.01825084111431
 30
0.0
  0
ENDBLK
  5
FDD
330
FD2
100
AcDbEntity
  8
0
100
AcDbBlockEnd
  0
BLOCK
  5
FEA
330
FDF
100
AcDbEntity
  8
0
100
AcDbBlockBegin
  2
*D40
 70
     1
 10
0.0
 20
0.0
 30
0.0
  3
*D40
  1

  0
LINE
  5
1D5A
330
FDF
100
AcDbEntity
  8
DIM
 62
     0
370
    -2
100
AcDbLine
 10
28.86004280139567
 20
9.612811841114311
 30
0.0
 11
28.86004280139567
 21
10.76625084111431
 31
0.0
  0
LINE
  5
1D5B
330
FDF
100
AcDbEntity
  8
DIM
 62
     0
370
    -2
100
AcDbLine
 10
32.40304280139567
 20
9.612811841114311
 30
0.0
 11
32.40304280139567
 21
10.76625084111431
 31
0.0
  0
LINE
  5
1D5C
330
FDF
100
AcDbEntity
  8
DIM
 62
     0
370
    -2
100
AcDbLine
 10
29.22004280139567
 20
10.58025084111431
 30
0.0
 11
30.07654280139567
 21
10.58025084111431
 31
0.0
  0
LINE
  5
1D5D
330
FDF
100
AcDbEntity
  8
DIM
 62
     0
370
    -2
100
AcDbLine
 10
32.04304280139567
 20
10.58025084111431
 30
0.0
 11
31.18654280139567
 21
10.58025084111431
 31
0.0
  0
SOLID
  5
1D5E
330
FDF
100
AcDbEntity
  8
DIM
 62
     0
100
AcDbTrace
 10
29.22004280139567
 20
10.64025084111431
 30
0.0
 11
29.22004280139567
 21
10.52025084111431
 31
0.0
 12
28.86004280139567
 22
10.58025084111431
 32
0.0
 13
28.86004280139567
 23
10.58025084111431
 33
0.0
  0
SOLID
  5
1D5F
330
FDF
100
AcDbEntity
  8
DIM
 62
     0
100
AcDbTrace
 10
32.04304280139567
 20
10.64025084111431
 30
0.0
 11
32.04304280139567
 21
10.52025084111431
 31
0.0
 12
32.40304280139567
 22
10.58025084111431
 32
0.0
 13
32.40304280139567
 23
10.58025084111431
 33
0.0
  0
MTEXT
  5
1D60
330
FDF
100
AcDbEntity
  8
DIM
 62
     0
100
AcDbMText
 10
30.63154280139567
 20
10.58025084111431
 30
0.0
 40
0.25
 41
0.0
 71
     5
 72
     1
  1
\A1;3.543
 73
     1
 44
1.0
  0
POINT
  5
1D61
330
FDF
100
AcDbEntity
  8
DEFPOINTS
 62
     0
100
AcDbPoint
 10
28.86004280139567
 20
9.486811841114311
 30
0.0
  0
POINT
  5
1D62
330
FDF
100
AcDbEntity
  8
DEFPOINTS
 62
     0
100
AcDbPoint
 10
32.40304280139567
 20
9.486811841114311
 30
0.0
  0
POINT
  5
1D63
330
FDF
100
AcDbEntity
  8
DEFPOINTS
 62
     0
100
AcDbPoint
 10
32.40304280139567
 20
10.58025084111431
 30
0.0
  0
ENDBLK
  5
FEB
330
FDF
100
AcDbEntity
  8
0
100
AcDbBlockEnd
  0
BLOCK
  5
1007
330
FFC
100
AcDbEntity
  8
0
100
AcDbBlockBegin
  2
*D41
 70
     1
 10
0.0
 20
0.0
 30
0.0
  3
*D41
  1

  0
LINE
  5
1ED4
330
FFC
100
AcDbEntity
  8
DIM
 62
     0
370
    -2
100
AcDbLine
 10
7.669125462840634
 20
7.187311841114312
 30
0.0
 11
10.68540646284063
 21
7.187311841114311
 31
0.0
  0
LINE
  5
1ED5
330
FFC
100
AcDbEntity
  8
DIM
 62
     0
370
    -2
100
AcDbLine
 10
7.852125462840633
 20
9.549311841114311
 30
0.0
 11
10.68540646284063
 21
9.549311841114311
 31
0.0
  0
LINE
  5
1ED6
330
FFC
100
AcDbEntity
  8
DIM
 62
     0
370
    -2
100
AcDbLine
 10
10.49940646284063
 20
7.547311841114312
 30
0.0
 11
10.49940646284063
 21
8.063311841114312
 31
0.0
  0
LINE
  5
1ED7
330
FFC
100
AcDbEntity
  8
DIM
 62
     0
370
    -2
100
AcDbLine
 10
10.49940646284063
 20
9.189311841114312
 30
0.0
 11
10.49940646284063
 21
8.673311841114312
 31
0.0
  0
SOLID
  5
1ED8
330
FFC
100
AcDbEntity
  8
DIM
 62
     0
100
AcDbTrace
 10
10.43940646284063
 20
7.547311841114312
 30
0.0
 11
10.55940646284063
 21
7.547311841114312
 31
0.0
 12
10.49940646284063
 22
7.187311841114311
 32
0.0
 13
10.49940646284063
 23
7.187311841114311
 33
0.0
  0
SOLID
  5
1ED9
330
FFC
100
AcDbEntity
  8
DIM
 62
     0
100
AcDbTrace
 10
10.43940646284063
 20
9.189311841114312
 30
0.0
 11
10.55940646284063
 21
9.189311841114312
 31
0.0
 12
10.49940646284063
 22
9.549311841114311
 32
0.0
 13
10.49940646284063
 23
9.549311841114311
 33
0.0
  0
MTEXT
  5
1EDA
330
FFC
100
AcDbEntity
  8
DIM
 62
     0
100
AcDbMText
 10
10.49940646284063
 20
8.368311841114314
 30
0.0
 40
0.25
 41
0.0
 71
     5
 72
     1
  1
\A1;2.362
 73
     1
 44
1.0
  0
POINT
  5
1EDB
330
FFC
100
AcDbEntity
  8
DEFPOINTS
 62
     0
100
AcDbPoint
 10
7.543125462840634
 20
7.187311841114312
 30
0.0
  0
POINT
  5
1EDC
330
FFC
100
AcDbEntity
  8
DEFPOINTS
 62
     0
100
AcDbPoint
 10
7.726125462840633
 20
9.549311841114311
 30
0.0
  0
POINT
  5
1EDD
330
FFC
100
AcDbEntity
  8
DEFPOINTS
 62
     0
100
AcDbPoint
 10
10.49940646284063
 20
9.549311841114311
 30
0.0
  0
ENDBLK
  5
1008
330
FFC
100
AcDbEntity
  8
0
100
AcDbBlockEnd
  0
BLOCK
  5
1015
330
100A
100
AcDbEntity
  8
0
100
AcDbBlockBegin
  2
*D42
 70
     1
 10
0.0
 20
0.0
 30
0.0
  3
*D42
  1

  0
LINE
  5
1D3C
330
100A
100
AcDbEntity
  8
DIM
 62
     0
370
    -2
100
AcDbLine
 10
23.37044375438674
 20
13.04892084111431
 30
0.0
 11
24.10700675438674
 21
13.04892084111431
 31
0.0
  0
LINE
  5
1D3D
330
100A
100
AcDbEntity
  8
DIM
 62
     0
370
    -2
100
AcDbLine
 10
23.43294375438673
 20
11.86792084111431
 30
0.0
 11
24.10700675438674
 21
11.86792084111431
 31
0.0
  0
LINE
  5
1D3E
330
100A
100
AcDbEntity
  8
DIM
 62
     0
370
    -2
100
AcDbLine
 10
23.92100675438673
 20
13.40892084111431
 30
0.0
 11
23.92100675438673
 21
13.76892084111431
 31
0.0
  0
LINE
  5
1D3F
330
100A
100
AcDbEntity
  8
DIM
 62
     0
370
    -2
100
AcDbLine
 10
23.92100675438673
 20
11.50792084111431
 30
0.0
 11
23.92100675438673
 21
11.14792084111431
 31
0.0
  0
SOLID
  5
1D40
330
100A
100
AcDbEntity
  8
DIM
 62
     0
100
AcDbTrace
 10
23.86100675438674
 20
13.40892084111431
 30
0.0
 11
23.98100675438673
 21
13.40892084111431
 31
0.0
 12
23.92100675438673
 22
13.04892084111431
 32
0.0
 13
23.92100675438673
 23
13.04892084111431
 33
0.0
  0
SOLID
  5
1D41
330
100A
100
AcDbEntity
  8
DIM
 62
     0
100
AcDbTrace
 10
23.86100675438674
 20
11.50792084111431
 30
0.0
 11
23.98100675438673
 21
11.50792084111431
 31
0.0
 12
23.92100675438673
 22
11.86792084111431
 32
0.0
 13
23.92100675438673
 23
11.86792084111431
 33
0.0
  0
MTEXT
  5
1D42
330
100A
100
AcDbEntity
  8
DIM
 62
     0
100
AcDbMText
 10
23.92100675438673
 20
12.45842084111431
 30
0.0
 40
0.25
 41
0.0
 71
     5
 72
     1
  1
\A1;1.181
 73
     1
 44
1.0
  0
POINT
  5
1D43
330
100A
100
AcDbEntity
  8
DEFPOINTS
 62
     0
100
AcDbPoint
 10
23.24444375438673
 20
13.04892084111431
 30
0.0
  0
POINT
  5
1D44
330
100A
100
AcDbEntity
  8
DEFPOINTS
 62
     0
100
AcDbPoint
 10
23.30694375438673
 20
11.86792084111431
 30
0.0
  0
POINT
  5
1D45
330
100A
100
AcDbEntity
  8
DEFPOINTS
 62
     0
100
AcDbPoint
 10
23.92100675438673
 20
11.86792084111431
 30
0.0
  0
ENDBLK
  5
1016
330
100A
100
AcDbEntity
  8
0
100
AcDbBlockEnd
  0
BLOCK
  5
1023
330
1018
100
AcDbEntity
  8
0
100
AcDbBlockBegin
  2
*D43
 70
     1
 10
0.0
 20
0.0
 30
0.0
  3
*D43
  1

  0
LINE
  5
1EE8
330
1018
100
AcDbEntity
  8
DIM
 62
     0
370
    -2
100
AcDbLine
 10
8.039625462840632
 20
15.45476684111431
 30
0.0
 11
8.780371462840633
 21
15.45476684111431
 31
0.0
  0
LINE
  5
1EE9
330
1018
100
AcDbEntity
  8
DIM
 62
     0
370
    -2
100
AcDbLine
 10
8.024125462840634
 20
13.05276684111431
 30
0.0
 11
8.780371462840633
 21
13.05276684111431
 31
0.0
  0
LINE
  5
1EEA
330
1018
100
AcDbEntity
  8
DIM
 62
     0
370
    -2
100
AcDbLine
 10
8.594371462840634
 20
15.09476684111431
 30
0.0
 11
8.594371462840634
 21
14.55876684111431
 31
0.0
  0
LINE
  5
1EEB
330
1018
100
AcDbEntity
  8
DIM
 62
     0
370
    -2
100
AcDbLine
 10
8.594371462840634
 20
13.41276684111431
 30
0.0
 11
8.594371462840634
 21
13.94876684111431
 31
0.0
  0
SOLID
  5
1EEC
330
1018
100
AcDbEntity
  8
DIM
 62
     0
100
AcDbTrace
 10
8.534371462840633
 20
15.09476684111431
 30
0.0
 11
8.654371462840634
 21
15.09476684111431
 31
0.0
 12
8.594371462840634
 22
15.45476684111431
 32
0.0
 13
8.594371462840634
 23
15.45476684111431
 33
0.0
  0
SOLID
  5
1EED
330
1018
100
AcDbEntity
  8
DIM
 62
     0
100
AcDbTrace
 10
8.534371462840633
 20
13.41276684111431
 30
0.0
 11
8.654371462840634
 21
13.41276684111431
 31
0.0
 12
8.594371462840634
 22
13.05276684111431
 32
0.0
 13
8.594371462840634
 23
13.05276684111431
 33
0.0
  0
MTEXT
  5
1EEE
330
1018
100
AcDbEntity
  8
DIM
 62
     0
100
AcDbMText
 10
8.59437146284063
 20
14.25376684111431
 30
0.0
 40
0.25
 41
0.0
 71
     5
 72
     1
  1
\A1;2.402
 73
     1
 44
1.0
  0
POINT
  5
1EEF
330
1018
100
AcDbEntity
  8
DEFPOINTS
 62
     0
100
AcDbPoint
 10
7.913625462840633
 20
15.45476684111431
 30
0.0
  0
POINT
  5
1EF0
330
1018
100
AcDbEntity
  8
DEFPOINTS
 62
     0
100
AcDbPoint
 10
7.898125462840633
 20
13.05276684111431
 30
0.0
  0
POINT
  5
1EF1
330
1018
100
AcDbEntity
  8
DEFPOINTS
 62
     0
100
AcDbPoint
 10
8.594371462840634
 20
13.05276684111431
 30
0.0
  0
ENDBLK
  5
1024
330
1018
100
AcDbEntity
  8
0
100
AcDbBlockEnd
  0
BLOCK
  5
1044
330
1039
100
AcDbEntity
  8
0
100
AcDbBlockBegin
  2
*D44
 70
     1
 10
0.0
 20
0.0
 30
0.0
  3
*D44
  1

  0
LINE
  5
1D50
330
1039
100
AcDbEntity
  8
DIM
 62
     0
370
    -2
100
AcDbLine
 10
25.84647375438674
 20
7.514031841114312
 30
0.0
 11
25.84647375438674
 21
7.402549841114312
 31
0.0
  0
LINE
  5
1D51
330
1039
100
AcDbEntity
  8
DIM
 62
     0
370
    -2
100
AcDbLine
 10
25.96647375438674
 20
7.514031841114312
 30
0.0
 11
25.96647375438674
 21
7.402549841114312
 31
0.0
  0
LINE
  5
1D52
330
1039
100
AcDbEntity
  8
DIM
 62
     0
370
    -2
100
AcDbLine
 10
25.48647375438674
 20
7.588549841114312
 30
0.0
 11
25.12647375438674
 21
7.588549841114312
 31
0.0
  0
LINE
  5
1D53
330
1039
100
AcDbEntity
  8
DIM
 62
     0
370
    -2
100
AcDbLine
 10
26.32647375438674
 20
7.588549841114312
 30
0.0
 11
26.68647375438673
 21
7.588549841114312
 31
0.0
  0
SOLID
  5
1D54
330
1039
100
AcDbEntity
  8
DIM
 62
     0
100
AcDbTrace
 10
25.48647375438674
 20
7.648549841114312
 30
0.0
 11
25.48647375438674
 21
7.528549841114313
 31
0.0
 12
25.84647375438674
 22
7.588549841114312
 32
0.0
 13
25.84647375438674
 23
7.588549841114312
 33
0.0
  0
SOLID
  5
1D55
330
1039
100
AcDbEntity
  8
DIM
 62
     0
100
AcDbTrace
 10
26.32647375438674
 20
7.648549841114312
 30
0.0
 11
26.32647375438674
 21
7.528549841114313
 31
0.0
 12
25.96647375438674
 22
7.588549841114312
 32
0.0
 13
25.96647375438674
 23
7.588549841114312
 33
0.0
  0
MTEXT
  5
1D56
330
1039
100
AcDbEntity
  8
DIM
 62
     0
100
AcDbMText
 10
27.17897375438674
 20
7.588549841114312
 30
0.0
 40
0.25
 41
0.0
 71
     5
 72
     1
  1
\A1;0.120
 73
     1
 44
1.0
  0
POINT
  5
1D57
330
1039
100
AcDbEntity
  8
DEFPOINTS
 62
     0
100
AcDbPoint
 10
25.84647375438674
 20
7.640031841114312
 30
0.0
  0
POINT
  5
1D58
330
1039
100
AcDbEntity
  8
DEFPOINTS
 62
     0
100
AcDbPoint
 10
25.96647375438674
 20
7.640031841114312
 30
0.0
  0
POINT
  5
1D59
330
1039
100
AcDbEntity
  8
DEFPOINTS
 62
     0
100
AcDbPoint
 10
25.96647375438674
 20
7.588549841114312
 30
0.0
  0
ENDBLK
  5
1045
330
1039
100
AcDbEntity
  8
0
100
AcDbBlockEnd
  0
BLOCK
  5
1147
330
113C
100
AcDbEntity
  8
0
100
AcDbBlockBegin
  2
*D45
 70
     1
 10
0.0
 20
0.0
 30
0.0
  3
*D45
  1

  0
LINE
  5
1A33
330
113C
100
AcDbEntity
  8
DIM
 62
     0
370
    -2
100
AcDbLine
 10
31.31029699815826
 20
14.2844555407906
 30
0.0
 11
32.18802799815827
 21
14.2844555407906
 31
0.0
  0
LINE
  5
1A34
330
113C
100
AcDbEntity
  8
DIM
 62
     0
370
    -2
100
AcDbLine
 10
31.31029699815826
 20
15.5244555407906
 30
0.0
 11
32.18802799815827
 21
15.5244555407906
 31
0.0
  0
LINE
  5
1A35
330
113C
100
AcDbEntity
  8
DIM
 62
     0
370
    -2
100
AcDbLine
 10
32.00202799815826
 20
13.9244555407906
 30
0.0
 11
32.00202799815826
 21
13.5644555407906
 31
0.0
  0
LINE
  5
1A36
330
113C
100
AcDbEntity
  8
DIM
 62
     0
370
    -2
100
AcDbLine
 10
32.00202799815826
 20
15.8844555407906
 30
0.0
 11
32.00202799815827
 21
16.2444555407906
 31
0.0
  0
SOLID
  5
1A37
330
113C
100
AcDbEntity
  8
DIM
 62
     0
100
AcDbTrace
 10
31.94202799815827
 20
13.9244555407906
 30
0.0
 11
32.06202799815827
 21
13.9244555407906
 31
0.0
 12
32.00202799815826
 22
14.2844555407906
 32
0.0
 13
32.00202799815826
 23
14.2844555407906
 33
0.0
  0
SOLID
  5
1A38
330
113C
100
AcDbEntity
  8
DIM
 62
     0
100
AcDbTrace
 10
31.94202799815827
 20
15.8844555407906
 30
0.0
 11
32.06202799815827
 21
15.8844555407906
 31
0.0
 12
32.00202799815826
 22
15.5244555407906
 32
0.0
 13
32.00202799815826
 23
15.5244555407906
 33
0.0
  0
MTEXT
  5
1A39
330
113C
100
AcDbEntity
  8
DIM
 62
     0
100
AcDbMText
 10
32.00202799815826
 20
14.90445554079061
 30
0.0
 40
0.25
 41
0.0
 71
     5
 72
     1
  1
\A1;0.310 DIA.\PC'BORE
 73
     1
 44
1.0
  0
POINT
  5
1A3A
330
113C
100
AcDbEntity
  8
DEFPOINTS
 62
     0
100
AcDbPoint
 10
31.18429699815826
 20
14.2844555407906
 30
0.0
  0
POINT
  5
1A3B
330
113C
100
AcDbEntity
  8
DEFPOINTS
 62
     0
100
AcDbPoint
 10
31.18429699815826
 20
15.5244555407906
 30
0.0
  0
POINT
  5
1A3C
330
113C
100
AcDbEntity
  8
DEFPOINTS
 62
     0
100
AcDbPoint
 10
32.00202799815826
 20
15.5244555407906
 30
0.0
  0
ENDBLK
  5
1148
330
113C
100
AcDbEntity
  8
0
100
AcDbBlockEnd
  0
BLOCK
  5
1165
330
115A
100
AcDbEntity
  8
0
100
AcDbBlockBegin
  2
*D46
 70
     1
 10
0.0
 20
0.0
 30
0.0
  3
*D46
  1

  0
LINE
  5
19F5
330
115A
100
AcDbEntity
  8
DIM
 62
     0
370
    -2
100
AcDbLine
 10
26.33429699815827
 20
15.2482055407906
 30
0.0
 11
25.45211599815827
 21
15.2482055407906
 31
0.0
  0
LINE
  5
19F6
330
115A
100
AcDbEntity
  8
DIM
 62
     0
370
    -2
100
AcDbLine
 10
26.33429699815827
 20
14.5607055407906
 30
0.0
 11
25.45211599815827
 21
14.5607055407906
 31
0.0
  0
LINE
  5
19F7
330
115A
100
AcDbEntity
  8
DIM
 62
     0
370
    -2
100
AcDbLine
 10
25.63811599815827
 20
15.6082055407906
 30
0.0
 11
25.63811599815827
 21
15.9682055407906
 31
0.0
  0
LINE
  5
19F8
330
115A
100
AcDbEntity
  8
DIM
 62
     0
370
    -2
100
AcDbLine
 10
25.63811599815827
 20
14.2007055407906
 30
0.0
 11
25.63811599815827
 21
13.8407055407906
 31
0.0
  0
SOLID
  5
19F9
330
115A
100
AcDbEntity
  8
DIM
 62
     0
100
AcDbTrace
 10
25.57811599815827
 20
15.6082055407906
 30
0.0
 11
25.69811599815826
 21
15.6082055407906
 31
0.0
 12
25.63811599815827
 22
15.2482055407906
 32
0.0
 13
25.63811599815827
 23
15.2482055407906
 33
0.0
  0
SOLID
  5
19FA
330
115A
100
AcDbEntity
  8
DIM
 62
     0
100
AcDbTrace
 10
25.57811599815827
 20
14.2007055407906
 30
0.0
 11
25.69811599815826
 21
14.2007055407906
 31
0.0
 12
25.63811599815827
 22
14.5607055407906
 32
0.0
 13
25.63811599815827
 23
14.5607055407906
 33
0.0
  0
MTEXT
  5
19FB
330
115A
100
AcDbEntity
  8
DIM
 62
     0
100
AcDbMText
 10
25.63811599815826
 20
14.90445554079061
 30
0.0
 40
0.25
 41
0.0
 71
     5
 72
     1
  1
\A1;0.172 DIA.
 73
     1
 44
1.0
  0
POINT
  5
19FC
330
115A
100
AcDbEntity
  8
DEFPOINTS
 62
     0
100
AcDbPoint
 10
26.46029699815827
 20
15.2482055407906
 30
0.0
  0
POINT
  5
19FD
330
115A
100
AcDbEntity
  8
DEFPOINTS
 62
     0
100
AcDbPoint
 10
26.46029699815827
 20
14.5607055407906
 30
0.0
  0
POINT
  5
19FE
330
115A
100
AcDbEntity
  8
DEFPOINTS
 62
     0
100
AcDbPoint
 10
25.63811599815827
 20
14.5607055407906
 30
0.0
  0
ENDBLK
  5
1166
330
115A
100
AcDbEntity
  8
0
100
AcDbBlockEnd
  0
BLOCK
  5
1181
330
1176
100
AcDbEntity
  8
0
100
AcDbBlockBegin
  2
*D47
 70
     1
 10
0.0
 20
0.0
 30
0.0
  3
*D47
  1

  0
LINE
  5
1A29
330
1176
100
AcDbEntity
  8
DIM
 62
     0
370
    -2
100
AcDbLine
 10
31.18429699815826
 20
13.9244555407906
 30
0.0
 11
31.18429699815826
 21
13.08756118066198
 31
0.0
  0
LINE
  5
1A2A
330
1176
100
AcDbEntity
  8
DIM
 62
     0
370
    -2
100
AcDbLine
 10
28.24829699815824
 20
14.1584555407906
 30
0.0
 11
28.24829699815824
 21
13.08756118066198
 31
0.0
  0
LINE
  5
1A2B
330
1176
100
AcDbEntity
  8
DIM
 62
     0
370
    -2
100
AcDbLine
 10
30.82429699815826
 20
13.27356118066198
 30
0.0
 11
30.25567199815825
 21
13.27356118066198
 31
0.0
  0
LINE
  5
1A2C
330
1176
100
AcDbEntity
  8
DIM
 62
     0
370
    -2
100
AcDbLine
 10
28.60829699815823
 20
13.27356118066198
 30
0.0
 11
29.17692199815825
 21
13.27356118066198
 31
0.0
  0
SOLID
  5
1A2D
330
1176
100
AcDbEntity
  8
DIM
 62
     0
100
AcDbTrace
 10
30.82429699815826
 20
13.33356118066198
 30
0.0
 11
30.82429699815826
 21
13.21356118066198
 31
0.0
 12
31.18429699815826
 22
13.27356118066198
 32
0.0
 13
31.18429699815826
 23
13.27356118066198
 33
0.0
  0
SOLID
  5
1A2E
330
1176
100
AcDbEntity
  8
DIM
 62
     0
100
AcDbTrace
 10
28.60829699815823
 20
13.33356118066198
 30
0.0
 11
28.60829699815823
 21
13.21356118066198
 31
0.0
 12
28.24829699815824
 22
13.27356118066198
 32
0.0
 13
28.24829699815824
 23
13.27356118066198
 33
0.0
  0
MTEXT
  5
1A2F
330
1176
100
AcDbEntity
  8
DIM
 62
     0
100
AcDbMText
 10
29.71629699815825
 20
13.27356118066198
 30
0.0
 40
0.25
 41
0.0
 71
     5
 72
     1
  1
\A1;0.734
 73
     1
 44
1.0
  0
POINT
  5
1A30
330
1176
100
AcDbEntity
  8
DEFPOINTS
 62
     0
100
AcDbPoint
 10
31.18429699815826
 20
14.0504555407906
 30
0.0
  0
POINT
  5
1A31
330
1176
100
AcDbEntity
  8
DEFPOINTS
 62
     0
100
AcDbPoint
 10
28.24829699815824
 20
14.2844555407906
 30
0.0
  0
POINT
  5
1A32
330
1176
100
AcDbEntity
  8
DEFPOINTS
 62
     0
100
AcDbPoint
 10
28.24829699815824
 20
13.27356118066198
 30
0.0
  0
ENDBLK
  5
1182
330
1176
100
AcDbEntity
  8
0
100
AcDbBlockEnd
  0
BLOCK
  5
118F
330
1184
100
AcDbEntity
  8
0
100
AcDbBlockBegin
  2
*D48
 70
     1
 10
0.0
 20
0.0
 30
0.0
  3
*D48
  1

  0
LINE
  5
19EA
330
1184
100
AcDbEntity
  8
DIM
 62
     0
370
    -2
100
AcDbLine
 10
26.33429699815827
 20
17.3377385407906
 30
0.0
 11
24.75258199815827
 21
17.3377385407906
 31
0.0
  0
LINE
  5
19EB
330
1184
100
AcDbEntity
  8
DIM
 62
     0
370
    -2
100
AcDbLine
 10
26.33429699815827
 20
17.6577385407906
 30
0.0
 11
24.75258199815827
 21
17.6577385407906
 31
0.0
  0
LINE
  5
19EC
330
1184
100
AcDbEntity
  8
DIM
 62
     0
370
    -2
100
AcDbLine
 10
24.93858199815827
 20
16.9777385407906
 30
0.0
 11
24.93858199815827
 21
16.6177385407906
 31
0.0
  0
LINE
  5
19ED
330
1184
100
AcDbEntity
  8
DIM
 62
     0
370
    -2
100
AcDbLine
 10
24.93858199815827
 20
18.0177385407906
 30
0.0
 11
24.93858199815827
 21
18.3777385407906
 31
0.0
  0
LINE
  5
19EE
330
1184
100
AcDbEntity
  8
DIM
 62
     0
370
    -2
100
AcDbLine
 10
24.93858199815827
 20
18.3777385407906
 30
0.0
 11
25.29858199815826
 21
18.3777385407906
 31
0.0
  0
SOLID
  5
19EF
330
1184
100
AcDbEntity
  8
DIM
 62
     0
100
AcDbTrace
 10
24.87858199815827
 20
16.9777385407906
 30
0.0
 11
24.99858199815827
 21
16.9777385407906
 31
0.0
 12
24.93858199815827
 22
17.3377385407906
 32
0.0
 13
24.93858199815827
 23
17.3377385407906
 33
0.0
  0
SOLID
  5
19F0
330
1184
100
AcDbEntity
  8
DIM
 62
     0
100
AcDbTrace
 10
24.87858199815827
 20
18.0177385407906
 30
0.0
 11
24.99858199815827
 21
18.0177385407906
 31
0.0
 12
24.93858199815827
 22
17.6577385407906
 32
0.0
 13
24.93858199815827
 23
17.6577385407906
 33
0.0
  0
MTEXT
  5
19F1
330
1184
100
AcDbEntity
  8
DIM
 62
     0
100
AcDbMText
 10
25.80670699815826
 20
18.37773854079061
 30
0.0
 40
0.25
 41
0.0
 71
     5
 72
     1
  1
\A1;0.080
 73
     1
 44
1.0
  0
POINT
  5
19F2
330
1184
100
AcDbEntity
  8
DEFPOINTS
 62
     0
100
AcDbPoint
 10
26.46029699815827
 20
17.3377385407906
 30
0.0
  0
POINT
  5
19F3
330
1184
100
AcDbEntity
  8
DEFPOINTS
 62
     0
100
AcDbPoint
 10
26.46029699815827
 20
17.6577385407906
 30
0.0
  0
POINT
  5
19F4
330
1184
100
AcDbEntity
  8
DEFPOINTS
 62
     0
100
AcDbPoint
 10
24.93858199815827
 20
17.6577385407906
 30
0.0
  0
ENDBLK
  5
1190
330
1184
100
AcDbEntity
  8
0
100
AcDbBlockEnd
  0
BLOCK
  5
119D
330
1192
100
AcDbEntity
  8
0
100
AcDbBlockBegin
  2
*D49
 70
     1
 10
0.0
 20
0.0
 30
0.0
  3
*D49
  1

  0
LINE
  5
1A1F
330
1192
100
AcDbEntity
  8
DIM
 62
     0
370
    -2
100
AcDbLine
 10
26.92029699815826
 20
17.7837385407906
 30
0.0
 11
26.92029699815826
 21
19.1734955407906
 31
0.0
  0
LINE
  5
1A20
330
1192
100
AcDbEntity
  8
DIM
 62
     0
370
    -2
100
AcDbLine
 10
26.46029699815827
 20
18.42992565569343
 30
0.0
 11
26.46029699815827
 21
19.1734955407906
 31
0.0
  0
LINE
  5
1A21
330
1192
100
AcDbEntity
  8
DIM
 62
     0
370
    -2
100
AcDbLine
 10
27.28029699815826
 20
18.9874955407906
 30
0.0
 11
27.64029699815826
 21
18.9874955407906
 31
0.0
  0
LINE
  5
1A22
330
1192
100
AcDbEntity
  8
DIM
 62
     0
370
    -2
100
AcDbLine
 10
26.10029699815827
 20
18.9874955407906
 30
0.0
 11
25.74029699815827
 21
18.9874955407906
 31
0.0
  0
SOLID
  5
1A23
330
1192
100
AcDbEntity
  8
DIM
 62
     0
100
AcDbTrace
 10
27.28029699815826
 20
19.0474955407906
 30
0.0
 11
27.28029699815826
 21
18.9274955407906
 31
0.0
 12
26.92029699815826
 22
18.9874955407906
 32
0.0
 13
26.92029699815826
 23
18.9874955407906
 33
0.0
  0
SOLID
  5
1A24
330
1192
100
AcDbEntity
  8
DIM
 62
     0
100
AcDbTrace
 10
26.10029699815827
 20
19.0474955407906
 30
0.0
 11
26.10029699815827
 21
18.9274955407906
 31
0.0
 12
26.46029699815827
 22
18.9874955407906
 32
0.0
 13
26.46029699815827
 23
18.9874955407906
 33
0.0
  0
MTEXT
  5
1A25
330
1192
100
AcDbEntity
  8
DIM
 62
     0
100
AcDbMText
 10
25.26342199815827
 20
18.9874955407906
 30
0.0
 40
0.25
 41
0.0
 71
     5
 72
     1
  1
\A1;0.115
 73
     1
 44
1.0
  0
POINT
  5
1A26
330
1192
100
AcDbEntity
  8
DEFPOINTS
 62
     0
100
AcDbPoint
 10
26.92029699815826
 20
17.6577385407906
 30
0.0
  0
POINT
  5
1A27
330
1192
100
AcDbEntity
  8
DEFPOINTS
 62
     0
100
AcDbPoint
 10
26.46029699815827
 20
18.30392565569343
 30
0.0
  0
POINT
  5
1A28
330
1192
100
AcDbEntity
  8
DEFPOINTS
 62
     0
100
AcDbPoint
 10
26.46029699815827
 20
18.9874955407906
 30
0.0
  0
ENDBLK
  5
119E
330
1192
100
AcDbEntity
  8
0
100
AcDbBlockEnd
  0
BLOCK
  5
1843
330
182C
100
AcDbEntity
  8
0
100
AcDbBlockBegin
  2
HBS
 70
     0
 10
0.0
 20
0.0
 30
0.0
  3
HBS
  1

  0
LINE
  5
182D
330
182C
100
AcDbEntity
  8
TITLE
100
AcDbLine
 10
0.0620000000000118
 20
10.266
 30
0.0
 11
16.53800000000001
 21
10.266
 31
0.0
  0
LINE
  5
182E
330
182C
100
AcDbEntity
  8
TITLE
100
AcDbLine
 10
16.53800000000001
 20
0.0620000000000012
 30
0.0
 11
0.0620000000000118
 21
0.0620000000000012
 31
0.0
  0
LINE
  5
182F
330
182C
100
AcDbEntity
  8
TITLE
100
AcDbLine
 10
0.0
 20
10.32799999999999
 30
0.0
 11
16.59999999999999
 21
10.32799999999999
 31
0.0
  0
LINE
  5
1830
330
182C
100
AcDbEntity
  8
TITLE
100
AcDbLine
 10
16.59999999999999
 20
0.0
 30
0.0
 11
0.0
 21
0.0
 31
0.0
  0
LINE
  5
1831
330
182C
100
AcDbEntity
  8
TITLE
100
AcDbLine
 10
0.0620000000000118
 20
9.848000000000002
 30
0.0
 11
16.53800000000001
 21
9.848000000000006
 31
0.0
  0
LINE
  5
1832
330
182C
100
AcDbEntity
  8
TITLE
100
AcDbLine
 10
0.0620000000000118
 20
0.0620000000000012
 30
0.0
 11
0.0620000000000118
 21
10.266
 31
0.0
  0
LINE
  5
1833
330
182C
100
AcDbEntity
  8
TITLE
100
AcDbLine
 10
0.0
 20
0.0
 30
0.0
 11
0.0
 21
10.32799999999999
 31
0.0
  0
TEXT
  5
1834
330
182C
100
AcDbEntity
  8
TEXT
100
AcDbText
 10
0.2078333333333452
 20
9.888079195640081
 30
0.0
 40
0.125
  1
NAME
 72
     1
 11
0.4370000000000119
 21
9.888079195640081
 31
0.0
100
AcDbText
  0
TEXT
  5
1835
330
182C
100
AcDbEntity
  8
TEXT
100
AcDbText
 10
0.2078333333333452
 20
10.09641252897341
 30
0.0
 40
0.125
  1
PART
 72
     1
 11
0.4370000000000119
 21
10.09641252897341
 31
0.0
100
AcDbText
  0
LINE
  5
1836
330
182C
100
AcDbEntity
  8
TITLE
100
AcDbLine
 10
0.8120000000000118
 20
9.848000000000002
 30
0.0
 11
0.8120000000000118
 21
10.266
 31
0.0
  0
LINE
  5
1837
330
182C
100
AcDbEntity
  8
TITLE
100
AcDbLine
 10
7.0
 20
10.266
 30
0.0
 11
7.0
 21
9.848000000000002
 31
0.0
  0
LINE
  5
1838
330
182C
100
AcDbEntity
  8
TITLE
100
AcDbLine
 10
7.062000000000011
 20
10.266
 30
0.0
 11
7.062000000000011
 21
9.848000000000002
 31
0.0
  0
LINE
  5
1839
330
182C
100
AcDbEntity
  8
TITLE
100
AcDbLine
 10
7.812000000000011
 20
10.266
 30
0.0
 11
7.812000000000011
 21
9.848000000000002
 31
0.0
  0
TEXT
  5
183A
330
182C
100
AcDbEntity
  8
TEXT
100
AcDbText
 10
7.312000000000011
 20
9.888079195640081
 30
0.0
 40
0.125
  1
No.
 72
     1
 11
7.437000000000011
 21
9.888079195640081
 31
0.0
100
AcDbText
  0
TEXT
  5
183B
330
182C
100
AcDbEntity
  8
TEXT
100
AcDbText
 10
7.207833333333344
 20
10.09641252897341
 30
0.0
 40
0.125
  1
PART
 72
     1
 11
7.437000000000011
 21
10.09641252897341
 31
0.0
100
AcDbText
  0
LINE
  5
183C
330
182C
100
AcDbEntity
  8
TITLE
100
AcDbLine
 10
16.53800000000001
 20
10.266
 30
0.0
 11
16.53800000000001
 21
0.0620000000000012
 31
0.0
  0
LINE
  5
183D
330
182C
100
AcDbEntity
  8
TITLE
100
AcDbLine
 10
16.59999999999999
 20
10.32799999999999
 30
0.0
 11
16.59999999999999
 21
0.0
 31
0.0
  0
TEXT
  5
183E
330
182C
100
AcDbEntity
  8
TEXT
100
AcDbText
 10
14.22865779971668
 20
10.09641252897341
 30
0.0
 40
0.125
  1
REV.
 72
     1
 11
14.43699113305001
 21
10.09641252897341
 31
0.0
100
AcDbText
  0
TEXT
  5
183F
330
182C
100
AcDbEntity
  8
TEXT
100
AcDbText
 10
14.20782446638335
 20
9.888079195640081
 30
0.0
 40
0.125
  1
DATE
 72
     1
 11
14.43699113305001
 21
9.888079195640081
 31
0.0
100
AcDbText
  0
LINE
  5
1840
330
182C
100
AcDbEntity
  8
TITLE
100
AcDbLine
 10
14.06199113305001
 20
10.266
 30
0.0
 11
14.06199113305001
 21
9.848000000000002
 31
0.0
  0
LINE
  5
1841
330
182C
100
AcDbEntity
  8
TITLE
100
AcDbLine
 10
14.81199113305001
 20
10.266
 30
0.0
 11
14.81199113305001
 21
9.848000000000002
 31
0.0
  0
LINE
  5
1842
330
182C
100
AcDbEntity
  8
TITLE
100
AcDbLine
 10
13.99999113305
 20
10.266
 30
0.0
 11
13.99999113305
 21
9.848000000000002
 31
0.0
  0
ENDBLK
  5
1844
330
182C
100
AcDbEntity
  8
0
100
AcDbBlockEnd
  0
ENDSEC
  0
SECTION
  2
ENTITIES
  0
TEXT
  5
B20
330
1E
100
AcDbEntity
  8
TEXT
100
AcDbText
 10
21.85154375438673
 20
3.321391999999999
 30
0.0
 40
0.36
  1
%%UCOVER
 41
0.75
 72
     1
 11
22.53104375438673
 21
3.321391999999999
 31
0.0
100
AcDbText
  0
TEXT
  5
B21
330
1E
100
AcDbEntity
  8
TEXT
100
AcDbText
 10
7.007443678579034
 20
1.916543464326785
 30
0.0
 40
0.36
  1
%%UBODY
 41
0.75
 72
     1
 11
7.506943678579034
 21
1.916543464326785
 31
0.0
100
AcDbText
  0
LWPOLYLINE
  5
B3E
330
1E
100
AcDbEntity
  8
OBJECT
100
AcDbPolyline
 90
        8
 70
     1
 43
0.0
 10
3.502125462840633
 20
4.825311841114312
 10
7.726125462840633
 20
4.825311841114312
 42
0.4142140000000001
 10
7.976125462840633
 20
5.075311841114312
 10
7.976125462840633
 20
9.299311841114311
 42
0.4142140000000001
 10
7.726125462840633
 20
9.549311841114311
 10
3.502125462840633
 20
9.549311841114311
 42
0.4142140000000001
 10
3.252125462840633
 20
9.299311841114311
 10
3.252125462840633
 20
5.075311841114312
 42
0.4142140000000001
  0
CIRCLE
  5
B48
330
1E
100
AcDbEntity
  8
OBJECT
100
AcDbCircle
 10
7.700125462840633
 20
9.273311841114312
 30
0.0
 40
0.125
  0
CIRCLE
  5
B49
330
1E
100
AcDbEntity
  8
OBJECT
100
AcDbCircle
 10
7.700125462840633
 20
8.880311841114313
 30
0.0
 40
0.085
  0
LWPOLYLINE
  5
B4A
330
1E
100
AcDbEntity
  8
OBJECT
100
AcDbPolyline
 90
        6
 70
     1
 43
0.0
 10
7.881125462840634
 20
8.600901841114312
 42
0.230352
 10
7.726125462840633
 20
8.676311841114312
 10
7.531125462840633
 20
8.676311841114312
 42
-0.4142140000000001
 10
7.353125462840633
 20
8.854311841114313
 10
7.353125462840633
 20
9.069311841114313
 10
7.881125462840634
 20
9.069311841114313
  0
LWPOLYLINE
  5
B52
330
1E
100
AcDbEntity
  8
OBJECT
100
AcDbPolyline
 90
        6
 70
     1
 43
0.0
 10
3.347125462840633
 20
8.600901841114312
 42
-0.230352
 10
3.502125462840633
 20
8.676311841114312
 10
3.697125462840634
 20
8.676311841114312
 42
0.4142140000000001
 10
3.875125462840633
 20
8.854311841114313
 10
3.875125462840633
 20
9.069311841114313
 10
3.347125462840633
 20
9.069311841114313
  0
CIRCLE
  5
B5A
330
1E
100
AcDbEntity
  8
OBJECT
100
AcDbCircle
 10
3.528125462840634
 20
8.880311841114313
 30
0.0
 40
0.085
  0
LWPOLYLINE
  5
B5B
330
1E
100
AcDbEntity
  8
OBJECT
100
AcDbPolyline
 90
        6
 70
     1
 43
0.0
 10
3.347125462840633
 20
5.773722841114312
 42
0.230352
 10
3.502125462840633
 20
5.698311841114312
 10
3.697125462840634
 20
5.698311841114312
 42
-0.4142140000000001
 10
3.875125462840633
 20
5.520311841114312
 10
3.875125462840633
 20
5.305311841114312
 10
3.347125462840633
 20
5.305311841114312
  0
CIRCLE
  5
B63
330
1E
100
AcDbEntity
  8
OBJECT
100
AcDbCircle
 10
3.528125462840634
 20
5.494311841114313
 30
0.0
 40
0.085
  0
LWPOLYLINE
  5
B64
330
1E
100
AcDbEntity
  8
OBJECT
100
AcDbPolyline
 90
        6
 70
     1
 43
0.0
 10
7.881125462840634
 20
5.773722841114312
 42
-0.230352
 10
7.726125462840633
 20
5.698311841114312
 10
7.531125462840633
 20
5.698311841114312
 42
0.4142140000000001
 10
7.353125462840633
 20
5.520311841114312
 10
7.353125462840633
 20
5.305311841114312
 10
7.881125462840634
 20
5.305311841114312
  0
CIRCLE
  5
B6C
330
1E
100
AcDbEntity
  8
OBJECT
100
AcDbCircle
 10
7.700125462840633
 20
5.494311841114313
 30
0.0
 40
0.085
  0
CIRCLE
  5
B6D
330
1E
100
AcDbEntity
  8
OBJECT
100
AcDbCircle
 10
7.700125462840633
 20
9.273311841114312
 30
0.0
 40
0.066
  0
CIRCLE
  5
B6E
330
1E
100
AcDbEntity
  8
OBJECT
100
AcDbCircle
 10
3.528125462840634
 20
9.273311841114312
 30
0.0
 40
0.066
  0
CIRCLE
  5
B6F
330
1E
100
AcDbEntity
  8
OBJECT
100
AcDbCircle
 10
3.528125462840634
 20
9.273311841114312
 30
0.0
 40
0.125
  0
CIRCLE
  5
B70
330
1E
100
AcDbEntity
  8
OBJECT
100
AcDbCircle
 10
3.528125462840634
 20
5.101311841114312
 30
0.0
 40
0.125
  0
CIRCLE
  5
B71
330
1E
100
AcDbEntity
  8
OBJECT
100
AcDbCircle
 10
3.528125462840634
 20
5.101311841114312
 30
0.0
 40
0.066
  0
CIRCLE
  5
B72
330
1E
100
AcDbEntity
  8
OBJECT
100
AcDbCircle
 10
7.700125462840633
 20
5.101311841114312
 30
0.0
 40
0.066
  0
CIRCLE
  5
B73
330
1E
100
AcDbEntity
  8
OBJECT
100
AcDbCircle
 10
7.700125462840633
 20
5.101311841114312
 30
0.0
 40
0.125
  0
LWPOLYLINE
  5
B74
330
1E
100
AcDbEntity
  8
OBJECT
100
AcDbPolyline
 90
       24
 70
     1
 43
0.0
 10
3.370125462840633
 20
8.479311841114313
 10
3.370125462840633
 20
5.895311841114312
 42
0.4142140000000001
 10
3.502125462840633
 20
5.763311841114312
 10
3.697125462840634
 20
5.763311841114312
 42
-0.4142140000000001
 10
3.940125462840633
 20
5.520311841114312
 10
3.940125462840633
 20
5.075311841114312
 42
0.4142140000000001
 10
4.072125462840634
 20
4.943311841114312
 10
7.156125462840633
 20
4.943311841114312
 42
0.4142140000000001
 10
7.288125462840633
 20
5.075311841114312
 10
7.288125462840633
 20
5.520311841114312
 42
-0.4142140000000001
 10
7.531125462840633
 20
5.763311841114312
 10
7.726125462840633
 20
5.763311841114312
 42
0.4142140000000001
 10
7.858125462840634
 20
5.895311841114312
 10
7.858125462840634
 20
8.479311841114313
 42
0.4142140000000001
 10
7.726125462840633
 20
8.611311841114313
 10
7.531125462840633
 20
8.611311841114313
 42
-0.4142140000000001
 10
7.288125462840633
 20
8.854311841114313
 10
7.288125462840633
 20
9.299311841114311
 42
0.4142140000000001
 10
7.156125462840633
 20
9.431311841114313
 10
4.072125462840634
 20
9.431311841114313
 42
0.4142140000000001
 10
3.940125462840633
 20
9.299311841114311
 10
3.940125462840633
 20
8.854311841114313
 42
-0.4142140000000001
 10
3.697125462840634
 20
8.611311841114313
 10
3.502125462840633
 20
8.611311841114313
 42
0.4142140000000001
  0
LWPOLYLINE
  5
B8E
330
1E
100
AcDbEntity
  8
OBJECT
100
AcDbPolyline
 90
       24
 70
     1
 43
0.0
 10
3.330125462840633
 20
8.479311841114313
 10
3.330125462840633
 20
5.895311841114312
 42
0.4142140000000001
 10
3.502125462840633
 20
5.723311841114312
 10
3.697125462840634
 20
5.723311841114312
 42
-0.4142140000000001
 10
3.900125462840633
 20
5.520311841114312
 10
3.900125462840633
 20
5.075311841114312
 42
0.4142140000000001
 10
4.072125462840634
 20
4.903311841114312
 10
7.156125462840633
 20
4.903311841114312
 42
0.4142140000000001
 10
7.328125462840633
 20
5.075311841114312
 10
7.328125462840633
 20
5.520311841114312
 42
-0.4142140000000001
 10
7.531125462840633
 20
5.723311841114312
 10
7.726125462840633
 20
5.723311841114312
 42
0.4142140000000001
 10
7.898125462840633
 20
5.895311841114312
 10
7.898125462840633
 20
8.479311841114313
 42
0.4142140000000001
 10
7.726125462840633
 20
8.651311841114312
 10
7.531125462840633
 20
8.651311841114312
 42
-0.4142140000000001
 10
7.328125462840633
 20
8.854311841114313
 10
7.328125462840633
 20
9.299311841114311
 42
0.4142140000000001
 10
7.156125462840633
 20
9.471311841114312
 10
4.072125462840634
 20
9.471311841114312
 42
0.4142140000000001
 10
3.900125462840633
 20
9.299311841114311
 10
3.900125462840633
 20
8.854311841114313
 42
-0.4142140000000001
 10
3.697125462840634
 20
8.651311841114312
 10
3.502125462840633
 20
8.651311841114312
 42
0.4142140000000001
  0
LWPOLYLINE
  5
BA8
330
1E
100
AcDbEntity
  8
HIDDEN
100
AcDbPolyline
 90
        6
 70
     1
 43
0.0
 10
7.886125462840633
 20
9.135311841114312
 10
7.886125462840633
 20
9.299311841114311
 42
0.4142140000000001
 10
7.726125462840633
 20
9.459311841114312
 10
7.271055462840633
 20
9.459311841114312
 42
-0.241509
 10
7.353125462840633
 20
9.299311841114311
 10
7.353125462840633
 20
9.135311841114312
  0
ARC
  5
BB0
330
1E
100
AcDbEntity
  8
HIDDEN
100
AcDbCircle
 10
7.700125462840633
 20
9.273311841114312
 30
0.0
 40
0.191
100
AcDbArc
 50
103.138868
 51
226.262357
  0
ARC
  5
BB1
330
1E
100
AcDbEntity
  8
HIDDEN
100
AcDbCircle
 10
3.528125462840634
 20
9.273311841114312
 30
0.0
 40
0.191
100
AcDbArc
 50
313.7376429999999
 51
76.861132
  0
LWPOLYLINE
  5
BB2
330
1E
100
AcDbEntity
  8
HIDDEN
100
AcDbPolyline
 90
        6
 70
     1
 43
0.0
 10
3.342125462840633
 20
9.135311841114312
 10
3.342125462840633
 20
9.299311841114311
 42
-0.4142140000000001
 10
3.502125462840633
 20
9.459311841114312
 10
3.957194462840633
 20
9.459311841114312
 42
0.241509
 10
3.875125462840633
 20
9.299311841114311
 10
3.875125462840633
 20
9.135311841114312
  0
ARC
  5
BBA
330
1E
100
AcDbEntity
  8
HIDDEN
100
AcDbCircle
 10
3.528125462840634
 20
5.101311841114312
 30
0.0
 40
0.191
100
AcDbArc
 50
283.1388679999999
 51
46.262357
  0
LWPOLYLINE
  5
BBB
330
1E
100
AcDbEntity
  8
HIDDEN
100
AcDbPolyline
 90
        6
 70
     1
 43
0.0
 10
3.342125462840633
 20
5.239311841114312
 10
3.342125462840633
 20
5.075311841114312
 42
0.4142140000000001
 10
3.502125462840633
 20
4.915311841114312
 10
3.957194462840633
 20
4.915311841114312
 42
-0.241509
 10
3.875125462840633
 20
5.075311841114312
 10
3.875125462840633
 20
5.239311841114312
  0
LWPOLYLINE
  5
BC3
330
1E
100
AcDbEntity
  8
HIDDEN
100
AcDbPolyline
 90
        6
 70
     1
 43
0.0
 10
7.886125462840633
 20
5.239311841114312
 10
7.886125462840633
 20
5.075311841114312
 42
-0.4142140000000001
 10
7.726125462840633
 20
4.915311841114312
 10
7.271055462840633
 20
4.915311841114312
 42
0.241509
 10
7.353125462840633
 20
5.075311841114312
 10
7.353125462840633
 20
5.239311841114312
  0
ARC
  5
BCB
330
1E
100
AcDbEntity
  8
HIDDEN
100
AcDbCircle
 10
7.700125462840633
 20
5.101311841114312
 30
0.0
 40
0.191
100
AcDbArc
 50
133.7376429999999
 51
256.861132
  0
LWPOLYLINE
  5
BCC
330
1E
100
AcDbEntity
  8
OBJECT
100
AcDbPolyline
 90
        8
 70
     1
 43
0.0
 10
3.502125462840633
 20
4.845311841114313
 10
7.726125462840633
 20
4.845311841114313
 42
0.4142140000000001
 10
7.956125462840633
 20
5.075311841114312
 10
7.956125462840633
 20
9.299311841114311
 42
0.4142140000000001
 10
7.726125462840633
 20
9.529311841114312
 10
3.502125462840633
 20
9.529311841114312
 42
0.4142140000000001
 10
3.272125462840633
 20
9.299311841114311
 10
3.272125462840633
 20
5.075311841114312
 42
0.4142140000000001
  0
LINE
  5
BD6
330
1E
100
AcDbEntity
  8
OBJECT
100
AcDbLine
 10
3.314625462840634
 20
15.45476684111431
 30
0.0
 11
7.913625462840633
 21
15.45476684111431
 31
0.0
  0
LINE
  5
BD7
330
1E
100
AcDbEntity
  8
OBJECT
100
AcDbLine
 10
3.252125462840634
 20
13.13276684111431
 30
0.0
 11
7.976125462840633
 21
13.13276684111431
 31
0.0
  0
LINE
  5
BD8
330
1E
100
AcDbEntity
  8
OBJECT
100
AcDbLine
 10
3.272125462840634
 20
13.09276684111431
 30
0.0
 11
7.956125462840633
 21
13.09276684111431
 31
0.0
  0
LINE
  5
BD9
330
1E
100
AcDbEntity
  8
OBJECT
100
AcDbLine
 10
7.898125462840633
 20
13.05276684111431
 30
0.0
 11
3.330125462840634
 21
13.05276684111431
 31
0.0
  0
LINE
  5
BDA
330
1E
100
AcDbEntity
  8
HIDDEN
100
AcDbLine
 10
3.370125462840633
 20
15.33676684111431
 30
0.0
 11
7.858125462840634
 21
15.33676684111431
 31
0.0
  0
ARC
  5
BDB
330
1E
100
AcDbEntity
  8
OBJECT
100
AcDbCircle
 10
7.913625462840633
 20
15.39226684111431
 30
0.0
 40
0.0625
100
AcDbArc
 50
0.0
 51
90.0
  0
LINE
  5
BDC
330
1E
100
AcDbEntity
  8
OBJECT
100
AcDbLine
 10
7.976125462840633
 20
13.13276684111431
 30
0.0
 11
7.976125462840633
 21
15.39226684111431
 31
0.0
  0
LINE
  5
BDD
330
1E
100
AcDbEntity
  8
OBJECT
100
AcDbLine
 10
7.956125462840633
 20
13.09276684111431
 30
0.0
 11
7.956125462840633
 21
13.13276684111431
 31
0.0
  0
LINE
  5
BDE
330
1E
100
AcDbEntity
  8
HIDDEN
100
AcDbLine
 10
7.858125462840634
 20
15.33676684111431
 30
0.0
 11
7.858125462840634
 21
13.05276684111431
 31
0.0
  0
LINE
  5
BDF
330
1E
100
AcDbEntity
  8
HIDDEN
100
AcDbLine
 10
7.288125462840632
 20
15.33676684111431
 30
0.0
 11
7.288125462840632
 21
13.05276684111431
 31
0.0
  0
LINE
  5
BE0
330
1E
100
AcDbEntity
  8
HIDDEN
100
AcDbLine
 10
7.886125462840633
 20
13.20376684111431
 30
0.0
 11
7.886125462840633
 21
15.45476684111431
 31
0.0
  0
LINE
  5
BE1
330
1E
100
AcDbEntity
  8
HIDDEN
100
AcDbLine
 10
7.562125462840633
 20
13.20376684111431
 30
0.0
 11
7.562125462840633
 21
15.45476684111431
 31
0.0
  0
LINE
  5
BE2
330
1E
100
AcDbEntity
  8
HIDDEN
100
AcDbLine
 10
7.496125462840634
 20
15.33676684111431
 30
0.0
 11
7.496125462840634
 21
13.09276684111431
 31
0.0
  0
LINE
  5
BE3
330
1E
100
AcDbEntity
  8
HIDDEN
100
AcDbLine
 10
7.353125462840633
 20
15.33676684111431
 30
0.0
 11
7.353125462840633
 21
13.09276684111431
 31
0.0
  0
LINE
  5
BE4
330
1E
100
AcDbEntity
  8
OBJECT
100
AcDbLine
 10
7.898125462840633
 20
13.05276684111431
 30
0.0
 11
7.898125462840633
 21
13.09276684111431
 31
0.0
  0
LINE
  5
BE5
330
1E
100
AcDbEntity
  8
HIDDEN
100
AcDbLine
 10
7.634125462840632
 20
13.09276684111431
 30
0.0
 11
7.634125462840632
 21
13.42376684111431
 31
0.0
  0
LINE
  5
BE6
330
1E
100
AcDbEntity
  8
HIDDEN
100
AcDbLine
 10
7.766125462840633
 20
13.09276684111431
 30
0.0
 11
7.766125462840633
 21
13.42376684111431
 31
0.0
  0
LINE
  5
BE7
330
1E
100
AcDbEntity
  8
HIDDEN
100
AcDbLine
 10
7.575125462840635
 20
13.09276684111431
 30
0.0
 11
7.575125462840635
 21
13.42376684111431
 31
0.0
  0
LINE
  5
BE8
330
1E
100
AcDbEntity
  8
HIDDEN
100
AcDbLine
 10
7.825125462840633
 20
13.09276684111431
 30
0.0
 11
7.825125462840633
 21
13.42376684111431
 31
0.0
  0
LINE
  5
BE9
330
1E
100
AcDbEntity
  8
HIDDEN
100
AcDbLine
 10
7.886125462840633
 20
13.20376684111431
 30
0.0
 11
7.562125462840633
 21
13.20376684111431
 31
0.0
  0
LINE
  5
BEA
330
1E
100
AcDbEntity
  8
HIDDEN
100
AcDbLine
 10
7.886125462840633
 20
13.42376684111431
 30
0.0
 11
7.562125462840633
 21
13.42376684111431
 31
0.0
  0
LINE
  5
BEB
330
1E
100
AcDbEntity
  8
OBJECT
100
AcDbLine
 10
7.328125462840633
 20
13.05276684111431
 30
0.0
 11
7.328125462840633
 21
13.09276684111431
 31
0.0
  0
LINE
  5
BEC
330
1E
100
AcDbEntity
  8
HIDDEN
100
AcDbLine
 10
3.940125462840633
 20
15.33676684111431
 30
0.0
 11
3.940125462840633
 21
13.05276684111431
 31
0.0
  0
LINE
  5
BED
330
1E
100
AcDbEntity
  8
HIDDEN
100
AcDbLine
 10
3.875125462840633
 20
15.33676684111431
 30
0.0
 11
3.875125462840633
 21
13.09276684111431
 31
0.0
  0
LINE
  5
BEE
330
1E
100
AcDbEntity
  8
OBJECT
100
AcDbLine
 10
3.900125462840634
 20
13.05276684111431
 30
0.0
 11
3.900125462840634
 21
13.09276684111431
 31
0.0
  0
LINE
  5
BEF
330
1E
100
AcDbEntity
  8
HIDDEN
100
AcDbLine
 10
3.370125462840633
 20
15.33676684111431
 30
0.0
 11
3.370125462840633
 21
13.05276684111431
 31
0.0
  0
LINE
  5
BF0
330
1E
100
AcDbEntity
  8
OBJECT
100
AcDbLine
 10
3.252125462840634
 20
13.13276684111431
 30
0.0
 11
3.252125462840634
 21
15.39226684111431
 31
0.0
  0
LINE
  5
BF1
330
1E
100
AcDbEntity
  8
HIDDEN
100
AcDbLine
 10
3.732125462840635
 20
15.33676684111431
 30
0.0
 11
3.732125462840635
 21
13.09276684111431
 31
0.0
  0
LINE
  5
BF2
330
1E
100
AcDbEntity
  8
HIDDEN
100
AcDbLine
 10
3.666125462840634
 20
13.20376684111431
 30
0.0
 11
3.666125462840634
 21
15.45476684111431
 31
0.0
  0
LINE
  5
BF3
330
1E
100
AcDbEntity
  8
HIDDEN
100
AcDbLine
 10
3.342125462840634
 20
13.20376684111431
 30
0.0
 11
3.342125462840634
 21
15.45476684111431
 31
0.0
  0
LINE
  5
BF4
330
1E
100
AcDbEntity
  8
OBJECT
100
AcDbLine
 10
3.272125462840634
 20
13.09276684111431
 30
0.0
 11
3.272125462840634
 21
13.13276684111431
 31
0.0
  0
LINE
  5
BF5
330
1E
100
AcDbEntity
  8
OBJECT
100
AcDbLine
 10
3.330125462840634
 20
13.05276684111431
 30
0.0
 11
3.330125462840634
 21
13.09276684111431
 31
0.0
  0
LINE
  5
BF6
330
1E
100
AcDbEntity
  8
HIDDEN
100
AcDbLine
 10
3.342125462840634
 20
13.42376684111431
 30
0.0
 11
3.666125462840634
 21
13.42376684111431
 31
0.0
  0
LINE
  5
BF7
330
1E
100
AcDbEntity
  8
HIDDEN
100
AcDbLine
 10
3.342125462840634
 20
13.20376684111431
 30
0.0
 11
3.666125462840634
 21
13.20376684111431
 31
0.0
  0
LINE
  5
BF8
330
1E
100
AcDbEntity
  8
HIDDEN
100
AcDbLine
 10
3.403125462840634
 20
13.09276684111431
 30
0.0
 11
3.403125462840634
 21
13.42376684111431
 31
0.0
  0
LINE
  5
BF9
330
1E
100
AcDbEntity
  8
HIDDEN
100
AcDbLine
 10
3.653125462840634
 20
13.09276684111431
 30
0.0
 11
3.653125462840634
 21
13.42376684111431
 31
0.0
  0
LINE
  5
BFA
330
1E
100
AcDbEntity
  8
HIDDEN
100
AcDbLine
 10
3.462125462840633
 20
13.09276684111431
 30
0.0
 11
3.462125462840633
 21
13.42376684111431
 31
0.0
  0
LINE
  5
BFB
330
1E
100
AcDbEntity
  8
HIDDEN
100
AcDbLine
 10
3.594125462840633
 20
13.09276684111431
 30
0.0
 11
3.594125462840633
 21
13.42376684111431
 31
0.0
  0
ARC
  5
BFC
330
1E
100
AcDbEntity
  8
OBJECT
100
AcDbCircle
 10
3.314625462840634
 20
15.39226684111431
 30
0.0
 40
0.0625
100
AcDbArc
 50
90.0
 51
180.0
  0
CIRCLE
  5
BFD
330
1E
100
AcDbEntity
  8
OBJECT
100
AcDbCircle
 10
5.614125462840632
 20
9.156311841114312
 30
0.0
 40
0.045
  0
LWPOLYLINE
  5
BFE
330
1E
100
AcDbEntity
  8
OBJECT
100
AcDbPolyline
 90
        8
 70
     1
 43
0.0
 10
5.909625462840633
 20
9.215311841114312
 10
5.724325462840633
 20
9.215311841114312
 42
0.598912
 10
5.503925462840633
 20
9.215311841114312
 10
5.318625462840634
 20
9.215311841114312
 42
1.0
 10
5.318625462840634
 20
9.097311841114311
 10
5.503925462840633
 20
9.097311841114311
 42
0.598912
 10
5.724325462840633
 20
9.097311841114311
 10
5.909625462840633
 20
9.097311841114311
 42
1.0
  0
LWPOLYLINE
  5
C08
330
1E
100
AcDbEntity
  8
OBJECT
100
AcDbPolyline
 90
        8
 70
     1
 43
0.0
 10
3.626125462840633
 20
7.482811841114312
 10
3.626125462840633
 20
7.297511841114312
 42
0.598912
 10
3.626125462840633
 20
7.077112841114312
 10
3.626125462840633
 20
6.891811841114312
 42
1.0
 10
3.744125462840633
 20
6.891811841114312
 10
3.744125462840633
 20
7.077112841114312
 42
0.598912
 10
3.744125462840633
 20
7.297511841114312
 10
3.744125462840633
 20
7.482811841114312
 42
1.0
  0
CIRCLE
  5
C12
330
1E
100
AcDbEntity
  8
OBJECT
100
AcDbCircle
 10
3.685125462840634
 20
7.187311841114312
 30
0.0
 40
0.045
  0
LWPOLYLINE
  5
C13
330
1E
100
AcDbEntity
  8
OBJECT
100
AcDbPolyline
 90
        8
 70
     1
 43
0.0
 10
5.909625462840633
 20
5.159311841114312
 10
5.724325462840633
 20
5.159311841114312
 42
-0.598912
 10
5.503925462840633
 20
5.159311841114312
 10
5.318625462840634
 20
5.159311841114312
 42
-1.0
 10
5.318625462840634
 20
5.277311841114312
 10
5.503925462840633
 20
5.277311841114312
 42
-0.598912
 10
5.724325462840633
 20
5.277311841114312
 10
5.909625462840633
 20
5.277311841114312
 42
-1.0
  0
CIRCLE
  5
C1D
330
1E
100
AcDbEntity
  8
OBJECT
100
AcDbCircle
 10
5.614125462840632
 20
5.218311841114312
 30
0.0
 40
0.045
  0
CIRCLE
  5
C1E
330
1E
100
AcDbEntity
  8
OBJECT
100
AcDbCircle
 10
3.685125462840634
 20
7.935311841114312
 30
0.0
 40
0.087
  0
CIRCLE
  5
C1F
330
1E
100
AcDbEntity
  8
OBJECT
100
AcDbCircle
 10
3.685125462840634
 20
7.935311841114312
 30
0.0
 40
0.149
  0
CIRCLE
  5
C20
330
1E
100
AcDbEntity
  8
OBJECT
100
AcDbCircle
 10
3.685125462840634
 20
7.935311841114312
 30
0.0
 40
0.175
  0
CIRCLE
  5
C26
330
1E
100
AcDbEntity
  8
OBJECT
100
AcDbCircle
 10
3.685125462840634
 20
6.439311841114312
 30
0.0
 40
0.175
  0
CIRCLE
  5
C27
330
1E
100
AcDbEntity
  8
OBJECT
100
AcDbCircle
 10
3.685125462840634
 20
6.439311841114312
 30
0.0
 40
0.149
  0
CIRCLE
  5
C2B
330
1E
100
AcDbEntity
  8
OBJECT
100
AcDbCircle
 10
3.685125462840634
 20
6.439311841114312
 30
0.0
 40
0.087
  0
CIRCLE
  5
C2C
330
1E
100
AcDbEntity
  8
OBJECT
100
AcDbCircle
 10
7.543125462840635
 20
6.439311841114312
 30
0.0
 40
0.149
  0
CIRCLE
  5
C2D
330
1E
100
AcDbEntity
  8
OBJECT
100
AcDbCircle
 10
7.543125462840635
 20
6.439311841114312
 30
0.0
 40
0.175
  0
CIRCLE
  5
C2F
330
1E
100
AcDbEntity
  8
OBJECT
100
AcDbCircle
 10
7.543125462840635
 20
6.439311841114312
 30
0.0
 40
0.087
  0
CIRCLE
  5
C34
330
1E
100
AcDbEntity
  8
OBJECT
100
AcDbCircle
 10
7.543125462840635
 20
7.935311841114312
 30
0.0
 40
0.175
  0
CIRCLE
  5
C35
330
1E
100
AcDbEntity
  8
OBJECT
100
AcDbCircle
 10
7.543125462840635
 20
7.935311841114312
 30
0.0
 40
0.149
  0
CIRCLE
  5
C36
330
1E
100
AcDbEntity
  8
OBJECT
100
AcDbCircle
 10
7.543125462840635
 20
7.187311841114312
 30
0.0
 40
0.045
  0
LWPOLYLINE
  5
C37
330
1E
100
AcDbEntity
  8
OBJECT
100
AcDbPolyline
 90
        8
 70
     1
 43
0.0
 10
7.602125462840633
 20
7.482811841114312
 10
7.602125462840633
 20
7.297511841114312
 42
-0.598912
 10
7.602125462840633
 20
7.077112841114312
 10
7.602125462840633
 20
6.891811841114312
 42
-1.0
 10
7.484125462840633
 20
6.891811841114312
 10
7.484125462840633
 20
7.077112841114312
 42
-0.598912
 10
7.484125462840633
 20
7.297511841114312
 10
7.484125462840633
 20
7.482811841114312
 42
-1.0
  0
CIRCLE
  5
C44
330
1E
100
AcDbEntity
  8
OBJECT
100
AcDbCircle
 10
7.543125462840635
 20
7.935311841114312
 30
0.0
 40
0.087
  0
LWPOLYLINE
  5
C45
330
1E
100
AcDbEntity
  8
HIDDEN
100
AcDbPolyline
 90
        4
 70
     0
 43
0.0
 10
5.968625462840633
 20
15.33676684111431
 10
5.968625462840633
 20
15.16776684111431
 10
5.259625462840634
 20
15.16776684111431
 10
5.259625462840634
 20
15.33676684111431
  0
LWPOLYLINE
  5
C4B
330
1E
100
AcDbEntity
  8
BEND
100
AcDbPolyline
 90
       10
 70
     0
 10
7.069507462840634
 20
4.496413841114311
 40
0.0
 41
0.156711
 10
7.382929462840635
 20
4.496413841114311
 40
0.026118
 41
0.026118
 10
7.700125462840633
 20
4.496413841114311
 40
0.026118
 41
0.026118
 10
7.700125462840633
 20
5.859544841114312
 40
0.026118
 41
0.026118
 10
7.543125462840634
 20
5.859544841114312
 40
0.026118
 41
0.026118
 10
7.543125462840634
 20
7.662474841114313
 40
0.026118
 41
0.026118
 10
7.080187462840632
 20
7.662474841114313
 40
0.026118
 41
0.026118
 10
7.080187462840632
 20
9.897540841114311
 40
0.026118
 41
0.026118
 10
6.703881462840633
 20
9.897540841114311
 40
0.156711
 41
0.0
 10
6.390459462840633
 20
9.897540841114311
 40
0.0
 41
0.0
  0
LINE
  5
C57
330
1E
100
AcDbEntity
  8
OBJECT
100
AcDbLine
 10
12.98442546284063
 20
9.529311841114312
 30
0.0
 11
12.98442546284063
 21
9.471311841114312
 31
0.0
  0
LINE
  5
C58
330
1E
100
AcDbEntity
  8
OBJECT
100
AcDbLine
 10
15.22842546284063
 20
9.431311841114313
 30
0.0
 11
15.22842546284063
 21
7.541811841114313
 31
0.0
  0
LINE
  5
C59
330
1E
100
AcDbEntity
  8
OBJECT
100
AcDbLine
 10
15.34642546284063
 20
9.486811841114311
 30
0.0
 11
15.34642546284063
 21
4.887811841114312
 31
0.0
  0
LINE
  5
C5A
330
1E
100
AcDbEntity
  8
OBJECT
100
AcDbLine
 10
12.94442546284063
 20
4.903311841114312
 30
0.0
 11
12.94442546284063
 21
9.471311841114312
 31
0.0
  0
LINE
  5
C5B
330
1E
100
AcDbEntity
  8
OBJECT
100
AcDbLine
 10
13.02442546284063
 20
9.549311841114311
 30
0.0
 11
13.02442546284063
 21
9.529311841114312
 31
0.0
  0
LINE
  5
C5C
330
1E
100
AcDbEntity
  8
OBJECT
100
AcDbLine
 10
12.98442546284063
 20
5.226311841114312
 30
0.0
 11
13.31542546284063
 21
5.226311841114312
 31
0.0
  0
LINE
  5
C5D
330
1E
100
AcDbEntity
  8
OBJECT
100
AcDbLine
 10
12.98442546284063
 20
4.976311841114312
 30
0.0
 11
13.31542546284063
 21
4.976311841114312
 31
0.0
  0
LINE
  5
C5E
330
1E
100
AcDbEntity
  8
OBJECT
100
AcDbLine
 10
12.98442546284063
 20
5.035311841114312
 30
0.0
 11
13.31542546284063
 21
5.035311841114312
 31
0.0
  0
LINE
  5
C5F
330
1E
100
AcDbEntity
  8
OBJECT
100
AcDbLine
 10
12.98442546284063
 20
5.167311841114312
 30
0.0
 11
13.31542546284063
 21
5.167311841114312
 31
0.0
  0
LINE
  5
C60
330
1E
100
AcDbEntity
  8
OBJECT
100
AcDbLine
 10
13.02442546284063
 20
4.825311841114312
 30
0.0
 11
15.28392546284063
 21
4.825311841114312
 31
0.0
  0
LINE
  5
C61
330
1E
100
AcDbEntity
  8
OBJECT
100
AcDbLine
 10
15.22842546284063
 20
5.763311841114312
 30
0.0
 11
12.94442546284063
 21
5.763311841114312
 31
0.0
  0
LINE
  5
C62
330
1E
100
AcDbEntity
  8
OBJECT
100
AcDbLine
 10
15.22842546284063
 20
5.698311841114312
 30
0.0
 11
12.98442546284063
 21
5.698311841114312
 31
0.0
  0
LINE
  5
C63
330
1E
100
AcDbEntity
  8
OBJECT
100
AcDbLine
 10
15.22842546284063
 20
5.305311841114312
 30
0.0
 11
12.98442546284063
 21
5.305311841114312
 31
0.0
  0
LINE
  5
C64
330
1E
100
AcDbEntity
  8
OBJECT
100
AcDbLine
 10
13.31542546284063
 20
5.239311841114312
 30
0.0
 11
15.34642546284063
 21
5.239311841114312
 31
0.0
  0
LINE
  5
C65
330
1E
100
AcDbEntity
  8
OBJECT
100
AcDbLine
 10
13.31542546284063
 20
4.915311841114312
 30
0.0
 11
15.34642546284063
 21
4.915311841114312
 31
0.0
  0
ARC
  5
C66
330
1E
100
AcDbEntity
  8
OBJECT
100
AcDbCircle
 10
15.28392546284063
 20
4.887811841114312
 30
0.0
 40
0.0625
100
AcDbArc
 50
270.0
 51
0.0
  0
LINE
  5
C67
330
1E
100
AcDbEntity
  8
OBJECT
100
AcDbLine
 10
13.31542546284063
 20
4.915311841114312
 30
0.0
 11
13.31542546284063
 21
5.239311841114312
 31
0.0
  0
LWPOLYLINE
  5
C76
330
1E
100
AcDbEntity
  8
OBJECT
100
AcDbPolyline
 90
        4
 70
     0
 43
0.0
 10
15.22842546284063
 20
6.614311841114312
 10
15.05942546284063
 20
6.588311841114312
 10
15.05942546284063
 20
6.290311841114312
 10
15.22842546284063
 20
6.264311841114312
  0
LWPOLYLINE
  5
C7C
330
1E
100
AcDbEntity
  8
OBJECT
100
AcDbPolyline
 90
        4
 70
     0
 43
0.0
 10
15.05942546284063
 20
6.522311841114312
 10
15.26242546284063
 20
6.522311841114312
 10
15.26242546284063
 20
6.356311841114312
 10
15.05942546284063
 20
6.356311841114312
  0
LINE
  5
C82
330
1E
100
AcDbEntity
  8
OBJECT
100
AcDbLine
 10
12.98442546284063
 20
4.845311841114313
 30
0.0
 11
13.02442546284063
 21
4.845311841114313
 31
0.0
  0
LINE
  5
C83
330
1E
100
AcDbEntity
  8
OBJECT
100
AcDbLine
 10
12.94442546284063
 20
4.903311841114312
 30
0.0
 11
12.98442546284063
 21
4.903311841114312
 31
0.0
  0
LINE
  5
C84
330
1E
100
AcDbEntity
  8
OBJECT
100
AcDbLine
 10
12.94442546284063
 20
5.723311841114312
 30
0.0
 11
12.98442546284063
 21
5.723311841114312
 31
0.0
  0
LINE
  5
C85
330
1E
100
AcDbEntity
  8
OBJECT
100
AcDbLine
 10
15.22842546284063
 20
8.611311841114313
 30
0.0
 11
12.94442546284063
 21
8.611311841114313
 31
0.0
  0
LWPOLYLINE
  5
C86
330
1E
100
AcDbEntity
  8
HIDDEN
100
AcDbPolyline
 90
        4
 70
     0
 43
0.0
 10
15.05942546284063
 20
7.852311841114312
 10
15.26242546284063
 20
7.852311841114312
 10
15.26242546284063
 20
8.018311841114313
 10
15.05942546284063
 20
8.018311841114313
  0
LWPOLYLINE
  5
C8C
330
1E
100
AcDbEntity
  8
OBJECT
100
AcDbPolyline
 90
        4
 70
     0
 43
0.0
 10
15.22842546284063
 20
7.760311841114312
 10
15.05942546284063
 20
7.786311841114311
 10
15.05942546284063
 20
8.084311841114312
 10
15.22842546284063
 20
8.110311841114311
  0
LWPOLYLINE
  5
C92
330
1E
100
AcDbEntity
  8
OBJECT
100
AcDbPolyline
 90
        4
 70
     0
 43
0.0
 10
15.05942546284063
 20
7.232311841114312
 10
15.26242546284063
 20
7.232311841114312
 10
15.26242546284063
 20
7.142311841114312
 10
15.05942546284063
 20
7.142311841114312
  0
LWPOLYLINE
  5
C98
330
1E
100
AcDbEntity
  8
OBJECT
100
AcDbPolyline
 90
        4
 70
     0
 43
0.0
 10
15.22842546284063
 20
6.832811841114312
 10
15.05942546284063
 20
6.832811841114312
 10
15.05942546284063
 20
7.541811841114313
 10
15.22842546284063
 20
7.541811841114313
  0
LINE
  5
CAC
330
1E
100
AcDbEntity
  8
OBJECT
100
AcDbLine
 10
13.02442546284063
 20
9.549311841114311
 30
0.0
 11
15.28392546284063
 21
9.549311841114311
 31
0.0
  0
LINE
  5
CAD
330
1E
100
AcDbEntity
  8
OBJECT
100
AcDbLine
 10
15.22842546284063
 20
9.431311841114313
 30
0.0
 11
12.94442546284063
 21
9.431311841114313
 31
0.0
  0
ARC
  5
CAE
330
1E
100
AcDbEntity
  8
OBJECT
100
AcDbCircle
 10
15.28392546284063
 20
9.486811841114311
 30
0.0
 40
0.0625
100
AcDbArc
 50
0.0
 51
90.0
  0
LINE
  5
CAF
330
1E
100
AcDbEntity
  8
OBJECT
100
AcDbLine
 10
12.98442546284063
 20
9.529311841114312
 30
0.0
 11
13.02442546284063
 21
9.529311841114312
 31
0.0
  0
LINE
  5
CB0
330
1E
100
AcDbEntity
  8
OBJECT
100
AcDbLine
 10
12.94442546284063
 20
9.471311841114312
 30
0.0
 11
12.98442546284063
 21
9.471311841114312
 31
0.0
  0
LINE
  5
CB1
330
1E
100
AcDbEntity
  8
OBJECT
100
AcDbLine
 10
15.22842546284063
 20
5.698311841114312
 30
0.0
 11
15.22842546284063
 21
5.305311841114312
 31
0.0
  0
LINE
  5
CB2
330
1E
100
AcDbEntity
  8
OBJECT
100
AcDbLine
 10
12.98442546284063
 20
5.723311841114312
 30
0.0
 11
12.98442546284063
 21
4.845311841114313
 31
0.0
  0
LINE
  5
CB3
330
1E
100
AcDbEntity
  8
OBJECT
100
AcDbLine
 10
13.02442546284063
 20
4.845311841114313
 30
0.0
 11
13.02442546284063
 21
4.825311841114312
 31
0.0
  0
LINE
  5
CB6
330
1E
100
AcDbEntity
  8
OBJECT
100
AcDbLine
 10
15.22842546284063
 20
5.579311841114312
 30
0.0
 11
15.34642546284063
 21
5.579311841114312
 31
0.0
  0
LINE
  5
CB7
330
1E
100
AcDbEntity
  8
OBJECT
100
AcDbLine
 10
15.22842546284063
 20
5.409311841114312
 30
0.0
 11
15.34642546284063
 21
5.409311841114312
 31
0.0
  0
LINE
  5
CB8
330
1E
100
AcDbEntity
  8
HIDDEN
100
AcDbLine
 10
5.503925462840633
 20
15.16776684111431
 30
0.0
 11
5.503925462840633
 21
15.33676684111431
 31
0.0
  0
LWPOLYLINE
  5
CB9
330
1E
100
AcDbEntity
  8
HIDDEN
100
AcDbPolyline
 90
        4
 70
     0
 43
0.0
 10
5.659125462840633
 20
15.16776684111431
 10
5.659125462840633
 20
15.37076684111431
 10
5.569125462840633
 20
15.37076684111431
 10
5.569125462840633
 20
15.16776684111431
  0
LINE
  5
CBF
330
1E
100
AcDbEntity
  8
HIDDEN
100
AcDbLine
 10
5.724325462840633
 20
15.16776684111431
 30
0.0
 11
5.724325462840633
 21
15.33676684111431
 31
0.0
  0
LINE
  5
CC0
330
1E
100
AcDbEntity
  8
OBJECT
100
AcDbLine
 10
15.22842546284063
 20
6.832811841114312
 30
0.0
 11
15.22842546284063
 21
6.614311841114312
 31
0.0
  0
LWPOLYLINE
  5
CC1
330
1E
100
AcDbEntity
  8
OBJECT
100
AcDbPolyline
 90
        4
 70
     0
 43
0.0
 10
15.22842546284063
 20
9.031311841114312
 10
15.05942546284063
 20
9.031311841114312
 10
15.05942546284063
 20
9.281311841114312
 10
15.22842546284063
 20
9.281311841114312
  0
LWPOLYLINE
  5
CC7
330
1E
100
AcDbEntity
  8
HIDDEN
100
AcDbPolyline
 90
        4
 70
     0
 43
0.0
 10
15.05942546284063
 20
9.201311841114312
 10
15.26242546284063
 20
9.201311841114312
 10
15.26242546284063
 20
9.111311841114313
 10
15.05942546284063
 20
9.111311841114313
  0
LINE
  5
CCD
330
1E
100
AcDbEntity
  8
OBJECT
100
AcDbLine
 10
12.98442546284063
 20
5.226311841114312
 30
0.0
 11
12.98442546284063
 21
5.167311841114312
 31
0.0
  0
LINE
  5
CCE
330
1E
100
AcDbEntity
  8
OBJECT
100
AcDbLine
 10
12.98442546284063
 20
5.167311841114312
 30
0.0
 11
13.31542546284063
 21
5.167311841114312
 31
0.0
  0
LINE
  5
CCF
330
1E
100
AcDbEntity
  8
OBJECT
100
AcDbLine
 10
13.31542546284063
 20
5.167311841114312
 30
0.0
 11
13.31542546284063
 21
5.226311841114312
 31
0.0
  0
LINE
  5
CD0
330
1E
100
AcDbEntity
  8
OBJECT
100
AcDbLine
 10
13.31542546284063
 20
5.226311841114312
 30
0.0
 11
12.98442546284063
 21
5.226311841114312
 31
0.0
  0
LINE
  5
CD1
330
1E
100
AcDbEntity
  8
OBJECT
100
AcDbLine
 10
12.98442546284063
 20
5.035311841114312
 30
0.0
 11
12.98442546284063
 21
4.976311841114312
 31
0.0
  0
LINE
  5
CD2
330
1E
100
AcDbEntity
  8
OBJECT
100
AcDbLine
 10
12.98442546284063
 20
4.976311841114312
 30
0.0
 11
13.31542546284063
 21
4.976311841114312
 31
0.0
  0
LINE
  5
CD3
330
1E
100
AcDbEntity
  8
OBJECT
100
AcDbLine
 10
13.31542546284063
 20
4.976311841114312
 30
0.0
 11
13.31542546284063
 21
5.035311841114312
 31
0.0
  0
LINE
  5
CD4
330
1E
100
AcDbEntity
  8
OBJECT
100
AcDbLine
 10
13.31542546284063
 20
5.035311841114312
 30
0.0
 11
12.98442546284063
 21
5.035311841114312
 31
0.0
  0
LWPOLYLINE
  5
CE9
102
{ACAD_REACTORS
330
1865
102
}
330
1E
100
AcDbEntity
  8
OBJECT
100
AcDbPolyline
 90
        4
 70
     1
 43
0.0
 10
12.98442546284063
 20
5.035311841114312
 10
12.98442546284063
 20
4.976311841114312
 10
13.31542546284063
 20
4.976311841114312
 10
13.31542546284063
 20
5.035311841114312
  0
LWPOLYLINE
  5
CEF
102
{ACAD_REACTORS
330
1865
102
}
330
1E
100
AcDbEntity
  8
OBJECT
100
AcDbPolyline
 90
        4
 70
     1
 43
0.0
 10
12.98442546284063
 20
5.226311841114312
 10
12.98442546284063
 20
5.167311841114312
 10
13.31542546284063
 20
5.167311841114312
 10
13.31542546284063
 20
5.226311841114312
  0
TEXT
  5
CF7
330
1E
100
AcDbEntity
  8
TEXT
100
AcDbText
 10
12.53487338139702
 20
3.764904953394704
 30
0.0
 40
0.25
  1
%%USECTION "A-A"
 41
0.8
  7
SECTION
 72
     1
 11
13.75249242901607
 21
3.764904953394704
 31
0.0
100
AcDbText
  0
DIMENSION
  5
CF8
330
1E
100
AcDbEntity
  8
DIM
100
AcDbDimension
  2
*D0
 10
15.34642546284063
 20
9.973216841114313
 30
0.0
 11
16.60580046284063
 21
9.973216841114313
 31
0.0
 70
    32
 71
     5
 42
0.2870000000000008
  3
23NSTD
100
AcDbAlignedDimension
 13
15.05942546284063
 23
9.281311841114312
 33
0.0
 14
15.34642546284063
 24
9.486811841114311
 34
0.0
100
AcDbRotatedDimension
  0
DIMENSION
  5
D06
330
1E
100
AcDbEntity
  8
DIM
100
AcDbDimension
  2
*D1
 10
15.34642546284063
 20
8.833942841114312
 30
0.0
 11
16.54330046284063
 21
8.833942841114312
 31
0.0
 70
    32
 71
     5
 42
0.1180000000000003
  3
23NSTD
100
AcDbAlignedDimension
 13
15.22842546284063
 23
8.917637841114311
 33
0.0
 14
15.34642546284063
 24
8.917637841114311
 34
0.0
100
AcDbRotatedDimension
  0
DIMENSION
  5
D14
330
1E
100
AcDbEntity
  8
DIM
100
AcDbDimension
  2
*D2
 10
15.34642546284063
 20
4.389811841114312
 30
0.0
 11
14.33092546284063
 21
4.389811841114312
 31
0.0
 70
   160
 71
     5
 42
2.031
  3
23NSTDI
100
AcDbAlignedDimension
 13
13.31542546284063
 23
4.915311841114312
 33
0.0
 14
15.34642546284063
 24
4.887811841114312
 34
0.0
100
AcDbRotatedDimension
  0
DIMENSION
  5
D22
330
1E
100
AcDbEntity
  8
DIM
100
AcDbDimension
  2
*D3
 10
15.66759746284063
 20
5.579311841114312
 30
0.0
 11
17.05134746284063
 21
6.299311841114315
 31
0.0
 70
    32
  1
<> DIA.\P(4) PLACES
 71
     5
 42
0.1700000000000008
  3
23NSTD
100
AcDbAlignedDimension
 13
15.34642546284063
 23
5.409311841114312
 33
0.0
 14
15.34642546284063
 24
5.579311841114312
 34
0.0
 50
90.0
100
AcDbRotatedDimension
  0
DIMENSION
  5
D30
330
1E
100
AcDbEntity
  8
DIM
100
AcDbDimension
  2
*D4
 10
3.940125462840633
 20
3.597913841114312
 30
0.0
 11
5.614125462840632
 21
3.597913841114312
 31
0.0
 70
    32
 71
     5
 42
3.347999999999999
  3
23NSTD
100
AcDbAlignedDimension
 13
7.288125462840633
 23
5.075311841114312
 33
0.0
 14
3.940125462840633
 24
5.075311841114312
 34
0.0
100
AcDbRotatedDimension
  0
DIMENSION
  5
D3E
330
1E
100
AcDbEntity
  8
DIM
100
AcDbDimension
  2
*D5
 10
3.252125462840633
 20
3.597913841114312
 30
0.0
 11
1.992750462840633
 21
3.597913841114312
 31
0.0
 70
    32
 71
     5
 42
0.6879999999999998
  3
23NSTD
100
AcDbAlignedDimension
 13
3.940125462840633
 23
5.075311841114312
 33
0.0
 14
3.252125462840633
 24
5.075311841114312
 34
0.0
100
AcDbRotatedDimension
  0
DIMENSION
  5
D4C
330
1E
100
AcDbEntity
  8
DIM
100
AcDbDimension
  2
*D6
 10
5.614125462840633
 20
10.83131184111431
 30
0.0
 11
4.433125462840633
 21
10.83131184111431
 31
0.0
 70
    32
 71
     5
 42
2.362
  3
23NSTD
100
AcDbAlignedDimension
 13
3.252125462840633
 23
9.299311841114311
 33
0.0
 14
5.614125462840633
 24
9.156311841114312
 34
0.0
 50
180.0
100
AcDbRotatedDimension
  0
DIMENSION
  5
D5A
330
1E
100
AcDbEntity
  8
DIM
100
AcDbDimension
  2
*D7
 10
7.976125462840633
 20
12.51731184111431
 30
0.0
 11
5.614125462840632
 21
12.51731184111431
 31
0.0
 70
    32
 71
     5
 42
4.723999999999999
  3
23NSTD
100
AcDbAlignedDimension
 13
3.252125462840633
 23
9.299311841114311
 33
0.0
 14
7.976125462840633
 24
9.299311841114311
 34
0.0
 50
180.0
100
AcDbRotatedDimension
  0
DIMENSION
  5
D68
330
1E
100
AcDbEntity
  8
DIM
100
AcDbDimension
  2
*D8
 10
3.528125462840633
 20
11.95531184111431
 30
0.0
 11
5.614125462840632
 21
11.95531184111431
 31
0.0
 70
    32
 71
     5
 42
4.171999999999998
  3
23NSTD
100
AcDbAlignedDimension
 13
7.700125462840633
 23
9.273311841114312
 33
0.0
 14
3.528125462840633
 24
9.273311841114312
 34
0.0
 50
180.0
100
AcDbRotatedDimension
  0
DIMENSION
  5
D76
330
1E
100
AcDbEntity
  8
DIM
100
AcDbDimension
  2
*D9
 10
3.252125462840633
 20
11.95531184111431
 30
0.0
 11
1.992750462840633
 21
11.95531184111431
 31
0.0
 70
    32
 71
     5
 42
0.2760000000000002
  3
23NSTD
100
AcDbAlignedDimension
 13
3.528125462840633
 23
9.273311841114312
 33
0.0
 14
3.252125462840633
 24
9.299311841114311
 34
0.0
 50
180.0
100
AcDbRotatedDimension
  0
DIMENSION
  5
D84
330
1E
100
AcDbEntity
  8
DIM
100
AcDbDimension
  2
*D10
 10
3.685125462840633
 20
11.39331184111431
 30
0.0
 11
5.614125462840633
 21
11.39331184111431
 31
0.0
 70
    32
 71
     5
 42
3.858
  3
23NSTD
100
AcDbAlignedDimension
 13
7.543125462840634
 23
8.289311841114312
 33
0.0
 14
3.685125462840633
 24
8.289311841114312
 34
0.0
100
AcDbRotatedDimension
  0
DIMENSION
  5
D92
330
1E
100
AcDbEntity
  8
DIM
100
AcDbDimension
  2
*D11
 10
3.252125462840633
 20
11.39331184111431
 30
0.0
 11
1.992750462840633
 21
11.39331184111431
 31
0.0
 70
    32
 71
     5
 42
0.4329999999999999
  3
23NSTD
100
AcDbAlignedDimension
 13
3.685125462840633
 23
8.289311841114312
 33
0.0
 14
3.252125462840633
 24
9.299311841114311
 34
0.0
100
AcDbRotatedDimension
  0
DIMENSION
  5
DA0
330
1E
100
AcDbEntity
  8
DIM
100
AcDbDimension
  2
*D12
 10
8.627406462840633
 20
7.935311841114312
 30
0.0
 11
8.627406462840632
 21
7.561311841114313
 31
0.0
 70
    32
 71
     5
 42
0.7480000000000003
  3
23NSTDI
100
AcDbAlignedDimension
 13
7.543125462840634
 23
7.187311841114312
 33
0.0
 14
7.543125462840634
 24
7.935311841114312
 34
0.0
 50
90.0
100
AcDbRotatedDimension
  0
DIMENSION
  5
DAE
330
1E
100
AcDbEntity
  8
DIM
100
AcDbDimension
  2
*D13
 10
9.751406462840632
 20
8.289311841114312
 30
0.0
 11
9.75140646284063
 21
7.738311841114312
 31
0.0
 70
    32
 71
     5
 42
1.101999999999999
  3
23NSTDI
100
AcDbAlignedDimension
 13
7.543125462840634
 23
7.187311841114312
 33
0.0
 14
7.543125462840634
 24
8.289311841114312
 34
0.0
 50
90.0
100
AcDbRotatedDimension
  0
DIMENSION
  5
DBC
330
1E
100
AcDbEntity
  8
DIM
100
AcDbDimension
  2
*D14
 10
9.189406462840633
 20
6.439311841114312
 30
0.0
 11
9.189406462840631
 21
6.813311841114313
 31
0.0
 70
    32
 71
     5
 42
0.7480000000000003
  3
23NSTDI
100
AcDbAlignedDimension
 13
7.543125462840634
 23
7.187311841114312
 33
0.0
 14
7.543125462840634
 24
6.439311841114312
 34
0.0
 50
90.0
100
AcDbRotatedDimension
  0
DIMENSION
  5
DCA
330
1E
100
AcDbEntity
  8
DIM
100
AcDbDimension
  2
*D15
 10
10.49940646284063
 20
6.085311841114311
 30
0.0
 11
10.49940646284063
 21
6.636311841114313
 31
0.0
 70
    32
 71
     5
 42
1.102
  3
23NSTDI
100
AcDbAlignedDimension
 13
7.543125462840634
 23
7.187311841114312
 33
0.0
 14
7.543125462840634
 24
6.085311841114312
 34
0.0
 50
90.0
100
AcDbRotatedDimension
  0
DIMENSION
  5
DD8
330
1E
100
AcDbEntity
  8
DIM
100
AcDbDimension
  2
*D16
 10
1.696111462840633
 20
8.880311841114313
 30
0.0
 11
1.696111462840632
 21
7.187311841114313
 31
0.0
 70
    32
 71
     5
 42
3.385999999999999
  3
23NSTD
100
AcDbAlignedDimension
 13
3.528125462840633
 23
5.494311841114313
 33
0.0
 14
3.528125462840633
 24
8.880311841114313
 34
0.0
 50
270.0
100
AcDbRotatedDimension
  0
DIMENSION
  5
DE6
330
1E
100
AcDbEntity
  8
DIM
100
AcDbDimension
  2
*D17
 10
1.696111462840633
 20
9.549311841114311
 30
0.0
 11
1.696111462840632
 21
9.214811841114311
 31
0.0
 70
    32
 71
     5
 42
0.6689999999999987
  3
23NSTDI
100
AcDbAlignedDimension
 13
3.528125462840633
 23
8.880311841114313
 33
0.0
 14
3.502125462840633
 24
9.549311841114311
 34
0.0
 50
270.0
100
AcDbRotatedDimension
  0
DIMENSION
  5
DF4
330
1E
100
AcDbEntity
  8
DIM
100
AcDbDimension
  2
*D18
 10
11.24740646284063
 20
9.273311841114312
 30
0.0
 11
11.24740646284063
 21
7.187311841114313
 31
0.0
 70
    32
 71
     5
 42
4.171999999999999
  3
23NSTD
100
AcDbAlignedDimension
 13
7.700125462840633
 23
5.101311841114312
 33
0.0
 14
7.700125462840633
 24
9.273311841114312
 34
0.0
 50
270.0
100
AcDbRotatedDimension
  0
DIMENSION
  5
E02
330
1E
100
AcDbEntity
  8
DIM
100
AcDbDimension
  2
*D19
 10
11.24740646284063
 20
9.549311841114311
 30
0.0
 11
12.14678146284063
 21
10.26931184111431
 31
0.0
 70
    32
 71
     5
 42
0.2759999999999998
  3
23NSTD
100
AcDbAlignedDimension
 13
7.700125462840633
 23
9.273311841114312
 33
0.0
 14
7.726125462840633
 24
9.549311841114311
 34
0.0
 50
270.0
100
AcDbRotatedDimension
  0
DIMENSION
  5
E10
330
1E
100
AcDbEntity
  8
DIM
100
AcDbDimension
  2
*D20
 10
2.676111462840633
 20
8.611311841114313
 30
0.0
 11
2.676111462840632
 21
7.187311841114313
 31
0.0
 70
    32
 71
     5
 42
2.847999999999999
  3
23NSTD
100
AcDbAlignedDimension
 13
3.502125462840633
 23
5.763311841114312
 33
0.0
 14
3.502125462840633
 24
8.611311841114313
 34
0.0
 50
90.0
100
AcDbRotatedDimension
  0
DIMENSION
  5
E1E
330
1E
100
AcDbEntity
  8
DIM
100
AcDbDimension
  2
*D21
 10
2.676111462840633
 20
9.549311841114311
 30
0.0
 11
2.676111462840632
 21
9.080311841114312
 31
0.0
 70
    32
 71
     5
 42
0.9379999999999988
  3
23NSTDI
100
AcDbAlignedDimension
 13
3.502125462840633
 23
8.611311841114313
 33
0.0
 14
3.502125462840633
 24
9.549311841114311
 34
0.0
 50
90.0
100
AcDbRotatedDimension
  0
DIMENSION
  5
E2C
330
1E
100
AcDbEntity
  8
DIM
100
AcDbDimension
  2
*D22
 10
0.7161114628406338
 20
4.825311841114313
 30
0.0
 11
0.7161114628406331
 21
7.187311841114313
 31
0.0
 70
    32
 71
     5
 42
4.723999999999998
  3
23NSTD
100
AcDbAlignedDimension
 13
3.502125462840633
 23
9.549311841114311
 33
0.0
 14
3.502125462840633
 24
4.825311841114312
 34
0.0
 50
90.0
100
AcDbRotatedDimension
  0
DIMENSION
  5
E3A
330
1E
100
AcDbEntity
  8
DIM
100
AcDbDimension
  2
*D23
 10
4.771342462840634
 20
9.156311841114312
 30
0.0
 11
4.771342462840632
 21
7.187311841114314
 31
0.0
 70
    32
 71
     5
 42
3.938000000000001
  3
23NSTD
100
AcDbAlignedDimension
 13
5.614125462840633
 23
5.218311841114312
 33
0.0
 14
5.614125462840633
 24
9.156311841114312
 34
0.0
 50
90.0
100
AcDbRotatedDimension
  0
DIMENSION
  5
E48
330
1E
100
AcDbEntity
  8
DIM
100
AcDbDimension
  2
*D24
 10
7.858125462840634
 20
6.710343841114311
 30
0.0
 11
5.614125462840633
 21
6.710343841114311
 31
0.0
 70
    32
 71
     5
 42
4.488000000000001
  3
23NSTD
100
AcDbAlignedDimension
 13
3.370125462840633
 23
6.446572841114313
 33
0.0
 14
7.858125462840634
 24
6.446572841114313
 34
0.0
100
AcDbRotatedDimension
  0
DIMENSION
  5
E56
330
1E
100
AcDbEntity
  8
DIM
100
AcDbDimension
  2
*D25
 10
6.464148462840633
 20
9.431311841114313
 30
0.0
 11
6.464148462840631
 21
7.187311841114315
 31
0.0
 70
    32
 71
     5
 42
4.488
  3
23NSTD
100
AcDbAlignedDimension
 13
6.558648462840633
 23
4.943311841114312
 33
0.0
 14
6.558648462840633
 24
9.431311841114313
 34
0.0
 50
270.0
100
AcDbRotatedDimension
  0
DIMENSION
  5
E64
330
1E
100
AcDbEntity
  8
DIM
100
AcDbDimension
  2
*D26
 10
6.464148462840633
 20
4.825311841114312
 30
0.0
 11
5.221023462840632
 21
4.105311841114314
 31
0.0
 70
    32
  1
<> TYP.
 71
     5
 42
0.1180000000000003
  3
23NSTD
100
AcDbAlignedDimension
 13
6.558648462840633
 23
4.943311841114312
 33
0.0
 14
6.558648462840633
 24
4.825311841114312
 34
0.0
 50
270.0
100
AcDbRotatedDimension
  0
DIMENSION
  5
E72
330
1E
100
AcDbEntity
  8
DIM
100
AcDbDimension
  2
*D27
 10
4.261534462840634
 20
9.549311841114311
 30
0.0
 11
5.160909462840633
 21
10.26931184111431
 31
0.0
 70
    32
 71
     5
 42
0.3929999999999989
  3
23NSTD
100
AcDbAlignedDimension
 13
5.614125462840633
 23
9.156311841114312
 33
0.0
 14
4.991788462840633
 24
9.549311841114311
 34
0.0
 50
90.0
100
AcDbRotatedDimension
  0
LWPOLYLINE
  5
E80
330
1E
100
AcDbEntity
  8
OBJECT
100
AcDbPolyline
 90
        8
 70
     1
 43
0.0
 10
18.084156
 20
17.36244
 10
17.34295499999999
 20
17.36244
 42
0.598912
 10
16.461357
 20
17.36244
 10
15.720156
 20
17.36244
 42
1.0
 10
15.720156
 20
16.89043999999999
 10
16.461357
 20
16.89043999999999
 42
0.598912
 10
17.34295499999999
 20
16.89043999999999
 10
18.084156
 20
16.89043999999999
 42
1.0
  0
CIRCLE
  5
E8A
330
1E
100
AcDbEntity
  8
OBJECT
100
AcDbCircle
 10
16.902156
 20
17.12644
 30
0.0
 40
0.18
  0
TEXT
  5
E8B
330
1E
100
AcDbEntity
  8
TEXT
100
AcDbText
 10
15.91521719047619
 20
15.220741
 30
0.0
 40
0.25
  1
%%UDETAIL "C"
 41
0.8
  7
SECTION
 72
     1
 11
16.794741
 21
15.220741
 31
0.0
100
AcDbText
  0
LINE
  5
E8C
330
1E
100
AcDbEntity
  8
CENTER
100
AcDbLine
 10
16.83465599999999
 20
17.12644
 30
0.0
 11
16.969656
 21
17.12644
 31
0.0
  0
LINE
  5
E8D
330
1E
100
AcDbEntity
  8
CENTER
100
AcDbLine
 10
16.902156
 20
17.05893999999999
 30
0.0
 11
16.902156
 21
17.19393999999999
 31
0.0
  0
DIMENSION
  5
E8E
330
1E
100
AcDbEntity
  8
DIM
100
AcDbDimension
  2
*D28
 10
16.902156
 20
18.3026
 30
0.0
 11
16.193156
 21
18.3026
 31
0.0
 70
    32
 71
     5
 42
0.3545000000000003
  3
23NSTD4I
100
AcDbAlignedDimension
 13
15.484156
 23
17.12644
 33
0.0
 14
16.902156
 24
17.19393999999999
 34
0.0
100
AcDbRotatedDimension
  0
DIMENSION
  5
E9C
330
1E
100
AcDbEntity
  8
DIM
100
AcDbDimension
  2
*D29
 10
18.320156
 20
18.86459999999999
 30
0.0
 11
16.902156
 21
18.86459999999999
 31
0.0
 70
    32
 71
     5
 42
0.7090000000000001
  3
23NSTD4
100
AcDbAlignedDimension
 13
15.484156
 23
17.12644
 33
0.0
 14
18.320156
 24
17.12644
 34
0.0
100
AcDbRotatedDimension
  0
DIMENSION
  5
EAA
330
1E
100
AcDbEntity
  8
DIM
100
AcDbDimension
  2
*D30
 10
14.623842
 20
17.36244
 30
0.0
 11
14.62384199999999
 21
17.12644
 31
0.0
 70
    32
 71
     5
 42
0.1180000000000003
  3
23NSTD4I
100
AcDbAlignedDimension
 13
15.720156
 23
16.89043999999999
 33
0.0
 14
15.720156
 24
17.36244
 34
0.0
 50
270.0
100
AcDbRotatedDimension
  0
DIMENSION
  5
EB8
330
1E
100
AcDbEntity
  8
DIM
100
AcDbDimension
  2
*D31
 10
19.022654
 20
16.62644
 30
0.0
 11
19.02265399999999
 21
17.12644
 31
0.0
 70
    32
 71
     5
 42
0.25
  3
23NSTD4I
100
AcDbAlignedDimension
 13
16.902156
 23
17.62643999999999
 33
0.0
 14
16.902156
 24
16.62644
 34
0.0
 50
270.0
100
AcDbRotatedDimension
  0
TEXT
  5
EC6
330
1E
100
AcDbEntity
  8
TEXT
100
AcDbText
 10
15.950991
 20
14.80407399999999
 30
0.0
 40
0.25
  1
(4) PLACES
 41
0.75
 72
     1
 11
16.794741
 21
14.80407399999999
 31
0.0
100
AcDbText
  0
TEXT
  5
ECF
330
1E
100
AcDbEntity
  8
TEXT
100
AcDbText
 10
24.23566908772007
 20
3.557967841114312
 30
0.0
 40
0.25
  1
%%USECTION "B-B"
 41
0.8
  7
SECTION
 72
     1
 11
25.47233575438673
 21
3.557967841114312
 31
0.0
100
AcDbText
  0
DIMENSION
  5
ED0
330
1E
100
AcDbEntity
  8
DIM
100
AcDbDimension
  2
*D32
 10
23.77588275438673
 20
9.549311841114311
 30
0.0
 11
24.67525775438673
 21
10.26931184111431
 31
0.0
 70
    32
 71
     5
 42
0.2759999999999998
  3
23NSTD
100
AcDbAlignedDimension
 13
23.03094375438673
 23
9.273311841114312
 33
0.0
 14
23.05694375438673
 24
9.549311841114311
 34
0.0
 50
90.0
100
AcDbRotatedDimension
  0
DIMENSION
  5
EDE
330
1E
100
AcDbEntity
  8
DIM
100
AcDbDimension
  2
*D33
 10
23.77588275438673
 20
9.273311841114312
 30
0.0
 11
23.77588275438673
 21
7.187311841114316
 31
0.0
 70
    32
  1
<>
 71
     5
 42
4.171999999999999
  3
23NSTD
100
AcDbAlignedDimension
 13
23.03094375438673
 23
5.101311841114312
 33
0.0
 14
23.03094375438673
 24
9.273311841114312
 34
0.0
 50
90.0
100
AcDbRotatedDimension
  0
DIMENSION
  5
EEC
330
1E
100
AcDbEntity
  8
DIM
100
AcDbDimension
  2
*D34
 10
18.03905275438673
 20
9.549311841114311
 30
0.0
 11
18.03905275438673
 21
7.187311841114316
 31
0.0
 70
    32
  1
<>
 71
     5
 42
4.723999999999998
  3
23NSTD
100
AcDbAlignedDimension
 13
18.83294375438673
 23
4.825311841114312
 33
0.0
 14
18.83294375438673
 24
9.549311841114311
 34
0.0
 50
270.0
100
AcDbRotatedDimension
  0
DIMENSION
  5
EFA
330
1E
100
AcDbEntity
  8
DIM
100
AcDbDimension
  2
*D35
 10
23.30694375438673
 20
10.76261384111431
 30
0.0
 11
24.56631875438673
 21
10.76261384111431
 31
0.0
 70
    32
 71
     5
 42
0.2759999999999998
  3
23NSTD
100
AcDbAlignedDimension
 13
23.03094375438673
 23
9.273311841114312
 33
0.0
 14
23.30694375438673
 24
9.299311841114311
 34
0.0
100
AcDbRotatedDimension
  0
DIMENSION
  5
F08
330
1E
100
AcDbEntity
  8
DIM
100
AcDbDimension
  2
*D36
 10
18.85894375438673
 20
10.76261384111431
 30
0.0
 11
20.94494375438673
 21
10.76261384111431
 31
0.0
 70
    32
  1
<>
 71
     5
 42
4.172
  3
23NSTD
100
AcDbAlignedDimension
 13
23.03094375438673
 23
9.273311841114312
 33
0.0
 14
18.85894375438673
 24
9.273311841114312
 34
0.0
100
AcDbRotatedDimension
  0
DIMENSION
  5
F16
330
1E
100
AcDbEntity
  8
DIM
100
AcDbDimension
  2
*D37
 10
18.58294375438673
 20
11.25436384111431
 30
0.0
 11
20.94494375438673
 21
11.25436384111431
 31
0.0
 70
    32
  1
<>
 71
     5
 42
4.724
  3
23NSTD
100
AcDbAlignedDimension
 13
23.30694375438673
 23
9.299311841114311
 33
0.0
 14
18.58294375438673
 24
9.299311841114311
 34
0.0
100
AcDbRotatedDimension
  0
CIRCLE
  5
F24
102
{ACAD_REACTORS
330
1ACA
102
}
330
1E
100
AcDbEntity
  8
BEND
100
AcDbCircle
 10
25.35751575438673
 20
5.271169841114312
 30
0.0
 40
0.854662
  0
DIMENSION
  5
F2C
330
1E
100
AcDbEntity
  8
DIM
100
AcDbDimension
  2
*D38
 10
20.52167175438673
 20
4.825311841114312
 30
0.0
 11
19.26292175438673
 21
4.105311841114316
 31
0.0
 70
    32
  1
<> TYP.
 71
     5
 42
0.1799999999999997
  3
23NSTD
100
AcDbAlignedDimension
 13
20.46307875438674
 23
5.005311841114312
 33
0.0
 14
20.46307875438674
 24
4.825311841114312
 34
0.0
 50
90.0
100
AcDbRotatedDimension
  0
LWPOLYLINE
  5
F3A
330
1E
100
AcDbEntity
  8
OBJECT
100
AcDbPolyline
 90
        8
 70
     1
 43
0.0
 10
18.83294375438673
 20
4.825311841114312
 10
23.05694375438673
 20
4.825311841114312
 42
0.4142140000000001
 10
23.30694375438673
 20
5.075311841114312
 10
23.30694375438673
 20
9.299311841114311
 42
0.4142140000000001
 10
23.05694375438673
 20
9.549311841114311
 10
18.83294375438673
 20
9.549311841114311
 42
0.4142140000000001
 10
18.58294375438673
 20
9.299311841114311
 10
18.58294375438673
 20
5.075311841114312
 42
0.4142140000000001
  0
LWPOLYLINE
  5
F44
330
1E
100
AcDbEntity
  8
OBJECT
100
AcDbPolyline
 90
        8
 70
     1
 43
0.0
 10
23.24694375438673
 20
8.641792841114313
 42
0.219243
 10
23.05694375438673
 20
8.729311841114313
 10
22.86194375438673
 20
8.729311841114313
 42
-0.4142140000000001
 10
22.73694375438673
 20
8.854311841114313
 10
22.73694375438673
 20
9.299311841114311
 42
0.219243
 10
22.64942475438673
 20
9.489311841114313
 10
23.05694375438673
 20
9.489311841114313
 42
-0.4142140000000001
 10
23.24694375438673
 20
9.299311841114311
  0
CIRCLE
  5
F4E
330
1E
100
AcDbEntity
  8
OBJECT
100
AcDbCircle
 10
23.03094375438673
 20
9.273311841114312
 30
0.0
 40
0.085
  0
CIRCLE
  5
F4F
330
1E
100
AcDbEntity
  8
OBJECT
100
AcDbCircle
 10
23.03094375438673
 20
9.273311841114312
 30
0.0
 40
0.1775
  0
LWPOLYLINE
  5
F50
330
1E
100
AcDbEntity
  8
OBJECT
100
AcDbPolyline
 90
        8
 70
     1
 43
0.0
 10
18.64294375438674
 20
8.641792841114313
 42
-0.219243
 10
18.83294375438673
 20
8.729311841114313
 10
19.02794375438673
 20
8.729311841114313
 42
0.4142140000000001
 10
19.15294375438673
 20
8.854311841114313
 10
19.15294375438673
 20
9.299311841114311
 42
-0.219243
 10
19.24046375438673
 20
9.489311841114313
 10
18.83294375438673
 20
9.489311841114313
 42
0.4142140000000001
 10
18.64294375438674
 20
9.299311841114311
  0
CIRCLE
  5
F5A
330
1E
100
AcDbEntity
  8
OBJECT
100
AcDbCircle
 10
18.85894375438673
 20
9.273311841114312
 30
0.0
 40
0.1775
  0
CIRCLE
  5
F5B
330
1E
100
AcDbEntity
  8
OBJECT
100
AcDbCircle
 10
18.85894375438673
 20
9.273311841114312
 30
0.0
 40
0.085
  0
LWPOLYLINE
  5
F5C
330
1E
100
AcDbEntity
  8
OBJECT
100
AcDbPolyline
 90
        8
 70
     1
 43
0.0
 10
23.24694375438673
 20
5.732831841114312
 42
-0.219243
 10
23.05694375438673
 20
5.645311841114312
 10
22.86194375438673
 20
5.645311841114312
 42
0.4142140000000001
 10
22.73694375438673
 20
5.520311841114312
 10
22.73694375438673
 20
5.075311841114312
 42
-0.219243
 10
22.64942475438673
 20
4.885311841114313
 10
23.05694375438673
 20
4.885311841114313
 42
0.4142140000000001
 10
23.24694375438673
 20
5.075311841114312
  0
CIRCLE
  5
F66
330
1E
100
AcDbEntity
  8
OBJECT
100
AcDbCircle
 10
23.03094375438673
 20
5.101311841114312
 30
0.0
 40
0.1775
  0
CIRCLE
  5
F67
330
1E
100
AcDbEntity
  8
OBJECT
100
AcDbCircle
 10
23.03094375438673
 20
5.101311841114312
 30
0.0
 40
0.085
  0
LWPOLYLINE
  5
F68
330
1E
100
AcDbEntity
  8
OBJECT
100
AcDbPolyline
 90
        8
 70
     1
 43
0.0
 10
18.64294375438674
 20
5.732831841114312
 42
0.219243
 10
18.83294375438673
 20
5.645311841114312
 10
19.02794375438673
 20
5.645311841114312
 42
-0.4142140000000001
 10
19.15294375438673
 20
5.520311841114312
 10
19.15294375438673
 20
5.075311841114312
 42
0.219243
 10
19.24046375438673
 20
4.885311841114313
 10
18.83294375438673
 20
4.885311841114313
 42
-0.4142140000000001
 10
18.64294375438674
 20
5.075311841114312
  0
CIRCLE
  5
F72
330
1E
100
AcDbEntity
  8
OBJECT
100
AcDbCircle
 10
18.85894375438673
 20
5.101311841114312
 30
0.0
 40
0.085
  0
CIRCLE
  5
F73
330
1E
100
AcDbEntity
  8
OBJECT
100
AcDbCircle
 10
18.85894375438673
 20
5.101311841114312
 30
0.0
 40
0.1775
  0
LWPOLYLINE
  5
F74
102
{ACAD_REACTORS
330
1871
102
}
330
1E
100
AcDbEntity
  8
OBJECT
100
AcDbPolyline
 90
       24
 70
     1
 43
0.0
 10
18.64294375438674
 20
8.479311841114313
 10
18.64294375438674
 20
5.895311841114312
 42
0.4142140000000001
 10
18.83294375438673
 20
5.705311841114312
 10
19.02794375438673
 20
5.705311841114312
 42
-0.4142140000000001
 10
19.21294375438673
 20
5.520311841114312
 10
19.21294375438673
 20
5.075311841114312
 42
0.4142140000000001
 10
19.40294375438673
 20
4.885311841114313
 10
22.48694375438673
 20
4.885311841114313
 42
0.4142140000000001
 10
22.67694375438674
 20
5.075311841114312
 10
22.67694375438674
 20
5.520311841114312
 42
-0.4142140000000001
 10
22.86194375438673
 20
5.705311841114312
 10
23.05694375438673
 20
5.705311841114312
 42
0.4142140000000001
 10
23.24694375438673
 20
5.895311841114312
 10
23.24694375438673
 20
8.479311841114313
 42
0.4142140000000001
 10
23.05694375438673
 20
8.669311841114312
 10
22.86194375438673
 20
8.669311841114312
 42
-0.4142140000000001
 10
22.67694375438674
 20
8.854311841114313
 10
22.67694375438674
 20
9.299311841114311
 42
0.4142140000000001
 10
22.48694375438673
 20
9.489311841114313
 10
19.40294375438673
 20
9.489311841114313
 42
0.4142140000000001
 10
19.21294375438673
 20
9.299311841114311
 10
19.21294375438673
 20
8.854311841114313
 42
-0.4142140000000001
 10
19.02794375438673
 20
8.669311841114312
 10
18.83294375438673
 20
8.669311841114312
 42
0.4142140000000001
  0
LWPOLYLINE
  5
F8E
102
{ACAD_REACTORS
330
1871
102
}
330
1E
100
AcDbEntity
  8
OBJECT
100
AcDbPolyline
 90
       24
 70
     1
 43
0.0
 10
18.72294375438673
 20
8.479311841114313
 10
18.72294375438673
 20
5.895311841114312
 42
0.4142140000000001
 10
18.83294375438673
 20
5.785311841114312
 10
19.02794375438673
 20
5.785311841114312
 42
-0.4142140000000001
 10
19.29294375438673
 20
5.520311841114312
 10
19.29294375438673
 20
5.075311841114312
 42
0.4142140000000001
 10
19.40294375438673
 20
4.965311841114312
 10
22.48694375438673
 20
4.965311841114312
 42
0.4142140000000001
 10
22.59694375438673
 20
5.075311841114312
 10
22.59694375438673
 20
5.520311841114312
 42
-0.4142140000000001
 10
22.86194375438673
 20
5.785311841114312
 10
23.05694375438673
 20
5.785311841114312
 42
0.4142140000000001
 10
23.16694375438673
 20
5.895311841114312
 10
23.16694375438673
 20
8.479311841114313
 42
0.4142140000000001
 10
23.05694375438673
 20
8.589311841114312
 10
22.86194375438673
 20
8.589311841114312
 42
-0.4142140000000001
 10
22.59694375438673
 20
8.854311841114313
 10
22.59694375438673
 20
9.299311841114311
 42
0.4142140000000001
 10
22.48694375438673
 20
9.409311841114313
 10
19.40294375438673
 20
9.409311841114313
 42
0.4142140000000001
 10
19.29294375438673
 20
9.299311841114311
 10
19.29294375438673
 20
8.854311841114313
 42
-0.4142140000000001
 10
19.02794375438673
 20
8.589311841114312
 10
18.83294375438673
 20
8.589311841114312
 42
0.4142140000000001
  0
LWPOLYLINE
  5
FA8
330
1E
100
AcDbEntity
  8
OBJECT
100
AcDbPolyline
 90
       24
 70
     1
 43
0.0
 10
18.76294375438673
 20
8.479311841114313
 10
18.76294375438673
 20
5.895311841114312
 42
0.4142140000000001
 10
18.83294375438673
 20
5.825311841114312
 10
19.02794375438673
 20
5.825311841114312
 42
-0.4142140000000001
 10
19.33294375438673
 20
5.520311841114312
 10
19.33294375438673
 20
5.075311841114312
 42
0.4142140000000001
 10
19.40294375438673
 20
5.005311841114312
 10
22.48694375438673
 20
5.005311841114312
 42
0.4142140000000001
 10
22.55694375438673
 20
5.075311841114312
 10
22.55694375438673
 20
5.520311841114312
 42
-0.4142140000000001
 10
22.86194375438673
 20
5.825311841114312
 10
23.05694375438673
 20
5.825311841114312
 42
0.4142140000000001
 10
23.12694375438673
 20
5.895311841114312
 10
23.12694375438673
 20
8.479311841114313
 42
0.4142140000000001
 10
23.05694375438673
 20
8.549311841114311
 10
22.86194375438673
 20
8.549311841114311
 42
-0.4142140000000001
 10
22.55694375438673
 20
8.854311841114313
 10
22.55694375438673
 20
9.299311841114311
 42
0.4142140000000001
 10
22.48694375438673
 20
9.369311841114312
 10
19.40294375438673
 20
9.369311841114312
 42
0.4142140000000001
 10
19.33294375438673
 20
9.299311841114311
 10
19.33294375438673
 20
8.854311841114313
 42
-0.4142140000000001
 10
19.02794375438673
 20
8.549311841114311
 10
18.83294375438673
 20
8.549311841114311
 42
0.4142140000000001
  0
ARC
  5
FC2
330
1E
100
AcDbEntity
  8
OBJECT
100
AcDbCircle
 10
23.03094375438673
 20
9.273311841114312
 30
0.0
 40
0.25
100
AcDbArc
 50
120.231286
 51
329.7687139999999
  0
ARC
  5
FC3
330
1E
100
AcDbEntity
  8
OBJECT
100
AcDbCircle
 10
18.85894375438673
 20
9.273311841114312
 30
0.0
 40
0.25
100
AcDbArc
 50
210.231286
 51
59.768714
  0
ARC
  5
FC4
330
1E
100
AcDbEntity
  8
OBJECT
100
AcDbCircle
 10
18.85894375438673
 20
5.101311841114312
 30
0.0
 40
0.25
100
AcDbArc
 50
300.2312859999999
 51
149.768714
  0
ARC
  5
FC5
330
1E
100
AcDbEntity
  8
OBJECT
100
AcDbCircle
 10
23.03094375438673
 20
5.101311841114312
 30
0.0
 40
0.25
100
AcDbArc
 50
30.23128599999999
 51
239.7687139999999
  0
LWPOLYLINE
  5
FC6
330
1E
100
AcDbEntity
  8
BEND
100
AcDbPolyline
 90
        8
 70
     0
 10
22.32341575438673
 20
4.569823841114312
 40
0.0
 41
0.156711
 10
22.63683675438673
 20
4.569823841114312
 40
0.026118
 41
0.026118
 10
23.03094375438673
 20
4.569823841114312
 40
0.026118
 41
0.026118
 10
23.03094375438673
 20
8.238135841114313
 40
0.026118
 41
0.026118
 10
21.92211875438673
 20
8.238135841114313
 40
0.026118
 41
0.026118
 10
21.92211875438673
 20
9.948051841114311
 40
0.026118
 41
0.026118
 10
21.53593775438673
 20
9.948051841114311
 40
0.156711
 41
0.0
 10
21.22251575438673
 20
9.948051841114311
 40
0.0
 41
0.0
  0
TEXT
  5
FD0
330
1E
100
AcDbEntity
  8
TEXT
100
AcDbText
 10
26.80633329056627
 20
12.59106983512849
 30
0.0
 40
0.25
  1
%%UDETAIL "D"
 41
0.8
  7
SECTION
 72
     1
 11
27.69061900485198
 21
12.59106983512849
 31
0.0
100
AcDbText
  0
DIMENSION
  5
FD1
330
1E
100
AcDbEntity
  8
DIM
100
AcDbDimension
  2
*D39
 10
28.86004280139567
 20
10.01825084111431
 30
0.0
 11
27.27254280139567
 21
10.01825084111431
 31
0.0
 70
    32
  1
<> REF.
 71
     5
 42
1.180999999999997
  3
23NSTD
100
AcDbAlignedDimension
 13
30.04104280139567
 23
9.549311841114311
 33
0.0
 14
28.86004280139567
 24
9.486811841114311
 34
0.0
 50
180.0
100
AcDbRotatedDimension
  0
DIMENSION
  5
FDE
330
1E
100
AcDbEntity
  8
DIM
100
AcDbDimension
  2
*D40
 10
32.40304280139567
 20
10.58025084111431
 30
0.0
 11
30.63154280139567
 21
10.58025084111431
 31
0.0
 70
    32
 71
     5
 42
3.542999999999995
  3
23NSTD
100
AcDbAlignedDimension
 13
28.86004280139567
 23
9.486811841114311
 33
0.0
 14
32.40304280139567
 24
9.486811841114311
 34
0.0
 50
180.0
100
AcDbRotatedDimension
  0
ARC
  5
FEC
330
1E
100
AcDbEntity
  8
OBJECT
100
AcDbCircle
 10
32.34054280139567
 20
9.486811841114311
 30
0.0
 40
0.0625
100
AcDbArc
 50
0.0
 51
90.0
  0
ARC
  5
FED
330
1E
100
AcDbEntity
  8
OBJECT
100
AcDbCircle
 10
32.34054280139567
 20
4.887811841114312
 30
0.0
 40
0.0625
100
AcDbArc
 50
270.0
 51
0.0
  0
LINE
  5
FEE
330
1E
100
AcDbEntity
  8
OBJECT
100
AcDbLine
 10
32.40304280139567
 20
9.486811841114311
 30
0.0
 11
32.40304280139567
 21
4.887811841114312
 31
0.0
  0
LINE
  5
FEF
330
1E
100
AcDbEntity
  8
OBJECT
100
AcDbLine
 10
30.08104280139567
 20
9.549311841114311
 30
0.0
 11
30.08104280139567
 21
4.825311841114312
 31
0.0
  0
LINE
  5
FF0
330
1E
100
AcDbEntity
  8
OBJECT
100
AcDbLine
 10
30.08104280139567
 20
4.825311841114312
 30
0.0
 11
32.34054280139567
 21
4.825311841114312
 31
0.0
  0
LINE
  5
FF1
330
1E
100
AcDbEntity
  8
OBJECT
100
AcDbLine
 10
30.04104280139567
 20
4.845311841114313
 30
0.0
 11
30.08104280139567
 21
4.845311841114313
 31
0.0
  0
LINE
  5
FF2
330
1E
100
AcDbEntity
  8
OBJECT
100
AcDbLine
 10
30.08104280139567
 20
9.549311841114311
 30
0.0
 11
32.34054280139567
 21
9.549311841114311
 31
0.0
  0
LINE
  5
FF3
330
1E
100
AcDbEntity
  8
OBJECT
100
AcDbLine
 10
30.04104280139567
 20
9.529311841114312
 30
0.0
 11
30.08104280139567
 21
9.529311841114312
 31
0.0
  0
LINE
  5
FF4
330
1E
100
AcDbEntity
  8
OBJECT
100
AcDbLine
 10
30.04104280139567
 20
9.549311841114311
 30
0.0
 11
28.92254280139567
 21
9.549311841114311
 31
0.0
  0
LINE
  5
FF5
330
1E
100
AcDbEntity
  8
OBJECT
100
AcDbLine
 10
30.04104280139567
 20
4.825311841114312
 30
0.0
 11
28.92254280139567
 21
4.825311841114312
 31
0.0
  0
LINE
  5
FF6
330
1E
100
AcDbEntity
  8
OBJECT
100
AcDbLine
 10
30.04104280139567
 20
9.549311841114311
 30
0.0
 11
30.04104280139567
 21
4.825311841114312
 31
0.0
  0
LINE
  5
FF7
330
1E
100
AcDbEntity
  8
OBJECT
100
AcDbLine
 10
28.86004280139567
 20
9.486811841114311
 30
0.0
 11
28.86004280139567
 21
4.887811841114312
 31
0.0
  0
ARC
  5
FF8
330
1E
100
AcDbEntity
  8
OBJECT
100
AcDbCircle
 10
28.92254280139567
 20
4.887811841114312
 30
0.0
 40
0.0625
100
AcDbArc
 50
180.0
 51
270.0
  0
ARC
  5
FF9
330
1E
100
AcDbEntity
  8
OBJECT
100
AcDbCircle
 10
28.92254280139567
 20
9.486811841114311
 30
0.0
 40
0.0625
100
AcDbArc
 50
90.0
 51
180.0
  0
DIMENSION
  5
FFB
330
1E
100
AcDbEntity
  8
DIM
100
AcDbDimension
  2
*D41
 10
10.49940646284063
 20
9.549311841114311
 30
0.0
 11
10.49940646284063
 21
8.368311841114314
 31
0.0
 70
    32
 71
     5
 42
2.361999999999999
  3
23NSTD
100
AcDbAlignedDimension
 13
7.543125462840634
 23
7.187311841114312
 33
0.0
 14
7.726125462840633
 24
9.549311841114311
 34
0.0
 50
90.0
100
AcDbRotatedDimension
  0
DIMENSION
  5
1009
330
1E
100
AcDbEntity
  8
DIM
100
AcDbDimension
  2
*D42
 10
23.92100675438673
 20
11.86792084111431
 30
0.0
 11
23.92100675438673
 21
12.45842084111431
 31
0.0
 70
    32
 71
     5
 42
1.181
  3
23NSTDI
100
AcDbAlignedDimension
 13
23.24444375438673
 23
13.04892084111431
 33
0.0
 14
23.30694375438673
 24
11.86792084111431
 34
0.0
 50
90.0
100
AcDbRotatedDimension
  0
DIMENSION
  5
1017
330
1E
100
AcDbEntity
  8
DIM
100
AcDbDimension
  2
*D43
 10
8.594371462840634
 20
13.05276684111431
 30
0.0
 11
8.59437146284063
 21
14.25376684111431
 31
0.0
 70
    32
 71
     5
 42
2.402000000000001
  3
23NSTDI
100
AcDbAlignedDimension
 13
7.913625462840633
 23
15.45476684111431
 33
0.0
 14
7.898125462840633
 24
13.05276684111431
 34
0.0
 50
90.0
100
AcDbRotatedDimension
  0
CIRCLE
  5
1025
330
1E
100
AcDbEntity
  8
BEND
100
AcDbCircle
 10
5.614125462840632
 20
5.218311841114312
 30
0.0
 40
0.590743
  0
ATTDEF
  5
1026
330
1E
100
AcDbEntity
  8
BEND
100
AcDbText
 10
22.03981675438674
 20
9.823051841114311
 30
0.0
 40
0.25
  1

  7
SECTION
 72
     4
 11
22.16481675438673
 21
9.948051841114311
 31
0.0
100
AcDbAttributeDefinition
  3

  2
B
 70
     0
  0
ATTDEF
  5
1027
330
1E
100
AcDbEntity
  8
BEND
100
AcDbText
 10
23.16034075438673
 20
4.444823841114312
 30
0.0
 40
0.25
  1

  7
SECTION
 72
     4
 11
23.28534075438673
 21
4.569823841114312
 31
0.0
100
AcDbAttributeDefinition
  3

  2
B
 70
     0
  0
ATTDEF
  5
1028
330
1E
100
AcDbEntity
  8
BEND
100
AcDbText
 10
7.727748843793015
 20
4.371413841114311
 30
0.0
 40
0.25
  1

  7
SECTION
 72
     4
 11
7.846796462840634
 21
4.496413841114311
 31
0.0
100
AcDbAttributeDefinition
  3

  2
A
 70
     0
  0
ATTDEF
  5
1029
330
1E
100
AcDbEntity
  8
BEND
100
AcDbText
 10
7.151905843793015
 20
9.772540841114311
 30
0.0
 40
0.25
  1

  7
SECTION
 72
     4
 11
7.270953462840633
 21
9.897540841114311
 31
0.0
100
AcDbAttributeDefinition
  3

  2
A
 70
     0
  0
DIMENSION
  5
1038
330
1E
100
AcDbEntity
  8
DIM
100
AcDbDimension
  2
*D44
 10
25.96647375438674
 20
7.588549841114312
 30
0.0
 11
27.17897375438674
 21
7.588549841114312
 31
0.0
 70
    32
  1
0.120
 71
     5
 42
0.120000000000001
  3
23NSTD
100
AcDbAlignedDimension
 13
25.84647375438674
 23
7.640031841114312
 33
0.0
 14
25.96647375438674
 24
7.640031841114312
 34
0.0
100
AcDbRotatedDimension
  0
LINE
  5
1046
330
1E
100
AcDbEntity
  8
OBJECT
100
AcDbLine
 10
18.58294375438673
 20
11.86792084111431
 30
0.0
 11
23.30694375438673
 21
11.86792084111431
 31
0.0
  0
LINE
  5
1047
330
1E
100
AcDbEntity
  8
HIDDEN
100
AcDbLine
 10
18.64294375438674
 20
12.92892084111431
 30
0.0
 11
23.24694375438673
 21
12.92892084111431
 31
0.0
  0
LINE
  5
1048
330
1E
100
AcDbEntity
  8
OBJECT
100
AcDbLine
 10
18.64544375438673
 20
13.04892084111431
 30
0.0
 11
23.24444375438673
 21
13.04892084111431
 31
0.0
  0
LINE
  5
1049
330
1E
100
AcDbEntity
  8
OBJECT
100
AcDbLine
 10
23.30694375438673
 20
11.86792084111431
 30
0.0
 11
23.30694375438673
 21
12.98642084111431
 31
0.0
  0
LINE
  5
104A
330
1E
100
AcDbEntity
  8
HIDDEN
100
AcDbLine
 10
22.73694375438673
 20
11.86792084111431
 30
0.0
 11
22.73694375438673
 21
12.92892084111431
 31
0.0
  0
LINE
  5
104B
330
1E
100
AcDbEntity
  8
HIDDEN
100
AcDbLine
 10
22.85344375438673
 20
11.86792084111431
 30
0.0
 11
22.85344375438673
 21
12.16792084111431
 31
0.0
  0
LINE
  5
104C
330
1E
100
AcDbEntity
  8
HIDDEN
100
AcDbLine
 10
22.55694375438673
 20
11.86792084111431
 30
0.0
 11
22.55694375438673
 21
12.92892084111431
 31
0.0
  0
LINE
  5
104D
330
1E
100
AcDbEntity
  8
HIDDEN
100
AcDbLine
 10
23.11688175438673
 20
11.86792084111431
 30
0.0
 11
23.11688175438673
 21
12.38985784111431
 31
0.0
  0
LINE
  5
104E
330
1E
100
AcDbEntity
  8
HIDDEN
100
AcDbLine
 10
22.94500675438674
 20
11.86792084111431
 30
0.0
 11
22.94500675438674
 21
12.38985784111431
 31
0.0
  0
LINE
  5
104F
330
1E
100
AcDbEntity
  8
HIDDEN
100
AcDbLine
 10
23.24694375438673
 20
12.92892084111431
 30
0.0
 11
23.24694375438673
 21
11.86792084111431
 31
0.0
  0
LINE
  5
1050
330
1E
100
AcDbEntity
  8
HIDDEN
100
AcDbLine
 10
23.20844375438674
 20
11.86792084111431
 30
0.0
 11
23.20844375438674
 21
12.16792084111431
 31
0.0
  0
LINE
  5
1051
330
1E
100
AcDbEntity
  8
HIDDEN
100
AcDbLine
 10
22.59694375438673
 20
11.98292084111431
 30
0.0
 11
22.67694375438674
 21
11.98292084111431
 31
0.0
  0
LINE
  5
1052
330
1E
100
AcDbEntity
  8
HIDDEN
100
AcDbLine
 10
22.87594375438673
 20
12.45892084111431
 30
0.0
 11
22.87594375438673
 21
13.04892084111431
 31
0.0
  0
LINE
  5
1053
330
1E
100
AcDbEntity
  8
HIDDEN
100
AcDbLine
 10
23.18594375438673
 20
12.45892084111431
 30
0.0
 11
23.18594375438673
 21
13.04892084111431
 31
0.0
  0
LINE
  5
1054
330
1E
100
AcDbEntity
  8
HIDDEN
100
AcDbLine
 10
22.78094375438673
 20
12.16792084111431
 30
0.0
 11
22.78094375438673
 21
12.92892084111431
 31
0.0
  0
LINE
  5
1055
330
1E
100
AcDbEntity
  8
HIDDEN
100
AcDbLine
 10
22.78094375438673
 20
12.16792084111431
 30
0.0
 11
22.85344375438673
 21
12.16792084111431
 31
0.0
  0
LINE
  5
1056
330
1E
100
AcDbEntity
  8
HIDDEN
100
AcDbLine
 10
22.94500675438674
 20
12.38985784111431
 30
0.0
 11
22.87594375438673
 21
12.45892084111431
 31
0.0
  0
LINE
  5
1057
330
1E
100
AcDbEntity
  8
HIDDEN
100
AcDbLine
 10
23.11688175438673
 20
12.38985784111431
 30
0.0
 11
23.18594375438673
 21
12.45892084111431
 31
0.0
  0
LINE
  5
1058
330
1E
100
AcDbEntity
  8
HIDDEN
100
AcDbLine
 10
23.11688175438673
 20
12.38985784111431
 30
0.0
 11
22.94500675438674
 21
12.38985784111431
 31
0.0
  0
LINE
  5
1059
330
1E
100
AcDbEntity
  8
HIDDEN
100
AcDbLine
 10
23.18594375438673
 20
12.45892084111431
 30
0.0
 11
22.87594375438673
 21
12.45892084111431
 31
0.0
  0
LINE
  5
105A
330
1E
100
AcDbEntity
  8
HIDDEN
100
AcDbLine
 10
23.24694375438673
 20
12.16792084111431
 30
0.0
 11
23.20844375438674
 21
12.16792084111431
 31
0.0
  0
LINE
  5
105B
330
1E
100
AcDbEntity
  8
HIDDEN
100
AcDbLine
 10
19.33094375438673
 20
11.86792084111431
 30
0.0
 11
19.33094375438673
 21
12.92892084111431
 31
0.0
  0
LINE
  5
105C
330
1E
100
AcDbEntity
  8
HIDDEN
100
AcDbLine
 10
19.15294375438673
 20
12.92892084111431
 30
0.0
 11
19.15294375438673
 21
11.86792084111431
 31
0.0
  0
LINE
  5
105D
330
1E
100
AcDbEntity
  8
OBJECT
100
AcDbLine
 10
18.58294375438673
 20
11.86792084111431
 30
0.0
 11
18.58294375438673
 21
12.98642084111431
 31
0.0
  0
LINE
  5
105E
330
1E
100
AcDbEntity
  8
HIDDEN
100
AcDbLine
 10
18.94488175438674
 20
11.86792084111431
 30
0.0
 11
18.94488175438674
 21
12.38985784111431
 31
0.0
  0
LINE
  5
105F
330
1E
100
AcDbEntity
  8
HIDDEN
100
AcDbLine
 10
18.77300675438673
 20
11.86792084111431
 30
0.0
 11
18.77300675438673
 21
12.38985784111431
 31
0.0
  0
LINE
  5
1060
330
1E
100
AcDbEntity
  8
HIDDEN
100
AcDbLine
 10
18.68144375438673
 20
11.86792084111431
 30
0.0
 11
18.68144375438673
 21
12.16792084111431
 31
0.0
  0
LINE
  5
1061
330
1E
100
AcDbEntity
  8
HIDDEN
100
AcDbLine
 10
18.64294375438674
 20
12.92892084111431
 30
0.0
 11
18.64294375438674
 21
11.86792084111431
 31
0.0
  0
LINE
  5
1062
330
1E
100
AcDbEntity
  8
HIDDEN
100
AcDbLine
 10
19.03644375438673
 20
11.86792084111431
 30
0.0
 11
19.03644375438673
 21
12.16792084111431
 31
0.0
  0
ARC
  5
1063
330
1E
100
AcDbEntity
  8
OBJECT
100
AcDbCircle
 10
18.64544375438673
 20
12.98642084111431
 30
0.0
 40
0.0625
100
AcDbArc
 50
90.0
 51
180.0
  0
LINE
  5
1064
330
1E
100
AcDbEntity
  8
HIDDEN
100
AcDbLine
 10
18.70394375438674
 20
12.45892084111431
 30
0.0
 11
18.70394375438674
 21
13.04892084111431
 31
0.0
  0
LINE
  5
1065
330
1E
100
AcDbEntity
  8
HIDDEN
100
AcDbLine
 10
19.01394375438673
 20
12.45892084111431
 30
0.0
 11
19.01394375438673
 21
13.04892084111431
 31
0.0
  0
LINE
  5
1066
330
1E
100
AcDbEntity
  8
HIDDEN
100
AcDbLine
 10
18.77300675438673
 20
12.38985784111431
 30
0.0
 11
18.94488175438674
 21
12.38985784111431
 31
0.0
  0
LINE
  5
1067
330
1E
100
AcDbEntity
  8
HIDDEN
100
AcDbLine
 10
18.77300675438673
 20
12.38985784111431
 30
0.0
 11
18.70394375438674
 21
12.45892084111431
 31
0.0
  0
LINE
  5
1068
330
1E
100
AcDbEntity
  8
HIDDEN
100
AcDbLine
 10
18.64294375438674
 20
12.16792084111431
 30
0.0
 11
18.68144375438673
 21
12.16792084111431
 31
0.0
  0
LINE
  5
1069
330
1E
100
AcDbEntity
  8
HIDDEN
100
AcDbLine
 10
19.10894375438673
 20
12.16792084111431
 30
0.0
 11
19.03644375438673
 21
12.16792084111431
 31
0.0
  0
LINE
  5
106A
330
1E
100
AcDbEntity
  8
HIDDEN
100
AcDbLine
 10
19.10894375438673
 20
12.16792084111431
 30
0.0
 11
19.10894375438673
 21
12.92892084111431
 31
0.0
  0
LINE
  5
106B
330
1E
100
AcDbEntity
  8
HIDDEN
100
AcDbLine
 10
18.70394375438674
 20
12.45892084111431
 30
0.0
 11
19.01394375438673
 21
12.45892084111431
 31
0.0
  0
LINE
  5
106C
330
1E
100
AcDbEntity
  8
HIDDEN
100
AcDbLine
 10
18.94488175438674
 20
12.38985784111431
 30
0.0
 11
19.01394375438673
 21
12.45892084111431
 31
0.0
  0
LINE
  5
106D
330
1E
100
AcDbEntity
  8
HIDDEN
100
AcDbLine
 10
22.67694375438674
 20
11.86792084111431
 30
0.0
 11
22.67694375438674
 21
11.98292084111431
 31
0.0
  0
LINE
  5
106E
330
1E
100
AcDbEntity
  8
HIDDEN
100
AcDbLine
 10
22.59694375438673
 20
11.86792084111431
 30
0.0
 11
22.59694375438673
 21
11.98292084111431
 31
0.0
  0
LINE
  5
106F
330
1E
100
AcDbEntity
  8
HIDDEN
100
AcDbLine
 10
19.21294375438673
 20
11.86792084111431
 30
0.0
 11
19.21294375438673
 21
11.98292084111431
 31
0.0
  0
LINE
  5
1070
330
1E
100
AcDbEntity
  8
HIDDEN
100
AcDbLine
 10
19.29294375438673
 20
11.98292084111431
 30
0.0
 11
19.21294375438673
 21
11.98292084111431
 31
0.0
  0
LINE
  5
1071
330
1E
100
AcDbEntity
  8
HIDDEN
100
AcDbLine
 10
19.29294375438673
 20
11.86792084111431
 30
0.0
 11
19.29294375438673
 21
11.98292084111431
 31
0.0
  0
ARC
  5
1072
330
1E
100
AcDbEntity
  8
OBJECT
100
AcDbCircle
 10
23.24444375438673
 20
12.98642084111431
 30
0.0
 40
0.0625
100
AcDbArc
 50
0.0
 51
90.0
  0
LINE
  5
1073
330
1E
100
AcDbEntity
  8
HIDDEN
100
AcDbLine
 10
23.16694375438673
 20
11.86792084111431
 30
0.0
 11
23.16694375438673
 21
11.98292084111431
 31
0.0
  0
LINE
  5
1074
330
1E
100
AcDbEntity
  8
HIDDEN
100
AcDbLine
 10
23.24694375438673
 20
11.86792084111431
 30
0.0
 11
23.24694375438673
 21
11.98292084111431
 31
0.0
  0
LINE
  5
1075
330
1E
100
AcDbEntity
  8
HIDDEN
100
AcDbLine
 10
23.16694375438673
 20
11.98292084111431
 30
0.0
 11
23.24694375438673
 21
11.98292084111431
 31
0.0
  0
LINE
  5
1076
330
1E
100
AcDbEntity
  8
HIDDEN
100
AcDbLine
 10
23.12694375438673
 20
11.86792084111431
 30
0.0
 11
23.12694375438673
 21
12.92892084111431
 31
0.0
  0
LINE
  5
1077
330
1E
100
AcDbEntity
  8
HIDDEN
100
AcDbLine
 10
18.72294375438673
 20
11.86792084111431
 30
0.0
 11
18.72294375438673
 21
11.98292084111431
 31
0.0
  0
LINE
  5
1078
330
1E
100
AcDbEntity
  8
HIDDEN
100
AcDbLine
 10
18.72294375438673
 20
11.98292084111431
 30
0.0
 11
18.64294375438674
 21
11.98292084111431
 31
0.0
  0
LINE
  5
1079
330
1E
100
AcDbEntity
  8
HIDDEN
100
AcDbLine
 10
18.64294375438674
 20
11.86792084111431
 30
0.0
 11
18.64294375438674
 21
11.98292084111431
 31
0.0
  0
LINE
  5
107A
330
1E
100
AcDbEntity
  8
HIDDEN
100
AcDbLine
 10
18.76094375438673
 20
11.86792084111431
 30
0.0
 11
18.76094375438673
 21
12.92892084111431
 31
0.0
  0
LINE
  5
107B
102
{ACAD_REACTORS
330
1ACA
102
}
330
1E
100
AcDbEntity
  8
OBJECT
100
AcDbLine
 10
25.84647375438674
 20
9.369311841114312
 30
0.0
 11
25.84647375438674
 21
5.825311841114312
 31
0.0
  0
LINE
  5
107C
102
{ACAD_REACTORS
330
1ACA
102
}
330
1E
100
AcDbEntity
  8
OBJECT
100
AcDbLine
 10
25.96647375438674
 20
9.486811841114311
 30
0.0
 11
25.96647375438674
 21
4.887811841114312
 31
0.0
  0
ARC
  5
107F
102
{ACAD_REACTORS
330
1ACA
102
}
330
1E
100
AcDbEntity
  8
OBJECT
100
AcDbCircle
 10
25.90397375438674
 20
4.887811841114312
 30
0.0
 40
0.0625
100
AcDbArc
 50
270.0
 51
0.0
  0
LINE
  5
1080
102
{ACAD_REACTORS
330
1ACA
102
}
330
1E
100
AcDbEntity
  8
OBJECT
100
AcDbLine
 10
25.23247375438673
 20
4.946311841114312
 30
0.0
 11
25.96647375438674
 21
4.946311841114312
 31
0.0
  0
LINE
  5
1081
102
{ACAD_REACTORS
330
1ACA
102
}
330
1E
100
AcDbEntity
  8
OBJECT
100
AcDbLine
 10
24.78547375438674
 20
4.923811841114313
 30
0.0
 11
25.08547375438674
 21
4.923811841114313
 31
0.0
  0
LINE
  5
1082
102
{ACAD_REACTORS
330
1ACA
102
}
330
1E
100
AcDbEntity
  8
OBJECT
100
AcDbLine
 10
24.78547375438674
 20
4.825311841114312
 30
0.0
 11
25.90397375438674
 21
4.825311841114312
 31
0.0
  0
LINE
  5
1083
102
{ACAD_REACTORS
330
1ACA
102
}
330
1E
100
AcDbEntity
  8
OBJECT
100
AcDbLine
 10
25.08547375438674
 20
4.885311841114313
 30
0.0
 11
24.78547375438674
 21
4.885311841114313
 31
0.0
  0
LINE
  5
1085
102
{ACAD_REACTORS
330
1ACA
102
}
330
1E
100
AcDbEntity
  8
OBJECT
100
AcDbLine
 10
25.23247375438673
 20
5.256311841114313
 30
0.0
 11
25.96647375438674
 21
5.256311841114312
 31
0.0
  0
LINE
  5
1086
102
{ACAD_REACTORS
330
1ACA
102
}
330
1E
100
AcDbEntity
  8
OBJECT
100
AcDbLine
 10
24.78547375438674
 20
5.278811841114312
 30
0.0
 11
25.08547375438674
 21
5.278811841114312
 31
0.0
  0
LINE
  5
1087
102
{ACAD_REACTORS
330
1ACA
102
}
330
1E
100
AcDbEntity
  8
OBJECT
100
AcDbLine
 10
24.78547375438674
 20
5.015374841114311
 30
0.0
 11
25.23247375438673
 21
5.015374841114311
 31
0.0
  0
LINE
  5
1088
102
{ACAD_REACTORS
330
1ACA
102
}
330
1E
100
AcDbEntity
  8
OBJECT
100
AcDbLine
 10
24.78547375438674
 20
5.187249841114311
 30
0.0
 11
25.23247375438673
 21
5.187249841114311
 31
0.0
  0
LINE
  5
1089
102
{ACAD_REACTORS
330
1ACA
102
}
330
1E
100
AcDbEntity
  8
OBJECT
100
AcDbLine
 10
24.78547375438674
 20
5.825311841114312
 30
0.0
 11
25.84647375438674
 21
5.825311841114312
 31
0.0
  0
LINE
  5
108A
102
{ACAD_REACTORS
330
1ACA
102
}
330
1E
100
AcDbEntity
  8
OBJECT
100
AcDbLine
 10
24.78547375438674
 20
5.645311841114312
 30
0.0
 11
25.84647375438674
 21
5.645311841114312
 31
0.0
  0
LINE
  5
108E
102
{ACAD_REACTORS
330
1ACA
102
}
330
1E
100
AcDbEntity
  8
OBJECT
100
AcDbLine
 10
25.08547375438674
 20
5.351311841114312
 30
0.0
 11
25.84647375438674
 21
5.351311841114312
 31
0.0
  0
ARC
  5
108F
102
{ACAD_REACTORS
330
1ACA
102
}
330
1E
100
AcDbEntity
  8
OBJECT
100
AcDbCircle
 10
25.90397375438674
 20
9.486811841114311
 30
0.0
 40
0.0625
100
AcDbArc
 50
0.0
 51
90.0
  0
LINE
  5
1090
102
{ACAD_REACTORS
330
1ACA
102
}
330
1E
100
AcDbEntity
  8
OBJECT
100
AcDbLine
 10
24.78547375438674
 20
9.549311841114311
 30
0.0
 11
25.90397375438674
 21
9.549311841114311
 31
0.0
  0
LINE
  5
1091
102
{ACAD_REACTORS
330
1ACA
102
}
330
1E
100
AcDbEntity
  8
OBJECT
100
AcDbLine
 10
24.78547375438674
 20
9.369311841114312
 30
0.0
 11
25.84647375438674
 21
9.369311841114312
 31
0.0
  0
LINE
  5
1092
102
{ACAD_REACTORS
330
1ACA
102
}
330
1E
100
AcDbEntity
  8
OBJECT
100
AcDbLine
 10
25.84647375438674
 20
5.645311841114312
 30
0.0
 11
25.84647375438674
 21
5.351311841114312
 31
0.0
  0
DIMENSION
  5
113B
330
1E
100
AcDbEntity
  8
DIM
100
AcDbDimension
  2
*D45
 10
32.00202799815826
 20
15.5244555407906
 30
0.0
 11
32.00202799815826
 21
14.90445554079061
 31
0.0
 70
    32
  1
<> DIA.\PC'BORE
 71
     5
 42
0.31
  3
23NSTD4I
100
AcDbAlignedDimension
 13
31.18429699815826
 23
14.2844555407906
 33
0.0
 14
31.18429699815826
 24
15.5244555407906
 34
0.0
 50
90.0
100
AcDbRotatedDimension
  0
DIMENSION
  5
1159
330
1E
100
AcDbEntity
  8
DIM
100
AcDbDimension
  2
*D46
 10
25.63811599815827
 20
14.5607055407906
 30
0.0
 11
25.63811599815826
 21
14.90445554079061
 31
0.0
 70
    32
  1
<> DIA.
 71
     5
 42
0.171875
  3
23NSTD4I
100
AcDbAlignedDimension
 13
26.46029699815827
 23
15.2482055407906
 33
0.0
 14
26.46029699815827
 24
14.5607055407906
 34
0.0
 50
90.0
100
AcDbRotatedDimension
  0
DIMENSION
  5
1175
330
1E
100
AcDbEntity
  8
DIM
100
AcDbDimension
  2
*D47
 10
28.24829699815824
 20
13.27356118066198
 30
0.0
 11
29.71629699815825
 21
13.27356118066198
 31
0.0
 70
    32
 71
     5
 42
0.7340000000000071
  3
23NSTD4
100
AcDbAlignedDimension
 13
31.18429699815826
 23
14.0504555407906
 33
0.0
 14
28.24829699815824
 24
14.2844555407906
 34
0.0
100
AcDbRotatedDimension
  0
DIMENSION
  5
1183
330
1E
100
AcDbEntity
  8
DIM
100
AcDbDimension
  2
*D48
 10
24.93858199815827
 20
17.6577385407906
 30
0.0
 11
25.80670699815826
 21
18.37773854079061
 31
0.0
 70
    32
 71
     5
 42
0.0800000000000001
  3
23NSTD4
100
AcDbAlignedDimension
 13
26.46029699815827
 23
17.3377385407906
 33
0.0
 14
26.46029699815827
 24
17.6577385407906
 34
0.0
 50
90.0
100
AcDbRotatedDimension
  0
DIMENSION
  5
1191
330
1E
100
AcDbEntity
  8
DIM
100
AcDbDimension
  2
*D49
 10
26.46029699815827
 20
18.9874955407906
 30
0.0
 11
25.26342199815827
 21
18.9874955407906
 31
0.0
 70
    32
 71
     5
 42
0.1149999999999975
  3
23NSTD4
100
AcDbAlignedDimension
 13
26.92029699815826
 23
17.6577385407906
 33
0.0
 14
26.46029699815827
 24
18.30392565569343
 34
0.0
100
AcDbRotatedDimension
  0
LINE
  5
11A8
102
{ACAD_REACTORS
330
1880
330
188E
330
1ACA
102
}
330
1E
100
AcDbEntity
  8
OBJECT
100
AcDbLine
 10
24.78547375438674
 20
9.549311841114311
 30
0.0
 11
24.78547375438674
 21
4.825311841114312
 31
0.0
  0
TEXT
  5
11C0
330
1E
100
AcDbEntity
  8
TEXT
100
AcDbText
 10
18.15964738305001
 20
19.98379166666667
 30
0.0
 40
0.3125
  1
PN-1337, PN-1337-C AND PN-1337-DG
 41
0.75
 72
     4
 11
21.81199113305001
 21
20.114
 31
0.0
100
AcDbText
  0
LINE
  5
11C1
330
1E
100
AcDbEntity
  8
TITLE
100
AcDbLine
 10
29.07600200000002
 20
2.203999000000002
 30
0.0
 11
29.07600200000002
 21
0.1240000000000023
 31
0.0
  0
LINE
  5
11C2
330
1E
100
AcDbEntity
  8
TITLE
100
AcDbLine
 10
25.07600400000002
 20
2.203999000000002
 30
0.0
 11
25.07600400000002
 21
0.1240000000000023
 31
0.0
  0
LINE
  5
11C3
330
1E
100
AcDbEntity
  8
TITLE
100
AcDbLine
 10
21.07600600000002
 20
2.203999000000002
 30
0.0
 11
21.07600600000002
 21
0.1240000000000023
 31
0.0
  0
LINE
  5
11C4
330
1E
100
AcDbEntity
  8
TITLE
100
AcDbLine
 10
17.07600800000002
 20
2.203999000000002
 30
0.0
 11
17.07600800000002
 21
0.1240000000000023
 31
0.0
  0
LINE
  5
11C5
330
1E
100
AcDbEntity
  8
TITLE
100
AcDbLine
 10
27.07600300000002
 20
0.9559990000000022
 30
0.0
 11
27.07600300000002
 21
0.5400000000000023
 31
0.0
  0
LINE
  5
11C7
330
1E
100
AcDbEntity
  8
TITLE
100
AcDbLine
 10
17.07600800000002
 20
0.5400000000000023
 30
0.0
 11
29.07600200000002
 21
0.5400000000000023
 31
0.0
  0
LINE
  5
11C8
330
1E
100
AcDbEntity
  8
TITLE
100
AcDbLine
 10
17.07600800000002
 20
0.9559990000000022
 30
0.0
 11
29.07600200000002
 21
0.9559990000000022
 31
0.0
  0
LINE
  5
11C9
330
1E
100
AcDbEntity
  8
TITLE
100
AcDbLine
 10
17.07600800000002
 20
1.371999000000002
 30
0.0
 11
33.07600000000002
 21
1.371999000000002
 31
0.0
  0
LINE
  5
11CA
330
1E
100
AcDbEntity
  8
TITLE
100
AcDbLine
 10
17.07600800000002
 20
2.203999000000002
 30
0.0
 11
33.07600000000002
 21
2.203999000000002
 31
0.0
  0
TEXT
  5
11CB
330
1E
100
AcDbEntity
  8
TEXT
100
AcDbText
 10
18.07600700000002
 20
1.662999000000002
 30
0.0
 40
0.25
  1
PART NUMBER
 41
0.75
 72
     4
 11
19.07600700000002
 21
1.787999000000002
 31
0.0
100
AcDbText
  0
TEXT
  5
11CD
330
1E
100
AcDbEntity
  8
TEXT
100
AcDbText
 10
18.48225700000002
 20
1.037666000000002
 30
0.0
 40
0.25
  1
PN-1337
 41
0.75
 72
     4
 11
19.07600700000002
 21
1.162666000000002
 31
0.0
100
AcDbText
  0
TEXT
  5
11CE
330
1E
100
AcDbEntity
  8
TEXT
100
AcDbText
 10
18.29475700000002
 20
0.6210000000000023
 30
0.0
 40
0.25
  1
PN-1337-C
 41
0.75
 72
     4
 11
19.07600700000002
 21
0.7460000000000023
 31
0.0
100
AcDbText
  0
TEXT
  5
11CF
330
1E
100
AcDbEntity
  8
TEXT
100
AcDbText
 10
18.20100700000002
 20
0.2043330000000023
 30
0.0
 40
0.25
  1
PN-1337-DG
 41
0.75
 72
     4
 11
19.07600700000002
 21
0.3293330000000023
 31
0.0
100
AcDbText
  0
TEXT
  5
11D0
330
1E
100
AcDbEntity
  8
TEXT
100
AcDbText
 10
29.98225100000002
 20
1.662999000000002
 30
0.0
 40
0.25
  1
HARDWARE KIT
 41
0.75
 72
     4
 11
31.07600100000002
 21
1.787999000000002
 31
0.0
100
AcDbText
  0
TEXT
  5
11D2
330
1E
100
AcDbEntity
  8
TEXT
100
AcDbText
 10
22.38850500000002
 20
1.870999000000002
 30
0.0
 40
0.25
  1
MATERIAL
 41
0.75
 72
     4
 11
23.07600500000002
 21
1.995999000000002
 31
0.0
100
AcDbText
  0
TEXT
  5
11D3
330
1E
100
AcDbEntity
  8
TEXT
100
AcDbText
 10
26.60725300000002
 20
1.870999000000002
 30
0.0
 40
0.25
  1
FINISH
 41
0.75
 72
     4
 11
27.07600300000002
 21
1.995999000000002
 31
0.0
100
AcDbText
  0
TEXT
  5
11D4
330
1E
100
AcDbEntity
  8
TEXT
100
AcDbText
 10
25.73225300000002
 20
1.454999000000002
 30
0.0
 40
0.25
  1
BODY
 41
0.75
 72
     4
 11
26.07600300000002
 21
1.579999000000002
 31
0.0
100
AcDbText
  0
TEXT
  5
11D5
330
1E
100
AcDbEntity
  8
TEXT
100
AcDbText
 10
21.88850500000002
 20
1.038333000000002
 30
0.0
 40
0.25
  1
POLYCARBONATE
 41
0.75
 72
     4
 11
23.07600500000002
 21
1.163333000000002
 31
0.0
100
AcDbText
  0
TEXT
  5
11D6
330
1E
100
AcDbEntity
  8
TEXT
100
AcDbText
 10
21.88850500000002
 20
0.6216660000000023
 30
0.0
 40
0.25
  1
POLYCARBONATE
 41
0.75
 72
     4
 11
23.07600500000002
 21
0.7466660000000023
 31
0.0
100
AcDbText
  0
TEXT
  5
11D7
330
1E
100
AcDbEntity
  8
TEXT
100
AcDbText
 10
21.76350500000002
 20
0.2050000000000023
 30
0.0
 40
0.25
  1
HIGH-IMPACT ABS
 41
0.75
 72
     4
 11
23.07600500000002
 21
0.3300000000000023
 31
0.0
100
AcDbText
  0
TEXT
  5
11D8
330
1E
100
AcDbEntity
  8
TEXT
100
AcDbText
 10
27.60725200000002
 20
1.454999000000002
 30
0.0
 40
0.25
  1
COVER
 41
0.75
 72
     4
 11
28.07600200000002
 21
1.579999000000002
 31
0.0
100
AcDbText
  0
TEXT
  5
11D9
330
1E
100
AcDbEntity
  8
TEXT
100
AcDbText
 10
23.60725400000002
 20
1.454999000000002
 30
0.0
 40
0.25
  1
COVER
 41
0.75
 72
     4
 11
24.07600400000002
 21
1.579999000000002
 31
0.0
100
AcDbText
  0
TEXT
  5
11DA
330
1E
100
AcDbEntity
  8
TEXT
100
AcDbText
 10
21.73225500000002
 20
1.454999000000002
 30
0.0
 40
0.25
  1
BODY
 41
0.75
 72
     4
 11
22.07600500000002
 21
1.579999000000002
 31
0.0
100
AcDbText
  0
TEXT
  5
11DB
330
1E
100
AcDbEntity
  8
TEXT
100
AcDbText
 10
26.20100300000002
 20
1.038333000000002
 30
0.0
 40
0.25
  1
LIGHT GRAY
 41
0.75
 72
     4
 11
27.07600300000002
 21
1.163333000000002
 31
0.0
100
AcDbText
  0
TEXT
  5
11DC
330
1E
100
AcDbEntity
  8
TEXT
100
AcDbText
 10
25.20100300000002
 20
0.6216660000000023
 30
0.0
 40
0.25
  1
LIGHT GRAY
 41
0.75
 72
     4
 11
26.07600300000002
 21
0.7466660000000023
 31
0.0
100
AcDbText
  0
TEXT
  5
11DD
330
1E
100
AcDbEntity
  8
TEXT
100
AcDbText
 10
26.26350300000002
 20
0.2050000000000023
 30
0.0
 40
0.25
  1
DARK GRAY
 41
0.75
 72
     4
 11
27.07600300000002
 21
0.3300000000000023
 31
0.0
100
AcDbText
  0
TEXT
  5
11DE
330
1E
100
AcDbEntity
  8
TEXT
100
AcDbText
 10
27.63850200000002
 20
0.6216660000000023
 30
0.0
 40
0.25
  1
CLEAR
 41
0.75
 72
     4
 11
28.07600200000002
 21
0.7466660000000023
 31
0.0
100
AcDbText
  0
LINE
  5
11DF
330
1E
100
AcDbEntity
  8
TITLE
100
AcDbLine
 10
27.07600300000002
 20
1.787999000000002
 30
0.0
 11
27.07600300000002
 21
1.371999000000002
 31
0.0
  0
LINE
  5
11E0
330
1E
100
AcDbEntity
  8
TITLE
100
AcDbLine
 10
21.07600600000002
 20
1.787999000000002
 30
0.0
 11
29.07600200000002
 21
1.787999000000002
 31
0.0
  0
LINE
  5
11E1
330
1E
100
AcDbEntity
  8
TITLE
100
AcDbLine
 10
23.07600500000002
 20
1.787999000000002
 30
0.0
 11
23.07600500000002
 21
1.371999000000002
 31
0.0
  0
TEXT
  5
11E2
330
1E
100
AcDbEntity
  8
TEXT
100
AcDbText
 10
29.73225100000002
 20
1.038333000000002
 30
0.0
 40
0.25
  1
KIT CONTAINS (4)
 41
0.75
 72
     4
 11
31.07600100000002
 21
1.163333000000002
 31
0.0
100
AcDbText
  0
TEXT
  5
11E3
330
1E
100
AcDbEntity
  8
TEXT
100
AcDbText
 10
29.29475100000002
 20
0.6216660000000023
 30
0.0
 40
0.25
  1
M4 x 20mm (0.787") LG.
 41
0.75
 72
     4
 11
31.07600100000002
 21
0.7466660000000023
 31
0.0
100
AcDbText
  0
TEXT
  5
11E4
330
1E
100
AcDbEntity
  8
TEXT
100
AcDbText
 10
29.29475100000002
 20
0.2050000000000023
 30
0.0
 40
0.25
  1
SCREWS FOR ASSEMBLY
 41
0.75
 72
     4
 11
31.07600100000002
 21
0.3300000000000023
 31
0.0
100
AcDbText
  0
TEXT
  5
11E5
330
1E
100
AcDbEntity
  8
TEXT
100
AcDbText
 10
17.07600800000002
 20
2.409999000000002
 30
0.0
 40
0.25
  1
%%UNOTE%%U:  ALL DIMENSIONS HAVE %%P0.015 TOLERANCE UNLESS OTHERWISE SPECIFIED.
 41
0.75
100
AcDbText
  0
LWPOLYLINE
  5
11EB
102
{ACAD_REACTORS
330
1880
330
1ACA
102
}
330
1E
100
AcDbEntity
  8
OBJECT
100
AcDbPolyline
 90
        3
 70
     0
 43
0.0
 10
24.90047375438674
 20
5.789632841114312
 10
24.90047375438674
 20
5.709632841114312
 10
24.78547375438674
 20
5.709632841114312
  0
LWPOLYLINE
  5
11F0
102
{ACAD_REACTORS
330
1880
330
1ACA
102
}
330
1E
100
AcDbEntity
  8
OBJECT
100
AcDbPolyline
 90
        2
 70
     0
 43
0.0
 10
24.78547375438674
 20
5.789632841114312
 10
24.90047375438674
 20
5.789632841114312
  0
LWPOLYLINE
  5
11F4
102
{ACAD_REACTORS
330
188E
330
1ACA
102
}
330
1E
100
AcDbEntity
  8
OBJECT
100
AcDbPolyline
 90
        3
 70
     0
 43
0.0
 10
24.90047375438674
 20
9.493632841114314
 10
24.90047375438674
 20
9.413632841114313
 10
24.78547375438674
 20
9.413632841114313
  0
LWPOLYLINE
  5
11F9
102
{ACAD_REACTORS
330
188E
330
1ACA
102
}
330
1E
100
AcDbEntity
  8
OBJECT
100
AcDbPolyline
 90
        2
 70
     0
 43
0.0
 10
24.78547375438674
 20
9.493632841114314
 10
24.90047375438674
 20
9.493632841114314
  0
TEXT
  5
120A
330
1E
100
AcDbEntity
  8
TEXT
100
AcDbText
 10
0.535602
 20
18.581903
 30
0.0
 40
0.25
  1
 %%UPOLYCARBONATE%%U (LIGHT GRAY AND CLEAR)
 41
0.75
100
AcDbText
  0
TEXT
  5
120B
330
1E
100
AcDbEntity
  8
TEXT
100
AcDbText
 10
0.535602
 20
16.915904
 30
0.0
 40
0.25
  1
 %%UABS%%U (DARK GRAY)
 41
0.75
100
AcDbText
  0
TEXT
  5
120C
330
1E
100
AcDbEntity
  8
TEXT
100
AcDbText
 10
0.535602
 20
16.082904
 30
0.0
 40
0.25
  1
  SERVICE TEMPERATURE RANGE:  -40%%DC TO +80%%DC
 41
0.75
100
AcDbText
  0
TEXT
  5
120D
330
1E
100
AcDbEntity
  8
TEXT
100
AcDbText
 10
0.535602
 20
16.499237
 30
0.0
 40
0.25
  1
  UL94-HB FLAMMABILITY RATING (UL FILE #E56070)
 41
0.75
100
AcDbText
  0
TEXT
  5
120E
330
1E
100
AcDbEntity
  8
TEXT
100
AcDbText
 10
0.535602
 20
18.99857
 30
0.0
 40
0.3125
  1
INDUSTRY STANDARDS:
 41
0.75
100
AcDbText
  0
TEXT
  5
120F
330
1E
100
AcDbEntity
  8
TEXT
100
AcDbText
 10
0.535602
 20
17.33223699999999
 30
0.0
 40
0.25
  1
  SERVICE TEMPERATURE RANGE:  -40%%DC TO +120%%DC
 41
0.75
100
AcDbText
  0
TEXT
  5
1210
330
1E
100
AcDbEntity
  8
TEXT
100
AcDbText
 10
0.535602
 20
17.748904
 30
0.0
 40
0.25
  1
  UV STABILIZED
 41
0.75
100
AcDbText
  0
TEXT
  5
1211
330
1E
100
AcDbEntity
  8
TEXT
100
AcDbText
 10
0.535602
 20
18.165237
 30
0.0
 40
0.25
  1
  UL94-HB FLAMMABILITY RATING (UL FILE #E41613)
 41
0.75
100
AcDbText
  0
INSERT
  5
184D
330
1E
100
AcDbEntity
  8
TITLE
100
AcDbBlockReference
  2
HBS
 10
0.0
 20
0.0
 30
0.0
 41
2.0
 42
2.0
 43
2.0
  0
TEXT
  5
184E
330
1E
100
AcDbEntity
  8
TEXT
100
AcDbText
 10
5.858875000000011
 20
19.95775
 30
0.0
 40
0.3125
  1
NEMA 4X ENCLOSURE
 41
0.75
 72
     4
 11
7.812000000000011
 21
20.114
 31
0.0
100
AcDbText
  0
TEXT
  5
1850
330
1E
100
AcDbEntity
  8
TEXT
100
AcDbText
 10
30.58827238305002
 20
19.95775000000001
 30
0.0
 40
0.3125
  1
11-17-08
 41
0.75
 72
     4
 11
31.34999113305002
 21
20.11400000000001
 31
0.0
100
AcDbText
  0
LINE
  5
1853
102
{ACAD_REACTORS
330
1ACA
102
}
330
1E
100
AcDbEntity
  8
OBJECT
100
AcDbLine
 10
25.23247375438673
 20
5.256311841114313
 30
0.0
 11
25.23247375438673
 21
4.946311841114312
 31
0.0
  0
LINE
  5
1855
102
{ACAD_REACTORS
330
1ACA
102
}
330
1E
100
AcDbEntity
  8
OBJECT
100
AcDbLine
 10
25.08547375438674
 20
5.351311841114311
 30
0.0
 11
25.08547375438674
 21
5.278811841114311
 31
0.0
  0
LINE
  5
1856
102
{ACAD_REACTORS
330
1ACA
102
}
330
1E
100
AcDbEntity
  8
OBJECT
100
AcDbLine
 10
25.08547375438674
 20
4.923811841114313
 30
0.0
 11
25.08547375438674
 21
4.885311841114313
 31
0.0
  0
HATCH
  5
1865
330
1E
100
AcDbEntity
  8
OBJECT
 62
   221
100
AcDbHatch
 10
0.0
 20
0.0
 30
0.0
210
0.0
220
0.0
230
1.0
  2
ANSI32
 70
     0
 71
     1
 91
        2
 92
        7
 72
     0
 73
     1
 93
        4
 10
13.31542546284063
 20
4.976311841114311
 10
13.31542546284063
 20
5.035311841114312
 10
12.98442546284063
 20
5.035311841114312
 10
12.98442546284063
 20
4.976311841114312
 97
        1
330
CE9
 92
        7
 72
     0
 73
     1
 93
        4
 10
12.98442546284063
 20
5.226311841114313
 10
12.98442546284063
 20
5.167311841114312
 10
13.31542546284063
 20
5.167311841114312
 10
13.31542546284063
 20
5.226311841114312
 97
        1
330
CEF
 75
     0
 76
     1
 52
89.99998127603165
 41
0.25
 77
     0
 78
     2
 53
134.9999812760316
 43
-0.3235775371593661
 44
-0.5747491588856875
 45
-0.066291282399881
 46
-0.0662912390725896
 79
     0
 53
134.9999812760316
 43
-0.3235775227169356
 44
-0.5305549851356898
 45
-0.066291282399881
 46
-0.0662912390725896
 79
     0
 47
0.0030263042391287
 98
        2
 10
13.13568754335763
 20
5.002468090829125
 10
13.14174500469219
 20
5.199177881134509
  0
HATCH
  5
1871
330
1E
100
AcDbEntity
  8
OBJECT
 62
   221
100
AcDbHatch
 10
0.0
 20
0.0
 30
0.0
210
0.0
220
0.0
230
1.0
  2
ZIGZAG
 70
     0
 71
     1
 91
        2
 92
        1
 93
       24
 72
     1
 10
18.64294375438674
 20
8.479311841114313
 11
18.64294375438674
 21
5.895311841114312
 72
     2
 10
18.83294361244245
 20
5.895311699170026
 40
0.1899998580557669
 50
179.9999571957125
 51
270.0000428042867
 73
     1
 72
     1
 10
18.83294375438673
 20
5.705311841114312
 11
19.02794375438673
 21
5.705311841114312
 72
     2
 10
19.02794389259564
 20
5.520311979323222
 40
0.184999861791142
 50
269.9999571957135
 51
360.000042804287
 73
     0
 72
     1
 10
19.21294375438673
 20
5.520311841114312
 11
19.21294375438673
 21
5.075311841114312
 72
     2
 10
19.40294361244244
 20
5.075311699170028
 40
0.1899998580557669
 50
179.9999571957133
 51
270.0000428042877
 73
     1
 72
     1
 10
19.40294375438673
 20
4.885311841114313
 11
22.48694375438673
 21
4.885311841114313
 72
     2
 10
22.48694389633102
 20
5.075311699170028
 40
0.1899998580557687
 50
269.9999571957133
 51
360.0000428042867
 73
     1
 72
     1
 10
22.67694375438674
 20
5.075311841114312
 11
22.67694375438674
 21
5.520311841114312
 72
     2
 10
22.86194361617782
 20
5.520311979323222
 40
0.1849998617911394
 50
179.9999571957129
 51
270.0000428042875
 73
     0
 72
     1
 10
22.86194375438673
 20
5.705311841114312
 11
23.05694375438673
 21
5.705311841114312
 72
     2
 10
23.05694389633102
 20
5.895311699170028
 40
0.1899998580557687
 50
269.9999571957133
 51
360.0000428042869
 73
     1
 72
     1
 10
23.24694375438673
 20
5.895311841114312
 11
23.24694375438673
 21
8.479311841114313
 72
     2
 10
23.05694389633102
 20
8.479311983058597
 40
0.1899998580557704
 50
359.9999571957133
 51
450.0000428042866
 73
     1
 72
     1
 10
23.05694375438673
 20
8.669311841114312
 11
22.86194375438673
 21
8.669311841114312
 72
     2
 10
22.86194361617782
 20
8.854311702905402
 40
0.1849998617911411
 50
89.99995719571241
 51
180.0000428042876
 73
     0
 72
     1
 10
22.67694375438674
 20
8.854311841114313
 11
22.67694375438674
 21
9.299311841114311
 72
     2
 10
22.48694389633102
 20
9.299311983058597
 40
0.1899998580557704
 50
359.9999571957127
 51
450.0000428042866
 73
     1
 72
     1
 10
22.48694375438673
 20
9.489311841114313
 11
19.40294375438673
 21
9.489311841114313
 72
     2
 10
19.40294361244244
 20
9.299311983058597
 40
0.1899998580557687
 50
89.99995719571225
 51
180.0000428042872
 73
     1
 72
     1
 10
19.21294375438673
 20
9.299311841114311
 11
19.21294375438673
 21
8.854311841114313
 72
     2
 10
19.02794389259564
 20
8.854311702905402
 40
0.1849998617911429
 50
359.9999571957123
 51
450.0000428042865
 73
     0
 72
     1
 10
19.02794375438673
 20
8.669311841114312
 11
18.83294375438673
 21
8.669311841114312
 72
     2
 10
18.83294361244245
 20
8.479311983058599
 40
0.1899998580557669
 50
89.99995719571332
 51
180.0000428042872
 73
     1
 97
        1
330
F74
 92
       16
 93
       24
 72
     1
 10
18.72294375438673
 20
8.479311841114313
 11
18.72294375438673
 21
5.895311841114312
 72
     2
 10
18.83294367220846
 20
5.895311758936042
 40
0.1099999178217588
 50
179.9999571957129
 51
270.0000428042875
 73
     1
 72
     1
 10
18.83294375438673
 20
5.785311841114312
 11
19.02794375438673
 21
5.785311841114312
 72
     2
 10
19.02794395236166
 20
5.520312039089235
 40
0.2649998020251509
 50
269.999957195713
 51
360.0000428042867
 73
     0
 72
     1
 10
19.29294375438673
 20
5.520311841114312
 11
19.29294375438673
 21
5.075311841114312
 72
     2
 10
19.40294367220846
 20
5.075311758936042
 40
0.1099999178217588
 50
179.9999571957129
 51
270.0000428042875
 73
     1
 72
     1
 10
19.40294375438673
 20
4.965311841114312
 11
22.48694375438673
 21
4.965311841114312
 72
     2
 10
22.486943836565
 20
5.075311758936042
 40
0.1099999178217606
 50
269.9999571957124
 51
360.0000428042871
 73
     1
 72
     1
 10
22.59694375438673
 20
5.075311841114312
 11
22.59694375438673
 21
5.520311841114312
 72
     2
 10
22.86194355641181
 20
5.520312039089235
 40
0.2649998020251509
 50
179.9999571957132
 51
270.0000428042869
 73
     0
 72
     1
 10
22.86194375438673
 20
5.785311841114312
 11
23.05694375438673
 21
5.785311841114312
 72
     2
 10
23.056943836565
 20
5.895311758936042
 40
0.1099999178217606
 50
269.9999571957124
 51
360.0000428042871
 73
     1
 72
     1
 10
23.16694375438673
 20
5.895311841114312
 11
23.16694375438673
 21
8.479311841114313
 72
     2
 10
23.056943836565
 20
8.479311923292584
 40
0.1099999178217588
 50
359.9999571957124
 51
450.0000428042875
 73
     1
 72
     1
 10
23.05694375438673
 20
8.589311841114312
 11
22.86194375438673
 21
8.589311841114312
 72
     2
 10
22.86194355641181
 20
8.854311643139389
 40
0.2649998020251509
 50
89.99995719571302
 51
180.0000428042869
 73
     0
 72
     1
 10
22.59694375438673
 20
8.854311841114313
 11
22.59694375438673
 21
9.299311841114311
 72
     2
 10
22.486943836565
 20
9.299311923292583
 40
0.1099999178217624
 50
359.9999571957124
 51
450.0000428042857
 73
     1
 72
     1
 10
22.48694375438673
 20
9.409311841114313
 11
19.40294375438673
 21
9.409311841114313
 72
     2
 10
19.40294367220847
 20
9.299311923292583
 40
0.1099999178217606
 50
89.9999571957143
 51
180.0000428042875
 73
     1
 72
     1
 10
19.29294375438673
 20
9.299311841114311
 11
19.29294375438673
 21
8.854311841114313
 72
     2
 10
19.02794395236166
 20
8.854311643139389
 40
0.2649998020251509
 50
359.999957195713
 51
450.0000428042869
 73
     0
 72
     1
 10
19.02794375438673
 20
8.589311841114312
 11
18.83294375438673
 21
8.589311841114312
 72
     2
 10
18.83294367220846
 20
8.479311923292584
 40
0.1099999178217588
 50
89.99995719571245
 51
180.0000428042875
 73
     1
 97
        1
330
F8E
 75
     0
 76
     1
 52
0.0
 41
0.25
 77
     0
 78
     2
 53
0.0
 43
0.826969754386738
 44
-0.5747491588856875
 45
0.03125
 46
0.03125
 79
     2
 49
0.03125
 49
-0.03125
 53
90.0
 43
0.858219754386738
 44
-0.5747491588856875
 45
-0.03125
 46
0.03125
 79
     2
 49
0.03125
 49
-0.03125
 98
        1
 10
0.826969754386738
 20
-0.5747491588856875
  0
HATCH
  5
1880
330
1E
100
AcDbEntity
  8
OBJECT
 62
   221
100
AcDbHatch
 10
0.0
 20
0.0
 30
0.0
210
0.0
220
0.0
230
1.0
  2
ZIGZAG
 70
     0
 71
     1
 91
        1
 92
        7
 72
     0
 73
     1
 93
        4
 10
24.78547375438673
 20
5.789632841114312
 10
24.78547375438674
 20
5.709632841114312
 10
24.90047375438674
 20
5.709632841114311
 10
24.90047375438674
 20
5.789632841114311
 97
        3
330
11F0
330
11A8
330
11EB
 75
     0
 76
     1
 52
0.0
 41
0.25
 77
     0
 78
     2
 53
0.0
 43
0.826969754386738
 44
-0.5747491588856875
 45
0.03125
 46
0.03125
 79
     2
 49
0.03125
 49
-0.03125
 53
90.0
 43
0.858219754386738
 44
-0.5747491588856875
 45
-0.03125
 46
0.03125
 79
     2
 49
0.03125
 49
-0.03125
 47
0.0076952196709331
 98
        1
 10
24.85069632579187
 20
5.759929589991386
  0
HATCH
  5
188E
330
1E
100
AcDbEntity
  8
OBJECT
 62
   221
100
AcDbHatch
 10
0.0
 20
0.0
 30
0.0
210
0.0
220
0.0
230
1.0
  2
ZIGZAG
 70
     0
 71
     1
 91
        1
 92
        7
 72
     0
 73
     1
 93
        4
 10
24.90047375438674
 20
9.413632841114313
 10
24.90047375438674
 20
9.493632841114314
 10
24.78547375438674
 20
9.493632841114314
 10
24.78547375438674
 20
9.413632841114313
 97
        3
330
11F9
330
11A8
330
11F4
 75
     0
 76
     1
 52
0.0
 41
0.25
 77
     0
 78
     2
 53
0.0
 43
0.826969754386738
 44
-0.5747491588856875
 45
0.03125
 46
0.03125
 79
     2
 49
0.03125
 49
-0.03125
 53
90.0
 43
0.858219754386738
 44
-0.5747491588856875
 45
-0.03125
 46
0.03125
 79
     2
 49
0.03125
 49
-0.03125
 47
0.0076952196709331
 98
        1
 10
24.84299488667946
 20
9.445939853328887
  0
LINE
  5
1890
102
{ACAD_REACTORS
330
199F
102
}
330
1E
100
AcDbEntity
  8
OBJECT
100
AcDbLine
 10
27.66029699815828
 20
14.1944555407906
 30
0.0
 11
27.66029699815828
 21
14.0404555407906
 31
0.0
  0
LINE
  5
1891
102
{ACAD_REACTORS
330
199F
102
}
330
1E
100
AcDbEntity
  8
OBJECT
100
AcDbLine
 10
27.66029699815827
 20
14.0404555407906
 30
0.0
 11
26.46029699815827
 21
14.0404555407906
 31
0.0
  0
LINE
  5
1892
102
{ACAD_REACTORS
330
199F
102
}
330
1E
100
AcDbEntity
  8
OBJECT
100
AcDbLine
 10
26.46029699815827
 20
13.8004555407906
 30
0.0
 11
30.93429699815827
 21
13.8004555407906
 31
0.0
  0
ARC
  5
1893
102
{ACAD_REACTORS
330
199F
102
}
330
1E
100
AcDbEntity
  8
OBJECT
100
AcDbCircle
 10
30.93429699815827
 20
14.0504555407906
 30
0.0
 40
0.25
100
AcDbArc
 50
270.0
 51
0.0
  0
LWPOLYLINE
  5
1895
102
{ACAD_REACTORS
330
18C6
330
199F
102
}
330
1E
100
AcDbEntity
  8
OBJECT
100
AcDbPolyline
 90
        2
 70
     0
 43
0.0
 10
26.46029699815827
 20
17.6577395407906
 10
26.92029699815826
 20
17.6577395407906
  0
LWPOLYLINE
  5
1896
102
{ACAD_REACTORS
330
18C6
330
199F
102
}
330
1E
100
AcDbEntity
  8
OBJECT
100
AcDbPolyline
 90
        3
 70
     0
 43
0.0
 10
26.92029699815826
 20
17.6577395407906
 10
26.92029699815826
 20
17.3377395407906
 10
26.46029699815827
 20
17.3377395407906
  0
LINE
  5
1897
102
{ACAD_REACTORS
330
199F
102
}
330
1E
100
AcDbEntity
  8
OBJECT
100
AcDbLine
 10
26.46029699815827
 20
14.1944555407906
 30
0.0
 11
27.66029699815827
 21
14.1944555407906
 31
0.0
  0
LINE
  5
1898
102
{ACAD_REACTORS
330
199F
102
}
330
1E
100
AcDbEntity
  8
OBJECT
100
AcDbLine
 10
26.46029699815827
 20
15.6144555407906
 30
0.0
 11
27.66029699815827
 21
15.6144555407906
 31
0.0
  0
LINE
  5
1899
102
{ACAD_REACTORS
330
199F
102
}
330
1E
100
AcDbEntity
  8
OBJECT
100
AcDbLine
 10
26.46029699815827
 20
15.2482075407906
 30
0.0
 11
28.24829699815825
 21
15.2482075407906
 31
0.0
  0
LINE
  5
189A
102
{ACAD_REACTORS
330
199F
102
}
330
1E
100
AcDbEntity
  8
OBJECT
100
AcDbLine
 10
26.46029699815827
 20
14.5607075407906
 30
0.0
 11
28.24829699815825
 21
14.5607075407906
 31
0.0
  0
LINE
  5
189B
102
{ACAD_REACTORS
330
199F
102
}
330
1E
100
AcDbEntity
  8
OBJECT
100
AcDbLine
 10
26.46029699815827
 20
17.8004555407906
 30
0.0
 11
30.70429699815825
 21
17.8004555407906
 31
0.0
  0
LINE
  5
189C
102
{ACAD_REACTORS
330
199F
102
}
330
1E
100
AcDbEntity
  8
OBJECT
100
AcDbLine
 10
26.46029699815827
 20
17.08045554079061
 30
0.0
 11
30.70429699815825
 21
17.08045554079061
 31
0.0
  0
LINE
  5
189D
102
{ACAD_REACTORS
330
199F
102
}
330
1E
100
AcDbEntity
  8
OBJECT
100
AcDbLine
 10
27.66029699815827
 20
15.9044555407906
 30
0.0
 11
30.70429699815825
 21
15.9044555407906
 31
0.0
  0
LINE
  5
189E
102
{ACAD_REACTORS
330
199F
102
}
330
1E
100
AcDbEntity
  8
OBJECT
100
AcDbLine
 10
28.24829699815824
 20
14.2844555407906
 30
0.0
 11
31.18429699815827
 21
14.2844555407906
 31
0.0
  0
LINE
  5
189F
102
{ACAD_REACTORS
330
199F
102
}
330
1E
100
AcDbEntity
  8
OBJECT
100
AcDbLine
 10
28.24829699815826
 20
15.52445554079061
 30
0.0
 11
31.18429699815827
 21
15.5244555407906
 31
0.0
  0
LINE
  5
18A0
102
{ACAD_REACTORS
330
199F
102
}
330
1E
100
AcDbEntity
  8
OBJECT
100
AcDbLine
 10
27.66029699815826
 20
15.9044555407906
 30
0.0
 11
27.66029699815826
 21
15.6144555407906
 31
0.0
  0
LINE
  5
18A1
102
{ACAD_REACTORS
330
199F
102
}
330
1E
100
AcDbEntity
  8
OBJECT
100
AcDbLine
 10
28.24829699815826
 20
15.52445554079061
 30
0.0
 11
28.24829699815824
 21
14.2844555407906
 31
0.0
  0
LINE
  5
18A2
102
{ACAD_REACTORS
330
199F
102
}
330
1E
100
AcDbEntity
  8
OBJECT
100
AcDbLine
 10
30.70429699815825
 20
17.08045554079061
 30
0.0
 11
30.70429699815825
 21
15.9044555407906
 31
0.0
  0
LINE
  5
18A3
102
{ACAD_REACTORS
330
18C6
330
199F
102
}
330
1E
100
AcDbEntity
  8
OBJECT
100
AcDbLine
 10
26.46029699815827
 20
18.30392565569343
 30
0.0
 11
26.46029699815827
 21
13.8004555407906
 31
0.0
  0
LINE
  5
18A4
102
{ACAD_REACTORS
330
199F
102
}
330
1E
100
AcDbEntity
  8
OBJECT
100
AcDbLine
 10
30.70429699815825
 20
18.50635809730345
 30
0.0
 11
30.70429699815825
 21
17.8004555407906
 31
0.0
  0
LINE
  5
18A5
102
{ACAD_REACTORS
330
199F
102
}
330
1E
100
AcDbEntity
  8
OBJECT
100
AcDbLine
 10
31.18429699815825
 20
18.46129435231196
 30
0.0
 11
31.18429699815827
 21
14.0504555407906
 31
0.0
  0
SPLINE
  5
18A7
102
{ACAD_REACTORS
330
199F
102
}
330
1E
100
AcDbEntity
  8
OBJECT
100
AcDbSpline
210
0.0
220
0.0
230
1.0
 70
     8
 71
     3
 72
    13
 73
     9
 74
     0
 42
0.0000000001
 43
0.0000000001
 40
0.0
 40
0.0
 40
0.0
 40
0.0
 40
0.8254813544104703
 40
1.58793229656407
 40
2.580407811337047
 40
3.614624615676575
 40
4.704091181086933
 40
4.97034986082285
 40
4.97034986082285
 40
4.97034986082285
 40
4.97034986082285
 10
26.46029699815827
 20
18.30392565569343
 30
0.0
 10
26.71740025521188
 20
18.47046263997786
 30
0.0
 10
27.2119754061174
 20
18.79082051905615
 30
0.0
 10
28.00805442776105
 20
18.09551986769974
 30
0.0
 10
28.93848527148209
 20
18.85290972174907
 30
0.0
 10
29.89778701563386
 20
17.90426750212803
 30
0.0
 10
30.68650028285775
 20
18.64665226785532
 30
0.0
 10
31.10274349502489
 20
18.49918637591839
 30
0.0
 10
31.18429699815767
 20
18.46129435231072
 30
0.0
  0
HATCH
  5
18C6
330
1E
100
AcDbEntity
  8
OBJECT
 62
   221
100
AcDbHatch
 10
0.0
 20
0.0
 30
0.0
210
0.0
220
0.0
230
1.0
  2
ZIGZAG
 70
     0
 71
     1
 91
        1
 92
        7
 72
     0
 73
     1
 93
        4
 10
26.92029699815826
 20
17.3377395407906
 10
26.92029699815826
 20
17.6577395407906
 10
26.46029699815827
 20
17.6577395407906
 10
26.46029699815827
 20
17.3377395407906
 97
        3
330
1895
330
18A3
330
1896
 75
     0
 76
     1
 52
0.0
 41
1.0
 77
     0
 78
     2
 53
0.0
 43
-4.580527297896722
 44
1.611170138118019
 45
0.125
 46
0.125
 79
     2
 49
0.125
 49
-0.125
 53
90.0
 43
-4.455527297896722
 44
1.611170138118019
 45
-0.125
 46
0.125
 79
     2
 49
0.125
 49
-0.125
 47
0.0132311014412873
 98
        1
 10
26.72715266252075
 20
17.47669025596349
  0
HATCH
  5
199F
330
1E
100
AcDbEntity
  8
OBJECT
 62
   151
100
AcDbHatch
 10
0.0
 20
0.0
 30
0.0
210
0.0
220
0.0
230
1.0
  2
ANSI31
 70
     0
 71
     1
 91
        2
 92
        5
 93
       18
 72
     1
 10
30.70429699815825
 20
17.08045554079061
 11
30.70429699815826
 21
15.9044555407906
 72
     1
 10
30.70429699815826
 20
15.9044555407906
 11
27.66029699815826
 21
15.9044555407906
 72
     1
 10
27.66029699815826
 20
15.9044555407906
 11
27.66029699815825
 21
15.6144555407906
 72
     1
 10
27.66029699815825
 20
15.6144555407906
 11
26.46029699815827
 21
15.61445554079059
 72
     1
 10
26.46029699815827
 20
15.61445554079059
 11
26.46029699815827
 21
15.2482075407906
 72
     1
 10
26.46029699815827
 20
15.2482075407906
 11
28.24829699815825
 21
15.2482075407906
 72
     1
 10
28.24829699815825
 20
15.2482075407906
 11
28.24829699815826
 21
15.52445554079061
 72
     1
 10
28.24829699815826
 20
15.52445554079061
 11
31.18429699815827
 21
15.5244555407906
 72
     1
 10
31.18429699815827
 20
15.5244555407906
 11
31.18429699815825
 21
18.46129435231048
 72
     4
 94
        3
 73
     0
 74
     0
 95
        9
 96
        5
 40
4.456911714331091
 40
4.456911714331091
 40
4.456911714331091
 40
4.456911714331091
 40
4.723170394067008
 40
4.97034986082285
 40
4.97034986082285
 40
4.97034986082285
 40
4.97034986082285
 10
31.18429699815767
 20
18.46129435231072
 10
31.10274349502489
 20
18.49918637591839
 10
30.94510451610198
 20
18.5550344280941
 10
30.78299568704951
 20
18.52933049660396
 10
30.70429699813736
 20
18.50635809729736
 72
     1
 10
30.70429699815825
 20
18.50635809730217
 11
30.70429699815826
 21
17.8004555407906
 72
     1
 10
30.70429699815826
 20
17.8004555407906
 11
26.46029699815827
 21
17.80045554079061
 72
     1
 10
26.46029699815827
 20
17.80045554079061
 11
26.46029699815827
 21
17.6577395407906
 72
     1
 10
26.46029699815827
 20
17.6577395407906
 11
26.92029699815826
 21
17.6577395407906
 72
     1
 10
26.92029699815826
 20
17.6577395407906
 11
26.92029699815826
 21
17.3377395407906
 72
     1
 10
26.92029699815826
 20
17.3377395407906
 11
26.46029699815827
 21
17.3377395407906
 72
     1
 10
26.46029699815827
 20
17.3377395407906
 11
26.46029699815827
 21
17.08045554079061
 72
     1
 10
26.46029699815827
 20
17.08045554079061
 11
30.70429699815825
 21
17.08045554079061
 97
       15
330
18A7
330
18A4
330
189B
330
18A3
330
1895
330
1896
330
189C
330
18A2
330
189D
330
18A0
330
1898
330
1899
330
18A1
330
189F
330
18A5
 92
        7
 72
     1
 73
     1
 93
       11
 10
28.24829699815823
 20
14.2844555407906
 42
0.0
 10
28.24829699815824
 20
14.5607075407906
 42
0.0
 10
26.46029699815827
 20
14.5607075407906
 42
0.0
 10
26.46029699815827
 20
14.1944555407906
 42
0.0
 10
27.66029699815829
 20
14.1944555407906
 42
0.0
 10
27.66029699815828
 20
14.0404555407906
 42
0.0
 10
26.46029699815827
 20
14.0404555407906
 42
0.0
 10
26.46029699815827
 20
13.8004555407906
 42
0.0
 10
30.93429699815827
 20
13.8004555407906
 42
0.4142135623730972
 10
31.18429699815827
 20
14.05045554079061
 42
0.0
 10
31.18429699815827
 20
14.2844555407906
 42
0.0
 97
       10
330
189E
330
18A1
330
189A
330
18A3
330
1897
330
1890
330
1891
330
1892
330
1893
330
18A5
 75
     0
 76
     1
 52
0.0
 41
1.5
 77
     0
 78
     1
 53
45.0
 43
-7.182833214615428
 44
1.611170138118019
 45
-0.1325825214724776
 46
0.1325825214724777
 79
     0
 47
0.0359218220861592
 98
        2
 10
29.33534248716426
 20
17.43576133865242
 10
28.97583388867527
 20
14.0591100621479
  0
LEADER
  5
1A3E
330
1E
100
AcDbEntity
  8
DIM
100
AcDbLeader
  3
23NSTD
 73
     0
 75
     1
 40
0.6666666666666666
 41
2.625
 76
     3
 10
26.46029699815827
 20
17.36117013811802
 30
0.0
 10
25.55721428505664
 20
16.21399083875777
 30
0.0
 10
25.19721428505664
 20
16.21399083875777
 30
0.0
340
1A3F
213
0.0
223
-0.125
233
0.0
1001
ACAD
1000
DSTYLE
1002
{
1070
   147
1040
0.09
1070
    77
1070
     0
1002
}
  0
MTEXT
  5
1A3F
102
{ACAD_REACTORS
330
1A3E
102
}
330
1E
100
AcDbEntity
  8
DIM
100
AcDbMText
 10
25.01721428505664
 20
16.33899083875777
 30
0.0
 40
0.25
 41
0.0
 71
     3
 72
     1
  1
\A1;SILICONE GASKET\P(CLEAR)
 73
     1
 44
1.0
  0
HATCH
  5
1ACA
330
1E
100
AcDbEntity
  8
OBJECT
 62
   151
100
AcDbHatch
 10
0.0
 20
0.0
 30
0.0
210
0.0
220
0.0
230
1.0
  2
ANSI31
 70
     0
 71
     1
 91
        3
 92
        7
 72
     1
 73
     1
 93
       11
 10
24.78547375438674
 20
9.549311841114311
 42
0.0
 10
24.78547375438674
 20
9.493632841114314
 42
0.0
 10
24.90047375438674
 20
9.493632841114314
 42
0.0
 10
24.90047375438674
 20
9.413632841114313
 42
0.0
 10
24.78547375438674
 20
9.413632841114315
 42
0.0
 10
24.78547375438674
 20
9.369311841114312
 42
0.0
 10
25.84647375438674
 20
9.369311841114312
 42
0.0
 10
25.84647375438674
 20
5.972145738331896
 42
-0.0460327851252997
 10
25.96647375438674
 20
5.87085083004092
 42
0.0
 10
25.96647375438674
 20
9.486811841114311
 42
0.4142135623730951
 10
25.90397375438674
 20
9.549311841114311
 42
0.0
 97
        9
330
108F
330
1090
330
11A8
330
11F9
330
11F4
330
1091
330
107B
330
F24
330
107C
 92
        7
 72
     1
 73
     1
 93
       18
 10
24.78547375438674
 20
5.825311841114313
 42
0.0
 10
24.78547375438674
 20
5.789632841114311
 42
0.0
 10
24.90047375438674
 20
5.789632841114312
 42
0.0
 10
24.90047375438674
 20
5.709632841114311
 42
0.0
 10
24.78547375438674
 20
5.709632841114311
 42
0.0
 10
24.78547375438674
 20
5.645311841114312
 42
0.0
 10
25.84647375438674
 20
5.645311841114312
 42
0.0
 10
25.84647375438673
 20
5.351311841114311
 42
0.0
 10
25.08547375438673
 20
5.351311841114312
 42
0.0
 10
25.08547375438674
 20
5.278811841114312
 42
0.0
 10
24.78547375438673
 20
5.278811841114311
 42
0.0
 10
24.78547375438674
 20
5.187249841114311
 42
0.0
 10
25.23247375438673
 20
5.187249841114311
 42
0.0
 10
25.23247375438673
 20
5.256311841114312
 42
0.0
 10
25.96647375438674
 20
5.256311841114313
 42
0.0
 10
25.96647375438674
 20
5.87085083004092
 42
0.0460327851252997
 10
25.84647375438674
 20
5.972145738331896
 42
0.0
 10
25.84647375438674
 20
5.825311841114312
 42
0.0
 97
       15
330
F24
330
107B
330
1089
330
11A8
330
11F0
330
11EB
330
108A
330
1092
330
108E
330
1855
330
1086
330
1088
330
1853
330
1085
330
107C
 92
        7
 72
     1
 73
     1
 93
       11
 10
25.90397375438674
 20
4.825311841114312
 42
0.4142135623730951
 10
25.96647375438674
 20
4.887811841114312
 42
0.0
 10
25.96647375438673
 20
4.946311841114312
 42
0.0
 10
25.23247375438673
 20
4.946311841114311
 42
0.0
 10
25.23247375438673
 20
5.015374841114311
 42
0.0
 10
24.78547375438674
 20
5.015374841114311
 42
0.0
 10
24.78547375438673
 20
4.923811841114313
 42
0.0
 10
25.08547375438674
 20
4.923811841114313
 42
0.0
 10
25.08547375438674
 20
4.885311841114313
 42
0.0
 10
24.78547375438673
 20
4.885311841114312
 42
0.0
 10
24.78547375438674
 20
4.825311841114312
 42
0.0
 97
       10
330
107C
330
1080
330
1853
330
1087
330
11A8
330
1081
330
1856
330
1083
330
1082
330
107F
 75
     0
 76
     1
 52
0.0
 41
0.625
 77
     0
 78
     1
 53
45.0
 43
0.826969754386738
 44
-0.5747491588856875
 45
-0.055242717280199
 46
0.055242717280199
 79
     0
 47
0.0106087678964746
 98
        3
 10
25.37327007833133
 20
9.463963619213529
 10
25.36265269224751
 20
5.74028609420197
 10
25.47944349513933
 20
4.870367102601385
  0
LEADER
  5
1B3D
330
1E
100
AcDbEntity
  8
DIM
100
AcDbLeader
  3
23NSTD
 73
     0
 75
     1
 40
0.25
 41
2.375
 76
     3
 10
24.72214775438674
 20
4.699544841114312
 30
0.0
 10
24.34164854737539
 20
4.018137781292622
 30
0.0
 10
23.98164854737539
 20
4.018137781292622
 30
0.0
340
1B3E
213
0.0
223
-0.125
233
0.0
1001
ACAD
1000
DSTYLE
1002
{
1070
   147
1040
0.09
1070
    77
1070
     0
1002
}
  0
MTEXT
  5
1B3E
102
{ACAD_REACTORS
330
1B3D
102
}
330
1E
100
AcDbEntity
  8
DIM
100
AcDbMText
 10
23.80164854737539
 20
4.143137781292622
 30
0.0
 40
0.25
 41
0.0
 71
     3
 72
     1
  1
\A1;SEE DETAIL "D"
 73
     1
 44
1.0
  0
LEADER
  5
1B3F
330
1E
100
AcDbEntity
  8
DIM
100
AcDbLeader
  3
23NSTD
 73
     0
 75
     1
 40
0.25
 41
2.375
 76
     3
 10
5.055100335657833
 20
5.027345353930686
 30
0.0
 10
3.257526132144868
 20
4.238674156175285
 30
0.0
 10
2.897526132144868
 20
4.238674156175285
 30
0.0
340
1B40
213
0.0
223
-0.125
233
0.0
1001
ACAD
1000
DSTYLE
1002
{
1070
   147
1040
0.09
1070
    77
1070
     0
1002
}
  0
MTEXT
  5
1B40
102
{ACAD_REACTORS
330
1B3F
102
}
330
1E
100
AcDbEntity
  8
DIM
100
AcDbMText
 10
2.717526132144868
 20
4.363674156175285
 30
0.0
 40
0.25
 41
0.0
 71
     3
 72
     1
  1
\A1;SEE DETAIL "C"
 73
     1
 44
1.0
  0
LEADER
  5
1B43
330
1E
100
AcDbEntity
  8
DIM
100
AcDbLeader
  3
23NSTD
 73
     0
 75
     1
 40
1.916666666666666
 41
4.875
 76
     3
 10
16.81452278368069
 20
16.96921271420795
 30
0.0
 10
15.81869130697781
 20
15.73650130645565
 30
0.0
 10
15.45869130697782
 20
15.73650130645565
 30
0.0
340
1B44
213
0.0
223
-0.125
233
0.0
1001
ACAD
1000
DSTYLE
1002
{
1070
   147
1040
0.09
1070
    77
1070
     0
1002
}
  0
MTEXT
  5
1B44
102
{ACAD_REACTORS
330
1B43
102
}
330
1E
100
AcDbEntity
  8
DIM
100
AcDbMText
 10
15.27869130697782
 20
15.86150130645565
 30
0.0
 40
0.25
 41
0.0
 71
     3
 72
     1
  1
\A1;0.090 DIA. HOLE x 0.203 DEEP\PMOUNTING BOSSES USE EITHER\PM2.5 METRIC OR #4 STD. SHEET\PMETAL SCREWS x 0.188 LG.\P(NOT SUPPLIED)
 73
     1
 44
1.0
  0
LEADER
  5
1B45
330
1E
100
AcDbEntity
  8
DIM
100
AcDbLeader
  3
23NSTD
 73
     0
 74
     0
 75
     1
 40
2.749999999999999
 41
4.71875
 76
     3
 10
7.686334213722833
 20
6.33873225237604
 30
0.0
 10
8.321504195043949
 20
3.736943367367921
 30
0.0
 10
8.681504195043949
 20
3.736943367367921
 30
0.0
340
1B46
213
0.0
223
-0.125
233
0.0
1001
ACAD
1000
DSTYLE
1002
{
1070
   147
1040
0.09
1070
    77
1070
     0
1002
}
  0
MTEXT
  5
1B46
102
{ACAD_REACTORS
330
1B45
102
}
330
1E
100
AcDbEntity
  8
DIM
100
AcDbMText
 10
8.861504195043949
 20
3.861943367367921
 30
0.0
 40
0.25
 41
0.0
 71
     1
 72
     1
  1
\A1;0.298 DIA. BOSS WITH\P0.174 DIA. HOLE x 0.203 DEEP\P(4) PLACES\PMOUNTING BOSSES USE EITHER\PM5 METRIC OR #10 STD. SHEET\PMETAL SCREWS x 0.312 LG.\P(NOT SUPPLIED)
 73
     1
 44
1.0
  0
LEADER
  5
1B66
330
1E
100
AcDbEntity
  8
DIM
100
AcDbLeader
  3
23NSTD
 73
     0
 75
     1
 40
1.916666666666666
 41
3.75
 76
     3
 10
7.439473361943572
 20
5.979669794657301
 30
0.0
 10
6.391671990103454
 20
2.790564321330634
 30
0.0
 10
6.031671990103454
 20
2.790564321330634
 30
0.0
340
1B67
213
0.0
223
-0.125
233
0.0
1001
ACAD
1000
DSTYLE
1002
{
1070
   147
1040
0.09
1070
    77
1070
     0
1002
}
  0
MTEXT
  5
1B67
102
{ACAD_REACTORS
330
1B66
102
}
330
1E
100
AcDbEntity
  8
DIM
100
AcDbMText
 10
5.851671990103454
 20
2.915564321330634
 30
0.0
 40
0.25
 41
0.0
 71
     3
 72
     1
  1
\A1;0.250 DIA. BOSS WITH\PM3 x 0.188 LG.\PTHREADED INSERT\P(4) PLACES\P(SCREWS NOT SUPPLIED)
 73
     1
 44
1.0
  0
LEADER
  5
1B69
330
1E
100
AcDbEntity
  8
DIM
100
AcDbLeader
  3
23NSTD
 73
     0
 74
     0
 75
     1
 40
1.083333333333333
 41
2.6875
 76
     3
 10
7.776990462840633
 20
9.371885841114313
 30
0.0
 10
8.525823848920431
 20
11.48783389770069
 30
0.0
 10
8.885823848920431
 20
11.48783389770069
 30
0.0
340
1B6A
213
0.0
223
-0.125
233
0.0
1001
ACAD
1000
DSTYLE
1002
{
1070
   147
1040
0.09
1070
    77
1070
     0
1002
}
  0
MTEXT
  5
1B6A
102
{ACAD_REACTORS
330
1B69
102
}
330
1E
100
AcDbEntity
  8
DIM
100
AcDbMText
 10
9.06582384892043
 20
11.61283389770069
 30
0.0
 40
0.25
 41
0.0
 71
     1
 72
     1
  1
\A1;M4 x 0.315 LG.\PTHREADED INSERT\P(4) PLACES
 73
     1
 44
1.0
  0
HATCH
  5
1DBA
330
1E
100
AcDbEntity
  8
OBJECT
 62
   151
100
AcDbHatch
 10
0.0
 20
0.0
 30
0.0
210
0.0
220
0.0
230
1.0
  2
ANSI31
 70
     0
 71
     0
 91
        3
 92
        7
 72
     1
 73
     1
 93
        9
 10
15.34642546284063
 20
4.887811841114313
 42
0.0
 10
15.34642546284063
 20
4.915311841114312
 42
0.0
 10
13.31542546284063
 20
4.915311841114312
 42
0.0
 10
13.31542546284063
 20
4.976311841114311
 42
0.0
 10
12.98442546284063
 20
4.976311841114312
 42
0.0
 10
12.98442546284063
 20
4.845311841114313
 42
0.0
 10
13.02442546284063
 20
4.845311841114313
 42
0.0
 10
13.02442546284063
 20
4.825311841114312
 42
0.0
 10
15.28392546284063
 20
4.825311841114312
 42
0.4142135623730992
 97
        0
 92
        7
 72
     0
 73
     1
 93
        8
 10
15.34642546284064
 20
5.409311841114312
 10
15.22842546284063
 20
5.409311841114312
 10
15.22842546284063
 20
5.305311841114312
 10
12.98442546284063
 20
5.305311841114312
 10
12.98442546284063
 20
5.226311841114312
 10
13.31542546284063
 20
5.226311841114312
 10
13.31542546284063
 20
5.239311841114313
 10
15.34642546284063
 20
5.239311841114313
 97
        0
 92
        7
 72
     1
 73
     1
 93
       54
 10
15.34642546284063
 20
9.486811841114311
 42
0.4142135623730951
 10
15.28392546284063
 20
9.549311841114311
 42
0.0
 10
13.02442546284063
 20
9.549311841114311
 42
0.0
 10
13.02442546284063
 20
9.529311841114312
 42
0.0
 10
12.98442546284063
 20
9.529311841114312
 42
0.0
 10
12.98442546284063
 20
9.471311841114312
 42
0.0
 10
12.94442546284063
 20
9.47131184111431
 42
0.0
 10
12.94442546284063
 20
9.431311841114313
 42
0.0
 10
15.22842546284063
 20
9.431311841114313
 42
0.0
 10
15.22842546284063
 20
9.201311841114312
 42
0.0
 10
15.26242546284063
 20
9.201311841114312
 42
0.0
 10
15.26242546284063
 20
9.111311841114313
 42
0.0
 10
15.22842546284063
 20
9.111311841114313
 42
0.0
 10
15.22842546284063
 20
8.383061841114312
 42
0.0
 10
15.24742546284063
 20
8.383061841114312
 42
0.0
 10
15.24742546284063
 20
8.195561841114313
 42
0.0
 10
15.22842546284063
 20
8.195561841114313
 42
0.0
 10
15.22842546284063
 20
8.018311841114313
 42
0.0
 10
15.26242546284063
 20
8.018311841114313
 42
0.0
 10
15.26242546284063
 20
7.852311841114313
 42
0.0
 10
15.22842546284063
 20
7.852311841114313
 42
0.0
 10
15.22842546284063
 20
7.541811841114313
 42
0.0
 10
15.05942546284063
 20
7.541811841114313
 42
0.0
 10
15.05942546284063
 20
7.232311841114311
 42
0.0
 10
15.26242546284063
 20
7.232311841114311
 42
0.0
 10
15.26242546284063
 20
7.142311841114311
 42
0.0
 10
15.05942546284063
 20
7.142311841114311
 42
0.0
 10
15.05942546284063
 20
6.832811841114313
 42
0.0
 10
15.22842546284063
 20
6.832811841114314
 42
0.0
 10
15.22842546284063
 20
6.614311841114312
 42
0.0
 10
15.05942546284063
 20
6.588311841114312
 42
0.0
 10
15.05942546284063
 20
6.522311841114312
 42
0.0
 10
15.26242546284063
 20
6.522311841114312
 42
0.0
 10
15.26242546284063
 20
6.356311841114313
 42
0.0
 10
15.05942546284063
 20
6.356311841114312
 42
0.0
 10
15.05942546284063
 20
6.290311841114312
 42
0.0
 10
15.22842546284063
 20
6.264311841114311
 42
0.0
 10
15.22842546284063
 20
6.233311841114311
 42
0.0
 10
15.05942546284063
 20
6.210311841114312
 42
0.0
 10
15.05942546284063
 20
6.179061841114313
 42
0.0
 10
15.24742546284063
 20
6.179061841114313
 42
0.0
 10
15.24742546284063
 20
6.147811841114312
 42
0.0
 10
15.24742546284063
 20
5.991561841114312
 42
0.0
 10
15.05942546284063
 20
5.991561841114312
 42
0.0
 10
15.05942546284063
 20
5.960311841114312
 42
0.0
 10
15.22842546284063
 20
5.937311841114311
 42
0.0
 10
15.22842546284063
 20
5.763311841114312
 42
0.0
 10
12.94442546284063
 20
5.763311841114312
 42
0.0
 10
12.94442546284063
 20
5.723311841114312
 42
0.0
 10
12.98442546284063
 20
5.723311841114312
 42
0.0
 10
12.98442546284063
 20
5.698311841114313
 42
0.0
 10
15.22842546284063
 20
5.698311841114313
 42
0.0
 10
15.22842546284063
 20
5.579311841114312
 42
0.0
 10
15.34642546284064
 20
5.579311841114312
 42
0.0
 97
        0
 75
     0
 76
     1
 52
0.0
 41
0.625
 77
     0
 78
     1
 53
45.0
 43
-0.3235775371593661
 44
0.0
 45
-0.055242717280199
 46
0.055242717280199
 79
     0
 47
0.0108816535269354
 98
        3
 10
14.09414931097247
 20
4.856687241521029
 10
14.08325891654195
 20
5.259308454552439
 10
15.22675628398333
 20
6.967728040048427
  0
ARC
  5
1F4A
330
1E
100
AcDbEntity
  8
OBJECT
100
AcDbCircle
 10
3.685125462840633
 20
8.289311841114312
 30
0.0
 40
0.148
100
AcDbArc
 50
198.5158739903273
 51
341.4841260096783
  0
ARC
  5
1F4B
330
1E
100
AcDbEntity
  8
OBJECT
100
AcDbCircle
 10
3.685125462840633
 20
8.289311841114312
 30
0.0
 40
0.148
100
AcDbArc
 50
18.51588181190404
 51
161.4841181880931
  0
CIRCLE
  5
1F4C
330
1E
100
AcDbEntity
  8
OBJECT
100
AcDbCircle
 10
3.685125462840633
 20
8.289311841114312
 30
0.0
 40
0.125
  0
CIRCLE
  5
1F4D
330
1E
100
AcDbEntity
  8
OBJECT
100
AcDbCircle
 10
3.685125462840633
 20
8.289311841114312
 30
0.0
 40
0.0590000000000011
  0
CIRCLE
  5
1F4E
330
1E
100
AcDbEntity
  8
OBJECT
100
AcDbCircle
 10
3.685125462840633
 20
8.289311841114312
 30
0.0
 40
0.09375
  0
LINE
  5
1F4F
330
1E
100
AcDbEntity
  8
OBJECT
100
AcDbLine
 10
3.485179138516099
 20
8.336311811854573
 30
0.0
 11
3.569298004956071
 21
8.33631184111431
 31
0.0
  0
LINE
  5
1F50
330
1E
100
AcDbEntity
  8
OBJECT
100
AcDbLine
 10
3.569298004956071
 20
8.242311841114311
 30
0.0
 11
3.485179138516098
 21
8.242311936120843
 31
0.0
  0
LINE
  5
1F51
330
1E
100
AcDbEntity
  8
OBJECT
100
AcDbLine
 10
3.485179138516099
 20
8.336311811854573
 30
0.0
 11
3.485179138516098
 21
8.242311936120843
 31
0.0
  0
LINE
  5
1F52
330
1E
100
AcDbEntity
  8
OBJECT
100
AcDbLine
 10
3.520179120859983
 20
8.242311896590747
 30
0.0
 11
3.520179120859983
 21
8.336311824028896
 31
0.0
  0
LINE
  5
1F53
330
1E
100
AcDbEntity
  8
OBJECT
100
AcDbLine
 10
3.885071760545828
 20
8.242311936120868
 30
0.0
 11
3.885071760545828
 21
8.336311811854571
 31
0.0
  0
LINE
  5
1F54
330
1E
100
AcDbEntity
  8
OBJECT
100
AcDbLine
 10
3.850071778201944
 20
8.336311824028898
 30
0.0
 11
3.850071778201944
 21
8.242311896590749
 31
0.0
  0
LINE
  5
1F55
330
1E
100
AcDbEntity
  8
OBJECT
100
AcDbLine
 10
3.885071760545828
 20
8.242311936120868
 30
0.0
 11
3.800952920725195
 21
8.242311841114311
 31
0.0
  0
LINE
  5
1F56
330
1E
100
AcDbEntity
  8
OBJECT
100
AcDbLine
 10
3.800952920725195
 20
8.33631184111431
 30
0.0
 11
3.885071760545828
 21
8.336311811854571
 31
0.0
  0
CIRCLE
  5
1F57
330
1E
100
AcDbEntity
  8
OBJECT
100
AcDbCircle
 10
7.543125462840634
 20
8.289311841114312
 30
0.0
 40
0.09375
  0
CIRCLE
  5
1F58
330
1E
100
AcDbEntity
  8
OBJECT
100
AcDbCircle
 10
7.543125462840634
 20
8.289311841114312
 30
0.0
 40
0.0590000000000011
  0
CIRCLE
  5
1F59
330
1E
100
AcDbEntity
  8
OBJECT
100
AcDbCircle
 10
7.543125462840634
 20
8.289311841114312
 30
0.0
 40
0.125
  0
ARC
  5
1F5A
330
1E
100
AcDbEntity
  8
OBJECT
100
AcDbCircle
 10
7.543125462840634
 20
8.289311841114312
 30
0.0
 40
0.148
100
AcDbArc
 50
198.5158739903273
 51
341.4841260096783
  0
ARC
  5
1F5B
330
1E
100
AcDbEntity
  8
OBJECT
100
AcDbCircle
 10
7.543125462840634
 20
8.289311841114312
 30
0.0
 40
0.148
100
AcDbArc
 50
18.51588181190404
 51
161.4841181880931
  0
LINE
  5
1F5C
330
1E
100
AcDbEntity
  8
OBJECT
100
AcDbLine
 10
7.343179138516099
 20
8.336311811854573
 30
0.0
 11
7.427298004956072
 21
8.33631184111431
 31
0.0
  0
LINE
  5
1F5D
330
1E
100
AcDbEntity
  8
OBJECT
100
AcDbLine
 10
7.427298004956071
 20
8.242311841114311
 30
0.0
 11
7.343179138516099
 21
8.242311936120843
 31
0.0
  0
LINE
  5
1F5E
330
1E
100
AcDbEntity
  8
OBJECT
100
AcDbLine
 10
7.343179138516099
 20
8.336311811854573
 30
0.0
 11
7.343179138516099
 21
8.242311936120843
 31
0.0
  0
LINE
  5
1F5F
330
1E
100
AcDbEntity
  8
OBJECT
100
AcDbLine
 10
7.378179120859983
 20
8.242311896590747
 30
0.0
 11
7.378179120859983
 21
8.336311824028896
 31
0.0
  0
LINE
  5
1F60
330
1E
100
AcDbEntity
  8
OBJECT
100
AcDbLine
 10
7.743071760545827
 20
8.242311936120868
 30
0.0
 11
7.743071760545827
 21
8.336311811854571
 31
0.0
  0
LINE
  5
1F61
330
1E
100
AcDbEntity
  8
OBJECT
100
AcDbLine
 10
7.708071778201944
 20
8.336311824028898
 30
0.0
 11
7.708071778201944
 21
8.242311896590749
 31
0.0
  0
LINE
  5
1F62
330
1E
100
AcDbEntity
  8
OBJECT
100
AcDbLine
 10
7.743071760545827
 20
8.242311936120868
 30
0.0
 11
7.658952920725195
 21
8.242311841114311
 31
0.0
  0
LINE
  5
1F63
330
1E
100
AcDbEntity
  8
OBJECT
100
AcDbLine
 10
7.658952920725195
 20
8.33631184111431
 30
0.0
 11
7.743071760545827
 21
8.336311811854571
 31
0.0
  0
LINE
  5
1F64
330
1E
100
AcDbEntity
  8
OBJECT
100
AcDbLine
 10
3.885071760545828
 20
6.038311936120869
 30
0.0
 11
3.885071760545828
 21
6.132311811854571
 31
0.0
  0
LINE
  5
1F65
330
1E
100
AcDbEntity
  8
OBJECT
100
AcDbLine
 10
3.850071778201944
 20
6.132311824028898
 30
0.0
 11
3.850071778201944
 21
6.038311896590749
 31
0.0
  0
LINE
  5
1F66
330
1E
100
AcDbEntity
  8
OBJECT
100
AcDbLine
 10
3.485179138516099
 20
6.132311811854573
 30
0.0
 11
3.485179138516098
 21
6.038311936120844
 31
0.0
  0
LINE
  5
1F67
330
1E
100
AcDbEntity
  8
OBJECT
100
AcDbLine
 10
3.520179120859983
 20
6.038311896590747
 30
0.0
 11
3.520179120859983
 21
6.132311824028897
 31
0.0
  0
CIRCLE
  5
1F68
330
1E
100
AcDbEntity
  8
OBJECT
100
AcDbCircle
 10
3.685125462840633
 20
6.085311841114312
 30
0.0
 40
0.09375
  0
CIRCLE
  5
1F69
330
1E
100
AcDbEntity
  8
OBJECT
100
AcDbCircle
 10
3.685125462840633
 20
6.085311841114312
 30
0.0
 40
0.0590000000000011
  0
CIRCLE
  5
1F6A
330
1E
100
AcDbEntity
  8
OBJECT
100
AcDbCircle
 10
3.685125462840633
 20
6.085311841114312
 30
0.0
 40
0.125
  0
ARC
  5
1F6B
330
1E
100
AcDbEntity
  8
OBJECT
100
AcDbCircle
 10
3.685125462840633
 20
6.085311841114312
 30
0.0
 40
0.148
100
AcDbArc
 50
198.5158739903273
 51
341.4841260096783
  0
LINE
  5
1F6C
330
1E
100
AcDbEntity
  8
OBJECT
100
AcDbLine
 10
3.569298004956071
 20
6.038311841114311
 30
0.0
 11
3.485179138516098
 21
6.038311936120844
 31
0.0
  0
LINE
  5
1F6D
330
1E
100
AcDbEntity
  8
OBJECT
100
AcDbLine
 10
3.885071760545828
 20
6.038311936120869
 30
0.0
 11
3.800952920725195
 21
6.038311841114311
 31
0.0
  0
ARC
  5
1F6E
330
1E
100
AcDbEntity
  8
OBJECT
100
AcDbCircle
 10
3.685125462840633
 20
6.085311841114312
 30
0.0
 40
0.148
100
AcDbArc
 50
18.51588181190404
 51
161.4841181880931
  0
LINE
  5
1F6F
330
1E
100
AcDbEntity
  8
OBJECT
100
AcDbLine
 10
3.485179138516099
 20
6.132311811854573
 30
0.0
 11
3.569298004956071
 21
6.132311841114311
 31
0.0
  0
LINE
  5
1F70
330
1E
100
AcDbEntity
  8
OBJECT
100
AcDbLine
 10
3.800952920725195
 20
6.132311841114311
 30
0.0
 11
3.885071760545828
 21
6.132311811854571
 31
0.0
  0
LINE
  5
1F71
330
1E
100
AcDbEntity
  8
OBJECT
100
AcDbLine
 10
7.708071778201944
 20
6.132311824028898
 30
0.0
 11
7.708071778201944
 21
6.038311896590749
 31
0.0
  0
LINE
  5
1F72
330
1E
100
AcDbEntity
  8
OBJECT
100
AcDbLine
 10
7.743071760545827
 20
6.038311936120869
 30
0.0
 11
7.743071760545827
 21
6.132311811854571
 31
0.0
  0
LINE
  5
1F73
330
1E
100
AcDbEntity
  8
OBJECT
100
AcDbLine
 10
7.378179120859983
 20
6.038311896590747
 30
0.0
 11
7.378179120859983
 21
6.132311824028897
 31
0.0
  0
LINE
  5
1F74
330
1E
100
AcDbEntity
  8
OBJECT
100
AcDbLine
 10
7.343179138516099
 20
6.132311811854573
 30
0.0
 11
7.343179138516099
 21
6.038311936120844
 31
0.0
  0
CIRCLE
  5
1F75
330
1E
100
AcDbEntity
  8
OBJECT
100
AcDbCircle
 10
7.543125462840634
 20
6.085311841114312
 30
0.0
 40
0.125
  0
CIRCLE
  5
1F76
330
1E
100
AcDbEntity
  8
OBJECT
100
AcDbCircle
 10
7.543125462840634
 20
6.085311841114312
 30
0.0
 40
0.0590000000000011
  0
CIRCLE
  5
1F77
330
1E
100
AcDbEntity
  8
OBJECT
100
AcDbCircle
 10
7.543125462840634
 20
6.085311841114312
 30
0.0
 40
0.09375
  0
ARC
  5
1F78
330
1E
100
AcDbEntity
  8
OBJECT
100
AcDbCircle
 10
7.543125462840634
 20
6.085311841114312
 30
0.0
 40
0.148
100
AcDbArc
 50
198.5158739903273
 51
341.4841260096783
  0
LINE
  5
1F79
330
1E
100
AcDbEntity
  8
OBJECT
100
AcDbLine
 10
7.427298004956071
 20
6.038311841114311
 30
0.0
 11
7.343179138516099
 21
6.038311936120844
 31
0.0
  0
LINE
  5
1F7A
330
1E
100
AcDbEntity
  8
OBJECT
100
AcDbLine
 10
7.743071760545827
 20
6.038311936120869
 30
0.0
 11
7.658952920725195
 21
6.038311841114311
 31
0.0
  0
ARC
  5
1F7B
330
1E
100
AcDbEntity
  8
OBJECT
100
AcDbCircle
 10
7.543125462840634
 20
6.085311841114312
 30
0.0
 40
0.148
100
AcDbArc
 50
18.51588181190404
 51
161.4841181880931
  0
LINE
  5
1F7C
330
1E
100
AcDbEntity
  8
OBJECT
100
AcDbLine
 10
7.343179138516099
 20
6.132311811854573
 30
0.0
 11
7.427298004956072
 21
6.132311841114311
 31
0.0
  0
LINE
  5
1F7D
330
1E
100
AcDbEntity
  8
OBJECT
100
AcDbLine
 10
7.658952920725195
 20
6.132311841114311
 30
0.0
 11
7.743071760545827
 21
6.132311811854571
 31
0.0
  0
LINE
  5
1F9B
330
1E
100
AcDbEntity
  8
HIDDEN
  6
HIDDEN2
100
AcDbLine
 10
3.810125462840634
 20
15.16776684111431
 30
0.0
 11
3.560125462840634
 21
15.16776684111431
 31
0.0
  0
LINE
  5
1F9C
330
1E
100
AcDbEntity
  8
HIDDEN
  6
HIDDEN2
100
AcDbLine
 10
3.569297953435035
 20
15.17776684111431
 30
0.0
 11
3.520179122918112
 21
15.17776684111431
 31
0.0
  0
LINE
  5
1F9D
330
1E
100
AcDbEntity
  8
HIDDEN
  6
HIDDEN2
100
AcDbLine
 10
3.560125462840634
 20
15.16776684111431
 30
0.0
 11
3.560125462840634
 21
15.17776684111431
 31
0.0
  0
LINE
  5
1F9E
330
1E
100
AcDbEntity
  8
HIDDEN
  6
HIDDEN2
100
AcDbLine
 10
3.4851791385161
 20
15.33676684111431
 30
0.0
 11
3.520179122918112
 21
15.17776684111431
 31
0.0
  0
LINE
  5
1F9F
330
1E
100
AcDbEntity
  8
HIDDEN
  6
HIDDEN2
100
AcDbLine
 10
3.569297953435035
 20
15.17776684111431
 30
0.0
 11
3.569298002488018
 21
15.33676684111431
 31
0.0
  0
LINE
  5
1FA0
330
1E
100
AcDbEntity
  8
HIDDEN
  6
HIDDEN2
100
AcDbLine
 10
3.732125523248766
 20
15.17776684111431
 30
0.0
 11
3.638125449145646
 21
15.17776684111431
 31
0.0
  0
LINE
  5
1FA1
330
1E
100
AcDbEntity
  8
HIDDEN
  6
HIDDEN2
100
AcDbLine
 10
3.850071776143816
 20
15.17776684111431
 30
0.0
 11
3.800952945626892
 21
15.17776684111431
 31
0.0
  0
LINE
  5
1FA2
330
1E
100
AcDbEntity
  8
HIDDEN
  6
HIDDEN2
100
AcDbLine
 10
3.810125462840634
 20
15.16776684111431
 30
0.0
 11
3.810125462840634
 21
15.17776684111431
 31
0.0
  0
LINE
  5
1FA3
330
1E
100
AcDbEntity
  8
HIDDEN
  6
HIDDEN2
100
AcDbLine
 10
3.885071760545828
 20
15.33676684111431
 30
0.0
 11
3.850071776143816
 21
15.17776684111431
 31
0.0
  0
LINE
  5
1FA4
330
1E
100
AcDbEntity
  8
HIDDEN
  6
HIDDEN2
100
AcDbLine
 10
3.800952945626892
 20
15.17776684111431
 30
0.0
 11
3.800952920725195
 21
15.33676684111431
 31
0.0
  0
LINE
  5
1FA5
330
1E
100
AcDbEntity
  8
HIDDEN
  6
HIDDEN2
100
AcDbLine
 10
3.732125523248766
 20
15.17776684111431
 30
0.0
 11
3.732125462840635
 21
15.33676684111431
 31
0.0
  0
LINE
  5
1FA6
330
1E
100
AcDbEntity
  8
HIDDEN
  6
HIDDEN2
100
AcDbLine
 10
3.638125449145646
 20
15.17776684111431
 30
0.0
 11
3.638125439854646
 21
15.33676684111431
 31
0.0
  0
LINE
  5
1FA7
330
1E
100
AcDbEntity
  8
HIDDEN
  6
HIDDEN2
100
AcDbLine
 10
7.496125402432501
 20
15.17776684111431
 30
0.0
 11
7.590125476535621
 21
15.17776684111431
 31
0.0
  0
LINE
  5
1FA8
330
1E
100
AcDbEntity
  8
HIDDEN
  6
HIDDEN2
100
AcDbLine
 10
7.418125462840633
 20
15.16776684111431
 30
0.0
 11
7.668125462840633
 21
15.16776684111431
 31
0.0
  0
LINE
  5
1FA9
330
1E
100
AcDbEntity
  8
HIDDEN
  6
HIDDEN2
100
AcDbLine
 10
7.496125402432501
 20
15.17776684111431
 30
0.0
 11
7.496125462840632
 21
15.33676684111431
 31
0.0
  0
LINE
  5
1FAA
330
1E
100
AcDbEntity
  8
HIDDEN
  6
HIDDEN2
100
AcDbLine
 10
7.427297980054375
 20
15.17776684111431
 30
0.0
 11
7.427298004956072
 21
15.33676684111431
 31
0.0
  0
LINE
  5
1FAB
330
1E
100
AcDbEntity
  8
HIDDEN
  6
HIDDEN2
100
AcDbLine
 10
7.343179165135438
 20
15.33676684111431
 30
0.0
 11
7.378179149537451
 21
15.17776684111431
 31
0.0
  0
LINE
  5
1FAC
330
1E
100
AcDbEntity
  8
HIDDEN
  6
HIDDEN2
100
AcDbLine
 10
7.418125462840633
 20
15.16776684111431
 30
0.0
 11
7.418125462840633
 21
15.17776684111431
 31
0.0
  0
LINE
  5
1FAD
330
1E
100
AcDbEntity
  8
HIDDEN
  6
HIDDEN2
100
AcDbLine
 10
7.378179149537451
 20
15.17776684111431
 30
0.0
 11
7.427297980054374
 21
15.17776684111431
 31
0.0
  0
LINE
  5
1FAE
330
1E
100
AcDbEntity
  8
HIDDEN
  6
HIDDEN2
100
AcDbLine
 10
7.590125476535621
 20
15.17776684111431
 30
0.0
 11
7.590125485826621
 21
15.33676684111431
 31
0.0
  0
LINE
  5
1FAF
330
1E
100
AcDbEntity
  8
HIDDEN
  6
HIDDEN2
100
AcDbLine
 10
7.658952972246232
 20
15.17776684111431
 30
0.0
 11
7.658952923193248
 21
15.33676684111431
 31
0.0
  0
LINE
  5
1FB0
330
1E
100
AcDbEntity
  8
HIDDEN
  6
HIDDEN2
100
AcDbLine
 10
7.743071787165166
 20
15.33676684111431
 30
0.0
 11
7.708071802763154
 21
15.17776684111431
 31
0.0
  0
LINE
  5
1FB1
330
1E
100
AcDbEntity
  8
HIDDEN
  6
HIDDEN2
100
AcDbLine
 10
7.668125462840633
 20
15.16776684111431
 30
0.0
 11
7.668125462840633
 21
15.17776684111431
 31
0.0
  0
LINE
  5
1FB2
330
1E
100
AcDbEntity
  8
HIDDEN
  6
HIDDEN2
100
AcDbLine
 10
7.658952972246232
 20
15.17776684111431
 30
0.0
 11
7.708071802763154
 21
15.17776684111431
 31
0.0
  0
LINE
  5
1FD3
330
1E
100
AcDbEntity
  8
OBJECT
100
AcDbLine
 10
15.05942546284063
 20
8.414311841114312
 30
0.0
 11
15.22842546284063
 21
8.437311841114311
 31
0.0
  0
LINE
  5
1FD4
330
1E
100
AcDbEntity
  8
OBJECT
100
AcDbLine
 10
15.06942546284063
 20
8.242311827419324
 30
0.0
 11
15.22842546284063
 21
8.242311817660855
 31
0.0
  0
LINE
  5
1FD5
330
1E
100
AcDbEntity
  8
OBJECT
100
AcDbLine
 10
15.06942546284063
 20
8.336311901522442
 30
0.0
 11
15.22842546284063
 21
8.336311942504735
 31
0.0
  0
LINE
  5
1FD6
330
1E
100
AcDbEntity
  8
OBJECT
100
AcDbLine
 10
15.05942546284063
 20
8.164311841114312
 30
0.0
 11
15.22842546284063
 21
8.141311841114312
 31
0.0
  0
LWPOLYLINE
  5
1FD7
330
1E
100
AcDbEntity
  8
HIDDEN
100
AcDbPolyline
 90
        4
 70
     0
 43
0.0
 10
15.05942546284063
 20
8.383061841114312
 10
15.24742546284063
 20
8.383061841114312
 10
15.24742546284063
 20
8.195561841114312
 10
15.05942546284063
 20
8.195561841114312
  0
LINE
  5
1FD8
330
1E
100
AcDbEntity
  8
HIDDEN
100
AcDbLine
 10
15.05942546284063
 20
8.226811841114312
 30
0.0
 11
15.24742546284063
 21
8.226811841114312
 31
0.0
  0
LINE
  5
1FD9
330
1E
100
AcDbEntity
  8
HIDDEN
100
AcDbLine
 10
15.05942546284063
 20
8.351811841114312
 30
0.0
 11
15.24742546284063
 21
8.351811841114312
 31
0.0
  0
LINE
  5
1FDA
330
1E
100
AcDbEntity
  8
OBJECT
100
AcDbLine
 10
15.06942546284063
 20
8.336311901522442
 30
0.0
 11
15.06942546284063
 21
8.242311827419324
 31
0.0
  0
LINE
  5
1FDB
330
1E
100
AcDbEntity
  8
OBJECT
100
AcDbLine
 10
15.05942546284063
 20
8.414311841114312
 30
0.0
 11
15.05942546284063
 21
8.164311841114312
 31
0.0
  0
LINE
  5
1FDC
330
1E
100
AcDbEntity
  8
OBJECT
100
AcDbLine
 10
15.05942546284063
 20
6.210311841114312
 30
0.0
 11
15.05942546284063
 21
5.960311841114312
 31
0.0
  0
HATCH
  5
1FDD
330
1E
100
AcDbEntity
  8
OBJECT
 62
   221
100
AcDbHatch
 10
0.0
 20
0.0
 30
0.0
210
0.0
220
0.0
230
1.0
  2
ANSI32
 70
     0
 71
     0
 91
        2
 92
        7
 72
     0
 73
     1
 93
        4
 10
15.24742546284063
 20
6.022811841114311
 10
15.05942546284063
 20
6.022811841114312
 10
15.05942546284063
 20
5.991561841114312
 10
15.24742546284063
 20
5.991561841114312
 97
        0
 92
        7
 72
     0
 73
     1
 93
        4
 10
15.24742546284063
 20
6.179061841114312
 10
15.05942546284063
 20
6.179061841114312
 10
15.05942546284063
 20
6.147811841114312
 10
15.24742546284063
 20
6.147811841114312
 97
        0
 75
     0
 76
     1
 52
89.99998127603165
 41
0.25
 77
     0
 78
     2
 53
134.9999812760316
 43
0.8574224628406348
 44
-0.5747491588856875
 45
-0.066291282399881
 46
-0.0662912390725896
 79
     0
 53
134.9999812760316
 43
0.857422477283066
 44
-0.5305549851356899
 45
-0.066291282399881
 46
-0.0662912390725896
 79
     0
 47
0.0030263042391287
 98
        2
 10
15.16170908311898
 20
6.007201145344758
 10
15.15868026364562
 20
6.167595263205349
  0
LWPOLYLINE
  5
1FDE
330
1E
100
AcDbEntity
  8
OBJECT
100
AcDbPolyline
 90
        4
 70
     0
 43
0.0
 10
15.05942546284063
 20
5.991561841114312
 10
15.24742546284063
 20
5.991561841114312
 10
15.24742546284063
 20
6.179061841114312
 10
15.05942546284063
 20
6.179061841114312
  0
LINE
  5
1FDF
330
1E
100
AcDbEntity
  8
OBJECT
100
AcDbLine
 10
15.05942546284063
 20
5.960311841114312
 30
0.0
 11
15.22842546284063
 21
5.937311841114312
 31
0.0
  0
LWPOLYLINE
  5
1FE0
330
1E
100
AcDbEntity
  8
OBJECT
100
AcDbPolyline
 90
        4
 70
     1
 43
0.0
 10
15.24742546284063
 20
5.991561841114312
 10
15.24742546284063
 20
6.022811841114312
 10
15.05942546284063
 20
6.022811841114312
 10
15.05942546284063
 20
5.991561841114312
  0
LINE
  5
1FE6
330
1E
100
AcDbEntity
  8
OBJECT
100
AcDbLine
 10
15.22842546284063
 20
5.937311841114312
 30
0.0
 11
15.22842546284063
 21
5.763311841114312
 31
0.0
  0
LINE
  5
1FE7
330
1E
100
AcDbEntity
  8
OBJECT
100
AcDbLine
 10
15.05942546284063
 20
6.210311841114312
 30
0.0
 11
15.22842546284063
 21
6.233311841114312
 31
0.0
  0
LWPOLYLINE
  5
1FE8
330
1E
100
AcDbEntity
  8
OBJECT
100
AcDbPolyline
 90
        4
 70
     1
 43
0.0
 10
15.24742546284063
 20
6.147811841114312
 10
15.24742546284063
 20
6.179061841114312
 10
15.05942546284063
 20
6.179061841114312
 10
15.05942546284063
 20
6.147811841114312
  0
LINE
  5
1FEE
330
1E
100
AcDbEntity
  8
OBJECT
100
AcDbLine
 10
15.22842546284063
 20
6.264311841114312
 30
0.0
 11
15.22842546284063
 21
6.233311841114312
 31
0.0
  0
ENDSEC
  0
SECTION
  2
OBJECTS
  0
DICTIONARY
  5
C
330
0
100
AcDbDictionary
281
     1
  3
ACAD_GROUP
350
D
  3
ACAD_LAYOUT
350
19
  3
ACAD_MLINESTYLE
350
16
  3
ACAD_PLOTSETTINGS
350
18
  3
ACAD_PLOTSTYLENAME
350
E
  3
AcadDim
350
1A3D
  3
AcDbVariableDictionary
350
1859
  0
DICTIONARY
  5
D
102
{ACAD_REACTORS
330
C
102
}
330
C
100
AcDbDictionary
281
     1
  0
DICTIONARY
  5
19
102
{ACAD_REACTORS
330
C
102
}
330
C
100
AcDbDictionary
281
     1
  3
Layout1
350
1D
  3
Model
350
21
  0
DICTIONARY
  5
16
102
{ACAD_REACTORS
330
C
102
}
330
C
100
AcDbDictionary
281
     1
  3
Standard
350
17
  0
DICTIONARY
  5
18
102
{ACAD_REACTORS
330
C
102
}
330
C
100
AcDbDictionary
281
     1
  0
ACDBDICTIONARYWDFLT
  5
E
102
{ACAD_REACTORS
330
C
102
}
330
C
100
AcDbDictionary
281
     1
  3
Normal
350
F
100
AcDbDictionaryWithDefault
340
F
  0
XRECORD
  5
1A3D
102
{ACAD_REACTORS
330
C
102
}
330
C
100
AcDbXrecord
280
     1
 90
   990106
  3

 60
     0
 61
     0
 62
     1
 63
     1
 64
     0
 65
     0
 66
     0
 67
     3
 68
     1
 69
     0
 70
     0
 71
     0
 72
     0
 40
0.0
170
     2
340
1B6A
  0
DICTIONARY
  5
1859
102
{ACAD_REACTORS
330
C
102
}
330
C
100
AcDbDictionary
281
     1
  3
SORTENTS
350
185A
  0
LAYOUT
  5
1D
102
{ACAD_REACTORS
330
19
102
}
330
19
100
AcDbPlotSettings
  1

  2
C:\Program Files\ACAD2000\plotters\RICOH Aficio 1060 RPCS.pc3
  4

  6

 40
0.0
 41
0.0
 42
0.0
 43
0.0
 44
0.0
 45
0.0
 46
0.0
 47
0.0
 48
0.0
 49
0.0
140
0.0
141
0.0
142
1.0
143
1.0
 70
   688
 72
     0
 73
     0
 74
     5
  7
monochrome.ctb
 75
    16
147
1.0
148
0.0
149
0.0
100
AcDbLayout
  1
Layout1
 70
     1
 71
     1
 10
0.0
 20
0.0
 11
12.0
 21
9.0
 12
0.0
 22
0.0
 32
0.0
 14
1.000000000000000E+20
 24
1.000000000000000E+20
 34
1.000000000000000E+20
 15
-1.000000000000000E+20
 25
-1.000000000000000E+20
 35
-1.000000000000000E+20
146
0.0
 13
0.0
 23
0.0
 33
0.0
 16
1.0
 26
0.0
 36
0.0
 17
0.0
 27
1.0
 37
0.0
 76
     0
330
1A
  0
LAYOUT
  5
21
102
{ACAD_REACTORS
330
19
102
}
330
19
100
AcDbPlotSettings
  1

  2
Acrobat PDFWriter
  4
Tabloid
  6

 40
3.174999952316284
 41
3.174999952316284
 42
3.17498779296875
 43
3.17498779296875
 44
431.8000183105469
 45
279.3999938964843
 46
0.0
 47
4.064
 48
0.0
 49
0.0
140
0.0
141
0.0
142
1.0
143
1.982236241999027
 70
 11956
 72
     0
 73
     0
 74
     1
  7
monochrome.ctb
 75
     0
147
0.5044807368628924
148
0.0368748860680938
149
0.0240010008533375
100
AcDbLayout
  1
Model
 70
     1
 71
     0
 10
0.0
 20
0.0
 11
12.0
 21
9.0
 12
0.0
 22
0.0
 32
0.0
 14
0.0
 24
0.0
 34
0.0
 15
0.0
 25
0.0
 35
0.0
146
0.0
 13
0.0
 23
0.0
 33
0.0
 16
1.0
 26
0.0
 36
0.0
 17
0.0
 27
1.0
 37
0.0
 76
     0
330
1E
  0
MLINESTYLE
  5
17
102
{ACAD_REACTORS
330
16
102
}
330
16
100
AcDbMlineStyle
  2
STANDARD
 70
     0
  3

 62
   256
 51
90.0
 52
90.0
 71
     2
 49
0.5
 62
   256
  6
BYLAYER
 49
-0.5
 62
   256
  6
BYLAYER
  0
ACDBPLACEHOLDER
  5
F
102
{ACAD_REACTORS
330
E
102
}
330
E
  0
DICTIONARYVAR
  5
185A
102
{ACAD_REACTORS
330
1859
102
}
330
1859
100
DictionaryVariables
280
     0
  1
96
  0
ENDSEC
  0
EOF
