  0
SECTION
  2
HEADER
  9
$ACADVER
  1
AC1015
  9
$ACADMAINTVER
 70
     6
  9
$DWGCODEPAGE
  3
ANSI_1252
  9
$INSBASE
 10
0.0
 20
0.0
 30
0.0
  9
$EXTMIN
 10
0.0
 20
0.0
 30
-0.00000001
  9
$EXTMAX
 10
41.49999999999998
 20
25.82
 30
0.00000001
  9
$LIMMIN
 10
0.0
 20
0.0
  9
$LIMMAX
 10
31.0
 20
20.24
  9
$ORTHOMODE
 70
     1
  9
$REGENMODE
 70
     1
  9
$FILLMODE
 70
     1
  9
$QTEXTMODE
 70
     0
  9
$MIRRTEXT
 70
     0
  9
$LTSCALE
 40
0.5
  9
$ATTMODE
 70
     1
  9
$TEXTSIZE
 40
0.2
  9
$TRACEWID
 40
0.05
  9
$TEXTSTYLE
  7
TXT
  9
$CLAYER
  8
OBJECT
  9
$CELTYPE
  6
ByLayer
  9
$CECOLOR
 62
   256
  9
$CELTSCALE
 40
1.0
  9
$DISPSILH
 70
     0
  9
$DIMSCALE
 40
2.5
  9
$DIMASZ
 40
0.18
  9
$DIMEXO
 40
0.063
  9
$DIMDLI
 40
0.281
  9
$DIMRND
 40
0.0
  9
$DIMDLE
 40
0.0
  9
$DIMEXE
 40
0.093
  9
$DIMTP
 40
0.0
  9
$DIMTM
 40
0.0
  9
$DIMTXT
 40
0.125
  9
$DIMCEN
 40
0.09
  9
$DIMTSZ
 40
0.0
  9
$DIMTOL
 70
     0
  9
$DIMLIM
 70
     0
  9
$DIMTIH
 70
     1
  9
$DIMTOH
 70
     1
  9
$DIMSE1
 70
     0
  9
$DIMSE2
 70
     0
  9
$DIMTAD
 70
     0
  9
$DIMZIN
 70
     0
  9
$DIMBLK
  1

  9
$DIMASO
 70
     1
  9
$DIMSHO
 70
     1
  9
$DIMPOST
  1

  9
$DIMAPOST
  1

  9
$DIMALT
 70
     0
  9
$DIMALTD
 70
     2
  9
$DIMALTF
 40
25.4
  9
$DIMLFAC
 40
1.0
  9
$DIMTOFL
 70
     0
  9
$DIMTVP
 40
0.0
  9
$DIMTIX
 70
     0
  9
$DIMSOXD
 70
     0
  9
$DIMSAH
 70
     0
  9
$DIMBLK1
  1

  9
$DIMBLK2
  1

  9
$DIMSTYLE
  2
23NSTD
  9
$DIMCLRD
 70
     0
  9
$DIMCLRE
 70
     0
  9
$DIMCLRT
 70
     0
  9
$DIMTFAC
 40
1.0
  9
$DIMGAP
 40
0.09
  9
$DIMJUST
 70
     0
  9
$DIMSD1
 70
     0
  9
$DIMSD2
 70
     0
  9
$DIMTOLJ
 70
     1
  9
$DIMTZIN
 70
     0
  9
$DIMALTZ
 70
     0
  9
$DIMALTTZ
 70
     0
  9
$DIMUPT
 70
     0
  9
$DIMDEC
 70
     3
  9
$DIMTDEC
 70
     3
  9
$DIMALTU
 70
     2
  9
$DIMALTTD
 70
     2
  9
$DIMTXSTY
  7
TXT
  9
$DIMAUNIT
 70
     0
  9
$DIMADEC
 70
     0
  9
$DIMALTRND
 40
0.0
  9
$DIMAZIN
 70
     0
  9
$DIMDSEP
 70
    46
  9
$DIMATFIT
 70
     1
  9
$DIMFRAC
 70
     0
  9
$DIMLDRBLK
  1

  9
$DIMLUNIT
 70
     2
  9
$DIMLWD
 70
    -2
  9
$DIMLWE
 70
    -2
  9
$DIMTMOVE
 70
     0
  9
$LUNITS
 70
     2
  9
$LUPREC
 70
     3
  9
$SKETCHINC
 40
0.1
  9
$FILLETRAD
 40
0.0
  9
$AUNITS
 70
     0
  9
$AUPREC
 70
     0
  9
$MENU
  1
acad
  9
$ELEVATION
 40
0.0
  9
$PELEVATION
 40
0.0
  9
$THICKNESS
 40
0.0
  9
$LIMCHECK
 70
     0
  9
$CHAMFERA
 40
0.0
  9
$CHAMFERB
 40
0.0
  9
$CHAMFERC
 40
0.0
  9
$CHAMFERD
 40
0.0
  9
$SKPOLY
 70
     0
  9
$TDCREATE
 40
2450114.480140972
  9
$TDUCREATE
 40
2450114.688474305
  9
$TDUPDATE
 40
2454788.498335497
  9
$TDUUPDATE
 40
2454788.706668831
  9
$TDINDWG
 40
0.3336145602
  9
$TDUSRTIMER
 40
0.3336142014
  9
$USRTIMER
 70
     1
  9
$ANGBASE
 50
0.0
  9
$ANGDIR
 70
     0
  9
$PDMODE
 70
     0
  9
$PDSIZE
 40
0.0
  9
$PLINEWID
 40
0.0
  9
$SPLFRAME
 70
     0
  9
$SPLINETYPE
 70
     6
  9
$SPLINESEGS
 70
     8
  9
$HANDSEED
  5
34C7
  9
$SURFTAB1
 70
     6
  9
$SURFTAB2
 70
     6
  9
$SURFTYPE
 70
     6
  9
$SURFU
 70
     6
  9
$SURFV
 70
     6
  9
$UCSBASE
  2

  9
$UCSNAME
  2

  9
$UCSORG
 10
0.0
 20
0.0
 30
0.0
  9
$UCSXDIR
 10
1.0
 20
0.0
 30
0.0
  9
$UCSYDIR
 10
0.0
 20
1.0
 30
0.0
  9
$UCSORTHOREF
  2

  9
$UCSORTHOVIEW
 70
     0
  9
$UCSORGTOP
 10
0.0
 20
0.0
 30
0.0
  9
$UCSORGBOTTOM
 10
0.0
 20
0.0
 30
0.0
  9
$UCSORGLEFT
 10
0.0
 20
0.0
 30
0.0
  9
$UCSORGRIGHT
 10
0.0
 20
0.0
 30
0.0
  9
$UCSORGFRONT
 10
0.0
 20
0.0
 30
0.0
  9
$UCSORGBACK
 10
0.0
 20
0.0
 30
0.0
  9
$PUCSBASE
  2

  9
$PUCSNAME
  2

  9
$PUCSORG
 10
0.0
 20
0.0
 30
0.0
  9
$PUCSXDIR
 10
1.0
 20
0.0
 30
0.0
  9
$PUCSYDIR
 10
0.0
 20
1.0
 30
0.0
  9
$PUCSORTHOREF
  2

  9
$PUCSORTHOVIEW
 70
     0
  9
$PUCSORGTOP
 10
0.0
 20
0.0
 30
0.0
  9
$PUCSORGBOTTOM
 10
0.0
 20
0.0
 30
0.0
  9
$PUCSORGLEFT
 10
0.0
 20
0.0
 30
0.0
  9
$PUCSORGRIGHT
 10
0.0
 20
0.0
 30
0.0
  9
$PUCSORGFRONT
 10
0.0
 20
0.0
 30
0.0
  9
$PUCSORGBACK
 10
0.0
 20
0.0
 30
0.0
  9
$USERI1
 70
     0
  9
$USERI2
 70
     0
  9
$USERI3
 70
     0
  9
$USERI4
 70
     0
  9
$USERI5
 70
     0
  9
$USERR1
 40
0.0
  9
$USERR2
 40
0.0
  9
$USERR3
 40
0.0
  9
$USERR4
 40
0.0
  9
$USERR5
 40
0.0
  9
$WORLDVIEW
 70
     1
  9
$SHADEDGE
 70
     3
  9
$SHADEDIF
 70
    70
  9
$TILEMODE
 70
     1
  9
$MAXACTVP
 70
    16
  9
$PINSBASE
 10
0.0
 20
0.0
 30
0.0
  9
$PLIMCHECK
 70
     0
  9
$PEXTMIN
 10
1.000000000000000E+20
 20
1.000000000000000E+20
 30
1.000000000000000E+20
  9
$PEXTMAX
 10
-1.000000000000000E+20
 20
-1.000000000000000E+20
 30
-1.000000000000000E+20
  9
$PLIMMIN
 10
0.0
 20
0.0
  9
$PLIMMAX
 10
12.0
 20
9.0
  9
$UNITMODE
 70
     0
  9
$VISRETAIN
 70
     0
  9
$PLINEGEN
 70
     0
  9
$PSLTSCALE
 70
     1
  9
$TREEDEPTH
 70
  3020
  9
$CMLSTYLE
  2
Standard
  9
$CMLJUST
 70
     0
  9
$CMLSCALE
 40
1.0
  9
$PROXYGRAPHICS
 70
     1
  9
$MEASUREMENT
 70
     0
  9
$CELWEIGHT
370
    -1
  9
$ENDCAPS
280
     0
  9
$JOINSTYLE
280
     0
  9
$LWDISPLAY
290
     0
  9
$INSUNITS
 70
     0
  9
$HYPERLINKBASE
  1

  9
$STYLESHEET
  1
monochrome.ctb
  9
$XEDIT
290
     1
  9
$CEPSNTYPE
380
     0
  9
$PSTYLEMODE
290
     1
  9
$FINGERPRINTGUID
  2
{3253F293-49CF-44C2-8201-B62AF3EFD927}
  9
$VERSIONGUID
  2
{EE46B119-4D4D-4C64-8408-58BD67E45B84}
  9
$EXTNAMES
290
     1
  9
$PSVPSCALE
 40
0.0
  9
$OLESTARTUP
290
     0
  0
ENDSEC
  0
SECTION
  2
CLASSES
  0
CLASS
  1
ACDBDICTIONARYWDFLT
  2
AcDbDictionaryWithDefault
  3
AutoCAD 2000
 90
        0
280
     0
281
     0
  0
CLASS
  1
ACDBPLACEHOLDER
  2
AcDbPlaceHolder
  3
AutoCAD 2000
 90
        0
280
     0
281
     0
  0
CLASS
  1
LAYOUT
  2
AcDbLayout
  3
AutoCAD 2000
 90
        0
280
     0
281
     0
  0
CLASS
  1
DICTIONARYVAR
  2
AcDbDictionaryVar
  3
AutoCAD 2000
 90
        0
280
     0
281
     0
  0
ENDSEC
  0
SECTION
  2
TABLES
  0
TABLE
  2
VPORT
  5
8
330
0
100
AcDbSymbolTable
 70
     2
  0
VPORT
  5
34C6
330
8
100
AcDbSymbolTableRecord
100
AcDbViewportTableRecord
  2
*Active
 70
     0
 10
0.0
 20
0.0
 11
1.0
 21
1.0
 12
20.75046533572418
 22
12.91046703491013
 13
0.0
 23
0.0
 14
1.0
 24
1.0
 15
0.25
 25
0.25
 16
0.0
 26
0.0
 36
1.0
 17
0.0
 27
0.0
 37
0.0
 40
26.08942069299668
 41
1.796327212020033
 42
50.0
 43
0.0
 44
0.0
 50
0.0
 51
0.0
 71
     0
 72
   500
 73
     1
 74
     0
 75
     0
 76
     0
 77
     0
 78
     0
281
     0
 65
     1
110
0.0
120
0.0
130
0.0
111
1.0
121
0.0
131
0.0
112
0.0
122
1.0
132
0.0
 79
     0
146
0.0
  0
ENDTAB
  0
TABLE
  2
LTYPE
  5
5
330
0
100
AcDbSymbolTable
 70
     6
  0
LTYPE
  5
13
330
5
100
AcDbSymbolTableRecord
100
AcDbLinetypeTableRecord
  2
ByBlock
 70
     0
  3

 72
    65
 73
     0
 40
0.0
  0
LTYPE
  5
14
330
5
100
AcDbSymbolTableRecord
100
AcDbLinetypeTableRecord
  2
ByLayer
 70
     0
  3

 72
    65
 73
     0
 40
0.0
  0
LTYPE
  5
15
330
5
100
AcDbSymbolTableRecord
100
AcDbLinetypeTableRecord
  2
CONTINUOUS
 70
     0
  3
Solid line
 72
    65
 73
     0
 40
0.0
  0
LTYPE
  5
25
330
5
100
AcDbSymbolTableRecord
100
AcDbLinetypeTableRecord
  2
HIDDEN
 70
     0
  3
_ _ _ _ _ _ _ _ _ _ _ _ _ _ _ _ _ _ _ _ _ _ _
 72
    65
 73
     2
 40
0.375
 49
0.25
 74
     0
 49
-0.125
 74
     0
  0
LTYPE
  5
26
330
5
100
AcDbSymbolTableRecord
100
AcDbLinetypeTableRecord
  2
PHANTOM
 70
     0
  3
_____ _ _ _____ _ _ _____ _ _ _____ _ _ ____
 72
    65
 73
     6
 40
2.5
 49
1.25
 74
     0
 49
-0.25
 74
     0
 49
0.25
 74
     0
 49
-0.25
 74
     0
 49
0.25
 74
     0
 49
-0.25
 74
     0
  0
LTYPE
  5
27
330
5
100
AcDbSymbolTableRecord
100
AcDbLinetypeTableRecord
  2
CENTER
 70
     0
  3
____ _ ____ _ ____ _ ____ _ ____ _ ____ _ ____
 72
    65
 73
     4
 40
2.0
 49
1.25
 74
     0
 49
-0.25
 74
     0
 49
0.25
 74
     0
 49
-0.25
 74
     0
  0
LTYPE
  5
28
330
5
100
AcDbSymbolTableRecord
100
AcDbLinetypeTableRecord
  2
PHANTOM2
 70
     0
  3
___ _ _ ___ _ _ ___ _ _ ___ _ _ ___ _ _ ___ _ _
 72
    65
 73
     6
 40
1.25
 49
0.625
 74
     0
 49
-0.125
 74
     0
 49
0.125
 74
     0
 49
-0.125
 74
     0
 49
0.125
 74
     0
 49
-0.125
 74
     0
  0
LTYPE
  5
3444
330
5
100
AcDbSymbolTableRecord
100
AcDbLinetypeTableRecord
  2
HIDDEN2
 70
     0
  3
Hidden (.5x) _ _ _ _ _ _ _ _ _ _ _ _ _ _ _ _ _
 72
    65
 73
     2
 40
0.1875
 49
0.125
 74
     0
 49
-0.0625
 74
     0
  0
ENDTAB
  0
TABLE
  2
LAYER
  5
2
330
0
100
AcDbSymbolTable
 70
     9
  0
LAYER
  5
10
330
2
100
AcDbSymbolTableRecord
100
AcDbLayerTableRecord
  2
0
 70
     0
 62
     7
  6
CONTINUOUS
370
    -3
390
F
  0
LAYER
  5
22
330
2
100
AcDbSymbolTableRecord
100
AcDbLayerTableRecord
  2
OBJECT
 70
     0
 62
     7
  6
CONTINUOUS
370
    -3
390
F
  0
LAYER
  5
29
330
2
100
AcDbSymbolTableRecord
100
AcDbLayerTableRecord
  2
DIM
 70
     0
 62
     2
  6
CONTINUOUS
370
    -3
390
F
  0
LAYER
  5
2A
330
2
100
AcDbSymbolTableRecord
100
AcDbLayerTableRecord
  2
HIDDEN
 70
     0
 62
     6
  6
HIDDEN
370
    -3
390
F
  0
LAYER
  5
2B
330
2
100
AcDbSymbolTableRecord
100
AcDbLayerTableRecord
  2
BEND
 70
     0
 62
     4
  6
PHANTOM
370
    -3
390
F
  0
LAYER
  5
2C
330
2
100
AcDbSymbolTableRecord
100
AcDbLayerTableRecord
  2
TEXT
 70
     0
 62
     1
  6
CONTINUOUS
370
    -3
390
F
  0
LAYER
  5
2D
330
2
100
AcDbSymbolTableRecord
100
AcDbLayerTableRecord
  2
TITLE
 70
     0
 62
     8
  6
CONTINUOUS
370
    -3
390
F
  0
LAYER
  5
2E
330
2
100
AcDbSymbolTableRecord
100
AcDbLayerTableRecord
  2
CENTER
 70
     0
 62
     3
  6
CENTER
370
    -3
390
F
  0
LAYER
  5
2F
330
2
100
AcDbSymbolTableRecord
100
AcDbLayerTableRecord
  2
DEFPOINTS
 70
     0
 62
     7
  6
CONTINUOUS
290
     0
370
    -3
390
F
  0
ENDTAB
  0
TABLE
  2
STYLE
  5
3
330
0
100
AcDbSymbolTable
 70
     2
  0
STYLE
  5
11
330
3
100
AcDbSymbolTableRecord
100
AcDbTextStyleTableRecord
  2
TXT
 70
     0
 40
0.0
 41
0.75
 50
0.0
 71
     0
 42
0.2
  3
txt.shx
  4

  0
STYLE
  5
30
330
3
100
AcDbSymbolTableRecord
100
AcDbTextStyleTableRecord
  2
SECTION
 70
     0
 40
0.0
 41
0.8
 50
0.0
 71
     0
 42
0.2
  3
ROMANT.SHX
  4

  0
ENDTAB
  0
TABLE
  2
VIEW
  5
6
330
0
100
AcDbSymbolTable
 70
     0
  0
ENDTAB
  0
TABLE
  2
UCS
  5
7
330
0
100
AcDbSymbolTable
 70
     0
  0
ENDTAB
  0
TABLE
  2
APPID
  5
9
330
0
100
AcDbSymbolTable
 70
     1
  0
APPID
  5
12
330
9
100
AcDbSymbolTableRecord
100
AcDbRegAppTableRecord
  2
ACAD
 70
     0
  0
ENDTAB
  0
TABLE
  2
DIMSTYLE
  5
A
330
0
100
AcDbSymbolTable
 70
     4
100
AcDbDimStyleTable
 71
     4
340
32
340
31
340
34
340
33
  0
DIMSTYLE
105
31
102
{ACAD_REACTORS
330
CF8
330
D06
330
D22
330
D30
330
D3E
330
D4C
330
D5A
330
D68
330
D76
330
D84
330
D92
330
DD8
330
DF4
330
E02
330
E10
330
E2C
330
E3A
330
E48
330
E56
330
E64
330
E72
330
ED0
330
EDE
330
EEC
330
EFA
330
F08
330
F16
330
F2C
330
FD1
330
FDE
330
FFB
330
1038
330
1A3E
330
1B3D
330
1B3F
330
1B43
330
1B45
330
1B66
330
1B69
102
}
330
A
100
AcDbSymbolTableRecord
100
AcDbDimStyleTableRecord
  2
23NSTD
 70
     0
 40
2.5
 42
0.063
 43
0.281
 44
0.093
140
0.125
271
     3
272
     3
289
     1
340
11
  0
DIMSTYLE
105
32
102
{ACAD_REACTORS
330
D14
330
DA0
330
DAE
330
DBC
330
DCA
330
DE6
330
E1E
330
1009
330
1017
102
}
330
A
100
AcDbSymbolTableRecord
100
AcDbDimStyleTableRecord
  2
23NSTDI
 70
     0
 40
2.5
 42
0.063
 43
0.281
 44
0.093
140
0.125
174
     1
271
     3
272
     3
340
11
  0
DIMSTYLE
105
33
102
{ACAD_REACTORS
330
E9C
330
1175
330
1183
330
1191
102
}
330
A
100
AcDbSymbolTableRecord
100
AcDbDimStyleTableRecord
  2
23NSTD4
 70
     0
 40
2.5
 42
0.063
 43
0.281
 44
0.093
140
0.125
144
0.25
271
     3
272
     3
289
     1
340
11
  0
DIMSTYLE
105
34
102
{ACAD_REACTORS
330
E8E
330
EAA
330
EB8
330
113B
330
1159
102
}
330
A
100
AcDbSymbolTableRecord
100
AcDbDimStyleTableRecord
  2
23NSTD4I
 70
     0
 40
2.5
 42
0.063
 43
0.281
 44
0.093
140
0.125
144
0.25
174
     1
271
     3
272
     3
340
11
  0
ENDTAB
  0
TABLE
  2
BLOCK_RECORD
  5
1
330
0
100
AcDbSymbolTable
 70
    51
  0
BLOCK_RECORD
  5
1E
330
1
100
AcDbSymbolTableRecord
100
AcDbBlockTableRecord
  2
*Model_Space
340
21
  0
BLOCK_RECORD
  5
1A
330
1
100
AcDbSymbolTableRecord
100
AcDbBlockTableRecord
  2
*Paper_Space
340
1D
  0
BLOCK_RECORD
  5
CF9
330
1
100
AcDbSymbolTableRecord
100
AcDbBlockTableRecord
  2
*D0
340
0
  0
BLOCK_RECORD
  5
D07
330
1
100
AcDbSymbolTableRecord
100
AcDbBlockTableRecord
  2
*D1
340
0
  0
BLOCK_RECORD
  5
D15
330
1
100
AcDbSymbolTableRecord
100
AcDbBlockTableRecord
  2
*D2
340
0
  0
BLOCK_RECORD
  5
D23
330
1
100
AcDbSymbolTableRecord
100
AcDbBlockTableRecord
  2
*D3
340
0
  0
BLOCK_RECORD
  5
D31
330
1
100
AcDbSymbolTableRecord
100
AcDbBlockTableRecord
  2
*D4
340
0
  0
BLOCK_RECORD
  5
D3F
330
1
100
AcDbSymbolTableRecord
100
AcDbBlockTableRecord
  2
*D5
340
0
  0
BLOCK_RECORD
  5
D4D
330
1
100
AcDbSymbolTableRecord
100
AcDbBlockTableRecord
  2
*D6
340
0
  0
BLOCK_RECORD
  5
D5B
330
1
100
AcDbSymbolTableRecord
100
AcDbBlockTableRecord
  2
*D7
340
0
  0
BLOCK_RECORD
  5
D69
330
1
100
AcDbSymbolTableRecord
100
AcDbBlockTableRecord
  2
*D8
340
0
  0
BLOCK_RECORD
  5
D77
330
1
100
AcDbSymbolTableRecord
100
AcDbBlockTableRecord
  2
*D9
340
0
  0
BLOCK_RECORD
  5
D85
330
1
100
AcDbSymbolTableRecord
100
AcDbBlockTableRecord
  2
*D10
340
0
  0
BLOCK_RECORD
  5
D93
330
1
100
AcDbSymbolTableRecord
100
AcDbBlockTableRecord
  2
*D11
340
0
  0
BLOCK_RECORD
  5
DA1
330
1
100
AcDbSymbolTableRecord
100
AcDbBlockTableRecord
  2
*D12
340
0
  0
BLOCK_RECORD
  5
DAF
330
1
100
AcDbSymbolTableRecord
100
AcDbBlockTableRecord
  2
*D13
340
0
  0
BLOCK_RECORD
  5
DBD
330
1
100
AcDbSymbolTableRecord
100
AcDbBlockTableRecord
  2
*D14
340
0
  0
BLOCK_RECORD
  5
DCB
330
1
100
AcDbSymbolTableRecord
100
AcDbBlockTableRecord
  2
*D15
340
0
  0
BLOCK_RECORD
  5
DD9
330
1
100
AcDbSymbolTableRecord
100
AcDbBlockTableRecord
  2
*D16
340
0
  0
BLOCK_RECORD
  5
DE7
330
1
100
AcDbSymbolTableRecord
100
AcDbBlockTableRecord
  2
*D17
340
0
  0
BLOCK_RECORD
  5
DF5
330
1
100
AcDbSymbolTableRecord
100
AcDbBlockTableRecord
  2
*D18
340
0
  0
BLOCK_RECORD
  5
E03
330
1
100
AcDbSymbolTableRecord
100
AcDbBlockTableRecord
  2
*D19
340
0
  0
BLOCK_RECORD
  5
E11
330
1
100
AcDbSymbolTableRecord
100
AcDbBlockTableRecord
  2
*D20
340
0
  0
BLOCK_RECORD
  5
E1F
330
1
100
AcDbSymbolTableRecord
100
AcDbBlockTableRecord
  2
*D21
340
0
  0
BLOCK_RECORD
  5
E2D
330
1
100
AcDbSymbolTableRecord
100
AcDbBlockTableRecord
  2
*D22
340
0
  0
BLOCK_RECORD
  5
E3B
330
1
100
AcDbSymbolTableRecord
100
AcDbBlockTableRecord
  2
*D23
340
0
  0
BLOCK_RECORD
  5
E49
330
1
100
AcDbSymbolTableRecord
100
AcDbBlockTableRecord
  2
*D24
340
0
  0
BLOCK_RECORD
  5
E57
330
1
100
AcDbSymbolTableRecord
100
AcDbBlockTableRecord
  2
*D25
340
0
  0
BLOCK_RECORD
  5
E65
330
1
100
AcDbSymbolTableRecord
100
AcDbBlockTableRecord
  2
*D26
340
0
  0
BLOCK_RECORD
  5
E73
330
1
100
AcDbSymbolTableRecord
100
AcDbBlockTableRecord
  2
*D27
340
0
  0
BLOCK_RECORD
  5
E8F
330
1
100
AcDbSymbolTableRecord
100
AcDbBlockTableRecord
  2
*D28
340
0
  0
BLOCK_RECORD
  5
E9D
330
1
100
AcDbSymbolTableRecord
100
AcDbBlockTableRecord
  2
*D29
340
0
  0
BLOCK_RECORD
  5
EAB
330
1
100
AcDbSymbolTableRecord
100
AcDbBlockTableRecord
  2
*D30
340
0
  0
BLOCK_RECORD
  5
EB9
330
1
100
AcDbSymbolTableRecord
100
AcDbBlockTableRecord
  2
*D31
340
0
  0
BLOCK_RECORD
  5
ED1
330
1
100
AcDbSymbolTableRecord
100
AcDbBlockTableRecord
  2
*D32
340
0
  0
BLOCK_RECORD
  5
EDF
330
1
100
AcDbSymbolTableRecord
100
AcDbBlockTableRecord
  2
*D33
340
0
  0
BLOCK_RECORD
  5
EED
330
1
100
AcDbSymbolTableRecord
100
AcDbBlockTableRecord
  2
*D34
340
0
  0
BLOCK_RECORD
  5
EFB
330
1
100
AcDbSymbolTableRecord
100
AcDbBlockTableRecord
  2
*D35
340
0
  0
BLOCK_RECORD
  5
F09
330
1
100
AcDbSymbolTableRecord
100
AcDbBlockTableRecord
  2
*D36
340
0
  0
BLOCK_RECORD
  5
F17
330
1
100
AcDbSymbolTableRecord
100
AcDbBlockTableRecord
  2
*D37
340
0
  0
BLOCK_RECORD
  5
F2D
330
1
100
AcDbSymbolTableRecord
100
AcDbBlockTableRecord
  2
*D38
340
0
  0
BLOCK_RECORD
  5
FD2
330
1
100
AcDbSymbolTableRecord
100
AcDbBlockTableRecord
  2
*D39
340
0
  0
BLOCK_RECORD
  5
FDF
330
1
100
AcDbSymbolTableRecord
100
AcDbBlockTableRecord
  2
*D40
340
0
  0
BLOCK_RECORD
  5
FFC
330
1
100
AcDbSymbolTableRecord
100
AcDbBlockTableRecord
  2
*D41
340
0
  0
BLOCK_RECORD
  5
100A
330
1
100
AcDbSymbolTableRecord
100
AcDbBlockTableRecord
  2
*D42
340
0
  0
BLOCK_RECORD
  5
1018
330
1
100
AcDbSymbolTableRecord
100
AcDbBlockTableRecord
  2
*D43
340
0
  0
BLOCK_RECORD
  5
1039
330
1
100
AcDbSymbolTableRecord
100
AcDbBlockTableRecord
  2
*D44
340
0
  0
BLOCK_RECORD
  5
113C
330
1
100
AcDbSymbolTableRecord
100
AcDbBlockTableRecord
  2
*D45
340
0
  0
BLOCK_RECORD
  5
115A
330
1
100
AcDbSymbolTableRecord
100
AcDbBlockTableRecord
  2
*D46
340
0
  0
BLOCK_RECORD
  5
1176
330
1
100
AcDbSymbolTableRecord
100
AcDbBlockTableRecord
  2
*D47
340
0
  0
BLOCK_RECORD
  5
1184
330
1
100
AcDbSymbolTableRecord
100
AcDbBlockTableRecord
  2
*D48
340
0
  0
BLOCK_RECORD
  5
1192
330
1
100
AcDbSymbolTableRecord
100
AcDbBlockTableRecord
  2
*D49
340
0
  0
BLOCK_RECORD
  5
182C
330
1
100
AcDbSymbolTableRecord
100
AcDbBlockTableRecord
  2
HBS
340
0
102
{BLKREFS
331
184D
102
}
  0
ENDTAB
  0
ENDSEC
  0
SECTION
  2
BLOCKS
  0
BLOCK
  5
1F
330
1E
100
AcDbEntity
  8
0
100
AcDbBlockBegin
  2
*Model_Space
 70
     0
 10
0.0
 20
0.0
 30
0.0
  3
*Model_Space
  1

  0
ENDBLK
  5
20
330
1E
100
AcDbEntity
  8
0
100
AcDbBlockEnd
  0
BLOCK
  5
1B
330
1A
100
AcDbEntity
 67
     1
  8
0
100
AcDbBlockBegin
  2
*Paper_Space
 70
     0
 10
0.0
 20
0.0
 30
0.0
  3
*Paper_Space
  1

  0
ENDBLK
  5
1C
330
1A
100
AcDbEntity
 67
     1
  8
0
100
AcDbBlockEnd
  0
BLOCK
  5
D04
330
CF9
100
AcDbEntity
  8
0
100
AcDbBlockBegin
  2
*D0
 70
     1
 10
0.0
 20
0.0
 30
0.0
  3
*D0
  1

  0
LINE
  5
338F
330
CF9
100
AcDbEntity
  8
DIM
 62
     0
370
    -2
100
AcDbLine
 10
17.9860918913699
 20
12.85152983942009
 30
0.0
 11
17.9860918913699
 21
13.61843483942009
 31
0.0
  0
LINE
  5
3390
330
CF9
100
AcDbEntity
  8
DIM
 62
     0
370
    -2
100
AcDbLine
 10
18.2730918913699
 20
13.05702983942009
 30
0.0
 11
18.2730918913699
 21
13.61843483942009
 31
0.0
  0
LINE
  5
3391
330
CF9
100
AcDbEntity
  8
DIM
 62
     0
370
    -2
100
AcDbLine
 10
17.5360918913699
 20
13.38593483942009
 30
0.0
 11
17.0860918913699
 21
13.38593483942009
 31
0.0
  0
LINE
  5
3392
330
CF9
100
AcDbEntity
  8
DIM
 62
     0
370
    -2
100
AcDbLine
 10
18.7230918913699
 20
13.38593483942009
 30
0.0
 11
19.1730918913699
 21
13.38593483942009
 31
0.0
  0
SOLID
  5
3393
330
CF9
100
AcDbEntity
  8
DIM
 62
     0
100
AcDbTrace
 10
17.5360918913699
 20
13.46093483942009
 30
0.0
 11
17.5360918913699
 21
13.31093483942009
 31
0.0
 12
17.9860918913699
 22
13.38593483942009
 32
0.0
 13
17.9860918913699
 23
13.38593483942009
 33
0.0
  0
SOLID
  5
3394
330
CF9
100
AcDbEntity
  8
DIM
 62
     0
100
AcDbTrace
 10
18.7230918913699
 20
13.46093483942009
 30
0.0
 11
18.7230918913699
 21
13.31093483942009
 31
0.0
 12
18.2730918913699
 22
13.38593483942009
 32
0.0
 13
18.2730918913699
 23
13.38593483942009
 33
0.0
  0
MTEXT
  5
3395
330
CF9
100
AcDbEntity
  8
DIM
 62
     0
100
AcDbMText
 10
19.8473106413699
 20
13.38593483942009
 30
0.0
 40
0.3125
 41
0.0
 71
     5
 72
     1
  1
\A1;0.287
 73
     1
 44
1.0
  0
POINT
  5
3396
330
CF9
100
AcDbEntity
  8
DEFPOINTS
 62
     0
100
AcDbPoint
 10
17.9860918913699
 20
12.69402983942009
 30
0.0
  0
POINT
  5
3397
330
CF9
100
AcDbEntity
  8
DEFPOINTS
 62
     0
100
AcDbPoint
 10
18.2730918913699
 20
12.89952983942009
 30
0.0
  0
POINT
  5
3398
330
CF9
100
AcDbEntity
  8
DEFPOINTS
 62
     0
100
AcDbPoint
 10
18.2730918913699
 20
13.38593483942009
 30
0.0
  0
ENDBLK
  5
D05
330
CF9
100
AcDbEntity
  8
0
100
AcDbBlockEnd
  0
BLOCK
  5
D12
330
D07
100
AcDbEntity
  8
0
100
AcDbBlockBegin
  2
*D1
 70
     1
 10
0.0
 20
0.0
 30
0.0
  3
*D1
  1

  0
LINE
  5
33A3
330
D07
100
AcDbEntity
  8
DIM
 62
     0
370
    -2
100
AcDbLine
 10
18.1550918913699
 20
12.17285583942009
 30
0.0
 11
18.1550918913699
 21
12.01416083942009
 31
0.0
  0
LINE
  5
33A4
330
D07
100
AcDbEntity
  8
DIM
 62
     0
370
    -2
100
AcDbLine
 10
18.2730918913699
 20
12.17285583942009
 30
0.0
 11
18.2730918913699
 21
12.01416083942009
 31
0.0
  0
LINE
  5
33A5
330
D07
100
AcDbEntity
  8
DIM
 62
     0
370
    -2
100
AcDbLine
 10
17.7050918913699
 20
12.24666083942009
 30
0.0
 11
17.2550918913699
 21
12.24666083942009
 31
0.0
  0
LINE
  5
33A6
330
D07
100
AcDbEntity
  8
DIM
 62
     0
370
    -2
100
AcDbLine
 10
18.7230918913699
 20
12.24666083942009
 30
0.0
 11
19.1730918913699
 21
12.24666083942009
 31
0.0
  0
SOLID
  5
33A7
330
D07
100
AcDbEntity
  8
DIM
 62
     0
100
AcDbTrace
 10
17.7050918913699
 20
12.32166083942009
 30
0.0
 11
17.7050918913699
 21
12.17166083942009
 31
0.0
 12
18.1550918913699
 22
12.24666083942009
 32
0.0
 13
18.1550918913699
 23
12.24666083942009
 33
0.0
  0
SOLID
  5
33A8
330
D07
100
AcDbEntity
  8
DIM
 62
     0
100
AcDbTrace
 10
18.7230918913699
 20
12.32166083942009
 30
0.0
 11
18.7230918913699
 21
12.17166083942009
 31
0.0
 12
18.2730918913699
 22
12.24666083942009
 32
0.0
 13
18.2730918913699
 23
12.24666083942009
 33
0.0
  0
MTEXT
  5
33A9
330
D07
100
AcDbEntity
  8
DIM
 62
     0
100
AcDbMText
 10
19.7691856413699
 20
12.24666083942009
 30
0.0
 40
0.3125
 41
0.0
 71
     5
 72
     1
  1
\A1;0.118
 73
     1
 44
1.0
  0
POINT
  5
33AA
330
D07
100
AcDbEntity
  8
DEFPOINTS
 62
     0
100
AcDbPoint
 10
18.1550918913699
 20
12.33035583942009
 30
0.0
  0
POINT
  5
33AB
330
D07
100
AcDbEntity
  8
DEFPOINTS
 62
     0
100
AcDbPoint
 10
18.2730918913699
 20
12.33035583942009
 30
0.0
  0
POINT
  5
33AC
330
D07
100
AcDbEntity
  8
DEFPOINTS
 62
     0
100
AcDbPoint
 10
18.2730918913699
 20
12.24666083942009
 30
0.0
  0
ENDBLK
  5
D13
330
D07
100
AcDbEntity
  8
0
100
AcDbBlockEnd
  0
BLOCK
  5
D20
330
D15
100
AcDbEntity
  8
0
100
AcDbBlockBegin
  2
*D2
 70
     1
 10
0.0
 20
0.0
 30
0.0
  3
*D2
  1

  0
LINE
  5
33AD
330
D15
100
AcDbEntity
  8
DIM
 62
     0
370
    -2
100
AcDbLine
 10
17.4230918913699
 20
6.594529839420092
 30
0.0
 11
17.4230918913699
 21
5.761529839420092
 31
0.0
  0
LINE
  5
33AE
330
D15
100
AcDbEntity
  8
DIM
 62
     0
370
    -2
100
AcDbLine
 10
18.2730918913699
 20
6.567029839420092
 30
0.0
 11
18.2730918913699
 21
5.761529839420092
 31
0.0
  0
LINE
  5
33AF
330
D15
100
AcDbEntity
  8
DIM
 62
     0
370
    -2
100
AcDbLine
 10
16.9730918913699
 20
5.994029839420091
 30
0.0
 11
16.52309189136991
 21
5.994029839420091
 31
0.0
  0
LINE
  5
33B0
330
D15
100
AcDbEntity
  8
DIM
 62
     0
370
    -2
100
AcDbLine
 10
18.7230918913699
 20
5.994029839420091
 30
0.0
 11
19.1730918913699
 21
5.994029839420091
 31
0.0
  0
SOLID
  5
33B1
330
D15
100
AcDbEntity
  8
DIM
 62
     0
100
AcDbTrace
 10
16.9730918913699
 20
6.069029839420092
 30
0.0
 11
16.9730918913699
 21
5.919029839420091
 31
0.0
 12
17.4230918913699
 22
5.994029839420091
 32
0.0
 13
17.4230918913699
 23
5.994029839420091
 33
0.0
  0
SOLID
  5
33B2
330
D15
100
AcDbEntity
  8
DIM
 62
     0
100
AcDbTrace
 10
18.7230918913699
 20
6.069029839420092
 30
0.0
 11
18.7230918913699
 21
5.919029839420091
 31
0.0
 12
18.2730918913699
 22
5.994029839420091
 32
0.0
 13
18.2730918913699
 23
5.994029839420091
 33
0.0
  0
MTEXT
  5
33B3
330
D15
100
AcDbEntity
  8
DIM
 62
     0
100
AcDbMText
 10
19.8277793913699
 20
5.994029839420091
 30
0.0
 40
0.3125
 41
0.0
 71
     5
 72
     1
  1
\A1;0.850
 73
     1
 44
1.0
  0
POINT
  5
33B4
330
D15
100
AcDbEntity
  8
DEFPOINTS
 62
     0
100
AcDbPoint
 10
17.4230918913699
 20
6.752029839420091
 30
0.0
  0
POINT
  5
33B5
330
D15
100
AcDbEntity
  8
DEFPOINTS
 62
     0
100
AcDbPoint
 10
18.2730918913699
 20
6.724529839420092
 30
0.0
  0
POINT
  5
33B6
330
D15
100
AcDbEntity
  8
DEFPOINTS
 62
     0
100
AcDbPoint
 10
18.2730918913699
 20
5.994029839420091
 30
0.0
  0
ENDBLK
  5
D21
330
D15
100
AcDbEntity
  8
0
100
AcDbBlockEnd
  0
BLOCK
  5
D2E
330
D23
100
AcDbEntity
  8
0
100
AcDbBlockBegin
  2
*D3
 70
     1
 10
0.0
 20
0.0
 30
0.0
  3
*D3
  1

  0
LINE
  5
33B7
330
D23
100
AcDbEntity
  8
DIM
 62
     0
370
    -2
100
AcDbLine
 10
18.4305918913699
 20
7.246029839420091
 30
0.0
 11
19.0592638913699
 21
7.246029839420091
 31
0.0
  0
LINE
  5
33B8
330
D23
100
AcDbEntity
  8
DIM
 62
     0
370
    -2
100
AcDbLine
 10
18.4305918913699
 20
7.416029839420092
 30
0.0
 11
19.0592638913699
 21
7.416029839420092
 31
0.0
  0
LINE
  5
33B9
330
D23
100
AcDbEntity
  8
DIM
 62
     0
370
    -2
100
AcDbLine
 10
18.8267638913699
 20
6.796029839420091
 30
0.0
 11
18.8267638913699
 21
6.346029839420091
 31
0.0
  0
LINE
  5
33BA
330
D23
100
AcDbEntity
  8
DIM
 62
     0
370
    -2
100
AcDbLine
 10
18.8267638913699
 20
7.866029839420092
 30
0.0
 11
18.8267638913699
 21
8.316029839420092
 31
0.0
  0
LINE
  5
33BB
330
D23
100
AcDbEntity
  8
DIM
 62
     0
370
    -2
100
AcDbLine
 10
18.8267638913699
 20
8.316029839420092
 30
0.0
 11
19.2767638913699
 21
8.316029839420092
 31
0.0
  0
SOLID
  5
33BC
330
D23
100
AcDbEntity
  8
DIM
 62
     0
100
AcDbTrace
 10
18.7517638913699
 20
6.796029839420091
 30
0.0
 11
18.9017638913699
 21
6.796029839420091
 31
0.0
 12
18.8267638913699
 22
7.246029839420091
 32
0.0
 13
18.8267638913699
 23
7.246029839420091
 33
0.0
  0
SOLID
  5
33BD
330
D23
100
AcDbEntity
  8
DIM
 62
     0
100
AcDbTrace
 10
18.7517638913699
 20
7.866029839420092
 30
0.0
 11
18.9017638913699
 21
7.866029839420092
 31
0.0
 12
18.8267638913699
 22
7.416029839420092
 32
0.0
 13
18.8267638913699
 23
7.416029839420092
 33
0.0
  0
MTEXT
  5
33BE
330
D23
100
AcDbEntity
  8
DIM
 62
     0
100
AcDbMText
 10
20.5564513913699
 20
8.316029839420094
 30
0.0
 40
0.3125
 41
0.0
 71
     5
 72
     1
  1
\A1;0.170 DIA.\P(4) PLACES
 73
     1
 44
1.0
  0
POINT
  5
33BF
330
D23
100
AcDbEntity
  8
DEFPOINTS
 62
     0
100
AcDbPoint
 10
18.2730918913699
 20
7.246029839420091
 30
0.0
  0
POINT
  5
33C0
330
D23
100
AcDbEntity
  8
DEFPOINTS
 62
     0
100
AcDbPoint
 10
18.2730918913699
 20
7.416029839420092
 30
0.0
  0
POINT
  5
33C1
330
D23
100
AcDbEntity
  8
DEFPOINTS
 62
     0
100
AcDbPoint
 10
18.8267638913699
 20
7.416029839420092
 30
0.0
  0
ENDBLK
  5
D2F
330
D23
100
AcDbEntity
  8
0
100
AcDbBlockEnd
  0
BLOCK
  5
D3C
330
D31
100
AcDbEntity
  8
0
100
AcDbBlockBegin
  2
*D4
 70
     1
 10
0.0
 20
0.0
 30
0.0
  3
*D4
  1

  0
LINE
  5
3191
330
D31
100
AcDbEntity
  8
DIM
 62
     0
370
    -2
100
AcDbLine
 10
9.876849793238442
 20
6.754529839420092
 30
0.0
 11
9.876849793238442
 21
4.737131839420092
 31
0.0
  0
LINE
  5
3192
330
D31
100
AcDbEntity
  8
DIM
 62
     0
370
    -2
100
AcDbLine
 10
4.952849793238443
 20
6.754529839420092
 30
0.0
 11
4.952849793238443
 21
4.737131839420092
 31
0.0
  0
LINE
  5
3193
330
D31
100
AcDbEntity
  8
DIM
 62
     0
370
    -2
100
AcDbLine
 10
9.426849793238442
 20
4.969631839420092
 30
0.0
 11
8.108599793238443
 21
4.969631839420092
 31
0.0
  0
LINE
  5
3194
330
D31
100
AcDbEntity
  8
DIM
 62
     0
370
    -2
100
AcDbLine
 10
5.402849793238443
 20
4.969631839420092
 30
0.0
 11
6.721099793238444
 21
4.969631839420092
 31
0.0
  0
SOLID
  5
3195
330
D31
100
AcDbEntity
  8
DIM
 62
     0
100
AcDbTrace
 10
9.426849793238442
 20
5.044631839420092
 30
0.0
 11
9.426849793238442
 21
4.894631839420092
 31
0.0
 12
9.876849793238442
 22
4.969631839420092
 32
0.0
 13
9.876849793238442
 23
4.969631839420092
 33
0.0
  0
SOLID
  5
3196
330
D31
100
AcDbEntity
  8
DIM
 62
     0
100
AcDbTrace
 10
5.402849793238443
 20
5.044631839420092
 30
0.0
 11
5.402849793238443
 21
4.894631839420092
 31
0.0
 12
4.952849793238443
 22
4.969631839420092
 32
0.0
 13
4.952849793238443
 23
4.969631839420092
 33
0.0
  0
MTEXT
  5
3197
330
D31
100
AcDbEntity
  8
DIM
 62
     0
100
AcDbMText
 10
7.414849793238443
 20
4.969631839420092
 30
0.0
 40
0.3125
 41
0.0
 71
     5
 72
     1
  1
\A1;4.924
 73
     1
 44
1.0
  0
POINT
  5
3198
330
D31
100
AcDbEntity
  8
DEFPOINTS
 62
     0
100
AcDbPoint
 10
9.876849793238442
 20
6.912029839420092
 30
0.0
  0
POINT
  5
3199
330
D31
100
AcDbEntity
  8
DEFPOINTS
 62
     0
100
AcDbPoint
 10
4.952849793238443
 20
6.912029839420092
 30
0.0
  0
POINT
  5
319A
330
D31
100
AcDbEntity
  8
DEFPOINTS
 62
     0
100
AcDbPoint
 10
4.952849793238443
 20
4.969631839420092
 30
0.0
  0
ENDBLK
  5
D3D
330
D31
100
AcDbEntity
  8
0
100
AcDbBlockEnd
  0
BLOCK
  5
D4A
330
D3F
100
AcDbEntity
  8
0
100
AcDbBlockBegin
  2
*D5
 70
     1
 10
0.0
 20
0.0
 30
0.0
  3
*D5
  1

  0
LINE
  5
319B
330
D3F
100
AcDbEntity
  8
DIM
 62
     0
370
    -2
100
AcDbLine
 10
4.952849793238443
 20
6.754529839420092
 30
0.0
 11
4.952849793238443
 21
4.737131839420092
 31
0.0
  0
LINE
  5
319C
330
D3F
100
AcDbEntity
  8
DIM
 62
     0
370
    -2
100
AcDbLine
 10
4.264849793238443
 20
6.754529839420092
 30
0.0
 11
4.264849793238443
 21
4.737131839420092
 31
0.0
  0
LINE
  5
319D
330
D3F
100
AcDbEntity
  8
DIM
 62
     0
370
    -2
100
AcDbLine
 10
5.402849793238443
 20
4.969631839420092
 30
0.0
 11
5.852849793238442
 21
4.969631839420092
 31
0.0
  0
LINE
  5
319E
330
D3F
100
AcDbEntity
  8
DIM
 62
     0
370
    -2
100
AcDbLine
 10
3.814849793238443
 20
4.969631839420092
 30
0.0
 11
3.364849793238443
 21
4.969631839420092
 31
0.0
  0
SOLID
  5
319F
330
D3F
100
AcDbEntity
  8
DIM
 62
     0
100
AcDbTrace
 10
5.402849793238443
 20
5.044631839420092
 30
0.0
 11
5.402849793238443
 21
4.894631839420092
 31
0.0
 12
4.952849793238443
 22
4.969631839420092
 32
0.0
 13
4.952849793238443
 23
4.969631839420092
 33
0.0
  0
SOLID
  5
31A0
330
D3F
100
AcDbEntity
  8
DIM
 62
     0
100
AcDbTrace
 10
3.814849793238443
 20
5.044631839420092
 30
0.0
 11
3.814849793238443
 21
4.894631839420092
 31
0.0
 12
4.264849793238443
 22
4.969631839420092
 32
0.0
 13
4.264849793238443
 23
4.969631839420092
 33
0.0
  0
MTEXT
  5
31A1
330
D3F
100
AcDbEntity
  8
DIM
 62
     0
100
AcDbMText
 10
2.690631043238443
 20
4.969631839420092
 30
0.0
 40
0.3125
 41
0.0
 71
     5
 72
     1
  1
\A1;0.688
 73
     1
 44
1.0
  0
POINT
  5
31A2
330
D3F
100
AcDbEntity
  8
DEFPOINTS
 62
     0
100
AcDbPoint
 10
4.952849793238443
 20
6.912029839420092
 30
0.0
  0
POINT
  5
31A3
330
D3F
100
AcDbEntity
  8
DEFPOINTS
 62
     0
100
AcDbPoint
 10
4.264849793238443
 20
6.912029839420092
 30
0.0
  0
POINT
  5
31A4
330
D3F
100
AcDbEntity
  8
DEFPOINTS
 62
     0
100
AcDbPoint
 10
4.264849793238443
 20
4.969631839420092
 30
0.0
  0
ENDBLK
  5
D4B
330
D3F
100
AcDbEntity
  8
0
100
AcDbBlockEnd
  0
BLOCK
  5
D58
330
D4D
100
AcDbEntity
  8
0
100
AcDbBlockBegin
  2
*D6
 70
     1
 10
0.0
 20
0.0
 30
0.0
  3
*D6
  1

  0
LINE
  5
301A
330
D4D
100
AcDbEntity
  8
DIM
 62
     0
370
    -2
100
AcDbLine
 10
4.264849793238443
 20
12.86952983942009
 30
0.0
 11
4.264849793238443
 21
14.25031362320387
 31
0.0
  0
LINE
  5
301B
330
D4D
100
AcDbEntity
  8
DIM
 62
     0
370
    -2
100
AcDbLine
 10
7.414849793238444
 20
12.72652983942009
 30
0.0
 11
7.414849793238444
 21
14.25031362320387
 31
0.0
  0
LINE
  5
301C
330
D4D
100
AcDbEntity
  8
DIM
 62
     0
370
    -2
100
AcDbLine
 10
4.714849793238443
 20
14.01781362320387
 30
0.0
 11
5.204693543238444
 21
14.01781362320387
 31
0.0
  0
LINE
  5
301D
330
D4D
100
AcDbEntity
  8
DIM
 62
     0
370
    -2
100
AcDbLine
 10
6.964849793238443
 20
14.01781362320387
 30
0.0
 11
6.475006043238443
 21
14.01781362320387
 31
0.0
  0
SOLID
  5
301E
330
D4D
100
AcDbEntity
  8
DIM
 62
     0
100
AcDbTrace
 10
4.714849793238443
 20
14.09281362320387
 30
0.0
 11
4.714849793238443
 21
13.94281362320387
 31
0.0
 12
4.264849793238443
 22
14.01781362320387
 32
0.0
 13
4.264849793238443
 23
14.01781362320387
 33
0.0
  0
SOLID
  5
301F
330
D4D
100
AcDbEntity
  8
DIM
 62
     0
100
AcDbTrace
 10
6.964849793238443
 20
14.09281362320387
 30
0.0
 11
6.964849793238443
 21
13.94281362320387
 31
0.0
 12
7.414849793238444
 22
14.01781362320387
 32
0.0
 13
7.414849793238444
 23
14.01781362320387
 33
0.0
  0
MTEXT
  5
3020
330
D4D
100
AcDbEntity
  8
DIM
 62
     0
100
AcDbMText
 10
5.839849793238443
 20
14.01781362320387
 30
0.0
 40
0.3125
 41
0.0
 71
     5
 72
     1
  1
\A1;3.150
 73
     1
 44
1.0
  0
POINT
  5
3021
330
D4D
100
AcDbEntity
  8
DEFPOINTS
 62
     0
100
AcDbPoint
 10
4.264849793238443
 20
12.71202983942009
 30
0.0
  0
POINT
  5
3022
330
D4D
100
AcDbEntity
  8
DEFPOINTS
 62
     0
100
AcDbPoint
 10
7.414849793238444
 20
12.56902983942009
 30
0.0
  0
POINT
  5
3023
330
D4D
100
AcDbEntity
  8
DEFPOINTS
 62
     0
100
AcDbPoint
 10
7.414849793238444
 20
14.01781362320387
 30
0.0
  0
ENDBLK
  5
D59
330
D4D
100
AcDbEntity
  8
0
100
AcDbBlockEnd
  0
BLOCK
  5
D66
330
D5B
100
AcDbEntity
  8
0
100
AcDbBlockBegin
  2
*D7
 70
     1
 10
0.0
 20
0.0
 30
0.0
  3
*D7
  1

  0
LINE
  5
3010
330
D5B
100
AcDbEntity
  8
DIM
 62
     0
370
    -2
100
AcDbLine
 10
4.264849793238443
 20
12.86952983942009
 30
0.0
 11
4.264849793238443
 21
16.63381362320387
 31
0.0
  0
LINE
  5
3011
330
D5B
100
AcDbEntity
  8
DIM
 62
     0
370
    -2
100
AcDbLine
 10
10.56484979323844
 20
12.86952983942009
 30
0.0
 11
10.56484979323844
 21
16.63381362320387
 31
0.0
  0
LINE
  5
3012
330
D5B
100
AcDbEntity
  8
DIM
 62
     0
370
    -2
100
AcDbLine
 10
4.714849793238443
 20
16.40131362320387
 30
0.0
 11
6.760162293238444
 21
16.40131362320387
 31
0.0
  0
LINE
  5
3013
330
D5B
100
AcDbEntity
  8
DIM
 62
     0
370
    -2
100
AcDbLine
 10
10.11484979323844
 20
16.40131362320387
 30
0.0
 11
8.069537293238443
 21
16.40131362320387
 31
0.0
  0
SOLID
  5
3014
330
D5B
100
AcDbEntity
  8
DIM
 62
     0
100
AcDbTrace
 10
4.714849793238443
 20
16.47631362320387
 30
0.0
 11
4.714849793238443
 21
16.32631362320387
 31
0.0
 12
4.264849793238443
 22
16.40131362320387
 32
0.0
 13
4.264849793238443
 23
16.40131362320387
 33
0.0
  0
SOLID
  5
3015
330
D5B
100
AcDbEntity
  8
DIM
 62
     0
100
AcDbTrace
 10
10.11484979323844
 20
16.47631362320387
 30
0.0
 11
10.11484979323844
 21
16.32631362320387
 31
0.0
 12
10.56484979323844
 22
16.40131362320387
 32
0.0
 13
10.56484979323844
 23
16.40131362320387
 33
0.0
  0
MTEXT
  5
3016
330
D5B
100
AcDbEntity
  8
DIM
 62
     0
100
AcDbMText
 10
7.414849793238444
 20
16.40131362320387
 30
0.0
 40
0.3125
 41
0.0
 71
     5
 72
     1
  1
\A1;6.300
 73
     1
 44
1.0
  0
POINT
  5
3017
330
D5B
100
AcDbEntity
  8
DEFPOINTS
 62
     0
100
AcDbPoint
 10
4.264849793238443
 20
12.71202983942009
 30
0.0
  0
POINT
  5
3018
330
D5B
100
AcDbEntity
  8
DEFPOINTS
 62
     0
100
AcDbPoint
 10
10.56484979323844
 20
12.71202983942009
 30
0.0
  0
POINT
  5
3019
330
D5B
100
AcDbEntity
  8
DEFPOINTS
 62
     0
100
AcDbPoint
 10
10.56484979323844
 20
16.40131362320387
 30
0.0
  0
ENDBLK
  5
D67
330
D5B
100
AcDbEntity
  8
0
100
AcDbBlockEnd
  0
BLOCK
  5
D74
330
D69
100
AcDbEntity
  8
0
100
AcDbBlockBegin
  2
*D8
 70
     1
 10
0.0
 20
0.0
 30
0.0
  3
*D8
  1

  0
LINE
  5
3006
330
D69
100
AcDbEntity
  8
DIM
 62
     0
370
    -2
100
AcDbLine
 10
10.28884979323844
 20
12.84352983942009
 30
0.0
 11
10.28884979323844
 21
15.83931362320387
 31
0.0
  0
LINE
  5
3007
330
D69
100
AcDbEntity
  8
DIM
 62
     0
370
    -2
100
AcDbLine
 10
4.540849793238443
 20
12.84352983942009
 30
0.0
 11
4.540849793238443
 21
15.83931362320387
 31
0.0
  0
LINE
  5
3008
330
D69
100
AcDbEntity
  8
DIM
 62
     0
370
    -2
100
AcDbLine
 10
9.838849793238443
 20
15.60681362320387
 30
0.0
 11
8.108599793238443
 21
15.60681362320387
 31
0.0
  0
LINE
  5
3009
330
D69
100
AcDbEntity
  8
DIM
 62
     0
370
    -2
100
AcDbLine
 10
4.990849793238443
 20
15.60681362320387
 30
0.0
 11
6.721099793238444
 21
15.60681362320387
 31
0.0
  0
SOLID
  5
300A
330
D69
100
AcDbEntity
  8
DIM
 62
     0
100
AcDbTrace
 10
9.838849793238443
 20
15.68181362320387
 30
0.0
 11
9.838849793238443
 21
15.53181362320387
 31
0.0
 12
10.28884979323844
 22
15.60681362320387
 32
0.0
 13
10.28884979323844
 23
15.60681362320387
 33
0.0
  0
SOLID
  5
300B
330
D69
100
AcDbEntity
  8
DIM
 62
     0
100
AcDbTrace
 10
4.990849793238443
 20
15.68181362320387
 30
0.0
 11
4.990849793238443
 21
15.53181362320387
 31
0.0
 12
4.540849793238443
 22
15.60681362320387
 32
0.0
 13
4.540849793238443
 23
15.60681362320387
 33
0.0
  0
MTEXT
  5
300C
330
D69
100
AcDbEntity
  8
DIM
 62
     0
100
AcDbMText
 10
7.414849793238444
 20
15.60681362320387
 30
0.0
 40
0.3125
 41
0.0
 71
     5
 72
     1
  1
\A1;5.748
 73
     1
 44
1.0
  0
POINT
  5
300D
330
D69
100
AcDbEntity
  8
DEFPOINTS
 62
     0
100
AcDbPoint
 10
10.28884979323844
 20
12.68602983942009
 30
0.0
  0
POINT
  5
300E
330
D69
100
AcDbEntity
  8
DEFPOINTS
 62
     0
100
AcDbPoint
 10
4.540849793238443
 20
12.68602983942009
 30
0.0
  0
POINT
  5
300F
330
D69
100
AcDbEntity
  8
DEFPOINTS
 62
     0
100
AcDbPoint
 10
4.540849793238443
 20
15.60681362320387
 30
0.0
  0
ENDBLK
  5
D75
330
D69
100
AcDbEntity
  8
0
100
AcDbBlockEnd
  0
BLOCK
  5
D82
330
D77
100
AcDbEntity
  8
0
100
AcDbBlockBegin
  2
*D9
 70
     1
 10
0.0
 20
0.0
 30
0.0
  3
*D9
  1

  0
LINE
  5
2FFC
330
D77
100
AcDbEntity
  8
DIM
 62
     0
370
    -2
100
AcDbLine
 10
4.540849793238443
 20
12.84352983942009
 30
0.0
 11
4.540849793238443
 21
15.83931362320387
 31
0.0
  0
LINE
  5
2FFD
330
D77
100
AcDbEntity
  8
DIM
 62
     0
370
    -2
100
AcDbLine
 10
4.264849793238443
 20
12.86952983942009
 30
0.0
 11
4.264849793238443
 21
15.83931362320387
 31
0.0
  0
LINE
  5
2FFE
330
D77
100
AcDbEntity
  8
DIM
 62
     0
370
    -2
100
AcDbLine
 10
4.990849793238443
 20
15.60681362320387
 30
0.0
 11
5.440849793238443
 21
15.60681362320387
 31
0.0
  0
LINE
  5
2FFF
330
D77
100
AcDbEntity
  8
DIM
 62
     0
370
    -2
100
AcDbLine
 10
3.814849793238443
 20
15.60681362320387
 30
0.0
 11
3.364849793238443
 21
15.60681362320387
 31
0.0
  0
SOLID
  5
3000
330
D77
100
AcDbEntity
  8
DIM
 62
     0
100
AcDbTrace
 10
4.990849793238443
 20
15.68181362320387
 30
0.0
 11
4.990849793238443
 21
15.53181362320387
 31
0.0
 12
4.540849793238443
 22
15.60681362320387
 32
0.0
 13
4.540849793238443
 23
15.60681362320387
 33
0.0
  0
SOLID
  5
3001
330
D77
100
AcDbEntity
  8
DIM
 62
     0
100
AcDbTrace
 10
3.814849793238443
 20
15.68181362320387
 30
0.0
 11
3.814849793238443
 21
15.53181362320387
 31
0.0
 12
4.264849793238443
 22
15.60681362320387
 32
0.0
 13
4.264849793238443
 23
15.60681362320387
 33
0.0
  0
MTEXT
  5
3002
330
D77
100
AcDbEntity
  8
DIM
 62
     0
100
AcDbMText
 10
2.690631043238443
 20
15.60681362320387
 30
0.0
 40
0.3125
 41
0.0
 71
     5
 72
     1
  1
\A1;0.276
 73
     1
 44
1.0
  0
POINT
  5
3003
330
D77
100
AcDbEntity
  8
DEFPOINTS
 62
     0
100
AcDbPoint
 10
4.540849793238443
 20
12.68602983942009
 30
0.0
  0
POINT
  5
3004
330
D77
100
AcDbEntity
  8
DEFPOINTS
 62
     0
100
AcDbPoint
 10
4.264849793238443
 20
12.71202983942009
 30
0.0
  0
POINT
  5
3005
330
D77
100
AcDbEntity
  8
DEFPOINTS
 62
     0
100
AcDbPoint
 10
4.264849793238443
 20
15.60681362320387
 30
0.0
  0
ENDBLK
  5
D83
330
D77
100
AcDbEntity
  8
0
100
AcDbBlockEnd
  0
BLOCK
  5
D90
330
D85
100
AcDbEntity
  8
0
100
AcDbBlockBegin
  2
*D10
 70
     1
 10
0.0
 20
0.0
 30
0.0
  3
*D10
  1

  0
LINE
  5
2FF2
330
D85
100
AcDbEntity
  8
DIM
 62
     0
370
    -2
100
AcDbLine
 10
10.13184979323844
 20
11.85952983942009
 30
0.0
 11
10.13184979323844
 21
15.04481362320387
 31
0.0
  0
LINE
  5
2FF3
330
D85
100
AcDbEntity
  8
DIM
 62
     0
370
    -2
100
AcDbLine
 10
4.697849793238443
 20
11.85952983942009
 30
0.0
 11
4.697849793238443
 21
15.04481362320387
 31
0.0
  0
LINE
  5
2FF4
330
D85
100
AcDbEntity
  8
DIM
 62
     0
370
    -2
100
AcDbLine
 10
9.681849793238445
 20
14.81231362320387
 30
0.0
 11
8.108599793238443
 21
14.81231362320387
 31
0.0
  0
LINE
  5
2FF5
330
D85
100
AcDbEntity
  8
DIM
 62
     0
370
    -2
100
AcDbLine
 10
5.147849793238443
 20
14.81231362320387
 30
0.0
 11
6.721099793238444
 21
14.81231362320387
 31
0.0
  0
SOLID
  5
2FF6
330
D85
100
AcDbEntity
  8
DIM
 62
     0
100
AcDbTrace
 10
9.681849793238445
 20
14.88731362320387
 30
0.0
 11
9.681849793238445
 21
14.73731362320387
 31
0.0
 12
10.13184979323844
 22
14.81231362320387
 32
0.0
 13
10.13184979323844
 23
14.81231362320387
 33
0.0
  0
SOLID
  5
2FF7
330
D85
100
AcDbEntity
  8
DIM
 62
     0
100
AcDbTrace
 10
5.147849793238443
 20
14.88731362320387
 30
0.0
 11
5.147849793238443
 21
14.73731362320387
 31
0.0
 12
4.697849793238443
 22
14.81231362320387
 32
0.0
 13
4.697849793238443
 23
14.81231362320387
 33
0.0
  0
MTEXT
  5
2FF8
330
D85
100
AcDbEntity
  8
DIM
 62
     0
100
AcDbMText
 10
7.414849793238444
 20
14.81231362320387
 30
0.0
 40
0.3125
 41
0.0
 71
     5
 72
     1
  1
\A1;5.434
 73
     1
 44
1.0
  0
POINT
  5
2FF9
330
D85
100
AcDbEntity
  8
DEFPOINTS
 62
     0
100
AcDbPoint
 10
10.13184979323844
 20
11.70202983942009
 30
0.0
  0
POINT
  5
2FFA
330
D85
100
AcDbEntity
  8
DEFPOINTS
 62
     0
100
AcDbPoint
 10
4.697849793238443
 20
11.70202983942009
 30
0.0
  0
POINT
  5
2FFB
330
D85
100
AcDbEntity
  8
DEFPOINTS
 62
     0
100
AcDbPoint
 10
4.697849793238443
 20
14.81231362320387
 30
0.0
  0
ENDBLK
  5
D91
330
D85
100
AcDbEntity
  8
0
100
AcDbBlockEnd
  0
BLOCK
  5
D9E
330
D93
100
AcDbEntity
  8
0
100
AcDbBlockBegin
  2
*D11
 70
     1
 10
0.0
 20
0.0
 30
0.0
  3
*D11
  1

  0
LINE
  5
2FE8
330
D93
100
AcDbEntity
  8
DIM
 62
     0
370
    -2
100
AcDbLine
 10
4.697849793238443
 20
11.85952983942009
 30
0.0
 11
4.697849793238443
 21
15.04481362320387
 31
0.0
  0
LINE
  5
2FE9
330
D93
100
AcDbEntity
  8
DIM
 62
     0
370
    -2
100
AcDbLine
 10
4.264849793238443
 20
12.86952983942009
 30
0.0
 11
4.264849793238443
 21
15.04481362320387
 31
0.0
  0
LINE
  5
2FEA
330
D93
100
AcDbEntity
  8
DIM
 62
     0
370
    -2
100
AcDbLine
 10
5.147849793238443
 20
14.81231362320387
 30
0.0
 11
5.597849793238443
 21
14.81231362320387
 31
0.0
  0
LINE
  5
2FEB
330
D93
100
AcDbEntity
  8
DIM
 62
     0
370
    -2
100
AcDbLine
 10
3.814849793238443
 20
14.81231362320387
 30
0.0
 11
3.364849793238443
 21
14.81231362320387
 31
0.0
  0
SOLID
  5
2FEC
330
D93
100
AcDbEntity
  8
DIM
 62
     0
100
AcDbTrace
 10
5.147849793238443
 20
14.88731362320387
 30
0.0
 11
5.147849793238443
 21
14.73731362320387
 31
0.0
 12
4.697849793238443
 22
14.81231362320387
 32
0.0
 13
4.697849793238443
 23
14.81231362320387
 33
0.0
  0
SOLID
  5
2FED
330
D93
100
AcDbEntity
  8
DIM
 62
     0
100
AcDbTrace
 10
3.814849793238443
 20
14.88731362320387
 30
0.0
 11
3.814849793238443
 21
14.73731362320387
 31
0.0
 12
4.264849793238443
 22
14.81231362320387
 32
0.0
 13
4.264849793238443
 23
14.81231362320387
 33
0.0
  0
MTEXT
  5
2FEE
330
D93
100
AcDbEntity
  8
DIM
 62
     0
100
AcDbMText
 10
2.690631043238443
 20
14.81231362320387
 30
0.0
 40
0.3125
 41
0.0
 71
     5
 72
     1
  1
\A1;0.433
 73
     1
 44
1.0
  0
POINT
  5
2FEF
330
D93
100
AcDbEntity
  8
DEFPOINTS
 62
     0
100
AcDbPoint
 10
4.697849793238443
 20
11.70202983942009
 30
0.0
  0
POINT
  5
2FF0
330
D93
100
AcDbEntity
  8
DEFPOINTS
 62
     0
100
AcDbPoint
 10
4.264849793238443
 20
12.71202983942009
 30
0.0
  0
POINT
  5
2FF1
330
D93
100
AcDbEntity
  8
DEFPOINTS
 62
     0
100
AcDbPoint
 10
4.264849793238443
 20
14.81231362320387
 30
0.0
  0
ENDBLK
  5
D9F
330
D93
100
AcDbEntity
  8
0
100
AcDbBlockEnd
  0
BLOCK
  5
DAC
330
DA1
100
AcDbEntity
  8
0
100
AcDbBlockBegin
  2
*D12
 70
     1
 10
0.0
 20
0.0
 30
0.0
  3
*D12
  1

  0
LINE
  5
30BC
330
DA1
100
AcDbEntity
  8
DIM
 62
     0
370
    -2
100
AcDbLine
 10
10.28934979323844
 20
9.812029839420091
 30
0.0
 11
11.44863079323844
 21
9.812029839420091
 31
0.0
  0
LINE
  5
30BD
330
DA1
100
AcDbEntity
  8
DIM
 62
     0
370
    -2
100
AcDbLine
 10
10.28934979323844
 20
11.34802983942009
 30
0.0
 11
11.44863079323844
 21
11.34802983942009
 31
0.0
  0
LINE
  5
30BE
330
DA1
100
AcDbEntity
  8
DIM
 62
     0
370
    -2
100
AcDbLine
 10
11.21613079323844
 20
9.362029839420092
 30
0.0
 11
11.21613079323844
 21
8.912029839420091
 31
0.0
  0
LINE
  5
30BF
330
DA1
100
AcDbEntity
  8
DIM
 62
     0
370
    -2
100
AcDbLine
 10
11.21613079323844
 20
11.79802983942009
 30
0.0
 11
11.21613079323844
 21
12.24802983942009
 31
0.0
  0
SOLID
  5
30C0
330
DA1
100
AcDbEntity
  8
DIM
 62
     0
100
AcDbTrace
 10
11.14113079323844
 20
9.362029839420092
 30
0.0
 11
11.29113079323844
 21
9.362029839420092
 31
0.0
 12
11.21613079323844
 22
9.812029839420091
 32
0.0
 13
11.21613079323844
 23
9.812029839420091
 33
0.0
  0
SOLID
  5
30C1
330
DA1
100
AcDbEntity
  8
DIM
 62
     0
100
AcDbTrace
 10
11.14113079323844
 20
11.79802983942009
 30
0.0
 11
11.29113079323844
 21
11.79802983942009
 31
0.0
 12
11.21613079323844
 22
11.34802983942009
 32
0.0
 13
11.21613079323844
 23
11.34802983942009
 33
0.0
  0
MTEXT
  5
30C2
330
DA1
100
AcDbEntity
  8
DIM
 62
     0
100
AcDbMText
 10
11.21613079323844
 20
10.58002983942009
 30
0.0
 40
0.3125
 41
0.0
 71
     5
 72
     1
  1
\A1;1.536
 73
     1
 44
1.0
  0
POINT
  5
30C3
330
DA1
100
AcDbEntity
  8
DEFPOINTS
 62
     0
100
AcDbPoint
 10
10.13184979323844
 20
9.812029839420091
 30
0.0
  0
POINT
  5
30C4
330
DA1
100
AcDbEntity
  8
DEFPOINTS
 62
     0
100
AcDbPoint
 10
10.13184979323844
 20
11.34802983942009
 30
0.0
  0
POINT
  5
30C5
330
DA1
100
AcDbEntity
  8
DEFPOINTS
 62
     0
100
AcDbPoint
 10
11.21613079323844
 20
11.34802983942009
 30
0.0
  0
ENDBLK
  5
DAD
330
DA1
100
AcDbEntity
  8
0
100
AcDbBlockEnd
  0
BLOCK
  5
DBA
330
DAF
100
AcDbEntity
  8
0
100
AcDbBlockBegin
  2
*D13
 70
     1
 10
0.0
 20
0.0
 30
0.0
  3
*D13
  1

  0
LINE
  5
30D0
330
DAF
100
AcDbEntity
  8
DIM
 62
     0
370
    -2
100
AcDbLine
 10
10.28934979323844
 20
9.812029839420091
 30
0.0
 11
13.03763079323844
 21
9.812029839420089
 31
0.0
  0
LINE
  5
30D1
330
DAF
100
AcDbEntity
  8
DIM
 62
     0
370
    -2
100
AcDbLine
 10
10.28934979323844
 20
11.70202983942009
 30
0.0
 11
13.03763079323844
 21
11.70202983942009
 31
0.0
  0
LINE
  5
30D2
330
DAF
100
AcDbEntity
  8
DIM
 62
     0
370
    -2
100
AcDbLine
 10
12.80513079323844
 20
10.26202983942009
 30
0.0
 11
12.80513079323844
 21
10.37577983942009
 31
0.0
  0
LINE
  5
30D3
330
DAF
100
AcDbEntity
  8
DIM
 62
     0
370
    -2
100
AcDbLine
 10
12.80513079323844
 20
11.25202983942009
 30
0.0
 11
12.80513079323844
 21
11.13827983942009
 31
0.0
  0
SOLID
  5
30D4
330
DAF
100
AcDbEntity
  8
DIM
 62
     0
100
AcDbTrace
 10
12.73013079323844
 20
10.26202983942009
 30
0.0
 11
12.88013079323844
 21
10.26202983942009
 31
0.0
 12
12.80513079323844
 22
9.812029839420089
 32
0.0
 13
12.80513079323844
 23
9.812029839420089
 33
0.0
  0
SOLID
  5
30D5
330
DAF
100
AcDbEntity
  8
DIM
 62
     0
100
AcDbTrace
 10
12.73013079323844
 20
11.25202983942009
 30
0.0
 11
12.88013079323844
 21
11.25202983942009
 31
0.0
 12
12.80513079323844
 22
11.70202983942009
 32
0.0
 13
12.80513079323844
 23
11.70202983942009
 33
0.0
  0
MTEXT
  5
30D6
330
DAF
100
AcDbEntity
  8
DIM
 62
     0
100
AcDbMText
 10
12.80513079323844
 20
10.75702983942009
 30
0.0
 40
0.3125
 41
0.0
 71
     5
 72
     1
  1
\A1;1.890
 73
     1
 44
1.0
  0
POINT
  5
30D7
330
DAF
100
AcDbEntity
  8
DEFPOINTS
 62
     0
100
AcDbPoint
 10
10.13184979323844
 20
9.812029839420091
 30
0.0
  0
POINT
  5
30D8
330
DAF
100
AcDbEntity
  8
DEFPOINTS
 62
     0
100
AcDbPoint
 10
10.13184979323844
 20
11.70202983942009
 30
0.0
  0
POINT
  5
30D9
330
DAF
100
AcDbEntity
  8
DEFPOINTS
 62
     0
100
AcDbPoint
 10
12.80513079323844
 20
11.70202983942009
 30
0.0
  0
ENDBLK
  5
DBB
330
DAF
100
AcDbEntity
  8
0
100
AcDbBlockEnd
  0
BLOCK
  5
DC8
330
DBD
100
AcDbEntity
  8
0
100
AcDbBlockBegin
  2
*D14
 70
     1
 10
0.0
 20
0.0
 30
0.0
  3
*D14
  1

  0
LINE
  5
30A8
330
DBD
100
AcDbEntity
  8
DIM
 62
     0
370
    -2
100
AcDbLine
 10
10.28934979323844
 20
9.812029839420091
 30
0.0
 11
12.24313079323844
 21
9.812029839420089
 31
0.0
  0
LINE
  5
30A9
330
DBD
100
AcDbEntity
  8
DIM
 62
     0
370
    -2
100
AcDbLine
 10
10.28934979323844
 20
8.276029839420091
 30
0.0
 11
12.24313079323844
 21
8.27602983942009
 31
0.0
  0
LINE
  5
30AA
330
DBD
100
AcDbEntity
  8
DIM
 62
     0
370
    -2
100
AcDbLine
 10
12.01063079323844
 20
10.26202983942009
 30
0.0
 11
12.01063079323844
 21
10.71202983942008
 31
0.0
  0
LINE
  5
30AB
330
DBD
100
AcDbEntity
  8
DIM
 62
     0
370
    -2
100
AcDbLine
 10
12.01063079323844
 20
7.82602983942009
 30
0.0
 11
12.01063079323844
 21
7.37602983942009
 31
0.0
  0
SOLID
  5
30AC
330
DBD
100
AcDbEntity
  8
DIM
 62
     0
100
AcDbTrace
 10
11.93563079323844
 20
10.26202983942009
 30
0.0
 11
12.08563079323844
 21
10.26202983942009
 31
0.0
 12
12.01063079323844
 22
9.812029839420089
 32
0.0
 13
12.01063079323844
 23
9.812029839420089
 33
0.0
  0
SOLID
  5
30AD
330
DBD
100
AcDbEntity
  8
DIM
 62
     0
100
AcDbTrace
 10
11.93563079323844
 20
7.82602983942009
 30
0.0
 11
12.08563079323844
 21
7.82602983942009
 31
0.0
 12
12.01063079323844
 22
8.27602983942009
 32
0.0
 13
12.01063079323844
 23
8.27602983942009
 33
0.0
  0
MTEXT
  5
30AE
330
DBD
100
AcDbEntity
  8
DIM
 62
     0
100
AcDbMText
 10
12.01063079323844
 20
9.044029839420094
 30
0.0
 40
0.3125
 41
0.0
 71
     5
 72
     1
  1
\A1;1.536
 73
     1
 44
1.0
  0
POINT
  5
30AF
330
DBD
100
AcDbEntity
  8
DEFPOINTS
 62
     0
100
AcDbPoint
 10
10.13184979323844
 20
9.812029839420091
 30
0.0
  0
POINT
  5
30B0
330
DBD
100
AcDbEntity
  8
DEFPOINTS
 62
     0
100
AcDbPoint
 10
10.13184979323844
 20
8.276029839420091
 30
0.0
  0
POINT
  5
30B1
330
DBD
100
AcDbEntity
  8
DEFPOINTS
 62
     0
100
AcDbPoint
 10
12.01063079323844
 20
8.27602983942009
 30
0.0
  0
ENDBLK
  5
DC9
330
DBD
100
AcDbEntity
  8
0
100
AcDbBlockEnd
  0
BLOCK
  5
DD6
330
DCB
100
AcDbEntity
  8
0
100
AcDbBlockBegin
  2
*D15
 70
     1
 10
0.0
 20
0.0
 30
0.0
  3
*D15
  1

  0
LINE
  5
309E
330
DCB
100
AcDbEntity
  8
DIM
 62
     0
370
    -2
100
AcDbLine
 10
10.28934979323844
 20
9.812029839420091
 30
0.0
 11
14.01813079323844
 21
9.812029839420089
 31
0.0
  0
LINE
  5
309F
330
DCB
100
AcDbEntity
  8
DIM
 62
     0
370
    -2
100
AcDbLine
 10
10.28934979323844
 20
7.92202983942009
 30
0.0
 11
14.01813079323844
 21
7.92202983942009
 31
0.0
  0
LINE
  5
30A0
330
DCB
100
AcDbEntity
  8
DIM
 62
     0
370
    -2
100
AcDbLine
 10
13.78563079323844
 20
9.36202983942009
 30
0.0
 11
13.78563079323844
 21
9.248279839420089
 31
0.0
  0
LINE
  5
30A1
330
DCB
100
AcDbEntity
  8
DIM
 62
     0
370
    -2
100
AcDbLine
 10
13.78563079323844
 20
8.37202983942009
 30
0.0
 11
13.78563079323844
 21
8.485779839420089
 31
0.0
  0
SOLID
  5
30A2
330
DCB
100
AcDbEntity
  8
DIM
 62
     0
100
AcDbTrace
 10
13.71063079323844
 20
9.36202983942009
 30
0.0
 11
13.86063079323844
 21
9.36202983942009
 31
0.0
 12
13.78563079323844
 22
9.812029839420089
 32
0.0
 13
13.78563079323844
 23
9.812029839420089
 33
0.0
  0
SOLID
  5
30A3
330
DCB
100
AcDbEntity
  8
DIM
 62
     0
100
AcDbTrace
 10
13.71063079323844
 20
8.37202983942009
 30
0.0
 11
13.86063079323844
 21
8.37202983942009
 31
0.0
 12
13.78563079323844
 22
7.92202983942009
 32
0.0
 13
13.78563079323844
 23
7.92202983942009
 33
0.0
  0
MTEXT
  5
30A4
330
DCB
100
AcDbEntity
  8
DIM
 62
     0
100
AcDbMText
 10
13.78563079323844
 20
8.867029839420093
 30
0.0
 40
0.3125
 41
0.0
 71
     5
 72
     1
  1
\A1;1.890
 73
     1
 44
1.0
  0
POINT
  5
30A5
330
DCB
100
AcDbEntity
  8
DEFPOINTS
 62
     0
100
AcDbPoint
 10
10.13184979323844
 20
9.812029839420091
 30
0.0
  0
POINT
  5
30A6
330
DCB
100
AcDbEntity
  8
DEFPOINTS
 62
     0
100
AcDbPoint
 10
10.13184979323844
 20
7.92202983942009
 30
0.0
  0
POINT
  5
30A7
330
DCB
100
AcDbEntity
  8
DEFPOINTS
 62
     0
100
AcDbPoint
 10
13.78563079323844
 20
7.92202983942009
 30
0.0
  0
ENDBLK
  5
DD7
330
DCB
100
AcDbEntity
  8
0
100
AcDbBlockEnd
  0
BLOCK
  5
DE4
330
DD9
100
AcDbEntity
  8
0
100
AcDbBlockBegin
  2
*D16
 70
     1
 10
0.0
 20
0.0
 30
0.0
  3
*D16
  1

  0
LINE
  5
308A
330
DD9
100
AcDbEntity
  8
DIM
 62
     0
370
    -2
100
AcDbLine
 10
4.383349793238443
 20
7.331029839420093
 30
0.0
 11
1.911099073240565
 21
7.331029839420094
 31
0.0
  0
LINE
  5
308B
330
DD9
100
AcDbEntity
  8
DIM
 62
     0
370
    -2
100
AcDbLine
 10
4.383349793238443
 20
12.29302983942009
 30
0.0
 11
1.911099073240566
 21
12.29302983942009
 31
0.0
  0
LINE
  5
308C
330
DD9
100
AcDbEntity
  8
DIM
 62
     0
370
    -2
100
AcDbLine
 10
2.143599073240565
 20
7.781029839420093
 30
0.0
 11
2.143599073240565
 21
9.430779839420095
 31
0.0
  0
LINE
  5
308D
330
DD9
100
AcDbEntity
  8
DIM
 62
     0
370
    -2
100
AcDbLine
 10
2.143599073240566
 20
11.84302983942009
 30
0.0
 11
2.143599073240565
 21
10.19327983942009
 31
0.0
  0
SOLID
  5
308E
330
DD9
100
AcDbEntity
  8
DIM
 62
     0
100
AcDbTrace
 10
2.068599073240565
 20
7.781029839420093
 30
0.0
 11
2.218599073240565
 21
7.781029839420093
 31
0.0
 12
2.143599073240565
 22
7.331029839420093
 32
0.0
 13
2.143599073240565
 23
7.331029839420093
 33
0.0
  0
SOLID
  5
308F
330
DD9
100
AcDbEntity
  8
DIM
 62
     0
100
AcDbTrace
 10
2.068599073240565
 20
11.84302983942009
 30
0.0
 11
2.218599073240566
 21
11.84302983942009
 31
0.0
 12
2.143599073240566
 22
12.29302983942009
 32
0.0
 13
2.143599073240566
 23
12.29302983942009
 33
0.0
  0
MTEXT
  5
3090
330
DD9
100
AcDbEntity
  8
DIM
 62
     0
100
AcDbMText
 10
2.143599073240563
 20
9.812029839420095
 30
0.0
 40
0.3125
 41
0.0
 71
     5
 72
     1
  1
\A1;4.962
 73
     1
 44
1.0
  0
POINT
  5
3091
330
DD9
100
AcDbEntity
  8
DEFPOINTS
 62
     0
100
AcDbPoint
 10
4.540849793238443
 20
7.331029839420093
 30
0.0
  0
POINT
  5
3092
330
DD9
100
AcDbEntity
  8
DEFPOINTS
 62
     0
100
AcDbPoint
 10
4.540849793238443
 20
12.29302983942009
 30
0.0
  0
POINT
  5
3093
330
DD9
100
AcDbEntity
  8
DEFPOINTS
 62
     0
100
AcDbPoint
 10
2.143599073240566
 20
12.29302983942009
 30
0.0
  0
ENDBLK
  5
DE5
330
DD9
100
AcDbEntity
  8
0
100
AcDbBlockEnd
  0
BLOCK
  5
DF2
330
DE7
100
AcDbEntity
  8
0
100
AcDbBlockBegin
  2
*D17
 70
     1
 10
0.0
 20
0.0
 30
0.0
  3
*D17
  1

  0
LINE
  5
302F
330
DE7
100
AcDbEntity
  8
DIM
 62
     0
370
    -2
100
AcDbLine
 10
4.383349793238443
 20
12.29302983942009
 30
0.0
 11
1.911099073240565
 21
12.29302983942009
 31
0.0
  0
LINE
  5
3030
330
DE7
100
AcDbEntity
  8
DIM
 62
     0
370
    -2
100
AcDbLine
 10
4.357349793238443
 20
12.96202983942009
 30
0.0
 11
1.911099073240565
 21
12.96202983942009
 31
0.0
  0
LINE
  5
3031
330
DE7
100
AcDbEntity
  8
DIM
 62
     0
370
    -2
100
AcDbLine
 10
2.143599073240565
 20
11.84302983942009
 30
0.0
 11
2.143599073240565
 21
11.39302983942009
 31
0.0
  0
LINE
  5
3032
330
DE7
100
AcDbEntity
  8
DIM
 62
     0
370
    -2
100
AcDbLine
 10
2.143599073240566
 20
13.41202983942009
 30
0.0
 11
2.143599073240566
 21
13.86202983942009
 31
0.0
  0
SOLID
  5
3033
330
DE7
100
AcDbEntity
  8
DIM
 62
     0
100
AcDbTrace
 10
2.068599073240565
 20
11.84302983942009
 30
0.0
 11
2.218599073240565
 21
11.84302983942009
 31
0.0
 12
2.143599073240565
 22
12.29302983942009
 32
0.0
 13
2.143599073240565
 23
12.29302983942009
 33
0.0
  0
SOLID
  5
3034
330
DE7
100
AcDbEntity
  8
DIM
 62
     0
100
AcDbTrace
 10
2.068599073240565
 20
13.41202983942009
 30
0.0
 11
2.218599073240566
 21
13.41202983942009
 31
0.0
 12
2.143599073240565
 22
12.96202983942009
 32
0.0
 13
2.143599073240565
 23
12.96202983942009
 33
0.0
  0
MTEXT
  5
3035
330
DE7
100
AcDbEntity
  8
DIM
 62
     0
100
AcDbMText
 10
2.143599073240563
 20
12.62752983942009
 30
0.0
 40
0.3125
 41
0.0
 71
     5
 72
     1
  1
\A1;0.669
 73
     1
 44
1.0
  0
POINT
  5
3036
330
DE7
100
AcDbEntity
  8
DEFPOINTS
 62
     0
100
AcDbPoint
 10
4.540849793238443
 20
12.29302983942009
 30
0.0
  0
POINT
  5
3037
330
DE7
100
AcDbEntity
  8
DEFPOINTS
 62
     0
100
AcDbPoint
 10
4.514849793238443
 20
12.96202983942009
 30
0.0
  0
POINT
  5
3038
330
DE7
100
AcDbEntity
  8
DEFPOINTS
 62
     0
100
AcDbPoint
 10
2.143599073240565
 20
12.96202983942009
 30
0.0
  0
ENDBLK
  5
DF3
330
DE7
100
AcDbEntity
  8
0
100
AcDbBlockEnd
  0
BLOCK
  5
E00
330
DF5
100
AcDbEntity
  8
0
100
AcDbBlockBegin
  2
*D18
 70
     1
 10
0.0
 20
0.0
 30
0.0
  3
*D18
  1

  0
LINE
  5
3094
330
DF5
100
AcDbEntity
  8
DIM
 62
     0
370
    -2
100
AcDbLine
 10
10.44634979323844
 20
6.938029839420091
 30
0.0
 11
14.99863079323843
 21
6.93802983942009
 31
0.0
  0
LINE
  5
3095
330
DF5
100
AcDbEntity
  8
DIM
 62
     0
370
    -2
100
AcDbLine
 10
10.44634979323844
 20
12.68602983942009
 30
0.0
 11
14.99863079323844
 21
12.68602983942009
 31
0.0
  0
LINE
  5
3096
330
DF5
100
AcDbEntity
  8
DIM
 62
     0
370
    -2
100
AcDbLine
 10
14.76613079323843
 20
7.388029839420091
 30
0.0
 11
14.76613079323843
 21
9.430779839420091
 31
0.0
  0
LINE
  5
3097
330
DF5
100
AcDbEntity
  8
DIM
 62
     0
370
    -2
100
AcDbLine
 10
14.76613079323844
 20
12.23602983942009
 30
0.0
 11
14.76613079323843
 21
10.19327983942009
 31
0.0
  0
SOLID
  5
3098
330
DF5
100
AcDbEntity
  8
DIM
 62
     0
100
AcDbTrace
 10
14.69113079323844
 20
7.388029839420091
 30
0.0
 11
14.84113079323843
 21
7.388029839420091
 31
0.0
 12
14.76613079323843
 22
6.93802983942009
 32
0.0
 13
14.76613079323843
 23
6.93802983942009
 33
0.0
  0
SOLID
  5
3099
330
DF5
100
AcDbEntity
  8
DIM
 62
     0
100
AcDbTrace
 10
14.69113079323844
 20
12.23602983942009
 30
0.0
 11
14.84113079323844
 21
12.23602983942009
 31
0.0
 12
14.76613079323844
 22
12.68602983942009
 32
0.0
 13
14.76613079323844
 23
12.68602983942009
 33
0.0
  0
MTEXT
  5
309A
330
DF5
100
AcDbEntity
  8
DIM
 62
     0
100
AcDbMText
 10
14.76613079323843
 20
9.812029839420093
 30
0.0
 40
0.3125
 41
0.0
 71
     5
 72
     1
  1
\A1;5.748
 73
     1
 44
1.0
  0
POINT
  5
309B
330
DF5
100
AcDbEntity
  8
DEFPOINTS
 62
     0
100
AcDbPoint
 10
10.28884979323844
 20
6.938029839420091
 30
0.0
  0
POINT
  5
309C
330
DF5
100
AcDbEntity
  8
DEFPOINTS
 62
     0
100
AcDbPoint
 10
10.28884979323844
 20
12.68602983942009
 30
0.0
  0
POINT
  5
309D
330
DF5
100
AcDbEntity
  8
DEFPOINTS
 62
     0
100
AcDbPoint
 10
14.76613079323844
 20
12.68602983942009
 30
0.0
  0
ENDBLK
  5
E01
330
DF5
100
AcDbEntity
  8
0
100
AcDbBlockEnd
  0
BLOCK
  5
E0E
330
E03
100
AcDbEntity
  8
0
100
AcDbBlockBegin
  2
*D19
 70
     1
 10
0.0
 20
0.0
 30
0.0
  3
*D19
  1

  0
LINE
  5
2FDD
330
E03
100
AcDbEntity
  8
DIM
 62
     0
370
    -2
100
AcDbLine
 10
10.44634979323844
 20
12.68602983942009
 30
0.0
 11
14.99863079323844
 21
12.68602983942009
 31
0.0
  0
LINE
  5
2FDE
330
E03
100
AcDbEntity
  8
DIM
 62
     0
370
    -2
100
AcDbLine
 10
10.47234979323844
 20
12.96202983942009
 30
0.0
 11
14.99863079323844
 21
12.96202983942009
 31
0.0
  0
LINE
  5
2FDF
330
E03
100
AcDbEntity
  8
DIM
 62
     0
370
    -2
100
AcDbLine
 10
14.76613079323844
 20
12.23602983942009
 30
0.0
 11
14.76613079323843
 21
11.78602983942009
 31
0.0
  0
LINE
  5
2FE0
330
E03
100
AcDbEntity
  8
DIM
 62
     0
370
    -2
100
AcDbLine
 10
14.76613079323844
 20
13.41202983942008
 30
0.0
 11
14.76613079323844
 21
13.86202983942009
 31
0.0
  0
LINE
  5
2FE1
330
E03
100
AcDbEntity
  8
DIM
 62
     0
370
    -2
100
AcDbLine
 10
14.76613079323844
 20
13.86202983942009
 30
0.0
 11
15.21613079323843
 21
13.86202983942009
 31
0.0
  0
SOLID
  5
2FE2
330
E03
100
AcDbEntity
  8
DIM
 62
     0
100
AcDbTrace
 10
14.69113079323844
 20
12.23602983942009
 30
0.0
 11
14.84113079323844
 21
12.23602983942009
 31
0.0
 12
14.76613079323844
 22
12.68602983942009
 32
0.0
 13
14.76613079323844
 23
12.68602983942009
 33
0.0
  0
SOLID
  5
2FE3
330
E03
100
AcDbEntity
  8
DIM
 62
     0
100
AcDbTrace
 10
14.69113079323844
 20
13.41202983942008
 30
0.0
 11
14.84113079323844
 21
13.41202983942008
 31
0.0
 12
14.76613079323844
 22
12.96202983942009
 32
0.0
 13
14.76613079323844
 23
12.96202983942009
 33
0.0
  0
MTEXT
  5
2FE4
330
E03
100
AcDbEntity
  8
DIM
 62
     0
100
AcDbMText
 10
15.89034954323843
 20
13.86202983942009
 30
0.0
 40
0.3125
 41
0.0
 71
     5
 72
     1
  1
\A1;0.276
 73
     1
 44
1.0
  0
POINT
  5
2FE5
330
E03
100
AcDbEntity
  8
DEFPOINTS
 62
     0
100
AcDbPoint
 10
10.28884979323844
 20
12.68602983942009
 30
0.0
  0
POINT
  5
2FE6
330
E03
100
AcDbEntity
  8
DEFPOINTS
 62
     0
100
AcDbPoint
 10
10.31484979323844
 20
12.96202983942009
 30
0.0
  0
POINT
  5
2FE7
330
E03
100
AcDbEntity
  8
DEFPOINTS
 62
     0
100
AcDbPoint
 10
14.76613079323844
 20
12.96202983942009
 30
0.0
  0
ENDBLK
  5
E0F
330
E03
100
AcDbEntity
  8
0
100
AcDbBlockEnd
  0
BLOCK
  5
E1C
330
E11
100
AcDbEntity
  8
0
100
AcDbBlockBegin
  2
*D20
 70
     1
 10
0.0
 20
0.0
 30
0.0
  3
*D20
  1

  0
LINE
  5
3080
330
E11
100
AcDbEntity
  8
DIM
 62
     0
370
    -2
100
AcDbLine
 10
4.357349793238443
 20
7.600029839420091
 30
0.0
 11
3.223835793238444
 21
7.600029839420091
 31
0.0
  0
LINE
  5
3081
330
E11
100
AcDbEntity
  8
DIM
 62
     0
370
    -2
100
AcDbLine
 10
4.357349793238443
 20
12.02402983942009
 30
0.0
 11
3.223835793238444
 21
12.02402983942009
 31
0.0
  0
LINE
  5
3082
330
E11
100
AcDbEntity
  8
DIM
 62
     0
370
    -2
100
AcDbLine
 10
3.456335793238443
 20
8.050029839420092
 30
0.0
 11
3.456335793238444
 21
9.430779839420095
 31
0.0
  0
LINE
  5
3083
330
E11
100
AcDbEntity
  8
DIM
 62
     0
370
    -2
100
AcDbLine
 10
3.456335793238444
 20
11.57402983942009
 30
0.0
 11
3.456335793238444
 21
10.19327983942009
 31
0.0
  0
SOLID
  5
3084
330
E11
100
AcDbEntity
  8
DIM
 62
     0
100
AcDbTrace
 10
3.381335793238443
 20
8.050029839420092
 30
0.0
 11
3.531335793238444
 21
8.050029839420092
 31
0.0
 12
3.456335793238443
 22
7.600029839420091
 32
0.0
 13
3.456335793238443
 23
7.600029839420091
 33
0.0
  0
SOLID
  5
3085
330
E11
100
AcDbEntity
  8
DIM
 62
     0
100
AcDbTrace
 10
3.381335793238444
 20
11.57402983942009
 30
0.0
 11
3.531335793238445
 21
11.57402983942009
 31
0.0
 12
3.456335793238444
 22
12.02402983942009
 32
0.0
 13
3.456335793238444
 23
12.02402983942009
 33
0.0
  0
MTEXT
  5
3086
330
E11
100
AcDbEntity
  8
DIM
 62
     0
100
AcDbMText
 10
3.456335793238442
 20
9.812029839420095
 30
0.0
 40
0.3125
 41
0.0
 71
     5
 72
     1
  1
\A1;4.424
 73
     1
 44
1.0
  0
POINT
  5
3087
330
E11
100
AcDbEntity
  8
DEFPOINTS
 62
     0
100
AcDbPoint
 10
4.514849793238443
 20
7.600029839420091
 30
0.0
  0
POINT
  5
3088
330
E11
100
AcDbEntity
  8
DEFPOINTS
 62
     0
100
AcDbPoint
 10
4.514849793238443
 20
12.02402983942009
 30
0.0
  0
POINT
  5
3089
330
E11
100
AcDbEntity
  8
DEFPOINTS
 62
     0
100
AcDbPoint
 10
3.456335793238444
 20
12.02402983942009
 30
0.0
  0
ENDBLK
  5
E1D
330
E11
100
AcDbEntity
  8
0
100
AcDbBlockEnd
  0
BLOCK
  5
E2A
330
E1F
100
AcDbEntity
  8
0
100
AcDbBlockBegin
  2
*D21
 70
     1
 10
0.0
 20
0.0
 30
0.0
  3
*D21
  1

  0
LINE
  5
3039
330
E1F
100
AcDbEntity
  8
DIM
 62
     0
370
    -2
100
AcDbLine
 10
4.357349793238443
 20
12.02402983942009
 30
0.0
 11
3.223835793238444
 21
12.02402983942009
 31
0.0
  0
LINE
  5
303A
330
E1F
100
AcDbEntity
  8
DIM
 62
     0
370
    -2
100
AcDbLine
 10
4.357349793238443
 20
12.96202983942009
 30
0.0
 11
3.223835793238444
 21
12.96202983942009
 31
0.0
  0
LINE
  5
303B
330
E1F
100
AcDbEntity
  8
DIM
 62
     0
370
    -2
100
AcDbLine
 10
3.456335793238443
 20
11.57402983942009
 30
0.0
 11
3.456335793238443
 21
11.12402983942009
 31
0.0
  0
LINE
  5
303C
330
E1F
100
AcDbEntity
  8
DIM
 62
     0
370
    -2
100
AcDbLine
 10
3.456335793238444
 20
13.41202983942009
 30
0.0
 11
3.456335793238444
 21
13.86202983942009
 31
0.0
  0
SOLID
  5
303D
330
E1F
100
AcDbEntity
  8
DIM
 62
     0
100
AcDbTrace
 10
3.381335793238443
 20
11.57402983942009
 30
0.0
 11
3.531335793238444
 21
11.57402983942009
 31
0.0
 12
3.456335793238443
 22
12.02402983942009
 32
0.0
 13
3.456335793238443
 23
12.02402983942009
 33
0.0
  0
SOLID
  5
303E
330
E1F
100
AcDbEntity
  8
DIM
 62
     0
100
AcDbTrace
 10
3.381335793238444
 20
13.41202983942009
 30
0.0
 11
3.531335793238444
 21
13.41202983942009
 31
0.0
 12
3.456335793238443
 22
12.96202983942009
 32
0.0
 13
3.456335793238443
 23
12.96202983942009
 33
0.0
  0
MTEXT
  5
303F
330
E1F
100
AcDbEntity
  8
DIM
 62
     0
100
AcDbMText
 10
3.456335793238442
 20
12.49302983942009
 30
0.0
 40
0.3125
 41
0.0
 71
     5
 72
     1
  1
\A1;0.938
 73
     1
 44
1.0
  0
POINT
  5
3040
330
E1F
100
AcDbEntity
  8
DEFPOINTS
 62
     0
100
AcDbPoint
 10
4.514849793238443
 20
12.02402983942009
 30
0.0
  0
POINT
  5
3041
330
E1F
100
AcDbEntity
  8
DEFPOINTS
 62
     0
100
AcDbPoint
 10
4.514849793238443
 20
12.96202983942009
 30
0.0
  0
POINT
  5
3042
330
E1F
100
AcDbEntity
  8
DEFPOINTS
 62
     0
100
AcDbPoint
 10
3.456335793238443
 20
12.96202983942009
 30
0.0
  0
ENDBLK
  5
E2B
330
E1F
100
AcDbEntity
  8
0
100
AcDbBlockEnd
  0
BLOCK
  5
E38
330
E2D
100
AcDbEntity
  8
0
100
AcDbBlockBegin
  2
*D22
 70
     1
 10
0.0
 20
0.0
 30
0.0
  3
*D22
  1

  0
LINE
  5
306C
330
E2D
100
AcDbEntity
  8
DIM
 62
     0
370
    -2
100
AcDbLine
 10
4.357349793238443
 20
12.96202983942009
 30
0.0
 11
0.69859907324057
 21
12.96202983942009
 31
0.0
  0
LINE
  5
306D
330
E2D
100
AcDbEntity
  8
DIM
 62
     0
370
    -2
100
AcDbLine
 10
4.357349793238443
 20
6.662029839420092
 30
0.0
 11
0.6985990732405686
 21
6.662029839420092
 31
0.0
  0
LINE
  5
306E
330
E2D
100
AcDbEntity
  8
DIM
 62
     0
370
    -2
100
AcDbLine
 10
0.9310990732405695
 20
12.51202983942009
 30
0.0
 11
0.931099073240569
 21
10.19327983942009
 31
0.0
  0
LINE
  5
306F
330
E2D
100
AcDbEntity
  8
DIM
 62
     0
370
    -2
100
AcDbLine
 10
0.9310990732405684
 20
7.112029839420093
 30
0.0
 11
0.931099073240569
 21
9.430779839420093
 31
0.0
  0
SOLID
  5
3070
330
E2D
100
AcDbEntity
  8
DIM
 62
     0
100
AcDbTrace
 10
0.8560990732405697
 20
12.51202983942009
 30
0.0
 11
1.006099073240569
 21
12.51202983942009
 31
0.0
 12
0.9310990732405697
 22
12.96202983942009
 32
0.0
 13
0.9310990732405697
 23
12.96202983942009
 33
0.0
  0
SOLID
  5
3071
330
E2D
100
AcDbEntity
  8
DIM
 62
     0
100
AcDbTrace
 10
0.8560990732405684
 20
7.112029839420093
 30
0.0
 11
1.006099073240568
 21
7.112029839420093
 31
0.0
 12
0.9310990732405683
 22
6.662029839420092
 32
0.0
 13
0.9310990732405683
 23
6.662029839420092
 33
0.0
  0
MTEXT
  5
3072
330
E2D
100
AcDbEntity
  8
DIM
 62
     0
100
AcDbMText
 10
0.9310990732405674
 20
9.812029839420093
 30
0.0
 40
0.3125
 41
0.0
 71
     5
 72
     1
  1
\A1;6.300
 73
     1
 44
1.0
  0
POINT
  5
3073
330
E2D
100
AcDbEntity
  8
DEFPOINTS
 62
     0
100
AcDbPoint
 10
4.514849793238443
 20
12.96202983942009
 30
0.0
  0
POINT
  5
3074
330
E2D
100
AcDbEntity
  8
DEFPOINTS
 62
     0
100
AcDbPoint
 10
4.514849793238443
 20
6.662029839420092
 30
0.0
  0
POINT
  5
3075
330
E2D
100
AcDbEntity
  8
DEFPOINTS
 62
     0
100
AcDbPoint
 10
0.9310990732405683
 20
6.662029839420092
 30
0.0
  0
ENDBLK
  5
E39
330
E2D
100
AcDbEntity
  8
0
100
AcDbBlockEnd
  0
BLOCK
  5
E46
330
E3B
100
AcDbEntity
  8
0
100
AcDbBlockBegin
  2
*D23
 70
     1
 10
0.0
 20
0.0
 30
0.0
  3
*D23
  1

  0
LINE
  5
3076
330
E3B
100
AcDbEntity
  8
DIM
 62
     0
370
    -2
100
AcDbLine
 10
7.257349793238444
 20
7.055029839420091
 30
0.0
 11
6.339566793238442
 21
7.055029839420091
 31
0.0
  0
LINE
  5
3077
330
E3B
100
AcDbEntity
  8
DIM
 62
     0
370
    -2
100
AcDbLine
 10
7.257349793238444
 20
12.56902983942009
 30
0.0
 11
6.339566793238443
 21
12.56902983942009
 31
0.0
  0
LINE
  5
3078
330
E3B
100
AcDbEntity
  8
DIM
 62
     0
370
    -2
100
AcDbLine
 10
6.572066793238442
 20
7.505029839420092
 30
0.0
 11
6.572066793238442
 21
9.430779839420093
 31
0.0
  0
LINE
  5
3079
330
E3B
100
AcDbEntity
  8
DIM
 62
     0
370
    -2
100
AcDbLine
 10
6.572066793238443
 20
12.11902983942009
 30
0.0
 11
6.572066793238443
 21
10.19327983942009
 31
0.0
  0
SOLID
  5
307A
330
E3B
100
AcDbEntity
  8
DIM
 62
     0
100
AcDbTrace
 10
6.497066793238442
 20
7.505029839420092
 30
0.0
 11
6.647066793238442
 21
7.505029839420092
 31
0.0
 12
6.572066793238442
 22
7.055029839420091
 32
0.0
 13
6.572066793238442
 23
7.055029839420091
 33
0.0
  0
SOLID
  5
307B
330
E3B
100
AcDbEntity
  8
DIM
 62
     0
100
AcDbTrace
 10
6.497066793238443
 20
12.11902983942009
 30
0.0
 11
6.647066793238443
 21
12.11902983942009
 31
0.0
 12
6.572066793238443
 22
12.56902983942009
 32
0.0
 13
6.572066793238443
 23
12.56902983942009
 33
0.0
  0
MTEXT
  5
307C
330
E3B
100
AcDbEntity
  8
DIM
 62
     0
100
AcDbMText
 10
6.572066793238441
 20
9.812029839420095
 30
0.0
 40
0.3125
 41
0.0
 71
     5
 72
     1
  1
\A1;5.514
 73
     1
 44
1.0
  0
POINT
  5
307D
330
E3B
100
AcDbEntity
  8
DEFPOINTS
 62
     0
100
AcDbPoint
 10
7.414849793238444
 20
7.055029839420091
 30
0.0
  0
POINT
  5
307E
330
E3B
100
AcDbEntity
  8
DEFPOINTS
 62
     0
100
AcDbPoint
 10
7.414849793238444
 20
12.56902983942009
 30
0.0
  0
POINT
  5
307F
330
E3B
100
AcDbEntity
  8
DEFPOINTS
 62
     0
100
AcDbPoint
 10
6.572066793238443
 20
12.56902983942009
 30
0.0
  0
ENDBLK
  5
E47
330
E3B
100
AcDbEntity
  8
0
100
AcDbBlockEnd
  0
BLOCK
  5
E54
330
E49
100
AcDbEntity
  8
0
100
AcDbBlockBegin
  2
*D24
 70
     1
 10
0.0
 20
0.0
 30
0.0
  3
*D24
  1

  0
LINE
  5
32E5
330
E49
100
AcDbEntity
  8
DIM
 62
     0
370
    -2
100
AcDbLine
 10
4.382849793238444
 20
8.440790839420094
 30
0.0
 11
4.382849793238444
 21
9.145044478719674
 31
0.0
  0
LINE
  5
32E6
330
E49
100
AcDbEntity
  8
DIM
 62
     0
370
    -2
100
AcDbLine
 10
10.44684979323844
 20
8.440790839420094
 30
0.0
 11
10.44684979323844
 21
9.145044478719674
 31
0.0
  0
LINE
  5
32E7
330
E49
100
AcDbEntity
  8
DIM
 62
     0
370
    -2
100
AcDbLine
 10
4.832849793238444
 20
8.912544478719674
 30
0.0
 11
6.740631043238444
 21
8.912544478719674
 31
0.0
  0
LINE
  5
32E8
330
E49
100
AcDbEntity
  8
DIM
 62
     0
370
    -2
100
AcDbLine
 10
9.996849793238444
 20
8.912544478719674
 30
0.0
 11
8.089068543238443
 21
8.912544478719674
 31
0.0
  0
SOLID
  5
32E9
330
E49
100
AcDbEntity
  8
DIM
 62
     0
100
AcDbTrace
 10
4.832849793238444
 20
8.987544478719673
 30
0.0
 11
4.832849793238444
 21
8.837544478719674
 31
0.0
 12
4.382849793238444
 22
8.912544478719674
 32
0.0
 13
4.382849793238444
 23
8.912544478719674
 33
0.0
  0
SOLID
  5
32EA
330
E49
100
AcDbEntity
  8
DIM
 62
     0
100
AcDbTrace
 10
9.996849793238444
 20
8.987544478719673
 30
0.0
 11
9.996849793238444
 21
8.837544478719674
 31
0.0
 12
10.44684979323844
 22
8.912544478719674
 32
0.0
 13
10.44684979323844
 23
8.912544478719674
 33
0.0
  0
MTEXT
  5
32EB
330
E49
100
AcDbEntity
  8
DIM
 62
     0
100
AcDbMText
 10
7.414849793238444
 20
8.912544478719674
 30
0.0
 40
0.3125
 41
0.0
 71
     5
 72
     1
  1
\A1;6.064
 73
     1
 44
1.0
  0
POINT
  5
32EC
330
E49
100
AcDbEntity
  8
DEFPOINTS
 62
     0
100
AcDbPoint
 10
4.382849793238444
 20
8.283290839420093
 30
0.0
  0
POINT
  5
32ED
330
E49
100
AcDbEntity
  8
DEFPOINTS
 62
     0
100
AcDbPoint
 10
10.44684979323844
 20
8.283290839420093
 30
0.0
  0
POINT
  5
32EE
330
E49
100
AcDbEntity
  8
DEFPOINTS
 62
     0
100
AcDbPoint
 10
10.44684979323844
 20
8.912544478719674
 30
0.0
  0
ENDBLK
  5
E55
330
E49
100
AcDbEntity
  8
0
100
AcDbBlockEnd
  0
BLOCK
  5
E62
330
E57
100
AcDbEntity
  8
0
100
AcDbBlockBegin
  2
*D25
 70
     1
 10
0.0
 20
0.0
 30
0.0
  3
*D25
  1

  0
LINE
  5
3215
330
E57
100
AcDbEntity
  8
DIM
 62
     0
370
    -2
100
AcDbLine
 10
8.989872793238442
 20
6.780029839420092
 30
0.0
 11
8.568661670792169
 21
6.780029839420092
 31
0.0
  0
LINE
  5
3216
330
E57
100
AcDbEntity
  8
DIM
 62
     0
370
    -2
100
AcDbLine
 10
8.989872793238442
 20
12.84402983942009
 30
0.0
 11
8.56866167079217
 21
12.84402983942009
 31
0.0
  0
LINE
  5
3217
330
E57
100
AcDbEntity
  8
DIM
 62
     0
370
    -2
100
AcDbLine
 10
8.801161670792168
 20
7.230029839420092
 30
0.0
 11
8.801161670792168
 21
9.430779839420093
 31
0.0
  0
LINE
  5
3218
330
E57
100
AcDbEntity
  8
DIM
 62
     0
370
    -2
100
AcDbLine
 10
8.80116167079217
 20
12.39402983942009
 30
0.0
 11
8.801161670792168
 21
10.19327983942009
 31
0.0
  0
SOLID
  5
3219
330
E57
100
AcDbEntity
  8
DIM
 62
     0
100
AcDbTrace
 10
8.726161670792169
 20
7.230029839420092
 30
0.0
 11
8.876161670792168
 21
7.230029839420092
 31
0.0
 12
8.801161670792168
 22
6.780029839420092
 32
0.0
 13
8.801161670792168
 23
6.780029839420092
 33
0.0
  0
SOLID
  5
321A
330
E57
100
AcDbEntity
  8
DIM
 62
     0
100
AcDbTrace
 10
8.726161670792171
 20
12.39402983942009
 30
0.0
 11
8.876161670792169
 21
12.39402983942009
 31
0.0
 12
8.80116167079217
 22
12.84402983942009
 32
0.0
 13
8.80116167079217
 23
12.84402983942009
 33
0.0
  0
MTEXT
  5
321B
330
E57
100
AcDbEntity
  8
DIM
 62
     0
100
AcDbMText
 10
8.801161670792167
 20
9.812029839420095
 30
0.0
 40
0.3125
 41
0.0
 71
     5
 72
     1
  1
\A1;6.064
 73
     1
 44
1.0
  0
POINT
  5
321C
330
E57
100
AcDbEntity
  8
DEFPOINTS
 62
     0
100
AcDbPoint
 10
9.147372793238442
 20
6.780029839420092
 30
0.0
  0
POINT
  5
321D
330
E57
100
AcDbEntity
  8
DEFPOINTS
 62
     0
100
AcDbPoint
 10
9.147372793238442
 20
12.84402983942009
 30
0.0
  0
POINT
  5
321E
330
E57
100
AcDbEntity
  8
DEFPOINTS
 62
     0
100
AcDbPoint
 10
8.80116167079217
 20
12.84402983942009
 30
0.0
  0
ENDBLK
  5
E63
330
E57
100
AcDbEntity
  8
0
100
AcDbBlockEnd
  0
BLOCK
  5
E70
330
E65
100
AcDbEntity
  8
0
100
AcDbBlockBegin
  2
*D26
 70
     1
 10
0.0
 20
0.0
 30
0.0
  3
*D26
  1

  0
LINE
  5
321F
330
E65
100
AcDbEntity
  8
DIM
 62
     0
370
    -2
100
AcDbLine
 10
8.989872793238442
 20
6.780029839420092
 30
0.0
 11
8.568661670792169
 21
6.780029839420092
 31
0.0
  0
LINE
  5
3220
330
E65
100
AcDbEntity
  8
DIM
 62
     0
370
    -2
100
AcDbLine
 10
8.989872793238442
 20
6.662029839420092
 30
0.0
 11
8.568661670792169
 21
6.662029839420092
 31
0.0
  0
LINE
  5
3221
330
E65
100
AcDbEntity
  8
DIM
 62
     0
370
    -2
100
AcDbLine
 10
8.801161670792168
 20
7.230029839420092
 30
0.0
 11
8.801161670792168
 21
7.680029839420091
 31
0.0
  0
LINE
  5
3222
330
E65
100
AcDbEntity
  8
DIM
 62
     0
370
    -2
100
AcDbLine
 10
8.801161670792168
 20
6.212029839420091
 30
0.0
 11
8.801161670792168
 21
5.762029839420091
 31
0.0
  0
LINE
  5
3223
330
E65
100
AcDbEntity
  8
DIM
 62
     0
370
    -2
100
AcDbLine
 10
8.801161670792168
 20
5.762029839420091
 30
0.0
 11
8.351161670792169
 21
5.762029839420091
 31
0.0
  0
SOLID
  5
3224
330
E65
100
AcDbEntity
  8
DIM
 62
     0
100
AcDbTrace
 10
8.726161670792169
 20
7.230029839420092
 30
0.0
 11
8.876161670792168
 21
7.230029839420092
 31
0.0
 12
8.801161670792168
 22
6.780029839420092
 32
0.0
 13
8.801161670792168
 23
6.780029839420092
 33
0.0
  0
SOLID
  5
3225
330
E65
100
AcDbEntity
  8
DIM
 62
     0
100
AcDbTrace
 10
8.726161670792169
 20
6.212029839420091
 30
0.0
 11
8.876161670792168
 21
6.212029839420091
 31
0.0
 12
8.801161670792168
 22
6.662029839420092
 32
0.0
 13
8.801161670792168
 23
6.662029839420092
 33
0.0
  0
MTEXT
  5
3226
330
E65
100
AcDbEntity
  8
DIM
 62
     0
100
AcDbMText
 10
7.247255420792166
 20
5.762029839420093
 30
0.0
 40
0.3125
 41
0.0
 71
     5
 72
     1
  1
\A1;0.118 TYP.
 73
     1
 44
1.0
  0
POINT
  5
3227
330
E65
100
AcDbEntity
  8
DEFPOINTS
 62
     0
100
AcDbPoint
 10
9.147372793238442
 20
6.780029839420092
 30
0.0
  0
POINT
  5
3228
330
E65
100
AcDbEntity
  8
DEFPOINTS
 62
     0
100
AcDbPoint
 10
9.147372793238442
 20
6.662029839420092
 30
0.0
  0
POINT
  5
3229
330
E65
100
AcDbEntity
  8
DEFPOINTS
 62
     0
100
AcDbPoint
 10
8.801161670792168
 20
6.662029839420092
 30
0.0
  0
ENDBLK
  5
E71
330
E65
100
AcDbEntity
  8
0
100
AcDbBlockEnd
  0
BLOCK
  5
E7E
330
E73
100
AcDbEntity
  8
0
100
AcDbBlockBegin
  2
*D27
 70
     1
 10
0.0
 20
0.0
 30
0.0
  3
*D27
  1

  0
LINE
  5
3024
330
E73
100
AcDbEntity
  8
DIM
 62
     0
370
    -2
100
AcDbLine
 10
7.572349793238443
 20
12.56902983942009
 30
0.0
 11
8.281128121535202
 21
12.56902983942009
 31
0.0
  0
LINE
  5
3025
330
E73
100
AcDbEntity
  8
DIM
 62
     0
370
    -2
100
AcDbLine
 10
7.572349793238443
 20
12.96202983942009
 30
0.0
 11
8.281128121535202
 21
12.96202983942009
 31
0.0
  0
LINE
  5
3026
330
E73
100
AcDbEntity
  8
DIM
 62
     0
370
    -2
100
AcDbLine
 10
8.048628121535202
 20
12.11902983942009
 30
0.0
 11
8.0486281215352
 21
11.66902983942009
 31
0.0
  0
LINE
  5
3027
330
E73
100
AcDbEntity
  8
DIM
 62
     0
370
    -2
100
AcDbLine
 10
8.048628121535202
 20
13.41202983942009
 30
0.0
 11
8.048628121535202
 21
13.86202983942009
 31
0.0
  0
LINE
  5
3028
330
E73
100
AcDbEntity
  8
DIM
 62
     0
370
    -2
100
AcDbLine
 10
8.048628121535202
 20
13.86202983942009
 30
0.0
 11
8.498628121535201
 21
13.86202983942009
 31
0.0
  0
SOLID
  5
3029
330
E73
100
AcDbEntity
  8
DIM
 62
     0
100
AcDbTrace
 10
7.973628121535201
 20
12.11902983942009
 30
0.0
 11
8.123628121535201
 21
12.11902983942009
 31
0.0
 12
8.048628121535202
 22
12.56902983942009
 32
0.0
 13
8.048628121535202
 23
12.56902983942009
 33
0.0
  0
SOLID
  5
302A
330
E73
100
AcDbEntity
  8
DIM
 62
     0
100
AcDbTrace
 10
7.973628121535201
 20
13.41202983942009
 30
0.0
 11
8.123628121535201
 21
13.41202983942009
 31
0.0
 12
8.048628121535202
 22
12.96202983942009
 32
0.0
 13
8.048628121535202
 23
12.96202983942009
 33
0.0
  0
MTEXT
  5
302B
330
E73
100
AcDbEntity
  8
DIM
 62
     0
100
AcDbMText
 10
9.172846871535199
 20
13.86202983942009
 30
0.0
 40
0.3125
 41
0.0
 71
     5
 72
     1
  1
\A1;0.393
 73
     1
 44
1.0
  0
POINT
  5
302C
330
E73
100
AcDbEntity
  8
DEFPOINTS
 62
     0
100
AcDbPoint
 10
7.414849793238444
 20
12.56902983942009
 30
0.0
  0
POINT
  5
302D
330
E73
100
AcDbEntity
  8
DEFPOINTS
 62
     0
100
AcDbPoint
 10
7.414849793238444
 20
12.96202983942009
 30
0.0
  0
POINT
  5
302E
330
E73
100
AcDbEntity
  8
DEFPOINTS
 62
     0
100
AcDbPoint
 10
8.048628121535202
 20
12.96202983942009
 30
0.0
  0
ENDBLK
  5
E7F
330
E73
100
AcDbEntity
  8
0
100
AcDbBlockEnd
  0
BLOCK
  5
E9A
330
E8F
100
AcDbEntity
  8
0
100
AcDbBlockBegin
  2
*D28
 70
     1
 10
0.0
 20
0.0
 30
0.0
  3
*D28
  1

  0
LINE
  5
26AE
330
E8F
100
AcDbEntity
  8
DIM
 62
     0
370
    -2
100
AcDbLine
 10
20.2658633940786
 20
21.90903252545258
 30
0.0
 11
20.2658633940786
 21
23.16019252545258
 31
0.0
  0
LINE
  5
26AF
330
E8F
100
AcDbEntity
  8
DIM
 62
     0
370
    -2
100
AcDbLine
 10
21.68386339407861
 20
21.97653252545258
 30
0.0
 11
21.68386339407861
 21
23.16019252545258
 31
0.0
  0
LINE
  5
26B0
330
E8F
100
AcDbEntity
  8
DIM
 62
     0
370
    -2
100
AcDbLine
 10
19.8158633940786
 20
22.92769252545258
 30
0.0
 11
19.36586339407861
 21
22.92769252545258
 31
0.0
  0
LINE
  5
26B1
330
E8F
100
AcDbEntity
  8
DIM
 62
     0
370
    -2
100
AcDbLine
 10
22.13386339407861
 20
22.92769252545258
 30
0.0
 11
22.58386339407861
 21
22.92769252545258
 31
0.0
  0
SOLID
  5
26B2
330
E8F
100
AcDbEntity
  8
DIM
 62
     0
100
AcDbTrace
 10
19.8158633940786
 20
23.00269252545259
 30
0.0
 11
19.8158633940786
 21
22.85269252545258
 31
0.0
 12
20.2658633940786
 22
22.92769252545258
 32
0.0
 13
20.2658633940786
 23
22.92769252545258
 33
0.0
  0
SOLID
  5
26B3
330
E8F
100
AcDbEntity
  8
DIM
 62
     0
100
AcDbTrace
 10
22.13386339407861
 20
23.00269252545259
 30
0.0
 11
22.13386339407861
 21
22.85269252545258
 31
0.0
 12
21.68386339407861
 22
22.92769252545258
 32
0.0
 13
21.68386339407861
 23
22.92769252545258
 33
0.0
  0
MTEXT
  5
26B4
330
E8F
100
AcDbEntity
  8
DIM
 62
     0
100
AcDbMText
 10
20.97486339407861
 20
22.92769252545258
 30
0.0
 40
0.3125
 41
0.0
 71
     5
 72
     1
  1
\A1;0.355
 73
     1
 44
1.0
  0
POINT
  5
26B5
330
E8F
100
AcDbEntity
  8
DEFPOINTS
 62
     0
100
AcDbPoint
 10
20.2658633940786
 20
21.75153252545258
 30
0.0
  0
POINT
  5
26B6
330
E8F
100
AcDbEntity
  8
DEFPOINTS
 62
     0
100
AcDbPoint
 10
21.68386339407861
 20
21.81903252545258
 30
0.0
  0
POINT
  5
26B7
330
E8F
100
AcDbEntity
  8
DEFPOINTS
 62
     0
100
AcDbPoint
 10
21.68386339407861
 20
22.92769252545258
 30
0.0
  0
ENDBLK
  5
E9B
330
E8F
100
AcDbEntity
  8
0
100
AcDbBlockEnd
  0
BLOCK
  5
EA8
330
E9D
100
AcDbEntity
  8
0
100
AcDbBlockBegin
  2
*D29
 70
     1
 10
0.0
 20
0.0
 30
0.0
  3
*D29
  1

  0
LINE
  5
26CC
330
E9D
100
AcDbEntity
  8
DIM
 62
     0
370
    -2
100
AcDbLine
 10
20.2658633940786
 20
21.90903252545258
 30
0.0
 11
20.2658633940786
 21
23.95469252545258
 31
0.0
  0
LINE
  5
26CD
330
E9D
100
AcDbEntity
  8
DIM
 62
     0
370
    -2
100
AcDbLine
 10
23.10186339407861
 20
21.90903252545258
 30
0.0
 11
23.10186339407861
 21
23.95469252545258
 31
0.0
  0
LINE
  5
26CE
330
E9D
100
AcDbEntity
  8
DIM
 62
     0
370
    -2
100
AcDbLine
 10
20.7158633940786
 20
23.72219252545258
 30
0.0
 11
21.0291758940786
 21
23.72219252545258
 31
0.0
  0
LINE
  5
26CF
330
E9D
100
AcDbEntity
  8
DIM
 62
     0
370
    -2
100
AcDbLine
 10
22.65186339407861
 20
23.72219252545258
 30
0.0
 11
22.3385508940786
 21
23.72219252545258
 31
0.0
  0
SOLID
  5
26D0
330
E9D
100
AcDbEntity
  8
DIM
 62
     0
100
AcDbTrace
 10
20.7158633940786
 20
23.79719252545258
 30
0.0
 11
20.7158633940786
 21
23.64719252545258
 31
0.0
 12
20.2658633940786
 22
23.72219252545258
 32
0.0
 13
20.2658633940786
 23
23.72219252545258
 33
0.0
  0
SOLID
  5
26D1
330
E9D
100
AcDbEntity
  8
DIM
 62
     0
100
AcDbTrace
 10
22.65186339407861
 20
23.79719252545258
 30
0.0
 11
22.65186339407861
 21
23.64719252545258
 31
0.0
 12
23.10186339407861
 22
23.72219252545258
 32
0.0
 13
23.10186339407861
 23
23.72219252545258
 33
0.0
  0
MTEXT
  5
26D2
330
E9D
100
AcDbEntity
  8
DIM
 62
     0
100
AcDbMText
 10
21.6838633940786
 20
23.72219252545258
 30
0.0
 40
0.3125
 41
0.0
 71
     5
 72
     1
  1
\A1;0.709
 73
     1
 44
1.0
  0
POINT
  5
26D3
330
E9D
100
AcDbEntity
  8
DEFPOINTS
 62
     0
100
AcDbPoint
 10
20.2658633940786
 20
21.75153252545258
 30
0.0
  0
POINT
  5
26D4
330
E9D
100
AcDbEntity
  8
DEFPOINTS
 62
     0
100
AcDbPoint
 10
23.10186339407861
 20
21.75153252545258
 30
0.0
  0
POINT
  5
26D5
330
E9D
100
AcDbEntity
  8
DEFPOINTS
 62
     0
100
AcDbPoint
 10
23.10186339407861
 20
23.72219252545258
 30
0.0
  0
ENDBLK
  5
EA9
330
E9D
100
AcDbEntity
  8
0
100
AcDbBlockEnd
  0
BLOCK
  5
EB6
330
EAB
100
AcDbEntity
  8
0
100
AcDbBlockBegin
  2
*D30
 70
     1
 10
0.0
 20
0.0
 30
0.0
  3
*D30
  1

  0
LINE
  5
26C2
330
EAB
100
AcDbEntity
  8
DIM
 62
     0
370
    -2
100
AcDbLine
 10
20.3443633940786
 20
21.51553252545258
 30
0.0
 11
18.94054939407861
 21
21.51553252545258
 31
0.0
  0
LINE
  5
26C3
330
EAB
100
AcDbEntity
  8
DIM
 62
     0
370
    -2
100
AcDbLine
 10
20.3443633940786
 20
21.98753252545258
 30
0.0
 11
18.94054939407861
 21
21.98753252545258
 31
0.0
  0
LINE
  5
26C4
330
EAB
100
AcDbEntity
  8
DIM
 62
     0
370
    -2
100
AcDbLine
 10
19.17304939407861
 20
21.06553252545258
 30
0.0
 11
19.17304939407861
 21
20.61553252545258
 31
0.0
  0
LINE
  5
26C5
330
EAB
100
AcDbEntity
  8
DIM
 62
     0
370
    -2
100
AcDbLine
 10
19.17304939407861
 20
22.43753252545258
 30
0.0
 11
19.17304939407861
 21
22.88753252545258
 31
0.0
  0
SOLID
  5
26C6
330
EAB
100
AcDbEntity
  8
DIM
 62
     0
100
AcDbTrace
 10
19.09804939407861
 20
21.06553252545258
 30
0.0
 11
19.24804939407861
 21
21.06553252545258
 31
0.0
 12
19.17304939407861
 22
21.51553252545258
 32
0.0
 13
19.17304939407861
 23
21.51553252545258
 33
0.0
  0
SOLID
  5
26C7
330
EAB
100
AcDbEntity
  8
DIM
 62
     0
100
AcDbTrace
 10
19.09804939407861
 20
22.43753252545258
 30
0.0
 11
19.24804939407861
 21
22.43753252545258
 31
0.0
 12
19.17304939407861
 22
21.98753252545258
 32
0.0
 13
19.17304939407861
 23
21.98753252545258
 33
0.0
  0
MTEXT
  5
26C8
330
EAB
100
AcDbEntity
  8
DIM
 62
     0
100
AcDbMText
 10
19.17304939407861
 20
21.75153252545258
 30
0.0
 40
0.3125
 41
0.0
 71
     5
 72
     1
  1
\A1;0.118
 73
     1
 44
1.0
  0
POINT
  5
26C9
330
EAB
100
AcDbEntity
  8
DEFPOINTS
 62
     0
100
AcDbPoint
 10
20.5018633940786
 20
21.51553252545258
 30
0.0
  0
POINT
  5
26CA
330
EAB
100
AcDbEntity
  8
DEFPOINTS
 62
     0
100
AcDbPoint
 10
20.5018633940786
 20
21.98753252545258
 30
0.0
  0
POINT
  5
26CB
330
EAB
100
AcDbEntity
  8
DEFPOINTS
 62
     0
100
AcDbPoint
 10
19.17304939407861
 20
21.98753252545258
 30
0.0
  0
ENDBLK
  5
EB7
330
EAB
100
AcDbEntity
  8
0
100
AcDbBlockEnd
  0
BLOCK
  5
EC4
330
EB9
100
AcDbEntity
  8
0
100
AcDbBlockBegin
  2
*D31
 70
     1
 10
0.0
 20
0.0
 30
0.0
  3
*D31
  1

  0
LINE
  5
26D6
330
EB9
100
AcDbEntity
  8
DIM
 62
     0
370
    -2
100
AcDbLine
 10
21.84136339407861
 20
22.25153252545258
 30
0.0
 11
24.26936139407861
 21
22.25153252545258
 31
0.0
  0
LINE
  5
26D7
330
EB9
100
AcDbEntity
  8
DIM
 62
     0
370
    -2
100
AcDbLine
 10
21.84136339407861
 20
21.25153252545258
 30
0.0
 11
24.26936139407861
 21
21.25153252545258
 31
0.0
  0
LINE
  5
26D8
330
EB9
100
AcDbEntity
  8
DIM
 62
     0
370
    -2
100
AcDbLine
 10
24.03686139407861
 20
22.70153252545258
 30
0.0
 11
24.03686139407861
 21
23.15153252545258
 31
0.0
  0
LINE
  5
26D9
330
EB9
100
AcDbEntity
  8
DIM
 62
     0
370
    -2
100
AcDbLine
 10
24.03686139407861
 20
20.80153252545258
 30
0.0
 11
24.03686139407861
 21
20.35153252545258
 31
0.0
  0
SOLID
  5
26DA
330
EB9
100
AcDbEntity
  8
DIM
 62
     0
100
AcDbTrace
 10
23.9618613940786
 20
22.70153252545258
 30
0.0
 11
24.11186139407861
 21
22.70153252545258
 31
0.0
 12
24.03686139407861
 22
22.25153252545258
 32
0.0
 13
24.03686139407861
 23
22.25153252545258
 33
0.0
  0
SOLID
  5
26DB
330
EB9
100
AcDbEntity
  8
DIM
 62
     0
100
AcDbTrace
 10
23.9618613940786
 20
20.80153252545258
 30
0.0
 11
24.11186139407861
 21
20.80153252545258
 31
0.0
 12
24.03686139407861
 22
21.25153252545258
 32
0.0
 13
24.03686139407861
 23
21.25153252545258
 33
0.0
  0
MTEXT
  5
26DC
330
EB9
100
AcDbEntity
  8
DIM
 62
     0
100
AcDbMText
 10
24.0368613940786
 20
21.75153252545258
 30
0.0
 40
0.3125
 41
0.0
 71
     5
 72
     1
  1
\A1;0.250
 73
     1
 44
1.0
  0
POINT
  5
26DD
330
EB9
100
AcDbEntity
  8
DEFPOINTS
 62
     0
100
AcDbPoint
 10
21.68386339407861
 20
22.25153252545258
 30
0.0
  0
POINT
  5
26DE
330
EB9
100
AcDbEntity
  8
DEFPOINTS
 62
     0
100
AcDbPoint
 10
21.68386339407861
 20
21.25153252545258
 30
0.0
  0
POINT
  5
26DF
330
EB9
100
AcDbEntity
  8
DEFPOINTS
 62
     0
100
AcDbPoint
 10
24.03686139407861
 20
21.25153252545258
 30
0.0
  0
ENDBLK
  5
EC5
330
EB9
100
AcDbEntity
  8
0
100
AcDbBlockEnd
  0
BLOCK
  5
EDC
330
ED1
100
AcDbEntity
  8
0
100
AcDbBlockBegin
  2
*D32
 70
     1
 10
0.0
 20
0.0
 30
0.0
  3
*D32
  1

  0
LINE
  5
31E2
330
ED1
100
AcDbEntity
  8
DIM
 62
     0
370
    -2
100
AcDbLine
 10
30.0087982844639
 20
12.68602983942009
 30
0.0
 11
31.06123728446391
 21
12.68602983942009
 31
0.0
  0
LINE
  5
31E3
330
ED1
100
AcDbEntity
  8
DIM
 62
     0
370
    -2
100
AcDbLine
 10
30.0347982844639
 20
12.96202983942009
 30
0.0
 11
31.06123728446391
 21
12.96202983942009
 31
0.0
  0
LINE
  5
31E4
330
ED1
100
AcDbEntity
  8
DIM
 62
     0
370
    -2
100
AcDbLine
 10
30.8287372844639
 20
12.23602983942009
 30
0.0
 11
30.8287372844639
 21
11.78602983942009
 31
0.0
  0
LINE
  5
31E5
330
ED1
100
AcDbEntity
  8
DIM
 62
     0
370
    -2
100
AcDbLine
 10
30.8287372844639
 20
13.41202983942009
 30
0.0
 11
30.8287372844639
 21
13.86202983942009
 31
0.0
  0
LINE
  5
31E6
330
ED1
100
AcDbEntity
  8
DIM
 62
     0
370
    -2
100
AcDbLine
 10
30.8287372844639
 20
13.86202983942009
 30
0.0
 11
31.2787372844639
 21
13.86202983942009
 31
0.0
  0
SOLID
  5
31E7
330
ED1
100
AcDbEntity
  8
DIM
 62
     0
100
AcDbTrace
 10
30.75373728446391
 20
12.23602983942009
 30
0.0
 11
30.9037372844639
 21
12.23602983942009
 31
0.0
 12
30.8287372844639
 22
12.68602983942009
 32
0.0
 13
30.8287372844639
 23
12.68602983942009
 33
0.0
  0
SOLID
  5
31E8
330
ED1
100
AcDbEntity
  8
DIM
 62
     0
100
AcDbTrace
 10
30.75373728446391
 20
13.41202983942009
 30
0.0
 11
30.9037372844639
 21
13.41202983942009
 31
0.0
 12
30.8287372844639
 22
12.96202983942009
 32
0.0
 13
30.8287372844639
 23
12.96202983942009
 33
0.0
  0
MTEXT
  5
31E9
330
ED1
100
AcDbEntity
  8
DIM
 62
     0
100
AcDbMText
 10
31.9529560344639
 20
13.86202983942009
 30
0.0
 40
0.3125
 41
0.0
 71
     5
 72
     1
  1
\A1;0.276
 73
     1
 44
1.0
  0
POINT
  5
31EA
330
ED1
100
AcDbEntity
  8
DEFPOINTS
 62
     0
100
AcDbPoint
 10
29.8512982844639
 20
12.68602983942009
 30
0.0
  0
POINT
  5
31EB
330
ED1
100
AcDbEntity
  8
DEFPOINTS
 62
     0
100
AcDbPoint
 10
29.8772982844639
 20
12.96202983942009
 30
0.0
  0
POINT
  5
31EC
330
ED1
100
AcDbEntity
  8
DEFPOINTS
 62
     0
100
AcDbPoint
 10
30.8287372844639
 20
12.96202983942009
 30
0.0
  0
ENDBLK
  5
EDD
330
ED1
100
AcDbEntity
  8
0
100
AcDbBlockEnd
  0
BLOCK
  5
EEA
330
EDF
100
AcDbEntity
  8
0
100
AcDbBlockBegin
  2
*D33
 70
     1
 10
0.0
 20
0.0
 30
0.0
  3
*D33
  1

  0
LINE
  5
31ED
330
EDF
100
AcDbEntity
  8
DIM
 62
     0
370
    -2
100
AcDbLine
 10
30.0087982844639
 20
6.93802983942009
 30
0.0
 11
31.0612372844639
 21
6.93802983942009
 31
0.0
  0
LINE
  5
31EE
330
EDF
100
AcDbEntity
  8
DIM
 62
     0
370
    -2
100
AcDbLine
 10
30.0087982844639
 20
12.68602983942009
 30
0.0
 11
31.06123728446391
 21
12.68602983942009
 31
0.0
  0
LINE
  5
31EF
330
EDF
100
AcDbEntity
  8
DIM
 62
     0
370
    -2
100
AcDbLine
 10
30.8287372844639
 20
7.388029839420091
 30
0.0
 11
30.8287372844639
 21
9.430779839420091
 31
0.0
  0
LINE
  5
31F0
330
EDF
100
AcDbEntity
  8
DIM
 62
     0
370
    -2
100
AcDbLine
 10
30.8287372844639
 20
12.23602983942009
 30
0.0
 11
30.8287372844639
 21
10.19327983942009
 31
0.0
  0
SOLID
  5
31F1
330
EDF
100
AcDbEntity
  8
DIM
 62
     0
100
AcDbTrace
 10
30.7537372844639
 20
7.388029839420091
 30
0.0
 11
30.9037372844639
 21
7.388029839420091
 31
0.0
 12
30.8287372844639
 22
6.93802983942009
 32
0.0
 13
30.8287372844639
 23
6.93802983942009
 33
0.0
  0
SOLID
  5
31F2
330
EDF
100
AcDbEntity
  8
DIM
 62
     0
100
AcDbTrace
 10
30.75373728446391
 20
12.23602983942009
 30
0.0
 11
30.9037372844639
 21
12.23602983942009
 31
0.0
 12
30.8287372844639
 22
12.68602983942009
 32
0.0
 13
30.8287372844639
 23
12.68602983942009
 33
0.0
  0
MTEXT
  5
31F3
330
EDF
100
AcDbEntity
  8
DIM
 62
     0
100
AcDbMText
 10
30.8287372844639
 20
9.812029839420096
 30
0.0
 40
0.3125
 41
0.0
 71
     5
 72
     1
  1
\A1;5.748
 73
     1
 44
1.0
  0
POINT
  5
31F4
330
EDF
100
AcDbEntity
  8
DEFPOINTS
 62
     0
100
AcDbPoint
 10
29.8512982844639
 20
6.938029839420091
 30
0.0
  0
POINT
  5
31F5
330
EDF
100
AcDbEntity
  8
DEFPOINTS
 62
     0
100
AcDbPoint
 10
29.8512982844639
 20
12.68602983942009
 30
0.0
  0
POINT
  5
31F6
330
EDF
100
AcDbEntity
  8
DEFPOINTS
 62
     0
100
AcDbPoint
 10
30.8287372844639
 20
12.68602983942009
 30
0.0
  0
ENDBLK
  5
EEB
330
EDF
100
AcDbEntity
  8
0
100
AcDbBlockEnd
  0
BLOCK
  5
EF8
330
EED
100
AcDbEntity
  8
0
100
AcDbBlockBegin
  2
*D34
 70
     1
 10
0.0
 20
0.0
 30
0.0
  3
*D34
  1

  0
LINE
  5
31A5
330
EED
100
AcDbEntity
  8
DIM
 62
     0
370
    -2
100
AcDbLine
 10
23.9197982844639
 20
6.662029839420092
 30
0.0
 11
22.8184072844639
 21
6.662029839420092
 31
0.0
  0
LINE
  5
31A6
330
EED
100
AcDbEntity
  8
DIM
 62
     0
370
    -2
100
AcDbLine
 10
23.9197982844639
 20
12.96202983942009
 30
0.0
 11
22.8184072844639
 21
12.96202983942009
 31
0.0
  0
LINE
  5
31A7
330
EED
100
AcDbEntity
  8
DIM
 62
     0
370
    -2
100
AcDbLine
 10
23.0509072844639
 20
7.112029839420092
 30
0.0
 11
23.0509072844639
 21
9.430779839420093
 31
0.0
  0
LINE
  5
31A8
330
EED
100
AcDbEntity
  8
DIM
 62
     0
370
    -2
100
AcDbLine
 10
23.0509072844639
 20
12.51202983942009
 30
0.0
 11
23.0509072844639
 21
10.19327983942009
 31
0.0
  0
SOLID
  5
31A9
330
EED
100
AcDbEntity
  8
DIM
 62
     0
100
AcDbTrace
 10
22.9759072844639
 20
7.112029839420092
 30
0.0
 11
23.1259072844639
 21
7.112029839420092
 31
0.0
 12
23.0509072844639
 22
6.662029839420092
 32
0.0
 13
23.0509072844639
 23
6.662029839420092
 33
0.0
  0
SOLID
  5
31AA
330
EED
100
AcDbEntity
  8
DIM
 62
     0
100
AcDbTrace
 10
22.9759072844639
 20
12.51202983942009
 30
0.0
 11
23.1259072844639
 21
12.51202983942009
 31
0.0
 12
23.0509072844639
 22
12.96202983942009
 32
0.0
 13
23.0509072844639
 23
12.96202983942009
 33
0.0
  0
MTEXT
  5
31AB
330
EED
100
AcDbEntity
  8
DIM
 62
     0
100
AcDbMText
 10
23.0509072844639
 20
9.812029839420096
 30
0.0
 40
0.3125
 41
0.0
 71
     5
 72
     1
  1
\A1;6.300
 73
     1
 44
1.0
  0
POINT
  5
31AC
330
EED
100
AcDbEntity
  8
DEFPOINTS
 62
     0
100
AcDbPoint
 10
24.0772982844639
 20
6.662029839420092
 30
0.0
  0
POINT
  5
31AD
330
EED
100
AcDbEntity
  8
DEFPOINTS
 62
     0
100
AcDbPoint
 10
24.0772982844639
 20
12.96202983942009
 30
0.0
  0
POINT
  5
31AE
330
EED
100
AcDbEntity
  8
DEFPOINTS
 62
     0
100
AcDbPoint
 10
23.0509072844639
 20
12.96202983942009
 30
0.0
  0
ENDBLK
  5
EF9
330
EED
100
AcDbEntity
  8
0
100
AcDbBlockEnd
  0
BLOCK
  5
F06
330
EFB
100
AcDbEntity
  8
0
100
AcDbBlockBegin
  2
*D35
 70
     1
 10
0.0
 20
0.0
 30
0.0
  3
*D35
  1

  0
LINE
  5
31D8
330
EFB
100
AcDbEntity
  8
DIM
 62
     0
370
    -2
100
AcDbLine
 10
29.8512982844639
 20
12.84352983942009
 30
0.0
 11
29.8512982844639
 21
14.64033183942009
 31
0.0
  0
LINE
  5
31D9
330
EFB
100
AcDbEntity
  8
DIM
 62
     0
370
    -2
100
AcDbLine
 10
30.1272982844639
 20
12.86952983942009
 30
0.0
 11
30.1272982844639
 21
14.64033183942009
 31
0.0
  0
LINE
  5
31DA
330
EFB
100
AcDbEntity
  8
DIM
 62
     0
370
    -2
100
AcDbLine
 10
29.4012982844639
 20
14.40783183942009
 30
0.0
 11
28.9512982844639
 21
14.40783183942009
 31
0.0
  0
LINE
  5
31DB
330
EFB
100
AcDbEntity
  8
DIM
 62
     0
370
    -2
100
AcDbLine
 10
30.5772982844639
 20
14.40783183942009
 30
0.0
 11
31.0272982844639
 21
14.40783183942009
 31
0.0
  0
SOLID
  5
31DC
330
EFB
100
AcDbEntity
  8
DIM
 62
     0
100
AcDbTrace
 10
29.4012982844639
 20
14.48283183942009
 30
0.0
 11
29.4012982844639
 21
14.33283183942009
 31
0.0
 12
29.8512982844639
 22
14.40783183942009
 32
0.0
 13
29.8512982844639
 23
14.40783183942009
 33
0.0
  0
SOLID
  5
31DD
330
EFB
100
AcDbEntity
  8
DIM
 62
     0
100
AcDbTrace
 10
30.5772982844639
 20
14.48283183942009
 30
0.0
 11
30.5772982844639
 21
14.33283183942009
 31
0.0
 12
30.1272982844639
 22
14.40783183942009
 32
0.0
 13
30.1272982844639
 23
14.40783183942009
 33
0.0
  0
MTEXT
  5
31DE
330
EFB
100
AcDbEntity
  8
DIM
 62
     0
100
AcDbMText
 10
31.7015170344639
 20
14.40783183942009
 30
0.0
 40
0.3125
 41
0.0
 71
     5
 72
     1
  1
\A1;0.276
 73
     1
 44
1.0
  0
POINT
  5
31DF
330
EFB
100
AcDbEntity
  8
DEFPOINTS
 62
     0
100
AcDbPoint
 10
29.8512982844639
 20
12.68602983942009
 30
0.0
  0
POINT
  5
31E0
330
EFB
100
AcDbEntity
  8
DEFPOINTS
 62
     0
100
AcDbPoint
 10
30.1272982844639
 20
12.71202983942009
 30
0.0
  0
POINT
  5
31E1
330
EFB
100
AcDbEntity
  8
DEFPOINTS
 62
     0
100
AcDbPoint
 10
30.1272982844639
 20
14.40783183942009
 30
0.0
  0
ENDBLK
  5
F07
330
EFB
100
AcDbEntity
  8
0
100
AcDbBlockEnd
  0
BLOCK
  5
F14
330
F09
100
AcDbEntity
  8
0
100
AcDbBlockBegin
  2
*D36
 70
     1
 10
0.0
 20
0.0
 30
0.0
  3
*D36
  1

  0
LINE
  5
31AF
330
F09
100
AcDbEntity
  8
DIM
 62
     0
370
    -2
100
AcDbLine
 10
29.8512982844639
 20
12.84352983942009
 30
0.0
 11
29.8512982844639
 21
14.64033183942009
 31
0.0
  0
LINE
  5
31B0
330
F09
100
AcDbEntity
  8
DIM
 62
     0
370
    -2
100
AcDbLine
 10
24.1032982844639
 20
12.84352983942009
 30
0.0
 11
24.1032982844639
 21
14.64033183942009
 31
0.0
  0
LINE
  5
31B1
330
F09
100
AcDbEntity
  8
DIM
 62
     0
370
    -2
100
AcDbLine
 10
29.4012982844639
 20
14.40783183942009
 30
0.0
 11
27.6710482844639
 21
14.40783183942009
 31
0.0
  0
LINE
  5
31B2
330
F09
100
AcDbEntity
  8
DIM
 62
     0
370
    -2
100
AcDbLine
 10
24.5532982844639
 20
14.40783183942009
 30
0.0
 11
26.2835482844639
 21
14.40783183942009
 31
0.0
  0
SOLID
  5
31B3
330
F09
100
AcDbEntity
  8
DIM
 62
     0
100
AcDbTrace
 10
29.4012982844639
 20
14.48283183942009
 30
0.0
 11
29.4012982844639
 21
14.33283183942009
 31
0.0
 12
29.8512982844639
 22
14.40783183942009
 32
0.0
 13
29.8512982844639
 23
14.40783183942009
 33
0.0
  0
SOLID
  5
31B4
330
F09
100
AcDbEntity
  8
DIM
 62
     0
100
AcDbTrace
 10
24.5532982844639
 20
14.48283183942009
 30
0.0
 11
24.5532982844639
 21
14.33283183942009
 31
0.0
 12
24.1032982844639
 22
14.40783183942009
 32
0.0
 13
24.1032982844639
 23
14.40783183942009
 33
0.0
  0
MTEXT
  5
31B5
330
F09
100
AcDbEntity
  8
DIM
 62
     0
100
AcDbMText
 10
26.9772982844639
 20
14.40783183942009
 30
0.0
 40
0.3125
 41
0.0
 71
     5
 72
     1
  1
\A1;5.748
 73
     1
 44
1.0
  0
POINT
  5
31B6
330
F09
100
AcDbEntity
  8
DEFPOINTS
 62
     0
100
AcDbPoint
 10
29.8512982844639
 20
12.68602983942009
 30
0.0
  0
POINT
  5
31B7
330
F09
100
AcDbEntity
  8
DEFPOINTS
 62
     0
100
AcDbPoint
 10
24.1032982844639
 20
12.68602983942009
 30
0.0
  0
POINT
  5
31B8
330
F09
100
AcDbEntity
  8
DEFPOINTS
 62
     0
100
AcDbPoint
 10
24.1032982844639
 20
14.40783183942009
 30
0.0
  0
ENDBLK
  5
F15
330
F09
100
AcDbEntity
  8
0
100
AcDbBlockEnd
  0
BLOCK
  5
F22
330
F17
100
AcDbEntity
  8
0
100
AcDbBlockBegin
  2
*D37
 70
     1
 10
0.0
 20
0.0
 30
0.0
  3
*D37
  1

  0
LINE
  5
31B9
330
F17
100
AcDbEntity
  8
DIM
 62
     0
370
    -2
100
AcDbLine
 10
30.1272982844639
 20
12.86952983942009
 30
0.0
 11
30.1272982844639
 21
15.36458183942009
 31
0.0
  0
LINE
  5
31BA
330
F17
100
AcDbEntity
  8
DIM
 62
     0
370
    -2
100
AcDbLine
 10
23.8272982844639
 20
12.86952983942009
 30
0.0
 11
23.8272982844639
 21
15.36458183942009
 31
0.0
  0
LINE
  5
31BB
330
F17
100
AcDbEntity
  8
DIM
 62
     0
370
    -2
100
AcDbLine
 10
29.6772982844639
 20
15.13208183942009
 30
0.0
 11
27.6319857844639
 21
15.13208183942009
 31
0.0
  0
LINE
  5
31BC
330
F17
100
AcDbEntity
  8
DIM
 62
     0
370
    -2
100
AcDbLine
 10
24.2772982844639
 20
15.13208183942009
 30
0.0
 11
26.3226107844639
 21
15.13208183942009
 31
0.0
  0
SOLID
  5
31BD
330
F17
100
AcDbEntity
  8
DIM
 62
     0
100
AcDbTrace
 10
29.6772982844639
 20
15.20708183942009
 30
0.0
 11
29.6772982844639
 21
15.05708183942009
 31
0.0
 12
30.1272982844639
 22
15.13208183942009
 32
0.0
 13
30.1272982844639
 23
15.13208183942009
 33
0.0
  0
SOLID
  5
31BE
330
F17
100
AcDbEntity
  8
DIM
 62
     0
100
AcDbTrace
 10
24.2772982844639
 20
15.20708183942009
 30
0.0
 11
24.2772982844639
 21
15.05708183942009
 31
0.0
 12
23.8272982844639
 22
15.13208183942009
 32
0.0
 13
23.8272982844639
 23
15.13208183942009
 33
0.0
  0
MTEXT
  5
31BF
330
F17
100
AcDbEntity
  8
DIM
 62
     0
100
AcDbMText
 10
26.9772982844639
 20
15.13208183942009
 30
0.0
 40
0.3125
 41
0.0
 71
     5
 72
     1
  1
\A1;6.300
 73
     1
 44
1.0
  0
POINT
  5
31C0
330
F17
100
AcDbEntity
  8
DEFPOINTS
 62
     0
100
AcDbPoint
 10
30.1272982844639
 20
12.71202983942009
 30
0.0
  0
POINT
  5
31C1
330
F17
100
AcDbEntity
  8
DEFPOINTS
 62
     0
100
AcDbPoint
 10
23.8272982844639
 20
12.71202983942009
 30
0.0
  0
POINT
  5
31C2
330
F17
100
AcDbEntity
  8
DEFPOINTS
 62
     0
100
AcDbPoint
 10
23.8272982844639
 20
15.13208183942009
 30
0.0
  0
ENDBLK
  5
F23
330
F17
100
AcDbEntity
  8
0
100
AcDbBlockEnd
  0
BLOCK
  5
F38
330
F2D
100
AcDbEntity
  8
0
100
AcDbBlockBegin
  2
*D38
 70
     1
 10
0.0
 20
0.0
 30
0.0
  3
*D38
  1

  0
LINE
  5
31C3
330
F2D
100
AcDbEntity
  8
DIM
 62
     0
370
    -2
100
AcDbLine
 10
27.4409332844639
 20
6.842029839420091
 30
0.0
 11
27.5745262844639
 21
6.842029839420091
 31
0.0
  0
LINE
  5
31C4
330
F2D
100
AcDbEntity
  8
DIM
 62
     0
370
    -2
100
AcDbLine
 10
27.4409332844639
 20
6.662029839420092
 30
0.0
 11
27.5745262844639
 21
6.662029839420092
 31
0.0
  0
LINE
  5
31C5
330
F2D
100
AcDbEntity
  8
DIM
 62
     0
370
    -2
100
AcDbLine
 10
27.3420262844639
 20
7.292029839420091
 30
0.0
 11
27.3420262844639
 21
7.742029839420092
 31
0.0
  0
LINE
  5
31C6
330
F2D
100
AcDbEntity
  8
DIM
 62
     0
370
    -2
100
AcDbLine
 10
27.3420262844639
 20
6.212029839420091
 30
0.0
 11
27.3420262844639
 21
5.762029839420091
 31
0.0
  0
LINE
  5
31C7
330
F2D
100
AcDbEntity
  8
DIM
 62
     0
370
    -2
100
AcDbLine
 10
27.3420262844639
 20
5.762029839420091
 30
0.0
 11
26.8920262844639
 21
5.762029839420091
 31
0.0
  0
SOLID
  5
31C8
330
F2D
100
AcDbEntity
  8
DIM
 62
     0
100
AcDbTrace
 10
27.2670262844639
 20
7.292029839420091
 30
0.0
 11
27.4170262844639
 21
7.292029839420091
 31
0.0
 12
27.3420262844639
 22
6.842029839420091
 32
0.0
 13
27.3420262844639
 23
6.842029839420091
 33
0.0
  0
SOLID
  5
31C9
330
F2D
100
AcDbEntity
  8
DIM
 62
     0
100
AcDbTrace
 10
27.2670262844639
 20
6.212029839420091
 30
0.0
 11
27.4170262844639
 21
6.212029839420091
 31
0.0
 12
27.3420262844639
 22
6.662029839420092
 32
0.0
 13
27.3420262844639
 23
6.662029839420092
 33
0.0
  0
MTEXT
  5
31CA
330
F2D
100
AcDbEntity
  8
DIM
 62
     0
100
AcDbMText
 10
25.7685887844639
 20
5.762029839420096
 30
0.0
 40
0.3125
 41
0.0
 71
     5
 72
     1
  1
\A1;0.180 TYP.
 73
     1
 44
1.0
  0
POINT
  5
31CB
330
F2D
100
AcDbEntity
  8
DEFPOINTS
 62
     0
100
AcDbPoint
 10
27.2834332844639
 20
6.842029839420091
 30
0.0
  0
POINT
  5
31CC
330
F2D
100
AcDbEntity
  8
DEFPOINTS
 62
     0
100
AcDbPoint
 10
27.2834332844639
 20
6.662029839420092
 30
0.0
  0
POINT
  5
31CD
330
F2D
100
AcDbEntity
  8
DEFPOINTS
 62
     0
100
AcDbPoint
 10
27.3420262844639
 20
6.662029839420092
 30
0.0
  0
ENDBLK
  5
F39
330
F2D
100
AcDbEntity
  8
0
100
AcDbBlockEnd
  0
BLOCK
  5
FDC
330
FD2
100
AcDbEntity
  8
0
100
AcDbBlockBegin
  2
*D39
 70
     1
 10
0.0
 20
0.0
 30
0.0
  3
*D39
  1

  0
LINE
  5
3140
330
FD2
100
AcDbEntity
  8
DIM
 62
     0
370
    -2
100
AcDbLine
 10
37.74375787710821
 20
13.11952983942009
 30
0.0
 11
37.74375787710821
 21
13.89596883942009
 31
0.0
  0
LINE
  5
3141
330
FD2
100
AcDbEntity
  8
DIM
 62
     0
370
    -2
100
AcDbLine
 10
36.56275787710821
 20
13.05702983942009
 30
0.0
 11
36.56275787710821
 21
13.89596883942009
 31
0.0
  0
LINE
  5
3142
330
FD2
100
AcDbEntity
  8
DIM
 62
     0
370
    -2
100
AcDbLine
 10
38.19375787710821
 20
13.66346883942009
 30
0.0
 11
38.6437578771082
 21
13.66346883942009
 31
0.0
  0
LINE
  5
3143
330
FD2
100
AcDbEntity
  8
DIM
 62
     0
370
    -2
100
AcDbLine
 10
36.11275787710821
 20
13.66346883942009
 30
0.0
 11
35.66275787710821
 21
13.66346883942009
 31
0.0
  0
SOLID
  5
3144
330
FD2
100
AcDbEntity
  8
DIM
 62
     0
100
AcDbTrace
 10
38.19375787710821
 20
13.73846883942009
 30
0.0
 11
38.19375787710821
 21
13.58846883942009
 31
0.0
 12
37.74375787710821
 22
13.66346883942009
 32
0.0
 13
37.74375787710821
 23
13.66346883942009
 33
0.0
  0
SOLID
  5
3145
330
FD2
100
AcDbEntity
  8
DIM
 62
     0
100
AcDbTrace
 10
36.11275787710821
 20
13.73846883942009
 30
0.0
 11
36.11275787710821
 21
13.58846883942009
 31
0.0
 12
36.56275787710821
 22
13.66346883942009
 32
0.0
 13
36.56275787710821
 23
13.66346883942009
 33
0.0
  0
MTEXT
  5
3146
330
FD2
100
AcDbEntity
  8
DIM
 62
     0
100
AcDbMText
 10
34.57838287710821
 20
13.66346883942009
 30
0.0
 40
0.3125
 41
0.0
 71
     5
 72
     1
  1
\A1;1.181 REF.
 73
     1
 44
1.0
  0
POINT
  5
3147
330
FD2
100
AcDbEntity
  8
DEFPOINTS
 62
     0
100
AcDbPoint
 10
37.74375787710821
 20
12.96202983942009
 30
0.0
  0
POINT
  5
3148
330
FD2
100
AcDbEntity
  8
DEFPOINTS
 62
     0
100
AcDbPoint
 10
36.56275787710821
 20
12.89952983942009
 30
0.0
  0
POINT
  5
3149
330
FD2
100
AcDbEntity
  8
DEFPOINTS
 62
     0
100
AcDbPoint
 10
36.56275787710821
 20
13.66346883942009
 30
0.0
  0
ENDBLK
  5
FDD
330
FD2
100
AcDbEntity
  8
0
100
AcDbBlockEnd
  0
BLOCK
  5
FEA
330
FDF
100
AcDbEntity
  8
0
100
AcDbBlockBegin
  2
*D40
 70
     1
 10
0.0
 20
0.0
 30
0.0
  3
*D40
  1

  0
LINE
  5
32FC
330
FDF
100
AcDbEntity
  8
DIM
 62
     0
370
    -2
100
AcDbLine
 10
36.56275787710821
 20
13.05702983942009
 30
0.0
 11
36.56275787710821
 21
14.69046883942009
 31
0.0
  0
LINE
  5
32FD
330
FDF
100
AcDbEntity
  8
DIM
 62
     0
370
    -2
100
AcDbLine
 10
38.9247578771082
 20
13.05702983942009
 30
0.0
 11
38.9247578771082
 21
14.69046883942009
 31
0.0
  0
LINE
  5
32FE
330
FDF
100
AcDbEntity
  8
DIM
 62
     0
370
    -2
100
AcDbLine
 10
36.11275787710821
 20
14.45796883942009
 30
0.0
 11
35.66275787710821
 21
14.45796883942009
 31
0.0
  0
LINE
  5
32FF
330
FDF
100
AcDbEntity
  8
DIM
 62
     0
370
    -2
100
AcDbLine
 10
39.37475787710821
 20
14.45796883942009
 30
0.0
 11
39.8247578771082
 21
14.45796883942009
 31
0.0
  0
SOLID
  5
3300
330
FDF
100
AcDbEntity
  8
DIM
 62
     0
100
AcDbTrace
 10
36.11275787710821
 20
14.53296883942009
 30
0.0
 11
36.11275787710821
 21
14.38296883942009
 31
0.0
 12
36.56275787710821
 22
14.45796883942009
 32
0.0
 13
36.56275787710821
 23
14.45796883942009
 33
0.0
  0
SOLID
  5
3301
330
FDF
100
AcDbEntity
  8
DIM
 62
     0
100
AcDbTrace
 10
39.37475787710821
 20
14.53296883942009
 30
0.0
 11
39.37475787710821
 21
14.38296883942009
 31
0.0
 12
38.9247578771082
 22
14.45796883942009
 32
0.0
 13
38.9247578771082
 23
14.45796883942009
 33
0.0
  0
MTEXT
  5
3302
330
FDF
100
AcDbEntity
  8
DIM
 62
     0
100
AcDbMText
 10
37.74375787710821
 20
14.45796883942009
 30
0.0
 40
0.3125
 41
0.0
 71
     5
 72
     1
  1
\A1;2.362
 73
     1
 44
1.0
  0
POINT
  5
3303
330
FDF
100
AcDbEntity
  8
DEFPOINTS
 62
     0
100
AcDbPoint
 10
36.56275787710821
 20
12.89952983942009
 30
0.0
  0
POINT
  5
3304
330
FDF
100
AcDbEntity
  8
DEFPOINTS
 62
     0
100
AcDbPoint
 10
38.9247578771082
 20
12.89952983942009
 30
0.0
  0
POINT
  5
3305
330
FDF
100
AcDbEntity
  8
DEFPOINTS
 62
     0
100
AcDbPoint
 10
38.9247578771082
 20
14.45796883942009
 30
0.0
  0
ENDBLK
  5
FEB
330
FDF
100
AcDbEntity
  8
0
100
AcDbBlockEnd
  0
BLOCK
  5
1007
330
FFC
100
AcDbEntity
  8
0
100
AcDbBlockBegin
  2
*D41
 70
     1
 10
0.0
 20
0.0
 30
0.0
  3
*D41
  1

  0
LINE
  5
30C6
330
FFC
100
AcDbEntity
  8
DIM
 62
     0
370
    -2
100
AcDbLine
 10
10.28934979323844
 20
9.812029839420091
 30
0.0
 11
14.01813079323844
 21
9.812029839420089
 31
0.0
  0
LINE
  5
30C7
330
FFC
100
AcDbEntity
  8
DIM
 62
     0
370
    -2
100
AcDbLine
 10
10.47234979323844
 20
12.96202983942009
 30
0.0
 11
14.01813079323844
 21
12.96202983942009
 31
0.0
  0
LINE
  5
30C8
330
FFC
100
AcDbEntity
  8
DIM
 62
     0
370
    -2
100
AcDbLine
 10
13.78563079323844
 20
10.26202983942009
 30
0.0
 11
13.78563079323844
 21
11.00577983942009
 31
0.0
  0
LINE
  5
30C9
330
FFC
100
AcDbEntity
  8
DIM
 62
     0
370
    -2
100
AcDbLine
 10
13.78563079323844
 20
12.51202983942009
 30
0.0
 11
13.78563079323844
 21
11.76827983942009
 31
0.0
  0
SOLID
  5
30CA
330
FFC
100
AcDbEntity
  8
DIM
 62
     0
100
AcDbTrace
 10
13.71063079323844
 20
10.26202983942009
 30
0.0
 11
13.86063079323844
 21
10.26202983942009
 31
0.0
 12
13.78563079323844
 22
9.812029839420089
 32
0.0
 13
13.78563079323844
 23
9.812029839420089
 33
0.0
  0
SOLID
  5
30CB
330
FFC
100
AcDbEntity
  8
DIM
 62
     0
100
AcDbTrace
 10
13.71063079323844
 20
12.51202983942009
 30
0.0
 11
13.86063079323844
 21
12.51202983942009
 31
0.0
 12
13.78563079323844
 22
12.96202983942009
 32
0.0
 13
13.78563079323844
 23
12.96202983942009
 33
0.0
  0
MTEXT
  5
30CC
330
FFC
100
AcDbEntity
  8
DIM
 62
     0
100
AcDbMText
 10
13.78563079323844
 20
11.38702983942009
 30
0.0
 40
0.3125
 41
0.0
 71
     5
 72
     1
  1
\A1;3.150
 73
     1
 44
1.0
  0
POINT
  5
30CD
330
FFC
100
AcDbEntity
  8
DEFPOINTS
 62
     0
100
AcDbPoint
 10
10.13184979323844
 20
9.812029839420091
 30
0.0
  0
POINT
  5
30CE
330
FFC
100
AcDbEntity
  8
DEFPOINTS
 62
     0
100
AcDbPoint
 10
10.31484979323844
 20
12.96202983942009
 30
0.0
  0
POINT
  5
30CF
330
FFC
100
AcDbEntity
  8
DEFPOINTS
 62
     0
100
AcDbPoint
 10
13.78563079323844
 20
12.96202983942009
 30
0.0
  0
ENDBLK
  5
1008
330
FFC
100
AcDbEntity
  8
0
100
AcDbBlockEnd
  0
BLOCK
  5
1015
330
100A
100
AcDbEntity
  8
0
100
AcDbBlockBegin
  2
*D42
 70
     1
 10
0.0
 20
0.0
 30
0.0
  3
*D42
  1

  0
LINE
  5
31CE
330
100A
100
AcDbEntity
  8
DIM
 62
     0
370
    -2
100
AcDbLine
 10
30.2222982844639
 20
17.12535786843675
 30
0.0
 11
30.97386128446391
 21
17.12535786843675
 31
0.0
  0
LINE
  5
31CF
330
100A
100
AcDbEntity
  8
DIM
 62
     0
370
    -2
100
AcDbLine
 10
30.2847982844639
 20
15.94435786843675
 30
0.0
 11
30.97386128446391
 21
15.94435786843675
 31
0.0
  0
LINE
  5
31D0
330
100A
100
AcDbEntity
  8
DIM
 62
     0
370
    -2
100
AcDbLine
 10
30.7413612844639
 20
17.57535786843675
 30
0.0
 11
30.7413612844639
 21
18.02535786843675
 31
0.0
  0
LINE
  5
31D1
330
100A
100
AcDbEntity
  8
DIM
 62
     0
370
    -2
100
AcDbLine
 10
30.7413612844639
 20
15.49435786843675
 30
0.0
 11
30.7413612844639
 21
15.04435786843675
 31
0.0
  0
SOLID
  5
31D2
330
100A
100
AcDbEntity
  8
DIM
 62
     0
100
AcDbTrace
 10
30.6663612844639
 20
17.57535786843675
 30
0.0
 11
30.8163612844639
 21
17.57535786843675
 31
0.0
 12
30.7413612844639
 22
17.12535786843675
 32
0.0
 13
30.7413612844639
 23
17.12535786843675
 33
0.0
  0
SOLID
  5
31D3
330
100A
100
AcDbEntity
  8
DIM
 62
     0
100
AcDbTrace
 10
30.6663612844639
 20
15.49435786843675
 30
0.0
 11
30.8163612844639
 21
15.49435786843675
 31
0.0
 12
30.7413612844639
 22
15.94435786843675
 32
0.0
 13
30.7413612844639
 23
15.94435786843675
 33
0.0
  0
MTEXT
  5
31D4
330
100A
100
AcDbEntity
  8
DIM
 62
     0
100
AcDbMText
 10
30.7413612844639
 20
16.53485786843675
 30
0.0
 40
0.3125
 41
0.0
 71
     5
 72
     1
  1
\A1;1.181
 73
     1
 44
1.0
  0
POINT
  5
31D5
330
100A
100
AcDbEntity
  8
DEFPOINTS
 62
     0
100
AcDbPoint
 10
30.0647982844639
 20
17.12535786843675
 30
0.0
  0
POINT
  5
31D6
330
100A
100
AcDbEntity
  8
DEFPOINTS
 62
     0
100
AcDbPoint
 10
30.1272982844639
 20
15.94435786843675
 30
0.0
  0
POINT
  5
31D7
330
100A
100
AcDbEntity
  8
DEFPOINTS
 62
     0
100
AcDbPoint
 10
30.7413612844639
 20
15.94435786843675
 30
0.0
  0
ENDBLK
  5
1016
330
100A
100
AcDbEntity
  8
0
100
AcDbBlockEnd
  0
BLOCK
  5
1023
330
1018
100
AcDbEntity
  8
0
100
AcDbBlockBegin
  2
*D43
 70
     1
 10
0.0
 20
0.0
 30
0.0
  3
*D43
  1

  0
LINE
  5
32F2
330
1018
100
AcDbEntity
  8
DIM
 62
     0
370
    -2
100
AcDbLine
 10
10.65984979323844
 20
18.36000868477818
 30
0.0
 11
11.64809579323844
 21
18.36000868477818
 31
0.0
  0
LINE
  5
32F3
330
1018
100
AcDbEntity
  8
DIM
 62
     0
370
    -2
100
AcDbLine
 10
10.64434979323844
 20
17.13900868477818
 30
0.0
 11
11.64809579323844
 21
17.13900868477818
 31
0.0
  0
LINE
  5
32F4
330
1018
100
AcDbEntity
  8
DIM
 62
     0
370
    -2
100
AcDbLine
 10
11.41559579323844
 20
18.81000868477818
 30
0.0
 11
11.41559579323844
 21
19.26000868477818
 31
0.0
  0
LINE
  5
32F5
330
1018
100
AcDbEntity
  8
DIM
 62
     0
370
    -2
100
AcDbLine
 10
11.41559579323844
 20
16.68900868477818
 30
0.0
 11
11.41559579323844
 21
16.23900868477818
 31
0.0
  0
SOLID
  5
32F6
330
1018
100
AcDbEntity
  8
DIM
 62
     0
100
AcDbTrace
 10
11.34059579323844
 20
18.81000868477818
 30
0.0
 11
11.49059579323844
 21
18.81000868477818
 31
0.0
 12
11.41559579323844
 22
18.36000868477818
 32
0.0
 13
11.41559579323844
 23
18.36000868477818
 33
0.0
  0
SOLID
  5
32F7
330
1018
100
AcDbEntity
  8
DIM
 62
     0
100
AcDbTrace
 10
11.34059579323844
 20
16.68900868477818
 30
0.0
 11
11.49059579323844
 21
16.68900868477818
 31
0.0
 12
11.41559579323844
 22
17.13900868477818
 32
0.0
 13
11.41559579323844
 23
17.13900868477818
 33
0.0
  0
MTEXT
  5
32F8
330
1018
100
AcDbEntity
  8
DIM
 62
     0
100
AcDbMText
 10
11.41559579323844
 20
17.74950868477818
 30
0.0
 40
0.3125
 41
0.0
 71
     5
 72
     1
  1
\A1;1.221
 73
     1
 44
1.0
  0
POINT
  5
32F9
330
1018
100
AcDbEntity
  8
DEFPOINTS
 62
     0
100
AcDbPoint
 10
10.50234979323844
 20
18.36000868477818
 30
0.0
  0
POINT
  5
32FA
330
1018
100
AcDbEntity
  8
DEFPOINTS
 62
     0
100
AcDbPoint
 10
10.48684979323844
 20
17.13900868477818
 30
0.0
  0
POINT
  5
32FB
330
1018
100
AcDbEntity
  8
DEFPOINTS
 62
     0
100
AcDbPoint
 10
11.41559579323844
 20
17.13900868477818
 30
0.0
  0
ENDBLK
  5
1024
330
1018
100
AcDbEntity
  8
0
100
AcDbBlockEnd
  0
BLOCK
  5
1044
330
1039
100
AcDbEntity
  8
0
100
AcDbBlockBegin
  2
*D44
 70
     1
 10
0.0
 20
0.0
 30
0.0
  3
*D44
  1

  0
LINE
  5
314A
330
1039
100
AcDbEntity
  8
DIM
 62
     0
370
    -2
100
AcDbLine
 10
33.54918883009927
 20
10.89524983942009
 30
0.0
 11
33.54918883009927
 21
10.76876783942009
 31
0.0
  0
LINE
  5
314B
330
1039
100
AcDbEntity
  8
DIM
 62
     0
370
    -2
100
AcDbLine
 10
33.66918883009927
 20
10.89524983942009
 30
0.0
 11
33.66918883009927
 21
10.76876783942009
 31
0.0
  0
LINE
  5
314C
330
1039
100
AcDbEntity
  8
DIM
 62
     0
370
    -2
100
AcDbLine
 10
33.09918883009926
 20
11.00126783942009
 30
0.0
 11
32.64918883009927
 21
11.00126783942009
 31
0.0
  0
LINE
  5
314D
330
1039
100
AcDbEntity
  8
DIM
 62
     0
370
    -2
100
AcDbLine
 10
34.11918883009927
 20
11.00126783942009
 30
0.0
 11
34.56918883009927
 21
11.00126783942009
 31
0.0
  0
SOLID
  5
314E
330
1039
100
AcDbEntity
  8
DIM
 62
     0
100
AcDbTrace
 10
33.09918883009926
 20
11.07626783942009
 30
0.0
 11
33.09918883009926
 21
10.92626783942009
 31
0.0
 12
33.54918883009927
 22
11.00126783942009
 32
0.0
 13
33.54918883009927
 23
11.00126783942009
 33
0.0
  0
SOLID
  5
314F
330
1039
100
AcDbEntity
  8
DIM
 62
     0
100
AcDbTrace
 10
34.11918883009927
 20
11.07626783942009
 30
0.0
 11
34.11918883009927
 21
10.92626783942009
 31
0.0
 12
33.66918883009927
 22
11.00126783942009
 32
0.0
 13
33.66918883009927
 23
11.00126783942009
 33
0.0
  0
MTEXT
  5
3150
330
1039
100
AcDbEntity
  8
DIM
 62
     0
100
AcDbMText
 10
35.18481383009927
 20
11.00126783942009
 30
0.0
 40
0.3125
 41
0.0
 71
     5
 72
     1
  1
\A1;0.120
 73
     1
 44
1.0
  0
POINT
  5
3151
330
1039
100
AcDbEntity
  8
DEFPOINTS
 62
     0
100
AcDbPoint
 10
33.54918883009927
 20
11.05274983942009
 30
0.0
  0
POINT
  5
3152
330
1039
100
AcDbEntity
  8
DEFPOINTS
 62
     0
100
AcDbPoint
 10
33.66918883009927
 20
11.05274983942009
 30
0.0
  0
POINT
  5
3153
330
1039
100
AcDbEntity
  8
DEFPOINTS
 62
     0
100
AcDbPoint
 10
33.66918883009927
 20
11.00126783942009
 30
0.0
  0
ENDBLK
  5
1045
330
1039
100
AcDbEntity
  8
0
100
AcDbBlockEnd
  0
BLOCK
  5
1147
330
113C
100
AcDbEntity
  8
0
100
AcDbBlockBegin
  2
*D45
 70
     1
 10
0.0
 20
0.0
 30
0.0
  3
*D45
  1

  0
LINE
  5
2648
330
113C
100
AcDbEntity
  8
DIM
 62
     0
370
    -2
100
AcDbLine
 10
38.85540653945485
 20
19.07802537904445
 30
0.0
 11
40.21313753945485
 21
19.07802537904445
 31
0.0
  0
LINE
  5
2649
330
113C
100
AcDbEntity
  8
DIM
 62
     0
370
    -2
100
AcDbLine
 10
38.85540653945485
 20
20.31802537904445
 30
0.0
 11
40.21313753945485
 21
20.31802537904445
 31
0.0
  0
LINE
  5
264A
330
113C
100
AcDbEntity
  8
DIM
 62
     0
370
    -2
100
AcDbLine
 10
39.98063753945485
 20
18.62802537904445
 30
0.0
 11
39.98063753945485
 21
18.17802537904445
 31
0.0
  0
LINE
  5
264B
330
113C
100
AcDbEntity
  8
DIM
 62
     0
370
    -2
100
AcDbLine
 10
39.98063753945485
 20
20.76802537904445
 30
0.0
 11
39.98063753945485
 21
21.21802537904445
 31
0.0
  0
SOLID
  5
264C
330
113C
100
AcDbEntity
  8
DIM
 62
     0
100
AcDbTrace
 10
39.90563753945485
 20
18.62802537904445
 30
0.0
 11
40.05563753945486
 21
18.62802537904445
 31
0.0
 12
39.98063753945485
 22
19.07802537904445
 32
0.0
 13
39.98063753945485
 23
19.07802537904445
 33
0.0
  0
SOLID
  5
264D
330
113C
100
AcDbEntity
  8
DIM
 62
     0
100
AcDbTrace
 10
39.90563753945485
 20
20.76802537904445
 30
0.0
 11
40.05563753945486
 21
20.76802537904445
 31
0.0
 12
39.98063753945485
 22
20.31802537904445
 32
0.0
 13
39.98063753945485
 23
20.31802537904445
 33
0.0
  0
MTEXT
  5
264E
330
113C
100
AcDbEntity
  8
DIM
 62
     0
100
AcDbMText
 10
39.98063753945484
 20
19.69802537904445
 30
0.0
 40
0.3125
 41
0.0
 71
     5
 72
     1
  1
\A1;0.310 DIA.\PC'BORE
 73
     1
 44
1.0
  0
POINT
  5
264F
330
113C
100
AcDbEntity
  8
DEFPOINTS
 62
     0
100
AcDbPoint
 10
38.69790653945484
 20
19.07802537904445
 30
0.0
  0
POINT
  5
2650
330
113C
100
AcDbEntity
  8
DEFPOINTS
 62
     0
100
AcDbPoint
 10
38.69790653945484
 20
20.31802537904445
 30
0.0
  0
POINT
  5
2651
330
113C
100
AcDbEntity
  8
DEFPOINTS
 62
     0
100
AcDbPoint
 10
39.98063753945485
 20
20.31802537904445
 30
0.0
  0
ENDBLK
  5
1148
330
113C
100
AcDbEntity
  8
0
100
AcDbBlockEnd
  0
BLOCK
  5
1165
330
115A
100
AcDbEntity
  8
0
100
AcDbBlockBegin
  2
*D46
 70
     1
 10
0.0
 20
0.0
 30
0.0
  3
*D46
  1

  0
LINE
  5
2633
330
115A
100
AcDbEntity
  8
DIM
 62
     0
370
    -2
100
AcDbLine
 10
33.81640653945485
 20
20.04177537904446
 30
0.0
 11
32.68672553945485
 21
20.04177537904446
 31
0.0
  0
LINE
  5
2634
330
115A
100
AcDbEntity
  8
DIM
 62
     0
370
    -2
100
AcDbLine
 10
33.81640653945485
 20
19.35427537904446
 30
0.0
 11
32.68672553945485
 21
19.35427537904446
 31
0.0
  0
LINE
  5
2635
330
115A
100
AcDbEntity
  8
DIM
 62
     0
370
    -2
100
AcDbLine
 10
32.91922553945485
 20
20.49177537904446
 30
0.0
 11
32.91922553945485
 21
20.94177537904446
 31
0.0
  0
LINE
  5
2636
330
115A
100
AcDbEntity
  8
DIM
 62
     0
370
    -2
100
AcDbLine
 10
32.91922553945485
 20
18.90427537904446
 30
0.0
 11
32.91922553945485
 21
18.45427537904446
 31
0.0
  0
SOLID
  5
2637
330
115A
100
AcDbEntity
  8
DIM
 62
     0
100
AcDbTrace
 10
32.84422553945484
 20
20.49177537904446
 30
0.0
 11
32.99422553945485
 21
20.49177537904446
 31
0.0
 12
32.91922553945485
 22
20.04177537904446
 32
0.0
 13
32.91922553945485
 23
20.04177537904446
 33
0.0
  0
SOLID
  5
2638
330
115A
100
AcDbEntity
  8
DIM
 62
     0
100
AcDbTrace
 10
32.84422553945484
 20
18.90427537904446
 30
0.0
 11
32.99422553945485
 21
18.90427537904446
 31
0.0
 12
32.91922553945485
 22
19.35427537904446
 32
0.0
 13
32.91922553945485
 23
19.35427537904446
 33
0.0
  0
MTEXT
  5
2639
330
115A
100
AcDbEntity
  8
DIM
 62
     0
100
AcDbMText
 10
32.91922553945484
 20
19.69802537904446
 30
0.0
 40
0.3125
 41
0.0
 71
     5
 72
     1
  1
\A1;0.172 DIA.
 73
     1
 44
1.0
  0
POINT
  5
263A
330
115A
100
AcDbEntity
  8
DEFPOINTS
 62
     0
100
AcDbPoint
 10
33.97390653945485
 20
20.04177537904446
 30
0.0
  0
POINT
  5
263B
330
115A
100
AcDbEntity
  8
DEFPOINTS
 62
     0
100
AcDbPoint
 10
33.97390653945485
 20
19.35427537904446
 30
0.0
  0
POINT
  5
263C
330
115A
100
AcDbEntity
  8
DEFPOINTS
 62
     0
100
AcDbPoint
 10
32.91922553945485
 20
19.35427537904446
 30
0.0
  0
ENDBLK
  5
1166
330
115A
100
AcDbEntity
  8
0
100
AcDbBlockEnd
  0
BLOCK
  5
1181
330
1176
100
AcDbEntity
  8
0
100
AcDbBlockBegin
  2
*D47
 70
     1
 10
0.0
 20
0.0
 30
0.0
  3
*D47
  1

  0
LINE
  5
261F
330
1176
100
AcDbEntity
  8
DIM
 62
     0
370
    -2
100
AcDbLine
 10
38.69790653945484
 20
18.68652537904445
 30
0.0
 11
38.69790653945484
 21
17.83463101891583
 31
0.0
  0
LINE
  5
2620
330
1176
100
AcDbEntity
  8
DIM
 62
     0
370
    -2
100
AcDbLine
 10
35.76190653945482
 20
18.92052537904445
 30
0.0
 11
35.76190653945482
 21
17.83463101891583
 31
0.0
  0
LINE
  5
2621
330
1176
100
AcDbEntity
  8
DIM
 62
     0
370
    -2
100
AcDbLine
 10
38.24790653945484
 20
18.06713101891583
 30
0.0
 11
37.90412528945483
 21
18.06713101891583
 31
0.0
  0
LINE
  5
2622
330
1176
100
AcDbEntity
  8
DIM
 62
     0
370
    -2
100
AcDbLine
 10
36.21190653945482
 20
18.06713101891583
 30
0.0
 11
36.55568778945482
 21
18.06713101891583
 31
0.0
  0
SOLID
  5
2623
330
1176
100
AcDbEntity
  8
DIM
 62
     0
100
AcDbTrace
 10
38.24790653945484
 20
18.14213101891583
 30
0.0
 11
38.24790653945484
 21
17.99213101891584
 31
0.0
 12
38.69790653945484
 22
18.06713101891583
 32
0.0
 13
38.69790653945484
 23
18.06713101891583
 33
0.0
  0
SOLID
  5
2624
330
1176
100
AcDbEntity
  8
DIM
 62
     0
100
AcDbTrace
 10
36.21190653945482
 20
18.14213101891583
 30
0.0
 11
36.21190653945482
 21
17.99213101891584
 31
0.0
 12
35.76190653945482
 22
18.06713101891583
 32
0.0
 13
35.76190653945482
 23
18.06713101891583
 33
0.0
  0
MTEXT
  5
2625
330
1176
100
AcDbEntity
  8
DIM
 62
     0
100
AcDbMText
 10
37.22990653945483
 20
18.06713101891583
 30
0.0
 40
0.3125
 41
0.0
 71
     5
 72
     1
  1
\A1;0.734
 73
     1
 44
1.0
  0
POINT
  5
2626
330
1176
100
AcDbEntity
  8
DEFPOINTS
 62
     0
100
AcDbPoint
 10
38.69790653945484
 20
18.84402537904445
 30
0.0
  0
POINT
  5
2627
330
1176
100
AcDbEntity
  8
DEFPOINTS
 62
     0
100
AcDbPoint
 10
35.76190653945482
 20
19.07802537904445
 30
0.0
  0
POINT
  5
2628
330
1176
100
AcDbEntity
  8
DEFPOINTS
 62
     0
100
AcDbPoint
 10
35.76190653945482
 20
18.06713101891583
 30
0.0
  0
ENDBLK
  5
1182
330
1176
100
AcDbEntity
  8
0
100
AcDbBlockEnd
  0
BLOCK
  5
118F
330
1184
100
AcDbEntity
  8
0
100
AcDbBlockBegin
  2
*D48
 70
     1
 10
0.0
 20
0.0
 30
0.0
  3
*D48
  1

  0
LINE
  5
263D
330
1184
100
AcDbEntity
  8
DIM
 62
     0
370
    -2
100
AcDbLine
 10
33.81640653945485
 20
22.13130837904445
 30
0.0
 11
31.736205588722
 21
22.13130837904445
 31
0.0
  0
LINE
  5
263E
330
1184
100
AcDbEntity
  8
DIM
 62
     0
370
    -2
100
AcDbLine
 10
33.81640653945485
 20
22.45130837904445
 30
0.0
 11
31.736205588722
 21
22.45130837904445
 31
0.0
  0
LINE
  5
263F
330
1184
100
AcDbEntity
  8
DIM
 62
     0
370
    -2
100
AcDbLine
 10
31.968705588722
 20
21.68130837904445
 30
0.0
 11
31.968705588722
 21
21.23130837904445
 31
0.0
  0
LINE
  5
2640
330
1184
100
AcDbEntity
  8
DIM
 62
     0
370
    -2
100
AcDbLine
 10
31.968705588722
 20
22.90130837904445
 30
0.0
 11
31.968705588722
 21
23.35130837904445
 31
0.0
  0
LINE
  5
2641
330
1184
100
AcDbEntity
  8
DIM
 62
     0
370
    -2
100
AcDbLine
 10
31.968705588722
 20
23.35130837904445
 30
0.0
 11
32.418705588722
 21
23.35130837904445
 31
0.0
  0
SOLID
  5
2642
330
1184
100
AcDbEntity
  8
DIM
 62
     0
100
AcDbTrace
 10
31.893705588722
 20
21.68130837904445
 30
0.0
 11
32.043705588722
 21
21.68130837904445
 31
0.0
 12
31.968705588722
 22
22.13130837904445
 32
0.0
 13
31.968705588722
 23
22.13130837904445
 33
0.0
  0
SOLID
  5
2643
330
1184
100
AcDbEntity
  8
DIM
 62
     0
100
AcDbTrace
 10
31.893705588722
 20
22.90130837904445
 30
0.0
 11
32.043705588722
 21
22.90130837904445
 31
0.0
 12
31.968705588722
 22
22.45130837904445
 32
0.0
 13
31.968705588722
 23
22.45130837904445
 33
0.0
  0
MTEXT
  5
2644
330
1184
100
AcDbEntity
  8
DIM
 62
     0
100
AcDbMText
 10
33.053861838722
 20
23.35130837904445
 30
0.0
 40
0.3125
 41
0.0
 71
     5
 72
     1
  1
\A1;0.080
 73
     1
 44
1.0
  0
POINT
  5
2645
330
1184
100
AcDbEntity
  8
DEFPOINTS
 62
     0
100
AcDbPoint
 10
33.97390653945485
 20
22.13130837904445
 30
0.0
  0
POINT
  5
2646
330
1184
100
AcDbEntity
  8
DEFPOINTS
 62
     0
100
AcDbPoint
 10
33.97390653945485
 20
22.45130837904445
 30
0.0
  0
POINT
  5
2647
330
1184
100
AcDbEntity
  8
DEFPOINTS
 62
     0
100
AcDbPoint
 10
31.968705588722
 20
22.45130837904445
 30
0.0
  0
ENDBLK
  5
1190
330
1184
100
AcDbEntity
  8
0
100
AcDbBlockEnd
  0
BLOCK
  5
119D
330
1192
100
AcDbEntity
  8
0
100
AcDbBlockBegin
  2
*D49
 70
     1
 10
0.0
 20
0.0
 30
0.0
  3
*D49
  1

  0
LINE
  5
2629
330
1192
100
AcDbEntity
  8
DIM
 62
     0
370
    -2
100
AcDbLine
 10
34.43390653945484
 20
22.60880837904445
 30
0.0
 11
34.43390653945484
 21
24.24606537904446
 31
0.0
  0
LINE
  5
262A
330
1192
100
AcDbEntity
  8
DIM
 62
     0
370
    -2
100
AcDbLine
 10
33.97390653945485
 20
23.25499549394728
 30
0.0
 11
33.97390653945485
 21
24.24606537904446
 31
0.0
  0
LINE
  5
262B
330
1192
100
AcDbEntity
  8
DIM
 62
     0
370
    -2
100
AcDbLine
 10
34.88390653945485
 20
24.01356537904446
 30
0.0
 11
35.33390653945484
 21
24.01356537904446
 31
0.0
  0
LINE
  5
262C
330
1192
100
AcDbEntity
  8
DIM
 62
     0
370
    -2
100
AcDbLine
 10
33.52390653945485
 20
24.01356537904446
 30
0.0
 11
33.07390653945486
 21
24.01356537904446
 31
0.0
  0
SOLID
  5
262D
330
1192
100
AcDbEntity
  8
DIM
 62
     0
100
AcDbTrace
 10
34.88390653945485
 20
24.08856537904445
 30
0.0
 11
34.88390653945485
 21
23.93856537904445
 31
0.0
 12
34.43390653945484
 22
24.01356537904446
 32
0.0
 13
34.43390653945484
 23
24.01356537904446
 33
0.0
  0
SOLID
  5
262E
330
1192
100
AcDbEntity
  8
DIM
 62
     0
100
AcDbTrace
 10
33.52390653945485
 20
24.08856537904445
 30
0.0
 11
33.52390653945485
 21
23.93856537904445
 31
0.0
 12
33.97390653945485
 22
24.01356537904446
 32
0.0
 13
33.97390653945485
 23
24.01356537904446
 33
0.0
  0
MTEXT
  5
262F
330
1192
100
AcDbEntity
  8
DIM
 62
     0
100
AcDbMText
 10
32.47781278945486
 20
24.01356537904446
 30
0.0
 40
0.3125
 41
0.0
 71
     5
 72
     1
  1
\A1;0.115
 73
     1
 44
1.0
  0
POINT
  5
2630
330
1192
100
AcDbEntity
  8
DEFPOINTS
 62
     0
100
AcDbPoint
 10
34.43390653945484
 20
22.45130837904445
 30
0.0
  0
POINT
  5
2631
330
1192
100
AcDbEntity
  8
DEFPOINTS
 62
     0
100
AcDbPoint
 10
33.97390653945485
 20
23.09749549394728
 30
0.0
  0
POINT
  5
2632
330
1192
100
AcDbEntity
  8
DEFPOINTS
 62
     0
100
AcDbPoint
 10
33.97390653945485
 20
24.01356537904446
 30
0.0
  0
ENDBLK
  5
119E
330
1192
100
AcDbEntity
  8
0
100
AcDbBlockEnd
  0
BLOCK
  5
1843
330
182C
100
AcDbEntity
  8
0
100
AcDbBlockBegin
  2
HBS
 70
     0
 10
0.0
 20
0.0
 30
0.0
  3
HBS
  1

  0
LINE
  5
182D
330
182C
100
AcDbEntity
  8
TITLE
100
AcDbLine
 10
0.0620000000000118
 20
10.266
 30
0.0
 11
16.53800000000001
 21
10.266
 31
0.0
  0
LINE
  5
182E
330
182C
100
AcDbEntity
  8
TITLE
100
AcDbLine
 10
16.53800000000001
 20
0.0620000000000012
 30
0.0
 11
0.0620000000000118
 21
0.0620000000000012
 31
0.0
  0
LINE
  5
182F
330
182C
100
AcDbEntity
  8
TITLE
100
AcDbLine
 10
0.0
 20
10.32799999999999
 30
0.0
 11
16.59999999999999
 21
10.32799999999999
 31
0.0
  0
LINE
  5
1830
330
182C
100
AcDbEntity
  8
TITLE
100
AcDbLine
 10
16.59999999999999
 20
0.0
 30
0.0
 11
0.0
 21
0.0
 31
0.0
  0
LINE
  5
1831
330
182C
100
AcDbEntity
  8
TITLE
100
AcDbLine
 10
0.0620000000000118
 20
9.848000000000002
 30
0.0
 11
16.53800000000001
 21
9.848000000000006
 31
0.0
  0
LINE
  5
1832
330
182C
100
AcDbEntity
  8
TITLE
100
AcDbLine
 10
0.0620000000000118
 20
0.0620000000000012
 30
0.0
 11
0.0620000000000118
 21
10.266
 31
0.0
  0
LINE
  5
1833
330
182C
100
AcDbEntity
  8
TITLE
100
AcDbLine
 10
0.0
 20
0.0
 30
0.0
 11
0.0
 21
10.32799999999999
 31
0.0
  0
TEXT
  5
1834
330
182C
100
AcDbEntity
  8
TEXT
100
AcDbText
 10
0.2078333333333452
 20
9.888079195640081
 30
0.0
 40
0.125
  1
NAME
 72
     1
 11
0.4370000000000119
 21
9.888079195640081
 31
0.0
100
AcDbText
  0
TEXT
  5
1835
330
182C
100
AcDbEntity
  8
TEXT
100
AcDbText
 10
0.2078333333333452
 20
10.09641252897341
 30
0.0
 40
0.125
  1
PART
 72
     1
 11
0.4370000000000119
 21
10.09641252897341
 31
0.0
100
AcDbText
  0
LINE
  5
1836
330
182C
100
AcDbEntity
  8
TITLE
100
AcDbLine
 10
0.8120000000000118
 20
9.848000000000002
 30
0.0
 11
0.8120000000000118
 21
10.266
 31
0.0
  0
LINE
  5
1837
330
182C
100
AcDbEntity
  8
TITLE
100
AcDbLine
 10
7.0
 20
10.266
 30
0.0
 11
7.0
 21
9.848000000000002
 31
0.0
  0
LINE
  5
1838
330
182C
100
AcDbEntity
  8
TITLE
100
AcDbLine
 10
7.062000000000011
 20
10.266
 30
0.0
 11
7.062000000000011
 21
9.848000000000002
 31
0.0
  0
LINE
  5
1839
330
182C
100
AcDbEntity
  8
TITLE
100
AcDbLine
 10
7.812000000000011
 20
10.266
 30
0.0
 11
7.812000000000011
 21
9.848000000000002
 31
0.0
  0
TEXT
  5
183A
330
182C
100
AcDbEntity
  8
TEXT
100
AcDbText
 10
7.312000000000011
 20
9.888079195640081
 30
0.0
 40
0.125
  1
No.
 72
     1
 11
7.437000000000011
 21
9.888079195640081
 31
0.0
100
AcDbText
  0
TEXT
  5
183B
330
182C
100
AcDbEntity
  8
TEXT
100
AcDbText
 10
7.207833333333344
 20
10.09641252897341
 30
0.0
 40
0.125
  1
PART
 72
     1
 11
7.437000000000011
 21
10.09641252897341
 31
0.0
100
AcDbText
  0
LINE
  5
183C
330
182C
100
AcDbEntity
  8
TITLE
100
AcDbLine
 10
16.53800000000001
 20
10.266
 30
0.0
 11
16.53800000000001
 21
0.0620000000000012
 31
0.0
  0
LINE
  5
183D
330
182C
100
AcDbEntity
  8
TITLE
100
AcDbLine
 10
16.59999999999999
 20
10.32799999999999
 30
0.0
 11
16.59999999999999
 21
0.0
 31
0.0
  0
TEXT
  5
183E
330
182C
100
AcDbEntity
  8
TEXT
100
AcDbText
 10
14.22865779971668
 20
10.09641252897341
 30
0.0
 40
0.125
  1
REV.
 72
     1
 11
14.43699113305001
 21
10.09641252897341
 31
0.0
100
AcDbText
  0
TEXT
  5
183F
330
182C
100
AcDbEntity
  8
TEXT
100
AcDbText
 10
14.20782446638335
 20
9.888079195640081
 30
0.0
 40
0.125
  1
DATE
 72
     1
 11
14.43699113305001
 21
9.888079195640081
 31
0.0
100
AcDbText
  0
LINE
  5
1840
330
182C
100
AcDbEntity
  8
TITLE
100
AcDbLine
 10
14.06199113305001
 20
10.266
 30
0.0
 11
14.06199113305001
 21
9.848000000000002
 31
0.0
  0
LINE
  5
1841
330
182C
100
AcDbEntity
  8
TITLE
100
AcDbLine
 10
14.81199113305001
 20
10.266
 30
0.0
 11
14.81199113305001
 21
9.848000000000002
 31
0.0
  0
LINE
  5
1842
330
182C
100
AcDbEntity
  8
TITLE
100
AcDbLine
 10
13.99999113305
 20
10.266
 30
0.0
 11
13.99999113305
 21
9.848000000000002
 31
0.0
  0
ENDBLK
  5
1844
330
182C
100
AcDbEntity
  8
0
100
AcDbBlockEnd
  0
ENDSEC
  0
SECTION
  2
ENTITIES
  0
TEXT
  5
B20
330
1E
100
AcDbEntity
  8
TEXT
100
AcDbText
 10
28.5020232844639
 20
4.333277611983888
 30
0.0
 40
0.45
  1
%%UCOVER
 41
0.75
 72
     1
 11
29.3513982844639
 21
4.333277611983888
 31
0.0
100
AcDbText
  0
TEXT
  5
B21
330
1E
100
AcDbEntity
  8
TEXT
100
AcDbText
 10
9.471293008976843
 20
2.670682122514584
 30
0.0
 40
0.45
  1
%%UBODY
 41
0.75
 72
     1
 11
10.09566800897684
 21
2.670682122514584
 31
0.0
100
AcDbText
  0
LWPOLYLINE
  5
B3E
330
1E
100
AcDbEntity
  8
OBJECT
100
AcDbPolyline
 90
        8
 70
     1
 43
0.0
 10
4.514849793238443
 20
6.662029839420092
 10
10.31484979323844
 20
6.662029839420092
 42
0.4142140000000001
 10
10.56484979323844
 20
6.912029839420092
 10
10.56484979323844
 20
12.71202983942009
 42
0.4142140000000001
 10
10.31484979323844
 20
12.96202983942009
 10
4.514849793238443
 20
12.96202983942009
 42
0.4142140000000001
 10
4.264849793238443
 20
12.71202983942009
 10
4.264849793238443
 20
6.912029839420092
 42
0.4142140000000001
  0
CIRCLE
  5
B48
330
1E
100
AcDbEntity
  8
OBJECT
100
AcDbCircle
 10
10.28884979323844
 20
12.68602983942009
 30
0.0
 40
0.125
  0
CIRCLE
  5
B49
330
1E
100
AcDbEntity
  8
OBJECT
100
AcDbCircle
 10
10.28884979323844
 20
12.29302983942009
 30
0.0
 40
0.085
  0
LWPOLYLINE
  5
B4A
330
1E
100
AcDbEntity
  8
OBJECT
100
AcDbPolyline
 90
        6
 70
     1
 43
0.0
 10
10.46984979323844
 20
12.01361983942009
 42
0.230352
 10
10.31484979323844
 20
12.08902983942009
 10
10.11984979323844
 20
12.08902983942009
 42
-0.4142140000000001
 10
9.941849793238443
 20
12.26702983942009
 10
9.941849793238443
 20
12.48202983942009
 10
10.46984979323844
 20
12.48202983942009
  0
LWPOLYLINE
  5
B52
330
1E
100
AcDbEntity
  8
OBJECT
100
AcDbPolyline
 90
        6
 70
     1
 43
0.0
 10
4.359849793238444
 20
12.01361983942009
 42
-0.230352
 10
4.514849793238443
 20
12.08902983942009
 10
4.709849793238443
 20
12.08902983942009
 42
0.4142140000000001
 10
4.887849793238443
 20
12.26702983942009
 10
4.887849793238443
 20
12.48202983942009
 10
4.359849793238444
 20
12.48202983942009
  0
CIRCLE
  5
B5A
330
1E
100
AcDbEntity
  8
OBJECT
100
AcDbCircle
 10
4.540849793238443
 20
12.29302983942009
 30
0.0
 40
0.085
  0
LWPOLYLINE
  5
B5B
330
1E
100
AcDbEntity
  8
OBJECT
100
AcDbPolyline
 90
        6
 70
     1
 43
0.0
 10
4.359849793238444
 20
7.610440839420093
 42
0.230352
 10
4.514849793238443
 20
7.535029839420092
 10
4.709849793238443
 20
7.535029839420092
 42
-0.4142140000000001
 10
4.887849793238443
 20
7.357029839420093
 10
4.887849793238443
 20
7.142029839420092
 10
4.359849793238444
 20
7.142029839420092
  0
CIRCLE
  5
B63
330
1E
100
AcDbEntity
  8
OBJECT
100
AcDbCircle
 10
4.540849793238443
 20
7.331029839420093
 30
0.0
 40
0.085
  0
LWPOLYLINE
  5
B64
330
1E
100
AcDbEntity
  8
OBJECT
100
AcDbPolyline
 90
        6
 70
     1
 43
0.0
 10
10.46984979323844
 20
7.610440839420093
 42
-0.230352
 10
10.31484979323844
 20
7.535029839420092
 10
10.11984979323844
 20
7.535029839420092
 42
0.4142140000000001
 10
9.941849793238443
 20
7.357029839420093
 10
9.941849793238443
 20
7.142029839420092
 10
10.46984979323844
 20
7.142029839420092
  0
CIRCLE
  5
B6C
330
1E
100
AcDbEntity
  8
OBJECT
100
AcDbCircle
 10
10.28884979323844
 20
7.331029839420093
 30
0.0
 40
0.085
  0
CIRCLE
  5
B6D
330
1E
100
AcDbEntity
  8
OBJECT
100
AcDbCircle
 10
10.28884979323844
 20
12.68602983942009
 30
0.0
 40
0.066
  0
CIRCLE
  5
B6E
330
1E
100
AcDbEntity
  8
OBJECT
100
AcDbCircle
 10
4.540849793238443
 20
12.68602983942009
 30
0.0
 40
0.066
  0
CIRCLE
  5
B6F
330
1E
100
AcDbEntity
  8
OBJECT
100
AcDbCircle
 10
4.540849793238443
 20
12.68602983942009
 30
0.0
 40
0.125
  0
CIRCLE
  5
B70
330
1E
100
AcDbEntity
  8
OBJECT
100
AcDbCircle
 10
4.540849793238443
 20
6.938029839420092
 30
0.0
 40
0.125
  0
CIRCLE
  5
B71
330
1E
100
AcDbEntity
  8
OBJECT
100
AcDbCircle
 10
4.540849793238443
 20
6.938029839420092
 30
0.0
 40
0.066
  0
CIRCLE
  5
B72
330
1E
100
AcDbEntity
  8
OBJECT
100
AcDbCircle
 10
10.28884979323844
 20
6.938029839420092
 30
0.0
 40
0.066
  0
CIRCLE
  5
B73
330
1E
100
AcDbEntity
  8
OBJECT
100
AcDbCircle
 10
10.28884979323844
 20
6.938029839420092
 30
0.0
 40
0.125
  0
LWPOLYLINE
  5
B74
330
1E
100
AcDbEntity
  8
OBJECT
100
AcDbPolyline
 90
       24
 70
     1
 43
0.0
 10
4.382849793238444
 20
11.89202983942009
 10
4.382849793238444
 20
7.732029839420093
 42
0.4142140000000001
 10
4.514849793238443
 20
7.600029839420091
 10
4.709849793238443
 20
7.600029839420091
 42
-0.4142140000000001
 10
4.952849793238443
 20
7.357029839420093
 10
4.952849793238443
 20
6.912029839420092
 42
0.4142140000000001
 10
5.084849793238443
 20
6.780029839420092
 10
9.744849793238444
 20
6.780029839420092
 42
0.4142140000000001
 10
9.876849793238442
 20
6.912029839420092
 10
9.876849793238442
 20
7.357029839420093
 42
-0.4142140000000001
 10
10.11984979323844
 20
7.600029839420091
 10
10.31484979323844
 20
7.600029839420091
 42
0.4142140000000001
 10
10.44684979323844
 20
7.732029839420093
 10
10.44684979323844
 20
11.89202983942009
 42
0.4142140000000001
 10
10.31484979323844
 20
12.02402983942009
 10
10.11984979323844
 20
12.02402983942009
 42
-0.4142140000000001
 10
9.876849793238442
 20
12.26702983942009
 10
9.876849793238442
 20
12.71202983942009
 42
0.4142140000000001
 10
9.744849793238444
 20
12.84402983942009
 10
5.084849793238443
 20
12.84402983942009
 42
0.4142140000000001
 10
4.952849793238443
 20
12.71202983942009
 10
4.952849793238443
 20
12.26702983942009
 42
-0.4142140000000001
 10
4.709849793238443
 20
12.02402983942009
 10
4.514849793238443
 20
12.02402983942009
 42
0.4142140000000001
  0
LWPOLYLINE
  5
B8E
330
1E
100
AcDbEntity
  8
OBJECT
100
AcDbPolyline
 90
       24
 70
     1
 43
0.0
 10
4.342849793238443
 20
11.89202983942009
 10
4.342849793238443
 20
7.732029839420093
 42
0.4142140000000001
 10
4.514849793238443
 20
7.560029839420092
 10
4.709849793238443
 20
7.560029839420092
 42
-0.4142140000000001
 10
4.912849793238443
 20
7.357029839420093
 10
4.912849793238443
 20
6.912029839420092
 42
0.4142140000000001
 10
5.084849793238443
 20
6.740029839420092
 10
9.744849793238444
 20
6.740029839420092
 42
0.4142140000000001
 10
9.916849793238442
 20
6.912029839420092
 10
9.916849793238442
 20
7.357029839420093
 42
-0.4142140000000001
 10
10.11984979323844
 20
7.560029839420092
 10
10.31484979323844
 20
7.560029839420092
 42
0.4142140000000001
 10
10.48684979323844
 20
7.732029839420093
 10
10.48684979323844
 20
11.89202983942009
 42
0.4142140000000001
 10
10.31484979323844
 20
12.06402983942009
 10
10.11984979323844
 20
12.06402983942009
 42
-0.4142140000000001
 10
9.916849793238442
 20
12.26702983942009
 10
9.916849793238442
 20
12.71202983942009
 42
0.4142140000000001
 10
9.744849793238444
 20
12.88402983942009
 10
5.084849793238443
 20
12.88402983942009
 42
0.4142140000000001
 10
4.912849793238443
 20
12.71202983942009
 10
4.912849793238443
 20
12.26702983942009
 42
-0.4142140000000001
 10
4.709849793238443
 20
12.06402983942009
 10
4.514849793238443
 20
12.06402983942009
 42
0.4142140000000001
  0
LWPOLYLINE
  5
BA8
330
1E
100
AcDbEntity
  8
HIDDEN
100
AcDbPolyline
 90
        6
 70
     1
 43
0.0
 10
10.47484979323844
 20
12.54802983942009
 10
10.47484979323844
 20
12.71202983942009
 42
0.4142140000000001
 10
10.31484979323844
 20
12.87202983942009
 10
9.859779793238443
 20
12.87202983942009
 42
-0.241509
 10
9.941849793238443
 20
12.71202983942009
 10
9.941849793238443
 20
12.54802983942009
  0
ARC
  5
BB0
330
1E
100
AcDbEntity
  8
HIDDEN
100
AcDbCircle
 10
10.28884979323844
 20
12.68602983942009
 30
0.0
 40
0.191
100
AcDbArc
 50
103.138868
 51
226.262357
  0
ARC
  5
BB1
330
1E
100
AcDbEntity
  8
HIDDEN
100
AcDbCircle
 10
4.540849793238443
 20
12.68602983942009
 30
0.0
 40
0.191
100
AcDbArc
 50
313.7376429999999
 51
76.861132
  0
LWPOLYLINE
  5
BB2
330
1E
100
AcDbEntity
  8
HIDDEN
100
AcDbPolyline
 90
        6
 70
     1
 43
0.0
 10
4.354849793238443
 20
12.54802983942009
 10
4.354849793238443
 20
12.71202983942009
 42
-0.4142140000000001
 10
4.514849793238443
 20
12.87202983942009
 10
4.969918793238443
 20
12.87202983942009
 42
0.241509
 10
4.887849793238443
 20
12.71202983942009
 10
4.887849793238443
 20
12.54802983942009
  0
ARC
  5
BBA
330
1E
100
AcDbEntity
  8
HIDDEN
100
AcDbCircle
 10
4.540849793238443
 20
6.938029839420092
 30
0.0
 40
0.191
100
AcDbArc
 50
283.1388679999999
 51
46.262357
  0
LWPOLYLINE
  5
BBB
330
1E
100
AcDbEntity
  8
HIDDEN
100
AcDbPolyline
 90
        6
 70
     1
 43
0.0
 10
4.354849793238443
 20
7.076029839420091
 10
4.354849793238443
 20
6.912029839420092
 42
0.4142140000000001
 10
4.514849793238443
 20
6.752029839420091
 10
4.969918793238443
 20
6.752029839420091
 42
-0.241509
 10
4.887849793238443
 20
6.912029839420092
 10
4.887849793238443
 20
7.076029839420091
  0
LWPOLYLINE
  5
BC3
330
1E
100
AcDbEntity
  8
HIDDEN
100
AcDbPolyline
 90
        6
 70
     1
 43
0.0
 10
10.47484979323844
 20
7.076029839420091
 10
10.47484979323844
 20
6.912029839420092
 42
-0.4142140000000001
 10
10.31484979323844
 20
6.752029839420091
 10
9.859779793238443
 20
6.752029839420091
 42
0.241509
 10
9.941849793238443
 20
6.912029839420092
 10
9.941849793238443
 20
7.076029839420091
  0
ARC
  5
BCB
330
1E
100
AcDbEntity
  8
HIDDEN
100
AcDbCircle
 10
10.28884979323844
 20
6.938029839420092
 30
0.0
 40
0.191
100
AcDbArc
 50
133.7376429999999
 51
256.861132
  0
LWPOLYLINE
  5
BCC
330
1E
100
AcDbEntity
  8
OBJECT
100
AcDbPolyline
 90
        8
 70
     1
 43
0.0
 10
4.514849793238443
 20
6.682029839420092
 10
10.31484979323844
 20
6.682029839420092
 42
0.4142140000000001
 10
10.54484979323844
 20
6.912029839420092
 10
10.54484979323844
 20
12.71202983942009
 42
0.4142140000000001
 10
10.31484979323844
 20
12.94202983942009
 10
4.514849793238443
 20
12.94202983942009
 42
0.4142140000000001
 10
4.284849793238443
 20
12.71202983942009
 10
4.284849793238443
 20
6.912029839420092
 42
0.4142140000000001
  0
LINE
  5
BD6
330
1E
100
AcDbEntity
  8
OBJECT
100
AcDbLine
 10
4.32734979323844
 20
18.36000868477818
 30
0.0
 11
10.50234979323844
 21
18.36000868477818
 31
0.0
  0
LINE
  5
BD7
330
1E
100
AcDbEntity
  8
OBJECT
100
AcDbLine
 10
4.26484979323844
 20
17.21900868477818
 30
0.0
 11
10.56484979323844
 21
17.21900868477818
 31
0.0
  0
LINE
  5
BD8
330
1E
100
AcDbEntity
  8
OBJECT
100
AcDbLine
 10
4.284849793238443
 20
17.17900868477818
 30
0.0
 11
10.54484979323844
 21
17.17900868477818
 31
0.0
  0
LINE
  5
BD9
330
1E
100
AcDbEntity
  8
OBJECT
100
AcDbLine
 10
10.48684979323844
 20
17.13900868477818
 30
0.0
 11
4.342849793238443
 21
17.13900868477818
 31
0.0
  0
LINE
  5
BDA
330
1E
100
AcDbEntity
  8
HIDDEN
100
AcDbLine
 10
4.382849793238442
 20
18.24200868477818
 30
0.0
 11
10.44684979323844
 21
18.24200868477818
 31
0.0
  0
ARC
  5
BDB
330
1E
100
AcDbEntity
  8
OBJECT
100
AcDbCircle
 10
10.50234979323844
 20
18.29750868477818
 30
0.0
 40
0.0625
100
AcDbArc
 50
0.0
 51
90.0
  0
LINE
  5
BDC
330
1E
100
AcDbEntity
  8
OBJECT
100
AcDbLine
 10
10.56484979323844
 20
17.21900868477818
 30
0.0
 11
10.56484979323844
 21
18.29750868477818
 31
0.0
  0
LINE
  5
BDD
330
1E
100
AcDbEntity
  8
OBJECT
100
AcDbLine
 10
10.54484979323844
 20
17.17900868477818
 30
0.0
 11
10.54484979323844
 21
17.21900868477818
 31
0.0
  0
LINE
  5
BDE
330
1E
100
AcDbEntity
  8
HIDDEN
100
AcDbLine
 10
10.44684979323844
 20
18.24200868477818
 30
0.0
 11
10.44684979323844
 21
17.13900868477818
 31
0.0
  0
LINE
  5
BDF
330
1E
100
AcDbEntity
  8
HIDDEN
100
AcDbLine
 10
9.876849793238442
 20
18.24200868477818
 30
0.0
 11
9.876849793238442
 21
17.13900868477818
 31
0.0
  0
LINE
  5
BE0
330
1E
100
AcDbEntity
  8
HIDDEN
100
AcDbLine
 10
10.47484979323844
 20
17.29000868477818
 30
0.0
 11
10.47484979323844
 21
18.36000868477818
 31
0.0
  0
LINE
  5
BE1
330
1E
100
AcDbEntity
  8
HIDDEN
100
AcDbLine
 10
10.15084979323844
 20
17.29000868477818
 30
0.0
 11
10.15084979323844
 21
18.36000868477818
 31
0.0
  0
LINE
  5
BE2
330
1E
100
AcDbEntity
  8
HIDDEN
100
AcDbLine
 10
10.08484979323844
 20
18.24200868477818
 30
0.0
 11
10.08484979323844
 21
17.17900868477818
 31
0.0
  0
LINE
  5
BE3
330
1E
100
AcDbEntity
  8
HIDDEN
100
AcDbLine
 10
9.941849793238446
 20
18.24200868477818
 30
0.0
 11
9.941849793238446
 21
17.17900868477818
 31
0.0
  0
LINE
  5
BE4
330
1E
100
AcDbEntity
  8
OBJECT
100
AcDbLine
 10
10.48684979323844
 20
17.13900868477818
 30
0.0
 11
10.48684979323844
 21
17.17900868477818
 31
0.0
  0
LINE
  5
BE5
330
1E
100
AcDbEntity
  8
HIDDEN
100
AcDbLine
 10
10.22284979323843
 20
17.17900868477818
 30
0.0
 11
10.22284979323843
 21
17.51000868477818
 31
0.0
  0
LINE
  5
BE6
330
1E
100
AcDbEntity
  8
HIDDEN
100
AcDbLine
 10
10.35484979323844
 20
17.17900868477818
 30
0.0
 11
10.35484979323844
 21
17.51000868477818
 31
0.0
  0
LINE
  5
BE7
330
1E
100
AcDbEntity
  8
HIDDEN
100
AcDbLine
 10
10.16384979323844
 20
17.17900868477818
 30
0.0
 11
10.16384979323844
 21
17.51000868477818
 31
0.0
  0
LINE
  5
BE8
330
1E
100
AcDbEntity
  8
HIDDEN
100
AcDbLine
 10
10.41384979323844
 20
17.17900868477818
 30
0.0
 11
10.41384979323844
 21
17.51000868477818
 31
0.0
  0
LINE
  5
BE9
330
1E
100
AcDbEntity
  8
HIDDEN
100
AcDbLine
 10
10.47484979323844
 20
17.29000868477818
 30
0.0
 11
10.15084979323844
 21
17.29000868477818
 31
0.0
  0
LINE
  5
BEA
330
1E
100
AcDbEntity
  8
HIDDEN
100
AcDbLine
 10
10.47484979323844
 20
17.51000868477818
 30
0.0
 11
10.15084979323844
 21
17.51000868477818
 31
0.0
  0
LINE
  5
BEB
330
1E
100
AcDbEntity
  8
OBJECT
100
AcDbLine
 10
9.916849793238441
 20
17.13900868477818
 30
0.0
 11
9.916849793238441
 21
17.17900868477818
 31
0.0
  0
LINE
  5
BEC
330
1E
100
AcDbEntity
  8
HIDDEN
100
AcDbLine
 10
4.952849793238442
 20
18.24200868477818
 30
0.0
 11
4.952849793238442
 21
17.13900868477818
 31
0.0
  0
LINE
  5
BED
330
1E
100
AcDbEntity
  8
HIDDEN
100
AcDbLine
 10
4.887849793238444
 20
18.24200868477818
 30
0.0
 11
4.887849793238444
 21
17.17900868477818
 31
0.0
  0
LINE
  5
BEE
330
1E
100
AcDbEntity
  8
OBJECT
100
AcDbLine
 10
4.912849793238443
 20
17.13900868477818
 30
0.0
 11
4.912849793238443
 21
17.17900868477818
 31
0.0
  0
LINE
  5
BEF
330
1E
100
AcDbEntity
  8
HIDDEN
100
AcDbLine
 10
4.382849793238442
 20
18.24200868477818
 30
0.0
 11
4.382849793238442
 21
17.13900868477818
 31
0.0
  0
LINE
  5
BF0
330
1E
100
AcDbEntity
  8
OBJECT
100
AcDbLine
 10
4.26484979323844
 20
17.21900868477818
 30
0.0
 11
4.26484979323844
 21
18.29750868477818
 31
0.0
  0
LINE
  5
BF1
330
1E
100
AcDbEntity
  8
HIDDEN
100
AcDbLine
 10
4.744849793238444
 20
18.24200868477818
 30
0.0
 11
4.744849793238444
 21
17.17900868477818
 31
0.0
  0
LINE
  5
BF2
330
1E
100
AcDbEntity
  8
HIDDEN
100
AcDbLine
 10
4.678849793238441
 20
17.29000868477818
 30
0.0
 11
4.678849793238441
 21
18.36000868477818
 31
0.0
  0
LINE
  5
BF3
330
1E
100
AcDbEntity
  8
HIDDEN
100
AcDbLine
 10
4.354849793238443
 20
17.29000868477818
 30
0.0
 11
4.354849793238443
 21
18.36000868477818
 31
0.0
  0
LINE
  5
BF4
330
1E
100
AcDbEntity
  8
OBJECT
100
AcDbLine
 10
4.284849793238443
 20
17.17900868477818
 30
0.0
 11
4.284849793238443
 21
17.21900868477818
 31
0.0
  0
LINE
  5
BF5
330
1E
100
AcDbEntity
  8
OBJECT
100
AcDbLine
 10
4.342849793238443
 20
17.13900868477818
 30
0.0
 11
4.342849793238443
 21
17.17900868477818
 31
0.0
  0
LINE
  5
BF6
330
1E
100
AcDbEntity
  8
HIDDEN
100
AcDbLine
 10
4.354849793238443
 20
17.51000868477818
 30
0.0
 11
4.678849793238441
 21
17.51000868477818
 31
0.0
  0
LINE
  5
BF7
330
1E
100
AcDbEntity
  8
HIDDEN
100
AcDbLine
 10
4.354849793238443
 20
17.29000868477818
 30
0.0
 11
4.678849793238441
 21
17.29000868477818
 31
0.0
  0
LINE
  5
BF8
330
1E
100
AcDbEntity
  8
HIDDEN
100
AcDbLine
 10
4.415849793238443
 20
17.17900868477818
 30
0.0
 11
4.415849793238443
 21
17.51000868477818
 31
0.0
  0
LINE
  5
BF9
330
1E
100
AcDbEntity
  8
HIDDEN
100
AcDbLine
 10
4.665849793238443
 20
17.17900868477818
 30
0.0
 11
4.665849793238443
 21
17.51000868477818
 31
0.0
  0
LINE
  5
BFA
330
1E
100
AcDbEntity
  8
HIDDEN
100
AcDbLine
 10
4.474849793238441
 20
17.17900868477818
 30
0.0
 11
4.474849793238441
 21
17.51000868477818
 31
0.0
  0
LINE
  5
BFB
330
1E
100
AcDbEntity
  8
HIDDEN
100
AcDbLine
 10
4.606849793238446
 20
17.17900868477818
 30
0.0
 11
4.606849793238446
 21
17.51000868477818
 31
0.0
  0
ARC
  5
BFC
330
1E
100
AcDbEntity
  8
OBJECT
100
AcDbCircle
 10
4.32734979323844
 20
18.29750868477818
 30
0.0
 40
0.0625
100
AcDbArc
 50
90.0
 51
180.0
  0
CIRCLE
  5
BFD
330
1E
100
AcDbEntity
  8
OBJECT
100
AcDbCircle
 10
7.414849793238445
 20
12.56902983942009
 30
0.0
 40
0.045
  0
LWPOLYLINE
  5
BFE
330
1E
100
AcDbEntity
  8
OBJECT
100
AcDbPolyline
 90
        8
 70
     1
 43
0.0
 10
7.710349793238442
 20
12.62802983942009
 10
7.525049793238443
 20
12.62802983942009
 42
0.598912
 10
7.304649793238443
 20
12.62802983942009
 10
7.119349793238443
 20
12.62802983942009
 42
1.0
 10
7.119349793238443
 20
12.51002983942009
 10
7.304649793238443
 20
12.51002983942009
 42
0.598912
 10
7.525049793238443
 20
12.51002983942009
 10
7.710349793238442
 20
12.51002983942009
 42
1.0
  0
LWPOLYLINE
  5
C08
330
1E
100
AcDbEntity
  8
OBJECT
100
AcDbPolyline
 90
        8
 70
     1
 43
0.0
 10
4.638849793238444
 20
10.10752983942009
 10
4.638849793238444
 20
9.922229839420092
 42
0.598912
 10
4.638849793238444
 20
9.701830839420091
 10
4.638849793238444
 20
9.516529839420092
 42
1.0
 10
4.756849793238443
 20
9.516529839420092
 10
4.756849793238443
 20
9.701830839420091
 42
0.598912
 10
4.756849793238443
 20
9.922229839420092
 10
4.756849793238443
 20
10.10752983942009
 42
1.0
  0
CIRCLE
  5
C12
330
1E
100
AcDbEntity
  8
OBJECT
100
AcDbCircle
 10
4.697849793238447
 20
9.812029839420091
 30
0.0
 40
0.045
  0
LWPOLYLINE
  5
C13
330
1E
100
AcDbEntity
  8
OBJECT
100
AcDbPolyline
 90
        8
 70
     1
 43
0.0
 10
7.710349793238442
 20
6.996029839420091
 10
7.525049793238443
 20
6.996029839420091
 42
-0.598912
 10
7.304649793238443
 20
6.996029839420091
 10
7.119349793238443
 20
6.996029839420091
 42
-1.0
 10
7.119349793238443
 20
7.114029839420092
 10
7.304649793238443
 20
7.114029839420092
 42
-0.598912
 10
7.525049793238443
 20
7.114029839420092
 10
7.710349793238442
 20
7.114029839420092
 42
-1.0
  0
CIRCLE
  5
C1D
330
1E
100
AcDbEntity
  8
OBJECT
100
AcDbCircle
 10
7.414849793238445
 20
7.055029839420091
 30
0.0
 40
0.045
  0
CIRCLE
  5
C1E
330
1E
100
AcDbEntity
  8
OBJECT
100
AcDbCircle
 10
4.697849793238447
 20
11.34802983942009
 30
0.0
 40
0.087
  0
CIRCLE
  5
C1F
330
1E
100
AcDbEntity
  8
OBJECT
100
AcDbCircle
 10
4.697849793238447
 20
11.34802983942009
 30
0.0
 40
0.149
  0
CIRCLE
  5
C20
330
1E
100
AcDbEntity
  8
OBJECT
100
AcDbCircle
 10
4.697849793238447
 20
11.34802983942009
 30
0.0
 40
0.175
  0
CIRCLE
  5
C26
330
1E
100
AcDbEntity
  8
OBJECT
100
AcDbCircle
 10
4.697849793238447
 20
8.276029839420091
 30
0.0
 40
0.175
  0
CIRCLE
  5
C27
330
1E
100
AcDbEntity
  8
OBJECT
100
AcDbCircle
 10
4.697849793238447
 20
8.276029839420091
 30
0.0
 40
0.149
  0
CIRCLE
  5
C2B
330
1E
100
AcDbEntity
  8
OBJECT
100
AcDbCircle
 10
4.697849793238447
 20
8.276029839420091
 30
0.0
 40
0.087
  0
CIRCLE
  5
C2C
330
1E
100
AcDbEntity
  8
OBJECT
100
AcDbCircle
 10
10.13184979323844
 20
8.276029839420091
 30
0.0
 40
0.149
  0
CIRCLE
  5
C2D
330
1E
100
AcDbEntity
  8
OBJECT
100
AcDbCircle
 10
10.13184979323844
 20
8.276029839420091
 30
0.0
 40
0.175
  0
CIRCLE
  5
C2F
330
1E
100
AcDbEntity
  8
OBJECT
100
AcDbCircle
 10
10.13184979323844
 20
8.276029839420091
 30
0.0
 40
0.087
  0
CIRCLE
  5
C34
330
1E
100
AcDbEntity
  8
OBJECT
100
AcDbCircle
 10
10.13184979323844
 20
11.34802983942009
 30
0.0
 40
0.175
  0
CIRCLE
  5
C35
330
1E
100
AcDbEntity
  8
OBJECT
100
AcDbCircle
 10
10.13184979323844
 20
11.34802983942009
 30
0.0
 40
0.149
  0
CIRCLE
  5
C36
330
1E
100
AcDbEntity
  8
OBJECT
100
AcDbCircle
 10
10.13184979323844
 20
9.812029839420091
 30
0.0
 40
0.045
  0
LWPOLYLINE
  5
C37
330
1E
100
AcDbEntity
  8
OBJECT
100
AcDbPolyline
 90
        8
 70
     1
 43
0.0
 10
10.19084979323844
 20
10.10752983942009
 10
10.19084979323844
 20
9.922229839420092
 42
-0.598912
 10
10.19084979323844
 20
9.701830839420091
 10
10.19084979323844
 20
9.516529839420092
 42
-1.0
 10
10.07284979323844
 20
9.516529839420092
 10
10.07284979323844
 20
9.701830839420091
 42
-0.598912
 10
10.07284979323844
 20
9.922229839420092
 10
10.07284979323844
 20
10.10752983942009
 42
-1.0
  0
CIRCLE
  5
C44
330
1E
100
AcDbEntity
  8
OBJECT
100
AcDbCircle
 10
10.13184979323844
 20
11.34802983942009
 30
0.0
 40
0.087
  0
LWPOLYLINE
  5
C45
330
1E
100
AcDbEntity
  8
HIDDEN
100
AcDbPolyline
 90
        4
 70
     0
 43
0.0
 10
7.769349793238443
 20
18.24200868477818
 10
7.769349793238443
 20
18.07300868477818
 10
7.060349793238444
 20
18.07300868477818
 10
7.060349793238444
 20
18.24200868477818
  0
LWPOLYLINE
  5
C4B
330
1E
100
AcDbEntity
  8
BEND
100
AcDbPolyline
 90
       10
 70
     0
 10
9.658231793238444
 20
6.333131839420091
 40
0.0
 41
0.156711
 10
9.971653793238445
 20
6.333131839420091
 40
0.026118
 41
0.026118
 10
10.28884979323844
 20
6.333131839420091
 40
0.026118
 41
0.026118
 10
10.28884979323844
 20
7.696262839420093
 40
0.026118
 41
0.026118
 10
10.13184979323844
 20
7.696262839420093
 40
0.026118
 41
0.026118
 10
10.13184979323844
 20
10.784000581595
 40
0.026118
 41
0.026118
 10
9.668911793238443
 20
10.784000581595
 40
0.026118
 41
0.026118
 10
9.668911793238443
 20
13.31025883942009
 40
0.026118
 41
0.026118
 10
9.292605793238443
 20
13.31025883942009
 40
0.156711
 41
0.0
 10
8.979183793238442
 20
13.31025883942009
 40
0.0
 41
0.0
  0
LINE
  5
C57
330
1E
100
AcDbEntity
  8
OBJECT
100
AcDbLine
 10
17.0920918913699
 20
12.94202983942009
 30
0.0
 11
17.0920918913699
 21
12.88402983942009
 31
0.0
  0
LINE
  5
C58
330
1E
100
AcDbEntity
  8
OBJECT
100
AcDbLine
 10
18.1550918913699
 20
12.84402983942009
 30
0.0
 11
18.1550918913699
 21
10.16652983942009
 31
0.0
  0
LINE
  5
C59
330
1E
100
AcDbEntity
  8
OBJECT
100
AcDbLine
 10
18.2730918913699
 20
12.89952983942009
 30
0.0
 11
18.2730918913699
 21
6.724529839420092
 31
0.0
  0
LINE
  5
C5A
330
1E
100
AcDbEntity
  8
OBJECT
100
AcDbLine
 10
17.0520918913699
 20
6.740029839420092
 30
0.0
 11
17.0520918913699
 21
12.88402983942009
 31
0.0
  0
LINE
  5
C5B
330
1E
100
AcDbEntity
  8
OBJECT
100
AcDbLine
 10
17.1320918913699
 20
12.96202983942009
 30
0.0
 11
17.1320918913699
 21
12.94202983942009
 31
0.0
  0
LINE
  5
C5C
330
1E
100
AcDbEntity
  8
OBJECT
100
AcDbLine
 10
17.0920918913699
 20
7.063029839420092
 30
0.0
 11
17.4230918913699
 21
7.063029839420092
 31
0.0
  0
LINE
  5
C5D
330
1E
100
AcDbEntity
  8
OBJECT
100
AcDbLine
 10
17.0920918913699
 20
6.813029839420092
 30
0.0
 11
17.4230918913699
 21
6.813029839420092
 31
0.0
  0
LINE
  5
C5E
330
1E
100
AcDbEntity
  8
OBJECT
100
AcDbLine
 10
17.0920918913699
 20
6.872029839420092
 30
0.0
 11
17.4230918913699
 21
6.872029839420092
 31
0.0
  0
LINE
  5
C5F
330
1E
100
AcDbEntity
  8
OBJECT
100
AcDbLine
 10
17.0920918913699
 20
7.004029839420091
 30
0.0
 11
17.4230918913699
 21
7.004029839420091
 31
0.0
  0
LINE
  5
C60
330
1E
100
AcDbEntity
  8
OBJECT
100
AcDbLine
 10
17.1320918913699
 20
6.662029839420092
 30
0.0
 11
18.2105918913699
 21
6.662029839420092
 31
0.0
  0
LINE
  5
C61
330
1E
100
AcDbEntity
  8
OBJECT
100
AcDbLine
 10
18.1550918913699
 20
7.600029839420091
 30
0.0
 11
17.0520918913699
 21
7.600029839420091
 31
0.0
  0
LINE
  5
C62
330
1E
100
AcDbEntity
  8
OBJECT
100
AcDbLine
 10
18.1550918913699
 20
7.535029839420092
 30
0.0
 11
17.0920918913699
 21
7.535029839420092
 31
0.0
  0
LINE
  5
C63
330
1E
100
AcDbEntity
  8
OBJECT
100
AcDbLine
 10
18.1550918913699
 20
7.142029839420093
 30
0.0
 11
17.0920918913699
 21
7.142029839420093
 31
0.0
  0
LINE
  5
C64
330
1E
100
AcDbEntity
  8
OBJECT
100
AcDbLine
 10
17.4230918913699
 20
7.07602983942009
 30
0.0
 11
18.2730918913699
 21
7.07602983942009
 31
0.0
  0
LINE
  5
C65
330
1E
100
AcDbEntity
  8
OBJECT
100
AcDbLine
 10
17.4230918913699
 20
6.752029839420092
 30
0.0
 11
18.2730918913699
 21
6.752029839420092
 31
0.0
  0
ARC
  5
C66
330
1E
100
AcDbEntity
  8
OBJECT
100
AcDbCircle
 10
18.2105918913699
 20
6.724529839420092
 30
0.0
 40
0.0625
100
AcDbArc
 50
270.0
 51
0.0
  0
LINE
  5
C67
330
1E
100
AcDbEntity
  8
OBJECT
100
AcDbLine
 10
17.4230918913699
 20
6.752029839420092
 30
0.0
 11
17.4230918913699
 21
7.07602983942009
 31
0.0
  0
LWPOLYLINE
  5
C76
330
1E
100
AcDbEntity
  8
OBJECT
100
AcDbPolyline
 90
        4
 70
     0
 43
0.0
 10
18.1550918913699
 20
8.45102983942009
 10
17.9860918913699
 20
8.425029839420091
 10
17.9860918913699
 20
8.127029839420092
 10
18.1550918913699
 20
8.101029839420093
  0
LWPOLYLINE
  5
C7C
330
1E
100
AcDbEntity
  8
OBJECT
100
AcDbPolyline
 90
        4
 70
     0
 43
0.0
 10
17.9860918913699
 20
8.359029839420092
 10
18.1890918913699
 20
8.359029839420092
 10
18.1890918913699
 20
8.193029839420091
 10
17.9860918913699
 20
8.193029839420091
  0
LINE
  5
C82
330
1E
100
AcDbEntity
  8
OBJECT
100
AcDbLine
 10
17.0920918913699
 20
6.682029839420092
 30
0.0
 11
17.1320918913699
 21
6.682029839420092
 31
0.0
  0
LINE
  5
C83
330
1E
100
AcDbEntity
  8
OBJECT
100
AcDbLine
 10
17.0520918913699
 20
6.740029839420092
 30
0.0
 11
17.0920918913699
 21
6.740029839420092
 31
0.0
  0
LINE
  5
C84
330
1E
100
AcDbEntity
  8
OBJECT
100
AcDbLine
 10
17.0520918913699
 20
7.560029839420092
 30
0.0
 11
17.0920918913699
 21
7.560029839420092
 31
0.0
  0
LINE
  5
C85
330
1E
100
AcDbEntity
  8
OBJECT
100
AcDbLine
 10
18.1550918913699
 20
12.02402983942009
 30
0.0
 11
17.0520918913699
 21
12.02402983942009
 31
0.0
  0
LWPOLYLINE
  5
C86
330
1E
100
AcDbEntity
  8
HIDDEN
100
AcDbPolyline
 90
        4
 70
     0
 43
0.0
 10
17.9860918913699
 20
11.26502983942009
 10
18.1890918913699
 20
11.26502983942009
 10
18.1890918913699
 20
11.43102983942009
 10
17.9860918913699
 20
11.43102983942009
  0
LWPOLYLINE
  5
C8C
330
1E
100
AcDbEntity
  8
OBJECT
100
AcDbPolyline
 90
        4
 70
     0
 43
0.0
 10
18.1550918913699
 20
11.17302983942009
 10
17.9860918913699
 20
11.19902983942009
 10
17.9860918913699
 20
11.49702983942009
 10
18.1550918913699
 20
11.52302983942009
  0
LWPOLYLINE
  5
C92
330
1E
100
AcDbEntity
  8
OBJECT
100
AcDbPolyline
 90
        4
 70
     0
 43
0.0
 10
17.9860918913699
 20
9.857029839420093
 10
18.1890918913699
 20
9.857029839420093
 10
18.1890918913699
 20
9.767029839420093
 10
17.9860918913699
 20
9.767029839420093
  0
LWPOLYLINE
  5
C98
330
1E
100
AcDbEntity
  8
OBJECT
100
AcDbPolyline
 90
        4
 70
     0
 43
0.0
 10
18.1550918913699
 20
9.457529839420093
 10
17.9860918913699
 20
9.457529839420093
 10
17.9860918913699
 20
10.16652983942009
 10
18.1550918913699
 20
10.16652983942009
  0
LINE
  5
CAC
330
1E
100
AcDbEntity
  8
OBJECT
100
AcDbLine
 10
17.1320918913699
 20
12.96202983942009
 30
0.0
 11
18.2105918913699
 21
12.96202983942009
 31
0.0
  0
LINE
  5
CAD
330
1E
100
AcDbEntity
  8
OBJECT
100
AcDbLine
 10
18.1550918913699
 20
12.84402983942009
 30
0.0
 11
17.0520918913699
 21
12.84402983942009
 31
0.0
  0
ARC
  5
CAE
330
1E
100
AcDbEntity
  8
OBJECT
100
AcDbCircle
 10
18.2105918913699
 20
12.89952983942009
 30
0.0
 40
0.0625
100
AcDbArc
 50
0.0
 51
90.0
  0
LINE
  5
CAF
330
1E
100
AcDbEntity
  8
OBJECT
100
AcDbLine
 10
17.0920918913699
 20
12.94202983942009
 30
0.0
 11
17.1320918913699
 21
12.94202983942009
 31
0.0
  0
LINE
  5
CB0
330
1E
100
AcDbEntity
  8
OBJECT
100
AcDbLine
 10
17.0520918913699
 20
12.88402983942009
 30
0.0
 11
17.0920918913699
 21
12.88402983942009
 31
0.0
  0
LINE
  5
CB1
330
1E
100
AcDbEntity
  8
OBJECT
100
AcDbLine
 10
18.1550918913699
 20
7.535029839420092
 30
0.0
 11
18.1550918913699
 21
7.142029839420093
 31
0.0
  0
LINE
  5
CB2
330
1E
100
AcDbEntity
  8
OBJECT
100
AcDbLine
 10
17.0920918913699
 20
7.560029839420092
 30
0.0
 11
17.0920918913699
 21
6.682029839420092
 31
0.0
  0
LINE
  5
CB3
330
1E
100
AcDbEntity
  8
OBJECT
100
AcDbLine
 10
17.1320918913699
 20
6.682029839420092
 30
0.0
 11
17.1320918913699
 21
6.662029839420092
 31
0.0
  0
LINE
  5
CB6
330
1E
100
AcDbEntity
  8
OBJECT
100
AcDbLine
 10
18.1550918913699
 20
7.416029839420092
 30
0.0
 11
18.2730918913699
 21
7.416029839420092
 31
0.0
  0
LINE
  5
CB7
330
1E
100
AcDbEntity
  8
OBJECT
100
AcDbLine
 10
18.1550918913699
 20
7.246029839420092
 30
0.0
 11
18.2730918913699
 21
7.246029839420092
 31
0.0
  0
LINE
  5
CB8
330
1E
100
AcDbEntity
  8
HIDDEN
100
AcDbLine
 10
7.304649793238439
 20
18.07300868477818
 30
0.0
 11
7.304649793238439
 21
18.24200868477818
 31
0.0
  0
LWPOLYLINE
  5
CB9
330
1E
100
AcDbEntity
  8
HIDDEN
100
AcDbPolyline
 90
        4
 70
     0
 43
0.0
 10
7.459849793238443
 20
18.07300868477818
 10
7.459849793238443
 20
18.27600868477818
 10
7.369849793238444
 20
18.27600868477818
 10
7.369849793238444
 20
18.07300868477818
  0
LINE
  5
CBF
330
1E
100
AcDbEntity
  8
HIDDEN
100
AcDbLine
 10
7.525049793238444
 20
18.07300868477818
 30
0.0
 11
7.525049793238444
 21
18.24200868477818
 31
0.0
  0
LINE
  5
CC0
330
1E
100
AcDbEntity
  8
OBJECT
100
AcDbLine
 10
18.1550918913699
 20
9.457529839420093
 30
0.0
 11
18.1550918913699
 21
8.45102983942009
 31
0.0
  0
LWPOLYLINE
  5
CC1
330
1E
100
AcDbEntity
  8
OBJECT
100
AcDbPolyline
 90
        4
 70
     0
 43
0.0
 10
18.1550918913699
 20
12.44402983942009
 10
17.9860918913699
 20
12.44402983942009
 10
17.9860918913699
 20
12.69402983942009
 10
18.1550918913699
 20
12.69402983942009
  0
LWPOLYLINE
  5
CC7
330
1E
100
AcDbEntity
  8
HIDDEN
100
AcDbPolyline
 90
        4
 70
     0
 43
0.0
 10
17.9860918913699
 20
12.61402983942009
 10
18.1890918913699
 20
12.61402983942009
 10
18.1890918913699
 20
12.52402983942009
 10
17.9860918913699
 20
12.52402983942009
  0
LINE
  5
CCD
330
1E
100
AcDbEntity
  8
OBJECT
100
AcDbLine
 10
17.0920918913699
 20
7.063029839420092
 30
0.0
 11
17.0920918913699
 21
7.004029839420091
 31
0.0
  0
LINE
  5
CCE
330
1E
100
AcDbEntity
  8
OBJECT
100
AcDbLine
 10
17.0920918913699
 20
7.004029839420091
 30
0.0
 11
17.4230918913699
 21
7.004029839420091
 31
0.0
  0
LINE
  5
CCF
330
1E
100
AcDbEntity
  8
OBJECT
100
AcDbLine
 10
17.4230918913699
 20
7.004029839420091
 30
0.0
 11
17.4230918913699
 21
7.063029839420092
 31
0.0
  0
LINE
  5
CD0
330
1E
100
AcDbEntity
  8
OBJECT
100
AcDbLine
 10
17.4230918913699
 20
7.063029839420092
 30
0.0
 11
17.0920918913699
 21
7.063029839420092
 31
0.0
  0
LINE
  5
CD1
330
1E
100
AcDbEntity
  8
OBJECT
100
AcDbLine
 10
17.0920918913699
 20
6.872029839420092
 30
0.0
 11
17.0920918913699
 21
6.813029839420092
 31
0.0
  0
LINE
  5
CD2
330
1E
100
AcDbEntity
  8
OBJECT
100
AcDbLine
 10
17.0920918913699
 20
6.813029839420092
 30
0.0
 11
17.4230918913699
 21
6.813029839420092
 31
0.0
  0
LINE
  5
CD3
330
1E
100
AcDbEntity
  8
OBJECT
100
AcDbLine
 10
17.4230918913699
 20
6.813029839420092
 30
0.0
 11
17.4230918913699
 21
6.872029839420092
 31
0.0
  0
LINE
  5
CD4
330
1E
100
AcDbEntity
  8
OBJECT
100
AcDbLine
 10
17.4230918913699
 20
6.872029839420092
 30
0.0
 11
17.0920918913699
 21
6.872029839420092
 31
0.0
  0
LWPOLYLINE
  5
CE9
330
1E
100
AcDbEntity
  8
OBJECT
100
AcDbPolyline
 90
        4
 70
     1
 43
0.0
 10
17.0920918913699
 20
6.872029839420092
 10
17.0920918913699
 20
6.813029839420091
 10
17.4230918913699
 20
6.813029839420091
 10
17.4230918913699
 20
6.872029839420092
  0
LWPOLYLINE
  5
CEF
330
1E
100
AcDbEntity
  8
OBJECT
100
AcDbPolyline
 90
        4
 70
     1
 43
0.0
 10
17.0920918913699
 20
7.063029839420091
 10
17.0920918913699
 20
7.004029839420091
 10
17.4230918913699
 20
7.004029839420091
 10
17.4230918913699
 20
7.063029839420091
  0
TEXT
  5
CF7
330
1E
100
AcDbEntity
  8
TEXT
100
AcDbText
 10
16.39733573335961
 20
5.048747959529734
 30
0.0
 40
0.312
  1
%%USECTION "A-A"
 41
0.8
  7
SECTION
 72
     1
 11
17.91692430478818
 21
5.048747959529734
 31
0.0
100
AcDbText
  0
DIMENSION
  5
CF8
330
1E
100
AcDbEntity
  8
DIM
100
AcDbDimension
  2
*D0
 10
18.2730918913699
 20
13.38593483942009
 30
0.0
 11
19.8473106413699
 21
13.38593483942009
 31
0.0
 70
    32
 71
     5
 42
0.286999999999999
  3
23NSTD
100
AcDbAlignedDimension
 13
17.9860918913699
 23
12.69402983942009
 33
0.0
 14
18.2730918913699
 24
12.89952983942009
 34
0.0
100
AcDbRotatedDimension
  0
DIMENSION
  5
D06
330
1E
100
AcDbEntity
  8
DIM
100
AcDbDimension
  2
*D1
 10
18.2730918913699
 20
12.24666083942009
 30
0.0
 11
19.7691856413699
 21
12.24666083942009
 31
0.0
 70
    32
 71
     5
 42
0.1180000000000021
  3
23NSTD
100
AcDbAlignedDimension
 13
18.1550918913699
 23
12.33035583942009
 33
0.0
 14
18.2730918913699
 24
12.33035583942009
 34
0.0
100
AcDbRotatedDimension
  0
DIMENSION
  5
D14
330
1E
100
AcDbEntity
  8
DIM
100
AcDbDimension
  2
*D2
 10
18.2730918913699
 20
5.994029839420091
 30
0.0
 11
19.8277793913699
 21
5.994029839420091
 31
0.0
 70
   160
 71
     5
 42
0.8499999999999978
  3
23NSTDI
100
AcDbAlignedDimension
 13
17.4230918913699
 23
6.752029839420091
 33
0.0
 14
18.2730918913699
 24
6.724529839420092
 34
0.0
100
AcDbRotatedDimension
  0
DIMENSION
  5
D22
330
1E
100
AcDbEntity
  8
DIM
100
AcDbDimension
  2
*D3
 10
18.8267638913699
 20
7.416029839420092
 30
0.0
 11
20.5564513913699
 21
8.316029839420094
 31
0.0
 70
    32
  1
<> DIA.\P(4) PLACES
 71
     5
 42
0.1700000000000008
  3
23NSTD
100
AcDbAlignedDimension
 13
18.2730918913699
 23
7.246029839420091
 33
0.0
 14
18.2730918913699
 24
7.416029839420092
 34
0.0
 50
90.0
100
AcDbRotatedDimension
  0
DIMENSION
  5
D30
330
1E
100
AcDbEntity
  8
DIM
100
AcDbDimension
  2
*D4
 10
4.952849793238443
 20
4.969631839420092
 30
0.0
 11
7.414849793238443
 21
4.969631839420092
 31
0.0
 70
    32
 71
     5
 42
4.923999999999998
  3
23NSTD
100
AcDbAlignedDimension
 13
9.876849793238442
 23
6.912029839420092
 33
0.0
 14
4.952849793238443
 24
6.912029839420092
 34
0.0
100
AcDbRotatedDimension
  0
DIMENSION
  5
D3E
330
1E
100
AcDbEntity
  8
DIM
100
AcDbDimension
  2
*D5
 10
4.264849793238443
 20
4.969631839420092
 30
0.0
 11
2.690631043238443
 21
4.969631839420092
 31
0.0
 70
    32
 71
     5
 42
0.6879999999999998
  3
23NSTD
100
AcDbAlignedDimension
 13
4.952849793238443
 23
6.912029839420092
 33
0.0
 14
4.264849793238443
 24
6.912029839420092
 34
0.0
100
AcDbRotatedDimension
  0
DIMENSION
  5
D4C
330
1E
100
AcDbEntity
  8
DIM
100
AcDbDimension
  2
*D6
 10
7.414849793238444
 20
14.01781362320387
 30
0.0
 11
5.839849793238443
 21
14.01781362320387
 31
0.0
 70
    32
 71
     5
 42
3.15
  3
23NSTD
100
AcDbAlignedDimension
 13
4.264849793238443
 23
12.71202983942009
 33
0.0
 14
7.414849793238444
 24
12.56902983942009
 34
0.0
 50
180.0
100
AcDbRotatedDimension
  0
DIMENSION
  5
D5A
330
1E
100
AcDbEntity
  8
DIM
100
AcDbDimension
  2
*D7
 10
10.56484979323844
 20
16.40131362320387
 30
0.0
 11
7.414849793238444
 21
16.40131362320387
 31
0.0
 70
    32
 71
     5
 42
6.299999999999998
  3
23NSTD
100
AcDbAlignedDimension
 13
4.264849793238443
 23
12.71202983942009
 33
0.0
 14
10.56484979323844
 24
12.71202983942009
 34
0.0
 50
180.0
100
AcDbRotatedDimension
  0
DIMENSION
  5
D68
330
1E
100
AcDbEntity
  8
DIM
100
AcDbDimension
  2
*D8
 10
4.540849793238443
 20
15.60681362320387
 30
0.0
 11
7.414849793238444
 21
15.60681362320387
 31
0.0
 70
    32
 71
     5
 42
5.747999999999999
  3
23NSTD
100
AcDbAlignedDimension
 13
10.28884979323844
 23
12.68602983942009
 33
0.0
 14
4.540849793238443
 24
12.68602983942009
 34
0.0
 50
180.0
100
AcDbRotatedDimension
  0
DIMENSION
  5
D76
330
1E
100
AcDbEntity
  8
DIM
100
AcDbDimension
  2
*D9
 10
4.264849793238443
 20
15.60681362320387
 30
0.0
 11
2.690631043238443
 21
15.60681362320387
 31
0.0
 70
    32
 71
     5
 42
0.2759999999999998
  3
23NSTD
100
AcDbAlignedDimension
 13
4.540849793238443
 23
12.68602983942009
 33
0.0
 14
4.264849793238443
 24
12.71202983942009
 34
0.0
 50
180.0
100
AcDbRotatedDimension
  0
DIMENSION
  5
D84
330
1E
100
AcDbEntity
  8
DIM
100
AcDbDimension
  2
*D10
 10
4.697849793238443
 20
14.81231362320387
 30
0.0
 11
7.414849793238444
 21
14.81231362320387
 31
0.0
 70
    32
 71
     5
 42
5.434000000000001
  3
23NSTD
100
AcDbAlignedDimension
 13
10.13184979323844
 23
11.70202983942009
 33
0.0
 14
4.697849793238443
 24
11.70202983942009
 34
0.0
100
AcDbRotatedDimension
  0
DIMENSION
  5
D92
330
1E
100
AcDbEntity
  8
DIM
100
AcDbDimension
  2
*D11
 10
4.264849793238443
 20
14.81231362320387
 30
0.0
 11
2.690631043238443
 21
14.81231362320387
 31
0.0
 70
    32
 71
     5
 42
0.4329999999999999
  3
23NSTD
100
AcDbAlignedDimension
 13
4.697849793238443
 23
11.70202983942009
 33
0.0
 14
4.264849793238443
 24
12.71202983942009
 34
0.0
100
AcDbRotatedDimension
  0
DIMENSION
  5
DA0
330
1E
100
AcDbEntity
  8
DIM
100
AcDbDimension
  2
*D12
 10
11.21613079323844
 20
11.34802983942009
 30
0.0
 11
11.21613079323844
 21
10.58002983942009
 31
0.0
 70
    32
 71
     5
 42
1.536000000000001
  3
23NSTDI
100
AcDbAlignedDimension
 13
10.13184979323844
 23
9.812029839420091
 33
0.0
 14
10.13184979323844
 24
11.34802983942009
 34
0.0
 50
90.0
100
AcDbRotatedDimension
  0
DIMENSION
  5
DAE
330
1E
100
AcDbEntity
  8
DIM
100
AcDbDimension
  2
*D13
 10
12.80513079323844
 20
11.70202983942009
 30
0.0
 11
12.80513079323844
 21
10.75702983942009
 31
0.0
 70
   160
 71
     5
 42
1.89
  3
23NSTDI
100
AcDbAlignedDimension
 13
10.13184979323844
 23
9.812029839420091
 33
0.0
 14
10.13184979323844
 24
11.70202983942009
 34
0.0
 50
90.0
100
AcDbRotatedDimension
  0
DIMENSION
  5
DBC
330
1E
100
AcDbEntity
  8
DIM
100
AcDbDimension
  2
*D14
 10
12.01063079323844
 20
8.27602983942009
 30
0.0
 11
12.01063079323844
 21
9.044029839420094
 31
0.0
 70
   160
 71
     5
 42
1.535999999999999
  3
23NSTDI
100
AcDbAlignedDimension
 13
10.13184979323844
 23
9.812029839420091
 33
0.0
 14
10.13184979323844
 24
8.276029839420091
 34
0.0
 50
90.0
100
AcDbRotatedDimension
  0
DIMENSION
  5
DCA
330
1E
100
AcDbEntity
  8
DIM
100
AcDbDimension
  2
*D15
 10
13.78563079323844
 20
7.92202983942009
 30
0.0
 11
13.78563079323844
 21
8.867029839420093
 31
0.0
 70
   160
 71
     5
 42
1.889999999999999
  3
23NSTDI
100
AcDbAlignedDimension
 13
10.13184979323844
 23
9.812029839420091
 33
0.0
 14
10.13184979323844
 24
7.92202983942009
 34
0.0
 50
90.0
100
AcDbRotatedDimension
  0
DIMENSION
  5
DD8
330
1E
100
AcDbEntity
  8
DIM
100
AcDbDimension
  2
*D16
 10
2.143599073240566
 20
12.29302983942009
 30
0.0
 11
2.143599073240563
 21
9.812029839420095
 31
0.0
 70
    32
 71
     5
 42
4.962
  3
23NSTD
100
AcDbAlignedDimension
 13
4.540849793238443
 23
7.331029839420093
 33
0.0
 14
4.540849793238443
 24
12.29302983942009
 34
0.0
 50
270.0
100
AcDbRotatedDimension
  0
DIMENSION
  5
DE6
330
1E
100
AcDbEntity
  8
DIM
100
AcDbDimension
  2
*D17
 10
2.143599073240565
 20
12.96202983942009
 30
0.0
 11
2.143599073240563
 21
12.62752983942009
 31
0.0
 70
    32
 71
     5
 42
0.6689999999999987
  3
23NSTDI
100
AcDbAlignedDimension
 13
4.540849793238443
 23
12.29302983942009
 33
0.0
 14
4.514849793238443
 24
12.96202983942009
 34
0.0
 50
270.0
100
AcDbRotatedDimension
  0
DIMENSION
  5
DF4
330
1E
100
AcDbEntity
  8
DIM
100
AcDbDimension
  2
*D18
 10
14.76613079323844
 20
12.68602983942009
 30
0.0
 11
14.76613079323843
 21
9.812029839420093
 31
0.0
 70
    32
 71
     5
 42
5.747999999999999
  3
23NSTD
100
AcDbAlignedDimension
 13
10.28884979323844
 23
6.938029839420091
 33
0.0
 14
10.28884979323844
 24
12.68602983942009
 34
0.0
 50
270.0
100
AcDbRotatedDimension
  0
DIMENSION
  5
E02
330
1E
100
AcDbEntity
  8
DIM
100
AcDbDimension
  2
*D19
 10
14.76613079323844
 20
12.96202983942009
 30
0.0
 11
15.89034954323843
 21
13.86202983942009
 31
0.0
 70
    32
 71
     5
 42
0.2759999999999998
  3
23NSTD
100
AcDbAlignedDimension
 13
10.28884979323844
 23
12.68602983942009
 33
0.0
 14
10.31484979323844
 24
12.96202983942009
 34
0.0
 50
270.0
100
AcDbRotatedDimension
  0
DIMENSION
  5
E10
330
1E
100
AcDbEntity
  8
DIM
100
AcDbDimension
  2
*D20
 10
3.456335793238444
 20
12.02402983942009
 30
0.0
 11
3.456335793238442
 21
9.812029839420095
 31
0.0
 70
    32
 71
     5
 42
4.424000000000002
  3
23NSTD
100
AcDbAlignedDimension
 13
4.514849793238443
 23
7.600029839420091
 33
0.0
 14
4.514849793238443
 24
12.02402983942009
 34
0.0
 50
90.0
100
AcDbRotatedDimension
  0
DIMENSION
  5
E1E
330
1E
100
AcDbEntity
  8
DIM
100
AcDbDimension
  2
*D21
 10
3.456335793238443
 20
12.96202983942009
 30
0.0
 11
3.456335793238442
 21
12.49302983942009
 31
0.0
 70
    32
 71
     5
 42
0.9379999999999988
  3
23NSTDI
100
AcDbAlignedDimension
 13
4.514849793238443
 23
12.02402983942009
 33
0.0
 14
4.514849793238443
 24
12.96202983942009
 34
0.0
 50
90.0
100
AcDbRotatedDimension
  0
DIMENSION
  5
E2C
330
1E
100
AcDbEntity
  8
DIM
100
AcDbDimension
  2
*D22
 10
0.9310990732405683
 20
6.662029839420092
 30
0.0
 11
0.9310990732405674
 21
9.812029839420093
 31
0.0
 70
    32
 71
     5
 42
6.3
  3
23NSTD
100
AcDbAlignedDimension
 13
4.514849793238443
 23
12.96202983942009
 33
0.0
 14
4.514849793238443
 24
6.662029839420092
 34
0.0
 50
90.0
100
AcDbRotatedDimension
  0
DIMENSION
  5
E3A
330
1E
100
AcDbEntity
  8
DIM
100
AcDbDimension
  2
*D23
 10
6.572066793238443
 20
12.56902983942009
 30
0.0
 11
6.572066793238441
 21
9.812029839420095
 31
0.0
 70
    32
 71
     5
 42
5.514000000000001
  3
23NSTD
100
AcDbAlignedDimension
 13
7.414849793238444
 23
7.055029839420091
 33
0.0
 14
7.414849793238444
 24
12.56902983942009
 34
0.0
 50
90.0
100
AcDbRotatedDimension
  0
DIMENSION
  5
E48
330
1E
100
AcDbEntity
  8
DIM
100
AcDbDimension
  2
*D24
 10
10.44684979323844
 20
8.912544478719674
 30
0.0
 11
7.414849793238444
 21
8.912544478719674
 31
0.0
 70
   160
 71
     5
 42
6.064
  3
23NSTD
100
AcDbAlignedDimension
 13
4.382849793238444
 23
8.283290839420093
 33
0.0
 14
10.44684979323844
 24
8.283290839420093
 34
0.0
100
AcDbRotatedDimension
  0
DIMENSION
  5
E56
330
1E
100
AcDbEntity
  8
DIM
100
AcDbDimension
  2
*D25
 10
8.80116167079217
 20
12.84402983942009
 30
0.0
 11
8.801161670792167
 21
9.812029839420095
 31
0.0
 70
   160
 71
     5
 42
6.064
  3
23NSTD
100
AcDbAlignedDimension
 13
9.147372793238442
 23
6.780029839420092
 33
0.0
 14
9.147372793238442
 24
12.84402983942009
 34
0.0
 50
270.0
100
AcDbRotatedDimension
  0
DIMENSION
  5
E64
330
1E
100
AcDbEntity
  8
DIM
100
AcDbDimension
  2
*D26
 10
8.801161670792168
 20
6.662029839420092
 30
0.0
 11
7.247255420792166
 21
5.762029839420093
 31
0.0
 70
   160
  1
<> TYP.
 71
     5
 42
0.1180000000000003
  3
23NSTD
100
AcDbAlignedDimension
 13
9.147372793238442
 23
6.780029839420092
 33
0.0
 14
9.147372793238442
 24
6.662029839420092
 34
0.0
 50
270.0
100
AcDbRotatedDimension
  0
DIMENSION
  5
E72
330
1E
100
AcDbEntity
  8
DIM
100
AcDbDimension
  2
*D27
 10
8.048628121535202
 20
12.96202983942009
 30
0.0
 11
9.172846871535199
 21
13.86202983942009
 31
0.0
 70
   160
 71
     5
 42
0.3929999999999989
  3
23NSTD
100
AcDbAlignedDimension
 13
7.414849793238444
 23
12.56902983942009
 33
0.0
 14
7.414849793238444
 24
12.96202983942009
 34
0.0
 50
90.0
100
AcDbRotatedDimension
  0
LWPOLYLINE
  5
E80
330
1E
100
AcDbEntity
  8
OBJECT
100
AcDbPolyline
 90
        8
 70
     1
 43
0.0
 10
22.86586339407861
 20
21.98753252545258
 10
22.12466239407861
 20
21.98753252545258
 42
0.598912
 10
21.24306439407861
 20
21.98753252545258
 10
20.5018633940786
 20
21.98753252545258
 42
1.0
 10
20.5018633940786
 20
21.51553252545258
 10
21.24306439407861
 20
21.51553252545258
 42
0.598912
 10
22.12466239407861
 20
21.51553252545258
 10
22.86586339407861
 20
21.51553252545258
 42
1.0
  0
CIRCLE
  5
E8A
330
1E
100
AcDbEntity
  8
OBJECT
100
AcDbCircle
 10
21.68386339407861
 20
21.75153252545258
 30
0.0
 40
0.18
  0
TEXT
  5
E8B
330
1E
100
AcDbEntity
  8
TEXT
100
AcDbText
 10
20.85586908517271
 20
19.40878988601649
 30
0.0
 40
0.312
  1
%%UDETAIL "C"
 41
0.8
  7
SECTION
 72
     1
 11
21.95351479945843
 21
19.40878988601649
 31
0.0
100
AcDbText
  0
LINE
  5
E8C
330
1E
100
AcDbEntity
  8
CENTER
100
AcDbLine
 10
21.61636339407861
 20
21.75153252545258
 30
0.0
 11
21.75136339407861
 21
21.75153252545258
 31
0.0
  0
LINE
  5
E8D
330
1E
100
AcDbEntity
  8
CENTER
100
AcDbLine
 10
21.68386339407861
 20
21.68403252545258
 30
0.0
 11
21.68386339407861
 21
21.81903252545258
 31
0.0
  0
DIMENSION
  5
E8E
330
1E
100
AcDbEntity
  8
DIM
100
AcDbDimension
  2
*D28
 10
21.68386339407861
 20
22.92769252545258
 30
0.0
 11
20.97486339407861
 21
22.92769252545258
 31
0.0
 70
    32
 71
     5
 42
0.3545000000000007
  3
23NSTD4I
100
AcDbAlignedDimension
 13
20.2658633940786
 23
21.75153252545258
 33
0.0
 14
21.68386339407861
 24
21.81903252545258
 34
0.0
100
AcDbRotatedDimension
  0
DIMENSION
  5
E9C
330
1E
100
AcDbEntity
  8
DIM
100
AcDbDimension
  2
*D29
 10
23.10186339407861
 20
23.72219252545258
 30
0.0
 11
21.6838633940786
 21
23.72219252545258
 31
0.0
 70
    32
 71
     5
 42
0.7090000000000006
  3
23NSTD4
100
AcDbAlignedDimension
 13
20.2658633940786
 23
21.75153252545258
 33
0.0
 14
23.10186339407861
 24
21.75153252545258
 34
0.0
100
AcDbRotatedDimension
  0
DIMENSION
  5
EAA
330
1E
100
AcDbEntity
  8
DIM
100
AcDbDimension
  2
*D30
 10
19.17304939407861
 20
21.98753252545258
 30
0.0
 11
19.17304939407861
 21
21.75153252545258
 31
0.0
 70
    32
 71
     5
 42
0.1180000000000003
  3
23NSTD4I
100
AcDbAlignedDimension
 13
20.5018633940786
 23
21.51553252545258
 33
0.0
 14
20.5018633940786
 24
21.98753252545258
 34
0.0
 50
270.0
100
AcDbRotatedDimension
  0
DIMENSION
  5
EB8
330
1E
100
AcDbEntity
  8
DIM
100
AcDbDimension
  2
*D31
 10
24.03686139407861
 20
21.25153252545258
 30
0.0
 11
24.0368613940786
 21
21.75153252545258
 31
0.0
 70
    32
 71
     5
 42
0.25
  3
23NSTD4I
100
AcDbAlignedDimension
 13
21.68386339407861
 23
22.25153252545258
 33
0.0
 14
21.68386339407861
 24
21.25153252545258
 34
0.0
 50
270.0
100
AcDbRotatedDimension
  0
TEXT
  5
EC6
330
1E
100
AcDbEntity
  8
TEXT
100
AcDbText
 10
20.90051479945843
 20
18.88795613601648
 30
0.0
 40
0.312
  1
(4) PLACES
 41
0.75
 72
     1
 11
21.95351479945843
 21
18.88795613601648
 31
0.0
100
AcDbText
  0
TEXT
  5
ECF
330
1E
100
AcDbEntity
  8
TEXT
100
AcDbText
 10
31.63169083009926
 20
4.827195094571784
 30
0.0
 40
0.312
  1
%%USECTION "B-B"
 41
0.8
  7
SECTION
 72
     1
 11
33.17505083009926
 21
4.827195094571784
 31
0.0
100
AcDbText
  0
DIMENSION
  5
ED0
330
1E
100
AcDbEntity
  8
DIM
100
AcDbDimension
  2
*D32
 10
30.8287372844639
 20
12.96202983942009
 30
0.0
 11
31.9529560344639
 21
13.86202983942009
 31
0.0
 70
    32
 71
     5
 42
0.2759999999999998
  3
23NSTD
100
AcDbAlignedDimension
 13
29.8512982844639
 23
12.68602983942009
 33
0.0
 14
29.8772982844639
 24
12.96202983942009
 34
0.0
 50
90.0
100
AcDbRotatedDimension
  0
DIMENSION
  5
EDE
330
1E
100
AcDbEntity
  8
DIM
100
AcDbDimension
  2
*D33
 10
30.8287372844639
 20
12.68602983942009
 30
0.0
 11
30.8287372844639
 21
9.812029839420096
 31
0.0
 70
    32
  1
<>
 71
     5
 42
5.748000000000001
  3
23NSTD
100
AcDbAlignedDimension
 13
29.8512982844639
 23
6.938029839420091
 33
0.0
 14
29.8512982844639
 24
12.68602983942009
 34
0.0
 50
90.0
100
AcDbRotatedDimension
  0
DIMENSION
  5
EEC
330
1E
100
AcDbEntity
  8
DIM
100
AcDbDimension
  2
*D34
 10
23.0509072844639
 20
12.96202983942009
 30
0.0
 11
23.0509072844639
 21
9.812029839420096
 31
0.0
 70
    32
  1
<>
 71
     5
 42
6.299999999999999
  3
23NSTD
100
AcDbAlignedDimension
 13
24.0772982844639
 23
6.662029839420092
 33
0.0
 14
24.0772982844639
 24
12.96202983942009
 34
0.0
 50
270.0
100
AcDbRotatedDimension
  0
DIMENSION
  5
EFA
330
1E
100
AcDbEntity
  8
DIM
100
AcDbDimension
  2
*D35
 10
30.1272982844639
 20
14.40783183942009
 30
0.0
 11
31.7015170344639
 21
14.40783183942009
 31
0.0
 70
    32
 71
     5
 42
0.2759999999999998
  3
23NSTD
100
AcDbAlignedDimension
 13
29.8512982844639
 23
12.68602983942009
 33
0.0
 14
30.1272982844639
 24
12.71202983942009
 34
0.0
100
AcDbRotatedDimension
  0
DIMENSION
  5
F08
330
1E
100
AcDbEntity
  8
DIM
100
AcDbDimension
  2
*D36
 10
24.1032982844639
 20
14.40783183942009
 30
0.0
 11
26.9772982844639
 21
14.40783183942009
 31
0.0
 70
    32
  1
<>
 71
     5
 42
5.748000000000001
  3
23NSTD
100
AcDbAlignedDimension
 13
29.8512982844639
 23
12.68602983942009
 33
0.0
 14
24.1032982844639
 24
12.68602983942009
 34
0.0
100
AcDbRotatedDimension
  0
DIMENSION
  5
F16
330
1E
100
AcDbEntity
  8
DIM
100
AcDbDimension
  2
*D37
 10
23.8272982844639
 20
15.13208183942009
 30
0.0
 11
26.9772982844639
 21
15.13208183942009
 31
0.0
 70
    32
  1
<>
 71
     5
 42
6.3
  3
23NSTD
100
AcDbAlignedDimension
 13
30.1272982844639
 23
12.71202983942009
 33
0.0
 14
23.8272982844639
 24
12.71202983942009
 34
0.0
100
AcDbRotatedDimension
  0
CIRCLE
  5
F24
102
{ACAD_REACTORS
330
32BA
102
}
330
1E
100
AcDbEntity
  8
BEND
100
AcDbCircle
 10
33.06023083009927
 20
7.107887839420092
 30
0.0
 40
0.854662
  0
DIMENSION
  5
F2C
330
1E
100
AcDbEntity
  8
DIM
100
AcDbDimension
  2
*D38
 10
27.3420262844639
 20
6.662029839420092
 30
0.0
 11
25.7685887844639
 21
5.762029839420096
 31
0.0
 70
    32
  1
<> TYP.
 71
     5
 42
0.1799999999999997
  3
23NSTD
100
AcDbAlignedDimension
 13
27.2834332844639
 23
6.842029839420091
 33
0.0
 14
27.2834332844639
 24
6.662029839420092
 34
0.0
 50
90.0
100
AcDbRotatedDimension
  0
LWPOLYLINE
  5
F3A
330
1E
100
AcDbEntity
  8
OBJECT
100
AcDbPolyline
 90
        8
 70
     1
 43
0.0
 10
24.0772982844639
 20
6.662029839420092
 10
29.8772982844639
 20
6.662029839420092
 42
0.4142140000000001
 10
30.1272982844639
 20
6.912029839420092
 10
30.1272982844639
 20
12.71202983942009
 42
0.4142140000000001
 10
29.8772982844639
 20
12.96202983942009
 10
24.0772982844639
 20
12.96202983942009
 42
0.4142140000000001
 10
23.8272982844639
 20
12.71202983942009
 10
23.8272982844639
 20
6.912029839420092
 42
0.4142140000000001
  0
LWPOLYLINE
  5
F44
330
1E
100
AcDbEntity
  8
OBJECT
100
AcDbPolyline
 90
        8
 70
     1
 43
0.0
 10
30.0672982844639
 20
12.05451083942009
 42
0.219243
 10
29.8772982844639
 20
12.14202983942009
 10
29.6822982844639
 20
12.14202983942009
 42
-0.4142140000000001
 10
29.5572982844639
 20
12.26702983942009
 10
29.5572982844639
 20
12.71202983942009
 42
0.219243
 10
29.4697792844639
 20
12.90202983942009
 10
29.8772982844639
 20
12.90202983942009
 42
-0.4142140000000001
 10
30.0672982844639
 20
12.71202983942009
  0
CIRCLE
  5
F4E
330
1E
100
AcDbEntity
  8
OBJECT
100
AcDbCircle
 10
29.8512982844639
 20
12.68602983942009
 30
0.0
 40
0.085
  0
CIRCLE
  5
F4F
330
1E
100
AcDbEntity
  8
OBJECT
100
AcDbCircle
 10
29.8512982844639
 20
12.68602983942009
 30
0.0
 40
0.1775
  0
LWPOLYLINE
  5
F50
330
1E
100
AcDbEntity
  8
OBJECT
100
AcDbPolyline
 90
        8
 70
     1
 43
0.0
 10
23.8872982844639
 20
12.05451083942009
 42
-0.219243
 10
24.0772982844639
 20
12.14202983942009
 10
24.2722982844639
 20
12.14202983942009
 42
0.4142140000000001
 10
24.3972982844639
 20
12.26702983942009
 10
24.3972982844639
 20
12.71202983942009
 42
-0.219243
 10
24.4848182844639
 20
12.90202983942009
 10
24.0772982844639
 20
12.90202983942009
 42
0.4142140000000001
 10
23.8872982844639
 20
12.71202983942009
  0
CIRCLE
  5
F5A
330
1E
100
AcDbEntity
  8
OBJECT
100
AcDbCircle
 10
24.1032982844639
 20
12.68602983942009
 30
0.0
 40
0.1775
  0
CIRCLE
  5
F5B
330
1E
100
AcDbEntity
  8
OBJECT
100
AcDbCircle
 10
24.1032982844639
 20
12.68602983942009
 30
0.0
 40
0.085
  0
LWPOLYLINE
  5
F5C
330
1E
100
AcDbEntity
  8
OBJECT
100
AcDbPolyline
 90
        8
 70
     1
 43
0.0
 10
30.0672982844639
 20
7.569549839420091
 42
-0.219243
 10
29.8772982844639
 20
7.482029839420093
 10
29.6822982844639
 20
7.482029839420093
 42
0.4142140000000001
 10
29.5572982844639
 20
7.357029839420093
 10
29.5572982844639
 20
6.912029839420092
 42
-0.219243
 10
29.4697792844639
 20
6.722029839420092
 10
29.8772982844639
 20
6.722029839420092
 42
0.4142140000000001
 10
30.0672982844639
 20
6.912029839420092
  0
CIRCLE
  5
F66
330
1E
100
AcDbEntity
  8
OBJECT
100
AcDbCircle
 10
29.8512982844639
 20
6.938029839420092
 30
0.0
 40
0.1775
  0
CIRCLE
  5
F67
330
1E
100
AcDbEntity
  8
OBJECT
100
AcDbCircle
 10
29.8512982844639
 20
6.938029839420092
 30
0.0
 40
0.085
  0
LWPOLYLINE
  5
F68
330
1E
100
AcDbEntity
  8
OBJECT
100
AcDbPolyline
 90
        8
 70
     1
 43
0.0
 10
23.8872982844639
 20
7.569549839420091
 42
0.219243
 10
24.0772982844639
 20
7.482029839420093
 10
24.2722982844639
 20
7.482029839420093
 42
-0.4142140000000001
 10
24.3972982844639
 20
7.357029839420093
 10
24.3972982844639
 20
6.912029839420092
 42
0.219243
 10
24.4848182844639
 20
6.722029839420092
 10
24.0772982844639
 20
6.722029839420092
 42
-0.4142140000000001
 10
23.8872982844639
 20
6.912029839420092
  0
CIRCLE
  5
F72
330
1E
100
AcDbEntity
  8
OBJECT
100
AcDbCircle
 10
24.1032982844639
 20
6.938029839420092
 30
0.0
 40
0.085
  0
CIRCLE
  5
F73
330
1E
100
AcDbEntity
  8
OBJECT
100
AcDbCircle
 10
24.1032982844639
 20
6.938029839420092
 30
0.0
 40
0.1775
  0
LWPOLYLINE
  5
F74
330
1E
100
AcDbEntity
  8
OBJECT
100
AcDbPolyline
 90
       24
 70
     1
 43
0.0
 10
23.8872982844639
 20
11.89202983942009
 10
23.8872982844639
 20
7.732029839420093
 42
0.4142140000000001
 10
24.0772982844639
 20
7.542029839420091
 10
24.2722982844639
 20
7.542029839420091
 42
-0.4142140000000001
 10
24.4572982844639
 20
7.357029839420093
 10
24.4572982844639
 20
6.912029839420092
 42
0.4142140000000001
 10
24.6472982844639
 20
6.722029839420092
 10
29.3072982844639
 20
6.722029839420092
 42
0.4142140000000001
 10
29.4972982844639
 20
6.912029839420092
 10
29.4972982844639
 20
7.357029839420093
 42
-0.4142140000000001
 10
29.6822982844639
 20
7.542029839420091
 10
29.8772982844639
 20
7.542029839420091
 42
0.4142140000000001
 10
30.0672982844639
 20
7.732029839420093
 10
30.0672982844639
 20
11.89202983942009
 42
0.4142140000000001
 10
29.8772982844639
 20
12.08202983942009
 10
29.6822982844639
 20
12.08202983942009
 42
-0.4142140000000001
 10
29.4972982844639
 20
12.26702983942009
 10
29.4972982844639
 20
12.71202983942009
 42
0.4142140000000001
 10
29.3072982844639
 20
12.90202983942009
 10
24.6472982844639
 20
12.90202983942009
 42
0.4142140000000001
 10
24.4572982844639
 20
12.71202983942009
 10
24.4572982844639
 20
12.26702983942009
 42
-0.4142140000000001
 10
24.2722982844639
 20
12.08202983942009
 10
24.0772982844639
 20
12.08202983942009
 42
0.4142140000000001
  0
LWPOLYLINE
  5
F8E
330
1E
100
AcDbEntity
  8
OBJECT
100
AcDbPolyline
 90
       24
 70
     1
 43
0.0
 10
23.9672982844639
 20
11.89202983942009
 10
23.9672982844639
 20
7.732029839420093
 42
0.4142140000000001
 10
24.0772982844639
 20
7.622029839420092
 10
24.2722982844639
 20
7.622029839420092
 42
-0.4142140000000001
 10
24.5372982844639
 20
7.357029839420093
 10
24.5372982844639
 20
6.912029839420092
 42
0.4142140000000001
 10
24.6472982844639
 20
6.802029839420091
 10
29.3072982844639
 20
6.802029839420091
 42
0.4142140000000001
 10
29.4172982844639
 20
6.912029839420092
 10
29.4172982844639
 20
7.357029839420093
 42
-0.4142140000000001
 10
29.6822982844639
 20
7.622029839420092
 10
29.8772982844639
 20
7.622029839420092
 42
0.4142140000000001
 10
29.9872982844639
 20
7.732029839420093
 10
29.9872982844639
 20
11.89202983942009
 42
0.4142140000000001
 10
29.8772982844639
 20
12.00202983942009
 10
29.6822982844639
 20
12.00202983942009
 42
-0.4142140000000001
 10
29.4172982844639
 20
12.26702983942009
 10
29.4172982844639
 20
12.71202983942009
 42
0.4142140000000001
 10
29.3072982844639
 20
12.82202983942009
 10
24.6472982844639
 20
12.82202983942009
 42
0.4142140000000001
 10
24.5372982844639
 20
12.71202983942009
 10
24.5372982844639
 20
12.26702983942009
 42
-0.4142140000000001
 10
24.2722982844639
 20
12.00202983942009
 10
24.0772982844639
 20
12.00202983942009
 42
0.4142140000000001
  0
LWPOLYLINE
  5
FA8
330
1E
100
AcDbEntity
  8
OBJECT
100
AcDbPolyline
 90
       24
 70
     1
 43
0.0
 10
24.0072982844639
 20
11.89202983942009
 10
24.0072982844639
 20
7.732029839420093
 42
0.4142140000000001
 10
24.0772982844639
 20
7.662029839420092
 10
24.2722982844639
 20
7.662029839420092
 42
-0.4142140000000001
 10
24.5772982844639
 20
7.357029839420093
 10
24.5772982844639
 20
6.912029839420092
 42
0.4142140000000001
 10
24.6472982844639
 20
6.842029839420091
 10
29.3072982844639
 20
6.842029839420091
 42
0.4142140000000001
 10
29.3772982844639
 20
6.912029839420092
 10
29.3772982844639
 20
7.357029839420093
 42
-0.4142140000000001
 10
29.6822982844639
 20
7.662029839420092
 10
29.8772982844639
 20
7.662029839420092
 42
0.4142140000000001
 10
29.9472982844639
 20
7.732029839420093
 10
29.9472982844639
 20
11.89202983942009
 42
0.4142140000000001
 10
29.8772982844639
 20
11.96202983942009
 10
29.6822982844639
 20
11.96202983942009
 42
-0.4142140000000001
 10
29.3772982844639
 20
12.26702983942009
 10
29.3772982844639
 20
12.71202983942009
 42
0.4142140000000001
 10
29.3072982844639
 20
12.78202983942009
 10
24.6472982844639
 20
12.78202983942009
 42
0.4142140000000001
 10
24.5772982844639
 20
12.71202983942009
 10
24.5772982844639
 20
12.26702983942009
 42
-0.4142140000000001
 10
24.2722982844639
 20
11.96202983942009
 10
24.0772982844639
 20
11.96202983942009
 42
0.4142140000000001
  0
ARC
  5
FC2
330
1E
100
AcDbEntity
  8
OBJECT
100
AcDbCircle
 10
29.8512982844639
 20
12.68602983942009
 30
0.0
 40
0.25
100
AcDbArc
 50
120.231286
 51
329.7687139999999
  0
ARC
  5
FC3
330
1E
100
AcDbEntity
  8
OBJECT
100
AcDbCircle
 10
24.1032982844639
 20
12.68602983942009
 30
0.0
 40
0.25
100
AcDbArc
 50
210.231286
 51
59.768714
  0
ARC
  5
FC4
330
1E
100
AcDbEntity
  8
OBJECT
100
AcDbCircle
 10
24.1032982844639
 20
6.938029839420092
 30
0.0
 40
0.25
100
AcDbArc
 50
300.2312859999999
 51
149.768714
  0
ARC
  5
FC5
330
1E
100
AcDbEntity
  8
OBJECT
100
AcDbCircle
 10
29.8512982844639
 20
6.938029839420092
 30
0.0
 40
0.25
100
AcDbArc
 50
30.23128599999999
 51
239.7687139999999
  0
LWPOLYLINE
  5
FC6
330
1E
100
AcDbEntity
  8
BEND
100
AcDbPolyline
 90
        8
 70
     0
 10
29.1437702844639
 20
6.406541839420092
 40
0.0
 41
0.156711
 10
29.4571912844639
 20
6.406541839420092
 40
0.026118
 41
0.026118
 10
29.8512982844639
 20
6.406541839420092
 40
0.026118
 41
0.026118
 10
29.8512982844639
 20
11.65085383942009
 40
0.026118
 41
0.026118
 10
28.7424732844639
 20
11.65085383942009
 40
0.026118
 41
0.026118
 10
28.7424732844639
 20
13.36076983942009
 40
0.026118
 41
0.026118
 10
28.3562922844639
 20
13.36076983942009
 40
0.156711
 41
0.0
 10
28.0428702844639
 20
13.36076983942009
 40
0.0
 41
0.0
  0
TEXT
  5
FD0
330
1E
100
AcDbEntity
  8
TEXT
100
AcDbText
 10
34.10063997471999
 20
17.38463967338234
 30
0.0
 40
0.312
  1
%%UDETAIL "D"
 41
0.8
  7
SECTION
 72
     1
 11
35.20422854614856
 21
17.38463967338234
 31
0.0
100
AcDbText
  0
DIMENSION
  5
FD1
330
1E
100
AcDbEntity
  8
DIM
100
AcDbDimension
  2
*D39
 10
36.56275787710821
 20
13.66346883942009
 30
0.0
 11
34.57838287710821
 21
13.66346883942009
 31
0.0
 70
    32
  1
<> REF.
 71
     5
 42
1.180999999999997
  3
23NSTD
100
AcDbAlignedDimension
 13
37.74375787710821
 23
12.96202983942009
 33
0.0
 14
36.56275787710821
 24
12.89952983942009
 34
0.0
 50
180.0
100
AcDbRotatedDimension
  0
DIMENSION
  5
FDE
330
1E
100
AcDbEntity
  8
DIM
100
AcDbDimension
  2
*D40
 10
38.9247578771082
 20
14.45796883942009
 30
0.0
 11
37.74375787710821
 21
14.45796883942009
 31
0.0
 70
    32
 71
     5
 42
2.361999999999994
  3
23NSTD
100
AcDbAlignedDimension
 13
36.56275787710821
 23
12.89952983942009
 33
0.0
 14
38.9247578771082
 24
12.89952983942009
 34
0.0
 50
180.0
100
AcDbRotatedDimension
  0
ARC
  5
FEC
330
1E
100
AcDbEntity
  8
OBJECT
100
AcDbCircle
 10
38.8622578771082
 20
12.89952983942009
 30
0.0
 40
0.0625
100
AcDbArc
 50
0.0
 51
90.0
  0
ARC
  5
FED
330
1E
100
AcDbEntity
  8
OBJECT
100
AcDbCircle
 10
38.8622578771082
 20
6.724529839420092
 30
0.0
 40
0.0625
100
AcDbArc
 50
270.0
 51
0.0
  0
LINE
  5
FEE
330
1E
100
AcDbEntity
  8
OBJECT
100
AcDbLine
 10
38.9247578771082
 20
12.89952983942009
 30
0.0
 11
38.9247578771082
 21
6.724529839420092
 31
0.0
  0
LINE
  5
FEF
330
1E
100
AcDbEntity
  8
OBJECT
100
AcDbLine
 10
37.78375787710821
 20
12.96202983942009
 30
0.0
 11
37.78375787710821
 21
6.662029839420092
 31
0.0
  0
LINE
  5
FF0
330
1E
100
AcDbEntity
  8
OBJECT
100
AcDbLine
 10
37.78375787710821
 20
6.662029839420092
 30
0.0
 11
38.8622578771082
 21
6.662029839420092
 31
0.0
  0
LINE
  5
FF1
330
1E
100
AcDbEntity
  8
OBJECT
100
AcDbLine
 10
37.74375787710821
 20
6.682029839420092
 30
0.0
 11
37.78375787710821
 21
6.682029839420092
 31
0.0
  0
LINE
  5
FF2
330
1E
100
AcDbEntity
  8
OBJECT
100
AcDbLine
 10
37.78375787710821
 20
12.96202983942009
 30
0.0
 11
38.8622578771082
 21
12.96202983942009
 31
0.0
  0
LINE
  5
FF3
330
1E
100
AcDbEntity
  8
OBJECT
100
AcDbLine
 10
37.74375787710821
 20
12.94202983942009
 30
0.0
 11
37.78375787710821
 21
12.94202983942009
 31
0.0
  0
LINE
  5
FF4
330
1E
100
AcDbEntity
  8
OBJECT
100
AcDbLine
 10
37.74375787710821
 20
12.96202983942009
 30
0.0
 11
36.62525787710821
 21
12.96202983942009
 31
0.0
  0
LINE
  5
FF5
330
1E
100
AcDbEntity
  8
OBJECT
100
AcDbLine
 10
37.74375787710821
 20
6.662029839420092
 30
0.0
 11
36.62525787710821
 21
6.662029839420092
 31
0.0
  0
LINE
  5
FF6
330
1E
100
AcDbEntity
  8
OBJECT
100
AcDbLine
 10
37.74375787710821
 20
12.96202983942009
 30
0.0
 11
37.74375787710821
 21
6.662029839420092
 31
0.0
  0
LINE
  5
FF7
330
1E
100
AcDbEntity
  8
OBJECT
100
AcDbLine
 10
36.56275787710821
 20
12.89952983942009
 30
0.0
 11
36.56275787710821
 21
6.724529839420092
 31
0.0
  0
ARC
  5
FF8
330
1E
100
AcDbEntity
  8
OBJECT
100
AcDbCircle
 10
36.62525787710821
 20
6.724529839420092
 30
0.0
 40
0.0625
100
AcDbArc
 50
180.0
 51
270.0
  0
ARC
  5
FF9
330
1E
100
AcDbEntity
  8
OBJECT
100
AcDbCircle
 10
36.62525787710821
 20
12.89952983942009
 30
0.0
 40
0.0625
100
AcDbArc
 50
90.0
 51
180.0
  0
DIMENSION
  5
FFB
330
1E
100
AcDbEntity
  8
DIM
100
AcDbDimension
  2
*D41
 10
13.78563079323844
 20
12.96202983942009
 30
0.0
 11
13.78563079323844
 21
11.38702983942009
 31
0.0
 70
    32
 71
     5
 42
3.15
  3
23NSTD
100
AcDbAlignedDimension
 13
10.13184979323844
 23
9.812029839420091
 33
0.0
 14
10.31484979323844
 24
12.96202983942009
 34
0.0
 50
90.0
100
AcDbRotatedDimension
  0
DIMENSION
  5
1009
330
1E
100
AcDbEntity
  8
DIM
100
AcDbDimension
  2
*D42
 10
30.7413612844639
 20
15.94435786843675
 30
0.0
 11
30.7413612844639
 21
16.53485786843675
 31
0.0
 70
    32
 71
     5
 42
1.181
  3
23NSTDI
100
AcDbAlignedDimension
 13
30.0647982844639
 23
17.12535786843675
 33
0.0
 14
30.1272982844639
 24
15.94435786843675
 34
0.0
 50
90.0
100
AcDbRotatedDimension
  0
DIMENSION
  5
1017
330
1E
100
AcDbEntity
  8
DIM
100
AcDbDimension
  2
*D43
 10
11.41559579323844
 20
17.13900868477818
 30
0.0
 11
11.41559579323844
 21
17.74950868477818
 31
0.0
 70
    32
 71
     5
 42
1.221
  3
23NSTDI
100
AcDbAlignedDimension
 13
10.50234979323844
 23
18.36000868477818
 33
0.0
 14
10.48684979323844
 24
17.13900868477818
 34
0.0
 50
90.0
100
AcDbRotatedDimension
  0
CIRCLE
  5
1025
330
1E
100
AcDbEntity
  8
BEND
100
AcDbCircle
 10
7.414849793238445
 20
7.055029839420091
 30
0.0
 40
0.590743
  0
ATTDEF
  5
1026
330
1E
100
AcDbEntity
  8
BEND
100
AcDbText
 10
28.8291712844639
 20
13.20476983942009
 30
0.0
 40
0.312
  1

  7
SECTION
 72
     4
 11
28.9851712844639
 21
13.36076983942009
 31
0.0
100
AcDbAttributeDefinition
  3

  2
B
 70
     0
  0
ATTDEF
  5
1027
330
1E
100
AcDbEntity
  8
BEND
100
AcDbText
 10
29.9496952844639
 20
6.250541839420093
 30
0.0
 40
0.312
  1

  7
SECTION
 72
     4
 11
30.1056952844639
 21
6.406541839420093
 31
0.0
100
AcDbAttributeDefinition
  3

  2
B
 70
     0
  0
ATTDEF
  5
1028
330
1E
100
AcDbEntity
  8
BEND
100
AcDbText
 10
10.28694936466701
 20
6.17713183942009
 30
0.0
 40
0.312
  1

  7
SECTION
 72
     4
 11
10.43552079323844
 21
6.33313183942009
 31
0.0
100
AcDbAttributeDefinition
  3

  2
A
 70
     0
  0
ATTDEF
  5
1029
330
1E
100
AcDbEntity
  8
BEND
100
AcDbText
 10
9.711106364667019
 20
13.15425883942009
 30
0.0
 40
0.312
  1

  7
SECTION
 72
     4
 11
9.859677793238446
 21
13.31025883942009
 31
0.0
100
AcDbAttributeDefinition
  3

  2
A
 70
     0
  0
DIMENSION
  5
1038
330
1E
100
AcDbEntity
  8
DIM
100
AcDbDimension
  2
*D44
 10
33.66918883009927
 20
11.00126783942009
 30
0.0
 11
35.18481383009927
 21
11.00126783942009
 31
0.0
 70
    32
  1
0.120
 71
     5
 42
0.1200000000000045
  3
23NSTD
100
AcDbAlignedDimension
 13
33.54918883009927
 23
11.05274983942009
 33
0.0
 14
33.66918883009927
 24
11.05274983942009
 34
0.0
100
AcDbRotatedDimension
  0
LINE
  5
1046
330
1E
100
AcDbEntity
  8
OBJECT
100
AcDbLine
 10
23.8272982844639
 20
15.94435786843675
 30
0.0
 11
30.1272982844639
 21
15.94435786843675
 31
0.0
  0
LINE
  5
1047
330
1E
100
AcDbEntity
  8
HIDDEN
100
AcDbLine
 10
23.8872982844639
 20
17.00535786843675
 30
0.0
 11
30.0672982844639
 21
17.00535786843675
 31
0.0
  0
LINE
  5
1048
330
1E
100
AcDbEntity
  8
OBJECT
100
AcDbLine
 10
23.8897982844639
 20
17.12535786843675
 30
0.0
 11
30.0647982844639
 21
17.12535786843675
 31
0.0
  0
LINE
  5
1049
330
1E
100
AcDbEntity
  8
OBJECT
100
AcDbLine
 10
30.1272982844639
 20
15.94435786843675
 30
0.0
 11
30.1272982844639
 21
17.06285786843675
 31
0.0
  0
LINE
  5
104A
330
1E
100
AcDbEntity
  8
HIDDEN
100
AcDbLine
 10
29.5572982844639
 20
15.94435786843675
 30
0.0
 11
29.5572982844639
 21
17.00535786843675
 31
0.0
  0
LINE
  5
104B
330
1E
100
AcDbEntity
  8
HIDDEN
100
AcDbLine
 10
29.6737982844639
 20
15.94435786843675
 30
0.0
 11
29.6737982844639
 21
16.24435786843675
 31
0.0
  0
LINE
  5
104C
330
1E
100
AcDbEntity
  8
HIDDEN
100
AcDbLine
 10
29.3772982844639
 20
15.94435786843675
 30
0.0
 11
29.3772982844639
 21
17.00535786843675
 31
0.0
  0
LINE
  5
104D
330
1E
100
AcDbEntity
  8
HIDDEN
100
AcDbLine
 10
29.93723628446391
 20
15.94435786843675
 30
0.0
 11
29.93723628446391
 21
16.46629486843675
 31
0.0
  0
LINE
  5
104E
330
1E
100
AcDbEntity
  8
HIDDEN
100
AcDbLine
 10
29.7653612844639
 20
15.94435786843675
 30
0.0
 11
29.7653612844639
 21
16.46629486843675
 31
0.0
  0
LINE
  5
104F
330
1E
100
AcDbEntity
  8
HIDDEN
100
AcDbLine
 10
30.0672982844639
 20
17.00535786843675
 30
0.0
 11
30.0672982844639
 21
15.94435786843675
 31
0.0
  0
LINE
  5
1050
330
1E
100
AcDbEntity
  8
HIDDEN
100
AcDbLine
 10
30.0287982844639
 20
15.94435786843675
 30
0.0
 11
30.0287982844639
 21
16.24435786843675
 31
0.0
  0
LINE
  5
1051
330
1E
100
AcDbEntity
  8
HIDDEN
100
AcDbLine
 10
29.4172982844639
 20
16.05935786843675
 30
0.0
 11
29.4972982844639
 21
16.05935786843675
 31
0.0
  0
LINE
  5
1052
330
1E
100
AcDbEntity
  8
HIDDEN
100
AcDbLine
 10
29.6962982844639
 20
16.53535786843675
 30
0.0
 11
29.6962982844639
 21
17.12535786843675
 31
0.0
  0
LINE
  5
1053
330
1E
100
AcDbEntity
  8
HIDDEN
100
AcDbLine
 10
30.0062982844639
 20
16.53535786843675
 30
0.0
 11
30.0062982844639
 21
17.12535786843675
 31
0.0
  0
LINE
  5
1054
330
1E
100
AcDbEntity
  8
HIDDEN
100
AcDbLine
 10
29.6012982844639
 20
16.24435786843675
 30
0.0
 11
29.6012982844639
 21
17.00535786843675
 31
0.0
  0
LINE
  5
1055
330
1E
100
AcDbEntity
  8
HIDDEN
100
AcDbLine
 10
29.6012982844639
 20
16.24435786843675
 30
0.0
 11
29.6737982844639
 21
16.24435786843675
 31
0.0
  0
LINE
  5
1056
330
1E
100
AcDbEntity
  8
HIDDEN
100
AcDbLine
 10
29.7653612844639
 20
16.46629486843675
 30
0.0
 11
29.6962982844639
 21
16.53535786843675
 31
0.0
  0
LINE
  5
1057
330
1E
100
AcDbEntity
  8
HIDDEN
100
AcDbLine
 10
29.93723628446391
 20
16.46629486843675
 30
0.0
 11
30.0062982844639
 21
16.53535786843675
 31
0.0
  0
LINE
  5
1058
330
1E
100
AcDbEntity
  8
HIDDEN
100
AcDbLine
 10
29.93723628446391
 20
16.46629486843675
 30
0.0
 11
29.7653612844639
 21
16.46629486843675
 31
0.0
  0
LINE
  5
1059
330
1E
100
AcDbEntity
  8
HIDDEN
100
AcDbLine
 10
30.0062982844639
 20
16.53535786843675
 30
0.0
 11
29.6962982844639
 21
16.53535786843675
 31
0.0
  0
LINE
  5
105A
330
1E
100
AcDbEntity
  8
HIDDEN
100
AcDbLine
 10
30.0672982844639
 20
16.24435786843675
 30
0.0
 11
30.0287982844639
 21
16.24435786843675
 31
0.0
  0
LINE
  5
105B
330
1E
100
AcDbEntity
  8
HIDDEN
100
AcDbLine
 10
24.5752982844639
 20
15.94435786843675
 30
0.0
 11
24.5752982844639
 21
17.00535786843675
 31
0.0
  0
LINE
  5
105C
330
1E
100
AcDbEntity
  8
HIDDEN
100
AcDbLine
 10
24.3972982844639
 20
17.00535786843675
 30
0.0
 11
24.3972982844639
 21
15.94435786843675
 31
0.0
  0
LINE
  5
105D
330
1E
100
AcDbEntity
  8
OBJECT
100
AcDbLine
 10
23.8272982844639
 20
15.94435786843675
 30
0.0
 11
23.8272982844639
 21
17.06285786843675
 31
0.0
  0
LINE
  5
105E
330
1E
100
AcDbEntity
  8
HIDDEN
100
AcDbLine
 10
24.1892362844639
 20
15.94435786843675
 30
0.0
 11
24.1892362844639
 21
16.46629486843675
 31
0.0
  0
LINE
  5
105F
330
1E
100
AcDbEntity
  8
HIDDEN
100
AcDbLine
 10
24.0173612844639
 20
15.94435786843675
 30
0.0
 11
24.0173612844639
 21
16.46629486843675
 31
0.0
  0
LINE
  5
1060
330
1E
100
AcDbEntity
  8
HIDDEN
100
AcDbLine
 10
23.9257982844639
 20
15.94435786843675
 30
0.0
 11
23.9257982844639
 21
16.24435786843675
 31
0.0
  0
LINE
  5
1061
330
1E
100
AcDbEntity
  8
HIDDEN
100
AcDbLine
 10
23.8872982844639
 20
17.00535786843675
 30
0.0
 11
23.8872982844639
 21
15.94435786843675
 31
0.0
  0
LINE
  5
1062
330
1E
100
AcDbEntity
  8
HIDDEN
100
AcDbLine
 10
24.2807982844639
 20
15.94435786843675
 30
0.0
 11
24.2807982844639
 21
16.24435786843675
 31
0.0
  0
ARC
  5
1063
330
1E
100
AcDbEntity
  8
OBJECT
100
AcDbCircle
 10
23.8897982844639
 20
17.06285786843675
 30
0.0
 40
0.0625
100
AcDbArc
 50
90.0
 51
180.0
  0
LINE
  5
1064
330
1E
100
AcDbEntity
  8
HIDDEN
100
AcDbLine
 10
23.9482982844639
 20
16.53535786843675
 30
0.0
 11
23.9482982844639
 21
17.12535786843675
 31
0.0
  0
LINE
  5
1065
330
1E
100
AcDbEntity
  8
HIDDEN
100
AcDbLine
 10
24.2582982844639
 20
16.53535786843675
 30
0.0
 11
24.2582982844639
 21
17.12535786843675
 31
0.0
  0
LINE
  5
1066
330
1E
100
AcDbEntity
  8
HIDDEN
100
AcDbLine
 10
24.0173612844639
 20
16.46629486843675
 30
0.0
 11
24.1892362844639
 21
16.46629486843675
 31
0.0
  0
LINE
  5
1067
330
1E
100
AcDbEntity
  8
HIDDEN
100
AcDbLine
 10
24.0173612844639
 20
16.46629486843675
 30
0.0
 11
23.9482982844639
 21
16.53535786843675
 31
0.0
  0
LINE
  5
1068
330
1E
100
AcDbEntity
  8
HIDDEN
100
AcDbLine
 10
23.8872982844639
 20
16.24435786843675
 30
0.0
 11
23.9257982844639
 21
16.24435786843675
 31
0.0
  0
LINE
  5
1069
330
1E
100
AcDbEntity
  8
HIDDEN
100
AcDbLine
 10
24.3532982844639
 20
16.24435786843675
 30
0.0
 11
24.2807982844639
 21
16.24435786843675
 31
0.0
  0
LINE
  5
106A
330
1E
100
AcDbEntity
  8
HIDDEN
100
AcDbLine
 10
24.3532982844639
 20
16.24435786843675
 30
0.0
 11
24.3532982844639
 21
17.00535786843675
 31
0.0
  0
LINE
  5
106B
330
1E
100
AcDbEntity
  8
HIDDEN
100
AcDbLine
 10
23.9482982844639
 20
16.53535786843675
 30
0.0
 11
24.2582982844639
 21
16.53535786843675
 31
0.0
  0
LINE
  5
106C
330
1E
100
AcDbEntity
  8
HIDDEN
100
AcDbLine
 10
24.1892362844639
 20
16.46629486843675
 30
0.0
 11
24.2582982844639
 21
16.53535786843675
 31
0.0
  0
LINE
  5
106D
330
1E
100
AcDbEntity
  8
HIDDEN
100
AcDbLine
 10
29.4972982844639
 20
15.94435786843675
 30
0.0
 11
29.4972982844639
 21
16.05935786843675
 31
0.0
  0
LINE
  5
106E
330
1E
100
AcDbEntity
  8
HIDDEN
100
AcDbLine
 10
29.4172982844639
 20
15.94435786843675
 30
0.0
 11
29.4172982844639
 21
16.05935786843675
 31
0.0
  0
LINE
  5
106F
330
1E
100
AcDbEntity
  8
HIDDEN
100
AcDbLine
 10
24.4572982844639
 20
15.94435786843675
 30
0.0
 11
24.4572982844639
 21
16.05935786843675
 31
0.0
  0
LINE
  5
1070
330
1E
100
AcDbEntity
  8
HIDDEN
100
AcDbLine
 10
24.5372982844639
 20
16.05935786843675
 30
0.0
 11
24.4572982844639
 21
16.05935786843675
 31
0.0
  0
LINE
  5
1071
330
1E
100
AcDbEntity
  8
HIDDEN
100
AcDbLine
 10
24.5372982844639
 20
15.94435786843675
 30
0.0
 11
24.5372982844639
 21
16.05935786843675
 31
0.0
  0
ARC
  5
1072
330
1E
100
AcDbEntity
  8
OBJECT
100
AcDbCircle
 10
30.0647982844639
 20
17.06285786843675
 30
0.0
 40
0.0625
100
AcDbArc
 50
0.0
 51
90.0
  0
LINE
  5
1073
330
1E
100
AcDbEntity
  8
HIDDEN
100
AcDbLine
 10
29.9872982844639
 20
15.94435786843675
 30
0.0
 11
29.9872982844639
 21
16.05935786843675
 31
0.0
  0
LINE
  5
1074
330
1E
100
AcDbEntity
  8
HIDDEN
100
AcDbLine
 10
30.0672982844639
 20
15.94435786843675
 30
0.0
 11
30.0672982844639
 21
16.05935786843675
 31
0.0
  0
LINE
  5
1075
330
1E
100
AcDbEntity
  8
HIDDEN
100
AcDbLine
 10
29.9872982844639
 20
16.05935786843675
 30
0.0
 11
30.0672982844639
 21
16.05935786843675
 31
0.0
  0
LINE
  5
1076
330
1E
100
AcDbEntity
  8
HIDDEN
100
AcDbLine
 10
29.9472982844639
 20
15.94435786843675
 30
0.0
 11
29.9472982844639
 21
17.00535786843675
 31
0.0
  0
LINE
  5
1077
330
1E
100
AcDbEntity
  8
HIDDEN
100
AcDbLine
 10
23.9672982844639
 20
15.94435786843675
 30
0.0
 11
23.9672982844639
 21
16.05935786843675
 31
0.0
  0
LINE
  5
1078
330
1E
100
AcDbEntity
  8
HIDDEN
100
AcDbLine
 10
23.9672982844639
 20
16.05935786843675
 30
0.0
 11
23.8872982844639
 21
16.05935786843675
 31
0.0
  0
LINE
  5
1079
330
1E
100
AcDbEntity
  8
HIDDEN
100
AcDbLine
 10
23.8872982844639
 20
15.94435786843675
 30
0.0
 11
23.8872982844639
 21
16.05935786843675
 31
0.0
  0
LINE
  5
107A
330
1E
100
AcDbEntity
  8
HIDDEN
100
AcDbLine
 10
24.0052982844639
 20
15.94435786843675
 30
0.0
 11
24.0052982844639
 21
17.00535786843675
 31
0.0
  0
LINE
  5
107B
102
{ACAD_REACTORS
330
32BA
102
}
330
1E
100
AcDbEntity
  8
OBJECT
100
AcDbLine
 10
33.54918883009927
 20
12.78202983942009
 30
0.0
 11
33.54918883009927
 21
7.662029839420092
 31
0.0
  0
LINE
  5
107C
102
{ACAD_REACTORS
330
32BA
102
}
330
1E
100
AcDbEntity
  8
OBJECT
100
AcDbLine
 10
33.66918883009927
 20
12.89952983942009
 30
0.0
 11
33.66918883009927
 21
6.724529839420092
 31
0.0
  0
ARC
  5
107F
102
{ACAD_REACTORS
330
32BA
102
}
330
1E
100
AcDbEntity
  8
OBJECT
100
AcDbCircle
 10
33.60668883009927
 20
6.724529839420092
 30
0.0
 40
0.0625
100
AcDbArc
 50
270.0
 51
0.0
  0
LINE
  5
1080
102
{ACAD_REACTORS
330
32BA
102
}
330
1E
100
AcDbEntity
  8
OBJECT
100
AcDbLine
 10
32.93518883009926
 20
6.783029839420091
 30
0.0
 11
33.66918883009927
 21
6.783029839420091
 31
0.0
  0
LINE
  5
1081
102
{ACAD_REACTORS
330
32BA
102
}
330
1E
100
AcDbEntity
  8
OBJECT
100
AcDbLine
 10
32.48818883009927
 20
6.760529839420092
 30
0.0
 11
32.78818883009927
 21
6.760529839420092
 31
0.0
  0
LINE
  5
1082
102
{ACAD_REACTORS
330
32BA
102
}
330
1E
100
AcDbEntity
  8
OBJECT
100
AcDbLine
 10
32.48818883009927
 20
6.662029839420092
 30
0.0
 11
33.60668883009927
 21
6.662029839420092
 31
0.0
  0
LINE
  5
1083
102
{ACAD_REACTORS
330
32BA
102
}
330
1E
100
AcDbEntity
  8
OBJECT
100
AcDbLine
 10
32.78818883009927
 20
6.722029839420091
 30
0.0
 11
32.48818883009927
 21
6.722029839420091
 31
0.0
  0
LINE
  5
1085
102
{ACAD_REACTORS
330
32BA
102
}
330
1E
100
AcDbEntity
  8
OBJECT
100
AcDbLine
 10
32.93518883009927
 20
7.093029839420093
 30
0.0
 11
33.66918883009927
 21
7.093029839420092
 31
0.0
  0
LINE
  5
1086
102
{ACAD_REACTORS
330
32BA
102
}
330
1E
100
AcDbEntity
  8
OBJECT
100
AcDbLine
 10
32.48818883009927
 20
7.115529839420091
 30
0.0
 11
32.78818883009927
 21
7.115529839420091
 31
0.0
  0
LINE
  5
1087
102
{ACAD_REACTORS
330
32BA
102
}
330
1E
100
AcDbEntity
  8
OBJECT
100
AcDbLine
 10
32.48818883009927
 20
6.852092839420091
 30
0.0
 11
32.93518883009926
 21
6.852092839420091
 31
0.0
  0
LINE
  5
1088
102
{ACAD_REACTORS
330
32BA
102
}
330
1E
100
AcDbEntity
  8
OBJECT
100
AcDbLine
 10
32.48818883009927
 20
7.023967839420091
 30
0.0
 11
32.93518883009926
 21
7.023967839420091
 31
0.0
  0
LINE
  5
1089
102
{ACAD_REACTORS
330
32BA
102
}
330
1E
100
AcDbEntity
  8
OBJECT
100
AcDbLine
 10
32.48818883009927
 20
7.662029839420092
 30
0.0
 11
33.54918883009927
 21
7.662029839420092
 31
0.0
  0
LINE
  5
108A
102
{ACAD_REACTORS
330
32BA
102
}
330
1E
100
AcDbEntity
  8
OBJECT
100
AcDbLine
 10
32.48818883009927
 20
7.482029839420093
 30
0.0
 11
33.54918883009927
 21
7.482029839420093
 31
0.0
  0
LINE
  5
108E
102
{ACAD_REACTORS
330
32BA
102
}
330
1E
100
AcDbEntity
  8
OBJECT
100
AcDbLine
 10
32.78818883009927
 20
7.188029839420092
 30
0.0
 11
33.54918883009927
 21
7.188029839420092
 31
0.0
  0
ARC
  5
108F
102
{ACAD_REACTORS
330
32BA
102
}
330
1E
100
AcDbEntity
  8
OBJECT
100
AcDbCircle
 10
33.60668883009927
 20
12.89952983942009
 30
0.0
 40
0.0625
100
AcDbArc
 50
0.0
 51
90.0
  0
LINE
  5
1090
102
{ACAD_REACTORS
330
32BA
102
}
330
1E
100
AcDbEntity
  8
OBJECT
100
AcDbLine
 10
32.48818883009927
 20
12.96202983942009
 30
0.0
 11
33.60668883009927
 21
12.96202983942009
 31
0.0
  0
LINE
  5
1091
102
{ACAD_REACTORS
330
32BA
102
}
330
1E
100
AcDbEntity
  8
OBJECT
100
AcDbLine
 10
32.48818883009927
 20
12.78202983942009
 30
0.0
 11
33.54918883009927
 21
12.78202983942009
 31
0.0
  0
LINE
  5
1092
102
{ACAD_REACTORS
330
32BA
102
}
330
1E
100
AcDbEntity
  8
OBJECT
100
AcDbLine
 10
33.54918883009927
 20
7.482029839420093
 30
0.0
 11
33.54918883009927
 21
7.188029839420092
 31
0.0
  0
DIMENSION
  5
113B
330
1E
100
AcDbEntity
  8
DIM
100
AcDbDimension
  2
*D45
 10
39.98063753945485
 20
20.31802537904445
 30
0.0
 11
39.98063753945484
 21
19.69802537904445
 31
0.0
 70
    32
  1
<> DIA.\PC'BORE
 71
     5
 42
0.3100000000000005
  3
23NSTD4I
100
AcDbAlignedDimension
 13
38.69790653945484
 23
19.07802537904445
 33
0.0
 14
38.69790653945484
 24
20.31802537904445
 34
0.0
 50
90.0
100
AcDbRotatedDimension
  0
DIMENSION
  5
1159
330
1E
100
AcDbEntity
  8
DIM
100
AcDbDimension
  2
*D46
 10
32.91922553945485
 20
19.35427537904446
 30
0.0
 11
32.91922553945484
 21
19.69802537904446
 31
0.0
 70
    32
  1
<> DIA.
 71
     5
 42
0.171875
  3
23NSTD4I
100
AcDbAlignedDimension
 13
33.97390653945485
 23
20.04177537904446
 33
0.0
 14
33.97390653945485
 24
19.35427537904446
 34
0.0
 50
90.0
100
AcDbRotatedDimension
  0
DIMENSION
  5
1175
330
1E
100
AcDbEntity
  8
DIM
100
AcDbDimension
  2
*D47
 10
35.76190653945482
 20
18.06713101891583
 30
0.0
 11
37.22990653945483
 21
18.06713101891583
 31
0.0
 70
    32
 71
     5
 42
0.7340000000000071
  3
23NSTD4
100
AcDbAlignedDimension
 13
38.69790653945484
 23
18.84402537904445
 33
0.0
 14
35.76190653945482
 24
19.07802537904445
 34
0.0
100
AcDbRotatedDimension
  0
DIMENSION
  5
1183
330
1E
100
AcDbEntity
  8
DIM
100
AcDbDimension
  2
*D48
 10
31.968705588722
 20
22.45130837904445
 30
0.0
 11
33.053861838722
 21
23.35130837904445
 31
0.0
 70
    32
 71
     5
 42
0.0800000000000001
  3
23NSTD4
100
AcDbAlignedDimension
 13
33.97390653945485
 23
22.13130837904445
 33
0.0
 14
33.97390653945485
 24
22.45130837904445
 34
0.0
 50
90.0
100
AcDbRotatedDimension
  0
DIMENSION
  5
1191
330
1E
100
AcDbEntity
  8
DIM
100
AcDbDimension
  2
*D49
 10
33.97390653945485
 20
24.01356537904446
 30
0.0
 11
32.47781278945486
 21
24.01356537904446
 31
0.0
 70
    32
 71
     5
 42
0.1149999999999967
  3
23NSTD4
100
AcDbAlignedDimension
 13
34.43390653945484
 23
22.45130837904445
 33
0.0
 14
33.97390653945485
 24
23.09749549394728
 34
0.0
100
AcDbRotatedDimension
  0
LINE
  5
11A8
102
{ACAD_REACTORS
330
1880
330
188E
330
32BA
102
}
330
1E
100
AcDbEntity
  8
OBJECT
100
AcDbLine
 10
32.48818883009927
 20
12.96202983942009
 30
0.0
 11
32.48818883009927
 21
6.662029839420092
 31
0.0
  0
TEXT
  5
11C0
330
1E
100
AcDbEntity
  8
TEXT
100
AcDbText
 10
22.69955922881251
 20
24.97973958333334
 30
0.0
 40
0.390625
  1
PN-1338, PN-1338-C AND PN-1338-DG
 41
0.75
 72
     4
 11
27.26498891631251
 21
25.1425
 31
0.0
100
AcDbText
  0
LINE
  5
11C1
330
1E
100
AcDbEntity
  8
TITLE
100
AcDbLine
 10
36.34500250000002
 20
2.754998750000003
 30
0.0
 11
36.34500250000002
 21
0.1550000000000029
 31
0.0
  0
LINE
  5
11C2
330
1E
100
AcDbEntity
  8
TITLE
100
AcDbLine
 10
31.34500500000003
 20
2.754998750000003
 30
0.0
 11
31.34500500000003
 21
0.1550000000000029
 31
0.0
  0
LINE
  5
11C3
330
1E
100
AcDbEntity
  8
TITLE
100
AcDbLine
 10
26.34500750000003
 20
2.754998750000003
 30
0.0
 11
26.34500750000003
 21
0.1550000000000029
 31
0.0
  0
LINE
  5
11C4
330
1E
100
AcDbEntity
  8
TITLE
100
AcDbLine
 10
21.34501000000003
 20
2.754998750000003
 30
0.0
 11
21.34501000000003
 21
0.1550000000000029
 31
0.0
  0
LINE
  5
11C5
330
1E
100
AcDbEntity
  8
TITLE
100
AcDbLine
 10
33.84500375000003
 20
1.194998750000002
 30
0.0
 11
33.84500375000003
 21
0.6750000000000029
 31
0.0
  0
LINE
  5
11C7
330
1E
100
AcDbEntity
  8
TITLE
100
AcDbLine
 10
21.34501000000003
 20
0.6750000000000029
 30
0.0
 11
36.34500250000002
 21
0.6750000000000029
 31
0.0
  0
LINE
  5
11C8
330
1E
100
AcDbEntity
  8
TITLE
100
AcDbLine
 10
21.34501000000003
 20
1.194998750000002
 30
0.0
 11
36.34500250000002
 21
1.194998750000002
 31
0.0
  0
LINE
  5
11C9
330
1E
100
AcDbEntity
  8
TITLE
100
AcDbLine
 10
21.34501000000003
 20
1.714998750000003
 30
0.0
 11
41.34500000000002
 21
1.714998750000003
 31
0.0
  0
LINE
  5
11CA
330
1E
100
AcDbEntity
  8
TITLE
100
AcDbLine
 10
21.34501000000003
 20
2.754998750000003
 30
0.0
 11
41.34500000000002
 21
2.754998750000003
 31
0.0
  0
TEXT
  5
11CB
330
1E
100
AcDbEntity
  8
TEXT
100
AcDbText
 10
22.59500875000003
 20
2.078748750000003
 30
0.0
 40
0.3125
  1
PART NUMBER
 41
0.75
 72
     4
 11
23.84500875000003
 21
2.234998750000003
 31
0.0
100
AcDbText
  0
TEXT
  5
11CD
330
1E
100
AcDbEntity
  8
TEXT
100
AcDbText
 10
23.10282125000003
 20
1.297082500000002
 30
0.0
 40
0.3125
  1
PN-1338
 41
0.75
 72
     4
 11
23.84500875000003
 21
1.453332500000002
 31
0.0
100
AcDbText
  0
TEXT
  5
11CE
330
1E
100
AcDbEntity
  8
TEXT
100
AcDbText
 10
22.86844625000003
 20
0.7762500000000028
 30
0.0
 40
0.3125
  1
PN-1338-C
 41
0.75
 72
     4
 11
23.84500875000003
 21
0.9325000000000027
 31
0.0
100
AcDbText
  0
TEXT
  5
11CF
330
1E
100
AcDbEntity
  8
TEXT
100
AcDbText
 10
22.75125875000003
 20
0.2554162500000029
 30
0.0
 40
0.3125
  1
PN-1338-DG
 41
0.75
 72
     4
 11
23.84500875000003
 21
0.4116662500000029
 31
0.0
100
AcDbText
  0
TEXT
  5
11D0
330
1E
100
AcDbEntity
  8
TEXT
100
AcDbText
 10
37.47781375000003
 20
2.078748750000003
 30
0.0
 40
0.3125
  1
HARDWARE KIT
 41
0.75
 72
     4
 11
38.84500125000003
 21
2.234998750000003
 31
0.0
100
AcDbText
  0
TEXT
  5
11D2
330
1E
100
AcDbEntity
  8
TEXT
100
AcDbText
 10
27.98563125000002
 20
2.338748750000003
 30
0.0
 40
0.3125
  1
MATERIAL
 41
0.75
 72
     4
 11
28.84500625000002
 21
2.494998750000003
 31
0.0
100
AcDbText
  0
TEXT
  5
11D3
330
1E
100
AcDbEntity
  8
TEXT
100
AcDbText
 10
33.25906625000003
 20
2.338748750000003
 30
0.0
 40
0.3125
  1
FINISH
 41
0.75
 72
     4
 11
33.84500375000003
 21
2.494998750000003
 31
0.0
100
AcDbText
  0
TEXT
  5
11D4
330
1E
100
AcDbEntity
  8
TEXT
100
AcDbText
 10
32.16531625000003
 20
1.818748750000002
 30
0.0
 40
0.3125
  1
BODY
 41
0.75
 72
     4
 11
32.59500375000003
 21
1.974998750000002
 31
0.0
100
AcDbText
  0
TEXT
  5
11D5
330
1E
100
AcDbEntity
  8
TEXT
100
AcDbText
 10
27.36063125000002
 20
1.297916250000002
 30
0.0
 40
0.3125
  1
POLYCARBONATE
 41
0.75
 72
     4
 11
28.84500625000002
 21
1.454166250000002
 31
0.0
100
AcDbText
  0
TEXT
  5
11D6
330
1E
100
AcDbEntity
  8
TEXT
100
AcDbText
 10
27.36063125000002
 20
0.7770825000000028
 30
0.0
 40
0.3125
  1
POLYCARBONATE
 41
0.75
 72
     4
 11
28.84500625000002
 21
0.9333325000000026
 31
0.0
100
AcDbText
  0
TEXT
  5
11D7
330
1E
100
AcDbEntity
  8
TEXT
100
AcDbText
 10
27.20438125000002
 20
0.2562500000000028
 30
0.0
 40
0.3125
  1
HIGH-IMPACT ABS
 41
0.75
 72
     4
 11
28.84500625000002
 21
0.4125000000000029
 31
0.0
100
AcDbText
  0
TEXT
  5
11D8
330
1E
100
AcDbEntity
  8
TEXT
100
AcDbText
 10
34.50906500000002
 20
1.818748750000002
 30
0.0
 40
0.3125
  1
COVER
 41
0.75
 72
     4
 11
35.09500250000002
 21
1.974998750000002
 31
0.0
100
AcDbText
  0
TEXT
  5
11D9
330
1E
100
AcDbEntity
  8
TEXT
100
AcDbText
 10
29.50906750000003
 20
1.818748750000002
 30
0.0
 40
0.3125
  1
COVER
 41
0.75
 72
     4
 11
30.09500500000003
 21
1.974998750000002
 31
0.0
100
AcDbText
  0
TEXT
  5
11DA
330
1E
100
AcDbEntity
  8
TEXT
100
AcDbText
 10
27.16531875000002
 20
1.818748750000002
 30
0.0
 40
0.3125
  1
BODY
 41
0.75
 72
     4
 11
27.59500625000002
 21
1.974998750000002
 31
0.0
100
AcDbText
  0
TEXT
  5
11DB
330
1E
100
AcDbEntity
  8
TEXT
100
AcDbText
 10
32.75125375000003
 20
1.297916250000002
 30
0.0
 40
0.3125
  1
LIGHT GRAY
 41
0.75
 72
     4
 11
33.84500375000003
 21
1.454166250000002
 31
0.0
100
AcDbText
  0
TEXT
  5
11DC
330
1E
100
AcDbEntity
  8
TEXT
100
AcDbText
 10
31.50125375000003
 20
0.7770825000000028
 30
0.0
 40
0.3125
  1
LIGHT GRAY
 41
0.75
 72
     4
 11
32.59500375000003
 21
0.9333325000000026
 31
0.0
100
AcDbText
  0
TEXT
  5
11DD
330
1E
100
AcDbEntity
  8
TEXT
100
AcDbText
 10
32.82937875000003
 20
0.256250000000003
 30
0.0
 40
0.3125
  1
DARK GRAY
 41
0.75
 72
     4
 11
33.84500375000003
 21
0.4125000000000029
 31
0.0
100
AcDbText
  0
TEXT
  5
11DE
330
1E
100
AcDbEntity
  8
TEXT
100
AcDbText
 10
34.54812750000002
 20
0.7770825000000028
 30
0.0
 40
0.3125
  1
CLEAR
 41
0.75
 72
     4
 11
35.09500250000002
 21
0.9333325000000026
 31
0.0
100
AcDbText
  0
LINE
  5
11DF
330
1E
100
AcDbEntity
  8
TITLE
100
AcDbLine
 10
33.84500375000003
 20
2.234998750000003
 30
0.0
 11
33.84500375000003
 21
1.714998750000003
 31
0.0
  0
LINE
  5
11E0
330
1E
100
AcDbEntity
  8
TITLE
100
AcDbLine
 10
26.34500750000003
 20
2.234998750000003
 30
0.0
 11
36.34500250000002
 21
2.234998750000003
 31
0.0
  0
LINE
  5
11E1
330
1E
100
AcDbEntity
  8
TITLE
100
AcDbLine
 10
28.84500625000002
 20
2.234998750000003
 30
0.0
 11
28.84500625000002
 21
1.714998750000003
 31
0.0
  0
TEXT
  5
11E2
330
1E
100
AcDbEntity
  8
TEXT
100
AcDbText
 10
37.16531375000003
 20
1.297916250000002
 30
0.0
 40
0.3125
  1
KIT CONTAINS (4)
 41
0.75
 72
     4
 11
38.84500125000003
 21
1.454166250000002
 31
0.0
100
AcDbText
  0
TEXT
  5
11E3
330
1E
100
AcDbEntity
  8
TEXT
100
AcDbText
 10
36.61843875000003
 20
0.7770825000000028
 30
0.0
 40
0.3125
  1
M4 x 20mm (0.787") LG.
 41
0.75
 72
     4
 11
38.84500125000003
 21
0.9333325000000026
 31
0.0
100
AcDbText
  0
TEXT
  5
11E4
330
1E
100
AcDbEntity
  8
TEXT
100
AcDbText
 10
36.61843875000003
 20
0.2562500000000028
 30
0.0
 40
0.3125
  1
SCREWS FOR ASSEMBLY
 41
0.75
 72
     4
 11
38.84500125000003
 21
0.4125000000000029
 31
0.0
100
AcDbText
  0
TEXT
  5
11E5
330
1E
100
AcDbEntity
  8
TEXT
100
AcDbText
 10
21.34501000000003
 20
3.012498750000003
 30
0.0
 40
0.3125
  1
%%UNOTE%%U:  ALL DIMENSIONS HAVE %%P0.015 TOLERANCE UNLESS OTHERWISE SPECIFIED.
 41
0.75
100
AcDbText
  0
LWPOLYLINE
  5
11EB
102
{ACAD_REACTORS
330
1880
330
32BA
102
}
330
1E
100
AcDbEntity
  8
OBJECT
100
AcDbPolyline
 90
        3
 70
     0
 43
0.0
 10
32.60318883009927
 20
7.626350839420091
 10
32.60318883009927
 20
7.546350839420092
 10
32.48818883009927
 20
7.546350839420092
  0
LWPOLYLINE
  5
11F0
102
{ACAD_REACTORS
330
1880
330
32BA
102
}
330
1E
100
AcDbEntity
  8
OBJECT
100
AcDbPolyline
 90
        2
 70
     0
 43
0.0
 10
32.48818883009927
 20
7.626350839420091
 10
32.60318883009927
 20
7.626350839420091
  0
LWPOLYLINE
  5
11F4
102
{ACAD_REACTORS
330
188E
330
32BA
102
}
330
1E
100
AcDbEntity
  8
OBJECT
100
AcDbPolyline
 90
        3
 70
     0
 43
0.0
 10
32.60318883009927
 20
12.90635083942009
 10
32.60318883009927
 20
12.82635083942009
 10
32.48818883009927
 20
12.82635083942009
  0
LWPOLYLINE
  5
11F9
102
{ACAD_REACTORS
330
188E
330
32BA
102
}
330
1E
100
AcDbEntity
  8
OBJECT
100
AcDbPolyline
 90
        2
 70
     0
 43
0.0
 10
32.48818883009927
 20
12.90635083942009
 10
32.60318883009927
 20
12.90635083942009
  0
TEXT
  5
120A
330
1E
100
AcDbEntity
  8
TEXT
100
AcDbText
 10
0.6695025000000001
 20
23.22737875
 30
0.0
 40
0.3125
  1
 %%UPOLYCARBONATE%%U (LIGHT GRAY AND CLEAR)
 41
0.75
100
AcDbText
  0
TEXT
  5
120B
330
1E
100
AcDbEntity
  8
TEXT
100
AcDbText
 10
0.6695025000000001
 20
21.14488
 30
0.0
 40
0.3125
  1
 %%UABS%%U (DARK GRAY)
 41
0.75
100
AcDbText
  0
TEXT
  5
120C
330
1E
100
AcDbEntity
  8
TEXT
100
AcDbText
 10
0.6695025000000001
 20
20.10362999999999
 30
0.0
 40
0.3125
  1
  SERVICE TEMPERATURE RANGE:  -40%%DC TO +80%%DC
 41
0.75
100
AcDbText
  0
TEXT
  5
120D
330
1E
100
AcDbEntity
  8
TEXT
100
AcDbText
 10
0.6695025000000001
 20
20.62404625
 30
0.0
 40
0.3125
  1
  UL94-HB FLAMMABILITY RATING (UL FILE #E56070)
 41
0.75
100
AcDbText
  0
TEXT
  5
120E
330
1E
100
AcDbEntity
  8
TEXT
100
AcDbText
 10
0.6695025000000001
 20
23.7482125
 30
0.0
 40
0.390625
  1
INDUSTRY STANDARDS:
 41
0.75
100
AcDbText
  0
TEXT
  5
120F
330
1E
100
AcDbEntity
  8
TEXT
100
AcDbText
 10
0.6695025000000001
 20
21.66529624999999
 30
0.0
 40
0.3125
  1
  SERVICE TEMPERATURE RANGE:  -40%%DC TO +120%%DC
 41
0.75
100
AcDbText
  0
TEXT
  5
1210
330
1E
100
AcDbEntity
  8
TEXT
100
AcDbText
 10
0.6695025000000001
 20
22.18612999999999
 30
0.0
 40
0.3125
  1
  UV STABILIZED
 41
0.75
100
AcDbText
  0
TEXT
  5
1211
330
1E
100
AcDbEntity
  8
TEXT
100
AcDbText
 10
0.6695025000000001
 20
22.70654625
 30
0.0
 40
0.3125
  1
  UL94-HB FLAMMABILITY RATING (UL FILE #E41613)
 41
0.75
100
AcDbText
  0
INSERT
  5
184D
330
1E
100
AcDbEntity
  8
TITLE
100
AcDbBlockReference
  2
HBS
 10
0.0
 20
0.0
 30
0.0
 41
2.5
 42
2.5
 43
2.5
  0
TEXT
  5
184E
330
1E
100
AcDbEntity
  8
TEXT
100
AcDbText
 10
7.323593750000014
 20
24.9471875
 30
0.0
 40
0.390625
  1
NEMA 4X ENCLOSURE
 41
0.75
 72
     4
 11
9.765000000000014
 21
25.1425
 31
0.0
100
AcDbText
  0
TEXT
  5
1850
330
1E
100
AcDbEntity
  8
TEXT
100
AcDbText
 10
38.23534047881253
 20
24.94718750000002
 30
0.0
 40
0.390625
  1
11-17-08
 41
0.75
 72
     4
 11
39.18748891631253
 21
25.14250000000002
 31
0.0
100
AcDbText
  0
LINE
  5
1853
102
{ACAD_REACTORS
330
32BA
102
}
330
1E
100
AcDbEntity
  8
OBJECT
100
AcDbLine
 10
32.93518883009927
 20
7.093029839420093
 30
0.0
 11
32.93518883009926
 21
6.783029839420091
 31
0.0
  0
LINE
  5
1855
102
{ACAD_REACTORS
330
32BA
102
}
330
1E
100
AcDbEntity
  8
OBJECT
100
AcDbLine
 10
32.78818883009927
 20
7.18802983942009
 30
0.0
 11
32.78818883009927
 21
7.115529839420091
 31
0.0
  0
LINE
  5
1856
102
{ACAD_REACTORS
330
32BA
102
}
330
1E
100
AcDbEntity
  8
OBJECT
100
AcDbLine
 10
32.78818883009927
 20
6.760529839420092
 30
0.0
 11
32.78818883009927
 21
6.722029839420091
 31
0.0
  0
HATCH
  5
1865
330
1E
100
AcDbEntity
  8
OBJECT
 62
   221
100
AcDbHatch
 10
0.0
 20
0.0
 30
0.0
210
0.0
220
0.0
230
1.0
  2
ANSI32
 70
     0
 71
     0
 91
        2
 92
        7
 72
     0
 73
     1
 93
        4
 10
17.4230918913699
 20
6.81302983942009
 10
17.4230918913699
 20
6.872029839420092
 10
17.0920918913699
 20
6.872029839420092
 10
17.0920918913699
 20
6.813029839420091
 97
        0
 92
        7
 72
     0
 73
     1
 93
        4
 10
17.0920918913699
 20
7.063029839420092
 10
17.0920918913699
 20
7.004029839420091
 10
17.4230918913699
 20
7.004029839420091
 10
17.4230918913699
 20
7.063029839420091
 97
        0
 75
     0
 76
     1
 52
89.99998127603165
 41
0.25
 77
     0
 78
     2
 53
134.9999812760316
 43
3.784088891369904
 44
1.261968839420092
 45
-0.066291282399881
 46
-0.0662912390725896
 79
     0
 53
134.9999812760316
 43
3.784088905812335
 44
1.306163013170089
 45
-0.066291282399881
 46
-0.0662912390725896
 79
     0
 47
0.0030263042391287
 98
        2
 10
17.2433539718869
 20
6.839186089134905
 10
17.24941143322146
 20
7.035895879440289
  0
HATCH
  5
1871
330
1E
100
AcDbEntity
  8
OBJECT
 62
   221
100
AcDbHatch
 10
0.0
 20
0.0
 30
0.0
210
0.0
220
0.0
230
1.0
  2
ZIGZAG
 70
     0
 71
     0
 91
        2
 92
        1
 93
       24
 72
     1
 10
23.8872982844639
 20
11.89202983942009
 11
23.8872982844639
 21
7.732029839420093
 72
     2
 10
24.07729814251962
 20
7.732029697475806
 40
0.1899998580557669
 50
179.9999571957125
 51
270.0000428042867
 73
     1
 72
     1
 10
24.0772982844639
 20
7.542029839420091
 11
24.2722982844639
 21
7.542029839420091
 72
     2
 10
24.27229842267281
 20
7.357029977629002
 40
0.1849998617911411
 50
269.9999571957135
 51
360.000042804287
 73
     0
 72
     1
 10
24.4572982844639
 20
7.357029839420093
 11
24.4572982844639
 21
6.912029839420092
 72
     2
 10
24.64729814251962
 20
6.912029697475808
 40
0.1899998580557669
 50
179.9999571957133
 51
270.0000428042877
 73
     1
 72
     1
 10
24.6472982844639
 20
6.722029839420092
 11
29.3072982844639
 21
6.722029839420092
 72
     2
 10
29.30729842640818
 20
6.912029697475808
 40
0.1899998580557687
 50
269.9999571957133
 51
360.0000428042867
 73
     1
 72
     1
 10
29.4972982844639
 20
6.912029839420092
 11
29.4972982844639
 21
7.357029839420093
 72
     2
 10
29.68229814625499
 20
7.357029977629002
 40
0.1849998617911394
 50
179.9999571957129
 51
270.0000428042875
 73
     0
 72
     1
 10
29.6822982844639
 20
7.542029839420091
 11
29.8772982844639
 21
7.542029839420091
 72
     2
 10
29.87729842640819
 20
7.732029697475808
 40
0.1899998580557695
 50
269.9999571957133
 51
360.0000428042869
 73
     1
 72
     1
 10
30.0672982844639
 20
7.732029839420093
 11
30.0672982844639
 21
11.89202983942009
 72
     2
 10
29.87729842640819
 20
11.89202998136437
 40
0.1899998580557704
 50
359.9999571957133
 51
450.0000428042866
 73
     1
 72
     1
 10
29.8772982844639
 20
12.08202983942009
 11
29.6822982844639
 21
12.08202983942009
 72
     2
 10
29.68229814625499
 20
12.26702970121118
 40
0.1849998617911411
 50
89.99995719571241
 51
180.0000428042876
 73
     0
 72
     1
 10
29.4972982844639
 20
12.26702983942009
 11
29.4972982844639
 21
12.71202983942009
 72
     2
 10
29.30729842640818
 20
12.71202998136437
 40
0.1899998580557704
 50
359.9999571957127
 51
450.0000428042866
 73
     1
 72
     1
 10
29.3072982844639
 20
12.90202983942009
 11
24.6472982844639
 21
12.90202983942009
 72
     2
 10
24.64729814251962
 20
12.71202998136437
 40
0.1899998580557687
 50
89.99995719571225
 51
180.0000428042872
 73
     1
 72
     1
 10
24.4572982844639
 20
12.71202983942009
 11
24.4572982844639
 21
12.26702983942009
 72
     2
 10
24.27229842267281
 20
12.26702970121118
 40
0.1849998617911429
 50
359.9999571957123
 51
450.0000428042865
 73
     0
 72
     1
 10
24.2722982844639
 20
12.08202983942009
 11
24.0772982844639
 21
12.08202983942009
 72
     2
 10
24.07729814251962
 20
11.89202998136438
 40
0.1899998580557669
 50
89.99995719571332
 51
180.0000428042872
 73
     1
 97
        0
 92
       16
 93
       24
 72
     1
 10
23.9672982844639
 20
11.89202983942009
 11
23.9672982844639
 21
7.732029839420093
 72
     2
 10
24.07729820228563
 20
7.732029757241821
 40
0.1099999178217624
 50
179.9999571957124
 51
270.0000428042857
 73
     1
 72
     1
 10
24.0772982844639
 20
7.622029839420092
 11
24.2722982844639
 21
7.622029839420092
 72
     2
 10
24.27229848243882
 20
7.357030037395015
 40
0.26499980202515
 50
269.999957195713
 51
360.0000428042867
 73
     0
 72
     1
 10
24.5372982844639
 20
7.357029839420093
 11
24.5372982844639
 21
6.912029839420092
 72
     2
 10
24.64729820228563
 20
6.912029757241821
 40
0.1099999178217588
 50
179.9999571957129
 51
270.0000428042875
 73
     1
 72
     1
 10
24.6472982844639
 20
6.802029839420091
 11
29.3072982844639
 21
6.802029839420091
 72
     2
 10
29.30729836664217
 20
6.912029757241821
 40
0.1099999178217606
 50
269.9999571957124
 51
360.0000428042871
 73
     1
 72
     1
 10
29.4172982844639
 20
6.912029839420092
 11
29.4172982844639
 21
7.357029839420093
 72
     2
 10
29.68229808648898
 20
7.357030037395015
 40
0.2649998020251509
 50
179.9999571957132
 51
270.0000428042869
 73
     0
 72
     1
 10
29.6822982844639
 20
7.622029839420092
 11
29.8772982844639
 21
7.622029839420092
 72
     2
 10
29.87729836664217
 20
7.732029757241821
 40
0.1099999178217606
 50
269.9999571957142
 51
360.0000428042875
 73
     1
 72
     1
 10
29.9872982844639
 20
7.732029839420093
 11
29.9872982844639
 21
11.89202983942009
 72
     2
 10
29.87729836664217
 20
11.89202992159836
 40
0.1099999178217588
 50
359.9999571957124
 51
450.0000428042875
 73
     1
 72
     1
 10
29.8772982844639
 20
12.00202983942009
 11
29.6822982844639
 21
12.00202983942009
 72
     2
 10
29.68229808648898
 20
12.26702964144517
 40
0.2649998020251509
 50
89.99995719571302
 51
180.0000428042869
 73
     0
 72
     1
 10
29.4172982844639
 20
12.26702983942009
 11
29.4172982844639
 21
12.71202983942009
 72
     2
 10
29.30729836664217
 20
12.71202992159836
 40
0.1099999178217624
 50
359.9999571957124
 51
450.0000428042857
 73
     1
 72
     1
 10
29.3072982844639
 20
12.82202983942009
 11
24.6472982844639
 21
12.82202983942009
 72
     2
 10
24.64729820228563
 20
12.71202992159836
 40
0.1099999178217606
 50
89.9999571957143
 51
180.0000428042875
 73
     1
 72
     1
 10
24.5372982844639
 20
12.71202983942009
 11
24.5372982844639
 21
12.26702983942009
 72
     2
 10
24.27229848243882
 20
12.26702964144517
 40
0.2649998020251509
 50
359.999957195713
 51
450.0000428042869
 73
     0
 72
     1
 10
24.2722982844639
 20
12.00202983942009
 11
24.0772982844639
 21
12.00202983942009
 72
     2
 10
24.07729820228563
 20
11.89202992159836
 40
0.1099999178217588
 50
89.99995719571245
 51
180.0000428042875
 73
     1
 97
        0
 75
     0
 76
     1
 52
0.0
 41
0.25
 77
     0
 78
     2
 53
0.0
 43
0.0
 44
0.0
 45
0.03125
 46
0.03125
 79
     2
 49
0.03125
 49
-0.03125
 53
90.0
 43
0.03125
 44
0.0
 45
-0.03125
 46
0.03125
 79
     2
 49
0.03125
 49
-0.03125
 98
        1
 10
7.647324284463905
 20
2.837968839420092
  0
HATCH
  5
1880
330
1E
100
AcDbEntity
  8
OBJECT
 62
   221
100
AcDbHatch
 10
0.0
 20
0.0
 30
0.0
210
0.0
220
0.0
230
1.0
  2
ZIGZAG
 70
     0
 71
     1
 91
        1
 92
        7
 72
     0
 73
     1
 93
        4
 10
32.48818883009927
 20
7.626350839420092
 10
32.48818883009927
 20
7.546350839420092
 10
32.60318883009927
 20
7.546350839420093
 10
32.60318883009927
 20
7.626350839420092
 97
        3
330
11F0
330
11A8
330
11EB
 75
     0
 76
     1
 52
0.0
 41
0.25
 77
     0
 78
     2
 53
0.0
 43
8.52968483009927
 44
1.261968839420092
 45
0.03125
 46
0.03125
 79
     2
 49
0.03125
 49
-0.03125
 53
90.0
 43
8.56093483009927
 44
1.261968839420092
 45
-0.03125
 46
0.03125
 79
     2
 49
0.03125
 49
-0.03125
 47
0.0076952196709331
 98
        1
 10
32.5534114015044
 20
7.596647588297166
  0
HATCH
  5
188E
330
1E
100
AcDbEntity
  8
OBJECT
 62
   221
100
AcDbHatch
 10
0.0
 20
0.0
 30
0.0
210
0.0
220
0.0
230
1.0
  2
ZIGZAG
 70
     0
 71
     1
 91
        1
 92
        7
 72
     0
 73
     1
 93
        4
 10
32.60318883009927
 20
12.82635083942009
 10
32.60318883009927
 20
12.90635083942009
 10
32.48818883009927
 20
12.90635083942009
 10
32.48818883009927
 20
12.82635083942009
 97
        3
330
11F9
330
11A8
330
11F4
 75
     0
 76
     1
 52
0.0
 41
0.25
 77
     0
 78
     2
 53
0.0
 43
8.52968483009927
 44
2.837968839420092
 45
0.03125
 46
0.03125
 79
     2
 49
0.03125
 49
-0.03125
 53
90.0
 43
8.56093483009927
 44
2.837968839420092
 45
-0.03125
 46
0.03125
 79
     2
 49
0.03125
 49
-0.03125
 47
0.0076952196709331
 98
        1
 10
32.54570996239199
 20
12.85865785163466
  0
LINE
  5
1890
102
{ACAD_REACTORS
330
199F
102
}
330
1E
100
AcDbEntity
  8
OBJECT
100
AcDbLine
 10
35.17390653945486
 20
18.98802537904446
 30
0.0
 11
35.17390653945486
 21
18.83402537904445
 31
0.0
  0
LINE
  5
1891
102
{ACAD_REACTORS
330
199F
102
}
330
1E
100
AcDbEntity
  8
OBJECT
100
AcDbLine
 10
35.17390653945485
 20
18.83402537904445
 30
0.0
 11
33.97390653945485
 21
18.83402537904445
 31
0.0
  0
LINE
  5
1892
102
{ACAD_REACTORS
330
199F
102
}
330
1E
100
AcDbEntity
  8
OBJECT
100
AcDbLine
 10
33.97390653945485
 20
18.59402537904446
 30
0.0
 11
38.44790653945485
 21
18.59402537904446
 31
0.0
  0
ARC
  5
1893
102
{ACAD_REACTORS
330
199F
102
}
330
1E
100
AcDbEntity
  8
OBJECT
100
AcDbCircle
 10
38.44790653945485
 20
18.84402537904446
 30
0.0
 40
0.25
100
AcDbArc
 50
270.0
 51
0.0
  0
LWPOLYLINE
  5
1895
102
{ACAD_REACTORS
330
18C6
330
199F
102
}
330
1E
100
AcDbEntity
  8
OBJECT
100
AcDbPolyline
 90
        2
 70
     0
 43
0.0
 10
33.97390653945485
 20
22.45130937904445
 10
34.43390653945484
 20
22.45130937904445
  0
LWPOLYLINE
  5
1896
102
{ACAD_REACTORS
330
18C6
330
199F
102
}
330
1E
100
AcDbEntity
  8
OBJECT
100
AcDbPolyline
 90
        3
 70
     0
 43
0.0
 10
34.43390653945484
 20
22.45130937904445
 10
34.43390653945484
 20
22.13130937904446
 10
33.97390653945485
 20
22.13130937904446
  0
LINE
  5
1897
102
{ACAD_REACTORS
330
199F
102
}
330
1E
100
AcDbEntity
  8
OBJECT
100
AcDbLine
 10
33.97390653945485
 20
18.98802537904446
 30
0.0
 11
35.17390653945485
 21
18.98802537904446
 31
0.0
  0
LINE
  5
1898
102
{ACAD_REACTORS
330
199F
102
}
330
1E
100
AcDbEntity
  8
OBJECT
100
AcDbLine
 10
33.97390653945485
 20
20.40802537904445
 30
0.0
 11
35.17390653945485
 21
20.40802537904445
 31
0.0
  0
LINE
  5
1899
102
{ACAD_REACTORS
330
199F
102
}
330
1E
100
AcDbEntity
  8
OBJECT
100
AcDbLine
 10
33.97390653945485
 20
20.04177737904445
 30
0.0
 11
35.76190653945483
 21
20.04177737904445
 31
0.0
  0
LINE
  5
189A
102
{ACAD_REACTORS
330
199F
102
}
330
1E
100
AcDbEntity
  8
OBJECT
100
AcDbLine
 10
33.97390653945485
 20
19.35427737904445
 30
0.0
 11
35.76190653945483
 21
19.35427737904445
 31
0.0
  0
LINE
  5
189B
102
{ACAD_REACTORS
330
199F
102
}
330
1E
100
AcDbEntity
  8
OBJECT
100
AcDbLine
 10
33.97390653945485
 20
22.59402537904446
 30
0.0
 11
38.21790653945484
 21
22.59402537904446
 31
0.0
  0
LINE
  5
189C
102
{ACAD_REACTORS
330
199F
102
}
330
1E
100
AcDbEntity
  8
OBJECT
100
AcDbLine
 10
33.97390653945485
 20
21.87402537904446
 30
0.0
 11
38.21790653945484
 21
21.87402537904446
 31
0.0
  0
LINE
  5
189D
102
{ACAD_REACTORS
330
199F
102
}
330
1E
100
AcDbEntity
  8
OBJECT
100
AcDbLine
 10
35.17390653945485
 20
20.69802537904446
 30
0.0
 11
38.21790653945484
 21
20.69802537904446
 31
0.0
  0
LINE
  5
189E
102
{ACAD_REACTORS
330
199F
102
}
330
1E
100
AcDbEntity
  8
OBJECT
100
AcDbLine
 10
35.76190653945482
 20
19.07802537904445
 30
0.0
 11
38.69790653945485
 21
19.07802537904445
 31
0.0
  0
LINE
  5
189F
102
{ACAD_REACTORS
330
199F
102
}
330
1E
100
AcDbEntity
  8
OBJECT
100
AcDbLine
 10
35.76190653945484
 20
20.31802537904446
 30
0.0
 11
38.69790653945485
 21
20.31802537904445
 31
0.0
  0
LINE
  5
18A0
102
{ACAD_REACTORS
330
199F
102
}
330
1E
100
AcDbEntity
  8
OBJECT
100
AcDbLine
 10
35.17390653945484
 20
20.69802537904445
 30
0.0
 11
35.17390653945484
 21
20.40802537904445
 31
0.0
  0
LINE
  5
18A1
102
{ACAD_REACTORS
330
199F
102
}
330
1E
100
AcDbEntity
  8
OBJECT
100
AcDbLine
 10
35.76190653945484
 20
20.31802537904446
 30
0.0
 11
35.76190653945482
 21
19.07802537904445
 31
0.0
  0
LINE
  5
18A2
102
{ACAD_REACTORS
330
199F
102
}
330
1E
100
AcDbEntity
  8
OBJECT
100
AcDbLine
 10
38.21790653945484
 20
21.87402537904446
 30
0.0
 11
38.21790653945484
 21
20.69802537904446
 31
0.0
  0
LINE
  5
18A3
102
{ACAD_REACTORS
330
18C6
330
199F
102
}
330
1E
100
AcDbEntity
  8
OBJECT
100
AcDbLine
 10
33.97390653945485
 20
23.09749549394728
 30
0.0
 11
33.97390653945485
 21
18.59402537904446
 31
0.0
  0
LINE
  5
18A4
102
{ACAD_REACTORS
330
199F
102
}
330
1E
100
AcDbEntity
  8
OBJECT
100
AcDbLine
 10
38.21790653945484
 20
23.2999279355573
 30
0.0
 11
38.21790653945484
 21
22.59402537904446
 31
0.0
  0
LINE
  5
18A5
102
{ACAD_REACTORS
330
199F
102
}
330
1E
100
AcDbEntity
  8
OBJECT
100
AcDbLine
 10
38.69790653945483
 20
23.25486419056582
 30
0.0
 11
38.69790653945485
 21
18.84402537904446
 31
0.0
  0
SPLINE
  5
18A7
102
{ACAD_REACTORS
330
199F
102
}
330
1E
100
AcDbEntity
  8
OBJECT
100
AcDbSpline
210
0.0
220
0.0
230
1.0
 70
     8
 71
     3
 72
    13
 73
     9
 74
     0
 42
0.0000000001
 43
0.0000000001
 40
0.0
 40
0.0
 40
0.0
 40
0.0
 40
0.8254813544104703
 40
1.58793229656407
 40
2.580407811337047
 40
3.614624615676575
 40
4.704091181086933
 40
4.97034986082285
 40
4.97034986082285
 40
4.97034986082285
 40
4.97034986082285
 10
33.97390653945485
 20
23.09749549394728
 30
0.0
 10
34.23100979650846
 20
23.26403247823171
 30
0.0
 10
34.72558494741398
 20
23.58439035731
 30
0.0
 10
35.52166396905763
 20
22.88908970595359
 30
0.0
 10
36.45209481277867
 20
23.64647956000292
 30
0.0
 10
37.41139655693044
 20
22.69783734038188
 30
0.0
 10
38.20010982415433
 20
23.44022210610917
 30
0.0
 10
38.61635303632148
 20
23.29275621417224
 30
0.0
 10
38.69790653945425
 20
23.25486419056457
 30
0.0
  0
HATCH
  5
18C6
330
1E
100
AcDbEntity
  8
OBJECT
 62
   221
100
AcDbHatch
 10
0.0
 20
0.0
 30
0.0
210
0.0
220
0.0
230
1.0
  2
ZIGZAG
 70
     0
 71
     1
 91
        1
 92
        7
 72
     0
 73
     1
 93
        4
 10
34.43390653945484
 20
22.13130937904446
 10
34.43390653945484
 20
22.45130937904445
 10
33.97390653945484
 20
22.45130937904445
 10
33.97390653945484
 20
22.13130937904446
 97
        3
330
1895
330
18A3
330
1896
 75
     0
 76
     1
 52
0.0
 41
1.0
 77
     0
 78
     2
 53
0.0
 43
2.933082243399859
 44
6.404739976371871
 45
0.125
 46
0.125
 79
     2
 49
0.125
 49
-0.125
 53
90.0
 43
3.058082243399859
 44
6.404739976371871
 45
-0.125
 46
0.125
 79
     2
 49
0.125
 49
-0.125
 47
0.0132311014412873
 98
        1
 10
34.24076220381733
 20
22.27026009421734
  0
HATCH
  5
199F
330
1E
100
AcDbEntity
  8
OBJECT
 62
   151
100
AcDbHatch
 10
0.0
 20
0.0
 30
0.0
210
0.0
220
0.0
230
1.0
  2
ANSI31
 70
     0
 71
     1
 91
        2
 92
        5
 93
       18
 72
     1
 10
38.21790653945484
 20
21.87402537904445
 11
38.21790653945483
 21
20.69802537904446
 72
     1
 10
38.21790653945483
 20
20.69802537904446
 11
35.17390653945483
 21
20.69802537904446
 72
     1
 10
35.17390653945483
 20
20.69802537904446
 11
35.17390653945484
 21
20.40802537904445
 72
     1
 10
35.17390653945484
 20
20.40802537904445
 11
33.97390653945484
 21
20.40802537904445
 72
     1
 10
33.97390653945484
 20
20.40802537904445
 11
33.97390653945484
 21
20.04177737904445
 72
     1
 10
33.97390653945484
 20
20.04177737904445
 11
35.76190653945484
 21
20.04177737904445
 72
     1
 10
35.76190653945484
 20
20.04177737904445
 11
35.76190653945484
 21
20.31802537904446
 72
     1
 10
35.76190653945484
 20
20.31802537904446
 11
38.69790653945484
 21
20.31802537904445
 72
     1
 10
38.69790653945484
 20
20.31802537904445
 11
38.69790653945483
 21
23.25486419056433
 72
     4
 94
        3
 73
     0
 74
     0
 95
        9
 96
        5
 40
4.456911714331088
 40
4.456911714331088
 40
4.456911714331088
 40
4.456911714331088
 40
4.723170394067004
 40
4.97034986082285
 40
4.97034986082285
 40
4.97034986082285
 40
4.97034986082285
 10
38.69790653945425
 20
23.25486419056457
 10
38.61635303632148
 20
23.29275621417224
 10
38.45871405739856
 20
23.34860426634795
 10
38.29660522834609
 20
23.32290033485781
 10
38.21790653943394
 20
23.29992793555121
 72
     1
 10
38.21790653945484
 20
23.29992793555603
 11
38.21790653945484
 21
22.59402537904445
 72
     1
 10
38.21790653945484
 20
22.59402537904445
 11
33.97390653945485
 21
22.59402537904446
 72
     1
 10
33.97390653945485
 20
22.59402537904446
 11
33.97390653945485
 21
22.45130937904445
 72
     1
 10
33.97390653945485
 20
22.45130937904445
 11
34.43390653945484
 21
22.45130937904445
 72
     1
 10
34.43390653945484
 20
22.45130937904445
 11
34.43390653945484
 21
22.13130937904446
 72
     1
 10
34.43390653945484
 20
22.13130937904446
 11
33.97390653945484
 21
22.13130937904446
 72
     1
 10
33.97390653945484
 20
22.13130937904446
 11
33.97390653945484
 21
21.87402537904446
 72
     1
 10
33.97390653945484
 20
21.87402537904446
 11
38.21790653945484
 21
21.87402537904445
 97
       15
330
18A7
330
18A4
330
189B
330
18A3
330
1895
330
1896
330
189C
330
18A2
330
189D
330
18A0
330
1898
330
1899
330
18A1
330
189F
330
18A5
 92
        7
 72
     1
 73
     1
 93
       11
 10
35.76190653945483
 20
19.07802537904445
 42
0.0
 10
35.76190653945483
 20
19.35427737904445
 42
0.0
 10
33.97390653945484
 20
19.35427737904445
 42
0.0
 10
33.97390653945484
 20
18.98802537904446
 42
0.0
 10
35.17390653945486
 20
18.98802537904446
 42
0.0
 10
35.17390653945486
 20
18.83402537904445
 42
0.0
 10
33.97390653945484
 20
18.83402537904445
 42
0.0
 10
33.97390653945484
 20
18.59402537904445
 42
0.0
 10
38.44790653945485
 20
18.59402537904446
 42
0.4142135623730951
 10
38.69790653945485
 20
18.84402537904446
 42
0.0
 10
38.69790653945485
 20
19.07802537904445
 42
0.0
 97
       10
330
189E
330
18A1
330
189A
330
18A3
330
1897
330
1890
330
1891
330
1892
330
1893
330
18A5
 75
     0
 76
     1
 52
0.0
 41
1.5
 77
     0
 78
     1
 53
45.0
 43
0.3307763266811534
 44
6.404739976371871
 45
-0.1325825214724776
 46
0.1325825214724777
 79
     0
 47
0.0359218220861592
 98
        2
 10
36.84895202846085
 20
22.22933117690627
 10
36.48944342997185
 20
18.85267990040175
  0
LEADER
  5
1A3E
330
1E
100
AcDbEntity
  8
DIM
100
AcDbLeader
  3
23NSTD
 73
     0
 75
     1
 40
0.832
 41
3.276
 76
     3
 10
33.97390653945484
 20
22.15473997637187
 30
0.0
 10
32.43941823630339
 20
20.85716972088231
 30
0.0
 10
31.98941823630338
 20
20.85716972088231
 30
0.0
340
1A3F
213
0.0
223
-0.125
233
0.0
1001
ACAD
1000
DSTYLE
1002
{
1070
   147
1040
0.09
1070
    77
1070
     0
1002
}
  0
MTEXT
  5
1A3F
102
{ACAD_REACTORS
330
1A3E
102
}
330
1E
100
AcDbEntity
  8
DIM
100
AcDbMText
 10
31.76441823630338
 20
20.98216972088231
 30
0.0
 40
0.312
 41
0.0
 71
     3
 72
     1
  1
\A1;SILICONE GASKET\P(CLEAR)
 73
     1
 44
1.0
  0
LEADER
  5
1B3D
330
1E
100
AcDbEntity
  8
DIM
100
AcDbLeader
  3
23NSTD
 73
     0
 75
     1
 40
0.312
 41
2.964
 76
     3
 10
32.42486283009927
 20
6.536262839420092
 30
0.0
 10
32.03409539637538
 20
5.69737203681484
 30
0.0
 10
31.58409539637538
 20
5.69737203681484
 30
0.0
340
1B3E
213
0.0
223
-0.125
233
0.0
1001
ACAD
1000
DSTYLE
1002
{
1070
   147
1040
0.09
1070
    77
1070
     0
1002
}
  0
MTEXT
  5
1B3E
102
{ACAD_REACTORS
330
1B3D
102
}
330
1E
100
AcDbEntity
  8
DIM
100
AcDbMText
 10
31.35909539637538
 20
5.82237203681484
 30
0.0
 40
0.312
 41
0.0
 71
     3
 72
     1
  1
\A1;SEE DETAIL "D"
 73
     1
 44
1.0
  0
LEADER
  5
1B3F
330
1E
100
AcDbEntity
  8
DIM
100
AcDbLeader
  3
23NSTD
 73
     0
 75
     1
 40
0.312
 41
2.964
 76
     3
 10
6.855824666055642
 20
6.864063352236465
 30
0.0
 10
4.405250462542678
 20
5.845833268855571
 30
0.0
 10
3.955250462542678
 20
5.845833268855571
 30
0.0
340
1B40
213
0.0
223
-0.125
233
0.0
1001
ACAD
1000
DSTYLE
1002
{
1070
   147
1040
0.09
1070
    77
1070
     0
1002
}
  0
MTEXT
  5
1B40
102
{ACAD_REACTORS
330
1B3F
102
}
330
1E
100
AcDbEntity
  8
DIM
100
AcDbMText
 10
3.730250462542678
 20
5.970833268855571
 30
0.0
 40
0.312
 41
0.0
 71
     3
 72
     1
  1
\A1;SEE DETAIL "C"
 73
     1
 44
1.0
  0
LEADER
  5
1B43
330
1E
100
AcDbEntity
  8
DIM
100
AcDbLeader
  3
23NSTD
 73
     0
 75
     1
 40
2.392
 41
6.083999999999999
 76
     3
 10
21.5962301777593
 20
21.59430523966054
 30
0.0
 10
20.68339823716335
 20
20.14051387674284
 30
0.0
 10
20.23339823716335
 20
20.14051387674284
 30
0.0
340
1B44
213
0.0
223
-0.125
233
0.0
1001
ACAD
1000
DSTYLE
1002
{
1070
   147
1040
0.09
1070
    77
1070
     0
1002
}
  0
MTEXT
  5
1B44
102
{ACAD_REACTORS
330
1B43
102
}
330
1E
100
AcDbEntity
  8
DIM
100
AcDbMText
 10
20.00839823716334
 20
20.26551387674284
 30
0.0
 40
0.312
 41
0.0
 71
     3
 72
     1
  1
\A1;0.090 DIA. HOLE x 0.203 DEEP\PMOUNTING BOSSES USE EITHER\PM2.5 METRIC OR #4 STD. SHEET\PMETAL SCREWS x 0.188 LG.\P(NOT SUPPLIED)
 73
     1
 44
1.0
  0
LEADER
  5
1B45
330
1E
100
AcDbEntity
  8
DIM
100
AcDbLeader
  3
23NSTD
 73
     0
 74
     0
 75
     1
 40
3.432
 41
5.888999999999999
 76
     3
 10
10.27505854412064
 20
8.175450250681819
 30
0.0
 10
11.43512993036716
 20
4.412510118107427
 30
0.0
 10
11.88512993036716
 20
4.412510118107427
 30
0.0
340
1B46
213
0.0
223
-0.125
233
0.0
1001
ACAD
1000
DSTYLE
1002
{
1070
   147
1040
0.09
1070
    77
1070
     0
1002
}
  0
MTEXT
  5
1B46
102
{ACAD_REACTORS
330
1B45
102
}
330
1E
100
AcDbEntity
  8
DIM
100
AcDbMText
 10
12.11012993036716
 20
4.537510118107427
 30
0.0
 40
0.312
 41
0.0
 71
     1
 72
     1
  1
\A1;0.298 DIA. BOSS WITH\P0.174 DIA. HOLE x 0.203 DEEP\P(4) PLACES\PMOUNTING BOSSES USE EITHER\PM5 METRIC OR #10 STD. SHEET\PMETAL SCREWS x 0.312 LG.\P(NOT SUPPLIED)
 73
     1
 44
1.0
  0
LEADER
  5
1B66
330
1E
100
AcDbEntity
  8
DIM
100
AcDbLeader
  3
23NSTD
 73
     0
 75
     1
 40
2.392
 41
4.679999999999999
 76
     3
 10
10.02819769234138
 20
7.81638779296308
 30
0.0
 10
8.163062387968397
 20
4.136056343721421
 30
0.0
 10
7.713062387968397
 20
4.136056343721421
 30
0.0
340
1B67
213
0.0
223
-0.125
233
0.0
1001
ACAD
1000
DSTYLE
1002
{
1070
   147
1040
0.09
1070
    77
1070
     0
1002
}
  0
MTEXT
  5
1B67
102
{ACAD_REACTORS
330
1B66
102
}
330
1E
100
AcDbEntity
  8
DIM
100
AcDbMText
 10
7.488062387968398
 20
4.261056343721421
 30
0.0
 40
0.312
 41
0.0
 71
     3
 72
     1
  1
\A1;0.250 DIA. BOSS WITH\PM3 x 0.188 LG.\PTHREADED INSERT\P(4) PLACES\P(SCREWS NOT SUPPLIED)
 73
     1
 44
1.0
  0
LEADER
  5
1B69
330
1E
100
AcDbEntity
  8
DIM
100
AcDbLeader
  3
23NSTD
 73
     0
 74
     0
 75
     1
 40
1.352
 41
3.354
 76
     3
 10
10.36571479323844
 20
12.78460383942009
 30
0.0
 10
10.97954817931824
 20
14.90861300246623
 30
0.0
 10
11.42954817931824
 20
14.90861300246623
 30
0.0
340
1B6A
213
0.0
223
-0.125
233
0.0
1001
ACAD
1000
DSTYLE
1002
{
1070
   147
1040
0.09
1070
    77
1070
     0
1002
}
  0
MTEXT
  5
1B6A
102
{ACAD_REACTORS
330
1B69
102
}
330
1E
100
AcDbEntity
  8
DIM
100
AcDbMText
 10
11.65454817931824
 20
15.03361300246623
 30
0.0
 40
0.312
 41
0.0
 71
     1
 72
     1
  1
\A1;M4 x 0.315 LG.\PTHREADED INSERT\P(4) PLACES
 73
     1
 44
1.0
  0
HATCH
  5
32BA
330
1E
100
AcDbEntity
  8
OBJECT
 62
   151
100
AcDbHatch
 10
0.0
 20
0.0
 30
0.0
210
0.0
220
0.0
230
1.0
  2
ANSI31
 70
     0
 71
     1
 91
        3
 92
        7
 72
     1
 73
     1
 93
       11
 10
32.48818883009927
 20
12.96202983942009
 42
0.0
 10
32.48818883009927
 20
12.90635083942009
 42
0.0
 10
32.60318883009927
 20
12.90635083942009
 42
0.0
 10
32.60318883009927
 20
12.82635083942009
 42
0.0
 10
32.48818883009927
 20
12.82635083942009
 42
0.0
 10
32.48818883009927
 20
12.78202983942009
 42
0.0
 10
33.54918883009927
 20
12.78202983942009
 42
0.0
 10
33.54918883009927
 20
7.808863736637681
 42
-0.0460327851253009
 10
33.66918883009927
 20
7.707568828346703
 42
0.0
 10
33.66918883009927
 20
12.89952983942009
 42
0.4142135623730951
 10
33.60668883009927
 20
12.96202983942009
 42
0.0
 97
        9
330
108F
330
1090
330
11A8
330
11F9
330
11F4
330
1091
330
107B
330
F24
330
107C
 92
        7
 72
     1
 73
     1
 93
       18
 10
33.54918883009927
 20
7.482029839420093
 42
0.0
 10
33.54918883009927
 20
7.188029839420092
 42
0.0
 10
32.78818883009927
 20
7.188029839420091
 42
0.0
 10
32.78818883009928
 20
7.115529839420092
 42
0.0
 10
32.48818883009927
 20
7.11552983942009
 42
0.0
 10
32.48818883009927
 20
7.023967839420091
 42
0.0
 10
32.93518883009927
 20
7.023967839420092
 42
0.0
 10
32.93518883009927
 20
7.093029839420093
 42
0.0
 10
33.66918883009927
 20
7.093029839420091
 42
0.0
 10
33.66918883009927
 20
7.707568828346703
 42
0.0460327851253009
 10
33.54918883009927
 20
7.808863736637681
 42
0.0
 10
33.54918883009927
 20
7.662029839420092
 42
0.0
 10
32.48818883009927
 20
7.662029839420093
 42
0.0
 10
32.48818883009927
 20
7.626350839420092
 42
0.0
 10
32.60318883009927
 20
7.626350839420091
 42
0.0
 10
32.60318883009927
 20
7.546350839420093
 42
0.0
 10
32.48818883009927
 20
7.546350839420093
 42
0.0
 10
32.48818883009927
 20
7.482029839420092
 42
0.0
 97
       15
330
F24
330
107B
330
1089
330
11A8
330
11F0
330
11EB
330
108A
330
1092
330
108E
330
1855
330
1086
330
1088
330
1853
330
1085
330
107C
 92
        7
 72
     1
 73
     1
 93
       11
 10
32.93518883009926
 20
6.783029839420091
 42
0.0
 10
32.93518883009927
 20
6.852092839420092
 42
0.0
 10
32.48818883009927
 20
6.85209283942009
 42
0.0
 10
32.48818883009927
 20
6.760529839420092
 42
0.0
 10
32.78818883009927
 20
6.760529839420092
 42
0.0
 10
32.78818883009927
 20
6.722029839420092
 42
0.0
 10
32.48818883009927
 20
6.722029839420091
 42
0.0
 10
32.48818883009928
 20
6.662029839420093
 42
0.0
 10
33.60668883009927
 20
6.662029839420092
 42
0.4142135623730951
 10
33.66918883009927
 20
6.724529839420092
 42
0.0
 10
33.66918883009928
 20
6.783029839420091
 42
0.0
 97
       10
330
1080
330
1853
330
1087
330
11A8
330
1081
330
1856
330
1083
330
1082
330
107F
330
107C
 75
     0
 76
     1
 52
0.0
 41
0.75
 77
     0
 78
     1
 53
45.0
 43
0.0
 44
0.0
 45
-0.0662912607362388
 46
0.0662912607362388
 79
     0
 47
0.01236532669778
 98
        3
 10
32.92797709536273
 20
12.88374641315044
 10
33.18785890317764
 20
7.554290565016216
 10
33.06410560741051
 20
6.738179021174808
  0
HATCH
  5
3383
330
1E
100
AcDbEntity
  8
OBJECT
 62
   151
100
AcDbHatch
 10
0.0
 20
0.0
 30
0.0
210
0.0
220
0.0
230
1.0
  2
ANSI31
 70
     0
 71
     0
 91
        3
 92
        7
 72
     1
 73
     1
 93
       54
 10
18.2105918913699
 20
12.96202983942009
 42
0.0
 10
17.1320918913699
 20
12.96202983942009
 42
0.0
 10
17.1320918913699
 20
12.94202983942009
 42
0.0
 10
17.0920918913699
 20
12.94202983942009
 42
0.0
 10
17.0920918913699
 20
12.88402983942009
 42
0.0
 10
17.0520918913699
 20
12.88402983942009
 42
0.0
 10
17.0520918913699
 20
12.84402983942009
 42
0.0
 10
18.1550918913699
 20
12.84402983942009
 42
0.0
 10
18.1550918913699
 20
12.61402983942009
 42
0.0
 10
18.18909189136991
 20
12.61402983942009
 42
0.0
 10
18.1890918913699
 20
12.52402983942009
 42
0.0
 10
18.1550918913699
 20
12.52402983942009
 42
0.0
 10
18.1550918913699
 20
11.79577983942009
 42
0.0
 10
18.1740918913699
 20
11.79577983942009
 42
0.0
 10
18.1740918913699
 20
11.60827983942009
 42
0.0
 10
18.1550918913699
 20
11.60827983942009
 42
0.0
 10
18.1550918913699
 20
11.43102983942009
 42
0.0
 10
18.1890918913699
 20
11.43102983942009
 42
0.0
 10
18.1890918913699
 20
11.26502983942009
 42
0.0
 10
18.1550918913699
 20
11.26502983942008
 42
0.0
 10
18.1550918913699
 20
10.16652983942009
 42
0.0
 10
17.9860918913699
 20
10.16652983942009
 42
0.0
 10
17.9860918913699
 20
9.857029839420091
 42
0.0
 10
18.1890918913699
 20
9.857029839420093
 42
0.0
 10
18.1890918913699
 20
9.767029839420091
 42
0.0
 10
17.9860918913699
 20
9.767029839420093
 42
0.0
 10
17.9860918913699
 20
9.457529839420093
 42
0.0
 10
18.1550918913699
 20
9.457529839420091
 42
0.0
 10
18.1550918913699
 20
8.451029839420092
 42
0.0
 10
17.9860918913699
 20
8.425029839420091
 42
0.0
 10
17.9860918913699
 20
8.359029839420092
 42
0.0
 10
18.1890918913699
 20
8.359029839420092
 42
0.0
 10
18.1890918913699
 20
8.193029839420091
 42
0.0
 10
17.9860918913699
 20
8.193029839420091
 42
0.0
 10
17.9860918913699
 20
8.127029839420092
 42
0.0
 10
18.1550918913699
 20
8.101029839420091
 42
0.0
 10
18.1550918913699
 20
8.070029839420092
 42
0.0
 10
17.9860918913699
 20
8.04702983942009
 42
0.0
 10
17.9860918913699
 20
8.01577983942009
 42
0.0
 10
18.1740918913699
 20
8.01577983942009
 42
0.0
 10
18.1740918913699
 20
7.98452983942009
 42
0.0
 10
18.1740918913699
 20
7.82827983942009
 42
0.0
 10
17.9860918913699
 20
7.82827983942009
 42
0.0
 10
17.9860918913699
 20
7.79702983942009
 42
0.0
 10
18.1550918913699
 20
7.77402983942009
 42
0.0
 10
18.1550918913699
 20
7.600029839420092
 42
0.0
 10
17.0520918913699
 20
7.600029839420091
 42
0.0
 10
17.0520918913699
 20
7.560029839420092
 42
0.0
 10
17.0920918913699
 20
7.560029839420091
 42
0.0
 10
17.0920918913699
 20
7.53502983942009
 42
0.0
 10
18.1550918913699
 20
7.535029839420091
 42
0.0
 10
18.1550918913699
 20
7.416029839420091
 42
0.0
 10
18.2730918913699
 20
7.41602983942009
 42
0.0
 10
18.2730918913699
 20
12.89952983942009
 42
0.4142135623731117
 97
        0
 92
        7
 72
     0
 73
     1
 93
        8
 10
18.2730918913699
 20
7.246029839420093
 10
18.1550918913699
 20
7.246029839420092
 10
18.1550918913699
 20
7.142029839420093
 10
17.0920918913699
 20
7.142029839420093
 10
17.0920918913699
 20
7.063029839420091
 10
17.4230918913699
 20
7.063029839420092
 10
17.4230918913699
 20
7.07602983942009
 10
18.2730918913699
 20
7.07602983942009
 97
        0
 92
        7
 72
     1
 73
     1
 93
        9
 10
18.2730918913699
 20
6.724529839420098
 42
0.0
 10
18.2730918913699
 20
6.752029839420092
 42
0.0
 10
17.4230918913699
 20
6.752029839420093
 42
0.0
 10
17.4230918913699
 20
6.813029839420091
 42
0.0
 10
17.0920918913699
 20
6.813029839420093
 42
0.0
 10
17.0920918913699
 20
6.682029839420093
 42
0.0
 10
17.1320918913699
 20
6.682029839420091
 42
0.0
 10
17.1320918913699
 20
6.662029839420092
 42
0.0
 10
18.2105918913699
 20
6.662029839420092
 42
0.4142135623731201
 97
        0
 75
     0
 76
     1
 52
0.0
 41
0.75
 77
     0
 78
     1
 53
45.0
 43
0.4044410202178171
 44
0.0
 45
-0.0662912607362388
 46
0.0662912607362388
 79
     0
 47
0.01236532669778
 98
        3
 10
17.44609877372825
 20
12.91628273253162
 10
17.71835591111985
 20
7.10457915394565
 10
17.40897278499811
 20
6.708888668366441
  0
ARC
  5
33DE
330
1E
100
AcDbEntity
  8
OBJECT
100
AcDbCircle
 10
4.697849793238443
 20
11.70202983942009
 30
0.0
 40
0.148
100
AcDbArc
 50
198.5158739903273
 51
341.4841260096783
  0
ARC
  5
33DF
330
1E
100
AcDbEntity
  8
OBJECT
100
AcDbCircle
 10
4.697849793238443
 20
11.70202983942009
 30
0.0
 40
0.148
100
AcDbArc
 50
18.51588181190404
 51
161.4841181880931
  0
CIRCLE
  5
33E0
330
1E
100
AcDbEntity
  8
OBJECT
100
AcDbCircle
 10
4.697849793238443
 20
11.70202983942009
 30
0.0
 40
0.125
  0
CIRCLE
  5
33E1
330
1E
100
AcDbEntity
  8
OBJECT
100
AcDbCircle
 10
4.697849793238443
 20
11.70202983942009
 30
0.0
 40
0.0590000000000011
  0
CIRCLE
  5
33E2
330
1E
100
AcDbEntity
  8
OBJECT
100
AcDbCircle
 10
4.697849793238443
 20
11.70202983942009
 30
0.0
 40
0.09375
  0
LINE
  5
33E3
330
1E
100
AcDbEntity
  8
OBJECT
100
AcDbLine
 10
4.497903468913909
 20
11.74902981016035
 30
0.0
 11
4.582022335353881
 21
11.74902983942009
 31
0.0
  0
LINE
  5
33E4
330
1E
100
AcDbEntity
  8
OBJECT
100
AcDbLine
 10
4.582022335353881
 20
11.65502983942009
 30
0.0
 11
4.497903468913908
 21
11.65502993442662
 31
0.0
  0
LINE
  5
33E5
330
1E
100
AcDbEntity
  8
OBJECT
100
AcDbLine
 10
4.497903468913909
 20
11.74902981016035
 30
0.0
 11
4.497903468913908
 21
11.65502993442662
 31
0.0
  0
LINE
  5
33E6
330
1E
100
AcDbEntity
  8
OBJECT
100
AcDbLine
 10
4.532903451257793
 20
11.65502989489652
 30
0.0
 11
4.532903451257793
 21
11.74902982233467
 31
0.0
  0
LINE
  5
33E7
330
1E
100
AcDbEntity
  8
OBJECT
100
AcDbLine
 10
4.897796090943637
 20
11.65502993442664
 30
0.0
 11
4.897796090943637
 21
11.74902981016035
 31
0.0
  0
LINE
  5
33E8
330
1E
100
AcDbEntity
  8
OBJECT
100
AcDbLine
 10
4.862796108599754
 20
11.74902982233468
 30
0.0
 11
4.862796108599754
 21
11.65502989489652
 31
0.0
  0
LINE
  5
33E9
330
1E
100
AcDbEntity
  8
OBJECT
100
AcDbLine
 10
4.897796090943637
 20
11.65502993442664
 30
0.0
 11
4.813677251123005
 21
11.65502983942009
 31
0.0
  0
LINE
  5
33EA
330
1E
100
AcDbEntity
  8
OBJECT
100
AcDbLine
 10
4.813677251123005
 20
11.74902983942009
 30
0.0
 11
4.897796090943637
 21
11.74902981016035
 31
0.0
  0
ARC
  5
33FC
330
1E
100
AcDbEntity
  8
OBJECT
100
AcDbCircle
 10
10.13184979323844
 20
11.70202983942009
 30
0.0
 40
0.148
100
AcDbArc
 50
198.5158739903273
 51
341.4841260096782
  0
ARC
  5
33FD
330
1E
100
AcDbEntity
  8
OBJECT
100
AcDbCircle
 10
10.13184979323844
 20
11.70202983942009
 30
0.0
 40
0.148
100
AcDbArc
 50
18.51588181190404
 51
161.4841181880931
  0
CIRCLE
  5
33FE
330
1E
100
AcDbEntity
  8
OBJECT
100
AcDbCircle
 10
10.13184979323844
 20
11.70202983942009
 30
0.0
 40
0.125
  0
CIRCLE
  5
33FF
330
1E
100
AcDbEntity
  8
OBJECT
100
AcDbCircle
 10
10.13184979323844
 20
11.70202983942009
 30
0.0
 40
0.0590000000000011
  0
CIRCLE
  5
3400
330
1E
100
AcDbEntity
  8
OBJECT
100
AcDbCircle
 10
10.13184979323844
 20
11.70202983942009
 30
0.0
 40
0.09375
  0
LINE
  5
3401
330
1E
100
AcDbEntity
  8
OBJECT
100
AcDbLine
 10
9.93190346891391
 20
11.74902981016035
 30
0.0
 11
10.01602233535388
 21
11.74902983942009
 31
0.0
  0
LINE
  5
3402
330
1E
100
AcDbEntity
  8
OBJECT
100
AcDbLine
 10
10.01602233535388
 20
11.65502983942009
 30
0.0
 11
9.931903468913908
 21
11.65502993442662
 31
0.0
  0
LINE
  5
3403
330
1E
100
AcDbEntity
  8
OBJECT
100
AcDbLine
 10
9.93190346891391
 20
11.74902981016035
 30
0.0
 11
9.931903468913908
 21
11.65502993442662
 31
0.0
  0
LINE
  5
3404
330
1E
100
AcDbEntity
  8
OBJECT
100
AcDbLine
 10
9.966903451257794
 20
11.65502989489652
 30
0.0
 11
9.966903451257794
 21
11.74902982233467
 31
0.0
  0
LINE
  5
3405
330
1E
100
AcDbEntity
  8
OBJECT
100
AcDbLine
 10
10.33179609094363
 20
11.65502993442664
 30
0.0
 11
10.33179609094363
 21
11.74902981016035
 31
0.0
  0
LINE
  5
3406
330
1E
100
AcDbEntity
  8
OBJECT
100
AcDbLine
 10
10.29679610859975
 20
11.74902982233468
 30
0.0
 11
10.29679610859975
 21
11.65502989489652
 31
0.0
  0
LINE
  5
3407
330
1E
100
AcDbEntity
  8
OBJECT
100
AcDbLine
 10
10.33179609094363
 20
11.65502993442664
 30
0.0
 11
10.247677251123
 21
11.65502983942009
 31
0.0
  0
LINE
  5
3408
330
1E
100
AcDbEntity
  8
OBJECT
100
AcDbLine
 10
10.247677251123
 20
11.74902983942009
 30
0.0
 11
10.33179609094363
 21
11.74902981016035
 31
0.0
  0
ARC
  5
341A
330
1E
100
AcDbEntity
  8
OBJECT
100
AcDbCircle
 10
10.13184979323844
 20
7.92202983942009
 30
0.0
 40
0.148
100
AcDbArc
 50
198.5158739903273
 51
341.4841260096782
  0
ARC
  5
341B
330
1E
100
AcDbEntity
  8
OBJECT
100
AcDbCircle
 10
10.13184979323844
 20
7.92202983942009
 30
0.0
 40
0.148
100
AcDbArc
 50
18.51588181190404
 51
161.4841181880931
  0
CIRCLE
  5
341C
330
1E
100
AcDbEntity
  8
OBJECT
100
AcDbCircle
 10
10.13184979323844
 20
7.92202983942009
 30
0.0
 40
0.125
  0
CIRCLE
  5
341D
330
1E
100
AcDbEntity
  8
OBJECT
100
AcDbCircle
 10
10.13184979323844
 20
7.92202983942009
 30
0.0
 40
0.0590000000000011
  0
CIRCLE
  5
341E
330
1E
100
AcDbEntity
  8
OBJECT
100
AcDbCircle
 10
10.13184979323844
 20
7.92202983942009
 30
0.0
 40
0.09375
  0
LINE
  5
341F
330
1E
100
AcDbEntity
  8
OBJECT
100
AcDbLine
 10
9.93190346891391
 20
7.969029810160352
 30
0.0
 11
10.01602233535388
 21
7.969029839420089
 31
0.0
  0
LINE
  5
3420
330
1E
100
AcDbEntity
  8
OBJECT
100
AcDbLine
 10
10.01602233535388
 20
7.87502983942009
 30
0.0
 11
9.931903468913908
 21
7.875029934426622
 31
0.0
  0
LINE
  5
3421
330
1E
100
AcDbEntity
  8
OBJECT
100
AcDbLine
 10
9.93190346891391
 20
7.969029810160352
 30
0.0
 11
9.931903468913908
 21
7.875029934426622
 31
0.0
  0
LINE
  5
3422
330
1E
100
AcDbEntity
  8
OBJECT
100
AcDbLine
 10
9.966903451257794
 20
7.875029894896526
 30
0.0
 11
9.966903451257794
 21
7.969029822334675
 31
0.0
  0
LINE
  5
3423
330
1E
100
AcDbEntity
  8
OBJECT
100
AcDbLine
 10
10.33179609094363
 20
7.875029934426647
 30
0.0
 11
10.33179609094363
 21
7.96902981016035
 31
0.0
  0
LINE
  5
3424
330
1E
100
AcDbEntity
  8
OBJECT
100
AcDbLine
 10
10.29679610859975
 20
7.969029822334677
 30
0.0
 11
10.29679610859975
 21
7.875029894896528
 31
0.0
  0
LINE
  5
3425
330
1E
100
AcDbEntity
  8
OBJECT
100
AcDbLine
 10
10.33179609094363
 20
7.875029934426647
 30
0.0
 11
10.247677251123
 21
7.87502983942009
 31
0.0
  0
LINE
  5
3426
330
1E
100
AcDbEntity
  8
OBJECT
100
AcDbLine
 10
10.247677251123
 20
7.969029839420089
 30
0.0
 11
10.33179609094363
 21
7.96902981016035
 31
0.0
  0
LINE
  5
3427
330
1E
100
AcDbEntity
  8
OBJECT
100
AcDbLine
 10
4.582022335353881
 20
7.875029839420091
 30
0.0
 11
4.497903468913907
 21
7.875029934426623
 31
0.0
  0
LINE
  5
3428
330
1E
100
AcDbEntity
  8
OBJECT
100
AcDbLine
 10
4.497903468913909
 20
7.969029810160352
 30
0.0
 11
4.582022335353881
 21
7.96902983942009
 31
0.0
  0
LINE
  5
3429
330
1E
100
AcDbEntity
  8
OBJECT
100
AcDbLine
 10
4.532903451257793
 20
7.875029894896527
 30
0.0
 11
4.532903451257793
 21
7.969029822334676
 31
0.0
  0
LINE
  5
342A
330
1E
100
AcDbEntity
  8
OBJECT
100
AcDbLine
 10
4.497903468913909
 20
7.969029810160352
 30
0.0
 11
4.497903468913907
 21
7.875029934426623
 31
0.0
  0
LINE
  5
342B
330
1E
100
AcDbEntity
  8
OBJECT
100
AcDbLine
 10
4.813677251123005
 20
7.96902983942009
 30
0.0
 11
4.897796090943637
 21
7.969029810160351
 31
0.0
  0
LINE
  5
342C
330
1E
100
AcDbEntity
  8
OBJECT
100
AcDbLine
 10
4.897796090943637
 20
7.875029934426648
 30
0.0
 11
4.813677251123005
 21
7.875029839420091
 31
0.0
  0
LINE
  5
342D
330
1E
100
AcDbEntity
  8
OBJECT
100
AcDbLine
 10
4.862796108599754
 20
7.969029822334678
 30
0.0
 11
4.862796108599754
 21
7.875029894896528
 31
0.0
  0
LINE
  5
342E
330
1E
100
AcDbEntity
  8
OBJECT
100
AcDbLine
 10
4.897796090943637
 20
7.875029934426648
 30
0.0
 11
4.897796090943637
 21
7.969029810160351
 31
0.0
  0
CIRCLE
  5
342F
330
1E
100
AcDbEntity
  8
OBJECT
100
AcDbCircle
 10
4.697849793238443
 20
7.922029839420091
 30
0.0
 40
0.09375
  0
CIRCLE
  5
3430
330
1E
100
AcDbEntity
  8
OBJECT
100
AcDbCircle
 10
4.697849793238443
 20
7.922029839420091
 30
0.0
 40
0.0590000000000011
  0
CIRCLE
  5
3431
330
1E
100
AcDbEntity
  8
OBJECT
100
AcDbCircle
 10
4.697849793238443
 20
7.922029839420091
 30
0.0
 40
0.125
  0
ARC
  5
3432
330
1E
100
AcDbEntity
  8
OBJECT
100
AcDbCircle
 10
4.697849793238443
 20
7.922029839420091
 30
0.0
 40
0.148
100
AcDbArc
 50
18.51588181190404
 51
161.4841181880931
  0
ARC
  5
3433
330
1E
100
AcDbEntity
  8
OBJECT
100
AcDbCircle
 10
4.697849793238443
 20
7.922029839420091
 30
0.0
 40
0.148
100
AcDbArc
 50
198.5158739903273
 51
341.4841260096783
  0
LINE
  5
3456
330
1E
100
AcDbEntity
  8
HIDDEN
  6
HIDDEN2
100
AcDbLine
 10
4.822849793238443
 20
18.07300868477818
 30
0.0
 11
4.572849793238443
 21
18.07300868477818
 31
0.0
  0
LINE
  5
3457
330
1E
100
AcDbEntity
  8
HIDDEN
  6
HIDDEN2
100
AcDbLine
 10
4.582022283832845
 20
18.08300868477818
 30
0.0
 11
4.532903453315921
 21
18.08300868477818
 31
0.0
  0
LINE
  5
3458
330
1E
100
AcDbEntity
  8
HIDDEN
  6
HIDDEN2
100
AcDbLine
 10
4.572849793238443
 20
18.07300868477818
 30
0.0
 11
4.572849793238443
 21
18.08300868477818
 31
0.0
  0
LINE
  5
3459
330
1E
100
AcDbEntity
  8
HIDDEN
  6
HIDDEN2
100
AcDbLine
 10
4.497903468913909
 20
18.24200868477818
 30
0.0
 11
4.532903453315921
 21
18.08300868477818
 31
0.0
  0
LINE
  5
345A
330
1E
100
AcDbEntity
  8
HIDDEN
  6
HIDDEN2
100
AcDbLine
 10
4.582022283832845
 20
18.08300868477818
 30
0.0
 11
4.582022332885827
 21
18.24200868477818
 31
0.0
  0
LINE
  5
345B
330
1E
100
AcDbEntity
  8
HIDDEN
  6
HIDDEN2
100
AcDbLine
 10
4.744849853646575
 20
18.08300868477818
 30
0.0
 11
4.650849779543456
 21
18.08300868477818
 31
0.0
  0
LINE
  5
345C
330
1E
100
AcDbEntity
  8
HIDDEN
  6
HIDDEN2
100
AcDbLine
 10
4.862796106541625
 20
18.08300868477818
 30
0.0
 11
4.813677276024701
 21
18.08300868477818
 31
0.0
  0
LINE
  5
345D
330
1E
100
AcDbEntity
  8
HIDDEN
  6
HIDDEN2
100
AcDbLine
 10
4.822849793238443
 20
18.07300868477818
 30
0.0
 11
4.822849793238443
 21
18.08300868477818
 31
0.0
  0
LINE
  5
345E
330
1E
100
AcDbEntity
  8
HIDDEN
  6
HIDDEN2
100
AcDbLine
 10
4.897796090943637
 20
18.24200868477818
 30
0.0
 11
4.862796106541625
 21
18.08300868477818
 31
0.0
  0
LINE
  5
345F
330
1E
100
AcDbEntity
  8
HIDDEN
  6
HIDDEN2
100
AcDbLine
 10
4.813677276024701
 20
18.08300868477818
 30
0.0
 11
4.813677251123004
 21
18.24200868477818
 31
0.0
  0
LINE
  5
3460
330
1E
100
AcDbEntity
  8
HIDDEN
  6
HIDDEN2
100
AcDbLine
 10
4.744849853646575
 20
18.08300868477818
 30
0.0
 11
4.744849793238444
 21
18.24200868477818
 31
0.0
  0
LINE
  5
3461
330
1E
100
AcDbEntity
  8
HIDDEN
  6
HIDDEN2
100
AcDbLine
 10
4.650849779543456
 20
18.08300868477818
 30
0.0
 11
4.650849770252456
 21
18.24200868477818
 31
0.0
  0
LINE
  5
3462
330
1E
100
AcDbEntity
  8
HIDDEN
  6
HIDDEN2
100
AcDbLine
 10
10.24767730264404
 20
18.08300868477818
 30
0.0
 11
10.29679613316096
 21
18.08300868477818
 31
0.0
  0
LINE
  5
3463
330
1E
100
AcDbEntity
  8
HIDDEN
  6
HIDDEN2
100
AcDbLine
 10
10.33179611756297
 20
18.24200868477818
 30
0.0
 11
10.29679613316096
 21
18.08300868477818
 31
0.0
  0
LINE
  5
3464
330
1E
100
AcDbEntity
  8
HIDDEN
  6
HIDDEN2
100
AcDbLine
 10
10.17884980693342
 20
18.08300868477818
 30
0.0
 11
10.17884981622442
 21
18.24200868477818
 31
0.0
  0
LINE
  5
3465
330
1E
100
AcDbEntity
  8
HIDDEN
  6
HIDDEN2
100
AcDbLine
 10
10.0848497328303
 20
18.08300868477818
 30
0.0
 11
10.08484979323844
 21
18.24200868477818
 31
0.0
  0
LINE
  5
3466
330
1E
100
AcDbEntity
  8
HIDDEN
  6
HIDDEN2
100
AcDbLine
 10
10.01602231045218
 20
18.08300868477818
 30
0.0
 11
10.01602233535388
 21
18.24200868477818
 31
0.0
  0
LINE
  5
3467
330
1E
100
AcDbEntity
  8
HIDDEN
  6
HIDDEN2
100
AcDbLine
 10
9.931903495533246
 20
18.24200868477818
 30
0.0
 11
9.966903479935258
 21
18.08300868477818
 31
0.0
  0
LINE
  5
3468
330
1E
100
AcDbEntity
  8
HIDDEN
  6
HIDDEN2
100
AcDbLine
 10
10.00684979323844
 20
18.07300868477818
 30
0.0
 11
10.00684979323844
 21
18.08300868477818
 31
0.0
  0
LINE
  5
3469
330
1E
100
AcDbEntity
  8
HIDDEN
  6
HIDDEN2
100
AcDbLine
 10
9.966903479935258
 20
18.08300868477818
 30
0.0
 11
10.01602231045218
 21
18.08300868477818
 31
0.0
  0
LINE
  5
346A
330
1E
100
AcDbEntity
  8
HIDDEN
  6
HIDDEN2
100
AcDbLine
 10
10.0848497328303
 20
18.08300868477818
 30
0.0
 11
10.17884980693342
 21
18.08300868477818
 31
0.0
  0
LINE
  5
346B
330
1E
100
AcDbEntity
  8
HIDDEN
  6
HIDDEN2
100
AcDbLine
 10
10.24767730264404
 20
18.08300868477818
 30
0.0
 11
10.24767725359105
 21
18.24200868477818
 31
0.0
  0
LINE
  5
346C
330
1E
100
AcDbEntity
  8
HIDDEN
  6
HIDDEN2
100
AcDbLine
 10
10.25684979323844
 20
18.07300868477818
 30
0.0
 11
10.25684979323844
 21
18.08300868477818
 31
0.0
  0
LINE
  5
346D
330
1E
100
AcDbEntity
  8
HIDDEN
  6
HIDDEN2
100
AcDbLine
 10
10.00684979323844
 20
18.07300868477818
 30
0.0
 11
10.25684979323844
 21
18.07300868477818
 31
0.0
  0
LWPOLYLINE
  5
3491
330
1E
100
AcDbEntity
  8
OBJECT
100
AcDbPolyline
 90
        4
 70
     1
 43
0.0
 10
18.1740918913699
 20
7.98452983942009
 10
18.1740918913699
 20
8.01577983942009
 10
17.9860918913699
 20
8.01577983942009
 10
17.9860918913699
 20
7.98452983942009
  0
LINE
  5
3492
330
1E
100
AcDbEntity
  8
OBJECT
100
AcDbLine
 10
17.9860918913699
 20
8.04702983942009
 30
0.0
 11
18.1550918913699
 21
8.07002983942009
 31
0.0
  0
LWPOLYLINE
  5
3496
330
1E
100
AcDbEntity
  8
OBJECT
100
AcDbPolyline
 90
        4
 70
     1
 43
0.0
 10
18.1740918913699
 20
7.82827983942009
 10
18.1740918913699
 20
7.85952983942009
 10
17.9860918913699
 20
7.85952983942009
 10
17.9860918913699
 20
7.82827983942009
  0
LINE
  5
3497
330
1E
100
AcDbEntity
  8
OBJECT
100
AcDbLine
 10
17.9860918913699
 20
7.79702983942009
 30
0.0
 11
18.1550918913699
 21
7.77402983942009
 31
0.0
  0
LWPOLYLINE
  5
3498
330
1E
100
AcDbEntity
  8
OBJECT
100
AcDbPolyline
 90
        4
 70
     0
 43
0.0
 10
17.9860918913699
 20
7.82827983942009
 10
18.1740918913699
 20
7.82827983942009
 10
18.1740918913699
 20
8.01577983942009
 10
17.9860918913699
 20
8.01577983942009
  0
HATCH
  5
3499
330
1E
100
AcDbEntity
  8
OBJECT
 62
   221
100
AcDbHatch
 10
0.0
 20
0.0
 30
0.0
210
0.0
220
0.0
230
1.0
  2
ANSI32
 70
     0
 71
     0
 91
        2
 92
        7
 72
     0
 73
     1
 93
        4
 10
18.1740918913699
 20
7.859529839420088
 10
17.9860918913699
 20
7.85952983942009
 10
17.9860918913699
 20
7.82827983942009
 10
18.1740918913699
 20
7.82827983942009
 97
        0
 92
        7
 72
     0
 73
     1
 93
        4
 10
18.1740918913699
 20
8.01577983942009
 10
17.9860918913699
 20
8.01577983942009
 10
17.9860918913699
 20
7.98452983942009
 10
18.1740918913699
 20
7.98452983942009
 97
        0
 75
     0
 76
     1
 52
89.99998127603165
 41
0.25
 77
     0
 78
     2
 53
134.9999812760316
 43
3.784088891369906
 44
1.261968839420089
 45
-0.066291282399881
 46
-0.0662912390725896
 79
     0
 53
134.9999812760316
 43
3.784088905812335
 44
1.306163013170087
 45
-0.066291282399881
 46
-0.0662912390725896
 79
     0
 47
0.0030263042391287
 98
        2
 10
18.08837551164825
 20
7.843919143650535
 10
18.08534669217489
 20
8.004313261511125
  0
LINE
  5
349A
330
1E
100
AcDbEntity
  8
OBJECT
100
AcDbLine
 10
17.9860918913699
 20
8.04702983942009
 30
0.0
 11
17.9860918913699
 21
7.79702983942009
 31
0.0
  0
LINE
  5
349D
330
1E
100
AcDbEntity
  8
OBJECT
100
AcDbLine
 10
18.1550918913699
 20
7.77402983942009
 30
0.0
 11
18.1550918913699
 21
7.600029839420089
 31
0.0
  0
LINE
  5
349F
330
1E
100
AcDbEntity
  8
OBJECT
100
AcDbLine
 10
18.1550918913699
 20
8.101029839420089
 30
0.0
 11
18.1550918913699
 21
8.07002983942009
 31
0.0
  0
LINE
  5
34A1
330
1E
100
AcDbEntity
  8
HIDDEN
100
AcDbLine
 10
17.9860918913699
 20
11.76452983942009
 30
0.0
 11
18.1740918913699
 21
11.76452983942009
 31
0.0
  0
LINE
  5
34A2
330
1E
100
AcDbEntity
  8
HIDDEN
100
AcDbLine
 10
17.9860918913699
 20
11.63952983942009
 30
0.0
 11
18.1740918913699
 21
11.63952983942009
 31
0.0
  0
LWPOLYLINE
  5
34A3
330
1E
100
AcDbEntity
  8
HIDDEN
100
AcDbPolyline
 90
        4
 70
     0
 43
0.0
 10
17.9860918913699
 20
11.79577983942009
 10
18.1740918913699
 20
11.79577983942009
 10
18.1740918913699
 20
11.60827983942009
 10
17.9860918913699
 20
11.60827983942009
  0
LINE
  5
34A4
330
1E
100
AcDbEntity
  8
OBJECT
100
AcDbLine
 10
17.9860918913699
 20
11.57702983942008
 30
0.0
 11
18.1550918913699
 21
11.55402983942009
 31
0.0
  0
LINE
  5
34A5
330
1E
100
AcDbEntity
  8
OBJECT
100
AcDbLine
 10
17.9960918913699
 20
11.74902989982822
 30
0.0
 11
18.1550918913699
 21
11.74902994081051
 31
0.0
  0
LINE
  5
34A6
330
1E
100
AcDbEntity
  8
OBJECT
100
AcDbLine
 10
17.9960918913699
 20
11.6550298257251
 30
0.0
 11
18.1550918913699
 21
11.65502981596663
 31
0.0
  0
LINE
  5
34A7
330
1E
100
AcDbEntity
  8
OBJECT
100
AcDbLine
 10
17.9860918913699
 20
11.82702983942009
 30
0.0
 11
18.1550918913699
 21
11.85002983942009
 31
0.0
  0
LINE
  5
34A8
330
1E
100
AcDbEntity
  8
OBJECT
100
AcDbLine
 10
17.9860918913699
 20
11.82702983942009
 30
0.0
 11
17.9860918913699
 21
11.57702983942008
 31
0.0
  0
LINE
  5
34A9
330
1E
100
AcDbEntity
  8
OBJECT
100
AcDbLine
 10
17.9960918913699
 20
11.74902989982822
 30
0.0
 11
17.9960918913699
 21
11.6550298257251
 31
0.0
  0
ENDSEC
  0
SECTION
  2
OBJECTS
  0
DICTIONARY
  5
C
330
0
100
AcDbDictionary
281
     1
  3
ACAD_GROUP
350
D
  3
ACAD_LAYOUT
350
19
  3
ACAD_MLINESTYLE
350
16
  3
ACAD_PLOTSETTINGS
350
18
  3
ACAD_PLOTSTYLENAME
350
E
  3
AcadDim
350
1A3D
  3
AcDbVariableDictionary
350
1859
  0
DICTIONARY
  5
D
102
{ACAD_REACTORS
330
C
102
}
330
C
100
AcDbDictionary
281
     1
  0
DICTIONARY
  5
19
102
{ACAD_REACTORS
330
C
102
}
330
C
100
AcDbDictionary
281
     1
  3
Layout1
350
1D
  3
Model
350
21
  0
DICTIONARY
  5
16
102
{ACAD_REACTORS
330
C
102
}
330
C
100
AcDbDictionary
281
     1
  3
Standard
350
17
  0
DICTIONARY
  5
18
102
{ACAD_REACTORS
330
C
102
}
330
C
100
AcDbDictionary
281
     1
  0
ACDBDICTIONARYWDFLT
  5
E
102
{ACAD_REACTORS
330
C
102
}
330
C
100
AcDbDictionary
281
     1
  3
Normal
350
F
100
AcDbDictionaryWithDefault
340
F
  0
XRECORD
  5
1A3D
102
{ACAD_REACTORS
330
C
102
}
330
C
100
AcDbXrecord
280
     1
 90
   990106
  3

 60
     0
 61
     0
 62
     1
 63
     1
 64
     0
 65
     0
 66
     0
 67
     3
 68
     1
 69
     0
 70
     0
 71
     0
 72
     0
 40
0.0
170
     2
340
1B6A
  0
DICTIONARY
  5
1859
102
{ACAD_REACTORS
330
C
102
}
330
C
100
AcDbDictionary
281
     1
  3
SORTENTS
350
185A
  0
LAYOUT
  5
1D
102
{ACAD_REACTORS
330
19
102
}
330
19
100
AcDbPlotSettings
  1

  2
C:\Program Files\ACAD2000\plotters\RICOH Aficio 1060 RPCS.pc3
  4

  6

 40
0.0
 41
0.0
 42
0.0
 43
0.0
 44
0.0
 45
0.0
 46
0.0
 47
0.0
 48
0.0
 49
0.0
140
0.0
141
0.0
142
1.0
143
1.0
 70
   688
 72
     0
 73
     0
 74
     5
  7
monochrome.ctb
 75
    16
147
1.0
148
0.0
149
0.0
100
AcDbLayout
  1
Layout1
 70
     1
 71
     1
 10
0.0
 20
0.0
 11
12.0
 21
9.0
 12
0.0
 22
0.0
 32
0.0
 14
1.000000000000000E+20
 24
1.000000000000000E+20
 34
1.000000000000000E+20
 15
-1.000000000000000E+20
 25
-1.000000000000000E+20
 35
-1.000000000000000E+20
146
0.0
 13
0.0
 23
0.0
 33
0.0
 16
1.0
 26
0.0
 36
0.0
 17
0.0
 27
1.0
 37
0.0
 76
     0
330
1A
  0
LAYOUT
  5
21
102
{ACAD_REACTORS
330
19
102
}
330
19
100
AcDbPlotSettings
  1

  2
Acrobat PDFWriter
  4
Tabloid
  6

 40
3.174999952316284
 41
3.174999952316284
 42
3.17498779296875
 43
3.17498779296875
 44
431.8000183105469
 45
279.3999938964843
 46
0.0
 47
4.064
 48
0.0
 49
0.0
140
0.0
141
0.0
142
1.0
143
2.477870926311069
 70
 11956
 72
     0
 73
     0
 74
     1
  7
monochrome.ctb
 75
     0
147
0.403572272220309
148
0.043308686140378
149
0.0280048940023335
100
AcDbLayout
  1
Model
 70
     1
 71
     0
 10
0.0
 20
0.0
 11
12.0
 21
9.0
 12
0.0
 22
0.0
 32
0.0
 14
0.0
 24
0.0
 34
0.0
 15
0.0
 25
0.0
 35
0.0
146
0.0
 13
0.0
 23
0.0
 33
0.0
 16
1.0
 26
0.0
 36
0.0
 17
0.0
 27
1.0
 37
0.0
 76
     0
330
1E
  0
MLINESTYLE
  5
17
102
{ACAD_REACTORS
330
16
102
}
330
16
100
AcDbMlineStyle
  2
STANDARD
 70
     0
  3

 62
   256
 51
90.0
 52
90.0
 71
     2
 49
0.5
 62
   256
  6
BYLAYER
 49
-0.5
 62
   256
  6
BYLAYER
  0
ACDBPLACEHOLDER
  5
F
102
{ACAD_REACTORS
330
E
102
}
330
E
  0
DICTIONARYVAR
  5
185A
102
{ACAD_REACTORS
330
1859
102
}
330
1859
100
DictionaryVariables
280
     0
  1
96
  0
ENDSEC
  0
EOF
