  0
SECTION
  2
HEADER
  9
$ACADVER
  1
AC1015
  9
$ACADMAINTVER
 70
     6
  9
$DWGCODEPAGE
  3
ANSI_1252
  9
$INSBASE
 10
0.0
 20
0.0
 30
0.0
  9
$EXTMIN
 10
0.0
 20
0.0
 30
-0.00000001
  9
$EXTMAX
 10
49.79999999999998
 20
30.98399999999999
 30
0.00000001
  9
$LIMMIN
 10
0.0
 20
0.0
  9
$LIMMAX
 10
62.0
 20
40.47999999999999
  9
$ORTHOMODE
 70
     1
  9
$REGENMODE
 70
     1
  9
$FILLMODE
 70
     1
  9
$QTEXTMODE
 70
     0
  9
$MIRRTEXT
 70
     0
  9
$LTSCALE
 40
1.0
  9
$ATTMODE
 70
     1
  9
$TEXTSIZE
 40
0.2
  9
$TRACEWID
 40
0.05
  9
$TEXTSTYLE
  7
TXT
  9
$CLAYER
  8
OBJECT
  9
$CELTYPE
  6
ByLayer
  9
$CECOLOR
 62
   256
  9
$CELTSCALE
 40
1.0
  9
$DISPSILH
 70
     0
  9
$DIMSCALE
 40
3.0
  9
$DIMASZ
 40
0.18
  9
$DIMEXO
 40
0.063
  9
$DIMDLI
 40
0.281
  9
$DIMRND
 40
0.0
  9
$DIMDLE
 40
0.0
  9
$DIMEXE
 40
0.093
  9
$DIMTP
 40
0.0
  9
$DIMTM
 40
0.0
  9
$DIMTXT
 40
0.125
  9
$DIMCEN
 40
0.09
  9
$DIMTSZ
 40
0.0
  9
$DIMTOL
 70
     0
  9
$DIMLIM
 70
     0
  9
$DIMTIH
 70
     1
  9
$DIMTOH
 70
     1
  9
$DIMSE1
 70
     0
  9
$DIMSE2
 70
     0
  9
$DIMTAD
 70
     0
  9
$DIMZIN
 70
     0
  9
$DIMBLK
  1

  9
$DIMASO
 70
     1
  9
$DIMSHO
 70
     1
  9
$DIMPOST
  1

  9
$DIMAPOST
  1

  9
$DIMALT
 70
     0
  9
$DIMALTD
 70
     2
  9
$DIMALTF
 40
25.4
  9
$DIMLFAC
 40
1.0
  9
$DIMTOFL
 70
     0
  9
$DIMTVP
 40
0.0
  9
$DIMTIX
 70
     0
  9
$DIMSOXD
 70
     0
  9
$DIMSAH
 70
     0
  9
$DIMBLK1
  1

  9
$DIMBLK2
  1

  9
$DIMSTYLE
  2
23NSTD
  9
$DIMCLRD
 70
     0
  9
$DIMCLRE
 70
     0
  9
$DIMCLRT
 70
     0
  9
$DIMTFAC
 40
1.0
  9
$DIMGAP
 40
0.09
  9
$DIMJUST
 70
     0
  9
$DIMSD1
 70
     0
  9
$DIMSD2
 70
     0
  9
$DIMTOLJ
 70
     1
  9
$DIMTZIN
 70
     0
  9
$DIMALTZ
 70
     0
  9
$DIMALTTZ
 70
     0
  9
$DIMUPT
 70
     0
  9
$DIMDEC
 70
     3
  9
$DIMTDEC
 70
     3
  9
$DIMALTU
 70
     2
  9
$DIMALTTD
 70
     2
  9
$DIMTXSTY
  7
TXT
  9
$DIMAUNIT
 70
     0
  9
$DIMADEC
 70
     0
  9
$DIMALTRND
 40
0.0
  9
$DIMAZIN
 70
     0
  9
$DIMDSEP
 70
    46
  9
$DIMATFIT
 70
     1
  9
$DIMFRAC
 70
     0
  9
$DIMLDRBLK
  1

  9
$DIMLUNIT
 70
     2
  9
$DIMLWD
 70
    -2
  9
$DIMLWE
 70
    -2
  9
$DIMTMOVE
 70
     0
  9
$LUNITS
 70
     2
  9
$LUPREC
 70
     3
  9
$SKETCHINC
 40
0.1
  9
$FILLETRAD
 40
0.0
  9
$AUNITS
 70
     0
  9
$AUPREC
 70
     0
  9
$MENU
  1
acad
  9
$ELEVATION
 40
0.0
  9
$PELEVATION
 40
0.0
  9
$THICKNESS
 40
0.0
  9
$LIMCHECK
 70
     0
  9
$CHAMFERA
 40
0.0
  9
$CHAMFERB
 40
0.0
  9
$CHAMFERC
 40
0.0
  9
$CHAMFERD
 40
0.0
  9
$SKPOLY
 70
     0
  9
$TDCREATE
 40
2451248.433879513
  9
$TDUCREATE
 40
2451248.642212847
  9
$TDUPDATE
 40
2454788.499156898
  9
$TDUUPDATE
 40
2454788.707490231
  9
$TDINDWG
 40
0.4556811574
  9
$TDUSRTIMER
 40
0.4556809838
  9
$USRTIMER
 70
     1
  9
$ANGBASE
 50
0.0
  9
$ANGDIR
 70
     0
  9
$PDMODE
 70
     0
  9
$PDSIZE
 40
0.0
  9
$PLINEWID
 40
0.0
  9
$SPLFRAME
 70
     0
  9
$SPLINETYPE
 70
     6
  9
$SPLINESEGS
 70
     8
  9
$HANDSEED
  5
5E46
  9
$SURFTAB1
 70
     6
  9
$SURFTAB2
 70
     6
  9
$SURFTYPE
 70
     6
  9
$SURFU
 70
     6
  9
$SURFV
 70
     6
  9
$UCSBASE
  2

  9
$UCSNAME
  2

  9
$UCSORG
 10
0.0
 20
0.0
 30
0.0
  9
$UCSXDIR
 10
1.0
 20
0.0
 30
0.0
  9
$UCSYDIR
 10
0.0
 20
1.0
 30
0.0
  9
$UCSORTHOREF
  2

  9
$UCSORTHOVIEW
 70
     0
  9
$UCSORGTOP
 10
0.0
 20
0.0
 30
0.0
  9
$UCSORGBOTTOM
 10
0.0
 20
0.0
 30
0.0
  9
$UCSORGLEFT
 10
0.0
 20
0.0
 30
0.0
  9
$UCSORGRIGHT
 10
0.0
 20
0.0
 30
0.0
  9
$UCSORGFRONT
 10
0.0
 20
0.0
 30
0.0
  9
$UCSORGBACK
 10
0.0
 20
0.0
 30
0.0
  9
$PUCSBASE
  2

  9
$PUCSNAME
  2

  9
$PUCSORG
 10
0.0
 20
0.0
 30
0.0
  9
$PUCSXDIR
 10
1.0
 20
0.0
 30
0.0
  9
$PUCSYDIR
 10
0.0
 20
1.0
 30
0.0
  9
$PUCSORTHOREF
  2

  9
$PUCSORTHOVIEW
 70
     0
  9
$PUCSORGTOP
 10
0.0
 20
0.0
 30
0.0
  9
$PUCSORGBOTTOM
 10
0.0
 20
0.0
 30
0.0
  9
$PUCSORGLEFT
 10
0.0
 20
0.0
 30
0.0
  9
$PUCSORGRIGHT
 10
0.0
 20
0.0
 30
0.0
  9
$PUCSORGFRONT
 10
0.0
 20
0.0
 30
0.0
  9
$PUCSORGBACK
 10
0.0
 20
0.0
 30
0.0
  9
$USERI1
 70
     0
  9
$USERI2
 70
     0
  9
$USERI3
 70
     0
  9
$USERI4
 70
     0
  9
$USERI5
 70
     0
  9
$USERR1
 40
0.0
  9
$USERR2
 40
0.0
  9
$USERR3
 40
0.0
  9
$USERR4
 40
0.0
  9
$USERR5
 40
0.0
  9
$WORLDVIEW
 70
     1
  9
$SHADEDGE
 70
     3
  9
$SHADEDIF
 70
    70
  9
$TILEMODE
 70
     1
  9
$MAXACTVP
 70
    16
  9
$PINSBASE
 10
0.0
 20
0.0
 30
0.0
  9
$PLIMCHECK
 70
     0
  9
$PEXTMIN
 10
1.000000000000000E+20
 20
1.000000000000000E+20
 30
1.000000000000000E+20
  9
$PEXTMAX
 10
-1.000000000000000E+20
 20
-1.000000000000000E+20
 30
-1.000000000000000E+20
  9
$PLIMMIN
 10
0.0
 20
0.0
  9
$PLIMMAX
 10
12.0
 20
9.0
  9
$UNITMODE
 70
     0
  9
$VISRETAIN
 70
     0
  9
$PLINEGEN
 70
     0
  9
$PSLTSCALE
 70
     1
  9
$TREEDEPTH
 70
  3020
  9
$CMLSTYLE
  2
Standard
  9
$CMLJUST
 70
     0
  9
$CMLSCALE
 40
1.0
  9
$PROXYGRAPHICS
 70
     1
  9
$MEASUREMENT
 70
     0
  9
$CELWEIGHT
370
    -1
  9
$ENDCAPS
280
     0
  9
$JOINSTYLE
280
     0
  9
$LWDISPLAY
290
     0
  9
$INSUNITS
 70
     0
  9
$HYPERLINKBASE
  1

  9
$STYLESHEET
  1
monochrome.ctb
  9
$XEDIT
290
     1
  9
$CEPSNTYPE
380
     0
  9
$PSTYLEMODE
290
     1
  9
$FINGERPRINTGUID
  2
{F28302CD-4CFA-4660-9370-F10B0D89D1F8}
  9
$VERSIONGUID
  2
{DA4FB03A-FF89-40AF-B9C9-2E9047A33B8A}
  9
$EXTNAMES
290
     1
  9
$PSVPSCALE
 40
0.0
  9
$OLESTARTUP
290
     0
  0
ENDSEC
  0
SECTION
  2
CLASSES
  0
CLASS
  1
ACDBDICTIONARYWDFLT
  2
AcDbDictionaryWithDefault
  3
AutoCAD 2000
 90
        0
280
     0
281
     0
  0
CLASS
  1
ACDBPLACEHOLDER
  2
AcDbPlaceHolder
  3
AutoCAD 2000
 90
        0
280
     0
281
     0
  0
CLASS
  1
LAYOUT
  2
AcDbLayout
  3
AutoCAD 2000
 90
        0
280
     0
281
     0
  0
CLASS
  1
DICTIONARYVAR
  2
AcDbDictionaryVar
  3
AutoCAD 2000
 90
        0
280
     0
281
     0
  0
ENDSEC
  0
SECTION
  2
TABLES
  0
TABLE
  2
VPORT
  5
13E7
330
0
100
AcDbSymbolTable
 70
     2
  0
VPORT
  5
5E45
330
13E7
100
AcDbSymbolTableRecord
100
AcDbViewportTableRecord
  2
*Active
 70
     0
 10
0.0
 20
0.0
 11
1.0
 21
1.0
 12
24.90047651695018
 22
15.49318101102233
 13
0.0
 23
0.0
 14
0.5314660535187841
 24
0.5314660535187841
 15
0.75
 25
0.75
 16
0.0
 26
0.0
 36
1.0
 17
0.0
 27
0.0
 37
0.0
 40
31.34634878811184
 41
1.796327212020033
 42
50.0
 43
0.0
 44
0.0
 50
0.0
 51
0.0
 71
     0
 72
   500
 73
     1
 74
     0
 75
     0
 76
     0
 77
     0
 78
     0
281
     0
 65
     0
110
0.0
120
0.0
130
0.0
111
1.0
121
0.0
131
0.0
112
0.0
122
1.0
132
0.0
 79
     0
146
0.0
  0
ENDTAB
  0
TABLE
  2
LTYPE
  5
13E4
330
0
100
AcDbSymbolTable
 70
     7
  0
LTYPE
  5
13F2
330
13E4
100
AcDbSymbolTableRecord
100
AcDbLinetypeTableRecord
  2
ByBlock
 70
     0
  3

 72
    65
 73
     0
 40
0.0
  0
LTYPE
  5
13F3
330
13E4
100
AcDbSymbolTableRecord
100
AcDbLinetypeTableRecord
  2
ByLayer
 70
     0
  3

 72
    65
 73
     0
 40
0.0
  0
LTYPE
  5
13F4
330
13E4
100
AcDbSymbolTableRecord
100
AcDbLinetypeTableRecord
  2
CONTINUOUS
 70
     0
  3
Solid line
 72
    65
 73
     0
 40
0.0
  0
LTYPE
  5
1404
330
13E4
100
AcDbSymbolTableRecord
100
AcDbLinetypeTableRecord
  2
HIDDEN
 70
     0
  3
_ _ _ _ _ _ _ _ _ _ _ _ _ _ _ _ _ _ _ _ _ _ _
 72
    65
 73
     2
 40
0.375
 49
0.25
 74
     0
 49
-0.125
 74
     0
  0
LTYPE
  5
1405
330
13E4
100
AcDbSymbolTableRecord
100
AcDbLinetypeTableRecord
  2
CENTER2
 70
     0
  3
___ _ ___ _ ___ _ ___ _ ___ _ ___ _ ___ _ ___ _
 72
    65
 73
     4
 40
1.125
 49
0.75
 74
     0
 49
-0.125
 74
     0
 49
0.125
 74
     0
 49
-0.125
 74
     0
  0
LTYPE
  5
1406
330
13E4
100
AcDbSymbolTableRecord
100
AcDbLinetypeTableRecord
  2
PHANTOM2
 70
     0
  3
___ _ _ ___ _ _ ___ _ _ ___ _ _ ___ _ _ ___ _ _
 72
    65
 73
     6
 40
1.25
 49
0.625
 74
     0
 49
-0.125
 74
     0
 49
0.125
 74
     0
 49
-0.125
 74
     0
 49
0.125
 74
     0
 49
-0.125
 74
     0
  0
LTYPE
  5
1407
330
13E4
100
AcDbSymbolTableRecord
100
AcDbLinetypeTableRecord
  2
CENTER
 70
     0
  3
____ _ ____ _ ____ _ ____ _ ____ _ ____ _ ____
 72
    65
 73
     4
 40
2.0
 49
1.25
 74
     0
 49
-0.25
 74
     0
 49
0.25
 74
     0
 49
-0.25
 74
     0
  0
LTYPE
  5
1408
330
13E4
100
AcDbSymbolTableRecord
100
AcDbLinetypeTableRecord
  2
PHANTOM
 70
     0
  3
_____ _ _ _____ _ _ _____ _ _ _____ _ _ ____
 72
    65
 73
     6
 40
2.5
 49
1.25
 74
     0
 49
-0.25
 74
     0
 49
0.25
 74
     0
 49
-0.25
 74
     0
 49
0.25
 74
     0
 49
-0.25
 74
     0
  0
LTYPE
  5
1409
330
13E4
100
AcDbSymbolTableRecord
100
AcDbLinetypeTableRecord
  2
HIDDEN2
 70
     0
  3
_ _ _ _ _ _ _ _ _ _ _ _ _ _ _ _ _ _ _ _ _ _ _ _
 72
    65
 73
     2
 40
0.1875
 49
0.125
 74
     0
 49
-0.0625
 74
     0
  0
ENDTAB
  0
TABLE
  2
LAYER
  5
13E1
330
0
100
AcDbSymbolTable
 70
     9
  0
LAYER
  5
13EF
330
13E1
100
AcDbSymbolTableRecord
100
AcDbLayerTableRecord
  2
0
 70
     0
 62
     7
  6
CONTINUOUS
370
    -3
390
13EE
  0
LAYER
  5
1401
330
13E1
100
AcDbSymbolTableRecord
100
AcDbLayerTableRecord
  2
OBJECT
 70
     0
 62
     7
  6
CONTINUOUS
370
    -3
390
13EE
  0
LAYER
  5
140A
330
13E1
100
AcDbSymbolTableRecord
100
AcDbLayerTableRecord
  2
DIM
 70
     0
 62
     2
  6
CONTINUOUS
370
    -3
390
13EE
  0
LAYER
  5
140B
330
13E1
100
AcDbSymbolTableRecord
100
AcDbLayerTableRecord
  2
HIDDEN
 70
     0
 62
     6
  6
HIDDEN
370
    -3
390
13EE
  0
LAYER
  5
140C
330
13E1
100
AcDbSymbolTableRecord
100
AcDbLayerTableRecord
  2
BEND
 70
     0
 62
     4
  6
PHANTOM
370
    -3
390
13EE
  0
LAYER
  5
140D
330
13E1
100
AcDbSymbolTableRecord
100
AcDbLayerTableRecord
  2
TEXT
 70
     0
 62
     1
  6
CONTINUOUS
370
    -3
390
13EE
  0
LAYER
  5
140E
330
13E1
100
AcDbSymbolTableRecord
100
AcDbLayerTableRecord
  2
TITLE
 70
     0
 62
     8
  6
CONTINUOUS
370
    -3
390
13EE
  0
LAYER
  5
140F
330
13E1
100
AcDbSymbolTableRecord
100
AcDbLayerTableRecord
  2
DEFPOINTS
 70
     0
 62
     7
  6
CONTINUOUS
290
     0
370
    -3
390
13EE
  0
LAYER
  5
1410
330
13E1
100
AcDbSymbolTableRecord
100
AcDbLayerTableRecord
  2
CENTER
 70
     0
 62
     3
  6
CENTER
370
    -3
390
13EE
  0
ENDTAB
  0
TABLE
  2
STYLE
  5
13E2
330
0
100
AcDbSymbolTable
 70
     2
  0
STYLE
  5
13F0
330
13E2
100
AcDbSymbolTableRecord
100
AcDbTextStyleTableRecord
  2
TXT
 70
     0
 40
0.0
 41
0.75
 50
0.0
 71
     0
 42
0.2
  3
txt.shx
  4

  0
STYLE
  5
1411
330
13E2
100
AcDbSymbolTableRecord
100
AcDbTextStyleTableRecord
  2
SECTION
 70
     0
 40
0.0
 41
0.8
 50
0.0
 71
     0
 42
0.2
  3
ROMANT.SHX
  4

  0
ENDTAB
  0
TABLE
  2
VIEW
  5
13E5
330
0
100
AcDbSymbolTable
 70
     0
  0
ENDTAB
  0
TABLE
  2
UCS
  5
13E6
330
0
100
AcDbSymbolTable
 70
     0
  0
ENDTAB
  0
TABLE
  2
APPID
  5
13E8
330
0
100
AcDbSymbolTable
 70
     1
  0
APPID
  5
13F1
330
13E8
100
AcDbSymbolTableRecord
100
AcDbRegAppTableRecord
  2
ACAD
 70
     0
  0
ENDTAB
  0
TABLE
  2
DIMSTYLE
  5
13E9
330
0
100
AcDbSymbolTable
 70
     4
100
AcDbDimStyleTable
 71
     4
340
1412
340
1413
340
1414
340
1415
  0
DIMSTYLE
105
1412
102
{ACAD_REACTORS
330
2028
330
2035
330
21B7
330
21EF
330
21FD
330
220B
330
2219
330
223B
330
2249
330
2256
330
2264
330
2280
330
228E
330
229C
330
22AA
330
22B8
330
22C6
330
22D4
330
22F0
330
2348
330
2356
330
2364
330
24A2
330
24B0
330
24BE
330
24CC
330
24DA
330
24EB
330
2601
330
260F
330
261D
330
262B
330
2639
330
264F
330
26E1
330
26EF
330
32C2
330
32DA
330
2272
330
39E4
330
3A76
330
3AB4
330
3B2E
330
4983
330
22FE
330
2093
330
5044
102
}
330
13E9
100
AcDbSymbolTableRecord
100
AcDbDimStyleTableRecord
  2
23NSTD
 70
     0
 40
3.0
 42
0.063
 43
0.281
 44
0.093
140
0.125
271
     3
272
     3
289
     1
340
13F0
  0
DIMSTYLE
105
1413
102
{ACAD_REACTORS
330
5A6D
102
}
330
13E9
100
AcDbSymbolTableRecord
100
AcDbDimStyleTableRecord
  2
23NSTDI
 70
     0
 40
3.0
 42
0.063
 43
0.281
 44
0.093
140
0.125
174
     1
271
     3
272
     3
340
13F0
  0
DIMSTYLE
105
1414
102
{ACAD_REACTORS
330
3B21
330
57A2
330
57FA
102
}
330
13E9
100
AcDbSymbolTableRecord
100
AcDbDimStyleTableRecord
  2
23NSTD4
 70
     0
 40
3.0
 42
0.063
 43
0.281
 44
0.093
140
0.125
144
0.25
271
     3
272
     3
289
     1
340
13F0
  0
DIMSTYLE
105
1415
102
{ACAD_REACTORS
330
3B1E
330
5788
102
}
330
13E9
100
AcDbSymbolTableRecord
100
AcDbDimStyleTableRecord
  2
23NSTD4I
 70
     0
 40
3.0
 42
0.063
 43
0.281
 44
0.093
140
0.125
144
0.25
174
     1
271
     3
272
     3
340
13F0
  0
ENDTAB
  0
TABLE
  2
BLOCK_RECORD
  5
13E0
330
0
100
AcDbSymbolTable
 70
    50
  0
BLOCK_RECORD
  5
13FD
330
13E0
100
AcDbSymbolTableRecord
100
AcDbBlockTableRecord
  2
*Model_Space
340
1400
  0
BLOCK_RECORD
  5
13F9
330
13E0
100
AcDbSymbolTableRecord
100
AcDbBlockTableRecord
  2
*Paper_Space
340
13FC
  0
BLOCK_RECORD
  5
1B30
330
13E0
100
AcDbSymbolTableRecord
100
AcDbBlockTableRecord
  2
HBS
340
0
102
{BLKREFS
331
397A
102
}
  0
BLOCK_RECORD
  5
2029
330
13E0
100
AcDbSymbolTableRecord
100
AcDbBlockTableRecord
  2
*D1
340
0
  0
BLOCK_RECORD
  5
2036
330
13E0
100
AcDbSymbolTableRecord
100
AcDbBlockTableRecord
  2
*D2
340
0
  0
BLOCK_RECORD
  5
2094
330
13E0
100
AcDbSymbolTableRecord
100
AcDbBlockTableRecord
  2
*D3
340
0
  0
BLOCK_RECORD
  5
21B8
330
13E0
100
AcDbSymbolTableRecord
100
AcDbBlockTableRecord
  2
*D4
340
0
  0
BLOCK_RECORD
  5
21F0
330
13E0
100
AcDbSymbolTableRecord
100
AcDbBlockTableRecord
  2
*D5
340
0
  0
BLOCK_RECORD
  5
21FE
330
13E0
100
AcDbSymbolTableRecord
100
AcDbBlockTableRecord
  2
*D6
340
0
  0
BLOCK_RECORD
  5
220C
330
13E0
100
AcDbSymbolTableRecord
100
AcDbBlockTableRecord
  2
*D7
340
0
  0
BLOCK_RECORD
  5
221A
330
13E0
100
AcDbSymbolTableRecord
100
AcDbBlockTableRecord
  2
*D8
340
0
  0
BLOCK_RECORD
  5
223C
330
13E0
100
AcDbSymbolTableRecord
100
AcDbBlockTableRecord
  2
*D9
340
0
  0
BLOCK_RECORD
  5
224A
330
13E0
100
AcDbSymbolTableRecord
100
AcDbBlockTableRecord
  2
*D10
340
0
  0
BLOCK_RECORD
  5
2257
330
13E0
100
AcDbSymbolTableRecord
100
AcDbBlockTableRecord
  2
*D11
340
0
  0
BLOCK_RECORD
  5
2265
330
13E0
100
AcDbSymbolTableRecord
100
AcDbBlockTableRecord
  2
*D12
340
0
  0
BLOCK_RECORD
  5
2273
330
13E0
100
AcDbSymbolTableRecord
100
AcDbBlockTableRecord
  2
*D13
340
0
  0
BLOCK_RECORD
  5
2281
330
13E0
100
AcDbSymbolTableRecord
100
AcDbBlockTableRecord
  2
*D14
340
0
  0
BLOCK_RECORD
  5
228F
330
13E0
100
AcDbSymbolTableRecord
100
AcDbBlockTableRecord
  2
*D15
340
0
  0
BLOCK_RECORD
  5
229D
330
13E0
100
AcDbSymbolTableRecord
100
AcDbBlockTableRecord
  2
*D16
340
0
  0
BLOCK_RECORD
  5
22AB
330
13E0
100
AcDbSymbolTableRecord
100
AcDbBlockTableRecord
  2
*D17
340
0
  0
BLOCK_RECORD
  5
22B9
330
13E0
100
AcDbSymbolTableRecord
100
AcDbBlockTableRecord
  2
*D18
340
0
  0
BLOCK_RECORD
  5
22C7
330
13E0
100
AcDbSymbolTableRecord
100
AcDbBlockTableRecord
  2
*D19
340
0
  0
BLOCK_RECORD
  5
22D5
330
13E0
100
AcDbSymbolTableRecord
100
AcDbBlockTableRecord
  2
*D20
340
0
  0
BLOCK_RECORD
  5
22F1
330
13E0
100
AcDbSymbolTableRecord
100
AcDbBlockTableRecord
  2
*D21
340
0
  0
BLOCK_RECORD
  5
22FF
330
13E0
100
AcDbSymbolTableRecord
100
AcDbBlockTableRecord
  2
*D22
340
0
  0
BLOCK_RECORD
  5
2349
330
13E0
100
AcDbSymbolTableRecord
100
AcDbBlockTableRecord
  2
*D23
340
0
  0
BLOCK_RECORD
  5
2357
330
13E0
100
AcDbSymbolTableRecord
100
AcDbBlockTableRecord
  2
*D24
340
0
  0
BLOCK_RECORD
  5
2365
330
13E0
100
AcDbSymbolTableRecord
100
AcDbBlockTableRecord
  2
*D25
340
0
  0
BLOCK_RECORD
  5
24A3
330
13E0
100
AcDbSymbolTableRecord
100
AcDbBlockTableRecord
  2
*D26
340
0
  0
BLOCK_RECORD
  5
24B1
330
13E0
100
AcDbSymbolTableRecord
100
AcDbBlockTableRecord
  2
*D27
340
0
  0
BLOCK_RECORD
  5
24BF
330
13E0
100
AcDbSymbolTableRecord
100
AcDbBlockTableRecord
  2
*D28
340
0
  0
BLOCK_RECORD
  5
24CD
330
13E0
100
AcDbSymbolTableRecord
100
AcDbBlockTableRecord
  2
*D29
340
0
  0
BLOCK_RECORD
  5
24DB
330
13E0
100
AcDbSymbolTableRecord
100
AcDbBlockTableRecord
  2
*D30
340
0
  0
BLOCK_RECORD
  5
24EC
330
13E0
100
AcDbSymbolTableRecord
100
AcDbBlockTableRecord
  2
*D31
340
0
  0
BLOCK_RECORD
  5
2602
330
13E0
100
AcDbSymbolTableRecord
100
AcDbBlockTableRecord
  2
*D32
340
0
  0
BLOCK_RECORD
  5
2610
330
13E0
100
AcDbSymbolTableRecord
100
AcDbBlockTableRecord
  2
*D33
340
0
  0
BLOCK_RECORD
  5
261E
330
13E0
100
AcDbSymbolTableRecord
100
AcDbBlockTableRecord
  2
*D34
340
0
  0
BLOCK_RECORD
  5
262C
330
13E0
100
AcDbSymbolTableRecord
100
AcDbBlockTableRecord
  2
*D35
340
0
  0
BLOCK_RECORD
  5
263A
330
13E0
100
AcDbSymbolTableRecord
100
AcDbBlockTableRecord
  2
*D36
340
0
  0
BLOCK_RECORD
  5
2650
330
13E0
100
AcDbSymbolTableRecord
100
AcDbBlockTableRecord
  2
*D37
340
0
  0
BLOCK_RECORD
  5
26E2
330
13E0
100
AcDbSymbolTableRecord
100
AcDbBlockTableRecord
  2
*D38
340
0
  0
BLOCK_RECORD
  5
26F0
330
13E0
100
AcDbSymbolTableRecord
100
AcDbBlockTableRecord
  2
*D39
340
0
  0
BLOCK_RECORD
  5
32C3
330
13E0
100
AcDbSymbolTableRecord
100
AcDbBlockTableRecord
  2
*D40
340
0
  0
BLOCK_RECORD
  5
32DB
330
13E0
100
AcDbSymbolTableRecord
100
AcDbBlockTableRecord
  2
*D41
340
0
  0
BLOCK_RECORD
  5
3DD3
330
13E0
100
AcDbSymbolTableRecord
100
AcDbBlockTableRecord
  2
*D42
340
0
  0
BLOCK_RECORD
  5
3DE0
330
13E0
100
AcDbSymbolTableRecord
100
AcDbBlockTableRecord
  2
*D43
340
0
  0
BLOCK_RECORD
  5
4984
330
13E0
100
AcDbSymbolTableRecord
100
AcDbBlockTableRecord
  2
*D44
340
0
  0
BLOCK_RECORD
  5
5045
330
13E0
100
AcDbSymbolTableRecord
100
AcDbBlockTableRecord
  2
*D45
340
0
  0
BLOCK_RECORD
  5
5789
330
13E0
100
AcDbSymbolTableRecord
100
AcDbBlockTableRecord
  2
*D46
340
0
  0
BLOCK_RECORD
  5
57A3
330
13E0
100
AcDbSymbolTableRecord
100
AcDbBlockTableRecord
  2
*D47
340
0
  0
BLOCK_RECORD
  5
57FB
330
13E0
100
AcDbSymbolTableRecord
100
AcDbBlockTableRecord
  2
*D48
340
0
  0
BLOCK_RECORD
  5
5A6E
330
13E0
100
AcDbSymbolTableRecord
100
AcDbBlockTableRecord
  2
*D49
340
0
  0
ENDTAB
  0
ENDSEC
  0
SECTION
  2
BLOCKS
  0
BLOCK
  5
13FE
330
13FD
100
AcDbEntity
  8
0
100
AcDbBlockBegin
  2
*Model_Space
 70
     0
 10
0.0
 20
0.0
 30
0.0
  3
*Model_Space
  1

  0
ENDBLK
  5
13FF
330
13FD
100
AcDbEntity
  8
0
100
AcDbBlockEnd
  0
BLOCK
  5
13FA
330
13F9
100
AcDbEntity
 67
     1
  8
0
100
AcDbBlockBegin
  2
*Paper_Space
 70
     0
 10
0.0
 20
0.0
 30
0.0
  3
*Paper_Space
  1

  0
ENDBLK
  5
13FB
330
13F9
100
AcDbEntity
 67
     1
  8
0
100
AcDbBlockEnd
  0
BLOCK
  5
1B31
330
1B30
100
AcDbEntity
  8
0
100
AcDbBlockBegin
  2
HBS
 70
     0
 10
0.0
 20
0.0
 30
0.0
  3
HBS
  1

  0
LINE
  5
323F
330
1B30
100
AcDbEntity
  8
TITLE
100
AcDbLine
 10
0.0620000000000118
 20
10.266
 30
0.0
 11
16.53800000000001
 21
10.266
 31
0.0
  0
LINE
  5
3240
330
1B30
100
AcDbEntity
  8
TITLE
100
AcDbLine
 10
16.53800000000001
 20
0.0620000000000012
 30
0.0
 11
0.0620000000000118
 21
0.0620000000000012
 31
0.0
  0
LINE
  5
3241
330
1B30
100
AcDbEntity
  8
TITLE
100
AcDbLine
 10
0.0
 20
10.32799999999999
 30
0.0
 11
16.59999999999999
 21
10.32799999999999
 31
0.0
  0
LINE
  5
3242
330
1B30
100
AcDbEntity
  8
TITLE
100
AcDbLine
 10
16.59999999999999
 20
0.0
 30
0.0
 11
0.0
 21
0.0
 31
0.0
  0
LINE
  5
3243
330
1B30
100
AcDbEntity
  8
TITLE
100
AcDbLine
 10
0.0620000000000118
 20
9.848000000000002
 30
0.0
 11
16.53800000000001
 21
9.848000000000006
 31
0.0
  0
LINE
  5
3244
330
1B30
100
AcDbEntity
  8
TITLE
100
AcDbLine
 10
0.0620000000000118
 20
0.0620000000000012
 30
0.0
 11
0.0620000000000118
 21
10.266
 31
0.0
  0
LINE
  5
3245
330
1B30
100
AcDbEntity
  8
TITLE
100
AcDbLine
 10
0.0
 20
0.0
 30
0.0
 11
0.0
 21
10.32799999999999
 31
0.0
  0
TEXT
  5
3246
330
1B30
100
AcDbEntity
  8
TEXT
100
AcDbText
 10
0.2078333333333452
 20
9.888079195640081
 30
0.0
 40
0.125
  1
NAME
 72
     1
 11
0.4370000000000119
 21
9.888079195640081
 31
0.0
100
AcDbText
  0
TEXT
  5
3247
330
1B30
100
AcDbEntity
  8
TEXT
100
AcDbText
 10
0.2078333333333452
 20
10.09641252897341
 30
0.0
 40
0.125
  1
PART
 72
     1
 11
0.4370000000000119
 21
10.09641252897341
 31
0.0
100
AcDbText
  0
LINE
  5
3248
330
1B30
100
AcDbEntity
  8
TITLE
100
AcDbLine
 10
0.8120000000000118
 20
9.848000000000002
 30
0.0
 11
0.8120000000000118
 21
10.266
 31
0.0
  0
LINE
  5
3249
330
1B30
100
AcDbEntity
  8
TITLE
100
AcDbLine
 10
7.0
 20
10.266
 30
0.0
 11
7.0
 21
9.848000000000002
 31
0.0
  0
LINE
  5
324A
330
1B30
100
AcDbEntity
  8
TITLE
100
AcDbLine
 10
7.062000000000011
 20
10.266
 30
0.0
 11
7.062000000000011
 21
9.848000000000002
 31
0.0
  0
LINE
  5
324B
330
1B30
100
AcDbEntity
  8
TITLE
100
AcDbLine
 10
7.812000000000011
 20
10.266
 30
0.0
 11
7.812000000000011
 21
9.848000000000002
 31
0.0
  0
TEXT
  5
324C
330
1B30
100
AcDbEntity
  8
TEXT
100
AcDbText
 10
7.312000000000011
 20
9.888079195640081
 30
0.0
 40
0.125
  1
No.
 72
     1
 11
7.437000000000011
 21
9.888079195640081
 31
0.0
100
AcDbText
  0
TEXT
  5
324D
330
1B30
100
AcDbEntity
  8
TEXT
100
AcDbText
 10
7.207833333333344
 20
10.09641252897341
 30
0.0
 40
0.125
  1
PART
 72
     1
 11
7.437000000000011
 21
10.09641252897341
 31
0.0
100
AcDbText
  0
LINE
  5
324E
330
1B30
100
AcDbEntity
  8
TITLE
100
AcDbLine
 10
16.53800000000001
 20
10.266
 30
0.0
 11
16.53800000000001
 21
0.0620000000000012
 31
0.0
  0
LINE
  5
324F
330
1B30
100
AcDbEntity
  8
TITLE
100
AcDbLine
 10
16.59999999999999
 20
10.32799999999999
 30
0.0
 11
16.59999999999999
 21
0.0
 31
0.0
  0
TEXT
  5
3250
330
1B30
100
AcDbEntity
  8
TEXT
100
AcDbText
 10
14.22865779971668
 20
10.09641252897341
 30
0.0
 40
0.125
  1
REV.
 72
     1
 11
14.43699113305001
 21
10.09641252897341
 31
0.0
100
AcDbText
  0
TEXT
  5
3251
330
1B30
100
AcDbEntity
  8
TEXT
100
AcDbText
 10
14.20782446638335
 20
9.888079195640081
 30
0.0
 40
0.125
  1
DATE
 72
     1
 11
14.43699113305001
 21
9.888079195640081
 31
0.0
100
AcDbText
  0
LINE
  5
3252
330
1B30
100
AcDbEntity
  8
TITLE
100
AcDbLine
 10
14.06199113305001
 20
10.266
 30
0.0
 11
14.06199113305001
 21
9.848000000000002
 31
0.0
  0
LINE
  5
3253
330
1B30
100
AcDbEntity
  8
TITLE
100
AcDbLine
 10
14.81199113305001
 20
10.266
 30
0.0
 11
14.81199113305001
 21
9.848000000000002
 31
0.0
  0
LINE
  5
3254
330
1B30
100
AcDbEntity
  8
TITLE
100
AcDbLine
 10
13.99999113305
 20
10.266
 30
0.0
 11
13.99999113305
 21
9.848000000000002
 31
0.0
  0
ENDBLK
  5
1B47
330
1B30
100
AcDbEntity
  8
0
100
AcDbBlockEnd
  0
BLOCK
  5
2033
330
2029
100
AcDbEntity
  8
0
100
AcDbBlockBegin
  2
*D1
 70
     1
 10
0.0
 20
0.0
 30
0.0
  3
*D1
  1

  0
LINE
  5
5DB5
330
2029
100
AcDbEntity
  8
DIM
 62
     0
370
    -2
100
AcDbLine
 10
44.51588778584815
 20
8.653487409862485
 30
0.0
 11
44.51588778584815
 21
6.864898027688795
 31
0.0
  0
LINE
  5
5DB6
330
2029
100
AcDbEntity
  8
DIM
 62
     0
370
    -2
100
AcDbLine
 10
48.90588778584816
 20
8.653487409862499
 30
0.0
 11
48.90588778584816
 21
6.864898027688795
 31
0.0
  0
LINE
  5
5DB7
330
2029
100
AcDbEntity
  8
DIM
 62
     0
370
    -2
100
AcDbLine
 10
45.05588778584814
 20
7.143898027688795
 30
0.0
 11
46.39382528584815
 21
7.143898027688795
 31
0.0
  0
LINE
  5
5DB8
330
2029
100
AcDbEntity
  8
DIM
 62
     0
370
    -2
100
AcDbLine
 10
48.36588778584816
 20
7.143898027688795
 30
0.0
 11
48.01195028584816
 21
7.143898027688795
 31
0.0
  0
SOLID
  5
5DB9
330
2029
100
AcDbEntity
  8
DIM
 62
     0
100
AcDbTrace
 10
45.05588778584814
 20
7.233898027688795
 30
0.0
 11
45.05588778584814
 21
7.053898027688795
 31
0.0
 12
44.51588778584815
 22
7.143898027688795
 32
0.0
 13
44.51588778584815
 23
7.143898027688795
 33
0.0
  0
SOLID
  5
5DBA
330
2029
100
AcDbEntity
  8
DIM
 62
     0
100
AcDbTrace
 10
48.36588778584816
 20
7.233898027688795
 30
0.0
 11
48.36588778584816
 21
7.053898027688795
 31
0.0
 12
48.90588778584816
 22
7.143898027688795
 32
0.0
 13
48.90588778584816
 23
7.143898027688795
 33
0.0
  0
MTEXT
  5
5DBB
330
2029
100
AcDbEntity
  8
DIM
 62
     0
100
AcDbMText
 10
47.20288778584815
 20
7.143898027688795
 30
0.0
 40
0.375
 41
0.0
 71
     5
 72
     1
  1
\A1;4.390
 73
     1
 44
1.0
  0
POINT
  5
5DBC
330
2029
100
AcDbEntity
  8
DEFPOINTS
 62
     0
100
AcDbPoint
 10
44.51588778584815
 20
8.842487409862485
 30
0.0
  0
POINT
  5
5DBD
330
2029
100
AcDbEntity
  8
DEFPOINTS
 62
     0
100
AcDbPoint
 10
48.90588778584816
 20
8.842487409862499
 30
0.0
  0
POINT
  5
5DBE
330
2029
100
AcDbEntity
  8
DEFPOINTS
 62
     0
100
AcDbPoint
 10
48.90588778584816
 20
7.143898027688795
 30
0.0
  0
ENDBLK
  5
2034
330
2029
100
AcDbEntity
  8
0
100
AcDbBlockEnd
  0
BLOCK
  5
2041
330
2036
100
AcDbEntity
  8
0
100
AcDbBlockBegin
  2
*D2
 70
     1
 10
0.0
 20
0.0
 30
0.0
  3
*D2
  1

  0
LINE
  5
5DBF
330
2036
100
AcDbEntity
  8
DIM
 62
     0
370
    -2
100
AcDbLine
 10
46.68088778584817
 20
8.591487409862494
 30
0.0
 11
46.68088778584817
 21
7.754487409862495
 31
0.0
  0
LINE
  5
5DC0
330
2036
100
AcDbEntity
  8
DIM
 62
     0
370
    -2
100
AcDbLine
 10
44.51588778584815
 20
8.653487409862485
 30
0.0
 11
44.51588778584815
 21
7.754487409862495
 31
0.0
  0
LINE
  5
5DC1
330
2036
100
AcDbEntity
  8
DIM
 62
     0
370
    -2
100
AcDbLine
 10
47.22088778584817
 20
8.033487409862495
 30
0.0
 11
47.76088778584816
 21
8.033487409862495
 31
0.0
  0
LINE
  5
5DC2
330
2036
100
AcDbEntity
  8
DIM
 62
     0
370
    -2
100
AcDbLine
 10
43.97588778584815
 20
8.033487409862495
 30
0.0
 11
43.43588778584815
 21
8.033487409862495
 31
0.0
  0
SOLID
  5
5DC3
330
2036
100
AcDbEntity
  8
DIM
 62
     0
100
AcDbTrace
 10
47.22088778584817
 20
8.123487409862494
 30
0.0
 11
47.22088778584817
 21
7.943487409862495
 31
0.0
 12
46.68088778584817
 22
8.033487409862495
 32
0.0
 13
46.68088778584817
 23
8.033487409862495
 33
0.0
  0
SOLID
  5
5DC4
330
2036
100
AcDbEntity
  8
DIM
 62
     0
100
AcDbTrace
 10
43.97588778584815
 20
8.123487409862494
 30
0.0
 11
43.97588778584815
 21
7.943487409862495
 31
0.0
 12
44.51588778584815
 22
8.033487409862495
 32
0.0
 13
44.51588778584815
 23
8.033487409862495
 33
0.0
  0
MTEXT
  5
5DC5
330
2036
100
AcDbEntity
  8
DIM
 62
     0
100
AcDbMText
 10
42.04088778584814
 20
8.033487409862495
 30
0.0
 40
0.375
 41
0.0
 71
     5
 72
     1
  1
\A1;2.165 REF.
 73
     1
 44
1.0
  0
POINT
  5
5DC6
330
2036
100
AcDbEntity
  8
DEFPOINTS
 62
     0
100
AcDbPoint
 10
46.68088778584817
 20
8.780487409862494
 30
0.0
  0
POINT
  5
5DC7
330
2036
100
AcDbEntity
  8
DEFPOINTS
 62
     0
100
AcDbPoint
 10
44.51588778584815
 20
8.842487409862485
 30
0.0
  0
POINT
  5
5DC8
330
2036
100
AcDbEntity
  8
DEFPOINTS
 62
     0
100
AcDbPoint
 10
44.51588778584815
 20
8.033487409862495
 30
0.0
  0
ENDBLK
  5
2042
330
2036
100
AcDbEntity
  8
0
100
AcDbBlockEnd
  0
BLOCK
  5
209F
330
2094
100
AcDbEntity
  8
0
100
AcDbBlockBegin
  2
*D3
 70
     1
 10
0.0
 20
0.0
 30
0.0
  3
*D3
  1

  0
LINE
  5
5CB8
330
2094
100
AcDbEntity
  8
DIM
 62
     0
370
    -2
100
AcDbLine
 10
20.10373240228527
 20
8.611487409862471
 30
0.0
 11
20.10373240228527
 21
7.083591338740596
 31
0.0
  0
LINE
  5
5CB9
330
2094
100
AcDbEntity
  8
DIM
 62
     0
370
    -2
100
AcDbLine
 10
22.32873240228527
 20
8.653487409862487
 30
0.0
 11
22.32873240228527
 21
7.083591338740596
 31
0.0
  0
LINE
  5
5CBA
330
2094
100
AcDbEntity
  8
DIM
 62
     0
370
    -2
100
AcDbLine
 10
19.56373240228527
 20
7.362591338740596
 30
0.0
 11
19.02373240228526
 21
7.362591338740596
 31
0.0
  0
LINE
  5
5CBB
330
2094
100
AcDbEntity
  8
DIM
 62
     0
370
    -2
100
AcDbLine
 10
22.86873240228527
 20
7.362591338740596
 30
0.0
 11
23.40873240228527
 21
7.362591338740596
 31
0.0
  0
SOLID
  5
5CBC
330
2094
100
AcDbEntity
  8
DIM
 62
     0
100
AcDbTrace
 10
19.56373240228527
 20
7.452591338740596
 30
0.0
 11
19.56373240228527
 21
7.272591338740596
 31
0.0
 12
20.10373240228527
 22
7.362591338740596
 32
0.0
 13
20.10373240228527
 23
7.362591338740596
 33
0.0
  0
SOLID
  5
5CBD
330
2094
100
AcDbEntity
  8
DIM
 62
     0
100
AcDbTrace
 10
22.86873240228527
 20
7.452591338740596
 30
0.0
 11
22.86873240228527
 21
7.272591338740596
 31
0.0
 12
22.32873240228527
 22
7.362591338740596
 32
0.0
 13
22.32873240228527
 23
7.362591338740596
 33
0.0
  0
MTEXT
  5
5CBE
330
2094
100
AcDbEntity
  8
DIM
 62
     0
100
AcDbMText
 10
21.21623240228527
 20
7.362591338740596
 30
0.0
 40
0.375
 41
0.0
 71
     5
 72
     1
  1
\A1;2.225
 73
     1
 44
1.0
  0
POINT
  5
5CBF
330
2094
100
AcDbEntity
  8
DEFPOINTS
 62
     0
100
AcDbPoint
 10
20.10373240228527
 20
8.800487409862471
 30
0.0
  0
POINT
  5
5CC0
330
2094
100
AcDbEntity
  8
DEFPOINTS
 62
     0
100
AcDbPoint
 10
22.32873240228527
 20
8.842487409862487
 30
0.0
  0
POINT
  5
5CC1
330
2094
100
AcDbEntity
  8
DEFPOINTS
 62
     0
100
AcDbPoint
 10
22.32873240228527
 20
7.362591338740596
 30
0.0
  0
ENDBLK
  5
20A0
330
2094
100
AcDbEntity
  8
0
100
AcDbBlockEnd
  0
BLOCK
  5
21C3
330
21B8
100
AcDbEntity
  8
0
100
AcDbBlockBegin
  2
*D4
 70
     1
 10
0.0
 20
0.0
 30
0.0
  3
*D4
  1

  0
LINE
  5
5BF8
330
21B8
100
AcDbEntity
  8
DIM
 62
     0
370
    -2
100
AcDbLine
 10
7.279546536314093
 20
20.52348740986242
 30
0.0
 11
7.279546536314093
 21
22.24811293322278
 31
0.0
  0
LINE
  5
5BF9
330
21B8
100
AcDbEntity
  8
DIM
 62
     0
370
    -2
100
AcDbLine
 10
15.14154653631409
 20
20.52348740986245
 30
0.0
 11
15.14154653631409
 21
22.24811293322278
 31
0.0
  0
LINE
  5
5BFA
330
21B8
100
AcDbEntity
  8
DIM
 62
     0
370
    -2
100
AcDbLine
 10
7.819546536314093
 20
21.96911293322278
 30
0.0
 11
10.37804653631409
 21
21.96911293322278
 31
0.0
  0
LINE
  5
5BFB
330
21B8
100
AcDbEntity
  8
DIM
 62
     0
370
    -2
100
AcDbLine
 10
14.60154653631409
 20
21.96911293322278
 30
0.0
 11
12.04304653631409
 21
21.96911293322278
 31
0.0
  0
SOLID
  5
5BFC
330
21B8
100
AcDbEntity
  8
DIM
 62
     0
100
AcDbTrace
 10
7.819546536314093
 20
22.05911293322278
 30
0.0
 11
7.819546536314093
 21
21.87911293322279
 31
0.0
 12
7.279546536314093
 22
21.96911293322278
 32
0.0
 13
7.279546536314093
 23
21.96911293322278
 33
0.0
  0
SOLID
  5
5BFD
330
21B8
100
AcDbEntity
  8
DIM
 62
     0
100
AcDbTrace
 10
14.60154653631409
 20
22.05911293322278
 30
0.0
 11
14.60154653631409
 21
21.87911293322279
 31
0.0
 12
15.14154653631409
 22
21.96911293322278
 32
0.0
 13
15.14154653631409
 23
21.96911293322278
 33
0.0
  0
MTEXT
  5
5BFE
330
21B8
100
AcDbEntity
  8
DIM
 62
     0
100
AcDbMText
 10
11.21054653631409
 20
21.96911293322278
 30
0.0
 40
0.375
 41
0.0
 71
     5
 72
     1
  1
\A1;7.862
 73
     1
 44
1.0
  0
POINT
  5
5BFF
330
21B8
100
AcDbEntity
  8
DEFPOINTS
 62
     0
100
AcDbPoint
 10
7.279546536314093
 20
20.33448740986242
 30
0.0
  0
POINT
  5
5C00
330
21B8
100
AcDbEntity
  8
DEFPOINTS
 62
     0
100
AcDbPoint
 10
15.14154653631409
 20
20.33448740986245
 30
0.0
  0
POINT
  5
5C01
330
21B8
100
AcDbEntity
  8
DEFPOINTS
 62
     0
100
AcDbPoint
 10
15.14154653631409
 20
21.96911293322278
 30
0.0
  0
ENDBLK
  5
21C4
330
21B8
100
AcDbEntity
  8
0
100
AcDbBlockEnd
  0
BLOCK
  5
21FB
330
21F0
100
AcDbEntity
  8
0
100
AcDbBlockBegin
  2
*D5
 70
     1
 10
0.0
 20
0.0
 30
0.0
  3
*D5
  1

  0
LINE
  5
5CE0
330
21F0
100
AcDbEntity
  8
DIM
 62
     0
370
    -2
100
AcDbLine
 10
15.67554653631408
 20
9.038487409862463
 30
0.0
 11
17.16510546742617
 21
9.038487409862463
 31
0.0
  0
LINE
  5
5CE1
330
21F0
100
AcDbEntity
  8
DIM
 62
     0
370
    -2
100
AcDbLine
 10
15.80854653631409
 20
14.68648740986247
 30
0.0
 11
17.16510546742617
 21
14.68648740986247
 31
0.0
  0
LINE
  5
5CE2
330
21F0
100
AcDbEntity
  8
DIM
 62
     0
370
    -2
100
AcDbLine
 10
16.88610546742617
 20
9.578487409862464
 30
0.0
 11
16.88610546742617
 21
11.40498740986247
 31
0.0
  0
LINE
  5
5CE3
330
21F0
100
AcDbEntity
  8
DIM
 62
     0
370
    -2
100
AcDbLine
 10
16.88610546742617
 20
14.14648740986247
 30
0.0
 11
16.88610546742617
 21
12.31998740986246
 31
0.0
  0
SOLID
  5
5CE4
330
21F0
100
AcDbEntity
  8
DIM
 62
     0
100
AcDbTrace
 10
16.79610546742617
 20
9.578487409862464
 30
0.0
 11
16.97610546742617
 21
9.578487409862464
 31
0.0
 12
16.88610546742617
 22
9.038487409862463
 32
0.0
 13
16.88610546742617
 23
9.038487409862463
 33
0.0
  0
SOLID
  5
5CE5
330
21F0
100
AcDbEntity
  8
DIM
 62
     0
100
AcDbTrace
 10
16.79610546742617
 20
14.14648740986247
 30
0.0
 11
16.97610546742617
 21
14.14648740986247
 31
0.0
 12
16.88610546742617
 22
14.68648740986247
 32
0.0
 13
16.88610546742617
 23
14.68648740986247
 33
0.0
  0
MTEXT
  5
5CE6
330
21F0
100
AcDbEntity
  8
DIM
 62
     0
100
AcDbMText
 10
16.88610546742617
 20
11.86248740986247
 30
0.0
 40
0.375
 41
0.0
 71
     5
 72
     1
  1
\A1;5.648
 73
     1
 44
1.0
  0
POINT
  5
5CE7
330
21F0
100
AcDbEntity
  8
DEFPOINTS
 62
     0
100
AcDbPoint
 10
15.48654653631408
 20
9.038487409862463
 30
0.0
  0
POINT
  5
5CE8
330
21F0
100
AcDbEntity
  8
DEFPOINTS
 62
     0
100
AcDbPoint
 10
15.61954653631409
 20
14.68648740986247
 30
0.0
  0
POINT
  5
5CE9
330
21F0
100
AcDbEntity
  8
DEFPOINTS
 62
     0
100
AcDbPoint
 10
16.88610546742617
 20
14.68648740986247
 30
0.0
  0
ENDBLK
  5
21FC
330
21F0
100
AcDbEntity
  8
0
100
AcDbBlockEnd
  0
BLOCK
  5
2209
330
21FE
100
AcDbEntity
  8
0
100
AcDbBlockBegin
  2
*D6
 70
     1
 10
0.0
 20
0.0
 30
0.0
  3
*D6
  1

  0
LINE
  5
5CD6
330
21FE
100
AcDbEntity
  8
DIM
 62
     0
370
    -2
100
AcDbLine
 10
15.7095465363141
 20
8.780487409862487
 30
0.0
 11
18.44601845908022
 21
8.780487409862487
 31
0.0
  0
LINE
  5
5CD7
330
21FE
100
AcDbEntity
  8
DIM
 62
     0
370
    -2
100
AcDbLine
 10
15.7095465363141
 20
20.59248740986247
 30
0.0
 11
18.44601845908022
 21
20.59248740986247
 31
0.0
  0
LINE
  5
5CD8
330
21FE
100
AcDbEntity
  8
DIM
 62
     0
370
    -2
100
AcDbLine
 10
18.16701845908022
 20
9.320487409862487
 30
0.0
 11
18.16701845908022
 21
14.22898740986248
 31
0.0
  0
LINE
  5
5CD9
330
21FE
100
AcDbEntity
  8
DIM
 62
     0
370
    -2
100
AcDbLine
 10
18.16701845908022
 20
20.05248740986247
 30
0.0
 11
18.16701845908022
 21
15.14398740986248
 31
0.0
  0
SOLID
  5
5CDA
330
21FE
100
AcDbEntity
  8
DIM
 62
     0
100
AcDbTrace
 10
18.07701845908022
 20
9.320487409862487
 30
0.0
 11
18.25701845908022
 21
9.320487409862487
 31
0.0
 12
18.16701845908022
 22
8.780487409862487
 32
0.0
 13
18.16701845908022
 23
8.780487409862487
 33
0.0
  0
SOLID
  5
5CDB
330
21FE
100
AcDbEntity
  8
DIM
 62
     0
100
AcDbTrace
 10
18.07701845908022
 20
20.05248740986247
 30
0.0
 11
18.25701845908022
 21
20.05248740986247
 31
0.0
 12
18.16701845908022
 22
20.59248740986247
 32
0.0
 13
18.16701845908022
 23
20.59248740986247
 33
0.0
  0
MTEXT
  5
5CDC
330
21FE
100
AcDbEntity
  8
DIM
 62
     0
100
AcDbMText
 10
18.16701845908022
 20
14.68648740986248
 30
0.0
 40
0.375
 41
0.0
 71
     5
 72
     1
  1
\A1;11.812
 73
     1
 44
1.0
  0
POINT
  5
5CDD
330
21FE
100
AcDbEntity
  8
DEFPOINTS
 62
     0
100
AcDbPoint
 10
15.5205465363141
 20
8.780487409862487
 30
0.0
  0
POINT
  5
5CDE
330
21FE
100
AcDbEntity
  8
DEFPOINTS
 62
     0
100
AcDbPoint
 10
15.5205465363141
 20
20.59248740986247
 30
0.0
  0
POINT
  5
5CDF
330
21FE
100
AcDbEntity
  8
DEFPOINTS
 62
     0
100
AcDbPoint
 10
18.16701845908022
 20
20.59248740986247
 30
0.0
  0
ENDBLK
  5
220A
330
21FE
100
AcDbEntity
  8
0
100
AcDbBlockEnd
  0
BLOCK
  5
2217
330
220C
100
AcDbEntity
  8
0
100
AcDbBlockBegin
  2
*D7
 70
     1
 10
0.0
 20
0.0
 30
0.0
  3
*D7
  1

  0
LINE
  5
5BEE
330
220C
100
AcDbEntity
  8
DIM
 62
     0
370
    -2
100
AcDbLine
 10
6.682546536314113
 20
20.56348740986245
 30
0.0
 11
6.682546536314113
 21
21.61548740986245
 31
0.0
  0
LINE
  5
5BEF
330
220C
100
AcDbEntity
  8
DIM
 62
     0
370
    -2
100
AcDbLine
 10
11.2105465363141
 20
20.29848740986244
 30
0.0
 11
11.2105465363141
 21
21.61548740986245
 31
0.0
  0
LINE
  5
5BF0
330
220C
100
AcDbEntity
  8
DIM
 62
     0
370
    -2
100
AcDbLine
 10
7.222546536314113
 20
21.33648740986245
 30
0.0
 11
8.114046536314109
 21
21.33648740986245
 31
0.0
  0
LINE
  5
5BF1
330
220C
100
AcDbEntity
  8
DIM
 62
     0
370
    -2
100
AcDbLine
 10
10.6705465363141
 20
21.33648740986245
 30
0.0
 11
9.779046536314108
 21
21.33648740986245
 31
0.0
  0
SOLID
  5
5BF2
330
220C
100
AcDbEntity
  8
DIM
 62
     0
100
AcDbTrace
 10
7.222546536314113
 20
21.42648740986245
 30
0.0
 11
7.222546536314113
 21
21.24648740986244
 31
0.0
 12
6.682546536314113
 22
21.33648740986245
 32
0.0
 13
6.682546536314113
 23
21.33648740986245
 33
0.0
  0
SOLID
  5
5BF3
330
220C
100
AcDbEntity
  8
DIM
 62
     0
100
AcDbTrace
 10
10.6705465363141
 20
21.42648740986245
 30
0.0
 11
10.6705465363141
 21
21.24648740986244
 31
0.0
 12
11.2105465363141
 22
21.33648740986245
 32
0.0
 13
11.2105465363141
 23
21.33648740986245
 33
0.0
  0
MTEXT
  5
5BF4
330
220C
100
AcDbEntity
  8
DIM
 62
     0
100
AcDbMText
 10
8.946546536314109
 20
21.33648740986245
 30
0.0
 40
0.375
 41
0.0
 71
     5
 72
     1
  1
\A1;4.528
 73
     1
 44
1.0
  0
POINT
  5
5BF5
330
220C
100
AcDbEntity
  8
DEFPOINTS
 62
     0
100
AcDbPoint
 10
6.682546536314113
 20
20.37448740986245
 30
0.0
  0
POINT
  5
5BF6
330
220C
100
AcDbEntity
  8
DEFPOINTS
 62
     0
100
AcDbPoint
 10
11.2105465363141
 20
20.10948740986244
 30
0.0
  0
POINT
  5
5BF7
330
220C
100
AcDbEntity
  8
DEFPOINTS
 62
     0
100
AcDbPoint
 10
11.2105465363141
 20
21.33648740986245
 30
0.0
  0
ENDBLK
  5
2218
330
220C
100
AcDbEntity
  8
0
100
AcDbBlockEnd
  0
BLOCK
  5
2225
330
221A
100
AcDbEntity
  8
0
100
AcDbBlockBegin
  2
*D8
 70
     1
 10
0.0
 20
0.0
 30
0.0
  3
*D8
  1

  0
LINE
  5
5BE4
330
221A
100
AcDbEntity
  8
DIM
 62
     0
370
    -2
100
AcDbLine
 10
6.682546536314113
 20
20.56348740986241
 30
0.0
 11
6.682546536314113
 21
23.92643998715959
 31
0.0
  0
LINE
  5
5BE5
330
221A
100
AcDbEntity
  8
DIM
 62
     0
370
    -2
100
AcDbLine
 10
15.73854653631412
 20
20.56348740986241
 30
0.0
 11
15.73854653631412
 21
23.92643998715959
 31
0.0
  0
LINE
  5
5BE6
330
221A
100
AcDbEntity
  8
DIM
 62
     0
370
    -2
100
AcDbLine
 10
7.222546536314113
 20
23.64743998715959
 30
0.0
 11
10.40148403631411
 21
23.64743998715959
 31
0.0
  0
LINE
  5
5BE7
330
221A
100
AcDbEntity
  8
DIM
 62
     0
370
    -2
100
AcDbLine
 10
15.19854653631412
 20
23.64743998715959
 30
0.0
 11
12.01960903631411
 21
23.64743998715959
 31
0.0
  0
SOLID
  5
5BE8
330
221A
100
AcDbEntity
  8
DIM
 62
     0
100
AcDbTrace
 10
7.222546536314113
 20
23.73743998715959
 30
0.0
 11
7.222546536314113
 21
23.55743998715959
 31
0.0
 12
6.682546536314113
 22
23.64743998715959
 32
0.0
 13
6.682546536314113
 23
23.64743998715959
 33
0.0
  0
SOLID
  5
5BE9
330
221A
100
AcDbEntity
  8
DIM
 62
     0
100
AcDbTrace
 10
15.19854653631412
 20
23.73743998715959
 30
0.0
 11
15.19854653631412
 21
23.55743998715959
 31
0.0
 12
15.73854653631412
 22
23.64743998715959
 32
0.0
 13
15.73854653631412
 23
23.64743998715959
 33
0.0
  0
MTEXT
  5
5BEA
330
221A
100
AcDbEntity
  8
DIM
 62
     0
100
AcDbMText
 10
11.21054653631411
 20
23.64743998715959
 30
0.0
 40
0.375
 41
0.0
 71
     5
 72
     1
  1
\A1;9.056
 73
     1
 44
1.0
  0
POINT
  5
5BEB
330
221A
100
AcDbEntity
  8
DEFPOINTS
 62
     0
100
AcDbPoint
 10
6.682546536314113
 20
20.37448740986241
 30
0.0
  0
POINT
  5
5BEC
330
221A
100
AcDbEntity
  8
DEFPOINTS
 62
     0
100
AcDbPoint
 10
15.73854653631412
 20
20.37448740986241
 30
0.0
  0
POINT
  5
5BED
330
221A
100
AcDbEntity
  8
DEFPOINTS
 62
     0
100
AcDbPoint
 10
15.73854653631412
 20
23.64743998715959
 30
0.0
  0
ENDBLK
  5
2226
330
221A
100
AcDbEntity
  8
0
100
AcDbBlockEnd
  0
BLOCK
  5
2247
330
223C
100
AcDbEntity
  8
0
100
AcDbBlockBegin
  2
*D9
 70
     1
 10
0.0
 20
0.0
 30
0.0
  3
*D9
  1

  0
LINE
  5
5C3E
330
223C
100
AcDbEntity
  8
DIM
 62
     0
370
    -2
100
AcDbLine
 10
7.312546536314094
 20
16.54848740986246
 30
0.0
 11
7.312546536314094
 21
18.22248740986246
 31
0.0
  0
LINE
  5
5C3F
330
223C
100
AcDbEntity
  8
DIM
 62
     0
370
    -2
100
AcDbLine
 10
15.10854653631411
 20
16.54848740986246
 30
0.0
 11
15.10854653631411
 21
18.22248740986246
 31
0.0
  0
LINE
  5
5C40
330
223C
100
AcDbEntity
  8
DIM
 62
     0
370
    -2
100
AcDbLine
 10
7.852546536314094
 20
17.94348740986246
 30
0.0
 11
10.3780465363141
 21
17.94348740986246
 31
0.0
  0
LINE
  5
5C41
330
223C
100
AcDbEntity
  8
DIM
 62
     0
370
    -2
100
AcDbLine
 10
14.56854653631411
 20
17.94348740986246
 30
0.0
 11
12.0430465363141
 21
17.94348740986246
 31
0.0
  0
SOLID
  5
5C42
330
223C
100
AcDbEntity
  8
DIM
 62
     0
100
AcDbTrace
 10
7.852546536314094
 20
18.03348740986246
 30
0.0
 11
7.852546536314094
 21
17.85348740986246
 31
0.0
 12
7.312546536314094
 22
17.94348740986246
 32
0.0
 13
7.312546536314094
 23
17.94348740986246
 33
0.0
  0
SOLID
  5
5C43
330
223C
100
AcDbEntity
  8
DIM
 62
     0
100
AcDbTrace
 10
14.56854653631411
 20
18.03348740986246
 30
0.0
 11
14.56854653631411
 21
17.85348740986246
 31
0.0
 12
15.10854653631411
 22
17.94348740986246
 32
0.0
 13
15.10854653631411
 23
17.94348740986246
 33
0.0
  0
MTEXT
  5
5C44
330
223C
100
AcDbEntity
  8
DIM
 62
     0
100
AcDbMText
 10
11.2105465363141
 20
17.94348740986246
 30
0.0
 40
0.375
 41
0.0
 71
     5
 72
     1
  1
\A1;7.796
 73
     1
 44
1.0
  0
POINT
  5
5C45
330
223C
100
AcDbEntity
  8
DEFPOINTS
 62
     0
100
AcDbPoint
 10
7.312546536314094
 20
16.35948740986246
 30
0.0
  0
POINT
  5
5C46
330
223C
100
AcDbEntity
  8
DEFPOINTS
 62
     0
100
AcDbPoint
 10
15.10854653631411
 20
16.35948740986246
 30
0.0
  0
POINT
  5
5C47
330
223C
100
AcDbEntity
  8
DEFPOINTS
 62
     0
100
AcDbPoint
 10
15.10854653631411
 20
17.94348740986246
 30
0.0
  0
ENDBLK
  5
2248
330
223C
100
AcDbEntity
  8
0
100
AcDbBlockEnd
  0
BLOCK
  5
2254
330
224A
100
AcDbEntity
  8
0
100
AcDbBlockBegin
  2
*D10
 70
     1
 10
0.0
 20
0.0
 30
0.0
  3
*D10
  1

  0
LINE
  5
5C7B
330
224A
100
AcDbEntity
  8
DIM
 62
     0
370
    -2
100
AcDbLine
 10
7.123546536314094
 20
13.01348740986246
 30
0.0
 11
3.714294438288316
 21
13.01348740986246
 31
0.0
  0
LINE
  5
5C7C
330
224A
100
AcDbEntity
  8
DIM
 62
     0
370
    -2
100
AcDbLine
 10
7.123546536314094
 20
16.35948740986246
 30
0.0
 11
3.714294438288316
 21
16.35948740986246
 31
0.0
  0
LINE
  5
5C7D
330
224A
100
AcDbEntity
  8
DIM
 62
     0
370
    -2
100
AcDbLine
 10
3.993294438288316
 20
13.55348740986246
 30
0.0
 11
3.993294438288316
 21
14.22898740986246
 31
0.0
  0
LINE
  5
5C7E
330
224A
100
AcDbEntity
  8
DIM
 62
     0
370
    -2
100
AcDbLine
 10
3.993294438288316
 20
15.81948740986246
 30
0.0
 11
3.993294438288316
 21
15.14398740986246
 31
0.0
  0
SOLID
  5
5C7F
330
224A
100
AcDbEntity
  8
DIM
 62
     0
100
AcDbTrace
 10
3.903294438288316
 20
13.55348740986246
 30
0.0
 11
4.083294438288315
 21
13.55348740986246
 31
0.0
 12
3.993294438288316
 22
13.01348740986246
 32
0.0
 13
3.993294438288316
 23
13.01348740986246
 33
0.0
  0
SOLID
  5
5C80
330
224A
100
AcDbEntity
  8
DIM
 62
     0
100
AcDbTrace
 10
3.903294438288316
 20
15.81948740986246
 30
0.0
 11
4.083294438288316
 21
15.81948740986246
 31
0.0
 12
3.993294438288316
 22
16.35948740986246
 32
0.0
 13
3.993294438288316
 23
16.35948740986246
 33
0.0
  0
MTEXT
  5
5C81
330
224A
100
AcDbEntity
  8
DIM
 62
     0
100
AcDbMText
 10
3.993294438288313
 20
14.68648740986246
 30
0.0
 40
0.375
 41
0.0
 71
     5
 72
     1
  1
\A1;3.346
 73
     1
 44
1.0
  0
POINT
  5
5C82
330
224A
100
AcDbEntity
  8
DEFPOINTS
 62
     0
100
AcDbPoint
 10
7.312546536314094
 20
13.01348740986246
 30
0.0
  0
POINT
  5
5C83
330
224A
100
AcDbEntity
  8
DEFPOINTS
 62
     0
100
AcDbPoint
 10
7.312546536314094
 20
16.35948740986246
 30
0.0
  0
POINT
  5
5C84
330
224A
100
AcDbEntity
  8
DEFPOINTS
 62
     0
100
AcDbPoint
 10
3.993294438288316
 20
16.35948740986246
 30
0.0
  0
ENDBLK
  5
2255
330
224A
100
AcDbEntity
  8
0
100
AcDbBlockEnd
  0
BLOCK
  5
2262
330
2257
100
AcDbEntity
  8
0
100
AcDbBlockBegin
  2
*D11
 70
     1
 10
0.0
 20
0.0
 30
0.0
  3
*D11
  1

  0
LINE
  5
5C71
330
2257
100
AcDbEntity
  8
DIM
 62
     0
370
    -2
100
AcDbLine
 10
7.123546536314094
 20
9.676487409862463
 30
0.0
 11
2.5465536357089
 21
9.676487409862465
 31
0.0
  0
LINE
  5
5C72
330
2257
100
AcDbEntity
  8
DIM
 62
     0
370
    -2
100
AcDbLine
 10
7.123546536314094
 20
19.69648740986246
 30
0.0
 11
2.546553635708902
 21
19.69648740986246
 31
0.0
  0
LINE
  5
5C73
330
2257
100
AcDbEntity
  8
DIM
 62
     0
370
    -2
100
AcDbLine
 10
2.8255536357089
 20
10.21648740986246
 30
0.0
 11
2.825553635708901
 21
15.14398740986246
 31
0.0
  0
LINE
  5
5C74
330
2257
100
AcDbEntity
  8
DIM
 62
     0
370
    -2
100
AcDbLine
 10
2.825553635708902
 20
19.15648740986246
 30
0.0
 11
2.825553635708901
 21
16.05898740986246
 31
0.0
  0
SOLID
  5
5C75
330
2257
100
AcDbEntity
  8
DIM
 62
     0
100
AcDbTrace
 10
2.7355536357089
 20
10.21648740986246
 30
0.0
 11
2.9155536357089
 21
10.21648740986246
 31
0.0
 12
2.8255536357089
 22
9.676487409862465
 32
0.0
 13
2.8255536357089
 23
9.676487409862465
 33
0.0
  0
SOLID
  5
5C76
330
2257
100
AcDbEntity
  8
DIM
 62
     0
100
AcDbTrace
 10
2.735553635708902
 20
19.15648740986246
 30
0.0
 11
2.915553635708902
 21
19.15648740986246
 31
0.0
 12
2.825553635708902
 22
19.69648740986246
 32
0.0
 13
2.825553635708902
 23
19.69648740986246
 33
0.0
  0
MTEXT
  5
5C77
330
2257
100
AcDbEntity
  8
DIM
 62
     0
100
AcDbMText
 10
2.825553635708899
 20
15.60148740986246
 30
0.0
 40
0.375
 41
0.0
 71
     5
 72
     1
  1
\A1;10.020
 73
     1
 44
1.0
  0
POINT
  5
5C78
330
2257
100
AcDbEntity
  8
DEFPOINTS
 62
     0
100
AcDbPoint
 10
7.312546536314094
 20
9.676487409862463
 30
0.0
  0
POINT
  5
5C79
330
2257
100
AcDbEntity
  8
DEFPOINTS
 62
     0
100
AcDbPoint
 10
7.312546536314094
 20
19.69648740986246
 30
0.0
  0
POINT
  5
5C7A
330
2257
100
AcDbEntity
  8
DEFPOINTS
 62
     0
100
AcDbPoint
 10
2.825553635708902
 20
19.69648740986246
 30
0.0
  0
ENDBLK
  5
2263
330
2257
100
AcDbEntity
  8
0
100
AcDbBlockEnd
  0
BLOCK
  5
2270
330
2265
100
AcDbEntity
  8
0
100
AcDbBlockBegin
  2
*D12
 70
     1
 10
0.0
 20
0.0
 30
0.0
  3
*D12
  1

  0
LINE
  5
5C67
330
2265
100
AcDbEntity
  8
DIM
 62
     0
370
    -2
100
AcDbLine
 10
7.123546536314096
 20
13.01348740986246
 30
0.0
 11
5.496546536314105
 21
13.01348740986246
 31
0.0
  0
LINE
  5
5C68
330
2265
100
AcDbEntity
  8
DIM
 62
     0
370
    -2
100
AcDbLine
 10
6.612546536314106
 20
14.68648740986246
 30
0.0
 11
5.496546536314106
 21
14.68648740986246
 31
0.0
  0
LINE
  5
5C69
330
2265
100
AcDbEntity
  8
DIM
 62
     0
370
    -2
100
AcDbLine
 10
5.775546536314105
 20
12.47348740986246
 30
0.0
 11
5.775546536314105
 21
11.93348740986246
 31
0.0
  0
LINE
  5
5C6A
330
2265
100
AcDbEntity
  8
DIM
 62
     0
370
    -2
100
AcDbLine
 10
5.775546536314106
 20
15.22648740986246
 30
0.0
 11
5.775546536314106
 21
15.76648740986246
 31
0.0
  0
SOLID
  5
5C6B
330
2265
100
AcDbEntity
  8
DIM
 62
     0
100
AcDbTrace
 10
5.685546536314105
 20
12.47348740986246
 30
0.0
 11
5.865546536314105
 21
12.47348740986246
 31
0.0
 12
5.775546536314105
 22
13.01348740986246
 32
0.0
 13
5.775546536314105
 23
13.01348740986246
 33
0.0
  0
SOLID
  5
5C6C
330
2265
100
AcDbEntity
  8
DIM
 62
     0
100
AcDbTrace
 10
5.685546536314106
 20
15.22648740986246
 30
0.0
 11
5.865546536314106
 21
15.22648740986246
 31
0.0
 12
5.775546536314106
 22
14.68648740986246
 32
0.0
 13
5.775546536314106
 23
14.68648740986246
 33
0.0
  0
MTEXT
  5
5C6D
330
2265
100
AcDbEntity
  8
DIM
 62
     0
100
AcDbMText
 10
5.775546536314103
 20
13.84998740986246
 30
0.0
 40
0.375
 41
0.0
 71
     5
 72
     1
  1
\A1;1.673
 73
     1
 44
1.0
  0
POINT
  5
5C6E
330
2265
100
AcDbEntity
  8
DEFPOINTS
 62
     0
100
AcDbPoint
 10
7.312546536314096
 20
13.01348740986246
 30
0.0
  0
POINT
  5
5C6F
330
2265
100
AcDbEntity
  8
DEFPOINTS
 62
     0
100
AcDbPoint
 10
6.801546536314106
 20
14.68648740986246
 30
0.0
  0
POINT
  5
5C70
330
2265
100
AcDbEntity
  8
DEFPOINTS
 62
     0
100
AcDbPoint
 10
5.775546536314106
 20
14.68648740986246
 30
0.0
  0
ENDBLK
  5
2271
330
2265
100
AcDbEntity
  8
0
100
AcDbBlockEnd
  0
BLOCK
  5
227E
330
2273
100
AcDbEntity
  8
0
100
AcDbBlockBegin
  2
*D13
 70
     1
 10
0.0
 20
0.0
 30
0.0
  3
*D13
  1

  0
LINE
  5
5CEA
330
2273
100
AcDbEntity
  8
DIM
 62
     0
370
    -2
100
AcDbLine
 10
15.8085465363141
 20
14.68648740986246
 30
0.0
 11
17.16510546742617
 21
14.68648740986246
 31
0.0
  0
LINE
  5
5CEB
330
2273
100
AcDbEntity
  8
DIM
 62
     0
370
    -2
100
AcDbLine
 10
15.67554653631408
 20
20.33448740986247
 30
0.0
 11
17.16510546742617
 21
20.33448740986247
 31
0.0
  0
LINE
  5
5CEC
330
2273
100
AcDbEntity
  8
DIM
 62
     0
370
    -2
100
AcDbLine
 10
16.88610546742617
 20
15.22648740986246
 30
0.0
 11
16.88610546742617
 21
17.05298740986247
 31
0.0
  0
LINE
  5
5CED
330
2273
100
AcDbEntity
  8
DIM
 62
     0
370
    -2
100
AcDbLine
 10
16.88610546742617
 20
19.79448740986247
 30
0.0
 11
16.88610546742617
 21
17.96798740986247
 31
0.0
  0
SOLID
  5
5CEE
330
2273
100
AcDbEntity
  8
DIM
 62
     0
100
AcDbTrace
 10
16.79610546742617
 20
15.22648740986246
 30
0.0
 11
16.97610546742617
 21
15.22648740986246
 31
0.0
 12
16.88610546742617
 22
14.68648740986246
 32
0.0
 13
16.88610546742617
 23
14.68648740986246
 33
0.0
  0
SOLID
  5
5CEF
330
2273
100
AcDbEntity
  8
DIM
 62
     0
100
AcDbTrace
 10
16.79610546742617
 20
19.79448740986247
 30
0.0
 11
16.97610546742617
 21
19.79448740986247
 31
0.0
 12
16.88610546742617
 22
20.33448740986247
 32
0.0
 13
16.88610546742617
 23
20.33448740986247
 33
0.0
  0
MTEXT
  5
5CF0
330
2273
100
AcDbEntity
  8
DIM
 62
     0
100
AcDbMText
 10
16.88610546742617
 20
17.51048740986247
 30
0.0
 40
0.375
 41
0.0
 71
     5
 72
     1
  1
\A1;5.648
 73
     1
 44
1.0
  0
POINT
  5
5CF1
330
2273
100
AcDbEntity
  8
DEFPOINTS
 62
     0
100
AcDbPoint
 10
15.6195465363141
 20
14.68648740986246
 30
0.0
  0
POINT
  5
5CF2
330
2273
100
AcDbEntity
  8
DEFPOINTS
 62
     0
100
AcDbPoint
 10
15.48654653631408
 20
20.33448740986247
 30
0.0
  0
POINT
  5
5CF3
330
2273
100
AcDbEntity
  8
DEFPOINTS
 62
     0
100
AcDbPoint
 10
16.88610546742617
 20
20.33448740986247
 30
0.0
  0
ENDBLK
  5
227F
330
2273
100
AcDbEntity
  8
0
100
AcDbBlockEnd
  0
BLOCK
  5
228C
330
2281
100
AcDbEntity
  8
0
100
AcDbBlockBegin
  2
*D14
 70
     1
 10
0.0
 20
0.0
 30
0.0
  3
*D14
  1

  0
LINE
  5
5C0C
330
2281
100
AcDbEntity
  8
DIM
 62
     0
370
    -2
100
AcDbLine
 10
15.20354653631411
 20
14.68648740986244
 30
0.0
 11
13.38479133653678
 21
14.68648740986244
 31
0.0
  0
LINE
  5
5C0D
330
2281
100
AcDbEntity
  8
DIM
 62
     0
370
    -2
100
AcDbLine
 10
11.3995465363141
 20
9.263487409862474
 30
0.0
 11
13.94279133653678
 21
9.263487409862472
 31
0.0
  0
LINE
  5
5C0E
330
2281
100
AcDbEntity
  8
DIM
 62
     0
370
    -2
100
AcDbLine
 10
13.66379133653678
 20
14.14648740986244
 30
0.0
 11
13.66379133653678
 21
12.47373740986247
 31
0.0
  0
LINE
  5
5C0F
330
2281
100
AcDbEntity
  8
DIM
 62
     0
370
    -2
100
AcDbLine
 10
13.66379133653678
 20
9.803487409862473
 30
0.0
 11
13.66379133653678
 21
11.55873740986247
 31
0.0
  0
SOLID
  5
5C10
330
2281
100
AcDbEntity
  8
DIM
 62
     0
100
AcDbTrace
 10
13.57379133653678
 20
14.14648740986244
 30
0.0
 11
13.75379133653678
 21
14.14648740986244
 31
0.0
 12
13.66379133653678
 22
14.68648740986244
 32
0.0
 13
13.66379133653678
 23
14.68648740986244
 33
0.0
  0
SOLID
  5
5C11
330
2281
100
AcDbEntity
  8
DIM
 62
     0
100
AcDbTrace
 10
13.57379133653678
 20
9.803487409862473
 30
0.0
 11
13.75379133653678
 21
9.803487409862473
 31
0.0
 12
13.66379133653678
 22
9.263487409862472
 32
0.0
 13
13.66379133653678
 23
9.263487409862472
 33
0.0
  0
MTEXT
  5
5C12
330
2281
100
AcDbEntity
  8
DIM
 62
     0
100
AcDbMText
 10
13.66379133653677
 20
12.01623740986247
 30
0.0
 40
0.375
 41
0.0
 71
     5
 72
     1
  1
\A1;5.423
 73
     1
 44
1.0
  0
POINT
  5
5C13
330
2281
100
AcDbEntity
  8
DEFPOINTS
 62
     0
100
AcDbPoint
 10
15.39254653631411
 20
14.68648740986244
 30
0.0
  0
POINT
  5
5C14
330
2281
100
AcDbEntity
  8
DEFPOINTS
 62
     0
100
AcDbPoint
 10
11.2105465363141
 20
9.263487409862474
 30
0.0
  0
POINT
  5
5C15
330
2281
100
AcDbEntity
  8
DEFPOINTS
 62
     0
100
AcDbPoint
 10
13.66379133653678
 20
9.263487409862472
 30
0.0
  0
ENDBLK
  5
228D
330
2281
100
AcDbEntity
  8
0
100
AcDbBlockEnd
  0
BLOCK
  5
229A
330
228F
100
AcDbEntity
  8
0
100
AcDbBlockBegin
  2
*D15
 70
     1
 10
0.0
 20
0.0
 30
0.0
  3
*D15
  1

  0
LINE
  5
5C16
330
228F
100
AcDbEntity
  8
DIM
 62
     0
370
    -2
100
AcDbLine
 10
11.3995465363141
 20
9.263487409862474
 30
0.0
 11
12.63796933610102
 21
9.263487409862472
 31
0.0
  0
LINE
  5
5C17
330
228F
100
AcDbEntity
  8
DIM
 62
     0
370
    -2
100
AcDbLine
 10
11.3995465363141
 20
20.10948740986247
 30
0.0
 11
12.63796933610103
 21
20.10948740986247
 31
0.0
  0
LINE
  5
5C18
330
228F
100
AcDbEntity
  8
DIM
 62
     0
370
    -2
100
AcDbLine
 10
12.35896933610102
 20
9.803487409862473
 30
0.0
 11
12.35896933610102
 21
14.22898740986247
 31
0.0
  0
LINE
  5
5C19
330
228F
100
AcDbEntity
  8
DIM
 62
     0
370
    -2
100
AcDbLine
 10
12.35896933610102
 20
19.56948740986247
 30
0.0
 11
12.35896933610102
 21
15.14398740986247
 31
0.0
  0
SOLID
  5
5C1A
330
228F
100
AcDbEntity
  8
DIM
 62
     0
100
AcDbTrace
 10
12.26896933610102
 20
9.803487409862473
 30
0.0
 11
12.44896933610102
 21
9.803487409862473
 31
0.0
 12
12.35896933610102
 22
9.263487409862472
 32
0.0
 13
12.35896933610102
 23
9.263487409862472
 33
0.0
  0
SOLID
  5
5C1B
330
228F
100
AcDbEntity
  8
DIM
 62
     0
100
AcDbTrace
 10
12.26896933610102
 20
19.56948740986247
 30
0.0
 11
12.44896933610102
 21
19.56948740986247
 31
0.0
 12
12.35896933610103
 22
20.10948740986247
 32
0.0
 13
12.35896933610103
 23
20.10948740986247
 33
0.0
  0
MTEXT
  5
5C1C
330
228F
100
AcDbEntity
  8
DIM
 62
     0
100
AcDbMText
 10
12.35896933610102
 20
14.68648740986247
 30
0.0
 40
0.375
 41
0.0
 71
     5
 72
     1
  1
\A1;10.846
 73
     1
 44
1.0
  0
POINT
  5
5C1D
330
228F
100
AcDbEntity
  8
DEFPOINTS
 62
     0
100
AcDbPoint
 10
11.2105465363141
 20
9.263487409862474
 30
0.0
  0
POINT
  5
5C1E
330
228F
100
AcDbEntity
  8
DEFPOINTS
 62
     0
100
AcDbPoint
 10
11.2105465363141
 20
20.10948740986247
 30
0.0
  0
POINT
  5
5C1F
330
228F
100
AcDbEntity
  8
DEFPOINTS
 62
     0
100
AcDbPoint
 10
12.35896933610103
 20
20.10948740986247
 30
0.0
  0
ENDBLK
  5
229B
330
228F
100
AcDbEntity
  8
0
100
AcDbBlockEnd
  0
BLOCK
  5
22A8
330
229D
100
AcDbEntity
  8
0
100
AcDbBlockBegin
  2
*D16
 70
     1
 10
0.0
 20
0.0
 30
0.0
  3
*D16
  1

  0
LINE
  5
5C53
330
229D
100
AcDbEntity
  8
DIM
 62
     0
370
    -2
100
AcDbLine
 10
6.727546536314079
 20
20.09248740986245
 30
0.0
 11
1.472076616108582
 21
20.09248740986245
 31
0.0
  0
LINE
  5
5C54
330
229D
100
AcDbEntity
  8
DIM
 62
     0
370
    -2
100
AcDbLine
 10
6.727546536314079
 20
9.280487409862475
 30
0.0
 11
1.472076616108579
 21
9.280487409862477
 31
0.0
  0
LINE
  5
5C55
330
229D
100
AcDbEntity
  8
DIM
 62
     0
370
    -2
100
AcDbLine
 10
1.751076616108582
 20
19.55248740986245
 30
0.0
 11
1.75107661610858
 21
15.14398740986246
 31
0.0
  0
LINE
  5
5C56
330
229D
100
AcDbEntity
  8
DIM
 62
     0
370
    -2
100
AcDbLine
 10
1.751076616108579
 20
9.820487409862476
 30
0.0
 11
1.75107661610858
 21
14.22898740986246
 31
0.0
  0
SOLID
  5
5C57
330
229D
100
AcDbEntity
  8
DIM
 62
     0
100
AcDbTrace
 10
1.661076616108581
 20
19.55248740986245
 30
0.0
 11
1.841076616108582
 21
19.55248740986245
 31
0.0
 12
1.751076616108582
 22
20.09248740986245
 32
0.0
 13
1.751076616108582
 23
20.09248740986245
 33
0.0
  0
SOLID
  5
5C58
330
229D
100
AcDbEntity
  8
DIM
 62
     0
100
AcDbTrace
 10
1.661076616108579
 20
9.820487409862476
 30
0.0
 11
1.841076616108579
 21
9.820487409862476
 31
0.0
 12
1.751076616108579
 22
9.280487409862477
 32
0.0
 13
1.751076616108579
 23
9.280487409862477
 33
0.0
  0
MTEXT
  5
5C59
330
229D
100
AcDbEntity
  8
DIM
 62
     0
100
AcDbMText
 10
1.751076616108578
 20
14.68648740986246
 30
0.0
 40
0.375
 41
0.0
 71
     5
 72
     1
  1
\A1;10.812
 73
     1
 44
1.0
  0
POINT
  5
5C5A
330
229D
100
AcDbEntity
  8
DEFPOINTS
 62
     0
100
AcDbPoint
 10
6.916546536314079
 20
20.09248740986245
 30
0.0
  0
POINT
  5
5C5B
330
229D
100
AcDbEntity
  8
DEFPOINTS
 62
     0
100
AcDbPoint
 10
6.916546536314079
 20
9.280487409862475
 30
0.0
  0
POINT
  5
5C5C
330
229D
100
AcDbEntity
  8
DEFPOINTS
 62
     0
100
AcDbPoint
 10
1.751076616108579
 20
9.280487409862477
 30
0.0
  0
ENDBLK
  5
22A9
330
229D
100
AcDbEntity
  8
0
100
AcDbBlockEnd
  0
BLOCK
  5
22B6
330
22AB
100
AcDbEntity
  8
0
100
AcDbBlockBegin
  2
*D17
 70
     1
 10
0.0
 20
0.0
 30
0.0
  3
*D17
  1

  0
LINE
  5
5C34
330
22AB
100
AcDbEntity
  8
DIM
 62
     0
370
    -2
100
AcDbLine
 10
7.18254653631409
 20
14.87548740986246
 30
0.0
 11
7.18254653631409
 21
15.7963172022393
 31
0.0
  0
LINE
  5
5C35
330
22AB
100
AcDbEntity
  8
DIM
 62
     0
370
    -2
100
AcDbLine
 10
15.23854653631411
 20
14.87548740986246
 30
0.0
 11
15.23854653631411
 21
15.7963172022393
 31
0.0
  0
LINE
  5
5C36
330
22AB
100
AcDbEntity
  8
DIM
 62
     0
370
    -2
100
AcDbLine
 10
7.72254653631409
 20
15.5173172022393
 30
0.0
 11
10.4014840363141
 21
15.5173172022393
 31
0.0
  0
LINE
  5
5C37
330
22AB
100
AcDbEntity
  8
DIM
 62
     0
370
    -2
100
AcDbLine
 10
14.69854653631411
 20
15.5173172022393
 30
0.0
 11
12.0196090363141
 21
15.5173172022393
 31
0.0
  0
SOLID
  5
5C38
330
22AB
100
AcDbEntity
  8
DIM
 62
     0
100
AcDbTrace
 10
7.72254653631409
 20
15.6073172022393
 30
0.0
 11
7.72254653631409
 21
15.4273172022393
 31
0.0
 12
7.18254653631409
 22
15.5173172022393
 32
0.0
 13
7.18254653631409
 23
15.5173172022393
 33
0.0
  0
SOLID
  5
5C39
330
22AB
100
AcDbEntity
  8
DIM
 62
     0
100
AcDbTrace
 10
14.69854653631411
 20
15.6073172022393
 30
0.0
 11
14.69854653631411
 21
15.4273172022393
 31
0.0
 12
15.23854653631411
 22
15.5173172022393
 32
0.0
 13
15.23854653631411
 23
15.5173172022393
 33
0.0
  0
MTEXT
  5
5C3A
330
22AB
100
AcDbEntity
  8
DIM
 62
     0
100
AcDbMText
 10
11.2105465363141
 20
15.5173172022393
 30
0.0
 40
0.375
 41
0.0
 71
     5
 72
     1
  1
\A1;8.056
 73
     1
 44
1.0
  0
POINT
  5
5C3B
330
22AB
100
AcDbEntity
  8
DEFPOINTS
 62
     0
100
AcDbPoint
 10
7.18254653631409
 20
14.68648740986246
 30
0.0
  0
POINT
  5
5C3C
330
22AB
100
AcDbEntity
  8
DEFPOINTS
 62
     0
100
AcDbPoint
 10
15.23854653631411
 20
14.68648740986246
 30
0.0
  0
POINT
  5
5C3D
330
22AB
100
AcDbEntity
  8
DEFPOINTS
 62
     0
100
AcDbPoint
 10
15.23854653631411
 20
15.5173172022393
 30
0.0
  0
ENDBLK
  5
22B7
330
22AB
100
AcDbEntity
  8
0
100
AcDbBlockEnd
  0
BLOCK
  5
22C4
330
22B9
100
AcDbEntity
  8
0
100
AcDbBlockBegin
  2
*D18
 70
     1
 10
0.0
 20
0.0
 30
0.0
  3
*D18
  1

  0
LINE
  5
5C2A
330
22B9
100
AcDbEntity
  8
DIM
 62
     0
370
    -2
100
AcDbLine
 10
15.59854653631408
 20
11.23140228897274
 30
0.0
 11
15.59854653631408
 21
10.95240228897274
 31
0.0
  0
LINE
  5
5C2B
330
22B9
100
AcDbEntity
  8
DIM
 62
     0
370
    -2
100
AcDbLine
 10
6.822546536314085
 20
11.23140228897274
 30
0.0
 11
6.822546536314085
 21
10.95240228897274
 31
0.0
  0
LINE
  5
5C2C
330
22B9
100
AcDbEntity
  8
DIM
 62
     0
370
    -2
100
AcDbLine
 10
15.05854653631408
 20
11.23140228897274
 30
0.0
 11
12.04304653631408
 21
11.23140228897274
 31
0.0
  0
LINE
  5
5C2D
330
22B9
100
AcDbEntity
  8
DIM
 62
     0
370
    -2
100
AcDbLine
 10
7.362546536314085
 20
11.23140228897274
 30
0.0
 11
10.37804653631408
 21
11.23140228897274
 31
0.0
  0
SOLID
  5
5C2E
330
22B9
100
AcDbEntity
  8
DIM
 62
     0
100
AcDbTrace
 10
15.05854653631408
 20
11.32140228897274
 30
0.0
 11
15.05854653631408
 21
11.14140228897275
 31
0.0
 12
15.59854653631408
 22
11.23140228897274
 32
0.0
 13
15.59854653631408
 23
11.23140228897274
 33
0.0
  0
SOLID
  5
5C2F
330
22B9
100
AcDbEntity
  8
DIM
 62
     0
100
AcDbTrace
 10
7.362546536314085
 20
11.32140228897274
 30
0.0
 11
7.362546536314085
 21
11.14140228897275
 31
0.0
 12
6.822546536314085
 22
11.23140228897274
 32
0.0
 13
6.822546536314085
 23
11.23140228897274
 33
0.0
  0
MTEXT
  5
5C30
330
22B9
100
AcDbEntity
  8
DIM
 62
     0
100
AcDbMText
 10
11.21054653631408
 20
11.23140228897274
 30
0.0
 40
0.375
 41
0.0
 71
     5
 72
     1
  1
\A1;8.776
 73
     1
 44
1.0
  0
POINT
  5
5C31
330
22B9
100
AcDbEntity
  8
DEFPOINTS
 62
     0
100
AcDbPoint
 10
15.59854653631408
 20
11.42040228897274
 30
0.0
  0
POINT
  5
5C32
330
22B9
100
AcDbEntity
  8
DEFPOINTS
 62
     0
100
AcDbPoint
 10
6.822546536314085
 20
11.42040228897274
 30
0.0
  0
POINT
  5
5C33
330
22B9
100
AcDbEntity
  8
DEFPOINTS
 62
     0
100
AcDbPoint
 10
6.822546536314085
 20
11.23140228897274
 30
0.0
  0
ENDBLK
  5
22C5
330
22B9
100
AcDbEntity
  8
0
100
AcDbBlockEnd
  0
BLOCK
  5
22D2
330
22C7
100
AcDbEntity
  8
0
100
AcDbBlockBegin
  2
*D19
 70
     1
 10
0.0
 20
0.0
 30
0.0
  3
*D19
  1

  0
LINE
  5
5BD9
330
22C7
100
AcDbEntity
  8
DIM
 62
     0
370
    -2
100
AcDbLine
 10
6.727546536314079
 20
20.09248740986245
 30
0.0
 11
1.472076616108576
 21
20.09248740986245
 31
0.0
  0
LINE
  5
5BDA
330
22C7
100
AcDbEntity
  8
DIM
 62
     0
370
    -2
100
AcDbLine
 10
6.711546536314088
 20
20.59248740986247
 30
0.0
 11
1.472076616108577
 21
20.59248740986247
 31
0.0
  0
LINE
  5
5BDB
330
22C7
100
AcDbEntity
  8
DIM
 62
     0
370
    -2
100
AcDbLine
 10
1.751076616108576
 20
19.55248740986245
 30
0.0
 11
1.751076616108576
 21
19.01248740986245
 31
0.0
  0
LINE
  5
5BDC
330
22C7
100
AcDbEntity
  8
DIM
 62
     0
370
    -2
100
AcDbLine
 10
1.751076616108576
 20
21.13248740986247
 30
0.0
 11
1.751076616108577
 21
21.67248740986246
 31
0.0
  0
LINE
  5
5BDD
330
22C7
100
AcDbEntity
  8
DIM
 62
     0
370
    -2
100
AcDbLine
 10
1.751076616108577
 20
21.67248740986246
 30
0.0
 11
2.291076616108577
 21
21.67248740986246
 31
0.0
  0
SOLID
  5
5BDE
330
22C7
100
AcDbEntity
  8
DIM
 62
     0
100
AcDbTrace
 10
1.661076616108576
 20
19.55248740986245
 30
0.0
 11
1.841076616108576
 21
19.55248740986245
 31
0.0
 12
1.751076616108576
 22
20.09248740986245
 32
0.0
 13
1.751076616108576
 23
20.09248740986245
 33
0.0
  0
SOLID
  5
5BDF
330
22C7
100
AcDbEntity
  8
DIM
 62
     0
100
AcDbTrace
 10
1.661076616108576
 20
21.13248740986247
 30
0.0
 11
1.841076616108576
 21
21.13248740986247
 31
0.0
 12
1.751076616108576
 22
20.59248740986247
 32
0.0
 13
1.751076616108576
 23
20.59248740986247
 33
0.0
  0
MTEXT
  5
5BE0
330
22C7
100
AcDbEntity
  8
DIM
 62
     0
100
AcDbMText
 10
3.053264116108573
 20
21.67248740986246
 30
0.0
 40
0.375
 41
0.0
 71
     5
 72
     1
  1
\A1;0.500
 73
     1
 44
1.0
  0
POINT
  5
5BE1
330
22C7
100
AcDbEntity
  8
DEFPOINTS
 62
     0
100
AcDbPoint
 10
6.916546536314079
 20
20.09248740986245
 30
0.0
  0
POINT
  5
5BE2
330
22C7
100
AcDbEntity
  8
DEFPOINTS
 62
     0
100
AcDbPoint
 10
6.900546536314088
 20
20.59248740986247
 30
0.0
  0
POINT
  5
5BE3
330
22C7
100
AcDbEntity
  8
DEFPOINTS
 62
     0
100
AcDbPoint
 10
1.751076616108576
 20
20.59248740986247
 30
0.0
  0
ENDBLK
  5
22D3
330
22C7
100
AcDbEntity
  8
0
100
AcDbBlockEnd
  0
BLOCK
  5
22E0
330
22D5
100
AcDbEntity
  8
0
100
AcDbBlockBegin
  2
*D20
 70
     1
 10
0.0
 20
0.0
 30
0.0
  3
*D20
  1

  0
LINE
  5
5C20
330
22D5
100
AcDbEntity
  8
DIM
 62
     0
370
    -2
100
AcDbLine
 10
14.86354653631411
 20
20.15348740986245
 30
0.0
 11
14.86354653631411
 21
18.74170388826419
 31
0.0
  0
LINE
  5
5C21
330
22D5
100
AcDbEntity
  8
DIM
 62
     0
370
    -2
100
AcDbLine
 10
7.557546536314097
 20
20.15348740986245
 30
0.0
 11
7.557546536314097
 21
18.74170388826419
 31
0.0
  0
LINE
  5
5C22
330
22D5
100
AcDbEntity
  8
DIM
 62
     0
370
    -2
100
AcDbLine
 10
14.32354653631411
 20
19.02070388826419
 30
0.0
 11
12.0196090363141
 21
19.02070388826419
 31
0.0
  0
LINE
  5
5C23
330
22D5
100
AcDbEntity
  8
DIM
 62
     0
370
    -2
100
AcDbLine
 10
8.097546536314098
 20
19.02070388826419
 30
0.0
 11
10.4014840363141
 21
19.02070388826419
 31
0.0
  0
SOLID
  5
5C24
330
22D5
100
AcDbEntity
  8
DIM
 62
     0
100
AcDbTrace
 10
14.32354653631411
 20
19.11070388826419
 30
0.0
 11
14.32354653631411
 21
18.93070388826419
 31
0.0
 12
14.86354653631411
 22
19.02070388826419
 32
0.0
 13
14.86354653631411
 23
19.02070388826419
 33
0.0
  0
SOLID
  5
5C25
330
22D5
100
AcDbEntity
  8
DIM
 62
     0
100
AcDbTrace
 10
8.097546536314098
 20
19.11070388826419
 30
0.0
 11
8.097546536314098
 21
18.93070388826419
 31
0.0
 12
7.557546536314097
 22
19.02070388826419
 32
0.0
 13
7.557546536314097
 23
19.02070388826419
 33
0.0
  0
MTEXT
  5
5C26
330
22D5
100
AcDbEntity
  8
DIM
 62
     0
100
AcDbMText
 10
11.2105465363141
 20
19.02070388826419
 30
0.0
 40
0.375
 41
0.0
 71
     5
 72
     1
  1
\A1;7.306
 73
     1
 44
1.0
  0
POINT
  5
5C27
330
22D5
100
AcDbEntity
  8
DEFPOINTS
 62
     0
100
AcDbPoint
 10
14.86354653631411
 20
20.34248740986245
 30
0.0
  0
POINT
  5
5C28
330
22D5
100
AcDbEntity
  8
DEFPOINTS
 62
     0
100
AcDbPoint
 10
7.557546536314097
 20
20.34248740986245
 30
0.0
  0
POINT
  5
5C29
330
22D5
100
AcDbEntity
  8
DEFPOINTS
 62
     0
100
AcDbPoint
 10
7.557546536314097
 20
19.02070388826419
 30
0.0
  0
ENDBLK
  5
22E1
330
22D5
100
AcDbEntity
  8
0
100
AcDbBlockEnd
  0
BLOCK
  5
22FC
330
22F1
100
AcDbEntity
  8
0
100
AcDbBlockBegin
  2
*D21
 70
     1
 10
0.0
 20
0.0
 30
0.0
  3
*D21
  1

  0
LINE
  5
5C5D
330
22F1
100
AcDbEntity
  8
DIM
 62
     0
370
    -2
100
AcDbLine
 10
7.840546536314096
 20
8.920487409862476
 30
0.0
 11
9.584967488275024
 21
8.920487409862476
 31
0.0
  0
LINE
  5
5C5E
330
22F1
100
AcDbEntity
  8
DIM
 62
     0
370
    -2
100
AcDbLine
 10
7.840546536314096
 20
20.45248740986247
 30
0.0
 11
9.584967488275028
 21
20.45248740986246
 31
0.0
  0
LINE
  5
5C5F
330
22F1
100
AcDbEntity
  8
DIM
 62
     0
370
    -2
100
AcDbLine
 10
9.305967488275024
 20
9.460487409862475
 30
0.0
 11
9.305967488275026
 21
14.22898740986247
 31
0.0
  0
LINE
  5
5C60
330
22F1
100
AcDbEntity
  8
DIM
 62
     0
370
    -2
100
AcDbLine
 10
9.305967488275026
 20
19.91248740986247
 30
0.0
 11
9.305967488275026
 21
15.14398740986247
 31
0.0
  0
SOLID
  5
5C61
330
22F1
100
AcDbEntity
  8
DIM
 62
     0
100
AcDbTrace
 10
9.215967488275024
 20
9.460487409862475
 30
0.0
 11
9.395967488275024
 21
9.460487409862475
 31
0.0
 12
9.305967488275024
 22
8.920487409862476
 32
0.0
 13
9.305967488275024
 23
8.920487409862476
 33
0.0
  0
SOLID
  5
5C62
330
22F1
100
AcDbEntity
  8
DIM
 62
     0
100
AcDbTrace
 10
9.215967488275026
 20
19.91248740986247
 30
0.0
 11
9.395967488275026
 21
19.91248740986247
 31
0.0
 12
9.305967488275028
 22
20.45248740986246
 32
0.0
 13
9.305967488275028
 23
20.45248740986246
 33
0.0
  0
MTEXT
  5
5C63
330
22F1
100
AcDbEntity
  8
DIM
 62
     0
100
AcDbMText
 10
9.305967488275024
 20
14.68648740986247
 30
0.0
 40
0.375
 41
0.0
 71
     5
 72
     1
  1
\A1;11.532
 73
     1
 44
1.0
  0
POINT
  5
5C64
330
22F1
100
AcDbEntity
  8
DEFPOINTS
 62
     0
100
AcDbPoint
 10
7.651546536314096
 20
8.920487409862476
 30
0.0
  0
POINT
  5
5C65
330
22F1
100
AcDbEntity
  8
DEFPOINTS
 62
     0
100
AcDbPoint
 10
7.651546536314096
 20
20.45248740986247
 30
0.0
  0
POINT
  5
5C66
330
22F1
100
AcDbEntity
  8
DEFPOINTS
 62
     0
100
AcDbPoint
 10
9.305967488275028
 20
20.45248740986246
 30
0.0
  0
ENDBLK
  5
22FD
330
22F1
100
AcDbEntity
  8
0
100
AcDbBlockEnd
  0
BLOCK
  5
2309
330
22FF
100
AcDbEntity
  8
0
100
AcDbBlockBegin
  2
*D22
 70
     1
 10
0.0
 20
0.0
 30
0.0
  3
*D22
  1

  0
LINE
  5
5BCF
330
22FF
100
AcDbEntity
  8
DIM
 62
     0
370
    -2
100
AcDbLine
 10
22.32873240228527
 20
20.71948740986247
 30
0.0
 11
22.32873240228527
 21
21.51848740986243
 31
0.0
  0
LINE
  5
5BD0
330
22FF
100
AcDbEntity
  8
DIM
 62
     0
370
    -2
100
AcDbLine
 10
20.04873240228527
 20
20.68148740986243
 30
0.0
 11
20.04873240228527
 21
21.51848740986243
 31
0.0
  0
LINE
  5
5BD1
330
22FF
100
AcDbEntity
  8
DIM
 62
     0
370
    -2
100
AcDbLine
 10
22.86873240228527
 20
21.23948740986243
 30
0.0
 11
23.40873240228527
 21
21.23948740986243
 31
0.0
  0
LINE
  5
5BD2
330
22FF
100
AcDbEntity
  8
DIM
 62
     0
370
    -2
100
AcDbLine
 10
19.50873240228527
 20
21.23948740986243
 30
0.0
 11
18.96873240228527
 21
21.23948740986243
 31
0.0
  0
SOLID
  5
5BD3
330
22FF
100
AcDbEntity
  8
DIM
 62
     0
100
AcDbTrace
 10
22.86873240228527
 20
21.32948740986243
 30
0.0
 11
22.86873240228527
 21
21.14948740986243
 31
0.0
 12
22.32873240228527
 22
21.23948740986243
 32
0.0
 13
22.32873240228527
 23
21.23948740986243
 33
0.0
  0
SOLID
  5
5BD4
330
22FF
100
AcDbEntity
  8
DIM
 62
     0
100
AcDbTrace
 10
19.50873240228527
 20
21.32948740986243
 30
0.0
 11
19.50873240228527
 21
21.14948740986243
 31
0.0
 12
20.04873240228527
 22
21.23948740986243
 32
0.0
 13
20.04873240228527
 23
21.23948740986243
 33
0.0
  0
MTEXT
  5
5BD5
330
22FF
100
AcDbEntity
  8
DIM
 62
     0
100
AcDbMText
 10
21.18873240228527
 20
21.23948740986243
 30
0.0
 40
0.375
 41
0.0
 71
     5
 72
     1
  1
\A1;2.280
 73
     1
 44
1.0
  0
POINT
  5
5BD6
330
22FF
100
AcDbEntity
  8
DEFPOINTS
 62
     0
100
AcDbPoint
 10
22.32873240228527
 20
20.53048740986247
 30
0.0
  0
POINT
  5
5BD7
330
22FF
100
AcDbEntity
  8
DEFPOINTS
 62
     0
100
AcDbPoint
 10
20.04873240228527
 20
20.49248740986243
 30
0.0
  0
POINT
  5
5BD8
330
22FF
100
AcDbEntity
  8
DEFPOINTS
 62
     0
100
AcDbPoint
 10
20.04873240228527
 20
21.23948740986243
 30
0.0
  0
ENDBLK
  5
230A
330
22FF
100
AcDbEntity
  8
0
100
AcDbBlockEnd
  0
BLOCK
  5
2354
330
2349
100
AcDbEntity
  8
0
100
AcDbBlockBegin
  2
*D23
 70
     1
 10
0.0
 20
0.0
 30
0.0
  3
*D23
  1

  0
LINE
  5
5CCC
330
2349
100
AcDbEntity
  8
DIM
 62
     0
370
    -2
100
AcDbLine
 10
22.18873240228527
 20
11.48293970898424
 30
0.0
 11
22.18873240228527
 21
11.69893970898424
 31
0.0
  0
LINE
  5
5CCD
330
2349
100
AcDbEntity
  8
DIM
 62
     0
370
    -2
100
AcDbLine
 10
22.32873240228527
 20
11.48293970898424
 30
0.0
 11
22.32873240228527
 21
11.69893970898424
 31
0.0
  0
LINE
  5
5CCE
330
2349
100
AcDbEntity
  8
DIM
 62
     0
370
    -2
100
AcDbLine
 10
21.64873240228527
 20
11.41993970898424
 30
0.0
 11
21.10873240228527
 21
11.41993970898424
 31
0.0
  0
LINE
  5
5CCF
330
2349
100
AcDbEntity
  8
DIM
 62
     0
370
    -2
100
AcDbLine
 10
22.86873240228527
 20
11.41993970898424
 30
0.0
 11
23.40873240228527
 21
11.41993970898424
 31
0.0
  0
SOLID
  5
5CD0
330
2349
100
AcDbEntity
  8
DIM
 62
     0
100
AcDbTrace
 10
21.64873240228527
 20
11.50993970898424
 30
0.0
 11
21.64873240228527
 21
11.32993970898424
 31
0.0
 12
22.18873240228527
 22
11.41993970898424
 32
0.0
 13
22.18873240228527
 23
11.41993970898424
 33
0.0
  0
SOLID
  5
5CD1
330
2349
100
AcDbEntity
  8
DIM
 62
     0
100
AcDbTrace
 10
22.86873240228527
 20
11.50993970898424
 30
0.0
 11
22.86873240228527
 21
11.32993970898424
 31
0.0
 12
22.32873240228527
 22
11.41993970898424
 32
0.0
 13
22.32873240228527
 23
11.41993970898424
 33
0.0
  0
MTEXT
  5
5CD2
330
2349
100
AcDbEntity
  8
DIM
 62
     0
100
AcDbMText
 10
24.14748240228528
 20
11.41993970898424
 30
0.0
 40
0.375
 41
0.0
 71
     5
 72
     1
  1
\A1;0.140
 73
     1
 44
1.0
  0
POINT
  5
5CD3
330
2349
100
AcDbEntity
  8
DEFPOINTS
 62
     0
100
AcDbPoint
 10
22.18873240228527
 20
11.29393970898424
 30
0.0
  0
POINT
  5
5CD4
330
2349
100
AcDbEntity
  8
DEFPOINTS
 62
     0
100
AcDbPoint
 10
22.32873240228527
 20
11.29393970898424
 30
0.0
  0
POINT
  5
5CD5
330
2349
100
AcDbEntity
  8
DEFPOINTS
 62
     0
100
AcDbPoint
 10
22.32873240228527
 20
11.41993970898424
 30
0.0
  0
ENDBLK
  5
2355
330
2349
100
AcDbEntity
  8
0
100
AcDbBlockEnd
  0
BLOCK
  5
2362
330
2357
100
AcDbEntity
  8
0
100
AcDbBlockBegin
  2
*D24
 70
     1
 10
0.0
 20
0.0
 30
0.0
  3
*D24
  1

  0
LINE
  5
5CC2
330
2357
100
AcDbEntity
  8
DIM
 62
     0
370
    -2
100
AcDbLine
 10
21.91373240228528
 20
13.35998740986244
 30
0.0
 11
21.91373240228528
 21
13.93120609639682
 31
0.0
  0
LINE
  5
5CC3
330
2357
100
AcDbEntity
  8
DIM
 62
     0
370
    -2
100
AcDbLine
 10
22.32873240228527
 20
13.35998740986244
 30
0.0
 11
22.32873240228527
 21
13.93120609639682
 31
0.0
  0
LINE
  5
5CC4
330
2357
100
AcDbEntity
  8
DIM
 62
     0
370
    -2
100
AcDbLine
 10
21.37373240228528
 20
13.65220609639682
 30
0.0
 11
20.83373240228528
 21
13.65220609639682
 31
0.0
  0
LINE
  5
5CC5
330
2357
100
AcDbEntity
  8
DIM
 62
     0
370
    -2
100
AcDbLine
 10
22.86873240228527
 20
13.65220609639682
 30
0.0
 11
23.40873240228527
 21
13.65220609639682
 31
0.0
  0
SOLID
  5
5CC6
330
2357
100
AcDbEntity
  8
DIM
 62
     0
100
AcDbTrace
 10
21.37373240228528
 20
13.74220609639682
 30
0.0
 11
21.37373240228528
 21
13.56220609639682
 31
0.0
 12
21.91373240228528
 22
13.65220609639682
 32
0.0
 13
21.91373240228528
 23
13.65220609639682
 33
0.0
  0
SOLID
  5
5CC7
330
2357
100
AcDbEntity
  8
DIM
 62
     0
100
AcDbTrace
 10
22.86873240228527
 20
13.74220609639682
 30
0.0
 11
22.86873240228527
 21
13.56220609639682
 31
0.0
 12
22.32873240228527
 22
13.65220609639682
 32
0.0
 13
22.32873240228527
 23
13.65220609639682
 33
0.0
  0
MTEXT
  5
5CC8
330
2357
100
AcDbEntity
  8
DIM
 62
     0
100
AcDbMText
 10
24.17091990228527
 20
13.65220609639682
 30
0.0
 40
0.375
 41
0.0
 71
     5
 72
     1
  1
\A1;0.415
 73
     1
 44
1.0
  0
POINT
  5
5CC9
330
2357
100
AcDbEntity
  8
DEFPOINTS
 62
     0
100
AcDbPoint
 10
21.91373240228528
 20
13.17098740986244
 30
0.0
  0
POINT
  5
5CCA
330
2357
100
AcDbEntity
  8
DEFPOINTS
 62
     0
100
AcDbPoint
 10
22.32873240228527
 20
13.17098740986244
 30
0.0
  0
POINT
  5
5CCB
330
2357
100
AcDbEntity
  8
DEFPOINTS
 62
     0
100
AcDbPoint
 10
22.32873240228527
 20
13.65220609639682
 30
0.0
  0
ENDBLK
  5
2363
330
2357
100
AcDbEntity
  8
0
100
AcDbBlockEnd
  0
BLOCK
  5
2370
330
2365
100
AcDbEntity
  8
0
100
AcDbBlockBegin
  2
*D25
 70
     1
 10
0.0
 20
0.0
 30
0.0
  3
*D25
  1

  0
LINE
  5
5CAE
330
2365
100
AcDbEntity
  8
DIM
 62
     0
370
    -2
100
AcDbLine
 10
22.15873240228527
 20
8.661487409862481
 30
0.0
 11
22.15873240228527
 21
7.824487409862481
 31
0.0
  0
LINE
  5
5CAF
330
2365
100
AcDbEntity
  8
DIM
 62
     0
370
    -2
100
AcDbLine
 10
22.32873240228527
 20
8.653487409862487
 30
0.0
 11
22.32873240228527
 21
7.824487409862481
 31
0.0
  0
LINE
  5
5CB0
330
2365
100
AcDbEntity
  8
DIM
 62
     0
370
    -2
100
AcDbLine
 10
21.61873240228527
 20
8.103487409862481
 30
0.0
 11
21.07873240228527
 21
8.103487409862481
 31
0.0
  0
LINE
  5
5CB1
330
2365
100
AcDbEntity
  8
DIM
 62
     0
370
    -2
100
AcDbLine
 10
22.86873240228527
 20
8.103487409862481
 30
0.0
 11
23.40873240228527
 21
8.103487409862481
 31
0.0
  0
SOLID
  5
5CB2
330
2365
100
AcDbEntity
  8
DIM
 62
     0
100
AcDbTrace
 10
21.61873240228527
 20
8.193487409862481
 30
0.0
 11
21.61873240228527
 21
8.013487409862481
 31
0.0
 12
22.15873240228527
 22
8.103487409862481
 32
0.0
 13
22.15873240228527
 23
8.103487409862481
 33
0.0
  0
SOLID
  5
5CB3
330
2365
100
AcDbEntity
  8
DIM
 62
     0
100
AcDbTrace
 10
22.86873240228527
 20
8.193487409862481
 30
0.0
 11
22.86873240228527
 21
8.013487409862481
 31
0.0
 12
22.32873240228527
 22
8.103487409862481
 32
0.0
 13
22.32873240228527
 23
8.103487409862481
 33
0.0
  0
MTEXT
  5
5CB4
330
2365
100
AcDbEntity
  8
DIM
 62
     0
100
AcDbMText
 10
24.14748240228528
 20
8.103487409862481
 30
0.0
 40
0.375
 41
0.0
 71
     5
 72
     1
  1
\A1;0.170
 73
     1
 44
1.0
  0
POINT
  5
5CB5
330
2365
100
AcDbEntity
  8
DEFPOINTS
 62
     0
100
AcDbPoint
 10
22.15873240228527
 20
8.850487409862481
 30
0.0
  0
POINT
  5
5CB6
330
2365
100
AcDbEntity
  8
DEFPOINTS
 62
     0
100
AcDbPoint
 10
22.32873240228527
 20
8.842487409862487
 30
0.0
  0
POINT
  5
5CB7
330
2365
100
AcDbEntity
  8
DEFPOINTS
 62
     0
100
AcDbPoint
 10
22.32873240228527
 20
8.103487409862481
 30
0.0
  0
ENDBLK
  5
2371
330
2365
100
AcDbEntity
  8
0
100
AcDbBlockEnd
  0
BLOCK
  5
24AE
330
24A3
100
AcDbEntity
  8
0
100
AcDbBlockBegin
  2
*D26
 70
     1
 10
0.0
 20
0.0
 30
0.0
  3
*D26
  1

  0
LINE
  5
5BC5
330
24A3
100
AcDbEntity
  8
DIM
 62
     0
370
    -2
100
AcDbLine
 10
28.21345167328117
 20
20.52348740986247
 30
0.0
 11
28.21345167328117
 21
21.95148740986248
 31
0.0
  0
LINE
  5
5BC6
330
24A3
100
AcDbEntity
  8
DIM
 62
     0
370
    -2
100
AcDbLine
 10
27.96145167328116
 20
20.54248740986246
 30
0.0
 11
27.96145167328116
 21
21.95148740986248
 31
0.0
  0
LINE
  5
5BC7
330
24A3
100
AcDbEntity
  8
DIM
 62
     0
370
    -2
100
AcDbLine
 10
28.75345167328116
 20
21.67248740986248
 30
0.0
 11
29.29345167328117
 21
21.67248740986248
 31
0.0
  0
LINE
  5
5BC8
330
24A3
100
AcDbEntity
  8
DIM
 62
     0
370
    -2
100
AcDbLine
 10
27.42145167328116
 20
21.67248740986248
 30
0.0
 11
26.88145167328116
 21
21.67248740986248
 31
0.0
  0
SOLID
  5
5BC9
330
24A3
100
AcDbEntity
  8
DIM
 62
     0
100
AcDbTrace
 10
28.75345167328116
 20
21.76248740986248
 30
0.0
 11
28.75345167328116
 21
21.58248740986248
 31
0.0
 12
28.21345167328117
 22
21.67248740986248
 32
0.0
 13
28.21345167328117
 23
21.67248740986248
 33
0.0
  0
SOLID
  5
5BCA
330
24A3
100
AcDbEntity
  8
DIM
 62
     0
100
AcDbTrace
 10
27.42145167328116
 20
21.76248740986248
 30
0.0
 11
27.42145167328116
 21
21.58248740986248
 31
0.0
 12
27.96145167328116
 22
21.67248740986248
 32
0.0
 13
27.96145167328116
 23
21.67248740986248
 33
0.0
  0
MTEXT
  5
5BCB
330
24A3
100
AcDbEntity
  8
DIM
 62
     0
100
AcDbMText
 10
26.07238917328116
 20
21.67248740986248
 30
0.0
 40
0.375
 41
0.0
 71
     5
 72
     1
  1
\A1;0.252
 73
     1
 44
1.0
  0
POINT
  5
5BCC
330
24A3
100
AcDbEntity
  8
DEFPOINTS
 62
     0
100
AcDbPoint
 10
28.21345167328117
 20
20.33448740986247
 30
0.0
  0
POINT
  5
5BCD
330
24A3
100
AcDbEntity
  8
DEFPOINTS
 62
     0
100
AcDbPoint
 10
27.96145167328116
 20
20.35348740986246
 30
0.0
  0
POINT
  5
5BCE
330
24A3
100
AcDbEntity
  8
DEFPOINTS
 62
     0
100
AcDbPoint
 10
27.96145167328116
 20
21.67248740986248
 30
0.0
  0
ENDBLK
  5
24AF
330
24A3
100
AcDbEntity
  8
0
100
AcDbBlockEnd
  0
BLOCK
  5
24BC
330
24B1
100
AcDbEntity
  8
0
100
AcDbBlockBegin
  2
*D27
 70
     1
 10
0.0
 20
0.0
 30
0.0
  3
*D27
  1

  0
LINE
  5
5CFE
330
24B1
100
AcDbEntity
  8
DIM
 62
     0
370
    -2
100
AcDbLine
 10
28.02445167328119
 20
9.038487409862463
 30
0.0
 11
26.8314900612174
 21
9.038487409862465
 31
0.0
  0
LINE
  5
5CFF
330
24B1
100
AcDbEntity
  8
DIM
 62
     0
370
    -2
100
AcDbLine
 10
28.00945167328117
 20
14.68648740986246
 30
0.0
 11
26.8314900612174
 21
14.68648740986246
 31
0.0
  0
LINE
  5
5D00
330
24B1
100
AcDbEntity
  8
DIM
 62
     0
370
    -2
100
AcDbLine
 10
27.1104900612174
 20
9.578487409862466
 30
0.0
 11
27.1104900612174
 21
11.40498740986246
 31
0.0
  0
LINE
  5
5D01
330
24B1
100
AcDbEntity
  8
DIM
 62
     0
370
    -2
100
AcDbLine
 10
27.1104900612174
 20
14.14648740986246
 30
0.0
 11
27.1104900612174
 21
12.31998740986246
 31
0.0
  0
SOLID
  5
5D02
330
24B1
100
AcDbEntity
  8
DIM
 62
     0
100
AcDbTrace
 10
27.0204900612174
 20
9.578487409862466
 30
0.0
 11
27.2004900612174
 21
9.578487409862466
 31
0.0
 12
27.1104900612174
 22
9.038487409862465
 32
0.0
 13
27.1104900612174
 23
9.038487409862465
 33
0.0
  0
SOLID
  5
5D03
330
24B1
100
AcDbEntity
  8
DIM
 62
     0
100
AcDbTrace
 10
27.0204900612174
 20
14.14648740986246
 30
0.0
 11
27.2004900612174
 21
14.14648740986246
 31
0.0
 12
27.1104900612174
 22
14.68648740986246
 32
0.0
 13
27.1104900612174
 23
14.68648740986246
 33
0.0
  0
MTEXT
  5
5D04
330
24B1
100
AcDbEntity
  8
DIM
 62
     0
100
AcDbMText
 10
27.1104900612174
 20
11.86248740986246
 30
0.0
 40
0.375
 41
0.0
 71
     5
 72
     1
  1
\A1;5.648
 73
     1
 44
1.0
  0
POINT
  5
5D05
330
24B1
100
AcDbEntity
  8
DEFPOINTS
 62
     0
100
AcDbPoint
 10
28.2134516732812
 20
9.038487409862463
 30
0.0
  0
POINT
  5
5D06
330
24B1
100
AcDbEntity
  8
DEFPOINTS
 62
     0
100
AcDbPoint
 10
28.19845167328116
 20
14.68648740986246
 30
0.0
  0
POINT
  5
5D07
330
24B1
100
AcDbEntity
  8
DEFPOINTS
 62
     0
100
AcDbPoint
 10
27.1104900612174
 20
14.68648740986246
 30
0.0
  0
ENDBLK
  5
24BD
330
24B1
100
AcDbEntity
  8
0
100
AcDbBlockEnd
  0
BLOCK
  5
24CA
330
24BF
100
AcDbEntity
  8
0
100
AcDbBlockBegin
  2
*D28
 70
     1
 10
0.0
 20
0.0
 30
0.0
  3
*D28
  1

  0
LINE
  5
5CA3
330
24BF
100
AcDbEntity
  8
DIM
 62
     0
370
    -2
100
AcDbLine
 10
28.02445167328119
 20
9.038487409862463
 30
0.0
 11
26.8314900612174
 21
9.038487409862465
 31
0.0
  0
LINE
  5
5CA4
330
24BF
100
AcDbEntity
  8
DIM
 62
     0
370
    -2
100
AcDbLine
 10
27.99045167328115
 20
8.780487409862475
 30
0.0
 11
26.8314900612174
 21
8.780487409862475
 31
0.0
  0
LINE
  5
5CA5
330
24BF
100
AcDbEntity
  8
DIM
 62
     0
370
    -2
100
AcDbLine
 10
27.1104900612174
 20
9.578487409862466
 30
0.0
 11
27.1104900612174
 21
10.11848740986246
 31
0.0
  0
LINE
  5
5CA6
330
24BF
100
AcDbEntity
  8
DIM
 62
     0
370
    -2
100
AcDbLine
 10
27.1104900612174
 20
8.240487409862476
 30
0.0
 11
27.1104900612174
 21
7.700487409862474
 31
0.0
  0
LINE
  5
5CA7
330
24BF
100
AcDbEntity
  8
DIM
 62
     0
370
    -2
100
AcDbLine
 10
27.1104900612174
 20
7.700487409862474
 30
0.0
 11
26.5704900612174
 21
7.700487409862474
 31
0.0
  0
SOLID
  5
5CA8
330
24BF
100
AcDbEntity
  8
DIM
 62
     0
100
AcDbTrace
 10
27.0204900612174
 20
9.578487409862466
 30
0.0
 11
27.2004900612174
 21
9.578487409862466
 31
0.0
 12
27.1104900612174
 22
9.038487409862465
 32
0.0
 13
27.1104900612174
 23
9.038487409862465
 33
0.0
  0
SOLID
  5
5CA9
330
24BF
100
AcDbEntity
  8
DIM
 62
     0
100
AcDbTrace
 10
27.0204900612174
 20
8.240487409862476
 30
0.0
 11
27.2004900612174
 21
8.240487409862476
 31
0.0
 12
27.1104900612174
 22
8.780487409862475
 32
0.0
 13
27.1104900612174
 23
8.780487409862475
 33
0.0
  0
MTEXT
  5
5CAA
330
24BF
100
AcDbEntity
  8
DIM
 62
     0
100
AcDbMText
 10
25.7614275612174
 20
7.700487409862478
 30
0.0
 40
0.375
 41
0.0
 71
     5
 72
     1
  1
\A1;0.258
 73
     1
 44
1.0
  0
POINT
  5
5CAB
330
24BF
100
AcDbEntity
  8
DEFPOINTS
 62
     0
100
AcDbPoint
 10
28.2134516732812
 20
9.038487409862463
 30
0.0
  0
POINT
  5
5CAC
330
24BF
100
AcDbEntity
  8
DEFPOINTS
 62
     0
100
AcDbPoint
 10
28.17945167328115
 20
8.780487409862473
 30
0.0
  0
POINT
  5
5CAD
330
24BF
100
AcDbEntity
  8
DEFPOINTS
 62
     0
100
AcDbPoint
 10
27.1104900612174
 20
8.780487409862475
 30
0.0
  0
ENDBLK
  5
24CB
330
24BF
100
AcDbEntity
  8
0
100
AcDbBlockEnd
  0
BLOCK
  5
24D8
330
24CD
100
AcDbEntity
  8
0
100
AcDbBlockBegin
  2
*D29
 70
     1
 10
0.0
 20
0.0
 30
0.0
  3
*D29
  1

  0
LINE
  5
5CF4
330
24CD
100
AcDbEntity
  8
DIM
 62
     0
370
    -2
100
AcDbLine
 10
27.99045167328117
 20
8.780487409862475
 30
0.0
 11
25.76913165421274
 21
8.780487409862475
 31
0.0
  0
LINE
  5
5CF5
330
24CD
100
AcDbEntity
  8
DIM
 62
     0
370
    -2
100
AcDbLine
 10
27.99045167328117
 20
20.59248740986246
 30
0.0
 11
25.76913165421274
 21
20.59248740986246
 31
0.0
  0
LINE
  5
5CF6
330
24CD
100
AcDbEntity
  8
DIM
 62
     0
370
    -2
100
AcDbLine
 10
26.04813165421274
 20
9.320487409862474
 30
0.0
 11
26.04813165421274
 21
14.22898740986247
 31
0.0
  0
LINE
  5
5CF7
330
24CD
100
AcDbEntity
  8
DIM
 62
     0
370
    -2
100
AcDbLine
 10
26.04813165421274
 20
20.05248740986246
 30
0.0
 11
26.04813165421274
 21
15.14398740986247
 31
0.0
  0
SOLID
  5
5CF8
330
24CD
100
AcDbEntity
  8
DIM
 62
     0
100
AcDbTrace
 10
25.95813165421274
 20
9.320487409862474
 30
0.0
 11
26.13813165421273
 21
9.320487409862474
 31
0.0
 12
26.04813165421274
 22
8.780487409862475
 32
0.0
 13
26.04813165421274
 23
8.780487409862475
 33
0.0
  0
SOLID
  5
5CF9
330
24CD
100
AcDbEntity
  8
DIM
 62
     0
100
AcDbTrace
 10
25.95813165421274
 20
20.05248740986246
 30
0.0
 11
26.13813165421273
 21
20.05248740986246
 31
0.0
 12
26.04813165421274
 22
20.59248740986246
 32
0.0
 13
26.04813165421274
 23
20.59248740986246
 33
0.0
  0
MTEXT
  5
5CFA
330
24CD
100
AcDbEntity
  8
DIM
 62
     0
100
AcDbMText
 10
26.04813165421273
 20
14.68648740986247
 30
0.0
 40
0.375
 41
0.0
 71
     5
 72
     1
  1
\A1;11.812
 73
     1
 44
1.0
  0
POINT
  5
5CFB
330
24CD
100
AcDbEntity
  8
DEFPOINTS
 62
     0
100
AcDbPoint
 10
28.17945167328117
 20
8.780487409862473
 30
0.0
  0
POINT
  5
5CFC
330
24CD
100
AcDbEntity
  8
DEFPOINTS
 62
     0
100
AcDbPoint
 10
28.17945167328117
 20
20.59248740986246
 30
0.0
  0
POINT
  5
5CFD
330
24CD
100
AcDbEntity
  8
DEFPOINTS
 62
     0
100
AcDbPoint
 10
26.04813165421274
 20
20.59248740986246
 30
0.0
  0
ENDBLK
  5
24D9
330
24CD
100
AcDbEntity
  8
0
100
AcDbBlockEnd
  0
BLOCK
  5
24E6
330
24DB
100
AcDbEntity
  8
0
100
AcDbBlockBegin
  2
*D30
 70
     1
 10
0.0
 20
0.0
 30
0.0
  3
*D30
  1

  0
LINE
  5
5B92
330
24DB
100
AcDbEntity
  8
DIM
 62
     0
370
    -2
100
AcDbLine
 10
27.96145167328117
 20
20.54248740986244
 30
0.0
 11
27.96145167328117
 21
22.64589643288505
 31
0.0
  0
LINE
  5
5B93
330
24DB
100
AcDbEntity
  8
DIM
 62
     0
370
    -2
100
AcDbLine
 10
37.01745167328117
 20
20.56348740986245
 30
0.0
 11
37.01745167328117
 21
22.64589643288505
 31
0.0
  0
LINE
  5
5B94
330
24DB
100
AcDbEntity
  8
DIM
 62
     0
370
    -2
100
AcDbLine
 10
28.50145167328117
 20
22.36689643288505
 30
0.0
 11
31.68038917328117
 21
22.36689643288505
 31
0.0
  0
LINE
  5
5B95
330
24DB
100
AcDbEntity
  8
DIM
 62
     0
370
    -2
100
AcDbLine
 10
36.47745167328117
 20
22.36689643288505
 30
0.0
 11
33.29851417328117
 21
22.36689643288505
 31
0.0
  0
SOLID
  5
5B96
330
24DB
100
AcDbEntity
  8
DIM
 62
     0
100
AcDbTrace
 10
28.50145167328117
 20
22.45689643288505
 30
0.0
 11
28.50145167328117
 21
22.27689643288505
 31
0.0
 12
27.96145167328117
 22
22.36689643288505
 32
0.0
 13
27.96145167328117
 23
22.36689643288505
 33
0.0
  0
SOLID
  5
5B97
330
24DB
100
AcDbEntity
  8
DIM
 62
     0
100
AcDbTrace
 10
36.47745167328117
 20
22.45689643288505
 30
0.0
 11
36.47745167328117
 21
22.27689643288505
 31
0.0
 12
37.01745167328117
 22
22.36689643288505
 32
0.0
 13
37.01745167328117
 23
22.36689643288505
 33
0.0
  0
MTEXT
  5
5B98
330
24DB
100
AcDbEntity
  8
DIM
 62
     0
100
AcDbMText
 10
32.48945167328117
 20
22.36689643288505
 30
0.0
 40
0.375
 41
0.0
 71
     5
 72
     1
  1
\A1;9.056
 73
     1
 44
1.0
  0
POINT
  5
5B99
330
24DB
100
AcDbEntity
  8
DEFPOINTS
 62
     0
100
AcDbPoint
 10
27.96145167328117
 20
20.35348740986244
 30
0.0
  0
POINT
  5
5B9A
330
24DB
100
AcDbEntity
  8
DEFPOINTS
 62
     0
100
AcDbPoint
 10
37.01745167328117
 20
20.37448740986245
 30
0.0
  0
POINT
  5
5B9B
330
24DB
100
AcDbEntity
  8
DEFPOINTS
 62
     0
100
AcDbPoint
 10
37.01745167328117
 20
22.36689643288505
 30
0.0
  0
ENDBLK
  5
24E7
330
24DB
100
AcDbEntity
  8
0
100
AcDbBlockEnd
  0
BLOCK
  5
24F7
330
24EC
100
AcDbEntity
  8
0
100
AcDbBlockBegin
  2
*D31
 70
     1
 10
0.0
 20
0.0
 30
0.0
  3
*D31
  1

  0
LINE
  5
5B87
330
24EC
100
AcDbEntity
  8
DIM
 62
     0
370
    -2
100
AcDbLine
 10
31.44207476849817
 20
8.980487409862446
 30
0.0
 11
31.10007476849816
 21
8.980487409862446
 31
0.0
  0
LINE
  5
5B88
330
24EC
100
AcDbEntity
  8
DIM
 62
     0
370
    -2
100
AcDbLine
 10
31.44207476849817
 20
8.780487409862457
 30
0.0
 11
31.10007476849816
 21
8.780487409862457
 31
0.0
  0
LINE
  5
5B89
330
24EC
100
AcDbEntity
  8
DIM
 62
     0
370
    -2
100
AcDbLine
 10
31.37907476849816
 20
9.520487409862447
 30
0.0
 11
31.37907476849816
 21
10.06048740986244
 31
0.0
  0
LINE
  5
5B8A
330
24EC
100
AcDbEntity
  8
DIM
 62
     0
370
    -2
100
AcDbLine
 10
31.37907476849816
 20
8.240487409862456
 30
0.0
 11
31.37907476849816
 21
7.700487409862457
 31
0.0
  0
LINE
  5
5B8B
330
24EC
100
AcDbEntity
  8
DIM
 62
     0
370
    -2
100
AcDbLine
 10
31.37907476849816
 20
7.700487409862457
 30
0.0
 11
30.83907476849816
 21
7.700487409862457
 31
0.0
  0
SOLID
  5
5B8C
330
24EC
100
AcDbEntity
  8
DIM
 62
     0
100
AcDbTrace
 10
31.28907476849816
 20
9.520487409862447
 30
0.0
 11
31.46907476849816
 21
9.520487409862447
 31
0.0
 12
31.37907476849816
 22
8.980487409862446
 32
0.0
 13
31.37907476849816
 23
8.980487409862446
 33
0.0
  0
SOLID
  5
5B8D
330
24EC
100
AcDbEntity
  8
DIM
 62
     0
100
AcDbTrace
 10
31.28907476849816
 20
8.240487409862456
 30
0.0
 11
31.46907476849816
 21
8.240487409862456
 31
0.0
 12
31.37907476849816
 22
8.780487409862457
 32
0.0
 13
31.37907476849816
 23
8.780487409862457
 33
0.0
  0
MTEXT
  5
5B8E
330
24EC
100
AcDbEntity
  8
DIM
 62
     0
100
AcDbMText
 10
29.46751226849816
 20
7.700487409862462
 30
0.0
 40
0.375
 41
0.0
 71
     5
 72
     1
  1
\A1;0.200 TYP.
 73
     1
 44
1.0
  0
POINT
  5
5B8F
330
24EC
100
AcDbEntity
  8
DEFPOINTS
 62
     0
100
AcDbPoint
 10
31.63107476849817
 20
8.980487409862446
 30
0.0
  0
POINT
  5
5B90
330
24EC
100
AcDbEntity
  8
DEFPOINTS
 62
     0
100
AcDbPoint
 10
31.63107476849817
 20
8.780487409862457
 30
0.0
  0
POINT
  5
5B91
330
24EC
100
AcDbEntity
  8
DEFPOINTS
 62
     0
100
AcDbPoint
 10
31.37907476849816
 20
8.780487409862457
 30
0.0
  0
ENDBLK
  5
24F8
330
24EC
100
AcDbEntity
  8
0
100
AcDbBlockEnd
  0
BLOCK
  5
260D
330
2602
100
AcDbEntity
  8
0
100
AcDbBlockBegin
  2
*D32
 70
     1
 10
0.0
 20
0.0
 30
0.0
  3
*D32
  1

  0
LINE
  5
5D08
330
2602
100
AcDbEntity
  8
DIM
 62
     0
370
    -2
100
AcDbLine
 10
28.02445167328119
 20
20.33448740986245
 30
0.0
 11
26.8314900612174
 21
20.33448740986245
 31
0.0
  0
LINE
  5
5D09
330
2602
100
AcDbEntity
  8
DIM
 62
     0
370
    -2
100
AcDbLine
 10
28.00945167328117
 20
14.68648740986246
 30
0.0
 11
26.8314900612174
 21
14.68648740986246
 31
0.0
  0
LINE
  5
5D0A
330
2602
100
AcDbEntity
  8
DIM
 62
     0
370
    -2
100
AcDbLine
 10
27.1104900612174
 20
19.79448740986245
 30
0.0
 11
27.1104900612174
 21
17.96798740986246
 31
0.0
  0
LINE
  5
5D0B
330
2602
100
AcDbEntity
  8
DIM
 62
     0
370
    -2
100
AcDbLine
 10
27.1104900612174
 20
15.22648740986246
 30
0.0
 11
27.1104900612174
 21
17.05298740986246
 31
0.0
  0
SOLID
  5
5D0C
330
2602
100
AcDbEntity
  8
DIM
 62
     0
100
AcDbTrace
 10
27.0204900612174
 20
19.79448740986245
 30
0.0
 11
27.2004900612174
 21
19.79448740986245
 31
0.0
 12
27.1104900612174
 22
20.33448740986245
 32
0.0
 13
27.1104900612174
 23
20.33448740986245
 33
0.0
  0
SOLID
  5
5D0D
330
2602
100
AcDbEntity
  8
DIM
 62
     0
100
AcDbTrace
 10
27.0204900612174
 20
15.22648740986246
 30
0.0
 11
27.2004900612174
 21
15.22648740986246
 31
0.0
 12
27.1104900612174
 22
14.68648740986246
 32
0.0
 13
27.1104900612174
 23
14.68648740986246
 33
0.0
  0
MTEXT
  5
5D0E
330
2602
100
AcDbEntity
  8
DIM
 62
     0
100
AcDbMText
 10
27.1104900612174
 20
17.51048740986246
 30
0.0
 40
0.375
 41
0.0
 71
     5
 72
     1
  1
\A1;5.648
 73
     1
 44
1.0
  0
POINT
  5
5D0F
330
2602
100
AcDbEntity
  8
DEFPOINTS
 62
     0
100
AcDbPoint
 10
28.2134516732812
 20
20.33448740986245
 30
0.0
  0
POINT
  5
5D10
330
2602
100
AcDbEntity
  8
DEFPOINTS
 62
     0
100
AcDbPoint
 10
28.19845167328116
 20
14.68648740986246
 30
0.0
  0
POINT
  5
5D11
330
2602
100
AcDbEntity
  8
DEFPOINTS
 62
     0
100
AcDbPoint
 10
27.1104900612174
 20
14.68648740986246
 30
0.0
  0
ENDBLK
  5
260E
330
2602
100
AcDbEntity
  8
0
100
AcDbBlockEnd
  0
BLOCK
  5
261B
330
2610
100
AcDbEntity
  8
0
100
AcDbBlockBegin
  2
*D33
 70
     1
 10
0.0
 20
0.0
 30
0.0
  3
*D33
  1

  0
LINE
  5
5BBB
330
2610
100
AcDbEntity
  8
DIM
 62
     0
370
    -2
100
AcDbLine
 10
6.934546536314092
 20
20.52348740986247
 30
0.0
 11
6.934546536314092
 21
23.1957665071632
 31
0.0
  0
LINE
  5
5BBC
330
2610
100
AcDbEntity
  8
DIM
 62
     0
370
    -2
100
AcDbLine
 10
6.682546536314097
 20
20.56348740986246
 30
0.0
 11
6.682546536314097
 21
23.1957665071632
 31
0.0
  0
LINE
  5
5BBD
330
2610
100
AcDbEntity
  8
DIM
 62
     0
370
    -2
100
AcDbLine
 10
7.474546536314092
 20
22.91676650716321
 30
0.0
 11
8.014546536314092
 21
22.91676650716321
 31
0.0
  0
LINE
  5
5BBE
330
2610
100
AcDbEntity
  8
DIM
 62
     0
370
    -2
100
AcDbLine
 10
6.142546536314097
 20
22.91676650716321
 30
0.0
 11
5.602546536314097
 21
22.91676650716321
 31
0.0
  0
SOLID
  5
5BBF
330
2610
100
AcDbEntity
  8
DIM
 62
     0
100
AcDbTrace
 10
7.474546536314092
 20
23.0067665071632
 30
0.0
 11
7.474546536314092
 21
22.82676650716321
 31
0.0
 12
6.934546536314092
 22
22.91676650716321
 32
0.0
 13
6.934546536314092
 23
22.91676650716321
 33
0.0
  0
SOLID
  5
5BC0
330
2610
100
AcDbEntity
  8
DIM
 62
     0
100
AcDbTrace
 10
6.142546536314097
 20
23.0067665071632
 30
0.0
 11
6.142546536314097
 21
22.82676650716321
 31
0.0
 12
6.682546536314097
 22
22.91676650716321
 32
0.0
 13
6.682546536314097
 23
22.91676650716321
 33
0.0
  0
MTEXT
  5
5BC1
330
2610
100
AcDbEntity
  8
DIM
 62
     0
100
AcDbMText
 10
4.793484036314097
 20
22.91676650716321
 30
0.0
 40
0.375
 41
0.0
 71
     5
 72
     1
  1
\A1;0.252
 73
     1
 44
1.0
  0
POINT
  5
5BC2
330
2610
100
AcDbEntity
  8
DEFPOINTS
 62
     0
100
AcDbPoint
 10
6.934546536314092
 20
20.33448740986247
 30
0.0
  0
POINT
  5
5BC3
330
2610
100
AcDbEntity
  8
DEFPOINTS
 62
     0
100
AcDbPoint
 10
6.682546536314097
 20
20.37448740986246
 30
0.0
  0
POINT
  5
5BC4
330
2610
100
AcDbEntity
  8
DEFPOINTS
 62
     0
100
AcDbPoint
 10
6.682546536314097
 20
22.91676650716321
 30
0.0
  0
ENDBLK
  5
261C
330
2610
100
AcDbEntity
  8
0
100
AcDbBlockEnd
  0
BLOCK
  5
2629
330
261E
100
AcDbEntity
  8
0
100
AcDbBlockBegin
  2
*D34
 70
     1
 10
0.0
 20
0.0
 30
0.0
  3
*D34
  1

  0
LINE
  5
5BB0
330
261E
100
AcDbEntity
  8
DIM
 62
     0
370
    -2
100
AcDbLine
 10
15.67554653631408
 20
20.33448740986247
 30
0.0
 11
17.16510546742617
 21
20.33448740986247
 31
0.0
  0
LINE
  5
5BB1
330
261E
100
AcDbEntity
  8
DIM
 62
     0
370
    -2
100
AcDbLine
 10
15.70954653631407
 20
20.59248740986247
 30
0.0
 11
17.16510546742617
 21
20.59248740986247
 31
0.0
  0
LINE
  5
5BB2
330
261E
100
AcDbEntity
  8
DIM
 62
     0
370
    -2
100
AcDbLine
 10
16.88610546742617
 20
19.79448740986247
 30
0.0
 11
16.88610546742617
 21
19.25448740986247
 31
0.0
  0
LINE
  5
5BB3
330
261E
100
AcDbEntity
  8
DIM
 62
     0
370
    -2
100
AcDbLine
 10
16.88610546742617
 20
21.13248740986247
 30
0.0
 11
16.88610546742617
 21
21.67248740986247
 31
0.0
  0
LINE
  5
5BB4
330
261E
100
AcDbEntity
  8
DIM
 62
     0
370
    -2
100
AcDbLine
 10
16.88610546742617
 20
21.67248740986247
 30
0.0
 11
17.42610546742617
 21
21.67248740986247
 31
0.0
  0
SOLID
  5
5BB5
330
261E
100
AcDbEntity
  8
DIM
 62
     0
100
AcDbTrace
 10
16.79610546742617
 20
19.79448740986247
 30
0.0
 11
16.97610546742617
 21
19.79448740986247
 31
0.0
 12
16.88610546742617
 22
20.33448740986247
 32
0.0
 13
16.88610546742617
 23
20.33448740986247
 33
0.0
  0
SOLID
  5
5BB6
330
261E
100
AcDbEntity
  8
DIM
 62
     0
100
AcDbTrace
 10
16.79610546742617
 20
21.13248740986247
 30
0.0
 11
16.97610546742617
 21
21.13248740986247
 31
0.0
 12
16.88610546742617
 22
20.59248740986247
 32
0.0
 13
16.88610546742617
 23
20.59248740986247
 33
0.0
  0
MTEXT
  5
5BB7
330
261E
100
AcDbEntity
  8
DIM
 62
     0
100
AcDbMText
 10
18.23516796742617
 20
21.67248740986247
 30
0.0
 40
0.375
 41
0.0
 71
     5
 72
     1
  1
\A1;0.258
 73
     1
 44
1.0
  0
POINT
  5
5BB8
330
261E
100
AcDbEntity
  8
DEFPOINTS
 62
     0
100
AcDbPoint
 10
15.48654653631408
 20
20.33448740986247
 30
0.0
  0
POINT
  5
5BB9
330
261E
100
AcDbEntity
  8
DEFPOINTS
 62
     0
100
AcDbPoint
 10
15.52054653631407
 20
20.59248740986247
 30
0.0
  0
POINT
  5
5BBA
330
261E
100
AcDbEntity
  8
DEFPOINTS
 62
     0
100
AcDbPoint
 10
16.88610546742617
 20
20.59248740986247
 30
0.0
  0
ENDBLK
  5
262A
330
261E
100
AcDbEntity
  8
0
100
AcDbBlockEnd
  0
BLOCK
  5
2637
330
262C
100
AcDbEntity
  8
0
100
AcDbBlockBegin
  2
*D35
 70
     1
 10
0.0
 20
0.0
 30
0.0
  3
*D35
  1

  0
LINE
  5
5BA6
330
262C
100
AcDbEntity
  8
DIM
 62
     0
370
    -2
100
AcDbLine
 10
7.279546536314107
 20
20.52348740986242
 30
0.0
 11
7.279546536314107
 21
22.24811293322278
 31
0.0
  0
LINE
  5
5BA7
330
262C
100
AcDbEntity
  8
DIM
 62
     0
370
    -2
100
AcDbLine
 10
6.682546536314097
 20
20.56348740986241
 30
0.0
 11
6.682546536314097
 21
22.24811293322278
 31
0.0
  0
LINE
  5
5BA8
330
262C
100
AcDbEntity
  8
DIM
 62
     0
370
    -2
100
AcDbLine
 10
7.819546536314107
 20
21.96911293322278
 30
0.0
 11
8.359546536314107
 21
21.96911293322278
 31
0.0
  0
LINE
  5
5BA9
330
262C
100
AcDbEntity
  8
DIM
 62
     0
370
    -2
100
AcDbLine
 10
6.142546536314097
 20
21.96911293322278
 30
0.0
 11
5.602546536314097
 21
21.96911293322278
 31
0.0
  0
SOLID
  5
5BAA
330
262C
100
AcDbEntity
  8
DIM
 62
     0
100
AcDbTrace
 10
7.819546536314107
 20
22.05911293322278
 30
0.0
 11
7.819546536314107
 21
21.87911293322279
 31
0.0
 12
7.279546536314107
 22
21.96911293322278
 32
0.0
 13
7.279546536314107
 23
21.96911293322278
 33
0.0
  0
SOLID
  5
5BAB
330
262C
100
AcDbEntity
  8
DIM
 62
     0
100
AcDbTrace
 10
6.142546536314097
 20
22.05911293322278
 30
0.0
 11
6.142546536314097
 21
21.87911293322279
 31
0.0
 12
6.682546536314097
 22
21.96911293322278
 32
0.0
 13
6.682546536314097
 23
21.96911293322278
 33
0.0
  0
MTEXT
  5
5BAC
330
262C
100
AcDbEntity
  8
DIM
 62
     0
100
AcDbMText
 10
4.793484036314097
 20
21.96911293322278
 30
0.0
 40
0.375
 41
0.0
 71
     5
 72
     1
  1
\A1;0.597
 73
     1
 44
1.0
  0
POINT
  5
5BAD
330
262C
100
AcDbEntity
  8
DEFPOINTS
 62
     0
100
AcDbPoint
 10
7.279546536314107
 20
20.33448740986242
 30
0.0
  0
POINT
  5
5BAE
330
262C
100
AcDbEntity
  8
DEFPOINTS
 62
     0
100
AcDbPoint
 10
6.682546536314097
 20
20.37448740986241
 30
0.0
  0
POINT
  5
5BAF
330
262C
100
AcDbEntity
  8
DEFPOINTS
 62
     0
100
AcDbPoint
 10
6.682546536314097
 20
21.96911293322278
 30
0.0
  0
ENDBLK
  5
2638
330
262C
100
AcDbEntity
  8
0
100
AcDbBlockEnd
  0
BLOCK
  5
2645
330
263A
100
AcDbEntity
  8
0
100
AcDbBlockBegin
  2
*D36
 70
     1
 10
0.0
 20
0.0
 30
0.0
  3
*D36
  1

  0
LINE
  5
5C48
330
263A
100
AcDbEntity
  8
DIM
 62
     0
370
    -2
100
AcDbLine
 10
9.242967488275027
 20
8.920487409862476
 30
0.0
 11
9.584967488275028
 21
8.920487409862476
 31
0.0
  0
LINE
  5
5C49
330
263A
100
AcDbEntity
  8
DIM
 62
     0
370
    -2
100
AcDbLine
 10
9.242967488275027
 20
8.78048740986248
 30
0.0
 11
9.584967488275028
 21
8.78048740986248
 31
0.0
  0
LINE
  5
5C4A
330
263A
100
AcDbEntity
  8
DIM
 62
     0
370
    -2
100
AcDbLine
 10
9.305967488275028
 20
9.460487409862475
 30
0.0
 11
9.305967488275028
 21
10.00048740986247
 31
0.0
  0
LINE
  5
5C4B
330
263A
100
AcDbEntity
  8
DIM
 62
     0
370
    -2
100
AcDbLine
 10
9.305967488275028
 20
8.240487409862479
 30
0.0
 11
9.305967488275028
 21
7.70048740986248
 31
0.0
  0
LINE
  5
5C4C
330
263A
100
AcDbEntity
  8
DIM
 62
     0
370
    -2
100
AcDbLine
 10
9.305967488275028
 20
7.70048740986248
 30
0.0
 11
8.765967488275029
 21
7.70048740986248
 31
0.0
  0
SOLID
  5
5C4D
330
263A
100
AcDbEntity
  8
DIM
 62
     0
100
AcDbTrace
 10
9.215967488275028
 20
9.460487409862475
 30
0.0
 11
9.395967488275028
 21
9.460487409862475
 31
0.0
 12
9.305967488275028
 22
8.920487409862476
 32
0.0
 13
9.305967488275028
 23
8.920487409862476
 33
0.0
  0
SOLID
  5
5C4E
330
263A
100
AcDbEntity
  8
DIM
 62
     0
100
AcDbTrace
 10
9.215967488275028
 20
8.240487409862479
 30
0.0
 11
9.395967488275028
 21
8.240487409862479
 31
0.0
 12
9.305967488275028
 22
8.78048740986248
 32
0.0
 13
9.305967488275028
 23
8.78048740986248
 33
0.0
  0
MTEXT
  5
5C4F
330
263A
100
AcDbEntity
  8
DIM
 62
     0
100
AcDbMText
 10
7.417842488275026
 20
7.700487409862481
 30
0.0
 40
0.375
 41
0.0
 71
     5
 72
     1
  1
\A1;0.140 TYP.
 73
     1
 44
1.0
  0
POINT
  5
5C50
330
263A
100
AcDbEntity
  8
DEFPOINTS
 62
     0
100
AcDbPoint
 10
9.053967488275027
 20
8.920487409862476
 30
0.0
  0
POINT
  5
5C51
330
263A
100
AcDbEntity
  8
DEFPOINTS
 62
     0
100
AcDbPoint
 10
9.053967488275027
 20
8.78048740986248
 30
0.0
  0
POINT
  5
5C52
330
263A
100
AcDbEntity
  8
DEFPOINTS
 62
     0
100
AcDbPoint
 10
9.305967488275028
 20
8.78048740986248
 30
0.0
  0
ENDBLK
  5
2646
330
263A
100
AcDbEntity
  8
0
100
AcDbBlockEnd
  0
BLOCK
  5
265B
330
2650
100
AcDbEntity
  8
0
100
AcDbBlockBegin
  2
*D37
 70
     1
 10
0.0
 20
0.0
 30
0.0
  3
*D37
  1

  0
LINE
  5
5D96
330
2650
100
AcDbEntity
  8
DIM
 62
     0
370
    -2
100
AcDbLine
 10
40.59747505692697
 20
18.32041265974586
 30
0.0
 11
40.59747505692697
 21
18.04141265974586
 31
0.0
  0
LINE
  5
5D97
330
2650
100
AcDbEntity
  8
DIM
 62
     0
370
    -2
100
AcDbLine
 10
40.75747505692698
 20
18.32041265974586
 30
0.0
 11
40.75747505692698
 21
18.04141265974586
 31
0.0
  0
LINE
  5
5D98
330
2650
100
AcDbEntity
  8
DIM
 62
     0
370
    -2
100
AcDbLine
 10
40.05747505692696
 20
18.32041265974586
 30
0.0
 11
39.51747505692697
 21
18.32041265974586
 31
0.0
  0
LINE
  5
5D99
330
2650
100
AcDbEntity
  8
DIM
 62
     0
370
    -2
100
AcDbLine
 10
41.29747505692697
 20
18.32041265974586
 30
0.0
 11
41.83747505692697
 21
18.32041265974586
 31
0.0
  0
SOLID
  5
5D9A
330
2650
100
AcDbEntity
  8
DIM
 62
     0
100
AcDbTrace
 10
40.05747505692696
 20
18.41041265974586
 30
0.0
 11
40.05747505692696
 21
18.23041265974586
 31
0.0
 12
40.59747505692697
 22
18.32041265974586
 32
0.0
 13
40.59747505692697
 23
18.32041265974586
 33
0.0
  0
SOLID
  5
5D9B
330
2650
100
AcDbEntity
  8
DIM
 62
     0
100
AcDbTrace
 10
41.29747505692697
 20
18.41041265974586
 30
0.0
 11
41.29747505692697
 21
18.23041265974586
 31
0.0
 12
40.75747505692698
 22
18.32041265974586
 32
0.0
 13
40.75747505692698
 23
18.32041265974586
 33
0.0
  0
MTEXT
  5
5D9C
330
2650
100
AcDbEntity
  8
DIM
 62
     0
100
AcDbMText
 10
42.57622505692697
 20
18.32041265974586
 30
0.0
 40
0.375
 41
0.0
 71
     5
 72
     1
  1
\A1;0.160
 73
     1
 44
1.0
  0
POINT
  5
5D9D
330
2650
100
AcDbEntity
  8
DEFPOINTS
 62
     0
100
AcDbPoint
 10
40.59747505692697
 20
18.50941265974586
 30
0.0
  0
POINT
  5
5D9E
330
2650
100
AcDbEntity
  8
DEFPOINTS
 62
     0
100
AcDbPoint
 10
40.75747505692698
 20
18.50941265974586
 30
0.0
  0
POINT
  5
5D9F
330
2650
100
AcDbEntity
  8
DEFPOINTS
 62
     0
100
AcDbPoint
 10
40.75747505692698
 20
18.32041265974586
 30
0.0
  0
ENDBLK
  5
265C
330
2650
100
AcDbEntity
  8
0
100
AcDbBlockEnd
  0
BLOCK
  5
26ED
330
26E2
100
AcDbEntity
  8
0
100
AcDbBlockBegin
  2
*D38
 70
     1
 10
0.0
 20
0.0
 30
0.0
  3
*D38
  1

  0
LINE
  5
5B9C
330
26E2
100
AcDbEntity
  8
DIM
 62
     0
370
    -2
100
AcDbLine
 10
6.934546536314092
 20
20.52348740986247
 30
0.0
 11
6.934546536314092
 21
23.1957665071632
 31
0.0
  0
LINE
  5
5B9D
330
26E2
100
AcDbEntity
  8
DIM
 62
     0
370
    -2
100
AcDbLine
 10
15.48654653631408
 20
21.28148740986246
 30
0.0
 11
15.48654653631408
 21
23.1957665071632
 31
0.0
  0
LINE
  5
5B9E
330
26E2
100
AcDbEntity
  8
DIM
 62
     0
370
    -2
100
AcDbLine
 10
7.474546536314092
 20
22.91676650716321
 30
0.0
 11
10.37804653631408
 21
22.91676650716321
 31
0.0
  0
LINE
  5
5B9F
330
26E2
100
AcDbEntity
  8
DIM
 62
     0
370
    -2
100
AcDbLine
 10
14.94654653631408
 20
22.91676650716321
 30
0.0
 11
12.04304653631409
 21
22.91676650716321
 31
0.0
  0
SOLID
  5
5BA0
330
26E2
100
AcDbEntity
  8
DIM
 62
     0
100
AcDbTrace
 10
7.474546536314092
 20
23.0067665071632
 30
0.0
 11
7.474546536314092
 21
22.82676650716321
 31
0.0
 12
6.934546536314092
 22
22.91676650716321
 32
0.0
 13
6.934546536314092
 23
22.91676650716321
 33
0.0
  0
SOLID
  5
5BA1
330
26E2
100
AcDbEntity
  8
DIM
 62
     0
100
AcDbTrace
 10
14.94654653631408
 20
23.0067665071632
 30
0.0
 11
14.94654653631408
 21
22.82676650716321
 31
0.0
 12
15.48654653631408
 22
22.91676650716321
 32
0.0
 13
15.48654653631408
 23
22.91676650716321
 33
0.0
  0
MTEXT
  5
5BA2
330
26E2
100
AcDbEntity
  8
DIM
 62
     0
100
AcDbMText
 10
11.21054653631408
 20
22.91676650716321
 30
0.0
 40
0.375
 41
0.0
 71
     5
 72
     1
  1
\A1;8.552
 73
     1
 44
1.0
  0
POINT
  5
5BA3
330
26E2
100
AcDbEntity
  8
DEFPOINTS
 62
     0
100
AcDbPoint
 10
6.934546536314092
 20
20.33448740986247
 30
0.0
  0
POINT
  5
5BA4
330
26E2
100
AcDbEntity
  8
DEFPOINTS
 62
     0
100
AcDbPoint
 10
15.48654653631408
 20
21.09248740986246
 30
0.0
  0
POINT
  5
5BA5
330
26E2
100
AcDbEntity
  8
DEFPOINTS
 62
     0
100
AcDbPoint
 10
15.48654653631408
 20
22.91676650716321
 30
0.0
  0
ENDBLK
  5
26EE
330
26E2
100
AcDbEntity
  8
0
100
AcDbBlockEnd
  0
BLOCK
  5
26FB
330
26F0
100
AcDbEntity
  8
0
100
AcDbBlockBegin
  2
*D39
 70
     1
 10
0.0
 20
0.0
 30
0.0
  3
*D39
  1

  0
LINE
  5
5B7D
330
26F0
100
AcDbEntity
  8
DIM
 62
     0
370
    -2
100
AcDbLine
 10
28.21345167328117
 20
20.52348740986247
 30
0.0
 11
28.21345167328117
 21
21.95148740986248
 31
0.0
  0
LINE
  5
5B7E
330
26F0
100
AcDbEntity
  8
DIM
 62
     0
370
    -2
100
AcDbLine
 10
36.76545167328116
 20
20.52348740986247
 30
0.0
 11
36.76545167328116
 21
21.95148740986248
 31
0.0
  0
LINE
  5
5B7F
330
26F0
100
AcDbEntity
  8
DIM
 62
     0
370
    -2
100
AcDbLine
 10
28.75345167328116
 20
21.67248740986248
 30
0.0
 11
31.65695167328117
 21
21.67248740986248
 31
0.0
  0
LINE
  5
5B80
330
26F0
100
AcDbEntity
  8
DIM
 62
     0
370
    -2
100
AcDbLine
 10
36.22545167328116
 20
21.67248740986248
 30
0.0
 11
33.32195167328117
 21
21.67248740986248
 31
0.0
  0
SOLID
  5
5B81
330
26F0
100
AcDbEntity
  8
DIM
 62
     0
100
AcDbTrace
 10
28.75345167328116
 20
21.76248740986248
 30
0.0
 11
28.75345167328116
 21
21.58248740986248
 31
0.0
 12
28.21345167328117
 22
21.67248740986248
 32
0.0
 13
28.21345167328117
 23
21.67248740986248
 33
0.0
  0
SOLID
  5
5B82
330
26F0
100
AcDbEntity
  8
DIM
 62
     0
100
AcDbTrace
 10
36.22545167328116
 20
21.76248740986248
 30
0.0
 11
36.22545167328116
 21
21.58248740986248
 31
0.0
 12
36.76545167328116
 22
21.67248740986248
 32
0.0
 13
36.76545167328116
 23
21.67248740986248
 33
0.0
  0
MTEXT
  5
5B83
330
26F0
100
AcDbEntity
  8
DIM
 62
     0
100
AcDbMText
 10
32.48945167328116
 20
21.67248740986248
 30
0.0
 40
0.375
 41
0.0
 71
     5
 72
     1
  1
\A1;8.552
 73
     1
 44
1.0
  0
POINT
  5
5B84
330
26F0
100
AcDbEntity
  8
DEFPOINTS
 62
     0
100
AcDbPoint
 10
28.21345167328117
 20
20.33448740986247
 30
0.0
  0
POINT
  5
5B85
330
26F0
100
AcDbEntity
  8
DEFPOINTS
 62
     0
100
AcDbPoint
 10
36.76545167328116
 20
20.33448740986247
 30
0.0
  0
POINT
  5
5B86
330
26F0
100
AcDbEntity
  8
DEFPOINTS
 62
     0
100
AcDbPoint
 10
36.76545167328116
 20
21.67248740986248
 30
0.0
  0
ENDBLK
  5
26FC
330
26F0
100
AcDbEntity
  8
0
100
AcDbBlockEnd
  0
BLOCK
  5
32CE
330
32C3
100
AcDbEntity
  8
0
100
AcDbBlockBegin
  2
*D40
 70
     1
 10
0.0
 20
0.0
 30
0.0
  3
*D40
  1

  0
LINE
  5
5C99
330
32C3
100
AcDbEntity
  8
DIM
 62
     0
370
    -2
100
AcDbLine
 10
7.123546536314096
 20
19.69648740986246
 30
0.0
 11
3.714294438288317
 21
19.69648740986246
 31
0.0
  0
LINE
  5
5C9A
330
32C3
100
AcDbEntity
  8
DIM
 62
     0
370
    -2
100
AcDbLine
 10
7.123546536314096
 20
16.35948740986246
 30
0.0
 11
3.714294438288316
 21
16.35948740986246
 31
0.0
  0
LINE
  5
5C9B
330
32C3
100
AcDbEntity
  8
DIM
 62
     0
370
    -2
100
AcDbLine
 10
3.993294438288317
 20
19.15648740986246
 30
0.0
 11
3.993294438288316
 21
18.48548740986246
 31
0.0
  0
LINE
  5
5C9C
330
32C3
100
AcDbEntity
  8
DIM
 62
     0
370
    -2
100
AcDbLine
 10
3.993294438288316
 20
16.89948740986246
 30
0.0
 11
3.993294438288316
 21
17.57048740986246
 31
0.0
  0
SOLID
  5
5C9D
330
32C3
100
AcDbEntity
  8
DIM
 62
     0
100
AcDbTrace
 10
3.903294438288317
 20
19.15648740986246
 30
0.0
 11
4.083294438288317
 21
19.15648740986246
 31
0.0
 12
3.993294438288317
 22
19.69648740986246
 32
0.0
 13
3.993294438288317
 23
19.69648740986246
 33
0.0
  0
SOLID
  5
5C9E
330
32C3
100
AcDbEntity
  8
DIM
 62
     0
100
AcDbTrace
 10
3.903294438288316
 20
16.89948740986246
 30
0.0
 11
4.083294438288316
 21
16.89948740986246
 31
0.0
 12
3.993294438288316
 22
16.35948740986246
 32
0.0
 13
3.993294438288316
 23
16.35948740986246
 33
0.0
  0
MTEXT
  5
5C9F
330
32C3
100
AcDbEntity
  8
DIM
 62
     0
100
AcDbMText
 10
3.993294438288313
 20
18.02798740986246
 30
0.0
 40
0.375
 41
0.0
 71
     5
 72
     1
  1
\A1;3.337
 73
     1
 44
1.0
  0
POINT
  5
5CA0
330
32C3
100
AcDbEntity
  8
DEFPOINTS
 62
     0
100
AcDbPoint
 10
7.312546536314096
 20
19.69648740986246
 30
0.0
  0
POINT
  5
5CA1
330
32C3
100
AcDbEntity
  8
DEFPOINTS
 62
     0
100
AcDbPoint
 10
7.312546536314096
 20
16.35948740986246
 30
0.0
  0
POINT
  5
5CA2
330
32C3
100
AcDbEntity
  8
DEFPOINTS
 62
     0
100
AcDbPoint
 10
3.993294438288316
 20
16.35948740986246
 30
0.0
  0
ENDBLK
  5
32CF
330
32C3
100
AcDbEntity
  8
0
100
AcDbBlockEnd
  0
BLOCK
  5
32E6
330
32DB
100
AcDbEntity
  8
0
100
AcDbBlockBegin
  2
*D41
 70
     1
 10
0.0
 20
0.0
 30
0.0
  3
*D41
  1

  0
LINE
  5
5C85
330
32DB
100
AcDbEntity
  8
DIM
 62
     0
370
    -2
100
AcDbLine
 10
7.123546536314096
 20
9.676487409862463
 30
0.0
 11
3.714294438288315
 21
9.676487409862465
 31
0.0
  0
LINE
  5
5C86
330
32DB
100
AcDbEntity
  8
DIM
 62
     0
370
    -2
100
AcDbLine
 10
7.123546536314096
 20
13.01348740986246
 30
0.0
 11
3.714294438288316
 21
13.01348740986246
 31
0.0
  0
LINE
  5
5C87
330
32DB
100
AcDbEntity
  8
DIM
 62
     0
370
    -2
100
AcDbLine
 10
3.993294438288315
 20
10.21648740986246
 30
0.0
 11
3.993294438288315
 21
10.88748740986246
 31
0.0
  0
LINE
  5
5C88
330
32DB
100
AcDbEntity
  8
DIM
 62
     0
370
    -2
100
AcDbLine
 10
3.993294438288316
 20
12.47348740986246
 30
0.0
 11
3.993294438288316
 21
11.80248740986246
 31
0.0
  0
SOLID
  5
5C89
330
32DB
100
AcDbEntity
  8
DIM
 62
     0
100
AcDbTrace
 10
3.903294438288315
 20
10.21648740986246
 30
0.0
 11
4.083294438288316
 21
10.21648740986246
 31
0.0
 12
3.993294438288315
 22
9.676487409862465
 32
0.0
 13
3.993294438288315
 23
9.676487409862465
 33
0.0
  0
SOLID
  5
5C8A
330
32DB
100
AcDbEntity
  8
DIM
 62
     0
100
AcDbTrace
 10
3.903294438288316
 20
12.47348740986246
 30
0.0
 11
4.083294438288316
 21
12.47348740986246
 31
0.0
 12
3.993294438288316
 22
13.01348740986246
 32
0.0
 13
3.993294438288316
 23
13.01348740986246
 33
0.0
  0
MTEXT
  5
5C8B
330
32DB
100
AcDbEntity
  8
DIM
 62
     0
100
AcDbMText
 10
3.993294438288314
 20
11.34498740986246
 30
0.0
 40
0.375
 41
0.0
 71
     5
 72
     1
  1
\A1;3.337
 73
     1
 44
1.0
  0
POINT
  5
5C8C
330
32DB
100
AcDbEntity
  8
DEFPOINTS
 62
     0
100
AcDbPoint
 10
7.312546536314096
 20
9.676487409862463
 30
0.0
  0
POINT
  5
5C8D
330
32DB
100
AcDbEntity
  8
DEFPOINTS
 62
     0
100
AcDbPoint
 10
7.312546536314096
 20
13.01348740986246
 30
0.0
  0
POINT
  5
5C8E
330
32DB
100
AcDbEntity
  8
DEFPOINTS
 62
     0
100
AcDbPoint
 10
3.993294438288316
 20
13.01348740986246
 30
0.0
  0
ENDBLK
  5
32E7
330
32DB
100
AcDbEntity
  8
0
100
AcDbBlockEnd
  0
BLOCK
  5
3DDE
330
3DD3
100
AcDbEntity
  8
0
100
AcDbBlockBegin
  2
*D42
 70
     1
 10
0.0
 20
0.0
 30
0.0
  3
*D42
  1

  0
LINE
  5
5A57
330
3DD3
100
AcDbEntity
  8
DIM
 62
     0
370
    -2
100
AcDbLine
 10
47.07869058283171
 20
24.95629803581831
 30
0.0
 11
48.45828606951954
 21
24.95629803581831
 31
0.0
  0
LINE
  5
5A58
330
3DD3
100
AcDbEntity
  8
DIM
 62
     0
370
    -2
100
AcDbLine
 10
47.07869058283171
 20
26.26829803581831
 30
0.0
 11
48.45828606951954
 21
26.26829803581831
 31
0.0
  0
LINE
  5
5A59
330
3DD3
100
AcDbEntity
  8
DIM
 62
     0
370
    -2
100
AcDbLine
 10
48.17928606951953
 20
24.41629803581831
 30
0.0
 11
48.17928606951953
 21
23.87629803581831
 31
0.0
  0
LINE
  5
5A5A
330
3DD3
100
AcDbEntity
  8
DIM
 62
     0
370
    -2
100
AcDbLine
 10
48.17928606951953
 20
26.8082980358183
 30
0.0
 11
48.17928606951953
 21
27.3482980358183
 31
0.0
  0
SOLID
  5
5A5B
330
3DD3
100
AcDbEntity
  8
DIM
 62
     0
100
AcDbTrace
 10
48.08928606951953
 20
24.41629803581831
 30
0.0
 11
48.26928606951954
 21
24.41629803581831
 31
0.0
 12
48.17928606951953
 22
24.95629803581831
 32
0.0
 13
48.17928606951953
 23
24.95629803581831
 33
0.0
  0
SOLID
  5
5A5C
330
3DD3
100
AcDbEntity
  8
DIM
 62
     0
100
AcDbTrace
 10
48.08928606951953
 20
26.8082980358183
 30
0.0
 11
48.26928606951954
 21
26.8082980358183
 31
0.0
 12
48.17928606951953
 22
26.26829803581831
 32
0.0
 13
48.17928606951953
 23
26.26829803581831
 33
0.0
  0
MTEXT
  5
5A5D
330
3DD3
100
AcDbEntity
  8
DIM
 62
     0
100
AcDbMText
 10
48.17928606951952
 20
25.61229803581831
 30
0.0
 40
0.375
 41
0.0
 71
     5
 72
     1
  1
\A1;0.328 DIA.\PC'BORE
 73
     1
 44
1.0
  0
POINT
  5
5A5E
330
3DD3
100
AcDbEntity
  8
DEFPOINTS
 62
     0
100
AcDbPoint
 10
46.88969058283172
 20
24.95629803581831
 30
0.0
  0
POINT
  5
5A5F
330
3DD3
100
AcDbEntity
  8
DEFPOINTS
 62
     0
100
AcDbPoint
 10
46.88969058283171
 20
26.26829803581831
 30
0.0
  0
POINT
  5
5A60
330
3DD3
100
AcDbEntity
  8
DEFPOINTS
 62
     0
100
AcDbPoint
 10
48.17928606951953
 20
26.26829803581831
 30
0.0
  0
ENDBLK
  5
3DDF
330
3DD3
100
AcDbEntity
  8
0
100
AcDbBlockEnd
  0
BLOCK
  5
3DEB
330
3DE0
100
AcDbEntity
  8
0
100
AcDbBlockBegin
  2
*D43
 70
     1
 10
0.0
 20
0.0
 30
0.0
  3
*D43
  1

  0
LINE
  5
5A61
330
3DE0
100
AcDbEntity
  8
DIM
 62
     0
370
    -2
100
AcDbLine
 10
46.88969058283172
 20
24.63929803581843
 30
0.0
 11
46.88969058283172
 21
23.68603977382498
 31
0.0
  0
LINE
  5
5A62
330
3DE0
100
AcDbEntity
  8
DIM
 62
     0
370
    -2
100
AcDbLine
 10
43.95369058283174
 20
24.76729803581831
 30
0.0
 11
43.95369058283174
 21
23.68603977382498
 31
0.0
  0
LINE
  5
5A63
330
3DE0
100
AcDbEntity
  8
DIM
 62
     0
370
    -2
100
AcDbLine
 10
46.34969058283171
 20
23.96503977382498
 30
0.0
 11
46.23075308283173
 21
23.96503977382498
 31
0.0
  0
LINE
  5
5A64
330
3DE0
100
AcDbEntity
  8
DIM
 62
     0
370
    -2
100
AcDbLine
 10
44.49369058283173
 20
23.96503977382498
 30
0.0
 11
44.61262808283172
 21
23.96503977382498
 31
0.0
  0
SOLID
  5
5A65
330
3DE0
100
AcDbEntity
  8
DIM
 62
     0
100
AcDbTrace
 10
46.34969058283171
 20
24.05503977382498
 30
0.0
 11
46.34969058283171
 21
23.87503977382498
 31
0.0
 12
46.88969058283172
 22
23.96503977382498
 32
0.0
 13
46.88969058283172
 23
23.96503977382498
 33
0.0
  0
SOLID
  5
5A66
330
3DE0
100
AcDbEntity
  8
DIM
 62
     0
100
AcDbTrace
 10
44.49369058283173
 20
24.05503977382498
 30
0.0
 11
44.49369058283173
 21
23.87503977382498
 31
0.0
 12
43.95369058283174
 22
23.96503977382498
 32
0.0
 13
43.95369058283174
 23
23.96503977382498
 33
0.0
  0
MTEXT
  5
5A67
330
3DE0
100
AcDbEntity
  8
DIM
 62
     0
100
AcDbMText
 10
45.42169058283173
 20
23.96503977382498
 30
0.0
 40
0.375
 41
0.0
 71
     5
 72
     1
  1
\A1;0.734
 73
     1
 44
1.0
  0
POINT
  5
5A68
330
3DE0
100
AcDbEntity
  8
DEFPOINTS
 62
     0
100
AcDbPoint
 10
46.88969058283172
 20
24.82829803581843
 30
0.0
  0
POINT
  5
5A69
330
3DE0
100
AcDbEntity
  8
DEFPOINTS
 62
     0
100
AcDbPoint
 10
43.95369058283174
 20
24.95629803581831
 30
0.0
  0
POINT
  5
5A6A
330
3DE0
100
AcDbEntity
  8
DEFPOINTS
 62
     0
100
AcDbPoint
 10
43.95369058283174
 20
23.96503977382498
 30
0.0
  0
ENDBLK
  5
3DEC
330
3DE0
100
AcDbEntity
  8
0
100
AcDbBlockEnd
  0
BLOCK
  5
498F
330
4984
100
AcDbEntity
  8
0
100
AcDbBlockBegin
  2
*D44
 70
     1
 10
0.0
 20
0.0
 30
0.0
  3
*D44
  1

  0
LINE
  5
5C8F
330
4984
100
AcDbEntity
  8
DIM
 62
     0
370
    -2
100
AcDbLine
 10
7.55754653631409
 20
20.15348740986245
 30
0.0
 11
7.55754653631409
 21
18.74170388826419
 31
0.0
  0
LINE
  5
5C90
330
4984
100
AcDbEntity
  8
DIM
 62
     0
370
    -2
100
AcDbLine
 10
6.682546536314092
 20
20.18548740986245
 30
0.0
 11
6.682546536314092
 21
18.74170388826419
 31
0.0
  0
LINE
  5
5C91
330
4984
100
AcDbEntity
  8
DIM
 62
     0
370
    -2
100
AcDbLine
 10
8.097546536314091
 20
19.02070388826419
 30
0.0
 11
8.63754653631409
 21
19.02070388826419
 31
0.0
  0
LINE
  5
5C92
330
4984
100
AcDbEntity
  8
DIM
 62
     0
370
    -2
100
AcDbLine
 10
6.142546536314092
 20
19.02070388826419
 30
0.0
 11
5.602546536314092
 21
19.02070388826419
 31
0.0
  0
SOLID
  5
5C93
330
4984
100
AcDbEntity
  8
DIM
 62
     0
100
AcDbTrace
 10
8.097546536314091
 20
19.11070388826419
 30
0.0
 11
8.097546536314091
 21
18.93070388826419
 31
0.0
 12
7.55754653631409
 22
19.02070388826419
 32
0.0
 13
7.55754653631409
 23
19.02070388826419
 33
0.0
  0
SOLID
  5
5C94
330
4984
100
AcDbEntity
  8
DIM
 62
     0
100
AcDbTrace
 10
6.142546536314092
 20
19.11070388826419
 30
0.0
 11
6.142546536314092
 21
18.93070388826419
 31
0.0
 12
6.682546536314092
 22
19.02070388826419
 32
0.0
 13
6.682546536314092
 23
19.02070388826419
 33
0.0
  0
MTEXT
  5
5C95
330
4984
100
AcDbEntity
  8
DIM
 62
     0
100
AcDbMText
 10
4.793484036314092
 20
19.02070388826419
 30
0.0
 40
0.375
 41
0.0
 71
     5
 72
     1
  1
\A1;0.875
 73
     1
 44
1.0
  0
POINT
  5
5C96
330
4984
100
AcDbEntity
  8
DEFPOINTS
 62
     0
100
AcDbPoint
 10
7.55754653631409
 20
20.34248740986245
 30
0.0
  0
POINT
  5
5C97
330
4984
100
AcDbEntity
  8
DEFPOINTS
 62
     0
100
AcDbPoint
 10
6.682546536314092
 20
20.37448740986245
 30
0.0
  0
POINT
  5
5C98
330
4984
100
AcDbEntity
  8
DEFPOINTS
 62
     0
100
AcDbPoint
 10
6.682546536314092
 20
19.02070388826419
 30
0.0
  0
ENDBLK
  5
4990
330
4984
100
AcDbEntity
  8
0
100
AcDbBlockEnd
  0
BLOCK
  5
5050
330
5045
100
AcDbEntity
  8
0
100
AcDbBlockBegin
  2
*D45
 70
     1
 10
0.0
 20
0.0
 30
0.0
  3
*D45
  1

  0
LINE
  5
5C02
330
5045
100
AcDbEntity
  8
DIM
 62
     0
370
    -2
100
AcDbLine
 10
11.2105465363141
 20
16.54848740986246
 30
0.0
 11
11.2105465363141
 21
17.38548740986246
 31
0.0
  0
LINE
  5
5C03
330
5045
100
AcDbEntity
  8
DIM
 62
     0
370
    -2
100
AcDbLine
 10
15.10854653631411
 20
16.54848740986246
 30
0.0
 11
15.10854653631411
 21
17.38548740986246
 31
0.0
  0
LINE
  5
5C04
330
5045
100
AcDbEntity
  8
DIM
 62
     0
370
    -2
100
AcDbLine
 10
11.7505465363141
 20
17.10648740986246
 30
0.0
 11
12.32704653631411
 21
17.10648740986246
 31
0.0
  0
LINE
  5
5C05
330
5045
100
AcDbEntity
  8
DIM
 62
     0
370
    -2
100
AcDbLine
 10
14.56854653631411
 20
17.10648740986246
 30
0.0
 11
13.99204653631411
 21
17.10648740986246
 31
0.0
  0
SOLID
  5
5C06
330
5045
100
AcDbEntity
  8
DIM
 62
     0
100
AcDbTrace
 10
11.7505465363141
 20
17.19648740986246
 30
0.0
 11
11.7505465363141
 21
17.01648740986246
 31
0.0
 12
11.2105465363141
 22
17.10648740986246
 32
0.0
 13
11.2105465363141
 23
17.10648740986246
 33
0.0
  0
SOLID
  5
5C07
330
5045
100
AcDbEntity
  8
DIM
 62
     0
100
AcDbTrace
 10
14.56854653631411
 20
17.19648740986246
 30
0.0
 11
14.56854653631411
 21
17.01648740986246
 31
0.0
 12
15.10854653631411
 22
17.10648740986246
 32
0.0
 13
15.10854653631411
 23
17.10648740986246
 33
0.0
  0
MTEXT
  5
5C08
330
5045
100
AcDbEntity
  8
DIM
 62
     0
100
AcDbMText
 10
13.15954653631411
 20
17.10648740986246
 30
0.0
 40
0.375
 41
0.0
 71
     5
 72
     1
  1
\A1;3.898
 73
     1
 44
1.0
  0
POINT
  5
5C09
330
5045
100
AcDbEntity
  8
DEFPOINTS
 62
     0
100
AcDbPoint
 10
11.2105465363141
 20
16.35948740986246
 30
0.0
  0
POINT
  5
5C0A
330
5045
100
AcDbEntity
  8
DEFPOINTS
 62
     0
100
AcDbPoint
 10
15.10854653631411
 20
16.35948740986246
 30
0.0
  0
POINT
  5
5C0B
330
5045
100
AcDbEntity
  8
DEFPOINTS
 62
     0
100
AcDbPoint
 10
15.10854653631411
 20
17.10648740986246
 30
0.0
  0
ENDBLK
  5
5051
330
5045
100
AcDbEntity
  8
0
100
AcDbBlockEnd
  0
BLOCK
  5
5795
330
5789
100
AcDbEntity
  8
0
100
AcDbBlockBegin
  2
*D46
 70
     1
 10
0.0
 20
0.0
 30
0.0
  3
*D46
  1

  0
LINE
  5
5A4D
330
5789
100
AcDbEntity
  8
DIM
 62
     0
370
    -2
100
AcDbLine
 10
41.97849516835531
 20
25.95629803581839
 30
0.0
 11
40.60263952791802
 21
25.95629803581839
 31
0.0
  0
LINE
  5
5A4E
330
5789
100
AcDbEntity
  8
DIM
 62
     0
370
    -2
100
AcDbLine
 10
41.97669058283167
 20
25.26829803581843
 30
0.0
 11
40.60263952791802
 21
25.26829803581843
 31
0.0
  0
LINE
  5
5A4F
330
5789
100
AcDbEntity
  8
DIM
 62
     0
370
    -2
100
AcDbLine
 10
40.88163952791801
 20
26.49629803581838
 30
0.0
 11
40.88163952791801
 21
27.03629803581838
 31
0.0
  0
LINE
  5
5A50
330
5789
100
AcDbEntity
  8
DIM
 62
     0
370
    -2
100
AcDbLine
 10
40.88163952791801
 20
24.72829803581843
 30
0.0
 11
40.88163952791801
 21
24.18829803581843
 31
0.0
  0
SOLID
  5
5A51
330
5789
100
AcDbEntity
  8
DIM
 62
     0
100
AcDbTrace
 10
40.79163952791801
 20
26.49629803581838
 30
0.0
 11
40.97163952791802
 21
26.49629803581838
 31
0.0
 12
40.88163952791801
 22
25.95629803581839
 32
0.0
 13
40.88163952791801
 23
25.95629803581839
 33
0.0
  0
SOLID
  5
5A52
330
5789
100
AcDbEntity
  8
DIM
 62
     0
100
AcDbTrace
 10
40.79163952791801
 20
24.72829803581843
 30
0.0
 11
40.97163952791802
 21
24.72829803581843
 31
0.0
 12
40.88163952791801
 22
25.26829803581843
 32
0.0
 13
40.88163952791801
 23
25.26829803581843
 33
0.0
  0
MTEXT
  5
5A53
330
5789
100
AcDbEntity
  8
DIM
 62
     0
100
AcDbMText
 10
40.88163952791801
 20
25.61229803581841
 30
0.0
 40
0.375
 41
0.0
 71
     5
 72
     1
  1
\A1;0.172 DIA.
 73
     1
 44
1.0
  0
POINT
  5
5A54
330
5789
100
AcDbEntity
  8
DEFPOINTS
 62
     0
100
AcDbPoint
 10
42.1674951683553
 20
25.95629803581839
 30
0.0
  0
POINT
  5
5A55
330
5789
100
AcDbEntity
  8
DEFPOINTS
 62
     0
100
AcDbPoint
 10
42.16569058283167
 20
25.26829803581843
 30
0.0
  0
POINT
  5
5A56
330
5789
100
AcDbEntity
  8
DEFPOINTS
 62
     0
100
AcDbPoint
 10
40.88163952791801
 20
25.26829803581843
 30
0.0
  0
ENDBLK
  5
5796
330
5789
100
AcDbEntity
  8
0
100
AcDbBlockEnd
  0
BLOCK
  5
57AF
330
57A3
100
AcDbEntity
  8
0
100
AcDbBlockBegin
  2
*D47
 70
     1
 10
0.0
 20
0.0
 30
0.0
  3
*D47
  1

  0
LINE
  5
5A42
330
57A3
100
AcDbEntity
  8
DIM
 62
     0
370
    -2
100
AcDbLine
 10
41.97669058283165
 20
26.70029803581843
 30
0.0
 11
39.34533159369101
 21
26.70029803581844
 31
0.0
  0
LINE
  5
5A43
330
57A3
100
AcDbEntity
  8
DIM
 62
     0
370
    -2
100
AcDbLine
 10
41.97669058283165
 20
26.36429803581843
 30
0.0
 11
39.34533159369101
 21
26.36429803581844
 31
0.0
  0
LINE
  5
5A44
330
57A3
100
AcDbEntity
  8
DIM
 62
     0
370
    -2
100
AcDbLine
 10
39.624331593691
 20
27.24029803581843
 30
0.0
 11
39.624331593691
 21
27.78029803581844
 31
0.0
  0
LINE
  5
5A45
330
57A3
100
AcDbEntity
  8
DIM
 62
     0
370
    -2
100
AcDbLine
 10
39.624331593691
 20
25.82429803581844
 30
0.0
 11
39.624331593691
 21
25.28429803581843
 31
0.0
  0
LINE
  5
5A46
330
57A3
100
AcDbEntity
  8
DIM
 62
     0
370
    -2
100
AcDbLine
 10
39.624331593691
 20
25.28429803581843
 30
0.0
 11
39.084331593691
 21
25.28429803581843
 31
0.0
  0
SOLID
  5
5A47
330
57A3
100
AcDbEntity
  8
DIM
 62
     0
100
AcDbTrace
 10
39.534331593691
 20
27.24029803581843
 30
0.0
 11
39.714331593691
 21
27.24029803581843
 31
0.0
 12
39.624331593691
 22
26.70029803581844
 32
0.0
 13
39.624331593691
 23
26.70029803581844
 33
0.0
  0
SOLID
  5
5A48
330
57A3
100
AcDbEntity
  8
DIM
 62
     0
100
AcDbTrace
 10
39.534331593691
 20
25.82429803581844
 30
0.0
 11
39.714331593691
 21
25.82429803581844
 31
0.0
 12
39.624331593691
 22
26.36429803581844
 32
0.0
 13
39.624331593691
 23
26.36429803581844
 33
0.0
  0
MTEXT
  5
5A49
330
57A3
100
AcDbEntity
  8
DIM
 62
     0
100
AcDbMText
 10
38.29870659369099
 20
25.28429803581844
 30
0.0
 40
0.375
 41
0.0
 71
     5
 72
     1
  1
\A1;0.084
 73
     1
 44
1.0
  0
POINT
  5
5A4A
330
57A3
100
AcDbEntity
  8
DEFPOINTS
 62
     0
100
AcDbPoint
 10
42.16569058283165
 20
26.70029803581843
 30
0.0
  0
POINT
  5
5A4B
330
57A3
100
AcDbEntity
  8
DEFPOINTS
 62
     0
100
AcDbPoint
 10
42.16569058283165
 20
26.36429803581843
 30
0.0
  0
POINT
  5
5A4C
330
57A3
100
AcDbEntity
  8
DEFPOINTS
 62
     0
100
AcDbPoint
 10
39.624331593691
 20
26.36429803581844
 30
0.0
  0
ENDBLK
  5
57B0
330
57A3
100
AcDbEntity
  8
0
100
AcDbBlockEnd
  0
BLOCK
  5
5806
330
57FB
100
AcDbEntity
  8
0
100
AcDbBlockBegin
  2
*D48
 70
     1
 10
0.0
 20
0.0
 30
0.0
  3
*D48
  1

  0
LINE
  5
5A38
330
57FB
100
AcDbEntity
  8
DIM
 62
     0
370
    -2
100
AcDbLine
 10
42.16569058283164
 20
28.06362998750203
 30
0.0
 11
42.16569058283164
 21
28.96693443050669
 31
0.0
  0
LINE
  5
5A39
330
57FB
100
AcDbEntity
  8
DIM
 62
     0
370
    -2
100
AcDbLine
 10
42.62569058283159
 20
26.88929803581843
 30
0.0
 11
42.62569058283159
 21
28.96693443050669
 31
0.0
  0
LINE
  5
5A3A
330
57FB
100
AcDbEntity
  8
DIM
 62
     0
370
    -2
100
AcDbLine
 10
41.62569058283164
 20
28.68793443050668
 30
0.0
 11
41.08569058283165
 21
28.68793443050668
 31
0.0
  0
LINE
  5
5A3B
330
57FB
100
AcDbEntity
  8
DIM
 62
     0
370
    -2
100
AcDbLine
 10
43.16569058283159
 20
28.68793443050668
 30
0.0
 11
43.70569058283159
 21
28.68793443050668
 31
0.0
  0
SOLID
  5
5A3C
330
57FB
100
AcDbEntity
  8
DIM
 62
     0
100
AcDbTrace
 10
41.62569058283164
 20
28.77793443050668
 30
0.0
 11
41.62569058283164
 21
28.59793443050668
 31
0.0
 12
42.16569058283164
 22
28.68793443050668
 32
0.0
 13
42.16569058283164
 23
28.68793443050668
 33
0.0
  0
SOLID
  5
5A3D
330
57FB
100
AcDbEntity
  8
DIM
 62
     0
100
AcDbTrace
 10
43.16569058283159
 20
28.77793443050668
 30
0.0
 11
43.16569058283159
 21
28.59793443050668
 31
0.0
 12
42.62569058283159
 22
28.68793443050668
 32
0.0
 13
42.62569058283159
 23
28.68793443050668
 33
0.0
  0
MTEXT
  5
5A3E
330
57FB
100
AcDbEntity
  8
DIM
 62
     0
100
AcDbMText
 10
44.42100308283159
 20
28.68793443050668
 30
0.0
 40
0.375
 41
0.0
 71
     5
 72
     1
  1
\A1;0.115
 73
     1
 44
1.0
  0
POINT
  5
5A3F
330
57FB
100
AcDbEntity
  8
DEFPOINTS
 62
     0
100
AcDbPoint
 10
42.16569058283164
 20
27.87462998750203
 30
0.0
  0
POINT
  5
5A40
330
57FB
100
AcDbEntity
  8
DEFPOINTS
 62
     0
100
AcDbPoint
 10
42.62569058283159
 20
26.70029803581843
 30
0.0
  0
POINT
  5
5A41
330
57FB
100
AcDbEntity
  8
DEFPOINTS
 62
     0
100
AcDbPoint
 10
42.62569058283159
 20
28.68793443050668
 30
0.0
  0
ENDBLK
  5
5807
330
57FB
100
AcDbEntity
  8
0
100
AcDbBlockEnd
  0
BLOCK
  5
5A79
330
5A6E
100
AcDbEntity
  8
0
100
AcDbBlockBegin
  2
*D49
 70
     1
 10
0.0
 20
0.0
 30
0.0
  3
*D49
  1

  0
LINE
  5
5D60
330
5A6E
100
AcDbEntity
  8
DIM
 62
     0
370
    -2
100
AcDbLine
 10
38.59247505692697
 20
20.78148740986245
 30
0.0
 11
38.59247505692697
 21
21.60422156412062
 31
0.0
  0
LINE
  5
5D61
330
5A6E
100
AcDbEntity
  8
DIM
 62
     0
370
    -2
100
AcDbLine
 10
40.75747505692695
 20
20.71948740986245
 30
0.0
 11
40.75747505692695
 21
21.60422156412062
 31
0.0
  0
LINE
  5
5D62
330
5A6E
100
AcDbEntity
  8
DIM
 62
     0
370
    -2
100
AcDbLine
 10
38.05247505692697
 20
21.32522156412062
 30
0.0
 11
37.51247505692697
 21
21.32522156412062
 31
0.0
  0
LINE
  5
5D63
330
5A6E
100
AcDbEntity
  8
DIM
 62
     0
370
    -2
100
AcDbLine
 10
41.29747505692695
 20
21.32522156412062
 30
0.0
 11
41.83747505692696
 21
21.32522156412062
 31
0.0
  0
SOLID
  5
5D64
330
5A6E
100
AcDbEntity
  8
DIM
 62
     0
100
AcDbTrace
 10
38.05247505692697
 20
21.41522156412062
 30
0.0
 11
38.05247505692697
 21
21.23522156412062
 31
0.0
 12
38.59247505692697
 22
21.32522156412062
 32
0.0
 13
38.59247505692697
 23
21.32522156412062
 33
0.0
  0
SOLID
  5
5D65
330
5A6E
100
AcDbEntity
  8
DIM
 62
     0
100
AcDbTrace
 10
41.29747505692695
 20
21.41522156412062
 30
0.0
 11
41.29747505692695
 21
21.23522156412062
 31
0.0
 12
40.75747505692695
 22
21.32522156412062
 32
0.0
 13
40.75747505692695
 23
21.32522156412062
 33
0.0
  0
MTEXT
  5
5D66
330
5A6E
100
AcDbEntity
  8
DIM
 62
     0
100
AcDbMText
 10
39.67497505692696
 20
21.32522156412062
 30
0.0
 40
0.375
 41
0.0
 71
     5
 72
     1
  1
\A1;2.165
 73
     1
 44
1.0
  0
POINT
  5
5D67
330
5A6E
100
AcDbEntity
  8
DEFPOINTS
 62
     0
100
AcDbPoint
 10
38.59247505692697
 20
20.59248740986245
 30
0.0
  0
POINT
  5
5D68
330
5A6E
100
AcDbEntity
  8
DEFPOINTS
 62
     0
100
AcDbPoint
 10
40.75747505692695
 20
20.53048740986245
 30
0.0
  0
POINT
  5
5D69
330
5A6E
100
AcDbEntity
  8
DEFPOINTS
 62
     0
100
AcDbPoint
 10
40.75747505692695
 20
21.32522156412062
 30
0.0
  0
ENDBLK
  5
5A7A
330
5A6E
100
AcDbEntity
  8
0
100
AcDbBlockEnd
  0
ENDSEC
  0
SECTION
  2
ENTITIES
  0
LINE
  5
1F65
330
13FD
100
AcDbEntity
  8
OBJECT
100
AcDbLine
 10
46.62588778584816
 20
8.880487409862475
 30
0.0
 11
46.68088778584817
 21
8.880487409862475
 31
0.0
  0
LWPOLYLINE
  5
1FC1
330
13FD
100
AcDbEntity
  8
OBJECT
100
AcDbPolyline
 90
        6
 70
     1
 43
0.0
 10
46.72088778584816
 20
20.59248740986244
 10
46.72088778584816
 20
8.780487409862473
 10
48.84388778584817
 20
8.780487409862473
 42
0.4142135623730951
 10
48.90588778584816
 20
8.842487409862478
 10
48.90588778584816
 20
20.53048740986246
 42
0.414213562373096
 10
48.84388778584817
 20
20.59248740986246
  0
LWPOLYLINE
  5
1FC9
330
13FD
100
AcDbEntity
  8
OBJECT
100
AcDbPolyline
 90
        4
 70
     0
 43
0.0
 10
46.72088778584816
 20
8.800487409862471
 10
46.68088778584817
 20
8.800487409862471
 10
46.68088778584817
 20
20.57248740986246
 10
46.72088778584816
 20
20.57248740986245
  0
LWPOLYLINE
  5
1FCF
330
13FD
100
AcDbEntity
  8
OBJECT
100
AcDbPolyline
 90
        6
 70
     1
 43
0.0
 10
44.57788778584816
 20
20.59248740986244
 42
0.4142135623730951
 10
44.51588778584815
 20
20.53048740986246
 10
44.51588778584815
 20
8.842487409862471
 42
0.4142135623730951
 10
44.57788778584816
 20
8.780487409862473
 10
46.68088778584817
 20
8.780487409862473
 10
46.68088778584817
 20
20.59248740986244
  0
DIMENSION
  5
2028
330
13FD
100
AcDbEntity
  8
DIM
100
AcDbDimension
  2
*D1
 10
48.90588778584816
 20
7.143898027688795
 30
0.0
 11
47.20288778584815
 21
7.143898027688795
 31
0.0
 70
   160
 71
     5
 42
4.390000000000007
  3
23NSTD
100
AcDbAlignedDimension
 13
44.51588778584815
 23
8.842487409862485
 33
0.0
 14
48.90588778584816
 24
8.842487409862499
 34
0.0
 50
180.0
100
AcDbRotatedDimension
  0
DIMENSION
  5
2035
330
13FD
100
AcDbEntity
  8
DIM
100
AcDbDimension
  2
*D2
 10
44.51588778584815
 20
8.033487409862495
 30
0.0
 11
42.04088778584814
 21
8.033487409862495
 31
0.0
 70
    32
  1
<> REF.
 71
     5
 42
2.16500000000002
  3
23NSTD
100
AcDbAlignedDimension
 13
46.68088778584817
 23
8.780487409862494
 33
0.0
 14
44.51588778584815
 24
8.842487409862485
 34
0.0
 50
180.0
100
AcDbRotatedDimension
  0
CIRCLE
  5
2044
330
13FD
100
AcDbEntity
  8
OBJECT
100
AcDbCircle
 10
11.2105465363141
 20
20.10948740986247
 30
0.0
 40
0.1575
  0
CIRCLE
  5
2045
330
13FD
100
AcDbEntity
  8
OBJECT
100
AcDbCircle
 10
11.2105465363141
 20
9.263487409862474
 30
0.0
 40
0.1575
  0
CIRCLE
  5
2046
330
13FD
100
AcDbEntity
  8
OBJECT
100
AcDbCircle
 10
7.312546536314094
 20
19.69648740986246
 30
0.0
 40
0.1575
  0
CIRCLE
  5
2047
330
13FD
100
AcDbEntity
  8
OBJECT
100
AcDbCircle
 10
7.312546536314094
 20
9.676487409862463
 30
0.0
 40
0.1575
  0
CIRCLE
  5
2048
330
13FD
100
AcDbEntity
  8
OBJECT
100
AcDbCircle
 10
15.10854653631409
 20
9.676487409862463
 30
0.0
 40
0.1575
  0
CIRCLE
  5
2049
330
13FD
100
AcDbEntity
  8
OBJECT
100
AcDbCircle
 10
15.10854653631411
 20
19.69648740986246
 30
0.0
 40
0.1575
  0
CIRCLE
  5
204B
330
13FD
100
AcDbEntity
  8
OBJECT
100
AcDbCircle
 10
7.279546536314107
 20
9.038487409862462
 30
0.0
 40
0.085
  0
CIRCLE
  5
204C
330
13FD
100
AcDbEntity
  8
OBJECT
100
AcDbCircle
 10
6.934546536314094
 20
20.33448740986247
 30
0.0
 40
0.094
  0
CIRCLE
  5
204D
330
13FD
100
AcDbEntity
  8
OBJECT
100
AcDbCircle
 10
6.934546536314094
 20
20.33448740986247
 30
0.0
 40
0.066
  0
CIRCLE
  5
204E
330
13FD
100
AcDbEntity
  8
OBJECT
100
AcDbCircle
 10
6.934546536314094
 20
9.038487409862462
 30
0.0
 40
0.066
  0
CIRCLE
  5
204F
330
13FD
100
AcDbEntity
  8
OBJECT
100
AcDbCircle
 10
6.934546536314094
 20
9.038487409862462
 30
0.0
 40
0.094
  0
CIRCLE
  5
2050
330
13FD
100
AcDbEntity
  8
OBJECT
100
AcDbCircle
 10
15.48654653631408
 20
9.038487409862462
 30
0.0
 40
0.066
  0
CIRCLE
  5
2051
330
13FD
100
AcDbEntity
  8
OBJECT
100
AcDbCircle
 10
15.48654653631408
 20
9.038487409862462
 30
0.0
 40
0.094
  0
CIRCLE
  5
2052
330
13FD
100
AcDbEntity
  8
OBJECT
100
AcDbCircle
 10
15.48654653631408
 20
20.33448740986247
 30
0.0
 40
0.066
  0
CIRCLE
  5
2053
330
13FD
100
AcDbEntity
  8
OBJECT
100
AcDbCircle
 10
15.48654653631408
 20
20.33448740986247
 30
0.0
 40
0.094
  0
LWPOLYLINE
  5
2054
330
13FD
100
AcDbEntity
  8
OBJECT
100
AcDbPolyline
 90
        8
 70
     1
 43
0.0
 10
15.7385465363141
 20
8.998487409862475
 10
15.73854653631408
 20
20.37448740986246
 42
0.4142135623730943
 10
15.52054653631407
 20
20.59248740986247
 10
6.900546536314088
 20
20.59248740986247
 42
0.4142135623730951
 10
6.682546536314097
 20
20.37448740986246
 10
6.682546536314097
 20
8.998487409862475
 42
0.4142135623730951
 10
6.900546536314088
 20
8.780487409862473
 10
15.5205465363141
 20
8.780487409862473
 42
0.4142135623730959
  0
CIRCLE
  5
205E
330
13FD
100
AcDbEntity
  8
OBJECT
100
AcDbCircle
 10
6.934546536314094
 20
14.68648740986244
 30
0.0
 40
0.094
  0
CIRCLE
  5
205F
330
13FD
100
AcDbEntity
  8
OBJECT
100
AcDbCircle
 10
6.934546536314094
 20
14.68648740986244
 30
0.0
 40
0.066
  0
CIRCLE
  5
2060
330
13FD
100
AcDbEntity
  8
OBJECT
100
AcDbCircle
 10
15.48654653631409
 20
14.68648740986246
 30
0.0
 40
0.094
  0
CIRCLE
  5
2061
330
13FD
100
AcDbEntity
  8
OBJECT
100
AcDbCircle
 10
15.48654653631409
 20
14.68648740986246
 30
0.0
 40
0.066
  0
LWPOLYLINE
  5
2062
330
13FD
100
AcDbEntity
  8
HIDDEN
100
AcDbPolyline
 90
        5
 70
     1
 43
0.0
 10
6.752546536314092
 20
9.190487409862484
 10
7.077546536314081
 20
9.190487409862484
 10
7.077546536314081
 20
8.850487409862481
 10
6.900546536314088
 20
8.850487409862481
 42
-0.4142135623730995
 10
6.752546536314092
 20
8.998487409862475
  0
CIRCLE
  5
2069
330
13FD
100
AcDbEntity
  8
OBJECT
100
AcDbCircle
 10
15.10854653631411
 20
19.69648740986246
 30
0.0
 40
0.06
  0
CIRCLE
  5
206A
330
13FD
100
AcDbEntity
  8
OBJECT
100
AcDbCircle
 10
11.2105465363141
 20
20.10948740986247
 30
0.0
 40
0.06
  0
CIRCLE
  5
206B
330
13FD
100
AcDbEntity
  8
OBJECT
100
AcDbCircle
 10
7.312546536314094
 20
19.69648740986246
 30
0.0
 40
0.06
  0
CIRCLE
  5
206C
330
13FD
100
AcDbEntity
  8
OBJECT
100
AcDbCircle
 10
7.312546536314094
 20
9.676487409862463
 30
0.0
 40
0.06
  0
CIRCLE
  5
206D
330
13FD
100
AcDbEntity
  8
OBJECT
100
AcDbCircle
 10
11.2105465363141
 20
9.263487409862474
 30
0.0
 40
0.06
  0
CIRCLE
  5
206E
330
13FD
100
AcDbEntity
  8
OBJECT
100
AcDbCircle
 10
15.10854653631409
 20
9.676487409862463
 30
0.0
 40
0.06
  0
LINE
  5
206F
330
13FD
100
AcDbEntity
  8
OBJECT
100
AcDbLine
 10
20.04873240228527
 20
8.880487409862482
 30
0.0
 11
20.10373240228527
 21
8.880487409862482
 31
0.0
  0
LWPOLYLINE
  5
2070
330
13FD
100
AcDbEntity
  8
OBJECT
100
AcDbPolyline
 90
        4
 70
     0
 43
0.0
 10
22.18873240228527
 20
9.518987409862454
 10
21.91373240228527
 20
9.518987409862454
 10
21.91373240228527
 20
9.833987409862455
 10
22.18873240228527
 20
9.833987409862455
  0
LINE
  5
2076
330
13FD
100
AcDbEntity
  8
OBJECT
100
AcDbLine
 10
20.04873240228527
 20
14.92248740986245
 30
0.0
 11
22.18873240228527
 21
14.92248740986245
 31
0.0
  0
LINE
  5
2077
330
13FD
100
AcDbEntity
  8
OBJECT
100
AcDbLine
 10
20.04873240228527
 20
14.45048740986245
 30
0.0
 11
22.18873240228527
 21
14.45048740986245
 31
0.0
  0
LINE
  5
2078
330
13FD
100
AcDbEntity
  8
HIDDEN
100
AcDbLine
 10
6.822546536314085
 20
2.914924588606247
 30
0.0
 11
6.822546536314085
 21
0.7749245886062255
 31
0.0
  0
LWPOLYLINE
  5
2079
330
13FD
100
AcDbEntity
  8
HIDDEN
  6
HIDDEN2
100
AcDbPolyline
 90
        4
 70
     0
 43
0.0
 10
7.155046536314094
 20
0.7749245886062255
 10
7.155046536314094
 20
1.049924588606231
 10
7.470046536314093
 20
1.049924588606231
 10
7.470046536314093
 20
0.7749245886062255
  0
LWPOLYLINE
  5
207F
330
13FD
100
AcDbEntity
  8
HIDDEN
  6
HIDDEN2
100
AcDbPolyline
 90
        4
 70
     0
 43
0.0
 10
7.372546536314095
 20
1.049924588606231
 10
7.372546536314095
 20
0.7299245886062309
 10
7.252546536314092
 20
0.7299245886062309
 10
7.252546536314092
 20
1.049924588606231
  0
LINE
  5
2085
330
13FD
100
AcDbEntity
  8
HIDDEN
100
AcDbLine
 10
15.59854653631409
 20
2.914924588606247
 30
0.0
 11
15.59854653631409
 21
0.7749245886062255
 31
0.0
  0
LINE
  5
2086
330
13FD
100
AcDbEntity
  8
OBJECT
100
AcDbLine
 10
20.10373240228525
 20
20.20948740986248
 30
0.0
 11
20.41873240228523
 21
20.20948740986247
 31
0.0
  0
LINE
  5
2087
330
13FD
100
AcDbEntity
  8
OBJECT
100
AcDbLine
 10
20.10373240228525
 20
20.26848740986247
 30
0.0
 11
20.41873240228523
 21
20.26848740986247
 31
0.0
  0
LINE
  5
2088
330
13FD
100
AcDbEntity
  8
OBJECT
100
AcDbLine
 10
20.10373240228525
 20
20.40048740986248
 30
0.0
 11
20.41873240228523
 21
20.40048740986248
 31
0.0
  0
LINE
  5
2089
330
13FD
100
AcDbEntity
  8
OBJECT
100
AcDbLine
 10
20.10373240228525
 20
20.45948740986248
 30
0.0
 11
20.41873240228525
 21
20.45948740986248
 31
0.0
  0
LINE
  5
208A
330
13FD
100
AcDbEntity
  8
HIDDEN
  6
HIDDEN2
100
AcDbLine
 10
7.059546536314094
 20
2.859924588606254
 30
0.0
 11
7.059546536314094
 21
2.544924588606257
 31
0.0
  0
LINE
  5
208B
330
13FD
100
AcDbEntity
  8
HIDDEN
  6
HIDDEN2
100
AcDbLine
 10
7.000546536314093
 20
2.859924588606254
 30
0.0
 11
7.000546536314093
 21
2.544924588606285
 31
0.0
  0
LINE
  5
208C
330
13FD
100
AcDbEntity
  8
HIDDEN
  6
HIDDEN2
100
AcDbLine
 10
6.868546536314088
 20
2.859924588606254
 30
0.0
 11
6.868546536314088
 21
2.544924588606285
 31
0.0
  0
LINE
  5
208D
330
13FD
100
AcDbEntity
  8
HIDDEN
  6
HIDDEN2
100
AcDbLine
 10
6.809546536314094
 20
2.859924588606254
 30
0.0
 11
6.809546536314094
 21
2.544924588606285
 31
0.0
  0
LINE
  5
208E
330
13FD
100
AcDbEntity
  8
HIDDEN
100
AcDbLine
 10
15.32854653631411
 20
2.544924588606257
 30
0.0
 11
15.65354653631411
 21
2.544924588606299
 31
0.0
  0
LINE
  5
208F
330
13FD
100
AcDbEntity
  8
HIDDEN
  6
HIDDEN2
100
AcDbLine
 10
15.36154653631411
 20
2.859924588606254
 30
0.0
 11
15.36154653631411
 21
2.544924588606257
 31
0.0
  0
LINE
  5
2090
330
13FD
100
AcDbEntity
  8
HIDDEN
  6
HIDDEN2
100
AcDbLine
 10
15.42054653631411
 20
2.859924588606254
 30
0.0
 11
15.42054653631411
 21
2.544924588606285
 31
0.0
  0
LINE
  5
2091
330
13FD
100
AcDbEntity
  8
HIDDEN
  6
HIDDEN2
100
AcDbLine
 10
15.55254653631411
 20
2.859924588606254
 30
0.0
 11
15.55254653631411
 21
2.544924588606285
 31
0.0
  0
LINE
  5
2092
330
13FD
100
AcDbEntity
  8
HIDDEN
  6
HIDDEN2
100
AcDbLine
 10
15.61154653631411
 20
2.859924588606254
 30
0.0
 11
15.61154653631411
 21
2.544924588606285
 31
0.0
  0
DIMENSION
  5
2093
330
13FD
100
AcDbEntity
  8
DIM
100
AcDbDimension
  2
*D3
 10
22.32873240228527
 20
7.362591338740596
 30
0.0
 11
21.21623240228527
 21
7.362591338740596
 31
0.0
 70
   160
 71
     5
 42
2.225000000000004
  3
23NSTD
100
AcDbAlignedDimension
 13
20.10373240228527
 23
8.800487409862471
 33
0.0
 14
22.32873240228527
 24
8.842487409862487
 34
0.0
100
AcDbRotatedDimension
  0
CIRCLE
  5
20A1
330
13FD
100
AcDbEntity
  8
OBJECT
100
AcDbCircle
 10
7.312546536314094
 20
13.01348740986246
 30
0.0
 40
0.06
  0
CIRCLE
  5
20A2
330
13FD
100
AcDbEntity
  8
OBJECT
100
AcDbCircle
 10
7.312546536314094
 20
13.01348740986246
 30
0.0
 40
0.1575
  0
CIRCLE
  5
20A3
330
13FD
100
AcDbEntity
  8
OBJECT
100
AcDbCircle
 10
7.312546536314094
 20
16.35948740986246
 30
0.0
 40
0.06
  0
CIRCLE
  5
20A4
330
13FD
100
AcDbEntity
  8
OBJECT
100
AcDbCircle
 10
7.312546536314094
 20
16.35948740986246
 30
0.0
 40
0.1575
  0
CIRCLE
  5
20A5
330
13FD
100
AcDbEntity
  8
OBJECT
100
AcDbCircle
 10
15.10854653631411
 20
16.35948740986246
 30
0.0
 40
0.06
  0
CIRCLE
  5
20A6
330
13FD
100
AcDbEntity
  8
OBJECT
100
AcDbCircle
 10
15.10854653631411
 20
16.35948740986246
 30
0.0
 40
0.1575
  0
CIRCLE
  5
20A7
330
13FD
100
AcDbEntity
  8
OBJECT
100
AcDbCircle
 10
15.10854653631411
 20
13.01348740986246
 30
0.0
 40
0.06
  0
CIRCLE
  5
20A8
330
13FD
100
AcDbEntity
  8
OBJECT
100
AcDbCircle
 10
15.10854653631411
 20
13.01348740986246
 30
0.0
 40
0.1575
  0
CIRCLE
  5
20A9
330
13FD
100
AcDbEntity
  8
OBJECT
100
AcDbCircle
 10
11.2105465363141
 20
13.01348740986246
 30
0.0
 40
0.06
  0
CIRCLE
  5
20AA
330
13FD
100
AcDbEntity
  8
OBJECT
100
AcDbCircle
 10
11.2105465363141
 20
13.01348740986246
 30
0.0
 40
0.1575
  0
CIRCLE
  5
20AB
330
13FD
100
AcDbEntity
  8
OBJECT
100
AcDbCircle
 10
11.2105465363141
 20
16.35948740986246
 30
0.0
 40
0.06
  0
CIRCLE
  5
20AC
330
13FD
100
AcDbEntity
  8
OBJECT
100
AcDbCircle
 10
11.2105465363141
 20
16.35948740986246
 30
0.0
 40
0.1575
  0
LWPOLYLINE
  5
20AD
330
13FD
100
AcDbEntity
  8
OBJECT
100
AcDbPolyline
 90
        7
 70
     1
 43
0.0
 10
7.157546536314093
 20
9.220487409862482
 10
7.157546536314093
 20
8.850487409862481
 10
7.611046536314084
 20
8.850487409862481
 42
0.87320747045413
 10
7.613194216183295
 20
8.867339498242557
 42
-0.3422752640451075
 10
7.497546536314095
 20
9.016487409862474
 10
7.497546536314095
 20
9.030487409862484
 42
0.4142135623730862
 10
7.307546536314097
 20
9.220487409862482
  0
CIRCLE
  5
20B6
330
13FD
100
AcDbEntity
  8
OBJECT
100
AcDbCircle
 10
15.14154653631409
 20
9.038487409862462
 30
0.0
 40
0.085
  0
LWPOLYLINE
  5
20B7
330
13FD
100
AcDbEntity
  8
OBJECT
100
AcDbPolyline
 90
        7
 70
     1
 43
0.0
 10
15.26354653631411
 20
9.220487409862482
 10
15.26354653631411
 20
8.850487409862481
 10
14.81004653631411
 20
8.850487409862481
 42
-0.87320747045413
 10
14.80789885644491
 20
8.867339498242557
 42
0.3422752640451075
 10
14.9235465363141
 20
9.016487409862474
 10
14.9235465363141
 20
9.030487409862484
 42
-0.4142135623730862
 10
15.11354653631411
 20
9.220487409862482
  0
CIRCLE
  5
20C0
330
13FD
100
AcDbEntity
  8
OBJECT
100
AcDbCircle
 10
7.279546536314107
 20
20.33448740986245
 30
0.0
 40
0.085
  0
LWPOLYLINE
  5
20C1
330
13FD
100
AcDbEntity
  8
OBJECT
100
AcDbPolyline
 90
        7
 70
     1
 43
0.0
 10
7.157546536314093
 20
20.15248740986245
 10
7.157546536314093
 20
20.52248740986246
 10
7.611046536314084
 20
20.52248740986246
 42
-0.87320747045413
 10
7.613194216183295
 20
20.50563532148239
 42
0.3422752640451075
 10
7.497546536314095
 20
20.35648740986246
 10
7.497546536314095
 20
20.34248740986245
 42
-0.4142135623730862
 10
7.307546536314097
 20
20.15248740986245
  0
LWPOLYLINE
  5
20CA
330
13FD
100
AcDbEntity
  8
OBJECT
100
AcDbPolyline
 90
        7
 70
     1
 43
0.0
 10
15.26354653631411
 20
20.15248740986245
 10
15.26354653631411
 20
20.52248740986246
 10
14.81004653631411
 20
20.52248740986246
 42
0.87320747045413
 10
14.80789885644491
 20
20.50563532148239
 42
-0.3422752640451075
 10
14.9235465363141
 20
20.35648740986246
 10
14.9235465363141
 20
20.34248740986245
 42
0.4142135623730862
 10
15.11354653631411
 20
20.15248740986245
  0
CIRCLE
  5
20D3
330
13FD
100
AcDbEntity
  8
OBJECT
100
AcDbCircle
 10
15.14154653631409
 20
20.33448740986245
 30
0.0
 40
0.085
  0
LWPOLYLINE
  5
20D4
330
13FD
100
AcDbEntity
  8
HIDDEN
100
AcDbPolyline
 90
        5
 70
     1
 43
0.0
 10
15.66854653631411
 20
9.190487409862484
 10
15.34354653631411
 20
9.190487409862484
 10
15.34354653631411
 20
8.850487409862481
 10
15.52054653631411
 20
8.850487409862481
 42
0.4142135623730995
 10
15.66854653631411
 20
8.998487409862475
  0
LWPOLYLINE
  5
20DB
330
13FD
100
AcDbEntity
  8
HIDDEN
100
AcDbPolyline
 90
        5
 70
     1
 43
0.0
 10
6.752546536314092
 20
20.18248740986245
 10
7.077546536314081
 20
20.18248740986245
 10
7.077546536314081
 20
20.52248740986246
 10
6.900546536314088
 20
20.52248740986246
 42
0.4142135623730995
 10
6.752546536314092
 20
20.37448740986245
  0
LWPOLYLINE
  5
20E2
330
13FD
100
AcDbEntity
  8
HIDDEN
100
AcDbPolyline
 90
        5
 70
     1
 43
0.0
 10
15.66854653631411
 20
20.18248740986245
 10
15.34354653631411
 20
20.18248740986245
 10
15.34354653631411
 20
20.52248740986246
 10
15.52054653631411
 20
20.52248740986246
 42
-0.4142135623730995
 10
15.66854653631411
 20
20.37448740986245
  0
LWPOLYLINE
  5
20E9
330
13FD
100
AcDbEntity
  8
HIDDEN
100
AcDbPolyline
 90
        8
 70
     1
 43
0.0
 10
6.768773520497852
 20
14.42320185703497
 42
-0.78673463865016
 10
6.752546536314092
 20
14.42698771294109
 10
6.752546536314092
 20
14.94598710678384
 42
-0.78673463865016
 10
6.768773520497852
 20
14.94977296268996
 42
0.3130459931413463
 10
6.885880510504442
 20
14.86848740986246
 10
6.908546536314098
 20
14.86848740986246
 42
-1.0
 10
6.908546536314098
 20
14.50448740986247
 10
6.885880510504442
 20
14.50448740986247
 42
0.3130459931413463
  0
LWPOLYLINE
  5
20F3
330
13FD
100
AcDbEntity
  8
HIDDEN
100
AcDbPolyline
 90
        8
 70
     1
 43
0.0
 10
15.65231955213034
 20
14.42320185703497
 42
0.78673463865016
 10
15.66854653631411
 20
14.42698771294109
 10
15.66854653631411
 20
14.94598710678384
 42
0.78673463865016
 10
15.65231955213034
 20
14.94977296268996
 42
-0.3130459931413463
 10
15.53521256212376
 20
14.86848740986246
 10
15.51254653631411
 20
14.86848740986246
 42
1.0
 10
15.51254653631411
 20
14.50448740986247
 10
15.53521256212376
 20
14.50448740986247
 42
-0.3130459931413463
  0
LWPOLYLINE
  5
20FD
330
13FD
100
AcDbEntity
  8
OBJECT
100
AcDbPolyline
 90
       36
 70
     1
 43
0.0
 10
6.822546536314085
 20
19.99848740986245
 10
6.822546536314085
 20
15.01648740986246
 42
0.4142135623730967
 10
6.916546536314079
 20
14.92248740986246
 10
6.946546536314077
 20
14.92248740986246
 42
-1.0
 10
6.946546536314095
 20
14.45048740986245
 10
6.916546536314079
 20
14.45048740986245
 42
0.4142135623730951
 10
6.822546536314085
 20
14.35648740986246
 10
6.822546536314085
 20
9.374487409862474
 42
0.4142135623730935
 10
6.916546536314079
 20
9.280487409862475
 10
7.307546536314097
 20
9.280487409862475
 42
-0.4142135623730951
 10
7.557546536314097
 20
9.030487409862464
 10
7.557546536314097
 20
9.014487409862475
 42
0.4142135623730965
 10
7.651546536314093
 20
8.920487409862476
 10
14.76954653631411
 20
8.920487409862476
 42
0.4142135623730965
 10
14.86354653631411
 20
9.014487409862475
 10
14.86354653631411
 20
9.030487409862464
 42
-0.4142135623730951
 10
15.11354653631411
 20
9.280487409862475
 10
15.5045465363141
 20
9.280487409862475
 42
0.4142135623730935
 10
15.5985465363141
 20
9.374487409862474
 10
15.59854653631409
 20
14.35648740986246
 42
0.4142135623730951
 10
15.50454653631409
 20
14.45048740986245
 10
15.47454653631411
 20
14.45048740986245
 42
-1.0
 10
15.47454653631411
 20
14.92248740986246
 10
15.50454653631409
 20
14.92248740986246
 42
0.4142135623730967
 10
15.59854653631409
 20
15.01648740986246
 10
15.59854653631408
 20
19.99848740986245
 42
0.4142135623730935
 10
15.50454653631407
 20
20.09248740986245
 10
15.11354653631411
 20
20.09248740986245
 42
-0.4142135623730951
 10
14.86354653631411
 20
20.34248740986245
 10
14.86354653631411
 20
20.35848740986247
 42
0.4142135623730965
 10
14.76954653631411
 20
20.45248740986247
 10
7.651546536314093
 20
20.45248740986247
 42
0.4142135623730965
 10
7.557546536314097
 20
20.35848740986247
 10
7.557546536314097
 20
20.34248740986245
 42
-0.4142135623730951
 10
7.307546536314097
 20
20.09248740986245
 10
6.916546536314079
 20
20.09248740986245
 42
0.4142135623730935
  0
LWPOLYLINE
  5
2123
330
13FD
100
AcDbEntity
  8
OBJECT
100
AcDbPolyline
 90
       36
 70
     1
 43
0.0
 10
6.782546536314093
 20
9.374487409862474
 10
6.782546536314093
 20
14.35648740986246
 42
-0.4142135623730934
 10
6.916546536314079
 20
14.49048740986246
 10
6.946546536314077
 20
14.49048740986246
 42
1.000000016831074
 10
6.946546536314077
 20
14.88248740986245
 10
6.916546536314079
 20
14.88248740986245
 42
-0.4142135623730934
 10
6.782546536314093
 20
15.01648740986246
 10
6.782546536314093
 20
19.99848740986245
 42
-0.4142135623730934
 10
6.916546536314079
 20
20.13248740986246
 10
7.307546536314097
 20
20.13248740986246
 42
0.4142135623730863
 10
7.517546536314092
 20
20.34248740986245
 10
7.517546536314092
 20
20.35848740986247
 42
-0.4142135623730845
 10
7.651546536314093
 20
20.49248740986247
 10
14.76954653631411
 20
20.49248740986247
 42
-0.4142135623730845
 10
14.90354653631411
 20
20.35848740986247
 10
14.90354653631411
 20
20.34248740986245
 42
0.4142135623730863
 10
15.11354653631411
 20
20.13248740986246
 10
15.50454653631407
 20
20.13248740986246
 42
-0.4142135623730934
 10
15.63854653631407
 20
19.99848740986245
 10
15.63854653631409
 20
15.01648740986246
 42
-0.4142135623730934
 10
15.50454653631409
 20
14.88248740986245
 10
15.47454653631411
 20
14.88248740986245
 42
1.000000016831074
 10
15.47454653631411
 20
14.49048740986246
 10
15.50454653631409
 20
14.49048740986246
 42
-0.4142135623730934
 10
15.63854653631409
 20
14.35648740986246
 10
15.6385465363141
 20
9.374487409862474
 42
-0.4142135623730934
 10
15.5045465363141
 20
9.240487409862474
 10
15.11354653631411
 20
9.240487409862474
 42
0.4142135623730863
 10
14.90354653631411
 20
9.030487409862484
 10
14.90354653631411
 20
9.014487409862464
 42
-0.4142135623730845
 10
14.76954653631411
 20
8.880487409862483
 10
7.651546536314093
 20
8.880487409862483
 42
-0.4142135623730845
 10
7.517546536314092
 20
9.014487409862464
 10
7.517546536314092
 20
9.030487409862484
 42
0.4142135623730863
 10
7.307546536314097
 20
9.240487409862474
 10
6.916546536314079
 20
9.240487409862474
 42
-0.4142135623730934
  0
LWPOLYLINE
  5
2149
330
13FD
100
AcDbEntity
  8
OBJECT
100
AcDbPolyline
 90
        8
 70
     1
 43
0.0
 10
15.7185465363141
 20
8.998487409862475
 10
15.71854653631407
 20
20.37448740986246
 42
0.4142135623730965
 10
15.52054653631407
 20
20.57248740986247
 10
6.900546536314088
 20
20.57248740986247
 42
0.4142135623730965
 10
6.702546536314081
 20
20.37448740986246
 10
6.702546536314081
 20
8.998487409862475
 42
0.4142135623730959
 10
6.900546536314088
 20
8.800487409862482
 10
15.5205465363141
 20
8.800487409862482
 42
0.4142135623730976
  0
LINE
  5
2153
330
13FD
100
AcDbEntity
  8
OBJECT
100
AcDbLine
 10
22.18873240228527
 20
20.09248740986245
 30
0.0
 11
22.18873240228527
 21
13.17098740986244
 31
0.0
  0
LINE
  5
2154
330
13FD
100
AcDbEntity
  8
OBJECT
100
AcDbLine
 10
20.04873240228527
 20
9.280487409862473
 30
0.0
 11
22.18873240228527
 21
9.280487409862473
 31
0.0
  0
LINE
  5
2155
330
13FD
100
AcDbEntity
  8
HIDDEN
100
AcDbLine
 10
15.59854653631409
 20
0.7749245886062255
 30
0.0
 11
6.822546536314085
 21
0.7749245886062255
 31
0.0
  0
LINE
  5
2156
330
13FD
100
AcDbEntity
  8
HIDDEN
100
AcDbLine
 10
14.86354653631411
 20
2.914924588606233
 30
0.0
 11
14.86354653631411
 21
0.7749245886062255
 31
0.0
  0
LINE
  5
2157
330
13FD
100
AcDbEntity
  8
HIDDEN
100
AcDbLine
 10
7.557546536314099
 20
2.914924588606233
 30
0.0
 11
7.557546536314099
 21
0.7749245886062255
 31
0.0
  0
LINE
  5
2158
330
13FD
100
AcDbEntity
  8
OBJECT
100
AcDbLine
 10
22.15873240228527
 20
8.953487409862475
 30
0.0
 11
22.32873240228527
 21
8.953487409862475
 31
0.0
  0
LINE
  5
2159
330
13FD
100
AcDbEntity
  8
OBJECT
100
AcDbLine
 10
22.15873240228525
 20
9.123487409862477
 30
0.0
 11
22.32873240228527
 21
9.123487409862477
 31
0.0
  0
LWPOLYLINE
  5
215A
330
13FD
100
AcDbEntity
  8
HIDDEN
100
AcDbPolyline
 90
        4
 70
     0
 43
0.0
 10
14.80154623323548
 20
2.859924588606239
 10
14.80154623323548
 20
0.8049245886062328
 10
15.26354653631411
 20
0.8049245886062328
 10
15.26354653631411
 20
2.859924588606239
  0
LINE
  5
2160
330
13FD
100
AcDbEntity
  8
HIDDEN
100
AcDbLine
 10
15.0565465363141
 20
0.8049245886062337
 30
0.0
 11
15.0565465363141
 21
0.634924588606225
 31
0.0
  0
LINE
  5
2161
330
13FD
100
AcDbEntity
  8
HIDDEN
100
AcDbLine
 10
15.2265465363141
 20
0.8049245886062337
 30
0.0
 11
15.2265465363141
 21
0.634924588606225
 31
0.0
  0
LINE
  5
2162
330
13FD
100
AcDbEntity
  8
HIDDEN
100
AcDbLine
 10
15.32854653631411
 20
2.544924588606257
 30
0.0
 11
15.32854653631411
 21
0.634924588606225
 31
0.0
  0
LINE
  5
2163
330
13FD
100
AcDbEntity
  8
HIDDEN
100
AcDbLine
 10
15.65354653631411
 20
2.544924588606299
 30
0.0
 11
15.65354653631411
 21
0.634924588606225
 31
0.0
  0
LINE
  5
2164
330
13FD
100
AcDbEntity
  8
OBJECT
100
AcDbLine
 10
20.10373240228527
 20
9.220487409862482
 30
0.0
 11
22.15873240228527
 21
9.220487409862482
 31
0.0
  0
LINE
  5
2165
330
13FD
100
AcDbEntity
  8
OBJECT
100
AcDbLine
 10
22.15873240228527
 20
9.220487409862482
 30
0.0
 11
22.15873240228527
 21
8.850487409862481
 31
0.0
  0
LWPOLYLINE
  5
2166
330
13FD
100
AcDbEntity
  8
HIDDEN
  6
HIDDEN2
100
AcDbPolyline
 90
        4
 70
     0
 43
0.0
 10
14.95104653631411
 20
0.7749245886062255
 10
14.95104653631409
 20
1.049924588606231
 10
15.26604653631409
 20
1.049924588606231
 10
15.26604653631411
 20
0.7749245886062255
  0
LWPOLYLINE
  5
216C
330
13FD
100
AcDbEntity
  8
HIDDEN
  6
HIDDEN2
100
AcDbPolyline
 90
        4
 70
     0
 43
0.0
 10
15.16854653631411
 20
1.049924588606231
 10
15.16854653631411
 20
0.7299245886062229
 10
15.0485465363141
 20
0.7299245886062229
 10
15.0485465363141
 20
1.049924588606231
  0
LWPOLYLINE
  5
2172
330
13FD
100
AcDbEntity
  8
HIDDEN
  6
HIDDEN2
100
AcDbPolyline
 90
        4
 70
     0
 43
0.0
 10
11.05304653631411
 20
0.7749245886062255
 10
11.0530465363141
 20
1.049924588606231
 10
11.3680465363141
 20
1.049924588606231
 10
11.36804653631411
 20
0.7749245886062255
  0
LWPOLYLINE
  5
2178
330
13FD
100
AcDbEntity
  8
HIDDEN
  6
HIDDEN2
100
AcDbPolyline
 90
        4
 70
     0
 43
0.0
 10
11.27054653631411
 20
1.049924588606231
 10
11.27054653631411
 20
0.7299245886062229
 10
11.15054653631411
 20
0.7299245886062229
 10
11.15054653631411
 20
1.049924588606231
  0
LWPOLYLINE
  5
217E
330
13FD
100
AcDbEntity
  8
HIDDEN
100
AcDbPolyline
 90
        4
 70
     0
 43
0.0
 10
7.619546839392704
 20
2.859924588606239
 10
7.619546839392704
 20
0.8049245886062328
 10
7.157546536314093
 20
0.8049245886062328
 10
7.157546536314093
 20
2.859924588606239
  0
LINE
  5
2184
330
13FD
100
AcDbEntity
  8
HIDDEN
100
AcDbLine
 10
7.557546536314099
 20
2.914924588606233
 30
0.0
 11
7.557546536314099
 21
0.7749245886062255
 31
0.0
  0
LINE
  5
2185
330
13FD
100
AcDbEntity
  8
HIDDEN
100
AcDbLine
 10
7.092546536314078
 20
2.544924588606257
 30
0.0
 11
7.092546536314078
 21
0.634924588606225
 31
0.0
  0
LINE
  5
2186
330
13FD
100
AcDbEntity
  8
HIDDEN
100
AcDbLine
 10
6.767546536314089
 20
2.544924588606299
 30
0.0
 11
6.767546536314089
 21
0.634924588606225
 31
0.0
  0
LINE
  5
2187
330
13FD
100
AcDbEntity
  8
HIDDEN
100
AcDbLine
 10
7.092546536314078
 20
2.544924588606257
 30
0.0
 11
6.767546536314089
 21
2.544924588606299
 31
0.0
  0
LINE
  5
2188
330
13FD
100
AcDbEntity
  8
HIDDEN
100
AcDbLine
 10
7.194546536314099
 20
0.8049245886062337
 30
0.0
 11
7.194546536314099
 21
0.634924588606225
 31
0.0
  0
LINE
  5
2189
330
13FD
100
AcDbEntity
  8
HIDDEN
100
AcDbLine
 10
7.364546536314101
 20
0.8049245886062337
 30
0.0
 11
7.364546536314101
 21
0.634924588606225
 31
0.0
  0
LWPOLYLINE
  5
218A
330
13FD
100
AcDbEntity
  8
HIDDEN
  6
HIDDEN2
100
AcDbPolyline
 90
        4
 70
     0
 43
0.0
 10
21.91373240228527
 20
9.736487409862466
 10
22.23373240228527
 20
9.736487409862466
 10
22.23373240228527
 20
9.616487409862466
 10
21.91373240228527
 20
9.616487409862466
  0
LWPOLYLINE
  5
2190
330
13FD
100
AcDbEntity
  8
OBJECT
100
AcDbPolyline
 90
        4
 70
     0
 43
0.0
 10
21.91373240228528
 20
13.07348740986246
 10
22.23373240228529
 20
13.07348740986246
 10
22.23373240228529
 20
12.95348740986245
 10
21.91373240228528
 20
12.95348740986245
  0
LWPOLYLINE
  5
2196
330
13FD
100
AcDbEntity
  8
OBJECT
100
AcDbPolyline
 90
        4
 70
     0
 43
0.0
 10
22.18873240228529
 20
12.85598740986244
 10
21.91373240228528
 20
12.85598740986244
 10
21.91373240228528
 20
13.17098740986244
 10
22.18873240228529
 20
13.17098740986244
  0
LWPOLYLINE
  5
219C
330
13FD
100
AcDbEntity
  8
HIDDEN
  6
HIDDEN2
100
AcDbPolyline
 90
        4
 70
     0
 43
0.0
 10
21.91373240228528
 20
16.41948740986246
 10
22.23373240228529
 20
16.41948740986246
 10
22.23373240228529
 20
16.29948740986247
 10
21.91373240228528
 20
16.29948740986247
  0
LWPOLYLINE
  5
21A2
330
13FD
100
AcDbEntity
  8
OBJECT
100
AcDbPolyline
 90
        4
 70
     0
 43
0.0
 10
22.18873240228529
 20
16.20198740986245
 10
21.91373240228528
 20
16.20198740986245
 10
21.91373240228528
 20
16.51698740986244
 10
22.18873240228529
 20
16.51698740986244
  0
LWPOLYLINE
  5
21A8
330
13FD
100
AcDbEntity
  8
HIDDEN
  6
HIDDEN2
100
AcDbPolyline
 90
        4
 70
     0
 43
0.0
 10
21.91373240228528
 20
19.75648740986247
 10
22.23373240228529
 20
19.75648740986247
 10
22.23373240228529
 20
19.63648740986246
 10
21.91373240228528
 20
19.63648740986246
  0
LWPOLYLINE
  5
21AE
330
13FD
100
AcDbEntity
  8
OBJECT
100
AcDbPolyline
 90
        4
 70
     0
 43
0.0
 10
22.18873240228529
 20
19.53898740986245
 10
21.91373240228528
 20
19.53898740986245
 10
21.91373240228528
 20
19.85398740986245
 10
22.18873240228529
 20
19.85398740986245
  0
LINE
  5
21B4
330
13FD
100
AcDbEntity
  8
OBJECT
100
AcDbLine
 10
20.41873240228527
 20
20.16148740986245
 30
0.0
 11
22.32873240228527
 21
20.16148740986245
 31
0.0
  0
LINE
  5
21B5
330
13FD
100
AcDbEntity
  8
OBJECT
100
AcDbLine
 10
22.32873240228527
 20
20.50148740986246
 30
0.0
 11
20.41873240228523
 21
20.50148740986246
 31
0.0
  0
LINE
  5
21B6
330
13FD
100
AcDbEntity
  8
OBJECT
100
AcDbLine
 10
20.41873240228527
 20
20.16148740986245
 30
0.0
 11
20.41873240228523
 21
20.50148740986246
 31
0.0
  0
DIMENSION
  5
21B7
330
13FD
100
AcDbEntity
  8
DIM
100
AcDbDimension
  2
*D4
 10
15.14154653631409
 20
21.96911293322278
 30
0.0
 11
11.21054653631409
 21
21.96911293322278
 31
0.0
 70
    32
 71
     5
 42
7.861999999999998
  3
23NSTD
100
AcDbAlignedDimension
 13
7.279546536314093
 23
20.33448740986242
 33
0.0
 14
15.14154653631409
 24
20.33448740986245
 34
0.0
100
AcDbRotatedDimension
  0
LWPOLYLINE
  5
21D3
330
13FD
100
AcDbEntity
  8
OBJECT
100
AcDbPolyline
 90
        5
 70
     0
 43
0.0
 10
15.63854653631411
 20
2.859924588606239
 10
15.63854653631411
 20
2.914924588606246
 10
6.782546536314065
 20
2.914924588606232
 10
6.782546536314065
 20
2.859924588606239
 10
6.782546536314093
 20
2.914924588606232
  0
LWPOLYLINE
  5
21DA
330
13FD
100
AcDbEntity
  8
OBJECT
100
AcDbPolyline
 90
        5
 70
     0
 43
0.0
 10
15.71854653631409
 20
2.819924588606233
 10
15.71854653631412
 20
2.859924588606239
 10
6.702546536314109
 20
2.859924588606239
 10
6.702546536314109
 20
2.819924588606233
 10
6.702546536314109
 20
2.859924588606239
  0
LWPOLYLINE
  5
21E1
330
13FD
100
AcDbEntity
  8
OBJECT
100
AcDbPolyline
 90
        6
 70
     1
 43
0.0
 10
15.7385465363141
 20
0.6969245886062279
 10
15.7385465363141
 20
2.819924588606233
 10
6.682546536314097
 20
2.819924588606233
 10
6.682546536314097
 20
0.6969245886062279
 42
0.4142135623730951
 10
6.744546536314082
 20
0.634924588606225
 10
15.67654653631411
 20
0.634924588606225
 42
0.4142135623730951
  0
LWPOLYLINE
  5
21E9
330
13FD
100
AcDbEntity
  8
OBJECT
100
AcDbPolyline
 90
        4
 70
     0
 43
0.0
 10
20.10373240228527
 20
20.49248740986247
 10
20.04873240228527
 20
20.49248740986247
 10
20.04873240228527
 20
8.880487409862483
 10
20.10373240228527
 20
8.880487409862466
  0
DIMENSION
  5
21EF
330
13FD
100
AcDbEntity
  8
DIM
100
AcDbDimension
  2
*D5
 10
16.88610546742617
 20
14.68648740986247
 30
0.0
 11
16.88610546742617
 21
11.86248740986247
 31
0.0
 70
    32
 71
     5
 42
5.64800000000001
  3
23NSTD
100
AcDbAlignedDimension
 13
15.48654653631408
 23
9.038487409862463
 33
0.0
 14
15.61954653631409
 24
14.68648740986247
 34
0.0
 50
270.0
100
AcDbRotatedDimension
  0
DIMENSION
  5
21FD
330
13FD
100
AcDbEntity
  8
DIM
100
AcDbDimension
  2
*D6
 10
18.16701845908022
 20
20.59248740986247
 30
0.0
 11
18.16701845908022
 21
14.68648740986248
 31
0.0
 70
    32
 71
     5
 42
11.81199999999998
  3
23NSTD
100
AcDbAlignedDimension
 13
15.5205465363141
 23
8.780487409862487
 33
0.0
 14
15.5205465363141
 24
20.59248740986247
 34
0.0
 50
270.0
100
AcDbRotatedDimension
  0
DIMENSION
  5
220B
330
13FD
100
AcDbEntity
  8
DIM
100
AcDbDimension
  2
*D7
 10
11.2105465363141
 20
21.33648740986245
 30
0.0
 11
8.946546536314109
 21
21.33648740986245
 31
0.0
 70
    32
 71
     5
 42
4.527999999999991
  3
23NSTD
100
AcDbAlignedDimension
 13
6.682546536314113
 23
20.37448740986245
 33
0.0
 14
11.2105465363141
 24
20.10948740986244
 34
0.0
 50
180.0
100
AcDbRotatedDimension
  0
DIMENSION
  5
2219
330
13FD
100
AcDbEntity
  8
DIM
100
AcDbDimension
  2
*D8
 10
15.73854653631412
 20
23.64743998715959
 30
0.0
 11
11.21054653631411
 21
23.64743998715959
 31
0.0
 70
   160
 71
     5
 42
9.056000000000008
  3
23NSTD
100
AcDbAlignedDimension
 13
6.682546536314113
 23
20.37448740986241
 33
0.0
 14
15.73854653631412
 24
20.37448740986241
 34
0.0
100
AcDbRotatedDimension
  0
DIMENSION
  5
223B
330
13FD
100
AcDbEntity
  8
DIM
100
AcDbDimension
  2
*D9
 10
15.10854653631411
 20
17.94348740986246
 30
0.0
 11
11.2105465363141
 21
17.94348740986246
 31
0.0
 70
   160
 71
     5
 42
7.79600000000002
  3
23NSTD
100
AcDbAlignedDimension
 13
7.312546536314094
 23
16.35948740986246
 33
0.0
 14
15.10854653631411
 24
16.35948740986246
 34
0.0
100
AcDbRotatedDimension
  0
DIMENSION
  5
2249
330
13FD
100
AcDbEntity
  8
DIM
100
AcDbDimension
  2
*D10
 10
3.993294438288316
 20
16.35948740986246
 30
0.0
 11
3.993294438288313
 21
14.68648740986246
 31
0.0
 70
    32
 71
     5
 42
3.345999999999998
  3
23NSTD
100
AcDbAlignedDimension
 13
7.312546536314094
 23
13.01348740986246
 33
0.0
 14
7.312546536314094
 24
16.35948740986246
 34
0.0
 50
90.0
100
AcDbRotatedDimension
  0
DIMENSION
  5
2256
330
13FD
100
AcDbEntity
  8
DIM
100
AcDbDimension
  2
*D11
 10
2.825553635708902
 20
19.69648740986246
 30
0.0
 11
2.825553635708899
 21
15.60148740986246
 31
0.0
 70
   160
 71
     5
 42
10.01999999999999
  3
23NSTD
100
AcDbAlignedDimension
 13
7.312546536314094
 23
9.676487409862463
 33
0.0
 14
7.312546536314094
 24
19.69648740986246
 34
0.0
 50
90.0
100
AcDbRotatedDimension
  0
DIMENSION
  5
2264
330
13FD
100
AcDbEntity
  8
DIM
100
AcDbDimension
  2
*D12
 10
5.775546536314106
 20
14.68648740986246
 30
0.0
 11
5.775546536314103
 21
13.84998740986246
 31
0.0
 70
    32
 71
     5
 42
1.673
  3
23NSTD
100
AcDbAlignedDimension
 13
7.312546536314096
 23
13.01348740986246
 33
0.0
 14
6.801546536314106
 24
14.68648740986246
 34
0.0
 50
270.0
100
AcDbRotatedDimension
  0
DIMENSION
  5
2272
330
13FD
100
AcDbEntity
  8
DIM
100
AcDbDimension
  2
*D13
 10
16.88610546742617
 20
20.33448740986247
 30
0.0
 11
16.88610546742617
 21
17.51048740986247
 31
0.0
 70
    32
 71
     5
 42
5.648000000000012
  3
23NSTD
100
AcDbAlignedDimension
 13
15.6195465363141
 23
14.68648740986246
 33
0.0
 14
15.48654653631408
 24
20.33448740986247
 34
0.0
 50
270.0
100
AcDbRotatedDimension
  0
DIMENSION
  5
2280
330
13FD
100
AcDbEntity
  8
DIM
100
AcDbDimension
  2
*D14
 10
13.66379133653678
 20
9.263487409862472
 30
0.0
 11
13.66379133653677
 21
12.01623740986247
 31
0.0
 70
   160
 71
     5
 42
5.422999999999971
  3
23NSTD
100
AcDbAlignedDimension
 13
15.39254653631411
 23
14.68648740986244
 33
0.0
 14
11.2105465363141
 24
9.263487409862474
 34
0.0
 50
270.0
100
AcDbRotatedDimension
  0
DIMENSION
  5
228E
330
13FD
100
AcDbEntity
  8
DIM
100
AcDbDimension
  2
*D15
 10
12.35896933610103
 20
20.10948740986247
 30
0.0
 11
12.35896933610102
 21
14.68648740986247
 31
0.0
 70
   160
 71
     5
 42
10.846
  3
23NSTD
100
AcDbAlignedDimension
 13
11.2105465363141
 23
9.263487409862474
 33
0.0
 14
11.2105465363141
 24
20.10948740986247
 34
0.0
 50
90.0
100
AcDbRotatedDimension
  0
DIMENSION
  5
229C
330
13FD
100
AcDbEntity
  8
DIM
100
AcDbDimension
  2
*D16
 10
1.751076616108579
 20
9.280487409862477
 30
0.0
 11
1.751076616108578
 21
14.68648740986246
 31
0.0
 70
    32
 71
     5
 42
10.81199999999997
  3
23NSTD
100
AcDbAlignedDimension
 13
6.916546536314079
 23
20.09248740986245
 33
0.0
 14
6.916546536314079
 24
9.280487409862475
 34
0.0
 50
90.0
100
AcDbRotatedDimension
  0
DIMENSION
  5
22AA
330
13FD
100
AcDbEntity
  8
DIM
100
AcDbDimension
  2
*D17
 10
15.23854653631411
 20
15.5173172022393
 30
0.0
 11
11.2105465363141
 21
15.5173172022393
 31
0.0
 70
    32
 71
     5
 42
8.056000000000024
  3
23NSTD
100
AcDbAlignedDimension
 13
7.18254653631409
 23
14.68648740986246
 33
0.0
 14
15.23854653631411
 24
14.68648740986246
 34
0.0
100
AcDbRotatedDimension
  0
DIMENSION
  5
22B8
330
13FD
100
AcDbEntity
  8
DIM
100
AcDbDimension
  2
*D18
 10
6.822546536314085
 20
11.23140228897274
 30
0.0
 11
11.21054653631408
 21
11.23140228897274
 31
0.0
 70
    32
 71
     5
 42
8.775999999999996
  3
23NSTD
100
AcDbAlignedDimension
 13
15.59854653631408
 23
11.42040228897274
 33
0.0
 14
6.822546536314085
 24
11.42040228897274
 34
0.0
100
AcDbRotatedDimension
  0
DIMENSION
  5
22C6
330
13FD
100
AcDbEntity
  8
DIM
100
AcDbDimension
  2
*D19
 10
1.751076616108576
 20
20.59248740986247
 30
0.0
 11
3.053264116108573
 21
21.67248740986246
 31
0.0
 70
    32
 71
     5
 42
0.5000000000000214
  3
23NSTD
100
AcDbAlignedDimension
 13
6.916546536314079
 23
20.09248740986245
 33
0.0
 14
6.900546536314088
 24
20.59248740986247
 34
0.0
 50
90.0
100
AcDbRotatedDimension
  0
DIMENSION
  5
22D4
330
13FD
100
AcDbEntity
  8
DIM
100
AcDbDimension
  2
*D20
 10
7.557546536314097
 20
19.02070388826419
 30
0.0
 11
11.2105465363141
 21
19.02070388826419
 31
0.0
 70
    32
 71
     5
 42
7.306000000000013
  3
23NSTD
100
AcDbAlignedDimension
 13
14.86354653631411
 23
20.34248740986245
 33
0.0
 14
7.557546536314097
 24
20.34248740986245
 34
0.0
 50
180.0
100
AcDbRotatedDimension
  0
DIMENSION
  5
22F0
330
13FD
100
AcDbEntity
  8
DIM
100
AcDbDimension
  2
*D21
 10
9.305967488275028
 20
20.45248740986246
 30
0.0
 11
9.305967488275024
 21
14.68648740986247
 31
0.0
 70
    32
 71
     5
 42
11.53199999999999
  3
23NSTD
100
AcDbAlignedDimension
 13
7.651546536314096
 23
8.920487409862476
 33
0.0
 14
7.651546536314096
 24
20.45248740986247
 34
0.0
 50
90.0
100
AcDbRotatedDimension
  0
DIMENSION
  5
22FE
330
13FD
100
AcDbEntity
  8
DIM
100
AcDbDimension
  2
*D22
 10
20.04873240228527
 20
21.23948740986243
 30
0.0
 11
21.18873240228527
 21
21.23948740986243
 31
0.0
 70
    32
 71
     5
 42
2.280000000000001
  3
23NSTD
100
AcDbAlignedDimension
 13
22.32873240228527
 23
20.53048740986247
 33
0.0
 14
20.04873240228527
 24
20.49248740986243
 34
0.0
 50
180.0
100
AcDbRotatedDimension
  0
LWPOLYLINE
  5
230B
330
13FD
100
AcDbEntity
  8
BEND
100
AcDbPolyline
 90
       12
 70
     0
 10
14.15857518128453
 20
8.280487409862466
 40
0.0
 41
0.3135
 10
14.78557518128452
 20
8.280487409862466
 40
0.05225
 41
0.05225
 10
15.1415465363141
 20
8.280487409862466
 40
0.05225
 41
0.05225
 10
15.1415465363141
 20
9.407515908668134
 40
0.05225
 41
0.05225
 10
14.67801634692329
 20
9.407515908668134
 40
0.05225
 41
0.05225
 10
14.67801634692329
 20
12.10932762714489
 40
0.05225
 41
0.05225
 10
15.10854653631411
 20
12.10932762714489
 40
0.05225
 41
0.05225
 10
15.10854653631411
 20
16.02737858300743
 40
0.05225
 41
0.05225
 10
15.48654653631408
 20
16.02737858300743
 40
0.05225
 41
0.05225
 10
15.48654653631408
 20
21.09248740986246
 40
0.05225
 41
0.05225
 10
14.51857518128451
 20
21.09248740986246
 40
0.3135
 41
0.0
 10
13.89157518128452
 20
21.09248740986246
 40
0.0
 41
0.0
  0
LINE
  5
2319
330
13FD
100
AcDbEntity
  8
OBJECT
100
AcDbLine
 10
22.15873240228527
 20
8.850487409862481
 30
0.0
 11
20.10373240228527
 21
8.850487409862481
 31
0.0
  0
LINE
  5
231A
330
13FD
100
AcDbEntity
  8
OBJECT
100
AcDbLine
 10
20.04873240228527
 20
9.240487409862474
 30
0.0
 11
20.10373240228527
 21
9.240487409862474
 31
0.0
  0
LWPOLYLINE
  5
231B
330
13FD
100
AcDbEntity
  8
OBJECT
100
AcDbPolyline
 90
        4
 70
     0
 43
0.0
 10
20.10373240228527
 20
9.240487409862474
 10
20.10373240228527
 20
8.800487409862471
 10
20.14373240228527
 20
8.800487409862471
 10
20.10373240228527
 20
8.800487409862471
  0
LWPOLYLINE
  5
2321
330
13FD
100
AcDbEntity
  8
OBJECT
100
AcDbPolyline
 90
        5
 70
     0
 43
0.0
 10
22.32873240228527
 20
20.53048740986247
 10
22.32873240228527
 20
8.842487409862487
 42
-0.4142135623730951
 10
22.26673240228527
 20
8.780487409862473
 10
20.14373240228527
 20
8.780487409862473
 10
20.14373240228527
 20
8.800487409862471
  0
LINE
  5
2328
330
13FD
100
AcDbEntity
  8
OBJECT
100
AcDbLine
 10
21.91373240228527
 20
9.280487409862473
 30
0.0
 11
21.91373240228527
 21
9.420987409862444
 31
0.0
  0
LINE
  5
2329
330
13FD
100
AcDbEntity
  8
OBJECT
100
AcDbLine
 10
21.91373240228527
 20
9.420987409862444
 30
0.0
 11
22.18873240228527
 21
9.420987409862455
 31
0.0
  0
LINE
  5
232A
330
13FD
100
AcDbEntity
  8
OBJECT
100
AcDbLine
 10
22.18873240228527
 20
12.85598740986244
 30
0.0
 11
22.18873240228527
 21
9.280487409862473
 31
0.0
  0
LWPOLYLINE
  5
232B
330
13FD
100
AcDbEntity
  8
OBJECT
100
AcDbPolyline
 90
        4
 70
     0
 43
0.0
 10
20.14373240228527
 20
20.57248740986246
 10
20.14373240228527
 20
20.59248740986246
 10
22.26673240228527
 20
20.59248740986247
 42
-0.414213562373096
 10
22.32873240228527
 20
20.53048740986247
  0
LINE
  5
2331
330
13FD
100
AcDbEntity
  8
OBJECT
100
AcDbLine
 10
20.04873240228527
 20
20.13248740986246
 30
0.0
 11
20.10373240228527
 21
20.13248740986246
 31
0.0
  0
LINE
  5
2332
330
13FD
100
AcDbEntity
  8
OBJECT
100
AcDbLine
 10
20.04873240228527
 20
20.09248740986244
 30
0.0
 11
22.18873240228527
 21
20.09248740986245
 31
0.0
  0
LWPOLYLINE
  5
2333
330
13FD
100
AcDbEntity
  8
OBJECT
100
AcDbPolyline
 90
        3
 70
     0
 43
0.0
 10
21.91373240228527
 20
20.09248740986244
 10
21.91373240228527
 20
19.95198740986247
 10
22.18873240228527
 20
19.95198740986247
  0
LWPOLYLINE
  5
2338
330
13FD
100
AcDbEntity
  8
OBJECT
100
AcDbPolyline
 90
        3
 70
     0
 43
0.0
 10
20.14373240228527
 20
20.57248740986246
 10
20.10373240228527
 20
20.57248740986247
 10
20.10373240228527
 20
20.13248740986246
  0
TEXT
  5
233D
330
13FD
100
AcDbEntity
  8
BEND
100
AcDbText
 10
15.76514085231884
 20
20.84248740986246
 30
0.0
 40
0.5
  1
A
  7
SECTION
 72
     4
 11
16.00323609041407
 21
21.09248740986246
 31
0.0
100
AcDbText
  0
TEXT
  5
233E
330
13FD
100
AcDbEntity
  8
BEND
100
AcDbText
 10
15.21583277477459
 20
8.030487409862466
 30
0.0
 40
0.5
  1
A
  7
SECTION
 72
     4
 11
15.45392801286983
 21
8.280487409862466
 31
0.0
100
AcDbText
  0
TEXT
  5
233F
330
13FD
100
AcDbEntity
  8
TEXT
100
AcDbText
 10
19.39673106681527
 20
6.248020298896332
 30
0.0
 40
0.375
  1
%%uSECTION "A-A"
 41
0.8
  7
SECTION
 72
     4
 11
21.22315963824384
 21
6.433734584610618
 31
0.0
100
AcDbText
  0
DIMENSION
  5
2348
330
13FD
100
AcDbEntity
  8
DIM
100
AcDbDimension
  2
*D23
 10
22.32873240228527
 20
11.41993970898424
 30
0.0
 11
24.14748240228528
 21
11.41993970898424
 31
0.0
 70
    32
 71
     5
 42
0.1400000000000006
  3
23NSTD
100
AcDbAlignedDimension
 13
22.18873240228527
 23
11.29393970898424
 33
0.0
 14
22.32873240228527
 24
11.29393970898424
 34
0.0
100
AcDbRotatedDimension
  0
DIMENSION
  5
2356
330
13FD
100
AcDbEntity
  8
DIM
100
AcDbDimension
  2
*D24
 10
22.32873240228527
 20
13.65220609639682
 30
0.0
 11
24.17091990228527
 21
13.65220609639682
 31
0.0
 70
    32
 71
     5
 42
0.4149999999999885
  3
23NSTD
100
AcDbAlignedDimension
 13
21.91373240228528
 23
13.17098740986244
 33
0.0
 14
22.32873240228527
 24
13.17098740986244
 34
0.0
100
AcDbRotatedDimension
  0
DIMENSION
  5
2364
330
13FD
100
AcDbEntity
  8
DIM
100
AcDbDimension
  2
*D25
 10
22.32873240228527
 20
8.103487409862481
 30
0.0
 11
24.14748240228528
 21
8.103487409862481
 31
0.0
 70
    32
 71
     5
 42
0.1700000000000017
  3
23NSTD
100
AcDbAlignedDimension
 13
22.15873240228527
 23
8.850487409862481
 33
0.0
 14
22.32873240228527
 24
8.842487409862487
 34
0.0
100
AcDbRotatedDimension
  0
LINE
  5
23B8
102
{ACAD_REACTORS
330
5E1D
102
}
330
13FD
100
AcDbEntity
  8
OBJECT
100
AcDbLine
 10
40.59747505692697
 20
9.350487409862452
 30
0.0
 11
40.59747505692696
 21
14.38848740986247
 31
0.0
  0
LWPOLYLINE
  5
23B9
330
13FD
100
AcDbEntity
  8
OBJECT
100
AcDbPolyline
 90
       36
 70
     1
 43
0.0
 10
28.16145167328114
 20
19.99048740986246
 10
28.16145167328114
 20
15.01648740986245
 42
0.4142135623730944
 10
28.19345167328116
 20
14.98448740986245
 10
28.22345167328116
 20
14.98448740986245
 42
-1.000000074755164
 10
28.22345167328112
 20
14.38848740986246
 10
28.19345167328116
 20
14.38848740986246
 42
0.4142135623731594
 10
28.16145167328114
 20
14.35648740986246
 10
28.16145167328114
 20
9.382487409862475
 42
0.4142135623730863
 10
28.19345167328112
 20
9.350487409862475
 10
28.58645167328116
 20
9.350487409862475
 42
-0.414213562373096
 10
28.89845167328113
 20
9.038487409862474
 10
28.8984513649658
 20
9.014330358488514
 42
0.4052287779896124
 10
28.93101171680207
 20
8.980487409862476
 10
36.04845167328119
 20
8.980487409862476
 42
0.4142135623730944
 10
36.08045167328116
 20
9.012487409862464
 10
36.08045167328116
 20
9.038487409862474
 42
-0.414213562373096
 10
36.39245167328117
 20
9.350487409862475
 10
36.78545167328116
 20
9.350487409862475
 42
0.4142135623731026
 10
36.81745167328116
 20
9.382487409862475
 10
36.81745167328116
 20
14.35648740986246
 42
0.4142135623731271
 10
36.78545167328116
 20
14.38848740986246
 10
36.75345167328116
 20
14.38848740986246
 42
-1.0
 10
36.75345167328116
 20
14.98448740986245
 10
36.78545167328116
 20
14.98448740986245
 42
0.4142135623731109
 10
36.81745167328116
 20
15.01648740986246
 10
36.81745167328116
 20
19.99048740986247
 42
0.4142135623731109
 10
36.78545167328116
 20
20.02248740986247
 10
36.39197158847834
 20
20.02248740986247
 42
-0.4085586874968867
 10
36.08045167328116
 20
20.34256760367338
 10
36.08045167328116
 20
20.36048740986246
 42
0.4142135623731433
 10
36.04845167328119
 20
20.39248740986248
 10
28.93045167328115
 20
20.39248740986248
 42
0.4142135623731109
 10
28.89845167328113
 20
20.36048740986246
 10
28.89845167328113
 20
20.34458674069548
 42
-0.4071554616789054
 10
28.5870502931209
 20
20.02248740986247
 10
28.19345167328116
 20
20.02248740986247
 42
0.4142135623731109
  0
LWPOLYLINE
  5
23DF
102
{ACAD_REACTORS
330
349E
102
}
330
13FD
100
AcDbEntity
  8
OBJECT
100
AcDbPolyline
 90
       36
 70
     1
 43
0.0
 10
28.03745167328116
 20
9.382487409862475
 10
28.03745167328116
 20
14.35648740986246
 42
-0.414213562373096
 10
28.19345167328116
 20
14.51248740986246
 10
28.22345167365144
 20
14.51248740986246
 42
1.000000056483044
 10
28.22345167328116
 20
14.86048740986245
 10
28.19345167328116
 20
14.86048740986245
 42
-0.4142135623730895
 10
28.03745167328116
 20
15.01648740986246
 10
28.03745167328116
 20
19.99048740986246
 42
-0.4142135623730895
 10
28.19345167328116
 20
20.14648740986246
 10
28.58645167328116
 20
20.14648740986246
 42
0.4033473086921084
 10
28.77445167328115
 20
20.34448740986245
 10
28.77445167328115
 20
20.36048740986246
 42
-0.4142135623730895
 10
28.93045167328115
 20
20.51648740986247
 10
36.04845167328119
 20
20.51648740986246
 42
-0.4142135623730895
 10
36.20445167328116
 20
20.36048740986246
 10
36.20445167328116
 20
20.34248740986245
 42
0.4054961244124761
 10
36.39245167328117
 20
20.14648740986246
 10
36.78545167328116
 20
20.14648740986246
 42
-0.4142135623730827
 10
36.94145167328116
 20
19.99048740986247
 10
36.94145167328116
 20
15.01648740986246
 42
-0.4142135623730895
 10
36.78545167328116
 20
14.86048740986245
 10
36.75345167291089
 20
14.86048740986245
 42
1.000000056482547
 10
36.75345167328116
 20
14.51248740986246
 10
36.78545167328116
 20
14.51248740986246
 42
-0.4142135623730927
 10
36.94145167328116
 20
14.35648740986246
 10
36.94145167328116
 20
9.382487409862475
 42
-0.4142135623730911
 10
36.78545167328116
 20
9.226487409862464
 10
36.39245167328117
 20
9.226487409862464
 42
0.4142135623730971
 10
36.20445167328116
 20
9.038487409862474
 10
36.20445167328116
 20
9.012487409862464
 42
-0.4142135623730827
 10
36.04845167328119
 20
8.856487409862477
 10
28.93045167328115
 20
8.856487409862477
 42
-0.4115669109608265
 10
28.77445167328115
 20
9.014487409862475
 10
28.77445167328115
 20
9.038487409862474
 42
0.4142135623730971
 10
28.58645167328116
 20
9.226487409862475
 10
28.19345167328112
 20
9.226487409862475
 42
-0.4142135623730895
  0
LWPOLYLINE
  5
2405
102
{ACAD_REACTORS
330
349E
102
}
330
13FD
100
AcDbEntity
  8
OBJECT
100
AcDbPolyline
 90
       36
 70
     1
 43
0.0
 10
28.12145167328115
 20
19.99048740986246
 10
28.12145167328115
 20
15.01648740986245
 42
0.4142135623731005
 10
28.19345167328116
 20
14.94448740986245
 10
28.22345167328116
 20
14.94448740986245
 42
-1.0
 10
28.22345167328116
 20
14.42848740986245
 10
28.19345167328116
 20
14.42848740986245
 42
0.4142135623731149
 10
28.12145167328115
 20
14.35648740986246
 10
28.12145167328113
 20
9.382487409862475
 42
0.414213562373104
 10
28.19345167328112
 20
9.310487409862474
 10
28.58645167328116
 20
9.310487409862474
 42
-0.4142135623730937
 10
28.85845167328114
 20
9.038487409862474
 10
28.85845167328114
 20
9.014487409862475
 42
0.4085010776647213
 10
28.93045167328115
 20
8.940487409862473
 10
36.04845167328119
 20
8.940487409862473
 42
0.414213562373104
 10
36.12045167328119
 20
9.012487409862464
 10
36.12045167328119
 20
9.038487409862474
 42
-0.4142135623730937
 10
36.39245167328117
 20
9.310487409862474
 10
36.78545167328116
 20
9.310487409862474
 42
0.414213562373086
 10
36.85745167328116
 20
9.382487409862475
 10
36.85745167328116
 20
14.35648740986246
 42
0.4142135623730789
 10
36.78545167328116
 20
14.42848740986245
 10
36.75345167328116
 20
14.42848740986245
 42
-1.0
 10
36.75345167328116
 20
14.94448740986245
 10
36.78545167328116
 20
14.94448740986245
 42
0.4142135623731076
 10
36.85745167328116
 20
15.01648740986246
 10
36.85745167328116
 20
19.99048740986247
 42
0.4142135623731076
 10
36.78545167328116
 20
20.06248740986247
 10
36.39245167328117
 20
20.06248740986247
 42
-0.408167603774002
 10
36.12045167328119
 20
20.34248740986245
 10
36.12045167328119
 20
20.36048740986246
 42
0.4142135623731076
 10
36.04845167328119
 20
20.43248740986247
 10
28.93045167328115
 20
20.43248740986247
 42
0.4142135623731076
 10
28.85845167328114
 20
20.36048740986246
 10
28.85845167328114
 20
20.34448740986246
 42
-0.4066705375506182
 10
28.58645167328116
 20
20.06248740986246
 10
28.19345167328116
 20
20.06248740986246
 42
0.4142135623731076
  0
LWPOLYLINE
  5
242C
330
13FD
100
AcDbEntity
  8
OBJECT
100
AcDbPolyline
 90
        8
 70
     1
 43
0.0
 10
37.01745167328115
 20
8.998487409862475
 10
37.01745167328115
 20
20.37448740986246
 42
0.4142135623730951
 10
36.79945167328116
 20
20.59248740986246
 10
28.17945167328115
 20
20.59248740986246
 42
0.4142135623730949
 10
27.96145167328116
 20
20.37448740986246
 10
27.96145167328113
 20
8.998487409862475
 42
0.4142135623730955
 10
28.17945167328115
 20
8.780487409862473
 10
36.79945167328116
 20
8.780487409862473
 42
0.4142135623730951
  0
CIRCLE
  5
2436
330
13FD
100
AcDbEntity
  8
HIDDEN
100
AcDbCircle
 10
28.21345167328117
 20
9.038487409862455
 30
0.0
 40
0.164
  0
LWPOLYLINE
  5
2437
330
13FD
100
AcDbEntity
  8
OBJECT
100
AcDbPolyline
 90
        9
 70
     1
 43
0.0
 10
28.38804861418473
 20
9.150487409862474
 42
0.5947796088465532
 10
28.37965936901202
 20
9.135044931986364
 42
-0.3578812704539671
 10
28.34906075541838
 20
8.862655551455395
 42
0.6731893125235865
 10
28.35603339810992
 20
8.845487409862476
 10
28.74720989644971
 20
8.845487409862469
 42
0.6409538147669328
 10
28.75479897562363
 20
8.861999389384237
 42
-0.1795631739279128
 10
28.69845167328115
 20
9.014550716840101
 10
28.69845167328115
 20
9.038487409862474
 42
0.4142135623730901
 10
28.58645167328116
 20
9.150487409862474
  0
CIRCLE
  5
2442
330
13FD
100
AcDbEntity
  8
OBJECT
100
AcDbCircle
 10
28.21345167328117
 20
9.038487409862455
 30
0.0
 40
0.086
  0
CIRCLE
  5
2443
330
13FD
100
AcDbEntity
  8
HIDDEN
100
AcDbCircle
 10
36.76545167328116
 20
9.038487409862455
 30
0.0
 40
0.164
  0
LWPOLYLINE
  5
2444
330
13FD
100
AcDbEntity
  8
OBJECT
100
AcDbPolyline
 90
        9
 70
     1
 43
0.0
 10
36.59085473237758
 20
9.150487409862474
 42
-0.5947796088465532
 10
36.5992439775503
 20
9.135044931986364
 42
0.3578812704539671
 10
36.62984259114395
 20
8.862655551455395
 42
-0.6731893125235865
 10
36.6228699484524
 20
8.845487409862476
 10
36.23169345011261
 20
8.845487409862469
 42
-0.6409538147669328
 10
36.22410437093869
 20
8.861999389384237
 42
0.1795631739279128
 10
36.28045167328119
 20
9.014550716840101
 10
36.28045167328119
 20
9.038487409862474
 42
-0.4142135623730901
 10
36.39245167328117
 20
9.150487409862474
  0
CIRCLE
  5
244F
330
13FD
100
AcDbEntity
  8
OBJECT
100
AcDbCircle
 10
36.76545167328116
 20
9.038487409862455
 30
0.0
 40
0.086
  0
LWPOLYLINE
  5
2450
102
{ACAD_REACTORS
330
5E1D
102
}
330
13FD
100
AcDbEntity
  8
OBJECT
100
AcDbPolyline
 90
        4
 70
     0
 43
0.0
 10
38.59247505692697
 20
20.51648740986244
 10
38.70747505692695
 20
20.51648740986244
 10
38.70747505692695
 20
20.43248740986245
 10
38.59247505692697
 20
20.43248740986245
  0
LINE
  5
2456
330
13FD
100
AcDbEntity
  8
OBJECT
100
AcDbLine
 10
38.59247505692697
 20
20.02248740986245
 30
0.0
 11
40.59747505692697
 21
20.02248740986245
 31
0.0
  0
LINE
  5
2457
102
{ACAD_REACTORS
330
5E1D
102
}
330
13FD
100
AcDbEntity
  8
OBJECT
100
AcDbLine
 10
38.59247505692697
 20
20.39248740986244
 30
0.0
 11
40.59747505692697
 21
20.39248740986244
 31
0.0
  0
CIRCLE
  5
2459
330
13FD
100
AcDbEntity
  8
HIDDEN
100
AcDbCircle
 10
28.21345167328117
 20
14.68648740986246
 30
0.0
 40
0.164
  0
CIRCLE
  5
245A
330
13FD
100
AcDbEntity
  8
OBJECT
100
AcDbCircle
 10
28.21345167328117
 20
14.68648740986246
 30
0.0
 40
0.086
  0
CIRCLE
  5
245B
330
13FD
100
AcDbEntity
  8
HIDDEN
100
AcDbCircle
 10
28.21345167328117
 20
20.33448740986247
 30
0.0
 40
0.164
  0
CIRCLE
  5
245C
330
13FD
100
AcDbEntity
  8
OBJECT
100
AcDbCircle
 10
28.21345167328117
 20
20.33448740986247
 30
0.0
 40
0.086
  0
LWPOLYLINE
  5
245D
330
13FD
100
AcDbEntity
  8
OBJECT
100
AcDbPolyline
 90
        9
 70
     1
 43
0.0
 10
28.38804861418473
 20
20.22248740986245
 42
-0.5947796088465532
 10
28.37965936901202
 20
20.23792988773856
 42
0.3578812704539671
 10
28.34906075541838
 20
20.51031926826953
 42
-0.6731893125235865
 10
28.35603339810992
 20
20.52748740986245
 10
28.74720989644971
 20
20.52748740986245
 42
-0.6409538147669328
 10
28.75479897562363
 20
20.51097543034068
 42
0.1795631739279128
 10
28.69845167328115
 20
20.35842410288483
 10
28.69845167328115
 20
20.33448740986245
 42
-0.4142135623730901
 10
28.58645167328116
 20
20.22248740986245
  0
CIRCLE
  5
2468
330
13FD
100
AcDbEntity
  8
HIDDEN
100
AcDbCircle
 10
36.76545167328116
 20
14.68648740986246
 30
0.0
 40
0.164
  0
CIRCLE
  5
2469
330
13FD
100
AcDbEntity
  8
OBJECT
100
AcDbCircle
 10
36.76545167328116
 20
14.68648740986246
 30
0.0
 40
0.086
  0
LINE
  5
2473
102
{ACAD_REACTORS
330
5E1D
102
}
330
13FD
100
AcDbEntity
  8
OBJECT
100
AcDbLine
 10
38.59247505692697
 20
14.98448740986246
 30
0.0
 11
40.59747505692697
 21
14.98448740986246
 31
0.0
  0
LINE
  5
2474
102
{ACAD_REACTORS
330
5E1D
102
}
330
13FD
100
AcDbEntity
  8
OBJECT
100
AcDbLine
 10
38.59247505692697
 20
14.77242490986245
 30
0.0
 11
39.25747505692699
 21
14.77242490986245
 31
0.0
  0
LINE
  5
247B
102
{ACAD_REACTORS
330
5E1D
102
}
330
13FD
100
AcDbEntity
  8
OBJECT
100
AcDbLine
 10
38.59247505692697
 20
14.38848740986247
 30
0.0
 11
40.59747505692697
 21
14.38848740986247
 31
0.0
  0
LINE
  5
247C
102
{ACAD_REACTORS
330
5E1D
102
}
330
13FD
100
AcDbEntity
  8
OBJECT
100
AcDbLine
 10
38.59247505692697
 20
14.60054990986245
 30
0.0
 11
39.25747505692699
 21
14.60054990986245
 31
0.0
  0
CIRCLE
  5
2483
330
13FD
100
AcDbEntity
  8
HIDDEN
100
AcDbCircle
 10
36.76545167328116
 20
20.33448740986247
 30
0.0
 40
0.164
  0
LWPOLYLINE
  5
2484
330
13FD
100
AcDbEntity
  8
OBJECT
100
AcDbPolyline
 90
        9
 70
     1
 43
0.0
 10
36.59085473237758
 20
20.22248740986245
 42
0.5947796088465532
 10
36.5992439775503
 20
20.23792988773856
 42
-0.3578812704539671
 10
36.62984259114395
 20
20.51031926826953
 42
0.6731893125235865
 10
36.6228699484524
 20
20.52748740986245
 10
36.23169345011261
 20
20.52748740986245
 42
0.6409538147669328
 10
36.22410437093869
 20
20.51097543034068
 42
-0.1795631739279128
 10
36.28045167328119
 20
20.35842410288483
 10
36.28045167328119
 20
20.33448740986245
 42
0.4142135623730901
 10
36.39245167328117
 20
20.22248740986245
  0
CIRCLE
  5
248F
330
13FD
100
AcDbEntity
  8
OBJECT
100
AcDbCircle
 10
36.76545167328116
 20
20.33448740986247
 30
0.0
 40
0.086
  0
LINE
  5
2498
102
{ACAD_REACTORS
330
5E1D
102
}
330
13FD
100
AcDbEntity
  8
OBJECT
100
AcDbLine
 10
38.59247505692697
 20
8.952487409862463
 30
0.0
 11
39.25747505692699
 21
8.952487409862463
 31
0.0
  0
LINE
  5
2499
102
{ACAD_REACTORS
330
5E1D
102
}
330
13FD
100
AcDbEntity
  8
OBJECT
100
AcDbLine
 10
38.59247505692697
 20
9.124487409862453
 30
0.0
 11
39.25747505692699
 21
9.124487409862453
 31
0.0
  0
LINE
  5
249A
102
{ACAD_REACTORS
330
5E1D
102
}
330
13FD
100
AcDbEntity
  8
OBJECT
100
AcDbLine
 10
38.59247505692697
 20
9.350487409862452
 30
0.0
 11
40.59747505692697
 21
9.350487409862452
 31
0.0
  0
LWPOLYLINE
  5
249B
102
{ACAD_REACTORS
330
5E1D
102
}
330
13FD
100
AcDbEntity
  8
OBJECT
100
AcDbPolyline
 90
        4
 70
     0
 43
0.0
 10
38.59247505692697
 20
9.226487409862464
 10
38.70747505692695
 20
9.226487409862464
 10
38.70747505692695
 20
9.310487409862464
 10
38.59247505692697
 20
9.310487409862464
  0
DIMENSION
  5
24A2
330
13FD
100
AcDbEntity
  8
DIM
100
AcDbDimension
  2
*D26
 10
27.96145167328116
 20
21.67248740986248
 30
0.0
 11
26.07238917328116
 21
21.67248740986248
 31
0.0
 70
    32
 71
     5
 42
0.2520000000000095
  3
23NSTD
100
AcDbAlignedDimension
 13
28.21345167328117
 23
20.33448740986247
 33
0.0
 14
27.96145167328116
 24
20.35348740986246
 34
0.0
100
AcDbRotatedDimension
  0
DIMENSION
  5
24B0
330
13FD
100
AcDbEntity
  8
DIM
100
AcDbDimension
  2
*D27
 10
27.1104900612174
 20
14.68648740986246
 30
0.0
 11
27.1104900612174
 21
11.86248740986246
 31
0.0
 70
    32
 71
     5
 42
5.647999999999999
  3
23NSTD
100
AcDbAlignedDimension
 13
28.2134516732812
 23
9.038487409862463
 33
0.0
 14
28.19845167328116
 24
14.68648740986246
 34
0.0
 50
270.0
100
AcDbRotatedDimension
  0
DIMENSION
  5
24BE
330
13FD
100
AcDbEntity
  8
DIM
100
AcDbDimension
  2
*D28
 10
27.1104900612174
 20
8.780487409862475
 30
0.0
 11
25.7614275612174
 21
7.700487409862478
 31
0.0
 70
    32
 71
     5
 42
0.2579999999999902
  3
23NSTD
100
AcDbAlignedDimension
 13
28.2134516732812
 23
9.038487409862463
 33
0.0
 14
28.17945167328115
 24
8.780487409862473
 34
0.0
 50
270.0
100
AcDbRotatedDimension
  0
DIMENSION
  5
24CC
330
13FD
100
AcDbEntity
  8
DIM
100
AcDbDimension
  2
*D29
 10
26.04813165421274
 20
20.59248740986246
 30
0.0
 11
26.04813165421273
 21
14.68648740986247
 31
0.0
 70
    32
 71
     5
 42
11.81199999999999
  3
23NSTD
100
AcDbAlignedDimension
 13
28.17945167328117
 23
8.780487409862473
 33
0.0
 14
28.17945167328117
 24
20.59248740986246
 34
0.0
 50
90.0
100
AcDbRotatedDimension
  0
DIMENSION
  5
24DA
330
13FD
100
AcDbEntity
  8
DIM
100
AcDbDimension
  2
*D30
 10
37.01745167328117
 20
22.36689643288505
 30
0.0
 11
32.48945167328117
 21
22.36689643288505
 31
0.0
 70
   160
 71
     5
 42
9.055999999999997
  3
23NSTD
100
AcDbAlignedDimension
 13
27.96145167328117
 23
20.35348740986244
 33
0.0
 14
37.01745167328117
 24
20.37448740986245
 34
0.0
 50
180.0
100
AcDbRotatedDimension
  0
DIMENSION
  5
24EB
330
13FD
100
AcDbEntity
  8
DIM
100
AcDbDimension
  2
*D31
 10
31.37907476849816
 20
8.780487409862457
 30
0.0
 11
29.46751226849816
 21
7.700487409862462
 31
0.0
 70
    32
  1
<> TYP.
 71
     5
 42
0.1999999999999886
  3
23NSTD
100
AcDbAlignedDimension
 13
31.63107476849817
 23
8.980487409862446
 33
0.0
 14
31.63107476849817
 24
8.780487409862457
 34
0.0
 50
90.0
100
AcDbRotatedDimension
  0
TEXT
  5
24F9
330
13FD
100
AcDbEntity
  8
TEXT
100
AcDbText
 10
37.69577865277183
 20
6.587254888714366
 30
0.0
 40
0.375
  1
%%uSECTION "B-B"
 41
0.8
  7
SECTION
 72
     4
 11
39.55077865277184
 21
6.772969174428652
 31
0.0
100
AcDbText
  0
TEXT
  5
24FB
330
13FD
100
AcDbEntity
  8
TEXT
100
AcDbText
 10
17.98156876141466
 20
2.936691967525831
 30
0.0
 40
0.5400000000000002
  1
%%UBODY
 41
0.75
 72
     1
 11
18.73081876141466
 21
2.936691967525831
 31
0.0
100
AcDbText
  0
TEXT
  5
24FC
330
13FD
100
AcDbEntity
  8
TEXT
100
AcDbText
 10
30.99654691800725
 20
5.899174604493147
 30
0.0
 40
0.5400000000000002
  1
%%UCOVER
 41
0.75
 72
     1
 11
32.01579691800725
 21
5.899174604493147
 31
0.0
100
AcDbText
  0
LWPOLYLINE
  5
2529
330
13FD
100
AcDbEntity
  8
BEND
100
AcDbPolyline
 90
        8
 70
     0
 10
35.44563294186003
 20
8.280487409862463
 40
0.0
 41
0.3135000015675
 10
36.07263294499505
 20
8.280487409862463
 40
0.05225000026125
 41
0.05225000026125
 10
36.78045167328116
 20
8.280487409862463
 40
0.05225000026125
 41
0.05225000026125
 10
36.78045167328116
 20
15.23323215875744
 40
0.05225000026125
 41
0.05225000026125
 10
35.80410855423009
 20
15.23323215875744
 40
0.05225000026125
 41
0.05225000026125
 10
35.80410855423009
 20
21.09248740986246
 40
0.05225000026125
 41
0.05225000026125
 10
35.09628982594395
 20
21.09248740986246
 40
0.3135000015675
 41
0.0
 10
34.46928982280894
 20
21.09248740986246
 40
0.0
 41
0.0
  0
TEXT
  5
2533
330
13FD
100
AcDbEntity
  8
BEND
100
AcDbText
 10
36.91894586119156
 20
8.030487409862466
 30
0.0
 40
0.5
  1
B
  7
SECTION
 72
     4
 11
37.16894586119156
 21
8.280487409862466
 31
0.0
100
AcDbText
  0
TEXT
  5
2534
330
13FD
100
AcDbEntity
  8
BEND
100
AcDbText
 10
35.97545167328116
 20
20.84248740986246
 30
0.0
 40
0.5
  1
B
  7
SECTION
 72
     4
 11
36.22545167328116
 21
21.09248740986246
 31
0.0
100
AcDbText
  0
LINE
  5
253D
330
13FD
100
AcDbEntity
  8
HIDDEN
100
AcDbLine
 10
36.81745167328119
 20
25.53490942746318
 30
0.0
 11
28.16145167328117
 21
25.53490942746318
 31
0.0
  0
LINE
  5
253E
330
13FD
100
AcDbEntity
  8
HIDDEN
100
AcDbLine
 10
28.1214516732812
 20
23.64490942746315
 30
0.0
 11
36.85745167328116
 21
23.64490942746315
 31
0.0
  0
LINE
  5
253F
330
13FD
100
AcDbEntity
  8
HIDDEN
100
AcDbLine
 10
36.22169345011262
 20
23.52990942746317
 30
0.0
 11
36.22169345011262
 21
25.53490942746318
 31
0.0
  0
LINE
  5
2540
330
13FD
100
AcDbEntity
  8
HIDDEN
100
AcDbLine
 10
36.6328699484524
 20
23.52990942746317
 30
0.0
 11
36.6328699484524
 21
25.53490942746318
 31
0.0
  0
LINE
  5
2541
330
13FD
100
AcDbEntity
  8
HIDDEN
100
AcDbLine
 10
36.08045167328119
 20
23.52990942746317
 30
0.0
 11
36.08045167328119
 21
25.53490942746318
 31
0.0
  0
LINE
  5
2542
330
13FD
100
AcDbEntity
  8
HIDDEN
100
AcDbLine
 10
36.81745167328119
 20
23.52990942746317
 30
0.0
 11
36.81745167328119
 21
25.53490942746318
 31
0.0
  0
LWPOLYLINE
  5
254C
330
13FD
100
AcDbEntity
  8
HIDDEN
100
AcDbPolyline
 90
        4
 70
     0
 43
0.0
 10
36.94145167328117
 20
23.52990942746318
 10
36.94145167328117
 20
23.64490942746316
 10
36.85745167328116
 20
23.64490942746315
 10
36.85745167328116
 20
23.52990942746317
  0
LINE
  5
2552
330
13FD
100
AcDbEntity
  8
HIDDEN
100
AcDbLine
 10
36.85138917328119
 20
23.52990942746317
 30
0.0
 11
36.8513891732812
 21
24.19490942746319
 31
0.0
  0
LWPOLYLINE
  5
2553
330
13FD
100
AcDbEntity
  8
HIDDEN
100
AcDbPolyline
 90
        4
 70
     0
 43
0.0
 10
36.20445167328119
 20
23.52990942746318
 10
36.20445167328119
 20
23.64490942746316
 10
36.12045167328117
 20
23.64490942746315
 10
36.12045167328117
 20
23.52990942746317
  0
LINE
  5
2559
330
13FD
100
AcDbEntity
  8
HIDDEN
100
AcDbLine
 10
36.6795141732812
 20
23.52990942746318
 30
0.0
 11
36.6795141732812
 21
24.19490942746319
 31
0.0
  0
LINE
  5
255A
330
13FD
100
AcDbEntity
  8
HIDDEN
100
AcDbLine
 10
28.75720989644971
 20
23.52990942746317
 30
0.0
 11
28.75720989644971
 21
25.53490942746318
 31
0.0
  0
LINE
  5
255B
330
13FD
100
AcDbEntity
  8
HIDDEN
100
AcDbLine
 10
28.34603339810991
 20
23.52990942746317
 30
0.0
 11
28.34603339810991
 21
25.53490942746318
 31
0.0
  0
LINE
  5
255C
330
13FD
100
AcDbEntity
  8
HIDDEN
100
AcDbLine
 10
28.16145167328117
 20
23.52990942746318
 30
0.0
 11
28.16145167328117
 21
25.53490942746318
 31
0.0
  0
LINE
  5
255D
330
13FD
100
AcDbEntity
  8
HIDDEN
100
AcDbLine
 10
28.89845167328116
 20
23.52990942746318
 30
0.0
 11
28.89845167328116
 21
25.53490942746318
 31
0.0
  0
LWPOLYLINE
  5
2566
330
13FD
100
AcDbEntity
  8
HIDDEN
100
AcDbPolyline
 90
        4
 70
     0
 43
0.0
 10
28.77445167328115
 20
23.52990942746318
 10
28.77445167328115
 20
23.64490942746316
 10
28.85845167328115
 20
23.64490942746315
 10
28.85845167328115
 20
23.52990942746317
  0
LWPOLYLINE
  5
256D
330
13FD
100
AcDbEntity
  8
HIDDEN
100
AcDbPolyline
 90
        4
 70
     0
 43
0.0
 10
28.03745167328117
 20
23.52990942746318
 10
28.03745167328117
 20
23.64490942746316
 10
28.1214516732812
 20
23.64490942746315
 10
28.1214516732812
 20
23.52990942746317
  0
LINE
  5
2573
330
13FD
100
AcDbEntity
  8
HIDDEN
100
AcDbLine
 10
28.1275141732812
 20
23.52990942746318
 30
0.0
 11
28.1275141732812
 21
24.19490942746319
 31
0.0
  0
LINE
  5
2574
330
13FD
100
AcDbEntity
  8
HIDDEN
100
AcDbLine
 10
28.29938917328119
 20
23.52990942746317
 30
0.0
 11
28.29938917328119
 21
24.19490942746319
 31
0.0
  0
LINE
  5
2575
102
{ACAD_REACTORS
330
5E1D
102
}
330
13FD
100
AcDbEntity
  8
OBJECT
100
AcDbLine
 10
40.59747505692696
 20
14.98448740986246
 30
0.0
 11
40.59747505692697
 21
20.39248740986244
 31
0.0
  0
DIMENSION
  5
2601
330
13FD
100
AcDbEntity
  8
DIM
100
AcDbDimension
  2
*D32
 10
27.1104900612174
 20
14.68648740986246
 30
0.0
 11
27.1104900612174
 21
17.51048740986246
 31
0.0
 70
    32
 71
     5
 42
5.64799999999999
  3
23NSTD
100
AcDbAlignedDimension
 13
28.2134516732812
 23
20.33448740986245
 33
0.0
 14
28.19845167328116
 24
14.68648740986246
 34
0.0
 50
270.0
100
AcDbRotatedDimension
  0
DIMENSION
  5
260F
330
13FD
100
AcDbEntity
  8
DIM
100
AcDbDimension
  2
*D33
 10
6.682546536314097
 20
22.91676650716321
 30
0.0
 11
4.793484036314097
 21
22.91676650716321
 31
0.0
 70
    32
 71
     5
 42
0.2519999999999953
  3
23NSTD
100
AcDbAlignedDimension
 13
6.934546536314092
 23
20.33448740986247
 33
0.0
 14
6.682546536314097
 24
20.37448740986246
 34
0.0
100
AcDbRotatedDimension
  0
DIMENSION
  5
261D
330
13FD
100
AcDbEntity
  8
DIM
100
AcDbDimension
  2
*D34
 10
16.88610546742617
 20
20.59248740986247
 30
0.0
 11
18.23516796742617
 21
21.67248740986247
 31
0.0
 70
    32
 71
     5
 42
0.2579999999999956
  3
23NSTD
100
AcDbAlignedDimension
 13
15.48654653631408
 23
20.33448740986247
 33
0.0
 14
15.52054653631407
 24
20.59248740986247
 34
0.0
 50
90.0
100
AcDbRotatedDimension
  0
DIMENSION
  5
262B
330
13FD
100
AcDbEntity
  8
DIM
100
AcDbDimension
  2
*D35
 10
6.682546536314097
 20
21.96911293322278
 30
0.0
 11
4.793484036314097
 21
21.96911293322278
 31
0.0
 70
    32
 71
     5
 42
0.5970000000000102
  3
23NSTD
100
AcDbAlignedDimension
 13
7.279546536314107
 23
20.33448740986242
 33
0.0
 14
6.682546536314097
 24
20.37448740986241
 34
0.0
100
AcDbRotatedDimension
  0
DIMENSION
  5
2639
330
13FD
100
AcDbEntity
  8
DIM
100
AcDbDimension
  2
*D36
 10
9.305967488275028
 20
8.78048740986248
 30
0.0
 11
7.417842488275026
 21
7.700487409862481
 31
0.0
 70
    32
  1
<> TYP.
 71
     5
 42
0.1399999999999952
  3
23NSTD
100
AcDbAlignedDimension
 13
9.053967488275027
 23
8.920487409862476
 33
0.0
 14
9.053967488275027
 24
8.78048740986248
 34
0.0
 50
90.0
100
AcDbRotatedDimension
  0
DIMENSION
  5
264F
330
13FD
100
AcDbEntity
  8
DIM
100
AcDbDimension
  2
*D37
 10
40.75747505692698
 20
18.32041265974586
 30
0.0
 11
42.57622505692697
 21
18.32041265974586
 31
0.0
 70
    32
 71
     5
 42
0.1600000000000108
  3
23NSTD
100
AcDbAlignedDimension
 13
40.59747505692697
 23
18.50941265974586
 33
0.0
 14
40.75747505692698
 24
18.50941265974586
 34
0.0
100
AcDbRotatedDimension
  0
DIMENSION
  5
26E1
330
13FD
100
AcDbEntity
  8
DIM
100
AcDbDimension
  2
*D38
 10
15.48654653631408
 20
22.91676650716321
 30
0.0
 11
11.21054653631408
 21
22.91676650716321
 31
0.0
 70
    32
 71
     5
 42
8.55199999999999
  3
23NSTD
100
AcDbAlignedDimension
 13
6.934546536314092
 23
20.33448740986247
 33
0.0
 14
15.48654653631408
 24
21.09248740986246
 34
0.0
100
AcDbRotatedDimension
  0
DIMENSION
  5
26EF
330
13FD
100
AcDbEntity
  8
DIM
100
AcDbDimension
  2
*D39
 10
36.76545167328116
 20
21.67248740986248
 30
0.0
 11
32.48945167328116
 21
21.67248740986248
 31
0.0
 70
    32
 71
     5
 42
8.551999999999992
  3
23NSTD
100
AcDbAlignedDimension
 13
28.21345167328117
 23
20.33448740986247
 33
0.0
 14
36.76545167328116
 24
20.33448740986247
 34
0.0
100
AcDbRotatedDimension
  0
DIMENSION
  5
32C2
330
13FD
100
AcDbEntity
  8
DIM
100
AcDbDimension
  2
*D40
 10
3.993294438288316
 20
16.35948740986246
 30
0.0
 11
3.993294438288313
 21
18.02798740986246
 31
0.0
 70
    32
 71
     5
 42
3.336999999999999
  3
23NSTD
100
AcDbAlignedDimension
 13
7.312546536314096
 23
19.69648740986246
 33
0.0
 14
7.312546536314096
 24
16.35948740986246
 34
0.0
 50
90.0
100
AcDbRotatedDimension
  0
DIMENSION
  5
32DA
330
13FD
100
AcDbEntity
  8
DIM
100
AcDbDimension
  2
*D41
 10
3.993294438288316
 20
13.01348740986246
 30
0.0
 11
3.993294438288314
 21
11.34498740986246
 31
0.0
 70
    32
 71
     5
 42
3.336999999999999
  3
23NSTD
100
AcDbAlignedDimension
 13
7.312546536314096
 23
9.676487409862463
 33
0.0
 14
7.312546536314096
 24
13.01348740986246
 34
0.0
 50
270.0
100
AcDbRotatedDimension
  0
HATCH
  5
349E
330
13FD
100
AcDbEntity
  8
OBJECT
 62
   221
100
AcDbHatch
 10
0.0
 20
0.0
 30
0.0
210
0.0
220
0.0
230
1.0
  2
ZIGZAG
 70
     0
 71
     1
 91
        2
 92
        1
 93
       36
 72
     1
 10
28.03745167328116
 20
9.382487409862475
 11
28.03745167328116
 21
14.35648740986246
 72
     2
 10
28.19345167328116
 20
14.35648740986246
 40
0.1559999999999988
 50
179.9999999999993
 51
270.0
 73
     0
 72
     1
 10
28.19345167328116
 20
14.51248740986246
 11
28.22345167365144
 21
14.51248740986246
 72
     2
 10
28.22345168329435
 20
14.68648740986246
 40
0.1739999999999962
 50
269.9999968247237
 51
450.0000032972037
 73
     1
 72
     1
 10
28.22345167328116
 20
14.86048740986245
 11
28.19345167328116
 21
14.86048740986245
 72
     2
 10
28.19345167328116
 20
15.01648740986246
 40
0.1560000000000041
 50
90.00000000000264
 51
180.0000000000013
 73
     0
 72
     1
 10
28.03745167328116
 20
15.01648740986246
 11
28.03745167328116
 21
19.99048740986246
 72
     2
 10
28.19345167328116
 20
19.99048740986246
 40
0.1559999999999988
 50
180.0000000000013
 51
270.0
 73
     0
 72
     1
 10
28.19345167328116
 20
20.14648740986246
 11
28.58645167328116
 21
20.14648740986246
 72
     2
 10
28.57769434464383
 20
20.34305497442719
 40
0.1967625427864014
 50
272.5509111911469
 51
360.4171181601794
 73
     1
 72
     1
 10
28.77445167328115
 20
20.34448740986245
 11
28.77445167328115
 21
20.36048740986246
 72
     2
 10
28.93045167328116
 20
20.36048740986246
 40
0.1560000000000095
 50
179.9999999999986
 51
269.9999999999986
 73
     0
 72
     1
 10
28.93045167328115
 20
20.51648740986247
 11
36.04845167328119
 21
20.51648740986246
 72
     2
 10
36.04845167328118
 20
20.36048740986247
 40
0.1559999999999881
 50
270.0000000000051
 51
360.0000000000052
 73
     0
 72
     1
 10
36.20445167328116
 20
20.36048740986246
 11
36.20445167328116
 21
20.34248740986245
 72
     2
 10
36.39942198913944
 20
20.34133648833877
 40
0.1949737128082406
 50
179.6617834892902
 51
267.9512376627528
 73
     1
 72
     1
 10
36.39245167328117
 20
20.14648740986246
 11
36.78545167328116
 21
20.14648740986246
 72
     2
 10
36.78545167328116
 20
19.99048740986246
 40
0.1559999999999952
 50
270.0
 51
359.9999999999973
 73
     0
 72
     1
 10
36.94145167328116
 20
19.99048740986247
 11
36.94145167328116
 21
15.01648740986246
 72
     2
 10
36.78545167328115
 20
15.01648740986246
 40
0.1560000000000059
 50
359.9999999999987
 51
449.9999999999974
 73
     0
 72
     1
 10
36.78545167328116
 20
14.86048740986245
 11
36.75345167291089
 21
14.86048740986245
 72
     2
 10
36.75345166326806
 20
14.68648740986246
 40
0.1739999999999944
 50
89.99999682474946
 51
270.0000032971755
 73
     1
 72
     1
 10
36.75345167328116
 20
14.51248740986246
 11
36.78545167328116
 21
14.51248740986246
 72
     2
 10
36.78545167328115
 20
14.35648740986246
 40
0.1560000000000024
 50
270.0000000000026
 51
360.0
 73
     0
 72
     1
 10
36.94145167328116
 20
14.35648740986246
 11
36.94145167328116
 21
9.382487409862475
 72
     2
 10
36.78545167328115
 20
9.38248740986247
 40
0.156000000000013
 50
359.999999999998
 51
449.9999999999948
 73
     0
 72
     1
 10
36.78545167328116
 20
9.226487409862464
 11
36.39245167328117
 21
9.226487409862464
 72
     2
 10
36.39245167328116
 20
9.038487409862465
 40
0.1879999999999988
 50
89.99999999999568
 51
179.9999999999972
 73
     1
 72
     1
 10
36.20445167328116
 20
9.038487409862474
 11
36.20445167328116
 21
9.012487409862464
 72
     2
 10
36.04845167328118
 20
9.012487409862458
 40
0.1559999999999775
 50
359.999999999998
 51
449.9999999999974
 73
     0
 72
     1
 10
36.04845167328119
 20
8.856487409862477
 11
28.93045167328115
 21
8.856487409862477
 72
     2
 10
28.9321694540342
 20
9.014196104783213
 40
0.1577180497733762
 50
90.62404736417027
 51
180.1058253072882
 73
     0
 72
     1
 10
28.77445167328115
 20
9.014487409862475
 11
28.77445167328115
 21
9.038487409862474
 72
     2
 10
28.58645167328115
 20
9.038487409862481
 40
0.1879999999999953
 50
359.9999999999977
 51
449.9999999999978
 73
     1
 72
     1
 10
28.58645167328116
 20
9.226487409862475
 11
28.19345167328112
 21
9.226487409862475
 72
     2
 10
28.19345167328114
 20
9.382487409862459
 40
0.1559999999999846
 50
90.00000000000783
 51
180.0000000000058
 73
     0
 97
        1
330
23DF
 92
       16
 93
       36
 72
     1
 10
28.12145167328115
 20
19.99048740986246
 11
28.12145167328115
 21
15.01648740986245
 72
     2
 10
28.19345167328116
 20
15.01648740986245
 40
0.0720000000000027
 50
180.0
 51
270.0
 73
     1
 72
     1
 10
28.19345167328116
 20
14.94448740986245
 11
28.22345167328116
 21
14.94448740986245
 72
     2
 10
28.22345167328116
 20
14.68648740986245
 40
0.2580000000000009
 50
270.0
 51
450.0
 73
     0
 72
     1
 10
28.22345167328116
 20
14.42848740986245
 11
28.19345167328116
 21
14.42848740986245
 72
     2
 10
28.19345167328115
 20
14.35648740986246
 40
0.0719999999999956
 50
89.99999999999435
 51
179.9999999999971
 73
     1
 72
     1
 10
28.12145167328115
 20
14.35648740986246
 11
28.12145167328113
 21
9.382487409862475
 72
     2
 10
28.19345167328112
 20
9.382487409862468
 40
0.0719999999999921
 50
179.9999999999943
 51
269.9999999999972
 73
     1
 72
     1
 10
28.19345167328112
 20
9.310487409862474
 11
28.58645167328116
 21
9.310487409862474
 72
     2
 10
28.58645167328115
 20
9.038487409862481
 40
0.2719999999999931
 50
270.0000000000014
 51
360.0000000000014
 73
     0
 72
     1
 10
28.85845167328114
 20
9.038487409862474
 11
28.85845167328114
 21
9.014487409862475
 72
     2
 10
28.93218192157015
 20
9.01419792171124
 40
0.073730816597599
 50
179.7750398996532
 51
268.655310894369
 73
     1
 72
     1
 10
28.93045167328115
 20
8.940487409862473
 11
36.04845167328119
 21
8.940487409862473
 72
     2
 10
36.0484516732812
 20
9.012487409862469
 40
0.0719999999999956
 50
269.9999999999943
 51
359.9999999999957
 73
     1
 72
     1
 10
36.12045167328119
 20
9.012487409862464
 11
36.12045167328119
 21
9.038487409862474
 72
     2
 10
36.39245167328118
 20
9.038487409862485
 40
0.2719999999999914
 50
179.9999999999977
 51
269.9999999999969
 73
     0
 72
     1
 10
36.39245167328117
 20
9.310487409862474
 11
36.78545167328116
 21
9.310487409862474
 72
     2
 10
36.78545167328115
 20
9.382487409862473
 40
0.0719999999999992
 50
270.0000000000056
 51
360.0000000000014
 73
     1
 72
     1
 10
36.85745167328116
 20
9.382487409862475
 11
36.85745167328116
 21
14.35648740986246
 72
     2
 10
36.78545167328115
 20
14.35648740986246
 40
0.0720000000000027
 50
0.0000000000028272
 51
89.99999999999435
 73
     1
 72
     1
 10
36.78545167328116
 20
14.42848740986245
 11
36.75345167328116
 21
14.42848740986245
 72
     2
 10
36.75345167328116
 20
14.68648740986245
 40
0.2579999999999991
 50
90.0
 51
270.0
 73
     0
 72
     1
 10
36.75345167328116
 20
14.94448740986245
 11
36.78545167328116
 21
14.94448740986245
 72
     2
 10
36.78545167328115
 20
15.01648740986245
 40
0.072000000000001
 50
270.0000000000056
 51
360.0000000000056
 73
     1
 72
     1
 10
36.85745167328116
 20
15.01648740986246
 11
36.85745167328116
 21
19.99048740986247
 72
     2
 10
36.78545167328115
 20
19.99048740986247
 40
0.0720000000000027
 50
359.9999999999971
 51
449.9999999999944
 73
     1
 72
     1
 10
36.78545167328116
 20
20.06248740986247
 11
36.39245167328117
 21
20.06248740986247
 72
     2
 10
36.39937811812062
 20
20.3413302419922
 40
0.2789288451706716
 50
91.42293226732089
 51
180.2376987051942
 73
     0
 72
     1
 10
36.12045167328119
 20
20.34248740986245
 11
36.12045167328119
 21
20.36048740986246
 72
     2
 10
36.04845167328118
 20
20.36048740986247
 40
0.0720000000000098
 50
359.9999999999943
 51
449.9999999999944
 73
     1
 72
     1
 10
36.04845167328119
 20
20.43248740986247
 11
28.93045167328115
 21
20.43248740986247
 72
     2
 10
28.93045167328115
 20
20.36048740986246
 40
0.0720000000000098
 50
90.0
 51
180.0000000000028
 73
     1
 72
     1
 10
28.85845167328114
 20
20.36048740986246
 11
28.85845167328114
 21
20.34448740986246
 72
     2
 10
28.57776294057009
 20
20.343045336449
 40
0.2806924371027235
 50
359.7056383682117
 51
448.2261465420179
 73
     0
 72
     1
 10
28.58645167328116
 20
20.06248740986246
 11
28.19345167328116
 21
20.06248740986246
 72
     2
 10
28.19345167328116
 20
19.99048740986246
 40
0.0719999999999992
 50
89.99999999999717
 51
180.0
 73
     1
 97
        1
330
2405
 75
     0
 76
     1
 52
0.0
 41
0.375
 77
     0
 78
     2
 53
0.0
 43
-10.42994845811219
 44
-1.009894278849685
 45
0.046875
 46
0.046875
 79
     2
 49
0.046875
 49
-0.046875
 53
90.0
 43
-10.38307345811219
 44
-1.009894278849685
 45
-0.046875
 46
0.046875
 79
     2
 49
0.046875
 49
-0.046875
 98
        1
 10
-10.42994845811219
 20
-1.009894278849685
  0
MTEXT
  5
3979
102
{ACAD_REACTORS
330
3A76
102
}
330
13FD
100
AcDbEntity
  8
DIM
100
AcDbMText
 10
17.27894273780745
 20
5.802252502680914
 30
0.0
 40
0.375
 41
0.0
 71
     1
 72
     1
  1
\A1;M4 x 0.315 LG.\PTHREADED INSERT\P(6) PLACES
 73
     1
 44
1.0
  0
INSERT
  5
397A
330
13FD
100
AcDbEntity
  8
TEXT
100
AcDbBlockReference
  2
HBS
 10
0.0
 20
0.0
 30
0.0
 41
3.0
 42
3.0
 43
3.0
  0
MTEXT
  5
3998
102
{ACAD_REACTORS
330
39E4
102
}
330
13FD
100
AcDbEntity
  8
DIM
100
AcDbMText
 10
12.40615094466537
 20
7.242854283562294
 30
0.0
 40
0.375
 41
0.0
 71
     3
 72
     1
  1
0.315 DIA. BOSS WITH\P0.120 DIA. HOLE x 0.320 DEEP\P(12) PLACES\PMOUNTING BOSSES USE EITHER\PM3 METRIC OR #6 STD. SHEET\PMETAL SCREWS x 0.312 LG.\P(NOT SUPPLIED)
 73
     1
 44
1.0
  0
LEADER
  5
39E4
330
13FD
100
AcDbEntity
  8
DIM
100
AcDbLeader
  3
23NSTD
 73
     0
 75
     1
 40
4.125
 41
7.03125
 76
     3
 10
14.95241414938815
 20
9.655776838822276
 30
0.0
 10
13.21615094466537
 20
7.055354283562294
 30
0.0
 10
12.67615094466536
 20
7.055354283562294
 30
0.0
340
3998
213
0.0
223
-0.1875
233
0.0
1001
ACAD
1000
DSTYLE
1002
{
1070
   147
1040
0.09
1070
    77
1070
     0
1002
}
  0
TEXT
  5
3A1C
330
13FD
100
AcDbEntity
  8
TEXT
100
AcDbText
 10
8.788312500000017
 20
29.93662500000001
 30
0.0
 40
0.46875
  1
NEMA 4X ENCLOSURE
 41
0.75
 72
     4
 11
11.71800000000001
 21
30.17100000000001
 31
0.0
100
AcDbText
  0
TEXT
  5
3A1D
330
13FD
100
AcDbEntity
  8
TEXT
100
AcDbText
 10
0.4907377707873338
 20
27.46157604675776
 30
0.0
 40
0.375
  1
  UL94-HB FLAMMABILITY RATING (UL FILE #E41613)
 41
0.75
100
AcDbText
  0
TEXT
  5
3A1E
330
13FD
100
AcDbEntity
  8
TEXT
100
AcDbText
 10
0.4907377707873338
 20
26.21157604675776
 30
0.0
 40
0.375
  1
  SERVICE TEMPERATURE RANGE: -40%%dC TO +120%%dC
 41
0.75
100
AcDbText
  0
TEXT
  5
3A1F
330
13FD
100
AcDbEntity
  8
TEXT
100
AcDbText
 10
0.4907377707873338
 20
24.96157604675776
 30
0.0
 40
0.375
  1
  UL94-HB FLAMMABILITY RATING (ULFILE #E560700
 41
0.75
100
AcDbText
  0
TEXT
  5
3A20
330
13FD
100
AcDbEntity
  8
TEXT
100
AcDbText
 10
0.4907377707873338
 20
24.33657604675776
 30
0.0
 40
0.375
  1
  SERVICE TEMPERATURE RANGE: -40%%dC TO +80%%dC
 41
0.75
100
AcDbText
  0
TEXT
  5
3A21
330
13FD
100
AcDbEntity
  8
TEXT
100
AcDbText
 10
0.4907377707873338
 20
28.08657604675776
 30
0.0
 40
0.375
  1
 %%UPOLYCARBONATE%%U (LIGHT GRAY AND CLEAR)
 41
0.75
100
AcDbText
  0
TEXT
  5
3A47
330
13FD
100
AcDbEntity
  8
TEXT
100
AcDbText
 10
0.4907377707873338
 20
26.83657604675776
 30
0.0
 40
0.375
  1
  UV STABILIZED
 41
0.75
100
AcDbText
  0
TEXT
  5
3A48
330
13FD
100
AcDbEntity
  8
TEXT
100
AcDbText
 10
0.4907377707873338
 20
28.71157604675776
 30
0.0
 40
0.46875
  1
INDUSTRY STANDARDS:
 41
0.75
100
AcDbText
  0
TEXT
  5
3A49
330
13FD
100
AcDbEntity
  8
TEXT
100
AcDbText
 10
0.4907377707873338
 20
25.58657604675776
 30
0.0
 40
0.375
  1
 %%UABS%%U (DARK GRAY)
 41
0.75
100
AcDbText
  0
LEADER
  5
3A76
330
13FD
100
AcDbEntity
  8
DIM
100
AcDbLeader
  3
23NSTD
 73
     0
 74
     0
 75
     1
 40
1.625
 41
4.03125
 76
     3
 10
15.5357189503792
 20
8.958374528906849
 30
0.0
 10
16.46894273780745
 20
5.614752502680914
 30
0.0
 10
17.00894273780745
 20
5.614752502680914
 30
0.0
340
3979
213
0.0
223
-0.1875
233
0.0
1001
ACAD
1000
DSTYLE
1002
{
1070
   147
1040
0.09
1070
    77
1070
     0
1002
}
  0
TEXT
  5
3A8D
330
13FD
100
AcDbEntity
  8
TEXT
100
AcDbText
 10
25.61400600000002
 20
3.61499914275
 30
0.0
 40
0.37499990625
  1
%%UNOTE%%U:  ALL DIMENSIONS HAVE %%P0.015 TOLERANCE UNLESS OTHERWISE SPECIFIED.
 41
0.75
100
AcDbText
  0
LINE
  5
3A8E
330
13FD
100
AcDbEntity
  8
TITLE
100
AcDbLine
 10
31.61400450000002
 20
2.681999375999999
 30
0.0
 11
43.61400150000001
 21
2.681999375999999
 31
0.0
  0
TEXT
  5
3A8F
330
13FD
100
AcDbEntity
  8
TEXT
100
AcDbText
 10
39.39525255468751
 20
0.3074999696250005
 30
0.0
 40
0.37499990625
  1
DARK GRAY
 41
0.75
 72
     4
 11
40.61400225000001
 21
0.4949999227500004
 31
0.0
100
AcDbText
  0
TEXT
  5
3A90
330
13FD
100
AcDbEntity
  8
TEXT
100
AcDbText
 10
39.30150257812502
 20
1.557499657124993
 30
0.0
 40
0.37499990625
  1
LIGHT GRAY
 41
0.75
 72
     4
 11
40.61400225000002
 21
1.744999610249993
 31
0.0
100
AcDbText
  0
TEXT
  5
3A91
330
13FD
100
AcDbEntity
  8
TEXT
100
AcDbText
 10
39.91087742578128
 20
2.806499344875004
 30
0.0
 40
0.37499990625
  1
FINISH
 41
0.75
 72
     4
 11
40.61400225000002
 21
2.993999298000004
 31
0.0
100
AcDbText
  0
LINE
  5
3A92
330
13FD
100
AcDbEntity
  8
TITLE
100
AcDbLine
 10
25.61400600000002
 20
3.305999220000003
 30
0.0
 11
49.61400000000003
 21
3.305999220000003
 31
0.0
  0
LINE
  5
3A93
330
13FD
100
AcDbEntity
  8
TITLE
100
AcDbLine
 10
25.61400600000002
 20
2.057999532000006
 30
0.0
 11
49.61400000000003
 21
2.057999532000006
 31
0.0
  0
LINE
  5
3A94
330
13FD
100
AcDbEntity
  8
TITLE
100
AcDbLine
 10
25.61400600000002
 20
1.433999688000002
 30
0.0
 11
43.61400150000001
 21
1.433999688000002
 31
0.0
  0
LINE
  5
3A95
330
13FD
100
AcDbEntity
  8
TITLE
100
AcDbLine
 10
25.61400600000002
 20
0.8099998439999991
 30
0.0
 11
43.61400150000001
 21
0.8099998439999991
 31
0.0
  0
TEXT
  5
3A97
330
13FD
100
AcDbEntity
  8
TEXT
100
AcDbText
 10
32.59837925390627
 20
2.182499500875
 30
0.0
 40
0.37499990625
  1
BODY
 41
0.75
 72
     4
 11
33.11400412500002
 21
2.369999454000001
 31
0.0
100
AcDbText
  0
TEXT
  5
3A98
330
13FD
100
AcDbEntity
  8
TEXT
100
AcDbText
 10
32.64525424218752
 20
0.3074999696250034
 30
0.0
 40
0.37499990625
  1
HIGH-IMPACT ABS
 41
0.75
 72
     4
 11
34.61400375000002
 21
0.4949999227500035
 31
0.0
100
AcDbText
  0
TEXT
  5
3A99
330
13FD
100
AcDbEntity
  8
TEXT
100
AcDbText
 10
27.44213054296877
 20
0.9314998136250036
 30
0.0
 40
0.37499990625
  1
PN-1343-C
 41
0.75
 72
     4
 11
28.61400525000002
 21
1.118999766750003
 31
0.0
100
AcDbText
  0
LINE
  5
3A9A
330
13FD
100
AcDbEntity
  8
TITLE
100
AcDbLine
 10
25.61400600000002
 20
3.305999220000003
 30
0.0
 11
25.61400600000002
 21
0.1860000000000031
 31
0.0
  0
LINE
  5
3A9B
330
13FD
100
AcDbEntity
  8
TITLE
100
AcDbLine
 10
31.61400450000002
 20
3.305999220000003
 30
0.0
 11
31.61400450000002
 21
0.1860000000000031
 31
0.0
  0
TEXT
  5
3A9C
330
13FD
100
AcDbEntity
  8
TEXT
100
AcDbText
 10
27.30150557812502
 20
0.3064999698750031
 30
0.0
 40
0.37499990625
  1
PN-1343-DG
 41
0.75
 72
     4
 11
28.61400525000002
 21
0.4939999230000032
 31
0.0
100
AcDbText
  0
TEXT
  5
3A9D
330
13FD
100
AcDbEntity
  8
TEXT
100
AcDbText
 10
27.72338047265627
 20
1.556499657375003
 30
0.0
 40
0.37499990625
  1
PN-1343
 41
0.75
 72
     4
 11
28.61400525000002
 21
1.743999610500003
 31
0.0
100
AcDbText
  0
TEXT
  5
3A9F
330
13FD
100
AcDbEntity
  8
TEXT
100
AcDbText
 10
27.11400562500002
 20
2.494499422874999
 30
0.0
 40
0.37499990625
  1
PART NUMBER
 41
0.75
 72
     4
 11
28.61400525000002
 21
2.681999375999999
 31
0.0
100
AcDbText
  0
TEXT
  5
3AA0
330
13FD
100
AcDbEntity
  8
TEXT
100
AcDbText
 10
37.80150295312502
 20
0.9324998133750039
 30
0.0
 40
0.37499990625
  1
LIGHT GRAY
 41
0.75
 72
     4
 11
39.11400262500002
 21
1.119999766500003
 31
0.0
100
AcDbText
  0
TEXT
  5
3AA1
330
13FD
100
AcDbEntity
  8
TEXT
100
AcDbText
 10
32.83275419531252
 20
0.9324998133750039
 30
0.0
 40
0.37499990625
  1
POLYCARBONATE
 41
0.75
 72
     4
 11
34.61400375000002
 21
1.119999766500003
 31
0.0
100
AcDbText
  0
LINE
  5
3AA2
330
13FD
100
AcDbEntity
  8
TITLE
100
AcDbLine
 10
37.61400300000001
 20
3.305999220000003
 30
0.0
 11
37.61400300000001
 21
0.1860000000000031
 31
0.0
  0
TEXT
  5
3AA3
330
13FD
100
AcDbEntity
  8
TEXT
100
AcDbText
 10
35.41087855078127
 20
2.182499500875
 30
0.0
 40
0.37499990625
  1
COVER
 41
0.75
 72
     4
 11
36.11400337500002
 21
2.369999454000001
 31
0.0
100
AcDbText
  0
TEXT
  5
3AA4
330
13FD
100
AcDbEntity
  8
TEXT
100
AcDbText
 10
32.83275419531252
 20
1.557499657125
 30
0.0
 40
0.37499990625
  1
POLYCARBONATE
 41
0.75
 72
     4
 11
34.61400375000002
 21
1.74499961025
 31
0.0
100
AcDbText
  0
TEXT
  5
3AA5
330
13FD
100
AcDbEntity
  8
TEXT
100
AcDbText
 10
33.58275400781252
 20
2.806499344875004
 30
0.0
 40
0.37499990625
  1
MATERIAL
 41
0.75
 72
     4
 11
34.61400375000002
 21
2.993999298000004
 31
0.0
100
AcDbText
  0
LINE
  5
3AA6
330
13FD
100
AcDbEntity
  8
TITLE
100
AcDbLine
 10
34.61400375000002
 20
2.681999375999999
 30
0.0
 11
34.61400375000002
 21
2.057999532000006
 31
0.0
  0
TEXT
  5
3AA7
330
13FD
100
AcDbEntity
  8
TEXT
100
AcDbText
 10
38.59837775390627
 20
2.182499500875
 30
0.0
 40
0.37499990625
  1
BODY
 41
0.75
 72
     4
 11
39.11400262500002
 21
2.369999454000001
 31
0.0
100
AcDbText
  0
MTEXT
  5
3AA8
102
{ACAD_REACTORS
330
3AB4
102
}
330
13FD
100
AcDbEntity
  8
DIM
100
AcDbMText
 10
36.93693809827244
 20
7.475356252825212
 30
0.0
 40
0.375
 41
0.0
 71
     3
 72
     1
  1
\A1;SEE DETAIL "C"
 73
     1
 44
1.0
  0
CIRCLE
  5
3AB1
102
{ACAD_REACTORS
330
5E1D
102
}
330
13FD
100
AcDbEntity
  8
BEND
100
AcDbCircle
 10
39.67492798637703
 20
9.16271682037518
 30
0.0
 40
1.318840295601319
  0
LEADER
  5
3AB4
330
13FD
100
AcDbEntity
  8
DIM
100
AcDbLeader
  3
23NSTD
 73
     0
 75
     1
 40
0.3750000000000001
 41
3.5625
 76
     3
 10
38.73815572351106
 20
8.234386355062989
 30
0.0
 10
37.74693809827245
 20
7.287856252825212
 30
0.0
 10
37.20693809827245
 20
7.287856252825212
 30
0.0
340
3AA8
213
0.0
223
-0.1875
233
0.0
1001
ACAD
1000
DSTYLE
1002
{
1070
   147
1040
0.09
1070
    77
1070
     0
1002
}
  0
TEXT
  5
3ACA
330
13FD
100
AcDbEntity
  8
TEXT
100
AcDbText
 10
43.94212641796876
 20
0.3074999696250003
 30
0.0
 40
0.37499990625
  1
SCREWS FOR ASSEMBLY
 41
0.75
 72
     4
 11
46.61400075000002
 21
0.4949999227500004
 31
0.0
100
AcDbText
  0
TEXT
  5
3ACB
330
13FD
100
AcDbEntity
  8
TEXT
100
AcDbText
 10
44.01243890039064
 20
0.9324998133749959
 30
0.0
 40
0.37499990625
  1
M4 x 25mm (1.000") LG.
 41
0.75
 72
     4
 11
46.61400075000002
 21
1.119999766499995
 31
0.0
100
AcDbText
  0
TEXT
  5
3ACC
330
13FD
100
AcDbEntity
  8
TEXT
100
AcDbText
 10
44.59837625390626
 20
1.557499657124993
 30
0.0
 40
0.37499990625
  1
KIT CONTAINS (6)
 41
0.75
 72
     4
 11
46.61400075000002
 21
1.744999610249993
 31
0.0
100
AcDbText
  0
TEXT
  5
3ACD
330
13FD
100
AcDbEntity
  8
TEXT
100
AcDbText
 10
41.45775203906253
 20
0.9324998133750039
 30
0.0
 40
0.37499990625
  1
CLEAR
 41
0.75
 72
     4
 11
42.11400187500003
 21
1.119999766500003
 31
0.0
100
AcDbText
  0
LINE
  5
3ACE
330
13FD
100
AcDbEntity
  8
TITLE
100
AcDbLine
 10
40.61400225000002
 20
1.433999688000002
 30
0.0
 11
40.61400225000002
 21
0.8099998439999991
 31
0.0
  0
LINE
  5
3ACF
330
13FD
100
AcDbEntity
  8
TITLE
100
AcDbLine
 10
43.61400150000001
 20
3.305999220000003
 30
0.0
 11
43.61400150000001
 21
0.1860000000000031
 31
0.0
  0
TEXT
  5
3AD0
330
13FD
100
AcDbEntity
  8
TEXT
100
AcDbText
 10
41.41087705078128
 20
2.182499500875
 30
0.0
 40
0.37499990625
  1
COVER
 41
0.75
 72
     4
 11
42.11400187500003
 21
2.369999454000001
 31
0.0
100
AcDbText
  0
LINE
  5
3AD1
330
13FD
100
AcDbEntity
  8
TITLE
100
AcDbLine
 10
40.61400225000002
 20
2.681999375999999
 30
0.0
 11
40.61400225000002
 21
2.057999532000006
 31
0.0
  0
TEXT
  5
3AD3
330
13FD
100
AcDbEntity
  8
TEXT
100
AcDbText
 10
44.97337616015627
 20
2.494499422874999
 30
0.0
 40
0.37499990625
  1
HARDWARE KIT
 41
0.75
 72
     4
 11
46.61400075000003
 21
2.681999375999999
 31
0.0
100
AcDbText
  0
TEXT
  5
3B18
330
13FD
100
AcDbEntity
  8
TEXT
100
AcDbText
 10
27.23947107457502
 20
29.9756795
 30
0.0
 40
0.46875
  1
PN-1343, PN-1343-C AND PN-1343-DG
 41
0.75
 72
     4
 11
32.71798669957502
 21
30.170992
 31
0.0
100
AcDbText
  0
MTEXT
  5
3B19
102
{ACAD_REACTORS
330
3B2E
102
}
330
13FD
100
AcDbEntity
  8
DIM
100
AcDbMText
 10
39.80745499053238
 20
29.06392629579701
 30
0.0
 40
0.375
 41
0.0
 71
     3
 72
     1
  1
\A1;SILICONE GASKET\P(CLEAR)
 73
     1
 44
1.0
  0
DIMENSION
  5
3B1E
330
13FD
100
AcDbEntity
  8
DIM
100
AcDbDimension
  2
*D42
 10
48.17928606951953
 20
26.26829803581831
 30
0.0
 11
48.17928606951952
 21
25.61229803581831
 31
0.0
 70
    32
  1
<> DIA.\PC'BORE
 71
     5
 42
0.3279999999999994
  3
23NSTD4I
100
AcDbAlignedDimension
 13
46.88969058283172
 23
24.95629803581831
 33
0.0
 14
46.88969058283171
 24
26.26829803581831
 34
0.0
 50
90.0
100
AcDbRotatedDimension
  0
DIMENSION
  5
3B21
330
13FD
100
AcDbEntity
  8
DIM
100
AcDbDimension
  2
*D43
 10
43.95369058283174
 20
23.96503977382498
 30
0.0
 11
45.42169058283173
 21
23.96503977382498
 31
0.0
 70
   160
 71
     5
 42
0.7339999999999947
  3
23NSTD4
100
AcDbAlignedDimension
 13
46.88969058283172
 23
24.82829803581843
 33
0.0
 14
43.95369058283174
 24
24.95629803581831
 34
0.0
100
AcDbRotatedDimension
  0
TEXT
  5
3B23
330
13FD
100
AcDbEntity
  8
TEXT
100
AcDbText
 10
41.01475116127137
 20
23.42501447011051
 30
0.0
 40
0.375
  1
%%UDETAIL "C"
 41
0.75
 72
     1
 11
42.23818866127138
 21
23.42501447011051
 31
0.0
100
AcDbText
  0
TEXT
  5
3B2A
330
13FD
100
AcDbEntity
  8
TEXT
100
AcDbText
 10
45.88240857457503
 20
29.93662500000002
 30
0.0
 40
0.46875
  1
11-17-08
 41
0.75
 72
     4
 11
47.02498669957503
 21
30.17100000000002
 31
0.0
100
AcDbText
  0
LEADER
  5
3B2E
330
13FD
100
AcDbEntity
  8
DIM
100
AcDbLeader
  3
23NSTD
 73
     0
 75
     1
 40
1.0
 41
3.9375
 76
     3
 10
42.16569058283165
 20
26.60136212446873
 30
0.0
 10
40.61745499053238
 20
28.87642629579701
 30
0.0
 10
40.07745499053238
 20
28.87642629579701
 30
0.0
340
3B19
213
0.0
223
-0.1875
233
0.0
1001
ACAD
1000
DSTYLE
1002
{
1070
   147
1040
0.09
1070
    77
1070
     0
1002
}
  0
DIMENSION
  5
4983
330
13FD
100
AcDbEntity
  8
DIM
100
AcDbDimension
  2
*D44
 10
6.682546536314092
 20
19.02070388826419
 30
0.0
 11
4.793484036314092
 21
19.02070388826419
 31
0.0
 70
   160
 71
     5
 42
0.8749999999999982
  3
23NSTD
100
AcDbAlignedDimension
 13
7.55754653631409
 23
20.34248740986245
 33
0.0
 14
6.682546536314092
 24
20.37448740986245
 34
0.0
 50
180.0
100
AcDbRotatedDimension
  0
HATCH
  5
4C50
330
13FD
100
AcDbEntity
  8
OBJECT
 62
   221
100
AcDbHatch
 10
0.0
 20
0.0
 30
0.0
210
0.0
220
0.0
230
1.0
  2
ZIGZAG
 70
     0
 71
     0
 91
        1
 92
        7
 72
     0
 73
     1
 93
        4
 10
38.59247505692697
 20
20.43248740986245
 10
38.59247505692697
 20
20.51648740986245
 10
38.70747505692694
 20
20.51648740986245
 10
38.70747505692694
 20
20.43248740986245
 97
        0
 75
     0
 76
     1
 52
0.0
 41
0.25
 77
     0
 78
     2
 53
0.0
 43
-11.89296197003389
 44
-0.6398942788496953
 45
0.03125
 46
0.03125
 79
     2
 49
0.03125
 49
-0.03125
 53
90.0
 43
-11.86171197003389
 44
-0.6398942788496953
 45
-0.03125
 46
0.03125
 79
     2
 49
0.03125
 49
-0.03125
 47
0.0021610132447368
 98
        1
 10
38.65672899675647
 20
20.46604260512299
  0
LWPOLYLINE
  5
4C51
102
{ACAD_REACTORS
330
5E1D
102
}
330
13FD
100
AcDbEntity
  8
OBJECT
100
AcDbPolyline
 90
        4
 70
     0
 43
0.0
 10
38.59247505692697
 20
14.94448740986244
 10
38.70747505692698
 20
14.94448740986244
 10
38.70747505692698
 20
14.86048740986245
 10
38.59247505692697
 20
14.86048740986245
  0
LWPOLYLINE
  5
4C52
102
{ACAD_REACTORS
330
5E1D
102
}
330
13FD
100
AcDbEntity
  8
OBJECT
100
AcDbPolyline
 90
        4
 70
     0
 43
0.0
 10
38.59247505692697
 20
14.51248740986245
 10
38.70747505692698
 20
14.51248740986245
 10
38.70747505692698
 20
14.42848740986244
 10
38.59247505692697
 20
14.42848740986244
  0
HATCH
  5
4C53
330
13FD
100
AcDbEntity
  8
OBJECT
 62
   221
100
AcDbHatch
 10
0.0
 20
0.0
 30
0.0
210
0.0
220
0.0
230
1.0
  2
ZIGZAG
 70
     0
 71
     0
 91
        1
 92
        7
 72
     0
 73
     1
 93
        4
 10
38.70747505692698
 20
14.94448740986244
 10
38.70747505692698
 20
14.86048740986245
 10
38.59247505692698
 20
14.86048740986245
 10
38.59247505692698
 20
14.94448740986244
 97
        0
 75
     0
 76
     1
 52
0.0
 41
0.25
 77
     0
 78
     2
 53
0.0
 43
-11.89296197003389
 44
-1.009894278849696
 45
0.03125
 46
0.03125
 79
     2
 49
0.03125
 49
-0.03125
 53
90.0
 43
-11.86171197003389
 44
-1.009894278849696
 45
-0.03125
 46
0.03125
 79
     2
 49
0.03125
 49
-0.03125
 47
0.0029679050460828
 98
        1
 10
38.65663833961312
 20
14.90885303995168
  0
HATCH
  5
4C54
330
13FD
100
AcDbEntity
  8
OBJECT
 62
   221
100
AcDbHatch
 10
0.0
 20
0.0
 30
0.0
210
0.0
220
0.0
230
1.0
  2
ZIGZAG
 70
     0
 71
     0
 91
        1
 92
        7
 72
     0
 73
     1
 93
        4
 10
38.59247505692697
 20
14.42848740986244
 10
38.59247505692698
 20
14.51248740986245
 10
38.70747505692698
 20
14.51248740986245
 10
38.70747505692698
 20
14.42848740986244
 97
        0
 75
     0
 76
     1
 52
0.0
 41
0.25
 77
     0
 78
     2
 53
0.0
 43
-11.89296197003389
 44
-1.009894278849696
 45
0.03125
 46
0.03125
 79
     2
 49
0.03125
 49
-0.03125
 53
90.0
 43
-11.86171197003389
 44
-1.009894278849696
 45
-0.03125
 46
0.03125
 79
     2
 49
0.03125
 49
-0.03125
 47
0.0029679050460828
 98
        1
 10
38.63584635271678
 20
14.4696030365928
  0
HATCH
  5
4C56
330
13FD
100
AcDbEntity
  8
OBJECT
 62
   221
100
AcDbHatch
 10
0.0
 20
0.0
 30
0.0
210
0.0
220
0.0
230
1.0
  2
ZIGZAG
 70
     0
 71
     0
 91
        1
 92
        7
 72
     0
 73
     1
 93
        4
 10
38.59247505692697
 20
9.226487409862471
 10
38.59247505692696
 20
9.310487409862464
 10
38.70747505692695
 20
9.310487409862464
 10
38.70747505692695
 20
9.226487409862468
 97
        0
 75
     0
 76
     1
 52
0.0
 41
0.25
 77
     0
 78
     2
 53
0.0
 43
-11.89296197003389
 44
-0.6398942788496953
 45
0.03125
 46
0.03125
 79
     2
 49
0.03125
 49
-0.03125
 53
90.0
 43
-11.86171197003389
 44
-0.6398942788496953
 45
-0.03125
 46
0.03125
 79
     2
 49
0.03125
 49
-0.03125
 47
0.002473254149311
 98
        1
 10
38.64760357690835
 20
9.26093078367009
  0
DIMENSION
  5
5044
330
13FD
100
AcDbEntity
  8
DIM
100
AcDbDimension
  2
*D45
 10
15.10854653631411
 20
17.10648740986246
 30
0.0
 11
13.15954653631411
 21
17.10648740986246
 31
0.0
 70
   160
 71
     5
 42
3.89800000000001
  3
23NSTD
100
AcDbAlignedDimension
 13
11.2105465363141
 23
16.35948740986246
 33
0.0
 14
15.10854653631411
 24
16.35948740986246
 34
0.0
 50
180.0
100
AcDbRotatedDimension
  0
LINE
  5
5645
102
{ACAD_REACTORS
330
5E1D
102
}
330
13FD
100
AcDbEntity
  8
OBJECT
100
AcDbLine
 10
40.75747505692703
 20
9.202487409862431
 30
0.0
 11
39.25747505692698
 21
9.202487409862431
 31
0.0
  0
LINE
  5
5649
102
{ACAD_REACTORS
330
5E1D
102
}
330
13FD
100
AcDbEntity
  8
OBJECT
100
AcDbLine
 10
39.25747505692699
 20
8.874487409862432
 30
0.0
 11
40.75747505692699
 21
8.874487409862432
 31
0.0
  0
ARC
  5
564A
102
{ACAD_REACTORS
330
5E1D
102
}
330
13FD
100
AcDbEntity
  8
OBJECT
100
AcDbCircle
 10
40.69547505692698
 20
8.842487409862471
 30
0.0
 40
0.0620000000000065
100
AcDbArc
 50
269.9999999999934
 51
359.999999999995
  0
LINE
  5
564B
102
{ACAD_REACTORS
330
5E1D
102
}
330
13FD
100
AcDbEntity
  8
OBJECT
100
AcDbLine
 10
40.75747505692699
 20
8.842487409862464
 30
0.0
 11
40.75747505692695
 21
20.53048740986245
 31
0.0
  0
ARC
  5
564C
102
{ACAD_REACTORS
330
5E1D
102
}
330
13FD
100
AcDbEntity
  8
OBJECT
100
AcDbCircle
 10
40.69547505692696
 20
20.53048740986246
 30
0.0
 40
0.0619999999999905
100
AcDbArc
 50
359.9999999999933
 51
89.99999999999344
  0
LINE
  5
564D
102
{ACAD_REACTORS
330
5E1D
102
}
330
13FD
100
AcDbEntity
  8
OBJECT
100
AcDbLine
 10
40.69547505692697
 20
20.59248740986245
 30
0.0
 11
38.59247505692697
 21
20.59248740986245
 31
0.0
  0
LINE
  5
564E
102
{ACAD_REACTORS
330
5E1D
102
}
330
13FD
100
AcDbEntity
  8
OBJECT
100
AcDbLine
 10
38.59247505692697
 20
20.59248740986245
 30
0.0
 11
38.59247505692697
 21
8.780487409862463
 31
0.0
  0
LINE
  5
564F
102
{ACAD_REACTORS
330
5E1D
102
}
330
13FD
100
AcDbEntity
  8
OBJECT
100
AcDbLine
 10
38.59247505692697
 20
8.780487409862463
 30
0.0
 11
40.69547505692697
 21
8.780487409862463
 31
0.0
  0
LINE
  5
5650
102
{ACAD_REACTORS
330
5E1D
102
}
330
13FD
100
AcDbEntity
  8
OBJECT
100
AcDbLine
 10
39.25747505692699
 20
8.874487409862432
 30
0.0
 11
39.25747505692698
 21
9.202487409862431
 31
0.0
  0
LINE
  5
5651
102
{ACAD_REACTORS
330
5E1D
102
}
330
13FD
100
AcDbEntity
  8
OBJECT
100
AcDbLine
 10
39.25747505692699
 20
14.52254990986242
 30
0.0
 11
40.75747505692699
 21
14.52254990986242
 31
0.0
  0
LINE
  5
5652
102
{ACAD_REACTORS
330
5E1D
102
}
330
13FD
100
AcDbEntity
  8
OBJECT
100
AcDbLine
 10
39.25747505692699
 20
14.52254990986242
 30
0.0
 11
39.25747505692698
 21
14.85054990986242
 31
0.0
  0
LINE
  5
5653
102
{ACAD_REACTORS
330
5E1D
102
}
330
13FD
100
AcDbEntity
  8
OBJECT
100
AcDbLine
 10
40.75747505692703
 20
14.85054990986242
 30
0.0
 11
39.25747505692698
 21
14.85054990986242
 31
0.0
  0
HATCH
  5
5740
330
13FD
100
AcDbEntity
  8
OBJECT
 62
   151
100
AcDbHatch
 10
0.0
 20
0.0
 30
0.0
210
0.0
220
0.0
230
1.0
  2
ANSI31
 70
     0
 71
     0
 91
        3
 92
        7
 72
     1
 73
     1
 93
        9
 10
22.26673240228528
 20
20.59248740986247
 42
0.0
 10
20.14373240228527
 20
20.59248740986246
 42
0.0
 10
20.14373240228527
 20
20.57248740986246
 42
0.0
 10
20.10373240228526
 20
20.57248740986247
 42
0.0
 10
20.10373240228527
 20
20.45948740986248
 42
0.0
 10
20.41873240228524
 20
20.45948740986248
 42
0.0
 10
20.41873240228524
 20
20.50148740986246
 42
0.0
 10
22.32873240228527
 20
20.50148740986246
 42
0.0
 10
22.32873240228527
 20
20.53048740986248
 42
0.4142135623730457
 97
        0
 92
        7
 72
     0
 73
     1
 93
       36
 10
22.32873240228527
 20
20.16148740986246
 10
20.41873240228527
 20
20.16148740986245
 10
20.41873240228527
 20
20.20948740986247
 10
20.10373240228527
 20
20.20948740986248
 10
20.10373240228526
 20
20.13248740986246
 10
20.04873240228527
 20
20.13248740986246
 10
20.04873240228527
 20
20.09248740986244
 10
22.18873240228527
 20
20.09248740986245
 10
22.18873240228527
 20
19.75648740986247
 10
22.2337324022853
 20
19.75648740986247
 10
22.23373240228529
 20
19.63648740986246
 10
22.18873240228527
 20
19.63648740986246
 10
22.18873240228527
 20
16.41948740986246
 10
22.2337324022853
 20
16.41948740986246
 10
22.23373240228529
 20
16.29948740986247
 10
22.18873240228527
 20
16.29948740986247
 10
22.18873240228528
 20
13.17098740986244
 10
21.91373240228528
 20
13.17098740986244
 10
21.91373240228528
 20
13.07348740986246
 10
22.23373240228529
 20
13.07348740986246
 10
22.23373240228529
 20
12.95348740986245
 10
21.91373240228528
 20
12.95348740986245
 10
21.91373240228528
 20
12.85598740986244
 10
22.18873240228527
 20
12.85598740986244
 10
22.18873240228527
 20
9.736487409862466
 10
22.23373240228526
 20
9.736487409862466
 10
22.23373240228527
 20
9.616487409862466
 10
22.18873240228527
 20
9.616487409862465
 10
22.18873240228527
 20
9.280487409862473
 10
20.04873240228527
 20
9.280487409862473
 10
20.04873240228527
 20
9.240487409862474
 10
20.10373240228526
 20
9.240487409862472
 10
20.10373240228525
 20
9.220487409862482
 10
22.15873240228527
 20
9.220487409862483
 10
22.15873240228527
 20
9.123487409862477
 10
22.32873240228527
 20
9.123487409862477
 97
        0
 92
        7
 72
     1
 73
     1
 93
        9
 10
22.32873240228527
 20
8.842487409862476
 42
0.0
 10
22.32873240228527
 20
8.953487409862475
 42
0.0
 10
22.15873240228527
 20
8.953487409862475
 42
0.0
 10
22.15873240228527
 20
8.850487409862481
 42
0.0
 10
20.10373240228527
 20
8.850487409862481
 42
0.0
 10
20.10373240228527
 20
8.800487409862473
 42
0.0
 10
20.14373240228527
 20
8.800487409862471
 42
0.0
 10
20.14373240228527
 20
8.780487409862473
 42
0.0
 10
22.26673240228527
 20
8.780487409862473
 42
0.4142135623730616
 97
        0
 75
     0
 76
     1
 52
90.0
 41
1.0
 77
     0
 78
     1
 53
135.0
 43
-1.902024448068573
 44
0.700510104724657
 45
-0.0883883476483185
 46
-0.0883883476483184
 79
     0
 47
0.020991716776279
 98
        3
 10
21.26174576546407
 20
20.53758022585772
 10
21.17771109735136
 20
20.1177458764641
 10
21.30376317620684
 20
8.824202211463145
  0
LINE
  5
5743
102
{ACAD_REACTORS
330
5785
102
}
330
13FD
100
AcDbEntity
  8
OBJECT
100
AcDbLine
 10
42.16569058283164
 20
27.87462998750203
 30
0.0
 11
42.16569058283167
 21
24.58029803581843
 31
0.0
  0
LINE
  5
5744
102
{ACAD_REACTORS
330
5785
102
}
330
13FD
100
AcDbEntity
  8
OBJECT
100
AcDbLine
 10
46.88969058283172
 20
24.82829803581843
 30
0.0
 11
46.88969058283169
 21
28.14208242097304
 31
0.0
  0
LINE
  5
5745
102
{ACAD_REACTORS
330
5785
102
}
330
13FD
100
AcDbEntity
  8
OBJECT
100
AcDbLine
 10
46.32969058283168
 20
26.86029803581839
 30
0.0
 11
46.32969058283168
 21
27.80798721217221
 31
0.0
  0
LINE
  5
5746
102
{ACAD_REACTORS
330
5785
102
}
330
13FD
100
AcDbEntity
  8
OBJECT
100
AcDbLine
 10
43.95369058283174
 20
24.95629803581831
 30
0.0
 11
43.95369058283168
 21
26.26829803581831
 31
0.0
  0
LINE
  5
5747
102
{ACAD_REACTORS
330
5785
102
}
330
13FD
100
AcDbEntity
  8
OBJECT
100
AcDbLine
 10
43.95369058283174
 20
24.95629803581831
 30
0.0
 11
46.88969058283172
 21
24.95629803581831
 31
0.0
  0
LINE
  5
5748
102
{ACAD_REACTORS
330
5785
102
}
330
13FD
100
AcDbEntity
  8
OBJECT
100
AcDbLine
 10
42.16569058283167
 20
24.58029803581843
 30
0.0
 11
46.64169058283166
 21
24.58029803581843
 31
0.0
  0
LINE
  5
5749
102
{ACAD_REACTORS
330
5785
102
}
330
13FD
100
AcDbEntity
  8
OBJECT
100
AcDbLine
 10
42.16569058283167
 20
25.26829803581843
 30
0.0
 11
43.95369058283174
 21
25.26829803581843
 31
0.0
  0
ARC
  5
574A
102
{ACAD_REACTORS
330
5785
102
}
330
13FD
100
AcDbEntity
  8
OBJECT
100
AcDbCircle
 10
46.6416905828317
 20
24.82829803581847
 30
0.0
 40
0.248000000000026
100
AcDbArc
 50
269.9999999999934
 51
359.999999999995
  0
LINE
  5
574B
102
{ACAD_REACTORS
330
5785
102
}
330
13FD
100
AcDbEntity
  8
OBJECT
100
AcDbLine
 10
42.16569058283167
 20
26.86029803581839
 30
0.0
 11
46.32969058283168
 21
26.86029803581839
 31
0.0
  0
LINE
  5
574C
102
{ACAD_REACTORS
330
5785
102
}
330
13FD
100
AcDbEntity
  8
OBJECT
100
AcDbLine
 10
46.88969058283191
 20
26.26829803581831
 30
0.0
 11
43.95369058283168
 21
26.26829803581831
 31
0.0
  0
LWPOLYLINE
  5
574D
102
{ACAD_REACTORS
330
5785
102
}
330
13FD
100
AcDbEntity
  8
OBJECT
100
AcDbPolyline
 90
        4
 70
     0
 43
0.0
 10
42.16569058283167
 20
26.36429803581843
 10
42.62569058283159
 20
26.36429803581843
 10
42.62569058283159
 20
26.70029803581843
 10
42.16569058283167
 20
26.70029803581843
  0
LINE
  5
574E
102
{ACAD_REACTORS
330
5785
102
}
330
13FD
100
AcDbEntity
  8
OBJECT
100
AcDbLine
 10
42.16569058283167
 20
25.95629803581839
 30
0.0
 11
43.95369058283171
 21
25.95629803581839
 31
0.0
  0
HATCH
  5
574F
330
13FD
100
AcDbEntity
  8
OBJECT
 62
   221
100
AcDbHatch
 10
0.0
 20
0.0
 30
0.0
210
0.0
220
0.0
230
1.0
  2
ZIGZAG
 70
     0
 71
     0
 91
        1
 92
        7
 72
     0
 73
     1
 93
        4
 10
42.16569058283167
 20
26.36429803581846
 10
42.16569058283164
 20
26.70029803581843
 10
42.62569058283159
 20
26.70029803581843
 10
42.62569058283159
 20
26.36429803581845
 97
        0
 75
     0
 76
     1
 52
0.0
 41
0.75
 77
     0
 78
     2
 53
0.0
 43
-1.402174259807566
 44
0.5388621244687358
 45
0.09375
 46
0.09375
 79
     2
 49
0.09375
 49
-0.09375
 53
90.0
 43
-1.308424259807566
 44
0.5388621244687358
 45
-0.09375
 46
0.09375
 79
     2
 49
0.09375
 49
-0.09375
 47
0.002473254149311
 98
        1
 10
42.38620466275719
 20
26.50207153104894
  0
SPLINE
  5
5751
102
{ACAD_REACTORS
330
5785
102
}
330
13FD
100
AcDbEntity
  8
OBJECT
100
AcDbSpline
210
0.0
220
0.0
230
1.0
 70
     8
 71
     3
 72
    12
 73
     8
 74
     0
 42
0.0000000001
 43
0.0000000001
 40
0.0
 40
0.0
 40
0.0
 40
0.0
 40
0.8482191848495714
 40
1.967345221416456
 40
3.167026004023201
 40
4.018391903371022
 40
5.021883304412881
 40
5.021883304412881
 40
5.021883304412881
 40
5.021883304412881
 10
42.16569058283164
 20
27.87462998750203
 30
0.0
 10
42.43503483301387
 20
28.02218487152225
 30
0.0
 10
43.05974732829422
 20
28.36442117218473
 30
0.0
 10
44.03479306132694
 20
27.40978709779769
 30
0.0
 10
45.10245890720992
 20
28.43318478593909
 30
0.0
 10
45.97766531371095
 20
27.39849749326844
 30
0.0
 10
46.58564118470454
 20
28.00042588086425
 30
0.0
 10
46.88969058283169
 20
28.14208242097303
 30
0.0
  0
HATCH
  5
5785
330
13FD
100
AcDbEntity
  8
OBJECT
 62
   151
100
AcDbHatch
 10
0.0
 20
0.0
 30
0.0
210
0.0
220
0.0
230
1.0
  2
ANSI31
 70
     0
 71
     1
 91
        2
 92
        5
 93
       12
 72
     1
 10
43.95369058283169
 20
26.26829803581831
 11
46.88969058283171
 21
26.2682980358183
 72
     1
 10
46.88969058283171
 20
26.2682980358183
 11
46.88969058283169
 21
28.14208242097303
 72
     4
 94
        3
 73
     0
 74
     0
 95
        8
 96
        4
 40
4.423946903850271
 40
4.423946903850271
 40
4.423946903850271
 40
4.423946903850271
 40
5.02188330441288
 40
5.02188330441288
 40
5.02188330441288
 40
5.02188330441288
 10
46.88969058283169
 20
28.14208242097303
 10
46.70852091608554
 20
28.05767551761456
 10
46.5185212927088
 20
27.90794359220758
 10
46.32969058283167
 20
27.8079872122507
 72
     1
 10
46.32969058283168
 20
27.80798721225071
 11
46.32969058283168
 21
26.86029803581838
 72
     1
 10
46.32969058283168
 20
26.86029803581838
 11
42.16569058283165
 21
26.86029803581839
 72
     1
 10
42.16569058283165
 20
26.86029803581839
 11
42.16569058283165
 21
26.70029803581844
 72
     1
 10
42.16569058283165
 20
26.70029803581844
 11
42.62569058283158
 21
26.70029803581843
 72
     1
 10
42.62569058283158
 20
26.70029803581843
 11
42.62569058283158
 21
26.36429803581843
 72
     1
 10
42.62569058283158
 20
26.36429803581843
 11
42.16569058283165
 21
26.36429803581843
 72
     1
 10
42.16569058283165
 20
26.36429803581843
 11
42.16569058283165
 21
25.95629803581839
 72
     1
 10
42.16569058283165
 20
25.95629803581839
 11
43.95369058283169
 21
25.95629803581839
 72
     1
 10
43.95369058283169
 20
25.95629803581839
 11
43.95369058283169
 21
26.26829803581831
 97
        9
330
5751
330
5745
330
574B
330
5743
330
574D
330
574E
330
5746
330
574C
330
5744
 92
        7
 72
     1
 73
     1
 93
        7
 10
42.16569058283166
 20
25.26829803581843
 42
0.0
 10
42.16569058283167
 20
24.58029803581843
 42
0.0
 10
46.64169058283169
 20
24.58029803581843
 42
0.4142135623730951
 10
46.88969058283172
 20
24.82829803581846
 42
0.0
 10
46.88969058283173
 20
24.95629803581831
 42
0.0
 10
43.95369058283173
 20
24.95629803581831
 42
0.0
 10
43.95369058283172
 20
25.26829803581843
 42
0.0
 97
        7
330
5749
330
5743
330
5748
330
574A
330
5744
330
5747
330
5746
 75
     0
 76
     1
 52
90.0
 41
1.75
 77
     0
 78
     1
 53
135.0
 43
-1.402174259807566
 44
0.5388621244687358
 45
-0.1546796083845573
 46
-0.1546796083845572
 79
     0
 47
0.0206777808511004
 98
        2
 10
43.92213506153843
 20
26.50989641686939
 10
43.01157705331994
 20
24.95906287306849
  0
DIMENSION
  5
5788
330
13FD
100
AcDbEntity
  8
DIM
100
AcDbDimension
  2
*D46
 10
40.88163952791801
 20
25.26829803581843
 30
0.0
 11
40.88163952791801
 21
25.61229803581841
 31
0.0
 70
    32
  1
<> DIA.
 71
     5
 42
0.1719999999999882
  3
23NSTD4I
100
AcDbAlignedDimension
 13
42.1674951683553
 23
25.95629803581839
 33
0.0
 14
42.16569058283167
 24
25.26829803581843
 34
0.0
 50
90.0
100
AcDbRotatedDimension
  0
DIMENSION
  5
57A2
330
13FD
100
AcDbEntity
  8
DIM
100
AcDbDimension
  2
*D47
 10
39.624331593691
 20
26.36429803581844
 30
0.0
 11
38.29870659369099
 21
25.28429803581844
 31
0.0
 70
    32
 71
     5
 42
0.0839999999999997
  3
23NSTD4
100
AcDbAlignedDimension
 13
42.16569058283165
 23
26.70029803581843
 33
0.0
 14
42.16569058283165
 24
26.36429803581843
 34
0.0
 50
90.0
100
AcDbRotatedDimension
  0
DIMENSION
  5
57FA
330
13FD
100
AcDbEntity
  8
DIM
100
AcDbDimension
  2
*D48
 10
42.62569058283159
 20
28.68793443050668
 30
0.0
 11
44.42100308283159
 21
28.68793443050668
 31
0.0
 70
    32
 71
     5
 42
0.1149999999999878
  3
23NSTD4
100
AcDbAlignedDimension
 13
42.16569058283164
 23
27.87462998750203
 33
0.0
 14
42.62569058283159
 24
26.70029803581843
 34
0.0
100
AcDbRotatedDimension
  0
DIMENSION
  5
5A6D
330
13FD
100
AcDbEntity
  8
DIM
100
AcDbDimension
  2
*D49
 10
40.75747505692695
 20
21.32522156412062
 30
0.0
 11
39.67497505692696
 21
21.32522156412062
 31
0.0
 70
    32
 71
     5
 42
2.164999999999984
  3
23NSTDI
100
AcDbAlignedDimension
 13
38.59247505692697
 23
20.59248740986245
 33
0.0
 14
40.75747505692695
 24
20.53048740986245
 34
0.0
100
AcDbRotatedDimension
  0
HATCH
  5
5A96
330
13FD
100
AcDbEntity
  8
OBJECT
 62
   151
100
AcDbHatch
 10
0.0
 20
0.0
 30
0.0
210
0.0
220
0.0
230
1.0
  2
ANSI32
 70
     0
 71
     0
 91
        2
 92
        7
 72
     0
 73
     1
 93
        4
 10
20.41873240228525
 20
20.40048740986248
 10
20.41873240228524
 20
20.45948740986248
 10
20.10373240228526
 20
20.45948740986248
 10
20.10373240228526
 20
20.40048740986248
 97
        0
 92
        7
 72
     0
 73
     1
 93
        4
 10
20.41873240228526
 20
20.20948740986247
 10
20.41873240228525
 20
20.26848740986247
 10
20.10373240228527
 20
20.26848740986247
 10
20.10373240228527
 20
20.20948740986248
 97
        0
 75
     0
 76
     1
 52
0.0
 41
0.25
 77
     0
 78
     2
 53
45.0
 43
-0.0144820395747161
 44
0.700510104724657
 45
-0.0662912607362388
 46
0.0662912607362388
 79
     0
 53
45.0
 43
0.029712134175284
 44
0.700510104724657
 45
-0.0662912607362388
 46
0.0662912607362388
 79
     0
 47
0.0021982497443507
 98
        2
 10
20.23084101805342
 20
20.41859147809171
 10
20.21764076089532
 20
20.23613673889713
  0
LEADER
  5
5B11
330
13FD
100
AcDbEntity
  8
DIM
100
AcDbLeader
  3
23NSTD
 73
     0
 75
     1
 40
1.0
 41
2.25
 76
     3
 10
7.208570265072696
 20
8.991718093845809
 30
0.0
 10
6.118813778457462
 20
8.322814514641393
 30
0.0
 10
5.578813778457462
 20
8.322814514641393
 30
0.0
340
5B12
213
0.0
223
-0.1875
233
0.0
1001
ACAD
1000
DSTYLE
1002
{
1070
   147
1040
0.09
1070
    77
1070
     0
1002
}
  0
MTEXT
  5
5B12
102
{ACAD_REACTORS
330
5B11
102
}
330
13FD
100
AcDbEntity
  8
DIM
100
AcDbMText
 10
5.308813778457462
 20
8.510314514641393
 30
0.0
 40
0.375
 41
0.0
 71
     3
 72
     1
  1
\A1;0.170 DIA.\P(4) HOLES
 73
     1
 44
1.0
  0
LINE
  5
5D6A
330
13FD
100
AcDbEntity
  8
HIDDEN
100
AcDbLine
 10
28.04945167328119
 20
25.69490942746323
 30
0.0
 11
28.04945167328119
 21
24.19490942746318
 31
0.0
  0
LINE
  5
5D6E
330
13FD
100
AcDbEntity
  8
HIDDEN
100
AcDbLine
 10
28.37745167328119
 20
24.1949094274632
 30
0.0
 11
28.37745167328119
 21
25.69490942746318
 31
0.0
  0
LINE
  5
5D6F
330
13FD
100
AcDbEntity
  8
HIDDEN
100
AcDbLine
 10
36.6014516732812
 20
25.69490942746323
 30
0.0
 11
36.6014516732812
 21
24.19490942746318
 31
0.0
  0
LINE
  5
5D73
330
13FD
100
AcDbEntity
  8
HIDDEN
100
AcDbLine
 10
36.9294516732812
 20
24.19490942746319
 30
0.0
 11
36.9294516732812
 21
25.69490942746318
 31
0.0
  0
LINE
  5
5D74
330
13FD
100
AcDbEntity
  8
OBJECT
100
AcDbLine
 10
28.02345167328121
 20
25.69490942746318
 30
0.0
 11
36.95545167328116
 21
25.69490942746318
 31
0.0
  0
ARC
  5
5D75
330
13FD
100
AcDbEntity
  8
OBJECT
100
AcDbCircle
 10
36.95545167328116
 20
25.63290942746318
 30
0.0
 40
0.0620000000000047
100
AcDbArc
 50
0.0000000000032832
 51
90.00000000000655
  0
LINE
  5
5D76
330
13FD
100
AcDbEntity
  8
OBJECT
100
AcDbLine
 10
37.01745167328116
 20
25.63290942746318
 30
0.0
 11
37.01745167328116
 21
23.52990942746317
 31
0.0
  0
LINE
  5
5D77
330
13FD
100
AcDbEntity
  8
OBJECT
100
AcDbLine
 10
37.01745167328116
 20
23.52990942746317
 30
0.0
 11
27.96145167328119
 21
23.52990942746318
 31
0.0
  0
LINE
  5
5D78
330
13FD
100
AcDbEntity
  8
OBJECT
100
AcDbLine
 10
27.96145167328119
 20
23.52990942746318
 30
0.0
 11
27.96145167328119
 21
25.63290942746318
 31
0.0
  0
ARC
  5
5D79
330
13FD
100
AcDbEntity
  8
OBJECT
100
AcDbCircle
 10
28.0234516732812
 20
25.63290942746317
 30
0.0
 40
0.0620000000000083
100
AcDbArc
 50
89.99999999999015
 51
179.9999999999901
  0
LINE
  5
5D7A
330
13FD
100
AcDbEntity
  8
HIDDEN
100
AcDbLine
 10
28.04945167328119
 20
24.19490942746318
 30
0.0
 11
28.37745167328119
 21
24.1949094274632
 31
0.0
  0
LINE
  5
5D7B
330
13FD
100
AcDbEntity
  8
HIDDEN
100
AcDbLine
 10
36.6014516732812
 20
24.19490942746318
 30
0.0
 11
36.9294516732812
 21
24.19490942746319
 31
0.0
  0
HATCH
  5
5E1D
330
13FD
100
AcDbEntity
  8
OBJECT
 62
   151
100
AcDbHatch
 10
0.0
 20
0.0
 30
0.0
210
0.0
220
0.0
230
1.0
  2
ANSI31
 70
     0
 71
     1
 91
        4
 92
        7
 72
     1
 73
     1
 93
       19
 10
40.59747505692698
 20
20.39248740986245
 42
0.0
 10
40.59747505692696
 20
14.98448740986246
 42
0.0
 10
38.59247505692696
 20
14.98448740986246
 42
0.0
 10
38.59247505692697
 20
14.94448740986244
 42
0.0
 10
38.70747505692698
 20
14.94448740986244
 42
0.0
 10
38.70747505692698
 20
14.86048740986245
 42
0.0
 10
38.59247505692697
 20
14.86048740986245
 42
0.0
 10
38.59247505692697
 20
14.77242490986245
 42
0.0
 10
39.25747505692698
 20
14.77242490986245
 42
0.0
 10
39.25747505692698
 20
14.85054990986242
 42
0.0
 10
40.75747505692697
 20
14.85054990986242
 42
0.0
 10
40.75747505692695
 20
20.53048740986246
 42
0.4142135623730951
 10
40.69547505692696
 20
20.59248740986245
 42
0.0
 10
38.59247505692697
 20
20.59248740986245
 42
0.0
 10
38.59247505692697
 20
20.51648740986244
 42
0.0
 10
38.70747505692695
 20
20.51648740986244
 42
0.0
 10
38.70747505692695
 20
20.43248740986245
 42
0.0
 10
38.59247505692697
 20
20.43248740986245
 42
0.0
 10
38.59247505692697
 20
20.39248740986245
 42
0.0
 97
       12
330
564C
330
564D
330
564E
330
2450
330
2457
330
2575
330
2473
330
4C51
330
2474
330
5652
330
5653
330
564B
 92
        7
 72
     1
 73
     1
 93
       12
 10
40.59747505692695
 20
14.38848740986247
 42
0.0
 10
40.59747505692697
 20
10.10518519009455
 42
-0.0470722616557382
 10
40.75747505692699
 20
9.915997355996198
 42
0.0
 10
40.75747505692697
 20
14.52254990986242
 42
0.0
 10
39.25747505692699
 20
14.52254990986242
 42
0.0
 10
39.25747505692699
 20
14.60054990986245
 42
0.0
 10
38.59247505692697
 20
14.60054990986245
 42
0.0
 10
38.59247505692697
 20
14.51248740986245
 42
0.0
 10
38.70747505692698
 20
14.51248740986245
 42
0.0
 10
38.70747505692698
 20
14.42848740986244
 42
0.0
 10
38.59247505692697
 20
14.42848740986244
 42
0.0
 10
38.59247505692697
 20
14.38848740986246
 42
0.0
 97
        9
330
5651
330
5652
330
247C
330
564E
330
4C52
330
247B
330
23B8
330
3AB1
330
564B
 92
        7
 72
     1
 73
     1
 93
       12
 10
40.75747505692699
 20
9.202487409862431
 42
0.0
 10
40.75747505692699
 20
9.915997355996196
 42
0.0470722616557385
 10
40.59747505692697
 20
10.10518519009455
 42
0.0
 10
40.59747505692697
 20
9.350487409862452
 42
0.0
 10
38.59247505692697
 20
9.350487409862452
 42
0.0
 10
38.59247505692697
 20
9.310487409862465
 42
0.0
 10
38.70747505692694
 20
9.310487409862464
 42
0.0
 10
38.70747505692694
 20
9.226487409862462
 42
0.0
 10
38.59247505692697
 20
9.226487409862466
 42
0.0
 10
38.59247505692698
 20
9.124487409862453
 42
0.0
 10
39.25747505692699
 20
9.124487409862453
 42
0.0
 10
39.25747505692698
 20
9.202487409862431
 42
0.0
 97
        9
330
3AB1
330
23B8
330
249A
330
564E
330
249B
330
2499
330
5650
330
5645
330
564B
 92
        7
 72
     1
 73
     1
 93
        7
 10
40.69547505692698
 20
8.780487409862463
 42
0.4142135623730868
 10
40.75747505692699
 20
8.842487409862467
 42
0.0
 10
40.75747505692699
 20
8.874487409862432
 42
0.0
 10
39.25747505692699
 20
8.874487409862432
 42
0.0
 10
39.25747505692699
 20
8.952487409862463
 42
0.0
 10
38.59247505692697
 20
8.952487409862461
 42
0.0
 10
38.59247505692697
 20
8.780487409862463
 42
0.0
 97
        7
330
564B
330
5649
330
5650
330
2498
330
564E
330
564F
330
564A
 75
     0
 76
     1
 52
90.0
 41
1.0
 77
     0
 78
     1
 53
135.0
 43
0.0
 44
0.0
 45
-0.0883883476483185
 46
-0.0883883476483184
 79
     0
 47
0.0224441755153633
 98
        4
 10
39.82251105029955
 20
20.46396070187926
 10
40.00220965659351
 20
14.44892161546135
 10
39.48557628368827
 20
9.264317032771991
 10
39.17110382569372
 20
8.837877722569466
  0
ENDSEC
  0
SECTION
  2
OBJECTS
  0
DICTIONARY
  5
13EB
330
0
100
AcDbDictionary
281
     1
  3
ACAD_GROUP
350
13EC
  3
ACAD_LAYOUT
350
13F8
  3
ACAD_MLINESTYLE
350
13F5
  3
ACAD_PLOTSETTINGS
350
13F7
  3
ACAD_PLOTSTYLENAME
350
13ED
  3
AcadDim
350
5B10
  3
AcDbVariableDictionary
350
349C
  0
DICTIONARY
  5
13EC
102
{ACAD_REACTORS
330
13EB
102
}
330
13EB
100
AcDbDictionary
281
     1
  0
DICTIONARY
  5
13F8
102
{ACAD_REACTORS
330
13EB
102
}
330
13EB
100
AcDbDictionary
281
     1
  3
Layout1
350
13FC
  3
Model
350
1400
  0
DICTIONARY
  5
13F5
102
{ACAD_REACTORS
330
13EB
102
}
330
13EB
100
AcDbDictionary
281
     1
  3
Standard
350
13F6
  0
DICTIONARY
  5
13F7
102
{ACAD_REACTORS
330
13EB
102
}
330
13EB
100
AcDbDictionary
281
     1
  0
ACDBDICTIONARYWDFLT
  5
13ED
102
{ACAD_REACTORS
330
13EB
102
}
330
13EB
100
AcDbDictionary
281
     1
  3
Normal
350
13EE
100
AcDbDictionaryWithDefault
340
13EE
  0
XRECORD
  5
5B10
102
{ACAD_REACTORS
330
13EB
102
}
330
13EB
100
AcDbXrecord
280
     1
 90
   990106
  3

 60
     0
 61
     0
 62
     1
 63
     1
 64
     0
 65
     0
 66
     0
 67
     3
 68
     1
 69
     0
 70
     0
 71
     0
 72
     0
 40
0.0
170
     2
340
5B12
  0
DICTIONARY
  5
349C
102
{ACAD_REACTORS
330
13EB
102
}
330
13EB
100
AcDbDictionary
281
     1
  3
SORTENTS
350
349D
  0
LAYOUT
  5
13FC
102
{ACAD_REACTORS
330
13F8
102
}
330
13F8
100
AcDbPlotSettings
  1

  2
C:\Program Files\ACAD2000\plotters\RICOH Aficio 1060 RPCS.pc3
  4

  6

 40
0.0
 41
0.0
 42
0.0
 43
0.0
 44
0.0
 45
0.0
 46
0.0
 47
0.0
 48
0.0
 49
0.0
140
0.0
141
0.0
142
1.0
143
1.0
 70
   688
 72
     0
 73
     0
 74
     5
  7
monochrome.ctb
 75
    16
147
1.0
148
0.0
149
0.0
100
AcDbLayout
  1
Layout1
 70
     1
 71
     1
 10
0.0
 20
0.0
 11
12.0
 21
9.0
 12
0.0
 22
0.0
 32
0.0
 14
1.000000000000000E+20
 24
1.000000000000000E+20
 34
1.000000000000000E+20
 15
-1.000000000000000E+20
 25
-1.000000000000000E+20
 35
-1.000000000000000E+20
146
0.0
 13
0.0
 23
0.0
 33
0.0
 16
1.0
 26
0.0
 36
0.0
 17
0.0
 27
1.0
 37
0.0
 76
     0
330
13F9
  0
LAYOUT
  5
1400
102
{ACAD_REACTORS
330
13F8
102
}
330
13F8
100
AcDbPlotSettings
  1

  2
Acrobat PDFWriter
  4
Tabloid
  6

 40
3.174999952316284
 41
3.174999952316284
 42
3.17498779296875
 43
3.17498779296875
 44
431.8000183105469
 45
279.3999938964843
 46
0.0
 47
4.064
 48
0.0
 49
0.0
140
0.0
141
0.0
142
1.0
143
2.97345019916593
 70
 11956
 72
     0
 73
     0
 74
     1
  7
monochrome.ctb
 75
     0
147
0.33630965142127
148
0.0720717560330598
149
0.0470558820026326
100
AcDbLayout
  1
Model
 70
     1
 71
     0
 10
0.0
 20
0.0
 11
12.0
 21
9.0
 12
0.0
 22
0.0
 32
0.0
 14
0.0
 24
0.0
 34
0.0
 15
0.0
 25
0.0
 35
0.0
146
0.0
 13
0.0
 23
0.0
 33
0.0
 16
1.0
 26
0.0
 36
0.0
 17
0.0
 27
1.0
 37
0.0
 76
     0
330
13FD
  0
MLINESTYLE
  5
13F6
102
{ACAD_REACTORS
330
13F5
102
}
330
13F5
100
AcDbMlineStyle
  2
STANDARD
 70
     0
  3

 62
   256
 51
90.0
 52
90.0
 71
     2
 49
0.5
 62
   256
  6
BYLAYER
 49
-0.5
 62
   256
  6
BYLAYER
  0
ACDBPLACEHOLDER
  5
13EE
102
{ACAD_REACTORS
330
13ED
102
}
330
13ED
  0
DICTIONARYVAR
  5
349D
102
{ACAD_REACTORS
330
349C
102
}
330
349C
100
DictionaryVariables
280
     0
  1
96
  0
ENDSEC
  0
EOF
