  0
SECTION
  2
HEADER
  9
$ACADVER
  1
AC1015
  9
$ACADMAINTVER
 70
     6
  9
$DWGCODEPAGE
  3
ANSI_1252
  9
$INSBASE
 10
0.0
 20
0.0
 30
0.0
  9
$EXTMIN
 10
0.0
 20
0.0
 30
-0.00000001
  9
$EXTMAX
 10
66.39999999999997
 20
41.31199999999999
 30
0.00000001
  9
$LIMMIN
 10
0.0
 20
0.0
  9
$LIMMAX
 10
93.0
 20
60.71999999999999
  9
$ORTHOMODE
 70
     1
  9
$REGENMODE
 70
     1
  9
$FILLMODE
 70
     1
  9
$QTEXTMODE
 70
     0
  9
$MIRRTEXT
 70
     0
  9
$LTSCALE
 40
1.25
  9
$ATTMODE
 70
     1
  9
$TEXTSIZE
 40
0.2
  9
$TRACEWID
 40
0.05
  9
$TEXTSTYLE
  7
TXT
  9
$CLAYER
  8
DIM
  9
$CELTYPE
  6
ByLayer
  9
$CECOLOR
 62
   256
  9
$CELTSCALE
 40
1.0
  9
$DISPSILH
 70
     0
  9
$DIMSCALE
 40
4.0
  9
$DIMASZ
 40
0.18
  9
$DIMEXO
 40
0.063
  9
$DIMDLI
 40
0.281
  9
$DIMRND
 40
0.0
  9
$DIMDLE
 40
0.0
  9
$DIMEXE
 40
0.093
  9
$DIMTP
 40
0.0
  9
$DIMTM
 40
0.0
  9
$DIMTXT
 40
0.125
  9
$DIMCEN
 40
0.09
  9
$DIMTSZ
 40
0.0
  9
$DIMTOL
 70
     0
  9
$DIMLIM
 70
     0
  9
$DIMTIH
 70
     1
  9
$DIMTOH
 70
     1
  9
$DIMSE1
 70
     0
  9
$DIMSE2
 70
     0
  9
$DIMTAD
 70
     0
  9
$DIMZIN
 70
     0
  9
$DIMBLK
  1

  9
$DIMASO
 70
     1
  9
$DIMSHO
 70
     1
  9
$DIMPOST
  1

  9
$DIMAPOST
  1

  9
$DIMALT
 70
     0
  9
$DIMALTD
 70
     2
  9
$DIMALTF
 40
25.4
  9
$DIMLFAC
 40
1.0
  9
$DIMTOFL
 70
     0
  9
$DIMTVP
 40
0.0
  9
$DIMTIX
 70
     0
  9
$DIMSOXD
 70
     0
  9
$DIMSAH
 70
     0
  9
$DIMBLK1
  1

  9
$DIMBLK2
  1

  9
$DIMSTYLE
  2
23NSTD
  9
$DIMCLRD
 70
     0
  9
$DIMCLRE
 70
     0
  9
$DIMCLRT
 70
     0
  9
$DIMTFAC
 40
1.0
  9
$DIMGAP
 40
0.09
  9
$DIMJUST
 70
     0
  9
$DIMSD1
 70
     0
  9
$DIMSD2
 70
     0
  9
$DIMTOLJ
 70
     1
  9
$DIMTZIN
 70
     0
  9
$DIMALTZ
 70
     0
  9
$DIMALTTZ
 70
     0
  9
$DIMUPT
 70
     0
  9
$DIMDEC
 70
     3
  9
$DIMTDEC
 70
     3
  9
$DIMALTU
 70
     2
  9
$DIMALTTD
 70
     2
  9
$DIMTXSTY
  7
TXT
  9
$DIMAUNIT
 70
     0
  9
$DIMADEC
 70
     0
  9
$DIMALTRND
 40
0.0
  9
$DIMAZIN
 70
     0
  9
$DIMDSEP
 70
    46
  9
$DIMATFIT
 70
     1
  9
$DIMFRAC
 70
     0
  9
$DIMLDRBLK
  1

  9
$DIMLUNIT
 70
     2
  9
$DIMLWD
 70
    -2
  9
$DIMLWE
 70
    -2
  9
$DIMTMOVE
 70
     0
  9
$LUNITS
 70
     2
  9
$LUPREC
 70
     3
  9
$SKETCHINC
 40
0.1
  9
$FILLETRAD
 40
0.0
  9
$AUNITS
 70
     0
  9
$AUPREC
 70
     0
  9
$MENU
  1
acad
  9
$ELEVATION
 40
0.0
  9
$PELEVATION
 40
0.0
  9
$THICKNESS
 40
0.0
  9
$LIMCHECK
 70
     0
  9
$CHAMFERA
 40
0.0
  9
$CHAMFERB
 40
0.0
  9
$CHAMFERC
 40
0.0
  9
$CHAMFERD
 40
0.0
  9
$SKPOLY
 70
     0
  9
$TDCREATE
 40
2451253.655904630
  9
$TDUCREATE
 40
2451253.864237962
  9
$TDUPDATE
 40
2454788.499335393
  9
$TDUUPDATE
 40
2454788.707668726
  9
$TDINDWG
 40
0.4192227431
  9
$TDUSRTIMER
 40
0.4192221991
  9
$USRTIMER
 70
     1
  9
$ANGBASE
 50
0.0
  9
$ANGDIR
 70
     0
  9
$PDMODE
 70
     0
  9
$PDSIZE
 40
0.0
  9
$PLINEWID
 40
0.0
  9
$SPLFRAME
 70
     0
  9
$SPLINETYPE
 70
     6
  9
$SPLINESEGS
 70
     8
  9
$HANDSEED
  5
7422
  9
$SURFTAB1
 70
     6
  9
$SURFTAB2
 70
     6
  9
$SURFTYPE
 70
     6
  9
$SURFU
 70
     6
  9
$SURFV
 70
     6
  9
$UCSBASE
  2

  9
$UCSNAME
  2

  9
$UCSORG
 10
0.0
 20
0.0
 30
0.0
  9
$UCSXDIR
 10
1.0
 20
0.0
 30
0.0
  9
$UCSYDIR
 10
0.0
 20
1.0
 30
0.0
  9
$UCSORTHOREF
  2

  9
$UCSORTHOVIEW
 70
     0
  9
$UCSORGTOP
 10
0.0
 20
0.0
 30
0.0
  9
$UCSORGBOTTOM
 10
0.0
 20
0.0
 30
0.0
  9
$UCSORGLEFT
 10
0.0
 20
0.0
 30
0.0
  9
$UCSORGRIGHT
 10
0.0
 20
0.0
 30
0.0
  9
$UCSORGFRONT
 10
0.0
 20
0.0
 30
0.0
  9
$UCSORGBACK
 10
0.0
 20
0.0
 30
0.0
  9
$PUCSBASE
  2

  9
$PUCSNAME
  2

  9
$PUCSORG
 10
0.0
 20
0.0
 30
0.0
  9
$PUCSXDIR
 10
1.0
 20
0.0
 30
0.0
  9
$PUCSYDIR
 10
0.0
 20
1.0
 30
0.0
  9
$PUCSORTHOREF
  2

  9
$PUCSORTHOVIEW
 70
     0
  9
$PUCSORGTOP
 10
0.0
 20
0.0
 30
0.0
  9
$PUCSORGBOTTOM
 10
0.0
 20
0.0
 30
0.0
  9
$PUCSORGLEFT
 10
0.0
 20
0.0
 30
0.0
  9
$PUCSORGRIGHT
 10
0.0
 20
0.0
 30
0.0
  9
$PUCSORGFRONT
 10
0.0
 20
0.0
 30
0.0
  9
$PUCSORGBACK
 10
0.0
 20
0.0
 30
0.0
  9
$USERI1
 70
     0
  9
$USERI2
 70
     0
  9
$USERI3
 70
     0
  9
$USERI4
 70
     0
  9
$USERI5
 70
     0
  9
$USERR1
 40
0.0
  9
$USERR2
 40
0.0
  9
$USERR3
 40
0.0
  9
$USERR4
 40
0.0
  9
$USERR5
 40
0.0
  9
$WORLDVIEW
 70
     1
  9
$SHADEDGE
 70
     3
  9
$SHADEDIF
 70
    70
  9
$TILEMODE
 70
     1
  9
$MAXACTVP
 70
    16
  9
$PINSBASE
 10
0.0
 20
0.0
 30
0.0
  9
$PLIMCHECK
 70
     0
  9
$PEXTMIN
 10
1.000000000000000E+20
 20
1.000000000000000E+20
 30
1.000000000000000E+20
  9
$PEXTMAX
 10
-1.000000000000000E+20
 20
-1.000000000000000E+20
 30
-1.000000000000000E+20
  9
$PLIMMIN
 10
0.0
 20
0.0
  9
$PLIMMAX
 10
12.0
 20
9.0
  9
$UNITMODE
 70
     0
  9
$VISRETAIN
 70
     0
  9
$PLINEGEN
 70
     0
  9
$PSLTSCALE
 70
     1
  9
$TREEDEPTH
 70
  3020
  9
$CMLSTYLE
  2
Standard
  9
$CMLJUST
 70
     0
  9
$CMLSCALE
 40
1.0
  9
$PROXYGRAPHICS
 70
     1
  9
$MEASUREMENT
 70
     0
  9
$CELWEIGHT
370
    -1
  9
$ENDCAPS
280
     0
  9
$JOINSTYLE
280
     0
  9
$LWDISPLAY
290
     0
  9
$INSUNITS
 70
     0
  9
$HYPERLINKBASE
  1

  9
$STYLESHEET
  1
monochrome.ctb
  9
$XEDIT
290
     1
  9
$CEPSNTYPE
380
     0
  9
$PSTYLEMODE
290
     1
  9
$FINGERPRINTGUID
  2
{0D2B1BCA-08A3-4EDD-AB34-CFDC22EEB27B}
  9
$VERSIONGUID
  2
{7D38FDEF-5775-4D9B-A6FC-544DD3D424CE}
  9
$EXTNAMES
290
     1
  9
$PSVPSCALE
 40
0.0
  9
$OLESTARTUP
290
     0
  0
ENDSEC
  0
SECTION
  2
CLASSES
  0
CLASS
  1
ACDBDICTIONARYWDFLT
  2
AcDbDictionaryWithDefault
  3
AutoCAD 2000
 90
        0
280
     0
281
     0
  0
CLASS
  1
ACDBPLACEHOLDER
  2
AcDbPlaceHolder
  3
AutoCAD 2000
 90
        0
280
     0
281
     0
  0
CLASS
  1
LAYOUT
  2
AcDbLayout
  3
AutoCAD 2000
 90
        0
280
     0
281
     0
  0
CLASS
  1
DICTIONARYVAR
  2
AcDbDictionaryVar
  3
AutoCAD 2000
 90
        0
280
     0
281
     0
  0
ENDSEC
  0
SECTION
  2
TABLES
  0
TABLE
  2
VPORT
  5
28B1
330
0
100
AcDbSymbolTable
 70
     2
  0
VPORT
  5
7421
330
28B1
100
AcDbSymbolTableRecord
100
AcDbViewportTableRecord
  2
*Active
 70
     0
 10
0.0
 20
0.0
 11
1.0
 21
1.0
 12
33.19741675959814
 22
20.65695763624666
 13
0.0
 23
0.0
 14
0.5314660535187841
 24
0.5314660535187841
 15
0.75
 25
0.75
 16
0.0
 26
0.0
 36
1.0
 17
0.0
 27
0.0
 37
0.0
 40
41.80955558267005
 41
1.796327212020033
 42
50.0
 43
0.0
 44
0.0
 50
0.0
 51
0.0
 71
     0
 72
   500
 73
     1
 74
     0
 75
     0
 76
     0
 77
     0
 78
     0
281
     0
 65
     0
110
0.0
120
0.0
130
0.0
111
1.0
121
0.0
131
0.0
112
0.0
122
1.0
132
0.0
 79
     0
146
0.0
  0
ENDTAB
  0
TABLE
  2
LTYPE
  5
28AE
330
0
100
AcDbSymbolTable
 70
     5
  0
LTYPE
  5
28BC
330
28AE
100
AcDbSymbolTableRecord
100
AcDbLinetypeTableRecord
  2
ByBlock
 70
     0
  3

 72
    65
 73
     0
 40
0.0
  0
LTYPE
  5
28BD
330
28AE
100
AcDbSymbolTableRecord
100
AcDbLinetypeTableRecord
  2
ByLayer
 70
     0
  3

 72
    65
 73
     0
 40
0.0
  0
LTYPE
  5
28BE
330
28AE
100
AcDbSymbolTableRecord
100
AcDbLinetypeTableRecord
  2
CONTINUOUS
 70
     0
  3
Solid line
 72
    65
 73
     0
 40
0.0
  0
LTYPE
  5
28CE
330
28AE
100
AcDbSymbolTableRecord
100
AcDbLinetypeTableRecord
  2
HIDDEN
 70
     0
  3
_ _ _ _ _ _ _ _ _ _ _ _ _ _ _ _ _ _ _ _ _ _ _
 72
    65
 73
     2
 40
0.375
 49
0.25
 74
     0
 49
-0.125
 74
     0
  0
LTYPE
  5
28D1
330
28AE
100
AcDbSymbolTableRecord
100
AcDbLinetypeTableRecord
  2
CENTER
 70
     0
  3
____ _ ____ _ ____ _ ____ _ ____ _ ____ _ ____
 72
    65
 73
     4
 40
2.0
 49
1.25
 74
     0
 49
-0.25
 74
     0
 49
0.25
 74
     0
 49
-0.25
 74
     0
  0
LTYPE
  5
28D2
330
28AE
100
AcDbSymbolTableRecord
100
AcDbLinetypeTableRecord
  2
PHANTOM
 70
     0
  3
_____ _ _ _____ _ _ _____ _ _ _____ _ _ ____
 72
    65
 73
     6
 40
2.5
 49
1.25
 74
     0
 49
-0.25
 74
     0
 49
0.25
 74
     0
 49
-0.25
 74
     0
 49
0.25
 74
     0
 49
-0.25
 74
     0
  0
LTYPE
  5
28D3
330
28AE
100
AcDbSymbolTableRecord
100
AcDbLinetypeTableRecord
  2
HIDDEN2
 70
     0
  3
_ _ _ _ _ _ _ _ _ _ _ _ _ _ _ _ _ _ _ _ _ _ _ _
 72
    65
 73
     2
 40
0.1875
 49
0.125
 74
     0
 49
-0.0625
 74
     0
  0
ENDTAB
  0
TABLE
  2
LAYER
  5
28AB
330
0
100
AcDbSymbolTable
 70
     9
  0
LAYER
  5
28B9
330
28AB
100
AcDbSymbolTableRecord
100
AcDbLayerTableRecord
  2
0
 70
     0
 62
     7
  6
CONTINUOUS
370
    -3
390
28B8
  0
LAYER
  5
28CB
330
28AB
100
AcDbSymbolTableRecord
100
AcDbLayerTableRecord
  2
OBJECT
 70
     0
 62
     7
  6
CONTINUOUS
370
    -3
390
28B8
  0
LAYER
  5
28D4
330
28AB
100
AcDbSymbolTableRecord
100
AcDbLayerTableRecord
  2
DIM
 70
     0
 62
     2
  6
CONTINUOUS
370
    -3
390
28B8
  0
LAYER
  5
28D5
330
28AB
100
AcDbSymbolTableRecord
100
AcDbLayerTableRecord
  2
HIDDEN
 70
     0
 62
     6
  6
HIDDEN
370
    -3
390
28B8
  0
LAYER
  5
28D6
330
28AB
100
AcDbSymbolTableRecord
100
AcDbLayerTableRecord
  2
BEND
 70
     0
 62
     4
  6
PHANTOM
370
    -3
390
28B8
  0
LAYER
  5
28D7
330
28AB
100
AcDbSymbolTableRecord
100
AcDbLayerTableRecord
  2
TEXT
 70
     0
 62
     1
  6
CONTINUOUS
370
    -3
390
28B8
  0
LAYER
  5
28D8
330
28AB
100
AcDbSymbolTableRecord
100
AcDbLayerTableRecord
  2
TITLE
 70
     0
 62
     8
  6
CONTINUOUS
370
    -3
390
28B8
  0
LAYER
  5
28D9
330
28AB
100
AcDbSymbolTableRecord
100
AcDbLayerTableRecord
  2
DEFPOINTS
 70
     0
 62
     7
  6
CONTINUOUS
290
     0
370
    -3
390
28B8
  0
LAYER
  5
28DA
330
28AB
100
AcDbSymbolTableRecord
100
AcDbLayerTableRecord
  2
CENTER
 70
     0
 62
     3
  6
CENTER
370
    -3
390
28B8
  0
ENDTAB
  0
TABLE
  2
STYLE
  5
28AC
330
0
100
AcDbSymbolTable
 70
     2
  0
STYLE
  5
28BA
330
28AC
100
AcDbSymbolTableRecord
100
AcDbTextStyleTableRecord
  2
TXT
 70
     0
 40
0.0
 41
0.75
 50
0.0
 71
     0
 42
0.2
  3
txt
  4

  0
STYLE
  5
28DB
330
28AC
100
AcDbSymbolTableRecord
100
AcDbTextStyleTableRecord
  2
SECTION
 70
     0
 40
0.0
 41
0.8
 50
0.0
 71
     0
 42
0.2
  3
ROMANT.SHX
  4

  0
ENDTAB
  0
TABLE
  2
VIEW
  5
28AF
330
0
100
AcDbSymbolTable
 70
     0
  0
ENDTAB
  0
TABLE
  2
UCS
  5
28B0
330
0
100
AcDbSymbolTable
 70
     0
  0
ENDTAB
  0
TABLE
  2
APPID
  5
28B2
330
0
100
AcDbSymbolTable
 70
     1
  0
APPID
  5
28BB
330
28B2
100
AcDbSymbolTableRecord
100
AcDbRegAppTableRecord
  2
ACAD
 70
     0
  0
ENDTAB
  0
TABLE
  2
DIMSTYLE
  5
28B3
330
0
100
AcDbSymbolTable
 70
     4
100
AcDbDimStyleTable
 71
     4
340
28DD
340
28DE
340
28E0
340
28DF
  0
DIMSTYLE
105
28DD
102
{ACAD_REACTORS
330
3B57
330
3B64
330
3BD8
330
3BEF
330
3BFC
330
3C0A
330
3C26
330
3C42
330
3D58
330
3F6D
330
3F7B
330
3F89
330
4134
330
416C
330
417A
330
41A3
330
41B1
330
41BF
330
41CD
330
41DB
330
4290
330
42AC
330
44A7
330
44B5
330
44D1
330
44DE
330
44EC
330
4508
330
4516
330
4532
330
4647
330
4655
330
4663
330
4671
330
467F
330
468D
330
469B
330
5CD9
330
5E9C
330
5F23
330
3C50
330
635D
102
}
330
28B3
100
AcDbSymbolTableRecord
100
AcDbDimStyleTableRecord
  2
23NSTD
 70
     0
 40
4.0
 42
0.063
 43
0.281
 44
0.093
140
0.125
271
     3
272
     3
289
     1
340
28BA
  0
DIMSTYLE
105
28DE
102
{ACAD_REACTORS
330
4150
330
4126
330
415E
330
4187
330
4142
330
3C18
330
3C5E
330
6472
102
}
330
28B3
100
AcDbSymbolTableRecord
100
AcDbDimStyleTableRecord
  2
23NSTDI
 70
     0
 40
4.0
 42
0.063
 43
0.281
 44
0.093
140
0.125
174
     1
271
     3
272
     3
340
28BA
  0
DIMSTYLE
105
28DF
102
{ACAD_REACTORS
330
3D3C
330
3D2E
330
3CDD
330
3CB1
102
}
330
28B3
100
AcDbSymbolTableRecord
100
AcDbDimStyleTableRecord
  2
23NSTD4
 70
     0
 40
4.0
 42
0.063
 43
0.281
 44
0.093
140
0.125
144
0.25
271
     3
272
     3
289
     1
340
28BA
  0
DIMSTYLE
105
28E0
102
{ACAD_REACTORS
330
3CBF
102
}
330
28B3
100
AcDbSymbolTableRecord
100
AcDbDimStyleTableRecord
  2
23NSTD4I
 70
     0
 40
4.0
 42
0.063
 43
0.281
 44
0.093
140
0.125
144
0.25
174
     1
271
     3
272
     3
340
28BA
  0
ENDTAB
  0
TABLE
  2
BLOCK_RECORD
  5
28AA
330
0
100
AcDbSymbolTable
 70
    56
  0
BLOCK_RECORD
  5
28C7
330
28AA
100
AcDbSymbolTableRecord
100
AcDbBlockTableRecord
  2
*Model_Space
340
28CA
  0
BLOCK_RECORD
  5
28C3
330
28AA
100
AcDbSymbolTableRecord
100
AcDbBlockTableRecord
  2
*Paper_Space
340
28C6
  0
BLOCK_RECORD
  5
3B58
330
28AA
100
AcDbSymbolTableRecord
100
AcDbBlockTableRecord
  2
*D0
340
0
  0
BLOCK_RECORD
  5
3B65
330
28AA
100
AcDbSymbolTableRecord
100
AcDbBlockTableRecord
  2
*D1
340
0
  0
BLOCK_RECORD
  5
3BD9
330
28AA
100
AcDbSymbolTableRecord
100
AcDbBlockTableRecord
  2
*D2
340
0
  0
BLOCK_RECORD
  5
3BF0
330
28AA
100
AcDbSymbolTableRecord
100
AcDbBlockTableRecord
  2
*D3
340
0
  0
BLOCK_RECORD
  5
3BFD
330
28AA
100
AcDbSymbolTableRecord
100
AcDbBlockTableRecord
  2
*D4
340
0
  0
BLOCK_RECORD
  5
3C0B
330
28AA
100
AcDbSymbolTableRecord
100
AcDbBlockTableRecord
  2
*D5
340
0
  0
BLOCK_RECORD
  5
3C19
330
28AA
100
AcDbSymbolTableRecord
100
AcDbBlockTableRecord
  2
*D6
340
0
  0
BLOCK_RECORD
  5
3C27
330
28AA
100
AcDbSymbolTableRecord
100
AcDbBlockTableRecord
  2
*D7
340
0
  0
BLOCK_RECORD
  5
3C43
330
28AA
100
AcDbSymbolTableRecord
100
AcDbBlockTableRecord
  2
*D8
340
0
  0
BLOCK_RECORD
  5
3C51
330
28AA
100
AcDbSymbolTableRecord
100
AcDbBlockTableRecord
  2
*D9
340
0
  0
BLOCK_RECORD
  5
3C5F
330
28AA
100
AcDbSymbolTableRecord
100
AcDbBlockTableRecord
  2
*D10
340
0
  0
BLOCK_RECORD
  5
3CB2
330
28AA
100
AcDbSymbolTableRecord
100
AcDbBlockTableRecord
  2
*D11
340
0
  0
BLOCK_RECORD
  5
3CC0
330
28AA
100
AcDbSymbolTableRecord
100
AcDbBlockTableRecord
  2
*D12
340
0
  0
BLOCK_RECORD
  5
3CDE
330
28AA
100
AcDbSymbolTableRecord
100
AcDbBlockTableRecord
  2
*D13
340
0
  0
BLOCK_RECORD
  5
3D2F
330
28AA
100
AcDbSymbolTableRecord
100
AcDbBlockTableRecord
  2
*D14
340
0
  0
BLOCK_RECORD
  5
3D3D
330
28AA
100
AcDbSymbolTableRecord
100
AcDbBlockTableRecord
  2
*D15
340
0
  0
BLOCK_RECORD
  5
3D59
330
28AA
100
AcDbSymbolTableRecord
100
AcDbBlockTableRecord
  2
*D16
340
0
  0
BLOCK_RECORD
  5
3F6E
330
28AA
100
AcDbSymbolTableRecord
100
AcDbBlockTableRecord
  2
*D17
340
0
  0
BLOCK_RECORD
  5
3F7C
330
28AA
100
AcDbSymbolTableRecord
100
AcDbBlockTableRecord
  2
*D18
340
0
  0
BLOCK_RECORD
  5
3F8A
330
28AA
100
AcDbSymbolTableRecord
100
AcDbBlockTableRecord
  2
*D19
340
0
  0
BLOCK_RECORD
  5
4127
330
28AA
100
AcDbSymbolTableRecord
100
AcDbBlockTableRecord
  2
*D20
340
0
  0
BLOCK_RECORD
  5
4135
330
28AA
100
AcDbSymbolTableRecord
100
AcDbBlockTableRecord
  2
*D21
340
0
  0
BLOCK_RECORD
  5
4143
330
28AA
100
AcDbSymbolTableRecord
100
AcDbBlockTableRecord
  2
*D22
340
0
  0
BLOCK_RECORD
  5
4151
330
28AA
100
AcDbSymbolTableRecord
100
AcDbBlockTableRecord
  2
*D23
340
0
  0
BLOCK_RECORD
  5
415F
330
28AA
100
AcDbSymbolTableRecord
100
AcDbBlockTableRecord
  2
*D24
340
0
  0
BLOCK_RECORD
  5
416D
330
28AA
100
AcDbSymbolTableRecord
100
AcDbBlockTableRecord
  2
*D25
340
0
  0
BLOCK_RECORD
  5
417B
330
28AA
100
AcDbSymbolTableRecord
100
AcDbBlockTableRecord
  2
*D26
340
0
  0
BLOCK_RECORD
  5
4188
330
28AA
100
AcDbSymbolTableRecord
100
AcDbBlockTableRecord
  2
*D27
340
0
  0
BLOCK_RECORD
  5
41A4
330
28AA
100
AcDbSymbolTableRecord
100
AcDbBlockTableRecord
  2
*D28
340
0
  0
BLOCK_RECORD
  5
41B2
330
28AA
100
AcDbSymbolTableRecord
100
AcDbBlockTableRecord
  2
*D29
340
0
  0
BLOCK_RECORD
  5
41C0
330
28AA
100
AcDbSymbolTableRecord
100
AcDbBlockTableRecord
  2
*D30
340
0
  0
BLOCK_RECORD
  5
41CE
330
28AA
100
AcDbSymbolTableRecord
100
AcDbBlockTableRecord
  2
*D31
340
0
  0
BLOCK_RECORD
  5
41DC
330
28AA
100
AcDbSymbolTableRecord
100
AcDbBlockTableRecord
  2
*D32
340
0
  0
BLOCK_RECORD
  5
4291
330
28AA
100
AcDbSymbolTableRecord
100
AcDbBlockTableRecord
  2
*D33
340
0
  0
BLOCK_RECORD
  5
42AD
330
28AA
100
AcDbSymbolTableRecord
100
AcDbBlockTableRecord
  2
*D34
340
0
  0
BLOCK_RECORD
  5
44A8
330
28AA
100
AcDbSymbolTableRecord
100
AcDbBlockTableRecord
  2
*D35
340
0
  0
BLOCK_RECORD
  5
44B6
330
28AA
100
AcDbSymbolTableRecord
100
AcDbBlockTableRecord
  2
*D36
340
0
  0
BLOCK_RECORD
  5
44D2
330
28AA
100
AcDbSymbolTableRecord
100
AcDbBlockTableRecord
  2
*D37
340
0
  0
BLOCK_RECORD
  5
44DF
330
28AA
100
AcDbSymbolTableRecord
100
AcDbBlockTableRecord
  2
*D38
340
0
  0
BLOCK_RECORD
  5
44ED
330
28AA
100
AcDbSymbolTableRecord
100
AcDbBlockTableRecord
  2
*D39
340
0
  0
BLOCK_RECORD
  5
4509
330
28AA
100
AcDbSymbolTableRecord
100
AcDbBlockTableRecord
  2
*D40
340
0
  0
BLOCK_RECORD
  5
4517
330
28AA
100
AcDbSymbolTableRecord
100
AcDbBlockTableRecord
  2
*D41
340
0
  0
BLOCK_RECORD
  5
4533
330
28AA
100
AcDbSymbolTableRecord
100
AcDbBlockTableRecord
  2
*D42
340
0
  0
BLOCK_RECORD
  5
4648
330
28AA
100
AcDbSymbolTableRecord
100
AcDbBlockTableRecord
  2
*D43
340
0
  0
BLOCK_RECORD
  5
4656
330
28AA
100
AcDbSymbolTableRecord
100
AcDbBlockTableRecord
  2
*D44
340
0
  0
BLOCK_RECORD
  5
4664
330
28AA
100
AcDbSymbolTableRecord
100
AcDbBlockTableRecord
  2
*D45
340
0
  0
BLOCK_RECORD
  5
4672
330
28AA
100
AcDbSymbolTableRecord
100
AcDbBlockTableRecord
  2
*D46
340
0
  0
BLOCK_RECORD
  5
4680
330
28AA
100
AcDbSymbolTableRecord
100
AcDbBlockTableRecord
  2
*D47
340
0
  0
BLOCK_RECORD
  5
468E
330
28AA
100
AcDbSymbolTableRecord
100
AcDbBlockTableRecord
  2
*D48
340
0
  0
BLOCK_RECORD
  5
469C
330
28AA
100
AcDbSymbolTableRecord
100
AcDbBlockTableRecord
  2
*D49
340
0
  0
BLOCK_RECORD
  5
5150
330
28AA
100
AcDbSymbolTableRecord
100
AcDbBlockTableRecord
  2
HBS
340
0
102
{BLKREFS
331
5339
102
}
  0
BLOCK_RECORD
  5
5CDA
330
28AA
100
AcDbSymbolTableRecord
100
AcDbBlockTableRecord
  2
*D51
340
0
  0
BLOCK_RECORD
  5
5E9D
330
28AA
100
AcDbSymbolTableRecord
100
AcDbBlockTableRecord
  2
*D52
340
0
  0
BLOCK_RECORD
  5
5F24
330
28AA
100
AcDbSymbolTableRecord
100
AcDbBlockTableRecord
  2
*D53
340
0
  0
BLOCK_RECORD
  5
635E
330
28AA
100
AcDbSymbolTableRecord
100
AcDbBlockTableRecord
  2
*D54
340
0
  0
BLOCK_RECORD
  5
6473
330
28AA
100
AcDbSymbolTableRecord
100
AcDbBlockTableRecord
  2
*D55
340
0
  0
ENDTAB
  0
ENDSEC
  0
SECTION
  2
BLOCKS
  0
BLOCK
  5
28C8
330
28C7
100
AcDbEntity
  8
0
100
AcDbBlockBegin
  2
*Model_Space
 70
     0
 10
0.0
 20
0.0
 30
0.0
  3
*Model_Space
  1

  0
ENDBLK
  5
28C9
330
28C7
100
AcDbEntity
  8
0
100
AcDbBlockEnd
  0
BLOCK
  5
28C4
330
28C3
100
AcDbEntity
 67
     1
  8
0
100
AcDbBlockBegin
  2
*Paper_Space
 70
     0
 10
0.0
 20
0.0
 30
0.0
  3
*Paper_Space
  1

  0
ENDBLK
  5
28C5
330
28C3
100
AcDbEntity
 67
     1
  8
0
100
AcDbBlockEnd
  0
BLOCK
  5
3B62
330
3B58
100
AcDbEntity
  8
0
100
AcDbBlockBegin
  2
*D0
 70
     1
 10
0.0
 20
0.0
 30
0.0
  3
*D0
  1

  0
LINE
  5
7356
330
3B58
100
AcDbEntity
  8
DIM
 62
     0
370
    -2
100
AcDbLine
 10
56.41761243073283
 20
26.04335649649166
 30
0.0
 11
56.41761243073283
 21
28.33735649649167
 31
0.0
  0
LINE
  5
7357
330
3B58
100
AcDbEntity
  8
DIM
 62
     0
370
    -2
100
AcDbLine
 10
62.32261243073287
 20
26.04335649649166
 30
0.0
 11
62.32261243073287
 21
28.33735649649167
 31
0.0
  0
LINE
  5
7358
330
3B58
100
AcDbEntity
  8
DIM
 62
     0
370
    -2
100
AcDbLine
 10
57.13761243073283
 20
27.96535649649166
 30
0.0
 11
58.29136243073286
 21
27.96535649649166
 31
0.0
  0
LINE
  5
7359
330
3B58
100
AcDbEntity
  8
DIM
 62
     0
370
    -2
100
AcDbLine
 10
61.60261243073287
 20
27.96535649649166
 30
0.0
 11
60.44886243073285
 21
27.96535649649166
 31
0.0
  0
SOLID
  5
735A
330
3B58
100
AcDbEntity
  8
DIM
 62
     0
100
AcDbTrace
 10
57.13761243073283
 20
28.08535649649167
 30
0.0
 11
57.13761243073283
 21
27.84535649649166
 31
0.0
 12
56.41761243073283
 22
27.96535649649166
 32
0.0
 13
56.41761243073283
 23
27.96535649649166
 33
0.0
  0
SOLID
  5
735B
330
3B58
100
AcDbEntity
  8
DIM
 62
     0
100
AcDbTrace
 10
61.60261243073287
 20
28.08535649649167
 30
0.0
 11
61.60261243073287
 21
27.84535649649166
 31
0.0
 12
62.32261243073287
 22
27.96535649649166
 32
0.0
 13
62.32261243073287
 23
27.96535649649166
 33
0.0
  0
MTEXT
  5
735C
330
3B58
100
AcDbEntity
  8
DIM
 62
     0
100
AcDbMText
 10
59.37011243073285
 20
27.96535649649166
 30
0.0
 40
0.5
 41
0.0
 71
     5
 72
     1
  1
\A1;5.905
 73
     1
 44
1.0
  0
POINT
  5
735D
330
3B58
100
AcDbEntity
  8
DEFPOINTS
 62
     0
100
AcDbPoint
 10
56.41761243073283
 20
25.79135649649166
 30
0.0
  0
POINT
  5
735E
330
3B58
100
AcDbEntity
  8
DEFPOINTS
 62
     0
100
AcDbPoint
 10
62.32261243073287
 20
25.79135649649166
 30
0.0
  0
POINT
  5
735F
330
3B58
100
AcDbEntity
  8
DEFPOINTS
 62
     0
100
AcDbPoint
 10
62.32261243073287
 20
27.96535649649166
 30
0.0
  0
ENDBLK
  5
3B63
330
3B58
100
AcDbEntity
  8
0
100
AcDbBlockEnd
  0
BLOCK
  5
3B70
330
3B65
100
AcDbEntity
  8
0
100
AcDbBlockBegin
  2
*D1
 70
     1
 10
0.0
 20
0.0
 30
0.0
  3
*D1
  1

  0
LINE
  5
736A
330
3B65
100
AcDbEntity
  8
DIM
 62
     0
370
    -2
100
AcDbLine
 10
58.38561243073288
 20
26.10535649649166
 30
0.0
 11
58.38561243073288
 21
27.22135649649167
 31
0.0
  0
LINE
  5
736B
330
3B65
100
AcDbEntity
  8
DIM
 62
     0
370
    -2
100
AcDbLine
 10
56.41761243073283
 20
26.04335649649166
 30
0.0
 11
56.41761243073283
 21
27.22135649649167
 31
0.0
  0
LINE
  5
736C
330
3B65
100
AcDbEntity
  8
DIM
 62
     0
370
    -2
100
AcDbLine
 10
59.10561243073288
 20
26.84935649649167
 30
0.0
 11
59.82561243073288
 21
26.84935649649167
 31
0.0
  0
LINE
  5
736D
330
3B65
100
AcDbEntity
  8
DIM
 62
     0
370
    -2
100
AcDbLine
 10
55.69761243073283
 20
26.84935649649167
 30
0.0
 11
54.97761243073283
 21
26.84935649649167
 31
0.0
  0
SOLID
  5
736E
330
3B65
100
AcDbEntity
  8
DIM
 62
     0
100
AcDbTrace
 10
59.10561243073288
 20
26.96935649649167
 30
0.0
 11
59.10561243073288
 21
26.72935649649167
 31
0.0
 12
58.38561243073288
 22
26.84935649649167
 32
0.0
 13
58.38561243073288
 23
26.84935649649167
 33
0.0
  0
SOLID
  5
736F
330
3B65
100
AcDbEntity
  8
DIM
 62
     0
100
AcDbTrace
 10
55.69761243073283
 20
26.96935649649167
 30
0.0
 11
55.69761243073283
 21
26.72935649649167
 31
0.0
 12
56.41761243073283
 22
26.84935649649167
 32
0.0
 13
56.41761243073283
 23
26.84935649649167
 33
0.0
  0
MTEXT
  5
7370
330
3B65
100
AcDbEntity
  8
DIM
 62
     0
100
AcDbMText
 10
53.11761243073283
 20
26.84935649649167
 30
0.0
 40
0.5
 41
0.0
 71
     5
 72
     1
  1
\A1;1.968 REF.
 73
     1
 44
1.0
  0
POINT
  5
7371
330
3B65
100
AcDbEntity
  8
DEFPOINTS
 62
     0
100
AcDbPoint
 10
58.38561243073288
 20
25.85335649649167
 30
0.0
  0
POINT
  5
7372
330
3B65
100
AcDbEntity
  8
DEFPOINTS
 62
     0
100
AcDbPoint
 10
56.41761243073283
 20
25.79135649649166
 30
0.0
  0
POINT
  5
7373
330
3B65
100
AcDbEntity
  8
DEFPOINTS
 62
     0
100
AcDbPoint
 10
56.41761243073283
 20
26.84935649649167
 30
0.0
  0
ENDBLK
  5
3B71
330
3B65
100
AcDbEntity
  8
0
100
AcDbBlockEnd
  0
BLOCK
  5
3BE4
330
3BD9
100
AcDbEntity
  8
0
100
AcDbBlockBegin
  2
*D2
 70
     1
 10
0.0
 20
0.0
 30
0.0
  3
*D2
  1

  0
LINE
  5
7360
330
3BD9
100
AcDbEntity
  8
DIM
 62
     0
370
    -2
100
AcDbLine
 10
50.86955772850273
 20
15.92054441844182
 30
0.0
 11
50.86955772850273
 21
16.67826566449618
 31
0.0
  0
LINE
  5
7361
330
3BD9
100
AcDbEntity
  8
DIM
 62
     0
370
    -2
100
AcDbLine
 10
51.00955772850273
 20
15.92054441844182
 30
0.0
 11
51.00955772850273
 21
16.67826566449618
 31
0.0
  0
LINE
  5
7362
330
3BD9
100
AcDbEntity
  8
DIM
 62
     0
370
    -2
100
AcDbLine
 10
50.14955772850273
 20
16.30626566449618
 30
0.0
 11
49.42955772850273
 21
16.30626566449618
 31
0.0
  0
LINE
  5
7363
330
3BD9
100
AcDbEntity
  8
DIM
 62
     0
370
    -2
100
AcDbLine
 10
51.72955772850272
 20
16.30626566449618
 30
0.0
 11
52.44955772850272
 21
16.30626566449618
 31
0.0
  0
SOLID
  5
7364
330
3BD9
100
AcDbEntity
  8
DIM
 62
     0
100
AcDbTrace
 10
50.14955772850273
 20
16.42626566449618
 30
0.0
 11
50.14955772850273
 21
16.18626566449617
 31
0.0
 12
50.86955772850273
 22
16.30626566449618
 32
0.0
 13
50.86955772850273
 23
16.30626566449618
 33
0.0
  0
SOLID
  5
7365
330
3BD9
100
AcDbEntity
  8
DIM
 62
     0
100
AcDbTrace
 10
51.72955772850272
 20
16.42626566449618
 30
0.0
 11
51.72955772850272
 21
16.18626566449617
 31
0.0
 12
51.00955772850273
 22
16.30626566449618
 32
0.0
 13
51.00955772850273
 23
16.30626566449618
 33
0.0
  0
MTEXT
  5
7366
330
3BD9
100
AcDbEntity
  8
DIM
 62
     0
100
AcDbMText
 10
53.43455772850273
 20
16.30626566449618
 30
0.0
 40
0.5
 41
0.0
 71
     5
 72
     1
  1
\A1;0.140
 73
     1
 44
1.0
  0
POINT
  5
7367
330
3BD9
100
AcDbEntity
  8
DEFPOINTS
 62
     0
100
AcDbPoint
 10
50.86955772850273
 20
15.66854441844182
 30
0.0
  0
POINT
  5
7368
330
3BD9
100
AcDbEntity
  8
DEFPOINTS
 62
     0
100
AcDbPoint
 10
51.00955772850273
 20
15.66854441844182
 30
0.0
  0
POINT
  5
7369
330
3BD9
100
AcDbEntity
  8
DEFPOINTS
 62
     0
100
AcDbPoint
 10
51.00955772850273
 20
16.30626566449618
 30
0.0
  0
ENDBLK
  5
3BE5
330
3BD9
100
AcDbEntity
  8
0
100
AcDbBlockEnd
  0
BLOCK
  5
3BFA
330
3BF0
100
AcDbEntity
  8
0
100
AcDbBlockBegin
  2
*D3
 70
     1
 10
0.0
 20
0.0
 30
0.0
  3
*D3
  1

  0
LINE
  5
731A
330
3BF0
100
AcDbEntity
  8
DIM
 62
     0
370
    -2
100
AcDbLine
 10
25.8463439460425
 20
26.00335649649167
 30
0.0
 11
25.8463439460425
 21
27.32785649649171
 31
0.0
  0
LINE
  5
731B
330
3BF0
100
AcDbEntity
  8
DIM
 62
     0
370
    -2
100
AcDbLine
 10
29.85534394604251
 20
26.0433564964917
 30
0.0
 11
29.85534394604251
 21
27.32785649649171
 31
0.0
  0
LINE
  5
731C
330
3BF0
100
AcDbEntity
  8
DIM
 62
     0
370
    -2
100
AcDbLine
 10
26.5663439460425
 20
26.95585649649171
 30
0.0
 11
26.80334394604251
 21
26.95585649649171
 31
0.0
  0
LINE
  5
731D
330
3BF0
100
AcDbEntity
  8
DIM
 62
     0
370
    -2
100
AcDbLine
 10
29.13534394604251
 20
26.95585649649171
 30
0.0
 11
28.89834394604251
 21
26.95585649649171
 31
0.0
  0
SOLID
  5
731E
330
3BF0
100
AcDbEntity
  8
DIM
 62
     0
100
AcDbTrace
 10
26.5663439460425
 20
27.07585649649171
 30
0.0
 11
26.5663439460425
 21
26.8358564964917
 31
0.0
 12
25.8463439460425
 22
26.95585649649171
 32
0.0
 13
25.8463439460425
 23
26.95585649649171
 33
0.0
  0
SOLID
  5
731F
330
3BF0
100
AcDbEntity
  8
DIM
 62
     0
100
AcDbTrace
 10
29.13534394604251
 20
27.07585649649171
 30
0.0
 11
29.13534394604251
 21
26.8358564964917
 31
0.0
 12
29.85534394604251
 22
26.95585649649171
 32
0.0
 13
29.85534394604251
 23
26.95585649649171
 33
0.0
  0
MTEXT
  5
7320
330
3BF0
100
AcDbEntity
  8
DIM
 62
     0
100
AcDbMText
 10
27.8508439460425
 20
26.95585649649171
 30
0.0
 40
0.5
 41
0.0
 71
     5
 72
     1
  1
\A1;4.009
 73
     1
 44
1.0
  0
POINT
  5
7321
330
3BF0
100
AcDbEntity
  8
DEFPOINTS
 62
     0
100
AcDbPoint
 10
25.8463439460425
 20
25.75135649649167
 30
0.0
  0
POINT
  5
7322
330
3BF0
100
AcDbEntity
  8
DEFPOINTS
 62
     0
100
AcDbPoint
 10
29.85534394604251
 20
25.7913564964917
 30
0.0
  0
POINT
  5
7323
330
3BF0
100
AcDbEntity
  8
DEFPOINTS
 62
     0
100
AcDbPoint
 10
29.85534394604251
 20
26.95585649649171
 30
0.0
  0
ENDBLK
  5
3BFB
330
3BF0
100
AcDbEntity
  8
0
100
AcDbBlockEnd
  0
BLOCK
  5
3C08
330
3BFD
100
AcDbEntity
  8
0
100
AcDbBlockBegin
  2
*D4
 70
     1
 10
0.0
 20
0.0
 30
0.0
  3
*D4
  1

  0
LINE
  5
7306
330
3BFD
100
AcDbEntity
  8
DIM
 62
     0
370
    -2
100
AcDbLine
 10
29.71534394604251
 20
21.38349936455353
 30
0.0
 11
29.71534394604251
 21
21.66099936455353
 31
0.0
  0
LINE
  5
7307
330
3BFD
100
AcDbEntity
  8
DIM
 62
     0
370
    -2
100
AcDbLine
 10
29.85534394604254
 20
21.38349936455353
 30
0.0
 11
29.85534394604254
 21
21.66099936455353
 31
0.0
  0
LINE
  5
7308
330
3BFD
100
AcDbEntity
  8
DIM
 62
     0
370
    -2
100
AcDbLine
 10
28.99534394604252
 20
21.28899936455353
 30
0.0
 11
28.27534394604251
 21
21.28899936455353
 31
0.0
  0
LINE
  5
7309
330
3BFD
100
AcDbEntity
  8
DIM
 62
     0
370
    -2
100
AcDbLine
 10
30.57534394604253
 20
21.28899936455353
 30
0.0
 11
31.29534394604253
 21
21.28899936455353
 31
0.0
  0
SOLID
  5
730A
330
3BFD
100
AcDbEntity
  8
DIM
 62
     0
100
AcDbTrace
 10
28.99534394604252
 20
21.40899936455353
 30
0.0
 11
28.99534394604252
 21
21.16899936455353
 31
0.0
 12
29.71534394604251
 22
21.28899936455353
 32
0.0
 13
29.71534394604251
 23
21.28899936455353
 33
0.0
  0
SOLID
  5
730B
330
3BFD
100
AcDbEntity
  8
DIM
 62
     0
100
AcDbTrace
 10
30.57534394604253
 20
21.40899936455353
 30
0.0
 11
30.57534394604253
 21
21.16899936455353
 31
0.0
 12
29.85534394604254
 22
21.28899936455353
 32
0.0
 13
29.85534394604254
 23
21.28899936455353
 33
0.0
  0
MTEXT
  5
730C
330
3BFD
100
AcDbEntity
  8
DIM
 62
     0
100
AcDbMText
 10
32.28034394604253
 20
21.28899936455353
 30
0.0
 40
0.5
 41
0.0
 71
     5
 72
     1
  1
\A1;0.140
 73
     1
 44
1.0
  0
POINT
  5
730D
330
3BFD
100
AcDbEntity
  8
DEFPOINTS
 62
     0
100
AcDbPoint
 10
29.71534394604251
 20
21.13149936455353
 30
0.0
  0
POINT
  5
730E
330
3BFD
100
AcDbEntity
  8
DEFPOINTS
 62
     0
100
AcDbPoint
 10
29.85534394604254
 20
21.13149936455353
 30
0.0
  0
POINT
  5
730F
330
3BFD
100
AcDbEntity
  8
DEFPOINTS
 62
     0
100
AcDbPoint
 10
29.85534394604254
 20
21.28899936455353
 30
0.0
  0
ENDBLK
  5
3C09
330
3BFD
100
AcDbEntity
  8
0
100
AcDbBlockEnd
  0
BLOCK
  5
3C16
330
3C0B
100
AcDbEntity
  8
0
100
AcDbBlockBegin
  2
*D5
 70
     1
 10
0.0
 20
0.0
 30
0.0
  3
*D5
  1

  0
LINE
  5
72FC
330
3C0B
100
AcDbEntity
  8
DIM
 62
     0
370
    -2
100
AcDbLine
 10
29.32534394604253
 20
14.31535649649168
 30
0.0
 11
29.32534394604253
 21
15.05935649649168
 31
0.0
  0
LINE
  5
72FD
330
3C0B
100
AcDbEntity
  8
DIM
 62
     0
370
    -2
100
AcDbLine
 10
29.85534394604251
 20
14.31535649649168
 30
0.0
 11
29.85534394604251
 21
15.05935649649168
 31
0.0
  0
LINE
  5
72FE
330
3C0B
100
AcDbEntity
  8
DIM
 62
     0
370
    -2
100
AcDbLine
 10
28.60534394604253
 20
14.68735649649168
 30
0.0
 11
27.88534394604253
 21
14.68735649649168
 31
0.0
  0
LINE
  5
72FF
330
3C0B
100
AcDbEntity
  8
DIM
 62
     0
370
    -2
100
AcDbLine
 10
30.57534394604251
 20
14.68735649649168
 30
0.0
 11
31.29534394604251
 21
14.68735649649168
 31
0.0
  0
SOLID
  5
7300
330
3C0B
100
AcDbEntity
  8
DIM
 62
     0
100
AcDbTrace
 10
28.60534394604253
 20
14.80735649649168
 30
0.0
 11
28.60534394604253
 21
14.56735649649168
 31
0.0
 12
29.32534394604253
 22
14.68735649649168
 32
0.0
 13
29.32534394604253
 23
14.68735649649168
 33
0.0
  0
SOLID
  5
7301
330
3C0B
100
AcDbEntity
  8
DIM
 62
     0
100
AcDbTrace
 10
30.57534394604251
 20
14.80735649649168
 30
0.0
 11
30.57534394604251
 21
14.56735649649168
 31
0.0
 12
29.85534394604251
 22
14.68735649649168
 32
0.0
 13
29.85534394604251
 23
14.68735649649168
 33
0.0
  0
MTEXT
  5
7302
330
3C0B
100
AcDbEntity
  8
DIM
 62
     0
100
AcDbMText
 10
32.34284394604251
 20
14.68735649649168
 30
0.0
 40
0.5
 41
0.0
 71
     5
 72
     1
  1
\A1;0.530
 73
     1
 44
1.0
  0
POINT
  5
7303
330
3C0B
100
AcDbEntity
  8
DEFPOINTS
 62
     0
100
AcDbPoint
 10
29.32534394604253
 20
14.06335649649168
 30
0.0
  0
POINT
  5
7304
330
3C0B
100
AcDbEntity
  8
DEFPOINTS
 62
     0
100
AcDbPoint
 10
29.85534394604251
 20
14.06335649649168
 30
0.0
  0
POINT
  5
7305
330
3C0B
100
AcDbEntity
  8
DEFPOINTS
 62
     0
100
AcDbPoint
 10
29.85534394604251
 20
14.68735649649168
 30
0.0
  0
ENDBLK
  5
3C17
330
3C0B
100
AcDbEntity
  8
0
100
AcDbBlockEnd
  0
BLOCK
  5
3C24
330
3C19
100
AcDbEntity
  8
0
100
AcDbBlockBegin
  2
*D6
 70
     1
 10
0.0
 20
0.0
 30
0.0
  3
*D6
  1

  0
LINE
  5
72B4
330
3C19
100
AcDbEntity
  8
DIM
 62
     0
370
    -2
100
AcDbLine
 10
12.71785603629658
 20
25.52435649649167
 30
0.0
 11
12.71785603629658
 21
26.94326656580878
 31
0.0
  0
LINE
  5
72B5
330
3C19
100
AcDbEntity
  8
DIM
 62
     0
370
    -2
100
AcDbLine
 10
11.1428560362966
 20
25.52435649649167
 30
0.0
 11
11.1428560362966
 21
26.94326656580878
 31
0.0
  0
LINE
  5
72B6
330
3C19
100
AcDbEntity
  8
DIM
 62
     0
370
    -2
100
AcDbLine
 10
13.43785603629658
 20
26.57126656580878
 30
0.0
 11
14.15785603629658
 21
26.57126656580878
 31
0.0
  0
LINE
  5
72B7
330
3C19
100
AcDbEntity
  8
DIM
 62
     0
370
    -2
100
AcDbLine
 10
10.42285603629659
 20
26.57126656580878
 30
0.0
 11
9.7028560362966
 21
26.57126656580878
 31
0.0
  0
SOLID
  5
72B8
330
3C19
100
AcDbEntity
  8
DIM
 62
     0
100
AcDbTrace
 10
13.43785603629658
 20
26.69126656580878
 30
0.0
 11
13.43785603629658
 21
26.45126656580878
 31
0.0
 12
12.71785603629658
 22
26.57126656580878
 32
0.0
 13
12.71785603629658
 23
26.57126656580878
 33
0.0
  0
SOLID
  5
72B9
330
3C19
100
AcDbEntity
  8
DIM
 62
     0
100
AcDbTrace
 10
10.42285603629659
 20
26.69126656580878
 30
0.0
 11
10.42285603629659
 21
26.45126656580878
 31
0.0
 12
11.1428560362966
 22
26.57126656580878
 32
0.0
 13
11.1428560362966
 23
26.57126656580878
 33
0.0
  0
MTEXT
  5
72BA
330
3C19
100
AcDbEntity
  8
DIM
 62
     0
100
AcDbMText
 10
11.93035603629659
 20
26.57126656580878
 30
0.0
 40
0.5
 41
0.0
 71
     5
 72
     1
  1
\A1;1.575
 73
     1
 44
1.0
  0
POINT
  5
72BB
330
3C19
100
AcDbEntity
  8
DEFPOINTS
 62
     0
100
AcDbPoint
 10
12.71785603629658
 20
25.27235649649167
 30
0.0
  0
POINT
  5
72BC
330
3C19
100
AcDbEntity
  8
DEFPOINTS
 62
     0
100
AcDbPoint
 10
11.1428560362966
 20
25.27235649649167
 30
0.0
  0
POINT
  5
72BD
330
3C19
100
AcDbEntity
  8
DEFPOINTS
 62
     0
100
AcDbPoint
 10
11.1428560362966
 20
26.57126656580878
 30
0.0
  0
ENDBLK
  5
3C25
330
3C19
100
AcDbEntity
  8
0
100
AcDbBlockEnd
  0
BLOCK
  5
3C32
330
3C27
100
AcDbEntity
  8
0
100
AcDbBlockBegin
  2
*D7
 70
     1
 10
0.0
 20
0.0
 30
0.0
  3
*D7
  1

  0
LINE
  5
72AA
330
3C27
100
AcDbEntity
  8
DIM
 62
     0
370
    -2
100
AcDbLine
 10
11.1428560362966
 20
25.52435649649167
 30
0.0
 11
11.1428560362966
 21
27.8456715086272
 31
0.0
  0
LINE
  5
72AB
330
3C27
100
AcDbEntity
  8
DIM
 62
     0
370
    -2
100
AcDbLine
 10
14.29285603629659
 20
25.52435649649167
 30
0.0
 11
14.29285603629659
 21
27.8456715086272
 31
0.0
  0
LINE
  5
72AC
330
3C27
100
AcDbEntity
  8
DIM
 62
     0
370
    -2
100
AcDbLine
 10
10.42285603629659
 20
27.4736715086272
 30
0.0
 11
9.7028560362966
 21
27.4736715086272
 31
0.0
  0
LINE
  5
72AD
330
3C27
100
AcDbEntity
  8
DIM
 62
     0
370
    -2
100
AcDbLine
 10
15.01285603629659
 20
27.4736715086272
 30
0.0
 11
15.73285603629659
 21
27.4736715086272
 31
0.0
  0
SOLID
  5
72AE
330
3C27
100
AcDbEntity
  8
DIM
 62
     0
100
AcDbTrace
 10
10.42285603629659
 20
27.5936715086272
 30
0.0
 11
10.42285603629659
 21
27.3536715086272
 31
0.0
 12
11.1428560362966
 22
27.4736715086272
 32
0.0
 13
11.1428560362966
 23
27.4736715086272
 33
0.0
  0
SOLID
  5
72AF
330
3C27
100
AcDbEntity
  8
DIM
 62
     0
100
AcDbTrace
 10
15.01285603629659
 20
27.5936715086272
 30
0.0
 11
15.01285603629659
 21
27.3536715086272
 31
0.0
 12
14.29285603629659
 22
27.4736715086272
 32
0.0
 13
14.29285603629659
 23
27.4736715086272
 33
0.0
  0
MTEXT
  5
72B0
330
3C27
100
AcDbEntity
  8
DIM
 62
     0
100
AcDbMText
 10
12.71785603629659
 20
27.4736715086272
 30
0.0
 40
0.5
 41
0.0
 71
     5
 72
     1
  1
\A1;3.150
 73
     1
 44
1.0
  0
POINT
  5
72B1
330
3C27
100
AcDbEntity
  8
DEFPOINTS
 62
     0
100
AcDbPoint
 10
11.1428560362966
 20
25.27235649649167
 30
0.0
  0
POINT
  5
72B2
330
3C27
100
AcDbEntity
  8
DEFPOINTS
 62
     0
100
AcDbPoint
 10
14.29285603629659
 20
25.27235649649167
 30
0.0
  0
POINT
  5
72B3
330
3C27
100
AcDbEntity
  8
DEFPOINTS
 62
     0
100
AcDbPoint
 10
14.29285603629659
 20
27.4736715086272
 30
0.0
  0
ENDBLK
  5
3C33
330
3C27
100
AcDbEntity
  8
0
100
AcDbBlockEnd
  0
BLOCK
  5
3C4E
330
3C43
100
AcDbEntity
  8
0
100
AcDbBlockBegin
  2
*D8
 70
     1
 10
0.0
 20
0.0
 30
0.0
  3
*D8
  1

  0
LINE
  5
71BA
330
3C43
100
AcDbEntity
  8
DIM
 62
     0
370
    -2
100
AcDbLine
 10
15.43935603629657
 20
12.26435649649169
 30
0.0
 11
15.43935603629657
 21
13.80464103492806
 31
0.0
  0
LINE
  5
71BB
330
3C43
100
AcDbEntity
  8
DIM
 62
     0
370
    -2
100
AcDbLine
 10
16.64035603629658
 20
12.35235649649169
 30
0.0
 11
16.64035603629658
 21
13.80464103492806
 31
0.0
  0
LINE
  5
71BC
330
3C43
100
AcDbEntity
  8
DIM
 62
     0
370
    -2
100
AcDbLine
 10
14.71935603629657
 20
13.43264103492806
 30
0.0
 11
13.99935603629657
 21
13.43264103492806
 31
0.0
  0
LINE
  5
71BD
330
3C43
100
AcDbEntity
  8
DIM
 62
     0
370
    -2
100
AcDbLine
 10
17.36035603629658
 20
13.43264103492806
 30
0.0
 11
18.08035603629658
 21
13.43264103492806
 31
0.0
  0
SOLID
  5
71BE
330
3C43
100
AcDbEntity
  8
DIM
 62
     0
100
AcDbTrace
 10
14.71935603629657
 20
13.55264103492806
 30
0.0
 11
14.71935603629657
 21
13.31264103492806
 31
0.0
 12
15.43935603629657
 22
13.43264103492806
 32
0.0
 13
15.43935603629657
 23
13.43264103492806
 33
0.0
  0
SOLID
  5
71BF
330
3C43
100
AcDbEntity
  8
DIM
 62
     0
100
AcDbTrace
 10
17.36035603629658
 20
13.55264103492806
 30
0.0
 11
17.36035603629658
 21
13.31264103492806
 31
0.0
 12
16.64035603629658
 22
13.43264103492806
 32
0.0
 13
16.64035603629658
 23
13.43264103492806
 33
0.0
  0
MTEXT
  5
71C0
330
3C43
100
AcDbEntity
  8
DIM
 62
     0
100
AcDbMText
 10
19.03410603629659
 20
13.43264103492806
 30
0.0
 40
0.5
 41
0.0
 71
     5
 72
     1
  1
\A1;1.201
 73
     1
 44
1.0
  0
POINT
  5
71C1
330
3C43
100
AcDbEntity
  8
DEFPOINTS
 62
     0
100
AcDbPoint
 10
15.43935603629657
 20
12.01235649649169
 30
0.0
  0
POINT
  5
71C2
330
3C43
100
AcDbEntity
  8
DEFPOINTS
 62
     0
100
AcDbPoint
 10
16.64035603629658
 20
12.10035649649169
 30
0.0
  0
POINT
  5
71C3
330
3C43
100
AcDbEntity
  8
DEFPOINTS
 62
     0
100
AcDbPoint
 10
16.64035603629658
 20
13.43264103492806
 30
0.0
  0
ENDBLK
  5
3C4F
330
3C43
100
AcDbEntity
  8
0
100
AcDbBlockEnd
  0
BLOCK
  5
3C5C
330
3C51
100
AcDbEntity
  8
0
100
AcDbBlockBegin
  2
*D9
 70
     1
 10
0.0
 20
0.0
 30
0.0
  3
*D9
  1

  0
LINE
  5
71AF
330
3C51
100
AcDbEntity
  8
DIM
 62
     0
370
    -2
100
AcDbLine
 10
16.60535603629659
 20
25.12435649649164
 30
0.0
 11
18.02385603629657
 21
25.12435649649164
 31
0.0
  0
LINE
  5
71B0
330
3C51
100
AcDbEntity
  8
DIM
 62
     0
370
    -2
100
AcDbLine
 10
16.50685603629653
 20
25.85335649649169
 30
0.0
 11
18.02385603629657
 21
25.85335649649169
 31
0.0
  0
LINE
  5
71B1
330
3C51
100
AcDbEntity
  8
DIM
 62
     0
370
    -2
100
AcDbLine
 10
17.65185603629658
 20
24.40435649649164
 30
0.0
 11
17.65185603629657
 21
23.68435649649164
 31
0.0
  0
LINE
  5
71B2
330
3C51
100
AcDbEntity
  8
DIM
 62
     0
370
    -2
100
AcDbLine
 10
17.65185603629658
 20
26.57335649649169
 30
0.0
 11
17.65185603629658
 21
27.29335649649169
 31
0.0
  0
LINE
  5
71B3
330
3C51
100
AcDbEntity
  8
DIM
 62
     0
370
    -2
100
AcDbLine
 10
17.65185603629658
 20
27.29335649649169
 30
0.0
 11
18.37185603629657
 21
27.29335649649169
 31
0.0
  0
SOLID
  5
71B4
330
3C51
100
AcDbEntity
  8
DIM
 62
     0
100
AcDbTrace
 10
17.53185603629657
 20
24.40435649649164
 30
0.0
 11
17.77185603629658
 21
24.40435649649164
 31
0.0
 12
17.65185603629658
 22
25.12435649649164
 32
0.0
 13
17.65185603629658
 23
25.12435649649164
 33
0.0
  0
SOLID
  5
71B5
330
3C51
100
AcDbEntity
  8
DIM
 62
     0
100
AcDbTrace
 10
17.53185603629657
 20
26.57335649649169
 30
0.0
 11
17.77185603629658
 21
26.57335649649169
 31
0.0
 12
17.65185603629658
 22
25.85335649649169
 32
0.0
 13
17.65185603629658
 23
25.85335649649169
 33
0.0
  0
MTEXT
  5
71B6
330
3C51
100
AcDbEntity
  8
DIM
 62
     0
100
AcDbMText
 10
19.45060603629657
 20
27.2933564964917
 30
0.0
 40
0.5
 41
0.0
 71
     5
 72
     1
  1
\A1;0.729
 73
     1
 44
1.0
  0
POINT
  5
71B7
330
3C51
100
AcDbEntity
  8
DEFPOINTS
 62
     0
100
AcDbPoint
 10
16.35335603629659
 20
25.12435649649164
 30
0.0
  0
POINT
  5
71B8
330
3C51
100
AcDbEntity
  8
DEFPOINTS
 62
     0
100
AcDbPoint
 10
16.25485603629653
 20
25.85335649649169
 30
0.0
  0
POINT
  5
71B9
330
3C51
100
AcDbEntity
  8
DEFPOINTS
 62
     0
100
AcDbPoint
 10
17.65185603629658
 20
25.85335649649169
 30
0.0
  0
ENDBLK
  5
3C5D
330
3C51
100
AcDbEntity
  8
0
100
AcDbBlockEnd
  0
BLOCK
  5
3C6A
330
3C5F
100
AcDbEntity
  8
0
100
AcDbBlockBegin
  2
*D10
 70
     1
 10
0.0
 20
0.0
 30
0.0
  3
*D10
  1

  0
LINE
  5
7310
330
3C5F
100
AcDbEntity
  8
DIM
 62
     0
370
    -2
100
AcDbLine
 10
25.5943439460425
 20
19.14535649649167
 30
0.0
 11
24.5383439460425
 21
19.14535649649167
 31
0.0
  0
LINE
  5
7311
330
3C5F
100
AcDbEntity
  8
DIM
 62
     0
370
    -2
100
AcDbLine
 10
25.5943439460425
 20
18.43335649649167
 30
0.0
 11
24.5383439460425
 21
18.43335649649167
 31
0.0
  0
LINE
  5
7312
330
3C5F
100
AcDbEntity
  8
DIM
 62
     0
370
    -2
100
AcDbLine
 10
24.9103439460425
 20
19.86535649649166
 30
0.0
 11
24.9103439460425
 21
20.58535649649166
 31
0.0
  0
LINE
  5
7313
330
3C5F
100
AcDbEntity
  8
DIM
 62
     0
370
    -2
100
AcDbLine
 10
24.9103439460425
 20
17.71335649649167
 30
0.0
 11
24.9103439460425
 21
16.99335649649166
 31
0.0
  0
SOLID
  5
7314
330
3C5F
100
AcDbEntity
  8
DIM
 62
     0
100
AcDbTrace
 10
24.7903439460425
 20
19.86535649649166
 30
0.0
 11
25.0303439460425
 21
19.86535649649166
 31
0.0
 12
24.9103439460425
 22
19.14535649649167
 32
0.0
 13
24.9103439460425
 23
19.14535649649167
 33
0.0
  0
SOLID
  5
7315
330
3C5F
100
AcDbEntity
  8
DIM
 62
     0
100
AcDbTrace
 10
24.7903439460425
 20
17.71335649649167
 30
0.0
 11
25.0303439460425
 21
17.71335649649167
 31
0.0
 12
24.9103439460425
 22
18.43335649649167
 32
0.0
 13
24.9103439460425
 23
18.43335649649167
 33
0.0
  0
MTEXT
  5
7316
330
3C5F
100
AcDbEntity
  8
DIM
 62
     0
100
AcDbMText
 10
24.9103439460425
 20
18.78935649649167
 30
0.0
 40
0.5
 41
0.0
 71
     5
 72
     1
  1
\A1;0.712
 73
     1
 44
1.0
  0
POINT
  5
7317
330
3C5F
100
AcDbEntity
  8
DEFPOINTS
 62
     0
100
AcDbPoint
 10
25.8463439460425
 20
19.14535649649167
 30
0.0
  0
POINT
  5
7318
330
3C5F
100
AcDbEntity
  8
DEFPOINTS
 62
     0
100
AcDbPoint
 10
25.8463439460425
 20
18.43335649649167
 30
0.0
  0
POINT
  5
7319
330
3C5F
100
AcDbEntity
  8
DEFPOINTS
 62
     0
100
AcDbPoint
 10
24.9103439460425
 20
18.43335649649167
 30
0.0
  0
ENDBLK
  5
3C6B
330
3C5F
100
AcDbEntity
  8
0
100
AcDbBlockEnd
  0
BLOCK
  5
3CBD
330
3CB2
100
AcDbEntity
  8
0
100
AcDbBlockBegin
  2
*D11
 70
     1
 10
0.0
 20
0.0
 30
0.0
  3
*D11
  1

  0
LINE
  5
73CA
330
3CB2
100
AcDbEntity
  8
DIM
 62
     0
370
    -2
100
AcDbLine
 10
59.9431571128162
 20
32.16877411499752
 30
0.0
 11
59.9431571128162
 21
30.83247592207689
 31
0.0
  0
LINE
  5
73CB
330
3CB2
100
AcDbEntity
  8
DIM
 62
     0
370
    -2
100
AcDbLine
 10
54.30315711281622
 20
32.79677411499753
 30
0.0
 11
54.30315711281622
 21
30.83247592207689
 31
0.0
  0
LINE
  5
73CC
330
3CB2
100
AcDbEntity
  8
DIM
 62
     0
370
    -2
100
AcDbLine
 10
59.2231571128162
 20
31.20447592207689
 30
0.0
 11
57.83792450902747
 21
31.20447592207689
 31
0.0
  0
LINE
  5
73CD
330
3CB2
100
AcDbEntity
  8
DIM
 62
     0
370
    -2
100
AcDbLine
 10
55.02315711281621
 20
31.20447592207689
 30
0.0
 11
55.93042450902746
 21
31.20447592207689
 31
0.0
  0
SOLID
  5
73CE
330
3CB2
100
AcDbEntity
  8
DIM
 62
     0
100
AcDbTrace
 10
59.2231571128162
 20
31.32447592207689
 30
0.0
 11
59.2231571128162
 21
31.08447592207689
 31
0.0
 12
59.9431571128162
 22
31.20447592207689
 32
0.0
 13
59.9431571128162
 23
31.20447592207689
 33
0.0
  0
SOLID
  5
73CF
330
3CB2
100
AcDbEntity
  8
DIM
 62
     0
100
AcDbTrace
 10
55.02315711281621
 20
31.32447592207689
 30
0.0
 11
55.02315711281621
 21
31.08447592207689
 31
0.0
 12
54.30315711281622
 22
31.20447592207689
 32
0.0
 13
54.30315711281622
 23
31.20447592207689
 33
0.0
  0
MTEXT
  5
73D0
330
3CB2
100
AcDbEntity
  8
DIM
 62
     0
100
AcDbMText
 10
56.88417450902747
 20
31.20447592207689
 30
0.0
 40
0.5
 41
0.0
 71
     5
 72
     1
  1
\A1;1.410
 73
     1
 44
1.0
  0
POINT
  5
73D1
330
3CB2
100
AcDbEntity
  8
DEFPOINTS
 62
     0
100
AcDbPoint
 10
59.9431571128162
 20
32.42077411499753
 30
0.0
  0
POINT
  5
73D2
330
3CB2
100
AcDbEntity
  8
DEFPOINTS
 62
     0
100
AcDbPoint
 10
54.30315711281622
 20
33.04877411499753
 30
0.0
  0
POINT
  5
73D3
330
3CB2
100
AcDbEntity
  8
DEFPOINTS
 62
     0
100
AcDbPoint
 10
54.30315711281622
 20
31.20447592207689
 30
0.0
  0
ENDBLK
  5
3CBE
330
3CB2
100
AcDbEntity
  8
0
100
AcDbBlockEnd
  0
BLOCK
  5
3CCB
330
3CC0
100
AcDbEntity
  8
0
100
AcDbBlockBegin
  2
*D12
 70
     1
 10
0.0
 20
0.0
 30
0.0
  3
*D12
  1

  0
LINE
  5
73A0
330
3CC0
100
AcDbEntity
  8
DIM
 62
     0
370
    -2
100
AcDbLine
 10
60.19515711281615
 20
34.44877411499756
 30
0.0
 11
63.45915711281612
 21
34.44877411499756
 31
0.0
  0
LINE
  5
73A1
330
3CC0
100
AcDbEntity
  8
DIM
 62
     0
370
    -2
100
AcDbLine
 10
60.19515711281631
 20
33.04877411499755
 30
0.0
 11
63.45915711281612
 21
33.04877411499755
 31
0.0
  0
LINE
  5
73A2
330
3CC0
100
AcDbEntity
  8
DIM
 62
     0
370
    -2
100
AcDbLine
 10
63.08715711281613
 20
35.16877411499756
 30
0.0
 11
63.08715711281613
 21
35.88877411499757
 31
0.0
  0
LINE
  5
73A3
330
3CC0
100
AcDbEntity
  8
DIM
 62
     0
370
    -2
100
AcDbLine
 10
63.08715711281613
 20
32.32877411499755
 30
0.0
 11
63.08715711281613
 21
31.60877411499754
 31
0.0
  0
SOLID
  5
73A4
330
3CC0
100
AcDbEntity
  8
DIM
 62
     0
100
AcDbTrace
 10
62.96715711281613
 20
35.16877411499756
 30
0.0
 11
63.20715711281613
 21
35.16877411499756
 31
0.0
 12
63.08715711281613
 22
34.44877411499756
 32
0.0
 13
63.08715711281613
 23
34.44877411499756
 33
0.0
  0
SOLID
  5
73A5
330
3CC0
100
AcDbEntity
  8
DIM
 62
     0
100
AcDbTrace
 10
62.96715711281613
 20
32.32877411499755
 30
0.0
 11
63.20715711281613
 21
32.32877411499755
 31
0.0
 12
63.08715711281613
 22
33.04877411499755
 32
0.0
 13
63.08715711281613
 23
33.04877411499755
 33
0.0
  0
MTEXT
  5
73A6
330
3CC0
100
AcDbEntity
  8
DIM
 62
     0
100
AcDbMText
 10
63.08715711281612
 20
33.74877411499756
 30
0.0
 40
0.5
 41
0.0
 71
     5
 72
     1
  1
\A1;0.350 DIA. C'BORE
 73
     1
 44
1.0
  0
POINT
  5
73A7
330
3CC0
100
AcDbEntity
  8
DEFPOINTS
 62
     0
100
AcDbPoint
 10
59.94315711281615
 20
34.44877411499756
 30
0.0
  0
POINT
  5
73A8
330
3CC0
100
AcDbEntity
  8
DEFPOINTS
 62
     0
100
AcDbPoint
 10
59.9431571128163
 20
33.04877411499755
 30
0.0
  0
POINT
  5
73A9
330
3CC0
100
AcDbEntity
  8
DEFPOINTS
 62
     0
100
AcDbPoint
 10
63.08715711281613
 20
33.04877411499755
 30
0.0
  0
ENDBLK
  5
3CCC
330
3CC0
100
AcDbEntity
  8
0
100
AcDbBlockEnd
  0
BLOCK
  5
3CE9
330
3CDE
100
AcDbEntity
  8
0
100
AcDbBlockBegin
  2
*D13
 70
     1
 10
0.0
 20
0.0
 30
0.0
  3
*D13
  1

  0
LINE
  5
73B4
330
3CDE
100
AcDbEntity
  8
DIM
 62
     0
370
    -2
100
AcDbLine
 10
51.81915711281611
 20
34.09277411499754
 30
0.0
 11
50.51425228997159
 21
34.09277411499754
 31
0.0
  0
LINE
  5
73B5
330
3CDE
100
AcDbEntity
  8
DIM
 62
     0
370
    -2
100
AcDbLine
 10
51.81915711281611
 20
33.40477411499757
 30
0.0
 11
50.51425228997159
 21
33.40477411499757
 31
0.0
  0
LINE
  5
73B6
330
3CDE
100
AcDbEntity
  8
DIM
 62
     0
370
    -2
100
AcDbLine
 10
50.88625228997159
 20
34.81277411499753
 30
0.0
 11
50.88625228997159
 21
35.53277411499753
 31
0.0
  0
LINE
  5
73B7
330
3CDE
100
AcDbEntity
  8
DIM
 62
     0
370
    -2
100
AcDbLine
 10
50.88625228997159
 20
32.68477411499757
 30
0.0
 11
50.88625228997159
 21
31.96477411499757
 31
0.0
  0
LINE
  5
73B8
330
3CDE
100
AcDbEntity
  8
DIM
 62
     0
370
    -2
100
AcDbLine
 10
50.88625228997159
 20
31.96477411499757
 30
0.0
 11
50.16625228997159
 21
31.96477411499757
 31
0.0
  0
SOLID
  5
73B9
330
3CDE
100
AcDbEntity
  8
DIM
 62
     0
100
AcDbTrace
 10
50.76625228997158
 20
34.81277411499753
 30
0.0
 11
51.00625228997158
 21
34.81277411499753
 31
0.0
 12
50.88625228997159
 22
34.09277411499754
 32
0.0
 13
50.88625228997159
 23
34.09277411499754
 33
0.0
  0
SOLID
  5
73BA
330
3CDE
100
AcDbEntity
  8
DIM
 62
     0
100
AcDbTrace
 10
50.76625228997158
 20
32.68477411499757
 30
0.0
 11
51.00625228997158
 21
32.68477411499757
 31
0.0
 12
50.88625228997159
 22
33.40477411499757
 32
0.0
 13
50.88625228997159
 23
33.40477411499757
 33
0.0
  0
MTEXT
  5
73BB
330
3CDE
100
AcDbEntity
  8
DIM
 62
     0
100
AcDbMText
 10
48.40000228997158
 20
31.96477411499758
 30
0.0
 40
0.5
 41
0.0
 71
     5
 72
     1
  1
\A1;0.172 DIA.
 73
     1
 44
1.0
  0
POINT
  5
73BC
330
3CDE
100
AcDbEntity
  8
DEFPOINTS
 62
     0
100
AcDbPoint
 10
52.07115711281612
 20
34.09277411499754
 30
0.0
  0
POINT
  5
73BD
330
3CDE
100
AcDbEntity
  8
DEFPOINTS
 62
     0
100
AcDbPoint
 10
52.07115711281612
 20
33.40477411499757
 30
0.0
  0
POINT
  5
73BE
330
3CDE
100
AcDbEntity
  8
DEFPOINTS
 62
     0
100
AcDbPoint
 10
50.88625228997159
 20
33.40477411499757
 30
0.0
  0
ENDBLK
  5
3CEA
330
3CDE
100
AcDbEntity
  8
0
100
AcDbBlockEnd
  0
BLOCK
  5
3D3A
330
3D2F
100
AcDbEntity
  8
0
100
AcDbBlockBegin
  2
*D14
 70
     1
 10
0.0
 20
0.0
 30
0.0
  3
*D14
  1

  0
LINE
  5
73BF
330
3D2F
100
AcDbEntity
  8
DIM
 62
     0
370
    -2
100
AcDbLine
 10
51.81915711281668
 20
35.17277411499771
 30
0.0
 11
49.05801716240247
 21
35.17277411499771
 31
0.0
  0
LINE
  5
73C0
330
3D2F
100
AcDbEntity
  8
DIM
 62
     0
370
    -2
100
AcDbLine
 10
51.59115711281618
 20
34.69277411499769
 30
0.0
 11
49.05801716240247
 21
34.69277411499769
 31
0.0
  0
LINE
  5
73C1
330
3D2F
100
AcDbEntity
  8
DIM
 62
     0
370
    -2
100
AcDbLine
 10
49.43001716240247
 20
35.8927741149977
 30
0.0
 11
49.43001716240247
 21
36.6127741149977
 31
0.0
  0
LINE
  5
73C2
330
3D2F
100
AcDbEntity
  8
DIM
 62
     0
370
    -2
100
AcDbLine
 10
49.43001716240247
 20
33.97277411499769
 30
0.0
 11
49.43001716240247
 21
33.25277411499769
 31
0.0
  0
LINE
  5
73C3
330
3D2F
100
AcDbEntity
  8
DIM
 62
     0
370
    -2
100
AcDbLine
 10
49.43001716240247
 20
33.25277411499769
 30
0.0
 11
48.71001716240247
 21
33.25277411499769
 31
0.0
  0
SOLID
  5
73C4
330
3D2F
100
AcDbEntity
  8
DIM
 62
     0
100
AcDbTrace
 10
49.31001716240247
 20
35.8927741149977
 30
0.0
 11
49.55001716240246
 21
35.8927741149977
 31
0.0
 12
49.43001716240247
 22
35.17277411499771
 32
0.0
 13
49.43001716240247
 23
35.17277411499771
 33
0.0
  0
SOLID
  5
73C5
330
3D2F
100
AcDbEntity
  8
DIM
 62
     0
100
AcDbTrace
 10
49.31001716240247
 20
33.97277411499769
 30
0.0
 11
49.55001716240246
 21
33.97277411499769
 31
0.0
 12
49.43001716240247
 22
34.69277411499769
 32
0.0
 13
49.43001716240247
 23
34.69277411499769
 33
0.0
  0
MTEXT
  5
73C6
330
3D2F
100
AcDbEntity
  8
DIM
 62
     0
100
AcDbMText
 10
47.72501716240246
 20
33.2527741149977
 30
0.0
 40
0.5
 41
0.0
 71
     5
 72
     1
  1
\A1;0.120
 73
     1
 44
1.0
  0
POINT
  5
73C7
330
3D2F
100
AcDbEntity
  8
DEFPOINTS
 62
     0
100
AcDbPoint
 10
52.07115711281669
 20
35.17277411499771
 30
0.0
  0
POINT
  5
73C8
330
3D2F
100
AcDbEntity
  8
DEFPOINTS
 62
     0
100
AcDbPoint
 10
51.84315711281618
 20
34.69277411499769
 30
0.0
  0
POINT
  5
73C9
330
3D2F
100
AcDbEntity
  8
DEFPOINTS
 62
     0
100
AcDbPoint
 10
49.43001716240247
 20
34.69277411499769
 30
0.0
  0
ENDBLK
  5
3D3B
330
3D2F
100
AcDbEntity
  8
0
100
AcDbBlockEnd
  0
BLOCK
  5
3D48
330
3D3D
100
AcDbEntity
  8
0
100
AcDbBlockBegin
  2
*D15
 70
     1
 10
0.0
 20
0.0
 30
0.0
  3
*D15
  1

  0
LINE
  5
73AA
330
3D3D
100
AcDbEntity
  8
DIM
 62
     0
370
    -2
100
AcDbLine
 10
52.07115711281613
 20
35.44277411499771
 30
0.0
 11
52.07115711281613
 21
38.57023417868129
 31
0.0
  0
LINE
  5
73AB
330
3D3D
100
AcDbEntity
  8
DIM
 62
     0
370
    -2
100
AcDbLine
 10
52.77115711281607
 20
35.44277411499771
 30
0.0
 11
52.77115711281607
 21
38.57023417868129
 31
0.0
  0
LINE
  5
73AC
330
3D3D
100
AcDbEntity
  8
DIM
 62
     0
370
    -2
100
AcDbLine
 10
51.35115711281613
 20
38.19823417868128
 30
0.0
 11
50.63115711281614
 21
38.19823417868128
 31
0.0
  0
LINE
  5
73AD
330
3D3D
100
AcDbEntity
  8
DIM
 62
     0
370
    -2
100
AcDbLine
 10
53.49115711281607
 20
38.19823417868128
 30
0.0
 11
54.21115711281607
 21
38.19823417868128
 31
0.0
  0
SOLID
  5
73AE
330
3D3D
100
AcDbEntity
  8
DIM
 62
     0
100
AcDbTrace
 10
51.35115711281613
 20
38.31823417868129
 30
0.0
 11
51.35115711281613
 21
38.07823417868129
 31
0.0
 12
52.07115711281613
 22
38.19823417868128
 32
0.0
 13
52.07115711281613
 23
38.19823417868128
 33
0.0
  0
SOLID
  5
73AF
330
3D3D
100
AcDbEntity
  8
DIM
 62
     0
100
AcDbTrace
 10
53.49115711281607
 20
38.31823417868129
 30
0.0
 11
53.49115711281607
 21
38.07823417868129
 31
0.0
 12
52.77115711281607
 22
38.19823417868128
 32
0.0
 13
52.77115711281607
 23
38.19823417868128
 33
0.0
  0
MTEXT
  5
73B0
330
3D3D
100
AcDbEntity
  8
DIM
 62
     0
100
AcDbMText
 10
55.22740711281606
 20
38.19823417868128
 30
0.0
 40
0.5
 41
0.0
 71
     5
 72
     1
  1
\A1;0.175
 73
     1
 44
1.0
  0
POINT
  5
73B1
330
3D3D
100
AcDbEntity
  8
DEFPOINTS
 62
     0
100
AcDbPoint
 10
52.07115711281613
 20
35.1907741149977
 30
0.0
  0
POINT
  5
73B2
330
3D3D
100
AcDbEntity
  8
DEFPOINTS
 62
     0
100
AcDbPoint
 10
52.77115711281607
 20
35.1907741149977
 30
0.0
  0
POINT
  5
73B3
330
3D3D
100
AcDbEntity
  8
DEFPOINTS
 62
     0
100
AcDbPoint
 10
52.77115711281607
 20
38.19823417868128
 30
0.0
  0
ENDBLK
  5
3D49
330
3D3D
100
AcDbEntity
  8
0
100
AcDbBlockEnd
  0
BLOCK
  5
3D64
330
3D59
100
AcDbEntity
  8
0
100
AcDbBlockBegin
  2
*D16
 70
     1
 10
0.0
 20
0.0
 30
0.0
  3
*D16
  1

  0
LINE
  5
72DD
330
3D59
100
AcDbEntity
  8
DIM
 62
     0
370
    -2
100
AcDbLine
 10
43.23394799265761
 20
11.95535649649173
 30
0.0
 11
42.86194799265761
 21
11.95535649649173
 31
0.0
  0
LINE
  5
72DE
330
3D59
100
AcDbEntity
  8
DIM
 62
     0
370
    -2
100
AcDbLine
 10
43.23394799265761
 20
11.72535649649168
 30
0.0
 11
42.86194799265761
 21
11.72535649649168
 31
0.0
  0
LINE
  5
72DF
330
3D59
100
AcDbEntity
  8
DIM
 62
     0
370
    -2
100
AcDbLine
 10
43.23394799265761
 20
12.67535649649173
 30
0.0
 11
43.23394799265761
 21
13.39535649649173
 31
0.0
  0
LINE
  5
72E0
330
3D59
100
AcDbEntity
  8
DIM
 62
     0
370
    -2
100
AcDbLine
 10
43.23394799265761
 20
11.00535649649168
 30
0.0
 11
43.23394799265761
 21
10.28535649649168
 31
0.0
  0
LINE
  5
72E1
330
3D59
100
AcDbEntity
  8
DIM
 62
     0
370
    -2
100
AcDbLine
 10
43.23394799265761
 20
10.28535649649168
 30
0.0
 11
42.51394799265761
 21
10.28535649649168
 31
0.0
  0
SOLID
  5
72E2
330
3D59
100
AcDbEntity
  8
DIM
 62
     0
100
AcDbTrace
 10
43.11394799265761
 20
12.67535649649173
 30
0.0
 11
43.35394799265761
 21
12.67535649649173
 31
0.0
 12
43.23394799265761
 22
11.95535649649173
 32
0.0
 13
43.23394799265761
 23
11.95535649649173
 33
0.0
  0
SOLID
  5
72E3
330
3D59
100
AcDbEntity
  8
DIM
 62
     0
100
AcDbTrace
 10
43.11394799265761
 20
11.00535649649168
 30
0.0
 11
43.35394799265761
 21
11.00535649649168
 31
0.0
 12
43.23394799265761
 22
11.72535649649168
 32
0.0
 13
43.23394799265761
 23
11.72535649649168
 33
0.0
  0
MTEXT
  5
72E4
330
3D59
100
AcDbEntity
  8
DIM
 62
     0
100
AcDbMText
 10
40.65394799265761
 20
10.28535649649169
 30
0.0
 40
0.5
 41
0.0
 71
     5
 72
     1
  1
\A1;0.230 TYP.
 73
     1
 44
1.0
  0
POINT
  5
72E5
330
3D59
100
AcDbEntity
  8
DEFPOINTS
 62
     0
100
AcDbPoint
 10
43.48594799265761
 20
11.95535649649173
 30
0.0
  0
POINT
  5
72E6
330
3D59
100
AcDbEntity
  8
DEFPOINTS
 62
     0
100
AcDbPoint
 10
43.48594799265761
 20
11.72535649649168
 30
0.0
  0
POINT
  5
72E7
330
3D59
100
AcDbEntity
  8
DEFPOINTS
 62
     0
100
AcDbPoint
 10
43.23394799265761
 20
11.72535649649168
 30
0.0
  0
ENDBLK
  5
3D65
330
3D59
100
AcDbEntity
  8
0
100
AcDbBlockEnd
  0
BLOCK
  5
3F79
330
3F6E
100
AcDbEntity
  8
0
100
AcDbBlockBegin
  2
*D17
 70
     1
 10
0.0
 20
0.0
 30
0.0
  3
*D17
  1

  0
LINE
  5
7172
330
3F6E
100
AcDbEntity
  8
DIM
 62
     0
370
    -2
100
AcDbLine
 10
37.63744883536801
 20
32.1379833125623
 30
0.0
 11
35.75494883536797
 21
32.1379833125623
 31
0.0
  0
LINE
  5
7173
330
3F6E
100
AcDbEntity
  8
DIM
 62
     0
370
    -2
100
AcDbLine
 10
37.575448835368
 20
30.16998331256228
 30
0.0
 11
35.75494883536797
 21
30.16998331256228
 31
0.0
  0
LINE
  5
7174
330
3F6E
100
AcDbEntity
  8
DIM
 62
     0
370
    -2
100
AcDbLine
 10
36.12694883536796
 20
32.85798331256229
 30
0.0
 11
36.12694883536796
 21
33.57798331256229
 31
0.0
  0
LINE
  5
7175
330
3F6E
100
AcDbEntity
  8
DIM
 62
     0
370
    -2
100
AcDbLine
 10
36.12694883536796
 20
29.44998331256228
 30
0.0
 11
36.12694883536796
 21
28.72998331256228
 31
0.0
  0
SOLID
  5
7176
330
3F6E
100
AcDbEntity
  8
DIM
 62
     0
100
AcDbTrace
 10
36.00694883536797
 20
32.85798331256229
 30
0.0
 11
36.24694883536796
 21
32.85798331256229
 31
0.0
 12
36.12694883536796
 22
32.1379833125623
 32
0.0
 13
36.12694883536796
 23
32.1379833125623
 33
0.0
  0
SOLID
  5
7177
330
3F6E
100
AcDbEntity
  8
DIM
 62
     0
100
AcDbTrace
 10
36.00694883536797
 20
29.44998331256228
 30
0.0
 11
36.24694883536796
 21
29.44998331256228
 31
0.0
 12
36.12694883536796
 22
30.16998331256228
 32
0.0
 13
36.12694883536796
 23
30.16998331256228
 33
0.0
  0
MTEXT
  5
7178
330
3F6E
100
AcDbEntity
  8
DIM
 62
     0
100
AcDbMText
 10
36.12694883536796
 20
31.15398331256229
 30
0.0
 40
0.5
 41
0.0
 71
     5
 72
     1
  1
\A1;1.968
 73
     1
 44
1.0
  0
POINT
  5
7179
330
3F6E
100
AcDbEntity
  8
DEFPOINTS
 62
     0
100
AcDbPoint
 10
37.88944883536801
 20
32.1379833125623
 30
0.0
  0
POINT
  5
717A
330
3F6E
100
AcDbEntity
  8
DEFPOINTS
 62
     0
100
AcDbPoint
 10
37.827448835368
 20
30.16998331256228
 30
0.0
  0
POINT
  5
717B
330
3F6E
100
AcDbEntity
  8
DEFPOINTS
 62
     0
100
AcDbPoint
 10
36.12694883536796
 20
30.16998331256228
 30
0.0
  0
ENDBLK
  5
3F7A
330
3F6E
100
AcDbEntity
  8
0
100
AcDbBlockEnd
  0
BLOCK
  5
3F87
330
3F7C
100
AcDbEntity
  8
0
100
AcDbBlockBegin
  2
*D18
 70
     1
 10
0.0
 20
0.0
 30
0.0
  3
*D18
  1

  0
LINE
  5
72A0
330
3F7C
100
AcDbEntity
  8
DIM
 62
     0
370
    -2
100
AcDbLine
 10
9.331856036296571
 20
24.46235649649167
 30
0.0
 11
9.331856036296571
 21
23.83554490629362
 31
0.0
  0
LINE
  5
72A1
330
3F7C
100
AcDbEntity
  8
DIM
 62
     0
370
    -2
100
AcDbLine
 10
12.71785603629658
 20
25.03335649649167
 30
0.0
 11
12.71785603629658
 21
23.83554490629362
 31
0.0
  0
LINE
  5
72A2
330
3F7C
100
AcDbEntity
  8
DIM
 62
     0
370
    -2
100
AcDbLine
 10
8.61185603629657
 20
24.20754490629362
 30
0.0
 11
7.891856036296571
 21
24.20754490629362
 31
0.0
  0
LINE
  5
72A3
330
3F7C
100
AcDbEntity
  8
DIM
 62
     0
370
    -2
100
AcDbLine
 10
13.43785603629658
 20
24.20754490629362
 30
0.0
 11
14.15785603629658
 21
24.20754490629362
 31
0.0
  0
SOLID
  5
72A4
330
3F7C
100
AcDbEntity
  8
DIM
 62
     0
100
AcDbTrace
 10
8.61185603629657
 20
24.32754490629362
 30
0.0
 11
8.61185603629657
 21
24.08754490629362
 31
0.0
 12
9.331856036296571
 22
24.20754490629362
 32
0.0
 13
9.331856036296571
 23
24.20754490629362
 33
0.0
  0
SOLID
  5
72A5
330
3F7C
100
AcDbEntity
  8
DIM
 62
     0
100
AcDbTrace
 10
13.43785603629658
 20
24.32754490629362
 30
0.0
 11
13.43785603629658
 21
24.08754490629362
 31
0.0
 12
12.71785603629658
 22
24.20754490629362
 32
0.0
 13
12.71785603629658
 23
24.20754490629362
 33
0.0
  0
MTEXT
  5
72A6
330
3F7C
100
AcDbEntity
  8
DIM
 62
     0
100
AcDbMText
 10
11.02485603629657
 20
24.20754490629362
 30
0.0
 40
0.5
 41
0.0
 71
     5
 72
     1
  1
\A1;3.386
 73
     1
 44
1.0
  0
POINT
  5
72A7
330
3F7C
100
AcDbEntity
  8
DEFPOINTS
 62
     0
100
AcDbPoint
 10
9.331856036296571
 20
24.71435649649167
 30
0.0
  0
POINT
  5
72A8
330
3F7C
100
AcDbEntity
  8
DEFPOINTS
 62
     0
100
AcDbPoint
 10
12.71785603629658
 20
25.28535649649167
 30
0.0
  0
POINT
  5
72A9
330
3F7C
100
AcDbEntity
  8
DEFPOINTS
 62
     0
100
AcDbPoint
 10
12.71785603629658
 20
24.20754490629362
 30
0.0
  0
ENDBLK
  5
3F88
330
3F7C
100
AcDbEntity
  8
0
100
AcDbBlockEnd
  0
BLOCK
  5
3F95
330
3F8A
100
AcDbEntity
  8
0
100
AcDbBlockBegin
  2
*D19
 70
     1
 10
0.0
 20
0.0
 30
0.0
  3
*D19
  1

  0
LINE
  5
7296
330
3F8A
100
AcDbEntity
  8
DIM
 62
     0
370
    -2
100
AcDbLine
 10
9.331856036296571
 20
24.46235649649167
 30
0.0
 11
9.331856036296571
 21
22.62859735477815
 31
0.0
  0
LINE
  5
7297
330
3F8A
100
AcDbEntity
  8
DIM
 62
     0
370
    -2
100
AcDbLine
 10
16.10385603629659
 20
24.46235649649167
 30
0.0
 11
16.10385603629659
 21
22.62859735477815
 31
0.0
  0
LINE
  5
7298
330
3F8A
100
AcDbEntity
  8
DIM
 62
     0
370
    -2
100
AcDbLine
 10
10.05185603629657
 20
23.00059735477815
 30
0.0
 11
11.60785603629658
 21
23.00059735477815
 31
0.0
  0
LINE
  5
7299
330
3F8A
100
AcDbEntity
  8
DIM
 62
     0
370
    -2
100
AcDbLine
 10
15.38385603629659
 20
23.00059735477815
 30
0.0
 11
13.82785603629658
 21
23.00059735477815
 31
0.0
  0
SOLID
  5
729A
330
3F8A
100
AcDbEntity
  8
DIM
 62
     0
100
AcDbTrace
 10
10.05185603629657
 20
23.12059735477815
 30
0.0
 11
10.05185603629657
 21
22.88059735477815
 31
0.0
 12
9.331856036296571
 22
23.00059735477815
 32
0.0
 13
9.331856036296571
 23
23.00059735477815
 33
0.0
  0
SOLID
  5
729B
330
3F8A
100
AcDbEntity
  8
DIM
 62
     0
100
AcDbTrace
 10
15.38385603629659
 20
23.12059735477815
 30
0.0
 11
15.38385603629659
 21
22.88059735477815
 31
0.0
 12
16.10385603629659
 22
23.00059735477815
 32
0.0
 13
16.10385603629659
 23
23.00059735477815
 33
0.0
  0
MTEXT
  5
729C
330
3F8A
100
AcDbEntity
  8
DIM
 62
     0
100
AcDbMText
 10
12.71785603629658
 20
23.00059735477815
 30
0.0
 40
0.5
 41
0.0
 71
     5
 72
     1
  1
\A1;6.772
 73
     1
 44
1.0
  0
POINT
  5
729D
330
3F8A
100
AcDbEntity
  8
DEFPOINTS
 62
     0
100
AcDbPoint
 10
9.331856036296571
 20
24.71435649649167
 30
0.0
  0
POINT
  5
729E
330
3F8A
100
AcDbEntity
  8
DEFPOINTS
 62
     0
100
AcDbPoint
 10
16.10385603629659
 20
24.71435649649167
 30
0.0
  0
POINT
  5
729F
330
3F8A
100
AcDbEntity
  8
DEFPOINTS
 62
     0
100
AcDbPoint
 10
16.10385603629659
 20
23.00059735477815
 30
0.0
  0
ENDBLK
  5
3F96
330
3F8A
100
AcDbEntity
  8
0
100
AcDbBlockEnd
  0
BLOCK
  5
4132
330
4127
100
AcDbEntity
  8
0
100
AcDbBlockBegin
  2
*D20
 70
     1
 10
0.0
 20
0.0
 30
0.0
  3
*D20
  1

  0
LINE
  5
725A
330
4127
100
AcDbEntity
  8
DIM
 62
     0
370
    -2
100
AcDbLine
 10
9.08035603629658
 20
17.01935649649165
 30
0.0
 11
7.307356036296603
 21
17.01935649649166
 31
0.0
  0
LINE
  5
725B
330
4127
100
AcDbEntity
  8
DIM
 62
     0
370
    -2
100
AcDbLine
 10
9.08035603629658
 20
15.44435649649165
 30
0.0
 11
7.307356036296603
 21
15.44435649649165
 31
0.0
  0
LINE
  5
725C
330
4127
100
AcDbEntity
  8
DIM
 62
     0
370
    -2
100
AcDbLine
 10
7.679356036296603
 20
17.73935649649166
 30
0.0
 11
7.679356036296604
 21
18.45935649649166
 31
0.0
  0
LINE
  5
725D
330
4127
100
AcDbEntity
  8
DIM
 62
     0
370
    -2
100
AcDbLine
 10
7.679356036296603
 20
14.72435649649165
 30
0.0
 11
7.679356036296603
 21
14.00435649649165
 31
0.0
  0
SOLID
  5
725E
330
4127
100
AcDbEntity
  8
DIM
 62
     0
100
AcDbTrace
 10
7.559356036296603
 20
17.73935649649166
 30
0.0
 11
7.799356036296603
 21
17.73935649649166
 31
0.0
 12
7.679356036296603
 22
17.01935649649166
 32
0.0
 13
7.679356036296603
 23
17.01935649649166
 33
0.0
  0
SOLID
  5
725F
330
4127
100
AcDbEntity
  8
DIM
 62
     0
100
AcDbTrace
 10
7.559356036296603
 20
14.72435649649165
 30
0.0
 11
7.799356036296603
 21
14.72435649649165
 31
0.0
 12
7.679356036296603
 22
15.44435649649165
 32
0.0
 13
7.679356036296603
 23
15.44435649649165
 33
0.0
  0
MTEXT
  5
7260
330
4127
100
AcDbEntity
  8
DIM
 62
     0
100
AcDbMText
 10
7.6793560362966
 20
16.23185649649165
 30
0.0
 40
0.5
 41
0.0
 71
     5
 72
     1
  1
\A1;1.575
 73
     1
 44
1.0
  0
POINT
  5
7261
330
4127
100
AcDbEntity
  8
DEFPOINTS
 62
     0
100
AcDbPoint
 10
9.33235603629658
 20
17.01935649649165
 30
0.0
  0
POINT
  5
7262
330
4127
100
AcDbEntity
  8
DEFPOINTS
 62
     0
100
AcDbPoint
 10
9.33235603629658
 20
15.44435649649165
 30
0.0
  0
POINT
  5
7263
330
4127
100
AcDbEntity
  8
DEFPOINTS
 62
     0
100
AcDbPoint
 10
7.679356036296603
 20
15.44435649649165
 30
0.0
  0
ENDBLK
  5
4133
330
4127
100
AcDbEntity
  8
0
100
AcDbBlockEnd
  0
BLOCK
  5
4140
330
4135
100
AcDbEntity
  8
0
100
AcDbBlockBegin
  2
*D21
 70
     1
 10
0.0
 20
0.0
 30
0.0
  3
*D21
  1

  0
LINE
  5
721E
330
4135
100
AcDbEntity
  8
DIM
 62
     0
370
    -2
100
AcDbLine
 10
9.08035603629658
 20
17.01935649649165
 30
0.0
 11
1.179470349693064
 21
17.01935649649166
 31
0.0
  0
LINE
  5
721F
330
4135
100
AcDbEntity
  8
DIM
 62
     0
370
    -2
100
AcDbLine
 10
9.08035603629658
 20
13.86935649649165
 30
0.0
 11
1.179470349693063
 21
13.86935649649165
 31
0.0
  0
LINE
  5
7220
330
4135
100
AcDbEntity
  8
DIM
 62
     0
370
    -2
100
AcDbLine
 10
1.551470349693064
 20
16.29935649649166
 30
0.0
 11
1.551470349693064
 21
16.05435649649165
 31
0.0
  0
LINE
  5
7221
330
4135
100
AcDbEntity
  8
DIM
 62
     0
370
    -2
100
AcDbLine
 10
1.551470349693064
 20
14.58935649649165
 30
0.0
 11
1.551470349693064
 21
14.83435649649165
 31
0.0
  0
SOLID
  5
7222
330
4135
100
AcDbEntity
  8
DIM
 62
     0
100
AcDbTrace
 10
1.431470349693064
 20
16.29935649649166
 30
0.0
 11
1.671470349693064
 21
16.29935649649166
 31
0.0
 12
1.551470349693065
 22
17.01935649649166
 32
0.0
 13
1.551470349693065
 23
17.01935649649166
 33
0.0
  0
SOLID
  5
7223
330
4135
100
AcDbEntity
  8
DIM
 62
     0
100
AcDbTrace
 10
1.431470349693064
 20
14.58935649649165
 30
0.0
 11
1.671470349693064
 21
14.58935649649165
 31
0.0
 12
1.551470349693064
 22
13.86935649649165
 32
0.0
 13
1.551470349693064
 23
13.86935649649165
 33
0.0
  0
MTEXT
  5
7224
330
4135
100
AcDbEntity
  8
DIM
 62
     0
100
AcDbMText
 10
1.551470349693062
 20
15.44435649649165
 30
0.0
 40
0.5
 41
0.0
 71
     5
 72
     1
  1
\A1;3.150
 73
     1
 44
1.0
  0
POINT
  5
7225
330
4135
100
AcDbEntity
  8
DEFPOINTS
 62
     0
100
AcDbPoint
 10
9.33235603629658
 20
17.01935649649165
 30
0.0
  0
POINT
  5
7226
330
4135
100
AcDbEntity
  8
DEFPOINTS
 62
     0
100
AcDbPoint
 10
9.33235603629658
 20
13.86935649649165
 30
0.0
  0
POINT
  5
7227
330
4135
100
AcDbEntity
  8
DEFPOINTS
 62
     0
100
AcDbPoint
 10
1.551470349693064
 20
13.86935649649165
 30
0.0
  0
ENDBLK
  5
4141
330
4135
100
AcDbEntity
  8
0
100
AcDbBlockEnd
  0
BLOCK
  5
414E
330
4143
100
AcDbEntity
  8
0
100
AcDbBlockBegin
  2
*D22
 70
     1
 10
0.0
 20
0.0
 30
0.0
  3
*D22
  1

  0
LINE
  5
71EC
330
4143
100
AcDbEntity
  8
DIM
 62
     0
370
    -2
100
AcDbLine
 10
9.08035603629658
 20
13.86935649649165
 30
0.0
 11
6.066096296503879
 21
13.86935649649165
 31
0.0
  0
LINE
  5
71ED
330
4143
100
AcDbEntity
  8
DIM
 62
     0
370
    -2
100
AcDbLine
 10
9.08035603629658
 20
12.87785649649167
 30
0.0
 11
6.066096296503879
 21
12.87785649649167
 31
0.0
  0
LINE
  5
71EE
330
4143
100
AcDbEntity
  8
DIM
 62
     0
370
    -2
100
AcDbLine
 10
6.438096296503879
 20
14.58935649649165
 30
0.0
 11
6.438096296503879
 21
15.30935649649165
 31
0.0
  0
LINE
  5
71EF
330
4143
100
AcDbEntity
  8
DIM
 62
     0
370
    -2
100
AcDbLine
 10
6.438096296503879
 20
12.15785649649167
 30
0.0
 11
6.438096296503879
 21
11.43785649649167
 31
0.0
  0
SOLID
  5
71F0
330
4143
100
AcDbEntity
  8
DIM
 62
     0
100
AcDbTrace
 10
6.318096296503879
 20
14.58935649649165
 30
0.0
 11
6.55809629650388
 21
14.58935649649165
 31
0.0
 12
6.438096296503879
 22
13.86935649649165
 32
0.0
 13
6.438096296503879
 23
13.86935649649165
 33
0.0
  0
SOLID
  5
71F1
330
4143
100
AcDbEntity
  8
DIM
 62
     0
100
AcDbTrace
 10
6.318096296503878
 20
12.15785649649167
 30
0.0
 11
6.558096296503879
 21
12.15785649649167
 31
0.0
 12
6.438096296503879
 22
12.87785649649167
 32
0.0
 13
6.438096296503879
 23
12.87785649649167
 33
0.0
  0
MTEXT
  5
71F2
330
4143
100
AcDbEntity
  8
DIM
 62
     0
100
AcDbMText
 10
6.438096296503877
 20
13.37360649649166
 30
0.0
 40
0.5
 41
0.0
 71
     5
 72
     1
  1
\A1;0.992
 73
     1
 44
1.0
  0
POINT
  5
71F3
330
4143
100
AcDbEntity
  8
DEFPOINTS
 62
     0
100
AcDbPoint
 10
9.33235603629658
 20
13.86935649649165
 30
0.0
  0
POINT
  5
71F4
330
4143
100
AcDbEntity
  8
DEFPOINTS
 62
     0
100
AcDbPoint
 10
9.33235603629658
 20
12.87785649649167
 30
0.0
  0
POINT
  5
71F5
330
4143
100
AcDbEntity
  8
DEFPOINTS
 62
     0
100
AcDbPoint
 10
6.438096296503879
 20
12.87785649649167
 30
0.0
  0
ENDBLK
  5
414F
330
4143
100
AcDbEntity
  8
0
100
AcDbBlockEnd
  0
BLOCK
  5
415C
330
4151
100
AcDbEntity
  8
0
100
AcDbBlockBegin
  2
*D23
 70
     1
 10
0.0
 20
0.0
 30
0.0
  3
*D23
  1

  0
LINE
  5
7214
330
4151
100
AcDbEntity
  8
DIM
 62
     0
370
    -2
100
AcDbLine
 10
8.922856036296588
 20
18.78935649649165
 30
0.0
 11
2.852453695803362
 21
18.78935649649166
 31
0.0
  0
LINE
  5
7215
330
4151
100
AcDbEntity
  8
DIM
 62
     0
370
    -2
100
AcDbLine
 10
9.08035603629658
 20
17.01935649649165
 30
0.0
 11
2.852453695803362
 21
17.01935649649166
 31
0.0
  0
LINE
  5
7216
330
4151
100
AcDbEntity
  8
DIM
 62
     0
370
    -2
100
AcDbLine
 10
3.224453695803362
 20
19.50935649649166
 30
0.0
 11
3.224453695803362
 21
20.22935649649166
 31
0.0
  0
LINE
  5
7217
330
4151
100
AcDbEntity
  8
DIM
 62
     0
370
    -2
100
AcDbLine
 10
3.224453695803361
 20
16.29935649649166
 30
0.0
 11
3.224453695803361
 21
15.57935649649166
 31
0.0
  0
SOLID
  5
7218
330
4151
100
AcDbEntity
  8
DIM
 62
     0
100
AcDbTrace
 10
3.104453695803362
 20
19.50935649649166
 30
0.0
 11
3.344453695803362
 21
19.50935649649166
 31
0.0
 12
3.224453695803362
 22
18.78935649649166
 32
0.0
 13
3.224453695803362
 23
18.78935649649166
 33
0.0
  0
SOLID
  5
7219
330
4151
100
AcDbEntity
  8
DIM
 62
     0
100
AcDbTrace
 10
3.104453695803361
 20
16.29935649649166
 30
0.0
 11
3.344453695803361
 21
16.29935649649166
 31
0.0
 12
3.224453695803362
 22
17.01935649649166
 32
0.0
 13
3.224453695803362
 23
17.01935649649166
 33
0.0
  0
MTEXT
  5
721A
330
4151
100
AcDbEntity
  8
DIM
 62
     0
100
AcDbMText
 10
3.224453695803358
 20
17.90435649649166
 30
0.0
 40
0.5
 41
0.0
 71
     5
 72
     1
  1
\A1;1.770
 73
     1
 44
1.0
  0
POINT
  5
721B
330
4151
100
AcDbEntity
  8
DEFPOINTS
 62
     0
100
AcDbPoint
 10
9.174856036296588
 20
18.78935649649165
 30
0.0
  0
POINT
  5
721C
330
4151
100
AcDbEntity
  8
DEFPOINTS
 62
     0
100
AcDbPoint
 10
9.33235603629658
 20
17.01935649649165
 30
0.0
  0
POINT
  5
721D
330
4151
100
AcDbEntity
  8
DEFPOINTS
 62
     0
100
AcDbPoint
 10
3.224453695803362
 20
17.01935649649166
 30
0.0
  0
ENDBLK
  5
415D
330
4151
100
AcDbEntity
  8
0
100
AcDbBlockEnd
  0
BLOCK
  5
416A
330
415F
100
AcDbEntity
  8
0
100
AcDbBlockBegin
  2
*D24
 70
     1
 10
0.0
 20
0.0
 30
0.0
  3
*D24
  1

  0
LINE
  5
723C
330
415F
100
AcDbEntity
  8
DIM
 62
     0
370
    -2
100
AcDbLine
 10
9.08035603629658
 20
20.55935649649165
 30
0.0
 11
6.935356036296602
 21
20.55935649649166
 31
0.0
  0
LINE
  5
723D
330
415F
100
AcDbEntity
  8
DIM
 62
     0
370
    -2
100
AcDbLine
 10
9.08035603629658
 20
22.13435649649166
 30
0.0
 11
6.935356036296603
 21
22.13435649649166
 31
0.0
  0
LINE
  5
723E
330
415F
100
AcDbEntity
  8
DIM
 62
     0
370
    -2
100
AcDbLine
 10
7.307356036296602
 20
19.83935649649166
 30
0.0
 11
7.307356036296602
 21
19.11935649649166
 31
0.0
  0
LINE
  5
723F
330
415F
100
AcDbEntity
  8
DIM
 62
     0
370
    -2
100
AcDbLine
 10
7.307356036296603
 20
22.85435649649166
 30
0.0
 11
7.307356036296603
 21
23.57435649649166
 31
0.0
  0
SOLID
  5
7240
330
415F
100
AcDbEntity
  8
DIM
 62
     0
100
AcDbTrace
 10
7.187356036296602
 20
19.83935649649166
 30
0.0
 11
7.427356036296602
 21
19.83935649649166
 31
0.0
 12
7.307356036296602
 22
20.55935649649166
 32
0.0
 13
7.307356036296602
 23
20.55935649649166
 33
0.0
  0
SOLID
  5
7241
330
415F
100
AcDbEntity
  8
DIM
 62
     0
100
AcDbTrace
 10
7.187356036296603
 20
22.85435649649166
 30
0.0
 11
7.427356036296603
 21
22.85435649649166
 31
0.0
 12
7.307356036296603
 22
22.13435649649166
 32
0.0
 13
7.307356036296603
 23
22.13435649649166
 33
0.0
  0
MTEXT
  5
7242
330
415F
100
AcDbEntity
  8
DIM
 62
     0
100
AcDbMText
 10
7.307356036296599
 20
21.34685649649166
 30
0.0
 40
0.5
 41
0.0
 71
     5
 72
     1
  1
\A1;1.575
 73
     1
 44
1.0
  0
POINT
  5
7243
330
415F
100
AcDbEntity
  8
DEFPOINTS
 62
     0
100
AcDbPoint
 10
9.33235603629658
 20
20.55935649649165
 30
0.0
  0
POINT
  5
7244
330
415F
100
AcDbEntity
  8
DEFPOINTS
 62
     0
100
AcDbPoint
 10
9.33235603629658
 20
22.13435649649166
 30
0.0
  0
POINT
  5
7245
330
415F
100
AcDbEntity
  8
DEFPOINTS
 62
     0
100
AcDbPoint
 10
7.307356036296603
 20
22.13435649649166
 30
0.0
  0
ENDBLK
  5
416B
330
415F
100
AcDbEntity
  8
0
100
AcDbBlockEnd
  0
BLOCK
  5
4178
330
416D
100
AcDbEntity
  8
0
100
AcDbBlockBegin
  2
*D25
 70
     1
 10
0.0
 20
0.0
 30
0.0
  3
*D25
  1

  0
LINE
  5
7232
330
416D
100
AcDbEntity
  8
DIM
 62
     0
370
    -2
100
AcDbLine
 10
9.08035603629658
 20
20.55935649649165
 30
0.0
 11
4.817997662886976
 21
20.55935649649166
 31
0.0
  0
LINE
  5
7233
330
416D
100
AcDbEntity
  8
DIM
 62
     0
370
    -2
100
AcDbLine
 10
9.08035603629658
 20
23.70935649649166
 30
0.0
 11
4.817997662886977
 21
23.70935649649166
 31
0.0
  0
LINE
  5
7234
330
416D
100
AcDbEntity
  8
DIM
 62
     0
370
    -2
100
AcDbLine
 10
5.189997662886976
 20
21.27935649649166
 30
0.0
 11
5.189997662886976
 21
21.52435649649166
 31
0.0
  0
LINE
  5
7235
330
416D
100
AcDbEntity
  8
DIM
 62
     0
370
    -2
100
AcDbLine
 10
5.189997662886977
 20
22.98935649649166
 30
0.0
 11
5.189997662886977
 21
22.74435649649166
 31
0.0
  0
SOLID
  5
7236
330
416D
100
AcDbEntity
  8
DIM
 62
     0
100
AcDbTrace
 10
5.069997662886976
 20
21.27935649649166
 30
0.0
 11
5.309997662886976
 21
21.27935649649166
 31
0.0
 12
5.189997662886976
 22
20.55935649649166
 32
0.0
 13
5.189997662886976
 23
20.55935649649166
 33
0.0
  0
SOLID
  5
7237
330
416D
100
AcDbEntity
  8
DIM
 62
     0
100
AcDbTrace
 10
5.069997662886977
 20
22.98935649649166
 30
0.0
 11
5.309997662886977
 21
22.98935649649166
 31
0.0
 12
5.189997662886977
 22
23.70935649649166
 32
0.0
 13
5.189997662886977
 23
23.70935649649166
 33
0.0
  0
MTEXT
  5
7238
330
416D
100
AcDbEntity
  8
DIM
 62
     0
100
AcDbMText
 10
5.189997662886973
 20
22.13435649649166
 30
0.0
 40
0.5
 41
0.0
 71
     5
 72
     1
  1
\A1;3.150
 73
     1
 44
1.0
  0
POINT
  5
7239
330
416D
100
AcDbEntity
  8
DEFPOINTS
 62
     0
100
AcDbPoint
 10
9.33235603629658
 20
20.55935649649165
 30
0.0
  0
POINT
  5
723A
330
416D
100
AcDbEntity
  8
DEFPOINTS
 62
     0
100
AcDbPoint
 10
9.33235603629658
 20
23.70935649649166
 30
0.0
  0
POINT
  5
723B
330
416D
100
AcDbEntity
  8
DEFPOINTS
 62
     0
100
AcDbPoint
 10
5.189997662886977
 20
23.70935649649166
 30
0.0
  0
ENDBLK
  5
4179
330
416D
100
AcDbEntity
  8
0
100
AcDbBlockEnd
  0
BLOCK
  5
4185
330
417B
100
AcDbEntity
  8
0
100
AcDbBlockBegin
  2
*D26
 70
     1
 10
0.0
 20
0.0
 30
0.0
  3
*D26
  1

  0
LINE
  5
720A
330
417B
100
AcDbEntity
  8
DIM
 62
     0
370
    -2
100
AcDbLine
 10
9.08035603629658
 20
17.01935649649165
 30
0.0
 11
1.17947034969306
 21
17.01935649649166
 31
0.0
  0
LINE
  5
720B
330
417B
100
AcDbEntity
  8
DIM
 62
     0
370
    -2
100
AcDbLine
 10
9.08035603629658
 20
20.55935649649165
 30
0.0
 11
1.179470349693061
 21
20.55935649649166
 31
0.0
  0
LINE
  5
720C
330
417B
100
AcDbEntity
  8
DIM
 62
     0
370
    -2
100
AcDbLine
 10
1.551470349693061
 20
17.73935649649166
 30
0.0
 11
1.551470349693061
 21
18.17935649649166
 31
0.0
  0
LINE
  5
720D
330
417B
100
AcDbEntity
  8
DIM
 62
     0
370
    -2
100
AcDbLine
 10
1.551470349693062
 20
19.83935649649166
 30
0.0
 11
1.551470349693061
 21
19.39935649649166
 31
0.0
  0
SOLID
  5
720E
330
417B
100
AcDbEntity
  8
DIM
 62
     0
100
AcDbTrace
 10
1.431470349693061
 20
17.73935649649166
 30
0.0
 11
1.671470349693061
 21
17.73935649649166
 31
0.0
 12
1.551470349693061
 22
17.01935649649166
 32
0.0
 13
1.551470349693061
 23
17.01935649649166
 33
0.0
  0
SOLID
  5
720F
330
417B
100
AcDbEntity
  8
DIM
 62
     0
100
AcDbTrace
 10
1.431470349693062
 20
19.83935649649166
 30
0.0
 11
1.671470349693061
 21
19.83935649649166
 31
0.0
 12
1.551470349693062
 22
20.55935649649166
 32
0.0
 13
1.551470349693062
 23
20.55935649649166
 33
0.0
  0
MTEXT
  5
7210
330
417B
100
AcDbEntity
  8
DIM
 62
     0
100
AcDbMText
 10
1.551470349693058
 20
18.78935649649166
 30
0.0
 40
0.5
 41
0.0
 71
     5
 72
     1
  1
\A1;3.540
 73
     1
 44
1.0
  0
POINT
  5
7211
330
417B
100
AcDbEntity
  8
DEFPOINTS
 62
     0
100
AcDbPoint
 10
9.33235603629658
 20
17.01935649649165
 30
0.0
  0
POINT
  5
7212
330
417B
100
AcDbEntity
  8
DEFPOINTS
 62
     0
100
AcDbPoint
 10
9.33235603629658
 20
20.55935649649165
 30
0.0
  0
POINT
  5
7213
330
417B
100
AcDbEntity
  8
DEFPOINTS
 62
     0
100
AcDbPoint
 10
1.551470349693062
 20
20.55935649649166
 30
0.0
  0
ENDBLK
  5
4186
330
417B
100
AcDbEntity
  8
0
100
AcDbBlockEnd
  0
BLOCK
  5
4193
330
4188
100
AcDbEntity
  8
0
100
AcDbBlockBegin
  2
*D27
 70
     1
 10
0.0
 20
0.0
 30
0.0
  3
*D27
  1

  0
LINE
  5
7228
330
4188
100
AcDbEntity
  8
DIM
 62
     0
370
    -2
100
AcDbLine
 10
9.08035603629658
 20
23.70935649649166
 30
0.0
 11
6.066096296503886
 21
23.70935649649166
 31
0.0
  0
LINE
  5
7229
330
4188
100
AcDbEntity
  8
DIM
 62
     0
370
    -2
100
AcDbLine
 10
9.08035603629658
 20
24.70085649649165
 30
0.0
 11
6.066096296503886
 21
24.70085649649166
 31
0.0
  0
LINE
  5
722A
330
4188
100
AcDbEntity
  8
DIM
 62
     0
370
    -2
100
AcDbLine
 10
6.438096296503886
 20
22.98935649649166
 30
0.0
 11
6.438096296503886
 21
22.26935649649166
 31
0.0
  0
LINE
  5
722B
330
4188
100
AcDbEntity
  8
DIM
 62
     0
370
    -2
100
AcDbLine
 10
6.438096296503886
 20
25.42085649649166
 30
0.0
 11
6.438096296503887
 21
26.14085649649166
 31
0.0
  0
SOLID
  5
722C
330
4188
100
AcDbEntity
  8
DIM
 62
     0
100
AcDbTrace
 10
6.318096296503886
 20
22.98935649649166
 30
0.0
 11
6.558096296503886
 21
22.98935649649166
 31
0.0
 12
6.438096296503886
 22
23.70935649649166
 32
0.0
 13
6.438096296503886
 23
23.70935649649166
 33
0.0
  0
SOLID
  5
722D
330
4188
100
AcDbEntity
  8
DIM
 62
     0
100
AcDbTrace
 10
6.318096296503886
 20
25.42085649649166
 30
0.0
 11
6.558096296503886
 21
25.42085649649166
 31
0.0
 12
6.438096296503886
 22
24.70085649649166
 32
0.0
 13
6.438096296503886
 23
24.70085649649166
 33
0.0
  0
MTEXT
  5
722E
330
4188
100
AcDbEntity
  8
DIM
 62
     0
100
AcDbMText
 10
6.438096296503882
 20
24.20510649649166
 30
0.0
 40
0.5
 41
0.0
 71
     5
 72
     1
  1
\A1;0.992
 73
     1
 44
1.0
  0
POINT
  5
722F
330
4188
100
AcDbEntity
  8
DEFPOINTS
 62
     0
100
AcDbPoint
 10
9.33235603629658
 20
23.70935649649166
 30
0.0
  0
POINT
  5
7230
330
4188
100
AcDbEntity
  8
DEFPOINTS
 62
     0
100
AcDbPoint
 10
9.33235603629658
 20
24.70085649649165
 30
0.0
  0
POINT
  5
7231
330
4188
100
AcDbEntity
  8
DEFPOINTS
 62
     0
100
AcDbPoint
 10
6.438096296503886
 20
24.70085649649166
 30
0.0
  0
ENDBLK
  5
4194
330
4188
100
AcDbEntity
  8
0
100
AcDbBlockEnd
  0
BLOCK
  5
41AF
330
41A4
100
AcDbEntity
  8
0
100
AcDbBlockBegin
  2
*D28
 70
     1
 10
0.0
 20
0.0
 30
0.0
  3
*D28
  1

  0
LINE
  5
7250
330
41A4
100
AcDbEntity
  8
DIM
 62
     0
370
    -2
100
AcDbLine
 10
9.545356036296603
 20
19.04135649649164
 30
0.0
 11
9.545356036296603
 21
19.94759480088817
 31
0.0
  0
LINE
  5
7251
330
41A4
100
AcDbEntity
  8
DIM
 62
     0
370
    -2
100
AcDbLine
 10
15.89035603629659
 20
19.04135649649164
 30
0.0
 11
15.89035603629659
 21
19.94759480088817
 31
0.0
  0
LINE
  5
7252
330
41A4
100
AcDbEntity
  8
DIM
 62
     0
370
    -2
100
AcDbLine
 10
10.2653560362966
 20
19.57559480088818
 30
0.0
 11
11.60785603629659
 21
19.57559480088818
 31
0.0
  0
LINE
  5
7253
330
41A4
100
AcDbEntity
  8
DIM
 62
     0
370
    -2
100
AcDbLine
 10
15.17035603629659
 20
19.57559480088818
 30
0.0
 11
13.82785603629659
 21
19.57559480088818
 31
0.0
  0
SOLID
  5
7254
330
41A4
100
AcDbEntity
  8
DIM
 62
     0
100
AcDbTrace
 10
10.2653560362966
 20
19.69559480088818
 30
0.0
 11
10.2653560362966
 21
19.45559480088817
 31
0.0
 12
9.545356036296603
 22
19.57559480088818
 32
0.0
 13
9.545356036296603
 23
19.57559480088818
 33
0.0
  0
SOLID
  5
7255
330
41A4
100
AcDbEntity
  8
DIM
 62
     0
100
AcDbTrace
 10
15.17035603629659
 20
19.69559480088818
 30
0.0
 11
15.17035603629659
 21
19.45559480088817
 31
0.0
 12
15.89035603629659
 22
19.57559480088818
 32
0.0
 13
15.89035603629659
 23
19.57559480088818
 33
0.0
  0
MTEXT
  5
7256
330
41A4
100
AcDbEntity
  8
DIM
 62
     0
100
AcDbMText
 10
12.71785603629659
 20
19.57559480088818
 30
0.0
 40
0.5
 41
0.0
 71
     5
 72
     1
  1
\A1;6.345
 73
     1
 44
1.0
  0
POINT
  5
7257
330
41A4
100
AcDbEntity
  8
DEFPOINTS
 62
     0
100
AcDbPoint
 10
9.545356036296603
 20
18.78935649649164
 30
0.0
  0
POINT
  5
7258
330
41A4
100
AcDbEntity
  8
DEFPOINTS
 62
     0
100
AcDbPoint
 10
15.89035603629659
 20
18.78935649649164
 30
0.0
  0
POINT
  5
7259
330
41A4
100
AcDbEntity
  8
DEFPOINTS
 62
     0
100
AcDbPoint
 10
15.89035603629659
 20
19.57559480088818
 30
0.0
  0
ENDBLK
  5
41B0
330
41A4
100
AcDbEntity
  8
0
100
AcDbBlockEnd
  0
BLOCK
  5
41BD
330
41B2
100
AcDbEntity
  8
0
100
AcDbBlockBegin
  2
*D29
 70
     1
 10
0.0
 20
0.0
 30
0.0
  3
*D29
  1

  0
LINE
  5
71E2
330
41B2
100
AcDbEntity
  8
DIM
 62
     0
370
    -2
100
AcDbLine
 10
16.00885603629659
 20
18.78935649649165
 30
0.0
 11
14.52693044025138
 21
18.78935649649165
 31
0.0
  0
LINE
  5
71E3
330
41B2
100
AcDbEntity
  8
DIM
 62
     0
370
    -2
100
AcDbLine
 10
14.54485603629659
 20
12.30635649649166
 30
0.0
 11
15.27093044025138
 21
12.30635649649166
 31
0.0
  0
LINE
  5
71E4
330
41B2
100
AcDbEntity
  8
DIM
 62
     0
370
    -2
100
AcDbLine
 10
14.89893044025137
 20
18.06935649649166
 30
0.0
 11
14.89893044025137
 21
16.15785649649166
 31
0.0
  0
LINE
  5
71E5
330
41B2
100
AcDbEntity
  8
DIM
 62
     0
370
    -2
100
AcDbLine
 10
14.89893044025137
 20
13.02635649649166
 30
0.0
 11
14.89893044025137
 21
14.93785649649166
 31
0.0
  0
SOLID
  5
71E6
330
41B2
100
AcDbEntity
  8
DIM
 62
     0
100
AcDbTrace
 10
14.77893044025138
 20
18.06935649649166
 30
0.0
 11
15.01893044025137
 21
18.06935649649166
 31
0.0
 12
14.89893044025137
 22
18.78935649649165
 32
0.0
 13
14.89893044025137
 23
18.78935649649165
 33
0.0
  0
SOLID
  5
71E7
330
41B2
100
AcDbEntity
  8
DIM
 62
     0
100
AcDbTrace
 10
14.77893044025138
 20
13.02635649649166
 30
0.0
 11
15.01893044025137
 21
13.02635649649166
 31
0.0
 12
14.89893044025137
 22
12.30635649649166
 32
0.0
 13
14.89893044025137
 23
12.30635649649166
 33
0.0
  0
MTEXT
  5
71E8
330
41B2
100
AcDbEntity
  8
DIM
 62
     0
100
AcDbMText
 10
14.89893044025137
 20
15.54785649649167
 30
0.0
 40
0.5
 41
0.0
 71
     5
 72
     1
  1
\A1;6.483
 73
     1
 44
1.0
  0
POINT
  5
71E9
330
41B2
100
AcDbEntity
  8
DEFPOINTS
 62
     0
100
AcDbPoint
 10
16.26085603629659
 20
18.78935649649165
 30
0.0
  0
POINT
  5
71EA
330
41B2
100
AcDbEntity
  8
DEFPOINTS
 62
     0
100
AcDbPoint
 10
14.29285603629659
 20
12.30635649649166
 30
0.0
  0
POINT
  5
71EB
330
41B2
100
AcDbEntity
  8
DEFPOINTS
 62
     0
100
AcDbPoint
 10
14.89893044025137
 20
12.30635649649166
 30
0.0
  0
ENDBLK
  5
41BE
330
41B2
100
AcDbEntity
  8
0
100
AcDbBlockEnd
  0
BLOCK
  5
41CB
330
41C0
100
AcDbEntity
  8
0
100
AcDbBlockBegin
  2
*D30
 70
     1
 10
0.0
 20
0.0
 30
0.0
  3
*D30
  1

  0
LINE
  5
71D8
330
41C0
100
AcDbEntity
  8
DIM
 62
     0
370
    -2
100
AcDbLine
 10
12.46585603629658
 20
12.30635649649166
 30
0.0
 11
11.45550626875346
 21
12.30635649649166
 31
0.0
  0
LINE
  5
71D9
330
41C0
100
AcDbEntity
  8
DIM
 62
     0
370
    -2
100
AcDbLine
 10
12.46585603629658
 20
25.27235649649167
 30
0.0
 11
11.45550626875346
 21
25.27235649649167
 31
0.0
  0
LINE
  5
71DA
330
41C0
100
AcDbEntity
  8
DIM
 62
     0
370
    -2
100
AcDbLine
 10
11.82750626875346
 20
13.02635649649166
 30
0.0
 11
11.82750626875346
 21
16.34935649649166
 31
0.0
  0
LINE
  5
71DB
330
41C0
100
AcDbEntity
  8
DIM
 62
     0
370
    -2
100
AcDbLine
 10
11.82750626875346
 20
24.55235649649167
 30
0.0
 11
11.82750626875346
 21
17.56935649649166
 31
0.0
  0
SOLID
  5
71DC
330
41C0
100
AcDbEntity
  8
DIM
 62
     0
100
AcDbTrace
 10
11.70750626875346
 20
13.02635649649166
 30
0.0
 11
11.94750626875346
 21
13.02635649649166
 31
0.0
 12
11.82750626875346
 22
12.30635649649166
 32
0.0
 13
11.82750626875346
 23
12.30635649649166
 33
0.0
  0
SOLID
  5
71DD
330
41C0
100
AcDbEntity
  8
DIM
 62
     0
100
AcDbTrace
 10
11.70750626875346
 20
24.55235649649167
 30
0.0
 11
11.94750626875346
 21
24.55235649649167
 31
0.0
 12
11.82750626875346
 22
25.27235649649167
 32
0.0
 13
11.82750626875346
 23
25.27235649649167
 33
0.0
  0
MTEXT
  5
71DE
330
41C0
100
AcDbEntity
  8
DIM
 62
     0
100
AcDbMText
 10
11.82750626875346
 20
16.95935649649166
 30
0.0
 40
0.5
 41
0.0
 71
     5
 72
     1
  1
\A1;12.966
 73
     1
 44
1.0
  0
POINT
  5
71DF
330
41C0
100
AcDbEntity
  8
DEFPOINTS
 62
     0
100
AcDbPoint
 10
12.71785603629658
 20
12.30635649649166
 30
0.0
  0
POINT
  5
71E0
330
41C0
100
AcDbEntity
  8
DEFPOINTS
 62
     0
100
AcDbPoint
 10
12.71785603629658
 20
25.27235649649167
 30
0.0
  0
POINT
  5
71E1
330
41C0
100
AcDbEntity
  8
DEFPOINTS
 62
     0
100
AcDbPoint
 10
11.82750626875346
 20
25.27235649649167
 30
0.0
  0
ENDBLK
  5
41CC
330
41C0
100
AcDbEntity
  8
0
100
AcDbBlockEnd
  0
BLOCK
  5
41D9
330
41CE
100
AcDbEntity
  8
0
100
AcDbBlockBegin
  2
*D31
 70
     1
 10
0.0
 20
0.0
 30
0.0
  3
*D31
  1

  0
LINE
  5
71CE
330
41CE
100
AcDbEntity
  8
DIM
 62
     0
370
    -2
100
AcDbLine
 10
9.996356036296617
 20
12.26435649649173
 30
0.0
 11
9.996356036296617
 21
13.80464103492806
 31
0.0
  0
LINE
  5
71CF
330
41CE
100
AcDbEntity
  8
DIM
 62
     0
370
    -2
100
AcDbLine
 10
15.43935603629658
 20
12.26435649649173
 30
0.0
 11
15.43935603629658
 21
13.80464103492806
 31
0.0
  0
LINE
  5
71D0
330
41CE
100
AcDbEntity
  8
DIM
 62
     0
370
    -2
100
AcDbLine
 10
10.71635603629661
 20
13.43264103492806
 30
0.0
 11
11.60785603629659
 21
13.43264103492806
 31
0.0
  0
LINE
  5
71D1
330
41CE
100
AcDbEntity
  8
DIM
 62
     0
370
    -2
100
AcDbLine
 10
14.71935603629658
 20
13.43264103492806
 30
0.0
 11
13.82785603629659
 21
13.43264103492806
 31
0.0
  0
SOLID
  5
71D2
330
41CE
100
AcDbEntity
  8
DIM
 62
     0
100
AcDbTrace
 10
10.71635603629661
 20
13.55264103492806
 30
0.0
 11
10.71635603629661
 21
13.31264103492806
 31
0.0
 12
9.996356036296617
 22
13.43264103492806
 32
0.0
 13
9.996356036296617
 23
13.43264103492806
 33
0.0
  0
SOLID
  5
71D3
330
41CE
100
AcDbEntity
  8
DIM
 62
     0
100
AcDbTrace
 10
14.71935603629658
 20
13.55264103492806
 30
0.0
 11
14.71935603629658
 21
13.31264103492806
 31
0.0
 12
15.43935603629658
 22
13.43264103492806
 32
0.0
 13
15.43935603629658
 23
13.43264103492806
 33
0.0
  0
MTEXT
  5
71D4
330
41CE
100
AcDbEntity
  8
DIM
 62
     0
100
AcDbMText
 10
12.71785603629659
 20
13.43264103492806
 30
0.0
 40
0.5
 41
0.0
 71
     5
 72
     1
  1
\A1;5.443
 73
     1
 44
1.0
  0
POINT
  5
71D5
330
41CE
100
AcDbEntity
  8
DEFPOINTS
 62
     0
100
AcDbPoint
 10
9.996356036296617
 20
12.01235649649173
 30
0.0
  0
POINT
  5
71D6
330
41CE
100
AcDbEntity
  8
DEFPOINTS
 62
     0
100
AcDbPoint
 10
15.43935603629658
 20
12.01235649649173
 30
0.0
  0
POINT
  5
71D7
330
41CE
100
AcDbEntity
  8
DEFPOINTS
 62
     0
100
AcDbPoint
 10
15.43935603629658
 20
13.43264103492806
 30
0.0
  0
ENDBLK
  5
41DA
330
41CE
100
AcDbEntity
  8
0
100
AcDbBlockEnd
  0
BLOCK
  5
41E7
330
41DC
100
AcDbEntity
  8
0
100
AcDbBlockBegin
  2
*D32
 70
     1
 10
0.0
 20
0.0
 30
0.0
  3
*D32
  1

  0
LINE
  5
7246
330
41DC
100
AcDbEntity
  8
DIM
 62
     0
370
    -2
100
AcDbLine
 10
8.95735603629658
 20
21.70230760825191
 30
0.0
 11
8.95735603629658
 21
22.07430760825191
 31
0.0
  0
LINE
  5
7247
330
41DC
100
AcDbEntity
  8
DIM
 62
     0
370
    -2
100
AcDbLine
 10
16.47835603629661
 20
21.70230760825191
 30
0.0
 11
16.47835603629661
 21
22.07430760825191
 31
0.0
  0
LINE
  5
7248
330
41DC
100
AcDbEntity
  8
DIM
 62
     0
370
    -2
100
AcDbLine
 10
9.677356036296581
 20
21.70230760825191
 30
0.0
 11
11.67035603629659
 21
21.70230760825191
 31
0.0
  0
LINE
  5
7249
330
41DC
100
AcDbEntity
  8
DIM
 62
     0
370
    -2
100
AcDbLine
 10
15.75835603629661
 20
21.70230760825191
 30
0.0
 11
13.76535603629659
 21
21.70230760825191
 31
0.0
  0
SOLID
  5
724A
330
41DC
100
AcDbEntity
  8
DIM
 62
     0
100
AcDbTrace
 10
9.677356036296581
 20
21.82230760825191
 30
0.0
 11
9.677356036296581
 21
21.58230760825191
 31
0.0
 12
8.95735603629658
 22
21.70230760825191
 32
0.0
 13
8.95735603629658
 23
21.70230760825191
 33
0.0
  0
SOLID
  5
724B
330
41DC
100
AcDbEntity
  8
DIM
 62
     0
100
AcDbTrace
 10
15.75835603629661
 20
21.82230760825191
 30
0.0
 11
15.75835603629661
 21
21.58230760825191
 31
0.0
 12
16.47835603629661
 22
21.70230760825191
 32
0.0
 13
16.47835603629661
 23
21.70230760825191
 33
0.0
  0
MTEXT
  5
724C
330
41DC
100
AcDbEntity
  8
DIM
 62
     0
100
AcDbMText
 10
12.71785603629659
 20
21.70230760825191
 30
0.0
 40
0.5
 41
0.0
 71
     5
 72
     1
  1
\A1;7.521
 73
     1
 44
1.0
  0
POINT
  5
724D
330
41DC
100
AcDbEntity
  8
DEFPOINTS
 62
     0
100
AcDbPoint
 10
8.95735603629658
 20
21.45030760825191
 30
0.0
  0
POINT
  5
724E
330
41DC
100
AcDbEntity
  8
DEFPOINTS
 62
     0
100
AcDbPoint
 10
16.47835603629661
 20
21.45030760825191
 30
0.0
  0
POINT
  5
724F
330
41DC
100
AcDbEntity
  8
DEFPOINTS
 62
     0
100
AcDbPoint
 10
16.47835603629661
 20
21.70230760825191
 30
0.0
  0
ENDBLK
  5
41E8
330
41DC
100
AcDbEntity
  8
0
100
AcDbBlockEnd
  0
BLOCK
  5
429C
330
4291
100
AcDbEntity
  8
0
100
AcDbBlockBegin
  2
*D33
 70
     1
 10
0.0
 20
0.0
 30
0.0
  3
*D33
  1

  0
LINE
  5
72E8
330
4291
100
AcDbEntity
  8
DIM
 62
     0
370
    -2
100
AcDbLine
 10
29.54134394604251
 20
11.55335649649168
 30
0.0
 11
29.54134394604251
 21
10.51034714468787
 31
0.0
  0
LINE
  5
72E9
330
4291
100
AcDbEntity
  8
DIM
 62
     0
370
    -2
100
AcDbLine
 10
29.85534394604251
 20
11.53535649649168
 30
0.0
 11
29.85534394604251
 21
10.51034714468787
 31
0.0
  0
LINE
  5
72EA
330
4291
100
AcDbEntity
  8
DIM
 62
     0
370
    -2
100
AcDbLine
 10
28.82134394604252
 20
10.88234714468787
 30
0.0
 11
28.10134394604251
 21
10.88234714468787
 31
0.0
  0
LINE
  5
72EB
330
4291
100
AcDbEntity
  8
DIM
 62
     0
370
    -2
100
AcDbLine
 10
30.57534394604251
 20
10.88234714468787
 30
0.0
 11
31.29534394604251
 21
10.88234714468787
 31
0.0
  0
SOLID
  5
72EC
330
4291
100
AcDbEntity
  8
DIM
 62
     0
100
AcDbTrace
 10
28.82134394604252
 20
11.00234714468787
 30
0.0
 11
28.82134394604252
 21
10.76234714468787
 31
0.0
 12
29.54134394604251
 22
10.88234714468787
 32
0.0
 13
29.54134394604251
 23
10.88234714468787
 33
0.0
  0
SOLID
  5
72ED
330
4291
100
AcDbEntity
  8
DIM
 62
     0
100
AcDbTrace
 10
30.57534394604251
 20
11.00234714468787
 30
0.0
 11
30.57534394604251
 21
10.76234714468787
 31
0.0
 12
29.85534394604251
 22
10.88234714468787
 32
0.0
 13
29.85534394604251
 23
10.88234714468787
 33
0.0
  0
MTEXT
  5
72EE
330
4291
100
AcDbEntity
  8
DIM
 62
     0
100
AcDbMText
 10
32.31159394604251
 20
10.88234714468787
 30
0.0
 40
0.5
 41
0.0
 71
     5
 72
     1
  1
\A1;0.314
 73
     1
 44
1.0
  0
POINT
  5
72EF
330
4291
100
AcDbEntity
  8
DEFPOINTS
 62
     0
100
AcDbPoint
 10
29.54134394604251
 20
11.80535649649168
 30
0.0
  0
POINT
  5
72F0
330
4291
100
AcDbEntity
  8
DEFPOINTS
 62
     0
100
AcDbPoint
 10
29.85534394604251
 20
11.78735649649168
 30
0.0
  0
POINT
  5
72F1
330
4291
100
AcDbEntity
  8
DEFPOINTS
 62
     0
100
AcDbPoint
 10
29.85534394604251
 20
10.88234714468787
 30
0.0
  0
ENDBLK
  5
429D
330
4291
100
AcDbEntity
  8
0
100
AcDbBlockEnd
  0
BLOCK
  5
42B8
330
42AD
100
AcDbEntity
  8
0
100
AcDbBlockBegin
  2
*D34
 70
     1
 10
0.0
 20
0.0
 30
0.0
  3
*D34
  1

  0
LINE
  5
72F2
330
42AD
100
AcDbEntity
  8
DIM
 62
     0
370
    -2
100
AcDbLine
 10
25.91834394604251
 20
11.49335649649169
 30
0.0
 11
25.91834394604251
 21
9.470212977552197
 31
0.0
  0
LINE
  5
72F3
330
42AD
100
AcDbEntity
  8
DIM
 62
     0
370
    -2
100
AcDbLine
 10
29.85534394604251
 20
11.98885649649169
 30
0.0
 11
29.85534394604251
 21
9.470212977552197
 31
0.0
  0
LINE
  5
72F4
330
42AD
100
AcDbEntity
  8
DIM
 62
     0
370
    -2
100
AcDbLine
 10
26.63834394604251
 20
9.842212977552197
 30
0.0
 11
26.77684394604252
 21
9.842212977552197
 31
0.0
  0
LINE
  5
72F5
330
42AD
100
AcDbEntity
  8
DIM
 62
     0
370
    -2
100
AcDbLine
 10
29.13534394604251
 20
9.842212977552197
 30
0.0
 11
28.99684394604252
 21
9.842212977552197
 31
0.0
  0
SOLID
  5
72F6
330
42AD
100
AcDbEntity
  8
DIM
 62
     0
100
AcDbTrace
 10
26.63834394604251
 20
9.962212977552196
 30
0.0
 11
26.63834394604251
 21
9.722212977552198
 31
0.0
 12
25.91834394604251
 22
9.842212977552197
 32
0.0
 13
25.91834394604251
 23
9.842212977552197
 33
0.0
  0
SOLID
  5
72F7
330
42AD
100
AcDbEntity
  8
DIM
 62
     0
100
AcDbTrace
 10
29.13534394604251
 20
9.962212977552196
 30
0.0
 11
29.13534394604251
 21
9.722212977552198
 31
0.0
 12
29.85534394604251
 22
9.842212977552197
 32
0.0
 13
29.85534394604251
 23
9.842212977552197
 33
0.0
  0
MTEXT
  5
72F8
330
42AD
100
AcDbEntity
  8
DIM
 62
     0
100
AcDbMText
 10
27.88684394604251
 20
9.842212977552197
 30
0.0
 40
0.5
 41
0.0
 71
     5
 72
     1
  1
\A1;3.937
 73
     1
 44
1.0
  0
POINT
  5
72F9
330
42AD
100
AcDbEntity
  8
DEFPOINTS
 62
     0
100
AcDbPoint
 10
25.91834394604251
 20
11.74535649649169
 30
0.0
  0
POINT
  5
72FA
330
42AD
100
AcDbEntity
  8
DEFPOINTS
 62
     0
100
AcDbPoint
 10
29.85534394604251
 20
12.24085649649169
 30
0.0
  0
POINT
  5
72FB
330
42AD
100
AcDbEntity
  8
DEFPOINTS
 62
     0
100
AcDbPoint
 10
29.85534394604251
 20
9.842212977552197
 30
0.0
  0
ENDBLK
  5
42B9
330
42AD
100
AcDbEntity
  8
0
100
AcDbBlockEnd
  0
BLOCK
  5
44B3
330
44A8
100
AcDbEntity
  8
0
100
AcDbBlockBegin
  2
*D35
 70
     1
 10
0.0
 20
0.0
 30
0.0
  3
*D35
  1

  0
LINE
  5
71A5
330
44A8
100
AcDbEntity
  8
DIM
 62
     0
370
    -2
100
AcDbLine
 10
16.51285603629656
 20
18.78935649649164
 30
0.0
 11
21.67429163644098
 21
18.78935649649164
 31
0.0
  0
LINE
  5
71A6
330
44A8
100
AcDbEntity
  8
DIM
 62
     0
370
    -2
100
AcDbLine
 10
16.49185603629652
 20
25.46385649649167
 30
0.0
 11
21.67429163644098
 21
25.46385649649167
 31
0.0
  0
LINE
  5
71A7
330
44A8
100
AcDbEntity
  8
DIM
 62
     0
370
    -2
100
AcDbLine
 10
21.30229163644098
 20
19.50935649649163
 30
0.0
 11
21.30229163644098
 21
21.51660649649165
 31
0.0
  0
LINE
  5
71A8
330
44A8
100
AcDbEntity
  8
DIM
 62
     0
370
    -2
100
AcDbLine
 10
21.30229163644098
 20
24.74385649649167
 30
0.0
 11
21.30229163644098
 21
22.73660649649165
 31
0.0
  0
SOLID
  5
71A9
330
44A8
100
AcDbEntity
  8
DIM
 62
     0
100
AcDbTrace
 10
21.18229163644098
 20
19.50935649649163
 30
0.0
 11
21.42229163644098
 21
19.50935649649163
 31
0.0
 12
21.30229163644098
 22
18.78935649649164
 32
0.0
 13
21.30229163644098
 23
18.78935649649164
 33
0.0
  0
SOLID
  5
71AA
330
44A8
100
AcDbEntity
  8
DIM
 62
     0
100
AcDbTrace
 10
21.18229163644098
 20
24.74385649649167
 30
0.0
 11
21.42229163644098
 21
24.74385649649167
 31
0.0
 12
21.30229163644098
 22
25.46385649649167
 32
0.0
 13
21.30229163644098
 23
25.46385649649167
 33
0.0
  0
MTEXT
  5
71AB
330
44A8
100
AcDbEntity
  8
DIM
 62
     0
100
AcDbMText
 10
21.30229163644097
 20
22.12660649649166
 30
0.0
 40
0.5
 41
0.0
 71
     5
 72
     1
  1
\A1;6.675
 73
     1
 44
1.0
  0
POINT
  5
71AC
330
44A8
100
AcDbEntity
  8
DEFPOINTS
 62
     0
100
AcDbPoint
 10
16.26085603629656
 20
18.78935649649164
 30
0.0
  0
POINT
  5
71AD
330
44A8
100
AcDbEntity
  8
DEFPOINTS
 62
     0
100
AcDbPoint
 10
16.23985603629652
 20
25.46385649649167
 30
0.0
  0
POINT
  5
71AE
330
44A8
100
AcDbEntity
  8
DEFPOINTS
 62
     0
100
AcDbPoint
 10
21.30229163644098
 20
25.46385649649167
 30
0.0
  0
ENDBLK
  5
44B4
330
44A8
100
AcDbEntity
  8
0
100
AcDbBlockEnd
  0
BLOCK
  5
44C1
330
44B6
100
AcDbEntity
  8
0
100
AcDbBlockBegin
  2
*D36
 70
     1
 10
0.0
 20
0.0
 30
0.0
  3
*D36
  1

  0
LINE
  5
719A
330
44B6
100
AcDbEntity
  8
DIM
 62
     0
370
    -2
100
AcDbLine
 10
16.49185603629652
 20
25.46385649649167
 30
0.0
 11
21.67429163644098
 21
25.46385649649167
 31
0.0
  0
LINE
  5
719B
330
44B6
100
AcDbEntity
  8
DIM
 62
     0
370
    -2
100
AcDbLine
 10
16.50685603629653
 20
25.85335649649165
 30
0.0
 11
21.67429163644098
 21
25.85335649649165
 31
0.0
  0
LINE
  5
719C
330
44B6
100
AcDbEntity
  8
DIM
 62
     0
370
    -2
100
AcDbLine
 10
21.30229163644098
 20
24.74385649649167
 30
0.0
 11
21.30229163644098
 21
24.02385649649167
 31
0.0
  0
LINE
  5
719D
330
44B6
100
AcDbEntity
  8
DIM
 62
     0
370
    -2
100
AcDbLine
 10
21.30229163644098
 20
26.57335649649164
 30
0.0
 11
21.30229163644098
 21
27.29335649649165
 31
0.0
  0
LINE
  5
719E
330
44B6
100
AcDbEntity
  8
DIM
 62
     0
370
    -2
100
AcDbLine
 10
21.30229163644098
 20
27.29335649649165
 30
0.0
 11
22.02229163644098
 21
27.29335649649165
 31
0.0
  0
SOLID
  5
719F
330
44B6
100
AcDbEntity
  8
DIM
 62
     0
100
AcDbTrace
 10
21.18229163644098
 20
24.74385649649167
 30
0.0
 11
21.42229163644098
 21
24.74385649649167
 31
0.0
 12
21.30229163644098
 22
25.46385649649167
 32
0.0
 13
21.30229163644098
 23
25.46385649649167
 33
0.0
  0
SOLID
  5
71A0
330
44B6
100
AcDbEntity
  8
DIM
 62
     0
100
AcDbTrace
 10
21.18229163644098
 20
26.57335649649164
 30
0.0
 11
21.42229163644098
 21
26.57335649649164
 31
0.0
 12
21.30229163644098
 22
25.85335649649165
 32
0.0
 13
21.30229163644098
 23
25.85335649649165
 33
0.0
  0
MTEXT
  5
71A1
330
44B6
100
AcDbEntity
  8
DIM
 62
     0
100
AcDbMText
 10
23.06979163644097
 20
27.29335649649165
 30
0.0
 40
0.5
 41
0.0
 71
     5
 72
     1
  1
\A1;0.390
 73
     1
 44
1.0
  0
POINT
  5
71A2
330
44B6
100
AcDbEntity
  8
DEFPOINTS
 62
     0
100
AcDbPoint
 10
16.23985603629652
 20
25.46385649649167
 30
0.0
  0
POINT
  5
71A3
330
44B6
100
AcDbEntity
  8
DEFPOINTS
 62
     0
100
AcDbPoint
 10
16.25485603629653
 20
25.85335649649165
 30
0.0
  0
POINT
  5
71A4
330
44B6
100
AcDbEntity
  8
DEFPOINTS
 62
     0
100
AcDbPoint
 10
21.30229163644098
 20
25.85335649649165
 30
0.0
  0
ENDBLK
  5
44C2
330
44B6
100
AcDbEntity
  8
0
100
AcDbBlockEnd
  0
BLOCK
  5
44DC
330
44D2
100
AcDbEntity
  8
0
100
AcDbBlockBegin
  2
*D37
 70
     1
 10
0.0
 20
0.0
 30
0.0
  3
*D37
  1

  0
LINE
  5
728C
330
44D2
100
AcDbEntity
  8
DIM
 62
     0
370
    -2
100
AcDbLine
 10
15.77885603629659
 20
25.71585649649168
 30
0.0
 11
15.77885603629659
 21
28.96167150862719
 31
0.0
  0
LINE
  5
728D
330
44D2
100
AcDbEntity
  8
DIM
 62
     0
370
    -2
100
AcDbLine
 10
9.656856036296559
 20
25.71585649649166
 30
0.0
 11
9.656856036296559
 21
28.96167150862719
 31
0.0
  0
LINE
  5
728E
330
44D2
100
AcDbEntity
  8
DIM
 62
     0
370
    -2
100
AcDbLine
 10
15.05885603629659
 20
28.58967150862719
 30
0.0
 11
13.76535603629656
 21
28.58967150862719
 31
0.0
  0
LINE
  5
728F
330
44D2
100
AcDbEntity
  8
DIM
 62
     0
370
    -2
100
AcDbLine
 10
10.37685603629656
 20
28.58967150862719
 30
0.0
 11
11.67035603629656
 21
28.58967150862719
 31
0.0
  0
SOLID
  5
7290
330
44D2
100
AcDbEntity
  8
DIM
 62
     0
100
AcDbTrace
 10
15.05885603629659
 20
28.70967150862719
 30
0.0
 11
15.05885603629659
 21
28.46967150862719
 31
0.0
 12
15.77885603629659
 22
28.58967150862719
 32
0.0
 13
15.77885603629659
 23
28.58967150862719
 33
0.0
  0
SOLID
  5
7291
330
44D2
100
AcDbEntity
  8
DIM
 62
     0
100
AcDbTrace
 10
10.37685603629656
 20
28.70967150862719
 30
0.0
 11
10.37685603629656
 21
28.46967150862719
 31
0.0
 12
9.656856036296559
 22
28.58967150862719
 32
0.0
 13
9.656856036296559
 23
28.58967150862719
 33
0.0
  0
MTEXT
  5
7292
330
44D2
100
AcDbEntity
  8
DIM
 62
     0
100
AcDbMText
 10
12.71785603629655
 20
28.58967150862719
 30
0.0
 40
0.5
 41
0.0
 71
     5
 72
     1
  1
\A1;6.122
 73
     1
 44
1.0
  0
POINT
  5
7293
330
44D2
100
AcDbEntity
  8
DEFPOINTS
 62
     0
100
AcDbPoint
 10
15.77885603629659
 20
25.46385649649169
 30
0.0
  0
POINT
  5
7294
330
44D2
100
AcDbEntity
  8
DEFPOINTS
 62
     0
100
AcDbPoint
 10
9.656856036296559
 20
25.46385649649166
 30
0.0
  0
POINT
  5
7295
330
44D2
100
AcDbEntity
  8
DEFPOINTS
 62
     0
100
AcDbPoint
 10
9.656856036296559
 20
28.58967150862719
 30
0.0
  0
ENDBLK
  5
44DD
330
44D2
100
AcDbEntity
  8
0
100
AcDbBlockEnd
  0
BLOCK
  5
44EA
330
44DF
100
AcDbEntity
  8
0
100
AcDbBlockBegin
  2
*D38
 70
     1
 10
0.0
 20
0.0
 30
0.0
  3
*D38
  1

  0
LINE
  5
7282
330
44DF
100
AcDbEntity
  8
DIM
 62
     0
370
    -2
100
AcDbLine
 10
9.656856036296559
 20
25.71585649649166
 30
0.0
 11
9.656856036296559
 21
28.96167150862719
 31
0.0
  0
LINE
  5
7283
330
44DF
100
AcDbEntity
  8
DIM
 62
     0
370
    -2
100
AcDbLine
 10
8.795356036296574
 20
25.73035649649165
 30
0.0
 11
8.795356036296574
 21
28.96167150862719
 31
0.0
  0
LINE
  5
7284
330
44DF
100
AcDbEntity
  8
DIM
 62
     0
370
    -2
100
AcDbLine
 10
10.37685603629656
 20
28.58967150862719
 30
0.0
 11
11.09685603629656
 21
28.58967150862719
 31
0.0
  0
LINE
  5
7285
330
44DF
100
AcDbEntity
  8
DIM
 62
     0
370
    -2
100
AcDbLine
 10
8.075356036296573
 20
28.58967150862719
 30
0.0
 11
7.355356036296575
 21
28.58967150862719
 31
0.0
  0
SOLID
  5
7286
330
44DF
100
AcDbEntity
  8
DIM
 62
     0
100
AcDbTrace
 10
10.37685603629656
 20
28.70967150862719
 30
0.0
 11
10.37685603629656
 21
28.46967150862719
 31
0.0
 12
9.656856036296559
 22
28.58967150862719
 32
0.0
 13
9.656856036296559
 23
28.58967150862719
 33
0.0
  0
SOLID
  5
7287
330
44DF
100
AcDbEntity
  8
DIM
 62
     0
100
AcDbTrace
 10
8.075356036296573
 20
28.70967150862719
 30
0.0
 11
8.075356036296573
 21
28.46967150862719
 31
0.0
 12
8.795356036296574
 22
28.58967150862719
 32
0.0
 13
8.795356036296574
 23
28.58967150862719
 33
0.0
  0
MTEXT
  5
7288
330
44DF
100
AcDbEntity
  8
DIM
 62
     0
100
AcDbMText
 10
6.276606036296574
 20
28.58967150862719
 30
0.0
 40
0.5
 41
0.0
 71
     5
 72
     1
  1
\A1;0.862
 73
     1
 44
1.0
  0
POINT
  5
7289
330
44DF
100
AcDbEntity
  8
DEFPOINTS
 62
     0
100
AcDbPoint
 10
9.656856036296559
 20
25.46385649649166
 30
0.0
  0
POINT
  5
728A
330
44DF
100
AcDbEntity
  8
DEFPOINTS
 62
     0
100
AcDbPoint
 10
8.795356036296574
 20
25.47835649649166
 30
0.0
  0
POINT
  5
728B
330
44DF
100
AcDbEntity
  8
DEFPOINTS
 62
     0
100
AcDbPoint
 10
8.795356036296574
 20
28.58967150862719
 30
0.0
  0
ENDBLK
  5
44EB
330
44DF
100
AcDbEntity
  8
0
100
AcDbBlockEnd
  0
BLOCK
  5
44F8
330
44ED
100
AcDbEntity
  8
0
100
AcDbBlockBegin
  2
*D39
 70
     1
 10
0.0
 20
0.0
 30
0.0
  3
*D39
  1

  0
LINE
  5
7278
330
44ED
100
AcDbEntity
  8
DIM
 62
     0
370
    -2
100
AcDbLine
 10
16.64035603629656
 20
25.73035649649165
 30
0.0
 11
16.64035603629656
 21
31.04235649649171
 31
0.0
  0
LINE
  5
7279
330
44ED
100
AcDbEntity
  8
DIM
 62
     0
370
    -2
100
AcDbLine
 10
8.795356036296574
 20
25.73035649649165
 30
0.0
 11
8.795356036296574
 21
31.04235649649171
 31
0.0
  0
LINE
  5
727A
330
44ED
100
AcDbEntity
  8
DIM
 62
     0
370
    -2
100
AcDbLine
 10
15.92035603629656
 20
30.67035649649171
 30
0.0
 11
13.82785603629657
 21
30.67035649649171
 31
0.0
  0
LINE
  5
727B
330
44ED
100
AcDbEntity
  8
DIM
 62
     0
370
    -2
100
AcDbLine
 10
9.515356036296575
 20
30.67035649649171
 30
0.0
 11
11.60785603629657
 21
30.67035649649171
 31
0.0
  0
SOLID
  5
727C
330
44ED
100
AcDbEntity
  8
DIM
 62
     0
100
AcDbTrace
 10
15.92035603629656
 20
30.79035649649171
 30
0.0
 11
15.92035603629656
 21
30.55035649649171
 31
0.0
 12
16.64035603629656
 22
30.67035649649171
 32
0.0
 13
16.64035603629656
 23
30.67035649649171
 33
0.0
  0
SOLID
  5
727D
330
44ED
100
AcDbEntity
  8
DIM
 62
     0
100
AcDbTrace
 10
9.515356036296575
 20
30.79035649649171
 30
0.0
 11
9.515356036296575
 21
30.55035649649171
 31
0.0
 12
8.795356036296574
 22
30.67035649649171
 32
0.0
 13
8.795356036296574
 23
30.67035649649171
 33
0.0
  0
MTEXT
  5
727E
330
44ED
100
AcDbEntity
  8
DIM
 62
     0
100
AcDbMText
 10
12.71785603629657
 20
30.67035649649171
 30
0.0
 40
0.5
 41
0.0
 71
     5
 72
     1
  1
\A1;7.845
 73
     1
 44
1.0
  0
POINT
  5
727F
330
44ED
100
AcDbEntity
  8
DEFPOINTS
 62
     0
100
AcDbPoint
 10
16.64035603629656
 20
25.47835649649166
 30
0.0
  0
POINT
  5
7280
330
44ED
100
AcDbEntity
  8
DEFPOINTS
 62
     0
100
AcDbPoint
 10
8.795356036296574
 20
25.47835649649166
 30
0.0
  0
POINT
  5
7281
330
44ED
100
AcDbEntity
  8
DEFPOINTS
 62
     0
100
AcDbPoint
 10
8.795356036296574
 20
30.67035649649171
 30
0.0
  0
ENDBLK
  5
44F9
330
44ED
100
AcDbEntity
  8
0
100
AcDbBlockEnd
  0
BLOCK
  5
4514
330
4509
100
AcDbEntity
  8
0
100
AcDbBlockBegin
  2
*D40
 70
     1
 10
0.0
 20
0.0
 30
0.0
  3
*D40
  1

  0
LINE
  5
726E
330
4509
100
AcDbEntity
  8
DIM
 62
     0
370
    -2
100
AcDbLine
 10
9.185356036296553
 20
25.71585649649165
 30
0.0
 11
9.185356036296553
 21
30.07767150862719
 31
0.0
  0
LINE
  5
726F
330
4509
100
AcDbEntity
  8
DIM
 62
     0
370
    -2
100
AcDbLine
 10
16.25035603629656
 20
26.83985649649162
 30
0.0
 11
16.25035603629656
 21
30.07767150862719
 31
0.0
  0
LINE
  5
7270
330
4509
100
AcDbEntity
  8
DIM
 62
     0
370
    -2
100
AcDbLine
 10
9.905356036296554
 20
29.7056715086272
 30
0.0
 11
11.63910603629655
 21
29.7056715086272
 31
0.0
  0
LINE
  5
7271
330
4509
100
AcDbEntity
  8
DIM
 62
     0
370
    -2
100
AcDbLine
 10
15.53035603629655
 20
29.7056715086272
 30
0.0
 11
13.79660603629655
 21
29.7056715086272
 31
0.0
  0
SOLID
  5
7272
330
4509
100
AcDbEntity
  8
DIM
 62
     0
100
AcDbTrace
 10
9.905356036296554
 20
29.8256715086272
 30
0.0
 11
9.905356036296554
 21
29.5856715086272
 31
0.0
 12
9.185356036296553
 22
29.7056715086272
 32
0.0
 13
9.185356036296553
 23
29.7056715086272
 33
0.0
  0
SOLID
  5
7273
330
4509
100
AcDbEntity
  8
DIM
 62
     0
100
AcDbTrace
 10
15.53035603629655
 20
29.8256715086272
 30
0.0
 11
15.53035603629655
 21
29.5856715086272
 31
0.0
 12
16.25035603629656
 22
29.7056715086272
 32
0.0
 13
16.25035603629656
 23
29.7056715086272
 33
0.0
  0
MTEXT
  5
7274
330
4509
100
AcDbEntity
  8
DIM
 62
     0
100
AcDbMText
 10
12.71785603629655
 20
29.7056715086272
 30
0.0
 40
0.5
 41
0.0
 71
     5
 72
     1
  1
\A1;7.065
 73
     1
 44
1.0
  0
POINT
  5
7275
330
4509
100
AcDbEntity
  8
DEFPOINTS
 62
     0
100
AcDbPoint
 10
9.185356036296553
 20
25.46385649649165
 30
0.0
  0
POINT
  5
7276
330
4509
100
AcDbEntity
  8
DEFPOINTS
 62
     0
100
AcDbPoint
 10
16.25035603629656
 20
26.58785649649162
 30
0.0
  0
POINT
  5
7277
330
4509
100
AcDbEntity
  8
DEFPOINTS
 62
     0
100
AcDbPoint
 10
16.25035603629656
 20
29.7056715086272
 30
0.0
  0
ENDBLK
  5
4515
330
4509
100
AcDbEntity
  8
0
100
AcDbBlockEnd
  0
BLOCK
  5
4522
330
4517
100
AcDbEntity
  8
0
100
AcDbBlockBegin
  2
*D41
 70
     1
 10
0.0
 20
0.0
 30
0.0
  3
*D41
  1

  0
LINE
  5
7264
330
4517
100
AcDbEntity
  8
DIM
 62
     0
370
    -2
100
AcDbLine
 10
9.185356036296553
 20
25.71585649649165
 30
0.0
 11
9.185356036296553
 21
30.07767150862719
 31
0.0
  0
LINE
  5
7265
330
4517
100
AcDbEntity
  8
DIM
 62
     0
370
    -2
100
AcDbLine
 10
8.79535603629661
 20
25.73035649649164
 30
0.0
 11
8.79535603629661
 21
30.07767150862719
 31
0.0
  0
LINE
  5
7266
330
4517
100
AcDbEntity
  8
DIM
 62
     0
370
    -2
100
AcDbLine
 10
9.905356036296554
 20
29.7056715086272
 30
0.0
 11
10.62535603629655
 21
29.7056715086272
 31
0.0
  0
LINE
  5
7267
330
4517
100
AcDbEntity
  8
DIM
 62
     0
370
    -2
100
AcDbLine
 10
8.075356036296609
 20
29.7056715086272
 30
0.0
 11
7.35535603629661
 21
29.7056715086272
 31
0.0
  0
SOLID
  5
7268
330
4517
100
AcDbEntity
  8
DIM
 62
     0
100
AcDbTrace
 10
9.905356036296554
 20
29.8256715086272
 30
0.0
 11
9.905356036296554
 21
29.5856715086272
 31
0.0
 12
9.185356036296553
 22
29.7056715086272
 32
0.0
 13
9.185356036296553
 23
29.7056715086272
 33
0.0
  0
SOLID
  5
7269
330
4517
100
AcDbEntity
  8
DIM
 62
     0
100
AcDbTrace
 10
8.075356036296609
 20
29.8256715086272
 30
0.0
 11
8.075356036296609
 21
29.5856715086272
 31
0.0
 12
8.79535603629661
 22
29.7056715086272
 32
0.0
 13
8.79535603629661
 23
29.7056715086272
 33
0.0
  0
MTEXT
  5
726A
330
4517
100
AcDbEntity
  8
DIM
 62
     0
100
AcDbMText
 10
6.30785603629661
 20
29.7056715086272
 30
0.0
 40
0.5
 41
0.0
 71
     5
 72
     1
  1
\A1;0.390
 73
     1
 44
1.0
  0
POINT
  5
726B
330
4517
100
AcDbEntity
  8
DEFPOINTS
 62
     0
100
AcDbPoint
 10
9.185356036296553
 20
25.46385649649165
 30
0.0
  0
POINT
  5
726C
330
4517
100
AcDbEntity
  8
DEFPOINTS
 62
     0
100
AcDbPoint
 10
8.79535603629661
 20
25.47835649649164
 30
0.0
  0
POINT
  5
726D
330
4517
100
AcDbEntity
  8
DEFPOINTS
 62
     0
100
AcDbPoint
 10
8.79535603629661
 20
29.7056715086272
 30
0.0
  0
ENDBLK
  5
4523
330
4517
100
AcDbEntity
  8
0
100
AcDbBlockEnd
  0
BLOCK
  5
453E
330
4533
100
AcDbEntity
  8
0
100
AcDbBlockBegin
  2
*D42
 70
     1
 10
0.0
 20
0.0
 30
0.0
  3
*D42
  1

  0
LINE
  5
7190
330
4533
100
AcDbEntity
  8
DIM
 62
     0
370
    -2
100
AcDbLine
 10
16.51735603629657
 20
11.72535649649166
 30
0.0
 11
23.07341111783395
 21
11.72535649649166
 31
0.0
  0
LINE
  5
7191
330
4533
100
AcDbEntity
  8
DIM
 62
     0
370
    -2
100
AcDbLine
 10
16.50685603629651
 20
25.85335649649167
 30
0.0
 11
23.07341111783395
 21
25.85335649649167
 31
0.0
  0
LINE
  5
7192
330
4533
100
AcDbEntity
  8
DIM
 62
     0
370
    -2
100
AcDbLine
 10
22.70141111783395
 20
12.44535649649166
 30
0.0
 11
22.70141111783395
 21
18.17935649649167
 31
0.0
  0
LINE
  5
7193
330
4533
100
AcDbEntity
  8
DIM
 62
     0
370
    -2
100
AcDbLine
 10
22.70141111783395
 20
25.13335649649167
 30
0.0
 11
22.70141111783395
 21
19.39935649649167
 31
0.0
  0
SOLID
  5
7194
330
4533
100
AcDbEntity
  8
DIM
 62
     0
100
AcDbTrace
 10
22.58141111783395
 20
12.44535649649166
 30
0.0
 11
22.82141111783395
 21
12.44535649649166
 31
0.0
 12
22.70141111783395
 22
11.72535649649166
 32
0.0
 13
22.70141111783395
 23
11.72535649649166
 33
0.0
  0
SOLID
  5
7195
330
4533
100
AcDbEntity
  8
DIM
 62
     0
100
AcDbTrace
 10
22.58141111783395
 20
25.13335649649167
 30
0.0
 11
22.82141111783395
 21
25.13335649649167
 31
0.0
 12
22.70141111783395
 22
25.85335649649167
 32
0.0
 13
22.70141111783395
 23
25.85335649649167
 33
0.0
  0
MTEXT
  5
7196
330
4533
100
AcDbEntity
  8
DIM
 62
     0
100
AcDbMText
 10
22.70141111783395
 20
18.78935649649167
 30
0.0
 40
0.5
 41
0.0
 71
     5
 72
     1
  1
\A1;14.128
 73
     1
 44
1.0
  0
POINT
  5
7197
330
4533
100
AcDbEntity
  8
DEFPOINTS
 62
     0
100
AcDbPoint
 10
16.26535603629658
 20
11.72535649649166
 30
0.0
  0
POINT
  5
7198
330
4533
100
AcDbEntity
  8
DEFPOINTS
 62
     0
100
AcDbPoint
 10
16.25485603629651
 20
25.85335649649167
 30
0.0
  0
POINT
  5
7199
330
4533
100
AcDbEntity
  8
DEFPOINTS
 62
     0
100
AcDbPoint
 10
22.70141111783395
 20
25.85335649649167
 30
0.0
  0
ENDBLK
  5
453F
330
4533
100
AcDbEntity
  8
0
100
AcDbBlockEnd
  0
BLOCK
  5
4653
330
4648
100
AcDbEntity
  8
0
100
AcDbBlockBegin
  2
*D43
 70
     1
 10
0.0
 20
0.0
 30
0.0
  3
*D43
  1

  0
LINE
  5
72D3
330
4648
100
AcDbEntity
  8
DIM
 62
     0
370
    -2
100
AcDbLine
 10
37.95494883536798
 20
18.78935649649165
 30
0.0
 11
35.75494883536797
 21
18.78935649649165
 31
0.0
  0
LINE
  5
72D4
330
4648
100
AcDbEntity
  8
DIM
 62
     0
370
    -2
100
AcDbLine
 10
37.965448835368
 20
12.11485649649167
 30
0.0
 11
35.75494883536797
 21
12.11485649649167
 31
0.0
  0
LINE
  5
72D5
330
4648
100
AcDbEntity
  8
DIM
 62
     0
370
    -2
100
AcDbLine
 10
36.12694883536797
 20
18.06935649649166
 30
0.0
 11
36.12694883536797
 21
16.06210649649166
 31
0.0
  0
LINE
  5
72D6
330
4648
100
AcDbEntity
  8
DIM
 62
     0
370
    -2
100
AcDbLine
 10
36.12694883536796
 20
12.83485649649167
 30
0.0
 11
36.12694883536796
 21
14.84210649649166
 31
0.0
  0
SOLID
  5
72D7
330
4648
100
AcDbEntity
  8
DIM
 62
     0
100
AcDbTrace
 10
36.00694883536798
 20
18.06935649649166
 30
0.0
 11
36.24694883536797
 21
18.06935649649166
 31
0.0
 12
36.12694883536797
 22
18.78935649649165
 32
0.0
 13
36.12694883536797
 23
18.78935649649165
 33
0.0
  0
SOLID
  5
72D8
330
4648
100
AcDbEntity
  8
DIM
 62
     0
100
AcDbTrace
 10
36.00694883536797
 20
12.83485649649167
 30
0.0
 11
36.24694883536796
 21
12.83485649649167
 31
0.0
 12
36.12694883536796
 22
12.11485649649167
 32
0.0
 13
36.12694883536796
 23
12.11485649649167
 33
0.0
  0
MTEXT
  5
72D9
330
4648
100
AcDbEntity
  8
DIM
 62
     0
100
AcDbMText
 10
36.12694883536796
 20
15.45210649649167
 30
0.0
 40
0.5
 41
0.0
 71
     5
 72
     1
  1
\A1;6.675
 73
     1
 44
1.0
  0
POINT
  5
72DA
330
4648
100
AcDbEntity
  8
DEFPOINTS
 62
     0
100
AcDbPoint
 10
38.20694883536798
 20
18.78935649649165
 30
0.0
  0
POINT
  5
72DB
330
4648
100
AcDbEntity
  8
DEFPOINTS
 62
     0
100
AcDbPoint
 10
38.217448835368
 20
12.11485649649167
 30
0.0
  0
POINT
  5
72DC
330
4648
100
AcDbEntity
  8
DEFPOINTS
 62
     0
100
AcDbPoint
 10
36.12694883536796
 20
12.11485649649167
 30
0.0
  0
ENDBLK
  5
4654
330
4648
100
AcDbEntity
  8
0
100
AcDbBlockEnd
  0
BLOCK
  5
4661
330
4656
100
AcDbEntity
  8
0
100
AcDbBlockBegin
  2
*D44
 70
     1
 10
0.0
 20
0.0
 30
0.0
  3
*D44
  1

  0
LINE
  5
72C8
330
4656
100
AcDbEntity
  8
DIM
 62
     0
370
    -2
100
AcDbLine
 10
37.965448835368
 20
12.11485649649167
 30
0.0
 11
35.75494883536797
 21
12.11485649649167
 31
0.0
  0
LINE
  5
72C9
330
4656
100
AcDbEntity
  8
DIM
 62
     0
370
    -2
100
AcDbLine
 10
37.950448835368
 20
11.72535649649168
 30
0.0
 11
35.75494883536797
 21
11.72535649649169
 31
0.0
  0
LINE
  5
72CA
330
4656
100
AcDbEntity
  8
DIM
 62
     0
370
    -2
100
AcDbLine
 10
36.12694883536796
 20
12.83485649649167
 30
0.0
 11
36.12694883536796
 21
13.55485649649166
 31
0.0
  0
LINE
  5
72CB
330
4656
100
AcDbEntity
  8
DIM
 62
     0
370
    -2
100
AcDbLine
 10
36.12694883536796
 20
11.00535649649168
 30
0.0
 11
36.12694883536796
 21
10.28535649649168
 31
0.0
  0
LINE
  5
72CC
330
4656
100
AcDbEntity
  8
DIM
 62
     0
370
    -2
100
AcDbLine
 10
36.12694883536796
 20
10.28535649649168
 30
0.0
 11
35.40694883536797
 21
10.28535649649169
 31
0.0
  0
SOLID
  5
72CD
330
4656
100
AcDbEntity
  8
DIM
 62
     0
100
AcDbTrace
 10
36.00694883536797
 20
12.83485649649167
 30
0.0
 11
36.24694883536796
 21
12.83485649649167
 31
0.0
 12
36.12694883536796
 22
12.11485649649167
 32
0.0
 13
36.12694883536796
 23
12.11485649649167
 33
0.0
  0
SOLID
  5
72CE
330
4656
100
AcDbEntity
  8
DIM
 62
     0
100
AcDbTrace
 10
36.00694883536797
 20
11.00535649649168
 30
0.0
 11
36.24694883536796
 21
11.00535649649168
 31
0.0
 12
36.12694883536796
 22
11.72535649649168
 32
0.0
 13
36.12694883536796
 23
11.72535649649168
 33
0.0
  0
MTEXT
  5
72CF
330
4656
100
AcDbEntity
  8
DIM
 62
     0
100
AcDbMText
 10
34.35944883536797
 20
10.28535649649169
 30
0.0
 40
0.5
 41
0.0
 71
     5
 72
     1
  1
\A1;0.390
 73
     1
 44
1.0
  0
POINT
  5
72D0
330
4656
100
AcDbEntity
  8
DEFPOINTS
 62
     0
100
AcDbPoint
 10
38.217448835368
 20
12.11485649649167
 30
0.0
  0
POINT
  5
72D1
330
4656
100
AcDbEntity
  8
DEFPOINTS
 62
     0
100
AcDbPoint
 10
38.202448835368
 20
11.72535649649168
 30
0.0
  0
POINT
  5
72D2
330
4656
100
AcDbEntity
  8
DEFPOINTS
 62
     0
100
AcDbPoint
 10
36.12694883536796
 20
11.72535649649168
 30
0.0
  0
ENDBLK
  5
4662
330
4656
100
AcDbEntity
  8
0
100
AcDbBlockEnd
  0
BLOCK
  5
466F
330
4664
100
AcDbEntity
  8
0
100
AcDbBlockBegin
  2
*D45
 70
     1
 10
0.0
 20
0.0
 30
0.0
  3
*D45
  1

  0
LINE
  5
7324
330
4664
100
AcDbEntity
  8
DIM
 62
     0
370
    -2
100
AcDbLine
 10
37.95494883536798
 20
18.78935649649165
 30
0.0
 11
35.75494883536797
 21
18.78935649649165
 31
0.0
  0
LINE
  5
7325
330
4664
100
AcDbEntity
  8
DIM
 62
     0
370
    -2
100
AcDbLine
 10
37.965448835368
 20
25.46385649649167
 30
0.0
 11
35.75494883536797
 21
25.46385649649167
 31
0.0
  0
LINE
  5
7326
330
4664
100
AcDbEntity
  8
DIM
 62
     0
370
    -2
100
AcDbLine
 10
36.12694883536796
 20
19.50935649649165
 30
0.0
 11
36.12694883536796
 21
21.51660649649166
 31
0.0
  0
LINE
  5
7327
330
4664
100
AcDbEntity
  8
DIM
 62
     0
370
    -2
100
AcDbLine
 10
36.12694883536796
 20
24.74385649649167
 30
0.0
 11
36.12694883536796
 21
22.73660649649166
 31
0.0
  0
SOLID
  5
7328
330
4664
100
AcDbEntity
  8
DIM
 62
     0
100
AcDbTrace
 10
36.00694883536797
 20
19.50935649649165
 30
0.0
 11
36.24694883536796
 21
19.50935649649165
 31
0.0
 12
36.12694883536796
 22
18.78935649649165
 32
0.0
 13
36.12694883536796
 23
18.78935649649165
 33
0.0
  0
SOLID
  5
7329
330
4664
100
AcDbEntity
  8
DIM
 62
     0
100
AcDbTrace
 10
36.00694883536797
 20
24.74385649649167
 30
0.0
 11
36.24694883536796
 21
24.74385649649167
 31
0.0
 12
36.12694883536796
 22
25.46385649649167
 32
0.0
 13
36.12694883536796
 23
25.46385649649167
 33
0.0
  0
MTEXT
  5
732A
330
4664
100
AcDbEntity
  8
DIM
 62
     0
100
AcDbMText
 10
36.12694883536796
 20
22.12660649649166
 30
0.0
 40
0.5
 41
0.0
 71
     5
 72
     1
  1
\A1;6.675
 73
     1
 44
1.0
  0
POINT
  5
732B
330
4664
100
AcDbEntity
  8
DEFPOINTS
 62
     0
100
AcDbPoint
 10
38.20694883536798
 20
18.78935649649165
 30
0.0
  0
POINT
  5
732C
330
4664
100
AcDbEntity
  8
DEFPOINTS
 62
     0
100
AcDbPoint
 10
38.217448835368
 20
25.46385649649167
 30
0.0
  0
POINT
  5
732D
330
4664
100
AcDbEntity
  8
DEFPOINTS
 62
     0
100
AcDbPoint
 10
36.12694883536796
 20
25.46385649649167
 30
0.0
  0
ENDBLK
  5
4670
330
4664
100
AcDbEntity
  8
0
100
AcDbBlockEnd
  0
BLOCK
  5
467D
330
4672
100
AcDbEntity
  8
0
100
AcDbBlockBegin
  2
*D46
 70
     1
 10
0.0
 20
0.0
 30
0.0
  3
*D46
  1

  0
LINE
  5
72BE
330
4672
100
AcDbEntity
  8
DIM
 62
     0
370
    -2
100
AcDbLine
 10
37.950448835368
 20
11.72535649649168
 30
0.0
 11
33.51322106897617
 21
11.72535649649169
 31
0.0
  0
LINE
  5
72BF
330
4672
100
AcDbEntity
  8
DIM
 62
     0
370
    -2
100
AcDbLine
 10
37.950448835368
 20
25.85335649649169
 30
0.0
 11
33.51322106897618
 21
25.85335649649169
 31
0.0
  0
LINE
  5
72C0
330
4672
100
AcDbEntity
  8
DIM
 62
     0
370
    -2
100
AcDbLine
 10
33.88522106897617
 20
12.44535649649169
 30
0.0
 11
33.88522106897617
 21
18.17935649649169
 31
0.0
  0
LINE
  5
72C1
330
4672
100
AcDbEntity
  8
DIM
 62
     0
370
    -2
100
AcDbLine
 10
33.88522106897617
 20
25.13335649649169
 30
0.0
 11
33.88522106897617
 21
19.39935649649169
 31
0.0
  0
SOLID
  5
72C2
330
4672
100
AcDbEntity
  8
DIM
 62
     0
100
AcDbTrace
 10
33.76522106897617
 20
12.44535649649169
 30
0.0
 11
34.00522106897617
 21
12.44535649649169
 31
0.0
 12
33.88522106897617
 22
11.72535649649169
 32
0.0
 13
33.88522106897617
 23
11.72535649649169
 33
0.0
  0
SOLID
  5
72C3
330
4672
100
AcDbEntity
  8
DIM
 62
     0
100
AcDbTrace
 10
33.76522106897618
 20
25.13335649649169
 30
0.0
 11
34.00522106897617
 21
25.13335649649169
 31
0.0
 12
33.88522106897617
 22
25.85335649649169
 32
0.0
 13
33.88522106897617
 23
25.85335649649169
 33
0.0
  0
MTEXT
  5
72C4
330
4672
100
AcDbEntity
  8
DIM
 62
     0
100
AcDbMText
 10
33.88522106897617
 20
18.78935649649169
 30
0.0
 40
0.5
 41
0.0
 71
     5
 72
     1
  1
\A1;14.128
 73
     1
 44
1.0
  0
POINT
  5
72C5
330
4672
100
AcDbEntity
  8
DEFPOINTS
 62
     0
100
AcDbPoint
 10
38.202448835368
 20
11.72535649649168
 30
0.0
  0
POINT
  5
72C6
330
4672
100
AcDbEntity
  8
DEFPOINTS
 62
     0
100
AcDbPoint
 10
38.202448835368
 20
25.85335649649169
 30
0.0
  0
POINT
  5
72C7
330
4672
100
AcDbEntity
  8
DEFPOINTS
 62
     0
100
AcDbPoint
 10
33.88522106897617
 20
25.85335649649169
 30
0.0
  0
ENDBLK
  5
467E
330
4672
100
AcDbEntity
  8
0
100
AcDbBlockEnd
  0
BLOCK
  5
468B
330
4680
100
AcDbEntity
  8
0
100
AcDbBlockBegin
  2
*D47
 70
     1
 10
0.0
 20
0.0
 30
0.0
  3
*D47
  1

  0
LINE
  5
7342
330
4680
100
AcDbEntity
  8
DIM
 62
     0
370
    -2
100
AcDbLine
 10
45.28244883536797
 20
25.71585649649167
 30
0.0
 11
45.28244883536797
 21
27.89568602013605
 31
0.0
  0
LINE
  5
7343
330
4680
100
AcDbEntity
  8
DIM
 62
     0
370
    -2
100
AcDbLine
 10
38.217448835368
 20
25.71585649649167
 30
0.0
 11
38.217448835368
 21
27.89568602013605
 31
0.0
  0
LINE
  5
7344
330
4680
100
AcDbEntity
  8
DIM
 62
     0
370
    -2
100
AcDbLine
 10
44.56244883536797
 20
27.52368602013605
 30
0.0
 11
42.82869883536799
 21
27.52368602013605
 31
0.0
  0
LINE
  5
7345
330
4680
100
AcDbEntity
  8
DIM
 62
     0
370
    -2
100
AcDbLine
 10
38.937448835368
 20
27.52368602013605
 30
0.0
 11
40.67119883536799
 21
27.52368602013605
 31
0.0
  0
SOLID
  5
7346
330
4680
100
AcDbEntity
  8
DIM
 62
     0
100
AcDbTrace
 10
44.56244883536797
 20
27.64368602013605
 30
0.0
 11
44.56244883536797
 21
27.40368602013605
 31
0.0
 12
45.28244883536797
 22
27.52368602013605
 32
0.0
 13
45.28244883536797
 23
27.52368602013605
 33
0.0
  0
SOLID
  5
7347
330
4680
100
AcDbEntity
  8
DIM
 62
     0
100
AcDbTrace
 10
38.937448835368
 20
27.64368602013605
 30
0.0
 11
38.937448835368
 21
27.40368602013605
 31
0.0
 12
38.217448835368
 22
27.52368602013605
 32
0.0
 13
38.217448835368
 23
27.52368602013605
 33
0.0
  0
MTEXT
  5
7348
330
4680
100
AcDbEntity
  8
DIM
 62
     0
100
AcDbMText
 10
41.74994883536799
 20
27.52368602013605
 30
0.0
 40
0.5
 41
0.0
 71
     5
 72
     1
  1
\A1;7.065
 73
     1
 44
1.0
  0
POINT
  5
7349
330
4680
100
AcDbEntity
  8
DEFPOINTS
 62
     0
100
AcDbPoint
 10
45.28244883536797
 20
25.46385649649167
 30
0.0
  0
POINT
  5
734A
330
4680
100
AcDbEntity
  8
DEFPOINTS
 62
     0
100
AcDbPoint
 10
38.217448835368
 20
25.46385649649167
 30
0.0
  0
POINT
  5
734B
330
4680
100
AcDbEntity
  8
DEFPOINTS
 62
     0
100
AcDbPoint
 10
38.217448835368
 20
27.52368602013605
 30
0.0
  0
ENDBLK
  5
468C
330
4680
100
AcDbEntity
  8
0
100
AcDbBlockEnd
  0
BLOCK
  5
4699
330
468E
100
AcDbEntity
  8
0
100
AcDbBlockBegin
  2
*D48
 70
     1
 10
0.0
 20
0.0
 30
0.0
  3
*D48
  1

  0
LINE
  5
7338
330
468E
100
AcDbEntity
  8
DIM
 62
     0
370
    -2
100
AcDbLine
 10
38.217448835368
 20
25.71585649649167
 30
0.0
 11
38.217448835368
 21
27.89568602013605
 31
0.0
  0
LINE
  5
7339
330
468E
100
AcDbEntity
  8
DIM
 62
     0
370
    -2
100
AcDbLine
 10
37.827448835368
 20
25.73035649649168
 30
0.0
 11
37.827448835368
 21
27.89568602013605
 31
0.0
  0
LINE
  5
733A
330
468E
100
AcDbEntity
  8
DIM
 62
     0
370
    -2
100
AcDbLine
 10
38.937448835368
 20
27.52368602013605
 30
0.0
 11
39.657448835368
 21
27.52368602013605
 31
0.0
  0
LINE
  5
733B
330
468E
100
AcDbEntity
  8
DIM
 62
     0
370
    -2
100
AcDbLine
 10
37.107448835368
 20
27.52368602013605
 30
0.0
 11
36.387448835368
 21
27.52368602013605
 31
0.0
  0
SOLID
  5
733C
330
468E
100
AcDbEntity
  8
DIM
 62
     0
100
AcDbTrace
 10
38.937448835368
 20
27.64368602013605
 30
0.0
 11
38.937448835368
 21
27.40368602013605
 31
0.0
 12
38.217448835368
 22
27.52368602013605
 32
0.0
 13
38.217448835368
 23
27.52368602013605
 33
0.0
  0
SOLID
  5
733D
330
468E
100
AcDbEntity
  8
DIM
 62
     0
100
AcDbTrace
 10
37.107448835368
 20
27.64368602013605
 30
0.0
 11
37.107448835368
 21
27.40368602013605
 31
0.0
 12
37.827448835368
 22
27.52368602013605
 32
0.0
 13
37.827448835368
 23
27.52368602013605
 33
0.0
  0
MTEXT
  5
733E
330
468E
100
AcDbEntity
  8
DIM
 62
     0
100
AcDbMText
 10
35.339948835368
 20
27.52368602013605
 30
0.0
 40
0.5
 41
0.0
 71
     5
 72
     1
  1
\A1;0.390
 73
     1
 44
1.0
  0
POINT
  5
733F
330
468E
100
AcDbEntity
  8
DEFPOINTS
 62
     0
100
AcDbPoint
 10
38.217448835368
 20
25.46385649649167
 30
0.0
  0
POINT
  5
7340
330
468E
100
AcDbEntity
  8
DEFPOINTS
 62
     0
100
AcDbPoint
 10
37.827448835368
 20
25.47835649649168
 30
0.0
  0
POINT
  5
7341
330
468E
100
AcDbEntity
  8
DEFPOINTS
 62
     0
100
AcDbPoint
 10
37.827448835368
 20
27.52368602013605
 30
0.0
  0
ENDBLK
  5
469A
330
468E
100
AcDbEntity
  8
0
100
AcDbBlockEnd
  0
BLOCK
  5
46A7
330
469C
100
AcDbEntity
  8
0
100
AcDbBlockBegin
  2
*D49
 70
     1
 10
0.0
 20
0.0
 30
0.0
  3
*D49
  1

  0
LINE
  5
732E
330
469C
100
AcDbEntity
  8
DIM
 62
     0
370
    -2
100
AcDbLine
 10
37.827448835368
 20
25.73035649649168
 30
0.0
 11
37.827448835368
 21
29.01168602013605
 31
0.0
  0
LINE
  5
732F
330
469C
100
AcDbEntity
  8
DIM
 62
     0
370
    -2
100
AcDbLine
 10
45.67244883536798
 20
25.73035649649168
 30
0.0
 11
45.67244883536798
 21
29.01168602013605
 31
0.0
  0
LINE
  5
7330
330
469C
100
AcDbEntity
  8
DIM
 62
     0
370
    -2
100
AcDbLine
 10
38.547448835368
 20
28.63968602013605
 30
0.0
 11
40.63994883536799
 21
28.63968602013605
 31
0.0
  0
LINE
  5
7331
330
469C
100
AcDbEntity
  8
DIM
 62
     0
370
    -2
100
AcDbLine
 10
44.95244883536798
 20
28.63968602013605
 30
0.0
 11
42.85994883536799
 21
28.63968602013605
 31
0.0
  0
SOLID
  5
7332
330
469C
100
AcDbEntity
  8
DIM
 62
     0
100
AcDbTrace
 10
38.547448835368
 20
28.75968602013605
 30
0.0
 11
38.547448835368
 21
28.51968602013605
 31
0.0
 12
37.827448835368
 22
28.63968602013605
 32
0.0
 13
37.827448835368
 23
28.63968602013605
 33
0.0
  0
SOLID
  5
7333
330
469C
100
AcDbEntity
  8
DIM
 62
     0
100
AcDbTrace
 10
44.95244883536798
 20
28.75968602013605
 30
0.0
 11
44.95244883536798
 21
28.51968602013605
 31
0.0
 12
45.67244883536798
 22
28.63968602013605
 32
0.0
 13
45.67244883536798
 23
28.63968602013605
 33
0.0
  0
MTEXT
  5
7334
330
469C
100
AcDbEntity
  8
DIM
 62
     0
100
AcDbMText
 10
41.749948835368
 20
28.63968602013605
 30
0.0
 40
0.5
 41
0.0
 71
     5
 72
     1
  1
\A1;7.845
 73
     1
 44
1.0
  0
POINT
  5
7335
330
469C
100
AcDbEntity
  8
DEFPOINTS
 62
     0
100
AcDbPoint
 10
37.827448835368
 20
25.47835649649168
 30
0.0
  0
POINT
  5
7336
330
469C
100
AcDbEntity
  8
DEFPOINTS
 62
     0
100
AcDbPoint
 10
45.67244883536798
 20
25.47835649649168
 30
0.0
  0
POINT
  5
7337
330
469C
100
AcDbEntity
  8
DEFPOINTS
 62
     0
100
AcDbPoint
 10
45.67244883536798
 20
28.63968602013605
 30
0.0
  0
ENDBLK
  5
46A8
330
469C
100
AcDbEntity
  8
0
100
AcDbBlockEnd
  0
BLOCK
  5
5167
330
5150
100
AcDbEntity
  8
0
100
AcDbBlockBegin
  2
HBS
 70
     0
 10
0.0
 20
0.0
 30
0.0
  3
HBS
  1

  0
LINE
  5
5151
330
5150
100
AcDbEntity
  8
TITLE
100
AcDbLine
 10
0.0620000000000118
 20
10.266
 30
0.0
 11
16.53800000000001
 21
10.266
 31
0.0
  0
LINE
  5
5152
330
5150
100
AcDbEntity
  8
TITLE
100
AcDbLine
 10
16.53800000000001
 20
0.0620000000000012
 30
0.0
 11
0.0620000000000118
 21
0.0620000000000012
 31
0.0
  0
LINE
  5
5153
330
5150
100
AcDbEntity
  8
TITLE
100
AcDbLine
 10
0.0
 20
10.32799999999999
 30
0.0
 11
16.59999999999999
 21
10.32799999999999
 31
0.0
  0
LINE
  5
5154
330
5150
100
AcDbEntity
  8
TITLE
100
AcDbLine
 10
16.59999999999999
 20
0.0
 30
0.0
 11
0.0
 21
0.0
 31
0.0
  0
LINE
  5
5155
330
5150
100
AcDbEntity
  8
TITLE
100
AcDbLine
 10
0.0620000000000118
 20
9.848000000000002
 30
0.0
 11
16.53800000000001
 21
9.848000000000006
 31
0.0
  0
LINE
  5
5156
330
5150
100
AcDbEntity
  8
TITLE
100
AcDbLine
 10
0.0620000000000118
 20
0.0620000000000012
 30
0.0
 11
0.0620000000000118
 21
10.266
 31
0.0
  0
LINE
  5
5157
330
5150
100
AcDbEntity
  8
TITLE
100
AcDbLine
 10
0.0
 20
0.0
 30
0.0
 11
0.0
 21
10.32799999999999
 31
0.0
  0
TEXT
  5
5158
330
5150
100
AcDbEntity
  8
TEXT
100
AcDbText
 10
0.2078333333333452
 20
9.888079195640081
 30
0.0
 40
0.125
  1
NAME
 72
     1
 11
0.4370000000000119
 21
9.888079195640081
 31
0.0
100
AcDbText
  0
TEXT
  5
5159
330
5150
100
AcDbEntity
  8
TEXT
100
AcDbText
 10
0.2078333333333452
 20
10.09641252897341
 30
0.0
 40
0.125
  1
PART
 72
     1
 11
0.4370000000000119
 21
10.09641252897341
 31
0.0
100
AcDbText
  0
LINE
  5
515A
330
5150
100
AcDbEntity
  8
TITLE
100
AcDbLine
 10
0.8120000000000118
 20
9.848000000000002
 30
0.0
 11
0.8120000000000118
 21
10.266
 31
0.0
  0
LINE
  5
515B
330
5150
100
AcDbEntity
  8
TITLE
100
AcDbLine
 10
7.0
 20
10.266
 30
0.0
 11
7.0
 21
9.848000000000002
 31
0.0
  0
LINE
  5
515C
330
5150
100
AcDbEntity
  8
TITLE
100
AcDbLine
 10
7.062000000000011
 20
10.266
 30
0.0
 11
7.062000000000011
 21
9.848000000000002
 31
0.0
  0
LINE
  5
515D
330
5150
100
AcDbEntity
  8
TITLE
100
AcDbLine
 10
7.812000000000011
 20
10.266
 30
0.0
 11
7.812000000000011
 21
9.848000000000002
 31
0.0
  0
TEXT
  5
515E
330
5150
100
AcDbEntity
  8
TEXT
100
AcDbText
 10
7.312000000000011
 20
9.888079195640081
 30
0.0
 40
0.125
  1
No.
 72
     1
 11
7.437000000000011
 21
9.888079195640081
 31
0.0
100
AcDbText
  0
TEXT
  5
515F
330
5150
100
AcDbEntity
  8
TEXT
100
AcDbText
 10
7.207833333333344
 20
10.09641252897341
 30
0.0
 40
0.125
  1
PART
 72
     1
 11
7.437000000000011
 21
10.09641252897341
 31
0.0
100
AcDbText
  0
LINE
  5
5160
330
5150
100
AcDbEntity
  8
TITLE
100
AcDbLine
 10
16.53800000000001
 20
10.266
 30
0.0
 11
16.53800000000001
 21
0.0620000000000012
 31
0.0
  0
LINE
  5
5161
330
5150
100
AcDbEntity
  8
TITLE
100
AcDbLine
 10
16.59999999999999
 20
10.32799999999999
 30
0.0
 11
16.59999999999999
 21
0.0
 31
0.0
  0
TEXT
  5
5162
330
5150
100
AcDbEntity
  8
TEXT
100
AcDbText
 10
14.22865779971668
 20
10.09641252897341
 30
0.0
 40
0.125
  1
REV.
 72
     1
 11
14.43699113305001
 21
10.09641252897341
 31
0.0
100
AcDbText
  0
TEXT
  5
5163
330
5150
100
AcDbEntity
  8
TEXT
100
AcDbText
 10
14.20782446638335
 20
9.888079195640081
 30
0.0
 40
0.125
  1
DATE
 72
     1
 11
14.43699113305001
 21
9.888079195640081
 31
0.0
100
AcDbText
  0
LINE
  5
5164
330
5150
100
AcDbEntity
  8
TITLE
100
AcDbLine
 10
14.06199113305001
 20
10.266
 30
0.0
 11
14.06199113305001
 21
9.848000000000002
 31
0.0
  0
LINE
  5
5165
330
5150
100
AcDbEntity
  8
TITLE
100
AcDbLine
 10
14.81199113305001
 20
10.266
 30
0.0
 11
14.81199113305001
 21
9.848000000000002
 31
0.0
  0
LINE
  5
5166
330
5150
100
AcDbEntity
  8
TITLE
100
AcDbLine
 10
13.99999113305
 20
10.266
 30
0.0
 11
13.99999113305
 21
9.848000000000002
 31
0.0
  0
ENDBLK
  5
5168
330
5150
100
AcDbEntity
  8
0
100
AcDbBlockEnd
  0
BLOCK
  5
5CE6
330
5CDA
100
AcDbEntity
  8
0
100
AcDbBlockBegin
  2
*D51
 70
     1
 10
0.0
 20
0.0
 30
0.0
  3
*D51
  1

  0
LINE
  5
71C4
330
5CDA
100
AcDbEntity
  8
DIM
 62
     0
370
    -2
100
AcDbLine
 10
13.62832452507145
 20
25.69135649649162
 30
0.0
 11
13.25632452507145
 21
25.69135649649162
 31
0.0
  0
LINE
  5
71C5
330
5CDA
100
AcDbEntity
  8
DIM
 62
     0
370
    -2
100
AcDbLine
 10
13.62832452507145
 20
11.88735649649168
 30
0.0
 11
13.25632452507145
 21
11.88735649649168
 31
0.0
  0
LINE
  5
71C6
330
5CDA
100
AcDbEntity
  8
DIM
 62
     0
370
    -2
100
AcDbLine
 10
13.62832452507145
 20
24.97135649649162
 30
0.0
 11
13.62832452507145
 21
18.78935649649164
 31
0.0
  0
LINE
  5
71C7
330
5CDA
100
AcDbEntity
  8
DIM
 62
     0
370
    -2
100
AcDbLine
 10
13.62832452507145
 20
12.60735649649168
 30
0.0
 11
13.62832452507145
 21
17.56935649649165
 31
0.0
  0
SOLID
  5
71C8
330
5CDA
100
AcDbEntity
  8
DIM
 62
     0
100
AcDbTrace
 10
13.50832452507145
 20
24.97135649649162
 30
0.0
 11
13.74832452507145
 21
24.97135649649162
 31
0.0
 12
13.62832452507145
 22
25.69135649649162
 32
0.0
 13
13.62832452507145
 23
25.69135649649162
 33
0.0
  0
SOLID
  5
71C9
330
5CDA
100
AcDbEntity
  8
DIM
 62
     0
100
AcDbTrace
 10
13.50832452507145
 20
12.60735649649168
 30
0.0
 11
13.74832452507145
 21
12.60735649649168
 31
0.0
 12
13.62832452507144
 22
11.88735649649168
 32
0.0
 13
13.62832452507144
 23
11.88735649649168
 33
0.0
  0
MTEXT
  5
71CA
330
5CDA
100
AcDbEntity
  8
DIM
 62
     0
100
AcDbMText
 10
13.62832452507144
 20
18.17935649649165
 30
0.0
 40
0.5
 41
0.0
 71
     5
 72
     1
  1
\A1;13.804
 73
     1
 44
1.0
  0
POINT
  5
71CB
330
5CDA
100
AcDbEntity
  8
DEFPOINTS
 62
     0
100
AcDbPoint
 10
13.88032452507145
 20
25.69135649649162
 30
0.0
  0
POINT
  5
71CC
330
5CDA
100
AcDbEntity
  8
DEFPOINTS
 62
     0
100
AcDbPoint
 10
13.88032452507145
 20
11.88735649649168
 30
0.0
  0
POINT
  5
71CD
330
5CDA
100
AcDbEntity
  8
DEFPOINTS
 62
     0
100
AcDbPoint
 10
13.62832452507144
 20
11.88735649649168
 30
0.0
  0
ENDBLK
  5
5CE7
330
5CDA
100
AcDbEntity
  8
0
100
AcDbBlockEnd
  0
BLOCK
  5
5EA8
330
5E9D
100
AcDbEntity
  8
0
100
AcDbBlockBegin
  2
*D52
 70
     1
 10
0.0
 20
0.0
 30
0.0
  3
*D52
  1

  0
LINE
  5
7186
330
5E9D
100
AcDbEntity
  8
DIM
 62
     0
370
    -2
100
AcDbLine
 10
16.47835603629661
 20
21.70230760825191
 30
0.0
 11
16.47835603629661
 21
22.07430760825191
 31
0.0
  0
LINE
  5
7187
330
5E9D
100
AcDbEntity
  8
DIM
 62
     0
370
    -2
100
AcDbLine
 10
16.64035603629655
 20
21.7023076082519
 30
0.0
 11
16.64035603629655
 21
22.07430760825191
 31
0.0
  0
LINE
  5
7188
330
5E9D
100
AcDbEntity
  8
DIM
 62
     0
370
    -2
100
AcDbLine
 10
15.75835603629661
 20
21.70230760825191
 30
0.0
 11
15.03835603629661
 21
21.70230760825191
 31
0.0
  0
LINE
  5
7189
330
5E9D
100
AcDbEntity
  8
DIM
 62
     0
370
    -2
100
AcDbLine
 10
17.36035603629655
 20
21.70230760825191
 30
0.0
 11
18.08035603629656
 21
21.70230760825191
 31
0.0
  0
SOLID
  5
718A
330
5E9D
100
AcDbEntity
  8
DIM
 62
     0
100
AcDbTrace
 10
15.75835603629661
 20
21.82230760825191
 30
0.0
 11
15.75835603629661
 21
21.58230760825191
 31
0.0
 12
16.47835603629661
 22
21.70230760825191
 32
0.0
 13
16.47835603629661
 23
21.70230760825191
 33
0.0
  0
SOLID
  5
718B
330
5E9D
100
AcDbEntity
  8
DIM
 62
     0
100
AcDbTrace
 10
17.36035603629655
 20
21.82230760825191
 30
0.0
 11
17.36035603629655
 21
21.58230760825191
 31
0.0
 12
16.64035603629655
 22
21.70230760825191
 32
0.0
 13
16.64035603629655
 23
21.70230760825191
 33
0.0
  0
MTEXT
  5
718C
330
5E9D
100
AcDbEntity
  8
DIM
 62
     0
100
AcDbMText
 10
19.09660603629656
 20
21.70230760825191
 30
0.0
 40
0.5
 41
0.0
 71
     5
 72
     1
  1
\A1;0.162\PTYP.
 73
     1
 44
1.0
  0
POINT
  5
718D
330
5E9D
100
AcDbEntity
  8
DEFPOINTS
 62
     0
100
AcDbPoint
 10
16.47835603629661
 20
21.45030760825191
 30
0.0
  0
POINT
  5
718E
330
5E9D
100
AcDbEntity
  8
DEFPOINTS
 62
     0
100
AcDbPoint
 10
16.64035603629655
 20
21.4503076082519
 30
0.0
  0
POINT
  5
718F
330
5E9D
100
AcDbEntity
  8
DEFPOINTS
 62
     0
100
AcDbPoint
 10
16.64035603629655
 20
21.70230760825191
 30
0.0
  0
ENDBLK
  5
5EA9
330
5E9D
100
AcDbEntity
  8
0
100
AcDbBlockEnd
  0
BLOCK
  5
5F2F
330
5F24
100
AcDbEntity
  8
0
100
AcDbBlockBegin
  2
*D53
 70
     1
 10
0.0
 20
0.0
 30
0.0
  3
*D53
  1

  0
LINE
  5
717C
330
5F24
100
AcDbEntity
  8
DIM
 62
     0
370
    -2
100
AcDbLine
 10
16.51285603629656
 20
18.78935649649164
 30
0.0
 11
21.67429163644098
 21
18.78935649649164
 31
0.0
  0
LINE
  5
717D
330
5F24
100
AcDbEntity
  8
DIM
 62
     0
370
    -2
100
AcDbLine
 10
16.50235603629655
 20
12.1148564964916
 30
0.0
 11
21.67429163644098
 21
12.1148564964916
 31
0.0
  0
LINE
  5
717E
330
5F24
100
AcDbEntity
  8
DIM
 62
     0
370
    -2
100
AcDbLine
 10
21.30229163644098
 20
18.06935649649163
 30
0.0
 11
21.30229163644098
 21
16.06210649649162
 31
0.0
  0
LINE
  5
717F
330
5F24
100
AcDbEntity
  8
DIM
 62
     0
370
    -2
100
AcDbLine
 10
21.30229163644098
 20
12.8348564964916
 30
0.0
 11
21.30229163644098
 21
14.84210649649162
 31
0.0
  0
SOLID
  5
7180
330
5F24
100
AcDbEntity
  8
DIM
 62
     0
100
AcDbTrace
 10
21.18229163644098
 20
18.06935649649163
 30
0.0
 11
21.42229163644098
 21
18.06935649649163
 31
0.0
 12
21.30229163644098
 22
18.78935649649164
 32
0.0
 13
21.30229163644098
 23
18.78935649649164
 33
0.0
  0
SOLID
  5
7181
330
5F24
100
AcDbEntity
  8
DIM
 62
     0
100
AcDbTrace
 10
21.18229163644098
 20
12.8348564964916
 30
0.0
 11
21.42229163644098
 21
12.8348564964916
 31
0.0
 12
21.30229163644098
 22
12.1148564964916
 32
0.0
 13
21.30229163644098
 23
12.1148564964916
 33
0.0
  0
MTEXT
  5
7182
330
5F24
100
AcDbEntity
  8
DIM
 62
     0
100
AcDbMText
 10
21.30229163644098
 20
15.45210649649162
 30
0.0
 40
0.5
 41
0.0
 71
     5
 72
     1
  1
\A1;6.675
 73
     1
 44
1.0
  0
POINT
  5
7183
330
5F24
100
AcDbEntity
  8
DEFPOINTS
 62
     0
100
AcDbPoint
 10
16.26085603629656
 20
18.78935649649164
 30
0.0
  0
POINT
  5
7184
330
5F24
100
AcDbEntity
  8
DEFPOINTS
 62
     0
100
AcDbPoint
 10
16.25035603629656
 20
12.1148564964916
 30
0.0
  0
POINT
  5
7185
330
5F24
100
AcDbEntity
  8
DEFPOINTS
 62
     0
100
AcDbPoint
 10
21.30229163644098
 20
12.1148564964916
 30
0.0
  0
ENDBLK
  5
5F30
330
5F24
100
AcDbEntity
  8
0
100
AcDbBlockEnd
  0
BLOCK
  5
6369
330
635E
100
AcDbEntity
  8
0
100
AcDbBlockBegin
  2
*D54
 70
     1
 10
0.0
 20
0.0
 30
0.0
  3
*D54
  1

  0
LINE
  5
71F6
330
635E
100
AcDbEntity
  8
DIM
 62
     0
370
    -2
100
AcDbLine
 10
8.795356036296603
 20
11.84835649649167
 30
0.0
 11
8.795356036296603
 21
10.25213876422847
 31
0.0
  0
LINE
  5
71F7
330
635E
100
AcDbEntity
  8
DIM
 62
     0
370
    -2
100
AcDbLine
 10
12.71785603629658
 20
12.04135649649168
 30
0.0
 11
12.71785603629658
 21
10.25213876422847
 31
0.0
  0
LINE
  5
71F8
330
635E
100
AcDbEntity
  8
DIM
 62
     0
370
    -2
100
AcDbLine
 10
9.515356036296603
 20
10.62413876422847
 30
0.0
 11
9.646606036296589
 21
10.62413876422847
 31
0.0
  0
LINE
  5
71F9
330
635E
100
AcDbEntity
  8
DIM
 62
     0
370
    -2
100
AcDbLine
 10
11.99785603629658
 20
10.62413876422847
 30
0.0
 11
11.86660603629658
 21
10.62413876422847
 31
0.0
  0
SOLID
  5
71FA
330
635E
100
AcDbEntity
  8
DIM
 62
     0
100
AcDbTrace
 10
9.515356036296603
 20
10.74413876422847
 30
0.0
 11
9.515356036296603
 21
10.50413876422847
 31
0.0
 12
8.795356036296603
 22
10.62413876422847
 32
0.0
 13
8.795356036296603
 23
10.62413876422847
 33
0.0
  0
SOLID
  5
71FB
330
635E
100
AcDbEntity
  8
DIM
 62
     0
100
AcDbTrace
 10
11.99785603629658
 20
10.74413876422847
 30
0.0
 11
11.99785603629658
 21
10.50413876422847
 31
0.0
 12
12.71785603629658
 22
10.62413876422847
 32
0.0
 13
12.71785603629658
 23
10.62413876422847
 33
0.0
  0
MTEXT
  5
71FC
330
635E
100
AcDbEntity
  8
DIM
 62
     0
100
AcDbMText
 10
10.75660603629658
 20
10.62413876422847
 30
0.0
 40
0.5
 41
0.0
 71
     5
 72
     1
  1
\A1;3.923
 73
     1
 44
1.0
  0
POINT
  5
71FD
330
635E
100
AcDbEntity
  8
DEFPOINTS
 62
     0
100
AcDbPoint
 10
8.795356036296603
 20
12.10035649649167
 30
0.0
  0
POINT
  5
71FE
330
635E
100
AcDbEntity
  8
DEFPOINTS
 62
     0
100
AcDbPoint
 10
12.71785603629658
 20
12.29335649649168
 30
0.0
  0
POINT
  5
71FF
330
635E
100
AcDbEntity
  8
DEFPOINTS
 62
     0
100
AcDbPoint
 10
12.71785603629658
 20
10.62413876422847
 30
0.0
  0
ENDBLK
  5
636A
330
635E
100
AcDbEntity
  8
0
100
AcDbBlockEnd
  0
BLOCK
  5
647E
330
6473
100
AcDbEntity
  8
0
100
AcDbBlockBegin
  2
*D55
 70
     1
 10
0.0
 20
0.0
 30
0.0
  3
*D55
  1

  0
LINE
  5
7200
330
6473
100
AcDbEntity
  8
DIM
 62
     0
370
    -2
100
AcDbLine
 10
8.918356036296588
 20
25.85335649649166
 30
0.0
 11
2.852453695803364
 21
25.85335649649167
 31
0.0
  0
LINE
  5
7201
330
6473
100
AcDbEntity
  8
DIM
 62
     0
370
    -2
100
AcDbLine
 10
8.941356036296605
 20
18.78935649649165
 30
0.0
 11
2.852453695803362
 21
18.78935649649165
 31
0.0
  0
LINE
  5
7202
330
6473
100
AcDbEntity
  8
DIM
 62
     0
370
    -2
100
AcDbLine
 10
3.224453695803363
 20
25.13335649649167
 30
0.0
 11
3.224453695803362
 21
22.93135649649166
 31
0.0
  0
LINE
  5
7203
330
6473
100
AcDbEntity
  8
DIM
 62
     0
370
    -2
100
AcDbLine
 10
3.224453695803362
 20
19.50935649649165
 30
0.0
 11
3.224453695803362
 21
21.71135649649166
 31
0.0
  0
SOLID
  5
7204
330
6473
100
AcDbEntity
  8
DIM
 62
     0
100
AcDbTrace
 10
3.104453695803363
 20
25.13335649649167
 30
0.0
 11
3.344453695803363
 21
25.13335649649167
 31
0.0
 12
3.224453695803363
 22
25.85335649649167
 32
0.0
 13
3.224453695803363
 23
25.85335649649167
 33
0.0
  0
SOLID
  5
7205
330
6473
100
AcDbEntity
  8
DIM
 62
     0
100
AcDbTrace
 10
3.104453695803362
 20
19.50935649649165
 30
0.0
 11
3.344453695803362
 21
19.50935649649165
 31
0.0
 12
3.224453695803362
 22
18.78935649649165
 32
0.0
 13
3.224453695803362
 23
18.78935649649165
 33
0.0
  0
MTEXT
  5
7206
330
6473
100
AcDbEntity
  8
DIM
 62
     0
100
AcDbMText
 10
3.224453695803359
 20
22.32135649649166
 30
0.0
 40
0.5
 41
0.0
 71
     5
 72
     1
  1
\A1;7.064
 73
     1
 44
1.0
  0
POINT
  5
7207
330
6473
100
AcDbEntity
  8
DEFPOINTS
 62
     0
100
AcDbPoint
 10
9.170356036296588
 20
25.85335649649166
 30
0.0
  0
POINT
  5
7208
330
6473
100
AcDbEntity
  8
DEFPOINTS
 62
     0
100
AcDbPoint
 10
9.193356036296606
 20
18.78935649649165
 30
0.0
  0
POINT
  5
7209
330
6473
100
AcDbEntity
  8
DEFPOINTS
 62
     0
100
AcDbPoint
 10
3.224453695803362
 20
18.78935649649165
 30
0.0
  0
ENDBLK
  5
647F
330
6473
100
AcDbEntity
  8
0
100
AcDbBlockEnd
  0
ENDSEC
  0
SECTION
  2
ENTITIES
  0
DIMENSION
  5
3B57
330
28C7
100
AcDbEntity
  8
DIM
100
AcDbDimension
  2
*D0
 10
62.32261243073287
 20
27.96535649649166
 30
0.0
 11
59.37011243073285
 21
27.96535649649166
 31
0.0
 70
    32
 71
     5
 42
5.905000000000043
  3
23NSTD
100
AcDbAlignedDimension
 13
56.41761243073283
 23
25.79135649649166
 33
0.0
 14
62.32261243073287
 24
25.79135649649166
 34
0.0
 50
180.0
100
AcDbRotatedDimension
  0
DIMENSION
  5
3B64
330
28C7
100
AcDbEntity
  8
DIM
100
AcDbDimension
  2
*D1
 10
56.41761243073283
 20
26.84935649649167
 30
0.0
 11
53.11761243073283
 21
26.84935649649167
 31
0.0
 70
    32
  1
<> REF.
 71
     5
 42
1.968000000000046
  3
23NSTD
100
AcDbAlignedDimension
 13
58.38561243073288
 23
25.85335649649167
 33
0.0
 14
56.41761243073283
 24
25.79135649649166
 34
0.0
 50
180.0
100
AcDbRotatedDimension
  0
TEXT
  5
3B80
330
28C7
100
AcDbEntity
  8
TEXT
100
AcDbText
 10
16.66836989891054
 20
26.33785649649162
 30
0.0
 40
0.5
  1
A
 41
0.8
  7
SECTION
 72
     4
 11
16.85884608938673
 21
26.58785649649162
 31
0.0
100
AcDbText
  0
TEXT
  5
3B81
330
28C7
100
AcDbEntity
  8
TEXT
100
AcDbText
 10
16.09346342091175
 20
10.74085649649171
 30
0.0
 40
0.5
  1
A
 41
0.8
  7
SECTION
 72
     4
 11
16.28393961138794
 21
10.99085649649172
 31
0.0
100
AcDbText
  0
TEXT
  5
3B9E
330
28C7
100
AcDbEntity
  8
TEXT
100
AcDbText
 10
11.71885603629658
 20
1.655318187076076
 30
0.0
 40
0.72
  1
%%UBODY
 41
0.75
 72
     1
 11
12.71785603629658
 21
1.655318187076076
 31
0.0
100
AcDbText
  0
TEXT
  5
3B9F
330
28C7
100
AcDbEntity
  8
TEXT
100
AcDbText
 10
40.62282469475475
 20
8.233724441237896
 30
0.0
 40
0.72
  1
%%UCOVER
 41
0.75
 72
     1
 11
41.98182469475476
 21
8.233724441237896
 31
0.0
100
AcDbText
  0
TEXT
  5
3BD6
330
28C7
100
AcDbEntity
  8
TEXT
100
AcDbText
 10
45.62278910161455
 20
10.74085649649177
 30
0.0
 40
0.5
  1
B
 41
0.8
  7
SECTION
 72
     4
 11
45.82278910161456
 21
10.99085649649177
 31
0.0
100
AcDbText
  0
TEXT
  5
3BD7
330
28C7
100
AcDbEntity
  8
TEXT
100
AcDbText
 10
43.59782528180295
 20
26.33785649649167
 30
0.0
 40
0.5
  1
B
 41
0.8
  7
SECTION
 72
     4
 11
43.79782528180295
 21
26.58785649649168
 31
0.0
100
AcDbText
  0
DIMENSION
  5
3BD8
330
28C7
100
AcDbEntity
  8
DIM
100
AcDbDimension
  2
*D2
 10
51.00955772850273
 20
16.30626566449618
 30
0.0
 11
53.43455772850273
 21
16.30626566449618
 31
0.0
 70
    32
 71
     5
 42
0.1400000000000006
  3
23NSTD
100
AcDbAlignedDimension
 13
50.86955772850273
 23
15.66854441844182
 33
0.0
 14
51.00955772850273
 24
15.66854441844182
 34
0.0
100
AcDbRotatedDimension
  0
TEXT
  5
3BE6
330
28C7
100
AcDbEntity
  8
TEXT
100
AcDbText
 10
51.38374056172619
 20
29.83952779940545
 30
0.0
 40
0.5
  1
%%uDETAIL "C"
 41
0.8
  7
SECTION
 72
     4
 11
53.1427881807738
 21
30.0871468470245
 31
0.0
100
AcDbText
  0
DIMENSION
  5
3BEF
330
28C7
100
AcDbEntity
  8
DIM
100
AcDbDimension
  2
*D3
 10
29.85534394604251
 20
26.95585649649171
 30
0.0
 11
27.8508439460425
 21
26.95585649649171
 31
0.0
 70
   160
 71
     5
 42
4.009000000000014
  3
23NSTD
100
AcDbAlignedDimension
 13
25.8463439460425
 23
25.75135649649167
 33
0.0
 14
29.85534394604251
 24
25.7913564964917
 34
0.0
100
AcDbRotatedDimension
  0
DIMENSION
  5
3BFC
330
28C7
100
AcDbEntity
  8
DIM
100
AcDbDimension
  2
*D4
 10
29.85534394604254
 20
21.28899936455353
 30
0.0
 11
32.28034394604253
 21
21.28899936455353
 31
0.0
 70
    32
 71
     5
 42
0.1400000000000219
  3
23NSTD
100
AcDbAlignedDimension
 13
29.71534394604251
 23
21.13149936455353
 33
0.0
 14
29.85534394604254
 24
21.13149936455353
 34
0.0
100
AcDbRotatedDimension
  0
DIMENSION
  5
3C0A
330
28C7
100
AcDbEntity
  8
DIM
100
AcDbDimension
  2
*D5
 10
29.85534394604251
 20
14.68735649649168
 30
0.0
 11
32.34284394604251
 21
14.68735649649168
 31
0.0
 70
    32
 71
     5
 42
0.529999999999987
  3
23NSTD
100
AcDbAlignedDimension
 13
29.32534394604253
 23
14.06335649649168
 33
0.0
 14
29.85534394604251
 24
14.06335649649168
 34
0.0
100
AcDbRotatedDimension
  0
DIMENSION
  5
3C18
330
28C7
100
AcDbEntity
  8
DIM
100
AcDbDimension
  2
*D6
 10
11.1428560362966
 20
26.57126656580878
 30
0.0
 11
11.93035603629659
 21
26.57126656580878
 31
0.0
 70
   160
 71
     5
 42
1.574999999999981
  3
23NSTDI
100
AcDbAlignedDimension
 13
12.71785603629658
 23
25.27235649649167
 33
0.0
 14
11.1428560362966
 24
25.27235649649167
 34
0.0
100
AcDbRotatedDimension
  0
DIMENSION
  5
3C26
330
28C7
100
AcDbEntity
  8
DIM
100
AcDbDimension
  2
*D7
 10
14.29285603629659
 20
27.4736715086272
 30
0.0
 11
12.71785603629659
 21
27.4736715086272
 31
0.0
 70
   160
 71
     5
 42
3.149999999999991
  3
23NSTD
100
AcDbAlignedDimension
 13
11.1428560362966
 23
25.27235649649167
 33
0.0
 14
14.29285603629659
 24
25.27235649649167
 34
0.0
100
AcDbRotatedDimension
  0
DIMENSION
  5
3C42
330
28C7
100
AcDbEntity
  8
DIM
100
AcDbDimension
  2
*D8
 10
16.64035603629658
 20
13.43264103492806
 30
0.0
 11
19.03410603629659
 21
13.43264103492806
 31
0.0
 70
    32
 71
     5
 42
1.201000000000014
  3
23NSTD
100
AcDbAlignedDimension
 13
15.43935603629657
 23
12.01235649649169
 33
0.0
 14
16.64035603629658
 24
12.10035649649169
 34
0.0
100
AcDbRotatedDimension
  0
DIMENSION
  5
3C50
330
28C7
100
AcDbEntity
  8
DIM
100
AcDbDimension
  2
*D9
 10
17.65185603629658
 20
25.85335649649169
 30
0.0
 11
19.45060603629657
 21
27.2933564964917
 31
0.0
 70
   160
 71
     5
 42
0.729000000000049
  3
23NSTD
100
AcDbAlignedDimension
 13
16.35335603629659
 23
25.12435649649164
 33
0.0
 14
16.25485603629653
 24
25.85335649649169
 34
0.0
 50
90.0
100
AcDbRotatedDimension
  0
DIMENSION
  5
3C5E
330
28C7
100
AcDbEntity
  8
DIM
100
AcDbDimension
  2
*D10
 10
24.9103439460425
 20
18.43335649649167
 30
0.0
 11
24.9103439460425
 21
18.78935649649167
 31
0.0
 70
    32
 71
     5
 42
0.7119999999999998
  3
23NSTDI
100
AcDbAlignedDimension
 13
25.8463439460425
 23
19.14535649649167
 33
0.0
 14
25.8463439460425
 24
18.43335649649167
 34
0.0
 50
90.0
100
AcDbRotatedDimension
  0
TEXT
  5
3C6C
330
28C7
100
AcDbEntity
  8
TEXT
100
AcDbText
 10
25.24911218632772
 20
8.277851491850462
 30
0.0
 40
0.5
  1
%%uSECTION "A-A"
 41
0.8
  7
SECTION
 72
     4
 11
27.68435028156582
 21
8.525470539469509
 31
0.0
100
AcDbText
  0
LINE
  5
3C6F
330
28C7
100
AcDbEntity
  8
OBJECT
100
AcDbLine
 10
50.86955772850273
 20
11.78535649649171
 30
0.0
 11
50.86955772850273
 21
11.89335649649168
 31
0.0
  0
LINE
  5
3C70
330
28C7
100
AcDbEntity
  8
OBJECT
100
AcDbLine
 10
48.98455772850268
 20
25.0533564964917
 30
0.0
 11
50.86955772850273
 21
25.0533564964917
 31
0.0
  0
LINE
  5
3C71
330
28C7
100
AcDbEntity
  8
OBJECT
100
AcDbLine
 10
48.98455772850268
 20
25.62335649649169
 30
0.0
 11
50.86955772850273
 21
25.62335649649169
 31
0.0
  0
LWPOLYLINE
  5
3C72
330
28C7
100
AcDbEntity
  8
OBJECT
100
AcDbPolyline
 90
        4
 70
     0
 43
0.0
 10
49.04155772850271
 20
25.79335649649169
 10
49.21655772850269
 20
25.79335649649169
 10
49.21655772850269
 20
25.6733564964917
 10
48.98455772850269
 20
25.6733564964917
  0
LINE
  5
3C80
330
28C7
100
AcDbEntity
  8
OBJECT
100
AcDbLine
 10
48.98455772850268
 20
18.43435615558204
 30
0.0
 11
50.86955772850273
 21
18.43435615558204
 31
0.0
  0
LINE
  5
3C81
330
28C7
100
AcDbEntity
  8
OBJECT
100
AcDbLine
 10
48.98455772850268
 20
19.26035615558206
 30
0.0
 11
50.86955772850273
 21
19.26035615558206
 31
0.0
  0
LINE
  5
3C82
330
28C7
100
AcDbEntity
  8
OBJECT
100
AcDbLine
 10
49.04155772850271
 20
18.76135615558205
 30
0.0
 11
49.59955772850273
 21
18.76135615558205
 31
0.0
  0
LINE
  5
3C83
330
28C7
100
AcDbEntity
  8
OBJECT
100
AcDbLine
 10
49.04155772850271
 20
18.93335615558205
 30
0.0
 11
49.59955772850273
 21
18.93335615558205
 31
0.0
  0
LWPOLYLINE
  5
3C85
330
28C7
100
AcDbEntity
  8
OBJECT
100
AcDbPolyline
 90
        4
 70
     0
 43
0.0
 10
49.04155772850271
 20
18.60435615558206
 10
49.21655772850269
 20
18.60435615558206
 10
49.21655772850269
 20
18.48435615558206
 10
48.98455772850271
 20
18.48435615558206
  0
LWPOLYLINE
  5
3C8B
330
28C7
100
AcDbEntity
  8
OBJECT
100
AcDbPolyline
 90
        4
 70
     0
 43
0.0
 10
49.04155772850271
 20
19.09035615558205
 10
49.21655772850269
 20
19.09035615558205
 10
49.21655772850269
 20
19.21035615558205
 10
48.98455772850271
 20
19.21035615558205
  0
LINE
  5
3C99
330
28C7
100
AcDbEntity
  8
OBJECT
100
AcDbLine
 10
48.98455772850268
 20
12.52535649649173
 30
0.0
 11
50.86955772850273
 21
12.52535649649173
 31
0.0
  0
LINE
  5
3C9A
330
28C7
100
AcDbEntity
  8
OBJECT
100
AcDbLine
 10
49.04155772850271
 20
12.20085649649172
 30
0.0
 11
49.59955772850273
 21
12.20085649649172
 31
0.0
  0
LINE
  5
3C9B
330
28C7
100
AcDbEntity
  8
OBJECT
100
AcDbLine
 10
49.04155772850271
 20
12.02885649649172
 30
0.0
 11
49.59955772850273
 21
12.02885649649172
 31
0.0
  0
LWPOLYLINE
  5
3C9D
102
{ACAD_REACTORS
330
6C7A
102
}
330
28C7
100
AcDbEntity
  8
OBJECT
100
AcDbPolyline
 90
        4
 70
     0
 43
0.0
 10
49.04155772850271
 20
12.35535649649176
 10
49.21655772850269
 20
12.35535649649176
 10
49.21655772850269
 20
12.47535649649173
 10
48.98455772850271
 20
12.47535649649173
  0
CIRCLE
  5
3CA3
330
28C7
100
AcDbEntity
  8
BEND
100
AcDbCircle
 10
49.96224956088743
 20
12.39010195122095
 30
0.0
 40
1.359595140781245
  0
DIMENSION
  5
3CB1
330
28C7
100
AcDbEntity
  8
DIM
100
AcDbDimension
  2
*D11
 10
54.30315711281622
 20
31.20447592207689
 30
0.0
 11
56.88417450902747
 21
31.20447592207689
 31
0.0
 70
   160
 71
     5
 42
1.409999999999996
  3
23NSTD4
100
AcDbAlignedDimension
 13
59.9431571128162
 23
32.42077411499753
 33
0.0
 14
54.30315711281622
 24
33.04877411499753
 34
0.0
 50
180.0
100
AcDbRotatedDimension
  0
DIMENSION
  5
3CBF
330
28C7
100
AcDbEntity
  8
DIM
100
AcDbDimension
  2
*D12
 10
63.08715711281613
 20
33.04877411499755
 30
0.0
 11
63.08715711281612
 21
33.74877411499756
 31
0.0
 70
    32
  1
<> DIA. C'BORE
 71
     5
 42
0.350000000000005
  3
23NSTD4I
100
AcDbAlignedDimension
 13
59.94315711281615
 23
34.44877411499756
 33
0.0
 14
59.9431571128163
 24
33.04877411499755
 34
0.0
 50
90.0
100
AcDbRotatedDimension
  0
DIMENSION
  5
3CDD
330
28C7
100
AcDbEntity
  8
DIM
100
AcDbDimension
  2
*D13
 10
50.88625228997159
 20
33.40477411499757
 30
0.0
 11
48.40000228997158
 21
31.96477411499758
 31
0.0
 70
    32
  1
<> DIA.
 71
     5
 42
0.1719999999999917
  3
23NSTD4
100
AcDbAlignedDimension
 13
52.07115711281612
 23
34.09277411499754
 33
0.0
 14
52.07115711281612
 24
33.40477411499757
 34
0.0
 50
270.0
100
AcDbRotatedDimension
  0
LWPOLYLINE
  5
3CEB
330
28C7
100
AcDbEntity
  8
OBJECT
100
AcDbPolyline
 90
        4
 70
     0
 43
0.0
 10
38.00744883536799
 20
30.16998331256228
 10
38.00744883536799
 20
30.11298331256226
 10
45.49244883536792
 20
30.11298331256215
 10
45.49244883536793
 20
30.16998331256214
  0
LINE
  5
3CF1
330
28C7
100
AcDbEntity
  8
HIDDEN
100
AcDbLine
 10
38.00744883536799
 20
30.34498331256225
 30
0.0
 11
45.51244883536798
 21
30.34498331256215
 31
0.0
  0
LWPOLYLINE
  5
3CF2
330
28C7
100
AcDbEntity
  8
OBJECT
100
AcDbPolyline
 90
        6
 70
     1
 43
0.0
 10
45.67244883536798
 20
32.07598331256214
 42
0.4142135623730951
 10
45.61044883536797
 20
32.13798331256216
 10
37.88944883536801
 20
32.1379833125623
 42
0.4142135623730951
 10
37.827448835368
 20
32.07598331256228
 10
37.827448835368
 20
30.16998331256228
 10
45.67244883536798
 20
30.16998331256214
  0
LINE
  5
3CFA
330
28C7
100
AcDbEntity
  8
HIDDEN
100
AcDbLine
 10
45.61244883536796
 20
31.99798331256214
 30
0.0
 11
37.887448835368
 21
31.99798331256228
 31
0.0
  0
LINE
  5
3CFD
330
28C7
100
AcDbEntity
  8
HIDDEN
100
AcDbLine
 10
37.887448835368
 20
30.16998331256228
 30
0.0
 11
37.887448835368
 21
31.99798331256228
 31
0.0
  0
LINE
  5
3CFE
330
28C7
100
AcDbEntity
  8
HIDDEN
100
AcDbLine
 10
39.10244883536802
 20
30.11298331256226
 30
0.0
 11
39.10244883536802
 21
31.99798331256228
 31
0.0
  0
LINE
  5
3D00
330
28C7
100
AcDbEntity
  8
HIDDEN
100
AcDbLine
 10
38.86744883536803
 20
30.16998331256228
 30
0.0
 11
38.86744883536803
 21
31.99798331256228
 31
0.0
  0
LWPOLYLINE
  5
3D01
330
28C7
100
AcDbEntity
  8
HIDDEN
100
AcDbPolyline
 90
        4
 70
     0
 43
0.0
 10
37.887448835368
 20
30.16998331256228
 10
37.887448835368
 20
30.34498331256225
 10
38.00744883536799
 20
30.34498331256225
 10
38.00744883536799
 20
30.16998331256228
  0
LINE
  5
3D07
330
28C7
100
AcDbEntity
  8
OBJECT
100
AcDbLine
 10
39.05244883536799
 20
30.16998331256228
 30
0.0
 11
39.05244883536799
 21
30.11298331256226
 31
0.0
  0
LWPOLYLINE
  5
3D08
330
28C7
100
AcDbEntity
  8
HIDDEN
100
AcDbPolyline
 90
        4
 70
     0
 43
0.0
 10
38.932448835368
 20
30.16998331256228
 10
38.932448835368
 20
30.34498331256225
 10
39.05244883536799
 20
30.34498331256225
 10
39.05244883536799
 20
30.16998331256228
  0
LINE
  5
3D16
330
28C7
100
AcDbEntity
  8
HIDDEN
100
AcDbLine
 10
45.61244883536814
 20
30.16998331256228
 30
0.0
 11
45.61244883536814
 21
31.99798331256228
 31
0.0
  0
LINE
  5
3D17
330
28C7
100
AcDbEntity
  8
HIDDEN
100
AcDbLine
 10
44.3974488353681
 20
30.11298331256226
 30
0.0
 11
44.3974488353681
 21
31.99798331256228
 31
0.0
  0
LINE
  5
3D18
330
28C7
100
AcDbEntity
  8
HIDDEN
100
AcDbLine
 10
44.63244883536813
 20
30.16998331256228
 30
0.0
 11
44.63244883536813
 21
31.99798331256228
 31
0.0
  0
LWPOLYLINE
  5
3D1A
330
28C7
100
AcDbEntity
  8
HIDDEN
100
AcDbPolyline
 90
        4
 70
     0
 43
0.0
 10
44.56744883536813
 20
30.16998331256228
 10
44.56744883536813
 20
30.34498331256225
 10
44.44744883536813
 20
30.34498331256225
 10
44.44744883536813
 20
30.16998331256228
  0
LINE
  5
3D20
330
28C7
100
AcDbEntity
  8
OBJECT
100
AcDbLine
 10
44.44744883536813
 20
30.16998331256228
 30
0.0
 11
44.44744883536813
 21
30.11298331256226
 31
0.0
  0
LWPOLYLINE
  5
3D21
330
28C7
100
AcDbEntity
  8
HIDDEN
100
AcDbPolyline
 90
        4
 70
     0
 43
0.0
 10
45.61244883536814
 20
30.16998331256228
 10
45.61244883536814
 20
30.34498331256225
 10
45.49244883536814
 20
30.34498331256225
 10
45.49244883536814
 20
30.16998331256228
  0
DIMENSION
  5
3D2E
330
28C7
100
AcDbEntity
  8
DIM
100
AcDbDimension
  2
*D14
 10
49.43001716240247
 20
34.69277411499769
 30
0.0
 11
47.72501716240246
 21
33.2527741149977
 31
0.0
 70
    32
 71
     5
 42
0.1200000000000045
  3
23NSTD4
100
AcDbAlignedDimension
 13
52.07115711281669
 23
35.17277411499771
 33
0.0
 14
51.84315711281618
 24
34.69277411499769
 34
0.0
 50
270.0
100
AcDbRotatedDimension
  0
DIMENSION
  5
3D3C
330
28C7
100
AcDbEntity
  8
DIM
100
AcDbDimension
  2
*D15
 10
52.77115711281607
 20
38.19823417868128
 30
0.0
 11
55.22740711281606
 21
38.19823417868128
 31
0.0
 70
    32
 71
     5
 42
0.1749999999999829
  3
23NSTD4
100
AcDbAlignedDimension
 13
52.07115711281613
 23
35.1907741149977
 33
0.0
 14
52.77115711281607
 24
35.1907741149977
 34
0.0
 50
180.0
100
AcDbRotatedDimension
  0
DIMENSION
  5
3D58
330
28C7
100
AcDbEntity
  8
DIM
100
AcDbDimension
  2
*D16
 10
43.23394799265761
 20
11.72535649649168
 30
0.0
 11
40.65394799265761
 21
10.28535649649169
 31
0.0
 70
   160
  1
<> TYP.
 71
     5
 42
0.2300000000000431
  3
23NSTD
100
AcDbAlignedDimension
 13
43.48594799265761
 23
11.95535649649173
 33
0.0
 14
43.48594799265761
 24
11.72535649649168
 34
0.0
 50
90.0
100
AcDbRotatedDimension
  0
LWPOLYLINE
  5
3D68
330
28C7
100
AcDbEntity
  8
OBJECT
100
AcDbPolyline
 90
        6
 70
     1
 43
0.0
 10
56.47961243073282
 20
25.85335649649169
 42
0.4142135623730951
 10
56.41761243073283
 20
25.79135649649167
 10
56.41761243073283
 20
11.7873564964917
 42
0.4142135623730951
 10
56.47961243073282
 20
11.72535649649168
 10
58.38561243073288
 20
11.72535649649168
 10
58.38561243073288
 20
25.85335649649169
  0
LWPOLYLINE
  5
3DC1
330
28C7
100
AcDbEntity
  8
OBJECT
100
AcDbPolyline
 90
        5
 70
     0
 43
0.0
 10
58.42561243073288
 20
25.83335649649167
 10
58.38561243073288
 20
25.83335649649167
 10
58.38561243073288
 20
11.74535649649169
 10
58.42561243073288
 20
11.74535649649169
 10
58.38561243073288
 20
11.74535649649169
  0
LWPOLYLINE
  5
3DD5
330
28C7
100
AcDbEntity
  8
OBJECT
100
AcDbPolyline
 90
        6
 70
     1
 43
0.0
 10
58.42561243073288
 20
25.85335649649166
 10
62.26061243073289
 20
25.85335649649169
 42
-0.414213562373096
 10
62.32261243073287
 20
25.79135649649167
 10
62.32261243073287
 20
11.7873564964917
 42
-0.4142135623730951
 10
62.26061243073289
 20
11.72535649649168
 10
58.42561243073288
 20
11.72535649649168
  0
LWPOLYLINE
  5
3E59
330
28C7
100
AcDbEntity
  8
OBJECT
100
AcDbPolyline
 90
        2
 70
     0
 43
0.0
 10
49.04155772850271
 20
19.21035615558205
 10
49.04155772850271
 20
18.48435615558206
  0
LINE
  5
3E5D
330
28C7
100
AcDbEntity
  8
OBJECT
100
AcDbLine
 10
50.86955772850273
 20
19.26035615558206
 30
0.0
 11
50.86955772850273
 21
25.62335649649169
 31
0.0
  0
LWPOLYLINE
  5
3E5E
102
{ACAD_REACTORS
330
6C7A
102
}
330
28C7
100
AcDbEntity
  8
OBJECT
100
AcDbPolyline
 90
        3
 70
     0
 43
0.0
 10
49.04155772850271
 20
12.47535649649173
 10
49.04155772850271
 20
11.7253564964917
 10
50.9475577285027
 20
11.7253564964917
 42
0.4142135623730951
  0
LINE
  5
3E63
330
28C7
100
AcDbEntity
  8
OBJECT
100
AcDbLine
 10
48.98455772850269
 20
25.6733564964917
 30
0.0
 11
48.98455772850271
 21
11.90535649649174
 31
0.0
  0
LINE
  5
3E64
330
28C7
100
AcDbEntity
  8
OBJECT
100
AcDbLine
 10
48.98455772850271
 20
11.90535649649174
 30
0.0
 11
49.04155772850271
 21
11.90535649649174
 31
0.0
  0
LINE
  5
3E6D
330
28C7
100
AcDbEntity
  8
OBJECT
100
AcDbLine
 10
49.04155772850271
 20
11.78535649649171
 30
0.0
 11
50.86955772850273
 21
11.78535649649171
 31
0.0
  0
LINE
  5
3E6E
330
28C7
100
AcDbEntity
  8
OBJECT
100
AcDbLine
 10
49.04155772850271
 20
11.96185649649174
 30
0.0
 11
49.5135577285027
 21
11.96185649649174
 31
0.0
  0
LINE
  5
3E6F
330
28C7
100
AcDbEntity
  8
OBJECT
100
AcDbLine
 10
49.5135577285027
 20
11.96185649649173
 30
0.0
 11
49.5135577285027
 21
11.89335649649168
 31
0.0
  0
LINE
  5
3E70
330
28C7
100
AcDbEntity
  8
OBJECT
100
AcDbLine
 10
49.5135577285027
 20
11.89335649649168
 30
0.0
 11
50.86955772850273
 21
11.89335649649168
 31
0.0
  0
LINE
  5
3E71
330
28C7
100
AcDbEntity
  8
OBJECT
100
AcDbLine
 10
50.86955772850273
 20
12.52535649649173
 30
0.0
 11
50.86955772850273
 21
18.43435615558204
 31
0.0
  0
TEXT
  5
3F6C
330
28C7
100
AcDbEntity
  8
TEXT
100
AcDbText
 10
47.34022416810726
 20
9.165884996095847
 30
0.0
 40
0.5
  1
%%uSECTION "B-B"
 41
0.8
  7
SECTION
 72
     4
 11
49.8135575014406
 21
9.413504043714894
 31
0.0
100
AcDbText
  0
DIMENSION
  5
3F6D
330
28C7
100
AcDbEntity
  8
DIM
100
AcDbDimension
  2
*D17
 10
36.12694883536796
 20
30.16998331256228
 30
0.0
 11
36.12694883536796
 21
31.15398331256229
 31
0.0
 70
    32
 71
     5
 42
1.968000000000017
  3
23NSTD
100
AcDbAlignedDimension
 13
37.88944883536801
 23
32.1379833125623
 33
0.0
 14
37.827448835368
 24
30.16998331256228
 34
0.0
 50
90.0
100
AcDbRotatedDimension
  0
DIMENSION
  5
3F7B
330
28C7
100
AcDbEntity
  8
DIM
100
AcDbDimension
  2
*D18
 10
12.71785603629658
 20
24.20754490629362
 30
0.0
 11
11.02485603629657
 21
24.20754490629362
 31
0.0
 70
   160
 71
     5
 42
3.386000000000009
  3
23NSTD
100
AcDbAlignedDimension
 13
9.331856036296571
 23
24.71435649649167
 33
0.0
 14
12.71785603629658
 24
25.28535649649167
 34
0.0
100
AcDbRotatedDimension
  0
DIMENSION
  5
3F89
330
28C7
100
AcDbEntity
  8
DIM
100
AcDbDimension
  2
*D19
 10
16.10385603629659
 20
23.00059735477815
 30
0.0
 11
12.71785603629658
 21
23.00059735477815
 31
0.0
 70
   160
 71
     5
 42
6.772000000000019
  3
23NSTD
100
AcDbAlignedDimension
 13
9.331856036296571
 23
24.71435649649167
 33
0.0
 14
16.10385603629659
 24
24.71435649649167
 34
0.0
100
AcDbRotatedDimension
  0
LWPOLYLINE
  5
3F97
330
28C7
100
AcDbEntity
  8
OBJECT
100
AcDbPolyline
 90
        6
 70
     1
 43
0.0
 10
16.64035603629658
 20
7.542323767105997
 10
16.64035603629663
 20
3.707323767106004
 42
-0.4142135623730977
 10
16.57835603629663
 20
3.645323767105994
 10
8.8573560362966
 20
3.645323767106006
 42
-0.4142135623730945
 10
8.795356036296603
 20
3.70732376710602
 10
8.795356036296603
 20
7.542323767106008
  0
LINE
  5
3F9F
330
28C7
100
AcDbEntity
  8
HIDDEN
100
AcDbLine
 10
16.47835603629661
 20
3.785323767105992
 30
0.0
 11
8.953356036296575
 21
3.785323767106007
 31
0.0
  0
LWPOLYLINE
  5
3FA0
330
28C7
100
AcDbEntity
  8
OBJECT
100
AcDbPolyline
 90
        5
 70
     0
 43
0.0
 10
16.6203560362966
 20
7.542323767105997
 10
16.6203560362966
 20
7.582323767106016
 10
8.815356036296599
 20
7.58232376710603
 10
8.815356036296599
 20
7.542323767106008
 10
8.815356036296577
 20
7.58232376710603
  0
LWPOLYLINE
  5
3FA7
330
28C7
100
AcDbEntity
  8
OBJECT
100
AcDbPolyline
 90
        4
 70
     0
 43
0.0
 10
16.5383560362966
 20
7.582323767106039
 10
16.5383560362966
 20
7.654323767106017
 10
8.897356036296557
 20
7.65432376710603
 10
8.897356036296557
 20
7.58232376710603
  0
LINE
  5
3FAD
330
28C7
100
AcDbEntity
  8
HIDDEN
100
AcDbLine
 10
8.95735603629658
 20
7.654323767106021
 30
0.0
 11
8.95735603629658
 21
3.785323767105992
 31
0.0
  0
LINE
  5
3FAE
330
28C7
100
AcDbEntity
  8
HIDDEN
100
AcDbLine
 10
9.996356036296589
 20
7.654323767105992
 30
0.0
 11
9.996356036296617
 21
3.785323767105992
 31
0.0
  0
LWPOLYLINE
  5
3FAF
330
28C7
100
AcDbEntity
  8
HIDDEN
100
AcDbPolyline
 90
        4
 70
     0
 43
0.0
 10
9.426356036296617
 20
7.582323767106016
 10
9.426356036296603
 20
3.959323767106001
 10
9.896356036296609
 20
3.959323767106001
 10
9.896356036296609
 20
7.582323767106016
  0
LWPOLYLINE
  5
3FB5
330
28C7
100
AcDbEntity
  8
HIDDEN
100
AcDbPolyline
 90
        4
 70
     0
 43
0.0
 10
9.321356036296606
 20
3.645323767105994
 10
9.321356036296606
 20
7.267323767106017
 10
8.865356036296589
 20
7.267323767106057
 10
8.865356036296574
 20
3.645323767105994
  0
LINE
  5
3FBB
330
28C7
100
AcDbEntity
  8
HIDDEN
100
AcDbLine
 10
9.531356036296585
 20
3.959323767105999
 30
0.0
 11
9.531356036296585
 21
3.645323767105992
 31
0.0
  0
LWPOLYLINE
  5
3FBC
330
28C7
100
AcDbEntity
  8
HIDDEN
  6
HIDDEN2
100
AcDbPolyline
 90
        4
 70
     0
 43
0.0
 10
9.151356036296576
 20
3.785323767105992
 10
9.151356036296576
 20
4.175323767105965
 10
9.541356036296576
 20
4.175323767105991
 10
9.541356036296576
 20
3.785323767105992
  0
LWPOLYLINE
  5
3FC2
330
28C7
100
AcDbEntity
  8
HIDDEN
  6
HIDDEN2
100
AcDbPolyline
 90
        4
 70
     0
 43
0.0
 10
9.441356036296575
 20
4.175323767105965
 10
9.441356036296589
 20
3.740323767105991
 10
9.251356036296584
 20
3.740323767105991
 10
9.251356036296577
 20
4.175323767105965
  0
LINE
  5
3FC8
330
28C7
100
AcDbEntity
  8
HIDDEN
100
AcDbLine
 10
9.783356036296581
 20
3.959323767105999
 30
0.0
 11
9.783356036296581
 21
3.645323767105992
 31
0.0
  0
LWPOLYLINE
  5
3FC9
330
28C7
100
AcDbEntity
  8
HIDDEN
  6
HIDDEN2
100
AcDbPolyline
 90
        4
 70
     0
 43
0.0
 10
11.23785603629659
 20
4.175323767105977
 10
11.2378560362966
 20
3.740323767106003
 10
11.0478560362966
 20
3.740323767106003
 10
11.0478560362966
 20
4.175323767105977
  0
LWPOLYLINE
  5
3FCF
330
28C7
100
AcDbEntity
  8
HIDDEN
  6
HIDDEN2
100
AcDbPolyline
 90
        4
 70
     0
 43
0.0
 10
10.9478560362966
 20
3.785323767106007
 10
10.9478560362966
 20
4.175323767105977
 10
11.3378560362966
 20
4.175323767106007
 10
11.3378560362966
 20
3.785323767106007
  0
LINE
  5
3FD5
330
28C7
100
AcDbEntity
  8
HIDDEN
  6
HIDDEN2
 62
     4
100
AcDbLine
 10
9.310356036296603
 20
7.582323767106032
 30
0.0
 11
9.310356036296603
 21
7.26732376710602
 31
0.0
  0
LINE
  5
3FD6
330
28C7
100
AcDbEntity
  8
HIDDEN
  6
HIDDEN2
 62
     4
100
AcDbLine
 10
9.251356036296598
 20
7.582323767106032
 30
0.0
 11
9.251356036296598
 21
7.267323767106056
 31
0.0
  0
LINE
  5
3FD7
330
28C7
100
AcDbEntity
  8
HIDDEN
  6
HIDDEN2
 62
     4
100
AcDbLine
 10
9.119356036296579
 20
7.582323767106032
 30
0.0
 11
9.119356036296579
 21
7.267323767106056
 31
0.0
  0
LINE
  5
3FD8
330
28C7
100
AcDbEntity
  8
HIDDEN
  6
HIDDEN2
 62
     4
100
AcDbLine
 10
9.060356036296603
 20
7.582323767106032
 30
0.0
 11
9.060356036296603
 21
7.267323767106056
 31
0.0
  0
LINE
  5
3FD9
330
28C7
100
AcDbEntity
  8
OBJECT
100
AcDbLine
 10
8.897356036296585
 20
7.654323767106028
 30
0.0
 11
8.897356036296585
 21
7.582323767106032
 31
0.0
  0
LINE
  5
3FDA
330
28C7
100
AcDbEntity
  8
OBJECT
100
AcDbLine
 10
9.936356036296601
 20
7.654323767106028
 30
0.0
 11
9.936356036296601
 21
7.582323767106032
 31
0.0
  0
LWPOLYLINE
  5
3FDB
330
28C7
100
AcDbEntity
  8
HIDDEN
100
AcDbPolyline
 90
        4
 70
     0
 43
0.0
 10
16.00935603629658
 20
7.582323767106016
 10
16.00935603629658
 20
3.959323767106001
 10
15.53935603629659
 20
3.959323767106001
 10
15.53935603629658
 20
7.582323767106016
  0
LWPOLYLINE
  5
3FE1
330
28C7
100
AcDbEntity
  8
HIDDEN
100
AcDbPolyline
 90
        4
 70
     0
 43
0.0
 10
16.11435603629657
 20
3.645323767105994
 10
16.11435603629657
 20
7.267323767106017
 10
16.57035603629659
 20
7.267323767106057
 10
16.5703560362966
 20
3.645323767105994
  0
LINE
  5
3FE7
330
28C7
100
AcDbEntity
  8
HIDDEN
100
AcDbLine
 10
15.43935603629659
 20
7.654323767105992
 30
0.0
 11
15.43935603629658
 21
3.785323767105992
 31
0.0
  0
LINE
  5
3FE8
330
28C7
100
AcDbEntity
  8
HIDDEN
100
AcDbLine
 10
16.47835603629661
 20
7.654323767106021
 30
0.0
 11
16.47835603629661
 21
3.785323767105992
 31
0.0
  0
LWPOLYLINE
  5
3FE9
330
28C7
100
AcDbEntity
  8
HIDDEN
  6
HIDDEN2
100
AcDbPolyline
 90
        4
 70
     0
 43
0.0
 10
15.89435603629661
 20
3.785323767105992
 10
15.89435603629661
 20
4.175323767105965
 10
16.2843560362966
 20
4.175323767105991
 10
16.2843560362966
 20
3.785323767105992
  0
LWPOLYLINE
  5
3FEF
330
28C7
100
AcDbEntity
  8
HIDDEN
  6
HIDDEN2
100
AcDbPolyline
 90
        4
 70
     0
 43
0.0
 10
16.1843560362966
 20
4.175323767105965
 10
16.18435603629661
 20
3.740323767105991
 10
15.99435603629661
 20
3.740323767105991
 10
15.9943560362966
 20
4.175323767105965
  0
LWPOLYLINE
  5
3FF5
330
28C7
100
AcDbEntity
  8
HIDDEN
  6
HIDDEN2
100
AcDbPolyline
 90
        4
 70
     0
 43
0.0
 10
14.3878560362966
 20
4.175323767105977
 10
14.3878560362966
 20
3.740323767106003
 10
14.1978560362966
 20
3.740323767106003
 10
14.1978560362966
 20
4.175323767105977
  0
LWPOLYLINE
  5
3FFB
330
28C7
100
AcDbEntity
  8
HIDDEN
  6
HIDDEN2
100
AcDbPolyline
 90
        4
 70
     0
 43
0.0
 10
14.09785603629659
 20
3.785323767106007
 10
14.09785603629659
 20
4.175323767105977
 10
14.4878560362966
 20
4.175323767106007
 10
14.4878560362966
 20
3.785323767106007
  0
LWPOLYLINE
  5
4001
330
28C7
100
AcDbEntity
  8
HIDDEN
  6
HIDDEN2
100
AcDbPolyline
 90
        4
 70
     0
 43
0.0
 10
12.5228560362966
 20
3.785323767106007
 10
12.5228560362966
 20
4.175323767105977
 10
12.91285603629659
 20
4.175323767106007
 10
12.91285603629659
 20
3.785323767106007
  0
LWPOLYLINE
  5
4007
330
28C7
100
AcDbEntity
  8
HIDDEN
  6
HIDDEN2
100
AcDbPolyline
 90
        4
 70
     0
 43
0.0
 10
12.81285603629658
 20
4.175323767105977
 10
12.8128560362966
 20
3.740323767106003
 10
12.6228560362966
 20
3.740323767106003
 10
12.62285603629657
 20
4.175323767105977
  0
LINE
  5
400D
330
28C7
100
AcDbEntity
  8
HIDDEN
100
AcDbLine
 10
15.9048560362966
 20
3.959323767105999
 30
0.0
 11
15.9048560362966
 21
3.645323767105992
 31
0.0
  0
LINE
  5
400E
330
28C7
100
AcDbEntity
  8
HIDDEN
100
AcDbLine
 10
15.65285603629659
 20
3.959323767105999
 30
0.0
 11
15.65285603629659
 21
3.645323767105992
 31
0.0
  0
LINE
  5
400F
330
28C7
100
AcDbEntity
  8
OBJECT
100
AcDbLine
 10
15.49935603629657
 20
7.654323767106021
 30
0.0
 11
15.49935603629657
 21
7.582323767106018
 31
0.0
  0
LINE
  5
4010
330
28C7
100
AcDbEntity
  8
HIDDEN
  6
HIDDEN2
 62
     4
100
AcDbLine
 10
16.12535603629658
 20
7.582323767106018
 30
0.0
 11
16.12535603629658
 21
7.26732376710602
 31
0.0
  0
LINE
  5
4011
330
28C7
100
AcDbEntity
  8
HIDDEN
  6
HIDDEN2
 62
     4
100
AcDbLine
 10
16.37535603629659
 20
7.582323767106018
 30
0.0
 11
16.37535603629659
 21
7.267323767106049
 31
0.0
  0
LINE
  5
4012
330
28C7
100
AcDbEntity
  8
HIDDEN
  6
HIDDEN2
 62
     4
100
AcDbLine
 10
16.31635603629659
 20
7.582323767106018
 30
0.0
 11
16.31635603629659
 21
7.267323767106049
 31
0.0
  0
LINE
  5
4013
330
28C7
100
AcDbEntity
  8
HIDDEN
  6
HIDDEN2
 62
     4
100
AcDbLine
 10
16.18435603629658
 20
7.582323767106018
 30
0.0
 11
16.18435603629658
 21
7.267323767106049
 31
0.0
  0
LWPOLYLINE
  5
4014
330
28C7
100
AcDbEntity
  8
OBJECT
100
AcDbPolyline
 90
        8
 70
     1
 43
0.0
 10
16.62035603629658
 20
12.10035649649167
 10
16.62035603629655
 20
25.47835649649167
 42
0.4142135623730959
 10
16.26535603629655
 20
25.83335649649166
 10
9.170356036296588
 20
25.83335649649166
 42
0.414213562373093
 10
8.815356036296599
 20
25.47835649649166
 10
8.815356036296584
 20
12.10035649649167
 42
0.4142135623730959
 10
9.170356036296588
 20
11.74535649649166
 10
16.26535603629658
 20
11.74535649649166
 42
0.4142135623730974
  0
LWPOLYLINE
  5
401E
330
28C7
100
AcDbEntity
  8
OBJECT
100
AcDbPolyline
 90
       36
 70
     1
 43
0.0
 10
8.897356036296585
 20
18.30835649649164
 10
8.897356036296585
 20
12.57935649649166
 42
0.4142135623730995
 10
9.08235603629658
 20
12.39435649649165
 10
9.684356036296613
 20
12.39435649649165
 42
-0.4142135623730919
 10
9.936356036296615
 20
12.14235649649166
 10
9.936356036296615
 20
12.01235649649166
 42
0.4142135623730995
 10
10.1213560362966
 20
11.82735649649167
 10
15.31435603629658
 20
11.82735649649167
 42
0.4142135623730995
 10
15.49935603629658
 20
12.01235649649166
 10
15.49935603629658
 20
12.14235649649166
 42
-0.4142135623730919
 10
15.75135603629657
 20
12.39435649649165
 10
16.35335603629659
 20
12.39435649649165
 42
0.4142135623730995
 10
16.5383560362966
 20
12.57935649649166
 10
16.53835603629662
 20
18.30835649649164
 42
0.4142135623730966
 10
16.35335603629662
 20
18.49335649649164
 10
16.24635603629659
 20
18.49335649649164
 42
-1.0
 10
16.24635603629659
 20
19.08535649649164
 10
16.35335603629662
 20
19.08535649649164
 42
0.4142135623730966
 10
16.5383560362966
 20
19.27035649649164
 10
16.5383560362966
 20
24.99935649649164
 42
0.4142135623730995
 10
16.35335603629659
 20
25.18435649649163
 10
15.75135603629657
 20
25.18435649649165
 42
-0.4142135623730919
 10
15.49935603629658
 20
25.43635649649164
 10
15.49935603629658
 20
25.56635649649162
 42
0.4142135623730995
 10
15.31435603629658
 20
25.75135649649164
 10
10.1213560362966
 20
25.75135649649164
 42
0.4142135623730995
 10
9.936356036296615
 20
25.56635649649162
 10
9.936356036296615
 20
25.43635649649164
 42
-0.4142135623730919
 10
9.684356036296613
 20
25.18435649649165
 10
9.08235603629658
 20
25.18435649649163
 42
0.4142135623730995
 10
8.897356036296585
 20
24.99935649649164
 10
8.897356036296585
 20
19.27035649649164
 42
0.4142135623730966
 10
9.08235603629658
 20
19.08535649649164
 10
9.189356036296601
 20
19.08535649649164
 42
-1.0
 10
9.189356036296601
 20
18.49335649649164
 10
9.08235603629658
 20
18.49335649649164
 42
0.4142135623730966
  0
LWPOLYLINE
  5
4044
330
28C7
100
AcDbEntity
  8
OBJECT
100
AcDbPolyline
 90
       36
 70
     1
 43
0.0
 10
16.47835603629661
 20
18.30835649649164
 10
16.47835603629661
 20
12.57935649649166
 42
-0.4142135623730951
 10
16.35335603629659
 20
12.45435649649165
 10
15.75135603629657
 20
12.45435649649165
 42
0.4142135623730951
 10
15.43935603629658
 20
12.14235649649166
 10
15.43935603629658
 20
12.01235649649166
 42
-0.4142135623730951
 10
15.31435603629658
 20
11.88735649649168
 10
10.1213560362966
 20
11.88735649649168
 42
-0.4142135623730951
 10
9.996356036296617
 20
12.01235649649166
 10
9.996356036296617
 20
12.14235649649166
 42
0.4142135623730951
 10
9.684356036296613
 20
12.45435649649165
 10
9.08235603629658
 20
12.45435649649165
 42
-0.4142135623730951
 10
8.95735603629658
 20
12.57935649649166
 10
8.95735603629658
 20
18.30835649649164
 42
-0.4142135623730951
 10
9.08235603629658
 20
18.43335649649164
 10
9.189356036296601
 20
18.43335649649164
 42
1.0
 10
9.189356036296601
 20
19.14535649649164
 10
9.08235603629658
 20
19.14535649649164
 42
-0.4142135623730951
 10
8.95735603629658
 20
19.27035649649164
 10
8.95735603629658
 20
24.99935649649164
 42
-0.4142135623730951
 10
9.08235603629658
 20
25.12435649649164
 10
9.684356036296613
 20
25.12435649649164
 42
0.4142135623730951
 10
9.996356036296617
 20
25.43635649649164
 10
9.996356036296617
 20
25.56635649649162
 42
-0.4142135623730951
 10
10.1213560362966
 20
25.69135649649162
 10
15.31435603629658
 20
25.69135649649162
 42
-0.4142135623730951
 10
15.43935603629658
 20
25.56635649649162
 10
15.43935603629658
 20
25.43635649649164
 42
0.4142135623730951
 10
15.75135603629657
 20
25.12435649649164
 10
16.35335603629659
 20
25.12435649649164
 42
-0.4142135623730951
 10
16.47835603629661
 20
24.99935649649164
 10
16.47835603629662
 20
19.27035649649164
 42
-0.4142135623730951
 10
16.35335603629662
 20
19.14535649649164
 10
16.24635603629659
 20
19.14535649649164
 42
1.0
 10
16.24635603629659
 20
18.43335649649164
 10
16.35335603629662
 20
18.43335649649164
 42
-0.4142135623730951
  0
LWPOLYLINE
  5
406A
330
28C7
100
AcDbEntity
  8
OBJECT
100
AcDbPolyline
 90
        8
 70
     1
 43
0.0
 10
16.64035603629658
 20
12.10035649649167
 10
16.64035603629655
 20
25.47835649649167
 42
0.4142135623730945
 10
16.26535603629655
 20
25.85335649649167
 10
9.170356036296588
 20
25.85335649649166
 42
0.4142135623730951
 10
8.795356036296603
 20
25.47835649649166
 10
8.795356036296603
 20
12.10035649649167
 42
0.4142135623730951
 10
9.170356036296588
 20
11.72535649649167
 10
16.26535603629658
 20
11.72535649649167
 42
0.4142135623730959
  0
LWPOLYLINE
  5
4074
330
28C7
100
AcDbEntity
  8
HIDDEN
  6
HIDDEN2
100
AcDbPolyline
 90
        5
 70
     1
 43
0.0
 10
9.321356036296606
 20
11.79535649649166
 10
9.321356036296606
 20
12.34235649649166
 10
8.865356036296589
 20
12.34235649649166
 10
8.865356036296589
 20
12.10035649649167
 42
0.4142135623730946
 10
9.170356036296588
 20
11.79535649649166
  0
LWPOLYLINE
  5
407B
330
28C7
100
AcDbEntity
  8
OBJECT
100
AcDbPolyline
 90
        4
 70
     1
 43
0.0
 10
8.865356036296589
 20
12.38885649649164
 10
8.937356036296584
 20
12.38885649649164
 10
8.937356036296584
 20
12.09885649649165
 10
8.865356036296589
 20
12.09885649649165
  0
CIRCLE
  5
4081
330
28C7
100
AcDbEntity
  8
OBJECT
100
AcDbCircle
 10
11.1428560362966
 20
12.30635649649165
 30
0.0
 40
0.195
  0
LWPOLYLINE
  5
4082
330
28C7
100
AcDbEntity
  8
OBJECT
100
AcDbPolyline
 90
        5
 70
     1
 43
0.0
 10
9.896356036296616
 20
11.80535649649165
 10
9.896356036296616
 20
12.14235649649166
 42
0.4142135623730951
 10
9.684356036296613
 20
12.35435649649166
 10
9.426356036296617
 20
12.35435649649166
 10
9.426356036296617
 20
11.80535649649165
  0
CIRCLE
  5
4089
330
28C7
100
AcDbEntity
  8
OBJECT
100
AcDbCircle
 10
9.656856036296602
 20
12.11485649649167
 30
0.0
 40
0.126
  0
LINE
  5
408A
330
28C7
100
AcDbEntity
  8
OBJECT
100
AcDbLine
 10
9.661356036296602
 20
12.11935649649166
 30
0.0
 11
9.661356036296602
 21
12.11935649649166
 31
0.0
  0
CIRCLE
  5
408B
330
28C7
100
AcDbEntity
  8
OBJECT
100
AcDbCircle
 10
9.185356036296589
 20
12.11485649649164
 30
0.0
 40
0.094
  0
CIRCLE
  5
408C
330
28C7
100
AcDbEntity
  8
OBJECT
100
AcDbCircle
 10
9.185356036296589
 20
12.11485649649164
 30
0.0
 40
0.066
  0
CIRCLE
  5
408D
330
28C7
100
AcDbEntity
  8
OBJECT
100
AcDbCircle
 10
11.1428560362966
 20
12.30635649649165
 30
0.0
 40
0.095
  0
CIRCLE
  5
408E
330
28C7
100
AcDbEntity
  8
OBJECT
100
AcDbCircle
 10
9.33235603629658
 20
12.87785649649167
 30
0.0
 40
0.095
  0
CIRCLE
  5
408F
330
28C7
100
AcDbEntity
  8
OBJECT
100
AcDbCircle
 10
9.33235603629658
 20
12.87785649649167
 30
0.0
 40
0.195
  0
CIRCLE
  5
4090
330
28C7
100
AcDbEntity
  8
OBJECT
100
AcDbCircle
 10
9.33235603629658
 20
13.86935649649165
 30
0.0
 40
0.095
  0
CIRCLE
  5
4091
330
28C7
100
AcDbEntity
  8
OBJECT
100
AcDbCircle
 10
9.33235603629658
 20
13.86935649649165
 30
0.0
 40
0.195
  0
CIRCLE
  5
4092
330
28C7
100
AcDbEntity
  8
OBJECT
100
AcDbCircle
 10
9.33235603629658
 20
15.44435649649165
 30
0.0
 40
0.095
  0
CIRCLE
  5
4093
330
28C7
100
AcDbEntity
  8
OBJECT
100
AcDbCircle
 10
9.33235603629658
 20
15.44435649649165
 30
0.0
 40
0.195
  0
CIRCLE
  5
4094
330
28C7
100
AcDbEntity
  8
OBJECT
100
AcDbCircle
 10
16.10335603629659
 20
15.44435649649165
 30
0.0
 40
0.095
  0
CIRCLE
  5
4095
330
28C7
100
AcDbEntity
  8
OBJECT
100
AcDbCircle
 10
16.10335603629659
 20
15.44435649649165
 30
0.0
 40
0.195
  0
CIRCLE
  5
4096
330
28C7
100
AcDbEntity
  8
OBJECT
100
AcDbCircle
 10
16.10335603629659
 20
12.87785649649167
 30
0.0
 40
0.095
  0
CIRCLE
  5
4097
330
28C7
100
AcDbEntity
  8
OBJECT
100
AcDbCircle
 10
16.10335603629659
 20
12.87785649649167
 30
0.0
 40
0.195
  0
CIRCLE
  5
4098
330
28C7
100
AcDbEntity
  8
OBJECT
100
AcDbCircle
 10
16.10335603629659
 20
13.86935649649165
 30
0.0
 40
0.195
  0
CIRCLE
  5
4099
330
28C7
100
AcDbEntity
  8
OBJECT
100
AcDbCircle
 10
16.10335603629659
 20
13.86935649649165
 30
0.0
 40
0.095
  0
LWPOLYLINE
  5
409A
330
28C7
100
AcDbEntity
  8
HIDDEN
  6
HIDDEN2
100
AcDbPolyline
 90
        5
 70
     1
 43
0.0
 10
16.1143560362966
 20
11.79535649649166
 10
16.1143560362966
 20
12.34235649649166
 10
16.57035603629658
 20
12.34235649649166
 10
16.57035603629658
 20
12.10035649649167
 42
-0.4142135623730946
 10
16.26535603629659
 20
11.79535649649166
  0
CIRCLE
  5
40A1
330
28C7
100
AcDbEntity
  8
OBJECT
100
AcDbCircle
 10
14.29285603629659
 20
12.30635649649165
 30
0.0
 40
0.195
  0
CIRCLE
  5
40A2
330
28C7
100
AcDbEntity
  8
OBJECT
100
AcDbCircle
 10
12.71785603629658
 20
12.30635649649165
 30
0.0
 40
0.195
  0
CIRCLE
  5
40A3
330
28C7
100
AcDbEntity
  8
OBJECT
100
AcDbCircle
 10
14.29285603629659
 20
12.30635649649165
 30
0.0
 40
0.095
  0
CIRCLE
  5
40A4
330
28C7
100
AcDbEntity
  8
OBJECT
100
AcDbCircle
 10
12.71785603629658
 20
12.30635649649165
 30
0.0
 40
0.095
  0
LWPOLYLINE
  5
40A5
330
28C7
100
AcDbEntity
  8
OBJECT
100
AcDbPolyline
 90
        5
 70
     1
 43
0.0
 10
15.53935603629658
 20
11.80535649649165
 10
15.53935603629658
 20
12.14235649649166
 42
-0.4142135623730951
 10
15.75135603629657
 20
12.35435649649166
 10
16.00935603629658
 20
12.35435649649166
 10
16.00935603629658
 20
11.80535649649165
  0
CIRCLE
  5
40AC
330
28C7
100
AcDbEntity
  8
OBJECT
100
AcDbCircle
 10
15.77885603629659
 20
12.11485649649167
 30
0.0
 40
0.126
  0
LWPOLYLINE
  5
40AD
330
28C7
100
AcDbEntity
  8
OBJECT
100
AcDbPolyline
 90
        4
 70
     1
 43
0.0
 10
16.5703560362966
 20
12.38885649649164
 10
16.4983560362966
 20
12.38885649649164
 10
16.4983560362966
 20
12.09885649649165
 10
16.5703560362966
 20
12.09885649649165
  0
CIRCLE
  5
40B3
330
28C7
100
AcDbEntity
  8
OBJECT
100
AcDbCircle
 10
16.25035603629659
 20
12.11485649649164
 30
0.0
 40
0.066
  0
CIRCLE
  5
40B4
330
28C7
100
AcDbEntity
  8
OBJECT
100
AcDbCircle
 10
16.25035603629659
 20
12.11485649649164
 30
0.0
 40
0.094
  0
CIRCLE
  5
40BC
330
28C7
100
AcDbEntity
  8
OBJECT
100
AcDbCircle
 10
9.33235603629658
 20
23.70935649649166
 30
0.0
 40
0.195
  0
LWPOLYLINE
  5
40BD
330
28C7
100
AcDbEntity
  8
OBJECT
100
AcDbPolyline
 90
        4
 70
     1
 43
0.0
 10
8.865356036296589
 20
19.06285649649164
 10
8.937356036296584
 20
19.06285649649164
 10
8.937356036296584
 20
18.51585649649165
 10
8.865356036296589
 20
18.51585649649165
  0
CIRCLE
  5
40C3
330
28C7
100
AcDbEntity
  8
OBJECT
100
AcDbCircle
 10
9.33235603629658
 20
17.01935649649165
 30
0.0
 40
0.095
  0
CIRCLE
  5
40C4
330
28C7
100
AcDbEntity
  8
OBJECT
100
AcDbCircle
 10
9.33235603629658
 20
17.01935649649165
 30
0.0
 40
0.195
  0
LWPOLYLINE
  5
40C5
330
28C7
100
AcDbEntity
  8
HIDDEN
100
AcDbPolyline
 90
        4
 70
     1
 43
0.0
 10
9.189356036296601
 20
18.48735649649164
 42
1.0
 10
9.189356036296601
 20
19.09135649649164
 10
8.954356036296609
 20
19.09135649649164
 10
8.954356036296609
 20
18.48735649649164
  0
CIRCLE
  5
40CB
330
28C7
100
AcDbEntity
  8
OBJECT
100
AcDbCircle
 10
9.193356036296606
 20
18.78935649649165
 30
0.0
 40
0.066
  0
CIRCLE
  5
40CC
330
28C7
100
AcDbEntity
  8
OBJECT
100
AcDbCircle
 10
9.193356036296606
 20
18.78935649649165
 30
0.0
 40
0.094
  0
CIRCLE
  5
40CD
330
28C7
100
AcDbEntity
  8
OBJECT
100
AcDbCircle
 10
11.1428560362966
 20
18.78935649649165
 30
0.0
 40
0.195
  0
CIRCLE
  5
40CE
330
28C7
100
AcDbEntity
  8
OBJECT
100
AcDbCircle
 10
11.1428560362966
 20
18.78935649649165
 30
0.0
 40
0.095
  0
CIRCLE
  5
40CF
330
28C7
100
AcDbEntity
  8
OBJECT
100
AcDbCircle
 10
9.33235603629658
 20
22.13435649649166
 30
0.0
 40
0.195
  0
CIRCLE
  5
40D0
330
28C7
100
AcDbEntity
  8
OBJECT
100
AcDbCircle
 10
9.33235603629658
 20
20.55935649649165
 30
0.0
 40
0.095
  0
CIRCLE
  5
40D1
330
28C7
100
AcDbEntity
  8
OBJECT
100
AcDbCircle
 10
9.33235603629658
 20
20.55935649649165
 30
0.0
 40
0.195
  0
CIRCLE
  5
40D2
330
28C7
100
AcDbEntity
  8
OBJECT
100
AcDbCircle
 10
9.33235603629658
 20
23.70935649649166
 30
0.0
 40
0.095
  0
CIRCLE
  5
40D3
330
28C7
100
AcDbEntity
  8
OBJECT
100
AcDbCircle
 10
9.33235603629658
 20
22.13435649649166
 30
0.0
 40
0.095
  0
LWPOLYLINE
  5
40D4
330
28C7
100
AcDbEntity
  8
OBJECT
100
AcDbPolyline
 90
        4
 70
     1
 43
0.0
 10
8.865356036296589
 20
25.18985649649164
 10
8.937356036296584
 20
25.18985649649166
 10
8.937356036296584
 20
25.47985649649164
 10
8.865356036296589
 20
25.47985649649164
  0
LWPOLYLINE
  5
40DA
330
28C7
100
AcDbEntity
  8
HIDDEN
  6
HIDDEN2
100
AcDbPolyline
 90
        5
 70
     1
 43
0.0
 10
9.321356036296606
 20
25.78335649649164
 10
9.321356036296606
 20
25.23635649649162
 10
8.865356036296589
 20
25.23635649649162
 10
8.865356036296589
 20
25.47835649649163
 42
-0.4142135623730946
 10
9.170356036296588
 20
25.78335649649164
  0
LWPOLYLINE
  5
40E1
330
28C7
100
AcDbEntity
  8
OBJECT
100
AcDbPolyline
 90
        5
 70
     1
 43
0.0
 10
9.896356036296616
 20
25.77335649649162
 10
9.896356036296616
 20
25.43635649649164
 42
-0.4142135623730951
 10
9.684356036296613
 20
25.22435649649164
 10
9.426356036296617
 20
25.22435649649164
 10
9.426356036296617
 20
25.77335649649162
  0
CIRCLE
  5
40E8
330
28C7
100
AcDbEntity
  8
OBJECT
100
AcDbCircle
 10
9.656856036296602
 20
25.46385649649165
 30
0.0
 40
0.126
  0
CIRCLE
  5
40E9
330
28C7
100
AcDbEntity
  8
OBJECT
100
AcDbCircle
 10
9.33235603629658
 20
24.70085649649165
 30
0.0
 40
0.095
  0
CIRCLE
  5
40EA
330
28C7
100
AcDbEntity
  8
OBJECT
100
AcDbCircle
 10
9.33235603629658
 20
24.70085649649165
 30
0.0
 40
0.195
  0
CIRCLE
  5
40EB
330
28C7
100
AcDbEntity
  8
OBJECT
100
AcDbCircle
 10
9.185356036296589
 20
25.46385649649167
 30
0.0
 40
0.066
  0
CIRCLE
  5
40EC
330
28C7
100
AcDbEntity
  8
OBJECT
100
AcDbCircle
 10
9.185356036296589
 20
25.46385649649167
 30
0.0
 40
0.094
  0
CIRCLE
  5
40ED
330
28C7
100
AcDbEntity
  8
OBJECT
100
AcDbCircle
 10
11.1428560362966
 20
25.27235649649167
 30
0.0
 40
0.195
  0
CIRCLE
  5
40EE
330
28C7
100
AcDbEntity
  8
OBJECT
100
AcDbCircle
 10
11.1428560362966
 20
25.27235649649167
 30
0.0
 40
0.095
  0
CIRCLE
  5
40EF
330
28C7
100
AcDbEntity
  8
OBJECT
100
AcDbCircle
 10
16.10335603629659
 20
23.70935649649166
 30
0.0
 40
0.195
  0
CIRCLE
  5
40F0
330
28C7
100
AcDbEntity
  8
OBJECT
100
AcDbCircle
 10
16.10335603629659
 20
23.70935649649166
 30
0.0
 40
0.095
  0
CIRCLE
  5
40F1
330
28C7
100
AcDbEntity
  8
OBJECT
100
AcDbCircle
 10
16.10335603629659
 20
22.13435649649166
 30
0.0
 40
0.095
  0
CIRCLE
  5
40F2
330
28C7
100
AcDbEntity
  8
OBJECT
100
AcDbCircle
 10
16.10335603629659
 20
20.55935649649165
 30
0.0
 40
0.095
  0
CIRCLE
  5
40F3
330
28C7
100
AcDbEntity
  8
OBJECT
100
AcDbCircle
 10
16.10335603629659
 20
20.55935649649165
 30
0.0
 40
0.195
  0
CIRCLE
  5
40F4
330
28C7
100
AcDbEntity
  8
OBJECT
100
AcDbCircle
 10
16.10335603629659
 20
22.13435649649166
 30
0.0
 40
0.195
  0
CIRCLE
  5
40F5
330
28C7
100
AcDbEntity
  8
OBJECT
100
AcDbCircle
 10
16.10335603629659
 20
17.01935649649165
 30
0.0
 40
0.095
  0
CIRCLE
  5
40F6
330
28C7
100
AcDbEntity
  8
OBJECT
100
AcDbCircle
 10
16.10335603629659
 20
17.01935649649165
 30
0.0
 40
0.195
  0
LWPOLYLINE
  5
40F7
330
28C7
100
AcDbEntity
  8
HIDDEN
100
AcDbPolyline
 90
        4
 70
     1
 43
0.0
 10
16.24635603629659
 20
18.48735649649164
 42
-1.0
 10
16.24635603629659
 20
19.09135649649164
 10
16.48135603629661
 20
19.09135649649164
 10
16.48135603629661
 20
18.48735649649164
  0
CIRCLE
  5
40FD
330
28C7
100
AcDbEntity
  8
OBJECT
100
AcDbCircle
 10
14.2928560362966
 20
18.78935649649165
 30
0.0
 40
0.095
  0
CIRCLE
  5
40FE
330
28C7
100
AcDbEntity
  8
OBJECT
100
AcDbCircle
 10
14.2928560362966
 20
18.78935649649165
 30
0.0
 40
0.195
  0
CIRCLE
  5
40FF
330
28C7
100
AcDbEntity
  8
OBJECT
100
AcDbCircle
 10
12.71785603629658
 20
18.78935649649165
 30
0.0
 40
0.095
  0
CIRCLE
  5
4100
330
28C7
100
AcDbEntity
  8
OBJECT
100
AcDbCircle
 10
12.71785603629658
 20
18.78935649649165
 30
0.0
 40
0.195
  0
LWPOLYLINE
  5
4101
330
28C7
100
AcDbEntity
  8
OBJECT
100
AcDbPolyline
 90
        4
 70
     1
 43
0.0
 10
16.5703560362966
 20
19.06285649649164
 10
16.4983560362966
 20
19.06285649649164
 10
16.4983560362966
 20
18.51585649649165
 10
16.5703560362966
 20
18.51585649649165
  0
CIRCLE
  5
4107
330
28C7
100
AcDbEntity
  8
OBJECT
100
AcDbCircle
 10
16.2423560362966
 20
18.78935649649165
 30
0.0
 40
0.066
  0
CIRCLE
  5
4108
330
28C7
100
AcDbEntity
  8
OBJECT
100
AcDbCircle
 10
16.2423560362966
 20
18.78935649649165
 30
0.0
 40
0.094
  0
CIRCLE
  5
4109
330
28C7
100
AcDbEntity
  8
OBJECT
100
AcDbCircle
 10
16.10335603629659
 20
24.70085649649165
 30
0.0
 40
0.095
  0
CIRCLE
  5
410A
330
28C7
100
AcDbEntity
  8
OBJECT
100
AcDbCircle
 10
16.10335603629659
 20
24.70085649649165
 30
0.0
 40
0.195
  0
LWPOLYLINE
  5
410B
330
28C7
100
AcDbEntity
  8
HIDDEN
  6
HIDDEN2
100
AcDbPolyline
 90
        5
 70
     1
 43
0.0
 10
16.1143560362966
 20
25.78335649649164
 10
16.1143560362966
 20
25.23635649649162
 10
16.57035603629658
 20
25.23635649649162
 10
16.57035603629658
 20
25.47835649649163
 42
0.4142135623730946
 10
16.26535603629659
 20
25.78335649649164
  0
CIRCLE
  5
4112
330
28C7
100
AcDbEntity
  8
OBJECT
100
AcDbCircle
 10
14.29285603629659
 20
25.27235649649167
 30
0.0
 40
0.095
  0
CIRCLE
  5
4113
330
28C7
100
AcDbEntity
  8
OBJECT
100
AcDbCircle
 10
14.29285603629659
 20
25.27235649649167
 30
0.0
 40
0.195
  0
CIRCLE
  5
4114
330
28C7
100
AcDbEntity
  8
OBJECT
100
AcDbCircle
 10
12.71785603629658
 20
25.27235649649167
 30
0.0
 40
0.095
  0
CIRCLE
  5
4115
330
28C7
100
AcDbEntity
  8
OBJECT
100
AcDbCircle
 10
12.71785603629658
 20
25.27235649649167
 30
0.0
 40
0.195
  0
LWPOLYLINE
  5
4116
330
28C7
100
AcDbEntity
  8
OBJECT
100
AcDbPolyline
 90
        5
 70
     1
 43
0.0
 10
15.53935603629658
 20
25.77335649649162
 10
15.53935603629658
 20
25.43635649649164
 42
0.4142135623730951
 10
15.75135603629657
 20
25.22435649649164
 10
16.00935603629658
 20
25.22435649649164
 10
16.00935603629658
 20
25.77335649649162
  0
CIRCLE
  5
411D
330
28C7
100
AcDbEntity
  8
OBJECT
100
AcDbCircle
 10
15.77885603629659
 20
25.46385649649165
 30
0.0
 40
0.126
  0
LWPOLYLINE
  5
411E
330
28C7
100
AcDbEntity
  8
OBJECT
100
AcDbPolyline
 90
        4
 70
     1
 43
0.0
 10
16.5703560362966
 20
25.18985649649164
 10
16.4983560362966
 20
25.18985649649166
 10
16.4983560362966
 20
25.47985649649164
 10
16.5703560362966
 20
25.47985649649164
  0
CIRCLE
  5
4124
330
28C7
100
AcDbEntity
  8
OBJECT
100
AcDbCircle
 10
16.25035603629659
 20
25.46385649649167
 30
0.0
 40
0.094
  0
CIRCLE
  5
4125
330
28C7
100
AcDbEntity
  8
OBJECT
100
AcDbCircle
 10
16.25035603629659
 20
25.46385649649167
 30
0.0
 40
0.066
  0
DIMENSION
  5
4126
330
28C7
100
AcDbEntity
  8
DIM
100
AcDbDimension
  2
*D20
 10
7.679356036296603
 20
15.44435649649165
 30
0.0
 11
7.6793560362966
 21
16.23185649649165
 31
0.0
 70
    32
 71
     5
 42
1.575000000000001
  3
23NSTDI
100
AcDbAlignedDimension
 13
9.33235603629658
 23
17.01935649649165
 33
0.0
 14
9.33235603629658
 24
15.44435649649165
 34
0.0
 50
90.0
100
AcDbRotatedDimension
  0
DIMENSION
  5
4134
330
28C7
100
AcDbEntity
  8
DIM
100
AcDbDimension
  2
*D21
 10
1.551470349693064
 20
13.86935649649165
 30
0.0
 11
1.551470349693062
 21
15.44435649649165
 31
0.0
 70
   160
 71
     5
 42
3.150000000000003
  3
23NSTD
100
AcDbAlignedDimension
 13
9.33235603629658
 23
17.01935649649165
 33
0.0
 14
9.33235603629658
 24
13.86935649649165
 34
0.0
 50
90.0
100
AcDbRotatedDimension
  0
DIMENSION
  5
4142
330
28C7
100
AcDbEntity
  8
DIM
100
AcDbDimension
  2
*D22
 10
6.438096296503879
 20
12.87785649649167
 30
0.0
 11
6.438096296503877
 21
13.37360649649166
 31
0.0
 70
    32
 71
     5
 42
0.9914999999999807
  3
23NSTDI
100
AcDbAlignedDimension
 13
9.33235603629658
 23
13.86935649649165
 33
0.0
 14
9.33235603629658
 24
12.87785649649167
 34
0.0
 50
90.0
100
AcDbRotatedDimension
  0
DIMENSION
  5
4150
330
28C7
100
AcDbEntity
  8
DIM
100
AcDbDimension
  2
*D23
 10
3.224453695803362
 20
17.01935649649166
 30
0.0
 11
3.224453695803358
 21
17.90435649649166
 31
0.0
 70
    32
 71
     5
 42
1.770000000000003
  3
23NSTDI
100
AcDbAlignedDimension
 13
9.174856036296588
 23
18.78935649649165
 33
0.0
 14
9.33235603629658
 24
17.01935649649165
 34
0.0
 50
90.0
100
AcDbRotatedDimension
  0
DIMENSION
  5
415E
330
28C7
100
AcDbEntity
  8
DIM
100
AcDbDimension
  2
*D24
 10
7.307356036296603
 20
22.13435649649166
 30
0.0
 11
7.307356036296599
 21
21.34685649649166
 31
0.0
 70
    32
 71
     5
 42
1.575000000000002
  3
23NSTDI
100
AcDbAlignedDimension
 13
9.33235603629658
 23
20.55935649649165
 33
0.0
 14
9.33235603629658
 24
22.13435649649166
 34
0.0
 50
90.0
100
AcDbRotatedDimension
  0
DIMENSION
  5
416C
330
28C7
100
AcDbEntity
  8
DIM
100
AcDbDimension
  2
*D25
 10
5.189997662886977
 20
23.70935649649166
 30
0.0
 11
5.189997662886973
 21
22.13435649649166
 31
0.0
 70
   160
 71
     5
 42
3.150000000000002
  3
23NSTD
100
AcDbAlignedDimension
 13
9.33235603629658
 23
20.55935649649165
 33
0.0
 14
9.33235603629658
 24
23.70935649649166
 34
0.0
 50
90.0
100
AcDbRotatedDimension
  0
DIMENSION
  5
417A
330
28C7
100
AcDbEntity
  8
DIM
100
AcDbDimension
  2
*D26
 10
1.551470349693062
 20
20.55935649649166
 30
0.0
 11
1.551470349693058
 21
18.78935649649166
 31
0.0
 70
    32
 71
     5
 42
3.540000000000002
  3
23NSTD
100
AcDbAlignedDimension
 13
9.33235603629658
 23
17.01935649649165
 33
0.0
 14
9.33235603629658
 24
20.55935649649165
 34
0.0
 50
90.0
100
AcDbRotatedDimension
  0
DIMENSION
  5
4187
330
28C7
100
AcDbEntity
  8
DIM
100
AcDbDimension
  2
*D27
 10
6.438096296503886
 20
24.70085649649166
 30
0.0
 11
6.438096296503882
 21
24.20510649649166
 31
0.0
 70
    32
 71
     5
 42
0.9914999999999949
  3
23NSTDI
100
AcDbAlignedDimension
 13
9.33235603629658
 23
23.70935649649166
 33
0.0
 14
9.33235603629658
 24
24.70085649649165
 34
0.0
 50
90.0
100
AcDbRotatedDimension
  0
DIMENSION
  5
41A3
330
28C7
100
AcDbEntity
  8
DIM
100
AcDbDimension
  2
*D28
 10
15.89035603629659
 20
19.57559480088818
 30
0.0
 11
12.71785603629659
 21
19.57559480088818
 31
0.0
 70
   160
 71
     5
 42
6.344999999999991
  3
23NSTD
100
AcDbAlignedDimension
 13
9.545356036296603
 23
18.78935649649164
 33
0.0
 14
15.89035603629659
 24
18.78935649649164
 34
0.0
100
AcDbRotatedDimension
  0
DIMENSION
  5
41B1
330
28C7
100
AcDbEntity
  8
DIM
100
AcDbDimension
  2
*D29
 10
14.89893044025137
 20
12.30635649649166
 30
0.0
 11
14.89893044025137
 21
15.54785649649167
 31
0.0
 70
   160
 71
     5
 42
6.482999999999996
  3
23NSTD
100
AcDbAlignedDimension
 13
16.26085603629659
 23
18.78935649649165
 33
0.0
 14
14.29285603629659
 24
12.30635649649166
 34
0.0
 50
90.0
100
AcDbRotatedDimension
  0
DIMENSION
  5
41BF
330
28C7
100
AcDbEntity
  8
DIM
100
AcDbDimension
  2
*D30
 10
11.82750626875346
 20
25.27235649649167
 30
0.0
 11
11.82750626875346
 21
16.95935649649166
 31
0.0
 70
   160
 71
     5
 42
12.96600000000001
  3
23NSTD
100
AcDbAlignedDimension
 13
12.71785603629658
 23
12.30635649649166
 33
0.0
 14
12.71785603629658
 24
25.27235649649167
 34
0.0
 50
90.0
100
AcDbRotatedDimension
  0
DIMENSION
  5
41CD
330
28C7
100
AcDbEntity
  8
DIM
100
AcDbDimension
  2
*D31
 10
15.43935603629658
 20
13.43264103492806
 30
0.0
 11
12.71785603629659
 21
13.43264103492806
 31
0.0
 70
   160
 71
     5
 42
5.442999999999962
  3
23NSTD
100
AcDbAlignedDimension
 13
9.996356036296617
 23
12.01235649649173
 33
0.0
 14
15.43935603629658
 24
12.01235649649173
 34
0.0
100
AcDbRotatedDimension
  0
DIMENSION
  5
41DB
330
28C7
100
AcDbEntity
  8
DIM
100
AcDbDimension
  2
*D32
 10
16.47835603629661
 20
21.70230760825191
 30
0.0
 11
12.71785603629659
 21
21.70230760825191
 31
0.0
 70
   160
 71
     5
 42
7.521000000000029
  3
23NSTD
100
AcDbAlignedDimension
 13
8.95735603629658
 23
21.45030760825191
 33
0.0
 14
16.47835603629661
 24
21.45030760825191
 34
0.0
100
AcDbRotatedDimension
  0
LINE
  5
41EA
330
28C7
100
AcDbEntity
  8
OBJECT
100
AcDbLine
 10
29.71534394604251
 20
16.82435649649169
 30
0.0
 11
29.71534394604251
 21
12.45435649649168
 31
0.0
  0
LWPOLYLINE
  5
41EB
330
28C7
100
AcDbEntity
  8
OBJECT
100
AcDbPolyline
 90
        7
 70
     0
 43
0.0
 10
25.95834394604251
 20
25.8533564964917
 10
29.79334394604252
 20
25.8533564964917
 42
-0.414213562373096
 10
29.85534394604251
 20
25.7913564964917
 10
29.85534394604251
 20
11.78735649649168
 42
-0.4142135623730951
 10
29.79334394604252
 20
11.7253564964917
 10
25.95834394604251
 20
11.7253564964917
 10
25.95834394604251
 20
11.74535649649169
  0
LWPOLYLINE
  5
41F4
330
28C7
100
AcDbEntity
  8
OBJECT
100
AcDbPolyline
 90
        5
 70
     0
 43
0.0
 10
25.91834394604247
 20
25.75135649649167
 10
25.8463439460425
 20
25.75135649649167
 10
25.8463439460425
 20
11.8273564964917
 10
25.91834394604251
 20
11.82735649649169
 10
25.8463439460425
 20
11.8273564964917
  0
LWPOLYLINE
  5
41FB
330
28C7
100
AcDbEntity
  8
OBJECT
100
AcDbPolyline
 90
        4
 70
     0
 43
0.0
 10
25.91834394604249
 20
12.35435649649169
 10
29.54134394604251
 20
12.35435649649169
 10
29.54134394604251
 20
11.80535649649168
 10
25.91834394604249
 20
11.8053564964917
  0
LINE
  5
4201
330
28C7
100
AcDbEntity
  8
OBJECT
100
AcDbLine
 10
25.8463439460425
 20
12.45435649649168
 30
0.0
 11
29.71534394604251
 21
12.45435649649168
 31
0.0
  0
LWPOLYLINE
  5
4202
330
28C7
100
AcDbEntity
  8
OBJECT
100
AcDbPolyline
 90
        4
 70
     0
 43
0.0
 10
25.91834394604251
 20
12.39435649649168
 10
25.91834394604251
 20
11.74535649649169
 10
25.95834394604251
 20
11.74535649649169
 10
25.91834394604251
 20
11.74535649649169
  0
LINE
  5
4208
330
28C7
100
AcDbEntity
  8
OBJECT
100
AcDbLine
 10
25.8463439460425
 20
12.39435649649168
 30
0.0
 11
25.91834394604251
 21
12.39435649649168
 31
0.0
  0
LINE
  5
4209
330
28C7
100
AcDbEntity
  8
OBJECT
100
AcDbLine
 10
29.54134394604251
 20
11.98885649649169
 30
0.0
 11
29.85534394604251
 21
11.98885649649169
 31
0.0
  0
LINE
  5
420A
330
28C7
100
AcDbEntity
  8
OBJECT
100
AcDbLine
 10
29.54134394604251
 20
12.24085649649169
 30
0.0
 11
29.85534394604251
 21
12.24085649649169
 31
0.0
  0
LWPOLYLINE
  5
420B
330
28C7
100
AcDbEntity
  8
HIDDEN
  6
HIDDEN2
100
AcDbPolyline
 90
        4
 70
     0
 43
0.0
 10
29.32534394604253
 20
13.96435649649167
 10
29.76034394604251
 20
13.96435649649167
 10
29.76034394604251
 20
13.77435649649168
 10
29.32534394604253
 20
13.77435649649168
  0
LWPOLYLINE
  5
4211
330
28C7
100
AcDbEntity
  8
OBJECT
100
AcDbPolyline
 90
        4
 70
     0
 43
0.0
 10
29.71534394604251
 20
13.67435649649168
 10
29.32534394604253
 20
13.67435649649168
 10
29.3253439460425
 20
14.06435649649167
 10
29.71534394604251
 20
14.06435649649167
  0
LWPOLYLINE
  5
4217
330
28C7
100
AcDbEntity
  8
OBJECT
100
AcDbPolyline
 90
        4
 70
     0
 43
0.0
 10
29.71534394604251
 20
12.68285649649169
 10
29.32534394604253
 20
12.68285649649169
 10
29.32534394604251
 20
13.0728564964917
 10
29.71534394604251
 20
13.0728564964917
  0
LWPOLYLINE
  5
421D
330
28C7
100
AcDbEntity
  8
HIDDEN
  6
HIDDEN2
100
AcDbPolyline
 90
        4
 70
     0
 43
0.0
 10
29.32534394604253
 20
12.9728564964917
 10
29.76034394604251
 20
12.9728564964917
 10
29.76034394604251
 20
12.7828564964917
 10
29.32534394604253
 20
12.7828564964917
  0
LWPOLYLINE
  5
4223
330
28C7
100
AcDbEntity
  8
HIDDEN
  6
HIDDEN2
100
AcDbPolyline
 90
        4
 70
     0
 43
0.0
 10
29.32534394604253
 20
15.53935649649168
 10
29.76034394604251
 20
15.53935649649169
 10
29.76034394604251
 20
15.34935649649169
 10
29.32534394604253
 20
15.34935649649168
  0
LWPOLYLINE
  5
4229
330
28C7
100
AcDbEntity
  8
OBJECT
100
AcDbPolyline
 90
        4
 70
     0
 43
0.0
 10
29.71534394604251
 20
15.24935649649167
 10
29.32534394604253
 20
15.24935649649167
 10
29.3253439460425
 20
15.63935649649169
 10
29.71534394604251
 20
15.63935649649169
  0
LWPOLYLINE
  5
422F
330
28C7
100
AcDbEntity
  8
OBJECT
100
AcDbPolyline
 90
        4
 70
     0
 43
0.0
 10
29.71534394604251
 20
23.5143564964917
 10
29.32534394604253
 20
23.5143564964917
 10
29.32534394604251
 20
23.9043564964917
 10
29.71534394604251
 20
23.9043564964917
  0
LINE
  5
4235
330
28C7
100
AcDbEntity
  8
OBJECT
100
AcDbLine
 10
29.71534394604251
 20
25.12435649649172
 30
0.0
 11
29.71534394604251
 21
17.21435649649169
 31
0.0
  0
LINE
  5
4236
330
28C7
100
AcDbEntity
  8
OBJECT
100
AcDbLine
 10
25.8463439460425
 20
18.43335649649167
 30
0.0
 11
29.71534394604251
 21
18.43335649649167
 31
0.0
  0
LINE
  5
4237
330
28C7
100
AcDbEntity
  8
OBJECT
100
AcDbLine
 10
25.8463439460425
 20
19.14535649649167
 30
0.0
 11
29.71534394604251
 21
19.14535649649167
 31
0.0
  0
LWPOLYLINE
  5
4238
330
28C7
100
AcDbEntity
  8
OBJECT
100
AcDbPolyline
 90
        4
 70
     0
 43
0.0
 10
29.32534394604253
 20
17.11435649649168
 10
29.76034394604251
 20
17.1143564964917
 10
29.76034394604251
 20
16.92435649649169
 10
29.32534394604253
 20
16.92435649649167
  0
LWPOLYLINE
  5
423E
330
28C7
100
AcDbEntity
  8
OBJECT
100
AcDbPolyline
 90
        4
 70
     0
 43
0.0
 10
29.71534394604251
 20
16.82435649649169
 10
29.32534394604253
 20
16.82435649649169
 10
29.32534394604251
 20
17.21435649649169
 10
29.71534394604251
 20
17.21435649649169
  0
LWPOLYLINE
  5
4244
330
28C7
100
AcDbEntity
  8
HIDDEN
  6
HIDDEN2
100
AcDbPolyline
 90
        4
 70
     0
 43
0.0
 10
29.32534394604253
 20
18.88435649649168
 10
29.76034394604251
 20
18.88435649649168
 10
29.76034394604251
 20
18.69435649649167
 10
29.32534394604253
 20
18.69435649649167
  0
LWPOLYLINE
  5
424A
330
28C7
100
AcDbEntity
  8
OBJECT
100
AcDbPolyline
 90
        4
 70
     0
 43
0.0
 10
29.71534394604251
 20
18.59435649649167
 10
29.32534394604253
 20
18.59435649649167
 10
29.32534394604251
 20
18.98435649649167
 10
29.71534394604251
 20
18.98435649649167
  0
LWPOLYLINE
  5
4250
330
28C7
100
AcDbEntity
  8
OBJECT
100
AcDbPolyline
 90
        4
 70
     0
 43
0.0
 10
29.71534394604251
 20
21.9393564964917
 10
29.32534394604253
 20
21.9393564964917
 10
29.32534394604251
 20
22.3293564964917
 10
29.71534394604251
 20
22.3293564964917
  0
LWPOLYLINE
  5
4256
330
28C7
100
AcDbEntity
  8
HIDDEN
  6
HIDDEN2
100
AcDbPolyline
 90
        4
 70
     0
 43
0.0
 10
29.32534394604253
 20
20.65435649649169
 10
29.76034394604251
 20
20.6543564964917
 10
29.76034394604251
 20
20.4643564964917
 10
29.32534394604253
 20
20.46435649649169
  0
LWPOLYLINE
  5
425C
330
28C7
100
AcDbEntity
  8
OBJECT
100
AcDbPolyline
 90
        4
 70
     0
 43
0.0
 10
29.71534394604251
 20
20.36435649649168
 10
29.32534394604253
 20
20.36435649649168
 10
29.32534394604251
 20
20.75435649649169
 10
29.71534394604251
 20
20.75435649649169
  0
LWPOLYLINE
  5
4262
330
28C7
100
AcDbEntity
  8
HIDDEN
  6
HIDDEN2
100
AcDbPolyline
 90
        4
 70
     0
 43
0.0
 10
29.32534394604253
 20
23.80435649649169
 10
29.76034394604251
 20
23.8043564964917
 10
29.76034394604251
 20
23.61435649649171
 10
29.32534394604253
 20
23.61435649649169
  0
LWPOLYLINE
  5
4268
330
28C7
100
AcDbEntity
  8
HIDDEN
  6
HIDDEN2
100
AcDbPolyline
 90
        4
 70
     0
 43
0.0
 10
29.32534394604253
 20
22.22935649649169
 10
29.76034394604251
 20
22.2293564964917
 10
29.76034394604251
 20
22.0393564964917
 10
29.32534394604253
 20
22.03935649649169
  0
LWPOLYLINE
  5
426E
330
28C7
100
AcDbEntity
  8
OBJECT
100
AcDbPolyline
 90
        4
 70
     0
 43
0.0
 10
29.85534394604251
 20
25.78335649649168
 10
26.23334394604245
 20
25.78335649649168
 10
26.23334394604251
 20
25.23635649649167
 10
29.85534394604251
 20
25.23635649649167
  0
LINE
  5
4274
330
28C7
100
AcDbEntity
  8
OBJECT
100
AcDbLine
 10
25.84634394604253
 20
25.12435649649172
 30
0.0
 11
29.71534394604251
 21
25.12435649649172
 31
0.0
  0
LWPOLYLINE
  5
4275
330
28C7
100
AcDbEntity
  8
OBJECT
100
AcDbPolyline
 90
        3
 70
     0
 43
0.0
 10
25.95834394604251
 20
25.8333564964917
 10
25.91834394604251
 20
25.8333564964917
 10
25.91834394604251
 20
25.18435649649167
  0
LINE
  5
427A
330
28C7
100
AcDbEntity
  8
OBJECT
100
AcDbLine
 10
25.8463439460425
 20
25.18435649649167
 30
0.0
 11
25.91834394604251
 21
25.18435649649167
 31
0.0
  0
LINE
  5
427C
330
28C7
100
AcDbEntity
  8
OBJECT
100
AcDbLine
 10
25.91834394604247
 20
25.3388564964917
 30
0.0
 11
26.23334394604249
 21
25.3388564964917
 31
0.0
  0
LINE
  5
427D
330
28C7
100
AcDbEntity
  8
OBJECT
100
AcDbLine
 10
25.91834394604247
 20
25.3978564964917
 30
0.0
 11
26.23334394604246
 21
25.3978564964917
 31
0.0
  0
LINE
  5
427E
330
28C7
100
AcDbEntity
  8
OBJECT
100
AcDbLine
 10
25.91834394604247
 20
25.5298564964917
 30
0.0
 11
26.23334394604246
 21
25.5298564964917
 31
0.0
  0
LINE
  5
427F
330
28C7
100
AcDbEntity
  8
OBJECT
100
AcDbLine
 10
25.91834394604247
 20
25.5888564964917
 30
0.0
 11
26.23334394604246
 21
25.5888564964917
 31
0.0
  0
LWPOLYLINE
  5
4280
330
28C7
100
AcDbEntity
  8
OBJECT
100
AcDbPolyline
 90
        2
 70
     0
 43
0.0
 10
25.95834394604251
 20
25.8333564964917
 10
25.95834394604251
 20
25.8533564964917
  0
LWPOLYLINE
  5
4284
330
28C7
100
AcDbEntity
  8
HIDDEN
  6
HIDDEN2
100
AcDbPolyline
 90
        4
 70
     0
 43
0.0
 10
29.32534394604253
 20
24.79585649649168
 10
29.76034394604251
 20
24.79585649649168
 10
29.76034394604251
 20
24.60585649649168
 10
29.32534394604253
 20
24.60585649649168
  0
LWPOLYLINE
  5
428A
330
28C7
100
AcDbEntity
  8
OBJECT
100
AcDbPolyline
 90
        4
 70
     0
 43
0.0
 10
29.71534394604251
 20
24.50585649649167
 10
29.32534394604253
 20
24.50585649649167
 10
29.32534394604251
 20
24.89585649649167
 10
29.71534394604251
 20
24.89585649649167
  0
DIMENSION
  5
4290
330
28C7
100
AcDbEntity
  8
DIM
100
AcDbDimension
  2
*D33
 10
29.85534394604251
 20
10.88234714468787
 30
0.0
 11
32.31159394604251
 21
10.88234714468787
 31
0.0
 70
    32
 71
     5
 42
0.3140000000000001
  3
23NSTD
100
AcDbAlignedDimension
 13
29.54134394604251
 23
11.80535649649168
 33
0.0
 14
29.85534394604251
 24
11.78735649649168
 34
0.0
100
AcDbRotatedDimension
  0
DIMENSION
  5
42AC
330
28C7
100
AcDbEntity
  8
DIM
100
AcDbDimension
  2
*D34
 10
29.85534394604251
 20
9.842212977552197
 30
0.0
 11
27.88684394604251
 21
9.842212977552197
 31
0.0
 70
   160
 71
     5
 42
3.937000000000004
  3
23NSTD
100
AcDbAlignedDimension
 13
25.91834394604251
 23
11.74535649649169
 33
0.0
 14
29.85534394604251
 24
12.24085649649169
 34
0.0
100
AcDbRotatedDimension
  0
DIMENSION
  5
44A7
330
28C7
100
AcDbEntity
  8
DIM
100
AcDbDimension
  2
*D35
 10
21.30229163644098
 20
25.46385649649167
 30
0.0
 11
21.30229163644097
 21
22.12660649649166
 31
0.0
 70
    32
 71
     5
 42
6.674500000000033
  3
23NSTD
100
AcDbAlignedDimension
 13
16.26085603629656
 23
18.78935649649164
 33
0.0
 14
16.23985603629652
 24
25.46385649649167
 34
0.0
 50
90.0
100
AcDbRotatedDimension
  0
DIMENSION
  5
44B5
330
28C7
100
AcDbEntity
  8
DIM
100
AcDbDimension
  2
*D36
 10
21.30229163644098
 20
25.85335649649165
 30
0.0
 11
23.06979163644097
 21
27.29335649649165
 31
0.0
 70
    32
 71
     5
 42
0.3894999999999769
  3
23NSTD
100
AcDbAlignedDimension
 13
16.23985603629652
 23
25.46385649649167
 33
0.0
 14
16.25485603629653
 24
25.85335649649165
 34
0.0
 50
90.0
100
AcDbRotatedDimension
  0
DIMENSION
  5
44D1
330
28C7
100
AcDbEntity
  8
DIM
100
AcDbDimension
  2
*D37
 10
9.656856036296559
 20
28.58967150862719
 30
0.0
 11
12.71785603629655
 21
28.58967150862719
 31
0.0
 70
   160
 71
     5
 42
6.122000000000035
  3
23NSTD
100
AcDbAlignedDimension
 13
15.77885603629659
 23
25.46385649649169
 33
0.0
 14
9.656856036296559
 24
25.46385649649166
 34
0.0
100
AcDbRotatedDimension
  0
DIMENSION
  5
44DE
330
28C7
100
AcDbEntity
  8
DIM
100
AcDbDimension
  2
*D38
 10
8.795356036296574
 20
28.58967150862719
 30
0.0
 11
6.276606036296574
 21
28.58967150862719
 31
0.0
 70
    32
 71
     5
 42
0.8614999999999852
  3
23NSTD
100
AcDbAlignedDimension
 13
9.656856036296559
 23
25.46385649649166
 33
0.0
 14
8.795356036296574
 24
25.47835649649166
 34
0.0
100
AcDbRotatedDimension
  0
DIMENSION
  5
44EC
330
28C7
100
AcDbEntity
  8
DIM
100
AcDbDimension
  2
*D39
 10
8.795356036296574
 20
30.67035649649171
 30
0.0
 11
12.71785603629657
 21
30.67035649649171
 31
0.0
 70
    32
 71
     5
 42
7.844999999999991
  3
23NSTD
100
AcDbAlignedDimension
 13
16.64035603629656
 23
25.47835649649166
 33
0.0
 14
8.795356036296574
 24
25.47835649649166
 34
0.0
100
AcDbRotatedDimension
  0
DIMENSION
  5
4508
330
28C7
100
AcDbEntity
  8
DIM
100
AcDbDimension
  2
*D40
 10
16.25035603629656
 20
29.7056715086272
 30
0.0
 11
12.71785603629655
 21
29.7056715086272
 31
0.0
 70
    32
 71
     5
 42
7.065000000000004
  3
23NSTD
100
AcDbAlignedDimension
 13
9.185356036296553
 23
25.46385649649165
 33
0.0
 14
16.25035603629656
 24
26.58785649649162
 34
0.0
100
AcDbRotatedDimension
  0
DIMENSION
  5
4516
330
28C7
100
AcDbEntity
  8
DIM
100
AcDbDimension
  2
*D41
 10
8.79535603629661
 20
29.7056715086272
 30
0.0
 11
6.30785603629661
 21
29.7056715086272
 31
0.0
 70
    32
 71
     5
 42
0.3899999999999437
  3
23NSTD
100
AcDbAlignedDimension
 13
9.185356036296553
 23
25.46385649649165
 33
0.0
 14
8.79535603629661
 24
25.47835649649164
 34
0.0
100
AcDbRotatedDimension
  0
DIMENSION
  5
4532
330
28C7
100
AcDbEntity
  8
DIM
100
AcDbDimension
  2
*D42
 10
22.70141111783395
 20
25.85335649649167
 30
0.0
 11
22.70141111783395
 21
18.78935649649167
 31
0.0
 70
    32
 71
     5
 42
14.128
  3
23NSTD
100
AcDbAlignedDimension
 13
16.26535603629658
 23
11.72535649649166
 33
0.0
 14
16.25485603629651
 24
25.85335649649167
 34
0.0
 50
90.0
100
AcDbRotatedDimension
  0
LWPOLYLINE
  5
4541
330
28C7
100
AcDbEntity
  8
OBJECT
100
AcDbPolyline
 90
       36
 70
     1
 43
0.0
 10
38.72744883536799
 20
25.22335649649166
 10
38.119448835368
 20
25.22335649649166
 42
0.4142135623730951
 10
37.887448835368
 20
24.99135649649165
 10
37.887448835368
 20
19.26435649649167
 42
0.4142135623730951
 10
38.119448835368
 20
19.03235649649166
 10
38.22144883536799
 20
19.03235649649166
 42
-1.0
 10
38.22144883536799
 20
18.54635649649167
 10
38.119448835368
 20
18.54635649649167
 42
0.4142135623730951
 10
37.887448835368
 20
18.31435649649167
 10
37.887448835368
 20
12.58735649649169
 42
0.4142135623730951
 10
38.119448835368
 20
12.35535649649169
 10
38.72744883536798
 20
12.35535649649169
 42
-0.4142135623730951
 10
38.932448835368
 20
12.15035649649168
 10
38.932448835368
 20
12.01735649649169
 42
0.4142135623730951
 10
39.16444883536797
 20
11.78535649649169
 10
44.33544883536796
 20
11.78535649649169
 42
0.4142135623730951
 10
44.56744883536795
 20
12.01735649649169
 10
44.56744883536795
 20
12.15035649649168
 42
-0.4142135623730951
 10
44.77244883536799
 20
12.35535649649169
 10
45.38044883536795
 20
12.35535649649169
 42
0.4142135623730951
 10
45.61244883536796
 20
12.58735649649169
 10
45.61244883536796
 20
18.31435649649167
 42
0.4142135623730951
 10
45.38044883536795
 20
18.54635649649167
 10
45.27844883536796
 20
18.54635649649167
 42
-1.0
 10
45.27844883536796
 20
19.03235649649166
 10
45.38044883536795
 20
19.03235649649166
 42
0.4142135623730951
 10
45.61244883536796
 20
19.26435649649167
 10
45.61244883536796
 20
24.99135649649165
 42
0.4142135623730951
 10
45.38044883536795
 20
25.22335649649166
 10
44.77244883536797
 20
25.22335649649166
 42
-0.4142135623730951
 10
44.56744883536795
 20
25.42835649649165
 10
44.56744883536795
 20
25.56135649649166
 42
0.4142135623730951
 10
44.33544883536796
 20
25.79335649649165
 10
39.16444883536797
 20
25.79335649649165
 42
0.4142135623730951
 10
38.932448835368
 20
25.56135649649166
 10
38.932448835368
 20
25.42835649649165
 42
-0.4142135623730951
  0
LWPOLYLINE
  5
4569
330
28C7
100
AcDbEntity
  8
OBJECT
100
AcDbPolyline
 90
       36
 70
     1
 43
0.0
 10
45.44244883536795
 20
19.26435649649167
 42
-0.4142135623730951
 10
45.38044883536795
 20
19.20235649649167
 10
45.27844883536796
 20
19.20235649649167
 42
1.0
 10
45.27844883536796
 20
18.37635649649167
 10
45.38044883536795
 20
18.37635649649167
 42
-0.4142135623730951
 10
45.44244883536795
 20
18.31435649649167
 10
45.44244883536795
 20
12.58735649649169
 42
-0.4142135623730951
 10
45.38044883536795
 20
12.52535649649168
 10
44.77244883536797
 20
12.52535649649168
 42
0.4142135623730951
 10
44.39744883536796
 20
12.15035649649168
 10
44.39744883536796
 20
12.01735649649169
 42
-0.4142135623730951
 10
44.33544883536796
 20
11.95535649649169
 10
39.16444883536797
 20
11.95535649649169
 42
-0.4142135623730951
 10
39.10244883536799
 20
12.01735649649169
 10
39.10244883536799
 20
12.15035649649168
 42
0.4142135623730951
 10
38.72744883536799
 20
12.52535649649168
 10
38.119448835368
 20
12.52535649649168
 42
-0.4142135623730951
 10
38.05744883536798
 20
12.58735649649169
 10
38.05744883536798
 20
18.31435649649167
 42
-0.4142135623730951
 10
38.119448835368
 20
18.37635649649167
 10
38.22144883536799
 20
18.37635649649167
 42
1.0
 10
38.22144883536799
 20
19.20235649649167
 10
38.119448835368
 20
19.20235649649167
 42
-0.4142135623730951
 10
38.05744883536798
 20
19.26435649649167
 10
38.05744883536798
 20
24.99135649649165
 42
-0.4142135623730951
 10
38.119448835368
 20
25.05335649649165
 10
38.72744883536799
 20
25.05335649649165
 42
0.4142135623730951
 10
39.10244883536799
 20
25.42835649649165
 10
39.10244883536799
 20
25.56135649649166
 42
-0.4142135623730951
 10
39.16444883536797
 20
25.62335649649165
 10
44.33544883536796
 20
25.62335649649165
 42
-0.4142135623730951
 10
44.39744883536796
 20
25.56135649649166
 10
44.39744883536796
 20
25.42835649649165
 42
0.4142135623730951
 10
44.77244883536797
 20
25.05335649649165
 10
45.38044883536795
 20
25.05335649649165
 42
-0.4142135623730951
 10
45.44244883536795
 20
24.99135649649165
  0
LWPOLYLINE
  5
458F
330
28C7
100
AcDbEntity
  8
OBJECT
100
AcDbPolyline
 90
       36
 70
     1
 43
0.0
 10
45.49244883536796
 20
19.26435649649167
 10
45.49244883536796
 20
24.99135649649165
 42
0.4142135623730951
 10
45.38044883536795
 20
25.10335649649166
 10
44.77244883536797
 20
25.10335649649166
 42
-0.4142135623730951
 10
44.44744883536796
 20
25.42835649649165
 10
44.44744883536796
 20
25.56135649649166
 42
0.4142135623730951
 10
44.33544883536796
 20
25.67335649649165
 10
39.16444883536797
 20
25.67335649649165
 42
0.4142135623730951
 10
39.05244883536799
 20
25.56135649649166
 10
39.05244883536799
 20
25.42835649649165
 42
-0.4142135623730951
 10
38.72744883536799
 20
25.10335649649166
 10
38.119448835368
 20
25.10335649649166
 42
0.4142135623730951
 10
38.00744883536799
 20
24.99135649649165
 10
38.00744883536799
 20
19.26435649649167
 42
0.4142135623730951
 10
38.119448835368
 20
19.15235649649165
 10
38.22144883536799
 20
19.15235649649165
 42
-1.0
 10
38.22144883536799
 20
18.42635649649166
 10
38.119448835368
 20
18.42635649649166
 42
0.4142135623730951
 10
38.00744883536799
 20
18.31435649649167
 10
38.00744883536799
 20
12.58735649649169
 42
0.4142135623730951
 10
38.119448835368
 20
12.47535649649168
 10
38.72744883536799
 20
12.47535649649168
 42
-0.4142135623730951
 10
39.05244883536799
 20
12.15035649649168
 10
39.05244883536799
 20
12.01735649649169
 42
0.4142135623730951
 10
39.16444883536797
 20
11.90535649649169
 10
44.33544883536796
 20
11.90535649649169
 42
0.4142135623730951
 10
44.44744883536796
 20
12.01735649649169
 10
44.44744883536796
 20
12.15035649649168
 42
-0.4142135623730951
 10
44.77244883536797
 20
12.47535649649168
 10
45.38044883536795
 20
12.47535649649168
 42
0.4142135623730951
 10
45.49244883536796
 20
12.58735649649169
 10
45.49244883536796
 20
18.31435649649167
 42
0.4142135623730951
 10
45.38044883536795
 20
18.42635649649166
 10
45.27844883536796
 20
18.42635649649166
 42
-1.0
 10
45.27844883536796
 20
19.15235649649165
 10
45.38044883536795
 20
19.15235649649165
 42
0.4142135623730951
  0
LWPOLYLINE
  5
45B5
330
28C7
100
AcDbEntity
  8
0
100
AcDbPolyline
 90
       36
 70
     1
 43
0.0
 10
45.61244883536796
 20
18.31435649649167
 10
45.61244883536796
 20
12.58735649649169
 42
-0.4142135623730951
 10
45.38044883536795
 20
12.35535649649169
 10
44.77244883536797
 20
12.35535649649169
 42
0.4142135623730951
 10
44.56744883536795
 20
12.15035649649168
 10
44.56744883536795
 20
12.01735649649169
 42
-0.4142135623730951
 10
44.33544883536796
 20
11.78535649649169
 10
39.16444883536797
 20
11.78535649649169
 42
-0.4142135623730951
 10
38.932448835368
 20
12.01735649649169
 10
38.932448835368
 20
12.15035649649168
 42
0.4142135623730951
 10
38.72744883536799
 20
12.35535649649169
 10
38.119448835368
 20
12.35535649649169
 42
-0.4142135623730951
 10
37.887448835368
 20
12.58735649649169
 10
37.887448835368
 20
18.31435649649167
 42
-0.4142135623730951
 10
38.119448835368
 20
18.54635649649167
 10
38.22144883536799
 20
18.54635649649167
 42
1.0
 10
38.22144883536799
 20
19.03235649649166
 10
38.119448835368
 20
19.03235649649166
 42
-0.4142135623730951
 10
37.887448835368
 20
19.26435649649167
 10
37.887448835368
 20
24.99135649649165
 42
-0.4142135623730951
 10
38.119448835368
 20
25.22335649649166
 10
38.72744883536799
 20
25.22335649649166
 42
0.4142135623730951
 10
38.932448835368
 20
25.42835649649165
 10
38.932448835368
 20
25.56135649649166
 42
-0.4142135623730951
 10
39.16444883536797
 20
25.79335649649165
 10
44.33544883536796
 20
25.79335649649165
 42
-0.4142135623730951
 10
44.56744883536795
 20
25.56135649649166
 10
44.56744883536795
 20
25.42835649649165
 42
0.4142135623730951
 10
44.77244883536797
 20
25.22335649649166
 10
45.38044883536795
 20
25.22335649649166
 42
-0.4142135623730951
 10
45.61244883536796
 20
24.99135649649165
 10
45.61244883536796
 20
19.26435649649167
 42
-0.4142135623730951
 10
45.38044883536795
 20
19.03235649649166
 10
45.27844883536796
 20
19.03235649649166
 42
1.0
 10
45.27844883536796
 20
18.54635649649167
 10
45.38044883536795
 20
18.54635649649167
 42
-0.4142135623730951
  0
LWPOLYLINE
  5
45DB
330
28C7
100
AcDbEntity
  8
OBJECT
100
AcDbPolyline
 90
        8
 70
     1
 43
0.0
 10
45.67244883536798
 20
12.10035649649168
 10
45.67244883536798
 20
25.47835649649168
 42
0.4142135623730945
 10
45.29744883536799
 20
25.85335649649169
 10
38.202448835368
 20
25.85335649649169
 42
0.4142135623730951
 10
37.827448835368
 20
25.47835649649168
 10
37.827448835368
 20
12.10035649649168
 42
0.4142135623730951
 10
38.202448835368
 20
11.72535649649168
 10
45.29744883536799
 20
11.72535649649168
 42
0.4142135623730957
  0
ARC
  5
45E8
330
28C7
100
AcDbEntity
  8
OBJECT
100
AcDbCircle
 10
38.217448835368
 20
12.11485649649167
 30
0.0
 40
0.2259999999999991
100
AcDbArc
 50
129.0543476848328
 51
50.94565231516718
  0
CIRCLE
  5
45E9
330
28C7
100
AcDbEntity
  8
OBJECT
100
AcDbCircle
 10
38.217448835368
 20
12.11485649649167
 30
0.0
 40
0.175
  0
LWPOLYLINE
  5
45EA
330
28C7
100
AcDbEntity
  8
OBJECT
100
AcDbPolyline
 90
        6
 70
     1
 43
0.0
 10
38.86744883536799
 20
11.78535649649169
 10
38.86744883536799
 20
12.15035649649168
 42
0.4142135623730951
 10
38.72744883536799
 20
12.29035649649168
 10
37.887448835368
 20
12.29035649649168
 10
37.887448835368
 20
12.10035649649168
 42
0.4142135623730925
 10
38.202448835368
 20
11.78535649649169
  0
CIRCLE
  5
45F3
330
28C7
100
AcDbEntity
  8
OBJECT
100
AcDbCircle
 10
38.217448835368
 20
12.11485649649167
 30
0.0
 40
0.086
  0
LWPOLYLINE
  5
45FC
330
28C7
100
AcDbEntity
  8
OBJECT
100
AcDbPolyline
 90
        6
 70
     0
 43
0.0
 10
38.08858820446886
 20
18.99235649649167
 10
37.887448835368
 20
18.99235649649167
 10
37.887448835368
 20
18.58635649649167
 10
38.08858820446886
 20
18.58635649649167
 42
0.7273372201591332
 10
38.1031590558719
 20
18.63136014747457
 42
-0.5108359845402139
 10
38.1031590558719
 20
18.94735284550878
  0
ARC
  5
4604
330
28C7
100
AcDbEntity
  8
OBJECT
100
AcDbCircle
 10
38.08858820446886
 20
18.96749586559251
 30
0.0
 40
0.0248606308991526
100
AcDbArc
 50
305.8808393919566
 51
90.0
  0
CIRCLE
  5
4605
330
28C7
100
AcDbEntity
  8
OBJECT
100
AcDbCircle
 10
38.217448835368
 20
18.78935649649165
 30
0.0
 40
0.086
  0
LWPOLYLINE
  5
4608
330
28C7
100
AcDbEntity
  8
OBJECT
100
AcDbPolyline
 90
        6
 70
     1
 43
0.0
 10
44.63244883536797
 20
11.78535649649169
 10
44.63244883536797
 20
12.15035649649168
 42
-0.4142135623730951
 10
44.77244883536797
 20
12.29035649649168
 10
45.61244883536796
 20
12.29035649649168
 10
45.61244883536796
 20
12.10035649649168
 42
-0.4142135623730925
 10
45.29744883536797
 20
11.78535649649169
  0
CIRCLE
  5
4614
330
28C7
100
AcDbEntity
  8
OBJECT
100
AcDbCircle
 10
45.28244883536797
 20
12.11485649649167
 30
0.0
 40
0.175
  0
CIRCLE
  5
4615
330
28C7
100
AcDbEntity
  8
OBJECT
100
AcDbCircle
 10
45.28244883536797
 20
12.11485649649167
 30
0.0
 40
0.086
  0
ARC
  5
4616
330
28C7
100
AcDbEntity
  8
OBJECT
100
AcDbCircle
 10
45.28244883536797
 20
12.11485649649167
 30
0.0
 40
0.2259999999999991
100
AcDbArc
 50
129.0543476848403
 51
50.94565231515968
  0
LWPOLYLINE
  5
4619
330
28C7
100
AcDbEntity
  8
OBJECT
100
AcDbPolyline
 90
        6
 70
     0
 43
0.0
 10
45.41130946626712
 20
18.99235649649167
 10
45.61244883536796
 20
18.99235649649167
 10
45.61244883536796
 20
18.58635649649167
 10
45.41130946626712
 20
18.58635649649167
 42
-0.7273372201591332
 10
45.39673861486406
 20
18.63136014747457
 42
0.5108359845402139
 10
45.39673861486406
 20
18.94735284550878
  0
CIRCLE
  5
4624
330
28C7
100
AcDbEntity
  8
OBJECT
100
AcDbCircle
 10
45.28244883536797
 20
18.78935649649165
 30
0.0
 40
0.086
  0
ARC
  5
4625
330
28C7
100
AcDbEntity
  8
OBJECT
100
AcDbCircle
 10
45.41130946626712
 20
18.96749586559251
 30
0.0
 40
0.0248606308991526
100
AcDbArc
 50
90.0
 51
234.1191606080433
  0
CIRCLE
  5
4628
330
28C7
100
AcDbEntity
  8
OBJECT
100
AcDbCircle
 10
38.217448835368
 20
25.46385649649167
 30
0.0
 40
0.175
  0
CIRCLE
  5
4629
330
28C7
100
AcDbEntity
  8
OBJECT
100
AcDbCircle
 10
38.217448835368
 20
25.46385649649167
 30
0.0
 40
0.086
  0
ARC
  5
462A
330
28C7
100
AcDbEntity
  8
OBJECT
100
AcDbCircle
 10
38.217448835368
 20
25.46385649649167
 30
0.0
 40
0.2259999999999991
100
AcDbArc
 50
309.0543476848458
 51
230.9456523151541
  0
LWPOLYLINE
  5
462B
330
28C7
100
AcDbEntity
  8
OBJECT
100
AcDbPolyline
 90
        6
 70
     1
 43
0.0
 10
38.86744883536799
 20
25.79335649649165
 10
38.86744883536799
 20
25.42835649649165
 42
-0.4142135623730951
 10
38.72744883536799
 20
25.28835649649164
 10
37.887448835368
 20
25.28835649649164
 10
37.887448835368
 20
25.47835649649166
 42
-0.4142135623730925
 10
38.202448835368
 20
25.79335649649165
  0
LWPOLYLINE
  5
4638
330
28C7
100
AcDbEntity
  8
OBJECT
100
AcDbPolyline
 90
        6
 70
     1
 43
0.0
 10
44.63244883536797
 20
25.79335649649165
 10
44.63244883536797
 20
25.42835649649165
 42
0.4142135623730951
 10
44.77244883536797
 20
25.28835649649164
 10
45.61244883536796
 20
25.28835649649164
 10
45.61244883536796
 20
25.47835649649166
 42
0.4142135623730925
 10
45.29744883536797
 20
25.79335649649165
  0
ARC
  5
4642
330
28C7
100
AcDbEntity
  8
OBJECT
100
AcDbCircle
 10
45.28244883536797
 20
25.46385649649167
 30
0.0
 40
0.2259999999999991
100
AcDbArc
 50
309.0543476848139
 51
230.945652315186
  0
CIRCLE
  5
4643
330
28C7
100
AcDbEntity
  8
OBJECT
100
AcDbCircle
 10
45.28244883536797
 20
25.46385649649167
 30
0.0
 40
0.086
  0
CIRCLE
  5
4644
330
28C7
100
AcDbEntity
  8
OBJECT
100
AcDbCircle
 10
45.28244883536797
 20
25.46385649649167
 30
0.0
 40
0.175
  0
DIMENSION
  5
4647
330
28C7
100
AcDbEntity
  8
DIM
100
AcDbDimension
  2
*D43
 10
36.12694883536796
 20
12.11485649649167
 30
0.0
 11
36.12694883536796
 21
15.45210649649167
 31
0.0
 70
    32
 71
     5
 42
6.674499999999989
  3
23NSTD
100
AcDbAlignedDimension
 13
38.20694883536798
 23
18.78935649649165
 33
0.0
 14
38.217448835368
 24
12.11485649649167
 34
0.0
 50
90.0
100
AcDbRotatedDimension
  0
DIMENSION
  5
4655
330
28C7
100
AcDbEntity
  8
DIM
100
AcDbDimension
  2
*D44
 10
36.12694883536796
 20
11.72535649649168
 30
0.0
 11
34.35944883536797
 21
10.28535649649169
 31
0.0
 70
    32
 71
     5
 42
0.3894999999999804
  3
23NSTD
100
AcDbAlignedDimension
 13
38.217448835368
 23
12.11485649649167
 33
0.0
 14
38.202448835368
 24
11.72535649649168
 34
0.0
 50
90.0
100
AcDbRotatedDimension
  0
DIMENSION
  5
4663
330
28C7
100
AcDbEntity
  8
DIM
100
AcDbDimension
  2
*D45
 10
36.12694883536796
 20
25.46385649649167
 30
0.0
 11
36.12694883536796
 21
22.12660649649166
 31
0.0
 70
    32
 71
     5
 42
6.674500000000008
  3
23NSTD
100
AcDbAlignedDimension
 13
38.20694883536798
 23
18.78935649649165
 33
0.0
 14
38.217448835368
 24
25.46385649649167
 34
0.0
 50
90.0
100
AcDbRotatedDimension
  0
DIMENSION
  5
4671
330
28C7
100
AcDbEntity
  8
DIM
100
AcDbDimension
  2
*D46
 10
33.88522106897617
 20
25.85335649649169
 30
0.0
 11
33.88522106897617
 21
18.78935649649169
 31
0.0
 70
    32
 71
     5
 42
14.128
  3
23NSTD
100
AcDbAlignedDimension
 13
38.202448835368
 23
11.72535649649168
 33
0.0
 14
38.202448835368
 24
25.85335649649169
 34
0.0
 50
90.0
100
AcDbRotatedDimension
  0
DIMENSION
  5
467F
330
28C7
100
AcDbEntity
  8
DIM
100
AcDbDimension
  2
*D47
 10
38.217448835368
 20
27.52368602013605
 30
0.0
 11
41.74994883536799
 21
27.52368602013605
 31
0.0
 70
    32
 71
     5
 42
7.064999999999969
  3
23NSTD
100
AcDbAlignedDimension
 13
45.28244883536797
 23
25.46385649649167
 33
0.0
 14
38.217448835368
 24
25.46385649649167
 34
0.0
100
AcDbRotatedDimension
  0
DIMENSION
  5
468D
330
28C7
100
AcDbEntity
  8
DIM
100
AcDbDimension
  2
*D48
 10
37.827448835368
 20
27.52368602013605
 30
0.0
 11
35.339948835368
 21
27.52368602013605
 31
0.0
 70
    32
 71
     5
 42
0.3900000000000006
  3
23NSTD
100
AcDbAlignedDimension
 13
38.217448835368
 23
25.46385649649167
 33
0.0
 14
37.827448835368
 24
25.47835649649168
 34
0.0
100
AcDbRotatedDimension
  0
DIMENSION
  5
469B
330
28C7
100
AcDbEntity
  8
DIM
100
AcDbDimension
  2
*D49
 10
45.67244883536798
 20
28.63968602013605
 30
0.0
 11
41.749948835368
 21
28.63968602013605
 31
0.0
 70
    32
 71
     5
 42
7.844999999999984
  3
23NSTD
100
AcDbAlignedDimension
 13
37.827448835368
 23
25.47835649649168
 33
0.0
 14
45.67244883536798
 24
25.47835649649168
 34
0.0
100
AcDbRotatedDimension
  0
INSERT
  5
5339
330
28C7
100
AcDbEntity
  8
TITLE
100
AcDbBlockReference
  2
HBS
 10
0.0
 20
0.0
 30
0.0
 41
4.0
 42
4.0
 43
4.0
  0
TEXT
  5
53F3
330
28C7
100
AcDbEntity
  8
TEXT
100
AcDbText
 10
11.71775000000002
 20
39.91550000000001
 30
0.0
 40
0.625
  1
NEMA 4X ENCLOSURE
 41
0.75
 72
     4
 11
15.62400000000002
 21
40.22800000000001
 31
0.0
100
AcDbText
  0
TEXT
  5
53F4
330
28C7
100
AcDbEntity
  8
TEXT
100
AcDbText
 10
1.071203999999994
 20
36.330474
 30
0.0
 40
0.5
  1
  UL94-HB FLAMMABILITY RATING (UL FILE #E41613)
 41
0.75
100
AcDbText
  0
TEXT
  5
53F5
330
28C7
100
AcDbEntity
  8
TEXT
100
AcDbText
 10
1.071203999999994
 20
34.66447399999999
 30
0.0
 40
0.5
  1
  SERVICE TEMPERATURE RANGE:  -40%%DC TO +120%%DC
 41
0.75
100
AcDbText
  0
TEXT
  5
53F6
330
28C7
100
AcDbEntity
  8
TEXT
100
AcDbText
 10
1.071203999999994
 20
32.998474
 30
0.0
 40
0.5
  1
  UL94-HB FLAMMABILITY RATING (UL FILE #E56070)
 41
0.75
100
AcDbText
  0
TEXT
  5
53F7
330
28C7
100
AcDbEntity
  8
TEXT
100
AcDbText
 10
1.071203999999994
 20
32.165808
 30
0.0
 40
0.5
  1
  SERVICE TEMPERATURE RANGE:  -40%%DC TO +80%%DC
 41
0.75
100
AcDbText
  0
TEXT
  5
53F8
330
28C7
100
AcDbEntity
  8
TEXT
100
AcDbText
 10
1.071203999999994
 20
37.163806
 30
0.0
 40
0.5
  1
 %%UPOLYCARBONATE%%U (LIGHT GRAY AND CLEAR)
 41
0.75
100
AcDbText
  0
TEXT
  5
5413
330
28C7
100
AcDbEntity
  8
TEXT
100
AcDbText
 10
1.071203999999994
 20
35.497808
 30
0.0
 40
0.5
  1
  UV STABILIZED
 41
0.75
100
AcDbText
  0
TEXT
  5
5414
330
28C7
100
AcDbEntity
  8
TEXT
100
AcDbText
 10
1.071203999999994
 20
37.99714
 30
0.0
 40
0.625
  1
INDUSTRY STANDARDS:
 41
0.75
100
AcDbText
  0
TEXT
  5
5415
330
28C7
100
AcDbEntity
  8
TEXT
100
AcDbText
 10
1.071203999999994
 20
33.831808
 30
0.0
 40
0.5
  1
 %%UABS%%U (DARK GRAY)
 41
0.75
100
AcDbText
  0
TEXT
  5
5431
330
28C7
100
AcDbEntity
  8
TEXT
100
AcDbText
 10
34.15201600000004
 20
4.819998000000005
 30
0.0
 40
0.5
  1
%%UNOTE%%U:  ALL DIMENSIONS HAVE %%P0.015 TOLERANCE UNLESS OTHERWISE SPECIFIED.
 41
0.75
100
AcDbText
  0
LINE
  5
5432
330
28C7
100
AcDbEntity
  8
TITLE
100
AcDbLine
 10
42.15201200000005
 20
3.575998000000004
 30
0.0
 11
58.15200400000008
 21
3.575998000000004
 31
0.0
  0
TEXT
  5
5433
330
28C7
100
AcDbEntity
  8
TEXT
100
AcDbText
 10
52.52700600000007
 20
0.4100000000000047
 30
0.0
 40
0.5
  1
DARK GRAY
 41
0.75
 72
     4
 11
54.15200600000007
 21
0.6600000000000046
 31
0.0
100
AcDbText
  0
TEXT
  5
5434
330
28C7
100
AcDbEntity
  8
TEXT
100
AcDbText
 10
52.40200600000007
 20
2.076666000000004
 30
0.0
 40
0.5
  1
LIGHT GRAY
 41
0.75
 72
     4
 11
54.15200600000007
 21
2.326666000000004
 31
0.0
100
AcDbText
  0
TEXT
  5
5435
330
28C7
100
AcDbEntity
  8
TEXT
100
AcDbText
 10
53.21450600000007
 20
3.741998000000005
 30
0.0
 40
0.5
  1
FINISH
 41
0.75
 72
     4
 11
54.15200600000007
 21
3.991998000000005
 31
0.0
100
AcDbText
  0
LINE
  5
5436
330
28C7
100
AcDbEntity
  8
TITLE
100
AcDbLine
 10
34.15201600000004
 20
4.407998000000004
 30
0.0
 11
66.15200000000003
 21
4.407998000000004
 31
0.0
  0
LINE
  5
5437
330
28C7
100
AcDbEntity
  8
TITLE
100
AcDbLine
 10
34.15201600000004
 20
2.743998000000004
 30
0.0
 11
66.15200000000003
 21
2.743998000000004
 31
0.0
  0
LINE
  5
5438
330
28C7
100
AcDbEntity
  8
TITLE
100
AcDbLine
 10
34.15201600000004
 20
1.911998000000004
 30
0.0
 11
58.15200400000008
 21
1.911998000000004
 31
0.0
  0
LINE
  5
5439
330
28C7
100
AcDbEntity
  8
TITLE
100
AcDbLine
 10
34.15201600000004
 20
1.080000000000004
 30
0.0
 11
58.15200400000008
 21
1.080000000000004
 31
0.0
  0
TEXT
  5
543B
330
28C7
100
AcDbEntity
  8
TEXT
100
AcDbText
 10
43.46451000000006
 20
2.909998000000004
 30
0.0
 40
0.5
  1
BODY
 41
0.75
 72
     4
 11
44.15201000000005
 21
3.159998000000004
 31
0.0
100
AcDbText
  0
TEXT
  5
543C
330
28C7
100
AcDbEntity
  8
TEXT
100
AcDbText
 10
43.52701000000005
 20
0.4100000000000046
 30
0.0
 40
0.5
  1
HIGH-IMPACT ABS
 41
0.75
 72
     4
 11
46.15201000000006
 21
0.6600000000000046
 31
0.0
100
AcDbText
  0
TEXT
  5
543D
330
28C7
100
AcDbEntity
  8
TEXT
100
AcDbText
 10
36.58951400000005
 20
1.242000000000004
 30
0.0
 40
0.5
  1
PN-1344-C
 41
0.75
 72
     4
 11
38.15201400000005
 21
1.492000000000004
 31
0.0
100
AcDbText
  0
LINE
  5
543E
330
28C7
100
AcDbEntity
  8
TITLE
100
AcDbLine
 10
34.15201600000004
 20
4.407998000000004
 30
0.0
 11
34.15201600000004
 21
0.2480000000000047
 31
0.0
  0
LINE
  5
543F
330
28C7
100
AcDbEntity
  8
TITLE
100
AcDbLine
 10
42.15201200000005
 20
4.407998000000004
 30
0.0
 11
42.15201200000005
 21
0.2480000000000047
 31
0.0
  0
TEXT
  5
5440
330
28C7
100
AcDbEntity
  8
TEXT
100
AcDbText
 10
36.40201400000005
 20
0.4086660000000048
 30
0.0
 40
0.5
  1
PN-1344-DG
 41
0.75
 72
     4
 11
38.15201400000005
 21
0.6586660000000047
 31
0.0
100
AcDbText
  0
TEXT
  5
5441
330
28C7
100
AcDbEntity
  8
TEXT
100
AcDbText
 10
36.96451400000005
 20
2.075332000000004
 30
0.0
 40
0.5
  1
PN-1344
 41
0.75
 72
     4
 11
38.15201400000005
 21
2.325332000000004
 31
0.0
100
AcDbText
  0
TEXT
  5
5443
330
28C7
100
AcDbEntity
  8
TEXT
100
AcDbText
 10
36.15201400000005
 20
3.325998000000004
 30
0.0
 40
0.5
  1
PART NUMBER
 41
0.75
 72
     4
 11
38.15201400000005
 21
3.575998000000004
 31
0.0
100
AcDbText
  0
TEXT
  5
5444
330
28C7
100
AcDbEntity
  8
TEXT
100
AcDbText
 10
50.40200600000007
 20
1.243332000000004
 30
0.0
 40
0.5
  1
LIGHT GRAY
 41
0.75
 72
     4
 11
52.15200600000007
 21
1.493332000000004
 31
0.0
100
AcDbText
  0
TEXT
  5
5445
330
28C7
100
AcDbEntity
  8
TEXT
100
AcDbText
 10
43.77701000000006
 20
1.243332000000004
 30
0.0
 40
0.5
  1
POLYCARBONATE
 41
0.75
 72
     4
 11
46.15201000000006
 21
1.493332000000004
 31
0.0
100
AcDbText
  0
LINE
  5
5446
330
28C7
100
AcDbEntity
  8
TITLE
100
AcDbLine
 10
50.15200800000006
 20
4.407998000000004
 30
0.0
 11
50.15200800000006
 21
0.2480000000000047
 31
0.0
  0
TEXT
  5
5447
330
28C7
100
AcDbEntity
  8
TEXT
100
AcDbText
 10
47.21450800000006
 20
2.909998000000004
 30
0.0
 40
0.5
  1
COVER
 41
0.75
 72
     4
 11
48.15200800000006
 21
3.159998000000004
 31
0.0
100
AcDbText
  0
TEXT
  5
5448
330
28C7
100
AcDbEntity
  8
TEXT
100
AcDbText
 10
43.77701000000006
 20
2.076666000000004
 30
0.0
 40
0.5
  1
POLYCARBONATE
 41
0.75
 72
     4
 11
46.15201000000006
 21
2.326666000000004
 31
0.0
100
AcDbText
  0
TEXT
  5
5449
330
28C7
100
AcDbEntity
  8
TEXT
100
AcDbText
 10
44.77701000000005
 20
3.741998000000005
 30
0.0
 40
0.5
  1
MATERIAL
 41
0.75
 72
     4
 11
46.15201000000006
 21
3.991998000000005
 31
0.0
100
AcDbText
  0
LINE
  5
544A
330
28C7
100
AcDbEntity
  8
TITLE
100
AcDbLine
 10
46.15201000000006
 20
3.575998000000004
 30
0.0
 11
46.15201000000006
 21
2.743998000000004
 31
0.0
  0
TEXT
  5
544C
330
28C7
100
AcDbEntity
  8
TEXT
100
AcDbText
 10
51.46450600000007
 20
2.909998000000004
 30
0.0
 40
0.5
  1
BODY
 41
0.75
 72
     4
 11
52.15200600000007
 21
3.159998000000004
 31
0.0
100
AcDbText
  0
TEXT
  5
5487
330
28C7
100
AcDbEntity
  8
TEXT
100
AcDbText
 10
58.58950200000008
 20
0.4100000000000046
 30
0.0
 40
0.5
  1
SCREWS FOR ASSEMBLY
 41
0.75
 72
     4
 11
62.15200200000008
 21
0.6600000000000046
 31
0.0
100
AcDbText
  0
TEXT
  5
5488
330
28C7
100
AcDbEntity
  8
TEXT
100
AcDbText
 10
58.68325200000008
 20
1.243332000000004
 30
0.0
 40
0.5
  1
M4 x 25mm (1.000") LG.
 41
0.75
 72
     4
 11
62.15200200000008
 21
1.493332000000004
 31
0.0
100
AcDbText
  0
TEXT
  5
5489
330
28C7
100
AcDbEntity
  8
TEXT
100
AcDbText
 10
59.46450200000008
 20
2.076666000000004
 30
0.0
 40
0.5
  1
KIT CONTAINS (6)
 41
0.75
 72
     4
 11
62.15200200000008
 21
2.326666000000004
 31
0.0
100
AcDbText
  0
TEXT
  5
548A
330
28C7
100
AcDbEntity
  8
TEXT
100
AcDbText
 10
55.27700400000007
 20
1.243332000000004
 30
0.0
 40
0.5
  1
CLEAR
 41
0.75
 72
     4
 11
56.15200400000007
 21
1.493332000000004
 31
0.0
100
AcDbText
  0
LINE
  5
548B
330
28C7
100
AcDbEntity
  8
TITLE
100
AcDbLine
 10
54.15200600000007
 20
1.911998000000004
 30
0.0
 11
54.15200600000007
 21
1.080000000000004
 31
0.0
  0
LINE
  5
548C
330
28C7
100
AcDbEntity
  8
TITLE
100
AcDbLine
 10
58.15200400000008
 20
4.407998000000004
 30
0.0
 11
58.15200400000008
 21
0.2480000000000047
 31
0.0
  0
TEXT
  5
548D
330
28C7
100
AcDbEntity
  8
TEXT
100
AcDbText
 10
55.21450400000007
 20
2.909998000000004
 30
0.0
 40
0.5
  1
COVER
 41
0.75
 72
     4
 11
56.15200400000007
 21
3.159998000000004
 31
0.0
100
AcDbText
  0
LINE
  5
548E
330
28C7
100
AcDbEntity
  8
TITLE
100
AcDbLine
 10
54.15200600000007
 20
3.575998000000004
 30
0.0
 11
54.15200600000007
 21
2.743998000000004
 31
0.0
  0
TEXT
  5
5490
330
28C7
100
AcDbEntity
  8
TEXT
100
AcDbText
 10
59.96450200000008
 20
3.325998000000004
 30
0.0
 40
0.5
  1
HARDWARE KIT
 41
0.75
 72
     4
 11
62.15200200000008
 21
3.575998000000004
 31
0.0
100
AcDbText
  0
TEXT
  5
54E8
330
28C7
100
AcDbEntity
  8
TEXT
100
AcDbText
 10
36.31929476610001
 20
39.96758333333334
 30
0.0
 40
0.625
  1
PN-1344, PN-1344-C AND PN-1344-DG
 41
0.75
 72
     4
 11
43.62398226610001
 21
40.22800000000001
 31
0.0
100
AcDbText
  0
TEXT
  5
54FA
330
28C7
100
AcDbEntity
  8
TEXT
100
AcDbText
 10
61.17654476610003
 20
39.91550000000003
 30
0.0
 40
0.625
  1
11-17-08
 41
0.75
 72
     4
 11
62.69998226610003
 21
40.22800000000002
 31
0.0
100
AcDbText
  0
LWPOLYLINE
  5
5C3F
330
28C7
100
AcDbEntity
  8
BEND
100
AcDbPolyline
 90
       12
 70
     0
 10
14.57776545786393
 20
10.99085649649172
 40
0.0
 41
0.31350000015675
 10
15.20476545817742
 20
10.99085649649172
 40
0.052250000026125
 41
0.052250000026125
 10
15.7888560362966
 20
10.99085649649172
 40
0.052250000026125
 41
0.052250000026125
 10
15.7888560362966
 20
16.16031559253385
 40
0.052250000026125
 41
0.052250000026125
 10
16.10385603629659
 20
16.16031559253385
 40
0.052250000026125
 41
0.052250000026125
 10
16.10385603629659
 20
17.91857335181696
 40
0.052250000026125
 41
0.052250000026125
 10
15.68785864689218
 20
17.91857335181696
 40
0.052250000026125
 41
0.052250000026125
 10
15.68785864689218
 20
25.02774817622556
 40
0.052250000026125
 41
0.052250000026125
 10
16.25035603629656
 20
25.02774817622556
 40
0.052250000026125
 41
0.052250000026125
 10
16.25035603629656
 20
26.58785649649162
 40
0.052250000026125
 41
0.052250000026125
 10
15.51943212500143
 20
26.58785649649162
 40
0.31350000015675
 41
0.0
 10
14.89243212468794
 20
26.58785649649162
 40
0.0
 41
0.0
  0
LWPOLYLINE
  5
5C4D
330
28C7
100
AcDbEntity
  8
BEND
100
AcDbPolyline
 90
        8
 70
     0
 10
43.95813010327943
 20
10.99085649649177
 40
0.0
 41
0.31350000172425
 10
44.58513010672795
 20
10.99085649649177
 40
0.052250000287375
 41
0.052250000287375
 10
45.29294883536796
 20
10.99085649649177
 40
0.052250000287375
 41
0.052250000287375
 10
45.29294883536796
 20
21.41997361983421
 40
0.052250000287375
 41
0.052250000287375
 10
43.26798501555636
 20
21.41997361983421
 40
0.052250000287375
 41
0.052250000287375
 10
43.26798501555636
 20
26.58785649649168
 40
0.052250000287375
 41
0.052250000287375
 10
42.56016628691631
 20
26.58785649649168
 40
0.31350000172425
 41
0.0
 10
41.93316628346781
 20
26.58785649649168
 40
0.0
 41
0.0
  0
DIMENSION
  5
5CD9
330
28C7
100
AcDbEntity
  8
DIM
100
AcDbDimension
  2
*D51
 10
13.62832452507144
 20
11.88735649649168
 30
0.0
 11
13.62832452507144
 21
18.17935649649165
 31
0.0
 70
   160
 71
     5
 42
13.80399999999993
  3
23NSTD
100
AcDbAlignedDimension
 13
13.88032452507145
 23
25.69135649649162
 33
0.0
 14
13.88032452507145
 24
11.88735649649168
 34
0.0
 50
270.0
100
AcDbRotatedDimension
  0
DIMENSION
  5
5E9C
330
28C7
100
AcDbEntity
  8
DIM
100
AcDbDimension
  2
*D52
 10
16.64035603629655
 20
21.70230760825191
 30
0.0
 11
19.09660603629656
 21
21.70230760825191
 31
0.0
 70
   160
  1
<>\PTYP.
 71
     5
 42
0.1619999999999493
  3
23NSTD
100
AcDbAlignedDimension
 13
16.47835603629661
 23
21.45030760825191
 33
0.0
 14
16.64035603629655
 24
21.4503076082519
 34
0.0
100
AcDbRotatedDimension
  0
DIMENSION
  5
5F23
330
28C7
100
AcDbEntity
  8
DIM
100
AcDbDimension
  2
*D53
 10
21.30229163644098
 20
12.1148564964916
 30
0.0
 11
21.30229163644098
 21
15.45210649649162
 31
0.0
 70
    32
 71
     5
 42
6.674500000000033
  3
23NSTD
100
AcDbAlignedDimension
 13
16.26085603629656
 23
18.78935649649164
 33
0.0
 14
16.25035603629656
 24
12.1148564964916
 34
0.0
 50
270.0
100
AcDbRotatedDimension
  0
DIMENSION
  5
635D
330
28C7
100
AcDbEntity
  8
DIM
100
AcDbDimension
  2
*D54
 10
12.71785603629658
 20
10.62413876422847
 30
0.0
 11
10.75660603629658
 21
10.62413876422847
 31
0.0
 70
   160
 71
     5
 42
3.922499999999978
  3
23NSTD
100
AcDbAlignedDimension
 13
8.795356036296603
 23
12.10035649649167
 33
0.0
 14
12.71785603629658
 24
12.29335649649168
 34
0.0
100
AcDbRotatedDimension
  0
DIMENSION
  5
6472
330
28C7
100
AcDbEntity
  8
DIM
100
AcDbDimension
  2
*D55
 10
3.224453695803362
 20
18.78935649649165
 30
0.0
 11
3.224453695803359
 21
22.32135649649166
 31
0.0
 70
    32
 71
     5
 42
7.064000000000007
  3
23NSTDI
100
AcDbAlignedDimension
 13
9.170356036296588
 23
25.85335649649166
 33
0.0
 14
9.193356036296606
 24
18.78935649649165
 34
0.0
 50
90.0
100
AcDbRotatedDimension
  0
ARC
  5
673A
330
28C7
100
AcDbEntity
  8
OBJECT
100
AcDbCircle
 10
50.9475577285027
 20
11.78735649649173
 30
0.0
 40
0.0620000000000243
100
AcDbArc
 50
270.0
 51
359.9999999999983
  0
LINE
  5
673B
330
28C7
100
AcDbEntity
  8
OBJECT
100
AcDbLine
 10
51.00955772850273
 20
11.78735649649172
 30
0.0
 11
51.00955772850273
 21
25.79135649649169
 31
0.0
  0
ARC
  5
673C
330
28C7
100
AcDbEntity
  8
OBJECT
100
AcDbCircle
 10
50.94755772850271
 20
25.79135649649169
 30
0.0
 40
0.0620000000000189
100
AcDbArc
 50
0.0000000000032832
 51
90.00000000000655
  0
LINE
  5
673D
330
28C7
100
AcDbEntity
  8
OBJECT
100
AcDbLine
 10
50.9475577285027
 20
25.85335649649171
 30
0.0
 11
49.04155772850271
 21
25.85335649649171
 31
0.0
  0
LINE
  5
673E
330
28C7
100
AcDbEntity
  8
OBJECT
100
AcDbLine
 10
49.04155772850271
 20
25.85335649649171
 30
0.0
 11
49.04155772850271
 21
25.6733564964917
 31
0.0
  0
LINE
  5
673F
330
28C7
100
AcDbEntity
  8
OBJECT
100
AcDbLine
 10
51.00955772850277
 20
11.93985649649171
 30
0.0
 11
49.59955772850273
 21
11.93985649649171
 31
0.0
  0
LINE
  5
6743
330
28C7
100
AcDbEntity
  8
OBJECT
100
AcDbLine
 10
49.59955772850273
 20
12.28985649649172
 30
0.0
 11
51.00955772850273
 21
12.28985649649172
 31
0.0
  0
LINE
  5
6744
330
28C7
100
AcDbEntity
  8
OBJECT
100
AcDbLine
 10
49.59955772850273
 20
11.93985649649171
 30
0.0
 11
49.59955772850273
 21
12.28985649649172
 31
0.0
  0
LINE
  5
6745
330
28C7
100
AcDbEntity
  8
OBJECT
100
AcDbLine
 10
51.00955772850277
 20
19.01135615558205
 30
0.0
 11
49.59955772850273
 21
19.01135615558205
 31
0.0
  0
LINE
  5
6749
330
28C7
100
AcDbEntity
  8
OBJECT
100
AcDbLine
 10
49.59955772850273
 20
18.68335615558205
 30
0.0
 11
51.00955772850273
 21
18.68335615558205
 31
0.0
  0
LINE
  5
674A
330
28C7
100
AcDbEntity
  8
OBJECT
100
AcDbLine
 10
49.59955772850275
 20
18.68335615558205
 30
0.0
 11
49.59955772850274
 21
19.01135615558205
 31
0.0
  0
LWPOLYLINE
  5
6952
102
{ACAD_REACTORS
330
6A70
330
6AB0
102
}
330
28C7
100
AcDbEntity
  8
OBJECT
100
AcDbPolyline
 90
        3
 70
     0
 43
0.0
 10
52.07115711281613
 20
35.19077411499765
 10
52.07115711281613
 20
32.19077411499751
 10
59.6951571128161
 20
32.19077411499751
 42
0.4142135623730951
  0
LINE
  5
6954
102
{ACAD_REACTORS
330
6AB0
102
}
330
28C7
100
AcDbEntity
  8
OBJECT
100
AcDbLine
 10
51.84315711281612
 20
36.94296144167941
 30
0.0
 11
51.84315711281612
 21
32.91077411499764
 31
0.0
  0
LINE
  5
6955
102
{ACAD_REACTORS
330
6AB0
102
}
330
28C7
100
AcDbEntity
  8
OBJECT
100
AcDbLine
 10
59.9431571128162
 20
32.43877411499758
 30
0.0
 11
59.9431571128162
 21
36.94296144167941
 31
0.0
  0
LINE
  5
6956
102
{ACAD_REACTORS
330
6AB0
102
}
330
28C7
100
AcDbEntity
  8
OBJECT
100
AcDbLine
 10
53.9591571128161
 20
32.86277411499741
 30
0.0
 11
59.3831571128162
 21
32.86277411499741
 31
0.0
  0
LINE
  5
6957
102
{ACAD_REACTORS
330
6AB0
102
}
330
28C7
100
AcDbEntity
  8
OBJECT
100
AcDbLine
 10
54.30315711281622
 20
34.44877411499756
 30
0.0
 11
59.9431571128162
 21
34.44877411499756
 31
0.0
  0
LINE
  5
6958
102
{ACAD_REACTORS
330
6AB0
102
}
330
28C7
100
AcDbEntity
  8
OBJECT
100
AcDbLine
 10
59.94315711281637
 20
33.04877411499753
 30
0.0
 11
54.30315711281622
 21
33.04877411499753
 31
0.0
  0
LINE
  5
6959
102
{ACAD_REACTORS
330
6AB0
102
}
330
28C7
100
AcDbEntity
  8
OBJECT
100
AcDbLine
 10
52.07115711281613
 20
32.43077411499754
 30
0.0
 11
59.3831571128162
 21
32.43077411499754
 31
0.0
  0
LINE
  5
695A
102
{ACAD_REACTORS
330
6AB0
102
}
330
28C7
100
AcDbEntity
  8
OBJECT
100
AcDbLine
 10
53.9591571128161
 20
33.13677411499761
 30
0.0
 11
53.9591571128161
 21
32.86277411499741
 31
0.0
  0
LINE
  5
695B
102
{ACAD_REACTORS
330
6AB0
102
}
330
28C7
100
AcDbEntity
  8
OBJECT
100
AcDbLine
 10
54.30315711281622
 20
33.04877411499753
 30
0.0
 11
54.30315711281622
 21
34.44877411499756
 31
0.0
  0
LINE
  5
695C
330
28C7
100
AcDbEntity
  8
OBJECT
100
AcDbLine
 10
51.84315711281612
 20
32.91077411499764
 30
0.0
 11
52.07115711281613
 21
32.91077411499764
 31
0.0
  0
LINE
  5
695D
102
{ACAD_REACTORS
330
6AB0
102
}
330
28C7
100
AcDbEntity
  8
OBJECT
100
AcDbLine
 10
52.07115711281613
 20
33.13677411499764
 30
0.0
 11
53.9591571128161
 21
33.13677411499764
 31
0.0
  0
LINE
  5
695E
102
{ACAD_REACTORS
330
6AB0
102
}
330
28C7
100
AcDbEntity
  8
OBJECT
100
AcDbLine
 10
52.07115711281613
 20
34.09277411499757
 30
0.0
 11
54.30315711281622
 21
34.09277411499757
 31
0.0
  0
LINE
  5
695F
102
{ACAD_REACTORS
330
6AB0
102
}
330
28C7
100
AcDbEntity
  8
OBJECT
100
AcDbLine
 10
52.07115711281613
 20
33.40477411499758
 30
0.0
 11
54.30315711281622
 21
33.40477411499758
 31
0.0
  0
LINE
  5
6960
102
{ACAD_REACTORS
330
6AB0
102
}
330
28C7
100
AcDbEntity
  8
OBJECT
100
AcDbLine
 10
59.3831571128162
 20
32.43077411499754
 30
0.0
 11
59.3831571128162
 21
32.86277411499741
 31
0.0
  0
ARC
  5
6961
102
{ACAD_REACTORS
330
6AB0
102
}
330
28C7
100
AcDbEntity
  8
OBJECT
100
AcDbCircle
 10
59.69515711281609
 20
32.4387741149976
 30
0.0
 40
0.248000000000097
100
AcDbArc
 50
270.0
 51
359.9999999999983
  0
LINE
  5
6962
102
{ACAD_REACTORS
330
6AB0
102
}
330
28C7
100
AcDbEntity
  8
OBJECT
100
AcDbLine
 10
59.3831571128162
 20
35.39077411499763
 30
0.0
 11
59.38315711281623
 21
36.80320040720915
 31
0.0
  0
LINE
  5
6963
102
{ACAD_REACTORS
330
6AB0
102
}
330
28C7
100
AcDbEntity
  8
OBJECT
100
AcDbLine
 10
51.84315711281601
 20
35.39077411499763
 30
0.0
 11
59.3831571128162
 21
35.39077411499763
 31
0.0
  0
LWPOLYLINE
  5
6964
102
{ACAD_REACTORS
330
6A70
330
6AB0
102
}
330
28C7
100
AcDbEntity
  8
OBJECT
100
AcDbPolyline
 90
        4
 70
     0
 43
0.0
 10
52.07115711281613
 20
34.71077411499774
 10
52.77115711281607
 20
34.71077411499774
 10
52.77115711281607
 20
35.19077411499765
 10
51.84315711281612
 20
35.19077411499765
  0
SPLINE
  5
69E5
102
{ACAD_REACTORS
330
6AB0
102
}
330
28C7
100
AcDbEntity
  8
OBJECT
100
AcDbSpline
210
0.0
220
0.0
230
1.0
 70
     8
 71
     3
 72
    14
 73
    10
 74
     8
 42
0.0000000001
 43
0.0000000001
 44
0.0000000001
 40
0.0
 40
0.0
 40
0.0
 40
0.0
 40
1.298607099231429
 40
2.692001334575384
 40
4.159382649320846
 40
5.396707076312254
 40
6.772812695101293
 40
7.989928222418172
 40
8.6451192133872
 40
8.6451192133872
 40
8.6451192133872
 40
8.6451192133872
 10
51.84315711281612
 20
36.94296144167941
 30
0.0
 10
52.25616693514993
 20
37.16473994178876
 30
0.0
 10
53.11233274047577
 20
37.62448486281058
 30
0.0
 10
54.42962253789478
 20
36.51655747359288
 30
0.0
 10
55.76308017849204
 20
37.74989696184389
 30
0.0
 10
57.02176203017264
 20
36.41604049263729
 30
0.0
 10
58.23994936783072
 20
37.96073148870163
 30
0.0
 10
59.09643304526759
 20
36.61514896755369
 30
0.0
 10
59.72366491594435
 20
36.85798419482239
 30
0.0
 10
59.9431571128162
 20
36.94296144167941
 30
0.0
 11
51.84315711281612
 21
36.94296144167941
 31
0.0
 11
53.08134875784756
 21
37.33444815709718
 31
0.0
 11
54.4120823116277
 21
36.92129479098061
 31
0.0
 11
55.82444703532027
 21
37.31933223913456
 31
0.0
 11
56.9845686299399
 21
36.88911180339629
 31
0.0
 11
58.25081776084809
 21
37.42788802089016
 31
0.0
 11
59.30103769033107
 21
36.81273900922501
 31
0.0
 11
59.9431571128162
 21
36.94296144167941
 31
0.0
  0
HATCH
  5
6A70
330
28C7
100
AcDbEntity
  8
OBJECT
 62
   221
100
AcDbHatch
 10
0.0
 20
0.0
 30
0.0
210
0.0
220
0.0
230
1.0
  2
ZIGZAG
 70
     0
 71
     1
 91
        1
 92
        7
 72
     0
 73
     1
 93
        4
 10
52.77115711281607
 20
34.71077411499774
 10
52.77115711281608
 20
35.19077411499765
 10
52.07115711281613
 20
35.19077411499765
 10
52.07115711281614
 20
34.71077411499774
 97
        2
330
6964
330
6952
 75
     0
 76
     1
 52
0.0
 41
2.0
 77
     0
 78
     2
 53
0.0
 43
-2.229204403039489
 44
-14.16218765269633
 45
0.25
 46
0.25
 79
     2
 49
0.25
 49
-0.25
 53
90.0
 43
-1.979204403039489
 44
-14.16218765269633
 45
-0.25
 46
0.25
 79
     2
 49
0.25
 49
-0.25
 47
0.0484566246279175
 98
        1
 10
52.53693960499598
 20
34.94362132844104
  0
HATCH
  5
6AB0
330
28C7
100
AcDbEntity
  8
OBJECT
 62
   151
100
AcDbHatch
 10
0.0
 20
0.0
 30
0.0
210
0.0
220
0.0
230
1.0
  2
ANSI31
 70
     0
 71
     1
 91
        2
 92
        5
 93
       12
 72
     1
 10
51.84315711281612
 20
35.39077411499764
 11
51.84315711281612
 21
35.19077411499765
 72
     1
 10
51.84315711281612
 20
35.19077411499765
 11
52.77115711281607
 21
35.19077411499765
 72
     1
 10
52.77115711281607
 20
35.19077411499765
 11
52.77115711281606
 21
34.71077411499774
 72
     1
 10
52.77115711281606
 20
34.71077411499774
 11
52.07115711281613
 21
34.71077411499774
 72
     1
 10
52.07115711281613
 20
34.71077411499774
 11
52.07115711281613
 21
34.09277411499757
 72
     1
 10
52.07115711281613
 20
34.09277411499757
 11
54.30315711281622
 21
34.09277411499757
 72
     1
 10
54.30315711281622
 20
34.09277411499757
 11
54.30315711281622
 21
34.44877411499756
 72
     1
 10
54.30315711281622
 20
34.44877411499756
 11
59.94315711281621
 21
34.44877411499756
 72
     1
 10
59.94315711281621
 20
34.44877411499756
 11
59.9431571128162
 21
36.94296144167941
 72
     4
 94
        3
 73
     0
 74
     0
 95
        8
 96
        4
 40
8.07732053986226
 40
8.07732053986226
 40
8.07732053986226
 40
8.07732053986226
 40
8.645119213387202
 40
8.645119213387202
 40
8.645119213387202
 40
8.645119213387202
 10
59.9431571128162
 20
36.94296144167941
 10
59.75294177110555
 20
36.86931884171958
 10
59.5627264293949
 20
36.79567624175976
 10
59.38315711281627
 20
36.80320040720947
 72
     1
 10
59.38315711281623
 20
36.80320040720947
 11
59.38315711281619
 21
35.39077411499763
 72
     1
 10
59.38315711281619
 20
35.39077411499763
 11
51.84315711281612
 21
35.39077411499764
 97
       10
330
69E5
330
6962
330
6963
330
6954
330
6964
330
6952
330
695E
330
695B
330
6957
330
6955
 92
        7
 72
     1
 73
     1
 93
       13
 10
52.07115711281613
 20
32.43077411499754
 42
0.0
 10
52.07115711281614
 20
32.19077411499751
 42
0.0
 10
59.69515711281609
 20
32.19077411499751
 42
0.4142135623731035
 10
59.9431571128162
 20
32.4387741149976
 42
0.0
 10
59.94315711281621
 20
33.04877411499753
 42
0.0
 10
54.30315711281622
 20
33.04877411499753
 42
0.0
 10
54.30315711281622
 20
33.40477411499758
 42
0.0
 10
52.07115711281613
 20
33.40477411499758
 42
0.0
 10
52.07115711281613
 20
33.13677411499765
 42
0.0
 10
53.9591571128161
 20
33.13677411499764
 42
0.0
 10
53.9591571128161
 20
32.86277411499742
 42
0.0
 10
59.3831571128162
 20
32.86277411499741
 42
0.0
 10
59.3831571128162
 20
32.43077411499754
 42
0.0
 97
       11
330
6955
330
6958
330
695B
330
695F
330
6952
330
695D
330
695A
330
6956
330
6960
330
6959
330
6961
 75
     0
 76
     1
 52
0.0
 41
3.0
 77
     0
 78
     1
 53
45.0
 43
-2.229204403039489
 44
-14.16218765269633
 45
-0.2651650429449553
 46
0.2651650429449553
 79
     0
 47
0.0484566246279175
 98
        2
 10
55.78615817760343
 20
35.04053461585353
 10
58.25944407832295
 20
32.32696368372599
  0
HATCH
  5
6BA4
330
28C7
100
AcDbEntity
  8
OBJECT
 62
   221
100
AcDbHatch
 10
0.0
 20
0.0
 30
0.0
210
0.0
220
0.0
230
1.0
  2
ZIGZAG
 70
     0
 71
     0
 91
        2
 92
        1
 93
       36
 72
     1
 10
45.61244883536796
 20
18.31435649649167
 11
45.61244883536796
 21
12.58735649649169
 72
     2
 10
45.38044883536795
 20
12.58735649649169
 40
0.2319999999999993
 50
360.0
 51
450.0
 73
     0
 72
     1
 10
45.38044883536795
 20
12.35535649649169
 11
44.77244883536797
 21
12.35535649649169
 72
     2
 10
44.77244883536797
 20
12.15035649649168
 40
0.2050000000000107
 50
90.0
 51
179.9999999999994
 73
     1
 72
     1
 10
44.56744883536795
 20
12.15035649649168
 11
44.56744883536795
 21
12.01735649649169
 72
     2
 10
44.33544883536796
 20
12.01735649649169
 40
0.2319999999999993
 50
360.0
 51
450.0
 73
     0
 72
     1
 10
44.33544883536796
 20
11.78535649649169
 11
39.16444883536797
 21
11.78535649649169
 72
     2
 10
39.16444883536799
 20
12.01735649649168
 40
0.2319999999999851
 50
90.00000000000351
 51
180.0000000000035
 73
     0
 72
     1
 10
38.932448835368
 20
12.01735649649169
 11
38.932448835368
 21
12.15035649649168
 72
     2
 10
38.72744883536799
 20
12.15035649649168
 40
0.2050000000000125
 50
0.0000000000004965
 51
90.0
 73
     1
 72
     1
 10
38.72744883536799
 20
12.35535649649169
 11
38.119448835368
 21
12.35535649649169
 72
     2
 10
38.119448835368
 20
12.58735649649169
 40
0.2319999999999993
 50
90.0
 51
180.0
 73
     0
 72
     1
 10
37.887448835368
 20
12.58735649649169
 11
37.887448835368
 21
18.31435649649167
 72
     2
 10
38.119448835368
 20
18.31435649649167
 40
0.2319999999999993
 50
180.0
 51
270.0
 73
     0
 72
     1
 10
38.119448835368
 20
18.54635649649167
 11
38.22144883536799
 21
18.54635649649167
 72
     2
 10
38.22144883536799
 20
18.78935649649167
 40
0.2429999999999985
 50
270.0
 51
450.0
 73
     1
 72
     1
 10
38.22144883536799
 20
19.03235649649166
 11
38.119448835368
 21
19.03235649649166
 72
     2
 10
38.11944883536801
 20
19.26435649649167
 40
0.2320000000000029
 50
90.00000000000174
 51
180.0000000000017
 73
     0
 72
     1
 10
37.887448835368
 20
19.26435649649167
 11
37.887448835368
 21
24.99135649649165
 72
     2
 10
38.119448835368
 20
24.99135649649165
 40
0.2319999999999993
 50
180.0
 51
270.0
 73
     0
 72
     1
 10
38.119448835368
 20
25.22335649649166
 11
38.72744883536799
 21
25.22335649649166
 72
     2
 10
38.727448835368
 20
25.42835649649166
 40
0.2050000000000054
 50
269.999999999998
 51
359.999999999998
 73
     1
 72
     1
 10
38.932448835368
 20
25.42835649649165
 11
38.932448835368
 21
25.56135649649166
 72
     2
 10
39.16444883536799
 20
25.56135649649167
 40
0.2319999999999851
 50
179.9999999999964
 51
269.9999999999964
 73
     0
 72
     1
 10
39.16444883536797
 20
25.79335649649165
 11
44.33544883536796
 21
25.79335649649165
 72
     2
 10
44.33544883536796
 20
25.56135649649166
 40
0.2319999999999958
 50
270.0
 51
360.0
 73
     0
 72
     1
 10
44.56744883536795
 20
25.56135649649166
 11
44.56744883536795
 21
25.42835649649165
 72
     2
 10
44.77244883536796
 20
25.42835649649166
 40
0.2050000000000054
 50
180.000000000002
 51
270.000000000002
 73
     1
 72
     1
 10
44.77244883536797
 20
25.22335649649166
 11
45.38044883536795
 21
25.22335649649166
 72
     2
 10
45.38044883536795
 20
24.99135649649165
 40
0.2320000000000029
 50
270.0
 51
360.0
 73
     0
 72
     1
 10
45.61244883536796
 20
24.99135649649165
 11
45.61244883536796
 21
19.26435649649167
 72
     2
 10
45.38044883536795
 20
19.26435649649167
 40
0.2320000000000064
 50
359.9999999999983
 51
449.9999999999983
 73
     0
 72
     1
 10
45.38044883536795
 20
19.03235649649166
 11
45.27844883536796
 21
19.03235649649166
 72
     2
 10
45.27844883536796
 20
18.78935649649167
 40
0.2429999999999985
 50
90.0
 51
270.0
 73
     1
 72
     1
 10
45.27844883536796
 20
18.54635649649167
 11
45.38044883536795
 21
18.54635649649167
 72
     2
 10
45.38044883536795
 20
18.31435649649167
 40
0.2320000000000029
 50
270.0
 51
360.0
 73
     0
 97
        0
 92
       16
 93
       36
 72
     1
 10
45.49244883536796
 20
19.26435649649167
 11
45.49244883536796
 21
24.99135649649165
 72
     2
 10
45.38044883536795
 20
24.99135649649165
 40
0.112000000000009
 50
0.0
 51
90.0
 73
     1
 72
     1
 10
45.38044883536795
 20
25.10335649649166
 11
44.77244883536797
 21
25.10335649649166
 72
     2
 10
44.77244883536796
 20
25.42835649649166
 40
0.3249999999999993
 50
89.99999999999877
 51
179.9999999999993
 73
     0
 72
     1
 10
44.44744883536796
 20
25.42835649649165
 11
44.44744883536796
 21
25.56135649649166
 72
     2
 10
44.33544883536796
 20
25.56135649649165
 40
0.1120000000000019
 50
0.0000000000036349
 51
90.0000000000036
 73
     1
 72
     1
 10
44.33544883536796
 20
25.67335649649165
 11
39.16444883536797
 21
25.67335649649165
 72
     2
 10
39.16444883536798
 20
25.56135649649167
 40
0.1119999999999877
 50
90.0000000000036
 51
180.0000000000036
 73
     1
 72
     1
 10
39.05244883536799
 20
25.56135649649166
 11
39.05244883536799
 21
25.42835649649165
 72
     2
 10
38.727448835368
 20
25.42835649649166
 40
0.3249999999999957
 50
0.0000000000006107
 51
90.00000000000122
 73
     0
 72
     1
 10
38.72744883536799
 20
25.10335649649166
 11
38.119448835368
 21
25.10335649649166
 72
     2
 10
38.119448835368
 20
24.99135649649165
 40
0.1120000000000054
 50
90.0
 51
180.0
 73
     1
 72
     1
 10
38.00744883536799
 20
24.99135649649165
 11
38.00744883536799
 21
19.26435649649167
 72
     2
 10
38.11944883536801
 20
19.26435649649167
 40
0.1120000000000161
 50
179.9999999999963
 51
269.9999999999963
 73
     1
 72
     1
 10
38.119448835368
 20
19.15235649649165
 11
38.22144883536799
 21
19.15235649649165
 72
     2
 10
38.22144883536799
 20
18.78935649649165
 40
0.3629999999999995
 50
270.0
 51
450.0
 73
     0
 72
     1
 10
38.22144883536799
 20
18.42635649649166
 11
38.119448835368
 21
18.42635649649166
 72
     2
 10
38.11944883536799
 20
18.31435649649166
 40
0.1119999999999983
 50
89.99999999999637
 51
179.9999999999963
 73
     1
 72
     1
 10
38.00744883536799
 20
18.31435649649167
 11
38.00744883536799
 21
12.58735649649169
 72
     2
 10
38.119448835368
 20
12.58735649649169
 40
0.112000000000009
 50
180.0000000000009
 51
270.0
 73
     1
 72
     1
 10
38.119448835368
 20
12.47535649649168
 11
38.72744883536799
 21
12.47535649649168
 72
     2
 10
38.72744883536799
 20
12.15035649649168
 40
0.3250000000000028
 50
270.0
 51
360.0
 73
     0
 72
     1
 10
39.05244883536799
 20
12.15035649649168
 11
39.05244883536799
 21
12.01735649649169
 72
     2
 10
39.16444883536798
 20
12.01735649649168
 40
0.1119999999999877
 50
179.9999999999954
 51
269.9999999999963
 73
     1
 72
     1
 10
39.16444883536797
 20
11.90535649649169
 11
44.33544883536796
 21
11.90535649649169
 72
     2
 10
44.33544883536796
 20
12.0173564964917
 40
0.1120000000000036
 50
269.9999999999963
 51
359.9999999999972
 73
     1
 72
     1
 10
44.44744883536796
 20
12.01735649649169
 11
44.44744883536796
 21
12.15035649649168
 72
     2
 10
44.77244883536797
 20
12.15035649649168
 40
0.3250000000000028
 50
180.0
 51
270.0
 73
     0
 72
     1
 10
44.77244883536797
 20
12.47535649649168
 11
45.38044883536795
 21
12.47535649649168
 72
     2
 10
45.38044883536795
 20
12.58735649649169
 40
0.1120000000000072
 50
270.0
 51
359.999999999999
 73
     1
 72
     1
 10
45.49244883536796
 20
12.58735649649169
 11
45.49244883536796
 21
18.31435649649167
 72
     2
 10
45.38044883536796
 20
18.31435649649166
 40
0.1120000000000019
 50
0.0000000000036349
 51
90.0000000000036
 73
     1
 72
     1
 10
45.38044883536795
 20
18.42635649649166
 11
45.27844883536796
 21
18.42635649649166
 72
     2
 10
45.27844883536796
 20
18.78935649649165
 40
0.3629999999999995
 50
90.0
 51
270.0
 73
     0
 72
     1
 10
45.27844883536796
 20
19.15235649649165
 11
45.38044883536795
 21
19.15235649649165
 72
     2
 10
45.38044883536795
 20
19.26435649649167
 40
0.1120000000000125
 50
270.0000000000036
 51
360.0000000000036
 73
     1
 97
        0
 75
     0
 76
     1
 52
0.0
 41
0.5
 77
     0
 78
     2
 53
0.0
 43
-1.94153489747191
 44
0.9341039925103444
 45
0.0625
 46
0.0625
 79
     2
 49
0.0625
 49
-0.0625
 53
90.0
 43
-1.87903489747191
 44
0.9341039925103444
 45
-0.0625
 46
0.0625
 79
     2
 49
0.0625
 49
-0.0625
 98
        1
 10
-1.94153489747191
 20
0.9341039925103444
  0
HATCH
  5
6BB0
330
28C7
100
AcDbEntity
  8
OBJECT
 62
   221
100
AcDbHatch
 10
0.0
 20
0.0
 30
0.0
210
0.0
220
0.0
230
1.0
  2
ANSI32
 70
     0
 71
     0
 91
        2
 92
        7
 72
     0
 73
     1
 93
        4
 10
26.23334394604249
 20
25.3978564964917
 10
25.91834394604251
 20
25.3978564964917
 10
25.91834394604251
 20
25.3388564964917
 10
26.23334394604251
 20
25.33885649649169
 97
        0
 92
        7
 72
     0
 73
     1
 93
        4
 10
26.23334394604247
 20
25.5888564964917
 10
25.91834394604251
 20
25.5888564964917
 10
25.91834394604251
 20
25.5298564964917
 10
26.23334394604248
 20
25.5298564964917
 97
        0
 75
     0
 76
     1
 52
89.99998127603165
 41
0.5
 77
     0
 78
     2
 53
134.9999812760316
 43
-1.94153489747191
 44
0.9341039925103444
 45
-0.132582564799762
 46
-0.1325824781451792
 79
     0
 53
134.9999812760316
 43
-1.941534868587049
 44
1.022492340010339
 45
-0.132582564799762
 46
-0.1325824781451792
 79
     0
 47
0.0047879203712979
 98
        2
 10
26.0980819335509
 20
25.36723227496402
 10
26.07891475166218
 20
25.56353708461725
  0
HATCH
  5
6C1B
330
28C7
100
AcDbEntity
  8
OBJECT
 62
   151
100
AcDbHatch
 10
0.0
 20
0.0
 30
0.0
210
0.0
220
0.0
230
1.0
  2
ANSI31
 70
     0
 71
     0
 91
        3
 92
        7
 72
     1
 73
     1
 93
        8
 10
29.79334394604252
 20
25.8533564964917
 42
0.0
 10
25.95834394604251
 20
25.8533564964917
 42
0.0
 10
25.95834394604251
 20
25.8333564964917
 42
0.0
 10
25.91834394604251
 20
25.8333564964917
 42
0.0
 10
25.91834394604251
 20
25.5888564964917
 42
0.0
 10
26.23334394604247
 20
25.5888564964917
 42
0.0
 10
26.23334394604245
 20
25.78335649649168
 42
0.0
 10
29.85482565063827
 20
25.78335649649168
 42
0.4526401856438295
 97
        0
 92
        7
 72
     0
 73
     1
 93
       56
 10
29.8553439460425
 20
25.23635649649167
 10
26.23334394604252
 20
25.23635649649167
 10
26.23334394604251
 20
25.3388564964917
 10
25.91834394604251
 20
25.3388564964917
 10
25.91834394604251
 20
25.18435649649167
 10
25.8463439460425
 20
25.18435649649167
 10
25.8463439460425
 20
25.12435649649172
 10
29.71534394604251
 20
25.12435649649172
 10
29.71534394604251
 20
24.79585649649168
 10
29.76034394604251
 20
24.79585649649167
 10
29.76034394604251
 20
24.60585649649168
 10
29.71534394604251
 20
24.60585649649168
 10
29.71534394604251
 20
23.80435649649169
 10
29.76034394604251
 20
23.8043564964917
 10
29.76034394604251
 20
23.6143564964917
 10
29.71534394604251
 20
23.61435649649171
 10
29.71534394604251
 20
22.2293564964917
 10
29.76034394604251
 20
22.22935649649171
 10
29.76034394604251
 20
22.0393564964917
 10
29.71534394604251
 20
22.0393564964917
 10
29.71534394604251
 20
20.6543564964917
 10
29.76034394604251
 20
20.6543564964917
 10
29.76034394604251
 20
20.4643564964917
 10
29.71534394604251
 20
20.4643564964917
 10
29.71534394604251
 20
18.88435649649168
 10
29.76034394604251
 20
18.88435649649167
 10
29.76034394604251
 20
18.69435649649167
 10
29.71534394604251
 20
18.69435649649167
 10
29.71534394604251
 20
17.21435649649169
 10
29.32534394604251
 20
17.21435649649169
 10
29.32534394604251
 20
17.11435649649168
 10
29.76034394604251
 20
17.1143564964917
 10
29.76034394604251
 20
16.92435649649169
 10
29.32534394604253
 20
16.92435649649167
 10
29.32534394604254
 20
16.82435649649169
 10
29.71534394604251
 20
16.82435649649169
 10
29.71534394604251
 20
15.53935649649169
 10
29.7603439460425
 20
15.53935649649169
 10
29.76034394604251
 20
15.34935649649169
 10
29.71534394604252
 20
15.34935649649169
 10
29.71534394604252
 20
13.96435649649167
 10
29.76034394604251
 20
13.96435649649167
 10
29.7603439460425
 20
13.77435649649168
 10
29.71534394604251
 20
13.77435649649168
 10
29.71534394604252
 20
12.9728564964917
 10
29.76034394604251
 20
12.9728564964917
 10
29.76034394604252
 20
12.78285649649171
 10
29.71534394604252
 20
12.78285649649171
 10
29.71534394604251
 20
12.45435649649168
 10
25.8463439460425
 20
12.45435649649168
 10
25.8463439460425
 20
12.39435649649168
 10
25.91834394604251
 20
12.39435649649168
 10
25.9183439460425
 20
12.35435649649169
 10
29.54134394604251
 20
12.35435649649169
 10
29.54134394604251
 20
12.24085649649169
 10
29.85534394604252
 20
12.24085649649169
 97
        0
 92
        7
 72
     1
 73
     1
 93
        9
 10
29.85534394604251
 20
11.78735649649158
 42
0.0
 10
29.85534394604251
 20
11.98885649649169
 42
0.0
 10
29.54134394604251
 20
11.98885649649169
 42
0.0
 10
29.54134394604251
 20
11.80535649649168
 42
0.0
 10
25.91834394604251
 20
11.8053564964917
 42
0.0
 10
25.91834394604251
 20
11.74535649649169
 42
0.0
 10
25.95834394604251
 20
11.74535649649169
 42
0.0
 10
25.95834394604251
 20
11.7253564964917
 42
0.0
 10
29.79334394604252
 20
11.7253564964917
 42
0.4142135623725916
 97
        0
 75
     0
 76
     1
 52
0.0
 41
1.25
 77
     0
 78
     1
 53
45.0
 43
-1.94153489747191
 44
0.9341039925103444
 45
-0.110485434560398
 46
0.110485434560398
 79
     0
 47
0.0280025790604501
 98
        3
 10
26.37449866525466
 20
25.81589476901237
 10
26.65475076500467
 20
25.17183537233268
 10
29.14899537837101
 20
11.78660250958041
  0
HATCH
  5
6C75
330
28C7
100
AcDbEntity
  8
OBJECT
 62
   151
100
AcDbHatch
 10
0.0
 20
0.0
 30
0.0
210
0.0
220
0.0
230
1.0
  2
ANSI31
 70
     0
 71
     0
 91
        4
 92
        7
 72
     1
 73
     1
 93
       19
 10
51.00955772850273
 20
25.79135649649169
 42
0.4142135623730782
 10
50.94755772850271
 20
25.85335649649171
 42
0.0
 10
49.04155772850271
 20
25.85335649649171
 42
0.0
 10
49.04155772850271
 20
25.79335649649169
 42
0.0
 10
49.2165577285027
 20
25.79335649649169
 42
0.0
 10
49.21655772850269
 20
25.67335649649169
 42
0.0
 10
48.98455772850269
 20
25.6733564964917
 42
0.0
 10
48.98455772850269
 20
25.6233564964917
 42
0.0
 10
50.86955772850273
 20
25.62335649649169
 42
0.0
 10
50.86955772850273
 20
19.26035615558206
 42
0.0
 10
48.9845577285027
 20
19.26035615558206
 42
0.0
 10
48.9845577285027
 20
19.21035615558205
 42
0.0
 10
49.21655772850268
 20
19.21035615558205
 42
0.0
 10
49.21655772850268
 20
19.09035615558205
 42
0.0
 10
49.04155772850271
 20
19.09035615558205
 42
0.0
 10
49.04155772850271
 20
18.93335615558205
 42
0.0
 10
49.59955772850274
 20
18.93335615558205
 42
0.0
 10
49.59955772850275
 20
19.01135615558205
 42
0.0
 10
51.00955772850272
 20
19.01135615558205
 42
0.0
 97
        0
 92
        7
 72
     1
 73
     1
 93
       12
 10
51.00955772850273
 20
18.68335615558205
 42
0.0
 10
49.59955772850274
 20
18.68335615558205
 42
0.0
 10
49.59955772850274
 20
18.76135615558205
 42
0.0
 10
49.04155772850271
 20
18.76135615558205
 42
0.0
 10
49.0415577285027
 20
18.60435615558206
 42
0.0
 10
49.21655772850268
 20
18.60435615558206
 42
0.0
 10
49.21655772850269
 20
18.48435615558206
 42
0.0
 10
48.98455772850269
 20
18.48435615558206
 42
0.0
 10
48.98455772850269
 20
18.43435615558205
 42
0.0
 10
50.86955772850272
 20
18.43435615558204
 42
0.0
 10
50.86955772850273
 20
13.40266841117039
 42
-0.037191623563771
 10
51.00955772850273
 20
13.25707631582596
 42
0.0
 97
        0
 92
        7
 72
     1
 73
     1
 93
       12
 10
51.00955772850273
 20
13.25707631582595
 42
0.0371916235637729
 10
50.86955772850273
 20
13.40266841117039
 42
0.0
 10
50.86955772850272
 20
12.52535649649173
 42
0.0
 10
48.98455772850271
 20
12.52535649649173
 42
0.0
 10
48.98455772850271
 20
12.47535649649173
 42
0.0
 10
49.2165577285027
 20
12.47535649649173
 42
0.0
 10
49.21655772850269
 20
12.35535649649176
 42
0.0
 10
49.0415577285027
 20
12.35535649649176
 42
0.0
 10
49.0415577285027
 20
12.20085649649172
 42
0.0
 10
49.59955772850273
 20
12.20085649649172
 42
0.0
 10
49.59955772850273
 20
12.28985649649172
 42
0.0
 10
51.00955772850273
 20
12.28985649649172
 42
0.0
 97
        0
 92
        7
 72
     1
 73
     1
 93
       13
 10
51.00955772850274
 20
11.93985649649171
 42
0.0
 10
49.59955772850272
 20
11.93985649649171
 42
0.0
 10
49.59955772850271
 20
12.02885649649172
 42
0.0
 10
49.04155772850271
 20
12.02885649649172
 42
0.0
 10
49.0415577285027
 20
11.96185649649174
 42
0.0
 10
49.5135577285027
 20
11.96185649649174
 42
0.0
 10
49.5135577285027
 20
11.89335649649168
 42
0.0
 10
50.86955772850273
 20
11.89335649649168
 42
0.0
 10
50.86955772850274
 20
11.78535649649171
 42
0.0
 10
49.04155772850271
 20
11.78535649649171
 42
0.0
 10
49.04155772850271
 20
11.7253564964917
 42
0.0
 10
50.9475577285027
 20
11.7253564964917
 42
0.4142135623731034
 10
51.00955772850273
 20
11.78735649649173
 42
0.0
 97
        0
 75
     0
 76
     1
 52
0.0
 41
1.25
 77
     0
 78
     1
 53
45.0
 43
-1.94153489747191
 44
0.9341039925103444
 45
-0.110485434560398
 46
0.110485434560398
 79
     0
 47
0.012905004008279
 98
        4
 10
49.96802587635809
 20
25.71526273055418
 10
50.23932147317154
 20
18.55884307013535
 10
50.13080335517546
 20
12.37829885192928
 10
49.96797939558487
 20
11.90587531104941
  0
HATCH
  5
6C7A
330
28C7
100
AcDbEntity
  8
OBJECT
 62
   221
100
AcDbHatch
 10
0.0
 20
0.0
 30
0.0
210
0.0
220
0.0
230
1.0
  2
ZIGZAG
 70
     0
 71
     1
 91
        1
 92
        7
 72
     0
 73
     1
 93
        4
 10
49.04155772850271
 20
12.47535649649173
 10
49.04155772850271
 20
12.35535649649177
 10
49.21655772850268
 20
12.35535649649176
 10
49.21655772850269
 20
12.47535649649173
 97
        2
330
3C9D
330
3E5E
 75
     0
 76
     1
 52
0.0
 41
0.5
 77
     0
 78
     2
 53
0.0
 43
-1.94153489747191
 44
0.9341039925103444
 45
0.0625
 46
0.0625
 79
     2
 49
0.0625
 49
-0.0625
 53
90.0
 43
-1.87903489747191
 44
0.9341039925103444
 45
-0.0625
 46
0.0625
 79
     2
 49
0.0625
 49
-0.0625
 47
0.003312638700438
 98
        1
 10
49.16754023733947
 20
12.42796509247065
  0
HATCH
  5
6C7B
330
28C7
100
AcDbEntity
  8
OBJECT
 62
   221
100
AcDbHatch
 10
0.0
 20
0.0
 30
0.0
210
0.0
220
0.0
230
1.0
  2
ZIGZAG
 70
     0
 71
     0
 91
        1
 92
        7
 72
     0
 73
     1
 93
        4
 10
49.04155772850271
 20
18.60435615558204
 10
49.0415577285027
 20
18.48435615558206
 10
49.21655772850268
 20
18.48435615558206
 10
49.21655772850269
 20
18.60435615558203
 97
        0
 75
     0
 76
     1
 52
0.0
 41
0.5
 77
     0
 78
     2
 53
0.0
 43
-1.94153489747191
 44
7.063103651600641
 45
0.0625
 46
0.0625
 79
     2
 49
0.0625
 49
-0.0625
 53
90.0
 43
-1.87903489747191
 44
7.063103651600641
 45
-0.0625
 46
0.0625
 79
     2
 49
0.0625
 49
-0.0625
 47
0.003312638700438
 98
        1
 10
49.16754023733947
 20
18.55696475156095
  0
HATCH
  5
6C7C
330
28C7
100
AcDbEntity
  8
OBJECT
 62
   221
100
AcDbHatch
 10
0.0
 20
0.0
 30
0.0
210
0.0
220
0.0
230
1.0
  2
ZIGZAG
 70
     0
 71
     0
 91
        1
 92
        7
 72
     0
 73
     1
 93
        4
 10
49.04155772850271
 20
19.21035615558202
 10
49.0415577285027
 20
19.09035615558205
 10
49.21655772850268
 20
19.09035615558205
 10
49.21655772850269
 20
19.21035615558202
 97
        0
 75
     0
 76
     1
 52
0.0
 41
0.5
 77
     0
 78
     2
 53
0.0
 43
-1.94153489747191
 44
7.669103651600632
 45
0.0625
 46
0.0625
 79
     2
 49
0.0625
 49
-0.0625
 53
90.0
 43
-1.87903489747191
 44
7.669103651600632
 45
-0.0625
 46
0.0625
 79
     2
 49
0.0625
 49
-0.0625
 47
0.003312638700438
 98
        1
 10
49.16754023733947
 20
19.16296475156094
  0
HATCH
  5
6C7D
330
28C7
100
AcDbEntity
  8
OBJECT
 62
   221
100
AcDbHatch
 10
0.0
 20
0.0
 30
0.0
210
0.0
220
0.0
230
1.0
  2
ZIGZAG
 70
     0
 71
     0
 91
        1
 92
        7
 72
     0
 73
     1
 93
        4
 10
49.04155772850271
 20
25.79335649649167
 10
49.0415577285027
 20
25.67335649649169
 10
49.21655772850268
 20
25.67335649649169
 10
49.21655772850269
 20
25.79335649649167
 97
        0
 75
     0
 76
     1
 52
0.0
 41
0.5
 77
     0
 78
     2
 53
0.0
 43
-1.94153489747191
 44
14.25210399251027
 45
0.0625
 46
0.0625
 79
     2
 49
0.0625
 49
-0.0625
 53
90.0
 43
-1.87903489747191
 44
14.25210399251027
 45
-0.0625
 46
0.0625
 79
     2
 49
0.0625
 49
-0.0625
 47
0.003312638700438
 98
        1
 10
49.16754023733947
 20
25.74596509247059
  0
LEADER
  5
713A
330
28C7
100
AcDbEntity
  8
DIM
100
AcDbLeader
  3
23NSTD
 73
     0
 75
     1
 40
1.333333333333333
 41
5.25
 76
     3
 10
52.07115711281613
 20
35.08781234730367
 30
0.0
 10
49.8924877464806
 20
37.80684583886456
 30
0.0
 10
49.1724877464806
 20
37.80684583886456
 30
0.0
340
713B
213
0.0
223
-0.25
233
0.0
1001
ACAD
1000
DSTYLE
1002
{
1070
   147
1040
0.09
1070
    77
1070
     0
1002
}
  0
MTEXT
  5
713B
102
{ACAD_REACTORS
330
713A
102
}
330
28C7
100
AcDbEntity
  8
DIM
100
AcDbMText
 10
48.8124877464806
 20
38.05684583886456
 30
0.0
 40
0.5
 41
0.0
 71
     3
 72
     1
  1
\A1;SILICONE GASKET\P(CLEAR)
 73
     1
 44
1.0
  0
LEADER
  5
713C
330
28C7
100
AcDbEntity
  8
DIM
100
AcDbLeader
  3
23NSTD
 73
     0
 74
     0
 75
     1
 40
2.166666666666666
 41
5.375
 76
     3
 10
16.3211698726279
 20
12.05303901850974
 30
0.0
 10
17.95188258630183
 20
10.52926377075188
 30
0.0
 10
18.67188258630183
 20
10.52926377075188
 30
0.0
340
713D
213
0.0
223
-0.25
233
0.0
1001
ACAD
1000
DSTYLE
1002
{
1070
   147
1040
0.09
1070
    77
1070
     0
1002
}
  0
MTEXT
  5
713D
102
{ACAD_REACTORS
330
713C
102
}
330
28C7
100
AcDbEntity
  8
DIM
100
AcDbMText
 10
19.03188258630183
 20
10.77926377075188
 30
0.0
 40
0.5
 41
0.0
 71
     1
 72
     1
  1
\A1;M4 x 0.315 LG.\PTHREADED INSERT\P(6) PLACES
 73
     1
 44
1.0
  0
LEADER
  5
713E
330
28C7
100
AcDbEntity
  8
DIM
100
AcDbLeader
  3
23NSTD
 73
     0
 74
     0
 75
     1
 40
1.333333333333333
 41
3.0
 76
     3
 10
15.86228446570407
 20
25.55827946597791
 30
0.0
 10
17.74357753115522
 20
29.51479530454708
 30
0.0
 10
18.46357753115522
 20
29.51479530454708
 30
0.0
340
713F
213
0.0
223
-0.25
233
0.0
1001
ACAD
1000
DSTYLE
1002
{
1070
   147
1040
0.09
1070
    77
1070
     0
1002
}
  0
MTEXT
  5
713F
102
{ACAD_REACTORS
330
713E
102
}
330
28C7
100
AcDbEntity
  8
DIM
100
AcDbMText
 10
18.82357753115522
 20
29.76479530454708
 30
0.0
 40
0.5
 41
0.0
 71
     1
 72
     1
  1
\A1;0.252 DIA.\P(4) HOLES
 73
     1
 44
1.0
  0
LEADER
  5
73D7
330
28C7
100
AcDbEntity
  8
DIM
100
AcDbLeader
  3
23NSTD
 73
     0
 74
     0
 75
     1
 40
0.5000000000000001
 41
4.75
 76
     3
 10
50.95640581455157
 20
11.46265799596734
 30
0.0
 10
52.3093359415754
 20
10.1666599426847
 30
0.0
 10
53.0293359415754
 20
10.1666599426847
 30
0.0
340
73D8
213
0.0
223
-0.25
233
0.0
1001
ACAD
1000
DSTYLE
1002
{
1070
   147
1040
0.09
1070
    77
1070
     0
1002
}
  0
MTEXT
  5
73D8
102
{ACAD_REACTORS
330
73D7
102
}
330
28C7
100
AcDbEntity
  8
DIM
100
AcDbMText
 10
53.38933594157539
 20
10.4166599426847
 30
0.0
 40
0.5
 41
0.0
 71
     1
 72
     1
  1
\A1;SEE DETAIL "C"
 73
     1
 44
1.0
  0
LEADER
  5
73DB
330
28C7
100
AcDbEntity
  8
DIM
100
AcDbLeader
  3
23NSTD
 73
     0
 74
     0
 75
     1
 40
5.499999999999999
 41
9.5
 76
     3
 10
12.89026929983906
 20
12.21525947922638
 30
0.0
 10
17.48436310099795
 20
7.516640272068315
 30
0.0
 10
18.20436310099795
 20
7.516640272068315
 30
0.0
340
73DC
213
0.0
223
-0.25
233
0.0
1001
ACAD
1000
DSTYLE
1002
{
1070
   147
1040
0.09
1070
    77
1070
     0
1002
}
  0
MTEXT
  5
73DC
102
{ACAD_REACTORS
330
73DB
102
}
330
28C7
100
AcDbEntity
  8
DIM
100
AcDbMText
 10
18.56436310099795
 20
7.766640272068315
 30
0.0
 40
0.5
 41
0.0
 71
     1
 72
     1
  1
\A1;0.390 DIA. BOSS WITH\P0.190 DIA. HOLE x 0.435 DEEP\P(25) PLACES\PMOUNTING BOSSES USE EITHER\PM5 METRIC OR #12 STD. SHEET\PMETAL SCREWS x 0.312 LG.\P(NOT SUPPLIED)
 73
     1
 44
1.0
  0
LINE
  5
73E2
330
28C7
100
AcDbEntity
  8
HIDDEN
100
AcDbLine
 10
45.10794883536797
 20
30.72798331256216
 30
0.0
 11
45.10794883536797
 21
32.13798331256216
 31
0.0
  0
LINE
  5
73E3
330
28C7
100
AcDbEntity
  8
HIDDEN
100
AcDbLine
 10
45.45794883536798
 20
32.1379833125622
 30
0.0
 11
45.45794883536798
 21
30.72798331256216
 31
0.0
  0
LINE
  5
73E4
330
28C7
100
AcDbEntity
  8
HIDDEN
100
AcDbLine
 10
45.504448835368
 20
30.64198331256214
 30
0.0
 11
45.504448835368
 21
31.99798331256216
 31
0.0
  0
LINE
  5
73E8
330
28C7
100
AcDbEntity
  8
HIDDEN
100
AcDbLine
 10
45.43594883536795
 20
30.16998331256214
 30
0.0
 11
45.43594883536795
 21
30.64198331256214
 31
0.0
  0
LINE
  5
73E9
330
28C7
100
AcDbEntity
  8
HIDDEN
100
AcDbLine
 10
45.36894883536796
 20
30.16998331256214
 30
0.0
 11
45.36894883536796
 21
30.72798331256216
 31
0.0
  0
LINE
  5
73EA
330
28C7
100
AcDbEntity
  8
HIDDEN
100
AcDbLine
 10
45.19694883536796
 20
30.16998331256214
 30
0.0
 11
45.19694883536796
 21
30.72798331256216
 31
0.0
  0
LINE
  5
73EE
330
28C7
100
AcDbEntity
  8
HIDDEN
100
AcDbLine
 10
45.45794883536798
 20
30.72798331256216
 30
0.0
 11
45.10794883536797
 21
30.72798331256216
 31
0.0
  0
LINE
  5
73EF
330
28C7
100
AcDbEntity
  8
HIDDEN
100
AcDbLine
 10
45.43594883536796
 20
30.64198331256214
 30
0.0
 11
45.504448835368
 21
30.64198331256214
 31
0.0
  0
LINE
  5
73FD
330
28C7
100
AcDbEntity
  8
HIDDEN
100
AcDbLine
 10
45.129948835368
 20
30.16998331256214
 30
0.0
 11
45.129948835368
 21
30.64198331256214
 31
0.0
  0
LINE
  5
73FE
330
28C7
100
AcDbEntity
  8
HIDDEN
100
AcDbLine
 10
45.12994883536799
 20
30.64198331256214
 30
0.0
 11
45.06144883536793
 21
30.64198331256214
 31
0.0
  0
LINE
  5
73FF
330
28C7
100
AcDbEntity
  8
HIDDEN
100
AcDbLine
 10
45.06144883536793
 20
30.64198331256214
 30
0.0
 11
45.06144883536793
 21
31.99798331256216
 31
0.0
  0
LINE
  5
7401
330
28C7
100
AcDbEntity
  8
HIDDEN
100
AcDbLine
 10
38.43844883536805
 20
30.64198331256214
 30
0.0
 11
38.43844883536805
 21
31.99798331256216
 31
0.0
  0
LINE
  5
7402
330
28C7
100
AcDbEntity
  8
HIDDEN
100
AcDbLine
 10
37.99544883536798
 20
30.64198331256214
 30
0.0
 11
37.99544883536798
 21
31.99798331256216
 31
0.0
  0
LINE
  5
7403
330
28C7
100
AcDbEntity
  8
HIDDEN
100
AcDbLine
 10
38.04194883536801
 20
32.1379833125622
 30
0.0
 11
38.04194883536801
 21
30.72798331256216
 31
0.0
  0
LINE
  5
7404
330
28C7
100
AcDbEntity
  8
HIDDEN
100
AcDbLine
 10
38.39194883536801
 20
30.72798331256216
 30
0.0
 11
38.39194883536801
 21
32.13798331256216
 31
0.0
  0
LINE
  5
7405
330
28C7
100
AcDbEntity
  8
HIDDEN
100
AcDbLine
 10
38.36994883536799
 20
30.64198331256214
 30
0.0
 11
38.43844883536805
 21
30.64198331256214
 31
0.0
  0
LINE
  5
7406
330
28C7
100
AcDbEntity
  8
HIDDEN
100
AcDbLine
 10
38.36994883536799
 20
30.16998331256214
 30
0.0
 11
38.36994883536799
 21
30.64198331256214
 31
0.0
  0
LINE
  5
7407
330
28C7
100
AcDbEntity
  8
HIDDEN
100
AcDbLine
 10
38.06394883536803
 20
30.64198331256214
 30
0.0
 11
37.99544883536798
 21
30.64198331256214
 31
0.0
  0
LINE
  5
7408
330
28C7
100
AcDbEntity
  8
HIDDEN
100
AcDbLine
 10
38.04194883536801
 20
30.72798331256216
 30
0.0
 11
38.39194883536801
 21
30.72798331256216
 31
0.0
  0
LINE
  5
7409
330
28C7
100
AcDbEntity
  8
HIDDEN
100
AcDbLine
 10
38.30294883536802
 20
30.16998331256214
 30
0.0
 11
38.30294883536802
 21
30.72798331256216
 31
0.0
  0
LINE
  5
740A
330
28C7
100
AcDbEntity
  8
HIDDEN
100
AcDbLine
 10
38.13094883536802
 20
30.16998331256214
 30
0.0
 11
38.13094883536802
 21
30.72798331256216
 31
0.0
  0
LINE
  5
740B
330
28C7
100
AcDbEntity
  8
HIDDEN
100
AcDbLine
 10
38.06394883536803
 20
30.16998331256214
 30
0.0
 11
38.06394883536803
 21
30.64198331256214
 31
0.0
  0
ENDSEC
  0
SECTION
  2
OBJECTS
  0
DICTIONARY
  5
28B5
330
0
100
AcDbDictionary
281
     1
  3
ACAD_GROUP
350
28B6
  3
ACAD_LAYOUT
350
28C2
  3
ACAD_MLINESTYLE
350
28BF
  3
ACAD_PLOTSETTINGS
350
28C1
  3
ACAD_PLOTSTYLENAME
350
28B7
  3
AcadDim
350
73DA
  3
AcDbVariableDictionary
350
6A43
  0
DICTIONARY
  5
28B6
102
{ACAD_REACTORS
330
28B5
102
}
330
28B5
100
AcDbDictionary
281
     1
  0
DICTIONARY
  5
28C2
102
{ACAD_REACTORS
330
28B5
102
}
330
28B5
100
AcDbDictionary
281
     1
  3
Layout1
350
28C6
  3
Model
350
28CA
  0
DICTIONARY
  5
28BF
102
{ACAD_REACTORS
330
28B5
102
}
330
28B5
100
AcDbDictionary
281
     1
  3
Standard
350
28C0
  0
DICTIONARY
  5
28C1
102
{ACAD_REACTORS
330
28B5
102
}
330
28B5
100
AcDbDictionary
281
     1
  0
ACDBDICTIONARYWDFLT
  5
28B7
102
{ACAD_REACTORS
330
28B5
102
}
330
28B5
100
AcDbDictionary
281
     1
  3
Normal
350
28B8
100
AcDbDictionaryWithDefault
340
28B8
  0
XRECORD
  5
73DA
102
{ACAD_REACTORS
330
28B5
102
}
330
28B5
100
AcDbXrecord
280
     1
 90
   990106
  3

 60
     0
 61
     0
 62
     1
 63
     1
 64
     0
 65
     0
 66
     0
 67
     3
 68
     1
 69
     0
 70
     0
 71
     0
 72
     0
 40
0.0
170
     2
340
73DC
  0
DICTIONARY
  5
6A43
102
{ACAD_REACTORS
330
28B5
102
}
330
28B5
100
AcDbDictionary
281
     1
  3
SORTENTS
350
6A44
  0
LAYOUT
  5
28C6
102
{ACAD_REACTORS
330
28C2
102
}
330
28C2
100
AcDbPlotSettings
  1

  2
C:\Program Files\ACAD2000\plotters\RICOH Aficio 1060 RPCS.pc3
  4

  6

 40
0.0
 41
0.0
 42
0.0
 43
0.0
 44
0.0
 45
0.0
 46
0.0
 47
0.0
 48
0.0
 49
0.0
140
0.0
141
0.0
142
1.0
143
1.0
 70
   688
 72
     0
 73
     0
 74
     5
  7
monochrome.ctb
 75
    16
147
1.0
148
0.0
149
0.0
100
AcDbLayout
  1
Layout1
 70
     1
 71
     1
 10
0.0
 20
0.0
 11
12.0
 21
9.0
 12
0.0
 22
0.0
 32
0.0
 14
1.000000000000000E+20
 24
1.000000000000000E+20
 34
1.000000000000000E+20
 15
-1.000000000000000E+20
 25
-1.000000000000000E+20
 35
-1.000000000000000E+20
146
0.0
 13
0.0
 23
0.0
 33
0.0
 16
1.0
 26
0.0
 36
0.0
 17
0.0
 27
1.0
 37
0.0
 76
     0
330
28C3
  0
LAYOUT
  5
28CA
102
{ACAD_REACTORS
330
28C2
102
}
330
28C2
100
AcDbPlotSettings
  1

  2
Acrobat PDFWriter
  4
Tabloid
  6

 40
3.174999952316284
 41
3.174999952316284
 42
3.17498779296875
 43
3.17498779296875
 44
431.8000183105469
 45
279.3999938964843
 46
0.0
 47
4.064
 48
0.0
 49
0.0
140
0.0
141
0.0
142
1.0
143
3.964347501388434
 70
 11956
 72
     0
 73
     0
 74
     1
  7
monochrome.ctb
 75
     0
147
0.2522483207261144
148
0.0577322436006227
149
0.0705604809070849
100
AcDbLayout
  1
Model
 70
     1
 71
     0
 10
0.0
 20
0.0
 11
12.0
 21
9.0
 12
0.0
 22
0.0
 32
0.0
 14
0.0
 24
0.0
 34
0.0
 15
0.0
 25
0.0
 35
0.0
146
0.0
 13
0.0
 23
0.0
 33
0.0
 16
1.0
 26
0.0
 36
0.0
 17
0.0
 27
1.0
 37
0.0
 76
     0
330
28C7
  0
MLINESTYLE
  5
28C0
102
{ACAD_REACTORS
330
28BF
102
}
330
28BF
100
AcDbMlineStyle
  2
STANDARD
 70
     0
  3

 62
   256
 51
90.0
 52
90.0
 71
     2
 49
0.5
 62
   256
  6
BYLAYER
 49
-0.5
 62
   256
  6
BYLAYER
  0
ACDBPLACEHOLDER
  5
28B8
102
{ACAD_REACTORS
330
28B7
102
}
330
28B7
  0
DICTIONARYVAR
  5
6A44
102
{ACAD_REACTORS
330
6A43
102
}
330
6A43
100
DictionaryVariables
280
     0
  1
96
  0
ENDSEC
  0
EOF
