  0
SECTION
  2
HEADER
  9
$ACADVER
  1
AC1009
  9
$INSBASE
 10
0.0
 20
0.0
 30
0.0
  9
$EXTMIN
 10
0.0
 20
0.0
 30
0.0
  9
$EXTMAX
 10
91.08
 20
139.5
 30
0.0
  9
$LIMMIN
 10
0.0
 20
0.0
  9
$LIMMAX
 10
91.08
 20
139.5
  9
$ORTHOMODE
 70
     1
  9
$REGENMODE
 70
     1
  9
$FILLMODE
 70
     1
  9
$QTEXTMODE
 70
     0
  9
$MIRRTEXT
 70
     0
  9
$DRAGMODE
 70
     2
  9
$LTSCALE
 40
2.5
  9
$OSMODE
 70
     1
  9
$ATTMODE
 70
     1
  9
$TEXTSIZE
 40
1.0
  9
$TRACEWID
 40
0.05
  9
$TEXTSTYLE
  7
TXT
  9
$CLAYER
  8
DIM
  9
$CELTYPE
  6
BYLAYER
  9
$CECOLOR
 62
   256
  9
$DIMSCALE
 40
8.0
  9
$DIMASZ
 40
0.18
  9
$DIMEXO
 40
0.063
  9
$DIMDLI
 40
0.281
  9
$DIMRND
 40
0.0
  9
$DIMDLE
 40
0.0
  9
$DIMEXE
 40
0.093
  9
$DIMTP
 40
0.0
  9
$DIMTM
 40
0.0
  9
$DIMTXT
 40
0.125
  9
$DIMCEN
 40
0.09
  9
$DIMTSZ
 40
0.0
  9
$DIMTOL
 70
     0
  9
$DIMLIM
 70
     0
  9
$DIMTIH
 70
     1
  9
$DIMTOH
 70
     1
  9
$DIMSE1
 70
     0
  9
$DIMSE2
 70
     0
  9
$DIMTAD
 70
     0
  9
$DIMZIN
 70
     0
  9
$DIMBLK
  1

  9
$DIMASO
 70
     1
  9
$DIMSHO
 70
     1
  9
$DIMPOST
  1

  9
$DIMAPOST
  1

  9
$DIMALT
 70
     0
  9
$DIMALTD
 70
     2
  9
$DIMALTF
 40
25.4
  9
$DIMLFAC
 40
1.0
  9
$DIMTOFL
 70
     0
  9
$DIMTVP
 40
0.0
  9
$DIMTIX
 70
     0
  9
$DIMSOXD
 70
     0
  9
$DIMSAH
 70
     0
  9
$DIMBLK1
  1

  9
$DIMBLK2
  1

  9
$DIMSTYLE
  2
23NSTD
  9
$DIMCLRD
 70
     0
  9
$DIMCLRE
 70
     0
  9
$DIMCLRT
 70
     0
  9
$DIMTFAC
 40
1.0
  9
$DIMGAP
 40
0.09
  9
$LUNITS
 70
     2
  9
$LUPREC
 70
     3
  9
$SKETCHINC
 40
0.1
  9
$FILLETRAD
 40
0.0
  9
$AUNITS
 70
     0
  9
$AUPREC
 70
     0
  9
$MENU
  1
acad
  9
$ELEVATION
 40
0.0
  9
$PELEVATION
 40
0.0
  9
$THICKNESS
 40
0.0
  9
$LIMCHECK
 70
     0
  9
$BLIPMODE
 70
     1
  9
$CHAMFERA
 40
0.0
  9
$CHAMFERB
 40
0.0
  9
$SKPOLY
 70
     0
  9
$TDCREATE
 40
2450301.293122801
  9
$TDUPDATE
 40
2450302.324717708
  9
$TDINDWG
 40
0.0492765046
  9
$TDUSRTIMER
 40
0.0492765046
  9
$USRTIMER
 70
     1
  9
$ANGBASE
 50
0.0
  9
$ANGDIR
 70
     0
  9
$PDMODE
 70
     0
  9
$PDSIZE
 40
0.0
  9
$PLINEWID
 40
0.0
  9
$COORDS
 70
     0
  9
$SPLFRAME
 70
     0
  9
$SPLINETYPE
 70
     6
  9
$SPLINESEGS
 70
     8
  9
$ATTDIA
 70
     0
  9
$ATTREQ
 70
     1
  9
$HANDLING
 70
     0
  9
$HANDSEED
  5
0
  9
$SURFTAB1
 70
     6
  9
$SURFTAB2
 70
     6
  9
$SURFTYPE
 70
     6
  9
$SURFU
 70
     6
  9
$SURFV
 70
     6
  9
$UCSNAME
  2

  9
$UCSORG
 10
0.0
 20
0.0
 30
0.0
  9
$UCSXDIR
 10
1.0
 20
0.0
 30
0.0
  9
$UCSYDIR
 10
0.0
 20
1.0
 30
0.0
  9
$PUCSNAME
  2

  9
$PUCSORG
 10
0.0
 20
0.0
 30
0.0
  9
$PUCSXDIR
 10
1.0
 20
0.0
 30
0.0
  9
$PUCSYDIR
 10
0.0
 20
1.0
 30
0.0
  9
$USERI1
 70
     0
  9
$USERI2
 70
     0
  9
$USERI3
 70
     0
  9
$USERI4
 70
     0
  9
$USERI5
 70
     0
  9
$USERR1
 40
0.0
  9
$USERR2
 40
0.0
  9
$USERR3
 40
0.0
  9
$USERR4
 40
0.0
  9
$USERR5
 40
0.0
  9
$WORLDVIEW
 70
     1
  9
$SHADEDGE
 70
     3
  9
$SHADEDIF
 70
    70
  9
$TILEMODE
 70
     1
  9
$MAXACTVP
 70
    16
  9
$PINSBASE
 10
0.0
 20
0.0
 30
0.0
  9
$PLIMCHECK
 70
     0
  9
$PEXTMIN
 10
1.000000E+20
 20
1.000000E+20
 30
1.000000E+20
  9
$PEXTMAX
 10
-1.000000E+20
 20
-1.000000E+20
 30
-1.000000E+20
  9
$PLIMMIN
 10
0.0
 20
0.0
  9
$PLIMMAX
 10
12.0
 20
9.0
  9
$UNITMODE
 70
     0
  9
$VISRETAIN
 70
     0
  9
$PLINEGEN
 70
     0
  9
$PSLTSCALE
 70
     1
  9
$TREEDEPTH
 70
  3020
  9
$DWGCODEPAGE
  3
ascii
  0
ENDSEC
  0
SECTION
  2
TABLES
  0
TABLE
  2
VPORT
 70
     2
  0
VPORT
  2
*ACTIVE
 70
     0
 10
0.0
 20
0.0
 11
1.0
 21
1.0
 12
95.023181
 22
69.75
 13
0.0
 23
0.0
 14
1.0
 24
1.0
 15
0.0
 25
0.0
 16
0.0
 26
0.0
 36
1.0
 17
0.0
 27
0.0
 37
0.0
 40
139.5
 41
1.36234
 42
50.0
 43
0.0
 44
0.0
 50
0.0
 51
0.0
 71
     0
 72
   500
 73
     1
 74
     0
 75
     0
 76
     0
 77
     0
 78
     0
  0
ENDTAB
  0
TABLE
  2
LTYPE
 70
     4
  0
LTYPE
  2
CONTINUOUS
 70
    64
  3
Solid line
 72
    65
 73
     0
 40
0.0
  0
LTYPE
  2
HIDDEN
 70
    64
  3
_ _ _ _ _ _ _ _ _ _ _ _ _ _ _ _ _ _ _ _ _ _ _
 72
    65
 73
     2
 40
0.375
 49
0.25
 49
-0.125
  0
LTYPE
  2
PHANTOM
 70
    64
  3
_____ _ _ _____ _ _ _____ _ _ _____ _ _ ____
 72
    65
 73
     6
 40
2.5
 49
1.25
 49
-0.25
 49
0.25
 49
-0.25
 49
0.25
 49
-0.25
  0
LTYPE
  2
CENTER
 70
    64
  3
____ _ ____ _ ____ _ ____ _ ____ _ ____ _ ____
 72
    65
 73
     4
 40
2.0
 49
1.25
 49
-0.25
 49
0.25
 49
-0.25
  0
ENDTAB
  0
TABLE
  2
LAYER
 70
     9
  0
LAYER
  2
0
 70
    64
 62
     7
  6
CONTINUOUS
  0
LAYER
  2
OBJECT
 70
    64
 62
     7
  6
CONTINUOUS
  0
LAYER
  2
DIM
 70
    64
 62
     7
  6
CONTINUOUS
  0
LAYER
  2
HIDDEN
 70
    64
 62
     7
  6
HIDDEN
  0
LAYER
  2
BEND
 70
    64
 62
     7
  6
PHANTOM
  0
LAYER
  2
TEXT
 70
    64
 62
     7
  6
CONTINUOUS
  0
LAYER
  2
TITLE
 70
    64
 62
     7
  6
CONTINUOUS
  0
LAYER
  2
CENTER
 70
    64
 62
     7
  6
CENTER
  0
LAYER
  2
DEFPOINTS
 70
    64
 62
     7
  6
CONTINUOUS
  0
ENDTAB
  0
TABLE
  2
STYLE
 70
     2
  0
STYLE
  2
STANDARD
 70
    64
 40
0.0
 41
1.0
 50
0.0
 71
     0
 42
0.2
  3
txt
  4

  0
STYLE
  2
TXT
 70
    64
 40
0.0
 41
0.75
 50
0.0
 71
     0
 42
1.0
  3
TXT.shx
  4

  0
ENDTAB
  0
TABLE
  2
VIEW
 70
     0
  0
ENDTAB
  0
TABLE
  2
UCS
 70
     0
  0
ENDTAB
  0
TABLE
  2
APPID
 70
     1
  0
APPID
  2
ACAD
 70
    64
  0
ENDTAB
  0
TABLE
  2
DIMSTYLE
 70
     2
  0
DIMSTYLE
  2
23NSTD
 70
    64
  3

  4

  5

  6

  7

 40
8.0
 41
0.18
 42
0.063
 43
0.281
 44
0.093
 45
0.0
 46
0.0
 47
0.0
 48
0.0
140
0.125
141
0.09
142
0.0
143
25.4
144
1.0
145
0.0
146
1.0
147
0.09
 71
     0
 72
     0
 73
     1
 74
     1
 75
     0
 76
     0
 77
     0
 78
     0
170
     0
171
     2
172
     0
173
     0
174
     0
175
     0
176
     0
177
     0
178
     0
  0
DIMSTYLE
  2
23NSTDI
 70
    64
  3

  4

  5

  6

  7

 40
8.0
 41
0.18
 42
0.063
 43
0.281
 44
0.093
 45
0.0
 46
0.0
 47
0.0
 48
0.0
140
0.125
141
0.09
142
0.0
143
25.4
144
1.0
145
0.0
146
1.0
147
0.09
 71
     0
 72
     0
 73
     1
 74
     1
 75
     0
 76
     0
 77
     0
 78
     0
170
     0
171
     2
172
     0
173
     0
174
     1
175
     0
176
     0
177
     0
178
     0
  0
ENDTAB
  0
ENDSEC
  0
SECTION
  2
BLOCKS
  0
BLOCK
  8
0
  2
HB
 70
    64
 10
0.0
 20
0.0
 30
0.0
  3
HB
  0
TEXT
  8
TEXT
 10
0.207833
 20
15.060079
 30
0.0
 40
0.125
  1
NAME
 72
     1
 11
0.437
 21
15.060079
 31
0.0
  0
TEXT
  8
TEXT
 10
0.207833
 20
15.268413
 30
0.0
 40
0.125
  1
PART
 72
     1
 11
0.437
 21
15.268413
 31
0.0
  0
TEXT
  8
TEXT
 10
5.372
 20
15.060079
 30
0.0
 40
0.125
  1
No.
 72
     1
 11
5.497
 21
15.060079
 31
0.0
  0
TEXT
  8
TEXT
 10
5.267833
 20
15.268413
 30
0.0
 40
0.125
  1
PART
 72
     1
 11
5.497
 21
15.268413
 31
0.0
  0
LINE
  8
TITLE
 10
5.872
 20
15.438
 30
0.0
 11
5.872
 21
15.02
 31
0.0
  0
LINE
  8
TITLE
 10
5.122
 20
15.438
 30
0.0
 11
5.122
 21
15.02
 31
0.0
  0
LINE
  8
TITLE
 10
5.06
 20
15.438
 30
0.0
 11
5.06
 21
15.02
 31
0.0
  0
LINE
  8
TITLE
 10
0.812
 20
15.02
 30
0.0
 11
0.812
 21
15.438
 31
0.0
  0
LINE
  8
TITLE
 10
0.062
 20
15.02
 30
0.0
 11
10.058
 21
15.02
 31
0.0
  0
LINE
  8
TITLE
 10
10.058
 20
0.062
 30
0.0
 11
0.062
 21
0.062
 31
0.0
  0
LINE
  8
TITLE
 10
10.058
 20
15.438
 30
0.0
 11
10.058
 21
0.062
 31
0.0
  0
LINE
  8
TITLE
 10
0.062
 20
15.438
 30
0.0
 11
10.058
 21
15.438
 31
0.0
  0
LINE
  8
TITLE
 10
0.062
 20
0.062
 30
0.0
 11
0.062
 21
15.438
 31
0.0
  0
LINE
  8
TITLE
 10
0.0
 20
0.0
 30
0.0
 11
0.0
 21
15.5
 31
0.0
  0
LINE
  8
TITLE
 10
10.12
 20
0.0
 30
0.0
 11
0.0
 21
0.0
 31
0.0
  0
LINE
  8
TITLE
 10
10.12
 20
15.5
 30
0.0
 11
10.12
 21
0.0
 31
0.0
  0
LINE
  8
TITLE
 10
0.0
 20
15.5
 30
0.0
 11
10.12
 21
15.5
 31
0.0
  0
ENDBLK
  8
0
  0
BLOCK
  8
0
  2
*D1
 70
    65
 10
0.0
 20
0.0
 30
0.0
  3
*D
  0
LINE
  8
0
  6
BYBLOCK
 62
     0
 10
101.387766
 20
81.322964
 30
0.0
 11
97.421759
 21
81.322964
 31
0.0
  0
LINE
  8
0
  6
BYBLOCK
 62
     0
 10
101.387766
 20
83.025964
 30
0.0
 11
97.421759
 21
83.025964
 31
0.0
  0
LINE
  8
0
  6
BYBLOCK
 62
     0
 10
98.165759
 20
79.882964
 30
0.0
 11
98.165759
 21
78.442964
 31
0.0
  0
LINE
  8
0
  6
BYBLOCK
 62
     0
 10
98.165759
 20
84.465964
 30
0.0
 11
98.165759
 21
85.905964
 31
0.0
  0
SOLID
  8
0
  6
BYBLOCK
 62
     0
 10
97.925759
 20
79.882964
 30
0.0
 11
98.405759
 21
79.882964
 31
0.0
 12
98.165759
 22
81.322964
 32
0.0
 13
98.165759
 23
81.322964
 33
0.0
  0
SOLID
  8
0
  6
BYBLOCK
 62
     0
 10
97.925759
 20
84.465964
 30
0.0
 11
98.405759
 21
84.465964
 31
0.0
 12
98.165759
 22
83.025964
 32
0.0
 13
98.165759
 23
83.025964
 33
0.0
  0
TEXT
  8
0
  6
BYBLOCK
 62
     0
 10
96.853259
 20
81.674464
 30
0.0
 40
1.0
  1
1.703
 41
0.75
  7
TXT
 72
     1
 11
98.165759
 21
82.174464
 31
0.0
 73
     2
  0
POINT
  8
DEFPOINTS
  6
BYBLOCK
 62
     0
 10
101.891766
 20
81.322964
 30
0.0
  0
POINT
  8
DEFPOINTS
  6
BYBLOCK
 62
     0
 10
101.891766
 20
83.025964
 30
0.0
  0
POINT
  8
DEFPOINTS
  6
BYBLOCK
 62
     0
 10
98.165759
 20
83.025964
 30
0.0
  0
ENDBLK
  8
0
  0
BLOCK
  8
0
  2
*D2
 70
    65
 10
0.0
 20
0.0
 30
0.0
  3
*D
  0
LINE
  8
0
  6
BYBLOCK
 62
     0
 10
101.465766
 20
19.947964
 30
0.0
 11
97.421759
 21
19.947964
 31
0.0
  0
LINE
  8
0
  6
BYBLOCK
 62
     0
 10
101.465766
 20
81.322964
 30
0.0
 11
97.421759
 21
81.322964
 31
0.0
  0
LINE
  8
0
  6
BYBLOCK
 62
     0
 10
98.165759
 20
21.387964
 30
0.0
 11
98.165759
 21
49.415464
 31
0.0
  0
LINE
  8
0
  6
BYBLOCK
 62
     0
 10
98.165759
 20
79.882964
 30
0.0
 11
98.165759
 21
51.855464
 31
0.0
  0
SOLID
  8
0
  6
BYBLOCK
 62
     0
 10
97.925759
 20
21.387964
 30
0.0
 11
98.405759
 21
21.387964
 31
0.0
 12
98.165759
 22
19.947964
 32
0.0
 13
98.165759
 23
19.947964
 33
0.0
  0
SOLID
  8
0
  6
BYBLOCK
 62
     0
 10
97.925759
 20
79.882964
 30
0.0
 11
98.405759
 21
79.882964
 31
0.0
 12
98.165759
 22
81.322964
 32
0.0
 13
98.165759
 23
81.322964
 33
0.0
  0
TEXT
  8
0
  6
BYBLOCK
 62
     0
 10
97.915759
 20
50.135464
 30
0.0
 40
1.0
  1
A
 41
0.75
  7
TXT
 72
     1
 11
98.165759
 21
50.635464
 31
0.0
 73
     2
  0
POINT
  8
DEFPOINTS
  6
BYBLOCK
 62
     0
 10
101.969766
 20
19.947964
 30
0.0
  0
POINT
  8
DEFPOINTS
  6
BYBLOCK
 62
     0
 10
101.969766
 20
81.322964
 30
0.0
  0
POINT
  8
DEFPOINTS
  6
BYBLOCK
 62
     0
 10
98.165759
 20
81.322964
 30
0.0
  0
ENDBLK
  8
0
  0
BLOCK
  8
0
  2
*D3
 70
    65
 10
0.0
 20
0.0
 30
0.0
  3
*D
  0
LINE
  8
0
  6
BYBLOCK
 62
     0
 10
103.438641
 20
49.339078
 30
0.0
 11
103.438641
 21
49.737347
 31
0.0
  0
LINE
  8
0
  6
BYBLOCK
 62
     0
 10
121.374891
 20
49.339078
 30
0.0
 11
121.374891
 21
49.737347
 31
0.0
  0
LINE
  8
0
  6
BYBLOCK
 62
     0
 10
104.878641
 20
48.993347
 30
0.0
 11
109.936766
 21
48.993347
 31
0.0
  0
LINE
  8
0
  6
BYBLOCK
 62
     0
 10
119.934891
 20
48.993347
 30
0.0
 11
114.876766
 21
48.993347
 31
0.0
  0
SOLID
  8
0
  6
BYBLOCK
 62
     0
 10
104.878641
 20
49.233347
 30
0.0
 11
104.878641
 21
48.753347
 31
0.0
 12
103.438641
 22
48.993347
 32
0.0
 13
103.438641
 23
48.993347
 33
0.0
  0
SOLID
  8
0
  6
BYBLOCK
 62
     0
 10
119.934891
 20
49.233347
 30
0.0
 11
119.934891
 21
48.753347
 31
0.0
 12
121.374891
 22
48.993347
 32
0.0
 13
121.374891
 23
48.993347
 33
0.0
  0
TEXT
  8
0
  6
BYBLOCK
 62
     0
 10
110.656766
 20
48.493347
 30
0.0
 40
1.0
  1
17.936
 41
0.75
  7
TXT
 72
     1
 11
112.406766
 21
48.993347
 31
0.0
 73
     2
  0
POINT
  8
DEFPOINTS
  6
BYBLOCK
 62
     0
 10
103.438641
 20
48.835078
 30
0.0
  0
POINT
  8
DEFPOINTS
  6
BYBLOCK
 62
     0
 10
121.374891
 20
48.835078
 30
0.0
  0
POINT
  8
DEFPOINTS
  6
BYBLOCK
 62
     0
 10
121.374891
 20
48.993347
 30
0.0
  0
ENDBLK
  8
0
  0
BLOCK
  8
0
  2
*D4
 70
    65
 10
0.0
 20
0.0
 30
0.0
  3
*D
  0
LINE
  8
0
  6
BYBLOCK
 62
     0
 10
103.251441
 20
51.764464
 30
0.0
 11
103.251441
 21
53.162078
 31
0.0
  0
LINE
  8
0
  6
BYBLOCK
 62
     0
 10
121.563091
 20
51.139464
 30
0.0
 11
121.563091
 21
53.162078
 31
0.0
  0
LINE
  8
0
  6
BYBLOCK
 62
     0
 10
104.691441
 20
52.418078
 30
0.0
 11
110.062266
 21
52.418078
 31
0.0
  0
LINE
  8
0
  6
BYBLOCK
 62
     0
 10
120.123091
 20
52.418078
 30
0.0
 11
114.752266
 21
52.418078
 31
0.0
  0
SOLID
  8
0
  6
BYBLOCK
 62
     0
 10
104.691441
 20
52.658078
 30
0.0
 11
104.691441
 21
52.178078
 31
0.0
 12
103.251441
 22
52.418078
 32
0.0
 13
103.251441
 23
52.418078
 33
0.0
  0
SOLID
  8
0
  6
BYBLOCK
 62
     0
 10
120.123091
 20
52.658078
 30
0.0
 11
120.123091
 21
52.178078
 31
0.0
 12
121.563091
 22
52.418078
 32
0.0
 13
121.563091
 23
52.418078
 33
0.0
  0
TEXT
  8
0
  6
BYBLOCK
 62
     0
 10
110.782266
 20
51.918078
 30
0.0
 40
1.0
  1
18.312
 41
0.75
  7
TXT
 72
     1
 11
112.407266
 21
52.418078
 31
0.0
 73
     2
  0
POINT
  8
DEFPOINTS
  6
BYBLOCK
 62
     0
 10
103.251441
 20
51.260464
 30
0.0
  0
POINT
  8
DEFPOINTS
  6
BYBLOCK
 62
     0
 10
121.563091
 20
50.635464
 30
0.0
  0
POINT
  8
DEFPOINTS
  6
BYBLOCK
 62
     0
 10
121.563091
 20
52.418078
 30
0.0
  0
ENDBLK
  8
0
  0
BLOCK
  8
0
  2
*D5
 70
    65
 10
0.0
 20
0.0
 30
0.0
  3
*D
  0
LINE
  8
0
  6
BYBLOCK
 62
     0
 10
184.262263
 20
51.764464
 30
0.0
 11
184.262263
 21
53.162078
 31
0.0
  0
LINE
  8
0
  6
BYBLOCK
 62
     0
 10
165.950613
 20
51.139464
 30
0.0
 11
165.950613
 21
53.162078
 31
0.0
  0
LINE
  8
0
  6
BYBLOCK
 62
     0
 10
182.822263
 20
52.418078
 30
0.0
 11
177.451438
 21
52.418078
 31
0.0
  0
LINE
  8
0
  6
BYBLOCK
 62
     0
 10
167.390613
 20
52.418078
 30
0.0
 11
172.761438
 21
52.418078
 31
0.0
  0
SOLID
  8
0
  6
BYBLOCK
 62
     0
 10
182.822263
 20
52.658078
 30
0.0
 11
182.822263
 21
52.178078
 31
0.0
 12
184.262263
 22
52.418078
 32
0.0
 13
184.262263
 23
52.418078
 33
0.0
  0
SOLID
  8
0
  6
BYBLOCK
 62
     0
 10
167.390613
 20
52.658078
 30
0.0
 11
167.390613
 21
52.178078
 31
0.0
 12
165.950613
 22
52.418078
 32
0.0
 13
165.950613
 23
52.418078
 33
0.0
  0
TEXT
  8
0
  6
BYBLOCK
 62
     0
 10
173.481438
 20
51.918078
 30
0.0
 40
1.0
  1
18.312
 41
0.75
  7
TXT
 72
     1
 11
175.106438
 21
52.418078
 31
0.0
 73
     2
  0
POINT
  8
DEFPOINTS
  6
BYBLOCK
 62
     0
 10
184.262263
 20
51.260464
 30
0.0
  0
POINT
  8
DEFPOINTS
  6
BYBLOCK
 62
     0
 10
165.950613
 20
50.635464
 30
0.0
  0
POINT
  8
DEFPOINTS
  6
BYBLOCK
 62
     0
 10
165.950613
 20
52.418078
 30
0.0
  0
ENDBLK
  8
0
  0
BLOCK
  8
0
  2
*D6
 70
    65
 10
0.0
 20
0.0
 30
0.0
  3
*D
  0
LINE
  8
0
  6
BYBLOCK
 62
     0
 10
184.075063
 20
49.339078
 30
0.0
 11
184.075063
 21
49.737347
 31
0.0
  0
LINE
  8
0
  6
BYBLOCK
 62
     0
 10
166.138813
 20
49.339078
 30
0.0
 11
166.138813
 21
49.737347
 31
0.0
  0
LINE
  8
0
  6
BYBLOCK
 62
     0
 10
182.635063
 20
48.993347
 30
0.0
 11
177.576938
 21
48.993347
 31
0.0
  0
LINE
  8
0
  6
BYBLOCK
 62
     0
 10
167.578813
 20
48.993347
 30
0.0
 11
172.636938
 21
48.993347
 31
0.0
  0
SOLID
  8
0
  6
BYBLOCK
 62
     0
 10
182.635063
 20
49.233347
 30
0.0
 11
182.635063
 21
48.753347
 31
0.0
 12
184.075063
 22
48.993347
 32
0.0
 13
184.075063
 23
48.993347
 33
0.0
  0
SOLID
  8
0
  6
BYBLOCK
 62
     0
 10
167.578813
 20
49.233347
 30
0.0
 11
167.578813
 21
48.753347
 31
0.0
 12
166.138813
 22
48.993347
 32
0.0
 13
166.138813
 23
48.993347
 33
0.0
  0
TEXT
  8
0
  6
BYBLOCK
 62
     0
 10
173.356938
 20
48.493347
 30
0.0
 40
1.0
  1
17.936
 41
0.75
  7
TXT
 72
     1
 11
175.106938
 21
48.993347
 31
0.0
 73
     2
  0
POINT
  8
DEFPOINTS
  6
BYBLOCK
 62
     0
 10
184.075063
 20
48.835078
 30
0.0
  0
POINT
  8
DEFPOINTS
  6
BYBLOCK
 62
     0
 10
166.138813
 20
48.835078
 30
0.0
  0
POINT
  8
DEFPOINTS
  6
BYBLOCK
 62
     0
 10
166.138813
 20
48.993347
 30
0.0
  0
ENDBLK
  8
0
  0
BLOCK
  8
0
  2
*D7
 70
    65
 10
0.0
 20
0.0
 30
0.0
  3
*D
  0
LINE
  8
0
  6
BYBLOCK
 62
     0
 10
105.969766
 20
101.803618
 30
0.0
 11
105.969766
 21
95.802618
 31
0.0
  0
LINE
  8
0
  6
BYBLOCK
 62
     0
 10
101.969766
 20
98.178618
 30
0.0
 11
101.969766
 21
95.802618
 31
0.0
  0
LINE
  8
0
  6
BYBLOCK
 62
     0
 10
107.409766
 20
96.546618
 30
0.0
 11
108.849766
 21
96.546618
 31
0.0
  0
LINE
  8
0
  6
BYBLOCK
 62
     0
 10
100.529766
 20
96.546618
 30
0.0
 11
99.089766
 21
96.546618
 31
0.0
  0
SOLID
  8
0
  6
BYBLOCK
 62
     0
 10
107.409766
 20
96.786618
 30
0.0
 11
107.409766
 21
96.306618
 31
0.0
 12
105.969766
 22
96.546618
 32
0.0
 13
105.969766
 23
96.546618
 33
0.0
  0
SOLID
  8
0
  6
BYBLOCK
 62
     0
 10
100.529766
 20
96.786618
 30
0.0
 11
100.529766
 21
96.306618
 31
0.0
 12
101.969766
 22
96.546618
 32
0.0
 13
101.969766
 23
96.546618
 33
0.0
  0
TEXT
  8
0
  6
BYBLOCK
 62
     0
 10
102.657266
 20
96.046618
 30
0.0
 40
1.0
  1
4.000
 41
0.75
  7
TXT
 72
     1
 11
103.969766
 21
96.546618
 31
0.0
 73
     2
  0
POINT
  8
DEFPOINTS
  6
BYBLOCK
 62
     0
 10
105.969766
 20
102.307618
 30
0.0
  0
POINT
  8
DEFPOINTS
  6
BYBLOCK
 62
     0
 10
101.969766
 20
98.682618
 30
0.0
  0
POINT
  8
DEFPOINTS
  6
BYBLOCK
 62
     0
 10
101.969766
 20
96.546618
 30
0.0
  0
ENDBLK
  8
0
  0
BLOCK
  8
0
  2
*D8
 70
    65
 10
0.0
 20
0.0
 30
0.0
  3
*D
  0
LINE
  8
0
  6
BYBLOCK
 62
     0
 10
122.844766
 20
98.178618
 30
0.0
 11
122.844766
 21
93.554618
 31
0.0
  0
LINE
  8
0
  6
BYBLOCK
 62
     0
 10
101.969766
 20
98.178618
 30
0.0
 11
101.969766
 21
93.554618
 31
0.0
  0
LINE
  8
0
  6
BYBLOCK
 62
     0
 10
121.404766
 20
94.298618
 30
0.0
 11
114.939766
 21
94.298618
 31
0.0
  0
LINE
  8
0
  6
BYBLOCK
 62
     0
 10
103.409766
 20
94.298618
 30
0.0
 11
109.874766
 21
94.298618
 31
0.0
  0
SOLID
  8
0
  6
BYBLOCK
 62
     0
 10
121.404766
 20
94.538618
 30
0.0
 11
121.404766
 21
94.058618
 31
0.0
 12
122.844766
 22
94.298618
 32
0.0
 13
122.844766
 23
94.298618
 33
0.0
  0
SOLID
  8
0
  6
BYBLOCK
 62
     0
 10
103.409766
 20
94.538618
 30
0.0
 11
103.409766
 21
94.058618
 31
0.0
 12
101.969766
 22
94.298618
 32
0.0
 13
101.969766
 23
94.298618
 33
0.0
  0
TEXT
  8
0
  6
BYBLOCK
 62
     0
 10
110.594766
 20
93.798618
 30
0.0
 40
1.0
  1
20.875
 41
0.75
  7
TXT
 72
     1
 11
112.407266
 21
94.298618
 31
0.0
 73
     2
  0
POINT
  8
DEFPOINTS
  6
BYBLOCK
 62
     0
 10
122.844766
 20
98.682618
 30
0.0
  0
POINT
  8
DEFPOINTS
  6
BYBLOCK
 62
     0
 10
101.969766
 20
98.682618
 30
0.0
  0
POINT
  8
DEFPOINTS
  6
BYBLOCK
 62
     0
 10
101.969766
 20
94.298618
 30
0.0
  0
ENDBLK
  8
0
  0
BLOCK
  8
0
  2
*D9
 70
    65
 10
0.0
 20
0.0
 30
0.0
  3
*D
  0
LINE
  8
0
  6
BYBLOCK
 62
     0
 10
105.465766
 20
96.868948
 30
0.0
 11
97.421759
 21
96.868948
 31
0.0
  0
LINE
  8
0
  6
BYBLOCK
 62
     0
 10
101.465766
 20
93.243948
 30
0.0
 11
97.421759
 21
93.243948
 31
0.0
  0
LINE
  8
0
  6
BYBLOCK
 62
     0
 10
98.165759
 20
98.308948
 30
0.0
 11
98.165759
 21
99.748948
 31
0.0
  0
LINE
  8
0
  6
BYBLOCK
 62
     0
 10
98.165759
 20
91.803948
 30
0.0
 11
98.165759
 21
90.363948
 31
0.0
  0
SOLID
  8
0
  6
BYBLOCK
 62
     0
 10
97.925759
 20
98.308948
 30
0.0
 11
98.405759
 21
98.308948
 31
0.0
 12
98.165759
 22
96.868948
 32
0.0
 13
98.165759
 23
96.868948
 33
0.0
  0
SOLID
  8
0
  6
BYBLOCK
 62
     0
 10
97.925759
 20
91.803948
 30
0.0
 11
98.405759
 21
91.803948
 31
0.0
 12
98.165759
 22
93.243948
 32
0.0
 13
98.165759
 23
93.243948
 33
0.0
  0
TEXT
  8
0
  6
BYBLOCK
 62
     0
 10
96.665759
 20
94.556448
 30
0.0
 40
1.0
  1
3.625
 41
0.75
  7
TXT
 72
     1
 11
98.165759
 21
95.056448
 31
0.0
 73
     2
  0
POINT
  8
DEFPOINTS
  6
BYBLOCK
 62
     0
 10
105.969766
 20
96.868948
 30
0.0
  0
POINT
  8
DEFPOINTS
  6
BYBLOCK
 62
     0
 10
101.969766
 20
93.243948
 30
0.0
  0
POINT
  8
DEFPOINTS
  6
BYBLOCK
 62
     0
 10
98.165759
 20
93.243948
 30
0.0
  0
ENDBLK
  8
0
  0
BLOCK
  8
0
  2
*D10
 70
    65
 10
0.0
 20
0.0
 30
0.0
  3
*D
  0
LINE
  8
0
  6
BYBLOCK
 62
     0
 10
123.348766
 20
93.243948
 30
0.0
 11
126.865576
 21
93.243948
 31
0.0
  0
LINE
  8
0
  6
BYBLOCK
 62
     0
 10
123.348766
 20
119.243948
 30
0.0
 11
126.865576
 21
119.243948
 31
0.0
  0
LINE
  8
0
  6
BYBLOCK
 62
     0
 10
126.121576
 20
94.683948
 30
0.0
 11
126.121576
 21
105.023948
 31
0.0
  0
LINE
  8
0
  6
BYBLOCK
 62
     0
 10
126.121576
 20
117.803948
 30
0.0
 11
126.121576
 21
107.463948
 31
0.0
  0
SOLID
  8
0
  6
BYBLOCK
 62
     0
 10
125.881576
 20
94.683948
 30
0.0
 11
126.361576
 21
94.683948
 31
0.0
 12
126.121576
 22
93.243948
 32
0.0
 13
126.121576
 23
93.243948
 33
0.0
  0
SOLID
  8
0
  6
BYBLOCK
 62
     0
 10
125.881576
 20
117.803948
 30
0.0
 11
126.361576
 21
117.803948
 31
0.0
 12
126.121576
 22
119.243948
 32
0.0
 13
126.121576
 23
119.243948
 33
0.0
  0
TEXT
  8
0
  6
BYBLOCK
 62
     0
 10
124.434076
 20
105.743948
 30
0.0
 40
1.0
  1
26.000
 41
0.75
  7
TXT
 72
     1
 11
126.121576
 21
106.243948
 31
0.0
 73
     2
  0
POINT
  8
DEFPOINTS
  6
BYBLOCK
 62
     0
 10
122.844766
 20
93.243948
 30
0.0
  0
POINT
  8
DEFPOINTS
  6
BYBLOCK
 62
     0
 10
122.844766
 20
119.243948
 30
0.0
  0
POINT
  8
DEFPOINTS
  6
BYBLOCK
 62
     0
 10
126.121576
 20
119.243948
 30
0.0
  0
ENDBLK
  8
0
  0
BLOCK
  8
0
  2
*D11
 70
    65
 10
0.0
 20
0.0
 30
0.0
  3
*D
  0
LINE
  8
0
  6
BYBLOCK
 62
     0
 10
123.348766
 20
18.322964
 30
0.0
 11
126.865576
 21
18.322964
 31
0.0
  0
LINE
  8
0
  6
BYBLOCK
 62
     0
 10
123.426766
 20
83.025964
 30
0.0
 11
126.865576
 21
83.025964
 31
0.0
  0
LINE
  8
0
  6
BYBLOCK
 62
     0
 10
126.121576
 20
19.762964
 30
0.0
 11
126.121576
 21
49.454464
 31
0.0
  0
LINE
  8
0
  6
BYBLOCK
 62
     0
 10
126.121576
 20
81.585964
 30
0.0
 11
126.121576
 21
51.894464
 31
0.0
  0
SOLID
  8
0
  6
BYBLOCK
 62
     0
 10
125.881576
 20
19.762964
 30
0.0
 11
126.361576
 21
19.762964
 31
0.0
 12
126.121576
 22
18.322964
 32
0.0
 13
126.121576
 23
18.322964
 33
0.0
  0
SOLID
  8
0
  6
BYBLOCK
 62
     0
 10
125.881576
 20
81.585964
 30
0.0
 11
126.361576
 21
81.585964
 31
0.0
 12
126.121576
 22
83.025964
 32
0.0
 13
126.121576
 23
83.025964
 33
0.0
  0
TEXT
  8
0
  6
BYBLOCK
 62
     0
 10
125.871576
 20
50.174464
 30
0.0
 40
1.0
  1
B
 41
0.75
  7
TXT
 72
     1
 11
126.121576
 21
50.674464
 31
0.0
 73
     2
  0
POINT
  8
DEFPOINTS
  6
BYBLOCK
 62
     0
 10
122.844766
 20
18.322964
 30
0.0
  0
POINT
  8
DEFPOINTS
  6
BYBLOCK
 62
     0
 10
122.922766
 20
83.025964
 30
0.0
  0
POINT
  8
DEFPOINTS
  6
BYBLOCK
 62
     0
 10
126.121576
 20
83.025964
 30
0.0
  0
ENDBLK
  8
0
  0
BLOCK
  8
0
  2
*D12
 70
    65
 10
0.0
 20
0.0
 30
0.0
  3
*D
  0
LINE
  8
0
  6
BYBLOCK
 62
     0
 10
129.936375
 20
19.443964
 30
0.0
 11
129.936375
 21
15.587236
 31
0.0
  0
LINE
  8
0
  6
BYBLOCK
 62
     0
 10
135.936663
 20
19.444307
 30
0.0
 11
135.936663
 21
15.587236
 31
0.0
  0
LINE
  8
0
  6
BYBLOCK
 62
     0
 10
128.496375
 20
16.331236
 30
0.0
 11
127.056375
 21
16.331236
 31
0.0
  0
LINE
  8
0
  6
BYBLOCK
 62
     0
 10
137.376663
 20
16.331236
 30
0.0
 11
138.816663
 21
16.331236
 31
0.0
  0
SOLID
  8
0
  6
BYBLOCK
 62
     0
 10
128.496375
 20
16.571236
 30
0.0
 11
128.496375
 21
16.091236
 31
0.0
 12
129.936375
 22
16.331236
 32
0.0
 13
129.936375
 23
16.331236
 33
0.0
  0
SOLID
  8
0
  6
BYBLOCK
 62
     0
 10
137.376663
 20
16.571236
 30
0.0
 11
137.376663
 21
16.091236
 31
0.0
 12
135.936663
 22
16.331236
 32
0.0
 13
135.936663
 23
16.331236
 33
0.0
  0
TEXT
  8
0
  6
BYBLOCK
 62
     0
 10
131.624019
 20
15.831236
 30
0.0
 40
1.0
  1
6.000
 41
0.75
  7
TXT
 72
     1
 11
132.936519
 21
16.331236
 31
0.0
 73
     2
  0
POINT
  8
DEFPOINTS
  6
BYBLOCK
 62
     0
 10
129.936375
 20
19.947964
 30
0.0
  0
POINT
  8
DEFPOINTS
  6
BYBLOCK
 62
     0
 10
135.936663
 20
19.948307
 30
0.0
  0
POINT
  8
DEFPOINTS
  6
BYBLOCK
 62
     0
 10
135.936663
 20
16.331236
 30
0.0
  0
ENDBLK
  8
0
  0
BLOCK
  8
0
  2
*D13
 70
    65
 10
0.0
 20
0.0
 30
0.0
  3
*D
  0
LINE
  8
0
  6
BYBLOCK
 62
     0
 10
84.084844
 20
72.782953
 30
0.0
 11
84.084844
 21
75.003565
 31
0.0
  0
LINE
  8
0
  6
BYBLOCK
 62
     0
 10
64.991844
 20
72.782953
 30
0.0
 11
64.991844
 21
75.003565
 31
0.0
  0
LINE
  8
0
  6
BYBLOCK
 62
     0
 10
82.644844
 20
74.259565
 30
0.0
 11
76.945844
 21
74.259565
 31
0.0
  0
LINE
  8
0
  6
BYBLOCK
 62
     0
 10
66.431844
 20
74.259565
 30
0.0
 11
72.130844
 21
74.259565
 31
0.0
  0
SOLID
  8
0
  6
BYBLOCK
 62
     0
 10
82.644844
 20
74.499565
 30
0.0
 11
82.644844
 21
74.019565
 31
0.0
 12
84.084844
 22
74.259565
 32
0.0
 13
84.084844
 23
74.259565
 33
0.0
  0
SOLID
  8
0
  6
BYBLOCK
 62
     0
 10
66.431844
 20
74.499565
 30
0.0
 11
66.431844
 21
74.019565
 31
0.0
 12
64.991844
 22
74.259565
 32
0.0
 13
64.991844
 23
74.259565
 33
0.0
  0
TEXT
  8
0
  6
BYBLOCK
 62
     0
 10
72.850844
 20
73.759565
 30
0.0
 40
1.0
  1
19.093
 41
0.75
  7
TXT
 72
     1
 11
74.538344
 21
74.259565
 31
0.0
 73
     2
  0
POINT
  8
DEFPOINTS
  6
BYBLOCK
 62
     0
 10
84.084844
 20
72.278953
 30
0.0
  0
POINT
  8
DEFPOINTS
  6
BYBLOCK
 62
     0
 10
64.991844
 20
72.278953
 30
0.0
  0
POINT
  8
DEFPOINTS
  6
BYBLOCK
 62
     0
 10
64.991844
 20
74.259565
 30
0.0
  0
ENDBLK
  8
0
  0
BLOCK
  8
0
  2
*D14
 70
    65
 10
0.0
 20
0.0
 30
0.0
  3
*D
  0
LINE
  8
0
  6
BYBLOCK
 62
     0
 10
28.49752
 20
81.136949
 30
0.0
 11
28.49752
 21
85.760949
 31
0.0
  0
LINE
  8
0
  6
BYBLOCK
 62
     0
 10
29.46652
 20
81.136949
 30
0.0
 11
29.46652
 21
85.760949
 31
0.0
  0
LINE
  8
0
  6
BYBLOCK
 62
     0
 10
27.05752
 20
85.016949
 30
0.0
 11
25.61752
 21
85.016949
 31
0.0
  0
LINE
  8
0
  6
BYBLOCK
 62
     0
 10
30.90652
 20
85.016949
 30
0.0
 11
32.34652
 21
85.016949
 31
0.0
  0
SOLID
  8
0
  6
BYBLOCK
 62
     0
 10
27.05752
 20
85.256949
 30
0.0
 11
27.05752
 21
84.776949
 31
0.0
 12
28.49752
 22
85.016949
 32
0.0
 13
28.49752
 23
85.016949
 33
0.0
  0
SOLID
  8
0
  6
BYBLOCK
 62
     0
 10
30.90652
 20
85.256949
 30
0.0
 11
30.90652
 21
84.776949
 31
0.0
 12
29.46652
 22
85.016949
 32
0.0
 13
29.46652
 23
85.016949
 33
0.0
  0
TEXT
  8
0
  6
BYBLOCK
 62
     0
 10
33.06652
 20
84.516949
 30
0.0
 40
1.0
  1
0.969
 41
0.75
  7
TXT
 72
     1
 11
34.50402
 21
85.016949
 31
0.0
 73
     2
  0
POINT
  8
DEFPOINTS
  6
BYBLOCK
 62
     0
 10
28.49752
 20
80.632949
 30
0.0
  0
POINT
  8
DEFPOINTS
  6
BYBLOCK
 62
     0
 10
29.46652
 20
80.632949
 30
0.0
  0
POINT
  8
DEFPOINTS
  6
BYBLOCK
 62
     0
 10
29.46652
 20
85.016949
 30
0.0
  0
ENDBLK
  8
0
  0
BLOCK
  8
0
  2
*D15
 70
    65
 10
0.0
 20
0.0
 30
0.0
  3
*D
  0
LINE
  8
0
  6
BYBLOCK
 62
     0
 10
9.40452
 20
81.136949
 30
0.0
 11
9.40452
 21
85.760949
 31
0.0
  0
LINE
  8
0
  6
BYBLOCK
 62
     0
 10
28.49752
 20
81.136949
 30
0.0
 11
28.49752
 21
85.760949
 31
0.0
  0
LINE
  8
0
  6
BYBLOCK
 62
     0
 10
10.84452
 20
85.016949
 30
0.0
 11
16.54352
 21
85.016949
 31
0.0
  0
LINE
  8
0
  6
BYBLOCK
 62
     0
 10
27.05752
 20
85.016949
 30
0.0
 11
21.35852
 21
85.016949
 31
0.0
  0
SOLID
  8
0
  6
BYBLOCK
 62
     0
 10
10.84452
 20
85.256949
 30
0.0
 11
10.84452
 21
84.776949
 31
0.0
 12
9.40452
 22
85.016949
 32
0.0
 13
9.40452
 23
85.016949
 33
0.0
  0
SOLID
  8
0
  6
BYBLOCK
 62
     0
 10
27.05752
 20
85.256949
 30
0.0
 11
27.05752
 21
84.776949
 31
0.0
 12
28.49752
 22
85.016949
 32
0.0
 13
28.49752
 23
85.016949
 33
0.0
  0
TEXT
  8
0
  6
BYBLOCK
 62
     0
 10
17.26352
 20
84.516949
 30
0.0
 40
1.0
  1
19.093
 41
0.75
  7
TXT
 72
     1
 11
18.95102
 21
85.016949
 31
0.0
 73
     2
  0
POINT
  8
DEFPOINTS
  6
BYBLOCK
 62
     0
 10
9.40452
 20
80.632949
 30
0.0
  0
POINT
  8
DEFPOINTS
  6
BYBLOCK
 62
     0
 10
28.49752
 20
80.632949
 30
0.0
  0
POINT
  8
DEFPOINTS
  6
BYBLOCK
 62
     0
 10
28.49752
 20
85.016949
 30
0.0
  0
ENDBLK
  8
0
  0
BLOCK
  8
0
  2
*D16
 70
    65
 10
0.0
 20
0.0
 30
0.0
  3
*D
  0
LINE
  8
0
  6
BYBLOCK
 62
     0
 10
9.40452
 20
81.136949
 30
0.0
 11
9.40452
 21
85.760949
 31
0.0
  0
LINE
  8
0
  6
BYBLOCK
 62
     0
 10
8.43552
 20
81.136949
 30
0.0
 11
8.43552
 21
85.760949
 31
0.0
  0
LINE
  8
0
  6
BYBLOCK
 62
     0
 10
10.84452
 20
85.016949
 30
0.0
 11
12.28452
 21
85.016949
 31
0.0
  0
LINE
  8
0
  6
BYBLOCK
 62
     0
 10
6.99552
 20
85.016949
 30
0.0
 11
5.55552
 21
85.016949
 31
0.0
  0
SOLID
  8
0
  6
BYBLOCK
 62
     0
 10
10.84452
 20
85.256949
 30
0.0
 11
10.84452
 21
84.776949
 31
0.0
 12
9.40452
 22
85.016949
 32
0.0
 13
9.40452
 23
85.016949
 33
0.0
  0
SOLID
  8
0
  6
BYBLOCK
 62
     0
 10
6.99552
 20
85.256949
 30
0.0
 11
6.99552
 21
84.776949
 31
0.0
 12
8.43552
 22
85.016949
 32
0.0
 13
8.43552
 23
85.016949
 33
0.0
  0
TEXT
  8
0
  6
BYBLOCK
 62
     0
 10
1.96052
 20
84.516949
 30
0.0
 40
1.0
  1
0.969
 41
0.75
  7
TXT
 72
     1
 11
3.39802
 21
85.016949
 31
0.0
 73
     2
  0
POINT
  8
DEFPOINTS
  6
BYBLOCK
 62
     0
 10
9.40452
 20
80.632949
 30
0.0
  0
POINT
  8
DEFPOINTS
  6
BYBLOCK
 62
     0
 10
8.43552
 20
80.632949
 30
0.0
  0
POINT
  8
DEFPOINTS
  6
BYBLOCK
 62
     0
 10
8.43552
 20
85.016949
 30
0.0
  0
ENDBLK
  8
0
  0
BLOCK
  8
0
  2
*D17
 70
    65
 10
0.0
 20
0.0
 30
0.0
  3
*D
  0
LINE
  8
0
  6
BYBLOCK
 62
     0
 10
86.705424
 20
81.136949
 30
0.0
 11
86.705424
 21
85.760949
 31
0.0
  0
LINE
  8
0
  6
BYBLOCK
 62
     0
 10
65.674424
 20
81.136949
 30
0.0
 11
65.674424
 21
85.760949
 31
0.0
  0
LINE
  8
0
  6
BYBLOCK
 62
     0
 10
85.265424
 20
85.016949
 30
0.0
 11
78.472424
 21
85.016949
 31
0.0
  0
LINE
  8
0
  6
BYBLOCK
 62
     0
 10
67.114424
 20
85.016949
 30
0.0
 11
73.907424
 21
85.016949
 31
0.0
  0
SOLID
  8
0
  6
BYBLOCK
 62
     0
 10
85.265424
 20
85.256949
 30
0.0
 11
85.265424
 21
84.776949
 31
0.0
 12
86.705424
 22
85.016949
 32
0.0
 13
86.705424
 23
85.016949
 33
0.0
  0
SOLID
  8
0
  6
BYBLOCK
 62
     0
 10
67.114424
 20
85.256949
 30
0.0
 11
67.114424
 21
84.776949
 31
0.0
 12
65.674424
 22
85.016949
 32
0.0
 13
65.674424
 23
85.016949
 33
0.0
  0
TEXT
  8
0
  6
BYBLOCK
 62
     0
 10
74.627424
 20
84.516949
 30
0.0
 40
1.0
  1
21.031
 41
0.75
  7
TXT
 72
     1
 11
76.189924
 21
85.016949
 31
0.0
 73
     2
  0
POINT
  8
DEFPOINTS
  6
BYBLOCK
 62
     0
 10
86.705424
 20
80.632949
 30
0.0
  0
POINT
  8
DEFPOINTS
  6
BYBLOCK
 62
     0
 10
65.674424
 20
80.632949
 30
0.0
  0
POINT
  8
DEFPOINTS
  6
BYBLOCK
 62
     0
 10
65.674424
 20
85.016949
 30
0.0
  0
ENDBLK
  8
0
  0
BLOCK
  8
0
  2
*D18
 70
    65
 10
0.0
 20
0.0
 30
0.0
  3
*D
  0
LINE
  8
0
  6
BYBLOCK
 62
     0
 10
42.480417
 20
17.051293
 30
0.0
 11
42.480417
 21
10.946221
 31
0.0
  0
LINE
  8
0
  6
BYBLOCK
 62
     0
 10
50.480417
 20
17.051293
 30
0.0
 11
50.480417
 21
10.946221
 31
0.0
  0
LINE
  8
0
  6
BYBLOCK
 62
     0
 10
41.040417
 20
11.690221
 30
0.0
 11
39.600417
 21
11.690221
 31
0.0
  0
LINE
  8
0
  6
BYBLOCK
 62
     0
 10
51.920417
 20
11.690221
 30
0.0
 11
53.360417
 21
11.690221
 31
0.0
  0
SOLID
  8
0
  6
BYBLOCK
 62
     0
 10
41.040417
 20
11.930221
 30
0.0
 11
41.040417
 21
11.450221
 31
0.0
 12
42.480417
 22
11.690221
 32
0.0
 13
42.480417
 23
11.690221
 33
0.0
  0
SOLID
  8
0
  6
BYBLOCK
 62
     0
 10
51.920417
 20
11.930221
 30
0.0
 11
51.920417
 21
11.450221
 31
0.0
 12
50.480417
 22
11.690221
 32
0.0
 13
50.480417
 23
11.690221
 33
0.0
  0
TEXT
  8
0
  6
BYBLOCK
 62
     0
 10
45.167917
 20
11.190221
 30
0.0
 40
1.0
  1
8.000
 41
0.75
  7
TXT
 72
     1
 11
46.480417
 21
11.690221
 31
0.0
 73
     2
  0
POINT
  8
DEFPOINTS
  6
BYBLOCK
 62
     0
 10
42.480417
 20
17.555293
 30
0.0
  0
POINT
  8
DEFPOINTS
  6
BYBLOCK
 62
     0
 10
50.480417
 20
17.555293
 30
0.0
  0
POINT
  8
DEFPOINTS
  6
BYBLOCK
 62
     0
 10
50.480417
 20
11.690221
 30
0.0
  0
ENDBLK
  8
0
  0
ENDSEC
  0
SECTION
  2
ENTITIES
  0
LINE
  8
HIDDEN
 10
29.23252
 20
97.825321
 30
0.0
 11
29.23252
 21
97.934696
 31
0.0
  0
LINE
  8
HIDDEN
 10
8.66952
 20
97.825321
 30
0.0
 11
8.66952
 21
97.934696
 31
0.0
  0
LINE
  8
HIDDEN
 10
8.66952
 20
123.825321
 30
0.0
 11
8.66952
 21
123.715946
 31
0.0
  0
CIRCLE
  8
OBJECT
 10
12.51352
 20
120.200321
 30
0.0
 40
0.25
  0
CIRCLE
  8
OBJECT
 10
11.63852
 20
121.700321
 30
0.0
 40
0.1715
  0
CIRCLE
  8
OBJECT
 10
13.38852
 20
121.700321
 30
0.0
 40
0.1715
  0
CIRCLE
  8
OBJECT
 10
11.63852
 20
118.700321
 30
0.0
 40
0.1715
  0
CIRCLE
  8
OBJECT
 10
13.38852
 20
118.700321
 30
0.0
 40
0.1715
  0
CIRCLE
  8
OBJECT
 10
13.38852
 20
102.950321
 30
0.0
 40
0.1715
  0
CIRCLE
  8
OBJECT
 10
11.63852
 20
102.950321
 30
0.0
 40
0.1715
  0
CIRCLE
  8
OBJECT
 10
13.38852
 20
99.950321
 30
0.0
 40
0.1715
  0
CIRCLE
  8
OBJECT
 10
11.63852
 20
99.950321
 30
0.0
 40
0.1715
  0
CIRCLE
  8
OBJECT
 10
12.51352
 20
101.450321
 30
0.0
 40
0.25
  0
CIRCLE
  8
OBJECT
 10
25.38852
 20
101.450321
 30
0.0
 40
0.25
  0
CIRCLE
  8
OBJECT
 10
26.26352
 20
99.950321
 30
0.0
 40
0.1715
  0
CIRCLE
  8
OBJECT
 10
24.51352
 20
99.950321
 30
0.0
 40
0.1715
  0
CIRCLE
  8
OBJECT
 10
26.26352
 20
102.950321
 30
0.0
 40
0.1715
  0
CIRCLE
  8
OBJECT
 10
24.51352
 20
102.950321
 30
0.0
 40
0.1715
  0
CIRCLE
  8
OBJECT
 10
24.51352
 20
118.700321
 30
0.0
 40
0.1715
  0
CIRCLE
  8
OBJECT
 10
26.26352
 20
118.700321
 30
0.0
 40
0.1715
  0
CIRCLE
  8
OBJECT
 10
24.51352
 20
121.700321
 30
0.0
 40
0.1715
  0
CIRCLE
  8
OBJECT
 10
26.26352
 20
121.700321
 30
0.0
 40
0.1715
  0
CIRCLE
  8
OBJECT
 10
25.38852
 20
120.200321
 30
0.0
 40
0.25
  0
LINE
  8
OBJECT
 10
29.38852
 20
19.850808
 30
0.0
 11
29.38852
 21
21.475808
 31
0.0
  0
LINE
  8
OBJECT
 10
29.38852
 20
21.475808
 30
0.0
 11
8.51352
 21
21.475808
 31
0.0
  0
LINE
  8
HIDDEN
 10
29.27952
 20
19.850808
 30
0.0
 11
29.27952
 21
21.366808
 31
0.0
  0
LINE
  8
HIDDEN
 10
8.62252
 20
19.850808
 30
0.0
 11
8.62252
 21
21.366808
 31
0.0
  0
LINE
  8
OBJECT
 10
8.51352
 20
19.850808
 30
0.0
 11
8.51352
 21
21.475808
 31
0.0
  0
LINE
  8
HIDDEN
 10
29.27952
 20
21.366808
 30
0.0
 11
8.62252
 21
21.366808
 31
0.0
  0
LINE
  8
OBJECT
 10
8.51352
 20
19.850808
 30
0.0
 11
29.38852
 21
19.850808
 31
0.0
  0
LINE
  8
OBJECT
 10
8.51352
 20
97.825321
 30
0.0
 11
8.51352
 21
103.982571
 31
0.0
  0
LINE
  8
OBJECT
 10
29.38852
 20
97.825321
 30
0.0
 11
29.38852
 21
123.825321
 31
0.0
  0
LINE
  8
OBJECT
 10
8.51352
 20
123.825321
 30
0.0
 11
29.38852
 21
123.825321
 31
0.0
  0
LINE
  8
OBJECT
 10
8.51352
 20
97.825321
 30
0.0
 11
29.38852
 21
97.825321
 31
0.0
  0
LINE
  8
HIDDEN
 10
8.66952
 20
97.934696
 30
0.0
 11
29.23252
 21
97.934696
 31
0.0
  0
LINE
  8
HIDDEN
 10
29.279145
 20
97.825321
 30
0.0
 11
29.279145
 21
123.825321
 31
0.0
  0
LINE
  8
HIDDEN
 10
8.622895
 20
97.825321
 30
0.0
 11
8.622895
 21
123.825321
 31
0.0
  0
LINE
  8
HIDDEN
 10
8.66952
 20
123.715946
 30
0.0
 11
29.23252
 21
123.715946
 31
0.0
  0
LINE
  8
OBJECT
 10
36.480129
 20
21.475808
 30
0.0
 11
62.480129
 21
21.475808
 31
0.0
  0
LINE
  8
OBJECT
 10
62.480129
 20
19.850808
 30
0.0
 11
36.480129
 21
19.850808
 31
0.0
  0
LINE
  8
HIDDEN
 10
36.589129
 20
21.366808
 30
0.0
 11
62.371129
 21
21.366808
 31
0.0
  0
LINE
  8
OBJECT
 10
36.480129
 20
19.850808
 30
0.0
 11
36.480129
 21
21.475808
 31
0.0
  0
LINE
  8
HIDDEN
 10
36.589129
 20
19.959808
 30
0.0
 11
36.589129
 21
21.366808
 31
0.0
  0
LINE
  8
HIDDEN
 10
37.074129
 20
19.850808
 30
0.0
 11
37.074129
 21
19.959808
 31
0.0
  0
LINE
  8
HIDDEN
 10
37.074129
 20
19.959808
 30
0.0
 11
36.589129
 21
19.959808
 31
0.0
  0
CIRCLE
  8
HIDDEN
 10
47.923129
 20
20.516808
 30
0.0
 40
0.1875
  0
LINE
  8
OBJECT
 10
62.480129
 20
19.850808
 30
0.0
 11
62.480129
 21
21.475808
 31
0.0
  0
LINE
  8
HIDDEN
 10
62.371129
 20
19.959808
 30
0.0
 11
62.371129
 21
21.366808
 31
0.0
  0
LINE
  8
HIDDEN
 10
61.886129
 20
19.959808
 30
0.0
 11
62.371129
 21
19.959808
 31
0.0
  0
LINE
  8
HIDDEN
 10
61.886129
 20
19.850808
 30
0.0
 11
61.886129
 21
19.959808
 31
0.0
  0
LINE
  8
HIDDEN
 10
8.51352
 20
111.904571
 30
0.0
 11
8.51352
 21
103.982571
 31
0.0
  0
LINE
  8
HIDDEN
 10
42.558542
 20
82.835401
 30
0.0
 11
43.105542
 21
82.835401
 31
0.0
  0
LINE
  8
HIDDEN
 10
43.105542
 20
82.913401
 30
0.0
 11
43.105542
 21
82.835401
 31
0.0
  0
LINE
  8
HIDDEN
 10
49.855542
 20
82.913401
 30
0.0
 11
49.855542
 21
82.835401
 31
0.0
  0
LINE
  8
HIDDEN
 10
42.636542
 20
84.398026
 30
0.0
 11
42.636542
 21
82.913401
 31
0.0
  0
LINE
  8
HIDDEN
 10
42.636542
 20
84.398026
 30
0.0
 11
50.324542
 21
84.398026
 31
0.0
  0
LINE
  8
HIDDEN
 10
49.855542
 20
82.835401
 30
0.0
 11
50.402542
 21
82.835401
 31
0.0
  0
LINE
  8
HIDDEN
 10
49.855542
 20
82.913401
 30
0.0
 11
50.324542
 21
82.913401
 31
0.0
  0
LINE
  8
HIDDEN
 10
50.324542
 20
84.398026
 30
0.0
 11
50.324542
 21
82.913401
 31
0.0
  0
LINE
  8
HIDDEN
 10
42.636542
 20
82.913401
 30
0.0
 11
43.105542
 21
82.913401
 31
0.0
  0
LINE
  8
HIDDEN
 10
8.85727
 20
105.685446
 30
0.0
 11
8.85727
 21
104.873446
 31
0.0
  0
LINE
  8
HIDDEN
 10
9.04477
 20
104.873446
 30
0.0
 11
9.04477
 21
105.685446
 31
0.0
  0
ARC
  8
HIDDEN
 10
8.95102
 20
104.873446
 30
0.0
 40
0.094
 50
175.820349
 51
4.179651
  0
ARC
  8
HIDDEN
 10
8.95102
 20
105.685446
 30
0.0
 40
0.094
 50
355.820349
 51
184.179651
  0
ARC
  8
HIDDEN
 10
8.95102
 20
108.388446
 30
0.0
 40
0.094
 50
355.820349
 51
184.179651
  0
ARC
  8
HIDDEN
 10
8.95102
 20
107.576446
 30
0.0
 40
0.094
 50
175.820349
 51
4.179651
  0
LINE
  8
HIDDEN
 10
9.04477
 20
107.576446
 30
0.0
 11
9.04477
 21
108.388446
 31
0.0
  0
LINE
  8
HIDDEN
 10
8.85727
 20
108.388446
 30
0.0
 11
8.85727
 21
107.576446
 31
0.0
  0
ARC
  8
HIDDEN
 10
8.95102
 20
111.091446
 30
0.0
 40
0.094
 50
355.820349
 51
184.179651
  0
ARC
  8
HIDDEN
 10
8.95102
 20
110.279446
 30
0.0
 40
0.094
 50
175.820349
 51
4.179651
  0
LINE
  8
HIDDEN
 10
9.04477
 20
110.279446
 30
0.0
 11
9.04477
 21
111.091446
 31
0.0
  0
LINE
  8
HIDDEN
 10
8.85727
 20
111.091446
 30
0.0
 11
8.85727
 21
110.279446
 31
0.0
  0
LINE
  8
OBJECT
 10
29.38852
 20
111.904571
 30
0.0
 11
9.40452
 21
111.904571
 31
0.0
  0
LINE
  8
OBJECT
 10
29.38852
 20
104.060571
 30
0.0
 11
9.40452
 21
104.060571
 31
0.0
  0
LINE
  8
HIDDEN
 10
29.38852
 20
82.850808
 30
0.0
 11
28.575645
 21
82.850808
 31
0.0
  0
LINE
  8
HIDDEN
 10
29.38852
 20
104.607571
 30
0.0
 11
8.51352
 21
104.607571
 31
0.0
  0
LINE
  8
HIDDEN
 10
29.38852
 20
111.357571
 30
0.0
 11
8.51352
 21
111.357571
 31
0.0
  0
LINE
  8
HIDDEN
 10
29.38852
 20
104.138696
 30
0.0
 11
8.51352
 21
104.138696
 31
0.0
  0
LINE
  8
HIDDEN
 10
29.38852
 20
111.826446
 30
0.0
 11
8.51352
 21
111.826446
 31
0.0
  0
LINE
  8
OBJECT
 10
29.38852
 20
84.475808
 30
0.0
 11
8.51352
 21
84.475808
 31
0.0
  0
LINE
  8
HIDDEN
 10
29.38852
 20
82.928933
 30
0.0
 11
8.51352
 21
82.928933
 31
0.0
  0
LINE
  8
HIDDEN
 10
29.38852
 20
84.397683
 30
0.0
 11
8.51352
 21
84.397683
 31
0.0
  0
LINE
  8
OBJECT
 10
50.511808
 20
33.31976
 30
0.0
 11
62.324027
 21
21.507541
 31
0.0
  0
LINE
  8
HIDDEN
 10
50.558542
 20
21.554276
 30
0.0
 11
61.542917
 21
21.554276
 31
0.0
  0
LINE
  8
HIDDEN
 10
50.558542
 20
21.554276
 30
0.0
 11
50.558542
 21
32.538651
 31
0.0
  0
LINE
  8
HIDDEN
 10
61.542917
 20
21.476151
 30
0.0
 11
61.542917
 21
21.554276
 31
0.0
  0
LINE
  8
HIDDEN
 10
50.480417
 20
32.538651
 30
0.0
 11
50.558542
 21
32.538651
 31
0.0
  0
LINE
  8
HIDDEN
 10
50.51994
 20
32.781298
 30
0.0
 11
61.785565
 21
21.515673
 31
0.0
  0
LINE
  8
HIDDEN
 10
50.51994
 20
33.201143
 30
0.0
 11
62.20541
 21
21.515673
 31
0.0
  0
LINE
  8
HIDDEN
 10
50.51994
 20
32.781298
 30
0.0
 11
50.51994
 21
33.311628
 31
0.0
  0
LINE
  8
HIDDEN
 10
61.785565
 20
21.515673
 30
0.0
 11
62.315895
 21
21.515673
 31
0.0
  0
LINE
  8
OBJECT
 10
62.324027
 20
21.507541
 30
0.0
 11
62.292636
 21
21.476151
 31
0.0
  0
LINE
  8
OBJECT
 10
50.511808
 20
33.31976
 30
0.0
 11
50.480417
 21
33.288369
 31
0.0
  0
LINE
  8
HIDDEN
 10
9.32677
 20
112.060696
 30
0.0
 11
9.32677
 21
123.779446
 31
0.0
  0
LINE
  8
OBJECT
 10
9.404895
 20
111.982571
 30
0.0
 11
9.404895
 21
123.857571
 31
0.0
  0
LINE
  8
HIDDEN
 10
8.498645
 20
112.060696
 30
0.0
 11
8.498645
 21
123.779446
 31
0.0
  0
LINE
  8
OBJECT
 10
8.42052
 20
111.982571
 30
0.0
 11
8.42052
 21
123.857571
 31
0.0
  0
LINE
  8
HIDDEN
 10
9.32677
 20
112.060696
 30
0.0
 11
8.498645
 21
112.060696
 31
0.0
  0
CIRCLE
  8
HIDDEN
 10
8.90452
 20
112.951321
 30
0.0
 40
0.1875
  0
LINE
  8
OBJECT
 10
9.404895
 20
111.982571
 30
0.0
 11
8.42052
 21
111.982571
 31
0.0
  0
CIRCLE
  8
HIDDEN
 10
8.90452
 20
117.263821
 30
0.0
 40
0.1875
  0
LINE
  8
HIDDEN
 10
8.498645
 20
123.045071
 30
0.0
 11
9.404895
 21
123.045071
 31
0.0
  0
LINE
  8
HIDDEN
 10
9.32677
 20
123.779446
 30
0.0
 11
8.498645
 21
123.779446
 31
0.0
  0
LINE
  8
OBJECT
 10
9.404895
 20
123.857571
 30
0.0
 11
8.42052
 21
123.857571
 31
0.0
  0
CIRCLE
  8
HIDDEN
 10
8.90452
 20
121.576321
 30
0.0
 40
0.1875
  0
LINE
  8
OBJECT
 10
50.417917
 20
21.476151
 30
0.0
 11
50.417917
 21
19.851151
 31
0.0
  0
LINE
  8
OBJECT
 10
42.542917
 20
19.851151
 30
0.0
 11
42.542917
 21
21.476151
 31
0.0
  0
CIRCLE
  8
OBJECT
 10
46.479917
 20
80.476151
 30
0.0
 40
0.1405
  0
CIRCLE
  8
OBJECT
 10
46.479917
 20
32.976151
 30
0.0
 40
0.1405
  0
CIRCLE
  8
OBJECT
 10
43.480917
 20
20.351151
 30
0.0
 40
0.1875
  0
CIRCLE
  8
OBJECT
 10
49.480417
 20
20.351151
 30
0.0
 40
0.1875
  0
CIRCLE
  8
OBJECT
 10
46.480417
 20
20.976151
 30
0.0
 40
0.1875
  0
CIRCLE
  8
OBJECT
 10
49.480417
 20
20.351151
 30
0.0
 40
0.2535
  0
CIRCLE
  8
OBJECT
 10
46.480417
 20
20.976151
 30
0.0
 40
0.2535
  0
CIRCLE
  8
OBJECT
 10
43.480917
 20
20.351151
 30
0.0
 40
0.2535
  0
LINE
  8
OBJECT
 10
8.43552
 20
84.553808
 30
0.0
 11
9.40452
 21
84.553808
 31
0.0
  0
LINE
  8
OBJECT
 10
8.43552
 20
84.553808
 30
0.0
 11
8.43552
 21
19.850808
 31
0.0
  0
LINE
  8
HIDDEN
 10
8.51352
 20
84.475808
 30
0.0
 11
8.51352
 21
21.475808
 31
0.0
  0
LINE
  8
HIDDEN
 10
8.51352
 20
84.475808
 30
0.0
 11
9.40452
 21
84.475808
 31
0.0
  0
TEXT
  8
DIM
 10
82.638597
 20
75.492856
 30
0.0
 40
0.375
  1

  0
LINE
  8
OBJECT
 10
8.43552
 20
19.850808
 30
0.0
 11
8.51352
 21
19.850808
 31
0.0
  0
LINE
  8
HIDDEN
 10
8.51352
 20
104.060571
 30
0.0
 11
8.51352
 21
111.904571
 31
0.0
  0
LINE
  8
OBJECT
 10
9.40452
 20
103.982571
 30
0.0
 11
9.40452
 21
111.982571
 31
0.0
  0
LINE
  8
OBJECT
 10
8.43552
 20
103.982571
 30
0.0
 11
8.43552
 21
111.982571
 31
0.0
  0
LINE
  8
HIDDEN
 10
9.40452
 20
104.357571
 30
0.0
 11
9.98252
 21
104.357571
 31
0.0
  0
LINE
  8
HIDDEN
 10
9.32652
 20
104.435571
 30
0.0
 11
9.98252
 21
104.435571
 31
0.0
  0
LINE
  8
HIDDEN
 10
9.98252
 20
104.357571
 30
0.0
 11
9.98252
 21
104.435571
 31
0.0
  0
LINE
  8
HIDDEN
 10
9.32652
 20
104.060571
 30
0.0
 11
9.32652
 21
104.435571
 31
0.0
  0
LINE
  8
OBJECT
 10
8.43552
 20
103.982571
 30
0.0
 11
9.40452
 21
103.982571
 31
0.0
  0
LINE
  8
HIDDEN
 10
9.32652
 20
111.529571
 30
0.0
 11
9.32652
 21
111.904571
 31
0.0
  0
LINE
  8
HIDDEN
 10
9.98252
 20
111.529571
 30
0.0
 11
9.98252
 21
111.607571
 31
0.0
  0
LINE
  8
HIDDEN
 10
9.32652
 20
111.529571
 30
0.0
 11
9.98252
 21
111.529571
 31
0.0
  0
LINE
  8
HIDDEN
 10
9.40452
 20
111.607571
 30
0.0
 11
9.98252
 21
111.607571
 31
0.0
  0
LINE
  8
OBJECT
 10
9.40452
 20
84.553808
 30
0.0
 11
9.40452
 21
21.475808
 31
0.0
  0
LINE
  8
OBJECT
 10
9.982395
 20
82.850808
 30
0.0
 11
9.982395
 21
21.475808
 31
0.0
  0
CIRCLE
  8
OBJECT
 10
9.794195
 20
80.788308
 30
0.0
 40
0.0805
  0
CIRCLE
  8
OBJECT
 10
9.794195
 20
82.538308
 30
0.0
 40
0.0805
  0
CIRCLE
  8
OBJECT
 10
9.794195
 20
81.288308
 30
0.0
 40
0.0805
  0
CIRCLE
  8
OBJECT
 10
9.794195
 20
81.913308
 30
0.0
 40
0.0805
  0
CIRCLE
  8
OBJECT
 10
9.794195
 20
79.538308
 30
0.0
 40
0.0805
  0
CIRCLE
  8
OBJECT
 10
9.794195
 20
80.163308
 30
0.0
 40
0.0805
  0
CIRCLE
  8
OBJECT
 10
9.794195
 20
77.788308
 30
0.0
 40
0.0805
  0
CIRCLE
  8
OBJECT
 10
9.794195
 20
78.413308
 30
0.0
 40
0.0805
  0
CIRCLE
  8
OBJECT
 10
9.794195
 20
79.038308
 30
0.0
 40
0.0805
  0
CIRCLE
  8
OBJECT
 10
9.794195
 20
76.038308
 30
0.0
 40
0.0805
  0
CIRCLE
  8
OBJECT
 10
9.794195
 20
77.288308
 30
0.0
 40
0.0805
  0
CIRCLE
  8
OBJECT
 10
9.794195
 20
76.663308
 30
0.0
 40
0.0805
  0
CIRCLE
  8
OBJECT
 10
9.794195
 20
75.538308
 30
0.0
 40
0.0805
  0
CIRCLE
  8
OBJECT
 10
9.794195
 20
74.913308
 30
0.0
 40
0.0805
  0
CIRCLE
  8
OBJECT
 10
9.794195
 20
73.788308
 30
0.0
 40
0.0805
  0
CIRCLE
  8
OBJECT
 10
9.794195
 20
73.163308
 30
0.0
 40
0.0805
  0
CIRCLE
  8
OBJECT
 10
9.794195
 20
74.288308
 30
0.0
 40
0.0805
  0
CIRCLE
  8
OBJECT
 10
9.794195
 20
72.538308
 30
0.0
 40
0.0805
  0
CIRCLE
  8
OBJECT
 10
9.794195
 20
72.038308
 30
0.0
 40
0.0805
  0
CIRCLE
  8
OBJECT
 10
9.794195
 20
71.413308
 30
0.0
 40
0.0805
  0
CIRCLE
  8
OBJECT
 10
9.794195
 20
69.663308
 30
0.0
 40
0.0805
  0
CIRCLE
  8
OBJECT
 10
9.794195
 20
70.788308
 30
0.0
 40
0.0805
  0
CIRCLE
  8
OBJECT
 10
9.794195
 20
70.288308
 30
0.0
 40
0.0805
  0
CIRCLE
  8
OBJECT
 10
9.794195
 20
69.038308
 30
0.0
 40
0.0805
  0
CIRCLE
  8
OBJECT
 10
9.794195
 20
68.538308
 30
0.0
 40
0.0805
  0
CIRCLE
  8
OBJECT
 10
9.794195
 20
67.288308
 30
0.0
 40
0.0805
  0
CIRCLE
  8
OBJECT
 10
9.794195
 20
66.788308
 30
0.0
 40
0.0805
  0
CIRCLE
  8
OBJECT
 10
9.794195
 20
67.913308
 30
0.0
 40
0.0805
  0
CIRCLE
  8
OBJECT
 10
9.794195
 20
66.163308
 30
0.0
 40
0.0805
  0
CIRCLE
  8
OBJECT
 10
9.794195
 20
65.538308
 30
0.0
 40
0.0805
  0
CIRCLE
  8
OBJECT
 10
9.794195
 20
65.038308
 30
0.0
 40
0.0805
  0
CIRCLE
  8
OBJECT
 10
9.794195
 20
63.288308
 30
0.0
 40
0.0805
  0
CIRCLE
  8
OBJECT
 10
9.794195
 20
64.413308
 30
0.0
 40
0.0805
  0
CIRCLE
  8
OBJECT
 10
9.794195
 20
63.788308
 30
0.0
 40
0.0805
  0
CIRCLE
  8
OBJECT
 10
9.794195
 20
62.663308
 30
0.0
 40
0.0805
  0
CIRCLE
  8
OBJECT
 10
9.794195
 20
62.038308
 30
0.0
 40
0.0805
  0
CIRCLE
  8
OBJECT
 10
9.794195
 20
60.913308
 30
0.0
 40
0.0805
  0
CIRCLE
  8
OBJECT
 10
9.794195
 20
60.288308
 30
0.0
 40
0.0805
  0
CIRCLE
  8
OBJECT
 10
9.794195
 20
61.538308
 30
0.0
 40
0.0805
  0
CIRCLE
  8
OBJECT
 10
9.794195
 20
59.163308
 30
0.0
 40
0.0805
  0
CIRCLE
  8
OBJECT
 10
9.794195
 20
58.538308
 30
0.0
 40
0.0805
  0
CIRCLE
  8
OBJECT
 10
9.794195
 20
59.788308
 30
0.0
 40
0.0805
  0
CIRCLE
  8
OBJECT
 10
9.794195
 20
56.788308
 30
0.0
 40
0.0805
  0
CIRCLE
  8
OBJECT
 10
9.794195
 20
58.038308
 30
0.0
 40
0.0805
  0
CIRCLE
  8
OBJECT
 10
9.794195
 20
57.413308
 30
0.0
 40
0.0805
  0
CIRCLE
  8
OBJECT
 10
9.794195
 20
56.288308
 30
0.0
 40
0.0805
  0
CIRCLE
  8
OBJECT
 10
9.794195
 20
55.663308
 30
0.0
 40
0.0805
  0
CIRCLE
  8
OBJECT
 10
9.794195
 20
54.538308
 30
0.0
 40
0.0805
  0
CIRCLE
  8
OBJECT
 10
9.794195
 20
53.913308
 30
0.0
 40
0.0805
  0
CIRCLE
  8
OBJECT
 10
9.794195
 20
55.038308
 30
0.0
 40
0.0805
  0
CIRCLE
  8
OBJECT
 10
9.794195
 20
53.288308
 30
0.0
 40
0.0805
  0
CIRCLE
  8
OBJECT
 10
9.794195
 20
52.788308
 30
0.0
 40
0.0805
  0
CIRCLE
  8
OBJECT
 10
9.794195
 20
52.163308
 30
0.0
 40
0.0805
  0
CIRCLE
  8
OBJECT
 10
9.794195
 20
50.413308
 30
0.0
 40
0.0805
  0
CIRCLE
  8
OBJECT
 10
9.794195
 20
51.538308
 30
0.0
 40
0.0805
  0
CIRCLE
  8
OBJECT
 10
9.794195
 20
51.038308
 30
0.0
 40
0.0805
  0
CIRCLE
  8
OBJECT
 10
9.794195
 20
49.788308
 30
0.0
 40
0.0805
  0
CIRCLE
  8
OBJECT
 10
9.794195
 20
49.288308
 30
0.0
 40
0.0805
  0
CIRCLE
  8
OBJECT
 10
9.794195
 20
48.038308
 30
0.0
 40
0.0805
  0
CIRCLE
  8
OBJECT
 10
9.794195
 20
47.538308
 30
0.0
 40
0.0805
  0
CIRCLE
  8
OBJECT
 10
9.794195
 20
48.663308
 30
0.0
 40
0.0805
  0
CIRCLE
  8
OBJECT
 10
9.794195
 20
46.913308
 30
0.0
 40
0.0805
  0
CIRCLE
  8
OBJECT
 10
9.794195
 20
46.288308
 30
0.0
 40
0.0805
  0
CIRCLE
  8
OBJECT
 10
9.794195
 20
45.788308
 30
0.0
 40
0.0805
  0
CIRCLE
  8
OBJECT
 10
9.794195
 20
44.038308
 30
0.0
 40
0.0805
  0
CIRCLE
  8
OBJECT
 10
9.794195
 20
45.163308
 30
0.0
 40
0.0805
  0
CIRCLE
  8
OBJECT
 10
9.794195
 20
44.538308
 30
0.0
 40
0.0805
  0
CIRCLE
  8
OBJECT
 10
9.794195
 20
43.413308
 30
0.0
 40
0.0805
  0
CIRCLE
  8
OBJECT
 10
9.794195
 20
42.788308
 30
0.0
 40
0.0805
  0
CIRCLE
  8
OBJECT
 10
9.794195
 20
41.663308
 30
0.0
 40
0.0805
  0
CIRCLE
  8
OBJECT
 10
9.794195
 20
41.038308
 30
0.0
 40
0.0805
  0
CIRCLE
  8
OBJECT
 10
9.794195
 20
42.288308
 30
0.0
 40
0.0805
  0
CIRCLE
  8
OBJECT
 10
9.794195
 20
40.538308
 30
0.0
 40
0.0805
  0
CIRCLE
  8
OBJECT
 10
9.794195
 20
39.913308
 30
0.0
 40
0.0805
  0
CIRCLE
  8
OBJECT
 10
9.794195
 20
39.288308
 30
0.0
 40
0.0805
  0
CIRCLE
  8
OBJECT
 10
9.794195
 20
37.538308
 30
0.0
 40
0.0805
  0
CIRCLE
  8
OBJECT
 10
9.794195
 20
38.788308
 30
0.0
 40
0.0805
  0
CIRCLE
  8
OBJECT
 10
9.794195
 20
38.163308
 30
0.0
 40
0.0805
  0
CIRCLE
  8
OBJECT
 10
9.794195
 20
37.038308
 30
0.0
 40
0.0805
  0
CIRCLE
  8
OBJECT
 10
9.794195
 20
36.413308
 30
0.0
 40
0.0805
  0
CIRCLE
  8
OBJECT
 10
9.794195
 20
35.288308
 30
0.0
 40
0.0805
  0
CIRCLE
  8
OBJECT
 10
9.794195
 20
34.663308
 30
0.0
 40
0.0805
  0
CIRCLE
  8
OBJECT
 10
9.794195
 20
35.788308
 30
0.0
 40
0.0805
  0
CIRCLE
  8
OBJECT
 10
9.794195
 20
34.038308
 30
0.0
 40
0.0805
  0
CIRCLE
  8
OBJECT
 10
9.794195
 20
33.538308
 30
0.0
 40
0.0805
  0
CIRCLE
  8
OBJECT
 10
9.794195
 20
32.913308
 30
0.0
 40
0.0805
  0
CIRCLE
  8
OBJECT
 10
9.794195
 20
31.163308
 30
0.0
 40
0.0805
  0
CIRCLE
  8
OBJECT
 10
9.794195
 20
32.288308
 30
0.0
 40
0.0805
  0
CIRCLE
  8
OBJECT
 10
9.794195
 20
31.788308
 30
0.0
 40
0.0805
  0
CIRCLE
  8
OBJECT
 10
9.794195
 20
30.538308
 30
0.0
 40
0.0805
  0
CIRCLE
  8
OBJECT
 10
9.794195
 20
30.038308
 30
0.0
 40
0.0805
  0
CIRCLE
  8
OBJECT
 10
9.794195
 20
28.788308
 30
0.0
 40
0.0805
  0
CIRCLE
  8
OBJECT
 10
9.794195
 20
28.288308
 30
0.0
 40
0.0805
  0
CIRCLE
  8
OBJECT
 10
9.794195
 20
29.413308
 30
0.0
 40
0.0805
  0
CIRCLE
  8
OBJECT
 10
9.794195
 20
27.663308
 30
0.0
 40
0.0805
  0
CIRCLE
  8
OBJECT
 10
9.794195
 20
27.038308
 30
0.0
 40
0.0805
  0
CIRCLE
  8
OBJECT
 10
9.794195
 20
26.538308
 30
0.0
 40
0.0805
  0
CIRCLE
  8
OBJECT
 10
9.794195
 20
24.788308
 30
0.0
 40
0.0805
  0
CIRCLE
  8
OBJECT
 10
9.794195
 20
25.913308
 30
0.0
 40
0.0805
  0
CIRCLE
  8
OBJECT
 10
9.794195
 20
25.288308
 30
0.0
 40
0.0805
  0
CIRCLE
  8
OBJECT
 10
9.794195
 20
24.163308
 30
0.0
 40
0.0805
  0
CIRCLE
  8
OBJECT
 10
9.794195
 20
23.538308
 30
0.0
 40
0.0805
  0
CIRCLE
  8
OBJECT
 10
9.794195
 20
22.413308
 30
0.0
 40
0.0805
  0
CIRCLE
  8
OBJECT
 10
9.794195
 20
21.788308
 30
0.0
 40
0.0805
  0
CIRCLE
  8
OBJECT
 10
9.794195
 20
23.038308
 30
0.0
 40
0.0805
  0
LINE
  8
HIDDEN
 10
9.326395
 20
84.553808
 30
0.0
 11
9.326395
 21
21.475808
 31
0.0
  0
LINE
  8
OBJECT
 10
50.480417
 20
84.554151
 30
0.0
 11
42.480417
 21
84.554151
 31
0.0
  0
LINE
  8
OBJECT
 10
50.480417
 20
21.476151
 30
0.0
 11
50.480417
 21
84.554151
 31
0.0
  0
LINE
  8
OBJECT
 10
42.480417
 20
21.476151
 30
0.0
 11
42.480417
 21
84.554151
 31
0.0
  0
LINE
  8
HIDDEN
 10
42.558542
 20
21.476151
 30
0.0
 11
42.558542
 21
84.554151
 31
0.0
  0
LINE
  8
HIDDEN
 10
50.402292
 20
21.476151
 30
0.0
 11
50.402292
 21
84.554151
 31
0.0
  0
LINE
  8
HIDDEN
 10
42.933417
 20
21.476151
 30
0.0
 11
42.933417
 21
82.835401
 31
0.0
  0
LINE
  8
HIDDEN
 10
42.855417
 20
21.476151
 30
0.0
 11
42.855417
 21
82.835401
 31
0.0
  0
LINE
  8
HIDDEN
 10
50.027417
 20
21.476151
 30
0.0
 11
50.027417
 21
82.835401
 31
0.0
  0
LINE
  8
HIDDEN
 10
50.105417
 20
21.476151
 30
0.0
 11
50.105417
 21
82.835401
 31
0.0
  0
LINE
  8
HIDDEN
 10
50.402292
 20
84.476026
 30
0.0
 11
42.558542
 21
84.476026
 31
0.0
  0
LINE
  8
OBJECT
 10
29.46652
 20
84.553808
 30
0.0
 11
29.46652
 21
19.850808
 31
0.0
  0
LINE
  8
HIDDEN
 10
29.38852
 20
84.475808
 30
0.0
 11
29.38852
 21
21.475808
 31
0.0
  0
LINE
  8
OBJECT
 10
27.919645
 20
82.850808
 30
0.0
 11
27.919645
 21
21.475808
 31
0.0
  0
LINE
  8
OBJECT
 10
28.49752
 20
84.553808
 30
0.0
 11
28.49752
 21
21.475808
 31
0.0
  0
LINE
  8
HIDDEN
 10
28.575645
 20
84.553808
 30
0.0
 11
28.575645
 21
21.475808
 31
0.0
  0
CIRCLE
  8
OBJECT
 10
28.106845
 20
37.538308
 30
0.0
 40
0.0805
  0
CIRCLE
  8
OBJECT
 10
28.106845
 20
22.413308
 30
0.0
 40
0.0805
  0
CIRCLE
  8
OBJECT
 10
28.106845
 20
21.788308
 30
0.0
 40
0.0805
  0
CIRCLE
  8
OBJECT
 10
28.106845
 20
24.788308
 30
0.0
 40
0.0805
  0
CIRCLE
  8
OBJECT
 10
28.106845
 20
24.163308
 30
0.0
 40
0.0805
  0
CIRCLE
  8
OBJECT
 10
28.106845
 20
23.538308
 30
0.0
 40
0.0805
  0
CIRCLE
  8
OBJECT
 10
28.106845
 20
23.038308
 30
0.0
 40
0.0805
  0
CIRCLE
  8
OBJECT
 10
28.106845
 20
27.038308
 30
0.0
 40
0.0805
  0
CIRCLE
  8
OBJECT
 10
28.106845
 20
26.538308
 30
0.0
 40
0.0805
  0
CIRCLE
  8
OBJECT
 10
28.106845
 20
25.913308
 30
0.0
 40
0.0805
  0
CIRCLE
  8
OBJECT
 10
28.106845
 20
25.288308
 30
0.0
 40
0.0805
  0
CIRCLE
  8
OBJECT
 10
28.106845
 20
30.038308
 30
0.0
 40
0.0805
  0
CIRCLE
  8
OBJECT
 10
28.106845
 20
28.788308
 30
0.0
 40
0.0805
  0
CIRCLE
  8
OBJECT
 10
28.106845
 20
28.288308
 30
0.0
 40
0.0805
  0
CIRCLE
  8
OBJECT
 10
28.106845
 20
29.413308
 30
0.0
 40
0.0805
  0
CIRCLE
  8
OBJECT
 10
28.106845
 20
27.663308
 30
0.0
 40
0.0805
  0
CIRCLE
  8
OBJECT
 10
28.106845
 20
31.163308
 30
0.0
 40
0.0805
  0
CIRCLE
  8
OBJECT
 10
28.106845
 20
32.288308
 30
0.0
 40
0.0805
  0
CIRCLE
  8
OBJECT
 10
28.106845
 20
31.788308
 30
0.0
 40
0.0805
  0
CIRCLE
  8
OBJECT
 10
28.106845
 20
30.538308
 30
0.0
 40
0.0805
  0
CIRCLE
  8
OBJECT
 10
28.106845
 20
34.663308
 30
0.0
 40
0.0805
  0
CIRCLE
  8
OBJECT
 10
28.106845
 20
34.038308
 30
0.0
 40
0.0805
  0
CIRCLE
  8
OBJECT
 10
28.106845
 20
33.538308
 30
0.0
 40
0.0805
  0
CIRCLE
  8
OBJECT
 10
28.106845
 20
32.913308
 30
0.0
 40
0.0805
  0
CIRCLE
  8
OBJECT
 10
28.106845
 20
37.038308
 30
0.0
 40
0.0805
  0
CIRCLE
  8
OBJECT
 10
28.106845
 20
36.413308
 30
0.0
 40
0.0805
  0
CIRCLE
  8
OBJECT
 10
28.106845
 20
35.288308
 30
0.0
 40
0.0805
  0
CIRCLE
  8
OBJECT
 10
28.106845
 20
35.788308
 30
0.0
 40
0.0805
  0
CIRCLE
  8
OBJECT
 10
28.106845
 20
47.538308
 30
0.0
 40
0.0805
  0
CIRCLE
  8
OBJECT
 10
28.106845
 20
39.913308
 30
0.0
 40
0.0805
  0
CIRCLE
  8
OBJECT
 10
28.106845
 20
39.288308
 30
0.0
 40
0.0805
  0
CIRCLE
  8
OBJECT
 10
28.106845
 20
38.788308
 30
0.0
 40
0.0805
  0
CIRCLE
  8
OBJECT
 10
28.106845
 20
38.163308
 30
0.0
 40
0.0805
  0
CIRCLE
  8
OBJECT
 10
28.106845
 20
41.663308
 30
0.0
 40
0.0805
  0
CIRCLE
  8
OBJECT
 10
28.106845
 20
41.038308
 30
0.0
 40
0.0805
  0
CIRCLE
  8
OBJECT
 10
28.106845
 20
42.288308
 30
0.0
 40
0.0805
  0
CIRCLE
  8
OBJECT
 10
28.106845
 20
40.538308
 30
0.0
 40
0.0805
  0
CIRCLE
  8
OBJECT
 10
28.106845
 20
44.038308
 30
0.0
 40
0.0805
  0
CIRCLE
  8
OBJECT
 10
28.106845
 20
44.538308
 30
0.0
 40
0.0805
  0
CIRCLE
  8
OBJECT
 10
28.106845
 20
43.413308
 30
0.0
 40
0.0805
  0
CIRCLE
  8
OBJECT
 10
28.106845
 20
42.788308
 30
0.0
 40
0.0805
  0
CIRCLE
  8
OBJECT
 10
28.106845
 20
46.913308
 30
0.0
 40
0.0805
  0
CIRCLE
  8
OBJECT
 10
28.106845
 20
46.288308
 30
0.0
 40
0.0805
  0
CIRCLE
  8
OBJECT
 10
28.106845
 20
45.788308
 30
0.0
 40
0.0805
  0
CIRCLE
  8
OBJECT
 10
28.106845
 20
45.163308
 30
0.0
 40
0.0805
  0
CIRCLE
  8
OBJECT
 10
28.106845
 20
49.788308
 30
0.0
 40
0.0805
  0
CIRCLE
  8
OBJECT
 10
28.106845
 20
49.288308
 30
0.0
 40
0.0805
  0
CIRCLE
  8
OBJECT
 10
28.106845
 20
48.038308
 30
0.0
 40
0.0805
  0
CIRCLE
  8
OBJECT
 10
28.106845
 20
48.663308
 30
0.0
 40
0.0805
  0
CIRCLE
  8
OBJECT
 10
28.106845
 20
52.163308
 30
0.0
 40
0.0805
  0
CIRCLE
  8
OBJECT
 10
28.106845
 20
50.413308
 30
0.0
 40
0.0805
  0
CIRCLE
  8
OBJECT
 10
28.106845
 20
51.538308
 30
0.0
 40
0.0805
  0
CIRCLE
  8
OBJECT
 10
28.106845
 20
51.038308
 30
0.0
 40
0.0805
  0
CIRCLE
  8
OBJECT
 10
28.106845
 20
55.038308
 30
0.0
 40
0.0805
  0
CIRCLE
  8
OBJECT
 10
28.106845
 20
54.538308
 30
0.0
 40
0.0805
  0
CIRCLE
  8
OBJECT
 10
28.106845
 20
53.913308
 30
0.0
 40
0.0805
  0
CIRCLE
  8
OBJECT
 10
28.106845
 20
53.288308
 30
0.0
 40
0.0805
  0
CIRCLE
  8
OBJECT
 10
28.106845
 20
52.788308
 30
0.0
 40
0.0805
  0
CIRCLE
  8
OBJECT
 10
28.106845
 20
56.788308
 30
0.0
 40
0.0805
  0
CIRCLE
  8
OBJECT
 10
28.106845
 20
57.413308
 30
0.0
 40
0.0805
  0
CIRCLE
  8
OBJECT
 10
28.106845
 20
56.288308
 30
0.0
 40
0.0805
  0
CIRCLE
  8
OBJECT
 10
28.106845
 20
55.663308
 30
0.0
 40
0.0805
  0
CIRCLE
  8
OBJECT
 10
28.106845
 20
59.163308
 30
0.0
 40
0.0805
  0
CIRCLE
  8
OBJECT
 10
28.106845
 20
58.538308
 30
0.0
 40
0.0805
  0
CIRCLE
  8
OBJECT
 10
28.106845
 20
59.788308
 30
0.0
 40
0.0805
  0
CIRCLE
  8
OBJECT
 10
28.106845
 20
58.038308
 30
0.0
 40
0.0805
  0
CIRCLE
  8
OBJECT
 10
28.106845
 20
62.038308
 30
0.0
 40
0.0805
  0
CIRCLE
  8
OBJECT
 10
28.106845
 20
60.913308
 30
0.0
 40
0.0805
  0
CIRCLE
  8
OBJECT
 10
28.106845
 20
60.288308
 30
0.0
 40
0.0805
  0
CIRCLE
  8
OBJECT
 10
28.106845
 20
61.538308
 30
0.0
 40
0.0805
  0
CIRCLE
  8
OBJECT
 10
28.106845
 20
65.038308
 30
0.0
 40
0.0805
  0
CIRCLE
  8
OBJECT
 10
28.106845
 20
63.288308
 30
0.0
 40
0.0805
  0
CIRCLE
  8
OBJECT
 10
28.106845
 20
64.413308
 30
0.0
 40
0.0805
  0
CIRCLE
  8
OBJECT
 10
28.106845
 20
63.788308
 30
0.0
 40
0.0805
  0
CIRCLE
  8
OBJECT
 10
28.106845
 20
62.663308
 30
0.0
 40
0.0805
  0
CIRCLE
  8
OBJECT
 10
28.106845
 20
67.288308
 30
0.0
 40
0.0805
  0
CIRCLE
  8
OBJECT
 10
28.106845
 20
66.788308
 30
0.0
 40
0.0805
  0
CIRCLE
  8
OBJECT
 10
28.106845
 20
66.163308
 30
0.0
 40
0.0805
  0
CIRCLE
  8
OBJECT
 10
28.106845
 20
65.538308
 30
0.0
 40
0.0805
  0
CIRCLE
  8
OBJECT
 10
28.106845
 20
72.538308
 30
0.0
 40
0.0805
  0
CIRCLE
  8
OBJECT
 10
28.106845
 20
69.663308
 30
0.0
 40
0.0805
  0
CIRCLE
  8
OBJECT
 10
28.106845
 20
69.038308
 30
0.0
 40
0.0805
  0
CIRCLE
  8
OBJECT
 10
28.106845
 20
68.538308
 30
0.0
 40
0.0805
  0
CIRCLE
  8
OBJECT
 10
28.106845
 20
67.913308
 30
0.0
 40
0.0805
  0
CIRCLE
  8
OBJECT
 10
28.106845
 20
72.038308
 30
0.0
 40
0.0805
  0
CIRCLE
  8
OBJECT
 10
28.106845
 20
71.413308
 30
0.0
 40
0.0805
  0
CIRCLE
  8
OBJECT
 10
28.106845
 20
70.788308
 30
0.0
 40
0.0805
  0
CIRCLE
  8
OBJECT
 10
28.106845
 20
70.288308
 30
0.0
 40
0.0805
  0
CIRCLE
  8
OBJECT
 10
28.106845
 20
74.913308
 30
0.0
 40
0.0805
  0
CIRCLE
  8
OBJECT
 10
28.106845
 20
73.788308
 30
0.0
 40
0.0805
  0
CIRCLE
  8
OBJECT
 10
28.106845
 20
73.163308
 30
0.0
 40
0.0805
  0
CIRCLE
  8
OBJECT
 10
28.106845
 20
74.288308
 30
0.0
 40
0.0805
  0
CIRCLE
  8
OBJECT
 10
28.106845
 20
76.038308
 30
0.0
 40
0.0805
  0
CIRCLE
  8
OBJECT
 10
28.106845
 20
77.288308
 30
0.0
 40
0.0805
  0
CIRCLE
  8
OBJECT
 10
28.106845
 20
76.663308
 30
0.0
 40
0.0805
  0
CIRCLE
  8
OBJECT
 10
28.106845
 20
75.538308
 30
0.0
 40
0.0805
  0
CIRCLE
  8
OBJECT
 10
28.106845
 20
82.538308
 30
0.0
 40
0.0805
  0
CIRCLE
  8
OBJECT
 10
28.106845
 20
79.538308
 30
0.0
 40
0.0805
  0
CIRCLE
  8
OBJECT
 10
28.106845
 20
77.788308
 30
0.0
 40
0.0805
  0
CIRCLE
  8
OBJECT
 10
28.106845
 20
78.413308
 30
0.0
 40
0.0805
  0
CIRCLE
  8
OBJECT
 10
28.106845
 20
79.038308
 30
0.0
 40
0.0805
  0
CIRCLE
  8
OBJECT
 10
28.106845
 20
80.788308
 30
0.0
 40
0.0805
  0
CIRCLE
  8
OBJECT
 10
28.106845
 20
81.288308
 30
0.0
 40
0.0805
  0
CIRCLE
  8
OBJECT
 10
28.106845
 20
81.913308
 30
0.0
 40
0.0805
  0
CIRCLE
  8
OBJECT
 10
28.106845
 20
80.163308
 30
0.0
 40
0.0805
  0
LINE
  8
OBJECT
 10
29.46652
 20
84.553808
 30
0.0
 11
28.49752
 21
84.553808
 31
0.0
  0
LINE
  8
HIDDEN
 10
29.38852
 20
84.475808
 30
0.0
 11
28.49752
 21
84.475808
 31
0.0
  0
LINE
  8
OBJECT
 10
29.46652
 20
19.850808
 30
0.0
 11
29.38852
 21
19.850808
 31
0.0
  0
LINE
  8
HIDDEN
 10
9.40452
 20
104.060571
 30
0.0
 11
8.51352
 21
104.060571
 31
0.0
  0
LINE
  8
HIDDEN
 10
9.40452
 20
111.904571
 30
0.0
 11
8.51352
 21
111.904571
 31
0.0
  0
LINE
  8
HIDDEN
 10
28.57527
 20
112.060696
 30
0.0
 11
28.57527
 21
123.779446
 31
0.0
  0
LINE
  8
OBJECT
 10
28.497145
 20
111.982571
 30
0.0
 11
28.497145
 21
123.857571
 31
0.0
  0
LINE
  8
HIDDEN
 10
29.403395
 20
112.060696
 30
0.0
 11
29.403395
 21
123.779446
 31
0.0
  0
LINE
  8
OBJECT
 10
29.48152
 20
111.982571
 30
0.0
 11
29.48152
 21
123.857571
 31
0.0
  0
LINE
  8
HIDDEN
 10
29.38852
 20
111.904571
 30
0.0
 11
29.38852
 21
103.982571
 31
0.0
  0
LINE
  8
HIDDEN
 10
29.38852
 20
104.060571
 30
0.0
 11
29.38852
 21
111.904571
 31
0.0
  0
LINE
  8
OBJECT
 10
28.49752
 20
103.982571
 30
0.0
 11
28.49752
 21
111.982571
 31
0.0
  0
LINE
  8
OBJECT
 10
29.46652
 20
103.982571
 30
0.0
 11
29.46652
 21
111.982571
 31
0.0
  0
LINE
  8
HIDDEN
 10
28.57552
 20
104.435571
 30
0.0
 11
27.91952
 21
104.435571
 31
0.0
  0
LINE
  8
HIDDEN
 10
28.49752
 20
104.357571
 30
0.0
 11
27.91952
 21
104.357571
 31
0.0
  0
LINE
  8
HIDDEN
 10
28.49752
 20
104.060571
 30
0.0
 11
29.38852
 21
104.060571
 31
0.0
  0
ARC
  8
HIDDEN
 10
28.95102
 20
105.685446
 30
0.0
 40
0.094
 50
355.820349
 51
184.179651
  0
ARC
  8
HIDDEN
 10
28.95102
 20
104.873446
 30
0.0
 40
0.094
 50
175.820349
 51
4.179651
  0
LINE
  8
HIDDEN
 10
29.04477
 20
105.685446
 30
0.0
 11
29.04477
 21
104.873446
 31
0.0
  0
LINE
  8
HIDDEN
 10
28.85727
 20
104.873446
 30
0.0
 11
28.85727
 21
105.685446
 31
0.0
  0
LINE
  8
HIDDEN
 10
28.57552
 20
104.060571
 30
0.0
 11
28.57552
 21
104.435571
 31
0.0
  0
LINE
  8
OBJECT
 10
29.46652
 20
103.982571
 30
0.0
 11
28.49752
 21
103.982571
 31
0.0
  0
LINE
  8
HIDDEN
 10
27.91952
 20
104.357571
 30
0.0
 11
27.91952
 21
104.435571
 31
0.0
  0
LINE
  8
HIDDEN
 10
29.04477
 20
111.091446
 30
0.0
 11
29.04477
 21
110.279446
 31
0.0
  0
LINE
  8
HIDDEN
 10
28.85727
 20
110.279446
 30
0.0
 11
28.85727
 21
111.091446
 31
0.0
  0
ARC
  8
HIDDEN
 10
28.95102
 20
108.388446
 30
0.0
 40
0.094
 50
355.820349
 51
184.179651
  0
ARC
  8
HIDDEN
 10
28.95102
 20
107.576446
 30
0.0
 40
0.094
 50
175.820349
 51
4.179651
  0
LINE
  8
HIDDEN
 10
29.04477
 20
108.388446
 30
0.0
 11
29.04477
 21
107.576446
 31
0.0
  0
LINE
  8
HIDDEN
 10
28.85727
 20
107.576446
 30
0.0
 11
28.85727
 21
108.388446
 31
0.0
  0
ARC
  8
HIDDEN
 10
28.95102
 20
110.279446
 30
0.0
 40
0.094
 50
175.820349
 51
4.179651
  0
LINE
  8
HIDDEN
 10
28.49752
 20
111.607571
 30
0.0
 11
27.91952
 21
111.607571
 31
0.0
  0
LINE
  8
HIDDEN
 10
28.57552
 20
111.529571
 30
0.0
 11
27.91952
 21
111.529571
 31
0.0
  0
CIRCLE
  8
HIDDEN
 10
28.99752
 20
112.951321
 30
0.0
 40
0.1875
  0
LINE
  8
HIDDEN
 10
28.49752
 20
111.904571
 30
0.0
 11
29.38852
 21
111.904571
 31
0.0
  0
ARC
  8
HIDDEN
 10
28.95102
 20
111.091446
 30
0.0
 40
0.094
 50
355.820349
 51
184.179651
  0
LINE
  8
HIDDEN
 10
28.57552
 20
111.529571
 30
0.0
 11
28.57552
 21
111.904571
 31
0.0
  0
LINE
  8
HIDDEN
 10
28.57527
 20
112.060696
 30
0.0
 11
29.403395
 21
112.060696
 31
0.0
  0
LINE
  8
OBJECT
 10
28.497145
 20
111.982571
 30
0.0
 11
29.48152
 21
111.982571
 31
0.0
  0
LINE
  8
HIDDEN
 10
27.91952
 20
111.529571
 30
0.0
 11
27.91952
 21
111.607571
 31
0.0
  0
CIRCLE
  8
HIDDEN
 10
28.99752
 20
117.263821
 30
0.0
 40
0.1875
  0
LINE
  8
HIDDEN
 10
29.403395
 20
123.045071
 30
0.0
 11
28.497145
 21
123.045071
 31
0.0
  0
CIRCLE
  8
HIDDEN
 10
28.99752
 20
121.576321
 30
0.0
 40
0.1875
  0
LINE
  8
HIDDEN
 10
28.57527
 20
123.779446
 30
0.0
 11
29.403395
 21
123.779446
 31
0.0
  0
LINE
  8
OBJECT
 10
28.497145
 20
123.857571
 30
0.0
 11
29.48152
 21
123.857571
 31
0.0
  0
LINE
  8
HIDDEN
 10
29.23252
 20
123.825321
 30
0.0
 11
29.23252
 21
123.715946
 31
0.0
  0
TEXT
  8
TEXT
 10
45.831873
 20
128.160247
 30
0.0
 40
1.125
  1
%%UMATERIAL:
 41
0.75
  7
TXT
  0
TEXT
  8
TEXT
 10
46.938732
 20
126.285247
 30
0.0
 40
1.125
  1
BASE
 41
0.75
  7
TXT
  0
TEXT
  8
TEXT
 10
46.938732
 20
124.410247
 30
0.0
 40
1.125
  1
SUPPORT ANGLE & RAIL ASSEMBLY
 41
0.75
  7
TXT
  0
TEXT
  8
TEXT
 10
45.831873
 20
114.043903
 30
0.0
 40
1.125
  1
PANEL MOUNTING FLANGES RECESSED 3/8 IN. AND
 41
0.75
  7
TXT
  0
TEXT
  8
TEXT
 10
47.950172
 20
112.222528
 30
0.0
 40
1.125
  1
TAPPED #10-32 ON E.I.A. UNIVERSAL SPACING.
 41
0.75
  7
TXT
  0
TEXT
  8
TEXT
 10
45.831873
 20
110.347528
 30
0.0
 40
1.125
  1
MOUNTING HOLES PIERCED IN BASE FOR #RC-7758 CASTERS.
 41
0.75
  7
TXT
  0
CIRCLE
  8
OBJECT
 10
52.40218
 20
23.439614
 30
0.0
 40
0.1875
  0
DIMENSION
  8
DIM
  2
*D3
 10
27.918645
 20
71.52119
 30
0.0
 11
18.95052
 21
71.52119
 31
0.0
 12
-93.456246
 22
22.527843
 32
0.0
 13
9.982395
 23
71.362921
 33
0.0
 14
27.918645
 24
71.362921
 34
0.0
  3
23NSTD
  0
DIMENSION
  8
DIM
  2
*D4
 10
28.106845
 20
74.945921
 30
0.0
 11
18.95102
 21
74.945921
 31
0.0
 12
-93.456246
 22
22.527843
 32
0.0
 13
9.795195
 23
73.788308
 33
0.0
 14
28.106845
 24
73.163308
 34
0.0
  3
23NSTD
  0
DIMENSION
  8
DIM
  2
*D17
 10
65.674424
 20
88.937808
 30
0.0
 11
76.189924
 21
88.937808
 31
0.0
 12
0.0
 22
3.920858
 32
0.0
 13
86.705424
 23
84.553808
 33
0.0
 14
65.674424
 24
84.553808
 34
0.0
  3
23NSTD
  0
DIMENSION
  8
DIM
  2
*D10
 10
32.66533
 20
123.825321
 30
0.0
 11
32.66533
 21
110.825321
 31
0.0
 12
-93.456246
 22
4.581372
 32
0.0
 13
29.38852
 23
97.825321
 33
0.0
 14
29.38852
 24
123.825321
 34
0.0
 50
90.0
  3
23NSTD
  0
DIMENSION
  8
DIM
  2
*D11
 10
32.66533
 20
84.553808
 30
0.0
 11
32.66533
 21
52.202308
 31
0.0
 12
-93.456246
 22
1.527843
 32
0.0
  1
B
 13
29.38852
 23
19.850808
 33
0.0
 14
29.46652
 24
84.553808
 34
0.0
 50
270.0
  3
23NSTD
  0
DIMENSION
  8
DIM
  2
*D2
 10
4.709513
 20
82.850808
 30
0.0
 11
4.709513
 21
52.163308
 31
0.0
 12
-93.456246
 22
1.527843
 32
0.0
  1
A
 13
8.51352
 23
21.475808
 33
0.0
 14
8.51352
 24
82.850808
 34
0.0
 50
90.0
  3
23NSTD
  0
DIMENSION
  8
DIM
  2
*D12
 10
42.480417
 20
17.859079
 30
0.0
 11
39.480273
 21
17.859079
 31
0.0
 12
-93.456246
 22
1.527843
 32
0.0
 13
36.480129
 23
21.475808
 33
0.0
 14
42.480417
 24
21.476151
 34
0.0
  3
23NSTDI
  0
DIMENSION
  8
DIM
  2
*D1
 10
4.709513
 20
84.553808
 30
0.0
 11
4.709513
 21
83.702308
 31
0.0
 12
-93.456246
 22
1.527843
 32
0.0
 13
8.43552
 23
82.850808
 33
0.0
 14
8.43552
 24
84.553808
 34
0.0
 50
90.0
  3
23NSTDI
  0
DIMENSION
  8
DIM
  2
*D13
 10
66.643424
 20
78.180423
 30
0.0
 11
76.189924
 21
78.180423
 31
0.0
 12
1.65158
 22
3.920858
 32
0.0
 13
85.736424
 23
76.199811
 33
0.0
 14
66.643424
 24
76.199811
 34
0.0
  3
23NSTD
  0
DIMENSION
  8
DIM
  2
*D8
 10
8.51352
 20
93.441321
 30
0.0
 11
18.95102
 21
93.441321
 31
0.0
 12
-93.456246
 22
-0.857297
 32
0.0
 13
29.38852
 23
97.825321
 33
0.0
 14
8.51352
 24
97.825321
 34
0.0
  3
23NSTD
  0
TEXT
  8
TEXT
 10
77.415896
 20
124.410247
 30
0.0
 40
1.125
  1
14 GA. STEEL
 41
0.75
  7
TXT
  0
TEXT
  8
TEXT
 10
77.415896
 20
126.285247
 30
0.0
 40
1.125
  1
12 GA. STEEL
 41
0.75
  7
TXT
  0
LINE
  8
TEXT
 10
76.674914
 20
124.410247
 30
0.0
 11
71.27676
 21
124.410247
 31
0.0
  0
LINE
  8
TEXT
 10
76.674914
 20
126.285247
 30
0.0
 11
51.179045
 21
126.285247
 31
0.0
  0
TEXT
  8
TEXT
 10
45.831873
 20
120.660247
 30
0.0
 40
1.125
  1
%%UFINISH:%%U METALLIC GRAY OR
 41
0.75
  7
TXT
  0
TEXT
  8
TEXT
 10
51.485502
 20
118.785247
 30
0.0
 40
1.125
  1
BLACK TEXTURED
 41
0.75
  7
TXT
  0
INSERT
  8
TITLE
  2
HB
 10
0.0
 20
0.0
 30
0.0
 41
9.0
 42
9.0
 43
9.0
  0
LINE
  8
TITLE
 10
90.522
 20
2.433
 30
0.0
 11
0.558
 21
2.433
 31
0.0
  0
LINE
  8
TITLE
 10
90.522
 20
4.308
 30
0.0
 11
0.558
 21
4.308
 31
0.0
  0
LINE
  8
TITLE
 10
90.522
 20
6.183
 30
0.0
 11
0.558
 21
6.183
 31
0.0
  0
LINE
  8
TITLE
 10
90.522
 20
8.9955
 30
0.0
 11
0.558
 21
8.9955
 31
0.0
  0
LINE
  8
TITLE
 10
8.397
 20
8.9955
 30
0.0
 11
8.397
 21
0.558
 31
0.0
  0
TEXT
  8
TEXT
 10
1.805625
 20
4.683
 30
0.0
 40
1.125
  1
RR-1367
 41
0.75
  7
TXT
 72
     4
 11
4.4775
 21
5.2455
 31
0.0
  0
TEXT
  8
TEXT
 10
1.805625
 20
2.808
 30
0.0
 40
1.125
  1
RR-1368
 41
0.75
  7
TXT
 72
     4
 11
4.4775
 21
3.3705
 31
0.0
  0
TEXT
  8
TEXT
 10
1.805625
 20
0.933
 30
0.0
 40
1.125
  1
RR-1369
 41
0.75
  7
TXT
 72
     4
 11
4.4775
 21
1.4955
 31
0.0
  0
TEXT
  8
TEXT
 10
1.524375
 20
7.02675
 30
0.0
 40
1.125
  1
PART No.
 41
0.75
  7
TXT
 72
     4
 11
4.4775
 21
7.58925
 31
0.0
  0
LINE
  8
TITLE
 10
49.4595
 20
8.9955
 30
0.0
 11
49.4595
 21
0.558
 31
0.0
  0
TEXT
  8
TEXT
 10
28.647
 20
7.02675
 30
0.0
 40
1.125
  1
A
 41
0.75
  7
TXT
 72
     4
 11
28.92825
 21
7.58925
 31
0.0
  0
TEXT
  8
TEXT
 10
69.7095
 20
7.02675
 30
0.0
 40
1.125
  1
B
 41
0.75
  7
TXT
 72
     4
 11
69.99075
 21
7.58925
 31
0.0
  0
TEXT
  8
TEXT
 10
26.9595
 20
4.683
 30
0.0
 40
1.125
  1
61.375
 41
0.75
  7
TXT
 72
     4
 11
28.92825
 21
5.2455
 31
0.0
  0
TEXT
  8
TEXT
 10
27.029812
 20
2.808
 30
0.0
 40
1.125
  1
70.125
 41
0.75
  7
TXT
 72
     4
 11
28.92825
 21
3.3705
 31
0.0
  0
TEXT
  8
TEXT
 10
26.9595
 20
0.933
 30
0.0
 40
1.125
  1
77.125
 41
0.75
  7
TXT
 72
     4
 11
28.92825
 21
1.4955
 31
0.0
  0
TEXT
  8
TEXT
 10
67.951687
 20
4.683
 30
0.0
 40
1.125
  1
64.703
 41
0.75
  7
TXT
 72
     4
 11
69.99075
 21
5.2455
 31
0.0
  0
TEXT
  8
TEXT
 10
67.881375
 20
2.808
 30
0.0
 40
1.125
  1
73.453
 41
0.75
  7
TXT
 72
     4
 11
69.99075
 21
3.3705
 31
0.0
  0
TEXT
  8
TEXT
 10
67.951687
 20
0.933
 30
0.0
 40
1.125
  1
80.453
 41
0.75
  7
TXT
 72
     4
 11
69.99075
 21
1.4955
 31
0.0
  0
TEXT
  8
TEXT
 10
18.689625
 20
136.357875
 30
0.0
 40
1.40625
  1
OPEN RELAY RACK
 41
0.75
  7
TXT
 72
     4
 11
26.424
 21
137.061
 31
0.0
  0
TEXT
  8
TEXT
 10
61.665469
 20
136.357875
 30
0.0
 40
1.40625
  1
RR-1367  TO  RR-1369
 41
0.75
  7
TXT
 72
     4
 11
71.685
 21
137.061
 31
0.0
  0
TEXT
  8
TEXT
 10
45.831873
 20
108.472528
 30
0.0
 40
1.125
  1
UNIT SHIPPED UNASSEMBLED.
 41
0.75
  7
TXT
  0
CIRCLE
  8
OBJECT
 10
9.795195
 20
22.413308
 30
0.0
 40
0.0805
  0
CIRCLE
  8
OBJECT
 10
9.795195
 20
21.788308
 30
0.0
 40
0.0805
  0
CIRCLE
  8
OBJECT
 10
9.795195
 20
23.538308
 30
0.0
 40
0.0805
  0
CIRCLE
  8
OBJECT
 10
9.795195
 20
24.163308
 30
0.0
 40
0.0805
  0
CIRCLE
  8
OBJECT
 10
9.795195
 20
24.788308
 30
0.0
 40
0.0805
  0
CIRCLE
  8
OBJECT
 10
9.795195
 20
23.038308
 30
0.0
 40
0.0805
  0
CIRCLE
  8
OBJECT
 10
9.795195
 20
34.663308
 30
0.0
 40
0.0805
  0
CIRCLE
  8
OBJECT
 10
9.795195
 20
26.538308
 30
0.0
 40
0.0805
  0
CIRCLE
  8
OBJECT
 10
9.795195
 20
27.038308
 30
0.0
 40
0.0805
  0
CIRCLE
  8
OBJECT
 10
9.795195
 20
25.288308
 30
0.0
 40
0.0805
  0
CIRCLE
  8
OBJECT
 10
9.795195
 20
25.913308
 30
0.0
 40
0.0805
  0
CIRCLE
  8
OBJECT
 10
9.795195
 20
29.413308
 30
0.0
 40
0.0805
  0
CIRCLE
  8
OBJECT
 10
9.795195
 20
27.663308
 30
0.0
 40
0.0805
  0
CIRCLE
  8
OBJECT
 10
9.795195
 20
28.288308
 30
0.0
 40
0.0805
  0
CIRCLE
  8
OBJECT
 10
9.795195
 20
28.788308
 30
0.0
 40
0.0805
  0
CIRCLE
  8
OBJECT
 10
9.795195
 20
32.288308
 30
0.0
 40
0.0805
  0
CIRCLE
  8
OBJECT
 10
9.795195
 20
30.538308
 30
0.0
 40
0.0805
  0
CIRCLE
  8
OBJECT
 10
9.795195
 20
30.038308
 30
0.0
 40
0.0805
  0
CIRCLE
  8
OBJECT
 10
9.795195
 20
31.163308
 30
0.0
 40
0.0805
  0
CIRCLE
  8
OBJECT
 10
9.795195
 20
31.788308
 30
0.0
 40
0.0805
  0
CIRCLE
  8
OBJECT
 10
9.795195
 20
32.913308
 30
0.0
 40
0.0805
  0
CIRCLE
  8
OBJECT
 10
9.795195
 20
34.038308
 30
0.0
 40
0.0805
  0
CIRCLE
  8
OBJECT
 10
9.795195
 20
33.538308
 30
0.0
 40
0.0805
  0
CIRCLE
  8
OBJECT
 10
9.795195
 20
37.038308
 30
0.0
 40
0.0805
  0
CIRCLE
  8
OBJECT
 10
9.795195
 20
35.288308
 30
0.0
 40
0.0805
  0
CIRCLE
  8
OBJECT
 10
9.795195
 20
35.788308
 30
0.0
 40
0.0805
  0
CIRCLE
  8
OBJECT
 10
9.795195
 20
36.413308
 30
0.0
 40
0.0805
  0
CIRCLE
  8
OBJECT
 10
9.795195
 20
38.163308
 30
0.0
 40
0.0805
  0
CIRCLE
  8
OBJECT
 10
9.795195
 20
39.288308
 30
0.0
 40
0.0805
  0
CIRCLE
  8
OBJECT
 10
9.795195
 20
38.788308
 30
0.0
 40
0.0805
  0
CIRCLE
  8
OBJECT
 10
9.795195
 20
37.538308
 30
0.0
 40
0.0805
  0
CIRCLE
  8
OBJECT
 10
9.795195
 20
41.038308
 30
0.0
 40
0.0805
  0
CIRCLE
  8
OBJECT
 10
9.795195
 20
41.663308
 30
0.0
 40
0.0805
  0
CIRCLE
  8
OBJECT
 10
9.795195
 20
39.913308
 30
0.0
 40
0.0805
  0
CIRCLE
  8
OBJECT
 10
9.795195
 20
40.538308
 30
0.0
 40
0.0805
  0
CIRCLE
  8
OBJECT
 10
9.795195
 20
44.038308
 30
0.0
 40
0.0805
  0
CIRCLE
  8
OBJECT
 10
9.795195
 20
42.788308
 30
0.0
 40
0.0805
  0
CIRCLE
  8
OBJECT
 10
9.795195
 20
42.288308
 30
0.0
 40
0.0805
  0
CIRCLE
  8
OBJECT
 10
9.795195
 20
43.413308
 30
0.0
 40
0.0805
  0
CIRCLE
  8
OBJECT
 10
9.795195
 20
49.288308
 30
0.0
 40
0.0805
  0
CIRCLE
  8
OBJECT
 10
9.795195
 20
46.913308
 30
0.0
 40
0.0805
  0
CIRCLE
  8
OBJECT
 10
9.795195
 20
44.538308
 30
0.0
 40
0.0805
  0
CIRCLE
  8
OBJECT
 10
9.795195
 20
45.163308
 30
0.0
 40
0.0805
  0
CIRCLE
  8
OBJECT
 10
9.795195
 20
45.788308
 30
0.0
 40
0.0805
  0
CIRCLE
  8
OBJECT
 10
9.795195
 20
46.288308
 30
0.0
 40
0.0805
  0
CIRCLE
  8
OBJECT
 10
9.795195
 20
48.038308
 30
0.0
 40
0.0805
  0
CIRCLE
  8
OBJECT
 10
9.795195
 20
47.538308
 30
0.0
 40
0.0805
  0
CIRCLE
  8
OBJECT
 10
9.795195
 20
48.663308
 30
0.0
 40
0.0805
  0
CIRCLE
  8
OBJECT
 10
9.795195
 20
49.788308
 30
0.0
 40
0.0805
  0
CIRCLE
  8
OBJECT
 10
9.795195
 20
50.413308
 30
0.0
 40
0.0805
  0
CIRCLE
  8
OBJECT
 10
9.795195
 20
51.538308
 30
0.0
 40
0.0805
  0
CIRCLE
  8
OBJECT
 10
9.795195
 20
51.038308
 30
0.0
 40
0.0805
  0
CIRCLE
  8
OBJECT
 10
9.795195
 20
52.788308
 30
0.0
 40
0.0805
  0
CIRCLE
  8
OBJECT
 10
9.795195
 20
52.163308
 30
0.0
 40
0.0805
  0
CIRCLE
  8
OBJECT
 10
9.795195
 20
53.913308
 30
0.0
 40
0.0805
  0
CIRCLE
  8
OBJECT
 10
9.795195
 20
53.288308
 30
0.0
 40
0.0805
  0
CIRCLE
  8
OBJECT
 10
9.795195
 20
55.038308
 30
0.0
 40
0.0805
  0
CIRCLE
  8
OBJECT
 10
9.795195
 20
55.663308
 30
0.0
 40
0.0805
  0
CIRCLE
  8
OBJECT
 10
9.795195
 20
56.288308
 30
0.0
 40
0.0805
  0
CIRCLE
  8
OBJECT
 10
9.795195
 20
54.538308
 30
0.0
 40
0.0805
  0
CIRCLE
  8
OBJECT
 10
9.795195
 20
58.038308
 30
0.0
 40
0.0805
  0
CIRCLE
  8
OBJECT
 10
9.795195
 20
58.538308
 30
0.0
 40
0.0805
  0
CIRCLE
  8
OBJECT
 10
9.795195
 20
56.788308
 30
0.0
 40
0.0805
  0
CIRCLE
  8
OBJECT
 10
9.795195
 20
57.413308
 30
0.0
 40
0.0805
  0
CIRCLE
  8
OBJECT
 10
9.795195
 20
60.913308
 30
0.0
 40
0.0805
  0
CIRCLE
  8
OBJECT
 10
9.795195
 20
59.788308
 30
0.0
 40
0.0805
  0
CIRCLE
  8
OBJECT
 10
9.795195
 20
59.163308
 30
0.0
 40
0.0805
  0
CIRCLE
  8
OBJECT
 10
9.795195
 20
60.288308
 30
0.0
 40
0.0805
  0
CIRCLE
  8
OBJECT
 10
9.795195
 20
63.788308
 30
0.0
 40
0.0805
  0
CIRCLE
  8
OBJECT
 10
9.795195
 20
61.538308
 30
0.0
 40
0.0805
  0
CIRCLE
  8
OBJECT
 10
9.795195
 20
62.663308
 30
0.0
 40
0.0805
  0
CIRCLE
  8
OBJECT
 10
9.795195
 20
62.038308
 30
0.0
 40
0.0805
  0
CIRCLE
  8
OBJECT
 10
9.795195
 20
63.288308
 30
0.0
 40
0.0805
  0
CIRCLE
  8
OBJECT
 10
9.795195
 20
65.538308
 30
0.0
 40
0.0805
  0
CIRCLE
  8
OBJECT
 10
9.795195
 20
64.413308
 30
0.0
 40
0.0805
  0
CIRCLE
  8
OBJECT
 10
9.795195
 20
65.038308
 30
0.0
 40
0.0805
  0
CIRCLE
  8
OBJECT
 10
9.795195
 20
66.163308
 30
0.0
 40
0.0805
  0
CIRCLE
  8
OBJECT
 10
9.795195
 20
67.288308
 30
0.0
 40
0.0805
  0
CIRCLE
  8
OBJECT
 10
9.795195
 20
66.788308
 30
0.0
 40
0.0805
  0
CIRCLE
  8
OBJECT
 10
9.795195
 20
67.913308
 30
0.0
 40
0.0805
  0
CIRCLE
  8
OBJECT
 10
9.795195
 20
68.538308
 30
0.0
 40
0.0805
  0
CIRCLE
  8
OBJECT
 10
9.795195
 20
69.663308
 30
0.0
 40
0.0805
  0
CIRCLE
  8
OBJECT
 10
9.795195
 20
70.288308
 30
0.0
 40
0.0805
  0
CIRCLE
  8
OBJECT
 10
9.795195
 20
70.788308
 30
0.0
 40
0.0805
  0
CIRCLE
  8
OBJECT
 10
9.795195
 20
69.038308
 30
0.0
 40
0.0805
  0
CIRCLE
  8
OBJECT
 10
9.795195
 20
72.538308
 30
0.0
 40
0.0805
  0
CIRCLE
  8
OBJECT
 10
9.795195
 20
73.163308
 30
0.0
 40
0.0805
  0
CIRCLE
  8
OBJECT
 10
9.795195
 20
71.413308
 30
0.0
 40
0.0805
  0
CIRCLE
  8
OBJECT
 10
9.795195
 20
72.038308
 30
0.0
 40
0.0805
  0
CIRCLE
  8
OBJECT
 10
9.795195
 20
76.038308
 30
0.0
 40
0.0805
  0
CIRCLE
  8
OBJECT
 10
9.795195
 20
75.538308
 30
0.0
 40
0.0805
  0
CIRCLE
  8
OBJECT
 10
9.795195
 20
73.788308
 30
0.0
 40
0.0805
  0
CIRCLE
  8
OBJECT
 10
9.795195
 20
74.288308
 30
0.0
 40
0.0805
  0
CIRCLE
  8
OBJECT
 10
9.795195
 20
74.913308
 30
0.0
 40
0.0805
  0
CIRCLE
  8
OBJECT
 10
9.795195
 20
78.413308
 30
0.0
 40
0.0805
  0
CIRCLE
  8
OBJECT
 10
9.795195
 20
77.288308
 30
0.0
 40
0.0805
  0
CIRCLE
  8
OBJECT
 10
9.795195
 20
76.663308
 30
0.0
 40
0.0805
  0
CIRCLE
  8
OBJECT
 10
9.795195
 20
77.788308
 30
0.0
 40
0.0805
  0
CIRCLE
  8
OBJECT
 10
9.795195
 20
79.038308
 30
0.0
 40
0.0805
  0
CIRCLE
  8
OBJECT
 10
9.795195
 20
80.163308
 30
0.0
 40
0.0805
  0
CIRCLE
  8
OBJECT
 10
9.795195
 20
79.538308
 30
0.0
 40
0.0805
  0
CIRCLE
  8
OBJECT
 10
9.795195
 20
80.788308
 30
0.0
 40
0.0805
  0
CIRCLE
  8
OBJECT
 10
9.795195
 20
81.288308
 30
0.0
 40
0.0805
  0
CIRCLE
  8
OBJECT
 10
9.795195
 20
81.913308
 30
0.0
 40
0.0805
  0
CIRCLE
  8
OBJECT
 10
9.795195
 20
82.538308
 30
0.0
 40
0.0805
  0
LINE
  8
OBJECT
 10
86.705424
 20
84.553808
 30
0.0
 11
85.736424
 21
84.553808
 31
0.0
  0
LINE
  8
HIDDEN
 10
86.627424
 20
84.475808
 30
0.0
 11
85.736424
 21
84.475808
 31
0.0
  0
LINE
  8
HIDDEN
 10
65.752424
 20
82.850808
 30
0.0
 11
66.565299
 21
82.850808
 31
0.0
  0
LINE
  8
OBJECT
 10
65.752424
 20
84.475808
 30
0.0
 11
86.627424
 21
84.475808
 31
0.0
  0
LINE
  8
HIDDEN
 10
65.752424
 20
82.928933
 30
0.0
 11
86.627424
 21
82.928933
 31
0.0
  0
LINE
  8
HIDDEN
 10
65.752424
 20
84.397683
 30
0.0
 11
86.627424
 21
84.397683
 31
0.0
  0
LINE
  8
OBJECT
 10
65.752424
 20
21.475808
 30
0.0
 11
86.627424
 21
21.475808
 31
0.0
  0
LINE
  8
HIDDEN
 10
65.861424
 20
21.366808
 30
0.0
 11
86.518424
 21
21.366808
 31
0.0
  0
LINE
  8
OBJECT
 10
86.627424
 20
19.850808
 30
0.0
 11
65.752424
 21
19.850808
 31
0.0
  0
LINE
  8
OBJECT
 10
86.705424
 20
84.553808
 30
0.0
 11
86.705424
 21
19.850808
 31
0.0
  0
LINE
  8
HIDDEN
 10
86.627424
 20
84.475808
 30
0.0
 11
86.627424
 21
21.475808
 31
0.0
  0
LINE
  8
HIDDEN
 10
86.518424
 20
19.850808
 30
0.0
 11
86.518424
 21
21.366808
 31
0.0
  0
LINE
  8
OBJECT
 10
86.627424
 20
19.850808
 30
0.0
 11
86.627424
 21
21.475808
 31
0.0
  0
LINE
  8
OBJECT
 10
86.705424
 20
19.850808
 30
0.0
 11
86.627424
 21
19.850808
 31
0.0
  0
LINE
  8
OBJECT
 10
85.736424
 20
84.553808
 30
0.0
 11
85.736424
 21
21.475808
 31
0.0
  0
LINE
  8
OBJECT
 10
85.158549
 20
82.850808
 30
0.0
 11
85.158549
 21
21.475808
 31
0.0
  0
LINE
  8
HIDDEN
 10
85.814549
 20
84.553808
 30
0.0
 11
85.814549
 21
21.475808
 31
0.0
  0
LINE
  8
OBJECT
 10
65.674424
 20
84.553808
 30
0.0
 11
65.674424
 21
19.850808
 31
0.0
  0
LINE
  8
HIDDEN
 10
65.752424
 20
84.475808
 30
0.0
 11
65.752424
 21
21.475808
 31
0.0
  0
LINE
  8
OBJECT
 10
67.221299
 20
82.850808
 30
0.0
 11
67.221299
 21
21.475808
 31
0.0
  0
LINE
  8
OBJECT
 10
66.643424
 20
84.553808
 30
0.0
 11
66.643424
 21
21.475808
 31
0.0
  0
LINE
  8
HIDDEN
 10
66.565299
 20
84.553808
 30
0.0
 11
66.565299
 21
21.475808
 31
0.0
  0
CIRCLE
  8
OBJECT
 10
85.345749
 20
22.413308
 30
0.0
 40
0.0805
  0
CIRCLE
  8
OBJECT
 10
85.346749
 20
22.413308
 30
0.0
 40
0.0805
  0
CIRCLE
  8
OBJECT
 10
85.345749
 20
21.788308
 30
0.0
 40
0.0805
  0
CIRCLE
  8
OBJECT
 10
85.346749
 20
21.788308
 30
0.0
 40
0.0805
  0
CIRCLE
  8
OBJECT
 10
85.345749
 20
23.038308
 30
0.0
 40
0.0805
  0
CIRCLE
  8
OBJECT
 10
85.345749
 20
24.788308
 30
0.0
 40
0.0805
  0
CIRCLE
  8
OBJECT
 10
85.345749
 20
24.163308
 30
0.0
 40
0.0805
  0
CIRCLE
  8
OBJECT
 10
85.345749
 20
23.538308
 30
0.0
 40
0.0805
  0
CIRCLE
  8
OBJECT
 10
85.346749
 20
23.538308
 30
0.0
 40
0.0805
  0
CIRCLE
  8
OBJECT
 10
85.346749
 20
24.163308
 30
0.0
 40
0.0805
  0
CIRCLE
  8
OBJECT
 10
85.346749
 20
24.788308
 30
0.0
 40
0.0805
  0
CIRCLE
  8
OBJECT
 10
85.346749
 20
23.038308
 30
0.0
 40
0.0805
  0
LINE
  8
OBJECT
 10
65.752424
 20
19.850808
 30
0.0
 11
65.752424
 21
21.475808
 31
0.0
  0
LINE
  8
HIDDEN
 10
65.861424
 20
19.850808
 30
0.0
 11
65.861424
 21
21.366808
 31
0.0
  0
LINE
  8
OBJECT
 10
65.674424
 20
19.850808
 30
0.0
 11
65.752424
 21
19.850808
 31
0.0
  0
CIRCLE
  8
OBJECT
 10
67.034099
 20
22.413308
 30
0.0
 40
0.0805
  0
CIRCLE
  8
OBJECT
 10
67.034099
 20
21.788308
 30
0.0
 40
0.0805
  0
CIRCLE
  8
OBJECT
 10
67.034099
 20
23.038308
 30
0.0
 40
0.0805
  0
CIRCLE
  8
OBJECT
 10
67.034099
 20
24.788308
 30
0.0
 40
0.0805
  0
CIRCLE
  8
OBJECT
 10
67.034099
 20
23.538308
 30
0.0
 40
0.0805
  0
CIRCLE
  8
OBJECT
 10
67.034099
 20
24.163308
 30
0.0
 40
0.0805
  0
CIRCLE
  8
OBJECT
 10
85.345749
 20
34.663308
 30
0.0
 40
0.0805
  0
CIRCLE
  8
OBJECT
 10
85.346749
 20
34.663308
 30
0.0
 40
0.0805
  0
CIRCLE
  8
OBJECT
 10
85.345749
 20
25.913308
 30
0.0
 40
0.0805
  0
CIRCLE
  8
OBJECT
 10
85.345749
 20
25.288308
 30
0.0
 40
0.0805
  0
CIRCLE
  8
OBJECT
 10
85.345749
 20
27.038308
 30
0.0
 40
0.0805
  0
CIRCLE
  8
OBJECT
 10
85.345749
 20
26.538308
 30
0.0
 40
0.0805
  0
CIRCLE
  8
OBJECT
 10
85.346749
 20
26.538308
 30
0.0
 40
0.0805
  0
CIRCLE
  8
OBJECT
 10
85.346749
 20
27.038308
 30
0.0
 40
0.0805
  0
CIRCLE
  8
OBJECT
 10
85.346749
 20
25.288308
 30
0.0
 40
0.0805
  0
CIRCLE
  8
OBJECT
 10
85.346749
 20
25.913308
 30
0.0
 40
0.0805
  0
CIRCLE
  8
OBJECT
 10
85.345749
 20
28.788308
 30
0.0
 40
0.0805
  0
CIRCLE
  8
OBJECT
 10
85.345749
 20
28.288308
 30
0.0
 40
0.0805
  0
CIRCLE
  8
OBJECT
 10
85.345749
 20
27.663308
 30
0.0
 40
0.0805
  0
CIRCLE
  8
OBJECT
 10
85.345749
 20
29.413308
 30
0.0
 40
0.0805
  0
CIRCLE
  8
OBJECT
 10
85.346749
 20
29.413308
 30
0.0
 40
0.0805
  0
CIRCLE
  8
OBJECT
 10
85.346749
 20
27.663308
 30
0.0
 40
0.0805
  0
CIRCLE
  8
OBJECT
 10
85.346749
 20
28.288308
 30
0.0
 40
0.0805
  0
CIRCLE
  8
OBJECT
 10
85.346749
 20
28.788308
 30
0.0
 40
0.0805
  0
CIRCLE
  8
OBJECT
 10
85.345749
 20
32.288308
 30
0.0
 40
0.0805
  0
CIRCLE
  8
OBJECT
 10
85.346749
 20
32.288308
 30
0.0
 40
0.0805
  0
CIRCLE
  8
OBJECT
 10
85.345749
 20
31.788308
 30
0.0
 40
0.0805
  0
CIRCLE
  8
OBJECT
 10
85.345749
 20
31.163308
 30
0.0
 40
0.0805
  0
CIRCLE
  8
OBJECT
 10
85.345749
 20
30.038308
 30
0.0
 40
0.0805
  0
CIRCLE
  8
OBJECT
 10
85.345749
 20
30.538308
 30
0.0
 40
0.0805
  0
CIRCLE
  8
OBJECT
 10
85.346749
 20
30.538308
 30
0.0
 40
0.0805
  0
CIRCLE
  8
OBJECT
 10
85.346749
 20
30.038308
 30
0.0
 40
0.0805
  0
CIRCLE
  8
OBJECT
 10
85.346749
 20
31.163308
 30
0.0
 40
0.0805
  0
CIRCLE
  8
OBJECT
 10
85.346749
 20
31.788308
 30
0.0
 40
0.0805
  0
CIRCLE
  8
OBJECT
 10
85.345749
 20
33.538308
 30
0.0
 40
0.0805
  0
CIRCLE
  8
OBJECT
 10
85.345749
 20
34.038308
 30
0.0
 40
0.0805
  0
CIRCLE
  8
OBJECT
 10
85.345749
 20
32.913308
 30
0.0
 40
0.0805
  0
CIRCLE
  8
OBJECT
 10
85.346749
 20
32.913308
 30
0.0
 40
0.0805
  0
CIRCLE
  8
OBJECT
 10
85.346749
 20
34.038308
 30
0.0
 40
0.0805
  0
CIRCLE
  8
OBJECT
 10
85.346749
 20
33.538308
 30
0.0
 40
0.0805
  0
CIRCLE
  8
OBJECT
 10
85.345749
 20
37.038308
 30
0.0
 40
0.0805
  0
CIRCLE
  8
OBJECT
 10
85.346749
 20
37.038308
 30
0.0
 40
0.0805
  0
CIRCLE
  8
OBJECT
 10
85.345749
 20
36.413308
 30
0.0
 40
0.0805
  0
CIRCLE
  8
OBJECT
 10
85.345749
 20
35.788308
 30
0.0
 40
0.0805
  0
CIRCLE
  8
OBJECT
 10
85.345749
 20
35.288308
 30
0.0
 40
0.0805
  0
CIRCLE
  8
OBJECT
 10
85.346749
 20
35.288308
 30
0.0
 40
0.0805
  0
CIRCLE
  8
OBJECT
 10
85.346749
 20
35.788308
 30
0.0
 40
0.0805
  0
CIRCLE
  8
OBJECT
 10
85.346749
 20
36.413308
 30
0.0
 40
0.0805
  0
CIRCLE
  8
OBJECT
 10
85.345749
 20
37.538308
 30
0.0
 40
0.0805
  0
CIRCLE
  8
OBJECT
 10
85.345749
 20
38.788308
 30
0.0
 40
0.0805
  0
CIRCLE
  8
OBJECT
 10
85.345749
 20
39.288308
 30
0.0
 40
0.0805
  0
CIRCLE
  8
OBJECT
 10
85.345749
 20
38.163308
 30
0.0
 40
0.0805
  0
CIRCLE
  8
OBJECT
 10
85.346749
 20
38.163308
 30
0.0
 40
0.0805
  0
CIRCLE
  8
OBJECT
 10
85.346749
 20
39.288308
 30
0.0
 40
0.0805
  0
CIRCLE
  8
OBJECT
 10
85.346749
 20
38.788308
 30
0.0
 40
0.0805
  0
CIRCLE
  8
OBJECT
 10
85.346749
 20
37.538308
 30
0.0
 40
0.0805
  0
CIRCLE
  8
OBJECT
 10
85.345749
 20
40.538308
 30
0.0
 40
0.0805
  0
CIRCLE
  8
OBJECT
 10
85.345749
 20
39.913308
 30
0.0
 40
0.0805
  0
CIRCLE
  8
OBJECT
 10
85.345749
 20
41.663308
 30
0.0
 40
0.0805
  0
CIRCLE
  8
OBJECT
 10
85.345749
 20
41.038308
 30
0.0
 40
0.0805
  0
CIRCLE
  8
OBJECT
 10
85.346749
 20
41.038308
 30
0.0
 40
0.0805
  0
CIRCLE
  8
OBJECT
 10
85.346749
 20
41.663308
 30
0.0
 40
0.0805
  0
CIRCLE
  8
OBJECT
 10
85.346749
 20
39.913308
 30
0.0
 40
0.0805
  0
CIRCLE
  8
OBJECT
 10
85.346749
 20
40.538308
 30
0.0
 40
0.0805
  0
CIRCLE
  8
OBJECT
 10
85.345749
 20
43.413308
 30
0.0
 40
0.0805
  0
CIRCLE
  8
OBJECT
 10
85.345749
 20
42.288308
 30
0.0
 40
0.0805
  0
CIRCLE
  8
OBJECT
 10
85.345749
 20
42.788308
 30
0.0
 40
0.0805
  0
CIRCLE
  8
OBJECT
 10
85.345749
 20
44.038308
 30
0.0
 40
0.0805
  0
CIRCLE
  8
OBJECT
 10
85.346749
 20
44.038308
 30
0.0
 40
0.0805
  0
CIRCLE
  8
OBJECT
 10
85.346749
 20
42.788308
 30
0.0
 40
0.0805
  0
CIRCLE
  8
OBJECT
 10
85.346749
 20
42.288308
 30
0.0
 40
0.0805
  0
CIRCLE
  8
OBJECT
 10
85.346749
 20
43.413308
 30
0.0
 40
0.0805
  0
CIRCLE
  8
OBJECT
 10
67.034099
 20
34.663308
 30
0.0
 40
0.0805
  0
CIRCLE
  8
OBJECT
 10
67.034099
 20
25.913308
 30
0.0
 40
0.0805
  0
CIRCLE
  8
OBJECT
 10
67.034099
 20
25.288308
 30
0.0
 40
0.0805
  0
CIRCLE
  8
OBJECT
 10
67.034099
 20
27.038308
 30
0.0
 40
0.0805
  0
CIRCLE
  8
OBJECT
 10
67.034099
 20
26.538308
 30
0.0
 40
0.0805
  0
CIRCLE
  8
OBJECT
 10
67.034099
 20
28.788308
 30
0.0
 40
0.0805
  0
CIRCLE
  8
OBJECT
 10
67.034099
 20
28.288308
 30
0.0
 40
0.0805
  0
CIRCLE
  8
OBJECT
 10
67.034099
 20
27.663308
 30
0.0
 40
0.0805
  0
CIRCLE
  8
OBJECT
 10
67.034099
 20
29.413308
 30
0.0
 40
0.0805
  0
CIRCLE
  8
OBJECT
 10
67.034099
 20
32.288308
 30
0.0
 40
0.0805
  0
CIRCLE
  8
OBJECT
 10
67.034099
 20
31.788308
 30
0.0
 40
0.0805
  0
CIRCLE
  8
OBJECT
 10
67.034099
 20
31.163308
 30
0.0
 40
0.0805
  0
CIRCLE
  8
OBJECT
 10
67.034099
 20
30.038308
 30
0.0
 40
0.0805
  0
CIRCLE
  8
OBJECT
 10
67.034099
 20
30.538308
 30
0.0
 40
0.0805
  0
CIRCLE
  8
OBJECT
 10
67.034099
 20
33.538308
 30
0.0
 40
0.0805
  0
CIRCLE
  8
OBJECT
 10
67.034099
 20
34.038308
 30
0.0
 40
0.0805
  0
CIRCLE
  8
OBJECT
 10
67.034099
 20
32.913308
 30
0.0
 40
0.0805
  0
CIRCLE
  8
OBJECT
 10
67.034099
 20
37.038308
 30
0.0
 40
0.0805
  0
CIRCLE
  8
OBJECT
 10
67.034099
 20
36.413308
 30
0.0
 40
0.0805
  0
CIRCLE
  8
OBJECT
 10
67.034099
 20
35.788308
 30
0.0
 40
0.0805
  0
CIRCLE
  8
OBJECT
 10
67.034099
 20
35.288308
 30
0.0
 40
0.0805
  0
CIRCLE
  8
OBJECT
 10
67.034099
 20
37.538308
 30
0.0
 40
0.0805
  0
CIRCLE
  8
OBJECT
 10
67.034099
 20
38.788308
 30
0.0
 40
0.0805
  0
CIRCLE
  8
OBJECT
 10
67.034099
 20
39.288308
 30
0.0
 40
0.0805
  0
CIRCLE
  8
OBJECT
 10
67.034099
 20
38.163308
 30
0.0
 40
0.0805
  0
CIRCLE
  8
OBJECT
 10
67.034099
 20
40.538308
 30
0.0
 40
0.0805
  0
CIRCLE
  8
OBJECT
 10
67.034099
 20
39.913308
 30
0.0
 40
0.0805
  0
CIRCLE
  8
OBJECT
 10
67.034099
 20
41.038308
 30
0.0
 40
0.0805
  0
CIRCLE
  8
OBJECT
 10
67.034099
 20
41.663308
 30
0.0
 40
0.0805
  0
CIRCLE
  8
OBJECT
 10
67.034099
 20
43.413308
 30
0.0
 40
0.0805
  0
CIRCLE
  8
OBJECT
 10
67.034099
 20
42.788308
 30
0.0
 40
0.0805
  0
CIRCLE
  8
OBJECT
 10
67.034099
 20
42.288308
 30
0.0
 40
0.0805
  0
CIRCLE
  8
OBJECT
 10
67.034099
 20
44.038308
 30
0.0
 40
0.0805
  0
DIMENSION
  8
DIM
  2
*D5
 10
67.034099
 20
74.945921
 30
0.0
 11
76.189924
 21
74.945921
 31
0.0
 12
-98.916514
 22
22.527843
 32
0.0
 13
85.345749
 23
73.788308
 33
0.0
 14
67.034099
 24
73.163308
 34
0.0
  3
23NSTD
  0
DIMENSION
  8
DIM
  2
*D6
 10
67.222299
 20
71.52119
 30
0.0
 11
76.190424
 21
71.52119
 31
0.0
 12
-98.916514
 22
22.527843
 32
0.0
 13
85.158549
 23
71.362921
 33
0.0
 14
67.222299
 24
71.362921
 34
0.0
  3
23NSTD
  0
DIMENSION
  8
DIM
  2
*D15
 10
28.49752
 20
88.937808
 30
0.0
 11
18.95102
 21
88.937808
 31
0.0
 12
0.0
 22
3.920858
 32
0.0
 13
9.40452
 23
84.553808
 33
0.0
 14
28.49752
 24
84.553808
 34
0.0
  3
23NSTD
  0
CIRCLE
  8
OBJECT
 10
85.345749
 20
49.288308
 30
0.0
 40
0.0805
  0
CIRCLE
  8
OBJECT
 10
85.346749
 20
49.288308
 30
0.0
 40
0.0805
  0
CIRCLE
  8
OBJECT
 10
85.345749
 20
46.913308
 30
0.0
 40
0.0805
  0
CIRCLE
  8
OBJECT
 10
85.346749
 20
46.913308
 30
0.0
 40
0.0805
  0
CIRCLE
  8
OBJECT
 10
85.345749
 20
46.288308
 30
0.0
 40
0.0805
  0
CIRCLE
  8
OBJECT
 10
85.345749
 20
45.788308
 30
0.0
 40
0.0805
  0
CIRCLE
  8
OBJECT
 10
85.345749
 20
45.163308
 30
0.0
 40
0.0805
  0
CIRCLE
  8
OBJECT
 10
85.345749
 20
44.538308
 30
0.0
 40
0.0805
  0
CIRCLE
  8
OBJECT
 10
85.346749
 20
44.538308
 30
0.0
 40
0.0805
  0
CIRCLE
  8
OBJECT
 10
85.346749
 20
45.163308
 30
0.0
 40
0.0805
  0
CIRCLE
  8
OBJECT
 10
85.346749
 20
45.788308
 30
0.0
 40
0.0805
  0
CIRCLE
  8
OBJECT
 10
85.346749
 20
46.288308
 30
0.0
 40
0.0805
  0
CIRCLE
  8
OBJECT
 10
85.345749
 20
48.663308
 30
0.0
 40
0.0805
  0
CIRCLE
  8
OBJECT
 10
85.345749
 20
47.538308
 30
0.0
 40
0.0805
  0
CIRCLE
  8
OBJECT
 10
85.345749
 20
48.038308
 30
0.0
 40
0.0805
  0
CIRCLE
  8
OBJECT
 10
85.346749
 20
48.038308
 30
0.0
 40
0.0805
  0
CIRCLE
  8
OBJECT
 10
85.346749
 20
47.538308
 30
0.0
 40
0.0805
  0
CIRCLE
  8
OBJECT
 10
85.346749
 20
48.663308
 30
0.0
 40
0.0805
  0
CIRCLE
  8
OBJECT
 10
85.345749
 20
51.038308
 30
0.0
 40
0.0805
  0
CIRCLE
  8
OBJECT
 10
85.345749
 20
51.538308
 30
0.0
 40
0.0805
  0
CIRCLE
  8
OBJECT
 10
85.345749
 20
50.413308
 30
0.0
 40
0.0805
  0
CIRCLE
  8
OBJECT
 10
85.345749
 20
49.788308
 30
0.0
 40
0.0805
  0
CIRCLE
  8
OBJECT
 10
85.346749
 20
49.788308
 30
0.0
 40
0.0805
  0
CIRCLE
  8
OBJECT
 10
85.346749
 20
50.413308
 30
0.0
 40
0.0805
  0
CIRCLE
  8
OBJECT
 10
85.346749
 20
51.538308
 30
0.0
 40
0.0805
  0
CIRCLE
  8
OBJECT
 10
85.346749
 20
51.038308
 30
0.0
 40
0.0805
  0
CIRCLE
  8
OBJECT
 10
85.345749
 20
53.288308
 30
0.0
 40
0.0805
  0
CIRCLE
  8
OBJECT
 10
85.345749
 20
53.913308
 30
0.0
 40
0.0805
  0
CIRCLE
  8
OBJECT
 10
85.345749
 20
52.163308
 30
0.0
 40
0.0805
  0
CIRCLE
  8
OBJECT
 10
85.345749
 20
52.788308
 30
0.0
 40
0.0805
  0
CIRCLE
  8
OBJECT
 10
85.346749
 20
52.788308
 30
0.0
 40
0.0805
  0
CIRCLE
  8
OBJECT
 10
85.346749
 20
52.163308
 30
0.0
 40
0.0805
  0
CIRCLE
  8
OBJECT
 10
85.346749
 20
53.913308
 30
0.0
 40
0.0805
  0
CIRCLE
  8
OBJECT
 10
85.346749
 20
53.288308
 30
0.0
 40
0.0805
  0
CIRCLE
  8
OBJECT
 10
85.345749
 20
54.538308
 30
0.0
 40
0.0805
  0
CIRCLE
  8
OBJECT
 10
85.345749
 20
56.288308
 30
0.0
 40
0.0805
  0
CIRCLE
  8
OBJECT
 10
85.345749
 20
55.663308
 30
0.0
 40
0.0805
  0
CIRCLE
  8
OBJECT
 10
85.345749
 20
55.038308
 30
0.0
 40
0.0805
  0
CIRCLE
  8
OBJECT
 10
85.346749
 20
55.038308
 30
0.0
 40
0.0805
  0
CIRCLE
  8
OBJECT
 10
85.346749
 20
55.663308
 30
0.0
 40
0.0805
  0
CIRCLE
  8
OBJECT
 10
85.346749
 20
56.288308
 30
0.0
 40
0.0805
  0
CIRCLE
  8
OBJECT
 10
85.346749
 20
54.538308
 30
0.0
 40
0.0805
  0
CIRCLE
  8
OBJECT
 10
85.345749
 20
57.413308
 30
0.0
 40
0.0805
  0
CIRCLE
  8
OBJECT
 10
85.345749
 20
56.788308
 30
0.0
 40
0.0805
  0
CIRCLE
  8
OBJECT
 10
85.345749
 20
58.538308
 30
0.0
 40
0.0805
  0
CIRCLE
  8
OBJECT
 10
85.345749
 20
58.038308
 30
0.0
 40
0.0805
  0
CIRCLE
  8
OBJECT
 10
85.346749
 20
58.038308
 30
0.0
 40
0.0805
  0
CIRCLE
  8
OBJECT
 10
85.346749
 20
58.538308
 30
0.0
 40
0.0805
  0
CIRCLE
  8
OBJECT
 10
85.346749
 20
56.788308
 30
0.0
 40
0.0805
  0
CIRCLE
  8
OBJECT
 10
85.346749
 20
57.413308
 30
0.0
 40
0.0805
  0
CIRCLE
  8
OBJECT
 10
85.345749
 20
60.288308
 30
0.0
 40
0.0805
  0
CIRCLE
  8
OBJECT
 10
85.345749
 20
59.163308
 30
0.0
 40
0.0805
  0
CIRCLE
  8
OBJECT
 10
85.345749
 20
59.788308
 30
0.0
 40
0.0805
  0
CIRCLE
  8
OBJECT
 10
85.345749
 20
60.913308
 30
0.0
 40
0.0805
  0
CIRCLE
  8
OBJECT
 10
85.346749
 20
60.913308
 30
0.0
 40
0.0805
  0
CIRCLE
  8
OBJECT
 10
85.346749
 20
59.788308
 30
0.0
 40
0.0805
  0
CIRCLE
  8
OBJECT
 10
85.346749
 20
59.163308
 30
0.0
 40
0.0805
  0
CIRCLE
  8
OBJECT
 10
85.346749
 20
60.288308
 30
0.0
 40
0.0805
  0
CIRCLE
  8
OBJECT
 10
85.345749
 20
63.288308
 30
0.0
 40
0.0805
  0
CIRCLE
  8
OBJECT
 10
85.345749
 20
62.038308
 30
0.0
 40
0.0805
  0
CIRCLE
  8
OBJECT
 10
85.345749
 20
62.663308
 30
0.0
 40
0.0805
  0
CIRCLE
  8
OBJECT
 10
85.345749
 20
61.538308
 30
0.0
 40
0.0805
  0
CIRCLE
  8
OBJECT
 10
85.345749
 20
63.788308
 30
0.0
 40
0.0805
  0
CIRCLE
  8
OBJECT
 10
85.346749
 20
63.788308
 30
0.0
 40
0.0805
  0
CIRCLE
  8
OBJECT
 10
85.346749
 20
61.538308
 30
0.0
 40
0.0805
  0
CIRCLE
  8
OBJECT
 10
85.346749
 20
62.663308
 30
0.0
 40
0.0805
  0
CIRCLE
  8
OBJECT
 10
85.346749
 20
62.038308
 30
0.0
 40
0.0805
  0
CIRCLE
  8
OBJECT
 10
85.346749
 20
63.288308
 30
0.0
 40
0.0805
  0
CIRCLE
  8
OBJECT
 10
67.034099
 20
49.288308
 30
0.0
 40
0.0805
  0
CIRCLE
  8
OBJECT
 10
67.034099
 20
46.913308
 30
0.0
 40
0.0805
  0
CIRCLE
  8
OBJECT
 10
67.034099
 20
46.288308
 30
0.0
 40
0.0805
  0
CIRCLE
  8
OBJECT
 10
67.034099
 20
45.788308
 30
0.0
 40
0.0805
  0
CIRCLE
  8
OBJECT
 10
67.034099
 20
45.163308
 30
0.0
 40
0.0805
  0
CIRCLE
  8
OBJECT
 10
67.034099
 20
44.538308
 30
0.0
 40
0.0805
  0
CIRCLE
  8
OBJECT
 10
67.034099
 20
48.663308
 30
0.0
 40
0.0805
  0
CIRCLE
  8
OBJECT
 10
67.034099
 20
47.538308
 30
0.0
 40
0.0805
  0
CIRCLE
  8
OBJECT
 10
67.034099
 20
48.038308
 30
0.0
 40
0.0805
  0
CIRCLE
  8
OBJECT
 10
67.034099
 20
51.038308
 30
0.0
 40
0.0805
  0
CIRCLE
  8
OBJECT
 10
67.034099
 20
51.538308
 30
0.0
 40
0.0805
  0
CIRCLE
  8
OBJECT
 10
67.034099
 20
50.413308
 30
0.0
 40
0.0805
  0
CIRCLE
  8
OBJECT
 10
67.034099
 20
49.788308
 30
0.0
 40
0.0805
  0
CIRCLE
  8
OBJECT
 10
67.034099
 20
53.288308
 30
0.0
 40
0.0805
  0
CIRCLE
  8
OBJECT
 10
67.034099
 20
53.913308
 30
0.0
 40
0.0805
  0
CIRCLE
  8
OBJECT
 10
67.034099
 20
52.788308
 30
0.0
 40
0.0805
  0
CIRCLE
  8
OBJECT
 10
67.034099
 20
52.163308
 30
0.0
 40
0.0805
  0
CIRCLE
  8
OBJECT
 10
67.034099
 20
54.538308
 30
0.0
 40
0.0805
  0
CIRCLE
  8
OBJECT
 10
67.034099
 20
56.288308
 30
0.0
 40
0.0805
  0
CIRCLE
  8
OBJECT
 10
67.034099
 20
55.663308
 30
0.0
 40
0.0805
  0
CIRCLE
  8
OBJECT
 10
67.034099
 20
55.038308
 30
0.0
 40
0.0805
  0
CIRCLE
  8
OBJECT
 10
67.034099
 20
57.413308
 30
0.0
 40
0.0805
  0
CIRCLE
  8
OBJECT
 10
67.034099
 20
56.788308
 30
0.0
 40
0.0805
  0
CIRCLE
  8
OBJECT
 10
67.034099
 20
58.538308
 30
0.0
 40
0.0805
  0
CIRCLE
  8
OBJECT
 10
67.034099
 20
58.038308
 30
0.0
 40
0.0805
  0
CIRCLE
  8
OBJECT
 10
67.034099
 20
60.288308
 30
0.0
 40
0.0805
  0
CIRCLE
  8
OBJECT
 10
67.034099
 20
59.163308
 30
0.0
 40
0.0805
  0
CIRCLE
  8
OBJECT
 10
67.034099
 20
59.788308
 30
0.0
 40
0.0805
  0
CIRCLE
  8
OBJECT
 10
67.034099
 20
60.913308
 30
0.0
 40
0.0805
  0
CIRCLE
  8
OBJECT
 10
67.034099
 20
63.288308
 30
0.0
 40
0.0805
  0
CIRCLE
  8
OBJECT
 10
67.034099
 20
62.663308
 30
0.0
 40
0.0805
  0
CIRCLE
  8
OBJECT
 10
67.034099
 20
62.038308
 30
0.0
 40
0.0805
  0
CIRCLE
  8
OBJECT
 10
67.034099
 20
61.538308
 30
0.0
 40
0.0805
  0
CIRCLE
  8
OBJECT
 10
67.034099
 20
63.788308
 30
0.0
 40
0.0805
  0
CIRCLE
  8
OBJECT
 10
85.345749
 20
66.163308
 30
0.0
 40
0.0805
  0
CIRCLE
  8
OBJECT
 10
85.345749
 20
65.038308
 30
0.0
 40
0.0805
  0
CIRCLE
  8
OBJECT
 10
85.345749
 20
64.413308
 30
0.0
 40
0.0805
  0
CIRCLE
  8
OBJECT
 10
85.345749
 20
65.538308
 30
0.0
 40
0.0805
  0
CIRCLE
  8
OBJECT
 10
85.346749
 20
65.538308
 30
0.0
 40
0.0805
  0
CIRCLE
  8
OBJECT
 10
85.346749
 20
64.413308
 30
0.0
 40
0.0805
  0
CIRCLE
  8
OBJECT
 10
85.346749
 20
65.038308
 30
0.0
 40
0.0805
  0
CIRCLE
  8
OBJECT
 10
85.346749
 20
66.163308
 30
0.0
 40
0.0805
  0
CIRCLE
  8
OBJECT
 10
85.345749
 20
68.538308
 30
0.0
 40
0.0805
  0
CIRCLE
  8
OBJECT
 10
85.345749
 20
67.913308
 30
0.0
 40
0.0805
  0
CIRCLE
  8
OBJECT
 10
85.345749
 20
66.788308
 30
0.0
 40
0.0805
  0
CIRCLE
  8
OBJECT
 10
85.345749
 20
67.288308
 30
0.0
 40
0.0805
  0
CIRCLE
  8
OBJECT
 10
85.346749
 20
67.288308
 30
0.0
 40
0.0805
  0
CIRCLE
  8
OBJECT
 10
85.346749
 20
66.788308
 30
0.0
 40
0.0805
  0
CIRCLE
  8
OBJECT
 10
85.346749
 20
67.913308
 30
0.0
 40
0.0805
  0
CIRCLE
  8
OBJECT
 10
85.346749
 20
68.538308
 30
0.0
 40
0.0805
  0
CIRCLE
  8
OBJECT
 10
85.345749
 20
69.038308
 30
0.0
 40
0.0805
  0
CIRCLE
  8
OBJECT
 10
85.345749
 20
70.788308
 30
0.0
 40
0.0805
  0
CIRCLE
  8
OBJECT
 10
85.345749
 20
70.288308
 30
0.0
 40
0.0805
  0
CIRCLE
  8
OBJECT
 10
85.345749
 20
69.663308
 30
0.0
 40
0.0805
  0
CIRCLE
  8
OBJECT
 10
85.346749
 20
69.663308
 30
0.0
 40
0.0805
  0
CIRCLE
  8
OBJECT
 10
85.346749
 20
70.288308
 30
0.0
 40
0.0805
  0
CIRCLE
  8
OBJECT
 10
85.346749
 20
70.788308
 30
0.0
 40
0.0805
  0
CIRCLE
  8
OBJECT
 10
85.346749
 20
69.038308
 30
0.0
 40
0.0805
  0
CIRCLE
  8
OBJECT
 10
85.345749
 20
72.038308
 30
0.0
 40
0.0805
  0
CIRCLE
  8
OBJECT
 10
85.345749
 20
71.413308
 30
0.0
 40
0.0805
  0
CIRCLE
  8
OBJECT
 10
85.345749
 20
73.163308
 30
0.0
 40
0.0805
  0
CIRCLE
  8
OBJECT
 10
85.345749
 20
72.538308
 30
0.0
 40
0.0805
  0
CIRCLE
  8
OBJECT
 10
85.346749
 20
72.538308
 30
0.0
 40
0.0805
  0
CIRCLE
  8
OBJECT
 10
85.346749
 20
73.163308
 30
0.0
 40
0.0805
  0
CIRCLE
  8
OBJECT
 10
85.346749
 20
71.413308
 30
0.0
 40
0.0805
  0
CIRCLE
  8
OBJECT
 10
85.346749
 20
72.038308
 30
0.0
 40
0.0805
  0
CIRCLE
  8
OBJECT
 10
85.345749
 20
76.038308
 30
0.0
 40
0.0805
  0
CIRCLE
  8
OBJECT
 10
85.346749
 20
76.038308
 30
0.0
 40
0.0805
  0
CIRCLE
  8
OBJECT
 10
85.345749
 20
74.913308
 30
0.0
 40
0.0805
  0
CIRCLE
  8
OBJECT
 10
85.345749
 20
74.288308
 30
0.0
 40
0.0805
  0
CIRCLE
  8
OBJECT
 10
85.345749
 20
73.788308
 30
0.0
 40
0.0805
  0
CIRCLE
  8
OBJECT
 10
85.345749
 20
75.538308
 30
0.0
 40
0.0805
  0
CIRCLE
  8
OBJECT
 10
85.346749
 20
75.538308
 30
0.0
 40
0.0805
  0
CIRCLE
  8
OBJECT
 10
85.346749
 20
73.788308
 30
0.0
 40
0.0805
  0
CIRCLE
  8
OBJECT
 10
85.346749
 20
74.288308
 30
0.0
 40
0.0805
  0
CIRCLE
  8
OBJECT
 10
85.346749
 20
74.913308
 30
0.0
 40
0.0805
  0
CIRCLE
  8
OBJECT
 10
85.345749
 20
77.788308
 30
0.0
 40
0.0805
  0
CIRCLE
  8
OBJECT
 10
85.345749
 20
76.663308
 30
0.0
 40
0.0805
  0
CIRCLE
  8
OBJECT
 10
85.345749
 20
77.288308
 30
0.0
 40
0.0805
  0
CIRCLE
  8
OBJECT
 10
85.345749
 20
78.413308
 30
0.0
 40
0.0805
  0
CIRCLE
  8
OBJECT
 10
85.346749
 20
78.413308
 30
0.0
 40
0.0805
  0
CIRCLE
  8
OBJECT
 10
85.346749
 20
77.288308
 30
0.0
 40
0.0805
  0
CIRCLE
  8
OBJECT
 10
85.346749
 20
76.663308
 30
0.0
 40
0.0805
  0
CIRCLE
  8
OBJECT
 10
85.346749
 20
77.788308
 30
0.0
 40
0.0805
  0
CIRCLE
  8
OBJECT
 10
85.345749
 20
80.788308
 30
0.0
 40
0.0805
  0
CIRCLE
  8
OBJECT
 10
85.345749
 20
79.538308
 30
0.0
 40
0.0805
  0
CIRCLE
  8
OBJECT
 10
85.345749
 20
80.163308
 30
0.0
 40
0.0805
  0
CIRCLE
  8
OBJECT
 10
85.345749
 20
79.038308
 30
0.0
 40
0.0805
  0
CIRCLE
  8
OBJECT
 10
85.346749
 20
79.038308
 30
0.0
 40
0.0805
  0
CIRCLE
  8
OBJECT
 10
85.346749
 20
80.163308
 30
0.0
 40
0.0805
  0
CIRCLE
  8
OBJECT
 10
85.346749
 20
79.538308
 30
0.0
 40
0.0805
  0
CIRCLE
  8
OBJECT
 10
85.346749
 20
80.788308
 30
0.0
 40
0.0805
  0
CIRCLE
  8
OBJECT
 10
85.345749
 20
82.538308
 30
0.0
 40
0.0805
  0
CIRCLE
  8
OBJECT
 10
85.345749
 20
81.913308
 30
0.0
 40
0.0805
  0
CIRCLE
  8
OBJECT
 10
85.345749
 20
81.288308
 30
0.0
 40
0.0805
  0
CIRCLE
  8
OBJECT
 10
85.346749
 20
81.288308
 30
0.0
 40
0.0805
  0
CIRCLE
  8
OBJECT
 10
85.346749
 20
81.913308
 30
0.0
 40
0.0805
  0
CIRCLE
  8
OBJECT
 10
85.346749
 20
82.538308
 30
0.0
 40
0.0805
  0
CIRCLE
  8
OBJECT
 10
67.034099
 20
66.163308
 30
0.0
 40
0.0805
  0
CIRCLE
  8
OBJECT
 10
67.034099
 20
64.413308
 30
0.0
 40
0.0805
  0
CIRCLE
  8
OBJECT
 10
67.034099
 20
65.038308
 30
0.0
 40
0.0805
  0
CIRCLE
  8
OBJECT
 10
67.034099
 20
65.538308
 30
0.0
 40
0.0805
  0
CIRCLE
  8
OBJECT
 10
67.034099
 20
68.538308
 30
0.0
 40
0.0805
  0
CIRCLE
  8
OBJECT
 10
67.034099
 20
67.913308
 30
0.0
 40
0.0805
  0
CIRCLE
  8
OBJECT
 10
67.034099
 20
66.788308
 30
0.0
 40
0.0805
  0
CIRCLE
  8
OBJECT
 10
67.034099
 20
67.288308
 30
0.0
 40
0.0805
  0
CIRCLE
  8
OBJECT
 10
67.034099
 20
69.038308
 30
0.0
 40
0.0805
  0
CIRCLE
  8
OBJECT
 10
67.034099
 20
70.788308
 30
0.0
 40
0.0805
  0
CIRCLE
  8
OBJECT
 10
67.034099
 20
70.288308
 30
0.0
 40
0.0805
  0
CIRCLE
  8
OBJECT
 10
67.034099
 20
69.663308
 30
0.0
 40
0.0805
  0
CIRCLE
  8
OBJECT
 10
67.034099
 20
72.038308
 30
0.0
 40
0.0805
  0
CIRCLE
  8
OBJECT
 10
67.034099
 20
71.413308
 30
0.0
 40
0.0805
  0
CIRCLE
  8
OBJECT
 10
67.034099
 20
73.163308
 30
0.0
 40
0.0805
  0
CIRCLE
  8
OBJECT
 10
67.034099
 20
72.538308
 30
0.0
 40
0.0805
  0
CIRCLE
  8
OBJECT
 10
67.034099
 20
76.038308
 30
0.0
 40
0.0805
  0
CIRCLE
  8
OBJECT
 10
67.034099
 20
74.288308
 30
0.0
 40
0.0805
  0
CIRCLE
  8
OBJECT
 10
67.034099
 20
73.788308
 30
0.0
 40
0.0805
  0
CIRCLE
  8
OBJECT
 10
67.034099
 20
74.913308
 30
0.0
 40
0.0805
  0
CIRCLE
  8
OBJECT
 10
67.034099
 20
75.538308
 30
0.0
 40
0.0805
  0
CIRCLE
  8
OBJECT
 10
67.034099
 20
77.788308
 30
0.0
 40
0.0805
  0
CIRCLE
  8
OBJECT
 10
67.034099
 20
76.663308
 30
0.0
 40
0.0805
  0
CIRCLE
  8
OBJECT
 10
67.034099
 20
77.288308
 30
0.0
 40
0.0805
  0
CIRCLE
  8
OBJECT
 10
67.034099
 20
78.413308
 30
0.0
 40
0.0805
  0
CIRCLE
  8
OBJECT
 10
67.034099
 20
80.788308
 30
0.0
 40
0.0805
  0
CIRCLE
  8
OBJECT
 10
67.034099
 20
80.163308
 30
0.0
 40
0.0805
  0
CIRCLE
  8
OBJECT
 10
67.034099
 20
79.538308
 30
0.0
 40
0.0805
  0
CIRCLE
  8
OBJECT
 10
67.034099
 20
79.038308
 30
0.0
 40
0.0805
  0
CIRCLE
  8
OBJECT
 10
67.034099
 20
81.913308
 30
0.0
 40
0.0805
  0
CIRCLE
  8
OBJECT
 10
67.034099
 20
82.538308
 30
0.0
 40
0.0805
  0
CIRCLE
  8
OBJECT
 10
67.034099
 20
81.288308
 30
0.0
 40
0.0805
  0
LINE
  8
OBJECT
 10
65.674424
 20
84.553808
 30
0.0
 11
66.643424
 21
84.553808
 31
0.0
  0
LINE
  8
HIDDEN
 10
65.752424
 20
84.475808
 30
0.0
 11
66.643424
 21
84.475808
 31
0.0
  0
DIMENSION
  8
DIM
  2
*D7
 10
8.51352
 20
95.689321
 30
0.0
 11
10.51352
 21
95.689321
 31
0.0
 12
-93.456246
 22
-0.857297
 32
0.0
 13
12.51352
 23
101.450321
 33
0.0
 14
8.51352
 24
97.825321
 34
0.0
  3
23NSTDI
  0
DIMENSION
  8
DIM
  2
*D9
 10
4.709513
 20
97.825321
 30
0.0
 11
4.709513
 21
99.637821
 31
0.0
 12
-93.456246
 22
4.581372
 32
0.0
 13
12.51352
 23
101.450321
 33
0.0
 14
8.51352
 24
97.825321
 34
0.0
 50
90.0
  3
23NSTDI
  0
LINE
  8
OBJECT
 10
66.643799
 20
33.350808
 30
0.0
 11
65.659424
 21
33.350808
 31
0.0
  0
LINE
  8
HIDDEN
 10
66.565674
 20
33.272683
 30
0.0
 11
65.737549
 21
33.272683
 31
0.0
  0
LINE
  8
OBJECT
 10
66.643799
 20
21.475808
 30
0.0
 11
65.659424
 21
21.475808
 31
0.0
  0
LINE
  8
HIDDEN
 10
65.737549
 20
22.288308
 30
0.0
 11
66.643799
 21
22.288308
 31
0.0
  0
LINE
  8
HIDDEN
 10
66.565674
 20
21.553933
 30
0.0
 11
65.737549
 21
21.553933
 31
0.0
  0
LINE
  8
OBJECT
 10
65.659424
 20
33.350808
 30
0.0
 11
65.659424
 21
21.475808
 31
0.0
  0
LINE
  8
HIDDEN
 10
65.737549
 20
33.272683
 30
0.0
 11
65.737549
 21
21.553933
 31
0.0
  0
LINE
  8
OBJECT
 10
66.643799
 20
33.350808
 30
0.0
 11
66.643799
 21
21.475808
 31
0.0
  0
LINE
  8
HIDDEN
 10
66.565674
 20
33.272683
 30
0.0
 11
66.565674
 21
21.553933
 31
0.0
  0
CIRCLE
  8
HIDDEN
 10
66.143424
 20
32.382058
 30
0.0
 40
0.1875
  0
CIRCLE
  8
HIDDEN
 10
66.143424
 20
28.069558
 30
0.0
 40
0.1875
  0
CIRCLE
  8
HIDDEN
 10
66.143424
 20
23.757058
 30
0.0
 40
0.1875
  0
LINE
  8
OBJECT
 10
86.720424
 20
33.350808
 30
0.0
 11
86.720424
 21
21.475808
 31
0.0
  0
LINE
  8
HIDDEN
 10
86.642299
 20
33.272683
 30
0.0
 11
86.642299
 21
21.553933
 31
0.0
  0
LINE
  8
OBJECT
 10
85.736049
 20
33.350808
 30
0.0
 11
85.736049
 21
21.475808
 31
0.0
  0
LINE
  8
HIDDEN
 10
85.814174
 20
33.272683
 30
0.0
 11
85.814174
 21
21.553933
 31
0.0
  0
LINE
  8
HIDDEN
 10
85.814174
 20
33.272683
 30
0.0
 11
86.642299
 21
33.272683
 31
0.0
  0
LINE
  8
OBJECT
 10
85.736049
 20
33.350808
 30
0.0
 11
86.720424
 21
33.350808
 31
0.0
  0
CIRCLE
  8
HIDDEN
 10
86.236424
 20
32.382058
 30
0.0
 40
0.1875
  0
CIRCLE
  8
HIDDEN
 10
86.236424
 20
28.069558
 30
0.0
 40
0.1875
  0
LINE
  8
OBJECT
 10
85.736049
 20
21.475808
 30
0.0
 11
86.720424
 21
21.475808
 31
0.0
  0
LINE
  8
HIDDEN
 10
85.814174
 20
21.553933
 30
0.0
 11
86.642299
 21
21.553933
 31
0.0
  0
LINE
  8
HIDDEN
 10
86.642299
 20
22.288308
 30
0.0
 11
85.736049
 21
22.288308
 31
0.0
  0
CIRCLE
  8
HIDDEN
 10
86.236424
 20
23.757058
 30
0.0
 40
0.1875
  0
DIMENSION
  8
DIM
  2
*D14
 10
29.46652
 20
88.937808
 30
0.0
 11
34.50402
 21
88.937808
 31
0.0
 12
0.0
 22
3.920858
 32
0.0
 13
28.49752
 23
84.553808
 33
0.0
 14
29.46652
 24
84.553808
 34
0.0
  3
23NSTD
  0
LINE
  8
OBJECT
 10
66.643424
 20
82.850808
 30
0.0
 11
85.736424
 21
82.850808
 31
0.0
  0
LINE
  8
HIDDEN
 10
85.814549
 20
82.850808
 30
0.0
 11
86.627424
 21
82.850808
 31
0.0
  0
LINE
  8
HIDDEN
 10
9.326395
 20
82.850808
 30
0.0
 11
8.51352
 21
82.850808
 31
0.0
  0
LINE
  8
OBJECT
 10
28.49752
 20
82.850808
 30
0.0
 11
9.40452
 21
82.850808
 31
0.0
  0
DIMENSION
  8
DIM
  2
*D16
 10
8.43552
 20
88.937808
 30
0.0
 11
3.39802
 21
88.937808
 31
0.0
 12
0.0
 22
3.920858
 32
0.0
 13
9.40452
 23
84.553808
 33
0.0
 14
8.43552
 24
84.553808
 34
0.0
  3
23NSTD
  0
DIMENSION
  8
DIM
  2
*D18
 10
50.480417
 20
15.611079
 30
0.0
 11
46.480417
 21
15.611079
 31
0.0
 12
0.0
 22
3.920858
 32
0.0
 13
42.480417
 23
21.476151
 33
0.0
 14
50.480417
 24
21.476151
 34
0.0
  3
23NSTDI
  0
ENDSEC
  0
EOF
