  0
SECTION
  2
HEADER
  9
$ACADVER
  1
AC1009
  9
$INSBASE
 10
13.935192
 20
0.0
 30
0.0
  9
$EXTMIN
 10
0.0
 20
0.0
 30
0.0
  9
$EXTMAX
 10
50.6
 20
77.5
 30
0.0
  9
$LIMMIN
 10
0.0
 20
0.0
  9
$LIMMAX
 10
50.6
 20
77.5
  9
$ORTHOMODE
 70
     0
  9
$REGENMODE
 70
     1
  9
$FILLMODE
 70
     1
  9
$QTEXTMODE
 70
     0
  9
$MIRRTEXT
 70
     0
  9
$DRAGMODE
 70
     2
  9
$LTSCALE
 40
1.5
  9
$OSMODE
 70
     1
  9
$ATTMODE
 70
     1
  9
$TEXTSIZE
 40
0.625
  9
$TRACEWID
 40
0.05
  9
$TEXTSTYLE
  7
STANDARD
  9
$CLAYER
  8
DIM
  9
$CELTYPE
  6
BYLAYER
  9
$CECOLOR
 62
   256
  9
$DIMSCALE
 40
5.0
  9
$DIMASZ
 40
0.18
  9
$DIMEXO
 40
0.063
  9
$DIMDLI
 40
0.25
  9
$DIMRND
 40
0.0
  9
$DIMDLE
 40
0.0
  9
$DIMEXE
 40
0.093
  9
$DIMTP
 40
0.0
  9
$DIMTM
 40
0.0
  9
$DIMTXT
 40
0.125
  9
$DIMCEN
 40
0.09
  9
$DIMTSZ
 40
0.0
  9
$DIMTOL
 70
     0
  9
$DIMLIM
 70
     0
  9
$DIMTIH
 70
     1
  9
$DIMTOH
 70
     1
  9
$DIMSE1
 70
     0
  9
$DIMSE2
 70
     0
  9
$DIMTAD
 70
     0
  9
$DIMZIN
 70
     0
  9
$DIMBLK
  1

  9
$DIMASO
 70
     1
  9
$DIMSHO
 70
     1
  9
$DIMPOST
  1

  9
$DIMAPOST
  1

  9
$DIMALT
 70
     0
  9
$DIMALTD
 70
     2
  9
$DIMALTF
 40
25.4
  9
$DIMLFAC
 40
1.0
  9
$DIMTOFL
 70
     0
  9
$DIMTVP
 40
0.0
  9
$DIMTIX
 70
     0
  9
$DIMSOXD
 70
     0
  9
$DIMSAH
 70
     0
  9
$DIMBLK1
  1

  9
$DIMBLK2
  1

  9
$DIMSTYLE
  2
23NSTD
  9
$DIMCLRD
 70
     0
  9
$DIMCLRE
 70
     0
  9
$DIMCLRT
 70
     0
  9
$DIMTFAC
 40
1.0
  9
$DIMGAP
 40
0.09
  9
$LUNITS
 70
     2
  9
$LUPREC
 70
     3
  9
$SKETCHINC
 40
0.1
  9
$FILLETRAD
 40
0.0
  9
$AUNITS
 70
     0
  9
$AUPREC
 70
     0
  9
$MENU
  1
acad
  9
$ELEVATION
 40
0.0
  9
$PELEVATION
 40
0.0
  9
$THICKNESS
 40
0.0
  9
$LIMCHECK
 70
     0
  9
$BLIPMODE
 70
     1
  9
$CHAMFERA
 40
0.0
  9
$CHAMFERB
 40
0.0
  9
$SKPOLY
 70
     0
  9
$TDCREATE
 40
2449055.361037847
  9
$TDUPDATE
 40
2450319.329939467
  9
$TDINDWG
 40
0.2671087963
  9
$TDUSRTIMER
 40
0.2671087963
  9
$USRTIMER
 70
     1
  9
$ANGBASE
 50
0.0
  9
$ANGDIR
 70
     0
  9
$PDMODE
 70
     0
  9
$PDSIZE
 40
0.0
  9
$PLINEWID
 40
0.0
  9
$COORDS
 70
     0
  9
$SPLFRAME
 70
     0
  9
$SPLINETYPE
 70
     6
  9
$SPLINESEGS
 70
     8
  9
$ATTDIA
 70
     0
  9
$ATTREQ
 70
     1
  9
$HANDLING
 70
     0
  9
$HANDSEED
  5
0
  9
$SURFTAB1
 70
     6
  9
$SURFTAB2
 70
     6
  9
$SURFTYPE
 70
     6
  9
$SURFU
 70
     6
  9
$SURFV
 70
     6
  9
$UCSNAME
  2

  9
$UCSORG
 10
0.0
 20
0.0
 30
0.0
  9
$UCSXDIR
 10
1.0
 20
0.0
 30
0.0
  9
$UCSYDIR
 10
0.0
 20
1.0
 30
0.0
  9
$PUCSNAME
  2

  9
$PUCSORG
 10
0.0
 20
0.0
 30
0.0
  9
$PUCSXDIR
 10
1.0
 20
0.0
 30
0.0
  9
$PUCSYDIR
 10
0.0
 20
1.0
 30
0.0
  9
$USERI1
 70
     0
  9
$USERI2
 70
     0
  9
$USERI3
 70
     0
  9
$USERI4
 70
     0
  9
$USERI5
 70
     0
  9
$USERR1
 40
0.0
  9
$USERR2
 40
0.0
  9
$USERR3
 40
0.0
  9
$USERR4
 40
0.0
  9
$USERR5
 40
0.0
  9
$WORLDVIEW
 70
     1
  9
$SHADEDGE
 70
     3
  9
$SHADEDIF
 70
    70
  9
$TILEMODE
 70
     1
  9
$MAXACTVP
 70
    16
  9
$PINSBASE
 10
0.0
 20
0.0
 30
0.0
  9
$PLIMCHECK
 70
     0
  9
$PEXTMIN
 10
1.000000E+20
 20
1.000000E+20
 30
1.000000E+20
  9
$PEXTMAX
 10
-1.000000E+20
 20
-1.000000E+20
 30
-1.000000E+20
  9
$PLIMMIN
 10
0.0
 20
0.0
  9
$PLIMMAX
 10
12.0
 20
9.0
  9
$UNITMODE
 70
     0
  9
$VISRETAIN
 70
     0
  9
$PLINEGEN
 70
     0
  9
$PSLTSCALE
 70
     0
  9
$TREEDEPTH
 70
  3020
  9
$DWGCODEPAGE
  3
undefined
  0
ENDSEC
  0
SECTION
  2
TABLES
  0
TABLE
  2
VPORT
 70
     2
  0
VPORT
  2
*ACTIVE
 70
     0
 10
0.0
 20
0.0
 11
1.0
 21
1.0
 12
52.790656
 22
38.75
 13
0.0
 23
0.0
 14
1.0
 24
1.0
 15
0.5
 25
0.5
 16
0.0
 26
0.0
 36
1.0
 17
0.0
 27
0.0
 37
0.0
 40
77.5
 41
1.36234
 42
50.0
 43
0.0
 44
0.0
 50
0.0
 51
0.0
 71
     0
 72
  5000
 73
     1
 74
     0
 75
     0
 76
     0
 77
     0
 78
     0
  0
ENDTAB
  0
TABLE
  2
LTYPE
 70
     3
  0
LTYPE
  2
CONTINUOUS
 70
    64
  3
Solid line
 72
    65
 73
     0
 40
0.0
  0
LTYPE
  2
CENTER
 70
    64
  3
____ _ ____ _ ____ _ ____ _ ____ _ ____ _ ____ 
 72
    65
 73
     4
 40
2.0
 49
1.25
 49
-0.25
 49
0.25
 49
-0.25
  0
LTYPE
  2
HIDDEN
 70
    64
  3
__ __ __ __ __ __ __ __ __ __ __ __ __ __ __ __
 72
    65
 73
     2
 40
0.375
 49
0.25
 49
-0.125
  0
ENDTAB
  0
TABLE
  2
LAYER
 70
     8
  0
LAYER
  2
0
 70
    64
 62
     7
  6
CONTINUOUS
  0
LAYER
  2
TEXT
 70
    64
 62
     7
  6
CONTINUOUS
  0
LAYER
  2
TITLE
 70
    64
 62
     7
  6
CONTINUOUS
  0
LAYER
  2
DEFPOINTS
 70
    64
 62
     7
  6
CONTINUOUS
  0
LAYER
  2
OBJECT
 70
    64
 62
     7
  6
CONTINUOUS
  0
LAYER
  2
HIDDEN
 70
    64
 62
     7
  6
HIDDEN
  0
LAYER
  2
CENTER
 70
    64
 62
     7
  6
CENTER
  0
LAYER
  2
DIM
 70
    64
 62
     7
  6
CONTINUOUS
  0
ENDTAB
  0
TABLE
  2
STYLE
 70
     1
  0
STYLE
  2
STANDARD
 70
    64
 40
0.0
 41
0.75
 50
0.0
 71
     0
 42
0.625
  3
TXT
  4

  0
ENDTAB
  0
TABLE
  2
VIEW
 70
     0
  0
ENDTAB
  0
TABLE
  2
UCS
 70
     0
  0
ENDTAB
  0
TABLE
  2
APPID
 70
     1
  0
APPID
  2
ACAD
 70
    64
  0
ENDTAB
  0
TABLE
  2
DIMSTYLE
 70
     2
  0
DIMSTYLE
  2
23NSTD
 70
    64
  3

  4

  5

  6

  7

 40
5.0
 41
0.18
 42
0.063
 43
0.25
 44
0.093
 45
0.0
 46
0.0
 47
0.0
 48
0.0
140
0.125
141
0.09
142
0.0
143
25.4
144
1.0
145
0.0
146
1.0
147
0.09
 71
     0
 72
     0
 73
     1
 74
     1
 75
     0
 76
     0
 77
     0
 78
     0
170
     0
171
     2
172
     0
173
     0
174
     0
175
     0
176
     0
177
     0
178
     0
  0
DIMSTYLE
  2
23NSTDI
 70
    64
  3

  4

  5

  6

  7

 40
5.0
 41
0.18
 42
0.063
 43
0.25
 44
0.093
 45
0.0
 46
0.0
 47
0.0
 48
0.0
140
0.125
141
0.09
142
0.0
143
25.4
144
1.0
145
0.0
146
1.0
147
0.09
 71
     0
 72
     0
 73
     1
 74
     1
 75
     0
 76
     0
 77
     0
 78
     0
170
     0
171
     2
172
     0
173
     0
174
     1
175
     0
176
     0
177
     0
178
     0
  0
ENDTAB
  0
ENDSEC
  0
SECTION
  2
BLOCKS
  0
BLOCK
  8
0
  2
*D0
 70
    65
 10
0.0
 20
0.0
 30
0.0
  3
*D
  0
LINE
  8
0
  6
BYBLOCK
 62
     0
 10
11.654086
 20
20.661252
 30
0.0
 11
11.654086
 21
25.358204
 31
0.0
  0
LINE
  8
0
  6
BYBLOCK
 62
     0
 10
26.154086
 20
20.661252
 30
0.0
 11
26.154086
 21
25.358204
 31
0.0
  0
LINE
  8
0
  6
BYBLOCK
 62
     0
 10
12.554086
 20
24.893204
 30
0.0
 11
13.493149
 21
24.893204
 31
0.0
  0
LINE
  8
0
  6
BYBLOCK
 62
     0
 10
25.254086
 20
24.893204
 30
0.0
 11
24.315024
 21
24.893204
 31
0.0
  0
SOLID
  8
0
  6
BYBLOCK
 62
     0
 10
12.554086
 20
25.043204
 30
0.0
 11
12.554086
 21
24.743204
 31
0.0
 12
11.654086
 22
24.893204
 32
0.0
 13
11.654086
 23
24.893204
 33
0.0
  0
SOLID
  8
0
  6
BYBLOCK
 62
     0
 10
25.254086
 20
25.043204
 30
0.0
 11
25.254086
 21
24.743204
 31
0.0
 12
26.154086
 22
24.893204
 32
0.0
 13
26.154086
 23
24.893204
 33
0.0
  0
TEXT
  8
0
  6
BYBLOCK
 62
     0
 10
13.943149
 20
24.580704
 30
0.0
 40
0.625
  1
(J) SPACES @ 0.500 = (K)
 41
0.75
 72
     1
 11
18.904086
 21
24.893204
 31
0.0
 73
     2
  0
POINT
  8
DEFPOINTS
  6
BYBLOCK
 62
     0
 10
11.654086
 20
20.346252
 30
0.0
  0
POINT
  8
DEFPOINTS
  6
BYBLOCK
 62
     0
 10
26.154086
 20
20.346252
 30
0.0
  0
POINT
  8
DEFPOINTS
  6
BYBLOCK
 62
     0
 10
26.154086
 20
24.893204
 30
0.0
  0
ENDBLK
  8
0
  0
BLOCK
  8
0
  2
*D1
 70
    65
 10
0.0
 20
0.0
 30
0.0
  3
*D
  0
LINE
  8
0
  6
BYBLOCK
 62
     0
 10
10.404086
 20
21.754752
 30
0.0
 11
10.404086
 21
26.608204
 31
0.0
  0
LINE
  8
0
  6
BYBLOCK
 62
     0
 10
27.404086
 20
21.754752
 30
0.0
 11
27.404086
 21
26.608204
 31
0.0
  0
LINE
  8
0
  6
BYBLOCK
 62
     0
 10
11.304086
 20
26.143204
 30
0.0
 11
18.297836
 21
26.143204
 31
0.0
  0
LINE
  8
0
  6
BYBLOCK
 62
     0
 10
26.504086
 20
26.143204
 30
0.0
 11
19.510336
 21
26.143204
 31
0.0
  0
SOLID
  8
0
  6
BYBLOCK
 62
     0
 10
11.304086
 20
26.293204
 30
0.0
 11
11.304086
 21
25.993204
 31
0.0
 12
10.404086
 22
26.143204
 32
0.0
 13
10.404086
 23
26.143204
 33
0.0
  0
SOLID
  8
0
  6
BYBLOCK
 62
     0
 10
26.504086
 20
26.293204
 30
0.0
 11
26.504086
 21
25.993204
 31
0.0
 12
27.404086
 22
26.143204
 32
0.0
 13
27.404086
 23
26.143204
 33
0.0
  0
TEXT
  8
0
  6
BYBLOCK
 62
     0
 10
18.747836
 20
25.830704
 30
0.0
 40
0.625
  1
A
 41
0.75
 72
     1
 11
18.904086
 21
26.143204
 31
0.0
 73
     2
  0
POINT
  8
DEFPOINTS
  6
BYBLOCK
 62
     0
 10
10.404086
 20
21.439752
 30
0.0
  0
POINT
  8
DEFPOINTS
  6
BYBLOCK
 62
     0
 10
27.404086
 20
21.439752
 30
0.0
  0
POINT
  8
DEFPOINTS
  6
BYBLOCK
 62
     0
 10
27.404086
 20
26.143204
 30
0.0
  0
ENDBLK
  8
0
  0
BLOCK
  8
0
  2
*D2
 70
    65
 10
0.0
 20
0.0
 30
0.0
  3
*D
  0
LINE
  8
0
  6
BYBLOCK
 62
     0
 10
10.779086
 20
20.754752
 30
0.0
 11
10.779086
 21
24.108204
 31
0.0
  0
LINE
  8
0
  6
BYBLOCK
 62
     0
 10
10.404086
 20
21.754752
 30
0.0
 11
10.404086
 21
24.108204
 31
0.0
  0
LINE
  8
0
  6
BYBLOCK
 62
     0
 10
11.679086
 20
23.643204
 30
0.0
 11
12.579086
 21
23.643204
 31
0.0
  0
LINE
  8
0
  6
BYBLOCK
 62
     0
 10
9.504086
 20
23.643204
 30
0.0
 11
8.604086
 21
23.643204
 31
0.0
  0
SOLID
  8
0
  6
BYBLOCK
 62
     0
 10
11.679086
 20
23.793204
 30
0.0
 11
11.679086
 21
23.493204
 31
0.0
 12
10.779086
 22
23.643204
 32
0.0
 13
10.779086
 23
23.643204
 33
0.0
  0
SOLID
  8
0
  6
BYBLOCK
 62
     0
 10
9.504086
 20
23.793204
 30
0.0
 11
9.504086
 21
23.493204
 31
0.0
 12
10.404086
 22
23.643204
 32
0.0
 13
10.404086
 23
23.643204
 33
0.0
  0
TEXT
  8
0
  6
BYBLOCK
 62
     0
 10
6.357211
 20
23.330704
 30
0.0
 40
0.625
  1
0.375
 41
0.75
 72
     1
 11
7.255649
 21
23.643204
 31
0.0
 73
     2
  0
POINT
  8
DEFPOINTS
  6
BYBLOCK
 62
     0
 10
10.779086
 20
20.439752
 30
0.0
  0
POINT
  8
DEFPOINTS
  6
BYBLOCK
 62
     0
 10
10.404086
 20
21.439752
 30
0.0
  0
POINT
  8
DEFPOINTS
  6
BYBLOCK
 62
     0
 10
10.404086
 20
23.643204
 30
0.0
  0
ENDBLK
  8
0
  0
BLOCK
  8
0
  2
*D3
 70
    65
 10
0.0
 20
0.0
 30
0.0
  3
*D
  0
LINE
  8
0
  6
BYBLOCK
 62
     0
 10
10.464086
 20
17.439752
 30
0.0
 11
7.077377
 21
17.439752
 31
0.0
  0
LINE
  8
0
  6
BYBLOCK
 62
     0
 10
10.464086
 20
20.439752
 30
0.0
 11
7.077377
 21
20.439752
 31
0.0
  0
LINE
  8
0
  6
BYBLOCK
 62
     0
 10
7.542377
 20
16.539752
 30
0.0
 11
7.542377
 21
15.639752
 31
0.0
  0
LINE
  8
0
  6
BYBLOCK
 62
     0
 10
7.542377
 20
21.339752
 30
0.0
 11
7.542377
 21
22.239752
 31
0.0
  0
SOLID
  8
0
  6
BYBLOCK
 62
     0
 10
7.392377
 20
16.539752
 30
0.0
 11
7.692377
 21
16.539752
 31
0.0
 12
7.542377
 22
17.439752
 32
0.0
 13
7.542377
 23
17.439752
 33
0.0
  0
SOLID
  8
0
  6
BYBLOCK
 62
     0
 10
7.392377
 20
21.339752
 30
0.0
 11
7.692377
 21
21.339752
 31
0.0
 12
7.542377
 22
20.439752
 32
0.0
 13
7.542377
 23
20.439752
 33
0.0
  0
TEXT
  8
0
  6
BYBLOCK
 62
     0
 10
7.386127
 20
18.627252
 30
0.0
 40
0.625
  1
G
 41
0.75
 72
     1
 11
7.542377
 21
18.939752
 31
0.0
 73
     2
  0
POINT
  8
DEFPOINTS
  6
BYBLOCK
 62
     0
 10
10.779086
 20
17.439752
 30
0.0
  0
POINT
  8
DEFPOINTS
  6
BYBLOCK
 62
     0
 10
10.779086
 20
20.439752
 30
0.0
  0
POINT
  8
DEFPOINTS
  6
BYBLOCK
 62
     0
 10
7.542377
 20
20.439752
 30
0.0
  0
ENDBLK
  8
0
  0
BLOCK
  8
0
  2
*D4
 70
    65
 10
0.0
 20
0.0
 30
0.0
  3
*D
  0
LINE
  8
0
  6
BYBLOCK
 62
     0
 10
10.464086
 20
14.439752
 30
0.0
 11
8.327377
 21
14.439752
 31
0.0
  0
LINE
  8
0
  6
BYBLOCK
 62
     0
 10
10.464086
 20
17.439752
 30
0.0
 11
8.327377
 21
17.439752
 31
0.0
  0
LINE
  8
0
  6
BYBLOCK
 62
     0
 10
8.792377
 20
13.539752
 30
0.0
 11
8.792377
 21
12.639752
 31
0.0
  0
LINE
  8
0
  6
BYBLOCK
 62
     0
 10
8.792377
 20
18.339752
 30
0.0
 11
8.792377
 21
19.239752
 31
0.0
  0
SOLID
  8
0
  6
BYBLOCK
 62
     0
 10
8.642377
 20
13.539752
 30
0.0
 11
8.942377
 21
13.539752
 31
0.0
 12
8.792377
 22
14.439752
 32
0.0
 13
8.792377
 23
14.439752
 33
0.0
  0
SOLID
  8
0
  6
BYBLOCK
 62
     0
 10
8.642377
 20
18.339752
 30
0.0
 11
8.942377
 21
18.339752
 31
0.0
 12
8.792377
 22
17.439752
 32
0.0
 13
8.792377
 23
17.439752
 33
0.0
  0
TEXT
  8
0
  6
BYBLOCK
 62
     0
 10
8.636127
 20
15.627252
 30
0.0
 40
0.625
  1
G
 41
0.75
 72
     1
 11
8.792377
 21
15.939752
 31
0.0
 73
     2
  0
POINT
  8
DEFPOINTS
  6
BYBLOCK
 62
     0
 10
10.779086
 20
14.439752
 30
0.0
  0
POINT
  8
DEFPOINTS
  6
BYBLOCK
 62
     0
 10
10.779086
 20
17.439752
 30
0.0
  0
POINT
  8
DEFPOINTS
  6
BYBLOCK
 62
     0
 10
8.792377
 20
17.439752
 30
0.0
  0
ENDBLK
  8
0
  0
BLOCK
  8
0
  2
*D5
 70
    65
 10
0.0
 20
0.0
 30
0.0
  3
*D
  0
LINE
  8
0
  6
BYBLOCK
 62
     0
 10
10.089086
 20
13.439752
 30
0.0
 11
3.647377
 21
13.439752
 31
0.0
  0
LINE
  8
0
  6
BYBLOCK
 62
     0
 10
10.089086
 20
21.439752
 30
0.0
 11
3.647377
 21
21.439752
 31
0.0
  0
LINE
  8
0
  6
BYBLOCK
 62
     0
 10
4.112377
 20
14.339752
 30
0.0
 11
4.112377
 21
16.677252
 31
0.0
  0
LINE
  8
0
  6
BYBLOCK
 62
     0
 10
4.112377
 20
20.539752
 30
0.0
 11
4.112377
 21
18.202252
 31
0.0
  0
SOLID
  8
0
  6
BYBLOCK
 62
     0
 10
3.962377
 20
14.339752
 30
0.0
 11
4.262377
 21
14.339752
 31
0.0
 12
4.112377
 22
13.439752
 32
0.0
 13
4.112377
 23
13.439752
 33
0.0
  0
SOLID
  8
0
  6
BYBLOCK
 62
     0
 10
3.962377
 20
20.539752
 30
0.0
 11
4.262377
 21
20.539752
 31
0.0
 12
4.112377
 22
21.439752
 32
0.0
 13
4.112377
 23
21.439752
 33
0.0
  0
TEXT
  8
0
  6
BYBLOCK
 62
     0
 10
3.956127
 20
17.127252
 30
0.0
 40
0.625
  1
B
 41
0.75
 72
     1
 11
4.112377
 21
17.439752
 31
0.0
 73
     2
  0
POINT
  8
DEFPOINTS
  6
BYBLOCK
 62
     0
 10
10.404086
 20
13.439752
 30
0.0
  0
POINT
  8
DEFPOINTS
  6
BYBLOCK
 62
     0
 10
10.404086
 20
21.439752
 30
0.0
  0
POINT
  8
DEFPOINTS
  6
BYBLOCK
 62
     0
 10
4.112377
 20
21.439752
 30
0.0
  0
ENDBLK
  8
0
  0
BLOCK
  8
0
  2
*D6
 70
    65
 10
0.0
 20
0.0
 30
0.0
  3
*D
  0
LINE
  8
0
  6
BYBLOCK
 62
     0
 10
10.464086
 20
20.439752
 30
0.0
 11
5.362377
 21
20.439752
 31
0.0
  0
LINE
  8
0
  6
BYBLOCK
 62
     0
 10
10.464086
 20
14.439752
 30
0.0
 11
5.362377
 21
14.439752
 31
0.0
  0
LINE
  8
0
  6
BYBLOCK
 62
     0
 10
5.827377
 20
19.539752
 30
0.0
 11
5.827377
 21
18.202252
 31
0.0
  0
LINE
  8
0
  6
BYBLOCK
 62
     0
 10
5.827377
 20
15.339752
 30
0.0
 11
5.827377
 21
16.677252
 31
0.0
  0
SOLID
  8
0
  6
BYBLOCK
 62
     0
 10
5.677377
 20
19.539752
 30
0.0
 11
5.977377
 21
19.539752
 31
0.0
 12
5.827377
 22
20.439752
 32
0.0
 13
5.827377
 23
20.439752
 33
0.0
  0
SOLID
  8
0
  6
BYBLOCK
 62
     0
 10
5.677377
 20
15.339752
 30
0.0
 11
5.977377
 21
15.339752
 31
0.0
 12
5.827377
 22
14.439752
 32
0.0
 13
5.827377
 23
14.439752
 33
0.0
  0
TEXT
  8
0
  6
BYBLOCK
 62
     0
 10
5.671127
 20
17.127252
 30
0.0
 40
0.625
  1
L
 41
0.75
 72
     1
 11
5.827377
 21
17.439752
 31
0.0
 73
     2
  0
POINT
  8
DEFPOINTS
  6
BYBLOCK
 62
     0
 10
10.779086
 20
20.439752
 30
0.0
  0
POINT
  8
DEFPOINTS
  6
BYBLOCK
 62
     0
 10
10.779086
 20
14.439752
 30
0.0
  0
POINT
  8
DEFPOINTS
  6
BYBLOCK
 62
     0
 10
5.827377
 20
14.439752
 30
0.0
  0
ENDBLK
  8
0
  0
BLOCK
  8
0
  2
*D7
 70
    65
 10
0.0
 20
0.0
 30
0.0
  3
*D
  0
LINE
  8
0
  6
BYBLOCK
 62
     0
 10
10.464086
 20
14.439752
 30
0.0
 11
5.362377
 21
14.439752
 31
0.0
  0
LINE
  8
0
  6
BYBLOCK
 62
     0
 10
10.089086
 20
13.439752
 30
0.0
 11
5.362377
 21
13.439752
 31
0.0
  0
LINE
  8
0
  6
BYBLOCK
 62
     0
 10
5.827377
 20
15.339752
 30
0.0
 11
5.827377
 21
16.239752
 31
0.0
  0
LINE
  8
0
  6
BYBLOCK
 62
     0
 10
5.827377
 20
12.539752
 30
0.0
 11
5.827377
 21
11.639752
 31
0.0
  0
SOLID
  8
0
  6
BYBLOCK
 62
     0
 10
5.677377
 20
15.339752
 30
0.0
 11
5.977377
 21
15.339752
 31
0.0
 12
5.827377
 22
14.439752
 32
0.0
 13
5.827377
 23
14.439752
 33
0.0
  0
SOLID
  8
0
  6
BYBLOCK
 62
     0
 10
5.677377
 20
12.539752
 30
0.0
 11
5.977377
 21
12.539752
 31
0.0
 12
5.827377
 22
13.439752
 32
0.0
 13
5.827377
 23
13.439752
 33
0.0
  0
TEXT
  8
0
  6
BYBLOCK
 62
     0
 10
5.08519
 20
13.627252
 30
0.0
 40
0.625
  1
1.000
 41
0.75
 72
     1
 11
5.827377
 21
13.939752
 31
0.0
 73
     2
  0
POINT
  8
DEFPOINTS
  6
BYBLOCK
 62
     0
 10
10.779086
 20
14.439752
 30
0.0
  0
POINT
  8
DEFPOINTS
  6
BYBLOCK
 62
     0
 10
10.404086
 20
13.439752
 30
0.0
  0
POINT
  8
DEFPOINTS
  6
BYBLOCK
 62
     0
 10
5.827377
 20
13.439752
 30
0.0
  0
ENDBLK
  8
0
  0
BLOCK
  8
0
  2
*D8
 70
    65
 10
0.0
 20
0.0
 30
0.0
  3
*D
  0
LINE
  8
0
  6
BYBLOCK
 62
     0
 10
26.562586
 20
14.939752
 30
0.0
 11
33.747834
 21
14.939752
 31
0.0
  0
LINE
  8
0
  6
BYBLOCK
 62
     0
 10
27.719086
 20
13.439752
 30
0.0
 11
33.747834
 21
13.439752
 31
0.0
  0
LINE
  8
0
  6
BYBLOCK
 62
     0
 10
33.282834
 20
15.839752
 30
0.0
 11
33.282834
 21
16.739752
 31
0.0
  0
LINE
  8
0
  6
BYBLOCK
 62
     0
 10
33.282834
 20
12.539752
 30
0.0
 11
33.282834
 21
11.639752
 31
0.0
  0
SOLID
  8
0
  6
BYBLOCK
 62
     0
 10
33.132834
 20
15.839752
 30
0.0
 11
33.432834
 21
15.839752
 31
0.0
 12
33.282834
 22
14.939752
 32
0.0
 13
33.282834
 23
14.939752
 33
0.0
  0
SOLID
  8
0
  6
BYBLOCK
 62
     0
 10
33.132834
 20
12.539752
 30
0.0
 11
33.432834
 21
12.539752
 31
0.0
 12
33.282834
 22
13.439752
 32
0.0
 13
33.282834
 23
13.439752
 33
0.0
  0
TEXT
  8
0
  6
BYBLOCK
 62
     0
 10
33.126584
 20
13.877252
 30
0.0
 40
0.625
  1
E
 41
0.75
 72
     1
 11
33.282834
 21
14.189752
 31
0.0
 73
     2
  0
POINT
  8
DEFPOINTS
  6
BYBLOCK
 62
     0
 10
26.247586
 20
14.939752
 30
0.0
  0
POINT
  8
DEFPOINTS
  6
BYBLOCK
 62
     0
 10
27.404086
 20
13.439752
 30
0.0
  0
POINT
  8
DEFPOINTS
  6
BYBLOCK
 62
     0
 10
33.282834
 20
13.439752
 30
0.0
  0
ENDBLK
  8
0
  0
BLOCK
  8
0
  2
*D9
 70
    65
 10
0.0
 20
0.0
 30
0.0
  3
*D
  0
LINE
  8
0
  6
BYBLOCK
 62
     0
 10
26.562586
 20
19.939752
 30
0.0
 11
33.747834
 21
19.939752
 31
0.0
  0
LINE
  8
0
  6
BYBLOCK
 62
     0
 10
26.562586
 20
14.939752
 30
0.0
 11
33.747834
 21
14.939752
 31
0.0
  0
LINE
  8
0
  6
BYBLOCK
 62
     0
 10
33.282834
 20
19.039752
 30
0.0
 11
33.282834
 21
18.202252
 31
0.0
  0
LINE
  8
0
  6
BYBLOCK
 62
     0
 10
33.282834
 20
15.839752
 30
0.0
 11
33.282834
 21
16.677252
 31
0.0
  0
SOLID
  8
0
  6
BYBLOCK
 62
     0
 10
33.132834
 20
19.039752
 30
0.0
 11
33.432834
 21
19.039752
 31
0.0
 12
33.282834
 22
19.939752
 32
0.0
 13
33.282834
 23
19.939752
 33
0.0
  0
SOLID
  8
0
  6
BYBLOCK
 62
     0
 10
33.132834
 20
15.839752
 30
0.0
 11
33.432834
 21
15.839752
 31
0.0
 12
33.282834
 22
14.939752
 32
0.0
 13
33.282834
 23
14.939752
 33
0.0
  0
TEXT
  8
0
  6
BYBLOCK
 62
     0
 10
28.321897
 20
17.127252
 30
0.0
 40
0.625
  1
(C) SPACES @ 1.250 = (D)
 41
0.75
 72
     1
 11
33.282834
 21
17.439752
 31
0.0
 73
     2
  0
POINT
  8
DEFPOINTS
  6
BYBLOCK
 62
     0
 10
26.247586
 20
19.939752
 30
0.0
  0
POINT
  8
DEFPOINTS
  6
BYBLOCK
 62
     0
 10
26.247586
 20
14.939752
 30
0.0
  0
POINT
  8
DEFPOINTS
  6
BYBLOCK
 62
     0
 10
33.282834
 20
14.939752
 30
0.0
  0
ENDBLK
  8
0
  0
BLOCK
  8
0
  2
*D10
 70
    65
 10
0.0
 20
0.0
 30
0.0
  3
*D
  0
LINE
  8
0
  6
BYBLOCK
 62
     0
 10
8.672007
 20
67.302617
 30
0.0
 11
8.672007
 21
67.452617
 31
0.0
  0
LINE
  8
0
  6
BYBLOCK
 62
     0
 10
9.422007
 20
67.160701
 30
0.0
 11
9.422007
 21
67.452617
 31
0.0
  0
LINE
  8
0
  6
BYBLOCK
 62
     0
 10
7.772007
 20
66.987617
 30
0.0
 11
6.872007
 21
66.987617
 31
0.0
  0
LINE
  8
0
  6
BYBLOCK
 62
     0
 10
10.322007
 20
66.987617
 30
0.0
 11
11.222007
 21
66.987617
 31
0.0
  0
SOLID
  8
0
  6
BYBLOCK
 62
     0
 10
7.772007
 20
67.137617
 30
0.0
 11
7.772007
 21
66.837617
 31
0.0
 12
8.672007
 22
66.987617
 32
0.0
 13
8.672007
 23
66.987617
 33
0.0
  0
SOLID
  8
0
  6
BYBLOCK
 62
     0
 10
10.322007
 20
67.137617
 30
0.0
 11
10.322007
 21
66.837617
 31
0.0
 12
9.422007
 22
66.987617
 32
0.0
 13
9.422007
 23
66.987617
 33
0.0
  0
TEXT
  8
0
  6
BYBLOCK
 62
     0
 10
13.547007
 20
66.675117
 30
0.0
 40
0.625
  1
 TYP.
 41
0.75
 72
     1
 11
14.484507
 21
66.987617
 31
0.0
 73
     2
  0
TEXT
  8
0
  6
BYBLOCK
 62
     0
 10
11.672007
 20
66.675117
 30
0.0
 40
0.625
  1
0.750
 41
0.75
 72
     1
 11
12.531382
 21
66.987617
 31
0.0
 73
     2
  0
POINT
  8
DEFPOINTS
  6
BYBLOCK
 62
     0
 10
8.672007
 20
66.987617
 30
0.0
  0
POINT
  8
DEFPOINTS
  6
BYBLOCK
 62
     0
 10
9.422007
 20
66.845701
 30
0.0
  0
POINT
  8
DEFPOINTS
  6
BYBLOCK
 62
     0
 10
9.422007
 20
66.987617
 30
0.0
  0
ENDBLK
  8
0
  0
BLOCK
  8
0
  2
*D11
 70
    65
 10
0.0
 20
0.0
 30
0.0
  3
*D
  0
LINE
  8
0
  6
BYBLOCK
 62
     0
 10
26.723007
 20
55.269898
 30
0.0
 11
28.494525
 21
55.269898
 31
0.0
  0
LINE
  8
0
  6
BYBLOCK
 62
     0
 10
26.723007
 20
54.991898
 30
0.0
 11
28.494525
 21
54.991898
 31
0.0
  0
LINE
  8
0
  6
BYBLOCK
 62
     0
 10
28.029525
 20
56.169898
 30
0.0
 11
28.029525
 21
57.069898
 31
0.0
  0
LINE
  8
0
  6
BYBLOCK
 62
     0
 10
28.029525
 20
54.091898
 30
0.0
 11
28.029525
 21
53.191898
 31
0.0
  0
LINE
  8
0
  6
BYBLOCK
 62
     0
 10
28.029525
 20
53.191898
 30
0.0
 11
27.129525
 21
53.191898
 31
0.0
  0
SOLID
  8
0
  6
BYBLOCK
 62
     0
 10
27.879525
 20
56.169898
 30
0.0
 11
28.179525
 21
56.169898
 31
0.0
 12
28.029525
 22
55.269898
 32
0.0
 13
28.029525
 23
55.269898
 33
0.0
  0
SOLID
  8
0
  6
BYBLOCK
 62
     0
 10
27.879525
 20
54.091898
 30
0.0
 11
28.179525
 21
54.091898
 31
0.0
 12
28.029525
 22
54.991898
 32
0.0
 13
28.029525
 23
54.991898
 33
0.0
  0
TEXT
  8
0
  6
BYBLOCK
 62
     0
 10
24.804525
 20
52.879398
 30
0.0
 40
0.625
  1
 REF.
 41
0.75
 72
     1
 11
25.742025
 21
53.191898
 31
0.0
 73
     2
  0
TEXT
  8
0
  6
BYBLOCK
 62
     0
 10
22.8514
 20
52.879398
 30
0.0
 40
0.625
  1
0.278
 41
0.75
 72
     1
 11
23.749838
 21
53.191898
 31
0.0
 73
     2
  0
POINT
  8
DEFPOINTS
  6
BYBLOCK
 62
     0
 10
26.408007
 20
55.269898
 30
0.0
  0
POINT
  8
DEFPOINTS
  6
BYBLOCK
 62
     0
 10
26.408007
 20
54.991898
 30
0.0
  0
POINT
  8
DEFPOINTS
  6
BYBLOCK
 62
     0
 10
28.029525
 20
54.991898
 30
0.0
  0
ENDBLK
  8
0
  0
BLOCK
  8
0
  2
*D12
 70
    65
 10
0.0
 20
0.0
 30
0.0
  3
*D
  0
LINE
  8
0
  6
BYBLOCK
 62
     0
 10
27.029086
 20
25.431684
 30
0.0
 11
27.029086
 21
28.785136
 31
0.0
  0
LINE
  8
0
  6
BYBLOCK
 62
     0
 10
27.404086
 20
26.431684
 30
0.0
 11
27.404086
 21
28.785136
 31
0.0
  0
LINE
  8
0
  6
BYBLOCK
 62
     0
 10
26.129086
 20
28.320136
 30
0.0
 11
25.229086
 21
28.320136
 31
0.0
  0
LINE
  8
0
  6
BYBLOCK
 62
     0
 10
28.304086
 20
28.320136
 30
0.0
 11
29.204086
 21
28.320136
 31
0.0
  0
SOLID
  8
0
  6
BYBLOCK
 62
     0
 10
26.129086
 20
28.470136
 30
0.0
 11
26.129086
 21
28.170136
 31
0.0
 12
27.029086
 22
28.320136
 32
0.0
 13
27.029086
 23
28.320136
 33
0.0
  0
SOLID
  8
0
  6
BYBLOCK
 62
     0
 10
28.304086
 20
28.470136
 30
0.0
 11
28.304086
 21
28.170136
 31
0.0
 12
27.404086
 22
28.320136
 32
0.0
 13
27.404086
 23
28.320136
 33
0.0
  0
TEXT
  8
0
  6
BYBLOCK
 62
     0
 10
29.654086
 20
28.007636
 30
0.0
 40
0.625
  1
0.375
 41
0.75
 72
     1
 11
30.552524
 21
28.320136
 31
0.0
 73
     2
  0
POINT
  8
DEFPOINTS
  6
BYBLOCK
 62
     0
 10
27.029086
 20
25.116684
 30
0.0
  0
POINT
  8
DEFPOINTS
  6
BYBLOCK
 62
     0
 10
27.404086
 20
26.116684
 30
0.0
  0
POINT
  8
DEFPOINTS
  6
BYBLOCK
 62
     0
 10
27.404086
 20
28.320136
 30
0.0
  0
ENDBLK
  8
0
  0
BLOCK
  8
0
  2
*D13
 70
    65
 10
0.0
 20
0.0
 30
0.0
  3
*D
  0
LINE
  8
0
  6
BYBLOCK
 62
     0
 10
26.719086
 20
18.491684
 30
0.0
 11
31.710801
 21
18.491684
 31
0.0
  0
LINE
  8
0
  6
BYBLOCK
 62
     0
 10
27.719086
 20
18.116684
 30
0.0
 11
31.710801
 21
18.116684
 31
0.0
  0
LINE
  8
0
  6
BYBLOCK
 62
     0
 10
31.245801
 20
19.391684
 30
0.0
 11
31.245801
 21
20.291684
 31
0.0
  0
LINE
  8
0
  6
BYBLOCK
 62
     0
 10
31.245801
 20
17.216684
 30
0.0
 11
31.245801
 21
16.316684
 31
0.0
  0
LINE
  8
0
  6
BYBLOCK
 62
     0
 10
31.245801
 20
16.316684
 30
0.0
 11
30.345801
 21
16.316684
 31
0.0
  0
SOLID
  8
0
  6
BYBLOCK
 62
     0
 10
31.095801
 20
19.391684
 30
0.0
 11
31.395801
 21
19.391684
 31
0.0
 12
31.245801
 22
18.491684
 32
0.0
 13
31.245801
 23
18.491684
 33
0.0
  0
SOLID
  8
0
  6
BYBLOCK
 62
     0
 10
31.095801
 20
17.216684
 30
0.0
 11
31.395801
 21
17.216684
 31
0.0
 12
31.245801
 22
18.116684
 32
0.0
 13
31.245801
 23
18.116684
 33
0.0
  0
TEXT
  8
0
  6
BYBLOCK
 62
     0
 10
28.098926
 20
16.004184
 30
0.0
 40
0.625
  1
0.375
 41
0.75
 72
     1
 11
28.997364
 21
16.316684
 31
0.0
 73
     2
  0
POINT
  8
DEFPOINTS
  6
BYBLOCK
 62
     0
 10
26.404086
 20
18.491684
 30
0.0
  0
POINT
  8
DEFPOINTS
  6
BYBLOCK
 62
     0
 10
27.404086
 20
18.116684
 30
0.0
  0
POINT
  8
DEFPOINTS
  6
BYBLOCK
 62
     0
 10
31.245801
 20
18.116684
 30
0.0
  0
ENDBLK
  8
0
  0
BLOCK
  8
0
  2
*D14
 70
    65
 10
0.0
 20
0.0
 30
0.0
  3
*D
  0
LINE
  8
0
  6
BYBLOCK
 62
     0
 10
8.672007
 20
71.702223
 30
0.0
 11
8.672007
 21
72.98767
 31
0.0
  0
LINE
  8
0
  6
BYBLOCK
 62
     0
 10
25.672007
 20
71.702223
 30
0.0
 11
25.672007
 21
72.98767
 31
0.0
  0
LINE
  8
0
  6
BYBLOCK
 62
     0
 10
9.572007
 20
72.52267
 30
0.0
 11
16.565757
 21
72.52267
 31
0.0
  0
LINE
  8
0
  6
BYBLOCK
 62
     0
 10
24.772007
 20
72.52267
 30
0.0
 11
17.778257
 21
72.52267
 31
0.0
  0
SOLID
  8
0
  6
BYBLOCK
 62
     0
 10
9.572007
 20
72.67267
 30
0.0
 11
9.572007
 21
72.37267
 31
0.0
 12
8.672007
 22
72.52267
 32
0.0
 13
8.672007
 23
72.52267
 33
0.0
  0
SOLID
  8
0
  6
BYBLOCK
 62
     0
 10
24.772007
 20
72.67267
 30
0.0
 11
24.772007
 21
72.37267
 31
0.0
 12
25.672007
 22
72.52267
 32
0.0
 13
25.672007
 23
72.52267
 33
0.0
  0
TEXT
  8
0
  6
BYBLOCK
 62
     0
 10
17.015757
 20
72.21017
 30
0.0
 40
0.625
  1
E
 41
0.75
 72
     1
 11
17.172007
 21
72.52267
 31
0.0
 73
     2
  0
POINT
  8
DEFPOINTS
  6
BYBLOCK
 62
     0
 10
8.672007
 20
71.387223
 30
0.0
  0
POINT
  8
DEFPOINTS
  6
BYBLOCK
 62
     0
 10
25.672007
 20
71.387223
 30
0.0
  0
POINT
  8
DEFPOINTS
  6
BYBLOCK
 62
     0
 10
25.672007
 20
72.52267
 30
0.0
  0
ENDBLK
  8
0
  0
BLOCK
  8
0
  2
*D15
 70
    65
 10
0.0
 20
0.0
 30
0.0
  3
*D
  0
LINE
  8
0
  6
BYBLOCK
 62
     0
 10
25.987007
 20
71.387223
 30
0.0
 11
28.814525
 21
71.387223
 31
0.0
  0
LINE
  8
0
  6
BYBLOCK
 62
     0
 10
26.987007
 20
63.387223
 30
0.0
 11
28.814525
 21
63.387223
 31
0.0
  0
LINE
  8
0
  6
BYBLOCK
 62
     0
 10
28.349525
 20
70.487223
 30
0.0
 11
28.349525
 21
68.149723
 31
0.0
  0
LINE
  8
0
  6
BYBLOCK
 62
     0
 10
28.349525
 20
64.287223
 30
0.0
 11
28.349525
 21
66.624723
 31
0.0
  0
SOLID
  8
0
  6
BYBLOCK
 62
     0
 10
28.199525
 20
70.487223
 30
0.0
 11
28.499525
 21
70.487223
 31
0.0
 12
28.349525
 22
71.387223
 32
0.0
 13
28.349525
 23
71.387223
 33
0.0
  0
SOLID
  8
0
  6
BYBLOCK
 62
     0
 10
28.199525
 20
64.287223
 30
0.0
 11
28.499525
 21
64.287223
 31
0.0
 12
28.349525
 22
63.387223
 32
0.0
 13
28.349525
 23
63.387223
 33
0.0
  0
TEXT
  8
0
  6
BYBLOCK
 62
     0
 10
28.193275
 20
67.074723
 30
0.0
 40
0.625
  1
F
 41
0.75
 72
     1
 11
28.349525
 21
67.387223
 31
0.0
 73
     2
  0
POINT
  8
DEFPOINTS
  6
BYBLOCK
 62
     0
 10
25.672007
 20
71.387223
 30
0.0
  0
POINT
  8
DEFPOINTS
  6
BYBLOCK
 62
     0
 10
26.672007
 20
63.387223
 30
0.0
  0
POINT
  8
DEFPOINTS
  6
BYBLOCK
 62
     0
 10
28.349525
 20
63.387223
 30
0.0
  0
ENDBLK
  8
0
  0
BLOCK
  8
0
  2
*D16
 70
    65
 10
0.0
 20
0.0
 30
0.0
  3
*D
  0
LINE
  8
0
  6
BYBLOCK
 62
     0
 10
26.987007
 20
63.267223
 30
0.0
 11
30.064525
 21
63.267223
 31
0.0
  0
LINE
  8
0
  6
BYBLOCK
 62
     0
 10
25.987007
 20
71.387223
 30
0.0
 11
30.064525
 21
71.387223
 31
0.0
  0
LINE
  8
0
  6
BYBLOCK
 62
     0
 10
29.599525
 20
64.167223
 30
0.0
 11
29.599525
 21
66.564723
 31
0.0
  0
LINE
  8
0
  6
BYBLOCK
 62
     0
 10
29.599525
 20
70.487223
 30
0.0
 11
29.599525
 21
68.089723
 31
0.0
  0
SOLID
  8
0
  6
BYBLOCK
 62
     0
 10
29.449525
 20
64.167223
 30
0.0
 11
29.749525
 21
64.167223
 31
0.0
 12
29.599525
 22
63.267223
 32
0.0
 13
29.599525
 23
63.267223
 33
0.0
  0
SOLID
  8
0
  6
BYBLOCK
 62
     0
 10
29.449525
 20
70.487223
 30
0.0
 11
29.749525
 21
70.487223
 31
0.0
 12
29.599525
 22
71.387223
 32
0.0
 13
29.599525
 23
71.387223
 33
0.0
  0
TEXT
  8
0
  6
BYBLOCK
 62
     0
 10
29.443275
 20
67.014723
 30
0.0
 40
0.625
  1
G
 41
0.75
 72
     1
 11
29.599525
 21
67.327223
 31
0.0
 73
     2
  0
POINT
  8
DEFPOINTS
  6
BYBLOCK
 62
     0
 10
26.672007
 20
63.267223
 30
0.0
  0
POINT
  8
DEFPOINTS
  6
BYBLOCK
 62
     0
 10
25.672007
 20
71.387223
 30
0.0
  0
POINT
  8
DEFPOINTS
  6
BYBLOCK
 62
     0
 10
29.599525
 20
71.387223
 30
0.0
  0
ENDBLK
  8
0
  0
BLOCK
  8
0
  2
*D17
 70
    65
 10
0.0
 20
0.0
 30
0.0
  3
*D
  0
LINE
  8
0
  6
BYBLOCK
 62
     0
 10
7.672007
 20
56.945898
 30
0.0
 11
7.672007
 21
59.807168
 31
0.0
  0
LINE
  8
0
  6
BYBLOCK
 62
     0
 10
26.672007
 20
56.945898
 30
0.0
 11
26.672007
 21
59.807168
 31
0.0
  0
LINE
  8
0
  6
BYBLOCK
 62
     0
 10
8.572007
 20
59.342168
 30
0.0
 11
16.565757
 21
59.342168
 31
0.0
  0
LINE
  8
0
  6
BYBLOCK
 62
     0
 10
25.772007
 20
59.342168
 30
0.0
 11
17.778257
 21
59.342168
 31
0.0
  0
SOLID
  8
0
  6
BYBLOCK
 62
     0
 10
8.572007
 20
59.492168
 30
0.0
 11
8.572007
 21
59.192168
 31
0.0
 12
7.672007
 22
59.342168
 32
0.0
 13
7.672007
 23
59.342168
 33
0.0
  0
SOLID
  8
0
  6
BYBLOCK
 62
     0
 10
25.772007
 20
59.492168
 30
0.0
 11
25.772007
 21
59.192168
 31
0.0
 12
26.672007
 22
59.342168
 32
0.0
 13
26.672007
 23
59.342168
 33
0.0
  0
TEXT
  8
0
  6
BYBLOCK
 62
     0
 10
17.015757
 20
59.029668
 30
0.0
 40
0.625
  1
A
 41
0.75
 72
     1
 11
17.172007
 21
59.342168
 31
0.0
 73
     2
  0
POINT
  8
DEFPOINTS
  6
BYBLOCK
 62
     0
 10
7.672007
 20
56.630898
 30
0.0
  0
POINT
  8
DEFPOINTS
  6
BYBLOCK
 62
     0
 10
26.672007
 20
56.630898
 30
0.0
  0
POINT
  8
DEFPOINTS
  6
BYBLOCK
 62
     0
 10
26.672007
 20
59.342168
 30
0.0
  0
ENDBLK
  8
0
  0
BLOCK
  8
0
  2
*D18
 70
    65
 10
0.0
 20
0.0
 30
0.0
  3
*D
  0
LINE
  8
0
  6
BYBLOCK
 62
     0
 10
7.672007
 20
56.945898
 30
0.0
 11
7.672007
 21
58.557168
 31
0.0
  0
LINE
  8
0
  6
BYBLOCK
 62
     0
 10
8.000007
 20
56.834898
 30
0.0
 11
8.000007
 21
58.557168
 31
0.0
  0
LINE
  8
0
  6
BYBLOCK
 62
     0
 10
6.772007
 20
58.092168
 30
0.0
 11
5.872007
 21
58.092168
 31
0.0
  0
LINE
  8
0
  6
BYBLOCK
 62
     0
 10
8.900007
 20
58.092168
 30
0.0
 11
9.800007
 21
58.092168
 31
0.0
  0
SOLID
  8
0
  6
BYBLOCK
 62
     0
 10
6.772007
 20
58.242168
 30
0.0
 11
6.772007
 21
57.942168
 31
0.0
 12
7.672007
 22
58.092168
 32
0.0
 13
7.672007
 23
58.092168
 33
0.0
  0
SOLID
  8
0
  6
BYBLOCK
 62
     0
 10
8.900007
 20
58.242168
 30
0.0
 11
8.900007
 21
57.942168
 31
0.0
 12
8.000007
 22
58.092168
 32
0.0
 13
8.000007
 23
58.092168
 33
0.0
  0
TEXT
  8
0
  6
BYBLOCK
 62
     0
 10
10.250007
 20
57.779668
 30
0.0
 40
0.625
  1
0.328
 41
0.75
 72
     1
 11
11.148444
 21
58.092168
 31
0.0
 73
     2
  0
POINT
  8
DEFPOINTS
  6
BYBLOCK
 62
     0
 10
7.672007
 20
56.630898
 30
0.0
  0
POINT
  8
DEFPOINTS
  6
BYBLOCK
 62
     0
 10
8.000007
 20
56.519898
 30
0.0
  0
POINT
  8
DEFPOINTS
  6
BYBLOCK
 62
     0
 10
8.000007
 20
58.092168
 30
0.0
  0
ENDBLK
  8
0
  0
BLOCK
  8
0
  2
*D19
 70
    65
 10
0.0
 20
0.0
 30
0.0
  3
*D
  0
LINE
  8
0
  6
BYBLOCK
 62
     0
 10
26.672007
 20
56.945898
 30
0.0
 11
26.672007
 21
58.429444
 31
0.0
  0
LINE
  8
0
  6
BYBLOCK
 62
     0
 10
26.344007
 20
56.834898
 30
0.0
 11
26.344007
 21
58.429444
 31
0.0
  0
LINE
  8
0
  6
BYBLOCK
 62
     0
 10
27.572007
 20
57.964444
 30
0.0
 11
28.472007
 21
57.964444
 31
0.0
  0
LINE
  8
0
  6
BYBLOCK
 62
     0
 10
25.444007
 20
57.964444
 30
0.0
 11
24.544007
 21
57.964444
 31
0.0
  0
SOLID
  8
0
  6
BYBLOCK
 62
     0
 10
27.572007
 20
58.114444
 30
0.0
 11
27.572007
 21
57.814444
 31
0.0
 12
26.672007
 22
57.964444
 32
0.0
 13
26.672007
 23
57.964444
 33
0.0
  0
SOLID
  8
0
  6
BYBLOCK
 62
     0
 10
25.444007
 20
58.114444
 30
0.0
 11
25.444007
 21
57.814444
 31
0.0
 12
26.344007
 22
57.964444
 32
0.0
 13
26.344007
 23
57.964444
 33
0.0
  0
TEXT
  8
0
  6
BYBLOCK
 62
     0
 10
22.297132
 20
57.651944
 30
0.0
 40
0.625
  1
0.328
 41
0.75
 72
     1
 11
23.195569
 21
57.964444
 31
0.0
 73
     2
  0
POINT
  8
DEFPOINTS
  6
BYBLOCK
 62
     0
 10
26.672007
 20
56.630898
 30
0.0
  0
POINT
  8
DEFPOINTS
  6
BYBLOCK
 62
     0
 10
26.344007
 20
56.519898
 30
0.0
  0
POINT
  8
DEFPOINTS
  6
BYBLOCK
 62
     0
 10
26.344007
 20
57.964444
 30
0.0
  0
ENDBLK
  8
0
  0
BLOCK
  8
0
  2
*D20
 70
    65
 10
0.0
 20
0.0
 30
0.0
  3
*D
  0
LINE
  8
0
  6
BYBLOCK
 62
     0
 10
7.621007
 20
55.130898
 30
0.0
 11
6.250929
 21
55.130898
 31
0.0
  0
LINE
  8
0
  6
BYBLOCK
 62
     0
 10
7.357007
 20
54.880898
 30
0.0
 11
6.250929
 21
54.880898
 31
0.0
  0
LINE
  8
0
  6
BYBLOCK
 62
     0
 10
6.715929
 20
56.030898
 30
0.0
 11
6.715929
 21
56.930898
 31
0.0
  0
LINE
  8
0
  6
BYBLOCK
 62
     0
 10
6.715929
 20
53.980898
 30
0.0
 11
6.715929
 21
53.080898
 31
0.0
  0
LINE
  8
0
  6
BYBLOCK
 62
     0
 10
6.715929
 20
53.080898
 30
0.0
 11
5.815929
 21
53.080898
 31
0.0
  0
SOLID
  8
0
  6
BYBLOCK
 62
     0
 10
6.565929
 20
56.030898
 30
0.0
 11
6.865929
 21
56.030898
 31
0.0
 12
6.715929
 22
55.130898
 32
0.0
 13
6.715929
 23
55.130898
 33
0.0
  0
SOLID
  8
0
  6
BYBLOCK
 62
     0
 10
6.565929
 20
53.980898
 30
0.0
 11
6.865929
 21
53.980898
 31
0.0
 12
6.715929
 22
54.880898
 32
0.0
 13
6.715929
 23
54.880898
 33
0.0
  0
TEXT
  8
0
  6
BYBLOCK
 62
     0
 10
3.647179
 20
52.768398
 30
0.0
 40
0.625
  1
0.250
 41
0.75
 72
     1
 11
4.506554
 21
53.080898
 31
0.0
 73
     2
  0
POINT
  8
DEFPOINTS
  6
BYBLOCK
 62
     0
 10
7.936007
 20
55.130898
 30
0.0
  0
POINT
  8
DEFPOINTS
  6
BYBLOCK
 62
     0
 10
7.672007
 20
54.880898
 30
0.0
  0
POINT
  8
DEFPOINTS
  6
BYBLOCK
 62
     0
 10
6.715929
 20
54.880898
 30
0.0
  0
ENDBLK
  8
0
  0
BLOCK
  8
0
  2
*D21
 70
    65
 10
0.0
 20
0.0
 30
0.0
  3
*D
  0
LINE
  8
0
  6
BYBLOCK
 62
     0
 10
11.404086
 20
18.176684
 30
0.0
 11
11.404086
 21
15.851684
 31
0.0
  0
LINE
  8
0
  6
BYBLOCK
 62
     0
 10
18.904086
 20
18.176684
 30
0.0
 11
18.904086
 21
15.851684
 31
0.0
  0
LINE
  8
0
  6
BYBLOCK
 62
     0
 10
12.304086
 20
16.316684
 30
0.0
 11
14.547836
 21
16.316684
 31
0.0
  0
LINE
  8
0
  6
BYBLOCK
 62
     0
 10
18.004086
 20
16.316684
 30
0.0
 11
15.760336
 21
16.316684
 31
0.0
  0
SOLID
  8
0
  6
BYBLOCK
 62
     0
 10
12.304086
 20
16.466684
 30
0.0
 11
12.304086
 21
16.166684
 31
0.0
 12
11.404086
 22
16.316684
 32
0.0
 13
11.404086
 23
16.316684
 33
0.0
  0
SOLID
  8
0
  6
BYBLOCK
 62
     0
 10
18.004086
 20
16.466684
 30
0.0
 11
18.004086
 21
16.166684
 31
0.0
 12
18.904086
 22
16.316684
 32
0.0
 13
18.904086
 23
16.316684
 33
0.0
  0
TEXT
  8
0
  6
BYBLOCK
 62
     0
 10
14.997836
 20
16.004184
 30
0.0
 40
0.625
  1
F
 41
0.75
 72
     1
 11
15.154086
 21
16.316684
 31
0.0
 73
     2
  0
POINT
  8
DEFPOINTS
  6
BYBLOCK
 62
     0
 10
11.404086
 20
18.491684
 30
0.0
  0
POINT
  8
DEFPOINTS
  6
BYBLOCK
 62
     0
 10
18.904086
 20
18.491684
 30
0.0
  0
POINT
  8
DEFPOINTS
  6
BYBLOCK
 62
     0
 10
18.904086
 20
16.316684
 30
0.0
  0
ENDBLK
  8
0
  0
BLOCK
  8
0
  2
*D22
 70
    65
 10
0.0
 20
0.0
 30
0.0
  3
*D
  0
LINE
  8
0
  6
BYBLOCK
 62
     0
 10
11.404086
 20
18.176684
 30
0.0
 11
11.404086
 21
15.851684
 31
0.0
  0
LINE
  8
0
  6
BYBLOCK
 62
     0
 10
10.404086
 20
17.801684
 30
0.0
 11
10.404086
 21
15.851684
 31
0.0
  0
LINE
  8
0
  6
BYBLOCK
 62
     0
 10
12.304086
 20
16.316684
 30
0.0
 11
13.204086
 21
16.316684
 31
0.0
  0
LINE
  8
0
  6
BYBLOCK
 62
     0
 10
9.504086
 20
16.316684
 30
0.0
 11
8.604086
 21
16.316684
 31
0.0
  0
SOLID
  8
0
  6
BYBLOCK
 62
     0
 10
12.304086
 20
16.466684
 30
0.0
 11
12.304086
 21
16.166684
 31
0.0
 12
11.404086
 22
16.316684
 32
0.0
 13
11.404086
 23
16.316684
 33
0.0
  0
SOLID
  8
0
  6
BYBLOCK
 62
     0
 10
9.504086
 20
16.466684
 30
0.0
 11
9.504086
 21
16.166684
 31
0.0
 12
10.404086
 22
16.316684
 32
0.0
 13
10.404086
 23
16.316684
 33
0.0
  0
TEXT
  8
0
  6
BYBLOCK
 62
     0
 10
6.669711
 20
16.004184
 30
0.0
 40
0.625
  1
1.000
 41
0.75
 72
     1
 11
7.411899
 21
16.316684
 31
0.0
 73
     2
  0
POINT
  8
DEFPOINTS
  6
BYBLOCK
 62
     0
 10
11.404086
 20
18.491684
 30
0.0
  0
POINT
  8
DEFPOINTS
  6
BYBLOCK
 62
     0
 10
10.404086
 20
18.116684
 30
0.0
  0
POINT
  8
DEFPOINTS
  6
BYBLOCK
 62
     0
 10
10.404086
 20
16.316684
 30
0.0
  0
ENDBLK
  8
0
  0
BLOCK
  8
0
  2
*D23
 70
    65
 10
0.0
 20
0.0
 30
0.0
  3
*D
  0
LINE
  8
0
  6
BYBLOCK
 62
     0
 10
18.904086
 20
18.176684
 30
0.0
 11
18.904086
 21
15.851684
 31
0.0
  0
LINE
  8
0
  6
BYBLOCK
 62
     0
 10
26.404086
 20
18.176684
 30
0.0
 11
26.404086
 21
15.851684
 31
0.0
  0
LINE
  8
0
  6
BYBLOCK
 62
     0
 10
19.804086
 20
16.316684
 30
0.0
 11
22.047836
 21
16.316684
 31
0.0
  0
LINE
  8
0
  6
BYBLOCK
 62
     0
 10
25.504086
 20
16.316684
 30
0.0
 11
23.260336
 21
16.316684
 31
0.0
  0
SOLID
  8
0
  6
BYBLOCK
 62
     0
 10
19.804086
 20
16.466684
 30
0.0
 11
19.804086
 21
16.166684
 31
0.0
 12
18.904086
 22
16.316684
 32
0.0
 13
18.904086
 23
16.316684
 33
0.0
  0
SOLID
  8
0
  6
BYBLOCK
 62
     0
 10
25.504086
 20
16.466684
 30
0.0
 11
25.504086
 21
16.166684
 31
0.0
 12
26.404086
 22
16.316684
 32
0.0
 13
26.404086
 23
16.316684
 33
0.0
  0
TEXT
  8
0
  6
BYBLOCK
 62
     0
 10
22.497836
 20
16.004184
 30
0.0
 40
0.625
  1
F
 41
0.75
 72
     1
 11
22.654086
 21
16.316684
 31
0.0
 73
     2
  0
POINT
  8
DEFPOINTS
  6
BYBLOCK
 62
     0
 10
18.904086
 20
18.491684
 30
0.0
  0
POINT
  8
DEFPOINTS
  6
BYBLOCK
 62
     0
 10
26.404086
 20
18.491684
 30
0.0
  0
POINT
  8
DEFPOINTS
  6
BYBLOCK
 62
     0
 10
26.404086
 20
16.316684
 30
0.0
  0
ENDBLK
  8
0
  0
BLOCK
  8
0
  2
*D24
 70
    65
 10
0.0
 20
0.0
 30
0.0
  3
*D
  0
LINE
  8
0
  6
BYBLOCK
 62
     0
 10
44.748891
 20
17.907575
 30
0.0
 11
44.748891
 21
16.493792
 31
0.0
  0
LINE
  8
0
  6
BYBLOCK
 62
     0
 10
44.698891
 20
17.907575
 30
0.0
 11
44.698891
 21
16.493792
 31
0.0
  0
LINE
  8
0
  6
BYBLOCK
 62
     0
 10
45.648891
 20
16.958792
 30
0.0
 11
46.548891
 21
16.958792
 31
0.0
  0
LINE
  8
0
  6
BYBLOCK
 62
     0
 10
43.798891
 20
16.958792
 30
0.0
 11
42.898891
 21
16.958792
 31
0.0
  0
SOLID
  8
0
  6
BYBLOCK
 62
     0
 10
45.648891
 20
17.108792
 30
0.0
 11
45.648891
 21
16.808792
 31
0.0
 12
44.748891
 22
16.958792
 32
0.0
 13
44.748891
 23
16.958792
 33
0.0
  0
SOLID
  8
0
  6
BYBLOCK
 62
     0
 10
43.798891
 20
17.108792
 30
0.0
 11
43.798891
 21
16.808792
 31
0.0
 12
44.698891
 22
16.958792
 32
0.0
 13
44.698891
 23
16.958792
 33
0.0
  0
TEXT
  8
0
  6
BYBLOCK
 62
     0
 10
40.808266
 20
16.646292
 30
0.0
 40
0.625
  1
0.050
 41
0.75
 72
     1
 11
41.628579
 21
16.958792
 31
0.0
 73
     2
  0
POINT
  8
DEFPOINTS
  6
BYBLOCK
 62
     0
 10
44.748891
 20
18.222575
 30
0.0
  0
POINT
  8
DEFPOINTS
  6
BYBLOCK
 62
     0
 10
44.698891
 20
18.222575
 30
0.0
  0
POINT
  8
DEFPOINTS
  6
BYBLOCK
 62
     0
 10
44.698891
 20
16.958792
 30
0.0
  0
ENDBLK
  8
0
  0
BLOCK
  8
0
  2
*D25
 70
    65
 10
0.0
 20
0.0
 30
0.0
  3
*D
  0
LINE
  8
0
  6
BYBLOCK
 62
     0
 10
34.586598
 20
63.321225
 30
0.0
 11
34.586598
 21
61.58551
 31
0.0
  0
LINE
  8
0
  6
BYBLOCK
 62
     0
 10
33.086598
 20
62.447225
 30
0.0
 11
33.086598
 21
61.58551
 31
0.0
  0
LINE
  8
0
  6
BYBLOCK
 62
     0
 10
35.486598
 20
62.05051
 30
0.0
 11
36.386598
 21
62.05051
 31
0.0
  0
LINE
  8
0
  6
BYBLOCK
 62
     0
 10
32.186598
 20
62.05051
 30
0.0
 11
31.286598
 21
62.05051
 31
0.0
  0
SOLID
  8
0
  6
BYBLOCK
 62
     0
 10
35.486598
 20
62.20051
 30
0.0
 11
35.486598
 21
61.90051
 31
0.0
 12
34.586598
 22
62.05051
 32
0.0
 13
34.586598
 23
62.05051
 33
0.0
  0
SOLID
  8
0
  6
BYBLOCK
 62
     0
 10
32.186598
 20
62.20051
 30
0.0
 11
32.186598
 21
61.90051
 31
0.0
 12
33.086598
 22
62.05051
 32
0.0
 13
33.086598
 23
62.05051
 33
0.0
  0
TEXT
  8
0
  6
BYBLOCK
 62
     0
 10
29.274098
 20
61.73801
 30
0.0
 40
0.625
  1
1.500
 41
0.75
 72
     1
 11
30.055348
 21
62.05051
 31
0.0
 73
     2
  0
POINT
  8
DEFPOINTS
  6
BYBLOCK
 62
     0
 10
34.586598
 20
63.636225
 30
0.0
  0
POINT
  8
DEFPOINTS
  6
BYBLOCK
 62
     0
 10
33.086598
 20
62.762225
 30
0.0
  0
POINT
  8
DEFPOINTS
  6
BYBLOCK
 62
     0
 10
33.086598
 20
62.05051
 30
0.0
  0
ENDBLK
  8
0
  0
BLOCK
  8
0
  2
*D26
 70
    65
 10
0.0
 20
0.0
 30
0.0
  3
*D
  0
LINE
  8
0
  6
BYBLOCK
 62
     0
 10
34.586598
 20
59.031726
 30
0.0
 11
34.586598
 21
56.046011
 31
0.0
  0
LINE
  8
0
  6
BYBLOCK
 62
     0
 10
38.586598
 20
59.031726
 30
0.0
 11
38.586598
 21
56.046011
 31
0.0
  0
LINE
  8
0
  6
BYBLOCK
 62
     0
 10
33.686598
 20
56.511011
 30
0.0
 11
32.786598
 21
56.511011
 31
0.0
  0
LINE
  8
0
  6
BYBLOCK
 62
     0
 10
39.486598
 20
56.511011
 30
0.0
 11
40.386598
 21
56.511011
 31
0.0
  0
SOLID
  8
0
  6
BYBLOCK
 62
     0
 10
33.686598
 20
56.661011
 30
0.0
 11
33.686598
 21
56.361011
 31
0.0
 12
34.586598
 22
56.511011
 32
0.0
 13
34.586598
 23
56.511011
 33
0.0
  0
SOLID
  8
0
  6
BYBLOCK
 62
     0
 10
39.486598
 20
56.661011
 30
0.0
 11
39.486598
 21
56.361011
 31
0.0
 12
38.586598
 22
56.511011
 32
0.0
 13
38.586598
 23
56.511011
 33
0.0
  0
TEXT
  8
0
  6
BYBLOCK
 62
     0
 10
35.766285
 20
56.198511
 30
0.0
 40
0.625
  1
4.000
 41
0.75
 72
     1
 11
36.586598
 21
56.511011
 31
0.0
 73
     2
  0
POINT
  8
DEFPOINTS
  6
BYBLOCK
 62
     0
 10
34.586598
 20
59.346726
 30
0.0
  0
POINT
  8
DEFPOINTS
  6
BYBLOCK
 62
     0
 10
38.586598
 20
59.346726
 30
0.0
  0
POINT
  8
DEFPOINTS
  6
BYBLOCK
 62
     0
 10
38.586598
 20
56.511011
 30
0.0
  0
ENDBLK
  8
0
  0
BLOCK
  8
0
  2
*D27
 70
    65
 10
0.0
 20
0.0
 30
0.0
  3
*D
  0
LINE
  8
0
  6
BYBLOCK
 62
     0
 10
34.586598
 20
59.031726
 30
0.0
 11
34.586598
 21
54.796011
 31
0.0
  0
LINE
  8
0
  6
BYBLOCK
 62
     0
 10
40.586598
 20
59.031726
 30
0.0
 11
40.586598
 21
54.796011
 31
0.0
  0
LINE
  8
0
  6
BYBLOCK
 62
     0
 10
35.486598
 20
55.261011
 30
0.0
 11
36.316285
 21
55.261011
 31
0.0
  0
LINE
  8
0
  6
BYBLOCK
 62
     0
 10
39.686598
 20
55.261011
 30
0.0
 11
38.85691
 21
55.261011
 31
0.0
  0
SOLID
  8
0
  6
BYBLOCK
 62
     0
 10
35.486598
 20
55.411011
 30
0.0
 11
35.486598
 21
55.111011
 31
0.0
 12
34.586598
 22
55.261011
 32
0.0
 13
34.586598
 23
55.261011
 33
0.0
  0
SOLID
  8
0
  6
BYBLOCK
 62
     0
 10
39.686598
 20
55.411011
 30
0.0
 11
39.686598
 21
55.111011
 31
0.0
 12
40.586598
 22
55.261011
 32
0.0
 13
40.586598
 23
55.261011
 33
0.0
  0
TEXT
  8
0
  6
BYBLOCK
 62
     0
 10
36.766285
 20
54.948511
 30
0.0
 40
0.625
  1
6.000
 41
0.75
 72
     1
 11
37.586598
 21
55.261011
 31
0.0
 73
     2
  0
POINT
  8
DEFPOINTS
  6
BYBLOCK
 62
     0
 10
34.586598
 20
59.346726
 30
0.0
  0
POINT
  8
DEFPOINTS
  6
BYBLOCK
 62
     0
 10
40.586598
 20
59.346726
 30
0.0
  0
POINT
  8
DEFPOINTS
  6
BYBLOCK
 62
     0
 10
40.586598
 20
55.261011
 30
0.0
  0
ENDBLK
  8
0
  0
BLOCK
  8
0
  2
*D28
 70
    65
 10
0.0
 20
0.0
 30
0.0
  3
*D
  0
LINE
  8
0
  6
BYBLOCK
 62
     0
 10
34.586598
 20
64.879327
 30
0.0
 11
34.586598
 21
61.893612
 31
0.0
  0
LINE
  8
0
  6
BYBLOCK
 62
     0
 10
36.586598
 20
64.879327
 30
0.0
 11
36.586598
 21
61.893612
 31
0.0
  0
LINE
  8
0
  6
BYBLOCK
 62
     0
 10
33.686598
 20
62.358612
 30
0.0
 11
32.786598
 21
62.358612
 31
0.0
  0
LINE
  8
0
  6
BYBLOCK
 62
     0
 10
37.486598
 20
62.358612
 30
0.0
 11
38.386598
 21
62.358612
 31
0.0
  0
SOLID
  8
0
  6
BYBLOCK
 62
     0
 10
33.686598
 20
62.508612
 30
0.0
 11
33.686598
 21
62.208612
 31
0.0
 12
34.586598
 22
62.358612
 32
0.0
 13
34.586598
 23
62.358612
 33
0.0
  0
SOLID
  8
0
  6
BYBLOCK
 62
     0
 10
37.486598
 20
62.508612
 30
0.0
 11
37.486598
 21
62.208612
 31
0.0
 12
36.586598
 22
62.358612
 32
0.0
 13
36.586598
 23
62.358612
 33
0.0
  0
TEXT
  8
0
  6
BYBLOCK
 62
     0
 10
34.766285
 20
62.046112
 30
0.0
 40
0.625
  1
2.000
 41
0.75
 72
     1
 11
35.586598
 21
62.358612
 31
0.0
 73
     2
  0
POINT
  8
DEFPOINTS
  6
BYBLOCK
 62
     0
 10
34.586598
 20
65.194327
 30
0.0
  0
POINT
  8
DEFPOINTS
  6
BYBLOCK
 62
     0
 10
36.586598
 20
65.194327
 30
0.0
  0
POINT
  8
DEFPOINTS
  6
BYBLOCK
 62
     0
 10
36.586598
 20
62.358612
 30
0.0
  0
ENDBLK
  8
0
  0
BLOCK
  8
0
  2
*D29
 70
    65
 10
0.0
 20
0.0
 30
0.0
  3
*D
  0
LINE
  8
0
  6
BYBLOCK
 62
     0
 10
34.586598
 20
51.909958
 30
0.0
 11
34.586598
 21
47.674243
 31
0.0
  0
LINE
  8
0
  6
BYBLOCK
 62
     0
 10
43.586598
 20
51.909958
 30
0.0
 11
43.586598
 21
47.674243
 31
0.0
  0
LINE
  8
0
  6
BYBLOCK
 62
     0
 10
35.486598
 20
48.139243
 30
0.0
 11
37.816285
 21
48.139243
 31
0.0
  0
LINE
  8
0
  6
BYBLOCK
 62
     0
 10
42.686598
 20
48.139243
 30
0.0
 11
40.35691
 21
48.139243
 31
0.0
  0
SOLID
  8
0
  6
BYBLOCK
 62
     0
 10
35.486598
 20
48.289243
 30
0.0
 11
35.486598
 21
47.989243
 31
0.0
 12
34.586598
 22
48.139243
 32
0.0
 13
34.586598
 23
48.139243
 33
0.0
  0
SOLID
  8
0
  6
BYBLOCK
 62
     0
 10
42.686598
 20
48.289243
 30
0.0
 11
42.686598
 21
47.989243
 31
0.0
 12
43.586598
 22
48.139243
 32
0.0
 13
43.586598
 23
48.139243
 33
0.0
  0
TEXT
  8
0
  6
BYBLOCK
 62
     0
 10
38.266285
 20
47.826743
 30
0.0
 40
0.625
  1
9.000
 41
0.75
 72
     1
 11
39.086598
 21
48.139243
 31
0.0
 73
     2
  0
POINT
  8
DEFPOINTS
  6
BYBLOCK
 62
     0
 10
34.586598
 20
52.224958
 30
0.0
  0
POINT
  8
DEFPOINTS
  6
BYBLOCK
 62
     0
 10
43.586598
 20
52.224958
 30
0.0
  0
POINT
  8
DEFPOINTS
  6
BYBLOCK
 62
     0
 10
43.586598
 20
48.139243
 30
0.0
  0
ENDBLK
  8
0
  0
BLOCK
  8
0
  2
*D30
 70
    65
 10
0.0
 20
0.0
 30
0.0
  3
*D
  0
LINE
  8
0
  6
BYBLOCK
 62
     0
 10
34.586598
 20
51.909958
 30
0.0
 11
34.586598
 21
46.424243
 31
0.0
  0
LINE
  8
0
  6
BYBLOCK
 62
     0
 10
48.586598
 20
51.909958
 30
0.0
 11
48.586598
 21
46.424243
 31
0.0
  0
LINE
  8
0
  6
BYBLOCK
 62
     0
 10
35.486598
 20
46.889243
 30
0.0
 11
40.160035
 21
46.889243
 31
0.0
  0
LINE
  8
0
  6
BYBLOCK
 62
     0
 10
47.686598
 20
46.889243
 30
0.0
 11
43.01316
 21
46.889243
 31
0.0
  0
SOLID
  8
0
  6
BYBLOCK
 62
     0
 10
35.486598
 20
47.039243
 30
0.0
 11
35.486598
 21
46.739243
 31
0.0
 12
34.586598
 22
46.889243
 32
0.0
 13
34.586598
 23
46.889243
 33
0.0
  0
SOLID
  8
0
  6
BYBLOCK
 62
     0
 10
47.686598
 20
47.039243
 30
0.0
 11
47.686598
 21
46.739243
 31
0.0
 12
48.586598
 22
46.889243
 32
0.0
 13
48.586598
 23
46.889243
 33
0.0
  0
TEXT
  8
0
  6
BYBLOCK
 62
     0
 10
40.610035
 20
46.576743
 30
0.0
 40
0.625
  1
14.000
 41
0.75
 72
     1
 11
41.586598
 21
46.889243
 31
0.0
 73
     2
  0
POINT
  8
DEFPOINTS
  6
BYBLOCK
 62
     0
 10
34.586598
 20
52.224958
 30
0.0
  0
POINT
  8
DEFPOINTS
  6
BYBLOCK
 62
     0
 10
48.586598
 20
52.224958
 30
0.0
  0
POINT
  8
DEFPOINTS
  6
BYBLOCK
 62
     0
 10
48.586598
 20
46.889243
 30
0.0
  0
ENDBLK
  8
0
  0
BLOCK
  8
0
  2
*D31
 70
    65
 10
0.0
 20
0.0
 30
0.0
  3
*D
  0
LINE
  8
0
  6
BYBLOCK
 62
     0
 10
25.062524
 20
58.722726
 30
0.0
 11
28.084043
 21
58.722726
 31
0.0
  0
LINE
  8
0
  6
BYBLOCK
 62
     0
 10
25.062524
 20
59.972726
 30
0.0
 11
28.084043
 21
59.972726
 31
0.0
  0
LINE
  8
0
  6
BYBLOCK
 62
     0
 10
27.619043
 20
57.822726
 30
0.0
 11
27.619043
 21
56.922726
 31
0.0
  0
LINE
  8
0
  6
BYBLOCK
 62
     0
 10
27.619043
 20
60.872726
 30
0.0
 11
27.619043
 21
61.772726
 31
0.0
  0
SOLID
  8
0
  6
BYBLOCK
 62
     0
 10
27.469043
 20
57.822726
 30
0.0
 11
27.769043
 21
57.822726
 31
0.0
 12
27.619043
 22
58.722726
 32
0.0
 13
27.619043
 23
58.722726
 33
0.0
  0
SOLID
  8
0
  6
BYBLOCK
 62
     0
 10
27.469043
 20
60.872726
 30
0.0
 11
27.769043
 21
60.872726
 31
0.0
 12
27.619043
 22
59.972726
 32
0.0
 13
27.619043
 23
59.972726
 33
0.0
  0
TEXT
  8
0
  6
BYBLOCK
 62
     0
 10
27.462793
 20
59.035226
 30
0.0
 40
0.625
  1
C
 41
0.75
 72
     1
 11
27.619043
 21
59.347726
 31
0.0
 73
     2
  0
POINT
  8
DEFPOINTS
  6
BYBLOCK
 62
     0
 10
24.747524
 20
58.722726
 30
0.0
  0
POINT
  8
DEFPOINTS
  6
BYBLOCK
 62
     0
 10
24.747524
 20
59.972726
 30
0.0
  0
POINT
  8
DEFPOINTS
  6
BYBLOCK
 62
     0
 10
27.619043
 20
59.972726
 30
0.0
  0
ENDBLK
  8
0
  0
BLOCK
  8
0
  2
*D32
 70
    65
 10
0.0
 20
0.0
 30
0.0
  3
*D
  0
LINE
  8
0
  6
BYBLOCK
 62
     0
 10
25.326524
 20
60.222726
 30
0.0
 11
29.334043
 21
60.222726
 31
0.0
  0
LINE
  8
0
  6
BYBLOCK
 62
     0
 10
25.326524
 20
58.472726
 30
0.0
 11
29.334043
 21
58.472726
 31
0.0
  0
LINE
  8
0
  6
BYBLOCK
 62
     0
 10
28.869043
 20
61.122726
 30
0.0
 11
28.869043
 21
62.022726
 31
0.0
  0
LINE
  8
0
  6
BYBLOCK
 62
     0
 10
28.869043
 20
57.572726
 30
0.0
 11
28.869043
 21
56.672726
 31
0.0
  0
SOLID
  8
0
  6
BYBLOCK
 62
     0
 10
28.719043
 20
61.122726
 30
0.0
 11
29.019043
 21
61.122726
 31
0.0
 12
28.869043
 22
60.222726
 32
0.0
 13
28.869043
 23
60.222726
 33
0.0
  0
SOLID
  8
0
  6
BYBLOCK
 62
     0
 10
28.719043
 20
57.572726
 30
0.0
 11
29.019043
 21
57.572726
 31
0.0
 12
28.869043
 22
58.472726
 32
0.0
 13
28.869043
 23
58.472726
 33
0.0
  0
TEXT
  8
0
  6
BYBLOCK
 62
     0
 10
28.712793
 20
59.035226
 30
0.0
 40
0.625
  1
B
 41
0.75
 72
     1
 11
28.869043
 21
59.347726
 31
0.0
 73
     2
  0
POINT
  8
DEFPOINTS
  6
BYBLOCK
 62
     0
 10
25.011524
 20
60.222726
 30
0.0
  0
POINT
  8
DEFPOINTS
  6
BYBLOCK
 62
     0
 10
25.011524
 20
58.472726
 30
0.0
  0
POINT
  8
DEFPOINTS
  6
BYBLOCK
 62
     0
 10
28.869043
 20
58.472726
 30
0.0
  0
ENDBLK
  8
0
  0
BLOCK
  8
0
  2
*D33
 70
    65
 10
0.0
 20
0.0
 30
0.0
  3
*D
  0
LINE
  8
0
  6
BYBLOCK
 62
     0
 10
33.086598
 20
53.258958
 30
0.0
 11
33.086598
 21
54.535234
 31
0.0
  0
LINE
  8
0
  6
BYBLOCK
 62
     0
 10
49.086598
 20
53.258958
 30
0.0
 11
49.086598
 21
54.535234
 31
0.0
  0
LINE
  8
0
  6
BYBLOCK
 62
     0
 10
33.986598
 20
54.070234
 30
0.0
 11
36.92566
 21
54.070234
 31
0.0
  0
LINE
  8
0
  6
BYBLOCK
 62
     0
 10
48.186598
 20
54.070234
 30
0.0
 11
45.247535
 21
54.070234
 31
0.0
  0
SOLID
  8
0
  6
BYBLOCK
 62
     0
 10
33.986598
 20
54.220234
 30
0.0
 11
33.986598
 21
53.920234
 31
0.0
 12
33.086598
 22
54.070234
 32
0.0
 13
33.086598
 23
54.070234
 33
0.0
  0
SOLID
  8
0
  6
BYBLOCK
 62
     0
 10
48.186598
 20
54.220234
 30
0.0
 11
48.186598
 21
53.920234
 31
0.0
 12
49.086598
 22
54.070234
 32
0.0
 13
49.086598
 23
54.070234
 33
0.0
  0
TEXT
  8
0
  6
BYBLOCK
 62
     0
 10
37.37566
 20
53.757734
 30
0.0
 40
0.625
  1
WHEN (F) IS 
 41
0.75
 72
     1
 11
40.03191
 21
54.070234
 31
0.0
 73
     2
  0
TEXT
  8
0
  6
BYBLOCK
 62
     0
 10
42.84441
 20
53.757734
 30
0.0
 40
0.625
  1
16.000
 41
0.75
 72
     1
 11
43.820973
 21
54.070234
 31
0.0
 73
     2
  0
POINT
  8
DEFPOINTS
  6
BYBLOCK
 62
     0
 10
33.086598
 20
52.943958
 30
0.0
  0
POINT
  8
DEFPOINTS
  6
BYBLOCK
 62
     0
 10
49.086598
 20
52.943958
 30
0.0
  0
POINT
  8
DEFPOINTS
  6
BYBLOCK
 62
     0
 10
49.086598
 20
54.070234
 30
0.0
  0
ENDBLK
  8
0
  0
BLOCK
  8
0
  2
*D34
 70
    65
 10
0.0
 20
0.0
 30
0.0
  3
*D
  0
LINE
  8
0
  6
BYBLOCK
 62
     0
 10
33.086598
 20
67.772132
 30
0.0
 11
33.086598
 21
69.048408
 31
0.0
  0
LINE
  8
0
  6
BYBLOCK
 62
     0
 10
37.086598
 20
67.772132
 30
0.0
 11
37.086598
 21
69.048408
 31
0.0
  0
LINE
  8
0
  6
BYBLOCK
 62
     0
 10
32.186598
 20
68.583408
 30
0.0
 11
31.286598
 21
68.583408
 31
0.0
  0
LINE
  8
0
  6
BYBLOCK
 62
     0
 10
37.986598
 20
68.583408
 30
0.0
 11
38.886598
 21
68.583408
 31
0.0
  0
SOLID
  8
0
  6
BYBLOCK
 62
     0
 10
32.186598
 20
68.733408
 30
0.0
 11
32.186598
 21
68.433408
 31
0.0
 12
33.086598
 22
68.583408
 32
0.0
 13
33.086598
 23
68.583408
 33
0.0
  0
SOLID
  8
0
  6
BYBLOCK
 62
     0
 10
37.986598
 20
68.733408
 30
0.0
 11
37.986598
 21
68.433408
 31
0.0
 12
37.086598
 22
68.583408
 32
0.0
 13
37.086598
 23
68.583408
 33
0.0
  0
TEXT
  8
0
  6
BYBLOCK
 62
     0
 10
39.336598
 20
68.270908
 30
0.0
 40
0.625
  1
WHEN (F) IS 
 41
0.75
 72
     1
 11
41.992848
 21
68.583408
 31
0.0
 73
     2
  0
TEXT
  8
0
  6
BYBLOCK
 62
     0
 10
44.805348
 20
68.270908
 30
0.0
 40
0.625
  1
4.000
 41
0.75
 72
     1
 11
45.62566
 21
68.583408
 31
0.0
 73
     2
  0
POINT
  8
DEFPOINTS
  6
BYBLOCK
 62
     0
 10
33.086598
 20
67.457132
 30
0.0
  0
POINT
  8
DEFPOINTS
  6
BYBLOCK
 62
     0
 10
37.086598
 20
67.457132
 30
0.0
  0
POINT
  8
DEFPOINTS
  6
BYBLOCK
 62
     0
 10
37.086598
 20
68.583408
 30
0.0
  0
ENDBLK
  8
0
  0
BLOCK
  8
0
  2
*D35
 70
    65
 10
0.0
 20
0.0
 30
0.0
  3
*D
  0
LINE
  8
0
  6
BYBLOCK
 62
     0
 10
33.086598
 20
61.152628
 30
0.0
 11
33.086598
 21
62.428904
 31
0.0
  0
LINE
  8
0
  6
BYBLOCK
 62
     0
 10
41.086598
 20
61.152628
 30
0.0
 11
41.086598
 21
62.428904
 31
0.0
  0
LINE
  8
0
  6
BYBLOCK
 62
     0
 10
32.186598
 20
61.963904
 30
0.0
 11
31.286598
 21
61.963904
 31
0.0
  0
LINE
  8
0
  6
BYBLOCK
 62
     0
 10
41.986598
 20
61.963904
 30
0.0
 11
42.886598
 21
61.963904
 31
0.0
  0
SOLID
  8
0
  6
BYBLOCK
 62
     0
 10
32.186598
 20
62.113904
 30
0.0
 11
32.186598
 21
61.813904
 31
0.0
 12
33.086598
 22
61.963904
 32
0.0
 13
33.086598
 23
61.963904
 33
0.0
  0
SOLID
  8
0
  6
BYBLOCK
 62
     0
 10
41.986598
 20
62.113904
 30
0.0
 11
41.986598
 21
61.813904
 31
0.0
 12
41.086598
 22
61.963904
 32
0.0
 13
41.086598
 23
61.963904
 33
0.0
  0
TEXT
  8
0
  6
BYBLOCK
 62
     0
 10
33.53191
 20
61.651404
 30
0.0
 40
0.625
  1
WHEN (F) IS 
 41
0.75
 72
     1
 11
36.18816
 21
61.963904
 31
0.0
 73
     2
  0
TEXT
  8
0
  6
BYBLOCK
 62
     0
 10
39.00066
 20
61.651404
 30
0.0
 40
0.625
  1
8.000
 41
0.75
 72
     1
 11
39.820973
 21
61.963904
 31
0.0
 73
     2
  0
POINT
  8
DEFPOINTS
  6
BYBLOCK
 62
     0
 10
33.086598
 20
60.837628
 30
0.0
  0
POINT
  8
DEFPOINTS
  6
BYBLOCK
 62
     0
 10
41.086598
 20
60.837628
 30
0.0
  0
POINT
  8
DEFPOINTS
  6
BYBLOCK
 62
     0
 10
41.086598
 20
61.963904
 30
0.0
  0
ENDBLK
  8
0
  0
BLOCK
  8
0
  2
*D36
 70
    65
 10
0.0
 20
0.0
 30
0.0
  3
*D
  0
LINE
  8
0
  6
BYBLOCK
 62
     0
 10
40.901598
 20
60.118628
 30
0.0
 11
44.055493
 21
60.118628
 31
0.0
  0
LINE
  8
0
  6
BYBLOCK
 62
     0
 10
41.401598
 20
60.837628
 30
0.0
 11
44.055493
 21
60.837628
 31
0.0
  0
LINE
  8
0
  6
BYBLOCK
 62
     0
 10
43.590493
 20
59.218628
 30
0.0
 11
43.590493
 21
58.318628
 31
0.0
  0
LINE
  8
0
  6
BYBLOCK
 62
     0
 10
43.590493
 20
61.737628
 30
0.0
 11
43.590493
 21
62.637628
 31
0.0
  0
LINE
  8
0
  6
BYBLOCK
 62
     0
 10
43.590493
 20
62.637628
 30
0.0
 11
44.490493
 21
62.637628
 31
0.0
  0
SOLID
  8
0
  6
BYBLOCK
 62
     0
 10
43.440493
 20
59.218628
 30
0.0
 11
43.740493
 21
59.218628
 31
0.0
 12
43.590493
 22
60.118628
 32
0.0
 13
43.590493
 23
60.118628
 33
0.0
  0
SOLID
  8
0
  6
BYBLOCK
 62
     0
 10
43.440493
 20
61.737628
 30
0.0
 11
43.740493
 21
61.737628
 31
0.0
 12
43.590493
 22
60.837628
 32
0.0
 13
43.590493
 23
60.837628
 33
0.0
  0
TEXT
  8
0
  6
BYBLOCK
 62
     0
 10
44.940493
 20
62.325128
 30
0.0
 40
0.625
  1
H
 41
0.75
 72
     1
 11
45.096743
 21
62.637628
 31
0.0
 73
     2
  0
POINT
  8
DEFPOINTS
  6
BYBLOCK
 62
     0
 10
40.586598
 20
60.118628
 30
0.0
  0
POINT
  8
DEFPOINTS
  6
BYBLOCK
 62
     0
 10
41.086598
 20
60.837628
 30
0.0
  0
POINT
  8
DEFPOINTS
  6
BYBLOCK
 62
     0
 10
43.590493
 20
60.837628
 30
0.0
  0
ENDBLK
  8
0
  0
BLOCK
  8
0
  2
*D37
 70
    65
 10
0.0
 20
0.0
 30
0.0
  3
*D
  0
LINE
  8
0
  6
BYBLOCK
 62
     0
 10
41.401598
 20
59.400628
 30
0.0
 11
46.235493
 21
59.400628
 31
0.0
  0
LINE
  8
0
  6
BYBLOCK
 62
     0
 10
41.401598
 20
60.837628
 30
0.0
 11
46.235493
 21
60.837628
 31
0.0
  0
LINE
  8
0
  6
BYBLOCK
 62
     0
 10
45.770493
 20
58.500628
 30
0.0
 11
45.770493
 21
57.600628
 31
0.0
  0
LINE
  8
0
  6
BYBLOCK
 62
     0
 10
45.770493
 20
61.737628
 30
0.0
 11
45.770493
 21
62.637628
 31
0.0
  0
SOLID
  8
0
  6
BYBLOCK
 62
     0
 10
45.620493
 20
58.500628
 30
0.0
 11
45.920493
 21
58.500628
 31
0.0
 12
45.770493
 22
59.400628
 32
0.0
 13
45.770493
 23
59.400628
 33
0.0
  0
SOLID
  8
0
  6
BYBLOCK
 62
     0
 10
45.620493
 20
61.737628
 30
0.0
 11
45.920493
 21
61.737628
 31
0.0
 12
45.770493
 22
60.837628
 32
0.0
 13
45.770493
 23
60.837628
 33
0.0
  0
TEXT
  8
0
  6
BYBLOCK
 62
     0
 10
45.614243
 20
59.806628
 30
0.0
 40
0.625
  1
D
 41
0.75
 72
     1
 11
45.770493
 21
60.119128
 31
0.0
 73
     2
  0
POINT
  8
DEFPOINTS
  6
BYBLOCK
 62
     0
 10
41.086598
 20
59.400628
 30
0.0
  0
POINT
  8
DEFPOINTS
  6
BYBLOCK
 62
     0
 10
41.086598
 20
60.837628
 30
0.0
  0
POINT
  8
DEFPOINTS
  6
BYBLOCK
 62
     0
 10
45.770493
 20
60.837628
 30
0.0
  0
ENDBLK
  8
0
  0
ENDSEC
  0
SECTION
  2
ENTITIES
  0
TEXT
  8
TEXT
 62
     7
 10
1.325625
 20
75.300396
 30
0.0
 40
0.625
  1
NAME
 41
0.75
 72
     1
 11
2.185
 21
75.300396
 31
0.0
  0
TEXT
  8
TEXT
 62
     7
 10
1.325625
 20
76.342063
 30
0.0
 40
0.625
  1
PART
 41
0.75
 72
     1
 11
2.185
 21
76.342063
 31
0.0
  0
TEXT
  8
TEXT
 62
     7
 10
27.01625
 20
75.300396
 30
0.0
 40
0.625
  1
No.
 41
0.75
 72
     1
 11
27.485
 21
75.300396
 31
0.0
  0
TEXT
  8
TEXT
 62
     7
 10
26.625625
 20
76.342063
 30
0.0
 40
0.625
  1
PART
 41
0.75
 72
     1
 11
27.485
 21
76.342063
 31
0.0
  0
LINE
  8
TITLE
 10
29.36
 20
77.19
 30
0.0
 11
29.36
 21
75.1
 31
0.0
  0
LINE
  8
TITLE
 10
25.61
 20
77.19
 30
0.0
 11
25.61
 21
75.1
 31
0.0
  0
LINE
  8
TITLE
 10
25.3
 20
77.19
 30
0.0
 11
25.3
 21
75.1
 31
0.0
  0
LINE
  8
TITLE
 10
4.06
 20
75.1
 30
0.0
 11
4.06
 21
77.19
 31
0.0
  0
LINE
  8
TITLE
 10
0.31
 20
75.1
 30
0.0
 11
50.29
 21
75.1
 31
0.0
  0
LINE
  8
TITLE
 10
50.29
 20
77.19
 30
0.0
 11
50.29
 21
34.005291
 31
0.0
  0
LINE
  8
TITLE
 10
0.31
 20
77.19
 30
0.0
 11
50.29
 21
77.19
 31
0.0
  0
LINE
  8
TITLE
 10
0.31
 20
0.31
 30
0.0
 11
0.31
 21
33.613689
 31
0.0
  0
LINE
  8
TITLE
 10
0.0
 20
0.0
 30
0.0
 11
0.0
 21
77.5
 31
0.0
  0
LINE
  8
TITLE
 10
50.6
 20
0.0
 30
0.0
 11
0.0
 21
0.0
 31
0.0
  0
LINE
  8
TITLE
 10
50.6
 20
77.5
 30
0.0
 11
50.6
 21
0.0
 31
0.0
  0
LINE
  8
TITLE
 10
0.0
 20
77.5
 30
0.0
 11
50.6
 21
77.5
 31
0.0
  0
LINE
  8
HIDDEN
 62
     7
 10
22.980965
 20
60.837628
 30
0.0
 11
5.980965
 21
60.837628
 31
0.0
  0
LINE
  8
HIDDEN
 62
     7
 10
5.980965
 20
60.837628
 30
0.0
 11
5.980965
 21
59.400628
 31
0.0
  0
LINE
  8
HIDDEN
 62
     7
 10
5.980965
 20
59.400628
 30
0.0
 11
22.980965
 21
59.400628
 31
0.0
  0
LINE
  8
HIDDEN
 62
     7
 10
22.980965
 20
59.400628
 30
0.0
 11
22.980965
 21
60.837628
 31
0.0
  0
LINE
  8
OBJECT
 62
     7
 10
4.980965
 20
59.244628
 30
0.0
 11
23.980965
 21
59.244628
 31
0.0
  0
LINE
  8
OBJECT
 62
     7
 10
23.980965
 20
59.244628
 30
0.0
 11
23.980965
 21
60.994628
 31
0.0
  0
LINE
  8
OBJECT
 62
     7
 10
23.980965
 20
60.994628
 30
0.0
 11
4.980965
 21
60.994628
 31
0.0
  0
LINE
  8
OBJECT
 62
     7
 10
4.980965
 20
60.994628
 30
0.0
 11
4.980965
 21
59.244628
 31
0.0
  0
CIRCLE
  8
OBJECT
 62
     7
 10
6.355965
 20
60.619628
 30
0.0
 40
0.078
  0
CIRCLE
  8
OBJECT
 62
     7
 10
6.355965
 20
59.619628
 30
0.0
 40
0.078
  0
ARC
  8
OBJECT
 62
     7
 10
5.244965
 20
60.744628
 30
0.0
 40
0.139
 50
90.0
 51
270.0
  0
ARC
  8
OBJECT
 62
     7
 10
5.372965
 20
60.744628
 30
0.0
 40
0.139
 50
270.0
 51
90.0
  0
LINE
  8
OBJECT
 62
     7
 10
5.372965
 20
60.883628
 30
0.0
 11
5.244965
 21
60.883628
 31
0.0
  0
LINE
  8
OBJECT
 62
     7
 10
5.244965
 20
60.605628
 30
0.0
 11
5.372965
 21
60.605628
 31
0.0
  0
LINE
  8
OBJECT
 62
     7
 10
5.244965
 20
59.633628
 30
0.0
 11
5.372965
 21
59.633628
 31
0.0
  0
LINE
  8
OBJECT
 62
     7
 10
5.372965
 20
59.355628
 30
0.0
 11
5.244965
 21
59.355628
 31
0.0
  0
ARC
  8
OBJECT
 62
     7
 10
5.372965
 20
59.494628
 30
0.0
 40
0.139
 50
270.0
 51
90.0
  0
ARC
  8
OBJECT
 62
     7
 10
5.244965
 20
59.494628
 30
0.0
 40
0.139
 50
90.0
 51
270.0
  0
ARC
  8
OBJECT
 62
     7
 10
23.716965
 20
59.494628
 30
0.0
 40
0.139
 50
270.0
 51
90.0
  0
ARC
  8
OBJECT
 62
     7
 10
23.588965
 20
59.494628
 30
0.0
 40
0.139
 50
90.0
 51
270.0
  0
LINE
  8
OBJECT
 62
     7
 10
23.588965
 20
59.355628
 30
0.0
 11
23.716965
 21
59.355628
 31
0.0
  0
LINE
  8
OBJECT
 62
     7
 10
23.716965
 20
59.633628
 30
0.0
 11
23.588965
 21
59.633628
 31
0.0
  0
LINE
  8
OBJECT
 62
     7
 10
23.716965
 20
60.605628
 30
0.0
 11
23.588965
 21
60.605628
 31
0.0
  0
LINE
  8
OBJECT
 62
     7
 10
23.588965
 20
60.883628
 30
0.0
 11
23.716965
 21
60.883628
 31
0.0
  0
ARC
  8
OBJECT
 62
     7
 10
23.588965
 20
60.744628
 30
0.0
 40
0.139
 50
90.0
 51
270.0
  0
ARC
  8
OBJECT
 62
     7
 10
23.716965
 20
60.744628
 30
0.0
 40
0.139
 50
270.0
 51
90.0
  0
CIRCLE
  8
OBJECT
 62
     7
 10
22.605965
 20
59.619628
 30
0.0
 40
0.078
  0
CIRCLE
  8
OBJECT
 62
     7
 10
22.605965
 20
60.619628
 30
0.0
 40
0.078
  0
LINE
  8
HIDDEN
 62
     7
 10
22.930965
 20
60.787628
 30
0.0
 11
6.030965
 21
60.787628
 31
0.0
  0
LINE
  8
HIDDEN
 62
     7
 10
6.030965
 20
60.787628
 30
0.0
 11
6.030965
 21
59.450628
 31
0.0
  0
LINE
  8
HIDDEN
 62
     7
 10
6.030965
 20
59.450628
 30
0.0
 11
22.930965
 21
59.450628
 31
0.0
  0
LINE
  8
HIDDEN
 62
     7
 10
22.930965
 20
60.787628
 30
0.0
 11
22.930965
 21
59.450628
 31
0.0
  0
LINE
  8
HIDDEN
 62
     7
 10
6.730965
 20
60.837628
 30
0.0
 11
6.730965
 21
59.400628
 31
0.0
  0
LINE
  8
HIDDEN
 62
     7
 10
22.230965
 20
60.837628
 30
0.0
 11
22.230965
 21
59.400628
 31
0.0
  0
LINE
  8
HIDDEN
 62
     7
 10
7.511965
 20
59.650628
 30
0.0
 11
21.449965
 21
59.650628
 31
0.0
  0
LINE
  8
HIDDEN
 62
     7
 10
21.449965
 20
59.650628
 30
0.0
 11
21.449965
 21
59.400628
 31
0.0
  0
LINE
  8
HIDDEN
 62
     7
 10
7.511965
 20
59.650628
 30
0.0
 11
7.511965
 21
59.400628
 31
0.0
  0
LINE
  8
OBJECT
 62
     7
 10
7.511965
 20
65.20261
 30
0.0
 11
7.511965
 21
65.15261
 31
0.0
  0
LINE
  8
OBJECT
 62
     7
 10
21.449965
 20
65.20261
 30
0.0
 11
21.449965
 21
65.15261
 31
0.0
  0
LINE
  8
OBJECT
 62
     7
 10
22.230965
 20
72.40261
 30
0.0
 11
22.230965
 21
65.15261
 31
0.0
  0
LINE
  8
OBJECT
 62
     7
 10
6.730965
 20
72.40261
 30
0.0
 11
6.730965
 21
65.15261
 31
0.0
  0
LINE
  8
HIDDEN
 62
     7
 10
22.930965
 20
73.10261
 30
0.0
 11
22.930965
 21
65.20261
 31
0.0
  0
LINE
  8
HIDDEN
 62
     7
 10
6.030965
 20
73.10261
 30
0.0
 11
6.030965
 21
65.20261
 31
0.0
  0
LINE
  8
OBJECT
 62
     7
 10
4.980965
 20
65.15261
 30
0.0
 11
4.980965
 21
65.03261
 31
0.0
  0
LINE
  8
OBJECT
 62
     7
 10
23.980965
 20
65.03261
 30
0.0
 11
23.980965
 21
65.15261
 31
0.0
  0
LINE
  8
OBJECT
 62
     7
 10
4.980965
 20
65.15261
 30
0.0
 11
23.980965
 21
65.15261
 31
0.0
  0
LINE
  8
OBJECT
 62
     7
 10
22.980965
 20
65.15261
 30
0.0
 11
22.980965
 21
73.15261
 31
0.0
  0
LINE
  8
OBJECT
 62
     7
 10
5.980965
 20
73.15261
 30
0.0
 11
5.980965
 21
65.15261
 31
0.0
  0
LINE
  8
OBJECT
 62
     7
 10
4.980965
 20
65.03261
 30
0.0
 11
23.980965
 21
65.03261
 31
0.0
  0
LINE
  8
HIDDEN
 62
     7
 10
6.030965
 20
65.20261
 30
0.0
 11
6.730965
 21
65.20261
 31
0.0
  0
LINE
  8
OBJECT
 62
     7
 10
7.511965
 20
65.20261
 30
0.0
 11
21.449965
 21
65.20261
 31
0.0
  0
LINE
  8
HIDDEN
 62
     7
 10
22.230965
 20
65.20261
 30
0.0
 11
22.930965
 21
65.20261
 31
0.0
  0
LINE
  8
OBJECT
 62
     7
 10
5.980965
 20
73.15261
 30
0.0
 11
22.980965
 21
73.15261
 31
0.0
  0
LINE
  8
OBJECT
 62
     7
 10
6.730965
 20
72.40261
 30
0.0
 11
22.230965
 21
72.40261
 31
0.0
  0
LINE
  8
OBJECT
 62
     7
 10
5.980965
 20
73.15261
 30
0.0
 11
6.730965
 21
72.40261
 31
0.0
  0
LINE
  8
HIDDEN
 62
     7
 10
6.030965
 20
73.10261
 30
0.0
 11
22.930965
 21
73.10261
 31
0.0
  0
LINE
  8
OBJECT
 62
     7
 10
22.230965
 20
72.40261
 30
0.0
 11
22.980965
 21
73.15261
 31
0.0
  0
LINE
  8
OBJECT
 62
     7
 10
33.086598
 20
60.994628
 30
0.0
 11
32.966598
 21
60.994628
 31
0.0
  0
LINE
  8
OBJECT
 62
     7
 10
33.086598
 20
59.244628
 30
0.0
 11
33.086598
 21
60.994628
 31
0.0
  0
LINE
  8
OBJECT
 62
     7
 10
32.966598
 20
59.244628
 30
0.0
 11
33.086598
 21
59.244628
 31
0.0
  0
LINE
  8
OBJECT
 62
     7
 10
32.966598
 20
59.244628
 30
0.0
 11
32.966598
 21
60.994628
 31
0.0
  0
LINE
  8
HIDDEN
 62
     7
 10
33.136598
 20
60.837628
 30
0.0
 11
33.136598
 21
59.400628
 31
0.0
  0
LINE
  8
OBJECT
 62
     7
 10
33.086598
 20
59.400628
 30
0.0
 11
41.086598
 21
59.400628
 31
0.0
  0
LINE
  8
HIDDEN
 62
     7
 10
41.086598
 20
59.450628
 30
0.0
 11
33.086598
 21
59.450628
 31
0.0
  0
LINE
  8
OBJECT
 62
     7
 10
41.086598
 20
60.837628
 30
0.0
 11
33.086598
 21
60.837628
 31
0.0
  0
LINE
  8
OBJECT
 62
     7
 10
41.086598
 20
59.400628
 30
0.0
 11
41.086598
 21
60.837628
 31
0.0
  0
LINE
  8
HIDDEN
 62
     7
 10
41.036598
 20
59.450628
 30
0.0
 11
41.036598
 21
60.787628
 31
0.0
  0
LINE
  8
HIDDEN
 62
     7
 10
41.086598
 20
60.787628
 30
0.0
 11
33.086598
 21
60.787628
 31
0.0
  0
LINE
  8
HIDDEN
 62
     7
 10
33.086598
 20
59.650628
 30
0.0
 11
33.136598
 21
59.650628
 31
0.0
  0
LINE
  8
HIDDEN
 62
     7
 10
40.336598
 20
60.787628
 30
0.0
 11
40.336598
 21
60.837628
 31
0.0
  0
DIMENSION
  8
DIM
 62
     7
  2
*D32
 10
27.838483
 20
59.244628
 30
0.0
 11
27.838483
 21
60.119628
 31
0.0
 12
-1.030559
 22
0.771902
 32
0.0
  1
B
 13
23.980965
 23
60.994628
 33
0.0
 14
23.980965
 24
59.244628
 34
0.0
 50
90.0
  3
23NSTDI
  0
DIMENSION
  8
DIM
 62
     7
  2
*D17
 10
23.980965
 20
63.705898
 30
0.0
 11
14.480965
 21
63.705898
 31
0.0
 12
-2.691042
 22
4.363731
 32
0.0
  1
A
 13
4.980965
 23
60.994628
 33
0.0
 14
23.980965
 24
60.994628
 34
0.0
  3
23NSTD
  0
DIMENSION
  8
DIM
 62
     7
  2
*D19
 10
23.652965
 20
62.328175
 30
0.0
 11
20.504527
 21
62.328175
 31
0.0
 12
-2.691042
 22
4.363731
 32
0.0
 13
23.980965
 23
60.994628
 33
0.0
 14
23.652965
 24
60.883628
 34
0.0
  3
23NSTD
  0
DIMENSION
  8
DIM
 62
     7
  2
*D18
 10
5.308965
 20
62.455898
 30
0.0
 11
8.457402
 21
62.455898
 31
0.0
 12
-2.691042
 22
4.363731
 32
0.0
 13
4.980965
 23
60.994628
 33
0.0
 14
5.308965
 24
60.883628
 34
0.0
  3
23NSTD
  0
DIMENSION
  8
DIM
 62
     7
  2
*D11
 10
25.338483
 20
59.355628
 30
0.0
 11
22.074421
 21
57.555628
 31
0.0
 12
-2.691042
 22
4.363731
 32
0.0
  1
<> REF.
 13
23.716965
 23
59.633628
 33
0.0
 14
23.716965
 24
59.355628
 34
0.0
 50
90.0
  3
23NSTD
  0
TEXT
  8
DIM
 62
     7
 10
9.532792
 20
57.209192
 30
0.0
 40
0.625
  1
0.156 DIA.
 41
0.75
 72
     1
 11
11.290605
 21
57.521692
 31
0.0
 73
     2
  0
TEXT
  8
DIM
 62
     7
 10
9.470667
 20
56.278361
 30
0.0
 40
0.625
  1
(4) HOLES
 41
0.75
 72
     4
 11
11.345667
 21
56.590861
 31
0.0
  0
TEXT
  8
DIM
 62
     7
 10
10.375437
 20
54.896939
 30
0.0
 40
0.625
  1
0.278 x 0.406 OBLONG
 41
0.75
 72
     4
 11
14.555125
 21
55.209439
 31
0.0
  0
TEXT
  8
DIM
 62
     7
 10
10.312453
 20
54.000507
 30
0.0
 40
0.625
  1
(4) HOLES
 41
0.75
 72
     4
 11
12.187453
 21
54.313007
 31
0.0
  0
DIMENSION
  8
DIM
 62
     7
  2
*D37
 10
45.770493
 20
60.837628
 30
0.0
 11
45.770493
 21
60.119128
 31
0.0
  1
D
 13
41.086598
 23
59.400628
 33
0.0
 14
41.086598
 24
60.837628
 34
0.0
 50
90.0
  3
23NSTDI
  0
DIMENSION
  8
DIM
 62
     7
  2
*D15
 10
25.658483
 20
65.15261
 30
0.0
 11
25.658483
 21
69.15261
 31
0.0
 12
-2.691042
 22
1.765387
 32
0.0
  1
F
 13
22.980965
 23
73.15261
 33
0.0
 14
23.980965
 24
65.15261
 34
0.0
 50
90.0
  3
23NSTD
  0
DIMENSION
  8
DIM
 62
     7
  2
*D16
 10
26.908483
 20
73.15261
 30
0.0
 11
26.908483
 21
69.09261
 31
0.0
 12
-2.691042
 22
1.765387
 32
0.0
  1
G
 13
23.980965
 23
65.03261
 33
0.0
 14
22.980965
 24
73.15261
 34
0.0
 50
90.0
  3
23NSTD
  0
DIMENSION
  8
DIM
 62
     7
  2
*D14
 10
22.980965
 20
74.288057
 30
0.0
 11
14.480965
 21
74.288057
 31
0.0
 12
-2.691042
 22
1.765387
 32
0.0
  1
E
 13
5.980965
 23
73.15261
 33
0.0
 14
22.980965
 24
73.15261
 34
0.0
  3
23NSTD
  0
DIMENSION
  8
DIM
 62
     7
  2
*D10
 10
6.730965
 20
68.753003
 30
0.0
 11
10.855965
 21
68.753003
 31
0.0
 12
-2.691042
 22
1.765387
 32
0.0
  1
<> TYP.
 13
5.980965
 23
68.753003
 33
0.0
 14
6.730965
 24
68.611088
 34
0.0
  3
23NSTD
  0
TEXT
  8
TEXT
 62
     7
 10
1.659375
 20
44.84428
 30
0.0
 40
0.625
  1
PART NO.
 41
0.75
 72
     4
 11
3.3
 21
45.15678
 31
0.0
  0
TEXT
  8
TEXT
 62
     7
 10
8.88375
 20
44.84428
 30
0.0
 40
0.625
  1
A
 41
0.75
 72
     4
 11
9.04
 21
45.15678
 31
0.0
  0
TEXT
  8
TEXT
 62
     7
 10
1.698907
 20
42.50053
 30
0.0
 40
0.625
  1
CH-14401
 41
0.75
 72
     4
 11
3.30047
 21
42.81303
 31
0.0
  0
TEXT
  8
TEXT
 62
     7
 10
14.38375
 20
44.84428
 30
0.0
 40
0.625
  1
B
 41
0.75
 72
     4
 11
14.54
 21
45.15678
 31
0.0
  0
TEXT
  8
TEXT
 62
     7
 10
19.88375
 20
44.84428
 30
0.0
 40
0.625
  1
C
 41
0.75
 72
     4
 11
20.04
 21
45.15678
 31
0.0
  0
TEXT
  8
TEXT
 62
     7
 10
25.38375
 20
44.84428
 30
0.0
 40
0.625
  1
D
 41
0.75
 72
     4
 11
25.54
 21
45.15678
 31
0.0
  0
TEXT
  8
TEXT
 62
     7
 10
30.88375
 20
44.84428
 30
0.0
 40
0.625
  1
E
 41
0.75
 72
     4
 11
31.04
 21
45.15678
 31
0.0
  0
TEXT
  8
TEXT
 62
     7
 10
36.38375
 20
44.84428
 30
0.0
 40
0.625
  1
F
 41
0.75
 72
     4
 11
36.54
 21
45.15678
 31
0.0
  0
TEXT
  8
TEXT
 62
     7
 10
41.88375
 20
44.84428
 30
0.0
 40
0.625
  1
G
 41
0.75
 72
     4
 11
42.04
 21
45.15678
 31
0.0
  0
LINE
  8
TITLE
 10
0.31
 20
43.333863
 30
0.0
 11
50.29
 21
43.333863
 31
0.0
  0
LINE
  8
TITLE
 10
0.31
 20
42.292196
 30
0.0
 11
50.29
 21
42.292196
 31
0.0
  0
TEXT
  8
TEXT
 62
     7
 10
1.620782
 20
41.458863
 30
0.0
 40
0.625
  1
CH-14402
 41
0.75
 72
     4
 11
3.30047
 21
41.771363
 31
0.0
  0
TEXT
  8
TEXT
 62
     7
 10
1.620782
 20
40.417196
 30
0.0
 40
0.625
  1
CH-14403
 41
0.75
 72
     4
 11
3.30047
 21
40.729696
 31
0.0
  0
TEXT
  8
TEXT
 62
     7
 10
1.620782
 20
39.37553
 30
0.0
 40
0.625
  1
CH-14404
 41
0.75
 72
     4
 11
3.30047
 21
39.68803
 31
0.0
  0
TEXT
  8
TEXT
 62
     7
 10
1.73797
 20
37.292196
 30
0.0
 40
0.625
  1
CH-14411
 41
0.75
 72
     4
 11
3.30047
 21
37.604696
 31
0.0
  0
TEXT
  8
TEXT
 62
     7
 10
1.659845
 20
36.25053
 30
0.0
 40
0.625
  1
CH-14412
 41
0.75
 72
     4
 11
3.30047
 21
36.56303
 31
0.0
  0
TEXT
  8
TEXT
 62
     7
 10
1.659845
 20
35.208863
 30
0.0
 40
0.625
  1
CH-14413
 41
0.75
 72
     4
 11
3.30047
 21
35.521363
 31
0.0
  0
TEXT
  8
TEXT
 62
     7
 10
1.659845
 20
34.167196
 30
0.0
 40
0.625
  1
CH-14414
 41
0.75
 72
     4
 11
3.30047
 21
34.479696
 31
0.0
  0
TEXT
  8
TEXT
 62
     7
 10
35.720157
 20
42.50053
 30
0.0
 40
0.625
  1
8.000
 41
0.75
 72
     4
 11
36.54047
 21
42.81303
 31
0.0
  0
TEXT
  8
TEXT
 62
     7
 10
30.063907
 20
42.50053
 30
0.0
 40
0.625
  1
17.000
 41
0.75
 72
     4
 11
31.04047
 21
42.81303
 31
0.0
  0
TEXT
  8
TEXT
 62
     7
 10
24.681095
 20
42.50053
 30
0.0
 40
0.625
  1
1.437
 41
0.75
 72
     4
 11
25.54047
 21
42.81303
 31
0.0
  0
TEXT
  8
TEXT
 62
     7
 10
19.220157
 20
42.50053
 30
0.0
 40
0.625
  1
1.250
 41
0.75
 72
     4
 11
20.04047
 21
42.81303
 31
0.0
  0
TEXT
  8
TEXT
 62
     7
 10
13.720157
 20
42.50053
 30
0.0
 40
0.625
  1
1.750
 41
0.75
 72
     4
 11
14.54047
 21
42.81303
 31
0.0
  0
TEXT
  8
TEXT
 62
     7
 10
8.063907
 20
42.50053
 30
0.0
 40
0.625
  1
19.000
 41
0.75
 72
     4
 11
9.04047
 21
42.81303
 31
0.0
  0
TEXT
  8
TEXT
 62
     7
 10
8.063907
 20
41.458863
 30
0.0
 40
0.625
  1
19.000
 41
0.75
 72
     4
 11
9.04047
 21
41.771363
 31
0.0
  0
TEXT
  8
TEXT
 62
     7
 10
13.720157
 20
41.458863
 30
0.0
 40
0.625
  1
1.750
 41
0.75
 72
     4
 11
14.54047
 21
41.771363
 31
0.0
  0
TEXT
  8
TEXT
 62
     7
 10
19.220157
 20
41.458863
 30
0.0
 40
0.625
  1
1.250
 41
0.75
 72
     4
 11
20.04047
 21
41.771363
 31
0.0
  0
TEXT
  8
TEXT
 62
     7
 10
24.681095
 20
41.458863
 30
0.0
 40
0.625
  1
1.437
 41
0.75
 72
     4
 11
25.54047
 21
41.771363
 31
0.0
  0
TEXT
  8
TEXT
 62
     7
 10
30.063907
 20
41.458863
 30
0.0
 40
0.625
  1
17.000
 41
0.75
 72
     4
 11
31.04047
 21
41.771363
 31
0.0
  0
TEXT
  8
TEXT
 62
     7
 10
35.563907
 20
41.458863
 30
0.0
 40
0.625
  1
16.000
 41
0.75
 72
     4
 11
36.54047
 21
41.771363
 31
0.0
  0
TEXT
  8
TEXT
 62
     7
 10
8.063907
 20
40.417196
 30
0.0
 40
0.625
  1
19.000
 41
0.75
 72
     4
 11
9.04047
 21
40.729696
 31
0.0
  0
TEXT
  8
TEXT
 62
     7
 10
13.681095
 20
40.417196
 30
0.0
 40
0.625
  1
3.500
 41
0.75
 72
     4
 11
14.54047
 21
40.729696
 31
0.0
  0
TEXT
  8
TEXT
 62
     7
 10
19.220157
 20
40.417196
 30
0.0
 40
0.625
  1
3.000
 41
0.75
 72
     4
 11
20.04047
 21
40.729696
 31
0.0
  0
TEXT
  8
TEXT
 62
     7
 10
24.681095
 20
40.417196
 30
0.0
 40
0.625
  1
3.187
 41
0.75
 72
     4
 11
25.54047
 21
40.729696
 31
0.0
  0
TEXT
  8
TEXT
 62
     7
 10
30.063907
 20
40.417196
 30
0.0
 40
0.625
  1
17.000
 41
0.75
 72
     4
 11
31.04047
 21
40.729696
 31
0.0
  0
TEXT
  8
TEXT
 62
     7
 10
35.720157
 20
40.417196
 30
0.0
 40
0.625
  1
8.000
 41
0.75
 72
     4
 11
36.54047
 21
40.729696
 31
0.0
  0
TEXT
  8
TEXT
 62
     7
 10
8.063907
 20
39.37553
 30
0.0
 40
0.625
  1
19.000
 41
0.75
 72
     4
 11
9.04047
 21
39.68803
 31
0.0
  0
TEXT
  8
TEXT
 62
     7
 10
13.681095
 20
39.37553
 30
0.0
 40
0.625
  1
3.500
 41
0.75
 72
     4
 11
14.54047
 21
39.68803
 31
0.0
  0
TEXT
  8
TEXT
 62
     7
 10
19.220157
 20
39.37553
 30
0.0
 40
0.625
  1
3.000
 41
0.75
 72
     4
 11
20.04047
 21
39.68803
 31
0.0
  0
TEXT
  8
TEXT
 62
     7
 10
24.681095
 20
39.37553
 30
0.0
 40
0.625
  1
3.187
 41
0.75
 72
     4
 11
25.54047
 21
39.68803
 31
0.0
  0
TEXT
  8
TEXT
 62
     7
 10
30.063907
 20
39.37553
 30
0.0
 40
0.625
  1
17.000
 41
0.75
 72
     4
 11
31.04047
 21
39.68803
 31
0.0
  0
TEXT
  8
TEXT
 62
     7
 10
35.563907
 20
39.37553
 30
0.0
 40
0.625
  1
16.000
 41
0.75
 72
     4
 11
36.54047
 21
39.68803
 31
0.0
  0
TEXT
  8
TEXT
 62
     7
 10
7.985782
 20
37.292196
 30
0.0
 40
0.625
  1
24.000
 41
0.75
 72
     4
 11
9.04047
 21
37.604696
 31
0.0
  0
TEXT
  8
TEXT
 62
     7
 10
13.720157
 20
37.292196
 30
0.0
 40
0.625
  1
1.750
 41
0.75
 72
     4
 11
14.54047
 21
37.604696
 31
0.0
  0
TEXT
  8
TEXT
 62
     7
 10
19.220157
 20
37.292196
 30
0.0
 40
0.625
  1
1.250
 41
0.75
 72
     4
 11
20.04047
 21
37.604696
 31
0.0
  0
TEXT
  8
TEXT
 62
     7
 10
24.681095
 20
37.292196
 30
0.0
 40
0.625
  1
1.437
 41
0.75
 72
     4
 11
25.54047
 21
37.604696
 31
0.0
  0
TEXT
  8
TEXT
 62
     7
 10
29.985782
 20
37.292196
 30
0.0
 40
0.625
  1
22.000
 41
0.75
 72
     4
 11
31.04047
 21
37.604696
 31
0.0
  0
TEXT
  8
TEXT
 62
     7
 10
35.720157
 20
37.292196
 30
0.0
 40
0.625
  1
8.000
 41
0.75
 72
     4
 11
36.54047
 21
37.604696
 31
0.0
  0
TEXT
  8
TEXT
 62
     7
 10
7.985782
 20
36.25053
 30
0.0
 40
0.625
  1
24.000
 41
0.75
 72
     4
 11
9.04047
 21
36.56303
 31
0.0
  0
TEXT
  8
TEXT
 62
     7
 10
13.720157
 20
36.25053
 30
0.0
 40
0.625
  1
1.750
 41
0.75
 72
     4
 11
14.54047
 21
36.56303
 31
0.0
  0
TEXT
  8
TEXT
 62
     7
 10
19.220157
 20
36.25053
 30
0.0
 40
0.625
  1
1.250
 41
0.75
 72
     4
 11
20.04047
 21
36.56303
 31
0.0
  0
TEXT
  8
TEXT
 62
     7
 10
24.681095
 20
36.25053
 30
0.0
 40
0.625
  1
1.437
 41
0.75
 72
     4
 11
25.54047
 21
36.56303
 31
0.0
  0
TEXT
  8
TEXT
 62
     7
 10
29.985782
 20
36.25053
 30
0.0
 40
0.625
  1
22.000
 41
0.75
 72
     4
 11
31.04047
 21
36.56303
 31
0.0
  0
TEXT
  8
TEXT
 62
     7
 10
35.563907
 20
36.25053
 30
0.0
 40
0.625
  1
16.000
 41
0.75
 72
     4
 11
36.54047
 21
36.56303
 31
0.0
  0
TEXT
  8
TEXT
 62
     7
 10
7.985782
 20
35.208863
 30
0.0
 40
0.625
  1
24.000
 41
0.75
 72
     4
 11
9.04047
 21
35.521363
 31
0.0
  0
TEXT
  8
TEXT
 62
     7
 10
13.681095
 20
35.208863
 30
0.0
 40
0.625
  1
3.500
 41
0.75
 72
     4
 11
14.54047
 21
35.521363
 31
0.0
  0
TEXT
  8
TEXT
 62
     7
 10
19.220157
 20
35.208863
 30
0.0
 40
0.625
  1
3.000
 41
0.75
 72
     4
 11
20.04047
 21
35.521363
 31
0.0
  0
TEXT
  8
TEXT
 62
     7
 10
24.681095
 20
35.208863
 30
0.0
 40
0.625
  1
3.187
 41
0.75
 72
     4
 11
25.54047
 21
35.521363
 31
0.0
  0
TEXT
  8
TEXT
 62
     7
 10
29.985782
 20
35.208863
 30
0.0
 40
0.625
  1
22.000
 41
0.75
 72
     4
 11
31.04047
 21
35.521363
 31
0.0
  0
TEXT
  8
TEXT
 62
     7
 10
35.720157
 20
35.208863
 30
0.0
 40
0.625
  1
8.000
 41
0.75
 72
     4
 11
36.54047
 21
35.521363
 31
0.0
  0
TEXT
  8
TEXT
 62
     7
 10
7.985782
 20
34.167196
 30
0.0
 40
0.625
  1
24.000
 41
0.75
 72
     4
 11
9.04047
 21
34.479696
 31
0.0
  0
TEXT
  8
TEXT
 62
     7
 10
13.681095
 20
34.167196
 30
0.0
 40
0.625
  1
3.500
 41
0.75
 72
     4
 11
14.54047
 21
34.479696
 31
0.0
  0
TEXT
  8
TEXT
 62
     7
 10
19.220157
 20
34.167196
 30
0.0
 40
0.625
  1
3.000
 41
0.75
 72
     4
 11
20.04047
 21
34.479696
 31
0.0
  0
TEXT
  8
TEXT
 62
     7
 10
24.681095
 20
34.167196
 30
0.0
 40
0.625
  1
3.187
 41
0.75
 72
     4
 11
25.54047
 21
34.479696
 31
0.0
  0
TEXT
  8
TEXT
 62
     7
 10
29.985782
 20
34.167196
 30
0.0
 40
0.625
  1
22.000
 41
0.75
 72
     4
 11
31.04047
 21
34.479696
 31
0.0
  0
TEXT
  8
TEXT
 62
     7
 10
35.563907
 20
34.167196
 30
0.0
 40
0.625
  1
16.000
 41
0.75
 72
     4
 11
36.54047
 21
34.479696
 31
0.0
  0
TEXT
  8
TEXT
 62
     7
 10
41.063438
 20
34.167196
 30
0.0
 40
0.625
  1
16.120
 41
0.75
 72
     4
 11
42.04
 21
34.479696
 31
0.0
  0
TEXT
  8
TEXT
 62
     7
 10
41.219688
 20
35.208863
 30
0.0
 40
0.625
  1
8.120
 41
0.75
 72
     4
 11
42.04
 21
35.521363
 31
0.0
  0
TEXT
  8
TEXT
 62
     7
 10
41.063438
 20
36.25053
 30
0.0
 40
0.625
  1
16.120
 41
0.75
 72
     4
 11
42.04
 21
36.56303
 31
0.0
  0
TEXT
  8
TEXT
 62
     7
 10
41.219688
 20
37.292196
 30
0.0
 40
0.625
  1
8.120
 41
0.75
 72
     4
 11
42.04
 21
37.604696
 31
0.0
  0
TEXT
  8
TEXT
 62
     7
 10
41.063438
 20
39.37553
 30
0.0
 40
0.625
  1
16.120
 41
0.75
 72
     4
 11
42.04
 21
39.68803
 31
0.0
  0
TEXT
  8
TEXT
 62
     7
 10
41.219688
 20
40.417196
 30
0.0
 40
0.625
  1
8.120
 41
0.75
 72
     4
 11
42.04
 21
40.729696
 31
0.0
  0
TEXT
  8
TEXT
 62
     7
 10
41.063438
 20
41.458863
 30
0.0
 40
0.625
  1
16.120
 41
0.75
 72
     4
 11
42.04
 21
41.771363
 31
0.0
  0
TEXT
  8
TEXT
 62
     7
 10
41.219688
 20
42.50053
 30
0.0
 40
0.625
  1
8.120
 41
0.75
 72
     4
 11
42.04
 21
42.81303
 31
0.0
  0
DIMENSION
  8
DIM
 62
     7
  2
*D20
 10
4.024887
 20
59.244628
 30
0.0
 11
1.815512
 21
57.444628
 31
0.0
 12
-2.691042
 22
4.363731
 32
0.0
 13
5.244965
 23
59.494628
 33
0.0
 14
4.980965
 24
59.244628
 34
0.0
 50
90.0
  3
23NSTD
  0
LINE
  8
TITLE
 62
     7
 10
44.79
 20
45.93803
 30
0.0
 11
44.79
 21
34.005291
 31
0.0
  0
LINE
  8
OBJECT
 62
     7
 10
16.813665
 20
17.523764
 30
0.0
 11
33.813665
 21
17.523764
 31
0.0
  0
LINE
  8
OBJECT
 62
     7
 10
33.813665
 20
17.523764
 30
0.0
 11
33.813665
 21
25.523764
 31
0.0
  0
LINE
  8
OBJECT
 62
     7
 10
33.813665
 20
25.523764
 30
0.0
 11
16.813665
 21
25.523764
 31
0.0
  0
LINE
  8
OBJECT
 62
     7
 10
16.813665
 20
25.523764
 30
0.0
 11
16.813665
 21
17.523764
 31
0.0
  0
CIRCLE
  8
OBJECT
 62
     7
 10
17.188665
 20
24.523764
 30
0.0
 40
0.078
  0
CIRCLE
  8
OBJECT
 62
     7
 10
17.188665
 20
21.523764
 30
0.0
 40
0.078
  0
CIRCLE
  8
OBJECT
 62
     7
 10
17.188665
 20
18.523764
 30
0.0
 40
0.078
  0
CIRCLE
  8
OBJECT
 62
     7
 10
33.438665
 20
18.523764
 30
0.0
 40
0.078
  0
CIRCLE
  8
OBJECT
 62
     7
 10
33.438665
 20
21.523764
 30
0.0
 40
0.078
  0
CIRCLE
  8
OBJECT
 62
     7
 10
33.438665
 20
24.523764
 30
0.0
 40
0.078
  0
CIRCLE
  8
OBJECT
 62
     7
 10
17.813665
 20
17.898764
 30
0.0
 40
0.078
  0
CIRCLE
  8
OBJECT
 62
     7
 10
25.313665
 20
17.898764
 30
0.0
 40
0.078
  0
CIRCLE
  8
OBJECT
 62
     7
 10
32.813665
 20
17.898764
 30
0.0
 40
0.078
  0
ARC
  8
OBJECT
 62
     7
 10
18.063665
 20
19.430264
 30
0.0
 40
0.0935
 50
0.0
 51
180.0
  0
ARC
  8
OBJECT
 62
     7
 10
18.063665
 20
18.617264
 30
0.0
 40
0.0935
 50
180.0
 51
0.0
  0
LINE
  8
OBJECT
 62
     7
 10
18.157165
 20
19.430264
 30
0.0
 11
18.157165
 21
18.617264
 31
0.0
  0
LINE
  8
OBJECT
 62
     7
 10
17.970165
 20
18.617264
 30
0.0
 11
17.970165
 21
19.430264
 31
0.0
  0
LINE
  8
OBJECT
 62
     7
 10
17.970165
 20
19.867264
 30
0.0
 11
17.970165
 21
20.680264
 31
0.0
  0
LINE
  8
OBJECT
 62
     7
 10
18.157165
 20
20.680264
 30
0.0
 11
18.157165
 21
19.867264
 31
0.0
  0
ARC
  8
OBJECT
 62
     7
 10
18.063665
 20
19.867264
 30
0.0
 40
0.0935
 50
180.0
 51
0.0
  0
ARC
  8
OBJECT
 62
     7
 10
18.063665
 20
20.680264
 30
0.0
 40
0.0935
 50
0.0
 51
180.0
  0
LINE
  8
OBJECT
 62
     7
 10
17.970165
 20
21.117264
 30
0.0
 11
17.970165
 21
21.930264
 31
0.0
  0
LINE
  8
OBJECT
 62
     7
 10
18.157165
 20
21.930264
 30
0.0
 11
18.157165
 21
21.117264
 31
0.0
  0
ARC
  8
OBJECT
 62
     7
 10
18.063665
 20
21.117264
 30
0.0
 40
0.0935
 50
180.0
 51
0.0
  0
ARC
  8
OBJECT
 62
     7
 10
18.063665
 20
21.930264
 30
0.0
 40
0.0935
 50
0.0
 51
180.0
  0
LINE
  8
OBJECT
 62
     7
 10
17.970165
 20
22.367264
 30
0.0
 11
17.970165
 21
23.180264
 31
0.0
  0
LINE
  8
OBJECT
 62
     7
 10
18.157165
 20
23.180264
 30
0.0
 11
18.157165
 21
22.367264
 31
0.0
  0
ARC
  8
OBJECT
 62
     7
 10
18.063665
 20
22.367264
 30
0.0
 40
0.0935
 50
180.0
 51
0.0
  0
ARC
  8
OBJECT
 62
     7
 10
18.063665
 20
23.180264
 30
0.0
 40
0.0935
 50
0.0
 51
180.0
  0
LINE
  8
OBJECT
 62
     7
 10
17.970165
 20
23.617264
 30
0.0
 11
17.970165
 21
24.430264
 31
0.0
  0
LINE
  8
OBJECT
 62
     7
 10
18.157165
 20
24.430264
 30
0.0
 11
18.157165
 21
23.617264
 31
0.0
  0
ARC
  8
OBJECT
 62
     7
 10
18.063665
 20
23.617264
 30
0.0
 40
0.0935
 50
180.0
 51
0.0
  0
ARC
  8
OBJECT
 62
     7
 10
18.063665
 20
24.430264
 30
0.0
 40
0.0935
 50
0.0
 51
180.0
  0
LINE
  8
OBJECT
 62
     7
 10
45.67838
 20
17.523764
 30
0.0
 11
45.67838
 21
25.523764
 31
0.0
  0
LINE
  8
OBJECT
 62
     7
 10
45.67838
 20
25.523764
 30
0.0
 11
45.62838
 21
25.523764
 31
0.0
  0
LINE
  8
OBJECT
 62
     7
 10
45.62838
 20
17.523764
 30
0.0
 11
45.67838
 21
17.523764
 31
0.0
  0
LINE
  8
OBJECT
 62
     7
 10
45.62838
 20
17.523764
 30
0.0
 11
45.62838
 21
25.523764
 31
0.0
  0
DIMENSION
  8
DIM
 62
     7
  2
*D24
 10
45.62838
 20
16.25998
 30
0.0
 11
42.558067
 21
16.25998
 31
0.0
 12
0.929488
 22
-0.698812
 32
0.0
 13
45.67838
 23
17.523764
 33
0.0
 14
45.62838
 24
17.523764
 34
0.0
 50
180.0
  3
23NSTD
  0
DIMENSION
  8
DIM
 62
     7
  2
*D2
 10
16.813665
 20
27.727216
 30
0.0
 11
13.665227
 21
27.727216
 31
0.0
 12
6.409578
 22
4.084012
 32
0.0
 13
17.188665
 23
24.523764
 33
0.0
 14
16.813665
 24
25.523764
 34
0.0
  3
23NSTD
  0
DIMENSION
  8
DIM
 62
     7
  2
*D12
 10
33.813665
 20
27.727216
 30
0.0
 11
36.962102
 21
27.727216
 31
0.0
 12
6.409578
 22
-0.59292
 32
0.0
 13
33.438665
 23
24.523764
 33
0.0
 14
33.813665
 24
25.523764
 34
0.0
  3
23NSTD
  0
DIMENSION
  8
DIM
 62
     7
  2
*D13
 10
37.65538
 20
17.523764
 30
0.0
 11
35.406942
 21
15.723764
 31
0.0
 12
6.409578
 22
-0.59292
 32
0.0
 13
32.813665
 23
17.898764
 33
0.0
 14
33.813665
 24
17.523764
 34
0.0
 50
90.0
  3
23NSTD
  0
DIMENSION
  8
DIM
 62
     7
  2
*D22
 10
16.813665
 20
15.723764
 30
0.0
 11
13.821477
 21
15.723764
 31
0.0
 12
6.409578
 22
-0.59292
 32
0.0
 13
17.813665
 23
17.898764
 33
0.0
 14
16.813665
 24
17.523764
 34
0.0
  3
23NSTD
  0
DIMENSION
  8
DIM
 62
     7
  2
*D21
 10
25.313665
 20
15.723764
 30
0.0
 11
21.563665
 21
15.723764
 31
0.0
 12
6.409578
 22
-0.59292
 32
0.0
  1
F
 13
17.813665
 23
17.898764
 33
0.0
 14
25.313665
 24
17.898764
 34
0.0
  3
23NSTD
  0
DIMENSION
  8
DIM
 62
     7
  2
*D23
 10
32.813665
 20
15.723764
 30
0.0
 11
29.063665
 21
15.723764
 31
0.0
 12
6.409578
 22
-0.59292
 32
0.0
  1
F
 13
25.313665
 23
17.898764
 33
0.0
 14
32.813665
 24
17.898764
 34
0.0
  3
23NSTD
  0
DIMENSION
  8
DIM
 62
     7
  2
*D7
 10
12.236956
 20
17.523764
 30
0.0
 11
12.236956
 21
18.023764
 31
0.0
 12
6.409578
 22
4.084012
 32
0.0
 13
17.188665
 23
18.523764
 33
0.0
 14
16.813665
 24
17.523764
 34
0.0
 50
90.0
  3
23NSTDI
  0
DIMENSION
  8
DIM
 62
     7
  2
*D4
 10
15.201956
 20
21.523764
 30
0.0
 11
15.201956
 21
20.023764
 31
0.0
 12
6.409578
 22
4.084012
 32
0.0
  1
G
 13
17.188665
 23
18.523764
 33
0.0
 14
17.188665
 24
21.523764
 34
0.0
 50
90.0
  3
23NSTDI
  0
DIMENSION
  8
DIM
 62
     7
  2
*D3
 10
13.951956
 20
24.523764
 30
0.0
 11
13.951956
 21
23.023764
 31
0.0
 12
6.409578
 22
4.084012
 32
0.0
  1
G
 13
17.188665
 23
21.523764
 33
0.0
 14
17.188665
 24
24.523764
 34
0.0
 50
90.0
  3
23NSTDI
  0
DIMENSION
  8
DIM
 62
     7
  2
*D1
 10
33.813665
 20
30.227216
 30
0.0
 11
25.313665
 21
30.227216
 31
0.0
 12
6.409578
 22
4.084012
 32
0.0
  1
A
 13
16.813665
 23
25.523764
 33
0.0
 14
33.813665
 24
25.523764
 34
0.0
  3
23NSTD
  0
DIMENSION
  8
DIM
 62
     7
  2
*D8
 10
39.692413
 20
17.523764
 30
0.0
 11
39.692413
 21
18.273764
 31
0.0
 12
6.409578
 22
4.084012
 32
0.0
  1
E
 13
32.657165
 23
19.023764
 33
0.0
 14
33.813665
 24
17.523764
 34
0.0
 50
90.0
  3
23NSTDI
  0
DIMENSION
  8
DIM
 62
     7
  2
*D5
 10
10.521956
 20
25.523764
 30
0.0
 11
10.521956
 21
21.523764
 31
0.0
 12
6.409578
 22
4.084012
 32
0.0
  1
B
 13
16.813665
 23
17.523764
 33
0.0
 14
16.813665
 24
25.523764
 34
0.0
 50
270.0
  3
23NSTD
  0
TEXT
  8
DIM
 62
     7
 10
37.653169
 20
25.735053
 30
0.0
 40
0.625
  1
0.156 DIA.
 41
0.75
 72
     1
 11
39.410981
 21
26.047553
 31
0.0
 73
     2
  0
TEXT
  8
DIM
 62
     7
 10
37.535981
 20
24.786585
 30
0.0
 40
0.625
  1
(M) HOLES
 41
0.75
 72
     4
 11
39.410981
 21
25.099085
 31
0.0
  0
TEXT
  8
DIM
 62
     7
 10
22.115036
 20
27.076186
 30
0.0
 40
0.625
  1
0.187 x 1.000 OBLONG
 41
0.75
 72
     4
 11
26.099411
 21
27.388686
 31
0.0
  0
TEXT
  8
DIM
 62
     7
 10
23.120342
 20
26.081216
 30
0.0
 40
0.625
  1
(H) HOLES
 41
0.75
 72
     4
 11
24.995342
 21
26.393716
 31
0.0
  0
LINE
  8
TITLE
 10
0.31
 20
14.3725
 30
0.0
 11
50.29
 21
14.3725
 31
0.0
  0
TEXT
  8
TEXT
 10
0.595375
 20
13.27875
 30
0.0
 40
0.625
  1
PART NO.
 41
0.75
 72
     4
 11
2.236
 21
13.59125
 31
0.0
  0
TEXT
  8
TEXT
 10
5.927985
 20
13.27875
 30
0.0
 40
0.625
  1
A
 41
0.75
 72
     4
 11
6.084235
 21
13.59125
 31
0.0
  0
TEXT
  8
TEXT
 10
0.829515
 20
10.935
 30
0.0
 40
0.625
  1
C-14431
 41
0.75
 72
     4
 11
2.235765
 21
11.2475
 31
0.0
  0
TEXT
  8
TEXT
 10
9.771985
 20
13.27875
 30
0.0
 40
0.625
  1
B
 41
0.75
 72
     4
 11
9.928235
 21
13.59125
 31
0.0
  0
TEXT
  8
TEXT
 10
13.615985
 20
13.27875
 30
0.0
 40
0.625
  1
C
 41
0.75
 72
     4
 11
13.772235
 21
13.59125
 31
0.0
  0
TEXT
  8
TEXT
 10
17.459985
 20
13.27875
 30
0.0
 40
0.625
  1
D
 41
0.75
 72
     4
 11
17.616235
 21
13.59125
 31
0.0
  0
TEXT
  8
TEXT
 10
21.303985
 20
13.27875
 30
0.0
 40
0.625
  1
E
 41
0.75
 72
     4
 11
21.460235
 21
13.59125
 31
0.0
  0
TEXT
  8
TEXT
 10
25.147985
 20
13.27875
 30
0.0
 40
0.625
  1
F
 41
0.75
 72
     4
 11
25.304235
 21
13.59125
 31
0.0
  0
TEXT
  8
TEXT
 10
28.991985
 20
13.27875
 30
0.0
 40
0.625
  1
G
 41
0.75
 72
     4
 11
29.148235
 21
13.59125
 31
0.0
  0
LINE
  8
TITLE
 10
0.31
 20
12.81
 30
0.0
 11
50.29
 21
12.81
 31
0.0
  0
LINE
  8
TITLE
 10
0.31
 20
11.768333
 30
0.0
 11
50.29
 21
11.768333
 31
0.0
  0
TEXT
  8
TEXT
 10
0.75139
 20
9.893333
 30
0.0
 40
0.625
  1
C-14432
 41
0.75
 72
     4
 11
2.235765
 21
10.205833
 31
0.0
  0
LINE
  8
TITLE
 10
0.31
 20
10.726667
 30
0.0
 11
50.29
 21
10.726667
 31
0.0
  0
TEXT
  8
TEXT
 10
0.75139
 20
8.851667
 30
0.0
 40
0.625
  1
C-14433
 41
0.75
 72
     4
 11
2.235765
 21
9.164167
 31
0.0
  0
LINE
  8
TITLE
 10
0.31
 20
9.685
 30
0.0
 11
50.29
 21
9.685
 31
0.0
  0
TEXT
  8
TEXT
 10
0.75139
 20
7.81
 30
0.0
 40
0.625
  1
C-14434
 41
0.75
 72
     4
 11
2.235765
 21
8.1225
 31
0.0
  0
LINE
  8
TITLE
 10
0.31
 20
0.31
 30
0.0
 11
50.29
 21
0.31
 31
0.0
  0
TEXT
  8
TEXT
 10
28.327688
 20
10.935
 30
0.0
 40
0.625
  1
3.000
 41
0.75
 72
     4
 11
29.148
 21
11.2475
 31
0.0
  0
TEXT
  8
TEXT
 10
24.444625
 20
10.935
 30
0.0
 40
0.625
  1
7.500
 41
0.75
 72
     4
 11
25.304
 21
11.2475
 31
0.0
  0
TEXT
  8
TEXT
 10
16.795688
 20
10.935
 30
0.0
 40
0.625
  1
5.000
 41
0.75
 72
     4
 11
17.616
 21
11.2475
 31
0.0
  0
TEXT
  8
TEXT
 10
9.107688
 20
10.935
 30
0.0
 40
0.625
  1
8.000
 41
0.75
 72
     4
 11
9.928
 21
11.2475
 31
0.0
  0
TEXT
  8
TEXT
 10
5.107438
 20
10.935
 30
0.0
 40
0.625
  1
17.000
 41
0.75
 72
     4
 11
6.084
 21
11.2475
 31
0.0
  0
TEXT
  8
TEXT
 10
5.107438
 20
9.893333
 30
0.0
 40
0.625
  1
17.000
 41
0.75
 72
     4
 11
6.084
 21
10.205833
 31
0.0
  0
TEXT
  8
TEXT
 10
8.951438
 20
9.893333
 30
0.0
 40
0.625
  1
16.000
 41
0.75
 72
     4
 11
9.928
 21
10.205833
 31
0.0
  0
TEXT
  8
TEXT
 10
16.600375
 20
9.893333
 30
0.0
 40
0.625
  1
12.500
 41
0.75
 72
     4
 11
17.616
 21
10.205833
 31
0.0
  0
TEXT
  8
TEXT
 10
24.444625
 20
9.893333
 30
0.0
 40
0.625
  1
7.500
 41
0.75
 72
     4
 11
25.304
 21
10.205833
 31
0.0
  0
TEXT
  8
TEXT
 10
28.327688
 20
9.893333
 30
0.0
 40
0.625
  1
7.000
 41
0.75
 72
     4
 11
29.148
 21
10.205833
 31
0.0
  0
TEXT
  8
TEXT
 10
5.029313
 20
8.851667
 30
0.0
 40
0.625
  1
22.000
 41
0.75
 72
     4
 11
6.084
 21
9.164167
 31
0.0
  0
TEXT
  8
TEXT
 10
9.107688
 20
8.851667
 30
0.0
 40
0.625
  1
8.000
 41
0.75
 72
     4
 11
9.928
 21
9.164167
 31
0.0
  0
TEXT
  8
TEXT
 10
16.795688
 20
8.851667
 30
0.0
 40
0.625
  1
5.000
 41
0.75
 72
     4
 11
17.616
 21
9.164167
 31
0.0
  0
TEXT
  8
TEXT
 10
24.3665
 20
8.851667
 30
0.0
 40
0.625
  1
10.000
 41
0.75
 72
     4
 11
25.304
 21
9.164167
 31
0.0
  0
TEXT
  8
TEXT
 10
28.327688
 20
8.851667
 30
0.0
 40
0.625
  1
3.000
 41
0.75
 72
     4
 11
29.148
 21
9.164167
 31
0.0
  0
TEXT
  8
TEXT
 10
5.029313
 20
7.81
 30
0.0
 40
0.625
  1
22.000
 41
0.75
 72
     4
 11
6.084
 21
8.1225
 31
0.0
  0
TEXT
  8
TEXT
 10
8.951438
 20
7.81
 30
0.0
 40
0.625
  1
16.000
 41
0.75
 72
     4
 11
9.928
 21
8.1225
 31
0.0
  0
TEXT
  8
TEXT
 10
16.600375
 20
7.81
 30
0.0
 40
0.625
  1
12.500
 41
0.75
 72
     4
 11
17.616
 21
8.1225
 31
0.0
  0
TEXT
  8
TEXT
 10
24.3665
 20
7.81
 30
0.0
 40
0.625
  1
10.000
 41
0.75
 72
     4
 11
25.304
 21
8.1225
 31
0.0
  0
TEXT
  8
TEXT
 10
28.327688
 20
7.81
 30
0.0
 40
0.625
  1
7.000
 41
0.75
 72
     4
 11
29.148
 21
8.1225
 31
0.0
  0
TEXT
  8
TEXT
 10
32.406063
 20
7.81
 30
0.0
 40
0.625
  1
440
 41
0.75
 72
     4
 11
32.992
 21
8.1225
 31
0.0
  0
TEXT
  8
TEXT
 10
32.445125
 20
8.851667
 30
0.0
 40
0.625
  1
200
 41
0.75
 72
     4
 11
32.992
 21
9.164167
 31
0.0
  0
TEXT
  8
TEXT
 10
32.406063
 20
9.893333
 30
0.0
 40
0.625
  1
330
 41
0.75
 72
     4
 11
32.992
 21
10.205833
 31
0.0
  0
TEXT
  8
TEXT
 10
32.484188
 20
10.935
 30
0.0
 40
0.625
  1
150
 41
0.75
 72
     4
 11
32.992
 21
11.2475
 31
0.0
  0
TEXT
  8
TEXT
 10
32.835985
 20
13.27875
 30
0.0
 40
0.625
  1
H
 41
0.75
 72
     4
 11
32.992235
 21
13.59125
 31
0.0
  0
LINE
  8
TITLE
 10
0.31
 20
41.25053
 30
0.0
 11
50.29
 21
41.25053
 31
0.0
  0
LINE
  8
TITLE
 10
0.31
 20
40.208863
 30
0.0
 11
50.29
 21
40.208863
 31
0.0
  0
LINE
  8
TITLE
 10
0.31
 20
38.12553
 30
0.0
 11
50.29
 21
38.12553
 31
0.0
  0
LINE
  8
TITLE
 10
0.31
 20
37.083863
 30
0.0
 11
50.29
 21
37.083863
 31
0.0
  0
LINE
  8
TITLE
 10
0.31
 20
36.042196
 30
0.0
 11
50.29
 21
36.042196
 31
0.0
  0
LINE
  8
TITLE
 10
0.31
 20
35.00053
 30
0.0
 11
50.29
 21
35.00053
 31
0.0
  0
LINE
  8
TITLE
 10
0.31
 20
34.005291
 30
0.0
 11
50.29
 21
34.005291
 31
0.0
  0
LINE
  8
TITLE
 10
0.31
 20
33.613689
 30
0.0
 11
50.29
 21
33.613689
 31
0.0
  0
LINE
  8
TITLE
 10
0.31
 20
31.523689
 30
0.0
 11
50.29
 21
31.523689
 31
0.0
  0
LINE
  8
TITLE
 62
     7
 10
4.06
 20
31.523689
 30
0.0
 11
4.06
 21
33.613689
 31
0.0
  0
TEXT
  8
TEXT
 62
     7
 10
1.325625
 20
32.765752
 30
0.0
 40
0.625
  1
PART
 41
0.75
 72
     1
 11
2.185
 21
32.765752
 31
0.0
  0
TEXT
  8
TEXT
 62
     7
 10
1.325625
 20
31.724085
 30
0.0
 40
0.625
  1
NAME
 41
0.75
 72
     1
 11
2.185
 21
31.724085
 31
0.0
  0
LINE
  8
TITLE
 62
     7
 10
25.3
 20
33.613689
 30
0.0
 11
25.3
 21
31.523689
 31
0.0
  0
LINE
  8
TITLE
 62
     7
 10
25.61
 20
33.613689
 30
0.0
 11
25.61
 21
31.523689
 31
0.0
  0
LINE
  8
TITLE
 62
     7
 10
29.36
 20
33.613689
 30
0.0
 11
29.36
 21
31.523689
 31
0.0
  0
TEXT
  8
TEXT
 62
     7
 10
26.625625
 20
32.765752
 30
0.0
 40
0.625
  1
PART
 41
0.75
 72
     1
 11
27.485
 21
32.765752
 31
0.0
  0
TEXT
  8
TEXT
 62
     7
 10
27.01625
 20
31.724085
 30
0.0
 40
0.625
  1
No.
 41
0.75
 72
     1
 11
27.485
 21
31.724085
 31
0.0
  0
LINE
  8
TITLE
 10
0.31
 20
34.005291
 30
0.0
 11
0.31
 21
77.19
 31
0.0
  0
LINE
  8
TITLE
 10
50.29
 20
33.613689
 30
0.0
 11
50.29
 21
0.31
 31
0.0
  0
DIMENSION
  8
DIM
 62
     7
  2
*D0
 10
32.563665
 20
28.977216
 30
0.0
 11
25.313665
 21
28.977216
 31
0.0
 12
6.409578
 22
4.084012
 32
0.0
  1
(J) SPACES @ 0.500 = (K)
 13
18.063665
 23
24.430264
 33
0.0
 14
32.563665
 24
24.430264
 34
0.0
  3
23NSTD
  0
TEXT
  8
TEXT
 10
20.67875
 20
10.935
 30
0.0
 40
0.625
  1
1.500
 41
0.75
 72
     4
 11
21.46
 21
11.2475
 31
0.0
  0
TEXT
  8
TEXT
 10
20.639688
 20
9.893333
 30
0.0
 40
0.625
  1
1.750
 41
0.75
 72
     4
 11
21.46
 21
10.205833
 31
0.0
  0
TEXT
  8
TEXT
 10
20.67875
 20
8.851667
 30
0.0
 40
0.625
  1
1.500
 41
0.75
 72
     4
 11
21.46
 21
9.164167
 31
0.0
  0
TEXT
  8
TEXT
 10
20.639688
 20
7.81
 30
0.0
 40
0.625
  1
1.750
 41
0.75
 72
     4
 11
21.46
 21
8.1225
 31
0.0
  0
TEXT
  8
TEXT
 10
13.61575
 20
10.935
 30
0.0
 40
0.625
  1
4
 41
0.75
 72
     4
 11
13.772
 21
11.2475
 31
0.0
  0
TEXT
  8
TEXT
 10
13.498563
 20
9.893333
 30
0.0
 40
0.625
  1
10
 41
0.75
 72
     4
 11
13.772
 21
10.205833
 31
0.0
  0
TEXT
  8
TEXT
 10
13.61575
 20
8.851667
 30
0.0
 40
0.625
  1
4
 41
0.75
 72
     4
 11
13.772
 21
9.164167
 31
0.0
  0
TEXT
  8
TEXT
 10
13.498563
 20
7.81
 30
0.0
 40
0.625
  1
10
 41
0.75
 72
     4
 11
13.772
 21
8.1225
 31
0.0
  0
TEXT
  8
TEXT
 10
36.679985
 20
13.27875
 30
0.0
 40
0.625
  1
J
 41
0.75
 72
     4
 11
36.836235
 21
13.59125
 31
0.0
  0
TEXT
  8
TEXT
 10
36.445375
 20
10.935
 30
0.0
 40
0.625
  1
29
 41
0.75
 72
     4
 11
36.836
 21
11.2475
 31
0.0
  0
TEXT
  8
TEXT
 10
36.445375
 20
9.893333
 30
0.0
 40
0.625
  1
29
 41
0.75
 72
     4
 11
36.836
 21
10.205833
 31
0.0
  0
TEXT
  8
TEXT
 10
36.445375
 20
8.851667
 30
0.0
 40
0.625
  1
39
 41
0.75
 72
     4
 11
36.836
 21
9.164167
 31
0.0
  0
TEXT
  8
TEXT
 10
36.445375
 20
7.81
 30
0.0
 40
0.625
  1
39
 41
0.75
 72
     4
 11
36.836
 21
8.1225
 31
0.0
  0
TEXT
  8
TEXT
 10
40.523985
 20
13.27875
 30
0.0
 40
0.625
  1
K
 41
0.75
 72
     4
 11
40.680235
 21
13.59125
 31
0.0
  0
TEXT
  8
TEXT
 10
39.664375
 20
10.935
 30
0.0
 40
0.625
  1
14.500
 41
0.75
 72
     4
 11
40.68
 21
11.2475
 31
0.0
  0
TEXT
  8
TEXT
 10
39.664375
 20
9.893333
 30
0.0
 40
0.625
  1
14.500
 41
0.75
 72
     4
 11
40.68
 21
10.205833
 31
0.0
  0
TEXT
  8
TEXT
 10
39.664375
 20
8.851667
 30
0.0
 40
0.625
  1
19.500
 41
0.75
 72
     4
 11
40.68
 21
9.164167
 31
0.0
  0
TEXT
  8
TEXT
 10
39.664375
 20
7.81
 30
0.0
 40
0.625
  1
19.500
 41
0.75
 72
     4
 11
40.68
 21
8.1225
 31
0.0
  0
TEXT
  8
TEXT
 62
     7
 10
9.9025
 20
75.755
 30
0.0
 40
0.78
  1
RACKMOUNT CHASSIS
 41
0.75
 72
     4
 11
14.68
 21
76.145
 31
0.0
  0
TEXT
  8
TEXT
 62
     7
 10
30.45
 20
75.8325
 30
0.0
 40
0.625
  1
CH-14400 TO CH-14404 & CH-14410 TO CH-14414
 41
0.75
 72
     4
 11
39.825
 21
76.145
 31
0.0
  0
TEXT
  8
TEXT
 62
     7
 10
10.975
 20
32.178689
 30
0.0
 40
0.78
  1
CHASSIS COVER
 41
0.75
 72
     4
 11
14.68
 21
32.568689
 31
0.0
  0
ARC
  8
OBJECT
 62
     7
 10
18.563665
 20
24.430264
 30
0.0
 40
0.0935
 50
0.0
 51
180.0
  0
ARC
  8
OBJECT
 62
     7
 10
18.563665
 20
23.617264
 30
0.0
 40
0.0935
 50
180.0
 51
0.0
  0
LINE
  8
OBJECT
 62
     7
 10
18.657165
 20
24.430264
 30
0.0
 11
18.657165
 21
23.617264
 31
0.0
  0
LINE
  8
OBJECT
 62
     7
 10
18.470165
 20
23.617264
 30
0.0
 11
18.470165
 21
24.430264
 31
0.0
  0
ARC
  8
OBJECT
 62
     7
 10
18.563665
 20
23.180264
 30
0.0
 40
0.0935
 50
0.0
 51
180.0
  0
ARC
  8
OBJECT
 62
     7
 10
18.563665
 20
22.367264
 30
0.0
 40
0.0935
 50
180.0
 51
0.0
  0
LINE
  8
OBJECT
 62
     7
 10
18.657165
 20
23.180264
 30
0.0
 11
18.657165
 21
22.367264
 31
0.0
  0
LINE
  8
OBJECT
 62
     7
 10
18.470165
 20
22.367264
 30
0.0
 11
18.470165
 21
23.180264
 31
0.0
  0
ARC
  8
OBJECT
 62
     7
 10
18.563665
 20
21.930264
 30
0.0
 40
0.0935
 50
0.0
 51
180.0
  0
ARC
  8
OBJECT
 62
     7
 10
18.563665
 20
21.117264
 30
0.0
 40
0.0935
 50
180.0
 51
0.0
  0
LINE
  8
OBJECT
 62
     7
 10
18.657165
 20
21.930264
 30
0.0
 11
18.657165
 21
21.117264
 31
0.0
  0
LINE
  8
OBJECT
 62
     7
 10
18.470165
 20
21.117264
 30
0.0
 11
18.470165
 21
21.930264
 31
0.0
  0
ARC
  8
OBJECT
 62
     7
 10
18.563665
 20
20.680264
 30
0.0
 40
0.0935
 50
0.0
 51
180.0
  0
ARC
  8
OBJECT
 62
     7
 10
18.563665
 20
19.867264
 30
0.0
 40
0.0935
 50
180.0
 51
0.0
  0
LINE
  8
OBJECT
 62
     7
 10
18.657165
 20
20.680264
 30
0.0
 11
18.657165
 21
19.867264
 31
0.0
  0
LINE
  8
OBJECT
 62
     7
 10
18.470165
 20
19.867264
 30
0.0
 11
18.470165
 21
20.680264
 31
0.0
  0
LINE
  8
OBJECT
 62
     7
 10
18.470165
 20
18.617264
 30
0.0
 11
18.470165
 21
19.430264
 31
0.0
  0
LINE
  8
OBJECT
 62
     7
 10
18.657165
 20
19.430264
 30
0.0
 11
18.657165
 21
18.617264
 31
0.0
  0
ARC
  8
OBJECT
 62
     7
 10
18.563665
 20
18.617264
 30
0.0
 40
0.0935
 50
180.0
 51
0.0
  0
ARC
  8
OBJECT
 62
     7
 10
18.563665
 20
19.430264
 30
0.0
 40
0.0935
 50
0.0
 51
180.0
  0
ARC
  8
OBJECT
 62
     7
 10
19.063665
 20
24.430264
 30
0.0
 40
0.0935
 50
0.0
 51
180.0
  0
ARC
  8
OBJECT
 62
     7
 10
19.063665
 20
23.617264
 30
0.0
 40
0.0935
 50
180.0
 51
0.0
  0
LINE
  8
OBJECT
 62
     7
 10
19.157165
 20
24.430264
 30
0.0
 11
19.157165
 21
23.617264
 31
0.0
  0
LINE
  8
OBJECT
 62
     7
 10
18.970165
 20
23.617264
 30
0.0
 11
18.970165
 21
24.430264
 31
0.0
  0
ARC
  8
OBJECT
 62
     7
 10
19.063665
 20
23.180264
 30
0.0
 40
0.0935
 50
0.0
 51
180.0
  0
ARC
  8
OBJECT
 62
     7
 10
19.063665
 20
22.367264
 30
0.0
 40
0.0935
 50
180.0
 51
0.0
  0
LINE
  8
OBJECT
 62
     7
 10
19.157165
 20
23.180264
 30
0.0
 11
19.157165
 21
22.367264
 31
0.0
  0
LINE
  8
OBJECT
 62
     7
 10
18.970165
 20
22.367264
 30
0.0
 11
18.970165
 21
23.180264
 31
0.0
  0
ARC
  8
OBJECT
 62
     7
 10
19.063665
 20
21.930264
 30
0.0
 40
0.0935
 50
0.0
 51
180.0
  0
ARC
  8
OBJECT
 62
     7
 10
19.063665
 20
21.117264
 30
0.0
 40
0.0935
 50
180.0
 51
0.0
  0
LINE
  8
OBJECT
 62
     7
 10
19.157165
 20
21.930264
 30
0.0
 11
19.157165
 21
21.117264
 31
0.0
  0
LINE
  8
OBJECT
 62
     7
 10
18.970165
 20
21.117264
 30
0.0
 11
18.970165
 21
21.930264
 31
0.0
  0
ARC
  8
OBJECT
 62
     7
 10
19.063665
 20
20.680264
 30
0.0
 40
0.0935
 50
0.0
 51
180.0
  0
ARC
  8
OBJECT
 62
     7
 10
19.063665
 20
19.867264
 30
0.0
 40
0.0935
 50
180.0
 51
0.0
  0
LINE
  8
OBJECT
 62
     7
 10
19.157165
 20
20.680264
 30
0.0
 11
19.157165
 21
19.867264
 31
0.0
  0
LINE
  8
OBJECT
 62
     7
 10
18.970165
 20
19.867264
 30
0.0
 11
18.970165
 21
20.680264
 31
0.0
  0
LINE
  8
OBJECT
 62
     7
 10
18.970165
 20
18.617264
 30
0.0
 11
18.970165
 21
19.430264
 31
0.0
  0
LINE
  8
OBJECT
 62
     7
 10
19.157165
 20
19.430264
 30
0.0
 11
19.157165
 21
18.617264
 31
0.0
  0
ARC
  8
OBJECT
 62
     7
 10
19.063665
 20
18.617264
 30
0.0
 40
0.0935
 50
180.0
 51
0.0
  0
ARC
  8
OBJECT
 62
     7
 10
19.063665
 20
19.430264
 30
0.0
 40
0.0935
 50
0.0
 51
180.0
  0
ARC
  8
OBJECT
 62
     7
 10
19.563665
 20
24.430264
 30
0.0
 40
0.0935
 50
0.0
 51
180.0
  0
ARC
  8
OBJECT
 62
     7
 10
19.563665
 20
23.617264
 30
0.0
 40
0.0935
 50
180.0
 51
0.0
  0
LINE
  8
OBJECT
 62
     7
 10
19.657165
 20
24.430264
 30
0.0
 11
19.657165
 21
23.617264
 31
0.0
  0
LINE
  8
OBJECT
 62
     7
 10
19.470165
 20
23.617264
 30
0.0
 11
19.470165
 21
24.430264
 31
0.0
  0
ARC
  8
OBJECT
 62
     7
 10
19.563665
 20
23.180264
 30
0.0
 40
0.0935
 50
0.0
 51
180.0
  0
ARC
  8
OBJECT
 62
     7
 10
19.563665
 20
22.367264
 30
0.0
 40
0.0935
 50
180.0
 51
0.0
  0
LINE
  8
OBJECT
 62
     7
 10
19.657165
 20
23.180264
 30
0.0
 11
19.657165
 21
22.367264
 31
0.0
  0
LINE
  8
OBJECT
 62
     7
 10
19.470165
 20
22.367264
 30
0.0
 11
19.470165
 21
23.180264
 31
0.0
  0
ARC
  8
OBJECT
 62
     7
 10
19.563665
 20
21.930264
 30
0.0
 40
0.0935
 50
0.0
 51
180.0
  0
ARC
  8
OBJECT
 62
     7
 10
19.563665
 20
21.117264
 30
0.0
 40
0.0935
 50
180.0
 51
0.0
  0
LINE
  8
OBJECT
 62
     7
 10
19.657165
 20
21.930264
 30
0.0
 11
19.657165
 21
21.117264
 31
0.0
  0
LINE
  8
OBJECT
 62
     7
 10
19.470165
 20
21.117264
 30
0.0
 11
19.470165
 21
21.930264
 31
0.0
  0
ARC
  8
OBJECT
 62
     7
 10
19.563665
 20
20.680264
 30
0.0
 40
0.0935
 50
0.0
 51
180.0
  0
ARC
  8
OBJECT
 62
     7
 10
19.563665
 20
19.867264
 30
0.0
 40
0.0935
 50
180.0
 51
0.0
  0
LINE
  8
OBJECT
 62
     7
 10
19.657165
 20
20.680264
 30
0.0
 11
19.657165
 21
19.867264
 31
0.0
  0
LINE
  8
OBJECT
 62
     7
 10
19.470165
 20
19.867264
 30
0.0
 11
19.470165
 21
20.680264
 31
0.0
  0
LINE
  8
OBJECT
 62
     7
 10
19.470165
 20
18.617264
 30
0.0
 11
19.470165
 21
19.430264
 31
0.0
  0
LINE
  8
OBJECT
 62
     7
 10
19.657165
 20
19.430264
 30
0.0
 11
19.657165
 21
18.617264
 31
0.0
  0
ARC
  8
OBJECT
 62
     7
 10
19.563665
 20
18.617264
 30
0.0
 40
0.0935
 50
180.0
 51
0.0
  0
ARC
  8
OBJECT
 62
     7
 10
19.563665
 20
19.430264
 30
0.0
 40
0.0935
 50
0.0
 51
180.0
  0
ARC
  8
OBJECT
 62
     7
 10
20.063665
 20
24.430264
 30
0.0
 40
0.0935
 50
0.0
 51
180.0
  0
ARC
  8
OBJECT
 62
     7
 10
20.063665
 20
23.617264
 30
0.0
 40
0.0935
 50
180.0
 51
0.0
  0
LINE
  8
OBJECT
 62
     7
 10
20.157165
 20
24.430264
 30
0.0
 11
20.157165
 21
23.617264
 31
0.0
  0
LINE
  8
OBJECT
 62
     7
 10
19.970165
 20
23.617264
 30
0.0
 11
19.970165
 21
24.430264
 31
0.0
  0
ARC
  8
OBJECT
 62
     7
 10
20.063665
 20
23.180264
 30
0.0
 40
0.0935
 50
0.0
 51
180.0
  0
ARC
  8
OBJECT
 62
     7
 10
20.063665
 20
22.367264
 30
0.0
 40
0.0935
 50
180.0
 51
0.0
  0
LINE
  8
OBJECT
 62
     7
 10
20.157165
 20
23.180264
 30
0.0
 11
20.157165
 21
22.367264
 31
0.0
  0
LINE
  8
OBJECT
 62
     7
 10
19.970165
 20
22.367264
 30
0.0
 11
19.970165
 21
23.180264
 31
0.0
  0
ARC
  8
OBJECT
 62
     7
 10
20.063665
 20
21.930264
 30
0.0
 40
0.0935
 50
0.0
 51
180.0
  0
ARC
  8
OBJECT
 62
     7
 10
20.063665
 20
21.117264
 30
0.0
 40
0.0935
 50
180.0
 51
0.0
  0
LINE
  8
OBJECT
 62
     7
 10
20.157165
 20
21.930264
 30
0.0
 11
20.157165
 21
21.117264
 31
0.0
  0
LINE
  8
OBJECT
 62
     7
 10
19.970165
 20
21.117264
 30
0.0
 11
19.970165
 21
21.930264
 31
0.0
  0
ARC
  8
OBJECT
 62
     7
 10
20.063665
 20
20.680264
 30
0.0
 40
0.0935
 50
0.0
 51
180.0
  0
ARC
  8
OBJECT
 62
     7
 10
20.063665
 20
19.867264
 30
0.0
 40
0.0935
 50
180.0
 51
0.0
  0
LINE
  8
OBJECT
 62
     7
 10
20.157165
 20
20.680264
 30
0.0
 11
20.157165
 21
19.867264
 31
0.0
  0
LINE
  8
OBJECT
 62
     7
 10
19.970165
 20
19.867264
 30
0.0
 11
19.970165
 21
20.680264
 31
0.0
  0
LINE
  8
OBJECT
 62
     7
 10
19.970165
 20
18.617264
 30
0.0
 11
19.970165
 21
19.430264
 31
0.0
  0
LINE
  8
OBJECT
 62
     7
 10
20.157165
 20
19.430264
 30
0.0
 11
20.157165
 21
18.617264
 31
0.0
  0
ARC
  8
OBJECT
 62
     7
 10
20.063665
 20
18.617264
 30
0.0
 40
0.0935
 50
180.0
 51
0.0
  0
ARC
  8
OBJECT
 62
     7
 10
20.063665
 20
19.430264
 30
0.0
 40
0.0935
 50
0.0
 51
180.0
  0
ARC
  8
OBJECT
 62
     7
 10
20.563665
 20
24.430264
 30
0.0
 40
0.0935
 50
0.0
 51
180.0
  0
ARC
  8
OBJECT
 62
     7
 10
20.563665
 20
23.617264
 30
0.0
 40
0.0935
 50
180.0
 51
0.0
  0
LINE
  8
OBJECT
 62
     7
 10
20.657165
 20
24.430264
 30
0.0
 11
20.657165
 21
23.617264
 31
0.0
  0
LINE
  8
OBJECT
 62
     7
 10
20.470165
 20
23.617264
 30
0.0
 11
20.470165
 21
24.430264
 31
0.0
  0
ARC
  8
OBJECT
 62
     7
 10
20.563665
 20
23.180264
 30
0.0
 40
0.0935
 50
0.0
 51
180.0
  0
ARC
  8
OBJECT
 62
     7
 10
20.563665
 20
22.367264
 30
0.0
 40
0.0935
 50
180.0
 51
0.0
  0
LINE
  8
OBJECT
 62
     7
 10
20.657165
 20
23.180264
 30
0.0
 11
20.657165
 21
22.367264
 31
0.0
  0
LINE
  8
OBJECT
 62
     7
 10
20.470165
 20
22.367264
 30
0.0
 11
20.470165
 21
23.180264
 31
0.0
  0
ARC
  8
OBJECT
 62
     7
 10
20.563665
 20
21.930264
 30
0.0
 40
0.0935
 50
0.0
 51
180.0
  0
ARC
  8
OBJECT
 62
     7
 10
20.563665
 20
21.117264
 30
0.0
 40
0.0935
 50
180.0
 51
0.0
  0
LINE
  8
OBJECT
 62
     7
 10
20.657165
 20
21.930264
 30
0.0
 11
20.657165
 21
21.117264
 31
0.0
  0
LINE
  8
OBJECT
 62
     7
 10
20.470165
 20
21.117264
 30
0.0
 11
20.470165
 21
21.930264
 31
0.0
  0
ARC
  8
OBJECT
 62
     7
 10
20.563665
 20
20.680264
 30
0.0
 40
0.0935
 50
0.0
 51
180.0
  0
ARC
  8
OBJECT
 62
     7
 10
20.563665
 20
19.867264
 30
0.0
 40
0.0935
 50
180.0
 51
0.0
  0
LINE
  8
OBJECT
 62
     7
 10
20.657165
 20
20.680264
 30
0.0
 11
20.657165
 21
19.867264
 31
0.0
  0
LINE
  8
OBJECT
 62
     7
 10
20.470165
 20
19.867264
 30
0.0
 11
20.470165
 21
20.680264
 31
0.0
  0
LINE
  8
OBJECT
 62
     7
 10
20.470165
 20
18.617264
 30
0.0
 11
20.470165
 21
19.430264
 31
0.0
  0
LINE
  8
OBJECT
 62
     7
 10
20.657165
 20
19.430264
 30
0.0
 11
20.657165
 21
18.617264
 31
0.0
  0
ARC
  8
OBJECT
 62
     7
 10
20.563665
 20
18.617264
 30
0.0
 40
0.0935
 50
180.0
 51
0.0
  0
ARC
  8
OBJECT
 62
     7
 10
20.563665
 20
19.430264
 30
0.0
 40
0.0935
 50
0.0
 51
180.0
  0
ARC
  8
OBJECT
 62
     7
 10
21.063665
 20
24.430264
 30
0.0
 40
0.0935
 50
0.0
 51
180.0
  0
ARC
  8
OBJECT
 62
     7
 10
21.063665
 20
23.617264
 30
0.0
 40
0.0935
 50
180.0
 51
0.0
  0
LINE
  8
OBJECT
 62
     7
 10
21.157165
 20
24.430264
 30
0.0
 11
21.157165
 21
23.617264
 31
0.0
  0
LINE
  8
OBJECT
 62
     7
 10
20.970165
 20
23.617264
 30
0.0
 11
20.970165
 21
24.430264
 31
0.0
  0
ARC
  8
OBJECT
 62
     7
 10
21.063665
 20
23.180264
 30
0.0
 40
0.0935
 50
0.0
 51
180.0
  0
ARC
  8
OBJECT
 62
     7
 10
21.063665
 20
22.367264
 30
0.0
 40
0.0935
 50
180.0
 51
0.0
  0
LINE
  8
OBJECT
 62
     7
 10
21.157165
 20
23.180264
 30
0.0
 11
21.157165
 21
22.367264
 31
0.0
  0
LINE
  8
OBJECT
 62
     7
 10
20.970165
 20
22.367264
 30
0.0
 11
20.970165
 21
23.180264
 31
0.0
  0
ARC
  8
OBJECT
 62
     7
 10
21.063665
 20
21.930264
 30
0.0
 40
0.0935
 50
0.0
 51
180.0
  0
ARC
  8
OBJECT
 62
     7
 10
21.063665
 20
21.117264
 30
0.0
 40
0.0935
 50
180.0
 51
0.0
  0
LINE
  8
OBJECT
 62
     7
 10
21.157165
 20
21.930264
 30
0.0
 11
21.157165
 21
21.117264
 31
0.0
  0
LINE
  8
OBJECT
 62
     7
 10
20.970165
 20
21.117264
 30
0.0
 11
20.970165
 21
21.930264
 31
0.0
  0
ARC
  8
OBJECT
 62
     7
 10
21.063665
 20
20.680264
 30
0.0
 40
0.0935
 50
0.0
 51
180.0
  0
ARC
  8
OBJECT
 62
     7
 10
21.063665
 20
19.867264
 30
0.0
 40
0.0935
 50
180.0
 51
0.0
  0
LINE
  8
OBJECT
 62
     7
 10
21.157165
 20
20.680264
 30
0.0
 11
21.157165
 21
19.867264
 31
0.0
  0
LINE
  8
OBJECT
 62
     7
 10
20.970165
 20
19.867264
 30
0.0
 11
20.970165
 21
20.680264
 31
0.0
  0
LINE
  8
OBJECT
 62
     7
 10
20.970165
 20
18.617264
 30
0.0
 11
20.970165
 21
19.430264
 31
0.0
  0
LINE
  8
OBJECT
 62
     7
 10
21.157165
 20
19.430264
 30
0.0
 11
21.157165
 21
18.617264
 31
0.0
  0
ARC
  8
OBJECT
 62
     7
 10
21.063665
 20
18.617264
 30
0.0
 40
0.0935
 50
180.0
 51
0.0
  0
ARC
  8
OBJECT
 62
     7
 10
21.063665
 20
19.430264
 30
0.0
 40
0.0935
 50
0.0
 51
180.0
  0
ARC
  8
OBJECT
 62
     7
 10
21.563665
 20
24.430264
 30
0.0
 40
0.0935
 50
0.0
 51
180.0
  0
ARC
  8
OBJECT
 62
     7
 10
21.563665
 20
23.617264
 30
0.0
 40
0.0935
 50
180.0
 51
0.0
  0
LINE
  8
OBJECT
 62
     7
 10
21.657165
 20
24.430264
 30
0.0
 11
21.657165
 21
23.617264
 31
0.0
  0
LINE
  8
OBJECT
 62
     7
 10
21.470165
 20
23.617264
 30
0.0
 11
21.470165
 21
24.430264
 31
0.0
  0
ARC
  8
OBJECT
 62
     7
 10
21.563665
 20
23.180264
 30
0.0
 40
0.0935
 50
0.0
 51
180.0
  0
ARC
  8
OBJECT
 62
     7
 10
21.563665
 20
22.367264
 30
0.0
 40
0.0935
 50
180.0
 51
0.0
  0
LINE
  8
OBJECT
 62
     7
 10
21.657165
 20
23.180264
 30
0.0
 11
21.657165
 21
22.367264
 31
0.0
  0
LINE
  8
OBJECT
 62
     7
 10
21.470165
 20
22.367264
 30
0.0
 11
21.470165
 21
23.180264
 31
0.0
  0
ARC
  8
OBJECT
 62
     7
 10
21.563665
 20
21.930264
 30
0.0
 40
0.0935
 50
0.0
 51
180.0
  0
ARC
  8
OBJECT
 62
     7
 10
21.563665
 20
21.117264
 30
0.0
 40
0.0935
 50
180.0
 51
0.0
  0
LINE
  8
OBJECT
 62
     7
 10
21.657165
 20
21.930264
 30
0.0
 11
21.657165
 21
21.117264
 31
0.0
  0
LINE
  8
OBJECT
 62
     7
 10
21.470165
 20
21.117264
 30
0.0
 11
21.470165
 21
21.930264
 31
0.0
  0
ARC
  8
OBJECT
 62
     7
 10
21.563665
 20
20.680264
 30
0.0
 40
0.0935
 50
0.0
 51
180.0
  0
ARC
  8
OBJECT
 62
     7
 10
21.563665
 20
19.867264
 30
0.0
 40
0.0935
 50
180.0
 51
0.0
  0
LINE
  8
OBJECT
 62
     7
 10
21.657165
 20
20.680264
 30
0.0
 11
21.657165
 21
19.867264
 31
0.0
  0
LINE
  8
OBJECT
 62
     7
 10
21.470165
 20
19.867264
 30
0.0
 11
21.470165
 21
20.680264
 31
0.0
  0
LINE
  8
OBJECT
 62
     7
 10
21.470165
 20
18.617264
 30
0.0
 11
21.470165
 21
19.430264
 31
0.0
  0
LINE
  8
OBJECT
 62
     7
 10
21.657165
 20
19.430264
 30
0.0
 11
21.657165
 21
18.617264
 31
0.0
  0
ARC
  8
OBJECT
 62
     7
 10
21.563665
 20
18.617264
 30
0.0
 40
0.0935
 50
180.0
 51
0.0
  0
ARC
  8
OBJECT
 62
     7
 10
21.563665
 20
19.430264
 30
0.0
 40
0.0935
 50
0.0
 51
180.0
  0
ARC
  8
OBJECT
 62
     7
 10
22.063665
 20
24.430264
 30
0.0
 40
0.0935
 50
0.0
 51
180.0
  0
ARC
  8
OBJECT
 62
     7
 10
22.063665
 20
23.617264
 30
0.0
 40
0.0935
 50
180.0
 51
0.0
  0
LINE
  8
OBJECT
 62
     7
 10
22.157165
 20
24.430264
 30
0.0
 11
22.157165
 21
23.617264
 31
0.0
  0
LINE
  8
OBJECT
 62
     7
 10
21.970165
 20
23.617264
 30
0.0
 11
21.970165
 21
24.430264
 31
0.0
  0
ARC
  8
OBJECT
 62
     7
 10
22.063665
 20
23.180264
 30
0.0
 40
0.0935
 50
0.0
 51
180.0
  0
ARC
  8
OBJECT
 62
     7
 10
22.063665
 20
22.367264
 30
0.0
 40
0.0935
 50
180.0
 51
0.0
  0
LINE
  8
OBJECT
 62
     7
 10
22.157165
 20
23.180264
 30
0.0
 11
22.157165
 21
22.367264
 31
0.0
  0
LINE
  8
OBJECT
 62
     7
 10
21.970165
 20
22.367264
 30
0.0
 11
21.970165
 21
23.180264
 31
0.0
  0
ARC
  8
OBJECT
 62
     7
 10
22.063665
 20
21.930264
 30
0.0
 40
0.0935
 50
0.0
 51
180.0
  0
ARC
  8
OBJECT
 62
     7
 10
22.063665
 20
21.117264
 30
0.0
 40
0.0935
 50
180.0
 51
0.0
  0
LINE
  8
OBJECT
 62
     7
 10
22.157165
 20
21.930264
 30
0.0
 11
22.157165
 21
21.117264
 31
0.0
  0
LINE
  8
OBJECT
 62
     7
 10
21.970165
 20
21.117264
 30
0.0
 11
21.970165
 21
21.930264
 31
0.0
  0
ARC
  8
OBJECT
 62
     7
 10
22.063665
 20
20.680264
 30
0.0
 40
0.0935
 50
0.0
 51
180.0
  0
ARC
  8
OBJECT
 62
     7
 10
22.063665
 20
19.867264
 30
0.0
 40
0.0935
 50
180.0
 51
0.0
  0
LINE
  8
OBJECT
 62
     7
 10
22.157165
 20
20.680264
 30
0.0
 11
22.157165
 21
19.867264
 31
0.0
  0
LINE
  8
OBJECT
 62
     7
 10
21.970165
 20
19.867264
 30
0.0
 11
21.970165
 21
20.680264
 31
0.0
  0
LINE
  8
OBJECT
 62
     7
 10
21.970165
 20
18.617264
 30
0.0
 11
21.970165
 21
19.430264
 31
0.0
  0
LINE
  8
OBJECT
 62
     7
 10
22.157165
 20
19.430264
 30
0.0
 11
22.157165
 21
18.617264
 31
0.0
  0
ARC
  8
OBJECT
 62
     7
 10
22.063665
 20
18.617264
 30
0.0
 40
0.0935
 50
180.0
 51
0.0
  0
ARC
  8
OBJECT
 62
     7
 10
22.063665
 20
19.430264
 30
0.0
 40
0.0935
 50
0.0
 51
180.0
  0
ARC
  8
OBJECT
 62
     7
 10
22.563665
 20
24.430264
 30
0.0
 40
0.0935
 50
0.0
 51
180.0
  0
ARC
  8
OBJECT
 62
     7
 10
22.563665
 20
23.617264
 30
0.0
 40
0.0935
 50
180.0
 51
0.0
  0
LINE
  8
OBJECT
 62
     7
 10
22.657165
 20
24.430264
 30
0.0
 11
22.657165
 21
23.617264
 31
0.0
  0
LINE
  8
OBJECT
 62
     7
 10
22.470165
 20
23.617264
 30
0.0
 11
22.470165
 21
24.430264
 31
0.0
  0
ARC
  8
OBJECT
 62
     7
 10
22.563665
 20
23.180264
 30
0.0
 40
0.0935
 50
0.0
 51
180.0
  0
ARC
  8
OBJECT
 62
     7
 10
22.563665
 20
22.367264
 30
0.0
 40
0.0935
 50
180.0
 51
0.0
  0
LINE
  8
OBJECT
 62
     7
 10
22.657165
 20
23.180264
 30
0.0
 11
22.657165
 21
22.367264
 31
0.0
  0
LINE
  8
OBJECT
 62
     7
 10
22.470165
 20
22.367264
 30
0.0
 11
22.470165
 21
23.180264
 31
0.0
  0
ARC
  8
OBJECT
 62
     7
 10
22.563665
 20
21.930264
 30
0.0
 40
0.0935
 50
0.0
 51
180.0
  0
ARC
  8
OBJECT
 62
     7
 10
22.563665
 20
21.117264
 30
0.0
 40
0.0935
 50
180.0
 51
0.0
  0
LINE
  8
OBJECT
 62
     7
 10
22.657165
 20
21.930264
 30
0.0
 11
22.657165
 21
21.117264
 31
0.0
  0
LINE
  8
OBJECT
 62
     7
 10
22.470165
 20
21.117264
 30
0.0
 11
22.470165
 21
21.930264
 31
0.0
  0
ARC
  8
OBJECT
 62
     7
 10
22.563665
 20
20.680264
 30
0.0
 40
0.0935
 50
0.0
 51
180.0
  0
ARC
  8
OBJECT
 62
     7
 10
22.563665
 20
19.867264
 30
0.0
 40
0.0935
 50
180.0
 51
0.0
  0
LINE
  8
OBJECT
 62
     7
 10
22.657165
 20
20.680264
 30
0.0
 11
22.657165
 21
19.867264
 31
0.0
  0
LINE
  8
OBJECT
 62
     7
 10
22.470165
 20
19.867264
 30
0.0
 11
22.470165
 21
20.680264
 31
0.0
  0
LINE
  8
OBJECT
 62
     7
 10
22.470165
 20
18.617264
 30
0.0
 11
22.470165
 21
19.430264
 31
0.0
  0
LINE
  8
OBJECT
 62
     7
 10
22.657165
 20
19.430264
 30
0.0
 11
22.657165
 21
18.617264
 31
0.0
  0
ARC
  8
OBJECT
 62
     7
 10
22.563665
 20
18.617264
 30
0.0
 40
0.0935
 50
180.0
 51
0.0
  0
ARC
  8
OBJECT
 62
     7
 10
22.563665
 20
19.430264
 30
0.0
 40
0.0935
 50
0.0
 51
180.0
  0
ARC
  8
OBJECT
 62
     7
 10
23.063665
 20
24.430264
 30
0.0
 40
0.0935
 50
0.0
 51
180.0
  0
ARC
  8
OBJECT
 62
     7
 10
23.063665
 20
23.617264
 30
0.0
 40
0.0935
 50
180.0
 51
0.0
  0
LINE
  8
OBJECT
 62
     7
 10
23.157165
 20
24.430264
 30
0.0
 11
23.157165
 21
23.617264
 31
0.0
  0
LINE
  8
OBJECT
 62
     7
 10
22.970165
 20
23.617264
 30
0.0
 11
22.970165
 21
24.430264
 31
0.0
  0
ARC
  8
OBJECT
 62
     7
 10
23.063665
 20
23.180264
 30
0.0
 40
0.0935
 50
0.0
 51
180.0
  0
ARC
  8
OBJECT
 62
     7
 10
23.063665
 20
22.367264
 30
0.0
 40
0.0935
 50
180.0
 51
0.0
  0
LINE
  8
OBJECT
 62
     7
 10
23.157165
 20
23.180264
 30
0.0
 11
23.157165
 21
22.367264
 31
0.0
  0
LINE
  8
OBJECT
 62
     7
 10
22.970165
 20
22.367264
 30
0.0
 11
22.970165
 21
23.180264
 31
0.0
  0
ARC
  8
OBJECT
 62
     7
 10
23.063665
 20
21.930264
 30
0.0
 40
0.0935
 50
0.0
 51
180.0
  0
ARC
  8
OBJECT
 62
     7
 10
23.063665
 20
21.117264
 30
0.0
 40
0.0935
 50
180.0
 51
0.0
  0
LINE
  8
OBJECT
 62
     7
 10
23.157165
 20
21.930264
 30
0.0
 11
23.157165
 21
21.117264
 31
0.0
  0
LINE
  8
OBJECT
 62
     7
 10
22.970165
 20
21.117264
 30
0.0
 11
22.970165
 21
21.930264
 31
0.0
  0
ARC
  8
OBJECT
 62
     7
 10
23.063665
 20
20.680264
 30
0.0
 40
0.0935
 50
0.0
 51
180.0
  0
ARC
  8
OBJECT
 62
     7
 10
23.063665
 20
19.867264
 30
0.0
 40
0.0935
 50
180.0
 51
0.0
  0
LINE
  8
OBJECT
 62
     7
 10
23.157165
 20
20.680264
 30
0.0
 11
23.157165
 21
19.867264
 31
0.0
  0
LINE
  8
OBJECT
 62
     7
 10
22.970165
 20
19.867264
 30
0.0
 11
22.970165
 21
20.680264
 31
0.0
  0
LINE
  8
OBJECT
 62
     7
 10
22.970165
 20
18.617264
 30
0.0
 11
22.970165
 21
19.430264
 31
0.0
  0
LINE
  8
OBJECT
 62
     7
 10
23.157165
 20
19.430264
 30
0.0
 11
23.157165
 21
18.617264
 31
0.0
  0
ARC
  8
OBJECT
 62
     7
 10
23.063665
 20
18.617264
 30
0.0
 40
0.0935
 50
180.0
 51
0.0
  0
ARC
  8
OBJECT
 62
     7
 10
23.063665
 20
19.430264
 30
0.0
 40
0.0935
 50
0.0
 51
180.0
  0
ARC
  8
OBJECT
 62
     7
 10
23.563665
 20
24.430264
 30
0.0
 40
0.0935
 50
0.0
 51
180.0
  0
ARC
  8
OBJECT
 62
     7
 10
23.563665
 20
23.617264
 30
0.0
 40
0.0935
 50
180.0
 51
0.0
  0
LINE
  8
OBJECT
 62
     7
 10
23.657165
 20
24.430264
 30
0.0
 11
23.657165
 21
23.617264
 31
0.0
  0
LINE
  8
OBJECT
 62
     7
 10
23.470165
 20
23.617264
 30
0.0
 11
23.470165
 21
24.430264
 31
0.0
  0
ARC
  8
OBJECT
 62
     7
 10
23.563665
 20
23.180264
 30
0.0
 40
0.0935
 50
0.0
 51
180.0
  0
ARC
  8
OBJECT
 62
     7
 10
23.563665
 20
22.367264
 30
0.0
 40
0.0935
 50
180.0
 51
0.0
  0
LINE
  8
OBJECT
 62
     7
 10
23.657165
 20
23.180264
 30
0.0
 11
23.657165
 21
22.367264
 31
0.0
  0
LINE
  8
OBJECT
 62
     7
 10
23.470165
 20
22.367264
 30
0.0
 11
23.470165
 21
23.180264
 31
0.0
  0
ARC
  8
OBJECT
 62
     7
 10
23.563665
 20
21.930264
 30
0.0
 40
0.0935
 50
0.0
 51
180.0
  0
ARC
  8
OBJECT
 62
     7
 10
23.563665
 20
21.117264
 30
0.0
 40
0.0935
 50
180.0
 51
0.0
  0
LINE
  8
OBJECT
 62
     7
 10
23.657165
 20
21.930264
 30
0.0
 11
23.657165
 21
21.117264
 31
0.0
  0
LINE
  8
OBJECT
 62
     7
 10
23.470165
 20
21.117264
 30
0.0
 11
23.470165
 21
21.930264
 31
0.0
  0
ARC
  8
OBJECT
 62
     7
 10
23.563665
 20
20.680264
 30
0.0
 40
0.0935
 50
0.0
 51
180.0
  0
ARC
  8
OBJECT
 62
     7
 10
23.563665
 20
19.867264
 30
0.0
 40
0.0935
 50
180.0
 51
0.0
  0
LINE
  8
OBJECT
 62
     7
 10
23.657165
 20
20.680264
 30
0.0
 11
23.657165
 21
19.867264
 31
0.0
  0
LINE
  8
OBJECT
 62
     7
 10
23.470165
 20
19.867264
 30
0.0
 11
23.470165
 21
20.680264
 31
0.0
  0
LINE
  8
OBJECT
 62
     7
 10
23.470165
 20
18.617264
 30
0.0
 11
23.470165
 21
19.430264
 31
0.0
  0
LINE
  8
OBJECT
 62
     7
 10
23.657165
 20
19.430264
 30
0.0
 11
23.657165
 21
18.617264
 31
0.0
  0
ARC
  8
OBJECT
 62
     7
 10
23.563665
 20
18.617264
 30
0.0
 40
0.0935
 50
180.0
 51
0.0
  0
ARC
  8
OBJECT
 62
     7
 10
23.563665
 20
19.430264
 30
0.0
 40
0.0935
 50
0.0
 51
180.0
  0
ARC
  8
OBJECT
 62
     7
 10
24.063665
 20
24.430264
 30
0.0
 40
0.0935
 50
0.0
 51
180.0
  0
ARC
  8
OBJECT
 62
     7
 10
24.063665
 20
23.617264
 30
0.0
 40
0.0935
 50
180.0
 51
0.0
  0
LINE
  8
OBJECT
 62
     7
 10
24.157165
 20
24.430264
 30
0.0
 11
24.157165
 21
23.617264
 31
0.0
  0
LINE
  8
OBJECT
 62
     7
 10
23.970165
 20
23.617264
 30
0.0
 11
23.970165
 21
24.430264
 31
0.0
  0
ARC
  8
OBJECT
 62
     7
 10
24.063665
 20
23.180264
 30
0.0
 40
0.0935
 50
0.0
 51
180.0
  0
ARC
  8
OBJECT
 62
     7
 10
24.063665
 20
22.367264
 30
0.0
 40
0.0935
 50
180.0
 51
0.0
  0
LINE
  8
OBJECT
 62
     7
 10
24.157165
 20
23.180264
 30
0.0
 11
24.157165
 21
22.367264
 31
0.0
  0
LINE
  8
OBJECT
 62
     7
 10
23.970165
 20
22.367264
 30
0.0
 11
23.970165
 21
23.180264
 31
0.0
  0
ARC
  8
OBJECT
 62
     7
 10
24.063665
 20
21.930264
 30
0.0
 40
0.0935
 50
0.0
 51
180.0
  0
ARC
  8
OBJECT
 62
     7
 10
24.063665
 20
21.117264
 30
0.0
 40
0.0935
 50
180.0
 51
0.0
  0
LINE
  8
OBJECT
 62
     7
 10
24.157165
 20
21.930264
 30
0.0
 11
24.157165
 21
21.117264
 31
0.0
  0
LINE
  8
OBJECT
 62
     7
 10
23.970165
 20
21.117264
 30
0.0
 11
23.970165
 21
21.930264
 31
0.0
  0
ARC
  8
OBJECT
 62
     7
 10
24.063665
 20
20.680264
 30
0.0
 40
0.0935
 50
0.0
 51
180.0
  0
ARC
  8
OBJECT
 62
     7
 10
24.063665
 20
19.867264
 30
0.0
 40
0.0935
 50
180.0
 51
0.0
  0
LINE
  8
OBJECT
 62
     7
 10
24.157165
 20
20.680264
 30
0.0
 11
24.157165
 21
19.867264
 31
0.0
  0
LINE
  8
OBJECT
 62
     7
 10
23.970165
 20
19.867264
 30
0.0
 11
23.970165
 21
20.680264
 31
0.0
  0
LINE
  8
OBJECT
 62
     7
 10
23.970165
 20
18.617264
 30
0.0
 11
23.970165
 21
19.430264
 31
0.0
  0
LINE
  8
OBJECT
 62
     7
 10
24.157165
 20
19.430264
 30
0.0
 11
24.157165
 21
18.617264
 31
0.0
  0
ARC
  8
OBJECT
 62
     7
 10
24.063665
 20
18.617264
 30
0.0
 40
0.0935
 50
180.0
 51
0.0
  0
ARC
  8
OBJECT
 62
     7
 10
24.063665
 20
19.430264
 30
0.0
 40
0.0935
 50
0.0
 51
180.0
  0
ARC
  8
OBJECT
 62
     7
 10
24.563665
 20
24.430264
 30
0.0
 40
0.0935
 50
0.0
 51
180.0
  0
ARC
  8
OBJECT
 62
     7
 10
24.563665
 20
23.617264
 30
0.0
 40
0.0935
 50
180.0
 51
0.0
  0
LINE
  8
OBJECT
 62
     7
 10
24.657165
 20
24.430264
 30
0.0
 11
24.657165
 21
23.617264
 31
0.0
  0
LINE
  8
OBJECT
 62
     7
 10
24.470165
 20
23.617264
 30
0.0
 11
24.470165
 21
24.430264
 31
0.0
  0
ARC
  8
OBJECT
 62
     7
 10
24.563665
 20
23.180264
 30
0.0
 40
0.0935
 50
0.0
 51
180.0
  0
ARC
  8
OBJECT
 62
     7
 10
24.563665
 20
22.367264
 30
0.0
 40
0.0935
 50
180.0
 51
0.0
  0
LINE
  8
OBJECT
 62
     7
 10
24.657165
 20
23.180264
 30
0.0
 11
24.657165
 21
22.367264
 31
0.0
  0
LINE
  8
OBJECT
 62
     7
 10
24.470165
 20
22.367264
 30
0.0
 11
24.470165
 21
23.180264
 31
0.0
  0
ARC
  8
OBJECT
 62
     7
 10
24.563665
 20
21.930264
 30
0.0
 40
0.0935
 50
0.0
 51
180.0
  0
ARC
  8
OBJECT
 62
     7
 10
24.563665
 20
21.117264
 30
0.0
 40
0.0935
 50
180.0
 51
0.0
  0
LINE
  8
OBJECT
 62
     7
 10
24.657165
 20
21.930264
 30
0.0
 11
24.657165
 21
21.117264
 31
0.0
  0
LINE
  8
OBJECT
 62
     7
 10
24.470165
 20
21.117264
 30
0.0
 11
24.470165
 21
21.930264
 31
0.0
  0
ARC
  8
OBJECT
 62
     7
 10
24.563665
 20
20.680264
 30
0.0
 40
0.0935
 50
0.0
 51
180.0
  0
ARC
  8
OBJECT
 62
     7
 10
24.563665
 20
19.867264
 30
0.0
 40
0.0935
 50
180.0
 51
0.0
  0
LINE
  8
OBJECT
 62
     7
 10
24.657165
 20
20.680264
 30
0.0
 11
24.657165
 21
19.867264
 31
0.0
  0
LINE
  8
OBJECT
 62
     7
 10
24.470165
 20
19.867264
 30
0.0
 11
24.470165
 21
20.680264
 31
0.0
  0
LINE
  8
OBJECT
 62
     7
 10
24.470165
 20
18.617264
 30
0.0
 11
24.470165
 21
19.430264
 31
0.0
  0
LINE
  8
OBJECT
 62
     7
 10
24.657165
 20
19.430264
 30
0.0
 11
24.657165
 21
18.617264
 31
0.0
  0
ARC
  8
OBJECT
 62
     7
 10
24.563665
 20
18.617264
 30
0.0
 40
0.0935
 50
180.0
 51
0.0
  0
ARC
  8
OBJECT
 62
     7
 10
24.563665
 20
19.430264
 30
0.0
 40
0.0935
 50
0.0
 51
180.0
  0
ARC
  8
OBJECT
 62
     7
 10
25.063665
 20
24.430264
 30
0.0
 40
0.0935
 50
0.0
 51
180.0
  0
ARC
  8
OBJECT
 62
     7
 10
25.063665
 20
23.617264
 30
0.0
 40
0.0935
 50
180.0
 51
0.0
  0
LINE
  8
OBJECT
 62
     7
 10
25.157165
 20
24.430264
 30
0.0
 11
25.157165
 21
23.617264
 31
0.0
  0
LINE
  8
OBJECT
 62
     7
 10
24.970165
 20
23.617264
 30
0.0
 11
24.970165
 21
24.430264
 31
0.0
  0
ARC
  8
OBJECT
 62
     7
 10
25.063665
 20
23.180264
 30
0.0
 40
0.0935
 50
0.0
 51
180.0
  0
ARC
  8
OBJECT
 62
     7
 10
25.063665
 20
22.367264
 30
0.0
 40
0.0935
 50
180.0
 51
0.0
  0
LINE
  8
OBJECT
 62
     7
 10
25.157165
 20
23.180264
 30
0.0
 11
25.157165
 21
22.367264
 31
0.0
  0
LINE
  8
OBJECT
 62
     7
 10
24.970165
 20
22.367264
 30
0.0
 11
24.970165
 21
23.180264
 31
0.0
  0
ARC
  8
OBJECT
 62
     7
 10
25.063665
 20
21.930264
 30
0.0
 40
0.0935
 50
0.0
 51
180.0
  0
ARC
  8
OBJECT
 62
     7
 10
25.063665
 20
21.117264
 30
0.0
 40
0.0935
 50
180.0
 51
0.0
  0
LINE
  8
OBJECT
 62
     7
 10
25.157165
 20
21.930264
 30
0.0
 11
25.157165
 21
21.117264
 31
0.0
  0
LINE
  8
OBJECT
 62
     7
 10
24.970165
 20
21.117264
 30
0.0
 11
24.970165
 21
21.930264
 31
0.0
  0
ARC
  8
OBJECT
 62
     7
 10
25.063665
 20
20.680264
 30
0.0
 40
0.0935
 50
0.0
 51
180.0
  0
ARC
  8
OBJECT
 62
     7
 10
25.063665
 20
19.867264
 30
0.0
 40
0.0935
 50
180.0
 51
0.0
  0
LINE
  8
OBJECT
 62
     7
 10
25.157165
 20
20.680264
 30
0.0
 11
25.157165
 21
19.867264
 31
0.0
  0
LINE
  8
OBJECT
 62
     7
 10
24.970165
 20
19.867264
 30
0.0
 11
24.970165
 21
20.680264
 31
0.0
  0
LINE
  8
OBJECT
 62
     7
 10
24.970165
 20
18.617264
 30
0.0
 11
24.970165
 21
19.430264
 31
0.0
  0
LINE
  8
OBJECT
 62
     7
 10
25.157165
 20
19.430264
 30
0.0
 11
25.157165
 21
18.617264
 31
0.0
  0
ARC
  8
OBJECT
 62
     7
 10
25.063665
 20
18.617264
 30
0.0
 40
0.0935
 50
180.0
 51
0.0
  0
ARC
  8
OBJECT
 62
     7
 10
25.063665
 20
19.430264
 30
0.0
 40
0.0935
 50
0.0
 51
180.0
  0
ARC
  8
OBJECT
 62
     7
 10
25.563665
 20
24.430264
 30
0.0
 40
0.0935
 50
0.0
 51
180.0
  0
ARC
  8
OBJECT
 62
     7
 10
25.563665
 20
23.617264
 30
0.0
 40
0.0935
 50
180.0
 51
0.0
  0
LINE
  8
OBJECT
 62
     7
 10
25.657165
 20
24.430264
 30
0.0
 11
25.657165
 21
23.617264
 31
0.0
  0
LINE
  8
OBJECT
 62
     7
 10
25.470165
 20
23.617264
 30
0.0
 11
25.470165
 21
24.430264
 31
0.0
  0
ARC
  8
OBJECT
 62
     7
 10
25.563665
 20
23.180264
 30
0.0
 40
0.0935
 50
0.0
 51
180.0
  0
ARC
  8
OBJECT
 62
     7
 10
25.563665
 20
22.367264
 30
0.0
 40
0.0935
 50
180.0
 51
0.0
  0
LINE
  8
OBJECT
 62
     7
 10
25.657165
 20
23.180264
 30
0.0
 11
25.657165
 21
22.367264
 31
0.0
  0
LINE
  8
OBJECT
 62
     7
 10
25.470165
 20
22.367264
 30
0.0
 11
25.470165
 21
23.180264
 31
0.0
  0
ARC
  8
OBJECT
 62
     7
 10
25.563665
 20
21.930264
 30
0.0
 40
0.0935
 50
0.0
 51
180.0
  0
ARC
  8
OBJECT
 62
     7
 10
25.563665
 20
21.117264
 30
0.0
 40
0.0935
 50
180.0
 51
0.0
  0
LINE
  8
OBJECT
 62
     7
 10
25.657165
 20
21.930264
 30
0.0
 11
25.657165
 21
21.117264
 31
0.0
  0
LINE
  8
OBJECT
 62
     7
 10
25.470165
 20
21.117264
 30
0.0
 11
25.470165
 21
21.930264
 31
0.0
  0
ARC
  8
OBJECT
 62
     7
 10
25.563665
 20
20.680264
 30
0.0
 40
0.0935
 50
0.0
 51
180.0
  0
ARC
  8
OBJECT
 62
     7
 10
25.563665
 20
19.867264
 30
0.0
 40
0.0935
 50
180.0
 51
0.0
  0
LINE
  8
OBJECT
 62
     7
 10
25.657165
 20
20.680264
 30
0.0
 11
25.657165
 21
19.867264
 31
0.0
  0
LINE
  8
OBJECT
 62
     7
 10
25.470165
 20
19.867264
 30
0.0
 11
25.470165
 21
20.680264
 31
0.0
  0
LINE
  8
OBJECT
 62
     7
 10
25.470165
 20
18.617264
 30
0.0
 11
25.470165
 21
19.430264
 31
0.0
  0
LINE
  8
OBJECT
 62
     7
 10
25.657165
 20
19.430264
 30
0.0
 11
25.657165
 21
18.617264
 31
0.0
  0
ARC
  8
OBJECT
 62
     7
 10
25.563665
 20
18.617264
 30
0.0
 40
0.0935
 50
180.0
 51
0.0
  0
ARC
  8
OBJECT
 62
     7
 10
25.563665
 20
19.430264
 30
0.0
 40
0.0935
 50
0.0
 51
180.0
  0
ARC
  8
OBJECT
 62
     7
 10
26.063665
 20
24.430264
 30
0.0
 40
0.0935
 50
0.0
 51
180.0
  0
ARC
  8
OBJECT
 62
     7
 10
26.063665
 20
23.617264
 30
0.0
 40
0.0935
 50
180.0
 51
0.0
  0
LINE
  8
OBJECT
 62
     7
 10
26.157165
 20
24.430264
 30
0.0
 11
26.157165
 21
23.617264
 31
0.0
  0
LINE
  8
OBJECT
 62
     7
 10
25.970165
 20
23.617264
 30
0.0
 11
25.970165
 21
24.430264
 31
0.0
  0
ARC
  8
OBJECT
 62
     7
 10
26.063665
 20
23.180264
 30
0.0
 40
0.0935
 50
0.0
 51
180.0
  0
ARC
  8
OBJECT
 62
     7
 10
26.063665
 20
22.367264
 30
0.0
 40
0.0935
 50
180.0
 51
0.0
  0
LINE
  8
OBJECT
 62
     7
 10
26.157165
 20
23.180264
 30
0.0
 11
26.157165
 21
22.367264
 31
0.0
  0
LINE
  8
OBJECT
 62
     7
 10
25.970165
 20
22.367264
 30
0.0
 11
25.970165
 21
23.180264
 31
0.0
  0
ARC
  8
OBJECT
 62
     7
 10
26.063665
 20
21.930264
 30
0.0
 40
0.0935
 50
0.0
 51
180.0
  0
ARC
  8
OBJECT
 62
     7
 10
26.063665
 20
21.117264
 30
0.0
 40
0.0935
 50
180.0
 51
0.0
  0
LINE
  8
OBJECT
 62
     7
 10
26.157165
 20
21.930264
 30
0.0
 11
26.157165
 21
21.117264
 31
0.0
  0
LINE
  8
OBJECT
 62
     7
 10
25.970165
 20
21.117264
 30
0.0
 11
25.970165
 21
21.930264
 31
0.0
  0
ARC
  8
OBJECT
 62
     7
 10
26.063665
 20
20.680264
 30
0.0
 40
0.0935
 50
0.0
 51
180.0
  0
ARC
  8
OBJECT
 62
     7
 10
26.063665
 20
19.867264
 30
0.0
 40
0.0935
 50
180.0
 51
0.0
  0
LINE
  8
OBJECT
 62
     7
 10
26.157165
 20
20.680264
 30
0.0
 11
26.157165
 21
19.867264
 31
0.0
  0
LINE
  8
OBJECT
 62
     7
 10
25.970165
 20
19.867264
 30
0.0
 11
25.970165
 21
20.680264
 31
0.0
  0
LINE
  8
OBJECT
 62
     7
 10
25.970165
 20
18.617264
 30
0.0
 11
25.970165
 21
19.430264
 31
0.0
  0
LINE
  8
OBJECT
 62
     7
 10
26.157165
 20
19.430264
 30
0.0
 11
26.157165
 21
18.617264
 31
0.0
  0
ARC
  8
OBJECT
 62
     7
 10
26.063665
 20
18.617264
 30
0.0
 40
0.0935
 50
180.0
 51
0.0
  0
ARC
  8
OBJECT
 62
     7
 10
26.063665
 20
19.430264
 30
0.0
 40
0.0935
 50
0.0
 51
180.0
  0
ARC
  8
OBJECT
 62
     7
 10
26.563665
 20
24.430264
 30
0.0
 40
0.0935
 50
0.0
 51
180.0
  0
ARC
  8
OBJECT
 62
     7
 10
26.563665
 20
23.617264
 30
0.0
 40
0.0935
 50
180.0
 51
0.0
  0
LINE
  8
OBJECT
 62
     7
 10
26.657165
 20
24.430264
 30
0.0
 11
26.657165
 21
23.617264
 31
0.0
  0
LINE
  8
OBJECT
 62
     7
 10
26.470165
 20
23.617264
 30
0.0
 11
26.470165
 21
24.430264
 31
0.0
  0
ARC
  8
OBJECT
 62
     7
 10
26.563665
 20
23.180264
 30
0.0
 40
0.0935
 50
0.0
 51
180.0
  0
ARC
  8
OBJECT
 62
     7
 10
26.563665
 20
22.367264
 30
0.0
 40
0.0935
 50
180.0
 51
0.0
  0
LINE
  8
OBJECT
 62
     7
 10
26.657165
 20
23.180264
 30
0.0
 11
26.657165
 21
22.367264
 31
0.0
  0
LINE
  8
OBJECT
 62
     7
 10
26.470165
 20
22.367264
 30
0.0
 11
26.470165
 21
23.180264
 31
0.0
  0
ARC
  8
OBJECT
 62
     7
 10
26.563665
 20
21.930264
 30
0.0
 40
0.0935
 50
0.0
 51
180.0
  0
ARC
  8
OBJECT
 62
     7
 10
26.563665
 20
21.117264
 30
0.0
 40
0.0935
 50
180.0
 51
0.0
  0
LINE
  8
OBJECT
 62
     7
 10
26.657165
 20
21.930264
 30
0.0
 11
26.657165
 21
21.117264
 31
0.0
  0
LINE
  8
OBJECT
 62
     7
 10
26.470165
 20
21.117264
 30
0.0
 11
26.470165
 21
21.930264
 31
0.0
  0
ARC
  8
OBJECT
 62
     7
 10
26.563665
 20
20.680264
 30
0.0
 40
0.0935
 50
0.0
 51
180.0
  0
ARC
  8
OBJECT
 62
     7
 10
26.563665
 20
19.867264
 30
0.0
 40
0.0935
 50
180.0
 51
0.0
  0
LINE
  8
OBJECT
 62
     7
 10
26.657165
 20
20.680264
 30
0.0
 11
26.657165
 21
19.867264
 31
0.0
  0
LINE
  8
OBJECT
 62
     7
 10
26.470165
 20
19.867264
 30
0.0
 11
26.470165
 21
20.680264
 31
0.0
  0
LINE
  8
OBJECT
 62
     7
 10
26.470165
 20
18.617264
 30
0.0
 11
26.470165
 21
19.430264
 31
0.0
  0
LINE
  8
OBJECT
 62
     7
 10
26.657165
 20
19.430264
 30
0.0
 11
26.657165
 21
18.617264
 31
0.0
  0
ARC
  8
OBJECT
 62
     7
 10
26.563665
 20
18.617264
 30
0.0
 40
0.0935
 50
180.0
 51
0.0
  0
ARC
  8
OBJECT
 62
     7
 10
26.563665
 20
19.430264
 30
0.0
 40
0.0935
 50
0.0
 51
180.0
  0
ARC
  8
OBJECT
 62
     7
 10
27.063665
 20
24.430264
 30
0.0
 40
0.0935
 50
0.0
 51
180.0
  0
ARC
  8
OBJECT
 62
     7
 10
27.063665
 20
23.617264
 30
0.0
 40
0.0935
 50
180.0
 51
0.0
  0
LINE
  8
OBJECT
 62
     7
 10
27.157165
 20
24.430264
 30
0.0
 11
27.157165
 21
23.617264
 31
0.0
  0
LINE
  8
OBJECT
 62
     7
 10
26.970165
 20
23.617264
 30
0.0
 11
26.970165
 21
24.430264
 31
0.0
  0
ARC
  8
OBJECT
 62
     7
 10
27.063665
 20
23.180264
 30
0.0
 40
0.0935
 50
0.0
 51
180.0
  0
ARC
  8
OBJECT
 62
     7
 10
27.063665
 20
22.367264
 30
0.0
 40
0.0935
 50
180.0
 51
0.0
  0
LINE
  8
OBJECT
 62
     7
 10
27.157165
 20
23.180264
 30
0.0
 11
27.157165
 21
22.367264
 31
0.0
  0
LINE
  8
OBJECT
 62
     7
 10
26.970165
 20
22.367264
 30
0.0
 11
26.970165
 21
23.180264
 31
0.0
  0
ARC
  8
OBJECT
 62
     7
 10
27.063665
 20
21.930264
 30
0.0
 40
0.0935
 50
0.0
 51
180.0
  0
ARC
  8
OBJECT
 62
     7
 10
27.063665
 20
21.117264
 30
0.0
 40
0.0935
 50
180.0
 51
0.0
  0
LINE
  8
OBJECT
 62
     7
 10
27.157165
 20
21.930264
 30
0.0
 11
27.157165
 21
21.117264
 31
0.0
  0
LINE
  8
OBJECT
 62
     7
 10
26.970165
 20
21.117264
 30
0.0
 11
26.970165
 21
21.930264
 31
0.0
  0
ARC
  8
OBJECT
 62
     7
 10
27.063665
 20
20.680264
 30
0.0
 40
0.0935
 50
0.0
 51
180.0
  0
ARC
  8
OBJECT
 62
     7
 10
27.063665
 20
19.867264
 30
0.0
 40
0.0935
 50
180.0
 51
0.0
  0
LINE
  8
OBJECT
 62
     7
 10
27.157165
 20
20.680264
 30
0.0
 11
27.157165
 21
19.867264
 31
0.0
  0
LINE
  8
OBJECT
 62
     7
 10
26.970165
 20
19.867264
 30
0.0
 11
26.970165
 21
20.680264
 31
0.0
  0
LINE
  8
OBJECT
 62
     7
 10
26.970165
 20
18.617264
 30
0.0
 11
26.970165
 21
19.430264
 31
0.0
  0
LINE
  8
OBJECT
 62
     7
 10
27.157165
 20
19.430264
 30
0.0
 11
27.157165
 21
18.617264
 31
0.0
  0
ARC
  8
OBJECT
 62
     7
 10
27.063665
 20
18.617264
 30
0.0
 40
0.0935
 50
180.0
 51
0.0
  0
ARC
  8
OBJECT
 62
     7
 10
27.063665
 20
19.430264
 30
0.0
 40
0.0935
 50
0.0
 51
180.0
  0
ARC
  8
OBJECT
 62
     7
 10
27.563665
 20
24.430264
 30
0.0
 40
0.0935
 50
0.0
 51
180.0
  0
ARC
  8
OBJECT
 62
     7
 10
27.563665
 20
23.617264
 30
0.0
 40
0.0935
 50
180.0
 51
0.0
  0
LINE
  8
OBJECT
 62
     7
 10
27.657165
 20
24.430264
 30
0.0
 11
27.657165
 21
23.617264
 31
0.0
  0
LINE
  8
OBJECT
 62
     7
 10
27.470165
 20
23.617264
 30
0.0
 11
27.470165
 21
24.430264
 31
0.0
  0
ARC
  8
OBJECT
 62
     7
 10
27.563665
 20
23.180264
 30
0.0
 40
0.0935
 50
0.0
 51
180.0
  0
ARC
  8
OBJECT
 62
     7
 10
27.563665
 20
22.367264
 30
0.0
 40
0.0935
 50
180.0
 51
0.0
  0
LINE
  8
OBJECT
 62
     7
 10
27.657165
 20
23.180264
 30
0.0
 11
27.657165
 21
22.367264
 31
0.0
  0
LINE
  8
OBJECT
 62
     7
 10
27.470165
 20
22.367264
 30
0.0
 11
27.470165
 21
23.180264
 31
0.0
  0
ARC
  8
OBJECT
 62
     7
 10
27.563665
 20
21.930264
 30
0.0
 40
0.0935
 50
0.0
 51
180.0
  0
ARC
  8
OBJECT
 62
     7
 10
27.563665
 20
21.117264
 30
0.0
 40
0.0935
 50
180.0
 51
0.0
  0
LINE
  8
OBJECT
 62
     7
 10
27.657165
 20
21.930264
 30
0.0
 11
27.657165
 21
21.117264
 31
0.0
  0
LINE
  8
OBJECT
 62
     7
 10
27.470165
 20
21.117264
 30
0.0
 11
27.470165
 21
21.930264
 31
0.0
  0
ARC
  8
OBJECT
 62
     7
 10
27.563665
 20
20.680264
 30
0.0
 40
0.0935
 50
0.0
 51
180.0
  0
ARC
  8
OBJECT
 62
     7
 10
27.563665
 20
19.867264
 30
0.0
 40
0.0935
 50
180.0
 51
0.0
  0
LINE
  8
OBJECT
 62
     7
 10
27.657165
 20
20.680264
 30
0.0
 11
27.657165
 21
19.867264
 31
0.0
  0
LINE
  8
OBJECT
 62
     7
 10
27.470165
 20
19.867264
 30
0.0
 11
27.470165
 21
20.680264
 31
0.0
  0
LINE
  8
OBJECT
 62
     7
 10
27.470165
 20
18.617264
 30
0.0
 11
27.470165
 21
19.430264
 31
0.0
  0
LINE
  8
OBJECT
 62
     7
 10
27.657165
 20
19.430264
 30
0.0
 11
27.657165
 21
18.617264
 31
0.0
  0
ARC
  8
OBJECT
 62
     7
 10
27.563665
 20
18.617264
 30
0.0
 40
0.0935
 50
180.0
 51
0.0
  0
ARC
  8
OBJECT
 62
     7
 10
27.563665
 20
19.430264
 30
0.0
 40
0.0935
 50
0.0
 51
180.0
  0
ARC
  8
OBJECT
 62
     7
 10
28.063665
 20
24.430264
 30
0.0
 40
0.0935
 50
0.0
 51
180.0
  0
ARC
  8
OBJECT
 62
     7
 10
28.063665
 20
23.617264
 30
0.0
 40
0.0935
 50
180.0
 51
0.0
  0
LINE
  8
OBJECT
 62
     7
 10
28.157165
 20
24.430264
 30
0.0
 11
28.157165
 21
23.617264
 31
0.0
  0
LINE
  8
OBJECT
 62
     7
 10
27.970165
 20
23.617264
 30
0.0
 11
27.970165
 21
24.430264
 31
0.0
  0
ARC
  8
OBJECT
 62
     7
 10
28.063665
 20
23.180264
 30
0.0
 40
0.0935
 50
0.0
 51
180.0
  0
ARC
  8
OBJECT
 62
     7
 10
28.063665
 20
22.367264
 30
0.0
 40
0.0935
 50
180.0
 51
0.0
  0
LINE
  8
OBJECT
 62
     7
 10
28.157165
 20
23.180264
 30
0.0
 11
28.157165
 21
22.367264
 31
0.0
  0
LINE
  8
OBJECT
 62
     7
 10
27.970165
 20
22.367264
 30
0.0
 11
27.970165
 21
23.180264
 31
0.0
  0
ARC
  8
OBJECT
 62
     7
 10
28.063665
 20
21.930264
 30
0.0
 40
0.0935
 50
0.0
 51
180.0
  0
ARC
  8
OBJECT
 62
     7
 10
28.063665
 20
21.117264
 30
0.0
 40
0.0935
 50
180.0
 51
0.0
  0
LINE
  8
OBJECT
 62
     7
 10
28.157165
 20
21.930264
 30
0.0
 11
28.157165
 21
21.117264
 31
0.0
  0
LINE
  8
OBJECT
 62
     7
 10
27.970165
 20
21.117264
 30
0.0
 11
27.970165
 21
21.930264
 31
0.0
  0
ARC
  8
OBJECT
 62
     7
 10
28.063665
 20
20.680264
 30
0.0
 40
0.0935
 50
0.0
 51
180.0
  0
ARC
  8
OBJECT
 62
     7
 10
28.063665
 20
19.867264
 30
0.0
 40
0.0935
 50
180.0
 51
0.0
  0
LINE
  8
OBJECT
 62
     7
 10
28.157165
 20
20.680264
 30
0.0
 11
28.157165
 21
19.867264
 31
0.0
  0
LINE
  8
OBJECT
 62
     7
 10
27.970165
 20
19.867264
 30
0.0
 11
27.970165
 21
20.680264
 31
0.0
  0
LINE
  8
OBJECT
 62
     7
 10
27.970165
 20
18.617264
 30
0.0
 11
27.970165
 21
19.430264
 31
0.0
  0
LINE
  8
OBJECT
 62
     7
 10
28.157165
 20
19.430264
 30
0.0
 11
28.157165
 21
18.617264
 31
0.0
  0
ARC
  8
OBJECT
 62
     7
 10
28.063665
 20
18.617264
 30
0.0
 40
0.0935
 50
180.0
 51
0.0
  0
ARC
  8
OBJECT
 62
     7
 10
28.063665
 20
19.430264
 30
0.0
 40
0.0935
 50
0.0
 51
180.0
  0
ARC
  8
OBJECT
 62
     7
 10
28.563665
 20
24.430264
 30
0.0
 40
0.0935
 50
0.0
 51
180.0
  0
ARC
  8
OBJECT
 62
     7
 10
28.563665
 20
23.617264
 30
0.0
 40
0.0935
 50
180.0
 51
0.0
  0
LINE
  8
OBJECT
 62
     7
 10
28.657165
 20
24.430264
 30
0.0
 11
28.657165
 21
23.617264
 31
0.0
  0
LINE
  8
OBJECT
 62
     7
 10
28.470165
 20
23.617264
 30
0.0
 11
28.470165
 21
24.430264
 31
0.0
  0
ARC
  8
OBJECT
 62
     7
 10
28.563665
 20
23.180264
 30
0.0
 40
0.0935
 50
0.0
 51
180.0
  0
ARC
  8
OBJECT
 62
     7
 10
28.563665
 20
22.367264
 30
0.0
 40
0.0935
 50
180.0
 51
0.0
  0
LINE
  8
OBJECT
 62
     7
 10
28.657165
 20
23.180264
 30
0.0
 11
28.657165
 21
22.367264
 31
0.0
  0
LINE
  8
OBJECT
 62
     7
 10
28.470165
 20
22.367264
 30
0.0
 11
28.470165
 21
23.180264
 31
0.0
  0
ARC
  8
OBJECT
 62
     7
 10
28.563665
 20
21.930264
 30
0.0
 40
0.0935
 50
0.0
 51
180.0
  0
ARC
  8
OBJECT
 62
     7
 10
28.563665
 20
21.117264
 30
0.0
 40
0.0935
 50
180.0
 51
0.0
  0
LINE
  8
OBJECT
 62
     7
 10
28.657165
 20
21.930264
 30
0.0
 11
28.657165
 21
21.117264
 31
0.0
  0
LINE
  8
OBJECT
 62
     7
 10
28.470165
 20
21.117264
 30
0.0
 11
28.470165
 21
21.930264
 31
0.0
  0
ARC
  8
OBJECT
 62
     7
 10
28.563665
 20
20.680264
 30
0.0
 40
0.0935
 50
0.0
 51
180.0
  0
ARC
  8
OBJECT
 62
     7
 10
28.563665
 20
19.867264
 30
0.0
 40
0.0935
 50
180.0
 51
0.0
  0
LINE
  8
OBJECT
 62
     7
 10
28.657165
 20
20.680264
 30
0.0
 11
28.657165
 21
19.867264
 31
0.0
  0
LINE
  8
OBJECT
 62
     7
 10
28.470165
 20
19.867264
 30
0.0
 11
28.470165
 21
20.680264
 31
0.0
  0
LINE
  8
OBJECT
 62
     7
 10
28.470165
 20
18.617264
 30
0.0
 11
28.470165
 21
19.430264
 31
0.0
  0
LINE
  8
OBJECT
 62
     7
 10
28.657165
 20
19.430264
 30
0.0
 11
28.657165
 21
18.617264
 31
0.0
  0
ARC
  8
OBJECT
 62
     7
 10
28.563665
 20
18.617264
 30
0.0
 40
0.0935
 50
180.0
 51
0.0
  0
ARC
  8
OBJECT
 62
     7
 10
28.563665
 20
19.430264
 30
0.0
 40
0.0935
 50
0.0
 51
180.0
  0
ARC
  8
OBJECT
 62
     7
 10
29.063665
 20
24.430264
 30
0.0
 40
0.0935
 50
0.0
 51
180.0
  0
ARC
  8
OBJECT
 62
     7
 10
29.063665
 20
23.617264
 30
0.0
 40
0.0935
 50
180.0
 51
0.0
  0
LINE
  8
OBJECT
 62
     7
 10
29.157165
 20
24.430264
 30
0.0
 11
29.157165
 21
23.617264
 31
0.0
  0
LINE
  8
OBJECT
 62
     7
 10
28.970165
 20
23.617264
 30
0.0
 11
28.970165
 21
24.430264
 31
0.0
  0
ARC
  8
OBJECT
 62
     7
 10
29.063665
 20
23.180264
 30
0.0
 40
0.0935
 50
0.0
 51
180.0
  0
ARC
  8
OBJECT
 62
     7
 10
29.063665
 20
22.367264
 30
0.0
 40
0.0935
 50
180.0
 51
0.0
  0
LINE
  8
OBJECT
 62
     7
 10
29.157165
 20
23.180264
 30
0.0
 11
29.157165
 21
22.367264
 31
0.0
  0
LINE
  8
OBJECT
 62
     7
 10
28.970165
 20
22.367264
 30
0.0
 11
28.970165
 21
23.180264
 31
0.0
  0
ARC
  8
OBJECT
 62
     7
 10
29.063665
 20
21.930264
 30
0.0
 40
0.0935
 50
0.0
 51
180.0
  0
ARC
  8
OBJECT
 62
     7
 10
29.063665
 20
21.117264
 30
0.0
 40
0.0935
 50
180.0
 51
0.0
  0
LINE
  8
OBJECT
 62
     7
 10
29.157165
 20
21.930264
 30
0.0
 11
29.157165
 21
21.117264
 31
0.0
  0
LINE
  8
OBJECT
 62
     7
 10
28.970165
 20
21.117264
 30
0.0
 11
28.970165
 21
21.930264
 31
0.0
  0
ARC
  8
OBJECT
 62
     7
 10
29.063665
 20
20.680264
 30
0.0
 40
0.0935
 50
0.0
 51
180.0
  0
ARC
  8
OBJECT
 62
     7
 10
29.063665
 20
19.867264
 30
0.0
 40
0.0935
 50
180.0
 51
0.0
  0
LINE
  8
OBJECT
 62
     7
 10
29.157165
 20
20.680264
 30
0.0
 11
29.157165
 21
19.867264
 31
0.0
  0
LINE
  8
OBJECT
 62
     7
 10
28.970165
 20
19.867264
 30
0.0
 11
28.970165
 21
20.680264
 31
0.0
  0
LINE
  8
OBJECT
 62
     7
 10
28.970165
 20
18.617264
 30
0.0
 11
28.970165
 21
19.430264
 31
0.0
  0
LINE
  8
OBJECT
 62
     7
 10
29.157165
 20
19.430264
 30
0.0
 11
29.157165
 21
18.617264
 31
0.0
  0
ARC
  8
OBJECT
 62
     7
 10
29.063665
 20
18.617264
 30
0.0
 40
0.0935
 50
180.0
 51
0.0
  0
ARC
  8
OBJECT
 62
     7
 10
29.063665
 20
19.430264
 30
0.0
 40
0.0935
 50
0.0
 51
180.0
  0
ARC
  8
OBJECT
 62
     7
 10
29.563665
 20
24.430264
 30
0.0
 40
0.0935
 50
0.0
 51
180.0
  0
ARC
  8
OBJECT
 62
     7
 10
29.563665
 20
23.617264
 30
0.0
 40
0.0935
 50
180.0
 51
0.0
  0
LINE
  8
OBJECT
 62
     7
 10
29.657165
 20
24.430264
 30
0.0
 11
29.657165
 21
23.617264
 31
0.0
  0
LINE
  8
OBJECT
 62
     7
 10
29.470165
 20
23.617264
 30
0.0
 11
29.470165
 21
24.430264
 31
0.0
  0
ARC
  8
OBJECT
 62
     7
 10
29.563665
 20
23.180264
 30
0.0
 40
0.0935
 50
0.0
 51
180.0
  0
ARC
  8
OBJECT
 62
     7
 10
29.563665
 20
22.367264
 30
0.0
 40
0.0935
 50
180.0
 51
0.0
  0
LINE
  8
OBJECT
 62
     7
 10
29.657165
 20
23.180264
 30
0.0
 11
29.657165
 21
22.367264
 31
0.0
  0
LINE
  8
OBJECT
 62
     7
 10
29.470165
 20
22.367264
 30
0.0
 11
29.470165
 21
23.180264
 31
0.0
  0
ARC
  8
OBJECT
 62
     7
 10
29.563665
 20
21.930264
 30
0.0
 40
0.0935
 50
0.0
 51
180.0
  0
ARC
  8
OBJECT
 62
     7
 10
29.563665
 20
21.117264
 30
0.0
 40
0.0935
 50
180.0
 51
0.0
  0
LINE
  8
OBJECT
 62
     7
 10
29.657165
 20
21.930264
 30
0.0
 11
29.657165
 21
21.117264
 31
0.0
  0
LINE
  8
OBJECT
 62
     7
 10
29.470165
 20
21.117264
 30
0.0
 11
29.470165
 21
21.930264
 31
0.0
  0
ARC
  8
OBJECT
 62
     7
 10
29.563665
 20
20.680264
 30
0.0
 40
0.0935
 50
0.0
 51
180.0
  0
ARC
  8
OBJECT
 62
     7
 10
29.563665
 20
19.867264
 30
0.0
 40
0.0935
 50
180.0
 51
0.0
  0
LINE
  8
OBJECT
 62
     7
 10
29.657165
 20
20.680264
 30
0.0
 11
29.657165
 21
19.867264
 31
0.0
  0
LINE
  8
OBJECT
 62
     7
 10
29.470165
 20
19.867264
 30
0.0
 11
29.470165
 21
20.680264
 31
0.0
  0
LINE
  8
OBJECT
 62
     7
 10
29.470165
 20
18.617264
 30
0.0
 11
29.470165
 21
19.430264
 31
0.0
  0
LINE
  8
OBJECT
 62
     7
 10
29.657165
 20
19.430264
 30
0.0
 11
29.657165
 21
18.617264
 31
0.0
  0
ARC
  8
OBJECT
 62
     7
 10
29.563665
 20
18.617264
 30
0.0
 40
0.0935
 50
180.0
 51
0.0
  0
ARC
  8
OBJECT
 62
     7
 10
29.563665
 20
19.430264
 30
0.0
 40
0.0935
 50
0.0
 51
180.0
  0
ARC
  8
OBJECT
 62
     7
 10
30.063665
 20
24.430264
 30
0.0
 40
0.0935
 50
0.0
 51
180.0
  0
ARC
  8
OBJECT
 62
     7
 10
30.063665
 20
23.617264
 30
0.0
 40
0.0935
 50
180.0
 51
0.0
  0
LINE
  8
OBJECT
 62
     7
 10
30.157165
 20
24.430264
 30
0.0
 11
30.157165
 21
23.617264
 31
0.0
  0
LINE
  8
OBJECT
 62
     7
 10
29.970165
 20
23.617264
 30
0.0
 11
29.970165
 21
24.430264
 31
0.0
  0
ARC
  8
OBJECT
 62
     7
 10
30.063665
 20
23.180264
 30
0.0
 40
0.0935
 50
0.0
 51
180.0
  0
ARC
  8
OBJECT
 62
     7
 10
30.063665
 20
22.367264
 30
0.0
 40
0.0935
 50
180.0
 51
0.0
  0
LINE
  8
OBJECT
 62
     7
 10
30.157165
 20
23.180264
 30
0.0
 11
30.157165
 21
22.367264
 31
0.0
  0
LINE
  8
OBJECT
 62
     7
 10
29.970165
 20
22.367264
 30
0.0
 11
29.970165
 21
23.180264
 31
0.0
  0
ARC
  8
OBJECT
 62
     7
 10
30.063665
 20
21.930264
 30
0.0
 40
0.0935
 50
0.0
 51
180.0
  0
ARC
  8
OBJECT
 62
     7
 10
30.063665
 20
21.117264
 30
0.0
 40
0.0935
 50
180.0
 51
0.0
  0
LINE
  8
OBJECT
 62
     7
 10
30.157165
 20
21.930264
 30
0.0
 11
30.157165
 21
21.117264
 31
0.0
  0
LINE
  8
OBJECT
 62
     7
 10
29.970165
 20
21.117264
 30
0.0
 11
29.970165
 21
21.930264
 31
0.0
  0
ARC
  8
OBJECT
 62
     7
 10
30.063665
 20
20.680264
 30
0.0
 40
0.0935
 50
0.0
 51
180.0
  0
ARC
  8
OBJECT
 62
     7
 10
30.063665
 20
19.867264
 30
0.0
 40
0.0935
 50
180.0
 51
0.0
  0
LINE
  8
OBJECT
 62
     7
 10
30.157165
 20
20.680264
 30
0.0
 11
30.157165
 21
19.867264
 31
0.0
  0
LINE
  8
OBJECT
 62
     7
 10
29.970165
 20
19.867264
 30
0.0
 11
29.970165
 21
20.680264
 31
0.0
  0
LINE
  8
OBJECT
 62
     7
 10
29.970165
 20
18.617264
 30
0.0
 11
29.970165
 21
19.430264
 31
0.0
  0
LINE
  8
OBJECT
 62
     7
 10
30.157165
 20
19.430264
 30
0.0
 11
30.157165
 21
18.617264
 31
0.0
  0
ARC
  8
OBJECT
 62
     7
 10
30.063665
 20
18.617264
 30
0.0
 40
0.0935
 50
180.0
 51
0.0
  0
ARC
  8
OBJECT
 62
     7
 10
30.063665
 20
19.430264
 30
0.0
 40
0.0935
 50
0.0
 51
180.0
  0
ARC
  8
OBJECT
 62
     7
 10
30.563665
 20
24.430264
 30
0.0
 40
0.0935
 50
0.0
 51
180.0
  0
ARC
  8
OBJECT
 62
     7
 10
30.563665
 20
23.617264
 30
0.0
 40
0.0935
 50
180.0
 51
0.0
  0
LINE
  8
OBJECT
 62
     7
 10
30.657165
 20
24.430264
 30
0.0
 11
30.657165
 21
23.617264
 31
0.0
  0
LINE
  8
OBJECT
 62
     7
 10
30.470165
 20
23.617264
 30
0.0
 11
30.470165
 21
24.430264
 31
0.0
  0
ARC
  8
OBJECT
 62
     7
 10
30.563665
 20
23.180264
 30
0.0
 40
0.0935
 50
0.0
 51
180.0
  0
ARC
  8
OBJECT
 62
     7
 10
30.563665
 20
22.367264
 30
0.0
 40
0.0935
 50
180.0
 51
0.0
  0
LINE
  8
OBJECT
 62
     7
 10
30.657165
 20
23.180264
 30
0.0
 11
30.657165
 21
22.367264
 31
0.0
  0
LINE
  8
OBJECT
 62
     7
 10
30.470165
 20
22.367264
 30
0.0
 11
30.470165
 21
23.180264
 31
0.0
  0
ARC
  8
OBJECT
 62
     7
 10
30.563665
 20
21.930264
 30
0.0
 40
0.0935
 50
0.0
 51
180.0
  0
ARC
  8
OBJECT
 62
     7
 10
30.563665
 20
21.117264
 30
0.0
 40
0.0935
 50
180.0
 51
0.0
  0
LINE
  8
OBJECT
 62
     7
 10
30.657165
 20
21.930264
 30
0.0
 11
30.657165
 21
21.117264
 31
0.0
  0
LINE
  8
OBJECT
 62
     7
 10
30.470165
 20
21.117264
 30
0.0
 11
30.470165
 21
21.930264
 31
0.0
  0
ARC
  8
OBJECT
 62
     7
 10
30.563665
 20
20.680264
 30
0.0
 40
0.0935
 50
0.0
 51
180.0
  0
ARC
  8
OBJECT
 62
     7
 10
30.563665
 20
19.867264
 30
0.0
 40
0.0935
 50
180.0
 51
0.0
  0
LINE
  8
OBJECT
 62
     7
 10
30.657165
 20
20.680264
 30
0.0
 11
30.657165
 21
19.867264
 31
0.0
  0
LINE
  8
OBJECT
 62
     7
 10
30.470165
 20
19.867264
 30
0.0
 11
30.470165
 21
20.680264
 31
0.0
  0
LINE
  8
OBJECT
 62
     7
 10
30.470165
 20
18.617264
 30
0.0
 11
30.470165
 21
19.430264
 31
0.0
  0
LINE
  8
OBJECT
 62
     7
 10
30.657165
 20
19.430264
 30
0.0
 11
30.657165
 21
18.617264
 31
0.0
  0
ARC
  8
OBJECT
 62
     7
 10
30.563665
 20
18.617264
 30
0.0
 40
0.0935
 50
180.0
 51
0.0
  0
ARC
  8
OBJECT
 62
     7
 10
30.563665
 20
19.430264
 30
0.0
 40
0.0935
 50
0.0
 51
180.0
  0
ARC
  8
OBJECT
 62
     7
 10
31.063665
 20
24.430264
 30
0.0
 40
0.0935
 50
0.0
 51
180.0
  0
ARC
  8
OBJECT
 62
     7
 10
31.063665
 20
23.617264
 30
0.0
 40
0.0935
 50
180.0
 51
0.0
  0
LINE
  8
OBJECT
 62
     7
 10
31.157165
 20
24.430264
 30
0.0
 11
31.157165
 21
23.617264
 31
0.0
  0
LINE
  8
OBJECT
 62
     7
 10
30.970165
 20
23.617264
 30
0.0
 11
30.970165
 21
24.430264
 31
0.0
  0
ARC
  8
OBJECT
 62
     7
 10
31.063665
 20
23.180264
 30
0.0
 40
0.0935
 50
0.0
 51
180.0
  0
ARC
  8
OBJECT
 62
     7
 10
31.063665
 20
22.367264
 30
0.0
 40
0.0935
 50
180.0
 51
0.0
  0
LINE
  8
OBJECT
 62
     7
 10
31.157165
 20
23.180264
 30
0.0
 11
31.157165
 21
22.367264
 31
0.0
  0
LINE
  8
OBJECT
 62
     7
 10
30.970165
 20
22.367264
 30
0.0
 11
30.970165
 21
23.180264
 31
0.0
  0
ARC
  8
OBJECT
 62
     7
 10
31.063665
 20
21.930264
 30
0.0
 40
0.0935
 50
0.0
 51
180.0
  0
ARC
  8
OBJECT
 62
     7
 10
31.063665
 20
21.117264
 30
0.0
 40
0.0935
 50
180.0
 51
0.0
  0
LINE
  8
OBJECT
 62
     7
 10
31.157165
 20
21.930264
 30
0.0
 11
31.157165
 21
21.117264
 31
0.0
  0
LINE
  8
OBJECT
 62
     7
 10
30.970165
 20
21.117264
 30
0.0
 11
30.970165
 21
21.930264
 31
0.0
  0
ARC
  8
OBJECT
 62
     7
 10
31.063665
 20
20.680264
 30
0.0
 40
0.0935
 50
0.0
 51
180.0
  0
ARC
  8
OBJECT
 62
     7
 10
31.063665
 20
19.867264
 30
0.0
 40
0.0935
 50
180.0
 51
0.0
  0
LINE
  8
OBJECT
 62
     7
 10
31.157165
 20
20.680264
 30
0.0
 11
31.157165
 21
19.867264
 31
0.0
  0
LINE
  8
OBJECT
 62
     7
 10
30.970165
 20
19.867264
 30
0.0
 11
30.970165
 21
20.680264
 31
0.0
  0
LINE
  8
OBJECT
 62
     7
 10
30.970165
 20
18.617264
 30
0.0
 11
30.970165
 21
19.430264
 31
0.0
  0
LINE
  8
OBJECT
 62
     7
 10
31.157165
 20
19.430264
 30
0.0
 11
31.157165
 21
18.617264
 31
0.0
  0
ARC
  8
OBJECT
 62
     7
 10
31.063665
 20
18.617264
 30
0.0
 40
0.0935
 50
180.0
 51
0.0
  0
ARC
  8
OBJECT
 62
     7
 10
31.063665
 20
19.430264
 30
0.0
 40
0.0935
 50
0.0
 51
180.0
  0
ARC
  8
OBJECT
 62
     7
 10
31.563665
 20
24.430264
 30
0.0
 40
0.0935
 50
0.0
 51
180.0
  0
ARC
  8
OBJECT
 62
     7
 10
31.563665
 20
23.617264
 30
0.0
 40
0.0935
 50
180.0
 51
0.0
  0
LINE
  8
OBJECT
 62
     7
 10
31.657165
 20
24.430264
 30
0.0
 11
31.657165
 21
23.617264
 31
0.0
  0
LINE
  8
OBJECT
 62
     7
 10
31.470165
 20
23.617264
 30
0.0
 11
31.470165
 21
24.430264
 31
0.0
  0
ARC
  8
OBJECT
 62
     7
 10
31.563665
 20
23.180264
 30
0.0
 40
0.0935
 50
0.0
 51
180.0
  0
ARC
  8
OBJECT
 62
     7
 10
31.563665
 20
22.367264
 30
0.0
 40
0.0935
 50
180.0
 51
0.0
  0
LINE
  8
OBJECT
 62
     7
 10
31.657165
 20
23.180264
 30
0.0
 11
31.657165
 21
22.367264
 31
0.0
  0
LINE
  8
OBJECT
 62
     7
 10
31.470165
 20
22.367264
 30
0.0
 11
31.470165
 21
23.180264
 31
0.0
  0
ARC
  8
OBJECT
 62
     7
 10
31.563665
 20
21.930264
 30
0.0
 40
0.0935
 50
0.0
 51
180.0
  0
ARC
  8
OBJECT
 62
     7
 10
31.563665
 20
21.117264
 30
0.0
 40
0.0935
 50
180.0
 51
0.0
  0
LINE
  8
OBJECT
 62
     7
 10
31.657165
 20
21.930264
 30
0.0
 11
31.657165
 21
21.117264
 31
0.0
  0
LINE
  8
OBJECT
 62
     7
 10
31.470165
 20
21.117264
 30
0.0
 11
31.470165
 21
21.930264
 31
0.0
  0
ARC
  8
OBJECT
 62
     7
 10
31.563665
 20
20.680264
 30
0.0
 40
0.0935
 50
0.0
 51
180.0
  0
ARC
  8
OBJECT
 62
     7
 10
31.563665
 20
19.867264
 30
0.0
 40
0.0935
 50
180.0
 51
0.0
  0
LINE
  8
OBJECT
 62
     7
 10
31.657165
 20
20.680264
 30
0.0
 11
31.657165
 21
19.867264
 31
0.0
  0
LINE
  8
OBJECT
 62
     7
 10
31.470165
 20
19.867264
 30
0.0
 11
31.470165
 21
20.680264
 31
0.0
  0
LINE
  8
OBJECT
 62
     7
 10
31.470165
 20
18.617264
 30
0.0
 11
31.470165
 21
19.430264
 31
0.0
  0
LINE
  8
OBJECT
 62
     7
 10
31.657165
 20
19.430264
 30
0.0
 11
31.657165
 21
18.617264
 31
0.0
  0
ARC
  8
OBJECT
 62
     7
 10
31.563665
 20
18.617264
 30
0.0
 40
0.0935
 50
180.0
 51
0.0
  0
ARC
  8
OBJECT
 62
     7
 10
31.563665
 20
19.430264
 30
0.0
 40
0.0935
 50
0.0
 51
180.0
  0
ARC
  8
OBJECT
 62
     7
 10
32.063665
 20
24.430264
 30
0.0
 40
0.0935
 50
0.0
 51
180.0
  0
ARC
  8
OBJECT
 62
     7
 10
32.063665
 20
23.617264
 30
0.0
 40
0.0935
 50
180.0
 51
0.0
  0
LINE
  8
OBJECT
 62
     7
 10
32.157165
 20
24.430264
 30
0.0
 11
32.157165
 21
23.617264
 31
0.0
  0
LINE
  8
OBJECT
 62
     7
 10
31.970165
 20
23.617264
 30
0.0
 11
31.970165
 21
24.430264
 31
0.0
  0
ARC
  8
OBJECT
 62
     7
 10
32.063665
 20
23.180264
 30
0.0
 40
0.0935
 50
0.0
 51
180.0
  0
ARC
  8
OBJECT
 62
     7
 10
32.063665
 20
22.367264
 30
0.0
 40
0.0935
 50
180.0
 51
0.0
  0
LINE
  8
OBJECT
 62
     7
 10
32.157165
 20
23.180264
 30
0.0
 11
32.157165
 21
22.367264
 31
0.0
  0
LINE
  8
OBJECT
 62
     7
 10
31.970165
 20
22.367264
 30
0.0
 11
31.970165
 21
23.180264
 31
0.0
  0
ARC
  8
OBJECT
 62
     7
 10
32.063665
 20
21.930264
 30
0.0
 40
0.0935
 50
0.0
 51
180.0
  0
ARC
  8
OBJECT
 62
     7
 10
32.063665
 20
21.117264
 30
0.0
 40
0.0935
 50
180.0
 51
0.0
  0
LINE
  8
OBJECT
 62
     7
 10
32.157165
 20
21.930264
 30
0.0
 11
32.157165
 21
21.117264
 31
0.0
  0
LINE
  8
OBJECT
 62
     7
 10
31.970165
 20
21.117264
 30
0.0
 11
31.970165
 21
21.930264
 31
0.0
  0
ARC
  8
OBJECT
 62
     7
 10
32.063665
 20
20.680264
 30
0.0
 40
0.0935
 50
0.0
 51
180.0
  0
ARC
  8
OBJECT
 62
     7
 10
32.063665
 20
19.867264
 30
0.0
 40
0.0935
 50
180.0
 51
0.0
  0
LINE
  8
OBJECT
 62
     7
 10
32.157165
 20
20.680264
 30
0.0
 11
32.157165
 21
19.867264
 31
0.0
  0
LINE
  8
OBJECT
 62
     7
 10
31.970165
 20
19.867264
 30
0.0
 11
31.970165
 21
20.680264
 31
0.0
  0
LINE
  8
OBJECT
 62
     7
 10
31.970165
 20
18.617264
 30
0.0
 11
31.970165
 21
19.430264
 31
0.0
  0
LINE
  8
OBJECT
 62
     7
 10
32.157165
 20
19.430264
 30
0.0
 11
32.157165
 21
18.617264
 31
0.0
  0
ARC
  8
OBJECT
 62
     7
 10
32.063665
 20
18.617264
 30
0.0
 40
0.0935
 50
180.0
 51
0.0
  0
ARC
  8
OBJECT
 62
     7
 10
32.063665
 20
19.430264
 30
0.0
 40
0.0935
 50
0.0
 51
180.0
  0
ARC
  8
OBJECT
 62
     7
 10
32.563665
 20
24.430264
 30
0.0
 40
0.0935
 50
0.0
 51
180.0
  0
ARC
  8
OBJECT
 62
     7
 10
32.563665
 20
23.617264
 30
0.0
 40
0.0935
 50
180.0
 51
0.0
  0
LINE
  8
OBJECT
 62
     7
 10
32.657165
 20
24.430264
 30
0.0
 11
32.657165
 21
23.617264
 31
0.0
  0
LINE
  8
OBJECT
 62
     7
 10
32.470165
 20
23.617264
 30
0.0
 11
32.470165
 21
24.430264
 31
0.0
  0
ARC
  8
OBJECT
 62
     7
 10
32.563665
 20
23.180264
 30
0.0
 40
0.0935
 50
0.0
 51
180.0
  0
ARC
  8
OBJECT
 62
     7
 10
32.563665
 20
22.367264
 30
0.0
 40
0.0935
 50
180.0
 51
0.0
  0
LINE
  8
OBJECT
 62
     7
 10
32.657165
 20
23.180264
 30
0.0
 11
32.657165
 21
22.367264
 31
0.0
  0
LINE
  8
OBJECT
 62
     7
 10
32.470165
 20
22.367264
 30
0.0
 11
32.470165
 21
23.180264
 31
0.0
  0
ARC
  8
OBJECT
 62
     7
 10
32.563665
 20
21.930264
 30
0.0
 40
0.0935
 50
0.0
 51
180.0
  0
ARC
  8
OBJECT
 62
     7
 10
32.563665
 20
21.117264
 30
0.0
 40
0.0935
 50
180.0
 51
0.0
  0
LINE
  8
OBJECT
 62
     7
 10
32.657165
 20
21.930264
 30
0.0
 11
32.657165
 21
21.117264
 31
0.0
  0
LINE
  8
OBJECT
 62
     7
 10
32.470165
 20
21.117264
 30
0.0
 11
32.470165
 21
21.930264
 31
0.0
  0
ARC
  8
OBJECT
 62
     7
 10
32.563665
 20
20.680264
 30
0.0
 40
0.0935
 50
0.0
 51
180.0
  0
ARC
  8
OBJECT
 62
     7
 10
32.563665
 20
19.867264
 30
0.0
 40
0.0935
 50
180.0
 51
0.0
  0
LINE
  8
OBJECT
 62
     7
 10
32.657165
 20
20.680264
 30
0.0
 11
32.657165
 21
19.867264
 31
0.0
  0
LINE
  8
OBJECT
 62
     7
 10
32.470165
 20
19.867264
 30
0.0
 11
32.470165
 21
20.680264
 31
0.0
  0
LINE
  8
OBJECT
 62
     7
 10
32.470165
 20
18.617264
 30
0.0
 11
32.470165
 21
19.430264
 31
0.0
  0
LINE
  8
OBJECT
 62
     7
 10
32.657165
 20
19.430264
 30
0.0
 11
32.657165
 21
18.617264
 31
0.0
  0
ARC
  8
OBJECT
 62
     7
 10
32.563665
 20
18.617264
 30
0.0
 40
0.0935
 50
180.0
 51
0.0
  0
ARC
  8
OBJECT
 62
     7
 10
32.563665
 20
19.430264
 30
0.0
 40
0.0935
 50
0.0
 51
180.0
  0
TEXT
  8
TEXT
 62
     7
 10
0.977543
 20
28.921464
 30
0.0
 40
0.625
  1
%%UMATERIAL:%%U 0.050 THK. ALUMINUM
 41
0.75
  0
TEXT
  8
TEXT
 62
     7
 10
0.977543
 20
27.108723
 30
0.0
 40
0.625
  1
%%UFINISH:%%U NATURAL
 41
0.75
  0
TEXT
  8
TEXT
 62
     7
 10
1.617805
 20
52.188062
 30
0.0
 40
0.625
  1
%%UMATERIAL:
 41
0.75
  0
TEXT
  8
TEXT
 62
     7
 10
2.424448
 20
51.146396
 30
0.0
 40
0.625
  1
CHASSIS
 41
0.75
  0
TEXT
  8
TEXT
 62
     7
 10
2.424448
 20
50.104729
 30
0.0
 40
0.625
  1
PANEL
 41
0.75
  0
TEXT
  8
TEXT
 62
     7
 10
1.617805
 20
48.183187
 30
0.0
 40
0.625
  1
%%UFINISH:
 41
0.75
  0
TEXT
  8
TEXT
 62
     7
 10
2.424448
 20
47.14152
 30
0.0
 40
0.625
  1
ALL PARTS
 41
0.75
  0
LINE
  8
TITLE
 10
0.31
 20
8.643333
 30
0.0
 11
50.29
 21
8.643333
 31
0.0
  0
TEXT
  8
TEXT
 10
0.790453
 20
11.976667
 30
0.0
 40
0.625
  1
C-14430
 41
0.75
 72
     4
 11
2.235765
 21
12.289167
 31
0.0
  0
TEXT
  8
TEXT
 10
5.107438
 20
11.976667
 30
0.0
 40
0.625
  1
17.000
 41
0.75
 72
     4
 11
6.084
 21
12.289167
 31
0.0
  0
TEXT
  8
TEXT
 10
9.107688
 20
11.976667
 30
0.0
 40
0.625
  1
4.000
 41
0.75
 72
     4
 11
9.928
 21
12.289167
 31
0.0
  0
TEXT
  8
TEXT
 10
13.693875
 20
11.976667
 30
0.0
 40
0.625
  1
1
 41
0.75
 72
     4
 11
13.772
 21
12.289167
 31
0.0
  0
TEXT
  8
TEXT
 10
28.05425
 20
11.976667
 30
0.0
 40
0.625
  1
-----
 41
0.75
 72
     4
 11
29.148
 21
12.289167
 31
0.0
  0
TEXT
  8
TEXT
 10
20.600625
 20
11.976667
 30
0.0
 40
0.625
  1
1.375
 41
0.75
 72
     4
 11
21.46
 21
12.289167
 31
0.0
  0
TEXT
  8
TEXT
 10
16.795688
 20
11.976667
 30
0.0
 40
0.625
  1
1.250
 41
0.75
 72
     4
 11
17.616
 21
12.289167
 31
0.0
  0
TEXT
  8
TEXT
 10
24.444625
 20
11.976667
 30
0.0
 40
0.625
  1
7.500
 41
0.75
 72
     4
 11
25.304
 21
12.289167
 31
0.0
  0
TEXT
  8
TEXT
 10
36.445375
 20
11.976667
 30
0.0
 40
0.625
  1
29
 41
0.75
 72
     4
 11
36.836
 21
12.289167
 31
0.0
  0
TEXT
  8
TEXT
 10
32.640438
 20
11.976667
 30
0.0
 40
0.625
  1
60
 41
0.75
 72
     4
 11
32.992
 21
12.289167
 31
0.0
  0
TEXT
  8
TEXT
 10
39.664375
 20
11.976667
 30
0.0
 40
0.625
  1
14.500
 41
0.75
 72
     4
 11
40.68
 21
12.289167
 31
0.0
  0
LINE
  8
TITLE
 10
46.446
 20
14.3725
 30
0.0
 11
46.446
 21
0.31
 31
0.0
  0
LINE
  8
TITLE
 10
0.31
 20
7.080833
 30
0.0
 11
0.31
 21
0.31
 31
0.0
  0
LINE
  8
TITLE
 10
42.602
 20
14.3725
 30
0.0
 11
42.602
 21
0.31
 31
0.0
  0
LINE
  8
TITLE
 10
38.758
 20
14.3725
 30
0.0
 11
38.758
 21
0.31
 31
0.0
  0
LINE
  8
TITLE
 10
34.914
 20
14.3725
 30
0.0
 11
34.914
 21
0.31
 31
0.0
  0
LINE
  8
TITLE
 10
31.07
 20
14.3725
 30
0.0
 11
31.07
 21
0.31
 31
0.0
  0
LINE
  8
TITLE
 10
27.226
 20
14.3725
 30
0.0
 11
27.226
 21
0.31
 31
0.0
  0
LINE
  8
TITLE
 10
23.382
 20
14.3725
 30
0.0
 11
23.382
 21
0.31
 31
0.0
  0
LINE
  8
TITLE
 10
19.538
 20
14.3725
 30
0.0
 11
19.538
 21
0.31
 31
0.0
  0
LINE
  8
TITLE
 10
15.694
 20
14.3725
 30
0.0
 11
15.694
 21
0.31
 31
0.0
  0
LINE
  8
TITLE
 10
11.85
 20
14.3725
 30
0.0
 11
11.85
 21
0.31
 31
0.0
  0
LINE
  8
TITLE
 10
8.006
 20
14.3725
 30
0.0
 11
8.006
 21
0.31
 31
0.0
  0
LINE
  8
TITLE
 10
4.162
 20
14.3725
 30
0.0
 11
4.162
 21
0.31
 31
0.0
  0
LINE
  8
TITLE
 10
0.318
 20
7.080833
 30
0.0
 11
0.318
 21
0.31
 31
0.0
  0
TEXT
  8
TEXT
 10
43.703688
 20
11.976667
 30
0.0
 40
0.625
  1
2.000
 41
0.75
 72
     4
 11
44.524
 21
12.289167
 31
0.0
  0
TEXT
  8
TEXT
 10
44.367985
 20
13.27875
 30
0.0
 40
0.625
  1
L
 41
0.75
 72
     4
 11
44.524235
 21
13.59125
 31
0.0
  0
TEXT
  8
TEXT
 10
48.21175
 20
11.976667
 30
0.0
 40
0.625
  1
7
 41
0.75
 72
     4
 11
48.368
 21
12.289167
 31
0.0
  0
TEXT
  8
TEXT
 10
48.211985
 20
13.27875
 30
0.0
 40
0.625
  1
M
 41
0.75
 72
     4
 11
48.368235
 21
13.59125
 31
0.0
  0
DIMENSION
  8
DIM
 62
     7
  2
*D6
 10
12.236956
 20
18.523764
 30
0.0
 11
12.236956
 21
21.523764
 31
0.0
 12
6.409578
 22
4.084012
 32
0.0
  1
L
 13
17.188665
 23
24.523764
 33
0.0
 14
17.188665
 24
18.523764
 34
0.0
 50
90.0
  3
23NSTD
  0
DIMENSION
  8
DIM
 62
     7
  2
*D9
 10
39.692413
 20
19.023764
 30
0.0
 11
39.692413
 21
21.523764
 31
0.0
 12
6.409578
 22
4.084012
 32
0.0
  1
(C) SPACES @ 1.250 = (D)
 13
32.657165
 23
24.023764
 33
0.0
 14
32.657165
 24
19.023764
 34
0.0
 50
90.0
  3
23NSTD
  0
TEXT
  8
TEXT
 10
43.43025
 20
10.935
 30
0.0
 40
0.625
  1
-----
 41
0.75
 72
     4
 11
44.524
 21
11.2475
 31
0.0
  0
TEXT
  8
TEXT
 10
43.43025
 20
9.893333
 30
0.0
 40
0.625
  1
-----
 41
0.75
 72
     4
 11
44.524
 21
10.205833
 31
0.0
  0
TEXT
  8
TEXT
 10
43.43025
 20
8.851667
 30
0.0
 40
0.625
  1
-----
 41
0.75
 72
     4
 11
44.524
 21
9.164167
 31
0.0
  0
TEXT
  8
TEXT
 10
43.43025
 20
7.81
 30
0.0
 40
0.625
  1
-----
 41
0.75
 72
     4
 11
44.524
 21
8.1225
 31
0.0
  0
TEXT
  8
TEXT
 10
48.21175
 20
10.935
 30
0.0
 40
0.625
  1
9
 41
0.75
 72
     4
 11
48.368
 21
11.2475
 31
0.0
  0
TEXT
  8
TEXT
 10
48.21175
 20
9.893333
 30
0.0
 40
0.625
  1
9
 41
0.75
 72
     4
 11
48.368
 21
10.205833
 31
0.0
  0
TEXT
  8
TEXT
 10
48.21175
 20
8.851667
 30
0.0
 40
0.625
  1
9
 41
0.75
 72
     4
 11
48.368
 21
9.164167
 31
0.0
  0
TEXT
  8
TEXT
 10
48.21175
 20
7.81
 30
0.0
 40
0.625
  1
9
 41
0.75
 72
     4
 11
48.368
 21
8.1225
 31
0.0
  0
TEXT
  8
TEXT
 10
24.3665
 20
6.768333
 30
0.0
 40
0.625
  1
10.000
 41
0.75
 72
     4
 11
25.304
 21
7.080833
 31
0.0
  0
LINE
  8
TITLE
 10
0.31
 20
7.601667
 30
0.0
 11
50.29
 21
7.601667
 31
0.0
  0
TEXT
  8
TEXT
 10
9.107688
 20
6.768333
 30
0.0
 40
0.625
  1
4.000
 41
0.75
 72
     4
 11
9.928
 21
7.080833
 31
0.0
  0
TEXT
  8
TEXT
 10
0.75139
 20
6.768333
 30
0.0
 40
0.625
  1
C-14435
 41
0.75
 72
     4
 11
2.235765
 21
7.080833
 31
0.0
  0
TEXT
  8
TEXT
 10
5.029313
 20
6.768333
 30
0.0
 40
0.625
  1
22.000
 41
0.75
 72
     4
 11
6.084
 21
7.080833
 31
0.0
  0
TEXT
  8
TEXT
 10
16.795688
 20
6.768333
 30
0.0
 40
0.625
  1
1.250
 41
0.75
 72
     4
 11
17.616
 21
7.080833
 31
0.0
  0
TEXT
  8
TEXT
 10
13.693875
 20
6.768333
 30
0.0
 40
0.625
  1
1
 41
0.75
 72
     4
 11
13.772
 21
7.080833
 31
0.0
  0
TEXT
  8
TEXT
 10
20.600625
 20
6.768333
 30
0.0
 40
0.625
  1
1.375
 41
0.75
 72
     4
 11
21.46
 21
7.080833
 31
0.0
  0
TEXT
  8
TEXT
 10
39.664375
 20
6.768333
 30
0.0
 40
0.625
  1
19.500
 41
0.75
 72
     4
 11
40.68
 21
7.080833
 31
0.0
  0
TEXT
  8
TEXT
 10
32.640438
 20
6.768333
 30
0.0
 40
0.625
  1
80
 41
0.75
 72
     4
 11
32.992
 21
7.080833
 31
0.0
  0
TEXT
  8
TEXT
 10
28.05425
 20
6.768333
 30
0.0
 40
0.625
  1
-----
 41
0.75
 72
     4
 11
29.148
 21
7.080833
 31
0.0
  0
TEXT
  8
TEXT
 10
36.445375
 20
6.768333
 30
0.0
 40
0.625
  1
39
 41
0.75
 72
     4
 11
36.836
 21
7.080833
 31
0.0
  0
TEXT
  8
TEXT
 10
43.703688
 20
6.768333
 30
0.0
 40
0.625
  1
2.000
 41
0.75
 72
     4
 11
44.524
 21
7.080833
 31
0.0
  0
TEXT
  8
TEXT
 10
48.21175
 20
6.768333
 30
0.0
 40
0.625
  1
7
 41
0.75
 72
     4
 11
48.368
 21
7.080833
 31
0.0
  0
LINE
  8
TITLE
 10
0.31
 20
45.93803
 30
0.0
 11
50.29
 21
45.93803
 31
0.0
  0
TEXT
  8
TEXT
 62
     7
 10
9.542967
 20
47.14152
 30
0.0
 40
0.625
  1
NATURAL
 41
0.75
  0
TEXT
  8
TEXT
 62
     7
 10
9.542967
 20
50.104729
 30
0.0
 40
0.625
  1
0.120 THK. ALUMINUM
 41
0.75
  0
TEXT
  8
TEXT
 62
     7
 10
9.542967
 20
51.146396
 30
0.0
 40
0.625
  1
0.050 THK. ALUMINUM
 41
0.75
  0
LINE
  8
TEXT
 62
     7
 10
9.26324
 20
51.146396
 30
0.0
 11
5.68091
 21
51.146396
 31
0.0
  0
LINE
  8
TEXT
 62
     7
 10
9.26324
 20
50.104729
 30
0.0
 11
4.950514
 21
50.104729
 31
0.0
  0
LINE
  8
TEXT
 62
     7
 10
9.26324
 20
47.14152
 30
0.0
 11
6.768735
 21
47.14152
 31
0.0
  0
CIRCLE
  8
OBJECT
 62
     7
 10
6.355965
 20
72.15261
 30
0.0
 40
0.06
  0
CIRCLE
  8
OBJECT
 62
     7
 10
6.980965
 20
72.77761
 30
0.0
 40
0.06
  0
CIRCLE
  8
OBJECT
 62
     7
 10
6.355965
 20
69.15261
 30
0.0
 40
0.06
  0
CIRCLE
  8
OBJECT
 62
     7
 10
6.355965
 20
66.15261
 30
0.0
 40
0.06
  0
CIRCLE
  8
OBJECT
 62
     7
 10
14.480965
 20
72.77761
 30
0.0
 40
0.06
  0
CIRCLE
  8
OBJECT
 62
     7
 10
21.980965
 20
72.77761
 30
0.0
 40
0.06
  0
CIRCLE
  8
OBJECT
 62
     7
 10
22.605965
 20
72.15261
 30
0.0
 40
0.06
  0
CIRCLE
  8
OBJECT
 62
     7
 10
22.605965
 20
69.15261
 30
0.0
 40
0.06
  0
CIRCLE
  8
OBJECT
 62
     7
 10
22.605965
 20
66.15261
 30
0.0
 40
0.06
  0
LINE
  8
TITLE
 10
0.31
 20
39.167196
 30
0.0
 11
50.29
 21
39.167196
 31
0.0
  0
LINE
  8
TITLE
 10
0.31
 20
44.37553
 30
0.0
 11
50.29
 21
44.37553
 31
0.0
  0
TEXT
  8
TEXT
 62
     7
 10
1.659845
 20
43.542196
 30
0.0
 40
0.625
  1
CH-14400
 41
0.75
 72
     4
 11
3.30047
 21
43.854696
 31
0.0
  0
TEXT
  8
TEXT
 62
     7
 10
13.720157
 20
43.542196
 30
0.0
 40
0.625
  1
1.750
 41
0.75
 72
     4
 11
14.54047
 21
43.854696
 31
0.0
  0
TEXT
  8
TEXT
 62
     7
 10
8.063907
 20
43.542196
 30
0.0
 40
0.625
  1
19.000
 41
0.75
 72
     4
 11
9.04047
 21
43.854696
 31
0.0
  0
TEXT
  8
TEXT
 62
     7
 10
19.220157
 20
43.542196
 30
0.0
 40
0.625
  1
1.250
 41
0.75
 72
     4
 11
20.04047
 21
43.854696
 31
0.0
  0
TEXT
  8
TEXT
 62
     7
 10
30.063907
 20
43.542196
 30
0.0
 40
0.625
  1
17.000
 41
0.75
 72
     4
 11
31.04047
 21
43.854696
 31
0.0
  0
TEXT
  8
TEXT
 62
     7
 10
24.681095
 20
43.542196
 30
0.0
 40
0.625
  1
1.437
 41
0.75
 72
     4
 11
25.54047
 21
43.854696
 31
0.0
  0
TEXT
  8
TEXT
 62
     7
 10
35.720157
 20
43.542196
 30
0.0
 40
0.625
  1
4.000
 41
0.75
 72
     4
 11
36.54047
 21
43.854696
 31
0.0
  0
TEXT
  8
TEXT
 62
     7
 10
41.219688
 20
43.542196
 30
0.0
 40
0.625
  1
4.120
 41
0.75
 72
     4
 11
42.04
 21
43.854696
 31
0.0
  0
TEXT
  8
TEXT
 62
     7
 10
1.698907
 20
38.333863
 30
0.0
 40
0.625
  1
CH-14410
 41
0.75
 72
     4
 11
3.30047
 21
38.646363
 31
0.0
  0
TEXT
  8
TEXT
 62
     7
 10
13.720157
 20
38.333863
 30
0.0
 40
0.625
  1
1.750
 41
0.75
 72
     4
 11
14.54047
 21
38.646363
 31
0.0
  0
TEXT
  8
TEXT
 62
     7
 10
7.985782
 20
38.333863
 30
0.0
 40
0.625
  1
24.000
 41
0.75
 72
     4
 11
9.04047
 21
38.646363
 31
0.0
  0
TEXT
  8
TEXT
 62
     7
 10
19.220157
 20
38.333863
 30
0.0
 40
0.625
  1
1.250
 41
0.75
 72
     4
 11
20.04047
 21
38.646363
 31
0.0
  0
TEXT
  8
TEXT
 62
     7
 10
29.985782
 20
38.333863
 30
0.0
 40
0.625
  1
22.000
 41
0.75
 72
     4
 11
31.04047
 21
38.646363
 31
0.0
  0
TEXT
  8
TEXT
 62
     7
 10
24.681095
 20
38.333863
 30
0.0
 40
0.625
  1
1.437
 41
0.75
 72
     4
 11
25.54047
 21
38.646363
 31
0.0
  0
TEXT
  8
TEXT
 62
     7
 10
35.720157
 20
38.333863
 30
0.0
 40
0.625
  1
4.000
 41
0.75
 72
     4
 11
36.54047
 21
38.646363
 31
0.0
  0
TEXT
  8
TEXT
 62
     7
 10
41.219688
 20
38.333863
 30
0.0
 40
0.625
  1
4.120
 41
0.75
 72
     4
 11
42.04
 21
38.646363
 31
0.0
  0
TEXT
  8
TEXT
 62
     7
 10
31.153125
 20
32.256189
 30
0.0
 40
0.625
  1
C-14430 TO C-14435 & C-14440 TO C-14445
 41
0.75
 72
     4
 11
39.825
 21
32.568689
 31
0.0
  0
POLYLINE
  8
DIM
 62
     7
 66
     1
 10
0.0
 20
0.0
 30
0.0
 41
0.3375
  0
VERTEX
  8
DIM
 62
     7
 10
33.514274
 20
24.542925
 30
0.0
 41
0.3375
  0
VERTEX
  8
DIM
 62
     7
 10
34.306353
 20
24.970256
 30
0.0
 41
0.0
  0
VERTEX
  8
DIM
 62
     7
 10
36.303169
 20
26.047553
 30
0.0
 41
0.0
  0
VERTEX
  8
DIM
 62
     7
 10
37.203169
 20
26.047553
 30
0.0
 41
0.0
  0
SEQEND
  8
DIM
 62
     7
  0
POLYLINE
  8
DIM
 62
     7
 66
     1
 10
0.0
 20
0.0
 30
0.0
 41
0.3375
  0
VERTEX
  8
DIM
 62
     7
 10
18.152884
 20
24.458231
 30
0.0
  0
VERTEX
  8
DIM
 62
     7
 10
18.720942
 20
25.156307
 30
0.0
 41
0.0
  0
VERTEX
  8
DIM
 62
     7
 10
20.508663
 20
27.353207
 30
0.0
 41
0.0
  0
VERTEX
  8
DIM
 62
     7
 10
21.408663
 20
27.353207
 30
0.0
 41
0.0
  0
SEQEND
  8
DIM
 62
     7
  0
DIMENSION
  8
DIM
 62
     7
  2
*D35
 10
41.086598
 20
61.963904
 30
0.0
 11
37.086598
 21
61.963904
 31
0.0
  1
WHEN (F) IS <>
 13
33.086598
 23
60.837628
 33
0.0
 14
41.086598
 24
60.837628
 34
0.0
  3
23NSTDI
  0
DIMENSION
  8
DIM
 62
     7
  2
*D34
 10
37.086598
 20
68.583408
 30
0.0
 11
42.891285
 21
68.583408
 31
0.0
  1
WHEN (F) IS <>
 13
33.086598
 23
67.457132
 33
0.0
 14
37.086598
 24
67.457132
 34
0.0
  3
23NSTD
  0
LINE
  8
OBJECT
 62
     7
 10
33.086598
 20
66.020132
 30
0.0
 11
37.086598
 21
66.020132
 31
0.0
  0
LINE
  8
HIDDEN
 62
     7
 10
37.086598
 20
66.070132
 30
0.0
 11
33.086598
 21
66.070132
 31
0.0
  0
LINE
  8
OBJECT
 62
     7
 10
37.086598
 20
67.457132
 30
0.0
 11
33.086598
 21
67.457132
 31
0.0
  0
LINE
  8
HIDDEN
 62
     7
 10
37.086598
 20
67.407132
 30
0.0
 11
33.086598
 21
67.407132
 31
0.0
  0
LINE
  8
HIDDEN
 62
     7
 10
33.136598
 20
67.457132
 30
0.0
 11
33.136598
 21
66.020132
 31
0.0
  0
LINE
  8
OBJECT
 62
     7
 10
32.966598
 20
65.864132
 30
0.0
 11
32.966598
 21
67.614132
 31
0.0
  0
LINE
  8
OBJECT
 62
     7
 10
33.086598
 20
65.864132
 30
0.0
 11
33.086598
 21
67.614132
 31
0.0
  0
LINE
  8
HIDDEN
 62
     7
 10
33.086598
 20
66.270132
 30
0.0
 11
33.136598
 21
66.270132
 31
0.0
  0
LINE
  8
OBJECT
 62
     7
 10
32.966598
 20
65.864132
 30
0.0
 11
33.086598
 21
65.864132
 31
0.0
  0
LINE
  8
OBJECT
 62
     7
 10
33.086598
 20
67.614132
 30
0.0
 11
32.966598
 21
67.614132
 31
0.0
  0
LINE
  8
OBJECT
 62
     7
 10
37.086598
 20
66.020132
 30
0.0
 11
37.086598
 21
67.457132
 31
0.0
  0
LINE
  8
HIDDEN
 62
     7
 10
37.036598
 20
66.070132
 30
0.0
 11
37.036598
 21
67.407132
 31
0.0
  0
LINE
  8
HIDDEN
 62
     7
 10
36.336598
 20
67.407132
 30
0.0
 11
36.336598
 21
67.457132
 31
0.0
  0
DIMENSION
  8
DIM
 62
     7
  2
*D33
 10
49.086598
 20
54.070234
 30
0.0
 11
41.086598
 21
54.070234
 31
0.0
  1
WHEN (F) IS <>
 13
33.086598
 23
52.943958
 33
0.0
 14
49.086598
 24
52.943958
 34
0.0
  3
23NSTD
  0
LINE
  8
OBJECT
 62
     7
 10
33.086598
 20
51.506958
 30
0.0
 11
49.086598
 21
51.506958
 31
0.0
  0
LINE
  8
HIDDEN
 62
     7
 10
49.086598
 20
51.556958
 30
0.0
 11
33.086598
 21
51.556958
 31
0.0
  0
LINE
  8
OBJECT
 62
     7
 10
49.086598
 20
52.943958
 30
0.0
 11
33.086598
 21
52.943958
 31
0.0
  0
LINE
  8
HIDDEN
 62
     7
 10
49.086598
 20
52.893958
 30
0.0
 11
33.086598
 21
52.893958
 31
0.0
  0
LINE
  8
HIDDEN
 62
     7
 10
33.136598
 20
52.943958
 30
0.0
 11
33.136598
 21
51.506958
 31
0.0
  0
LINE
  8
OBJECT
 62
     7
 10
32.966598
 20
51.350958
 30
0.0
 11
32.966598
 21
53.100958
 31
0.0
  0
LINE
  8
OBJECT
 62
     7
 10
33.086598
 20
51.350958
 30
0.0
 11
33.086598
 21
53.100958
 31
0.0
  0
LINE
  8
HIDDEN
 62
     7
 10
33.086598
 20
51.756958
 30
0.0
 11
33.136598
 21
51.756958
 31
0.0
  0
LINE
  8
OBJECT
 62
     7
 10
32.966598
 20
51.350958
 30
0.0
 11
33.086598
 21
51.350958
 31
0.0
  0
LINE
  8
OBJECT
 62
     7
 10
33.086598
 20
53.100958
 30
0.0
 11
32.966598
 21
53.100958
 31
0.0
  0
LINE
  8
OBJECT
 62
     7
 10
49.086598
 20
51.506958
 30
0.0
 11
49.086598
 21
52.943958
 31
0.0
  0
LINE
  8
HIDDEN
 62
     7
 10
49.036598
 20
51.556958
 30
0.0
 11
49.036598
 21
52.893958
 31
0.0
  0
LINE
  8
HIDDEN
 62
     7
 10
48.336598
 20
52.893958
 30
0.0
 11
48.336598
 21
52.943958
 31
0.0
  0
LINE
  8
TITLE
 10
50.298
 20
7.080833
 30
0.0
 11
50.298
 21
0.31
 31
0.0
  0
LINE
  8
TITLE
 10
50.29
 20
7.080833
 30
0.0
 11
50.29
 21
0.31
 31
0.0
  0
LINE
  8
TITLE
 10
0.31
 20
2.393333
 30
0.0
 11
50.29
 21
2.393333
 31
0.0
  0
LINE
  8
TITLE
 10
0.31
 20
3.435
 30
0.0
 11
50.29
 21
3.435
 31
0.0
  0
LINE
  8
TITLE
 10
0.31
 20
4.476667
 30
0.0
 11
50.29
 21
4.476667
 31
0.0
  0
LINE
  8
TITLE
 10
0.31
 20
5.518333
 30
0.0
 11
50.29
 21
5.518333
 31
0.0
  0
LINE
  8
TITLE
 10
0.31
 20
6.56
 30
0.0
 11
50.29
 21
6.56
 31
0.0
  0
LINE
  8
TITLE
 10
0.31
 20
1.351667
 30
0.0
 11
50.29
 21
1.351667
 31
0.0
  0
TEXT
  8
TEXT
 10
24.3665
 20
1.56
 30
0.0
 40
0.625
  1
10.000
 41
0.75
 72
     4
 11
25.304
 21
1.8725
 31
0.0
  0
TEXT
  8
TEXT
 10
24.3665
 20
0.518333
 30
0.0
 40
0.625
  1
10.000
 41
0.75
 72
     4
 11
25.304
 21
0.830833
 31
0.0
  0
TEXT
  8
TEXT
 10
24.444625
 20
5.726667
 30
0.0
 40
0.625
  1
7.500
 41
0.75
 72
     4
 11
25.304
 21
6.039167
 31
0.0
  0
TEXT
  8
TEXT
 10
24.3665
 20
2.601667
 30
0.0
 40
0.625
  1
10.000
 41
0.75
 72
     4
 11
25.304
 21
2.914167
 31
0.0
  0
TEXT
  8
TEXT
 10
24.444625
 20
3.643333
 30
0.0
 40
0.625
  1
7.500
 41
0.75
 72
     4
 11
25.304
 21
3.955833
 31
0.0
  0
TEXT
  8
TEXT
 10
24.444625
 20
4.685
 30
0.0
 40
0.625
  1
7.500
 41
0.75
 72
     4
 11
25.304
 21
4.9975
 31
0.0
  0
TEXT
  8
TEXT
 10
8.951438
 20
1.56
 30
0.0
 40
0.625
  1
16.000
 41
0.75
 72
     4
 11
9.928
 21
1.8725
 31
0.0
  0
TEXT
  8
TEXT
 10
9.107688
 20
0.518333
 30
0.0
 40
0.625
  1
4.000
 41
0.75
 72
     4
 11
9.928
 21
0.830833
 31
0.0
  0
TEXT
  8
TEXT
 10
9.107688
 20
2.601667
 30
0.0
 40
0.625
  1
8.000
 41
0.75
 72
     4
 11
9.928
 21
2.914167
 31
0.0
  0
TEXT
  8
TEXT
 10
8.951438
 20
3.643333
 30
0.0
 40
0.625
  1
16.000
 41
0.75
 72
     4
 11
9.928
 21
3.955833
 31
0.0
  0
TEXT
  8
TEXT
 10
9.107688
 20
4.685
 30
0.0
 40
0.625
  1
8.000
 41
0.75
 72
     4
 11
9.928
 21
4.9975
 31
0.0
  0
TEXT
  8
TEXT
 10
9.107688
 20
5.726667
 30
0.0
 40
0.625
  1
4.000
 41
0.75
 72
     4
 11
9.928
 21
6.039167
 31
0.0
  0
TEXT
  8
TEXT
 10
0.790453
 20
5.726667
 30
0.0
 40
0.625
  1
C-14440
 41
0.75
 72
     4
 11
2.235765
 21
6.039167
 31
0.0
  0
TEXT
  8
TEXT
 10
0.75139
 20
1.56
 30
0.0
 40
0.625
  1
C-14444
 41
0.75
 72
     4
 11
2.235765
 21
1.8725
 31
0.0
  0
TEXT
  8
TEXT
 10
0.75139
 20
2.601667
 30
0.0
 40
0.625
  1
C-14443
 41
0.75
 72
     4
 11
2.235765
 21
2.914167
 31
0.0
  0
TEXT
  8
TEXT
 10
0.75139
 20
3.643333
 30
0.0
 40
0.625
  1
C-14442
 41
0.75
 72
     4
 11
2.235765
 21
3.955833
 31
0.0
  0
TEXT
  8
TEXT
 10
0.829515
 20
4.685
 30
0.0
 40
0.625
  1
C-14441
 41
0.75
 72
     4
 11
2.235765
 21
4.9975
 31
0.0
  0
TEXT
  8
TEXT
 10
0.75139
 20
0.518333
 30
0.0
 40
0.625
  1
C-14445
 41
0.75
 72
     4
 11
2.235765
 21
0.830833
 31
0.0
  0
TEXT
  8
TEXT
 10
5.029312
 20
2.601667
 30
0.0
 40
0.625
  1
22.000
 41
0.75
 72
     4
 11
6.084
 21
2.914167
 31
0.0
  0
TEXT
  8
TEXT
 10
5.107437
 20
5.726667
 30
0.0
 40
0.625
  1
17.000
 41
0.75
 72
     4
 11
6.084
 21
6.039167
 31
0.0
  0
TEXT
  8
TEXT
 10
5.107437
 20
3.643333
 30
0.0
 40
0.625
  1
17.000
 41
0.75
 72
     4
 11
6.084
 21
3.955833
 31
0.0
  0
TEXT
  8
TEXT
 10
5.107437
 20
4.685
 30
0.0
 40
0.625
  1
17.000
 41
0.75
 72
     4
 11
6.084
 21
4.9975
 31
0.0
  0
TEXT
  8
TEXT
 10
5.029312
 20
1.56
 30
0.0
 40
0.625
  1
22.000
 41
0.75
 72
     4
 11
6.084
 21
1.8725
 31
0.0
  0
TEXT
  8
TEXT
 10
5.029312
 20
0.518333
 30
0.0
 40
0.625
  1
22.000
 41
0.75
 72
     4
 11
6.084
 21
0.830833
 31
0.0
  0
TEXT
  8
TEXT
 10
39.58625
 20
5.726667
 30
0.0
 40
0.625
  1
-----
 41
0.75
 72
     4
 11
40.68
 21
6.039167
 31
0.0
  0
TEXT
  8
TEXT
 10
31.89825
 20
5.726667
 30
0.0
 40
0.625
  1
-----
 41
0.75
 72
     4
 11
32.992
 21
6.039167
 31
0.0
  0
TEXT
  8
TEXT
 10
28.327688
 20
2.601667
 30
0.0
 40
0.625
  1
3.000
 41
0.75
 72
     4
 11
29.148
 21
2.914167
 31
0.0
  0
TEXT
  8
TEXT
 10
28.327688
 20
3.643333
 30
0.0
 40
0.625
  1
7.000
 41
0.75
 72
     4
 11
29.148
 21
3.955833
 31
0.0
  0
TEXT
  8
TEXT
 10
28.327688
 20
4.685
 30
0.0
 40
0.625
  1
3.000
 41
0.75
 72
     4
 11
29.148
 21
4.9975
 31
0.0
  0
TEXT
  8
TEXT
 10
28.05425
 20
5.726667
 30
0.0
 40
0.625
  1
-----
 41
0.75
 72
     4
 11
29.148
 21
6.039167
 31
0.0
  0
TEXT
  8
TEXT
 10
28.327688
 20
1.56
 30
0.0
 40
0.625
  1
7.000
 41
0.75
 72
     4
 11
29.148
 21
1.8725
 31
0.0
  0
TEXT
  8
TEXT
 10
28.05425
 20
0.518333
 30
0.0
 40
0.625
  1
-----
 41
0.75
 72
     4
 11
29.148
 21
0.830833
 31
0.0
  0
TEXT
  8
TEXT
 10
35.74225
 20
5.726667
 30
0.0
 40
0.625
  1
-----
 41
0.75
 72
     4
 11
36.836
 21
6.039167
 31
0.0
  0
TEXT
  8
TEXT
 10
43.43025
 20
2.601667
 30
0.0
 40
0.625
  1
-----
 41
0.75
 72
     4
 11
44.524
 21
2.914167
 31
0.0
  0
TEXT
  8
TEXT
 10
43.43025
 20
4.685
 30
0.0
 40
0.625
  1
-----
 41
0.75
 72
     4
 11
44.524
 21
4.9975
 31
0.0
  0
TEXT
  8
TEXT
 10
43.43025
 20
3.643333
 30
0.0
 40
0.625
  1
-----
 41
0.75
 72
     4
 11
44.524
 21
3.955833
 31
0.0
  0
TEXT
  8
TEXT
 10
43.703688
 20
5.726667
 30
0.0
 40
0.625
  1
2.000
 41
0.75
 72
     4
 11
44.524
 21
6.039167
 31
0.0
  0
TEXT
  8
TEXT
 10
43.43025
 20
1.56
 30
0.0
 40
0.625
  1
-----
 41
0.75
 72
     4
 11
44.524
 21
1.8725
 31
0.0
  0
TEXT
  8
TEXT
 10
43.703688
 20
0.518333
 30
0.0
 40
0.625
  1
2.000
 41
0.75
 72
     4
 11
44.524
 21
0.830833
 31
0.0
  0
TEXT
  8
TEXT
 10
48.21175
 20
0.518333
 30
0.0
 40
0.625
  1
7
 41
0.75
 72
     4
 11
48.368
 21
0.830833
 31
0.0
  0
TEXT
  8
TEXT
 10
48.21175
 20
3.643333
 30
0.0
 40
0.625
  1
9
 41
0.75
 72
     4
 11
48.368
 21
3.955833
 31
0.0
  0
TEXT
  8
TEXT
 10
48.21175
 20
1.56
 30
0.0
 40
0.625
  1
9
 41
0.75
 72
     4
 11
48.368
 21
1.8725
 31
0.0
  0
TEXT
  8
TEXT
 10
48.21175
 20
2.601667
 30
0.0
 40
0.625
  1
9
 41
0.75
 72
     4
 11
48.368
 21
2.914167
 31
0.0
  0
TEXT
  8
TEXT
 10
48.21175
 20
4.685
 30
0.0
 40
0.625
  1
9
 41
0.75
 72
     4
 11
48.368
 21
4.9975
 31
0.0
  0
TEXT
  8
TEXT
 10
48.21175
 20
5.726667
 30
0.0
 40
0.625
  1
7
 41
0.75
 72
     4
 11
48.368
 21
6.039167
 31
0.0
  0
TEXT
  8
TEXT
 10
39.58625
 20
4.685
 30
0.0
 40
0.625
  1
-----
 41
0.75
 72
     4
 11
40.68
 21
4.9975
 31
0.0
  0
TEXT
  8
TEXT
 10
31.89825
 20
4.685
 30
0.0
 40
0.625
  1
-----
 41
0.75
 72
     4
 11
32.992
 21
4.9975
 31
0.0
  0
TEXT
  8
TEXT
 10
35.74225
 20
4.685
 30
0.0
 40
0.625
  1
-----
 41
0.75
 72
     4
 11
36.836
 21
4.9975
 31
0.0
  0
TEXT
  8
TEXT
 10
39.58625
 20
3.643333
 30
0.0
 40
0.625
  1
-----
 41
0.75
 72
     4
 11
40.68
 21
3.955833
 31
0.0
  0
TEXT
  8
TEXT
 10
31.89825
 20
3.643333
 30
0.0
 40
0.625
  1
-----
 41
0.75
 72
     4
 11
32.992
 21
3.955833
 31
0.0
  0
TEXT
  8
TEXT
 10
35.74225
 20
3.643333
 30
0.0
 40
0.625
  1
-----
 41
0.75
 72
     4
 11
36.836
 21
3.955833
 31
0.0
  0
TEXT
  8
TEXT
 10
39.58625
 20
2.601667
 30
0.0
 40
0.625
  1
-----
 41
0.75
 72
     4
 11
40.68
 21
2.914167
 31
0.0
  0
TEXT
  8
TEXT
 10
31.89825
 20
2.601667
 30
0.0
 40
0.625
  1
-----
 41
0.75
 72
     4
 11
32.992
 21
2.914167
 31
0.0
  0
TEXT
  8
TEXT
 10
35.74225
 20
2.601667
 30
0.0
 40
0.625
  1
-----
 41
0.75
 72
     4
 11
36.836
 21
2.914167
 31
0.0
  0
TEXT
  8
TEXT
 10
39.58625
 20
1.56
 30
0.0
 40
0.625
  1
-----
 41
0.75
 72
     4
 11
40.68
 21
1.8725
 31
0.0
  0
TEXT
  8
TEXT
 10
31.89825
 20
1.56
 30
0.0
 40
0.625
  1
-----
 41
0.75
 72
     4
 11
32.992
 21
1.8725
 31
0.0
  0
TEXT
  8
TEXT
 10
35.74225
 20
1.56
 30
0.0
 40
0.625
  1
-----
 41
0.75
 72
     4
 11
36.836
 21
1.8725
 31
0.0
  0
TEXT
  8
TEXT
 10
39.58625
 20
0.518333
 30
0.0
 40
0.625
  1
-----
 41
0.75
 72
     4
 11
40.68
 21
0.830833
 31
0.0
  0
TEXT
  8
TEXT
 10
31.89825
 20
0.518333
 30
0.0
 40
0.625
  1
-----
 41
0.75
 72
     4
 11
32.992
 21
0.830833
 31
0.0
  0
TEXT
  8
TEXT
 10
35.74225
 20
0.518333
 30
0.0
 40
0.625
  1
-----
 41
0.75
 72
     4
 11
36.836
 21
0.830833
 31
0.0
  0
LINE
  8
CENTER
 62
     7
 10
48.493098
 20
52.224958
 30
0.0
 11
43.680098
 21
52.224958
 31
0.0
  0
LINE
  8
CENTER
 62
     7
 10
40.493098
 20
60.118628
 30
0.0
 11
34.680098
 21
60.118628
 31
0.0
  0
LINE
  8
CENTER
 62
     7
 10
36.493098
 20
66.738132
 30
0.0
 11
34.680098
 21
66.738132
 31
0.0
  0
CIRCLE
  8
OBJECT
 62
     7
 10
34.586598
 20
66.738132
 30
0.0
 40
0.0935
  0
CIRCLE
  8
OBJECT
 62
     7
 10
36.586598
 20
66.738132
 30
0.0
 40
0.0935
  0
CIRCLE
  8
OBJECT
 62
     7
 10
34.586598
 20
52.224958
 30
0.0
 40
0.0935
  0
CIRCLE
  8
OBJECT
 62
     7
 10
38.586598
 20
52.224958
 30
0.0
 40
0.0935
  0
CIRCLE
  8
OBJECT
 62
     7
 10
43.586598
 20
52.224958
 30
0.0
 40
0.0935
  0
CIRCLE
  8
OBJECT
 62
     7
 10
48.586598
 20
52.224958
 30
0.0
 40
0.0935
  0
LINE
  8
CENTER
 62
     7
 10
38.493098
 20
52.224958
 30
0.0
 11
34.680098
 21
52.224958
 31
0.0
  0
LINE
  8
CENTER
 62
     7
 10
43.493098
 20
52.224958
 30
0.0
 11
38.680098
 21
52.224958
 31
0.0
  0
CIRCLE
  8
OBJECT
 62
     7
 10
34.586598
 20
60.118628
 30
0.0
 40
0.0935
  0
CIRCLE
  8
OBJECT
 62
     7
 10
38.586598
 20
60.118628
 30
0.0
 40
0.0935
  0
CIRCLE
  8
OBJECT
 62
     7
 10
40.586598
 20
60.118628
 30
0.0
 40
0.0935
  0
DIMENSION
  8
DIM
 62
     7
  2
*D25
 10
33.086598
 20
65.152416
 30
0.0
 11
30.055348
 21
65.152416
 31
0.0
 12
0.0
 22
3.101907
 32
0.0
 13
34.586598
 23
66.738132
 33
0.0
 14
33.086598
 24
65.864132
 34
0.0
  3
23NSTD
  0
DIMENSION
  8
DIM
 62
     7
  2
*D28
 10
36.586598
 20
63.902416
 30
0.0
 11
35.586598
 21
63.902416
 31
0.0
 12
0.0
 22
1.543805
 32
0.0
 13
34.586598
 23
66.738132
 33
0.0
 14
36.586598
 24
66.738132
 34
0.0
  3
23NSTDI
  0
DIMENSION
  8
DIM
 62
     7
  2
*D26
 10
38.586598
 20
57.282913
 30
0.0
 11
36.586598
 21
57.282913
 31
0.0
 12
0.0
 22
0.771902
 32
0.0
 13
34.586598
 23
60.118628
 33
0.0
 14
38.586598
 24
60.118628
 34
0.0
  3
23NSTDI
  0
DIMENSION
  8
DIM
 62
     7
  2
*D25
 10
33.086598
 20
58.532913
 30
0.0
 11
30.055348
 21
58.532913
 31
0.0
 12
0.0
 22
-3.517597
 32
0.0
 13
34.586598
 23
60.118628
 33
0.0
 14
33.086598
 24
59.244628
 34
0.0
  3
23NSTD
  0
DIMENSION
  8
DIM
 62
     7
  2
*D27
 10
40.586598
 20
56.032913
 30
0.0
 11
37.586598
 21
56.032913
 31
0.0
 12
0.0
 22
0.771902
 32
0.0
 13
34.586598
 23
60.118628
 33
0.0
 14
40.586598
 24
60.118628
 34
0.0
  3
23NSTDI
  0
DIMENSION
  8
DIM
 62
     7
  2
*D26
 10
38.586598
 20
49.389243
 30
0.0
 11
36.586598
 21
49.389243
 31
0.0
 12
0.0
 22
-7.121768
 32
0.0
 13
34.586598
 23
52.224958
 33
0.0
 14
38.586598
 24
52.224958
 34
0.0
  3
23NSTDI
  0
DIMENSION
  8
DIM
 62
     7
  2
*D25
 10
33.086598
 20
50.639243
 30
0.0
 11
30.055348
 21
50.639243
 31
0.0
 12
0.0
 22
-11.411267
 32
0.0
 13
34.586598
 23
52.224958
 33
0.0
 14
33.086598
 24
51.350958
 34
0.0
  3
23NSTD
  0
DIMENSION
  8
DIM
 62
     7
  2
*D29
 10
43.586598
 20
48.139243
 30
0.0
 11
39.086598
 21
48.139243
 31
0.0
 13
34.586598
 23
52.224958
 33
0.0
 14
43.586598
 24
52.224958
 34
0.0
  3
23NSTDI
  0
DIMENSION
  8
DIM
 62
     7
  2
*D30
 10
48.586598
 20
46.889243
 30
0.0
 11
41.586598
 21
46.889243
 31
0.0
 13
34.586598
 23
52.224958
 33
0.0
 14
48.586598
 24
52.224958
 34
0.0
  3
23NSTD
  0
DIMENSION
  8
DIM
 62
     7
  2
*D31
 10
26.588483
 20
60.744628
 30
0.0
 11
26.588483
 21
60.119628
 31
0.0
 12
-1.030559
 22
0.771902
 32
0.0
  1
C
 13
23.716965
 23
59.494628
 33
0.0
 14
23.716965
 24
60.744628
 34
0.0
 50
270.0
  3
23NSTDI
  0
DIMENSION
  8
DIM
 62
     7
  2
*D36
 10
43.590493
 20
60.837628
 30
0.0
 11
45.096743
 21
62.637628
 31
0.0
  1
H
 13
40.586598
 23
60.118628
 33
0.0
 14
41.086598
 24
60.837628
 34
0.0
 50
90.0
  3
23NSTD
  0
POLYLINE
  8
DIM
 62
     7
 66
     1
 10
0.0
 20
0.0
 30
0.0
 41
0.3375
  0
VERTEX
  8
DIM
 62
     7
 10
40.647695
 20
60.047851
 30
0.0
  0
VERTEX
  8
DIM
 62
     7
 10
41.02734
 20
59.231842
 30
0.0
 41
0.0
  0
VERTEX
  8
DIM
 62
     7
 10
42.269264
 20
56.562452
 30
0.0
 41
0.0
  0
VERTEX
  8
DIM
 62
     7
 10
43.169264
 20
56.562452
 30
0.0
 41
0.0
  0
SEQEND
  8
DIM
 62
     7
  0
TEXT
  8
DIM
 62
     7
 10
43.619264
 20
56.249952
 30
0.0
 40
0.625
  1
0.187 DIA.
 41
0.75
 11
43.619264
 21
56.562452
 31
0.0
 73
     2
  0
TEXT
  8
DIM
 62
     7
 10
43.619264
 20
55.208285
 30
0.0
 40
0.625
  1
(6) HOLES
 41
0.75
 11
43.619264
 21
55.520785
 31
0.0
 73
     2
  0
POLYLINE
  8
DIM
 62
     7
 66
     1
 10
0.0
 20
0.0
 30
0.0
 41
0.3375
  0
VERTEX
  8
DIM
 62
     7
 10
36.661024
 20
66.681537
 30
0.0
 41
0.3375
  0
VERTEX
  8
DIM
 62
     7
 10
37.384278
 20
66.145902
 30
0.0
 41
0.0
  0
VERTEX
  8
DIM
 62
     7
 10
38.84639
 20
65.063077
 30
0.0
 41
0.0
  0
VERTEX
  8
DIM
 62
     7
 10
39.74639
 20
65.063077
 30
0.0
 41
0.0
  0
SEQEND
  8
DIM
 62
     7
  0
TEXT
  8
DIM
 62
     7
 10
40.19639
 20
64.750577
 30
0.0
 40
0.625
  1
0.187 DIA.
 41
0.75
 11
40.19639
 21
65.063077
 31
0.0
 73
     2
  0
TEXT
  8
DIM
 62
     7
 10
40.19639
 20
63.708911
 30
0.0
 40
0.625
  1
(4) HOLES
 41
0.75
 11
40.19639
 21
64.021411
 31
0.0
 73
     2
  0
POLYLINE
  8
DIM
 62
     7
 66
     1
 10
0.0
 20
0.0
 30
0.0
 41
0.3375
  0
VERTEX
  8
DIM
 62
     7
 10
34.502276
 20
52.265357
 30
0.0
  0
VERTEX
  8
DIM
 62
     7
 10
33.643881
 20
52.535834
 30
0.0
 41
0.0
  0
VERTEX
  8
DIM
 62
     7
 10
31.16759
 20
53.316106
 30
0.0
 41
0.0
  0
VERTEX
  8
DIM
 62
     7
 10
30.26759
 20
53.316106
 30
0.0
 41
0.0
  0
SEQEND
  8
DIM
 62
     7
  0
TEXT
  8
DIM
 62
     7
 10
26.301965
 20
53.003606
 30
0.0
 40
0.625
  1
0.187 DIA.
 41
0.75
 72
     2
 11
29.81759
 21
53.316106
 31
0.0
 73
     2
  0
TEXT
  8
DIM
 62
     7
 10
25.59884
 20
51.961939
 30
0.0
 40
0.625
  1
(8) PLACES
 41
0.75
 72
     2
 11
29.81759
 21
52.274439
 31
0.0
 73
     2
  0
POLYLINE
  8
DIM
 62
     7
 66
     1
 10
0.0
 20
0.0
 30
0.0
 41
0.3375
  0
VERTEX
  8
DIM
 62
     7
 10
6.414104
 20
59.56763
 30
0.0
  0
VERTEX
  8
DIM
 62
     7
 10
7.002694
 20
58.886776
 30
0.0
 41
0.0
  0
VERTEX
  8
DIM
 62
     7
 10
8.182792
 20
57.521692
 30
0.0
 41
0.0
  0
VERTEX
  8
DIM
 62
     7
 10
9.082792
 20
57.521692
 30
0.0
 41
0.0
  0
SEQEND
  8
DIM
 62
     7
  0
POLYLINE
  8
DIM
 62
     7
 66
     1
 10
0.0
 20
0.0
 30
0.0
 41
0.3375
  0
VERTEX
  8
DIM
 62
     7
 10
5.405141
 20
59.359404
 30
0.0
  0
VERTEX
  8
DIM
 62
     7
 10
5.974098
 20
58.66206
 30
0.0
 41
0.0
  0
VERTEX
  8
DIM
 62
     7
 10
8.791062
 20
55.209439
 30
0.0
 41
0.0
  0
VERTEX
  8
DIM
 62
     7
 10
9.691062
 20
55.209439
 30
0.0
 41
0.0
  0
SEQEND
  8
DIM
 62
     7
  0
LINE
  8
TITLE
 62
     7
 10
39.29
 20
45.93803
 30
0.0
 11
39.29
 21
34.005291
 31
0.0
  0
LINE
  8
TITLE
 62
     7
 10
33.79
 20
45.93803
 30
0.0
 11
33.79
 21
34.005291
 31
0.0
  0
LINE
  8
TITLE
 62
     7
 10
28.29
 20
45.93803
 30
0.0
 11
28.29
 21
34.005291
 31
0.0
  0
LINE
  8
TITLE
 62
     7
 10
22.79
 20
45.93803
 30
0.0
 11
22.79
 21
34.005291
 31
0.0
  0
LINE
  8
TITLE
 62
     7
 10
17.29
 20
45.93803
 30
0.0
 11
17.29
 21
34.005291
 31
0.0
  0
LINE
  8
TITLE
 62
     7
 10
11.79
 20
45.93803
 30
0.0
 11
11.79
 21
34.005291
 31
0.0
  0
LINE
  8
TITLE
 62
     7
 10
6.29
 20
45.93803
 30
0.0
 11
6.29
 21
34.005291
 31
0.0
  0
TEXT
  8
TEXT
 62
     7
 10
46.720157
 20
43.542196
 30
0.0
 40
0.625
  1
0.719
 41
0.75
 72
     4
 11
47.54047
 21
43.854696
 31
0.0
  0
TEXT
  8
TEXT
 62
     7
 10
46.681095
 20
40.417196
 30
0.0
 40
0.625
  1
1.594
 41
0.75
 72
     4
 11
47.54047
 21
40.729696
 31
0.0
  0
TEXT
  8
TEXT
 62
     7
 10
47.38375
 20
44.84428
 30
0.0
 40
0.625
  1
H
 41
0.75
 72
     4
 11
47.54
 21
45.15678
 31
0.0
  0
TEXT
  8
TEXT
 62
     7
 10
46.681095
 20
39.37553
 30
0.0
 40
0.625
  1
1.594
 41
0.75
 72
     4
 11
47.54047
 21
39.68803
 31
0.0
  0
TEXT
  8
TEXT
 62
     7
 10
46.720157
 20
42.50053
 30
0.0
 40
0.625
  1
0.719
 41
0.75
 72
     4
 11
47.54047
 21
42.81303
 31
0.0
  0
TEXT
  8
TEXT
 62
     7
 10
46.720157
 20
41.458863
 30
0.0
 40
0.625
  1
0.719
 41
0.75
 72
     4
 11
47.54047
 21
41.771363
 31
0.0
  0
TEXT
  8
TEXT
 62
     7
 10
46.720157
 20
38.333863
 30
0.0
 40
0.625
  1
0.719
 41
0.75
 72
     4
 11
47.54047
 21
38.646363
 31
0.0
  0
TEXT
  8
TEXT
 62
     7
 10
46.720157
 20
37.292196
 30
0.0
 40
0.625
  1
0.719
 41
0.75
 72
     4
 11
47.54047
 21
37.604696
 31
0.0
  0
TEXT
  8
TEXT
 62
     7
 10
46.720157
 20
36.25053
 30
0.0
 40
0.625
  1
0.719
 41
0.75
 72
     4
 11
47.54047
 21
36.56303
 31
0.0
  0
TEXT
  8
TEXT
 62
     7
 10
46.681095
 20
34.167196
 30
0.0
 40
0.625
  1
1.594
 41
0.75
 72
     4
 11
47.54047
 21
34.479696
 31
0.0
  0
TEXT
  8
TEXT
 62
     7
 10
46.681095
 20
35.208863
 30
0.0
 40
0.625
  1
1.594
 41
0.75
 72
     4
 11
47.54047
 21
35.521363
 31
0.0
  0
TEXT
  8
TEXT
 10
20.36625
 20
0.518333
 30
0.0
 40
0.625
  1
-----
 41
0.75
 72
     4
 11
21.46
 21
0.830833
 31
0.0
  0
TEXT
  8
TEXT
 10
20.36625
 20
1.56
 30
0.0
 40
0.625
  1
-----
 41
0.75
 72
     4
 11
21.46
 21
1.8725
 31
0.0
  0
TEXT
  8
TEXT
 10
20.36625
 20
2.601667
 30
0.0
 40
0.625
  1
-----
 41
0.75
 72
     4
 11
21.46
 21
2.914167
 31
0.0
  0
TEXT
  8
TEXT
 10
20.36625
 20
3.643333
 30
0.0
 40
0.625
  1
-----
 41
0.75
 72
     4
 11
21.46
 21
3.955833
 31
0.0
  0
TEXT
  8
TEXT
 10
20.36625
 20
4.685
 30
0.0
 40
0.625
  1
-----
 41
0.75
 72
     4
 11
21.46
 21
4.9975
 31
0.0
  0
TEXT
  8
TEXT
 10
20.36625
 20
5.726667
 30
0.0
 40
0.625
  1
-----
 41
0.75
 72
     4
 11
21.46
 21
6.039167
 31
0.0
  0
TEXT
  8
TEXT
 10
12.67825
 20
0.518333
 30
0.0
 40
0.625
  1
-----
 41
0.75
 72
     4
 11
13.772
 21
0.830833
 31
0.0
  0
TEXT
  8
TEXT
 10
12.67825
 20
1.56
 30
0.0
 40
0.625
  1
-----
 41
0.75
 72
     4
 11
13.772
 21
1.8725
 31
0.0
  0
TEXT
  8
TEXT
 10
12.67825
 20
2.601667
 30
0.0
 40
0.625
  1
-----
 41
0.75
 72
     4
 11
13.772
 21
2.914167
 31
0.0
  0
TEXT
  8
TEXT
 10
12.67825
 20
3.643333
 30
0.0
 40
0.625
  1
-----
 41
0.75
 72
     4
 11
13.772
 21
3.955833
 31
0.0
  0
TEXT
  8
TEXT
 10
12.67825
 20
4.685
 30
0.0
 40
0.625
  1
-----
 41
0.75
 72
     4
 11
13.772
 21
4.9975
 31
0.0
  0
TEXT
  8
TEXT
 10
12.67825
 20
5.726667
 30
0.0
 40
0.625
  1
-----
 41
0.75
 72
     4
 11
13.772
 21
6.039167
 31
0.0
  0
TEXT
  8
TEXT
 10
16.52225
 20
0.518333
 30
0.0
 40
0.625
  1
-----
 41
0.75
 72
     4
 11
17.616
 21
0.830833
 31
0.0
  0
TEXT
  8
TEXT
 10
16.52225
 20
1.56
 30
0.0
 40
0.625
  1
-----
 41
0.75
 72
     4
 11
17.616
 21
1.8725
 31
0.0
  0
TEXT
  8
TEXT
 10
16.52225
 20
2.601667
 30
0.0
 40
0.625
  1
-----
 41
0.75
 72
     4
 11
17.616
 21
2.914167
 31
0.0
  0
TEXT
  8
TEXT
 10
16.52225
 20
3.643333
 30
0.0
 40
0.625
  1
-----
 41
0.75
 72
     4
 11
17.616
 21
3.955833
 31
0.0
  0
TEXT
  8
TEXT
 10
16.52225
 20
4.685
 30
0.0
 40
0.625
  1
-----
 41
0.75
 72
     4
 11
17.616
 21
4.9975
 31
0.0
  0
TEXT
  8
TEXT
 10
16.52225
 20
5.726667
 30
0.0
 40
0.625
  1
-----
 41
0.75
 72
     4
 11
17.616
 21
6.039167
 31
0.0
  0
ENDSEC
  0
EOF
