  0
SECTION
  2
HEADER
  9
$ACADVER
  1
AC1015
  9
$ACADMAINTVER
 70
     6
  9
$DWGCODEPAGE
  3
ANSI_1252
  9
$INSBASE
 10
0.0
 20
0.0
 30
0.0
  9
$EXTMIN
 10
-0.0007094795591058
 20
-0.0004632214927831
 30
-0.0000066752109056
  9
$EXTMAX
 10
23.25070958782537
 20
15.18046329218017
 30
0.1250057224824626
  9
$LIMMIN
 10
0.0
 20
0.0
  9
$LIMMAX
 10
23.25
 20
15.17999999999999
  9
$ORTHOMODE
 70
     1
  9
$REGENMODE
 70
     1
  9
$FILLMODE
 70
     1
  9
$QTEXTMODE
 70
     0
  9
$MIRRTEXT
 70
     0
  9
$LTSCALE
 40
0.375
  9
$ATTMODE
 70
     1
  9
$TEXTSIZE
 40
0.188
  9
$TRACEWID
 40
0.05
  9
$TEXTSTYLE
  7
TXT
  9
$CLAYER
  8
DIM
  9
$CELTYPE
  6
ByLayer
  9
$CECOLOR
 62
   256
  9
$CELTSCALE
 40
1.0
  9
$DISPSILH
 70
     0
  9
$DIMSCALE
 40
1.5
  9
$DIMASZ
 40
0.18
  9
$DIMEXO
 40
0.063
  9
$DIMDLI
 40
0.281
  9
$DIMRND
 40
0.0
  9
$DIMDLE
 40
0.0
  9
$DIMEXE
 40
0.093
  9
$DIMTP
 40
0.0
  9
$DIMTM
 40
0.0
  9
$DIMTXT
 40
0.125
  9
$DIMCEN
 40
0.09
  9
$DIMTSZ
 40
0.0
  9
$DIMTOL
 70
     0
  9
$DIMLIM
 70
     0
  9
$DIMTIH
 70
     1
  9
$DIMTOH
 70
     1
  9
$DIMSE1
 70
     0
  9
$DIMSE2
 70
     0
  9
$DIMTAD
 70
     0
  9
$DIMZIN
 70
     0
  9
$DIMBLK
  1

  9
$DIMASO
 70
     1
  9
$DIMSHO
 70
     1
  9
$DIMPOST
  1

  9
$DIMAPOST
  1

  9
$DIMALT
 70
     0
  9
$DIMALTD
 70
     2
  9
$DIMALTF
 40
25.4
  9
$DIMLFAC
 40
1.0
  9
$DIMTOFL
 70
     0
  9
$DIMTVP
 40
0.0
  9
$DIMTIX
 70
     0
  9
$DIMSOXD
 70
     0
  9
$DIMSAH
 70
     0
  9
$DIMBLK1
  1

  9
$DIMBLK2
  1

  9
$DIMSTYLE
  2
23NSTD
  9
$DIMCLRD
 70
     0
  9
$DIMCLRE
 70
     0
  9
$DIMCLRT
 70
     0
  9
$DIMTFAC
 40
1.0
  9
$DIMGAP
 40
0.09
  9
$DIMJUST
 70
     0
  9
$DIMSD1
 70
     0
  9
$DIMSD2
 70
     0
  9
$DIMTOLJ
 70
     1
  9
$DIMTZIN
 70
     0
  9
$DIMALTZ
 70
     0
  9
$DIMALTTZ
 70
     0
  9
$DIMUPT
 70
     0
  9
$DIMDEC
 70
     4
  9
$DIMTDEC
 70
     4
  9
$DIMALTU
 70
     2
  9
$DIMALTTD
 70
     2
  9
$DIMTXSTY
  7
Standard
  9
$DIMAUNIT
 70
     0
  9
$DIMADEC
 70
     0
  9
$DIMALTRND
 40
0.0
  9
$DIMAZIN
 70
     0
  9
$DIMDSEP
 70
    46
  9
$DIMATFIT
 70
     3
  9
$DIMFRAC
 70
     0
  9
$DIMLDRBLK
  1

  9
$DIMLUNIT
 70
     2
  9
$DIMLWD
 70
    -2
  9
$DIMLWE
 70
    -2
  9
$DIMTMOVE
 70
     0
  9
$LUNITS
 70
     2
  9
$LUPREC
 70
     3
  9
$SKETCHINC
 40
0.1
  9
$FILLETRAD
 40
0.02
  9
$AUNITS
 70
     1
  9
$AUPREC
 70
     1
  9
$MENU
  1
acad
  9
$ELEVATION
 40
0.0
  9
$PELEVATION
 40
0.0
  9
$THICKNESS
 40
0.0
  9
$LIMCHECK
 70
     0
  9
$CHAMFERA
 40
0.0
  9
$CHAMFERB
 40
0.0
  9
$CHAMFERC
 40
0.0
  9
$CHAMFERD
 40
0.0
  9
$SKPOLY
 70
     0
  9
$TDCREATE
 40
2450757.358536921
  9
$TDUCREATE
 40
2450757.525203588
  9
$TDUPDATE
 40
2455015.406886932
  9
$TDUUPDATE
 40
2455015.573553599
  9
$TDINDWG
 40
0.3513626620
  9
$TDUSRTIMER
 40
0.3513626620
  9
$USRTIMER
 70
     1
  9
$ANGBASE
 50
0.0
  9
$ANGDIR
 70
     0
  9
$PDMODE
 70
     0
  9
$PDSIZE
 40
0.0
  9
$PLINEWID
 40
0.0
  9
$SPLFRAME
 70
     0
  9
$SPLINETYPE
 70
     6
  9
$SPLINESEGS
 70
     8
  9
$HANDSEED
  5
636
  9
$SURFTAB1
 70
     6
  9
$SURFTAB2
 70
     6
  9
$SURFTYPE
 70
     6
  9
$SURFU
 70
     6
  9
$SURFV
 70
     6
  9
$UCSBASE
  2

  9
$UCSNAME
  2

  9
$UCSORG
 10
0.0
 20
0.0
 30
0.0
  9
$UCSXDIR
 10
1.0
 20
0.0
 30
0.0
  9
$UCSYDIR
 10
0.0
 20
1.0
 30
0.0
  9
$UCSORTHOREF
  2

  9
$UCSORTHOVIEW
 70
     0
  9
$UCSORGTOP
 10
0.0
 20
0.0
 30
0.0
  9
$UCSORGBOTTOM
 10
0.0
 20
0.0
 30
0.0
  9
$UCSORGLEFT
 10
0.0
 20
0.0
 30
0.0
  9
$UCSORGRIGHT
 10
0.0
 20
0.0
 30
0.0
  9
$UCSORGFRONT
 10
0.0
 20
0.0
 30
0.0
  9
$UCSORGBACK
 10
0.0
 20
0.0
 30
0.0
  9
$PUCSBASE
  2

  9
$PUCSNAME
  2

  9
$PUCSORG
 10
0.0
 20
0.0
 30
0.0
  9
$PUCSXDIR
 10
1.0
 20
0.0
 30
0.0
  9
$PUCSYDIR
 10
0.0
 20
1.0
 30
0.0
  9
$PUCSORTHOREF
  2

  9
$PUCSORTHOVIEW
 70
     0
  9
$PUCSORGTOP
 10
0.0
 20
0.0
 30
0.0
  9
$PUCSORGBOTTOM
 10
0.0
 20
0.0
 30
0.0
  9
$PUCSORGLEFT
 10
0.0
 20
0.0
 30
0.0
  9
$PUCSORGRIGHT
 10
0.0
 20
0.0
 30
0.0
  9
$PUCSORGFRONT
 10
0.0
 20
0.0
 30
0.0
  9
$PUCSORGBACK
 10
0.0
 20
0.0
 30
0.0
  9
$USERI1
 70
     0
  9
$USERI2
 70
     0
  9
$USERI3
 70
     0
  9
$USERI4
 70
     0
  9
$USERI5
 70
     0
  9
$USERR1
 40
0.0
  9
$USERR2
 40
0.0
  9
$USERR3
 40
0.0
  9
$USERR4
 40
0.0
  9
$USERR5
 40
0.0
  9
$WORLDVIEW
 70
     1
  9
$SHADEDGE
 70
     3
  9
$SHADEDIF
 70
    70
  9
$TILEMODE
 70
     1
  9
$MAXACTVP
 70
    16
  9
$PINSBASE
 10
-3.100979
 20
50.0
 30
10.277186
  9
$PLIMCHECK
 70
     0
  9
$PEXTMIN
 10
1.000000000000000E+20
 20
1.000000000000000E+20
 30
1.000000000000000E+20
  9
$PEXTMAX
 10
-1.000000000000000E+20
 20
-1.000000000000000E+20
 30
-1.000000000000000E+20
  9
$PLIMMIN
 10
0.0
 20
0.0
  9
$PLIMMAX
 10
12.0
 20
9.0
  9
$UNITMODE
 70
     0
  9
$VISRETAIN
 70
     0
  9
$PLINEGEN
 70
     0
  9
$PSLTSCALE
 70
     0
  9
$TREEDEPTH
 70
  3020
  9
$CMLSTYLE
  2
Standard
  9
$CMLJUST
 70
     0
  9
$CMLSCALE
 40
1.0
  9
$PROXYGRAPHICS
 70
     1
  9
$MEASUREMENT
 70
     0
  9
$CELWEIGHT
370
    -1
  9
$ENDCAPS
280
     0
  9
$JOINSTYLE
280
     0
  9
$LWDISPLAY
290
     0
  9
$INSUNITS
 70
     0
  9
$HYPERLINKBASE
  1

  9
$STYLESHEET
  1

  9
$XEDIT
290
     1
  9
$CEPSNTYPE
380
     0
  9
$PSTYLEMODE
290
     1
  9
$FINGERPRINTGUID
  2
{8BBD641C-0C6A-435D-9B68-CFA35CBFDD4F}
  9
$VERSIONGUID
  2
{5CE93419-BBDF-4A38-A416-EBD92E5AECF4}
  9
$EXTNAMES
290
     1
  9
$PSVPSCALE
 40
0.0
  9
$OLESTARTUP
290
     0
  0
ENDSEC
  0
SECTION
  2
CLASSES
  0
CLASS
  1
ACDBDICTIONARYWDFLT
  2
AcDbDictionaryWithDefault
  3
AutoCAD 2000
 90
        0
280
     0
281
     0
  0
CLASS
  1
ACDBPLACEHOLDER
  2
AcDbPlaceHolder
  3
AutoCAD 2000
 90
        0
280
     0
281
     0
  0
CLASS
  1
LAYOUT
  2
AcDbLayout
  3
AutoCAD 2000
 90
        0
280
     0
281
     0
  0
ENDSEC
  0
SECTION
  2
TABLES
  0
TABLE
  2
VPORT
  5
8
330
0
100
AcDbSymbolTable
 70
     5
  0
VPORT
  5
635
330
8
100
AcDbSymbolTableRecord
100
AcDbViewportTableRecord
  2
*Active
 70
     0
 10
0.0
 20
0.0
 11
1.0
 21
1.0
 12
11.62500005413312
 22
7.590000035343694
 13
0.0
 23
0.0
 14
1.0
 24
1.0
 15
0.5
 25
0.5
 16
0.0
 26
0.0
 36
1.0
 17
0.0
 27
0.0
 37
0.0
 40
15.33273577880968
 41
1.796327212020033
 42
50.0
 43
0.0
 44
0.0
 50
0.0
 51
0.0
 71
     0
 72
   100
 73
     1
 74
     0
 75
     0
 76
     0
 77
     0
 78
     0
281
     0
 65
     1
110
0.0
120
0.0
130
0.0
111
1.0
121
0.0
131
0.0
112
0.0
122
1.0
132
0.0
 79
     0
146
0.0
  0
ENDTAB
  0
TABLE
  2
LTYPE
  5
5
330
0
100
AcDbSymbolTable
 70
     4
  0
LTYPE
  5
13
330
5
100
AcDbSymbolTableRecord
100
AcDbLinetypeTableRecord
  2
ByBlock
 70
     0
  3

 72
    65
 73
     0
 40
0.0
  0
LTYPE
  5
14
330
5
100
AcDbSymbolTableRecord
100
AcDbLinetypeTableRecord
  2
ByLayer
 70
     0
  3

 72
    65
 73
     0
 40
0.0
  0
LTYPE
  5
15
330
5
100
AcDbSymbolTableRecord
100
AcDbLinetypeTableRecord
  2
CONTINUOUS
 70
     0
  3
Solid line
 72
    65
 73
     0
 40
0.0
  0
LTYPE
  5
25
330
5
100
AcDbSymbolTableRecord
100
AcDbLinetypeTableRecord
  2
HIDDEN
 70
     0
  3
_ _ _ _ _ _ _ _ _ _ _ _ _ _ _ _ _ _ _ _ _ _ _
 72
    65
 73
     2
 40
0.375
 49
0.25
 74
     0
 49
-0.125
 74
     0
  0
LTYPE
  5
26
330
5
100
AcDbSymbolTableRecord
100
AcDbLinetypeTableRecord
  2
CENTER
 70
     0
  3
____ _ ____ _ ____ _ ____ _ ____ _ ____ _ ____
 72
    65
 73
     4
 40
2.0
 49
1.25
 74
     0
 49
-0.25
 74
     0
 49
0.25
 74
     0
 49
-0.25
 74
     0
  0
LTYPE
  5
27
330
5
100
AcDbSymbolTableRecord
100
AcDbLinetypeTableRecord
  2
PHANTOM
 70
     0
  3
_____ _ _ _____ _ _ _____ _ _ _____ _ _ ____
 72
    65
 73
     6
 40
2.5
 49
1.25
 74
     0
 49
-0.25
 74
     0
 49
0.25
 74
     0
 49
-0.25
 74
     0
 49
0.25
 74
     0
 49
-0.25
 74
     0
  0
ENDTAB
  0
TABLE
  2
LAYER
  5
2
330
0
100
AcDbSymbolTable
 70
     9
  0
LAYER
  5
10
330
2
100
AcDbSymbolTableRecord
100
AcDbLayerTableRecord
  2
0
 70
     0
 62
     7
  6
CONTINUOUS
370
    -3
390
F
  0
LAYER
  5
22
330
2
100
AcDbSymbolTableRecord
100
AcDbLayerTableRecord
  2
DIM
 70
     0
 62
     7
  6
CONTINUOUS
370
    -3
390
F
  0
LAYER
  5
28
330
2
100
AcDbSymbolTableRecord
100
AcDbLayerTableRecord
  2
OBJECT
 70
     0
 62
     7
  6
CONTINUOUS
370
    -3
390
F
  0
LAYER
  5
29
330
2
100
AcDbSymbolTableRecord
100
AcDbLayerTableRecord
  2
HIDDEN
 70
     0
 62
     7
  6
HIDDEN
370
    -3
390
F
  0
LAYER
  5
2A
330
2
100
AcDbSymbolTableRecord
100
AcDbLayerTableRecord
  2
TEXT
 70
     0
 62
     7
  6
CONTINUOUS
370
    -3
390
F
  0
LAYER
  5
2B
330
2
100
AcDbSymbolTableRecord
100
AcDbLayerTableRecord
  2
TITLE
 70
     0
 62
     7
  6
CONTINUOUS
370
    -3
390
F
  0
LAYER
  5
2C
330
2
100
AcDbSymbolTableRecord
100
AcDbLayerTableRecord
  2
CENTER
 70
     0
 62
     7
  6
CENTER
370
    -3
390
F
  0
LAYER
  5
2D
330
2
100
AcDbSymbolTableRecord
100
AcDbLayerTableRecord
  2
DEFPOINTS
 70
     0
 62
     7
  6
CONTINUOUS
290
     0
370
    -3
390
F
  0
LAYER
  5
2E
330
2
100
AcDbSymbolTableRecord
100
AcDbLayerTableRecord
  2
BEND
 70
     0
 62
     7
  6
PHANTOM
370
    -3
390
F
  0
ENDTAB
  0
TABLE
  2
STYLE
  5
3
330
0
100
AcDbSymbolTable
 70
     2
  0
STYLE
  5
11
330
3
100
AcDbSymbolTableRecord
100
AcDbTextStyleTableRecord
  2
Standard
 70
     0
 40
0.0
 41
1.0
 50
0.0
 71
     0
 42
0.2
  3
txt
  4

  0
STYLE
  5
23
330
3
100
AcDbSymbolTableRecord
100
AcDbTextStyleTableRecord
  2
TXT
 70
     0
 40
0.0
 41
0.75
 50
0.0
 71
     0
 42
0.188
  3
TXT.shx
  4

  0
ENDTAB
  0
TABLE
  2
VIEW
  5
6
330
0
100
AcDbSymbolTable
 70
     0
  0
ENDTAB
  0
TABLE
  2
UCS
  5
7
330
0
100
AcDbSymbolTable
 70
     0
  0
ENDTAB
  0
TABLE
  2
APPID
  5
9
330
0
100
AcDbSymbolTable
 70
     1
  0
APPID
  5
12
330
9
100
AcDbSymbolTableRecord
100
AcDbRegAppTableRecord
  2
ACAD
 70
     0
  0
ENDTAB
  0
TABLE
  2
DIMSTYLE
  5
A
330
0
100
AcDbSymbolTable
 70
     2
100
AcDbDimStyleTable
 71
     0
  0
DIMSTYLE
105
2F
102
{ACAD_REACTORS
330
1B4
330
1C2
330
1D1
330
1EE
330
244
330
252
330
29C
330
2BA
330
2C8
330
2F3
330
301
330
31D
330
32B
330
347
330
355
330
363
330
371
330
433
330
48D
330
520
330
542
102
}
330
A
100
AcDbSymbolTableRecord
100
AcDbDimStyleTableRecord
  2
23NSTD
 70
     0
 40
1.5
 42
0.063
 43
0.281
 44
0.093
140
0.125
271
     3
272
     3
275
     1
279
     2
340
23
  0
DIMSTYLE
105
30
102
{ACAD_REACTORS
330
1E0
330
2D6
330
30F
330
339
330
425
102
}
330
A
100
AcDbSymbolTableRecord
100
AcDbDimStyleTableRecord
  2
23NSTDI
 70
     0
 40
1.5
 42
0.063
 43
0.281
 44
0.093
140
0.125
174
     1
271
     3
272
     3
275
     1
279
     2
340
23
  0
ENDTAB
  0
TABLE
  2
BLOCK_RECORD
  5
1
330
0
100
AcDbSymbolTable
 70
    53
  0
BLOCK_RECORD
  5
1E
330
1
100
AcDbSymbolTableRecord
100
AcDbBlockTableRecord
  2
*Model_Space
340
21
  0
BLOCK_RECORD
  5
1A
330
1
100
AcDbSymbolTableRecord
100
AcDbBlockTableRecord
  2
*Paper_Space
340
1D
  0
BLOCK_RECORD
  5
32
330
1
100
AcDbSymbolTableRecord
100
AcDbBlockTableRecord
  2
HBS
340
0
102
{BLKREFS
331
1A8
102
}
  0
BLOCK_RECORD
  5
4A
330
1
100
AcDbSymbolTableRecord
100
AcDbBlockTableRecord
  2
*D1
340
0
  0
BLOCK_RECORD
  5
59
330
1
100
AcDbSymbolTableRecord
100
AcDbBlockTableRecord
  2
*D2
340
0
  0
BLOCK_RECORD
  5
68
330
1
100
AcDbSymbolTableRecord
100
AcDbBlockTableRecord
  2
*D3
340
0
  0
BLOCK_RECORD
  5
76
330
1
100
AcDbSymbolTableRecord
100
AcDbBlockTableRecord
  2
*D4
340
0
  0
BLOCK_RECORD
  5
84
330
1
100
AcDbSymbolTableRecord
100
AcDbBlockTableRecord
  2
*D5
340
0
  0
BLOCK_RECORD
  5
92
330
1
100
AcDbSymbolTableRecord
100
AcDbBlockTableRecord
  2
*D6
340
0
  0
BLOCK_RECORD
  5
A0
330
1
100
AcDbSymbolTableRecord
100
AcDbBlockTableRecord
  2
*D7
340
0
  0
BLOCK_RECORD
  5
AE
330
1
100
AcDbSymbolTableRecord
100
AcDbBlockTableRecord
  2
*D8
340
0
  0
BLOCK_RECORD
  5
BE
330
1
100
AcDbSymbolTableRecord
100
AcDbBlockTableRecord
  2
*D9
340
0
  0
BLOCK_RECORD
  5
CB
330
1
100
AcDbSymbolTableRecord
100
AcDbBlockTableRecord
  2
*D10
340
0
  0
BLOCK_RECORD
  5
D8
330
1
100
AcDbSymbolTableRecord
100
AcDbBlockTableRecord
  2
*D11
340
0
  0
BLOCK_RECORD
  5
E5
330
1
100
AcDbSymbolTableRecord
100
AcDbBlockTableRecord
  2
*D12
340
0
  0
BLOCK_RECORD
  5
F2
330
1
100
AcDbSymbolTableRecord
100
AcDbBlockTableRecord
  2
*D13
340
0
  0
BLOCK_RECORD
  5
FF
330
1
100
AcDbSymbolTableRecord
100
AcDbBlockTableRecord
  2
*D14
340
0
  0
BLOCK_RECORD
  5
10C
330
1
100
AcDbSymbolTableRecord
100
AcDbBlockTableRecord
  2
*D15
340
0
  0
BLOCK_RECORD
  5
119
330
1
100
AcDbSymbolTableRecord
100
AcDbBlockTableRecord
  2
*D16
340
0
  0
BLOCK_RECORD
  5
126
330
1
100
AcDbSymbolTableRecord
100
AcDbBlockTableRecord
  2
*D17
340
0
  0
BLOCK_RECORD
  5
133
330
1
100
AcDbSymbolTableRecord
100
AcDbBlockTableRecord
  2
*D18
340
0
  0
BLOCK_RECORD
  5
140
330
1
100
AcDbSymbolTableRecord
100
AcDbBlockTableRecord
  2
*D19
340
0
  0
BLOCK_RECORD
  5
14D
330
1
100
AcDbSymbolTableRecord
100
AcDbBlockTableRecord
  2
*D20
340
0
  0
BLOCK_RECORD
  5
15A
330
1
100
AcDbSymbolTableRecord
100
AcDbBlockTableRecord
  2
*D21
340
0
  0
BLOCK_RECORD
  5
167
330
1
100
AcDbSymbolTableRecord
100
AcDbBlockTableRecord
  2
*D22
340
0
  0
BLOCK_RECORD
  5
174
330
1
100
AcDbSymbolTableRecord
100
AcDbBlockTableRecord
  2
*D23
340
0
  0
BLOCK_RECORD
  5
181
330
1
100
AcDbSymbolTableRecord
100
AcDbBlockTableRecord
  2
*D24
340
0
  0
BLOCK_RECORD
  5
18E
330
1
100
AcDbSymbolTableRecord
100
AcDbBlockTableRecord
  2
*D25
340
0
  0
BLOCK_RECORD
  5
19B
330
1
100
AcDbSymbolTableRecord
100
AcDbBlockTableRecord
  2
*D26
340
0
  0
BLOCK_RECORD
  5
1B5
330
1
100
AcDbSymbolTableRecord
100
AcDbBlockTableRecord
  2
*D27
340
0
  0
BLOCK_RECORD
  5
1C3
330
1
100
AcDbSymbolTableRecord
100
AcDbBlockTableRecord
  2
*D28
340
0
  0
BLOCK_RECORD
  5
1D2
330
1
100
AcDbSymbolTableRecord
100
AcDbBlockTableRecord
  2
*D29
340
0
  0
BLOCK_RECORD
  5
1E1
330
1
100
AcDbSymbolTableRecord
100
AcDbBlockTableRecord
  2
*D30
340
0
  0
BLOCK_RECORD
  5
1EF
330
1
100
AcDbSymbolTableRecord
100
AcDbBlockTableRecord
  2
*D31
340
0
  0
BLOCK_RECORD
  5
245
330
1
100
AcDbSymbolTableRecord
100
AcDbBlockTableRecord
  2
*D32
340
0
  0
BLOCK_RECORD
  5
253
330
1
100
AcDbSymbolTableRecord
100
AcDbBlockTableRecord
  2
*D33
340
0
  0
BLOCK_RECORD
  5
29D
330
1
100
AcDbSymbolTableRecord
100
AcDbBlockTableRecord
  2
*D34
340
0
  0
BLOCK_RECORD
  5
2BB
330
1
100
AcDbSymbolTableRecord
100
AcDbBlockTableRecord
  2
*D35
340
0
  0
BLOCK_RECORD
  5
2C9
330
1
100
AcDbSymbolTableRecord
100
AcDbBlockTableRecord
  2
*D36
340
0
  0
BLOCK_RECORD
  5
2D7
330
1
100
AcDbSymbolTableRecord
100
AcDbBlockTableRecord
  2
*D37
340
0
  0
BLOCK_RECORD
  5
2F4
330
1
100
AcDbSymbolTableRecord
100
AcDbBlockTableRecord
  2
*D38
340
0
  0
BLOCK_RECORD
  5
302
330
1
100
AcDbSymbolTableRecord
100
AcDbBlockTableRecord
  2
*D39
340
0
  0
BLOCK_RECORD
  5
310
330
1
100
AcDbSymbolTableRecord
100
AcDbBlockTableRecord
  2
*D40
340
0
  0
BLOCK_RECORD
  5
31E
330
1
100
AcDbSymbolTableRecord
100
AcDbBlockTableRecord
  2
*D41
340
0
  0
BLOCK_RECORD
  5
32C
330
1
100
AcDbSymbolTableRecord
100
AcDbBlockTableRecord
  2
*D42
340
0
  0
BLOCK_RECORD
  5
33A
330
1
100
AcDbSymbolTableRecord
100
AcDbBlockTableRecord
  2
*D43
340
0
  0
BLOCK_RECORD
  5
348
330
1
100
AcDbSymbolTableRecord
100
AcDbBlockTableRecord
  2
*D44
340
0
  0
BLOCK_RECORD
  5
356
330
1
100
AcDbSymbolTableRecord
100
AcDbBlockTableRecord
  2
*D45
340
0
  0
BLOCK_RECORD
  5
364
330
1
100
AcDbSymbolTableRecord
100
AcDbBlockTableRecord
  2
*D46
340
0
  0
BLOCK_RECORD
  5
372
330
1
100
AcDbSymbolTableRecord
100
AcDbBlockTableRecord
  2
*D47
340
0
  0
BLOCK_RECORD
  5
426
330
1
100
AcDbSymbolTableRecord
100
AcDbBlockTableRecord
  2
*D48
340
0
  0
BLOCK_RECORD
  5
434
330
1
100
AcDbSymbolTableRecord
100
AcDbBlockTableRecord
  2
*D49
340
0
  0
BLOCK_RECORD
  5
48E
330
1
100
AcDbSymbolTableRecord
100
AcDbBlockTableRecord
  2
*D50
340
0
  0
BLOCK_RECORD
  5
521
330
1
100
AcDbSymbolTableRecord
100
AcDbBlockTableRecord
  2
*D51
340
0
  0
BLOCK_RECORD
  5
543
330
1
100
AcDbSymbolTableRecord
100
AcDbBlockTableRecord
  2
*D52
340
0
  0
ENDTAB
  0
ENDSEC
  0
SECTION
  2
BLOCKS
  0
BLOCK
  5
1F
330
1E
100
AcDbEntity
  8
0
100
AcDbBlockBegin
  2
*Model_Space
 70
     0
 10
0.0
 20
0.0
 30
0.0
  3
*Model_Space
  1

  0
ENDBLK
  5
20
330
1E
100
AcDbEntity
  8
0
100
AcDbBlockEnd
  0
BLOCK
  5
1B
330
1A
100
AcDbEntity
 67
     1
  8
0
100
AcDbBlockBegin
  2
*Paper_Space
 70
     0
 10
0.0
 20
0.0
 30
0.0
  3
*Paper_Space
  1

  0
ENDBLK
  5
1C
330
1A
100
AcDbEntity
 67
     1
  8
0
100
AcDbBlockEnd
  0
BLOCK
  5
33
330
32
100
AcDbEntity
  8
0
100
AcDbBlockBegin
  2
HBS
 70
     0
 10
0.0
 20
0.0
 30
0.0
  3
HBS
  1

  0
LINE
  5
34
330
32
100
AcDbEntity
  8
TITLE
100
AcDbLine
 10
0.062
 20
9.64
 30
0.0
 11
15.438
 21
9.64
 31
0.0
  0
LWPOLYLINE
  5
35
330
32
100
AcDbEntity
  8
TITLE
100
AcDbPolyline
 90
        4
 70
     1
 43
0.0
 10
15.5
 20
10.12
 10
15.5
 20
0.0
 10
0.0
 20
0.0
 10
0.0
 20
10.12
  0
LWPOLYLINE
  5
3B
330
32
100
AcDbEntity
  8
TITLE
100
AcDbPolyline
 90
        4
 70
     1
 43
0.0
 10
15.438
 20
10.058
 10
15.438
 20
0.062
 10
0.062
 20
0.062
 10
0.062
 20
10.058
  0
TEXT
  5
41
330
32
100
AcDbEntity
  8
TEXT
100
AcDbText
 10
0.2078333333333334
 20
9.680078999999999
 30
0.0
 40
0.125
  1
NAME
 72
     1
 11
0.4370000000000001
 21
9.680078999999999
 31
0.0
100
AcDbText
  0
TEXT
  5
42
330
32
100
AcDbEntity
  8
TEXT
100
AcDbText
 10
0.2078333333333334
 20
9.888412999999999
 30
0.0
 40
0.125
  1
PART
 72
     1
 11
0.4370000000000001
 21
9.888412999999999
 31
0.0
100
AcDbText
  0
LINE
  5
43
330
32
100
AcDbEntity
  8
TITLE
100
AcDbLine
 10
0.812
 20
9.64
 30
0.0
 11
0.812
 21
10.058
 31
0.0
  0
TEXT
  5
44
330
32
100
AcDbEntity
  8
TEXT
100
AcDbText
 10
7.926833333333333
 20
9.888412999999999
 30
0.0
 40
0.125
  1
PART
 72
     1
 11
8.156
 21
9.888412999999999
 31
0.0
100
AcDbText
  0
TEXT
  5
45
330
32
100
AcDbEntity
  8
TEXT
100
AcDbText
 10
8.031
 20
9.680078999999999
 30
0.0
 40
0.125
  1
No.
 72
     1
 11
8.156
 21
9.680078999999999
 31
0.0
100
AcDbText
  0
LINE
  5
46
330
32
100
AcDbEntity
  8
TITLE
100
AcDbLine
 10
7.781
 20
10.058
 30
0.0
 11
7.781
 21
9.64
 31
0.0
  0
LINE
  5
47
330
32
100
AcDbEntity
  8
TITLE
100
AcDbLine
 10
7.718999999999999
 20
10.058
 30
0.0
 11
7.718999999999999
 21
9.64
 31
0.0
  0
LINE
  5
48
330
32
100
AcDbEntity
  8
TITLE
100
AcDbLine
 10
8.531
 20
10.058
 30
0.0
 11
8.531
 21
9.64
 31
0.0
  0
ENDBLK
  5
49
330
32
100
AcDbEntity
  8
0
100
AcDbBlockEnd
  0
BLOCK
  5
4B
330
4A
100
AcDbEntity
  8
0
100
AcDbBlockBegin
  2
*D1
 70
     1
 10
0.0
 20
0.0
 30
0.0
  3
*D1
  1

  0
LINE
  5
4C
330
4A
100
AcDbEntity
  8
0
  6
ByBlock
 62
     0
100
AcDbLine
 10
10.836829
 20
21.927702
 30
0.0
 11
11.288669
 21
21.927702
 31
0.0
  0
LINE
  5
4D
330
4A
100
AcDbEntity
  8
0
  6
ByBlock
 62
     0
100
AcDbLine
 10
10.836829
 20
21.997702
 30
0.0
 11
11.288669
 21
21.997702
 31
0.0
  0
LINE
  5
4E
330
4A
100
AcDbEntity
  8
0
  6
ByBlock
 62
     0
100
AcDbLine
 10
11.149169
 20
21.657702
 30
0.0
 11
11.149169
 21
21.38770199999999
 31
0.0
  0
LINE
  5
4F
330
4A
100
AcDbEntity
  8
0
  6
ByBlock
 62
     0
100
AcDbLine
 10
11.149169
 20
22.267702
 30
0.0
 11
11.149169
 21
22.53770199999999
 31
0.0
  0
LINE
  5
50
330
4A
100
AcDbEntity
  8
0
  6
ByBlock
 62
     0
100
AcDbLine
 10
11.149169
 20
22.53770199999999
 30
0.0
 11
11.419169
 21
22.53770199999999
 31
0.0
  0
SOLID
  5
51
330
4A
100
AcDbEntity
  8
0
  6
ByBlock
 62
     0
100
AcDbTrace
 10
11.104169
 20
21.657702
 30
0.0
 11
11.194169
 21
21.657702
 31
0.0
 12
11.149169
 22
21.927702
 32
0.0
 13
11.149169
 23
21.927702
 33
0.0
  0
SOLID
  5
52
330
4A
100
AcDbEntity
  8
0
  6
ByBlock
 62
     0
100
AcDbTrace
 10
11.104169
 20
22.267702
 30
0.0
 11
11.194169
 21
22.267702
 31
0.0
 12
11.149169
 22
21.997702
 32
0.0
 13
11.149169
 23
21.997702
 33
0.0
  0
TEXT
  5
53
330
4A
100
AcDbEntity
  8
0
  6
ByBlock
 62
     0
100
AcDbText
 10
12.0229195
 20
22.443952
 30
0.0
 40
0.1875
  1
 TYP.
 41
0.75
 72
     1
 11
12.374482
 21
22.53770199999999
 31
0.0
100
AcDbText
 73
     2
  0
TEXT
  5
54
330
4A
100
AcDbEntity
  8
0
  6
ByBlock
 62
     0
100
AcDbText
 10
11.55416925
 20
22.443952
 30
0.0
 40
0.1875
  1
0.070
 41
0.75
 72
     1
 11
11.800263
 21
22.53770199999999
 31
0.0
100
AcDbText
 73
     2
  0
POINT
  5
55
330
4A
100
AcDbEntity
  8
DEFPOINTS
  6
ByBlock
 62
     0
100
AcDbPoint
 10
10.74232899999999
 20
21.927702
 30
0.0
  0
POINT
  5
56
330
4A
100
AcDbEntity
  8
DEFPOINTS
  6
ByBlock
 62
     0
100
AcDbPoint
 10
10.74232899999999
 20
21.997702
 30
0.0
  0
POINT
  5
57
330
4A
100
AcDbEntity
  8
DEFPOINTS
  6
ByBlock
 62
     0
100
AcDbPoint
 10
11.149169
 20
21.997702
 30
0.0
  0
ENDBLK
  5
58
330
4A
100
AcDbEntity
  8
0
100
AcDbBlockEnd
  0
BLOCK
  5
5A
330
59
100
AcDbEntity
  8
0
100
AcDbBlockBegin
  2
*D2
 70
     1
 10
0.0
 20
0.0
 30
0.0
  3
*D2
  1

  0
LINE
  5
5B
330
59
100
AcDbEntity
  8
0
  6
ByBlock
 62
     0
100
AcDbLine
 10
10.103997
 20
5.425027
 30
0.0
 11
10.851484
 21
5.425027
 31
0.0
  0
LINE
  5
5C
330
59
100
AcDbEntity
  8
0
  6
ByBlock
 62
     0
100
AcDbLine
 10
10.09910099999999
 20
5.612026999999999
 30
0.0
 11
10.851484
 21
5.612026999999999
 31
0.0
  0
LINE
  5
5D
330
59
100
AcDbEntity
  8
0
  6
ByBlock
 62
     0
100
AcDbLine
 10
10.71198399999999
 20
5.155026999999999
 30
0.0
 11
10.71198399999999
 21
4.885027
 31
0.0
  0
LINE
  5
5E
330
59
100
AcDbEntity
  8
0
  6
ByBlock
 62
     0
100
AcDbLine
 10
10.71198399999999
 20
5.882026999999999
 30
0.0
 11
10.71198399999999
 21
6.152026999999999
 31
0.0
  0
LINE
  5
5F
330
59
100
AcDbEntity
  8
0
  6
ByBlock
 62
     0
100
AcDbLine
 10
10.71198399999999
 20
6.152026999999999
 30
0.0
 11
10.981984
 21
6.152026999999999
 31
0.0
  0
SOLID
  5
60
330
59
100
AcDbEntity
  8
0
  6
ByBlock
 62
     0
100
AcDbTrace
 10
10.66698399999999
 20
5.155026999999999
 30
0.0
 11
10.756984
 21
5.155026999999999
 31
0.0
 12
10.71198399999999
 22
5.425027
 32
0.0
 13
10.71198399999999
 23
5.425027
 33
0.0
  0
SOLID
  5
61
330
59
100
AcDbEntity
  8
0
  6
ByBlock
 62
     0
100
AcDbTrace
 10
10.66698399999999
 20
5.882026999999999
 30
0.0
 11
10.756984
 21
5.882026999999999
 31
0.0
 12
10.71198399999999
 22
5.612026999999999
 32
0.0
 13
10.71198399999999
 23
5.612026999999999
 33
0.0
  0
TEXT
  5
62
330
59
100
AcDbEntity
  8
0
  6
ByBlock
 62
     0
100
AcDbText
 10
11.5857345
 20
6.058276999999999
 30
0.0
 40
0.1875
  1
 POLISHED BAND
 41
0.75
 72
     1
 11
12.593547
 21
6.152026999999999
 31
0.0
100
AcDbText
 73
     2
  0
TEXT
  5
63
330
59
100
AcDbEntity
  8
0
  6
ByBlock
 62
     0
100
AcDbText
 10
11.11698424999999
 20
6.058276999999999
 30
0.0
 40
0.1875
  1
0.187
 41
0.75
 72
     1
 11
11.36307799999999
 21
6.152026999999999
 31
0.0
100
AcDbText
 73
     2
  0
POINT
  5
64
330
59
100
AcDbEntity
  8
DEFPOINTS
  6
ByBlock
 62
     0
100
AcDbPoint
 10
10.009497
 20
5.425027
 30
0.0
  0
POINT
  5
65
330
59
100
AcDbEntity
  8
DEFPOINTS
  6
ByBlock
 62
     0
100
AcDbPoint
 10
10.00460099999999
 20
5.612026999999999
 30
0.0
  0
POINT
  5
66
330
59
100
AcDbEntity
  8
DEFPOINTS
  6
ByBlock
 62
     0
100
AcDbPoint
 10
10.71198399999999
 20
5.612026999999999
 30
0.0
  0
ENDBLK
  5
67
330
59
100
AcDbEntity
  8
0
100
AcDbBlockEnd
  0
BLOCK
  5
69
330
68
100
AcDbEntity
  8
0
100
AcDbBlockBegin
  2
*D3
 70
     1
 10
0.0
 20
0.0
 30
0.0
  3
*D3
  1

  0
LINE
  5
6A
330
68
100
AcDbEntity
  8
0
  6
ByBlock
 62
     0
100
AcDbLine
 10
28.953926
 20
7.228796
 30
0.0
 11
29.061926
 21
7.228796
 31
0.0
  0
LINE
  5
6B
330
68
100
AcDbEntity
  8
0
  6
ByBlock
 62
     0
100
AcDbLine
 10
28.939667
 20
7.135796
 30
0.0
 11
29.061926
 21
7.135796
 31
0.0
  0
LINE
  5
6C
330
68
100
AcDbEntity
  8
0
  6
ByBlock
 62
     0
100
AcDbLine
 10
28.922426
 20
7.498796
 30
0.0
 11
28.922426
 21
7.768796
 31
0.0
  0
LINE
  5
6D
330
68
100
AcDbEntity
  8
0
  6
ByBlock
 62
     0
100
AcDbLine
 10
28.922426
 20
6.865796
 30
0.0
 11
28.922426
 21
6.595796
 31
0.0
  0
LINE
  5
6E
330
68
100
AcDbEntity
  8
0
  6
ByBlock
 62
     0
100
AcDbLine
 10
28.922426
 20
6.595796
 30
0.0
 11
28.652426
 21
6.595796
 31
0.0
  0
SOLID
  5
6F
330
68
100
AcDbEntity
  8
0
  6
ByBlock
 62
     0
100
AcDbTrace
 10
28.877426
 20
7.498796
 30
0.0
 11
28.96742599999999
 21
7.498796
 31
0.0
 12
28.922426
 22
7.228796
 32
0.0
 13
28.922426
 23
7.228796
 33
0.0
  0
SOLID
  5
70
330
68
100
AcDbEntity
  8
0
  6
ByBlock
 62
     0
100
AcDbTrace
 10
28.877426
 20
6.865796
 30
0.0
 11
28.96742599999999
 21
6.865796
 31
0.0
 12
28.922426
 22
7.135796
 32
0.0
 13
28.922426
 23
7.135796
 33
0.0
  0
TEXT
  5
71
330
68
100
AcDbEntity
  8
0
  6
ByBlock
 62
     0
100
AcDbText
 10
28.0018005
 20
6.502046
 30
0.0
 40
0.1875
  1
0.093
 41
0.75
 72
     1
 11
28.259613
 21
6.595796
 31
0.0
100
AcDbText
 73
     2
  0
POINT
  5
72
330
68
100
AcDbEntity
  8
DEFPOINTS
  6
ByBlock
 62
     0
100
AcDbPoint
 10
28.859426
 20
7.228796
 30
0.0625
  0
POINT
  5
73
330
68
100
AcDbEntity
  8
DEFPOINTS
  6
ByBlock
 62
     0
100
AcDbPoint
 10
28.845167
 20
7.135796
 30
0.0625
  0
POINT
  5
74
330
68
100
AcDbEntity
  8
DEFPOINTS
  6
ByBlock
 62
     0
100
AcDbPoint
 10
28.922426
 20
7.135796
 30
0.0
  0
ENDBLK
  5
75
330
68
100
AcDbEntity
  8
0
100
AcDbBlockEnd
  0
BLOCK
  5
77
330
76
100
AcDbEntity
  8
0
100
AcDbBlockBegin
  2
*D4
 70
     1
 10
0.0
 20
0.0
 30
0.0
  3
*D4
  1

  0
LINE
  5
78
330
76
100
AcDbEntity
  8
0
  6
ByBlock
 62
     0
100
AcDbLine
 10
34.65679399999999
 20
7.455796
 30
0.0
 11
34.453817
 21
7.455796
 31
0.0
  0
LINE
  5
79
330
76
100
AcDbEntity
  8
0
  6
ByBlock
 62
     0
100
AcDbLine
 10
34.654817
 20
7.229182
 30
0.0
 11
34.453817
 21
7.229182
 31
0.0
  0
LINE
  5
7A
330
76
100
AcDbEntity
  8
0
  6
ByBlock
 62
     0
100
AcDbLine
 10
34.59331699999999
 20
7.725796
 30
0.0
 11
34.59331699999999
 21
7.995796
 31
0.0
  0
LINE
  5
7B
330
76
100
AcDbEntity
  8
0
  6
ByBlock
 62
     0
100
AcDbLine
 10
34.59331699999999
 20
6.959182000000001
 30
0.0
 11
34.59331699999999
 21
6.689182
 31
0.0
  0
LINE
  5
7C
330
76
100
AcDbEntity
  8
0
  6
ByBlock
 62
     0
100
AcDbLine
 10
34.59331699999999
 20
6.689182
 30
0.0
 11
34.32331699999999
 21
6.689182
 31
0.0
  0
SOLID
  5
7D
330
76
100
AcDbEntity
  8
0
  6
ByBlock
 62
     0
100
AcDbTrace
 10
34.54831699999999
 20
7.725796
 30
0.0
 11
34.638317
 21
7.725796
 31
0.0
 12
34.59331699999999
 22
7.455796
 32
0.0
 13
34.59331699999999
 23
7.455796
 33
0.0
  0
SOLID
  5
7E
330
76
100
AcDbEntity
  8
0
  6
ByBlock
 62
     0
100
AcDbTrace
 10
34.54831699999999
 20
6.959182000000001
 30
0.0
 11
34.638317
 21
6.959182000000001
 31
0.0
 12
34.59331699999999
 22
7.229182
 32
0.0
 13
34.59331699999999
 23
7.229182
 33
0.0
  0
TEXT
  5
7F
330
76
100
AcDbEntity
  8
0
  6
ByBlock
 62
     0
100
AcDbText
 10
33.64925474999999
 20
6.595432
 30
0.0
 40
0.1875
  1
0.227
 41
0.75
 72
     1
 11
33.918786
 21
6.689182
 31
0.0
100
AcDbText
 73
     2
  0
POINT
  5
80
330
76
100
AcDbEntity
  8
DEFPOINTS
  6
ByBlock
 62
     0
100
AcDbPoint
 10
34.751294
 20
7.455796
 30
0.0
  0
POINT
  5
81
330
76
100
AcDbEntity
  8
DEFPOINTS
  6
ByBlock
 62
     0
100
AcDbPoint
 10
34.74931699999999
 20
7.229182
 30
0.0
  0
POINT
  5
82
330
76
100
AcDbEntity
  8
DEFPOINTS
  6
ByBlock
 62
     0
100
AcDbPoint
 10
34.59331699999999
 20
7.229182
 30
0.0
  0
ENDBLK
  5
83
330
76
100
AcDbEntity
  8
0
100
AcDbBlockEnd
  0
BLOCK
  5
85
330
84
100
AcDbEntity
  8
0
100
AcDbBlockBegin
  2
*D5
 70
     1
 10
0.0
 20
0.0
 30
0.0
  3
*D5
  1

  0
LINE
  5
86
330
84
100
AcDbEntity
  8
0
  6
ByBlock
 62
     0
100
AcDbLine
 10
27.482343
 20
7.795796000000001
 30
0.0
 11
27.07219099999999
 21
7.795796000000001
 31
0.0
  0
LINE
  5
87
330
84
100
AcDbEntity
  8
0
  6
ByBlock
 62
     0
100
AcDbLine
 10
27.438912
 20
7.705796
 30
0.0
 11
27.07219099999999
 21
7.705796
 31
0.0
  0
LINE
  5
88
330
84
100
AcDbEntity
  8
0
  6
ByBlock
 62
     0
100
AcDbLine
 10
27.211691
 20
8.065796
 30
0.0
 11
27.211691
 21
8.335796
 31
0.0
  0
LINE
  5
89
330
84
100
AcDbEntity
  8
0
  6
ByBlock
 62
     0
100
AcDbLine
 10
27.211691
 20
7.435796
 30
0.0
 11
27.211691
 21
7.165796
 31
0.0
  0
LINE
  5
8A
330
84
100
AcDbEntity
  8
0
  6
ByBlock
 62
     0
100
AcDbLine
 10
27.211691
 20
7.165796
 30
0.0
 11
26.94169099999999
 21
7.165796
 31
0.0
  0
SOLID
  5
8B
330
84
100
AcDbEntity
  8
0
  6
ByBlock
 62
     0
100
AcDbTrace
 10
27.16669099999999
 20
8.065796
 30
0.0
 11
27.25669099999999
 21
8.065796
 31
0.0
 12
27.211691
 22
7.795796000000001
 32
0.0
 13
27.211691
 23
7.795796000000001
 33
0.0
  0
SOLID
  5
8C
330
84
100
AcDbEntity
  8
0
  6
ByBlock
 62
     0
100
AcDbTrace
 10
27.16669099999999
 20
7.435796
 30
0.0
 11
27.25669099999999
 21
7.435796
 31
0.0
 12
27.211691
 22
7.705796
 32
0.0
 13
27.211691
 23
7.705796
 33
0.0
  0
TEXT
  5
8D
330
84
100
AcDbEntity
  8
0
  6
ByBlock
 62
     0
100
AcDbText
 10
26.31450324999999
 20
7.072046
 30
0.0
 40
0.1875
  1
0.090
 41
0.75
 72
     1
 11
26.560597
 21
7.165796
 31
0.0
100
AcDbText
 73
     2
  0
POINT
  5
8E
330
84
100
AcDbEntity
  8
DEFPOINTS
  6
ByBlock
 62
     0
100
AcDbPoint
 10
27.576843
 20
7.795796000000001
 30
0.0625
  0
POINT
  5
8F
330
84
100
AcDbEntity
  8
DEFPOINTS
  6
ByBlock
 62
     0
100
AcDbPoint
 10
27.53341199999999
 20
7.705796
 30
0.0625
  0
POINT
  5
90
330
84
100
AcDbEntity
  8
DEFPOINTS
  6
ByBlock
 62
     0
100
AcDbPoint
 10
27.211691
 20
7.705796
 30
0.0
  0
ENDBLK
  5
91
330
84
100
AcDbEntity
  8
0
100
AcDbBlockEnd
  0
BLOCK
  5
93
330
92
100
AcDbEntity
  8
0
100
AcDbBlockBegin
  2
*D6
 70
     1
 10
0.0
 20
0.0
 30
0.0
  3
*D6
  1

  0
LINE
  5
94
330
92
100
AcDbEntity
  8
0
  6
ByBlock
 62
     0
100
AcDbLine
 10
5.467494
 20
5.930398999999999
 30
0.0
 11
5.327994
 21
5.930398999999999
 31
0.0
  0
LINE
  5
95
330
92
100
AcDbEntity
  8
0
  6
ByBlock
 62
     0
100
AcDbLine
 10
5.467494
 20
5.860399
 30
0.0
 11
5.327994
 21
5.860399
 31
0.0
  0
LINE
  5
96
330
92
100
AcDbEntity
  8
0
  6
ByBlock
 62
     0
100
AcDbLine
 10
5.467494
 20
6.200398999999999
 30
0.0
 11
5.467494
 21
6.470398999999999
 31
0.0
  0
LINE
  5
97
330
92
100
AcDbEntity
  8
0
  6
ByBlock
 62
     0
100
AcDbLine
 10
5.467494
 20
5.590398999999999
 30
0.0
 11
5.467494
 21
5.320399
 31
0.0
  0
LINE
  5
98
330
92
100
AcDbEntity
  8
0
  6
ByBlock
 62
     0
100
AcDbLine
 10
5.467494
 20
5.320399
 30
0.0
 11
5.197493999999999
 21
5.320399
 31
0.0
  0
SOLID
  5
99
330
92
100
AcDbEntity
  8
0
  6
ByBlock
 62
     0
100
AcDbTrace
 10
5.422494
 20
6.200398999999999
 30
0.0
 11
5.512494
 21
6.200398999999999
 31
0.0
 12
5.467494
 22
5.930398999999999
 32
0.0
 13
5.467494
 23
5.930398999999999
 33
0.0
  0
SOLID
  5
9A
330
92
100
AcDbEntity
  8
0
  6
ByBlock
 62
     0
100
AcDbTrace
 10
5.422494
 20
5.590398999999999
 30
0.0
 11
5.512494
 21
5.590398999999999
 31
0.0
 12
5.467494
 22
5.860399
 32
0.0
 13
5.467494
 23
5.860399
 33
0.0
  0
TEXT
  5
9B
330
92
100
AcDbEntity
  8
0
  6
ByBlock
 62
     0
100
AcDbText
 10
4.570306249999999
 20
5.226649
 30
0.0
 40
0.1875
  1
0.070
 41
0.75
 72
     1
 11
4.816399999999999
 21
5.320399
 31
0.0
100
AcDbText
 73
     2
  0
POINT
  5
9C
330
92
100
AcDbEntity
  8
DEFPOINTS
  6
ByBlock
 62
     0
100
AcDbPoint
 10
5.561994
 20
5.930398999999999
 30
0.0
  0
POINT
  5
9D
330
92
100
AcDbEntity
  8
DEFPOINTS
  6
ByBlock
 62
     0
100
AcDbPoint
 10
5.561994
 20
5.860399
 30
0.0
  0
POINT
  5
9E
330
92
100
AcDbEntity
  8
DEFPOINTS
  6
ByBlock
 62
     0
100
AcDbPoint
 10
5.467494
 20
5.860399
 30
0.0
  0
ENDBLK
  5
9F
330
92
100
AcDbEntity
  8
0
100
AcDbBlockEnd
  0
BLOCK
  5
A1
330
A0
100
AcDbEntity
  8
0
100
AcDbBlockBegin
  2
*D7
 70
     1
 10
0.0
 20
0.0
 30
0.0
  3
*D7
  1

  0
LINE
  5
A2
330
A0
100
AcDbEntity
  8
0
  6
ByBlock
 62
     0
100
AcDbLine
 10
1.900222
 20
7.318569
 30
0.0
 11
1.900222
 21
6.899022
 31
0.0
  0
LINE
  5
A3
330
A0
100
AcDbEntity
  8
0
  6
ByBlock
 62
     0
100
AcDbLine
 10
1.940236
 20
7.318569
 30
0.0
 11
1.940236
 21
6.899022
 31
0.0
  0
LINE
  5
A4
330
A0
100
AcDbEntity
  8
0
  6
ByBlock
 62
     0
100
AcDbLine
 10
1.630221999999999
 20
7.038522
 30
0.0
 11
1.360222
 21
7.038522
 31
0.0
  0
LINE
  5
A5
330
A0
100
AcDbEntity
  8
0
  6
ByBlock
 62
     0
100
AcDbLine
 10
2.210236
 20
7.038522
 30
0.0
 11
2.480236
 21
7.038522
 31
0.0
  0
SOLID
  5
A6
330
A0
100
AcDbEntity
  8
0
  6
ByBlock
 62
     0
100
AcDbTrace
 10
1.630221999999999
 20
7.083522
 30
0.0
 11
1.630221999999999
 21
6.993522
 31
0.0
 12
1.900222
 22
7.038522
 32
0.0
 13
1.900222
 23
7.038522
 33
0.0
  0
SOLID
  5
A7
330
A0
100
AcDbEntity
  8
0
  6
ByBlock
 62
     0
100
AcDbTrace
 10
2.210236
 20
7.083522
 30
0.0
 11
2.210236
 21
6.993522
 31
0.0
 12
1.940236
 22
7.038522
 32
0.0
 13
1.940236
 23
7.038522
 33
0.0
  0
TEXT
  5
A8
330
A0
100
AcDbEntity
  8
0
  6
ByBlock
 62
     0
100
AcDbText
 10
3.0839855
 20
6.944772
 30
0.0
 40
0.1875
  1
 TYP.
 41
0.75
 72
     1
 11
3.435548
 21
7.038522
 31
0.0
100
AcDbText
 73
     2
  0
TEXT
  5
A9
330
A0
100
AcDbEntity
  8
0
  6
ByBlock
 62
     0
100
AcDbText
 10
2.615236249999999
 20
6.944772
 30
0.0
 40
0.1875
  1
0.040
 41
0.75
 72
     1
 11
2.861329999999999
 21
7.038522
 31
0.0
100
AcDbText
 73
     2
  0
POINT
  5
AA
330
A0
100
AcDbEntity
  8
DEFPOINTS
  6
ByBlock
 62
     0
100
AcDbPoint
 10
1.900222
 20
7.413069
 30
0.0
  0
POINT
  5
AB
330
A0
100
AcDbEntity
  8
DEFPOINTS
  6
ByBlock
 62
     0
100
AcDbPoint
 10
1.940236
 20
7.413069
 30
0.0
  0
POINT
  5
AC
330
A0
100
AcDbEntity
  8
DEFPOINTS
  6
ByBlock
 62
     0
100
AcDbPoint
 10
1.940236
 20
7.038522
 30
0.0
  0
ENDBLK
  5
AD
330
A0
100
AcDbEntity
  8
0
100
AcDbBlockEnd
  0
BLOCK
  5
AF
330
AE
100
AcDbEntity
  8
0
100
AcDbBlockBegin
  2
*D8
 70
     1
 10
0.0
 20
0.0
 30
0.0
  3
*D8
  1

  0
LINE
  5
B0
330
AE
100
AcDbEntity
  8
0
  6
ByBlock
 62
     0
100
AcDbLine
 10
10.86218799999999
 20
8.305285000000001
 30
0.0
 11
10.885846
 21
9.208752999999999
 31
0.0
  0
LINE
  5
B1
330
AE
100
AcDbEntity
  8
0
  6
ByBlock
 62
     0
100
AcDbLine
 10
10.82735
 20
7.487569
 30
0.0
 11
10.82735
 21
9.209519
 31
0.0
  0
ARC
  5
B2
330
AE
100
AcDbEntity
  8
0
  6
ByBlock
 62
     0
100
AcDbCircle
 10
10.82735
 20
6.974891
 30
0.0
 40
2.095127999999999
100
AcDbArc
 50
73.72229799999999
 51
81.111149
  0
ARC
  5
B3
330
AE
100
AcDbEntity
  8
0
  6
ByBlock
 62
     0
100
AcDbCircle
 10
10.82735
 20
6.974891
 30
0.0
 40
2.095127999999999
100
AcDbArc
 50
97.388851
 51
104.777702
  0
SOLID
  5
B4
330
AE
100
AcDbEntity
  8
0
  6
ByBlock
 62
     0
100
AcDbTrace
 10
11.147012
 20
9.000040999999999
 30
0.0
 11
11.15516
 21
9.089671
 31
0.0
 12
10.882194
 22
9.069300999999999
 32
0.0
 13
10.882194
 23
9.069300999999999
 33
0.0
  0
SOLID
  5
B5
330
AE
100
AcDbEntity
  8
0
  6
ByBlock
 62
     0
100
AcDbTrace
 10
10.55501199999999
 20
9.097528
 30
0.0
 11
10.56081099999999
 21
9.007714999999999
 31
0.0
 12
10.82735
 22
9.070019
 32
0.0
 13
10.82735
 23
9.070019
 33
0.0
  0
TEXT
  5
B6
330
AE
100
AcDbEntity
  8
0
  6
ByBlock
 62
     0
100
AcDbText
 10
11.9825075
 20
8.896972999999999
 30
0.0
 40
0.1875
  1
 REF.
 41
0.75
 72
     1
 11
12.33407
 21
8.990722999999999
 31
0.0
100
AcDbText
 73
     2
  0
TEXT
  5
B7
330
AE
100
AcDbEntity
  8
0
  6
ByBlock
 62
     0
100
AcDbText
 10
11.537195
 20
8.896972999999999
 30
0.0
 40
0.1875
  1
1%%d30'
 41
0.75
 72
     1
 11
11.77157
 21
8.990722999999999
 31
0.0
100
AcDbText
 73
     2
  0
POINT
  5
B8
330
AE
100
AcDbEntity
  8
DEFPOINTS
  6
ByBlock
 62
     0
100
AcDbPoint
 10
10.85520099999999
 20
9.069834
 30
0.0
  0
POINT
  5
B9
330
AE
100
AcDbEntity
  8
DEFPOINTS
  6
ByBlock
 62
     0
100
AcDbPoint
 10
10.82735
 20
6.951341
 30
0.0
  0
POINT
  5
BA
330
AE
100
AcDbEntity
  8
DEFPOINTS
  6
ByBlock
 62
     0
100
AcDbPoint
 10
10.838825
 20
7.413069
 30
0.0
  0
POINT
  5
BB
330
AE
100
AcDbEntity
  8
DEFPOINTS
  6
ByBlock
 62
     0
100
AcDbPoint
 10
10.859714
 20
8.210817999999999
 30
0.0
  0
POINT
  5
BC
330
AE
100
AcDbEntity
  8
DEFPOINTS
  6
ByBlock
 62
     0
100
AcDbPoint
 10
10.82735
 20
7.393069
 30
0.0
  0
ENDBLK
  5
BD
330
AE
100
AcDbEntity
  8
0
100
AcDbBlockEnd
  0
BLOCK
  5
BF
330
BE
100
AcDbEntity
  8
0
100
AcDbBlockBegin
  2
*D9
 70
     1
 10
0.0
 20
0.0
 30
0.0
  3
*D9
  1

  0
LINE
  5
C0
330
BE
100
AcDbEntity
  8
0
  6
ByBlock
 62
     0
100
AcDbLine
 10
1.921111999999999
 20
8.305317999999999
 30
0.0
 11
1.921111999999999
 21
8.731569
 31
0.0
  0
LINE
  5
C1
330
BE
100
AcDbEntity
  8
0
  6
ByBlock
 62
     0
100
AcDbLine
 10
5.984075999999999
 20
8.305317999999999
 30
0.0
 11
5.984075999999999
 21
8.731569
 31
0.0
  0
LINE
  5
C2
330
BE
100
AcDbEntity
  8
0
  6
ByBlock
 62
     0
100
AcDbLine
 10
2.191111999999999
 20
8.592069
 30
0.0
 11
3.770719
 21
8.592069
 31
0.0
  0
LINE
  5
C3
330
BE
100
AcDbEntity
  8
0
  6
ByBlock
 62
     0
100
AcDbLine
 10
5.714076
 20
8.592069
 30
0.0
 11
4.134469
 21
8.592069
 31
0.0
  0
SOLID
  5
C4
330
BE
100
AcDbEntity
  8
0
  6
ByBlock
 62
     0
100
AcDbTrace
 10
2.191111999999999
 20
8.637069
 30
0.0
 11
2.191111999999999
 21
8.547069
 31
0.0
 12
1.921111999999999
 22
8.592069
 32
0.0
 13
1.921111999999999
 23
8.592069
 33
0.0
  0
SOLID
  5
C5
330
BE
100
AcDbEntity
  8
0
  6
ByBlock
 62
     0
100
AcDbTrace
 10
5.714076
 20
8.637069
 30
0.0
 11
5.714076
 21
8.547069
 31
0.0
 12
5.984075999999999
 22
8.592069
 32
0.0
 13
5.984075999999999
 23
8.592069
 33
0.0
  0
TEXT
  5
C6
330
BE
100
AcDbEntity
  8
0
  6
ByBlock
 62
     0
100
AcDbText
 10
3.905719
 20
8.498319
 30
0.0
 40
0.1875
  1
A
 41
0.75
 72
     1
 11
3.952594
 21
8.592069
 31
0.0
100
AcDbText
 73
     2
  0
POINT
  5
C7
330
BE
100
AcDbEntity
  8
DEFPOINTS
  6
ByBlock
 62
     0
100
AcDbPoint
 10
1.921111999999999
 20
8.210817999999999
 30
0.0
  0
POINT
  5
C8
330
BE
100
AcDbEntity
  8
DEFPOINTS
  6
ByBlock
 62
     0
100
AcDbPoint
 10
5.984075999999999
 20
8.210817999999999
 30
0.0
  0
POINT
  5
C9
330
BE
100
AcDbEntity
  8
DEFPOINTS
  6
ByBlock
 62
     0
100
AcDbPoint
 10
5.984075999999999
 20
8.592069
 30
0.0
  0
ENDBLK
  5
CA
330
BE
100
AcDbEntity
  8
0
100
AcDbBlockEnd
  0
BLOCK
  5
CC
330
CB
100
AcDbEntity
  8
0
100
AcDbBlockBegin
  2
*D10
 70
     1
 10
0.0
 20
0.0
 30
0.0
  3
*D10
  1

  0
LINE
  5
CD
330
CB
100
AcDbEntity
  8
0
  6
ByBlock
 62
     0
100
AcDbLine
 10
12.97371199999999
 20
8.305317999999999
 30
0.0
 11
12.97371199999999
 21
8.731569
 31
0.0
  0
LINE
  5
CE
330
CB
100
AcDbEntity
  8
0
  6
ByBlock
 62
     0
100
AcDbLine
 10
10.78574799999999
 20
8.305317999999999
 30
0.0
 11
10.78574799999999
 21
8.731569
 31
0.0
  0
LINE
  5
CF
330
CB
100
AcDbEntity
  8
0
  6
ByBlock
 62
     0
100
AcDbLine
 10
12.703712
 20
8.592069
 30
0.0
 11
12.061605
 21
8.592069
 31
0.0
  0
LINE
  5
D0
330
CB
100
AcDbEntity
  8
0
  6
ByBlock
 62
     0
100
AcDbLine
 10
11.055748
 20
8.592069
 30
0.0
 11
11.697855
 21
8.592069
 31
0.0
  0
SOLID
  5
D1
330
CB
100
AcDbEntity
  8
0
  6
ByBlock
 62
     0
100
AcDbTrace
 10
12.703712
 20
8.637069
 30
0.0
 11
12.703712
 21
8.547069
 31
0.0
 12
12.97371199999999
 22
8.592069
 32
0.0
 13
12.97371199999999
 23
8.592069
 33
0.0
  0
SOLID
  5
D2
330
CB
100
AcDbEntity
  8
0
  6
ByBlock
 62
     0
100
AcDbTrace
 10
11.055748
 20
8.637069
 30
0.0
 11
11.055748
 21
8.547069
 31
0.0
 12
10.78574799999999
 22
8.592069
 32
0.0
 13
10.78574799999999
 23
8.592069
 33
0.0
  0
TEXT
  5
D3
330
CB
100
AcDbEntity
  8
0
  6
ByBlock
 62
     0
100
AcDbText
 10
11.83285499999999
 20
8.498319
 30
0.0
 40
0.1875
  1
B
 41
0.75
 72
     1
 11
11.87973
 21
8.592069
 31
0.0
100
AcDbText
 73
     2
  0
POINT
  5
D4
330
CB
100
AcDbEntity
  8
DEFPOINTS
  6
ByBlock
 62
     0
100
AcDbPoint
 10
12.97371199999999
 20
8.210817999999999
 30
0.0
  0
POINT
  5
D5
330
CB
100
AcDbEntity
  8
DEFPOINTS
  6
ByBlock
 62
     0
100
AcDbPoint
 10
10.78574799999999
 20
8.210817999999999
 30
0.0
  0
POINT
  5
D6
330
CB
100
AcDbEntity
  8
DEFPOINTS
  6
ByBlock
 62
     0
100
AcDbPoint
 10
10.78574799999999
 20
8.592069
 30
0.0
  0
ENDBLK
  5
D7
330
CB
100
AcDbEntity
  8
0
100
AcDbBlockEnd
  0
BLOCK
  5
D9
330
D8
100
AcDbEntity
  8
0
100
AcDbBlockBegin
  2
*D11
 70
     1
 10
0.0
 20
0.0
 30
0.0
  3
*D11
  1

  0
LINE
  5
DA
330
D8
100
AcDbEntity
  8
0
  6
ByBlock
 62
     0
100
AcDbLine
 10
12.963248
 20
8.313069
 30
0.0
 11
13.50760199999999
 21
8.313069
 31
0.0
  0
LINE
  5
DB
330
D8
100
AcDbEntity
  8
0
  6
ByBlock
 62
     0
100
AcDbLine
 10
13.089102
 20
7.413069
 30
0.0
 11
13.50760199999999
 21
7.413069
 31
0.0
  0
LINE
  5
DC
330
D8
100
AcDbEntity
  8
0
  6
ByBlock
 62
     0
100
AcDbLine
 10
13.36810199999999
 20
8.583069
 30
0.0
 11
13.36810199999999
 21
8.853068999999999
 31
0.0
  0
LINE
  5
DD
330
D8
100
AcDbEntity
  8
0
  6
ByBlock
 62
     0
100
AcDbLine
 10
13.36810199999999
 20
7.143069
 30
0.0
 11
13.36810199999999
 21
6.873069
 31
0.0
  0
SOLID
  5
DE
330
D8
100
AcDbEntity
  8
0
  6
ByBlock
 62
     0
100
AcDbTrace
 10
13.323102
 20
8.583069
 30
0.0
 11
13.41310199999999
 21
8.583069
 31
0.0
 12
13.36810199999999
 22
8.313069
 32
0.0
 13
13.36810199999999
 23
8.313069
 33
0.0
  0
SOLID
  5
DF
330
D8
100
AcDbEntity
  8
0
  6
ByBlock
 62
     0
100
AcDbTrace
 10
13.323102
 20
7.143069
 30
0.0
 11
13.41310199999999
 21
7.143069
 31
0.0
 12
13.36810199999999
 22
7.413069
 32
0.0
 13
13.36810199999999
 23
7.413069
 33
0.0
  0
TEXT
  5
E0
330
D8
100
AcDbEntity
  8
0
  6
ByBlock
 62
     0
100
AcDbText
 10
13.32122699999999
 20
7.769319
 30
0.0
 40
0.1875
  1
C
 41
0.75
 72
     1
 11
13.36810199999999
 21
7.863069
 31
0.0
100
AcDbText
 73
     2
  0
POINT
  5
E1
330
D8
100
AcDbEntity
  8
DEFPOINTS
  6
ByBlock
 62
     0
100
AcDbPoint
 10
12.868748
 20
8.313069
 30
0.125
  0
POINT
  5
E2
330
D8
100
AcDbEntity
  8
DEFPOINTS
  6
ByBlock
 62
     0
100
AcDbPoint
 10
12.994602
 20
7.413069
 30
0.125
  0
POINT
  5
E3
330
D8
100
AcDbEntity
  8
DEFPOINTS
  6
ByBlock
 62
     0
100
AcDbPoint
 10
13.36810199999999
 20
7.413069
 30
0.0
  0
ENDBLK
  5
E4
330
D8
100
AcDbEntity
  8
0
100
AcDbBlockEnd
  0
BLOCK
  5
E6
330
E5
100
AcDbEntity
  8
0
100
AcDbBlockBegin
  2
*D12
 70
     1
 10
0.0
 20
0.0
 30
0.0
  3
*D12
  1

  0
LINE
  5
E7
330
E5
100
AcDbEntity
  8
0
  6
ByBlock
 62
     0
100
AcDbLine
 10
2.151075999999999
 20
3.896451999999999
 30
0.0
 11
2.151075999999999
 21
3.038495
 31
0.0
  0
LINE
  5
E8
330
E5
100
AcDbEntity
  8
0
  6
ByBlock
 62
     0
100
AcDbLine
 10
5.754112
 20
3.896451999999999
 30
0.0
 11
5.754112
 21
3.038495
 31
0.0
  0
LINE
  5
E9
330
E5
100
AcDbEntity
  8
0
  6
ByBlock
 62
     0
100
AcDbLine
 10
2.421075999999999
 20
3.177995
 30
0.0
 11
3.770719
 21
3.177995
 31
0.0
  0
LINE
  5
EA
330
E5
100
AcDbEntity
  8
0
  6
ByBlock
 62
     0
100
AcDbLine
 10
5.484112
 20
3.177995
 30
0.0
 11
4.134469
 21
3.177995
 31
0.0
  0
SOLID
  5
EB
330
E5
100
AcDbEntity
  8
0
  6
ByBlock
 62
     0
100
AcDbTrace
 10
2.421075999999999
 20
3.222995
 30
0.0
 11
2.421075999999999
 21
3.132995
 31
0.0
 12
2.151075999999999
 22
3.177995
 32
0.0
 13
2.151075999999999
 23
3.177995
 33
0.0
  0
SOLID
  5
EC
330
E5
100
AcDbEntity
  8
0
  6
ByBlock
 62
     0
100
AcDbTrace
 10
5.484112
 20
3.222995
 30
0.0
 11
5.484112
 21
3.132995
 31
0.0
 12
5.754112
 22
3.177995
 32
0.0
 13
5.754112
 23
3.177995
 33
0.0
  0
TEXT
  5
ED
330
E5
100
AcDbEntity
  8
0
  6
ByBlock
 62
     0
100
AcDbText
 10
3.905719
 20
3.084245
 30
0.0
 40
0.1875
  1
P
 41
0.75
 72
     1
 11
3.952594
 21
3.177995
 31
0.0
100
AcDbText
 73
     2
  0
POINT
  5
EE
330
E5
100
AcDbEntity
  8
DEFPOINTS
  6
ByBlock
 62
     0
100
AcDbPoint
 10
2.151075999999999
 20
3.990951999999999
 30
0.0
  0
POINT
  5
EF
330
E5
100
AcDbEntity
  8
DEFPOINTS
  6
ByBlock
 62
     0
100
AcDbPoint
 10
5.754112
 20
3.990951999999999
 30
0.0
  0
POINT
  5
F0
330
E5
100
AcDbEntity
  8
DEFPOINTS
  6
ByBlock
 62
     0
100
AcDbPoint
 10
5.754112
 20
3.177995
 30
0.0
  0
ENDBLK
  5
F1
330
E5
100
AcDbEntity
  8
0
100
AcDbBlockEnd
  0
BLOCK
  5
F3
330
F2
100
AcDbEntity
  8
0
100
AcDbBlockBegin
  2
*D13
 70
     1
 10
0.0
 20
0.0
 30
0.0
  3
*D13
  1

  0
LINE
  5
F4
330
F2
100
AcDbEntity
  8
0
  6
ByBlock
 62
     0
100
AcDbLine
 10
2.056575999999999
 20
3.990951999999999
 30
0.0
 11
1.287335
 21
3.990951999999999
 31
0.0
  0
LINE
  5
F5
330
F2
100
AcDbEntity
  8
0
  6
ByBlock
 62
     0
100
AcDbLine
 10
2.056575999999999
 20
5.190951999999999
 30
0.0
 11
1.287335
 21
5.190951999999999
 31
0.0
  0
LINE
  5
F6
330
F2
100
AcDbEntity
  8
0
  6
ByBlock
 62
     0
100
AcDbLine
 10
1.426835
 20
3.720951999999999
 30
0.0
 11
1.426835
 21
3.450951999999999
 31
0.0
  0
LINE
  5
F7
330
F2
100
AcDbEntity
  8
0
  6
ByBlock
 62
     0
100
AcDbLine
 10
1.426835
 20
5.460951999999999
 30
0.0
 11
1.426835
 21
5.730951999999999
 31
0.0
  0
SOLID
  5
F8
330
F2
100
AcDbEntity
  8
0
  6
ByBlock
 62
     0
100
AcDbTrace
 10
1.381835
 20
3.720951999999999
 30
0.0
 11
1.471835
 21
3.720951999999999
 31
0.0
 12
1.426835
 22
3.990951999999999
 32
0.0
 13
1.426835
 23
3.990951999999999
 33
0.0
  0
SOLID
  5
F9
330
F2
100
AcDbEntity
  8
0
  6
ByBlock
 62
     0
100
AcDbTrace
 10
1.381835
 20
5.460951999999999
 30
0.0
 11
1.471835
 21
5.460951999999999
 31
0.0
 12
1.426835
 22
5.190951999999999
 32
0.0
 13
1.426835
 23
5.190951999999999
 33
0.0
  0
TEXT
  5
FA
330
F2
100
AcDbEntity
  8
0
  6
ByBlock
 62
     0
100
AcDbText
 10
1.37996
 20
4.497201999999999
 30
0.0
 40
0.1875
  1
Q
 41
0.75
 72
     1
 11
1.426835
 21
4.590951999999999
 31
0.0
100
AcDbText
 73
     2
  0
POINT
  5
FB
330
F2
100
AcDbEntity
  8
DEFPOINTS
  6
ByBlock
 62
     0
100
AcDbPoint
 10
2.151075999999999
 20
3.990951999999999
 30
0.0
  0
POINT
  5
FC
330
F2
100
AcDbEntity
  8
DEFPOINTS
  6
ByBlock
 62
     0
100
AcDbPoint
 10
2.151075999999999
 20
5.190951999999999
 30
0.0
  0
POINT
  5
FD
330
F2
100
AcDbEntity
  8
DEFPOINTS
  6
ByBlock
 62
     0
100
AcDbPoint
 10
1.426835
 20
5.190951999999999
 30
0.0
  0
ENDBLK
  5
FE
330
F2
100
AcDbEntity
  8
0
100
AcDbBlockEnd
  0
BLOCK
  5
100
330
FF
100
AcDbEntity
  8
0
100
AcDbBlockBegin
  2
*D14
 70
     1
 10
0.0
 20
0.0
 30
0.0
  3
*D14
  1

  0
LINE
  5
101
330
FF
100
AcDbEntity
  8
0
  6
ByBlock
 62
     0
100
AcDbLine
 10
1.900222
 20
7.318569
 30
0.0
 11
1.900222
 21
6.477522
 31
0.0
  0
LINE
  5
102
330
FF
100
AcDbEntity
  8
0
  6
ByBlock
 62
     0
100
AcDbLine
 10
6.004966
 20
7.318569
 30
0.0
 11
6.004966
 21
6.477522
 31
0.0
  0
LINE
  5
103
330
FF
100
AcDbEntity
  8
0
  6
ByBlock
 62
     0
100
AcDbLine
 10
2.170222
 20
6.617022
 30
0.0
 11
3.770719
 21
6.617022
 31
0.0
  0
LINE
  5
104
330
FF
100
AcDbEntity
  8
0
  6
ByBlock
 62
     0
100
AcDbLine
 10
5.734966
 20
6.617022
 30
0.0
 11
4.134469
 21
6.617022
 31
0.0
  0
SOLID
  5
105
330
FF
100
AcDbEntity
  8
0
  6
ByBlock
 62
     0
100
AcDbTrace
 10
2.170222
 20
6.662022
 30
0.0
 11
2.170222
 21
6.572022
 31
0.0
 12
1.900222
 22
6.617022
 32
0.0
 13
1.900222
 23
6.617022
 33
0.0
  0
SOLID
  5
106
330
FF
100
AcDbEntity
  8
0
  6
ByBlock
 62
     0
100
AcDbTrace
 10
5.734966
 20
6.662022
 30
0.0
 11
5.734966
 21
6.572022
 31
0.0
 12
6.004966
 22
6.617022
 32
0.0
 13
6.004966
 23
6.617022
 33
0.0
  0
TEXT
  5
107
330
FF
100
AcDbEntity
  8
0
  6
ByBlock
 62
     0
100
AcDbText
 10
3.905719
 20
6.523272
 30
0.0
 40
0.1875
  1
D
 41
0.75
 72
     1
 11
3.952594
 21
6.617022
 31
0.0
100
AcDbText
 73
     2
  0
POINT
  5
108
330
FF
100
AcDbEntity
  8
DEFPOINTS
  6
ByBlock
 62
     0
100
AcDbPoint
 10
1.900222
 20
7.413069
 30
0.0
  0
POINT
  5
109
330
FF
100
AcDbEntity
  8
DEFPOINTS
  6
ByBlock
 62
     0
100
AcDbPoint
 10
6.004966
 20
7.413069
 30
0.0
  0
POINT
  5
10A
330
FF
100
AcDbEntity
  8
DEFPOINTS
  6
ByBlock
 62
     0
100
AcDbPoint
 10
6.004966
 20
6.617022
 30
0.0
  0
ENDBLK
  5
10B
330
FF
100
AcDbEntity
  8
0
100
AcDbBlockEnd
  0
BLOCK
  5
10D
330
10C
100
AcDbEntity
  8
0
100
AcDbBlockBegin
  2
*D15
 70
     1
 10
0.0
 20
0.0
 30
0.0
  3
*D15
  1

  0
LINE
  5
10E
330
10C
100
AcDbEntity
  8
0
  6
ByBlock
 62
     0
100
AcDbLine
 10
2.218218999999999
 20
5.482326999999999
 30
0.0
 11
2.218218999999999
 21
6.180968
 31
0.0
  0
LINE
  5
10F
330
10C
100
AcDbEntity
  8
0
  6
ByBlock
 62
     0
100
AcDbLine
 10
5.686969
 20
5.482326999999999
 30
0.0
 11
5.686969
 21
6.180968
 31
0.0
  0
LINE
  5
110
330
10C
100
AcDbEntity
  8
0
  6
ByBlock
 62
     0
100
AcDbLine
 10
2.488218999999999
 20
6.041468
 30
0.0
 11
3.770719
 21
6.041468
 31
0.0
  0
LINE
  5
111
330
10C
100
AcDbEntity
  8
0
  6
ByBlock
 62
     0
100
AcDbLine
 10
5.416968999999999
 20
6.041468
 30
0.0
 11
4.134469
 21
6.041468
 31
0.0
  0
SOLID
  5
112
330
10C
100
AcDbEntity
  8
0
  6
ByBlock
 62
     0
100
AcDbTrace
 10
2.488218999999999
 20
6.086467999999999
 30
0.0
 11
2.488218999999999
 21
5.996468
 31
0.0
 12
2.218218999999999
 22
6.041468
 32
0.0
 13
2.218218999999999
 23
6.041468
 33
0.0
  0
SOLID
  5
113
330
10C
100
AcDbEntity
  8
0
  6
ByBlock
 62
     0
100
AcDbTrace
 10
5.416968999999999
 20
6.086467999999999
 30
0.0
 11
5.416968999999999
 21
5.996468
 31
0.0
 12
5.686969
 22
6.041468
 32
0.0
 13
5.686969
 23
6.041468
 33
0.0
  0
TEXT
  5
114
330
10C
100
AcDbEntity
  8
0
  6
ByBlock
 62
     0
100
AcDbText
 10
3.905719
 20
5.947718
 30
0.0
 40
0.1875
  1
E
 41
0.75
 72
     1
 11
3.952594
 21
6.041468
 31
0.0
100
AcDbText
 73
     2
  0
POINT
  5
115
330
10C
100
AcDbEntity
  8
DEFPOINTS
  6
ByBlock
 62
     0
100
AcDbPoint
 10
2.218218999999999
 20
5.387826999999999
 30
0.0
  0
POINT
  5
116
330
10C
100
AcDbEntity
  8
DEFPOINTS
  6
ByBlock
 62
     0
100
AcDbPoint
 10
5.686969
 20
5.387826999999999
 30
0.0
  0
POINT
  5
117
330
10C
100
AcDbEntity
  8
DEFPOINTS
  6
ByBlock
 62
     0
100
AcDbPoint
 10
5.686969
 20
6.041468
 30
0.0
  0
ENDBLK
  5
118
330
10C
100
AcDbEntity
  8
0
100
AcDbBlockEnd
  0
BLOCK
  5
11A
330
119
100
AcDbEntity
  8
0
100
AcDbBlockBegin
  2
*D16
 70
     1
 10
0.0
 20
0.0
 30
0.0
  3
*D16
  1

  0
LINE
  5
11B
330
119
100
AcDbEntity
  8
0
  6
ByBlock
 62
     0
100
AcDbLine
 10
2.123718999999999
 20
5.387826999999999
 30
0.0
 11
0.865835
 21
5.387826999999999
 31
0.0
  0
LINE
  5
11C
330
119
100
AcDbEntity
  8
0
  6
ByBlock
 62
     0
100
AcDbLine
 10
2.123718999999999
 20
3.794076999999999
 30
0.0
 11
0.865835
 21
3.794076999999999
 31
0.0
  0
LINE
  5
11D
330
119
100
AcDbEntity
  8
0
  6
ByBlock
 62
     0
100
AcDbLine
 10
1.005335
 20
5.117826999999999
 30
0.0
 11
1.005335
 21
4.819701999999999
 31
0.0
  0
LINE
  5
11E
330
119
100
AcDbEntity
  8
0
  6
ByBlock
 62
     0
100
AcDbLine
 10
1.005335
 20
4.064076999999999
 30
0.0
 11
1.005335
 21
4.362201999999999
 31
0.0
  0
SOLID
  5
11F
330
119
100
AcDbEntity
  8
0
  6
ByBlock
 62
     0
100
AcDbTrace
 10
0.960335
 20
5.117826999999999
 30
0.0
 11
1.050335
 21
5.117826999999999
 31
0.0
 12
1.005335
 22
5.387826999999999
 32
0.0
 13
1.005335
 23
5.387826999999999
 33
0.0
  0
SOLID
  5
120
330
119
100
AcDbEntity
  8
0
  6
ByBlock
 62
     0
100
AcDbTrace
 10
0.960335
 20
4.064076999999999
 30
0.0
 11
1.050335
 21
4.064076999999999
 31
0.0
 12
1.005335
 22
3.794076999999999
 32
0.0
 13
1.005335
 23
3.794076999999999
 33
0.0
  0
TEXT
  5
121
330
119
100
AcDbEntity
  8
0
  6
ByBlock
 62
     0
100
AcDbText
 10
0.9584600000000001
 20
4.497201999999999
 30
0.0
 40
0.1875
  1
F
 41
0.75
 72
     1
 11
1.005335
 21
4.590951999999999
 31
0.0
100
AcDbText
 73
     2
  0
POINT
  5
122
330
119
100
AcDbEntity
  8
DEFPOINTS
  6
ByBlock
 62
     0
100
AcDbPoint
 10
2.218218999999999
 20
5.387826999999999
 30
0.0
  0
POINT
  5
123
330
119
100
AcDbEntity
  8
DEFPOINTS
  6
ByBlock
 62
     0
100
AcDbPoint
 10
2.218218999999999
 20
3.794076999999999
 30
0.0
  0
POINT
  5
124
330
119
100
AcDbEntity
  8
DEFPOINTS
  6
ByBlock
 62
     0
100
AcDbPoint
 10
1.005335
 20
3.794076999999999
 30
0.0
  0
ENDBLK
  5
125
330
119
100
AcDbEntity
  8
0
100
AcDbBlockEnd
  0
BLOCK
  5
127
330
126
100
AcDbEntity
  8
0
100
AcDbBlockBegin
  2
*D17
 70
     1
 10
0.0
 20
0.0
 30
0.0
  3
*D17
  1

  0
LINE
  5
128
330
126
100
AcDbEntity
  8
0
  6
ByBlock
 62
     0
100
AcDbLine
 10
13.006076
 20
6.856841
 30
0.0
 11
13.006076
 21
6.318158
 31
0.0
  0
LINE
  5
129
330
126
100
AcDbEntity
  8
0
  6
ByBlock
 62
     0
100
AcDbLine
 10
10.753299
 20
6.853569
 30
0.0
 11
10.753299
 21
6.318158
 31
0.0
  0
LINE
  5
12A
330
126
100
AcDbEntity
  8
0
  6
ByBlock
 62
     0
100
AcDbLine
 10
12.736076
 20
6.457658
 30
0.0
 11
12.061562
 21
6.457658
 31
0.0
  0
LINE
  5
12B
330
126
100
AcDbEntity
  8
0
  6
ByBlock
 62
     0
100
AcDbLine
 10
11.02329899999999
 20
6.457658
 30
0.0
 11
11.69781199999999
 21
6.457658
 31
0.0
  0
SOLID
  5
12C
330
126
100
AcDbEntity
  8
0
  6
ByBlock
 62
     0
100
AcDbTrace
 10
12.736076
 20
6.502658
 30
0.0
 11
12.736076
 21
6.412658
 31
0.0
 12
13.006076
 22
6.457658
 32
0.0
 13
13.006076
 23
6.457658
 33
0.0
  0
SOLID
  5
12D
330
126
100
AcDbEntity
  8
0
  6
ByBlock
 62
     0
100
AcDbTrace
 10
11.02329899999999
 20
6.502658
 30
0.0
 11
11.02329899999999
 21
6.412658
 31
0.0
 12
10.753299
 22
6.457658
 32
0.0
 13
10.753299
 23
6.457658
 33
0.0
  0
TEXT
  5
12E
330
126
100
AcDbEntity
  8
0
  6
ByBlock
 62
     0
100
AcDbText
 10
11.83281199999999
 20
6.363908
 30
0.0
 40
0.1875
  1
H
 41
0.75
 72
     1
 11
11.87968699999999
 21
6.457658
 31
0.0
100
AcDbText
 73
     2
  0
POINT
  5
12F
330
126
100
AcDbEntity
  8
DEFPOINTS
  6
ByBlock
 62
     0
100
AcDbPoint
 10
13.006076
 20
6.951341
 30
0.0625
  0
POINT
  5
130
330
126
100
AcDbEntity
  8
DEFPOINTS
  6
ByBlock
 62
     0
100
AcDbPoint
 10
10.753299
 20
6.948069
 30
0.0625
  0
POINT
  5
131
330
126
100
AcDbEntity
  8
DEFPOINTS
  6
ByBlock
 62
     0
100
AcDbPoint
 10
10.753299
 20
6.457658
 30
-0.0625
  0
ENDBLK
  5
132
330
126
100
AcDbEntity
  8
0
100
AcDbBlockEnd
  0
BLOCK
  5
134
330
133
100
AcDbEntity
  8
0
100
AcDbBlockBegin
  2
*D18
 70
     1
 10
0.0
 20
0.0
 30
0.0
  3
*D18
  1

  0
LINE
  5
135
330
133
100
AcDbEntity
  8
0
  6
ByBlock
 62
     0
100
AcDbLine
 10
10.670451
 20
7.393069
 30
0.0
 11
10.251951
 21
7.393069
 31
0.0
  0
LINE
  5
136
330
133
100
AcDbEntity
  8
0
  6
ByBlock
 62
     0
100
AcDbLine
 10
10.783842
 20
6.823069
 30
0.0
 11
10.251951
 21
6.823069
 31
0.0
  0
LINE
  5
137
330
133
100
AcDbEntity
  8
0
  6
ByBlock
 62
     0
100
AcDbLine
 10
10.391451
 20
7.663069
 30
0.0
 11
10.391451
 21
7.933069
 31
0.0
  0
LINE
  5
138
330
133
100
AcDbEntity
  8
0
  6
ByBlock
 62
     0
100
AcDbLine
 10
10.391451
 20
6.553068999999999
 30
0.0
 11
10.391451
 21
6.283069
 31
0.0
  0
SOLID
  5
139
330
133
100
AcDbEntity
  8
0
  6
ByBlock
 62
     0
100
AcDbTrace
 10
10.346451
 20
7.663069
 30
0.0
 11
10.43645099999999
 21
7.663069
 31
0.0
 12
10.391451
 22
7.393069
 32
0.0
 13
10.391451
 23
7.393069
 33
0.0
  0
SOLID
  5
13A
330
133
100
AcDbEntity
  8
0
  6
ByBlock
 62
     0
100
AcDbTrace
 10
10.346451
 20
6.553068999999999
 30
0.0
 11
10.43645099999999
 21
6.553068999999999
 31
0.0
 12
10.391451
 22
6.823069
 32
0.0
 13
10.391451
 23
6.823069
 33
0.0
  0
TEXT
  5
13B
330
133
100
AcDbEntity
  8
0
  6
ByBlock
 62
     0
100
AcDbText
 10
10.344576
 20
7.014319
 30
0.0
 40
0.1875
  1
J
 41
0.75
 72
     1
 11
10.391451
 21
7.108069
 31
0.0
100
AcDbText
 73
     2
  0
POINT
  5
13C
330
133
100
AcDbEntity
  8
DEFPOINTS
  6
ByBlock
 62
     0
100
AcDbPoint
 10
10.764951
 20
7.393069
 30
0.0625
  0
POINT
  5
13D
330
133
100
AcDbEntity
  8
DEFPOINTS
  6
ByBlock
 62
     0
100
AcDbPoint
 10
10.878342
 20
6.823069
 30
0.0625
  0
POINT
  5
13E
330
133
100
AcDbEntity
  8
DEFPOINTS
  6
ByBlock
 62
     0
100
AcDbPoint
 10
10.391451
 20
6.823069
 30
0.0
  0
ENDBLK
  5
13F
330
133
100
AcDbEntity
  8
0
100
AcDbBlockEnd
  0
BLOCK
  5
141
330
140
100
AcDbEntity
  8
0
100
AcDbBlockBegin
  2
*D19
 70
     1
 10
0.0
 20
0.0
 30
0.0
  3
*D19
  1

  0
LINE
  5
142
330
140
100
AcDbEntity
  8
0
  6
ByBlock
 62
     0
100
AcDbLine
 10
18.786913
 20
7.593068999999999
 30
0.0
 11
19.426189
 21
7.593068999999999
 31
0.0
  0
LINE
  5
143
330
140
100
AcDbEntity
  8
0
  6
ByBlock
 62
     0
100
AcDbLine
 10
18.798984
 20
6.823069
 30
0.0
 11
19.426189
 21
6.823069
 31
0.0
  0
LINE
  5
144
330
140
100
AcDbEntity
  8
0
  6
ByBlock
 62
     0
100
AcDbLine
 10
19.286689
 20
7.863069
 30
0.0
 11
19.286689
 21
8.133069
 31
0.0
  0
LINE
  5
145
330
140
100
AcDbEntity
  8
0
  6
ByBlock
 62
     0
100
AcDbLine
 10
19.286689
 20
6.553068999999999
 30
0.0
 11
19.286689
 21
6.283069
 31
0.0
  0
SOLID
  5
146
330
140
100
AcDbEntity
  8
0
  6
ByBlock
 62
     0
100
AcDbTrace
 10
19.241689
 20
7.863069
 30
0.0
 11
19.331689
 21
7.863069
 31
0.0
 12
19.286689
 22
7.593068999999999
 32
0.0
 13
19.286689
 23
7.593068999999999
 33
0.0
  0
SOLID
  5
147
330
140
100
AcDbEntity
  8
0
  6
ByBlock
 62
     0
100
AcDbTrace
 10
19.241689
 20
6.553068999999999
 30
0.0
 11
19.331689
 21
6.553068999999999
 31
0.0
 12
19.286689
 22
6.823069
 32
0.0
 13
19.286689
 23
6.823069
 33
0.0
  0
TEXT
  5
148
330
140
100
AcDbEntity
  8
0
  6
ByBlock
 62
     0
100
AcDbText
 10
19.239814
 20
7.114319
 30
0.0
 40
0.1875
  1
K
 41
0.75
 72
     1
 11
19.286689
 21
7.208069
 31
0.0
100
AcDbText
 73
     2
  0
POINT
  5
149
330
140
100
AcDbEntity
  8
DEFPOINTS
  6
ByBlock
 62
     0
100
AcDbPoint
 10
18.692413
 20
7.593068999999999
 30
0.0
  0
POINT
  5
14A
330
140
100
AcDbEntity
  8
DEFPOINTS
  6
ByBlock
 62
     0
100
AcDbPoint
 10
18.704484
 20
6.823069
 30
0.0
  0
POINT
  5
14B
330
140
100
AcDbEntity
  8
DEFPOINTS
  6
ByBlock
 62
     0
100
AcDbPoint
 10
19.286689
 20
6.823069
 30
0.0
  0
ENDBLK
  5
14C
330
140
100
AcDbEntity
  8
0
100
AcDbBlockEnd
  0
BLOCK
  5
14E
330
14D
100
AcDbEntity
  8
0
100
AcDbBlockBegin
  2
*D20
 70
     1
 10
0.0
 20
0.0
 30
0.0
  3
*D20
  1

  0
LINE
  5
14F
330
14D
100
AcDbEntity
  8
0
  6
ByBlock
 62
     0
100
AcDbLine
 10
15.400483
 20
9.550986999999999
 30
0.0
 11
15.400483
 21
8.613103999999999
 31
0.0
  0
LINE
  5
150
330
14D
100
AcDbEntity
  8
0
  6
ByBlock
 62
     0
100
AcDbLine
 10
18.302483
 20
9.550986999999999
 30
0.0
 11
18.302483
 21
8.613103999999999
 31
0.0
  0
LINE
  5
151
330
14D
100
AcDbEntity
  8
0
  6
ByBlock
 62
     0
100
AcDbLine
 10
15.67048299999999
 20
8.752603999999999
 30
0.0
 11
16.669608
 21
8.752603999999999
 31
0.0
  0
LINE
  5
152
330
14D
100
AcDbEntity
  8
0
  6
ByBlock
 62
     0
100
AcDbLine
 10
18.03248299999999
 20
8.752603999999999
 30
0.0
 11
17.033358
 21
8.752603999999999
 31
0.0
  0
SOLID
  5
153
330
14D
100
AcDbEntity
  8
0
  6
ByBlock
 62
     0
100
AcDbTrace
 10
15.67048299999999
 20
8.797603999999999
 30
0.0
 11
15.67048299999999
 21
8.707603999999999
 31
0.0
 12
15.400483
 22
8.752603999999999
 32
0.0
 13
15.400483
 23
8.752603999999999
 33
0.0
  0
SOLID
  5
154
330
14D
100
AcDbEntity
  8
0
  6
ByBlock
 62
     0
100
AcDbTrace
 10
18.03248299999999
 20
8.797603999999999
 30
0.0
 11
18.03248299999999
 21
8.707603999999999
 31
0.0
 12
18.302483
 22
8.752603999999999
 32
0.0
 13
18.302483
 23
8.752603999999999
 33
0.0
  0
TEXT
  5
155
330
14D
100
AcDbEntity
  8
0
  6
ByBlock
 62
     0
100
AcDbText
 10
16.80460799999999
 20
8.658853999999999
 30
0.0
 40
0.1875
  1
L
 41
0.75
 72
     1
 11
16.85148299999999
 21
8.752603999999999
 31
0.0
100
AcDbText
 73
     2
  0
POINT
  5
156
330
14D
100
AcDbEntity
  8
DEFPOINTS
  6
ByBlock
 62
     0
100
AcDbPoint
 10
15.400483
 20
9.645486999999999
 30
0.0
  0
POINT
  5
157
330
14D
100
AcDbEntity
  8
DEFPOINTS
  6
ByBlock
 62
     0
100
AcDbPoint
 10
18.302483
 20
9.645486999999999
 30
0.0
  0
POINT
  5
158
330
14D
100
AcDbEntity
  8
DEFPOINTS
  6
ByBlock
 62
     0
100
AcDbPoint
 10
18.302483
 20
8.752603999999999
 30
0.0
  0
ENDBLK
  5
159
330
14D
100
AcDbEntity
  8
0
100
AcDbBlockEnd
  0
BLOCK
  5
15B
330
15A
100
AcDbEntity
  8
0
100
AcDbBlockBegin
  2
*D21
 70
     1
 10
0.0
 20
0.0
 30
0.0
  3
*D21
  1

  0
LINE
  5
15C
330
15A
100
AcDbEntity
  8
0
  6
ByBlock
 62
     0
100
AcDbLine
 10
15.305983
 20
10.67148699999999
 30
0.0
 11
14.183776
 21
10.67148699999999
 31
0.0
  0
LINE
  5
15D
330
15A
100
AcDbEntity
  8
0
  6
ByBlock
 62
     0
100
AcDbLine
 10
15.305983
 20
9.645486999999999
 30
0.0
 11
14.183776
 21
9.645486999999999
 31
0.0
  0
LINE
  5
15E
330
15A
100
AcDbEntity
  8
0
  6
ByBlock
 62
     0
100
AcDbLine
 10
14.323276
 20
10.941487
 30
0.0
 11
14.323276
 21
11.21148699999999
 31
0.0
  0
LINE
  5
15F
330
15A
100
AcDbEntity
  8
0
  6
ByBlock
 62
     0
100
AcDbLine
 10
14.323276
 20
9.375486999999999
 30
0.0
 11
14.323276
 21
9.105487
 31
0.0
  0
SOLID
  5
160
330
15A
100
AcDbEntity
  8
0
  6
ByBlock
 62
     0
100
AcDbTrace
 10
14.278276
 20
10.941487
 30
0.0
 11
14.368276
 21
10.941487
 31
0.0
 12
14.323276
 22
10.67148699999999
 32
0.0
 13
14.323276
 23
10.67148699999999
 33
0.0
  0
SOLID
  5
161
330
15A
100
AcDbEntity
  8
0
  6
ByBlock
 62
     0
100
AcDbTrace
 10
14.278276
 20
9.375486999999999
 30
0.0
 11
14.368276
 21
9.375486999999999
 31
0.0
 12
14.323276
 22
9.645486999999999
 32
0.0
 13
14.323276
 23
9.645486999999999
 33
0.0
  0
TEXT
  5
162
330
15A
100
AcDbEntity
  8
0
  6
ByBlock
 62
     0
100
AcDbText
 10
14.276401
 20
10.06473699999999
 30
0.0
 40
0.1875
  1
M
 41
0.75
 72
     1
 11
14.323276
 21
10.158487
 31
0.0
100
AcDbText
 73
     2
  0
POINT
  5
163
330
15A
100
AcDbEntity
  8
DEFPOINTS
  6
ByBlock
 62
     0
100
AcDbPoint
 10
15.400483
 20
10.67148699999999
 30
0.0
  0
POINT
  5
164
330
15A
100
AcDbEntity
  8
DEFPOINTS
  6
ByBlock
 62
     0
100
AcDbPoint
 10
15.400483
 20
9.645486999999999
 30
0.0
  0
POINT
  5
165
330
15A
100
AcDbEntity
  8
DEFPOINTS
  6
ByBlock
 62
     0
100
AcDbPoint
 10
14.323276
 20
9.645486999999999
 30
0.0
  0
ENDBLK
  5
166
330
15A
100
AcDbEntity
  8
0
100
AcDbBlockEnd
  0
BLOCK
  5
168
330
167
100
AcDbEntity
  8
0
100
AcDbBlockBegin
  2
*D22
 70
     1
 10
0.0
 20
0.0
 30
0.0
  3
*D22
  1

  0
LINE
  5
169
330
167
100
AcDbEntity
  8
0
  6
ByBlock
 62
     0
100
AcDbLine
 10
10.783842
 20
6.823069
 30
0.0
 11
9.830451
 21
6.823069
 31
0.0
  0
LINE
  5
16A
330
167
100
AcDbEntity
  8
0
  6
ByBlock
 62
     0
100
AcDbLine
 10
10.79621199999999
 20
8.313069
 30
0.0
 11
9.830451
 21
8.313069
 31
0.0
  0
LINE
  5
16B
330
167
100
AcDbEntity
  8
0
  6
ByBlock
 62
     0
100
AcDbLine
 10
9.969951
 20
7.093068999999999
 30
0.0
 11
9.969951
 21
7.339319
 31
0.0
  0
LINE
  5
16C
330
167
100
AcDbEntity
  8
0
  6
ByBlock
 62
     0
100
AcDbLine
 10
9.969951
 20
8.043069
 30
0.0
 11
9.969951
 21
7.796819
 31
0.0
  0
SOLID
  5
16D
330
167
100
AcDbEntity
  8
0
  6
ByBlock
 62
     0
100
AcDbTrace
 10
9.924951
 20
7.093068999999999
 30
0.0
 11
10.014951
 21
7.093068999999999
 31
0.0
 12
9.969951
 22
6.823069
 32
0.0
 13
9.969951
 23
6.823069
 33
0.0
  0
SOLID
  5
16E
330
167
100
AcDbEntity
  8
0
  6
ByBlock
 62
     0
100
AcDbTrace
 10
9.924951
 20
8.043069
 30
0.0
 11
10.014951
 21
8.043069
 31
0.0
 12
9.969951
 22
8.313069
 32
0.0
 13
9.969951
 23
8.313069
 33
0.0
  0
TEXT
  5
16F
330
167
100
AcDbEntity
  8
0
  6
ByBlock
 62
     0
100
AcDbText
 10
9.923076
 20
7.474319
 30
0.0
 40
0.1875
  1
N
 41
0.75
 72
     1
 11
9.969951
 21
7.568069
 31
0.0
100
AcDbText
 73
     2
  0
POINT
  5
170
330
167
100
AcDbEntity
  8
DEFPOINTS
  6
ByBlock
 62
     0
100
AcDbPoint
 10
10.878342
 20
6.823069
 30
0.0
  0
POINT
  5
171
330
167
100
AcDbEntity
  8
DEFPOINTS
  6
ByBlock
 62
     0
100
AcDbPoint
 10
10.890712
 20
8.313069
 30
0.0
  0
POINT
  5
172
330
167
100
AcDbEntity
  8
DEFPOINTS
  6
ByBlock
 62
     0
100
AcDbPoint
 10
9.969951
 20
8.313069
 30
0.0
  0
ENDBLK
  5
173
330
167
100
AcDbEntity
  8
0
100
AcDbBlockEnd
  0
BLOCK
  5
175
330
174
100
AcDbEntity
  8
0
100
AcDbBlockBegin
  2
*D23
 70
     1
 10
0.0
 20
0.0
 30
0.0
  3
*D23
  1

  0
LINE
  5
176
330
174
100
AcDbEntity
  8
0
  6
ByBlock
 62
     0
100
AcDbLine
 10
15.11698299999999
 20
3.696951
 30
0.0
 11
15.11698299999999
 21
3.028236999999999
 31
0.0
  0
LINE
  5
177
330
174
100
AcDbEntity
  8
0
  6
ByBlock
 62
     0
100
AcDbLine
 10
18.58598299999999
 20
3.696951
 30
0.0
 11
18.58598299999999
 21
3.028236999999999
 31
0.0
  0
LINE
  5
178
330
174
100
AcDbEntity
  8
0
  6
ByBlock
 62
     0
100
AcDbLine
 10
15.386983
 20
3.167736999999999
 30
0.0
 11
16.669608
 21
3.167736999999999
 31
0.0
  0
LINE
  5
179
330
174
100
AcDbEntity
  8
0
  6
ByBlock
 62
     0
100
AcDbLine
 10
18.31598299999999
 20
3.167736999999999
 30
0.0
 11
17.033358
 21
3.167736999999999
 31
0.0
  0
SOLID
  5
17A
330
174
100
AcDbEntity
  8
0
  6
ByBlock
 62
     0
100
AcDbTrace
 10
15.386983
 20
3.212736999999999
 30
0.0
 11
15.386983
 21
3.122736999999999
 31
0.0
 12
15.11698299999999
 22
3.167736999999999
 32
0.0
 13
15.11698299999999
 23
3.167736999999999
 33
0.0
  0
SOLID
  5
17B
330
174
100
AcDbEntity
  8
0
  6
ByBlock
 62
     0
100
AcDbTrace
 10
18.31598299999999
 20
3.212736999999999
 30
0.0
 11
18.31598299999999
 21
3.122736999999999
 31
0.0
 12
18.58598299999999
 22
3.167736999999999
 32
0.0
 13
18.58598299999999
 23
3.167736999999999
 33
0.0
  0
TEXT
  5
17C
330
174
100
AcDbEntity
  8
0
  6
ByBlock
 62
     0
100
AcDbText
 10
16.80460799999999
 20
3.073986999999999
 30
0.0
 40
0.1875
  1
E
 41
0.75
 72
     1
 11
16.85148299999999
 21
3.167736999999999
 31
0.0
100
AcDbText
 73
     2
  0
POINT
  5
17D
330
174
100
AcDbEntity
  8
DEFPOINTS
  6
ByBlock
 62
     0
100
AcDbPoint
 10
15.11698299999999
 20
3.791451
 30
0.0
  0
POINT
  5
17E
330
174
100
AcDbEntity
  8
DEFPOINTS
  6
ByBlock
 62
     0
100
AcDbPoint
 10
18.58598299999999
 20
3.791451
 30
0.0
  0
POINT
  5
17F
330
174
100
AcDbEntity
  8
DEFPOINTS
  6
ByBlock
 62
     0
100
AcDbPoint
 10
18.58598299999999
 20
3.167736999999999
 30
0.0
  0
ENDBLK
  5
180
330
174
100
AcDbEntity
  8
0
100
AcDbBlockEnd
  0
BLOCK
  5
182
330
181
100
AcDbEntity
  8
0
100
AcDbBlockBegin
  2
*D24
 70
     1
 10
0.0
 20
0.0
 30
0.0
  3
*D24
  1

  0
LINE
  5
183
330
181
100
AcDbEntity
  8
0
  6
ByBlock
 62
     0
100
AcDbLine
 10
18.68048299999999
 20
5.385450999999999
 30
0.0
 11
19.426189
 21
5.385450999999999
 31
0.0
  0
LINE
  5
184
330
181
100
AcDbEntity
  8
0
  6
ByBlock
 62
     0
100
AcDbLine
 10
18.68048299999999
 20
3.791451
 30
0.0
 11
19.426189
 21
3.791451
 31
0.0
  0
LINE
  5
185
330
181
100
AcDbEntity
  8
0
  6
ByBlock
 62
     0
100
AcDbLine
 10
19.286689
 20
5.115451
 30
0.0
 11
19.286689
 21
4.817200999999999
 31
0.0
  0
LINE
  5
186
330
181
100
AcDbEntity
  8
0
  6
ByBlock
 62
     0
100
AcDbLine
 10
19.286689
 20
4.061450999999999
 30
0.0
 11
19.286689
 21
4.359701
 31
0.0
  0
SOLID
  5
187
330
181
100
AcDbEntity
  8
0
  6
ByBlock
 62
     0
100
AcDbTrace
 10
19.241689
 20
5.115451
 30
0.0
 11
19.331689
 21
5.115451
 31
0.0
 12
19.286689
 22
5.385450999999999
 32
0.0
 13
19.286689
 23
5.385450999999999
 33
0.0
  0
SOLID
  5
188
330
181
100
AcDbEntity
  8
0
  6
ByBlock
 62
     0
100
AcDbTrace
 10
19.241689
 20
4.061450999999999
 30
0.0
 11
19.331689
 21
4.061450999999999
 31
0.0
 12
19.286689
 22
3.791451
 32
0.0
 13
19.286689
 23
3.791451
 33
0.0
  0
TEXT
  5
189
330
181
100
AcDbEntity
  8
0
  6
ByBlock
 62
     0
100
AcDbText
 10
19.239814
 20
4.494701
 30
0.0
 40
0.1875
  1
F
 41
0.75
 72
     1
 11
19.286689
 21
4.588451
 31
0.0
100
AcDbText
 73
     2
  0
POINT
  5
18A
330
181
100
AcDbEntity
  8
DEFPOINTS
  6
ByBlock
 62
     0
100
AcDbPoint
 10
18.58598299999999
 20
5.385450999999999
 30
0.0
  0
POINT
  5
18B
330
181
100
AcDbEntity
  8
DEFPOINTS
  6
ByBlock
 62
     0
100
AcDbPoint
 10
18.58598299999999
 20
3.791451
 30
0.0
  0
POINT
  5
18C
330
181
100
AcDbEntity
  8
DEFPOINTS
  6
ByBlock
 62
     0
100
AcDbPoint
 10
19.286689
 20
3.791451
 30
0.0
  0
ENDBLK
  5
18D
330
181
100
AcDbEntity
  8
0
100
AcDbBlockEnd
  0
BLOCK
  5
18F
330
18E
100
AcDbEntity
  8
0
100
AcDbBlockBegin
  2
*D25
 70
     1
 10
0.0
 20
0.0
 30
0.0
  3
*D25
  1

  0
LINE
  5
190
330
18E
100
AcDbEntity
  8
0
  6
ByBlock
 62
     0
100
AcDbLine
 10
14.799204
 20
7.487569
 30
0.0
 11
14.799204
 21
8.011149000000001
 31
0.0
  0
LINE
  5
191
330
18E
100
AcDbEntity
  8
0
  6
ByBlock
 62
     0
100
AcDbLine
 10
18.903762
 20
7.487569
 30
0.0
 11
18.903762
 21
8.011149000000001
 31
0.0
  0
LINE
  5
192
330
18E
100
AcDbEntity
  8
0
  6
ByBlock
 62
     0
100
AcDbLine
 10
15.069204
 20
7.871649
 30
0.0
 11
16.669608
 21
7.871649
 31
0.0
  0
LINE
  5
193
330
18E
100
AcDbEntity
  8
0
  6
ByBlock
 62
     0
100
AcDbLine
 10
18.633762
 20
7.871649
 30
0.0
 11
17.033358
 21
7.871649
 31
0.0
  0
SOLID
  5
194
330
18E
100
AcDbEntity
  8
0
  6
ByBlock
 62
     0
100
AcDbTrace
 10
15.069204
 20
7.916649
 30
0.0
 11
15.069204
 21
7.826649
 31
0.0
 12
14.799204
 22
7.871649
 32
0.0
 13
14.799204
 23
7.871649
 33
0.0
  0
SOLID
  5
195
330
18E
100
AcDbEntity
  8
0
  6
ByBlock
 62
     0
100
AcDbTrace
 10
18.633762
 20
7.916649
 30
0.0
 11
18.633762
 21
7.826649
 31
0.0
 12
18.903762
 22
7.871649
 32
0.0
 13
18.903762
 23
7.871649
 33
0.0
  0
TEXT
  5
196
330
18E
100
AcDbEntity
  8
0
  6
ByBlock
 62
     0
100
AcDbText
 10
16.80460799999999
 20
7.777899
 30
0.0
 40
0.1875
  1
D
 41
0.75
 72
     1
 11
16.85148299999999
 21
7.871649
 31
0.0
100
AcDbText
 73
     2
  0
POINT
  5
197
330
18E
100
AcDbEntity
  8
DEFPOINTS
  6
ByBlock
 62
     0
100
AcDbPoint
 10
14.799204
 20
7.393069
 30
0.0625
  0
POINT
  5
198
330
18E
100
AcDbEntity
  8
DEFPOINTS
  6
ByBlock
 62
     0
100
AcDbPoint
 10
18.903762
 20
7.393069
 30
0.0625
  0
POINT
  5
199
330
18E
100
AcDbEntity
  8
DEFPOINTS
  6
ByBlock
 62
     0
100
AcDbPoint
 10
18.903762
 20
7.871649
 30
0.0625
  0
ENDBLK
  5
19A
330
18E
100
AcDbEntity
  8
0
100
AcDbBlockEnd
  0
BLOCK
  5
19C
330
19B
100
AcDbEntity
  8
0
100
AcDbBlockBegin
  2
*D26
 70
     1
 10
0.0
 20
0.0
 30
0.0
  3
*D26
  1

  0
LINE
  5
19D
330
19B
100
AcDbEntity
  8
0
  6
ByBlock
 62
     0
100
AcDbLine
 10
14.787551
 20
6.853569
 30
0.0
 11
14.787551
 21
5.896658
 31
0.0
  0
LINE
  5
19E
330
19B
100
AcDbEntity
  8
0
  6
ByBlock
 62
     0
100
AcDbLine
 10
18.91532899999999
 20
6.856841
 30
0.0
 11
18.91532899999999
 21
5.896658
 31
0.0
  0
LINE
  5
19F
330
19B
100
AcDbEntity
  8
0
  6
ByBlock
 62
     0
100
AcDbLine
 10
15.057551
 20
6.036158
 30
0.0
 11
16.66956499999999
 21
6.036158
 31
0.0
  0
LINE
  5
1A0
330
19B
100
AcDbEntity
  8
0
  6
ByBlock
 62
     0
100
AcDbLine
 10
18.645329
 20
6.036158
 30
0.0
 11
17.03331499999999
 21
6.036158
 31
0.0
  0
SOLID
  5
1A1
330
19B
100
AcDbEntity
  8
0
  6
ByBlock
 62
     0
100
AcDbTrace
 10
15.057551
 20
6.081158
 30
0.0
 11
15.057551
 21
5.991158
 31
0.0
 12
14.787551
 22
6.036158
 32
0.0
 13
14.787551
 23
6.036158
 33
0.0
  0
SOLID
  5
1A2
330
19B
100
AcDbEntity
  8
0
  6
ByBlock
 62
     0
100
AcDbTrace
 10
18.645329
 20
6.081158
 30
0.0
 11
18.645329
 21
5.991158
 31
0.0
 12
18.91532899999999
 22
6.036158
 32
0.0
 13
18.91532899999999
 23
6.036158
 33
0.0
  0
TEXT
  5
1A3
330
19B
100
AcDbEntity
  8
0
  6
ByBlock
 62
     0
100
AcDbText
 10
16.804565
 20
5.942408
 30
0.0
 40
0.1875
  1
G
 41
0.75
 72
     1
 11
16.85144
 21
6.036158
 31
0.0
100
AcDbText
 73
     2
  0
POINT
  5
1A4
330
19B
100
AcDbEntity
  8
DEFPOINTS
  6
ByBlock
 62
     0
100
AcDbPoint
 10
14.787551
 20
6.948069
 30
0.0625
  0
POINT
  5
1A5
330
19B
100
AcDbEntity
  8
DEFPOINTS
  6
ByBlock
 62
     0
100
AcDbPoint
 10
18.91532899999999
 20
6.951341
 30
0.0625
  0
POINT
  5
1A6
330
19B
100
AcDbEntity
  8
DEFPOINTS
  6
ByBlock
 62
     0
100
AcDbPoint
 10
18.91532899999999
 20
6.036158
 30
-0.0625
  0
ENDBLK
  5
1A7
330
19B
100
AcDbEntity
  8
0
100
AcDbBlockEnd
  0
BLOCK
  5
1C0
330
1B5
100
AcDbEntity
  8
0
100
AcDbBlockBegin
  2
*D27
 70
     1
 10
0.0
 20
0.0
 30
0.0
  3
*D27
  1

  0
LINE
  5
1B6
330
1B5
100
AcDbEntity
  8
DIM
 62
     0
370
    -2
100
AcDbLine
 10
1.921111999999999
 20
8.305317999999999
 30
0.0
 11
1.921111999999999
 21
8.731569
 31
0.0
  0
LINE
  5
1B7
330
1B5
100
AcDbEntity
  8
DIM
 62
     0
370
    -2
100
AcDbLine
 10
5.984075999999999
 20
8.305317999999999
 30
0.0
 11
5.984075999999999
 21
8.731569
 31
0.0
  0
LINE
  5
1B8
330
1B5
100
AcDbEntity
  8
DIM
 62
     0
370
    -2
100
AcDbLine
 10
2.191111999999999
 20
8.592069
 30
0.0
 11
3.770719
 21
8.592069
 31
0.0
  0
LINE
  5
1B9
330
1B5
100
AcDbEntity
  8
DIM
 62
     0
370
    -2
100
AcDbLine
 10
5.714076
 20
8.592069
 30
0.0
 11
4.134469
 21
8.592069
 31
0.0
  0
SOLID
  5
1BA
330
1B5
100
AcDbEntity
  8
DIM
 62
     0
100
AcDbTrace
 10
2.191111999999999
 20
8.637069
 30
0.0
 11
2.191111999999999
 21
8.547069
 31
0.0
 12
1.921111999999999
 22
8.592069
 32
0.0
 13
1.921111999999999
 23
8.592069
 33
0.0
  0
SOLID
  5
1BB
330
1B5
100
AcDbEntity
  8
DIM
 62
     0
100
AcDbTrace
 10
5.714076
 20
8.637069
 30
0.0
 11
5.714076
 21
8.547069
 31
0.0
 12
5.984075999999999
 22
8.592069
 32
0.0
 13
5.984075999999999
 23
8.592069
 33
0.0
  0
MTEXT
  5
1BC
330
1B5
100
AcDbEntity
  8
DIM
 62
     0
100
AcDbMText
 10
3.952594
 20
8.592069
 30
0.0
 40
0.1875
 41
0.0
 71
     5
 72
     1
  1
\A1;A
  7
TXT
 73
     1
 44
1.0
  0
POINT
  5
1BD
330
1B5
100
AcDbEntity
  8
DEFPOINTS
 62
     0
100
AcDbPoint
 10
1.921111999999999
 20
8.210817999999999
 30
0.0
  0
POINT
  5
1BE
330
1B5
100
AcDbEntity
  8
DEFPOINTS
 62
     0
100
AcDbPoint
 10
5.984075999999999
 20
8.210817999999999
 30
0.0
  0
POINT
  5
1BF
330
1B5
100
AcDbEntity
  8
DEFPOINTS
 62
     0
100
AcDbPoint
 10
5.984075999999999
 20
8.592069
 30
0.0
  0
ENDBLK
  5
1C1
330
1B5
100
AcDbEntity
  8
0
100
AcDbBlockEnd
  0
BLOCK
  5
1CE
330
1C3
100
AcDbEntity
  8
0
100
AcDbBlockBegin
  2
*D28
 70
     1
 10
0.0
 20
0.0
 30
0.0
  3
*D28
  1

  0
LINE
  5
1C4
330
1C3
100
AcDbEntity
  8
DIM
 62
     0
370
    -2
100
AcDbLine
 10
1.900222
 20
7.318569
 30
0.0
 11
1.900222
 21
6.477522
 31
0.0
  0
LINE
  5
1C5
330
1C3
100
AcDbEntity
  8
DIM
 62
     0
370
    -2
100
AcDbLine
 10
6.004966
 20
7.318569
 30
0.0
 11
6.004966
 21
6.477522
 31
0.0
  0
LINE
  5
1C6
330
1C3
100
AcDbEntity
  8
DIM
 62
     0
370
    -2
100
AcDbLine
 10
2.170221999999999
 20
6.617022
 30
0.0
 11
3.770718999999999
 21
6.617022
 31
0.0
  0
LINE
  5
1C7
330
1C3
100
AcDbEntity
  8
DIM
 62
     0
370
    -2
100
AcDbLine
 10
5.734966
 20
6.617022
 30
0.0
 11
4.134469
 21
6.617022
 31
0.0
  0
SOLID
  5
1C8
330
1C3
100
AcDbEntity
  8
DIM
 62
     0
100
AcDbTrace
 10
2.170221999999999
 20
6.662022
 30
0.0
 11
2.170221999999999
 21
6.572022
 31
0.0
 12
1.900222
 22
6.617022
 32
0.0
 13
1.900222
 23
6.617022
 33
0.0
  0
SOLID
  5
1C9
330
1C3
100
AcDbEntity
  8
DIM
 62
     0
100
AcDbTrace
 10
5.734966
 20
6.662022
 30
0.0
 11
5.734966
 21
6.572022
 31
0.0
 12
6.004966
 22
6.617022
 32
0.0
 13
6.004966
 23
6.617022
 33
0.0
  0
MTEXT
  5
1CA
330
1C3
100
AcDbEntity
  8
DIM
 62
     0
100
AcDbMText
 10
3.952593999999999
 20
6.617022
 30
0.0
 40
0.1875
 41
0.0
 71
     5
 72
     1
  1
\A1;D
  7
TXT
 73
     1
 44
1.0
  0
POINT
  5
1CB
330
1C3
100
AcDbEntity
  8
DEFPOINTS
 62
     0
100
AcDbPoint
 10
1.900222
 20
7.413069
 30
0.0
  0
POINT
  5
1CC
330
1C3
100
AcDbEntity
  8
DEFPOINTS
 62
     0
100
AcDbPoint
 10
6.004966
 20
7.413069
 30
0.0
  0
POINT
  5
1CD
330
1C3
100
AcDbEntity
  8
DEFPOINTS
 62
     0
100
AcDbPoint
 10
6.004966
 20
6.617022
 30
0.0
  0
ENDBLK
  5
1CF
330
1C3
100
AcDbEntity
  8
0
100
AcDbBlockEnd
  0
BLOCK
  5
1DD
330
1D2
100
AcDbEntity
  8
0
100
AcDbBlockBegin
  2
*D29
 70
     1
 10
0.0
 20
0.0
 30
0.0
  3
*D29
  1

  0
LINE
  5
5C5
330
1D2
100
AcDbEntity
  8
DIM
 62
     0
370
    -2
100
AcDbLine
 10
5.973612
 20
8.243069
 30
0.0
 11
6.425453
 21
8.243069
 31
0.0
  0
LINE
  5
5C6
330
1D2
100
AcDbEntity
  8
DIM
 62
     0
370
    -2
100
AcDbLine
 10
5.973612
 20
8.313069
 30
0.0
 11
6.425453
 21
8.313069
 31
0.0
  0
LINE
  5
5C7
330
1D2
100
AcDbEntity
  8
DIM
 62
     0
370
    -2
100
AcDbLine
 10
6.285953
 20
7.973069
 30
0.0
 11
6.285953
 21
7.703069
 31
0.0
  0
LINE
  5
5C8
330
1D2
100
AcDbEntity
  8
DIM
 62
     0
370
    -2
100
AcDbLine
 10
6.285953
 20
8.583069
 30
0.0
 11
6.285953
 21
8.853068999999999
 31
0.0
  0
MTEXT
  5
5C9
330
1D2
100
AcDbEntity
  8
DIM
 62
     0
100
AcDbMText
 10
6.867952999999999
 20
9.017174843281786
 30
0.0
 40
0.1875
 41
0.0
 71
     5
 72
     1
  1
\A1;0.070 TYP.
  7
TXT
 73
     1
 44
1.0
  0
SOLID
  5
5CA
330
1D2
100
AcDbEntity
  8
DIM
 62
     0
100
AcDbTrace
 10
6.240953
 20
7.973069
 30
0.0
 11
6.330953
 21
7.973069
 31
0.0
 12
6.285953
 22
8.243069
 32
0.0
 13
6.285953
 23
8.243069
 33
0.0
  0
SOLID
  5
5CB
330
1D2
100
AcDbEntity
  8
DIM
 62
     0
100
AcDbTrace
 10
6.240953
 20
8.583069
 30
0.0
 11
6.330953
 21
8.583069
 31
0.0
 12
6.285953
 22
8.313069
 32
0.0
 13
6.285953
 23
8.313069
 33
0.0
  0
POINT
  5
5CC
330
1D2
100
AcDbEntity
  8
DEFPOINTS
 62
     0
100
AcDbPoint
 10
5.879112
 20
8.243069
 30
0.0
  0
POINT
  5
5CD
330
1D2
100
AcDbEntity
  8
DEFPOINTS
 62
     0
100
AcDbPoint
 10
5.879112
 20
8.313069
 30
0.0
  0
POINT
  5
5CE
330
1D2
100
AcDbEntity
  8
DEFPOINTS
 62
     0
100
AcDbPoint
 10
6.285953
 20
8.313069
 30
0.0
  0
ENDBLK
  5
1DE
330
1D2
100
AcDbEntity
  8
0
100
AcDbBlockEnd
  0
BLOCK
  5
1EC
330
1E1
100
AcDbEntity
  8
0
100
AcDbBlockBegin
  2
*D30
 70
     1
 10
0.0
 20
0.0
 30
0.0
  3
*D30
  1

  0
LINE
  5
1E2
330
1E1
100
AcDbEntity
  8
DIM
 62
     0
370
    -2
100
AcDbLine
 10
12.963248
 20
8.313069
 30
0.0
 11
13.50760199999999
 21
8.313069
 31
0.0
  0
LINE
  5
1E3
330
1E1
100
AcDbEntity
  8
DIM
 62
     0
370
    -2
100
AcDbLine
 10
13.089102
 20
7.413069
 30
0.0
 11
13.50760199999999
 21
7.413069
 31
0.0
  0
LINE
  5
1E4
330
1E1
100
AcDbEntity
  8
DIM
 62
     0
370
    -2
100
AcDbLine
 10
13.36810199999999
 20
8.583069
 30
0.0
 11
13.36810199999999
 21
8.853069000000001
 31
0.0
  0
LINE
  5
1E5
330
1E1
100
AcDbEntity
  8
DIM
 62
     0
370
    -2
100
AcDbLine
 10
13.36810199999999
 20
7.143068999999999
 30
0.0
 11
13.36810199999999
 21
6.873069
 31
0.0
  0
SOLID
  5
1E6
330
1E1
100
AcDbEntity
  8
DIM
 62
     0
100
AcDbTrace
 10
13.323102
 20
8.583069
 30
0.0
 11
13.41310199999999
 21
8.583069
 31
0.0
 12
13.36810199999999
 22
8.313069
 32
0.0
 13
13.36810199999999
 23
8.313069
 33
0.0
  0
SOLID
  5
1E7
330
1E1
100
AcDbEntity
  8
DIM
 62
     0
100
AcDbTrace
 10
13.323102
 20
7.143068999999999
 30
0.0
 11
13.41310199999999
 21
7.143068999999999
 31
0.0
 12
13.36810199999999
 22
7.413069
 32
0.0
 13
13.36810199999999
 23
7.413069
 33
0.0
  0
MTEXT
  5
1E8
330
1E1
100
AcDbEntity
  8
DIM
 62
     0
100
AcDbMText
 10
13.36810199999999
 20
7.863069000000002
 30
0.0
 40
0.1875
 41
0.0
 71
     5
 72
     1
  1
\A1;C
  7
TXT
 73
     1
 44
1.0
  0
POINT
  5
1E9
330
1E1
100
AcDbEntity
  8
DEFPOINTS
 62
     0
100
AcDbPoint
 10
12.868748
 20
8.313069
 30
0.125
  0
POINT
  5
1EA
330
1E1
100
AcDbEntity
  8
DEFPOINTS
 62
     0
100
AcDbPoint
 10
12.994602
 20
7.413069
 30
0.125
  0
POINT
  5
1EB
330
1E1
100
AcDbEntity
  8
DEFPOINTS
 62
     0
100
AcDbPoint
 10
13.36810199999999
 20
7.413069
 30
0.0
  0
ENDBLK
  5
1ED
330
1E1
100
AcDbEntity
  8
0
100
AcDbBlockEnd
  0
BLOCK
  5
1FA
330
1EF
100
AcDbEntity
  8
0
100
AcDbBlockBegin
  2
*D31
 70
     1
 10
0.0
 20
0.0
 30
0.0
  3
*D31
  1

  0
LINE
  5
1F0
330
1EF
100
AcDbEntity
  8
DIM
 62
     0
370
    -2
100
AcDbLine
 10
12.97371199999999
 20
8.305317999999999
 30
0.0
 11
12.97371199999999
 21
8.731569
 31
0.0
  0
LINE
  5
1F1
330
1EF
100
AcDbEntity
  8
DIM
 62
     0
370
    -2
100
AcDbLine
 10
10.78574799999999
 20
8.305317999999999
 30
0.0
 11
10.78574799999999
 21
8.731569
 31
0.0
  0
LINE
  5
1F2
330
1EF
100
AcDbEntity
  8
DIM
 62
     0
370
    -2
100
AcDbLine
 10
12.703712
 20
8.592069
 30
0.0
 11
12.06160499999999
 21
8.592069
 31
0.0
  0
LINE
  5
1F3
330
1EF
100
AcDbEntity
  8
DIM
 62
     0
370
    -2
100
AcDbLine
 10
11.055748
 20
8.592069
 30
0.0
 11
11.69785499999999
 21
8.592069
 31
0.0
  0
SOLID
  5
1F4
330
1EF
100
AcDbEntity
  8
DIM
 62
     0
100
AcDbTrace
 10
12.703712
 20
8.637069
 30
0.0
 11
12.703712
 21
8.547069
 31
0.0
 12
12.97371199999999
 22
8.592069
 32
0.0
 13
12.97371199999999
 23
8.592069
 33
0.0
  0
SOLID
  5
1F5
330
1EF
100
AcDbEntity
  8
DIM
 62
     0
100
AcDbTrace
 10
11.055748
 20
8.637069
 30
0.0
 11
11.055748
 21
8.547069
 31
0.0
 12
10.78574799999999
 22
8.592069
 32
0.0
 13
10.78574799999999
 23
8.592069
 33
0.0
  0
MTEXT
  5
1F6
330
1EF
100
AcDbEntity
  8
DIM
 62
     0
100
AcDbMText
 10
11.87972999999999
 20
8.592069
 30
0.0
 40
0.1875
 41
0.0
 71
     5
 72
     1
  1
\A1;B
  7
TXT
 73
     1
 44
1.0
  0
POINT
  5
1F7
330
1EF
100
AcDbEntity
  8
DEFPOINTS
 62
     0
100
AcDbPoint
 10
12.97371199999999
 20
8.210817999999999
 30
0.0
  0
POINT
  5
1F8
330
1EF
100
AcDbEntity
  8
DEFPOINTS
 62
     0
100
AcDbPoint
 10
10.78574799999999
 20
8.210817999999999
 30
0.0
  0
POINT
  5
1F9
330
1EF
100
AcDbEntity
  8
DEFPOINTS
 62
     0
100
AcDbPoint
 10
10.78574799999999
 20
8.592069
 30
0.0
  0
ENDBLK
  5
1FB
330
1EF
100
AcDbEntity
  8
0
100
AcDbBlockEnd
  0
BLOCK
  5
250
330
245
100
AcDbEntity
  8
0
100
AcDbBlockBegin
  2
*D32
 70
     1
 10
0.0
 20
0.0
 30
0.0
  3
*D32
  1

  0
LINE
  5
246
330
245
100
AcDbEntity
  8
DIM
 62
     0
370
    -2
100
AcDbLine
 10
2.218218999999999
 20
5.482326999999999
 30
0.0
 11
2.218218999999999
 21
6.180968
 31
0.0
  0
LINE
  5
247
330
245
100
AcDbEntity
  8
DIM
 62
     0
370
    -2
100
AcDbLine
 10
5.686969
 20
5.482326999999999
 30
0.0
 11
5.686969
 21
6.180968
 31
0.0
  0
LINE
  5
248
330
245
100
AcDbEntity
  8
DIM
 62
     0
370
    -2
100
AcDbLine
 10
2.488218999999999
 20
6.041468
 30
0.0
 11
3.770718999999999
 21
6.041468
 31
0.0
  0
LINE
  5
249
330
245
100
AcDbEntity
  8
DIM
 62
     0
370
    -2
100
AcDbLine
 10
5.416968999999999
 20
6.041468
 30
0.0
 11
4.134469
 21
6.041468
 31
0.0
  0
SOLID
  5
24A
330
245
100
AcDbEntity
  8
DIM
 62
     0
100
AcDbTrace
 10
2.488218999999999
 20
6.086467999999999
 30
0.0
 11
2.488218999999999
 21
5.996468
 31
0.0
 12
2.218218999999999
 22
6.041468
 32
0.0
 13
2.218218999999999
 23
6.041468
 33
0.0
  0
SOLID
  5
24B
330
245
100
AcDbEntity
  8
DIM
 62
     0
100
AcDbTrace
 10
5.416968999999999
 20
6.086467999999999
 30
0.0
 11
5.416968999999999
 21
5.996468
 31
0.0
 12
5.686969
 22
6.041468
 32
0.0
 13
5.686969
 23
6.041468
 33
0.0
  0
MTEXT
  5
24C
330
245
100
AcDbEntity
  8
DIM
 62
     0
100
AcDbMText
 10
3.952593999999999
 20
6.041468
 30
0.0
 40
0.1875
 41
0.0
 71
     5
 72
     1
  1
\A1;E
  7
TXT
 73
     1
 44
1.0
  0
POINT
  5
24D
330
245
100
AcDbEntity
  8
DEFPOINTS
 62
     0
100
AcDbPoint
 10
2.218218999999999
 20
5.387826999999999
 30
0.0
  0
POINT
  5
24E
330
245
100
AcDbEntity
  8
DEFPOINTS
 62
     0
100
AcDbPoint
 10
5.686969
 20
5.387826999999999
 30
0.0
  0
POINT
  5
24F
330
245
100
AcDbEntity
  8
DEFPOINTS
 62
     0
100
AcDbPoint
 10
5.686969
 20
6.041468
 30
0.0
  0
ENDBLK
  5
251
330
245
100
AcDbEntity
  8
0
100
AcDbBlockEnd
  0
BLOCK
  5
25E
330
253
100
AcDbEntity
  8
0
100
AcDbBlockBegin
  2
*D33
 70
     1
 10
0.0
 20
0.0
 30
0.0
  3
*D33
  1

  0
LINE
  5
254
330
253
100
AcDbEntity
  8
DIM
 62
     0
370
    -2
100
AcDbLine
 10
2.123718999999999
 20
5.387826999999999
 30
0.0
 11
0.8658350000000003
 21
5.387827
 31
0.0
  0
LINE
  5
255
330
253
100
AcDbEntity
  8
DIM
 62
     0
370
    -2
100
AcDbLine
 10
2.123718999999999
 20
3.794076999999999
 30
0.0
 11
0.8658350000000002
 21
3.794077
 31
0.0
  0
LINE
  5
256
330
253
100
AcDbEntity
  8
DIM
 62
     0
370
    -2
100
AcDbLine
 10
1.005335
 20
5.117827
 30
0.0
 11
1.005335
 21
4.819701999999999
 31
0.0
  0
LINE
  5
257
330
253
100
AcDbEntity
  8
DIM
 62
     0
370
    -2
100
AcDbLine
 10
1.005335
 20
4.064077
 30
0.0
 11
1.005335
 21
4.362201999999999
 31
0.0
  0
SOLID
  5
258
330
253
100
AcDbEntity
  8
DIM
 62
     0
100
AcDbTrace
 10
0.9603350000000002
 20
5.117827
 30
0.0
 11
1.050335
 21
5.117827
 31
0.0
 12
1.005335
 22
5.387827
 32
0.0
 13
1.005335
 23
5.387827
 33
0.0
  0
SOLID
  5
259
330
253
100
AcDbEntity
  8
DIM
 62
     0
100
AcDbTrace
 10
0.960335
 20
4.064077
 30
0.0
 11
1.050335
 21
4.064077
 31
0.0
 12
1.005335
 22
3.794076999999999
 32
0.0
 13
1.005335
 23
3.794076999999999
 33
0.0
  0
MTEXT
  5
25A
330
253
100
AcDbEntity
  8
DIM
 62
     0
100
AcDbMText
 10
1.005334999999999
 20
4.590951999999999
 30
0.0
 40
0.1875
 41
0.0
 71
     5
 72
     1
  1
\A1;F
  7
TXT
 73
     1
 44
1.0
  0
POINT
  5
25B
330
253
100
AcDbEntity
  8
DEFPOINTS
 62
     0
100
AcDbPoint
 10
2.218218999999999
 20
5.387826999999999
 30
0.0
  0
POINT
  5
25C
330
253
100
AcDbEntity
  8
DEFPOINTS
 62
     0
100
AcDbPoint
 10
2.218218999999999
 20
3.794076999999999
 30
0.0
  0
POINT
  5
25D
330
253
100
AcDbEntity
  8
DEFPOINTS
 62
     0
100
AcDbPoint
 10
1.005335
 20
3.794076999999999
 30
0.0
  0
ENDBLK
  5
25F
330
253
100
AcDbEntity
  8
0
100
AcDbBlockEnd
  0
BLOCK
  5
2A8
330
29D
100
AcDbEntity
  8
0
100
AcDbBlockBegin
  2
*D34
 70
     1
 10
0.0
 20
0.0
 30
0.0
  3
*D34
  1

  0
LINE
  5
601
330
29D
100
AcDbEntity
  8
DIM
 62
     0
370
    -2
100
AcDbLine
 10
1.900222
 20
7.318569
 30
0.0
 11
1.900222
 21
6.899022
 31
0.0
  0
LINE
  5
602
330
29D
100
AcDbEntity
  8
DIM
 62
     0
370
    -2
100
AcDbLine
 10
1.940236
 20
7.318569
 30
0.0
 11
1.940236
 21
6.899022
 31
0.0
  0
LINE
  5
603
330
29D
100
AcDbEntity
  8
DIM
 62
     0
370
    -2
100
AcDbLine
 10
1.630222
 20
7.038522
 30
0.0
 11
1.360222
 21
7.038522
 31
0.0
  0
LINE
  5
604
330
29D
100
AcDbEntity
  8
DIM
 62
     0
370
    -2
100
AcDbLine
 10
2.210236
 20
7.038522
 30
0.0
 11
2.480236
 21
7.038522
 31
0.0
  0
MTEXT
  5
605
330
29D
100
AcDbEntity
  8
DIM
 62
     0
100
AcDbMText
 10
0.7589703693999397
 20
7.017136171524953
 30
0.0
 40
0.1875
 41
0.0
 71
     5
 72
     1
  1
\A1;0.040 TYP.
  7
TXT
 73
     1
 44
1.0
  0
SOLID
  5
606
330
29D
100
AcDbEntity
  8
DIM
 62
     0
100
AcDbTrace
 10
1.630222
 20
7.083522
 30
0.0
 11
1.630222
 21
6.993522
 31
0.0
 12
1.900222
 22
7.038522
 32
0.0
 13
1.900222
 23
7.038522
 33
0.0
  0
SOLID
  5
607
330
29D
100
AcDbEntity
  8
DIM
 62
     0
100
AcDbTrace
 10
2.210236
 20
7.083522
 30
0.0
 11
2.210236
 21
6.993522
 31
0.0
 12
1.940236
 22
7.038522
 32
0.0
 13
1.940236
 23
7.038522
 33
0.0
  0
POINT
  5
608
330
29D
100
AcDbEntity
  8
DEFPOINTS
 62
     0
100
AcDbPoint
 10
1.900222
 20
7.413069
 30
0.0
  0
POINT
  5
609
330
29D
100
AcDbEntity
  8
DEFPOINTS
 62
     0
100
AcDbPoint
 10
1.940236
 20
7.413069
 30
0.0
  0
POINT
  5
60A
330
29D
100
AcDbEntity
  8
DEFPOINTS
 62
     0
100
AcDbPoint
 10
1.940236
 20
7.038522
 30
0.0
  0
ENDBLK
  5
2A9
330
29D
100
AcDbEntity
  8
0
100
AcDbBlockEnd
  0
BLOCK
  5
2C6
330
2BB
100
AcDbEntity
  8
0
100
AcDbBlockBegin
  2
*D35
 70
     1
 10
0.0
 20
0.0
 30
0.0
  3
*D35
  1

  0
LINE
  5
5D9
330
2BB
100
AcDbEntity
  8
DIM
  6
Continuous
 62
     0
370
    -2
100
AcDbLine
 10
6.099466
 20
7.413069
 30
0.0
 11
6.846953
 21
7.413069
 31
0.0
  0
LINE
  5
5DA
330
2BB
100
AcDbEntity
  8
DIM
  6
Continuous
 62
     0
370
    -2
100
AcDbLine
 10
6.094568999999999
 20
7.600069
 30
0.0
 11
6.846953
 21
7.600069
 31
0.0
  0
LINE
  5
5DB
330
2BB
100
AcDbEntity
  8
DIM
  6
Continuous
 62
     0
370
    -2
100
AcDbLine
 10
6.707453
 20
7.143069
 30
0.0
 11
6.707453
 21
6.873069
 31
0.0
  0
LINE
  5
5DC
330
2BB
100
AcDbEntity
  8
DIM
  6
Continuous
 62
     0
370
    -2
100
AcDbLine
 10
6.707453
 20
7.870069
 30
0.0
 11
6.707453
 21
8.140069
 31
0.0
  0
MTEXT
  5
5DD
330
2BB
100
AcDbEntity
  8
DIM
  6
Continuous
 62
     0
100
AcDbMText
 10
7.95059190351754
 20
8.304683679147025
 30
0.0
 40
0.1875
 41
0.0
 71
     5
 72
     1
  1
\A1;0.187 POLISHED BAND
  7
TXT
 73
     1
 44
1.0
  0
SOLID
  5
5DE
330
2BB
100
AcDbEntity
  8
DIM
  6
Continuous
 62
     0
100
AcDbTrace
 10
6.662453
 20
7.143069
 30
0.0
 11
6.752453
 21
7.143069
 31
0.0
 12
6.707453
 22
7.413069
 32
0.0
 13
6.707453
 23
7.413069
 33
0.0
  0
SOLID
  5
5DF
330
2BB
100
AcDbEntity
  8
DIM
  6
Continuous
 62
     0
100
AcDbTrace
 10
6.662453
 20
7.870069
 30
0.0
 11
6.752453
 21
7.870069
 31
0.0
 12
6.707453
 22
7.600069
 32
0.0
 13
6.707453
 23
7.600069
 33
0.0
  0
POINT
  5
5E0
330
2BB
100
AcDbEntity
  8
DEFPOINTS
  6
Continuous
 62
     0
100
AcDbPoint
 10
6.004966
 20
7.413069
 30
0.0
  0
POINT
  5
5E1
330
2BB
100
AcDbEntity
  8
DEFPOINTS
  6
Continuous
 62
     0
100
AcDbPoint
 10
6.000068999999999
 20
7.600069
 30
0.0
  0
POINT
  5
5E2
330
2BB
100
AcDbEntity
  8
DEFPOINTS
  6
Continuous
 62
     0
100
AcDbPoint
 10
6.707453
 20
7.600069
 30
0.0
  0
ENDBLK
  5
2C7
330
2BB
100
AcDbEntity
  8
0
100
AcDbBlockEnd
  0
BLOCK
  5
2D4
330
2C9
100
AcDbEntity
  8
0
100
AcDbBlockBegin
  2
*D36
 70
     1
 10
0.0
 20
0.0
 30
0.0
  3
*D36
  1

  0
LINE
  5
2CA
330
2C9
100
AcDbEntity
  8
DIM
 62
     0
370
    -2
100
AcDbLine
 10
2.151075999999999
 20
3.896451999999999
 30
0.0
 11
2.151075999999999
 21
3.038495
 31
0.0
  0
LINE
  5
2CB
330
2C9
100
AcDbEntity
  8
DIM
 62
     0
370
    -2
100
AcDbLine
 10
5.754112
 20
3.896451999999999
 30
0.0
 11
5.754112
 21
3.038495
 31
0.0
  0
LINE
  5
2CC
330
2C9
100
AcDbEntity
  8
DIM
 62
     0
370
    -2
100
AcDbLine
 10
2.421075999999999
 20
3.177995
 30
0.0
 11
3.770718999999999
 21
3.177995
 31
0.0
  0
LINE
  5
2CD
330
2C9
100
AcDbEntity
  8
DIM
 62
     0
370
    -2
100
AcDbLine
 10
5.484111999999999
 20
3.177995
 30
0.0
 11
4.134468999999999
 21
3.177995
 31
0.0
  0
SOLID
  5
2CE
330
2C9
100
AcDbEntity
  8
DIM
 62
     0
100
AcDbTrace
 10
2.421075999999999
 20
3.222995
 30
0.0
 11
2.421075999999999
 21
3.132995
 31
0.0
 12
2.151075999999999
 22
3.177995
 32
0.0
 13
2.151075999999999
 23
3.177995
 33
0.0
  0
SOLID
  5
2CF
330
2C9
100
AcDbEntity
  8
DIM
 62
     0
100
AcDbTrace
 10
5.484111999999999
 20
3.222995
 30
0.0
 11
5.484111999999999
 21
3.132995
 31
0.0
 12
5.754112
 22
3.177995
 32
0.0
 13
5.754112
 23
3.177995
 33
0.0
  0
MTEXT
  5
2D0
330
2C9
100
AcDbEntity
  8
DIM
 62
     0
100
AcDbMText
 10
3.952593999999999
 20
3.177995
 30
0.0
 40
0.1875
 41
0.0
 71
     5
 72
     1
  1
\A1;P
  7
TXT
 73
     1
 44
1.0
  0
POINT
  5
2D1
330
2C9
100
AcDbEntity
  8
DEFPOINTS
 62
     0
100
AcDbPoint
 10
2.151075999999999
 20
3.990951999999999
 30
0.0
  0
POINT
  5
2D2
330
2C9
100
AcDbEntity
  8
DEFPOINTS
 62
     0
100
AcDbPoint
 10
5.754112
 20
3.990951999999999
 30
0.0
  0
POINT
  5
2D3
330
2C9
100
AcDbEntity
  8
DEFPOINTS
 62
     0
100
AcDbPoint
 10
5.754112
 20
3.177995
 30
0.0
  0
ENDBLK
  5
2D5
330
2C9
100
AcDbEntity
  8
0
100
AcDbBlockEnd
  0
BLOCK
  5
2E2
330
2D7
100
AcDbEntity
  8
0
100
AcDbBlockBegin
  2
*D37
 70
     1
 10
0.0
 20
0.0
 30
0.0
  3
*D37
  1

  0
LINE
  5
2D8
330
2D7
100
AcDbEntity
  8
DIM
 62
     0
370
    -2
100
AcDbLine
 10
2.056575999999999
 20
3.990951999999999
 30
0.0
 11
1.287334999999999
 21
3.990951999999999
 31
0.0
  0
LINE
  5
2D9
330
2D7
100
AcDbEntity
  8
DIM
 62
     0
370
    -2
100
AcDbLine
 10
2.056575999999999
 20
5.190951999999999
 30
0.0
 11
1.287335
 21
5.190952
 31
0.0
  0
LINE
  5
2DA
330
2D7
100
AcDbEntity
  8
DIM
 62
     0
370
    -2
100
AcDbLine
 10
1.426834999999999
 20
3.720951999999999
 30
0.0
 11
1.426834999999999
 21
3.450951999999999
 31
0.0
  0
LINE
  5
2DB
330
2D7
100
AcDbEntity
  8
DIM
 62
     0
370
    -2
100
AcDbLine
 10
1.426835
 20
5.460952
 30
0.0
 11
1.426835
 21
5.730952
 31
0.0
  0
SOLID
  5
2DC
330
2D7
100
AcDbEntity
  8
DIM
 62
     0
100
AcDbTrace
 10
1.381834999999999
 20
3.720951999999999
 30
0.0
 11
1.471834999999999
 21
3.720951999999999
 31
0.0
 12
1.426834999999999
 22
3.990951999999999
 32
0.0
 13
1.426834999999999
 23
3.990951999999999
 33
0.0
  0
SOLID
  5
2DD
330
2D7
100
AcDbEntity
  8
DIM
 62
     0
100
AcDbTrace
 10
1.381835
 20
5.460952
 30
0.0
 11
1.471835
 21
5.460952
 31
0.0
 12
1.426835
 22
5.190952
 32
0.0
 13
1.426835
 23
5.190952
 33
0.0
  0
MTEXT
  5
2DE
330
2D7
100
AcDbEntity
  8
DIM
 62
     0
100
AcDbMText
 10
1.426834999999999
 20
4.590951999999999
 30
0.0
 40
0.1875
 41
0.0
 71
     5
 72
     1
  1
\A1;Q
  7
TXT
 73
     1
 44
1.0
  0
POINT
  5
2DF
330
2D7
100
AcDbEntity
  8
DEFPOINTS
 62
     0
100
AcDbPoint
 10
2.151075999999999
 20
3.990951999999999
 30
0.0
  0
POINT
  5
2E0
330
2D7
100
AcDbEntity
  8
DEFPOINTS
 62
     0
100
AcDbPoint
 10
2.151075999999999
 20
5.190951999999999
 30
0.0
  0
POINT
  5
2E1
330
2D7
100
AcDbEntity
  8
DEFPOINTS
 62
     0
100
AcDbPoint
 10
1.426835
 20
5.190952
 30
0.0
  0
ENDBLK
  5
2E3
330
2D7
100
AcDbEntity
  8
0
100
AcDbBlockEnd
  0
BLOCK
  5
2FF
330
2F4
100
AcDbEntity
  8
0
100
AcDbBlockBegin
  2
*D38
 70
     1
 10
0.0
 20
0.0
 30
0.0
  3
*D38
  1

  0
LINE
  5
5E3
330
2F4
100
AcDbEntity
  8
DIM
 62
     0
370
    -2
100
AcDbLine
 10
14.748134
 20
7.483069
 30
0.0
 11
14.337982
 21
7.483069
 31
0.0
  0
LINE
  5
5E4
330
2F4
100
AcDbEntity
  8
DIM
 62
     0
370
    -2
100
AcDbLine
 10
14.704704
 20
7.393069
 30
0.0
 11
14.337982
 21
7.393069
 31
0.0
  0
LINE
  5
5E5
330
2F4
100
AcDbEntity
  8
DIM
 62
     0
370
    -2
100
AcDbLine
 10
14.477482
 20
7.753068999999999
 30
0.0
 11
14.477482
 21
8.023068999999999
 31
0.0
  0
LINE
  5
5E6
330
2F4
100
AcDbEntity
  8
DIM
 62
     0
370
    -2
100
AcDbLine
 10
14.477482
 20
7.123069
 30
0.0
 11
14.477482
 21
6.853069
 31
0.0
  0
MTEXT
  5
5E7
330
2F4
100
AcDbEntity
  8
DIM
 62
     0
100
AcDbMText
 10
14.08298199999999
 20
6.905281102591615
 30
0.0
 40
0.1875
 41
0.0
 71
     5
 72
     1
  1
\A1;0.090
  7
TXT
 73
     1
 44
1.0
  0
SOLID
  5
5E8
330
2F4
100
AcDbEntity
  8
DIM
 62
     0
100
AcDbTrace
 10
14.432482
 20
7.753068999999999
 30
0.0
 11
14.522482
 21
7.753068999999999
 31
0.0
 12
14.477482
 22
7.483069
 32
0.0
 13
14.477482
 23
7.483069
 33
0.0
  0
SOLID
  5
5E9
330
2F4
100
AcDbEntity
  8
DIM
 62
     0
100
AcDbTrace
 10
14.432482
 20
7.123069
 30
0.0
 11
14.522482
 21
7.123069
 31
0.0
 12
14.477482
 22
7.393069
 32
0.0
 13
14.477482
 23
7.393069
 33
0.0
  0
POINT
  5
5EA
330
2F4
100
AcDbEntity
  8
DEFPOINTS
 62
     0
100
AcDbPoint
 10
14.842634
 20
7.483069
 30
0.0625
  0
POINT
  5
5EB
330
2F4
100
AcDbEntity
  8
DEFPOINTS
 62
     0
100
AcDbPoint
 10
14.799204
 20
7.393069
 30
0.0625
  0
POINT
  5
5EC
330
2F4
100
AcDbEntity
  8
DEFPOINTS
 62
     0
100
AcDbPoint
 10
14.477482
 20
7.393069
 30
0.0
  0
ENDBLK
  5
300
330
2F4
100
AcDbEntity
  8
0
100
AcDbBlockEnd
  0
BLOCK
  5
30D
330
302
100
AcDbEntity
  8
0
100
AcDbBlockBegin
  2
*D39
 70
     1
 10
0.0
 20
0.0
 30
0.0
  3
*D39
  1

  0
LINE
  5
303
330
302
100
AcDbEntity
  8
DIM
 62
     0
370
    -2
100
AcDbLine
 10
13.006076
 20
6.856841
 30
0.0
 11
13.006076
 21
6.318158
 31
0.0
  0
LINE
  5
304
330
302
100
AcDbEntity
  8
DIM
 62
     0
370
    -2
100
AcDbLine
 10
10.753299
 20
6.853569
 30
0.0
 11
10.753299
 21
6.318158
 31
0.0
  0
LINE
  5
305
330
302
100
AcDbEntity
  8
DIM
 62
     0
370
    -2
100
AcDbLine
 10
12.736076
 20
6.457658
 30
0.0
 11
12.0615625
 21
6.457658
 31
0.0
  0
LINE
  5
306
330
302
100
AcDbEntity
  8
DIM
 62
     0
370
    -2
100
AcDbLine
 10
11.02329899999999
 20
6.457658
 30
0.0
 11
11.69781249999999
 21
6.457658
 31
0.0
  0
SOLID
  5
307
330
302
100
AcDbEntity
  8
DIM
 62
     0
100
AcDbTrace
 10
12.736076
 20
6.502658
 30
0.0
 11
12.736076
 21
6.412658
 31
0.0
 12
13.006076
 22
6.457658
 32
0.0
 13
13.006076
 23
6.457658
 33
0.0
  0
SOLID
  5
308
330
302
100
AcDbEntity
  8
DIM
 62
     0
100
AcDbTrace
 10
11.02329899999999
 20
6.502658
 30
0.0
 11
11.02329899999999
 21
6.412658
 31
0.0
 12
10.753299
 22
6.457658
 32
0.0
 13
10.753299
 23
6.457658
 33
0.0
  0
MTEXT
  5
309
330
302
100
AcDbEntity
  8
DIM
 62
     0
100
AcDbMText
 10
11.8796875
 20
6.457658
 30
0.0
 40
0.1875
 41
0.0
 71
     5
 72
     1
  1
\A1;H
  7
TXT
 73
     1
 44
1.0
  0
POINT
  5
30A
330
302
100
AcDbEntity
  8
DEFPOINTS
 62
     0
100
AcDbPoint
 10
13.006076
 20
6.951341
 30
0.0625
  0
POINT
  5
30B
330
302
100
AcDbEntity
  8
DEFPOINTS
 62
     0
100
AcDbPoint
 10
10.753299
 20
6.948069
 30
0.0625
  0
POINT
  5
30C
330
302
100
AcDbEntity
  8
DEFPOINTS
 62
     0
100
AcDbPoint
 10
10.753299
 20
6.457658
 30
0.0
  0
ENDBLK
  5
30E
330
302
100
AcDbEntity
  8
0
100
AcDbBlockEnd
  0
BLOCK
  5
31B
330
310
100
AcDbEntity
  8
0
100
AcDbBlockBegin
  2
*D40
 70
     1
 10
0.0
 20
0.0
 30
0.0
  3
*D40
  1

  0
LINE
  5
311
330
310
100
AcDbEntity
  8
DIM
 62
     0
370
    -2
100
AcDbLine
 10
10.670451
 20
7.393069
 30
0.0
 11
10.251951
 21
7.393069
 31
0.0
  0
LINE
  5
312
330
310
100
AcDbEntity
  8
DIM
 62
     0
370
    -2
100
AcDbLine
 10
10.783842
 20
6.823069
 30
0.0
 11
10.251951
 21
6.823069
 31
0.0
  0
LINE
  5
313
330
310
100
AcDbEntity
  8
DIM
 62
     0
370
    -2
100
AcDbLine
 10
10.391451
 20
7.663069000000001
 30
0.0
 11
10.391451
 21
7.933069
 31
0.0
  0
LINE
  5
314
330
310
100
AcDbEntity
  8
DIM
 62
     0
370
    -2
100
AcDbLine
 10
10.391451
 20
6.553068999999999
 30
0.0
 11
10.391451
 21
6.283069
 31
0.0
  0
SOLID
  5
315
330
310
100
AcDbEntity
  8
DIM
 62
     0
100
AcDbTrace
 10
10.346451
 20
7.663069000000001
 30
0.0
 11
10.43645099999999
 21
7.663069000000001
 31
0.0
 12
10.391451
 22
7.393069
 32
0.0
 13
10.391451
 23
7.393069
 33
0.0
  0
SOLID
  5
316
330
310
100
AcDbEntity
  8
DIM
 62
     0
100
AcDbTrace
 10
10.346451
 20
6.553068999999999
 30
0.0
 11
10.43645099999999
 21
6.553068999999999
 31
0.0
 12
10.391451
 22
6.823069
 32
0.0
 13
10.391451
 23
6.823069
 33
0.0
  0
MTEXT
  5
317
330
310
100
AcDbEntity
  8
DIM
 62
     0
100
AcDbMText
 10
10.39145099999999
 20
7.108069000000002
 30
0.0
 40
0.1875
 41
0.0
 71
     5
 72
     1
  1
\A1;J
  7
TXT
 73
     1
 44
1.0
  0
POINT
  5
318
330
310
100
AcDbEntity
  8
DEFPOINTS
 62
     0
100
AcDbPoint
 10
10.764951
 20
7.393069
 30
0.0625
  0
POINT
  5
319
330
310
100
AcDbEntity
  8
DEFPOINTS
 62
     0
100
AcDbPoint
 10
10.878342
 20
6.823069
 30
0.0625
  0
POINT
  5
31A
330
310
100
AcDbEntity
  8
DEFPOINTS
 62
     0
100
AcDbPoint
 10
10.391451
 20
6.823069
 30
0.0
  0
ENDBLK
  5
31C
330
310
100
AcDbEntity
  8
0
100
AcDbBlockEnd
  0
BLOCK
  5
329
330
31E
100
AcDbEntity
  8
0
100
AcDbBlockBegin
  2
*D41
 70
     1
 10
0.0
 20
0.0
 30
0.0
  3
*D41
  1

  0
LINE
  5
629
330
31E
100
AcDbEntity
  8
DIM
 62
     0
370
    -2
100
AcDbLine
 10
16.414527
 20
6.916069
 30
0.0
 11
16.522527
 21
6.916069
 31
0.0
  0
LINE
  5
62A
330
31E
100
AcDbEntity
  8
DIM
 62
     0
370
    -2
100
AcDbLine
 10
16.400268
 20
6.823069
 30
0.0
 11
16.522527
 21
6.823069
 31
0.0
  0
LINE
  5
62B
330
31E
100
AcDbEntity
  8
DIM
 62
     0
370
    -2
100
AcDbLine
 10
16.38302699999999
 20
7.186068999999999
 30
0.0
 11
16.38302699999999
 21
7.456069
 31
0.0
  0
LINE
  5
62C
330
31E
100
AcDbEntity
  8
DIM
 62
     0
370
    -2
100
AcDbLine
 10
16.38302699999999
 20
6.553069
 30
0.0
 11
16.38302699999999
 21
6.283069
 31
0.0
  0
MTEXT
  5
62D
330
31E
100
AcDbEntity
  8
DIM
 62
     0
100
AcDbMText
 10
15.95577179465025
 20
6.446003739825911
 30
0.0
 40
0.1875
 41
0.0
 71
     5
 72
     1
  1
\A1;0.093
  7
TXT
 73
     1
 44
1.0
  0
SOLID
  5
62E
330
31E
100
AcDbEntity
  8
DIM
 62
     0
100
AcDbTrace
 10
16.33802699999999
 20
7.186068999999999
 30
0.0
 11
16.428027
 21
7.186068999999999
 31
0.0
 12
16.38302699999999
 22
6.916069
 32
0.0
 13
16.38302699999999
 23
6.916069
 33
0.0
  0
SOLID
  5
62F
330
31E
100
AcDbEntity
  8
DIM
 62
     0
100
AcDbTrace
 10
16.33802699999999
 20
6.553069
 30
0.0
 11
16.428027
 21
6.553069
 31
0.0
 12
16.38302699999999
 22
6.823069
 32
0.0
 13
16.38302699999999
 23
6.823069
 33
0.0
  0
POINT
  5
630
330
31E
100
AcDbEntity
  8
DEFPOINTS
 62
     0
100
AcDbPoint
 10
16.320027
 20
6.916069
 30
0.0625
  0
POINT
  5
631
330
31E
100
AcDbEntity
  8
DEFPOINTS
 62
     0
100
AcDbPoint
 10
16.305768
 20
6.823069
 30
0.0625
  0
POINT
  5
632
330
31E
100
AcDbEntity
  8
DEFPOINTS
 62
     0
100
AcDbPoint
 10
16.38302699999999
 20
6.823069
 30
0.0
  0
ENDBLK
  5
32A
330
31E
100
AcDbEntity
  8
0
100
AcDbBlockEnd
  0
BLOCK
  5
337
330
32C
100
AcDbEntity
  8
0
100
AcDbBlockBegin
  2
*D42
 70
     1
 10
0.0
 20
0.0
 30
0.0
  3
*D42
  1

  0
LINE
  5
32D
330
32C
100
AcDbEntity
  8
DIM
 62
     0
370
    -2
100
AcDbLine
 10
14.799204
 20
7.487569
 30
0.0
 11
14.799204
 21
8.011148999999999
 31
0.0
  0
LINE
  5
32E
330
32C
100
AcDbEntity
  8
DIM
 62
     0
370
    -2
100
AcDbLine
 10
18.903762
 20
7.487569
 30
0.0
 11
18.903762
 21
8.011148999999999
 31
0.0
  0
LINE
  5
32F
330
32C
100
AcDbEntity
  8
DIM
 62
     0
370
    -2
100
AcDbLine
 10
15.069204
 20
7.871649
 30
0.0
 11
16.669608
 21
7.871649
 31
0.0
  0
LINE
  5
330
330
32C
100
AcDbEntity
  8
DIM
 62
     0
370
    -2
100
AcDbLine
 10
18.633762
 20
7.871649
 30
0.0
 11
17.033358
 21
7.871649
 31
0.0
  0
SOLID
  5
331
330
32C
100
AcDbEntity
  8
DIM
 62
     0
100
AcDbTrace
 10
15.069204
 20
7.916649
 30
0.0
 11
15.069204
 21
7.826649
 31
0.0
 12
14.799204
 22
7.871649
 32
0.0
 13
14.799204
 23
7.871649
 33
0.0
  0
SOLID
  5
332
330
32C
100
AcDbEntity
  8
DIM
 62
     0
100
AcDbTrace
 10
18.633762
 20
7.916649
 30
0.0
 11
18.633762
 21
7.826649
 31
0.0
 12
18.903762
 22
7.871649
 32
0.0
 13
18.903762
 23
7.871649
 33
0.0
  0
MTEXT
  5
333
330
32C
100
AcDbEntity
  8
DIM
 62
     0
100
AcDbMText
 10
16.851483
 20
7.871649
 30
0.0
 40
0.1875
 41
0.0
 71
     5
 72
     1
  1
\A1;D
  7
TXT
 73
     1
 44
1.0
  0
POINT
  5
334
330
32C
100
AcDbEntity
  8
DEFPOINTS
 62
     0
100
AcDbPoint
 10
14.799204
 20
7.393069
 30
0.0625
  0
POINT
  5
335
330
32C
100
AcDbEntity
  8
DEFPOINTS
 62
     0
100
AcDbPoint
 10
18.903762
 20
7.393069
 30
0.0625
  0
POINT
  5
336
330
32C
100
AcDbEntity
  8
DEFPOINTS
 62
     0
100
AcDbPoint
 10
18.903762
 20
7.871649
 30
0.0
  0
ENDBLK
  5
338
330
32C
100
AcDbEntity
  8
0
100
AcDbBlockEnd
  0
BLOCK
  5
345
330
33A
100
AcDbEntity
  8
0
100
AcDbBlockBegin
  2
*D43
 70
     1
 10
0.0
 20
0.0
 30
0.0
  3
*D43
  1

  0
LINE
  5
33B
330
33A
100
AcDbEntity
  8
DIM
 62
     0
370
    -2
100
AcDbLine
 10
15.305983
 20
10.67148699999999
 30
0.0
 11
14.183776
 21
10.67148699999999
 31
0.0
  0
LINE
  5
33C
330
33A
100
AcDbEntity
  8
DIM
 62
     0
370
    -2
100
AcDbLine
 10
15.305983
 20
9.645486999999999
 30
0.0
 11
14.183776
 21
9.645486999999999
 31
0.0
  0
LINE
  5
33D
330
33A
100
AcDbEntity
  8
DIM
 62
     0
370
    -2
100
AcDbLine
 10
14.323276
 20
10.94148699999999
 30
0.0
 11
14.323276
 21
11.21148699999999
 31
0.0
  0
LINE
  5
33E
330
33A
100
AcDbEntity
  8
DIM
 62
     0
370
    -2
100
AcDbLine
 10
14.323276
 20
9.375486999999999
 30
0.0
 11
14.323276
 21
9.105487
 31
0.0
  0
SOLID
  5
33F
330
33A
100
AcDbEntity
  8
DIM
 62
     0
100
AcDbTrace
 10
14.278276
 20
10.94148699999999
 30
0.0
 11
14.368276
 21
10.94148699999999
 31
0.0
 12
14.323276
 22
10.67148699999999
 32
0.0
 13
14.323276
 23
10.67148699999999
 33
0.0
  0
SOLID
  5
340
330
33A
100
AcDbEntity
  8
DIM
 62
     0
100
AcDbTrace
 10
14.278276
 20
9.375486999999999
 30
0.0
 11
14.368276
 21
9.375486999999999
 31
0.0
 12
14.323276
 22
9.645486999999999
 32
0.0
 13
14.323276
 23
9.645486999999999
 33
0.0
  0
MTEXT
  5
341
330
33A
100
AcDbEntity
  8
DIM
 62
     0
100
AcDbMText
 10
14.32327599999999
 20
10.158487
 30
0.0
 40
0.1875
 41
0.0
 71
     5
 72
     1
  1
\A1;M
  7
TXT
 73
     1
 44
1.0
  0
POINT
  5
342
330
33A
100
AcDbEntity
  8
DEFPOINTS
 62
     0
100
AcDbPoint
 10
15.400483
 20
10.67148699999999
 30
0.0
  0
POINT
  5
343
330
33A
100
AcDbEntity
  8
DEFPOINTS
 62
     0
100
AcDbPoint
 10
15.400483
 20
9.645486999999999
 30
0.0
  0
POINT
  5
344
330
33A
100
AcDbEntity
  8
DEFPOINTS
 62
     0
100
AcDbPoint
 10
14.323276
 20
9.645486999999999
 30
0.0
  0
ENDBLK
  5
346
330
33A
100
AcDbEntity
  8
0
100
AcDbBlockEnd
  0
BLOCK
  5
353
330
348
100
AcDbEntity
  8
0
100
AcDbBlockBegin
  2
*D44
 70
     1
 10
0.0
 20
0.0
 30
0.0
  3
*D44
  1

  0
LINE
  5
349
330
348
100
AcDbEntity
  8
DIM
 62
     0
370
    -2
100
AcDbLine
 10
15.400483
 20
9.550986999999999
 30
0.0
 11
15.400483
 21
8.613103999999999
 31
0.0
  0
LINE
  5
34A
330
348
100
AcDbEntity
  8
DIM
 62
     0
370
    -2
100
AcDbLine
 10
18.302483
 20
9.550986999999999
 30
0.0
 11
18.302483
 21
8.613103999999999
 31
0.0
  0
LINE
  5
34B
330
348
100
AcDbEntity
  8
DIM
 62
     0
370
    -2
100
AcDbLine
 10
15.67048299999999
 20
8.752603999999999
 30
0.0
 11
16.66960799999999
 21
8.752603999999999
 31
0.0
  0
LINE
  5
34C
330
348
100
AcDbEntity
  8
DIM
 62
     0
370
    -2
100
AcDbLine
 10
18.03248299999999
 20
8.752603999999999
 30
0.0
 11
17.033358
 21
8.752603999999999
 31
0.0
  0
SOLID
  5
34D
330
348
100
AcDbEntity
  8
DIM
 62
     0
100
AcDbTrace
 10
15.67048299999999
 20
8.797603999999999
 30
0.0
 11
15.67048299999999
 21
8.707603999999999
 31
0.0
 12
15.400483
 22
8.752603999999999
 32
0.0
 13
15.400483
 23
8.752603999999999
 33
0.0
  0
SOLID
  5
34E
330
348
100
AcDbEntity
  8
DIM
 62
     0
100
AcDbTrace
 10
18.03248299999999
 20
8.797603999999999
 30
0.0
 11
18.03248299999999
 21
8.707603999999999
 31
0.0
 12
18.302483
 22
8.752603999999999
 32
0.0
 13
18.302483
 23
8.752603999999999
 33
0.0
  0
MTEXT
  5
34F
330
348
100
AcDbEntity
  8
DIM
 62
     0
100
AcDbMText
 10
16.85148299999999
 20
8.752603999999999
 30
0.0
 40
0.1875
 41
0.0
 71
     5
 72
     1
  1
\A1;L
  7
TXT
 73
     1
 44
1.0
  0
POINT
  5
350
330
348
100
AcDbEntity
  8
DEFPOINTS
 62
     0
100
AcDbPoint
 10
15.400483
 20
9.645486999999999
 30
0.0
  0
POINT
  5
351
330
348
100
AcDbEntity
  8
DEFPOINTS
 62
     0
100
AcDbPoint
 10
18.302483
 20
9.645486999999999
 30
0.0
  0
POINT
  5
352
330
348
100
AcDbEntity
  8
DEFPOINTS
 62
     0
100
AcDbPoint
 10
18.302483
 20
8.752603999999999
 30
0.0
  0
ENDBLK
  5
354
330
348
100
AcDbEntity
  8
0
100
AcDbBlockEnd
  0
BLOCK
  5
361
330
356
100
AcDbEntity
  8
0
100
AcDbBlockBegin
  2
*D45
 70
     1
 10
0.0
 20
0.0
 30
0.0
  3
*D45
  1

  0
LINE
  5
357
330
356
100
AcDbEntity
  8
DIM
 62
     0
370
    -2
100
AcDbLine
 10
18.68048299999999
 20
5.385450999999999
 30
0.0
 11
19.426189
 21
5.385450999999999
 31
0.0
  0
LINE
  5
358
330
356
100
AcDbEntity
  8
DIM
 62
     0
370
    -2
100
AcDbLine
 10
18.68048299999999
 20
3.791451
 30
0.0
 11
19.426189
 21
3.791450999999999
 31
0.0
  0
LINE
  5
359
330
356
100
AcDbEntity
  8
DIM
 62
     0
370
    -2
100
AcDbLine
 10
19.286689
 20
5.115450999999999
 30
0.0
 11
19.286689
 21
4.817200999999999
 31
0.0
  0
LINE
  5
35A
330
356
100
AcDbEntity
  8
DIM
 62
     0
370
    -2
100
AcDbLine
 10
19.286689
 20
4.061450999999999
 30
0.0
 11
19.286689
 21
4.359701
 31
0.0
  0
SOLID
  5
35B
330
356
100
AcDbEntity
  8
DIM
 62
     0
100
AcDbTrace
 10
19.241689
 20
5.115450999999999
 30
0.0
 11
19.331689
 21
5.115450999999999
 31
0.0
 12
19.286689
 22
5.385450999999999
 32
0.0
 13
19.286689
 23
5.385450999999999
 33
0.0
  0
SOLID
  5
35C
330
356
100
AcDbEntity
  8
DIM
 62
     0
100
AcDbTrace
 10
19.241689
 20
4.061450999999999
 30
0.0
 11
19.331689
 21
4.061450999999999
 31
0.0
 12
19.286689
 22
3.791450999999999
 32
0.0
 13
19.286689
 23
3.791450999999999
 33
0.0
  0
MTEXT
  5
35D
330
356
100
AcDbEntity
  8
DIM
 62
     0
100
AcDbMText
 10
19.286689
 20
4.588451000000003
 30
0.0
 40
0.1875
 41
0.0
 71
     5
 72
     1
  1
\A1;F
  7
TXT
 73
     1
 44
1.0
  0
POINT
  5
35E
330
356
100
AcDbEntity
  8
DEFPOINTS
 62
     0
100
AcDbPoint
 10
18.58598299999999
 20
5.385450999999999
 30
0.0
  0
POINT
  5
35F
330
356
100
AcDbEntity
  8
DEFPOINTS
 62
     0
100
AcDbPoint
 10
18.58598299999999
 20
3.791451
 30
0.0
  0
POINT
  5
360
330
356
100
AcDbEntity
  8
DEFPOINTS
 62
     0
100
AcDbPoint
 10
19.286689
 20
3.791450999999999
 30
0.0
  0
ENDBLK
  5
362
330
356
100
AcDbEntity
  8
0
100
AcDbBlockEnd
  0
BLOCK
  5
36F
330
364
100
AcDbEntity
  8
0
100
AcDbBlockBegin
  2
*D46
 70
     1
 10
0.0
 20
0.0
 30
0.0
  3
*D46
  1

  0
LINE
  5
365
330
364
100
AcDbEntity
  8
DIM
 62
     0
370
    -2
100
AcDbLine
 10
14.787551
 20
6.853569
 30
0.0
 11
14.787551
 21
5.896658
 31
0.0
  0
LINE
  5
366
330
364
100
AcDbEntity
  8
DIM
 62
     0
370
    -2
100
AcDbLine
 10
18.91532899999999
 20
6.856841
 30
0.0
 11
18.91532899999999
 21
5.896658
 31
0.0
  0
LINE
  5
367
330
364
100
AcDbEntity
  8
DIM
 62
     0
370
    -2
100
AcDbLine
 10
15.057551
 20
6.036158
 30
0.0
 11
16.66956499999999
 21
6.036158
 31
0.0
  0
LINE
  5
368
330
364
100
AcDbEntity
  8
DIM
 62
     0
370
    -2
100
AcDbLine
 10
18.645329
 20
6.036158
 30
0.0
 11
17.033315
 21
6.036158
 31
0.0
  0
SOLID
  5
369
330
364
100
AcDbEntity
  8
DIM
 62
     0
100
AcDbTrace
 10
15.057551
 20
6.081158
 30
0.0
 11
15.057551
 21
5.991158
 31
0.0
 12
14.787551
 22
6.036158
 32
0.0
 13
14.787551
 23
6.036158
 33
0.0
  0
SOLID
  5
36A
330
364
100
AcDbEntity
  8
DIM
 62
     0
100
AcDbTrace
 10
18.645329
 20
6.081158
 30
0.0
 11
18.645329
 21
5.991158
 31
0.0
 12
18.91532899999999
 22
6.036158
 32
0.0
 13
18.91532899999999
 23
6.036158
 33
0.0
  0
MTEXT
  5
36B
330
364
100
AcDbEntity
  8
DIM
 62
     0
100
AcDbMText
 10
16.85144
 20
6.036158
 30
0.0
 40
0.1875
 41
0.0
 71
     5
 72
     1
  1
\A1;G
  7
TXT
 73
     1
 44
1.0
  0
POINT
  5
36C
330
364
100
AcDbEntity
  8
DEFPOINTS
 62
     0
100
AcDbPoint
 10
14.787551
 20
6.948069
 30
0.0625
  0
POINT
  5
36D
330
364
100
AcDbEntity
  8
DEFPOINTS
 62
     0
100
AcDbPoint
 10
18.91532899999999
 20
6.951341
 30
0.0625
  0
POINT
  5
36E
330
364
100
AcDbEntity
  8
DEFPOINTS
 62
     0
100
AcDbPoint
 10
18.91532899999999
 20
6.036158
 30
0.0
  0
ENDBLK
  5
370
330
364
100
AcDbEntity
  8
0
100
AcDbBlockEnd
  0
BLOCK
  5
37D
330
372
100
AcDbEntity
  8
0
100
AcDbBlockBegin
  2
*D47
 70
     1
 10
0.0
 20
0.0
 30
0.0
  3
*D47
  1

  0
LINE
  5
373
330
372
100
AcDbEntity
  8
DIM
 62
     0
370
    -2
100
AcDbLine
 10
15.11698299999999
 20
3.696951
 30
0.0
 11
15.11698299999999
 21
3.028236999999999
 31
0.0
  0
LINE
  5
374
330
372
100
AcDbEntity
  8
DIM
 62
     0
370
    -2
100
AcDbLine
 10
18.58598299999999
 20
3.696951
 30
0.0
 11
18.58598299999999
 21
3.028236999999999
 31
0.0
  0
LINE
  5
375
330
372
100
AcDbEntity
  8
DIM
 62
     0
370
    -2
100
AcDbLine
 10
15.386983
 20
3.167736999999999
 30
0.0
 11
16.66960799999999
 21
3.167736999999999
 31
0.0
  0
LINE
  5
376
330
372
100
AcDbEntity
  8
DIM
 62
     0
370
    -2
100
AcDbLine
 10
18.31598299999999
 20
3.167736999999999
 30
0.0
 11
17.033358
 21
3.167736999999999
 31
0.0
  0
SOLID
  5
377
330
372
100
AcDbEntity
  8
DIM
 62
     0
100
AcDbTrace
 10
15.386983
 20
3.212736999999999
 30
0.0
 11
15.386983
 21
3.122736999999999
 31
0.0
 12
15.11698299999999
 22
3.167736999999999
 32
0.0
 13
15.11698299999999
 23
3.167736999999999
 33
0.0
  0
SOLID
  5
378
330
372
100
AcDbEntity
  8
DIM
 62
     0
100
AcDbTrace
 10
18.31598299999999
 20
3.212736999999999
 30
0.0
 11
18.31598299999999
 21
3.122736999999999
 31
0.0
 12
18.58598299999999
 22
3.167736999999999
 32
0.0
 13
18.58598299999999
 23
3.167736999999999
 33
0.0
  0
MTEXT
  5
379
330
372
100
AcDbEntity
  8
DIM
 62
     0
100
AcDbMText
 10
16.85148299999999
 20
3.167736999999999
 30
0.0
 40
0.1875
 41
0.0
 71
     5
 72
     1
  1
\A1;E
  7
TXT
 73
     1
 44
1.0
  0
POINT
  5
37A
330
372
100
AcDbEntity
  8
DEFPOINTS
 62
     0
100
AcDbPoint
 10
15.11698299999999
 20
3.791451
 30
0.0
  0
POINT
  5
37B
330
372
100
AcDbEntity
  8
DEFPOINTS
 62
     0
100
AcDbPoint
 10
18.58598299999999
 20
3.791451
 30
0.0
  0
POINT
  5
37C
330
372
100
AcDbEntity
  8
DEFPOINTS
 62
     0
100
AcDbPoint
 10
18.58598299999999
 20
3.167736999999999
 30
0.0
  0
ENDBLK
  5
37E
330
372
100
AcDbEntity
  8
0
100
AcDbBlockEnd
  0
BLOCK
  5
431
330
426
100
AcDbEntity
  8
0
100
AcDbBlockBegin
  2
*D48
 70
     1
 10
0.0
 20
0.0
 30
0.0
  3
*D48
  1

  0
LINE
  5
427
330
426
100
AcDbEntity
  8
DIM
 62
     0
370
    -2
100
AcDbLine
 10
18.786913
 20
7.593068999999999
 30
0.0
 11
19.426189
 21
7.593068999999999
 31
0.0
  0
LINE
  5
428
330
426
100
AcDbEntity
  8
DIM
 62
     0
370
    -2
100
AcDbLine
 10
18.798984
 20
6.823069
 30
0.0
 11
19.426189
 21
6.823069
 31
0.0
  0
LINE
  5
429
330
426
100
AcDbEntity
  8
DIM
 62
     0
370
    -2
100
AcDbLine
 10
19.286689
 20
7.863069
 30
0.0
 11
19.286689
 21
8.133069
 31
0.0
  0
LINE
  5
42A
330
426
100
AcDbEntity
  8
DIM
 62
     0
370
    -2
100
AcDbLine
 10
19.286689
 20
6.553068999999999
 30
0.0
 11
19.286689
 21
6.283069
 31
0.0
  0
SOLID
  5
42B
330
426
100
AcDbEntity
  8
DIM
 62
     0
100
AcDbTrace
 10
19.241689
 20
7.863069
 30
0.0
 11
19.331689
 21
7.863069
 31
0.0
 12
19.286689
 22
7.593068999999999
 32
0.0
 13
19.286689
 23
7.593068999999999
 33
0.0
  0
SOLID
  5
42C
330
426
100
AcDbEntity
  8
DIM
 62
     0
100
AcDbTrace
 10
19.241689
 20
6.553068999999999
 30
0.0
 11
19.331689
 21
6.553068999999999
 31
0.0
 12
19.286689
 22
6.823069
 32
0.0
 13
19.286689
 23
6.823069
 33
0.0
  0
MTEXT
  5
42D
330
426
100
AcDbEntity
  8
DIM
 62
     0
100
AcDbMText
 10
19.286689
 20
7.208069000000003
 30
0.0
 40
0.1875
 41
0.0
 71
     5
 72
     1
  1
\A1;K
  7
TXT
 73
     1
 44
1.0
  0
POINT
  5
42E
330
426
100
AcDbEntity
  8
DEFPOINTS
 62
     0
100
AcDbPoint
 10
18.692413
 20
7.593068999999999
 30
0.0
  0
POINT
  5
42F
330
426
100
AcDbEntity
  8
DEFPOINTS
 62
     0
100
AcDbPoint
 10
18.704484
 20
6.823069
 30
0.0
  0
POINT
  5
430
330
426
100
AcDbEntity
  8
DEFPOINTS
 62
     0
100
AcDbPoint
 10
19.286689
 20
6.823069
 30
0.0
  0
ENDBLK
  5
432
330
426
100
AcDbEntity
  8
0
100
AcDbBlockEnd
  0
BLOCK
  5
43F
330
434
100
AcDbEntity
  8
0
100
AcDbBlockBegin
  2
*D49
 70
     1
 10
0.0
 20
0.0
 30
0.0
  3
*D49
  1

  0
LINE
  5
615
330
434
100
AcDbEntity
  8
DIM
 62
     0
370
    -2
100
AcDbLine
 10
18.11794
 20
7.143069
 30
0.0
 11
17.914963
 21
7.143069000000001
 31
0.0
  0
LINE
  5
616
330
434
100
AcDbEntity
  8
DIM
 62
     0
370
    -2
100
AcDbLine
 10
18.115963
 20
6.916455
 30
0.0
 11
17.914963
 21
6.916455
 31
0.0
  0
LINE
  5
617
330
434
100
AcDbEntity
  8
DIM
 62
     0
370
    -2
100
AcDbLine
 10
18.054463
 20
7.413069000000001
 30
0.0
 11
18.054463
 21
7.683069
 31
0.0
  0
LINE
  5
618
330
434
100
AcDbEntity
  8
DIM
 62
     0
370
    -2
100
AcDbLine
 10
18.054463
 20
6.646455
 30
0.0
 11
18.054463
 21
6.376454999999999
 31
0.0
  0
MTEXT
  5
619
330
434
100
AcDbEntity
  8
DIM
 62
     0
100
AcDbMText
 10
17.659963
 20
6.515078828471501
 30
0.0
 40
0.1875
 41
0.0
 71
     5
 72
     1
  1
\A1;0.227
  7
TXT
 73
     1
 44
1.0
  0
SOLID
  5
61A
330
434
100
AcDbEntity
  8
DIM
 62
     0
100
AcDbTrace
 10
18.009463
 20
7.413069000000001
 30
0.0
 11
18.099463
 21
7.413069000000001
 31
0.0
 12
18.054463
 22
7.143069
 32
0.0
 13
18.054463
 23
7.143069
 33
0.0
  0
SOLID
  5
61B
330
434
100
AcDbEntity
  8
DIM
 62
     0
100
AcDbTrace
 10
18.009463
 20
6.646455
 30
0.0
 11
18.099463
 21
6.646455
 31
0.0
 12
18.054463
 22
6.916455
 32
0.0
 13
18.054463
 23
6.916455
 33
0.0
  0
POINT
  5
61C
330
434
100
AcDbEntity
  8
DEFPOINTS
 62
     0
100
AcDbPoint
 10
18.21244
 20
7.143069
 30
0.0
  0
POINT
  5
61D
330
434
100
AcDbEntity
  8
DEFPOINTS
 62
     0
100
AcDbPoint
 10
18.210463
 20
6.916455
 30
0.0
  0
POINT
  5
61E
330
434
100
AcDbEntity
  8
DEFPOINTS
 62
     0
100
AcDbPoint
 10
18.054463
 20
6.916455
 30
0.0
  0
ENDBLK
  5
440
330
434
100
AcDbEntity
  8
0
100
AcDbBlockEnd
  0
BLOCK
  5
499
330
48E
100
AcDbEntity
  8
0
100
AcDbBlockBegin
  2
*D50
 70
     1
 10
0.0
 20
0.0
 30
0.0
  3
*D50
  1

  0
LINE
  5
60B
330
48E
100
AcDbEntity
  8
DIM
 62
     0
370
    -2
100
AcDbLine
 10
5.293810999999999
 20
7.483069
 30
0.0
 11
5.154310999999999
 21
7.483069
 31
0.0
  0
LINE
  5
60C
330
48E
100
AcDbEntity
  8
DIM
 62
     0
370
    -2
100
AcDbLine
 10
5.293810999999999
 20
7.413069
 30
0.0
 11
5.154310999999999
 21
7.413069
 31
0.0
  0
LINE
  5
60D
330
48E
100
AcDbEntity
  8
DIM
 62
     0
370
    -2
100
AcDbLine
 10
5.293810999999999
 20
7.753069
 30
0.0
 11
5.293810999999999
 21
8.023068999999999
 31
0.0
  0
LINE
  5
60E
330
48E
100
AcDbEntity
  8
DIM
 62
     0
370
    -2
100
AcDbLine
 10
5.293810999999999
 20
7.143068999999999
 30
0.0
 11
5.293810999999999
 21
6.873069
 31
0.0
  0
MTEXT
  5
60F
330
48E
100
AcDbEntity
  8
DIM
 62
     0
100
AcDbMText
 10
4.899310999999999
 20
7.002825820082051
 30
0.0
 40
0.1875
 41
0.0
 71
     5
 72
     1
  1
\A1;0.070
  7
TXT
 73
     1
 44
1.0
  0
SOLID
  5
610
330
48E
100
AcDbEntity
  8
DIM
 62
     0
100
AcDbTrace
 10
5.248810999999999
 20
7.753069
 30
0.0
 11
5.338810999999999
 21
7.753069
 31
0.0
 12
5.293810999999999
 22
7.483069
 32
0.0
 13
5.293810999999999
 23
7.483069
 33
0.0
  0
SOLID
  5
611
330
48E
100
AcDbEntity
  8
DIM
 62
     0
100
AcDbTrace
 10
5.248810999999999
 20
7.143068999999999
 30
0.0
 11
5.338810999999999
 21
7.143068999999999
 31
0.0
 12
5.293810999999999
 22
7.413069
 32
0.0
 13
5.293810999999999
 23
7.413069
 33
0.0
  0
POINT
  5
612
330
48E
100
AcDbEntity
  8
DEFPOINTS
 62
     0
100
AcDbPoint
 10
5.388310999999999
 20
7.483069
 30
0.0
  0
POINT
  5
613
330
48E
100
AcDbEntity
  8
DEFPOINTS
 62
     0
100
AcDbPoint
 10
5.388310999999999
 20
7.413069
 30
0.0
  0
POINT
  5
614
330
48E
100
AcDbEntity
  8
DEFPOINTS
 62
     0
100
AcDbPoint
 10
5.293810999999999
 20
7.413069
 30
0.0
  0
ENDBLK
  5
49A
330
48E
100
AcDbEntity
  8
0
100
AcDbBlockEnd
  0
BLOCK
  5
52C
330
521
100
AcDbEntity
  8
0
100
AcDbBlockBegin
  2
*D51
 70
     1
 10
0.0
 20
0.0
 30
0.0
  3
*D51
  1

  0
LINE
  5
522
330
521
100
AcDbEntity
  8
DIM
 62
     0
370
    -2
100
AcDbLine
 10
10.783842
 20
6.823069
 30
0.0
 11
9.830451
 21
6.823069000000001
 31
0.0
  0
LINE
  5
523
330
521
100
AcDbEntity
  8
DIM
 62
     0
370
    -2
100
AcDbLine
 10
10.79621199999999
 20
8.313069
 30
0.0
 11
9.830451
 21
8.313069
 31
0.0
  0
LINE
  5
524
330
521
100
AcDbEntity
  8
DIM
 62
     0
370
    -2
100
AcDbLine
 10
9.969951
 20
7.093069000000001
 30
0.0
 11
9.969951
 21
7.339319000000001
 31
0.0
  0
LINE
  5
525
330
521
100
AcDbEntity
  8
DIM
 62
     0
370
    -2
100
AcDbLine
 10
9.969951
 20
8.043069
 30
0.0
 11
9.969951
 21
7.796819000000001
 31
0.0
  0
SOLID
  5
526
330
521
100
AcDbEntity
  8
DIM
 62
     0
100
AcDbTrace
 10
9.924951
 20
7.093069000000001
 30
0.0
 11
10.014951
 21
7.093069
 31
0.0
 12
9.969951
 22
6.823069000000001
 32
0.0
 13
9.969951
 23
6.823069000000001
 33
0.0
  0
SOLID
  5
527
330
521
100
AcDbEntity
  8
DIM
 62
     0
100
AcDbTrace
 10
9.924951
 20
8.043069
 30
0.0
 11
10.014951
 21
8.043069
 31
0.0
 12
9.969951
 22
8.313069
 32
0.0
 13
9.969951
 23
8.313069
 33
0.0
  0
MTEXT
  5
528
330
521
100
AcDbEntity
  8
DIM
 62
     0
100
AcDbMText
 10
9.969950999999998
 20
7.568069000000002
 30
0.0
 40
0.1875
 41
0.0
 71
     5
 72
     1
  1
\A1;N
  7
TXT
 73
     1
 44
1.0
  0
POINT
  5
529
330
521
100
AcDbEntity
  8
DEFPOINTS
 62
     0
100
AcDbPoint
 10
10.878342
 20
6.823069
 30
0.0
  0
POINT
  5
52A
330
521
100
AcDbEntity
  8
DEFPOINTS
 62
     0
100
AcDbPoint
 10
10.890712
 20
8.313069
 30
0.0
  0
POINT
  5
52B
330
521
100
AcDbEntity
  8
DEFPOINTS
 62
     0
100
AcDbPoint
 10
9.969951
 20
8.313069
 30
0.0
  0
ENDBLK
  5
52D
330
521
100
AcDbEntity
  8
0
100
AcDbBlockEnd
  0
BLOCK
  5
551
330
543
100
AcDbEntity
  8
0
100
AcDbBlockBegin
  2
*D52
 70
     1
 10
0.0
 20
0.0
 30
0.0
  3
*D52
  1

  0
LINE
  5
544
330
543
100
AcDbEntity
  8
DIM
 62
     0
370
    -2
100
AcDbLine
 10
10.78822174614083
 20
8.305285616567955
 30
0.0
 11
10.81188011632821
 21
9.208753359919619
 31
0.0
  0
LINE
  5
545
330
543
100
AcDbEntity
  8
DIM
 62
     0
370
    -2
100
AcDbLine
 10
10.753384
 20
7.487569
 30
0.0
 11
10.753384
 21
9.209519123623733
 31
0.0
  0
ARC
  5
546
330
543
100
AcDbEntity
  8
DIM
 62
     0
370
    -2
100
AcDbCircle
 10
10.753384
 20
6.974898965246555
 30
0.0
 40
2.095120158377178
100
AcDbArc
 50
73.72223081689774
 51
81.1111079708662
  0
ARC
  5
547
330
543
100
AcDbEntity
  8
DIM
 62
     0
370
    -2
100
AcDbCircle
 10
10.753384
 20
6.974898965246555
 30
0.0
 40
2.095120158377178
100
AcDbArc
 50
97.38887715396836
 51
104.7777543079368
  0
ARC
  5
548
330
543
100
AcDbEntity
  8
DIM
 62
     0
370
    -2
100
AcDbCircle
 10
10.753384
 20
6.974898965246555
 30
0.0
 40
2.095120158377178
100
AcDbArc
 50
88.49998512483466
 51
89.99999999999992
  0
SOLID
  5
549
330
543
100
AcDbEntity
  8
DIM
 62
     0
100
AcDbTrace
 10
11.07304542333935
 20
9.000041204868507
 30
0.0
 11
11.08119367887912
 21
9.089671589960053
 31
0.0
 12
10.8082283958346
 22
9.069301164033586
 32
0.0
 13
10.8082283958346
 23
9.069301164033586
 33
0.0
  0
SOLID
  5
54A
330
543
100
AcDbEntity
  8
DIM
 62
     0
100
AcDbTrace
 10
10.48104549806888
 20
9.097528037922788
 30
0.0
 11
10.48684468813033
 21
9.007715068955992
 31
0.0
 12
10.753384
 22
9.070019123623733
 32
0.0
 13
10.753384
 23
9.070019123623733
 33
0.0
  0
MTEXT
  5
54B
330
543
100
AcDbEntity
  8
DIM
 62
     0
100
AcDbMText
 10
12.00229099999999
 20
8.990722999999999
 30
0.0
 40
0.1875
 41
0.0
 71
     5
 72
     1
  1
\A1;2° REF.
  7
TXT
 73
     1
 44
1.0
  0
POINT
  5
54C
330
543
100
AcDbEntity
  8
DEFPOINTS
 62
     0
100
AcDbPoint
 10
10.77166732174066
 20
9.069939346285671
 30
0.0
  0
POINT
  5
54D
330
543
100
AcDbEntity
  8
DEFPOINTS
 62
     0
100
AcDbPoint
 10
10.753384
 20
6.951340999999999
 30
0.0
  0
POINT
  5
54E
330
543
100
AcDbEntity
  8
DEFPOINTS
 62
     0
100
AcDbPoint
 10
10.76485799999999
 20
7.413069
 30
0.0
  0
POINT
  5
54F
330
543
100
AcDbEntity
  8
DEFPOINTS
 62
     0
100
AcDbPoint
 10
10.78574799999999
 20
8.210817999999997
 30
0.0
  0
POINT
  5
550
330
543
100
AcDbEntity
  8
DEFPOINTS
 62
     0
100
AcDbPoint
 10
10.75338399999999
 20
7.393069
 30
0.0
  0
ENDBLK
  5
552
330
543
100
AcDbEntity
  8
0
100
AcDbBlockEnd
  0
ENDSEC
  0
SECTION
  2
ENTITIES
  0
INSERT
  5
1A8
330
1E
100
AcDbEntity
  8
TITLE
100
AcDbBlockReference
  2
HBS
 10
0.0
 20
0.0
 30
0.0
 41
1.5
 42
1.5
 43
1.5
  0
TEXT
  5
1A9
330
1E
100
AcDbEntity
  8
TEXT
100
AcDbText
 10
3.627919
 20
2.602217
 30
0.0
 40
0.234
  1
%%uBODY
 41
0.75
 72
     4
 11
3.952594
 21
2.695816999999999
 31
0.0
100
AcDbText
  0
TEXT
  5
1AA
330
1E
100
AcDbEntity
  8
TEXT
100
AcDbText
 10
11.5785
 20
13.103681
 30
0.0
 40
0.1875
  1
OPEN END DUE TO TAPER.
 41
0.75
100
AcDbText
  0
TEXT
  5
1AB
330
1E
100
AcDbEntity
  8
TEXT
100
AcDbText
 10
11.5785
 20
13.416181
 30
0.0
 40
0.1875
  1
DIMENSIONS INCREASE SLIGHTLY AT
 41
0.75
100
AcDbText
  0
TEXT
  5
1AC
330
1E
100
AcDbEntity
  8
TEXT
100
AcDbText
 10
11.5785
 20
13.728681
 30
0.0
 40
0.1875
  1
TAKEN FROM CLOSED END OF THE BOX.
 41
0.75
100
AcDbText
  0
TEXT
  5
1AD
330
1E
100
AcDbEntity
  8
TEXT
100
AcDbText
 10
11.5785
 20
14.04118099999999
 30
0.0
 40
0.1875
  1
LENGTH AND WIDTH DIMENSIONS ARE
 41
0.75
100
AcDbText
  0
TEXT
  5
1AE
330
1E
100
AcDbEntity
  8
TEXT
100
AcDbText
 10
16.40980799999999
 20
2.602217
 30
0.0
 40
0.234
  1
%%uCOVER
 41
0.75
 72
     4
 11
16.85148299999999
 21
2.695816999999999
 31
0.0
100
AcDbText
  0
TEXT
  5
1AF
330
1E
100
AcDbEntity
  8
TEXT
100
AcDbText
 10
0.353291
 20
11.867118
 30
0.0
 40
0.1875
  1
%%uCOLOR:%%u BLACK
 41
0.75
100
AcDbText
  0
TEXT
  5
1B0
330
1E
100
AcDbEntity
  8
TEXT
100
AcDbText
 10
4.87725
 20
14.6565
 30
0.0
 40
0.234
  1
UTILIBOX  (STYLE H)
 41
0.75
 72
     4
 11
6.398249999999999
 21
14.7735
 31
0.0
100
AcDbText
  0
TEXT
  5
1B1
330
1E
100
AcDbEntity
  8
TEXT
100
AcDbText
 10
16.324125
 20
14.6565
 30
0.0
 40
0.234
  1
CU-1470  TO  CU-1474
 41
0.75
 72
     4
 11
17.97674999999999
 21
14.7735
 31
0.0
100
AcDbText
  0
TEXT
  5
1B2
330
1E
100
AcDbEntity
  8
TEXT
100
AcDbText
 10
11.5785
 20
12.48260499999999
 30
0.0
 40
0.1875
  1
%%UNOTE:%%U ALL DIMENSIONS HAVE %%P0.010 TOLERANCE
 41
0.75
100
AcDbText
  0
TEXT
  5
1B3
330
1E
100
AcDbEntity
  8
TEXT
100
AcDbText
 10
12.361814
 20
12.17904199999999
 30
0.0
 40
0.1875
  1
UNLESS OTHERWISE SPECIFIED.
 41
0.75
100
AcDbText
  0
DIMENSION
  5
1B4
330
1E
100
AcDbEntity
  8
DIM
100
AcDbDimension
  2
*D27
 10
5.984075999999999
 20
8.592069
 30
0.0
 11
3.952594
 21
8.592069
 31
0.0
 70
    32
  1
A
 71
     5
 42
4.062964
  3
23NSTD
100
AcDbAlignedDimension
 13
1.921111999999999
 23
8.210817999999999
 33
0.0
 14
5.984075999999999
 24
8.210817999999999
 34
0.0
100
AcDbRotatedDimension
  0
DIMENSION
  5
1C2
330
1E
100
AcDbEntity
  8
DIM
100
AcDbDimension
  2
*D28
 10
6.004966
 20
6.617022
 30
0.0
 11
3.952593999999999
 21
6.617022
 31
0.0
 70
    32
  1
D
 71
     5
 42
4.104744
  3
23NSTD
100
AcDbAlignedDimension
 13
1.900222
 23
7.413069
 33
0.0
 14
6.004966
 24
7.413069
 34
0.0
100
AcDbRotatedDimension
  0
LINE
  5
1D0
330
1E
100
AcDbEntity
  8
HIDDEN
100
AcDbLine
 10
2.127644
 20
7.655069
 30
0.0
 11
1.975797999999999
 21
7.625068999999999
 31
0.0
  0
DIMENSION
  5
1D1
330
1E
100
AcDbEntity
  8
DIM
100
AcDbDimension
  2
*D29
 10
6.285953
 20
8.313069
 30
0.0
 11
6.867952999999999
 21
9.017174843281786
 31
0.0
 70
   160
  1
<> TYP.
 71
     5
 42
0.0700000000000003
  3
23NSTD
100
AcDbAlignedDimension
 13
5.879112
 23
8.243069
 33
0.0
 14
5.879112
 24
8.313069
 34
0.0
 50
90.0
100
AcDbRotatedDimension
  0
LINE
  5
1DF
330
1E
100
AcDbEntity
  8
HIDDEN
100
AcDbLine
 10
5.777543999999999
 20
7.655069
 30
0.0
 11
5.929389999999999
 21
7.625068999999999
 31
0.0
  0
DIMENSION
  5
1E0
330
1E
100
AcDbEntity
  8
DIM
100
AcDbDimension
  2
*D30
 10
13.36810199999999
 20
7.413069
 30
0.0
 11
13.36810199999999
 21
7.863069000000002
 31
0.0
 70
    32
  1
C
 71
     5
 42
0.9000000000000012
  3
23NSTDI
100
AcDbAlignedDimension
 13
12.868748
 23
8.313069
 33
0.125
 14
12.994602
 24
7.413069
 34
0.125
 50
270.0
100
AcDbRotatedDimension
  0
DIMENSION
  5
1EE
330
1E
100
AcDbEntity
  8
DIM
100
AcDbDimension
  2
*D31
 10
10.78574799999999
 20
8.592069
 30
0.0
 11
11.87972999999999
 21
8.592069
 31
0.0
 70
    32
  1
B
 71
     5
 42
2.187963999999999
  3
23NSTD
100
AcDbAlignedDimension
 13
12.97371199999999
 23
8.210817999999999
 33
0.0
 14
10.78574799999999
 24
8.210817999999999
 34
0.0
100
AcDbRotatedDimension
  0
LINE
  5
1FC
330
1E
100
AcDbEntity
  8
HIDDEN
100
AcDbLine
 10
10.99228
 20
7.625068999999999
 30
0.0
 11
10.840434
 21
7.625068999999999
 31
0.0
  0
LINE
  5
1FD
330
1E
100
AcDbEntity
  8
HIDDEN
100
AcDbLine
 10
12.76718
 20
7.625068999999999
 30
0.0
 11
12.919027
 21
7.625068999999999
 31
0.0
  0
LWPOLYLINE
  5
1FE
330
1E
100
AcDbEntity
  8
HIDDEN
100
AcDbPolyline
 90
        4
 70
     1
 43
0.0
 10
2.151075999999999
 20
10.75848699999999
 10
2.151075999999999
 20
9.558486999999999
 10
5.754112
 20
9.558486999999999
 10
5.754112
 20
10.75848699999999
  0
LWPOLYLINE
  5
204
330
1E
100
AcDbEntity
  8
OBJECT
100
AcDbPolyline
 90
        8
 70
     1
 43
0.0
 10
5.984075999999999
 20
11.147469
 42
0.4142140000000001
 10
5.879076
 20
11.252469
 10
2.026111999999999
 20
11.252469
 42
0.4142140000000001
 10
1.921111999999999
 20
11.147469
 10
1.921111999999999
 20
9.169505
 42
0.4142140000000001
 10
2.026111999999999
 20
9.064505
 10
5.879076
 20
9.064505
 42
0.4142140000000001
 10
5.984075999999999
 20
9.169505
  0
LWPOLYLINE
  5
20E
330
1E
100
AcDbEntity
  8
OBJECT
100
AcDbPolyline
 90
        8
 70
     1
 43
0.0
 10
6.004966
 20
11.16835899999999
 42
0.4142140000000001
 10
5.899966
 20
11.273359
 10
2.005222
 20
11.273359
 42
0.4142140000000001
 10
1.900222
 20
11.16835899999999
 10
1.900222
 20
9.148614999999999
 42
0.4142140000000001
 10
2.005222
 20
9.043614999999999
 10
5.899966
 20
9.043614999999999
 42
0.4142140000000001
 10
6.004966
 20
9.148614999999999
  0
LWPOLYLINE
  5
218
330
1E
100
AcDbEntity
  8
OBJECT
100
AcDbPolyline
 90
        8
 70
     1
 43
0.0
 10
6.004966
 20
5.600823999999999
 42
0.4142140000000001
 10
5.899966
 20
5.705823999999999
 10
2.005222
 20
5.705823999999999
 42
0.4142140000000001
 10
1.900222
 20
5.600823999999999
 10
1.900222
 20
3.58108
 42
0.4142140000000001
 10
2.005222
 20
3.47608
 10
5.899966
 20
3.47608
 42
0.4142140000000001
 10
6.004966
 20
3.58108
  0
LWPOLYLINE
  5
222
330
1E
100
AcDbEntity
  8
OBJECT
100
AcDbPolyline
 90
        4
 70
     1
 43
0.0
 10
2.151075999999999
 20
5.190951999999999
 10
2.151075999999999
 20
3.990951999999999
 10
5.754112
 20
3.990951999999999
 10
5.754112
 20
5.190951999999999
  0
LWPOLYLINE
  5
228
330
1E
100
AcDbEntity
  8
OBJECT
100
AcDbPolyline
 90
        4
 70
     0
 43
0.0
 10
1.994524
 20
3.547755
 10
2.162240999999999
 20
3.715472
 42
11.979021
 10
2.139613999999999
 20
3.738098999999999
 10
1.971897
 20
3.570381999999999
  0
CIRCLE
  5
22E
330
1E
100
AcDbEntity
  8
OBJECT
100
AcDbCircle
 10
2.218218999999999
 20
3.794076999999999
 30
0.0
 40
0.045
  0
LWPOLYLINE
  5
22F
330
1E
100
AcDbEntity
  8
OBJECT
100
AcDbPolyline
 90
        4
 70
     0
 43
0.0
 10
1.994524
 20
5.634148999999999
 10
2.162240999999999
 20
5.466432
 42
-11.979021
 10
2.139613999999999
 20
5.443805
 10
1.971897
 20
5.611520999999999
  0
CIRCLE
  5
235
330
1E
100
AcDbEntity
  8
OBJECT
100
AcDbCircle
 10
2.218218999999999
 20
5.387826999999999
 30
0.0
 40
0.045
  0
LWPOLYLINE
  5
236
330
1E
100
AcDbEntity
  8
OBJECT
100
AcDbPolyline
 90
        4
 70
     0
 43
0.0
 10
5.933291
 20
3.570381999999999
 10
5.765573999999999
 20
3.738098999999999
 42
11.979021
 10
5.742947
 20
3.715472
 10
5.910662999999999
 20
3.547755
  0
CIRCLE
  5
23C
330
1E
100
AcDbEntity
  8
OBJECT
100
AcDbCircle
 10
5.686969
 20
3.794076999999999
 30
0.0
 40
0.045
  0
LWPOLYLINE
  5
23D
330
1E
100
AcDbEntity
  8
OBJECT
100
AcDbPolyline
 90
        4
 70
     0
 43
0.0
 10
5.933291
 20
5.611520999999999
 10
5.765573999999999
 20
5.443805
 42
-11.979021
 10
5.742947
 20
5.466432
 10
5.910662999999999
 20
5.634148999999999
  0
CIRCLE
  5
243
330
1E
100
AcDbEntity
  8
OBJECT
100
AcDbCircle
 10
5.686969
 20
5.387826999999999
 30
0.0
 40
0.045
  0
DIMENSION
  5
244
330
1E
100
AcDbEntity
  8
DIM
100
AcDbDimension
  2
*D32
 10
5.686969
 20
6.041468
 30
0.0
 11
3.952593999999999
 21
6.041468
 31
0.0
 70
    32
  1
E
 71
     5
 42
3.46875
  3
23NSTD
100
AcDbAlignedDimension
 13
2.218218999999999
 23
5.387826999999999
 33
0.0
 14
5.686969
 24
5.387826999999999
 34
0.0
100
AcDbRotatedDimension
  0
DIMENSION
  5
252
330
1E
100
AcDbEntity
  8
DIM
100
AcDbDimension
  2
*D33
 10
1.005335
 20
3.794076999999999
 30
0.0
 11
1.005334999999999
 21
4.590951999999999
 31
0.0
 70
    32
  1
F
 71
     5
 42
1.59375
  3
23NSTD
100
AcDbAlignedDimension
 13
2.218218999999999
 23
5.387826999999999
 33
0.0
 14
2.218218999999999
 24
3.794076999999999
 34
0.0
 50
270.0
100
AcDbRotatedDimension
  0
LWPOLYLINE
  5
260
330
1E
100
AcDbEntity
  8
OBJECT
100
AcDbPolyline
 90
        8
 70
     1
 43
0.0
 10
5.964966
 20
5.600823999999999
 42
0.4142140000000001
 10
5.899966
 20
5.665823999999999
 10
2.005222
 20
5.665823999999999
 42
0.4142140000000001
 10
1.940222
 20
5.600823999999999
 10
1.940222
 20
3.58108
 42
0.4142140000000001
 10
2.005222
 20
3.51608
 10
5.899966
 20
3.51608
 42
0.4142140000000001
 10
5.964966
 20
3.58108
  0
LWPOLYLINE
  5
26A
330
1E
100
AcDbEntity
  8
OBJECT
100
AcDbPolyline
 90
        8
 70
     1
 43
0.0
 10
5.934966
 20
5.600823999999999
 42
0.4142140000000001
 10
5.899966
 20
5.635823999999999
 10
2.005222
 20
5.635823999999999
 42
0.4142140000000001
 10
1.970222
 20
5.600823999999999
 10
1.970222
 20
3.58108
 42
0.4142140000000001
 10
2.005222
 20
3.54608
 10
5.899966
 20
3.54608
 42
0.4142140000000001
 10
5.934966
 20
3.58108
  0
LWPOLYLINE
  5
274
330
1E
100
AcDbEntity
  8
HIDDEN
100
AcDbPolyline
 90
        4
 70
     0
 43
0.0
 10
1.994524
 20
9.115289999999999
 10
2.162240999999999
 20
9.283007000000001
 42
11.979021
 10
2.139613999999999
 20
9.305633999999999
 10
1.971897
 20
9.137916999999999
  0
CIRCLE
  5
27A
330
1E
100
AcDbEntity
  8
HIDDEN
100
AcDbCircle
 10
2.218218999999999
 20
9.361611999999999
 30
0.0
 40
0.045
  0
LWPOLYLINE
  5
27B
330
1E
100
AcDbEntity
  8
HIDDEN
100
AcDbPolyline
 90
        8
 70
     1
 43
0.0
 10
5.934966
 20
11.16835899999999
 42
0.4142140000000001
 10
5.899966
 20
11.20335899999999
 10
2.005222
 20
11.20335899999999
 42
0.4142140000000001
 10
1.970222
 20
11.16835899999999
 10
1.970222
 20
9.148614999999999
 42
0.4142140000000001
 10
2.005222
 20
9.113614999999999
 10
5.899966
 20
9.113614999999999
 42
0.4142140000000001
 10
5.934966
 20
9.148614999999999
  0
LWPOLYLINE
  5
285
330
1E
100
AcDbEntity
  8
HIDDEN
100
AcDbPolyline
 90
        4
 70
     0
 43
0.0
 10
5.933291
 20
9.137916999999999
 10
5.765573999999999
 20
9.305633999999999
 42
11.979021
 10
5.742947
 20
9.283007000000001
 10
5.910662999999999
 20
9.115289999999999
  0
CIRCLE
  5
28B
330
1E
100
AcDbEntity
  8
HIDDEN
100
AcDbCircle
 10
5.686969
 20
9.361611999999999
 30
0.0
 40
0.045
  0
CIRCLE
  5
28C
330
1E
100
AcDbEntity
  8
HIDDEN
100
AcDbCircle
 10
5.686969
 20
10.95536199999999
 30
0.0
 40
0.045
  0
LWPOLYLINE
  5
28D
330
1E
100
AcDbEntity
  8
HIDDEN
100
AcDbPolyline
 90
        4
 70
     0
 43
0.0
 10
5.933291
 20
11.179056
 10
5.765573999999999
 20
11.01133999999999
 42
-11.979021
 10
5.742947
 20
11.033967
 10
5.910662999999999
 20
11.201684
  0
LWPOLYLINE
  5
293
330
1E
100
AcDbEntity
  8
HIDDEN
100
AcDbPolyline
 90
        4
 70
     0
 43
0.0
 10
1.994524
 20
11.201684
 10
2.162240999999999
 20
11.033967
 42
-11.979021
 10
2.139613999999999
 20
11.01133999999999
 10
1.971897
 20
11.179056
  0
CIRCLE
  5
299
330
1E
100
AcDbEntity
  8
HIDDEN
100
AcDbCircle
 10
2.218218999999999
 20
10.95536199999999
 30
0.0
 40
0.045
  0
LINE
  5
29A
330
1E
100
AcDbEntity
  8
OBJECT
100
AcDbLine
 10
1.905118999999999
 20
7.600069
 30
0.0
 11
6.000068999999999
 21
7.600069
 31
0.0
  0
LINE
  5
29B
330
1E
100
AcDbEntity
  8
OBJECT
100
AcDbLine
 10
12.989705
 20
7.600069
 30
0.0
 11
10.769755
 21
7.600069
 31
0.0
  0
DIMENSION
  5
29C
330
1E
100
AcDbEntity
  8
DIM
100
AcDbDimension
  2
*D34
 10
1.940236
 20
7.038522
 30
0.0
 11
0.7589703693999397
 21
7.017136171524953
 31
0.0
 70
   160
  1
<> TYP.
 71
     5
 42
0.040014
  3
23NSTD
100
AcDbAlignedDimension
 13
1.900222
 23
7.413069
 33
0.0
 14
1.940236
 24
7.413069
 34
0.0
100
AcDbRotatedDimension
  0
LWPOLYLINE
  5
2AA
330
1E
100
AcDbEntity
  8
DIM
100
AcDbPolyline
 90
        4
 70
     0
 10
5.731938999999999
 20
5.389454999999999
 40
0.0
 41
0.10125
 10
5.955286
 20
5.541166999999999
 40
0.0
 41
0.0
 10
6.577755
 20
5.963987999999999
 40
0.0
 41
0.0
 10
6.847755
 20
5.963987999999999
 40
0.0
 41
0.0
  0
LWPOLYLINE
  5
2B0
330
1E
100
AcDbEntity
  8
DIM
100
AcDbPolyline
 90
        4
 70
     0
 10
5.758472
 20
5.323023
 40
0.0
 41
0.10125
 10
6.011150999999999
 20
5.227875
 40
0.0
 41
0.0
 10
6.60801
 20
5.003123999999999
 40
0.0
 41
0.0
 10
6.87801
 20
5.003123999999999
 40
0.0
 41
0.0
  0
TEXT
  5
2B6
330
1E
100
AcDbEntity
  8
DIM
100
AcDbText
 10
7.01301
 20
4.909373999999999
 30
0.0
 40
0.1875
  1
0.180 DIA. BOSS
 41
0.75
 11
7.01301
 21
5.003123999999999
 31
0.0
100
AcDbText
 73
     2
  0
TEXT
  5
2B7
330
1E
100
AcDbEntity
  8
DIM
100
AcDbText
 10
6.982755
 20
5.870237999999999
 30
0.0
 40
0.1875
  1
0.090 DIA. x 0.500 DEEP
 41
0.75
 11
6.982755
 21
5.963987999999999
 31
0.0
100
AcDbText
 73
     2
  0
TEXT
  5
2B8
330
1E
100
AcDbEntity
  8
DIM
100
AcDbText
 10
6.982755
 20
5.557737999999999
 30
0.0
 40
0.1875
  1
(4) HOLES
 41
0.75
 11
6.982755
 21
5.651487999999999
 31
0.0
100
AcDbText
 73
     2
  0
TEXT
  5
2B9
330
1E
100
AcDbEntity
  8
DIM
100
AcDbText
 10
7.01301
 20
4.596873999999999
 30
0.0
 40
0.1875
  1
(4) PLACES
 41
0.75
 11
7.01301
 21
4.690623999999999
 31
0.0
100
AcDbText
 73
     2
  0
DIMENSION
  5
2BA
330
1E
100
AcDbEntity
  8
DIM
  6
Continuous
100
AcDbDimension
  2
*D35
 10
6.707453
 20
7.600069
 30
0.0
 11
7.95059190351754
 21
8.304683679147025
 31
0.0
 70
   160
  1
<> POLISHED BAND
 71
     5
 42
0.1870000000000003
  3
23NSTD
100
AcDbAlignedDimension
 13
6.004966
 23
7.413069
 33
0.0
 14
6.000068999999999
 24
7.600069
 34
0.0
 50
90.0
100
AcDbRotatedDimension
  0
DIMENSION
  5
2C8
330
1E
100
AcDbEntity
  8
DIM
100
AcDbDimension
  2
*D36
 10
5.754112
 20
3.177995
 30
0.0
 11
3.952593999999999
 21
3.177995
 31
0.0
 70
    32
  1
P
 71
     5
 42
3.603036
  3
23NSTD
100
AcDbAlignedDimension
 13
2.151075999999999
 23
3.990951999999999
 33
0.0
 14
5.754112
 24
3.990951999999999
 34
0.0
100
AcDbRotatedDimension
  0
DIMENSION
  5
2D6
330
1E
100
AcDbEntity
  8
DIM
100
AcDbDimension
  2
*D37
 10
1.426835
 20
5.190952
 30
0.0
 11
1.426834999999999
 21
4.590951999999999
 31
0.0
 70
    32
  1
Q
 71
     5
 42
1.2
  3
23NSTDI
100
AcDbAlignedDimension
 13
2.151075999999999
 23
3.990951999999999
 33
0.0
 14
2.151075999999999
 24
5.190951999999999
 34
0.0
 50
270.0
100
AcDbRotatedDimension
  0
LWPOLYLINE
  5
2E4
330
1E
100
AcDbEntity
  8
DIM
100
AcDbPolyline
 90
        4
 70
     0
 10
5.412441
 20
4.590951999999999
 40
0.0
 41
0.10125
 10
5.637558
 20
4.441880999999999
 40
0.0
 41
0.0
 10
6.223609999999999
 20
4.053803
 40
0.0
 41
0.0
 10
6.493609999999999
 20
4.053803
 40
0.0
 41
0.0
  0
TEXT
  5
2EA
330
1E
100
AcDbEntity
  8
DIM
100
AcDbText
 10
6.628610000000001
 20
3.960053
 30
0.0
 40
0.1875
  1
RECESSED AREA 0.010 DEEP
 41
0.75
 11
6.628610000000001
 21
4.053803
 31
0.0
100
AcDbText
 73
     2
  0
TEXT
  5
2EB
330
1E
100
AcDbEntity
  8
DIM
100
AcDbText
 10
6.628610000000001
 20
3.647552999999999
 30
0.0
 40
0.1875
  1
INSIDE TOP
 41
0.75
 11
6.628610000000001
 21
3.741302999999999
 31
0.0
100
AcDbText
 73
     2
  0
TEXT
  5
2EC
330
1E
100
AcDbEntity
  8
TEXT
100
AcDbText
 10
17.792103
 20
14.058874
 30
0.0
 40
0.187714
  1
FOUR (4) #4 x 1.000 LG. SELF THREADING
 41
0.75
100
AcDbText
  0
TEXT
  5
2ED
330
1E
100
AcDbEntity
  8
TEXT
100
AcDbText
 10
17.792103
 20
13.746016
 30
0.0
 40
0.187714
  1
SCREWS WITH HI/LOW THREADS
 41
0.75
100
AcDbText
  0
TEXT
  5
2EE
330
1E
100
AcDbEntity
  8
TEXT
100
AcDbText
 10
17.792103
 20
13.433159
 30
0.0
 40
0.187714
  1
ARE SUPPLIED FOR MOUNTING COVER.
 41
0.75
100
AcDbText
  0
TEXT
  5
2EF
330
1E
100
AcDbEntity
  8
TEXT
100
AcDbText
 10
0.503386
 20
13.103681
 30
0.0
 40
0.1875
  1
BODY - OUTSIDE SURFACES ARE TEXTURED FINISH
 41
0.75
100
AcDbText
  0
TEXT
  5
2F0
330
1E
100
AcDbEntity
  8
TEXT
100
AcDbText
 10
0.353291
 20
13.416181
 30
0.0
 40
0.1875
  1
%%uFINISH:
 41
0.75
100
AcDbText
  0
TEXT
  5
2F1
330
1E
100
AcDbEntity
  8
TEXT
100
AcDbText
 10
0.503386
 20
12.792181
 30
0.0
 40
0.1875
  1
COVER - VERTICAL OUTSIDE SURFACES ARE TEXTURED
 41
0.75
100
AcDbText
  0
TEXT
  5
2F2
330
1E
100
AcDbEntity
  8
TEXT
100
AcDbText
 10
1.853743999999999
 20
12.479681
 30
0.0
 40
0.1875
  1
REMAINDER OF PART IS SMOOTH.
 41
0.75
100
AcDbText
  0
DIMENSION
  5
2F3
330
1E
100
AcDbEntity
  8
DIM
100
AcDbDimension
  2
*D38
 10
14.477482
 20
7.393069
 30
0.0
 11
14.08298199999999
 21
6.905281102591615
 31
0.0
 70
   160
  1
<>
 71
     5
 42
0.0899999999999999
  3
23NSTD
100
AcDbAlignedDimension
 13
14.842634
 23
7.483069
 33
0.0625
 14
14.799204
 24
7.393069
 34
0.0625
 50
90.0
100
AcDbRotatedDimension
  0
DIMENSION
  5
301
330
1E
100
AcDbEntity
  8
DIM
100
AcDbDimension
  2
*D39
 10
10.753299
 20
6.457658
 30
0.0
 11
11.8796875
 21
6.457658
 31
0.0
 70
    32
  1
H
 71
     5
 42
2.252777
  3
23NSTD
100
AcDbAlignedDimension
 13
13.006076
 23
6.951341
 33
0.0625
 14
10.753299
 24
6.948069
 34
0.0625
100
AcDbRotatedDimension
  0
DIMENSION
  5
30F
330
1E
100
AcDbEntity
  8
DIM
100
AcDbDimension
  2
*D40
 10
10.391451
 20
6.823069
 30
0.0
 11
10.39145099999999
 21
7.108069000000002
 31
0.0
 70
    32
  1
J
 71
     5
 42
0.5700000000000003
  3
23NSTDI
100
AcDbAlignedDimension
 13
10.764951
 23
7.393069
 33
0.0625
 14
10.878342
 24
6.823069
 34
0.0625
 50
90.0
100
AcDbRotatedDimension
  0
DIMENSION
  5
31D
330
1E
100
AcDbEntity
  8
DIM
100
AcDbDimension
  2
*D41
 10
16.38302699999999
 20
6.823069
 30
0.0
 11
15.95577179465025
 21
6.446003739825911
 31
0.0
 70
   160
  1
<>
 71
     5
 42
0.093
  3
23NSTD
100
AcDbAlignedDimension
 13
16.320027
 23
6.916069
 33
0.0625
 14
16.305768
 24
6.823069
 34
0.0625
 50
270.0
100
AcDbRotatedDimension
  0
DIMENSION
  5
32B
330
1E
100
AcDbEntity
  8
DIM
100
AcDbDimension
  2
*D42
 10
18.903762
 20
7.871649
 30
0.0
 11
16.851483
 21
7.871649
 31
0.0
 70
    32
  1
D
 71
     5
 42
4.104557999999999
  3
23NSTD
100
AcDbAlignedDimension
 13
14.799204
 23
7.393069
 33
0.0625
 14
18.903762
 24
7.393069
 34
0.0625
100
AcDbRotatedDimension
  0
DIMENSION
  5
339
330
1E
100
AcDbEntity
  8
DIM
100
AcDbDimension
  2
*D43
 10
14.323276
 20
9.645486999999999
 30
0.0
 11
14.32327599999999
 21
10.158487
 31
0.0
 70
    32
  1
M
 71
     5
 42
1.025999999999999
  3
23NSTDI
100
AcDbAlignedDimension
 13
15.400483
 23
10.67148699999999
 33
0.0
 14
15.400483
 24
9.645486999999999
 34
0.0
 50
90.0
100
AcDbRotatedDimension
  0
DIMENSION
  5
347
330
1E
100
AcDbEntity
  8
DIM
100
AcDbDimension
  2
*D44
 10
18.302483
 20
8.752603999999999
 30
0.0
 11
16.85148299999999
 21
8.752603999999999
 31
0.0
 70
    32
  1
L
 71
     5
 42
2.901999999999999
  3
23NSTD
100
AcDbAlignedDimension
 13
15.400483
 23
9.645486999999999
 33
0.0
 14
18.302483
 24
9.645486999999999
 34
0.0
 50
180.0
100
AcDbRotatedDimension
  0
DIMENSION
  5
355
330
1E
100
AcDbEntity
  8
DIM
100
AcDbDimension
  2
*D45
 10
19.286689
 20
3.791450999999999
 30
0.0
 11
19.286689
 21
4.588451000000003
 31
0.0
 70
    32
  1
F
 71
     5
 42
1.593999999999999
  3
23NSTD
100
AcDbAlignedDimension
 13
18.58598299999999
 23
5.385450999999999
 33
0.0
 14
18.58598299999999
 24
3.791451
 34
0.0
 50
90.0
100
AcDbRotatedDimension
  0
DIMENSION
  5
363
330
1E
100
AcDbEntity
  8
DIM
100
AcDbDimension
  2
*D46
 10
18.91532899999999
 20
6.036158
 30
0.0
 11
16.85144
 21
6.036158
 31
0.0
 70
    32
  1
G
 71
     5
 42
4.127777999999999
  3
23NSTD
100
AcDbAlignedDimension
 13
14.787551
 23
6.948069
 33
0.0625
 14
18.91532899999999
 24
6.951341
 34
0.0625
100
AcDbRotatedDimension
  0
DIMENSION
  5
371
330
1E
100
AcDbEntity
  8
DIM
100
AcDbDimension
  2
*D47
 10
18.58598299999999
 20
3.167736999999999
 30
0.0
 11
16.85148299999999
 21
3.167736999999999
 31
0.0
 70
    32
  1
E
 71
     5
 42
3.468999999999999
  3
23NSTD
100
AcDbAlignedDimension
 13
15.11698299999999
 23
3.791451
 33
0.0
 14
18.58598299999999
 24
3.791451
 34
0.0
 50
180.0
100
AcDbRotatedDimension
  0
LINE
  5
37F
330
1E
100
AcDbEntity
  8
OBJECT
100
AcDbLine
 10
14.799204
 20
7.393069
 30
0.0
 11
18.903762
 21
7.393069
 31
0.0
  0
LINE
  5
380
330
1E
100
AcDbEntity
  8
OBJECT
100
AcDbLine
 10
14.787551
 20
6.948069
 30
0.0
 11
18.915414
 21
6.948069
 31
0.0
  0
LWPOLYLINE
  5
381
330
1E
100
AcDbEntity
  8
OBJECT
100
AcDbPolyline
 90
        8
 70
     1
 43
0.0
 10
18.79876199999999
 20
9.043708
 42
0.4142140000000001
 10
18.903762
 20
9.148708
 10
18.903762
 20
11.168266
 42
0.4142140000000001
 10
18.79876199999999
 20
11.27326599999999
 10
14.904204
 20
11.27326599999999
 42
0.4142140000000001
 10
14.799204
 20
11.168266
 10
14.799204
 20
9.148708
 42
0.4142140000000001
 10
14.904204
 20
9.043708
  0
LWPOLYLINE
  5
38B
330
1E
100
AcDbEntity
  8
OBJECT
100
AcDbPolyline
 90
        8
 70
     1
 43
0.0
 10
18.810866
 20
9.031603999999999
 42
0.4142140000000001
 10
18.915866
 20
9.136604
 10
18.915866
 20
11.18036999999999
 42
0.4142140000000001
 10
18.810866
 20
11.28537
 10
14.89209899999999
 20
11.28537
 42
0.4142140000000001
 10
14.787099
 20
11.18036999999999
 10
14.787099
 20
9.136604
 42
0.4142140000000001
 10
14.89209899999999
 20
9.031603999999999
  0
ARC
  5
395
330
1E
100
AcDbEntity
  8
OBJECT
100
AcDbCircle
 10
14.987995
 20
7.043253999999999
 30
0.0
 40
0.220434
100
AcDbArc
 50
204.6429219999999
 51
272.726717
  0
LINE
  5
396
330
1E
100
AcDbEntity
  8
OBJECT
100
AcDbLine
 10
14.799204
 20
7.393069
 30
0.0
 11
14.787637
 21
6.951341
 31
0.0
  0
LWPOLYLINE
  5
397
330
1E
100
AcDbEntity
  8
OBJECT
100
AcDbPolyline
 90
        8
 70
     1
 43
0.0
 10
18.79880499999999
 20
9.118064999999999
 42
0.4142140000000001
 10
18.82940499999999
 20
9.148664999999999
 10
18.82940499999999
 20
11.16830899999999
 42
0.4142140000000001
 10
18.79880499999999
 20
11.198909
 10
14.904161
 20
11.198909
 42
0.4142140000000001
 10
14.87356099999999
 20
11.16830899999999
 10
14.87356099999999
 20
9.148664999999999
 42
0.4142140000000001
 10
14.904161
 20
9.118064999999999
  0
LWPOLYLINE
  5
3A1
330
1E
100
AcDbEntity
  8
OBJECT
100
AcDbPolyline
 90
        8
 70
     1
 43
0.0
 10
18.798731
 20
9.087138000000001
 42
0.4142140000000001
 10
18.86033099999999
 20
9.148737999999999
 10
18.86033099999999
 20
11.168236
 42
0.4142140000000001
 10
18.798731
 20
11.229836
 10
14.904234
 20
11.229836
 42
0.4142140000000001
 10
14.842634
 20
11.168236
 10
14.842634
 20
9.148737999999999
 42
0.4142140000000001
 10
14.904234
 20
9.087138000000001
  0
LINE
  5
3AB
330
1E
100
AcDbEntity
  8
OBJECT
100
AcDbLine
 10
14.842634
 20
7.483069
 30
0.0
 11
18.86033099999999
 21
7.483069
 31
0.0
  0
LINE
  5
3AC
330
1E
100
AcDbEntity
  8
OBJECT
100
AcDbLine
 10
14.998481
 20
6.823069
 30
0.0
 11
18.790371
 21
6.823069
 31
0.0
  0
LINE
  5
3AD
330
1E
100
AcDbEntity
  8
HIDDEN
100
AcDbLine
 10
18.804634
 20
6.916455
 30
0.0
 11
14.898332
 21
6.916455
 31
0.0
  0
LINE
  5
3AE
330
1E
100
AcDbEntity
  8
HIDDEN
100
AcDbLine
 10
15.009589
 20
7.484697999999999
 30
0.0
 11
15.00462999999999
 21
6.916455
 31
0.0
  0
LINE
  5
3AF
330
1E
100
AcDbEntity
  8
HIDDEN
100
AcDbLine
 10
15.224376
 20
7.484697999999999
 30
0.0
 11
15.229335
 21
6.916455
 31
0.0
  0
LINE
  5
3B0
330
1E
100
AcDbEntity
  8
HIDDEN
100
AcDbLine
 10
14.87356099999999
 20
7.483069
 30
0.0
 11
14.878333
 21
6.936281
 31
0.0
  0
LINE
  5
3B1
330
1E
100
AcDbEntity
  8
HIDDEN
100
AcDbLine
 10
15.355525
 20
6.893069
 30
0.0
 11
15.44552499999999
 21
6.893069
 31
0.0
  0
LINE
  5
3B2
330
1E
100
AcDbEntity
  8
HIDDEN
100
AcDbLine
 10
15.31044
 20
7.143069
 30
0.0
 11
15.490525
 21
7.143069
 31
0.0
  0
LINE
  5
3B3
330
1E
100
AcDbEntity
  8
HIDDEN
100
AcDbLine
 10
15.355525
 20
6.893069
 30
0.0
 11
15.355525
 21
7.143069
 31
0.0
  0
LINE
  5
3B4
330
1E
100
AcDbEntity
  8
HIDDEN
100
AcDbLine
 10
15.31044
 20
7.143069
 30
0.0
 11
15.308463
 21
6.916455
 31
0.0
  0
ARC
  5
3B5
330
1E
100
AcDbEntity
  8
HIDDEN
100
AcDbCircle
 10
14.898332
 20
6.936455
 30
0.0
 40
0.02
100
AcDbArc
 50
180.4999999999999
 51
270.0
  0
LINE
  5
3B6
330
1E
100
AcDbEntity
  8
HIDDEN
100
AcDbLine
 10
15.44552499999999
 20
6.893069
 30
0.0
 11
15.44552499999999
 21
7.143069
 31
0.0
  0
LINE
  5
3B7
330
1E
100
AcDbEntity
  8
HIDDEN
100
AcDbLine
 10
15.490525
 20
7.143069
 30
0.0
 11
15.49250299999999
 21
6.916455
 31
0.0
  0
LINE
  5
3B8
330
1E
100
AcDbEntity
  8
OBJECT
100
AcDbLine
 10
15.223413
 20
7.593068999999999
 30
0.0
 11
15.224376
 21
7.484697999999999
 31
0.0
  0
LINE
  5
3B9
330
1E
100
AcDbEntity
  8
OBJECT
100
AcDbLine
 10
15.01055199999999
 20
7.593068999999999
 30
0.0
 11
15.009589
 21
7.484697999999999
 31
0.0
  0
LINE
  5
3BA
330
1E
100
AcDbEntity
  8
OBJECT
100
AcDbLine
 10
14.842634
 20
7.483069
 30
0.0
 11
14.84027699999999
 21
7.393069
 31
0.0
  0
LINE
  5
3BB
330
1E
100
AcDbEntity
  8
OBJECT
100
AcDbLine
 10
15.01055199999999
 20
7.593068999999999
 30
0.0
 11
15.223413
 21
7.593068999999999
 31
0.0
  0
ARC
  5
3BC
330
1E
100
AcDbEntity
  8
HIDDEN
100
AcDbCircle
 10
16.849388
 20
6.779827
 30
0.0
 40
0.103242
100
AcDbArc
 50
24.761514
 51
155.238486
  0
ARC
  5
3BD
330
1E
100
AcDbEntity
  8
HIDDEN
100
AcDbCircle
 10
16.849388
 20
6.813213
 30
0.0
 40
0.163242
100
AcDbArc
 50
39.23095999999999
 51
140.7690399999999
  0
CIRCLE
  5
3BE
330
1E
100
AcDbEntity
  8
OBJECT
100
AcDbCircle
 10
15.400483
 20
9.645486999999999
 30
0.0
 40
0.045
  0
CIRCLE
  5
3BF
330
1E
100
AcDbEntity
  8
OBJECT
100
AcDbCircle
 10
15.400483
 20
9.645486999999999
 30
0.0
 40
0.09
  0
CIRCLE
  5
3C0
330
1E
100
AcDbEntity
  8
OBJECT
100
AcDbCircle
 10
15.11698299999999
 20
9.361487
 30
0.0
 40
0.061668
  0
CIRCLE
  5
3C1
330
1E
100
AcDbEntity
  8
OBJECT
100
AcDbCircle
 10
15.11698299999999
 20
9.361487
 30
0.0
 40
0.10645
  0
CIRCLE
  5
3C2
330
1E
100
AcDbEntity
  8
OBJECT
100
AcDbCircle
 10
15.400483
 20
10.67148699999999
 30
0.0
 40
0.045
  0
CIRCLE
  5
3C3
330
1E
100
AcDbEntity
  8
OBJECT
100
AcDbCircle
 10
15.400483
 20
10.67148699999999
 30
0.0
 40
0.09
  0
CIRCLE
  5
3C4
330
1E
100
AcDbEntity
  8
OBJECT
100
AcDbCircle
 10
16.85148299999999
 20
10.158487
 30
0.0
 40
0.1197
  0
LINE
  5
3C5
330
1E
100
AcDbEntity
  8
OBJECT
100
AcDbLine
 10
18.692413
 20
7.593068999999999
 30
0.0
 11
18.47955199999999
 21
7.593068999999999
 31
0.0
  0
LINE
  5
3C6
330
1E
100
AcDbEntity
  8
HIDDEN
100
AcDbLine
 10
18.647413
 20
7.593068999999999
 30
0.0
 11
18.65448299999999
 21
6.897508999999999
 31
0.0
  0
LINE
  5
3C7
330
1E
100
AcDbEntity
  8
HIDDEN
100
AcDbLine
 10
18.478589
 20
7.484697999999999
 30
0.0
 11
18.47362999999999
 21
6.916455
 31
0.0
  0
LINE
  5
3C8
330
1E
100
AcDbEntity
  8
HIDDEN
100
AcDbLine
 10
18.52455199999999
 20
7.593068999999999
 30
0.0
 11
18.51748299999999
 21
6.897508999999999
 31
0.0
  0
LINE
  5
3C9
330
1E
100
AcDbEntity
  8
HIDDEN
100
AcDbLine
 10
18.39252499999999
 20
7.143069
 30
0.0
 11
18.394503
 21
6.916455
 31
0.0
  0
LINE
  5
3CA
330
1E
100
AcDbEntity
  8
HIDDEN
100
AcDbLine
 10
18.39252499999999
 20
7.143069
 30
0.0
 11
18.21244
 21
7.143069
 31
0.0
  0
LINE
  5
3CB
330
1E
100
AcDbEntity
  8
HIDDEN
100
AcDbLine
 10
18.21244
 20
7.143069
 30
0.0
 11
18.210463
 21
6.916455
 31
0.0
  0
LINE
  5
3CC
330
1E
100
AcDbEntity
  8
HIDDEN
100
AcDbLine
 10
18.25744
 20
6.893069
 30
0.0
 11
18.25744
 21
7.143069
 31
0.0
  0
LINE
  5
3CD
330
1E
100
AcDbEntity
  8
HIDDEN
100
AcDbLine
 10
18.34743999999999
 20
6.893069
 30
0.0
 11
18.34743999999999
 21
7.143069
 31
0.0
  0
LINE
  5
3CE
330
1E
100
AcDbEntity
  8
HIDDEN
100
AcDbLine
 10
18.34743999999999
 20
6.893069
 30
0.0
 11
18.25744
 21
6.893069
 31
0.0
  0
LINE
  5
3CF
330
1E
100
AcDbEntity
  8
OBJECT
100
AcDbLine
 10
18.47955199999999
 20
7.593068999999999
 30
0.0
 11
18.478589
 21
7.484697999999999
 31
0.0
  0
LINE
  5
3D0
330
1E
100
AcDbEntity
  8
HIDDEN
100
AcDbLine
 10
18.82940499999999
 20
7.483069
 30
0.0
 11
18.82463299999999
 21
6.936281
 31
0.0
  0
LINE
  5
3D1
330
1E
100
AcDbEntity
  8
OBJECT
100
AcDbLine
 10
18.903762
 20
7.393069
 30
0.0
 11
18.91532899999999
 21
6.951341
 31
0.0
  0
LINE
  5
3D2
330
1E
100
AcDbEntity
  8
HIDDEN
100
AcDbLine
 10
18.693376
 20
7.484697999999999
 30
0.0
 11
18.698335
 21
6.916455
 31
0.0
  0
ARC
  5
3D3
330
1E
100
AcDbEntity
  8
HIDDEN
100
AcDbCircle
 10
18.804634
 20
6.936455
 30
0.0
 40
0.02
100
AcDbArc
 50
270.0
 51
359.5
  0
ARC
  5
3D4
330
1E
100
AcDbEntity
  8
OBJECT
100
AcDbCircle
 10
18.790371
 20
6.948069
 30
0.0
 40
0.125
100
AcDbArc
 50
270.0
 51
1.5
  0
LINE
  5
3D5
330
1E
100
AcDbEntity
  8
OBJECT
100
AcDbLine
 10
18.86033099999999
 20
7.483069
 30
0.0
 11
18.862688
 21
7.393069
 31
0.0
  0
LINE
  5
3D6
330
1E
100
AcDbEntity
  8
OBJECT
100
AcDbLine
 10
18.692413
 20
7.593068999999999
 30
0.0
 11
18.693376
 21
7.484697999999999
 31
0.0
  0
CIRCLE
  5
3D7
330
1E
100
AcDbEntity
  8
OBJECT
100
AcDbCircle
 10
18.58598299999999
 20
9.361487
 30
0.0
 40
0.10645
  0
CIRCLE
  5
3D8
330
1E
100
AcDbEntity
  8
OBJECT
100
AcDbCircle
 10
18.302483
 20
9.645486999999999
 30
0.0
 40
0.09
  0
CIRCLE
  5
3D9
330
1E
100
AcDbEntity
  8
OBJECT
100
AcDbCircle
 10
18.302483
 20
9.645486999999999
 30
0.0
 40
0.045
  0
CIRCLE
  5
3DA
330
1E
100
AcDbEntity
  8
OBJECT
100
AcDbCircle
 10
18.58598299999999
 20
9.361487
 30
0.0
 40
0.061668
  0
CIRCLE
  5
3DB
330
1E
100
AcDbEntity
  8
OBJECT
100
AcDbCircle
 10
18.302483
 20
10.67148699999999
 30
0.0
 40
0.045
  0
CIRCLE
  5
3DC
330
1E
100
AcDbEntity
  8
OBJECT
100
AcDbCircle
 10
18.302483
 20
10.67148699999999
 30
0.0
 40
0.09
  0
CIRCLE
  5
3DD
330
1E
100
AcDbEntity
  8
OBJECT
100
AcDbCircle
 10
15.11698299999999
 20
10.95548699999999
 30
0.0
 40
0.061668
  0
CIRCLE
  5
3DE
330
1E
100
AcDbEntity
  8
OBJECT
100
AcDbCircle
 10
15.11698299999999
 20
10.95548699999999
 30
0.0
 40
0.061668
  0
CIRCLE
  5
3DF
330
1E
100
AcDbEntity
  8
OBJECT
100
AcDbCircle
 10
15.11698299999999
 20
10.95548699999999
 30
0.0
 40
0.10645
  0
CIRCLE
  5
3E0
330
1E
100
AcDbEntity
  8
OBJECT
100
AcDbCircle
 10
18.58598299999999
 20
10.95548699999999
 30
0.0
 40
0.10645
  0
CIRCLE
  5
3E1
330
1E
100
AcDbEntity
  8
OBJECT
100
AcDbCircle
 10
18.58598299999999
 20
10.95548699999999
 30
0.0
 40
0.061668
  0
CIRCLE
  5
3E2
330
1E
100
AcDbEntity
  8
OBJECT
100
AcDbCircle
 10
18.58598299999999
 20
10.95548699999999
 30
0.0
 40
0.061668
  0
LINE
  5
3E3
330
1E
100
AcDbEntity
  8
OBJECT
100
AcDbLine
 10
10.753299
 20
6.948069
 30
0.0
 11
13.006162
 21
6.948069
 31
0.0
  0
LINE
  5
3E4
330
1E
100
AcDbEntity
  8
HIDDEN
100
AcDbLine
 10
11.41168799999999
 20
6.893069
 30
0.0
 11
11.321688
 21
6.893069
 31
0.0
  0
LINE
  5
3E5
330
1E
100
AcDbEntity
  8
HIDDEN
100
AcDbLine
 10
11.321688
 20
6.893069
 30
0.0
 11
11.321688
 21
7.143069
 31
0.0
  0
LINE
  5
3E6
330
1E
100
AcDbEntity
  8
HIDDEN
100
AcDbLine
 10
12.437773
 20
6.893069
 30
0.0
 11
12.437773
 21
7.143069
 31
0.0
  0
LINE
  5
3E7
330
1E
100
AcDbEntity
  8
HIDDEN
100
AcDbLine
 10
12.347773
 20
6.893069
 30
0.0
 11
12.347773
 21
7.143069
 31
0.0
  0
LINE
  5
3E8
330
1E
100
AcDbEntity
  8
HIDDEN
100
AcDbLine
 10
12.482857
 20
7.143069
 30
0.0
 11
12.484838
 21
6.916069
 31
0.0
  0
ARC
  5
3E9
330
1E
100
AcDbEntity
  8
HIDDEN
100
AcDbCircle
 10
11.87973
 20
6.812827
 30
0.0
 40
0.163242
100
AcDbArc
 50
39.23095999999999
 51
140.7690399999999
  0
LINE
  5
3EA
330
1E
100
AcDbEntity
  8
HIDDEN
100
AcDbLine
 10
11.41168799999999
 20
6.893069
 30
0.0
 11
11.41168799999999
 21
7.143069
 31
0.0
  0
LINE
  5
3EB
330
1E
100
AcDbEntity
  8
HIDDEN
100
AcDbLine
 10
12.347773
 20
6.893069
 30
0.0
 11
12.437773
 21
6.893069
 31
0.0
  0
ARC
  5
3EC
330
1E
100
AcDbEntity
  8
HIDDEN
100
AcDbCircle
 10
11.87973
 20
6.779827
 30
0.0
 40
0.103242
100
AcDbArc
 50
24.761514
 51
155.238486
  0
LWPOLYLINE
  5
3ED
330
1E
100
AcDbEntity
  8
DIM
100
AcDbPolyline
 90
        4
 70
     0
 10
18.33454
 20
10.70306699999999
 40
0.0
 41
0.105188
 10
18.605267
 20
10.776464
 40
0.0
 41
0.0
 10
19.773371
 20
11.09315
 40
0.0
 41
0.0
 10
20.043371
 20
11.09315
 40
0.0
 41
0.0
  0
LWPOLYLINE
  5
3F3
330
1E
100
AcDbEntity
  8
DIM
100
AcDbPolyline
 90
        4
 70
     0
 10
18.36455499999999
 20
10.606318
 40
0.0
 41
0.105188
 10
18.625809
 20
10.504208
 40
0.0
 41
0.0
 10
19.736427
 20
10.070128
 40
0.0
 41
0.0
 10
20.00642699999999
 20
10.070128
 40
0.0
 41
0.0
  0
TEXT
  5
3F9
330
1E
100
AcDbEntity
  8
DIM
100
AcDbText
 10
20.141427
 20
9.976378
 30
0.0
 40
0.1875
  1
0.180 DIA. BOSS
 41
0.75
 11
20.141427
 21
10.070128
 31
0.0
100
AcDbText
 73
     2
  0
TEXT
  5
3FA
330
1E
100
AcDbEntity
  8
DIM
100
AcDbText
 10
20.17837099999999
 20
10.99939999999999
 30
0.0
 40
0.1875
  1
0.090 DIA. x 0.250 DEEP
 41
0.75
 11
20.17837099999999
 21
11.09315
 31
0.0
100
AcDbText
 73
     2
  0
TEXT
  5
3FB
330
1E
100
AcDbEntity
  8
DIM
100
AcDbText
 10
20.17837099999999
 20
10.68689999999999
 30
0.0
 40
0.1875
  1
(4) HOLES
 41
0.75
 11
20.17837099999999
 21
10.78065
 31
0.0
100
AcDbText
 73
     2
  0
LWPOLYLINE
  5
3FC
330
1E
100
AcDbEntity
  8
HIDDEN
100
AcDbPolyline
 90
        8
 70
     1
 43
0.0
 10
18.79880499999999
 20
3.54803
 42
0.4142140000000001
 10
18.82940499999999
 20
3.57863
 10
18.82940499999999
 20
5.598273
 42
0.4142140000000001
 10
18.79880499999999
 20
5.628873
 10
14.904161
 20
5.628873
 42
0.4142140000000001
 10
14.87356099999999
 20
5.598273
 10
14.87356099999999
 20
3.57863
 42
0.4142140000000001
 10
14.904161
 20
3.54803
  0
LWPOLYLINE
  5
406
330
1E
100
AcDbEntity
  8
HIDDEN
100
AcDbPolyline
 90
        8
 70
     1
 43
0.0
 10
18.798731
 20
3.517103
 42
0.4142140000000001
 10
18.86033099999999
 20
3.578702999999999
 10
18.86033099999999
 20
5.5982
 42
0.4142140000000001
 10
18.798731
 20
5.659799999999999
 10
14.904234
 20
5.659799999999999
 42
0.4142140000000001
 10
14.842634
 20
5.5982
 10
14.842634
 20
3.578702999999999
 42
0.4142140000000001
 10
14.904234
 20
3.517103
  0
CIRCLE
  5
410
330
1E
100
AcDbEntity
  8
OBJECT
100
AcDbCircle
 10
15.11698299999999
 20
5.385450999999999
 30
0.0
 40
0.124029
  0
CIRCLE
  5
411
330
1E
100
AcDbEntity
  8
OBJECT
100
AcDbCircle
 10
15.11698299999999
 20
5.385450999999999
 30
0.0
 40
0.10645
  0
CIRCLE
  5
412
330
1E
100
AcDbEntity
  8
OBJECT
100
AcDbCircle
 10
15.11698299999999
 20
3.791451
 30
0.0
 40
0.061668
  0
CIRCLE
  5
413
330
1E
100
AcDbEntity
  8
OBJECT
100
AcDbCircle
 10
15.11698299999999
 20
3.791451
 30
0.0
 40
0.124029
  0
CIRCLE
  5
414
330
1E
100
AcDbEntity
  8
OBJECT
100
AcDbCircle
 10
15.11698299999999
 20
3.791451
 30
0.0
 40
0.067954
  0
CIRCLE
  5
415
330
1E
100
AcDbEntity
  8
OBJECT
100
AcDbCircle
 10
15.11698299999999
 20
3.791451
 30
0.0
 40
0.10645
  0
CIRCLE
  5
416
330
1E
100
AcDbEntity
  8
OBJECT
100
AcDbCircle
 10
15.11698299999999
 20
5.385450999999999
 30
0.0
 40
0.061668
  0
CIRCLE
  5
417
330
1E
100
AcDbEntity
  8
OBJECT
100
AcDbCircle
 10
15.11698299999999
 20
5.385450999999999
 30
0.0
 40
0.067954
  0
CIRCLE
  5
418
330
1E
100
AcDbEntity
  8
OBJECT
100
AcDbCircle
 10
15.11698299999999
 20
5.385450999999999
 30
0.0
 40
0.061668
  0
CIRCLE
  5
419
330
1E
100
AcDbEntity
  8
HIDDEN
100
AcDbCircle
 10
16.85148299999999
 20
4.588451
 30
0.0
 40
0.1197
  0
CIRCLE
  5
41A
330
1E
100
AcDbEntity
  8
OBJECT
100
AcDbCircle
 10
18.58598299999999
 20
5.385450999999999
 30
0.0
 40
0.124029
  0
CIRCLE
  5
41B
330
1E
100
AcDbEntity
  8
OBJECT
100
AcDbCircle
 10
18.58598299999999
 20
5.385450999999999
 30
0.0
 40
0.10645
  0
CIRCLE
  5
41C
330
1E
100
AcDbEntity
  8
OBJECT
100
AcDbCircle
 10
18.58598299999999
 20
3.791451
 30
0.0
 40
0.061668
  0
CIRCLE
  5
41D
330
1E
100
AcDbEntity
  8
OBJECT
100
AcDbCircle
 10
18.58598299999999
 20
3.791451
 30
0.0
 40
0.067954
  0
CIRCLE
  5
41E
330
1E
100
AcDbEntity
  8
OBJECT
100
AcDbCircle
 10
18.58598299999999
 20
3.791451
 30
0.0
 40
0.124029
  0
CIRCLE
  5
41F
330
1E
100
AcDbEntity
  8
OBJECT
100
AcDbCircle
 10
18.58598299999999
 20
3.791451
 30
0.0
 40
0.10645
  0
CIRCLE
  5
420
330
1E
100
AcDbEntity
  8
OBJECT
100
AcDbCircle
 10
18.58598299999999
 20
5.385450999999999
 30
0.0
 40
0.061668
  0
CIRCLE
  5
421
330
1E
100
AcDbEntity
  8
OBJECT
100
AcDbCircle
 10
18.58598299999999
 20
5.385450999999999
 30
0.0
 40
0.061668
  0
CIRCLE
  5
422
330
1E
100
AcDbEntity
  8
OBJECT
100
AcDbCircle
 10
18.58598299999999
 20
5.385450999999999
 30
0.0
 40
0.067954
  0
CIRCLE
  5
423
330
1E
100
AcDbEntity
  8
OBJECT
100
AcDbCircle
 10
16.85148299999999
 20
4.588451
 30
0.0
 40
0.095845
  0
TEXT
  5
424
330
1E
100
AcDbEntity
  8
DIM
100
AcDbText
 10
20.141427
 20
9.663878
 30
0.0
 40
0.1875
  1
(4) PLACES
 41
0.75
 11
20.141427
 21
9.757628
 31
0.0
100
AcDbText
 73
     2
  0
DIMENSION
  5
425
330
1E
100
AcDbEntity
  8
DIM
100
AcDbDimension
  2
*D48
 10
19.286689
 20
6.823069
 30
0.0
 11
19.286689
 21
7.208069000000003
 31
0.0
 70
    32
  1
K
 71
     5
 42
0.7699999999999996
  3
23NSTDI
100
AcDbAlignedDimension
 13
18.692413
 23
7.593068999999999
 33
0.0
 14
18.704484
 24
6.823069
 34
0.0
 50
270.0
100
AcDbRotatedDimension
  0
DIMENSION
  5
433
330
1E
100
AcDbEntity
  8
DIM
100
AcDbDimension
  2
*D49
 10
18.054463
 20
6.916455
 30
0.0
 11
17.659963
 21
6.515078828471501
 31
0.0
 70
   160
 71
     5
 42
0.2266140000000005
  3
23NSTD
100
AcDbAlignedDimension
 13
18.21244
 23
7.143069
 33
0.0
 14
18.210463
 24
6.916455
 34
0.0
 50
90.0
100
AcDbRotatedDimension
  0
LWPOLYLINE
  5
441
330
1E
100
AcDbEntity
  8
DIM
100
AcDbPolyline
 90
        4
 70
     0
 10
18.625857
 20
9.315138000000001
 40
0.0
 41
0.105188
 10
18.84686699999999
 20
9.142409999999999
 40
0.0
 41
0.0
 10
19.936834
 20
8.290556
 40
0.0
 41
0.0
 10
20.206834
 20
8.290556
 40
0.0
 41
0.0
  0
LWPOLYLINE
  5
447
330
1E
100
AcDbEntity
  8
DIM
100
AcDbPolyline
 90
        4
 70
     0
 10
18.69023
 20
9.340215999999999
 40
0.0
 41
0.105188
 10
18.946841
 20
9.290499
 40
0.0
 41
0.0
 10
19.903544
 20
9.105142999999999
 40
0.0
 41
0.0
 10
20.17354399999999
 20
9.105142999999999
 40
0.0
 41
0.0
  0
TEXT
  5
44D
330
1E
100
AcDbEntity
  8
DIM
100
AcDbText
 10
20.308544
 20
8.698892999999999
 30
0.0
 40
0.1875
  1
(4) PLACES
 41
0.75
 11
20.308544
 21
8.792642999999999
 31
0.0
100
AcDbText
 73
     2
  0
TEXT
  5
44E
330
1E
100
AcDbEntity
  8
DIM
100
AcDbText
 10
20.308544
 20
9.011392999999999
 30
0.0
 40
0.1875
  1
0.213 DIA. BOSS
 41
0.75
 11
20.308544
 21
9.105142999999999
 31
0.0
100
AcDbText
 73
     2
  0
TEXT
  5
44F
330
1E
100
AcDbEntity
  8
DIM
100
AcDbText
 10
20.34183399999999
 20
7.884305999999999
 30
0.0
 40
0.1875
  1
(4) HOLES
 41
0.75
 11
20.34183399999999
 21
7.978055999999999
 31
0.0
100
AcDbText
 73
     2
  0
TEXT
  5
450
330
1E
100
AcDbEntity
  8
DIM
100
AcDbText
 10
20.34183399999999
 20
8.196806
 30
0.0
 40
0.1875
  1
0.125 DIA. (AT TOP)
 41
0.75
 11
20.34183399999999
 21
8.290556
 31
0.0
100
AcDbText
 73
     2
  0
LINE
  5
451
330
1E
100
AcDbEntity
  8
HIDDEN
100
AcDbLine
 10
18.472483
 20
6.845741999999999
 30
0.0
 11
18.69948299999999
 21
6.845741999999999
 31
0.0
  0
LWPOLYLINE
  5
452
330
1E
100
AcDbEntity
  8
HIDDEN
100
AcDbPolyline
 90
        6
 70
     1
 43
0.0
 10
18.65448299999999
 20
6.897508999999999
 10
18.51748299999999
 20
6.897508999999999
 10
18.472483
 20
6.845741999999999
 10
18.47048299999999
 20
6.823069
 10
18.701483
 20
6.823069
 10
18.69948299999999
 20
6.845741999999999
  0
LWPOLYLINE
  5
45A
330
1E
100
AcDbEntity
  8
HIDDEN
100
AcDbPolyline
 90
        6
 70
     1
 43
0.0
 10
15.04848299999999
 20
6.897508999999999
 10
15.18548299999999
 20
6.897508999999999
 10
15.230483
 20
6.845741999999999
 10
15.23248299999999
 20
6.823069
 10
15.001483
 20
6.823069
 10
15.00348299999999
 20
6.845741999999999
  0
LINE
  5
462
330
1E
100
AcDbEntity
  8
HIDDEN
100
AcDbLine
 10
15.230483
 20
6.845741999999999
 30
0.0
 11
15.00348299999999
 21
6.845741999999999
 31
0.0
  0
LINE
  5
463
330
1E
100
AcDbEntity
  8
HIDDEN
100
AcDbLine
 10
15.05555199999999
 20
7.593068999999999
 30
0.0
 11
15.04848299999999
 21
6.897508999999999
 31
0.0
  0
LINE
  5
464
330
1E
100
AcDbEntity
  8
HIDDEN
100
AcDbLine
 10
15.178413
 20
7.593068999999999
 30
0.0
 11
15.18548299999999
 21
6.897508999999999
 31
0.0
  0
LWPOLYLINE
  5
465
330
1E
100
AcDbEntity
  8
HIDDEN
100
AcDbPolyline
 90
        6
 70
     1
 43
0.0
 10
12.60823
 20
6.897508999999999
 10
12.74523
 20
6.897508999999999
 10
12.79023
 20
6.845741999999999
 10
12.79222999999999
 20
6.823069
 10
12.56123
 20
6.823069
 10
12.56323
 20
6.845741999999999
  0
LINE
  5
46D
330
1E
100
AcDbEntity
  8
HIDDEN
100
AcDbLine
 10
12.79023
 20
6.845741999999999
 30
0.0
 11
12.56323
 21
6.845741999999999
 31
0.0
  0
LINE
  5
46E
330
1E
100
AcDbEntity
  8
HIDDEN
100
AcDbLine
 10
12.6153
 20
7.593068999999999
 30
0.0
 11
12.60823
 21
6.897508999999999
 31
0.0
  0
LINE
  5
46F
330
1E
100
AcDbEntity
  8
HIDDEN
100
AcDbLine
 10
12.738161
 20
7.593068999999999
 30
0.0
 11
12.74523
 21
6.897508999999999
 31
0.0
  0
LINE
  5
470
330
1E
100
AcDbEntity
  8
HIDDEN
100
AcDbLine
 10
10.96923
 20
6.845741999999999
 30
0.0
 11
11.19623
 21
6.845741999999999
 31
0.0
  0
LWPOLYLINE
  5
471
330
1E
100
AcDbEntity
  8
HIDDEN
100
AcDbPolyline
 90
        6
 70
     1
 43
0.0
 10
11.15123
 20
6.897508999999999
 10
11.01423
 20
6.897508999999999
 10
10.96923
 20
6.845741999999999
 10
10.96723
 20
6.823069
 10
11.19823
 20
6.823069
 10
11.19623
 20
6.845741999999999
  0
LINE
  5
479
330
1E
100
AcDbEntity
  8
HIDDEN
100
AcDbLine
 10
11.0213
 20
7.593068999999999
 30
0.0
 11
11.01423
 21
6.897508999999999
 31
0.0
  0
LINE
  5
47A
330
1E
100
AcDbEntity
  8
HIDDEN
100
AcDbLine
 10
11.144161
 20
7.593068999999999
 30
0.0
 11
11.15123
 21
6.897508999999999
 31
0.0
  0
CIRCLE
  5
47B
330
1E
100
AcDbEntity
  8
HIDDEN
100
AcDbCircle
 10
15.400483
 20
4.075451
 30
0.0
 40
0.045
  0
CIRCLE
  5
47C
330
1E
100
AcDbEntity
  8
HIDDEN
100
AcDbCircle
 10
15.400483
 20
4.075451
 30
0.0
 40
0.09
  0
CIRCLE
  5
47D
330
1E
100
AcDbEntity
  8
HIDDEN
100
AcDbCircle
 10
18.302483
 20
4.075451
 30
0.0
 40
0.09
  0
CIRCLE
  5
47E
330
1E
100
AcDbEntity
  8
HIDDEN
100
AcDbCircle
 10
18.302483
 20
4.075451
 30
0.0
 40
0.045
  0
CIRCLE
  5
47F
330
1E
100
AcDbEntity
  8
HIDDEN
100
AcDbCircle
 10
18.302483
 20
5.101450999999999
 30
0.0
 40
0.09
  0
CIRCLE
  5
480
330
1E
100
AcDbEntity
  8
HIDDEN
100
AcDbCircle
 10
18.302483
 20
5.101450999999999
 30
0.0
 40
0.045
  0
CIRCLE
  5
481
330
1E
100
AcDbEntity
  8
HIDDEN
100
AcDbCircle
 10
15.400483
 20
5.101450999999999
 30
0.0
 40
0.045
  0
CIRCLE
  5
482
330
1E
100
AcDbEntity
  8
HIDDEN
100
AcDbCircle
 10
15.400483
 20
5.101450999999999
 30
0.0
 40
0.09
  0
LWPOLYLINE
  5
483
330
1E
100
AcDbEntity
  8
OBJECT
100
AcDbPolyline
 90
        8
 70
     1
 43
0.0
 10
18.810866
 20
3.461568
 42
0.4142140000000001
 10
18.915866
 20
3.566568
 10
18.915866
 20
5.610335
 42
0.4142140000000001
 10
18.810866
 20
5.715334999999999
 10
14.89209899999999
 20
5.715334999999999
 42
0.4142140000000001
 10
14.787099
 20
5.610335
 10
14.787099
 20
3.566568
 42
0.4142140000000001
 10
14.89209899999999
 20
3.461568
  0
DIMENSION
  5
48D
330
1E
100
AcDbEntity
  8
DIM
100
AcDbDimension
  2
*D50
 10
5.293810999999999
 20
7.413069
 30
0.0
 11
4.899310999999999
 21
7.002825820082051
 31
0.0
 70
   160
 71
     5
 42
0.0700000000000003
  3
23NSTD
100
AcDbAlignedDimension
 13
5.388310999999999
 23
7.483069
 33
0.0
 14
5.388310999999999
 24
7.413069
 34
0.0
 50
90.0
100
AcDbRotatedDimension
  0
LWPOLYLINE
  5
49B
330
1E
100
AcDbEntity
  8
HIDDEN
100
AcDbPolyline
 90
        4
 70
     0
 43
0.0
 10
10.970378
 20
6.916455
 10
10.9763
 20
7.593068999999999
 10
11.189161
 20
7.593068999999999
 10
11.195083
 20
6.916455
  0
LWPOLYLINE
  5
4A1
330
1E
100
AcDbEntity
  8
HIDDEN
100
AcDbPolyline
 90
        4
 70
     0
 43
0.0
 10
12.564378
 20
6.916455
 10
12.5703
 20
7.593068999999999
 10
12.783161
 20
7.593068999999999
 10
12.789083
 20
6.916455
  0
LWPOLYLINE
  5
4A7
330
1E
100
AcDbEntity
  8
HIDDEN
100
AcDbPolyline
 90
        3
 70
     0
 43
0.0
 10
12.300707
 20
6.916069
 10
12.302688
 20
7.143069
 10
12.482773
 20
7.143069
  0
LWPOLYLINE
  5
4AC
330
1E
100
AcDbEntity
  8
HIDDEN
100
AcDbPolyline
 90
        4
 70
     0
 43
0.0
 10
11.45875399999999
 20
6.916069
 10
11.456773
 20
7.143069
 10
11.276603
 20
7.143069
 10
11.274622
 20
6.916069
  0
LWPOLYLINE
  5
4B2
330
1E
100
AcDbEntity
  8
HIDDEN
100
AcDbPolyline
 90
        4
 70
     0
 43
0.0
 10
11.037855
 20
7.593068999999999
 10
11.037855
 20
8.093068999999999
 10
11.12785499999999
 20
8.093068999999999
 10
11.12785499999999
 20
7.593068999999999
  0
LWPOLYLINE
  5
4B8
330
1E
100
AcDbEntity
  8
HIDDEN
100
AcDbPolyline
 90
        4
 70
     0
 43
0.0
 10
12.631605
 20
7.593068999999999
 10
12.631605
 20
8.093068999999999
 10
12.721605
 20
8.093068999999999
 10
12.721605
 20
7.593068999999999
  0
LWPOLYLINE
  5
4BE
330
1E
100
AcDbEntity
  8
HIDDEN
100
AcDbPolyline
 90
        4
 70
     0
 43
0.0
 10
12.580301
 20
8.243069
 10
12.586605
 20
7.593068999999999
 10
12.766605
 20
7.593068999999999
 10
12.77291
 20
8.243069
  0
LWPOLYLINE
  5
4C4
330
1E
100
AcDbEntity
  8
HIDDEN
100
AcDbPolyline
 90
        4
 70
     0
 43
0.0
 10
11.17916
 20
8.243069
 10
11.172855
 20
7.593068999999999
 10
10.992855
 20
7.593068999999999
 10
10.986551
 20
8.243069
  0
LWPOLYLINE
  5
4CA
330
1E
100
AcDbEntity
  8
OBJECT
100
AcDbPolyline
 90
        6
 70
     1
 43
0.0
 10
10.764858
 20
7.413069
 10
10.78574799999999
 20
8.210817999999999
 42
-0.406566
 10
10.890712
 20
8.313069
 10
12.868748
 20
8.313069
 42
-0.406566
 10
12.97371199999999
 20
8.210817999999999
 10
12.994602
 20
7.413069
  0
LWPOLYLINE
  5
4D2
330
1E
100
AcDbEntity
  8
HIDDEN
100
AcDbPolyline
 90
       10
 70
     0
 43
0.0
 10
12.92274499999999
 20
7.483069
 10
12.903736
 20
8.208985
 42
0.406566
 10
12.868748
 20
8.243069
 10
12.47972999999999
 20
8.243069
 10
12.47972999999999
 20
8.253068999999999
 10
11.27973
 20
8.253068999999999
 10
11.27973
 20
8.243069
 10
10.890712
 20
8.243069
 42
0.406566
 10
10.855724
 20
8.208985
 10
10.836715
 20
7.483069
  0
LWPOLYLINE
  5
4DE
330
1E
100
AcDbEntity
  8
HIDDEN
100
AcDbPolyline
 90
       10
 70
     0
 43
0.0
 10
1.972079
 20
7.483069
 10
1.991088
 20
8.208985
 42
-0.406566
 10
2.026075999999999
 20
8.243069
 10
2.151075999999999
 20
8.243069
 10
2.151075999999999
 20
8.253068999999999
 10
5.754112
 20
8.253068999999999
 10
5.754112
 20
8.243069
 10
5.879112
 20
8.243069
 42
-0.406566
 10
5.9141
 20
8.208985
 10
5.933108999999999
 20
7.483069
  0
LWPOLYLINE
  5
4EA
330
1E
100
AcDbEntity
  8
HIDDEN
100
AcDbPolyline
 90
        4
 70
     0
 43
0.0
 10
5.641969
 20
7.593068999999999
 10
5.641969
 20
8.093068999999999
 10
5.731969
 20
8.093068999999999
 10
5.731969
 20
7.593068999999999
  0
LWPOLYLINE
  5
4F0
330
1E
100
AcDbEntity
  8
HIDDEN
100
AcDbPolyline
 90
        4
 70
     0
 43
0.0
 10
2.263218999999999
 20
7.593068999999999
 10
2.263218999999999
 20
8.093068999999999
 10
2.173219
 20
8.093068999999999
 10
2.173219
 20
7.593068999999999
  0
LWPOLYLINE
  5
4F6
330
1E
100
AcDbEntity
  8
HIDDEN
100
AcDbPolyline
 90
        4
 70
     0
 43
0.0
 10
2.314524
 20
8.243069
 10
2.308218999999999
 20
7.593068999999999
 10
2.128219
 20
7.593068999999999
 10
2.121913999999999
 20
8.243069
  0
LWPOLYLINE
  5
4FC
330
1E
100
AcDbEntity
  8
HIDDEN
100
AcDbPolyline
 90
        4
 70
     0
 43
0.0
 10
5.783273999999999
 20
8.243069
 10
5.776969
 20
7.593068999999999
 10
5.596969
 20
7.593068999999999
 10
5.590664
 20
8.243069
  0
LWPOLYLINE
  5
502
330
1E
100
AcDbEntity
  8
OBJECT
100
AcDbPolyline
 90
        6
 70
     1
 43
0.0
 10
1.921111999999999
 20
8.210817999999999
 10
1.900222
 20
7.413069
 10
6.004966
 20
7.413069
 10
5.984075999999999
 20
8.210817999999999
 42
0.406566
 10
5.879112
 20
8.313069
 10
2.026075999999999
 20
8.313069
 42
0.406566
  0
LWPOLYLINE
  5
50A
330
1E
100
AcDbEntity
  8
OBJECT
100
AcDbPolyline
 90
        6
 70
     1
 43
0.0
 10
13.006076
 20
6.951341
 10
12.994509
 20
7.393069
 10
10.764951
 20
7.393069
 10
10.753384
 20
6.951341
 42
0.4219020000000001
 10
10.878342
 20
6.823069
 10
12.881119
 20
6.823069
 42
0.4219020000000001
  0
LWPOLYLINE
  5
512
330
1E
100
AcDbEntity
  8
HIDDEN
100
AcDbPolyline
 90
        6
 70
     0
 43
0.0
 10
12.920152
 20
7.483069
 10
12.915377
 20
6.935894999999999
 42
-0.41166
 10
12.89537799999999
 20
6.916069
 10
10.864083
 20
6.916069
 42
-0.41166
 10
10.844084
 20
6.935894999999999
 10
10.839308
 20
7.483069
  0
LWPOLYLINE
  5
51A
330
1E
100
AcDbEntity
  8
HIDDEN
100
AcDbPolyline
 90
        4
 70
     0
 43
0.0
 10
12.953436
 20
7.393069
 10
12.951079
 20
7.483069
 10
10.808382
 20
7.483069
 10
10.806025
 20
7.393069
  0
DIMENSION
  5
520
330
1E
100
AcDbEntity
  8
DIM
100
AcDbDimension
  2
*D51
 10
9.969951
 20
8.313069
 30
0.0
 11
9.969950999999998
 21
7.568069000000002
 31
0.0
 70
    32
  1
N
 71
     5
 42
1.489999999999999
  3
23NSTD
100
AcDbAlignedDimension
 13
10.878342
 23
6.823069
 33
0.0
 14
10.890712
 24
8.313069
 34
0.0
 50
90.0
100
AcDbRotatedDimension
  0
TEXT
  5
52E
330
1E
100
AcDbEntity
  8
TEXT
100
AcDbText
 10
4.261733
 20
13.728681
 30
0.0
 40
0.1875
  1
AND CONTINUOUS USE TEMPERATURE OF 70%%d C.)
 41
0.75
100
AcDbText
  0
TEXT
  5
52F
330
1E
100
AcDbEntity
  8
TEXT
100
AcDbText
 10
0.353291
 20
14.04118099999999
 30
0.0
 40
0.1875
  1
%%uMATERIAL:%%u ABS THERMOPLASTIC (FLAMMABILITY RATING OF 94-VO AT 0.070" THICKNESS
 41
0.75
100
AcDbText
  0
LINE
  5
530
330
1E
100
AcDbEntity
  8
TITLE
100
AcDbLine
 10
0.093
 20
0.406333
 30
0.0
 11
23.15699999999999
 21
0.406333
 31
0.0
  0
LINE
  5
531
330
1E
100
AcDbEntity
  8
TITLE
100
AcDbLine
 10
0.093
 20
0.7196670000000001
 30
0.0
 11
23.15699999999999
 21
0.7196670000000001
 31
0.0
  0
LINE
  5
532
330
1E
100
AcDbEntity
  8
TITLE
100
AcDbLine
 10
0.093
 20
1.032999999999999
 30
0.0
 11
23.15699999999999
 21
1.032999999999999
 31
0.0
  0
LINE
  5
533
330
1E
100
AcDbEntity
  8
TITLE
100
AcDbLine
 10
0.093
 20
1.346333
 30
0.0
 11
23.15699999999999
 21
1.346333
 31
0.0
  0
LINE
  5
534
330
1E
100
AcDbEntity
  8
TITLE
100
AcDbLine
 10
0.093
 20
1.659666999999999
 30
0.0
 11
23.15699999999999
 21
1.659666999999999
 31
0.0
  0
LINE
  5
535
330
1E
100
AcDbEntity
  8
TITLE
100
AcDbLine
 10
0.093
 20
2.286333
 30
0.0
 11
23.15699999999999
 21
2.286333
 31
0.0
  0
LWPOLYLINE
  5
536
330
1E
100
AcDbEntity
  8
HIDDEN
100
AcDbPolyline
 90
        4
 70
     0
 43
0.0
 10
5.964951999999999
 20
7.413069
 10
5.963118999999999
 20
7.483069
 10
1.942068999999999
 20
7.483069
 10
1.940236
 20
7.413069
  0
LWPOLYLINE
  5
53C
330
1E
100
AcDbEntity
  8
HIDDEN
100
AcDbPolyline
 90
        4
 70
     0
 43
0.0
 10
12.954588
 20
7.413069
 10
12.952755
 20
7.483069
 10
10.806705
 20
7.483069
 10
10.804872
 20
7.413069
  0
DIMENSION
  5
542
330
1E
100
AcDbEntity
  8
DIM
100
AcDbDimension
  2
*D52
 10
10.753384
 20
7.393069
 30
0.0
 11
12.00229099999999
 21
8.990722999999997
 31
0.0
 70
   162
  1
<> REF.
 71
     5
 42
0.0261801984005254
  3
23NSTD
100
AcDb2LineAngularDimension
 13
10.764858
 23
7.413069
 33
0.0
 14
10.78574799999999
 24
8.210817999999999
 34
0.0
 15
10.753384
 25
6.951341
 35
0.0
 16
10.77166732174066
 26
9.069939346285671
 36
0.0
  0
LINE
  5
553
330
1E
100
AcDbEntity
  8
TITLE
100
AcDbLine
 10
21.719
 20
2.286333
 30
0.0
 11
21.719
 21
0.093
 31
0.0
  0
LINE
  5
554
330
1E
100
AcDbEntity
  8
TITLE
100
AcDbLine
 10
20.28099999999999
 20
2.286333
 30
0.0
 11
20.28099999999999
 21
0.093
 31
0.0
  0
LINE
  5
555
330
1E
100
AcDbEntity
  8
TITLE
100
AcDbLine
 10
18.84299999999999
 20
2.286333
 30
0.0
 11
18.84299999999999
 21
0.093
 31
0.0
  0
LINE
  5
556
330
1E
100
AcDbEntity
  8
TITLE
100
AcDbLine
 10
17.405
 20
2.286333
 30
0.0
 11
17.405
 21
0.093
 31
0.0
  0
LINE
  5
557
330
1E
100
AcDbEntity
  8
TITLE
100
AcDbLine
 10
15.967
 20
2.286333
 30
0.0
 11
15.967
 21
0.093
 31
0.0
  0
LINE
  5
558
330
1E
100
AcDbEntity
  8
TITLE
100
AcDbLine
 10
14.529
 20
2.286333
 30
0.0
 11
14.529
 21
0.093
 31
0.0
  0
LINE
  5
559
330
1E
100
AcDbEntity
  8
TITLE
100
AcDbLine
 10
13.09099999999999
 20
2.286333
 30
0.0
 11
13.09099999999999
 21
0.093
 31
0.0
  0
LINE
  5
55A
330
1E
100
AcDbEntity
  8
TITLE
100
AcDbLine
 10
11.653
 20
2.286333
 30
0.0
 11
11.653
 21
0.093
 31
0.0
  0
LINE
  5
55B
330
1E
100
AcDbEntity
  8
TITLE
100
AcDbLine
 10
10.215
 20
2.286333
 30
0.0
 11
10.215
 21
0.093
 31
0.0
  0
LINE
  5
55C
330
1E
100
AcDbEntity
  8
TITLE
100
AcDbLine
 10
8.777000000000001
 20
2.286333
 30
0.0
 11
8.777000000000001
 21
0.093
 31
0.0
  0
LINE
  5
55D
330
1E
100
AcDbEntity
  8
TITLE
100
AcDbLine
 10
7.338999999999999
 20
2.286333
 30
0.0
 11
7.338999999999999
 21
0.093
 31
0.0
  0
LINE
  5
55E
330
1E
100
AcDbEntity
  8
TITLE
100
AcDbLine
 10
5.900999999999999
 20
2.286333
 30
0.0
 11
5.900999999999999
 21
0.093
 31
0.0
  0
LINE
  5
55F
330
1E
100
AcDbEntity
  8
TITLE
100
AcDbLine
 10
4.463
 20
2.286333
 30
0.0
 11
4.463
 21
0.093
 31
0.0
  0
LINE
  5
560
330
1E
100
AcDbEntity
  8
TITLE
100
AcDbLine
 10
3.024999999999999
 20
2.286333
 30
0.0
 11
3.024999999999999
 21
0.093
 31
0.0
  0
LINE
  5
561
330
1E
100
AcDbEntity
  8
TITLE
100
AcDbLine
 10
1.586999999999999
 20
2.286333
 30
0.0
 11
1.586999999999999
 21
0.093
 31
0.0
  0
TEXT
  5
562
330
1E
100
AcDbEntity
  8
TEXT
100
AcDbText
 10
0.3464999999999999
 20
1.878999999999999
 30
0.0
 40
0.188
  1
PART No.
 41
0.75
 72
     4
 11
0.84
 21
1.973
 31
0.0
100
AcDbText
  0
TEXT
  5
563
330
1E
100
AcDbEntity
  8
TEXT
100
AcDbText
 10
0.4052500000000001
 20
1.409
 30
0.0
 40
0.188
  1
CU-1470
 41
0.75
 72
     4
 11
0.84
 21
1.503
 31
0.0
100
AcDbText
  0
TEXT
  5
564
330
1E
100
AcDbEntity
  8
TEXT
100
AcDbText
 10
0.4169999999999999
 20
1.095667
 30
0.0
 40
0.188
  1
CU-1471
 41
0.75
 72
     4
 11
0.84
 21
1.189667
 31
0.0
100
AcDbText
  0
TEXT
  5
565
330
1E
100
AcDbEntity
  8
TEXT
100
AcDbText
 10
0.3935
 20
0.7823330000000001
 30
0.0
 40
0.188
  1
CU-1472
 41
0.75
 72
     4
 11
0.84
 21
0.8763329999999999
 31
0.0
100
AcDbText
  0
TEXT
  5
566
330
1E
100
AcDbEntity
  8
TEXT
100
AcDbText
 10
0.3935
 20
0.469
 30
0.0
 40
0.188
  1
CU-1473
 41
0.75
 72
     4
 11
0.84
 21
0.5629999999999999
 31
0.0
100
AcDbText
  0
TEXT
  5
567
330
1E
100
AcDbEntity
  8
TEXT
100
AcDbText
 10
0.3935
 20
0.155667
 30
0.0
 40
0.188
  1
CU-1474
 41
0.75
 72
     4
 11
0.84
 21
0.249667
 31
0.0
100
AcDbText
  0
TEXT
  5
568
330
1E
100
AcDbEntity
  8
TEXT
100
AcDbText
 10
2.258999999999999
 20
1.878999999999999
 30
0.0
 40
0.188
  1
A
 41
0.75
 72
     4
 11
2.306
 21
1.973
 31
0.0
100
AcDbText
  0
TEXT
  5
569
330
1E
100
AcDbEntity
  8
TEXT
100
AcDbText
 10
3.696999999999999
 20
1.878999999999999
 30
0.0
 40
0.188
  1
B
 41
0.75
 72
     4
 11
3.743999999999999
 21
1.973
 31
0.0
100
AcDbText
  0
TEXT
  5
56A
330
1E
100
AcDbEntity
  8
TEXT
100
AcDbText
 10
5.135
 20
1.878999999999999
 30
0.0
 40
0.188
  1
C
 41
0.75
 72
     4
 11
5.182
 21
1.973
 31
0.0
100
AcDbText
  0
TEXT
  5
56B
330
1E
100
AcDbEntity
  8
TEXT
100
AcDbText
 10
6.573
 20
1.878999999999999
 30
0.0
 40
0.188
  1
D
 41
0.75
 72
     4
 11
6.62
 21
1.973
 31
0.0
100
AcDbText
  0
TEXT
  5
56C
330
1E
100
AcDbEntity
  8
TEXT
100
AcDbText
 10
8.010999999999999
 20
1.878999999999999
 30
0.0
 40
0.188
  1
E
 41
0.75
 72
     4
 11
8.057999999999999
 21
1.973
 31
0.0
100
AcDbText
  0
TEXT
  5
56D
330
1E
100
AcDbEntity
  8
TEXT
100
AcDbText
 10
9.448999999999999
 20
1.878999999999999
 30
0.0
 40
0.188
  1
F
 41
0.75
 72
     4
 11
9.496
 21
1.973
 31
0.0
100
AcDbText
  0
TEXT
  5
56E
330
1E
100
AcDbEntity
  8
TEXT
100
AcDbText
 10
10.887
 20
1.878999999999999
 30
0.0
 40
0.188
  1
G
 41
0.75
 72
     4
 11
10.934
 21
1.973
 31
0.0
100
AcDbText
  0
TEXT
  5
56F
330
1E
100
AcDbEntity
  8
TEXT
100
AcDbText
 10
12.32499999999999
 20
1.878999999999999
 30
0.0
 40
0.188
  1
H
 41
0.75
 72
     4
 11
12.372
 21
1.973
 31
0.0
100
AcDbText
  0
TEXT
  5
570
330
1E
100
AcDbEntity
  8
TEXT
100
AcDbText
 10
13.763
 20
1.878999999999999
 30
0.0
 40
0.188
  1
J
 41
0.75
 72
     4
 11
13.81
 21
1.973
 31
0.0
100
AcDbText
  0
TEXT
  5
571
330
1E
100
AcDbEntity
  8
TEXT
100
AcDbText
 10
15.201
 20
1.878999999999999
 30
0.0
 40
0.188
  1
K
 41
0.75
 72
     4
 11
15.24799999999999
 21
1.973
 31
0.0
100
AcDbText
  0
TEXT
  5
572
330
1E
100
AcDbEntity
  8
TEXT
100
AcDbText
 10
16.63899999999999
 20
1.878999999999999
 30
0.0
 40
0.188
  1
L
 41
0.75
 72
     4
 11
16.686
 21
1.973
 31
0.0
100
AcDbText
  0
TEXT
  5
573
330
1E
100
AcDbEntity
  8
TEXT
100
AcDbText
 10
18.077
 20
1.878999999999999
 30
0.0
 40
0.188
  1
M
 41
0.75
 72
     4
 11
18.124
 21
1.973
 31
0.0
100
AcDbText
  0
TEXT
  5
574
330
1E
100
AcDbEntity
  8
TEXT
100
AcDbText
 10
19.515
 20
1.878999999999999
 30
0.0
 40
0.188
  1
N
 41
0.75
 72
     4
 11
19.562
 21
1.973
 31
0.0
100
AcDbText
  0
TEXT
  5
575
330
1E
100
AcDbEntity
  8
TEXT
100
AcDbText
 10
20.95299999999999
 20
1.878999999999999
 30
0.0
 40
0.188
  1
P
 41
0.75
 72
     4
 11
21.0
 21
1.973
 31
0.0
100
AcDbText
  0
TEXT
  5
576
330
1E
100
AcDbEntity
  8
TEXT
100
AcDbText
 10
22.391
 20
1.878999999999999
 30
0.0
 40
0.188
  1
Q
 41
0.75
 72
     4
 11
22.438
 21
1.973
 31
0.0
100
AcDbText
  0
TEXT
  5
577
330
1E
100
AcDbEntity
  8
TEXT
100
AcDbText
 10
2.05925
 20
1.408999999999999
 30
0.0
 40
0.188
  1
3.000
 41
0.75
 72
     4
 11
2.306
 21
1.503
 31
0.0
100
AcDbText
  0
TEXT
  5
578
330
1E
100
AcDbEntity
  8
TEXT
100
AcDbText
 10
2.05925
 20
1.095666999999999
 30
0.0
 40
0.188
  1
3.000
 41
0.75
 72
     4
 11
2.306
 21
1.189667
 31
0.0
100
AcDbText
  0
TEXT
  5
579
330
1E
100
AcDbEntity
  8
TEXT
100
AcDbText
 10
2.05925
 20
0.7823330000000001
 30
0.0
 40
0.188
  1
3.000
 41
0.75
 72
     4
 11
2.306
 21
0.8763329999999999
 31
0.0
100
AcDbText
  0
TEXT
  5
57A
330
1E
100
AcDbEntity
  8
TEXT
100
AcDbText
 10
2.05925
 20
0.469
 30
0.0
 40
0.188
  1
4.000
 41
0.75
 72
     4
 11
2.306
 21
0.5629999999999999
 31
0.0
100
AcDbText
  0
TEXT
  5
57B
330
1E
100
AcDbEntity
  8
TEXT
100
AcDbText
 10
2.05925
 20
0.155667
 30
0.0
 40
0.188
  1
4.000
 41
0.75
 72
     4
 11
2.306
 21
0.249667
 31
0.0
100
AcDbText
  0
TEXT
  5
57C
330
1E
100
AcDbEntity
  8
TEXT
100
AcDbText
 10
3.497249999999999
 20
0.469
 30
0.0
 40
0.188
  1
1.750
 41
0.75
 72
     4
 11
3.743999999999999
 21
0.5629999999999999
 31
0.0
100
AcDbText
  0
TEXT
  5
57D
330
1E
100
AcDbEntity
  8
TEXT
100
AcDbText
 10
3.485499999999999
 20
0.155667
 30
0.0
 40
0.188
  1
2.188
 41
0.75
 72
     4
 11
3.743999999999999
 21
0.249667
 31
0.0
100
AcDbText
  0
TEXT
  5
57E
330
1E
100
AcDbEntity
  8
TEXT
100
AcDbText
 10
3.497249999999999
 20
0.7823330000000001
 30
0.0
 40
0.188
  1
3.000
 41
0.75
 72
     4
 11
3.743999999999999
 21
0.8763329999999999
 31
0.0
100
AcDbText
  0
TEXT
  5
57F
330
1E
100
AcDbEntity
  8
TEXT
100
AcDbText
 10
3.497249999999999
 20
1.095666999999999
 30
0.0
 40
0.188
  1
2.000
 41
0.75
 72
     4
 11
3.743999999999999
 21
1.189667
 31
0.0
100
AcDbText
  0
TEXT
  5
580
330
1E
100
AcDbEntity
  8
TEXT
100
AcDbText
 10
3.497249999999999
 20
1.408999999999999
 30
0.0
 40
0.188
  1
2.000
 41
0.75
 72
     4
 11
3.743999999999999
 21
1.503
 31
0.0
100
AcDbText
  0
TEXT
  5
581
330
1E
100
AcDbEntity
  8
TEXT
100
AcDbText
 10
4.95875
 20
0.469
 30
0.0
 40
0.188
  1
1.000
 41
0.75
 72
     4
 11
5.182
 21
0.5629999999999999
 31
0.0
100
AcDbText
  0
TEXT
  5
582
330
1E
100
AcDbEntity
  8
TEXT
100
AcDbText
 10
4.935249999999999
 20
0.155667
 30
0.0
 40
0.188
  1
0.900
 41
0.75
 72
     4
 11
5.182
 21
0.249667
 31
0.0
100
AcDbText
  0
TEXT
  5
583
330
1E
100
AcDbEntity
  8
TEXT
100
AcDbText
 10
4.947
 20
0.7823330000000001
 30
0.0
 40
0.188
  1
1.500
 41
0.75
 72
     4
 11
5.182
 21
0.8763329999999999
 31
0.0
100
AcDbText
  0
TEXT
  5
584
330
1E
100
AcDbEntity
  8
TEXT
100
AcDbText
 10
4.947
 20
1.095667
 30
0.0
 40
0.188
  1
1.500
 41
0.75
 72
     4
 11
5.182
 21
1.189667
 31
0.0
100
AcDbText
  0
TEXT
  5
585
330
1E
100
AcDbEntity
  8
TEXT
100
AcDbText
 10
4.935249999999999
 20
1.408999999999999
 30
0.0
 40
0.188
  1
0.900
 41
0.75
 72
     4
 11
5.182
 21
1.503
 31
0.0
100
AcDbText
  0
TEXT
  5
586
330
1E
100
AcDbEntity
  8
TEXT
100
AcDbText
 10
6.34975
 20
0.469
 30
0.0
 40
0.188
  1
4.052
 41
0.75
 72
     4
 11
6.62
 21
0.5629999999999999
 31
0.0
100
AcDbText
  0
TEXT
  5
587
330
1E
100
AcDbEntity
  8
TEXT
100
AcDbText
 10
6.37325
 20
0.155667
 30
0.0
 40
0.188
  1
4.105
 41
0.75
 72
     4
 11
6.62
 21
0.249667
 31
0.0
100
AcDbText
  0
TEXT
  5
588
330
1E
100
AcDbEntity
  8
TEXT
100
AcDbText
 10
6.34975
 20
0.782333
 30
0.0
 40
0.188
  1
3.079
 41
0.75
 72
     4
 11
6.62
 21
0.8763329999999999
 31
0.0
100
AcDbText
  0
TEXT
  5
589
330
1E
100
AcDbEntity
  8
TEXT
100
AcDbText
 10
6.34975
 20
1.095666999999999
 30
0.0
 40
0.188
  1
3.079
 41
0.75
 72
     4
 11
6.62
 21
1.189667
 31
0.0
100
AcDbText
  0
TEXT
  5
58A
330
1E
100
AcDbEntity
  8
TEXT
100
AcDbText
 10
6.34975
 20
1.408999999999999
 30
0.0
 40
0.188
  1
3.079
 41
0.75
 72
     4
 11
6.62
 21
1.503
 31
0.0
100
AcDbText
  0
TEXT
  5
58B
330
1E
100
AcDbEntity
  8
TEXT
100
AcDbText
 10
7.7995
 20
1.408999999999999
 30
0.0
 40
0.188
  1
2.616
 41
0.75
 72
     4
 11
8.057999999999999
 21
1.503
 31
0.0
100
AcDbText
  0
TEXT
  5
58C
330
1E
100
AcDbEntity
  8
TEXT
100
AcDbText
 10
9.261000000000001
 20
1.408999999999999
 30
0.0
 40
0.188
  1
1.616
 41
0.75
 72
     4
 11
9.496
 21
1.503
 31
0.0
100
AcDbText
  0
TEXT
  5
58D
330
1E
100
AcDbEntity
  8
TEXT
100
AcDbText
 10
10.68725
 20
1.408999999999999
 30
0.0
 40
0.188
  1
3.102
 41
0.75
 72
     4
 11
10.934
 21
1.503
 31
0.0
100
AcDbText
  0
TEXT
  5
58E
330
1E
100
AcDbEntity
  8
TEXT
100
AcDbText
 10
12.12525
 20
1.408999999999999
 30
0.0
 40
0.188
  1
2.102
 41
0.75
 72
     4
 11
12.372
 21
1.503
 31
0.0
100
AcDbText
  0
TEXT
  5
58F
330
1E
100
AcDbEntity
  8
TEXT
100
AcDbText
 10
13.5515
 20
1.408999999999999
 30
0.0
 40
0.188
  1
0.570
 41
0.75
 72
     4
 11
13.81
 21
1.503
 31
0.0
100
AcDbText
  0
TEXT
  5
590
330
1E
100
AcDbEntity
  8
TEXT
100
AcDbText
 10
16.42749999999999
 20
1.408999999999999
 30
0.0
 40
0.188
  1
2.080
 41
0.75
 72
     4
 11
16.686
 21
1.503
 31
0.0
100
AcDbText
  0
TEXT
  5
591
330
1E
100
AcDbEntity
  8
TEXT
100
AcDbText
 10
17.889
 20
1.409
 30
0.0
 40
0.188
  1
1.080
 41
0.75
 72
     4
 11
18.124
 21
1.503
 31
0.0
100
AcDbText
  0
TEXT
  5
592
330
1E
100
AcDbEntity
  8
TEXT
100
AcDbText
 10
19.31525
 20
1.409
 30
0.0
 40
0.188
  1
1.490
 41
0.75
 72
     4
 11
19.562
 21
1.503
 31
0.0
100
AcDbText
  0
TEXT
  5
593
330
1E
100
AcDbEntity
  8
TEXT
100
AcDbText
 10
20.67099999999999
 20
1.408999999999999
 30
0.0
 40
0.188
  1
-----
 41
0.75
 72
     4
 11
21.0
 21
1.503
 31
0.0
100
AcDbText
  0
TEXT
  5
594
330
1E
100
AcDbEntity
  8
TEXT
100
AcDbText
 10
22.109
 20
1.408999999999999
 30
0.0
 40
0.188
  1
-----
 41
0.75
 72
     4
 11
22.438
 21
1.503
 31
0.0
100
AcDbText
  0
TEXT
  5
595
330
1E
100
AcDbEntity
  8
TEXT
100
AcDbText
 10
7.7995
 20
1.095666999999999
 30
0.0
 40
0.188
  1
2.616
 41
0.75
 72
     4
 11
8.057999999999999
 21
1.189667
 31
0.0
100
AcDbText
  0
TEXT
  5
596
330
1E
100
AcDbEntity
  8
TEXT
100
AcDbText
 10
7.7995
 20
0.7823330000000001
 30
0.0
 40
0.188
  1
2.616
 41
0.75
 72
     4
 11
8.057999999999999
 21
0.8763329999999999
 31
0.0
100
AcDbText
  0
TEXT
  5
597
330
1E
100
AcDbEntity
  8
TEXT
100
AcDbText
 10
7.775999999999999
 20
0.469
 30
0.0
 40
0.188
  1
3.589
 41
0.75
 72
     4
 11
8.057999999999999
 21
0.5629999999999999
 31
0.0
100
AcDbText
  0
TEXT
  5
598
330
1E
100
AcDbEntity
  8
TEXT
100
AcDbText
 10
7.775999999999999
 20
0.155667
 30
0.0
 40
0.188
  1
3.469
 41
0.75
 72
     4
 11
8.057999999999999
 21
0.249667
 31
0.0
100
AcDbText
  0
TEXT
  5
599
330
1E
100
AcDbEntity
  8
TEXT
100
AcDbText
 10
9.261000000000001
 20
1.095666999999999
 30
0.0
 40
0.188
  1
1.616
 41
0.75
 72
     4
 11
9.496
 21
1.189667
 31
0.0
100
AcDbText
  0
TEXT
  5
59A
330
1E
100
AcDbEntity
  8
TEXT
100
AcDbText
 10
9.2375
 20
0.7823330000000001
 30
0.0
 40
0.188
  1
2.616
 41
0.75
 72
     4
 11
9.496
 21
0.8763329999999999
 31
0.0
100
AcDbText
  0
TEXT
  5
59B
330
1E
100
AcDbEntity
  8
TEXT
100
AcDbText
 10
9.2375
 20
0.469
 30
0.0
 40
0.188
  1
1.339
 41
0.75
 72
     4
 11
9.496
 21
0.5629999999999999
 31
0.0
100
AcDbText
  0
TEXT
  5
59C
330
1E
100
AcDbEntity
  8
TEXT
100
AcDbText
 10
9.2375
 20
0.155667
 30
0.0
 40
0.188
  1
1.594
 41
0.75
 72
     4
 11
9.496
 21
0.249667
 31
0.0
100
AcDbText
  0
TEXT
  5
59D
330
1E
100
AcDbEntity
  8
TEXT
100
AcDbText
 10
10.68725
 20
1.095666999999999
 30
0.0
 40
0.188
  1
3.102
 41
0.75
 72
     4
 11
10.934
 21
1.189667
 31
0.0
100
AcDbText
  0
TEXT
  5
59E
330
1E
100
AcDbEntity
  8
TEXT
100
AcDbText
 10
10.68725
 20
0.7823330000000001
 30
0.0
 40
0.188
  1
3.102
 41
0.75
 72
     4
 11
10.934
 21
0.8763329999999999
 31
0.0
100
AcDbText
  0
TEXT
  5
59F
330
1E
100
AcDbEntity
  8
TEXT
100
AcDbText
 10
10.66375
 20
0.469
 30
0.0
 40
0.188
  1
4.059
 41
0.75
 72
     4
 11
10.934
 21
0.5629999999999999
 31
0.0
100
AcDbText
  0
TEXT
  5
5A0
330
1E
100
AcDbEntity
  8
TEXT
100
AcDbText
 10
10.6755
 20
0.155667
 30
0.0
 40
0.188
  1
4.128
 41
0.75
 72
     4
 11
10.934
 21
0.249667
 31
0.0
100
AcDbText
  0
TEXT
  5
5A1
330
1E
100
AcDbEntity
  8
TEXT
100
AcDbText
 10
12.12525
 20
1.095666999999999
 30
0.0
 40
0.188
  1
2.102
 41
0.75
 72
     4
 11
12.372
 21
1.189667
 31
0.0
100
AcDbText
  0
TEXT
  5
5A2
330
1E
100
AcDbEntity
  8
TEXT
100
AcDbText
 10
12.12525
 20
0.7823330000000001
 30
0.0
 40
0.188
  1
3.102
 41
0.75
 72
     4
 11
12.372
 21
0.8763329999999999
 31
0.0
100
AcDbText
  0
TEXT
  5
5A3
330
1E
100
AcDbEntity
  8
TEXT
100
AcDbText
 10
12.12525
 20
0.469
 30
0.0
 40
0.188
  1
1.809
 41
0.75
 72
     4
 11
12.372
 21
0.5629999999999999
 31
0.0
100
AcDbText
  0
TEXT
  5
5A4
330
1E
100
AcDbEntity
  8
TEXT
100
AcDbText
 10
12.09
 20
0.155667
 30
0.0
 40
0.188
  1
2.253
 41
0.75
 72
     4
 11
12.372
 21
0.249667
 31
0.0
100
AcDbText
  0
TEXT
  5
5A5
330
1E
100
AcDbEntity
  8
TEXT
100
AcDbText
 10
13.5515
 20
1.095666999999999
 30
0.0
 40
0.188
  1
0.570
 41
0.75
 72
     4
 11
13.81
 21
1.189667
 31
0.0
100
AcDbText
  0
TEXT
  5
5A6
330
1E
100
AcDbEntity
  8
TEXT
100
AcDbText
 10
13.5515
 20
0.7823330000000001
 30
0.0
 40
0.188
  1
0.570
 41
0.75
 72
     4
 11
13.81
 21
0.8763329999999999
 31
0.0
100
AcDbText
  0
TEXT
  5
5A7
330
1E
100
AcDbEntity
  8
TEXT
100
AcDbText
 10
13.5515
 20
0.469
 30
0.0
 40
0.188
  1
0.250
 41
0.75
 72
     4
 11
13.81
 21
0.5629999999999999
 31
0.0
100
AcDbText
  0
TEXT
  5
5A8
330
1E
100
AcDbEntity
  8
TEXT
100
AcDbText
 10
13.5515
 20
0.155667
 30
0.0
 40
0.188
  1
0.570
 41
0.75
 72
     4
 11
13.81
 21
0.249667
 31
0.0
100
AcDbText
  0
TEXT
  5
5A9
330
1E
100
AcDbEntity
  8
TEXT
100
AcDbText
 10
14.98949999999999
 20
0.469
 30
0.0
 40
0.188
  1
0.450
 41
0.75
 72
     4
 11
15.24799999999999
 21
0.5629999999999999
 31
0.0
100
AcDbText
  0
TEXT
  5
5AA
330
1E
100
AcDbEntity
  8
TEXT
100
AcDbText
 10
14.98949999999999
 20
0.155667
 30
0.0
 40
0.188
  1
0.740
 41
0.75
 72
     4
 11
15.24799999999999
 21
0.249667
 31
0.0
100
AcDbText
  0
TEXT
  5
5AB
330
1E
100
AcDbEntity
  8
TEXT
100
AcDbText
 10
14.98949999999999
 20
0.7823330000000001
 30
0.0
 40
0.188
  1
0.770
 41
0.75
 72
     4
 11
15.24799999999999
 21
0.8763329999999999
 31
0.0
100
AcDbText
  0
TEXT
  5
5AC
330
1E
100
AcDbEntity
  8
TEXT
100
AcDbText
 10
14.98949999999999
 20
1.408999999999999
 30
0.0
 40
0.188
  1
0.770
 41
0.75
 72
     4
 11
15.24799999999999
 21
1.503
 31
0.0
100
AcDbText
  0
TEXT
  5
5AD
330
1E
100
AcDbEntity
  8
TEXT
100
AcDbText
 10
14.98949999999999
 20
1.095666999999999
 30
0.0
 40
0.188
  1
0.770
 41
0.75
 72
     4
 11
15.24799999999999
 21
1.189667
 31
0.0
100
AcDbText
  0
TEXT
  5
5AE
330
1E
100
AcDbEntity
  8
TEXT
100
AcDbText
 10
16.42749999999999
 20
1.095666999999999
 30
0.0
 40
0.188
  1
2.080
 41
0.75
 72
     4
 11
16.686
 21
1.189667
 31
0.0
100
AcDbText
  0
TEXT
  5
5AF
330
1E
100
AcDbEntity
  8
TEXT
100
AcDbText
 10
17.889
 20
1.095667
 30
0.0
 40
0.188
  1
1.080
 41
0.75
 72
     4
 11
18.124
 21
1.189667
 31
0.0
100
AcDbText
  0
TEXT
  5
5B0
330
1E
100
AcDbEntity
  8
TEXT
100
AcDbText
 10
16.42749999999999
 20
0.7823330000000001
 30
0.0
 40
0.188
  1
2.125
 41
0.75
 72
     4
 11
16.686
 21
0.8763329999999999
 31
0.0
100
AcDbText
  0
TEXT
  5
5B1
330
1E
100
AcDbEntity
  8
TEXT
100
AcDbText
 10
17.8655
 20
0.7823330000000001
 30
0.0
 40
0.188
  1
2.125
 41
0.75
 72
     4
 11
18.124
 21
0.8763329999999999
 31
0.0
100
AcDbText
  0
TEXT
  5
5B2
330
1E
100
AcDbEntity
  8
TEXT
100
AcDbText
 10
16.41575
 20
0.469
 30
0.0
 40
0.188
  1
3.088
 41
0.75
 72
     4
 11
16.686
 21
0.5629999999999999
 31
0.0
100
AcDbText
  0
TEXT
  5
5B3
330
1E
100
AcDbEntity
  8
TEXT
100
AcDbText
 10
16.41575
 20
0.155667
 30
0.0
 40
0.188
  1
2.902
 41
0.75
 72
     4
 11
16.686
 21
0.249667
 31
0.0
100
AcDbText
  0
TEXT
  5
5B4
330
1E
100
AcDbEntity
  8
TEXT
100
AcDbText
 10
17.85375
 20
0.469
 30
0.0
 40
0.188
  1
0.828
 41
0.75
 72
     4
 11
18.124
 21
0.5629999999999999
 31
0.0
100
AcDbText
  0
TEXT
  5
5B5
330
1E
100
AcDbEntity
  8
TEXT
100
AcDbText
 10
17.87725
 20
0.155667
 30
0.0
 40
0.188
  1
1.026
 41
0.75
 72
     4
 11
18.124
 21
0.249667
 31
0.0
100
AcDbText
  0
TEXT
  5
5B6
330
1E
100
AcDbEntity
  8
TEXT
100
AcDbText
 10
19.30349999999999
 20
1.095666999999999
 30
0.0
 40
0.188
  1
2.090
 41
0.75
 72
     4
 11
19.562
 21
1.189667
 31
0.0
100
AcDbText
  0
TEXT
  5
5B7
330
1E
100
AcDbEntity
  8
TEXT
100
AcDbText
 10
19.30349999999999
 20
0.7823330000000001
 30
0.0
 40
0.188
  1
2.090
 41
0.75
 72
     4
 11
19.562
 21
0.8763329999999999
 31
0.0
100
AcDbText
  0
TEXT
  5
5B8
330
1E
100
AcDbEntity
  8
TEXT
100
AcDbText
 10
19.31525
 20
0.469
 30
0.0
 40
0.188
  1
1.270
 41
0.75
 72
     4
 11
19.562
 21
0.5629999999999999
 31
0.0
100
AcDbText
  0
TEXT
  5
5B9
330
1E
100
AcDbEntity
  8
TEXT
100
AcDbText
 10
19.31525
 20
0.155667
 30
0.0
 40
0.188
  1
1.490
 41
0.75
 72
     4
 11
19.562
 21
0.249667
 31
0.0
100
AcDbText
  0
TEXT
  5
5BA
330
1E
100
AcDbEntity
  8
TEXT
100
AcDbText
 10
22.109
 20
1.095666999999999
 30
0.0
 40
0.188
  1
-----
 41
0.75
 72
     4
 11
22.438
 21
1.189667
 31
0.0
100
AcDbText
  0
TEXT
  5
5BB
330
1E
100
AcDbEntity
  8
TEXT
100
AcDbText
 10
20.67099999999999
 20
1.095666999999999
 30
0.0
 40
0.188
  1
-----
 41
0.75
 72
     4
 11
21.0
 21
1.189667
 31
0.0
100
AcDbText
  0
TEXT
  5
5BC
330
1E
100
AcDbEntity
  8
TEXT
100
AcDbText
 10
22.109
 20
0.7823330000000001
 30
0.0
 40
0.188
  1
-----
 41
0.75
 72
     4
 11
22.438
 21
0.8763329999999999
 31
0.0
100
AcDbText
  0
TEXT
  5
5BD
330
1E
100
AcDbEntity
  8
TEXT
100
AcDbText
 10
20.67099999999999
 20
0.7823330000000001
 30
0.0
 40
0.188
  1
-----
 41
0.75
 72
     4
 11
21.0
 21
0.8763329999999999
 31
0.0
100
AcDbText
  0
TEXT
  5
5BE
330
1E
100
AcDbEntity
  8
TEXT
100
AcDbText
 10
22.109
 20
0.469
 30
0.0
 40
0.188
  1
-----
 41
0.75
 72
     4
 11
22.438
 21
0.5629999999999999
 31
0.0
100
AcDbText
  0
TEXT
  5
5BF
330
1E
100
AcDbEntity
  8
TEXT
100
AcDbText
 10
20.67099999999999
 20
0.469
 30
0.0
 40
0.188
  1
-----
 41
0.75
 72
     4
 11
21.0
 21
0.5629999999999999
 31
0.0
100
AcDbText
  0
TEXT
  5
5C0
330
1E
100
AcDbEntity
  8
TEXT
100
AcDbText
 10
22.203
 20
0.155667
 30
0.0
 40
0.188
  1
1.200
 41
0.75
 72
     4
 11
22.438
 21
0.249667
 31
0.0
100
AcDbText
  0
TEXT
  5
5C1
330
1E
100
AcDbEntity
  8
TEXT
100
AcDbText
 10
20.72975
 20
0.155667
 30
0.0
 40
0.188
  1
3.603
 41
0.75
 72
     4
 11
21.0
 21
0.249667
 31
0.0
100
AcDbText
  0
TEXT
  5
5C2
330
1E
100
AcDbEntity
  8
DIM
100
AcDbText
 10
6.816245135674726
 20
7.970028731192442
 30
0.0
 40
0.188
  1
(NOT ON CU-1474)
 41
0.75
100
AcDbText
  0
ENDSEC
  0
SECTION
  2
OBJECTS
  0
DICTIONARY
  5
C
330
0
100
AcDbDictionary
281
     1
  3
ACAD_GROUP
350
D
  3
ACAD_PLOTSTYLENAME
350
E
  3
ACAD_MLINESTYLE
350
16
  3
ACAD_PLOTSETTINGS
350
18
  3
ACAD_LAYOUT
350
19
  0
DICTIONARY
  5
D
102
{ACAD_REACTORS
330
C
102
}
330
C
100
AcDbDictionary
281
     1
  0
ACDBDICTIONARYWDFLT
  5
E
102
{ACAD_REACTORS
330
C
102
}
330
C
100
AcDbDictionary
281
     1
  3
Normal
350
F
100
AcDbDictionaryWithDefault
340
F
  0
DICTIONARY
  5
16
102
{ACAD_REACTORS
330
C
102
}
330
C
100
AcDbDictionary
281
     1
  3
Standard
350
17
  0
DICTIONARY
  5
18
102
{ACAD_REACTORS
330
C
102
}
330
C
100
AcDbDictionary
281
     1
  0
DICTIONARY
  5
19
102
{ACAD_REACTORS
330
C
102
}
330
C
100
AcDbDictionary
281
     1
  3
Layout1
350
1D
  3
Model
350
21
  0
ACDBPLACEHOLDER
  5
F
102
{ACAD_REACTORS
330
E
102
}
330
E
  0
MLINESTYLE
  5
17
102
{ACAD_REACTORS
330
16
102
}
330
16
100
AcDbMlineStyle
  2
STANDARD
 70
     0
  3

 62
   256
 51
90.0
 52
90.0
 71
     2
 49
0.5
 62
   256
  6
BYLAYER
 49
-0.5
 62
   256
  6
BYLAYER
  0
LAYOUT
  5
1D
102
{ACAD_REACTORS
330
19
102
}
330
19
100
AcDbPlotSettings
  1

  2
Auto RICOH Aficio 1060 RPCS on RICOH
  4

  6

 40
0.0
 41
0.0
 42
0.0
 43
0.0
 44
0.0
 45
0.0
 46
0.0
 47
0.0
 48
0.0
 49
0.0
140
0.0
141
0.0
142
1.0
143
1.0
 70
   688
 72
     0
 73
     0
 74
     5
  7

 75
    16
147
1.0
148
0.0
149
0.0
100
AcDbLayout
  1
Layout1
 70
     0
 71
     1
 10
0.0
 20
0.0
 11
12.0
 21
9.0
 12
-3.100979
 22
50.0
 32
10.277186
 14
1.000000000000000E+20
 24
1.000000000000000E+20
 34
1.000000000000000E+20
 15
-1.000000000000000E+20
 25
-1.000000000000000E+20
 35
-1.000000000000000E+20
146
0.0
 13
0.0
 23
0.0
 33
0.0
 16
1.0
 26
0.0
 36
0.0
 17
0.0
 27
1.0
 37
0.0
 76
     0
330
1A
  0
LAYOUT
  5
21
102
{ACAD_REACTORS
330
19
102
}
330
19
100
AcDbPlotSettings
  1

  2
Auto RICOH Aficio 1060 RPCS on RICOH
  4

  6

 40
0.0
 41
0.0
 42
0.0
 43
0.0
 44
0.0
 45
0.0
 46
0.0
 47
0.0
 48
0.0
 49
0.0
140
0.0
141
0.0
142
1.0
143
1.0
 70
  1712
 72
     0
 73
     0
 74
     0
  7

 75
     0
147
1.0
148
0.0
149
0.0
100
AcDbLayout
  1
Model
 70
     1
 71
     0
 10
0.0
 20
0.0
 11
12.0
 21
9.0
 12
0.0
 22
0.0
 32
0.0
 14
0.0
 24
0.0
 34
0.0
 15
0.0
 25
0.0
 35
0.0
146
0.0
 13
0.0
 23
0.0
 33
0.0
 16
1.0
 26
0.0
 36
0.0
 17
0.0
 27
1.0
 37
0.0
 76
     0
330
1E
  0
ENDSEC
  0
EOF
