  0
SECTION
  2
HEADER
  9
$ACADVER
  1
AC1009
  9
$INSBASE
 10
0.0
 20
0.0
 30
0.0
  9
$EXTMIN
 10
0.0
 20
0.0
 30
-0.0625
  9
$EXTMAX
 10
23.25
 20
15.18
 30
0.0625
  9
$LIMMIN
 10
0.0
 20
0.0
  9
$LIMMAX
 10
23.25
 20
15.18
  9
$ORTHOMODE
 70
     1
  9
$REGENMODE
 70
     1
  9
$FILLMODE
 70
     1
  9
$QTEXTMODE
 70
     0
  9
$MIRRTEXT
 70
     0
  9
$DRAGMODE
 70
     2
  9
$LTSCALE
 40
0.375
  9
$OSMODE
 70
     1
  9
$ATTMODE
 70
     1
  9
$TEXTSIZE
 40
0.188
  9
$TRACEWID
 40
0.05
  9
$TEXTSTYLE
  7
TXT
  9
$CLAYER
  8
TEXT
  9
$CELTYPE
  6
BYLAYER
  9
$CECOLOR
 62
   256
  9
$DIMSCALE
 40
1.5
  9
$DIMASZ
 40
0.18
  9
$DIMEXO
 40
0.063
  9
$DIMDLI
 40
0.281
  9
$DIMRND
 40
0.0
  9
$DIMDLE
 40
0.0
  9
$DIMEXE
 40
0.093
  9
$DIMTP
 40
0.0
  9
$DIMTM
 40
0.0
  9
$DIMTXT
 40
0.125
  9
$DIMCEN
 40
0.09
  9
$DIMTSZ
 40
0.0
  9
$DIMTOL
 70
     0
  9
$DIMLIM
 70
     0
  9
$DIMTIH
 70
     1
  9
$DIMTOH
 70
     1
  9
$DIMSE1
 70
     0
  9
$DIMSE2
 70
     0
  9
$DIMTAD
 70
     0
  9
$DIMZIN
 70
     0
  9
$DIMBLK
  1

  9
$DIMASO
 70
     1
  9
$DIMSHO
 70
     1
  9
$DIMPOST
  1

  9
$DIMAPOST
  1

  9
$DIMALT
 70
     0
  9
$DIMALTD
 70
     2
  9
$DIMALTF
 40
25.4
  9
$DIMLFAC
 40
1.0
  9
$DIMTOFL
 70
     0
  9
$DIMTVP
 40
0.0
  9
$DIMTIX
 70
     0
  9
$DIMSOXD
 70
     0
  9
$DIMSAH
 70
     0
  9
$DIMBLK1
  1

  9
$DIMBLK2
  1

  9
$DIMSTYLE
  2
23NSTD
  9
$DIMCLRD
 70
     0
  9
$DIMCLRE
 70
     0
  9
$DIMCLRT
 70
     0
  9
$DIMTFAC
 40
1.0
  9
$DIMGAP
 40
0.09
  9
$LUNITS
 70
     2
  9
$LUPREC
 70
     3
  9
$SKETCHINC
 40
0.1
  9
$FILLETRAD
 40
0.02
  9
$AUNITS
 70
     1
  9
$AUPREC
 70
     1
  9
$MENU
  1
acad
  9
$ELEVATION
 40
0.0
  9
$PELEVATION
 40
0.0
  9
$THICKNESS
 40
0.0
  9
$LIMCHECK
 70
     0
  9
$BLIPMODE
 70
     1
  9
$CHAMFERA
 40
0.0
  9
$CHAMFERB
 40
0.0
  9
$SKPOLY
 70
     0
  9
$TDCREATE
 40
2450757.358536921
  9
$TDUPDATE
 40
2450765.581296064
  9
$TDINDWG
 40
0.3133027778
  9
$TDUSRTIMER
 40
0.3133027778
  9
$USRTIMER
 70
     1
  9
$ANGBASE
 50
0.0
  9
$ANGDIR
 70
     0
  9
$PDMODE
 70
     0
  9
$PDSIZE
 40
0.0
  9
$PLINEWID
 40
0.0
  9
$COORDS
 70
     0
  9
$SPLFRAME
 70
     0
  9
$SPLINETYPE
 70
     6
  9
$SPLINESEGS
 70
     8
  9
$ATTDIA
 70
     0
  9
$ATTREQ
 70
     1
  9
$HANDLING
 70
     0
  9
$HANDSEED
  5
0
  9
$SURFTAB1
 70
     6
  9
$SURFTAB2
 70
     6
  9
$SURFTYPE
 70
     6
  9
$SURFU
 70
     6
  9
$SURFV
 70
     6
  9
$UCSNAME
  2

  9
$UCSORG
 10
0.0
 20
0.0
 30
0.0
  9
$UCSXDIR
 10
1.0
 20
0.0
 30
0.0
  9
$UCSYDIR
 10
0.0
 20
1.0
 30
0.0
  9
$PUCSNAME
  2

  9
$PUCSORG
 10
0.0
 20
0.0
 30
0.0
  9
$PUCSXDIR
 10
1.0
 20
0.0
 30
0.0
  9
$PUCSYDIR
 10
0.0
 20
1.0
 30
0.0
  9
$USERI1
 70
     0
  9
$USERI2
 70
     0
  9
$USERI3
 70
     0
  9
$USERI4
 70
     0
  9
$USERI5
 70
     0
  9
$USERR1
 40
0.0
  9
$USERR2
 40
0.0
  9
$USERR3
 40
0.0
  9
$USERR4
 40
0.0
  9
$USERR5
 40
0.0
  9
$WORLDVIEW
 70
     1
  9
$SHADEDGE
 70
     3
  9
$SHADEDIF
 70
    70
  9
$TILEMODE
 70
     1
  9
$MAXACTVP
 70
    16
  9
$PINSBASE
 10
-3.100979
 20
50.0
 30
10.277186
  9
$PLIMCHECK
 70
     0
  9
$PEXTMIN
 10
1.000000E+20
 20
1.000000E+20
 30
1.000000E+20
  9
$PEXTMAX
 10
-1.000000E+20
 20
-1.000000E+20
 30
-1.000000E+20
  9
$PLIMMIN
 10
0.0
 20
0.0
  9
$PLIMMAX
 10
12.0
 20
9.0
  9
$UNITMODE
 70
     0
  9
$VISRETAIN
 70
     0
  9
$PLINEGEN
 70
     0
  9
$PSLTSCALE
 70
     0
  9
$TREEDEPTH
 70
  3020
  9
$DWGCODEPAGE
  3
undefined
  0
ENDSEC
  0
SECTION
  2
TABLES
  0
TABLE
  2
VPORT
 70
     2
  0
VPORT
  2
*ACTIVE
 70
     0
 10
0.0
 20
0.0
 11
1.0
 21
1.0
 12
11.625
 22
8.533115
 13
0.0
 23
0.0
 14
1.0
 24
1.0
 15
0.5
 25
0.5
 16
0.0
 26
0.0
 36
1.0
 17
0.0
 27
0.0
 37
0.0
 40
17.06623
 41
1.36234
 42
50.0
 43
0.0
 44
0.0
 50
0.0
 51
0.0
 71
     0
 72
   100
 73
     1
 74
     0
 75
     0
 76
     0
 77
     0
 78
     0
  0
ENDTAB
  0
TABLE
  2
LTYPE
 70
     4
  0
LTYPE
  2
CONTINUOUS
 70
    64
  3
Solid line
 72
    65
 73
     0
 40
0.0
  0
LTYPE
  2
HIDDEN
 70
    64
  3
_ _ _ _ _ _ _ _ _ _ _ _ _ _ _ _ _ _ _ _ _ _ _
 72
    65
 73
     2
 40
0.375
 49
0.25
 49
-0.125
  0
LTYPE
  2
CENTER
 70
    64
  3
____ _ ____ _ ____ _ ____ _ ____ _ ____ _ ____
 72
    65
 73
     4
 40
2.0
 49
1.25
 49
-0.25
 49
0.25
 49
-0.25
  0
LTYPE
  2
PHANTOM
 70
    64
  3
_____ _ _ _____ _ _ _____ _ _ _____ _ _ ____
 72
    65
 73
     6
 40
2.5
 49
1.25
 49
-0.25
 49
0.25
 49
-0.25
 49
0.25
 49
-0.25
  0
ENDTAB
  0
TABLE
  2
LAYER
 70
     9
  0
LAYER
  2
0
 70
    64
 62
     7
  6
CONTINUOUS
  0
LAYER
  2
OBJECT
 70
    64
 62
     7
  6
CONTINUOUS
  0
LAYER
  2
DIM
 70
    64
 62
     7
  6
CONTINUOUS
  0
LAYER
  2
HIDDEN
 70
    64
 62
     7
  6
HIDDEN
  0
LAYER
  2
TEXT
 70
    64
 62
     7
  6
CONTINUOUS
  0
LAYER
  2
TITLE
 70
    64
 62
     7
  6
CONTINUOUS
  0
LAYER
  2
CENTER
 70
    64
 62
     7
  6
CENTER
  0
LAYER
  2
DEFPOINTS
 70
    64
 62
     7
  6
CONTINUOUS
  0
LAYER
  2
BEND
 70
    64
 62
     7
  6
PHANTOM
  0
ENDTAB
  0
TABLE
  2
STYLE
 70
     1
  0
STYLE
  2
TXT
 70
    64
 40
0.0
 41
0.75
 50
0.0
 71
     0
 42
0.188
  3
TXT.shx
  4

  0
ENDTAB
  0
TABLE
  2
VIEW
 70
     0
  0
ENDTAB
  0
TABLE
  2
UCS
 70
     0
  0
ENDTAB
  0
TABLE
  2
APPID
 70
     1
  0
APPID
  2
ACAD
 70
    64
  0
ENDTAB
  0
TABLE
  2
DIMSTYLE
 70
     2
  0
DIMSTYLE
  2
23NSTD
 70
    64
  3

  4

  5

  6

  7

 40
1.5
 41
0.18
 42
0.063
 43
0.281
 44
0.093
 45
0.0
 46
0.0
 47
0.0
 48
0.0
140
0.125
141
0.09
142
0.0
143
25.4
144
1.0
145
0.0
146
1.0
147
0.09
 71
     0
 72
     0
 73
     1
 74
     1
 75
     0
 76
     0
 77
     0
 78
     0
170
     0
171
     2
172
     0
173
     0
174
     0
175
     0
176
     0
177
     0
178
     0
  0
DIMSTYLE
  2
23NSTDI
 70
    64
  3

  4

  5

  6

  7

 40
1.5
 41
0.18
 42
0.063
 43
0.281
 44
0.093
 45
0.0
 46
0.0
 47
0.0
 48
0.0
140
0.125
141
0.09
142
0.0
143
25.4
144
1.0
145
0.0
146
1.0
147
0.09
 71
     0
 72
     0
 73
     1
 74
     1
 75
     0
 76
     0
 77
     0
 78
     0
170
     0
171
     2
172
     0
173
     0
174
     1
175
     0
176
     0
177
     0
178
     0
  0
ENDTAB
  0
ENDSEC
  0
SECTION
  2
BLOCKS
  0
BLOCK
  8
0
  2
HBS
 70
    64
 10
0.0
 20
0.0
 30
0.0
  3
HBS
  0
LINE
  8
TITLE
 10
0.062
 20
9.64
 30
0.0
 11
15.438
 21
9.64
 31
0.0
  0
POLYLINE
  8
TITLE
 66
     1
 10
0.0
 20
0.0
 30
0.0
 70
     1
  0
VERTEX
  8
TITLE
 10
15.5
 20
10.12
 30
0.0
  0
VERTEX
  8
TITLE
 10
15.5
 20
0.0
 30
0.0
  0
VERTEX
  8
TITLE
 10
0.0
 20
0.0
 30
0.0
  0
VERTEX
  8
TITLE
 10
0.0
 20
10.12
 30
0.0
  0
SEQEND
  8
TITLE
  0
POLYLINE
  8
TITLE
 66
     1
 10
0.0
 20
0.0
 30
0.0
 70
     1
  0
VERTEX
  8
TITLE
 10
15.438
 20
10.058
 30
0.0
  0
VERTEX
  8
TITLE
 10
15.438
 20
0.062
 30
0.0
  0
VERTEX
  8
TITLE
 10
0.062
 20
0.062
 30
0.0
  0
VERTEX
  8
TITLE
 10
0.062
 20
10.058
 30
0.0
  0
SEQEND
  8
TITLE
  0
TEXT
  8
TEXT
 10
0.207833
 20
9.680079
 30
0.0
 40
0.125
  1
NAME
 72
     1
 11
0.437
 21
9.680079
 31
0.0
  0
TEXT
  8
TEXT
 10
0.207833
 20
9.888413
 30
0.0
 40
0.125
  1
PART
 72
     1
 11
0.437
 21
9.888413
 31
0.0
  0
LINE
  8
TITLE
 10
0.812
 20
9.64
 30
0.0
 11
0.812
 21
10.058
 31
0.0
  0
TEXT
  8
TEXT
 10
7.926833
 20
9.888413
 30
0.0
 40
0.125
  1
PART
 72
     1
 11
8.156
 21
9.888413
 31
0.0
  0
TEXT
  8
TEXT
 10
8.031
 20
9.680079
 30
0.0
 40
0.125
  1
No.
 72
     1
 11
8.156
 21
9.680079
 31
0.0
  0
LINE
  8
TITLE
 10
7.781
 20
10.058
 30
0.0
 11
7.781
 21
9.64
 31
0.0
  0
LINE
  8
TITLE
 10
7.719
 20
10.058
 30
0.0
 11
7.719
 21
9.64
 31
0.0
  0
LINE
  8
TITLE
 10
8.531
 20
10.058
 30
0.0
 11
8.531
 21
9.64
 31
0.0
  0
ENDBLK
  8
0
  0
BLOCK
  8
0
  2
*D1
 70
    65
 10
0.0
 20
0.0
 30
0.0
  3
*D
  0
LINE
  8
0
  6
BYBLOCK
 62
     0
 10
5.467494
 20
5.930399
 30
0.0
 11
5.327994
 21
5.930399
 31
0.0
  0
LINE
  8
0
  6
BYBLOCK
 62
     0
 10
5.467494
 20
5.860399
 30
0.0
 11
5.327994
 21
5.860399
 31
0.0
  0
LINE
  8
0
  6
BYBLOCK
 62
     0
 10
5.467494
 20
6.200399
 30
0.0
 11
5.467494
 21
6.470399
 31
0.0
  0
LINE
  8
0
  6
BYBLOCK
 62
     0
 10
5.467494
 20
5.590399
 30
0.0
 11
5.467494
 21
5.320399
 31
0.0
  0
LINE
  8
0
  6
BYBLOCK
 62
     0
 10
5.467494
 20
5.320399
 30
0.0
 11
5.197494
 21
5.320399
 31
0.0
  0
SOLID
  8
0
  6
BYBLOCK
 62
     0
 10
5.422494
 20
6.200399
 30
0.0
 11
5.512494
 21
6.200399
 31
0.0
 12
5.467494
 22
5.930399
 32
0.0
 13
5.467494
 23
5.930399
 33
0.0
  0
SOLID
  8
0
  6
BYBLOCK
 62
     0
 10
5.422494
 20
5.590399
 30
0.0
 11
5.512494
 21
5.590399
 31
0.0
 12
5.467494
 22
5.860399
 32
0.0
 13
5.467494
 23
5.860399
 33
0.0
  0
TEXT
  8
0
  6
BYBLOCK
 62
     0
 10
4.570306
 20
5.226649
 30
0.0
 40
0.1875
  1
0.070
 41
0.75
 72
     1
 11
4.8164
 21
5.320399
 31
0.0
 73
     2
  0
POINT
  8
DEFPOINTS
  6
BYBLOCK
 62
     0
 10
5.561994
 20
5.930399
 30
0.0
  0
POINT
  8
DEFPOINTS
  6
BYBLOCK
 62
     0
 10
5.561994
 20
5.860399
 30
0.0
  0
POINT
  8
DEFPOINTS
  6
BYBLOCK
 62
     0
 10
5.467494
 20
5.860399
 30
0.0
  0
ENDBLK
  8
0
  0
BLOCK
  8
0
  2
*D2
 70
    65
 10
0.0
 20
0.0
 30
0.0
  3
*D
  0
LINE
  8
0
  6
BYBLOCK
 62
     0
 10
14.89263
 20
27.072906
 30
0.0
 11
14.89263
 21
26.571328
 31
0.0
  0
LINE
  8
0
  6
BYBLOCK
 62
     0
 10
18.68513
 20
27.072906
 30
0.0
 11
18.68513
 21
26.571328
 31
0.0
  0
LINE
  8
0
  6
BYBLOCK
 62
     0
 10
15.16263
 20
26.710828
 30
0.0
 11
16.37263
 21
26.710828
 31
0.0
  0
LINE
  8
0
  6
BYBLOCK
 62
     0
 10
18.41513
 20
26.710828
 30
0.0
 11
17.20513
 21
26.710828
 31
0.0
  0
SOLID
  8
0
  6
BYBLOCK
 62
     0
 10
15.16263
 20
26.755828
 30
0.0
 11
15.16263
 21
26.665828
 31
0.0
 12
14.89263
 22
26.710828
 32
0.0
 13
14.89263
 23
26.710828
 33
0.0
  0
SOLID
  8
0
  6
BYBLOCK
 62
     0
 10
18.41513
 20
26.755828
 30
0.0
 11
18.41513
 21
26.665828
 31
0.0
 12
18.68513
 22
26.710828
 32
0.0
 13
18.68513
 23
26.710828
 33
0.0
  0
TEXT
  8
0
  6
BYBLOCK
 62
     0
 10
16.50763
 20
26.617078
 30
0.0
 40
0.1875
  1
3.792
 41
0.75
 72
     1
 11
16.78888
 21
26.710828
 31
0.0
 73
     2
  0
POINT
  8
DEFPOINTS
  6
BYBLOCK
 62
     0
 10
14.89263
 20
27.167406
 30
0.0
  0
POINT
  8
DEFPOINTS
  6
BYBLOCK
 62
     0
 10
18.68513
 20
27.167406
 30
0.0
  0
POINT
  8
DEFPOINTS
  6
BYBLOCK
 62
     0
 10
18.68513
 20
26.710828
 30
0.0
  0
ENDBLK
  8
0
  0
BLOCK
  8
0
  2
*D3
 70
    65
 10
0.0
 20
0.0
 30
0.0
  3
*D
  0
LINE
  8
0
  6
BYBLOCK
 62
     0
 10
15.054505
 20
19.603867
 30
0.0
 11
15.054505
 21
18.897453
 31
0.0
  0
LINE
  8
0
  6
BYBLOCK
 62
     0
 10
18.523255
 20
19.603867
 30
0.0
 11
18.523255
 21
18.897453
 31
0.0
  0
LINE
  8
0
  6
BYBLOCK
 62
     0
 10
15.324505
 20
19.036953
 30
0.0
 11
16.37263
 21
19.036953
 31
0.0
  0
LINE
  8
0
  6
BYBLOCK
 62
     0
 10
18.253255
 20
19.036953
 30
0.0
 11
17.20513
 21
19.036953
 31
0.0
  0
SOLID
  8
0
  6
BYBLOCK
 62
     0
 10
15.324505
 20
19.081953
 30
0.0
 11
15.324505
 21
18.991953
 31
0.0
 12
15.054505
 22
19.036953
 32
0.0
 13
15.054505
 23
19.036953
 33
0.0
  0
SOLID
  8
0
  6
BYBLOCK
 62
     0
 10
18.253255
 20
19.081953
 30
0.0
 11
18.253255
 21
18.991953
 31
0.0
 12
18.523255
 22
19.036953
 32
0.0
 13
18.523255
 23
19.036953
 33
0.0
  0
TEXT
  8
0
  6
BYBLOCK
 62
     0
 10
16.50763
 20
18.943203
 30
0.0
 40
0.1875
  1
3.469
 41
0.75
 72
     1
 11
16.78888
 21
19.036953
 31
0.0
 73
     2
  0
POINT
  8
DEFPOINTS
  6
BYBLOCK
 62
     0
 10
15.054505
 20
19.698367
 30
0.0
  0
POINT
  8
DEFPOINTS
  6
BYBLOCK
 62
     0
 10
18.523255
 20
19.698367
 30
0.0
  0
POINT
  8
DEFPOINTS
  6
BYBLOCK
 62
     0
 10
18.523255
 20
19.036953
 30
0.0
  0
ENDBLK
  8
0
  0
BLOCK
  8
0
  2
*D4
 70
    65
 10
0.0
 20
0.0
 30
0.0
  3
*D
  0
LINE
  8
0
  6
BYBLOCK
 62
     0
 10
14.79813
 20
27.167406
 30
0.0
 11
14.094527
 21
27.167406
 31
0.0
  0
LINE
  8
0
  6
BYBLOCK
 62
     0
 10
14.79813
 20
29.079906
 30
0.0
 11
14.094527
 21
29.079906
 31
0.0
  0
LINE
  8
0
  6
BYBLOCK
 62
     0
 10
14.234027
 20
27.437406
 30
0.0
 11
14.234027
 21
27.894906
 31
0.0
  0
LINE
  8
0
  6
BYBLOCK
 62
     0
 10
14.234027
 20
28.809906
 30
0.0
 11
14.234027
 21
28.352406
 31
0.0
  0
SOLID
  8
0
  6
BYBLOCK
 62
     0
 10
14.189027
 20
27.437406
 30
0.0
 11
14.279027
 21
27.437406
 31
0.0
 12
14.234027
 22
27.167406
 32
0.0
 13
14.234027
 23
27.167406
 33
0.0
  0
SOLID
  8
0
  6
BYBLOCK
 62
     0
 10
14.189027
 20
28.809906
 30
0.0
 11
14.279027
 21
28.809906
 31
0.0
 12
14.234027
 22
29.079906
 32
0.0
 13
14.234027
 23
29.079906
 33
0.0
  0
TEXT
  8
0
  6
BYBLOCK
 62
     0
 10
13.999652
 20
28.029906
 30
0.0
 40
0.1875
  1
1.912
 41
0.75
 72
     1
 11
14.234027
 21
28.123656
 31
0.0
 73
     2
  0
POINT
  8
DEFPOINTS
  6
BYBLOCK
 62
     0
 10
14.89263
 20
27.167406
 30
0.0
  0
POINT
  8
DEFPOINTS
  6
BYBLOCK
 62
     0
 10
14.89263
 20
29.079906
 30
0.0
  0
POINT
  8
DEFPOINTS
  6
BYBLOCK
 62
     0
 10
14.234027
 20
29.079906
 30
0.0
  0
ENDBLK
  8
0
  0
BLOCK
  8
0
  2
*D5
 70
    65
 10
0.0
 20
0.0
 30
0.0
  3
*D
  0
LINE
  8
0
  6
BYBLOCK
 62
     0
 10
18.935752
 20
23.121913
 30
0.0
 11
19.505694
 21
23.121913
 31
0.0
  0
LINE
  8
0
  6
BYBLOCK
 62
     0
 10
18.930855
 20
23.308913
 30
0.0
 11
19.505694
 21
23.308913
 31
0.0
  0
LINE
  8
0
  6
BYBLOCK
 62
     0
 10
19.366194
 20
22.851913
 30
0.0
 11
19.366194
 21
22.581913
 31
0.0
  0
LINE
  8
0
  6
BYBLOCK
 62
     0
 10
19.366194
 20
23.578913
 30
0.0
 11
19.366194
 21
23.848913
 31
0.0
  0
LINE
  8
0
  6
BYBLOCK
 62
     0
 10
19.366194
 20
23.848913
 30
0.0
 11
19.636194
 21
23.848913
 31
0.0
  0
SOLID
  8
0
  6
BYBLOCK
 62
     0
 10
19.321194
 20
22.851913
 30
0.0
 11
19.411194
 21
22.851913
 31
0.0
 12
19.366194
 22
23.121913
 32
0.0
 13
19.366194
 23
23.121913
 33
0.0
  0
SOLID
  8
0
  6
BYBLOCK
 62
     0
 10
19.321194
 20
23.578913
 30
0.0
 11
19.411194
 21
23.578913
 31
0.0
 12
19.366194
 22
23.308913
 32
0.0
 13
19.366194
 23
23.308913
 33
0.0
  0
TEXT
  8
0
  6
BYBLOCK
 62
     0
 10
20.310257
 20
23.755163
 30
0.0
 40
0.1875
  1
 POLISHED BAND
 41
0.75
 72
     1
 11
21.247757
 21
23.848913
 31
0.0
 73
     2
  0
TEXT
  8
0
  6
BYBLOCK
 62
     0
 10
19.771194
 20
23.755163
 30
0.0
 40
0.1875
  1
0.187
 41
0.75
 72
     1
 11
20.017288
 21
23.848913
 31
0.0
 73
     2
  0
POINT
  8
DEFPOINTS
  6
BYBLOCK
 62
     0
 10
18.841252
 20
23.121913
 30
0.0
  0
POINT
  8
DEFPOINTS
  6
BYBLOCK
 62
     0
 10
18.836355
 20
23.308913
 30
0.0
  0
POINT
  8
DEFPOINTS
  6
BYBLOCK
 62
     0
 10
19.366194
 20
23.308913
 30
0.0
  0
ENDBLK
  8
0
  0
BLOCK
  8
0
  2
*D6
 70
    65
 10
0.0
 20
0.0
 30
0.0
  3
*D
  0
LINE
  8
0
  6
BYBLOCK
 62
     0
 10
7.940829
 20
22.469458
 30
0.0
 11
8.483207
 21
22.469458
 31
0.0
  0
LINE
  8
0
  6
BYBLOCK
 62
     0
 10
7.940044
 20
22.569458
 30
0.0
 11
8.483207
 21
22.569458
 31
0.0
  0
LINE
  8
0
  6
BYBLOCK
 62
     0
 10
8.343707
 20
22.199458
 30
0.0
 11
8.343707
 21
21.929458
 31
0.0
  0
LINE
  8
0
  6
BYBLOCK
 62
     0
 10
8.343707
 20
22.839458
 30
0.0
 11
8.343707
 21
23.109458
 31
0.0
  0
LINE
  8
0
  6
BYBLOCK
 62
     0
 10
8.343707
 20
23.109458
 30
0.0
 11
8.613707
 21
23.109458
 31
0.0
  0
SOLID
  8
0
  6
BYBLOCK
 62
     0
 10
8.298707
 20
22.199458
 30
0.0
 11
8.388707
 21
22.199458
 31
0.0
 12
8.343707
 22
22.469458
 32
0.0
 13
8.343707
 23
22.469458
 33
0.0
  0
SOLID
  8
0
  6
BYBLOCK
 62
     0
 10
8.298707
 20
22.839458
 30
0.0
 11
8.388707
 21
22.839458
 31
0.0
 12
8.343707
 22
22.569458
 32
0.0
 13
8.343707
 23
22.569458
 33
0.0
  0
TEXT
  8
0
  6
BYBLOCK
 62
     0
 10
8.748707
 20
23.015708
 30
0.0
 40
0.1875
  1
0.100
 41
0.75
 72
     1
 11
8.971364
 21
23.109458
 31
0.0
 73
     2
  0
POINT
  8
DEFPOINTS
  6
BYBLOCK
 62
     0
 10
7.846329
 20
22.469458
 30
0.0
  0
POINT
  8
DEFPOINTS
  6
BYBLOCK
 62
     0
 10
7.845544
 20
22.569458
 30
0.0
  0
POINT
  8
DEFPOINTS
  6
BYBLOCK
 62
     0
 10
8.343707
 20
22.569458
 30
0.0
  0
ENDBLK
  8
0
  0
BLOCK
  8
0
  2
*D7
 70
    65
 10
0.0
 20
0.0
 30
0.0
  3
*D
  0
LINE
  8
0
  6
BYBLOCK
 62
     0
 10
3.94783
 20
22.663958
 30
0.0
 11
3.94783
 21
23.082458
 31
0.0
  0
LINE
  8
0
  6
BYBLOCK
 62
     0
 10
7.94783
 20
22.663958
 30
0.0
 11
7.94783
 21
23.082458
 31
0.0
  0
LINE
  8
0
  6
BYBLOCK
 62
     0
 10
4.21783
 20
22.942958
 30
0.0
 11
5.566736
 21
22.942958
 31
0.0
  0
LINE
  8
0
  6
BYBLOCK
 62
     0
 10
7.67783
 20
22.942958
 30
0.0
 11
6.328924
 21
22.942958
 31
0.0
  0
SOLID
  8
0
  6
BYBLOCK
 62
     0
 10
4.21783
 20
22.987958
 30
0.0
 11
4.21783
 21
22.897958
 31
0.0
 12
3.94783
 22
22.942958
 32
0.0
 13
3.94783
 23
22.942958
 33
0.0
  0
SOLID
  8
0
  6
BYBLOCK
 62
     0
 10
7.67783
 20
22.987958
 30
0.0
 11
7.67783
 21
22.897958
 31
0.0
 12
7.94783
 22
22.942958
 32
0.0
 13
7.94783
 23
22.942958
 33
0.0
  0
TEXT
  8
0
  6
BYBLOCK
 62
     0
 10
5.701736
 20
22.849208
 30
0.0
 40
0.1875
  1
4.000
 41
0.75
 72
     1
 11
5.94783
 21
22.942958
 31
0.0
 73
     2
  0
POINT
  8
DEFPOINTS
  6
BYBLOCK
 62
     0
 10
3.94783
 20
22.569458
 30
0.0
  0
POINT
  8
DEFPOINTS
  6
BYBLOCK
 62
     0
 10
7.94783
 20
22.569458
 30
0.0
  0
POINT
  8
DEFPOINTS
  6
BYBLOCK
 62
     0
 10
7.94783
 20
22.942958
 30
0.0
  0
ENDBLK
  8
0
  0
BLOCK
  8
0
  2
*D8
 70
    65
 10
0.0
 20
0.0
 30
0.0
  3
*D
  0
LINE
  8
0
  6
BYBLOCK
 62
     0
 10
4.118955
 20
17.470721
 30
0.0
 11
3.253477
 21
17.470721
 31
0.0
  0
LINE
  8
0
  6
BYBLOCK
 62
     0
 10
4.118955
 20
19.064471
 30
0.0
 11
3.253477
 21
19.064471
 31
0.0
  0
LINE
  8
0
  6
BYBLOCK
 62
     0
 10
3.392977
 20
17.740721
 30
0.0
 11
3.392977
 21
18.038846
 31
0.0
  0
LINE
  8
0
  6
BYBLOCK
 62
     0
 10
3.392977
 20
18.794471
 30
0.0
 11
3.392977
 21
18.496346
 31
0.0
  0
SOLID
  8
0
  6
BYBLOCK
 62
     0
 10
3.347977
 20
17.740721
 30
0.0
 11
3.437977
 21
17.740721
 31
0.0
 12
3.392977
 22
17.470721
 32
0.0
 13
3.392977
 23
17.470721
 33
0.0
  0
SOLID
  8
0
  6
BYBLOCK
 62
     0
 10
3.347977
 20
18.794471
 30
0.0
 11
3.437977
 21
18.794471
 31
0.0
 12
3.392977
 22
19.064471
 32
0.0
 13
3.392977
 23
19.064471
 33
0.0
  0
TEXT
  8
0
  6
BYBLOCK
 62
     0
 10
3.135164
 20
18.173846
 30
0.0
 40
0.1875
  1
1.594
 41
0.75
 72
     1
 11
3.392977
 21
18.267596
 31
0.0
 73
     2
  0
POINT
  8
DEFPOINTS
  6
BYBLOCK
 62
     0
 10
4.213455
 20
17.470721
 30
0.0
  0
POINT
  8
DEFPOINTS
  6
BYBLOCK
 62
     0
 10
4.213455
 20
19.064471
 30
0.0
  0
POINT
  8
DEFPOINTS
  6
BYBLOCK
 62
     0
 10
3.392977
 20
19.064471
 30
0.0
  0
ENDBLK
  8
0
  0
BLOCK
  8
0
  2
*D9
 70
    65
 10
0.0
 20
0.0
 30
0.0
  3
*D
  0
LINE
  8
0
  6
BYBLOCK
 62
     0
 10
2.218779
 20
20.474958
 30
0.0
 11
2.218779
 21
20.056458
 31
0.0
  0
LINE
  8
0
  6
BYBLOCK
 62
     0
 10
2.258779
 20
20.474958
 30
0.0
 11
2.258779
 21
20.056458
 31
0.0
  0
LINE
  8
0
  6
BYBLOCK
 62
     0
 10
1.948779
 20
20.195958
 30
0.0
 11
1.678779
 21
20.195958
 31
0.0
  0
LINE
  8
0
  6
BYBLOCK
 62
     0
 10
2.528779
 20
20.195958
 30
0.0
 11
2.798779
 21
20.195958
 31
0.0
  0
SOLID
  8
0
  6
BYBLOCK
 62
     0
 10
1.948779
 20
20.240958
 30
0.0
 11
1.948779
 21
20.150958
 31
0.0
 12
2.218779
 22
20.195958
 32
0.0
 13
2.218779
 23
20.195958
 33
0.0
  0
SOLID
  8
0
  6
BYBLOCK
 62
     0
 10
2.528779
 20
20.240958
 30
0.0
 11
2.528779
 21
20.150958
 31
0.0
 12
2.258779
 22
20.195958
 32
0.0
 13
2.258779
 23
20.195958
 33
0.0
  0
TEXT
  8
0
  6
BYBLOCK
 62
     0
 10
3.472841
 20
20.102208
 30
0.0
 40
0.1875
  1
 TYP.
 41
0.75
 72
     1
 11
3.754091
 21
20.195958
 31
0.0
 73
     2
  0
TEXT
  8
0
  6
BYBLOCK
 62
     0
 10
2.933779
 20
20.102208
 30
0.0
 40
0.1875
  1
0.040
 41
0.75
 72
     1
 11
3.179872
 21
20.195958
 31
0.0
 73
     2
  0
POINT
  8
DEFPOINTS
  6
BYBLOCK
 62
     0
 10
2.218779
 20
20.569458
 30
0.0
  0
POINT
  8
DEFPOINTS
  6
BYBLOCK
 62
     0
 10
2.258779
 20
20.569458
 30
0.0
  0
POINT
  8
DEFPOINTS
  6
BYBLOCK
 62
     0
 10
2.258779
 20
20.195958
 30
0.0
  0
ENDBLK
  8
0
  0
BLOCK
  8
0
  2
*D10
 70
    65
 10
0.0
 20
0.0
 30
0.0
  3
*D
  0
LINE
  8
0
  6
BYBLOCK
 62
     0
 10
2.218779
 20
20.474958
 30
0.0
 11
2.218779
 21
19.634958
 31
0.0
  0
LINE
  8
0
  6
BYBLOCK
 62
     0
 10
6.323522
 20
20.474958
 30
0.0
 11
6.323522
 21
19.634958
 31
0.0
  0
LINE
  8
0
  6
BYBLOCK
 62
     0
 10
2.488779
 20
19.774458
 30
0.0
 11
3.890057
 21
19.774458
 31
0.0
  0
LINE
  8
0
  6
BYBLOCK
 62
     0
 10
6.053522
 20
19.774458
 30
0.0
 11
4.652244
 21
19.774458
 31
0.0
  0
SOLID
  8
0
  6
BYBLOCK
 62
     0
 10
2.488779
 20
19.819458
 30
0.0
 11
2.488779
 21
19.729458
 31
0.0
 12
2.218779
 22
19.774458
 32
0.0
 13
2.218779
 23
19.774458
 33
0.0
  0
SOLID
  8
0
  6
BYBLOCK
 62
     0
 10
6.053522
 20
19.819458
 30
0.0
 11
6.053522
 21
19.729458
 31
0.0
 12
6.323522
 22
19.774458
 32
0.0
 13
6.323522
 23
19.774458
 33
0.0
  0
TEXT
  8
0
  6
BYBLOCK
 62
     0
 10
4.025057
 20
19.680708
 30
0.0
 40
0.1875
  1
4.105
 41
0.75
 72
     1
 11
4.27115
 21
19.774458
 31
0.0
 73
     2
  0
POINT
  8
DEFPOINTS
  6
BYBLOCK
 62
     0
 10
2.218779
 20
20.569458
 30
0.0
  0
POINT
  8
DEFPOINTS
  6
BYBLOCK
 62
     0
 10
6.323522
 20
20.569458
 30
0.0
  0
POINT
  8
DEFPOINTS
  6
BYBLOCK
 62
     0
 10
6.323522
 20
19.774458
 30
0.0
  0
ENDBLK
  8
0
  0
BLOCK
  8
0
  2
*D11
 70
    65
 10
0.0
 20
0.0
 30
0.0
  3
*D
  0
LINE
  8
0
  6
BYBLOCK
 62
     0
 10
6.224069
 20
21.693314
 30
0.0
 11
6.227721
 21
21.553861
 31
0.0
  0
LINE
  8
0
  6
BYBLOCK
 62
     0
 10
6.294045
 20
21.695146
 30
0.0
 11
6.297697
 21
21.555694
 31
0.0
  0
LINE
  8
0
  6
BYBLOCK
 62
     0
 10
5.954162
 20
21.686246
 30
0.0
 11
5.684254
 21
21.679178
 31
0.0
  0
LINE
  8
0
  6
BYBLOCK
 62
     0
 10
6.563953
 20
21.702214
 30
0.0
 11
6.83386
 21
21.709282
 31
0.0
  0
SOLID
  8
0
  6
BYBLOCK
 62
     0
 10
5.952984
 20
21.73123
 30
0.0
 11
5.95534
 21
21.641261
 31
0.0
 12
6.224069
 22
21.693314
 32
0.0
 13
6.224069
 23
21.693314
 33
0.0
  0
SOLID
  8
0
  6
BYBLOCK
 62
     0
 10
6.562775
 20
21.747198
 30
0.0
 11
6.565131
 21
21.657229
 31
0.0
 12
6.294045
 22
21.695146
 32
0.0
 13
6.294045
 23
21.695146
 33
0.0
  0
TEXT
  8
0
  6
BYBLOCK
 62
     0
 10
6.96886
 20
21.615532
 30
0.0
 40
0.1875
  1
0.070
 41
0.75
 72
     1
 11
7.214954
 21
21.709282
 31
0.0
 73
     2
  0
POINT
  8
DEFPOINTS
  6
BYBLOCK
 62
     0
 10
6.221595
 20
21.787781
 30
0.0
  0
POINT
  8
DEFPOINTS
  6
BYBLOCK
 62
     0
 10
6.291571
 20
21.789614
 30
0.0
  0
POINT
  8
DEFPOINTS
  6
BYBLOCK
 62
     0
 10
6.294045
 20
21.695146
 30
0.0
  0
ENDBLK
  8
0
  0
BLOCK
  8
0
  2
*D12
 70
    65
 10
0.0
 20
0.0
 30
0.0
  3
*D
  0
LINE
  8
0
  6
BYBLOCK
 62
     0
 10
2.333275
 20
20.719458
 30
0.0
 11
1.420373
 21
20.719458
 31
0.0
  0
LINE
  8
0
  6
BYBLOCK
 62
     0
 10
2.124279
 20
20.569458
 30
0.0
 11
1.420373
 21
20.569458
 31
0.0
  0
LINE
  8
0
  6
BYBLOCK
 62
     0
 10
1.559873
 20
20.989458
 30
0.0
 11
1.559873
 21
21.259458
 31
0.0
  0
LINE
  8
0
  6
BYBLOCK
 62
     0
 10
1.559873
 20
20.299458
 30
0.0
 11
1.559873
 21
20.029458
 31
0.0
  0
LINE
  8
0
  6
BYBLOCK
 62
     0
 10
1.559873
 20
20.029458
 30
0.0
 11
1.289873
 21
20.029458
 31
0.0
  0
SOLID
  8
0
  6
BYBLOCK
 62
     0
 10
1.514873
 20
20.989458
 30
0.0
 11
1.604873
 21
20.989458
 31
0.0
 12
1.559873
 22
20.719458
 32
0.0
 13
1.559873
 23
20.719458
 33
0.0
  0
SOLID
  8
0
  6
BYBLOCK
 62
     0
 10
1.514873
 20
20.299458
 30
0.0
 11
1.604873
 21
20.299458
 31
0.0
 12
1.559873
 22
20.569458
 32
0.0
 13
1.559873
 23
20.569458
 33
0.0
  0
TEXT
  8
0
  6
BYBLOCK
 62
     0
 10
0.686123
 20
19.935708
 30
0.0
 40
0.1875
  1
0.150
 41
0.75
 72
     1
 11
0.920498
 21
20.029458
 31
0.0
 73
     2
  0
POINT
  8
DEFPOINTS
  6
BYBLOCK
 62
     0
 10
2.427775
 20
20.719458
 30
0.0
  0
POINT
  8
DEFPOINTS
  6
BYBLOCK
 62
     0
 10
2.218779
 20
20.569458
 30
0.0
  0
POINT
  8
DEFPOINTS
  6
BYBLOCK
 62
     0
 10
1.559873
 20
20.569458
 30
0.0
  0
ENDBLK
  8
0
  0
BLOCK
  8
0
  2
*D13
 70
    65
 10
0.0
 20
0.0
 30
0.0
  3
*D
  0
LINE
  8
0
  6
BYBLOCK
 62
     0
 10
12.934444
 20
9.443069
 30
0.0
 11
13.54407
 21
9.443069
 31
0.0
  0
LINE
  8
0
  6
BYBLOCK
 62
     0
 10
13.089102
 20
7.443069
 30
0.0
 11
13.54407
 21
7.443069
 31
0.0
  0
LINE
  8
0
  6
BYBLOCK
 62
     0
 10
13.40457
 20
9.173069
 30
0.0
 11
13.40457
 21
8.671819
 31
0.0
  0
LINE
  8
0
  6
BYBLOCK
 62
     0
 10
13.40457
 20
7.713069
 30
0.0
 11
13.40457
 21
8.214319
 31
0.0
  0
SOLID
  8
0
  6
BYBLOCK
 62
     0
 10
13.35957
 20
9.173069
 30
0.0
 11
13.44957
 21
9.173069
 31
0.0
 12
13.40457
 22
9.443069
 32
0.0
 13
13.40457
 23
9.443069
 33
0.0
  0
SOLID
  8
0
  6
BYBLOCK
 62
     0
 10
13.35957
 20
7.713069
 30
0.0
 11
13.44957
 21
7.713069
 31
0.0
 12
13.40457
 22
7.443069
 32
0.0
 13
13.40457
 23
7.443069
 33
0.0
  0
TEXT
  8
0
  6
BYBLOCK
 62
     0
 10
13.158476
 20
8.349319
 30
0.0
 40
0.1875
  1
2.000
 41
0.75
 72
     1
 11
13.40457
 21
8.443069
 31
0.0
 73
     2
  0
POINT
  8
DEFPOINTS
  6
BYBLOCK
 62
     0
 10
12.839944
 20
9.443069
 30
0.0
  0
POINT
  8
DEFPOINTS
  6
BYBLOCK
 62
     0
 10
12.994602
 20
7.443069
 30
0.0
  0
POINT
  8
DEFPOINTS
  6
BYBLOCK
 62
     0
 10
13.40457
 20
7.443069
 30
0.0
  0
ENDBLK
  8
0
  0
BLOCK
  8
0
  2
*D14
 70
    65
 10
0.0
 20
0.0
 30
0.0
  3
*D
  0
LINE
  8
0
  6
BYBLOCK
 62
     0
 10
10.670451
 20
7.393069
 30
0.0
 11
10.251951
 21
7.393069
 31
0.0
  0
LINE
  8
0
  6
BYBLOCK
 62
     0
 10
10.783842
 20
6.823069
 30
0.0
 11
10.251951
 21
6.823069
 31
0.0
  0
LINE
  8
0
  6
BYBLOCK
 62
     0
 10
10.391451
 20
7.663069
 30
0.0
 11
10.391451
 21
7.933069
 31
0.0
  0
LINE
  8
0
  6
BYBLOCK
 62
     0
 10
10.391451
 20
6.553069
 30
0.0
 11
10.391451
 21
6.283069
 31
0.0
  0
SOLID
  8
0
  6
BYBLOCK
 62
     0
 10
10.346451
 20
7.663069
 30
0.0
 11
10.436451
 21
7.663069
 31
0.0
 12
10.391451
 22
7.393069
 32
0.0
 13
10.391451
 23
7.393069
 33
0.0
  0
SOLID
  8
0
  6
BYBLOCK
 62
     0
 10
10.346451
 20
6.553069
 30
0.0
 11
10.436451
 21
6.553069
 31
0.0
 12
10.391451
 22
6.823069
 32
0.0
 13
10.391451
 23
6.823069
 33
0.0
  0
TEXT
  8
0
  6
BYBLOCK
 62
     0
 10
10.133639
 20
7.014319
 30
0.0
 40
0.1875
  1
0.570
 41
0.75
 72
     1
 11
10.391451
 21
7.108069
 31
0.0
 73
     2
  0
POINT
  8
DEFPOINTS
  6
BYBLOCK
 62
     0
 10
10.764951
 20
7.393069
 30
0.0625
  0
POINT
  8
DEFPOINTS
  6
BYBLOCK
 62
     0
 10
10.878342
 20
6.823069
 30
0.0625
  0
POINT
  8
DEFPOINTS
  6
BYBLOCK
 62
     0
 10
10.391451
 20
6.823069
 30
0.0
  0
ENDBLK
  8
0
  0
BLOCK
  8
0
  2
*D15
 70
    65
 10
0.0
 20
0.0
 30
0.0
  3
*D
  0
LINE
  8
0
  6
BYBLOCK
 62
     0
 10
13.006076
 20
6.856841
 30
0.0
 11
13.006076
 21
6.318158
 31
0.0
  0
LINE
  8
0
  6
BYBLOCK
 62
     0
 10
10.753299
 20
6.853569
 30
0.0
 11
10.753299
 21
6.318158
 31
0.0
  0
LINE
  8
0
  6
BYBLOCK
 62
     0
 10
12.736076
 20
6.457658
 30
0.0
 11
12.295937
 21
6.457658
 31
0.0
  0
LINE
  8
0
  6
BYBLOCK
 62
     0
 10
11.023299
 20
6.457658
 30
0.0
 11
11.463437
 21
6.457658
 31
0.0
  0
SOLID
  8
0
  6
BYBLOCK
 62
     0
 10
12.736076
 20
6.502658
 30
0.0
 11
12.736076
 21
6.412658
 31
0.0
 12
13.006076
 22
6.457658
 32
0.0
 13
13.006076
 23
6.457658
 33
0.0
  0
SOLID
  8
0
  6
BYBLOCK
 62
     0
 10
11.023299
 20
6.502658
 30
0.0
 11
11.023299
 21
6.412658
 31
0.0
 12
10.753299
 22
6.457658
 32
0.0
 13
10.753299
 23
6.457658
 33
0.0
  0
TEXT
  8
0
  6
BYBLOCK
 62
     0
 10
11.598437
 20
6.363908
 30
0.0
 40
0.1875
  1
2.253
 41
0.75
 72
     1
 11
11.879687
 21
6.457658
 31
0.0
 73
     2
  0
POINT
  8
DEFPOINTS
  6
BYBLOCK
 62
     0
 10
13.006076
 20
6.951341
 30
0.0625
  0
POINT
  8
DEFPOINTS
  6
BYBLOCK
 62
     0
 10
10.753299
 20
6.948069
 30
0.0625
  0
POINT
  8
DEFPOINTS
  6
BYBLOCK
 62
     0
 10
10.753299
 20
6.457658
 30
-0.0625
  0
ENDBLK
  8
0
  0
BLOCK
  8
0
  2
*D16
 70
    65
 10
0.0
 20
0.0
 30
0.0
  3
*D
  0
LINE
  8
0
  6
BYBLOCK
 62
     0
 10
10.81723
 20
9.537569
 30
0.0
 11
10.81723
 21
9.894122
 31
0.0
  0
LINE
  8
0
  6
BYBLOCK
 62
     0
 10
12.94223
 20
9.537569
 30
0.0
 11
12.94223
 21
9.894122
 31
0.0
  0
LINE
  8
0
  6
BYBLOCK
 62
     0
 10
11.08723
 20
9.754622
 30
0.0
 11
11.486918
 21
9.754622
 31
0.0
  0
LINE
  8
0
  6
BYBLOCK
 62
     0
 10
12.67223
 20
9.754622
 30
0.0
 11
12.272543
 21
9.754622
 31
0.0
  0
SOLID
  8
0
  6
BYBLOCK
 62
     0
 10
11.08723
 20
9.799622
 30
0.0
 11
11.08723
 21
9.709622
 31
0.0
 12
10.81723
 22
9.754622
 32
0.0
 13
10.81723
 23
9.754622
 33
0.0
  0
SOLID
  8
0
  6
BYBLOCK
 62
     0
 10
12.67223
 20
9.799622
 30
0.0
 11
12.67223
 21
9.709622
 31
0.0
 12
12.94223
 22
9.754622
 32
0.0
 13
12.94223
 23
9.754622
 33
0.0
  0
TEXT
  8
0
  6
BYBLOCK
 62
     0
 10
11.621918
 20
9.660872
 30
0.0
 40
0.1875
  1
2.125
 41
0.75
 72
     1
 11
11.87973
 21
9.754622
 31
0.0
 73
     2
  0
POINT
  8
DEFPOINTS
  6
BYBLOCK
 62
     0
 10
10.81723
 20
9.443069
 30
0.0
  0
POINT
  8
DEFPOINTS
  6
BYBLOCK
 62
     0
 10
12.94223
 20
9.443069
 30
0.0
  0
POINT
  8
DEFPOINTS
  6
BYBLOCK
 62
     0
 10
12.94223
 20
9.754622
 30
0.0
  0
ENDBLK
  8
0
  0
BLOCK
  8
0
  2
*D17
 70
    65
 10
0.0
 20
0.0
 30
0.0
  3
*D
  0
LINE
  8
0
  6
BYBLOCK
 62
     0
 10
14.787551
 20
6.853569
 30
0.0
 11
14.787551
 21
5.896658
 31
0.0
  0
LINE
  8
0
  6
BYBLOCK
 62
     0
 10
18.915329
 20
6.856841
 30
0.0
 11
18.915329
 21
5.896658
 31
0.0
  0
LINE
  8
0
  6
BYBLOCK
 62
     0
 10
15.057551
 20
6.036158
 30
0.0
 11
16.458627
 21
6.036158
 31
0.0
  0
LINE
  8
0
  6
BYBLOCK
 62
     0
 10
18.645329
 20
6.036158
 30
0.0
 11
17.244252
 21
6.036158
 31
0.0
  0
SOLID
  8
0
  6
BYBLOCK
 62
     0
 10
15.057551
 20
6.081158
 30
0.0
 11
15.057551
 21
5.991158
 31
0.0
 12
14.787551
 22
6.036158
 32
0.0
 13
14.787551
 23
6.036158
 33
0.0
  0
SOLID
  8
0
  6
BYBLOCK
 62
     0
 10
18.645329
 20
6.081158
 30
0.0
 11
18.645329
 21
5.991158
 31
0.0
 12
18.915329
 22
6.036158
 32
0.0
 13
18.915329
 23
6.036158
 33
0.0
  0
TEXT
  8
0
  6
BYBLOCK
 62
     0
 10
16.593627
 20
5.942408
 30
0.0
 40
0.1875
  1
4.128
 41
0.75
 72
     1
 11
16.85144
 21
6.036158
 31
0.0
 73
     2
  0
POINT
  8
DEFPOINTS
  6
BYBLOCK
 62
     0
 10
14.787551
 20
6.948069
 30
0.0625
  0
POINT
  8
DEFPOINTS
  6
BYBLOCK
 62
     0
 10
18.915329
 20
6.951341
 30
0.0625
  0
POINT
  8
DEFPOINTS
  6
BYBLOCK
 62
     0
 10
18.915329
 20
6.036158
 30
-0.0625
  0
ENDBLK
  8
0
  0
BLOCK
  8
0
  2
*D18
 70
    65
 10
0.0
 20
0.0
 30
0.0
  3
*D
  0
LINE
  8
0
  6
BYBLOCK
 62
     0
 10
16.414527
 20
6.916069
 30
0.0
 11
16.522527
 21
6.916069
 31
0.0
  0
LINE
  8
0
  6
BYBLOCK
 62
     0
 10
16.400268
 20
6.823069
 30
0.0
 11
16.522527
 21
6.823069
 31
0.0
  0
LINE
  8
0
  6
BYBLOCK
 62
     0
 10
16.383027
 20
7.186069
 30
0.0
 11
16.383027
 21
7.456069
 31
0.0
  0
LINE
  8
0
  6
BYBLOCK
 62
     0
 10
16.383027
 20
6.553069
 30
0.0
 11
16.383027
 21
6.283069
 31
0.0
  0
LINE
  8
0
  6
BYBLOCK
 62
     0
 10
16.383027
 20
6.283069
 30
0.0
 11
16.113027
 21
6.283069
 31
0.0
  0
SOLID
  8
0
  6
BYBLOCK
 62
     0
 10
16.338027
 20
7.186069
 30
0.0
 11
16.428027
 21
7.186069
 31
0.0
 12
16.383027
 22
6.916069
 32
0.0
 13
16.383027
 23
6.916069
 33
0.0
  0
SOLID
  8
0
  6
BYBLOCK
 62
     0
 10
16.338027
 20
6.553069
 30
0.0
 11
16.428027
 21
6.553069
 31
0.0
 12
16.383027
 22
6.823069
 32
0.0
 13
16.383027
 23
6.823069
 33
0.0
  0
TEXT
  8
0
  6
BYBLOCK
 62
     0
 10
15.462402
 20
6.189319
 30
0.0
 40
0.1875
  1
0.093
 41
0.75
 72
     1
 11
15.720215
 21
6.283069
 31
0.0
 73
     2
  0
POINT
  8
DEFPOINTS
  6
BYBLOCK
 62
     0
 10
16.320027
 20
6.916069
 30
0.0625
  0
POINT
  8
DEFPOINTS
  6
BYBLOCK
 62
     0
 10
16.305768
 20
6.823069
 30
0.0625
  0
POINT
  8
DEFPOINTS
  6
BYBLOCK
 62
     0
 10
16.383027
 20
6.823069
 30
0.0
  0
ENDBLK
  8
0
  0
BLOCK
  8
0
  2
*D21
 70
    65
 10
0.0
 20
0.0
 30
0.0
  3
*D
  0
LINE
  8
0
  6
BYBLOCK
 62
     0
 10
15.116983
 20
3.696951
 30
0.0
 11
15.116983
 21
3.028237
 31
0.0
  0
LINE
  8
0
  6
BYBLOCK
 62
     0
 10
18.585983
 20
3.696951
 30
0.0
 11
18.585983
 21
3.028237
 31
0.0
  0
LINE
  8
0
  6
BYBLOCK
 62
     0
 10
15.386983
 20
3.167737
 30
0.0
 11
16.435233
 21
3.167737
 31
0.0
  0
LINE
  8
0
  6
BYBLOCK
 62
     0
 10
18.315983
 20
3.167737
 30
0.0
 11
17.267733
 21
3.167737
 31
0.0
  0
SOLID
  8
0
  6
BYBLOCK
 62
     0
 10
15.386983
 20
3.212737
 30
0.0
 11
15.386983
 21
3.122737
 31
0.0
 12
15.116983
 22
3.167737
 32
0.0
 13
15.116983
 23
3.167737
 33
0.0
  0
SOLID
  8
0
  6
BYBLOCK
 62
     0
 10
18.315983
 20
3.212737
 30
0.0
 11
18.315983
 21
3.122737
 31
0.0
 12
18.585983
 22
3.167737
 32
0.0
 13
18.585983
 23
3.167737
 33
0.0
  0
TEXT
  8
0
  6
BYBLOCK
 62
     0
 10
16.570233
 20
3.073987
 30
0.0
 40
0.1875
  1
3.469
 41
0.75
 72
     1
 11
16.851483
 21
3.167737
 31
0.0
 73
     2
  0
POINT
  8
DEFPOINTS
  6
BYBLOCK
 62
     0
 10
15.116983
 20
3.791451
 30
0.0
  0
POINT
  8
DEFPOINTS
  6
BYBLOCK
 62
     0
 10
18.585983
 20
3.791451
 30
0.0
  0
POINT
  8
DEFPOINTS
  6
BYBLOCK
 62
     0
 10
18.585983
 20
3.167737
 30
0.0
  0
ENDBLK
  8
0
  0
BLOCK
  8
0
  2
*D22
 70
    65
 10
0.0
 20
0.0
 30
0.0
  3
*D
  0
LINE
  8
0
  6
BYBLOCK
 62
     0
 10
18.680483
 20
5.385451
 30
0.0
 11
19.426189
 21
5.385451
 31
0.0
  0
LINE
  8
0
  6
BYBLOCK
 62
     0
 10
18.680483
 20
3.791451
 30
0.0
 11
19.426189
 21
3.791451
 31
0.0
  0
LINE
  8
0
  6
BYBLOCK
 62
     0
 10
19.286689
 20
5.115451
 30
0.0
 11
19.286689
 21
4.817201
 31
0.0
  0
LINE
  8
0
  6
BYBLOCK
 62
     0
 10
19.286689
 20
4.061451
 30
0.0
 11
19.286689
 21
4.359701
 31
0.0
  0
SOLID
  8
0
  6
BYBLOCK
 62
     0
 10
19.241689
 20
5.115451
 30
0.0
 11
19.331689
 21
5.115451
 31
0.0
 12
19.286689
 22
5.385451
 32
0.0
 13
19.286689
 23
5.385451
 33
0.0
  0
SOLID
  8
0
  6
BYBLOCK
 62
     0
 10
19.241689
 20
4.061451
 30
0.0
 11
19.331689
 21
4.061451
 31
0.0
 12
19.286689
 22
3.791451
 32
0.0
 13
19.286689
 23
3.791451
 33
0.0
  0
TEXT
  8
0
  6
BYBLOCK
 62
     0
 10
19.028876
 20
4.494701
 30
0.0
 40
0.1875
  1
1.594
 41
0.75
 72
     1
 11
19.286689
 21
4.588451
 31
0.0
 73
     2
  0
POINT
  8
DEFPOINTS
  6
BYBLOCK
 62
     0
 10
18.585983
 20
5.385451
 30
0.0
  0
POINT
  8
DEFPOINTS
  6
BYBLOCK
 62
     0
 10
18.585983
 20
3.791451
 30
0.0
  0
POINT
  8
DEFPOINTS
  6
BYBLOCK
 62
     0
 10
19.286689
 20
3.791451
 30
0.0
  0
ENDBLK
  8
0
  0
BLOCK
  8
0
  2
*D23
 70
    65
 10
0.0
 20
0.0
 30
0.0
  3
*D
  0
LINE
  8
0
  6
BYBLOCK
 62
     0
 10
15.400483
 20
9.550987
 30
0.0
 11
15.400483
 21
8.613104
 31
0.0
  0
LINE
  8
0
  6
BYBLOCK
 62
     0
 10
18.302483
 20
9.550987
 30
0.0
 11
18.302483
 21
8.613104
 31
0.0
  0
LINE
  8
0
  6
BYBLOCK
 62
     0
 10
15.670483
 20
8.752604
 30
0.0
 11
16.446951
 21
8.752604
 31
0.0
  0
LINE
  8
0
  6
BYBLOCK
 62
     0
 10
18.032483
 20
8.752604
 30
0.0
 11
17.256014
 21
8.752604
 31
0.0
  0
SOLID
  8
0
  6
BYBLOCK
 62
     0
 10
15.670483
 20
8.797604
 30
0.0
 11
15.670483
 21
8.707604
 31
0.0
 12
15.400483
 22
8.752604
 32
0.0
 13
15.400483
 23
8.752604
 33
0.0
  0
SOLID
  8
0
  6
BYBLOCK
 62
     0
 10
18.032483
 20
8.797604
 30
0.0
 11
18.032483
 21
8.707604
 31
0.0
 12
18.302483
 22
8.752604
 32
0.0
 13
18.302483
 23
8.752604
 33
0.0
  0
TEXT
  8
0
  6
BYBLOCK
 62
     0
 10
16.581951
 20
8.658854
 30
0.0
 40
0.1875
  1
2.902
 41
0.75
 72
     1
 11
16.851483
 21
8.752604
 31
0.0
 73
     2
  0
POINT
  8
DEFPOINTS
  6
BYBLOCK
 62
     0
 10
15.400483
 20
9.645487
 30
0.0
  0
POINT
  8
DEFPOINTS
  6
BYBLOCK
 62
     0
 10
18.302483
 20
9.645487
 30
0.0
  0
POINT
  8
DEFPOINTS
  6
BYBLOCK
 62
     0
 10
18.302483
 20
8.752604
 30
0.0
  0
ENDBLK
  8
0
  0
BLOCK
  8
0
  2
*D24
 70
    65
 10
0.0
 20
0.0
 30
0.0
  3
*D
  0
LINE
  8
0
  6
BYBLOCK
 62
     0
 10
18.11794
 20
7.143069
 30
0.0
 11
17.914963
 21
7.143069
 31
0.0
  0
LINE
  8
0
  6
BYBLOCK
 62
     0
 10
18.115963
 20
6.916455
 30
0.0
 11
17.914963
 21
6.916455
 31
0.0
  0
LINE
  8
0
  6
BYBLOCK
 62
     0
 10
18.054463
 20
7.413069
 30
0.0
 11
18.054463
 21
7.683069
 31
0.0
  0
LINE
  8
0
  6
BYBLOCK
 62
     0
 10
18.054463
 20
6.646455
 30
0.0
 11
18.054463
 21
6.376455
 31
0.0
  0
LINE
  8
0
  6
BYBLOCK
 62
     0
 10
18.054463
 20
6.376455
 30
0.0
 11
17.784463
 21
6.376455
 31
0.0
  0
SOLID
  8
0
  6
BYBLOCK
 62
     0
 10
18.009463
 20
7.413069
 30
0.0
 11
18.099463
 21
7.413069
 31
0.0
 12
18.054463
 22
7.143069
 32
0.0
 13
18.054463
 23
7.143069
 33
0.0
  0
SOLID
  8
0
  6
BYBLOCK
 62
     0
 10
18.009463
 20
6.646455
 30
0.0
 11
18.099463
 21
6.646455
 31
0.0
 12
18.054463
 22
6.916455
 32
0.0
 13
18.054463
 23
6.916455
 33
0.0
  0
TEXT
  8
0
  6
BYBLOCK
 62
     0
 10
17.1104
 20
6.282705
 30
0.0
 40
0.1875
  1
0.227
 41
0.75
 72
     1
 11
17.379931
 21
6.376455
 31
0.0
 73
     2
  0
POINT
  8
DEFPOINTS
  6
BYBLOCK
 62
     0
 10
18.21244
 20
7.143069
 30
0.0
  0
POINT
  8
DEFPOINTS
  6
BYBLOCK
 62
     0
 10
18.210463
 20
6.916455
 30
0.0
  0
POINT
  8
DEFPOINTS
  6
BYBLOCK
 62
     0
 10
18.054463
 20
6.916455
 30
0.0
  0
ENDBLK
  8
0
  0
BLOCK
  8
0
  2
*D25
 70
    65
 10
0.0
 20
0.0
 30
0.0
  3
*D
  0
LINE
  8
0
  6
BYBLOCK
 62
     0
 10
15.305983
 20
10.671487
 30
0.0
 11
14.183776
 21
10.671487
 31
0.0
  0
LINE
  8
0
  6
BYBLOCK
 62
     0
 10
15.305983
 20
9.645487
 30
0.0
 11
14.183776
 21
9.645487
 31
0.0
  0
LINE
  8
0
  6
BYBLOCK
 62
     0
 10
14.323276
 20
10.941487
 30
0.0
 11
14.323276
 21
11.211487
 31
0.0
  0
LINE
  8
0
  6
BYBLOCK
 62
     0
 10
14.323276
 20
9.375487
 30
0.0
 11
14.323276
 21
9.105487
 31
0.0
  0
SOLID
  8
0
  6
BYBLOCK
 62
     0
 10
14.278276
 20
10.941487
 30
0.0
 11
14.368276
 21
10.941487
 31
0.0
 12
14.323276
 22
10.671487
 32
0.0
 13
14.323276
 23
10.671487
 33
0.0
  0
SOLID
  8
0
  6
BYBLOCK
 62
     0
 10
14.278276
 20
9.375487
 30
0.0
 11
14.368276
 21
9.375487
 31
0.0
 12
14.323276
 22
9.645487
 32
0.0
 13
14.323276
 23
9.645487
 33
0.0
  0
TEXT
  8
0
  6
BYBLOCK
 62
     0
 10
14.077183
 20
10.064737
 30
0.0
 40
0.1875
  1
1.026
 41
0.75
 72
     1
 11
14.323276
 21
10.158487
 31
0.0
 73
     2
  0
POINT
  8
DEFPOINTS
  6
BYBLOCK
 62
     0
 10
15.400483
 20
10.671487
 30
0.0
  0
POINT
  8
DEFPOINTS
  6
BYBLOCK
 62
     0
 10
15.400483
 20
9.645487
 30
0.0
  0
POINT
  8
DEFPOINTS
  6
BYBLOCK
 62
     0
 10
14.323276
 20
9.645487
 30
0.0
  0
ENDBLK
  8
0
  0
BLOCK
  8
0
  2
*D28
 70
    65
 10
0.0
 20
0.0
 30
0.0
  3
*D
  0
LINE
  8
0
  6
BYBLOCK
 62
     0
 10
10.817027
 20
9.435285
 30
0.0
 11
10.840678
 21
10.338495
 31
0.0
  0
LINE
  8
0
  6
BYBLOCK
 62
     0
 10
10.753299
 20
7.487569
 30
0.0
 11
10.753299
 21
10.339639
 31
0.0
  0
ARC
  8
0
  6
BYBLOCK
 62
     0
 10
10.753299
 20
7.001619
 30
0.0
 40
3.19852
 50
78.823989
 51
83.661994
  0
ARC
  8
0
  6
BYBLOCK
 62
     0
 10
10.753299
 20
7.001619
 30
0.0
 40
3.19852
 50
94.838006
 51
99.676011
  0
SOLID
  8
0
  6
BYBLOCK
 62
     0
 10
11.103319
 20
10.135695
 30
0.0
 11
11.10947
 21
10.225484
 31
0.0
 12
10.837026
 22
10.199043
 32
0.0
 13
10.837026
 23
10.199043
 33
0.0
  0
SOLID
  8
0
  6
BYBLOCK
 62
     0
 10
10.48164
 20
10.233703
 30
0.0
 11
10.485439
 21
10.143783
 31
0.0
 12
10.753299
 22
10.200139
 32
0.0
 13
10.753299
 23
10.200139
 33
0.0
  0
TEXT
  8
0
  6
BYBLOCK
 62
     0
 10
11.993188
 20
10.045328
 30
0.0
 40
0.1875
  1
 REF.
 41
0.75
 72
     1
 11
12.274438
 21
10.139078
 31
0.0
 73
     2
  0
TEXT
  8
0
  6
BYBLOCK
 62
     0
 10
11.477563
 20
10.045328
 30
0.0
 40
0.1875
  1
1%%d30'
 41
0.75
 72
     1
 11
11.711938
 21
10.139078
 31
0.0
 73
     2
  0
POINT
  8
DEFPOINTS
  6
BYBLOCK
 62
     0
 10
10.802486
 20
10.199761
 30
0.0
  0
POINT
  8
DEFPOINTS
  6
BYBLOCK
 62
     0
 10
10.753299
 20
6.853569
 30
0.0
  0
POINT
  8
DEFPOINTS
  6
BYBLOCK
 62
     0
 10
10.814553
 20
9.340818
 30
0.0
  0
POINT
  8
DEFPOINTS
  6
BYBLOCK
 62
     0
 10
10.764858
 20
7.443069
 30
0.0
  0
POINT
  8
DEFPOINTS
  6
BYBLOCK
 62
     0
 10
10.753299
 20
7.393069
 30
0.0
  0
ENDBLK
  8
0
  0
BLOCK
  8
0
  2
*D29
 70
    65
 10
0.0
 20
0.0
 30
0.0
  3
*D
  0
LINE
  8
0
  6
BYBLOCK
 62
     0
 10
14.799204
 20
5.526674
 30
0.0
 11
14.799204
 21
6.020255
 31
0.0
  0
LINE
  8
0
  6
BYBLOCK
 62
     0
 10
18.903762
 20
5.526674
 30
0.0
 11
18.903762
 21
6.020255
 31
0.0
  0
LINE
  8
0
  6
BYBLOCK
 62
     0
 10
15.069204
 20
5.880755
 30
0.0
 11
16.470389
 21
5.880755
 31
0.0
  0
LINE
  8
0
  6
BYBLOCK
 62
     0
 10
18.633762
 20
5.880755
 30
0.0
 11
17.232576
 21
5.880755
 31
0.0
  0
SOLID
  8
0
  6
BYBLOCK
 62
     0
 10
15.069204
 20
5.925755
 30
0.0
 11
15.069204
 21
5.835755
 31
0.0
 12
14.799204
 22
5.880755
 32
0.0
 13
14.799204
 23
5.880755
 33
0.0
  0
SOLID
  8
0
  6
BYBLOCK
 62
     0
 10
18.633762
 20
5.925755
 30
0.0
 11
18.633762
 21
5.835755
 31
0.0
 12
18.903762
 22
5.880755
 32
0.0
 13
18.903762
 23
5.880755
 33
0.0
  0
TEXT
  8
0
  6
BYBLOCK
 62
     0
 10
16.605389
 20
5.787005
 30
0.0
 40
0.1875
  1
4.105
 41
0.75
 72
     1
 11
16.851483
 21
5.880755
 31
0.0
 73
     2
  0
POINT
  8
DEFPOINTS
  6
BYBLOCK
 62
     0
 10
14.799204
 20
5.432174
 30
0.0625
  0
POINT
  8
DEFPOINTS
  6
BYBLOCK
 62
     0
 10
18.903762
 20
5.432174
 30
0.0625
  0
POINT
  8
DEFPOINTS
  6
BYBLOCK
 62
     0
 10
18.903762
 20
5.880755
 30
0.0625
  0
ENDBLK
  8
0
  0
BLOCK
  8
0
  2
*D30
 70
    65
 10
0.0
 20
0.0
 30
0.0
  3
*D
  0
LINE
  8
0
  6
BYBLOCK
 62
     0
 10
14.748134
 20
5.522174
 30
0.0
 11
14.337982
 21
5.522174
 31
0.0
  0
LINE
  8
0
  6
BYBLOCK
 62
     0
 10
14.704704
 20
5.432174
 30
0.0
 11
14.337982
 21
5.432174
 31
0.0
  0
LINE
  8
0
  6
BYBLOCK
 62
     0
 10
14.477482
 20
5.792174
 30
0.0
 11
14.477482
 21
6.062174
 31
0.0
  0
LINE
  8
0
  6
BYBLOCK
 62
     0
 10
14.477482
 20
5.162174
 30
0.0
 11
14.477482
 21
4.892174
 31
0.0
  0
LINE
  8
0
  6
BYBLOCK
 62
     0
 10
14.477482
 20
4.892174
 30
0.0
 11
14.207482
 21
4.892174
 31
0.0
  0
SOLID
  8
0
  6
BYBLOCK
 62
     0
 10
14.432482
 20
5.792174
 30
0.0
 11
14.522482
 21
5.792174
 31
0.0
 12
14.477482
 22
5.522174
 32
0.0
 13
14.477482
 23
5.522174
 33
0.0
  0
SOLID
  8
0
  6
BYBLOCK
 62
     0
 10
14.432482
 20
5.162174
 30
0.0
 11
14.522482
 21
5.162174
 31
0.0
 12
14.477482
 22
5.432174
 32
0.0
 13
14.477482
 23
5.432174
 33
0.0
  0
TEXT
  8
0
  6
BYBLOCK
 62
     0
 10
13.580295
 20
4.798424
 30
0.0
 40
0.1875
  1
0.090
 41
0.75
 72
     1
 11
13.826388
 21
4.892174
 31
0.0
 73
     2
  0
POINT
  8
DEFPOINTS
  6
BYBLOCK
 62
     0
 10
14.842634
 20
5.522174
 30
0.0625
  0
POINT
  8
DEFPOINTS
  6
BYBLOCK
 62
     0
 10
14.799204
 20
5.432174
 30
0.0625
  0
POINT
  8
DEFPOINTS
  6
BYBLOCK
 62
     0
 10
14.477482
 20
5.432174
 30
0.0
  0
ENDBLK
  8
0
  0
BLOCK
  8
0
  2
*D31
 70
    65
 10
0.0
 20
0.0
 30
0.0
  3
*D
  0
LINE
  8
0
  6
BYBLOCK
 62
     0
 10
18.786913
 20
5.602174
 30
0.0
 11
19.426189
 21
5.602174
 31
0.0
  0
LINE
  8
0
  6
BYBLOCK
 62
     0
 10
18.798984
 20
4.862174
 30
0.0
 11
19.426189
 21
4.862174
 31
0.0
  0
LINE
  8
0
  6
BYBLOCK
 62
     0
 10
19.286689
 20
5.872174
 30
0.0
 11
19.286689
 21
6.142174
 31
0.0
  0
LINE
  8
0
  6
BYBLOCK
 62
     0
 10
19.286689
 20
4.592174
 30
0.0
 11
19.286689
 21
4.322174
 31
0.0
  0
SOLID
  8
0
  6
BYBLOCK
 62
     0
 10
19.241689
 20
5.872174
 30
0.0
 11
19.331689
 21
5.872174
 31
0.0
 12
19.286689
 22
5.602174
 32
0.0
 13
19.286689
 23
5.602174
 33
0.0
  0
SOLID
  8
0
  6
BYBLOCK
 62
     0
 10
19.241689
 20
4.592174
 30
0.0
 11
19.331689
 21
4.592174
 31
0.0
 12
19.286689
 22
4.862174
 32
0.0
 13
19.286689
 23
4.862174
 33
0.0
  0
TEXT
  8
0
  6
BYBLOCK
 62
     0
 10
19.028876
 20
5.138424
 30
0.0
 40
0.1875
  1
0.740
 41
0.75
 72
     1
 11
19.286689
 21
5.232174
 31
0.0
 73
     2
  0
POINT
  8
DEFPOINTS
  6
BYBLOCK
 62
     0
 10
18.692413
 20
5.602174
 30
0.0
  0
POINT
  8
DEFPOINTS
  6
BYBLOCK
 62
     0
 10
18.704484
 20
4.862174
 30
0.0
  0
POINT
  8
DEFPOINTS
  6
BYBLOCK
 62
     0
 10
19.286689
 20
4.862174
 30
0.0
  0
ENDBLK
  8
0
  0
BLOCK
  8
0
  2
*D32
 70
    65
 10
0.0
 20
0.0
 30
0.0
  3
*D
  0
LINE
  8
0
  6
BYBLOCK
 62
     0
 10
10.783842
 20
4.862174
 30
0.0
 11
9.830451
 21
4.862174
 31
0.0
  0
LINE
  8
0
  6
BYBLOCK
 62
     0
 10
10.825017
 20
7.452174
 30
0.0
 11
9.830451
 21
7.452174
 31
0.0
  0
LINE
  8
0
  6
BYBLOCK
 62
     0
 10
9.969951
 20
5.132174
 30
0.0
 11
9.969951
 21
5.928424
 31
0.0
  0
LINE
  8
0
  6
BYBLOCK
 62
     0
 10
9.969951
 20
7.182174
 30
0.0
 11
9.969951
 21
6.385924
 31
0.0
  0
SOLID
  8
0
  6
BYBLOCK
 62
     0
 10
9.924951
 20
5.132174
 30
0.0
 11
10.014951
 21
5.132174
 31
0.0
 12
9.969951
 22
4.862174
 32
0.0
 13
9.969951
 23
4.862174
 33
0.0
  0
SOLID
  8
0
  6
BYBLOCK
 62
     0
 10
9.924951
 20
7.182174
 30
0.0
 11
10.014951
 21
7.182174
 31
0.0
 12
9.969951
 22
7.452174
 32
0.0
 13
9.969951
 23
7.452174
 33
0.0
  0
TEXT
  8
0
  6
BYBLOCK
 62
     0
 10
9.70042
 20
6.063424
 30
0.0
 40
0.1875
  1
2.590
 41
0.75
 72
     1
 11
9.969951
 21
6.157174
 31
0.0
 73
     2
  0
POINT
  8
DEFPOINTS
  6
BYBLOCK
 62
     0
 10
10.878342
 20
4.862174
 30
0.0
  0
POINT
  8
DEFPOINTS
  6
BYBLOCK
 62
     0
 10
10.919517
 20
7.452174
 30
0.0
  0
POINT
  8
DEFPOINTS
  6
BYBLOCK
 62
     0
 10
9.969951
 20
7.452174
 30
0.0
  0
ENDBLK
  8
0
  0
ENDSEC
  0
SECTION
  2
ENTITIES
  0
INSERT
  8
TITLE
  2
HBS
 10
0.0
 20
0.0
 30
0.0
 41
1.5
 42
1.5
 43
1.5
  0
TEXT
  8
TEXT
 10
3.627919
 20
0.611322
 30
0.0
 40
0.234
  1
%%uBODY
 41
0.75
 72
     4
 11
3.952594
 21
0.704922
 31
0.0
  0
TEXT
  8
TEXT
 10
11.5785
 20
13.103681
 30
0.0
 40
0.1875
  1
OPEN END DUE TO TAPER.
 41
0.75
  0
TEXT
  8
TEXT
 10
11.5785
 20
13.416181
 30
0.0
 40
0.1875
  1
DIMENSIONS INCREASE SLIGHTLY AT
 41
0.75
  0
TEXT
  8
TEXT
 10
11.5785
 20
13.728681
 30
0.0
 40
0.1875
  1
TAKEN FROM CLOSED END OF THE BOX.
 41
0.75
  0
TEXT
  8
TEXT
 10
11.5785
 20
14.041181
 30
0.0
 40
0.1875
  1
LENGTH AND WIDTH DIMENSIONS ARE
 41
0.75
  0
TEXT
  8
TEXT
 10
16.409808
 20
0.611322
 30
0.0
 40
0.234
  1
%%uCOVER
 41
0.75
 72
     4
 11
16.851483
 21
0.704922
 31
0.0
  0
TEXT
  8
TEXT
 10
0.353291
 20
11.555618
 30
0.0
 40
0.1875
  1
%%uCOLOR:%%u BLACK
 41
0.75
  0
TEXT
  8
TEXT
 10
4.87725
 20
14.6565
 30
0.0
 40
0.234
  1
UTILIBOX  (STYLE H)
 41
0.75
 72
     4
 11
6.39825
 21
14.7735
 31
0.0
  0
TEXT
  8
TEXT
 10
17.421
 20
14.6565
 30
0.0
 40
0.234
  1
CU-1475
 41
0.75
 72
     4
 11
17.97675
 21
14.7735
 31
0.0
  0
TEXT
  8
TEXT
 10
11.5785
 20
12.482605
 30
0.0
 40
0.1875
  1
%%UNOTE:%%U ALL DIMENSIONS HAVE %%P0.010 TOLERANCE
 41
0.75
  0
TEXT
  8
TEXT
 10
12.361814
 20
12.179042
 30
0.0
 40
0.1875
  1
UNLESS OTHERWISE SPECIFIED.
 41
0.75
  0
TEXT
  8
TEXT
 10
17.792103
 20
14.058874
 30
0.0
 40
0.187714
  1
FOUR (4) #4 x 1.000 LG. SELF THREADING
 41
0.75
  0
TEXT
  8
TEXT
 10
17.792103
 20
13.746016
 30
0.0
 40
0.187714
  1
SCREWS WITH HI/LOW THREADS
 41
0.75
  0
TEXT
  8
TEXT
 10
17.792103
 20
13.433159
 30
0.0
 40
0.187714
  1
ARE SUPPLIED FOR MOUNTING COVER.
 41
0.75
  0
TEXT
  8
TEXT
 10
0.503386
 20
13.103681
 30
0.0
 40
0.1875
  1
BODY - OUTSIDE SURFACES ARE TEXTURED FINISH
 41
0.75
  0
TEXT
  8
TEXT
 10
0.353291
 20
13.416181
 30
0.0
 40
0.1875
  1
%%uFINISH:
 41
0.75
  0
TEXT
  8
TEXT
 10
0.503386
 20
12.480681
 30
0.0
 40
0.1875
  1
COVER - VERTICAL OUTSIDE SURFACES ARE TEXTURED
 41
0.75
  0
TEXT
  8
TEXT
 10
1.853744
 20
12.168181
 30
0.0
 40
0.1875
  1
REMAINDER OF PART IS SMOOTH.
 41
0.75
  0
DIMENSION
  8
DIM
  2
*D30
 10
14.477482
 20
5.432174
 30
0.0
 11
13.826388
 21
4.892174
 31
0.0
  1
<>
 13
14.842634
 23
5.522174
 33
0.0625
 14
14.799204
 24
5.432174
 34
0.0625
 50
90.0
  3
23NSTD
  0
DIMENSION
  8
DIM
  2
*D15
 10
10.753299
 20
4.496763
 30
-0.0625
 11
11.879687
 21
4.496763
 31
0.0
 12
0.0
 22
-1.960895
 32
0.0
  1
<>
 13
13.006076
 23
4.990446
 33
0.0625
 14
10.753299
 24
4.987174
 34
0.0625
  3
23NSTD
  0
DIMENSION
  8
DIM
  2
*D14
 10
10.391451
 20
4.862174
 30
0.0
 11
10.391451
 21
5.147174
 31
0.0
 12
0.0
 22
-1.960895
 32
0.0
  1
<>
 13
10.764951
 23
5.432174
 33
0.0625
 14
10.878342
 24
4.862174
 34
0.0625
 50
90.0
  3
23NSTDI
  0
DIMENSION
  8
DIM
  2
*D18
 10
16.383027
 20
4.862174
 30
0.0
 11
15.720215
 21
4.292174
 31
0.0
 12
0.0
 22
-1.960895
 32
0.0
  1
<>
 13
16.320027
 23
4.955174
 33
0.0625
 14
16.305768
 24
4.862174
 34
0.0625
 50
270.0
  3
23NSTD
  0
DIMENSION
  8
DIM
  2
*D29
 10
18.903762
 20
5.880755
 30
0.0625
 11
16.851483
 21
5.880755
 31
0.0
  1
<>
 13
14.799204
 23
5.432174
 33
0.0625
 14
18.903762
 24
5.432174
 34
0.0625
  3
23NSTD
  0
DIMENSION
  8
DIM
  2
*D25
 10
14.323276
 20
9.153778
 30
0.0
 11
14.323276
 21
9.666778
 31
0.0
 12
0.0
 22
-0.491708
 32
0.0
  1
<>
 13
15.400483
 23
10.179778
 33
0.0
 14
15.400483
 24
9.153778
 34
0.0
 50
90.0
  3
23NSTDI
  0
DIMENSION
  8
DIM
  2
*D23
 10
18.302483
 20
8.260895
 30
0.0
 11
16.851483
 21
8.260895
 31
0.0
 12
0.0
 22
-0.491708
 32
0.0
  1
<>
 13
15.400483
 23
9.153778
 33
0.0
 14
18.302483
 24
9.153778
 34
0.0
 50
180.0
  3
23NSTD
  0
DIMENSION
  8
DIM
  2
*D22
 10
19.286689
 20
1.800557
 30
0.0
 11
19.286689
 21
2.597557
 31
0.0
 12
0.0
 22
-1.990895
 32
0.0
  1
<>
 13
18.585983
 23
3.394557
 33
0.0
 14
18.585983
 24
1.800557
 34
0.0
 50
90.0
  3
23NSTD
  0
DIMENSION
  8
DIM
  2
*D17
 10
18.915329
 20
4.075263
 30
-0.0625
 11
16.85144
 21
4.045263
 31
0.0
 12
0.0
 22
-1.960895
 32
0.0
  1
<>
 13
14.787551
 23
4.987174
 33
0.0625
 14
18.915329
 24
4.990446
 34
0.0625
  3
23NSTD
  0
DIMENSION
  8
DIM
  2
*D21
 10
18.585983
 20
1.176843
 30
0.0
 11
16.851483
 21
1.176843
 31
0.0
 12
0.0
 22
-1.990895
 32
0.0
  1
<>
 13
15.116983
 23
1.800557
 33
0.0
 14
18.585983
 24
1.800557
 34
0.0
 50
180.0
  3
23NSTD
  0
LINE
  8
OBJECT
 10
14.799204
 20
5.432174
 30
0.0
 11
18.903762
 21
5.432174
 31
0.0
  0
LINE
  8
OBJECT
 10
14.787551
 20
4.987174
 30
0.0
 11
18.915414
 21
4.987174
 31
0.0
  0
POLYLINE
  8
OBJECT
 66
     1
 10
0.0
 20
0.0
 30
0.0
 70
     1
  0
VERTEX
  8
OBJECT
 10
18.798762
 20
8.552
 30
0.0
 42
0.414214
  0
VERTEX
  8
OBJECT
 10
18.903762
 20
8.657
 30
0.0
  0
VERTEX
  8
OBJECT
 10
18.903762
 20
10.676557
 30
0.0
 42
0.414214
  0
VERTEX
  8
OBJECT
 10
18.798762
 20
10.781557
 30
0.0
  0
VERTEX
  8
OBJECT
 10
14.904204
 20
10.781557
 30
0.0
 42
0.414214
  0
VERTEX
  8
OBJECT
 10
14.799204
 20
10.676557
 30
0.0
  0
VERTEX
  8
OBJECT
 10
14.799204
 20
8.657
 30
0.0
 42
0.414214
  0
VERTEX
  8
OBJECT
 10
14.904204
 20
8.552
 30
0.0
  0
SEQEND
  8
OBJECT
  0
POLYLINE
  8
OBJECT
 66
     1
 10
0.0
 20
0.0
 30
0.0
 70
     1
  0
VERTEX
  8
OBJECT
 10
18.810866
 20
8.539895
 30
0.0
 42
0.414214
  0
VERTEX
  8
OBJECT
 10
18.915866
 20
8.644895
 30
0.0
  0
VERTEX
  8
OBJECT
 10
18.915866
 20
10.688662
 30
0.0
 42
0.414214
  0
VERTEX
  8
OBJECT
 10
18.810866
 20
10.793662
 30
0.0
  0
VERTEX
  8
OBJECT
 10
14.892099
 20
10.793662
 30
0.0
 42
0.414214
  0
VERTEX
  8
OBJECT
 10
14.787099
 20
10.688662
 30
0.0
  0
VERTEX
  8
OBJECT
 10
14.787099
 20
8.644895
 30
0.0
 42
0.414214
  0
VERTEX
  8
OBJECT
 10
14.892099
 20
8.539895
 30
0.0
  0
SEQEND
  8
OBJECT
  0
ARC
  8
OBJECT
 10
14.987995
 20
5.082359
 30
0.0
 40
0.220434
 50
204.642922
 51
272.726717
  0
LINE
  8
OBJECT
 10
14.799204
 20
5.432174
 30
0.0
 11
14.787637
 21
4.990446
 31
0.0
  0
POLYLINE
  8
OBJECT
 66
     1
 10
0.0
 20
0.0
 30
0.0
 70
     1
  0
VERTEX
  8
OBJECT
 10
18.798805
 20
8.626357
 30
0.0
 42
0.414214
  0
VERTEX
  8
OBJECT
 10
18.829405
 20
8.656957
 30
0.0
  0
VERTEX
  8
OBJECT
 10
18.829405
 20
10.6766
 30
0.0
 42
0.414214
  0
VERTEX
  8
OBJECT
 10
18.798805
 20
10.7072
 30
0.0
  0
VERTEX
  8
OBJECT
 10
14.904161
 20
10.7072
 30
0.0
 42
0.414214
  0
VERTEX
  8
OBJECT
 10
14.873561
 20
10.6766
 30
0.0
  0
VERTEX
  8
OBJECT
 10
14.873561
 20
8.656957
 30
0.0
 42
0.414214
  0
VERTEX
  8
OBJECT
 10
14.904161
 20
8.626357
 30
0.0
  0
SEQEND
  8
OBJECT
  0
POLYLINE
  8
OBJECT
 66
     1
 10
0.0
 20
0.0
 30
0.0
 70
     1
  0
VERTEX
  8
OBJECT
 10
18.798731
 20
8.59543
 30
0.0
 42
0.414214
  0
VERTEX
  8
OBJECT
 10
18.860331
 20
8.65703
 30
0.0
  0
VERTEX
  8
OBJECT
 10
18.860331
 20
10.676527
 30
0.0
 42
0.414214
  0
VERTEX
  8
OBJECT
 10
18.798731
 20
10.738127
 30
0.0
  0
VERTEX
  8
OBJECT
 10
14.904234
 20
10.738127
 30
0.0
 42
0.414214
  0
VERTEX
  8
OBJECT
 10
14.842634
 20
10.676527
 30
0.0
  0
VERTEX
  8
OBJECT
 10
14.842634
 20
8.65703
 30
0.0
 42
0.414214
  0
VERTEX
  8
OBJECT
 10
14.904234
 20
8.59543
 30
0.0
  0
SEQEND
  8
OBJECT
  0
LINE
  8
OBJECT
 10
14.842634
 20
5.522174
 30
0.0
 11
18.860331
 21
5.522174
 31
0.0
  0
LINE
  8
OBJECT
 10
14.998481
 20
4.862174
 30
0.0
 11
18.790371
 21
4.862174
 31
0.0
  0
LINE
  8
HIDDEN
 10
18.804634
 20
4.95556
 30
0.0
 11
14.898332
 21
4.95556
 31
0.0
  0
LINE
  8
HIDDEN
 10
15.009589
 20
5.523804
 30
0.0
 11
15.00463
 21
4.95556
 31
0.0
  0
LINE
  8
HIDDEN
 10
15.224376
 20
5.523804
 30
0.0
 11
15.229335
 21
4.95556
 31
0.0
  0
LINE
  8
HIDDEN
 10
14.873561
 20
5.522174
 30
0.0
 11
14.878333
 21
4.975386
 31
0.0
  0
LINE
  8
HIDDEN
 10
15.355525
 20
4.932174
 30
0.0
 11
15.445525
 21
4.932174
 31
0.0
  0
LINE
  8
HIDDEN
 10
15.31044
 20
5.182174
 30
0.0
 11
15.490525
 21
5.182174
 31
0.0
  0
LINE
  8
HIDDEN
 10
15.355525
 20
4.932174
 30
0.0
 11
15.355525
 21
5.182174
 31
0.0
  0
LINE
  8
HIDDEN
 10
15.31044
 20
5.182174
 30
0.0
 11
15.308463
 21
4.95556
 31
0.0
  0
ARC
  8
HIDDEN
 10
14.898332
 20
4.97556
 30
0.0
 40
0.02
 50
180.5
 51
270.0
  0
LINE
  8
HIDDEN
 10
15.445525
 20
4.932174
 30
0.0
 11
15.445525
 21
5.182174
 31
0.0
  0
LINE
  8
HIDDEN
 10
15.490525
 20
5.182174
 30
0.0
 11
15.492503
 21
4.95556
 31
0.0
  0
LINE
  8
OBJECT
 10
15.223413
 20
5.602174
 30
0.0
 11
15.224376
 21
5.523804
 31
0.0
  0
LINE
  8
OBJECT
 10
15.010552
 20
5.602174
 30
0.0
 11
15.009589
 21
5.523804
 31
0.0
  0
LINE
  8
OBJECT
 10
14.842634
 20
5.522174
 30
0.0
 11
14.840277
 21
5.432174
 31
0.0
  0
LINE
  8
OBJECT
 10
15.010552
 20
5.602174
 30
0.0
 11
15.223413
 21
5.602174
 31
0.0
  0
ARC
  8
HIDDEN
 10
16.849388
 20
4.818932
 30
0.0
 40
0.103242
 50
24.761514
 51
155.238486
  0
ARC
  8
HIDDEN
 10
16.849388
 20
4.852318
 30
0.0
 40
0.163242
 50
39.23096
 51
140.76904
  0
CIRCLE
  8
OBJECT
 10
15.400483
 20
9.153778
 30
0.0
 40
0.045
  0
CIRCLE
  8
OBJECT
 10
15.400483
 20
9.153778
 30
0.0
 40
0.09
  0
CIRCLE
  8
OBJECT
 10
15.116983
 20
8.869778
 30
0.0
 40
0.061668
  0
CIRCLE
  8
OBJECT
 10
15.116983
 20
8.869778
 30
0.0
 40
0.10645
  0
CIRCLE
  8
OBJECT
 10
15.400483
 20
10.179778
 30
0.0
 40
0.045
  0
CIRCLE
  8
OBJECT
 10
15.400483
 20
10.179778
 30
0.0
 40
0.09
  0
CIRCLE
  8
OBJECT
 10
16.851483
 20
9.666778
 30
0.0
 40
0.1197
  0
LINE
  8
OBJECT
 10
18.692413
 20
5.602174
 30
0.0
 11
18.479552
 21
5.602174
 31
0.0
  0
LINE
  8
HIDDEN
 10
18.647413
 20
5.602174
 30
0.0
 11
18.654483
 21
4.936614
 31
0.0
  0
LINE
  8
HIDDEN
 10
18.478589
 20
5.523804
 30
0.0
 11
18.47363
 21
4.95556
 31
0.0
  0
LINE
  8
HIDDEN
 10
18.524552
 20
5.602174
 30
0.0
 11
18.517483
 21
4.936614
 31
0.0
  0
LINE
  8
HIDDEN
 10
18.392525
 20
5.182174
 30
0.0
 11
18.394503
 21
4.95556
 31
0.0
  0
LINE
  8
HIDDEN
 10
18.392525
 20
5.182174
 30
0.0
 11
18.21244
 21
5.182174
 31
0.0
  0
LINE
  8
HIDDEN
 10
18.21244
 20
5.182174
 30
0.0
 11
18.210463
 21
4.95556
 31
0.0
  0
LINE
  8
HIDDEN
 10
18.25744
 20
4.932174
 30
0.0
 11
18.25744
 21
5.182174
 31
0.0
  0
LINE
  8
HIDDEN
 10
18.34744
 20
4.932174
 30
0.0
 11
18.34744
 21
5.182174
 31
0.0
  0
LINE
  8
HIDDEN
 10
18.34744
 20
4.932174
 30
0.0
 11
18.25744
 21
4.932174
 31
0.0
  0
LINE
  8
OBJECT
 10
18.479552
 20
5.602174
 30
0.0
 11
18.478589
 21
5.523804
 31
0.0
  0
LINE
  8
HIDDEN
 10
18.829405
 20
5.522174
 30
0.0
 11
18.824633
 21
4.975386
 31
0.0
  0
LINE
  8
OBJECT
 10
18.903762
 20
5.432174
 30
0.0
 11
18.915329
 21
4.990446
 31
0.0
  0
LINE
  8
HIDDEN
 10
18.693376
 20
5.523804
 30
0.0
 11
18.698335
 21
4.95556
 31
0.0
  0
ARC
  8
HIDDEN
 10
18.804634
 20
4.97556
 30
0.0
 40
0.02
 50
270.0
 51
359.5
  0
ARC
  8
OBJECT
 10
18.790371
 20
4.987174
 30
0.0
 40
0.125
 50
270.0
 51
1.5
  0
LINE
  8
OBJECT
 10
18.860331
 20
5.522174
 30
0.0
 11
18.862688
 21
5.432174
 31
0.0
  0
LINE
  8
OBJECT
 10
18.692413
 20
5.602174
 30
0.0
 11
18.693376
 21
5.523804
 31
0.0
  0
CIRCLE
  8
OBJECT
 10
18.585983
 20
8.869778
 30
0.0
 40
0.10645
  0
CIRCLE
  8
OBJECT
 10
18.302483
 20
9.153778
 30
0.0
 40
0.09
  0
CIRCLE
  8
OBJECT
 10
18.302483
 20
9.153778
 30
0.0
 40
0.045
  0
CIRCLE
  8
OBJECT
 10
18.585983
 20
8.869778
 30
0.0
 40
0.061668
  0
CIRCLE
  8
OBJECT
 10
18.302483
 20
10.179778
 30
0.0
 40
0.045
  0
CIRCLE
  8
OBJECT
 10
18.302483
 20
10.179778
 30
0.0
 40
0.09
  0
CIRCLE
  8
OBJECT
 10
15.116983
 20
10.463778
 30
0.0
 40
0.061668
  0
CIRCLE
  8
OBJECT
 10
15.116983
 20
10.463778
 30
0.0
 40
0.061668
  0
CIRCLE
  8
OBJECT
 10
15.116983
 20
10.463778
 30
0.0
 40
0.10645
  0
CIRCLE
  8
OBJECT
 10
18.585983
 20
10.463778
 30
0.0
 40
0.10645
  0
CIRCLE
  8
OBJECT
 10
18.585983
 20
10.463778
 30
0.0
 40
0.061668
  0
CIRCLE
  8
OBJECT
 10
18.585983
 20
10.463778
 30
0.0
 40
0.061668
  0
LINE
  8
OBJECT
 10
10.753299
 20
4.987174
 30
0.0
 11
13.006162
 21
4.987174
 31
0.0
  0
LINE
  8
HIDDEN
 10
11.411688
 20
4.932174
 30
0.0
 11
11.321688
 21
4.932174
 31
0.0
  0
LINE
  8
HIDDEN
 10
11.321688
 20
4.932174
 30
0.0
 11
11.321688
 21
5.182174
 31
0.0
  0
LINE
  8
HIDDEN
 10
12.437773
 20
4.932174
 30
0.0
 11
12.437773
 21
5.182174
 31
0.0
  0
LINE
  8
HIDDEN
 10
12.347773
 20
4.932174
 30
0.0
 11
12.347773
 21
5.182174
 31
0.0
  0
LINE
  8
HIDDEN
 10
12.482857
 20
5.182174
 30
0.0
 11
12.484838
 21
4.955174
 31
0.0
  0
ARC
  8
HIDDEN
 10
11.87973
 20
4.851932
 30
0.0
 40
0.163242
 50
39.23096
 51
140.76904
  0
LINE
  8
HIDDEN
 10
11.411688
 20
4.932174
 30
0.0
 11
11.411688
 21
5.182174
 31
0.0
  0
LINE
  8
HIDDEN
 10
12.347773
 20
4.932174
 30
0.0
 11
12.437773
 21
4.932174
 31
0.0
  0
ARC
  8
HIDDEN
 10
11.87973
 20
4.818932
 30
0.0
 40
0.103242
 50
24.761514
 51
155.238486
  0
POLYLINE
  8
DIM
 66
     1
 10
0.0
 20
0.0
 30
0.0
 41
0.10125
  0
VERTEX
  8
DIM
 10
18.33454
 20
10.211359
 30
0.0
 41
0.105188
  0
VERTEX
  8
DIM
 10
18.605267
 20
10.284756
 30
0.0
 41
0.0
  0
VERTEX
  8
DIM
 10
19.773371
 20
10.601441
 30
0.0
 41
0.0
  0
VERTEX
  8
DIM
 10
20.043371
 20
10.601441
 30
0.0
 41
0.0
  0
SEQEND
  8
DIM
  0
POLYLINE
  8
DIM
 66
     1
 10
0.0
 20
0.0
 30
0.0
 41
0.10125
  0
VERTEX
  8
DIM
 10
18.364555
 20
10.114609
 30
0.0
 41
0.105188
  0
VERTEX
  8
DIM
 10
18.625809
 20
10.012499
 30
0.0
 41
0.0
  0
VERTEX
  8
DIM
 10
19.736427
 20
9.57842
 30
0.0
 41
0.0
  0
VERTEX
  8
DIM
 10
20.006427
 20
9.57842
 30
0.0
 41
0.0
  0
SEQEND
  8
DIM
  0
TEXT
  8
DIM
 10
20.141427
 20
9.48467
 30
0.0
 40
0.1875
  1
0.180 DIA. BOSS
 41
0.75
 11
20.141427
 21
9.57842
 31
0.0
 73
     2
  0
TEXT
  8
DIM
 10
20.178371
 20
10.507691
 30
0.0
 40
0.1875
  1
0.090 DIA. x 0.250 DEEP
 41
0.75
 11
20.178371
 21
10.601441
 31
0.0
 73
     2
  0
TEXT
  8
DIM
 10
20.178371
 20
10.195191
 30
0.0
 40
0.1875
  1
(4) HOLES
 41
0.75
 11
20.178371
 21
10.288941
 31
0.0
 73
     2
  0
POLYLINE
  8
HIDDEN
 66
     1
 10
0.0
 20
0.0
 30
0.0
 70
     1
  0
VERTEX
  8
HIDDEN
 10
18.798805
 20
1.557135
 30
0.0
 42
0.414214
  0
VERTEX
  8
HIDDEN
 10
18.829405
 20
1.587735
 30
0.0
  0
VERTEX
  8
HIDDEN
 10
18.829405
 20
3.607379
 30
0.0
 42
0.414214
  0
VERTEX
  8
HIDDEN
 10
18.798805
 20
3.637979
 30
0.0
  0
VERTEX
  8
HIDDEN
 10
14.904161
 20
3.637979
 30
0.0
 42
0.414214
  0
VERTEX
  8
HIDDEN
 10
14.873561
 20
3.607379
 30
0.0
  0
VERTEX
  8
HIDDEN
 10
14.873561
 20
1.587735
 30
0.0
 42
0.414214
  0
VERTEX
  8
HIDDEN
 10
14.904161
 20
1.557135
 30
0.0
  0
SEQEND
  8
HIDDEN
  0
POLYLINE
  8
HIDDEN
 66
     1
 10
0.0
 20
0.0
 30
0.0
 70
     1
  0
VERTEX
  8
HIDDEN
 10
18.798731
 20
1.526208
 30
0.0
 42
0.414214
  0
VERTEX
  8
HIDDEN
 10
18.860331
 20
1.587808
 30
0.0
  0
VERTEX
  8
HIDDEN
 10
18.860331
 20
3.607305
 30
0.0
 42
0.414214
  0
VERTEX
  8
HIDDEN
 10
18.798731
 20
3.668905
 30
0.0
  0
VERTEX
  8
HIDDEN
 10
14.904234
 20
3.668905
 30
0.0
 42
0.414214
  0
VERTEX
  8
HIDDEN
 10
14.842634
 20
3.607305
 30
0.0
  0
VERTEX
  8
HIDDEN
 10
14.842634
 20
1.587808
 30
0.0
 42
0.414214
  0
VERTEX
  8
HIDDEN
 10
14.904234
 20
1.526208
 30
0.0
  0
SEQEND
  8
HIDDEN
  0
CIRCLE
  8
OBJECT
 10
15.116983
 20
3.394557
 30
0.0
 40
0.124029
  0
CIRCLE
  8
OBJECT
 10
15.116983
 20
3.394557
 30
0.0
 40
0.10645
  0
CIRCLE
  8
OBJECT
 10
15.116983
 20
1.800557
 30
0.0
 40
0.061668
  0
CIRCLE
  8
OBJECT
 10
15.116983
 20
1.800557
 30
0.0
 40
0.124029
  0
CIRCLE
  8
OBJECT
 10
15.116983
 20
1.800557
 30
0.0
 40
0.067954
  0
CIRCLE
  8
OBJECT
 10
15.116983
 20
1.800557
 30
0.0
 40
0.10645
  0
CIRCLE
  8
OBJECT
 10
15.116983
 20
3.394557
 30
0.0
 40
0.061668
  0
CIRCLE
  8
OBJECT
 10
15.116983
 20
3.394557
 30
0.0
 40
0.067954
  0
CIRCLE
  8
OBJECT
 10
15.116983
 20
3.394557
 30
0.0
 40
0.061668
  0
CIRCLE
  8
HIDDEN
 10
16.851483
 20
2.597557
 30
0.0
 40
0.1197
  0
CIRCLE
  8
OBJECT
 10
18.585983
 20
3.394557
 30
0.0
 40
0.124029
  0
CIRCLE
  8
OBJECT
 10
18.585983
 20
3.394557
 30
0.0
 40
0.10645
  0
CIRCLE
  8
OBJECT
 10
18.585983
 20
1.800557
 30
0.0
 40
0.061668
  0
CIRCLE
  8
OBJECT
 10
18.585983
 20
1.800557
 30
0.0
 40
0.067954
  0
CIRCLE
  8
OBJECT
 10
18.585983
 20
1.800557
 30
0.0
 40
0.124029
  0
CIRCLE
  8
OBJECT
 10
18.585983
 20
1.800557
 30
0.0
 40
0.10645
  0
CIRCLE
  8
OBJECT
 10
18.585983
 20
3.394557
 30
0.0
 40
0.061668
  0
CIRCLE
  8
OBJECT
 10
18.585983
 20
3.394557
 30
0.0
 40
0.061668
  0
CIRCLE
  8
OBJECT
 10
18.585983
 20
3.394557
 30
0.0
 40
0.067954
  0
CIRCLE
  8
OBJECT
 10
16.851483
 20
2.597557
 30
0.0
 40
0.095845
  0
TEXT
  8
DIM
 10
20.141427
 20
9.17217
 30
0.0
 40
0.1875
  1
(4) PLACES
 41
0.75
 11
20.141427
 21
9.26592
 31
0.0
 73
     2
  0
DIMENSION
  8
DIM
  2
*D31
 10
19.286689
 20
4.862174
 30
0.0
 11
19.286689
 21
5.232174
 31
0.0
  1
<>
 13
18.692413
 23
5.602174
 33
0.0
 14
18.704484
 24
4.862174
 34
0.0
 50
270.0
  3
23NSTDI
  0
DIMENSION
  8
DIM
  2
*D24
 10
18.054463
 20
4.95556
 30
0.0
 11
17.379931
 21
4.38556
 31
0.0
 12
0.0
 22
-1.960895
 32
0.0
  1
<>
 13
18.21244
 23
5.182174
 33
0.0
 14
18.210463
 24
4.95556
 34
0.0
 50
90.0
  3
23NSTD
  0
POLYLINE
  8
DIM
 66
     1
 10
0.0
 20
0.0
 30
0.0
 41
0.10125
  0
VERTEX
  8
DIM
 10
18.625857
 20
8.823429
 30
0.0
 41
0.105188
  0
VERTEX
  8
DIM
 10
18.846867
 20
8.650701
 30
0.0
 41
0.0
  0
VERTEX
  8
DIM
 10
19.936834
 20
7.798848
 30
0.0
 41
0.0
  0
VERTEX
  8
DIM
 10
20.206834
 20
7.798848
 30
0.0
 41
0.0
  0
SEQEND
  8
DIM
  0
POLYLINE
  8
DIM
 66
     1
 10
0.0
 20
0.0
 30
0.0
 41
0.10125
  0
VERTEX
  8
DIM
 10
18.69023
 20
8.848508
 30
0.0
 41
0.105188
  0
VERTEX
  8
DIM
 10
18.946841
 20
8.798791
 30
0.0
 41
0.0
  0
VERTEX
  8
DIM
 10
19.903544
 20
8.613435
 30
0.0
 41
0.0
  0
VERTEX
  8
DIM
 10
20.173544
 20
8.613435
 30
0.0
 41
0.0
  0
SEQEND
  8
DIM
  0
TEXT
  8
DIM
 10
20.308544
 20
8.207185
 30
0.0
 40
0.1875
  1
(4) PLACES
 41
0.75
 11
20.308544
 21
8.300935
 31
0.0
 73
     2
  0
TEXT
  8
DIM
 10
20.308544
 20
8.519685
 30
0.0
 40
0.1875
  1
0.213 DIA. BOSS
 41
0.75
 11
20.308544
 21
8.613435
 31
0.0
 73
     2
  0
TEXT
  8
DIM
 10
20.341834
 20
7.392598
 30
0.0
 40
0.1875
  1
(4) HOLES
 41
0.75
 11
20.341834
 21
7.486348
 31
0.0
 73
     2
  0
TEXT
  8
DIM
 10
20.341834
 20
7.705098
 30
0.0
 40
0.1875
  1
0.125 DIA. (AT TOP)
 41
0.75
 11
20.341834
 21
7.798848
 31
0.0
 73
     2
  0
LINE
  8
HIDDEN
 10
18.472483
 20
4.884848
 30
0.0
 11
18.699483
 21
4.884848
 31
0.0
  0
POLYLINE
  8
HIDDEN
 66
     1
 10
0.0
 20
0.0
 30
0.0
 70
     1
  0
VERTEX
  8
HIDDEN
 10
18.654483
 20
4.936614
 30
0.0
  0
VERTEX
  8
HIDDEN
 10
18.517483
 20
4.936614
 30
0.0
  0
VERTEX
  8
HIDDEN
 10
18.472483
 20
4.884848
 30
0.0
  0
VERTEX
  8
HIDDEN
 10
18.470483
 20
4.862174
 30
0.0
  0
VERTEX
  8
HIDDEN
 10
18.701483
 20
4.862174
 30
0.0
  0
VERTEX
  8
HIDDEN
 10
18.699483
 20
4.884848
 30
0.0
  0
SEQEND
  8
HIDDEN
  0
POLYLINE
  8
HIDDEN
 66
     1
 10
0.0
 20
0.0
 30
0.0
 70
     1
  0
VERTEX
  8
HIDDEN
 10
15.048483
 20
4.936614
 30
0.0
  0
VERTEX
  8
HIDDEN
 10
15.185483
 20
4.936614
 30
0.0
  0
VERTEX
  8
HIDDEN
 10
15.230483
 20
4.884848
 30
0.0
  0
VERTEX
  8
HIDDEN
 10
15.232483
 20
4.862174
 30
0.0
  0
VERTEX
  8
HIDDEN
 10
15.001483
 20
4.862174
 30
0.0
  0
VERTEX
  8
HIDDEN
 10
15.003483
 20
4.884848
 30
0.0
  0
SEQEND
  8
HIDDEN
  0
LINE
  8
HIDDEN
 10
15.230483
 20
4.884848
 30
0.0
 11
15.003483
 21
4.884848
 31
0.0
  0
LINE
  8
HIDDEN
 10
15.055552
 20
5.602174
 30
0.0
 11
15.048483
 21
4.936614
 31
0.0
  0
LINE
  8
HIDDEN
 10
15.178413
 20
5.602174
 30
0.0
 11
15.185483
 21
4.936614
 31
0.0
  0
POLYLINE
  8
HIDDEN
 66
     1
 10
0.0
 20
0.0
 30
0.0
 70
     1
  0
VERTEX
  8
HIDDEN
 10
12.60823
 20
4.936614
 30
0.0
  0
VERTEX
  8
HIDDEN
 10
12.74523
 20
4.936614
 30
0.0
  0
VERTEX
  8
HIDDEN
 10
12.79023
 20
4.884848
 30
0.0
  0
VERTEX
  8
HIDDEN
 10
12.79223
 20
4.862174
 30
0.0
  0
VERTEX
  8
HIDDEN
 10
12.56123
 20
4.862174
 30
0.0
  0
VERTEX
  8
HIDDEN
 10
12.56323
 20
4.884848
 30
0.0
  0
SEQEND
  8
HIDDEN
  0
LINE
  8
HIDDEN
 10
12.79023
 20
4.884848
 30
0.0
 11
12.56323
 21
4.884848
 31
0.0
  0
LINE
  8
HIDDEN
 10
12.6153
 20
5.602174
 30
0.0
 11
12.60823
 21
4.936614
 31
0.0
  0
LINE
  8
HIDDEN
 10
12.738161
 20
5.602174
 30
0.0
 11
12.74523
 21
4.936614
 31
0.0
  0
LINE
  8
HIDDEN
 10
10.96923
 20
4.884848
 30
0.0
 11
11.19623
 21
4.884848
 31
0.0
  0
POLYLINE
  8
HIDDEN
 66
     1
 10
0.0
 20
0.0
 30
0.0
 70
     1
  0
VERTEX
  8
HIDDEN
 10
11.15123
 20
4.936614
 30
0.0
  0
VERTEX
  8
HIDDEN
 10
11.01423
 20
4.936614
 30
0.0
  0
VERTEX
  8
HIDDEN
 10
10.96923
 20
4.884848
 30
0.0
  0
VERTEX
  8
HIDDEN
 10
10.96723
 20
4.862174
 30
0.0
  0
VERTEX
  8
HIDDEN
 10
11.19823
 20
4.862174
 30
0.0
  0
VERTEX
  8
HIDDEN
 10
11.19623
 20
4.884848
 30
0.0
  0
SEQEND
  8
HIDDEN
  0
LINE
  8
HIDDEN
 10
11.0213
 20
5.602174
 30
0.0
 11
11.01423
 21
4.936614
 31
0.0
  0
LINE
  8
HIDDEN
 10
11.144161
 20
5.602174
 30
0.0
 11
11.15123
 21
4.936614
 31
0.0
  0
CIRCLE
  8
HIDDEN
 10
15.400483
 20
2.084557
 30
0.0
 40
0.045
  0
CIRCLE
  8
HIDDEN
 10
15.400483
 20
2.084557
 30
0.0
 40
0.09
  0
CIRCLE
  8
HIDDEN
 10
18.302483
 20
2.084557
 30
0.0
 40
0.09
  0
CIRCLE
  8
HIDDEN
 10
18.302483
 20
2.084557
 30
0.0
 40
0.045
  0
CIRCLE
  8
HIDDEN
 10
18.302483
 20
3.110557
 30
0.0
 40
0.09
  0
CIRCLE
  8
HIDDEN
 10
18.302483
 20
3.110557
 30
0.0
 40
0.045
  0
CIRCLE
  8
HIDDEN
 10
15.400483
 20
3.110557
 30
0.0
 40
0.045
  0
CIRCLE
  8
HIDDEN
 10
15.400483
 20
3.110557
 30
0.0
 40
0.09
  0
POLYLINE
  8
OBJECT
 66
     1
 10
0.0
 20
0.0
 30
0.0
 70
     1
  0
VERTEX
  8
OBJECT
 10
18.810866
 20
1.470673
 30
0.0
 42
0.414214
  0
VERTEX
  8
OBJECT
 10
18.915866
 20
1.575673
 30
0.0
  0
VERTEX
  8
OBJECT
 10
18.915866
 20
3.61944
 30
0.0
 42
0.414214
  0
VERTEX
  8
OBJECT
 10
18.810866
 20
3.72444
 30
0.0
  0
VERTEX
  8
OBJECT
 10
14.892099
 20
3.72444
 30
0.0
 42
0.414214
  0
VERTEX
  8
OBJECT
 10
14.787099
 20
3.61944
 30
0.0
  0
VERTEX
  8
OBJECT
 10
14.787099
 20
1.575673
 30
0.0
 42
0.414214
  0
VERTEX
  8
OBJECT
 10
14.892099
 20
1.470673
 30
0.0
  0
SEQEND
  8
OBJECT
  0
POLYLINE
  8
HIDDEN
 66
     1
 10
0.0
 20
0.0
 30
0.0
  0
VERTEX
  8
HIDDEN
 10
10.970378
 20
4.95556
 30
0.0
  0
VERTEX
  8
HIDDEN
 10
10.9763
 20
5.602174
 30
0.0
  0
VERTEX
  8
HIDDEN
 10
11.189161
 20
5.602174
 30
0.0
  0
VERTEX
  8
HIDDEN
 10
11.195083
 20
4.95556
 30
0.0
  0
SEQEND
  8
HIDDEN
  0
POLYLINE
  8
HIDDEN
 66
     1
 10
0.0
 20
0.0
 30
0.0
  0
VERTEX
  8
HIDDEN
 10
12.564378
 20
4.95556
 30
0.0
  0
VERTEX
  8
HIDDEN
 10
12.5703
 20
5.602174
 30
0.0
  0
VERTEX
  8
HIDDEN
 10
12.783161
 20
5.602174
 30
0.0
  0
VERTEX
  8
HIDDEN
 10
12.789083
 20
4.95556
 30
0.0
  0
SEQEND
  8
HIDDEN
  0
POLYLINE
  8
HIDDEN
 66
     1
 10
0.0
 20
0.0
 30
0.0
  0
VERTEX
  8
HIDDEN
 10
12.300707
 20
4.955174
 30
0.0
  0
VERTEX
  8
HIDDEN
 10
12.302688
 20
5.182174
 30
0.0
  0
VERTEX
  8
HIDDEN
 10
12.482773
 20
5.182174
 30
0.0
  0
SEQEND
  8
HIDDEN
  0
POLYLINE
  8
HIDDEN
 66
     1
 10
0.0
 20
0.0
 30
0.0
  0
VERTEX
  8
HIDDEN
 10
11.458754
 20
4.955174
 30
0.0
  0
VERTEX
  8
HIDDEN
 10
11.456773
 20
5.182174
 30
0.0
  0
VERTEX
  8
HIDDEN
 10
11.276603
 20
5.182174
 30
0.0
  0
VERTEX
  8
HIDDEN
 10
11.274622
 20
4.955174
 30
0.0
  0
SEQEND
  8
HIDDEN
  0
POLYLINE
  8
OBJECT
 66
     1
 10
0.0
 20
0.0
 30
0.0
 70
     1
  0
VERTEX
  8
OBJECT
 10
13.006076
 20
4.990446
 30
0.0
  0
VERTEX
  8
OBJECT
 10
12.994509
 20
5.432174
 30
0.0
  0
VERTEX
  8
OBJECT
 10
10.764951
 20
5.432174
 30
0.0
  0
VERTEX
  8
OBJECT
 10
10.753384
 20
4.990446
 30
0.0
 42
0.421902
  0
VERTEX
  8
OBJECT
 10
10.878342
 20
4.862174
 30
0.0
  0
VERTEX
  8
OBJECT
 10
12.881119
 20
4.862174
 30
0.0
 42
0.421902
  0
SEQEND
  8
OBJECT
  0
POLYLINE
  8
HIDDEN
 66
     1
 10
0.0
 20
0.0
 30
0.0
  0
VERTEX
  8
HIDDEN
 10
12.920152
 20
5.522174
 30
0.0
  0
VERTEX
  8
HIDDEN
 10
12.915377
 20
4.975
 30
0.0
 42
-0.41166
  0
VERTEX
  8
HIDDEN
 10
12.895378
 20
4.955174
 30
0.0
  0
VERTEX
  8
HIDDEN
 10
10.864083
 20
4.955174
 30
0.0
 42
-0.41166
  0
VERTEX
  8
HIDDEN
 10
10.844084
 20
4.975
 30
0.0
  0
VERTEX
  8
HIDDEN
 10
10.839308
 20
5.522174
 30
0.0
  0
SEQEND
  8
HIDDEN
  0
POLYLINE
  8
HIDDEN
 66
     1
 10
0.0
 20
0.0
 30
0.0
  0
VERTEX
  8
HIDDEN
 10
12.953436
 20
5.432174
 30
0.0
  0
VERTEX
  8
HIDDEN
 10
12.951079
 20
5.522174
 30
0.0
  0
VERTEX
  8
HIDDEN
 10
10.808382
 20
5.522174
 30
0.0
  0
VERTEX
  8
HIDDEN
 10
10.806025
 20
5.432174
 30
0.0
  0
SEQEND
  8
HIDDEN
  0
DIMENSION
  8
DIM
  2
*D32
 10
9.969951
 20
7.452174
 30
0.0
 11
9.969951
 21
6.157174
 31
0.0
  1
<>
 13
10.878342
 23
4.862174
 33
0.0
 14
10.919517
 24
7.452174
 34
0.0
 50
90.0
  3
23NSTD
  0
TEXT
  8
TEXT
 10
4.261733
 20
13.728681
 30
0.0
 40
0.1875
  1
AND CONTINUOUS USE TEMPERATURE OF 70%%d C.)
 41
0.75
  0
TEXT
  8
TEXT
 10
0.353291
 20
14.041181
 30
0.0
 40
0.1875
  1
%%uMATERIAL:%%u ABS THERMOPLASTIC (FLAMMABILITY RATING OF 94-VO AT 0.070" THICKNESS
 41
0.75
  0
CIRCLE
  8
HIDDEN
 10
2.218219
 20
10.463653
 30
0.0
 40
0.109
  0
CIRCLE
  8
HIDDEN
 10
2.218219
 20
8.869903
 30
0.0
 40
0.109
  0
CIRCLE
  8
OBJECT
 10
2.218219
 20
1.800682
 30
0.0
 40
0.109
  0
CIRCLE
  8
OBJECT
 10
2.218219
 20
3.394432
 30
0.0
 40
0.109
  0
DIMENSION
  8
DIM
  6
CONTINUOUS
  2
*D11
 10
5.975489
 20
6.577862
 30
0.0
 11
6.896397
 21
6.591998
 31
0.0
 12
-0.318556
 22
-15.117284
 32
0.0
 70
     1
 13
5.903039
 23
6.670498
 33
0.0
 14
5.973015
 24
6.67233
 34
0.0
  3
23NSTD
  0
DIMENSION
  8
DIM
  2
*D2
 10
5.848844
 20
8.253951
 30
0.0
 11
3.952594
 21
8.253951
 31
0.0
 12
-12.836286
 22
-18.456877
 32
0.0
 13
2.056344
 23
8.710528
 33
0.0
 14
5.848844
 24
8.710528
 34
0.0
 50
180.0
  3
23NSTD
  0
DIMENSION
  8
DIM
  6
CONTINUOUS
  2
*D9
 10
1.940222
 20
5.078674
 30
0.0
 11
3.166003
 21
5.078674
 31
0.0
 12
-0.318556
 22
-15.117284
 32
0.0
  1
<> TYP.
 13
1.900222
 23
5.452174
 33
0.0
 14
1.940222
 24
5.452174
 34
0.0
  3
23NSTD
  0
CIRCLE
  8
HIDDEN
 10
2.218219
 20
10.463653
 30
0.0
 40
0.045
  0
CIRCLE
  8
HIDDEN
 10
2.218219
 20
8.869903
 30
0.0
 40
0.045
  0
POLYLINE
  8
OBJECT
 66
     1
 10
0.0
 20
0.0
 30
0.0
 70
     1
  0
VERTEX
  8
OBJECT
 10
5.817594
 20
10.591778
 30
0.0
  0
VERTEX
  8
OBJECT
 10
2.087594
 20
10.591778
 30
0.0
  0
VERTEX
  8
OBJECT
 10
2.087594
 20
8.741778
 30
0.0
  0
VERTEX
  8
OBJECT
 10
5.817594
 20
8.741778
 30
0.0
  0
SEQEND
  8
OBJECT
  0
POLYLINE
  8
OBJECT
 66
     1
 10
0.0
 20
0.0
 30
0.0
 70
     1
  0
VERTEX
  8
OBJECT
 10
2.056344
 20
10.623028
 30
0.0
  0
VERTEX
  8
OBJECT
 10
5.848844
 20
10.623028
 30
0.0
  0
VERTEX
  8
OBJECT
 10
5.848844
 20
8.710528
 30
0.0
  0
VERTEX
  8
OBJECT
 10
2.056344
 20
8.710528
 30
0.0
  0
SEQEND
  8
OBJECT
  0
POLYLINE
  8
OBJECT
 66
     1
 10
0.0
 20
0.0
 30
0.0
 70
     1
  0
VERTEX
  8
OBJECT
 10
2.057594
 20
8.604278
 30
0.0
 42
-0.414214
  0
VERTEX
  8
OBJECT
 10
1.952594
 20
8.709278
 30
0.0
  0
VERTEX
  8
OBJECT
 10
1.952594
 20
10.624278
 30
0.0
 42
-0.414214
  0
VERTEX
  8
OBJECT
 10
2.057594
 20
10.729278
 30
0.0
  0
VERTEX
  8
OBJECT
 10
5.847594
 20
10.729278
 30
0.0
 42
-0.414214
  0
VERTEX
  8
OBJECT
 10
5.952594
 20
10.624278
 30
0.0
  0
VERTEX
  8
OBJECT
 10
5.952594
 20
8.709278
 30
0.0
 42
-0.414214
  0
VERTEX
  8
OBJECT
 10
5.847594
 20
8.604278
 30
0.0
  0
SEQEND
  8
OBJECT
  0
POLYLINE
  8
OBJECT
 66
     1
 10
0.0
 20
0.0
 30
0.0
 70
     1
  0
VERTEX
  8
OBJECT
 10
5.899966
 20
10.78165
 30
0.0
  0
VERTEX
  8
OBJECT
 10
2.005222
 20
10.78165
 30
0.0
 42
0.414214
  0
VERTEX
  8
OBJECT
 10
1.900222
 20
10.67665
 30
0.0
  0
VERTEX
  8
OBJECT
 10
1.900222
 20
8.656907
 30
0.0
 42
0.414214
  0
VERTEX
  8
OBJECT
 10
2.005222
 20
8.551907
 30
0.0
  0
VERTEX
  8
OBJECT
 10
5.899966
 20
8.551907
 30
0.0
 42
0.414214
  0
VERTEX
  8
OBJECT
 10
6.004966
 20
8.656907
 30
0.0
  0
VERTEX
  8
OBJECT
 10
6.004966
 20
10.67665
 30
0.0
 42
0.414214
  0
SEQEND
  8
OBJECT
  0
DIMENSION
  8
DIM
  2
*D7
 10
5.952594
 20
7.825674
 30
0.0
 11
3.952594
 21
7.825674
 31
0.0
 12
-1.995236
 22
-15.117284
 32
0.0
 13
1.952594
 23
7.452174
 33
0.0
 14
5.952594
 24
7.452174
 34
0.0
 50
180.0
  3
23NSTD
  0
CIRCLE
  8
OBJECT
 10
2.218219
 20
3.394432
 30
0.0
 40
0.045
  0
CIRCLE
  8
OBJECT
 10
2.218219
 20
1.800682
 30
0.0
 40
0.045
  0
LINE
  8
OBJECT
 10
1.905119
 20
5.639174
 30
0.0
 11
6.000069
 21
5.639174
 31
0.0
  0
DIMENSION
  8
DIM
  6
CONTINUOUS
  2
*D10
 10
6.004966
 20
4.657174
 30
0.0
 11
3.952594
 21
4.657174
 31
0.0
 12
-0.318556
 22
-15.117284
 32
0.0
 13
1.900222
 23
5.452174
 33
0.0
 14
6.004966
 24
5.452174
 34
0.0
  3
23NSTD
  0
DIMENSION
  8
DIM
  2
*D3
 10
5.686969
 20
1.139268
 30
0.0
 11
3.952594
 21
1.139268
 31
0.0
 12
-12.836286
 22
-17.897685
 32
0.0
 13
2.218219
 23
1.800682
 33
0.0
 14
5.686969
 24
1.800682
 34
0.0
  3
23NSTD
  0
POLYLINE
  8
OBJECT
 66
     1
 10
0.0
 20
0.0
 30
0.0
 70
     1
  0
VERTEX
  8
OBJECT
 10
5.899966
 20
3.640428
 30
0.0
  0
VERTEX
  8
OBJECT
 10
2.005222
 20
3.640428
 30
0.0
 42
0.414214
  0
VERTEX
  8
OBJECT
 10
1.972222
 20
3.607428
 30
0.0
  0
VERTEX
  8
OBJECT
 10
1.972222
 20
1.587685
 30
0.0
 42
0.414214
  0
VERTEX
  8
OBJECT
 10
2.005222
 20
1.554685
 30
0.0
  0
VERTEX
  8
OBJECT
 10
5.899966
 20
1.554685
 30
0.0
 42
0.414214
  0
VERTEX
  8
OBJECT
 10
5.932966
 20
1.587685
 30
0.0
  0
VERTEX
  8
OBJECT
 10
5.932966
 20
3.607428
 30
0.0
 42
0.414214
  0
SEQEND
  8
OBJECT
  0
POLYLINE
  8
OBJECT
 66
     1
 10
0.0
 20
0.0
 30
0.0
 70
     1
  0
VERTEX
  8
OBJECT
 10
5.899966
 20
3.672428
 30
0.0
  0
VERTEX
  8
OBJECT
 10
2.005222
 20
3.672428
 30
0.0
 42
0.414214
  0
VERTEX
  8
OBJECT
 10
1.940222
 20
3.607428
 30
0.0
  0
VERTEX
  8
OBJECT
 10
1.940222
 20
1.587685
 30
0.0
 42
0.414214
  0
VERTEX
  8
OBJECT
 10
2.005222
 20
1.522685
 30
0.0
  0
VERTEX
  8
OBJECT
 10
5.899966
 20
1.522685
 30
0.0
 42
0.414214
  0
VERTEX
  8
OBJECT
 10
5.964966
 20
1.587685
 30
0.0
  0
VERTEX
  8
OBJECT
 10
5.964966
 20
3.607428
 30
0.0
 42
0.414214
  0
SEQEND
  8
OBJECT
  0
POLYLINE
  8
OBJECT
 66
     1
 10
0.0
 20
0.0
 30
0.0
 70
     1
  0
VERTEX
  8
OBJECT
 10
5.899966
 20
3.712428
 30
0.0
  0
VERTEX
  8
OBJECT
 10
2.005222
 20
3.712428
 30
0.0
 42
0.414214
  0
VERTEX
  8
OBJECT
 10
1.900222
 20
3.607428
 30
0.0
  0
VERTEX
  8
OBJECT
 10
1.900222
 20
1.587685
 30
0.0
 42
0.414214
  0
VERTEX
  8
OBJECT
 10
2.005222
 20
1.482685
 30
0.0
  0
VERTEX
  8
OBJECT
 10
5.899966
 20
1.482685
 30
0.0
 42
0.414214
  0
VERTEX
  8
OBJECT
 10
6.004966
 20
1.587685
 30
0.0
  0
VERTEX
  8
OBJECT
 10
6.004966
 20
3.607428
 30
0.0
 42
0.414214
  0
SEQEND
  8
OBJECT
  0
DIMENSION
  8
DIM
  2
*D13
 10
13.40457
 20
5.452174
 30
0.0
 11
13.40457
 21
6.452174
 31
0.0
 12
0.0
 22
-1.990895
 32
0.0
  1
<>
 13
12.839944
 23
7.452174
 33
0.0
 14
12.994602
 24
5.452174
 34
0.0
 50
270.0
  3
23NSTD
  0
DIMENSION
  8
DIM
  2
*D8
 10
1.397741
 20
3.394432
 30
0.0
 11
1.397741
 21
2.597557
 31
0.0
 12
-1.995236
 22
-15.670039
 32
0.0
 13
2.218219
 23
1.800682
 33
0.0
 14
2.218219
 24
3.394432
 34
0.0
 50
90.0
  3
23NSTD
  0
LINE
  8
OBJECT
 10
1.972222
 20
1.597111
 30
0.0
 11
2.122908
 21
1.747797
 31
0.0
  0
LINE
  8
OBJECT
 10
2.014649
 20
1.554685
 30
0.0
 11
2.165334
 21
1.705371
 31
0.0
  0
LINE
  8
OBJECT
 10
1.972222
 20
3.598002
 30
0.0
 11
2.122908
 21
3.447316
 31
0.0
  0
LINE
  8
OBJECT
 10
2.014649
 20
3.640428
 30
0.0
 11
2.165334
 21
3.489743
 31
0.0
  0
TEXT
  8
TEXT
  6
CONTINUOUS
 10
1.639566
 20
12.800118
 30
0.0
 40
0.1875
  1
WITH TEXTURED INSERT AREA.
 41
0.75
  0
DIMENSION
  8
DIM
  2
*D4
 10
1.397741
 20
10.623028
 30
0.0
 11
1.397741
 21
9.666778
 31
0.0
 12
-12.836286
 22
-18.456877
 32
0.0
 13
2.056344
 23
8.710528
 33
0.0
 14
2.056344
 24
10.623028
 34
0.0
 50
270.0
  3
23NSTD
  0
DIMENSION
  8
DIM
  6
CONTINUOUS
  2
*D16
 10
12.94223
 20
7.763727
 30
0.0
 11
11.87973
 21
7.763727
 31
0.0
 12
0.0
 22
-1.990895
 32
0.0
  1
<>
 13
10.81723
 23
7.452174
 33
0.0
 14
12.94223
 24
7.452174
 34
0.0
  3
23NSTD
  0
LINE
  8
OBJECT
 10
12.989705
 20
5.639174
 30
0.0
 11
10.769755
 21
5.639174
 31
0.0
  0
LINE
  8
HIDDEN
 10
10.97328
 20
5.664174
 30
0.0
 11
10.840434
 21
5.664174
 31
0.0
  0
LINE
  8
HIDDEN
 10
12.78618
 20
5.664174
 30
0.0
 11
12.919027
 21
5.664174
 31
0.0
  0
LINE
  8
HIDDEN
 10
2.108644
 20
5.664174
 30
0.0
 11
1.975798
 21
5.664174
 31
0.0
  0
DIMENSION
  8
DIM
  2
*D5
 10
6.529908
 20
5.639174
 30
0.0
 11
8.141939
 21
6.179174
 31
0.0
 12
-12.836286
 22
-17.669739
 32
0.0
  1
<> POLISHED BAND
 13
6.004966
 23
5.452174
 33
0.0
 14
6.000069
 24
5.639174
 34
0.0
 50
90.0
  3
23NSTD
  0
TEXT
  8
DIM
 10
7.07331
 20
2.71688
 30
0.0
 40
0.1875
  1
0.090 DIA. x 0.500 DEEP
 41
0.75
 11
7.07331
 21
2.81063
 31
0.0
 73
     2
  0
POLYLINE
  8
DIM
 66
     1
 10
0.0
 20
0.0
 30
0.0
 41
0.10125
  0
VERTEX
  8
DIM
 10
5.711526
 20
1.83839
 30
0.0
  0
VERTEX
  8
DIM
 10
5.900909
 20
2.030833
 30
0.0
 41
0.0
  0
VERTEX
  8
DIM
 10
6.66831
 20
2.81063
 30
0.0
 41
0.0
  0
VERTEX
  8
DIM
 10
6.93831
 20
2.81063
 30
0.0
 41
0.0
  0
SEQEND
  8
DIM
  0
POLYLINE
  8
DIM
 66
     1
 10
0.0
 20
0.0
 30
0.0
 41
0.10125
  0
VERTEX
  8
DIM
 10
5.791539
 20
1.785064
 30
0.0
  0
VERTEX
  8
DIM
 10
6.050523
 20
1.8614
 30
0.0
 41
0.0
  0
VERTEX
  8
DIM
 10
6.647383
 20
2.037327
 30
0.0
 41
0.0
  0
VERTEX
  8
DIM
 10
6.917383
 20
2.037327
 30
0.0
 41
0.0
  0
SEQEND
  8
DIM
  0
LINE
  8
OBJECT
 10
5.932966
 20
3.598002
 30
0.0
 11
5.78228
 21
3.447316
 31
0.0
  0
LINE
  8
OBJECT
 10
5.890539
 20
3.640428
 30
0.0
 11
5.739854
 21
3.489743
 31
0.0
  0
LINE
  8
OBJECT
 10
5.890539
 20
1.554685
 30
0.0
 11
5.739854
 21
1.705371
 31
0.0
  0
LINE
  8
OBJECT
 10
5.932966
 20
1.597111
 30
0.0
 11
5.78228
 21
1.747797
 31
0.0
  0
CIRCLE
  8
OBJECT
 10
5.686969
 20
1.800682
 30
0.0
 40
0.109
  0
CIRCLE
  8
OBJECT
 10
5.686969
 20
1.800682
 30
0.0
 40
0.045
  0
CIRCLE
  8
OBJECT
 10
5.686969
 20
3.394432
 30
0.0
 40
0.109
  0
CIRCLE
  8
OBJECT
 10
5.686969
 20
3.394432
 30
0.0
 40
0.045
  0
TEXT
  8
DIM
 10
7.052383
 20
1.631077
 30
0.0
 40
0.1875
  1
(4) PLACES
 41
0.75
 11
7.052383
 21
1.724827
 31
0.0
 73
     2
  0
TEXT
  8
DIM
 10
7.052383
 20
1.943577
 30
0.0
 40
0.1875
  1
0.218 DIA. BOSS
 41
0.75
 11
7.052383
 21
2.037327
 31
0.0
 73
     2
  0
TEXT
  8
DIM
 10
7.07331
 20
2.40438
 30
0.0
 40
0.1875
  1
(4) HOLES
 41
0.75
 11
7.07331
 21
2.49813
 31
0.0
 73
     2
  0
LINE
  8
HIDDEN
 10
5.796544
 20
5.664174
 30
0.0
 11
5.92939
 21
5.664174
 31
0.0
  0
CIRCLE
  8
HIDDEN
 10
5.686969
 20
8.869903
 30
0.0
 40
0.109
  0
CIRCLE
  8
HIDDEN
 10
5.686969
 20
8.869903
 30
0.0
 40
0.045
  0
POLYLINE
  8
DIM
 66
     1
 10
0.0
 20
0.0
 30
0.0
 41
0.10125
  0
VERTEX
  8
DIM
 10
5.159405
 20
9.680208
 30
0.0
  0
VERTEX
  8
DIM
 10
5.418389
 20
9.756544
 30
0.0
 41
0.0
  0
VERTEX
  8
DIM
 10
6.612108
 20
10.108398
 30
0.0
 41
0.0
  0
VERTEX
  8
DIM
 10
6.882108
 20
10.108398
 30
0.0
 41
0.0
  0
SEQEND
  8
DIM
  0
CIRCLE
  8
HIDDEN
 10
5.686969
 20
10.463653
 30
0.0
 40
0.109
  0
CIRCLE
  8
HIDDEN
 10
5.686969
 20
10.463653
 30
0.0
 40
0.045
  0
TEXT
  8
DIM
 10
7.017108
 20
10.014648
 30
0.0
 40
0.1875
  1
INSERT AREA
 41
0.75
 11
7.017108
 21
10.108398
 31
0.0
 73
     2
  0
DIMENSION
  8
DIM
  2
*D6
 10
6.348471
 20
7.452174
 30
0.0
 11
6.976128
 21
7.992174
 31
0.0
 12
-1.995236
 22
-15.117284
 32
0.0
 13
5.851093
 23
7.352174
 33
0.0
 14
5.850308
 24
7.452174
 34
0.0
 50
90.0
  3
23NSTD
  0
DIMENSION
  8
DIM
  2
*D1
 10
5.293811
 20
5.452174
 30
0.0
 11
4.642717
 21
4.912174
 31
0.0
 12
-0.173683
 22
-0.408225
 32
0.0
 13
5.388311
 23
5.522174
 33
0.0
 14
5.388311
 24
5.452174
 34
0.0
 50
90.0
  3
23NSTD
  0
DIMENSION
  8
DIM
  6
CONTINUOUS
  2
*D12
 10
1.241316
 20
5.452174
 30
0.0
 11
0.601941
 21
4.912174
 31
0.0
 12
-0.318556
 22
-15.117284
 32
0.0
 13
2.109219
 23
5.602174
 33
0.0
 14
1.900222
 24
5.452174
 34
0.0
 50
90.0
  3
23NSTD
  0
POLYLINE
  8
HIDDEN
 66
     1
 10
0.0
 20
0.0
 30
0.0
  0
VERTEX
  8
HIDDEN
 10
12.631605
 20
5.602174
 30
0.0
  0
VERTEX
  8
HIDDEN
 10
12.631605
 20
6.102174
 30
0.0
  0
VERTEX
  8
HIDDEN
 10
12.721605
 20
6.102174
 30
0.0
  0
VERTEX
  8
HIDDEN
 10
12.721605
 20
5.602174
 30
0.0
  0
SEQEND
  8
HIDDEN
  0
POLYLINE
  8
HIDDEN
 66
     1
 10
0.0
 20
0.0
 30
0.0
  0
VERTEX
  8
HIDDEN
 10
11.037855
 20
5.602174
 30
0.0
  0
VERTEX
  8
HIDDEN
 10
11.037855
 20
6.102174
 30
0.0
  0
VERTEX
  8
HIDDEN
 10
11.127855
 20
6.102174
 30
0.0
  0
VERTEX
  8
HIDDEN
 10
11.127855
 20
5.602174
 30
0.0
  0
SEQEND
  8
HIDDEN
  0
POLYLINE
  8
HIDDEN
 66
     1
 10
0.0
 20
0.0
 30
0.0
  0
VERTEX
  8
HIDDEN
 10
10.95763
 20
7.352174
 30
0.0
  0
VERTEX
  8
HIDDEN
 10
10.973855
 20
5.602174
 30
0.0
  0
VERTEX
  8
HIDDEN
 10
11.191855
 20
5.602174
 30
0.0
  0
VERTEX
  8
HIDDEN
 10
11.20808
 20
7.352174
 30
0.0
  0
SEQEND
  8
HIDDEN
  0
POLYLINE
  8
HIDDEN
 66
     1
 10
0.0
 20
0.0
 30
0.0
  0
VERTEX
  8
HIDDEN
 10
12.55138
 20
7.352174
 30
0.0
  0
VERTEX
  8
HIDDEN
 10
12.567605
 20
5.602174
 30
0.0
  0
VERTEX
  8
HIDDEN
 10
12.785605
 20
5.602174
 30
0.0
  0
VERTEX
  8
HIDDEN
 10
12.80183
 20
7.352174
 30
0.0
  0
SEQEND
  8
HIDDEN
  0
POLYLINE
  8
HIDDEN
 66
     1
 10
0.0
 20
0.0
 30
0.0
  0
VERTEX
  8
HIDDEN
 10
12.954602
 20
5.452174
 30
0.0
  0
VERTEX
  8
HIDDEN
 10
12.952769
 20
5.522174
 30
0.0
  0
VERTEX
  8
HIDDEN
 10
10.806691
 20
5.522174
 30
0.0
  0
VERTEX
  8
HIDDEN
 10
10.804858
 20
5.452174
 30
0.0
  0
SEQEND
  8
HIDDEN
  0
POLYLINE
  8
HIDDEN
 66
     1
 10
0.0
 20
0.0
 30
0.0
  0
VERTEX
  8
HIDDEN
 10
12.922759
 20
5.522174
 30
0.0
  0
VERTEX
  8
HIDDEN
 10
12.875731
 20
7.318091
 30
0.0
 42
0.406566
  0
VERTEX
  8
HIDDEN
 10
12.840743
 20
7.352174
 30
0.0
  0
VERTEX
  8
HIDDEN
 10
10.918718
 20
7.352174
 30
0.0
 42
0.406566
  0
VERTEX
  8
HIDDEN
 10
10.88373
 20
7.318091
 30
0.0
  0
VERTEX
  8
HIDDEN
 10
10.836702
 20
5.522174
 30
0.0
  0
SEQEND
  8
HIDDEN
  0
POLYLINE
  8
OBJECT
 66
     1
 10
0.0
 20
0.0
 30
0.0
 70
     1
  0
VERTEX
  8
OBJECT
 10
12.994602
 20
5.452174
 30
0.0
  0
VERTEX
  8
OBJECT
 10
12.944908
 20
7.349923
 30
0.0
 42
0.406566
  0
VERTEX
  8
OBJECT
 10
12.839944
 20
7.452174
 30
0.0
  0
VERTEX
  8
OBJECT
 10
10.919517
 20
7.452174
 30
0.0
 42
0.406566
  0
VERTEX
  8
OBJECT
 10
10.814553
 20
7.349923
 30
0.0
  0
VERTEX
  8
OBJECT
 10
10.764858
 20
5.452174
 30
0.0
  0
SEQEND
  8
OBJECT
  0
POLYLINE
  8
HIDDEN
 66
     1
 10
0.0
 20
0.0
 30
0.0
  0
VERTEX
  8
HIDDEN
 10
5.641969
 20
5.602174
 30
0.0
  0
VERTEX
  8
HIDDEN
 10
5.641969
 20
6.102174
 30
0.0
  0
VERTEX
  8
HIDDEN
 10
5.731969
 20
6.102174
 30
0.0
  0
VERTEX
  8
HIDDEN
 10
5.731969
 20
5.602174
 30
0.0
  0
SEQEND
  8
HIDDEN
  0
POLYLINE
  8
HIDDEN
 66
     1
 10
0.0
 20
0.0
 30
0.0
  0
VERTEX
  8
HIDDEN
 10
2.173219
 20
5.602174
 30
0.0
  0
VERTEX
  8
HIDDEN
 10
2.173219
 20
6.102174
 30
0.0
  0
VERTEX
  8
HIDDEN
 10
2.263219
 20
6.102174
 30
0.0
  0
VERTEX
  8
HIDDEN
 10
2.263219
 20
5.602174
 30
0.0
  0
SEQEND
  8
HIDDEN
  0
POLYLINE
  8
HIDDEN
 66
     1
 10
0.0
 20
0.0
 30
0.0
  0
VERTEX
  8
HIDDEN
 10
2.343444
 20
7.352174
 30
0.0
  0
VERTEX
  8
HIDDEN
 10
2.327219
 20
5.602174
 30
0.0
  0
VERTEX
  8
HIDDEN
 10
2.109219
 20
5.602174
 30
0.0
  0
VERTEX
  8
HIDDEN
 10
2.092994
 20
7.352174
 30
0.0
  0
SEQEND
  8
HIDDEN
  0
POLYLINE
  8
HIDDEN
 66
     1
 10
0.0
 20
0.0
 30
0.0
  0
VERTEX
  8
HIDDEN
 10
5.561744
 20
7.352174
 30
0.0
  0
VERTEX
  8
HIDDEN
 10
5.577969
 20
5.602174
 30
0.0
  0
VERTEX
  8
HIDDEN
 10
5.795969
 20
5.602174
 30
0.0
  0
VERTEX
  8
HIDDEN
 10
5.812194
 20
7.352174
 30
0.0
  0
SEQEND
  8
HIDDEN
  0
POLYLINE
  8
HIDDEN
 66
     1
 10
0.0
 20
0.0
 30
0.0
  0
VERTEX
  8
HIDDEN
 10
1.972079
 20
5.522174
 30
0.0
  0
VERTEX
  8
HIDDEN
 10
2.019107
 20
7.318091
 30
0.0
 42
-0.406566
  0
VERTEX
  8
HIDDEN
 10
2.054095
 20
7.352174
 30
0.0
  0
VERTEX
  8
HIDDEN
 10
5.851093
 20
7.352174
 30
0.0
 42
-0.406566
  0
VERTEX
  8
HIDDEN
 10
5.886081
 20
7.318091
 30
0.0
  0
VERTEX
  8
HIDDEN
 10
5.933109
 20
5.522174
 30
0.0
  0
SEQEND
  8
HIDDEN
  0
POLYLINE
  8
OBJECT
 66
     1
 10
0.0
 20
0.0
 30
0.0
 70
     1
  0
VERTEX
  8
OBJECT
 10
1.900222
 20
5.452174
 30
0.0
  0
VERTEX
  8
OBJECT
 10
1.949916
 20
7.349923
 30
0.0
 42
-0.406566
  0
VERTEX
  8
OBJECT
 10
2.05488
 20
7.452174
 30
0.0
  0
VERTEX
  8
OBJECT
 10
5.850308
 20
7.452174
 30
0.0
 42
-0.406566
  0
VERTEX
  8
OBJECT
 10
5.955272
 20
7.349923
 30
0.0
  0
VERTEX
  8
OBJECT
 10
6.004966
 20
5.452174
 30
0.0
  0
SEQEND
  8
OBJECT
  0
POLYLINE
  8
HIDDEN
 66
     1
 10
0.0
 20
0.0
 30
0.0
  0
VERTEX
  8
HIDDEN
 10
5.964952
 20
5.452174
 30
0.0
  0
VERTEX
  8
HIDDEN
 10
5.963119
 20
5.522174
 30
0.0
  0
VERTEX
  8
HIDDEN
 10
1.942069
 20
5.522174
 30
0.0
  0
VERTEX
  8
HIDDEN
 10
1.940236
 20
5.452174
 30
0.0
  0
SEQEND
  8
HIDDEN
  0
DIMENSION
  8
DIM
  2
*D28
 10
10.753299
 20
5.402174
 30
0.0
 11
12.016626
 21
8.148183
 31
0.0
 12
0.0
 22
-1.990895
 32
0.0
 70
   130
  1
<> REF.
 13
10.814553
 23
7.349923
 33
0.0
 14
10.764858
 24
5.452174
 34
0.0
 15
10.753299
 25
4.862674
 35
0.0
 16
10.802486
 26
8.208866
 36
0.0
  3
23NSTD
  0
ENDSEC
  0
EOF
