  0
SECTION
  2
HEADER
  9
$ACADVER
  1
AC1009
  9
$INSBASE
 10
0.0
 20
0.0
 30
0.0
  9
$EXTMIN
 10
0.0
 20
0.0
 30
-0.0625
  9
$EXTMAX
 10
23.25
 20
15.18
 30
0.0625
  9
$LIMMIN
 10
0.0
 20
0.0
  9
$LIMMAX
 10
23.25
 20
15.18
  9
$ORTHOMODE
 70
     0
  9
$REGENMODE
 70
     1
  9
$FILLMODE
 70
     1
  9
$QTEXTMODE
 70
     0
  9
$MIRRTEXT
 70
     0
  9
$DRAGMODE
 70
     2
  9
$LTSCALE
 40
0.375
  9
$OSMODE
 70
     1
  9
$ATTMODE
 70
     1
  9
$TEXTSIZE
 40
0.188
  9
$TRACEWID
 40
0.05
  9
$TEXTSTYLE
  7
TXT
  9
$CLAYER
  8
DIM
  9
$CELTYPE
  6
BYLAYER
  9
$CECOLOR
 62
   256
  9
$DIMSCALE
 40
1.5
  9
$DIMASZ
 40
0.18
  9
$DIMEXO
 40
0.063
  9
$DIMDLI
 40
0.281
  9
$DIMRND
 40
0.0
  9
$DIMDLE
 40
0.0
  9
$DIMEXE
 40
0.093
  9
$DIMTP
 40
0.0
  9
$DIMTM
 40
0.0
  9
$DIMTXT
 40
0.125
  9
$DIMCEN
 40
0.09
  9
$DIMTSZ
 40
0.0
  9
$DIMTOL
 70
     0
  9
$DIMLIM
 70
     0
  9
$DIMTIH
 70
     1
  9
$DIMTOH
 70
     1
  9
$DIMSE1
 70
     0
  9
$DIMSE2
 70
     0
  9
$DIMTAD
 70
     0
  9
$DIMZIN
 70
     0
  9
$DIMBLK
  1

  9
$DIMASO
 70
     1
  9
$DIMSHO
 70
     1
  9
$DIMPOST
  1

  9
$DIMAPOST
  1

  9
$DIMALT
 70
     0
  9
$DIMALTD
 70
     2
  9
$DIMALTF
 40
25.4
  9
$DIMLFAC
 40
1.0
  9
$DIMTOFL
 70
     0
  9
$DIMTVP
 40
0.0
  9
$DIMTIX
 70
     0
  9
$DIMSOXD
 70
     0
  9
$DIMSAH
 70
     0
  9
$DIMBLK1
  1

  9
$DIMBLK2
  1

  9
$DIMSTYLE
  2
23NSTD
  9
$DIMCLRD
 70
     0
  9
$DIMCLRE
 70
     0
  9
$DIMCLRT
 70
     0
  9
$DIMTFAC
 40
1.0
  9
$DIMGAP
 40
0.09
  9
$LUNITS
 70
     2
  9
$LUPREC
 70
     3
  9
$SKETCHINC
 40
0.1
  9
$FILLETRAD
 40
0.02
  9
$AUNITS
 70
     1
  9
$AUPREC
 70
     1
  9
$MENU
  1
acad
  9
$ELEVATION
 40
0.0
  9
$PELEVATION
 40
0.0
  9
$THICKNESS
 40
0.0
  9
$LIMCHECK
 70
     0
  9
$BLIPMODE
 70
     1
  9
$CHAMFERA
 40
0.0
  9
$CHAMFERB
 40
0.0
  9
$SKPOLY
 70
     0
  9
$TDCREATE
 40
2450757.358536921
  9
$TDUPDATE
 40
2450765.579792592
  9
$TDINDWG
 40
0.3256559028
  9
$TDUSRTIMER
 40
0.3256559028
  9
$USRTIMER
 70
     1
  9
$ANGBASE
 50
0.0
  9
$ANGDIR
 70
     0
  9
$PDMODE
 70
     0
  9
$PDSIZE
 40
0.0
  9
$PLINEWID
 40
0.0
  9
$COORDS
 70
     0
  9
$SPLFRAME
 70
     0
  9
$SPLINETYPE
 70
     6
  9
$SPLINESEGS
 70
     8
  9
$ATTDIA
 70
     0
  9
$ATTREQ
 70
     1
  9
$HANDLING
 70
     0
  9
$HANDSEED
  5
0
  9
$SURFTAB1
 70
     6
  9
$SURFTAB2
 70
     6
  9
$SURFTYPE
 70
     6
  9
$SURFU
 70
     6
  9
$SURFV
 70
     6
  9
$UCSNAME
  2

  9
$UCSORG
 10
0.0
 20
0.0
 30
0.0
  9
$UCSXDIR
 10
1.0
 20
0.0
 30
0.0
  9
$UCSYDIR
 10
0.0
 20
1.0
 30
0.0
  9
$PUCSNAME
  2

  9
$PUCSORG
 10
0.0
 20
0.0
 30
0.0
  9
$PUCSXDIR
 10
1.0
 20
0.0
 30
0.0
  9
$PUCSYDIR
 10
0.0
 20
1.0
 30
0.0
  9
$USERI1
 70
     0
  9
$USERI2
 70
     0
  9
$USERI3
 70
     0
  9
$USERI4
 70
     0
  9
$USERI5
 70
     0
  9
$USERR1
 40
0.0
  9
$USERR2
 40
0.0
  9
$USERR3
 40
0.0
  9
$USERR4
 40
0.0
  9
$USERR5
 40
0.0
  9
$WORLDVIEW
 70
     1
  9
$SHADEDGE
 70
     3
  9
$SHADEDIF
 70
    70
  9
$TILEMODE
 70
     1
  9
$MAXACTVP
 70
    16
  9
$PINSBASE
 10
-3.100979
 20
50.0
 30
10.277186
  9
$PLIMCHECK
 70
     0
  9
$PEXTMIN
 10
1.000000E+20
 20
1.000000E+20
 30
1.000000E+20
  9
$PEXTMAX
 10
-1.000000E+20
 20
-1.000000E+20
 30
-1.000000E+20
  9
$PLIMMIN
 10
0.0
 20
0.0
  9
$PLIMMAX
 10
12.0
 20
9.0
  9
$UNITMODE
 70
     0
  9
$VISRETAIN
 70
     0
  9
$PLINEGEN
 70
     0
  9
$PSLTSCALE
 70
     0
  9
$TREEDEPTH
 70
  3020
  9
$DWGCODEPAGE
  3
undefined
  0
ENDSEC
  0
SECTION
  2
TABLES
  0
TABLE
  2
VPORT
 70
     2
  0
VPORT
  2
*ACTIVE
 70
     0
 10
0.0
 20
0.0
 11
1.0
 21
1.0
 12
11.625
 22
8.533115
 13
0.0
 23
0.0
 14
1.0
 24
1.0
 15
0.5
 25
0.5
 16
0.0
 26
0.0
 36
1.0
 17
0.0
 27
0.0
 37
0.0
 40
17.06623
 41
1.36234
 42
50.0
 43
0.0
 44
0.0
 50
0.0
 51
0.0
 71
     0
 72
   100
 73
     1
 74
     0
 75
     0
 76
     0
 77
     0
 78
     0
  0
ENDTAB
  0
TABLE
  2
LTYPE
 70
     4
  0
LTYPE
  2
CONTINUOUS
 70
    64
  3
Solid line
 72
    65
 73
     0
 40
0.0
  0
LTYPE
  2
HIDDEN
 70
    64
  3
_ _ _ _ _ _ _ _ _ _ _ _ _ _ _ _ _ _ _ _ _ _ _
 72
    65
 73
     2
 40
0.375
 49
0.25
 49
-0.125
  0
LTYPE
  2
CENTER
 70
    64
  3
____ _ ____ _ ____ _ ____ _ ____ _ ____ _ ____
 72
    65
 73
     4
 40
2.0
 49
1.25
 49
-0.25
 49
0.25
 49
-0.25
  0
LTYPE
  2
PHANTOM
 70
    64
  3
_____ _ _ _____ _ _ _____ _ _ _____ _ _ ____
 72
    65
 73
     6
 40
2.5
 49
1.25
 49
-0.25
 49
0.25
 49
-0.25
 49
0.25
 49
-0.25
  0
ENDTAB
  0
TABLE
  2
LAYER
 70
     9
  0
LAYER
  2
0
 70
    64
 62
     7
  6
CONTINUOUS
  0
LAYER
  2
OBJECT
 70
    64
 62
     7
  6
CONTINUOUS
  0
LAYER
  2
DIM
 70
    64
 62
     7
  6
CONTINUOUS
  0
LAYER
  2
HIDDEN
 70
    64
 62
     7
  6
HIDDEN
  0
LAYER
  2
TEXT
 70
    64
 62
     7
  6
CONTINUOUS
  0
LAYER
  2
TITLE
 70
    64
 62
     7
  6
CONTINUOUS
  0
LAYER
  2
CENTER
 70
    64
 62
     7
  6
CENTER
  0
LAYER
  2
DEFPOINTS
 70
    64
 62
     7
  6
CONTINUOUS
  0
LAYER
  2
BEND
 70
    64
 62
     7
  6
PHANTOM
  0
ENDTAB
  0
TABLE
  2
STYLE
 70
     1
  0
STYLE
  2
TXT
 70
    64
 40
0.0
 41
0.75
 50
0.0
 71
     0
 42
0.188
  3
TXT.shx
  4

  0
ENDTAB
  0
TABLE
  2
VIEW
 70
     0
  0
ENDTAB
  0
TABLE
  2
UCS
 70
     0
  0
ENDTAB
  0
TABLE
  2
APPID
 70
     1
  0
APPID
  2
ACAD
 70
    64
  0
ENDTAB
  0
TABLE
  2
DIMSTYLE
 70
     2
  0
DIMSTYLE
  2
23NSTD
 70
    64
  3

  4

  5

  6

  7

 40
1.5
 41
0.18
 42
0.063
 43
0.281
 44
0.093
 45
0.0
 46
0.0
 47
0.0
 48
0.0
140
0.125
141
0.09
142
0.0
143
25.4
144
1.0
145
0.0
146
1.0
147
0.09
 71
     0
 72
     0
 73
     1
 74
     1
 75
     0
 76
     0
 77
     0
 78
     0
170
     0
171
     2
172
     0
173
     0
174
     0
175
     0
176
     0
177
     0
178
     0
  0
DIMSTYLE
  2
23NSTDI
 70
    64
  3

  4

  5

  6

  7

 40
1.5
 41
0.18
 42
0.063
 43
0.281
 44
0.093
 45
0.0
 46
0.0
 47
0.0
 48
0.0
140
0.125
141
0.09
142
0.0
143
25.4
144
1.0
145
0.0
146
1.0
147
0.09
 71
     0
 72
     0
 73
     1
 74
     1
 75
     0
 76
     0
 77
     0
 78
     0
170
     0
171
     2
172
     0
173
     0
174
     1
175
     0
176
     0
177
     0
178
     0
  0
ENDTAB
  0
ENDSEC
  0
SECTION
  2
BLOCKS
  0
BLOCK
  8
0
  2
HBS
 70
    64
 10
0.0
 20
0.0
 30
0.0
  3
HBS
  0
LINE
  8
TITLE
 10
0.062
 20
9.64
 30
0.0
 11
15.438
 21
9.64
 31
0.0
  0
POLYLINE
  8
TITLE
 66
     1
 10
0.0
 20
0.0
 30
0.0
 70
     1
  0
VERTEX
  8
TITLE
 10
15.5
 20
10.12
 30
0.0
  0
VERTEX
  8
TITLE
 10
15.5
 20
0.0
 30
0.0
  0
VERTEX
  8
TITLE
 10
0.0
 20
0.0
 30
0.0
  0
VERTEX
  8
TITLE
 10
0.0
 20
10.12
 30
0.0
  0
SEQEND
  8
TITLE
  0
POLYLINE
  8
TITLE
 66
     1
 10
0.0
 20
0.0
 30
0.0
 70
     1
  0
VERTEX
  8
TITLE
 10
15.438
 20
10.058
 30
0.0
  0
VERTEX
  8
TITLE
 10
15.438
 20
0.062
 30
0.0
  0
VERTEX
  8
TITLE
 10
0.062
 20
0.062
 30
0.0
  0
VERTEX
  8
TITLE
 10
0.062
 20
10.058
 30
0.0
  0
SEQEND
  8
TITLE
  0
TEXT
  8
TEXT
 10
0.207833
 20
9.680079
 30
0.0
 40
0.125
  1
NAME
 72
     1
 11
0.437
 21
9.680079
 31
0.0
  0
TEXT
  8
TEXT
 10
0.207833
 20
9.888413
 30
0.0
 40
0.125
  1
PART
 72
     1
 11
0.437
 21
9.888413
 31
0.0
  0
LINE
  8
TITLE
 10
0.812
 20
9.64
 30
0.0
 11
0.812
 21
10.058
 31
0.0
  0
TEXT
  8
TEXT
 10
7.926833
 20
9.888413
 30
0.0
 40
0.125
  1
PART
 72
     1
 11
8.156
 21
9.888413
 31
0.0
  0
TEXT
  8
TEXT
 10
8.031
 20
9.680079
 30
0.0
 40
0.125
  1
No.
 72
     1
 11
8.156
 21
9.680079
 31
0.0
  0
LINE
  8
TITLE
 10
7.781
 20
10.058
 30
0.0
 11
7.781
 21
9.64
 31
0.0
  0
LINE
  8
TITLE
 10
7.719
 20
10.058
 30
0.0
 11
7.719
 21
9.64
 31
0.0
  0
LINE
  8
TITLE
 10
8.531
 20
10.058
 30
0.0
 11
8.531
 21
9.64
 31
0.0
  0
ENDBLK
  8
0
  0
BLOCK
  8
0
  2
*D1
 70
    65
 10
0.0
 20
0.0
 30
0.0
  3
*D
  0
LINE
  8
0
  6
BYBLOCK
 62
     0
 10
5.467494
 20
5.930399
 30
0.0
 11
5.327994
 21
5.930399
 31
0.0
  0
LINE
  8
0
  6
BYBLOCK
 62
     0
 10
5.467494
 20
5.860399
 30
0.0
 11
5.327994
 21
5.860399
 31
0.0
  0
LINE
  8
0
  6
BYBLOCK
 62
     0
 10
5.467494
 20
6.200399
 30
0.0
 11
5.467494
 21
6.470399
 31
0.0
  0
LINE
  8
0
  6
BYBLOCK
 62
     0
 10
5.467494
 20
5.590399
 30
0.0
 11
5.467494
 21
5.320399
 31
0.0
  0
LINE
  8
0
  6
BYBLOCK
 62
     0
 10
5.467494
 20
5.320399
 30
0.0
 11
5.197494
 21
5.320399
 31
0.0
  0
SOLID
  8
0
  6
BYBLOCK
 62
     0
 10
5.422494
 20
6.200399
 30
0.0
 11
5.512494
 21
6.200399
 31
0.0
 12
5.467494
 22
5.930399
 32
0.0
 13
5.467494
 23
5.930399
 33
0.0
  0
SOLID
  8
0
  6
BYBLOCK
 62
     0
 10
5.422494
 20
5.590399
 30
0.0
 11
5.512494
 21
5.590399
 31
0.0
 12
5.467494
 22
5.860399
 32
0.0
 13
5.467494
 23
5.860399
 33
0.0
  0
TEXT
  8
0
  6
BYBLOCK
 62
     0
 10
4.570306
 20
5.226649
 30
0.0
 40
0.1875
  1
0.070
 41
0.75
 72
     1
 11
4.8164
 21
5.320399
 31
0.0
 73
     2
  0
POINT
  8
DEFPOINTS
  6
BYBLOCK
 62
     0
 10
5.561994
 20
5.930399
 30
0.0
  0
POINT
  8
DEFPOINTS
  6
BYBLOCK
 62
     0
 10
5.561994
 20
5.860399
 30
0.0
  0
POINT
  8
DEFPOINTS
  6
BYBLOCK
 62
     0
 10
5.467494
 20
5.860399
 30
0.0
  0
ENDBLK
  8
0
  0
BLOCK
  8
0
  2
*D2
 70
    65
 10
0.0
 20
0.0
 30
0.0
  3
*D
  0
LINE
  8
0
  6
BYBLOCK
 62
     0
 10
14.89263
 20
27.072906
 30
0.0
 11
14.89263
 21
26.571328
 31
0.0
  0
LINE
  8
0
  6
BYBLOCK
 62
     0
 10
18.68513
 20
27.072906
 30
0.0
 11
18.68513
 21
26.571328
 31
0.0
  0
LINE
  8
0
  6
BYBLOCK
 62
     0
 10
15.16263
 20
26.710828
 30
0.0
 11
16.37263
 21
26.710828
 31
0.0
  0
LINE
  8
0
  6
BYBLOCK
 62
     0
 10
18.41513
 20
26.710828
 30
0.0
 11
17.20513
 21
26.710828
 31
0.0
  0
SOLID
  8
0
  6
BYBLOCK
 62
     0
 10
15.16263
 20
26.755828
 30
0.0
 11
15.16263
 21
26.665828
 31
0.0
 12
14.89263
 22
26.710828
 32
0.0
 13
14.89263
 23
26.710828
 33
0.0
  0
SOLID
  8
0
  6
BYBLOCK
 62
     0
 10
18.41513
 20
26.755828
 30
0.0
 11
18.41513
 21
26.665828
 31
0.0
 12
18.68513
 22
26.710828
 32
0.0
 13
18.68513
 23
26.710828
 33
0.0
  0
TEXT
  8
0
  6
BYBLOCK
 62
     0
 10
16.50763
 20
26.617078
 30
0.0
 40
0.1875
  1
3.792
 41
0.75
 72
     1
 11
16.78888
 21
26.710828
 31
0.0
 73
     2
  0
POINT
  8
DEFPOINTS
  6
BYBLOCK
 62
     0
 10
14.89263
 20
27.167406
 30
0.0
  0
POINT
  8
DEFPOINTS
  6
BYBLOCK
 62
     0
 10
18.68513
 20
27.167406
 30
0.0
  0
POINT
  8
DEFPOINTS
  6
BYBLOCK
 62
     0
 10
18.68513
 20
26.710828
 30
0.0
  0
ENDBLK
  8
0
  0
BLOCK
  8
0
  2
*D3
 70
    65
 10
0.0
 20
0.0
 30
0.0
  3
*D
  0
LINE
  8
0
  6
BYBLOCK
 62
     0
 10
15.054505
 20
19.603867
 30
0.0
 11
15.054505
 21
18.897453
 31
0.0
  0
LINE
  8
0
  6
BYBLOCK
 62
     0
 10
18.523255
 20
19.603867
 30
0.0
 11
18.523255
 21
18.897453
 31
0.0
  0
LINE
  8
0
  6
BYBLOCK
 62
     0
 10
15.324505
 20
19.036953
 30
0.0
 11
16.37263
 21
19.036953
 31
0.0
  0
LINE
  8
0
  6
BYBLOCK
 62
     0
 10
18.253255
 20
19.036953
 30
0.0
 11
17.20513
 21
19.036953
 31
0.0
  0
SOLID
  8
0
  6
BYBLOCK
 62
     0
 10
15.324505
 20
19.081953
 30
0.0
 11
15.324505
 21
18.991953
 31
0.0
 12
15.054505
 22
19.036953
 32
0.0
 13
15.054505
 23
19.036953
 33
0.0
  0
SOLID
  8
0
  6
BYBLOCK
 62
     0
 10
18.253255
 20
19.081953
 30
0.0
 11
18.253255
 21
18.991953
 31
0.0
 12
18.523255
 22
19.036953
 32
0.0
 13
18.523255
 23
19.036953
 33
0.0
  0
TEXT
  8
0
  6
BYBLOCK
 62
     0
 10
16.50763
 20
18.943203
 30
0.0
 40
0.1875
  1
3.469
 41
0.75
 72
     1
 11
16.78888
 21
19.036953
 31
0.0
 73
     2
  0
POINT
  8
DEFPOINTS
  6
BYBLOCK
 62
     0
 10
15.054505
 20
19.698367
 30
0.0
  0
POINT
  8
DEFPOINTS
  6
BYBLOCK
 62
     0
 10
18.523255
 20
19.698367
 30
0.0
  0
POINT
  8
DEFPOINTS
  6
BYBLOCK
 62
     0
 10
18.523255
 20
19.036953
 30
0.0
  0
ENDBLK
  8
0
  0
BLOCK
  8
0
  2
*D4
 70
    65
 10
0.0
 20
0.0
 30
0.0
  3
*D
  0
LINE
  8
0
  6
BYBLOCK
 62
     0
 10
14.79813
 20
27.167406
 30
0.0
 11
14.094527
 21
27.167406
 31
0.0
  0
LINE
  8
0
  6
BYBLOCK
 62
     0
 10
14.79813
 20
29.079906
 30
0.0
 11
14.094527
 21
29.079906
 31
0.0
  0
LINE
  8
0
  6
BYBLOCK
 62
     0
 10
14.234027
 20
27.437406
 30
0.0
 11
14.234027
 21
27.894906
 31
0.0
  0
LINE
  8
0
  6
BYBLOCK
 62
     0
 10
14.234027
 20
28.809906
 30
0.0
 11
14.234027
 21
28.352406
 31
0.0
  0
SOLID
  8
0
  6
BYBLOCK
 62
     0
 10
14.189027
 20
27.437406
 30
0.0
 11
14.279027
 21
27.437406
 31
0.0
 12
14.234027
 22
27.167406
 32
0.0
 13
14.234027
 23
27.167406
 33
0.0
  0
SOLID
  8
0
  6
BYBLOCK
 62
     0
 10
14.189027
 20
28.809906
 30
0.0
 11
14.279027
 21
28.809906
 31
0.0
 12
14.234027
 22
29.079906
 32
0.0
 13
14.234027
 23
29.079906
 33
0.0
  0
TEXT
  8
0
  6
BYBLOCK
 62
     0
 10
13.999652
 20
28.029906
 30
0.0
 40
0.1875
  1
1.912
 41
0.75
 72
     1
 11
14.234027
 21
28.123656
 31
0.0
 73
     2
  0
POINT
  8
DEFPOINTS
  6
BYBLOCK
 62
     0
 10
14.89263
 20
27.167406
 30
0.0
  0
POINT
  8
DEFPOINTS
  6
BYBLOCK
 62
     0
 10
14.89263
 20
29.079906
 30
0.0
  0
POINT
  8
DEFPOINTS
  6
BYBLOCK
 62
     0
 10
14.234027
 20
29.079906
 30
0.0
  0
ENDBLK
  8
0
  0
BLOCK
  8
0
  2
*D5
 70
    65
 10
0.0
 20
0.0
 30
0.0
  3
*D
  0
LINE
  8
0
  6
BYBLOCK
 62
     0
 10
18.935752
 20
23.121913
 30
0.0
 11
19.505694
 21
23.121913
 31
0.0
  0
LINE
  8
0
  6
BYBLOCK
 62
     0
 10
18.930855
 20
23.308913
 30
0.0
 11
19.505694
 21
23.308913
 31
0.0
  0
LINE
  8
0
  6
BYBLOCK
 62
     0
 10
19.366194
 20
22.851913
 30
0.0
 11
19.366194
 21
22.581913
 31
0.0
  0
LINE
  8
0
  6
BYBLOCK
 62
     0
 10
19.366194
 20
23.578913
 30
0.0
 11
19.366194
 21
23.848913
 31
0.0
  0
LINE
  8
0
  6
BYBLOCK
 62
     0
 10
19.366194
 20
23.848913
 30
0.0
 11
19.636194
 21
23.848913
 31
0.0
  0
SOLID
  8
0
  6
BYBLOCK
 62
     0
 10
19.321194
 20
22.851913
 30
0.0
 11
19.411194
 21
22.851913
 31
0.0
 12
19.366194
 22
23.121913
 32
0.0
 13
19.366194
 23
23.121913
 33
0.0
  0
SOLID
  8
0
  6
BYBLOCK
 62
     0
 10
19.321194
 20
23.578913
 30
0.0
 11
19.411194
 21
23.578913
 31
0.0
 12
19.366194
 22
23.308913
 32
0.0
 13
19.366194
 23
23.308913
 33
0.0
  0
TEXT
  8
0
  6
BYBLOCK
 62
     0
 10
20.310257
 20
23.755163
 30
0.0
 40
0.1875
  1
 POLISHED BAND
 41
0.75
 72
     1
 11
21.247757
 21
23.848913
 31
0.0
 73
     2
  0
TEXT
  8
0
  6
BYBLOCK
 62
     0
 10
19.771194
 20
23.755163
 30
0.0
 40
0.1875
  1
0.187
 41
0.75
 72
     1
 11
20.017288
 21
23.848913
 31
0.0
 73
     2
  0
POINT
  8
DEFPOINTS
  6
BYBLOCK
 62
     0
 10
18.841252
 20
23.121913
 30
0.0
  0
POINT
  8
DEFPOINTS
  6
BYBLOCK
 62
     0
 10
18.836355
 20
23.308913
 30
0.0
  0
POINT
  8
DEFPOINTS
  6
BYBLOCK
 62
     0
 10
19.366194
 20
23.308913
 30
0.0
  0
ENDBLK
  8
0
  0
BLOCK
  8
0
  2
*D6
 70
    65
 10
0.0
 20
0.0
 30
0.0
  3
*D
  0
LINE
  8
0
  6
BYBLOCK
 62
     0
 10
7.940829
 20
22.469458
 30
0.0
 11
8.483207
 21
22.469458
 31
0.0
  0
LINE
  8
0
  6
BYBLOCK
 62
     0
 10
7.940044
 20
22.569458
 30
0.0
 11
8.483207
 21
22.569458
 31
0.0
  0
LINE
  8
0
  6
BYBLOCK
 62
     0
 10
8.343707
 20
22.199458
 30
0.0
 11
8.343707
 21
21.929458
 31
0.0
  0
LINE
  8
0
  6
BYBLOCK
 62
     0
 10
8.343707
 20
22.839458
 30
0.0
 11
8.343707
 21
23.109458
 31
0.0
  0
LINE
  8
0
  6
BYBLOCK
 62
     0
 10
8.343707
 20
23.109458
 30
0.0
 11
8.613707
 21
23.109458
 31
0.0
  0
SOLID
  8
0
  6
BYBLOCK
 62
     0
 10
8.298707
 20
22.199458
 30
0.0
 11
8.388707
 21
22.199458
 31
0.0
 12
8.343707
 22
22.469458
 32
0.0
 13
8.343707
 23
22.469458
 33
0.0
  0
SOLID
  8
0
  6
BYBLOCK
 62
     0
 10
8.298707
 20
22.839458
 30
0.0
 11
8.388707
 21
22.839458
 31
0.0
 12
8.343707
 22
22.569458
 32
0.0
 13
8.343707
 23
22.569458
 33
0.0
  0
TEXT
  8
0
  6
BYBLOCK
 62
     0
 10
8.748707
 20
23.015708
 30
0.0
 40
0.1875
  1
0.100
 41
0.75
 72
     1
 11
8.971364
 21
23.109458
 31
0.0
 73
     2
  0
POINT
  8
DEFPOINTS
  6
BYBLOCK
 62
     0
 10
7.846329
 20
22.469458
 30
0.0
  0
POINT
  8
DEFPOINTS
  6
BYBLOCK
 62
     0
 10
7.845544
 20
22.569458
 30
0.0
  0
POINT
  8
DEFPOINTS
  6
BYBLOCK
 62
     0
 10
8.343707
 20
22.569458
 30
0.0
  0
ENDBLK
  8
0
  0
BLOCK
  8
0
  2
*D7
 70
    65
 10
0.0
 20
0.0
 30
0.0
  3
*D
  0
LINE
  8
0
  6
BYBLOCK
 62
     0
 10
3.94783
 20
22.663958
 30
0.0
 11
3.94783
 21
23.082458
 31
0.0
  0
LINE
  8
0
  6
BYBLOCK
 62
     0
 10
7.94783
 20
22.663958
 30
0.0
 11
7.94783
 21
23.082458
 31
0.0
  0
LINE
  8
0
  6
BYBLOCK
 62
     0
 10
4.21783
 20
22.942958
 30
0.0
 11
5.566736
 21
22.942958
 31
0.0
  0
LINE
  8
0
  6
BYBLOCK
 62
     0
 10
7.67783
 20
22.942958
 30
0.0
 11
6.328924
 21
22.942958
 31
0.0
  0
SOLID
  8
0
  6
BYBLOCK
 62
     0
 10
4.21783
 20
22.987958
 30
0.0
 11
4.21783
 21
22.897958
 31
0.0
 12
3.94783
 22
22.942958
 32
0.0
 13
3.94783
 23
22.942958
 33
0.0
  0
SOLID
  8
0
  6
BYBLOCK
 62
     0
 10
7.67783
 20
22.987958
 30
0.0
 11
7.67783
 21
22.897958
 31
0.0
 12
7.94783
 22
22.942958
 32
0.0
 13
7.94783
 23
22.942958
 33
0.0
  0
TEXT
  8
0
  6
BYBLOCK
 62
     0
 10
5.701736
 20
22.849208
 30
0.0
 40
0.1875
  1
4.000
 41
0.75
 72
     1
 11
5.94783
 21
22.942958
 31
0.0
 73
     2
  0
POINT
  8
DEFPOINTS
  6
BYBLOCK
 62
     0
 10
3.94783
 20
22.569458
 30
0.0
  0
POINT
  8
DEFPOINTS
  6
BYBLOCK
 62
     0
 10
7.94783
 20
22.569458
 30
0.0
  0
POINT
  8
DEFPOINTS
  6
BYBLOCK
 62
     0
 10
7.94783
 20
22.942958
 30
0.0
  0
ENDBLK
  8
0
  0
BLOCK
  8
0
  2
*D8
 70
    65
 10
0.0
 20
0.0
 30
0.0
  3
*D
  0
LINE
  8
0
  6
BYBLOCK
 62
     0
 10
4.118955
 20
17.470721
 30
0.0
 11
3.253477
 21
17.470721
 31
0.0
  0
LINE
  8
0
  6
BYBLOCK
 62
     0
 10
4.118955
 20
19.064471
 30
0.0
 11
3.253477
 21
19.064471
 31
0.0
  0
LINE
  8
0
  6
BYBLOCK
 62
     0
 10
3.392977
 20
17.740721
 30
0.0
 11
3.392977
 21
18.038846
 31
0.0
  0
LINE
  8
0
  6
BYBLOCK
 62
     0
 10
3.392977
 20
18.794471
 30
0.0
 11
3.392977
 21
18.496346
 31
0.0
  0
SOLID
  8
0
  6
BYBLOCK
 62
     0
 10
3.347977
 20
17.740721
 30
0.0
 11
3.437977
 21
17.740721
 31
0.0
 12
3.392977
 22
17.470721
 32
0.0
 13
3.392977
 23
17.470721
 33
0.0
  0
SOLID
  8
0
  6
BYBLOCK
 62
     0
 10
3.347977
 20
18.794471
 30
0.0
 11
3.437977
 21
18.794471
 31
0.0
 12
3.392977
 22
19.064471
 32
0.0
 13
3.392977
 23
19.064471
 33
0.0
  0
TEXT
  8
0
  6
BYBLOCK
 62
     0
 10
3.135164
 20
18.173846
 30
0.0
 40
0.1875
  1
1.594
 41
0.75
 72
     1
 11
3.392977
 21
18.267596
 31
0.0
 73
     2
  0
POINT
  8
DEFPOINTS
  6
BYBLOCK
 62
     0
 10
4.213455
 20
17.470721
 30
0.0
  0
POINT
  8
DEFPOINTS
  6
BYBLOCK
 62
     0
 10
4.213455
 20
19.064471
 30
0.0
  0
POINT
  8
DEFPOINTS
  6
BYBLOCK
 62
     0
 10
3.392977
 20
19.064471
 30
0.0
  0
ENDBLK
  8
0
  0
BLOCK
  8
0
  2
*D9
 70
    65
 10
0.0
 20
0.0
 30
0.0
  3
*D
  0
LINE
  8
0
  6
BYBLOCK
 62
     0
 10
2.218779
 20
20.474958
 30
0.0
 11
2.218779
 21
20.056458
 31
0.0
  0
LINE
  8
0
  6
BYBLOCK
 62
     0
 10
2.258779
 20
20.474958
 30
0.0
 11
2.258779
 21
20.056458
 31
0.0
  0
LINE
  8
0
  6
BYBLOCK
 62
     0
 10
1.948779
 20
20.195958
 30
0.0
 11
1.678779
 21
20.195958
 31
0.0
  0
LINE
  8
0
  6
BYBLOCK
 62
     0
 10
2.528779
 20
20.195958
 30
0.0
 11
2.798779
 21
20.195958
 31
0.0
  0
SOLID
  8
0
  6
BYBLOCK
 62
     0
 10
1.948779
 20
20.240958
 30
0.0
 11
1.948779
 21
20.150958
 31
0.0
 12
2.218779
 22
20.195958
 32
0.0
 13
2.218779
 23
20.195958
 33
0.0
  0
SOLID
  8
0
  6
BYBLOCK
 62
     0
 10
2.528779
 20
20.240958
 30
0.0
 11
2.528779
 21
20.150958
 31
0.0
 12
2.258779
 22
20.195958
 32
0.0
 13
2.258779
 23
20.195958
 33
0.0
  0
TEXT
  8
0
  6
BYBLOCK
 62
     0
 10
3.472841
 20
20.102208
 30
0.0
 40
0.1875
  1
 TYP.
 41
0.75
 72
     1
 11
3.754091
 21
20.195958
 31
0.0
 73
     2
  0
TEXT
  8
0
  6
BYBLOCK
 62
     0
 10
2.933779
 20
20.102208
 30
0.0
 40
0.1875
  1
0.040
 41
0.75
 72
     1
 11
3.179872
 21
20.195958
 31
0.0
 73
     2
  0
POINT
  8
DEFPOINTS
  6
BYBLOCK
 62
     0
 10
2.218779
 20
20.569458
 30
0.0
  0
POINT
  8
DEFPOINTS
  6
BYBLOCK
 62
     0
 10
2.258779
 20
20.569458
 30
0.0
  0
POINT
  8
DEFPOINTS
  6
BYBLOCK
 62
     0
 10
2.258779
 20
20.195958
 30
0.0
  0
ENDBLK
  8
0
  0
BLOCK
  8
0
  2
*D10
 70
    65
 10
0.0
 20
0.0
 30
0.0
  3
*D
  0
LINE
  8
0
  6
BYBLOCK
 62
     0
 10
2.218779
 20
20.474958
 30
0.0
 11
2.218779
 21
19.634958
 31
0.0
  0
LINE
  8
0
  6
BYBLOCK
 62
     0
 10
6.323522
 20
20.474958
 30
0.0
 11
6.323522
 21
19.634958
 31
0.0
  0
LINE
  8
0
  6
BYBLOCK
 62
     0
 10
2.488779
 20
19.774458
 30
0.0
 11
3.890057
 21
19.774458
 31
0.0
  0
LINE
  8
0
  6
BYBLOCK
 62
     0
 10
6.053522
 20
19.774458
 30
0.0
 11
4.652244
 21
19.774458
 31
0.0
  0
SOLID
  8
0
  6
BYBLOCK
 62
     0
 10
2.488779
 20
19.819458
 30
0.0
 11
2.488779
 21
19.729458
 31
0.0
 12
2.218779
 22
19.774458
 32
0.0
 13
2.218779
 23
19.774458
 33
0.0
  0
SOLID
  8
0
  6
BYBLOCK
 62
     0
 10
6.053522
 20
19.819458
 30
0.0
 11
6.053522
 21
19.729458
 31
0.0
 12
6.323522
 22
19.774458
 32
0.0
 13
6.323522
 23
19.774458
 33
0.0
  0
TEXT
  8
0
  6
BYBLOCK
 62
     0
 10
4.025057
 20
19.680708
 30
0.0
 40
0.1875
  1
4.105
 41
0.75
 72
     1
 11
4.27115
 21
19.774458
 31
0.0
 73
     2
  0
POINT
  8
DEFPOINTS
  6
BYBLOCK
 62
     0
 10
2.218779
 20
20.569458
 30
0.0
  0
POINT
  8
DEFPOINTS
  6
BYBLOCK
 62
     0
 10
6.323522
 20
20.569458
 30
0.0
  0
POINT
  8
DEFPOINTS
  6
BYBLOCK
 62
     0
 10
6.323522
 20
19.774458
 30
0.0
  0
ENDBLK
  8
0
  0
BLOCK
  8
0
  2
*D11
 70
    65
 10
0.0
 20
0.0
 30
0.0
  3
*D
  0
LINE
  8
0
  6
BYBLOCK
 62
     0
 10
6.224069
 20
21.693314
 30
0.0
 11
6.227721
 21
21.553861
 31
0.0
  0
LINE
  8
0
  6
BYBLOCK
 62
     0
 10
6.294045
 20
21.695146
 30
0.0
 11
6.297697
 21
21.555694
 31
0.0
  0
LINE
  8
0
  6
BYBLOCK
 62
     0
 10
5.954162
 20
21.686246
 30
0.0
 11
5.684254
 21
21.679178
 31
0.0
  0
LINE
  8
0
  6
BYBLOCK
 62
     0
 10
6.563953
 20
21.702214
 30
0.0
 11
6.83386
 21
21.709282
 31
0.0
  0
SOLID
  8
0
  6
BYBLOCK
 62
     0
 10
5.952984
 20
21.73123
 30
0.0
 11
5.95534
 21
21.641261
 31
0.0
 12
6.224069
 22
21.693314
 32
0.0
 13
6.224069
 23
21.693314
 33
0.0
  0
SOLID
  8
0
  6
BYBLOCK
 62
     0
 10
6.562775
 20
21.747198
 30
0.0
 11
6.565131
 21
21.657229
 31
0.0
 12
6.294045
 22
21.695146
 32
0.0
 13
6.294045
 23
21.695146
 33
0.0
  0
TEXT
  8
0
  6
BYBLOCK
 62
     0
 10
6.96886
 20
21.615532
 30
0.0
 40
0.1875
  1
0.070
 41
0.75
 72
     1
 11
7.214954
 21
21.709282
 31
0.0
 73
     2
  0
POINT
  8
DEFPOINTS
  6
BYBLOCK
 62
     0
 10
6.221595
 20
21.787781
 30
0.0
  0
POINT
  8
DEFPOINTS
  6
BYBLOCK
 62
     0
 10
6.291571
 20
21.789614
 30
0.0
  0
POINT
  8
DEFPOINTS
  6
BYBLOCK
 62
     0
 10
6.294045
 20
21.695146
 30
0.0
  0
ENDBLK
  8
0
  0
BLOCK
  8
0
  2
*D12
 70
    65
 10
0.0
 20
0.0
 30
0.0
  3
*D
  0
LINE
  8
0
  6
BYBLOCK
 62
     0
 10
2.333275
 20
20.719458
 30
0.0
 11
1.420373
 21
20.719458
 31
0.0
  0
LINE
  8
0
  6
BYBLOCK
 62
     0
 10
2.124279
 20
20.569458
 30
0.0
 11
1.420373
 21
20.569458
 31
0.0
  0
LINE
  8
0
  6
BYBLOCK
 62
     0
 10
1.559873
 20
20.989458
 30
0.0
 11
1.559873
 21
21.259458
 31
0.0
  0
LINE
  8
0
  6
BYBLOCK
 62
     0
 10
1.559873
 20
20.299458
 30
0.0
 11
1.559873
 21
20.029458
 31
0.0
  0
LINE
  8
0
  6
BYBLOCK
 62
     0
 10
1.559873
 20
20.029458
 30
0.0
 11
1.289873
 21
20.029458
 31
0.0
  0
SOLID
  8
0
  6
BYBLOCK
 62
     0
 10
1.514873
 20
20.989458
 30
0.0
 11
1.604873
 21
20.989458
 31
0.0
 12
1.559873
 22
20.719458
 32
0.0
 13
1.559873
 23
20.719458
 33
0.0
  0
SOLID
  8
0
  6
BYBLOCK
 62
     0
 10
1.514873
 20
20.299458
 30
0.0
 11
1.604873
 21
20.299458
 31
0.0
 12
1.559873
 22
20.569458
 32
0.0
 13
1.559873
 23
20.569458
 33
0.0
  0
TEXT
  8
0
  6
BYBLOCK
 62
     0
 10
0.686123
 20
19.935708
 30
0.0
 40
0.1875
  1
0.150
 41
0.75
 72
     1
 11
0.920498
 21
20.029458
 31
0.0
 73
     2
  0
POINT
  8
DEFPOINTS
  6
BYBLOCK
 62
     0
 10
2.427775
 20
20.719458
 30
0.0
  0
POINT
  8
DEFPOINTS
  6
BYBLOCK
 62
     0
 10
2.218779
 20
20.569458
 30
0.0
  0
POINT
  8
DEFPOINTS
  6
BYBLOCK
 62
     0
 10
1.559873
 20
20.569458
 30
0.0
  0
ENDBLK
  8
0
  0
BLOCK
  8
0
  2
*D13
 70
    65
 10
0.0
 20
0.0
 30
0.0
  3
*D
  0
LINE
  8
0
  6
BYBLOCK
 62
     0
 10
12.934444
 20
9.443069
 30
0.0
 11
13.54407
 21
9.443069
 31
0.0
  0
LINE
  8
0
  6
BYBLOCK
 62
     0
 10
13.089102
 20
7.443069
 30
0.0
 11
13.54407
 21
7.443069
 31
0.0
  0
LINE
  8
0
  6
BYBLOCK
 62
     0
 10
13.40457
 20
9.173069
 30
0.0
 11
13.40457
 21
8.671819
 31
0.0
  0
LINE
  8
0
  6
BYBLOCK
 62
     0
 10
13.40457
 20
7.713069
 30
0.0
 11
13.40457
 21
8.214319
 31
0.0
  0
SOLID
  8
0
  6
BYBLOCK
 62
     0
 10
13.35957
 20
9.173069
 30
0.0
 11
13.44957
 21
9.173069
 31
0.0
 12
13.40457
 22
9.443069
 32
0.0
 13
13.40457
 23
9.443069
 33
0.0
  0
SOLID
  8
0
  6
BYBLOCK
 62
     0
 10
13.35957
 20
7.713069
 30
0.0
 11
13.44957
 21
7.713069
 31
0.0
 12
13.40457
 22
7.443069
 32
0.0
 13
13.40457
 23
7.443069
 33
0.0
  0
TEXT
  8
0
  6
BYBLOCK
 62
     0
 10
13.158476
 20
8.349319
 30
0.0
 40
0.1875
  1
2.000
 41
0.75
 72
     1
 11
13.40457
 21
8.443069
 31
0.0
 73
     2
  0
POINT
  8
DEFPOINTS
  6
BYBLOCK
 62
     0
 10
12.839944
 20
9.443069
 30
0.0
  0
POINT
  8
DEFPOINTS
  6
BYBLOCK
 62
     0
 10
12.994602
 20
7.443069
 30
0.0
  0
POINT
  8
DEFPOINTS
  6
BYBLOCK
 62
     0
 10
13.40457
 20
7.443069
 30
0.0
  0
ENDBLK
  8
0
  0
BLOCK
  8
0
  2
*D14
 70
    65
 10
0.0
 20
0.0
 30
0.0
  3
*D
  0
LINE
  8
0
  6
BYBLOCK
 62
     0
 10
10.670451
 20
7.393069
 30
0.0
 11
10.251951
 21
7.393069
 31
0.0
  0
LINE
  8
0
  6
BYBLOCK
 62
     0
 10
10.783842
 20
6.823069
 30
0.0
 11
10.251951
 21
6.823069
 31
0.0
  0
LINE
  8
0
  6
BYBLOCK
 62
     0
 10
10.391451
 20
7.663069
 30
0.0
 11
10.391451
 21
7.933069
 31
0.0
  0
LINE
  8
0
  6
BYBLOCK
 62
     0
 10
10.391451
 20
6.553069
 30
0.0
 11
10.391451
 21
6.283069
 31
0.0
  0
SOLID
  8
0
  6
BYBLOCK
 62
     0
 10
10.346451
 20
7.663069
 30
0.0
 11
10.436451
 21
7.663069
 31
0.0
 12
10.391451
 22
7.393069
 32
0.0
 13
10.391451
 23
7.393069
 33
0.0
  0
SOLID
  8
0
  6
BYBLOCK
 62
     0
 10
10.346451
 20
6.553069
 30
0.0
 11
10.436451
 21
6.553069
 31
0.0
 12
10.391451
 22
6.823069
 32
0.0
 13
10.391451
 23
6.823069
 33
0.0
  0
TEXT
  8
0
  6
BYBLOCK
 62
     0
 10
10.133639
 20
7.014319
 30
0.0
 40
0.1875
  1
0.570
 41
0.75
 72
     1
 11
10.391451
 21
7.108069
 31
0.0
 73
     2
  0
POINT
  8
DEFPOINTS
  6
BYBLOCK
 62
     0
 10
10.764951
 20
7.393069
 30
0.0625
  0
POINT
  8
DEFPOINTS
  6
BYBLOCK
 62
     0
 10
10.878342
 20
6.823069
 30
0.0625
  0
POINT
  8
DEFPOINTS
  6
BYBLOCK
 62
     0
 10
10.391451
 20
6.823069
 30
0.0
  0
ENDBLK
  8
0
  0
BLOCK
  8
0
  2
*D15
 70
    65
 10
0.0
 20
0.0
 30
0.0
  3
*D
  0
LINE
  8
0
  6
BYBLOCK
 62
     0
 10
13.006076
 20
6.856841
 30
0.0
 11
13.006076
 21
6.318158
 31
0.0
  0
LINE
  8
0
  6
BYBLOCK
 62
     0
 10
10.753299
 20
6.853569
 30
0.0
 11
10.753299
 21
6.318158
 31
0.0
  0
LINE
  8
0
  6
BYBLOCK
 62
     0
 10
12.736076
 20
6.457658
 30
0.0
 11
12.295937
 21
6.457658
 31
0.0
  0
LINE
  8
0
  6
BYBLOCK
 62
     0
 10
11.023299
 20
6.457658
 30
0.0
 11
11.463437
 21
6.457658
 31
0.0
  0
SOLID
  8
0
  6
BYBLOCK
 62
     0
 10
12.736076
 20
6.502658
 30
0.0
 11
12.736076
 21
6.412658
 31
0.0
 12
13.006076
 22
6.457658
 32
0.0
 13
13.006076
 23
6.457658
 33
0.0
  0
SOLID
  8
0
  6
BYBLOCK
 62
     0
 10
11.023299
 20
6.502658
 30
0.0
 11
11.023299
 21
6.412658
 31
0.0
 12
10.753299
 22
6.457658
 32
0.0
 13
10.753299
 23
6.457658
 33
0.0
  0
TEXT
  8
0
  6
BYBLOCK
 62
     0
 10
11.598437
 20
6.363908
 30
0.0
 40
0.1875
  1
2.253
 41
0.75
 72
     1
 11
11.879687
 21
6.457658
 31
0.0
 73
     2
  0
POINT
  8
DEFPOINTS
  6
BYBLOCK
 62
     0
 10
13.006076
 20
6.951341
 30
0.0625
  0
POINT
  8
DEFPOINTS
  6
BYBLOCK
 62
     0
 10
10.753299
 20
6.948069
 30
0.0625
  0
POINT
  8
DEFPOINTS
  6
BYBLOCK
 62
     0
 10
10.753299
 20
6.457658
 30
-0.0625
  0
ENDBLK
  8
0
  0
BLOCK
  8
0
  2
*D16
 70
    65
 10
0.0
 20
0.0
 30
0.0
  3
*D
  0
LINE
  8
0
  6
BYBLOCK
 62
     0
 10
10.81723
 20
9.537569
 30
0.0
 11
10.81723
 21
9.894122
 31
0.0
  0
LINE
  8
0
  6
BYBLOCK
 62
     0
 10
12.94223
 20
9.537569
 30
0.0
 11
12.94223
 21
9.894122
 31
0.0
  0
LINE
  8
0
  6
BYBLOCK
 62
     0
 10
11.08723
 20
9.754622
 30
0.0
 11
11.486918
 21
9.754622
 31
0.0
  0
LINE
  8
0
  6
BYBLOCK
 62
     0
 10
12.67223
 20
9.754622
 30
0.0
 11
12.272543
 21
9.754622
 31
0.0
  0
SOLID
  8
0
  6
BYBLOCK
 62
     0
 10
11.08723
 20
9.799622
 30
0.0
 11
11.08723
 21
9.709622
 31
0.0
 12
10.81723
 22
9.754622
 32
0.0
 13
10.81723
 23
9.754622
 33
0.0
  0
SOLID
  8
0
  6
BYBLOCK
 62
     0
 10
12.67223
 20
9.799622
 30
0.0
 11
12.67223
 21
9.709622
 31
0.0
 12
12.94223
 22
9.754622
 32
0.0
 13
12.94223
 23
9.754622
 33
0.0
  0
TEXT
  8
0
  6
BYBLOCK
 62
     0
 10
11.621918
 20
9.660872
 30
0.0
 40
0.1875
  1
2.125
 41
0.75
 72
     1
 11
11.87973
 21
9.754622
 31
0.0
 73
     2
  0
POINT
  8
DEFPOINTS
  6
BYBLOCK
 62
     0
 10
10.81723
 20
9.443069
 30
0.0
  0
POINT
  8
DEFPOINTS
  6
BYBLOCK
 62
     0
 10
12.94223
 20
9.443069
 30
0.0
  0
POINT
  8
DEFPOINTS
  6
BYBLOCK
 62
     0
 10
12.94223
 20
9.754622
 30
0.0
  0
ENDBLK
  8
0
  0
BLOCK
  8
0
  2
*D17
 70
    65
 10
0.0
 20
0.0
 30
0.0
  3
*D
  0
LINE
  8
0
  6
BYBLOCK
 62
     0
 10
15.400483
 20
9.550987
 30
0.0
 11
15.400483
 21
8.613104
 31
0.0
  0
LINE
  8
0
  6
BYBLOCK
 62
     0
 10
18.302483
 20
9.550987
 30
0.0
 11
18.302483
 21
8.613104
 31
0.0
  0
LINE
  8
0
  6
BYBLOCK
 62
     0
 10
15.670483
 20
8.752604
 30
0.0
 11
16.446951
 21
8.752604
 31
0.0
  0
LINE
  8
0
  6
BYBLOCK
 62
     0
 10
18.032483
 20
8.752604
 30
0.0
 11
17.256014
 21
8.752604
 31
0.0
  0
SOLID
  8
0
  6
BYBLOCK
 62
     0
 10
15.670483
 20
8.797604
 30
0.0
 11
15.670483
 21
8.707604
 31
0.0
 12
15.400483
 22
8.752604
 32
0.0
 13
15.400483
 23
8.752604
 33
0.0
  0
SOLID
  8
0
  6
BYBLOCK
 62
     0
 10
18.032483
 20
8.797604
 30
0.0
 11
18.032483
 21
8.707604
 31
0.0
 12
18.302483
 22
8.752604
 32
0.0
 13
18.302483
 23
8.752604
 33
0.0
  0
TEXT
  8
0
  6
BYBLOCK
 62
     0
 10
16.581951
 20
8.658854
 30
0.0
 40
0.1875
  1
2.902
 41
0.75
 72
     1
 11
16.851483
 21
8.752604
 31
0.0
 73
     2
  0
POINT
  8
DEFPOINTS
  6
BYBLOCK
 62
     0
 10
15.400483
 20
9.645487
 30
0.0
  0
POINT
  8
DEFPOINTS
  6
BYBLOCK
 62
     0
 10
18.302483
 20
9.645487
 30
0.0
  0
POINT
  8
DEFPOINTS
  6
BYBLOCK
 62
     0
 10
18.302483
 20
8.752604
 30
0.0
  0
ENDBLK
  8
0
  0
BLOCK
  8
0
  2
*D19
 70
    65
 10
0.0
 20
0.0
 30
0.0
  3
*D
  0
LINE
  8
0
  6
BYBLOCK
 62
     0
 10
10.817027
 20
9.435285
 30
0.0
 11
10.840678
 21
10.338495
 31
0.0
  0
LINE
  8
0
  6
BYBLOCK
 62
     0
 10
10.753299
 20
7.487569
 30
0.0
 11
10.753299
 21
10.339639
 31
0.0
  0
ARC
  8
0
  6
BYBLOCK
 62
     0
 10
10.753299
 20
7.001619
 30
0.0
 40
3.19852
 50
78.823989
 51
83.661994
  0
ARC
  8
0
  6
BYBLOCK
 62
     0
 10
10.753299
 20
7.001619
 30
0.0
 40
3.19852
 50
94.838006
 51
99.676011
  0
SOLID
  8
0
  6
BYBLOCK
 62
     0
 10
11.103319
 20
10.135695
 30
0.0
 11
11.10947
 21
10.225484
 31
0.0
 12
10.837026
 22
10.199043
 32
0.0
 13
10.837026
 23
10.199043
 33
0.0
  0
SOLID
  8
0
  6
BYBLOCK
 62
     0
 10
10.48164
 20
10.233703
 30
0.0
 11
10.485439
 21
10.143783
 31
0.0
 12
10.753299
 22
10.200139
 32
0.0
 13
10.753299
 23
10.200139
 33
0.0
  0
TEXT
  8
0
  6
BYBLOCK
 62
     0
 10
11.993188
 20
10.045328
 30
0.0
 40
0.1875
  1
 REF.
 41
0.75
 72
     1
 11
12.274438
 21
10.139078
 31
0.0
 73
     2
  0
TEXT
  8
0
  6
BYBLOCK
 62
     0
 10
11.477563
 20
10.045328
 30
0.0
 40
0.1875
  1
1%%d30'
 41
0.75
 72
     1
 11
11.711938
 21
10.139078
 31
0.0
 73
     2
  0
POINT
  8
DEFPOINTS
  6
BYBLOCK
 62
     0
 10
10.802486
 20
10.199761
 30
0.0
  0
POINT
  8
DEFPOINTS
  6
BYBLOCK
 62
     0
 10
10.753299
 20
6.853569
 30
0.0
  0
POINT
  8
DEFPOINTS
  6
BYBLOCK
 62
     0
 10
10.814553
 20
9.340818
 30
0.0
  0
POINT
  8
DEFPOINTS
  6
BYBLOCK
 62
     0
 10
10.764858
 20
7.443069
 30
0.0
  0
POINT
  8
DEFPOINTS
  6
BYBLOCK
 62
     0
 10
10.753299
 20
7.393069
 30
0.0
  0
ENDBLK
  8
0
  0
BLOCK
  8
0
  2
*D20
 70
    65
 10
0.0
 20
0.0
 30
0.0
  3
*D
  0
LINE
  8
0
  6
BYBLOCK
 62
     0
 10
14.740068
 20
22.596334
 30
0.0
 11
14.417508
 21
22.596334
 31
0.0
  0
LINE
  8
0
  6
BYBLOCK
 62
     0
 10
14.805983
 20
22.471334
 30
0.0
 11
14.417508
 21
22.471334
 31
0.0
  0
LINE
  8
0
  6
BYBLOCK
 62
     0
 10
14.557008
 20
22.866334
 30
0.0
 11
14.557008
 21
23.136334
 31
0.0
  0
LINE
  8
0
  6
BYBLOCK
 62
     0
 10
14.557008
 20
22.201334
 30
0.0
 11
14.557008
 21
21.931334
 31
0.0
  0
LINE
  8
0
  6
BYBLOCK
 62
     0
 10
14.557008
 20
21.931334
 30
0.0
 11
14.287008
 21
21.931334
 31
0.0
  0
SOLID
  8
0
  6
BYBLOCK
 62
     0
 10
14.512008
 20
22.866334
 30
0.0
 11
14.602008
 21
22.866334
 31
0.0
 12
14.557008
 22
22.596334
 32
0.0
 13
14.557008
 23
22.596334
 33
0.0
  0
SOLID
  8
0
  6
BYBLOCK
 62
     0
 10
14.512008
 20
22.201334
 30
0.0
 11
14.602008
 21
22.201334
 31
0.0
 12
14.557008
 22
22.471334
 32
0.0
 13
14.557008
 23
22.471334
 33
0.0
  0
TEXT
  8
0
  6
BYBLOCK
 62
     0
 10
13.659821
 20
21.837584
 30
0.0
 40
0.1875
  1
0.125
 41
0.75
 72
     1
 11
13.905915
 21
21.931334
 31
0.0
 73
     2
  0
POINT
  8
DEFPOINTS
  6
BYBLOCK
 62
     0
 10
14.834568
 20
22.596334
 30
0.0625
  0
POINT
  8
DEFPOINTS
  6
BYBLOCK
 62
     0
 10
14.900483
 20
22.471334
 30
0.0625
  0
POINT
  8
DEFPOINTS
  6
BYBLOCK
 62
     0
 10
14.557008
 20
22.471334
 30
0.0
  0
ENDBLK
  8
0
  0
BLOCK
  8
0
  2
*D21
 70
    65
 10
0.0
 20
0.0
 30
0.0
  3
*D
  0
LINE
  8
0
  6
BYBLOCK
 62
     0
 10
14.842005
 20
20.207989
 30
0.0
 11
14.842005
 21
21.681019
 31
0.0
  0
LINE
  8
0
  6
BYBLOCK
 62
     0
 10
19.717005
 20
20.207989
 30
0.0
 11
19.717005
 21
21.681019
 31
0.0
  0
LINE
  8
0
  6
BYBLOCK
 62
     0
 10
15.112005
 20
21.541519
 30
0.0
 11
16.863255
 21
21.541519
 31
0.0
  0
LINE
  8
0
  6
BYBLOCK
 62
     0
 10
19.447005
 20
21.541519
 30
0.0
 11
17.695755
 21
21.541519
 31
0.0
  0
SOLID
  8
0
  6
BYBLOCK
 62
     0
 10
15.112005
 20
21.586519
 30
0.0
 11
15.112005
 21
21.496519
 31
0.0
 12
14.842005
 22
21.541519
 32
0.0
 13
14.842005
 23
21.541519
 33
0.0
  0
SOLID
  8
0
  6
BYBLOCK
 62
     0
 10
19.447005
 20
21.586519
 30
0.0
 11
19.447005
 21
21.496519
 31
0.0
 12
19.717005
 22
21.541519
 32
0.0
 13
19.717005
 23
21.541519
 33
0.0
  0
TEXT
  8
0
  6
BYBLOCK
 62
     0
 10
16.998255
 20
21.447769
 30
0.0
 40
0.1875
  1
4.875
 41
0.75
 72
     1
 11
17.279505
 21
21.541519
 31
0.0
 73
     2
  0
POINT
  8
DEFPOINTS
  6
BYBLOCK
 62
     0
 10
14.842005
 20
20.113489
 30
0.0625
  0
POINT
  8
DEFPOINTS
  6
BYBLOCK
 62
     0
 10
19.717005
 20
20.113489
 30
0.0625
  0
POINT
  8
DEFPOINTS
  6
BYBLOCK
 62
     0
 10
19.717005
 20
21.541519
 30
0.0
  0
ENDBLK
  8
0
  0
BLOCK
  8
0
  2
*D22
 70
    65
 10
0.0
 20
0.0
 30
0.0
  3
*D
  0
LINE
  8
0
  6
BYBLOCK
 62
     0
 10
15.227226
 20
23.135834
 30
0.0
 11
15.227226
 21
23.659415
 31
0.0
  0
LINE
  8
0
  6
BYBLOCK
 62
     0
 10
19.331784
 20
23.135834
 30
0.0
 11
19.331784
 21
23.659415
 31
0.0
  0
LINE
  8
0
  6
BYBLOCK
 62
     0
 10
15.497226
 20
23.519915
 30
0.0
 11
16.898411
 21
23.519915
 31
0.0
  0
LINE
  8
0
  6
BYBLOCK
 62
     0
 10
19.061784
 20
23.519915
 30
0.0
 11
17.660599
 21
23.519915
 31
0.0
  0
SOLID
  8
0
  6
BYBLOCK
 62
     0
 10
15.497226
 20
23.564915
 30
0.0
 11
15.497226
 21
23.474915
 31
0.0
 12
15.227226
 22
23.519915
 32
0.0
 13
15.227226
 23
23.519915
 33
0.0
  0
SOLID
  8
0
  6
BYBLOCK
 62
     0
 10
19.061784
 20
23.564915
 30
0.0
 11
19.061784
 21
23.474915
 31
0.0
 12
19.331784
 22
23.519915
 32
0.0
 13
19.331784
 23
23.519915
 33
0.0
  0
TEXT
  8
0
  6
BYBLOCK
 62
     0
 10
17.033411
 20
23.426165
 30
0.0
 40
0.1875
  1
4.105
 41
0.75
 72
     1
 11
17.279505
 21
23.519915
 31
0.0
 73
     2
  0
POINT
  8
DEFPOINTS
  6
BYBLOCK
 62
     0
 10
15.227226
 20
23.041334
 30
0.0625
  0
POINT
  8
DEFPOINTS
  6
BYBLOCK
 62
     0
 10
19.331784
 20
23.041334
 30
0.0625
  0
POINT
  8
DEFPOINTS
  6
BYBLOCK
 62
     0
 10
19.331784
 20
23.519915
 30
0.0625
  0
ENDBLK
  8
0
  0
BLOCK
  8
0
  2
*D23
 70
    65
 10
0.0
 20
0.0
 30
0.0
  3
*D
  0
LINE
  8
0
  6
BYBLOCK
 62
     0
 10
16.84255
 20
22.564334
 30
0.0
 11
16.95055
 21
22.564334
 31
0.0
  0
LINE
  8
0
  6
BYBLOCK
 62
     0
 10
16.828291
 20
22.471334
 30
0.0
 11
16.95055
 21
22.471334
 31
0.0
  0
LINE
  8
0
  6
BYBLOCK
 62
     0
 10
16.81105
 20
22.834334
 30
0.0
 11
16.81105
 21
23.104334
 31
0.0
  0
LINE
  8
0
  6
BYBLOCK
 62
     0
 10
16.81105
 20
22.201334
 30
0.0
 11
16.81105
 21
21.931334
 31
0.0
  0
LINE
  8
0
  6
BYBLOCK
 62
     0
 10
16.81105
 20
21.931334
 30
0.0
 11
16.54105
 21
21.931334
 31
0.0
  0
SOLID
  8
0
  6
BYBLOCK
 62
     0
 10
16.76605
 20
22.834334
 30
0.0
 11
16.85605
 21
22.834334
 31
0.0
 12
16.81105
 22
22.564334
 32
0.0
 13
16.81105
 23
22.564334
 33
0.0
  0
SOLID
  8
0
  6
BYBLOCK
 62
     0
 10
16.76605
 20
22.201334
 30
0.0
 11
16.85605
 21
22.201334
 31
0.0
 12
16.81105
 22
22.471334
 32
0.0
 13
16.81105
 23
22.471334
 33
0.0
  0
TEXT
  8
0
  6
BYBLOCK
 62
     0
 10
15.890425
 20
21.837584
 30
0.0
 40
0.1875
  1
0.093
 41
0.75
 72
     1
 11
16.148237
 21
21.931334
 31
0.0
 73
     2
  0
POINT
  8
DEFPOINTS
  6
BYBLOCK
 62
     0
 10
16.74805
 20
22.564334
 30
0.0625
  0
POINT
  8
DEFPOINTS
  6
BYBLOCK
 62
     0
 10
16.733791
 20
22.471334
 30
0.0625
  0
POINT
  8
DEFPOINTS
  6
BYBLOCK
 62
     0
 10
16.81105
 20
22.471334
 30
0.0
  0
ENDBLK
  8
0
  0
BLOCK
  8
0
  2
*D24
 70
    65
 10
0.0
 20
0.0
 30
0.0
  3
*D
  0
LINE
  8
0
  6
BYBLOCK
 62
     0
 10
15.029505
 20
20.018989
 30
0.0
 11
15.029505
 21
18.131775
 31
0.0
  0
LINE
  8
0
  6
BYBLOCK
 62
     0
 10
19.529505
 20
20.018989
 30
0.0
 11
19.529505
 21
18.131775
 31
0.0
  0
LINE
  8
0
  6
BYBLOCK
 62
     0
 10
15.299505
 20
18.271275
 30
0.0
 11
16.886693
 21
18.271275
 31
0.0
  0
LINE
  8
0
  6
BYBLOCK
 62
     0
 10
19.259505
 20
18.271275
 30
0.0
 11
17.672318
 21
18.271275
 31
0.0
  0
SOLID
  8
0
  6
BYBLOCK
 62
     0
 10
15.299505
 20
18.316275
 30
0.0
 11
15.299505
 21
18.226275
 31
0.0
 12
15.029505
 22
18.271275
 32
0.0
 13
15.029505
 23
18.271275
 33
0.0
  0
SOLID
  8
0
  6
BYBLOCK
 62
     0
 10
19.259505
 20
18.316275
 30
0.0
 11
19.259505
 21
18.226275
 31
0.0
 12
19.529505
 22
18.271275
 32
0.0
 13
19.529505
 23
18.271275
 33
0.0
  0
TEXT
  8
0
  6
BYBLOCK
 62
     0
 10
17.021693
 20
18.177525
 30
0.0
 40
0.1875
  1
4.500
 41
0.75
 72
     1
 11
17.279505
 21
18.271275
 31
0.0
 73
     2
  0
POINT
  8
DEFPOINTS
  6
BYBLOCK
 62
     0
 10
15.029505
 20
20.113489
 30
0.0
  0
POINT
  8
DEFPOINTS
  6
BYBLOCK
 62
     0
 10
19.529505
 20
20.113489
 30
0.0
  0
POINT
  8
DEFPOINTS
  6
BYBLOCK
 62
     0
 10
19.529505
 20
18.271275
 30
0.0
  0
ENDBLK
  8
0
  0
BLOCK
  8
0
  2
*D25
 70
    65
 10
0.0
 20
0.0
 30
0.0
  3
*D
  0
LINE
  8
0
  6
BYBLOCK
 62
     0
 10
15.545005
 20
19.221989
 30
0.0
 11
15.545005
 21
18.553275
 31
0.0
  0
LINE
  8
0
  6
BYBLOCK
 62
     0
 10
19.014005
 20
19.221989
 30
0.0
 11
19.014005
 21
18.553275
 31
0.0
  0
LINE
  8
0
  6
BYBLOCK
 62
     0
 10
15.815005
 20
18.692775
 30
0.0
 11
16.863255
 21
18.692775
 31
0.0
  0
LINE
  8
0
  6
BYBLOCK
 62
     0
 10
18.744005
 20
18.692775
 30
0.0
 11
17.695755
 21
18.692775
 31
0.0
  0
SOLID
  8
0
  6
BYBLOCK
 62
     0
 10
15.815005
 20
18.737775
 30
0.0
 11
15.815005
 21
18.647775
 31
0.0
 12
15.545005
 22
18.692775
 32
0.0
 13
15.545005
 23
18.692775
 33
0.0
  0
SOLID
  8
0
  6
BYBLOCK
 62
     0
 10
18.744005
 20
18.737775
 30
0.0
 11
18.744005
 21
18.647775
 31
0.0
 12
19.014005
 22
18.692775
 32
0.0
 13
19.014005
 23
18.692775
 33
0.0
  0
TEXT
  8
0
  6
BYBLOCK
 62
     0
 10
16.998255
 20
18.599025
 30
0.0
 40
0.1875
  1
3.469
 41
0.75
 72
     1
 11
17.279505
 21
18.692775
 31
0.0
 73
     2
  0
POINT
  8
DEFPOINTS
  6
BYBLOCK
 62
     0
 10
15.545005
 20
19.316489
 30
0.0
  0
POINT
  8
DEFPOINTS
  6
BYBLOCK
 62
     0
 10
19.014005
 20
19.316489
 30
0.0
  0
POINT
  8
DEFPOINTS
  6
BYBLOCK
 62
     0
 10
19.014005
 20
18.692775
 30
0.0
  0
ENDBLK
  8
0
  0
BLOCK
  8
0
  2
*D26
 70
    65
 10
0.0
 20
0.0
 30
0.0
  3
*D
  0
LINE
  8
0
  6
BYBLOCK
 62
     0
 10
15.029505
 20
20.018989
 30
0.0
 11
15.029505
 21
18.131775
 31
0.0
  0
LINE
  8
0
  6
BYBLOCK
 62
     0
 10
14.842005
 20
20.018989
 30
0.0
 11
14.842005
 21
18.131775
 31
0.0
  0
LINE
  8
0
  6
BYBLOCK
 62
     0
 10
15.299505
 20
18.271275
 30
0.0
 11
15.569505
 21
18.271275
 31
0.0
  0
LINE
  8
0
  6
BYBLOCK
 62
     0
 10
14.572005
 20
18.271275
 30
0.0
 11
14.302005
 21
18.271275
 31
0.0
  0
SOLID
  8
0
  6
BYBLOCK
 62
     0
 10
15.299505
 20
18.316275
 30
0.0
 11
15.299505
 21
18.226275
 31
0.0
 12
15.029505
 22
18.271275
 32
0.0
 13
15.029505
 23
18.271275
 33
0.0
  0
SOLID
  8
0
  6
BYBLOCK
 62
     0
 10
14.572005
 20
18.316275
 30
0.0
 11
14.572005
 21
18.226275
 31
0.0
 12
14.842005
 22
18.271275
 32
0.0
 13
14.842005
 23
18.271275
 33
0.0
  0
TEXT
  8
0
  6
BYBLOCK
 62
     0
 10
13.674818
 20
18.177525
 30
0.0
 40
0.1875
  1
0.187
 41
0.75
 72
     1
 11
13.920911
 21
18.271275
 31
0.0
 73
     2
  0
POINT
  8
DEFPOINTS
  6
BYBLOCK
 62
     0
 10
15.029505
 20
20.113489
 30
0.0
  0
POINT
  8
DEFPOINTS
  6
BYBLOCK
 62
     0
 10
14.842005
 20
20.113489
 30
0.0
  0
POINT
  8
DEFPOINTS
  6
BYBLOCK
 62
     0
 10
14.842005
 20
18.271275
 30
0.0
  0
ENDBLK
  8
0
  0
BLOCK
  8
0
  2
*D27
 70
    65
 10
0.0
 20
0.0
 30
0.0
  3
*D
  0
LINE
  8
0
  6
BYBLOCK
 62
     0
 10
15.225622
 20
21.240372
 30
0.0
 11
14.26559
 21
21.240372
 31
0.0
  0
LINE
  8
0
  6
BYBLOCK
 62
     0
 10
14.935005
 20
20.113489
 30
0.0
 11
14.26559
 21
20.113489
 31
0.0
  0
LINE
  8
0
  6
BYBLOCK
 62
     0
 10
14.40509
 20
21.510372
 30
0.0
 11
14.40509
 21
21.780372
 31
0.0
  0
LINE
  8
0
  6
BYBLOCK
 62
     0
 10
14.40509
 20
19.843489
 30
0.0
 11
14.40509
 21
19.573489
 31
0.0
  0
SOLID
  8
0
  6
BYBLOCK
 62
     0
 10
14.36009
 20
21.510372
 30
0.0
 11
14.45009
 21
21.510372
 31
0.0
 12
14.40509
 22
21.240372
 32
0.0
 13
14.40509
 23
21.240372
 33
0.0
  0
SOLID
  8
0
  6
BYBLOCK
 62
     0
 10
14.36009
 20
19.843489
 30
0.0
 11
14.45009
 21
19.843489
 31
0.0
 12
14.40509
 22
20.113489
 32
0.0
 13
14.40509
 23
20.113489
 33
0.0
  0
TEXT
  8
0
  6
BYBLOCK
 62
     0
 10
14.170715
 20
20.583181
 30
0.0
 40
0.1875
  1
1.127
 41
0.75
 72
     1
 11
14.40509
 21
20.676931
 31
0.0
 73
     2
  0
POINT
  8
DEFPOINTS
  6
BYBLOCK
 62
     0
 10
15.320122
 20
21.240372
 30
0.0
  0
POINT
  8
DEFPOINTS
  6
BYBLOCK
 62
     0
 10
15.029505
 20
20.113489
 30
0.0
  0
POINT
  8
DEFPOINTS
  6
BYBLOCK
 62
     0
 10
14.40509
 20
20.113489
 30
0.0
  0
ENDBLK
  8
0
  0
BLOCK
  8
0
  2
*D28
 70
    65
 10
0.0
 20
0.0
 30
0.0
  3
*D
  0
LINE
  8
0
  6
BYBLOCK
 62
     0
 10
18.545963
 20
22.791334
 30
0.0
 11
18.342985
 21
22.791334
 31
0.0
  0
LINE
  8
0
  6
BYBLOCK
 62
     0
 10
18.543985
 20
22.56472
 30
0.0
 11
18.342985
 21
22.56472
 31
0.0
  0
LINE
  8
0
  6
BYBLOCK
 62
     0
 10
18.482485
 20
23.061334
 30
0.0
 11
18.482485
 21
23.331334
 31
0.0
  0
LINE
  8
0
  6
BYBLOCK
 62
     0
 10
18.482485
 20
22.29472
 30
0.0
 11
18.482485
 21
22.02472
 31
0.0
  0
LINE
  8
0
  6
BYBLOCK
 62
     0
 10
18.482485
 20
22.02472
 30
0.0
 11
18.212485
 21
22.02472
 31
0.0
  0
SOLID
  8
0
  6
BYBLOCK
 62
     0
 10
18.437485
 20
23.061334
 30
0.0
 11
18.527485
 21
23.061334
 31
0.0
 12
18.482485
 22
22.791334
 32
0.0
 13
18.482485
 23
22.791334
 33
0.0
  0
SOLID
  8
0
  6
BYBLOCK
 62
     0
 10
18.437485
 20
22.29472
 30
0.0
 11
18.527485
 21
22.29472
 31
0.0
 12
18.482485
 22
22.56472
 32
0.0
 13
18.482485
 23
22.56472
 33
0.0
  0
TEXT
  8
0
  6
BYBLOCK
 62
     0
 10
17.538423
 20
21.93097
 30
0.0
 40
0.1875
  1
0.227
 41
0.75
 72
     1
 11
17.807954
 21
22.02472
 31
0.0
 73
     2
  0
POINT
  8
DEFPOINTS
  6
BYBLOCK
 62
     0
 10
18.640463
 20
22.791334
 30
0.0
  0
POINT
  8
DEFPOINTS
  6
BYBLOCK
 62
     0
 10
18.638485
 20
22.56472
 30
0.0
  0
POINT
  8
DEFPOINTS
  6
BYBLOCK
 62
     0
 10
18.482485
 20
22.56472
 30
0.0
  0
ENDBLK
  8
0
  0
BLOCK
  8
0
  2
*D30
 70
    65
 10
0.0
 20
0.0
 30
0.0
  3
*D
  0
LINE
  8
0
  6
BYBLOCK
 62
     0
 10
19.108505
 20
20.910489
 30
0.0
 11
20.412211
 21
20.910489
 31
0.0
  0
LINE
  8
0
  6
BYBLOCK
 62
     0
 10
19.108505
 20
19.316489
 30
0.0
 11
20.412211
 21
19.316489
 31
0.0
  0
LINE
  8
0
  6
BYBLOCK
 62
     0
 10
20.272711
 20
20.640489
 30
0.0
 11
20.272711
 21
20.342239
 31
0.0
  0
LINE
  8
0
  6
BYBLOCK
 62
     0
 10
20.272711
 20
19.586489
 30
0.0
 11
20.272711
 21
19.884739
 31
0.0
  0
SOLID
  8
0
  6
BYBLOCK
 62
     0
 10
20.227711
 20
20.640489
 30
0.0
 11
20.317711
 21
20.640489
 31
0.0
 12
20.272711
 22
20.910489
 32
0.0
 13
20.272711
 23
20.910489
 33
0.0
  0
SOLID
  8
0
  6
BYBLOCK
 62
     0
 10
20.227711
 20
19.586489
 30
0.0
 11
20.317711
 21
19.586489
 31
0.0
 12
20.272711
 22
19.316489
 32
0.0
 13
20.272711
 23
19.316489
 33
0.0
  0
TEXT
  8
0
  6
BYBLOCK
 62
     0
 10
20.014899
 20
20.019739
 30
0.0
 40
0.1875
  1
1.594
 41
0.75
 72
     1
 11
20.272711
 21
20.113489
 31
0.0
 73
     2
  0
POINT
  8
DEFPOINTS
  6
BYBLOCK
 62
     0
 10
19.014005
 20
20.910489
 30
0.0
  0
POINT
  8
DEFPOINTS
  6
BYBLOCK
 62
     0
 10
19.014005
 20
19.316489
 30
0.0
  0
POINT
  8
DEFPOINTS
  6
BYBLOCK
 62
     0
 10
20.272711
 20
19.316489
 30
0.0
  0
ENDBLK
  8
0
  0
BLOCK
  8
0
  2
*D31
 70
    65
 10
0.0
 20
0.0
 30
0.0
  3
*D
  0
LINE
  8
0
  6
BYBLOCK
 62
     0
 10
15.132726
 20
23.041334
 30
0.0
 11
13.996008
 21
23.041334
 31
0.0
  0
LINE
  8
0
  6
BYBLOCK
 62
     0
 10
15.176156
 20
23.131334
 30
0.0
 11
13.996008
 21
23.131334
 31
0.0
  0
LINE
  8
0
  6
BYBLOCK
 62
     0
 10
14.135508
 20
22.771334
 30
0.0
 11
14.135508
 21
22.501334
 31
0.0
  0
LINE
  8
0
  6
BYBLOCK
 62
     0
 10
14.135508
 20
23.401334
 30
0.0
 11
14.135508
 21
23.671334
 31
0.0
  0
LINE
  8
0
  6
BYBLOCK
 62
     0
 10
14.135508
 20
23.671334
 30
0.0
 11
14.405508
 21
23.671334
 31
0.0
  0
SOLID
  8
0
  6
BYBLOCK
 62
     0
 10
14.090508
 20
22.771334
 30
0.0
 11
14.180508
 21
22.771334
 31
0.0
 12
14.135508
 22
23.041334
 32
0.0
 13
14.135508
 23
23.041334
 33
0.0
  0
SOLID
  8
0
  6
BYBLOCK
 62
     0
 10
14.090508
 20
23.401334
 30
0.0
 11
14.180508
 21
23.401334
 31
0.0
 12
14.135508
 22
23.131334
 32
0.0
 13
14.135508
 23
23.131334
 33
0.0
  0
TEXT
  8
0
  6
BYBLOCK
 62
     0
 10
14.540508
 20
23.577584
 30
0.0
 40
0.1875
  1
0.090
 41
0.75
 72
     1
 11
14.786602
 21
23.671334
 31
0.0
 73
     2
  0
POINT
  8
DEFPOINTS
  6
BYBLOCK
 62
     0
 10
15.227226
 20
23.041334
 30
0.0625
  0
POINT
  8
DEFPOINTS
  6
BYBLOCK
 62
     0
 10
15.270656
 20
23.131334
 30
0.0625
  0
POINT
  8
DEFPOINTS
  6
BYBLOCK
 62
     0
 10
14.135508
 20
23.131334
 30
0.0
  0
ENDBLK
  8
0
  0
BLOCK
  8
0
  2
*D32
 70
    65
 10
0.0
 20
0.0
 30
0.0
  3
*D
  0
LINE
  8
0
  6
BYBLOCK
 62
     0
 10
15.716873
 20
10.179778
 30
0.0
 11
14.248458
 21
10.179778
 31
0.0
  0
LINE
  8
0
  6
BYBLOCK
 62
     0
 10
15.716873
 20
9.153778
 30
0.0
 11
14.248458
 21
9.153778
 31
0.0
  0
LINE
  8
0
  6
BYBLOCK
 62
     0
 10
14.387958
 20
10.449778
 30
0.0
 11
14.387958
 21
10.719778
 31
0.0
  0
LINE
  8
0
  6
BYBLOCK
 62
     0
 10
14.387958
 20
8.883778
 30
0.0
 11
14.387958
 21
8.613778
 31
0.0
  0
SOLID
  8
0
  6
BYBLOCK
 62
     0
 10
14.342958
 20
10.449778
 30
0.0
 11
14.432958
 21
10.449778
 31
0.0
 12
14.387958
 22
10.179778
 32
0.0
 13
14.387958
 23
10.179778
 33
0.0
  0
SOLID
  8
0
  6
BYBLOCK
 62
     0
 10
14.342958
 20
8.883778
 30
0.0
 11
14.432958
 21
8.883778
 31
0.0
 12
14.387958
 22
9.153778
 32
0.0
 13
14.387958
 23
9.153778
 33
0.0
  0
TEXT
  8
0
  6
BYBLOCK
 62
     0
 10
14.141864
 20
9.573028
 30
0.0
 40
0.1875
  1
1.026
 41
0.75
 72
     1
 11
14.387958
 21
9.666778
 31
0.0
 73
     2
  0
POINT
  8
DEFPOINTS
  6
BYBLOCK
 62
     0
 10
15.811373
 20
10.179778
 30
0.0
  0
POINT
  8
DEFPOINTS
  6
BYBLOCK
 62
     0
 10
15.811373
 20
9.153778
 30
0.0
  0
POINT
  8
DEFPOINTS
  6
BYBLOCK
 62
     0
 10
14.387958
 20
9.153778
 30
0.0
  0
ENDBLK
  8
0
  0
BLOCK
  8
0
  2
*D33
 70
    65
 10
0.0
 20
0.0
 30
0.0
  3
*D
  0
LINE
  8
0
  6
BYBLOCK
 62
     0
 10
19.197804
 20
6.052454
 30
0.0
 11
20.255579
 21
6.052454
 31
0.0
  0
LINE
  8
0
  6
BYBLOCK
 62
     0
 10
19.728457
 20
5.312454
 30
0.0
 11
20.255579
 21
5.312454
 31
0.0
  0
LINE
  8
0
  6
BYBLOCK
 62
     0
 10
20.116079
 20
6.322454
 30
0.0
 11
20.116079
 21
6.592454
 31
0.0
  0
LINE
  8
0
  6
BYBLOCK
 62
     0
 10
20.116079
 20
5.042454
 30
0.0
 11
20.116079
 21
4.772454
 31
0.0
  0
SOLID
  8
0
  6
BYBLOCK
 62
     0
 10
20.071079
 20
6.322454
 30
0.0
 11
20.161079
 21
6.322454
 31
0.0
 12
20.116079
 22
6.052454
 32
0.0
 13
20.116079
 23
6.052454
 33
0.0
  0
SOLID
  8
0
  6
BYBLOCK
 62
     0
 10
20.071079
 20
5.042454
 30
0.0
 11
20.161079
 21
5.042454
 31
0.0
 12
20.116079
 22
5.312454
 32
0.0
 13
20.116079
 23
5.312454
 33
0.0
  0
TEXT
  8
0
  6
BYBLOCK
 62
     0
 10
19.858267
 20
5.588704
 30
0.0
 40
0.1875
  1
0.740
 41
0.75
 72
     1
 11
20.116079
 21
5.682454
 31
0.0
 73
     2
  0
POINT
  8
DEFPOINTS
  6
BYBLOCK
 62
     0
 10
19.103304
 20
6.052454
 30
0.0
  0
POINT
  8
DEFPOINTS
  6
BYBLOCK
 62
     0
 10
19.633957
 20
5.312454
 30
0.0
  0
POINT
  8
DEFPOINTS
  6
BYBLOCK
 62
     0
 10
20.116079
 20
5.312454
 30
0.0
  0
ENDBLK
  8
0
  0
BLOCK
  8
0
  2
*D34
 70
    65
 10
0.0
 20
0.0
 30
0.0
  3
*D
  0
LINE
  8
0
  6
BYBLOCK
 62
     0
 10
10.783842
 20
5.342454
 30
0.0
 11
9.830451
 21
5.342454
 31
0.0
  0
LINE
  8
0
  6
BYBLOCK
 62
     0
 10
10.825017
 20
7.932454
 30
0.0
 11
9.830451
 21
7.932454
 31
0.0
  0
LINE
  8
0
  6
BYBLOCK
 62
     0
 10
9.969951
 20
5.612454
 30
0.0
 11
9.969951
 21
6.408704
 31
0.0
  0
LINE
  8
0
  6
BYBLOCK
 62
     0
 10
9.969951
 20
7.662454
 30
0.0
 11
9.969951
 21
6.866204
 31
0.0
  0
SOLID
  8
0
  6
BYBLOCK
 62
     0
 10
9.924951
 20
5.612454
 30
0.0
 11
10.014951
 21
5.612454
 31
0.0
 12
9.969951
 22
5.342454
 32
0.0
 13
9.969951
 23
5.342454
 33
0.0
  0
SOLID
  8
0
  6
BYBLOCK
 62
     0
 10
9.924951
 20
7.662454
 30
0.0
 11
10.014951
 21
7.662454
 31
0.0
 12
9.969951
 22
7.932454
 32
0.0
 13
9.969951
 23
7.932454
 33
0.0
  0
TEXT
  8
0
  6
BYBLOCK
 62
     0
 10
9.70042
 20
6.543704
 30
0.0
 40
0.1875
  1
2.590
 41
0.75
 72
     1
 11
9.969951
 21
6.637454
 31
0.0
 73
     2
  0
POINT
  8
DEFPOINTS
  6
BYBLOCK
 62
     0
 10
10.878342
 20
5.342454
 30
0.0
  0
POINT
  8
DEFPOINTS
  6
BYBLOCK
 62
     0
 10
10.919517
 20
7.932454
 30
0.0
  0
POINT
  8
DEFPOINTS
  6
BYBLOCK
 62
     0
 10
9.969951
 20
7.932454
 30
0.0
  0
ENDBLK
  8
0
  0
ENDSEC
  0
SECTION
  2
ENTITIES
  0
INSERT
  8
TITLE
  2
HBS
 10
0.0
 20
0.0
 30
0.0
 41
1.5
 42
1.5
 43
1.5
  0
TEXT
  8
TEXT
 10
3.627919
 20
0.52127
 30
0.0
 40
0.234
  1
%%uBODY
 41
0.75
 72
     4
 11
3.952594
 21
0.61487
 31
0.0
  0
TEXT
  8
TEXT
 10
11.5785
 20
13.103681
 30
0.0
 40
0.1875
  1
OPEN END DUE TO TAPER.
 41
0.75
  0
TEXT
  8
TEXT
 10
11.5785
 20
13.416181
 30
0.0
 40
0.1875
  1
DIMENSIONS INCREASE SLIGHTLY AT
 41
0.75
  0
TEXT
  8
TEXT
 10
11.5785
 20
13.728681
 30
0.0
 40
0.1875
  1
TAKEN FROM CLOSED END OF THE BOX.
 41
0.75
  0
TEXT
  8
TEXT
 10
11.5785
 20
14.041181
 30
0.0
 40
0.1875
  1
LENGTH AND WIDTH DIMENSIONS ARE
 41
0.75
  0
TEXT
  8
TEXT
 10
16.820698
 20
0.52127
 30
0.0
 40
0.234
  1
%%uCOVER
 41
0.75
 72
     4
 11
17.262373
 21
0.61487
 31
0.0
  0
TEXT
  8
TEXT
 10
0.353291
 20
11.555618
 30
0.0
 40
0.1875
  1
%%uCOLOR:%%u BLACK
 41
0.75
  0
TEXT
  8
TEXT
 10
4.87725
 20
14.6565
 30
0.0
 40
0.234
  1
UTILIBOX  (STYLE H)
 41
0.75
 72
     4
 11
6.39825
 21
14.7735
 31
0.0
  0
TEXT
  8
TEXT
 10
17.15775
 20
14.6565
 30
0.0
 40
0.234
  1
CU-1475-MB
 41
0.75
 72
     4
 11
17.97675
 21
14.7735
 31
0.0
  0
TEXT
  8
TEXT
 10
11.5785
 20
12.482605
 30
0.0
 40
0.1875
  1
%%UNOTE:%%U ALL DIMENSIONS HAVE %%P0.010 TOLERANCE
 41
0.75
  0
TEXT
  8
TEXT
 10
12.361814
 20
12.179042
 30
0.0
 40
0.1875
  1
UNLESS OTHERWISE SPECIFIED.
 41
0.75
  0
TEXT
  8
TEXT
 10
17.792103
 20
14.058874
 30
0.0
 40
0.187714
  1
FOUR (4) #4 x 1.000 LG. SELF THREADING
 41
0.75
  0
TEXT
  8
TEXT
 10
17.792103
 20
13.746016
 30
0.0
 40
0.187714
  1
SCREWS WITH HI/LOW THREADS
 41
0.75
  0
TEXT
  8
TEXT
 10
17.792103
 20
13.433159
 30
0.0
 40
0.187714
  1
ARE SUPPLIED FOR MOUNTING COVER.
 41
0.75
  0
TEXT
  8
TEXT
 10
0.503386
 20
13.103681
 30
0.0
 40
0.1875
  1
BODY - OUTSIDE SURFACES ARE TEXTURED FINISH
 41
0.75
  0
TEXT
  8
TEXT
 10
0.353291
 20
13.416181
 30
0.0
 40
0.1875
  1
%%uFINISH:
 41
0.75
  0
TEXT
  8
TEXT
 10
0.503386
 20
12.480681
 30
0.0
 40
0.1875
  1
COVER - VERTICAL OUTSIDE SURFACES ARE TEXTURED
 41
0.75
  0
TEXT
  8
TEXT
 10
1.853744
 20
12.168181
 30
0.0
 40
0.1875
  1
REMAINDER OF PART IS SMOOTH.
 41
0.75
  0
DIMENSION
  8
DIM
  2
*D15
 10
10.753299
 20
4.977043
 30
-0.0625
 11
11.879687
 21
4.977043
 31
0.0
 12
0.0
 22
-1.480615
 32
0.0
  1
<>
 13
13.006076
 23
5.470726
 33
0.0625
 14
10.753299
 24
5.467454
 34
0.0625
  3
23NSTD
  0
DIMENSION
  8
DIM
  2
*D14
 10
10.391451
 20
5.342454
 30
0.0
 11
10.391451
 21
5.627454
 31
0.0
 12
0.0
 22
-1.480615
 32
0.0
  1
<>
 13
10.764951
 23
5.912454
 33
0.0625
 14
10.878342
 24
5.342454
 34
0.0625
 50
90.0
  3
23NSTDI
  0
DIMENSION
  8
DIM
  2
*D32
 10
14.387958
 20
9.634058
 30
0.0
 11
14.387958
 21
10.147058
 31
0.0
 12
0.0
 22
0.48028
 32
0.0
  1
<>
 13
15.811373
 23
10.660058
 33
0.0
 14
15.811373
 24
9.634058
 34
0.0
 50
90.0
  3
23NSTDI
  0
DIMENSION
  8
DIM
  2
*D17
 10
18.713373
 20
8.741175
 30
0.0
 11
17.262373
 21
8.741175
 31
0.0
 12
0.410891
 22
-0.011429
 32
0.0
  1
<>
 13
15.811373
 23
9.634058
 33
0.0
 14
18.713373
 24
9.634058
 34
0.0
 50
180.0
  3
23NSTD
  0
POLYLINE
  8
OBJECT
 66
     1
 10
0.0
 20
0.0
 30
0.0
 70
     1
  0
VERTEX
  8
OBJECT
 10
19.209652
 20
9.03228
 30
0.0
 42
0.414214
  0
VERTEX
  8
OBJECT
 10
19.314652
 20
9.13728
 30
0.0
  0
VERTEX
  8
OBJECT
 10
19.314652
 20
11.156837
 30
0.0
 42
0.414214
  0
VERTEX
  8
OBJECT
 10
19.209652
 20
11.261837
 30
0.0
  0
VERTEX
  8
OBJECT
 10
15.315094
 20
11.261837
 30
0.0
 42
0.414214
  0
VERTEX
  8
OBJECT
 10
15.210094
 20
11.156837
 30
0.0
  0
VERTEX
  8
OBJECT
 10
15.210094
 20
9.13728
 30
0.0
 42
0.414214
  0
VERTEX
  8
OBJECT
 10
15.315094
 20
9.03228
 30
0.0
  0
SEQEND
  8
OBJECT
  0
POLYLINE
  8
OBJECT
 66
     1
 10
0.0
 20
0.0
 30
0.0
 70
     1
  0
VERTEX
  8
OBJECT
 10
19.221757
 20
9.020175
 30
0.0
 42
0.414214
  0
VERTEX
  8
OBJECT
 10
19.326757
 20
9.125175
 30
0.0
  0
VERTEX
  8
OBJECT
 10
19.326757
 20
11.168942
 30
0.0
 42
0.414214
  0
VERTEX
  8
OBJECT
 10
19.221757
 20
11.273942
 30
0.0
  0
VERTEX
  8
OBJECT
 10
15.30299
 20
11.273942
 30
0.0
 42
0.414214
  0
VERTEX
  8
OBJECT
 10
15.19799
 20
11.168942
 30
0.0
  0
VERTEX
  8
OBJECT
 10
15.19799
 20
9.125175
 30
0.0
 42
0.414214
  0
VERTEX
  8
OBJECT
 10
15.30299
 20
9.020175
 30
0.0
  0
SEQEND
  8
OBJECT
  0
POLYLINE
  8
OBJECT
 66
     1
 10
0.0
 20
0.0
 30
0.0
 70
     1
  0
VERTEX
  8
OBJECT
 10
19.209695
 20
9.106637
 30
0.0
 42
0.414214
  0
VERTEX
  8
OBJECT
 10
19.240295
 20
9.137237
 30
0.0
  0
VERTEX
  8
OBJECT
 10
19.240295
 20
11.15688
 30
0.0
 42
0.414214
  0
VERTEX
  8
OBJECT
 10
19.209695
 20
11.18748
 30
0.0
  0
VERTEX
  8
OBJECT
 10
15.315051
 20
11.18748
 30
0.0
 42
0.414214
  0
VERTEX
  8
OBJECT
 10
15.284451
 20
11.15688
 30
0.0
  0
VERTEX
  8
OBJECT
 10
15.284451
 20
9.137237
 30
0.0
 42
0.414214
  0
VERTEX
  8
OBJECT
 10
15.315051
 20
9.106637
 30
0.0
  0
SEQEND
  8
OBJECT
  0
POLYLINE
  8
OBJECT
 66
     1
 10
0.0
 20
0.0
 30
0.0
 70
     1
  0
VERTEX
  8
OBJECT
 10
19.209622
 20
9.07571
 30
0.0
 42
0.414214
  0
VERTEX
  8
OBJECT
 10
19.271222
 20
9.13731
 30
0.0
  0
VERTEX
  8
OBJECT
 10
19.271222
 20
11.156807
 30
0.0
 42
0.414214
  0
VERTEX
  8
OBJECT
 10
19.209622
 20
11.218407
 30
0.0
  0
VERTEX
  8
OBJECT
 10
15.315125
 20
11.218407
 30
0.0
 42
0.414214
  0
VERTEX
  8
OBJECT
 10
15.253525
 20
11.156807
 30
0.0
  0
VERTEX
  8
OBJECT
 10
15.253525
 20
9.13731
 30
0.0
 42
0.414214
  0
VERTEX
  8
OBJECT
 10
15.315125
 20
9.07571
 30
0.0
  0
SEQEND
  8
OBJECT
  0
CIRCLE
  8
OBJECT
 10
15.811373
 20
9.634058
 30
0.0
 40
0.045
  0
CIRCLE
  8
OBJECT
 10
15.811373
 20
9.634058
 30
0.0
 40
0.09
  0
CIRCLE
  8
OBJECT
 10
15.527873
 20
9.350058
 30
0.0
 40
0.061668
  0
CIRCLE
  8
OBJECT
 10
15.527873
 20
9.350058
 30
0.0
 40
0.10645
  0
CIRCLE
  8
OBJECT
 10
15.811373
 20
10.660058
 30
0.0
 40
0.045
  0
CIRCLE
  8
OBJECT
 10
15.811373
 20
10.660058
 30
0.0
 40
0.09
  0
CIRCLE
  8
OBJECT
 10
17.262373
 20
10.147058
 30
0.0
 40
0.1197
  0
CIRCLE
  8
OBJECT
 10
18.996873
 20
9.350058
 30
0.0
 40
0.10645
  0
CIRCLE
  8
OBJECT
 10
18.713373
 20
9.634058
 30
0.0
 40
0.09
  0
CIRCLE
  8
OBJECT
 10
18.713373
 20
9.634058
 30
0.0
 40
0.045
  0
CIRCLE
  8
OBJECT
 10
18.996873
 20
9.350058
 30
0.0
 40
0.061668
  0
CIRCLE
  8
OBJECT
 10
18.713373
 20
10.660058
 30
0.0
 40
0.045
  0
CIRCLE
  8
OBJECT
 10
18.713373
 20
10.660058
 30
0.0
 40
0.09
  0
CIRCLE
  8
OBJECT
 10
15.527873
 20
10.944058
 30
0.0
 40
0.061668
  0
CIRCLE
  8
OBJECT
 10
15.527873
 20
10.944058
 30
0.0
 40
0.061668
  0
CIRCLE
  8
OBJECT
 10
15.527873
 20
10.944058
 30
0.0
 40
0.10645
  0
CIRCLE
  8
OBJECT
 10
18.996873
 20
10.944058
 30
0.0
 40
0.10645
  0
CIRCLE
  8
OBJECT
 10
18.996873
 20
10.944058
 30
0.0
 40
0.061668
  0
CIRCLE
  8
OBJECT
 10
18.996873
 20
10.944058
 30
0.0
 40
0.061668
  0
LINE
  8
OBJECT
 10
10.753299
 20
5.467454
 30
0.0
 11
13.006162
 21
5.467454
 31
0.0
  0
LINE
  8
HIDDEN
 10
11.411688
 20
5.412454
 30
0.0
 11
11.321688
 21
5.412454
 31
0.0
  0
LINE
  8
HIDDEN
 10
11.321688
 20
5.412454
 30
0.0
 11
11.321688
 21
5.662454
 31
0.0
  0
LINE
  8
HIDDEN
 10
12.437773
 20
5.412454
 30
0.0
 11
12.437773
 21
5.662454
 31
0.0
  0
LINE
  8
HIDDEN
 10
12.347773
 20
5.412454
 30
0.0
 11
12.347773
 21
5.662454
 31
0.0
  0
LINE
  8
HIDDEN
 10
12.482857
 20
5.662454
 30
0.0
 11
12.484838
 21
5.435454
 31
0.0
  0
ARC
  8
HIDDEN
 10
11.87973
 20
5.332212
 30
0.0
 40
0.163242
 50
39.23096
 51
140.76904
  0
LINE
  8
HIDDEN
 10
11.411688
 20
5.412454
 30
0.0
 11
11.411688
 21
5.662454
 31
0.0
  0
LINE
  8
HIDDEN
 10
12.347773
 20
5.412454
 30
0.0
 11
12.437773
 21
5.412454
 31
0.0
  0
ARC
  8
HIDDEN
 10
11.87973
 20
5.299212
 30
0.0
 40
0.103242
 50
24.761514
 51
155.238486
  0
POLYLINE
  8
HIDDEN
 66
     1
 10
0.0
 20
0.0
 30
0.0
 70
     1
  0
VERTEX
  8
HIDDEN
 10
12.60823
 20
5.416894
 30
0.0
  0
VERTEX
  8
HIDDEN
 10
12.74523
 20
5.416894
 30
0.0
  0
VERTEX
  8
HIDDEN
 10
12.79023
 20
5.365127
 30
0.0
  0
VERTEX
  8
HIDDEN
 10
12.79223
 20
5.342454
 30
0.0
  0
VERTEX
  8
HIDDEN
 10
12.56123
 20
5.342454
 30
0.0
  0
VERTEX
  8
HIDDEN
 10
12.56323
 20
5.365127
 30
0.0
  0
SEQEND
  8
HIDDEN
  0
LINE
  8
HIDDEN
 10
12.79023
 20
5.365127
 30
0.0
 11
12.56323
 21
5.365127
 31
0.0
  0
LINE
  8
HIDDEN
 10
12.6153
 20
6.082454
 30
0.0
 11
12.60823
 21
5.416894
 31
0.0
  0
LINE
  8
HIDDEN
 10
12.738161
 20
6.082454
 30
0.0
 11
12.74523
 21
5.416894
 31
0.0
  0
LINE
  8
HIDDEN
 10
10.96923
 20
5.365127
 30
0.0
 11
11.19623
 21
5.365127
 31
0.0
  0
POLYLINE
  8
HIDDEN
 66
     1
 10
0.0
 20
0.0
 30
0.0
 70
     1
  0
VERTEX
  8
HIDDEN
 10
11.15123
 20
5.416894
 30
0.0
  0
VERTEX
  8
HIDDEN
 10
11.01423
 20
5.416894
 30
0.0
  0
VERTEX
  8
HIDDEN
 10
10.96923
 20
5.365127
 30
0.0
  0
VERTEX
  8
HIDDEN
 10
10.96723
 20
5.342454
 30
0.0
  0
VERTEX
  8
HIDDEN
 10
11.19823
 20
5.342454
 30
0.0
  0
VERTEX
  8
HIDDEN
 10
11.19623
 20
5.365127
 30
0.0
  0
SEQEND
  8
HIDDEN
  0
LINE
  8
HIDDEN
 10
11.0213
 20
6.082454
 30
0.0
 11
11.01423
 21
5.416894
 31
0.0
  0
LINE
  8
HIDDEN
 10
11.144161
 20
6.082454
 30
0.0
 11
11.15123
 21
5.416894
 31
0.0
  0
POLYLINE
  8
HIDDEN
 66
     1
 10
0.0
 20
0.0
 30
0.0
  0
VERTEX
  8
HIDDEN
 10
10.970378
 20
5.43584
 30
0.0
  0
VERTEX
  8
HIDDEN
 10
10.9763
 20
6.082454
 30
0.0
  0
VERTEX
  8
HIDDEN
 10
11.189161
 20
6.082454
 30
0.0
  0
VERTEX
  8
HIDDEN
 10
11.195083
 20
5.43584
 30
0.0
  0
SEQEND
  8
HIDDEN
  0
POLYLINE
  8
HIDDEN
 66
     1
 10
0.0
 20
0.0
 30
0.0
  0
VERTEX
  8
HIDDEN
 10
12.564378
 20
5.43584
 30
0.0
  0
VERTEX
  8
HIDDEN
 10
12.5703
 20
6.082454
 30
0.0
  0
VERTEX
  8
HIDDEN
 10
12.783161
 20
6.082454
 30
0.0
  0
VERTEX
  8
HIDDEN
 10
12.789083
 20
5.43584
 30
0.0
  0
SEQEND
  8
HIDDEN
  0
POLYLINE
  8
HIDDEN
 66
     1
 10
0.0
 20
0.0
 30
0.0
  0
VERTEX
  8
HIDDEN
 10
12.300707
 20
5.435454
 30
0.0
  0
VERTEX
  8
HIDDEN
 10
12.302688
 20
5.662454
 30
0.0
  0
VERTEX
  8
HIDDEN
 10
12.482773
 20
5.662454
 30
0.0
  0
SEQEND
  8
HIDDEN
  0
POLYLINE
  8
HIDDEN
 66
     1
 10
0.0
 20
0.0
 30
0.0
  0
VERTEX
  8
HIDDEN
 10
11.458754
 20
5.435454
 30
0.0
  0
VERTEX
  8
HIDDEN
 10
11.456773
 20
5.662454
 30
0.0
  0
VERTEX
  8
HIDDEN
 10
11.276603
 20
5.662454
 30
0.0
  0
VERTEX
  8
HIDDEN
 10
11.274622
 20
5.435454
 30
0.0
  0
SEQEND
  8
HIDDEN
  0
POLYLINE
  8
OBJECT
 66
     1
 10
0.0
 20
0.0
 30
0.0
 70
     1
  0
VERTEX
  8
OBJECT
 10
13.006076
 20
5.470726
 30
0.0
  0
VERTEX
  8
OBJECT
 10
12.994509
 20
5.912454
 30
0.0
  0
VERTEX
  8
OBJECT
 10
10.764951
 20
5.912454
 30
0.0
  0
VERTEX
  8
OBJECT
 10
10.753384
 20
5.470726
 30
0.0
 42
0.421902
  0
VERTEX
  8
OBJECT
 10
10.878342
 20
5.342454
 30
0.0
  0
VERTEX
  8
OBJECT
 10
12.881119
 20
5.342454
 30
0.0
 42
0.421902
  0
SEQEND
  8
OBJECT
  0
POLYLINE
  8
HIDDEN
 66
     1
 10
0.0
 20
0.0
 30
0.0
  0
VERTEX
  8
HIDDEN
 10
12.920152
 20
6.002454
 30
0.0
  0
VERTEX
  8
HIDDEN
 10
12.915377
 20
5.45528
 30
0.0
 42
-0.41166
  0
VERTEX
  8
HIDDEN
 10
12.895378
 20
5.435454
 30
0.0
  0
VERTEX
  8
HIDDEN
 10
10.864083
 20
5.435454
 30
0.0
 42
-0.41166
  0
VERTEX
  8
HIDDEN
 10
10.844084
 20
5.45528
 30
0.0
  0
VERTEX
  8
HIDDEN
 10
10.839308
 20
6.002454
 30
0.0
  0
SEQEND
  8
HIDDEN
  0
POLYLINE
  8
HIDDEN
 66
     1
 10
0.0
 20
0.0
 30
0.0
  0
VERTEX
  8
HIDDEN
 10
12.953436
 20
5.912454
 30
0.0
  0
VERTEX
  8
HIDDEN
 10
12.951079
 20
6.002454
 30
0.0
  0
VERTEX
  8
HIDDEN
 10
10.808382
 20
6.002454
 30
0.0
  0
VERTEX
  8
HIDDEN
 10
10.806025
 20
5.912454
 30
0.0
  0
SEQEND
  8
HIDDEN
  0
DIMENSION
  8
DIM
  2
*D34
 10
9.969951
 20
7.932454
 30
0.0
 11
9.969951
 21
6.637454
 31
0.0
  1
<>
 13
10.878342
 23
5.342454
 33
0.0
 14
10.919517
 24
7.932454
 34
0.0
 50
90.0
  3
23NSTD
  0
TEXT
  8
TEXT
 10
4.261733
 20
13.728681
 30
0.0
 40
0.1875
  1
AND CONTINUOUS USE TEMPERATURE OF 70%%d C.)
 41
0.75
  0
TEXT
  8
TEXT
 10
0.353291
 20
14.041181
 30
0.0
 40
0.1875
  1
%%uMATERIAL:%%u ABS THERMOPLASTIC (FLAMMABILITY RATING OF 94-VO AT 0.070" THICKNESS
 41
0.75
  0
CIRCLE
  8
HIDDEN
 10
2.218219
 20
10.943933
 30
0.0
 40
0.109
  0
CIRCLE
  8
HIDDEN
 10
2.218219
 20
9.350183
 30
0.0
 40
0.109
  0
CIRCLE
  8
OBJECT
 10
2.218219
 20
2.157734
 30
0.0
 40
0.109
  0
CIRCLE
  8
OBJECT
 10
2.218219
 20
3.751484
 30
0.0
 40
0.109
  0
DIMENSION
  8
DIM
  6
CONTINUOUS
  2
*D11
 10
5.975489
 20
7.058142
 30
0.0
 11
6.896397
 21
7.072278
 31
0.0
 12
-0.318556
 22
-14.637004
 32
0.0
 70
     1
 13
5.903039
 23
7.150778
 33
0.0
 14
5.973015
 24
7.15261
 34
0.0
  3
23NSTD
  0
DIMENSION
  8
DIM
  2
*D2
 10
5.848844
 20
8.73423
 30
0.0
 11
3.952594
 21
8.73423
 31
0.0
 12
-12.836286
 22
-17.976597
 32
0.0
 13
2.056344
 23
9.190808
 33
0.0
 14
5.848844
 24
9.190808
 34
0.0
 50
180.0
  3
23NSTD
  0
DIMENSION
  8
DIM
  6
CONTINUOUS
  2
*D9
 10
1.940222
 20
5.558954
 30
0.0
 11
3.166003
 21
5.558954
 31
0.0
 12
-0.318556
 22
-14.637004
 32
0.0
  1
<> TYP.
 13
1.900222
 23
5.932454
 33
0.0
 14
1.940222
 24
5.932454
 34
0.0
  3
23NSTD
  0
CIRCLE
  8
HIDDEN
 10
2.218219
 20
10.943933
 30
0.0
 40
0.045
  0
CIRCLE
  8
HIDDEN
 10
2.218219
 20
9.350183
 30
0.0
 40
0.045
  0
POLYLINE
  8
OBJECT
 66
     1
 10
0.0
 20
0.0
 30
0.0
 70
     1
  0
VERTEX
  8
OBJECT
 10
5.817594
 20
11.072058
 30
0.0
  0
VERTEX
  8
OBJECT
 10
2.087594
 20
11.072058
 30
0.0
  0
VERTEX
  8
OBJECT
 10
2.087594
 20
9.222058
 30
0.0
  0
VERTEX
  8
OBJECT
 10
5.817594
 20
9.222058
 30
0.0
  0
SEQEND
  8
OBJECT
  0
POLYLINE
  8
OBJECT
 66
     1
 10
0.0
 20
0.0
 30
0.0
 70
     1
  0
VERTEX
  8
OBJECT
 10
2.056344
 20
11.103308
 30
0.0
  0
VERTEX
  8
OBJECT
 10
5.848844
 20
11.103308
 30
0.0
  0
VERTEX
  8
OBJECT
 10
5.848844
 20
9.190808
 30
0.0
  0
VERTEX
  8
OBJECT
 10
2.056344
 20
9.190808
 30
0.0
  0
SEQEND
  8
OBJECT
  0
POLYLINE
  8
OBJECT
 66
     1
 10
0.0
 20
0.0
 30
0.0
 70
     1
  0
VERTEX
  8
OBJECT
 10
2.057594
 20
9.084558
 30
0.0
 42
-0.414214
  0
VERTEX
  8
OBJECT
 10
1.952594
 20
9.189558
 30
0.0
  0
VERTEX
  8
OBJECT
 10
1.952594
 20
11.104558
 30
0.0
 42
-0.414214
  0
VERTEX
  8
OBJECT
 10
2.057594
 20
11.209558
 30
0.0
  0
VERTEX
  8
OBJECT
 10
5.847594
 20
11.209558
 30
0.0
 42
-0.414214
  0
VERTEX
  8
OBJECT
 10
5.952594
 20
11.104558
 30
0.0
  0
VERTEX
  8
OBJECT
 10
5.952594
 20
9.189558
 30
0.0
 42
-0.414214
  0
VERTEX
  8
OBJECT
 10
5.847594
 20
9.084558
 30
0.0
  0
SEQEND
  8
OBJECT
  0
POLYLINE
  8
OBJECT
 66
     1
 10
0.0
 20
0.0
 30
0.0
 70
     1
  0
VERTEX
  8
OBJECT
 10
5.899966
 20
11.26193
 30
0.0
  0
VERTEX
  8
OBJECT
 10
2.005222
 20
11.26193
 30
0.0
 42
0.414214
  0
VERTEX
  8
OBJECT
 10
1.900222
 20
11.15693
 30
0.0
  0
VERTEX
  8
OBJECT
 10
1.900222
 20
9.137187
 30
0.0
 42
0.414214
  0
VERTEX
  8
OBJECT
 10
2.005222
 20
9.032187
 30
0.0
  0
VERTEX
  8
OBJECT
 10
5.899966
 20
9.032187
 30
0.0
 42
0.414214
  0
VERTEX
  8
OBJECT
 10
6.004966
 20
9.137187
 30
0.0
  0
VERTEX
  8
OBJECT
 10
6.004966
 20
11.15693
 30
0.0
 42
0.414214
  0
SEQEND
  8
OBJECT
  0
DIMENSION
  8
DIM
  2
*D7
 10
5.952594
 20
8.305954
 30
0.0
 11
3.952594
 21
8.305954
 31
0.0
 12
-1.995236
 22
-14.637004
 32
0.0
 13
1.952594
 23
7.932454
 33
0.0
 14
5.952594
 24
7.932454
 34
0.0
 50
180.0
  3
23NSTD
  0
CIRCLE
  8
OBJECT
 10
2.218219
 20
3.751484
 30
0.0
 40
0.045
  0
CIRCLE
  8
OBJECT
 10
2.218219
 20
2.157734
 30
0.0
 40
0.045
  0
LINE
  8
OBJECT
 10
1.905119
 20
6.119454
 30
0.0
 11
6.000069
 21
6.119454
 31
0.0
  0
DIMENSION
  8
DIM
  6
CONTINUOUS
  2
*D10
 10
6.004966
 20
5.137454
 30
0.0
 11
3.952594
 21
5.137454
 31
0.0
 12
-0.318556
 22
-14.637004
 32
0.0
 13
1.900222
 23
5.932454
 33
0.0
 14
6.004966
 24
5.932454
 34
0.0
  3
23NSTD
  0
DIMENSION
  8
DIM
  2
*D3
 10
5.686969
 20
1.49632
 30
0.0
 11
3.952594
 21
1.49632
 31
0.0
 12
-12.836286
 22
-17.540633
 32
0.0
 13
2.218219
 23
2.157734
 33
0.0
 14
5.686969
 24
2.157734
 34
0.0
  3
23NSTD
  0
POLYLINE
  8
OBJECT
 66
     1
 10
0.0
 20
0.0
 30
0.0
 70
     1
  0
VERTEX
  8
OBJECT
 10
5.899966
 20
3.997481
 30
0.0
  0
VERTEX
  8
OBJECT
 10
2.005222
 20
3.997481
 30
0.0
 42
0.414214
  0
VERTEX
  8
OBJECT
 10
1.972222
 20
3.964481
 30
0.0
  0
VERTEX
  8
OBJECT
 10
1.972222
 20
1.944737
 30
0.0
 42
0.414214
  0
VERTEX
  8
OBJECT
 10
2.005222
 20
1.911737
 30
0.0
  0
VERTEX
  8
OBJECT
 10
5.899966
 20
1.911737
 30
0.0
 42
0.414214
  0
VERTEX
  8
OBJECT
 10
5.932966
 20
1.944737
 30
0.0
  0
VERTEX
  8
OBJECT
 10
5.932966
 20
3.964481
 30
0.0
 42
0.414214
  0
SEQEND
  8
OBJECT
  0
POLYLINE
  8
OBJECT
 66
     1
 10
0.0
 20
0.0
 30
0.0
 70
     1
  0
VERTEX
  8
OBJECT
 10
5.899966
 20
4.029481
 30
0.0
  0
VERTEX
  8
OBJECT
 10
2.005222
 20
4.029481
 30
0.0
 42
0.414214
  0
VERTEX
  8
OBJECT
 10
1.940222
 20
3.964481
 30
0.0
  0
VERTEX
  8
OBJECT
 10
1.940222
 20
1.944737
 30
0.0
 42
0.414214
  0
VERTEX
  8
OBJECT
 10
2.005222
 20
1.879737
 30
0.0
  0
VERTEX
  8
OBJECT
 10
5.899966
 20
1.879737
 30
0.0
 42
0.414214
  0
VERTEX
  8
OBJECT
 10
5.964966
 20
1.944737
 30
0.0
  0
VERTEX
  8
OBJECT
 10
5.964966
 20
3.964481
 30
0.0
 42
0.414214
  0
SEQEND
  8
OBJECT
  0
POLYLINE
  8
OBJECT
 66
     1
 10
0.0
 20
0.0
 30
0.0
 70
     1
  0
VERTEX
  8
OBJECT
 10
5.899966
 20
4.069481
 30
0.0
  0
VERTEX
  8
OBJECT
 10
2.005222
 20
4.069481
 30
0.0
 42
0.414214
  0
VERTEX
  8
OBJECT
 10
1.900222
 20
3.964481
 30
0.0
  0
VERTEX
  8
OBJECT
 10
1.900222
 20
1.944737
 30
0.0
 42
0.414214
  0
VERTEX
  8
OBJECT
 10
2.005222
 20
1.839737
 30
0.0
  0
VERTEX
  8
OBJECT
 10
5.899966
 20
1.839737
 30
0.0
 42
0.414214
  0
VERTEX
  8
OBJECT
 10
6.004966
 20
1.944737
 30
0.0
  0
VERTEX
  8
OBJECT
 10
6.004966
 20
3.964481
 30
0.0
 42
0.414214
  0
SEQEND
  8
OBJECT
  0
DIMENSION
  8
DIM
  2
*D13
 10
13.40457
 20
5.932454
 30
0.0
 11
13.40457
 21
6.932454
 31
0.0
 12
0.0
 22
-1.510615
 32
0.0
  1
<>
 13
12.839944
 23
7.932454
 33
0.0
 14
12.994602
 24
5.932454
 34
0.0
 50
270.0
  3
23NSTD
  0
DIMENSION
  8
DIM
  2
*D8
 10
1.397741
 20
3.751484
 30
0.0
 11
1.397741
 21
2.954609
 31
0.0
 12
-1.995236
 22
-15.312987
 32
0.0
 13
2.218219
 23
2.157734
 33
0.0
 14
2.218219
 24
3.751484
 34
0.0
 50
90.0
  3
23NSTD
  0
LINE
  8
OBJECT
 10
1.972222
 20
1.954163
 30
0.0
 11
2.122908
 21
2.104849
 31
0.0
  0
LINE
  8
OBJECT
 10
2.014649
 20
1.911737
 30
0.0
 11
2.165334
 21
2.062423
 31
0.0
  0
LINE
  8
OBJECT
 10
1.972222
 20
3.955054
 30
0.0
 11
2.122908
 21
3.804369
 31
0.0
  0
LINE
  8
OBJECT
 10
2.014649
 20
3.997481
 30
0.0
 11
2.165334
 21
3.846795
 31
0.0
  0
TEXT
  8
TEXT
  6
CONTINUOUS
 10
1.639566
 20
12.800118
 30
0.0
 40
0.1875
  1
WITH TEXTURED INSERT AREA.
 41
0.75
  0
DIMENSION
  8
DIM
  2
*D4
 10
1.397741
 20
11.103308
 30
0.0
 11
1.397741
 21
10.147058
 31
0.0
 12
-12.836286
 22
-17.976597
 32
0.0
 13
2.056344
 23
9.190808
 33
0.0
 14
2.056344
 24
11.103308
 34
0.0
 50
270.0
  3
23NSTD
  0
DIMENSION
  8
DIM
  6
CONTINUOUS
  2
*D16
 10
12.94223
 20
8.244007
 30
0.0
 11
11.87973
 21
8.244007
 31
0.0
 12
0.0
 22
-1.510615
 32
0.0
  1
<>
 13
10.81723
 23
7.932454
 33
0.0
 14
12.94223
 24
7.932454
 34
0.0
  3
23NSTD
  0
LINE
  8
OBJECT
 10
12.989705
 20
6.119454
 30
0.0
 11
10.769755
 21
6.119454
 31
0.0
  0
LINE
  8
HIDDEN
 10
10.97328
 20
6.144454
 30
0.0
 11
10.840434
 21
6.144454
 31
0.0
  0
LINE
  8
HIDDEN
 10
12.78618
 20
6.144454
 30
0.0
 11
12.919027
 21
6.144454
 31
0.0
  0
LINE
  8
HIDDEN
 10
2.108644
 20
6.144454
 30
0.0
 11
1.975798
 21
6.144454
 31
0.0
  0
DIMENSION
  8
DIM
  2
*D5
 10
6.529908
 20
6.119454
 30
0.0
 11
8.141939
 21
6.659454
 31
0.0
 12
-12.836286
 22
-17.189459
 32
0.0
  1
<> POLISHED BAND
 13
6.004966
 23
5.932454
 33
0.0
 14
6.000069
 24
6.119454
 34
0.0
 50
90.0
  3
23NSTD
  0
TEXT
  8
DIM
 10
7.07331
 20
3.073933
 30
0.0
 40
0.1875
  1
0.090 DIA. x 0.500 DEEP
 41
0.75
 11
7.07331
 21
3.167683
 31
0.0
 73
     2
  0
POLYLINE
  8
DIM
 66
     1
 10
0.0
 20
0.0
 30
0.0
 41
0.10125
  0
VERTEX
  8
DIM
 10
5.711526
 20
2.195442
 30
0.0
  0
VERTEX
  8
DIM
 10
5.900909
 20
2.387885
 30
0.0
 41
0.0
  0
VERTEX
  8
DIM
 10
6.66831
 20
3.167683
 30
0.0
 41
0.0
  0
VERTEX
  8
DIM
 10
6.93831
 20
3.167683
 30
0.0
 41
0.0
  0
SEQEND
  8
DIM
  0
POLYLINE
  8
DIM
 66
     1
 10
0.0
 20
0.0
 30
0.0
 41
0.10125
  0
VERTEX
  8
DIM
 10
5.791539
 20
2.142116
 30
0.0
  0
VERTEX
  8
DIM
 10
6.050523
 20
2.218453
 30
0.0
 41
0.0
  0
VERTEX
  8
DIM
 10
6.647383
 20
2.394379
 30
0.0
 41
0.0
  0
VERTEX
  8
DIM
 10
6.917383
 20
2.394379
 30
0.0
 41
0.0
  0
SEQEND
  8
DIM
  0
LINE
  8
OBJECT
 10
5.932966
 20
3.955054
 30
0.0
 11
5.78228
 21
3.804369
 31
0.0
  0
LINE
  8
OBJECT
 10
5.890539
 20
3.997481
 30
0.0
 11
5.739854
 21
3.846795
 31
0.0
  0
LINE
  8
OBJECT
 10
5.890539
 20
1.911737
 30
0.0
 11
5.739854
 21
2.062423
 31
0.0
  0
LINE
  8
OBJECT
 10
5.932966
 20
1.954163
 30
0.0
 11
5.78228
 21
2.104849
 31
0.0
  0
CIRCLE
  8
OBJECT
 10
5.686969
 20
2.157734
 30
0.0
 40
0.109
  0
CIRCLE
  8
OBJECT
 10
5.686969
 20
2.157734
 30
0.0
 40
0.045
  0
CIRCLE
  8
OBJECT
 10
5.686969
 20
3.751484
 30
0.0
 40
0.109
  0
CIRCLE
  8
OBJECT
 10
5.686969
 20
3.751484
 30
0.0
 40
0.045
  0
TEXT
  8
DIM
 10
7.052383
 20
1.988129
 30
0.0
 40
0.1875
  1
(4) PLACES
 41
0.75
 11
7.052383
 21
2.081879
 31
0.0
 73
     2
  0
TEXT
  8
DIM
 10
7.052383
 20
2.300629
 30
0.0
 40
0.1875
  1
0.218 DIA. BOSS
 41
0.75
 11
7.052383
 21
2.394379
 31
0.0
 73
     2
  0
TEXT
  8
DIM
 10
7.07331
 20
2.761433
 30
0.0
 40
0.1875
  1
(4) HOLES
 41
0.75
 11
7.07331
 21
2.855183
 31
0.0
 73
     2
  0
LINE
  8
HIDDEN
 10
5.796544
 20
6.144454
 30
0.0
 11
5.92939
 21
6.144454
 31
0.0
  0
CIRCLE
  8
HIDDEN
 10
5.686969
 20
9.350183
 30
0.0
 40
0.109
  0
CIRCLE
  8
HIDDEN
 10
5.686969
 20
9.350183
 30
0.0
 40
0.045
  0
POLYLINE
  8
DIM
 66
     1
 10
0.0
 20
0.0
 30
0.0
 41
0.10125
  0
VERTEX
  8
DIM
 10
5.159405
 20
10.160488
 30
0.0
  0
VERTEX
  8
DIM
 10
5.418389
 20
10.236824
 30
0.0
 41
0.0
  0
VERTEX
  8
DIM
 10
6.612108
 20
10.588678
 30
0.0
 41
0.0
  0
VERTEX
  8
DIM
 10
6.882108
 20
10.588678
 30
0.0
 41
0.0
  0
SEQEND
  8
DIM
  0
CIRCLE
  8
HIDDEN
 10
5.686969
 20
10.943933
 30
0.0
 40
0.109
  0
CIRCLE
  8
HIDDEN
 10
5.686969
 20
10.943933
 30
0.0
 40
0.045
  0
TEXT
  8
DIM
 10
7.017108
 20
10.494928
 30
0.0
 40
0.1875
  1
INSERT AREA
 41
0.75
 11
7.017108
 21
10.588678
 31
0.0
 73
     2
  0
DIMENSION
  8
DIM
  2
*D6
 10
6.348471
 20
7.932454
 30
0.0
 11
6.976128
 21
8.472454
 31
0.0
 12
-1.995236
 22
-14.637004
 32
0.0
 13
5.851093
 23
7.832454
 33
0.0
 14
5.850308
 24
7.932454
 34
0.0
 50
90.0
  3
23NSTD
  0
DIMENSION
  8
DIM
  2
*D1
 10
5.293811
 20
5.932454
 30
0.0
 11
4.642717
 21
5.392454
 31
0.0
 12
-0.173683
 22
0.072055
 32
0.0
 13
5.388311
 23
6.002454
 33
0.0
 14
5.388311
 24
5.932454
 34
0.0
 50
90.0
  3
23NSTD
  0
DIMENSION
  8
DIM
  6
CONTINUOUS
  2
*D12
 10
1.241316
 20
5.932454
 30
0.0
 11
0.601941
 21
5.392454
 31
0.0
 12
-0.318556
 22
-14.637004
 32
0.0
 13
2.109219
 23
6.082454
 33
0.0
 14
1.900222
 24
5.932454
 34
0.0
 50
90.0
  3
23NSTD
  0
POLYLINE
  8
HIDDEN
 66
     1
 10
0.0
 20
0.0
 30
0.0
  0
VERTEX
  8
HIDDEN
 10
12.631605
 20
6.082454
 30
0.0
  0
VERTEX
  8
HIDDEN
 10
12.631605
 20
6.582454
 30
0.0
  0
VERTEX
  8
HIDDEN
 10
12.721605
 20
6.582454
 30
0.0
  0
VERTEX
  8
HIDDEN
 10
12.721605
 20
6.082454
 30
0.0
  0
SEQEND
  8
HIDDEN
  0
POLYLINE
  8
HIDDEN
 66
     1
 10
0.0
 20
0.0
 30
0.0
  0
VERTEX
  8
HIDDEN
 10
11.037855
 20
6.082454
 30
0.0
  0
VERTEX
  8
HIDDEN
 10
11.037855
 20
6.582454
 30
0.0
  0
VERTEX
  8
HIDDEN
 10
11.127855
 20
6.582454
 30
0.0
  0
VERTEX
  8
HIDDEN
 10
11.127855
 20
6.082454
 30
0.0
  0
SEQEND
  8
HIDDEN
  0
POLYLINE
  8
HIDDEN
 66
     1
 10
0.0
 20
0.0
 30
0.0
  0
VERTEX
  8
HIDDEN
 10
10.95763
 20
7.832454
 30
0.0
  0
VERTEX
  8
HIDDEN
 10
10.973855
 20
6.082454
 30
0.0
  0
VERTEX
  8
HIDDEN
 10
11.191855
 20
6.082454
 30
0.0
  0
VERTEX
  8
HIDDEN
 10
11.20808
 20
7.832454
 30
0.0
  0
SEQEND
  8
HIDDEN
  0
POLYLINE
  8
HIDDEN
 66
     1
 10
0.0
 20
0.0
 30
0.0
  0
VERTEX
  8
HIDDEN
 10
12.55138
 20
7.832454
 30
0.0
  0
VERTEX
  8
HIDDEN
 10
12.567605
 20
6.082454
 30
0.0
  0
VERTEX
  8
HIDDEN
 10
12.785605
 20
6.082454
 30
0.0
  0
VERTEX
  8
HIDDEN
 10
12.80183
 20
7.832454
 30
0.0
  0
SEQEND
  8
HIDDEN
  0
POLYLINE
  8
HIDDEN
 66
     1
 10
0.0
 20
0.0
 30
0.0
  0
VERTEX
  8
HIDDEN
 10
12.954602
 20
5.932454
 30
0.0
  0
VERTEX
  8
HIDDEN
 10
12.952769
 20
6.002454
 30
0.0
  0
VERTEX
  8
HIDDEN
 10
10.806691
 20
6.002454
 30
0.0
  0
VERTEX
  8
HIDDEN
 10
10.804858
 20
5.932454
 30
0.0
  0
SEQEND
  8
HIDDEN
  0
POLYLINE
  8
HIDDEN
 66
     1
 10
0.0
 20
0.0
 30
0.0
  0
VERTEX
  8
HIDDEN
 10
12.922759
 20
6.002454
 30
0.0
  0
VERTEX
  8
HIDDEN
 10
12.875731
 20
7.79837
 30
0.0
 42
0.406566
  0
VERTEX
  8
HIDDEN
 10
12.840743
 20
7.832454
 30
0.0
  0
VERTEX
  8
HIDDEN
 10
10.918718
 20
7.832454
 30
0.0
 42
0.406566
  0
VERTEX
  8
HIDDEN
 10
10.88373
 20
7.79837
 30
0.0
  0
VERTEX
  8
HIDDEN
 10
10.836702
 20
6.002454
 30
0.0
  0
SEQEND
  8
HIDDEN
  0
POLYLINE
  8
OBJECT
 66
     1
 10
0.0
 20
0.0
 30
0.0
 70
     1
  0
VERTEX
  8
OBJECT
 10
12.994602
 20
5.932454
 30
0.0
  0
VERTEX
  8
OBJECT
 10
12.944908
 20
7.830203
 30
0.0
 42
0.406566
  0
VERTEX
  8
OBJECT
 10
12.839944
 20
7.932454
 30
0.0
  0
VERTEX
  8
OBJECT
 10
10.919517
 20
7.932454
 30
0.0
 42
0.406566
  0
VERTEX
  8
OBJECT
 10
10.814553
 20
7.830203
 30
0.0
  0
VERTEX
  8
OBJECT
 10
10.764858
 20
5.932454
 30
0.0
  0
SEQEND
  8
OBJECT
  0
POLYLINE
  8
HIDDEN
 66
     1
 10
0.0
 20
0.0
 30
0.0
  0
VERTEX
  8
HIDDEN
 10
5.641969
 20
6.082454
 30
0.0
  0
VERTEX
  8
HIDDEN
 10
5.641969
 20
6.582454
 30
0.0
  0
VERTEX
  8
HIDDEN
 10
5.731969
 20
6.582454
 30
0.0
  0
VERTEX
  8
HIDDEN
 10
5.731969
 20
6.082454
 30
0.0
  0
SEQEND
  8
HIDDEN
  0
POLYLINE
  8
HIDDEN
 66
     1
 10
0.0
 20
0.0
 30
0.0
  0
VERTEX
  8
HIDDEN
 10
2.173219
 20
6.082454
 30
0.0
  0
VERTEX
  8
HIDDEN
 10
2.173219
 20
6.582454
 30
0.0
  0
VERTEX
  8
HIDDEN
 10
2.263219
 20
6.582454
 30
0.0
  0
VERTEX
  8
HIDDEN
 10
2.263219
 20
6.082454
 30
0.0
  0
SEQEND
  8
HIDDEN
  0
POLYLINE
  8
HIDDEN
 66
     1
 10
0.0
 20
0.0
 30
0.0
  0
VERTEX
  8
HIDDEN
 10
2.343444
 20
7.832454
 30
0.0
  0
VERTEX
  8
HIDDEN
 10
2.327219
 20
6.082454
 30
0.0
  0
VERTEX
  8
HIDDEN
 10
2.109219
 20
6.082454
 30
0.0
  0
VERTEX
  8
HIDDEN
 10
2.092994
 20
7.832454
 30
0.0
  0
SEQEND
  8
HIDDEN
  0
POLYLINE
  8
HIDDEN
 66
     1
 10
0.0
 20
0.0
 30
0.0
  0
VERTEX
  8
HIDDEN
 10
5.561744
 20
7.832454
 30
0.0
  0
VERTEX
  8
HIDDEN
 10
5.577969
 20
6.082454
 30
0.0
  0
VERTEX
  8
HIDDEN
 10
5.795969
 20
6.082454
 30
0.0
  0
VERTEX
  8
HIDDEN
 10
5.812194
 20
7.832454
 30
0.0
  0
SEQEND
  8
HIDDEN
  0
POLYLINE
  8
HIDDEN
 66
     1
 10
0.0
 20
0.0
 30
0.0
  0
VERTEX
  8
HIDDEN
 10
1.972079
 20
6.002454
 30
0.0
  0
VERTEX
  8
HIDDEN
 10
2.019107
 20
7.79837
 30
0.0
 42
-0.406566
  0
VERTEX
  8
HIDDEN
 10
2.054095
 20
7.832454
 30
0.0
  0
VERTEX
  8
HIDDEN
 10
5.851093
 20
7.832454
 30
0.0
 42
-0.406566
  0
VERTEX
  8
HIDDEN
 10
5.886081
 20
7.79837
 30
0.0
  0
VERTEX
  8
HIDDEN
 10
5.933109
 20
6.002454
 30
0.0
  0
SEQEND
  8
HIDDEN
  0
POLYLINE
  8
OBJECT
 66
     1
 10
0.0
 20
0.0
 30
0.0
 70
     1
  0
VERTEX
  8
OBJECT
 10
1.900222
 20
5.932454
 30
0.0
  0
VERTEX
  8
OBJECT
 10
1.949916
 20
7.830203
 30
0.0
 42
-0.406566
  0
VERTEX
  8
OBJECT
 10
2.05488
 20
7.932454
 30
0.0
  0
VERTEX
  8
OBJECT
 10
5.850308
 20
7.932454
 30
0.0
 42
-0.406566
  0
VERTEX
  8
OBJECT
 10
5.955272
 20
7.830203
 30
0.0
  0
VERTEX
  8
OBJECT
 10
6.004966
 20
5.932454
 30
0.0
  0
SEQEND
  8
OBJECT
  0
POLYLINE
  8
HIDDEN
 66
     1
 10
0.0
 20
0.0
 30
0.0
  0
VERTEX
  8
HIDDEN
 10
5.964952
 20
5.932454
 30
0.0
  0
VERTEX
  8
HIDDEN
 10
5.963119
 20
6.002454
 30
0.0
  0
VERTEX
  8
HIDDEN
 10
1.942069
 20
6.002454
 30
0.0
  0
VERTEX
  8
HIDDEN
 10
1.940236
 20
5.932454
 30
0.0
  0
SEQEND
  8
HIDDEN
  0
DIMENSION
  8
DIM
  2
*D19
 10
10.753299
 20
5.882454
 30
0.0
 11
12.016626
 21
8.628463
 31
0.0
 12
0.0
 22
-1.510615
 32
0.0
 70
   130
  1
<> REF.
 13
10.814553
 23
7.830203
 33
0.0
 14
10.764858
 24
5.932454
 34
0.0
 15
10.753299
 25
5.342954
 35
0.0
 16
10.802486
 26
8.689146
 36
0.0
  3
23NSTD
  0
DIMENSION
  8
DIM
  2
*D31
 10
14.118376
 20
6.002454
 30
0.0
 11
14.76947
 21
6.542454
 31
0.0
 12
-0.017132
 22
-17.12888
 32
0.0
  1
<>
 13
15.210094
 23
5.912454
 33
0.0625
 14
15.253525
 24
6.002454
 34
0.0625
 50
90.0
  3
23NSTD
  0
DIMENSION
  8
DIM
  2
*D23
 10
16.793918
 20
5.342454
 30
0.0
 11
16.131105
 21
4.802454
 31
0.0
 12
-0.017132
 22
-17.12888
 32
0.0
  1
<>
 13
16.730918
 23
5.435454
 33
0.0625
 14
16.716659
 24
5.342454
 34
0.0625
 50
270.0
  3
23NSTD
  0
DIMENSION
  8
DIM
  2
*D22
 10
19.314652
 20
6.391034
 30
0.0625
 11
17.262373
 21
6.391034
 31
0.0
 12
-0.017132
 22
-17.12888
 32
0.0
  1
<>
 13
15.210094
 23
5.912454
 33
0.0625
 14
19.314652
 24
5.912454
 34
0.0625
  3
23NSTD
  0
DIMENSION
  8
DIM
  2
*D30
 10
20.255579
 20
2.157609
 30
0.0
 11
20.255579
 21
2.954609
 31
0.0
 12
-0.017132
 22
-17.15888
 32
0.0
  1
<>
 13
18.996873
 23
3.751609
 33
0.0
 14
18.996873
 24
2.157609
 34
0.0
 50
90.0
  3
23NSTD
  0
DIMENSION
  8
DIM
  2
*D25
 10
18.996873
 20
1.533895
 30
0.0
 11
17.262373
 21
1.533895
 31
0.0
 12
-0.017132
 22
-17.15888
 32
0.0
  1
<>
 13
15.527873
 23
2.157609
 33
0.0
 14
18.996873
 24
2.157609
 34
0.0
 50
180.0
  3
23NSTD
  0
LINE
  8
OBJECT
 10
15.210094
 20
5.912454
 30
0.0
 11
19.314652
 21
5.912454
 31
0.0
  0
LINE
  8
OBJECT
 10
15.198442
 20
5.467454
 30
0.0
 11
19.326305
 21
5.467454
 31
0.0
  0
ARC
  8
OBJECT
 10
15.398885
 20
5.562639
 30
0.0
 40
0.220434
 50
204.642922
 51
272.726717
  0
LINE
  8
OBJECT
 10
15.210094
 20
5.912454
 30
0.0
 11
15.198527
 21
5.470726
 31
0.0
  0
LINE
  8
OBJECT
 10
15.253525
 20
6.002454
 30
0.0
 11
19.271222
 21
6.002454
 31
0.0
  0
LINE
  8
OBJECT
 10
15.409372
 20
5.342454
 30
0.0
 11
19.201262
 21
5.342454
 31
0.0
  0
LINE
  8
HIDDEN
 10
19.215524
 20
5.43584
 30
0.0
 11
15.309222
 21
5.43584
 31
0.0
  0
LINE
  8
HIDDEN
 10
15.42048
 20
6.004084
 30
0.0
 11
15.415521
 21
5.43584
 31
0.0
  0
LINE
  8
HIDDEN
 10
15.635267
 20
6.004084
 30
0.0
 11
15.640226
 21
5.43584
 31
0.0
  0
LINE
  8
HIDDEN
 10
15.284451
 20
6.002454
 30
0.0
 11
15.289223
 21
5.455666
 31
0.0
  0
LINE
  8
HIDDEN
 10
15.766416
 20
5.412454
 30
0.0
 11
15.856416
 21
5.412454
 31
0.0
  0
LINE
  8
HIDDEN
 10
15.721331
 20
5.662454
 30
0.0
 11
15.901416
 21
5.662454
 31
0.0
  0
LINE
  8
HIDDEN
 10
15.766416
 20
5.412454
 30
0.0
 11
15.766416
 21
5.662454
 31
0.0
  0
LINE
  8
HIDDEN
 10
15.721331
 20
5.662454
 30
0.0
 11
15.719353
 21
5.43584
 31
0.0
  0
ARC
  8
HIDDEN
 10
15.309222
 20
5.45584
 30
0.0
 40
0.02
 50
180.5
 51
270.0
  0
LINE
  8
HIDDEN
 10
15.856416
 20
5.412454
 30
0.0
 11
15.856416
 21
5.662454
 31
0.0
  0
LINE
  8
HIDDEN
 10
15.901416
 20
5.662454
 30
0.0
 11
15.903393
 21
5.43584
 31
0.0
  0
LINE
  8
OBJECT
 10
15.634304
 20
6.082454
 30
0.0
 11
15.635267
 21
6.004084
 31
0.0
  0
LINE
  8
OBJECT
 10
15.421443
 20
6.082454
 30
0.0
 11
15.42048
 21
6.004084
 31
0.0
  0
LINE
  8
OBJECT
 10
15.253525
 20
6.002454
 30
0.0
 11
15.251168
 21
5.912454
 31
0.0
  0
LINE
  8
OBJECT
 10
15.421443
 20
6.082454
 30
0.0
 11
15.634304
 21
6.082454
 31
0.0
  0
ARC
  8
HIDDEN
 10
17.260278
 20
5.299212
 30
0.0
 40
0.103242
 50
24.761514
 51
155.238486
  0
ARC
  8
HIDDEN
 10
17.260278
 20
5.332598
 30
0.0
 40
0.163242
 50
39.23096
 51
140.76904
  0
LINE
  8
OBJECT
 10
19.103304
 20
6.082454
 30
0.0
 11
18.890443
 21
6.082454
 31
0.0
  0
LINE
  8
HIDDEN
 10
19.058304
 20
6.082454
 30
0.0
 11
19.065373
 21
5.416894
 31
0.0
  0
LINE
  8
HIDDEN
 10
18.88948
 20
6.004084
 30
0.0
 11
18.884521
 21
5.43584
 31
0.0
  0
LINE
  8
HIDDEN
 10
18.935443
 20
6.082454
 30
0.0
 11
18.928373
 21
5.416894
 31
0.0
  0
LINE
  8
HIDDEN
 10
18.803416
 20
5.662454
 30
0.0
 11
18.805393
 21
5.43584
 31
0.0
  0
LINE
  8
HIDDEN
 10
18.803416
 20
5.662454
 30
0.0
 11
18.623331
 21
5.662454
 31
0.0
  0
LINE
  8
HIDDEN
 10
18.623331
 20
5.662454
 30
0.0
 11
18.621353
 21
5.43584
 31
0.0
  0
LINE
  8
HIDDEN
 10
18.668331
 20
5.412454
 30
0.0
 11
18.668331
 21
5.662454
 31
0.0
  0
LINE
  8
HIDDEN
 10
18.758331
 20
5.412454
 30
0.0
 11
18.758331
 21
5.662454
 31
0.0
  0
LINE
  8
HIDDEN
 10
18.758331
 20
5.412454
 30
0.0
 11
18.668331
 21
5.412454
 31
0.0
  0
LINE
  8
OBJECT
 10
18.890443
 20
6.082454
 30
0.0
 11
18.88948
 21
6.004084
 31
0.0
  0
LINE
  8
HIDDEN
 10
19.240295
 20
6.002454
 30
0.0
 11
19.235523
 21
5.455666
 31
0.0
  0
LINE
  8
OBJECT
 10
19.314652
 20
5.912454
 30
0.0
 11
19.326219
 21
5.470726
 31
0.0
  0
LINE
  8
HIDDEN
 10
19.104267
 20
6.004084
 30
0.0
 11
19.109226
 21
5.43584
 31
0.0
  0
ARC
  8
HIDDEN
 10
19.215524
 20
5.45584
 30
0.0
 40
0.02
 50
270.0
 51
359.5
  0
ARC
  8
OBJECT
 10
19.201262
 20
5.467454
 30
0.0
 40
0.125
 50
270.0
 51
1.5
  0
LINE
  8
OBJECT
 10
19.271222
 20
6.002454
 30
0.0
 11
19.273579
 21
5.912454
 31
0.0
  0
LINE
  8
OBJECT
 10
19.103304
 20
6.082454
 30
0.0
 11
19.104267
 21
6.004084
 31
0.0
  0
POLYLINE
  8
DIM
 66
     1
 10
0.0
 20
0.0
 30
0.0
 41
0.10125
  0
VERTEX
  8
DIM
 10
18.745431
 20
10.691639
 30
0.0
 41
0.105188
  0
VERTEX
  8
DIM
 10
19.016158
 20
10.765036
 30
0.0
 41
0.0
  0
VERTEX
  8
DIM
 10
19.832624
 20
10.986389
 30
0.0
 41
0.0
  0
VERTEX
  8
DIM
 10
20.102624
 20
10.986389
 30
0.0
 41
0.0
  0
SEQEND
  8
DIM
  0
POLYLINE
  8
DIM
 66
     1
 10
0.0
 20
0.0
 30
0.0
 41
0.10125
  0
VERTEX
  8
DIM
 10
18.775445
 20
10.594889
 30
0.0
 41
0.105188
  0
VERTEX
  8
DIM
 10
19.0367
 20
10.492779
 30
0.0
 41
0.0
  0
VERTEX
  8
DIM
 10
19.898207
 20
10.156064
 30
0.0
 41
0.0
  0
VERTEX
  8
DIM
 10
20.168207
 20
10.156064
 30
0.0
 41
0.0
  0
SEQEND
  8
DIM
  0
TEXT
  8
DIM
 10
20.303207
 20
10.062314
 30
0.0
 40
0.1875
  1
0.180 DIA. BOSS
 41
0.75
 11
20.303207
 21
10.156064
 31
0.0
 73
     2
  0
TEXT
  8
DIM
 10
20.237624
 20
10.892639
 30
0.0
 40
0.1875
  1
0.090 DIA. x 0.250 DEEP
 41
0.75
 11
20.237624
 21
10.986389
 31
0.0
 73
     2
  0
TEXT
  8
DIM
 10
20.237624
 20
10.580139
 30
0.0
 40
0.1875
  1
(4) HOLES
 41
0.75
 11
20.237624
 21
10.673889
 31
0.0
 73
     2
  0
POLYLINE
  8
HIDDEN
 66
     1
 10
0.0
 20
0.0
 30
0.0
 70
     1
  0
VERTEX
  8
HIDDEN
 10
19.209695
 20
1.914187
 30
0.0
 42
0.414214
  0
VERTEX
  8
HIDDEN
 10
19.240295
 20
1.944787
 30
0.0
  0
VERTEX
  8
HIDDEN
 10
19.240295
 20
3.964431
 30
0.0
 42
0.414214
  0
VERTEX
  8
HIDDEN
 10
19.209695
 20
3.995031
 30
0.0
  0
VERTEX
  8
HIDDEN
 10
15.315051
 20
3.995031
 30
0.0
 42
0.414214
  0
VERTEX
  8
HIDDEN
 10
15.284451
 20
3.964431
 30
0.0
  0
VERTEX
  8
HIDDEN
 10
15.284451
 20
1.944787
 30
0.0
 42
0.414214
  0
VERTEX
  8
HIDDEN
 10
15.315051
 20
1.914187
 30
0.0
  0
SEQEND
  8
HIDDEN
  0
POLYLINE
  8
HIDDEN
 66
     1
 10
0.0
 20
0.0
 30
0.0
 70
     1
  0
VERTEX
  8
HIDDEN
 10
19.209622
 20
1.88326
 30
0.0
 42
0.414214
  0
VERTEX
  8
HIDDEN
 10
19.271222
 20
1.94486
 30
0.0
  0
VERTEX
  8
HIDDEN
 10
19.271222
 20
3.964357
 30
0.0
 42
0.414214
  0
VERTEX
  8
HIDDEN
 10
19.209622
 20
4.025957
 30
0.0
  0
VERTEX
  8
HIDDEN
 10
15.315125
 20
4.025957
 30
0.0
 42
0.414214
  0
VERTEX
  8
HIDDEN
 10
15.253525
 20
3.964357
 30
0.0
  0
VERTEX
  8
HIDDEN
 10
15.253525
 20
1.94486
 30
0.0
 42
0.414214
  0
VERTEX
  8
HIDDEN
 10
15.315125
 20
1.88326
 30
0.0
  0
SEQEND
  8
HIDDEN
  0
CIRCLE
  8
OBJECT
 10
15.527873
 20
3.751609
 30
0.0
 40
0.124029
  0
CIRCLE
  8
OBJECT
 10
15.527873
 20
3.751609
 30
0.0
 40
0.10645
  0
CIRCLE
  8
OBJECT
 10
15.527873
 20
2.157609
 30
0.0
 40
0.061668
  0
CIRCLE
  8
OBJECT
 10
15.527873
 20
2.157609
 30
0.0
 40
0.124029
  0
CIRCLE
  8
OBJECT
 10
15.527873
 20
2.157609
 30
0.0
 40
0.067954
  0
CIRCLE
  8
OBJECT
 10
15.527873
 20
2.157609
 30
0.0
 40
0.10645
  0
CIRCLE
  8
OBJECT
 10
15.527873
 20
3.751609
 30
0.0
 40
0.061668
  0
CIRCLE
  8
OBJECT
 10
15.527873
 20
3.751609
 30
0.0
 40
0.067954
  0
CIRCLE
  8
OBJECT
 10
15.527873
 20
3.751609
 30
0.0
 40
0.061668
  0
CIRCLE
  8
HIDDEN
 10
17.262373
 20
2.954609
 30
0.0
 40
0.1197
  0
CIRCLE
  8
OBJECT
 10
18.996873
 20
3.751609
 30
0.0
 40
0.124029
  0
CIRCLE
  8
OBJECT
 10
18.996873
 20
3.751609
 30
0.0
 40
0.10645
  0
CIRCLE
  8
OBJECT
 10
18.996873
 20
2.157609
 30
0.0
 40
0.061668
  0
CIRCLE
  8
OBJECT
 10
18.996873
 20
2.157609
 30
0.0
 40
0.067954
  0
CIRCLE
  8
OBJECT
 10
18.996873
 20
2.157609
 30
0.0
 40
0.124029
  0
CIRCLE
  8
OBJECT
 10
18.996873
 20
2.157609
 30
0.0
 40
0.10645
  0
CIRCLE
  8
OBJECT
 10
18.996873
 20
3.751609
 30
0.0
 40
0.061668
  0
CIRCLE
  8
OBJECT
 10
18.996873
 20
3.751609
 30
0.0
 40
0.061668
  0
CIRCLE
  8
OBJECT
 10
18.996873
 20
3.751609
 30
0.0
 40
0.067954
  0
CIRCLE
  8
OBJECT
 10
17.262373
 20
2.954609
 30
0.0
 40
0.095845
  0
TEXT
  8
DIM
 10
20.303207
 20
9.749814
 30
0.0
 40
0.1875
  1
(4) PLACES
 41
0.75
 11
20.303207
 21
9.843564
 31
0.0
 73
     2
  0
DIMENSION
  8
DIM
  2
*D33
 10
20.116079
 20
5.342454
 30
0.0
 11
20.116079
 21
5.712454
 31
0.0
 12
0.0
 22
0.03
 32
0.0
  1
<>
 13
19.103304
 23
6.082454
 33
0.0
 14
19.633957
 24
5.342454
 34
0.0
 50
270.0
  3
23NSTDI
  0
DIMENSION
  8
DIM
  2
*D28
 10
18.465353
 20
5.43584
 30
0.0
 11
17.790822
 21
4.89584
 31
0.0
 12
-0.017132
 22
-17.12888
 32
0.0
  1
<>
 13
18.623331
 23
5.662454
 33
0.0
 14
18.621353
 24
5.43584
 34
0.0
 50
90.0
  3
23NSTD
  0
POLYLINE
  8
DIM
 66
     1
 10
0.0
 20
0.0
 30
0.0
 41
0.10125
  0
VERTEX
  8
DIM
 10
19.036748
 20
9.303709
 30
0.0
 41
0.105188
  0
VERTEX
  8
DIM
 10
19.257758
 20
9.130981
 30
0.0
 41
0.0
  0
VERTEX
  8
DIM
 10
20.05466
 20
8.508169
 30
0.0
 41
0.0
  0
VERTEX
  8
DIM
 10
20.32466
 20
8.508169
 30
0.0
 41
0.0
  0
SEQEND
  8
DIM
  0
POLYLINE
  8
DIM
 66
     1
 10
0.0
 20
0.0
 30
0.0
 41
0.10125
  0
VERTEX
  8
DIM
 10
19.101121
 20
9.328788
 30
0.0
 41
0.105188
  0
VERTEX
  8
DIM
 10
19.357732
 20
9.279071
 30
0.0
 41
0.0
  0
VERTEX
  8
DIM
 10
19.931141
 20
9.167976
 30
0.0
 41
0.0
  0
VERTEX
  8
DIM
 10
20.201141
 20
9.167976
 30
0.0
 41
0.0
  0
SEQEND
  8
DIM
  0
TEXT
  8
DIM
 10
20.336141
 20
8.761726
 30
0.0
 40
0.1875
  1
(4) PLACES
 41
0.75
 11
20.336141
 21
8.855476
 31
0.0
 73
     2
  0
TEXT
  8
DIM
 10
20.336141
 20
9.074226
 30
0.0
 40
0.1875
  1
0.213 DIA. BOSS
 41
0.75
 11
20.336141
 21
9.167976
 31
0.0
 73
     2
  0
TEXT
  8
DIM
 10
20.45966
 20
8.101919
 30
0.0
 40
0.1875
  1
(4) HOLES
 41
0.75
 11
20.45966
 21
8.195669
 31
0.0
 73
     2
  0
TEXT
  8
DIM
 10
20.45966
 20
8.414419
 30
0.0
 40
0.1875
  1
0.125 DIA. (AT TOP)
 41
0.75
 11
20.45966
 21
8.508169
 31
0.0
 73
     2
  0
LINE
  8
HIDDEN
 10
18.883373
 20
5.365127
 30
0.0
 11
19.110373
 21
5.365127
 31
0.0
  0
POLYLINE
  8
HIDDEN
 66
     1
 10
0.0
 20
0.0
 30
0.0
 70
     1
  0
VERTEX
  8
HIDDEN
 10
19.065373
 20
5.416894
 30
0.0
  0
VERTEX
  8
HIDDEN
 10
18.928373
 20
5.416894
 30
0.0
  0
VERTEX
  8
HIDDEN
 10
18.883373
 20
5.365127
 30
0.0
  0
VERTEX
  8
HIDDEN
 10
18.881373
 20
5.342454
 30
0.0
  0
VERTEX
  8
HIDDEN
 10
19.112373
 20
5.342454
 30
0.0
  0
VERTEX
  8
HIDDEN
 10
19.110373
 20
5.365127
 30
0.0
  0
SEQEND
  8
HIDDEN
  0
POLYLINE
  8
HIDDEN
 66
     1
 10
0.0
 20
0.0
 30
0.0
 70
     1
  0
VERTEX
  8
HIDDEN
 10
15.459373
 20
5.416894
 30
0.0
  0
VERTEX
  8
HIDDEN
 10
15.596373
 20
5.416894
 30
0.0
  0
VERTEX
  8
HIDDEN
 10
15.641373
 20
5.365127
 30
0.0
  0
VERTEX
  8
HIDDEN
 10
15.643373
 20
5.342454
 30
0.0
  0
VERTEX
  8
HIDDEN
 10
15.412373
 20
5.342454
 30
0.0
  0
VERTEX
  8
HIDDEN
 10
15.414373
 20
5.365127
 30
0.0
  0
SEQEND
  8
HIDDEN
  0
LINE
  8
HIDDEN
 10
15.641373
 20
5.365127
 30
0.0
 11
15.414373
 21
5.365127
 31
0.0
  0
LINE
  8
HIDDEN
 10
15.466443
 20
6.082454
 30
0.0
 11
15.459373
 21
5.416894
 31
0.0
  0
LINE
  8
HIDDEN
 10
15.589304
 20
6.082454
 30
0.0
 11
15.596373
 21
5.416894
 31
0.0
  0
CIRCLE
  8
HIDDEN
 10
15.811373
 20
2.441609
 30
0.0
 40
0.045
  0
CIRCLE
  8
HIDDEN
 10
15.811373
 20
2.441609
 30
0.0
 40
0.09
  0
CIRCLE
  8
HIDDEN
 10
18.713373
 20
2.441609
 30
0.0
 40
0.09
  0
CIRCLE
  8
HIDDEN
 10
18.713373
 20
2.441609
 30
0.0
 40
0.045
  0
CIRCLE
  8
HIDDEN
 10
18.713373
 20
3.467609
 30
0.0
 40
0.09
  0
CIRCLE
  8
HIDDEN
 10
18.713373
 20
3.467609
 30
0.0
 40
0.045
  0
CIRCLE
  8
HIDDEN
 10
15.811373
 20
3.467609
 30
0.0
 40
0.045
  0
CIRCLE
  8
HIDDEN
 10
15.811373
 20
3.467609
 30
0.0
 40
0.09
  0
DIMENSION
  8
DIM
  2
*D21
 10
19.699873
 20
4.382639
 30
0.0
 11
17.262373
 21
4.382639
 31
0.0
 12
-0.017132
 22
-17.15888
 32
0.0
  1
<>
 13
14.824873
 23
2.954609
 33
0.0625
 14
19.699873
 24
2.954609
 34
0.0625
  3
23NSTD
  0
DIMENSION
  8
DIM
  2
*D24
 10
19.512373
 20
1.112395
 30
0.0
 11
17.262373
 21
1.112395
 31
0.0
 12
-0.017132
 22
-17.15888
 32
0.0
  1
<>
 13
15.012373
 23
2.954609
 33
0.0
 14
19.512373
 24
2.954609
 34
0.0
 50
180.0
  3
23NSTD
  0
CIRCLE
  8
OBJECT
 10
15.012373
 20
2.954609
 30
0.0
 40
0.09375
  0
CIRCLE
  8
OBJECT
 10
19.512373
 20
2.954609
 30
0.0
 40
0.09375
  0
POLYLINE
  8
HIDDEN
 66
     1
 10
0.0
 20
0.0
 30
0.0
  0
VERTEX
  8
HIDDEN
 10
15.205738
 20
4.016078
 30
0.0
 42
0.096943
  0
VERTEX
  8
HIDDEN
 10
15.19799
 20
3.976492
 30
0.0
  0
VERTEX
  8
HIDDEN
 10
15.19799
 20
1.932725
 30
0.0
 42
0.096943
  0
VERTEX
  8
HIDDEN
 10
15.205738
 20
1.89314
 30
0.0
  0
SEQEND
  8
HIDDEN
  0
POLYLINE
  8
HIDDEN
 66
     1
 10
0.0
 20
0.0
 30
0.0
  0
VERTEX
  8
HIDDEN
 10
19.319009
 20
1.89314
 30
0.0
 42
0.096943
  0
VERTEX
  8
HIDDEN
 10
19.326757
 20
1.932725
 30
0.0
  0
VERTEX
  8
HIDDEN
 10
19.326757
 20
3.976492
 30
0.0
 42
0.096943
  0
VERTEX
  8
HIDDEN
 10
19.319009
 20
4.016078
 30
0.0
  0
SEQEND
  8
HIDDEN
  0
DIMENSION
  8
DIM
  2
*D27
 10
14.387958
 20
2.954609
 30
0.0
 11
14.387958
 21
3.518051
 31
0.0
 12
-0.017132
 22
-17.15888
 32
0.0
  1
<>
 13
15.30299
 23
4.081492
 33
0.0
 14
15.012373
 24
2.954609
 34
0.0
 50
90.0
  3
23NSTDI
  0
DIMENSION
  8
DIM
  2
*D26
 10
14.824873
 20
1.112395
 30
0.0
 11
13.903779
 21
1.112395
 31
0.0
 12
-0.017132
 22
-17.15888
 32
0.0
  1
<>
 13
15.012373
 23
2.954609
 33
0.0
 14
14.824873
 24
2.954609
 34
0.0
  3
23NSTD
  0
POLYLINE
  8
OBJECT
 66
     1
 10
0.0
 20
0.0
 30
0.0
 70
     1
  0
VERTEX
  8
OBJECT
 10
19.221757
 20
1.827725
 30
0.0
 42
0.313721
  0
VERTEX
  8
OBJECT
 10
19.320216
 20
1.896247
 30
0.0
  0
VERTEX
  8
OBJECT
 10
19.688194
 20
2.889469
 30
0.0
 42
0.17929
  0
VERTEX
  8
OBJECT
 10
19.688194
 20
3.019749
 30
0.0
  0
VERTEX
  8
OBJECT
 10
19.320216
 20
4.01297
 30
0.0
 42
0.313721
  0
VERTEX
  8
OBJECT
 10
19.221757
 20
4.081492
 30
0.0
  0
VERTEX
  8
OBJECT
 10
15.30299
 20
4.081492
 30
0.0
 42
0.313721
  0
VERTEX
  8
OBJECT
 10
15.20453
 20
4.01297
 30
0.0
  0
VERTEX
  8
OBJECT
 10
14.836552
 20
3.019749
 30
0.0
 42
0.17929
  0
VERTEX
  8
OBJECT
 10
14.836552
 20
2.889469
 30
0.0
  0
VERTEX
  8
OBJECT
 10
15.20453
 20
1.896247
 30
0.0
 42
0.313721
  0
VERTEX
  8
OBJECT
 10
15.30299
 20
1.827725
 30
0.0
  0
SEQEND
  8
OBJECT
  0
POLYLINE
  8
OBJECT
 66
     1
 10
0.0
 20
0.0
 30
0.0
  0
VERTEX
  8
OBJECT
 10
19.320216
 20
11.20542
 30
0.0
  0
VERTEX
  8
OBJECT
 10
19.688194
 20
10.212198
 30
0.0
 42
-0.17929
  0
VERTEX
  8
OBJECT
 10
19.688194
 20
10.081919
 30
0.0
  0
VERTEX
  8
OBJECT
 10
19.320216
 20
9.088697
 30
0.0
  0
SEQEND
  8
OBJECT
  0
CIRCLE
  8
OBJECT
 10
19.512373
 20
10.147058
 30
0.0
 40
0.09375
  0
POLYLINE
  8
OBJECT
 66
     1
 10
0.0
 20
0.0
 30
0.0
  0
VERTEX
  8
OBJECT
 10
15.20453
 20
11.20542
 30
0.0
  0
VERTEX
  8
OBJECT
 10
14.836552
 20
10.212198
 30
0.0
 42
0.17929
  0
VERTEX
  8
OBJECT
 10
14.836552
 20
10.081919
 30
0.0
  0
VERTEX
  8
OBJECT
 10
15.20453
 20
9.088697
 30
0.0
  0
SEQEND
  8
OBJECT
  0
CIRCLE
  8
OBJECT
 10
15.012373
 20
10.147058
 30
0.0
 40
0.09375
  0
DIMENSION
  8
DIM
  2
*D20
 10
14.539876
 20
5.342454
 30
0.0
 11
13.888783
 21
4.802454
 31
0.0
 12
-0.017132
 22
-17.12888
 32
0.0
  1
<>
 13
14.817436
 23
5.467454
 33
0.0625
 14
14.883352
 24
5.342454
 34
0.0625
 50
270.0
  3
23NSTD
  0
POLYLINE
  8
OBJECT
 66
     1
 10
0.0
 20
0.0
 30
0.0
  0
VERTEX
  8
OBJECT
 10
19.201262
 20
5.342454
 30
0.0
  0
VERTEX
  8
OBJECT
 10
19.633957
 20
5.342454
 30
0.0
 42
0.388879
  0
VERTEX
  8
OBJECT
 10
19.693729
 20
5.397225
 30
0.0
  0
VERTEX
  8
OBJECT
 10
19.699873
 20
5.467454
 30
0.0
  0
VERTEX
  8
OBJECT
 10
19.326305
 20
5.467454
 30
0.0
  0
SEQEND
  8
OBJECT
  0
LINE
  8
HIDDEN
 10
19.613561
 20
5.467454
 30
0.0
 11
19.624497
 21
5.342454
 31
0.0
  0
LINE
  8
HIDDEN
 10
19.426061
 20
5.467454
 30
0.0
 11
19.415125
 21
5.342454
 31
0.0
  0
POLYLINE
  8
OBJECT
 66
     1
 10
0.0
 20
0.0
 30
0.0
  0
VERTEX
  8
OBJECT
 10
15.198442
 20
5.467454
 30
0.0
  0
VERTEX
  8
OBJECT
 10
14.824873
 20
5.467454
 30
0.0
  0
VERTEX
  8
OBJECT
 10
14.831017
 20
5.397225
 30
0.0
 42
0.388879
  0
VERTEX
  8
OBJECT
 10
14.890789
 20
5.342454
 30
0.0
  0
VERTEX
  8
OBJECT
 10
15.409372
 20
5.342454
 30
0.0
  0
SEQEND
  8
OBJECT
  0
LINE
  8
HIDDEN
 10
14.911186
 20
5.467454
 30
0.0
 11
14.900249
 21
5.342454
 31
0.0
  0
LINE
  8
HIDDEN
 10
15.098686
 20
5.467454
 30
0.0
 11
15.109622
 21
5.342454
 31
0.0
  0
POLYLINE
  8
DIM
 66
     1
 10
0.0
 20
0.0
 30
0.0
 41
0.10125
  0
VERTEX
  8
DIM
 10
14.951447
 20
2.883355
 30
0.0
  0
VERTEX
  8
DIM
 10
14.791
 20
2.666199
 30
0.0
 41
0.0
  0
VERTEX
  8
DIM
 10
14.284533
 20
1.980727
 30
0.0
 41
0.0
  0
VERTEX
  8
DIM
 10
14.014533
 20
1.980727
 30
0.0
 41
0.0
  0
SEQEND
  8
DIM
  0
TEXT
  8
DIM
 10
12.824846
 20
1.886977
 30
0.0
 40
0.1875
  1
0.187 DIA.
 41
0.75
 72
     2
 11
13.879533
 21
1.980727
 31
0.0
 73
     2
  0
TEXT
  8
DIM
 10
12.754533
 20
1.574477
 30
0.0
 40
0.1875
  1
(2) HOLES
 41
0.75
 72
     2
 11
13.879533
 21
1.668227
 31
0.0
 73
     2
  0
ENDSEC
  0
EOF
