  0
SECTION
  2
HEADER
  9
$ACADVER
  1
AC1015
  9
$ACADMAINTVER
 70
     6
  9
$DWGCODEPAGE
  3
ANSI_1252
  9
$INSBASE
 10
0.0
 20
0.0
 30
0.0
  9
$EXTMIN
 10
-0.0016546312238575
 20
-0.0010803140635574
 30
-0.0000000000000053
  9
$EXTMAX
 10
54.25165608388663
 20
35.42108126251177
 30
0.0000000000000099
  9
$LIMMIN
 10
0.0
 20
0.0
  9
$LIMMAX
 10
54.25
 20
35.41999999999998
  9
$ORTHOMODE
 70
     1
  9
$REGENMODE
 70
     1
  9
$FILLMODE
 70
     1
  9
$QTEXTMODE
 70
     0
  9
$MIRRTEXT
 70
     0
  9
$LTSCALE
 40
1.5
  9
$ATTMODE
 70
     1
  9
$TEXTSIZE
 40
0.4375
  9
$TRACEWID
 40
0.05
  9
$TEXTSTYLE
  7
TXT
  9
$CLAYER
  8
OBJECT
  9
$CELTYPE
  6
ByLayer
  9
$CECOLOR
 62
   256
  9
$CELTSCALE
 40
1.0
  9
$DISPSILH
 70
     0
  9
$DIMSCALE
 40
3.5
  9
$DIMASZ
 40
0.18
  9
$DIMEXO
 40
0.063
  9
$DIMDLI
 40
0.281
  9
$DIMRND
 40
0.0
  9
$DIMDLE
 40
0.0
  9
$DIMEXE
 40
0.1
  9
$DIMTP
 40
0.0
  9
$DIMTM
 40
0.0
  9
$DIMTXT
 40
0.125
  9
$DIMCEN
 40
0.09
  9
$DIMTSZ
 40
0.0
  9
$DIMTOL
 70
     0
  9
$DIMLIM
 70
     0
  9
$DIMTIH
 70
     1
  9
$DIMTOH
 70
     1
  9
$DIMSE1
 70
     0
  9
$DIMSE2
 70
     0
  9
$DIMTAD
 70
     0
  9
$DIMZIN
 70
     0
  9
$DIMBLK
  1

  9
$DIMASO
 70
     1
  9
$DIMSHO
 70
     1
  9
$DIMPOST
  1

  9
$DIMAPOST
  1

  9
$DIMALT
 70
     0
  9
$DIMALTD
 70
     2
  9
$DIMALTF
 40
25.4
  9
$DIMLFAC
 40
1.0
  9
$DIMTOFL
 70
     0
  9
$DIMTVP
 40
0.0
  9
$DIMTIX
 70
     0
  9
$DIMSOXD
 70
     0
  9
$DIMSAH
 70
     0
  9
$DIMBLK1
  1

  9
$DIMBLK2
  1

  9
$DIMSTYLE
  2
23NSTD
  9
$DIMCLRD
 70
     0
  9
$DIMCLRE
 70
     0
  9
$DIMCLRT
 70
     0
  9
$DIMTFAC
 40
1.0
  9
$DIMGAP
 40
0.09
  9
$DIMJUST
 70
     0
  9
$DIMSD1
 70
     0
  9
$DIMSD2
 70
     0
  9
$DIMTOLJ
 70
     1
  9
$DIMTZIN
 70
     0
  9
$DIMALTZ
 70
     0
  9
$DIMALTTZ
 70
     0
  9
$DIMUPT
 70
     0
  9
$DIMDEC
 70
     3
  9
$DIMTDEC
 70
     3
  9
$DIMALTU
 70
     2
  9
$DIMALTTD
 70
     2
  9
$DIMTXSTY
  7
TXT
  9
$DIMAUNIT
 70
     0
  9
$DIMADEC
 70
     0
  9
$DIMALTRND
 40
0.0
  9
$DIMAZIN
 70
     0
  9
$DIMDSEP
 70
    46
  9
$DIMATFIT
 70
     1
  9
$DIMFRAC
 70
     0
  9
$DIMLDRBLK
  1

  9
$DIMLUNIT
 70
     2
  9
$DIMLWD
 70
    -2
  9
$DIMLWE
 70
    -2
  9
$DIMTMOVE
 70
     0
  9
$LUNITS
 70
     2
  9
$LUPREC
 70
     4
  9
$SKETCHINC
 40
0.1
  9
$FILLETRAD
 40
0.0
  9
$AUNITS
 70
     0
  9
$AUPREC
 70
     0
  9
$MENU
  1
acad
  9
$ELEVATION
 40
0.0
  9
$PELEVATION
 40
0.0
  9
$THICKNESS
 40
0.0
  9
$LIMCHECK
 70
     0
  9
$CHAMFERA
 40
0.0
  9
$CHAMFERB
 40
0.0
  9
$CHAMFERC
 40
0.0
  9
$CHAMFERD
 40
0.0
  9
$SKPOLY
 70
     0
  9
$TDCREATE
 40
2450336.308312962
  9
$TDUCREATE
 40
2450336.516646296
  9
$TDUPDATE
 40
2453802.361640983
  9
$TDUUPDATE
 40
2453802.569974317
  9
$TDINDWG
 40
0.2250210995
  9
$TDUSRTIMER
 40
0.2250210995
  9
$USRTIMER
 70
     1
  9
$ANGBASE
 50
0.0
  9
$ANGDIR
 70
     0
  9
$PDMODE
 70
     0
  9
$PDSIZE
 40
0.0
  9
$PLINEWID
 40
0.0
  9
$SPLFRAME
 70
     0
  9
$SPLINETYPE
 70
     6
  9
$SPLINESEGS
 70
     8
  9
$HANDSEED
  5
7E8
  9
$SURFTAB1
 70
     6
  9
$SURFTAB2
 70
     6
  9
$SURFTYPE
 70
     6
  9
$SURFU
 70
     6
  9
$SURFV
 70
     6
  9
$UCSBASE
  2

  9
$UCSNAME
  2

  9
$UCSORG
 10
0.0
 20
0.0
 30
0.0
  9
$UCSXDIR
 10
1.0
 20
0.0
 30
0.0
  9
$UCSYDIR
 10
0.0
 20
1.0
 30
0.0
  9
$UCSORTHOREF
  2

  9
$UCSORTHOVIEW
 70
     0
  9
$UCSORGTOP
 10
0.0
 20
0.0
 30
0.0
  9
$UCSORGBOTTOM
 10
0.0
 20
0.0
 30
0.0
  9
$UCSORGLEFT
 10
0.0
 20
0.0
 30
0.0
  9
$UCSORGRIGHT
 10
0.0
 20
0.0
 30
0.0
  9
$UCSORGFRONT
 10
0.0
 20
0.0
 30
0.0
  9
$UCSORGBACK
 10
0.0
 20
0.0
 30
0.0
  9
$PUCSBASE
  2

  9
$PUCSNAME
  2

  9
$PUCSORG
 10
0.0
 20
0.0
 30
0.0
  9
$PUCSXDIR
 10
1.0
 20
0.0
 30
0.0
  9
$PUCSYDIR
 10
0.0
 20
1.0
 30
0.0
  9
$PUCSORTHOREF
  2

  9
$PUCSORTHOVIEW
 70
     0
  9
$PUCSORGTOP
 10
0.0
 20
0.0
 30
0.0
  9
$PUCSORGBOTTOM
 10
0.0
 20
0.0
 30
0.0
  9
$PUCSORGLEFT
 10
0.0
 20
0.0
 30
0.0
  9
$PUCSORGRIGHT
 10
0.0
 20
0.0
 30
0.0
  9
$PUCSORGFRONT
 10
0.0
 20
0.0
 30
0.0
  9
$PUCSORGBACK
 10
0.0
 20
0.0
 30
0.0
  9
$USERI1
 70
     0
  9
$USERI2
 70
     0
  9
$USERI3
 70
     0
  9
$USERI4
 70
     0
  9
$USERI5
 70
     0
  9
$USERR1
 40
0.0
  9
$USERR2
 40
0.0
  9
$USERR3
 40
0.0
  9
$USERR4
 40
0.0
  9
$USERR5
 40
0.0
  9
$WORLDVIEW
 70
     1
  9
$SHADEDGE
 70
     3
  9
$SHADEDIF
 70
    70
  9
$TILEMODE
 70
     1
  9
$MAXACTVP
 70
    16
  9
$PINSBASE
 10
0.0
 20
0.0
 30
0.0
  9
$PLIMCHECK
 70
     0
  9
$PEXTMIN
 10
1.000000000000000E+20
 20
1.000000000000000E+20
 30
1.000000000000000E+20
  9
$PEXTMAX
 10
-1.000000000000000E+20
 20
-1.000000000000000E+20
 30
-1.000000000000000E+20
  9
$PLIMMIN
 10
0.0
 20
0.0
  9
$PLIMMAX
 10
12.0
 20
9.0
  9
$UNITMODE
 70
     0
  9
$VISRETAIN
 70
     0
  9
$PLINEGEN
 70
     0
  9
$PSLTSCALE
 70
     1
  9
$TREEDEPTH
 70
  3020
  9
$CMLSTYLE
  2
Standard
  9
$CMLJUST
 70
     0
  9
$CMLSCALE
 40
1.0
  9
$PROXYGRAPHICS
 70
     1
  9
$MEASUREMENT
 70
     0
  9
$CELWEIGHT
370
    -1
  9
$ENDCAPS
280
     0
  9
$JOINSTYLE
280
     0
  9
$LWDISPLAY
290
     0
  9
$INSUNITS
 70
     0
  9
$HYPERLINKBASE
  1

  9
$STYLESHEET
  1
monochrome.ctb
  9
$XEDIT
290
     1
  9
$CEPSNTYPE
380
     0
  9
$PSTYLEMODE
290
     1
  9
$FINGERPRINTGUID
  2
{A4358F2C-9ABA-11D4-81CD-00C04F604D1B}
  9
$VERSIONGUID
  2
{2E909C62-2F12-4F3D-A52E-2F2B440ADAE7}
  9
$EXTNAMES
290
     1
  9
$PSVPSCALE
 40
0.0
  9
$OLESTARTUP
290
     0
  0
ENDSEC
  0
SECTION
  2
CLASSES
  0
CLASS
  1
ACDBDICTIONARYWDFLT
  2
AcDbDictionaryWithDefault
  3
AutoCAD 2000
 90
        0
280
     0
281
     0
  0
CLASS
  1
ACDBPLACEHOLDER
  2
AcDbPlaceHolder
  3
AutoCAD 2000
 90
        0
280
     0
281
     0
  0
CLASS
  1
LAYOUT
  2
AcDbLayout
  3
AutoCAD 2000
 90
        0
280
     0
281
     0
  0
ENDSEC
  0
SECTION
  2
TABLES
  0
TABLE
  2
VPORT
  5
8
330
0
100
AcDbSymbolTable
 70
     7
  0
VPORT
  5
7E7
330
8
100
AcDbSymbolTableRecord
100
AcDbViewportTableRecord
  2
*Active
 70
     0
 10
0.0
 20
0.0
 11
1.0
 21
1.0
 12
27.12500072633138
 22
17.7100004742241
 13
0.0
 23
0.0
 14
1.0
 24
1.0
 15
0.0
 25
0.0
 16
0.0
 26
0.0
 36
1.0
 17
0.0
 27
0.0
 37
0.0
 40
35.77638319234108
 41
1.824707846410684
 42
50.0
 43
0.0
 44
0.0
 50
0.0
 51
0.0
 71
     0
 72
   500
 73
     1
 74
     0
 75
     0
 76
     0
 77
     0
 78
     0
281
     0
 65
     1
110
0.0
120
0.0
130
0.0
111
1.0
121
0.0
131
0.0
112
0.0
122
1.0
132
0.0
 79
     0
146
0.0
  0
ENDTAB
  0
TABLE
  2
LTYPE
  5
5
330
0
100
AcDbSymbolTable
 70
     4
  0
LTYPE
  5
13
330
5
100
AcDbSymbolTableRecord
100
AcDbLinetypeTableRecord
  2
ByBlock
 70
     0
  3

 72
    65
 73
     0
 40
0.0
  0
LTYPE
  5
14
330
5
100
AcDbSymbolTableRecord
100
AcDbLinetypeTableRecord
  2
ByLayer
 70
     0
  3

 72
    65
 73
     0
 40
0.0
  0
LTYPE
  5
15
330
5
100
AcDbSymbolTableRecord
100
AcDbLinetypeTableRecord
  2
CONTINUOUS
 70
     0
  3
Solid line
 72
    65
 73
     0
 40
0.0
  0
LTYPE
  5
39
330
5
100
AcDbSymbolTableRecord
100
AcDbLinetypeTableRecord
  2
HIDDEN
 70
     0
  3
_ _ _ _ _ _ _ _ _ _ _ _ _ _ _ _ _ _ _ _ _ _ _
 72
    65
 73
     2
 40
0.375
 49
0.25
 74
     0
 49
-0.125
 74
     0
  0
LTYPE
  5
3A
330
5
100
AcDbSymbolTableRecord
100
AcDbLinetypeTableRecord
  2
PHANTOM
 70
     0
  3
_____ _ _ _____ _ _ _____ _ _ _____ _ _ ____
 72
    65
 73
     6
 40
2.5
 49
1.25
 74
     0
 49
-0.25
 74
     0
 49
0.25
 74
     0
 49
-0.25
 74
     0
 49
0.25
 74
     0
 49
-0.25
 74
     0
  0
LTYPE
  5
3B
330
5
100
AcDbSymbolTableRecord
100
AcDbLinetypeTableRecord
  2
CENTER
 70
     0
  3
____ _ ____ _ ____ _ ____ _ ____ _ ____ _ ____
 72
    65
 73
     4
 40
2.0
 49
1.25
 74
     0
 49
-0.25
 74
     0
 49
0.25
 74
     0
 49
-0.25
 74
     0
  0
ENDTAB
  0
TABLE
  2
LAYER
  5
2
330
0
100
AcDbSymbolTable
 70
     9
  0
LAYER
  5
10
330
2
100
AcDbSymbolTableRecord
100
AcDbLayerTableRecord
  2
0
 70
     0
 62
     7
  6
CONTINUOUS
370
    -3
390
F
  0
LAYER
  5
40
330
2
100
AcDbSymbolTableRecord
100
AcDbLayerTableRecord
  2
OBJECT
 70
     0
 62
     7
  6
CONTINUOUS
370
    -3
390
F
  0
LAYER
  5
41
330
2
100
AcDbSymbolTableRecord
100
AcDbLayerTableRecord
  2
DIM
 70
     0
 62
     2
  6
CONTINUOUS
370
    -3
390
F
  0
LAYER
  5
42
330
2
100
AcDbSymbolTableRecord
100
AcDbLayerTableRecord
  2
HIDDEN
 70
     0
 62
     6
  6
HIDDEN
370
    -3
390
F
  0
LAYER
  5
43
330
2
100
AcDbSymbolTableRecord
100
AcDbLayerTableRecord
  2
BEND
 70
     0
 62
     4
  6
PHANTOM
370
    -3
390
F
  0
LAYER
  5
44
330
2
100
AcDbSymbolTableRecord
100
AcDbLayerTableRecord
  2
TEXT
 70
     0
 62
     1
  6
CONTINUOUS
370
    -3
390
F
  0
LAYER
  5
45
330
2
100
AcDbSymbolTableRecord
100
AcDbLayerTableRecord
  2
TITLE
 70
     0
 62
     8
  6
CONTINUOUS
370
    -3
390
F
  0
LAYER
  5
46
330
2
100
AcDbSymbolTableRecord
100
AcDbLayerTableRecord
  2
CENTER
 70
     0
 62
     3
  6
CENTER
370
    -3
390
F
  0
LAYER
  5
47
330
2
100
AcDbSymbolTableRecord
100
AcDbLayerTableRecord
  2
DEFPOINTS
 70
     0
 62
     7
  6
CONTINUOUS
290
     0
370
    -3
390
F
  0
ENDTAB
  0
TABLE
  2
STYLE
  5
3
330
0
100
AcDbSymbolTable
 70
     2
  0
STYLE
  5
11
330
3
100
AcDbSymbolTableRecord
100
AcDbTextStyleTableRecord
  2
STANDARD
 70
     0
 40
0.0
 41
1.0
 50
0.0
 71
     0
 42
0.2
  3
txt
  4

  0
STYLE
  5
38
330
3
100
AcDbSymbolTableRecord
100
AcDbTextStyleTableRecord
  2
TXT
 70
     0
 40
0.0
 41
0.75
 50
0.0
 71
     0
 42
0.4375
  3
TXT.shx
  4

  0
ENDTAB
  0
TABLE
  2
VIEW
  5
6
330
0
100
AcDbSymbolTable
 70
     0
  0
ENDTAB
  0
TABLE
  2
UCS
  5
7
330
0
100
AcDbSymbolTable
 70
     0
  0
ENDTAB
  0
TABLE
  2
APPID
  5
9
330
0
100
AcDbSymbolTable
 70
     1
  0
APPID
  5
12
330
9
100
AcDbSymbolTableRecord
100
AcDbRegAppTableRecord
  2
ACAD
 70
     0
  0
ENDTAB
  0
TABLE
  2
DIMSTYLE
  5
A
330
0
100
AcDbSymbolTable
 70
     3
100
AcDbDimStyleTable
 71
     2
340
3E
340
3F
  0
DIMSTYLE
105
3E
102
{ACAD_REACTORS
330
2D6
330
2D9
330
2DA
330
2DC
330
2DD
330
2E0
330
2E1
330
2E2
330
2E3
330
2F0
330
2F2
330
2F1
330
1BE
330
355
102
}
330
A
100
AcDbSymbolTableRecord
100
AcDbDimStyleTableRecord
  2
23NSTD
 70
     0
 40
3.5
 42
0.063
 43
0.281
 44
0.1
140
0.125
271
     3
272
     3
289
     1
340
38
  0
DIMSTYLE
105
3F
102
{ACAD_REACTORS
330
2D7
330
2D8
330
2DB
330
2DE
330
2DF
330
2E4
330
2F3
102
}
330
A
100
AcDbSymbolTableRecord
100
AcDbDimStyleTableRecord
  2
23NSTDI
 70
     0
 40
3.5
 42
0.063
 43
0.281
 44
0.1
140
0.125
174
     1
271
     3
272
     3
340
38
  0
DIMSTYLE
105
6AC
330
A
100
AcDbSymbolTableRecord
100
AcDbDimStyleTableRecord
  2
Standard
 70
     0
340
38
  0
ENDTAB
  0
TABLE
  2
BLOCK_RECORD
  5
1
330
0
100
AcDbSymbolTable
 70
    22
  0
BLOCK_RECORD
  5
1E
330
1
100
AcDbSymbolTableRecord
100
AcDbBlockTableRecord
  2
*Model_Space
340
21
  0
BLOCK_RECORD
  5
1A
330
1
100
AcDbSymbolTableRecord
100
AcDbBlockTableRecord
  2
*Paper_Space
340
1D
  0
BLOCK_RECORD
  5
3DB
330
1
100
AcDbSymbolTableRecord
100
AcDbBlockTableRecord
  2
*D0
340
0
  0
BLOCK_RECORD
  5
3E8
330
1
100
AcDbSymbolTableRecord
100
AcDbBlockTableRecord
  2
*D1
340
0
  0
BLOCK_RECORD
  5
3F5
330
1
100
AcDbSymbolTableRecord
100
AcDbBlockTableRecord
  2
*D2
340
0
  0
BLOCK_RECORD
  5
402
330
1
100
AcDbSymbolTableRecord
100
AcDbBlockTableRecord
  2
*D3
340
0
  0
BLOCK_RECORD
  5
40F
330
1
100
AcDbSymbolTableRecord
100
AcDbBlockTableRecord
  2
*D4
340
0
  0
BLOCK_RECORD
  5
41C
330
1
100
AcDbSymbolTableRecord
100
AcDbBlockTableRecord
  2
*D5
340
0
  0
BLOCK_RECORD
  5
429
330
1
100
AcDbSymbolTableRecord
100
AcDbBlockTableRecord
  2
*D6
340
0
  0
BLOCK_RECORD
  5
436
330
1
100
AcDbSymbolTableRecord
100
AcDbBlockTableRecord
  2
*D7
340
0
  0
BLOCK_RECORD
  5
443
330
1
100
AcDbSymbolTableRecord
100
AcDbBlockTableRecord
  2
*D8
340
0
  0
BLOCK_RECORD
  5
450
330
1
100
AcDbSymbolTableRecord
100
AcDbBlockTableRecord
  2
*D9
340
0
  0
BLOCK_RECORD
  5
45D
330
1
100
AcDbSymbolTableRecord
100
AcDbBlockTableRecord
  2
*D10
340
0
  0
BLOCK_RECORD
  5
46A
330
1
100
AcDbSymbolTableRecord
100
AcDbBlockTableRecord
  2
*D11
340
0
  0
BLOCK_RECORD
  5
477
330
1
100
AcDbSymbolTableRecord
100
AcDbBlockTableRecord
  2
*D12
340
0
  0
BLOCK_RECORD
  5
484
330
1
100
AcDbSymbolTableRecord
100
AcDbBlockTableRecord
  2
*D13
340
0
  0
BLOCK_RECORD
  5
49B
330
1
100
AcDbSymbolTableRecord
100
AcDbBlockTableRecord
  2
*D14
340
0
  0
BLOCK_RECORD
  5
4A8
330
1
100
AcDbSymbolTableRecord
100
AcDbBlockTableRecord
  2
*D15
340
0
  0
BLOCK_RECORD
  5
4B5
330
1
100
AcDbSymbolTableRecord
100
AcDbBlockTableRecord
  2
*D16
340
0
  0
BLOCK_RECORD
  5
4C2
330
1
100
AcDbSymbolTableRecord
100
AcDbBlockTableRecord
  2
*D17
340
0
  0
BLOCK_RECORD
  5
4CF
330
1
100
AcDbSymbolTableRecord
100
AcDbBlockTableRecord
  2
*D18
340
0
  0
BLOCK_RECORD
  5
4DC
330
1
100
AcDbSymbolTableRecord
100
AcDbBlockTableRecord
  2
*D19
340
0
  0
BLOCK_RECORD
  5
4E9
330
1
100
AcDbSymbolTableRecord
100
AcDbBlockTableRecord
  2
*D20
340
0
  0
BLOCK_RECORD
  5
6AD
330
1
100
AcDbSymbolTableRecord
100
AcDbBlockTableRecord
  2
HBS
340
0
  0
ENDTAB
  0
ENDSEC
  0
SECTION
  2
BLOCKS
  0
BLOCK
  5
4A
330
1E
100
AcDbEntity
  8
0
100
AcDbBlockBegin
  2
*Model_Space
 70
     0
 10
0.0
 20
0.0
 30
0.0
  3
*Model_Space
  1

  0
ENDBLK
  5
4B
330
1E
100
AcDbEntity
  8
0
100
AcDbBlockEnd
  0
BLOCK
  5
48
330
1A
100
AcDbEntity
 67
     1
  8
0
100
AcDbBlockBegin
  2
*Paper_Space
 70
     0
 10
0.0
 20
0.0
 30
0.0
  3
*Paper_Space
  1

  0
ENDBLK
  5
49
330
1A
100
AcDbEntity
 67
     1
  8
0
100
AcDbBlockEnd
  0
BLOCK
  5
3E6
330
3DB
100
AcDbEntity
  8
0
100
AcDbBlockBegin
  2
*D0
 70
     1
 10
0.0
 20
0.0
 30
0.0
  3
*D0
  1

  0
LINE
  5
710
330
3DB
100
AcDbEntity
  8
DIM
 62
     0
370
    -2
100
AcDbLine
 10
19.51677253206893
 20
18.62591649148965
 30
0.0
 11
19.51677253206893
 21
22.38109611959821
 31
0.0
  0
LINE
  5
711
330
3DB
100
AcDbEntity
  8
DIM
 62
     0
370
    -2
100
AcDbLine
 10
34.51677253206894
 20
18.67591649148965
 30
0.0
 11
34.51677253206894
 21
22.38109611959821
 31
0.0
  0
LINE
  5
712
330
3DB
100
AcDbEntity
  8
DIM
 62
     0
370
    -2
100
AcDbLine
 10
20.14677253206893
 20
22.03109611959821
 30
0.0
 11
26.59239753206893
 21
22.03109611959821
 31
0.0
  0
LINE
  5
713
330
3DB
100
AcDbEntity
  8
DIM
 62
     0
370
    -2
100
AcDbLine
 10
33.88677253206894
 20
22.03109611959821
 30
0.0
 11
27.44114753206893
 21
22.03109611959821
 31
0.0
  0
SOLID
  5
714
330
3DB
100
AcDbEntity
  8
DIM
 62
     0
100
AcDbTrace
 10
20.14677253206893
 20
22.13609611959821
 30
0.0
 11
20.14677253206893
 21
21.92609611959821
 31
0.0
 12
19.51677253206893
 22
22.03109611959821
 32
0.0
 13
19.51677253206893
 23
22.03109611959821
 33
0.0
  0
SOLID
  5
715
330
3DB
100
AcDbEntity
  8
DIM
 62
     0
100
AcDbTrace
 10
33.88677253206894
 20
22.13609611959821
 30
0.0
 11
33.88677253206894
 21
21.92609611959821
 31
0.0
 12
34.51677253206894
 22
22.03109611959821
 32
0.0
 13
34.51677253206894
 23
22.03109611959821
 33
0.0
  0
MTEXT
  5
716
330
3DB
100
AcDbEntity
  8
DIM
 62
     0
100
AcDbMText
 10
27.01677253206893
 20
22.03109611959821
 30
0.0
 40
0.4375
 41
0.0
 71
     5
 72
     1
  1
\A1;C
  7
TXT
 73
     1
 44
1.0
  0
POINT
  5
717
330
3DB
100
AcDbEntity
  8
DEFPOINTS
 62
     0
100
AcDbPoint
 10
19.51677253206893
 20
18.40541649148965
 30
0.0
  0
POINT
  5
718
330
3DB
100
AcDbEntity
  8
DEFPOINTS
 62
     0
100
AcDbPoint
 10
34.51677253206894
 20
18.45541649148965
 30
0.0
  0
POINT
  5
719
330
3DB
100
AcDbEntity
  8
DEFPOINTS
 62
     0
100
AcDbPoint
 10
34.51677253206894
 20
22.03109611959821
 30
0.0
  0
ENDBLK
  5
3E7
330
3DB
100
AcDbEntity
  8
0
100
AcDbBlockEnd
  0
BLOCK
  5
3F3
330
3E8
100
AcDbEntity
  8
0
100
AcDbBlockBegin
  2
*D1
 70
     1
 10
0.0
 20
0.0
 30
0.0
  3
*D1
  1

  0
LINE
  5
77E
330
3E8
100
AcDbEntity
  8
DIM
 62
     0
370
    -2
100
AcDbLine
 10
20.01677253206894
 20
18.57591649148965
 30
0.0
 11
20.01677253206894
 21
19.78059611959821
 31
0.0
  0
LINE
  5
77F
330
3E8
100
AcDbEntity
  8
DIM
 62
     0
370
    -2
100
AcDbLine
 10
19.51677253206893
 20
18.62591649148965
 30
0.0
 11
19.51677253206893
 21
19.78059611959821
 31
0.0
  0
LINE
  5
780
330
3E8
100
AcDbEntity
  8
DIM
 62
     0
370
    -2
100
AcDbLine
 10
20.64677253206893
 20
19.43059611959821
 30
0.0
 11
21.27677253206893
 21
19.43059611959821
 31
0.0
  0
LINE
  5
781
330
3E8
100
AcDbEntity
  8
DIM
 62
     0
370
    -2
100
AcDbLine
 10
18.88677253206894
 20
19.43059611959821
 30
0.0
 11
18.25677253206894
 21
19.43059611959821
 31
0.0
  0
SOLID
  5
782
330
3E8
100
AcDbEntity
  8
DIM
 62
     0
100
AcDbTrace
 10
20.64677253206893
 20
19.53559611959821
 30
0.0
 11
20.64677253206893
 21
19.32559611959821
 31
0.0
 12
20.01677253206894
 22
19.43059611959821
 32
0.0
 13
20.01677253206894
 23
19.43059611959821
 33
0.0
  0
SOLID
  5
783
330
3E8
100
AcDbEntity
  8
DIM
 62
     0
100
AcDbTrace
 10
18.88677253206894
 20
19.53559611959821
 30
0.0
 11
18.88677253206894
 21
19.32559611959821
 31
0.0
 12
19.51677253206893
 22
19.43059611959821
 32
0.0
 13
19.51677253206893
 23
19.43059611959821
 33
0.0
  0
MTEXT
  5
784
330
3E8
100
AcDbEntity
  8
DIM
 62
     0
100
AcDbMText
 10
17.36755378206893
 20
19.43059611959821
 30
0.0
 40
0.4375
 41
0.0
 71
     5
 72
     1
  1
\A1;0.500
  7
TXT
 73
     1
 44
1.0
  0
POINT
  5
785
330
3E8
100
AcDbEntity
  8
DEFPOINTS
 62
     0
100
AcDbPoint
 10
20.01677253206894
 20
18.35541649148965
 30
0.0
  0
POINT
  5
786
330
3E8
100
AcDbEntity
  8
DEFPOINTS
 62
     0
100
AcDbPoint
 10
19.51677253206893
 20
18.40541649148965
 30
0.0
  0
POINT
  5
787
330
3E8
100
AcDbEntity
  8
DEFPOINTS
 62
     0
100
AcDbPoint
 10
19.51677253206893
 20
19.43059611959821
 30
0.0
  0
ENDBLK
  5
3F4
330
3E8
100
AcDbEntity
  8
0
100
AcDbBlockEnd
  0
BLOCK
  5
400
330
3F5
100
AcDbEntity
  8
0
100
AcDbBlockBegin
  2
*D2
 70
     1
 10
0.0
 20
0.0
 30
0.0
  3
*D2
  1

  0
LINE
  5
706
330
3F5
100
AcDbEntity
  8
DIM
 62
     0
370
    -2
100
AcDbLine
 10
30.32927253206894
 20
15.92591649148965
 30
0.0
 11
30.32927253206894
 21
19.78059611959821
 31
0.0
  0
LINE
  5
707
330
3F5
100
AcDbEntity
  8
DIM
 62
     0
370
    -2
100
AcDbLine
 10
28.32927253206893
 20
15.92591649148965
 30
0.0
 11
28.32927253206893
 21
19.78059611959821
 31
0.0
  0
LINE
  5
708
330
3F5
100
AcDbEntity
  8
DIM
 62
     0
370
    -2
100
AcDbLine
 10
30.95927253206893
 20
19.43059611959821
 30
0.0
 11
31.58927253206893
 21
19.43059611959821
 31
0.0
  0
LINE
  5
709
330
3F5
100
AcDbEntity
  8
DIM
 62
     0
370
    -2
100
AcDbLine
 10
27.69927253206894
 20
19.43059611959821
 30
0.0
 11
27.06927253206893
 21
19.43059611959821
 31
0.0
  0
SOLID
  5
70A
330
3F5
100
AcDbEntity
  8
DIM
 62
     0
100
AcDbTrace
 10
30.95927253206893
 20
19.53559611959821
 30
0.0
 11
30.95927253206893
 21
19.32559611959821
 31
0.0
 12
30.32927253206894
 22
19.43059611959821
 32
0.0
 13
30.32927253206894
 23
19.43059611959821
 33
0.0
  0
SOLID
  5
70B
330
3F5
100
AcDbEntity
  8
DIM
 62
     0
100
AcDbTrace
 10
27.69927253206894
 20
19.53559611959821
 30
0.0
 11
27.69927253206894
 21
19.32559611959821
 31
0.0
 12
28.32927253206893
 22
19.43059611959821
 32
0.0
 13
28.32927253206893
 23
19.43059611959821
 33
0.0
  0
MTEXT
  5
70C
330
3F5
100
AcDbEntity
  8
DIM
 62
     0
100
AcDbMText
 10
25.46911628206894
 20
19.43059611959821
 30
0.0
 40
0.4375
 41
0.0
 71
     5
 72
     1
  1
\A1;2.000 TYP.
  7
TXT
 73
     1
 44
1.0
  0
POINT
  5
70D
330
3F5
100
AcDbEntity
  8
DEFPOINTS
 62
     0
100
AcDbPoint
 10
30.32927253206894
 20
15.70541649148965
 30
0.0
  0
POINT
  5
70E
330
3F5
100
AcDbEntity
  8
DEFPOINTS
 62
     0
100
AcDbPoint
 10
28.32927253206893
 20
15.70541649148965
 30
0.0
  0
POINT
  5
70F
330
3F5
100
AcDbEntity
  8
DEFPOINTS
 62
     0
100
AcDbPoint
 10
28.32927253206893
 20
19.43059611959821
 30
0.0
  0
ENDBLK
  5
401
330
3F5
100
AcDbEntity
  8
0
100
AcDbBlockEnd
  0
BLOCK
  5
40D
330
402
100
AcDbEntity
  8
0
100
AcDbBlockBegin
  2
*D3
 70
     1
 10
0.0
 20
0.0
 30
0.0
  3
*D3
  1

  0
LINE
  5
7B0
330
402
100
AcDbEntity
  8
DIM
 62
     0
370
    -2
100
AcDbLine
 10
33.17477253206894
 20
11.79916649148965
 30
0.0
 11
36.14281303847545
 21
11.79916649148965
 31
0.0
  0
LINE
  5
7B1
330
402
100
AcDbEntity
  8
DIM
 62
     0
370
    -2
100
AcDbLine
 10
32.76852253206894
 20
16.11166649148965
 30
0.0
 11
36.14281303847546
 21
16.11166649148965
 31
0.0
  0
LINE
  5
7B2
330
402
100
AcDbEntity
  8
DIM
 62
     0
370
    -2
100
AcDbLine
 10
35.79281303847545
 20
12.42916649148965
 30
0.0
 11
35.79281303847545
 21
13.42166649148965
 31
0.0
  0
LINE
  5
7B3
330
402
100
AcDbEntity
  8
DIM
 62
     0
370
    -2
100
AcDbLine
 10
35.79281303847545
 20
15.48166649148965
 30
0.0
 11
35.79281303847545
 21
14.48916649148965
 31
0.0
  0
SOLID
  5
7B4
330
402
100
AcDbEntity
  8
DIM
 62
     0
100
AcDbTrace
 10
35.68781303847545
 20
12.42916649148965
 30
0.0
 11
35.89781303847544
 21
12.42916649148965
 31
0.0
 12
35.79281303847545
 22
11.79916649148965
 32
0.0
 13
35.79281303847545
 23
11.79916649148965
 33
0.0
  0
SOLID
  5
7B5
330
402
100
AcDbEntity
  8
DIM
 62
     0
100
AcDbTrace
 10
35.68781303847545
 20
15.48166649148965
 30
0.0
 11
35.89781303847544
 21
15.48166649148965
 31
0.0
 12
35.79281303847546
 22
16.11166649148965
 32
0.0
 13
35.79281303847546
 23
16.11166649148965
 33
0.0
  0
MTEXT
  5
7B6
330
402
100
AcDbEntity
  8
DIM
 62
     0
100
AcDbMText
 10
35.79281303847545
 20
13.95541649148966
 30
0.0
 40
0.4375
 41
0.0
 71
     5
 72
     1
  1
\A1;4.313
  7
TXT
 73
     1
 44
1.0
  0
POINT
  5
7B7
330
402
100
AcDbEntity
  8
DEFPOINTS
 62
     0
100
AcDbPoint
 10
32.95427253206894
 20
11.79916649148965
 30
0.0
  0
POINT
  5
7B8
330
402
100
AcDbEntity
  8
DEFPOINTS
 62
     0
100
AcDbPoint
 10
32.54802253206894
 20
16.11166649148965
 30
0.0
  0
POINT
  5
7B9
330
402
100
AcDbEntity
  8
DEFPOINTS
 62
     0
100
AcDbPoint
 10
35.79281303847546
 20
16.11166649148965
 30
0.0
  0
ENDBLK
  5
40E
330
402
100
AcDbEntity
  8
0
100
AcDbBlockEnd
  0
BLOCK
  5
41A
330
40F
100
AcDbEntity
  8
0
100
AcDbBlockBegin
  2
*D4
 70
     1
 10
0.0
 20
0.0
 30
0.0
  3
*D4
  1

  0
LINE
  5
7A6
330
40F
100
AcDbEntity
  8
DIM
 62
     0
370
    -2
100
AcDbLine
 10
41.30197672952003
 20
10.04741649148966
 30
0.0
 11
41.30197672952003
 21
8.085433200266086
 31
0.0
  0
LINE
  5
7A7
330
40F
100
AcDbEntity
  8
DIM
 62
     0
370
    -2
100
AcDbLine
 10
47.80197672952005
 20
10.04741649148966
 30
0.0
 11
47.80197672952005
 21
8.085433200266086
 31
0.0
  0
LINE
  5
7A8
330
40F
100
AcDbEntity
  8
DIM
 62
     0
370
    -2
100
AcDbLine
 10
41.93197672952003
 20
8.435433200266086
 30
0.0
 11
44.12760172952004
 21
8.435433200266086
 31
0.0
  0
LINE
  5
7A9
330
40F
100
AcDbEntity
  8
DIM
 62
     0
370
    -2
100
AcDbLine
 10
47.17197672952004
 20
8.435433200266086
 30
0.0
 11
44.97635172952004
 21
8.435433200266086
 31
0.0
  0
SOLID
  5
7AA
330
40F
100
AcDbEntity
  8
DIM
 62
     0
100
AcDbTrace
 10
41.93197672952003
 20
8.540433200266086
 30
0.0
 11
41.93197672952003
 21
8.330433200266085
 31
0.0
 12
41.30197672952003
 22
8.435433200266086
 32
0.0
 13
41.30197672952003
 23
8.435433200266086
 33
0.0
  0
SOLID
  5
7AB
330
40F
100
AcDbEntity
  8
DIM
 62
     0
100
AcDbTrace
 10
47.17197672952004
 20
8.540433200266086
 30
0.0
 11
47.17197672952004
 21
8.330433200266085
 31
0.0
 12
47.80197672952005
 22
8.435433200266086
 32
0.0
 13
47.80197672952005
 23
8.435433200266086
 33
0.0
  0
MTEXT
  5
7AC
330
40F
100
AcDbEntity
  8
DIM
 62
     0
100
AcDbMText
 10
44.55197672952004
 20
8.435433200266086
 30
0.0
 40
0.4375
 41
0.0
 71
     5
 72
     1
  1
\A1;H
  7
TXT
 73
     1
 44
1.0
  0
POINT
  5
7AD
330
40F
100
AcDbEntity
  8
DEFPOINTS
 62
     0
100
AcDbPoint
 10
41.30197672952003
 20
10.26791649148966
 30
0.0
  0
POINT
  5
7AE
330
40F
100
AcDbEntity
  8
DEFPOINTS
 62
     0
100
AcDbPoint
 10
47.80197672952005
 20
10.26791649148966
 30
0.0
  0
POINT
  5
7AF
330
40F
100
AcDbEntity
  8
DEFPOINTS
 62
     0
100
AcDbPoint
 10
47.80197672952005
 20
8.435433200266086
 30
0.0
  0
ENDBLK
  5
41B
330
40F
100
AcDbEntity
  8
0
100
AcDbBlockEnd
  0
BLOCK
  5
427
330
41C
100
AcDbEntity
  8
0
100
AcDbBlockBegin
  2
*D5
 70
     1
 10
0.0
 20
0.0
 30
0.0
  3
*D5
  1

  0
LINE
  5
7CE
330
41C
100
AcDbEntity
  8
DIM
 62
     0
370
    -2
100
AcDbLine
 10
47.80197672952005
 20
10.04741649148966
 30
0.0
 11
47.80197672952005
 21
8.085433200266086
 31
0.0
  0
LINE
  5
7CF
330
41C
100
AcDbEntity
  8
DIM
 62
     0
370
    -2
100
AcDbLine
 10
48.53597672952003
 20
9.875416491489657
 30
0.0
 11
48.53597672952003
 21
8.085433200266086
 31
0.0
  0
LINE
  5
7D0
330
41C
100
AcDbEntity
  8
DIM
 62
     0
370
    -2
100
AcDbLine
 10
47.17197672952004
 20
8.435433200266086
 30
0.0
 11
46.54197672952005
 21
8.435433200266086
 31
0.0
  0
LINE
  5
7D1
330
41C
100
AcDbEntity
  8
DIM
 62
     0
370
    -2
100
AcDbLine
 10
49.16597672952003
 20
8.435433200266086
 30
0.0
 11
49.79597672952003
 21
8.435433200266086
 31
0.0
  0
SOLID
  5
7D2
330
41C
100
AcDbEntity
  8
DIM
 62
     0
100
AcDbTrace
 10
47.17197672952004
 20
8.540433200266086
 30
0.0
 11
47.17197672952004
 21
8.330433200266085
 31
0.0
 12
47.80197672952005
 22
8.435433200266086
 32
0.0
 13
47.80197672952005
 23
8.435433200266086
 33
0.0
  0
SOLID
  5
7D3
330
41C
100
AcDbEntity
  8
DIM
 62
     0
100
AcDbTrace
 10
49.16597672952003
 20
8.540433200266086
 30
0.0
 11
49.16597672952003
 21
8.330433200266085
 31
0.0
 12
48.53597672952003
 22
8.435433200266086
 32
0.0
 13
48.53597672952003
 23
8.435433200266086
 33
0.0
  0
MTEXT
  5
7D4
330
41C
100
AcDbEntity
  8
DIM
 62
     0
100
AcDbMText
 10
50.73988297952003
 20
8.435433200266086
 30
0.0
 40
0.4375
 41
0.0
 71
     5
 72
     1
  1
\A1;0.734
  7
TXT
 73
     1
 44
1.0
  0
POINT
  5
7D5
330
41C
100
AcDbEntity
  8
DEFPOINTS
 62
     0
100
AcDbPoint
 10
47.80197672952005
 20
10.26791649148966
 30
0.0
  0
POINT
  5
7D6
330
41C
100
AcDbEntity
  8
DEFPOINTS
 62
     0
100
AcDbPoint
 10
48.53597672952003
 20
10.09591649148965
 30
0.0
  0
POINT
  5
7D7
330
41C
100
AcDbEntity
  8
DEFPOINTS
 62
     0
100
AcDbPoint
 10
48.53597672952003
 20
8.435433200266086
 30
0.0
  0
ENDBLK
  5
428
330
41C
100
AcDbEntity
  8
0
100
AcDbBlockEnd
  0
BLOCK
  5
434
330
429
100
AcDbEntity
  8
0
100
AcDbBlockBegin
  2
*D6
 70
     1
 10
0.0
 20
0.0
 30
0.0
  3
*D6
  1

  0
LINE
  5
742
330
429
100
AcDbEntity
  8
DIM
 62
     0
370
    -2
100
AcDbLine
 10
6.956265201975117
 20
12.87766986958398
 30
0.0
 11
6.956265201975117
 21
13.35247303074212
 31
0.0
  0
LINE
  5
743
330
429
100
AcDbEntity
  8
DIM
 62
     0
370
    -2
100
AcDbLine
 10
14.81564020197511
 20
12.87766986958399
 30
0.0
 11
14.81564020197511
 21
13.35247303074212
 31
0.0
  0
LINE
  5
744
330
429
100
AcDbEntity
  8
DIM
 62
     0
370
    -2
100
AcDbLine
 10
7.586265201975117
 20
13.00247303074212
 30
0.0
 11
10.46157770197511
 21
13.00247303074212
 31
0.0
  0
LINE
  5
745
330
429
100
AcDbEntity
  8
DIM
 62
     0
370
    -2
100
AcDbLine
 10
14.18564020197511
 20
13.00247303074212
 30
0.0
 11
11.31032770197511
 21
13.00247303074212
 31
0.0
  0
SOLID
  5
746
330
429
100
AcDbEntity
  8
DIM
 62
     0
100
AcDbTrace
 10
7.586265201975117
 20
13.10747303074212
 30
0.0
 11
7.586265201975117
 21
12.89747303074212
 31
0.0
 12
6.956265201975117
 22
13.00247303074212
 32
0.0
 13
6.956265201975117
 23
13.00247303074212
 33
0.0
  0
SOLID
  5
747
330
429
100
AcDbEntity
  8
DIM
 62
     0
100
AcDbTrace
 10
14.18564020197511
 20
13.10747303074212
 30
0.0
 11
14.18564020197511
 21
12.89747303074212
 31
0.0
 12
14.81564020197511
 22
13.00247303074212
 32
0.0
 13
14.81564020197511
 23
13.00247303074212
 33
0.0
  0
MTEXT
  5
748
330
429
100
AcDbEntity
  8
DIM
 62
     0
100
AcDbMText
 10
10.88595270197511
 20
13.00247303074212
 30
0.0
 40
0.4375
 41
0.0
 71
     5
 72
     1
  1
\A1;F
  7
TXT
 73
     1
 44
1.0
  0
POINT
  5
749
330
429
100
AcDbEntity
  8
DEFPOINTS
 62
     0
100
AcDbPoint
 10
6.956265201975117
 20
12.65716986958398
 30
0.0
  0
POINT
  5
74A
330
429
100
AcDbEntity
  8
DEFPOINTS
 62
     0
100
AcDbPoint
 10
14.81564020197511
 20
12.65716986958399
 30
0.0
  0
POINT
  5
74B
330
429
100
AcDbEntity
  8
DEFPOINTS
 62
     0
100
AcDbPoint
 10
14.81564020197511
 20
13.00247303074212
 30
0.0
  0
ENDBLK
  5
435
330
429
100
AcDbEntity
  8
0
100
AcDbBlockEnd
  0
BLOCK
  5
441
330
436
100
AcDbEntity
  8
0
100
AcDbBlockBegin
  2
*D7
 70
     1
 10
0.0
 20
0.0
 30
0.0
  3
*D7
  1

  0
LINE
  5
738
330
436
100
AcDbEntity
  8
DIM
 62
     0
370
    -2
100
AcDbLine
 10
12.38491910494524
 20
9.588228991489657
 30
0.0
 11
11.82872152493179
 21
9.588228991489659
 31
0.0
  0
LINE
  5
739
330
436
100
AcDbEntity
  8
DIM
 62
     0
370
    -2
100
AcDbLine
 10
12.38491910494526
 20
18.32260399148965
 30
0.0
 11
11.82872152493179
 21
18.32260399148965
 31
0.0
  0
LINE
  5
73A
330
436
100
AcDbEntity
  8
DIM
 62
     0
370
    -2
100
AcDbLine
 10
12.17872152493179
 20
10.21822899148965
 30
0.0
 11
12.17872152493179
 21
13.42166649148965
 31
0.0
  0
LINE
  5
73B
330
436
100
AcDbEntity
  8
DIM
 62
     0
370
    -2
100
AcDbLine
 10
12.17872152493179
 20
17.69260399148965
 30
0.0
 11
12.17872152493179
 21
14.48916649148965
 31
0.0
  0
SOLID
  5
73C
330
436
100
AcDbEntity
  8
DIM
 62
     0
100
AcDbTrace
 10
12.07372152493179
 20
10.21822899148965
 30
0.0
 11
12.28372152493179
 21
10.21822899148965
 31
0.0
 12
12.17872152493179
 22
9.588228991489657
 32
0.0
 13
12.17872152493179
 23
9.588228991489657
 33
0.0
  0
SOLID
  5
73D
330
436
100
AcDbEntity
  8
DIM
 62
     0
100
AcDbTrace
 10
12.07372152493179
 20
17.69260399148965
 30
0.0
 11
12.28372152493179
 21
17.69260399148965
 31
0.0
 12
12.17872152493179
 22
18.32260399148965
 32
0.0
 13
12.17872152493179
 23
18.32260399148965
 33
0.0
  0
MTEXT
  5
73E
330
436
100
AcDbEntity
  8
DIM
 62
     0
100
AcDbMText
 10
12.17872152493178
 20
13.95541649148966
 30
0.0
 40
0.4375
 41
0.0
 71
     5
 72
     1
  1
\A1;G
  7
TXT
 73
     1
 44
1.0
  0
POINT
  5
73F
330
436
100
AcDbEntity
  8
DEFPOINTS
 62
     0
100
AcDbPoint
 10
12.60541910494524
 20
9.588228991489657
 30
0.0
  0
POINT
  5
740
330
436
100
AcDbEntity
  8
DEFPOINTS
 62
     0
100
AcDbPoint
 10
12.60541910494525
 20
18.32260399148965
 30
0.0
  0
POINT
  5
741
330
436
100
AcDbEntity
  8
DEFPOINTS
 62
     0
100
AcDbPoint
 10
12.17872152493179
 20
18.32260399148965
 30
0.0
  0
ENDBLK
  5
442
330
436
100
AcDbEntity
  8
0
100
AcDbBlockEnd
  0
BLOCK
  5
44E
330
443
100
AcDbEntity
  8
0
100
AcDbBlockBegin
  2
*D8
 70
     1
 10
0.0
 20
0.0
 30
0.0
  3
*D8
  1

  0
LINE
  5
760
330
443
100
AcDbEntity
  8
DIM
 62
     0
370
    -2
100
AcDbLine
 10
14.62814020197511
 20
10.36772899148964
 30
0.0
 11
14.62814020197511
 21
7.640123326269849
 31
0.0
  0
LINE
  5
761
330
443
100
AcDbEntity
  8
DIM
 62
     0
370
    -2
100
AcDbLine
 10
14.81564020197513
 20
9.773978991489647
 30
0.0
 11
14.81564020197513
 21
7.640123326269849
 31
0.0
  0
LINE
  5
762
330
443
100
AcDbEntity
  8
DIM
 62
     0
370
    -2
100
AcDbLine
 10
13.99814020197511
 20
7.990123326269849
 30
0.0
 11
13.36814020197511
 21
7.990123326269849
 31
0.0
  0
LINE
  5
763
330
443
100
AcDbEntity
  8
DIM
 62
     0
370
    -2
100
AcDbLine
 10
15.44564020197513
 20
7.990123326269849
 30
0.0
 11
16.07564020197512
 21
7.990123326269849
 31
0.0
  0
SOLID
  5
764
330
443
100
AcDbEntity
  8
DIM
 62
     0
100
AcDbTrace
 10
13.99814020197511
 20
8.095123326269849
 30
0.0
 11
13.99814020197511
 21
7.885123326269848
 31
0.0
 12
14.62814020197511
 22
7.990123326269849
 32
0.0
 13
14.62814020197511
 23
7.990123326269849
 33
0.0
  0
SOLID
  5
765
330
443
100
AcDbEntity
  8
DIM
 62
     0
100
AcDbTrace
 10
15.44564020197513
 20
8.095123326269849
 30
0.0
 11
15.44564020197513
 21
7.885123326269848
 31
0.0
 12
14.81564020197513
 22
7.990123326269849
 32
0.0
 13
14.81564020197513
 23
7.990123326269849
 33
0.0
  0
MTEXT
  5
766
330
443
100
AcDbEntity
  8
DIM
 62
     0
100
AcDbMText
 10
16.96485895197513
 20
7.990123326269849
 30
0.0
 40
0.4375
 41
0.0
 71
     5
 72
     1
  1
\A1;0.188
  7
TXT
 73
     1
 44
1.0
  0
POINT
  5
767
330
443
100
AcDbEntity
  8
DEFPOINTS
 62
     0
100
AcDbPoint
 10
14.62814020197511
 20
10.58822899148964
 30
0.0
  0
POINT
  5
768
330
443
100
AcDbEntity
  8
DEFPOINTS
 62
     0
100
AcDbPoint
 10
14.81564020197513
 20
9.994478991489646
 30
0.0
  0
POINT
  5
769
330
443
100
AcDbEntity
  8
DEFPOINTS
 62
     0
100
AcDbPoint
 10
14.81564020197513
 20
7.990123326269849
 30
0.0
  0
ENDBLK
  5
44F
330
443
100
AcDbEntity
  8
0
100
AcDbBlockEnd
  0
BLOCK
  5
45B
330
450
100
AcDbEntity
  8
0
100
AcDbBlockBegin
  2
*D9
 70
     1
 10
0.0
 20
0.0
 30
0.0
  3
*D9
  1

  0
LINE
  5
756
330
450
100
AcDbEntity
  8
DIM
 62
     0
370
    -2
100
AcDbLine
 10
7.342452701975116
 20
9.875416491489653
 30
0.0
 11
7.342452701975116
 21
7.640123326269849
 31
0.0
  0
LINE
  5
757
330
450
100
AcDbEntity
  8
DIM
 62
     0
370
    -2
100
AcDbLine
 10
6.956265201975117
 20
9.773978991489661
 30
0.0
 11
6.956265201975117
 21
7.640123326269849
 31
0.0
  0
LINE
  5
758
330
450
100
AcDbEntity
  8
DIM
 62
     0
370
    -2
100
AcDbLine
 10
7.972452701975115
 20
7.990123326269849
 30
0.0
 11
8.602452701975115
 21
7.990123326269849
 31
0.0
  0
LINE
  5
759
330
450
100
AcDbEntity
  8
DIM
 62
     0
370
    -2
100
AcDbLine
 10
6.326265201975117
 20
7.990123326269849
 30
0.0
 11
5.696265201975117
 21
7.990123326269849
 31
0.0
  0
SOLID
  5
75A
330
450
100
AcDbEntity
  8
DIM
 62
     0
100
AcDbTrace
 10
7.972452701975115
 20
8.095123326269849
 30
0.0
 11
7.972452701975115
 21
7.885123326269848
 31
0.0
 12
7.342452701975116
 22
7.990123326269849
 32
0.0
 13
7.342452701975116
 23
7.990123326269849
 33
0.0
  0
SOLID
  5
75B
330
450
100
AcDbEntity
  8
DIM
 62
     0
100
AcDbTrace
 10
6.326265201975117
 20
8.095123326269849
 30
0.0
 11
6.326265201975117
 21
7.885123326269848
 31
0.0
 12
6.956265201975117
 22
7.990123326269849
 32
0.0
 13
6.956265201975117
 23
7.990123326269849
 33
0.0
  0
MTEXT
  5
75C
330
450
100
AcDbEntity
  8
DIM
 62
     0
100
AcDbMText
 10
4.752358951975118
 20
7.990123326269849
 30
0.0
 40
0.4375
 41
0.0
 71
     5
 72
     1
  1
\A1;0.386
  7
TXT
 73
     1
 44
1.0
  0
POINT
  5
75D
330
450
100
AcDbEntity
  8
DEFPOINTS
 62
     0
100
AcDbPoint
 10
7.342452701975116
 20
10.09591649148965
 30
0.0
  0
POINT
  5
75E
330
450
100
AcDbEntity
  8
DEFPOINTS
 62
     0
100
AcDbPoint
 10
6.956265201975117
 20
9.994478991489661
 30
0.0
  0
POINT
  5
75F
330
450
100
AcDbEntity
  8
DEFPOINTS
 62
     0
100
AcDbPoint
 10
6.956265201975117
 20
7.990123326269849
 30
0.0
  0
ENDBLK
  5
45C
330
450
100
AcDbEntity
  8
0
100
AcDbBlockEnd
  0
BLOCK
  5
468
330
45D
100
AcDbEntity
  8
0
100
AcDbBlockBegin
  2
*D10
 70
     1
 10
0.0
 20
0.0
 30
0.0
  3
*D10
  1

  0
LINE
  5
774
330
45D
100
AcDbEntity
  8
DIM
 62
     0
370
    -2
100
AcDbLine
 10
6.923452701975119
 20
18.03541649148965
 30
0.0
 11
6.923452701975119
 21
19.91189955042502
 31
0.0
  0
LINE
  5
775
330
45D
100
AcDbEntity
  8
DIM
 62
     0
370
    -2
100
AcDbLine
 10
14.84845270197512
 20
18.03541649148965
 30
0.0
 11
14.84845270197512
 21
19.91189955042502
 31
0.0
  0
LINE
  5
776
330
45D
100
AcDbEntity
  8
DIM
 62
     0
370
    -2
100
AcDbLine
 10
7.553452701975118
 20
19.56189955042502
 30
0.0
 11
10.46157770197512
 21
19.56189955042502
 31
0.0
  0
LINE
  5
777
330
45D
100
AcDbEntity
  8
DIM
 62
     0
370
    -2
100
AcDbLine
 10
14.21845270197512
 20
19.56189955042502
 30
0.0
 11
11.31032770197512
 21
19.56189955042502
 31
0.0
  0
SOLID
  5
778
330
45D
100
AcDbEntity
  8
DIM
 62
     0
100
AcDbTrace
 10
7.553452701975118
 20
19.66689955042502
 30
0.0
 11
7.553452701975118
 21
19.45689955042502
 31
0.0
 12
6.923452701975119
 22
19.56189955042502
 32
0.0
 13
6.923452701975119
 23
19.56189955042502
 33
0.0
  0
SOLID
  5
779
330
45D
100
AcDbEntity
  8
DIM
 62
     0
100
AcDbTrace
 10
14.21845270197512
 20
19.66689955042502
 30
0.0
 11
14.21845270197512
 21
19.45689955042502
 31
0.0
 12
14.84845270197512
 22
19.56189955042502
 32
0.0
 13
14.84845270197512
 23
19.56189955042502
 33
0.0
  0
MTEXT
  5
77A
330
45D
100
AcDbEntity
  8
DIM
 62
     0
100
AcDbMText
 10
10.88595270197512
 20
19.56189955042502
 30
0.0
 40
0.4375
 41
0.0
 71
     5
 72
     1
  1
\A1;D
  7
TXT
 73
     1
 44
1.0
  0
POINT
  5
77B
330
45D
100
AcDbEntity
  8
DEFPOINTS
 62
     0
100
AcDbPoint
 10
6.923452701975119
 20
17.81491649148965
 30
0.0
  0
POINT
  5
77C
330
45D
100
AcDbEntity
  8
DEFPOINTS
 62
     0
100
AcDbPoint
 10
14.84845270197512
 20
17.81491649148965
 30
0.0
  0
POINT
  5
77D
330
45D
100
AcDbEntity
  8
DEFPOINTS
 62
     0
100
AcDbPoint
 10
14.84845270197512
 20
19.56189955042502
 30
0.0
  0
ENDBLK
  5
469
330
45D
100
AcDbEntity
  8
0
100
AcDbBlockEnd
  0
BLOCK
  5
475
330
46A
100
AcDbEntity
  8
0
100
AcDbBlockBegin
  2
*D11
 70
     1
 10
0.0
 20
0.0
 30
0.0
  3
*D11
  1

  0
LINE
  5
76A
330
46A
100
AcDbEntity
  8
DIM
 62
     0
370
    -2
100
AcDbLine
 10
6.823452701975117
 20
18.17591649148965
 30
0.0
 11
6.823452701975117
 21
20.89539955042502
 31
0.0
  0
LINE
  5
76B
330
46A
100
AcDbEntity
  8
DIM
 62
     0
370
    -2
100
AcDbLine
 10
14.94845270197511
 20
18.17591649148965
 30
0.0
 11
14.94845270197511
 21
20.89539955042502
 31
0.0
  0
LINE
  5
76C
330
46A
100
AcDbEntity
  8
DIM
 62
     0
370
    -2
100
AcDbLine
 10
7.453452701975117
 20
20.54539955042502
 30
0.0
 11
10.46157770197511
 21
20.54539955042502
 31
0.0
  0
LINE
  5
76D
330
46A
100
AcDbEntity
  8
DIM
 62
     0
370
    -2
100
AcDbLine
 10
14.31845270197511
 20
20.54539955042502
 30
0.0
 11
11.31032770197511
 21
20.54539955042502
 31
0.0
  0
SOLID
  5
76E
330
46A
100
AcDbEntity
  8
DIM
 62
     0
100
AcDbTrace
 10
7.453452701975117
 20
20.65039955042502
 30
0.0
 11
7.453452701975117
 21
20.44039955042502
 31
0.0
 12
6.823452701975117
 22
20.54539955042502
 32
0.0
 13
6.823452701975117
 23
20.54539955042502
 33
0.0
  0
SOLID
  5
76F
330
46A
100
AcDbEntity
  8
DIM
 62
     0
100
AcDbTrace
 10
14.31845270197511
 20
20.65039955042502
 30
0.0
 11
14.31845270197511
 21
20.44039955042502
 31
0.0
 12
14.94845270197511
 22
20.54539955042502
 32
0.0
 13
14.94845270197511
 23
20.54539955042502
 33
0.0
  0
MTEXT
  5
770
330
46A
100
AcDbEntity
  8
DIM
 62
     0
100
AcDbMText
 10
10.88595270197511
 20
20.54539955042502
 30
0.0
 40
0.4375
 41
0.0
 71
     5
 72
     1
  1
\A1;B
  7
TXT
 73
     1
 44
1.0
  0
POINT
  5
771
330
46A
100
AcDbEntity
  8
DEFPOINTS
 62
     0
100
AcDbPoint
 10
6.823452701975117
 20
17.95541649148965
 30
0.0
  0
POINT
  5
772
330
46A
100
AcDbEntity
  8
DEFPOINTS
 62
     0
100
AcDbPoint
 10
14.94845270197511
 20
17.95541649148965
 30
0.0
  0
POINT
  5
773
330
46A
100
AcDbEntity
  8
DEFPOINTS
 62
     0
100
AcDbPoint
 10
14.94845270197511
 20
20.54539955042502
 30
0.0
  0
ENDBLK
  5
476
330
46A
100
AcDbEntity
  8
0
100
AcDbBlockEnd
  0
BLOCK
  5
482
330
477
100
AcDbEntity
  8
0
100
AcDbBlockBegin
  2
*D12
 70
     1
 10
0.0
 20
0.0
 30
0.0
  3
*D12
  1

  0
LINE
  5
72E
330
477
100
AcDbEntity
  8
DIM
 62
     0
370
    -2
100
AcDbLine
 10
14.52845270197511
 20
9.555416491489655
 30
0.0
 11
16.39850893000919
 21
9.555416491489655
 31
0.0
  0
LINE
  5
72F
330
477
100
AcDbEntity
  8
DIM
 62
     0
370
    -2
100
AcDbLine
 10
14.52845270197513
 20
18.35541649148965
 30
0.0
 11
16.39850893000919
 21
18.35541649148965
 31
0.0
  0
LINE
  5
730
330
477
100
AcDbEntity
  8
DIM
 62
     0
370
    -2
100
AcDbLine
 10
16.04850893000919
 20
10.18541649148965
 30
0.0
 11
16.04850893000919
 21
13.42166649148965
 31
0.0
  0
LINE
  5
731
330
477
100
AcDbEntity
  8
DIM
 62
     0
370
    -2
100
AcDbLine
 10
16.04850893000919
 20
17.72541649148965
 30
0.0
 11
16.04850893000919
 21
14.48916649148965
 31
0.0
  0
SOLID
  5
732
330
477
100
AcDbEntity
  8
DIM
 62
     0
100
AcDbTrace
 10
15.94350893000919
 20
10.18541649148965
 30
0.0
 11
16.15350893000919
 21
10.18541649148965
 31
0.0
 12
16.04850893000919
 22
9.555416491489655
 32
0.0
 13
16.04850893000919
 23
9.555416491489655
 33
0.0
  0
SOLID
  5
733
330
477
100
AcDbEntity
  8
DIM
 62
     0
100
AcDbTrace
 10
15.94350893000919
 20
17.72541649148965
 30
0.0
 11
16.15350893000919
 21
17.72541649148965
 31
0.0
 12
16.04850893000919
 22
18.35541649148965
 32
0.0
 13
16.04850893000919
 23
18.35541649148965
 33
0.0
  0
MTEXT
  5
734
330
477
100
AcDbEntity
  8
DIM
 62
     0
100
AcDbMText
 10
16.04850893000919
 20
13.95541649148966
 30
0.0
 40
0.4375
 41
0.0
 71
     5
 72
     1
  1
\A1;E
  7
TXT
 73
     1
 44
1.0
  0
POINT
  5
735
330
477
100
AcDbEntity
  8
DEFPOINTS
 62
     0
100
AcDbPoint
 10
14.30795270197511
 20
9.555416491489655
 30
0.0
  0
POINT
  5
736
330
477
100
AcDbEntity
  8
DEFPOINTS
 62
     0
100
AcDbPoint
 10
14.30795270197513
 20
18.35541649148965
 30
0.0
  0
POINT
  5
737
330
477
100
AcDbEntity
  8
DEFPOINTS
 62
     0
100
AcDbPoint
 10
16.04850893000919
 20
18.35541649148965
 30
0.0
  0
ENDBLK
  5
483
330
477
100
AcDbEntity
  8
0
100
AcDbBlockEnd
  0
BLOCK
  5
48F
330
484
100
AcDbEntity
  8
0
100
AcDbBlockBegin
  2
*D13
 70
     1
 10
0.0
 20
0.0
 30
0.0
  3
*D13
  1

  0
LINE
  5
71A
330
484
100
AcDbEntity
  8
DIM
 62
     0
370
    -2
100
AcDbLine
 10
19.34627253206893
 20
9.455416491489653
 30
0.0
 11
17.92601373081651
 21
9.455416491489653
 31
0.0
  0
LINE
  5
71B
330
484
100
AcDbEntity
  8
DIM
 62
     0
370
    -2
100
AcDbLine
 10
19.34627253206893
 20
18.45541649148965
 30
0.0
 11
17.92601373081651
 21
18.45541649148965
 31
0.0
  0
LINE
  5
71C
330
484
100
AcDbEntity
  8
DIM
 62
     0
370
    -2
100
AcDbLine
 10
18.27601373081652
 20
10.08541649148965
 30
0.0
 11
18.27601373081652
 21
13.42166649148965
 31
0.0
  0
LINE
  5
71D
330
484
100
AcDbEntity
  8
DIM
 62
     0
370
    -2
100
AcDbLine
 10
18.27601373081652
 20
17.82541649148965
 30
0.0
 11
18.27601373081652
 21
14.48916649148965
 31
0.0
  0
SOLID
  5
71E
330
484
100
AcDbEntity
  8
DIM
 62
     0
100
AcDbTrace
 10
18.17101373081651
 20
10.08541649148965
 30
0.0
 11
18.38101373081651
 21
10.08541649148965
 31
0.0
 12
18.27601373081652
 22
9.455416491489653
 32
0.0
 13
18.27601373081652
 23
9.455416491489653
 33
0.0
  0
SOLID
  5
71F
330
484
100
AcDbEntity
  8
DIM
 62
     0
100
AcDbTrace
 10
18.17101373081651
 20
17.82541649148965
 30
0.0
 11
18.38101373081651
 21
17.82541649148965
 31
0.0
 12
18.27601373081652
 22
18.45541649148965
 32
0.0
 13
18.27601373081652
 23
18.45541649148965
 33
0.0
  0
MTEXT
  5
720
330
484
100
AcDbEntity
  8
DIM
 62
     0
100
AcDbMText
 10
18.27601373081651
 20
13.95541649148965
 30
0.0
 40
0.4375
 41
0.0
 71
     5
 72
     1
  1
\A1;A
  7
TXT
 73
     1
 44
1.0
  0
POINT
  5
721
330
484
100
AcDbEntity
  8
DEFPOINTS
 62
     0
100
AcDbPoint
 10
19.56677253206893
 20
9.455416491489653
 30
0.0
  0
POINT
  5
722
330
484
100
AcDbEntity
  8
DEFPOINTS
 62
     0
100
AcDbPoint
 10
19.56677253206893
 20
18.45541649148965
 30
0.0
  0
POINT
  5
723
330
484
100
AcDbEntity
  8
DEFPOINTS
 62
     0
100
AcDbPoint
 10
18.27601373081652
 20
18.45541649148965
 30
0.0
  0
ENDBLK
  5
490
330
484
100
AcDbEntity
  8
0
100
AcDbBlockEnd
  0
BLOCK
  5
4A6
330
49B
100
AcDbEntity
  8
0
100
AcDbBlockBegin
  2
*D14
 70
     1
 10
0.0
 20
0.0
 30
0.0
  3
*D14
  1

  0
LINE
  5
79C
330
49B
100
AcDbEntity
  8
DIM
 62
     0
370
    -2
100
AcDbLine
 10
34.51677253206894
 20
18.67591649148965
 30
0.0
 11
34.51677253206894
 21
20.41409611959821
 31
0.0
  0
LINE
  5
79D
330
49B
100
AcDbEntity
  8
DIM
 62
     0
370
    -2
100
AcDbLine
 10
32.95427253206894
 20
15.92591649148965
 30
0.0
 11
32.95427253206894
 21
20.41409611959821
 31
0.0
  0
LINE
  5
79E
330
49B
100
AcDbEntity
  8
DIM
 62
     0
370
    -2
100
AcDbLine
 10
35.14677253206894
 20
20.06409611959821
 30
0.0
 11
35.77677253206894
 21
20.06409611959821
 31
0.0
  0
LINE
  5
79F
330
49B
100
AcDbEntity
  8
DIM
 62
     0
370
    -2
100
AcDbLine
 10
32.32427253206894
 20
20.06409611959821
 30
0.0
 11
31.69427253206894
 21
20.06409611959821
 31
0.0
  0
SOLID
  5
7A0
330
49B
100
AcDbEntity
  8
DIM
 62
     0
100
AcDbTrace
 10
35.14677253206894
 20
20.16909611959821
 30
0.0
 11
35.14677253206894
 21
19.95909611959821
 31
0.0
 12
34.51677253206894
 22
20.06409611959821
 32
0.0
 13
34.51677253206894
 23
20.06409611959821
 33
0.0
  0
SOLID
  5
7A1
330
49B
100
AcDbEntity
  8
DIM
 62
     0
100
AcDbTrace
 10
32.32427253206894
 20
20.16909611959821
 30
0.0
 11
32.32427253206894
 21
19.95909611959821
 31
0.0
 12
32.95427253206894
 22
20.06409611959821
 32
0.0
 13
32.95427253206894
 23
20.06409611959821
 33
0.0
  0
MTEXT
  5
7A2
330
49B
100
AcDbEntity
  8
DIM
 62
     0
100
AcDbMText
 10
33.73552253206894
 20
20.06409611959821
 30
0.0
 40
0.4375
 41
0.0
 71
     5
 72
     1
  1
\A1;J
  7
TXT
 73
     1
 44
1.0
  0
POINT
  5
7A3
330
49B
100
AcDbEntity
  8
DEFPOINTS
 62
     0
100
AcDbPoint
 10
34.51677253206894
 20
18.45541649148965
 30
0.0
  0
POINT
  5
7A4
330
49B
100
AcDbEntity
  8
DEFPOINTS
 62
     0
100
AcDbPoint
 10
32.95427253206894
 20
15.70541649148965
 30
0.0
  0
POINT
  5
7A5
330
49B
100
AcDbEntity
  8
DEFPOINTS
 62
     0
100
AcDbPoint
 10
32.95427253206894
 20
20.06409611959821
 30
0.0
  0
ENDBLK
  5
4A7
330
49B
100
AcDbEntity
  8
0
100
AcDbBlockEnd
  0
BLOCK
  5
4B3
330
4A8
100
AcDbEntity
  8
0
100
AcDbBlockBegin
  2
*D15
 70
     1
 10
0.0
 20
0.0
 30
0.0
  3
*D15
  1

  0
LINE
  5
792
330
4A8
100
AcDbEntity
  8
DIM
 62
     0
370
    -2
100
AcDbLine
 10
32.95427253206894
 20
15.92591649148965
 30
0.0
 11
32.95427253206894
 21
21.39759611959821
 31
0.0
  0
LINE
  5
793
330
4A8
100
AcDbEntity
  8
DIM
 62
     0
370
    -2
100
AcDbLine
 10
30.32927253206894
 20
15.92591649148965
 30
0.0
 11
30.32927253206894
 21
21.39759611959821
 31
0.0
  0
LINE
  5
794
330
4A8
100
AcDbEntity
  8
DIM
 62
     0
370
    -2
100
AcDbLine
 10
33.58427253206894
 20
21.04759611959821
 30
0.0
 11
34.21427253206894
 21
21.04759611959821
 31
0.0
  0
LINE
  5
795
330
4A8
100
AcDbEntity
  8
DIM
 62
     0
370
    -2
100
AcDbLine
 10
29.69927253206893
 20
21.04759611959821
 30
0.0
 11
29.06927253206893
 21
21.04759611959821
 31
0.0
  0
SOLID
  5
796
330
4A8
100
AcDbEntity
  8
DIM
 62
     0
100
AcDbTrace
 10
33.58427253206894
 20
21.15259611959821
 30
0.0
 11
33.58427253206894
 21
20.94259611959821
 31
0.0
 12
32.95427253206894
 22
21.04759611959821
 32
0.0
 13
32.95427253206894
 23
21.04759611959821
 33
0.0
  0
SOLID
  5
797
330
4A8
100
AcDbEntity
  8
DIM
 62
     0
100
AcDbTrace
 10
29.69927253206893
 20
21.15259611959821
 30
0.0
 11
29.69927253206893
 21
20.94259611959821
 31
0.0
 12
30.32927253206894
 22
21.04759611959821
 32
0.0
 13
30.32927253206894
 23
21.04759611959821
 33
0.0
  0
MTEXT
  5
798
330
4A8
100
AcDbEntity
  8
DIM
 62
     0
100
AcDbMText
 10
31.64177253206894
 20
21.04759611959821
 30
0.0
 40
0.4375
 41
0.0
 71
     5
 72
     1
  1
\A1;2.625
  7
TXT
 73
     1
 44
1.0
  0
POINT
  5
799
330
4A8
100
AcDbEntity
  8
DEFPOINTS
 62
     0
100
AcDbPoint
 10
32.95427253206894
 20
15.70541649148965
 30
0.0
  0
POINT
  5
79A
330
4A8
100
AcDbEntity
  8
DEFPOINTS
 62
     0
100
AcDbPoint
 10
30.32927253206894
 20
15.70541649148965
 30
0.0
  0
POINT
  5
79B
330
4A8
100
AcDbEntity
  8
DEFPOINTS
 62
     0
100
AcDbPoint
 10
30.32927253206894
 20
21.04759611959821
 30
0.0
  0
ENDBLK
  5
4B4
330
4A8
100
AcDbEntity
  8
0
100
AcDbBlockEnd
  0
BLOCK
  5
4C0
330
4B5
100
AcDbEntity
  8
0
100
AcDbBlockBegin
  2
*D16
 70
     1
 10
0.0
 20
0.0
 30
0.0
  3
*D16
  1

  0
LINE
  5
788
330
4B5
100
AcDbEntity
  8
DIM
 62
     0
370
    -2
100
AcDbLine
 10
32.76852253206894
 20
16.11166649148965
 30
0.0
 11
36.14281303847546
 21
16.11166649148965
 31
0.0
  0
LINE
  5
789
330
4B5
100
AcDbEntity
  8
DIM
 62
     0
370
    -2
100
AcDbLine
 10
34.73727253206894
 20
18.45541649148965
 30
0.0
 11
36.14281303847546
 21
18.45541649148965
 31
0.0
  0
LINE
  5
78A
330
4B5
100
AcDbEntity
  8
DIM
 62
     0
370
    -2
100
AcDbLine
 10
35.79281303847545
 20
15.48166649148965
 30
0.0
 11
35.79281303847545
 21
14.85166649148965
 31
0.0
  0
LINE
  5
78B
330
4B5
100
AcDbEntity
  8
DIM
 62
     0
370
    -2
100
AcDbLine
 10
35.79281303847546
 20
19.08541649148965
 30
0.0
 11
35.79281303847546
 21
19.71541649148965
 31
0.0
  0
SOLID
  5
78C
330
4B5
100
AcDbEntity
  8
DIM
 62
     0
100
AcDbTrace
 10
35.68781303847545
 20
15.48166649148965
 30
0.0
 11
35.89781303847544
 21
15.48166649148965
 31
0.0
 12
35.79281303847546
 22
16.11166649148965
 32
0.0
 13
35.79281303847546
 23
16.11166649148965
 33
0.0
  0
SOLID
  5
78D
330
4B5
100
AcDbEntity
  8
DIM
 62
     0
100
AcDbTrace
 10
35.68781303847546
 20
19.08541649148965
 30
0.0
 11
35.89781303847545
 21
19.08541649148965
 31
0.0
 12
35.79281303847546
 22
18.45541649148965
 32
0.0
 13
35.79281303847546
 23
18.45541649148965
 33
0.0
  0
MTEXT
  5
78E
330
4B5
100
AcDbEntity
  8
DIM
 62
     0
100
AcDbMText
 10
35.79281303847545
 20
17.28354149148966
 30
0.0
 40
0.4375
 41
0.0
 71
     5
 72
     1
  1
\A1;K
  7
TXT
 73
     1
 44
1.0
  0
POINT
  5
78F
330
4B5
100
AcDbEntity
  8
DEFPOINTS
 62
     0
100
AcDbPoint
 10
32.54802253206894
 20
16.11166649148965
 30
0.0
  0
POINT
  5
790
330
4B5
100
AcDbEntity
  8
DEFPOINTS
 62
     0
100
AcDbPoint
 10
34.51677253206894
 20
18.45541649148965
 30
0.0
  0
POINT
  5
791
330
4B5
100
AcDbEntity
  8
DEFPOINTS
 62
     0
100
AcDbPoint
 10
35.79281303847546
 20
18.45541649148965
 30
0.0
  0
ENDBLK
  5
4C1
330
4B5
100
AcDbEntity
  8
0
100
AcDbBlockEnd
  0
BLOCK
  5
4CD
330
4C2
100
AcDbEntity
  8
0
100
AcDbBlockBegin
  2
*D17
 70
     1
 10
0.0
 20
0.0
 30
0.0
  3
*D17
  1

  0
LINE
  5
7BA
330
4C2
100
AcDbEntity
  8
DIM
 62
     0
370
    -2
100
AcDbLine
 10
41.08147672952003
 20
12.26791649148965
 30
0.0
 11
37.53556974645706
 21
12.26791649148965
 31
0.0
  0
LINE
  5
7BB
330
4C2
100
AcDbEntity
  8
DIM
 62
     0
370
    -2
100
AcDbLine
 10
41.08147672952003
 20
10.26791649148966
 30
0.0
 11
37.53556974645706
 21
10.26791649148966
 31
0.0
  0
LINE
  5
7BC
330
4C2
100
AcDbEntity
  8
DIM
 62
     0
370
    -2
100
AcDbLine
 10
37.88556974645706
 20
12.89791649148965
 30
0.0
 11
37.88556974645706
 21
13.52791649148965
 31
0.0
  0
LINE
  5
7BD
330
4C2
100
AcDbEntity
  8
DIM
 62
     0
370
    -2
100
AcDbLine
 10
37.88556974645706
 20
9.63791649148966
 30
0.0
 11
37.88556974645706
 21
9.007916491489661
 31
0.0
  0
SOLID
  5
7BE
330
4C2
100
AcDbEntity
  8
DIM
 62
     0
100
AcDbTrace
 10
37.78056974645707
 20
12.89791649148965
 30
0.0
 11
37.99056974645706
 21
12.89791649148965
 31
0.0
 12
37.88556974645706
 22
12.26791649148965
 32
0.0
 13
37.88556974645706
 23
12.26791649148965
 33
0.0
  0
SOLID
  5
7BF
330
4C2
100
AcDbEntity
  8
DIM
 62
     0
100
AcDbTrace
 10
37.78056974645707
 20
9.63791649148966
 30
0.0
 11
37.99056974645706
 21
9.63791649148966
 31
0.0
 12
37.88556974645706
 22
10.26791649148966
 32
0.0
 13
37.88556974645706
 23
10.26791649148966
 33
0.0
  0
MTEXT
  5
7C0
330
4C2
100
AcDbEntity
  8
DIM
 62
     0
100
AcDbMText
 10
37.88556974645706
 20
11.26791649148966
 30
0.0
 40
0.4375
 41
0.0
 71
     5
 72
     1
  1
\A1;2.000
  7
TXT
 73
     1
 44
1.0
  0
POINT
  5
7C1
330
4C2
100
AcDbEntity
  8
DEFPOINTS
 62
     0
100
AcDbPoint
 10
41.30197672952003
 20
12.26791649148965
 30
0.0
  0
POINT
  5
7C2
330
4C2
100
AcDbEntity
  8
DEFPOINTS
 62
     0
100
AcDbPoint
 10
41.30197672952003
 20
10.26791649148966
 30
0.0
  0
POINT
  5
7C3
330
4C2
100
AcDbEntity
  8
DEFPOINTS
 62
     0
100
AcDbPoint
 10
37.88556974645706
 20
10.26791649148966
 30
0.0
  0
ENDBLK
  5
4CE
330
4C2
100
AcDbEntity
  8
0
100
AcDbBlockEnd
  0
BLOCK
  5
4DA
330
4CF
100
AcDbEntity
  8
0
100
AcDbBlockBegin
  2
*D18
 70
     1
 10
0.0
 20
0.0
 30
0.0
  3
*D18
  1

  0
LINE
  5
7C4
330
4CF
100
AcDbEntity
  8
DIM
 62
     0
370
    -2
100
AcDbLine
 10
41.08147672952003
 20
10.26791649148966
 30
0.0
 11
38.86906974645706
 21
10.26791649148966
 31
0.0
  0
LINE
  5
7C5
330
4CF
100
AcDbEntity
  8
DIM
 62
     0
370
    -2
100
AcDbLine
 10
40.76847672952005
 20
9.533916491489659
 30
0.0
 11
38.86906974645706
 21
9.533916491489659
 31
0.0
  0
LINE
  5
7C6
330
4CF
100
AcDbEntity
  8
DIM
 62
     0
370
    -2
100
AcDbLine
 10
39.21906974645706
 20
10.89791649148966
 30
0.0
 11
39.21906974645706
 21
11.52791649148966
 31
0.0
  0
LINE
  5
7C7
330
4CF
100
AcDbEntity
  8
DIM
 62
     0
370
    -2
100
AcDbLine
 10
39.21906974645706
 20
8.903916491489658
 30
0.0
 11
39.21906974645706
 21
8.273916491489659
 31
0.0
  0
SOLID
  5
7C8
330
4CF
100
AcDbEntity
  8
DIM
 62
     0
100
AcDbTrace
 10
39.11406974645707
 20
10.89791649148966
 30
0.0
 11
39.32406974645706
 21
10.89791649148966
 31
0.0
 12
39.21906974645706
 22
10.26791649148966
 32
0.0
 13
39.21906974645706
 23
10.26791649148966
 33
0.0
  0
SOLID
  5
7C9
330
4CF
100
AcDbEntity
  8
DIM
 62
     0
100
AcDbTrace
 10
39.11406974645707
 20
8.903916491489658
 30
0.0
 11
39.32406974645706
 21
8.903916491489658
 31
0.0
 12
39.21906974645706
 22
9.533916491489659
 32
0.0
 13
39.21906974645706
 23
9.533916491489659
 33
0.0
  0
MTEXT
  5
7CA
330
4CF
100
AcDbEntity
  8
DIM
 62
     0
100
AcDbMText
 10
39.21906974645706
 20
9.900916491489667
 30
0.0
 40
0.4375
 41
0.0
 71
     5
 72
     1
  1
\A1;0.734
  7
TXT
 73
     1
 44
1.0
  0
POINT
  5
7CB
330
4CF
100
AcDbEntity
  8
DEFPOINTS
 62
     0
100
AcDbPoint
 10
41.30197672952003
 20
10.26791649148966
 30
0.0
  0
POINT
  5
7CC
330
4CF
100
AcDbEntity
  8
DEFPOINTS
 62
     0
100
AcDbPoint
 10
40.98897672952005
 20
9.533916491489659
 30
0.0
  0
POINT
  5
7CD
330
4CF
100
AcDbEntity
  8
DEFPOINTS
 62
     0
100
AcDbPoint
 10
39.21906974645706
 20
9.533916491489659
 30
0.0
  0
ENDBLK
  5
4DB
330
4CF
100
AcDbEntity
  8
0
100
AcDbBlockEnd
  0
BLOCK
  5
4E7
330
4DC
100
AcDbEntity
  8
0
100
AcDbBlockBegin
  2
*D19
 70
     1
 10
0.0
 20
0.0
 30
0.0
  3
*D19
  1

  0
LINE
  5
74C
330
4DC
100
AcDbEntity
  8
DIM
 62
     0
370
    -2
100
AcDbLine
 10
6.923265201975103
 20
10.58822899148964
 30
0.0
 11
5.40529149975213
 21
10.58822899148964
 31
0.0
  0
LINE
  5
74D
330
4DC
100
AcDbEntity
  8
DIM
 62
     0
370
    -2
100
AcDbLine
 10
7.142015201975117
 20
9.58822899148965
 30
0.0
 11
5.405291499752129
 21
9.58822899148965
 31
0.0
  0
LINE
  5
74E
330
4DC
100
AcDbEntity
  8
DIM
 62
     0
370
    -2
100
AcDbLine
 10
5.75529149975213
 20
11.21822899148964
 30
0.0
 11
5.75529149975213
 21
11.84822899148964
 31
0.0
  0
LINE
  5
74F
330
4DC
100
AcDbEntity
  8
DIM
 62
     0
370
    -2
100
AcDbLine
 10
5.755291499752129
 20
8.958228991489649
 30
0.0
 11
5.755291499752129
 21
8.32822899148965
 31
0.0
  0
SOLID
  5
750
330
4DC
100
AcDbEntity
  8
DIM
 62
     0
100
AcDbTrace
 10
5.650291499752129
 20
11.21822899148964
 30
0.0
 11
5.86029149975213
 21
11.21822899148964
 31
0.0
 12
5.75529149975213
 22
10.58822899148964
 32
0.0
 13
5.75529149975213
 23
10.58822899148964
 33
0.0
  0
SOLID
  5
751
330
4DC
100
AcDbEntity
  8
DIM
 62
     0
100
AcDbTrace
 10
5.650291499752128
 20
8.958228991489649
 30
0.0
 11
5.860291499752129
 21
8.958228991489649
 31
0.0
 12
5.755291499752129
 22
9.58822899148965
 32
0.0
 13
5.755291499752129
 23
9.58822899148965
 33
0.0
  0
MTEXT
  5
752
330
4DC
100
AcDbEntity
  8
DIM
 62
     0
100
AcDbMText
 10
5.755291499752128
 20
10.08822899148964
 30
0.0
 40
0.4375
 41
0.0
 71
     5
 72
     1
  1
\A1;1.000
  7
TXT
 73
     1
 44
1.0
  0
POINT
  5
753
330
4DC
100
AcDbEntity
  8
DEFPOINTS
 62
     0
100
AcDbPoint
 10
7.143765201975103
 20
10.58822899148964
 30
0.0
  0
POINT
  5
754
330
4DC
100
AcDbEntity
  8
DEFPOINTS
 62
     0
100
AcDbPoint
 10
7.362515201975117
 20
9.58822899148965
 30
0.0
  0
POINT
  5
755
330
4DC
100
AcDbEntity
  8
DEFPOINTS
 62
     0
100
AcDbPoint
 10
5.755291499752129
 20
9.58822899148965
 30
0.0
  0
ENDBLK
  5
4E8
330
4DC
100
AcDbEntity
  8
0
100
AcDbBlockEnd
  0
BLOCK
  5
4F4
330
4E9
100
AcDbEntity
  8
0
100
AcDbBlockBegin
  2
*D20
 70
     1
 10
0.0
 20
0.0
 30
0.0
  3
*D20
  1

  0
LINE
  5
724
330
4E9
100
AcDbEntity
  8
DIM
 62
     0
370
    -2
100
AcDbLine
 10
6.923265201975103
 20
17.32260399148965
 30
0.0
 11
5.405291499752127
 21
17.32260399148965
 31
0.0
  0
LINE
  5
725
330
4E9
100
AcDbEntity
  8
DIM
 62
     0
370
    -2
100
AcDbLine
 10
7.142015201975117
 20
18.32260399148964
 30
0.0
 11
5.405291499752128
 21
18.32260399148964
 31
0.0
  0
LINE
  5
726
330
4E9
100
AcDbEntity
  8
DIM
 62
     0
370
    -2
100
AcDbLine
 10
5.755291499752128
 20
16.69260399148965
 30
0.0
 11
5.755291499752128
 21
16.06260399148965
 31
0.0
  0
LINE
  5
727
330
4E9
100
AcDbEntity
  8
DIM
 62
     0
370
    -2
100
AcDbLine
 10
5.755291499752129
 20
18.95260399148964
 30
0.0
 11
5.755291499752129
 21
19.58260399148964
 31
0.0
  0
SOLID
  5
728
330
4E9
100
AcDbEntity
  8
DIM
 62
     0
100
AcDbTrace
 10
5.650291499752127
 20
16.69260399148965
 30
0.0
 11
5.860291499752128
 21
16.69260399148965
 31
0.0
 12
5.755291499752128
 22
17.32260399148965
 32
0.0
 13
5.755291499752128
 23
17.32260399148965
 33
0.0
  0
SOLID
  5
729
330
4E9
100
AcDbEntity
  8
DIM
 62
     0
100
AcDbTrace
 10
5.650291499752128
 20
18.95260399148964
 30
0.0
 11
5.860291499752129
 21
18.95260399148964
 31
0.0
 12
5.755291499752129
 22
18.32260399148964
 32
0.0
 13
5.755291499752129
 23
18.32260399148964
 33
0.0
  0
MTEXT
  5
72A
330
4E9
100
AcDbEntity
  8
DIM
 62
     0
100
AcDbMText
 10
5.755291499752125
 20
17.82260399148964
 30
0.0
 40
0.4375
 41
0.0
 71
     5
 72
     1
  1
\A1;1.000
  7
TXT
 73
     1
 44
1.0
  0
POINT
  5
72B
330
4E9
100
AcDbEntity
  8
DEFPOINTS
 62
     0
100
AcDbPoint
 10
7.143765201975103
 20
17.32260399148965
 30
0.0
  0
POINT
  5
72C
330
4E9
100
AcDbEntity
  8
DEFPOINTS
 62
     0
100
AcDbPoint
 10
7.362515201975117
 20
18.32260399148964
 30
0.0
  0
POINT
  5
72D
330
4E9
100
AcDbEntity
  8
DEFPOINTS
 62
     0
100
AcDbPoint
 10
5.755291499752129
 20
18.32260399148964
 30
0.0
  0
ENDBLK
  5
4F5
330
4E9
100
AcDbEntity
  8
0
100
AcDbBlockEnd
  0
BLOCK
  5
6C4
330
6AD
100
AcDbEntity
  8
0
100
AcDbBlockBegin
  2
HBS
 70
     0
 10
0.0
 20
0.0
 30
0.0
  3
HBS
  1

  0
LINE
  5
6AE
330
6AD
100
AcDbEntity
  8
TITLE
100
AcDbLine
 10
0.0619999999999976
 20
9.179999999999999
 30
0.0
 11
16.53799999999999
 21
9.180000000000003
 31
0.0
  0
TEXT
  5
6AF
330
6AD
100
AcDbEntity
  8
TEXT
100
AcDbText
 10
0.2078333333333345
 20
9.220079195640078
 30
0.0
 40
0.125
  1
NAME
  7
TXT
 72
     1
 11
0.4370000000000012
 21
9.220079195640078
 31
0.0
100
AcDbText
  0
TEXT
  5
6B0
330
6AD
100
AcDbEntity
  8
TEXT
100
AcDbText
 10
0.2078333333333345
 20
9.42841252897341
 30
0.0
 40
0.125
  1
PART
  7
TXT
 72
     1
 11
0.4370000000000012
 21
9.42841252897341
 31
0.0
100
AcDbText
  0
LINE
  5
6B1
330
6AD
100
AcDbEntity
  8
TITLE
100
AcDbLine
 10
0.8120000000000011
 20
9.179999999999999
 30
0.0
 11
0.8119999999999976
 21
9.597999999999998
 31
0.0
  0
TEXT
  5
6B2
330
6AD
100
AcDbEntity
  8
TEXT
100
AcDbText
 10
7.207833333333332
 20
9.42841252897341
 30
0.0
 40
0.125
  1
PART
  7
TXT
 72
     1
 11
7.436999999999999
 21
9.42841252897341
 31
0.0
100
AcDbText
  0
TEXT
  5
6B3
330
6AD
100
AcDbEntity
  8
TEXT
100
AcDbText
 10
7.311999999999999
 20
9.220079195640078
 30
0.0
 40
0.125
  1
No.
  7
TXT
 72
     1
 11
7.436999999999999
 21
9.220079195640078
 31
0.0
100
AcDbText
  0
LINE
  5
6B4
330
6AD
100
AcDbEntity
  8
TITLE
100
AcDbLine
 10
7.061999999999999
 20
9.597999999999998
 30
0.0
 11
7.061999999999999
 21
9.179999999999999
 31
0.0
  0
LINE
  5
6B5
330
6AD
100
AcDbEntity
  8
TITLE
100
AcDbLine
 10
7.000000000000001
 20
9.597999999999998
 30
0.0
 11
7.000000000000001
 21
9.179999999999999
 31
0.0
  0
LINE
  5
6B6
330
6AD
100
AcDbEntity
  8
TITLE
100
AcDbLine
 10
7.811999999999999
 20
9.597999999999998
 30
0.0
 11
7.811999999999999
 21
9.179999999999999
 31
0.0
  0
LINE
  5
6B7
330
6AD
100
AcDbEntity
  8
TITLE
100
AcDbLine
 10
16.6
 20
9.659999999999996
 30
0.0
 11
16.59999999999999
 21
0.0
 31
0.0
  0
LINE
  5
6B8
330
6AD
100
AcDbEntity
  8
TITLE
100
AcDbLine
 10
16.59999999999999
 20
0.0
 30
0.0
 11
0.0
 21
0.0
 31
0.0
  0
LINE
  5
6B9
330
6AD
100
AcDbEntity
  8
TITLE
100
AcDbLine
 10
0.0
 20
0.0
 30
0.0
 11
0.0
 21
9.659999999999996
 31
0.0
  0
LINE
  5
6BA
330
6AD
100
AcDbEntity
  8
TITLE
100
AcDbLine
 10
0.0
 20
9.659999999999996
 30
0.0
 11
16.6
 21
9.659999999999996
 31
0.0
  0
LINE
  5
6BB
330
6AD
100
AcDbEntity
  8
TITLE
100
AcDbLine
 10
16.53799999999999
 20
9.598000000000006
 30
0.0
 11
16.53799999999999
 21
0.0620000000000012
 31
0.0
  0
LINE
  5
6BC
330
6AD
100
AcDbEntity
  8
TITLE
100
AcDbLine
 10
16.53799999999999
 20
0.0620000000000012
 30
0.0
 11
0.0620000000000012
 21
0.0620000000000012
 31
0.0
  0
LINE
  5
6BD
330
6AD
100
AcDbEntity
  8
TITLE
100
AcDbLine
 10
0.0620000000000012
 20
0.0620000000000012
 30
0.0
 11
0.0620000000000012
 21
9.597999999999998
 31
0.0
  0
LINE
  5
6BE
330
6AD
100
AcDbEntity
  8
TITLE
100
AcDbLine
 10
0.0620000000000012
 20
9.597999999999998
 30
0.0
 11
16.53799999999999
 21
9.598000000000006
 31
0.0
  0
LINE
  5
6BF
330
6AD
100
AcDbEntity
  8
TITLE
100
AcDbLine
 10
13.99999113305
 20
9.597999999999998
 30
0.0
 11
13.99999113305
 21
9.179999999999999
 31
0.0
  0
LINE
  5
6C0
330
6AD
100
AcDbEntity
  8
TITLE
100
AcDbLine
 10
14.81199113305
 20
9.597999999999998
 30
0.0
 11
14.81199113305
 21
9.179999999999999
 31
0.0
  0
LINE
  5
6C1
330
6AD
100
AcDbEntity
  8
TITLE
100
AcDbLine
 10
14.06199113305
 20
9.597999999999998
 30
0.0
 11
14.06199113305
 21
9.179999999999999
 31
0.0
  0
TEXT
  5
6C2
330
6AD
100
AcDbEntity
  8
TEXT
100
AcDbText
 10
14.20782446638333
 20
9.220079195640078
 30
0.0
 40
0.125
  1
DATE
  7
TXT
 72
     1
 11
14.43699113305
 21
9.220079195640078
 31
0.0
100
AcDbText
  0
TEXT
  5
6C3
330
6AD
100
AcDbEntity
  8
TEXT
100
AcDbText
 10
14.22865779971667
 20
9.42841252897341
 30
0.0
 40
0.125
  1
REV.
  7
TXT
 72
     1
 11
14.43699113305
 21
9.42841252897341
 31
0.0
100
AcDbText
  0
ENDBLK
  5
6C5
330
6AD
100
AcDbEntity
  8
0
100
AcDbBlockEnd
  0
ENDSEC
  0
SECTION
  2
ENTITIES
  0
LINE
  5
161
330
1E
100
AcDbEntity
  8
OBJECT
100
AcDbLine
 10
14.44845270197511
 20
18.40541649148965
 30
0.0
 11
14.30795270197512
 21
18.40541649148965
 31
0.0
  0
ARC
  5
162
330
1E
100
AcDbEntity
  8
OBJECT
100
AcDbCircle
 10
7.323452701975114
 20
9.955416491489653
 30
0.0
 40
0.45
100
AcDbArc
 50
180.0
 51
270.0
  0
ARC
  5
163
330
1E
100
AcDbEntity
  8
OBJECT
100
AcDbCircle
 10
14.44845270197511
 20
9.955416491489657
 30
0.0
 40
0.45
100
AcDbArc
 50
270.0
 51
0.0
  0
LINE
  5
16C
330
1E
100
AcDbEntity
  8
OBJECT
100
AcDbLine
 10
7.323452701975114
 20
9.505416491489654
 30
0.0
 11
7.463952701975117
 21
9.505416491489654
 31
0.0
  0
ARC
  5
16E
330
1E
100
AcDbEntity
  8
OBJECT
100
AcDbCircle
 10
14.44845270197511
 20
17.95541649148965
 30
0.0
 40
0.45
100
AcDbArc
 50
0.0
 51
90.0
  0
ARC
  5
16F
330
1E
100
AcDbEntity
  8
OBJECT
100
AcDbCircle
 10
7.323452701975114
 20
17.95541649148965
 30
0.0
 40
0.45
100
AcDbArc
 50
90.0
 51
180.0
  0
LINE
  5
170
330
1E
100
AcDbEntity
  8
OBJECT
100
AcDbLine
 10
14.89845270197511
 20
9.955416491489657
 30
0.0
 11
14.89845270197511
 21
10.09591649148964
 31
0.0
  0
ARC
  5
171
330
1E
100
AcDbEntity
  8
OBJECT
100
AcDbCircle
 10
7.323452701975114
 20
17.95541649148965
 30
0.0
 40
0.5
100
AcDbArc
 50
90.0
 51
180.0
  0
ARC
  5
172
330
1E
100
AcDbEntity
  8
OBJECT
100
AcDbCircle
 10
14.44845270197511
 20
17.95541649148965
 30
0.0
 40
0.5
100
AcDbArc
 50
0.0
 51
90.0
  0
ARC
  5
173
330
1E
100
AcDbEntity
  8
OBJECT
100
AcDbCircle
 10
14.44845270197511
 20
9.95541649148965
 30
0.0
 40
0.5
100
AcDbArc
 50
270.0
 51
0.0
  0
ARC
  5
174
330
1E
100
AcDbEntity
  8
OBJECT
100
AcDbCircle
 10
7.323452701975114
 20
9.95541649148965
 30
0.0
 40
0.5
100
AcDbArc
 50
180.0
 51
270.0
  0
LINE
  5
175
330
1E
100
AcDbEntity
  8
OBJECT
100
AcDbLine
 10
14.94845270197511
 20
9.95541649148965
 30
0.0
 11
14.94845270197511
 21
17.95541649148965
 31
0.0
  0
LINE
  5
176
330
1E
100
AcDbEntity
  8
OBJECT
100
AcDbLine
 10
14.44845270197511
 20
18.45541649148965
 30
0.0
 11
7.323452701975114
 21
18.45541649148965
 31
0.0
  0
LINE
  5
177
330
1E
100
AcDbEntity
  8
OBJECT
100
AcDbLine
 10
6.823452701975114
 20
17.95541649148965
 30
0.0
 11
6.823452701975114
 21
9.95541649148965
 31
0.0
  0
LINE
  5
178
330
1E
100
AcDbEntity
  8
OBJECT
100
AcDbLine
 10
6.873452701975111
 20
17.95541649148965
 30
0.0
 11
6.873452701975111
 21
17.81491649148965
 31
0.0
  0
LINE
  5
179
330
1E
100
AcDbEntity
  8
OBJECT
100
AcDbLine
 10
14.81564020197512
 20
17.91635399148965
 30
0.0
 11
14.81564020197511
 21
9.994478991489653
 31
0.0
  0
LINE
  5
17A
330
1E
100
AcDbEntity
  8
OBJECT
100
AcDbLine
 10
6.956265201975114
 20
17.91635399148964
 30
0.0
 11
6.956265201975114
 21
9.99447899148965
 31
0.0
  0
LINE
  5
17B
330
1E
100
AcDbEntity
  8
OBJECT
100
AcDbLine
 10
14.40939020197513
 20
18.32260399148965
 30
0.0
 11
7.362515201975114
 21
18.32260399148964
 31
0.0
  0
LINE
  5
17C
330
1E
100
AcDbEntity
  8
OBJECT
100
AcDbLine
 10
14.4093902019751
 20
9.588228991489657
 30
0.0
 11
7.362515201975114
 21
9.58822899148965
 31
0.0
  0
ARC
  5
17D
330
1E
100
AcDbEntity
  8
OBJECT
100
AcDbCircle
 10
14.40939020197513
 20
17.91635399148965
 30
0.0
 40
0.40625
100
AcDbArc
 50
0.0
 51
90.0
  0
ARC
  5
17E
330
1E
100
AcDbEntity
  8
OBJECT
100
AcDbCircle
 10
14.4093902019751
 20
9.994478991489657
 30
0.0
 40
0.40625
100
AcDbArc
 50
270.0
 51
359.9999999999998
  0
ARC
  5
17F
330
1E
100
AcDbEntity
  8
OBJECT
100
AcDbCircle
 10
7.362515201975114
 20
9.99447899148965
 30
0.0
 40
0.40625
100
AcDbArc
 50
180.0
 51
270.0
  0
ARC
  5
180
330
1E
100
AcDbEntity
  8
OBJECT
100
AcDbCircle
 10
7.362515201975114
 20
17.91635399148964
 30
0.0
 40
0.40625
100
AcDbArc
 50
90.0000000000001
 51
180.0
  0
LINE
  5
181
330
1E
100
AcDbEntity
  8
OBJECT
100
AcDbLine
 10
6.873452701975125
 20
10.09591649148964
 30
0.0
 11
6.956265201975114
 21
10.09591649148964
 31
0.0
  0
LINE
  5
182
330
1E
100
AcDbEntity
  8
HIDDEN
100
AcDbLine
 10
7.342452701975119
 20
10.09591649148965
 30
0.0
 11
7.342452701975119
 21
17.81491649148965
 31
0.0
  0
LINE
  5
183
330
1E
100
AcDbEntity
  8
OBJECT
100
AcDbLine
 10
6.873452701975125
 20
17.81491649148965
 30
0.0
 11
6.956265201975114
 21
17.81491649148965
 31
0.0
  0
LINE
  5
184
330
1E
100
AcDbEntity
  8
HIDDEN
100
AcDbLine
 10
14.42945270197512
 20
10.09591649148965
 30
0.0
 11
14.42945270197512
 21
17.81491649148965
 31
0.0
  0
LINE
  5
185
330
1E
100
AcDbEntity
  8
OBJECT
100
AcDbLine
 10
14.89845270197511
 20
10.09591649148964
 30
0.0
 11
14.81564020197511
 21
10.09591649148964
 31
0.0
  0
LINE
  5
186
330
1E
100
AcDbEntity
  8
OBJECT
100
AcDbLine
 10
14.89845270197511
 20
17.81491649148965
 30
0.0
 11
14.81564020197512
 21
17.81491649148965
 31
0.0
  0
LINE
  5
187
330
1E
100
AcDbEntity
  8
OBJECT
100
AcDbLine
 10
7.463952701975117
 20
18.40541649148965
 30
0.0
 11
7.463952701975117
 21
18.32260399148964
 31
0.0
  0
LINE
  5
188
330
1E
100
AcDbEntity
  8
OBJECT
100
AcDbLine
 10
14.30795270197512
 20
18.40541649148965
 30
0.0
 11
14.30795270197512
 21
18.32260399148965
 31
0.0
  0
LINE
  5
189
330
1E
100
AcDbEntity
  8
HIDDEN
100
AcDbLine
 10
7.463952701975117
 20
17.93641649148964
 30
0.0
 11
14.30795270197511
 21
17.93641649148964
 31
0.0
  0
LINE
  5
18A
330
1E
100
AcDbEntity
  8
OBJECT
100
AcDbLine
 10
6.923452701975122
 20
17.81491649148965
 30
0.0
 11
6.923452701975122
 21
10.09591649148964
 31
0.0
  0
LINE
  5
18B
330
1E
100
AcDbEntity
  8
HIDDEN
100
AcDbLine
 10
6.956265201975114
 20
10.09591649148964
 30
0.0
 11
7.342452701975119
 21
10.09591649148965
 31
0.0
  0
LINE
  5
18C
330
1E
100
AcDbEntity
  8
HIDDEN
100
AcDbLine
 10
6.956265201975114
 20
17.81491649148965
 30
0.0
 11
7.342452701975119
 21
17.81491649148965
 31
0.0
  0
LINE
  5
18D
330
1E
100
AcDbEntity
  8
OBJECT
100
AcDbLine
 10
14.30795270197512
 20
18.35541649148965
 30
0.0
 11
7.463952701975117
 21
18.35541649148965
 31
0.0
  0
LINE
  5
18E
330
1E
100
AcDbEntity
  8
HIDDEN
100
AcDbLine
 10
14.30795270197512
 20
18.32260399148965
 30
0.0
 11
14.30795270197512
 21
17.93641649148964
 31
0.0
  0
LINE
  5
18F
330
1E
100
AcDbEntity
  8
HIDDEN
100
AcDbLine
 10
7.463952701975117
 20
18.32260399148964
 30
0.0
 11
7.463952701975117
 21
17.93641649148964
 31
0.0
  0
LINE
  5
190
330
1E
100
AcDbEntity
  8
OBJECT
100
AcDbLine
 10
14.84845270197512
 20
10.09591649148965
 30
0.0
 11
14.84845270197512
 21
17.81491649148965
 31
0.0
  0
LINE
  5
191
330
1E
100
AcDbEntity
  8
HIDDEN
100
AcDbLine
 10
14.81564020197512
 20
17.81491649148965
 30
0.0
 11
14.42945270197512
 21
17.81491649148965
 31
0.0
  0
LINE
  5
192
330
1E
100
AcDbEntity
  8
HIDDEN
100
AcDbLine
 10
14.81564020197511
 20
10.09591649148964
 30
0.0
 11
14.42945270197512
 21
10.09591649148965
 31
0.0
  0
LINE
  5
193
330
1E
100
AcDbEntity
  8
OBJECT
100
AcDbLine
 10
7.463952701975117
 20
9.505416491489654
 30
0.0
 11
7.463952701975117
 21
9.555416491489655
 31
0.0
  0
LINE
  5
194
330
1E
100
AcDbEntity
  8
OBJECT
100
AcDbLine
 10
14.30795270197511
 20
9.505416491489654
 30
0.0
 11
14.30795270197511
 21
9.555416491489655
 31
0.0
  0
CIRCLE
  5
195
330
1E
100
AcDbEntity
  8
OBJECT
100
AcDbCircle
 10
14.62814020197511
 20
17.32260399148965
 30
0.0
 40
0.0935
  0
CIRCLE
  5
196
330
1E
100
AcDbEntity
  8
OBJECT
100
AcDbCircle
 10
14.62814020197511
 20
10.58822899148964
 30
0.0
 40
0.0935
  0
CIRCLE
  5
197
330
1E
100
AcDbEntity
  8
OBJECT
100
AcDbCircle
 10
7.143765201975099
 20
10.58822899148964
 30
0.0
 40
0.0935
  0
CIRCLE
  5
198
330
1E
100
AcDbEntity
  8
OBJECT
100
AcDbCircle
 10
7.143765201975099
 20
17.32260399148965
 30
0.0
 40
0.0935
  0
LINE
  5
199
330
1E
100
AcDbEntity
  8
OBJECT
100
AcDbLine
 10
19.56677253206893
 20
9.455416491489653
 30
0.0
 11
34.51677253206894
 21
9.455416491489653
 31
0.0
  0
LINE
  5
19A
330
1E
100
AcDbEntity
  8
OBJECT
100
AcDbLine
 10
34.51677253206894
 20
9.455416491489653
 30
0.0
 11
34.51677253206894
 21
18.45541649148965
 31
0.0
  0
LINE
  5
19B
330
1E
100
AcDbEntity
  8
OBJECT
100
AcDbLine
 10
34.51677253206894
 20
18.45541649148965
 30
0.0
 11
19.56677253206893
 21
18.45541649148965
 31
0.0
  0
LINE
  5
19C
330
1E
100
AcDbEntity
  8
OBJECT
100
AcDbLine
 10
19.51677253206894
 20
18.40541649148965
 30
0.0
 11
19.51677253206894
 21
9.505416491489651
 31
0.0
  0
LINE
  5
19D
330
1E
100
AcDbEntity
  8
HIDDEN
100
AcDbLine
 10
19.58077253206893
 20
9.505416491489651
 30
0.0
 11
34.46677253206894
 21
9.505416491489651
 31
0.0
  0
LINE
  5
19E
330
1E
100
AcDbEntity
  8
HIDDEN
100
AcDbLine
 10
34.46677253206894
 20
17.83041649148965
 30
0.0
 11
34.46677253206894
 21
18.40541649148965
 31
0.0
  0
LINE
  5
19F
330
1E
100
AcDbEntity
  8
HIDDEN
100
AcDbLine
 10
19.56677253206893
 20
9.555416491489648
 30
0.0
 11
20.01677253206894
 21
9.555416491489648
 31
0.0
  0
LINE
  5
1A0
330
1E
100
AcDbEntity
  8
HIDDEN
100
AcDbLine
 10
34.40277253206893
 20
9.505416491489651
 30
0.0
 11
34.40277253206893
 21
18.40541649148965
 31
0.0
  0
LINE
  5
1A1
330
1E
100
AcDbEntity
  8
HIDDEN
100
AcDbLine
 10
20.01677253206894
 20
9.555416491489648
 30
0.0
 11
20.01677253206894
 21
9.505416491489651
 31
0.0
  0
LINE
  5
1A2
330
1E
100
AcDbEntity
  8
OBJECT
100
AcDbLine
 10
20.06677253206893
 20
9.39141649148966
 30
0.0
 11
34.46677253206894
 21
9.39141649148966
 31
0.0
  0
LINE
  5
1A3
330
1E
100
AcDbEntity
  8
HIDDEN
100
AcDbLine
 10
20.01677253206894
 20
17.93641649148965
 30
0.0
 11
20.06677253206893
 21
17.93641649148965
 31
0.0
  0
LINE
  5
1A4
330
1E
100
AcDbEntity
  8
HIDDEN
100
AcDbLine
 10
20.01677253206894
 20
17.93641649148965
 30
0.0
 11
20.01677253206894
 21
18.35541649148965
 31
0.0
  0
LINE
  5
1A5
330
1E
100
AcDbEntity
  8
HIDDEN
100
AcDbLine
 10
19.56677253206893
 20
18.35541649148965
 30
0.0
 11
20.01677253206894
 21
18.35541649148965
 31
0.0
  0
LINE
  5
1A6
330
1E
100
AcDbEntity
  8
HIDDEN
100
AcDbLine
 10
19.56677253206893
 20
18.40541649148965
 30
0.0
 11
34.46677253206894
 21
18.40541649148965
 31
0.0
  0
LINE
  5
1A7
330
1E
100
AcDbEntity
  8
HIDDEN
100
AcDbLine
 10
34.51677253206894
 20
17.83041649148965
 30
0.0
 11
34.46677253206894
 21
17.83041649148965
 31
0.0
  0
LINE
  5
1A8
330
1E
100
AcDbEntity
  8
HIDDEN
100
AcDbLine
 10
34.46677253206894
 20
10.08041649148965
 30
0.0
 11
34.51677253206894
 21
10.08041649148965
 31
0.0
  0
LINE
  5
1A9
330
1E
100
AcDbEntity
  8
HIDDEN
100
AcDbLine
 10
34.46677253206894
 20
9.505416491489651
 30
0.0
 11
34.46677253206894
 21
10.08041649148965
 31
0.0
  0
LINE
  5
1AA
330
1E
100
AcDbEntity
  8
HIDDEN
100
AcDbLine
 10
20.06677253206893
 20
18.40541649148965
 30
0.0
 11
20.06677253206893
 21
9.505416491489651
 31
0.0
  0
LINE
  5
1AB
330
1E
100
AcDbEntity
  8
HIDDEN
100
AcDbLine
 10
34.51677253206894
 20
17.81491649148965
 30
0.0
 11
34.46677253206894
 21
17.81491649148965
 31
0.0
  0
LINE
  5
1AC
330
1E
100
AcDbEntity
  8
HIDDEN
100
AcDbLine
 10
34.51677253206894
 20
10.09591649148965
 30
0.0
 11
34.46677253206894
 21
10.09591649148965
 31
0.0
  0
LINE
  5
1AD
330
1E
100
AcDbEntity
  8
HIDDEN
100
AcDbLine
 10
34.46677253206894
 20
10.09591649148965
 30
0.0
 11
34.46677253206894
 21
17.81491649148965
 31
0.0
  0
LINE
  5
1AE
330
1E
100
AcDbEntity
  8
HIDDEN
100
AcDbLine
 10
20.06677253206893
 20
17.81491649148965
 30
0.0
 11
20.01677253206894
 21
17.81491649148965
 31
0.0
  0
LINE
  5
1AF
330
1E
100
AcDbEntity
  8
HIDDEN
100
AcDbLine
 10
20.01677253206894
 20
9.588228991489653
 30
0.0
 11
20.01677253206894
 21
17.81491649148965
 31
0.0
  0
LINE
  5
1B0
330
1E
100
AcDbEntity
  8
HIDDEN
100
AcDbLine
 10
20.06677253206893
 20
10.09591649148965
 30
0.0
 11
20.01677253206894
 21
10.09591649148965
 31
0.0
  0
ARC
  5
1B1
330
1E
100
AcDbEntity
  8
OBJECT
100
AcDbCircle
 10
19.56677253206893
 20
9.505416491489651
 30
0.0
 40
0.05
100
AcDbArc
 50
90.0
 51
270.0
  0
ARC
  5
1B2
330
1E
100
AcDbEntity
  8
OBJECT
100
AcDbCircle
 10
19.56677253206893
 20
18.40541649148965
 30
0.0
 40
0.0499999999999989
100
AcDbArc
 50
90.0
 51
270.0
  0
LINE
  5
1B3
330
1E
100
AcDbEntity
  8
OBJECT
100
AcDbLine
 10
20.06677253206893
 20
9.455416491489653
 30
0.0
 11
20.06677253206893
 21
9.39141649148966
 31
0.0
  0
LINE
  5
1B4
330
1E
100
AcDbEntity
  8
OBJECT
100
AcDbLine
 10
34.46677253206894
 20
9.39141649148966
 30
0.0
 11
34.46677253206894
 21
9.455416491489653
 31
0.0
  0
LINE
  5
1B5
330
1E
100
AcDbEntity
  8
HIDDEN
100
AcDbLine
 10
20.01677253206893
 20
18.32260399148965
 30
0.0
 11
19.95677253206901
 21
18.32260399148965
 31
0.0
  0
LINE
  5
1B6
330
1E
100
AcDbEntity
  8
HIDDEN
100
AcDbLine
 10
20.01677253206894
 20
9.588228991489653
 30
0.0
 11
19.95677253206893
 21
9.588228991489653
 31
0.0
  0
LINE
  5
1B7
330
1E
100
AcDbEntity
  8
HIDDEN
100
AcDbLine
 10
19.95677253206901
 20
18.32260399148965
 30
0.0
 11
19.95677253206893
 21
9.588228991489653
 31
0.0
  0
LINE
  5
1B8
330
1E
100
AcDbEntity
  8
OBJECT
100
AcDbLine
 10
19.51677253206894
 20
24.08080791183747
 30
0.0
 11
34.51677253206894
 21
24.08080791183747
 31
0.0
  0
LINE
  5
1B9
330
1E
100
AcDbEntity
  8
OBJECT
100
AcDbLine
 10
34.51677253206894
 20
32.20580791183747
 30
0.0
 11
19.51677253206894
 21
32.20580791183747
 31
0.0
  0
LINE
  5
1BA
330
1E
100
AcDbEntity
  8
OBJECT
100
AcDbLine
 10
34.51677253206894
 20
32.20580791183747
 30
0.0
 11
34.51677253206894
 21
24.08080791183747
 31
0.0
  0
LINE
  5
1BB
330
1E
100
AcDbEntity
  8
OBJECT
100
AcDbLine
 10
19.51677253206894
 20
32.20580791183747
 30
0.0
 11
19.51677253206894
 21
24.08080791183747
 31
0.0
  0
LINE
  5
1BC
330
1E
100
AcDbEntity
  8
OBJECT
100
AcDbLine
 10
29.28239753206893
 20
27.76830791183747
 30
0.0
 11
24.75114753206895
 21
27.76830791183749
 31
0.0
  0
LINE
  5
1BD
330
1E
100
AcDbEntity
  8
OBJECT
100
AcDbLine
 10
29.28239753206893
 20
28.51830791183747
 30
0.0
 11
24.75114753206895
 21
28.51830791183749
 31
0.0
  0
DIMENSION
  5
1BE
330
1E
100
AcDbEntity
  8
DIM
100
AcDbDimension
  2
*D0
 10
34.51677253206894
 20
22.03109611959821
 30
0.0
 11
27.01677253206893
 21
22.03109611959821
 31
0.0
 70
    32
  1
C
 71
     5
 42
15.0
  3
23NSTD
100
AcDbAlignedDimension
 13
19.51677253206893
 23
18.40541649148965
 33
0.0
 14
34.51677253206894
 24
18.45541649148965
 34
0.0
100
AcDbRotatedDimension
  0
LINE
  5
1BF
330
1E
100
AcDbEntity
  8
HIDDEN
100
AcDbLine
 10
19.96677253206899
 20
32.07299541183747
 30
0.0
 11
19.96677253206892
 21
24.21362041183747
 31
0.0
  0
LINE
  5
1C0
330
1E
100
AcDbEntity
  8
HIDDEN
100
AcDbLine
 10
20.01677253206894
 20
24.18080791183747
 30
0.0
 11
20.01677253206894
 21
32.10580791183748
 31
0.0
  0
LINE
  5
1C1
330
1E
100
AcDbEntity
  8
HIDDEN
100
AcDbLine
 10
34.46677253206894
 20
24.13080791183747
 30
0.0
 11
34.46677253206894
 21
32.15580791183747
 31
0.0
  0
LINE
  5
1C2
330
1E
100
AcDbEntity
  8
HIDDEN
100
AcDbLine
 10
20.06677253206893
 20
32.15580791183747
 30
0.0
 11
20.06677253206893
 21
31.71080791183747
 31
0.0
  0
LINE
  5
1C3
330
1E
100
AcDbEntity
  8
HIDDEN
100
AcDbLine
 10
34.40277253206895
 20
24.15930791183747
 30
0.0
 11
34.40277253206895
 21
32.12730791183747
 31
0.0
  0
LINE
  5
1C4
330
1E
100
AcDbEntity
  8
HIDDEN
100
AcDbLine
 10
20.06677253206893
 20
24.72130791183747
 30
0.0
 11
20.01677253206894
 21
24.72130791183747
 31
0.0
  0
LINE
  5
1C5
330
1E
100
AcDbEntity
  8
HIDDEN
100
AcDbLine
 10
20.06677253206888
 20
31.56530791183747
 30
0.0
 11
20.01677253206894
 21
31.56530791183747
 31
0.0
  0
LINE
  5
1C6
330
1E
100
AcDbEntity
  8
HIDDEN
100
AcDbLine
 10
34.51677253206894
 20
32.15580791183747
 30
0.0
 11
34.46677253206894
 21
32.15580791183747
 31
0.0
  0
LINE
  5
1C7
330
1E
100
AcDbEntity
  8
HIDDEN
100
AcDbLine
 10
19.56677253206893
 20
24.13080791183747
 30
0.0
 11
34.51677253206894
 21
24.13080791183747
 31
0.0
  0
LINE
  5
1C8
330
1E
100
AcDbEntity
  8
HIDDEN
100
AcDbLine
 10
19.96677253206892
 20
24.21362041183747
 30
0.0
 11
20.01677253206894
 21
24.21362041183747
 31
0.0
  0
LINE
  5
1C9
330
1E
100
AcDbEntity
  8
HIDDEN
100
AcDbLine
 10
19.96677253206899
 20
32.07299541183747
 30
0.0
 11
20.01677253206894
 21
32.07299541183747
 31
0.0
  0
LINE
  5
1CA
330
1E
100
AcDbEntity
  8
HIDDEN
100
AcDbLine
 10
20.01677253206894
 20
32.10580791183748
 30
0.0
 11
19.56677253206893
 21
32.10580791183748
 31
0.0
  0
LINE
  5
1CB
330
1E
100
AcDbEntity
  8
HIDDEN
100
AcDbLine
 10
20.06677253206893
 20
31.71080791183747
 30
0.0
 11
20.01677253206894
 21
31.71080791183747
 31
0.0
  0
LINE
  5
1CC
330
1E
100
AcDbEntity
  8
HIDDEN
100
AcDbLine
 10
20.06677253206893
 20
31.56530791183747
 30
0.0
 11
20.06677253206893
 21
24.72130791183747
 31
0.0
  0
LINE
  5
1CD
330
1E
100
AcDbEntity
  8
HIDDEN
100
AcDbLine
 10
20.06677253206893
 20
24.57580791183747
 30
0.0
 11
20.01677253206894
 21
24.57580791183747
 31
0.0
  0
LINE
  5
1CE
330
1E
100
AcDbEntity
  8
HIDDEN
100
AcDbLine
 10
20.01677253206894
 20
24.18080791183747
 30
0.0
 11
19.56677253206893
 21
24.18080791183747
 31
0.0
  0
LINE
  5
1CF
330
1E
100
AcDbEntity
  8
HIDDEN
100
AcDbLine
 10
19.96677253206899
 20
24.21362041183747
 30
0.0
 11
20.01677253206894
 21
24.21362041183747
 31
0.0
  0
LINE
  5
1D0
330
1E
100
AcDbEntity
  8
HIDDEN
100
AcDbLine
 10
20.06677253206893
 20
24.13080791183747
 30
0.0
 11
20.06677253206893
 21
24.57580791183747
 31
0.0
  0
LINE
  5
1D1
330
1E
100
AcDbEntity
  8
HIDDEN
100
AcDbLine
 10
20.06677253206893
 20
24.57580791183747
 30
0.0
 11
20.06677253206893
 21
24.13080791183747
 31
0.0
  0
ARC
  5
1D2
330
1E
100
AcDbEntity
  8
HIDDEN
100
AcDbCircle
 10
19.56677253206893
 20
32.15580791183747
 30
0.0
 40
0.0499999999999981
100
AcDbArc
 50
90.0
 51
270.0
  0
ARC
  5
1D3
330
1E
100
AcDbEntity
  8
HIDDEN
100
AcDbCircle
 10
19.56677253206893
 20
24.13080791183747
 30
0.0
 40
0.0499999999999981
100
AcDbArc
 50
90.0
 51
270.0
  0
LINE
  5
1D4
330
1E
100
AcDbEntity
  8
HIDDEN
100
AcDbLine
 10
34.46677253206894
 20
31.68680791183748
 30
0.0
 11
34.51677253206894
 21
31.68680791183748
 31
0.0
  0
LINE
  5
1D5
330
1E
100
AcDbEntity
  8
HIDDEN
100
AcDbLine
 10
34.51677253206894
 20
31.56530791183748
 30
0.0
 11
34.46677253206894
 21
31.56530791183748
 31
0.0
  0
LINE
  5
1D6
330
1E
100
AcDbEntity
  8
HIDDEN
100
AcDbLine
 10
34.51677253206894
 20
24.72130791183747
 30
0.0
 11
34.46677253206894
 21
24.72130791183747
 31
0.0
  0
LINE
  5
1D7
330
1E
100
AcDbEntity
  8
HIDDEN
100
AcDbLine
 10
34.46677253206894
 20
24.59980791183747
 30
0.0
 11
34.51677253206894
 21
24.59980791183747
 31
0.0
  0
LINE
  5
1D8
330
1E
100
AcDbEntity
  8
HIDDEN
100
AcDbLine
 10
34.46677253206894
 20
24.15930791183747
 30
0.0
 11
34.40277253206895
 21
24.15930791183747
 31
0.0
  0
LINE
  5
1D9
330
1E
100
AcDbEntity
  8
HIDDEN
100
AcDbLine
 10
34.46677253206894
 20
32.12730791183747
 30
0.0
 11
34.40277253206895
 21
32.12730791183747
 31
0.0
  0
LINE
  5
1DA
330
1E
100
AcDbEntity
  8
HIDDEN
100
AcDbLine
 10
34.40277253206895
 20
32.15580791183747
 30
0.0
 11
19.56677253206893
 21
32.15580791183747
 31
0.0
  0
TEXT
  5
1DB
330
1E
100
AcDbEntity
  8
TEXT
100
AcDbText
 10
1.65784363028532
 20
31.99885852293965
 30
0.0
 40
0.4375000000000001
  1
%%UMATERIAL
 41
0.75
100
AcDbText
  0
TEXT
  5
1DC
330
1E
100
AcDbEntity
  8
TEXT
100
AcDbText
 10
2.063517589405243
 20
31.26969185627297
 30
0.0
 40
0.4375000000000001
  1
BODY ASSEMBLY
 41
0.75
100
AcDbText
  0
TEXT
  5
1DD
330
1E
100
AcDbEntity
  8
TEXT
100
AcDbText
 10
2.063517589405243
 20
30.54052518960632
 30
0.0
 40
0.4375000000000001
  1
FRONT PANEL
 41
0.75
100
AcDbText
  0
TEXT
  5
1DE
330
1E
100
AcDbEntity
  8
TEXT
100
AcDbText
 10
1.65784363028532
 20
27.16604584098194
 30
0.0
 40
0.4375000000000001
  1
%%UFINISH
 41
0.75
100
AcDbText
  0
TEXT
  5
1DF
330
1E
100
AcDbEntity
  8
TEXT
100
AcDbText
 10
2.063517589405243
 20
26.43687917431527
 30
0.0
 40
0.4375000000000001
  1
BODY AND PANEL
 41
0.75
100
AcDbText
  0
LINE
  5
1E0
330
1E
100
AcDbEntity
  8
OBJECT
100
AcDbLine
 10
40.48947672952003
 20
17.95541649148965
 30
0.0
 11
40.48947672952003
 21
9.955416491489661
 31
0.0
  0
LINE
  5
1E1
330
1E
100
AcDbEntity
  8
OBJECT
100
AcDbLine
 10
48.11447672952005
 20
18.45541649148965
 30
0.0
 11
40.98947672952003
 21
18.45541649148965
 31
0.0
  0
LINE
  5
1E2
330
1E
100
AcDbEntity
  8
OBJECT
100
AcDbLine
 10
48.61447672952005
 20
9.955416491489661
 30
0.0
 11
48.61447672952005
 21
17.95541649148965
 31
0.0
  0
ARC
  5
1E3
330
1E
100
AcDbEntity
  8
OBJECT
100
AcDbCircle
 10
40.98947672952003
 20
9.955416491489661
 30
0.0
 40
0.5
100
AcDbArc
 50
180.0
 51
270.0
  0
ARC
  5
1E4
330
1E
100
AcDbEntity
  8
OBJECT
100
AcDbCircle
 10
48.11447672952005
 20
9.955416491489661
 30
0.0
 40
0.5
100
AcDbArc
 50
270.0
 51
0.0
  0
ARC
  5
1E5
330
1E
100
AcDbEntity
  8
OBJECT
100
AcDbCircle
 10
48.11447672952005
 20
17.95541649148965
 30
0.0
 40
0.5
100
AcDbArc
 50
0.0
 51
90.0
  0
ARC
  5
1E6
330
1E
100
AcDbEntity
  8
OBJECT
100
AcDbCircle
 10
40.98947672952003
 20
17.95541649148965
 30
0.0
 40
0.5
100
AcDbArc
 50
90.0
 51
180.0
  0
LINE
  5
1E7
330
1E
100
AcDbEntity
  8
OBJECT
100
AcDbLine
 10
48.56447672952004
 20
9.955416491489661
 30
0.0
 11
48.56447672952004
 21
10.09591649148965
 31
0.0
  0
LINE
  5
1E8
330
1E
100
AcDbEntity
  8
OBJECT
100
AcDbLine
 10
48.11447672952005
 20
18.40541649148965
 30
0.0
 11
47.97397672952004
 21
18.40541649148965
 31
0.0
  0
ARC
  5
1E9
330
1E
100
AcDbEntity
  8
OBJECT
100
AcDbCircle
 10
40.98947672952003
 20
17.95541649148965
 30
0.0
 40
0.45
100
AcDbArc
 50
90.0
 51
180.0
  0
ARC
  5
1EA
330
1E
100
AcDbEntity
  8
OBJECT
100
AcDbCircle
 10
48.11447672952005
 20
17.95541649148965
 30
0.0
 40
0.45
100
AcDbArc
 50
0.0
 51
90.0
  0
LINE
  5
1EB
330
1E
100
AcDbEntity
  8
OBJECT
100
AcDbLine
 10
40.98947672952003
 20
9.455416491489661
 30
0.0
 11
42.48947672952003
 21
9.455416491489661
 31
0.0
  0
LINE
  5
1EC
330
1E
100
AcDbEntity
  8
OBJECT
100
AcDbLine
 10
46.61447672952005
 20
9.455416491489661
 30
0.0
 11
46.61447672952005
 21
9.974416491489659
 31
0.0
  0
LINE
  5
1ED
330
1E
100
AcDbEntity
  8
OBJECT
100
AcDbLine
 10
46.55397672952003
 20
9.392416491489658
 30
0.0
 11
47.20597672952004
 21
9.392416491489658
 31
0.0
  0
LINE
  5
1EE
330
1E
100
AcDbEntity
  8
OBJECT
100
AcDbLine
 10
46.60397672952003
 20
9.442416491489655
 30
0.0
 11
47.20597672952004
 21
9.442416491489655
 31
0.0
  0
LINE
  5
1EF
330
1E
100
AcDbEntity
  8
OBJECT
100
AcDbLine
 10
47.20597672952004
 20
9.442416491489655
 30
0.0
 11
47.20597672952004
 21
9.392416491489658
 31
0.0
  0
LINE
  5
1F2
330
1E
100
AcDbEntity
  8
OBJECT
100
AcDbLine
 10
46.61447672952005
 20
9.455416491489661
 30
0.0
 11
48.11447672952005
 21
9.455416491489661
 31
0.0
  0
ARC
  5
1F3
330
1E
100
AcDbEntity
  8
OBJECT
100
AcDbCircle
 10
48.11447672952005
 20
9.955416491489661
 30
0.0
 40
0.45
100
AcDbArc
 50
270.0
 51
0.0
  0
ARC
  5
1F4
330
1E
100
AcDbEntity
  8
OBJECT
100
AcDbCircle
 10
40.98947672952003
 20
9.955416491489661
 30
0.0
 40
0.45
100
AcDbArc
 50
180.0
 51
270.0
  0
LINE
  5
1F5
330
1E
100
AcDbEntity
  8
OBJECT
100
AcDbLine
 10
41.12997672952004
 20
17.93641649148965
 30
0.0
 11
47.97397672952004
 21
17.93641649148965
 31
0.0
  0
LINE
  5
1F6
330
1E
100
AcDbEntity
  8
OBJECT
100
AcDbLine
 10
47.97397672952004
 20
18.45541649148965
 30
0.0
 11
47.97397672952004
 21
17.93641649148965
 31
0.0
  0
LINE
  5
1F7
330
1E
100
AcDbEntity
  8
OBJECT
100
AcDbLine
 10
41.12997672952004
 20
18.45541649148965
 30
0.0
 11
41.12997672952004
 21
17.93641649148965
 31
0.0
  0
LINE
  5
1F8
330
1E
100
AcDbEntity
  8
OBJECT
100
AcDbLine
 10
48.61447672952005
 20
17.81491649148965
 30
0.0
 11
48.09547672952004
 21
17.81491649148965
 31
0.0
  0
LINE
  5
1F9
330
1E
100
AcDbEntity
  8
OBJECT
100
AcDbLine
 10
48.61447672952005
 20
10.09591649148965
 30
0.0
 11
48.09547672952004
 21
10.09591649148965
 31
0.0
  0
LINE
  5
1FA
330
1E
100
AcDbEntity
  8
OBJECT
100
AcDbLine
 10
41.12997672952004
 20
18.40541649148965
 30
0.0
 11
40.98947672952003
 21
18.40541649148965
 31
0.0
  0
LINE
  5
1FB
330
1E
100
AcDbEntity
  8
HIDDEN
100
AcDbLine
 10
41.12997672952004
 20
18.40541649148965
 30
0.0
 11
47.97397672952004
 21
18.40541649148965
 31
0.0
  0
LINE
  5
1FC
330
1E
100
AcDbEntity
  8
OBJECT
100
AcDbLine
 10
48.09547672952004
 20
10.09591649148965
 30
0.0
 11
48.09547672952004
 21
17.81491649148965
 31
0.0
  0
LINE
  5
1FD
330
1E
100
AcDbEntity
  8
HIDDEN
100
AcDbLine
 10
48.56447672952004
 20
10.09591649148965
 30
0.0
 11
48.56447672952004
 21
17.81491649148965
 31
0.0
  0
LINE
  5
1FE
330
1E
100
AcDbEntity
  8
OBJECT
100
AcDbLine
 10
48.56447672952004
 20
17.81491649148965
 30
0.0
 11
48.56447672952004
 21
17.95541649148965
 31
0.0
  0
LINE
  5
1FF
330
1E
100
AcDbEntity
  8
OBJECT
100
AcDbLine
 10
40.48947672952005
 20
17.81491649148965
 30
0.0
 11
41.00847672952004
 21
17.81491649148965
 31
0.0
  0
LINE
  5
200
330
1E
100
AcDbEntity
  8
HIDDEN
100
AcDbLine
 10
40.53947672952005
 20
10.09591649148965
 30
0.0
 11
40.53947672952005
 21
17.81491649148965
 31
0.0
  0
LINE
  5
201
330
1E
100
AcDbEntity
  8
OBJECT
100
AcDbLine
 10
41.00847672952004
 20
10.09591649148965
 30
0.0
 11
41.00847672952004
 21
17.81491649148965
 31
0.0
  0
LINE
  5
202
330
1E
100
AcDbEntity
  8
OBJECT
100
AcDbLine
 10
40.53947672952005
 20
17.81491649148965
 30
0.0
 11
40.53947672952005
 21
17.95541649148965
 31
0.0
  0
LINE
  5
203
330
1E
100
AcDbEntity
  8
OBJECT
100
AcDbLine
 10
40.48947672952005
 20
10.09591649148965
 30
0.0
 11
41.00847672952004
 21
10.09591649148965
 31
0.0
  0
LINE
  5
204
330
1E
100
AcDbEntity
  8
OBJECT
100
AcDbLine
 10
40.53947672952005
 20
9.955416491489661
 30
0.0
 11
40.53947672952005
 21
10.09591649148965
 31
0.0
  0
LINE
  5
205
330
1E
100
AcDbEntity
  8
HIDDEN
100
AcDbLine
 10
41.12997672952004
 20
9.505416491489658
 30
0.0
 11
42.48947672952003
 21
9.505416491489658
 31
0.0
  0
LINE
  5
206
330
1E
100
AcDbEntity
  8
OBJECT
100
AcDbLine
 10
41.12997672952004
 20
9.974416491489666
 30
0.0
 11
42.48947672952004
 21
9.974416491489666
 31
0.0
  0
LINE
  5
207
330
1E
100
AcDbEntity
  8
OBJECT
100
AcDbLine
 10
41.12997672952004
 20
9.455416491489661
 30
0.0
 11
41.12997672952004
 21
9.974416491489666
 31
0.0
  0
LINE
  5
208
330
1E
100
AcDbEntity
  8
OBJECT
100
AcDbLine
 10
47.97397672952004
 20
9.455416491489661
 30
0.0
 11
47.97397672952004
 21
9.974416491489659
 31
0.0
  0
LINE
  5
209
330
1E
100
AcDbEntity
  8
OBJECT
100
AcDbLine
 10
40.98947672952003
 20
9.505416491489658
 30
0.0
 11
41.12997672952004
 21
9.505416491489658
 31
0.0
  0
LINE
  5
20A
330
1E
100
AcDbEntity
  8
OBJECT
100
AcDbLine
 10
48.11447672952005
 20
9.505416491489658
 30
0.0
 11
47.97397672952004
 21
9.505416491489658
 31
0.0
  0
LINE
  5
20B
330
1E
100
AcDbEntity
  8
OBJECT
100
AcDbLine
 10
46.55197672952002
 20
9.505416491489658
 30
0.0
 11
46.55197672952002
 21
9.974416491489659
 31
0.0
  0
LINE
  5
20C
330
1E
100
AcDbEntity
  8
OBJECT
100
AcDbLine
 10
46.61447672952005
 20
9.974416491489659
 30
0.0
 11
47.97397672952004
 21
9.974416491489659
 31
0.0
  0
LINE
  5
20D
330
1E
100
AcDbEntity
  8
HIDDEN
100
AcDbLine
 10
46.61447672952005
 20
9.505416491489658
 30
0.0
 11
47.97397672952004
 21
9.505416491489658
 31
0.0
  0
LINE
  5
20E
330
1E
100
AcDbEntity
  8
OBJECT
100
AcDbLine
 10
48.53597672952003
 20
17.95591649148965
 30
0.0
 11
48.53597672952003
 21
17.81491649148965
 31
0.0
  0
LINE
  5
20F
330
1E
100
AcDbEntity
  8
OBJECT
100
AcDbLine
 10
40.56797672952003
 20
17.95591649148965
 30
0.0
 11
40.56797672952003
 21
17.81491649148965
 31
0.0
  0
LINE
  5
210
330
1E
100
AcDbEntity
  8
OBJECT
100
AcDbLine
 10
48.11497672952004
 20
18.37691649148965
 30
0.0
 11
47.97397672952004
 21
18.37691649148965
 31
0.0
  0
LINE
  5
211
330
1E
100
AcDbEntity
  8
OBJECT
100
AcDbLine
 10
48.11497672952004
 20
9.533916491489659
 30
0.0
 11
47.97397672952004
 21
9.533916491489659
 31
0.0
  0
ARC
  5
212
330
1E
100
AcDbEntity
  8
OBJECT
100
AcDbCircle
 10
48.11497672952004
 20
9.954916491489658
 30
0.0
 40
0.4210000000000001
100
AcDbArc
 50
270.0
 51
0.0
  0
ARC
  5
213
330
1E
100
AcDbEntity
  8
OBJECT
100
AcDbCircle
 10
48.11497672952004
 20
17.95591649148965
 30
0.0
 40
0.4210000000000001
100
AcDbArc
 50
0.0
 51
90.0
  0
ARC
  5
214
330
1E
100
AcDbEntity
  8
OBJECT
100
AcDbCircle
 10
40.98897672952003
 20
17.95591649148965
 30
0.0
 40
0.4210000000000001
100
AcDbArc
 50
90.00000000000005
 51
180.0
  0
ARC
  5
215
330
1E
100
AcDbEntity
  8
OBJECT
100
AcDbCircle
 10
40.98897672952005
 20
9.954916491489658
 30
0.0
 40
0.4210000000000001
100
AcDbArc
 50
180.0
 51
270.0
  0
LINE
  5
216
330
1E
100
AcDbEntity
  8
HIDDEN
100
AcDbLine
 10
40.56797672952003
 20
17.81491649148965
 30
0.0
 11
40.56797672952003
 21
10.09591649148965
 31
0.0
  0
LINE
  5
217
330
1E
100
AcDbEntity
  8
OBJECT
100
AcDbLine
 10
41.12997672952004
 20
18.37691649148965
 30
0.0
 11
40.98897672952003
 21
18.37691649148965
 31
0.0
  0
LINE
  5
218
330
1E
100
AcDbEntity
  8
HIDDEN
100
AcDbLine
 10
47.97397672952004
 20
18.37691649148965
 30
0.0
 11
41.12997672952004
 21
18.37691649148965
 31
0.0
  0
LINE
  5
219
330
1E
100
AcDbEntity
  8
HIDDEN
100
AcDbLine
 10
48.53597672952003
 20
17.81491649148965
 30
0.0
 11
48.53597672952003
 21
10.09591649148965
 31
0.0
  0
LINE
  5
21A
330
1E
100
AcDbEntity
  8
OBJECT
100
AcDbLine
 10
48.53597672952003
 20
10.09591649148965
 30
0.0
 11
48.53597672952003
 21
9.954916491489658
 31
0.0
  0
LINE
  5
21B
330
1E
100
AcDbEntity
  8
HIDDEN
100
AcDbLine
 10
47.97397672952004
 20
9.533916491489659
 30
0.0
 11
41.12997672952004
 21
9.533916491489659
 31
0.0
  0
LINE
  5
21C
330
1E
100
AcDbEntity
  8
OBJECT
100
AcDbLine
 10
40.56797672952003
 20
10.09591649148965
 30
0.0
 11
40.56797672952003
 21
9.954916491489658
 31
0.0
  0
LINE
  5
21D
330
1E
100
AcDbEntity
  8
OBJECT
100
AcDbLine
 10
41.12997672952004
 20
9.533916491489659
 30
0.0
 11
40.98897672952005
 21
9.533916491489659
 31
0.0
  0
LINE
  5
21E
330
1E
100
AcDbEntity
  8
OBJECT
100
AcDbLine
 10
47.80197672952005
 20
10.26791649148966
 30
0.0
 11
41.30197672952003
 21
10.26791649148966
 31
0.0
  0
LINE
  5
21F
330
1E
100
AcDbEntity
  8
OBJECT
100
AcDbLine
 10
47.80197672952005
 20
12.26791649148965
 30
0.0
 11
41.30197672952003
 21
12.26791649148966
 31
0.0
  0
LINE
  5
220
330
1E
100
AcDbEntity
  8
OBJECT
100
AcDbLine
 10
41.30197672952003
 20
12.26791649148965
 30
0.0
 11
41.30197672952003
 21
10.26791649148966
 31
0.0
  0
LINE
  5
221
330
1E
100
AcDbEntity
  8
OBJECT
100
AcDbLine
 10
47.80197672952005
 20
12.26791649148965
 30
0.0
 11
47.80197672952005
 21
10.26791649148966
 31
0.0
  0
LWPOLYLINE
  5
222
330
1E
100
AcDbEntity
  8
OBJECT
100
AcDbPolyline
 90
        4
 70
     1
 43
0.0
 10
7.91416670094016
 20
9.08041649148965
 10
7.998452701975114
 20
9.45541649148965
 10
7.248452701975114
 20
9.45541649148965
 10
7.332738703010054
 20
9.08041649148965
  0
LWPOLYLINE
  5
228
330
1E
100
AcDbEntity
  8
OBJECT
100
AcDbPolyline
 90
        4
 70
     1
 43
0.0
 10
13.77345270197512
 20
9.45541649148965
 10
13.85773870301007
 20
9.08041649148965
 10
14.43916670094016
 20
9.08041649148965
 10
14.52345270197512
 20
9.45541649148965
  0
LWPOLYLINE
  5
22E
330
1E
100
AcDbEntity
  8
OBJECT
100
AcDbPolyline
 90
        4
 70
     0
 43
0.0
 10
20.33777253206893
 20
9.45541649148965
 10
20.42205853310388
 20
9.08041649148965
 10
21.00348653103398
 20
9.08041649148965
 10
21.08777253206893
 20
9.45541649148965
  0
LWPOLYLINE
  5
234
330
1E
100
AcDbEntity
  8
OBJECT
100
AcDbPolyline
 90
        4
 70
     0
 43
0.0
 10
32.83777253206894
 20
9.45541649148965
 10
32.92205853310389
 20
9.08041649148965
 10
33.50348653103398
 20
9.08041649148965
 10
33.58777253206894
 20
9.45541649148965
  0
LWPOLYLINE
  5
23A
330
1E
100
AcDbEntity
  8
OBJECT
100
AcDbPolyline
 90
        4
 70
     1
 43
0.0
 10
47.43947672952003
 20
9.45541649148965
 10
47.52376273055499
 20
9.08041649148965
 10
48.1051907284851
 20
9.08041649148965
 10
48.18947672952003
 20
9.45541649148965
  0
LWPOLYLINE
  5
240
330
1E
100
AcDbEntity
  8
OBJECT
100
AcDbPolyline
 90
        4
 70
     1
 43
0.0
 10
41.58019072848508
 20
9.08041649148965
 10
41.66447672952003
 20
9.45541649148965
 10
40.91447672952003
 20
9.45541649148965
 10
40.99876273055499
 20
9.08041649148965
  0
LWPOLYLINE
  5
246
330
1E
100
AcDbEntity
  8
OBJECT
100
AcDbPolyline
 90
        4
 70
     1
 43
0.0
 10
30.32927253206894
 20
15.70541649148965
 10
32.95427253206894
 20
15.70541649148965
 42
0.4142135623730944
 10
32.54802253206894
 20
16.11166649148965
 10
30.73552253206893
 20
16.11166649148965
 42
0.4142135623730944
  0
LWPOLYLINE
  5
24C
330
1E
100
AcDbEntity
  8
OBJECT
100
AcDbPolyline
 90
        4
 70
     1
 43
0.0
 10
30.32927253206894
 20
14.92416649148965
 10
32.95427253206894
 20
14.92416649148966
 42
0.4142135623730944
 10
32.54802253206894
 20
15.33041649148965
 10
30.73552253206893
 20
15.33041649148965
 42
0.4142135623730944
  0
LWPOLYLINE
  5
252
330
1E
100
AcDbEntity
  8
OBJECT
100
AcDbPolyline
 90
        4
 70
     1
 43
0.0
 10
30.32927253206894
 20
14.14291649148965
 10
32.95427253206894
 20
14.14291649148966
 42
0.4142135623730944
 10
32.54802253206894
 20
14.54916649148965
 10
30.73552253206893
 20
14.54916649148965
 42
0.4142135623730944
  0
LWPOLYLINE
  5
258
330
1E
100
AcDbEntity
  8
OBJECT
100
AcDbPolyline
 90
        4
 70
     1
 43
0.0
 10
30.32927253206894
 20
13.36166649148965
 10
32.95427253206894
 20
13.36166649148966
 42
0.4142135623730944
 10
32.54802253206894
 20
13.76791649148965
 10
30.73552253206893
 20
13.76791649148965
 42
0.4142135623730944
  0
LWPOLYLINE
  5
25E
330
1E
100
AcDbEntity
  8
OBJECT
100
AcDbPolyline
 90
        4
 70
     1
 43
0.0
 10
30.32927253206894
 20
12.58041649148965
 10
32.95427253206894
 20
12.58041649148966
 42
0.4142135623730944
 10
32.54802253206894
 20
12.98666649148965
 10
30.73552253206893
 20
12.98666649148965
 42
0.4142135623730944
  0
LWPOLYLINE
  5
264
330
1E
100
AcDbEntity
  8
OBJECT
100
AcDbPolyline
 90
        4
 70
     1
 43
0.0
 10
30.32927253206894
 20
11.79916649148965
 10
32.95427253206894
 20
11.79916649148965
 42
0.4142135623730944
 10
32.54802253206894
 20
12.20541649148965
 10
30.73552253206893
 20
12.20541649148965
 42
0.4142135623730944
  0
LWPOLYLINE
  5
26A
330
1E
100
AcDbEntity
  8
OBJECT
100
AcDbPolyline
 90
        4
 70
     1
 43
0.0
 10
25.70427253206894
 20
11.79916649148965
 10
28.32927253206893
 20
11.79916649148965
 42
0.4142135623730944
 10
27.92302253206893
 20
12.20541649148965
 10
26.11052253206894
 20
12.20541649148965
 42
0.4142135623730944
  0
LWPOLYLINE
  5
270
330
1E
100
AcDbEntity
  8
OBJECT
100
AcDbPolyline
 90
        4
 70
     1
 43
0.0
 10
25.70427253206894
 20
12.58041649148965
 10
28.32927253206893
 20
12.58041649148965
 42
0.4142135623730944
 10
27.92302253206893
 20
12.98666649148965
 10
26.11052253206894
 20
12.98666649148965
 42
0.4142135623730944
  0
LWPOLYLINE
  5
276
330
1E
100
AcDbEntity
  8
OBJECT
100
AcDbPolyline
 90
        4
 70
     1
 43
0.0
 10
25.70427253206894
 20
13.36166649148965
 10
28.32927253206893
 20
13.36166649148965
 42
0.4142135623730944
 10
27.92302253206893
 20
13.76791649148965
 10
26.11052253206894
 20
13.76791649148965
 42
0.4142135623730944
  0
LWPOLYLINE
  5
27C
330
1E
100
AcDbEntity
  8
OBJECT
100
AcDbPolyline
 90
        4
 70
     1
 43
0.0
 10
25.70427253206894
 20
14.14291649148965
 10
28.32927253206893
 20
14.14291649148965
 42
0.4142135623730944
 10
27.92302253206893
 20
14.54916649148965
 10
26.11052253206894
 20
14.54916649148965
 42
0.4142135623730944
  0
LWPOLYLINE
  5
282
330
1E
100
AcDbEntity
  8
OBJECT
100
AcDbPolyline
 90
        4
 70
     1
 43
0.0
 10
25.70427253206894
 20
14.92416649148965
 10
28.32927253206893
 20
14.92416649148965
 42
0.4142135623730944
 10
27.92302253206893
 20
15.33041649148965
 10
26.11052253206894
 20
15.33041649148965
 42
0.4142135623730944
  0
LWPOLYLINE
  5
288
330
1E
100
AcDbEntity
  8
OBJECT
100
AcDbPolyline
 90
        4
 70
     1
 43
0.0
 10
25.70427253206894
 20
15.70541649148965
 10
28.32927253206893
 20
15.70541649148965
 42
0.4142135623730944
 10
27.92302253206893
 20
16.11166649148965
 10
26.11052253206894
 20
16.11166649148965
 42
0.4142135623730944
  0
LWPOLYLINE
  5
28E
330
1E
100
AcDbEntity
  8
OBJECT
100
AcDbPolyline
 90
        4
 70
     1
 43
0.0
 10
21.07927253206893
 20
11.79916649148965
 10
23.70427253206893
 20
11.79916649148965
 42
0.4142135623730944
 10
23.29802253206894
 20
12.20541649148965
 10
21.48552253206893
 20
12.20541649148965
 42
0.4142135623730944
  0
LWPOLYLINE
  5
294
330
1E
100
AcDbEntity
  8
OBJECT
100
AcDbPolyline
 90
        4
 70
     1
 43
0.0
 10
21.07927253206893
 20
12.58041649148965
 10
23.70427253206893
 20
12.58041649148965
 42
0.4142135623730944
 10
23.29802253206894
 20
12.98666649148965
 10
21.48552253206893
 20
12.98666649148965
 42
0.4142135623730944
  0
LWPOLYLINE
  5
29A
330
1E
100
AcDbEntity
  8
OBJECT
100
AcDbPolyline
 90
        4
 70
     1
 43
0.0
 10
21.07927253206893
 20
13.36166649148965
 10
23.70427253206893
 20
13.36166649148965
 42
0.4142135623730944
 10
23.29802253206894
 20
13.76791649148965
 10
21.48552253206893
 20
13.76791649148965
 42
0.4142135623730944
  0
LWPOLYLINE
  5
2A0
330
1E
100
AcDbEntity
  8
OBJECT
100
AcDbPolyline
 90
        4
 70
     1
 43
0.0
 10
21.07927253206893
 20
14.14291649148965
 10
23.70427253206893
 20
14.14291649148965
 42
0.4142135623730944
 10
23.29802253206894
 20
14.54916649148965
 10
21.48552253206893
 20
14.54916649148965
 42
0.4142135623730944
  0
LWPOLYLINE
  5
2A6
330
1E
100
AcDbEntity
  8
OBJECT
100
AcDbPolyline
 90
        4
 70
     1
 43
0.0
 10
21.07927253206893
 20
14.92416649148965
 10
23.70427253206893
 20
14.92416649148965
 42
0.4142135623730944
 10
23.29802253206894
 20
15.33041649148965
 10
21.48552253206893
 20
15.33041649148965
 42
0.4142135623730944
  0
LWPOLYLINE
  5
2AC
330
1E
100
AcDbEntity
  8
OBJECT
100
AcDbPolyline
 90
        4
 70
     1
 43
0.0
 10
21.07927253206893
 20
15.70541649148965
 10
23.70427253206893
 20
15.70541649148965
 42
0.4142135623730944
 10
23.29802253206894
 20
16.11166649148965
 10
21.48552253206893
 20
16.11166649148965
 42
0.4142135623730944
  0
LWPOLYLINE
  5
2B2
330
1E
100
AcDbEntity
  8
HIDDEN
100
AcDbPolyline
 90
        4
 70
     0
 43
0.0
 10
21.07927253206893
 20
24.13080791183747
 42
-0.3306340946736157
 10
21.2969891306859
 20
24.31880791183747
 10
23.48655593345196
 20
24.31880791183747
 42
-0.3306340946736157
 10
23.70427253206893
 20
24.13080791183747
  0
LWPOLYLINE
  5
2B8
330
1E
100
AcDbEntity
  8
HIDDEN
100
AcDbPolyline
 90
        4
 70
     0
 43
0.0
 10
21.07927253206893
 20
32.15580791183747
 42
0.3306340946736157
 10
21.2969891306859
 20
31.96780791183747
 10
23.48655593345196
 20
31.96780791183747
 42
0.3306340946736157
 10
23.70427253206893
 20
32.15580791183747
  0
LWPOLYLINE
  5
2BE
330
1E
100
AcDbEntity
  8
HIDDEN
100
AcDbPolyline
 90
        4
 70
     0
 43
0.0
 10
25.70427253206894
 20
24.13080791183748
 42
-0.3306340946736157
 10
25.9219891306859
 20
24.31880791183748
 10
28.11155593345196
 20
24.31880791183748
 42
-0.3306340946736157
 10
28.32927253206893
 20
24.13080791183748
  0
LWPOLYLINE
  5
2C4
330
1E
100
AcDbEntity
  8
HIDDEN
100
AcDbPolyline
 90
        4
 70
     0
 43
0.0
 10
30.32927253206894
 20
24.13080791183748
 42
-0.3306340946736157
 10
30.54698913068591
 20
24.31880791183748
 10
32.73655593345196
 20
24.31880791183748
 42
-0.3306340946736157
 10
32.95427253206895
 20
24.13080791183748
  0
LWPOLYLINE
  5
2CA
330
1E
100
AcDbEntity
  8
HIDDEN
100
AcDbPolyline
 90
        4
 70
     0
 43
0.0
 10
25.70427253206894
 20
32.15580791183748
 42
0.3306340946736157
 10
25.9219891306859
 20
31.96780791183748
 10
28.11155593345196
 20
31.96780791183748
 42
0.3306340946736157
 10
28.32927253206893
 20
32.15580791183748
  0
LWPOLYLINE
  5
2D0
330
1E
100
AcDbEntity
  8
HIDDEN
100
AcDbPolyline
 90
        4
 70
     0
 43
0.0
 10
30.32927253206894
 20
32.15580791183748
 42
0.3306340946736157
 10
30.54698913068591
 20
31.96780791183748
 10
32.73655593345196
 20
31.96780791183748
 42
0.3306340946736157
 10
32.95427253206895
 20
32.15580791183748
  0
DIMENSION
  5
2D6
330
1E
100
AcDbEntity
  8
DIM
100
AcDbDimension
  2
*D1
 10
19.51677253206893
 20
19.43059611959821
 30
0.0
 11
17.36755378206893
 21
19.43059611959821
 31
0.0
 70
    32
 71
     5
 42
0.5
  3
23NSTD
100
AcDbAlignedDimension
 13
20.01677253206894
 23
18.35541649148965
 33
0.0
 14
19.51677253206893
 24
18.40541649148965
 34
0.0
100
AcDbRotatedDimension
  0
DIMENSION
  5
2D7
330
1E
100
AcDbEntity
  8
DIM
100
AcDbDimension
  2
*D14
 10
32.95427253206894
 20
20.06409611959821
 30
0.0
 11
33.73552253206894
 21
20.06409611959821
 31
0.0
 70
    32
  1
J
 71
     5
 42
1.5625
  3
23NSTDI
100
AcDbAlignedDimension
 13
34.51677253206894
 23
18.45541649148965
 33
0.0
 14
32.95427253206894
 24
15.70541649148965
 34
0.0
100
AcDbRotatedDimension
  0
DIMENSION
  5
2D8
330
1E
100
AcDbEntity
  8
DIM
100
AcDbDimension
  2
*D15
 10
30.32927253206894
 20
21.04759611959821
 30
0.0
 11
31.64177253206894
 21
21.04759611959821
 31
0.0
 70
    32
 71
     5
 42
2.625000000000003
  3
23NSTDI
100
AcDbAlignedDimension
 13
32.95427253206894
 23
15.70541649148965
 33
0.0
 14
30.32927253206894
 24
15.70541649148965
 34
0.0
100
AcDbRotatedDimension
  0
DIMENSION
  5
2D9
330
1E
100
AcDbEntity
  8
DIM
100
AcDbDimension
  2
*D2
 10
28.32927253206893
 20
19.43059611959821
 30
0.0
 11
25.46911628206894
 21
19.43059611959821
 31
0.0
 70
    32
  1
<> TYP.
 71
     5
 42
2.0
  3
23NSTD
100
AcDbAlignedDimension
 13
30.32927253206894
 23
15.70541649148965
 33
0.0
 14
28.32927253206893
 24
15.70541649148965
 34
0.0
100
AcDbRotatedDimension
  0
DIMENSION
  5
2DA
330
1E
100
AcDbEntity
  8
DIM
100
AcDbDimension
  2
*D3
 10
35.79281303847546
 20
16.11166649148965
 30
0.0
 11
35.79281303847545
 21
13.95541649148966
 31
0.0
 70
    32
 71
     5
 42
4.312500000000003
  3
23NSTD
100
AcDbAlignedDimension
 13
32.95427253206894
 23
11.79916649148965
 33
0.0
 14
32.54802253206894
 24
16.11166649148965
 34
0.0
 50
90.0
100
AcDbRotatedDimension
  0
DIMENSION
  5
2DB
330
1E
100
AcDbEntity
  8
DIM
100
AcDbDimension
  2
*D16
 10
35.79281303847546
 20
18.45541649148965
 30
0.0
 11
35.79281303847545
 21
17.28354149148966
 31
0.0
 70
    32
  1
K
 71
     5
 42
2.343749999999996
  3
23NSTDI
100
AcDbAlignedDimension
 13
32.54802253206894
 23
16.11166649148965
 33
0.0
 14
34.51677253206894
 24
18.45541649148965
 34
0.0
 50
90.0
100
AcDbRotatedDimension
  0
DIMENSION
  5
2DC
330
1E
100
AcDbEntity
  8
DIM
100
AcDbDimension
  2
*D4
 10
47.80197672952005
 20
8.435433200266086
 30
0.0
 11
44.55197672952004
 21
8.435433200266086
 31
0.0
 70
    32
  1
H
 71
     5
 42
6.500000000000014
  3
23NSTD
100
AcDbAlignedDimension
 13
41.30197672952003
 23
10.26791649148966
 33
0.0
 14
47.80197672952005
 24
10.26791649148966
 34
0.0
100
AcDbRotatedDimension
  0
DIMENSION
  5
2DD
330
1E
100
AcDbEntity
  8
DIM
100
AcDbDimension
  2
*D5
 10
48.53597672952003
 20
8.435433200266086
 30
0.0
 11
50.73988297952003
 21
8.435433200266086
 31
0.0
 70
    32
 71
     5
 42
0.7339999999999805
  3
23NSTD
100
AcDbAlignedDimension
 13
47.80197672952005
 23
10.26791649148966
 33
0.0
 14
48.53597672952003
 24
10.09591649148965
 34
0.0
100
AcDbRotatedDimension
  0
DIMENSION
  5
2DE
330
1E
100
AcDbEntity
  8
DIM
100
AcDbDimension
  2
*D17
 10
37.88556974645706
 20
10.26791649148966
 30
0.0
 11
37.88556974645706
 21
11.26791649148966
 31
0.0
 70
    32
 71
     5
 42
1.999999999999992
  3
23NSTDI
100
AcDbAlignedDimension
 13
41.30197672952003
 23
12.26791649148965
 33
0.0
 14
41.30197672952003
 24
10.26791649148966
 34
0.0
 50
90.0
100
AcDbRotatedDimension
  0
DIMENSION
  5
2DF
330
1E
100
AcDbEntity
  8
DIM
100
AcDbDimension
  2
*D18
 10
39.21906974645706
 20
9.533916491489659
 30
0.0
 11
39.21906974645706
 21
9.900916491489667
 31
0.0
 70
    32
 71
     5
 42
0.7340000000000018
  3
23NSTDI
100
AcDbAlignedDimension
 13
41.30197672952003
 23
10.26791649148966
 33
0.0
 14
40.98897672952005
 24
9.533916491489659
 34
0.0
 50
90.0
100
AcDbRotatedDimension
  0
DIMENSION
  5
2E0
330
1E
100
AcDbEntity
  8
DIM
100
AcDbDimension
  2
*D6
 10
14.81564020197511
 20
13.00247303074212
 30
0.0
 11
10.88595270197511
 21
13.00247303074212
 31
0.0
 70
    32
  1
F
 71
     5
 42
7.859374999999992
  3
23NSTD
100
AcDbAlignedDimension
 13
6.956265201975117
 23
12.65716986958398
 33
0.0
 14
14.81564020197511
 24
12.65716986958399
 34
0.0
100
AcDbRotatedDimension
  0
DIMENSION
  5
2E1
330
1E
100
AcDbEntity
  8
DIM
100
AcDbDimension
  2
*D7
 10
12.17872152493179
 20
18.32260399148965
 30
0.0
 11
12.17872152493178
 21
13.95541649148966
 31
0.0
 70
    32
  1
G
 71
     5
 42
8.734375
  3
23NSTD
100
AcDbAlignedDimension
 13
12.60541910494524
 23
9.588228991489657
 33
0.0
 14
12.60541910494525
 24
18.32260399148965
 34
0.0
 50
90.0
100
AcDbRotatedDimension
  0
DIMENSION
  5
2E2
330
1E
100
AcDbEntity
  8
DIM
100
AcDbDimension
  2
*D8
 10
14.81564020197513
 20
7.990123326269849
 30
0.0
 11
16.96485895197513
 21
7.990123326269849
 31
0.0
 70
    32
 71
     5
 42
0.1875000000000142
  3
23NSTD
100
AcDbAlignedDimension
 13
14.62814020197511
 23
10.58822899148964
 33
0.0
 14
14.81564020197513
 24
9.994478991489646
 34
0.0
 50
180.0
100
AcDbRotatedDimension
  0
DIMENSION
  5
2E3
330
1E
100
AcDbEntity
  8
DIM
100
AcDbDimension
  2
*D9
 10
6.956265201975117
 20
7.990123326269849
 30
0.0
 11
4.752358951975118
 21
7.990123326269849
 31
0.0
 70
    32
 71
     5
 42
0.3861874999999983
  3
23NSTD
100
AcDbAlignedDimension
 13
7.342452701975116
 23
10.09591649148965
 33
0.0
 14
6.956265201975117
 24
9.994478991489661
 34
0.0
 50
180.0
100
AcDbRotatedDimension
  0
DIMENSION
  5
2E4
330
1E
100
AcDbEntity
  8
DIM
100
AcDbDimension
  2
*D19
 10
5.755291499752129
 20
9.58822899148965
 30
0.0
 11
5.755291499752128
 21
10.08822899148964
 31
0.0
 70
    32
 71
     5
 42
0.9999999999999928
  3
23NSTDI
100
AcDbAlignedDimension
 13
7.143765201975103
 23
10.58822899148964
 33
0.0
 14
7.362515201975117
 24
9.58822899148965
 34
0.0
 50
90.0
100
AcDbRotatedDimension
  0
LINE
  5
2E5
330
1E
100
AcDbEntity
  8
HIDDEN
100
AcDbLine
 10
14.89845270197511
 20
10.14591649148965
 30
0.0
 11
14.89845270197511
 21
17.76491649148965
 31
0.0
  0
LINE
  5
2E6
330
1E
100
AcDbEntity
  8
OBJECT
100
AcDbLine
 10
14.89845270197511
 20
17.81491649148965
 30
0.0
 11
14.89845270197511
 21
17.95541649148965
 31
0.0
  0
LINE
  5
2E7
330
1E
100
AcDbEntity
  8
HIDDEN
100
AcDbLine
 10
14.25795270197511
 20
18.40541649148965
 30
0.0
 11
7.513952701975114
 21
18.40541649148965
 31
0.0
  0
LINE
  5
2E8
330
1E
100
AcDbEntity
  8
OBJECT
100
AcDbLine
 10
6.873452701975111
 20
10.09591649148964
 30
0.0
 11
6.873452701975111
 21
9.95541649148965
 31
0.0
  0
LINE
  5
2E9
330
1E
100
AcDbEntity
  8
HIDDEN
100
AcDbLine
 10
6.873452701975111
 20
17.76491649148965
 30
0.0
 11
6.873452701975111
 21
10.14591649148965
 31
0.0
  0
LINE
  5
2EA
330
1E
100
AcDbEntity
  8
OBJECT
100
AcDbLine
 10
7.463952701975117
 20
18.40541649148965
 30
0.0
 11
7.323452701975114
 21
18.40541649148965
 31
0.0
  0
LINE
  5
2EC
330
1E
100
AcDbEntity
  8
OBJECT
100
AcDbLine
 10
14.30795270197511
 20
9.505416491489654
 30
0.0
 11
14.44845270197511
 21
9.505416491489654
 31
0.0
  0
LINE
  5
2ED
330
1E
100
AcDbEntity
  8
OBJECT
100
AcDbLine
 10
7.463952701975117
 20
9.555416491489655
 30
0.0
 11
8.823452701975099
 21
9.555416491489655
 31
0.0
  0
LINE
  5
2EE
330
1E
100
AcDbEntity
  8
HIDDEN
100
AcDbLine
 10
7.513952701975114
 20
9.505416491489654
 30
0.0
 11
8.823452701975099
 21
9.505416491489652
 31
0.0
  0
DIMENSION
  5
2F0
330
1E
100
AcDbEntity
  8
DIM
100
AcDbDimension
  2
*D10
 10
14.84845270197512
 20
19.56189955042502
 30
0.0
 11
10.88595270197512
 21
19.56189955042502
 31
0.0
 70
    32
  1
D
 71
     5
 42
7.925000000000004
  3
23NSTD
100
AcDbAlignedDimension
 13
6.923452701975119
 23
17.81491649148965
 33
0.0
 14
14.84845270197512
 24
17.81491649148965
 34
0.0
 50
180.0
100
AcDbRotatedDimension
  0
DIMENSION
  5
2F1
330
1E
100
AcDbEntity
  8
DIM
100
AcDbDimension
  2
*D11
 10
14.94845270197511
 20
20.54539955042502
 30
0.0
 11
10.88595270197511
 21
20.54539955042502
 31
0.0
 70
    32
  1
B
 71
     5
 42
8.125
  3
23NSTD
100
AcDbAlignedDimension
 13
6.823452701975117
 23
17.95541649148965
 33
0.0
 14
14.94845270197511
 24
17.95541649148965
 34
0.0
 50
180.0
100
AcDbRotatedDimension
  0
DIMENSION
  5
2F2
330
1E
100
AcDbEntity
  8
DIM
100
AcDbDimension
  2
*D12
 10
16.04850893000919
 20
18.35541649148965
 30
0.0
 11
16.04850893000919
 21
13.95541649148966
 31
0.0
 70
    32
  1
E
 71
     5
 42
8.8
  3
23NSTD
100
AcDbAlignedDimension
 13
14.30795270197511
 23
9.555416491489655
 33
0.0
 14
14.30795270197513
 24
18.35541649148965
 34
0.0
 50
90.0
100
AcDbRotatedDimension
  0
DIMENSION
  5
2F3
330
1E
100
AcDbEntity
  8
DIM
100
AcDbDimension
  2
*D20
 10
5.755291499752129
 20
18.32260399148964
 30
0.0
 11
5.755291499752125
 21
17.82260399148964
 31
0.0
 70
    32
 71
     5
 42
0.9999999999999928
  3
23NSTDI
100
AcDbAlignedDimension
 13
7.143765201975103
 23
17.32260399148965
 33
0.0
 14
7.362515201975117
 24
18.32260399148964
 34
0.0
 50
90.0
100
AcDbRotatedDimension
  0
LWPOLYLINE
  5
2F4
330
1E
100
AcDbEntity
  8
HIDDEN
100
AcDbPolyline
 90
        4
 70
     0
 43
0.0
 10
30.58646808257905
 20
18.45541649148965
 10
30.26008723328877
 20
18.26741649148965
 10
23.77396808257903
 20
18.26741649148965
 10
23.46146808257903
 20
18.45541649148965
  0
LWPOLYLINE
  5
2FA
330
1E
100
AcDbEntity
  8
HIDDEN
100
AcDbPolyline
 90
        4
 70
     0
 43
0.0
 10
11.82345270197511
 20
18.45541649148965
 10
11.35470270197511
 20
18.26741649148965
 10
10.41720270197511
 20
18.26741649148965
 10
9.948452701975117
 20
18.45541649148965
  0
LWPOLYLINE
  5
300
330
1E
100
AcDbEntity
  8
HIDDEN
100
AcDbPolyline
 90
        4
 70
     0
 43
0.0
 10
11.83310565659518
 20
18.40541649148965
 10
11.36435565659517
 20
18.21741649148965
 10
10.40754974735505
 20
18.21741649148965
 10
9.938799747355066
 20
18.40541649148965
  0
LWPOLYLINE
  5
306
330
1E
100
AcDbEntity
  8
HIDDEN
100
AcDbPolyline
 90
        4
 70
     0
 43
0.0
 10
30.59983868013938
 20
18.40541649148966
 10
30.27345783084909
 20
18.21741649148965
 10
23.76008723328878
 20
18.21741649148965
 10
23.44758723328877
 20
18.40541649148965
  0
LWPOLYLINE
  5
30C
330
1E
100
AcDbEntity
  8
OBJECT
100
AcDbPolyline
 90
        8
 70
     1
 43
0.0
 10
23.45427253206894
 20
27.64280791183748
 10
23.45427253206894
 20
28.64380791183748
 42
-0.4142135623730951
 10
23.89127253206893
 20
29.08080791183747
 10
30.14227253206895
 20
29.08080791183748
 42
-0.4142135623730951
 10
30.57927253206895
 20
28.64380791183748
 10
30.57927253206895
 20
27.64280791183749
 42
-0.4142135623730945
 10
30.14227253206895
 20
27.20580791183748
 10
23.89127253206893
 20
27.20580791183747
 42
-0.4142135623730951
  0
LWPOLYLINE
  5
316
330
1E
100
AcDbEntity
  8
OBJECT
100
AcDbPolyline
 90
        8
 70
     1
 43
0.0
 10
23.76677253206894
 20
27.86255791183747
 10
23.76677253206894
 20
28.42405791183749
 42
-0.4142135623730951
 10
23.95477253206893
 20
28.61205791183748
 10
30.07877253206895
 20
28.61205791183747
 42
-0.414213562373095
 10
30.26677253206895
 20
28.42405791183748
 10
30.26677253206895
 20
27.86255791183747
 42
-0.4142135623730951
 10
30.07877253206895
 20
27.67455791183748
 10
23.95477253206893
 20
27.67455791183747
 42
-0.4142135623730951
  0
LWPOLYLINE
  5
320
330
1E
100
AcDbEntity
  8
HIDDEN
100
AcDbPolyline
 90
        4
 70
     0
 43
0.0
 10
45.4991296841401
 20
18.40541649148966
 10
45.0303796841401
 20
18.21741649148966
 10
44.07357377489996
 20
18.21741649148966
 10
43.60482377489998
 20
18.40541649148966
  0
LWPOLYLINE
  5
326
330
1E
100
AcDbEntity
  8
HIDDEN
100
AcDbPolyline
 90
        4
 70
     0
 43
0.0
 10
45.48947672952003
 20
18.45541649148966
 10
45.02072672952003
 20
18.26741649148966
 10
44.08322672952003
 20
18.26741649148966
 10
43.61447672952003
 20
18.45541649148966
  0
TEXT
  5
32C
330
1E
100
AcDbEntity
  8
TEXT
100
AcDbText
 10
9.500711084722361
 20
30.54052518960632
 30
0.0
 40
0.4375000000000001
  1
0.060 THK. ALUMINUM
 41
0.75
100
AcDbText
  0
TEXT
  5
32D
330
1E
100
AcDbEntity
  8
TEXT
100
AcDbText
 10
9.500711084722361
 20
31.26969185627297
 30
0.0
 40
0.4375000000000001
  1
0.050 THK. ALUMINUM
 41
0.75
100
AcDbText
  0
LINE
  5
32E
330
1E
100
AcDbEntity
  8
TEXT
100
AcDbLine
 10
9.304603377240489
 20
31.29322384335468
 30
0.0
 11
6.419117392188645
 21
31.29322384335468
 31
0.0
  0
LINE
  5
32F
330
1E
100
AcDbEntity
  8
TEXT
100
AcDbLine
 10
9.304603377240489
 20
30.54052518960632
 30
0.0
 11
5.95815784335398
 21
30.54052518960632
 31
0.0
  0
LWPOLYLINE
  5
330
330
1E
100
AcDbEntity
  8
OBJECT
100
AcDbPolyline
 90
        4
 70
     1
 43
0.0
 10
24.75114753206893
 20
28.58080791183747
 10
23.87614753206893
 20
28.58080791183747
 10
23.87614753206893
 20
27.70580791183747
 10
24.75114753206893
 20
27.70580791183747
  0
LWPOLYLINE
  5
336
330
1E
100
AcDbEntity
  8
OBJECT
100
AcDbPolyline
 90
        4
 70
     1
 43
0.0
 10
29.28239753206893
 20
28.58080791183747
 10
30.15739753206894
 20
28.58080791183747
 10
30.15739753206894
 20
27.70580791183747
 10
29.28239753206893
 20
27.70580791183747
  0
LWPOLYLINE
  5
33C
330
1E
100
AcDbEntity
  8
OBJECT
100
AcDbPolyline
 90
        4
 70
     0
 43
0.0
 10
10.44845270197511
 20
18.45541649148965
 10
10.44845270197511
 20
18.51741649148965
 10
11.32345270197511
 20
18.51741649148965
 10
11.32345270197511
 20
18.45541649148965
  0
LWPOLYLINE
  5
342
330
1E
100
AcDbEntity
  8
OBJECT
100
AcDbPolyline
 90
        4
 70
     0
 43
0.0
 10
23.87614753206892
 20
18.45541649148965
 10
23.87614753206892
 20
18.51741649148965
 10
24.75114753206893
 20
18.51741649148965
 10
24.75114753206893
 20
18.45541649148965
  0
LWPOLYLINE
  5
348
330
1E
100
AcDbEntity
  8
OBJECT
100
AcDbPolyline
 90
        4
 70
     0
 43
0.0
 10
29.28239753206892
 20
18.45541649148965
 10
29.28239753206892
 20
18.51741649148965
 10
30.15739753206892
 20
18.51741649148965
 10
30.15739753206892
 20
18.45541649148965
  0
LWPOLYLINE
  5
34E
330
1E
100
AcDbEntity
  8
OBJECT
100
AcDbPolyline
 90
        4
 70
     0
 43
0.0
 10
44.11447672952003
 20
18.45541649148965
 10
44.11447672952003
 20
18.51741649148965
 10
44.98947672952003
 20
18.51741649148965
 10
44.98947672952003
 20
18.45541649148965
  0
DIMENSION
  5
355
330
1E
100
AcDbEntity
  8
DIM
100
AcDbDimension
  2
*D13
 10
18.27601373081652
 20
18.45541649148965
 30
0.0
 11
18.27601373081651
 21
13.95541649148965
 31
0.0
 70
    32
  1
A
 71
     5
 42
9.0
  3
23NSTD
100
AcDbAlignedDimension
 13
19.56677253206893
 23
9.455416491489653
 33
0.0
 14
19.56677253206893
 24
18.45541649148965
 34
0.0
 50
90.0
100
AcDbRotatedDimension
  0
LINE
  5
357
330
1E
100
AcDbEntity
  8
TITLE
100
AcDbLine
 10
0.2170000000000041
 20
0.9461666666666712
 30
0.0
 11
54.03299999999998
 21
0.9461666666666712
 31
0.0
  0
LINE
  5
358
330
1E
100
AcDbEntity
  8
TITLE
100
AcDbLine
 10
0.2170000000000041
 20
1.675333333333338
 30
0.0
 11
54.03299999999998
 21
1.675333333333338
 31
0.0
  0
LINE
  5
359
330
1E
100
AcDbEntity
  8
TITLE
100
AcDbLine
 10
0.2170000000000041
 20
2.404500000000004
 30
0.0
 11
54.03299999999998
 21
2.404500000000004
 31
0.0
  0
LINE
  5
35A
330
1E
100
AcDbEntity
  8
TITLE
100
AcDbLine
 10
0.2170000000000041
 20
3.133666666666671
 30
0.0
 11
54.03299999999998
 21
3.133666666666671
 31
0.0
  0
LINE
  5
35B
330
1E
100
AcDbEntity
  8
TITLE
100
AcDbLine
 10
4.352999999999985
 20
4.592000000000004
 30
0.0
 11
49.89299999999999
 21
4.592000000000004
 31
0.0
  0
LINE
  5
35C
330
1E
100
AcDbEntity
  8
TITLE
100
AcDbLine
 10
0.2170000000000041
 20
5.321166666666671
 30
0.0
 11
54.03299999999998
 21
5.321166666666671
 31
0.0
  0
LINE
  5
35D
330
1E
100
AcDbEntity
  8
TITLE
100
AcDbLine
 10
49.89299999999999
 20
5.321166666666671
 30
0.0
 11
49.89299999999997
 21
0.2170000000000041
 31
0.0
  0
LINE
  5
35E
330
1E
100
AcDbEntity
  8
TITLE
100
AcDbLine
 10
45.75299999999997
 20
4.592000000000004
 30
0.0
 11
45.75299999999997
 21
0.2170000000000041
 31
0.0
  0
LINE
  5
35F
330
1E
100
AcDbEntity
  8
TITLE
100
AcDbLine
 10
41.61299999999998
 20
4.592000000000004
 30
0.0
 11
41.61299999999997
 21
0.2170000000000041
 31
0.0
  0
LINE
  5
360
330
1E
100
AcDbEntity
  8
TITLE
100
AcDbLine
 10
37.47299999999998
 20
5.321166666666671
 30
0.0
 11
37.47299999999997
 21
0.2170000000000041
 31
0.0
  0
LINE
  5
361
330
1E
100
AcDbEntity
  8
TITLE
100
AcDbLine
 10
33.33299999999998
 20
5.321166666666671
 30
0.0
 11
33.33299999999997
 21
0.2170000000000041
 31
0.0
  0
LINE
  5
362
330
1E
100
AcDbEntity
  8
TITLE
100
AcDbLine
 10
29.19299999999998
 20
4.592000000000004
 30
0.0
 11
29.19299999999997
 21
0.2170000000000041
 31
0.0
  0
LINE
  5
363
330
1E
100
AcDbEntity
  8
TITLE
100
AcDbLine
 10
25.05299999999999
 20
5.321166666666671
 30
0.0
 11
25.05299999999997
 21
0.2170000000000041
 31
0.0
  0
LINE
  5
364
330
1E
100
AcDbEntity
  8
TITLE
100
AcDbLine
 10
20.91299999999998
 20
4.592000000000004
 30
0.0
 11
20.91299999999997
 21
0.2170000000000041
 31
0.0
  0
LINE
  5
365
330
1E
100
AcDbEntity
  8
TITLE
100
AcDbLine
 10
16.77299999999998
 20
5.321166666666671
 30
0.0
 11
16.77299999999997
 21
0.2170000000000041
 31
0.0
  0
LINE
  5
366
330
1E
100
AcDbEntity
  8
TITLE
100
AcDbLine
 10
12.63299999999998
 20
4.592000000000004
 30
0.0
 11
12.63299999999997
 21
0.2170000000000041
 31
0.0
  0
LINE
  5
367
330
1E
100
AcDbEntity
  8
TITLE
100
AcDbLine
 10
8.492999999999986
 20
4.592000000000004
 30
0.0
 11
8.492999999999973
 21
0.2170000000000041
 31
0.0
  0
LINE
  5
368
330
1E
100
AcDbEntity
  8
TITLE
100
AcDbLine
 10
4.352999999999987
 20
5.321166666666671
 30
0.0
 11
4.352999999999973
 21
0.2170000000000041
 31
0.0
  0
TEXT
  5
369
330
1E
100
AcDbEntity
  8
TEXT
100
AcDbText
 10
9.414562499999986
 20
4.737833333333338
 30
0.0
 40
0.4375
  1
OVERALL
 41
0.75
  7
TXT
 72
     4
 11
10.56299999999998
 21
4.956583333333338
 31
0.0
100
AcDbText
  0
TEXT
  5
36A
330
1E
100
AcDbEntity
  8
TEXT
100
AcDbText
 10
10.45362499999998
 20
3.644083333333337
 30
0.0
 40
0.4375
  1
B
 41
0.75
  7
TXT
 72
     4
 11
10.56299999999998
 21
3.862833333333337
 31
0.0
100
AcDbText
  0
TEXT
  5
36B
330
1E
100
AcDbEntity
  8
TEXT
100
AcDbText
 10
9.961437499999988
 20
2.550333333333338
 30
0.0
 40
0.4375
  1
6.125
 41
0.75
  7
TXT
 72
     4
 11
10.56299999999998
 21
2.769083333333338
 31
0.0
100
AcDbText
  0
TEXT
  5
36C
330
1E
100
AcDbEntity
  8
TEXT
100
AcDbText
 10
9.961437499999988
 20
1.821166666666671
 30
0.0
 40
0.4375
  1
8.125
 41
0.75
  7
TXT
 72
     4
 11
10.56299999999998
 21
2.039916666666671
 31
0.0
100
AcDbText
  0
TEXT
  5
36D
330
1E
100
AcDbEntity
  8
TEXT
100
AcDbText
 10
9.879406249999988
 20
1.092000000000004
 30
0.0
 40
0.4375
  1
10.125
 41
0.75
  7
TXT
 72
     4
 11
10.56299999999998
 21
1.310750000000004
 31
0.0
100
AcDbText
  0
TEXT
  5
36E
330
1E
100
AcDbEntity
  8
TEXT
100
AcDbText
 10
9.906749999999988
 20
0.3628333333333384
 30
0.0
 40
0.4375
  1
11.125
 41
0.75
  7
TXT
 72
     4
 11
10.56299999999998
 21
0.5815833333333385
 31
0.0
100
AcDbText
  0
TEXT
  5
370
330
1E
100
AcDbEntity
  8
TEXT
100
AcDbText
 10
6.313624999999987
 20
3.644083333333337
 30
0.0
 40
0.4375
  1
A
 41
0.75
  7
TXT
 72
     4
 11
6.422999999999987
 21
3.862833333333337
 31
0.0
100
AcDbText
  0
TEXT
  5
371
330
1E
100
AcDbEntity
  8
TEXT
100
AcDbText
 10
14.59362499999999
 20
3.644083333333337
 30
0.0
 40
0.4375
  1
C
 41
0.75
  7
TXT
 72
     4
 11
14.70299999999999
 21
3.862833333333337
 31
0.0
100
AcDbText
  0
TEXT
  5
372
330
1E
100
AcDbEntity
  8
TEXT
100
AcDbText
 10
18.73362499999998
 20
3.644083333333337
 30
0.0
 40
0.4375
  1
D
 41
0.75
  7
TXT
 72
     4
 11
18.84299999999998
 21
3.862833333333337
 31
0.0
100
AcDbText
  0
TEXT
  5
373
330
1E
100
AcDbEntity
  8
TEXT
100
AcDbText
 10
22.87362499999998
 20
3.644083333333337
 30
0.0
 40
0.4375
  1
E
 41
0.75
  7
TXT
 72
     4
 11
22.98299999999998
 21
3.862833333333337
 31
0.0
100
AcDbText
  0
TEXT
  5
374
330
1E
100
AcDbEntity
  8
TEXT
100
AcDbText
 10
27.01362499999998
 20
3.644083333333337
 30
0.0
 40
0.4375
  1
F
 41
0.75
  7
TXT
 72
     4
 11
27.12299999999998
 21
3.862833333333337
 31
0.0
100
AcDbText
  0
TEXT
  5
375
330
1E
100
AcDbEntity
  8
TEXT
100
AcDbText
 10
31.15362499999998
 20
3.644083333333337
 30
0.0
 40
0.4375
  1
G
 41
0.75
  7
TXT
 72
     4
 11
31.26299999999998
 21
3.862833333333337
 31
0.0
100
AcDbText
  0
TEXT
  5
376
330
1E
100
AcDbEntity
  8
TEXT
100
AcDbText
 10
35.29362499999998
 20
3.644083333333337
 30
0.0
 40
0.4375
  1
H
 41
0.75
  7
TXT
 72
     4
 11
35.40299999999998
 21
3.862833333333337
 31
0.0
100
AcDbText
  0
TEXT
  5
377
330
1E
100
AcDbEntity
  8
TEXT
100
AcDbText
 10
39.43362499999996
 20
3.644083333333357
 30
0.0
 40
0.4375
  1
J
 41
0.75
  7
TXT
 72
     4
 11
39.54299999999996
 21
3.862833333333357
 31
0.0
100
AcDbText
  0
TEXT
  5
378
330
1E
100
AcDbEntity
  8
TEXT
100
AcDbText
 10
43.57362499999996
 20
3.644083333333357
 30
0.0
 40
0.4375
  1
K
 41
0.75
  7
TXT
 72
     4
 11
43.68299999999996
 21
3.862833333333357
 31
0.0
100
AcDbText
  0
TEXT
  5
379
330
1E
100
AcDbEntity
  8
TEXT
100
AcDbText
 10
1.136562499999996
 20
4.008666666666671
 30
0.0
 40
0.4375
  1
PART No.
 41
0.75
  7
TXT
 72
     4
 11
2.284999999999996
 21
4.227416666666671
 31
0.0
100
AcDbText
  0
TEXT
  5
37A
330
1E
100
AcDbEntity
  8
TEXT
100
AcDbText
 10
1.218593749999996
 20
2.550333333333338
 30
0.0
 40
0.4375
  1
WA-1540
 41
0.75
  7
TXT
 72
     4
 11
2.284999999999996
 21
2.769083333333338
 31
0.0
100
AcDbText
  0
TEXT
  5
37B
330
1E
100
AcDbEntity
  8
TEXT
100
AcDbText
 10
1.245937499999996
 20
1.821166666666671
 30
0.0
 40
0.4375
  1
WA-1541
 41
0.75
  7
TXT
 72
     4
 11
2.284999999999996
 21
2.039916666666671
 31
0.0
100
AcDbText
  0
TEXT
  5
37C
330
1E
100
AcDbEntity
  8
TEXT
100
AcDbText
 10
1.191249999999996
 20
1.092000000000004
 30
0.0
 40
0.4375
  1
WA-1542
 41
0.75
  7
TXT
 72
     4
 11
2.284999999999996
 21
1.310750000000004
 31
0.0
100
AcDbText
  0
TEXT
  5
37D
330
1E
100
AcDbEntity
  8
TEXT
100
AcDbText
 10
1.191249999999996
 20
0.3628333333333385
 30
0.0
 40
0.4375
  1
WA-1543
 41
0.75
  7
TXT
 72
     4
 11
2.284999999999996
 21
0.5815833333333385
 31
0.0
100
AcDbText
  0
TEXT
  5
37F
330
1E
100
AcDbEntity
  8
TEXT
100
AcDbText
 10
5.848781249999987
 20
2.550333333333338
 30
0.0
 40
0.4375
  1
8.000
 41
0.75
  7
TXT
 72
     4
 11
6.422999999999987
 21
2.769083333333338
 31
0.0
100
AcDbText
  0
TEXT
  5
380
330
1E
100
AcDbEntity
  8
TEXT
100
AcDbText
 10
5.848781249999987
 20
1.821166666666671
 30
0.0
 40
0.4375
  1
9.000
 41
0.75
  7
TXT
 72
     4
 11
6.422999999999987
 21
2.039916666666671
 31
0.0
100
AcDbText
  0
TEXT
  5
381
330
1E
100
AcDbEntity
  8
TEXT
100
AcDbText
 10
5.848781249999987
 20
1.092000000000004
 30
0.0
 40
0.4375
  1
8.000
 41
0.75
  7
TXT
 72
     4
 11
6.422999999999987
 21
1.310750000000004
 31
0.0
100
AcDbText
  0
TEXT
  5
382
330
1E
100
AcDbEntity
  8
TEXT
100
AcDbText
 10
5.794093749999987
 20
0.3628333333333384
 30
0.0
 40
0.4375
  1
11.000
 41
0.75
  7
TXT
 72
     4
 11
6.422999999999987
 21
0.5815833333333385
 31
0.0
100
AcDbText
  0
TEXT
  5
384
330
1E
100
AcDbEntity
  8
TEXT
100
AcDbText
 10
14.12878124999998
 20
2.550333333333338
 30
0.0
 40
0.4375
  1
8.000
 41
0.75
  7
TXT
 72
     4
 11
14.70299999999999
 21
2.769083333333338
 31
0.0
100
AcDbText
  0
TEXT
  5
385
330
1E
100
AcDbEntity
  8
TEXT
100
AcDbText
 10
14.01940624999999
 20
1.821166666666671
 30
0.0
 40
0.4375
  1
12.000
 41
0.75
  7
TXT
 72
     4
 11
14.70299999999999
 21
2.039916666666671
 31
0.0
100
AcDbText
  0
TEXT
  5
386
330
1E
100
AcDbEntity
  8
TEXT
100
AcDbText
 10
14.12878124999998
 20
1.092000000000004
 30
0.0
 40
0.4375
  1
8.000
 41
0.75
  7
TXT
 72
     4
 11
14.70299999999999
 21
1.310750000000004
 31
0.0
100
AcDbText
  0
TEXT
  5
387
330
1E
100
AcDbEntity
  8
TEXT
100
AcDbText
 10
14.01940624999999
 20
0.3628333333333384
 30
0.0
 40
0.4375
  1
18.000
 41
0.75
  7
TXT
 72
     4
 11
14.70299999999999
 21
0.5815833333333385
 31
0.0
100
AcDbText
  0
TEXT
  5
389
330
1E
100
AcDbEntity
  8
TEXT
100
AcDbText
 10
18.18674999999998
 20
2.550333333333338
 30
0.0
 40
0.4375
  1
5.922
 41
0.75
  7
TXT
 72
     4
 11
18.84299999999998
 21
2.769083333333338
 31
0.0
100
AcDbText
  0
TEXT
  5
38A
330
1E
100
AcDbEntity
  8
TEXT
100
AcDbText
 10
18.18674999999998
 20
1.821166666666671
 30
0.0
 40
0.4375
  1
7.922
 41
0.75
  7
TXT
 72
     4
 11
18.84299999999998
 21
2.039916666666671
 31
0.0
100
AcDbText
  0
TEXT
  5
38B
330
1E
100
AcDbEntity
  8
TEXT
100
AcDbText
 10
18.18674999999998
 20
1.092000000000004
 30
0.0
 40
0.4375
  1
9.922
 41
0.75
  7
TXT
 72
     4
 11
18.84299999999998
 21
1.310750000000004
 31
0.0
100
AcDbText
  0
TEXT
  5
38C
330
1E
100
AcDbEntity
  8
TEXT
100
AcDbText
 10
18.10471874999999
 20
0.3628333333333384
 30
0.0
 40
0.4375
  1
10.922
 41
0.75
  7
TXT
 72
     4
 11
18.84299999999998
 21
0.5815833333333385
 31
0.0
100
AcDbText
  0
TEXT
  5
38E
330
1E
100
AcDbEntity
  8
TEXT
100
AcDbText
 10
22.32674999999998
 20
2.550333333333338
 30
0.0
 40
0.4375
  1
7.797
 41
0.75
  7
TXT
 72
     4
 11
22.98299999999998
 21
2.769083333333338
 31
0.0
100
AcDbText
  0
TEXT
  5
38F
330
1E
100
AcDbEntity
  8
TEXT
100
AcDbText
 10
22.32674999999998
 20
1.821166666666671
 30
0.0
 40
0.4375
  1
8.797
 41
0.75
  7
TXT
 72
     4
 11
22.98299999999998
 21
2.039916666666671
 31
0.0
100
AcDbText
  0
TEXT
  5
390
330
1E
100
AcDbEntity
  8
TEXT
100
AcDbText
 10
22.32674999999998
 20
1.092000000000004
 30
0.0
 40
0.4375
  1
7.797
 41
0.75
  7
TXT
 72
     4
 11
22.98299999999998
 21
1.310750000000004
 31
0.0
100
AcDbText
  0
TEXT
  5
391
330
1E
100
AcDbEntity
  8
TEXT
100
AcDbText
 10
22.24471874999998
 20
0.3628333333333384
 30
0.0
 40
0.4375
  1
10.797
 41
0.75
  7
TXT
 72
     4
 11
22.98299999999998
 21
0.5815833333333385
 31
0.0
100
AcDbText
  0
TEXT
  5
393
330
1E
100
AcDbEntity
  8
TEXT
100
AcDbText
 10
26.46674999999998
 20
2.550333333333338
 30
0.0
 40
0.4375
  1
5.859
 41
0.75
  7
TXT
 72
     4
 11
27.12299999999998
 21
2.769083333333338
 31
0.0
100
AcDbText
  0
TEXT
  5
394
330
1E
100
AcDbEntity
  8
TEXT
100
AcDbText
 10
26.46674999999998
 20
1.821166666666671
 30
0.0
 40
0.4375
  1
7.859
 41
0.75
  7
TXT
 72
     4
 11
27.12299999999998
 21
2.039916666666671
 31
0.0
100
AcDbText
  0
TEXT
  5
395
330
1E
100
AcDbEntity
  8
TEXT
100
AcDbText
 10
26.46674999999998
 20
1.092000000000004
 30
0.0
 40
0.4375
  1
9.859
 41
0.75
  7
TXT
 72
     4
 11
27.12299999999998
 21
1.310750000000004
 31
0.0
100
AcDbText
  0
TEXT
  5
396
330
1E
100
AcDbEntity
  8
TEXT
100
AcDbText
 10
26.38471874999998
 20
0.3628333333333384
 30
0.0
 40
0.4375
  1
10.859
 41
0.75
  7
TXT
 72
     4
 11
27.12299999999998
 21
0.5815833333333385
 31
0.0
100
AcDbText
  0
TEXT
  5
398
330
1E
100
AcDbEntity
  8
TEXT
100
AcDbText
 10
30.60674999999998
 20
2.550333333333338
 30
0.0
 40
0.4375
  1
7.734
 41
0.75
  7
TXT
 72
     4
 11
31.26299999999998
 21
2.769083333333338
 31
0.0
100
AcDbText
  0
TEXT
  5
399
330
1E
100
AcDbEntity
  8
TEXT
100
AcDbText
 10
30.60674999999998
 20
1.821166666666671
 30
0.0
 40
0.4375
  1
8.734
 41
0.75
  7
TXT
 72
     4
 11
31.26299999999998
 21
2.039916666666671
 31
0.0
100
AcDbText
  0
TEXT
  5
39A
330
1E
100
AcDbEntity
  8
TEXT
100
AcDbText
 10
30.60674999999998
 20
1.092000000000004
 30
0.0
 40
0.4375
  1
7.734
 41
0.75
  7
TXT
 72
     4
 11
31.26299999999998
 21
1.310750000000004
 31
0.0
100
AcDbText
  0
TEXT
  5
39B
330
1E
100
AcDbEntity
  8
TEXT
100
AcDbText
 10
30.52471874999998
 20
0.3628333333333384
 30
0.0
 40
0.4375
  1
10.734
 41
0.75
  7
TXT
 72
     4
 11
31.26299999999998
 21
0.5815833333333385
 31
0.0
100
AcDbText
  0
TEXT
  5
39D
330
1E
100
AcDbEntity
  8
TEXT
100
AcDbText
 10
34.80143749999998
 20
2.550333333333338
 30
0.0
 40
0.4375
  1
4.500
 41
0.75
  7
TXT
 72
     4
 11
35.40299999999998
 21
2.769083333333338
 31
0.0
100
AcDbText
  0
TEXT
  5
39E
330
1E
100
AcDbEntity
  8
TEXT
100
AcDbText
 10
34.80143749999998
 20
1.821166666666671
 30
0.0
 40
0.4375
  1
6.500
 41
0.75
  7
TXT
 72
     4
 11
35.40299999999998
 21
2.039916666666671
 31
0.0
100
AcDbText
  0
TEXT
  5
39F
330
1E
100
AcDbEntity
  8
TEXT
100
AcDbText
 10
34.80143749999998
 20
1.092000000000004
 30
0.0
 40
0.4375
  1
8.500
 41
0.75
  7
TXT
 72
     4
 11
35.40299999999998
 21
1.310750000000004
 31
0.0
100
AcDbText
  0
TEXT
  5
3A0
330
1E
100
AcDbEntity
  8
TEXT
100
AcDbText
 10
34.80143749999998
 20
0.3628333333333384
 30
0.0
 40
0.4375
  1
9.500
 41
0.75
  7
TXT
 72
     4
 11
35.40299999999998
 21
0.5815833333333385
 31
0.0
100
AcDbText
  0
TEXT
  5
3A2
330
1E
100
AcDbEntity
  8
TEXT
100
AcDbText
 10
38.91409374999998
 20
2.550333333333338
 30
0.0
 40
0.4375
  1
2.750
 41
0.75
  7
TXT
 72
     4
 11
39.54299999999998
 21
2.769083333333338
 31
0.0
100
AcDbText
  0
TEXT
  5
3A3
330
1E
100
AcDbEntity
  8
TEXT
100
AcDbText
 10
38.88674999999997
 20
1.821166666666671
 30
0.0
 40
0.4375
  1
2.438
 41
0.75
  7
TXT
 72
     4
 11
39.54299999999998
 21
2.039916666666671
 31
0.0
100
AcDbText
  0
TEXT
  5
3A4
330
1E
100
AcDbEntity
  8
TEXT
100
AcDbText
 10
38.88674999999997
 20
1.092000000000004
 30
0.0
 40
0.4375
  1
2.688
 41
0.75
  7
TXT
 72
     4
 11
39.54299999999998
 21
1.310750000000004
 31
0.0
100
AcDbText
  0
TEXT
  5
3A5
330
1E
100
AcDbEntity
  8
TEXT
100
AcDbText
 10
38.91409374999998
 20
0.3628333333333384
 30
0.0
 40
0.4375
  1
3.062
 41
0.75
  7
TXT
 72
     4
 11
39.54299999999998
 21
0.5815833333333385
 31
0.0
100
AcDbText
  0
TEXT
  5
3A7
330
1E
100
AcDbEntity
  8
TEXT
100
AcDbText
 10
43.08143749999998
 20
2.550333333333338
 30
0.0
 40
0.4375
  1
1.844
 41
0.75
  7
TXT
 72
     4
 11
43.68299999999997
 21
2.769083333333338
 31
0.0
100
AcDbText
  0
TEXT
  5
3A8
330
1E
100
AcDbEntity
  8
TEXT
100
AcDbText
 10
43.02674999999998
 20
1.821166666666671
 30
0.0
 40
0.4375
  1
2.344
 41
0.75
  7
TXT
 72
     4
 11
43.68299999999997
 21
2.039916666666671
 31
0.0
100
AcDbText
  0
TEXT
  5
3A9
330
1E
100
AcDbEntity
  8
TEXT
100
AcDbText
 10
43.08143749999998
 20
1.092000000000004
 30
0.0
 40
0.4375
  1
1.844
 41
0.75
  7
TXT
 72
     4
 11
43.68299999999997
 21
1.310750000000004
 31
0.0
100
AcDbText
  0
TEXT
  5
3AA
330
1E
100
AcDbEntity
  8
TEXT
100
AcDbText
 10
43.02674999999998
 20
0.3628333333333384
 30
0.0
 40
0.4375
  1
3.344
 41
0.75
  7
TXT
 72
     4
 11
43.68299999999997
 21
0.5815833333333385
 31
0.0
100
AcDbText
  0
TEXT
  5
3AC
330
1E
100
AcDbEntity
  8
TEXT
100
AcDbText
 10
51.03331249999999
 20
4.373249999999983
 30
0.0
 40
0.4375
  1
HOUSES
 41
0.75
  7
TXT
 72
     4
 11
51.96299999999999
 21
4.591999999999983
 31
0.0
100
AcDbText
  0
TEXT
  5
3AD
330
1E
100
AcDbEntity
  8
TEXT
100
AcDbText
 10
46.61987499999997
 20
3.644083333333337
 30
0.0
 40
0.4375
  1
PER SIDE
 41
0.75
  7
TXT
 72
     4
 11
47.82299999999997
 21
3.862833333333337
 31
0.0
100
AcDbText
  0
TEXT
  5
3AE
330
1E
100
AcDbEntity
  8
TEXT
100
AcDbText
 10
47.11206249999999
 20
2.550333333333317
 30
0.0
 40
0.4375
  1
1 SET
 41
0.75
  7
TXT
 72
     4
 11
47.82299999999998
 21
2.769083333333317
 31
0.0
100
AcDbText
  0
TEXT
  5
3AF
330
1E
100
AcDbEntity
  8
TEXT
100
AcDbText
 10
46.89331249999998
 20
1.82116666666665
 30
0.0
 40
0.4375
  1
2 SETS
 41
0.75
  7
TXT
 72
     4
 11
47.82299999999998
 21
2.039916666666651
 31
0.0
100
AcDbText
  0
TEXT
  5
3B0
330
1E
100
AcDbEntity
  8
TEXT
100
AcDbText
 10
47.11206249999999
 20
1.091999999999984
 30
0.0
 40
0.4375
  1
1 SET
 41
0.75
  7
TXT
 72
     4
 11
47.82299999999998
 21
1.310749999999984
 31
0.0
100
AcDbText
  0
TEXT
  5
3B1
330
1E
100
AcDbEntity
  8
TEXT
100
AcDbText
 10
46.89331249999998
 20
0.362833333333318
 30
0.0
 40
0.4375
  1
3 SETS
 41
0.75
  7
TXT
 72
     4
 11
47.82299999999998
 21
0.5815833333333181
 31
0.0
100
AcDbText
  0
TEXT
  5
3B3
330
1E
100
AcDbEntity
  8
TEXT
100
AcDbText
 10
50.92393749999999
 20
3.644083333333316
 30
0.0
 40
0.4375
  1
CHASSIS
 41
0.75
  7
TXT
 72
     4
 11
51.96299999999999
 21
3.862833333333316
 31
0.0
100
AcDbText
  0
TEXT
  5
3B4
330
1E
100
AcDbEntity
  8
TEXT
100
AcDbText
 10
51.06065624999999
 20
2.550333333333317
 30
0.0
 40
0.4375
  1
AC-402
 41
0.75
  7
TXT
 72
     4
 11
51.96299999999999
 21
2.769083333333317
 31
0.0
100
AcDbText
  0
TEXT
  5
3B5
330
1E
100
AcDbEntity
  8
TEXT
100
AcDbText
 10
51.06065624999999
 20
1.82116666666665
 30
0.0
 40
0.4375
  1
AC-407
 41
0.75
  7
TXT
 72
     4
 11
51.96299999999999
 21
2.03991666666665
 31
0.0
100
AcDbText
  0
TEXT
  5
3B6
330
1E
100
AcDbEntity
  8
TEXT
100
AcDbText
 10
51.06065624999999
 20
1.091999999999984
 30
0.0
 40
0.4375
  1
AC-406
 41
0.75
  7
TXT
 72
     4
 11
51.96299999999999
 21
1.310749999999984
 31
0.0
100
AcDbText
  0
TEXT
  5
3B7
330
1E
100
AcDbEntity
  8
TEXT
100
AcDbText
 10
51.08799999999998
 20
0.3628333333333177
 30
0.0
 40
0.4375
  1
AC-416
 41
0.75
  7
TXT
 72
     4
 11
51.96299999999999
 21
0.5815833333333176
 31
0.0
100
AcDbText
  0
TEXT
  5
3B9
330
1E
100
AcDbEntity
  8
TEXT
100
AcDbText
 10
42.53456249999998
 20
4.737833333333338
 30
0.0
 40
0.4375
  1
LOUVERS
 41
0.75
  7
TXT
 72
     4
 11
43.68299999999998
 21
4.956583333333338
 31
0.0
100
AcDbText
  0
TEXT
  5
3BA
330
1E
100
AcDbEntity
  8
TEXT
100
AcDbText
 10
19.16299999999998
 20
4.737833333333338
 30
0.0
 40
0.4375
  1
PANEL SPACE
 41
0.75
  7
TXT
 72
     4
 11
20.91299999999999
 21
4.956583333333338
 31
0.0
100
AcDbText
  0
TEXT
  5
3BB
330
1E
100
AcDbEntity
  8
TEXT
100
AcDbText
 10
27.44299999999998
 20
4.737833333333338
 30
0.0
 40
0.4375
  1
FRONT PANEL
 41
0.75
  7
TXT
 72
     4
 11
29.19299999999998
 21
4.956583333333338
 31
0.0
100
AcDbText
  0
TEXT
  5
3BC
330
1E
100
AcDbEntity
  8
TEXT
100
AcDbText
 10
33.65299999999998
 20
4.737833333333338
 30
0.0
 40
0.4375
  1
REAR CUTOUT
 41
0.75
  7
TXT
 72
     4
 11
35.40299999999998
 21
4.956583333333338
 31
0.0
100
AcDbText
  0
TEXT
  5
3BD
330
1E
100
AcDbEntity
  8
TEXT
100
AcDbText
 10
8.827865201975114
 20
6.952953726710216
 30
0.0
 40
0.5470000000000001
  1
%%uFRONT VIEW
 41
0.75
  7
TXT
 72
     1
 11
10.88595270197511
 21
6.952953726710216
 31
0.0
100
AcDbText
  0
TEXT
  5
3BE
330
1E
100
AcDbEntity
  8
TEXT
100
AcDbText
 10
42.69901422952004
 20
6.952953726710223
 30
0.0
 40
0.5470000000000001
  1
%%uREAR VIEW
 41
0.75
  7
TXT
 72
     1
 11
44.55197672952004
 21
6.952953726710223
 31
0.0
100
AcDbText
  0
TEXT
  5
3BF
330
1E
100
AcDbEntity
  8
TEXT
100
AcDbText
 10
25.23218503206893
 20
6.952953726710216
 30
0.0
 40
0.5470000000000001
  1
%%uSIDE VIEW
 41
0.75
  7
TXT
 72
     1
 11
27.01677253206893
 21
6.952953726710216
 31
0.0
100
AcDbText
  0
TEXT
  5
3C0
330
1E
100
AcDbEntity
  8
TEXT
100
AcDbText
 10
25.36893503206893
 20
22.99686010641539
 30
0.0
 40
0.5470000000000001
  1
%%uTOP VIEW
 41
0.75
  7
TXT
 72
     1
 11
27.01677253206893
 21
22.99686010641539
 31
0.0
100
AcDbText
  0
TEXT
  5
3C1
330
1E
100
AcDbEntity
  8
TEXT
100
AcDbText
 10
10.42491447265136
 20
34.198
 30
0.0
 40
0.5470000000000001
  1
PORTACAB
 41
0.75
  7
TXT
 72
     4
 11
11.99753947265137
 21
34.4715
 31
0.0
100
AcDbText
  0
TEXT
  5
3C2
330
1E
100
AcDbEntity
  8
TEXT
100
AcDbText
 10
30.33954582014418
 20
34.198
 30
0.0
 40
0.5470000000000001
  1
WA-1540  THRU  WA-1543
 41
0.75
  7
TXT
 72
     4
 11
34.74973332014418
 21
34.4715
 31
0.0
100
AcDbText
  0
TEXT
  5
3C3
330
1E
100
AcDbEntity
  8
TEXT
100
AcDbText
 10
38.5352973631962
 20
31.62992303471786
 30
0.0
 40
0.4375
  1
FRONT PANEL AND PLASTIC FEET ARE ASSEMBLED
 41
0.75
  7
TXT
100
AcDbText
  0
TEXT
  5
3C4
330
1E
100
AcDbEntity
  8
TEXT
100
AcDbText
 10
39.16912023580382
 20
30.90075636805119
 30
0.0
 40
0.4375
  1
WITH #6 SHEET METAL SCREWS. (PROVIDED)
 41
0.75
  7
TXT
100
AcDbText
  0
TEXT
  5
3C5
330
1E
100
AcDbEntity
  8
TEXT
100
AcDbText
 10
38.5352973631962
 20
29.83056785361666
 30
0.0
 40
0.4375
  1
LOUVERS ARE APPROXIMATELY CENTERED ON SIDES.
 41
0.75
  7
TXT
100
AcDbText
  0
TEXT
  5
3C6
330
1E
100
AcDbEntity
  8
TEXT
100
AcDbText
 10
38.5352973631962
 20
28.75951887491215
 30
0.0
 40
0.4375
  1
HANDLE LOAD RATING:  25 LBS. MAX.
 41
0.75
  7
TXT
100
AcDbText
  0
LINE
  5
51B
330
1E
100
AcDbEntity
  8
OBJECT
100
AcDbLine
 10
46.55397672952003
 20
9.455416491489661
 30
0.0
 11
46.55397672952003
 21
9.392416491489658
 31
0.0
  0
LINE
  5
51C
330
1E
100
AcDbEntity
  8
OBJECT
100
AcDbLine
 10
46.60397672952003
 20
9.505416491489658
 30
0.0
 11
46.60397672952003
 21
9.442416491489655
 31
0.0
  0
LINE
  5
51D
330
1E
100
AcDbEntity
  8
OBJECT
100
AcDbLine
 10
42.49997672952005
 20
9.505416491489658
 30
0.0
 11
42.49997672952005
 21
9.442416491489655
 31
0.0
  0
LINE
  5
51E
330
1E
100
AcDbEntity
  8
OBJECT
100
AcDbLine
 10
42.48947672952003
 20
9.455416491489661
 30
0.0
 11
42.48947672952003
 21
9.974416491489659
 31
0.0
  0
LINE
  5
51F
330
1E
100
AcDbEntity
  8
OBJECT
100
AcDbLine
 10
42.49997672952005
 20
9.442416491489655
 30
0.0
 11
41.89797672952003
 21
9.442416491489655
 31
0.0
  0
LINE
  5
520
330
1E
100
AcDbEntity
  8
OBJECT
100
AcDbLine
 10
42.54997672952005
 20
9.392416491489658
 30
0.0
 11
41.89797672952003
 21
9.392416491489658
 31
0.0
  0
LINE
  5
521
330
1E
100
AcDbEntity
  8
OBJECT
100
AcDbLine
 10
42.54997672952005
 20
9.455416491489661
 30
0.0
 11
42.54997672952005
 21
9.392416491489658
 31
0.0
  0
LINE
  5
522
330
1E
100
AcDbEntity
  8
OBJECT
100
AcDbLine
 10
41.89797672952003
 20
9.442416491489655
 30
0.0
 11
41.89797672952003
 21
9.392416491489658
 31
0.0
  0
LINE
  5
523
330
1E
100
AcDbEntity
  8
OBJECT
100
AcDbLine
 10
42.55197672952006
 20
9.505416491489658
 30
0.0
 11
42.55197672952006
 21
9.974416491489659
 31
0.0
  0
LINE
  5
524
330
1E
100
AcDbEntity
  8
OBJECT
100
AcDbLine
 10
42.55197672952006
 20
9.974416491489666
 30
0.0
 11
46.55197672952002
 21
9.974416491489659
 31
0.0
  0
LINE
  5
525
330
1E
100
AcDbEntity
  8
HIDDEN
100
AcDbLine
 10
42.49997672952004
 20
9.505416491489656
 30
0.0
 11
46.60397672952003
 21
9.505416491489658
 31
0.0
  0
LINE
  5
526
330
1E
100
AcDbEntity
  8
OBJECT
100
AcDbLine
 10
42.54997672952004
 20
9.455416491489661
 30
0.0
 11
46.55397672952003
 21
9.455416491489661
 31
0.0
  0
LINE
  5
529
330
1E
100
AcDbEntity
  8
OBJECT
100
AcDbLine
 10
14.44845270197511
 20
9.455416491489661
 30
0.0
 11
12.94845270197511
 21
9.455416491489661
 31
0.0
  0
LINE
  5
52A
330
1E
100
AcDbEntity
  8
OBJECT
100
AcDbLine
 10
12.88795270197509
 20
9.392416491489658
 30
0.0
 11
13.53995270197511
 21
9.392416491489658
 31
0.0
  0
LINE
  5
52B
330
1E
100
AcDbEntity
  8
OBJECT
100
AcDbLine
 10
12.93795270197509
 20
9.442416491489655
 30
0.0
 11
13.53995270197511
 21
9.442416491489655
 31
0.0
  0
LINE
  5
52C
330
1E
100
AcDbEntity
  8
OBJECT
100
AcDbLine
 10
13.53995270197511
 20
9.442416491489655
 30
0.0
 11
13.53995270197511
 21
9.392416491489658
 31
0.0
  0
LINE
  5
52D
330
1E
100
AcDbEntity
  8
OBJECT
100
AcDbLine
 10
12.93795270197509
 20
9.555416491489653
 30
0.0
 11
12.93795270197509
 21
9.442416491489655
 31
0.0
  0
LINE
  5
52E
330
1E
100
AcDbEntity
  8
OBJECT
100
AcDbLine
 10
12.88795270197509
 20
9.455416491489661
 30
0.0
 11
12.88795270197509
 21
9.392416491489658
 31
0.0
  0
LINE
  5
52F
330
1E
100
AcDbEntity
  8
OBJECT
100
AcDbLine
 10
12.8879527019751
 20
9.455416491489661
 30
0.0
 11
8.883952701975118
 21
9.455416491489661
 31
0.0
  0
LINE
  5
530
330
1E
100
AcDbEntity
  8
OBJECT
100
AcDbLine
 10
8.833952701975121
 20
9.555416491489653
 30
0.0
 11
8.833952701975121
 21
9.442416491489655
 31
0.0
  0
LINE
  5
531
330
1E
100
AcDbEntity
  8
OBJECT
100
AcDbLine
 10
8.833952701975121
 20
9.442416491489655
 30
0.0
 11
8.231952701975103
 21
9.442416491489655
 31
0.0
  0
LINE
  5
532
330
1E
100
AcDbEntity
  8
OBJECT
100
AcDbLine
 10
8.883952701975118
 20
9.392416491489658
 30
0.0
 11
8.231952701975103
 21
9.392416491489658
 31
0.0
  0
LINE
  5
533
330
1E
100
AcDbEntity
  8
OBJECT
100
AcDbLine
 10
8.883952701975118
 20
9.455416491489661
 30
0.0
 11
8.883952701975118
 21
9.392416491489658
 31
0.0
  0
LINE
  5
534
330
1E
100
AcDbEntity
  8
OBJECT
100
AcDbLine
 10
8.231952701975103
 20
9.442416491489655
 30
0.0
 11
8.231952701975103
 21
9.392416491489658
 31
0.0
  0
LINE
  5
535
330
1E
100
AcDbEntity
  8
OBJECT
100
AcDbLine
 10
8.823452701975099
 20
9.455416491489661
 30
0.0
 11
7.323452701975099
 21
9.455416491489661
 31
0.0
  0
LINE
  5
536
330
1E
100
AcDbEntity
  8
OBJECT
100
AcDbLine
 10
8.823452701975099
 20
9.455416491489661
 30
0.0
 11
8.823452701975099
 21
9.555416491489655
 31
0.0
  0
LINE
  5
537
330
1E
100
AcDbEntity
  8
OBJECT
100
AcDbLine
 10
8.833952701975121
 20
9.555416491489655
 30
0.0
 11
12.93795270197509
 21
9.555416491489653
 31
0.0
  0
LINE
  5
538
330
1E
100
AcDbEntity
  8
HIDDEN
100
AcDbLine
 10
8.833952701975121
 20
9.505416491489656
 30
0.0
 11
12.93795270197509
 21
9.505416491489649
 31
0.0
  0
LINE
  5
539
330
1E
100
AcDbEntity
  8
OBJECT
100
AcDbLine
 10
12.94845270197511
 20
9.455416491489661
 30
0.0
 11
12.94845270197511
 21
9.555416491489655
 31
0.0
  0
LINE
  5
53B
330
1E
100
AcDbEntity
  8
OBJECT
100
AcDbLine
 10
12.94845270197511
 20
9.555416491489653
 30
0.0
 11
14.30795270197511
 21
9.555416491489655
 31
0.0
  0
LINE
  5
53C
330
1E
100
AcDbEntity
  8
HIDDEN
100
AcDbLine
 10
14.2579527019751
 20
9.505416491489654
 30
0.0
 11
12.94845270197512
 21
9.505416491489652
 31
0.0
  0
LINE
  5
6A1
330
1E
100
AcDbEntity
  8
TITLE
100
AcDbLine
 10
0.2169999999999916
 20
33.74
 30
0.0
 11
54.03299999999998
 21
33.74000000000001
 31
0.0
  0
LWPOLYLINE
  5
6A2
330
1E
100
AcDbEntity
  8
TITLE
100
AcDbPolyline
 90
        4
 70
     1
 43
0.0
 10
54.25
 20
35.41999999999998
 10
54.24999999999997
 20
0.0
 10
0.0
 20
0.0
 10
0.0
 20
35.41999999999998
  0
LWPOLYLINE
  5
6A3
330
1E
100
AcDbEntity
  8
TITLE
100
AcDbPolyline
 90
        4
 70
     1
 43
0.0
 10
54.03299999999998
 20
35.20300000000002
 10
54.03299999999998
 20
0.2170000000000041
 10
0.2170000000000041
 20
0.2170000000000041
 10
0.2170000000000041
 20
35.203
  0
TEXT
  5
6A4
330
1E
100
AcDbEntity
  8
TEXT
100
AcDbText
 10
0.7274166666666711
 20
33.88027718474027
 30
0.0
 40
0.4375
  1
NAME
 72
     1
 11
1.529500000000004
 21
33.88027718474027
 31
0.0
100
AcDbText
  0
TEXT
  5
6A5
330
1E
100
AcDbEntity
  8
TEXT
100
AcDbText
 10
0.7274166666666709
 20
34.60944385140694
 30
0.0
 40
0.4375
  1
PART
 72
     1
 11
1.529500000000004
 21
34.60944385140694
 31
0.0
100
AcDbText
  0
LINE
  5
6A6
330
1E
100
AcDbEntity
  8
TITLE
100
AcDbLine
 10
2.842000000000004
 20
33.74
 30
0.0
 11
2.841999999999991
 21
35.203
 31
0.0
  0
TEXT
  5
6A7
330
1E
100
AcDbEntity
  8
TEXT
100
AcDbText
 10
23.21309138912777
 20
34.60944385140694
 30
0.0
 40
0.4375
  1
PART
 72
     1
 11
24.0151747224611
 21
34.60944385140694
 31
0.0
100
AcDbText
  0
TEXT
  5
6A8
330
1E
100
AcDbEntity
  8
TEXT
100
AcDbText
 10
23.5776747224611
 20
33.88027718474027
 30
0.0
 40
0.4375
  1
No.
 72
     1
 11
24.0151747224611
 21
33.88027718474027
 31
0.0
100
AcDbText
  0
LINE
  5
6A9
330
1E
100
AcDbEntity
  8
TITLE
100
AcDbLine
 10
22.7026747224611
 20
35.203
 30
0.0
 11
22.7026747224611
 21
33.74
 31
0.0
  0
LINE
  5
6AA
330
1E
100
AcDbEntity
  8
TITLE
100
AcDbLine
 10
22.48567472246111
 20
35.203
 30
0.0
 11
22.48567472246111
 21
33.74
 31
0.0
  0
LINE
  5
6AB
330
1E
100
AcDbEntity
  8
TITLE
100
AcDbLine
 10
25.3276747224611
 20
35.203
 30
0.0
 11
25.3276747224611
 21
33.74
 31
0.0
  0
TEXT
  5
6E8
330
1E
100
AcDbEntity
  8
TEXT
100
AcDbText
 10
45.95030229900834
 20
34.60944385140694
 30
0.0
 40
0.4375
  1
REV.
  7
TXT
 72
     1
 11
46.67946896567501
 21
34.60944385140694
 31
0.0
100
AcDbText
  0
LINE
  5
6E9
330
1E
100
AcDbEntity
  8
TITLE
100
AcDbLine
 10
45.36696896567501
 20
35.20299999999999
 30
0.0
 11
45.36696896567501
 21
33.73999999999999
 31
0.0
  0
LINE
  5
6EA
330
1E
100
AcDbEntity
  8
TITLE
100
AcDbLine
 10
47.99196896567501
 20
35.20299999999999
 30
0.0
 11
47.99196896567501
 21
33.73999999999999
 31
0.0
  0
LINE
  5
6EB
330
1E
100
AcDbEntity
  8
TITLE
100
AcDbLine
 10
45.14996896567502
 20
35.20299999999999
 30
0.0
 11
45.14996896567502
 21
33.73999999999999
 31
0.0
  0
TEXT
  5
6EC
330
1E
100
AcDbEntity
  8
TEXT
100
AcDbText
 10
45.87738563234167
 20
33.88027718474027
 30
0.0
 40
0.4375
  1
DATE
  7
TXT
 72
     1
 11
46.67946896567501
 21
33.88027718474027
 31
0.0
100
AcDbText
  0
TEXT
  5
6EF
330
1E
100
AcDbEntity
  8
TEXT
100
AcDbText
 10
49.91232014290859
 20
34.198
 30
0.0
 40
0.5470000000000001
  1
3-6-06
 41
0.75
  7
TXT
 72
     4
 11
51.04050764290859
 21
34.4715
 31
0.0
100
AcDbText
  0
TEXT
  5
6F6
330
1E
100
AcDbEntity
  8
TEXT
100
AcDbText
 10
9.500711084722361
 20
26.43687917431527
 30
0.0
 40
0.4375000000000001
  1
METALLIC GRAY
 41
0.75
100
AcDbText
  0
LINE
  5
6F7
330
1E
100
AcDbEntity
  8
TEXT
100
AcDbLine
 10
6.882189446381943
 20
26.41920614321053
 30
0.0
 11
9.290716210293481
 21
26.41920614321053
 31
0.0
  0
TEXT
  5
6F8
330
1E
100
AcDbEntity
  8
TEXT
100
AcDbText
 10
2.063517589405243
 20
25.70771250764861
 30
0.0
 40
0.4375000000000001
  1
HANDLE
 41
0.75
100
AcDbText
  0
LINE
  5
6F9
330
1E
100
AcDbEntity
  8
TEXT
100
AcDbLine
 10
4.283515744689339
 20
25.69003947654387
 30
0.0
 11
9.290716210293481
 21
25.69003947654387
 31
0.0
  0
TEXT
  5
6FA
330
1E
100
AcDbEntity
  8
TEXT
100
AcDbText
 10
9.500711084722361
 20
25.70771250764861
 30
0.0
 40
0.4375000000000001
  1
WHITE
 41
0.75
100
AcDbText
  0
TEXT
  5
6FB
330
1E
100
AcDbEntity
  8
TEXT
100
AcDbText
 10
9.500711084722361
 20
29.81135852293966
 30
0.0
 40
0.4375000000000001
  1
VINYL WRAPPED STEEL
 41
0.75
100
AcDbText
  0
LINE
  5
6FC
330
1E
100
AcDbEntity
  8
TEXT
100
AcDbLine
 10
9.304603377240489
 20
29.81135852293966
 30
0.0
 11
4.278527344941842
 21
29.81135852293966
 31
0.0
  0
TEXT
  5
6FD
330
1E
100
AcDbEntity
  8
TEXT
100
AcDbText
 10
2.063517589405243
 20
29.81135852293966
 30
0.0
 40
0.4375000000000001
  1
HANDLE
 41
0.75
100
AcDbText
  0
TEXT
  5
6FE
330
1E
100
AcDbEntity
  8
TEXT
100
AcDbText
 10
9.500711084722361
 20
29.082191856273
 30
0.0
 40
0.4375000000000001
  1
STEEL
 41
0.75
100
AcDbText
  0
LINE
  5
6FF
330
1E
100
AcDbEntity
  8
TEXT
100
AcDbLine
 10
9.304603377240489
 20
29.082191856273
 30
0.0
 11
5.94203834569754
 21
29.082191856273
 31
0.0
  0
TEXT
  5
700
330
1E
100
AcDbEntity
  8
TEXT
100
AcDbText
 10
2.063517589405243
 20
29.082191856273
 30
0.0
 40
0.4375000000000001
  1
HANDLE CAPS
 41
0.75
100
AcDbText
  0
TEXT
  5
701
330
1E
100
AcDbEntity
  8
TEXT
100
AcDbText
 10
9.500711084722361
 20
24.97854584098195
 30
0.0
 40
0.4375000000000001
  1
NICKEL PLATED
 41
0.75
100
AcDbText
  0
TEXT
  5
702
330
1E
100
AcDbEntity
  8
TEXT
100
AcDbText
 10
2.063517589405243
 20
24.97854584098195
 30
0.0
 40
0.4375000000000001
  1
HANDLE CAPS
 41
0.75
100
AcDbText
  0
LINE
  5
703
330
1E
100
AcDbEntity
  8
TEXT
100
AcDbLine
 10
5.975201775431656
 20
24.96087280987721
 30
0.0
 11
9.290716210293481
 21
24.96087280987721
 31
0.0
  0
TEXT
  5
7DF
330
1E
100
AcDbEntity
  8
TEXT
100
AcDbText
 10
9.500711084722361
 20
28.35302518960634
 30
0.0
 40
0.4375000000000001
  1
PLASTIC
 41
0.75
100
AcDbText
  0
LINE
  5
7E0
330
1E
100
AcDbEntity
  8
TEXT
100
AcDbLine
 10
9.304603377240489
 20
28.35302518960634
 30
0.0
 11
3.486248716182934
 21
28.35302518960634
 31
0.0
  0
TEXT
  5
7E1
330
1E
100
AcDbEntity
  8
TEXT
100
AcDbText
 10
2.063517589405243
 20
28.35302518960634
 30
0.0
 40
0.4375000000000001
  1
FEET
 41
0.75
100
AcDbText
  0
TEXT
  5
7E2
330
1E
100
AcDbEntity
  8
TEXT
100
AcDbText
 10
9.500711084722361
 20
24.2493791743153
 30
0.0
 40
0.4375000000000001
  1
BLACK
 41
0.75
100
AcDbText
  0
LINE
  5
7E3
330
1E
100
AcDbEntity
  8
TEXT
100
AcDbLine
 10
3.522928449557696
 20
24.23170614321056
 30
0.0
 11
9.290716210293481
 21
24.23170614321056
 31
0.0
  0
TEXT
  5
7E4
330
1E
100
AcDbEntity
  8
TEXT
100
AcDbText
 10
2.063517589405243
 20
24.2493791743153
 30
0.0
 40
0.4375000000000001
  1
FEET
 41
0.75
100
AcDbText
  0
ENDSEC
  0
SECTION
  2
OBJECTS
  0
DICTIONARY
  5
C
330
0
100
AcDbDictionary
281
     1
  3
ACAD_GROUP
350
D
  3
ACAD_LAYOUT
350
19
  3
ACAD_MLINESTYLE
350
16
  3
ACAD_PLOTSETTINGS
350
18
  3
ACAD_PLOTSTYLENAME
350
E
  0
DICTIONARY
  5
D
102
{ACAD_REACTORS
330
C
102
}
330
C
100
AcDbDictionary
281
     1
  0
DICTIONARY
  5
19
102
{ACAD_REACTORS
330
C
102
}
330
C
100
AcDbDictionary
281
     1
  3
Layout1
350
1D
  3
Model
350
21
  0
DICTIONARY
  5
16
102
{ACAD_REACTORS
330
C
102
}
330
C
100
AcDbDictionary
281
     1
  3
Standard
350
17
  0
DICTIONARY
  5
18
102
{ACAD_REACTORS
330
C
102
}
330
C
100
AcDbDictionary
281
     1
  0
ACDBDICTIONARYWDFLT
  5
E
102
{ACAD_REACTORS
330
C
102
}
330
C
100
AcDbDictionary
281
     1
  3
Normal
350
F
100
AcDbDictionaryWithDefault
340
F
  0
LAYOUT
  5
1D
102
{ACAD_REACTORS
330
19
102
}
330
19
100
AcDbPlotSettings
  1

  2
HP DesignJet 430 (D/A1) by HP
  4

  6

 40
0.0
 41
0.0
 42
0.0
 43
0.0
 44
0.0
 45
0.0
 46
0.0
 47
0.0
 48
0.0
 49
0.0
140
0.0
141
0.0
142
1.0
143
1.0
 70
   688
 72
     0
 73
     0
 74
     5
  7
monochrome.ctb
 75
    16
147
1.0
148
0.0
149
0.0
100
AcDbLayout
  1
Layout1
 70
     1
 71
     1
 10
0.0
 20
0.0
 11
12.0
 21
9.0
 12
0.0
 22
0.0
 32
0.0
 14
1.000000000000000E+20
 24
1.000000000000000E+20
 34
1.000000000000000E+20
 15
-1.000000000000000E+20
 25
-1.000000000000000E+20
 35
-1.000000000000000E+20
146
0.0
 13
0.0
 23
0.0
 33
0.0
 16
1.0
 26
0.0
 36
0.0
 17
0.0
 27
1.0
 37
0.0
 76
     0
330
1A
  0
LAYOUT
  5
21
102
{ACAD_REACTORS
330
19
102
}
330
19
100
AcDbPlotSettings
  1

  2
RICOH Aficio 1060 PCL 6
  4
Letter
  6

 40
5.027083396911621
 41
5.027085304260253
 42
5.027084350585937
 43
5.027069091796875
 44
215.8999938964843
 45
279.3999938964843
 46
14.98599999999999
 47
0.0
 48
0.0
 49
0.0
140
0.0
141
0.0
142
1.0
143
5.11630371633801
 70
 11956
 72
     0
 73
     1
 74
     1
  7
monochrome.ctb
 75
     0
147
0.1954536038989783
148
0.1051131988542664
149
0.0686287466063305
100
AcDbLayout
  1
Model
 70
     1
 71
     0
 10
0.0
 20
0.0
 11
12.0
 21
9.0
 12
0.0
 22
0.0
 32
0.0
 14
0.0
 24
0.0
 34
0.0
 15
0.0
 25
0.0
 35
0.0
146
0.0
 13
0.0
 23
0.0
 33
0.0
 16
1.0
 26
0.0
 36
0.0
 17
0.0
 27
1.0
 37
0.0
 76
     0
330
1E
  0
MLINESTYLE
  5
17
102
{ACAD_REACTORS
330
16
102
}
330
16
100
AcDbMlineStyle
  2
STANDARD
 70
     0
  3

 62
   256
 51
90.0
 52
90.0
 71
     2
 49
0.5
 62
   256
  6
BYLAYER
 49
-0.5
 62
   256
  6
BYLAYER
  0
ACDBPLACEHOLDER
  5
F
102
{ACAD_REACTORS
330
E
102
}
330
E
  0
ENDSEC
  0
EOF
