  0
SECTION
  2
HEADER
  9
$ACADVER
  1
AC1009
  9
$INSBASE
 10
0.0
 20
0.0
 30
0.0
  9
$EXTMIN
 10
0.0
 20
0.0
 30
0.0
  9
$EXTMAX
 10
93.0
 20
60.72
 30
0.0
  9
$LIMMIN
 10
0.0
 20
0.0
  9
$LIMMAX
 10
93.0
 20
60.72
  9
$ORTHOMODE
 70
     1
  9
$REGENMODE
 70
     1
  9
$FILLMODE
 70
     1
  9
$QTEXTMODE
 70
     0
  9
$MIRRTEXT
 70
     0
  9
$DRAGMODE
 70
     2
  9
$LTSCALE
 40
1.25
  9
$OSMODE
 70
     0
  9
$ATTMODE
 70
     1
  9
$TEXTSIZE
 40
0.75
  9
$TRACEWID
 40
0.05
  9
$TEXTSTYLE
  7
TXT
  9
$CLAYER
  8
DIM
  9
$CELTYPE
  6
BYLAYER
  9
$CECOLOR
 62
   256
  9
$DIMSCALE
 40
6.0
  9
$DIMASZ
 40
0.18
  9
$DIMEXO
 40
0.063
  9
$DIMDLI
 40
0.281
  9
$DIMRND
 40
0.0
  9
$DIMDLE
 40
0.0
  9
$DIMEXE
 40
0.093
  9
$DIMTP
 40
0.0
  9
$DIMTM
 40
0.0
  9
$DIMTXT
 40
0.125
  9
$DIMCEN
 40
0.09
  9
$DIMTSZ
 40
0.0
  9
$DIMTOL
 70
     0
  9
$DIMLIM
 70
     0
  9
$DIMTIH
 70
     1
  9
$DIMTOH
 70
     1
  9
$DIMSE1
 70
     0
  9
$DIMSE2
 70
     0
  9
$DIMTAD
 70
     0
  9
$DIMZIN
 70
     0
  9
$DIMBLK
  1

  9
$DIMASO
 70
     1
  9
$DIMSHO
 70
     1
  9
$DIMPOST
  1

  9
$DIMAPOST
  1

  9
$DIMALT
 70
     0
  9
$DIMALTD
 70
     2
  9
$DIMALTF
 40
25.4
  9
$DIMLFAC
 40
1.0
  9
$DIMTOFL
 70
     0
  9
$DIMTVP
 40
0.0
  9
$DIMTIX
 70
     1
  9
$DIMSOXD
 70
     0
  9
$DIMSAH
 70
     0
  9
$DIMBLK1
  1

  9
$DIMBLK2
  1

  9
$DIMSTYLE
  2
23NSTDI
  9
$DIMCLRD
 70
     0
  9
$DIMCLRE
 70
     0
  9
$DIMCLRT
 70
     0
  9
$DIMTFAC
 40
1.0
  9
$DIMGAP
 40
0.09
  9
$LUNITS
 70
     2
  9
$LUPREC
 70
     3
  9
$SKETCHINC
 40
0.1
  9
$FILLETRAD
 40
0.0
  9
$AUNITS
 70
     0
  9
$AUPREC
 70
     0
  9
$MENU
  1
acad
  9
$ELEVATION
 40
0.0
  9
$PELEVATION
 40
0.0
  9
$THICKNESS
 40
0.0
  9
$LIMCHECK
 70
     0
  9
$BLIPMODE
 70
     1
  9
$CHAMFERA
 40
0.0
  9
$CHAMFERB
 40
0.0
  9
$SKPOLY
 70
     0
  9
$TDCREATE
 40
2450364.640413425
  9
$TDUPDATE
 40
2450805.525387731
  9
$TDINDWG
 40
0.5303918981
  9
$TDUSRTIMER
 40
0.5303918981
  9
$USRTIMER
 70
     1
  9
$ANGBASE
 50
0.0
  9
$ANGDIR
 70
     0
  9
$PDMODE
 70
     0
  9
$PDSIZE
 40
0.0
  9
$PLINEWID
 40
0.0
  9
$COORDS
 70
     2
  9
$SPLFRAME
 70
     0
  9
$SPLINETYPE
 70
     6
  9
$SPLINESEGS
 70
     8
  9
$ATTDIA
 70
     0
  9
$ATTREQ
 70
     1
  9
$HANDLING
 70
     0
  9
$HANDSEED
  5
0
  9
$SURFTAB1
 70
     6
  9
$SURFTAB2
 70
     6
  9
$SURFTYPE
 70
     6
  9
$SURFU
 70
     6
  9
$SURFV
 70
     6
  9
$UCSNAME
  2

  9
$UCSORG
 10
0.0
 20
0.0
 30
0.0
  9
$UCSXDIR
 10
1.0
 20
0.0
 30
0.0
  9
$UCSYDIR
 10
0.0
 20
1.0
 30
0.0
  9
$PUCSNAME
  2

  9
$PUCSORG
 10
0.0
 20
0.0
 30
0.0
  9
$PUCSXDIR
 10
1.0
 20
0.0
 30
0.0
  9
$PUCSYDIR
 10
0.0
 20
1.0
 30
0.0
  9
$USERI1
 70
     0
  9
$USERI2
 70
     0
  9
$USERI3
 70
     0
  9
$USERI4
 70
     0
  9
$USERI5
 70
     0
  9
$USERR1
 40
0.0
  9
$USERR2
 40
0.0
  9
$USERR3
 40
0.0
  9
$USERR4
 40
0.0
  9
$USERR5
 40
0.0
  9
$WORLDVIEW
 70
     1
  9
$SHADEDGE
 70
     3
  9
$SHADEDIF
 70
    70
  9
$TILEMODE
 70
     1
  9
$MAXACTVP
 70
    16
  9
$PINSBASE
 10
0.0
 20
0.0
 30
0.0
  9
$PLIMCHECK
 70
     0
  9
$PEXTMIN
 10
1.000000E+20
 20
1.000000E+20
 30
1.000000E+20
  9
$PEXTMAX
 10
-1.000000E+20
 20
-1.000000E+20
 30
-1.000000E+20
  9
$PLIMMIN
 10
0.0
 20
0.0
  9
$PLIMMAX
 10
12.0
 20
9.0
  9
$UNITMODE
 70
     0
  9
$VISRETAIN
 70
     0
  9
$PLINEGEN
 70
     0
  9
$PSLTSCALE
 70
     1
  9
$TREEDEPTH
 70
  3020
  9
$DWGCODEPAGE
  3
ascii
  0
ENDSEC
  0
SECTION
  2
TABLES
  0
TABLE
  2
VPORT
 70
     2
  0
VPORT
  2
*ACTIVE
 70
     0
 10
0.0
 20
0.0
 11
1.0
 21
1.0
 12
46.5
 22
34.132461
 13
0.0
 23
0.0
 14
1.0
 24
1.0
 15
0.0
 25
0.0
 16
0.0
 26
0.0
 36
1.0
 17
0.0
 27
0.0
 37
0.0
 40
68.264921
 41
1.36234
 42
50.0
 43
0.0
 44
0.0
 50
0.0
 51
0.0
 71
     0
 72
   500
 73
     1
 74
     0
 75
     0
 76
     0
 77
     0
 78
     0
  0
ENDTAB
  0
TABLE
  2
LTYPE
 70
     4
  0
LTYPE
  2
CONTINUOUS
 70
    64
  3
Solid line
 72
    65
 73
     0
 40
0.0
  0
LTYPE
  2
HIDDEN
 70
    64
  3
_ _ _ _ _ _ _ _ _ _ _ _ _ _ _ _ _ _ _ _ _ _ _
 72
    65
 73
     2
 40
0.375
 49
0.25
 49
-0.125
  0
LTYPE
  2
PHANTOM
 70
    64
  3
_____ _ _ _____ _ _ _____ _ _ _____ _ _ ____
 72
    65
 73
     6
 40
2.5
 49
1.25
 49
-0.25
 49
0.25
 49
-0.25
 49
0.25
 49
-0.25
  0
LTYPE
  2
CENTER
 70
    64
  3
____ _ ____ _ ____ _ ____ _ ____ _ ____ _ ____
 72
    65
 73
     4
 40
2.0
 49
1.25
 49
-0.25
 49
0.25
 49
-0.25
  0
ENDTAB
  0
TABLE
  2
LAYER
 70
    10
  0
LAYER
  2
0
 70
    64
 62
     7
  6
CONTINUOUS
  0
LAYER
  2
OBJECT
 70
    64
 62
     7
  6
CONTINUOUS
  0
LAYER
  2
DIM
 70
    64
 62
     7
  6
CONTINUOUS
  0
LAYER
  2
HIDDEN
 70
    64
 62
     7
  6
HIDDEN
  0
LAYER
  2
BEND
 70
    64
 62
     7
  6
PHANTOM
  0
LAYER
  2
TEXT
 70
    64
 62
     7
  6
CONTINUOUS
  0
LAYER
  2
TITLE
 70
    64
 62
     7
  6
CONTINUOUS
  0
LAYER
  2
CENTER
 70
    64
 62
     7
  6
CENTER
  0
LAYER
  2
DEFPOINTS
 70
    64
 62
     7
  6
CONTINUOUS
  0
LAYER
  2
T
 70
    64
 62
     7
  6
CONTINUOUS
  0
ENDTAB
  0
TABLE
  2
STYLE
 70
     2
  0
STYLE
  2
STANDARD
 70
    64
 40
0.0
 41
1.0
 50
0.0
 71
     0
 42
0.2
  3
txt
  4

  0
STYLE
  2
TXT
 70
    64
 40
0.0
 41
0.75
 50
0.0
 71
     0
 42
0.75
  3
txt
  4

  0
ENDTAB
  0
TABLE
  2
VIEW
 70
     0
  0
ENDTAB
  0
TABLE
  2
UCS
 70
     0
  0
ENDTAB
  0
TABLE
  2
APPID
 70
     1
  0
APPID
  2
ACAD
 70
    64
  0
ENDTAB
  0
TABLE
  2
DIMSTYLE
 70
     2
  0
DIMSTYLE
  2
23NSTD
 70
    64
  3

  4

  5

  6

  7

 40
6.0
 41
0.18
 42
0.063
 43
0.281
 44
0.093
 45
0.0
 46
0.0
 47
0.0
 48
0.0
140
0.125
141
0.09
142
0.0
143
25.4
144
1.0
145
0.0
146
1.0
147
0.09
 71
     0
 72
     0
 73
     1
 74
     1
 75
     0
 76
     0
 77
     0
 78
     0
170
     0
171
     2
172
     0
173
     0
174
     0
175
     0
176
     0
177
     0
178
     0
  0
DIMSTYLE
  2
23NSTDI
 70
    64
  3

  4

  5

  6

  7

 40
6.0
 41
0.18
 42
0.063
 43
0.281
 44
0.093
 45
0.0
 46
0.0
 47
0.0
 48
0.0
140
0.125
141
0.09
142
0.0
143
25.4
144
1.0
145
0.0
146
1.0
147
0.09
 71
     0
 72
     0
 73
     1
 74
     1
 75
     0
 76
     0
 77
     0
 78
     0
170
     0
171
     2
172
     0
173
     0
174
     1
175
     0
176
     0
177
     0
178
     0
  0
ENDTAB
  0
ENDSEC
  0
SECTION
  2
BLOCKS
  0
BLOCK
  8
0
  2
HBS
 70
    64
 10
0.0
 20
0.0
 30
0.0
  3
HBS
  0
LINE
  8
TITLE
 10
0.062
 20
9.64
 30
0.0
 11
15.438
 21
9.64
 31
0.0
  0
POLYLINE
  8
TITLE
 66
     1
 10
0.0
 20
0.0
 30
0.0
 70
     1
  0
VERTEX
  8
TITLE
 10
15.5
 20
10.12
 30
0.0
  0
VERTEX
  8
TITLE
 10
15.5
 20
0.0
 30
0.0
  0
VERTEX
  8
TITLE
 10
0.0
 20
0.0
 30
0.0
  0
VERTEX
  8
TITLE
 10
0.0
 20
10.12
 30
0.0
  0
SEQEND
  8
TITLE
  0
POLYLINE
  8
TITLE
 66
     1
 10
0.0
 20
0.0
 30
0.0
 70
     1
  0
VERTEX
  8
TITLE
 10
15.438
 20
10.058
 30
0.0
  0
VERTEX
  8
TITLE
 10
15.438
 20
0.062
 30
0.0
  0
VERTEX
  8
TITLE
 10
0.062
 20
0.062
 30
0.0
  0
VERTEX
  8
TITLE
 10
0.062
 20
10.058
 30
0.0
  0
SEQEND
  8
TITLE
  0
TEXT
  8
TEXT
 10
0.207833
 20
9.680079
 30
0.0
 40
0.125
  1
NAME
 72
     1
 11
0.437
 21
9.680079
 31
0.0
  0
TEXT
  8
TEXT
 10
0.207833
 20
9.888413
 30
0.0
 40
0.125
  1
PART
 72
     1
 11
0.437
 21
9.888413
 31
0.0
  0
LINE
  8
TITLE
 10
0.812
 20
9.64
 30
0.0
 11
0.812
 21
10.058
 31
0.0
  0
TEXT
  8
TEXT
 10
7.926833
 20
9.888413
 30
0.0
 40
0.125
  1
PART
 72
     1
 11
8.156
 21
9.888413
 31
0.0
  0
TEXT
  8
TEXT
 10
8.031
 20
9.680079
 30
0.0
 40
0.125
  1
No.
 72
     1
 11
8.156
 21
9.680079
 31
0.0
  0
LINE
  8
TITLE
 10
7.781
 20
10.058
 30
0.0
 11
7.781
 21
9.64
 31
0.0
  0
LINE
  8
TITLE
 10
7.719
 20
10.058
 30
0.0
 11
7.719
 21
9.64
 31
0.0
  0
LINE
  8
TITLE
 10
8.531
 20
10.058
 30
0.0
 11
8.531
 21
9.64
 31
0.0
  0
ENDBLK
  8
0
  0
BLOCK
  8
0
  2
*D1
 70
    65
 10
0.0
 20
0.0
 30
0.0
  3
*D
  0
LINE
  8
0
  6
BYBLOCK
 62
     0
 10
28.925933
 20
36.288397
 30
0.0
 11
28.925933
 21
38.006208
 31
0.0
  0
LINE
  8
0
  6
BYBLOCK
 62
     0
 10
38.237524
 20
36.288397
 30
0.0
 11
38.237524
 21
38.006208
 31
0.0
  0
LINE
  8
0
  6
BYBLOCK
 62
     0
 10
30.005933
 20
37.448208
 30
0.0
 11
32.010478
 21
37.448208
 31
0.0
  0
LINE
  8
0
  6
BYBLOCK
 62
     0
 10
37.157524
 20
37.448208
 30
0.0
 11
35.152978
 21
37.448208
 31
0.0
  0
SOLID
  8
0
  6
BYBLOCK
 62
     0
 10
30.005933
 20
37.628208
 30
0.0
 11
30.005933
 21
37.268208
 31
0.0
 12
28.925933
 22
37.448208
 32
0.0
 13
28.925933
 23
37.448208
 33
0.0
  0
SOLID
  8
0
  6
BYBLOCK
 62
     0
 10
37.157524
 20
37.628208
 30
0.0
 11
37.157524
 21
37.268208
 31
0.0
 12
38.237524
 22
37.448208
 32
0.0
 13
38.237524
 23
37.448208
 33
0.0
  0
TEXT
  8
0
  6
BYBLOCK
 62
     0
 10
32.550478
 20
37.073208
 30
0.0
 40
0.75
  1
9.312
 41
0.75
  7
TXT
 72
     1
 11
33.581728
 21
37.448208
 31
0.0
 73
     2
  0
POINT
  8
DEFPOINTS
  6
BYBLOCK
 62
     0
 10
28.925933
 20
35.910397
 30
0.0
  0
POINT
  8
DEFPOINTS
  6
BYBLOCK
 62
     0
 10
38.237524
 20
35.910397
 30
0.0
  0
POINT
  8
DEFPOINTS
  6
BYBLOCK
 62
     0
 10
38.237524
 20
37.448208
 30
0.0
  0
ENDBLK
  8
0
  0
BLOCK
  8
0
  2
*D2
 70
    65
 10
0.0
 20
0.0
 30
0.0
  3
*D
  0
LINE
  8
0
  6
BYBLOCK
 62
     0
 10
47.281686
 20
56.158321
 30
0.0
 11
45.331184
 21
56.158321
 31
0.0
  0
LINE
  8
0
  6
BYBLOCK
 62
     0
 10
47.281686
 20
47.908321
 30
0.0
 11
45.331184
 21
47.908321
 31
0.0
  0
LINE
  8
0
  6
BYBLOCK
 62
     0
 10
45.889184
 20
55.078321
 30
0.0
 11
45.889184
 21
52.948321
 31
0.0
  0
LINE
  8
0
  6
BYBLOCK
 62
     0
 10
45.889184
 20
48.988321
 30
0.0
 11
45.889184
 21
51.118321
 31
0.0
  0
SOLID
  8
0
  6
BYBLOCK
 62
     0
 10
45.709184
 20
55.078321
 30
0.0
 11
46.069184
 21
55.078321
 31
0.0
 12
45.889184
 22
56.158321
 32
0.0
 13
45.889184
 23
56.158321
 33
0.0
  0
SOLID
  8
0
  6
BYBLOCK
 62
     0
 10
45.709184
 20
48.988321
 30
0.0
 11
46.069184
 21
48.988321
 31
0.0
 12
45.889184
 22
47.908321
 32
0.0
 13
45.889184
 23
47.908321
 33
0.0
  0
TEXT
  8
0
  6
BYBLOCK
 62
     0
 10
44.811059
 20
51.658321
 30
0.0
 40
0.75
  1
8.250
 41
0.75
  7
TXT
 72
     1
 11
45.889184
 21
52.033321
 31
0.0
 73
     2
  0
POINT
  8
DEFPOINTS
  6
BYBLOCK
 62
     0
 10
47.659686
 20
56.158321
 30
0.0
  0
POINT
  8
DEFPOINTS
  6
BYBLOCK
 62
     0
 10
47.659686
 20
47.908321
 30
0.0
  0
POINT
  8
DEFPOINTS
  6
BYBLOCK
 62
     0
 10
45.889184
 20
47.908321
 30
0.0
  0
ENDBLK
  8
0
  0
BLOCK
  8
0
  2
*D3
 70
    65
 10
0.0
 20
0.0
 30
0.0
  3
*D
  0
LINE
  8
0
  6
BYBLOCK
 62
     0
 10
49.691686
 20
33.59066
 30
0.0
 11
49.691686
 21
32.52375
 31
0.0
  0
LINE
  8
0
  6
BYBLOCK
 62
     0
 10
67.627686
 20
33.59066
 30
0.0
 11
67.627686
 21
32.52375
 31
0.0
  0
LINE
  8
0
  6
BYBLOCK
 62
     0
 10
50.771686
 20
33.08175
 30
0.0
 11
56.807186
 21
33.08175
 31
0.0
  0
LINE
  8
0
  6
BYBLOCK
 62
     0
 10
66.547686
 20
33.08175
 30
0.0
 11
60.512186
 21
33.08175
 31
0.0
  0
SOLID
  8
0
  6
BYBLOCK
 62
     0
 10
50.771686
 20
33.26175
 30
0.0
 11
50.771686
 21
32.90175
 31
0.0
 12
49.691686
 22
33.08175
 32
0.0
 13
49.691686
 23
33.08175
 33
0.0
  0
SOLID
  8
0
  6
BYBLOCK
 62
     0
 10
66.547686
 20
33.26175
 30
0.0
 11
66.547686
 21
32.90175
 31
0.0
 12
67.627686
 22
33.08175
 32
0.0
 13
67.627686
 23
33.08175
 33
0.0
  0
TEXT
  8
0
  6
BYBLOCK
 62
     0
 10
57.347186
 20
32.70675
 30
0.0
 40
0.75
  1
17.937
 41
0.75
  7
TXT
 72
     1
 11
58.659686
 21
33.08175
 31
0.0
 73
     2
  0
POINT
  8
DEFPOINTS
  6
BYBLOCK
 62
     0
 10
49.691686
 20
33.96866
 30
0.0
  0
POINT
  8
DEFPOINTS
  6
BYBLOCK
 62
     0
 10
67.627686
 20
33.96866
 30
0.0
  0
POINT
  8
DEFPOINTS
  6
BYBLOCK
 62
     0
 10
67.627686
 20
33.08175
 30
0.0
  0
ENDBLK
  8
0
  0
BLOCK
  8
0
  2
*D4
 70
    65
 10
0.0
 20
0.0
 30
0.0
  3
*D
  0
LINE
  8
0
  6
BYBLOCK
 62
     0
 10
49.504686
 20
26.403513
 30
0.0
 11
49.504686
 21
25.403404
 31
0.0
  0
LINE
  8
0
  6
BYBLOCK
 62
     0
 10
67.814686
 20
26.403513
 30
0.0
 11
67.814686
 21
25.403404
 31
0.0
  0
LINE
  8
0
  6
BYBLOCK
 62
     0
 10
50.584686
 20
25.961404
 30
0.0
 11
56.900936
 21
25.961404
 31
0.0
  0
LINE
  8
0
  6
BYBLOCK
 62
     0
 10
66.734686
 20
25.961404
 30
0.0
 11
60.418436
 21
25.961404
 31
0.0
  0
SOLID
  8
0
  6
BYBLOCK
 62
     0
 10
50.584686
 20
26.141404
 30
0.0
 11
50.584686
 21
25.781404
 31
0.0
 12
49.504686
 22
25.961404
 32
0.0
 13
49.504686
 23
25.961404
 33
0.0
  0
SOLID
  8
0
  6
BYBLOCK
 62
     0
 10
66.734686
 20
26.141404
 30
0.0
 11
66.734686
 21
25.781404
 31
0.0
 12
67.814686
 22
25.961404
 32
0.0
 13
67.814686
 23
25.961404
 33
0.0
  0
TEXT
  8
0
  6
BYBLOCK
 62
     0
 10
57.440936
 20
25.586404
 30
0.0
 40
0.75
  1
18.312
 41
0.75
  7
TXT
 72
     1
 11
58.659686
 21
25.961404
 31
0.0
 73
     2
  0
POINT
  8
DEFPOINTS
  6
BYBLOCK
 62
     0
 10
49.504686
 20
26.781513
 30
0.0
  0
POINT
  8
DEFPOINTS
  6
BYBLOCK
 62
     0
 10
67.814686
 20
26.781513
 30
0.0
  0
POINT
  8
DEFPOINTS
  6
BYBLOCK
 62
     0
 10
67.814686
 20
25.961404
 30
0.0
  0
ENDBLK
  8
0
  0
BLOCK
  8
0
  2
*D5
 70
    65
 10
0.0
 20
0.0
 30
0.0
  3
*D
  0
LINE
  8
0
  6
BYBLOCK
 62
     0
 10
17.55358
 20
27.066397
 30
0.0
 11
16.622774
 21
27.066397
 31
0.0
  0
LINE
  8
0
  6
BYBLOCK
 62
     0
 10
17.55358
 20
24.566397
 30
0.0
 11
16.622774
 21
24.566397
 31
0.0
  0
LINE
  8
0
  6
BYBLOCK
 62
     0
 10
17.180774
 20
28.146397
 30
0.0
 11
17.180774
 21
29.226397
 31
0.0
  0
LINE
  8
0
  6
BYBLOCK
 62
     0
 10
17.180774
 20
23.486397
 30
0.0
 11
17.180774
 21
22.406397
 31
0.0
  0
SOLID
  8
0
  6
BYBLOCK
 62
     0
 10
17.000774
 20
28.146397
 30
0.0
 11
17.360774
 21
28.146397
 31
0.0
 12
17.180774
 22
27.066397
 32
0.0
 13
17.180774
 23
27.066397
 33
0.0
  0
SOLID
  8
0
  6
BYBLOCK
 62
     0
 10
17.000774
 20
23.486397
 30
0.0
 11
17.360774
 21
23.486397
 31
0.0
 12
17.180774
 22
24.566397
 32
0.0
 13
17.180774
 23
24.566397
 33
0.0
  0
TEXT
  8
0
  6
BYBLOCK
 62
     0
 10
16.993274
 20
25.441397
 30
0.0
 40
0.75
  1
 OPEN
 41
0.75
  7
TXT
 72
     1
 11
18.305774
 21
25.816397
 31
0.0
 73
     2
  0
TEXT
  8
0
  6
BYBLOCK
 62
     0
 10
14.743274
 20
25.441397
 30
0.0
 40
0.75
  1
2.500
 41
0.75
  7
TXT
 72
     1
 11
15.774524
 21
25.816397
 31
0.0
 73
     2
  0
POINT
  8
DEFPOINTS
  6
BYBLOCK
 62
     0
 10
17.93158
 20
27.066397
 30
0.0
  0
POINT
  8
DEFPOINTS
  6
BYBLOCK
 62
     0
 10
17.93158
 20
24.566397
 30
0.0
  0
POINT
  8
DEFPOINTS
  6
BYBLOCK
 62
     0
 10
17.180774
 20
24.566397
 30
0.0
  0
ENDBLK
  8
0
  0
BLOCK
  8
0
  2
*D6
 70
    65
 10
0.0
 20
0.0
 30
0.0
  3
*D
  0
LINE
  8
0
  6
BYBLOCK
 62
     0
 10
74.207439
 20
29.579348
 30
0.0
 11
74.207439
 21
33.348481
 31
0.0
  0
ARC
  8
0
  6
BYBLOCK
 62
     0
 10
74.207439
 20
29.201348
 30
0.0
 40
3.589132
 50
19.387007
 51
36.693504
  0
ARC
  8
0
  6
BYBLOCK
 62
     0
 10
74.207439
 20
29.201348
 30
0.0
 40
3.589132
 50
107.306496
 51
124.612993
  0
SOLID
  8
0
  6
BYBLOCK
 62
     0
 10
76.958854
 20
31.21793
 30
0.0
 11
77.211867
 21
31.474025
 31
0.0
 12
76.317078
 22
32.105017
 32
0.0
 13
76.317078
 23
32.105017
 33
0.0
  0
SOLID
  8
0
  6
BYBLOCK
 62
     0
 10
73.112651
 20
32.805941
 30
0.0
 11
73.166814
 21
32.450039
 31
0.0
 12
74.207439
 22
32.790481
 32
0.0
 13
74.207439
 23
32.790481
 33
0.0
  0
TEXT
  8
0
  6
BYBLOCK
 62
     0
 10
74.660292
 20
32.239816
 30
0.0
 40
0.75
  1
36%%d
 41
0.75
  7
TXT
 72
     1
 11
75.316542
 21
32.614816
 31
0.0
 73
     2
  0
POINT
  8
DEFPOINTS
  6
BYBLOCK
 62
     0
 10
75.690134
 20
32.469908
 30
0.0
  0
POINT
  8
DEFPOINTS
  6
BYBLOCK
 62
     0
 10
74.207439
 20
24.078513
 30
0.0
  0
POINT
  8
DEFPOINTS
  6
BYBLOCK
 62
     0
 10
74.362517
 20
29.414795
 30
0.0
  0
POINT
  8
DEFPOINTS
  6
BYBLOCK
 62
     0
 10
78.88141
 20
35.634518
 30
0.0
  0
POINT
  8
DEFPOINTS
  6
BYBLOCK
 62
     0
 10
74.207439
 20
28.937513
 30
0.0
  0
ENDBLK
  8
0
  0
BLOCK
  8
0
  2
*D7
 70
    65
 10
0.0
 20
0.0
 30
0.0
  3
*D
  0
LINE
  8
0
  6
BYBLOCK
 62
     0
 10
78.703848
 20
35.910397
 30
0.0
 11
75.266176
 21
35.910397
 31
0.0
  0
ARC
  8
0
  6
BYBLOCK
 62
     0
 10
79.081848
 20
35.910397
 30
0.0
 40
3.257672
 50
141.833859
 51
160.91693
  0
ARC
  8
0
  6
BYBLOCK
 62
     0
 10
79.081848
 20
35.910397
 30
0.0
 40
3.257672
 50
253.08307
 51
272.166141
  0
SOLID
  8
0
  6
BYBLOCK
 62
     0
 10
76.18071
 20
36.945619
 30
0.0
 11
75.82569
 21
37.005293
 31
0.0
 12
75.824176
 22
35.910397
 32
0.0
 13
75.824176
 23
35.910397
 33
0.0
  0
SOLID
  8
0
  6
BYBLOCK
 62
     0
 10
78.053716
 20
32.632546
 30
0.0
 11
78.214114
 21
32.954839
 31
0.0
 12
77.167037
 22
33.274885
 32
0.0
 13
77.167037
 23
33.274885
 33
0.0
  0
TEXT
  8
0
  6
BYBLOCK
 62
     0
 10
75.522991
 20
34.056445
 30
0.0
 40
0.75
  1
54%%d
 41
0.75
  7
TXT
 72
     1
 11
76.179241
 21
34.431445
 31
0.0
 73
     2
  0
POINT
  8
DEFPOINTS
  6
BYBLOCK
 62
     0
 10
76.184944
 20
34.420306
 30
0.0
  0
POINT
  8
DEFPOINTS
  6
BYBLOCK
 62
     0
 10
80.143439
 20
35.910397
 30
0.0
  0
POINT
  8
DEFPOINTS
  6
BYBLOCK
 62
     0
 10
74.362517
 20
29.414795
 30
0.0
  0
POINT
  8
DEFPOINTS
  6
BYBLOCK
 62
     0
 10
78.88141
 20
35.634518
 30
0.0
  0
POINT
  8
DEFPOINTS
  6
BYBLOCK
 62
     0
 10
79.456439
 20
35.910397
 30
0.0
  0
ENDBLK
  8
0
  0
BLOCK
  8
0
  2
*D8
 70
    65
 10
0.0
 20
0.0
 30
0.0
  3
*D
  0
LINE
  8
0
  6
BYBLOCK
 62
     0
 10
31.374715
 20
34.606276
 30
0.0
 11
29.531481
 21
34.606276
 31
0.0
  0
LINE
  8
0
  6
BYBLOCK
 62
     0
 10
31.405715
 20
30.496276
 30
0.0
 11
29.531481
 21
30.496276
 31
0.0
  0
LINE
  8
0
  6
BYBLOCK
 62
     0
 10
30.089481
 20
35.686276
 30
0.0
 11
30.089481
 21
36.766276
 31
0.0
  0
LINE
  8
0
  6
BYBLOCK
 62
     0
 10
30.089481
 20
29.416276
 30
0.0
 11
30.089481
 21
28.336276
 31
0.0
  0
SOLID
  8
0
  6
BYBLOCK
 62
     0
 10
29.909481
 20
35.686276
 30
0.0
 11
30.269481
 21
35.686276
 31
0.0
 12
30.089481
 22
34.606276
 32
0.0
 13
30.089481
 23
34.606276
 33
0.0
  0
SOLID
  8
0
  6
BYBLOCK
 62
     0
 10
29.909481
 20
29.416276
 30
0.0
 11
30.269481
 21
29.416276
 31
0.0
 12
30.089481
 22
30.496276
 32
0.0
 13
30.089481
 23
30.496276
 33
0.0
  0
TEXT
  8
0
  6
BYBLOCK
 62
     0
 10
29.198856
 20
32.176276
 30
0.0
 40
0.75
  1
4.110
 41
0.75
  7
TXT
 72
     1
 11
30.089481
 21
32.551276
 31
0.0
 73
     2
  0
POINT
  8
DEFPOINTS
  6
BYBLOCK
 62
     0
 10
31.752715
 20
34.606276
 30
0.0
  0
POINT
  8
DEFPOINTS
  6
BYBLOCK
 62
     0
 10
31.783715
 20
30.496276
 30
0.0
  0
POINT
  8
DEFPOINTS
  6
BYBLOCK
 62
     0
 10
30.089481
 20
30.496276
 30
0.0
  0
ENDBLK
  8
0
  0
BLOCK
  8
0
  2
*D9
 70
    65
 10
0.0
 20
0.0
 30
0.0
  3
*D
  0
LINE
  8
0
  6
BYBLOCK
 62
     0
 10
31.545715
 20
22.700276
 30
0.0
 11
25.601481
 21
22.700276
 31
0.0
  0
LINE
  8
0
  6
BYBLOCK
 62
     0
 10
31.374715
 20
34.606276
 30
0.0
 11
25.601481
 21
34.606276
 31
0.0
  0
LINE
  8
0
  6
BYBLOCK
 62
     0
 10
26.159481
 20
23.780276
 30
0.0
 11
26.159481
 21
27.738276
 31
0.0
  0
LINE
  8
0
  6
BYBLOCK
 62
     0
 10
26.159481
 20
33.526276
 30
0.0
 11
26.159481
 21
29.568276
 31
0.0
  0
SOLID
  8
0
  6
BYBLOCK
 62
     0
 10
25.979481
 20
23.780276
 30
0.0
 11
26.339481
 21
23.780276
 31
0.0
 12
26.159481
 22
22.700276
 32
0.0
 13
26.159481
 23
22.700276
 33
0.0
  0
SOLID
  8
0
  6
BYBLOCK
 62
     0
 10
25.979481
 20
33.526276
 30
0.0
 11
26.339481
 21
33.526276
 31
0.0
 12
26.159481
 22
34.606276
 32
0.0
 13
26.159481
 23
34.606276
 33
0.0
  0
TEXT
  8
0
  6
BYBLOCK
 62
     0
 10
25.971981
 20
28.278276
 30
0.0
 40
0.75
  1
A
 41
0.75
  7
TXT
 72
     1
 11
26.159481
 21
28.653276
 31
0.0
 73
     2
  0
POINT
  8
DEFPOINTS
  6
BYBLOCK
 62
     0
 10
31.923715
 20
22.700276
 30
0.0
  0
POINT
  8
DEFPOINTS
  6
BYBLOCK
 62
     0
 10
31.752715
 20
34.606276
 30
0.0
  0
POINT
  8
DEFPOINTS
  6
BYBLOCK
 62
     0
 10
26.159481
 20
34.606276
 30
0.0
  0
ENDBLK
  8
0
  0
BLOCK
  8
0
  2
*D10
 70
    65
 10
0.0
 20
0.0
 30
0.0
  3
*D
  0
LINE
  8
0
  6
BYBLOCK
 62
     0
 10
31.752715
 20
22.384276
 30
0.0
 11
31.752715
 21
20.839572
 31
0.0
  0
LINE
  8
0
  6
BYBLOCK
 62
     0
 10
45.938715
 20
22.396392
 30
0.0
 11
45.938715
 21
20.839572
 31
0.0
  0
LINE
  8
0
  6
BYBLOCK
 62
     0
 10
32.832715
 20
21.397572
 30
0.0
 11
38.118215
 21
21.397572
 31
0.0
  0
LINE
  8
0
  6
BYBLOCK
 62
     0
 10
44.858715
 20
21.397572
 30
0.0
 11
39.573215
 21
21.397572
 31
0.0
  0
SOLID
  8
0
  6
BYBLOCK
 62
     0
 10
32.832715
 20
21.577572
 30
0.0
 11
32.832715
 21
21.217572
 31
0.0
 12
31.752715
 22
21.397572
 32
0.0
 13
31.752715
 23
21.397572
 33
0.0
  0
SOLID
  8
0
  6
BYBLOCK
 62
     0
 10
44.858715
 20
21.577572
 30
0.0
 11
44.858715
 21
21.217572
 31
0.0
 12
45.938715
 22
21.397572
 32
0.0
 13
45.938715
 23
21.397572
 33
0.0
  0
TEXT
  8
0
  6
BYBLOCK
 62
     0
 10
38.658215
 20
21.022572
 30
0.0
 40
0.75
  1
B
 41
0.75
  7
TXT
 72
     1
 11
38.845715
 21
21.397572
 31
0.0
 73
     2
  0
POINT
  8
DEFPOINTS
  6
BYBLOCK
 62
     0
 10
31.752715
 20
22.762276
 30
0.0
  0
POINT
  8
DEFPOINTS
  6
BYBLOCK
 62
     0
 10
45.938715
 20
22.774392
 30
0.0
  0
POINT
  8
DEFPOINTS
  6
BYBLOCK
 62
     0
 10
45.938715
 20
21.397572
 30
0.0
  0
ENDBLK
  8
0
  0
BLOCK
  8
0
  2
*D11
 70
    65
 10
0.0
 20
0.0
 30
0.0
  3
*D
  0
LINE
  8
0
  6
BYBLOCK
 62
     0
 10
31.374715
 20
34.606276
 30
0.0
 11
27.287481
 21
34.606276
 31
0.0
  0
LINE
  8
0
  6
BYBLOCK
 62
     0
 10
36.766715
 20
29.606276
 30
0.0
 11
27.287481
 21
29.606276
 31
0.0
  0
LINE
  8
0
  6
BYBLOCK
 62
     0
 10
27.845481
 20
35.686276
 30
0.0
 11
27.845481
 21
36.766276
 31
0.0
  0
LINE
  8
0
  6
BYBLOCK
 62
     0
 10
27.845481
 20
28.526276
 30
0.0
 11
27.845481
 21
27.446276
 31
0.0
  0
SOLID
  8
0
  6
BYBLOCK
 62
     0
 10
27.665481
 20
35.686276
 30
0.0
 11
28.025481
 21
35.686276
 31
0.0
 12
27.845481
 22
34.606276
 32
0.0
 13
27.845481
 23
34.606276
 33
0.0
  0
SOLID
  8
0
  6
BYBLOCK
 62
     0
 10
27.665481
 20
28.526276
 30
0.0
 11
28.025481
 21
28.526276
 31
0.0
 12
27.845481
 22
29.606276
 32
0.0
 13
27.845481
 23
29.606276
 33
0.0
  0
TEXT
  8
0
  6
BYBLOCK
 62
     0
 10
27.657981
 20
31.731276
 30
0.0
 40
0.75
  1
C
 41
0.75
  7
TXT
 72
     1
 11
27.845481
 21
32.106276
 31
0.0
 73
     2
  0
POINT
  8
DEFPOINTS
  6
BYBLOCK
 62
     0
 10
31.752715
 20
34.606276
 30
0.0
  0
POINT
  8
DEFPOINTS
  6
BYBLOCK
 62
     0
 10
37.144715
 20
29.606276
 30
0.0
  0
POINT
  8
DEFPOINTS
  6
BYBLOCK
 62
     0
 10
27.845481
 20
29.606276
 30
0.0
  0
ENDBLK
  8
0
  0
BLOCK
  8
0
  2
*D12
 70
    65
 10
0.0
 20
0.0
 30
0.0
  3
*D
  0
LINE
  8
0
  6
BYBLOCK
 62
     0
 10
46.285715
 20
23.449776
 30
0.0
 11
48.014305
 21
23.449776
 31
0.0
  0
LINE
  8
0
  6
BYBLOCK
 62
     0
 10
45.160715
 20
26.949776
 30
0.0
 11
48.014305
 21
26.949776
 31
0.0
  0
LINE
  8
0
  6
BYBLOCK
 62
     0
 10
47.456305
 20
22.369776
 30
0.0
 11
47.456305
 21
21.289776
 31
0.0
  0
LINE
  8
0
  6
BYBLOCK
 62
     0
 10
47.456305
 20
28.029776
 30
0.0
 11
47.456305
 21
29.109776
 31
0.0
  0
SOLID
  8
0
  6
BYBLOCK
 62
     0
 10
47.276305
 20
22.369776
 30
0.0
 11
47.636305
 21
22.369776
 31
0.0
 12
47.456305
 22
23.449776
 32
0.0
 13
47.456305
 23
23.449776
 33
0.0
  0
SOLID
  8
0
  6
BYBLOCK
 62
     0
 10
47.276305
 20
28.029776
 30
0.0
 11
47.636305
 21
28.029776
 31
0.0
 12
47.456305
 22
26.949776
 32
0.0
 13
47.456305
 23
26.949776
 33
0.0
  0
TEXT
  8
0
  6
BYBLOCK
 62
     0
 10
47.268805
 20
24.824776
 30
0.0
 40
0.75
  1
D
 41
0.75
  7
TXT
 72
     1
 11
47.456305
 21
25.199776
 31
0.0
 73
     2
  0
POINT
  8
DEFPOINTS
  6
BYBLOCK
 62
     0
 10
45.907715
 20
23.449776
 30
0.0
  0
POINT
  8
DEFPOINTS
  6
BYBLOCK
 62
     0
 10
44.782715
 20
26.949776
 30
0.0
  0
POINT
  8
DEFPOINTS
  6
BYBLOCK
 62
     0
 10
47.456305
 20
26.949776
 30
0.0
  0
ENDBLK
  8
0
  0
BLOCK
  8
0
  2
*D13
 70
    65
 10
0.0
 20
0.0
 30
0.0
  3
*D
  0
LINE
  8
0
  6
BYBLOCK
 62
     0
 10
41.570552
 20
34.552579
 30
0.0
 11
43.208758
 21
35.742806
 31
0.0
  0
LINE
  8
0
  6
BYBLOCK
 62
     0
 10
44.749825
 20
28.209981
 30
0.0
 11
47.323255
 21
30.079687
 31
0.0
  0
LINE
  8
0
  6
BYBLOCK
 62
     0
 10
43.392135
 20
34.541083
 30
0.0
 11
44.149789
 21
33.498262
 31
0.0
  0
LINE
  8
0
  6
BYBLOCK
 62
     0
 10
46.237016
 20
30.625441
 30
0.0
 11
45.479362
 21
31.668262
 31
0.0
  0
SOLID
  8
0
  6
BYBLOCK
 62
     0
 10
43.537758
 20
34.646885
 30
0.0
 11
43.246512
 21
34.435282
 31
0.0
 12
42.757327
 22
35.414822
 32
0.0
 13
42.757327
 23
35.414822
 33
0.0
  0
SOLID
  8
0
  6
BYBLOCK
 62
     0
 10
46.382639
 20
30.731243
 30
0.0
 11
46.091393
 21
30.51964
 31
0.0
 12
46.871824
 22
29.751703
 32
0.0
 13
46.871824
 23
29.751703
 33
0.0
  0
TEXT
  8
0
  6
BYBLOCK
 62
     0
 10
44.627075
 20
32.208262
 30
0.0
 40
0.75
  1
E
 41
0.75
  7
TXT
 72
     1
 11
44.814575
 21
32.583262
 31
0.0
 73
     2
  0
POINT
  8
DEFPOINTS
  6
BYBLOCK
 62
     0
 10
41.264743
 20
34.330396
 30
0.0
  0
POINT
  8
DEFPOINTS
  6
BYBLOCK
 62
     0
 10
44.444016
 20
27.987798
 30
0.0
  0
POINT
  8
DEFPOINTS
  6
BYBLOCK
 62
     0
 10
46.871824
 20
29.751703
 30
0.0
  0
ENDBLK
  8
0
  0
BLOCK
  8
0
  2
*D14
 70
    65
 10
0.0
 20
0.0
 30
0.0
  3
*D
  0
LINE
  8
0
  6
BYBLOCK
 62
     0
 10
23.517926
 20
34.984276
 30
0.0
 11
23.517926
 21
36.702087
 31
0.0
  0
LINE
  8
0
  6
BYBLOCK
 62
     0
 10
22.205926
 20
30.421776
 30
0.0
 11
22.205926
 21
36.702087
 31
0.0
  0
LINE
  8
0
  6
BYBLOCK
 62
     0
 10
24.597926
 20
36.144087
 30
0.0
 11
25.677926
 21
36.144087
 31
0.0
  0
LINE
  8
0
  6
BYBLOCK
 62
     0
 10
21.125926
 20
36.144087
 30
0.0
 11
20.045926
 21
36.144087
 31
0.0
  0
SOLID
  8
0
  6
BYBLOCK
 62
     0
 10
24.597926
 20
36.324087
 30
0.0
 11
24.597926
 21
35.964087
 31
0.0
 12
23.517926
 22
36.144087
 32
0.0
 13
23.517926
 23
36.144087
 33
0.0
  0
SOLID
  8
0
  6
BYBLOCK
 62
     0
 10
21.125926
 20
36.324087
 30
0.0
 11
21.125926
 21
35.964087
 31
0.0
 12
22.205926
 22
36.144087
 32
0.0
 13
22.205926
 23
36.144087
 33
0.0
  0
TEXT
  8
0
  6
BYBLOCK
 62
     0
 10
17.630926
 20
35.769087
 30
0.0
 40
0.75
  1
1.312
 41
0.75
  7
TXT
 72
     1
 11
18.568426
 21
36.144087
 31
0.0
 73
     2
  0
POINT
  8
DEFPOINTS
  6
BYBLOCK
 62
     0
 10
23.517926
 20
34.606276
 30
0.0
  0
POINT
  8
DEFPOINTS
  6
BYBLOCK
 62
     0
 10
22.205926
 20
30.043776
 30
0.0
  0
POINT
  8
DEFPOINTS
  6
BYBLOCK
 62
     0
 10
22.205926
 20
36.144087
 30
0.0
  0
ENDBLK
  8
0
  0
BLOCK
  8
0
  2
*D15
 70
    65
 10
0.0
 20
0.0
 30
0.0
  3
*D
  0
LINE
  8
0
  6
BYBLOCK
 62
     0
 10
51.6293
 20
34.708396
 30
0.0
 11
51.6293
 21
36.702087
 31
0.0
  0
LINE
  8
0
  6
BYBLOCK
 62
     0
 10
70.6913
 20
34.708396
 30
0.0
 11
70.6913
 21
36.702087
 31
0.0
  0
LINE
  8
0
  6
BYBLOCK
 62
     0
 10
52.7093
 20
36.144087
 30
0.0
 11
59.354675
 21
36.144087
 31
0.0
  0
LINE
  8
0
  6
BYBLOCK
 62
     0
 10
69.6113
 20
36.144087
 30
0.0
 11
62.965925
 21
36.144087
 31
0.0
  0
SOLID
  8
0
  6
BYBLOCK
 62
     0
 10
52.7093
 20
36.324087
 30
0.0
 11
52.7093
 21
35.964087
 31
0.0
 12
51.6293
 22
36.144087
 32
0.0
 13
51.6293
 23
36.144087
 33
0.0
  0
SOLID
  8
0
  6
BYBLOCK
 62
     0
 10
69.6113
 20
36.324087
 30
0.0
 11
69.6113
 21
35.964087
 31
0.0
 12
70.6913
 22
36.144087
 32
0.0
 13
70.6913
 23
36.144087
 33
0.0
  0
TEXT
  8
0
  6
BYBLOCK
 62
     0
 10
59.894675
 20
35.769087
 30
0.0
 40
0.75
  1
19.062
 41
0.75
  7
TXT
 72
     1
 11
61.1603
 21
36.144087
 31
0.0
 73
     2
  0
POINT
  8
DEFPOINTS
  6
BYBLOCK
 62
     0
 10
51.6293
 20
34.330396
 30
0.0
  0
POINT
  8
DEFPOINTS
  6
BYBLOCK
 62
     0
 10
70.6913
 20
34.330396
 30
0.0
  0
POINT
  8
DEFPOINTS
  6
BYBLOCK
 62
     0
 10
70.6913
 20
36.144087
 30
0.0
  0
ENDBLK
  8
0
  0
BLOCK
  8
0
  2
*D16
 70
    65
 10
0.0
 20
0.0
 30
0.0
  3
*D
  0
LINE
  8
0
  6
BYBLOCK
 62
     0
 10
51.6293
 20
34.708396
 30
0.0
 11
51.6293
 21
36.702087
 31
0.0
  0
LINE
  8
0
  6
BYBLOCK
 62
     0
 10
50.1603
 20
34.984276
 30
0.0
 11
50.1603
 21
36.702087
 31
0.0
  0
LINE
  8
0
  6
BYBLOCK
 62
     0
 10
52.7093
 20
36.144087
 30
0.0
 11
53.7893
 21
36.144087
 31
0.0
  0
LINE
  8
0
  6
BYBLOCK
 62
     0
 10
49.0803
 20
36.144087
 30
0.0
 11
48.0003
 21
36.144087
 31
0.0
  0
SOLID
  8
0
  6
BYBLOCK
 62
     0
 10
52.7093
 20
36.324087
 30
0.0
 11
52.7093
 21
35.964087
 31
0.0
 12
51.6293
 22
36.144087
 32
0.0
 13
51.6293
 23
36.144087
 33
0.0
  0
SOLID
  8
0
  6
BYBLOCK
 62
     0
 10
49.0803
 20
36.324087
 30
0.0
 11
49.0803
 21
35.964087
 31
0.0
 12
50.1603
 22
36.144087
 32
0.0
 13
50.1603
 23
36.144087
 33
0.0
  0
TEXT
  8
0
  6
BYBLOCK
 62
     0
 10
45.3978
 20
35.769087
 30
0.0
 40
0.75
  1
1.469
 41
0.75
  7
TXT
 72
     1
 11
46.42905
 21
36.144087
 31
0.0
 73
     2
  0
POINT
  8
DEFPOINTS
  6
BYBLOCK
 62
     0
 10
51.6293
 20
34.330396
 30
0.0
  0
POINT
  8
DEFPOINTS
  6
BYBLOCK
 62
     0
 10
50.1603
 20
34.606276
 30
0.0
  0
POINT
  8
DEFPOINTS
  6
BYBLOCK
 62
     0
 10
50.1603
 20
36.144087
 30
0.0
  0
ENDBLK
  8
0
  0
BLOCK
  8
0
  2
*D17
 70
    65
 10
0.0
 20
0.0
 30
0.0
  3
*D
  0
LINE
  8
0
  6
BYBLOCK
 62
     0
 10
50.1603
 20
34.984276
 30
0.0
 11
50.1603
 21
38.388087
 31
0.0
  0
LINE
  8
0
  6
BYBLOCK
 62
     0
 10
72.1603
 20
34.984276
 30
0.0
 11
72.1603
 21
38.388087
 31
0.0
  0
LINE
  8
0
  6
BYBLOCK
 62
     0
 10
51.2403
 20
37.830087
 30
0.0
 11
59.354675
 21
37.830087
 31
0.0
  0
LINE
  8
0
  6
BYBLOCK
 62
     0
 10
71.0803
 20
37.830087
 30
0.0
 11
62.965925
 21
37.830087
 31
0.0
  0
SOLID
  8
0
  6
BYBLOCK
 62
     0
 10
51.2403
 20
38.010087
 30
0.0
 11
51.2403
 21
37.650087
 31
0.0
 12
50.1603
 22
37.830087
 32
0.0
 13
50.1603
 23
37.830087
 33
0.0
  0
SOLID
  8
0
  6
BYBLOCK
 62
     0
 10
71.0803
 20
38.010087
 30
0.0
 11
71.0803
 21
37.650087
 31
0.0
 12
72.1603
 22
37.830087
 32
0.0
 13
72.1603
 23
37.830087
 33
0.0
  0
TEXT
  8
0
  6
BYBLOCK
 62
     0
 10
59.894675
 20
37.455087
 30
0.0
 40
0.75
  1
22.000
 41
0.75
  7
TXT
 72
     1
 11
61.1603
 21
37.830087
 31
0.0
 73
     2
  0
POINT
  8
DEFPOINTS
  6
BYBLOCK
 62
     0
 10
50.1603
 20
34.606276
 30
0.0
  0
POINT
  8
DEFPOINTS
  6
BYBLOCK
 62
     0
 10
72.1603
 20
34.606276
 30
0.0
  0
POINT
  8
DEFPOINTS
  6
BYBLOCK
 62
     0
 10
72.1603
 20
37.830087
 30
0.0
  0
ENDBLK
  8
0
  0
BLOCK
  8
0
  2
*D18
 70
    65
 10
0.0
 20
0.0
 30
0.0
  3
*D
  0
LINE
  8
0
  6
BYBLOCK
 62
     0
 10
70.1913
 20
54.7012
 30
0.0
 11
70.1913
 21
56.807728
 31
0.0
  0
LINE
  8
0
  6
BYBLOCK
 62
     0
 10
52.1293
 20
54.7012
 30
0.0
 11
52.1293
 21
56.807728
 31
0.0
  0
LINE
  8
0
  6
BYBLOCK
 62
     0
 10
69.1113
 20
56.249728
 30
0.0
 11
62.965925
 21
56.249728
 31
0.0
  0
LINE
  8
0
  6
BYBLOCK
 62
     0
 10
53.2093
 20
56.249728
 30
0.0
 11
59.354675
 21
56.249728
 31
0.0
  0
SOLID
  8
0
  6
BYBLOCK
 62
     0
 10
69.1113
 20
56.429728
 30
0.0
 11
69.1113
 21
56.069728
 31
0.0
 12
70.1913
 22
56.249728
 32
0.0
 13
70.1913
 23
56.249728
 33
0.0
  0
SOLID
  8
0
  6
BYBLOCK
 62
     0
 10
53.2093
 20
56.429728
 30
0.0
 11
53.2093
 21
56.069728
 31
0.0
 12
52.1293
 22
56.249728
 32
0.0
 13
52.1293
 23
56.249728
 33
0.0
  0
TEXT
  8
0
  6
BYBLOCK
 62
     0
 10
59.894675
 20
55.874728
 30
0.0
 40
0.75
  1
18.062
 41
0.75
  7
TXT
 72
     1
 11
61.1603
 21
56.249728
 31
0.0
 73
     2
  0
POINT
  8
DEFPOINTS
  6
BYBLOCK
 62
     0
 10
70.1913
 20
54.3232
 30
0.0
  0
POINT
  8
DEFPOINTS
  6
BYBLOCK
 62
     0
 10
52.1293
 20
54.3232
 30
0.0
  0
POINT
  8
DEFPOINTS
  6
BYBLOCK
 62
     0
 10
52.1293
 20
56.249728
 30
0.0
  0
ENDBLK
  8
0
  0
BLOCK
  8
0
  2
*D19
 70
    65
 10
0.0
 20
0.0
 30
0.0
  3
*D
  0
LINE
  8
0
  6
BYBLOCK
 62
     0
 10
75.077218
 20
22.236301
 30
0.0
 11
75.077218
 21
23.138792
 31
0.0
  0
LINE
  8
0
  6
BYBLOCK
 62
     0
 10
76.233218
 20
22.236301
 30
0.0
 11
76.233218
 21
23.138792
 31
0.0
  0
LINE
  8
0
  6
BYBLOCK
 62
     0
 10
73.997218
 20
22.580792
 30
0.0
 11
72.917218
 21
22.580792
 31
0.0
  0
LINE
  8
0
  6
BYBLOCK
 62
     0
 10
77.313218
 20
22.580792
 30
0.0
 11
78.393218
 21
22.580792
 31
0.0
  0
SOLID
  8
0
  6
BYBLOCK
 62
     0
 10
73.997218
 20
22.760792
 30
0.0
 11
73.997218
 21
22.400792
 31
0.0
 12
75.077218
 22
22.580792
 32
0.0
 13
75.077218
 23
22.580792
 33
0.0
  0
SOLID
  8
0
  6
BYBLOCK
 62
     0
 10
77.313218
 20
22.760792
 30
0.0
 11
77.313218
 21
22.400792
 31
0.0
 12
76.233218
 22
22.580792
 32
0.0
 13
76.233218
 23
22.580792
 33
0.0
  0
TEXT
  8
0
  6
BYBLOCK
 62
     0
 10
78.933218
 20
22.205792
 30
0.0
 40
0.75
  1
1.156
 41
0.75
  7
TXT
 72
     1
 11
79.870718
 21
22.580792
 31
0.0
 73
     2
  0
POINT
  8
DEFPOINTS
  6
BYBLOCK
 62
     0
 10
75.077218
 20
21.858301
 30
0.0
  0
POINT
  8
DEFPOINTS
  6
BYBLOCK
 62
     0
 10
76.233218
 20
21.858301
 30
0.0
  0
POINT
  8
DEFPOINTS
  6
BYBLOCK
 62
     0
 10
76.233218
 20
22.580792
 30
0.0
  0
ENDBLK
  8
0
  0
BLOCK
  8
0
  2
POCKET
 70
     0
 10
0.0
 20
0.0
 30
0.0
  3
POCKET
  0
LINE
  8
CENTER
 10
-34.652736
 20
0.0
 30
0.0
 11
2.638
 21
0.0
 31
0.0
  0
LINE
  8
OBJECT
 10
2.638
 20
0.7
 30
0.0
 11
-2.638
 21
0.7
 31
0.0
  0
LINE
  8
OBJECT
 10
2.578
 20
0.578
 30
0.0
 11
-2.578
 21
0.578
 31
0.0
  0
LINE
  8
OBJECT
 10
2.578
 20
0.079904
 30
0.0
 11
-2.578
 21
0.079904
 31
0.0
  0
LINE
  8
OBJECT
 10
-2.638
 20
-0.7
 30
0.0
 11
2.638
 21
-0.7
 31
0.0
  0
LINE
  8
OBJECT
 10
-2.578
 20
-0.578
 30
0.0
 11
2.578
 21
-0.578
 31
0.0
  0
LINE
  8
OBJECT
 10
-2.578
 20
0.578
 30
0.0
 11
-2.578
 21
-0.578
 31
0.0
  0
LINE
  8
OBJECT
 10
-2.7
 20
0.638
 30
0.0
 11
-2.7
 21
-0.638
 31
0.0
  0
ARC
  8
OBJECT
 10
-2.638
 20
-0.638
 30
0.0
 40
0.062
 50
180.0
 51
270.0
  0
ARC
  8
OBJECT
 10
-2.638
 20
0.638
 30
0.0
 40
0.062
 50
90.0
 51
180.0
  0
LINE
  8
CENTER
 10
0.0
 20
-0.638
 30
0.0
 11
0.0
 21
0.638
 31
0.0
  0
LINE
  8
CENTER
 10
0.0
 20
-0.09
 30
0.0
 11
0.0
 21
0.09
 31
0.0
  0
LINE
  8
CENTER
 10
0.09
 20
0.0
 30
0.0
 11
-0.09
 21
0.0
 31
0.0
  0
LINE
  8
OBJECT
 10
2.578
 20
-0.578
 30
0.0
 11
2.578
 21
0.578
 31
0.0
  0
LINE
  8
OBJECT
 10
2.7
 20
-0.638
 30
0.0
 11
2.7
 21
0.638
 31
0.0
  0
ARC
  8
OBJECT
 10
2.638
 20
-0.638
 30
0.0
 40
0.062
 50
270.0
 51
0.0
  0
ARC
  8
OBJECT
 10
2.638
 20
0.638
 30
0.0
 40
0.062
 50
0.0
 51
90.0
  0
LINE
  8
CENTER
 10
-11.935581
 20
0.0
 30
0.0
 11
-10.985708
 21
0.0
 31
0.0
  0
LINE
  8
OBJECT
 10
-11.498896
 20
-1.165711
 30
0.0
 11
-11.498896
 21
0.172289
 31
0.0
  0
LINE
  8
HIDDEN
 10
-12.226896
 20
0.182119
 30
0.0
 11
-12.226896
 21
-0.445706
 31
0.0
  0
LINE
  8
HIDDEN
 10
-12.156896
 20
0.182119
 30
0.0
 11
-12.156896
 21
-0.416711
 31
0.0
  0
LINE
  8
OBJECT
 10
-11.576896
 20
0.203289
 30
0.0
 11
-11.576896
 21
-1.196711
 31
0.0
  0
LINE
  8
HIDDEN
 10
-12.174756
 20
-0.947522
 30
0.0
 11
-12.174756
 21
-0.497847
 31
0.0
  0
LINE
  8
HIDDEN
 10
-11.671494
 20
-1.067956
 30
0.0
 11
-11.909668
 21
-0.975418
 31
0.0
  0
LINE
  8
OBJECT
 10
-11.529896
 20
-1.196711
 30
0.0
 11
-11.576896
 21
-1.196711
 31
0.0
  0
LINE
  8
HIDDEN
 10
-11.646896
 20
-1.134332
 30
0.0
 11
-11.653643
 21
-1.138055
 31
0.0
  0
LINE
  8
HIDDEN
 10
-11.646896
 20
-1.054382
 30
0.0
 11
-11.671494
 21
-1.067956
 31
0.0
  0
ARC
  8
OBJECT
 10
-11.66862
 20
-1.110913
 30
0.0
 40
0.031
 50
248.767442
 51
298.889683
  0
LINE
  8
HIDDEN
 10
-11.646896
 20
-1.025706
 30
0.0
 11
-11.646896
 21
-1.134332
 31
0.0
  0
LINE
  8
HIDDEN
 10
-11.646896
 20
-1.134332
 30
0.0
 11
-11.576896
 21
-1.134332
 31
0.0
  0
LINE
  8
HIDDEN
 10
-11.927301
 20
-1.043665
 30
0.0
 11
-11.866041
 21
-0.806561
 31
0.0
  0
LINE
  8
HIDDEN
 10
-11.576896
 20
-1.095706
 30
0.0
 11
-12.226896
 21
-0.445706
 31
0.0
  0
LINE
  8
HIDDEN
 10
-11.679847
 20
-1.139808
 30
0.0
 11
-12.174756
 21
-0.947522
 31
0.0
  0
LINE
  8
HIDDEN
 10
-11.576896
 20
-0.996711
 30
0.0
 11
-12.156896
 21
-0.416711
 31
0.0
  0
LINE
  8
HIDDEN
 10
-11.909668
 20
-0.975418
 30
0.0
 11
-12.174756
 21
-0.873377
 31
0.0
  0
ARC
  8
OBJECT
 10
-11.529896
 20
-1.165711
 30
0.0
 40
0.031
 50
270.0
 51
0.0
  0
LINE
  8
HIDDEN
 10
-11.669896
 20
-1.0465
 30
0.0
 11
-11.638896
 21
-1.0465
 31
0.0
  0
LINE
  8
HIDDEN
 10
-11.700906
 20
0.325289
 30
0.0
 11
-11.799901
 21
0.325289
 31
0.0
  0
LINE
  8
HIDDEN
 10
-11.646896
 20
0.271279
 30
0.0
 11
-11.646896
 21
0.172284
 31
0.0
  0
LINE
  8
HIDDEN
 10
-11.576896
 20
0.08
 30
0.0
 11
-11.653608
 21
0.08
 31
0.0
  0
LINE
  8
OBJECT
 10
-11.576896
 20
0.203289
 30
0.0
 11
-11.529896
 21
0.203289
 31
0.0
  0
LINE
  8
HIDDEN
 10
-11.576896
 20
0.15
 30
0.0
 11
-11.624613
 21
0.15
 31
0.0
  0
ARC
  8
HIDDEN
 10
-11.990726
 20
0.182119
 30
0.0
 40
0.23617
 50
45.0
 51
180.0
  0
ARC
  8
HIDDEN
 10
-11.990726
 20
0.182119
 30
0.0
 40
0.16617
 50
45.0
 51
180.0
  0
LINE
  8
HIDDEN
 10
-11.653608
 20
0.08
 30
0.0
 11
-11.873226
 21
0.299619
 31
0.0
  0
LINE
  8
HIDDEN
 10
-11.646896
 20
0.271279
 30
0.0
 11
-11.700906
 21
0.325289
 31
0.0
  0
LINE
  8
HIDDEN
 10
-11.624613
 20
0.15
 30
0.0
 11
-11.823729
 21
0.349116
 31
0.0
  0
ARC
  8
OBJECT
 10
-11.529896
 20
0.172289
 30
0.0
 40
0.031
 50
0.0
 51
90.0
  0
LINE
  8
CENTER
 10
-33.218211
 20
0.0
 30
0.0
 11
-34.168085
 21
0.0
 31
0.0
  0
LINE
  8
HIDDEN
 10
-32.926896
 20
0.182119
 30
0.0
 11
-32.926896
 21
-0.445706
 31
0.0
  0
LINE
  8
HIDDEN
 10
-32.996896
 20
0.182119
 30
0.0
 11
-32.996896
 21
-0.416711
 31
0.0
  0
LINE
  8
OBJECT
 10
-33.576896
 20
0.203289
 30
0.0
 11
-33.576896
 21
-1.196711
 31
0.0
  0
LINE
  8
OBJECT
 10
-33.654896
 20
-1.165711
 30
0.0
 11
-33.654896
 21
0.172289
 31
0.0
  0
LINE
  8
HIDDEN
 10
-33.244124
 20
-0.975418
 30
0.0
 11
-32.979036
 21
-0.873377
 31
0.0
  0
LINE
  8
HIDDEN
 10
-33.473946
 20
-1.139808
 30
0.0
 11
-32.979036
 21
-0.947522
 31
0.0
  0
LINE
  8
HIDDEN
 10
-33.576896
 20
-1.095706
 30
0.0
 11
-32.926896
 21
-0.445706
 31
0.0
  0
LINE
  8
HIDDEN
 10
-33.576896
 20
-0.996711
 30
0.0
 11
-32.996896
 21
-0.416711
 31
0.0
  0
LINE
  8
HIDDEN
 10
-33.226491
 20
-1.043665
 30
0.0
 11
-33.287751
 21
-0.806561
 31
0.0
  0
LINE
  8
HIDDEN
 10
-33.506896
 20
-1.134332
 30
0.0
 11
-33.50015
 21
-1.138055
 31
0.0
  0
ARC
  8
OBJECT
 10
-33.485173
 20
-1.110913
 30
0.0
 40
0.031
 50
241.110317
 51
291.232558
  0
LINE
  8
HIDDEN
 10
-33.506896
 20
-1.054382
 30
0.0
 11
-33.482298
 21
-1.067956
 31
0.0
  0
LINE
  8
HIDDEN
 10
-33.506896
 20
-1.025706
 30
0.0
 11
-33.506896
 21
-1.134332
 31
0.0
  0
LINE
  8
HIDDEN
 10
-33.482298
 20
-1.067956
 30
0.0
 11
-33.244124
 21
-0.975418
 31
0.0
  0
LINE
  8
OBJECT
 10
-33.623896
 20
-1.196711
 30
0.0
 11
-33.576896
 21
-1.196711
 31
0.0
  0
ARC
  8
OBJECT
 10
-33.623896
 20
-1.165711
 30
0.0
 40
0.031
 50
180.0
 51
270.0
  0
LINE
  8
HIDDEN
 10
-33.506896
 20
-1.134332
 30
0.0
 11
-33.576896
 21
-1.134332
 31
0.0
  0
LINE
  8
HIDDEN
 10
-33.483896
 20
-1.0465
 30
0.0
 11
-33.514896
 21
-1.0465
 31
0.0
  0
LINE
  8
HIDDEN
 10
-32.979036
 20
-0.947522
 30
0.0
 11
-32.979036
 21
-0.497847
 31
0.0
  0
ARC
  8
HIDDEN
 10
-33.163066
 20
0.182119
 30
0.0
 40
0.23617
 50
0.0
 51
135.0
  0
ARC
  8
HIDDEN
 10
-33.163066
 20
0.182119
 30
0.0
 40
0.16617
 50
0.0
 51
135.0
  0
LINE
  8
HIDDEN
 10
-33.452886
 20
0.325289
 30
0.0
 11
-33.353891
 21
0.325289
 31
0.0
  0
LINE
  8
HIDDEN
 10
-33.506896
 20
0.271279
 30
0.0
 11
-33.452886
 21
0.325289
 31
0.0
  0
LINE
  8
HIDDEN
 10
-33.52918
 20
0.15
 30
0.0
 11
-33.330064
 21
0.349116
 31
0.0
  0
LINE
  8
HIDDEN
 10
-33.506896
 20
0.271279
 30
0.0
 11
-33.506896
 21
0.172284
 31
0.0
  0
LINE
  8
HIDDEN
 10
-33.500185
 20
0.08
 30
0.0
 11
-33.280566
 21
0.299619
 31
0.0
  0
LINE
  8
OBJECT
 10
-33.576896
 20
0.203289
 30
0.0
 11
-33.623896
 21
0.203289
 31
0.0
  0
ARC
  8
OBJECT
 10
-33.623896
 20
0.172289
 30
0.0
 40
0.031
 50
90.0
 51
180.0
  0
LINE
  8
HIDDEN
 10
-33.576896
 20
0.08
 30
0.0
 11
-33.500185
 21
0.08
 31
0.0
  0
LINE
  8
HIDDEN
 10
-33.576896
 20
0.15
 30
0.0
 11
-33.52918
 21
0.15
 31
0.0
  0
ENDBLK
  8
0
  0
BLOCK
  8
0
  2
*D21
 70
    65
 10
0.0
 20
0.0
 30
0.0
  3
*D
  0
LINE
  8
0
  6
BYBLOCK
 62
     0
 10
31.752715
 20
25.556179
 30
0.0
 11
31.752715
 21
26.11338
 31
0.0
  0
LINE
  8
0
  6
BYBLOCK
 62
     0
 10
34.786715
 20
27.612185
 30
0.0
 11
34.786715
 21
24.99738
 31
0.0
  0
LINE
  8
0
  6
BYBLOCK
 62
     0
 10
30.672715
 20
25.55538
 30
0.0
 11
29.592715
 21
25.55538
 31
0.0
  0
LINE
  8
0
  6
BYBLOCK
 62
     0
 10
35.866715
 20
25.55538
 30
0.0
 11
36.946715
 21
25.55538
 31
0.0
  0
SOLID
  8
0
  6
BYBLOCK
 62
     0
 10
30.672715
 20
25.73538
 30
0.0
 11
30.672715
 21
25.37538
 31
0.0
 12
31.752715
 22
25.55538
 32
0.0
 13
31.752715
 23
25.55538
 33
0.0
  0
SOLID
  8
0
  6
BYBLOCK
 62
     0
 10
35.866715
 20
25.73538
 30
0.0
 11
35.866715
 21
25.37538
 31
0.0
 12
34.786715
 22
25.55538
 32
0.0
 13
34.786715
 23
25.55538
 33
0.0
  0
TEXT
  8
0
  6
BYBLOCK
 62
     0
 10
32.19159
 20
25.18038
 30
0.0
 40
0.75
  1
3.034
 41
0.75
  7
TXT
 72
     1
 11
33.269715
 21
25.55538
 31
0.0
 73
     2
  0
POINT
  8
DEFPOINTS
  6
BYBLOCK
 62
     0
 10
31.752715
 20
25.178179
 30
0.0
  0
POINT
  8
DEFPOINTS
  6
BYBLOCK
 62
     0
 10
34.786715
 20
27.990185
 30
0.0
  0
POINT
  8
DEFPOINTS
  6
BYBLOCK
 62
     0
 10
34.786715
 20
25.55538
 30
0.0
  0
ENDBLK
  8
0
  0
BLOCK
  8
0
  2
*D22
 70
    65
 10
0.0
 20
0.0
 30
0.0
  3
*D
  0
LINE
  8
0
  6
BYBLOCK
 62
     0
 10
34.786715
 20
27.612185
 30
0.0
 11
34.786715
 21
23.31138
 31
0.0
  0
LINE
  8
0
  6
BYBLOCK
 62
     0
 10
40.186715
 20
27.612185
 30
0.0
 11
40.186715
 21
23.31138
 31
0.0
  0
LINE
  8
0
  6
BYBLOCK
 62
     0
 10
33.706715
 20
23.86938
 30
0.0
 11
32.626715
 21
23.86938
 31
0.0
  0
LINE
  8
0
  6
BYBLOCK
 62
     0
 10
41.266715
 20
23.86938
 30
0.0
 11
42.346715
 21
23.86938
 31
0.0
  0
SOLID
  8
0
  6
BYBLOCK
 62
     0
 10
33.706715
 20
24.04938
 30
0.0
 11
33.706715
 21
23.68938
 31
0.0
 12
34.786715
 22
23.86938
 32
0.0
 13
34.786715
 23
23.86938
 33
0.0
  0
SOLID
  8
0
  6
BYBLOCK
 62
     0
 10
41.266715
 20
24.04938
 30
0.0
 11
41.266715
 21
23.68938
 31
0.0
 12
40.186715
 22
23.86938
 32
0.0
 13
40.186715
 23
23.86938
 33
0.0
  0
TEXT
  8
0
  6
BYBLOCK
 62
     0
 10
36.455465
 20
23.49438
 30
0.0
 40
0.75
  1
5.400
 41
0.75
  7
TXT
 72
     1
 11
37.486715
 21
23.86938
 31
0.0
 73
     2
  0
POINT
  8
DEFPOINTS
  6
BYBLOCK
 62
     0
 10
34.786715
 20
27.990185
 30
0.0
  0
POINT
  8
DEFPOINTS
  6
BYBLOCK
 62
     0
 10
40.186715
 20
27.990185
 30
0.0
  0
POINT
  8
DEFPOINTS
  6
BYBLOCK
 62
     0
 10
40.186715
 20
23.86938
 30
0.0
  0
ENDBLK
  8
0
  0
BLOCK
  8
0
  2
REAR
 70
     0
 10
0.0
 20
0.0
 30
0.0
  3
REAR
  0
ENDBLK
  8
0
  0
BLOCK
  8
0
  2
VENTSLOT
 70
    64
 10
0.0
 20
0.0
 30
0.0
  3
VENTSLOT
  0
ARC
  8
T
 10
-0.25
 20
0.063
 30
0.0
 40
0.063
 50
180.0
 51
0.0
  0
ARC
  8
T
 10
-0.25
 20
0.688
 30
0.0
 40
0.063
 50
0.0
 51
180.0
  0
ARC
  8
T
 10
-0.25
 20
1.563
 30
0.0
 40
0.063
 50
180.0
 51
0.0
  0
ARC
  8
T
 10
-0.25
 20
2.188
 30
0.0
 40
0.063
 50
0.0
 51
180.0
  0
LINE
  8
T
 10
-7.687
 20
0.063
 30
0.0
 11
-7.687
 21
0.688
 31
0.0
  0
LINE
  8
T
 10
-7.813
 20
0.688
 30
0.0
 11
-7.813
 21
0.063
 31
0.0
  0
LINE
  8
T
 10
-7.937
 20
0.063
 30
0.0
 11
-7.937
 21
0.688
 31
0.0
  0
LINE
  8
T
 10
-8.063
 20
0.688
 30
0.0
 11
-8.063
 21
0.063
 31
0.0
  0
LINE
  8
T
 10
-8.187
 20
0.063
 30
0.0
 11
-8.187
 21
0.688
 31
0.0
  0
LINE
  8
T
 10
-8.313
 20
0.688
 30
0.0
 11
-8.313
 21
0.063
 31
0.0
  0
LINE
  8
T
 10
-8.437
 20
0.063
 30
0.0
 11
-8.437
 21
0.688
 31
0.0
  0
LINE
  8
T
 10
-8.563
 20
0.688
 30
0.0
 11
-8.563
 21
0.063
 31
0.0
  0
LINE
  8
T
 10
-8.687
 20
0.063
 30
0.0
 11
-8.687
 21
0.688
 31
0.0
  0
LINE
  8
T
 10
-8.813
 20
0.688
 30
0.0
 11
-8.813
 21
0.063
 31
0.0
  0
LINE
  8
T
 10
-8.937
 20
0.063
 30
0.0
 11
-8.937
 21
0.688
 31
0.0
  0
LINE
  8
T
 10
-9.063
 20
0.688
 30
0.0
 11
-9.063
 21
0.063
 31
0.0
  0
ARC
  8
T
 10
-8.5
 20
0.063
 30
0.0
 40
0.063
 50
180.0
 51
0.0
  0
ARC
  8
T
 10
-8.75
 20
0.063
 30
0.0
 40
0.063
 50
180.0
 51
0.0
  0
ARC
  8
T
 10
-9.0
 20
0.063
 30
0.0
 40
0.063
 50
180.0
 51
0.0
  0
ARC
  8
T
 10
-7.75
 20
0.063
 30
0.0
 40
0.063
 50
180.0
 51
0.0
  0
ARC
  8
T
 10
-8.0
 20
0.063
 30
0.0
 40
0.063
 50
180.0
 51
0.0
  0
ARC
  8
T
 10
-8.25
 20
0.063
 30
0.0
 40
0.063
 50
180.0
 51
0.0
  0
ARC
  8
T
 10
-8.5
 20
0.688
 30
0.0
 40
0.063
 50
0.0
 51
180.0
  0
ARC
  8
T
 10
-8.75
 20
0.688
 30
0.0
 40
0.063
 50
0.0
 51
180.0
  0
ARC
  8
T
 10
-9.0
 20
0.688
 30
0.0
 40
0.063
 50
0.0
 51
180.0
  0
ARC
  8
T
 10
-7.75
 20
0.688
 30
0.0
 40
0.063
 50
0.0
 51
180.0
  0
ARC
  8
T
 10
-8.0
 20
0.688
 30
0.0
 40
0.063
 50
0.0
 51
180.0
  0
ARC
  8
T
 10
-8.25
 20
0.688
 30
0.0
 40
0.063
 50
0.0
 51
180.0
  0
LINE
  8
T
 10
-6.187
 20
0.063
 30
0.0
 11
-6.187
 21
0.688
 31
0.0
  0
LINE
  8
T
 10
-6.313
 20
0.688
 30
0.0
 11
-6.313
 21
0.063
 31
0.0
  0
LINE
  8
T
 10
-6.437
 20
0.063
 30
0.0
 11
-6.437
 21
0.688
 31
0.0
  0
LINE
  8
T
 10
-6.563
 20
0.688
 30
0.0
 11
-6.563
 21
0.063
 31
0.0
  0
LINE
  8
T
 10
-6.687
 20
0.063
 30
0.0
 11
-6.687
 21
0.688
 31
0.0
  0
LINE
  8
T
 10
-6.813
 20
0.688
 30
0.0
 11
-6.813
 21
0.063
 31
0.0
  0
LINE
  8
T
 10
-6.937
 20
0.063
 30
0.0
 11
-6.937
 21
0.688
 31
0.0
  0
LINE
  8
T
 10
-7.063
 20
0.688
 30
0.0
 11
-7.063
 21
0.063
 31
0.0
  0
LINE
  8
T
 10
-7.187
 20
0.063
 30
0.0
 11
-7.187
 21
0.688
 31
0.0
  0
LINE
  8
T
 10
-7.313
 20
0.688
 30
0.0
 11
-7.313
 21
0.063
 31
0.0
  0
LINE
  8
T
 10
-7.437
 20
0.063
 30
0.0
 11
-7.437
 21
0.688
 31
0.0
  0
LINE
  8
T
 10
-7.563
 20
0.688
 30
0.0
 11
-7.563
 21
0.063
 31
0.0
  0
ARC
  8
T
 10
-7.0
 20
0.063
 30
0.0
 40
0.063
 50
180.0
 51
0.0
  0
ARC
  8
T
 10
-7.25
 20
0.063
 30
0.0
 40
0.063
 50
180.0
 51
0.0
  0
ARC
  8
T
 10
-7.5
 20
0.063
 30
0.0
 40
0.063
 50
180.0
 51
0.0
  0
ARC
  8
T
 10
-6.25
 20
0.063
 30
0.0
 40
0.063
 50
180.0
 51
0.0
  0
ARC
  8
T
 10
-6.5
 20
0.063
 30
0.0
 40
0.063
 50
180.0
 51
0.0
  0
ARC
  8
T
 10
-6.75
 20
0.063
 30
0.0
 40
0.063
 50
180.0
 51
0.0
  0
ARC
  8
T
 10
-7.0
 20
0.688
 30
0.0
 40
0.063
 50
0.0
 51
180.0
  0
ARC
  8
T
 10
-7.25
 20
0.688
 30
0.0
 40
0.063
 50
0.0
 51
180.0
  0
ARC
  8
T
 10
-7.5
 20
0.688
 30
0.0
 40
0.063
 50
0.0
 51
180.0
  0
ARC
  8
T
 10
-6.25
 20
0.688
 30
0.0
 40
0.063
 50
0.0
 51
180.0
  0
ARC
  8
T
 10
-6.5
 20
0.688
 30
0.0
 40
0.063
 50
0.0
 51
180.0
  0
ARC
  8
T
 10
-6.75
 20
0.688
 30
0.0
 40
0.063
 50
0.0
 51
180.0
  0
ARC
  8
T
 10
-7.75
 20
2.188
 30
0.0
 40
0.063
 50
0.0
 51
180.0
  0
ARC
  8
T
 10
-8.0
 20
2.188
 30
0.0
 40
0.063
 50
0.0
 51
180.0
  0
ARC
  8
T
 10
-8.25
 20
2.188
 30
0.0
 40
0.063
 50
0.0
 51
180.0
  0
ARC
  8
T
 10
-8.5
 20
2.188
 30
0.0
 40
0.063
 50
0.0
 51
180.0
  0
ARC
  8
T
 10
-8.75
 20
2.188
 30
0.0
 40
0.063
 50
0.0
 51
180.0
  0
ARC
  8
T
 10
-9.0
 20
2.188
 30
0.0
 40
0.063
 50
0.0
 51
180.0
  0
ARC
  8
T
 10
-8.5
 20
1.563
 30
0.0
 40
0.063
 50
180.0
 51
0.0
  0
ARC
  8
T
 10
-8.75
 20
1.563
 30
0.0
 40
0.063
 50
180.0
 51
0.0
  0
ARC
  8
T
 10
-9.0
 20
1.563
 30
0.0
 40
0.063
 50
180.0
 51
0.0
  0
LINE
  8
T
 10
-8.437
 20
1.563
 30
0.0
 11
-8.437
 21
2.188
 31
0.0
  0
LINE
  8
T
 10
-8.563
 20
2.188
 30
0.0
 11
-8.563
 21
1.563
 31
0.0
  0
LINE
  8
T
 10
-8.687
 20
1.563
 30
0.0
 11
-8.687
 21
2.188
 31
0.0
  0
LINE
  8
T
 10
-8.813
 20
2.188
 30
0.0
 11
-8.813
 21
1.563
 31
0.0
  0
LINE
  8
T
 10
-8.937
 20
1.563
 30
0.0
 11
-8.937
 21
2.188
 31
0.0
  0
LINE
  8
T
 10
-9.063
 20
2.188
 30
0.0
 11
-9.063
 21
1.563
 31
0.0
  0
ARC
  8
T
 10
-7.75
 20
1.563
 30
0.0
 40
0.063
 50
180.0
 51
0.0
  0
ARC
  8
T
 10
-8.0
 20
1.563
 30
0.0
 40
0.063
 50
180.0
 51
0.0
  0
ARC
  8
T
 10
-8.25
 20
1.563
 30
0.0
 40
0.063
 50
180.0
 51
0.0
  0
LINE
  8
T
 10
-7.687
 20
1.563
 30
0.0
 11
-7.687
 21
2.188
 31
0.0
  0
LINE
  8
T
 10
-7.813
 20
2.188
 30
0.0
 11
-7.813
 21
1.563
 31
0.0
  0
LINE
  8
T
 10
-7.937
 20
1.563
 30
0.0
 11
-7.937
 21
2.188
 31
0.0
  0
LINE
  8
T
 10
-8.063
 20
2.188
 30
0.0
 11
-8.063
 21
1.563
 31
0.0
  0
LINE
  8
T
 10
-8.187
 20
1.563
 30
0.0
 11
-8.187
 21
2.188
 31
0.0
  0
LINE
  8
T
 10
-8.313
 20
2.188
 30
0.0
 11
-8.313
 21
1.563
 31
0.0
  0
ARC
  8
T
 10
-6.25
 20
2.188
 30
0.0
 40
0.063
 50
0.0
 51
180.0
  0
ARC
  8
T
 10
-6.5
 20
2.188
 30
0.0
 40
0.063
 50
0.0
 51
180.0
  0
ARC
  8
T
 10
-6.75
 20
2.188
 30
0.0
 40
0.063
 50
0.0
 51
180.0
  0
ARC
  8
T
 10
-7.0
 20
2.188
 30
0.0
 40
0.063
 50
0.0
 51
180.0
  0
ARC
  8
T
 10
-7.25
 20
2.188
 30
0.0
 40
0.063
 50
0.0
 51
180.0
  0
ARC
  8
T
 10
-7.5
 20
2.188
 30
0.0
 40
0.063
 50
0.0
 51
180.0
  0
ARC
  8
T
 10
-7.0
 20
1.563
 30
0.0
 40
0.063
 50
180.0
 51
0.0
  0
ARC
  8
T
 10
-7.25
 20
1.563
 30
0.0
 40
0.063
 50
180.0
 51
0.0
  0
ARC
  8
T
 10
-7.5
 20
1.563
 30
0.0
 40
0.063
 50
180.0
 51
0.0
  0
LINE
  8
T
 10
-6.937
 20
1.563
 30
0.0
 11
-6.937
 21
2.188
 31
0.0
  0
LINE
  8
T
 10
-7.063
 20
2.188
 30
0.0
 11
-7.063
 21
1.563
 31
0.0
  0
LINE
  8
T
 10
-7.187
 20
1.563
 30
0.0
 11
-7.187
 21
2.188
 31
0.0
  0
LINE
  8
T
 10
-7.313
 20
2.188
 30
0.0
 11
-7.313
 21
1.563
 31
0.0
  0
LINE
  8
T
 10
-7.437
 20
1.563
 30
0.0
 11
-7.437
 21
2.188
 31
0.0
  0
LINE
  8
T
 10
-7.563
 20
2.188
 30
0.0
 11
-7.563
 21
1.563
 31
0.0
  0
ARC
  8
T
 10
-6.25
 20
1.563
 30
0.0
 40
0.063
 50
180.0
 51
0.0
  0
ARC
  8
T
 10
-6.5
 20
1.563
 30
0.0
 40
0.063
 50
180.0
 51
0.0
  0
ARC
  8
T
 10
-6.75
 20
1.563
 30
0.0
 40
0.063
 50
180.0
 51
0.0
  0
LINE
  8
T
 10
-6.187
 20
1.563
 30
0.0
 11
-6.187
 21
2.188
 31
0.0
  0
LINE
  8
T
 10
-6.313
 20
2.188
 30
0.0
 11
-6.313
 21
1.563
 31
0.0
  0
LINE
  8
T
 10
-6.437
 20
1.563
 30
0.0
 11
-6.437
 21
2.188
 31
0.0
  0
LINE
  8
T
 10
-6.563
 20
2.188
 30
0.0
 11
-6.563
 21
1.563
 31
0.0
  0
LINE
  8
T
 10
-6.687
 20
1.563
 30
0.0
 11
-6.687
 21
2.188
 31
0.0
  0
LINE
  8
T
 10
-6.813
 20
2.188
 30
0.0
 11
-6.813
 21
1.563
 31
0.0
  0
ARC
  8
T
 10
-3.25
 20
1.563
 30
0.0
 40
0.063
 50
180.0
 51
0.0
  0
ARC
  8
T
 10
-3.25
 20
2.188
 30
0.0
 40
0.063
 50
0.0
 51
180.0
  0
ARC
  8
T
 10
-3.25
 20
0.063
 30
0.0
 40
0.063
 50
180.0
 51
0.0
  0
ARC
  8
T
 10
-3.25
 20
0.688
 30
0.0
 40
0.063
 50
0.0
 51
180.0
  0
ARC
  8
T
 10
-4.75
 20
0.063
 30
0.0
 40
0.063
 50
180.0
 51
0.0
  0
ARC
  8
T
 10
-4.75
 20
0.688
 30
0.0
 40
0.063
 50
0.0
 51
180.0
  0
LINE
  8
T
 10
-4.813
 20
0.688
 30
0.0
 11
-4.813
 21
0.063
 31
0.0
  0
LINE
  8
T
 10
-4.937
 20
0.063
 30
0.0
 11
-4.937
 21
0.688
 31
0.0
  0
LINE
  8
T
 10
-5.063
 20
0.688
 30
0.0
 11
-5.063
 21
0.063
 31
0.0
  0
LINE
  8
T
 10
-5.187
 20
0.063
 30
0.0
 11
-5.187
 21
0.688
 31
0.0
  0
LINE
  8
T
 10
-5.313
 20
0.688
 30
0.0
 11
-5.313
 21
0.063
 31
0.0
  0
LINE
  8
T
 10
-5.437
 20
0.063
 30
0.0
 11
-5.437
 21
0.688
 31
0.0
  0
LINE
  8
T
 10
-5.563
 20
0.688
 30
0.0
 11
-5.563
 21
0.063
 31
0.0
  0
LINE
  8
T
 10
-5.687
 20
0.063
 30
0.0
 11
-5.687
 21
0.688
 31
0.0
  0
LINE
  8
T
 10
-5.813
 20
0.688
 30
0.0
 11
-5.813
 21
0.063
 31
0.0
  0
LINE
  8
T
 10
-5.937
 20
0.063
 30
0.0
 11
-5.937
 21
0.688
 31
0.0
  0
LINE
  8
T
 10
-6.063
 20
0.688
 30
0.0
 11
-6.063
 21
0.063
 31
0.0
  0
ARC
  8
T
 10
-5.5
 20
0.063
 30
0.0
 40
0.063
 50
180.0
 51
0.0
  0
ARC
  8
T
 10
-5.75
 20
0.063
 30
0.0
 40
0.063
 50
180.0
 51
0.0
  0
ARC
  8
T
 10
-6.0
 20
0.063
 30
0.0
 40
0.063
 50
180.0
 51
0.0
  0
ARC
  8
T
 10
-5.0
 20
0.063
 30
0.0
 40
0.063
 50
180.0
 51
0.0
  0
ARC
  8
T
 10
-5.25
 20
0.063
 30
0.0
 40
0.063
 50
180.0
 51
0.0
  0
ARC
  8
T
 10
-5.5
 20
0.688
 30
0.0
 40
0.063
 50
0.0
 51
180.0
  0
ARC
  8
T
 10
-5.75
 20
0.688
 30
0.0
 40
0.063
 50
0.0
 51
180.0
  0
ARC
  8
T
 10
-6.0
 20
0.688
 30
0.0
 40
0.063
 50
0.0
 51
180.0
  0
ARC
  8
T
 10
-5.0
 20
0.688
 30
0.0
 40
0.063
 50
0.0
 51
180.0
  0
ARC
  8
T
 10
-5.25
 20
0.688
 30
0.0
 40
0.063
 50
0.0
 51
180.0
  0
LINE
  8
T
 10
-3.313
 20
0.688
 30
0.0
 11
-3.313
 21
0.063
 31
0.0
  0
LINE
  8
T
 10
-3.437
 20
0.063
 30
0.0
 11
-3.437
 21
0.688
 31
0.0
  0
LINE
  8
T
 10
-3.563
 20
0.688
 30
0.0
 11
-3.563
 21
0.063
 31
0.0
  0
LINE
  8
T
 10
-3.687
 20
0.063
 30
0.0
 11
-3.687
 21
0.688
 31
0.0
  0
LINE
  8
T
 10
-3.813
 20
0.688
 30
0.0
 11
-3.813
 21
0.063
 31
0.0
  0
LINE
  8
T
 10
-3.937
 20
0.063
 30
0.0
 11
-3.937
 21
0.688
 31
0.0
  0
LINE
  8
T
 10
-4.063
 20
0.688
 30
0.0
 11
-4.063
 21
0.063
 31
0.0
  0
LINE
  8
T
 10
-4.187
 20
0.063
 30
0.0
 11
-4.187
 21
0.688
 31
0.0
  0
LINE
  8
T
 10
-4.313
 20
0.688
 30
0.0
 11
-4.313
 21
0.063
 31
0.0
  0
LINE
  8
T
 10
-4.437
 20
0.063
 30
0.0
 11
-4.437
 21
0.688
 31
0.0
  0
LINE
  8
T
 10
-4.563
 20
0.688
 30
0.0
 11
-4.563
 21
0.063
 31
0.0
  0
LINE
  8
T
 10
-4.687
 20
0.063
 30
0.0
 11
-4.687
 21
0.688
 31
0.0
  0
ARC
  8
T
 10
-4.0
 20
0.063
 30
0.0
 40
0.063
 50
180.0
 51
0.0
  0
ARC
  8
T
 10
-4.25
 20
0.063
 30
0.0
 40
0.063
 50
180.0
 51
0.0
  0
ARC
  8
T
 10
-4.5
 20
0.063
 30
0.0
 40
0.063
 50
180.0
 51
0.0
  0
ARC
  8
T
 10
-3.5
 20
0.063
 30
0.0
 40
0.063
 50
180.0
 51
0.0
  0
ARC
  8
T
 10
-3.75
 20
0.063
 30
0.0
 40
0.063
 50
180.0
 51
0.0
  0
ARC
  8
T
 10
-4.0
 20
0.688
 30
0.0
 40
0.063
 50
0.0
 51
180.0
  0
ARC
  8
T
 10
-4.25
 20
0.688
 30
0.0
 40
0.063
 50
0.0
 51
180.0
  0
ARC
  8
T
 10
-4.5
 20
0.688
 30
0.0
 40
0.063
 50
0.0
 51
180.0
  0
ARC
  8
T
 10
-3.5
 20
0.688
 30
0.0
 40
0.063
 50
0.0
 51
180.0
  0
ARC
  8
T
 10
-3.75
 20
0.688
 30
0.0
 40
0.063
 50
0.0
 51
180.0
  0
ARC
  8
T
 10
-4.75
 20
1.563
 30
0.0
 40
0.063
 50
180.0
 51
0.0
  0
ARC
  8
T
 10
-4.75
 20
2.188
 30
0.0
 40
0.063
 50
0.0
 51
180.0
  0
ARC
  8
T
 10
-5.0
 20
2.188
 30
0.0
 40
0.063
 50
0.0
 51
180.0
  0
ARC
  8
T
 10
-5.25
 20
2.188
 30
0.0
 40
0.063
 50
0.0
 51
180.0
  0
ARC
  8
T
 10
-5.5
 20
2.188
 30
0.0
 40
0.063
 50
0.0
 51
180.0
  0
ARC
  8
T
 10
-5.75
 20
2.188
 30
0.0
 40
0.063
 50
0.0
 51
180.0
  0
ARC
  8
T
 10
-6.0
 20
2.188
 30
0.0
 40
0.063
 50
0.0
 51
180.0
  0
ARC
  8
T
 10
-5.5
 20
1.563
 30
0.0
 40
0.063
 50
180.0
 51
0.0
  0
ARC
  8
T
 10
-5.75
 20
1.563
 30
0.0
 40
0.063
 50
180.0
 51
0.0
  0
ARC
  8
T
 10
-6.0
 20
1.563
 30
0.0
 40
0.063
 50
180.0
 51
0.0
  0
LINE
  8
T
 10
-5.563
 20
2.188
 30
0.0
 11
-5.563
 21
1.563
 31
0.0
  0
LINE
  8
T
 10
-5.687
 20
1.563
 30
0.0
 11
-5.687
 21
2.188
 31
0.0
  0
LINE
  8
T
 10
-5.813
 20
2.188
 30
0.0
 11
-5.813
 21
1.563
 31
0.0
  0
LINE
  8
T
 10
-5.937
 20
1.563
 30
0.0
 11
-5.937
 21
2.188
 31
0.0
  0
LINE
  8
T
 10
-6.063
 20
2.188
 30
0.0
 11
-6.063
 21
1.563
 31
0.0
  0
ARC
  8
T
 10
-5.0
 20
1.563
 30
0.0
 40
0.063
 50
180.0
 51
0.0
  0
ARC
  8
T
 10
-5.25
 20
1.563
 30
0.0
 40
0.063
 50
180.0
 51
0.0
  0
LINE
  8
T
 10
-4.813
 20
2.188
 30
0.0
 11
-4.813
 21
1.563
 31
0.0
  0
LINE
  8
T
 10
-4.937
 20
1.563
 30
0.0
 11
-4.937
 21
2.188
 31
0.0
  0
LINE
  8
T
 10
-5.063
 20
2.188
 30
0.0
 11
-5.063
 21
1.563
 31
0.0
  0
LINE
  8
T
 10
-5.187
 20
1.563
 30
0.0
 11
-5.187
 21
2.188
 31
0.0
  0
LINE
  8
T
 10
-5.313
 20
2.188
 30
0.0
 11
-5.313
 21
1.563
 31
0.0
  0
LINE
  8
T
 10
-5.437
 20
1.563
 30
0.0
 11
-5.437
 21
2.188
 31
0.0
  0
ARC
  8
T
 10
-3.5
 20
2.188
 30
0.0
 40
0.063
 50
0.0
 51
180.0
  0
ARC
  8
T
 10
-3.75
 20
2.188
 30
0.0
 40
0.063
 50
0.0
 51
180.0
  0
ARC
  8
T
 10
-4.0
 20
2.188
 30
0.0
 40
0.063
 50
0.0
 51
180.0
  0
ARC
  8
T
 10
-4.25
 20
2.188
 30
0.0
 40
0.063
 50
0.0
 51
180.0
  0
ARC
  8
T
 10
-4.5
 20
2.188
 30
0.0
 40
0.063
 50
0.0
 51
180.0
  0
ARC
  8
T
 10
-4.0
 20
1.563
 30
0.0
 40
0.063
 50
180.0
 51
0.0
  0
ARC
  8
T
 10
-4.25
 20
1.563
 30
0.0
 40
0.063
 50
180.0
 51
0.0
  0
ARC
  8
T
 10
-4.5
 20
1.563
 30
0.0
 40
0.063
 50
180.0
 51
0.0
  0
LINE
  8
T
 10
-4.063
 20
2.188
 30
0.0
 11
-4.063
 21
1.563
 31
0.0
  0
LINE
  8
T
 10
-4.187
 20
1.563
 30
0.0
 11
-4.187
 21
2.188
 31
0.0
  0
LINE
  8
T
 10
-4.313
 20
2.188
 30
0.0
 11
-4.313
 21
1.563
 31
0.0
  0
LINE
  8
T
 10
-4.437
 20
1.563
 30
0.0
 11
-4.437
 21
2.188
 31
0.0
  0
LINE
  8
T
 10
-4.563
 20
2.188
 30
0.0
 11
-4.563
 21
1.563
 31
0.0
  0
LINE
  8
T
 10
-4.687
 20
1.563
 30
0.0
 11
-4.687
 21
2.188
 31
0.0
  0
ARC
  8
T
 10
-3.5
 20
1.563
 30
0.0
 40
0.063
 50
180.0
 51
0.0
  0
ARC
  8
T
 10
-3.75
 20
1.563
 30
0.0
 40
0.063
 50
180.0
 51
0.0
  0
LINE
  8
T
 10
-3.313
 20
2.188
 30
0.0
 11
-3.313
 21
1.563
 31
0.0
  0
LINE
  8
T
 10
-3.437
 20
1.563
 30
0.0
 11
-3.437
 21
2.188
 31
0.0
  0
LINE
  8
T
 10
-3.563
 20
2.188
 30
0.0
 11
-3.563
 21
1.563
 31
0.0
  0
LINE
  8
T
 10
-3.687
 20
1.563
 30
0.0
 11
-3.687
 21
2.188
 31
0.0
  0
LINE
  8
T
 10
-3.813
 20
2.188
 30
0.0
 11
-3.813
 21
1.563
 31
0.0
  0
LINE
  8
T
 10
-3.937
 20
1.563
 30
0.0
 11
-3.937
 21
2.188
 31
0.0
  0
ARC
  8
T
 10
-1.75
 20
0.063
 30
0.0
 40
0.063
 50
180.0
 51
0.0
  0
ARC
  8
T
 10
-1.75
 20
0.688
 30
0.0
 40
0.063
 50
0.0
 51
180.0
  0
LINE
  8
T
 10
-1.813
 20
0.688
 30
0.0
 11
-1.813
 21
0.063
 31
0.0
  0
LINE
  8
T
 10
-1.937
 20
0.063
 30
0.0
 11
-1.937
 21
0.688
 31
0.0
  0
LINE
  8
T
 10
-2.063
 20
0.688
 30
0.0
 11
-2.063
 21
0.063
 31
0.0
  0
LINE
  8
T
 10
-2.187
 20
0.063
 30
0.0
 11
-2.187
 21
0.688
 31
0.0
  0
LINE
  8
T
 10
-2.313
 20
0.688
 30
0.0
 11
-2.313
 21
0.063
 31
0.0
  0
LINE
  8
T
 10
-2.437
 20
0.063
 30
0.0
 11
-2.437
 21
0.688
 31
0.0
  0
LINE
  8
T
 10
-2.563
 20
0.688
 30
0.0
 11
-2.563
 21
0.063
 31
0.0
  0
LINE
  8
T
 10
-2.687
 20
0.063
 30
0.0
 11
-2.687
 21
0.688
 31
0.0
  0
LINE
  8
T
 10
-2.813
 20
0.688
 30
0.0
 11
-2.813
 21
0.063
 31
0.0
  0
LINE
  8
T
 10
-2.937
 20
0.063
 30
0.0
 11
-2.937
 21
0.688
 31
0.0
  0
LINE
  8
T
 10
-3.063
 20
0.688
 30
0.0
 11
-3.063
 21
0.063
 31
0.0
  0
LINE
  8
T
 10
-3.187
 20
0.063
 30
0.0
 11
-3.187
 21
0.688
 31
0.0
  0
ARC
  8
T
 10
-2.5
 20
0.063
 30
0.0
 40
0.063
 50
180.0
 51
0.0
  0
ARC
  8
T
 10
-2.75
 20
0.063
 30
0.0
 40
0.063
 50
180.0
 51
0.0
  0
ARC
  8
T
 10
-3.0
 20
0.063
 30
0.0
 40
0.063
 50
180.0
 51
0.0
  0
ARC
  8
T
 10
-2.0
 20
0.063
 30
0.0
 40
0.063
 50
180.0
 51
0.0
  0
ARC
  8
T
 10
-2.25
 20
0.063
 30
0.0
 40
0.063
 50
180.0
 51
0.0
  0
ARC
  8
T
 10
-2.5
 20
0.688
 30
0.0
 40
0.063
 50
0.0
 51
180.0
  0
ARC
  8
T
 10
-2.75
 20
0.688
 30
0.0
 40
0.063
 50
0.0
 51
180.0
  0
ARC
  8
T
 10
-3.0
 20
0.688
 30
0.0
 40
0.063
 50
0.0
 51
180.0
  0
ARC
  8
T
 10
-2.0
 20
0.688
 30
0.0
 40
0.063
 50
0.0
 51
180.0
  0
ARC
  8
T
 10
-2.25
 20
0.688
 30
0.0
 40
0.063
 50
0.0
 51
180.0
  0
LINE
  8
T
 10
-0.313
 20
0.688
 30
0.0
 11
-0.313
 21
0.063
 31
0.0
  0
LINE
  8
T
 10
-0.437
 20
0.063
 30
0.0
 11
-0.437
 21
0.688
 31
0.0
  0
LINE
  8
T
 10
-0.563
 20
0.688
 30
0.0
 11
-0.563
 21
0.063
 31
0.0
  0
LINE
  8
T
 10
-0.687
 20
0.063
 30
0.0
 11
-0.687
 21
0.688
 31
0.0
  0
LINE
  8
T
 10
-0.813
 20
0.688
 30
0.0
 11
-0.813
 21
0.063
 31
0.0
  0
LINE
  8
T
 10
-0.937
 20
0.063
 30
0.0
 11
-0.937
 21
0.688
 31
0.0
  0
LINE
  8
T
 10
-1.063
 20
0.688
 30
0.0
 11
-1.063
 21
0.063
 31
0.0
  0
LINE
  8
T
 10
-1.187
 20
0.063
 30
0.0
 11
-1.187
 21
0.688
 31
0.0
  0
LINE
  8
T
 10
-1.313
 20
0.688
 30
0.0
 11
-1.313
 21
0.063
 31
0.0
  0
LINE
  8
T
 10
-1.437
 20
0.063
 30
0.0
 11
-1.437
 21
0.688
 31
0.0
  0
LINE
  8
T
 10
-1.563
 20
0.688
 30
0.0
 11
-1.563
 21
0.063
 31
0.0
  0
LINE
  8
T
 10
-1.687
 20
0.063
 30
0.0
 11
-1.687
 21
0.688
 31
0.0
  0
ARC
  8
T
 10
-1.0
 20
0.063
 30
0.0
 40
0.063
 50
180.0
 51
0.0
  0
ARC
  8
T
 10
-1.25
 20
0.063
 30
0.0
 40
0.063
 50
180.0
 51
0.0
  0
ARC
  8
T
 10
-1.5
 20
0.063
 30
0.0
 40
0.063
 50
180.0
 51
0.0
  0
ARC
  8
T
 10
-0.5
 20
0.063
 30
0.0
 40
0.063
 50
180.0
 51
0.0
  0
ARC
  8
T
 10
-0.75
 20
0.063
 30
0.0
 40
0.063
 50
180.0
 51
0.0
  0
ARC
  8
T
 10
-1.0
 20
0.688
 30
0.0
 40
0.063
 50
0.0
 51
180.0
  0
ARC
  8
T
 10
-1.25
 20
0.688
 30
0.0
 40
0.063
 50
0.0
 51
180.0
  0
ARC
  8
T
 10
-1.5
 20
0.688
 30
0.0
 40
0.063
 50
0.0
 51
180.0
  0
ARC
  8
T
 10
-0.5
 20
0.688
 30
0.0
 40
0.063
 50
0.0
 51
180.0
  0
ARC
  8
T
 10
-0.75
 20
0.688
 30
0.0
 40
0.063
 50
0.0
 51
180.0
  0
ARC
  8
T
 10
-1.75
 20
1.563
 30
0.0
 40
0.063
 50
180.0
 51
0.0
  0
ARC
  8
T
 10
-1.75
 20
2.188
 30
0.0
 40
0.063
 50
0.0
 51
180.0
  0
ARC
  8
T
 10
-2.0
 20
2.188
 30
0.0
 40
0.063
 50
0.0
 51
180.0
  0
ARC
  8
T
 10
-2.25
 20
2.188
 30
0.0
 40
0.063
 50
0.0
 51
180.0
  0
ARC
  8
T
 10
-2.5
 20
2.188
 30
0.0
 40
0.063
 50
0.0
 51
180.0
  0
ARC
  8
T
 10
-2.75
 20
2.188
 30
0.0
 40
0.063
 50
0.0
 51
180.0
  0
ARC
  8
T
 10
-3.0
 20
2.188
 30
0.0
 40
0.063
 50
0.0
 51
180.0
  0
ARC
  8
T
 10
-2.5
 20
1.563
 30
0.0
 40
0.063
 50
180.0
 51
0.0
  0
ARC
  8
T
 10
-2.75
 20
1.563
 30
0.0
 40
0.063
 50
180.0
 51
0.0
  0
ARC
  8
T
 10
-3.0
 20
1.563
 30
0.0
 40
0.063
 50
180.0
 51
0.0
  0
LINE
  8
T
 10
-2.563
 20
2.188
 30
0.0
 11
-2.563
 21
1.563
 31
0.0
  0
LINE
  8
T
 10
-2.687
 20
1.563
 30
0.0
 11
-2.687
 21
2.188
 31
0.0
  0
LINE
  8
T
 10
-2.813
 20
2.188
 30
0.0
 11
-2.813
 21
1.563
 31
0.0
  0
LINE
  8
T
 10
-2.937
 20
1.563
 30
0.0
 11
-2.937
 21
2.188
 31
0.0
  0
LINE
  8
T
 10
-3.063
 20
2.188
 30
0.0
 11
-3.063
 21
1.563
 31
0.0
  0
LINE
  8
T
 10
-3.187
 20
1.563
 30
0.0
 11
-3.187
 21
2.188
 31
0.0
  0
ARC
  8
T
 10
-2.0
 20
1.563
 30
0.0
 40
0.063
 50
180.0
 51
0.0
  0
ARC
  8
T
 10
-2.25
 20
1.563
 30
0.0
 40
0.063
 50
180.0
 51
0.0
  0
LINE
  8
T
 10
-1.813
 20
2.188
 30
0.0
 11
-1.813
 21
1.563
 31
0.0
  0
LINE
  8
T
 10
-1.937
 20
1.563
 30
0.0
 11
-1.937
 21
2.188
 31
0.0
  0
LINE
  8
T
 10
-2.063
 20
2.188
 30
0.0
 11
-2.063
 21
1.563
 31
0.0
  0
LINE
  8
T
 10
-2.187
 20
1.563
 30
0.0
 11
-2.187
 21
2.188
 31
0.0
  0
LINE
  8
T
 10
-2.313
 20
2.188
 30
0.0
 11
-2.313
 21
1.563
 31
0.0
  0
LINE
  8
T
 10
-2.437
 20
1.563
 30
0.0
 11
-2.437
 21
2.188
 31
0.0
  0
ARC
  8
T
 10
-0.5
 20
2.188
 30
0.0
 40
0.063
 50
0.0
 51
180.0
  0
ARC
  8
T
 10
-0.75
 20
2.188
 30
0.0
 40
0.063
 50
0.0
 51
180.0
  0
ARC
  8
T
 10
-1.0
 20
2.188
 30
0.0
 40
0.063
 50
0.0
 51
180.0
  0
ARC
  8
T
 10
-1.25
 20
2.188
 30
0.0
 40
0.063
 50
0.0
 51
180.0
  0
ARC
  8
T
 10
-1.5
 20
2.188
 30
0.0
 40
0.063
 50
0.0
 51
180.0
  0
ARC
  8
T
 10
-1.0
 20
1.563
 30
0.0
 40
0.063
 50
180.0
 51
0.0
  0
ARC
  8
T
 10
-1.25
 20
1.563
 30
0.0
 40
0.063
 50
180.0
 51
0.0
  0
ARC
  8
T
 10
-1.5
 20
1.563
 30
0.0
 40
0.063
 50
180.0
 51
0.0
  0
LINE
  8
T
 10
-1.063
 20
2.188
 30
0.0
 11
-1.063
 21
1.563
 31
0.0
  0
LINE
  8
T
 10
-1.187
 20
1.563
 30
0.0
 11
-1.187
 21
2.188
 31
0.0
  0
LINE
  8
T
 10
-1.313
 20
2.188
 30
0.0
 11
-1.313
 21
1.563
 31
0.0
  0
LINE
  8
T
 10
-1.437
 20
1.563
 30
0.0
 11
-1.437
 21
2.188
 31
0.0
  0
LINE
  8
T
 10
-1.563
 20
2.188
 30
0.0
 11
-1.563
 21
1.563
 31
0.0
  0
LINE
  8
T
 10
-1.687
 20
1.563
 30
0.0
 11
-1.687
 21
2.188
 31
0.0
  0
ARC
  8
T
 10
-0.5
 20
1.563
 30
0.0
 40
0.063
 50
180.0
 51
0.0
  0
ARC
  8
T
 10
-0.75
 20
1.563
 30
0.0
 40
0.063
 50
180.0
 51
0.0
  0
LINE
  8
T
 10
-0.313
 20
2.188
 30
0.0
 11
-0.313
 21
1.563
 31
0.0
  0
LINE
  8
T
 10
-0.437
 20
1.563
 30
0.0
 11
-0.437
 21
2.188
 31
0.0
  0
LINE
  8
T
 10
-0.563
 20
2.188
 30
0.0
 11
-0.563
 21
1.563
 31
0.0
  0
LINE
  8
T
 10
-0.687
 20
1.563
 30
0.0
 11
-0.687
 21
2.188
 31
0.0
  0
LINE
  8
T
 10
-0.813
 20
2.188
 30
0.0
 11
-0.813
 21
1.563
 31
0.0
  0
LINE
  8
T
 10
-0.937
 20
1.563
 30
0.0
 11
-0.937
 21
2.188
 31
0.0
  0
ARC
  8
T
 10
5.5
 20
0.063
 30
0.0
 40
0.063
 50
180.0
 51
0.0
  0
ARC
  8
T
 10
5.5
 20
0.688
 30
0.0
 40
0.063
 50
0.0
 51
180.0
  0
ARC
  8
T
 10
5.5
 20
1.563
 30
0.0
 40
0.063
 50
180.0
 51
0.0
  0
ARC
  8
T
 10
5.5
 20
2.188
 30
0.0
 40
0.063
 50
0.0
 51
180.0
  0
LINE
  8
T
 10
1.063
 20
0.063
 30
0.0
 11
1.063
 21
0.688
 31
0.0
  0
LINE
  8
T
 10
0.937
 20
0.688
 30
0.0
 11
0.937
 21
0.063
 31
0.0
  0
LINE
  8
T
 10
0.813
 20
0.063
 30
0.0
 11
0.813
 21
0.688
 31
0.0
  0
LINE
  8
T
 10
0.687
 20
0.688
 30
0.0
 11
0.687
 21
0.063
 31
0.0
  0
LINE
  8
T
 10
0.563
 20
0.063
 30
0.0
 11
0.563
 21
0.688
 31
0.0
  0
LINE
  8
T
 10
0.437
 20
0.688
 30
0.0
 11
0.437
 21
0.063
 31
0.0
  0
LINE
  8
T
 10
0.313
 20
0.063
 30
0.0
 11
0.313
 21
0.688
 31
0.0
  0
LINE
  8
T
 10
0.187
 20
0.688
 30
0.0
 11
0.187
 21
0.063
 31
0.0
  0
LINE
  8
T
 10
0.063
 20
0.063
 30
0.0
 11
0.063
 21
0.688
 31
0.0
  0
LINE
  8
T
 10
-0.063
 20
0.688
 30
0.0
 11
-0.063
 21
0.063
 31
0.0
  0
LINE
  8
T
 10
-0.187
 20
0.063
 30
0.0
 11
-0.187
 21
0.688
 31
0.0
  0
ARC
  8
T
 10
0.25
 20
0.063
 30
0.0
 40
0.063
 50
180.0
 51
0.0
  0
ARC
  8
T
 10
0.0
 20
0.063
 30
0.0
 40
0.063
 50
180.0
 51
0.0
  0
ARC
  8
T
 10
1.0
 20
0.063
 30
0.0
 40
0.063
 50
180.0
 51
0.0
  0
ARC
  8
T
 10
0.75
 20
0.063
 30
0.0
 40
0.063
 50
180.0
 51
0.0
  0
ARC
  8
T
 10
0.5
 20
0.063
 30
0.0
 40
0.063
 50
180.0
 51
0.0
  0
ARC
  8
T
 10
0.25
 20
0.688
 30
0.0
 40
0.063
 50
0.0
 51
180.0
  0
ARC
  8
T
 10
0.0
 20
0.688
 30
0.0
 40
0.063
 50
0.0
 51
180.0
  0
ARC
  8
T
 10
1.0
 20
0.688
 30
0.0
 40
0.063
 50
0.0
 51
180.0
  0
ARC
  8
T
 10
0.75
 20
0.688
 30
0.0
 40
0.063
 50
0.0
 51
180.0
  0
ARC
  8
T
 10
0.5
 20
0.688
 30
0.0
 40
0.063
 50
0.0
 51
180.0
  0
LINE
  8
T
 10
2.563
 20
0.063
 30
0.0
 11
2.563
 21
0.688
 31
0.0
  0
LINE
  8
T
 10
2.437
 20
0.688
 30
0.0
 11
2.437
 21
0.063
 31
0.0
  0
LINE
  8
T
 10
2.313
 20
0.063
 30
0.0
 11
2.313
 21
0.688
 31
0.0
  0
LINE
  8
T
 10
2.187
 20
0.688
 30
0.0
 11
2.187
 21
0.063
 31
0.0
  0
LINE
  8
T
 10
2.063
 20
0.063
 30
0.0
 11
2.063
 21
0.688
 31
0.0
  0
LINE
  8
T
 10
1.937
 20
0.688
 30
0.0
 11
1.937
 21
0.063
 31
0.0
  0
LINE
  8
T
 10
1.813
 20
0.063
 30
0.0
 11
1.813
 21
0.688
 31
0.0
  0
LINE
  8
T
 10
1.687
 20
0.688
 30
0.0
 11
1.687
 21
0.063
 31
0.0
  0
LINE
  8
T
 10
1.563
 20
0.063
 30
0.0
 11
1.563
 21
0.688
 31
0.0
  0
LINE
  8
T
 10
1.437
 20
0.688
 30
0.0
 11
1.437
 21
0.063
 31
0.0
  0
LINE
  8
T
 10
1.313
 20
0.063
 30
0.0
 11
1.313
 21
0.688
 31
0.0
  0
LINE
  8
T
 10
1.187
 20
0.688
 30
0.0
 11
1.187
 21
0.063
 31
0.0
  0
ARC
  8
T
 10
1.75
 20
0.063
 30
0.0
 40
0.063
 50
180.0
 51
0.0
  0
ARC
  8
T
 10
1.5
 20
0.063
 30
0.0
 40
0.063
 50
180.0
 51
0.0
  0
ARC
  8
T
 10
1.25
 20
0.063
 30
0.0
 40
0.063
 50
180.0
 51
0.0
  0
ARC
  8
T
 10
2.5
 20
0.063
 30
0.0
 40
0.063
 50
180.0
 51
0.0
  0
ARC
  8
T
 10
2.25
 20
0.063
 30
0.0
 40
0.063
 50
180.0
 51
0.0
  0
ARC
  8
T
 10
2.0
 20
0.063
 30
0.0
 40
0.063
 50
180.0
 51
0.0
  0
ARC
  8
T
 10
1.75
 20
0.688
 30
0.0
 40
0.063
 50
0.0
 51
180.0
  0
ARC
  8
T
 10
1.5
 20
0.688
 30
0.0
 40
0.063
 50
0.0
 51
180.0
  0
ARC
  8
T
 10
1.25
 20
0.688
 30
0.0
 40
0.063
 50
0.0
 51
180.0
  0
ARC
  8
T
 10
2.5
 20
0.688
 30
0.0
 40
0.063
 50
0.0
 51
180.0
  0
ARC
  8
T
 10
2.25
 20
0.688
 30
0.0
 40
0.063
 50
0.0
 51
180.0
  0
ARC
  8
T
 10
2.0
 20
0.688
 30
0.0
 40
0.063
 50
0.0
 51
180.0
  0
ARC
  8
T
 10
1.0
 20
2.188
 30
0.0
 40
0.063
 50
0.0
 51
180.0
  0
ARC
  8
T
 10
0.75
 20
2.188
 30
0.0
 40
0.063
 50
0.0
 51
180.0
  0
ARC
  8
T
 10
0.5
 20
2.188
 30
0.0
 40
0.063
 50
0.0
 51
180.0
  0
ARC
  8
T
 10
0.25
 20
2.188
 30
0.0
 40
0.063
 50
0.0
 51
180.0
  0
ARC
  8
T
 10
0.0
 20
2.188
 30
0.0
 40
0.063
 50
0.0
 51
180.0
  0
ARC
  8
T
 10
0.25
 20
1.563
 30
0.0
 40
0.063
 50
180.0
 51
0.0
  0
ARC
  8
T
 10
0.0
 20
1.563
 30
0.0
 40
0.063
 50
180.0
 51
0.0
  0
LINE
  8
T
 10
0.313
 20
1.563
 30
0.0
 11
0.313
 21
2.188
 31
0.0
  0
LINE
  8
T
 10
0.187
 20
2.188
 30
0.0
 11
0.187
 21
1.563
 31
0.0
  0
LINE
  8
T
 10
0.063
 20
1.563
 30
0.0
 11
0.063
 21
2.188
 31
0.0
  0
LINE
  8
T
 10
-0.063
 20
2.188
 30
0.0
 11
-0.063
 21
1.563
 31
0.0
  0
LINE
  8
T
 10
-0.187
 20
1.563
 30
0.0
 11
-0.187
 21
2.188
 31
0.0
  0
ARC
  8
T
 10
1.0
 20
1.563
 30
0.0
 40
0.063
 50
180.0
 51
0.0
  0
ARC
  8
T
 10
0.75
 20
1.563
 30
0.0
 40
0.063
 50
180.0
 51
0.0
  0
ARC
  8
T
 10
0.5
 20
1.563
 30
0.0
 40
0.063
 50
180.0
 51
0.0
  0
LINE
  8
T
 10
1.063
 20
1.563
 30
0.0
 11
1.063
 21
2.188
 31
0.0
  0
LINE
  8
T
 10
0.937
 20
2.188
 30
0.0
 11
0.937
 21
1.563
 31
0.0
  0
LINE
  8
T
 10
0.813
 20
1.563
 30
0.0
 11
0.813
 21
2.188
 31
0.0
  0
LINE
  8
T
 10
0.687
 20
2.188
 30
0.0
 11
0.687
 21
1.563
 31
0.0
  0
LINE
  8
T
 10
0.563
 20
1.563
 30
0.0
 11
0.563
 21
2.188
 31
0.0
  0
LINE
  8
T
 10
0.437
 20
2.188
 30
0.0
 11
0.437
 21
1.563
 31
0.0
  0
ARC
  8
T
 10
2.5
 20
2.188
 30
0.0
 40
0.063
 50
0.0
 51
180.0
  0
ARC
  8
T
 10
2.25
 20
2.188
 30
0.0
 40
0.063
 50
0.0
 51
180.0
  0
ARC
  8
T
 10
2.0
 20
2.188
 30
0.0
 40
0.063
 50
0.0
 51
180.0
  0
ARC
  8
T
 10
1.75
 20
2.188
 30
0.0
 40
0.063
 50
0.0
 51
180.0
  0
ARC
  8
T
 10
1.5
 20
2.188
 30
0.0
 40
0.063
 50
0.0
 51
180.0
  0
ARC
  8
T
 10
1.25
 20
2.188
 30
0.0
 40
0.063
 50
0.0
 51
180.0
  0
ARC
  8
T
 10
1.75
 20
1.563
 30
0.0
 40
0.063
 50
180.0
 51
0.0
  0
ARC
  8
T
 10
1.5
 20
1.563
 30
0.0
 40
0.063
 50
180.0
 51
0.0
  0
ARC
  8
T
 10
1.25
 20
1.563
 30
0.0
 40
0.063
 50
180.0
 51
0.0
  0
LINE
  8
T
 10
1.813
 20
1.563
 30
0.0
 11
1.813
 21
2.188
 31
0.0
  0
LINE
  8
T
 10
1.687
 20
2.188
 30
0.0
 11
1.687
 21
1.563
 31
0.0
  0
LINE
  8
T
 10
1.563
 20
1.563
 30
0.0
 11
1.563
 21
2.188
 31
0.0
  0
LINE
  8
T
 10
1.437
 20
2.188
 30
0.0
 11
1.437
 21
1.563
 31
0.0
  0
LINE
  8
T
 10
1.313
 20
1.563
 30
0.0
 11
1.313
 21
2.188
 31
0.0
  0
LINE
  8
T
 10
1.187
 20
2.188
 30
0.0
 11
1.187
 21
1.563
 31
0.0
  0
ARC
  8
T
 10
2.5
 20
1.563
 30
0.0
 40
0.063
 50
180.0
 51
0.0
  0
ARC
  8
T
 10
2.25
 20
1.563
 30
0.0
 40
0.063
 50
180.0
 51
0.0
  0
ARC
  8
T
 10
2.0
 20
1.563
 30
0.0
 40
0.063
 50
180.0
 51
0.0
  0
LINE
  8
T
 10
2.563
 20
1.563
 30
0.0
 11
2.563
 21
2.188
 31
0.0
  0
LINE
  8
T
 10
2.437
 20
2.188
 30
0.0
 11
2.437
 21
1.563
 31
0.0
  0
LINE
  8
T
 10
2.313
 20
1.563
 30
0.0
 11
2.313
 21
2.188
 31
0.0
  0
LINE
  8
T
 10
2.187
 20
2.188
 30
0.0
 11
2.187
 21
1.563
 31
0.0
  0
LINE
  8
T
 10
2.063
 20
1.563
 30
0.0
 11
2.063
 21
2.188
 31
0.0
  0
LINE
  8
T
 10
1.937
 20
2.188
 30
0.0
 11
1.937
 21
1.563
 31
0.0
  0
LINE
  8
T
 10
4.063
 20
0.063
 30
0.0
 11
4.063
 21
0.688
 31
0.0
  0
LINE
  8
T
 10
3.937
 20
0.688
 30
0.0
 11
3.937
 21
0.063
 31
0.0
  0
LINE
  8
T
 10
3.813
 20
0.063
 30
0.0
 11
3.813
 21
0.688
 31
0.0
  0
LINE
  8
T
 10
3.687
 20
0.688
 30
0.0
 11
3.687
 21
0.063
 31
0.0
  0
LINE
  8
T
 10
3.563
 20
0.063
 30
0.0
 11
3.563
 21
0.688
 31
0.0
  0
LINE
  8
T
 10
3.437
 20
0.688
 30
0.0
 11
3.437
 21
0.063
 31
0.0
  0
LINE
  8
T
 10
3.313
 20
0.063
 30
0.0
 11
3.313
 21
0.688
 31
0.0
  0
LINE
  8
T
 10
3.187
 20
0.688
 30
0.0
 11
3.187
 21
0.063
 31
0.0
  0
LINE
  8
T
 10
3.063
 20
0.063
 30
0.0
 11
3.063
 21
0.688
 31
0.0
  0
LINE
  8
T
 10
2.937
 20
0.688
 30
0.0
 11
2.937
 21
0.063
 31
0.0
  0
LINE
  8
T
 10
2.813
 20
0.063
 30
0.0
 11
2.813
 21
0.688
 31
0.0
  0
LINE
  8
T
 10
2.687
 20
0.688
 30
0.0
 11
2.687
 21
0.063
 31
0.0
  0
ARC
  8
T
 10
3.25
 20
0.063
 30
0.0
 40
0.063
 50
180.0
 51
0.0
  0
ARC
  8
T
 10
3.0
 20
0.063
 30
0.0
 40
0.063
 50
180.0
 51
0.0
  0
ARC
  8
T
 10
2.75
 20
0.063
 30
0.0
 40
0.063
 50
180.0
 51
0.0
  0
ARC
  8
T
 10
4.0
 20
0.063
 30
0.0
 40
0.063
 50
180.0
 51
0.0
  0
ARC
  8
T
 10
3.75
 20
0.063
 30
0.0
 40
0.063
 50
180.0
 51
0.0
  0
ARC
  8
T
 10
3.5
 20
0.063
 30
0.0
 40
0.063
 50
180.0
 51
0.0
  0
ARC
  8
T
 10
3.25
 20
0.688
 30
0.0
 40
0.063
 50
0.0
 51
180.0
  0
ARC
  8
T
 10
3.0
 20
0.688
 30
0.0
 40
0.063
 50
0.0
 51
180.0
  0
ARC
  8
T
 10
2.75
 20
0.688
 30
0.0
 40
0.063
 50
0.0
 51
180.0
  0
ARC
  8
T
 10
4.0
 20
0.688
 30
0.0
 40
0.063
 50
0.0
 51
180.0
  0
ARC
  8
T
 10
3.75
 20
0.688
 30
0.0
 40
0.063
 50
0.0
 51
180.0
  0
ARC
  8
T
 10
3.5
 20
0.688
 30
0.0
 40
0.063
 50
0.0
 51
180.0
  0
LINE
  8
T
 10
5.437
 20
0.688
 30
0.0
 11
5.437
 21
0.063
 31
0.0
  0
LINE
  8
T
 10
5.313
 20
0.063
 30
0.0
 11
5.313
 21
0.688
 31
0.0
  0
LINE
  8
T
 10
5.187
 20
0.688
 30
0.0
 11
5.187
 21
0.063
 31
0.0
  0
LINE
  8
T
 10
5.063
 20
0.063
 30
0.0
 11
5.063
 21
0.688
 31
0.0
  0
LINE
  8
T
 10
4.937
 20
0.688
 30
0.0
 11
4.937
 21
0.063
 31
0.0
  0
LINE
  8
T
 10
4.813
 20
0.063
 30
0.0
 11
4.813
 21
0.688
 31
0.0
  0
LINE
  8
T
 10
4.687
 20
0.688
 30
0.0
 11
4.687
 21
0.063
 31
0.0
  0
LINE
  8
T
 10
4.563
 20
0.063
 30
0.0
 11
4.563
 21
0.688
 31
0.0
  0
LINE
  8
T
 10
4.437
 20
0.688
 30
0.0
 11
4.437
 21
0.063
 31
0.0
  0
LINE
  8
T
 10
4.313
 20
0.063
 30
0.0
 11
4.313
 21
0.688
 31
0.0
  0
LINE
  8
T
 10
4.187
 20
0.688
 30
0.0
 11
4.187
 21
0.063
 31
0.0
  0
ARC
  8
T
 10
4.75
 20
0.063
 30
0.0
 40
0.063
 50
180.0
 51
0.0
  0
ARC
  8
T
 10
4.5
 20
0.063
 30
0.0
 40
0.063
 50
180.0
 51
0.0
  0
ARC
  8
T
 10
4.25
 20
0.063
 30
0.0
 40
0.063
 50
180.0
 51
0.0
  0
ARC
  8
T
 10
5.25
 20
0.063
 30
0.0
 40
0.063
 50
180.0
 51
0.0
  0
ARC
  8
T
 10
5.0
 20
0.063
 30
0.0
 40
0.063
 50
180.0
 51
0.0
  0
ARC
  8
T
 10
4.75
 20
0.688
 30
0.0
 40
0.063
 50
0.0
 51
180.0
  0
ARC
  8
T
 10
4.5
 20
0.688
 30
0.0
 40
0.063
 50
0.0
 51
180.0
  0
ARC
  8
T
 10
4.25
 20
0.688
 30
0.0
 40
0.063
 50
0.0
 51
180.0
  0
ARC
  8
T
 10
5.25
 20
0.688
 30
0.0
 40
0.063
 50
0.0
 51
180.0
  0
ARC
  8
T
 10
5.0
 20
0.688
 30
0.0
 40
0.063
 50
0.0
 51
180.0
  0
ARC
  8
T
 10
4.0
 20
2.188
 30
0.0
 40
0.063
 50
0.0
 51
180.0
  0
ARC
  8
T
 10
3.75
 20
2.188
 30
0.0
 40
0.063
 50
0.0
 51
180.0
  0
ARC
  8
T
 10
3.5
 20
2.188
 30
0.0
 40
0.063
 50
0.0
 51
180.0
  0
ARC
  8
T
 10
3.25
 20
2.188
 30
0.0
 40
0.063
 50
0.0
 51
180.0
  0
ARC
  8
T
 10
3.0
 20
2.188
 30
0.0
 40
0.063
 50
0.0
 51
180.0
  0
ARC
  8
T
 10
2.75
 20
2.188
 30
0.0
 40
0.063
 50
0.0
 51
180.0
  0
ARC
  8
T
 10
3.25
 20
1.563
 30
0.0
 40
0.063
 50
180.0
 51
0.0
  0
ARC
  8
T
 10
3.0
 20
1.563
 30
0.0
 40
0.063
 50
180.0
 51
0.0
  0
LINE
  8
T
 10
3.313
 20
1.563
 30
0.0
 11
3.313
 21
2.188
 31
0.0
  0
LINE
  8
T
 10
3.187
 20
2.188
 30
0.0
 11
3.187
 21
1.563
 31
0.0
  0
LINE
  8
T
 10
3.063
 20
1.563
 30
0.0
 11
3.063
 21
2.188
 31
0.0
  0
LINE
  8
T
 10
2.937
 20
2.188
 30
0.0
 11
2.937
 21
1.563
 31
0.0
  0
ARC
  8
T
 10
2.75
 20
1.563
 30
0.0
 40
0.063
 50
180.0
 51
0.0
  0
LINE
  8
T
 10
2.813
 20
1.563
 30
0.0
 11
2.813
 21
2.188
 31
0.0
  0
LINE
  8
T
 10
2.687
 20
2.188
 30
0.0
 11
2.687
 21
1.563
 31
0.0
  0
ARC
  8
T
 10
4.0
 20
1.563
 30
0.0
 40
0.063
 50
180.0
 51
0.0
  0
ARC
  8
T
 10
3.75
 20
1.563
 30
0.0
 40
0.063
 50
180.0
 51
0.0
  0
ARC
  8
T
 10
3.5
 20
1.563
 30
0.0
 40
0.063
 50
180.0
 51
0.0
  0
LINE
  8
T
 10
4.063
 20
1.563
 30
0.0
 11
4.063
 21
2.188
 31
0.0
  0
LINE
  8
T
 10
3.937
 20
2.188
 30
0.0
 11
3.937
 21
1.563
 31
0.0
  0
LINE
  8
T
 10
3.813
 20
1.563
 30
0.0
 11
3.813
 21
2.188
 31
0.0
  0
LINE
  8
T
 10
3.687
 20
2.188
 30
0.0
 11
3.687
 21
1.563
 31
0.0
  0
LINE
  8
T
 10
3.563
 20
1.563
 30
0.0
 11
3.563
 21
2.188
 31
0.0
  0
LINE
  8
T
 10
3.437
 20
2.188
 30
0.0
 11
3.437
 21
1.563
 31
0.0
  0
ARC
  8
T
 10
5.25
 20
2.188
 30
0.0
 40
0.063
 50
0.0
 51
180.0
  0
ARC
  8
T
 10
5.0
 20
2.188
 30
0.0
 40
0.063
 50
0.0
 51
180.0
  0
ARC
  8
T
 10
4.75
 20
2.188
 30
0.0
 40
0.063
 50
0.0
 51
180.0
  0
ARC
  8
T
 10
4.5
 20
2.188
 30
0.0
 40
0.063
 50
0.0
 51
180.0
  0
ARC
  8
T
 10
4.25
 20
2.188
 30
0.0
 40
0.063
 50
0.0
 51
180.0
  0
ARC
  8
T
 10
4.75
 20
1.563
 30
0.0
 40
0.063
 50
180.0
 51
0.0
  0
ARC
  8
T
 10
4.5
 20
1.563
 30
0.0
 40
0.063
 50
180.0
 51
0.0
  0
ARC
  8
T
 10
4.25
 20
1.563
 30
0.0
 40
0.063
 50
180.0
 51
0.0
  0
LINE
  8
T
 10
4.813
 20
1.563
 30
0.0
 11
4.813
 21
2.188
 31
0.0
  0
LINE
  8
T
 10
4.687
 20
2.188
 30
0.0
 11
4.687
 21
1.563
 31
0.0
  0
LINE
  8
T
 10
4.563
 20
1.563
 30
0.0
 11
4.563
 21
2.188
 31
0.0
  0
LINE
  8
T
 10
4.437
 20
2.188
 30
0.0
 11
4.437
 21
1.563
 31
0.0
  0
LINE
  8
T
 10
4.313
 20
1.563
 30
0.0
 11
4.313
 21
2.188
 31
0.0
  0
LINE
  8
T
 10
4.187
 20
2.188
 30
0.0
 11
4.187
 21
1.563
 31
0.0
  0
ARC
  8
T
 10
5.25
 20
1.563
 30
0.0
 40
0.063
 50
180.0
 51
0.0
  0
ARC
  8
T
 10
5.0
 20
1.563
 30
0.0
 40
0.063
 50
180.0
 51
0.0
  0
LINE
  8
T
 10
5.437
 20
2.188
 30
0.0
 11
5.437
 21
1.563
 31
0.0
  0
LINE
  8
T
 10
5.313
 20
1.563
 30
0.0
 11
5.313
 21
2.188
 31
0.0
  0
LINE
  8
T
 10
5.187
 20
2.188
 30
0.0
 11
5.187
 21
1.563
 31
0.0
  0
LINE
  8
T
 10
5.063
 20
1.563
 30
0.0
 11
5.063
 21
2.188
 31
0.0
  0
LINE
  8
T
 10
4.937
 20
2.188
 30
0.0
 11
4.937
 21
1.563
 31
0.0
  0
ARC
  8
T
 10
8.5
 20
1.563
 30
0.0
 40
0.063
 50
180.0
 51
0.0
  0
ARC
  8
T
 10
8.5
 20
2.188
 30
0.0
 40
0.063
 50
0.0
 51
180.0
  0
ARC
  8
T
 10
8.5
 20
0.063
 30
0.0
 40
0.063
 50
180.0
 51
0.0
  0
ARC
  8
T
 10
8.5
 20
0.688
 30
0.0
 40
0.063
 50
0.0
 51
180.0
  0
ARC
  8
T
 10
7.0
 20
0.063
 30
0.0
 40
0.063
 50
180.0
 51
0.0
  0
ARC
  8
T
 10
7.0
 20
0.688
 30
0.0
 40
0.063
 50
0.0
 51
180.0
  0
LINE
  8
T
 10
6.937
 20
0.688
 30
0.0
 11
6.937
 21
0.063
 31
0.0
  0
LINE
  8
T
 10
6.813
 20
0.063
 30
0.0
 11
6.813
 21
0.688
 31
0.0
  0
LINE
  8
T
 10
6.687
 20
0.688
 30
0.0
 11
6.687
 21
0.063
 31
0.0
  0
LINE
  8
T
 10
6.563
 20
0.063
 30
0.0
 11
6.563
 21
0.688
 31
0.0
  0
LINE
  8
T
 10
6.437
 20
0.688
 30
0.0
 11
6.437
 21
0.063
 31
0.0
  0
LINE
  8
T
 10
6.313
 20
0.063
 30
0.0
 11
6.313
 21
0.688
 31
0.0
  0
LINE
  8
T
 10
6.187
 20
0.688
 30
0.0
 11
6.187
 21
0.063
 31
0.0
  0
LINE
  8
T
 10
6.063
 20
0.063
 30
0.0
 11
6.063
 21
0.688
 31
0.0
  0
LINE
  8
T
 10
5.937
 20
0.688
 30
0.0
 11
5.937
 21
0.063
 31
0.0
  0
LINE
  8
T
 10
5.813
 20
0.063
 30
0.0
 11
5.813
 21
0.688
 31
0.0
  0
LINE
  8
T
 10
5.687
 20
0.688
 30
0.0
 11
5.687
 21
0.063
 31
0.0
  0
LINE
  8
T
 10
5.563
 20
0.063
 30
0.0
 11
5.563
 21
0.688
 31
0.0
  0
ARC
  8
T
 10
6.25
 20
0.063
 30
0.0
 40
0.063
 50
180.0
 51
0.0
  0
ARC
  8
T
 10
6.0
 20
0.063
 30
0.0
 40
0.063
 50
180.0
 51
0.0
  0
ARC
  8
T
 10
5.75
 20
0.063
 30
0.0
 40
0.063
 50
180.0
 51
0.0
  0
ARC
  8
T
 10
6.75
 20
0.063
 30
0.0
 40
0.063
 50
180.0
 51
0.0
  0
ARC
  8
T
 10
6.5
 20
0.063
 30
0.0
 40
0.063
 50
180.0
 51
0.0
  0
ARC
  8
T
 10
6.25
 20
0.688
 30
0.0
 40
0.063
 50
0.0
 51
180.0
  0
ARC
  8
T
 10
6.0
 20
0.688
 30
0.0
 40
0.063
 50
0.0
 51
180.0
  0
ARC
  8
T
 10
5.75
 20
0.688
 30
0.0
 40
0.063
 50
0.0
 51
180.0
  0
ARC
  8
T
 10
6.75
 20
0.688
 30
0.0
 40
0.063
 50
0.0
 51
180.0
  0
ARC
  8
T
 10
6.5
 20
0.688
 30
0.0
 40
0.063
 50
0.0
 51
180.0
  0
LINE
  8
T
 10
8.437
 20
0.688
 30
0.0
 11
8.437
 21
0.063
 31
0.0
  0
LINE
  8
T
 10
8.313
 20
0.063
 30
0.0
 11
8.313
 21
0.688
 31
0.0
  0
LINE
  8
T
 10
8.187
 20
0.688
 30
0.0
 11
8.187
 21
0.063
 31
0.0
  0
LINE
  8
T
 10
8.063
 20
0.063
 30
0.0
 11
8.063
 21
0.688
 31
0.0
  0
LINE
  8
T
 10
7.937
 20
0.688
 30
0.0
 11
7.937
 21
0.063
 31
0.0
  0
LINE
  8
T
 10
7.813
 20
0.063
 30
0.0
 11
7.813
 21
0.688
 31
0.0
  0
LINE
  8
T
 10
7.687
 20
0.688
 30
0.0
 11
7.687
 21
0.063
 31
0.0
  0
LINE
  8
T
 10
7.563
 20
0.063
 30
0.0
 11
7.563
 21
0.688
 31
0.0
  0
LINE
  8
T
 10
7.437
 20
0.688
 30
0.0
 11
7.437
 21
0.063
 31
0.0
  0
LINE
  8
T
 10
7.313
 20
0.063
 30
0.0
 11
7.313
 21
0.688
 31
0.0
  0
LINE
  8
T
 10
7.187
 20
0.688
 30
0.0
 11
7.187
 21
0.063
 31
0.0
  0
LINE
  8
T
 10
7.063
 20
0.063
 30
0.0
 11
7.063
 21
0.688
 31
0.0
  0
ARC
  8
T
 10
7.75
 20
0.063
 30
0.0
 40
0.063
 50
180.0
 51
0.0
  0
ARC
  8
T
 10
7.5
 20
0.063
 30
0.0
 40
0.063
 50
180.0
 51
0.0
  0
ARC
  8
T
 10
7.25
 20
0.063
 30
0.0
 40
0.063
 50
180.0
 51
0.0
  0
ARC
  8
T
 10
8.25
 20
0.063
 30
0.0
 40
0.063
 50
180.0
 51
0.0
  0
ARC
  8
T
 10
8.0
 20
0.063
 30
0.0
 40
0.063
 50
180.0
 51
0.0
  0
ARC
  8
T
 10
7.75
 20
0.688
 30
0.0
 40
0.063
 50
0.0
 51
180.0
  0
ARC
  8
T
 10
7.5
 20
0.688
 30
0.0
 40
0.063
 50
0.0
 51
180.0
  0
ARC
  8
T
 10
7.25
 20
0.688
 30
0.0
 40
0.063
 50
0.0
 51
180.0
  0
ARC
  8
T
 10
8.25
 20
0.688
 30
0.0
 40
0.063
 50
0.0
 51
180.0
  0
ARC
  8
T
 10
8.0
 20
0.688
 30
0.0
 40
0.063
 50
0.0
 51
180.0
  0
ARC
  8
T
 10
7.0
 20
1.563
 30
0.0
 40
0.063
 50
180.0
 51
0.0
  0
ARC
  8
T
 10
7.0
 20
2.188
 30
0.0
 40
0.063
 50
0.0
 51
180.0
  0
ARC
  8
T
 10
6.75
 20
2.188
 30
0.0
 40
0.063
 50
0.0
 51
180.0
  0
ARC
  8
T
 10
6.5
 20
2.188
 30
0.0
 40
0.063
 50
0.0
 51
180.0
  0
ARC
  8
T
 10
6.25
 20
2.188
 30
0.0
 40
0.063
 50
0.0
 51
180.0
  0
ARC
  8
T
 10
6.0
 20
2.188
 30
0.0
 40
0.063
 50
0.0
 51
180.0
  0
ARC
  8
T
 10
5.75
 20
2.188
 30
0.0
 40
0.063
 50
0.0
 51
180.0
  0
ARC
  8
T
 10
6.25
 20
1.563
 30
0.0
 40
0.063
 50
180.0
 51
0.0
  0
ARC
  8
T
 10
6.0
 20
1.563
 30
0.0
 40
0.063
 50
180.0
 51
0.0
  0
LINE
  8
T
 10
6.187
 20
2.188
 30
0.0
 11
6.187
 21
1.563
 31
0.0
  0
LINE
  8
T
 10
6.063
 20
1.563
 30
0.0
 11
6.063
 21
2.188
 31
0.0
  0
LINE
  8
T
 10
5.937
 20
2.188
 30
0.0
 11
5.937
 21
1.563
 31
0.0
  0
ARC
  8
T
 10
5.75
 20
1.563
 30
0.0
 40
0.063
 50
180.0
 51
0.0
  0
LINE
  8
T
 10
5.813
 20
1.563
 30
0.0
 11
5.813
 21
2.188
 31
0.0
  0
LINE
  8
T
 10
5.687
 20
2.188
 30
0.0
 11
5.687
 21
1.563
 31
0.0
  0
LINE
  8
T
 10
5.563
 20
1.563
 30
0.0
 11
5.563
 21
2.188
 31
0.0
  0
ARC
  8
T
 10
6.75
 20
1.563
 30
0.0
 40
0.063
 50
180.0
 51
0.0
  0
ARC
  8
T
 10
6.5
 20
1.563
 30
0.0
 40
0.063
 50
180.0
 51
0.0
  0
LINE
  8
T
 10
6.937
 20
2.188
 30
0.0
 11
6.937
 21
1.563
 31
0.0
  0
LINE
  8
T
 10
6.813
 20
1.563
 30
0.0
 11
6.813
 21
2.188
 31
0.0
  0
LINE
  8
T
 10
6.687
 20
2.188
 30
0.0
 11
6.687
 21
1.563
 31
0.0
  0
LINE
  8
T
 10
6.563
 20
1.563
 30
0.0
 11
6.563
 21
2.188
 31
0.0
  0
LINE
  8
T
 10
6.437
 20
2.188
 30
0.0
 11
6.437
 21
1.563
 31
0.0
  0
LINE
  8
T
 10
6.313
 20
1.563
 30
0.0
 11
6.313
 21
2.188
 31
0.0
  0
ARC
  8
T
 10
8.25
 20
2.188
 30
0.0
 40
0.063
 50
0.0
 51
180.0
  0
ARC
  8
T
 10
8.0
 20
2.188
 30
0.0
 40
0.063
 50
0.0
 51
180.0
  0
ARC
  8
T
 10
7.75
 20
2.188
 30
0.0
 40
0.063
 50
0.0
 51
180.0
  0
ARC
  8
T
 10
7.5
 20
2.188
 30
0.0
 40
0.063
 50
0.0
 51
180.0
  0
ARC
  8
T
 10
7.25
 20
2.188
 30
0.0
 40
0.063
 50
0.0
 51
180.0
  0
ARC
  8
T
 10
7.75
 20
1.563
 30
0.0
 40
0.063
 50
180.0
 51
0.0
  0
ARC
  8
T
 10
7.5
 20
1.563
 30
0.0
 40
0.063
 50
180.0
 51
0.0
  0
ARC
  8
T
 10
7.25
 20
1.563
 30
0.0
 40
0.063
 50
180.0
 51
0.0
  0
LINE
  8
T
 10
7.687
 20
2.188
 30
0.0
 11
7.687
 21
1.563
 31
0.0
  0
LINE
  8
T
 10
7.563
 20
1.563
 30
0.0
 11
7.563
 21
2.188
 31
0.0
  0
LINE
  8
T
 10
7.437
 20
2.188
 30
0.0
 11
7.437
 21
1.563
 31
0.0
  0
LINE
  8
T
 10
7.313
 20
1.563
 30
0.0
 11
7.313
 21
2.188
 31
0.0
  0
LINE
  8
T
 10
7.187
 20
2.188
 30
0.0
 11
7.187
 21
1.563
 31
0.0
  0
LINE
  8
T
 10
7.063
 20
1.563
 30
0.0
 11
7.063
 21
2.188
 31
0.0
  0
ARC
  8
T
 10
8.25
 20
1.563
 30
0.0
 40
0.063
 50
180.0
 51
0.0
  0
ARC
  8
T
 10
8.0
 20
1.563
 30
0.0
 40
0.063
 50
180.0
 51
0.0
  0
LINE
  8
T
 10
8.437
 20
2.188
 30
0.0
 11
8.437
 21
1.563
 31
0.0
  0
LINE
  8
T
 10
8.313
 20
1.563
 30
0.0
 11
8.313
 21
2.188
 31
0.0
  0
LINE
  8
T
 10
8.187
 20
2.188
 30
0.0
 11
8.187
 21
1.563
 31
0.0
  0
LINE
  8
T
 10
8.063
 20
1.563
 30
0.0
 11
8.063
 21
2.188
 31
0.0
  0
LINE
  8
T
 10
7.937
 20
2.188
 30
0.0
 11
7.937
 21
1.563
 31
0.0
  0
LINE
  8
T
 10
7.813
 20
1.563
 30
0.0
 11
7.813
 21
2.188
 31
0.0
  0
LINE
  8
T
 10
8.813
 20
0.063
 30
0.0
 11
8.813
 21
0.688
 31
0.0
  0
LINE
  8
T
 10
8.687
 20
0.688
 30
0.0
 11
8.687
 21
0.063
 31
0.0
  0
LINE
  8
T
 10
8.563
 20
0.063
 30
0.0
 11
8.563
 21
0.688
 31
0.0
  0
LINE
  8
T
 10
9.0625
 20
0.6885
 30
0.0
 11
9.0625
 21
0.0635
 31
0.0
  0
LINE
  8
T
 10
8.9375
 20
0.0635
 30
0.0
 11
8.9375
 21
0.6885
 31
0.0
  0
ARC
  8
T
 10
8.75
 20
0.063
 30
0.0
 40
0.063
 50
180.0
 51
0.0
  0
ARC
  8
T
 10
9.0
 20
0.0635
 30
0.0
 40
0.0625
 50
180.0
 51
0.0
  0
ARC
  8
T
 10
8.75
 20
0.688
 30
0.0
 40
0.063
 50
0.0
 51
180.0
  0
ARC
  8
T
 10
9.0
 20
0.6885
 30
0.0
 40
0.0625
 50
0.0
 51
180.0
  0
ARC
  8
T
 10
8.75
 20
2.188
 30
0.0
 40
0.063
 50
0.0
 51
180.0
  0
ARC
  8
T
 10
9.0
 20
2.1885
 30
0.0
 40
0.0625
 50
0.0
 51
180.0
  0
ARC
  8
T
 10
8.75
 20
1.563
 30
0.0
 40
0.063
 50
180.0
 51
0.0
  0
LINE
  8
T
 10
8.813
 20
1.563
 30
0.0
 11
8.813
 21
2.188
 31
0.0
  0
LINE
  8
T
 10
8.687
 20
2.188
 30
0.0
 11
8.687
 21
1.563
 31
0.0
  0
LINE
  8
T
 10
8.563
 20
1.563
 30
0.0
 11
8.563
 21
2.188
 31
0.0
  0
ARC
  8
T
 10
9.0
 20
1.5635
 30
0.0
 40
0.0625
 50
180.0
 51
0.0
  0
LINE
  8
T
 10
9.0625
 20
2.1885
 30
0.0
 11
9.0625
 21
1.5635
 31
0.0
  0
LINE
  8
T
 10
8.9375
 20
1.5635
 30
0.0
 11
8.9375
 21
2.1885
 31
0.0
  0
ENDBLK
  8
0
  0
BLOCK
  8
0
  2
SIDE
 70
     0
 10
0.0
 20
0.0
 30
0.0
  3
SIDE
  0
LINE
  8
OBJECT
 10
0.0
 20
3.992
 30
0.0
 11
8.101
 21
3.992
 31
0.0
  0
LINE
  8
OBJECT
 10
-0.047
 20
4.039
 30
0.0
 11
8.148
 21
4.039
 31
0.0
  0
LINE
  8
OBJECT
 10
0.0
 20
0.0
 30
0.0
 11
0.0
 21
3.992
 31
0.0
  0
LINE
  8
OBJECT
 10
-0.047
 20
0.0
 30
0.0
 11
-0.047
 21
4.039
 31
0.0
  0
LINE
  8
OBJECT
 62
     4
 10
-0.078
 20
-0.523
 30
0.0
 11
-0.078
 21
0.008
 31
0.0
  0
LINE
  8
OBJECT
 62
     4
 10
-0.047
 20
-0.523
 30
0.0
 11
-0.047
 21
0.539
 31
0.0
  0
LINE
  8
OBJECT
 62
     4
 10
-0.078
 20
-0.523
 30
0.0
 11
-0.047
 21
-0.523
 31
0.0
  0
LINE
  8
OBJECT
 62
     4
 10
-0.078
 20
0.069245
 30
0.0
 11
-0.078
 21
0.539
 31
0.0
  0
CIRCLE
  8
OBJECT
 62
     4
 10
-0.123
 20
0.008
 30
0.0
 40
0.045
  0
ARC
  8
OBJECT
 62
     4
 10
-0.123
 20
0.008
 30
0.0
 40
0.076
 50
0.0
 51
306.306547
  0
LINE
  8
OBJECT
 10
0.0
 20
0.0
 30
0.0
 11
-0.047
 21
0.0
 31
0.0
  0
LINE
  8
OBJECT
 62
     4
 10
-0.047
 20
0.539
 30
0.0
 11
-0.078
 21
0.539
 31
0.0
  0
LINE
  8
HIDDEN
 10
6.571707
 20
3.706228
 30
0.0
 11
6.469665
 21
3.44114
 31
0.0
  0
ARC
  8
HIDDEN
 10
5.41417
 20
3.62517
 30
0.0
 40
0.16617
 50
135.0
 51
270.0
  0
LINE
  8
HIDDEN
 10
6.593
 20
4.039
 30
0.0
 11
6.013
 21
3.459
 31
0.0
  0
LINE
  8
OBJECT
 10
6.736097
 20
3.93605
 30
0.0
 11
6.543811
 21
3.44114
 31
0.0
  0
LINE
  8
OBJECT
 10
6.691995
 20
4.039
 30
0.0
 11
6.041995
 21
3.389
 31
0.0
  0
ARC
  8
OBJECT
 10
5.41417
 20
3.62517
 30
0.0
 40
0.23617
 50
135.0
 51
270.0
  0
LINE
  8
OBJECT
 10
6.543811
 20
3.44114
 30
0.0
 11
6.094135
 21
3.44114
 31
0.0
  0
LINE
  8
HIDDEN
 10
5.41417
 20
3.459
 30
0.0
 11
6.013
 21
3.459
 31
0.0
  0
LINE
  8
OBJECT
 10
5.41417
 20
3.389
 30
0.0
 11
6.041995
 21
3.389
 31
0.0
  0
LINE
  8
OBJECT
 10
6.762
 20
4.117
 30
0.0
 11
5.424
 21
4.117
 31
0.0
  0
LINE
  8
OBJECT
 10
5.393
 20
4.039
 30
0.0
 11
6.793
 21
4.039
 31
0.0
  0
LINE
  8
HIDDEN
 10
5.516289
 20
3.962289
 30
0.0
 11
5.29667
 21
3.74267
 31
0.0
  0
LINE
  8
OBJECT
 10
5.446289
 20
3.991284
 30
0.0
 11
5.247173
 21
3.792168
 31
0.0
  0
LINE
  8
OBJECT
 10
5.32501
 20
3.969
 30
0.0
 11
5.424005
 21
3.969
 31
0.0
  0
LINE
  8
OBJECT
 10
5.32501
 20
3.969
 30
0.0
 11
5.271
 21
3.91499
 31
0.0
  0
LINE
  8
OBJECT
 10
5.271
 20
3.91499
 30
0.0
 11
5.271
 21
3.815995
 31
0.0
  0
LINE
  8
OBJECT
 10
5.446289
 20
4.039
 30
0.0
 11
5.446289
 21
3.991284
 31
0.0
  0
ARC
  8
OBJECT
 10
5.424
 20
4.086
 30
0.0
 40
0.031
 50
90.0
 51
180.0
  0
LINE
  8
OBJECT
 10
5.393
 20
4.039
 30
0.0
 11
5.393
 21
4.086
 31
0.0
  0
LINE
  8
HIDDEN
 10
5.516289
 20
4.039
 30
0.0
 11
5.516289
 21
3.962289
 31
0.0
  0
LINE
  8
OBJECT
 10
6.730621
 20
3.969
 30
0.0
 11
6.730621
 21
4.039
 31
0.0
  0
LINE
  8
OBJECT
 10
6.639954
 20
3.688595
 30
0.0
 11
6.40285
 21
3.749855
 31
0.0
  0
LINE
  8
OBJECT
 10
6.664244
 20
3.944402
 30
0.0
 11
6.571707
 21
3.706228
 31
0.0
  0
LINE
  8
OBJECT
 10
6.621995
 20
3.969
 30
0.0
 11
6.730621
 21
3.969
 31
0.0
  0
ARC
  8
OBJECT
 10
6.707201
 20
3.947277
 30
0.0
 40
0.031
 50
338.767442
 51
28.889683
  0
LINE
  8
OBJECT
 10
6.650671
 20
3.969
 30
0.0
 11
6.664244
 21
3.944402
 31
0.0
  0
LINE
  8
OBJECT
 10
6.730621
 20
3.969
 30
0.0
 11
6.734343
 21
3.962253
 31
0.0
  0
ARC
  8
OBJECT
 10
6.762
 20
4.086
 30
0.0
 40
0.031
 50
0.0
 51
90.0
  0
LINE
  8
OBJECT
 10
6.793
 20
4.086
 30
0.0
 11
6.793
 21
4.039
 31
0.0
  0
LINE
  8
OBJECT
 10
8.101
 20
3.992
 30
0.0
 11
8.101
 21
3.727
 31
0.0
  0
LINE
  8
OBJECT
 10
8.148
 20
4.039
 30
0.0
 11
8.148
 21
3.727
 31
0.0
  0
LINE
  8
OBJECT
 10
8.148
 20
3.727
 30
0.0
 11
8.101
 21
3.727
 31
0.0
  0
ENDBLK
  8
0
  0
ENDSEC
  0
SECTION
  2
ENTITIES
  0
LINE
  8
OBJECT
 62
     7
 10
72.0978
 20
17.6402
 30
0.0
 11
70.6603
 21
17.6402
 31
0.0
  0
LINE
  8
OBJECT
 62
     7
 10
70.6603
 20
17.6402
 30
0.0
 11
70.6603
 21
17.7652
 31
0.0
  0
LINE
  8
OBJECT
 62
     7
 10
51.6603
 20
17.7652
 30
0.0
 11
51.6603
 21
17.6402
 31
0.0
  0
LINE
  8
OBJECT
 62
     7
 10
51.6603
 20
17.6402
 30
0.0
 11
50.2228
 21
17.6402
 31
0.0
  0
LINE
  8
OBJECT
 62
     7
 10
50.2228
 20
3.7652
 30
0.0
 11
72.0978
 21
3.7652
 31
0.0
  0
CIRCLE
  8
OBJECT
 62
     7
 10
70.5978
 20
4.7652
 30
0.0
 40
0.07
  0
CIRCLE
  8
OBJECT
 62
     7
 10
70.5978
 20
16.0152
 30
0.0
 40
0.07
  0
CIRCLE
  8
OBJECT
 62
     7
 10
51.7228
 20
16.0152
 30
0.0
 40
0.07
  0
CIRCLE
  8
OBJECT
 62
     7
 10
51.7228
 20
4.7652
 30
0.0
 40
0.07
  0
LINE
  8
HIDDEN
 62
     7
 10
44.782715
 20
22.471685
 30
0.0
 11
45.907715
 21
22.471685
 31
0.0
  0
LINE
  8
HIDDEN
 62
     7
 10
45.907715
 20
22.471685
 30
0.0
 11
45.907715
 21
21.784185
 31
0.0
  0
LINE
  8
HIDDEN
 62
     7
 10
45.907715
 20
21.784185
 30
0.0
 11
31.907715
 21
21.784185
 31
0.0
  0
LINE
  8
HIDDEN
 62
     7
 10
31.907715
 20
21.784185
 30
0.0
 11
31.907715
 21
22.284185
 31
0.0
  0
LINE
  8
HIDDEN
 62
     7
 10
44.782715
 20
22.409685
 30
0.0
 11
45.845715
 21
22.409685
 31
0.0
  0
LINE
  8
HIDDEN
 62
     7
 10
45.845715
 20
22.409685
 30
0.0
 11
45.845715
 21
21.846185
 31
0.0
  0
LINE
  8
HIDDEN
 62
     7
 10
45.845715
 20
21.846185
 30
0.0
 11
31.969715
 21
21.846185
 31
0.0
  0
LINE
  8
HIDDEN
 62
     7
 10
31.969715
 20
21.846185
 30
0.0
 11
31.969715
 21
22.284185
 31
0.0
  0
LINE
  8
HIDDEN
 62
     7
 10
31.907715
 20
22.284185
 30
0.0
 11
31.969715
 21
22.284185
 31
0.0
  0
LINE
  8
HIDDEN
 62
     7
 10
44.782715
 20
22.409685
 30
0.0
 11
44.782715
 21
22.471685
 31
0.0
  0
TEXT
  8
DIM
 10
21.112552
 20
12.478898
 30
0.0
 40
0.5
  1

  0
TEXT
  8
DIM
 10
20.376625
 20
10.861999
 30
0.0
 40
0.666625
  1

  0
LINE
  8
OBJECT
 62
     7
 10
51.6603
 20
17.7652
 30
0.0
 11
70.6603
 21
17.7652
 31
0.0
  0
LINE
  8
HIDDEN
 62
     7
 10
51.6603
 20
16.6402
 30
0.0
 11
70.6603
 21
16.6402
 31
0.0
  0
LINE
  8
HIDDEN
 62
     7
 10
70.6603
 20
16.6402
 30
0.0
 11
70.6603
 21
17.6402
 31
0.0
  0
LINE
  8
HIDDEN
 62
     7
 10
51.6603
 20
17.6402
 30
0.0
 11
51.6603
 21
16.6402
 31
0.0
  0
LINE
  8
HIDDEN
 62
     7
 10
51.6603
 20
17.7032
 30
0.0
 11
70.6603
 21
17.7032
 31
0.0
  0
LINE
  8
HIDDEN
 62
     7
 10
50.2228
 20
3.8272
 30
0.0
 11
72.0978
 21
3.8272
 31
0.0
  0
LINE
  8
HIDDEN
 62
     7
 10
45.876715
 20
26.628185
 30
0.0
 11
45.814715
 21
26.628185
 31
0.0
  0
LINE
  8
OBJECT
 62
     7
 10
45.876715
 20
21.831185
 30
0.0
 11
45.767715
 21
21.831185
 31
0.0
  0
LINE
  8
HIDDEN
 62
     7
 10
41.199907
 20
33.230584
 30
0.0
 11
45.690586
 21
27.049694
 31
0.0
  0
LINE
  8
HIDDEN
 62
     7
 10
40.642715
 20
33.504185
 30
0.0
 11
40.642715
 21
33.566185
 31
0.0
  0
LINE
  8
OBJECT
 62
     7
 10
31.923715
 20
33.457185
 30
0.0
 11
31.923715
 21
33.566185
 31
0.0
  0
LINE
  8
HIDDEN
 62
     7
 10
31.923715
 20
33.504185
 30
0.0
 11
40.642715
 21
33.504185
 31
0.0
  0
LINE
  8
OBJECT
 62
     7
 10
31.814715
 20
33.457185
 30
0.0
 11
31.923715
 21
33.457185
 31
0.0
  0
LINE
  8
HIDDEN
 62
     7
 10
31.876715
 20
21.831185
 30
0.0
 11
31.876715
 21
33.457185
 31
0.0
  0
LINE
  8
OBJECT
 62
     7
 10
31.923715
 20
21.831185
 30
0.0
 11
31.814715
 21
21.831185
 31
0.0
  0
LINE
  8
OBJECT
 62
     7
 10
31.923715
 20
21.722185
 30
0.0
 11
31.923715
 21
21.831185
 31
0.0
  0
LINE
  8
OBJECT
 62
     7
 10
45.767715
 20
21.722185
 30
0.0
 11
45.767715
 21
21.831185
 31
0.0
  0
LINE
  8
HIDDEN
 62
     7
 10
45.814715
 20
26.628185
 30
0.0
 11
45.814715
 21
21.893185
 31
0.0
  0
ARC
  8
OBJECT
 62
     7
 10
45.126715
 20
26.655301
 30
0.0
 40
0.75
 50
360.0
 51
36.000003
  0
ARC
  8
OBJECT
 62
     7
 10
40.65057
 20
32.816185
 30
0.0
 40
0.75
 50
36.000005
 51
90.0
  0
LINE
  8
OBJECT
 62
     7
 10
41.257333
 20
33.257024
 30
0.0
 11
45.733477
 21
27.09614
 31
0.0
  0
LINE
  8
OBJECT
 62
     7
 10
45.876715
 20
26.655301
 30
0.0
 11
45.876715
 21
21.893185
 31
0.0
  0
LINE
  8
DIM
 62
     7
 10
31.814715
 20
33.566185
 30
0.0
 11
40.65057
 21
33.566185
 31
0.0
  0
LINE
  8
OBJECT
 62
     7
 10
31.814715
 20
21.831185
 30
0.0
 11
31.814715
 21
33.457185
 31
0.0
  0
LINE
  8
OBJECT
 62
     7
 10
45.767715
 20
21.722185
 30
0.0
 11
31.923715
 21
21.722185
 31
0.0
  0
LINE
  8
HIDDEN
 62
     7
 10
41.199907
 20
33.230584
 30
0.0
 11
41.250066
 21
33.267027
 31
0.0
  0
LINE
  8
HIDDEN
 62
     7
 10
45.690586
 20
27.049694
 30
0.0
 11
45.740745
 21
27.086137
 31
0.0
  0
LINE
  8
HIDDEN
 62
     7
 10
71.1603
 20
54.7922
 30
0.0
 11
71.1603
 21
54.7302
 31
0.0
  0
LINE
  8
HIDDEN
 62
     7
 10
71.1603
 20
54.6832
 30
0.0
 11
72.1603
 21
54.6832
 31
0.0
  0
LINE
  8
HIDDEN
 62
     7
 10
72.1603
 20
45.9642
 30
0.0
 11
71.1603
 21
45.9642
 31
0.0
  0
LINE
  8
HIDDEN
 62
     7
 10
71.1603
 20
54.7302
 30
0.0
 11
72.0983
 21
54.7302
 31
0.0
  0
LINE
  8
HIDDEN
 62
     7
 10
71.1603
 20
54.6832
 30
0.0
 11
71.1603
 21
45.9642
 31
0.0
  0
LINE
  8
HIDDEN
 62
     7
 10
72.1603
 20
45.356849
 30
0.0
 11
71.1603
 21
45.356849
 31
0.0
  0
LINE
  8
HIDDEN
 62
     7
 10
72.1603
 20
40.86617
 30
0.0
 11
71.1603
 21
40.86617
 31
0.0
  0
LINE
  8
HIDDEN
 62
     7
 10
71.1603
 20
40.7922
 30
0.0
 11
71.1603
 21
40.7302
 31
0.0
  0
LINE
  8
HIDDEN
 62
     7
 10
72.0983
 20
54.7302
 30
0.0
 11
72.0983
 21
40.7932
 31
0.0
  0
LINE
  8
OBJECT
 62
     7
 10
50.1603
 20
21.722185
 30
0.0
 11
51.1603
 21
21.722185
 31
0.0
  0
LINE
  8
OBJECT
 62
     7
 10
51.1603
 20
21.722185
 30
0.0
 11
51.1603
 21
21.784185
 31
0.0
  0
LINE
  8
OBJECT
 62
     7
 10
50.1603
 20
33.628185
 30
0.0
 11
50.1603
 21
21.722185
 31
0.0
  0
LINE
  8
HIDDEN
 62
     7
 10
51.1603
 20
33.504185
 30
0.0
 11
50.2223
 21
33.504185
 31
0.0
  0
LINE
  8
OBJECT
 62
     7
 10
50.2223
 20
21.784185
 30
0.0
 11
51.1603
 21
21.784185
 31
0.0
  0
LINE
  8
HIDDEN
 62
     7
 10
50.1603
 20
26.628185
 30
0.0
 11
51.1603
 21
26.628185
 31
0.0
  0
LINE
  8
HIDDEN
 62
     7
 10
50.1603
 20
27.086137
 30
0.0
 11
51.1603
 21
27.086137
 31
0.0
  0
LINE
  8
HIDDEN
 62
     7
 10
50.1603
 20
21.831185
 30
0.0
 11
51.1603
 21
21.831185
 31
0.0
  0
LINE
  8
HIDDEN
 62
     7
 10
51.1603
 20
21.831185
 30
0.0
 11
51.1603
 21
26.628185
 31
0.0
  0
LINE
  8
HIDDEN
 62
     7
 10
50.1603
 20
33.267027
 30
0.0
 11
51.1603
 21
33.267027
 31
0.0
  0
LINE
  8
HIDDEN
 62
     7
 10
51.1603
 20
33.457185
 30
0.0
 11
50.2223
 21
33.457185
 31
0.0
  0
LINE
  8
HIDDEN
 62
     7
 10
51.1603
 20
33.504185
 30
0.0
 11
51.1603
 21
33.566185
 31
0.0
  0
LINE
  8
HIDDEN
 62
     7
 10
50.2223
 20
33.504185
 30
0.0
 11
50.2223
 21
21.784185
 31
0.0
  0
LINE
  8
HIDDEN
 62
     7
 10
45.938715
 20
21.796301
 30
0.0
 11
45.876715
 21
21.796301
 31
0.0
  0
LINE
  8
OBJECT
 62
     7
 10
45.876715
 20
21.796301
 30
0.0
 11
45.876715
 21
26.655301
 31
0.0
  0
ARC
  8
OBJECT
 62
     7
 10
45.126715
 20
26.655301
 30
0.0
 40
0.75
 50
0.000009
 51
36.00001
  0
LINE
  8
OBJECT
 62
     7
 10
45.733477
 20
27.09614
 30
0.0
 11
41.214584
 21
33.315863
 31
0.0
  0
LINE
  8
OBJECT
 62
     7
 10
45.938715
 20
21.796301
 30
0.0
 11
45.938715
 21
26.655301
 31
0.0
  0
ARC
  8
OBJECT
 62
     7
 10
45.126715
 20
26.655301
 30
0.0
 40
0.812
 50
0.000009
 51
36.00001
  0
LINE
  8
OBJECT
 62
     7
 10
45.783636
 20
27.132583
 30
0.0
 11
41.264743
 21
33.352305
 31
0.0
  0
LINE
  8
HIDDEN
 62
     7
 10
40.279361
 20
32.636383
 30
0.0
 11
41.264743
 21
33.352305
 31
0.0
  0
LINE
  8
HIDDEN
 62
     7
 10
44.782715
 20
21.858301
 30
0.0
 11
44.782715
 21
26.125195
 31
0.0
  0
LINE
  8
HIDDEN
 62
     7
 10
44.536566
 20
26.882323
 30
0.0
 11
40.32952
 21
32.672826
 31
0.0
  0
LINE
  8
HIDDEN
 62
     7
 10
44.720715
 20
21.858301
 30
0.0
 11
44.720715
 21
26.096764
 31
0.0
  0
LINE
  8
HIDDEN
 62
     7
 10
44.469682
 20
26.868901
 30
0.0
 11
40.279361
 21
32.636383
 31
0.0
  0
LINE
  8
HIDDEN
 62
     7
 10
44.720715
 20
26.096764
 30
0.0
 11
45.876715
 21
26.62687
 31
0.0
  0
LINE
  8
HIDDEN
 62
     7
 10
45.716752
 20
27.119161
 30
0.0
 11
44.469682
 21
26.868901
 31
0.0
  0
LINE
  8
DIM
 62
     7
 10
72.1603
 20
46.6042
 30
0.0
 11
70.6923
 21
46.6042
 31
0.0
  0
LINE
  8
DIM
  6
HIDDEN
 62
     7
 10
70.1913
 20
46.8542
 30
0.0
 11
70.1913
 21
54.3232
 31
0.0
  0
LINE
  8
DIM
 10
3.486926
 20
21.784185
 30
0.0
 11
1.517926
 21
21.784185
 31
0.0
  0
LINE
  8
DIM
 62
     7
 10
31.752715
 20
21.784185
 30
0.0
 11
31.752715
 21
33.628185
 31
0.0
  0
LINE
  8
DIM
 62
     7
 10
40.002715
 20
33.628185
 30
0.0
 11
40.002715
 21
33.566185
 31
0.0
  0
LINE
  8
DIM
 62
     7
 10
31.814715
 20
21.784185
 30
0.0
 11
31.814715
 21
33.566185
 31
0.0
  0
LINE
  8
DIM
 62
     7
 10
31.814715
 20
21.784185
 30
0.0
 11
31.752715
 21
21.784185
 31
0.0
  0
LINE
  8
HIDDEN
 62
     7
 10
51.6283
 20
33.628185
 30
0.0
 11
51.6283
 21
33.535185
 31
0.0
  0
LINE
  8
HIDDEN
 62
     7
 10
51.6283
 20
33.535185
 30
0.0
 11
52.1283
 21
33.535185
 31
0.0
  0
LINE
  8
HIDDEN
 62
     7
 10
50.1603
 20
33.566185
 30
0.0
 11
51.5663
 21
33.566185
 31
0.0
  0
LINE
  8
HIDDEN
 62
     7
 10
51.5663
 20
33.566185
 30
0.0
 11
51.5663
 21
33.473185
 31
0.0
  0
LINE
  8
HIDDEN
 62
     7
 10
51.5663
 20
33.473185
 30
0.0
 11
52.1283
 21
33.473185
 31
0.0
  0
LINE
  8
HIDDEN
 62
     7
 10
52.1283
 20
33.535185
 30
0.0
 11
52.1283
 21
32.672826
 31
0.0
  0
LINE
  8
DIM
  6
HIDDEN
 62
     7
 10
70.6923
 20
54.8242
 30
0.0
 11
70.1913
 21
54.3232
 31
0.0
  0
LINE
  8
DIM
  6
HIDDEN
 62
     7
 10
2.985926
 20
33.598185
 30
0.0
 11
3.486926
 21
33.097185
 31
0.0
  0
LINE
  8
DIM
  6
HIDDEN
 62
     7
 10
70.6913
 20
46.8542
 30
0.0
 11
70.1913
 21
46.8542
 31
0.0
  0
TEXT
  8
DIM
 10
99.909713
 20
62.81113
 30
0.0
 40
0.5
  1

  0
TEXT
  8
DIM
 10
97.998328
 20
67.66013
 30
0.0
 40
0.5
  1

  0
LINE
  8
HIDDEN
 62
     7
 10
72.0983
 20
46.6667
 30
0.0
 11
72.0983
 21
46.6977
 31
0.0
  0
LINE
  8
HIDDEN
 62
     7
 10
72.0983
 20
51.4487
 30
0.0
 11
72.0983
 21
51.4797
 31
0.0
  0
LINE
  8
HIDDEN
 62
     7
 10
1.579926
 20
33.504185
 30
0.0
 11
1.579926
 21
21.784185
 31
0.0
  0
LINE
  8
HIDDEN
 62
     7
 10
2.517926
 20
33.504185
 30
0.0
 11
2.517926
 21
33.566185
 31
0.0
  0
LINE
  8
HIDDEN
 62
     7
 10
2.517926
 20
33.504185
 30
0.0
 11
1.579926
 21
33.504185
 31
0.0
  0
LINE
  8
OBJECT
 10
1.517926
 20
33.566185
 30
0.0
 11
1.517926
 21
21.722185
 31
0.0
  0
LINE
  8
OBJECT
 62
     7
 10
2.517926
 20
21.722185
 30
0.0
 11
2.517926
 21
21.784185
 31
0.0
  0
LINE
  8
OBJECT
 10
1.517926
 20
21.722185
 30
0.0
 11
2.517926
 21
21.722185
 31
0.0
  0
LINE
  8
HIDDEN
 62
     7
 10
71.1603
 20
45.356849
 30
0.0
 11
71.1603
 21
40.86617
 31
0.0
  0
LINE
  8
HIDDEN
 62
     7
 10
51.1603
 20
27.086137
 30
0.0
 11
51.1603
 21
33.457185
 31
0.0
  0
LINE
  8
DIM
 10
2.985926
 20
33.628185
 30
0.0
 11
1.517926
 21
33.628185
 31
0.0
  0
LINE
  8
DIM
 62
     7
 10
2.985926
 20
21.784185
 30
0.0
 11
2.985926
 21
33.628185
 31
0.0
  0
LINE
  8
DIM
 62
     7
 10
70.6923
 20
54.8542
 30
0.0
 11
70.6923
 21
46.6042
 31
0.0
  0
LINE
  8
DIM
 62
     7
 10
72.1603
 20
54.8542
 30
0.0
 11
70.6923
 21
54.8542
 31
0.0
  0
LINE
  8
OBJECT
 62
     7
 10
72.1603
 20
54.7922
 30
0.0
 11
72.1603
 21
40.7302
 31
0.0
  0
LINE
  8
OBJECT
 62
     7
 10
50.1603
 20
33.352305
 30
0.0
 11
51.6293
 21
33.352305
 31
0.0
  0
LINE
  8
OBJECT
 62
     7
 10
51.6293
 20
33.352305
 30
0.0
 11
51.6293
 21
21.858301
 31
0.0
  0
LINE
  8
OBJECT
 62
     7
 10
52.1923
 20
32.672826
 30
0.0
 11
52.1923
 21
27.184448
 31
0.0
  0
LINE
  8
OBJECT
  6
HIDDEN
 62
     7
 10
51.6293
 20
32.672826
 30
0.0
 11
52.1923
 21
32.672826
 31
0.0
  0
CIRCLE
  8
OBJECT
 62
     7
 10
52.0053
 20
32.420412
 30
0.0
 40
0.0805
  0
CIRCLE
  8
OBJECT
 62
     7
 10
52.0053
 20
31.914777
 30
0.0
 40
0.0805
  0
CIRCLE
  8
OBJECT
 62
     7
 10
52.0053
 20
31.409141
 30
0.0
 40
0.0805
  0
CIRCLE
  8
OBJECT
 62
     7
 10
52.0053
 20
31.004412
 30
0.0
 40
0.0805
  0
CIRCLE
  8
OBJECT
 62
     7
 10
52.0053
 20
30.498777
 30
0.0
 40
0.0805
  0
CIRCLE
  8
OBJECT
 62
     7
 10
52.0053
 20
29.993141
 30
0.0
 40
0.0805
  0
CIRCLE
  8
OBJECT
 62
     7
 10
52.0053
 20
29.588412
 30
0.0
 40
0.0805
  0
CIRCLE
  8
OBJECT
 62
     7
 10
52.0053
 20
29.082777
 30
0.0
 40
0.0805
  0
CIRCLE
  8
OBJECT
 62
     7
 10
52.0053
 20
28.577141
 30
0.0
 40
0.0805
  0
CIRCLE
  8
OBJECT
 62
     7
 10
52.0053
 20
28.172412
 30
0.0
 40
0.0805
  0
CIRCLE
  8
OBJECT
 62
     7
 10
52.0053
 20
27.666777
 30
0.0
 40
0.0805
  0
ARC
  8
OBJECT
 62
     7
 10
52.0053
 20
27.161141
 30
0.0
 40
0.0805
 50
16.829765
 51
163.170235
  0
LINE
  8
OBJECT
 62
     7
 10
51.4733
 20
21.796301
 30
0.0
 11
50.1603
 21
21.796301
 31
0.0
  0
CIRCLE
  8
OBJECT
 62
     7
 10
52.0053
 20
22.749301
 30
0.0
 40
0.0805
  0
CIRCLE
  8
OBJECT
 62
     7
 10
52.0053
 20
23.374301
 30
0.0
 40
0.0805
  0
LINE
  8
OBJECT
 62
     7
 10
52.1923
 20
25.993911
 30
0.0
 11
52.1923
 21
22.471685
 31
0.0
  0
CIRCLE
  8
OBJECT
 62
     7
 10
52.0053
 20
23.999301
 30
0.0
 40
0.0805
  0
CIRCLE
  8
OBJECT
 62
     7
 10
52.0053
 20
24.499301
 30
0.0
 40
0.0805
  0
CIRCLE
  8
OBJECT
 62
     7
 10
52.0053
 20
25.124301
 30
0.0
 40
0.0805
  0
CIRCLE
  8
OBJECT
 62
     7
 10
52.0053
 20
25.749301
 30
0.0
 40
0.0805
  0
LINE
  8
OBJECT
  6
HIDDEN
 62
     7
 10
52.1923
 20
21.858301
 30
0.0
 11
51.4733
 21
21.858301
 31
0.0
  0
LINE
  8
OBJECT
 62
     7
 10
51.4733
 20
21.858301
 30
0.0
 11
51.4733
 21
21.796301
 31
0.0
  0
LINE
  8
OBJECT
 62
     7
 10
72.1603
 20
45.342172
 30
0.0
 11
70.6913
 21
45.342172
 31
0.0
  0
LINE
  8
OBJECT
 62
     7
 10
70.6913
 20
45.3542
 30
0.0
 11
70.6913
 21
40.6682
 31
0.0
  0
LINE
  8
OBJECT
 62
     7
 10
70.1283
 20
45.3542
 30
0.0
 11
70.1283
 21
42.083464
 31
0.0
  0
LINE
  8
OBJECT
 62
     7
 10
72.1603
 20
40.7302
 30
0.0
 11
72.1603
 21
40.6682
 31
0.0
  0
LINE
  8
OBJECT
 62
     7
 10
70.1283
 20
41.8862
 30
0.0
 11
70.1283
 21
41.8242
 31
0.0
  0
LINE
  8
OBJECT
 62
     7
 10
70.6913
 20
41.8242
 30
0.0
 11
70.1283
 21
41.8242
 31
0.0
  0
LINE
  8
OBJECT
 62
     7
 10
70.7533
 20
41.8862
 30
0.0
 11
70.1283
 21
41.8862
 31
0.0
  0
LINE
  8
HIDDEN
 62
     7
 10
70.7533
 20
40.7302
 30
0.0
 11
70.7533
 21
45.342172
 31
0.0
  0
LINE
  8
HIDDEN
 62
     7
 10
72.1603
 20
40.7302
 30
0.0
 11
70.7533
 21
40.7302
 31
0.0
  0
LINE
  8
OBJECT
 62
     7
 10
72.1603
 20
40.6682
 30
0.0
 11
70.6913
 21
40.6682
 31
0.0
  0
ARC
  8
OBJECT
 62
     7
 10
70.3153
 20
45.359275
 30
0.0
 40
0.0805
 50
183.614024
 51
356.385976
  0
CIRCLE
  8
OBJECT
 62
     7
 10
70.3153
 20
45.065006
 30
0.0
 40
0.0805
  0
CIRCLE
  8
OBJECT
 62
     7
 10
70.3153
 20
44.69764
 30
0.0
 40
0.0805
  0
CIRCLE
  8
OBJECT
 62
     7
 10
70.3153
 20
44.330275
 30
0.0
 40
0.0805
  0
CIRCLE
  8
OBJECT
 62
     7
 10
70.3153
 20
44.036006
 30
0.0
 40
0.0805
  0
CIRCLE
  8
OBJECT
 62
     7
 10
70.3153
 20
43.66864
 30
0.0
 40
0.0805
  0
CIRCLE
  8
OBJECT
 62
     7
 10
70.3153
 20
43.301275
 30
0.0
 40
0.0805
  0
CIRCLE
  8
OBJECT
 62
     7
 10
70.3153
 20
43.007006
 30
0.0
 40
0.0805
  0
CIRCLE
  8
OBJECT
 62
     7
 10
70.3153
 20
42.63964
 30
0.0
 40
0.0805
  0
CIRCLE
  8
OBJECT
 62
     7
 10
70.3153
 20
42.272275
 30
0.0
 40
0.0805
  0
LINE
  8
OBJECT
 62
     7
 10
70.1283
 20
42.083464
 30
0.0
 11
70.6913
 21
41.8862
 31
0.0
  0
LINE
  8
DIM
 62
     7
 10
72.1603
 20
54.8542
 30
0.0
 11
72.1603
 21
54.7922
 31
0.0
  0
LINE
  8
DIM
 10
1.517926
 20
33.628185
 30
0.0
 11
1.517926
 21
33.566185
 31
0.0
  0
LINE
  8
HIDDEN
 62
     7
 10
45.876715
 20
21.858301
 30
0.0
 11
44.720715
 21
21.858301
 31
0.0
  0
LINE
  8
HIDDEN
 62
     7
 10
51.5673
 20
33.352305
 30
0.0
 11
51.5673
 21
21.858301
 31
0.0
  0
LINE
  8
DIM
  6
HIDDEN
 62
     7
 10
70.7543
 20
54.7922
 30
0.0
 11
70.7543
 21
46.6042
 31
0.0
  0
LINE
  8
DIM
  6
HIDDEN
 62
     7
 10
2.923926
 20
21.784185
 30
0.0
 11
2.923926
 21
33.566185
 31
0.0
  0
LINE
  8
DIM
  6
HIDDEN
 10
1.517926
 20
33.566185
 30
0.0
 11
2.923926
 21
33.566185
 31
0.0
  0
LINE
  8
DIM
 62
     7
 10
3.110926
 20
33.473185
 30
0.0
 11
3.485926
 21
33.473185
 31
0.0
  0
LINE
  8
DIM
 62
     7
 10
3.048926
 20
33.535185
 30
0.0
 11
3.485926
 21
33.535185
 31
0.0
  0
LINE
  8
DIM
 62
     7
 10
3.485926
 20
33.535185
 30
0.0
 11
3.485926
 21
33.473185
 31
0.0
  0
LINE
  8
DIM
  6
HIDDEN
 62
     7
 10
72.1603
 20
54.7922
 30
0.0
 11
70.7543
 21
54.7922
 31
0.0
  0
LINE
  8
OBJECT
 62
     7
 10
3.017926
 20
24.784185
 30
0.0
 11
22.017926
 21
24.784185
 31
0.0
  0
LINE
  8
OBJECT
 62
     7
 10
22.017926
 20
24.784185
 30
0.0
 11
22.017926
 21
29.425185
 31
0.0
  0
LINE
  8
OBJECT
 62
     7
 10
22.017926
 20
29.425185
 30
0.0
 11
21.486926
 21
29.425185
 31
0.0
  0
LINE
  8
OBJECT
 62
     7
 10
21.486926
 20
29.425185
 30
0.0
 11
21.486926
 21
29.518185
 31
0.0
  0
LINE
  8
OBJECT
 62
     7
 10
3.548926
 20
29.425185
 30
0.0
 11
3.548926
 21
29.518185
 31
0.0
  0
LINE
  8
OBJECT
 62
     7
 10
3.017926
 20
29.425185
 30
0.0
 11
3.548926
 21
29.425185
 31
0.0
  0
LINE
  8
OBJECT
 62
     7
 10
3.017926
 20
24.784185
 30
0.0
 11
3.017926
 21
29.425185
 31
0.0
  0
LINE
  8
OBJECT
 62
     7
 10
21.486926
 20
29.518185
 30
0.0
 11
3.548926
 21
29.518185
 31
0.0
  0
LINE
  8
HIDDEN
 62
     7
 10
21.486926
 20
29.456185
 30
0.0
 11
3.548926
 21
29.456185
 31
0.0
  0
LINE
  8
DIM
 62
     7
 10
21.549926
 20
33.535185
 30
0.0
 11
21.549926
 21
33.473185
 31
0.0
  0
LINE
  8
DIM
 62
     7
 10
21.986926
 20
33.535185
 30
0.0
 11
21.549926
 21
33.535185
 31
0.0
  0
LINE
  8
DIM
 62
     7
 10
21.924926
 20
33.473185
 30
0.0
 11
21.549926
 21
33.473185
 31
0.0
  0
LINE
  8
DIM
  6
HIDDEN
 62
     7
 10
23.517926
 20
33.566185
 30
0.0
 11
22.111926
 21
33.566185
 31
0.0
  0
LINE
  8
DIM
  6
HIDDEN
 62
     7
 10
22.111926
 20
21.784185
 30
0.0
 11
22.111926
 21
33.566185
 31
0.0
  0
LINE
  8
DIM
 62
     7
 10
23.517926
 20
33.628185
 30
0.0
 11
23.517926
 21
33.566185
 31
0.0
  0
LINE
  8
DIM
 62
     7
 10
22.049926
 20
21.784185
 30
0.0
 11
22.049926
 21
33.628185
 31
0.0
  0
LINE
  8
DIM
 62
     7
 10
22.049926
 20
33.628185
 30
0.0
 11
23.517926
 21
33.628185
 31
0.0
  0
LINE
  8
OBJECT
 62
     7
 10
23.517926
 20
21.722185
 30
0.0
 11
22.517926
 21
21.722185
 31
0.0
  0
LINE
  8
OBJECT
 62
     7
 10
22.517926
 20
21.722185
 30
0.0
 11
22.517926
 21
21.784185
 31
0.0
  0
LINE
  8
OBJECT
 62
     7
 10
23.517926
 20
33.566185
 30
0.0
 11
23.517926
 21
21.722185
 31
0.0
  0
LINE
  8
HIDDEN
 62
     7
 10
22.517926
 20
33.504185
 30
0.0
 11
23.455926
 21
33.504185
 31
0.0
  0
LINE
  8
HIDDEN
 62
     7
 10
22.517926
 20
33.504185
 30
0.0
 11
22.517926
 21
33.566185
 31
0.0
  0
LINE
  8
HIDDEN
 62
     7
 10
23.455926
 20
33.504185
 30
0.0
 11
23.455926
 21
21.784185
 31
0.0
  0
LINE
  8
DIM
  6
HIDDEN
 62
     7
 10
22.049926
 20
33.598185
 30
0.0
 11
21.548926
 21
33.097185
 31
0.0
  0
LINE
  8
DIM
 62
     7
 10
21.548926
 20
21.784185
 30
0.0
 11
23.517926
 21
21.784185
 31
0.0
  0
LINE
  8
DIM
  6
HIDDEN
 62
     7
 10
50.1603
 20
54.7922
 30
0.0
 11
51.5663
 21
54.7922
 31
0.0
  0
LINE
  8
DIM
  6
HIDDEN
 62
     7
 10
51.5663
 20
54.7922
 30
0.0
 11
51.5663
 21
46.6042
 31
0.0
  0
LINE
  8
DIM
 62
     7
 10
50.1603
 20
54.8542
 30
0.0
 11
50.1603
 21
54.7922
 31
0.0
  0
LINE
  8
OBJECT
 62
     7
 10
52.1923
 20
42.083464
 30
0.0
 11
51.6293
 21
41.8862
 31
0.0
  0
CIRCLE
  8
OBJECT
 62
     7
 10
52.0053
 20
42.272275
 30
0.0
 40
0.0805
  0
CIRCLE
  8
OBJECT
 62
     7
 10
52.0053
 20
42.63964
 30
0.0
 40
0.0805
  0
CIRCLE
  8
OBJECT
 62
     7
 10
52.0053
 20
43.007006
 30
0.0
 40
0.0805
  0
CIRCLE
  8
OBJECT
 62
     7
 10
52.0053
 20
43.301275
 30
0.0
 40
0.0805
  0
CIRCLE
  8
OBJECT
 62
     7
 10
52.0053
 20
43.66864
 30
0.0
 40
0.0805
  0
CIRCLE
  8
OBJECT
 62
     7
 10
52.0053
 20
44.036006
 30
0.0
 40
0.0805
  0
CIRCLE
  8
OBJECT
 62
     7
 10
52.0053
 20
44.330275
 30
0.0
 40
0.0805
  0
CIRCLE
  8
OBJECT
 62
     7
 10
52.0053
 20
44.69764
 30
0.0
 40
0.0805
  0
CIRCLE
  8
OBJECT
 62
     7
 10
52.0053
 20
45.065006
 30
0.0
 40
0.0805
  0
ARC
  8
OBJECT
 62
     7
 10
52.0053
 20
45.359275
 30
0.0
 40
0.0805
 50
183.614024
 51
356.385976
  0
LINE
  8
OBJECT
 62
     7
 10
50.1603
 20
40.6682
 30
0.0
 11
51.6293
 21
40.6682
 31
0.0
  0
LINE
  8
HIDDEN
 62
     7
 10
50.1603
 20
40.7302
 30
0.0
 11
51.5673
 21
40.7302
 31
0.0
  0
LINE
  8
HIDDEN
 62
     7
 10
51.5673
 20
40.7302
 30
0.0
 11
51.5673
 21
45.342172
 31
0.0
  0
LINE
  8
OBJECT
 62
     7
 10
51.5673
 20
41.8862
 30
0.0
 11
52.1923
 21
41.8862
 31
0.0
  0
LINE
  8
OBJECT
 62
     7
 10
51.6293
 20
41.8242
 30
0.0
 11
52.1923
 21
41.8242
 31
0.0
  0
LINE
  8
OBJECT
 62
     7
 10
52.1923
 20
41.8862
 30
0.0
 11
52.1923
 21
41.8242
 31
0.0
  0
LINE
  8
OBJECT
 62
     7
 10
50.1603
 20
40.7302
 30
0.0
 11
50.1603
 21
40.6682
 31
0.0
  0
LINE
  8
OBJECT
 62
     7
 10
52.1923
 20
45.3542
 30
0.0
 11
52.1923
 21
42.083464
 31
0.0
  0
LINE
  8
OBJECT
 62
     7
 10
51.6293
 20
45.3542
 30
0.0
 11
51.6293
 21
40.6682
 31
0.0
  0
LINE
  8
OBJECT
 62
     7
 10
50.1603
 20
45.342172
 30
0.0
 11
51.6293
 21
45.342172
 31
0.0
  0
LINE
  8
OBJECT
 62
     7
 10
50.1603
 20
54.7922
 30
0.0
 11
50.1603
 21
40.7302
 31
0.0
  0
LINE
  8
DIM
 62
     7
 10
50.1603
 20
54.8542
 30
0.0
 11
51.6283
 21
54.8542
 31
0.0
  0
LINE
  8
DIM
 62
     7
 10
51.6283
 20
54.8542
 30
0.0
 11
51.6283
 21
46.6042
 31
0.0
  0
LINE
  8
HIDDEN
 62
     7
 10
51.1603
 20
45.356849
 30
0.0
 11
51.1603
 21
40.86617
 31
0.0
  0
LINE
  8
DIM
  6
HIDDEN
 62
     7
 10
51.6293
 20
46.8542
 30
0.0
 11
52.1293
 21
46.8542
 31
0.0
  0
LINE
  8
DIM
  6
HIDDEN
 62
     7
 10
51.6283
 20
54.8242
 30
0.0
 11
52.1293
 21
54.3232
 31
0.0
  0
LINE
  8
DIM
  6
HIDDEN
 62
     7
 10
52.1293
 20
46.8542
 30
0.0
 11
52.1293
 21
54.3232
 31
0.0
  0
LINE
  8
DIM
 62
     7
 10
50.1603
 20
46.6042
 30
0.0
 11
51.6283
 21
46.6042
 31
0.0
  0
LINE
  8
HIDDEN
 62
     7
 10
50.2223
 20
54.7302
 30
0.0
 11
50.2223
 21
40.7932
 31
0.0
  0
LINE
  8
HIDDEN
 62
     7
 10
51.1603
 20
40.7922
 30
0.0
 11
51.1603
 21
40.7302
 31
0.0
  0
LINE
  8
HIDDEN
 62
     7
 10
50.1603
 20
40.86617
 30
0.0
 11
51.1603
 21
40.86617
 31
0.0
  0
LINE
  8
HIDDEN
 62
     7
 10
50.1603
 20
45.356849
 30
0.0
 11
51.1603
 21
45.356849
 31
0.0
  0
LINE
  8
HIDDEN
 62
     7
 10
51.1603
 20
54.6832
 30
0.0
 11
51.1603
 21
45.9642
 31
0.0
  0
LINE
  8
HIDDEN
 62
     7
 10
51.1603
 20
54.7302
 30
0.0
 11
50.2223
 21
54.7302
 31
0.0
  0
LINE
  8
HIDDEN
 62
     7
 10
50.2223
 20
40.7922
 30
0.0
 11
51.1603
 21
40.7922
 31
0.0
  0
LINE
  8
HIDDEN
 62
     7
 10
50.1603
 20
45.9642
 30
0.0
 11
51.1603
 21
45.9642
 31
0.0
  0
LINE
  8
HIDDEN
 62
     7
 10
51.1603
 20
54.6832
 30
0.0
 11
50.1603
 21
54.6832
 31
0.0
  0
LINE
  8
HIDDEN
 62
     7
 10
51.1603
 20
54.7922
 30
0.0
 11
51.1603
 21
54.7302
 31
0.0
  0
LINE
  8
HIDDEN
 62
     7
 10
23.455426
 20
21.846185
 30
0.0
 11
1.580426
 21
21.846185
 31
0.0
  0
LINE
  8
OBJECT
 62
     7
 10
21.548926
 20
21.784185
 30
0.0
 11
3.486926
 21
21.784185
 31
0.0
  0
LINE
  8
HIDDEN
 62
     7
 10
23.455426
 20
22.284185
 30
0.0
 11
21.548926
 21
22.284185
 31
0.0
  0
LINE
  8
HIDDEN
 62
     7
 10
3.486926
 20
22.284185
 30
0.0
 11
1.580426
 21
22.284185
 31
0.0
  0
LINE
  8
OBJECT
 62
     7
 10
21.548926
 20
22.284185
 30
0.0
 11
3.486926
 21
22.284185
 31
0.0
  0
LINE
  8
HIDDEN
 62
     7
 10
31.783715
 20
24.784185
 30
0.0
 11
31.845715
 21
24.784185
 31
0.0
  0
LINE
  8
HIDDEN
 62
     7
 10
32.283715
 20
29.518185
 30
0.0
 11
32.283715
 21
29.456185
 31
0.0
  0
LINE
  8
HIDDEN
 62
     7
 10
31.845715
 20
29.456185
 30
0.0
 11
32.283715
 21
29.456185
 31
0.0
  0
LINE
  8
HIDDEN
 62
     7
 10
31.845715
 20
24.784185
 30
0.0
 11
31.845715
 21
29.456185
 31
0.0
  0
LINE
  8
HIDDEN
 62
     7
 10
31.783715
 20
29.518185
 30
0.0
 11
32.283715
 21
29.518185
 31
0.0
  0
LINE
  8
HIDDEN
 62
     7
 10
31.783715
 20
24.784185
 30
0.0
 11
31.783715
 21
29.518185
 31
0.0
  0
LINE
  8
DIM
 62
     7
 10
21.548926
 20
24.784185
 30
0.0
 11
21.548926
 21
21.784185
 31
0.0
  0
LINE
  8
DIM
  6
HIDDEN
 62
     7
 10
21.548926
 20
33.097185
 30
0.0
 11
21.548926
 21
24.784185
 31
0.0
  0
LINE
  8
DIM
  6
HIDDEN
 62
     7
 10
3.486926
 20
33.097185
 30
0.0
 11
3.486926
 21
24.784185
 31
0.0
  0
LINE
  8
DIM
 62
     7
 10
3.486926
 20
24.784185
 30
0.0
 11
3.486926
 21
21.784185
 31
0.0
  0
LINE
  8
HIDDEN
 62
     7
 10
70.1293
 20
54.3232
 30
0.0
 11
52.1913
 21
54.3232
 31
0.0
  0
LINE
  8
HIDDEN
 62
     7
 10
70.1293
 20
54.8232
 30
0.0
 11
70.1293
 21
54.3232
 31
0.0
  0
LINE
  8
HIDDEN
 62
     7
 10
52.1913
 20
54.8232
 30
0.0
 11
52.1913
 21
54.3232
 31
0.0
  0
LINE
  8
HIDDEN
 62
     7
 10
50.2223
 20
40.7932
 30
0.0
 11
51.6603
 21
40.7932
 31
0.0
  0
LINE
  8
HIDDEN
 62
     7
 10
70.6603
 20
40.7932
 30
0.0
 11
72.0983
 21
40.7932
 31
0.0
  0
LINE
  8
OBJECT
 62
     7
 10
70.6603
 20
40.6682
 30
0.0
 11
51.6603
 21
40.6682
 31
0.0
  0
LINE
  8
OBJECT
 62
     7
 10
70.6603
 20
41.7932
 30
0.0
 11
51.6603
 21
41.7932
 31
0.0
  0
LINE
  8
OBJECT
 62
     7
 10
51.6603
 20
41.7932
 30
0.0
 11
51.6603
 21
40.6682
 31
0.0
  0
LINE
  8
OBJECT
 62
     7
 10
70.6603
 20
40.6682
 30
0.0
 11
70.6603
 21
41.7932
 31
0.0
  0
LINE
  8
HIDDEN
 62
     7
 10
70.6603
 20
40.7302
 30
0.0
 11
51.6603
 21
40.7302
 31
0.0
  0
LINE
  8
OBJECT
  6
HIDDEN
 62
     7
 10
70.6913
 20
17.7652
 30
0.0
 11
70.6913
 21
16.6092
 31
0.0
  0
LINE
  8
OBJECT
 62
     7
 10
71.1603
 20
3.6412
 30
0.0
 11
71.1603
 21
3.7032
 31
0.0
  0
LINE
  8
OBJECT
 62
     7
 10
71.1603
 20
3.7502
 30
0.0
 11
72.1603
 21
3.7502
 31
0.0
  0
LINE
  8
OBJECT
 62
     7
 10
71.1603
 20
3.7032
 30
0.0
 11
72.0983
 21
3.7032
 31
0.0
  0
LINE
  8
OBJECT
 62
     7
 10
71.1603
 20
3.7502
 30
0.0
 11
71.1603
 21
17.56723
 31
0.0
  0
LINE
  8
OBJECT
 62
     7
 10
72.1603
 20
17.56723
 30
0.0
 11
71.1603
 21
17.56723
 31
0.0
  0
LINE
  8
OBJECT
 62
     7
 10
71.1603
 20
17.6412
 30
0.0
 11
71.1603
 21
17.7032
 31
0.0
  0
LINE
  8
HIDDEN
 62
     7
 10
72.0983
 20
3.7032
 30
0.0
 11
72.0983
 21
17.6412
 31
0.0
  0
LINE
  8
DIM
 62
     7
 10
70.6923
 20
3.5792
 30
0.0
 11
70.6923
 21
3.6722
 31
0.0
  0
LINE
  8
DIM
 62
     7
 10
72.1603
 20
3.5792
 30
0.0
 11
70.6923
 21
3.5792
 31
0.0
  0
LINE
  8
OBJECT
 62
     7
 10
72.1603
 20
3.6412
 30
0.0
 11
72.1603
 21
17.7032
 31
0.0
  0
LINE
  8
OBJECT
 62
     7
 10
72.1603
 20
17.7032
 30
0.0
 11
72.1603
 21
17.7652
 31
0.0
  0
LINE
  8
OBJECT
 62
     7
 10
70.1283
 20
16.5472
 30
0.0
 11
70.1283
 21
16.6092
 31
0.0
  0
LINE
  8
OBJECT
  6
HIDDEN
 62
     7
 10
70.6913
 20
16.6092
 30
0.0
 11
70.1283
 21
16.6092
 31
0.0
  0
LINE
  8
OBJECT
  6
HIDDEN
 62
     7
 10
70.7533
 20
16.5472
 30
0.0
 11
70.1283
 21
16.5472
 31
0.0
  0
LINE
  8
HIDDEN
 62
     7
 10
70.7533
 20
17.7032
 30
0.0
 11
70.7533
 21
16.5472
 31
0.0
  0
LINE
  8
HIDDEN
  6
CONTINUOUS
 62
     7
 10
72.1603
 20
17.7032
 30
0.0
 11
70.7533
 21
17.7032
 31
0.0
  0
LINE
  8
OBJECT
 62
     7
 10
72.1603
 20
17.7652
 30
0.0
 11
70.6913
 21
17.7652
 31
0.0
  0
LINE
  8
DIM
 62
     7
 10
72.1603
 20
3.5792
 30
0.0
 11
72.1603
 21
3.6412
 31
0.0
  0
LINE
  8
DIM
  6
HIDDEN
 62
     7
 10
70.7543
 20
3.6412
 30
0.0
 11
70.7543
 21
3.7342
 31
0.0
  0
LINE
  8
DIM
 62
     7
 10
70.6923
 20
3.6722
 30
0.0
 11
70.1923
 21
3.6722
 31
0.0
  0
LINE
  8
DIM
 62
     7
 10
70.7543
 20
3.7342
 30
0.0
 11
70.1923
 21
3.7342
 31
0.0
  0
LINE
  8
DIM
 62
     7
 10
70.1923
 20
3.6722
 30
0.0
 11
70.1923
 21
3.7342
 31
0.0
  0
LINE
  8
DIM
  6
CONTINUOUS
 62
     7
 10
72.1603
 20
3.6412
 30
0.0
 11
70.7543
 21
3.6412
 31
0.0
  0
LINE
  8
DIM
  6
CONTINUOUS
 62
     7
 10
50.1603
 20
3.6412
 30
0.0
 11
51.5663
 21
3.6412
 31
0.0
  0
LINE
  8
DIM
 62
     7
 10
52.1283
 20
3.6722
 30
0.0
 11
52.1283
 21
3.7342
 31
0.0
  0
LINE
  8
DIM
 62
     7
 10
51.5663
 20
3.7342
 30
0.0
 11
52.1283
 21
3.7342
 31
0.0
  0
LINE
  8
DIM
 62
     7
 10
51.6283
 20
3.6722
 30
0.0
 11
52.1283
 21
3.6722
 31
0.0
  0
LINE
  8
DIM
  6
HIDDEN
 62
     7
 10
51.5663
 20
3.6412
 30
0.0
 11
51.5663
 21
3.7342
 31
0.0
  0
LINE
  8
DIM
 62
     7
 10
50.1603
 20
3.5792
 30
0.0
 11
50.1603
 21
3.6412
 31
0.0
  0
LINE
  8
DIM
 62
     7
 10
50.1603
 20
3.5792
 30
0.0
 11
51.6283
 21
3.5792
 31
0.0
  0
LINE
  8
DIM
 62
     7
 10
51.6283
 20
3.5792
 30
0.0
 11
51.6283
 21
3.6722
 31
0.0
  0
LINE
  8
OBJECT
 62
     7
 10
51.1603
 20
3.7032
 30
0.0
 11
50.2223
 21
3.7032
 31
0.0
  0
LINE
  8
OBJECT
 62
     7
 10
51.1603
 20
3.7502
 30
0.0
 11
50.1603
 21
3.7502
 31
0.0
  0
LINE
  8
OBJECT
 62
     7
 10
51.1603
 20
3.6412
 30
0.0
 11
51.1603
 21
3.7032
 31
0.0
  0
LINE
  8
OBJECT
 62
     7
 10
50.1603
 20
3.6412
 30
0.0
 11
50.1603
 21
17.7032
 31
0.0
  0
LINE
  8
HIDDEN
 62
     7
 10
50.2223
 20
3.7032
 30
0.0
 11
50.2223
 21
17.6412
 31
0.0
  0
LINE
  8
OBJECT
 62
     7
 10
51.1603
 20
3.7502
 30
0.0
 11
51.1603
 21
17.56723
 31
0.0
  0
LINE
  8
OBJECT
 62
     7
 10
50.1603
 20
17.7652
 30
0.0
 11
51.6293
 21
17.7652
 31
0.0
  0
LINE
  8
HIDDEN
  6
CONTINUOUS
 62
     7
 10
50.1603
 20
17.7032
 30
0.0
 11
51.5673
 21
17.7032
 31
0.0
  0
LINE
  8
OBJECT
 62
     7
 10
50.1603
 20
17.7032
 30
0.0
 11
50.1603
 21
17.7652
 31
0.0
  0
LINE
  8
OBJECT
 62
     7
 10
51.1603
 20
17.6412
 30
0.0
 11
51.1603
 21
17.7032
 31
0.0
  0
LINE
  8
HIDDEN
 62
     7
 10
51.5673
 20
17.7032
 30
0.0
 11
51.5673
 21
16.5472
 31
0.0
  0
LINE
  8
OBJECT
  6
HIDDEN
 62
     7
 10
51.6293
 20
17.7652
 30
0.0
 11
51.6293
 21
16.6092
 31
0.0
  0
LINE
  8
OBJECT
  6
HIDDEN
 62
     7
 10
51.5673
 20
16.5472
 30
0.0
 11
52.1923
 21
16.5472
 31
0.0
  0
LINE
  8
OBJECT
  6
HIDDEN
 62
     7
 10
51.6293
 20
16.6092
 30
0.0
 11
52.1923
 21
16.6092
 31
0.0
  0
LINE
  8
OBJECT
 62
     7
 10
52.1923
 20
16.5472
 30
0.0
 11
52.1923
 21
16.6092
 31
0.0
  0
LINE
  8
OBJECT
 62
     7
 10
70.6603
 20
3.6722
 30
0.0
 11
70.1293
 21
3.6722
 31
0.0
  0
LINE
  8
OBJECT
 62
     7
 10
51.6603
 20
3.6102
 30
0.0
 11
70.6603
 21
3.6102
 31
0.0
  0
LINE
  8
HIDDEN
 62
     7
 10
70.1293
 20
3.6102
 30
0.0
 11
70.1293
 21
4.1102
 31
0.0
  0
LINE
  8
HIDDEN
 62
     7
 10
52.1913
 20
3.6102
 30
0.0
 11
52.1913
 21
4.1102
 31
0.0
  0
LINE
  8
HIDDEN
 62
     7
 10
70.1293
 20
4.1102
 30
0.0
 11
52.1913
 21
4.1102
 31
0.0
  0
LINE
  8
OBJECT
 62
     7
 10
70.6603
 20
3.6722
 30
0.0
 11
70.6603
 21
3.6102
 31
0.0
  0
LINE
  8
HIDDEN
 62
     7
 10
70.1293
 20
3.6722
 30
0.0
 11
52.1913
 21
3.6722
 31
0.0
  0
LINE
  8
OBJECT
 62
     7
 10
51.6603
 20
3.6722
 30
0.0
 11
51.6603
 21
3.6102
 31
0.0
  0
LINE
  8
OBJECT
 62
     7
 10
52.1913
 20
3.6722
 30
0.0
 11
51.6603
 21
3.6722
 31
0.0
  0
LINE
  8
OBJECT
 62
     7
 10
23.517926
 20
33.628185
 30
0.0
 11
23.517926
 21
33.358993
 31
0.0
  0
LINE
  8
OBJECT
 10
1.517926
 20
33.628185
 30
0.0
 11
1.517926
 21
33.358993
 31
0.0
  0
LINE
  8
OBJECT
 10
1.517926
 20
33.628185
 30
0.0
 11
23.517926
 21
33.628185
 31
0.0
  0
LINE
  8
HIDDEN
 62
     7
 10
40.096592
 20
32.637977
 30
0.0
 11
40.133035
 21
32.587818
 31
0.0
  0
LINE
  8
HIDDEN
 62
     7
 10
41.15332
 20
33.405735
 30
0.0
 11
40.096592
 21
32.637977
 31
0.0
  0
LINE
  8
HIDDEN
 62
     7
 10
41.252715
 20
33.401313
 30
0.0
 11
40.133035
 21
32.587818
 31
0.0
  0
ARC
  8
OBJECT
 62
     7
 10
40.689715
 20
32.816185
 30
0.0
 40
0.812
 50
46.104141
 51
90.0
  0
ARC
  8
OBJECT
 62
     7
 10
40.689715
 20
32.816185
 30
0.0
 40
0.75
 50
51.819482
 51
90.0
  0
LINE
  8
HIDDEN
 62
     7
 10
40.002715
 20
33.228185
 30
0.0
 11
40.064715
 21
33.228185
 31
0.0
  0
LINE
  8
OBJECT
 62
     7
 10
40.002715
 20
33.566185
 30
0.0
 11
40.689715
 21
33.566185
 31
0.0
  0
LINE
  8
HIDDEN
 62
     7
 10
40.064715
 20
33.228185
 30
0.0
 11
40.064715
 21
33.566185
 31
0.0
  0
LINE
  8
OBJECT
 62
     7
 10
40.002715
 20
33.628185
 30
0.0
 11
40.689715
 21
33.628185
 31
0.0
  0
LINE
  8
HIDDEN
 62
     7
 10
40.002715
 20
33.228185
 30
0.0
 11
40.002715
 21
33.628185
 31
0.0
  0
LINE
  8
HIDDEN
 62
     7
 10
70.7533
 20
33.352305
 30
0.0
 11
70.7533
 21
21.858301
 31
0.0
  0
LINE
  8
OBJECT
 62
     7
 10
70.8473
 20
21.858301
 30
0.0
 11
70.8473
 21
21.796301
 31
0.0
  0
LINE
  8
OBJECT
  6
HIDDEN
 62
     7
 10
70.1283
 20
21.858301
 30
0.0
 11
70.8473
 21
21.858301
 31
0.0
  0
CIRCLE
  8
OBJECT
 62
     7
 10
70.3153
 20
25.749301
 30
0.0
 40
0.0805
  0
CIRCLE
  8
OBJECT
 62
     7
 10
70.3153
 20
25.124301
 30
0.0
 40
0.0805
  0
CIRCLE
  8
OBJECT
 62
     7
 10
70.3153
 20
24.499301
 30
0.0
 40
0.0805
  0
CIRCLE
  8
OBJECT
 62
     7
 10
70.3153
 20
23.999301
 30
0.0
 40
0.0805
  0
LINE
  8
OBJECT
 62
     7
 10
70.1283
 20
25.993911
 30
0.0
 11
70.1283
 21
22.471685
 31
0.0
  0
CIRCLE
  8
OBJECT
 62
     7
 10
70.3153
 20
23.374301
 30
0.0
 40
0.0805
  0
CIRCLE
  8
OBJECT
 62
     7
 10
70.3153
 20
22.749301
 30
0.0
 40
0.0805
  0
LINE
  8
OBJECT
 62
     7
 10
70.8473
 20
21.796301
 30
0.0
 11
72.1603
 21
21.796301
 31
0.0
  0
ARC
  8
OBJECT
 62
     7
 10
70.3153
 20
27.161141
 30
0.0
 40
0.0805
 50
16.829765
 51
163.170235
  0
CIRCLE
  8
OBJECT
 62
     7
 10
70.3153
 20
27.666777
 30
0.0
 40
0.0805
  0
CIRCLE
  8
OBJECT
 62
     7
 10
70.3153
 20
28.172412
 30
0.0
 40
0.0805
  0
CIRCLE
  8
OBJECT
 62
     7
 10
70.3153
 20
28.577141
 30
0.0
 40
0.0805
  0
CIRCLE
  8
OBJECT
 62
     7
 10
70.3153
 20
29.082777
 30
0.0
 40
0.0805
  0
CIRCLE
  8
OBJECT
 62
     7
 10
70.3153
 20
29.588412
 30
0.0
 40
0.0805
  0
CIRCLE
  8
OBJECT
 62
     7
 10
70.3153
 20
29.993141
 30
0.0
 40
0.0805
  0
CIRCLE
  8
OBJECT
 62
     7
 10
70.3153
 20
30.498777
 30
0.0
 40
0.0805
  0
CIRCLE
  8
OBJECT
 62
     7
 10
70.3153
 20
31.004412
 30
0.0
 40
0.0805
  0
CIRCLE
  8
OBJECT
 62
     7
 10
70.3153
 20
31.409141
 30
0.0
 40
0.0805
  0
CIRCLE
  8
OBJECT
 62
     7
 10
70.3153
 20
31.914777
 30
0.0
 40
0.0805
  0
CIRCLE
  8
OBJECT
 62
     7
 10
70.3153
 20
32.420412
 30
0.0
 40
0.0805
  0
LINE
  8
OBJECT
  6
HIDDEN
 62
     7
 10
70.6913
 20
32.672826
 30
0.0
 11
70.1283
 21
32.672826
 31
0.0
  0
LINE
  8
OBJECT
 62
     7
 10
70.1283
 20
32.672826
 30
0.0
 11
70.1283
 21
27.184448
 31
0.0
  0
LINE
  8
OBJECT
 62
     7
 10
70.6913
 20
33.352305
 30
0.0
 11
70.6913
 21
21.858301
 31
0.0
  0
LINE
  8
OBJECT
 62
     7
 10
72.1603
 20
33.352305
 30
0.0
 11
70.6913
 21
33.352305
 31
0.0
  0
LINE
  8
HIDDEN
 62
     7
 10
71.1603
 20
27.086137
 30
0.0
 11
71.1603
 21
33.457185
 31
0.0
  0
LINE
  8
HIDDEN
 62
     7
 10
70.1923
 20
33.535185
 30
0.0
 11
70.1923
 21
32.672826
 31
0.0
  0
LINE
  8
HIDDEN
 62
     7
 10
70.7543
 20
33.473185
 30
0.0
 11
70.1923
 21
33.473185
 31
0.0
  0
LINE
  8
HIDDEN
 62
     7
 10
70.7543
 20
33.566185
 30
0.0
 11
70.7543
 21
33.473185
 31
0.0
  0
LINE
  8
HIDDEN
 62
     7
 10
72.1603
 20
33.566185
 30
0.0
 11
70.7543
 21
33.566185
 31
0.0
  0
LINE
  8
HIDDEN
 62
     7
 10
70.6923
 20
33.535185
 30
0.0
 11
70.1923
 21
33.535185
 31
0.0
  0
LINE
  8
HIDDEN
 62
     7
 10
70.6923
 20
33.628185
 30
0.0
 11
70.6923
 21
33.535185
 31
0.0
  0
LINE
  8
HIDDEN
 62
     7
 10
72.0983
 20
33.504185
 30
0.0
 11
72.0983
 21
21.784185
 31
0.0
  0
LINE
  8
HIDDEN
 62
     7
 10
71.1603
 20
33.504185
 30
0.0
 11
71.1603
 21
33.566185
 31
0.0
  0
LINE
  8
HIDDEN
 62
     7
 10
71.1603
 20
33.457185
 30
0.0
 11
72.0983
 21
33.457185
 31
0.0
  0
LINE
  8
HIDDEN
 62
     7
 10
72.1603
 20
33.267027
 30
0.0
 11
71.1603
 21
33.267027
 31
0.0
  0
LINE
  8
HIDDEN
 62
     7
 10
71.1603
 20
21.831185
 30
0.0
 11
71.1603
 21
26.628185
 31
0.0
  0
LINE
  8
HIDDEN
 62
     7
 10
72.1603
 20
21.831185
 30
0.0
 11
71.1603
 21
21.831185
 31
0.0
  0
LINE
  8
HIDDEN
 62
     7
 10
72.1603
 20
27.086137
 30
0.0
 11
71.1603
 21
27.086137
 31
0.0
  0
LINE
  8
HIDDEN
 62
     7
 10
72.1603
 20
26.628185
 30
0.0
 11
71.1603
 21
26.628185
 31
0.0
  0
LINE
  8
OBJECT
 62
     7
 10
72.0983
 20
21.784185
 30
0.0
 11
71.1603
 21
21.784185
 31
0.0
  0
LINE
  8
HIDDEN
 62
     7
 10
71.1603
 20
33.504185
 30
0.0
 11
72.0983
 21
33.504185
 31
0.0
  0
LINE
  8
OBJECT
 62
     7
 10
72.1603
 20
33.628185
 30
0.0
 11
72.1603
 21
21.722185
 31
0.0
  0
LINE
  8
OBJECT
 62
     7
 10
71.1603
 20
21.722185
 30
0.0
 11
71.1603
 21
21.784185
 31
0.0
  0
LINE
  8
OBJECT
 62
     7
 10
72.1603
 20
21.722185
 30
0.0
 11
71.1603
 21
21.722185
 31
0.0
  0
LINE
  8
OBJECT
 62
     7
 10
70.1293
 20
29.456185
 30
0.0
 11
52.1913
 21
29.456185
 31
0.0
  0
LINE
  8
OBJECT
 62
     7
 10
70.1293
 20
29.518185
 30
0.0
 11
52.1913
 21
29.518185
 31
0.0
  0
CIRCLE
  8
OBJECT
 62
     7
 10
69.9103
 20
29.284185
 30
0.0
 40
0.0545
  0
CIRCLE
  8
OBJECT
 62
     7
 10
66.1603
 20
29.284185
 30
0.0
 40
0.0545
  0
CIRCLE
  8
OBJECT
 62
     7
 10
61.1603
 20
29.284185
 30
0.0
 40
0.0545
  0
CIRCLE
  8
OBJECT
 62
     7
 10
56.1603
 20
29.284185
 30
0.0
 40
0.0545
  0
CIRCLE
  8
OBJECT
 62
     7
 10
52.4103
 20
29.284185
 30
0.0
 40
0.0545
  0
LINE
  8
OBJECT
 62
     7
 10
52.1923
 20
24.784185
 30
0.0
 11
70.1283
 21
24.784185
 31
0.0
  0
LINE
  8
OBJECT
 62
     7
 10
51.6293
 20
32.587818
 30
0.0
 11
70.6913
 21
32.587818
 31
0.0
  0
LINE
  8
OBJECT
 62
     7
 10
72.1603
 20
33.628185
 30
0.0
 11
50.1603
 21
33.628185
 31
0.0
  0
LINE
  8
HIDDEN
 62
     7
 10
50.2223
 20
21.846185
 30
0.0
 11
72.0983
 21
21.846185
 31
0.0
  0
LINE
  8
OBJECT
 62
     7
 10
51.1603
 20
21.784185
 30
0.0
 11
71.1603
 21
21.784185
 31
0.0
  0
LINE
  8
OBJECT
 62
     7
 10
51.6603
 20
22.471685
 30
0.0
 11
70.6603
 21
22.471685
 31
0.0
  0
LINE
  8
OBJECT
 62
     7
 10
70.6603
 20
21.784185
 30
0.0
 11
70.6603
 21
22.471685
 31
0.0
  0
LINE
  8
OBJECT
  6
HIDDEN
 62
     7
 10
70.1283
 20
22.471685
 30
0.0
 11
70.1283
 21
21.858301
 31
0.0
  0
LINE
  8
OBJECT
 62
     7
 10
51.6603
 20
21.784185
 30
0.0
 11
51.6603
 21
22.471685
 31
0.0
  0
LINE
  8
OBJECT
  6
HIDDEN
 62
     7
 10
52.1923
 20
22.471685
 30
0.0
 11
52.1923
 21
21.858301
 31
0.0
  0
LINE
  8
HIDDEN
 62
     7
 10
51.6603
 20
22.409685
 30
0.0
 11
70.6603
 21
22.409685
 31
0.0
  0
TEXT
  8
TEXT
 62
     7
 10
58.900925
 20
38.788135
 30
0.0
 40
0.75
  1
%%uTOP VIEW
 41
0.75
  7
TXT
 72
     1
 11
61.1603
 21
38.788135
 31
0.0
  0
TEXT
  8
TEXT
 62
     7
 10
9.977301
 20
19.665082
 30
0.0
 40
0.75
  1
%%uREAR VIEW
 41
0.75
  7
TXT
 72
     1
 11
12.517926
 21
19.665082
 31
0.0
  0
TEXT
  8
TEXT
 10
58.057175
 20
1.375224
 30
0.0
 40
0.75
  1
%%uBOTTOM VIEW
 41
0.75
  7
TXT
 72
     1
 11
61.1603
 21
1.375224
 31
0.0
  0
TEXT
  8
TEXT
 62
     7
 10
58.618919
 20
19.696486
 30
0.0
 40
0.75
  1
%%uFRONT VIEW
 41
0.75
  7
TXT
 72
     1
 11
61.440794
 21
19.696486
 31
0.0
  0
TEXT
  8
TEXT
 62
     7
 10
35.891515
 20
18.686991
 30
0.0
 40
0.75
  1
%%uSIDE VIEW
 41
0.75
  7
TXT
 72
     1
 11
38.33839
 21
18.686991
 31
0.0
  0
TEXT
  8
DIM
 10
50.553229
 20
56.063868
 30
0.0
 40
0.33325
  1

  0
TEXT
  8
DIM
 10
45.839449
 20
53.210553
 30
0.0
 40
0.33325
  1

  0
TEXT
  8
DIM
 10
63.167838
 20
53.210553
 30
0.0
 40
0.33325
  1

  0
TEXT
  8
DIM
 10
57.441585
 20
50.294368
 30
0.0
 40
0.33325
  1

  0
LINE
  8
DIM
 62
     7
 10
51.6293
 20
27.184448
 30
0.0
 11
70.6913
 21
27.184448
 31
0.0
  0
LINE
  8
DIM
 62
     7
 10
51.6293
 20
25.993911
 30
0.0
 11
70.6913
 21
25.993911
 31
0.0
  0
LINE
  8
DIM
 62
     7
 10
52.1923
 20
25.725232
 30
0.0
 11
70.1283
 21
25.725232
 31
0.0
  0
LINE
  8
HIDDEN
 62
     7
 10
22.017926
 20
33.597185
 30
0.0
 11
3.017926
 21
33.597185
 31
0.0
  0
LINE
  8
OBJECT
 62
     7
 10
22.017926
 20
33.628185
 30
0.0
 11
22.017926
 21
29.589185
 31
0.0
  0
LINE
  8
OBJECT
 62
     7
 10
22.017926
 20
33.628185
 30
0.0
 11
3.017926
 21
33.628185
 31
0.0
  0
CIRCLE
  8
OBJECT
 62
     7
 10
17.517926
 20
29.284185
 30
0.0
 40
0.156
  0
CIRCLE
  8
OBJECT
 62
     7
 10
21.267926
 20
29.284185
 30
0.0
 40
0.156
  0
CIRCLE
  8
OBJECT
 62
     7
 10
12.517926
 20
29.284185
 30
0.0
 40
0.156
  0
CIRCLE
  8
OBJECT
 62
     7
 10
7.517926
 20
29.284185
 30
0.0
 40
0.156
  0
CIRCLE
  8
OBJECT
 62
     7
 10
3.767926
 20
29.284185
 30
0.0
 40
0.156
  0
LINE
  8
OBJECT
 62
     7
 10
21.767926
 20
29.673185
 30
0.0
 11
21.767926
 21
29.521185
 31
0.0
  0
LINE
  8
OBJECT
 62
     7
 10
21.517926
 20
29.673185
 30
0.0
 11
21.517926
 21
29.521185
 31
0.0
  0
LINE
  8
OBJECT
 62
     7
 10
21.267926
 20
29.673185
 30
0.0
 11
21.267926
 21
29.521185
 31
0.0
  0
LINE
  8
OBJECT
 62
     7
 10
21.017926
 20
29.673185
 30
0.0
 11
21.017926
 21
29.521185
 31
0.0
  0
LINE
  8
OBJECT
 62
     7
 10
20.767926
 20
29.673185
 30
0.0
 11
20.767926
 21
29.521185
 31
0.0
  0
LINE
  8
OBJECT
 62
     7
 10
20.517926
 20
29.673185
 30
0.0
 11
20.517926
 21
29.521185
 31
0.0
  0
LINE
  8
OBJECT
 62
     7
 10
20.267926
 20
29.673185
 30
0.0
 11
20.267926
 21
29.521185
 31
0.0
  0
LINE
  8
OBJECT
 62
     7
 10
20.017926
 20
29.673185
 30
0.0
 11
20.017926
 21
29.521185
 31
0.0
  0
LINE
  8
OBJECT
 62
     7
 10
19.767926
 20
29.673185
 30
0.0
 11
19.767926
 21
29.521185
 31
0.0
  0
LINE
  8
OBJECT
 62
     7
 10
19.517926
 20
29.673185
 30
0.0
 11
19.517926
 21
29.521185
 31
0.0
  0
LINE
  8
OBJECT
 62
     7
 10
19.267926
 20
29.673185
 30
0.0
 11
19.267926
 21
29.521185
 31
0.0
  0
LINE
  8
OBJECT
 62
     7
 10
19.017926
 20
29.673185
 30
0.0
 11
19.017926
 21
29.521185
 31
0.0
  0
LINE
  8
OBJECT
 62
     7
 10
18.767926
 20
29.673185
 30
0.0
 11
18.767926
 21
29.521185
 31
0.0
  0
LINE
  8
OBJECT
 62
     7
 10
18.517926
 20
29.673185
 30
0.0
 11
18.517926
 21
29.521185
 31
0.0
  0
LINE
  8
OBJECT
 62
     7
 10
18.267926
 20
29.673185
 30
0.0
 11
18.267926
 21
29.521185
 31
0.0
  0
LINE
  8
OBJECT
 62
     7
 10
18.017926
 20
29.673185
 30
0.0
 11
18.017926
 21
29.521185
 31
0.0
  0
LINE
  8
OBJECT
 62
     7
 10
17.767926
 20
29.673185
 30
0.0
 11
17.767926
 21
29.521185
 31
0.0
  0
LINE
  8
OBJECT
 62
     7
 10
17.517926
 20
29.673185
 30
0.0
 11
17.517926
 21
29.521185
 31
0.0
  0
LINE
  8
OBJECT
 62
     7
 10
17.267926
 20
29.673185
 30
0.0
 11
17.267926
 21
29.521185
 31
0.0
  0
LINE
  8
OBJECT
 62
     7
 10
17.017926
 20
29.673185
 30
0.0
 11
17.017926
 21
29.521185
 31
0.0
  0
LINE
  8
OBJECT
 62
     7
 10
16.767926
 20
29.673185
 30
0.0
 11
16.767926
 21
29.521185
 31
0.0
  0
LINE
  8
OBJECT
 62
     7
 10
16.517926
 20
29.673185
 30
0.0
 11
16.517926
 21
29.521185
 31
0.0
  0
LINE
  8
OBJECT
 62
     7
 10
16.267926
 20
29.673185
 30
0.0
 11
16.267926
 21
29.521185
 31
0.0
  0
LINE
  8
OBJECT
 62
     7
 10
16.017926
 20
29.673185
 30
0.0
 11
16.017926
 21
29.521185
 31
0.0
  0
LINE
  8
OBJECT
 62
     7
 10
15.767926
 20
29.673185
 30
0.0
 11
15.767926
 21
29.521185
 31
0.0
  0
LINE
  8
OBJECT
 62
     7
 10
15.517926
 20
29.673185
 30
0.0
 11
15.517926
 21
29.521185
 31
0.0
  0
LINE
  8
OBJECT
 62
     7
 10
15.267926
 20
29.673185
 30
0.0
 11
15.267926
 21
29.521185
 31
0.0
  0
LINE
  8
OBJECT
 62
     7
 10
15.017926
 20
29.673185
 30
0.0
 11
15.017926
 21
29.521185
 31
0.0
  0
LINE
  8
OBJECT
 62
     7
 10
14.767926
 20
29.673185
 30
0.0
 11
14.767926
 21
29.521185
 31
0.0
  0
LINE
  8
OBJECT
 62
     7
 10
14.517926
 20
29.673185
 30
0.0
 11
14.517926
 21
29.521185
 31
0.0
  0
LINE
  8
OBJECT
 62
     7
 10
14.267926
 20
29.673185
 30
0.0
 11
14.267926
 21
29.521185
 31
0.0
  0
LINE
  8
OBJECT
 62
     7
 10
14.017926
 20
29.673185
 30
0.0
 11
14.017926
 21
29.521185
 31
0.0
  0
LINE
  8
OBJECT
 62
     7
 10
13.767926
 20
29.673185
 30
0.0
 11
13.767926
 21
29.521185
 31
0.0
  0
LINE
  8
OBJECT
 62
     7
 10
13.517926
 20
29.673185
 30
0.0
 11
13.517926
 21
29.521185
 31
0.0
  0
LINE
  8
OBJECT
 62
     7
 10
13.267926
 20
29.673185
 30
0.0
 11
13.267926
 21
29.521185
 31
0.0
  0
LINE
  8
OBJECT
 62
     7
 10
13.017926
 20
29.673185
 30
0.0
 11
13.017926
 21
29.521185
 31
0.0
  0
LINE
  8
OBJECT
 62
     7
 10
12.767926
 20
29.673185
 30
0.0
 11
12.767926
 21
29.521185
 31
0.0
  0
LINE
  8
OBJECT
 62
     7
 10
12.517926
 20
29.673185
 30
0.0
 11
12.517926
 21
29.521185
 31
0.0
  0
LINE
  8
OBJECT
 62
     7
 10
12.267926
 20
29.673185
 30
0.0
 11
12.267926
 21
29.521185
 31
0.0
  0
LINE
  8
OBJECT
 62
     7
 10
12.017926
 20
29.673185
 30
0.0
 11
12.017926
 21
29.521185
 31
0.0
  0
LINE
  8
OBJECT
 62
     7
 10
11.767926
 20
29.673185
 30
0.0
 11
11.767926
 21
29.521185
 31
0.0
  0
LINE
  8
OBJECT
 62
     7
 10
11.517926
 20
29.673185
 30
0.0
 11
11.517926
 21
29.521185
 31
0.0
  0
LINE
  8
OBJECT
 62
     7
 10
11.267926
 20
29.673185
 30
0.0
 11
11.267926
 21
29.521185
 31
0.0
  0
LINE
  8
OBJECT
 62
     7
 10
11.017926
 20
29.673185
 30
0.0
 11
11.017926
 21
29.521185
 31
0.0
  0
LINE
  8
OBJECT
 62
     7
 10
10.767926
 20
29.673185
 30
0.0
 11
10.767926
 21
29.521185
 31
0.0
  0
LINE
  8
OBJECT
 62
     7
 10
10.517926
 20
29.673185
 30
0.0
 11
10.517926
 21
29.521185
 31
0.0
  0
LINE
  8
OBJECT
 62
     7
 10
10.267926
 20
29.673185
 30
0.0
 11
10.267926
 21
29.521185
 31
0.0
  0
LINE
  8
OBJECT
 62
     7
 10
10.017926
 20
29.673185
 30
0.0
 11
10.017926
 21
29.521185
 31
0.0
  0
LINE
  8
OBJECT
 62
     7
 10
9.767926
 20
29.673185
 30
0.0
 11
9.767926
 21
29.521185
 31
0.0
  0
LINE
  8
OBJECT
 62
     7
 10
9.517926
 20
29.673185
 30
0.0
 11
9.517926
 21
29.521185
 31
0.0
  0
LINE
  8
OBJECT
 62
     7
 10
9.267926
 20
29.673185
 30
0.0
 11
9.267926
 21
29.521185
 31
0.0
  0
LINE
  8
OBJECT
 62
     7
 10
9.017926
 20
29.673185
 30
0.0
 11
9.017926
 21
29.521185
 31
0.0
  0
LINE
  8
OBJECT
 62
     7
 10
8.767926
 20
29.673185
 30
0.0
 11
8.767926
 21
29.521185
 31
0.0
  0
LINE
  8
OBJECT
 62
     7
 10
8.517926
 20
29.673185
 30
0.0
 11
8.517926
 21
29.521185
 31
0.0
  0
LINE
  8
OBJECT
 62
     7
 10
8.267926
 20
29.673185
 30
0.0
 11
8.267926
 21
29.521185
 31
0.0
  0
LINE
  8
OBJECT
 62
     7
 10
8.017926
 20
29.673185
 30
0.0
 11
8.017926
 21
29.521185
 31
0.0
  0
LINE
  8
OBJECT
 62
     7
 10
7.767926
 20
29.673185
 30
0.0
 11
7.767926
 21
29.521185
 31
0.0
  0
LINE
  8
OBJECT
 62
     7
 10
7.517926
 20
29.673185
 30
0.0
 11
7.517926
 21
29.521185
 31
0.0
  0
LINE
  8
OBJECT
 62
     7
 10
7.267926
 20
29.673185
 30
0.0
 11
7.267926
 21
29.521185
 31
0.0
  0
LINE
  8
OBJECT
 62
     7
 10
7.017926
 20
29.673185
 30
0.0
 11
7.017926
 21
29.521185
 31
0.0
  0
LINE
  8
OBJECT
 62
     7
 10
6.767926
 20
29.673185
 30
0.0
 11
6.767926
 21
29.521185
 31
0.0
  0
LINE
  8
OBJECT
 62
     7
 10
6.517926
 20
29.673185
 30
0.0
 11
6.517926
 21
29.521185
 31
0.0
  0
LINE
  8
OBJECT
 62
     7
 10
6.267926
 20
29.673185
 30
0.0
 11
6.267926
 21
29.521185
 31
0.0
  0
LINE
  8
OBJECT
 62
     7
 10
6.017926
 20
29.673185
 30
0.0
 11
6.017926
 21
29.521185
 31
0.0
  0
LINE
  8
OBJECT
 62
     7
 10
5.767926
 20
29.673185
 30
0.0
 11
5.767926
 21
29.521185
 31
0.0
  0
LINE
  8
OBJECT
 62
     7
 10
5.517926
 20
29.673185
 30
0.0
 11
5.517926
 21
29.521185
 31
0.0
  0
LINE
  8
OBJECT
 62
     7
 10
5.267926
 20
29.673185
 30
0.0
 11
5.267926
 21
29.521185
 31
0.0
  0
LINE
  8
OBJECT
 62
     7
 10
5.017926
 20
29.673185
 30
0.0
 11
5.017926
 21
29.521185
 31
0.0
  0
LINE
  8
OBJECT
 62
     7
 10
4.767926
 20
29.673185
 30
0.0
 11
4.767926
 21
29.521185
 31
0.0
  0
LINE
  8
OBJECT
 62
     7
 10
4.517926
 20
29.673185
 30
0.0
 11
4.517926
 21
29.521185
 31
0.0
  0
LINE
  8
OBJECT
 62
     7
 10
4.267926
 20
29.673185
 30
0.0
 11
4.267926
 21
29.521185
 31
0.0
  0
LINE
  8
OBJECT
 62
     7
 10
4.017926
 20
29.673185
 30
0.0
 11
4.017926
 21
29.521185
 31
0.0
  0
LINE
  8
OBJECT
 62
     7
 10
3.767926
 20
29.673185
 30
0.0
 11
3.767926
 21
29.521185
 31
0.0
  0
LINE
  8
OBJECT
 62
     7
 10
3.517926
 20
29.673185
 30
0.0
 11
3.517926
 21
29.521185
 31
0.0
  0
LINE
  8
OBJECT
 62
     7
 10
3.267926
 20
29.673185
 30
0.0
 11
3.267926
 21
29.521185
 31
0.0
  0
LINE
  8
OBJECT
 62
     7
 10
3.017926
 20
29.673185
 30
0.0
 11
22.017926
 21
29.673185
 31
0.0
  0
LINE
  8
OBJECT
 62
     7
 10
3.017926
 20
29.521185
 30
0.0
 11
22.017926
 21
29.521185
 31
0.0
  0
LINE
  8
OBJECT
 62
     7
 10
3.017926
 20
29.066185
 30
0.0
 11
3.017926
 21
30.128185
 31
0.0
  0
LINE
  8
OBJECT
 62
     7
 10
22.017926
 20
29.066185
 30
0.0
 11
3.017926
 21
29.066185
 31
0.0
  0
LINE
  8
OBJECT
 62
     7
 10
22.017926
 20
30.128185
 30
0.0
 11
22.017926
 21
29.066185
 31
0.0
  0
LINE
  8
OBJECT
 62
     7
 10
3.017926
 20
30.128185
 30
0.0
 11
22.017926
 21
30.128185
 31
0.0
  0
LINE
  8
OBJECT
 62
     7
 10
3.017926
 20
29.589185
 30
0.0
 11
3.017926
 21
33.628185
 31
0.0
  0
LINE
  8
HIDDEN
 62
     7
 10
22.017926
 20
29.589185
 30
0.0
 11
3.017926
 21
29.589185
 31
0.0
  0
LINE
  8
OBJECT
 62
     7
 10
51.9103
 20
54.8542
 30
0.0
 11
51.9103
 21
54.9752
 31
0.0
  0
LINE
  8
OBJECT
 62
     7
 10
52.1603
 20
54.8542
 30
0.0
 11
52.1603
 21
54.9752
 31
0.0
  0
LINE
  8
OBJECT
 62
     7
 10
52.4103
 20
54.8542
 30
0.0
 11
52.4103
 21
54.9752
 31
0.0
  0
LINE
  8
OBJECT
 62
     7
 10
52.6603
 20
54.8542
 30
0.0
 11
52.6603
 21
54.9752
 31
0.0
  0
LINE
  8
OBJECT
 62
     7
 10
52.9103
 20
54.8542
 30
0.0
 11
52.9103
 21
54.9752
 31
0.0
  0
LINE
  8
OBJECT
 62
     7
 10
53.1603
 20
54.8542
 30
0.0
 11
53.1603
 21
54.9752
 31
0.0
  0
LINE
  8
OBJECT
 62
     7
 10
53.4103
 20
54.8542
 30
0.0
 11
53.4103
 21
54.9752
 31
0.0
  0
LINE
  8
OBJECT
 62
     7
 10
53.6603
 20
54.8542
 30
0.0
 11
53.6603
 21
54.9752
 31
0.0
  0
LINE
  8
OBJECT
 62
     7
 10
53.9103
 20
54.8542
 30
0.0
 11
53.9103
 21
54.9752
 31
0.0
  0
LINE
  8
OBJECT
 62
     7
 10
54.1603
 20
54.8542
 30
0.0
 11
54.1603
 21
54.9752
 31
0.0
  0
LINE
  8
OBJECT
 62
     7
 10
54.4103
 20
54.8542
 30
0.0
 11
54.4103
 21
54.9752
 31
0.0
  0
LINE
  8
OBJECT
 62
     7
 10
54.6603
 20
54.8542
 30
0.0
 11
54.6603
 21
54.9752
 31
0.0
  0
LINE
  8
OBJECT
 62
     7
 10
54.9103
 20
54.8542
 30
0.0
 11
54.9103
 21
54.9752
 31
0.0
  0
LINE
  8
OBJECT
 62
     7
 10
55.1603
 20
54.8542
 30
0.0
 11
55.1603
 21
54.9752
 31
0.0
  0
LINE
  8
OBJECT
 62
     7
 10
55.4103
 20
54.8542
 30
0.0
 11
55.4103
 21
54.9752
 31
0.0
  0
LINE
  8
OBJECT
 62
     7
 10
55.6603
 20
54.8542
 30
0.0
 11
55.6603
 21
54.9752
 31
0.0
  0
LINE
  8
OBJECT
 62
     7
 10
55.9103
 20
54.8542
 30
0.0
 11
55.9103
 21
54.9752
 31
0.0
  0
LINE
  8
OBJECT
 62
     7
 10
56.1603
 20
54.8542
 30
0.0
 11
56.1603
 21
54.9752
 31
0.0
  0
LINE
  8
OBJECT
 62
     7
 10
56.4103
 20
54.8542
 30
0.0
 11
56.4103
 21
54.9752
 31
0.0
  0
LINE
  8
OBJECT
 62
     7
 10
56.6603
 20
54.8542
 30
0.0
 11
56.6603
 21
54.9752
 31
0.0
  0
LINE
  8
OBJECT
 62
     7
 10
56.9103
 20
54.8542
 30
0.0
 11
56.9103
 21
54.9752
 31
0.0
  0
LINE
  8
OBJECT
 62
     7
 10
57.1603
 20
54.8542
 30
0.0
 11
57.1603
 21
54.9752
 31
0.0
  0
LINE
  8
OBJECT
 62
     7
 10
57.4103
 20
54.8542
 30
0.0
 11
57.4103
 21
54.9752
 31
0.0
  0
LINE
  8
OBJECT
 62
     7
 10
57.6603
 20
54.8542
 30
0.0
 11
57.6603
 21
54.9752
 31
0.0
  0
LINE
  8
OBJECT
 62
     7
 10
57.9103
 20
54.8542
 30
0.0
 11
57.9103
 21
54.9752
 31
0.0
  0
LINE
  8
OBJECT
 62
     7
 10
58.1603
 20
54.8542
 30
0.0
 11
58.1603
 21
54.9752
 31
0.0
  0
LINE
  8
OBJECT
 62
     7
 10
58.4103
 20
54.8542
 30
0.0
 11
58.4103
 21
54.9752
 31
0.0
  0
LINE
  8
OBJECT
 62
     7
 10
58.6603
 20
54.8542
 30
0.0
 11
58.6603
 21
54.9752
 31
0.0
  0
LINE
  8
OBJECT
 62
     7
 10
58.9103
 20
54.8542
 30
0.0
 11
58.9103
 21
54.9752
 31
0.0
  0
LINE
  8
OBJECT
 62
     7
 10
59.1603
 20
54.8542
 30
0.0
 11
59.1603
 21
54.9752
 31
0.0
  0
LINE
  8
OBJECT
 62
     7
 10
59.4103
 20
54.8542
 30
0.0
 11
59.4103
 21
54.9752
 31
0.0
  0
LINE
  8
OBJECT
 62
     7
 10
59.6603
 20
54.8542
 30
0.0
 11
59.6603
 21
54.9752
 31
0.0
  0
LINE
  8
OBJECT
 62
     7
 10
59.9103
 20
54.8542
 30
0.0
 11
59.9103
 21
54.9752
 31
0.0
  0
LINE
  8
OBJECT
 62
     7
 10
60.1603
 20
54.8542
 30
0.0
 11
60.1603
 21
54.9752
 31
0.0
  0
LINE
  8
OBJECT
 62
     7
 10
60.4103
 20
54.8542
 30
0.0
 11
60.4103
 21
54.9752
 31
0.0
  0
LINE
  8
OBJECT
 62
     7
 10
60.6603
 20
54.8542
 30
0.0
 11
60.6603
 21
54.9752
 31
0.0
  0
LINE
  8
OBJECT
 62
     7
 10
60.9103
 20
54.8542
 30
0.0
 11
60.9103
 21
54.9752
 31
0.0
  0
LINE
  8
OBJECT
 62
     7
 10
61.1603
 20
54.8542
 30
0.0
 11
61.1603
 21
54.9752
 31
0.0
  0
LINE
  8
OBJECT
 62
     7
 10
61.4103
 20
54.8542
 30
0.0
 11
61.4103
 21
54.9752
 31
0.0
  0
LINE
  8
OBJECT
 62
     7
 10
61.6603
 20
54.8542
 30
0.0
 11
61.6603
 21
54.9752
 31
0.0
  0
LINE
  8
OBJECT
 62
     7
 10
61.9103
 20
54.8542
 30
0.0
 11
61.9103
 21
54.9752
 31
0.0
  0
LINE
  8
OBJECT
 62
     7
 10
62.1603
 20
54.8542
 30
0.0
 11
62.1603
 21
54.9752
 31
0.0
  0
LINE
  8
OBJECT
 62
     7
 10
62.4103
 20
54.8542
 30
0.0
 11
62.4103
 21
54.9752
 31
0.0
  0
LINE
  8
OBJECT
 62
     7
 10
62.6603
 20
54.8542
 30
0.0
 11
62.6603
 21
54.9752
 31
0.0
  0
LINE
  8
OBJECT
 62
     7
 10
62.9103
 20
54.8542
 30
0.0
 11
62.9103
 21
54.9752
 31
0.0
  0
LINE
  8
OBJECT
 62
     7
 10
63.1603
 20
54.8542
 30
0.0
 11
63.1603
 21
54.9752
 31
0.0
  0
LINE
  8
OBJECT
 62
     7
 10
63.4103
 20
54.8542
 30
0.0
 11
63.4103
 21
54.9752
 31
0.0
  0
LINE
  8
OBJECT
 62
     7
 10
63.6603
 20
54.8542
 30
0.0
 11
63.6603
 21
54.9752
 31
0.0
  0
LINE
  8
OBJECT
 62
     7
 10
63.9103
 20
54.8542
 30
0.0
 11
63.9103
 21
54.9752
 31
0.0
  0
LINE
  8
OBJECT
 62
     7
 10
64.1603
 20
54.8542
 30
0.0
 11
64.1603
 21
54.9752
 31
0.0
  0
LINE
  8
OBJECT
 62
     7
 10
64.4103
 20
54.8542
 30
0.0
 11
64.4103
 21
54.9752
 31
0.0
  0
LINE
  8
OBJECT
 62
     7
 10
64.6603
 20
54.8542
 30
0.0
 11
64.6603
 21
54.9752
 31
0.0
  0
LINE
  8
OBJECT
 62
     7
 10
64.9103
 20
54.8542
 30
0.0
 11
64.9103
 21
54.9752
 31
0.0
  0
LINE
  8
OBJECT
 62
     7
 10
65.1603
 20
54.8542
 30
0.0
 11
65.1603
 21
54.9752
 31
0.0
  0
LINE
  8
OBJECT
 62
     7
 10
65.4103
 20
54.8542
 30
0.0
 11
65.4103
 21
54.9752
 31
0.0
  0
LINE
  8
OBJECT
 62
     7
 10
65.6603
 20
54.8542
 30
0.0
 11
65.6603
 21
54.9752
 31
0.0
  0
LINE
  8
OBJECT
 62
     7
 10
65.9103
 20
54.8542
 30
0.0
 11
65.9103
 21
54.9752
 31
0.0
  0
LINE
  8
OBJECT
 62
     7
 10
66.1603
 20
54.8542
 30
0.0
 11
66.1603
 21
54.9752
 31
0.0
  0
LINE
  8
OBJECT
 62
     7
 10
66.4103
 20
54.8542
 30
0.0
 11
66.4103
 21
54.9752
 31
0.0
  0
LINE
  8
OBJECT
 62
     7
 10
66.6603
 20
54.8542
 30
0.0
 11
66.6603
 21
54.9752
 31
0.0
  0
LINE
  8
OBJECT
 62
     7
 10
66.9103
 20
54.8542
 30
0.0
 11
66.9103
 21
54.9752
 31
0.0
  0
LINE
  8
OBJECT
 62
     7
 10
67.1603
 20
54.8542
 30
0.0
 11
67.1603
 21
54.9752
 31
0.0
  0
LINE
  8
OBJECT
 62
     7
 10
67.4103
 20
54.8542
 30
0.0
 11
67.4103
 21
54.9752
 31
0.0
  0
LINE
  8
OBJECT
 62
     7
 10
67.6603
 20
54.8542
 30
0.0
 11
67.6603
 21
54.9752
 31
0.0
  0
LINE
  8
OBJECT
 62
     7
 10
67.9103
 20
54.8542
 30
0.0
 11
67.9103
 21
54.9752
 31
0.0
  0
LINE
  8
OBJECT
 62
     7
 10
68.1603
 20
54.8542
 30
0.0
 11
68.1603
 21
54.9752
 31
0.0
  0
LINE
  8
OBJECT
 62
     7
 10
68.4103
 20
54.8542
 30
0.0
 11
68.4103
 21
54.9752
 31
0.0
  0
LINE
  8
OBJECT
 62
     7
 10
68.6603
 20
54.8542
 30
0.0
 11
68.6603
 21
54.9752
 31
0.0
  0
LINE
  8
OBJECT
 62
     7
 10
68.9103
 20
54.8542
 30
0.0
 11
68.9103
 21
54.9752
 31
0.0
  0
LINE
  8
OBJECT
 62
     7
 10
69.1603
 20
54.8542
 30
0.0
 11
69.1603
 21
54.9752
 31
0.0
  0
LINE
  8
OBJECT
 62
     7
 10
69.4103
 20
54.8542
 30
0.0
 11
69.4103
 21
54.9752
 31
0.0
  0
LINE
  8
OBJECT
 62
     7
 10
69.6603
 20
54.8542
 30
0.0
 11
69.6603
 21
54.9752
 31
0.0
  0
LINE
  8
OBJECT
 62
     7
 10
69.9103
 20
54.8542
 30
0.0
 11
69.9103
 21
54.9752
 31
0.0
  0
LINE
  8
OBJECT
 62
     7
 10
70.1603
 20
54.8542
 30
0.0
 11
70.1603
 21
54.9752
 31
0.0
  0
LINE
  8
OBJECT
 62
     7
 10
70.4103
 20
54.8542
 30
0.0
 11
70.4103
 21
54.9752
 31
0.0
  0
LINE
  8
OBJECT
 62
     7
 10
51.6603
 20
54.9752
 30
0.0
 11
70.6603
 21
54.9752
 31
0.0
  0
LINE
  8
OBJECT
 62
     7
 10
70.6603
 20
54.8232
 30
0.0
 11
70.6603
 21
54.9752
 31
0.0
  0
LINE
  8
OBJECT
 62
     7
 10
51.6603
 20
54.9752
 30
0.0
 11
51.6603
 21
54.8232
 31
0.0
  0
LINE
  8
OBJECT
 62
     7
 10
51.6603
 20
54.8542
 30
0.0
 11
70.6603
 21
54.8542
 31
0.0
  0
LINE
  8
HIDDEN
 62
     7
 10
70.6603
 20
54.7922
 30
0.0
 11
51.6603
 21
54.7922
 31
0.0
  0
LINE
  8
HIDDEN
 62
     7
 10
70.6603
 20
46.6592
 30
0.0
 11
51.6603
 21
46.6592
 31
0.0
  0
LINE
  8
OBJECT
 62
     7
 10
70.6603
 20
54.8232
 30
0.0
 11
51.6603
 21
54.8232
 31
0.0
  0
LINE
  8
OBJECT
 62
     7
 10
70.6603
 20
54.8232
 30
0.0
 11
70.6603
 21
46.6282
 31
0.0
  0
LINE
  8
OBJECT
 62
     7
 10
51.6603
 20
46.6282
 30
0.0
 11
51.6603
 21
54.8232
 31
0.0
  0
LINE
  8
OBJECT
 62
     7
 10
70.6603
 20
46.6282
 30
0.0
 11
51.6603
 21
46.6282
 31
0.0
  0
TEXT
  8
DIM
 10
63.155246
 20
40.168475
 30
0.0
 40
0.5
  1

  0
LINE
  8
DIM
 62
     7
 10
40.94718
 20
33.628185
 30
0.0
 11
41.064305
 21
33.628185
 31
0.0
  0
LINE
  8
DIM
 62
     7
 10
41.145335
 20
33.516657
 30
0.0
 11
41.064305
 21
33.628185
 31
0.0
  0
TEXT
  8
TEXT
 62
     7
 10
3.046532
 20
39.922915
 30
0.0
 40
0.75
  1
MOUNTING RAILS ARE RECESSED 1.156 & TAPPED
 41
0.75
  7
TXT
  0
TEXT
  8
TEXT
 62
     7
 10
4.014691
 20
38.672915
 30
0.0
 40
0.75
  1
#10-32 ON E.I.A. UNIVERSAL SPACING.
 41
0.75
  7
TXT
  0
TEXT
  8
DIM
 10
103.750751
 20
23.981857
 30
0.0
 40
0.5
  1

  0
TEXT
  8
DIM
 10
103.014824
 20
22.364957
 30
0.0
 40
0.666625
  1

  0
TEXT
  8
DIM
 10
182.547913
 20
74.314088
 30
0.0
 40
0.5
  1

  0
TEXT
  8
DIM
 10
180.636528
 20
79.163088
 30
0.0
 40
0.5
  1

  0
TEXT
  8
DIM
 10
133.191429
 20
67.566826
 30
0.0
 40
0.33325
  1

  0
TEXT
  8
DIM
 10
128.477649
 20
64.713512
 30
0.0
 40
0.33325
  1

  0
TEXT
  8
DIM
 10
145.806038
 20
64.713512
 30
0.0
 40
0.33325
  1

  0
TEXT
  8
DIM
 10
140.079785
 20
61.797326
 30
0.0
 40
0.33325
  1

  0
TEXT
  8
DIM
 10
145.793445
 20
51.671433
 30
0.0
 40
0.5
  1

  0
DIMENSION
  8
DIM
 62
     7
  2
*D5
 10
17.615664
 20
22.284185
 30
0.0
 11
17.615664
 21
23.534185
 31
0.0
 12
0.43489
 22
-2.282212
 32
0.0
  1
<> OPEN
 13
18.36647
 23
24.784185
 33
0.0
 14
18.36647
 24
22.284185
 34
0.0
 50
90.0
  3
23NSTDI
  0
DIMENSION
  8
DIM
 62
     7
  2
*D9
 10
26.159481
 20
33.628185
 30
0.0
 11
26.159481
 21
27.675185
 31
0.0
 12
0.0
 22
-0.978091
 32
0.0
  1
A
 13
31.923715
 23
21.722185
 33
0.0
 14
31.752715
 24
33.628185
 34
0.0
 50
90.0
  3
23NSTD
  0
DIMENSION
  8
DIM
 62
     7
  2
*D10
 10
45.938715
 20
20.419481
 30
0.0
 11
38.845715
 21
20.419481
 31
0.0
 12
0.0
 22
-0.978091
 32
0.0
  1
B
 13
31.752715
 23
21.784185
 33
0.0
 14
45.938715
 24
21.796301
 34
0.0
  3
23NSTD
  0
DIMENSION
  8
DIM
 62
     7
  2
*D12
 10
47.456305
 20
25.971685
 30
0.0
 11
47.456305
 21
24.221685
 31
0.0
 12
0.0
 22
-0.978091
 32
0.0
  1
D
 13
45.907715
 23
22.471685
 33
0.0
 14
44.782715
 24
25.971685
 34
0.0
 50
90.0
  3
23NSTDI
  0
DIMENSION
  8
DIM
 62
     7
  2
*D1
 10
41.064305
 20
35.165996
 30
0.0
 11
36.40851
 21
35.165996
 31
0.0
 12
2.826782
 22
-2.282212
 32
0.0
 13
31.752715
 23
33.628185
 33
0.0
 14
41.064305
 24
33.628185
 34
0.0
  3
23NSTD
  0
DIMENSION
  8
DIM
 62
     7
  2
*D13
 10
46.871824
 20
28.773612
 30
0.0
 11
44.814575
 21
31.605171
 31
0.0
 12
0.0
 22
-0.978091
 32
0.0
  1
E
 13
41.264743
 23
33.352305
 33
0.0
 14
44.444016
 24
27.009707
 34
0.0
 50
126.0
  3
23NSTD
  0
DIMENSION
  8
DIM
 62
     7
  2
*D2
 10
48.389799
 20
46.6042
 30
0.0
 11
48.389799
 21
50.7292
 31
0.0
 12
2.500614
 22
-1.304121
 32
0.0
 13
50.1603
 23
54.8542
 33
0.0
 14
50.1603
 24
46.6042
 34
0.0
 50
270.0
  3
23NSTD
  0
DIMENSION
  8
DIM
 62
     7
  2
*D17
 10
72.1603
 20
36.851996
 30
0.0
 11
61.1603
 21
36.851996
 31
0.0
 12
0.0
 22
-0.978091
 32
0.0
 13
50.1603
 23
33.628185
 33
0.0
 14
72.1603
 24
33.628185
 34
0.0
  3
23NSTD
  0
DIMENSION
  8
DIM
 62
     7
  2
*D3
 10
70.1283
 20
28.663309
 30
0.0
 11
61.1603
 21
28.663309
 31
0.0
 12
2.500614
 22
-4.418442
 32
0.0
  1
17.937
 13
52.1923
 23
29.550218
 33
0.0
 14
70.1283
 24
29.550218
 34
0.0
  3
23NSTD
  0
DIMENSION
  8
DIM
 62
     7
  2
*D4
 10
70.3153
 20
23.679192
 30
0.0
 11
61.1603
 21
23.679192
 31
0.0
 12
2.500614
 22
-2.282212
 32
0.0
  1
18.312
 13
52.0053
 23
24.499301
 33
0.0
 14
70.3153
 24
24.499301
 34
0.0
  3
23NSTD
  0
DIMENSION
  8
DIM
  2
*D18
 10
52.1293
 20
56.249728
 30
0.0
 11
61.1603
 21
56.249728
 31
0.0
 13
70.1913
 23
54.3232
 33
0.0
 14
52.1293
 24
54.3232
 34
0.0
 50
180.0
  3
23NSTD
  0
CIRCLE
  8
OBJECT
 62
     7
 10
51.7228
 20
4.7652
 30
0.0
 40
0.4375
  0
CIRCLE
  8
OBJECT
 62
     7
 10
51.7228
 20
4.7652
 30
0.0
 40
0.1875
  0
POLYLINE
  8
OBJECT
 62
     7
 66
     1
 10
0.0
 20
0.0
 30
0.0
 70
     1
  0
VERTEX
  8
OBJECT
 62
     7
 10
21.631653
 20
21.331091
 30
0.0
  0
VERTEX
  8
OBJECT
 62
     7
 10
21.517926
 20
21.784185
 30
0.0
  0
VERTEX
  8
OBJECT
 62
     7
 10
22.392926
 20
21.784185
 30
0.0
  0
VERTEX
  8
OBJECT
 62
     7
 10
22.2792
 20
21.331091
 30
0.0
 42
-0.343888
  0
VERTEX
  8
OBJECT
 62
     7
 10
22.219065
 20
21.284185
 30
0.0
  0
VERTEX
  8
OBJECT
 62
     7
 10
21.691788
 20
21.284185
 30
0.0
 42
-0.343888
  0
SEQEND
  8
OBJECT
 62
     7
  0
CIRCLE
  8
OBJECT
 62
     7
 10
70.5978
 20
4.7652
 30
0.0
 40
0.4375
  0
CIRCLE
  8
OBJECT
 62
     7
 10
70.5978
 20
4.7652
 30
0.0
 40
0.1875
  0
POLYLINE
  8
OBJECT
 62
     7
 66
     1
 10
0.0
 20
0.0
 30
0.0
 70
     1
  0
VERTEX
  8
OBJECT
 62
     7
 10
3.4042
 20
21.331091
 30
0.0
  0
VERTEX
  8
OBJECT
 62
     7
 10
3.517926
 20
21.784185
 30
0.0
  0
VERTEX
  8
OBJECT
 62
     7
 10
2.642926
 20
21.784185
 30
0.0
  0
VERTEX
  8
OBJECT
 62
     7
 10
2.756653
 20
21.331091
 30
0.0
 42
0.343888
  0
VERTEX
  8
OBJECT
 62
     7
 10
2.816788
 20
21.284185
 30
0.0
  0
VERTEX
  8
OBJECT
 62
     7
 10
3.344065
 20
21.284185
 30
0.0
 42
0.343888
  0
SEQEND
  8
OBJECT
 62
     7
  0
CIRCLE
  8
OBJECT
 62
     7
 10
70.5978
 20
16.0152
 30
0.0
 40
0.4375
  0
CIRCLE
  8
OBJECT
 62
     7
 10
70.5978
 20
16.0152
 30
0.0
 40
0.1875
  0
CIRCLE
  8
OBJECT
 62
     7
 10
51.7228
 20
16.0152
 30
0.0
 40
0.4375
  0
CIRCLE
  8
OBJECT
 62
     7
 10
51.7228
 20
16.0152
 30
0.0
 40
0.1875
  0
POLYLINE
  8
OBJECT
 62
     7
 66
     1
 10
0.0
 20
0.0
 30
0.0
 70
     1
  0
VERTEX
  8
OBJECT
 62
     7
 10
52.046574
 20
21.331091
 30
0.0
  0
VERTEX
  8
OBJECT
 62
     7
 10
52.1603
 20
21.784185
 30
0.0
  0
VERTEX
  8
OBJECT
 62
     7
 10
51.2853
 20
21.784185
 30
0.0
  0
VERTEX
  8
OBJECT
 62
     7
 10
51.399027
 20
21.331091
 30
0.0
 42
0.343888
  0
VERTEX
  8
OBJECT
 62
     7
 10
51.459162
 20
21.284185
 30
0.0
  0
VERTEX
  8
OBJECT
 62
     7
 10
51.986439
 20
21.284185
 30
0.0
 42
0.343888
  0
SEQEND
  8
OBJECT
 62
     7
  0
POLYLINE
  8
OBJECT
 62
     7
 66
     1
 10
0.0
 20
0.0
 30
0.0
 70
     1
  0
VERTEX
  8
OBJECT
 62
     7
 10
70.274027
 20
21.331091
 30
0.0
  0
VERTEX
  8
OBJECT
 62
     7
 10
70.1603
 20
21.784185
 30
0.0
  0
VERTEX
  8
OBJECT
 62
     7
 10
71.0353
 20
21.784185
 30
0.0
  0
VERTEX
  8
OBJECT
 62
     7
 10
70.921574
 20
21.331091
 30
0.0
 42
-0.343888
  0
VERTEX
  8
OBJECT
 62
     7
 10
70.861439
 20
21.284185
 30
0.0
  0
VERTEX
  8
OBJECT
 62
     7
 10
70.334162
 20
21.284185
 30
0.0
 42
-0.343888
  0
SEQEND
  8
OBJECT
 62
     7
  0
POLYLINE
  8
OBJECT
 62
     7
 66
     1
 10
0.0
 20
0.0
 30
0.0
 70
     1
  0
VERTEX
  8
OBJECT
 62
     7
 10
32.614941
 20
21.331091
 30
0.0
  0
VERTEX
  8
OBJECT
 62
     7
 10
32.501215
 20
21.784185
 30
0.0
  0
VERTEX
  8
OBJECT
 62
     7
 10
33.376215
 20
21.784185
 30
0.0
  0
VERTEX
  8
OBJECT
 62
     7
 10
33.262488
 20
21.331091
 30
0.0
 42
-0.343888
  0
VERTEX
  8
OBJECT
 62
     7
 10
33.202353
 20
21.284185
 30
0.0
  0
VERTEX
  8
OBJECT
 62
     7
 10
32.675076
 20
21.284185
 30
0.0
 42
-0.343888
  0
SEQEND
  8
OBJECT
 62
     7
  0
POLYLINE
  8
OBJECT
 62
     7
 66
     1
 10
0.0
 20
0.0
 30
0.0
 70
     1
  0
VERTEX
  8
OBJECT
 62
     7
 10
43.864941
 20
21.331091
 30
0.0
  0
VERTEX
  8
OBJECT
 62
     7
 10
43.751215
 20
21.784185
 30
0.0
  0
VERTEX
  8
OBJECT
 62
     7
 10
44.626215
 20
21.784185
 30
0.0
  0
VERTEX
  8
OBJECT
 62
     7
 10
44.512488
 20
21.331091
 30
0.0
 42
-0.343888
  0
VERTEX
  8
OBJECT
 62
     7
 10
44.452353
 20
21.284185
 30
0.0
  0
VERTEX
  8
OBJECT
 62
     7
 10
43.925076
 20
21.284185
 30
0.0
 42
-0.343888
  0
SEQEND
  8
OBJECT
 62
     7
  0
DIMENSION
  8
DIM
 62
     7
  2
*D15
 10
70.6913
 20
35.165996
 30
0.0
 11
61.1603
 21
35.165996
 31
0.0
 12
0.0
 22
-0.978091
 32
0.0
 13
51.6293
 23
33.352305
 33
0.0
 14
70.6913
 24
33.352305
 34
0.0
 50
180.0
  3
23NSTD
  0
DIMENSION
  8
DIM
 62
     7
  2
*D16
 10
50.1603
 20
35.165996
 30
0.0
 11
46.42905
 21
35.165996
 31
0.0
 12
0.0
 22
-0.978091
 32
0.0
 13
51.6293
 23
33.352305
 33
0.0
 14
50.1603
 24
33.628185
 34
0.0
 50
180.0
  3
23NSTD
  0
LINE
  8
HIDDEN
 62
     7
 10
79.763218
 20
33.401313
 30
0.0
 11
80.882897
 21
32.587818
 31
0.0
  0
LINE
  8
HIDDEN
 62
     7
 10
79.862612
 20
33.405735
 30
0.0
 11
80.91934
 21
32.637977
 31
0.0
  0
LINE
  8
DIM
 62
     7
 10
89.201218
 20
21.784185
 30
0.0
 11
89.201218
 21
33.566185
 31
0.0
  0
LINE
  8
DIM
 62
     7
 10
89.263218
 20
21.784185
 30
0.0
 11
89.263218
 21
33.628185
 31
0.0
  0
LINE
  8
HIDDEN
 62
     7
 10
80.736572
 20
32.636383
 30
0.0
 11
79.751189
 21
33.352305
 31
0.0
  0
LINE
  8
OBJECT
 62
     7
 10
75.232296
 20
27.132583
 30
0.0
 11
79.751189
 21
33.352305
 31
0.0
  0
LINE
  8
OBJECT
 62
     7
 10
75.282455
 20
27.09614
 30
0.0
 11
79.801348
 21
33.315863
 31
0.0
  0
LINE
  8
OBJECT
 62
     7
 10
89.201218
 20
21.831185
 30
0.0
 11
89.201218
 21
33.457185
 31
0.0
  0
LINE
  8
OBJECT
 62
     7
 10
79.758599
 20
33.257024
 30
0.0
 11
75.282455
 21
27.09614
 31
0.0
  0
LINE
  8
HIDDEN
 62
     7
 10
89.139218
 20
21.831185
 30
0.0
 11
89.139218
 21
33.457185
 31
0.0
  0
LINE
  8
HIDDEN
 62
     7
 10
79.816026
 20
33.230584
 30
0.0
 11
75.325346
 21
27.049694
 31
0.0
  0
LINE
  8
OBJECT
 62
     7
 10
75.248218
 20
21.722185
 30
0.0
 11
89.092218
 21
21.722185
 31
0.0
  0
LINE
  8
HIDDEN
 62
     7
 10
75.170218
 20
21.846185
 30
0.0
 11
89.046218
 21
21.846185
 31
0.0
  0
LINE
  8
HIDDEN
 62
     7
 10
75.108218
 20
21.784185
 30
0.0
 11
89.108218
 21
21.784185
 31
0.0
  0
LINE
  8
HIDDEN
 62
     7
 10
89.232218
 20
24.784185
 30
0.0
 11
89.232218
 21
29.518185
 31
0.0
  0
LINE
  8
HIDDEN
 62
     7
 10
89.170218
 20
24.784185
 30
0.0
 11
89.170218
 21
29.456185
 31
0.0
  0
LINE
  8
OBJECT
 62
     7
 10
89.092218
 20
21.831185
 30
0.0
 11
89.201218
 21
21.831185
 31
0.0
  0
LINE
  8
DIM
 62
     7
 10
89.201218
 20
21.784185
 30
0.0
 11
89.263218
 21
21.784185
 31
0.0
  0
POLYLINE
  8
OBJECT
 62
     7
 66
     1
 10
0.0
 20
0.0
 30
0.0
 70
     1
  0
VERTEX
  8
OBJECT
 62
     7
 10
88.400991
 20
21.331091
 30
0.0
  0
VERTEX
  8
OBJECT
 62
     7
 10
88.514718
 20
21.784185
 30
0.0
  0
VERTEX
  8
OBJECT
 62
     7
 10
87.639718
 20
21.784185
 30
0.0
  0
VERTEX
  8
OBJECT
 62
     7
 10
87.753444
 20
21.331091
 30
0.0
 42
0.343888
  0
VERTEX
  8
OBJECT
 62
     7
 10
87.813579
 20
21.284185
 30
0.0
  0
VERTEX
  8
OBJECT
 62
     7
 10
88.340856
 20
21.284185
 30
0.0
 42
0.343888
  0
SEQEND
  8
OBJECT
 62
     7
  0
LINE
  8
OBJECT
 62
     7
 10
89.092218
 20
21.722185
 30
0.0
 11
89.092218
 21
21.831185
 31
0.0
  0
LINE
  8
HIDDEN
 62
     7
 10
89.108218
 20
22.284185
 30
0.0
 11
89.046218
 21
22.284185
 31
0.0
  0
LINE
  8
HIDDEN
 62
     7
 10
89.046218
 20
21.846185
 30
0.0
 11
89.046218
 21
22.284185
 31
0.0
  0
LINE
  8
HIDDEN
 62
     7
 10
89.108218
 20
21.784185
 30
0.0
 11
89.108218
 21
22.284185
 31
0.0
  0
LINE
  8
HIDDEN
 62
     7
 10
89.232218
 20
24.784185
 30
0.0
 11
89.170218
 21
24.784185
 31
0.0
  0
LINE
  8
HIDDEN
 62
     7
 10
89.232218
 20
29.518185
 30
0.0
 11
88.732218
 21
29.518185
 31
0.0
  0
LINE
  8
HIDDEN
 62
     7
 10
89.170218
 20
29.456185
 30
0.0
 11
88.732218
 21
29.456185
 31
0.0
  0
CIRCLE
  8
OBJECT
 62
     7
 10
89.308218
 20
29.597185
 30
0.0
 40
0.045
  0
ARC
  8
OBJECT
 62
     7
 10
89.308218
 20
29.597185
 30
0.0
 40
0.076
 50
233.693453
 51
126.306547
  0
LINE
  8
HIDDEN
 62
     7
 10
88.732218
 20
29.518185
 30
0.0
 11
88.732218
 21
29.456185
 31
0.0
  0
ARC
  8
OBJECT
 62
     7
 10
75.889218
 20
26.655301
 30
0.0
 40
0.812
 50
143.99999
 51
179.999991
  0
ARC
  8
OBJECT
 62
     7
 10
75.889218
 20
26.655301
 30
0.0
 40
0.75
 50
143.99999
 51
179.999991
  0
ARC
  8
OBJECT
 62
     7
 10
75.889218
 20
26.655301
 30
0.0
 40
0.75
 50
143.999997
 51
180.0
  0
LINE
  8
HIDDEN
 62
     7
 10
76.295218
 20
21.858301
 30
0.0
 11
76.295218
 21
26.096764
 31
0.0
  0
LINE
  8
HIDDEN
 62
     7
 10
76.233218
 20
21.858301
 30
0.0
 11
76.233218
 21
26.125195
 31
0.0
  0
LINE
  8
OBJECT
 62
     7
 10
75.077218
 20
21.796301
 30
0.0
 11
75.077218
 21
26.655301
 31
0.0
  0
LINE
  8
OBJECT
 62
     7
 10
75.139218
 20
21.796301
 30
0.0
 11
75.139218
 21
26.655301
 31
0.0
  0
LINE
  8
OBJECT
 62
     7
 10
75.139218
 20
26.655301
 30
0.0
 11
75.139218
 21
21.893185
 31
0.0
  0
LINE
  8
HIDDEN
 62
     7
 10
75.201218
 20
26.628185
 30
0.0
 11
75.201218
 21
21.893185
 31
0.0
  0
LINE
  8
HIDDEN
 62
     7
 10
75.170218
 20
22.409685
 30
0.0
 11
75.170218
 21
21.846185
 31
0.0
  0
LINE
  8
HIDDEN
 62
     7
 10
75.108218
 20
22.471685
 30
0.0
 11
75.108218
 21
21.784185
 31
0.0
  0
LINE
  8
HIDDEN
 62
     7
 10
75.139218
 20
21.858301
 30
0.0
 11
76.295218
 21
21.858301
 31
0.0
  0
POLYLINE
  8
OBJECT
 62
     7
 66
     1
 10
0.0
 20
0.0
 30
0.0
 70
     1
  0
VERTEX
  8
OBJECT
 62
     7
 10
77.150991
 20
21.331091
 30
0.0
  0
VERTEX
  8
OBJECT
 62
     7
 10
77.264718
 20
21.784185
 30
0.0
  0
VERTEX
  8
OBJECT
 62
     7
 10
76.389718
 20
21.784185
 30
0.0
  0
VERTEX
  8
OBJECT
 62
     7
 10
76.503444
 20
21.331091
 30
0.0
 42
0.343888
  0
VERTEX
  8
OBJECT
 62
     7
 10
76.563579
 20
21.284185
 30
0.0
  0
VERTEX
  8
OBJECT
 62
     7
 10
77.090856
 20
21.284185
 30
0.0
 42
0.343888
  0
SEQEND
  8
OBJECT
 62
     7
  0
LINE
  8
HIDDEN
 62
     7
 10
75.077218
 20
21.796301
 30
0.0
 11
75.139218
 21
21.796301
 31
0.0
  0
LINE
  8
OBJECT
 62
     7
 10
75.248218
 20
21.722185
 30
0.0
 11
75.248218
 21
21.831185
 31
0.0
  0
LINE
  8
OBJECT
 62
     7
 10
75.139218
 20
21.831185
 30
0.0
 11
75.248218
 21
21.831185
 31
0.0
  0
LINE
  8
HIDDEN
 62
     7
 10
76.233218
 20
22.409685
 30
0.0
 11
76.233218
 21
22.471685
 31
0.0
  0
LINE
  8
HIDDEN
 62
     7
 10
76.233218
 20
22.409685
 30
0.0
 11
75.170218
 21
22.409685
 31
0.0
  0
LINE
  8
HIDDEN
 62
     7
 10
76.233218
 20
22.471685
 30
0.0
 11
75.108218
 21
22.471685
 31
0.0
  0
LINE
  8
HIDDEN
 62
     7
 10
76.295218
 20
26.096764
 30
0.0
 11
75.139218
 21
26.62687
 31
0.0
  0
LINE
  8
HIDDEN
 62
     7
 10
75.139218
 20
26.628185
 30
0.0
 11
75.201218
 21
26.628185
 31
0.0
  0
LINE
  8
HIDDEN
 62
     7
 10
76.546251
 20
26.868901
 30
0.0
 11
80.736572
 21
32.636383
 31
0.0
  0
LINE
  8
HIDDEN
 62
     7
 10
76.479366
 20
26.882323
 30
0.0
 11
80.686413
 21
32.672826
 31
0.0
  0
LINE
  8
HIDDEN
 62
     7
 10
75.29918
 20
27.119161
 30
0.0
 11
76.546251
 21
26.868901
 31
0.0
  0
LINE
  8
HIDDEN
 62
     7
 10
75.325346
 20
27.049694
 30
0.0
 11
75.275187
 21
27.086137
 31
0.0
  0
LINE
  8
HIDDEN
 62
     7
 10
80.91934
 20
32.637977
 30
0.0
 11
80.882897
 21
32.587818
 31
0.0
  0
LINE
  8
DIM
 62
     7
 10
81.013218
 20
33.566185
 30
0.0
 11
89.201218
 21
33.566185
 31
0.0
  0
LINE
  8
DIM
 62
     7
 10
89.263218
 20
33.628185
 30
0.0
 11
81.013218
 21
33.628185
 31
0.0
  0
LINE
  8
OBJECT
 62
     7
 10
89.092218
 20
33.566185
 30
0.0
 11
80.365362
 21
33.566185
 31
0.0
  0
LINE
  8
HIDDEN
 62
     7
 10
89.092218
 20
33.504185
 30
0.0
 11
80.373218
 21
33.504185
 31
0.0
  0
LINE
  8
OBJECT
 62
     7
 10
89.201218
 20
33.457185
 30
0.0
 11
89.092218
 21
33.457185
 31
0.0
  0
LINE
  8
OBJECT
 62
     7
 10
89.092218
 20
33.457185
 30
0.0
 11
89.092218
 21
33.566185
 31
0.0
  0
LINE
  8
DIM
 62
     7
 10
79.870597
 20
33.516657
 30
0.0
 11
79.951627
 21
33.628185
 31
0.0
  0
LINE
  8
DIM
 62
     7
 10
80.068752
 20
33.628185
 30
0.0
 11
79.951627
 21
33.628185
 31
0.0
  0
LINE
  8
HIDDEN
 62
     7
 10
81.013218
 20
33.228185
 30
0.0
 11
81.013218
 21
33.628185
 31
0.0
  0
LINE
  8
OBJECT
 62
     7
 10
81.013218
 20
33.628185
 30
0.0
 11
80.326218
 21
33.628185
 31
0.0
  0
LINE
  8
HIDDEN
 62
     7
 10
80.951218
 20
33.228185
 30
0.0
 11
80.951218
 21
33.566185
 31
0.0
  0
LINE
  8
OBJECT
 62
     7
 10
81.013218
 20
33.566185
 30
0.0
 11
80.326218
 21
33.566185
 31
0.0
  0
LINE
  8
HIDDEN
 62
     7
 10
81.013218
 20
33.228185
 30
0.0
 11
80.951218
 21
33.228185
 31
0.0
  0
ARC
  8
OBJECT
 62
     7
 10
80.326218
 20
32.816185
 30
0.0
 40
0.75
 50
90.0
 51
128.180518
  0
ARC
  8
OBJECT
 62
     7
 10
80.326218
 20
32.816185
 30
0.0
 40
0.812
 50
90.0
 51
133.895859
  0
LINE
  8
DIM
 62
     7
 10
81.013218
 20
33.628185
 30
0.0
 11
81.013218
 21
33.566185
 31
0.0
  0
LINE
  8
HIDDEN
 62
     7
 10
79.816026
 20
33.230584
 30
0.0
 11
79.765867
 21
33.267027
 31
0.0
  0
ARC
  8
OBJECT
 62
     7
 10
80.365362
 20
32.816185
 30
0.0
 40
0.75
 50
90.0
 51
143.999995
  0
LINE
  8
HIDDEN
 62
     7
 10
80.373218
 20
33.504185
 30
0.0
 11
80.373218
 21
33.566185
 31
0.0
  0
TEXT
  8
TEXT
 62
     7
 10
80.230668
 20
19.665082
 30
0.0
 40
0.75
  1
%%uSIDE VIEW
 41
0.75
  7
TXT
 72
     1
 11
82.677543
 21
19.665082
 31
0.0
  0
LINE
  8
HIDDEN
 62
     7
 10
51.4413
 20
51.4562
 30
0.0
 11
51.4413
 21
46.7842
 31
0.0
  0
POLYLINE
  8
HIDDEN
 62
     7
 66
     1
 10
0.0
 20
0.0
 30
0.0
 70
     1
  0
VERTEX
  8
HIDDEN
 62
     7
 10
51.4723
 20
46.7842
 30
0.0
  0
VERTEX
  8
HIDDEN
 62
     7
 10
51.4723
 20
51.4562
 30
0.0
  0
VERTEX
  8
HIDDEN
 62
     7
 10
50.2223
 20
51.4562
 30
0.0
  0
VERTEX
  8
HIDDEN
 62
     7
 10
50.2223
 20
46.7842
 30
0.0
  0
SEQEND
  8
HIDDEN
 62
     7
  0
LINE
  8
HIDDEN
 62
     7
 10
50.2533
 20
51.4562
 30
0.0
 11
50.2533
 21
46.7842
 31
0.0
  0
POLYLINE
  8
HIDDEN
 62
     7
 66
     1
 10
0.0
 20
0.0
 30
0.0
 70
     1
  0
VERTEX
  8
HIDDEN
 62
     7
 10
70.8483
 20
46.7842
 30
0.0
  0
VERTEX
  8
HIDDEN
 62
     7
 10
70.8483
 20
51.4562
 30
0.0
  0
VERTEX
  8
HIDDEN
 62
     7
 10
72.0983
 20
51.4562
 30
0.0
  0
VERTEX
  8
HIDDEN
 62
     7
 10
72.0983
 20
46.7842
 30
0.0
  0
SEQEND
  8
HIDDEN
 62
     7
  0
LINE
  8
HIDDEN
 62
     7
 10
70.8793
 20
51.4562
 30
0.0
 11
70.8793
 21
46.7842
 31
0.0
  0
LINE
  8
HIDDEN
 62
     7
 10
72.0673
 20
51.4562
 30
0.0
 11
72.0673
 21
46.7842
 31
0.0
  0
DIMENSION
  8
DIM
 62
     7
  2
*D8
 10
30.089481
 20
29.518185
 30
0.0
 11
30.089481
 21
31.573185
 31
0.0
 12
0.0
 22
-0.978091
 32
0.0
 13
31.752715
 23
33.628185
 33
0.0
 14
31.783715
 24
29.518185
 34
0.0
 50
90.0
  3
23NSTDI
  0
DIMENSION
  8
DIM
 62
     7
  2
*D11
 10
27.845481
 20
28.628185
 30
0.0
 11
27.845481
 21
31.128185
 31
0.0
 12
0.0
 22
-0.978091
 32
0.0
  1
C
 13
31.752715
 23
33.628185
 33
0.0
 14
37.144715
 24
28.628185
 34
0.0
 50
90.0
  3
23NSTDI
  0
DIMENSION
  8
DIM
 62
     7
  2
*D14
 10
22.205926
 20
35.165996
 30
0.0
 11
18.568426
 21
35.165996
 31
0.0
 12
0.0
 22
-0.978091
 32
0.0
 13
23.517926
 23
33.628185
 33
0.0
 14
22.205926
 24
29.065685
 34
0.0
  3
23NSTD
  0
TEXT
  8
DIM
 10
79.466748
 20
62.785708
 30
0.0
 40
0.33325
  1

  0
TEXT
  8
DIM
 10
74.752968
 20
59.932394
 30
0.0
 40
0.33325
  1

  0
TEXT
  8
DIM
 10
92.081357
 20
59.932394
 30
0.0
 40
0.33325
  1

  0
TEXT
  8
DIM
 10
86.355104
 20
57.016208
 30
0.0
 40
0.33325
  1

  0
POLYLINE
  8
OBJECT
 62
     7
 66
     1
 10
0.0
 20
0.0
 30
0.0
  0
VERTEX
  8
OBJECT
 62
     7
 10
89.254478
 20
29.650925
 30
0.0
  0
VERTEX
  8
OBJECT
 62
     7
 10
89.629951
 20
30.026399
 30
0.0
  0
VERTEX
  8
OBJECT
 62
     7
 10
89.651872
 20
30.004478
 30
0.0
  0
VERTEX
  8
OBJECT
 62
     7
 10
89.319705
 20
29.672312
 30
0.0
  0
SEQEND
  8
OBJECT
 62
     7
  0
POLYLINE
  8
HIDDEN
 62
     7
 66
     1
 10
0.0
 20
0.0
 30
0.0
 70
     1
  0
VERTEX
  8
HIDDEN
 62
     7
 10
44.645581
 20
26.037232
 30
0.0
  0
VERTEX
  8
HIDDEN
 62
     7
 10
44.645581
 20
25.725232
 30
0.0
  0
VERTEX
  8
HIDDEN
 62
     7
 10
44.707581
 20
25.725232
 30
0.0
  0
VERTEX
  8
HIDDEN
 62
     7
 10
44.707581
 20
25.993911
 30
0.0
  0
VERTEX
  8
HIDDEN
 62
     7
 10
45.530022
 20
26.294259
 30
0.0
 42
1.0
  0
VERTEX
  8
HIDDEN
 62
     7
 10
45.240782
 20
27.184448
 30
0.0
  0
VERTEX
  8
HIDDEN
 62
     7
 10
44.398874
 20
26.944017
 30
0.0
  0
VERTEX
  8
HIDDEN
 62
     7
 10
44.240948
 20
27.161383
 30
0.0
  0
VERTEX
  8
HIDDEN
 62
     7
 10
44.190789
 20
27.12494
 30
0.0
  0
VERTEX
  8
HIDDEN
 62
     7
 10
44.374178
 20
26.872527
 30
0.0
  0
VERTEX
  8
HIDDEN
 62
     7
 10
45.259941
 20
27.125483
 30
0.0
 42
-1.0
  0
VERTEX
  8
HIDDEN
 62
     7
 10
45.510863
 20
26.353225
 30
0.0
  0
SEQEND
  8
HIDDEN
 62
     7
  0
LINE
  8
CENTER
 62
     7
 10
45.470997
 20
26.767165
 30
0.0
 11
45.299807
 21
26.711542
 31
0.0
  0
LINE
  8
CENTER
 62
     7
 10
45.35759
 20
26.824949
 30
0.0
 11
45.413213
 21
26.653759
 31
0.0
  0
LINE
  8
CENTER
 62
     7
 10
75.658342
 20
26.824949
 30
0.0
 11
75.602719
 21
26.653759
 31
0.0
  0
LINE
  8
CENTER
 62
     7
 10
75.544935
 20
26.767165
 30
0.0
 11
75.716125
 21
26.711542
 31
0.0
  0
POLYLINE
  8
HIDDEN
 62
     7
 66
     1
 10
0.0
 20
0.0
 30
0.0
 70
     1
  0
VERTEX
  8
HIDDEN
 62
     7
 10
76.370351
 20
26.037232
 30
0.0
  0
VERTEX
  8
HIDDEN
 62
     7
 10
76.370351
 20
25.725232
 30
0.0
  0
VERTEX
  8
HIDDEN
 62
     7
 10
76.308351
 20
25.725232
 30
0.0
  0
VERTEX
  8
HIDDEN
 62
     7
 10
76.308351
 20
25.993911
 30
0.0
  0
VERTEX
  8
HIDDEN
 62
     7
 10
75.48591
 20
26.294259
 30
0.0
 42
-1.0
  0
VERTEX
  8
HIDDEN
 62
     7
 10
75.77515
 20
27.184448
 30
0.0
  0
VERTEX
  8
HIDDEN
 62
     7
 10
76.617059
 20
26.944017
 30
0.0
  0
VERTEX
  8
HIDDEN
 62
     7
 10
76.774985
 20
27.161383
 30
0.0
  0
VERTEX
  8
HIDDEN
 62
     7
 10
76.825144
 20
27.12494
 30
0.0
  0
VERTEX
  8
HIDDEN
 62
     7
 10
76.641755
 20
26.872527
 30
0.0
  0
VERTEX
  8
HIDDEN
 62
     7
 10
75.755991
 20
27.125483
 30
0.0
 42
1.0
  0
VERTEX
  8
HIDDEN
 62
     7
 10
75.505069
 20
26.353225
 30
0.0
  0
SEQEND
  8
HIDDEN
 62
     7
  0
INSERT
  8
TITLE
  2
HBS
 10
0.0
 20
0.0
 30
0.0
 41
6.0
 42
6.0
 43
6.0
  0
DIMENSION
  8
DIM
 62
     7
  2
*D6
 10
75.077218
 20
26.655301
 30
0.0
 11
76.186321
 21
30.332604
 31
0.0
 12
0.869779
 22
-2.282212
 32
0.0
 70
     2
 13
75.232296
 23
27.132583
 33
0.0
 14
79.751189
 24
33.352305
 34
0.0
 15
75.077218
 25
21.796301
 35
0.0
 16
76.559913
 26
30.187696
 36
0.0
  3
23NSTD
  0
DIMENSION
  8
DIM
 62
     7
  2
*D7
 10
80.326218
 20
33.628185
 30
0.0
 11
77.04902
 21
32.149233
 31
0.0
 12
0.869779
 22
-2.282212
 32
0.0
 70
     2
 13
75.232296
 23
27.132583
 33
0.0
 14
79.751189
 24
33.352305
 34
0.0
 15
81.013218
 25
33.628185
 35
0.0
 16
77.054723
 26
32.138094
 36
0.0
  3
23NSTD
  0
POLYLINE
  8
DIM
 62
     7
 66
     1
 10
0.0
 20
0.0
 30
0.0
 40
0.405
  0
VERTEX
  8
DIM
 62
     7
 10
85.316526
 20
36.311719
 30
0.0
  0
VERTEX
  8
DIM
 62
     7
 10
86.058493
 20
37.084647
 30
0.0
 40
0.0
  0
SEQEND
  8
DIM
 62
     7
  0
ARC
  8
DIM
 62
     7
 10
89.792052
 20
31.468648
 30
0.0
 40
6.594367
 50
132.741302
 51
152.607701
  0
LINE
  8
TITLE
 10
36.372
 20
5.372
 30
0.0
 11
0.372
 21
5.372
 31
0.0
  0
LINE
  8
TITLE
 62
     7
 10
36.372
 20
4.122
 30
0.0
 11
24.372
 21
4.122
 31
0.0
  0
LINE
  8
TITLE
 10
36.372
 20
2.872
 30
0.0
 11
0.372
 21
2.872
 31
0.0
  0
LINE
  8
TITLE
 10
36.372
 20
1.622
 30
0.0
 11
0.372
 21
1.622
 31
0.0
  0
LINE
  8
TITLE
 10
6.372
 20
5.372
 30
0.0
 11
6.372
 21
0.372
 31
0.0
  0
TEXT
  8
TEXT
 10
1.40325
 20
3.747
 30
0.0
 40
0.75
  1
PART No.
 41
0.75
  7
TXT
 72
     4
 11
3.372
 21
4.122
 31
0.0
  0
TEXT
  8
TEXT
 10
1.872
 20
1.872
 30
0.0
 40
0.75
  1
C-1555
 41
0.75
  7
TXT
 72
     4
 11
3.372
 21
2.247
 31
0.0
  0
TEXT
  8
TEXT
 10
1.872
 20
0.622
 30
0.0
 40
0.75
  1
C-1557
 41
0.75
  7
TXT
 72
     4
 11
3.372
 21
0.997
 31
0.0
  0
LINE
  8
TITLE
 10
12.372
 20
5.372
 30
0.0
 11
12.372
 21
0.372
 31
0.0
  0
TEXT
  8
TEXT
 62
     7
 10
9.1845
 20
3.747
 30
0.0
 40
0.75
  1
A
 41
0.75
  7
TXT
 72
     4
 11
9.372
 21
4.122
 31
0.0
  0
TEXT
  8
TEXT
 10
8.15325
 20
0.622
 30
0.0
 40
0.75
  1
14.781
 41
0.75
  7
TXT
 72
     4
 11
9.372
 21
0.997
 31
0.0
  0
TEXT
  8
TEXT
 10
8.200125
 20
1.872
 30
0.0
 40
0.75
  1
11.906
 41
0.75
  7
TXT
 72
     4
 11
9.372
 21
2.247
 31
0.0
  0
LINE
  8
TITLE
 10
18.372
 20
5.372
 30
0.0
 11
18.372
 21
0.372
 31
0.0
  0
TEXT
  8
TEXT
 62
     7
 10
15.1845
 20
3.747
 30
0.0
 40
0.75
  1
B
 41
0.75
  7
TXT
 72
     4
 11
15.372
 21
4.122
 31
0.0
  0
TEXT
  8
TEXT
 10
14.106375
 20
0.622
 30
0.0
 40
0.75
  1
16.250
 41
0.75
  7
TXT
 72
     4
 11
15.372
 21
0.997
 31
0.0
  0
TEXT
  8
TEXT
 10
14.15325
 20
1.872
 30
0.0
 40
0.75
  1
14.187
 41
0.75
  7
TXT
 72
     4
 11
15.372
 21
2.247
 31
0.0
  0
LINE
  8
TITLE
 10
24.372
 20
5.372
 30
0.0
 11
24.372
 21
0.372
 31
0.0
  0
TEXT
  8
TEXT
 62
     7
 10
21.1845
 20
3.747
 30
0.0
 40
0.75
  1
C
 41
0.75
  7
TXT
 72
     4
 11
21.372
 21
4.122
 31
0.0
  0
TEXT
  8
TEXT
 10
20.387625
 20
0.622
 30
0.0
 40
0.75
  1
5.000
 41
0.75
  7
TXT
 72
     4
 11
21.372
 21
0.997
 31
0.0
  0
TEXT
  8
TEXT
 10
20.387625
 20
1.872
 30
0.0
 40
0.75
  1
5.000
 41
0.75
  7
TXT
 72
     4
 11
21.372
 21
2.247
 31
0.0
  0
LINE
  8
TITLE
 10
30.372
 20
4.122
 30
0.0
 11
30.372
 21
0.372
 31
0.0
  0
TEXT
  8
TEXT
 62
     7
 10
27.1845
 20
3.122
 30
0.0
 40
0.75
  1
D
 41
0.75
  7
TXT
 72
     4
 11
27.372
 21
3.497
 31
0.0
  0
TEXT
  8
TEXT
 10
26.34075
 20
0.622
 30
0.0
 40
0.75
  1
3.500
 41
0.75
  7
TXT
 72
     4
 11
27.372
 21
0.997
 31
0.0
  0
TEXT
  8
TEXT
 10
26.34075
 20
1.872
 30
0.0
 40
0.75
  1
3.500
 41
0.75
  7
TXT
 72
     4
 11
27.372
 21
2.247
 31
0.0
  0
LINE
  8
TITLE
 10
36.372
 20
5.372
 30
0.0
 11
36.372
 21
0.372
 31
0.0
  0
TEXT
  8
TEXT
 62
     7
 10
33.1845
 20
3.122
 30
0.0
 40
0.75
  1
E
 41
0.75
  7
TXT
 72
     4
 11
33.372
 21
3.497
 31
0.0
  0
TEXT
  8
TEXT
 10
32.200125
 20
0.622
 30
0.0
 40
0.75
  1
10.500
 41
0.75
  7
TXT
 72
     4
 11
33.372
 21
0.997
 31
0.0
  0
TEXT
  8
TEXT
 10
32.387625
 20
1.872
 30
0.0
 40
0.75
  1
7.000
 41
0.75
  7
TXT
 72
     4
 11
33.372
 21
2.247
 31
0.0
  0
TEXT
  8
TEXT
 62
     7
 10
27.372
 20
4.372
 30
0.0
 40
0.75
  1
PANEL SPACE
 41
0.75
  7
TXT
 72
     4
 11
30.372
 21
4.747
 31
0.0
  0
TEXT
  8
TEXT
 10
15.5095
 20
58.625
 30
0.0
 40
0.938
  1
SLOPING PANEL PRESTIGE CABINET
 41
0.75
  7
TXT
 72
     4
 11
25.593
 21
59.094
 31
0.0
  0
TEXT
  8
TEXT
 10
66.279
 20
58.625
 30
0.0
 40
0.938
  1
C-1555  &  C-1557
 41
0.75
  7
TXT
 72
     4
 11
71.907
 21
59.094
 31
0.0
  0
LINE
  8
HIDDEN
 62
     7
 10
51.3943
 20
45.867117
 30
0.0
 11
51.3943
 21
46.47388
 31
0.0
  0
LINE
  8
HIDDEN
 62
     7
 10
50.2693
 20
45.867117
 30
0.0
 11
51.3943
 21
45.867117
 31
0.0
  0
LINE
  8
HIDDEN
 62
     7
 10
50.2693
 20
45.4162
 30
0.0
 11
50.2693
 21
45.867117
 31
0.0
  0
LINE
  8
HIDDEN
 62
     7
 10
72.1603
 20
45.4162
 30
0.0
 11
50.1603
 21
45.4162
 31
0.0
  0
LINE
  8
HIDDEN
 62
     7
 10
72.0513
 20
45.4162
 30
0.0
 11
72.0513
 21
45.867117
 31
0.0
  0
LINE
  8
HIDDEN
 62
     7
 10
70.9263
 20
45.867117
 30
0.0
 11
70.9263
 21
46.47388
 31
0.0
  0
LINE
  8
HIDDEN
 62
     7
 10
70.9263
 20
46.47388
 30
0.0
 11
51.3943
 21
46.47388
 31
0.0
  0
LINE
  8
HIDDEN
 62
     7
 10
72.0513
 20
45.867117
 30
0.0
 11
70.9263
 21
45.867117
 31
0.0
  0
LINE
  8
HIDDEN
 62
     7
 10
70.1603
 20
46.5422
 30
0.0
 11
70.1603
 21
46.6042
 31
0.0
  0
LINE
  8
HIDDEN
 62
     7
 10
52.1603
 20
46.5422
 30
0.0
 11
52.1603
 21
46.6042
 31
0.0
  0
LINE
  8
HIDDEN
 62
     7
 10
70.1603
 20
46.5422
 30
0.0
 11
52.1603
 21
46.5422
 31
0.0
  0
LINE
  8
OBJECT
 62
     7
 10
50.1603
 20
45.3542
 30
0.0
 11
50.1603
 21
46.6042
 31
0.0
  0
LINE
  8
OBJECT
 62
     7
 10
72.1603
 20
46.6042
 30
0.0
 11
50.1603
 21
46.6042
 31
0.0
  0
LINE
  8
OBJECT
 62
     7
 10
72.1603
 20
45.3542
 30
0.0
 11
50.1603
 21
45.3542
 31
0.0
  0
LINE
  8
OBJECT
 62
     7
 10
72.1603
 20
45.3542
 30
0.0
 11
72.1603
 21
46.6042
 31
0.0
  0
TEXT
  8
TEXT
 62
     7
 10
2.514846
 20
54.564069
 30
0.0
 40
0.75
  1
%%uMATERIAL:
 41
0.75
  7
TXT
  0
TEXT
  8
TEXT
 62
     7
 10
3.303818
 20
53.314069
 30
0.0
 40
0.75
  1
BOTTOM, SIDES, BACK, MOUNTING
 41
0.75
  7
TXT
  0
TEXT
  8
TEXT
 62
     7
 10
3.303818
 20
50.814069
 30
0.0
 40
0.75
  1
TOP
 41
0.75
  7
TXT
  0
TEXT
  8
TEXT
 62
     7
 10
3.303818
 20
49.564069
 30
0.0
 40
0.75
  1
HANDLES
 41
0.75
  7
TXT
  0
TEXT
  8
TEXT
 62
     7
 10
3.303818
 20
48.314069
 30
0.0
 40
0.75
  1
FEET
 41
0.75
  7
TXT
  0
TEXT
  8
TEXT
 62
     7
 10
2.514846
 20
45.814069
 30
0.0
 40
0.75
  1
%%uFINISH:
 41
0.75
  7
TXT
  0
TEXT
  8
TEXT
 62
     7
 10
3.303818
 20
44.564069
 30
0.0
 40
0.75
  1
BODY ASSEMBLY, TOP & CROSS BAR
 41
0.75
  7
TXT
  0
TEXT
  8
TEXT
 62
     7
 10
3.303818
 20
43.314069
 30
0.0
 40
0.75
  1
FEET & HANDLES
 41
0.75
  7
TXT
  0
TEXT
  8
TEXT
 62
     7
 10
3.887388
 20
52.064069
 30
0.0
 40
0.75
  1
RAILS & CROSS BARS
 41
0.75
  7
TXT
  0
TEXT
  8
TEXT
 62
     7
 10
23.663964
 20
48.314069
 30
0.0
 40
0.75
  1
PLASTIC
 41
0.75
  7
TXT
  0
TEXT
  8
TEXT
 62
     7
 10
23.663964
 20
49.564069
 30
0.0
 40
0.75
  1
PLASTIC
 41
0.75
  7
TXT
  0
TEXT
  8
TEXT
 62
     7
 10
23.663964
 20
50.814069
 30
0.0
 40
0.75
  1
18 GA. STEEL
 41
0.75
  7
TXT
  0
TEXT
  8
TEXT
 62
     7
 10
23.663964
 20
44.564069
 30
0.0
 40
0.75
  1
METALLIC GRAY
 41
0.75
  7
TXT
  0
TEXT
  8
TEXT
 62
     7
 10
23.663964
 20
43.314069
 30
0.0
 40
0.75
  1
BLACK
 41
0.75
  7
TXT
  0
LINE
  8
TEXT
 62
     7
 10
23.372179
 20
50.814069
 30
0.0
 11
5.154407
 21
50.814069
 31
0.0
  0
LINE
  8
TEXT
 62
     7
 10
23.372179
 20
49.564069
 30
0.0
 11
7.488691
 21
49.564069
 31
0.0
  0
LINE
  8
TEXT
 62
     7
 10
23.372179
 20
48.314069
 30
0.0
 11
5.640716
 21
48.314069
 31
0.0
  0
LINE
  8
TEXT
 62
     7
 10
23.372179
 20
44.564069
 30
0.0
 11
20.003049
 21
44.564069
 31
0.0
  0
LINE
  8
TEXT
 62
     7
 10
23.372179
 20
43.314069
 30
0.0
 11
11.407849
 21
43.314069
 31
0.0
  0
TEXT
  8
TEXT
 62
     7
 10
23.663964
 20
52.064069
 30
0.0
 40
0.75
  1
16 GA. STEEL
 41
0.75
  7
TXT
  0
LINE
  8
TEXT
 62
     7
 10
23.372179
 20
52.064069
 30
0.0
 11
14.102497
 21
52.064069
 31
0.0
  0
DIMENSION
  8
DIM
 62
     7
  2
*D19
 10
76.233218
 20
24.189689
 30
0.0
 11
79.870718
 21
24.189689
 31
0.0
 12
0.0
 22
1.608897
 32
0.0
 13
75.077218
 23
23.467198
 33
0.0
 14
76.233218
 24
23.467198
 34
0.0
  3
23NSTD
  0
LINE
  8
OBJECT
 62
     7
 10
40.124715
 20
29.328185
 30
0.0
 11
34.848715
 21
29.328185
 31
0.0
  0
LINE
  8
OBJECT
 62
     7
 10
40.064715
 20
29.206185
 30
0.0
 11
34.908715
 21
29.206185
 31
0.0
  0
LINE
  8
OBJECT
 62
     7
 10
40.064715
 20
28.708089
 30
0.0
 11
34.908715
 21
28.708089
 31
0.0
  0
LINE
  8
OBJECT
 62
     7
 10
34.848715
 20
27.928185
 30
0.0
 11
40.124715
 21
27.928185
 31
0.0
  0
LINE
  8
OBJECT
 62
     7
 10
34.908715
 20
28.050185
 30
0.0
 11
40.064715
 21
28.050185
 31
0.0
  0
LINE
  8
OBJECT
 62
     7
 10
34.908715
 20
29.206185
 30
0.0
 11
34.908715
 21
28.050185
 31
0.0
  0
LINE
  8
OBJECT
 62
     7
 10
34.786715
 20
29.266185
 30
0.0
 11
34.786715
 21
27.990185
 31
0.0
  0
ARC
  8
OBJECT
 62
     7
 10
34.848715
 20
27.990185
 30
0.0
 40
0.062
 50
180.0
 51
270.0
  0
ARC
  8
OBJECT
 62
     7
 10
34.848715
 20
29.266185
 30
0.0
 40
0.062
 50
90.0
 51
180.0
  0
LINE
  8
CENTER
 62
     7
 10
37.486715
 20
28.538185
 30
0.0
 11
37.486715
 21
28.718185
 31
0.0
  0
LINE
  8
CENTER
 62
     7
 10
37.576715
 20
28.628185
 30
0.0
 11
37.396715
 21
28.628185
 31
0.0
  0
LINE
  8
OBJECT
 62
     7
 10
40.064715
 20
28.050185
 30
0.0
 11
40.064715
 21
29.206185
 31
0.0
  0
LINE
  8
OBJECT
 62
     7
 10
40.186715
 20
27.990185
 30
0.0
 11
40.186715
 21
29.266185
 31
0.0
  0
ARC
  8
OBJECT
 62
     7
 10
40.124715
 20
27.990185
 30
0.0
 40
0.062
 50
270.0
 51
0.0
  0
ARC
  8
OBJECT
 62
     7
 10
40.124715
 20
29.266185
 30
0.0
 40
0.062
 50
0.0
 51
90.0
  0
LINE
  8
OBJECT
 62
     7
 10
23.595926
 20
27.462474
 30
0.0
 11
23.595926
 21
28.800474
 31
0.0
  0
LINE
  8
HIDDEN
 62
     7
 10
22.867926
 20
28.810303
 30
0.0
 11
22.867926
 21
28.182479
 31
0.0
  0
LINE
  8
HIDDEN
 62
     7
 10
22.937926
 20
28.810303
 30
0.0
 11
22.937926
 21
28.211474
 31
0.0
  0
LINE
  8
OBJECT
 62
     7
 10
23.517926
 20
28.831474
 30
0.0
 11
23.517926
 21
27.431474
 31
0.0
  0
LINE
  8
HIDDEN
 62
     7
 10
22.920067
 20
27.680663
 30
0.0
 11
22.920067
 21
28.130338
 31
0.0
  0
LINE
  8
HIDDEN
 62
     7
 10
23.423328
 20
27.560229
 30
0.0
 11
23.185154
 21
27.652767
 31
0.0
  0
LINE
  8
OBJECT
 62
     7
 10
23.564926
 20
27.431474
 30
0.0
 11
23.517926
 21
27.431474
 31
0.0
  0
LINE
  8
HIDDEN
 62
     7
 10
23.447926
 20
27.493853
 30
0.0
 11
23.44118
 21
27.49013
 31
0.0
  0
LINE
  8
HIDDEN
 62
     7
 10
23.447926
 20
27.573803
 30
0.0
 11
23.423328
 21
27.560229
 31
0.0
  0
ARC
  8
OBJECT
 62
     7
 10
23.426203
 20
27.517272
 30
0.0
 40
0.031
 50
248.767442
 51
298.889683
  0
LINE
  8
HIDDEN
 62
     7
 10
23.447926
 20
27.602479
 30
0.0
 11
23.447926
 21
27.493853
 31
0.0
  0
LINE
  8
HIDDEN
 62
     7
 10
23.447926
 20
27.493853
 30
0.0
 11
23.517926
 21
27.493853
 31
0.0
  0
LINE
  8
HIDDEN
 62
     7
 10
23.167521
 20
27.58452
 30
0.0
 11
23.228781
 21
27.821624
 31
0.0
  0
LINE
  8
HIDDEN
 62
     7
 10
23.517926
 20
27.532479
 30
0.0
 11
22.867926
 21
28.182479
 31
0.0
  0
LINE
  8
HIDDEN
 62
     7
 10
23.414976
 20
27.488377
 30
0.0
 11
22.920067
 21
27.680663
 31
0.0
  0
LINE
  8
HIDDEN
 62
     7
 10
23.517926
 20
27.631474
 30
0.0
 11
22.937926
 21
28.211474
 31
0.0
  0
LINE
  8
HIDDEN
 62
     7
 10
23.185154
 20
27.652767
 30
0.0
 11
22.920067
 21
27.754808
 31
0.0
  0
ARC
  8
OBJECT
 62
     7
 10
23.564926
 20
27.462474
 30
0.0
 40
0.031
 50
270.0
 51
0.0
  0
LINE
  8
HIDDEN
 62
     7
 10
23.424926
 20
27.581685
 30
0.0
 11
23.455926
 21
27.581685
 31
0.0
  0
LINE
  8
HIDDEN
 62
     7
 10
23.393916
 20
28.953474
 30
0.0
 11
23.294921
 21
28.953474
 31
0.0
  0
LINE
  8
HIDDEN
 62
     7
 10
23.447926
 20
28.899463
 30
0.0
 11
23.447926
 21
28.800469
 31
0.0
  0
LINE
  8
HIDDEN
 62
     7
 10
23.517926
 20
28.708185
 30
0.0
 11
23.441215
 21
28.708185
 31
0.0
  0
LINE
  8
OBJECT
 62
     7
 10
23.517926
 20
28.831474
 30
0.0
 11
23.564926
 21
28.831474
 31
0.0
  0
LINE
  8
HIDDEN
 62
     7
 10
23.517926
 20
28.778185
 30
0.0
 11
23.47021
 21
28.778185
 31
0.0
  0
ARC
  8
HIDDEN
 62
     7
 10
23.104096
 20
28.810303
 30
0.0
 40
0.23617
 50
45.0
 51
180.0
  0
ARC
  8
HIDDEN
 62
     7
 10
23.104096
 20
28.810303
 30
0.0
 40
0.16617
 50
45.0
 51
180.0
  0
LINE
  8
HIDDEN
 62
     7
 10
23.441215
 20
28.708185
 30
0.0
 11
23.221596
 21
28.927803
 31
0.0
  0
LINE
  8
HIDDEN
 62
     7
 10
23.447926
 20
28.899463
 30
0.0
 11
23.393916
 21
28.953474
 31
0.0
  0
LINE
  8
HIDDEN
 62
     7
 10
23.47021
 20
28.778185
 30
0.0
 11
23.271094
 21
28.977301
 31
0.0
  0
ARC
  8
OBJECT
 62
     7
 10
23.564926
 20
28.800474
 30
0.0
 40
0.031
 50
0.0
 51
90.0
  0
LINE
  8
HIDDEN
 62
     7
 10
2.167926
 20
28.810303
 30
0.0
 11
2.167926
 21
28.182479
 31
0.0
  0
LINE
  8
HIDDEN
 62
     7
 10
2.097926
 20
28.810303
 30
0.0
 11
2.097926
 21
28.211474
 31
0.0
  0
LINE
  8
OBJECT
 10
1.517926
 20
28.831474
 30
0.0
 11
1.517926
 21
27.431474
 31
0.0
  0
LINE
  8
OBJECT
 10
1.439926
 20
27.462474
 30
0.0
 11
1.439926
 21
28.800474
 31
0.0
  0
LINE
  8
HIDDEN
 62
     7
 10
1.850699
 20
27.652767
 30
0.0
 11
2.115786
 21
27.754808
 31
0.0
  0
LINE
  8
HIDDEN
 62
     7
 10
1.620877
 20
27.488377
 30
0.0
 11
2.115786
 21
27.680663
 31
0.0
  0
LINE
  8
HIDDEN
 10
1.517926
 20
27.532479
 30
0.0
 11
2.167926
 21
28.182479
 31
0.0
  0
LINE
  8
HIDDEN
 10
1.517926
 20
27.631474
 30
0.0
 11
2.097926
 21
28.211474
 31
0.0
  0
LINE
  8
HIDDEN
 62
     7
 10
1.868331
 20
27.58452
 30
0.0
 11
1.807071
 21
27.821624
 31
0.0
  0
LINE
  8
HIDDEN
 62
     7
 10
1.587926
 20
27.493853
 30
0.0
 11
1.594673
 21
27.49013
 31
0.0
  0
ARC
  8
OBJECT
 62
     7
 10
1.60965
 20
27.517272
 30
0.0
 40
0.031
 50
241.110317
 51
291.232558
  0
LINE
  8
HIDDEN
 62
     7
 10
1.587926
 20
27.573803
 30
0.0
 11
1.612525
 21
27.560229
 31
0.0
  0
LINE
  8
HIDDEN
 62
     7
 10
1.587926
 20
27.602479
 30
0.0
 11
1.587926
 21
27.493853
 31
0.0
  0
LINE
  8
HIDDEN
 62
     7
 10
1.612525
 20
27.560229
 30
0.0
 11
1.850699
 21
27.652767
 31
0.0
  0
LINE
  8
OBJECT
 62
     7
 10
3.862818
 20
27.431474
 30
0.0
 11
3.909818
 21
27.431474
 31
0.0
  0
ARC
  8
OBJECT
 62
     7
 10
3.862818
 20
27.462474
 30
0.0
 40
0.031
 50
180.0
 51
270.0
  0
LINE
  8
HIDDEN
 10
1.587926
 20
27.493853
 30
0.0
 11
1.517926
 21
27.493853
 31
0.0
  0
LINE
  8
HIDDEN
 62
     7
 10
1.610926
 20
27.581685
 30
0.0
 11
1.579926
 21
27.581685
 31
0.0
  0
LINE
  8
HIDDEN
 62
     7
 10
2.115786
 20
27.680663
 30
0.0
 11
2.115786
 21
28.130338
 31
0.0
  0
ARC
  8
HIDDEN
 62
     7
 10
1.931756
 20
28.810303
 30
0.0
 40
0.23617
 50
0.0
 51
135.0
  0
ARC
  8
HIDDEN
 62
     7
 10
1.931756
 20
28.810303
 30
0.0
 40
0.16617
 50
0.0
 51
135.0
  0
LINE
  8
HIDDEN
 62
     7
 10
1.641937
 20
28.953474
 30
0.0
 11
1.740931
 21
28.953474
 31
0.0
  0
LINE
  8
HIDDEN
 62
     7
 10
1.587926
 20
28.899463
 30
0.0
 11
1.641937
 21
28.953474
 31
0.0
  0
LINE
  8
HIDDEN
 62
     7
 10
1.565643
 20
28.778185
 30
0.0
 11
1.764759
 21
28.977301
 31
0.0
  0
LINE
  8
HIDDEN
 62
     7
 10
1.587926
 20
28.899463
 30
0.0
 11
1.587926
 21
28.800469
 31
0.0
  0
LINE
  8
HIDDEN
 62
     7
 10
1.594638
 20
28.708185
 30
0.0
 11
1.814256
 21
28.927803
 31
0.0
  0
LINE
  8
OBJECT
 10
1.517926
 20
28.831474
 30
0.0
 11
1.470926
 21
28.831474
 31
0.0
  0
ARC
  8
OBJECT
 10
1.470926
 20
28.800474
 30
0.0
 40
0.031
 50
90.0
 51
180.0
  0
LINE
  8
HIDDEN
 10
1.517926
 20
28.708185
 30
0.0
 11
1.594638
 21
28.708185
 31
0.0
  0
LINE
  8
HIDDEN
 10
1.517926
 20
28.778185
 30
0.0
 11
1.565643
 21
28.778185
 31
0.0
  0
LINE
  8
OBJECT
 62
     7
 10
80.951218
 20
28.050185
 30
0.0
 11
86.107218
 21
28.050185
 31
0.0
  0
LINE
  8
OBJECT
 62
     7
 10
80.891218
 20
27.928185
 30
0.0
 11
86.167218
 21
27.928185
 31
0.0
  0
LINE
  8
OBJECT
 62
     7
 10
86.107218
 20
28.708089
 30
0.0
 11
80.951218
 21
28.708089
 31
0.0
  0
LINE
  8
OBJECT
 62
     7
 10
86.107218
 20
29.206185
 30
0.0
 11
80.951218
 21
29.206185
 31
0.0
  0
LINE
  8
OBJECT
 62
     7
 10
86.167218
 20
29.328185
 30
0.0
 11
80.891218
 21
29.328185
 31
0.0
  0
ARC
  8
OBJECT
 62
     7
 10
80.891218
 20
27.990185
 30
0.0
 40
0.062
 50
180.0
 51
270.0
  0
LINE
  8
OBJECT
 62
     7
 10
80.829218
 20
29.266185
 30
0.0
 11
80.829218
 21
27.990185
 31
0.0
  0
LINE
  8
OBJECT
 62
     7
 10
80.951218
 20
29.206185
 30
0.0
 11
80.951218
 21
28.050185
 31
0.0
  0
ARC
  8
OBJECT
 62
     7
 10
80.891218
 20
29.266185
 30
0.0
 40
0.062
 50
90.0
 51
180.0
  0
ARC
  8
OBJECT
 62
     7
 10
86.167218
 20
27.990185
 30
0.0
 40
0.062
 50
270.0
 51
0.0
  0
LINE
  8
OBJECT
 62
     7
 10
86.229218
 20
27.990185
 30
0.0
 11
86.229218
 21
29.266185
 31
0.0
  0
LINE
  8
OBJECT
 62
     7
 10
86.107218
 20
28.050185
 30
0.0
 11
86.107218
 21
29.206185
 31
0.0
  0
ARC
  8
OBJECT
 62
     7
 10
86.167218
 20
29.266185
 30
0.0
 40
0.062
 50
0.0
 51
90.0
  0
LINE
  8
OBJECT
 62
     7
 10
63.7383
 20
49.5027
 30
0.0
 11
58.5823
 21
49.5027
 31
0.0
  0
LINE
  8
OBJECT
 62
     7
 10
63.7983
 20
49.6247
 30
0.0
 11
58.5223
 21
49.6247
 31
0.0
  0
LINE
  8
OBJECT
 62
     7
 10
58.5823
 20
48.844796
 30
0.0
 11
63.7383
 21
48.844796
 31
0.0
  0
LINE
  8
OBJECT
 62
     7
 10
58.5823
 20
48.3467
 30
0.0
 11
63.7383
 21
48.3467
 31
0.0
  0
LINE
  8
OBJECT
 62
     7
 10
58.5223
 20
48.2247
 30
0.0
 11
63.7983
 21
48.2247
 31
0.0
  0
ARC
  8
OBJECT
 62
     7
 10
63.7983
 20
49.5627
 30
0.0
 40
0.062
 50
360.0
 51
90.0
  0
LINE
  8
OBJECT
 62
     7
 10
63.8603
 20
48.2867
 30
0.0
 11
63.8603
 21
49.5627
 31
0.0
  0
LINE
  8
OBJECT
 62
     7
 10
63.7383
 20
48.3467
 30
0.0
 11
63.7383
 21
49.5027
 31
0.0
  0
ARC
  8
OBJECT
 62
     7
 10
63.7983
 20
48.2867
 30
0.0
 40
0.062
 50
270.0
 51
360.0
  0
ARC
  8
OBJECT
 62
     7
 10
58.5223
 20
49.5627
 30
0.0
 40
0.062
 50
90.0
 51
180.0
  0
LINE
  8
OBJECT
 62
     7
 10
58.4603
 20
49.5627
 30
0.0
 11
58.4603
 21
48.2867
 31
0.0
  0
LINE
  8
OBJECT
 62
     7
 10
58.5823
 20
49.5027
 30
0.0
 11
58.5823
 21
48.3467
 31
0.0
  0
ARC
  8
OBJECT
 62
     7
 10
58.5223
 20
48.2867
 30
0.0
 40
0.062
 50
180.0
 51
270.0
  0
LINE
  8
OBJECT
 10
1.470926
 20
27.431474
 30
0.0
 11
1.517926
 21
27.431474
 31
0.0
  0
ARC
  8
OBJECT
 10
1.470926
 20
27.462474
 30
0.0
 40
0.031
 50
180.0
 51
270.0
  0
LINE
  8
OBJECT
 62
     7
 10
50.1603
 20
28.831474
 30
0.0
 11
50.1603
 21
27.431474
 31
0.0
  0
LINE
  8
OBJECT
 62
     7
 10
50.0823
 20
27.462474
 30
0.0
 11
50.0823
 21
28.800474
 31
0.0
  0
LINE
  8
HIDDEN
 62
     7
 10
50.1603
 20
27.532479
 30
0.0
 11
50.8103
 21
28.182479
 31
0.0
  0
LINE
  8
HIDDEN
 62
     7
 10
50.1603
 20
27.631474
 30
0.0
 11
50.7403
 21
28.211474
 31
0.0
  0
LINE
  8
HIDDEN
 62
     7
 10
50.75816
 20
27.680663
 30
0.0
 11
50.75816
 21
28.130338
 31
0.0
  0
ARC
  8
OBJECT
 62
     7
 10
50.1133
 20
27.462474
 30
0.0
 40
0.031
 50
180.0
 51
270.0
  0
LINE
  8
OBJECT
 62
     7
 10
50.1133
 20
27.431474
 30
0.0
 11
50.1603
 21
27.431474
 31
0.0
  0
LINE
  8
HIDDEN
 62
     7
 10
50.510705
 20
27.58452
 30
0.0
 11
50.449445
 21
27.821624
 31
0.0
  0
LINE
  8
HIDDEN
 62
     7
 10
50.2303
 20
27.493853
 30
0.0
 11
50.237047
 21
27.49013
 31
0.0
  0
ARC
  8
OBJECT
 62
     7
 10
50.252024
 20
27.517272
 30
0.0
 40
0.031
 50
241.110317
 51
291.232558
  0
LINE
  8
HIDDEN
 62
     7
 10
50.2303
 20
27.573803
 30
0.0
 11
50.254899
 21
27.560229
 31
0.0
  0
LINE
  8
HIDDEN
 62
     7
 10
50.2303
 20
27.602479
 30
0.0
 11
50.2303
 21
27.493853
 31
0.0
  0
LINE
  8
HIDDEN
 62
     7
 10
50.254899
 20
27.560229
 30
0.0
 11
50.493073
 21
27.652767
 31
0.0
  0
LINE
  8
HIDDEN
 62
     7
 10
50.2303
 20
27.493853
 30
0.0
 11
50.1603
 21
27.493853
 31
0.0
  0
LINE
  8
HIDDEN
 62
     7
 10
50.2533
 20
27.581685
 30
0.0
 11
50.2223
 21
27.581685
 31
0.0
  0
LINE
  8
HIDDEN
 62
     7
 10
50.493073
 20
27.652767
 30
0.0
 11
50.75816
 21
27.754808
 31
0.0
  0
LINE
  8
HIDDEN
 62
     7
 10
50.263251
 20
27.488377
 30
0.0
 11
50.75816
 21
27.680663
 31
0.0
  0
LINE
  8
HIDDEN
 62
     7
 10
50.8103
 20
28.810303
 30
0.0
 11
50.8103
 21
28.182479
 31
0.0
  0
LINE
  8
HIDDEN
 62
     7
 10
50.7403
 20
28.810303
 30
0.0
 11
50.7403
 21
28.211474
 31
0.0
  0
LINE
  8
HIDDEN
 62
     7
 10
50.28431
 20
28.953474
 30
0.0
 11
50.383305
 21
28.953474
 31
0.0
  0
LINE
  8
HIDDEN
 62
     7
 10
50.2303
 20
28.899463
 30
0.0
 11
50.28431
 21
28.953474
 31
0.0
  0
LINE
  8
HIDDEN
 62
     7
 10
50.208017
 20
28.778185
 30
0.0
 11
50.407133
 21
28.977301
 31
0.0
  0
LINE
  8
HIDDEN
 62
     7
 10
50.2303
 20
28.899463
 30
0.0
 11
50.2303
 21
28.800469
 31
0.0
  0
LINE
  8
HIDDEN
 62
     7
 10
50.237012
 20
28.708185
 30
0.0
 11
50.45663
 21
28.927803
 31
0.0
  0
LINE
  8
OBJECT
 62
     7
 10
50.1603
 20
28.831474
 30
0.0
 11
50.1133
 21
28.831474
 31
0.0
  0
ARC
  8
OBJECT
 62
     7
 10
50.1133
 20
28.800474
 30
0.0
 40
0.031
 50
90.0
 51
180.0
  0
LINE
  8
HIDDEN
 62
     7
 10
50.1603
 20
28.708185
 30
0.0
 11
50.237012
 21
28.708185
 31
0.0
  0
LINE
  8
HIDDEN
 62
     7
 10
50.1603
 20
28.778185
 30
0.0
 11
50.208017
 21
28.778185
 31
0.0
  0
ARC
  8
HIDDEN
 62
     7
 10
50.57413
 20
28.810303
 30
0.0
 40
0.23617
 50
0.0
 51
135.0
  0
ARC
  8
HIDDEN
 62
     7
 10
50.57413
 20
28.810303
 30
0.0
 40
0.16617
 50
0.0
 51
135.0
  0
LINE
  8
OBJECT
 62
     7
 10
72.1603
 20
28.831474
 30
0.0
 11
72.2073
 21
28.831474
 31
0.0
  0
LINE
  8
OBJECT
 62
     7
 10
72.2073
 20
27.431474
 30
0.0
 11
72.1603
 21
27.431474
 31
0.0
  0
LINE
  8
OBJECT
 62
     7
 10
72.1603
 20
28.831474
 30
0.0
 11
72.1603
 21
27.431474
 31
0.0
  0
LINE
  8
HIDDEN
 62
     7
 10
71.562441
 20
27.680663
 30
0.0
 11
71.562441
 21
28.130338
 31
0.0
  0
LINE
  8
HIDDEN
 62
     7
 10
72.1603
 20
27.532479
 30
0.0
 11
71.5103
 21
28.182479
 31
0.0
  0
LINE
  8
HIDDEN
 62
     7
 10
72.1603
 20
27.631474
 30
0.0
 11
71.5803
 21
28.211474
 31
0.0
  0
LINE
  8
HIDDEN
 62
     7
 10
72.0903
 20
27.493853
 30
0.0
 11
72.083554
 21
27.49013
 31
0.0
  0
LINE
  8
HIDDEN
 62
     7
 10
72.0903
 20
27.573803
 30
0.0
 11
72.065702
 21
27.560229
 31
0.0
  0
ARC
  8
OBJECT
 62
     7
 10
72.068577
 20
27.517272
 30
0.0
 40
0.031
 50
248.767442
 51
298.889683
  0
LINE
  8
HIDDEN
 62
     7
 10
72.0903
 20
27.602479
 30
0.0
 11
72.0903
 21
27.493853
 31
0.0
  0
LINE
  8
HIDDEN
 62
     7
 10
72.0903
 20
27.493853
 30
0.0
 11
72.1603
 21
27.493853
 31
0.0
  0
LINE
  8
HIDDEN
 62
     7
 10
72.0673
 20
27.581685
 30
0.0
 11
72.0983
 21
27.581685
 31
0.0
  0
LINE
  8
HIDDEN
 62
     7
 10
71.827528
 20
27.652767
 30
0.0
 11
71.562441
 21
27.754808
 31
0.0
  0
LINE
  8
HIDDEN
 62
     7
 10
72.065702
 20
27.560229
 30
0.0
 11
71.827528
 21
27.652767
 31
0.0
  0
LINE
  8
HIDDEN
 62
     7
 10
71.809895
 20
27.58452
 30
0.0
 11
71.871155
 21
27.821624
 31
0.0
  0
LINE
  8
HIDDEN
 62
     7
 10
72.05735
 20
27.488377
 30
0.0
 11
71.562441
 21
27.680663
 31
0.0
  0
LINE
  8
HIDDEN
 62
     7
 10
72.03629
 20
28.953474
 30
0.0
 11
71.937295
 21
28.953474
 31
0.0
  0
LINE
  8
HIDDEN
 62
     7
 10
72.0903
 20
28.899463
 30
0.0
 11
72.0903
 21
28.800469
 31
0.0
  0
LINE
  8
HIDDEN
 62
     7
 10
72.1603
 20
28.708185
 30
0.0
 11
72.083589
 21
28.708185
 31
0.0
  0
LINE
  8
HIDDEN
 62
     7
 10
72.1603
 20
28.778185
 30
0.0
 11
72.112584
 21
28.778185
 31
0.0
  0
LINE
  8
HIDDEN
 62
     7
 10
72.083589
 20
28.708185
 30
0.0
 11
71.86397
 21
28.927803
 31
0.0
  0
LINE
  8
HIDDEN
 62
     7
 10
72.0903
 20
28.899463
 30
0.0
 11
72.03629
 21
28.953474
 31
0.0
  0
LINE
  8
HIDDEN
 62
     7
 10
72.112584
 20
28.778185
 30
0.0
 11
71.913468
 21
28.977301
 31
0.0
  0
LINE
  8
HIDDEN
 62
     7
 10
71.5803
 20
28.810303
 30
0.0
 11
71.5803
 21
28.211474
 31
0.0
  0
ARC
  8
HIDDEN
 62
     7
 10
71.74647
 20
28.810303
 30
0.0
 40
0.16617
 50
45.0
 51
180.0
  0
LINE
  8
HIDDEN
 62
     7
 10
71.5103
 20
28.810303
 30
0.0
 11
71.5103
 21
28.182479
 31
0.0
  0
ARC
  8
HIDDEN
 62
     7
 10
71.74647
 20
28.810303
 30
0.0
 40
0.23617
 50
45.0
 51
180.0
  0
LINE
  8
OBJECT
 62
     7
 10
72.2383
 20
27.462474
 30
0.0
 11
72.2383
 21
28.800474
 31
0.0
  0
ARC
  8
OBJECT
 62
     7
 10
72.2073
 20
27.462474
 30
0.0
 40
0.031
 50
270.0
 51
0.0
  0
ARC
  8
OBJECT
 62
     7
 10
72.2073
 20
28.800474
 30
0.0
 40
0.031
 50
0.0
 51
90.0
  0
DIMENSION
  8
DIM
 62
     7
  2
*D21
 10
34.786715
 20
25.55538
 30
0.0
 11
33.269715
 21
25.55538
 31
0.0
 13
31.752715
 23
25.178179
 33
0.0
 14
34.786715
 24
27.990185
 34
0.0
  3
23NSTDI
  0
DIMENSION
  8
DIM
 62
     7
  2
*D22
 10
40.186715
 20
23.86938
 30
0.0
 11
37.486715
 21
23.86938
 31
0.0
 13
34.786715
 23
27.990185
 33
0.0
 14
40.186715
 24
27.990185
 34
0.0
  3
23NSTDI
  0
INSERT
  8
DIM
 62
     7
  2
VENTSLOT
 10
12.517926
 20
30.377185
 30
0.0
  0
LINE
  8
OBJECT
 62
     7
 10
15.140167
 20
33.706185
 30
0.0
 11
9.896167
 21
33.706185
 31
0.0
  0
LINE
  8
HIDDEN
 62
     7
 10
15.049167
 20
32.978185
 30
0.0
 11
9.987167
 21
32.978185
 31
0.0
  0
ARC
  8
TEXT
 62
     7
 10
9.987167
 20
33.103185
 30
0.0
 40
0.125
 50
180.0
 51
270.0
  0
LINE
  8
HIDDEN
 62
     7
 10
9.862167
 20
33.628185
 30
0.0
 11
9.862167
 21
33.103185
 31
0.0
  0
ARC
  8
OBJECT
 62
     7
 10
9.896167
 20
33.628185
 30
0.0
 40
0.078
 50
90.0
 51
180.0
  0
ARC
  8
TEXT
 62
     7
 10
15.049167
 20
33.103185
 30
0.0
 40
0.125
 50
270.0
 51
0.0
  0
LINE
  8
HIDDEN
 62
     7
 10
15.174167
 20
33.628185
 30
0.0
 11
15.174167
 21
33.103185
 31
0.0
  0
ARC
  8
OBJECT
 62
     7
 10
15.140167
 20
33.628185
 30
0.0
 40
0.078
 50
0.0
 51
90.0
  0
LINE
  8
HIDDEN
 62
     7
 10
31.830715
 20
33.581185
 30
0.0
 11
39.931715
 21
33.581185
 31
0.0
  0
LINE
  8
DIM
 62
     7
 10
31.752715
 20
33.628185
 30
0.0
 11
39.978715
 21
33.628185
 31
0.0
  0
LINE
  8
HIDDEN
 62
     7
 10
31.830715
 20
29.589185
 30
0.0
 11
31.830715
 21
33.581185
 31
0.0
  0
LINE
  8
HIDDEN
 62
     7
 10
31.783715
 20
29.589185
 30
0.0
 11
31.783715
 21
33.628185
 31
0.0
  0
LINE
  8
OBJECT
 62
     7
 10
31.752715
 20
29.066185
 30
0.0
 11
31.752715
 21
29.597185
 31
0.0
  0
LINE
  8
OBJECT
 62
     7
 10
31.783715
 20
29.066185
 30
0.0
 11
31.783715
 21
30.128185
 31
0.0
  0
LINE
  8
OBJECT
 62
     7
 10
31.752715
 20
29.066185
 30
0.0
 11
31.783715
 21
29.066185
 31
0.0
  0
LINE
  8
OBJECT
 62
     7
 10
31.752715
 20
29.65843
 30
0.0
 11
31.752715
 21
30.128185
 31
0.0
  0
CIRCLE
  8
OBJECT
 62
     7
 10
31.707715
 20
29.597185
 30
0.0
 40
0.045
  0
ARC
  8
OBJECT
 62
     7
 10
31.707715
 20
29.597185
 30
0.0
 40
0.076
 50
0.0
 51
306.306547
  0
LINE
  8
HIDDEN
 62
     7
 10
31.830715
 20
29.589185
 30
0.0
 11
31.783715
 21
29.589185
 31
0.0
  0
LINE
  8
OBJECT
 62
     7
 10
31.783715
 20
30.128185
 30
0.0
 11
31.752715
 21
30.128185
 31
0.0
  0
LINE
  8
HIDDEN
 62
     7
 10
38.402421
 20
33.295413
 30
0.0
 11
38.30038
 21
33.030325
 31
0.0
  0
ARC
  8
HIDDEN
 62
     7
 10
37.244885
 20
33.214355
 30
0.0
 40
0.16617
 50
135.0
 51
270.0
  0
LINE
  8
HIDDEN
 62
     7
 10
38.423715
 20
33.628185
 30
0.0
 11
37.843715
 21
33.048185
 31
0.0
  0
LINE
  8
OBJECT
 62
     7
 10
38.566811
 20
33.525235
 30
0.0
 11
38.374525
 21
33.030325
 31
0.0
  0
LINE
  8
OBJECT
 62
     7
 10
38.52271
 20
33.628185
 30
0.0
 11
37.87271
 21
32.978185
 31
0.0
  0
ARC
  8
OBJECT
 62
     7
 10
37.244885
 20
33.214355
 30
0.0
 40
0.23617
 50
135.0
 51
270.0
  0
LINE
  8
OBJECT
 62
     7
 10
38.374525
 20
33.030325
 30
0.0
 11
37.92485
 21
33.030325
 31
0.0
  0
LINE
  8
HIDDEN
 62
     7
 10
37.244885
 20
33.048185
 30
0.0
 11
37.843715
 21
33.048185
 31
0.0
  0
LINE
  8
OBJECT
 62
     7
 10
37.244885
 20
32.978185
 30
0.0
 11
37.87271
 21
32.978185
 31
0.0
  0
LINE
  8
OBJECT
 62
     7
 10
38.592715
 20
33.706185
 30
0.0
 11
37.254715
 21
33.706185
 31
0.0
  0
LINE
  8
OBJECT
 62
     7
 10
37.223715
 20
33.628185
 30
0.0
 11
38.623715
 21
33.628185
 31
0.0
  0
LINE
  8
HIDDEN
 62
     7
 10
37.347003
 20
33.551474
 30
0.0
 11
37.127385
 21
33.331855
 31
0.0
  0
LINE
  8
OBJECT
 62
     7
 10
37.277003
 20
33.580469
 30
0.0
 11
37.077887
 21
33.381353
 31
0.0
  0
LINE
  8
OBJECT
 62
     7
 10
37.155725
 20
33.558185
 30
0.0
 11
37.25472
 21
33.558185
 31
0.0
  0
LINE
  8
OBJECT
 62
     7
 10
37.155725
 20
33.558185
 30
0.0
 11
37.101715
 21
33.504175
 31
0.0
  0
LINE
  8
OBJECT
 62
     7
 10
37.101715
 20
33.504175
 30
0.0
 11
37.101715
 21
33.40518
 31
0.0
  0
LINE
  8
OBJECT
 62
     7
 10
37.277003
 20
33.628185
 30
0.0
 11
37.277003
 21
33.580469
 31
0.0
  0
ARC
  8
OBJECT
 62
     7
 10
37.254715
 20
33.675185
 30
0.0
 40
0.031
 50
90.0
 51
180.0
  0
LINE
  8
OBJECT
 62
     7
 10
37.223715
 20
33.628185
 30
0.0
 11
37.223715
 21
33.675185
 31
0.0
  0
LINE
  8
HIDDEN
 62
     7
 10
37.347003
 20
33.628185
 30
0.0
 11
37.347003
 21
33.551474
 31
0.0
  0
LINE
  8
OBJECT
 62
     7
 10
38.561335
 20
33.558185
 30
0.0
 11
38.561335
 21
33.628185
 31
0.0
  0
LINE
  8
OBJECT
 62
     7
 10
38.470668
 20
33.27778
 30
0.0
 11
38.233565
 21
33.33904
 31
0.0
  0
LINE
  8
OBJECT
 62
     7
 10
38.494959
 20
33.533587
 30
0.0
 11
38.402421
 21
33.295413
 31
0.0
  0
LINE
  8
OBJECT
 62
     7
 10
38.45271
 20
33.558185
 30
0.0
 11
38.561335
 21
33.558185
 31
0.0
  0
ARC
  8
OBJECT
 62
     7
 10
38.537916
 20
33.536461
 30
0.0
 40
0.031
 50
338.767442
 51
28.889683
  0
LINE
  8
OBJECT
 62
     7
 10
38.481386
 20
33.558185
 30
0.0
 11
38.494959
 21
33.533587
 31
0.0
  0
LINE
  8
OBJECT
 62
     7
 10
38.561335
 20
33.558185
 30
0.0
 11
38.565058
 21
33.551438
 31
0.0
  0
ARC
  8
OBJECT
 62
     7
 10
38.592715
 20
33.675185
 30
0.0
 40
0.031
 50
0.0
 51
90.0
  0
LINE
  8
OBJECT
 62
     7
 10
38.623715
 20
33.675185
 30
0.0
 11
38.623715
 21
33.628185
 31
0.0
  0
LINE
  8
HIDDEN
 62
     7
 10
39.931715
 20
33.581185
 30
0.0
 11
39.931715
 21
33.316185
 31
0.0
  0
LINE
  8
HIDDEN
 62
     7
 10
39.978715
 20
33.628185
 30
0.0
 11
39.978715
 21
33.316185
 31
0.0
  0
LINE
  8
HIDDEN
 62
     7
 10
39.978715
 20
33.316185
 30
0.0
 11
39.931715
 21
33.316185
 31
0.0
  0
LINE
  8
DIM
 62
     7
 10
39.978715
 20
33.628185
 30
0.0
 11
40.002715
 21
33.628185
 31
0.0
  0
LINE
  8
OBJECT
 62
     7
 10
88.258393
 20
36.347754
 30
0.0
 11
87.26816
 21
37.33742
 31
0.0
  0
LINE
  8
OBJECT
 62
     7
 10
87.345225
 20
37.370676
 30
0.0
 11
88.291605
 21
36.424838
 31
0.0
  0
LINE
  8
OBJECT
 62
     7
 10
87.783932
 20
35.902968
 30
0.0
 11
87.339865
 21
36.34678
 31
0.0
  0
LINE
  8
HIDDEN
 62
     7
 10
87.833415
 20
35.95248
 30
0.0
 11
87.409857
 21
36.375795
 31
0.0
  0
LINE
  8
HIDDEN
 62
     7
 10
88.17119
 20
36.434908
 30
0.0
 11
88.116962
 21
36.380649
 31
0.0
  0
LINE
  8
OBJECT
 62
     7
 10
88.258393
 20
36.347754
 30
0.0
 11
88.291618
 21
36.380998
 31
0.0
  0
ARC
  8
OBJECT
 62
     7
 10
88.269691
 20
36.402912
 30
0.0
 40
0.031
 50
315.016437
 51
45.016437
  0
LINE
  8
OBJECT
 62
     7
 10
88.220702
 20
36.385424
 30
0.0
 11
88.186971
 21
36.351674
 31
0.0
  0
LINE
  8
OBJECT
 62
     7
 10
88.257022
 20
36.173798
 30
0.0
 11
88.187042
 21
36.103778
 31
0.0
  0
LINE
  8
OBJECT
 62
     7
 10
88.257
 20
36.25018
 30
0.0
 11
88.257022
 21
36.173798
 31
0.0
  0
LINE
  8
OBJECT
 62
     7
 10
88.257
 20
36.25018
 30
0.0
 11
88.18698
 21
36.32016
 31
0.0
  0
LINE
  8
OBJECT
 62
     7
 10
88.186971
 20
36.351674
 30
0.0
 11
88.187052
 21
36.070081
 31
0.0
  0
LINE
  8
HIDDEN
 62
     7
 10
88.116962
 20
36.380649
 30
0.0
 11
88.117052
 21
36.070061
 31
0.0
  0
ARC
  8
OBJECT
 62
     7
 10
87.950881
 20
36.070014
 30
0.0
 40
0.23617
 50
225.016437
 51
0.016437
  0
ARC
  8
HIDDEN
 62
     7
 10
87.950881
 20
36.070014
 30
0.0
 40
0.16617
 50
225.016437
 51
0.016437
  0
LINE
  8
OBJECT
 62
     7
 10
87.128708
 20
36.981386
 30
0.0
 11
87.339719
 21
36.857106
 31
0.0
  0
LINE
  8
OBJECT
 62
     7
 10
87.021784
 20
36.738395
 30
0.0
 11
87.339844
 21
36.420517
 31
0.0
  0
LINE
  8
OBJECT
 62
     7
 10
87.339602
 20
37.266019
 30
0.0
 11
87.339865
 21
36.34678
 31
0.0
  0
LINE
  8
HIDDEN
 62
     7
 10
87.409622
 20
37.196039
 30
0.0
 11
87.409857
 21
36.375795
 31
0.0
  0
LINE
  8
HIDDEN
 62
     7
 10
87.189445
 20
36.945614
 30
0.0
 11
87.074228
 21
36.685981
 31
0.0
  0
LINE
  8
OBJECT
 62
     7
 10
87.301384
 20
37.370663
 30
0.0
 11
87.26816
 21
37.33742
 31
0.0
  0
ARC
  8
OBJECT
 62
     7
 10
87.323311
 20
37.348749
 30
0.0
 40
0.031
 50
45.016437
 51
135.016437
  0
LINE
  8
OBJECT
 62
     7
 10
87.262798
 20
37.243812
 30
0.0
 11
87.255396
 21
37.241672
 31
0.0
  0
LINE
  8
OBJECT
 62
     7
 10
87.319347
 20
37.187295
 30
0.0
 11
87.292358
 21
37.179492
 31
0.0
  0
ARC
  8
OBJECT
 62
     7
 10
87.264006
 20
37.211891
 30
0.0
 40
0.031
 50
106.126754
 51
156.248995
  0
LINE
  8
OBJECT
 62
     7
 10
87.33963
 20
37.167024
 30
0.0
 11
87.262798
 21
37.243812
 31
0.0
  0
LINE
  8
OBJECT
 62
     7
 10
87.292358
 20
37.179492
 30
0.0
 11
87.189445
 21
36.945614
 31
0.0
  0
LINE
  8
OBJECT
 62
     7
 10
87.262798
 20
37.243812
 30
0.0
 11
87.312281
 21
37.293324
 31
0.0
  0
LINE
  8
OBJECT
 62
     7
 10
87.235632
 20
37.224377
 30
0.0
 11
87.021784
 21
36.738395
 31
0.0
  0
LINE
  8
OBJECT
 62
     7
 10
92.104825
 20
32.501272
 30
0.0
 11
89.248821
 21
29.645268
 31
0.0
  0
LINE
  8
OBJECT
 62
     7
 10
89.248821
 20
29.645268
 30
0.0
 11
89.215587
 21
29.678502
 31
0.0
  0
LINE
  8
OBJECT
 62
     7
 10
89.215587
 20
29.678502
 30
0.0
 11
92.038357
 21
32.501272
 31
0.0
  0
LINE
  8
OBJECT
 62
     7
 10
92.038357
 20
32.501272
 30
0.0
 11
86.310085
 21
38.229545
 31
0.0
  0
LINE
  8
OBJECT
 62
     7
 10
86.310085
 20
38.229545
 30
0.0
 11
86.122702
 21
38.042161
 31
0.0
  0
LINE
  8
OBJECT
 62
     7
 10
86.122702
 20
38.042161
 30
0.0
 11
86.089468
 21
38.075395
 31
0.0
  0
LINE
  8
OBJECT
 62
     7
 10
86.089468
 20
38.075395
 30
0.0
 11
86.310085
 21
38.296013
 31
0.0
  0
LINE
  8
OBJECT
 62
     7
 10
86.310085
 20
38.296013
 30
0.0
 11
92.104825
 21
32.501272
 31
0.0
  0
LINE
  8
OBJECT
 62
     7
 10
72.1603
 20
12.0132
 30
0.0
 11
72.1603
 21
6.6132
 31
0.0
  0
LINE
  8
HIDDEN
 62
     7
 10
71.5103
 20
6.7822
 30
0.0
 11
71.5103
 21
11.8442
 31
0.0
  0
LINE
  8
OBJECT
 62
     7
 10
72.2383
 20
6.6912
 30
0.0
 11
72.2383
 21
11.9352
 31
0.0
  0
ARC
  8
OBJECT
 62
     7
 10
72.1603
 20
11.9352
 30
0.0
 40
0.078
 50
0.0
 51
90.0
  0
LINE
  8
HIDDEN
 62
     7
 10
72.1603
 20
11.9692
 30
0.0
 11
71.6353
 21
11.9692
 31
0.0
  0
ARC
  8
TEXT
 62
     7
 10
71.6353
 20
11.8442
 30
0.0
 40
0.125
 50
90.0
 51
180.0
  0
ARC
  8
OBJECT
 62
     7
 10
72.1603
 20
6.6912
 30
0.0
 40
0.078
 50
270.0
 51
0.0
  0
LINE
  8
HIDDEN
 62
     7
 10
72.1603
 20
6.6572
 30
0.0
 11
71.6353
 21
6.6572
 31
0.0
  0
ARC
  8
TEXT
 62
     7
 10
71.6353
 20
6.7822
 30
0.0
 40
0.125
 50
180.0
 51
270.0
  0
LINE
  8
OBJECT
 62
     7
 10
50.1603
 20
6.6132
 30
0.0
 11
50.1603
 21
12.0132
 31
0.0
  0
LINE
  8
OBJECT
 62
     7
 10
50.0823
 20
11.9352
 30
0.0
 11
50.0823
 21
6.6912
 31
0.0
  0
LINE
  8
HIDDEN
 62
     7
 10
50.8103
 20
11.8442
 30
0.0
 11
50.8103
 21
6.7822
 31
0.0
  0
LINE
  8
HIDDEN
 62
     7
 10
50.1603
 20
6.6572
 30
0.0
 11
50.6853
 21
6.6572
 31
0.0
  0
ARC
  8
TEXT
 62
     7
 10
50.6853
 20
6.7822
 30
0.0
 40
0.125
 50
270.0
 51
360.0
  0
ARC
  8
OBJECT
 62
     7
 10
50.1603
 20
6.6912
 30
0.0
 40
0.078
 50
180.0
 51
270.0
  0
LINE
  8
DIM
 62
     7
 10
50.1603
 20
9.3132
 30
0.0
 11
50.539821
 21
9.3132
 31
0.0
  0
LINE
  8
HIDDEN
 62
     7
 10
50.1603
 20
11.9692
 30
0.0
 11
50.6853
 21
11.9692
 31
0.0
  0
ARC
  8
TEXT
 62
     7
 10
50.6853
 20
11.8442
 30
0.0
 40
0.125
 50
360.0
 51
90.0
  0
ARC
  8
OBJECT
 62
     7
 10
50.1603
 20
11.9352
 30
0.0
 40
0.078
 50
90.0
 51
180.0
  0
ARC
  8
T
 62
     7
 10
60.911298
 20
30.440185
 30
0.0
 40
0.063
 50
180.0
 51
0.0
  0
ARC
  8
T
 62
     7
 10
60.911298
 20
31.065185
 30
0.0
 40
0.063
 50
0.0
 51
180.0
  0
ARC
  8
T
 62
     7
 10
60.911298
 20
31.940185
 30
0.0
 40
0.063
 50
180.0
 51
0.0
  0
ARC
  8
T
 62
     7
 10
60.911298
 20
32.565185
 30
0.0
 40
0.063
 50
0.0
 51
21.054778
  0
LINE
  8
T
 62
     7
 10
53.474298
 20
30.440185
 30
0.0
 11
53.474298
 21
31.065185
 31
0.0
  0
LINE
  8
T
 62
     7
 10
53.348298
 20
31.065185
 30
0.0
 11
53.348298
 21
30.440185
 31
0.0
  0
LINE
  8
T
 62
     7
 10
53.224298
 20
30.440185
 30
0.0
 11
53.224298
 21
31.065185
 31
0.0
  0
LINE
  8
T
 62
     7
 10
53.098298
 20
31.065185
 30
0.0
 11
53.098298
 21
30.440185
 31
0.0
  0
LINE
  8
T
 62
     7
 10
52.974298
 20
30.440185
 30
0.0
 11
52.974298
 21
31.065185
 31
0.0
  0
LINE
  8
T
 62
     7
 10
52.848298
 20
31.065185
 30
0.0
 11
52.848298
 21
30.440185
 31
0.0
  0
LINE
  8
T
 62
     7
 10
52.724298
 20
30.440185
 30
0.0
 11
52.724298
 21
31.065185
 31
0.0
  0
LINE
  8
T
 62
     7
 10
52.598298
 20
31.065185
 30
0.0
 11
52.598298
 21
30.440185
 31
0.0
  0
LINE
  8
T
 62
     7
 10
52.474298
 20
30.440185
 30
0.0
 11
52.474298
 21
31.065185
 31
0.0
  0
LINE
  8
T
 62
     7
 10
52.348298
 20
31.065185
 30
0.0
 11
52.348298
 21
30.440185
 31
0.0
  0
LINE
  8
T
 62
     7
 10
52.224298
 20
30.440185
 30
0.0
 11
52.224298
 21
31.065185
 31
0.0
  0
ARC
  8
T
 62
     7
 10
52.661298
 20
30.440185
 30
0.0
 40
0.063
 50
180.0
 51
0.0
  0
ARC
  8
T
 62
     7
 10
52.411298
 20
30.440185
 30
0.0
 40
0.063
 50
180.0
 51
0.0
  0
ARC
  8
T
 62
     7
 10
52.161298
 20
30.440185
 30
0.0
 40
0.063
 50
299.479052
 51
0.0
  0
ARC
  8
T
 62
     7
 10
53.411298
 20
30.440185
 30
0.0
 40
0.063
 50
180.0
 51
0.0
  0
ARC
  8
T
 62
     7
 10
53.161298
 20
30.440185
 30
0.0
 40
0.063
 50
180.0
 51
0.0
  0
ARC
  8
T
 62
     7
 10
52.911298
 20
30.440185
 30
0.0
 40
0.063
 50
180.0
 51
0.0
  0
ARC
  8
T
 62
     7
 10
52.661298
 20
31.065185
 30
0.0
 40
0.063
 50
0.0
 51
180.0
  0
ARC
  8
T
 62
     7
 10
52.411298
 20
31.065185
 30
0.0
 40
0.063
 50
0.0
 51
180.0
  0
ARC
  8
T
 62
     7
 10
52.161298
 20
31.065185
 30
0.0
 40
0.063
 50
0.0
 51
60.520948
  0
ARC
  8
T
 62
     7
 10
53.411298
 20
31.065185
 30
0.0
 40
0.063
 50
0.0
 51
180.0
  0
ARC
  8
T
 62
     7
 10
53.161298
 20
31.065185
 30
0.0
 40
0.063
 50
0.0
 51
180.0
  0
ARC
  8
T
 62
     7
 10
52.911298
 20
31.065185
 30
0.0
 40
0.063
 50
0.0
 51
180.0
  0
LINE
  8
T
 62
     7
 10
54.974298
 20
30.440185
 30
0.0
 11
54.974298
 21
31.065185
 31
0.0
  0
LINE
  8
T
 62
     7
 10
54.848298
 20
31.065185
 30
0.0
 11
54.848298
 21
30.440185
 31
0.0
  0
LINE
  8
T
 62
     7
 10
54.724298
 20
30.440185
 30
0.0
 11
54.724298
 21
31.065185
 31
0.0
  0
LINE
  8
T
 62
     7
 10
54.598298
 20
31.065185
 30
0.0
 11
54.598298
 21
30.440185
 31
0.0
  0
LINE
  8
T
 62
     7
 10
54.474298
 20
30.440185
 30
0.0
 11
54.474298
 21
31.065185
 31
0.0
  0
LINE
  8
T
 62
     7
 10
54.348298
 20
31.065185
 30
0.0
 11
54.348298
 21
30.440185
 31
0.0
  0
LINE
  8
T
 62
     7
 10
54.224298
 20
30.440185
 30
0.0
 11
54.224298
 21
31.065185
 31
0.0
  0
LINE
  8
T
 62
     7
 10
54.098298
 20
31.065185
 30
0.0
 11
54.098298
 21
30.440185
 31
0.0
  0
LINE
  8
T
 62
     7
 10
53.974298
 20
30.440185
 30
0.0
 11
53.974298
 21
31.065185
 31
0.0
  0
LINE
  8
T
 62
     7
 10
53.848298
 20
31.065185
 30
0.0
 11
53.848298
 21
30.440185
 31
0.0
  0
LINE
  8
T
 62
     7
 10
53.724298
 20
30.440185
 30
0.0
 11
53.724298
 21
31.065185
 31
0.0
  0
LINE
  8
T
 62
     7
 10
53.598298
 20
31.065185
 30
0.0
 11
53.598298
 21
30.440185
 31
0.0
  0
ARC
  8
T
 62
     7
 10
54.161298
 20
30.440185
 30
0.0
 40
0.063
 50
180.0
 51
0.0
  0
ARC
  8
T
 62
     7
 10
53.911298
 20
30.440185
 30
0.0
 40
0.063
 50
180.0
 51
0.0
  0
ARC
  8
T
 62
     7
 10
53.661298
 20
30.440185
 30
0.0
 40
0.063
 50
180.0
 51
0.0
  0
ARC
  8
T
 62
     7
 10
54.911298
 20
30.440185
 30
0.0
 40
0.063
 50
180.0
 51
0.0
  0
ARC
  8
T
 62
     7
 10
54.661298
 20
30.440185
 30
0.0
 40
0.063
 50
180.0
 51
0.0
  0
ARC
  8
T
 62
     7
 10
54.411298
 20
30.440185
 30
0.0
 40
0.063
 50
180.0
 51
0.0
  0
ARC
  8
T
 62
     7
 10
54.161298
 20
31.065185
 30
0.0
 40
0.063
 50
0.0
 51
180.0
  0
ARC
  8
T
 62
     7
 10
53.911298
 20
31.065185
 30
0.0
 40
0.063
 50
0.0
 51
180.0
  0
ARC
  8
T
 62
     7
 10
53.661298
 20
31.065185
 30
0.0
 40
0.063
 50
0.0
 51
180.0
  0
ARC
  8
T
 62
     7
 10
54.911298
 20
31.065185
 30
0.0
 40
0.063
 50
0.0
 51
180.0
  0
ARC
  8
T
 62
     7
 10
54.661298
 20
31.065185
 30
0.0
 40
0.063
 50
0.0
 51
180.0
  0
ARC
  8
T
 62
     7
 10
54.411298
 20
31.065185
 30
0.0
 40
0.063
 50
0.0
 51
180.0
  0
ARC
  8
T
 62
     7
 10
53.411298
 20
32.565185
 30
0.0
 40
0.063
 50
0.0
 51
21.054778
  0
ARC
  8
T
 62
     7
 10
53.161298
 20
32.565185
 30
0.0
 40
0.063
 50
0.0
 51
21.054778
  0
ARC
  8
T
 62
     7
 10
52.911298
 20
32.565185
 30
0.0
 40
0.063
 50
0.0
 51
21.054778
  0
ARC
  8
T
 62
     7
 10
52.661298
 20
32.565185
 30
0.0
 40
0.063
 50
0.0
 51
21.054778
  0
ARC
  8
T
 62
     7
 10
52.411298
 20
32.565185
 30
0.0
 40
0.063
 50
0.0
 51
21.054778
  0
ARC
  8
T
 62
     7
 10
52.161298
 20
32.565185
 30
0.0
 40
0.063
 50
0.0
 51
21.054778
  0
ARC
  8
T
 62
     7
 10
52.661298
 20
31.940185
 30
0.0
 40
0.063
 50
180.0
 51
0.0
  0
ARC
  8
T
 62
     7
 10
52.411298
 20
31.940185
 30
0.0
 40
0.063
 50
180.0
 51
0.0
  0
ARC
  8
T
 62
     7
 10
52.161298
 20
31.940185
 30
0.0
 40
0.063
 50
299.479052
 51
0.0
  0
LINE
  8
T
 62
     7
 10
52.724298
 20
31.940185
 30
0.0
 11
52.724298
 21
32.565185
 31
0.0
  0
LINE
  8
T
 62
     7
 10
52.598298
 20
32.565185
 30
0.0
 11
52.598298
 21
31.940185
 31
0.0
  0
LINE
  8
T
 62
     7
 10
52.474298
 20
31.940185
 30
0.0
 11
52.474298
 21
32.565185
 31
0.0
  0
LINE
  8
T
 62
     7
 10
52.348298
 20
32.565185
 30
0.0
 11
52.348298
 21
31.940185
 31
0.0
  0
LINE
  8
T
 62
     7
 10
52.224298
 20
31.940185
 30
0.0
 11
52.224298
 21
32.565185
 31
0.0
  0
ARC
  8
T
 62
     7
 10
53.411298
 20
31.940185
 30
0.0
 40
0.063
 50
180.0
 51
0.0
  0
ARC
  8
T
 62
     7
 10
53.161298
 20
31.940185
 30
0.0
 40
0.063
 50
180.0
 51
0.0
  0
ARC
  8
T
 62
     7
 10
52.911298
 20
31.940185
 30
0.0
 40
0.063
 50
180.0
 51
0.0
  0
LINE
  8
T
 62
     7
 10
53.474298
 20
31.940185
 30
0.0
 11
53.474298
 21
32.565185
 31
0.0
  0
LINE
  8
T
 62
     7
 10
53.348298
 20
32.565185
 30
0.0
 11
53.348298
 21
31.940185
 31
0.0
  0
LINE
  8
T
 62
     7
 10
53.224298
 20
31.940185
 30
0.0
 11
53.224298
 21
32.565185
 31
0.0
  0
LINE
  8
T
 62
     7
 10
53.098298
 20
32.565185
 30
0.0
 11
53.098298
 21
31.940185
 31
0.0
  0
LINE
  8
T
 62
     7
 10
52.974298
 20
31.940185
 30
0.0
 11
52.974298
 21
32.565185
 31
0.0
  0
LINE
  8
T
 62
     7
 10
52.848298
 20
32.565185
 30
0.0
 11
52.848298
 21
31.940185
 31
0.0
  0
ARC
  8
T
 62
     7
 10
54.911298
 20
32.565185
 30
0.0
 40
0.063
 50
0.0
 51
21.054778
  0
ARC
  8
T
 62
     7
 10
54.661298
 20
32.565185
 30
0.0
 40
0.063
 50
0.0
 51
21.054778
  0
ARC
  8
T
 62
     7
 10
54.411298
 20
32.565185
 30
0.0
 40
0.063
 50
0.0
 51
21.054778
  0
ARC
  8
T
 62
     7
 10
54.161298
 20
32.565185
 30
0.0
 40
0.063
 50
0.0
 51
21.054778
  0
ARC
  8
T
 62
     7
 10
53.911298
 20
32.565185
 30
0.0
 40
0.063
 50
0.0
 51
21.054778
  0
ARC
  8
T
 62
     7
 10
53.661298
 20
32.565185
 30
0.0
 40
0.063
 50
0.0
 51
21.054778
  0
ARC
  8
T
 62
     7
 10
54.161298
 20
31.940185
 30
0.0
 40
0.063
 50
180.0
 51
0.0
  0
ARC
  8
T
 62
     7
 10
53.911298
 20
31.940185
 30
0.0
 40
0.063
 50
180.0
 51
0.0
  0
ARC
  8
T
 62
     7
 10
53.661298
 20
31.940185
 30
0.0
 40
0.063
 50
180.0
 51
0.0
  0
LINE
  8
T
 62
     7
 10
54.224298
 20
31.940185
 30
0.0
 11
54.224298
 21
32.565185
 31
0.0
  0
LINE
  8
T
 62
     7
 10
54.098298
 20
32.565185
 30
0.0
 11
54.098298
 21
31.940185
 31
0.0
  0
LINE
  8
T
 62
     7
 10
53.974298
 20
31.940185
 30
0.0
 11
53.974298
 21
32.565185
 31
0.0
  0
LINE
  8
T
 62
     7
 10
53.848298
 20
32.565185
 30
0.0
 11
53.848298
 21
31.940185
 31
0.0
  0
LINE
  8
T
 62
     7
 10
53.724298
 20
31.940185
 30
0.0
 11
53.724298
 21
32.565185
 31
0.0
  0
LINE
  8
T
 62
     7
 10
53.598298
 20
32.565185
 30
0.0
 11
53.598298
 21
31.940185
 31
0.0
  0
ARC
  8
T
 62
     7
 10
54.911298
 20
31.940185
 30
0.0
 40
0.063
 50
180.0
 51
0.0
  0
ARC
  8
T
 62
     7
 10
54.661298
 20
31.940185
 30
0.0
 40
0.063
 50
180.0
 51
0.0
  0
ARC
  8
T
 62
     7
 10
54.411298
 20
31.940185
 30
0.0
 40
0.063
 50
180.0
 51
0.0
  0
LINE
  8
T
 62
     7
 10
54.974298
 20
31.940185
 30
0.0
 11
54.974298
 21
32.565185
 31
0.0
  0
LINE
  8
T
 62
     7
 10
54.848298
 20
32.565185
 30
0.0
 11
54.848298
 21
31.940185
 31
0.0
  0
LINE
  8
T
 62
     7
 10
54.724298
 20
31.940185
 30
0.0
 11
54.724298
 21
32.565185
 31
0.0
  0
LINE
  8
T
 62
     7
 10
54.598298
 20
32.565185
 30
0.0
 11
54.598298
 21
31.940185
 31
0.0
  0
LINE
  8
T
 62
     7
 10
54.474298
 20
31.940185
 30
0.0
 11
54.474298
 21
32.565185
 31
0.0
  0
LINE
  8
T
 62
     7
 10
54.348298
 20
32.565185
 30
0.0
 11
54.348298
 21
31.940185
 31
0.0
  0
ARC
  8
T
 62
     7
 10
57.911298
 20
31.940185
 30
0.0
 40
0.063
 50
180.0
 51
0.0
  0
ARC
  8
T
 62
     7
 10
57.911298
 20
32.565185
 30
0.0
 40
0.063
 50
0.0
 51
21.054778
  0
ARC
  8
T
 62
     7
 10
57.911298
 20
30.440185
 30
0.0
 40
0.063
 50
180.0
 51
0.0
  0
ARC
  8
T
 62
     7
 10
57.911298
 20
31.065185
 30
0.0
 40
0.063
 50
0.0
 51
180.0
  0
ARC
  8
T
 62
     7
 10
56.411298
 20
30.440185
 30
0.0
 40
0.063
 50
180.0
 51
0.0
  0
ARC
  8
T
 62
     7
 10
56.411298
 20
31.065185
 30
0.0
 40
0.063
 50
0.0
 51
180.0
  0
LINE
  8
T
 62
     7
 10
56.348298
 20
31.065185
 30
0.0
 11
56.348298
 21
30.440185
 31
0.0
  0
LINE
  8
T
 62
     7
 10
56.224298
 20
30.440185
 30
0.0
 11
56.224298
 21
31.065185
 31
0.0
  0
LINE
  8
T
 62
     7
 10
56.098298
 20
31.065185
 30
0.0
 11
56.098298
 21
30.440185
 31
0.0
  0
LINE
  8
T
 62
     7
 10
55.974298
 20
30.440185
 30
0.0
 11
55.974298
 21
31.065185
 31
0.0
  0
LINE
  8
T
 62
     7
 10
55.848298
 20
31.065185
 30
0.0
 11
55.848298
 21
30.440185
 31
0.0
  0
LINE
  8
T
 62
     7
 10
55.724298
 20
30.440185
 30
0.0
 11
55.724298
 21
31.065185
 31
0.0
  0
LINE
  8
T
 62
     7
 10
55.598298
 20
31.065185
 30
0.0
 11
55.598298
 21
30.440185
 31
0.0
  0
LINE
  8
T
 62
     7
 10
55.474298
 20
30.440185
 30
0.0
 11
55.474298
 21
31.065185
 31
0.0
  0
LINE
  8
T
 62
     7
 10
55.348298
 20
31.065185
 30
0.0
 11
55.348298
 21
30.440185
 31
0.0
  0
LINE
  8
T
 62
     7
 10
55.224298
 20
30.440185
 30
0.0
 11
55.224298
 21
31.065185
 31
0.0
  0
LINE
  8
T
 62
     7
 10
55.098298
 20
31.065185
 30
0.0
 11
55.098298
 21
30.440185
 31
0.0
  0
ARC
  8
T
 62
     7
 10
55.661298
 20
30.440185
 30
0.0
 40
0.063
 50
180.0
 51
0.0
  0
ARC
  8
T
 62
     7
 10
55.411298
 20
30.440185
 30
0.0
 40
0.063
 50
180.0
 51
0.0
  0
ARC
  8
T
 62
     7
 10
55.161298
 20
30.440185
 30
0.0
 40
0.063
 50
180.0
 51
0.0
  0
ARC
  8
T
 62
     7
 10
56.161298
 20
30.440185
 30
0.0
 40
0.063
 50
180.0
 51
0.0
  0
ARC
  8
T
 62
     7
 10
55.911298
 20
30.440185
 30
0.0
 40
0.063
 50
180.0
 51
0.0
  0
ARC
  8
T
 62
     7
 10
55.661298
 20
31.065185
 30
0.0
 40
0.063
 50
0.0
 51
180.0
  0
ARC
  8
T
 62
     7
 10
55.411298
 20
31.065185
 30
0.0
 40
0.063
 50
0.0
 51
180.0
  0
ARC
  8
T
 62
     7
 10
55.161298
 20
31.065185
 30
0.0
 40
0.063
 50
0.0
 51
180.0
  0
ARC
  8
T
 62
     7
 10
56.161298
 20
31.065185
 30
0.0
 40
0.063
 50
0.0
 51
180.0
  0
ARC
  8
T
 62
     7
 10
55.911298
 20
31.065185
 30
0.0
 40
0.063
 50
0.0
 51
180.0
  0
LINE
  8
T
 62
     7
 10
57.848298
 20
31.065185
 30
0.0
 11
57.848298
 21
30.440185
 31
0.0
  0
LINE
  8
T
 62
     7
 10
57.724298
 20
30.440185
 30
0.0
 11
57.724298
 21
31.065185
 31
0.0
  0
LINE
  8
T
 62
     7
 10
57.598298
 20
31.065185
 30
0.0
 11
57.598298
 21
30.440185
 31
0.0
  0
LINE
  8
T
 62
     7
 10
57.474298
 20
30.440185
 30
0.0
 11
57.474298
 21
31.065185
 31
0.0
  0
LINE
  8
T
 62
     7
 10
57.348298
 20
31.065185
 30
0.0
 11
57.348298
 21
30.440185
 31
0.0
  0
LINE
  8
T
 62
     7
 10
57.224298
 20
30.440185
 30
0.0
 11
57.224298
 21
31.065185
 31
0.0
  0
LINE
  8
T
 62
     7
 10
57.098298
 20
31.065185
 30
0.0
 11
57.098298
 21
30.440185
 31
0.0
  0
LINE
  8
T
 62
     7
 10
56.974298
 20
30.440185
 30
0.0
 11
56.974298
 21
31.065185
 31
0.0
  0
LINE
  8
T
 62
     7
 10
56.848298
 20
31.065185
 30
0.0
 11
56.848298
 21
30.440185
 31
0.0
  0
LINE
  8
T
 62
     7
 10
56.724298
 20
30.440185
 30
0.0
 11
56.724298
 21
31.065185
 31
0.0
  0
LINE
  8
T
 62
     7
 10
56.598298
 20
31.065185
 30
0.0
 11
56.598298
 21
30.440185
 31
0.0
  0
LINE
  8
T
 62
     7
 10
56.474298
 20
30.440185
 30
0.0
 11
56.474298
 21
31.065185
 31
0.0
  0
ARC
  8
T
 62
     7
 10
57.161298
 20
30.440185
 30
0.0
 40
0.063
 50
180.0
 51
0.0
  0
ARC
  8
T
 62
     7
 10
56.911298
 20
30.440185
 30
0.0
 40
0.063
 50
180.0
 51
0.0
  0
ARC
  8
T
 62
     7
 10
56.661298
 20
30.440185
 30
0.0
 40
0.063
 50
180.0
 51
0.0
  0
ARC
  8
T
 62
     7
 10
57.661298
 20
30.440185
 30
0.0
 40
0.063
 50
180.0
 51
0.0
  0
ARC
  8
T
 62
     7
 10
57.411298
 20
30.440185
 30
0.0
 40
0.063
 50
180.0
 51
0.0
  0
ARC
  8
T
 62
     7
 10
57.161298
 20
31.065185
 30
0.0
 40
0.063
 50
0.0
 51
180.0
  0
ARC
  8
T
 62
     7
 10
56.911298
 20
31.065185
 30
0.0
 40
0.063
 50
0.0
 51
180.0
  0
ARC
  8
T
 62
     7
 10
56.661298
 20
31.065185
 30
0.0
 40
0.063
 50
0.0
 51
180.0
  0
ARC
  8
T
 62
     7
 10
57.661298
 20
31.065185
 30
0.0
 40
0.063
 50
0.0
 51
180.0
  0
ARC
  8
T
 62
     7
 10
57.411298
 20
31.065185
 30
0.0
 40
0.063
 50
0.0
 51
180.0
  0
ARC
  8
T
 62
     7
 10
56.411298
 20
31.940185
 30
0.0
 40
0.063
 50
180.0
 51
0.0
  0
ARC
  8
T
 62
     7
 10
56.411298
 20
32.565185
 30
0.0
 40
0.063
 50
0.0
 51
21.054778
  0
ARC
  8
T
 62
     7
 10
56.161298
 20
32.565185
 30
0.0
 40
0.063
 50
0.0
 51
21.054778
  0
ARC
  8
T
 62
     7
 10
55.911298
 20
32.565185
 30
0.0
 40
0.063
 50
0.0
 51
21.054778
  0
ARC
  8
T
 62
     7
 10
55.661298
 20
32.565185
 30
0.0
 40
0.063
 50
0.0
 51
21.054778
  0
ARC
  8
T
 62
     7
 10
55.411298
 20
32.565185
 30
0.0
 40
0.063
 50
0.0
 51
21.054778
  0
ARC
  8
T
 62
     7
 10
55.161298
 20
32.565185
 30
0.0
 40
0.063
 50
0.0
 51
21.054778
  0
ARC
  8
T
 62
     7
 10
55.661298
 20
31.940185
 30
0.0
 40
0.063
 50
180.0
 51
0.0
  0
ARC
  8
T
 62
     7
 10
55.411298
 20
31.940185
 30
0.0
 40
0.063
 50
180.0
 51
0.0
  0
ARC
  8
T
 62
     7
 10
55.161298
 20
31.940185
 30
0.0
 40
0.063
 50
180.0
 51
0.0
  0
LINE
  8
T
 62
     7
 10
55.598298
 20
32.565185
 30
0.0
 11
55.598298
 21
31.940185
 31
0.0
  0
LINE
  8
T
 62
     7
 10
55.474298
 20
31.940185
 30
0.0
 11
55.474298
 21
32.565185
 31
0.0
  0
LINE
  8
T
 62
     7
 10
55.348298
 20
32.565185
 30
0.0
 11
55.348298
 21
31.940185
 31
0.0
  0
LINE
  8
T
 62
     7
 10
55.224298
 20
31.940185
 30
0.0
 11
55.224298
 21
32.565185
 31
0.0
  0
LINE
  8
T
 62
     7
 10
55.098298
 20
32.565185
 30
0.0
 11
55.098298
 21
31.940185
 31
0.0
  0
ARC
  8
T
 62
     7
 10
56.161298
 20
31.940185
 30
0.0
 40
0.063
 50
180.0
 51
0.0
  0
ARC
  8
T
 62
     7
 10
55.911298
 20
31.940185
 30
0.0
 40
0.063
 50
180.0
 51
0.0
  0
LINE
  8
T
 62
     7
 10
56.348298
 20
32.565185
 30
0.0
 11
56.348298
 21
31.940185
 31
0.0
  0
LINE
  8
T
 62
     7
 10
56.224298
 20
31.940185
 30
0.0
 11
56.224298
 21
32.565185
 31
0.0
  0
LINE
  8
T
 62
     7
 10
56.098298
 20
32.565185
 30
0.0
 11
56.098298
 21
31.940185
 31
0.0
  0
LINE
  8
T
 62
     7
 10
55.974298
 20
31.940185
 30
0.0
 11
55.974298
 21
32.565185
 31
0.0
  0
LINE
  8
T
 62
     7
 10
55.848298
 20
32.565185
 30
0.0
 11
55.848298
 21
31.940185
 31
0.0
  0
LINE
  8
T
 62
     7
 10
55.724298
 20
31.940185
 30
0.0
 11
55.724298
 21
32.565185
 31
0.0
  0
ARC
  8
T
 62
     7
 10
57.661298
 20
32.565185
 30
0.0
 40
0.063
 50
0.0
 51
21.054778
  0
ARC
  8
T
 62
     7
 10
57.411298
 20
32.565185
 30
0.0
 40
0.063
 50
0.0
 51
21.054778
  0
ARC
  8
T
 62
     7
 10
57.161298
 20
32.565185
 30
0.0
 40
0.063
 50
0.0
 51
21.054778
  0
ARC
  8
T
 62
     7
 10
56.911298
 20
32.565185
 30
0.0
 40
0.063
 50
0.0
 51
21.054778
  0
ARC
  8
T
 62
     7
 10
56.661298
 20
32.565185
 30
0.0
 40
0.063
 50
0.0
 51
21.054778
  0
ARC
  8
T
 62
     7
 10
57.161298
 20
31.940185
 30
0.0
 40
0.063
 50
180.0
 51
0.0
  0
ARC
  8
T
 62
     7
 10
56.911298
 20
31.940185
 30
0.0
 40
0.063
 50
180.0
 51
0.0
  0
ARC
  8
T
 62
     7
 10
56.661298
 20
31.940185
 30
0.0
 40
0.063
 50
180.0
 51
0.0
  0
LINE
  8
T
 62
     7
 10
57.098298
 20
32.565185
 30
0.0
 11
57.098298
 21
31.940185
 31
0.0
  0
LINE
  8
T
 62
     7
 10
56.974298
 20
31.940185
 30
0.0
 11
56.974298
 21
32.565185
 31
0.0
  0
LINE
  8
T
 62
     7
 10
56.848298
 20
32.565185
 30
0.0
 11
56.848298
 21
31.940185
 31
0.0
  0
LINE
  8
T
 62
     7
 10
56.724298
 20
31.940185
 30
0.0
 11
56.724298
 21
32.565185
 31
0.0
  0
LINE
  8
T
 62
     7
 10
56.598298
 20
32.565185
 30
0.0
 11
56.598298
 21
31.940185
 31
0.0
  0
LINE
  8
T
 62
     7
 10
56.474298
 20
31.940185
 30
0.0
 11
56.474298
 21
32.565185
 31
0.0
  0
ARC
  8
T
 62
     7
 10
57.661298
 20
31.940185
 30
0.0
 40
0.063
 50
180.0
 51
0.0
  0
ARC
  8
T
 62
     7
 10
57.411298
 20
31.940185
 30
0.0
 40
0.063
 50
180.0
 51
0.0
  0
LINE
  8
T
 62
     7
 10
57.848298
 20
32.565185
 30
0.0
 11
57.848298
 21
31.940185
 31
0.0
  0
LINE
  8
T
 62
     7
 10
57.724298
 20
31.940185
 30
0.0
 11
57.724298
 21
32.565185
 31
0.0
  0
LINE
  8
T
 62
     7
 10
57.598298
 20
32.565185
 30
0.0
 11
57.598298
 21
31.940185
 31
0.0
  0
LINE
  8
T
 62
     7
 10
57.474298
 20
31.940185
 30
0.0
 11
57.474298
 21
32.565185
 31
0.0
  0
LINE
  8
T
 62
     7
 10
57.348298
 20
32.565185
 30
0.0
 11
57.348298
 21
31.940185
 31
0.0
  0
LINE
  8
T
 62
     7
 10
57.224298
 20
31.940185
 30
0.0
 11
57.224298
 21
32.565185
 31
0.0
  0
ARC
  8
T
 62
     7
 10
59.411298
 20
30.440185
 30
0.0
 40
0.063
 50
180.0
 51
0.0
  0
ARC
  8
T
 62
     7
 10
59.411298
 20
31.065185
 30
0.0
 40
0.063
 50
0.0
 51
180.0
  0
LINE
  8
T
 62
     7
 10
59.348298
 20
31.065185
 30
0.0
 11
59.348298
 21
30.440185
 31
0.0
  0
LINE
  8
T
 62
     7
 10
59.224298
 20
30.440185
 30
0.0
 11
59.224298
 21
31.065185
 31
0.0
  0
LINE
  8
T
 62
     7
 10
59.098298
 20
31.065185
 30
0.0
 11
59.098298
 21
30.440185
 31
0.0
  0
LINE
  8
T
 62
     7
 10
58.974298
 20
30.440185
 30
0.0
 11
58.974298
 21
31.065185
 31
0.0
  0
LINE
  8
T
 62
     7
 10
58.848298
 20
31.065185
 30
0.0
 11
58.848298
 21
30.440185
 31
0.0
  0
LINE
  8
T
 62
     7
 10
58.724298
 20
30.440185
 30
0.0
 11
58.724298
 21
31.065185
 31
0.0
  0
LINE
  8
T
 62
     7
 10
58.598298
 20
31.065185
 30
0.0
 11
58.598298
 21
30.440185
 31
0.0
  0
LINE
  8
T
 62
     7
 10
58.474298
 20
30.440185
 30
0.0
 11
58.474298
 21
31.065185
 31
0.0
  0
LINE
  8
T
 62
     7
 10
58.348298
 20
31.065185
 30
0.0
 11
58.348298
 21
30.440185
 31
0.0
  0
LINE
  8
T
 62
     7
 10
58.224298
 20
30.440185
 30
0.0
 11
58.224298
 21
31.065185
 31
0.0
  0
LINE
  8
T
 62
     7
 10
58.098298
 20
31.065185
 30
0.0
 11
58.098298
 21
30.440185
 31
0.0
  0
LINE
  8
T
 62
     7
 10
57.974298
 20
30.440185
 30
0.0
 11
57.974298
 21
31.065185
 31
0.0
  0
ARC
  8
T
 62
     7
 10
58.661298
 20
30.440185
 30
0.0
 40
0.063
 50
180.0
 51
0.0
  0
ARC
  8
T
 62
     7
 10
58.411298
 20
30.440185
 30
0.0
 40
0.063
 50
180.0
 51
0.0
  0
ARC
  8
T
 62
     7
 10
58.161298
 20
30.440185
 30
0.0
 40
0.063
 50
180.0
 51
0.0
  0
ARC
  8
T
 62
     7
 10
59.161298
 20
30.440185
 30
0.0
 40
0.063
 50
180.0
 51
0.0
  0
ARC
  8
T
 62
     7
 10
58.911298
 20
30.440185
 30
0.0
 40
0.063
 50
180.0
 51
0.0
  0
ARC
  8
T
 62
     7
 10
58.661298
 20
31.065185
 30
0.0
 40
0.063
 50
0.0
 51
180.0
  0
ARC
  8
T
 62
     7
 10
58.411298
 20
31.065185
 30
0.0
 40
0.063
 50
0.0
 51
180.0
  0
ARC
  8
T
 62
     7
 10
58.161298
 20
31.065185
 30
0.0
 40
0.063
 50
0.0
 51
180.0
  0
ARC
  8
T
 62
     7
 10
59.161298
 20
31.065185
 30
0.0
 40
0.063
 50
0.0
 51
180.0
  0
ARC
  8
T
 62
     7
 10
58.911298
 20
31.065185
 30
0.0
 40
0.063
 50
0.0
 51
180.0
  0
LINE
  8
T
 62
     7
 10
60.848298
 20
31.065185
 30
0.0
 11
60.848298
 21
30.440185
 31
0.0
  0
LINE
  8
T
 62
     7
 10
60.724298
 20
30.440185
 30
0.0
 11
60.724298
 21
31.065185
 31
0.0
  0
LINE
  8
T
 62
     7
 10
60.598298
 20
31.065185
 30
0.0
 11
60.598298
 21
30.440185
 31
0.0
  0
LINE
  8
T
 62
     7
 10
60.474298
 20
30.440185
 30
0.0
 11
60.474298
 21
31.065185
 31
0.0
  0
LINE
  8
T
 62
     7
 10
60.348298
 20
31.065185
 30
0.0
 11
60.348298
 21
30.440185
 31
0.0
  0
LINE
  8
T
 62
     7
 10
60.224298
 20
30.440185
 30
0.0
 11
60.224298
 21
31.065185
 31
0.0
  0
LINE
  8
T
 62
     7
 10
60.098298
 20
31.065185
 30
0.0
 11
60.098298
 21
30.440185
 31
0.0
  0
LINE
  8
T
 62
     7
 10
59.974298
 20
30.440185
 30
0.0
 11
59.974298
 21
31.065185
 31
0.0
  0
LINE
  8
T
 62
     7
 10
59.848298
 20
31.065185
 30
0.0
 11
59.848298
 21
30.440185
 31
0.0
  0
LINE
  8
T
 62
     7
 10
59.724298
 20
30.440185
 30
0.0
 11
59.724298
 21
31.065185
 31
0.0
  0
LINE
  8
T
 62
     7
 10
59.598298
 20
31.065185
 30
0.0
 11
59.598298
 21
30.440185
 31
0.0
  0
LINE
  8
T
 62
     7
 10
59.474298
 20
30.440185
 30
0.0
 11
59.474298
 21
31.065185
 31
0.0
  0
ARC
  8
T
 62
     7
 10
60.161298
 20
30.440185
 30
0.0
 40
0.063
 50
180.0
 51
0.0
  0
ARC
  8
T
 62
     7
 10
59.911298
 20
30.440185
 30
0.0
 40
0.063
 50
180.0
 51
0.0
  0
ARC
  8
T
 62
     7
 10
59.661298
 20
30.440185
 30
0.0
 40
0.063
 50
180.0
 51
0.0
  0
ARC
  8
T
 62
     7
 10
60.661298
 20
30.440185
 30
0.0
 40
0.063
 50
180.0
 51
0.0
  0
ARC
  8
T
 62
     7
 10
60.411298
 20
30.440185
 30
0.0
 40
0.063
 50
180.0
 51
0.0
  0
ARC
  8
T
 62
     7
 10
60.161298
 20
31.065185
 30
0.0
 40
0.063
 50
0.0
 51
180.0
  0
ARC
  8
T
 62
     7
 10
59.911298
 20
31.065185
 30
0.0
 40
0.063
 50
0.0
 51
180.0
  0
ARC
  8
T
 62
     7
 10
59.661298
 20
31.065185
 30
0.0
 40
0.063
 50
0.0
 51
180.0
  0
ARC
  8
T
 62
     7
 10
60.661298
 20
31.065185
 30
0.0
 40
0.063
 50
0.0
 51
180.0
  0
ARC
  8
T
 62
     7
 10
60.411298
 20
31.065185
 30
0.0
 40
0.063
 50
0.0
 51
180.0
  0
ARC
  8
T
 62
     7
 10
59.411298
 20
31.940185
 30
0.0
 40
0.063
 50
180.0
 51
0.0
  0
ARC
  8
T
 62
     7
 10
59.411298
 20
32.565185
 30
0.0
 40
0.063
 50
0.0
 51
21.054778
  0
ARC
  8
T
 62
     7
 10
59.161298
 20
32.565185
 30
0.0
 40
0.063
 50
0.0
 51
21.054778
  0
ARC
  8
T
 62
     7
 10
58.911298
 20
32.565185
 30
0.0
 40
0.063
 50
0.0
 51
21.054778
  0
ARC
  8
T
 62
     7
 10
58.661298
 20
32.565185
 30
0.0
 40
0.063
 50
0.0
 51
21.054778
  0
ARC
  8
T
 62
     7
 10
58.411298
 20
32.565185
 30
0.0
 40
0.063
 50
0.0
 51
21.054778
  0
ARC
  8
T
 62
     7
 10
58.161298
 20
32.565185
 30
0.0
 40
0.063
 50
0.0
 51
21.054778
  0
ARC
  8
T
 62
     7
 10
58.661298
 20
31.940185
 30
0.0
 40
0.063
 50
180.0
 51
0.0
  0
ARC
  8
T
 62
     7
 10
58.411298
 20
31.940185
 30
0.0
 40
0.063
 50
180.0
 51
0.0
  0
ARC
  8
T
 62
     7
 10
58.161298
 20
31.940185
 30
0.0
 40
0.063
 50
180.0
 51
0.0
  0
LINE
  8
T
 62
     7
 10
58.598298
 20
32.565185
 30
0.0
 11
58.598298
 21
31.940185
 31
0.0
  0
LINE
  8
T
 62
     7
 10
58.474298
 20
31.940185
 30
0.0
 11
58.474298
 21
32.565185
 31
0.0
  0
LINE
  8
T
 62
     7
 10
58.348298
 20
32.565185
 30
0.0
 11
58.348298
 21
31.940185
 31
0.0
  0
LINE
  8
T
 62
     7
 10
58.224298
 20
31.940185
 30
0.0
 11
58.224298
 21
32.565185
 31
0.0
  0
LINE
  8
T
 62
     7
 10
58.098298
 20
32.565185
 30
0.0
 11
58.098298
 21
31.940185
 31
0.0
  0
LINE
  8
T
 62
     7
 10
57.974298
 20
31.940185
 30
0.0
 11
57.974298
 21
32.565185
 31
0.0
  0
ARC
  8
T
 62
     7
 10
59.161298
 20
31.940185
 30
0.0
 40
0.063
 50
180.0
 51
0.0
  0
ARC
  8
T
 62
     7
 10
58.911298
 20
31.940185
 30
0.0
 40
0.063
 50
180.0
 51
0.0
  0
LINE
  8
T
 62
     7
 10
59.348298
 20
32.565185
 30
0.0
 11
59.348298
 21
31.940185
 31
0.0
  0
LINE
  8
T
 62
     7
 10
59.224298
 20
31.940185
 30
0.0
 11
59.224298
 21
32.565185
 31
0.0
  0
LINE
  8
T
 62
     7
 10
59.098298
 20
32.565185
 30
0.0
 11
59.098298
 21
31.940185
 31
0.0
  0
LINE
  8
T
 62
     7
 10
58.974298
 20
31.940185
 30
0.0
 11
58.974298
 21
32.565185
 31
0.0
  0
LINE
  8
T
 62
     7
 10
58.848298
 20
32.565185
 30
0.0
 11
58.848298
 21
31.940185
 31
0.0
  0
LINE
  8
T
 62
     7
 10
58.724298
 20
31.940185
 30
0.0
 11
58.724298
 21
32.565185
 31
0.0
  0
ARC
  8
T
 62
     7
 10
60.661298
 20
32.565185
 30
0.0
 40
0.063
 50
0.0
 51
21.054778
  0
ARC
  8
T
 62
     7
 10
60.411298
 20
32.565185
 30
0.0
 40
0.063
 50
0.0
 51
21.054778
  0
ARC
  8
T
 62
     7
 10
60.161298
 20
32.565185
 30
0.0
 40
0.063
 50
0.0
 51
21.054778
  0
ARC
  8
T
 62
     7
 10
59.911298
 20
32.565185
 30
0.0
 40
0.063
 50
0.0
 51
21.054778
  0
ARC
  8
T
 62
     7
 10
59.661298
 20
32.565185
 30
0.0
 40
0.063
 50
0.0
 51
21.054778
  0
ARC
  8
T
 62
     7
 10
60.161298
 20
31.940185
 30
0.0
 40
0.063
 50
180.0
 51
0.0
  0
ARC
  8
T
 62
     7
 10
59.911298
 20
31.940185
 30
0.0
 40
0.063
 50
180.0
 51
0.0
  0
ARC
  8
T
 62
     7
 10
59.661298
 20
31.940185
 30
0.0
 40
0.063
 50
180.0
 51
0.0
  0
LINE
  8
T
 62
     7
 10
60.098298
 20
32.565185
 30
0.0
 11
60.098298
 21
31.940185
 31
0.0
  0
LINE
  8
T
 62
     7
 10
59.974298
 20
31.940185
 30
0.0
 11
59.974298
 21
32.565185
 31
0.0
  0
LINE
  8
T
 62
     7
 10
59.848298
 20
32.565185
 30
0.0
 11
59.848298
 21
31.940185
 31
0.0
  0
LINE
  8
T
 62
     7
 10
59.724298
 20
31.940185
 30
0.0
 11
59.724298
 21
32.565185
 31
0.0
  0
LINE
  8
T
 62
     7
 10
59.598298
 20
32.565185
 30
0.0
 11
59.598298
 21
31.940185
 31
0.0
  0
LINE
  8
T
 62
     7
 10
59.474298
 20
31.940185
 30
0.0
 11
59.474298
 21
32.565185
 31
0.0
  0
ARC
  8
T
 62
     7
 10
60.661298
 20
31.940185
 30
0.0
 40
0.063
 50
180.0
 51
0.0
  0
ARC
  8
T
 62
     7
 10
60.411298
 20
31.940185
 30
0.0
 40
0.063
 50
180.0
 51
0.0
  0
LINE
  8
T
 62
     7
 10
60.848298
 20
32.565185
 30
0.0
 11
60.848298
 21
31.940185
 31
0.0
  0
LINE
  8
T
 62
     7
 10
60.724298
 20
31.940185
 30
0.0
 11
60.724298
 21
32.565185
 31
0.0
  0
LINE
  8
T
 62
     7
 10
60.598298
 20
32.565185
 30
0.0
 11
60.598298
 21
31.940185
 31
0.0
  0
LINE
  8
T
 62
     7
 10
60.474298
 20
31.940185
 30
0.0
 11
60.474298
 21
32.565185
 31
0.0
  0
LINE
  8
T
 62
     7
 10
60.348298
 20
32.565185
 30
0.0
 11
60.348298
 21
31.940185
 31
0.0
  0
LINE
  8
T
 62
     7
 10
60.224298
 20
31.940185
 30
0.0
 11
60.224298
 21
32.565185
 31
0.0
  0
ARC
  8
T
 62
     7
 10
66.661298
 20
30.440185
 30
0.0
 40
0.063
 50
180.0
 51
0.0
  0
ARC
  8
T
 62
     7
 10
66.661298
 20
31.065185
 30
0.0
 40
0.063
 50
0.0
 51
180.0
  0
ARC
  8
T
 62
     7
 10
66.661298
 20
31.940185
 30
0.0
 40
0.063
 50
180.0
 51
0.0
  0
ARC
  8
T
 62
     7
 10
66.661298
 20
32.565185
 30
0.0
 40
0.063
 50
0.0
 51
21.054778
  0
LINE
  8
T
 62
     7
 10
62.224298
 20
30.440185
 30
0.0
 11
62.224298
 21
31.065185
 31
0.0
  0
LINE
  8
T
 62
     7
 10
62.098298
 20
31.065185
 30
0.0
 11
62.098298
 21
30.440185
 31
0.0
  0
LINE
  8
T
 62
     7
 10
61.974298
 20
30.440185
 30
0.0
 11
61.974298
 21
31.065185
 31
0.0
  0
LINE
  8
T
 62
     7
 10
61.848298
 20
31.065185
 30
0.0
 11
61.848298
 21
30.440185
 31
0.0
  0
LINE
  8
T
 62
     7
 10
61.724298
 20
30.440185
 30
0.0
 11
61.724298
 21
31.065185
 31
0.0
  0
LINE
  8
T
 62
     7
 10
61.598298
 20
31.065185
 30
0.0
 11
61.598298
 21
30.440185
 31
0.0
  0
LINE
  8
T
 62
     7
 10
61.474298
 20
30.440185
 30
0.0
 11
61.474298
 21
31.065185
 31
0.0
  0
LINE
  8
T
 62
     7
 10
61.348298
 20
31.065185
 30
0.0
 11
61.348298
 21
30.440185
 31
0.0
  0
LINE
  8
T
 62
     7
 10
61.224298
 20
30.440185
 30
0.0
 11
61.224298
 21
31.065185
 31
0.0
  0
LINE
  8
T
 62
     7
 10
61.098298
 20
31.065185
 30
0.0
 11
61.098298
 21
30.440185
 31
0.0
  0
LINE
  8
T
 62
     7
 10
60.974298
 20
30.440185
 30
0.0
 11
60.974298
 21
31.065185
 31
0.0
  0
ARC
  8
T
 62
     7
 10
61.411298
 20
30.440185
 30
0.0
 40
0.063
 50
180.0
 51
0.0
  0
ARC
  8
T
 62
     7
 10
61.161298
 20
30.440185
 30
0.0
 40
0.063
 50
180.0
 51
0.0
  0
ARC
  8
T
 62
     7
 10
62.161298
 20
30.440185
 30
0.0
 40
0.063
 50
180.0
 51
0.0
  0
ARC
  8
T
 62
     7
 10
61.911298
 20
30.440185
 30
0.0
 40
0.063
 50
180.0
 51
0.0
  0
ARC
  8
T
 62
     7
 10
61.661298
 20
30.440185
 30
0.0
 40
0.063
 50
180.0
 51
0.0
  0
ARC
  8
T
 62
     7
 10
61.411298
 20
31.065185
 30
0.0
 40
0.063
 50
0.0
 51
180.0
  0
ARC
  8
T
 62
     7
 10
61.161298
 20
31.065185
 30
0.0
 40
0.063
 50
0.0
 51
180.0
  0
ARC
  8
T
 62
     7
 10
62.161298
 20
31.065185
 30
0.0
 40
0.063
 50
0.0
 51
180.0
  0
ARC
  8
T
 62
     7
 10
61.911298
 20
31.065185
 30
0.0
 40
0.063
 50
0.0
 51
180.0
  0
ARC
  8
T
 62
     7
 10
61.661298
 20
31.065185
 30
0.0
 40
0.063
 50
0.0
 51
180.0
  0
LINE
  8
T
 62
     7
 10
63.724298
 20
30.440185
 30
0.0
 11
63.724298
 21
31.065185
 31
0.0
  0
LINE
  8
T
 62
     7
 10
63.598298
 20
31.065185
 30
0.0
 11
63.598298
 21
30.440185
 31
0.0
  0
LINE
  8
T
 62
     7
 10
63.474298
 20
30.440185
 30
0.0
 11
63.474298
 21
31.065185
 31
0.0
  0
LINE
  8
T
 62
     7
 10
63.348298
 20
31.065185
 30
0.0
 11
63.348298
 21
30.440185
 31
0.0
  0
LINE
  8
T
 62
     7
 10
63.224298
 20
30.440185
 30
0.0
 11
63.224298
 21
31.065185
 31
0.0
  0
LINE
  8
T
 62
     7
 10
63.098298
 20
31.065185
 30
0.0
 11
63.098298
 21
30.440185
 31
0.0
  0
LINE
  8
T
 62
     7
 10
62.974298
 20
30.440185
 30
0.0
 11
62.974298
 21
31.065185
 31
0.0
  0
LINE
  8
T
 62
     7
 10
62.848298
 20
31.065185
 30
0.0
 11
62.848298
 21
30.440185
 31
0.0
  0
LINE
  8
T
 62
     7
 10
62.724298
 20
30.440185
 30
0.0
 11
62.724298
 21
31.065185
 31
0.0
  0
LINE
  8
T
 62
     7
 10
62.598298
 20
31.065185
 30
0.0
 11
62.598298
 21
30.440185
 31
0.0
  0
LINE
  8
T
 62
     7
 10
62.474298
 20
30.440185
 30
0.0
 11
62.474298
 21
31.065185
 31
0.0
  0
LINE
  8
T
 62
     7
 10
62.348298
 20
31.065185
 30
0.0
 11
62.348298
 21
30.440185
 31
0.0
  0
ARC
  8
T
 62
     7
 10
62.911298
 20
30.440185
 30
0.0
 40
0.063
 50
180.0
 51
0.0
  0
ARC
  8
T
 62
     7
 10
62.661298
 20
30.440185
 30
0.0
 40
0.063
 50
180.0
 51
0.0
  0
ARC
  8
T
 62
     7
 10
62.411298
 20
30.440185
 30
0.0
 40
0.063
 50
180.0
 51
0.0
  0
ARC
  8
T
 62
     7
 10
63.661298
 20
30.440185
 30
0.0
 40
0.063
 50
180.0
 51
0.0
  0
ARC
  8
T
 62
     7
 10
63.411298
 20
30.440185
 30
0.0
 40
0.063
 50
180.0
 51
0.0
  0
ARC
  8
T
 62
     7
 10
63.161298
 20
30.440185
 30
0.0
 40
0.063
 50
180.0
 51
0.0
  0
ARC
  8
T
 62
     7
 10
62.911298
 20
31.065185
 30
0.0
 40
0.063
 50
0.0
 51
180.0
  0
ARC
  8
T
 62
     7
 10
62.661298
 20
31.065185
 30
0.0
 40
0.063
 50
0.0
 51
180.0
  0
ARC
  8
T
 62
     7
 10
62.411298
 20
31.065185
 30
0.0
 40
0.063
 50
0.0
 51
180.0
  0
ARC
  8
T
 62
     7
 10
63.661298
 20
31.065185
 30
0.0
 40
0.063
 50
0.0
 51
180.0
  0
ARC
  8
T
 62
     7
 10
63.411298
 20
31.065185
 30
0.0
 40
0.063
 50
0.0
 51
180.0
  0
ARC
  8
T
 62
     7
 10
63.161298
 20
31.065185
 30
0.0
 40
0.063
 50
0.0
 51
180.0
  0
ARC
  8
T
 62
     7
 10
62.161298
 20
32.565185
 30
0.0
 40
0.063
 50
0.0
 51
21.054778
  0
ARC
  8
T
 62
     7
 10
61.911298
 20
32.565185
 30
0.0
 40
0.063
 50
0.0
 51
21.054778
  0
ARC
  8
T
 62
     7
 10
61.661298
 20
32.565185
 30
0.0
 40
0.063
 50
0.0
 51
21.054778
  0
ARC
  8
T
 62
     7
 10
61.411298
 20
32.565185
 30
0.0
 40
0.063
 50
0.0
 51
21.054778
  0
ARC
  8
T
 62
     7
 10
61.161298
 20
32.565185
 30
0.0
 40
0.063
 50
0.0
 51
21.054778
  0
ARC
  8
T
 62
     7
 10
61.411298
 20
31.940185
 30
0.0
 40
0.063
 50
180.0
 51
0.0
  0
ARC
  8
T
 62
     7
 10
61.161298
 20
31.940185
 30
0.0
 40
0.063
 50
180.0
 51
0.0
  0
LINE
  8
T
 62
     7
 10
61.474298
 20
31.940185
 30
0.0
 11
61.474298
 21
32.565185
 31
0.0
  0
LINE
  8
T
 62
     7
 10
61.348298
 20
32.565185
 30
0.0
 11
61.348298
 21
31.940185
 31
0.0
  0
LINE
  8
T
 62
     7
 10
61.224298
 20
31.940185
 30
0.0
 11
61.224298
 21
32.565185
 31
0.0
  0
LINE
  8
T
 62
     7
 10
61.098298
 20
32.565185
 30
0.0
 11
61.098298
 21
31.940185
 31
0.0
  0
LINE
  8
T
 62
     7
 10
60.974298
 20
31.940185
 30
0.0
 11
60.974298
 21
32.565185
 31
0.0
  0
ARC
  8
T
 62
     7
 10
62.161298
 20
31.940185
 30
0.0
 40
0.063
 50
180.0
 51
0.0
  0
ARC
  8
T
 62
     7
 10
61.911298
 20
31.940185
 30
0.0
 40
0.063
 50
180.0
 51
0.0
  0
ARC
  8
T
 62
     7
 10
61.661298
 20
31.940185
 30
0.0
 40
0.063
 50
180.0
 51
0.0
  0
LINE
  8
T
 62
     7
 10
62.224298
 20
31.940185
 30
0.0
 11
62.224298
 21
32.565185
 31
0.0
  0
LINE
  8
T
 62
     7
 10
62.098298
 20
32.565185
 30
0.0
 11
62.098298
 21
31.940185
 31
0.0
  0
LINE
  8
T
 62
     7
 10
61.974298
 20
31.940185
 30
0.0
 11
61.974298
 21
32.565185
 31
0.0
  0
LINE
  8
T
 62
     7
 10
61.848298
 20
32.565185
 30
0.0
 11
61.848298
 21
31.940185
 31
0.0
  0
LINE
  8
T
 62
     7
 10
61.724298
 20
31.940185
 30
0.0
 11
61.724298
 21
32.565185
 31
0.0
  0
LINE
  8
T
 62
     7
 10
61.598298
 20
32.565185
 30
0.0
 11
61.598298
 21
31.940185
 31
0.0
  0
ARC
  8
T
 62
     7
 10
63.661298
 20
32.565185
 30
0.0
 40
0.063
 50
0.0
 51
21.054778
  0
ARC
  8
T
 62
     7
 10
63.411298
 20
32.565185
 30
0.0
 40
0.063
 50
0.0
 51
21.054778
  0
ARC
  8
T
 62
     7
 10
63.161298
 20
32.565185
 30
0.0
 40
0.063
 50
0.0
 51
21.054778
  0
ARC
  8
T
 62
     7
 10
62.911298
 20
32.565185
 30
0.0
 40
0.063
 50
0.0
 51
21.054778
  0
ARC
  8
T
 62
     7
 10
62.661298
 20
32.565185
 30
0.0
 40
0.063
 50
0.0
 51
21.054778
  0
ARC
  8
T
 62
     7
 10
62.411298
 20
32.565185
 30
0.0
 40
0.063
 50
0.0
 51
21.054778
  0
ARC
  8
T
 62
     7
 10
62.911298
 20
31.940185
 30
0.0
 40
0.063
 50
180.0
 51
0.0
  0
ARC
  8
T
 62
     7
 10
62.661298
 20
31.940185
 30
0.0
 40
0.063
 50
180.0
 51
0.0
  0
ARC
  8
T
 62
     7
 10
62.411298
 20
31.940185
 30
0.0
 40
0.063
 50
180.0
 51
0.0
  0
LINE
  8
T
 62
     7
 10
62.974298
 20
31.940185
 30
0.0
 11
62.974298
 21
32.565185
 31
0.0
  0
LINE
  8
T
 62
     7
 10
62.848298
 20
32.565185
 30
0.0
 11
62.848298
 21
31.940185
 31
0.0
  0
LINE
  8
T
 62
     7
 10
62.724298
 20
31.940185
 30
0.0
 11
62.724298
 21
32.565185
 31
0.0
  0
LINE
  8
T
 62
     7
 10
62.598298
 20
32.565185
 30
0.0
 11
62.598298
 21
31.940185
 31
0.0
  0
LINE
  8
T
 62
     7
 10
62.474298
 20
31.940185
 30
0.0
 11
62.474298
 21
32.565185
 31
0.0
  0
LINE
  8
T
 62
     7
 10
62.348298
 20
32.565185
 30
0.0
 11
62.348298
 21
31.940185
 31
0.0
  0
ARC
  8
T
 62
     7
 10
63.661298
 20
31.940185
 30
0.0
 40
0.063
 50
180.0
 51
0.0
  0
ARC
  8
T
 62
     7
 10
63.411298
 20
31.940185
 30
0.0
 40
0.063
 50
180.0
 51
0.0
  0
ARC
  8
T
 62
     7
 10
63.161298
 20
31.940185
 30
0.0
 40
0.063
 50
180.0
 51
0.0
  0
LINE
  8
T
 62
     7
 10
63.724298
 20
31.940185
 30
0.0
 11
63.724298
 21
32.565185
 31
0.0
  0
LINE
  8
T
 62
     7
 10
63.598298
 20
32.565185
 30
0.0
 11
63.598298
 21
31.940185
 31
0.0
  0
LINE
  8
T
 62
     7
 10
63.474298
 20
31.940185
 30
0.0
 11
63.474298
 21
32.565185
 31
0.0
  0
LINE
  8
T
 62
     7
 10
63.348298
 20
32.565185
 30
0.0
 11
63.348298
 21
31.940185
 31
0.0
  0
LINE
  8
T
 62
     7
 10
63.224298
 20
31.940185
 30
0.0
 11
63.224298
 21
32.565185
 31
0.0
  0
LINE
  8
T
 62
     7
 10
63.098298
 20
32.565185
 30
0.0
 11
63.098298
 21
31.940185
 31
0.0
  0
LINE
  8
T
 62
     7
 10
65.224298
 20
30.440185
 30
0.0
 11
65.224298
 21
31.065185
 31
0.0
  0
LINE
  8
T
 62
     7
 10
65.098298
 20
31.065185
 30
0.0
 11
65.098298
 21
30.440185
 31
0.0
  0
LINE
  8
T
 62
     7
 10
64.974298
 20
30.440185
 30
0.0
 11
64.974298
 21
31.065185
 31
0.0
  0
LINE
  8
T
 62
     7
 10
64.848298
 20
31.065185
 30
0.0
 11
64.848298
 21
30.440185
 31
0.0
  0
LINE
  8
T
 62
     7
 10
64.724298
 20
30.440185
 30
0.0
 11
64.724298
 21
31.065185
 31
0.0
  0
LINE
  8
T
 62
     7
 10
64.598298
 20
31.065185
 30
0.0
 11
64.598298
 21
30.440185
 31
0.0
  0
LINE
  8
T
 62
     7
 10
64.474298
 20
30.440185
 30
0.0
 11
64.474298
 21
31.065185
 31
0.0
  0
LINE
  8
T
 62
     7
 10
64.348298
 20
31.065185
 30
0.0
 11
64.348298
 21
30.440185
 31
0.0
  0
LINE
  8
T
 62
     7
 10
64.224298
 20
30.440185
 30
0.0
 11
64.224298
 21
31.065185
 31
0.0
  0
LINE
  8
T
 62
     7
 10
64.098298
 20
31.065185
 30
0.0
 11
64.098298
 21
30.440185
 31
0.0
  0
LINE
  8
T
 62
     7
 10
63.974298
 20
30.440185
 30
0.0
 11
63.974298
 21
31.065185
 31
0.0
  0
LINE
  8
T
 62
     7
 10
63.848298
 20
31.065185
 30
0.0
 11
63.848298
 21
30.440185
 31
0.0
  0
ARC
  8
T
 62
     7
 10
64.411298
 20
30.440185
 30
0.0
 40
0.063
 50
180.0
 51
0.0
  0
ARC
  8
T
 62
     7
 10
64.161298
 20
30.440185
 30
0.0
 40
0.063
 50
180.0
 51
0.0
  0
ARC
  8
T
 62
     7
 10
63.911298
 20
30.440185
 30
0.0
 40
0.063
 50
180.0
 51
0.0
  0
ARC
  8
T
 62
     7
 10
65.161298
 20
30.440185
 30
0.0
 40
0.063
 50
180.0
 51
0.0
  0
ARC
  8
T
 62
     7
 10
64.911298
 20
30.440185
 30
0.0
 40
0.063
 50
180.0
 51
0.0
  0
ARC
  8
T
 62
     7
 10
64.661298
 20
30.440185
 30
0.0
 40
0.063
 50
180.0
 51
0.0
  0
ARC
  8
T
 62
     7
 10
64.411298
 20
31.065185
 30
0.0
 40
0.063
 50
0.0
 51
180.0
  0
ARC
  8
T
 62
     7
 10
64.161298
 20
31.065185
 30
0.0
 40
0.063
 50
0.0
 51
180.0
  0
ARC
  8
T
 62
     7
 10
63.911298
 20
31.065185
 30
0.0
 40
0.063
 50
0.0
 51
180.0
  0
ARC
  8
T
 62
     7
 10
65.161298
 20
31.065185
 30
0.0
 40
0.063
 50
0.0
 51
180.0
  0
ARC
  8
T
 62
     7
 10
64.911298
 20
31.065185
 30
0.0
 40
0.063
 50
0.0
 51
180.0
  0
ARC
  8
T
 62
     7
 10
64.661298
 20
31.065185
 30
0.0
 40
0.063
 50
0.0
 51
180.0
  0
LINE
  8
T
 62
     7
 10
66.598298
 20
31.065185
 30
0.0
 11
66.598298
 21
30.440185
 31
0.0
  0
LINE
  8
T
 62
     7
 10
66.474298
 20
30.440185
 30
0.0
 11
66.474298
 21
31.065185
 31
0.0
  0
LINE
  8
T
 62
     7
 10
66.348298
 20
31.065185
 30
0.0
 11
66.348298
 21
30.440185
 31
0.0
  0
LINE
  8
T
 62
     7
 10
66.224298
 20
30.440185
 30
0.0
 11
66.224298
 21
31.065185
 31
0.0
  0
LINE
  8
T
 62
     7
 10
66.098298
 20
31.065185
 30
0.0
 11
66.098298
 21
30.440185
 31
0.0
  0
LINE
  8
T
 62
     7
 10
65.974298
 20
30.440185
 30
0.0
 11
65.974298
 21
31.065185
 31
0.0
  0
LINE
  8
T
 62
     7
 10
65.848298
 20
31.065185
 30
0.0
 11
65.848298
 21
30.440185
 31
0.0
  0
LINE
  8
T
 62
     7
 10
65.724298
 20
30.440185
 30
0.0
 11
65.724298
 21
31.065185
 31
0.0
  0
LINE
  8
T
 62
     7
 10
65.598298
 20
31.065185
 30
0.0
 11
65.598298
 21
30.440185
 31
0.0
  0
LINE
  8
T
 62
     7
 10
65.474298
 20
30.440185
 30
0.0
 11
65.474298
 21
31.065185
 31
0.0
  0
LINE
  8
T
 62
     7
 10
65.348298
 20
31.065185
 30
0.0
 11
65.348298
 21
30.440185
 31
0.0
  0
ARC
  8
T
 62
     7
 10
65.911298
 20
30.440185
 30
0.0
 40
0.063
 50
180.0
 51
0.0
  0
ARC
  8
T
 62
     7
 10
65.661298
 20
30.440185
 30
0.0
 40
0.063
 50
180.0
 51
0.0
  0
ARC
  8
T
 62
     7
 10
65.411298
 20
30.440185
 30
0.0
 40
0.063
 50
180.0
 51
0.0
  0
ARC
  8
T
 62
     7
 10
66.411298
 20
30.440185
 30
0.0
 40
0.063
 50
180.0
 51
0.0
  0
ARC
  8
T
 62
     7
 10
66.161298
 20
30.440185
 30
0.0
 40
0.063
 50
180.0
 51
0.0
  0
ARC
  8
T
 62
     7
 10
65.911298
 20
31.065185
 30
0.0
 40
0.063
 50
0.0
 51
180.0
  0
ARC
  8
T
 62
     7
 10
65.661298
 20
31.065185
 30
0.0
 40
0.063
 50
0.0
 51
180.0
  0
ARC
  8
T
 62
     7
 10
65.411298
 20
31.065185
 30
0.0
 40
0.063
 50
0.0
 51
180.0
  0
ARC
  8
T
 62
     7
 10
66.411298
 20
31.065185
 30
0.0
 40
0.063
 50
0.0
 51
180.0
  0
ARC
  8
T
 62
     7
 10
66.161298
 20
31.065185
 30
0.0
 40
0.063
 50
0.0
 51
180.0
  0
ARC
  8
T
 62
     7
 10
65.161298
 20
32.565185
 30
0.0
 40
0.063
 50
0.0
 51
21.054778
  0
ARC
  8
T
 62
     7
 10
64.911298
 20
32.565185
 30
0.0
 40
0.063
 50
0.0
 51
21.054778
  0
ARC
  8
T
 62
     7
 10
64.661298
 20
32.565185
 30
0.0
 40
0.063
 50
0.0
 51
21.054778
  0
ARC
  8
T
 62
     7
 10
64.411298
 20
32.565185
 30
0.0
 40
0.063
 50
0.0
 51
21.054778
  0
ARC
  8
T
 62
     7
 10
64.161298
 20
32.565185
 30
0.0
 40
0.063
 50
0.0
 51
21.054778
  0
ARC
  8
T
 62
     7
 10
63.911298
 20
32.565185
 30
0.0
 40
0.063
 50
0.0
 51
21.054778
  0
ARC
  8
T
 62
     7
 10
64.411298
 20
31.940185
 30
0.0
 40
0.063
 50
180.0
 51
0.0
  0
ARC
  8
T
 62
     7
 10
64.161298
 20
31.940185
 30
0.0
 40
0.063
 50
180.0
 51
0.0
  0
LINE
  8
T
 62
     7
 10
64.474298
 20
31.940185
 30
0.0
 11
64.474298
 21
32.565185
 31
0.0
  0
LINE
  8
T
 62
     7
 10
64.348298
 20
32.565185
 30
0.0
 11
64.348298
 21
31.940185
 31
0.0
  0
LINE
  8
T
 62
     7
 10
64.224298
 20
31.940185
 30
0.0
 11
64.224298
 21
32.565185
 31
0.0
  0
LINE
  8
T
 62
     7
 10
64.098298
 20
32.565185
 30
0.0
 11
64.098298
 21
31.940185
 31
0.0
  0
ARC
  8
T
 62
     7
 10
63.911298
 20
31.940185
 30
0.0
 40
0.063
 50
180.0
 51
0.0
  0
LINE
  8
T
 62
     7
 10
63.974298
 20
31.940185
 30
0.0
 11
63.974298
 21
32.565185
 31
0.0
  0
LINE
  8
T
 62
     7
 10
63.848298
 20
32.565185
 30
0.0
 11
63.848298
 21
31.940185
 31
0.0
  0
ARC
  8
T
 62
     7
 10
65.161298
 20
31.940185
 30
0.0
 40
0.063
 50
180.0
 51
0.0
  0
ARC
  8
T
 62
     7
 10
64.911298
 20
31.940185
 30
0.0
 40
0.063
 50
180.0
 51
0.0
  0
ARC
  8
T
 62
     7
 10
64.661298
 20
31.940185
 30
0.0
 40
0.063
 50
180.0
 51
0.0
  0
LINE
  8
T
 62
     7
 10
65.224298
 20
31.940185
 30
0.0
 11
65.224298
 21
32.565185
 31
0.0
  0
LINE
  8
T
 62
     7
 10
65.098298
 20
32.565185
 30
0.0
 11
65.098298
 21
31.940185
 31
0.0
  0
LINE
  8
T
 62
     7
 10
64.974298
 20
31.940185
 30
0.0
 11
64.974298
 21
32.565185
 31
0.0
  0
LINE
  8
T
 62
     7
 10
64.848298
 20
32.565185
 30
0.0
 11
64.848298
 21
31.940185
 31
0.0
  0
LINE
  8
T
 62
     7
 10
64.724298
 20
31.940185
 30
0.0
 11
64.724298
 21
32.565185
 31
0.0
  0
LINE
  8
T
 62
     7
 10
64.598298
 20
32.565185
 30
0.0
 11
64.598298
 21
31.940185
 31
0.0
  0
ARC
  8
T
 62
     7
 10
66.411298
 20
32.565185
 30
0.0
 40
0.063
 50
0.0
 51
21.054778
  0
ARC
  8
T
 62
     7
 10
66.161298
 20
32.565185
 30
0.0
 40
0.063
 50
0.0
 51
21.054778
  0
ARC
  8
T
 62
     7
 10
65.911298
 20
32.565185
 30
0.0
 40
0.063
 50
0.0
 51
21.054778
  0
ARC
  8
T
 62
     7
 10
65.661298
 20
32.565185
 30
0.0
 40
0.063
 50
0.0
 51
21.054778
  0
ARC
  8
T
 62
     7
 10
65.411298
 20
32.565185
 30
0.0
 40
0.063
 50
0.0
 51
21.054778
  0
ARC
  8
T
 62
     7
 10
65.911298
 20
31.940185
 30
0.0
 40
0.063
 50
180.0
 51
0.0
  0
ARC
  8
T
 62
     7
 10
65.661298
 20
31.940185
 30
0.0
 40
0.063
 50
180.0
 51
0.0
  0
ARC
  8
T
 62
     7
 10
65.411298
 20
31.940185
 30
0.0
 40
0.063
 50
180.0
 51
0.0
  0
LINE
  8
T
 62
     7
 10
65.974298
 20
31.940185
 30
0.0
 11
65.974298
 21
32.565185
 31
0.0
  0
LINE
  8
T
 62
     7
 10
65.848298
 20
32.565185
 30
0.0
 11
65.848298
 21
31.940185
 31
0.0
  0
LINE
  8
T
 62
     7
 10
65.724298
 20
31.940185
 30
0.0
 11
65.724298
 21
32.565185
 31
0.0
  0
LINE
  8
T
 62
     7
 10
65.598298
 20
32.565185
 30
0.0
 11
65.598298
 21
31.940185
 31
0.0
  0
LINE
  8
T
 62
     7
 10
65.474298
 20
31.940185
 30
0.0
 11
65.474298
 21
32.565185
 31
0.0
  0
LINE
  8
T
 62
     7
 10
65.348298
 20
32.565185
 30
0.0
 11
65.348298
 21
31.940185
 31
0.0
  0
ARC
  8
T
 62
     7
 10
66.411298
 20
31.940185
 30
0.0
 40
0.063
 50
180.0
 51
0.0
  0
ARC
  8
T
 62
     7
 10
66.161298
 20
31.940185
 30
0.0
 40
0.063
 50
180.0
 51
0.0
  0
LINE
  8
T
 62
     7
 10
66.598298
 20
32.565185
 30
0.0
 11
66.598298
 21
31.940185
 31
0.0
  0
LINE
  8
T
 62
     7
 10
66.474298
 20
31.940185
 30
0.0
 11
66.474298
 21
32.565185
 31
0.0
  0
LINE
  8
T
 62
     7
 10
66.348298
 20
32.565185
 30
0.0
 11
66.348298
 21
31.940185
 31
0.0
  0
LINE
  8
T
 62
     7
 10
66.224298
 20
31.940185
 30
0.0
 11
66.224298
 21
32.565185
 31
0.0
  0
LINE
  8
T
 62
     7
 10
66.098298
 20
32.565185
 30
0.0
 11
66.098298
 21
31.940185
 31
0.0
  0
ARC
  8
T
 62
     7
 10
69.661298
 20
31.940185
 30
0.0
 40
0.063
 50
180.0
 51
0.0
  0
ARC
  8
T
 62
     7
 10
69.661298
 20
32.565185
 30
0.0
 40
0.063
 50
0.0
 51
21.054778
  0
ARC
  8
T
 62
     7
 10
69.661298
 20
30.440185
 30
0.0
 40
0.063
 50
180.0
 51
0.0
  0
ARC
  8
T
 62
     7
 10
69.661298
 20
31.065185
 30
0.0
 40
0.063
 50
0.0
 51
180.0
  0
ARC
  8
T
 62
     7
 10
68.161298
 20
30.440185
 30
0.0
 40
0.063
 50
180.0
 51
0.0
  0
ARC
  8
T
 62
     7
 10
68.161298
 20
31.065185
 30
0.0
 40
0.063
 50
0.0
 51
180.0
  0
LINE
  8
T
 62
     7
 10
68.098298
 20
31.065185
 30
0.0
 11
68.098298
 21
30.440185
 31
0.0
  0
LINE
  8
T
 62
     7
 10
67.974298
 20
30.440185
 30
0.0
 11
67.974298
 21
31.065185
 31
0.0
  0
LINE
  8
T
 62
     7
 10
67.848298
 20
31.065185
 30
0.0
 11
67.848298
 21
30.440185
 31
0.0
  0
LINE
  8
T
 62
     7
 10
67.724298
 20
30.440185
 30
0.0
 11
67.724298
 21
31.065185
 31
0.0
  0
LINE
  8
T
 62
     7
 10
67.598298
 20
31.065185
 30
0.0
 11
67.598298
 21
30.440185
 31
0.0
  0
LINE
  8
T
 62
     7
 10
67.474298
 20
30.440185
 30
0.0
 11
67.474298
 21
31.065185
 31
0.0
  0
LINE
  8
T
 62
     7
 10
67.348298
 20
31.065185
 30
0.0
 11
67.348298
 21
30.440185
 31
0.0
  0
LINE
  8
T
 62
     7
 10
67.224298
 20
30.440185
 30
0.0
 11
67.224298
 21
31.065185
 31
0.0
  0
LINE
  8
T
 62
     7
 10
67.098298
 20
31.065185
 30
0.0
 11
67.098298
 21
30.440185
 31
0.0
  0
LINE
  8
T
 62
     7
 10
66.974298
 20
30.440185
 30
0.0
 11
66.974298
 21
31.065185
 31
0.0
  0
LINE
  8
T
 62
     7
 10
66.848298
 20
31.065185
 30
0.0
 11
66.848298
 21
30.440185
 31
0.0
  0
LINE
  8
T
 62
     7
 10
66.724298
 20
30.440185
 30
0.0
 11
66.724298
 21
31.065185
 31
0.0
  0
ARC
  8
T
 62
     7
 10
67.411298
 20
30.440185
 30
0.0
 40
0.063
 50
180.0
 51
0.0
  0
ARC
  8
T
 62
     7
 10
67.161298
 20
30.440185
 30
0.0
 40
0.063
 50
180.0
 51
0.0
  0
ARC
  8
T
 62
     7
 10
66.911298
 20
30.440185
 30
0.0
 40
0.063
 50
180.0
 51
0.0
  0
ARC
  8
T
 62
     7
 10
67.911298
 20
30.440185
 30
0.0
 40
0.063
 50
180.0
 51
0.0
  0
ARC
  8
T
 62
     7
 10
67.661298
 20
30.440185
 30
0.0
 40
0.063
 50
180.0
 51
0.0
  0
ARC
  8
T
 62
     7
 10
67.411298
 20
31.065185
 30
0.0
 40
0.063
 50
0.0
 51
180.0
  0
ARC
  8
T
 62
     7
 10
67.161298
 20
31.065185
 30
0.0
 40
0.063
 50
0.0
 51
180.0
  0
ARC
  8
T
 62
     7
 10
66.911298
 20
31.065185
 30
0.0
 40
0.063
 50
0.0
 51
180.0
  0
ARC
  8
T
 62
     7
 10
67.911298
 20
31.065185
 30
0.0
 40
0.063
 50
0.0
 51
180.0
  0
ARC
  8
T
 62
     7
 10
67.661298
 20
31.065185
 30
0.0
 40
0.063
 50
0.0
 51
180.0
  0
LINE
  8
T
 62
     7
 10
69.598298
 20
31.065185
 30
0.0
 11
69.598298
 21
30.440185
 31
0.0
  0
LINE
  8
T
 62
     7
 10
69.474298
 20
30.440185
 30
0.0
 11
69.474298
 21
31.065185
 31
0.0
  0
LINE
  8
T
 62
     7
 10
69.348298
 20
31.065185
 30
0.0
 11
69.348298
 21
30.440185
 31
0.0
  0
LINE
  8
T
 62
     7
 10
69.224298
 20
30.440185
 30
0.0
 11
69.224298
 21
31.065185
 31
0.0
  0
LINE
  8
T
 62
     7
 10
69.098298
 20
31.065185
 30
0.0
 11
69.098298
 21
30.440185
 31
0.0
  0
LINE
  8
T
 62
     7
 10
68.974298
 20
30.440185
 30
0.0
 11
68.974298
 21
31.065185
 31
0.0
  0
LINE
  8
T
 62
     7
 10
68.848298
 20
31.065185
 30
0.0
 11
68.848298
 21
30.440185
 31
0.0
  0
LINE
  8
T
 62
     7
 10
68.724298
 20
30.440185
 30
0.0
 11
68.724298
 21
31.065185
 31
0.0
  0
LINE
  8
T
 62
     7
 10
68.598298
 20
31.065185
 30
0.0
 11
68.598298
 21
30.440185
 31
0.0
  0
LINE
  8
T
 62
     7
 10
68.474298
 20
30.440185
 30
0.0
 11
68.474298
 21
31.065185
 31
0.0
  0
LINE
  8
T
 62
     7
 10
68.348298
 20
31.065185
 30
0.0
 11
68.348298
 21
30.440185
 31
0.0
  0
LINE
  8
T
 62
     7
 10
68.224298
 20
30.440185
 30
0.0
 11
68.224298
 21
31.065185
 31
0.0
  0
ARC
  8
T
 62
     7
 10
68.911298
 20
30.440185
 30
0.0
 40
0.063
 50
180.0
 51
0.0
  0
ARC
  8
T
 62
     7
 10
68.661298
 20
30.440185
 30
0.0
 40
0.063
 50
180.0
 51
0.0
  0
ARC
  8
T
 62
     7
 10
68.411298
 20
30.440185
 30
0.0
 40
0.063
 50
180.0
 51
0.0
  0
ARC
  8
T
 62
     7
 10
69.411298
 20
30.440185
 30
0.0
 40
0.063
 50
180.0
 51
0.0
  0
ARC
  8
T
 62
     7
 10
69.161298
 20
30.440185
 30
0.0
 40
0.063
 50
180.0
 51
0.0
  0
ARC
  8
T
 62
     7
 10
68.911298
 20
31.065185
 30
0.0
 40
0.063
 50
0.0
 51
180.0
  0
ARC
  8
T
 62
     7
 10
68.661298
 20
31.065185
 30
0.0
 40
0.063
 50
0.0
 51
180.0
  0
ARC
  8
T
 62
     7
 10
68.411298
 20
31.065185
 30
0.0
 40
0.063
 50
0.0
 51
180.0
  0
ARC
  8
T
 62
     7
 10
69.411298
 20
31.065185
 30
0.0
 40
0.063
 50
0.0
 51
180.0
  0
ARC
  8
T
 62
     7
 10
69.161298
 20
31.065185
 30
0.0
 40
0.063
 50
0.0
 51
180.0
  0
ARC
  8
T
 62
     7
 10
68.161298
 20
31.940185
 30
0.0
 40
0.063
 50
180.0
 51
0.0
  0
ARC
  8
T
 62
     7
 10
68.161298
 20
32.565185
 30
0.0
 40
0.063
 50
0.0
 51
21.054778
  0
ARC
  8
T
 62
     7
 10
67.911298
 20
32.565185
 30
0.0
 40
0.063
 50
0.0
 51
21.054778
  0
ARC
  8
T
 62
     7
 10
67.661298
 20
32.565185
 30
0.0
 40
0.063
 50
0.0
 51
21.054778
  0
ARC
  8
T
 62
     7
 10
67.411298
 20
32.565185
 30
0.0
 40
0.063
 50
0.0
 51
21.054778
  0
ARC
  8
T
 62
     7
 10
67.161298
 20
32.565185
 30
0.0
 40
0.063
 50
0.0
 51
21.054778
  0
ARC
  8
T
 62
     7
 10
66.911298
 20
32.565185
 30
0.0
 40
0.063
 50
0.0
 51
21.054778
  0
ARC
  8
T
 62
     7
 10
67.411298
 20
31.940185
 30
0.0
 40
0.063
 50
180.0
 51
0.0
  0
ARC
  8
T
 62
     7
 10
67.161298
 20
31.940185
 30
0.0
 40
0.063
 50
180.0
 51
0.0
  0
LINE
  8
T
 62
     7
 10
67.348298
 20
32.565185
 30
0.0
 11
67.348298
 21
31.940185
 31
0.0
  0
LINE
  8
T
 62
     7
 10
67.224298
 20
31.940185
 30
0.0
 11
67.224298
 21
32.565185
 31
0.0
  0
LINE
  8
T
 62
     7
 10
67.098298
 20
32.565185
 30
0.0
 11
67.098298
 21
31.940185
 31
0.0
  0
ARC
  8
T
 62
     7
 10
66.911298
 20
31.940185
 30
0.0
 40
0.063
 50
180.0
 51
0.0
  0
LINE
  8
T
 62
     7
 10
66.974298
 20
31.940185
 30
0.0
 11
66.974298
 21
32.565185
 31
0.0
  0
LINE
  8
T
 62
     7
 10
66.848298
 20
32.565185
 30
0.0
 11
66.848298
 21
31.940185
 31
0.0
  0
LINE
  8
T
 62
     7
 10
66.724298
 20
31.940185
 30
0.0
 11
66.724298
 21
32.565185
 31
0.0
  0
ARC
  8
T
 62
     7
 10
67.911298
 20
31.940185
 30
0.0
 40
0.063
 50
180.0
 51
0.0
  0
ARC
  8
T
 62
     7
 10
67.661298
 20
31.940185
 30
0.0
 40
0.063
 50
180.0
 51
0.0
  0
LINE
  8
T
 62
     7
 10
68.098298
 20
32.565185
 30
0.0
 11
68.098298
 21
31.940185
 31
0.0
  0
LINE
  8
T
 62
     7
 10
67.974298
 20
31.940185
 30
0.0
 11
67.974298
 21
32.565185
 31
0.0
  0
LINE
  8
T
 62
     7
 10
67.848298
 20
32.565185
 30
0.0
 11
67.848298
 21
31.940185
 31
0.0
  0
LINE
  8
T
 62
     7
 10
67.724298
 20
31.940185
 30
0.0
 11
67.724298
 21
32.565185
 31
0.0
  0
LINE
  8
T
 62
     7
 10
67.598298
 20
32.565185
 30
0.0
 11
67.598298
 21
31.940185
 31
0.0
  0
LINE
  8
T
 62
     7
 10
67.474298
 20
31.940185
 30
0.0
 11
67.474298
 21
32.565185
 31
0.0
  0
ARC
  8
T
 62
     7
 10
69.411298
 20
32.565185
 30
0.0
 40
0.063
 50
0.0
 51
21.054778
  0
ARC
  8
T
 62
     7
 10
69.161298
 20
32.565185
 30
0.0
 40
0.063
 50
0.0
 51
21.054778
  0
ARC
  8
T
 62
     7
 10
68.911298
 20
32.565185
 30
0.0
 40
0.063
 50
0.0
 51
21.054778
  0
ARC
  8
T
 62
     7
 10
68.661298
 20
32.565185
 30
0.0
 40
0.063
 50
0.0
 51
21.054778
  0
ARC
  8
T
 62
     7
 10
68.411298
 20
32.565185
 30
0.0
 40
0.063
 50
0.0
 51
21.054778
  0
ARC
  8
T
 62
     7
 10
68.911298
 20
31.940185
 30
0.0
 40
0.063
 50
180.0
 51
0.0
  0
ARC
  8
T
 62
     7
 10
68.661298
 20
31.940185
 30
0.0
 40
0.063
 50
180.0
 51
0.0
  0
ARC
  8
T
 62
     7
 10
68.411298
 20
31.940185
 30
0.0
 40
0.063
 50
180.0
 51
0.0
  0
LINE
  8
T
 62
     7
 10
68.848298
 20
32.565185
 30
0.0
 11
68.848298
 21
31.940185
 31
0.0
  0
LINE
  8
T
 62
     7
 10
68.724298
 20
31.940185
 30
0.0
 11
68.724298
 21
32.565185
 31
0.0
  0
LINE
  8
T
 62
     7
 10
68.598298
 20
32.565185
 30
0.0
 11
68.598298
 21
31.940185
 31
0.0
  0
LINE
  8
T
 62
     7
 10
68.474298
 20
31.940185
 30
0.0
 11
68.474298
 21
32.565185
 31
0.0
  0
LINE
  8
T
 62
     7
 10
68.348298
 20
32.565185
 30
0.0
 11
68.348298
 21
31.940185
 31
0.0
  0
LINE
  8
T
 62
     7
 10
68.224298
 20
31.940185
 30
0.0
 11
68.224298
 21
32.565185
 31
0.0
  0
ARC
  8
T
 62
     7
 10
69.411298
 20
31.940185
 30
0.0
 40
0.063
 50
180.0
 51
0.0
  0
ARC
  8
T
 62
     7
 10
69.161298
 20
31.940185
 30
0.0
 40
0.063
 50
180.0
 51
0.0
  0
LINE
  8
T
 62
     7
 10
69.598298
 20
32.565185
 30
0.0
 11
69.598298
 21
31.940185
 31
0.0
  0
LINE
  8
T
 62
     7
 10
69.474298
 20
31.940185
 30
0.0
 11
69.474298
 21
32.565185
 31
0.0
  0
LINE
  8
T
 62
     7
 10
69.348298
 20
32.565185
 30
0.0
 11
69.348298
 21
31.940185
 31
0.0
  0
LINE
  8
T
 62
     7
 10
69.224298
 20
31.940185
 30
0.0
 11
69.224298
 21
32.565185
 31
0.0
  0
LINE
  8
T
 62
     7
 10
69.098298
 20
32.565185
 30
0.0
 11
69.098298
 21
31.940185
 31
0.0
  0
LINE
  8
T
 62
     7
 10
68.974298
 20
31.940185
 30
0.0
 11
68.974298
 21
32.565185
 31
0.0
  0
LINE
  8
T
 62
     7
 10
69.974298
 20
30.440185
 30
0.0
 11
69.974298
 21
31.065185
 31
0.0
  0
LINE
  8
T
 62
     7
 10
69.848298
 20
31.065185
 30
0.0
 11
69.848298
 21
30.440185
 31
0.0
  0
LINE
  8
T
 62
     7
 10
69.724298
 20
30.440185
 30
0.0
 11
69.724298
 21
31.065185
 31
0.0
  0
LINE
  8
T
 62
     7
 10
70.098798
 20
30.440685
 30
0.0
 11
70.098798
 21
31.065685
 31
0.0
  0
ARC
  8
T
 62
     7
 10
69.911298
 20
30.440185
 30
0.0
 40
0.063
 50
180.0
 51
0.0
  0
ARC
  8
T
 62
     7
 10
70.161298
 20
30.440685
 30
0.0
 40
0.0625
 50
180.0
 51
238.132422
  0
ARC
  8
T
 62
     7
 10
69.911298
 20
31.065185
 30
0.0
 40
0.063
 50
0.0
 51
180.0
  0
ARC
  8
T
 62
     7
 10
70.161298
 20
31.065685
 30
0.0
 40
0.0625
 50
121.867578
 51
180.0
  0
ARC
  8
T
 62
     7
 10
69.911298
 20
32.565185
 30
0.0
 40
0.063
 50
0.0
 51
21.054778
  0
ARC
  8
T
 62
     7
 10
70.161298
 20
32.565685
 30
0.0
 40
0.0625
 50
159.259595
 51
180.0
  0
ARC
  8
T
 62
     7
 10
69.911298
 20
31.940185
 30
0.0
 40
0.063
 50
180.0
 51
0.0
  0
LINE
  8
T
 62
     7
 10
69.974298
 20
31.940185
 30
0.0
 11
69.974298
 21
32.565185
 31
0.0
  0
LINE
  8
T
 62
     7
 10
69.848298
 20
32.565185
 30
0.0
 11
69.848298
 21
31.940185
 31
0.0
  0
LINE
  8
T
 62
     7
 10
69.724298
 20
31.940185
 30
0.0
 11
69.724298
 21
32.565185
 31
0.0
  0
ARC
  8
T
 62
     7
 10
70.161298
 20
31.940685
 30
0.0
 40
0.0625
 50
180.0
 51
238.132422
  0
LINE
  8
T
 62
     7
 10
70.098798
 20
31.940685
 30
0.0
 11
70.098798
 21
32.565685
 31
0.0
  0
ARC
  8
T
 62
     7
 10
52.411298
 20
32.565185
 30
0.0
 40
0.063
 50
158.945222
 51
180.0
  0
ARC
  8
T
 62
     7
 10
52.661298
 20
32.565185
 30
0.0
 40
0.063
 50
158.945222
 51
180.0
  0
ARC
  8
T
 62
     7
 10
52.911298
 20
32.565185
 30
0.0
 40
0.063
 50
158.945222
 51
180.0
  0
ARC
  8
T
 62
     7
 10
53.161298
 20
32.565185
 30
0.0
 40
0.063
 50
158.945222
 51
180.0
  0
ARC
  8
T
 62
     7
 10
53.911298
 20
32.565185
 30
0.0
 40
0.063
 50
158.945222
 51
180.0
  0
ARC
  8
T
 62
     7
 10
54.411298
 20
32.565185
 30
0.0
 40
0.063
 50
158.945222
 51
180.0
  0
ARC
  8
T
 62
     7
 10
54.161298
 20
32.565185
 30
0.0
 40
0.063
 50
158.945222
 51
180.0
  0
ARC
  8
T
 62
     7
 10
53.661298
 20
32.565185
 30
0.0
 40
0.063
 50
158.945222
 51
180.0
  0
ARC
  8
T
 62
     7
 10
53.411298
 20
32.565185
 30
0.0
 40
0.063
 50
158.945222
 51
180.0
  0
ARC
  8
T
 62
     7
 10
54.661298
 20
32.565185
 30
0.0
 40
0.063
 50
158.945222
 51
180.0
  0
ARC
  8
T
 62
     7
 10
54.911298
 20
32.565185
 30
0.0
 40
0.063
 50
158.945222
 51
180.0
  0
ARC
  8
T
 62
     7
 10
55.161298
 20
32.565185
 30
0.0
 40
0.063
 50
158.945222
 51
180.0
  0
ARC
  8
T
 62
     7
 10
55.411298
 20
32.565185
 30
0.0
 40
0.063
 50
158.945222
 51
180.0
  0
ARC
  8
T
 62
     7
 10
55.661298
 20
32.565185
 30
0.0
 40
0.063
 50
158.945222
 51
180.0
  0
ARC
  8
T
 62
     7
 10
55.911298
 20
32.565185
 30
0.0
 40
0.063
 50
158.945222
 51
180.0
  0
ARC
  8
T
 62
     7
 10
56.161298
 20
32.565185
 30
0.0
 40
0.063
 50
158.945222
 51
180.0
  0
ARC
  8
T
 62
     7
 10
56.411298
 20
32.565185
 30
0.0
 40
0.063
 50
158.945222
 51
180.0
  0
ARC
  8
T
 62
     7
 10
56.661298
 20
32.565185
 30
0.0
 40
0.063
 50
158.945222
 51
180.0
  0
ARC
  8
T
 62
     7
 10
56.911298
 20
32.565185
 30
0.0
 40
0.063
 50
158.945222
 51
180.0
  0
ARC
  8
T
 62
     7
 10
57.161298
 20
32.565185
 30
0.0
 40
0.063
 50
158.945222
 51
180.0
  0
ARC
  8
T
 62
     7
 10
57.411298
 20
32.565185
 30
0.0
 40
0.063
 50
158.945222
 51
180.0
  0
ARC
  8
T
 62
     7
 10
57.661298
 20
32.565185
 30
0.0
 40
0.063
 50
158.945222
 51
180.0
  0
ARC
  8
T
 62
     7
 10
57.911298
 20
32.565185
 30
0.0
 40
0.063
 50
158.945222
 51
180.0
  0
ARC
  8
T
 62
     7
 10
58.161298
 20
32.565185
 30
0.0
 40
0.063
 50
158.945222
 51
180.0
  0
ARC
  8
T
 62
     7
 10
58.411298
 20
32.565185
 30
0.0
 40
0.063
 50
158.945222
 51
180.0
  0
ARC
  8
T
 62
     7
 10
58.911298
 20
32.565185
 30
0.0
 40
0.063
 50
158.945222
 51
180.0
  0
ARC
  8
T
 62
     7
 10
58.661298
 20
32.565185
 30
0.0
 40
0.063
 50
158.945222
 51
180.0
  0
ARC
  8
T
 62
     7
 10
59.161298
 20
32.565185
 30
0.0
 40
0.063
 50
158.945222
 51
180.0
  0
ARC
  8
T
 62
     7
 10
59.411298
 20
32.565185
 30
0.0
 40
0.063
 50
158.945222
 51
180.0
  0
ARC
  8
T
 62
     7
 10
59.661298
 20
32.565185
 30
0.0
 40
0.063
 50
158.945222
 51
180.0
  0
ARC
  8
T
 62
     7
 10
59.911298
 20
32.565185
 30
0.0
 40
0.063
 50
158.945222
 51
180.0
  0
ARC
  8
T
 62
     7
 10
60.161298
 20
32.565185
 30
0.0
 40
0.063
 50
158.945222
 51
180.0
  0
ARC
  8
T
 62
     7
 10
60.411298
 20
32.565185
 30
0.0
 40
0.063
 50
158.945222
 51
180.0
  0
ARC
  8
T
 62
     7
 10
60.661298
 20
32.565185
 30
0.0
 40
0.063
 50
158.945222
 51
180.0
  0
ARC
  8
T
 62
     7
 10
60.911298
 20
32.565185
 30
0.0
 40
0.063
 50
158.945222
 51
180.0
  0
ARC
  8
T
 62
     7
 10
61.161298
 20
32.565185
 30
0.0
 40
0.063
 50
158.945222
 51
180.0
  0
ARC
  8
T
 62
     7
 10
61.411298
 20
32.565185
 30
0.0
 40
0.063
 50
158.945222
 51
180.0
  0
ARC
  8
T
 62
     7
 10
61.661298
 20
32.565185
 30
0.0
 40
0.063
 50
158.945222
 51
180.0
  0
ARC
  8
T
 62
     7
 10
61.911298
 20
32.565185
 30
0.0
 40
0.063
 50
158.945222
 51
180.0
  0
ARC
  8
T
 62
     7
 10
62.161298
 20
32.565185
 30
0.0
 40
0.063
 50
158.945222
 51
180.0
  0
ARC
  8
T
 62
     7
 10
62.411298
 20
32.565185
 30
0.0
 40
0.063
 50
158.945222
 51
180.0
  0
ARC
  8
T
 62
     7
 10
62.661298
 20
32.565185
 30
0.0
 40
0.063
 50
158.945222
 51
180.0
  0
ARC
  8
T
 62
     7
 10
62.911298
 20
32.565185
 30
0.0
 40
0.063
 50
158.945222
 51
180.0
  0
ARC
  8
T
 62
     7
 10
63.161298
 20
32.565185
 30
0.0
 40
0.063
 50
158.945222
 51
180.0
  0
ARC
  8
T
 62
     7
 10
63.411298
 20
32.565185
 30
0.0
 40
0.063
 50
158.945222
 51
180.0
  0
ARC
  8
T
 62
     7
 10
63.661298
 20
32.565185
 30
0.0
 40
0.063
 50
158.945222
 51
180.0
  0
ARC
  8
T
 62
     7
 10
63.911298
 20
32.565185
 30
0.0
 40
0.063
 50
158.945222
 51
180.0
  0
ARC
  8
T
 62
     7
 10
64.161298
 20
32.565185
 30
0.0
 40
0.063
 50
158.945222
 51
180.0
  0
ARC
  8
T
 62
     7
 10
64.411298
 20
32.565185
 30
0.0
 40
0.063
 50
158.945222
 51
180.0
  0
ARC
  8
T
 62
     7
 10
64.661298
 20
32.565185
 30
0.0
 40
0.063
 50
158.945222
 51
180.0
  0
ARC
  8
T
 62
     7
 10
64.911298
 20
32.565185
 30
0.0
 40
0.063
 50
158.945222
 51
180.0
  0
ARC
  8
T
 62
     7
 10
65.161298
 20
32.565185
 30
0.0
 40
0.063
 50
158.945222
 51
180.0
  0
ARC
  8
T
 62
     7
 10
65.411298
 20
32.565185
 30
0.0
 40
0.063
 50
158.945222
 51
180.0
  0
ARC
  8
T
 62
     7
 10
65.661298
 20
32.565185
 30
0.0
 40
0.063
 50
158.945222
 51
180.0
  0
ARC
  8
T
 62
     7
 10
65.911298
 20
32.565185
 30
0.0
 40
0.063
 50
158.945222
 51
180.0
  0
ARC
  8
T
 62
     7
 10
66.161298
 20
32.565185
 30
0.0
 40
0.063
 50
158.945222
 51
180.0
  0
ARC
  8
T
 62
     7
 10
66.411298
 20
32.565185
 30
0.0
 40
0.063
 50
158.945222
 51
180.0
  0
ARC
  8
T
 62
     7
 10
66.661298
 20
32.565185
 30
0.0
 40
0.063
 50
158.945222
 51
180.0
  0
ARC
  8
T
 62
     7
 10
66.911298
 20
32.565185
 30
0.0
 40
0.063
 50
158.945222
 51
180.0
  0
ARC
  8
T
 62
     7
 10
67.161298
 20
32.565185
 30
0.0
 40
0.063
 50
158.945222
 51
180.0
  0
ARC
  8
T
 62
     7
 10
67.411298
 20
32.565185
 30
0.0
 40
0.063
 50
158.945222
 51
180.0
  0
ARC
  8
T
 62
     7
 10
67.661298
 20
32.565185
 30
0.0
 40
0.063
 50
158.945222
 51
180.0
  0
ARC
  8
T
 62
     7
 10
67.911298
 20
32.565185
 30
0.0
 40
0.063
 50
158.945222
 51
180.0
  0
ARC
  8
T
 62
     7
 10
68.161298
 20
32.565185
 30
0.0
 40
0.063
 50
158.945222
 51
180.0
  0
ARC
  8
T
 62
     7
 10
68.411298
 20
32.565185
 30
0.0
 40
0.063
 50
158.945222
 51
180.0
  0
ARC
  8
T
 62
     7
 10
68.661298
 20
32.565185
 30
0.0
 40
0.063
 50
158.945222
 51
180.0
  0
ARC
  8
T
 62
     7
 10
68.911298
 20
32.565185
 30
0.0
 40
0.063
 50
158.945222
 51
180.0
  0
ARC
  8
T
 62
     7
 10
69.161298
 20
32.565185
 30
0.0
 40
0.063
 50
158.945222
 51
180.0
  0
ARC
  8
T
 62
     7
 10
69.411298
 20
32.565185
 30
0.0
 40
0.063
 50
158.945222
 51
180.0
  0
ARC
  8
T
 62
     7
 10
69.661298
 20
32.565185
 30
0.0
 40
0.063
 50
158.945222
 51
180.0
  0
ARC
  8
T
 62
     7
 10
69.911298
 20
32.565185
 30
0.0
 40
0.063
 50
158.945222
 51
180.0
  0
LINE
  8
CENTER
 62
     7
 10
37.486715
 20
28.481256
 30
0.0
 11
37.486715
 21
28.727294
 31
0.0
  0
ENDSEC
  0
EOF
