  0
SECTION
  2
HEADER
  9
$ACADVER
  1
AC1015
  9
$ACADMAINTVER
 70
     6
  9
$DWGCODEPAGE
  3
ANSI_1252
  9
$INSBASE
 10
0.0
 20
0.0
 30
0.0
  9
$EXTMIN
 10
0.0
 20
0.0
 30
0.0
  9
$EXTMAX
 10
20.24
 20
16.33599999999999
 30
0.0
  9
$LIMMIN
 10
0.0
 20
0.0
  9
$LIMMAX
 10
20.24
 20
31.0
  9
$ORTHOMODE
 70
     0
  9
$REGENMODE
 70
     1
  9
$FILLMODE
 70
     1
  9
$QTEXTMODE
 70
     0
  9
$MIRRTEXT
 70
     0
  9
$LTSCALE
 40
0.75
  9
$ATTMODE
 70
     1
  9
$TEXTSIZE
 40
0.25
  9
$TRACEWID
 40
0.05
  9
$TEXTSTYLE
  7
TXT
  9
$CLAYER
  8
OBJECT
  9
$CELTYPE
  6
ByLayer
  9
$CECOLOR
 62
   256
  9
$CELTSCALE
 40
1.0
  9
$DISPSILH
 70
     0
  9
$DIMSCALE
 40
2.0
  9
$DIMASZ
 40
0.18
  9
$DIMEXO
 40
0.063
  9
$DIMDLI
 40
0.281
  9
$DIMRND
 40
0.0
  9
$DIMDLE
 40
0.0
  9
$DIMEXE
 40
0.093
  9
$DIMTP
 40
0.0
  9
$DIMTM
 40
0.0
  9
$DIMTXT
 40
0.125
  9
$DIMCEN
 40
0.09
  9
$DIMTSZ
 40
0.0
  9
$DIMTOL
 70
     0
  9
$DIMLIM
 70
     0
  9
$DIMTIH
 70
     1
  9
$DIMTOH
 70
     1
  9
$DIMSE1
 70
     0
  9
$DIMSE2
 70
     0
  9
$DIMTAD
 70
     0
  9
$DIMZIN
 70
     0
  9
$DIMBLK
  1

  9
$DIMASO
 70
     1
  9
$DIMSHO
 70
     1
  9
$DIMPOST
  1

  9
$DIMAPOST
  1

  9
$DIMALT
 70
     0
  9
$DIMALTD
 70
     2
  9
$DIMALTF
 40
25.4
  9
$DIMLFAC
 40
1.0
  9
$DIMTOFL
 70
     0
  9
$DIMTVP
 40
0.0
  9
$DIMTIX
 70
     0
  9
$DIMSOXD
 70
     0
  9
$DIMSAH
 70
     0
  9
$DIMBLK1
  1

  9
$DIMBLK2
  1

  9
$DIMSTYLE
  2
23NSTD
  9
$DIMCLRD
 70
     0
  9
$DIMCLRE
 70
     0
  9
$DIMCLRT
 70
     0
  9
$DIMTFAC
 40
1.0
  9
$DIMGAP
 40
0.09
  9
$DIMJUST
 70
     0
  9
$DIMSD1
 70
     0
  9
$DIMSD2
 70
     0
  9
$DIMTOLJ
 70
     1
  9
$DIMTZIN
 70
     0
  9
$DIMALTZ
 70
     0
  9
$DIMALTTZ
 70
     0
  9
$DIMUPT
 70
     0
  9
$DIMDEC
 70
     3
  9
$DIMTDEC
 70
     3
  9
$DIMALTU
 70
     2
  9
$DIMALTTD
 70
     2
  9
$DIMTXSTY
  7
TXT
  9
$DIMAUNIT
 70
     1
  9
$DIMADEC
 70
     0
  9
$DIMALTRND
 40
0.0
  9
$DIMAZIN
 70
     0
  9
$DIMDSEP
 70
    46
  9
$DIMATFIT
 70
     1
  9
$DIMFRAC
 70
     0
  9
$DIMLDRBLK
  1

  9
$DIMLUNIT
 70
     2
  9
$DIMLWD
 70
    -2
  9
$DIMLWE
 70
    -2
  9
$DIMTMOVE
 70
     0
  9
$LUNITS
 70
     2
  9
$LUPREC
 70
     3
  9
$SKETCHINC
 40
0.1
  9
$FILLETRAD
 40
0.0
  9
$AUNITS
 70
     1
  9
$AUPREC
 70
     1
  9
$MENU
  1
acad
  9
$ELEVATION
 40
0.0
  9
$PELEVATION
 40
0.0
  9
$THICKNESS
 40
0.0
  9
$LIMCHECK
 70
     0
  9
$CHAMFERA
 40
0.0
  9
$CHAMFERB
 40
0.0
  9
$CHAMFERC
 40
0.0
  9
$CHAMFERD
 40
0.0
  9
$SKPOLY
 70
     0
  9
$TDCREATE
 40
2448371.324109259
  9
$TDUCREATE
 40
2448371.490775925
  9
$TDUPDATE
 40
2454936.388292453
  9
$TDUUPDATE
 40
2454936.554959120
  9
$TDINDWG
 40
0.3561196759
  9
$TDUSRTIMER
 40
0.3561196759
  9
$USRTIMER
 70
     1
  9
$ANGBASE
 50
0.0
  9
$ANGDIR
 70
     0
  9
$PDMODE
 70
     0
  9
$PDSIZE
 40
0.0
  9
$PLINEWID
 40
0.0
  9
$SPLFRAME
 70
     0
  9
$SPLINETYPE
 70
     6
  9
$SPLINESEGS
 70
     8
  9
$HANDSEED
  5
ADE
  9
$SURFTAB1
 70
     6
  9
$SURFTAB2
 70
     6
  9
$SURFTYPE
 70
     6
  9
$SURFU
 70
     6
  9
$SURFV
 70
     6
  9
$UCSBASE
  2

  9
$UCSNAME
  2

  9
$UCSORG
 10
0.0
 20
0.0
 30
0.0
  9
$UCSXDIR
 10
1.0
 20
0.0
 30
0.0
  9
$UCSYDIR
 10
0.0
 20
1.0
 30
0.0
  9
$UCSORTHOREF
  2

  9
$UCSORTHOVIEW
 70
     0
  9
$UCSORGTOP
 10
0.0
 20
0.0
 30
0.0
  9
$UCSORGBOTTOM
 10
0.0
 20
0.0
 30
0.0
  9
$UCSORGLEFT
 10
0.0
 20
0.0
 30
0.0
  9
$UCSORGRIGHT
 10
0.0
 20
0.0
 30
0.0
  9
$UCSORGFRONT
 10
0.0
 20
0.0
 30
0.0
  9
$UCSORGBACK
 10
0.0
 20
0.0
 30
0.0
  9
$PUCSBASE
  2

  9
$PUCSNAME
  2

  9
$PUCSORG
 10
0.0
 20
0.0
 30
0.0
  9
$PUCSXDIR
 10
1.0
 20
0.0
 30
0.0
  9
$PUCSYDIR
 10
0.0
 20
1.0
 30
0.0
  9
$PUCSORTHOREF
  2

  9
$PUCSORTHOVIEW
 70
     0
  9
$PUCSORGTOP
 10
0.0
 20
0.0
 30
0.0
  9
$PUCSORGBOTTOM
 10
0.0
 20
0.0
 30
0.0
  9
$PUCSORGLEFT
 10
0.0
 20
0.0
 30
0.0
  9
$PUCSORGRIGHT
 10
0.0
 20
0.0
 30
0.0
  9
$PUCSORGFRONT
 10
0.0
 20
0.0
 30
0.0
  9
$PUCSORGBACK
 10
0.0
 20
0.0
 30
0.0
  9
$USERI1
 70
     0
  9
$USERI2
 70
     0
  9
$USERI3
 70
     0
  9
$USERI4
 70
     0
  9
$USERI5
 70
     0
  9
$USERR1
 40
0.0
  9
$USERR2
 40
0.0
  9
$USERR3
 40
0.0
  9
$USERR4
 40
0.0
  9
$USERR5
 40
0.0
  9
$WORLDVIEW
 70
     1
  9
$SHADEDGE
 70
     3
  9
$SHADEDIF
 70
    70
  9
$TILEMODE
 70
     1
  9
$MAXACTVP
 70
    16
  9
$PINSBASE
 10
0.0
 20
0.0
 30
0.0
  9
$PLIMCHECK
 70
     0
  9
$PEXTMIN
 10
1.000000000000000E+20
 20
1.000000000000000E+20
 30
1.000000000000000E+20
  9
$PEXTMAX
 10
-1.000000000000000E+20
 20
-1.000000000000000E+20
 30
-1.000000000000000E+20
  9
$PLIMMIN
 10
0.0
 20
0.0
  9
$PLIMMAX
 10
12.0
 20
9.0
  9
$UNITMODE
 70
     0
  9
$VISRETAIN
 70
     0
  9
$PLINEGEN
 70
     0
  9
$PSLTSCALE
 70
     0
  9
$TREEDEPTH
 70
  3020
  9
$CMLSTYLE
  2
Standard
  9
$CMLJUST
 70
     0
  9
$CMLSCALE
 40
1.0
  9
$PROXYGRAPHICS
 70
     1
  9
$MEASUREMENT
 70
     0
  9
$CELWEIGHT
370
    -1
  9
$ENDCAPS
280
     0
  9
$JOINSTYLE
280
     0
  9
$LWDISPLAY
290
     0
  9
$INSUNITS
 70
     0
  9
$HYPERLINKBASE
  1

  9
$STYLESHEET
  1
monochrome.ctb
  9
$XEDIT
290
     1
  9
$CEPSNTYPE
380
     0
  9
$PSTYLEMODE
290
     1
  9
$FINGERPRINTGUID
  2
{0F7FB0A9-B5ED-4823-A420-A9872212CB33}
  9
$VERSIONGUID
  2
{F69CA02A-6D1F-44CE-A5C7-B669D4FC0BB2}
  9
$EXTNAMES
290
     1
  9
$PSVPSCALE
 40
0.0
  9
$OLESTARTUP
290
     0
  0
ENDSEC
  0
SECTION
  2
CLASSES
  0
CLASS
  1
ACDBDICTIONARYWDFLT
  2
AcDbDictionaryWithDefault
  3
AutoCAD 2000
 90
        0
280
     0
281
     0
  0
CLASS
  1
ACDBPLACEHOLDER
  2
AcDbPlaceHolder
  3
AutoCAD 2000
 90
        0
280
     0
281
     0
  0
CLASS
  1
LAYOUT
  2
AcDbLayout
  3
AutoCAD 2000
 90
        0
280
     0
281
     0
  0
ENDSEC
  0
SECTION
  2
TABLES
  0
TABLE
  2
VPORT
  5
8
330
0
100
AcDbSymbolTable
 70
     2
  0
VPORT
  5
ADD
330
8
100
AcDbSymbolTableRecord
100
AcDbViewportTableRecord
  2
*Active
 70
     0
 10
0.0
 20
0.0
 11
1.0
 21
1.0
 12
11.87322681871441
 22
8.16759293142485
 13
0.0
 23
0.0
 14
1.0
 24
1.0
 15
0.5
 25
0.5
 16
0.0
 26
0.0
 36
1.0
 17
0.0
 27
0.0
 37
0.0
 40
16.52029633607176
 41
1.987577639751552
 42
50.0
 43
0.0
 44
0.0
 50
0.0
 51
0.0
 71
     0
 72
   100
 73
     1
 74
     0
 75
     0
 76
     0
 77
     0
 78
     0
281
     0
 65
     1
110
0.0
120
0.0
130
0.0
111
1.0
121
0.0
131
0.0
112
0.0
122
1.0
132
0.0
 79
     0
146
0.0
  0
ENDTAB
  0
TABLE
  2
LTYPE
  5
5
330
0
100
AcDbSymbolTable
 70
     4
  0
LTYPE
  5
13
330
5
100
AcDbSymbolTableRecord
100
AcDbLinetypeTableRecord
  2
ByBlock
 70
     0
  3

 72
    65
 73
     0
 40
0.0
  0
LTYPE
  5
14
330
5
100
AcDbSymbolTableRecord
100
AcDbLinetypeTableRecord
  2
ByLayer
 70
     0
  3

 72
    65
 73
     0
 40
0.0
  0
LTYPE
  5
15
330
5
100
AcDbSymbolTableRecord
100
AcDbLinetypeTableRecord
  2
CONTINUOUS
 70
     0
  3
Solid line
 72
    65
 73
     0
 40
0.0
  0
LTYPE
  5
25
330
5
100
AcDbSymbolTableRecord
100
AcDbLinetypeTableRecord
  2
HIDDEN
 70
     0
  3
_ _ _ _ _ _ _ _ _ _ _ _ _ _ _ _ _ _ _ _ _ _ _
 72
    65
 73
     2
 40
0.375
 49
0.25
 74
     0
 49
-0.125
 74
     0
  0
LTYPE
  5
26
330
5
100
AcDbSymbolTableRecord
100
AcDbLinetypeTableRecord
  2
PHANTOM
 70
     0
  3
_____ _ _ _____ _ _ _____ _ _ _____ _ _ ____
 72
    65
 73
     6
 40
2.5
 49
1.25
 74
     0
 49
-0.25
 74
     0
 49
0.25
 74
     0
 49
-0.25
 74
     0
 49
0.25
 74
     0
 49
-0.25
 74
     0
  0
LTYPE
  5
27
330
5
100
AcDbSymbolTableRecord
100
AcDbLinetypeTableRecord
  2
CENTER
 70
     0
  3
____ _ ____ _ ____ _ ____ _ ____ _ ____ _ ____
 72
    65
 73
     4
 40
2.0
 49
1.25
 74
     0
 49
-0.25
 74
     0
 49
0.25
 74
     0
 49
-0.25
 74
     0
  0
ENDTAB
  0
TABLE
  2
LAYER
  5
2
330
0
100
AcDbSymbolTable
 70
     9
  0
LAYER
  5
10
330
2
100
AcDbSymbolTableRecord
100
AcDbLayerTableRecord
  2
0
 70
     0
 62
     7
  6
CONTINUOUS
370
    -3
390
F
  0
LAYER
  5
22
330
2
100
AcDbSymbolTableRecord
100
AcDbLayerTableRecord
  2
OBJECT
 70
     0
 62
     7
  6
CONTINUOUS
370
    -3
390
F
  0
LAYER
  5
28
330
2
100
AcDbSymbolTableRecord
100
AcDbLayerTableRecord
  2
DIM
 70
     0
 62
     7
  6
CONTINUOUS
370
    -3
390
F
  0
LAYER
  5
29
330
2
100
AcDbSymbolTableRecord
100
AcDbLayerTableRecord
  2
HIDDEN
 70
     0
 62
     7
  6
HIDDEN
370
    -3
390
F
  0
LAYER
  5
2A
330
2
100
AcDbSymbolTableRecord
100
AcDbLayerTableRecord
  2
BEND
 70
     0
 62
     7
  6
PHANTOM
370
    -3
390
F
  0
LAYER
  5
2B
330
2
100
AcDbSymbolTableRecord
100
AcDbLayerTableRecord
  2
TEXT
 70
     0
 62
     7
  6
CONTINUOUS
370
    -3
390
F
  0
LAYER
  5
2C
330
2
100
AcDbSymbolTableRecord
100
AcDbLayerTableRecord
  2
TITLE
 70
     0
 62
     7
  6
CONTINUOUS
370
    -3
390
F
  0
LAYER
  5
2D
330
2
100
AcDbSymbolTableRecord
100
AcDbLayerTableRecord
  2
CENTER
 70
     0
 62
     7
  6
CENTER
370
    -3
390
F
  0
LAYER
  5
2E
330
2
100
AcDbSymbolTableRecord
100
AcDbLayerTableRecord
  2
DEFPOINTS
 70
     0
 62
     7
  6
CONTINUOUS
290
     0
370
    -3
390
F
  0
ENDTAB
  0
TABLE
  2
STYLE
  5
3
330
0
100
AcDbSymbolTable
 70
     2
  0
STYLE
  5
11
330
3
100
AcDbSymbolTableRecord
100
AcDbTextStyleTableRecord
  2
Standard
 70
     0
 40
0.0
 41
1.0
 50
0.0
 71
     0
 42
0.2
  3
txt
  4

  0
STYLE
  5
23
330
3
100
AcDbSymbolTableRecord
100
AcDbTextStyleTableRecord
  2
TXT
 70
     0
 40
0.0
 41
0.75
 50
0.0
 71
     0
 42
0.25
  3
TXT.shx
  4

  0
ENDTAB
  0
TABLE
  2
VIEW
  5
6
330
0
100
AcDbSymbolTable
 70
     0
  0
ENDTAB
  0
TABLE
  2
UCS
  5
7
330
0
100
AcDbSymbolTable
 70
     0
  0
ENDTAB
  0
TABLE
  2
APPID
  5
9
330
0
100
AcDbSymbolTable
 70
     1
  0
APPID
  5
12
330
9
100
AcDbSymbolTableRecord
100
AcDbRegAppTableRecord
  2
ACAD
 70
     0
  0
ENDTAB
  0
TABLE
  2
DIMSTYLE
  5
A
330
0
100
AcDbSymbolTable
 70
     2
100
AcDbDimStyleTable
 71
     2
340
2F
340
30
  0
DIMSTYLE
105
2F
102
{ACAD_REACTORS
330
5FE
330
60C
330
629
330
640
330
650
330
660
330
680
330
74D
102
}
330
A
100
AcDbSymbolTableRecord
100
AcDbDimStyleTableRecord
  2
23NSTD
 70
     0
 40
2.0
 42
0.063
 43
0.281
 44
0.093
140
0.125
271
     3
272
     3
275
     1
289
     1
340
23
  0
DIMSTYLE
105
30
330
A
100
AcDbSymbolTableRecord
100
AcDbDimStyleTableRecord
  2
23NSTDI
 70
     0
 40
2.0
 42
0.063
 43
0.281
 44
0.093
140
0.125
174
     1
271
     3
272
     3
275
     1
340
23
  0
ENDTAB
  0
TABLE
  2
BLOCK_RECORD
  5
1
330
0
100
AcDbSymbolTable
 70
     8
  0
BLOCK_RECORD
  5
1E
330
1
100
AcDbSymbolTableRecord
100
AcDbBlockTableRecord
  2
*Model_Space
340
21
  0
BLOCK_RECORD
  5
1A
330
1
100
AcDbSymbolTableRecord
100
AcDbBlockTableRecord
  2
*Paper_Space
340
1D
  0
BLOCK_RECORD
  5
5FF
330
1
100
AcDbSymbolTableRecord
100
AcDbBlockTableRecord
  2
*D0
340
0
  0
BLOCK_RECORD
  5
60D
330
1
100
AcDbSymbolTableRecord
100
AcDbBlockTableRecord
  2
*D1
340
0
  0
BLOCK_RECORD
  5
62A
330
1
100
AcDbSymbolTableRecord
100
AcDbBlockTableRecord
  2
*D2
340
0
  0
BLOCK_RECORD
  5
641
330
1
100
AcDbSymbolTableRecord
100
AcDbBlockTableRecord
  2
*D3
340
0
  0
BLOCK_RECORD
  5
651
330
1
100
AcDbSymbolTableRecord
100
AcDbBlockTableRecord
  2
*D4
340
0
  0
BLOCK_RECORD
  5
661
330
1
100
AcDbSymbolTableRecord
100
AcDbBlockTableRecord
  2
*D5
340
0
  0
BLOCK_RECORD
  5
681
330
1
100
AcDbSymbolTableRecord
100
AcDbBlockTableRecord
  2
*D6
340
0
  0
BLOCK_RECORD
  5
74E
330
1
100
AcDbSymbolTableRecord
100
AcDbBlockTableRecord
  2
*D7
340
0
  0
ENDTAB
  0
ENDSEC
  0
SECTION
  2
BLOCKS
  0
BLOCK
  5
1F
330
1E
100
AcDbEntity
  8
0
100
AcDbBlockBegin
  2
*Model_Space
 70
     0
 10
0.0
 20
0.0
 30
0.0
  3
*Model_Space
  1

  0
ENDBLK
  5
20
330
1E
100
AcDbEntity
  8
0
100
AcDbBlockEnd
  0
BLOCK
  5
1B
330
1A
100
AcDbEntity
 67
     1
  8
0
100
AcDbBlockBegin
  2
*Paper_Space
 70
     0
 10
0.0
 20
0.0
 30
0.0
  3
*Paper_Space
  1

  0
ENDBLK
  5
1C
330
1A
100
AcDbEntity
 67
     1
  8
0
100
AcDbBlockEnd
  0
BLOCK
  5
60A
330
5FF
100
AcDbEntity
  8
0
100
AcDbBlockBegin
  2
*D0
 70
     1
 10
0.0
 20
0.0
 30
0.0
  3
*D0
  1

  0
LINE
  5
A0F
330
5FF
100
AcDbEntity
  8
DIM
 62
     0
370
    -2
100
AcDbLine
 10
14.90827799999999
 20
9.514325000000001
 30
0.0
 11
14.90827799999999
 21
8.956324999999999
 31
0.0
  0
LINE
  5
A10
330
5FF
100
AcDbEntity
  8
DIM
 62
     0
370
    -2
100
AcDbLine
 10
18.908278
 20
9.514325000000001
 30
0.0
 11
18.908278
 21
8.956324999999999
 31
0.0
  0
LINE
  5
A11
330
5FF
100
AcDbEntity
  8
DIM
 62
     0
370
    -2
100
AcDbLine
 10
15.26827799999999
 20
9.142324999999999
 30
0.0
 11
16.66577799999999
 21
9.142324999999999
 31
0.0
  0
LINE
  5
A12
330
5FF
100
AcDbEntity
  8
DIM
 62
     0
370
    -2
100
AcDbLine
 10
18.54827799999999
 20
9.142324999999999
 30
0.0
 11
17.15077799999999
 21
9.142324999999999
 31
0.0
  0
SOLID
  5
A13
330
5FF
100
AcDbEntity
  8
DIM
 62
     0
100
AcDbTrace
 10
15.26827799999999
 20
9.202325
 30
0.0
 11
15.26827799999999
 21
9.082324999999999
 31
0.0
 12
14.90827799999999
 22
9.142324999999999
 32
0.0
 13
14.90827799999999
 23
9.142324999999999
 33
0.0
  0
SOLID
  5
A14
330
5FF
100
AcDbEntity
  8
DIM
 62
     0
100
AcDbTrace
 10
18.54827799999999
 20
9.202325
 30
0.0
 11
18.54827799999999
 21
9.082324999999999
 31
0.0
 12
18.908278
 22
9.142324999999999
 32
0.0
 13
18.908278
 23
9.142324999999999
 33
0.0
  0
MTEXT
  5
A15
330
5FF
100
AcDbEntity
  8
DIM
 62
     0
100
AcDbMText
 10
16.908278
 20
9.142324999999999
 30
0.0
 40
0.25
 41
0.0
 71
     5
 72
     1
  1
\A1;A
  7
TXT
 73
     1
 44
1.0
  0
POINT
  5
A16
330
5FF
100
AcDbEntity
  8
DEFPOINTS
 62
     0
100
AcDbPoint
 10
14.90827799999999
 20
9.640325
 30
0.0
  0
POINT
  5
A17
330
5FF
100
AcDbEntity
  8
DEFPOINTS
 62
     0
100
AcDbPoint
 10
18.908278
 20
9.640325
 30
0.0
  0
POINT
  5
A18
330
5FF
100
AcDbEntity
  8
DEFPOINTS
 62
     0
100
AcDbPoint
 10
18.908278
 20
9.142324999999999
 30
0.0
  0
ENDBLK
  5
60B
330
5FF
100
AcDbEntity
  8
0
100
AcDbBlockEnd
  0
BLOCK
  5
618
330
60D
100
AcDbEntity
  8
0
100
AcDbBlockBegin
  2
*D1
 70
     1
 10
0.0
 20
0.0
 30
0.0
  3
*D1
  1

  0
LINE
  5
A19
330
60D
100
AcDbEntity
  8
DIM
 62
     0
370
    -2
100
AcDbLine
 10
14.85577799999999
 20
11.99632499999999
 30
0.0
 11
14.85577799999999
 21
12.554325
 31
0.0
  0
LINE
  5
A1A
330
60D
100
AcDbEntity
  8
DIM
 62
     0
370
    -2
100
AcDbLine
 10
18.960778
 20
11.99632499999999
 30
0.0
 11
18.960778
 21
12.554325
 31
0.0
  0
LINE
  5
A1B
330
60D
100
AcDbEntity
  8
DIM
 62
     0
370
    -2
100
AcDbLine
 10
15.215778
 20
12.368325
 30
0.0
 11
16.66577799999999
 21
12.368325
 31
0.0
  0
LINE
  5
A1C
330
60D
100
AcDbEntity
  8
DIM
 62
     0
370
    -2
100
AcDbLine
 10
18.600778
 20
12.368325
 30
0.0
 11
17.15077799999999
 21
12.368325
 31
0.0
  0
SOLID
  5
A1D
330
60D
100
AcDbEntity
  8
DIM
 62
     0
100
AcDbTrace
 10
15.215778
 20
12.428325
 30
0.0
 11
15.215778
 21
12.30832499999999
 31
0.0
 12
14.85577799999999
 22
12.368325
 32
0.0
 13
14.85577799999999
 23
12.368325
 33
0.0
  0
SOLID
  5
A1E
330
60D
100
AcDbEntity
  8
DIM
 62
     0
100
AcDbTrace
 10
18.600778
 20
12.428325
 30
0.0
 11
18.600778
 21
12.30832499999999
 31
0.0
 12
18.960778
 22
12.368325
 32
0.0
 13
18.960778
 23
12.368325
 33
0.0
  0
MTEXT
  5
A1F
330
60D
100
AcDbEntity
  8
DIM
 62
     0
100
AcDbMText
 10
16.908278
 20
12.368325
 30
0.0
 40
0.25
 41
0.0
 71
     5
 72
     1
  1
\A1;E
  7
TXT
 73
     1
 44
1.0
  0
POINT
  5
A20
330
60D
100
AcDbEntity
  8
DEFPOINTS
 62
     0
100
AcDbPoint
 10
14.85577799999999
 20
11.87032499999999
 30
0.0
  0
POINT
  5
A21
330
60D
100
AcDbEntity
  8
DEFPOINTS
 62
     0
100
AcDbPoint
 10
18.960778
 20
11.87032499999999
 30
0.0
  0
POINT
  5
A22
330
60D
100
AcDbEntity
  8
DEFPOINTS
 62
     0
100
AcDbPoint
 10
18.960778
 20
12.368325
 30
0.0
  0
ENDBLK
  5
619
330
60D
100
AcDbEntity
  8
0
100
AcDbBlockEnd
  0
BLOCK
  5
635
330
62A
100
AcDbEntity
  8
0
100
AcDbBlockBegin
  2
*D2
 70
     1
 10
0.0
 20
0.0
 30
0.0
  3
*D2
  1

  0
LINE
  5
A23
330
62A
100
AcDbEntity
  8
DIM
 62
     0
370
    -2
100
AcDbLine
 10
14.96846605693135
 20
10.0329105616306
 30
0.0
 11
14.97055768884954
 21
9.948386932208185
 31
0.0
  0
LINE
  5
A24
330
62A
100
AcDbEntity
  8
DIM
 62
     0
370
    -2
100
AcDbLine
 10
14.89835405693135
 20
10.0311755616306
 30
0.0
 11
14.90044568884954
 21
9.946651932208183
 31
0.0
  0
LINE
  5
A25
330
62A
100
AcDbEntity
  8
DIM
 62
     0
370
    -2
100
AcDbLine
 10
15.32584614300628
 20
10.14323588484306
 30
0.0
 11
15.68573596691884
 21
10.15214176178979
 31
0.0
  0
LINE
  5
A26
330
62A
100
AcDbEntity
  8
DIM
 62
     0
370
    -2
100
AcDbLine
 10
14.53595449518118
 20
10.12368913094961
 30
0.0
 11
14.17606467126862
 21
10.11478325400288
 31
0.0
  0
SOLID
  5
A27
330
62A
100
AcDbEntity
  8
DIM
 62
     0
100
AcDbTrace
 10
15.32436183018183
 20
10.20321752216182
 30
0.0
 11
15.32733045583074
 21
10.0832542475243
 31
0.0
 12
14.96595631909373
 22
10.13433000789633
 32
0.0
 13
14.96595631909373
 23
10.13433000789633
 33
0.0
  0
SOLID
  5
A28
330
62A
100
AcDbEntity
  8
DIM
 62
     0
100
AcDbTrace
 10
14.53447018235672
 20
10.18367076826837
 30
0.0
 11
14.53743880800563
 21
10.06370749363085
 31
0.0
 12
14.89584431909373
 22
10.13259500789633
 32
0.0
 13
14.89584431909373
 23
10.13259500789633
 33
0.0
  0
MTEXT
  5
A29
330
62A
100
AcDbEntity
  8
DIM
 62
     0
100
AcDbMText
 10
13.93356467126862
 20
10.11478325400288
 30
0.0
 40
0.25
 41
0.0
 71
     5
 72
     1
  1
\A1;D
  7
TXT
 73
     1
 44
1.0
  0
POINT
  5
A2A
330
62A
100
AcDbEntity
  8
DEFPOINTS
 62
     0
100
AcDbPoint
 10
14.965349
 20
10.158872
 30
0.0
  0
POINT
  5
A2B
330
62A
100
AcDbEntity
  8
DEFPOINTS
 62
     0
100
AcDbPoint
 10
14.895237
 20
10.157137
 30
0.0
  0
POINT
  5
A2C
330
62A
100
AcDbEntity
  8
DEFPOINTS
 62
     0
100
AcDbPoint
 10
14.89584431909373
 20
10.13259500789633
 30
0.0
  0
ENDBLK
  5
636
330
62A
100
AcDbEntity
  8
0
100
AcDbBlockEnd
  0
BLOCK
  5
64C
330
641
100
AcDbEntity
  8
0
100
AcDbBlockBegin
  2
*D3
 70
     1
 10
0.0
 20
0.0
 30
0.0
  3
*D3
  1

  0
LINE
  5
A2D
330
641
100
AcDbEntity
  8
DIM
 62
     0
370
    -2
100
AcDbLine
 10
10.15811199999999
 20
11.99632499999999
 30
0.0
 11
10.15811199999999
 21
12.554325
 31
0.0
  0
LINE
  5
A2E
330
641
100
AcDbEntity
  8
DIM
 62
     0
370
    -2
100
AcDbLine
 10
12.388112
 20
11.99632499999999
 30
0.0
 11
12.388112
 21
12.554325
 31
0.0
  0
LINE
  5
A2F
330
641
100
AcDbEntity
  8
DIM
 62
     0
370
    -2
100
AcDbLine
 10
10.51811199999999
 20
12.368325
 30
0.0
 11
11.03061199999999
 21
12.368325
 31
0.0
  0
LINE
  5
A30
330
641
100
AcDbEntity
  8
DIM
 62
     0
370
    -2
100
AcDbLine
 10
12.028112
 20
12.368325
 30
0.0
 11
11.51561199999999
 21
12.368325
 31
0.0
  0
SOLID
  5
A31
330
641
100
AcDbEntity
  8
DIM
 62
     0
100
AcDbTrace
 10
10.51811199999999
 20
12.428325
 30
0.0
 11
10.51811199999999
 21
12.30832499999999
 31
0.0
 12
10.15811199999999
 22
12.368325
 32
0.0
 13
10.15811199999999
 23
12.368325
 33
0.0
  0
SOLID
  5
A32
330
641
100
AcDbEntity
  8
DIM
 62
     0
100
AcDbTrace
 10
12.028112
 20
12.428325
 30
0.0
 11
12.028112
 21
12.30832499999999
 31
0.0
 12
12.388112
 22
12.368325
 32
0.0
 13
12.388112
 23
12.368325
 33
0.0
  0
MTEXT
  5
A33
330
641
100
AcDbEntity
  8
DIM
 62
     0
100
AcDbMText
 10
11.273112
 20
12.368325
 30
0.0
 40
0.25
 41
0.0
 71
     5
 72
     1
  1
\A1;F
  7
TXT
 73
     1
 44
1.0
  0
POINT
  5
A34
330
641
100
AcDbEntity
  8
DEFPOINTS
 62
     0
100
AcDbPoint
 10
10.15811199999999
 20
11.87032499999999
 30
0.0
  0
POINT
  5
A35
330
641
100
AcDbEntity
  8
DEFPOINTS
 62
     0
100
AcDbPoint
 10
12.388112
 20
11.87032499999999
 30
0.0
  0
POINT
  5
A36
330
641
100
AcDbEntity
  8
DEFPOINTS
 62
     0
100
AcDbPoint
 10
12.388112
 20
12.368325
 30
0.0
  0
ENDBLK
  5
64D
330
641
100
AcDbEntity
  8
0
100
AcDbBlockEnd
  0
BLOCK
  5
65C
330
651
100
AcDbEntity
  8
0
100
AcDbBlockBegin
  2
*D4
 70
     1
 10
0.0
 20
0.0
 30
0.0
  3
*D4
  1

  0
LINE
  5
A37
330
651
100
AcDbEntity
  8
DIM
 62
     0
370
    -2
100
AcDbLine
 10
10.21061199999999
 20
9.514325000000001
 30
0.0
 11
10.21061199999999
 21
8.946385000000001
 31
0.0
  0
LINE
  5
A38
330
651
100
AcDbEntity
  8
DIM
 62
     0
370
    -2
100
AcDbLine
 10
12.335612
 20
9.514325000000001
 30
0.0
 11
12.335612
 21
8.946385000000001
 31
0.0
  0
LINE
  5
A39
330
651
100
AcDbEntity
  8
DIM
 62
     0
370
    -2
100
AcDbLine
 10
10.57061199999999
 20
9.132385000000001
 30
0.0
 11
11.03061199999999
 21
9.132385000000001
 31
0.0
  0
LINE
  5
A3A
330
651
100
AcDbEntity
  8
DIM
 62
     0
370
    -2
100
AcDbLine
 10
11.97561199999999
 20
9.132385000000001
 30
0.0
 11
11.51561199999999
 21
9.132385000000001
 31
0.0
  0
SOLID
  5
A3B
330
651
100
AcDbEntity
  8
DIM
 62
     0
100
AcDbTrace
 10
10.57061199999999
 20
9.192385000000001
 30
0.0
 11
10.57061199999999
 21
9.072385
 31
0.0
 12
10.21061199999999
 22
9.132385000000001
 32
0.0
 13
10.21061199999999
 23
9.132385000000001
 33
0.0
  0
SOLID
  5
A3C
330
651
100
AcDbEntity
  8
DIM
 62
     0
100
AcDbTrace
 10
11.97561199999999
 20
9.192385000000001
 30
0.0
 11
11.97561199999999
 21
9.072385
 31
0.0
 12
12.335612
 22
9.132385000000001
 32
0.0
 13
12.335612
 23
9.132385000000001
 33
0.0
  0
MTEXT
  5
A3D
330
651
100
AcDbEntity
  8
DIM
 62
     0
100
AcDbMText
 10
11.273112
 20
9.132385000000001
 30
0.0
 40
0.25
 41
0.0
 71
     5
 72
     1
  1
\A1;B
  7
TXT
 73
     1
 44
1.0
  0
POINT
  5
A3E
330
651
100
AcDbEntity
  8
DEFPOINTS
 62
     0
100
AcDbPoint
 10
10.21061199999999
 20
9.640325
 30
0.0
  0
POINT
  5
A3F
330
651
100
AcDbEntity
  8
DEFPOINTS
 62
     0
100
AcDbPoint
 10
12.335612
 20
9.640325
 30
0.0
  0
POINT
  5
A40
330
651
100
AcDbEntity
  8
DEFPOINTS
 62
     0
100
AcDbPoint
 10
12.335612
 20
9.132385000000001
 30
0.0
  0
ENDBLK
  5
65D
330
651
100
AcDbEntity
  8
0
100
AcDbBlockEnd
  0
BLOCK
  5
66C
330
661
100
AcDbEntity
  8
0
100
AcDbBlockBegin
  2
*D5
 70
     1
 10
0.0
 20
0.0
 30
0.0
  3
*D5
  1

  0
LINE
  5
A41
330
661
100
AcDbEntity
  8
DIM
 62
     0
370
    -2
100
AcDbLine
 10
19.034278
 20
9.640325
 30
0.0
 11
19.727979
 21
9.640325
 31
0.0
  0
LINE
  5
A42
330
661
100
AcDbEntity
  8
DIM
 62
     0
370
    -2
100
AcDbLine
 10
19.086778
 20
11.87032499999999
 30
0.0
 11
19.727979
 21
11.87032499999999
 31
0.0
  0
LINE
  5
A43
330
661
100
AcDbEntity
  8
DIM
 62
     0
370
    -2
100
AcDbLine
 10
19.541979
 20
10.000325
 30
0.0
 11
19.541979
 21
10.450325
 31
0.0
  0
LINE
  5
A44
330
661
100
AcDbEntity
  8
DIM
 62
     0
370
    -2
100
AcDbLine
 10
19.541979
 20
11.510325
 30
0.0
 11
19.541979
 21
11.06032499999999
 31
0.0
  0
SOLID
  5
A45
330
661
100
AcDbEntity
  8
DIM
 62
     0
100
AcDbTrace
 10
19.481979
 20
10.000325
 30
0.0
 11
19.601979
 21
10.000325
 31
0.0
 12
19.541979
 22
9.640325
 32
0.0
 13
19.541979
 23
9.640325
 33
0.0
  0
SOLID
  5
A46
330
661
100
AcDbEntity
  8
DIM
 62
     0
100
AcDbTrace
 10
19.481979
 20
11.510325
 30
0.0
 11
19.601979
 21
11.510325
 31
0.0
 12
19.541979
 22
11.87032499999999
 32
0.0
 13
19.541979
 23
11.87032499999999
 33
0.0
  0
MTEXT
  5
A47
330
661
100
AcDbEntity
  8
DIM
 62
     0
100
AcDbMText
 10
19.54197899999999
 20
10.755325
 30
0.0
 40
0.25
 41
0.0
 71
     5
 72
     1
  1
\A1;C
  7
TXT
 73
     1
 44
1.0
  0
POINT
  5
A48
330
661
100
AcDbEntity
  8
DEFPOINTS
 62
     0
100
AcDbPoint
 10
18.908278
 20
9.640325
 30
0.0
  0
POINT
  5
A49
330
661
100
AcDbEntity
  8
DEFPOINTS
 62
     0
100
AcDbPoint
 10
18.960778
 20
11.87032499999999
 30
0.0
  0
POINT
  5
A4A
330
661
100
AcDbEntity
  8
DEFPOINTS
 62
     0
100
AcDbPoint
 10
19.541979
 20
11.87032499999999
 30
0.0
  0
ENDBLK
  5
66D
330
661
100
AcDbEntity
  8
0
100
AcDbBlockEnd
  0
BLOCK
  5
68F
330
681
100
AcDbEntity
  8
0
100
AcDbBlockBegin
  2
*D6
 70
     1
 10
0.0
 20
0.0
 30
0.0
  3
*D6
  1

  0
LINE
  5
AAB
330
681
100
AcDbEntity
  8
DIM
 62
     0
370
    -2
100
AcDbLine
 10
12.33518175451318
 20
9.605775403829799
 30
0.0
 11
12.30087527004515
 21
8.138018456292787
 31
0.0
  0
LINE
  5
AAC
330
681
100
AcDbEntity
  8
DIM
 62
     0
370
    -2
100
AcDbLine
 10
12.388112
 20
11.21226999999999
 30
0.0
 11
12.388112
 21
8.136999085583619
 31
0.0
  0
ARC
  5
AAD
330
681
100
AcDbEntity
  8
DIM
 62
     0
370
    -2
100
AcDbCircle
 10
12.38811199999999
 20
11.870325
 30
0.0
 40
3.547325914416378
100
AcDbArc
 50
257.0267373561433
 51
262.8438917115165
  0
ARC
  5
AAE
330
681
100
AcDbEntity
  8
DIM
 62
     0
370
    -2
100
AcDbCircle
 10
12.38811199999999
 20
11.870325
 30
0.0
 40
3.547325914416378
100
AcDbArc
 50
275.8171543553732
 51
281.6343087107463
  0
SOLID
  5
AAF
330
681
100
AcDbEntity
  8
DIM
 62
     0
100
AcDbTrace
 10
11.95065425238502
 20
8.410466458952177
 30
0.0
 11
11.94176639018046
 21
8.290796053648975
 31
0.0
 12
12.30522153719235
 22
8.32396766968689
 32
0.0
 13
12.30522153719235
 23
8.32396766968689
 33
0.0
  0
SOLID
  5
AB0
330
681
100
AcDbEntity
  8
DIM
 62
     0
100
AcDbTrace
 10
12.75069278487039
 20
8.281343660453522
 30
0.0
 11
12.74460369113581
 21
8.401189073121223
 31
0.0
 12
12.388112
 22
8.322999085583621
 32
0.0
 13
12.388112
 23
8.322999085583621
 33
0.0
  0
MTEXT
  5
AB1
330
681
100
AcDbEntity
  8
DIM
 62
     0
100
AcDbMText
 10
13.979271
 20
8.699878
 30
0.0
 40
0.25
 41
0.0
 71
     5
 72
     1
  1
\A1;1° REF.
  7
TXT
 73
     1
 44
1.0
  0
POINT
  5
AB2
330
681
100
AcDbEntity
  8
DEFPOINTS
 62
     0
100
AcDbPoint
 10
12.33284889700119
 20
8.323429578291468
 30
0.0
  0
POINT
  5
AB3
330
681
100
AcDbEntity
  8
DEFPOINTS
 62
     0
100
AcDbPoint
 10
12.33812599999999
 20
9.731740999999997
 30
0.0
  0
POINT
  5
AB4
330
681
100
AcDbEntity
  8
DEFPOINTS
 62
     0
100
AcDbPoint
 10
12.38811199999999
 20
11.87032499999999
 30
0.0
  0
POINT
  5
AB5
330
681
100
AcDbEntity
  8
DEFPOINTS
 62
     0
100
AcDbPoint
 10
12.388112
 20
11.33826999999999
 30
0.0
  0
POINT
  5
AB6
330
681
100
AcDbEntity
  8
DEFPOINTS
 62
     0
100
AcDbPoint
 10
12.38811199999999
 20
11.87032499999999
 30
0.0
  0
ENDBLK
  5
690
330
681
100
AcDbEntity
  8
0
100
AcDbBlockEnd
  0
BLOCK
  5
759
330
74E
100
AcDbEntity
  8
0
100
AcDbBlockBegin
  2
*D7
 70
     1
 10
0.0
 20
0.0
 30
0.0
  3
*D7
  1

  0
LINE
  5
A57
330
74E
100
AcDbEntity
  8
DIM
 62
     0
370
    -2
100
AcDbLine
 10
18.92915
 20
7.968789999999999
 30
0.0
 11
19.727979
 21
7.968789999999999
 31
0.0
  0
LINE
  5
A58
330
74E
100
AcDbEntity
  8
DIM
 62
     0
370
    -2
100
AcDbLine
 10
18.92915
 20
6.06279
 30
0.0
 11
19.727979
 21
6.06279
 31
0.0
  0
LINE
  5
A59
330
74E
100
AcDbEntity
  8
DIM
 62
     0
370
    -2
100
AcDbLine
 10
19.541979
 20
7.608789999999999
 30
0.0
 11
19.541979
 21
7.320789999999999
 31
0.0
  0
LINE
  5
A5A
330
74E
100
AcDbEntity
  8
DIM
 62
     0
370
    -2
100
AcDbLine
 10
19.541979
 20
6.42279
 30
0.0
 11
19.541979
 21
6.71079
 31
0.0
  0
SOLID
  5
A5B
330
74E
100
AcDbEntity
  8
DIM
 62
     0
100
AcDbTrace
 10
19.481979
 20
7.608789999999999
 30
0.0
 11
19.601979
 21
7.608789999999999
 31
0.0
 12
19.541979
 22
7.968789999999999
 32
0.0
 13
19.541979
 23
7.968789999999999
 33
0.0
  0
SOLID
  5
A5C
330
74E
100
AcDbEntity
  8
DIM
 62
     0
100
AcDbTrace
 10
19.481979
 20
6.42279
 30
0.0
 11
19.601979
 21
6.42279
 31
0.0
 12
19.541979
 22
6.06279
 32
0.0
 13
19.541979
 23
6.06279
 33
0.0
  0
MTEXT
  5
A5D
330
74E
100
AcDbEntity
  8
DIM
 62
     0
100
AcDbMText
 10
19.541979
 20
7.015790000000003
 30
0.0
 40
0.25
 41
0.0
 71
     5
 72
     1
  1
\A1;H
  7
TXT
 73
     1
 44
1.0
  0
POINT
  5
A5E
330
74E
100
AcDbEntity
  8
DEFPOINTS
 62
     0
100
AcDbPoint
 10
18.80314999999999
 20
7.968789999999999
 30
0.0
  0
POINT
  5
A5F
330
74E
100
AcDbEntity
  8
DEFPOINTS
 62
     0
100
AcDbPoint
 10
18.80314999999999
 20
6.06279
 30
0.0
  0
POINT
  5
A60
330
74E
100
AcDbEntity
  8
DEFPOINTS
 62
     0
100
AcDbPoint
 10
19.541979
 20
6.06279
 30
0.0
  0
ENDBLK
  5
75A
330
74E
100
AcDbEntity
  8
0
100
AcDbBlockEnd
  0
ENDSEC
  0
SECTION
  2
ENTITIES
  0
LINE
  5
2B4
330
1E
100
AcDbEntity
  8
TITLE
100
AcDbLine
 10
20.116
 20
0.124
 30
0.0
 11
0.124
 21
0.124
 31
0.0
  0
LINE
  5
2B7
330
1E
100
AcDbEntity
  8
TITLE
100
AcDbLine
 10
0.124
 20
0.124
 30
0.0
 11
0.124
 21
16.21199999999999
 31
0.0
  0
LINE
  5
2B8
330
1E
100
AcDbEntity
  8
TITLE
100
AcDbLine
 10
0.0
 20
0.0
 30
0.0
 11
0.0
 21
16.33599999999999
 31
0.0
  0
LINE
  5
2B9
330
1E
100
AcDbEntity
  8
TITLE
100
AcDbLine
 10
20.24
 20
0.0
 30
0.0
 11
0.0
 21
0.0
 31
0.0
  0
LINE
  5
2BA
330
1E
100
AcDbEntity
  8
TITLE
100
AcDbLine
 10
20.24
 20
16.33599999999999
 30
0.0
 11
20.24
 21
0.0
 31
0.0
  0
LINE
  5
2BD
330
1E
100
AcDbEntity
  8
TITLE
100
AcDbLine
 10
0.124
 20
16.21199999999999
 30
0.0
 11
20.116
 21
16.21199999999999
 31
0.0
  0
LINE
  5
2BF
330
1E
100
AcDbEntity
  8
TITLE
100
AcDbLine
 10
20.116
 20
16.21199999999999
 30
0.0
 11
20.116
 21
0.124
 31
0.0
  0
TEXT
  5
2D9
330
1E
100
AcDbEntity
  8
DIM
100
AcDbText
 10
71.801781
 20
34.87778
 30
0.0
 40
0.5
  1

100
AcDbText
  0
TEXT
  5
2DA
330
1E
100
AcDbEntity
  8
DIM
100
AcDbText
 10
54.37978100000001
 20
52.77447399999999
 30
0.0
 40
0.5
  1

100
AcDbText
  0
TEXT
  5
2DB
330
1E
100
AcDbEntity
  8
DIM
100
AcDbText
 10
87.448961
 20
47.29275999999999
 30
0.0
 40
0.5
  1

100
AcDbText
  0
TEXT
  5
2DC
330
1E
100
AcDbEntity
  8
DIM
100
AcDbText
 10
89.976239
 20
45.549278
 30
0.0
 40
0.5
  1

100
AcDbText
  0
TEXT
  5
2DD
330
1E
100
AcDbEntity
  8
DIM
100
AcDbText
 10
31.74321599999999
 20
25.924103
 30
0.0
 40
0.5
  1

100
AcDbText
  0
TEXT
  5
2DE
330
1E
100
AcDbEntity
  8
DIM
100
AcDbText
 10
41.80234399999999
 20
29.840124
 30
0.0
 40
0.5
  1

100
AcDbText
  0
TEXT
  5
2DF
330
1E
100
AcDbEntity
  8
DIM
100
AcDbText
 10
71.07339899999999
 20
39.946353
 30
0.0
 40
0.5
  1

100
AcDbText
  0
TEXT
  5
2E0
330
1E
100
AcDbEntity
  8
DIM
100
AcDbText
 10
52.323399
 20
39.946353
 30
0.0
 40
0.5
  1

100
AcDbText
  0
TEXT
  5
2E1
330
1E
100
AcDbEntity
  8
DIM
100
AcDbText
 10
67.90673199999999
 20
31.802667
 30
0.0
 40
0.5
  1

100
AcDbText
  0
TEXT
  5
5D8
330
1E
100
AcDbEntity
  8
DIM
100
AcDbText
 10
29.09874999999999
 20
7.744391999999999
 30
0.0
 40
0.125
  1

100
AcDbText
  0
TEXT
  5
5D9
330
1E
100
AcDbEntity
  8
DIM
100
AcDbText
 10
29.161895
 20
15.893067
 30
0.0
 40
0.125
  1

100
AcDbText
  0
LWPOLYLINE
  5
5DA
330
1E
100
AcDbEntity
  8
OBJECT
100
AcDbPolyline
 90
        4
 70
     1
 43
0.0
 10
18.840177
 20
14.97617799999999
 10
14.97638
 20
14.97617799999999
 10
14.97638
 20
12.987381
 10
18.840177
 20
12.987381
  0
LWPOLYLINE
  5
5E0
330
1E
100
AcDbEntity
  8
OBJECT
100
AcDbPolyline
 90
        8
 70
     1
 43
0.0
 10
18.866778
 20
15.024779
 10
14.949778
 20
15.024779
 42
0.4142140000000001
 10
14.92777799999999
 20
15.002779
 10
14.92777799999999
 20
12.960779
 42
0.4142140000000001
 10
14.949778
 20
12.938779
 10
18.866778
 20
12.938779
 42
0.4142140000000001
 10
18.88877799999999
 20
12.960779
 10
18.88877799999999
 20
15.002779
 42
0.4142140000000001
  0
LWPOLYLINE
  5
5EA
330
1E
100
AcDbEntity
  8
OBJECT
100
AcDbPolyline
 90
        8
 70
     1
 43
0.0
 10
18.866778
 20
15.096779
 10
14.949778
 20
15.096779
 42
0.4142140000000001
 10
14.85577799999999
 20
15.002779
 10
14.85577799999999
 20
12.960779
 42
0.4142140000000001
 10
14.949778
 20
12.86677899999999
 10
18.866778
 20
12.86677899999999
 42
0.4142140000000001
 10
18.960778
 20
12.960779
 10
18.960778
 20
15.002779
 42
0.4142140000000001
  0
LWPOLYLINE
  5
5F4
330
1E
100
AcDbEntity
  8
OBJECT
100
AcDbPolyline
 90
        8
 70
     1
 43
0.0
 10
18.866778
 20
15.056779
 10
14.949778
 20
15.056779
 42
0.4142140000000001
 10
14.895778
 20
15.002779
 10
14.895778
 20
12.960779
 42
0.4142140000000001
 10
14.949778
 20
12.906779
 10
18.866778
 20
12.906779
 42
0.4142140000000001
 10
18.920778
 20
12.960779
 10
18.920778
 20
15.002779
 42
0.4142140000000001
  0
DIMENSION
  5
5FE
330
1E
100
AcDbEntity
  8
DIM
100
AcDbDimension
  2
*D0
 10
18.908278
 20
9.142324999999999
 30
0.0
 11
16.908278
 21
9.142324999999999
 31
0.0
 70
    32
  1
A
 71
     5
 42
4.0
  3
23NSTD
100
AcDbAlignedDimension
 13
14.90827799999999
 23
9.640325
 33
0.0
 14
18.908278
 24
9.640325
 34
0.0
100
AcDbRotatedDimension
  0
DIMENSION
  5
60C
330
1E
100
AcDbEntity
  8
DIM
100
AcDbDimension
  2
*D1
 10
18.960778
 20
12.368325
 30
0.0
 11
16.908278
 21
12.368325
 31
0.0
 70
    32
  1
E
 71
     5
 42
4.105000000000002
  3
23NSTD
100
AcDbAlignedDimension
 13
14.85577799999999
 23
11.87032499999999
 33
0.0
 14
18.960778
 24
11.87032499999999
 34
0.0
100
AcDbRotatedDimension
  0
LINE
  5
61A
330
1E
100
AcDbEntity
  8
HIDDEN
100
AcDbLine
 10
14.895778
 20
11.800325
 30
0.0
 11
18.920778
 21
11.800325
 31
0.0
  0
LINE
  5
61B
330
1E
100
AcDbEntity
  8
OBJECT
100
AcDbLine
 10
14.85577799999999
 20
11.87032499999999
 30
0.0
 11
18.960778
 21
11.87032499999999
 31
0.0
  0
LINE
  5
61C
330
1E
100
AcDbEntity
  8
HIDDEN
100
AcDbLine
 10
18.840177
 20
9.710324999999999
 30
0.0
 11
14.97638
 21
9.710324999999999
 31
0.0
  0
LINE
  5
61D
330
1E
100
AcDbEntity
  8
OBJECT
100
AcDbLine
 10
18.816828
 20
9.640325
 30
0.0
 11
14.999729
 21
9.640325
 31
0.0
  0
TEXT
  5
61E
330
1E
100
AcDbEntity
  8
TEXT
100
AcDbText
 10
2.175208358616755
 20
13.91397
 30
0.0
 40
0.25
  1
SUGGESTED SERVICE TEMPERATURE: -20%%D TO +60%%D C.
 41
0.75
100
AcDbText
  0
TEXT
  5
61F
330
1E
100
AcDbEntity
  8
TEXT
100
AcDbText
 10
0.4619280000000004
 20
7.727508000000001
 30
0.0
 40
0.25
  1
INCREASE SLIGHTLY AT OPEN END DUE TO TAPER.
 41
0.75
100
AcDbText
  0
TEXT
  5
620
330
1E
100
AcDbEntity
  8
TEXT
100
AcDbText
 10
0.4619280000000004
 20
8.144175
 30
0.0
 40
0.25
  1
FROM CLOSED END OF THE BOX. DIMENSIONS
 41
0.75
100
AcDbText
  0
TEXT
  5
621
330
1E
100
AcDbEntity
  8
TEXT
100
AcDbText
 10
0.4619280000000004
 20
8.560842
 30
0.0
 40
0.25
  1
LENGTH AND WIDTH DIMENSIONS ARE TAKEN
 41
0.75
100
AcDbText
  0
TEXT
  5
622
330
1E
100
AcDbEntity
  8
TEXT
100
AcDbText
 10
0.4619280000000004
 20
12.27889
 30
0.0
 40
0.25
  1
%%uFINISH:%%u INSIDE SURFACES ARE TEXTURED FINISH.
 41
0.75
100
AcDbText
  0
TEXT
  5
624
330
1E
100
AcDbEntity
  8
TEXT
100
AcDbText
 10
0.4619280000000004
 20
11.445556
 30
0.0
 40
0.25
  1
COVER REDUCES
 41
0.75
100
AcDbText
  0
TEXT
  5
625
330
1E
100
AcDbEntity
  8
TEXT
100
AcDbText
 10
5.673726
 20
14.33063699999999
 30
0.0
 40
0.25
  1
0.055" THICKNESS)
 41
0.75
100
AcDbText
  0
TEXT
  5
626
330
1E
100
AcDbEntity
  8
TEXT
100
AcDbText
 10
0.4619280000000004
 20
11.00501974273578
 30
0.0
 40
0.2496
  1
INSIDE HEIGHT BY DIM G (SEE TABLE)
 41
0.75
100
AcDbText
  0
TEXT
  5
627
330
1E
100
AcDbEntity
  8
TEXT
100
AcDbText
 10
0.4619280000000004
 20
9.382258000000001
 30
0.0
 40
0.25
  1
ALL COVERS HAVE SMOOTH SURFACES.
 41
0.75
100
AcDbText
  0
TEXT
  5
628
330
1E
100
AcDbEntity
  8
TEXT
100
AcDbText
 10
0.4619280000000004
 20
13.084214
 30
0.0
 40
0.25
  1
%%UCOLOR:%%U BLACK
 41
0.75
100
AcDbText
  0
DIMENSION
  5
629
330
1E
100
AcDbEntity
  8
DIM
100
AcDbDimension
  2
*D2
 10
14.89584431909373
 20
10.13259500789633
 30
0.0
 11
13.93356467126862
 21
10.11478325400288
 31
0.0
 70
    33
  1
D
 71
     5
 42
0.0701334639740541
  3
23NSTD
100
AcDbAlignedDimension
 13
14.965349
 23
10.158872
 33
0.0
 14
14.895237
 24
10.15713699999999
 34
0.0
  0
LINE
  5
637
330
1E
100
AcDbEntity
  8
OBJECT
100
AcDbLine
 10
14.905764
 20
9.731740999999999
 30
0.0
 11
14.85577799999999
 21
11.87032499999999
 31
0.0
  0
LINE
  5
638
330
1E
100
AcDbEntity
  8
HIDDEN
100
AcDbLine
 10
14.97638
 20
9.710324999999999
 30
0.0
 11
14.92772999999999
 21
11.800325
 31
0.0
  0
ARC
  5
639
330
1E
100
AcDbEntity
  8
OBJECT
100
AcDbCircle
 10
14.999729
 20
9.734325
 30
0.0
 40
0.094
100
AcDbArc
 50
181.575237
 51
270.0
  0
LWPOLYLINE
  5
63A
330
1E
100
AcDbEntity
  8
DIM
100
AcDbPolyline
 90
        3
 70
     0
 43
0.0
 10
14.944547
 20
9.640325
 10
14.90827799999999
 20
9.640325
 10
14.907281
 20
9.676579999999999
  0
LINE
  5
63F
330
1E
100
AcDbEntity
  8
HIDDEN
100
AcDbLine
 10
14.895778
 20
11.800325
 30
0.0
 11
14.895778
 21
11.87032499999999
 31
0.0
  0
DIMENSION
  5
640
330
1E
100
AcDbEntity
  8
DIM
100
AcDbDimension
  2
*D3
 10
12.388112
 20
12.368325
 30
0.0
 11
11.273112
 21
12.368325
 31
0.0
 70
    32
  1
F
 71
     5
 42
2.23
  3
23NSTD
100
AcDbAlignedDimension
 13
10.15811199999999
 23
11.87032499999999
 33
0.0
 14
12.388112
 24
11.87032499999999
 34
0.0
100
AcDbRotatedDimension
  0
LINE
  5
64E
330
1E
100
AcDbEntity
  8
HIDDEN
100
AcDbLine
 10
10.198112
 20
11.800325
 30
0.0
 11
12.348112
 21
11.800325
 31
0.0
  0
LINE
  5
64F
330
1E
100
AcDbEntity
  8
OBJECT
100
AcDbLine
 10
10.15811199999999
 20
11.87032499999999
 30
0.0
 11
12.388112
 21
11.87032499999999
 31
0.0
  0
DIMENSION
  5
650
330
1E
100
AcDbEntity
  8
DIM
100
AcDbDimension
  2
*D4
 10
12.335612
 20
9.132385000000001
 30
0.0
 11
11.273112
 21
9.132385000000001
 31
0.0
 70
    32
  1
B
 71
     5
 42
2.125
  3
23NSTD
100
AcDbAlignedDimension
 13
10.21061199999999
 23
9.640325
 33
0.0
 14
12.335612
 24
9.640325
 34
0.0
100
AcDbRotatedDimension
  0
LINE
  5
65E
330
1E
100
AcDbEntity
  8
OBJECT
100
AcDbLine
 10
12.244161
 20
9.640325
 30
0.0
 11
10.302062
 21
9.640325
 31
0.0
  0
LINE
  5
65F
330
1E
100
AcDbEntity
  8
HIDDEN
100
AcDbLine
 10
12.26751
 20
9.710324999999999
 30
0.0
 11
10.27871299999999
 21
9.710324999999999
 31
0.0
  0
DIMENSION
  5
660
330
1E
100
AcDbEntity
  8
DIM
100
AcDbDimension
  2
*D5
 10
19.541979
 20
11.87032499999999
 30
0.0
 11
19.54197899999999
 21
10.755325
 31
0.0
 70
    32
  1
C
 71
     5
 42
2.229999999999998
  3
23NSTD
100
AcDbAlignedDimension
 13
18.908278
 23
9.640325
 33
0.0
 14
18.960778
 24
11.87032499999999
 34
0.0
 50
90.0
100
AcDbRotatedDimension
  0
LINE
  5
66E
330
1E
100
AcDbEntity
  8
HIDDEN
100
AcDbLine
 10
18.840177
 20
9.710324999999999
 30
0.0
 11
18.88882699999999
 21
11.800325
 31
0.0
  0
LINE
  5
66F
330
1E
100
AcDbEntity
  8
OBJECT
100
AcDbLine
 10
18.910792
 20
9.731740999999999
 30
0.0
 11
18.960778
 21
11.87032499999999
 31
0.0
  0
ARC
  5
670
330
1E
100
AcDbEntity
  8
OBJECT
100
AcDbCircle
 10
18.816828
 20
9.734325
 30
0.0
 40
0.094
100
AcDbArc
 50
270.0
 51
358.424763
  0
LWPOLYLINE
  5
671
330
1E
100
AcDbEntity
  8
DIM
100
AcDbPolyline
 90
        3
 70
     0
 43
0.0
 10
18.87200899999999
 20
9.640325
 10
18.908278
 20
9.640325
 10
18.909275
 20
9.676579999999999
  0
LINE
  5
676
330
1E
100
AcDbEntity
  8
HIDDEN
100
AcDbLine
 10
18.920778
 20
11.800325
 30
0.0
 11
18.920778
 21
11.87032499999999
 31
0.0
  0
LINE
  5
677
330
1E
100
AcDbEntity
  8
HIDDEN
100
AcDbLine
 10
10.27871299999999
 20
9.710324999999999
 30
0.0
 11
10.230063
 21
11.800325
 31
0.0
  0
LINE
  5
678
330
1E
100
AcDbEntity
  8
OBJECT
100
AcDbLine
 10
10.208098
 20
9.731740999999999
 30
0.0
 11
10.15811199999999
 21
11.87032499999999
 31
0.0
  0
ARC
  5
679
330
1E
100
AcDbEntity
  8
OBJECT
100
AcDbCircle
 10
10.302062
 20
9.734325
 30
0.0
 40
0.094
100
AcDbArc
 50
181.575237
 51
270.0
  0
LWPOLYLINE
  5
67A
330
1E
100
AcDbEntity
  8
DIM
100
AcDbPolyline
 90
        3
 70
     0
 43
0.0
 10
10.246881
 20
9.640325
 10
10.21061199999999
 20
9.640325
 10
10.209615
 20
9.676579999999999
  0
LINE
  5
67F
330
1E
100
AcDbEntity
  8
HIDDEN
100
AcDbLine
 10
10.198112
 20
11.800325
 30
0.0
 11
10.198112
 21
11.87032499999999
 31
0.0
  0
DIMENSION
  5
680
330
1E
100
AcDbEntity
  8
DIM
100
AcDbDimension
  2
*D6
 10
12.388112
 20
11.87032499999999
 30
0.0
 11
13.97927099999999
 21
8.699877999999998
 31
0.0
 70
   162
  1
1° REF.
 71
     5
 42
0.0233691546653061
  3
23NSTD
100
AcDb2LineAngularDimension
 13
12.388112
 23
11.87032499999999
 33
0.0
 14
12.388112
 24
11.33826999999999
 34
0.0
 15
12.338126
 25
9.731740999999999
 35
0.0
 16
12.33284889700119
 26
8.323429578291468
 36
0.0
  0
LINE
  5
691
330
1E
100
AcDbEntity
  8
OBJECT
100
AcDbLine
 10
12.338126
 20
9.731740999999999
 30
0.0
 11
12.388112
 21
11.87032499999999
 31
0.0
  0
LINE
  5
692
330
1E
100
AcDbEntity
  8
HIDDEN
100
AcDbLine
 10
12.26751
 20
9.710324999999999
 30
0.0
 11
12.31616
 21
11.800325
 31
0.0
  0
ARC
  5
693
330
1E
100
AcDbEntity
  8
OBJECT
100
AcDbCircle
 10
12.244161
 20
9.734325
 30
0.0
 40
0.094
100
AcDbArc
 50
270.0
 51
358.424763
  0
LWPOLYLINE
  5
694
330
1E
100
AcDbEntity
  8
DIM
100
AcDbPolyline
 90
        3
 70
     0
 43
0.0
 10
12.299343
 20
9.640325
 10
12.335612
 20
9.640325
 10
12.336609
 20
9.676579999999999
  0
LINE
  5
699
330
1E
100
AcDbEntity
  8
HIDDEN
100
AcDbLine
 10
12.348112
 20
11.800325
 30
0.0
 11
12.348112
 21
11.87032499999999
 31
0.0
  0
LINE
  5
69A
330
1E
100
AcDbEntity
  8
TITLE
100
AcDbLine
 10
0.124
 20
15.376
 30
0.0
 11
20.116
 21
15.376
 31
0.0
  0
TEXT
  5
69B
330
1E
100
AcDbEntity
  8
TEXT
100
AcDbText
 10
0.511812
 20
14.747304
 30
0.0
 40
0.25
  1
%%UMATERIAL:%%U ABS THERMOPLASTIC (FLAMMABILITY RATING OF UL94-HB AT
 41
0.75
100
AcDbText
  0
TEXT
  5
69C
330
1E
100
AcDbEntity
  8
TEXT
100
AcDbText
 10
2.504330000000001
 20
15.60799999999999
 30
0.0
 40
0.374
  1
POTTING BOX  (STYLE A)
 41
0.75
 72
     1
 11
5.40283
 21
15.60799999999999
 31
0.0
100
AcDbText
  0
TEXT
  5
69D
330
1E
100
AcDbEntity
  8
TEXT
100
AcDbText
 10
0.4156666666666668
 20
15.456158
 30
0.0
 40
0.25
  1
NAME
 72
     1
 11
0.8740000000000001
 21
15.456158
 31
0.0
100
AcDbText
  0
TEXT
  5
69E
330
1E
100
AcDbEntity
  8
TEXT
100
AcDbText
 10
0.4156666666666668
 20
15.872825
 30
0.0
 40
0.25
  1
PART
 72
     1
 11
0.8740000000000001
 21
15.872825
 31
0.0
100
AcDbText
  0
LINE
  5
69F
330
1E
100
AcDbEntity
  8
TITLE
100
AcDbLine
 10
1.624
 20
15.376
 30
0.0
 11
1.624
 21
16.21199999999999
 31
0.0
  0
LINE
  5
6A0
330
1E
100
AcDbEntity
  8
TITLE
100
AcDbLine
 10
9.350342999999998
 20
16.21199999999999
 30
0.0
 11
9.350342999999998
 21
15.376
 31
0.0
  0
LINE
  5
6A1
330
1E
100
AcDbEntity
  8
TITLE
100
AcDbLine
 10
9.226342999999999
 20
16.21199999999999
 30
0.0
 11
9.226342999999999
 21
15.376
 31
0.0
  0
TEXT
  5
6A2
330
1E
100
AcDbEntity
  8
TEXT
100
AcDbText
 10
9.850342999999998
 20
15.456158
 30
0.0
 40
0.25
  1
No.
 72
     1
 11
10.10034299999999
 21
15.456158
 31
0.0
100
AcDbText
  0
TEXT
  5
6A3
330
1E
100
AcDbEntity
  8
TEXT
100
AcDbText
 10
9.642009666666664
 20
15.872825
 30
0.0
 40
0.25
  1
PART
 72
     1
 11
10.10034299999999
 21
15.872825
 31
0.0
100
AcDbText
  0
LINE
  5
6A4
330
1E
100
AcDbEntity
  8
TITLE
100
AcDbLine
 10
10.850343
 20
16.21199999999999
 30
0.0
 11
10.850343
 21
15.376
 31
0.0
  0
TEXT
  5
6A5
330
1E
100
AcDbEntity
  8
TEXT
100
AcDbText
 10
10.22849999999999
 20
4.787332999999999
 30
0.0
 40
0.25
  1
E
 41
0.75
 72
     4
 11
10.29099999999999
 21
4.912332999999999
 31
0.0
100
AcDbText
  0
TEXT
  5
6A6
330
1E
100
AcDbEntity
  8
TEXT
100
AcDbText
 10
8.5785
 20
4.787332999999999
 30
0.0
 40
0.25
  1
D
 41
0.75
 72
     4
 11
8.641
 21
4.912332999999999
 31
0.0
100
AcDbText
  0
TEXT
  5
6A7
330
1E
100
AcDbEntity
  8
TEXT
100
AcDbText
 10
6.9285
 20
4.787332999999999
 30
0.0
 40
0.25
  1
C
 41
0.75
 72
     4
 11
6.991
 21
4.912332999999999
 31
0.0
100
AcDbText
  0
LINE
  5
6A8
330
1E
100
AcDbEntity
  8
TITLE
100
AcDbLine
 10
7.815999999999999
 20
5.123999999999999
 30
0.0
 11
7.815999999999999
 21
0.124
 31
0.0
  0
LINE
  5
6A9
330
1E
100
AcDbEntity
  8
TITLE
100
AcDbLine
 10
6.166
 20
5.123999999999999
 30
0.0
 11
6.166
 21
0.124
 31
0.0
  0
LINE
  5
6AA
330
1E
100
AcDbEntity
  8
TITLE
100
AcDbLine
 10
9.466000000000001
 20
5.123999999999999
 30
0.0
 11
9.466000000000001
 21
0.124
 31
0.0
  0
TEXT
  5
6AB
330
1E
100
AcDbEntity
  8
TEXT
100
AcDbText
 10
5.2785
 20
4.787332999999999
 30
0.0
 40
0.25
  1
B
 41
0.75
 72
     4
 11
5.341
 21
4.912332999999999
 31
0.0
100
AcDbText
  0
TEXT
  5
6AC
330
1E
100
AcDbEntity
  8
TEXT
100
AcDbText
 10
3.6285
 20
4.787332999999999
 30
0.0
 40
0.25
  1
A
 41
0.75
 72
     4
 11
3.691
 21
4.912332999999999
 31
0.0
100
AcDbText
  0
TEXT
  5
6AD
330
1E
100
AcDbEntity
  8
TEXT
100
AcDbText
 10
0.8387500000000001
 20
4.787332999999999
 30
0.0
 40
0.25
  1
PART No.
 41
0.75
 72
     4
 11
1.495
 21
4.912332999999999
 31
0.0
100
AcDbText
  0
LINE
  5
6AE
330
1E
100
AcDbEntity
  8
TITLE
100
AcDbLine
 10
4.516
 20
5.123999999999999
 30
0.0
 11
4.516
 21
0.124
 31
0.0
  0
LINE
  5
6AF
330
1E
100
AcDbEntity
  8
TITLE
100
AcDbLine
 10
2.866
 20
5.123999999999999
 30
0.0
 11
2.866
 21
0.124
 31
0.0
  0
TEXT
  5
6B0
330
1E
100
AcDbEntity
  8
TEXT
100
AcDbText
 10
5.091
 20
3.953999999999999
 30
0.0
 40
0.25
  1
.491
 41
0.75
 72
     4
 11
5.341
 21
4.078999999999999
 31
0.0
100
AcDbText
  0
TEXT
  5
6B1
330
1E
100
AcDbEntity
  8
TEXT
100
AcDbText
 10
5.05975
 20
4.370665999999999
 30
0.0
 40
0.25
  1
.769
 41
0.75
 72
     4
 11
5.341
 21
4.495665999999999
 31
0.0
100
AcDbText
  0
TEXT
  5
6B2
330
1E
100
AcDbEntity
  8
TEXT
100
AcDbText
 10
5.0285
 20
2.715915999999999
 30
0.0
 40
0.25
  1
1.159
 41
0.75
 72
     4
 11
5.341
 21
2.840915999999999
 31
0.0
100
AcDbText
  0
TEXT
  5
6B3
330
1E
100
AcDbEntity
  8
TEXT
100
AcDbText
 10
4.99725
 20
3.132582999999999
 30
0.0
 40
0.25
  1
1.546
 41
0.75
 72
     4
 11
5.341
 21
3.257582999999999
 31
0.0
100
AcDbText
  0
TEXT
  5
6B4
330
1E
100
AcDbEntity
  8
TEXT
100
AcDbText
 10
5.075375
 20
3.549249999999999
 30
0.0
 40
0.25
  1
.950
 41
0.75
 72
     4
 11
5.341
 21
3.674249999999999
 31
0.0
100
AcDbText
  0
TEXT
  5
6B6
330
1E
100
AcDbEntity
  8
TEXT
100
AcDbText
 10
5.028999999999999
 20
2.300115999999999
 30
0.0
 40
0.2496
  1
1.914
 41
0.75
 72
     4
 11
5.341
 21
2.424915999999999
 31
0.0
100
AcDbText
  0
TEXT
  5
6B7
330
1E
100
AcDbEntity
  8
TEXT
100
AcDbText
 10
0.9022000000000002
 20
2.298782999999999
 30
0.0
 40
0.2496
  1
PB-1565
 41
0.75
 72
     4
 11
1.495
 21
2.423582999999999
 31
0.0
100
AcDbText
  0
TEXT
  5
6B9
330
1E
100
AcDbEntity
  8
TEXT
100
AcDbText
 10
0.9012500000000001
 20
2.714583
 30
0.0
 40
0.25
  1
PB-1564
 41
0.75
 72
     4
 11
1.495
 21
2.839583
 31
0.0
100
AcDbText
  0
TEXT
  5
6BA
330
1E
100
AcDbEntity
  8
TEXT
100
AcDbText
 10
0.9012500000000001
 20
3.131249999999999
 30
0.0
 40
0.25
  1
PB-1563
 41
0.75
 72
     4
 11
1.495
 21
3.256249999999999
 31
0.0
100
AcDbText
  0
TEXT
  5
6BB
330
1E
100
AcDbEntity
  8
TEXT
100
AcDbText
 10
0.9012500000000001
 20
3.547915999999999
 30
0.0
 40
0.25
  1
PB-1562
 41
0.75
 72
     4
 11
1.495
 21
3.672915999999999
 31
0.0
100
AcDbText
  0
TEXT
  5
6BC
330
1E
100
AcDbEntity
  8
TEXT
100
AcDbText
 10
0.9325000000000001
 20
3.952665999999999
 30
0.0
 40
0.25
  1
PB-1561
 41
0.75
 72
     4
 11
1.495
 21
4.077665999999999
 31
0.0
100
AcDbText
  0
TEXT
  5
6BD
330
1E
100
AcDbEntity
  8
TEXT
100
AcDbText
 10
0.9168750000000001
 20
4.369333
 30
0.0
 40
0.25
  1
PB-1560
 41
0.75
 72
     4
 11
1.495
 21
4.494333
 31
0.0
100
AcDbText
  0
TEXT
  5
6BE
330
1E
100
AcDbEntity
  8
TEXT
100
AcDbText
 10
3.3322
 20
2.300115999999999
 30
0.0
 40
0.2496
  1
2.708
 41
0.75
 72
     4
 11
3.691
 21
2.424915999999999
 31
0.0
100
AcDbText
  0
TEXT
  5
6C0
330
1E
100
AcDbEntity
  8
TEXT
100
AcDbText
 10
3.425375
 20
3.549249999999999
 30
0.0
 40
0.25
  1
.950
 41
0.75
 72
     4
 11
3.691
 21
3.674249999999999
 31
0.0
100
AcDbText
  0
TEXT
  5
6C1
330
1E
100
AcDbEntity
  8
TEXT
100
AcDbText
 10
3.362875
 20
2.715915999999999
 30
0.0
 40
0.25
  1
1.750
 41
0.75
 72
     4
 11
3.691
 21
2.840915999999999
 31
0.0
100
AcDbText
  0
TEXT
  5
6C2
330
1E
100
AcDbEntity
  8
TEXT
100
AcDbText
 10
3.34725
 20
3.132582999999999
 30
0.0
 40
0.25
  1
1.546
 41
0.75
 72
     4
 11
3.691
 21
3.257582999999999
 31
0.0
100
AcDbText
  0
TEXT
  5
6C3
330
1E
100
AcDbEntity
  8
TEXT
100
AcDbText
 10
3.34725
 20
3.953999999999999
 30
0.0
 40
0.25
  1
1.948
 41
0.75
 72
     4
 11
3.691
 21
4.078999999999999
 31
0.0
100
AcDbText
  0
TEXT
  5
6C4
330
1E
100
AcDbEntity
  8
TEXT
100
AcDbText
 10
3.40975
 20
4.370665999999999
 30
0.0
 40
0.25
  1
.769
 41
0.75
 72
     4
 11
3.691
 21
4.495665999999999
 31
0.0
100
AcDbText
  0
TEXT
  5
6C5
330
1E
100
AcDbEntity
  8
TEXT
100
AcDbText
 10
6.6478
 20
2.300115999999999
 30
0.0
 40
0.2496
  1
1.378
 41
0.75
 72
     4
 11
6.991
 21
2.424915999999999
 31
0.0
100
AcDbText
  0
TEXT
  5
6C7
330
1E
100
AcDbEntity
  8
TEXT
100
AcDbText
 10
6.741
 20
4.370665999999999
 30
0.0
 40
0.25
  1
.512
 41
0.75
 72
     4
 11
6.991
 21
4.495665999999999
 31
0.0
100
AcDbText
  0
TEXT
  5
6C8
330
1E
100
AcDbEntity
  8
TEXT
100
AcDbText
 10
6.741
 20
3.953999999999999
 30
0.0
 40
0.25
  1
.591
 41
0.75
 72
     4
 11
6.991
 21
4.078999999999999
 31
0.0
100
AcDbText
  0
TEXT
  5
6C9
330
1E
100
AcDbEntity
  8
TEXT
100
AcDbText
 10
6.725375
 20
2.715915999999999
 30
0.0
 40
0.25
  1
.630
 41
0.75
 72
     4
 11
6.991
 21
2.840915999999999
 31
0.0
100
AcDbText
  0
TEXT
  5
6CA
330
1E
100
AcDbEntity
  8
TEXT
100
AcDbText
 10
6.70975
 20
3.132582999999999
 30
0.0
 40
0.25
  1
.787
 41
0.75
 72
     4
 11
6.991
 21
3.257582999999999
 31
0.0
100
AcDbText
  0
TEXT
  5
6CB
330
1E
100
AcDbEntity
  8
TEXT
100
AcDbText
 10
6.70975
 20
3.549249999999999
 30
0.0
 40
0.25
  1
.984
 41
0.75
 72
     4
 11
6.991
 21
3.674249999999999
 31
0.0
100
AcDbText
  0
TEXT
  5
6CC
330
1E
100
AcDbEntity
  8
TEXT
100
AcDbText
 10
8.375799999999999
 20
2.291532999999999
 30
0.0
 40
0.2496
  1
.055
 41
0.75
 72
     4
 11
8.641
 21
2.416332999999999
 31
0.0
100
AcDbText
  0
TEXT
  5
6CD
330
1E
100
AcDbEntity
  8
TEXT
100
AcDbText
 10
9.916599999999998
 20
2.291532999999999
 30
0.0
 40
0.2496
  1
2.756
 41
0.75
 72
     4
 11
10.29099999999999
 21
2.416332999999999
 31
0.0
100
AcDbText
  0
TEXT
  5
6D0
330
1E
100
AcDbEntity
  8
TEXT
100
AcDbText
 10
8.3914
 20
3.539533
 30
0.0
 40
0.2496
  1
.040
 41
0.75
 72
     4
 11
8.641
 21
3.664333
 31
0.0
100
AcDbText
  0
TEXT
  5
6D1
330
1E
100
AcDbEntity
  8
TEXT
100
AcDbText
 10
8.3914
 20
2.707532999999999
 30
0.0
 40
0.2496
  1
.050
 41
0.75
 72
     4
 11
8.641
 21
2.832332999999999
 31
0.0
100
AcDbText
  0
TEXT
  5
6D2
330
1E
100
AcDbEntity
  8
TEXT
100
AcDbText
 10
8.375799999999999
 20
3.123532999999999
 30
0.0
 40
0.2496
  1
.037
 41
0.75
 72
     4
 11
8.641
 21
3.248332999999999
 31
0.0
100
AcDbText
  0
TEXT
  5
6D3
330
1E
100
AcDbEntity
  8
TEXT
100
AcDbText
 10
8.3914
 20
3.955532999999999
 30
0.0
 40
0.2496
  1
.050
 41
0.75
 72
     4
 11
8.641
 21
4.080332999999999
 31
0.0
100
AcDbText
  0
TEXT
  5
6D4
330
1E
100
AcDbEntity
  8
TEXT
100
AcDbText
 10
8.375799999999999
 20
4.371533
 30
0.0
 40
0.2496
  1
.032
 41
0.75
 72
     4
 11
8.641
 21
4.496332999999999
 31
0.0
100
AcDbText
  0
TEXT
  5
6D5
330
1E
100
AcDbEntity
  8
TEXT
100
AcDbText
 10
10.0102
 20
3.539533
 30
0.0
 40
0.2496
  1
.984
 41
0.75
 72
     4
 11
10.29099999999999
 21
3.664333
 31
0.0
100
AcDbText
  0
TEXT
  5
6D6
330
1E
100
AcDbEntity
  8
TEXT
100
AcDbText
 10
9.947799999999999
 20
2.707532999999999
 30
0.0
 40
0.2496
  1
1.772
 41
0.75
 72
     4
 11
10.29099999999999
 21
2.832332999999999
 31
0.0
100
AcDbText
  0
TEXT
  5
6D7
330
1E
100
AcDbEntity
  8
TEXT
100
AcDbText
 10
9.947799999999999
 20
3.123532999999999
 30
0.0
 40
0.2496
  1
1.573
 41
0.75
 72
     4
 11
10.29099999999999
 21
3.248332999999999
 31
0.0
100
AcDbText
  0
TEXT
  5
6D8
330
1E
100
AcDbEntity
  8
TEXT
100
AcDbText
 10
9.947799999999999
 20
3.955532999999999
 30
0.0
 40
0.2496
  1
1.969
 41
0.75
 72
     4
 11
10.29099999999999
 21
4.080332999999999
 31
0.0
100
AcDbText
  0
TEXT
  5
6D9
330
1E
100
AcDbEntity
  8
TEXT
100
AcDbText
 10
10.0102
 20
4.371533
 30
0.0
 40
0.2496
  1
.787
 41
0.75
 72
     4
 11
10.29099999999999
 21
4.496332999999999
 31
0.0
100
AcDbText
  0
TEXT
  5
6DA
330
1E
100
AcDbEntity
  8
TEXT
100
AcDbText
 10
0.4619280000000004
 20
5.392716
 30
0.0
 40
0.25
  1
SHIPPED IN PACKAGES OF 25.
 41
0.75
100
AcDbText
  0
TEXT
  5
6DB
330
1E
100
AcDbEntity
  8
TEXT
100
AcDbText
 10
11.87849999999999
 20
4.787332999999999
 30
0.0
 40
0.25
  1
F
 41
0.75
 72
     4
 11
11.94099999999999
 21
4.912332999999999
 31
0.0
100
AcDbText
  0
LINE
  5
6DC
330
1E
100
AcDbEntity
  8
TITLE
100
AcDbLine
 10
11.11599999999999
 20
5.123999999999999
 30
0.0
 11
11.11599999999999
 21
0.124
 31
0.0
  0
LINE
  5
6DD
330
1E
100
AcDbEntity
  8
TITLE
100
AcDbLine
 10
16.066
 20
5.123999999999999
 30
0.0
 11
16.066
 21
0.124
 31
0.0
  0
TEXT
  5
6DE
330
1E
100
AcDbEntity
  8
TEXT
100
AcDbText
 10
16.80974999999999
 20
4.787332999999999
 30
0.0
 40
0.25
  1
OPTIONAL COVER
 41
0.75
 72
     4
 11
18.09099999999999
 21
4.912332999999999
 31
0.0
100
AcDbText
  0
TEXT
  5
6DF
330
1E
100
AcDbEntity
  8
TEXT
100
AcDbText
 10
11.5978
 20
2.291532999999999
 30
0.0
 40
0.2496
  1
1.968
 41
0.75
 72
     4
 11
11.94099999999999
 21
2.416332999999999
 31
0.0
100
AcDbText
  0
TEXT
  5
6E1
330
1E
100
AcDbEntity
  8
TEXT
100
AcDbText
 10
11.6914
 20
3.955532999999999
 30
0.0
 40
0.2496
  1
.512
 41
0.75
 72
     4
 11
11.94099999999999
 21
4.080332999999999
 31
0.0
100
AcDbText
  0
TEXT
  5
6E2
330
1E
100
AcDbEntity
  8
TEXT
100
AcDbText
 10
11.6602
 20
4.371533
 30
0.0
 40
0.2496
  1
.787
 41
0.75
 72
     4
 11
11.94099999999999
 21
4.496332999999999
 31
0.0
100
AcDbText
  0
TEXT
  5
6E3
330
1E
100
AcDbEntity
  8
TEXT
100
AcDbText
 10
11.6602
 20
2.707532999999999
 30
0.0
 40
0.2496
  1
1.181
 41
0.75
 72
     4
 11
11.94099999999999
 21
2.832332999999999
 31
0.0
100
AcDbText
  0
TEXT
  5
6E4
330
1E
100
AcDbEntity
  8
TEXT
100
AcDbText
 10
11.5978
 20
3.123532999999999
 30
0.0
 40
0.2496
  1
1.573
 41
0.75
 72
     4
 11
11.94099999999999
 21
3.248332999999999
 31
0.0
100
AcDbText
  0
TEXT
  5
6E5
330
1E
100
AcDbEntity
  8
TEXT
100
AcDbText
 10
11.6602
 20
3.539533
 30
0.0
 40
0.2496
  1
.984
 41
0.75
 72
     4
 11
11.94099999999999
 21
3.664333
 31
0.0
100
AcDbText
  0
TEXT
  5
6E6
330
1E
100
AcDbEntity
  8
TEXT
100
AcDbText
 10
17.40459999999999
 20
2.300115999999999
 30
0.0
 40
0.2496
  1
PBC-1565
 41
0.75
 72
     4
 11
18.09099999999999
 21
2.424915999999999
 31
0.0
100
AcDbText
  0
TEXT
  5
6E8
330
1E
100
AcDbEntity
  8
TEXT
100
AcDbText
 10
17.40349999999999
 20
2.715915999999999
 30
0.0
 40
0.25
  1
PBC-1564
 41
0.75
 72
     4
 11
18.09099999999999
 21
2.840915999999999
 31
0.0
100
AcDbText
  0
TEXT
  5
6E9
330
1E
100
AcDbEntity
  8
TEXT
100
AcDbText
 10
17.40349999999999
 20
3.132582999999999
 30
0.0
 40
0.25
  1
PBC-1563
 41
0.75
 72
     4
 11
18.09099999999999
 21
3.257582999999999
 31
0.0
100
AcDbText
  0
TEXT
  5
6EA
330
1E
100
AcDbEntity
  8
TEXT
100
AcDbText
 10
17.40349999999999
 20
3.549249999999999
 30
0.0
 40
0.25
  1
PBC-1562
 41
0.75
 72
     4
 11
18.09099999999999
 21
3.674249999999999
 31
0.0
100
AcDbText
  0
TEXT
  5
6EB
330
1E
100
AcDbEntity
  8
TEXT
100
AcDbText
 10
17.43474999999999
 20
3.965915999999999
 30
0.0
 40
0.25
  1
PBC-1561
 41
0.75
 72
     4
 11
18.09099999999999
 21
4.090915999999999
 31
0.0
100
AcDbText
  0
TEXT
  5
6EC
330
1E
100
AcDbEntity
  8
TEXT
100
AcDbText
 10
17.41912499999999
 20
4.382582999999999
 30
0.0
 40
0.25
  1
PBC-1560
 41
0.75
 72
     4
 11
18.09099999999999
 21
4.507582999999999
 31
0.0
100
AcDbText
  0
TEXT
  5
6ED
330
1E
100
AcDbEntity
  8
TEXT
100
AcDbText
 10
0.4619280000000004
 20
6.688816
 30
0.0
 40
0.25
  1
ALL DIMENSIONS HAVE %%p0.010 TOLERANCE
 41
0.75
100
AcDbText
  0
LINE
  5
6EE
330
1E
100
AcDbEntity
  8
TITLE
100
AcDbLine
 10
0.124
 20
1.373999999999999
 30
0.0
 11
20.116
 21
1.373999999999999
 31
0.0
  0
TEXT
  5
6FF
330
1E
100
AcDbEntity
  8
TEXT
100
AcDbText
 10
11.17368099999999
 20
15.600689
 30
0.0
 40
0.374
  1
PB-1560 TO PB-1565
 41
1.387542013024831
 72
     5
 11
19.90918299999999
 21
15.600689
 31
0.0
100
AcDbText
  0
TEXT
  5
701
330
1E
100
AcDbEntity
  8
TEXT
100
AcDbText
 10
0.4619280000000004
 20
6.284066000000001
 30
0.0
 40
0.25
  1
UNLESS OTHERWISE SPECIFIED
 41
0.75
100
AcDbText
  0
LINE
  5
703
330
1E
100
AcDbEntity
  8
TITLE
100
AcDbLine
 10
0.124
 20
1.790666
 30
0.0
 11
20.116
 21
1.790666
 31
0.0
  0
LINE
  5
704
330
1E
100
AcDbEntity
  8
TITLE
100
AcDbLine
 10
0.124
 20
2.207332999999999
 30
0.0
 11
20.116
 21
2.207332999999999
 31
0.0
  0
LINE
  5
705
330
1E
100
AcDbEntity
  8
TITLE
100
AcDbLine
 10
0.124
 20
3.457332999999999
 30
0.0
 11
20.116
 21
3.457332999999999
 31
0.0
  0
LINE
  5
706
330
1E
100
AcDbEntity
  8
TITLE
100
AcDbLine
 10
0.124
 20
3.040665999999999
 30
0.0
 11
20.116
 21
3.040665999999999
 31
0.0
  0
LINE
  5
707
330
1E
100
AcDbEntity
  8
TITLE
100
AcDbLine
 10
0.124
 20
2.623999999999999
 30
0.0
 11
20.116
 21
2.623999999999999
 31
0.0
  0
LINE
  5
708
330
1E
100
AcDbEntity
  8
TITLE
100
AcDbLine
 10
0.124
 20
4.290665999999999
 30
0.0
 11
20.116
 21
4.290665999999999
 31
0.0
  0
LINE
  5
709
330
1E
100
AcDbEntity
  8
TITLE
100
AcDbLine
 10
0.124
 20
4.707332999999999
 30
0.0
 11
20.116
 21
4.707332999999999
 31
0.0
  0
LINE
  5
70A
330
1E
100
AcDbEntity
  8
TITLE
100
AcDbLine
 10
0.124
 20
5.123999999999999
 30
0.0
 11
20.116
 21
5.123999999999999
 31
0.0
  0
LINE
  5
70B
330
1E
100
AcDbEntity
  8
TITLE
100
AcDbLine
 10
0.124
 20
3.873999999999999
 30
0.0
 11
20.116
 21
3.873999999999999
 31
0.0
  0
LINE
  5
70C
330
1E
100
AcDbEntity
  8
TITLE
100
AcDbLine
 10
0.124
 20
0.957333
 30
0.0
 11
20.116
 21
0.957333
 31
0.0
  0
LINE
  5
70D
330
1E
100
AcDbEntity
  8
TITLE
100
AcDbLine
 10
0.124
 20
0.5406659999999999
 30
0.0
 11
20.116
 21
0.5406659999999999
 31
0.0
  0
LWPOLYLINE
  5
728
330
1E
100
AcDbEntity
  8
OBJECT
100
AcDbPolyline
 90
        8
 70
     1
 43
0.0
 10
18.81415
 20
5.953289999999999
 10
15.00215
 20
5.953289999999999
 42
-0.4142140000000001
 10
14.90815
 20
6.04729
 10
14.90815
 20
7.984289999999999
 42
-0.4142140000000001
 10
15.00215
 20
8.078289999999999
 10
18.81415
 20
8.078289999999999
 42
-0.4142140000000001
 10
18.90814999999999
 20
7.984289999999999
 10
18.90814999999999
 20
6.04729
 42
-0.4142140000000001
  0
LINE
  5
732
330
1E
100
AcDbEntity
  8
OBJECT
100
AcDbLine
 10
14.949778
 20
5.900789999999999
 30
0.0
 11
18.866522
 21
5.900789999999999
 31
0.0
  0
LINE
  5
733
330
1E
100
AcDbEntity
  8
OBJECT
100
AcDbLine
 10
18.866522
 20
8.130289999999998
 30
0.0
 11
14.949778
 21
8.130289999999998
 31
0.0
  0
LINE
  5
740
330
1E
100
AcDbEntity
  8
OBJECT
100
AcDbLine
 10
14.85577799999999
 20
8.036289999999999
 30
0.0
 11
14.85577799999999
 21
5.99479
 31
0.0
  0
ARC
  5
741
330
1E
100
AcDbEntity
  8
OBJECT
100
AcDbCircle
 10
14.949778
 20
5.99479
 30
0.0
 40
0.094
100
AcDbArc
 50
180.0
 51
270.0
  0
ARC
  5
742
330
1E
100
AcDbEntity
  8
OBJECT
100
AcDbCircle
 10
14.949778
 20
8.036289999999999
 30
0.0
 40
0.094
100
AcDbArc
 50
90.0
 51
180.0
  0
LINE
  5
743
330
1E
100
AcDbEntity
  8
OBJECT
100
AcDbLine
 10
18.960522
 20
5.99479
 30
0.0
 11
18.960522
 21
8.036289999999999
 31
0.0
  0
ARC
  5
744
330
1E
100
AcDbEntity
  8
OBJECT
100
AcDbCircle
 10
18.866522
 20
5.99479
 30
0.0
 40
0.094
100
AcDbArc
 50
270.0
 51
0.0
  0
ARC
  5
74C
330
1E
100
AcDbEntity
  8
OBJECT
100
AcDbCircle
 10
18.866522
 20
8.036289999999999
 30
0.0
 40
0.094
100
AcDbArc
 50
0.0
 51
90.0
  0
DIMENSION
  5
74D
330
1E
100
AcDbEntity
  8
DIM
100
AcDbDimension
  2
*D7
 10
19.541979
 20
6.06279
 30
0.0
 11
19.541979
 21
7.015790000000003
 31
0.0
 70
    32
  1
H
 71
     5
 42
1.905999999999998
  3
23NSTD
100
AcDbAlignedDimension
 13
18.80314999999999
 23
7.968789999999999
 33
0.0
 14
18.80314999999999
 24
6.06279
 34
0.0
 50
270.0
100
AcDbRotatedDimension
  0
LINE
  5
769
330
1E
100
AcDbEntity
  8
TITLE
100
AcDbLine
 10
12.76599999999999
 20
5.123999999999999
 30
0.0
 11
12.76599999999999
 21
0.124
 31
0.0
  0
LINE
  5
76A
330
1E
100
AcDbEntity
  8
TITLE
100
AcDbLine
 10
14.416
 20
5.123999999999999
 30
0.0
 11
14.416
 21
0.124
 31
0.0
  0
LINE
  5
AAA
330
1E
100
AcDbEntity
  8
TITLE
100
AcDbLine
 10
20.24
 20
16.33599999999999
 30
0.0
 11
0.0
 21
16.33599999999999
 31
0.0
  0
TEXT
  5
AC6
330
1E
100
AcDbEntity
  8
TEXT
100
AcDbText
 10
13.30080745753845
 20
4.787332999999999
 30
0.0
 40
0.25
  1
G
 41
0.75
 72
     4
 11
13.36330745753845
 21
4.912332999999999
 31
0.0
100
AcDbText
  0
TEXT
  5
AC7
330
1E
100
AcDbEntity
  8
TEXT
100
AcDbText
 10
13.09810745753845
 20
4.371533
 30
0.0
 40
0.2496
  1
.025
 41
0.75
 72
     4
 11
13.36330745753845
 21
4.496332999999999
 31
0.0
100
AcDbText
  0
TEXT
  5
AC8
330
1E
100
AcDbEntity
  8
TEXT
100
AcDbText
 10
13.09810745753845
 20
3.955532999999999
 30
0.0
 40
0.2496
  1
.035
 41
0.75
 72
     4
 11
13.36330745753845
 21
4.080332999999999
 31
0.0
100
AcDbText
  0
TEXT
  5
AC9
330
1E
100
AcDbEntity
  8
TEXT
100
AcDbText
 10
13.09810745753845
 20
3.123532999999999
 30
0.0
 40
0.2496
  1
.045
 41
0.75
 72
     4
 11
13.36330745753845
 21
3.248332999999999
 31
0.0
100
AcDbText
  0
TEXT
  5
ACA
330
1E
100
AcDbEntity
  8
TEXT
100
AcDbText
 10
13.09810745753845
 20
3.539533
 30
0.0
 40
0.2496
  1
.035
 41
0.75
 72
     4
 11
13.36330745753845
 21
3.664333
 31
0.0
100
AcDbText
  0
TEXT
  5
ACC
330
1E
100
AcDbEntity
  8
TEXT
100
AcDbText
 10
13.11370745753845
 20
2.707532999999999
 30
0.0
 40
0.2496
  1
.020
 41
0.75
 72
     4
 11
13.36330745753845
 21
2.832332999999999
 31
0.0
100
AcDbText
  0
TEXT
  5
ACD
330
1E
100
AcDbEntity
  8
TEXT
100
AcDbText
 10
13.11370745753845
 20
2.291532999999999
 30
0.0
 40
0.2496
  1
.060
 41
0.75
 72
     4
 11
13.36330745753845
 21
2.416332999999999
 31
0.0
100
AcDbText
  0
ENDSEC
  0
SECTION
  2
OBJECTS
  0
DICTIONARY
  5
C
330
0
100
AcDbDictionary
281
     1
  3
ACAD_GROUP
350
D
  3
ACAD_LAYOUT
350
19
  3
ACAD_MLINESTYLE
350
16
  3
ACAD_PLOTSETTINGS
350
18
  3
ACAD_PLOTSTYLENAME
350
E
  0
DICTIONARY
  5
D
102
{ACAD_REACTORS
330
C
102
}
330
C
100
AcDbDictionary
281
     1
  0
DICTIONARY
  5
19
102
{ACAD_REACTORS
330
C
102
}
330
C
100
AcDbDictionary
281
     1
  3
Layout1
350
1D
  3
Model
350
21
  0
DICTIONARY
  5
16
102
{ACAD_REACTORS
330
C
102
}
330
C
100
AcDbDictionary
281
     1
  3
Standard
350
17
  0
DICTIONARY
  5
18
102
{ACAD_REACTORS
330
C
102
}
330
C
100
AcDbDictionary
281
     1
  0
ACDBDICTIONARYWDFLT
  5
E
102
{ACAD_REACTORS
330
C
102
}
330
C
100
AcDbDictionary
281
     1
  3
Normal
350
F
100
AcDbDictionaryWithDefault
340
F
  0
LAYOUT
  5
1D
102
{ACAD_REACTORS
330
19
102
}
330
19
100
AcDbPlotSettings
  1

  2
None
  4

  6

 40
0.0
 41
0.0
 42
0.0
 43
0.0
 44
0.0
 45
0.0
 46
0.0
 47
0.0
 48
0.0
 49
0.0
140
0.0
141
0.0
142
1.0
143
1.0
 70
   688
 72
     0
 73
     0
 74
     5
  7
monochrome.ctb
 75
    16
147
1.0
148
0.0
149
0.0
100
AcDbLayout
  1
Layout1
 70
     0
 71
     1
 10
0.0
 20
0.0
 11
12.0
 21
9.0
 12
0.0
 22
0.0
 32
0.0
 14
1.000000000000000E+20
 24
1.000000000000000E+20
 34
1.000000000000000E+20
 15
-1.000000000000000E+20
 25
-1.000000000000000E+20
 35
-1.000000000000000E+20
146
0.0
 13
0.0
 23
0.0
 33
0.0
 16
1.0
 26
0.0
 36
0.0
 17
0.0
 27
1.0
 37
0.0
 76
     0
330
1A
  0
LAYOUT
  5
21
102
{ACAD_REACTORS
330
19
102
}
330
19
100
AcDbPlotSettings
  1

  2
RICOH Aficio 1060 PCL 6
  4
Letter
  6

 40
5.027083396911621
 41
5.027085304260253
 42
5.027084350585937
 43
5.027069091796875
 44
215.8999938964843
 45
279.3999938964843
 46
14.98599999999999
 47
0.0
 48
0.0
 49
0.0
140
0.0
141
0.0
142
1.0
143
2.923468300585865
 70
 11956
 72
     0
 73
     0
 74
     1
  7
monochrome.ctb
 75
     0
147
0.3420594640275727
148
0.0146377304591653
149
0.0120063368330605
100
AcDbLayout
  1
Model
 70
     1
 71
     0
 10
0.0
 20
0.0
 11
12.0
 21
9.0
 12
0.0
 22
0.0
 32
0.0
 14
0.0
 24
0.0
 34
0.0
 15
0.0
 25
0.0
 35
0.0
146
0.0
 13
0.0
 23
0.0
 33
0.0
 16
1.0
 26
0.0
 36
0.0
 17
0.0
 27
1.0
 37
0.0
 76
     0
330
1E
  0
MLINESTYLE
  5
17
102
{ACAD_REACTORS
330
16
102
}
330
16
100
AcDbMlineStyle
  2
STANDARD
 70
     0
  3

 62
   256
 51
90.0
 52
90.0
 71
     2
 49
0.5
 62
   256
  6
BYLAYER
 49
-0.5
 62
   256
  6
BYLAYER
  0
ACDBPLACEHOLDER
  5
F
102
{ACAD_REACTORS
330
E
102
}
330
E
  0
ENDSEC
  0
EOF
