  0
SECTION
  2
HEADER
  9
$ACADVER
  1
AC1015
  9
$ACADMAINTVER
 70
     6
  9
$DWGCODEPAGE
  3
ANSI_1252
  9
$INSBASE
 10
0.0
 20
0.0
 30
0.0
  9
$EXTMIN
 10
-0.0092647125837289
 20
-0.0141900242140878
 30
-0.0000000349181948
  9
$EXTMAX
 10
151.8092661263743
 20
232.5141921896053
 30
0.0000000814935746
  9
$LIMMIN
 10
0.0
 20
0.0
  9
$LIMMAX
 10
151.7999999999998
 20
232.4999999999998
  9
$ORTHOMODE
 70
     1
  9
$REGENMODE
 70
     1
  9
$FILLMODE
 70
     1
  9
$QTEXTMODE
 70
     0
  9
$MIRRTEXT
 70
     0
  9
$LTSCALE
 40
5.0
  9
$ATTMODE
 70
     1
  9
$TEXTSIZE
 40
1.875
  9
$TRACEWID
 40
0.05
  9
$TEXTSTYLE
  7
TXT
  9
$CLAYER
  8
0
  9
$CELTYPE
  6
ByLayer
  9
$CECOLOR
 62
   256
  9
$CELTSCALE
 40
1.0
  9
$DISPSILH
 70
     0
  9
$DIMSCALE
 40
15.0
  9
$DIMASZ
 40
0.18
  9
$DIMEXO
 40
0.063
  9
$DIMDLI
 40
0.281
  9
$DIMRND
 40
0.0
  9
$DIMDLE
 40
0.0
  9
$DIMEXE
 40
0.093
  9
$DIMTP
 40
0.0
  9
$DIMTM
 40
0.0
  9
$DIMTXT
 40
0.125
  9
$DIMCEN
 40
0.09
  9
$DIMTSZ
 40
0.0
  9
$DIMTOL
 70
     0
  9
$DIMLIM
 70
     0
  9
$DIMTIH
 70
     1
  9
$DIMTOH
 70
     1
  9
$DIMSE1
 70
     0
  9
$DIMSE2
 70
     0
  9
$DIMTAD
 70
     0
  9
$DIMZIN
 70
     0
  9
$DIMBLK
  1

  9
$DIMASO
 70
     1
  9
$DIMSHO
 70
     1
  9
$DIMPOST
  1

  9
$DIMAPOST
  1
ction
  9
$DIMALT
 70
     0
  9
$DIMALTD
 70
     2
  9
$DIMALTF
 40
25.4
  9
$DIMLFAC
 40
1.0
  9
$DIMTOFL
 70
     0
  9
$DIMTVP
 40
0.0
  9
$DIMTIX
 70
     0
  9
$DIMSOXD
 70
     0
  9
$DIMSAH
 70
     0
  9
$DIMBLK1
  1

  9
$DIMBLK2
  1

  9
$DIMSTYLE
  2
23NSTD
  9
$DIMCLRD
 70
     0
  9
$DIMCLRE
 70
     0
  9
$DIMCLRT
 70
     0
  9
$DIMTFAC
 40
1.0
  9
$DIMGAP
 40
0.09
  9
$DIMJUST
 70
     0
  9
$DIMSD1
 70
     0
  9
$DIMSD2
 70
     0
  9
$DIMTOLJ
 70
     1
  9
$DIMTZIN
 70
     0
  9
$DIMALTZ
 70
     0
  9
$DIMALTTZ
 70
     0
  9
$DIMUPT
 70
     0
  9
$DIMDEC
 70
     3
  9
$DIMTDEC
 70
     3
  9
$DIMALTU
 70
     2
  9
$DIMALTTD
 70
     2
  9
$DIMTXSTY
  7
STANDARD
  9
$DIMAUNIT
 70
     0
  9
$DIMADEC
 70
     0
  9
$DIMALTRND
 40
0.0
  9
$DIMAZIN
 70
     0
  9
$DIMDSEP
 70
    46
  9
$DIMATFIT
 70
     1
  9
$DIMFRAC
 70
     0
  9
$DIMLDRBLK
  1

  9
$DIMLUNIT
 70
     2
  9
$DIMLWD
 70
    -2
  9
$DIMLWE
 70
    -2
  9
$DIMTMOVE
 70
     0
  9
$LUNITS
 70
     2
  9
$LUPREC
 70
     3
  9
$SKETCHINC
 40
0.1
  9
$FILLETRAD
 40
0.0
  9
$AUNITS
 70
     0
  9
$AUPREC
 70
     0
  9
$MENU
  1
acad
  9
$ELEVATION
 40
0.0
  9
$PELEVATION
 40
0.0
  9
$THICKNESS
 40
0.0
  9
$LIMCHECK
 70
     0
  9
$CHAMFERA
 40
0.0
  9
$CHAMFERB
 40
0.0
  9
$CHAMFERC
 40
0.0
  9
$CHAMFERD
 40
0.0
  9
$SKPOLY
 70
     0
  9
$TDCREATE
 40
2448390.657466319
  9
$TDUCREATE
 40
2448390.865799653
  9
$TDUPDATE
 40
2455589.401654004
  9
$TDUUPDATE
 40
2455589.609987338
  9
$TDINDWG
 40
0.2169823495
  9
$TDUSRTIMER
 40
0.2169821759
  9
$USRTIMER
 70
     1
  9
$ANGBASE
 50
0.0
  9
$ANGDIR
 70
     0
  9
$PDMODE
 70
     0
  9
$PDSIZE
 40
0.0
  9
$PLINEWID
 40
0.0
  9
$SPLFRAME
 70
     0
  9
$SPLINETYPE
 70
     6
  9
$SPLINESEGS
 70
     8
  9
$HANDSEED
  5
1305
  9
$SURFTAB1
 70
     6
  9
$SURFTAB2
 70
     6
  9
$SURFTYPE
 70
     6
  9
$SURFU
 70
     6
  9
$SURFV
 70
     6
  9
$UCSBASE
  2

  9
$UCSNAME
  2

  9
$UCSORG
 10
0.0
 20
0.0
 30
0.0
  9
$UCSXDIR
 10
1.0
 20
0.0
 30
0.0
  9
$UCSYDIR
 10
0.0
 20
1.0
 30
0.0
  9
$UCSORTHOREF
  2

  9
$UCSORTHOVIEW
 70
     0
  9
$UCSORGTOP
 10
0.0
 20
0.0
 30
0.0
  9
$UCSORGBOTTOM
 10
0.0
 20
0.0
 30
0.0
  9
$UCSORGLEFT
 10
0.0
 20
0.0
 30
0.0
  9
$UCSORGRIGHT
 10
0.0
 20
0.0
 30
0.0
  9
$UCSORGFRONT
 10
0.0
 20
0.0
 30
0.0
  9
$UCSORGBACK
 10
0.0
 20
0.0
 30
0.0
  9
$PUCSBASE
  2

  9
$PUCSNAME
  2

  9
$PUCSORG
 10
0.0
 20
0.0
 30
0.0
  9
$PUCSXDIR
 10
1.0
 20
0.0
 30
0.0
  9
$PUCSYDIR
 10
0.0
 20
1.0
 30
0.0
  9
$PUCSORTHOREF
  2

  9
$PUCSORTHOVIEW
 70
     0
  9
$PUCSORGTOP
 10
0.0
 20
0.0
 30
0.0
  9
$PUCSORGBOTTOM
 10
0.0
 20
0.0
 30
0.0
  9
$PUCSORGLEFT
 10
0.0
 20
0.0
 30
0.0
  9
$PUCSORGRIGHT
 10
0.0
 20
0.0
 30
0.0
  9
$PUCSORGFRONT
 10
0.0
 20
0.0
 30
0.0
  9
$PUCSORGBACK
 10
0.0
 20
0.0
 30
0.0
  9
$USERI1
 70
     0
  9
$USERI2
 70
     0
  9
$USERI3
 70
     0
  9
$USERI4
 70
     0
  9
$USERI5
 70
     0
  9
$USERR1
 40
0.0
  9
$USERR2
 40
0.0
  9
$USERR3
 40
0.0
  9
$USERR4
 40
0.0
  9
$USERR5
 40
0.0
  9
$WORLDVIEW
 70
     1
  9
$SHADEDGE
 70
     3
  9
$SHADEDIF
 70
    70
  9
$TILEMODE
 70
     1
  9
$MAXACTVP
 70
    16
  9
$PINSBASE
 10
0.0
 20
0.0
 30
0.0
  9
$PLIMCHECK
 70
     0
  9
$PEXTMIN
 10
1.000000000000000E+20
 20
1.000000000000000E+20
 30
1.000000000000000E+20
  9
$PEXTMAX
 10
-1.000000000000000E+20
 20
-1.000000000000000E+20
 30
-1.000000000000000E+20
  9
$PLIMMIN
 10
0.0
 20
0.0
  9
$PLIMMAX
 10
12.0
 20
9.0
  9
$UNITMODE
 70
     0
  9
$VISRETAIN
 70
     0
  9
$PLINEGEN
 70
     0
  9
$PSLTSCALE
 70
     0
  9
$TREEDEPTH
 70
  3020
  9
$CMLSTYLE
  2
Standard
  9
$CMLJUST
 70
     0
  9
$CMLSCALE
 40
1.0
  9
$PROXYGRAPHICS
 70
     1
  9
$MEASUREMENT
 70
     0
  9
$CELWEIGHT
370
    -1
  9
$ENDCAPS
280
     0
  9
$JOINSTYLE
280
     0
  9
$LWDISPLAY
290
     0
  9
$INSUNITS
 70
     0
  9
$HYPERLINKBASE
  1

  9
$STYLESHEET
  1
monochrome.ctb
  9
$XEDIT
290
     1
  9
$CEPSNTYPE
380
     0
  9
$PSTYLEMODE
290
     1
  9
$FINGERPRINTGUID
  2
{D731D499-052D-4804-9A47-ED1D4D6812C3}
  9
$VERSIONGUID
  2
{58C8EE2A-39A5-4E7C-9459-01A0DC6C60E7}
  9
$EXTNAMES
290
     1
  9
$PSVPSCALE
 40
0.0
  9
$OLESTARTUP
290
     0
  0
ENDSEC
  0
SECTION
  2
CLASSES
  0
CLASS
  1
ACDBDICTIONARYWDFLT
  2
AcDbDictionaryWithDefault
  3
AutoCAD 2000
 90
        0
280
     0
281
     0
  0
CLASS
  1
ACDBPLACEHOLDER
  2
AcDbPlaceHolder
  3
AutoCAD 2000
 90
        0
280
     0
281
     0
  0
CLASS
  1
LAYOUT
  2
AcDbLayout
  3
AutoCAD 2000
 90
        0
280
     0
281
     0
  0
ENDSEC
  0
SECTION
  2
TABLES
  0
TABLE
  2
VPORT
  5
9B0
330
0
100
AcDbSymbolTable
 70
     4
  0
VPORT
  5
1304
330
9B0
100
AcDbSymbolTableRecord
100
AcDbViewportTableRecord
  2
*Active
 70
     0
 10
0.0
 20
0.0
 11
1.0
 21
1.0
 12
75.90000035343688
 22
116.2500005413312
 13
0.0
 23
0.0
 14
1.0
 24
1.0
 15
3.0
 25
3.0
 16
0.0
 26
0.0
 36
1.0
 17
0.0
 27
0.0
 37
0.0
 40
235.1024748000841
 41
1.711895910780669
 42
50.0
 43
0.0
 44
0.0
 50
0.0
 51
0.0
 71
     0
 72
   100
 73
     1
 74
     0
 75
     0
 76
     0
 77
     0
 78
     0
281
     0
 65
     0
110
0.0
120
0.0
130
0.0
111
1.0
121
0.0
131
0.0
112
0.0
122
1.0
132
0.0
 79
     0
146
0.0
  0
ENDTAB
  0
TABLE
  2
LTYPE
  5
9AD
330
0
100
AcDbSymbolTable
 70
     6
  0
LTYPE
  5
9BB
330
9AD
100
AcDbSymbolTableRecord
100
AcDbLinetypeTableRecord
  2
ByBlock
 70
     0
  3

 72
    65
 73
     0
 40
0.0
  0
LTYPE
  5
9BC
330
9AD
100
AcDbSymbolTableRecord
100
AcDbLinetypeTableRecord
  2
ByLayer
 70
     0
  3

 72
    65
 73
     0
 40
0.0
  0
LTYPE
  5
9BD
330
9AD
100
AcDbSymbolTableRecord
100
AcDbLinetypeTableRecord
  2
CONTINUOUS
 70
     0
  3
Solid line
 72
    65
 73
     0
 40
0.0
  0
LTYPE
  5
9CD
330
9AD
100
AcDbSymbolTableRecord
100
AcDbLinetypeTableRecord
  2
HIDDEN
 70
     0
  3
_ _ _ _ _ _ _ _ _ _ _ _ _ _ _ _ _ _ _ _ _ _ _
 72
    65
 73
     2
 40
0.375
 49
0.25
 74
     0
 49
-0.125
 74
     0
  0
LTYPE
  5
9CE
330
9AD
100
AcDbSymbolTableRecord
100
AcDbLinetypeTableRecord
  2
CENTER
 70
     0
  3
____ _ ____ _ ____ _ ____ _ ____ _ ____ _ ____
 72
    65
 73
     4
 40
2.0
 49
1.25
 74
     0
 49
-0.25
 74
     0
 49
0.25
 74
     0
 49
-0.25
 74
     0
  0
ENDTAB
  0
TABLE
  2
LAYER
  5
9AA
330
0
100
AcDbSymbolTable
 70
    10
  0
LAYER
  5
9B8
330
9AA
100
AcDbSymbolTableRecord
100
AcDbLayerTableRecord
  2
0
 70
     0
 62
     7
  6
CONTINUOUS
370
    -3
390
9B7
  0
LAYER
  5
9CA
330
9AA
100
AcDbSymbolTableRecord
100
AcDbLayerTableRecord
  2
OBJECT
 70
     0
 62
     7
  6
CONTINUOUS
370
    -3
390
9B7
  0
LAYER
  5
9CF
330
9AA
100
AcDbSymbolTableRecord
100
AcDbLayerTableRecord
  2
DIM
 70
     0
 62
     7
  6
CONTINUOUS
370
    -3
390
9B7
  0
LAYER
  5
9D0
330
9AA
100
AcDbSymbolTableRecord
100
AcDbLayerTableRecord
  2
HIDDEN
 70
     0
 62
     7
  6
HIDDEN
370
    -3
390
9B7
  0
LAYER
  5
9D1
330
9AA
100
AcDbSymbolTableRecord
100
AcDbLayerTableRecord
  2
TEXT
 70
     0
 62
     7
  6
CONTINUOUS
370
    -3
390
9B7
  0
LAYER
  5
9D2
330
9AA
100
AcDbSymbolTableRecord
100
AcDbLayerTableRecord
  2
TITLE
 70
     0
 62
     7
  6
CONTINUOUS
370
    -3
390
9B7
  0
LAYER
  5
9D3
330
9AA
100
AcDbSymbolTableRecord
100
AcDbLayerTableRecord
  2
CENTER
 70
     0
 62
     7
  6
CENTER
370
    -3
390
9B7
  0
LAYER
  5
9D4
330
9AA
100
AcDbSymbolTableRecord
100
AcDbLayerTableRecord
  2
DEFPOINTS
 70
     0
 62
     7
  6
CONTINUOUS
290
     0
370
    -3
390
9B7
  0
LAYER
  5
9D5
330
9AA
100
AcDbSymbolTableRecord
100
AcDbLayerTableRecord
  2
PMR
 70
     0
 62
     7
  6
CONTINUOUS
370
    -3
390
9B7
  0
ENDTAB
  0
TABLE
  2
STYLE
  5
9AB
330
0
100
AcDbSymbolTable
 70
     2
  0
STYLE
  5
9B9
330
9AB
100
AcDbSymbolTableRecord
100
AcDbTextStyleTableRecord
  2
STANDARD
 70
     0
 40
0.0
 41
1.0
 50
0.0
 71
     0
 42
2.186999999999998
  3
txt
  4

  0
STYLE
  5
9CB
330
9AB
100
AcDbSymbolTableRecord
100
AcDbTextStyleTableRecord
  2
TXT
 70
     0
 40
0.0
 41
0.75
 50
0.0
 71
     0
 42
1.875
  3
TXT.shx
  4

  0
ENDTAB
  0
TABLE
  2
VIEW
  5
9AE
330
0
100
AcDbSymbolTable
 70
     0
  0
ENDTAB
  0
TABLE
  2
UCS
  5
9AF
330
0
100
AcDbSymbolTable
 70
     0
  0
ENDTAB
  0
TABLE
  2
APPID
  5
9B1
330
0
100
AcDbSymbolTable
 70
     1
  0
APPID
  5
9BA
330
9B1
100
AcDbSymbolTableRecord
100
AcDbRegAppTableRecord
  2
ACAD
 70
     0
  0
ENDTAB
  0
TABLE
  2
DIMSTYLE
  5
9B2
330
0
100
AcDbSymbolTable
 70
     2
100
AcDbDimStyleTable
 71
     1
340
9D6
  0
DIMSTYLE
105
9D6
102
{ACAD_REACTORS
330
C93
330
CA1
330
CB1
330
CBF
330
CD4
330
CE2
330
CF0
330
CFE
330
D0C
330
D1A
330
D28
330
D36
330
D44
330
D52
330
D60
330
D6E
330
D7B
330
ED7
330
EE5
330
FED
330
FFA
330
1008
330
1016
330
1024
330
10D1
102
}
330
9B2
100
AcDbSymbolTableRecord
100
AcDbDimStyleTableRecord
  2
23NSTD
 70
     0
  4
ction
 40
15.0
 42
0.063
 43
0.281
 44
0.093
140
0.125
271
     3
272
     3
289
     1
340
9CB
  0
ENDTAB
  0
TABLE
  2
BLOCK_RECORD
  5
9A9
330
0
100
AcDbSymbolTable
 70
    32
  0
BLOCK_RECORD
  5
9C6
330
9A9
100
AcDbSymbolTableRecord
100
AcDbBlockTableRecord
  2
*Model_Space
340
9C9
  0
BLOCK_RECORD
  5
9C2
330
9A9
100
AcDbSymbolTableRecord
100
AcDbBlockTableRecord
  2
*Paper_Space
340
9C5
  0
BLOCK_RECORD
  5
9DF
330
9A9
100
AcDbSymbolTableRecord
100
AcDbBlockTableRecord
  2
HB
340
0
102
{BLKREFS
331
1113
102
}
  0
BLOCK_RECORD
  5
C94
330
9A9
100
AcDbSymbolTableRecord
100
AcDbBlockTableRecord
  2
*D7
340
0
  0
BLOCK_RECORD
  5
CA2
330
9A9
100
AcDbSymbolTableRecord
100
AcDbBlockTableRecord
  2
*D8
340
0
  0
BLOCK_RECORD
  5
CB2
330
9A9
100
AcDbSymbolTableRecord
100
AcDbBlockTableRecord
  2
*D9
340
0
  0
BLOCK_RECORD
  5
CC0
330
9A9
100
AcDbSymbolTableRecord
100
AcDbBlockTableRecord
  2
*D10
340
0
  0
BLOCK_RECORD
  5
CD5
330
9A9
100
AcDbSymbolTableRecord
100
AcDbBlockTableRecord
  2
*D11
340
0
  0
BLOCK_RECORD
  5
CE3
330
9A9
100
AcDbSymbolTableRecord
100
AcDbBlockTableRecord
  2
*D12
340
0
  0
BLOCK_RECORD
  5
CF1
330
9A9
100
AcDbSymbolTableRecord
100
AcDbBlockTableRecord
  2
*D13
340
0
  0
BLOCK_RECORD
  5
CFF
330
9A9
100
AcDbSymbolTableRecord
100
AcDbBlockTableRecord
  2
*D14
340
0
  0
BLOCK_RECORD
  5
D0D
330
9A9
100
AcDbSymbolTableRecord
100
AcDbBlockTableRecord
  2
*D15
340
0
  0
BLOCK_RECORD
  5
D1B
330
9A9
100
AcDbSymbolTableRecord
100
AcDbBlockTableRecord
  2
*D16
340
0
  0
BLOCK_RECORD
  5
D29
330
9A9
100
AcDbSymbolTableRecord
100
AcDbBlockTableRecord
  2
*D17
340
0
  0
BLOCK_RECORD
  5
D37
330
9A9
100
AcDbSymbolTableRecord
100
AcDbBlockTableRecord
  2
*D18
340
0
  0
BLOCK_RECORD
  5
D45
330
9A9
100
AcDbSymbolTableRecord
100
AcDbBlockTableRecord
  2
*D19
340
0
  0
BLOCK_RECORD
  5
D53
330
9A9
100
AcDbSymbolTableRecord
100
AcDbBlockTableRecord
  2
*D20
340
0
  0
BLOCK_RECORD
  5
D61
330
9A9
100
AcDbSymbolTableRecord
100
AcDbBlockTableRecord
  2
*D21
340
0
  0
BLOCK_RECORD
  5
D6F
330
9A9
100
AcDbSymbolTableRecord
100
AcDbBlockTableRecord
  2
*D22
340
0
  0
BLOCK_RECORD
  5
D7C
330
9A9
100
AcDbSymbolTableRecord
100
AcDbBlockTableRecord
  2
*D23
340
0
  0
BLOCK_RECORD
  5
ED8
330
9A9
100
AcDbSymbolTableRecord
100
AcDbBlockTableRecord
  2
*D24
340
0
  0
BLOCK_RECORD
  5
EE6
330
9A9
100
AcDbSymbolTableRecord
100
AcDbBlockTableRecord
  2
*D25
340
0
  0
BLOCK_RECORD
  5
FEE
330
9A9
100
AcDbSymbolTableRecord
100
AcDbBlockTableRecord
  2
*D26
340
0
  0
BLOCK_RECORD
  5
FFB
330
9A9
100
AcDbSymbolTableRecord
100
AcDbBlockTableRecord
  2
*D27
340
0
  0
BLOCK_RECORD
  5
1009
330
9A9
100
AcDbSymbolTableRecord
100
AcDbBlockTableRecord
  2
*D28
340
0
  0
BLOCK_RECORD
  5
1017
330
9A9
100
AcDbSymbolTableRecord
100
AcDbBlockTableRecord
  2
*D29
340
0
  0
BLOCK_RECORD
  5
1025
330
9A9
100
AcDbSymbolTableRecord
100
AcDbBlockTableRecord
  2
*D30
340
0
  0
BLOCK_RECORD
  5
10D2
330
9A9
100
AcDbSymbolTableRecord
100
AcDbBlockTableRecord
  2
*D31
340
0
  0
ENDTAB
  0
ENDSEC
  0
SECTION
  2
BLOCKS
  0
BLOCK
  5
9C7
330
9C6
100
AcDbEntity
  8
0
100
AcDbBlockBegin
  2
*Model_Space
 70
     0
 10
0.0
 20
0.0
 30
0.0
  3
*Model_Space
  1

  0
ENDBLK
  5
9C8
330
9C6
100
AcDbEntity
  8
0
100
AcDbBlockEnd
  0
BLOCK
  5
9C3
330
9C2
100
AcDbEntity
 67
     1
  8
0
100
AcDbBlockBegin
  2
*Paper_Space
 70
     0
 10
0.0
 20
0.0
 30
0.0
  3
*Paper_Space
  1

  0
ENDBLK
  5
9C4
330
9C2
100
AcDbEntity
 67
     1
  8
0
100
AcDbBlockEnd
  0
BLOCK
  5
9E0
330
9DF
100
AcDbEntity
  8
0
100
AcDbBlockBegin
  2
HB
 70
     0
 10
0.0
 20
0.0
 30
0.0
  3
HB
  1

  0
LINE
  5
12E4
330
9DF
100
AcDbEntity
  8
TITLE
100
AcDbLine
 10
0.0
 20
15.5
 30
0.0
 11
10.11999999999999
 21
15.49999999999999
 31
0.0
  0
LINE
  5
12E5
330
9DF
100
AcDbEntity
  8
TITLE
100
AcDbLine
 10
10.11999999999999
 20
-0.0000000000000018
 30
0.0
 11
0.0
 21
0.0
 31
0.0
  0
LINE
  5
12E6
330
9DF
100
AcDbEntity
  8
TITLE
100
AcDbLine
 10
0.0620000000000012
 20
15.438
 30
0.0
 11
10.058
 21
15.438
 31
0.0
  0
LINE
  5
12E7
330
9DF
100
AcDbEntity
  8
TITLE
100
AcDbLine
 10
10.058
 20
0.0619999999999994
 30
0.0
 11
0.0619999999999976
 21
0.0620000000000012
 31
0.0
  0
LINE
  5
12E8
330
9DF
100
AcDbEntity
  8
TITLE
100
AcDbLine
 10
0.0620000000000012
 20
15.01999999999999
 30
0.0
 11
10.058
 21
15.01999999999999
 31
0.0
  0
LINE
  5
12E9
330
9DF
100
AcDbEntity
  8
TITLE
100
AcDbLine
 10
0.0
 20
0.0
 30
0.0
 11
0.0
 21
15.5
 31
0.0
  0
LINE
  5
12EA
330
9DF
100
AcDbEntity
  8
TITLE
100
AcDbLine
 10
0.0619999999999976
 20
0.0620000000000012
 30
0.0
 11
0.0620000000000012
 21
15.438
 31
0.0
  0
TEXT
  5
12EB
330
9DF
100
AcDbEntity
  8
TEXT
100
AcDbText
 10
0.2078333333333381
 20
15.26841252897341
 30
0.0
 40
0.125
  1
PART
  7
TXT
 72
     1
 11
0.4370000000000048
 21
15.26841252897341
 31
0.0
100
AcDbText
  0
TEXT
  5
12EC
330
9DF
100
AcDbEntity
  8
TEXT
100
AcDbText
 10
0.2078333333333381
 20
15.06007919564008
 30
0.0
 40
0.125
  1
NAME
  7
TXT
 72
     1
 11
0.4370000000000048
 21
15.06007919564008
 31
0.0
100
AcDbText
  0
LINE
  5
12ED
330
9DF
100
AcDbEntity
  8
TITLE
100
AcDbLine
 10
0.8120000000000047
 20
15.01999999999999
 30
0.0
 11
0.8120000000000011
 21
15.438
 31
0.0
  0
LINE
  5
12EE
330
9DF
100
AcDbEntity
  8
TITLE
100
AcDbLine
 10
10.11999999999999
 20
15.49999999999999
 30
0.0
 11
10.11999999999999
 21
-0.0000000000000018
 31
0.0
  0
LINE
  5
12EF
330
9DF
100
AcDbEntity
  8
TITLE
100
AcDbLine
 10
10.058
 20
15.438
 30
0.0
 11
10.058
 21
0.0619999999999994
 31
0.0
  0
TEXT
  5
12F0
330
9DF
100
AcDbEntity
  8
TEXT
100
AcDbText
 10
4.36183333333333
 20
15.26841252897341
 30
0.0
 40
0.125
  1
PART
  7
TXT
 72
     1
 11
4.590999999999997
 21
15.26841252897341
 31
0.0
100
AcDbText
  0
LINE
  5
12F1
330
9DF
100
AcDbEntity
  8
TITLE
100
AcDbLine
 10
4.153999999999999
 20
15.438
 30
0.0
 11
4.153999999999999
 21
15.01999999999999
 31
0.0
  0
LINE
  5
12F2
330
9DF
100
AcDbEntity
  8
TITLE
100
AcDbLine
 10
4.215999999999997
 20
15.438
 30
0.0
 11
4.215999999999997
 21
15.01999999999999
 31
0.0
  0
TEXT
  5
12F3
330
9DF
100
AcDbEntity
  8
TEXT
100
AcDbText
 10
4.465999999999997
 20
15.06007919564008
 30
0.0
 40
0.125
  1
No.
  7
TXT
 72
     1
 11
4.590999999999997
 21
15.06007919564008
 31
0.0
100
AcDbText
  0
LINE
  5
12F4
330
9DF
100
AcDbEntity
  8
TITLE
100
AcDbLine
 10
4.965999999999997
 20
15.438
 30
0.0
 11
4.965999999999997
 21
15.01999999999999
 31
0.0
  0
LINE
  5
12F5
330
9DF
100
AcDbEntity
  8
TITLE
100
AcDbLine
 10
8.307999999999999
 20
15.438
 30
0.0
 11
8.307999999999999
 21
15.02
 31
0.0
  0
LINE
  5
12F6
330
9DF
100
AcDbEntity
  8
TITLE
100
AcDbLine
 10
8.245999999999988
 20
15.438
 30
0.0
 11
8.245999999999988
 21
15.02
 31
0.0
  0
TEXT
  5
12F7
330
9DF
100
AcDbEntity
  8
TEXT
100
AcDbText
 10
8.453833333333333
 20
15.06007919564008
 30
0.0
 40
0.125
  1
DATE
  7
TXT
 72
     1
 11
8.682999999999999
 21
15.06007919564008
 31
0.0
100
AcDbText
  0
TEXT
  5
12F8
330
9DF
100
AcDbEntity
  8
TEXT
100
AcDbText
 10
8.474666666666665
 20
15.26841252897341
 30
0.0
 40
0.125
  1
REV.
  7
TXT
 72
     1
 11
8.682999999999999
 21
15.26841252897341
 31
0.0
100
AcDbText
  0
LINE
  5
12F9
330
9DF
100
AcDbEntity
  8
TITLE
100
AcDbLine
 10
9.057999999999999
 20
15.438
 30
0.0
 11
9.057999999999999
 21
15.02
 31
0.0
  0
ENDBLK
  5
9F2
330
9DF
100
AcDbEntity
  8
0
100
AcDbBlockEnd
  0
BLOCK
  5
C9F
330
C94
100
AcDbEntity
  8
0
100
AcDbBlockBegin
  2
*D7
 70
     1
 10
0.0
 20
0.0
 30
0.0
  3
*D7
  1

  0
LINE
  5
1181
330
C94
100
AcDbEntity
  8
DIM
 62
     0
370
    -2
100
AcDbLine
 10
111.3906313817307
 20
104.6592519744548
 30
0.0
 11
103.1346313817308
 21
104.6592519744548
 31
0.0
  0
LINE
  5
1182
330
C94
100
AcDbEntity
  8
DIM
 62
     0
370
    -2
100
AcDbLine
 10
111.3906313817307
 20
101.6592519744548
 30
0.0
 11
103.1346313817308
 21
101.6592519744548
 31
0.0
  0
LINE
  5
1183
330
C94
100
AcDbEntity
  8
DIM
 62
     0
370
    -2
100
AcDbLine
 10
104.5296313817308
 20
107.3592519744548
 30
0.0
 11
104.5296313817308
 21
110.0592519744548
 31
0.0
  0
LINE
  5
1184
330
C94
100
AcDbEntity
  8
DIM
 62
     0
370
    -2
100
AcDbLine
 10
104.5296313817308
 20
98.9592519744548
 30
0.0
 11
104.5296313817308
 21
96.2592519744548
 31
0.0
  0
LINE
  5
1185
330
C94
100
AcDbEntity
  8
DIM
 62
     0
370
    -2
100
AcDbLine
 10
104.5296313817308
 20
96.2592519744548
 30
0.0
 11
101.8296313817308
 21
96.2592519744548
 31
0.0
  0
SOLID
  5
1186
330
C94
100
AcDbEntity
  8
DIM
 62
     0
100
AcDbTrace
 10
104.0796313817307
 20
107.3592519744548
 30
0.0
 11
104.9796313817308
 21
107.3592519744548
 31
0.0
 12
104.5296313817308
 22
104.6592519744548
 32
0.0
 13
104.5296313817308
 23
104.6592519744548
 33
0.0
  0
SOLID
  5
1187
330
C94
100
AcDbEntity
  8
DIM
 62
     0
100
AcDbTrace
 10
104.0796313817307
 20
98.9592519744548
 30
0.0
 11
104.9796313817308
 21
98.9592519744548
 31
0.0
 12
104.5296313817308
 22
101.6592519744548
 32
0.0
 13
104.5296313817308
 23
101.6592519744548
 33
0.0
  0
MTEXT
  5
1188
330
C94
100
AcDbEntity
  8
DIM
 62
     0
100
AcDbMText
 10
98.01869388173079
 20
96.25925197445482
 30
0.0
 40
1.875
 41
0.0
 71
     5
 72
     1
  1
\A1;3.000
  7
TXT
 73
     1
 44
1.0
  0
POINT
  5
1189
330
C94
100
AcDbEntity
  8
DEFPOINTS
 62
     0
100
AcDbPoint
 10
112.3356313817307
 20
104.6592519744548
 30
0.0
  0
POINT
  5
118A
330
C94
100
AcDbEntity
  8
DEFPOINTS
 62
     0
100
AcDbPoint
 10
112.3356313817307
 20
101.6592519744548
 30
0.0
  0
POINT
  5
118B
330
C94
100
AcDbEntity
  8
DEFPOINTS
 62
     0
100
AcDbPoint
 10
104.5296313817308
 20
101.6592519744548
 30
0.0
  0
ENDBLK
  5
CA0
330
C94
100
AcDbEntity
  8
0
100
AcDbBlockEnd
  0
BLOCK
  5
CAD
330
CA2
100
AcDbEntity
  8
0
100
AcDbBlockBegin
  2
*D8
 70
     1
 10
0.0
 20
0.0
 30
0.0
  3
*D8
  1

  0
LINE
  5
118C
330
CA2
100
AcDbEntity
  8
DIM
 62
     0
370
    -2
100
AcDbLine
 10
108.9846313817308
 20
106.4872519744548
 30
0.0
 11
98.91963138173082
 21
106.4872519744548
 31
0.0
  0
LINE
  5
118D
330
CA2
100
AcDbEntity
  8
DIM
 62
     0
370
    -2
100
AcDbLine
 10
111.3906313817307
 20
104.6592519744548
 30
0.0
 11
98.91963138173082
 21
104.6592519744548
 31
0.0
  0
LINE
  5
118E
330
CA2
100
AcDbEntity
  8
DIM
 62
     0
370
    -2
100
AcDbLine
 10
100.3146313817308
 20
109.1872519744548
 30
0.0
 11
100.3146313817308
 21
111.8872519744548
 31
0.0
  0
LINE
  5
118F
330
CA2
100
AcDbEntity
  8
DIM
 62
     0
370
    -2
100
AcDbLine
 10
100.3146313817308
 20
101.9592519744548
 30
0.0
 11
100.3146313817308
 21
99.25925197445479
 31
0.0
  0
LINE
  5
1190
330
CA2
100
AcDbEntity
  8
DIM
 62
     0
370
    -2
100
AcDbLine
 10
100.3146313817308
 20
99.25925197445479
 30
0.0
 11
97.6146313817308
 21
99.25925197445479
 31
0.0
  0
SOLID
  5
1191
330
CA2
100
AcDbEntity
  8
DIM
 62
     0
100
AcDbTrace
 10
99.8646313817308
 20
109.1872519744548
 30
0.0
 11
100.7646313817308
 21
109.1872519744548
 31
0.0
 12
100.3146313817308
 22
106.4872519744548
 32
0.0
 13
100.3146313817308
 23
106.4872519744548
 33
0.0
  0
SOLID
  5
1192
330
CA2
100
AcDbEntity
  8
DIM
 62
     0
100
AcDbTrace
 10
99.8646313817308
 20
101.9592519744548
 30
0.0
 11
100.7646313817308
 21
101.9592519744548
 31
0.0
 12
100.3146313817308
 22
104.6592519744548
 32
0.0
 13
100.3146313817308
 23
104.6592519744548
 33
0.0
  0
MTEXT
  5
1193
330
CA2
100
AcDbEntity
  8
DIM
 62
     0
100
AcDbMText
 10
93.68650638173077
 20
99.25925197445483
 30
0.0
 40
1.875
 41
0.0
 71
     5
 72
     1
  1
\A1;1.828
  7
TXT
 73
     1
 44
1.0
  0
POINT
  5
1194
330
CA2
100
AcDbEntity
  8
DEFPOINTS
 62
     0
100
AcDbPoint
 10
109.9296313817307
 20
106.4872519744548
 30
0.0
  0
POINT
  5
1195
330
CA2
100
AcDbEntity
  8
DEFPOINTS
 62
     0
100
AcDbPoint
 10
112.3356313817307
 20
104.6592519744548
 30
0.0
  0
POINT
  5
1196
330
CA2
100
AcDbEntity
  8
DEFPOINTS
 62
     0
100
AcDbPoint
 10
100.3146313817308
 20
104.6592519744548
 30
0.0
  0
ENDBLK
  5
CAE
330
CA2
100
AcDbEntity
  8
0
100
AcDbBlockEnd
  0
BLOCK
  5
CBD
330
CB2
100
AcDbEntity
  8
0
100
AcDbBlockBegin
  2
*D9
 70
     1
 10
0.0
 20
0.0
 30
0.0
  3
*D9
  1

  0
LINE
  5
1197
330
CB2
100
AcDbEntity
  8
DIM
 62
     0
370
    -2
100
AcDbLine
 10
112.3356313817307
 20
105.6042519744547
 30
0.0
 11
112.3356313817307
 21
110.5822519744548
 31
0.0
  0
LINE
  5
1198
330
CB2
100
AcDbEntity
  8
DIM
 62
     0
370
    -2
100
AcDbLine
 10
114.0856313817307
 20
105.6042519744547
 30
0.0
 11
114.0856313817307
 21
110.5822519744548
 31
0.0
  0
LINE
  5
1199
330
CB2
100
AcDbEntity
  8
DIM
 62
     0
370
    -2
100
AcDbLine
 10
109.6356313817307
 20
109.1872519744548
 30
0.0
 11
106.9356313817307
 21
109.1872519744548
 31
0.0
  0
LINE
  5
119A
330
CB2
100
AcDbEntity
  8
DIM
 62
     0
370
    -2
100
AcDbLine
 10
116.7856313817307
 20
109.1872519744548
 30
0.0
 11
119.4856313817307
 21
109.1872519744548
 31
0.0
  0
SOLID
  5
119B
330
CB2
100
AcDbEntity
  8
DIM
 62
     0
100
AcDbTrace
 10
109.6356313817307
 20
109.6372519744548
 30
0.0
 11
109.6356313817307
 21
108.7372519744548
 31
0.0
 12
112.3356313817307
 22
109.1872519744548
 32
0.0
 13
112.3356313817307
 23
109.1872519744548
 33
0.0
  0
SOLID
  5
119C
330
CB2
100
AcDbEntity
  8
DIM
 62
     0
100
AcDbTrace
 10
116.7856313817307
 20
109.6372519744548
 30
0.0
 11
116.7856313817307
 21
108.7372519744548
 31
0.0
 12
114.0856313817307
 22
109.1872519744548
 32
0.0
 13
114.0856313817307
 23
109.1872519744548
 33
0.0
  0
MTEXT
  5
119D
330
CB2
100
AcDbEntity
  8
DIM
 62
     0
100
AcDbMText
 10
123.2965688817307
 20
109.1872519744548
 30
0.0
 40
1.875
 41
0.0
 71
     5
 72
     1
  1
\A1;1.750
  7
TXT
 73
     1
 44
1.0
  0
POINT
  5
119E
330
CB2
100
AcDbEntity
  8
DEFPOINTS
 62
     0
100
AcDbPoint
 10
112.3356313817307
 20
104.6592519744548
 30
0.0
  0
POINT
  5
119F
330
CB2
100
AcDbEntity
  8
DEFPOINTS
 62
     0
100
AcDbPoint
 10
114.0856313817307
 20
104.6592519744548
 30
0.0
  0
POINT
  5
11A0
330
CB2
100
AcDbEntity
  8
DEFPOINTS
 62
     0
100
AcDbPoint
 10
114.0856313817307
 20
109.1872519744548
 30
0.0
  0
ENDBLK
  5
CBE
330
CB2
100
AcDbEntity
  8
0
100
AcDbBlockEnd
  0
BLOCK
  5
CCB
330
CC0
100
AcDbEntity
  8
0
100
AcDbBlockBegin
  2
*D10
 70
     1
 10
0.0
 20
0.0
 30
0.0
  3
*D10
  1

  0
LINE
  5
11A1
330
CC0
100
AcDbEntity
  8
DIM
 62
     0
370
    -2
100
AcDbLine
 10
109.9296313817307
 20
107.4322519744548
 30
0.0
 11
109.9296313817307
 21
114.7972519744548
 31
0.0
  0
LINE
  5
11A2
330
CC0
100
AcDbEntity
  8
DIM
 62
     0
370
    -2
100
AcDbLine
 10
112.3356313817307
 20
105.6042519744547
 30
0.0
 11
112.3356313817307
 21
114.7972519744548
 31
0.0
  0
LINE
  5
11A3
330
CC0
100
AcDbEntity
  8
DIM
 62
     0
370
    -2
100
AcDbLine
 10
107.2296313817308
 20
113.4022519744547
 30
0.0
 11
104.5296313817307
 21
113.4022519744547
 31
0.0
  0
LINE
  5
11A4
330
CC0
100
AcDbEntity
  8
DIM
 62
     0
370
    -2
100
AcDbLine
 10
115.0356313817307
 20
113.4022519744547
 30
0.0
 11
117.7356313817307
 21
113.4022519744547
 31
0.0
  0
SOLID
  5
11A5
330
CC0
100
AcDbEntity
  8
DIM
 62
     0
100
AcDbTrace
 10
107.2296313817308
 20
113.8522519744548
 30
0.0
 11
107.2296313817308
 21
112.9522519744547
 31
0.0
 12
109.9296313817307
 22
113.4022519744547
 32
0.0
 13
109.9296313817307
 23
113.4022519744547
 33
0.0
  0
SOLID
  5
11A6
330
CC0
100
AcDbEntity
  8
DIM
 62
     0
100
AcDbTrace
 10
115.0356313817307
 20
113.8522519744548
 30
0.0
 11
115.0356313817307
 21
112.9522519744547
 31
0.0
 12
112.3356313817307
 22
113.4022519744547
 32
0.0
 13
112.3356313817307
 23
113.4022519744547
 33
0.0
  0
MTEXT
  5
11A7
330
CC0
100
AcDbEntity
  8
DIM
 62
     0
100
AcDbMText
 10
121.7809438817307
 20
113.4022519744547
 30
0.0
 40
1.875
 41
0.0
 71
     5
 72
     1
  1
\A1;2.406
  7
TXT
 73
     1
 44
1.0
  0
POINT
  5
11A8
330
CC0
100
AcDbEntity
  8
DEFPOINTS
 62
     0
100
AcDbPoint
 10
109.9296313817307
 20
106.4872519744548
 30
0.0
  0
POINT
  5
11A9
330
CC0
100
AcDbEntity
  8
DEFPOINTS
 62
     0
100
AcDbPoint
 10
112.3356313817307
 20
104.6592519744548
 30
0.0
  0
POINT
  5
11AA
330
CC0
100
AcDbEntity
  8
DEFPOINTS
 62
     0
100
AcDbPoint
 10
112.3356313817307
 20
113.4022519744547
 30
0.0
  0
ENDBLK
  5
CCC
330
CC0
100
AcDbEntity
  8
0
100
AcDbBlockEnd
  0
BLOCK
  5
CE0
330
CD5
100
AcDbEntity
  8
0
100
AcDbBlockBegin
  2
*D11
 70
     1
 10
0.0
 20
0.0
 30
0.0
  3
*D11
  1

  0
LINE
  5
11AB
330
CD5
100
AcDbEntity
  8
DIM
 62
     0
370
    -2
100
AcDbLine
 10
111.3671313817309
 20
171.7782811864538
 30
0.0
 11
111.3671313817309
 21
172.2282811864539
 31
0.0
  0
LINE
  5
11AC
330
CD5
100
AcDbEntity
  8
DIM
 62
     0
370
    -2
100
AcDbLine
 10
130.4921313817309
 20
171.7782811864538
 30
0.0
 11
130.4921313817309
 21
172.2282811864539
 31
0.0
  0
LINE
  5
11AD
330
CD5
100
AcDbEntity
  8
DIM
 62
     0
370
    -2
100
AcDbLine
 10
108.667131381731
 20
170.8332811864538
 30
0.0
 11
105.9671313817309
 21
170.8332811864538
 31
0.0
  0
LINE
  5
11AE
330
CD5
100
AcDbEntity
  8
DIM
 62
     0
370
    -2
100
AcDbLine
 10
133.1921313817308
 20
170.8332811864538
 30
0.0
 11
135.8921313817309
 21
170.8332811864538
 31
0.0
  0
SOLID
  5
11AF
330
CD5
100
AcDbEntity
  8
DIM
 62
     0
100
AcDbTrace
 10
108.667131381731
 20
171.2832811864538
 30
0.0
 11
108.667131381731
 21
170.3832811864538
 31
0.0
 12
111.3671313817309
 22
170.8332811864538
 32
0.0
 13
111.3671313817309
 23
170.8332811864538
 33
0.0
  0
SOLID
  5
11B0
330
CD5
100
AcDbEntity
  8
DIM
 62
     0
100
AcDbTrace
 10
133.1921313817308
 20
171.2832811864538
 30
0.0
 11
133.1921313817308
 21
170.3832811864538
 31
0.0
 12
130.4921313817309
 22
170.8332811864538
 32
0.0
 13
130.4921313817309
 23
170.8332811864538
 33
0.0
  0
MTEXT
  5
11B1
330
CD5
100
AcDbEntity
  8
DIM
 62
     0
100
AcDbMText
 10
120.9296313817309
 20
170.8332811864538
 30
0.0
 40
1.875
 41
0.0
 71
     5
 72
     1
  1
\A1;19.125 %%p0.031
  7
TXT
 73
     1
 44
1.0
  0
POINT
  5
11B2
330
CD5
100
AcDbEntity
  8
DEFPOINTS
 62
     0
100
AcDbPoint
 10
111.3671313817309
 20
170.8332811864538
 30
0.0
  0
POINT
  5
11B3
330
CD5
100
AcDbEntity
  8
DEFPOINTS
 62
     0
100
AcDbPoint
 10
130.4921313817309
 20
170.8332811864538
 30
0.0
  0
POINT
  5
11B4
330
CD5
100
AcDbEntity
  8
DEFPOINTS
 62
     0
100
AcDbPoint
 10
130.4921313817309
 20
170.8332811864538
 30
0.0
  0
ENDBLK
  5
CE1
330
CD5
100
AcDbEntity
  8
0
100
AcDbBlockEnd
  0
BLOCK
  5
CEE
330
CE3
100
AcDbEntity
  8
0
100
AcDbBlockBegin
  2
*D12
 70
     1
 10
0.0
 20
0.0
 30
0.0
  3
*D12
  1

  0
LINE
  5
11B5
330
CE3
100
AcDbEntity
  8
DIM
 62
     0
370
    -2
100
AcDbLine
 10
111.7741313817308
 20
175.9660445787488
 30
0.0
 11
111.7741313817308
 21
176.4160445787488
 31
0.0
  0
LINE
  5
11B6
330
CE3
100
AcDbEntity
  8
DIM
 62
     0
370
    -2
100
AcDbLine
 10
130.0861313817309
 20
175.9660445787488
 30
0.0
 11
130.0861313817309
 21
176.4160445787488
 31
0.0
  0
LINE
  5
11B7
330
CE3
100
AcDbEntity
  8
DIM
 62
     0
370
    -2
100
AcDbLine
 10
109.0741313817308
 20
175.0210445787488
 30
0.0
 11
106.3741313817308
 21
175.0210445787488
 31
0.0
  0
LINE
  5
11B8
330
CE3
100
AcDbEntity
  8
DIM
 62
     0
370
    -2
100
AcDbLine
 10
132.7861313817308
 20
175.0210445787488
 30
0.0
 11
135.4861313817309
 21
175.0210445787488
 31
0.0
  0
SOLID
  5
11B9
330
CE3
100
AcDbEntity
  8
DIM
 62
     0
100
AcDbTrace
 10
109.0741313817308
 20
175.4710445787488
 30
0.0
 11
109.0741313817308
 21
174.5710445787488
 31
0.0
 12
111.7741313817308
 22
175.0210445787488
 32
0.0
 13
111.7741313817308
 23
175.0210445787488
 33
0.0
  0
SOLID
  5
11BA
330
CE3
100
AcDbEntity
  8
DIM
 62
     0
100
AcDbTrace
 10
132.7861313817308
 20
175.4710445787488
 30
0.0
 11
132.7861313817308
 21
174.5710445787488
 31
0.0
 12
130.0861313817309
 22
175.0210445787488
 32
0.0
 13
130.0861313817309
 23
175.0210445787488
 33
0.0
  0
MTEXT
  5
11BB
330
CE3
100
AcDbEntity
  8
DIM
 62
     0
100
AcDbMText
 10
120.9301313817308
 20
175.0210445787488
 30
0.0
 40
1.875
 41
0.0
 71
     5
 72
     1
  1
\A1;18.312 %%p0.062
  7
TXT
 73
     1
 44
1.0
  0
POINT
  5
11BC
330
CE3
100
AcDbEntity
  8
DEFPOINTS
 62
     0
100
AcDbPoint
 10
111.7741313817308
 20
175.0210445787488
 30
0.0
  0
POINT
  5
11BD
330
CE3
100
AcDbEntity
  8
DEFPOINTS
 62
     0
100
AcDbPoint
 10
130.0861313817309
 20
175.0210445787488
 30
0.0
  0
POINT
  5
11BE
330
CE3
100
AcDbEntity
  8
DEFPOINTS
 62
     0
100
AcDbPoint
 10
130.0861313817309
 20
175.0210445787488
 30
0.0
  0
ENDBLK
  5
CEF
330
CE3
100
AcDbEntity
  8
0
100
AcDbBlockEnd
  0
BLOCK
  5
CFC
330
CF1
100
AcDbEntity
  8
0
100
AcDbBlockBegin
  2
*D13
 70
     1
 10
0.0
 20
0.0
 30
0.0
  3
*D13
  1

  0
LINE
  5
11BF
330
CF1
100
AcDbEntity
  8
DIM
 62
     0
370
    -2
100
AcDbLine
 10
111.9618813817307
 20
179.984326301577
 30
0.0
 11
111.9618813817307
 21
180.434326301577
 31
0.0
  0
LINE
  5
11C0
330
CF1
100
AcDbEntity
  8
DIM
 62
     0
370
    -2
100
AcDbLine
 10
129.8986313817308
 20
179.984326301577
 30
0.0
 11
129.8986313817308
 21
180.434326301577
 31
0.0
  0
LINE
  5
11C1
330
CF1
100
AcDbEntity
  8
DIM
 62
     0
370
    -2
100
AcDbLine
 10
109.2618813817308
 20
179.039326301577
 30
0.0
 11
106.5618813817307
 21
179.039326301577
 31
0.0
  0
LINE
  5
11C2
330
CF1
100
AcDbEntity
  8
DIM
 62
     0
370
    -2
100
AcDbLine
 10
132.5986313817308
 20
179.039326301577
 30
0.0
 11
135.2986313817308
 21
179.039326301577
 31
0.0
  0
SOLID
  5
11C3
330
CF1
100
AcDbEntity
  8
DIM
 62
     0
100
AcDbTrace
 10
109.2618813817308
 20
179.4893263015769
 30
0.0
 11
109.2618813817308
 21
178.589326301577
 31
0.0
 12
111.9618813817307
 22
179.039326301577
 32
0.0
 13
111.9618813817307
 23
179.039326301577
 33
0.0
  0
SOLID
  5
11C4
330
CF1
100
AcDbEntity
  8
DIM
 62
     0
100
AcDbTrace
 10
132.5986313817308
 20
179.4893263015769
 30
0.0
 11
132.5986313817308
 21
178.589326301577
 31
0.0
 12
129.8986313817308
 22
179.039326301577
 32
0.0
 13
129.8986313817308
 23
179.039326301577
 33
0.0
  0
MTEXT
  5
11C5
330
CF1
100
AcDbEntity
  8
DIM
 62
     0
100
AcDbMText
 10
120.9302563817308
 20
179.039326301577
 30
0.0
 40
1.875
 41
0.0
 71
     5
 72
     1
  1
\A1;17.937 %%p0.093
  7
TXT
 73
     1
 44
1.0
  0
POINT
  5
11C6
330
CF1
100
AcDbEntity
  8
DEFPOINTS
 62
     0
100
AcDbPoint
 10
111.9618813817307
 20
179.039326301577
 30
0.0
  0
POINT
  5
11C7
330
CF1
100
AcDbEntity
  8
DEFPOINTS
 62
     0
100
AcDbPoint
 10
129.8986313817308
 20
179.039326301577
 30
0.0
  0
POINT
  5
11C8
330
CF1
100
AcDbEntity
  8
DEFPOINTS
 62
     0
100
AcDbPoint
 10
129.8986313817308
 20
179.039326301577
 30
0.0
  0
ENDBLK
  5
CFD
330
CF1
100
AcDbEntity
  8
0
100
AcDbBlockEnd
  0
BLOCK
  5
D0A
330
CFF
100
AcDbEntity
  8
0
100
AcDbBlockBegin
  2
*D14
 70
     1
 10
0.0
 20
0.0
 30
0.0
  3
*D14
  1

  0
LINE
  5
11C9
330
CFF
100
AcDbEntity
  8
DIM
 62
     0
370
    -2
100
AcDbLine
 10
109.9296313817309
 20
188.6039835608664
 30
0.0
 11
109.9296313817309
 21
193.1489835608664
 31
0.0
  0
LINE
  5
11CA
330
CFF
100
AcDbEntity
  8
DIM
 62
     0
370
    -2
100
AcDbLine
 10
131.9296313817308
 20
188.6039835608664
 30
0.0
 11
131.9296313817308
 21
193.1489835608664
 31
0.0
  0
LINE
  5
11CB
330
CFF
100
AcDbEntity
  8
DIM
 62
     0
370
    -2
100
AcDbLine
 10
107.2296313817308
 20
191.7539835608664
 30
0.0
 11
104.5296313817309
 21
191.7539835608664
 31
0.0
  0
LINE
  5
11CC
330
CFF
100
AcDbEntity
  8
DIM
 62
     0
370
    -2
100
AcDbLine
 10
134.6296313817308
 20
191.7539835608664
 30
0.0
 11
137.3296313817308
 21
191.7539835608664
 31
0.0
  0
SOLID
  5
11CD
330
CFF
100
AcDbEntity
  8
DIM
 62
     0
100
AcDbTrace
 10
107.2296313817308
 20
192.2039835608664
 30
0.0
 11
107.2296313817308
 21
191.3039835608664
 31
0.0
 12
109.9296313817309
 22
191.7539835608664
 32
0.0
 13
109.9296313817309
 23
191.7539835608664
 33
0.0
  0
SOLID
  5
11CE
330
CFF
100
AcDbEntity
  8
DIM
 62
     0
100
AcDbTrace
 10
134.6296313817308
 20
192.2039835608664
 30
0.0
 11
134.6296313817308
 21
191.3039835608664
 31
0.0
 12
131.9296313817308
 22
191.7539835608664
 32
0.0
 13
131.9296313817308
 23
191.7539835608664
 33
0.0
  0
MTEXT
  5
11CF
330
CFF
100
AcDbEntity
  8
DIM
 62
     0
100
AcDbMText
 10
120.9296313817308
 20
191.7539835608664
 30
0.0
 40
1.875
 41
0.0
 71
     5
 72
     1
  1
\A1;22.000 %%p0.062
  7
TXT
 73
     1
 44
1.0
  0
POINT
  5
11D0
330
CFF
100
AcDbEntity
  8
DEFPOINTS
 62
     0
100
AcDbPoint
 10
109.9296313817309
 20
187.6589835608664
 30
0.0
  0
POINT
  5
11D1
330
CFF
100
AcDbEntity
  8
DEFPOINTS
 62
     0
100
AcDbPoint
 10
131.9296313817308
 20
187.6589835608664
 30
0.0
  0
POINT
  5
11D2
330
CFF
100
AcDbEntity
  8
DEFPOINTS
 62
     0
100
AcDbPoint
 10
131.9296313817308
 20
191.7539835608664
 30
0.0
  0
ENDBLK
  5
D0B
330
CFF
100
AcDbEntity
  8
0
100
AcDbBlockEnd
  0
BLOCK
  5
D18
330
D0D
100
AcDbEntity
  8
0
100
AcDbBlockBegin
  2
*D15
 70
     1
 10
0.0
 20
0.0
 30
0.0
  3
*D15
  1

  0
LINE
  5
11D3
330
D0D
100
AcDbEntity
  8
DIM
 62
     0
370
    -2
100
AcDbLine
 10
110.422131381731
 20
123.7219835608664
 30
0.0
 11
98.9196313817308
 21
123.7219835608664
 31
0.0
  0
LINE
  5
11D4
330
D0D
100
AcDbEntity
  8
DIM
 62
     0
370
    -2
100
AcDbLine
 10
110.422131381731
 20
185.0339835608663
 30
0.0
 11
98.91963138173082
 21
185.0339835608663
 31
0.0
  0
LINE
  5
11D5
330
D0D
100
AcDbEntity
  8
DIM
 62
     0
370
    -2
100
AcDbLine
 10
100.3146313817308
 20
126.4219835608664
 30
0.0
 11
100.3146313817308
 21
152.0904835608664
 31
0.0
  0
LINE
  5
11D6
330
D0D
100
AcDbEntity
  8
DIM
 62
     0
370
    -2
100
AcDbLine
 10
100.3146313817308
 20
182.3339835608664
 30
0.0
 11
100.3146313817308
 21
156.6654835608664
 31
0.0
  0
SOLID
  5
11D7
330
D0D
100
AcDbEntity
  8
DIM
 62
     0
100
AcDbTrace
 10
99.86463138173078
 20
126.4219835608664
 30
0.0
 11
100.7646313817307
 21
126.4219835608664
 31
0.0
 12
100.3146313817308
 22
123.7219835608664
 32
0.0
 13
100.3146313817308
 23
123.7219835608664
 33
0.0
  0
SOLID
  5
11D8
330
D0D
100
AcDbEntity
  8
DIM
 62
     0
100
AcDbTrace
 10
99.8646313817308
 20
182.3339835608664
 30
0.0
 11
100.7646313817308
 21
182.3339835608664
 31
0.0
 12
100.3146313817308
 22
185.0339835608663
 32
0.0
 13
100.3146313817308
 23
185.0339835608663
 33
0.0
  0
MTEXT
  5
11D9
330
D0D
100
AcDbEntity
  8
DIM
 62
     0
100
AcDbMText
 10
100.3146313817307
 20
154.3779835608664
 30
0.0
 40
1.875
 41
0.0
 71
     5
 72
     1
  1
\A1;A
  7
TXT
 73
     1
 44
1.0
  0
POINT
  5
11DA
330
D0D
100
AcDbEntity
  8
DEFPOINTS
 62
     0
100
AcDbPoint
 10
111.3671313817309
 20
123.7219835608664
 30
0.0
  0
POINT
  5
11DB
330
D0D
100
AcDbEntity
  8
DEFPOINTS
 62
     0
100
AcDbPoint
 10
111.3671313817309
 20
185.0339835608663
 30
0.0
  0
POINT
  5
11DC
330
D0D
100
AcDbEntity
  8
DEFPOINTS
 62
     0
100
AcDbPoint
 10
100.3146313817308
 20
185.0339835608663
 30
0.0
  0
ENDBLK
  5
D19
330
D0D
100
AcDbEntity
  8
0
100
AcDbBlockEnd
  0
BLOCK
  5
D26
330
D1B
100
AcDbEntity
  8
0
100
AcDbBlockBegin
  2
*D16
 70
     1
 10
0.0
 20
0.0
 30
0.0
  3
*D16
  1

  0
LINE
  5
12C9
330
D1B
100
AcDbEntity
  8
DIM
 62
     0
370
    -2
100
AcDbLine
 10
110.422131381731
 20
185.0339835608663
 30
0.0
 11
98.91963138173082
 21
185.0339835608663
 31
0.0
  0
LINE
  5
12CA
330
D1B
100
AcDbEntity
  8
DIM
 62
     0
370
    -2
100
AcDbLine
 10
108.9846313817309
 20
187.6589835608664
 30
0.0
 11
98.91963138173082
 21
187.6589835608664
 31
0.0
  0
LINE
  5
12CB
330
D1B
100
AcDbEntity
  8
DIM
 62
     0
370
    -2
100
AcDbLine
 10
100.3146313817308
 20
182.3339835608664
 30
0.0
 11
100.3146313817308
 21
179.6339835608663
 31
0.0
  0
LINE
  5
12CC
330
D1B
100
AcDbEntity
  8
DIM
 62
     0
370
    -2
100
AcDbLine
 10
100.3146313817308
 20
190.3589835608664
 30
0.0
 11
100.3146313817308
 21
193.0589835608664
 31
0.0
  0
SOLID
  5
12CD
330
D1B
100
AcDbEntity
  8
DIM
 62
     0
100
AcDbTrace
 10
99.8646313817308
 20
182.3339835608664
 30
0.0
 11
100.7646313817308
 21
182.3339835608664
 31
0.0
 12
100.3146313817308
 22
185.0339835608663
 32
0.0
 13
100.3146313817308
 23
185.0339835608663
 33
0.0
  0
SOLID
  5
12CE
330
D1B
100
AcDbEntity
  8
DIM
 62
     0
100
AcDbTrace
 10
99.8646313817308
 20
190.3589835608664
 30
0.0
 11
100.7646313817308
 21
190.3589835608664
 31
0.0
 12
100.3146313817308
 22
187.6589835608664
 32
0.0
 13
100.3146313817308
 23
187.6589835608664
 33
0.0
  0
MTEXT
  5
12CF
330
D1B
100
AcDbEntity
  8
DIM
 62
     0
100
AcDbMText
 10
100.3146313817307
 20
186.3464835608664
 30
0.0
 40
1.875
 41
0.0
 71
     5
 72
     1
  1
\A1;2.625
  7
TXT
 73
     1
 44
1.0
  0
POINT
  5
12D0
330
D1B
100
AcDbEntity
  8
DEFPOINTS
 62
     0
100
AcDbPoint
 10
111.3671313817309
 20
185.0339835608663
 30
0.0
  0
POINT
  5
12D1
330
D1B
100
AcDbEntity
  8
DEFPOINTS
 62
     0
100
AcDbPoint
 10
109.9296313817309
 20
187.6589835608664
 30
0.0
  0
POINT
  5
12D2
330
D1B
100
AcDbEntity
  8
DEFPOINTS
 62
     0
100
AcDbPoint
 10
100.3146313817308
 20
187.6589835608664
 30
0.0
  0
ENDBLK
  5
D27
330
D1B
100
AcDbEntity
  8
0
100
AcDbBlockEnd
  0
BLOCK
  5
D34
330
D29
100
AcDbEntity
  8
0
100
AcDbBlockBegin
  2
*D17
 70
     1
 10
0.0
 20
0.0
 30
0.0
  3
*D17
  1

  0
LINE
  5
11E8
330
D29
100
AcDbEntity
  8
DIM
 62
     0
370
    -2
100
AcDbLine
 10
132.8746313817308
 20
121.0969835608664
 30
0.0
 11
138.7246313817308
 21
121.0969835608664
 31
0.0
  0
LINE
  5
11E9
330
D29
100
AcDbEntity
  8
DIM
 62
     0
370
    -2
100
AcDbLine
 10
132.8746313817308
 20
187.6589835608664
 30
0.0
 11
138.7246313817308
 21
187.6589835608664
 31
0.0
  0
LINE
  5
11EA
330
D29
100
AcDbEntity
  8
DIM
 62
     0
370
    -2
100
AcDbLine
 10
137.3296313817307
 20
123.7969835608664
 30
0.0
 11
137.3296313817307
 21
152.0904835608664
 31
0.0
  0
LINE
  5
11EB
330
D29
100
AcDbEntity
  8
DIM
 62
     0
370
    -2
100
AcDbLine
 10
137.3296313817307
 20
184.9589835608664
 30
0.0
 11
137.3296313817307
 21
156.6654835608664
 31
0.0
  0
SOLID
  5
11EC
330
D29
100
AcDbEntity
  8
DIM
 62
     0
100
AcDbTrace
 10
136.8796313817308
 20
123.7969835608664
 30
0.0
 11
137.7796313817307
 21
123.7969835608664
 31
0.0
 12
137.3296313817307
 22
121.0969835608664
 32
0.0
 13
137.3296313817307
 23
121.0969835608664
 33
0.0
  0
SOLID
  5
11ED
330
D29
100
AcDbEntity
  8
DIM
 62
     0
100
AcDbTrace
 10
136.8796313817308
 20
184.9589835608664
 30
0.0
 11
137.7796313817307
 21
184.9589835608664
 31
0.0
 12
137.3296313817307
 22
187.6589835608664
 32
0.0
 13
137.3296313817307
 23
187.6589835608664
 33
0.0
  0
MTEXT
  5
11EE
330
D29
100
AcDbEntity
  8
DIM
 62
     0
100
AcDbMText
 10
137.3296313817307
 20
154.3779835608664
 30
0.0
 40
1.875
 41
0.0
 71
     5
 72
     1
  1
\A1;B
  7
TXT
 73
     1
 44
1.0
  0
POINT
  5
11EF
330
D29
100
AcDbEntity
  8
DEFPOINTS
 62
     0
100
AcDbPoint
 10
131.9296313817308
 20
121.0969835608664
 30
0.0
  0
POINT
  5
11F0
330
D29
100
AcDbEntity
  8
DEFPOINTS
 62
     0
100
AcDbPoint
 10
131.9296313817308
 20
187.6589835608664
 30
0.0
  0
POINT
  5
11F1
330
D29
100
AcDbEntity
  8
DEFPOINTS
 62
     0
100
AcDbPoint
 10
137.3296313817307
 20
187.6589835608664
 30
0.0
  0
ENDBLK
  5
D35
330
D29
100
AcDbEntity
  8
0
100
AcDbBlockEnd
  0
BLOCK
  5
D42
330
D37
100
AcDbEntity
  8
0
100
AcDbBlockBegin
  2
*D18
 70
     1
 10
0.0
 20
0.0
 30
0.0
  3
*D18
  1

  0
LINE
  5
11F2
330
D37
100
AcDbEntity
  8
DIM
 62
     0
370
    -2
100
AcDbLine
 10
64.5875397311126
 20
141.5574835608664
 30
0.0
 11
64.5875397311126
 21
142.0074835608664
 31
0.0
  0
LINE
  5
11F3
330
D37
100
AcDbEntity
  8
DIM
 62
     0
370
    -2
100
AcDbLine
 10
88.58753973111252
 20
141.5574835608664
 30
0.0
 11
88.58753973111252
 21
142.0074835608664
 31
0.0
  0
LINE
  5
11F4
330
D37
100
AcDbEntity
  8
DIM
 62
     0
370
    -2
100
AcDbLine
 10
67.2875397311126
 20
140.6124835608664
 30
0.0
 11
74.76878973111256
 21
140.6124835608664
 31
0.0
  0
LINE
  5
11F5
330
D37
100
AcDbEntity
  8
DIM
 62
     0
370
    -2
100
AcDbLine
 10
85.8875397311125
 20
140.6124835608664
 30
0.0
 11
78.40628973111255
 21
140.6124835608664
 31
0.0
  0
SOLID
  5
11F6
330
D37
100
AcDbEntity
  8
DIM
 62
     0
100
AcDbTrace
 10
67.2875397311126
 20
141.0624835608664
 30
0.0
 11
67.2875397311126
 21
140.1624835608664
 31
0.0
 12
64.5875397311126
 22
140.6124835608664
 32
0.0
 13
64.5875397311126
 23
140.6124835608664
 33
0.0
  0
SOLID
  5
11F7
330
D37
100
AcDbEntity
  8
DIM
 62
     0
100
AcDbTrace
 10
85.8875397311125
 20
141.0624835608664
 30
0.0
 11
85.8875397311125
 21
140.1624835608664
 31
0.0
 12
88.58753973111252
 22
140.6124835608664
 32
0.0
 13
88.58753973111252
 23
140.6124835608664
 33
0.0
  0
MTEXT
  5
11F8
330
D37
100
AcDbEntity
  8
DIM
 62
     0
100
AcDbMText
 10
76.58753973111256
 20
140.6124835608664
 30
0.0
 40
1.875
 41
0.0
 71
     5
 72
     1
  1
\A1;D
  7
TXT
 73
     1
 44
1.0
  0
POINT
  5
11F9
330
D37
100
AcDbEntity
  8
DEFPOINTS
 62
     0
100
AcDbPoint
 10
64.5875397311126
 20
140.6124835608664
 30
0.0
  0
POINT
  5
11FA
330
D37
100
AcDbEntity
  8
DEFPOINTS
 62
     0
100
AcDbPoint
 10
88.58753973111252
 20
140.6124835608664
 30
0.0
  0
POINT
  5
11FB
330
D37
100
AcDbEntity
  8
DEFPOINTS
 62
     0
100
AcDbPoint
 10
88.58753973111252
 20
140.6124835608664
 30
0.0
  0
ENDBLK
  5
D43
330
D37
100
AcDbEntity
  8
0
100
AcDbBlockEnd
  0
BLOCK
  5
D50
330
D45
100
AcDbEntity
  8
0
100
AcDbBlockBegin
  2
*D19
 70
     1
 10
0.0
 20
0.0
 30
0.0
  3
*D19
  1

  0
LINE
  5
11FC
330
D45
100
AcDbEntity
  8
DIM
 62
     0
370
    -2
100
AcDbLine
 10
64.26778973111254
 20
155.7529835608664
 30
0.0
 11
55.39153973111261
 21
155.7529835608664
 31
0.0
  0
LINE
  5
11FD
330
D45
100
AcDbEntity
  8
DIM
 62
     0
370
    -2
100
AcDbLine
 10
64.2677897311126
 20
183.2839835608664
 30
0.0
 11
55.39153973111261
 21
183.2839835608664
 31
0.0
  0
LINE
  5
11FE
330
D45
100
AcDbEntity
  8
DIM
 62
     0
370
    -2
100
AcDbLine
 10
56.7865397311126
 20
158.4529835608664
 30
0.0
 11
56.7865397311126
 21
167.2309835608664
 31
0.0
  0
LINE
  5
11FF
330
D45
100
AcDbEntity
  8
DIM
 62
     0
370
    -2
100
AcDbLine
 10
56.78653973111261
 20
180.5839835608664
 30
0.0
 11
56.7865397311126
 21
171.8059835608664
 31
0.0
  0
SOLID
  5
1200
330
D45
100
AcDbEntity
  8
DIM
 62
     0
100
AcDbTrace
 10
56.3365397311126
 20
158.4529835608664
 30
0.0
 11
57.23653973111261
 21
158.4529835608664
 31
0.0
 12
56.7865397311126
 22
155.7529835608664
 32
0.0
 13
56.7865397311126
 23
155.7529835608664
 33
0.0
  0
SOLID
  5
1201
330
D45
100
AcDbEntity
  8
DIM
 62
     0
100
AcDbTrace
 10
56.33653973111261
 20
180.5839835608664
 30
0.0
 11
57.23653973111261
 21
180.5839835608664
 31
0.0
 12
56.78653973111261
 22
183.2839835608664
 32
0.0
 13
56.78653973111261
 23
183.2839835608664
 33
0.0
  0
MTEXT
  5
1202
330
D45
100
AcDbEntity
  8
DIM
 62
     0
100
AcDbMText
 10
56.78653973111257
 20
169.5184835608664
 30
0.0
 40
1.875
 41
0.0
 71
     5
 72
     1
  1
\A1;E
  7
TXT
 73
     1
 44
1.0
  0
POINT
  5
1203
330
D45
100
AcDbEntity
  8
DEFPOINTS
 62
     0
100
AcDbPoint
 10
65.21278973111254
 20
155.7529835608664
 30
0.0
  0
POINT
  5
1204
330
D45
100
AcDbEntity
  8
DEFPOINTS
 62
     0
100
AcDbPoint
 10
65.21278973111259
 20
183.2839835608664
 30
0.0
  0
POINT
  5
1205
330
D45
100
AcDbEntity
  8
DEFPOINTS
 62
     0
100
AcDbPoint
 10
56.78653973111261
 20
183.2839835608664
 30
0.0
  0
ENDBLK
  5
D51
330
D45
100
AcDbEntity
  8
0
100
AcDbBlockEnd
  0
BLOCK
  5
D5E
330
D53
100
AcDbEntity
  8
0
100
AcDbBlockBegin
  2
*D20
 70
     1
 10
0.0
 20
0.0
 30
0.0
  3
*D20
  1

  0
LINE
  5
1297
330
D53
100
AcDbEntity
  8
DIM
 62
     0
370
    -2
100
AcDbLine
 10
64.2677897311126
 20
125.4719835608665
 30
0.0
 11
48.96965191772102
 21
125.4719835608665
 31
0.0
  0
LINE
  5
1298
330
D53
100
AcDbEntity
  8
DIM
 62
     0
370
    -2
100
AcDbLine
 10
62.89253973111261
 20
121.0969835608665
 30
0.0
 11
48.96965191772102
 21
121.0969835608665
 31
0.0
  0
LINE
  5
1299
330
D53
100
AcDbEntity
  8
DIM
 62
     0
370
    -2
100
AcDbLine
 10
50.36465191772101
 20
128.1719835608665
 30
0.0
 11
50.36465191772101
 21
130.8719835608665
 31
0.0
  0
LINE
  5
129A
330
D53
100
AcDbEntity
  8
DIM
 62
     0
370
    -2
100
AcDbLine
 10
50.36465191772101
 20
118.3969835608664
 30
0.0
 11
50.36465191772101
 21
115.6969835608665
 31
0.0
  0
SOLID
  5
129B
330
D53
100
AcDbEntity
  8
DIM
 62
     0
100
AcDbTrace
 10
49.91465191772102
 20
128.1719835608665
 30
0.0
 11
50.81465191772102
 21
128.1719835608665
 31
0.0
 12
50.36465191772101
 22
125.4719835608665
 32
0.0
 13
50.36465191772101
 23
125.4719835608665
 33
0.0
  0
SOLID
  5
129C
330
D53
100
AcDbEntity
  8
DIM
 62
     0
100
AcDbTrace
 10
49.91465191772102
 20
118.3969835608664
 30
0.0
 11
50.81465191772102
 21
118.3969835608664
 31
0.0
 12
50.36465191772101
 22
121.0969835608665
 32
0.0
 13
50.36465191772101
 23
121.0969835608665
 33
0.0
  0
MTEXT
  5
129D
330
D53
100
AcDbEntity
  8
DIM
 62
     0
100
AcDbMText
 10
50.364651917721
 20
123.2844835608665
 30
0.0
 40
1.875
 41
0.0
 71
     5
 72
     1
  1
\A1;4.375
  7
TXT
 73
     1
 44
1.0
  0
POINT
  5
129E
330
D53
100
AcDbEntity
  8
DEFPOINTS
 62
     0
100
AcDbPoint
 10
65.21278973111259
 20
125.4719835608665
 30
0.0
  0
POINT
  5
129F
330
D53
100
AcDbEntity
  8
DEFPOINTS
 62
     0
100
AcDbPoint
 10
63.83753973111261
 20
121.0969835608665
 30
0.0
  0
POINT
  5
12A0
330
D53
100
AcDbEntity
  8
DEFPOINTS
 62
     0
100
AcDbPoint
 10
50.36465191772101
 20
121.0969835608665
 30
0.0
  0
ENDBLK
  5
D5F
330
D53
100
AcDbEntity
  8
0
100
AcDbBlockEnd
  0
BLOCK
  5
D6C
330
D61
100
AcDbEntity
  8
0
100
AcDbBlockBegin
  2
*D21
 70
     1
 10
0.0
 20
0.0
 30
0.0
  3
*D21
  1

  0
LINE
  5
1211
330
D61
100
AcDbEntity
  8
DIM
 62
     0
370
    -2
100
AcDbLine
 10
110.422131381731
 20
123.7219835608664
 30
0.0
 11
98.91963138173082
 21
123.7219835608664
 31
0.0
  0
LINE
  5
1212
330
D61
100
AcDbEntity
  8
DIM
 62
     0
370
    -2
100
AcDbLine
 10
108.9846313817309
 20
121.0969835608664
 30
0.0
 11
98.91963138173082
 21
121.0969835608664
 31
0.0
  0
LINE
  5
1213
330
D61
100
AcDbEntity
  8
DIM
 62
     0
370
    -2
100
AcDbLine
 10
100.3146313817308
 20
126.4219835608664
 30
0.0
 11
100.3146313817308
 21
129.1219835608664
 31
0.0
  0
LINE
  5
1214
330
D61
100
AcDbEntity
  8
DIM
 62
     0
370
    -2
100
AcDbLine
 10
100.3146313817308
 20
118.3969835608664
 30
0.0
 11
100.3146313817308
 21
115.6969835608664
 31
0.0
  0
LINE
  5
1215
330
D61
100
AcDbEntity
  8
DIM
 62
     0
370
    -2
100
AcDbLine
 10
100.3146313817308
 20
115.6969835608664
 30
0.0
 11
97.6146313817308
 21
115.6969835608664
 31
0.0
  0
SOLID
  5
1216
330
D61
100
AcDbEntity
  8
DIM
 62
     0
100
AcDbTrace
 10
99.8646313817308
 20
126.4219835608664
 30
0.0
 11
100.7646313817308
 21
126.4219835608664
 31
0.0
 12
100.3146313817308
 22
123.7219835608664
 32
0.0
 13
100.3146313817308
 23
123.7219835608664
 33
0.0
  0
SOLID
  5
1217
330
D61
100
AcDbEntity
  8
DIM
 62
     0
100
AcDbTrace
 10
99.8646313817308
 20
118.3969835608664
 30
0.0
 11
100.7646313817308
 21
118.3969835608664
 31
0.0
 12
100.3146313817308
 22
121.0969835608664
 32
0.0
 13
100.3146313817308
 23
121.0969835608664
 33
0.0
  0
MTEXT
  5
1218
330
D61
100
AcDbEntity
  8
DIM
 62
     0
100
AcDbMText
 10
93.45213138173077
 20
115.6969835608664
 30
0.0
 40
1.875
 41
0.0
 71
     5
 72
     1
  1
\A1;2.625
  7
TXT
 73
     1
 44
1.0
  0
POINT
  5
1219
330
D61
100
AcDbEntity
  8
DEFPOINTS
 62
     0
100
AcDbPoint
 10
111.3671313817309
 20
123.7219835608664
 30
0.0
  0
POINT
  5
121A
330
D61
100
AcDbEntity
  8
DEFPOINTS
 62
     0
100
AcDbPoint
 10
109.9296313817309
 20
121.0969835608664
 30
0.0
  0
POINT
  5
121B
330
D61
100
AcDbEntity
  8
DEFPOINTS
 62
     0
100
AcDbPoint
 10
100.3146313817308
 20
121.0969835608664
 30
0.0
  0
ENDBLK
  5
D6D
330
D61
100
AcDbEntity
  8
0
100
AcDbBlockEnd
  0
BLOCK
  5
D79
330
D6F
100
AcDbEntity
  8
0
100
AcDbBlockBegin
  2
*D22
 70
     1
 10
0.0
 20
0.0
 30
0.0
  3
*D22
  1

  0
LINE
  5
121C
330
D6F
100
AcDbEntity
  8
DIM
 62
     0
370
    -2
100
AcDbLine
 10
116.3831313817309
 20
81.87025197445487
 30
0.0
 11
116.3831313817309
 21
76.77675756848843
 31
0.0
  0
LINE
  5
121D
330
D6F
100
AcDbEntity
  8
DIM
 62
     0
370
    -2
100
AcDbLine
 10
125.4761313817308
 20
81.87025197445487
 30
0.0
 11
125.4761313817308
 21
76.77675756848843
 31
0.0
  0
LINE
  5
121E
330
D6F
100
AcDbEntity
  8
DIM
 62
     0
370
    -2
100
AcDbLine
 10
113.6831313817309
 20
78.17175756848843
 30
0.0
 11
110.9831313817309
 21
78.17175756848843
 31
0.0
  0
LINE
  5
121F
330
D6F
100
AcDbEntity
  8
DIM
 62
     0
370
    -2
100
AcDbLine
 10
128.1761313817308
 20
78.17175756848843
 30
0.0
 11
130.8761313817308
 21
78.17175756848843
 31
0.0
  0
SOLID
  5
1220
330
D6F
100
AcDbEntity
  8
DIM
 62
     0
100
AcDbTrace
 10
113.6831313817309
 20
78.62175756848843
 30
0.0
 11
113.6831313817309
 21
77.72175756848842
 31
0.0
 12
116.3831313817309
 22
78.17175756848843
 32
0.0
 13
116.3831313817309
 23
78.17175756848843
 33
0.0
  0
SOLID
  5
1221
330
D6F
100
AcDbEntity
  8
DIM
 62
     0
100
AcDbTrace
 10
128.1761313817308
 20
78.62175756848843
 30
0.0
 11
128.1761313817308
 21
77.72175756848842
 31
0.0
 12
125.4761313817308
 22
78.17175756848843
 32
0.0
 13
125.4761313817308
 23
78.17175756848843
 33
0.0
  0
MTEXT
  5
1222
330
D6F
100
AcDbEntity
  8
DIM
 62
     0
100
AcDbMText
 10
121.0654484030759
 20
78.17175756848843
 30
0.0
 40
1.875
 41
0.0
 71
     5
 72
     1
  1
\A1;9.093
  7
TXT
 73
     1
 44
1.0
  0
POINT
  5
1223
330
D6F
100
AcDbEntity
  8
DEFPOINTS
 62
     0
100
AcDbPoint
 10
116.3831313817309
 20
82.81525197445487
 30
0.0
  0
POINT
  5
1224
330
D6F
100
AcDbEntity
  8
DEFPOINTS
 62
     0
100
AcDbPoint
 10
125.4761313817308
 20
82.81525197445487
 30
0.0
  0
POINT
  5
1225
330
D6F
100
AcDbEntity
  8
DEFPOINTS
 62
     0
100
AcDbPoint
 10
125.4761313817308
 20
78.17175756848843
 30
0.0
  0
ENDBLK
  5
D7A
330
D6F
100
AcDbEntity
  8
0
100
AcDbBlockEnd
  0
BLOCK
  5
D87
330
D7C
100
AcDbEntity
  8
0
100
AcDbBlockBegin
  2
*D23
 70
     1
 10
0.0
 20
0.0
 30
0.0
  3
*D23
  1

  0
LINE
  5
1226
330
D7C
100
AcDbEntity
  8
DIM
 62
     0
370
    -2
100
AcDbLine
 10
125.4761313817308
 20
81.87025197445487
 30
0.0
 11
125.4761313817308
 21
72.6627563880409
 31
0.0
  0
LINE
  5
1227
330
D7C
100
AcDbEntity
  8
DIM
 62
     0
370
    -2
100
AcDbLine
 10
131.9296313817309
 20
80.55825197445491
 30
0.0
 11
131.9296313817309
 21
72.6627563880409
 31
0.0
  0
LINE
  5
1228
330
D7C
100
AcDbEntity
  8
DIM
 62
     0
370
    -2
100
AcDbLine
 10
134.6296313817308
 20
74.0577563880409
 30
0.0
 11
137.3296313817309
 21
74.0577563880409
 31
0.0
  0
LINE
  5
1229
330
D7C
100
AcDbEntity
  8
DIM
 62
     0
370
    -2
100
AcDbLine
 10
122.7761313817308
 20
74.0577563880409
 30
0.0
 11
120.0761313817308
 21
74.0577563880409
 31
0.0
  0
SOLID
  5
122A
330
D7C
100
AcDbEntity
  8
DIM
 62
     0
100
AcDbTrace
 10
134.6296313817308
 20
74.5077563880409
 30
0.0
 11
134.6296313817308
 21
73.60775638804089
 31
0.0
 12
131.9296313817309
 22
74.0577563880409
 32
0.0
 13
131.9296313817309
 23
74.0577563880409
 33
0.0
  0
SOLID
  5
122B
330
D7C
100
AcDbEntity
  8
DIM
 62
     0
100
AcDbTrace
 10
122.7761313817308
 20
74.5077563880409
 30
0.0
 11
122.7761313817308
 21
73.60775638804089
 31
0.0
 12
125.4761313817308
 22
74.0577563880409
 32
0.0
 13
125.4761313817308
 23
74.0577563880409
 33
0.0
  0
MTEXT
  5
122C
330
D7C
100
AcDbEntity
  8
DIM
 62
     0
100
AcDbMText
 10
115.9136313817308
 20
74.0577563880409
 30
0.0
 40
1.875
 41
0.0
 71
     5
 72
     1
  1
\A1;6.454
  7
TXT
 73
     1
 44
1.0
  0
POINT
  5
122D
330
D7C
100
AcDbEntity
  8
DEFPOINTS
 62
     0
100
AcDbPoint
 10
125.4761313817308
 20
82.81525197445487
 30
0.0
  0
POINT
  5
122E
330
D7C
100
AcDbEntity
  8
DEFPOINTS
 62
     0
100
AcDbPoint
 10
131.9296313817309
 20
81.50325197445491
 30
0.0
  0
POINT
  5
122F
330
D7C
100
AcDbEntity
  8
DEFPOINTS
 62
     0
100
AcDbPoint
 10
131.9296313817309
 20
74.0577563880409
 30
0.0
  0
ENDBLK
  5
D88
330
D7C
100
AcDbEntity
  8
0
100
AcDbBlockEnd
  0
BLOCK
  5
EE3
330
ED8
100
AcDbEntity
  8
0
100
AcDbBlockBegin
  2
*D24
 70
     1
 10
0.0
 20
0.0
 30
0.0
  3
*D24
  1

  0
LINE
  5
12B5
330
ED8
100
AcDbEntity
  8
DIM
 62
     0
370
    -2
100
AcDbLine
 10
64.26778973111254
 20
155.7529835608664
 30
0.0
 11
55.39153973111261
 21
155.7529835608664
 31
0.0
  0
LINE
  5
12B6
330
ED8
100
AcDbEntity
  8
DIM
 62
     0
370
    -2
100
AcDbLine
 10
64.26778973111254
 20
153.0029835608664
 30
0.0
 11
55.39153973111261
 21
153.0029835608664
 31
0.0
  0
LINE
  5
12B7
330
ED8
100
AcDbEntity
  8
DIM
 62
     0
370
    -2
100
AcDbLine
 10
56.7865397311126
 20
158.4529835608664
 30
0.0
 11
56.7865397311126
 21
161.1529835608664
 31
0.0
  0
LINE
  5
12B8
330
ED8
100
AcDbEntity
  8
DIM
 62
     0
370
    -2
100
AcDbLine
 10
56.7865397311126
 20
150.3029835608664
 30
0.0
 11
56.7865397311126
 21
147.6029835608664
 31
0.0
  0
SOLID
  5
12B9
330
ED8
100
AcDbEntity
  8
DIM
 62
     0
100
AcDbTrace
 10
56.3365397311126
 20
158.4529835608664
 30
0.0
 11
57.23653973111261
 21
158.4529835608664
 31
0.0
 12
56.7865397311126
 22
155.7529835608664
 32
0.0
 13
56.7865397311126
 23
155.7529835608664
 33
0.0
  0
SOLID
  5
12BA
330
ED8
100
AcDbEntity
  8
DIM
 62
     0
100
AcDbTrace
 10
56.3365397311126
 20
150.3029835608664
 30
0.0
 11
57.23653973111261
 21
150.3029835608664
 31
0.0
 12
56.7865397311126
 22
153.0029835608664
 32
0.0
 13
56.7865397311126
 23
153.0029835608664
 33
0.0
  0
MTEXT
  5
12BB
330
ED8
100
AcDbEntity
  8
DIM
 62
     0
100
AcDbMText
 10
56.78653973111257
 20
154.3779835608664
 30
0.0
 40
1.875
 41
0.0
 71
     5
 72
     1
  1
\A1;2.750
  7
TXT
 73
     1
 44
1.0
  0
POINT
  5
12BC
330
ED8
100
AcDbEntity
  8
DEFPOINTS
 62
     0
100
AcDbPoint
 10
65.21278973111254
 20
155.7529835608664
 30
0.0
  0
POINT
  5
12BD
330
ED8
100
AcDbEntity
  8
DEFPOINTS
 62
     0
100
AcDbPoint
 10
65.21278973111254
 20
153.0029835608664
 30
0.0
  0
POINT
  5
12BE
330
ED8
100
AcDbEntity
  8
DEFPOINTS
 62
     0
100
AcDbPoint
 10
56.7865397311126
 20
153.0029835608664
 30
0.0
  0
ENDBLK
  5
EE4
330
ED8
100
AcDbEntity
  8
0
100
AcDbBlockEnd
  0
BLOCK
  5
EF1
330
EE6
100
AcDbEntity
  8
0
100
AcDbBlockBegin
  2
*D25
 70
     1
 10
0.0
 20
0.0
 30
0.0
  3
*D25
  1

  0
LINE
  5
123B
330
EE6
100
AcDbEntity
  8
DIM
 62
     0
370
    -2
100
AcDbLine
 10
64.26778973111254
 20
153.0029835608664
 30
0.0
 11
55.39153973111262
 21
153.0029835608664
 31
0.0
  0
LINE
  5
123C
330
EE6
100
AcDbEntity
  8
DIM
 62
     0
370
    -2
100
AcDbLine
 10
64.26778973111254
 20
125.4719835608664
 30
0.0
 11
55.39153973111261
 21
125.4719835608664
 31
0.0
  0
LINE
  5
123D
330
EE6
100
AcDbEntity
  8
DIM
 62
     0
370
    -2
100
AcDbLine
 10
56.78653973111262
 20
150.3029835608664
 30
0.0
 11
56.78653973111261
 21
141.5249835608664
 31
0.0
  0
LINE
  5
123E
330
EE6
100
AcDbEntity
  8
DIM
 62
     0
370
    -2
100
AcDbLine
 10
56.78653973111261
 20
128.1719835608664
 30
0.0
 11
56.78653973111261
 21
136.9499835608664
 31
0.0
  0
SOLID
  5
123F
330
EE6
100
AcDbEntity
  8
DIM
 62
     0
100
AcDbTrace
 10
56.33653973111261
 20
150.3029835608664
 30
0.0
 11
57.23653973111262
 21
150.3029835608664
 31
0.0
 12
56.78653973111262
 22
153.0029835608664
 32
0.0
 13
56.78653973111262
 23
153.0029835608664
 33
0.0
  0
SOLID
  5
1240
330
EE6
100
AcDbEntity
  8
DIM
 62
     0
100
AcDbTrace
 10
56.33653973111261
 20
128.1719835608664
 30
0.0
 11
57.23653973111261
 21
128.1719835608664
 31
0.0
 12
56.78653973111261
 22
125.4719835608664
 32
0.0
 13
56.78653973111261
 23
125.4719835608664
 33
0.0
  0
MTEXT
  5
1241
330
EE6
100
AcDbEntity
  8
DIM
 62
     0
100
AcDbMText
 10
56.78653973111259
 20
139.2374835608664
 30
0.0
 40
1.875
 41
0.0
 71
     5
 72
     1
  1
\A1;E
  7
TXT
 73
     1
 44
1.0
  0
POINT
  5
1242
330
EE6
100
AcDbEntity
  8
DEFPOINTS
 62
     0
100
AcDbPoint
 10
65.21278973111254
 20
153.0029835608664
 30
0.0
  0
POINT
  5
1243
330
EE6
100
AcDbEntity
  8
DEFPOINTS
 62
     0
100
AcDbPoint
 10
65.21278973111254
 20
125.4719835608664
 30
0.0
  0
POINT
  5
1244
330
EE6
100
AcDbEntity
  8
DEFPOINTS
 62
     0
100
AcDbPoint
 10
56.78653973111261
 20
125.4719835608664
 30
0.0
  0
ENDBLK
  5
EF2
330
EE6
100
AcDbEntity
  8
0
100
AcDbBlockEnd
  0
BLOCK
  5
FF8
330
FEE
100
AcDbEntity
  8
0
100
AcDbBlockBegin
  2
*D26
 70
     1
 10
0.0
 20
0.0
 30
0.0
  3
*D26
  1

  0
LINE
  5
1245
330
FEE
100
AcDbEntity
  8
DIM
 62
     0
370
    -2
100
AcDbLine
 10
25.75922723463019
 20
121.4639835608664
 30
0.0
 11
25.75922723463019
 21
117.0019835608665
 31
0.0
  0
LINE
  5
1246
330
FEE
100
AcDbEntity
  8
DIM
 62
     0
370
    -2
100
AcDbLine
 10
34.85222723463016
 20
121.4639835608664
 30
0.0
 11
34.85222723463016
 21
117.0019835608665
 31
0.0
  0
LINE
  5
1247
330
FEE
100
AcDbEntity
  8
DIM
 62
     0
370
    -2
100
AcDbLine
 10
23.05922723463019
 20
118.3969835608664
 30
0.0
 11
20.35922723463019
 21
118.3969835608664
 31
0.0
  0
LINE
  5
1248
330
FEE
100
AcDbEntity
  8
DIM
 62
     0
370
    -2
100
AcDbLine
 10
37.55222723463016
 20
118.3969835608664
 30
0.0
 11
40.25222723463016
 21
118.3969835608664
 31
0.0
  0
SOLID
  5
1249
330
FEE
100
AcDbEntity
  8
DIM
 62
     0
100
AcDbTrace
 10
23.05922723463019
 20
118.8469835608665
 30
0.0
 11
23.05922723463019
 21
117.9469835608665
 31
0.0
 12
25.75922723463019
 22
118.3969835608664
 32
0.0
 13
25.75922723463019
 23
118.3969835608664
 33
0.0
  0
SOLID
  5
124A
330
FEE
100
AcDbEntity
  8
DIM
 62
     0
100
AcDbTrace
 10
37.55222723463016
 20
118.8469835608665
 30
0.0
 11
37.55222723463016
 21
117.9469835608665
 31
0.0
 12
34.85222723463016
 22
118.3969835608664
 32
0.0
 13
34.85222723463016
 23
118.3969835608664
 33
0.0
  0
MTEXT
  5
124B
330
FEE
100
AcDbEntity
  8
DIM
 62
     0
100
AcDbMText
 10
30.30572723463018
 20
118.3969835608664
 30
0.0
 40
1.875
 41
0.0
 71
     5
 72
     1
  1
\A1;9.093
  7
TXT
 73
     1
 44
1.0
  0
POINT
  5
124C
330
FEE
100
AcDbEntity
  8
DEFPOINTS
 62
     0
100
AcDbPoint
 10
25.75922723463019
 20
122.4089835608664
 30
0.0
  0
POINT
  5
124D
330
FEE
100
AcDbEntity
  8
DEFPOINTS
 62
     0
100
AcDbPoint
 10
34.85222723463016
 20
122.4089835608664
 30
0.0
  0
POINT
  5
124E
330
FEE
100
AcDbEntity
  8
DEFPOINTS
 62
     0
100
AcDbPoint
 10
34.85222723463016
 20
118.3969835608664
 30
0.0
  0
ENDBLK
  5
FF9
330
FEE
100
AcDbEntity
  8
0
100
AcDbBlockEnd
  0
BLOCK
  5
1006
330
FFB
100
AcDbEntity
  8
0
100
AcDbBlockBegin
  2
*D27
 70
     1
 10
0.0
 20
0.0
 30
0.0
  3
*D27
  1

  0
LINE
  5
12D3
330
FFB
100
AcDbEntity
  8
DIM
 62
     0
370
    -2
100
AcDbLine
 10
34.85222723463016
 20
121.4639835608664
 30
0.0
 11
34.85222723463016
 21
112.7869835608665
 31
0.0
  0
LINE
  5
12D4
330
FFB
100
AcDbEntity
  8
DIM
 62
     0
370
    -2
100
AcDbLine
 10
41.30572723463017
 20
120.1519835608664
 30
0.0
 11
41.30572723463017
 21
112.7869835608665
 31
0.0
  0
LINE
  5
12D5
330
FFB
100
AcDbEntity
  8
DIM
 62
     0
370
    -2
100
AcDbLine
 10
32.15222723463016
 20
114.1819835608665
 30
0.0
 11
29.45222723463016
 21
114.1819835608665
 31
0.0
  0
LINE
  5
12D6
330
FFB
100
AcDbEntity
  8
DIM
 62
     0
370
    -2
100
AcDbLine
 10
44.00572723463016
 20
114.1819835608665
 30
0.0
 11
46.70572723463016
 21
114.1819835608665
 31
0.0
  0
SOLID
  5
12D7
330
FFB
100
AcDbEntity
  8
DIM
 62
     0
100
AcDbTrace
 10
32.15222723463016
 20
114.6319835608665
 30
0.0
 11
32.15222723463016
 21
113.7319835608665
 31
0.0
 12
34.85222723463016
 22
114.1819835608665
 32
0.0
 13
34.85222723463016
 23
114.1819835608665
 33
0.0
  0
SOLID
  5
12D8
330
FFB
100
AcDbEntity
  8
DIM
 62
     0
100
AcDbTrace
 10
44.00572723463016
 20
114.6319835608665
 30
0.0
 11
44.00572723463016
 21
113.7319835608665
 31
0.0
 12
41.30572723463017
 22
114.1819835608665
 32
0.0
 13
41.30572723463017
 23
114.1819835608665
 33
0.0
  0
MTEXT
  5
12D9
330
FFB
100
AcDbEntity
  8
DIM
 62
     0
100
AcDbMText
 10
38.07897723463016
 20
114.1819835608665
 30
0.0
 40
1.875
 41
0.0
 71
     5
 72
     1
  1
\A1;6.454
  7
TXT
 73
     1
 44
1.0
  0
POINT
  5
12DA
330
FFB
100
AcDbEntity
  8
DEFPOINTS
 62
     0
100
AcDbPoint
 10
34.85222723463016
 20
122.4089835608664
 30
0.0
  0
POINT
  5
12DB
330
FFB
100
AcDbEntity
  8
DEFPOINTS
 62
     0
100
AcDbPoint
 10
41.30572723463017
 20
121.0969835608664
 30
0.0
  0
POINT
  5
12DC
330
FFB
100
AcDbEntity
  8
DEFPOINTS
 62
     0
100
AcDbPoint
 10
41.30572723463017
 20
114.1819835608665
 30
0.0
  0
ENDBLK
  5
1007
330
FFB
100
AcDbEntity
  8
0
100
AcDbBlockEnd
  0
BLOCK
  5
1014
330
1009
100
AcDbEntity
  8
0
100
AcDbBlockBegin
  2
*D28
 70
     1
 10
0.0
 20
0.0
 30
0.0
  3
*D28
  1

  0
LINE
  5
1259
330
1009
100
AcDbEntity
  8
DIM
 62
     0
370
    -2
100
AcDbLine
 10
24.81422723463019
 20
122.4089835608664
 30
0.0
 11
12.51072723463012
 21
122.4089835608664
 31
0.0
  0
LINE
  5
125A
330
1009
100
AcDbEntity
  8
DIM
 62
     0
370
    -2
100
AcDbLine
 10
18.36072723463012
 20
121.0969835608664
 30
0.0
 11
12.51072723463011
 21
121.0969835608664
 31
0.0
  0
LINE
  5
125B
330
1009
100
AcDbEntity
  8
DIM
 62
     0
370
    -2
100
AcDbLine
 10
13.90572723463012
 20
125.1089835608664
 30
0.0
 11
13.90572723463012
 21
127.8089835608664
 31
0.0
  0
LINE
  5
125C
330
1009
100
AcDbEntity
  8
DIM
 62
     0
370
    -2
100
AcDbLine
 10
13.90572723463012
 20
118.3969835608664
 30
0.0
 11
13.90572723463011
 21
115.6969835608664
 31
0.0
  0
LINE
  5
125D
330
1009
100
AcDbEntity
  8
DIM
 62
     0
370
    -2
100
AcDbLine
 10
13.90572723463011
 20
115.6969835608664
 30
0.0
 11
11.20572723463012
 21
115.6969835608664
 31
0.0
  0
SOLID
  5
125E
330
1009
100
AcDbEntity
  8
DIM
 62
     0
100
AcDbTrace
 10
13.45572723463012
 20
125.1089835608664
 30
0.0
 11
14.35572723463012
 21
125.1089835608664
 31
0.0
 12
13.90572723463012
 22
122.4089835608664
 32
0.0
 13
13.90572723463012
 23
122.4089835608664
 33
0.0
  0
SOLID
  5
125F
330
1009
100
AcDbEntity
  8
DIM
 62
     0
100
AcDbTrace
 10
13.45572723463012
 20
118.3969835608664
 30
0.0
 11
14.35572723463011
 21
118.3969835608664
 31
0.0
 12
13.90572723463012
 22
121.0969835608664
 32
0.0
 13
13.90572723463012
 23
121.0969835608664
 33
0.0
  0
MTEXT
  5
1260
330
1009
100
AcDbEntity
  8
DIM
 62
     0
100
AcDbMText
 10
7.511977234630101
 20
115.6969835608664
 30
0.0
 40
1.875
 41
0.0
 71
     5
 72
     1
  1
\A1;1.312
  7
TXT
 73
     1
 44
1.0
  0
POINT
  5
1261
330
1009
100
AcDbEntity
  8
DEFPOINTS
 62
     0
100
AcDbPoint
 10
25.75922723463019
 20
122.4089835608664
 30
0.0
  0
POINT
  5
1262
330
1009
100
AcDbEntity
  8
DEFPOINTS
 62
     0
100
AcDbPoint
 10
19.30572723463012
 20
121.0969835608664
 30
0.0
  0
POINT
  5
1263
330
1009
100
AcDbEntity
  8
DEFPOINTS
 62
     0
100
AcDbPoint
 10
13.90572723463012
 20
121.0969835608664
 30
0.0
  0
ENDBLK
  5
1015
330
1009
100
AcDbEntity
  8
0
100
AcDbBlockEnd
  0
BLOCK
  5
1022
330
1017
100
AcDbEntity
  8
0
100
AcDbBlockBegin
  2
*D29
 70
     1
 10
0.0
 20
0.0
 30
0.0
  3
*D29
  1

  0
LINE
  5
1264
330
1017
100
AcDbEntity
  8
DIM
 62
     0
370
    -2
100
AcDbLine
 10
64.26778973111254
 20
125.4719835608664
 30
0.0
 11
48.96965191772102
 21
125.4719835608664
 31
0.0
  0
LINE
  5
1265
330
1017
100
AcDbEntity
  8
DIM
 62
     0
370
    -2
100
AcDbLine
 10
64.26778973111254
 20
183.2839835608664
 30
0.0
 11
48.96965191772103
 21
183.2839835608664
 31
0.0
  0
LINE
  5
1266
330
1017
100
AcDbEntity
  8
DIM
 62
     0
370
    -2
100
AcDbLine
 10
50.36465191772101
 20
128.1719835608664
 30
0.0
 11
50.36465191772102
 21
152.0904835608664
 31
0.0
  0
LINE
  5
1267
330
1017
100
AcDbEntity
  8
DIM
 62
     0
370
    -2
100
AcDbLine
 10
50.36465191772103
 20
180.5839835608664
 30
0.0
 11
50.36465191772102
 21
156.6654835608664
 31
0.0
  0
SOLID
  5
1268
330
1017
100
AcDbEntity
  8
DIM
 62
     0
100
AcDbTrace
 10
49.91465191772102
 20
128.1719835608664
 30
0.0
 11
50.81465191772102
 21
128.1719835608664
 31
0.0
 12
50.36465191772101
 22
125.4719835608664
 32
0.0
 13
50.36465191772101
 23
125.4719835608664
 33
0.0
  0
SOLID
  5
1269
330
1017
100
AcDbEntity
  8
DIM
 62
     0
100
AcDbTrace
 10
49.91465191772103
 20
180.5839835608664
 30
0.0
 11
50.81465191772103
 21
180.5839835608664
 31
0.0
 12
50.36465191772103
 22
183.2839835608664
 32
0.0
 13
50.36465191772103
 23
183.2839835608664
 33
0.0
  0
MTEXT
  5
126A
330
1017
100
AcDbEntity
  8
DIM
 62
     0
100
AcDbMText
 10
50.364651917721
 20
154.3779835608664
 30
0.0
 40
1.875
 41
0.0
 71
     5
 72
     1
  1
\A1;F
  7
TXT
 73
     1
 44
1.0
  0
POINT
  5
126B
330
1017
100
AcDbEntity
  8
DEFPOINTS
 62
     0
100
AcDbPoint
 10
65.21278973111254
 20
125.4719835608664
 30
0.0
  0
POINT
  5
126C
330
1017
100
AcDbEntity
  8
DEFPOINTS
 62
     0
100
AcDbPoint
 10
65.21278973111254
 20
183.2839835608664
 30
0.0
  0
POINT
  5
126D
330
1017
100
AcDbEntity
  8
DEFPOINTS
 62
     0
100
AcDbPoint
 10
50.36465191772103
 20
183.2839835608664
 30
0.0
  0
ENDBLK
  5
1023
330
1017
100
AcDbEntity
  8
0
100
AcDbBlockEnd
  0
BLOCK
  5
1030
330
1025
100
AcDbEntity
  8
0
100
AcDbBlockBegin
  2
*D30
 70
     1
 10
0.0
 20
0.0
 30
0.0
  3
*D30
  1

  0
LINE
  5
126E
330
1025
100
AcDbEntity
  8
DIM
 62
     0
370
    -2
100
AcDbLine
 10
132.8746313817308
 20
80.98725197445483
 30
0.0
 11
138.7246313817308
 21
80.98725197445483
 31
0.0
  0
LINE
  5
126F
330
1025
100
AcDbEntity
  8
DIM
 62
     0
370
    -2
100
AcDbLine
 10
126.4211313817308
 20
82.81525197445487
 30
0.0
 11
138.7246313817308
 21
82.81525197445487
 31
0.0
  0
LINE
  5
1270
330
1025
100
AcDbEntity
  8
DIM
 62
     0
370
    -2
100
AcDbLine
 10
137.3296313817307
 20
78.28725197445483
 30
0.0
 11
137.3296313817307
 21
75.58725197445482
 31
0.0
  0
LINE
  5
1271
330
1025
100
AcDbEntity
  8
DIM
 62
     0
370
    -2
100
AcDbLine
 10
137.3296313817307
 20
85.51525197445487
 30
0.0
 11
137.3296313817307
 21
88.21525197445486
 31
0.0
  0
LINE
  5
1272
330
1025
100
AcDbEntity
  8
DIM
 62
     0
370
    -2
100
AcDbLine
 10
137.3296313817307
 20
88.21525197445486
 30
0.0
 11
140.0296313817307
 21
88.21525197445486
 31
0.0
  0
SOLID
  5
1273
330
1025
100
AcDbEntity
  8
DIM
 62
     0
100
AcDbTrace
 10
136.8796313817308
 20
78.28725197445483
 30
0.0
 11
137.7796313817307
 21
78.28725197445483
 31
0.0
 12
137.3296313817307
 22
80.98725197445483
 32
0.0
 13
137.3296313817307
 23
80.98725197445483
 33
0.0
  0
SOLID
  5
1274
330
1025
100
AcDbEntity
  8
DIM
 62
     0
100
AcDbTrace
 10
136.8796313817308
 20
85.51525197445487
 30
0.0
 11
137.7796313817307
 21
85.51525197445487
 31
0.0
 12
137.3296313817307
 22
82.81525197445487
 32
0.0
 13
137.3296313817307
 23
82.81525197445487
 33
0.0
  0
MTEXT
  5
1275
330
1025
100
AcDbEntity
  8
DIM
 62
     0
100
AcDbMText
 10
143.9577563817307
 20
88.21525197445488
 30
0.0
 40
1.875
 41
0.0
 71
     5
 72
     1
  1
\A1;1.828
  7
TXT
 73
     1
 44
1.0
  0
POINT
  5
1276
330
1025
100
AcDbEntity
  8
DEFPOINTS
 62
     0
100
AcDbPoint
 10
131.9296313817308
 20
80.98725197445483
 30
0.0
  0
POINT
  5
1277
330
1025
100
AcDbEntity
  8
DEFPOINTS
 62
     0
100
AcDbPoint
 10
125.4761313817308
 20
82.81525197445487
 30
0.0
  0
POINT
  5
1278
330
1025
100
AcDbEntity
  8
DEFPOINTS
 62
     0
100
AcDbPoint
 10
137.3296313817307
 20
82.81525197445487
 30
0.0
  0
ENDBLK
  5
1031
330
1025
100
AcDbEntity
  8
0
100
AcDbBlockEnd
  0
BLOCK
  5
10DD
330
10D2
100
AcDbEntity
  8
0
100
AcDbBlockBegin
  2
*D31
 70
     1
 10
0.0
 20
0.0
 30
0.0
  3
*D31
  1

  0
LINE
  5
1279
330
10D2
100
AcDbEntity
  8
DIM
 62
     0
370
    -2
100
AcDbLine
 10
63.83753973111256
 20
188.6039835608664
 30
0.0
 11
63.83753973111256
 21
193.1489835608664
 31
0.0
  0
LINE
  5
127A
330
10D2
100
AcDbEntity
  8
DIM
 62
     0
370
    -2
100
AcDbLine
 10
89.33753973111254
 20
188.6039835608664
 30
0.0
 11
89.33753973111254
 21
193.1489835608664
 31
0.0
  0
LINE
  5
127B
330
10D2
100
AcDbEntity
  8
DIM
 62
     0
370
    -2
100
AcDbLine
 10
66.53753973111256
 20
191.7539835608664
 30
0.0
 11
74.76878973111254
 21
191.7539835608664
 31
0.0
  0
LINE
  5
127C
330
10D2
100
AcDbEntity
  8
DIM
 62
     0
370
    -2
100
AcDbLine
 10
86.63753973111253
 20
191.7539835608664
 30
0.0
 11
78.40628973111254
 21
191.7539835608664
 31
0.0
  0
SOLID
  5
127D
330
10D2
100
AcDbEntity
  8
DIM
 62
     0
100
AcDbTrace
 10
66.53753973111256
 20
192.2039835608664
 30
0.0
 11
66.53753973111256
 21
191.3039835608664
 31
0.0
 12
63.83753973111256
 22
191.7539835608664
 32
0.0
 13
63.83753973111256
 23
191.7539835608664
 33
0.0
  0
SOLID
  5
127E
330
10D2
100
AcDbEntity
  8
DIM
 62
     0
100
AcDbTrace
 10
86.63753973111253
 20
192.2039835608664
 30
0.0
 11
86.63753973111253
 21
191.3039835608664
 31
0.0
 12
89.33753973111254
 22
191.7539835608664
 32
0.0
 13
89.33753973111254
 23
191.7539835608664
 33
0.0
  0
MTEXT
  5
127F
330
10D2
100
AcDbEntity
  8
DIM
 62
     0
100
AcDbMText
 10
76.58753973111254
 20
191.7539835608664
 30
0.0
 40
1.875
 41
0.0
 71
     5
 72
     1
  1
\A1;C
  7
TXT
 73
     1
 44
1.0
  0
POINT
  5
1280
330
10D2
100
AcDbEntity
  8
DEFPOINTS
 62
     0
100
AcDbPoint
 10
63.83753973111256
 20
187.6589835608664
 30
0.0
  0
POINT
  5
1281
330
10D2
100
AcDbEntity
  8
DEFPOINTS
 62
     0
100
AcDbPoint
 10
89.33753973111254
 20
187.6589835608664
 30
0.0
  0
POINT
  5
1282
330
10D2
100
AcDbEntity
  8
DEFPOINTS
 62
     0
100
AcDbPoint
 10
89.33753973111254
 20
191.7539835608664
 30
0.0
  0
ENDBLK
  5
10DE
330
10D2
100
AcDbEntity
  8
0
100
AcDbBlockEnd
  0
ENDSEC
  0
SECTION
  2
ENTITIES
  0
LINE
  5
B53
330
9C6
100
AcDbEntity
  8
TITLE
100
AcDbLine
 10
0.9299999999999783
 20
4.049999999999997
 30
0.0
 11
150.87
 21
4.049999999999997
 31
0.0
  0
LINE
  5
B54
330
9C6
100
AcDbEntity
  8
TITLE
100
AcDbLine
 10
0.9299999999999783
 20
7.169999999999996
 30
0.0
 11
150.87
 21
7.169999999999996
 31
0.0
  0
LINE
  5
B55
330
9C6
100
AcDbEntity
  8
TITLE
100
AcDbLine
 10
0.9299999999999783
 20
10.28999999999999
 30
0.0
 11
150.87
 21
10.28999999999999
 31
0.0
  0
LINE
  5
B56
330
9C6
100
AcDbEntity
  8
TITLE
100
AcDbLine
 10
0.9299999999999783
 20
13.40999999999998
 30
0.0
 11
150.87
 21
13.40999999999998
 31
0.0
  0
LINE
  5
B57
330
9C6
100
AcDbEntity
  8
TITLE
100
AcDbLine
 10
0.9299999999999783
 20
19.64999999999999
 30
0.0
 11
150.87
 21
19.64999999999999
 31
0.0
  0
LINE
  5
B58
330
9C6
100
AcDbEntity
  8
TITLE
100
AcDbLine
 10
0.9299999999999783
 20
22.76999999999998
 30
0.0
 11
150.87
 21
22.76999999999998
 31
0.0
  0
LINE
  5
B59
330
9C6
100
AcDbEntity
  8
TITLE
100
AcDbLine
 10
0.9299999999999783
 20
25.88999999999999
 30
0.0
 11
150.87
 21
25.88999999999999
 31
0.0
  0
LINE
  5
B5A
330
9C6
100
AcDbEntity
  8
TITLE
100
AcDbLine
 10
0.9299999999999783
 20
29.00999999999999
 30
0.0
 11
150.87
 21
29.00999999999999
 31
0.0
  0
LINE
  5
B5B
330
9C6
100
AcDbEntity
  8
TITLE
100
AcDbLine
 10
0.9299999999999783
 20
32.12999999999999
 30
0.0
 11
150.87
 21
32.12999999999999
 31
0.0
  0
LINE
  5
B5C
330
9C6
100
AcDbEntity
  8
TITLE
100
AcDbLine
 10
0.9299999999999783
 20
38.36999999999999
 30
0.0
 11
150.87
 21
38.36999999999999
 31
0.0
  0
LINE
  5
B5D
330
9C6
100
AcDbEntity
  8
TITLE
100
AcDbLine
 10
0.9299999999999783
 20
41.49
 30
0.0
 11
150.87
 21
41.49
 31
0.0
  0
LINE
  5
B5E
330
9C6
100
AcDbEntity
  8
TITLE
100
AcDbLine
 10
0.9299999999999783
 20
44.61
 30
0.0
 11
150.87
 21
44.61
 31
0.0
  0
LINE
  5
B5F
330
9C6
100
AcDbEntity
  8
TITLE
100
AcDbLine
 10
0.9299999999999783
 20
47.72999999999998
 30
0.0
 11
150.87
 21
47.72999999999998
 31
0.0
  0
LINE
  5
B60
330
9C6
100
AcDbEntity
  8
TITLE
100
AcDbLine
 10
0.9299999999999783
 20
50.84999999999999
 30
0.0
 11
150.87
 21
50.84999999999999
 31
0.0
  0
LINE
  5
B61
330
9C6
100
AcDbEntity
  8
TITLE
100
AcDbLine
 10
0.9299999999999783
 20
53.96999999999999
 30
0.0
 11
150.87
 21
53.96999999999999
 31
0.0
  0
LINE
  5
B62
330
9C6
100
AcDbEntity
  8
TITLE
100
AcDbLine
 10
0.9299999999999783
 20
63.32999999999999
 30
0.0
 11
150.87
 21
63.32999999999999
 31
0.0
  0
LINE
  5
B63
330
9C6
100
AcDbEntity
  8
TITLE
100
AcDbLine
 10
106.1378571428571
 20
66.44999999999999
 30
0.0
 11
150.87
 21
66.44999999999999
 31
0.0
  0
TEXT
  5
B64
330
9C6
100
AcDbEntity
  8
TEXT
100
AcDbText
 10
116.0240699263872
 20
63.86465181799318
 30
0.0
 40
1.875
  1
OPTIONAL ACCESSORIES
 41
0.75
  7
TXT
100
AcDbText
  0
TEXT
  5
B65
330
9C6
100
AcDbEntity
  8
TEXT
100
AcDbText
 10
133.8500024385282
 20
60.21966463633336
 30
0.0
 40
1.875
  1
ECONOGLAS
 41
0.75
  7
TXT
 72
     1
 11
139.9437524385283
 21
60.21966463633336
 31
0.0
100
AcDbText
  0
TEXT
  5
B66
330
9C6
100
AcDbEntity
  8
TEXT
100
AcDbText
 10
136.6625024385282
 20
57.51138000746135
 30
0.0
 40
1.875
  1
DOORS
 41
0.75
  7
TXT
 72
     1
 11
139.9437524385283
 21
57.51138000746135
 31
0.0
100
AcDbText
  0
TEXT
  5
B67
330
9C6
100
AcDbEntity
  8
TEXT
100
AcDbText
 10
135.0218774385282
 20
54.8121544083965
 30
0.0
 40
1.875
  1
PART NO.
 41
0.75
  7
TXT
 72
     1
 11
139.9437524385283
 21
54.8121544083965
 31
0.0
100
AcDbText
  0
TEXT
  5
B68
330
9C6
100
AcDbEntity
  8
TEXT
100
AcDbText
 10
111.986489230036
 20
60.21966463633336
 30
0.0
 40
1.875
  1
PANEL MTG.
 41
0.75
  7
TXT
 72
     1
 11
118.314614230036
 21
60.21966463633336
 31
0.0
100
AcDbText
  0
TEXT
  5
B69
330
9C6
100
AcDbEntity
  8
TEXT
100
AcDbText
 10
115.267739230036
 20
57.51138000746135
 30
0.0
 40
1.875
  1
RAILS
 41
0.75
  7
TXT
 72
     1
 11
118.314614230036
 21
57.51138000746135
 31
0.0
100
AcDbText
  0
TEXT
  5
B6A
330
9C6
100
AcDbEntity
  8
TEXT
100
AcDbText
 10
113.392739230036
 20
54.8121544083965
 30
0.0
 40
1.875
  1
PART NO.
 41
0.75
  7
TXT
 72
     1
 11
118.314614230036
 21
54.8121544083965
 31
0.0
100
AcDbText
  0
LINE
  5
B6B
330
9C6
100
AcDbEntity
  8
TITLE
100
AcDbLine
 10
128.9057142857143
 20
63.32999999999999
 30
0.0
 11
128.9057142857143
 21
0.9299999999999744
 31
0.0
  0
LINE
  5
B6C
330
9C6
100
AcDbEntity
  8
TITLE
100
AcDbLine
 10
106.9414285714285
 20
66.44999999999999
 30
0.0
 11
106.9414285714285
 21
0.9299999999999823
 31
0.0
  0
LINE
  5
B6D
330
9C6
100
AcDbEntity
  8
TITLE
100
AcDbLine
 10
106.1378571428571
 20
66.44999999999999
 30
0.0
 11
106.1378571428571
 21
0.9299999999999828
 31
0.0
  0
LINE
  5
B6E
330
9C6
100
AcDbEntity
  8
TITLE
100
AcDbLine
 10
91.80750000000006
 20
63.32999999999999
 30
0.0
 11
91.80750000000003
 21
0.9299999999999879
 31
0.0
  0
LINE
  5
B6F
330
9C6
100
AcDbEntity
  8
TITLE
100
AcDbLine
 10
77.47714285714291
 20
63.32999999999999
 30
0.0
 11
77.47714285714291
 21
0.9299999999999927
 31
0.0
  0
LINE
  5
B70
330
9C6
100
AcDbEntity
  8
TITLE
100
AcDbLine
 10
63.14678571428578
 20
63.32999999999999
 30
0.0
 11
63.14678571428576
 21
0.9299999999999981
 31
0.0
  0
LINE
  5
B71
330
9C6
100
AcDbEntity
  8
TITLE
100
AcDbLine
 10
48.81642857142861
 20
63.32999999999999
 30
0.0
 11
48.81642857142861
 21
0.9300000000000036
 31
0.0
  0
LINE
  5
B72
330
9C6
100
AcDbEntity
  8
TITLE
100
AcDbLine
 10
34.48607142857147
 20
63.32999999999999
 30
0.0
 11
34.48607142857147
 21
0.9300000000000087
 31
0.0
  0
LINE
  5
B73
330
9C6
100
AcDbEntity
  8
TITLE
100
AcDbLine
 10
20.15571428571433
 20
63.32999999999999
 30
0.0
 11
20.15571428571431
 21
0.9300000000000141
 31
0.0
  0
TEXT
  5
B74
330
9C6
100
AcDbEntity
  8
TEXT
100
AcDbText
 10
24.22920029575982
 20
60.21966463633336
 30
0.0
 40
1.875
  1
PANEL
 41
0.75
  7
TXT
 72
     1
 11
27.51045029575982
 21
60.21966463633336
 31
0.0
100
AcDbText
  0
TEXT
  5
B75
330
9C6
100
AcDbEntity
  8
TEXT
100
AcDbText
 10
24.22920029575982
 20
57.51138000746135
 30
0.0
 40
1.875
  1
SPACE
 41
0.75
  7
TXT
 72
     1
 11
27.51045029575982
 21
57.51138000746135
 31
0.0
100
AcDbText
  0
TEXT
  5
B76
330
9C6
100
AcDbEntity
  8
TEXT
100
AcDbText
 10
27.04170029575982
 20
54.82121343820362
 30
0.0
 40
1.875
  1
A
 41
0.75
  7
TXT
 72
     1
 11
27.51045029575982
 21
54.82121343820362
 31
0.0
100
AcDbText
  0
TEXT
  5
B77
330
9C6
100
AcDbEntity
  8
TEXT
100
AcDbText
 10
41.37205743861696
 20
57.51138000746134
 30
0.0
 40
1.875
  1
B
 41
0.75
  7
TXT
 72
     1
 11
41.84080743861696
 21
57.51138000746134
 31
0.0
100
AcDbText
  0
TEXT
  5
B78
330
9C6
100
AcDbEntity
  8
TEXT
100
AcDbText
 10
55.7024145814741
 20
57.51138000746134
 30
0.0
 40
1.875
  1
C
 41
0.75
  7
TXT
 72
     1
 11
56.1711645814741
 21
57.51138000746134
 31
0.0
100
AcDbText
  0
TEXT
  5
B79
330
9C6
100
AcDbEntity
  8
TEXT
100
AcDbText
 10
70.03277172433127
 20
57.51138000746133
 30
0.0
 40
1.875
  1
D
 41
0.75
  7
TXT
 72
     1
 11
70.50152172433127
 21
57.51138000746133
 31
0.0
100
AcDbText
  0
TEXT
  5
B7A
330
9C6
100
AcDbEntity
  8
TEXT
100
AcDbText
 10
84.36312886718837
 20
57.51138000746133
 30
0.0
 40
1.875
  1
E
 41
0.75
  7
TXT
 72
     1
 11
84.83187886718837
 21
57.51138000746133
 31
0.0
100
AcDbText
  0
TEXT
  5
B7B
330
9C6
100
AcDbEntity
  8
TEXT
100
AcDbText
 10
98.69348601004551
 20
57.51138000746133
 30
0.0
 40
1.875
  1
F
 41
0.75
  7
TXT
 72
     1
 11
99.16223601004551
 21
57.51138000746133
 31
0.0
100
AcDbText
  0
TEXT
  5
B7C
330
9C6
100
AcDbEntity
  8
TEXT
100
AcDbText
 10
5.53190146913448
 20
57.51138000746135
 30
0.0
 40
1.875
  1
PART NO.
 41
0.75
  7
TXT
 72
     1
 11
10.45377646913448
 21
57.51138000746135
 31
0.0
100
AcDbText
  0
TEXT
  5
B7D
330
9C6
100
AcDbEntity
  8
TEXT
100
AcDbText
 10
5.197830642072972
 20
51.362342946409
 30
0.0
 40
1.875
  1
ER-16502
 41
0.75
  7
TXT
100
AcDbText
  0
TEXT
  5
B7E
330
9C6
100
AcDbEntity
  8
TEXT
100
AcDbText
 10
5.197830642072972
 20
48.237342946409
 30
0.0
 40
1.875
  1
ER-16503
 41
0.75
  7
TXT
100
AcDbText
  0
TEXT
  5
B7F
330
9C6
100
AcDbEntity
  8
TEXT
100
AcDbText
 10
5.197830642072972
 20
45.11234294640899
 30
0.0
 40
1.875
  1
ER-16504
 41
0.75
  7
TXT
100
AcDbText
  0
TEXT
  5
B80
330
9C6
100
AcDbEntity
  8
TEXT
100
AcDbText
 10
5.197830642072972
 20
41.987342946409
 30
0.0
 40
1.875
  1
ER-16505
 41
0.75
  7
TXT
100
AcDbText
  0
TEXT
  5
B81
330
9C6
100
AcDbEntity
  8
TEXT
100
AcDbText
 10
5.197830642072972
 20
38.862342946409
 30
0.0
 40
1.875
  1
ER-16506
 41
0.75
  7
TXT
100
AcDbText
  0
TEXT
  5
B82
330
9C6
100
AcDbEntity
  8
TEXT
100
AcDbText
 10
5.197830642072972
 20
32.617342946409
 30
0.0
 40
1.875
  1
ER-16512
 41
0.75
  7
TXT
100
AcDbText
  0
TEXT
  5
B83
330
9C6
100
AcDbEntity
  8
TEXT
100
AcDbText
 10
5.197830642072972
 20
29.492342946409
 30
0.0
 40
1.875
  1
ER-16513
 41
0.75
  7
TXT
100
AcDbText
  0
TEXT
  5
B84
330
9C6
100
AcDbEntity
  8
TEXT
100
AcDbText
 10
5.197830642072972
 20
26.36734294640898
 30
0.0
 40
1.875
  1
ER-16514
 41
0.75
  7
TXT
100
AcDbText
  0
TEXT
  5
B85
330
9C6
100
AcDbEntity
  8
TEXT
100
AcDbText
 10
5.197830642072972
 20
23.24234294640898
 30
0.0
 40
1.875
  1
ER-16515
 41
0.75
  7
TXT
100
AcDbText
  0
TEXT
  5
B86
330
9C6
100
AcDbEntity
  8
TEXT
100
AcDbText
 10
5.197830642072972
 20
20.11734294640898
 30
0.0
 40
1.875
  1
ER-16516
 41
0.75
  7
TXT
100
AcDbText
  0
TEXT
  5
B87
330
9C6
100
AcDbEntity
  8
TEXT
100
AcDbText
 10
5.197830642072972
 20
13.87234294640899
 30
0.0
 40
1.875
  1
ER-16522
 41
0.75
  7
TXT
100
AcDbText
  0
TEXT
  5
B88
330
9C6
100
AcDbEntity
  8
TEXT
100
AcDbText
 10
5.197830642072972
 20
10.74734294640899
 30
0.0
 40
1.875
  1
ER-16523
 41
0.75
  7
TXT
100
AcDbText
  0
TEXT
  5
B89
330
9C6
100
AcDbEntity
  8
TEXT
100
AcDbText
 10
5.197830642072972
 20
7.622342946409001
 30
0.0
 40
1.875
  1
ER-16524
 41
0.75
  7
TXT
100
AcDbText
  0
TEXT
  5
B8A
330
9C6
100
AcDbEntity
  8
TEXT
100
AcDbText
 10
5.197830642072972
 20
4.497342946408998
 30
0.0
 40
1.875
  1
ER-16525
 41
0.75
  7
TXT
100
AcDbText
  0
TEXT
  5
B8B
330
9C6
100
AcDbEntity
  8
TEXT
100
AcDbText
 10
5.197830642072972
 20
1.372342946408999
 30
0.0
 40
1.875
  1
ER-16526
 41
0.75
  7
TXT
100
AcDbText
  0
TEXT
  5
B8C
330
9C6
100
AcDbEntity
  8
TEXT
100
AcDbText
 10
24.15683035714291
 20
51.47250000000001
 30
0.0
 40
1.875
  1
42.000
 41
0.75
  7
TXT
 72
     1
 11
27.32089285714291
 21
51.47250000000001
 31
0.0
100
AcDbText
  0
TEXT
  5
B8D
330
9C6
100
AcDbEntity
  8
TEXT
100
AcDbText
 10
24.03964285714291
 20
48.34750000000001
 30
0.0
 40
1.875
  1
52.500
 41
0.75
  7
TXT
 72
     1
 11
27.32089285714291
 21
48.34750000000001
 31
0.0
100
AcDbText
  0
TEXT
  5
B8E
330
9C6
100
AcDbEntity
  8
TEXT
100
AcDbText
 10
24.15683035714291
 20
45.22250000000001
 30
0.0
 40
1.875
  1
61.250
 41
0.75
  7
TXT
 72
     1
 11
27.32089285714291
 21
45.22250000000001
 31
0.0
100
AcDbText
  0
TEXT
  5
B8F
330
9C6
100
AcDbEntity
  8
TEXT
100
AcDbText
 10
24.27401785714291
 20
42.09750000000001
 30
0.0
 40
1.875
  1
70.000
 41
0.75
  7
TXT
 72
     1
 11
27.32089285714291
 21
42.09750000000001
 31
0.0
100
AcDbText
  0
TEXT
  5
B90
330
9C6
100
AcDbEntity
  8
TEXT
100
AcDbText
 10
23.92245535714291
 20
38.97250000000001
 30
0.0
 40
1.875
  1
78.750
 41
0.75
  7
TXT
 72
     1
 11
27.32089285714291
 21
38.97250000000001
 31
0.0
100
AcDbText
  0
TEXT
  5
B91
330
9C6
100
AcDbEntity
  8
TEXT
100
AcDbText
 10
38.37000000000005
 20
51.47249999999999
 30
0.0
 40
1.875
  1
47.312
 41
0.75
  7
TXT
 72
     1
 11
41.65125000000005
 21
51.47249999999999
 31
0.0
100
AcDbText
  0
TEXT
  5
B92
330
9C6
100
AcDbEntity
  8
TEXT
100
AcDbText
 10
38.37000000000005
 20
48.34749999999999
 30
0.0
 40
1.875
  1
57.812
 41
0.75
  7
TXT
 72
     1
 11
41.65125000000005
 21
48.34749999999999
 31
0.0
100
AcDbText
  0
TEXT
  5
B93
330
9C6
100
AcDbEntity
  8
TEXT
100
AcDbText
 10
38.13562500000005
 20
45.22249999999999
 30
0.0
 40
1.875
  1
66.562
 41
0.75
  7
TXT
 72
     1
 11
41.65125000000005
 21
45.22249999999999
 31
0.0
100
AcDbText
  0
TEXT
  5
B94
330
9C6
100
AcDbEntity
  8
TEXT
100
AcDbText
 10
38.37000000000005
 20
42.09750000000001
 30
0.0
 40
1.875
  1
75.312
 41
0.75
  7
TXT
 72
     1
 11
41.65125000000005
 21
42.09750000000001
 31
0.0
100
AcDbText
  0
TEXT
  5
B95
330
9C6
100
AcDbEntity
  8
TEXT
100
AcDbText
 10
38.25281250000005
 20
38.97249999999999
 30
0.0
 40
1.875
  1
84.062
 41
0.75
  7
TXT
 72
     1
 11
41.65125000000005
 21
38.97249999999999
 31
0.0
100
AcDbText
  0
TEXT
  5
B96
330
9C6
100
AcDbEntity
  8
TEXT
100
AcDbText
 10
52.9347321428572
 20
51.47249999999999
 30
0.0
 40
1.875
  1
18.500
 41
0.75
  7
TXT
 72
     1
 11
55.9816071428572
 21
51.47249999999999
 31
0.0
100
AcDbText
  0
TEXT
  5
B97
330
9C6
100
AcDbEntity
  8
TEXT
100
AcDbText
 10
52.7003571428572
 20
35.8675
 30
0.0
 40
1.875
  1
25.500
 41
0.75
  7
TXT
 72
     1
 11
55.9816071428572
 21
35.8675
 31
0.0
100
AcDbText
  0
TEXT
  5
B98
330
9C6
100
AcDbEntity
  8
TEXT
100
AcDbText
 10
52.70035714285717
 20
17.14249999999999
 30
0.0
 40
1.875
  1
30.750
 41
0.75
  7
TXT
 72
     1
 11
55.98160714285717
 21
17.14249999999999
 31
0.0
100
AcDbText
  0
TEXT
  5
B99
330
9C6
100
AcDbEntity
  8
TEXT
100
AcDbText
 10
67.38227678571433
 20
51.47249999999999
 30
0.0
 40
1.875
  1
17.000
 41
0.75
  7
TXT
 72
     1
 11
70.31196428571433
 21
51.47249999999999
 31
0.0
100
AcDbText
  0
TEXT
  5
B9A
330
9C6
100
AcDbEntity
  8
TEXT
100
AcDbText
 10
67.14790178571433
 20
20.26749999999999
 30
0.0
 40
1.875
  1
24.000
 41
0.75
  7
TXT
 72
     1
 11
70.31196428571433
 21
20.26749999999999
 31
0.0
100
AcDbText
  0
TEXT
  5
B9B
330
9C6
100
AcDbEntity
  8
TEXT
100
AcDbText
 10
66.91352678571433
 20
1.542500000000003
 30
0.0
 40
1.875
  1
29.250
 41
0.75
  7
TXT
 72
     1
 11
70.31196428571433
 21
1.542500000000003
 31
0.0
100
AcDbText
  0
TEXT
  5
B9C
330
9C6
100
AcDbEntity
  8
TEXT
100
AcDbText
 10
81.36107142857145
 20
45.23249999999999
 30
0.0
 40
1.875
  1
27.531
 41
0.75
  7
TXT
 72
     1
 11
84.64232142857145
 21
45.23249999999999
 31
0.0
100
AcDbText
  0
TEXT
  5
B9D
330
9C6
100
AcDbEntity
  8
TEXT
100
AcDbText
 10
81.47825892857145
 20
42.10749999999999
 30
0.0
 40
1.875
  1
31.906
 41
0.75
  7
TXT
 72
     1
 11
84.64232142857145
 21
42.10749999999999
 31
0.0
100
AcDbText
  0
TEXT
  5
B9E
330
9C6
100
AcDbEntity
  8
TEXT
100
AcDbText
 10
81.36107142857145
 20
38.9825
 30
0.0
 40
1.875
  1
36.281
 41
0.75
  7
TXT
 72
     1
 11
84.64232142857145
 21
38.9825
 31
0.0
100
AcDbText
  0
TEXT
  5
B9F
330
9C6
100
AcDbEntity
  8
TEXT
100
AcDbText
 10
95.45705357142859
 20
51.47249999999999
 30
0.0
 40
1.875
  1
38.562
 41
0.75
  7
TXT
 72
     1
 11
98.97267857142859
 21
51.47249999999999
 31
0.0
100
AcDbText
  0
TEXT
  5
BA0
330
9C6
100
AcDbEntity
  8
TEXT
100
AcDbText
 10
95.57424107142859
 20
48.34749999999999
 30
0.0
 40
1.875
  1
49.062
 41
0.75
  7
TXT
 72
     1
 11
98.97267857142859
 21
48.34749999999999
 31
0.0
100
AcDbText
  0
TEXT
  5
BA1
330
9C6
100
AcDbEntity
  8
TEXT
100
AcDbText
 10
95.69142857142859
 20
45.22249999999999
 30
0.0
 40
1.875
  1
57.812
 41
0.75
  7
TXT
 72
     1
 11
98.97267857142859
 21
45.22249999999999
 31
0.0
100
AcDbText
  0
TEXT
  5
BA2
330
9C6
100
AcDbEntity
  8
TEXT
100
AcDbText
 10
95.45705357142859
 20
42.09750000000001
 30
0.0
 40
1.875
  1
66.562
 41
0.75
  7
TXT
 72
     1
 11
98.97267857142859
 21
42.09750000000001
 31
0.0
100
AcDbText
  0
TEXT
  5
BA3
330
9C6
100
AcDbEntity
  8
TEXT
100
AcDbText
 10
95.69142857142859
 20
38.97249999999999
 30
0.0
 40
1.875
  1
75.312
 41
0.75
  7
TXT
 72
     1
 11
98.97267857142859
 21
38.97249999999999
 31
0.0
100
AcDbText
  0
TEXT
  5
BA4
330
9C6
100
AcDbEntity
  8
TEXT
100
AcDbText
 10
112.6501339285714
 20
51.47249999999999
 30
0.0
 40
1.875
  1
PMR-9450
 41
0.75
  7
TXT
 72
     1
 11
117.9235714285714
 21
51.47249999999999
 31
0.0
100
AcDbText
  0
TEXT
  5
BA5
330
9C6
100
AcDbEntity
  8
TEXT
100
AcDbText
 10
112.7673214285714
 20
48.34749999999999
 30
0.0
 40
1.875
  1
PMR-9451
 41
0.75
  7
TXT
 72
     1
 11
117.9235714285714
 21
48.34749999999999
 31
0.0
100
AcDbText
  0
TEXT
  5
BA6
330
9C6
100
AcDbEntity
  8
TEXT
100
AcDbText
 10
112.5329464285714
 20
45.22249999999999
 30
0.0
 40
1.875
  1
PMR-9452
 41
0.75
  7
TXT
 72
     1
 11
117.9235714285714
 21
45.22249999999999
 31
0.0
100
AcDbText
  0
TEXT
  5
BA7
330
9C6
100
AcDbEntity
  8
TEXT
100
AcDbText
 10
112.5329464285714
 20
42.09750000000001
 30
0.0
 40
1.875
  1
PMR-9453
 41
0.75
  7
TXT
 72
     1
 11
117.9235714285714
 21
42.09750000000001
 31
0.0
100
AcDbText
  0
TEXT
  5
BA8
330
9C6
100
AcDbEntity
  8
TEXT
100
AcDbText
 10
112.5329464285714
 20
38.97249999999999
 30
0.0
 40
1.875
  1
PMR-9454
 41
0.75
  7
TXT
 72
     1
 11
117.9235714285714
 21
38.97249999999999
 31
0.0
100
AcDbText
  0
TEXT
  5
BA9
330
9C6
100
AcDbEntity
  8
TEXT
100
AcDbText
 10
134.262857142857
 20
51.47249999999999
 30
0.0
 40
1.875
  1
V-9763-L
 41
0.75
  7
TXT
 72
     1
 11
139.887857142857
 21
51.47249999999999
 31
0.0
100
AcDbText
  0
TEXT
  5
BAA
330
9C6
100
AcDbEntity
  8
TEXT
100
AcDbText
 10
134.262857142857
 20
48.34749999999999
 30
0.0
 40
1.875
  1
V-9764-L
 41
0.75
  7
TXT
 72
     1
 11
139.887857142857
 21
48.34749999999999
 31
0.0
100
AcDbText
  0
TEXT
  5
BAB
330
9C6
100
AcDbEntity
  8
TEXT
100
AcDbText
 10
134.262857142857
 20
45.22249999999999
 30
0.0
 40
1.875
  1
V-9765-L
 41
0.75
  7
TXT
 72
     1
 11
139.887857142857
 21
45.22249999999999
 31
0.0
100
AcDbText
  0
TEXT
  5
BAC
330
9C6
100
AcDbEntity
  8
TEXT
100
AcDbText
 10
134.262857142857
 20
42.09750000000001
 30
0.0
 40
1.875
  1
V-9766-L
 41
0.75
  7
TXT
 72
     1
 11
139.887857142857
 21
42.09750000000001
 31
0.0
100
AcDbText
  0
TEXT
  5
BAD
330
9C6
100
AcDbEntity
  8
TEXT
100
AcDbText
 10
134.262857142857
 20
38.97249999999999
 30
0.0
 40
1.875
  1
V-9767-L
 41
0.75
  7
TXT
 72
     1
 11
139.887857142857
 21
38.97249999999999
 31
0.0
100
AcDbText
  0
TEXT
  5
BAE
330
9C6
100
AcDbEntity
  8
TEXT
100
AcDbText
 10
38.25281250000005
 20
20.2525
 30
0.0
 40
1.875
  1
84.062
 41
0.75
  7
TXT
 72
     1
 11
41.65125000000005
 21
20.2525
 31
0.0
100
AcDbText
  0
TEXT
  5
BAF
330
9C6
100
AcDbEntity
  8
TEXT
100
AcDbText
 10
38.37000000000005
 20
23.3775
 30
0.0
 40
1.875
  1
75.312
 41
0.75
  7
TXT
 72
     1
 11
41.65125000000005
 21
23.3775
 31
0.0
100
AcDbText
  0
TEXT
  5
BB0
330
9C6
100
AcDbEntity
  8
TEXT
100
AcDbText
 10
38.13562500000005
 20
26.50249999999999
 30
0.0
 40
1.875
  1
66.562
 41
0.75
  7
TXT
 72
     1
 11
41.65125000000005
 21
26.50249999999999
 31
0.0
100
AcDbText
  0
TEXT
  5
BB1
330
9C6
100
AcDbEntity
  8
TEXT
100
AcDbText
 10
38.37000000000005
 20
29.62749999999999
 30
0.0
 40
1.875
  1
57.812
 41
0.75
  7
TXT
 72
     1
 11
41.65125000000005
 21
29.62749999999999
 31
0.0
100
AcDbText
  0
TEXT
  5
BB2
330
9C6
100
AcDbEntity
  8
TEXT
100
AcDbText
 10
38.37000000000005
 20
32.75249999999999
 30
0.0
 40
1.875
  1
47.312
 41
0.75
  7
TXT
 72
     1
 11
41.65125000000005
 21
32.75249999999999
 31
0.0
100
AcDbText
  0
TEXT
  5
BB3
330
9C6
100
AcDbEntity
  8
TEXT
100
AcDbText
 10
23.92245535714291
 20
20.25250000000001
 30
0.0
 40
1.875
  1
78.750
 41
0.75
  7
TXT
 72
     1
 11
27.32089285714291
 21
20.25250000000001
 31
0.0
100
AcDbText
  0
TEXT
  5
BB4
330
9C6
100
AcDbEntity
  8
TEXT
100
AcDbText
 10
24.27401785714291
 20
23.37750000000001
 30
0.0
 40
1.875
  1
70.000
 41
0.75
  7
TXT
 72
     1
 11
27.32089285714291
 21
23.37750000000001
 31
0.0
100
AcDbText
  0
TEXT
  5
BB5
330
9C6
100
AcDbEntity
  8
TEXT
100
AcDbText
 10
24.15683035714291
 20
26.50250000000001
 30
0.0
 40
1.875
  1
61.250
 41
0.75
  7
TXT
 72
     1
 11
27.32089285714291
 21
26.50250000000001
 31
0.0
100
AcDbText
  0
TEXT
  5
BB6
330
9C6
100
AcDbEntity
  8
TEXT
100
AcDbText
 10
24.03964285714291
 20
29.6275
 30
0.0
 40
1.875
  1
52.500
 41
0.75
  7
TXT
 72
     1
 11
27.32089285714291
 21
29.6275
 31
0.0
100
AcDbText
  0
TEXT
  5
BB7
330
9C6
100
AcDbEntity
  8
TEXT
100
AcDbText
 10
24.15683035714291
 20
32.75249999999999
 30
0.0
 40
1.875
  1
42.000
 41
0.75
  7
TXT
 72
     1
 11
27.32089285714291
 21
32.75249999999999
 31
0.0
100
AcDbText
  0
TEXT
  5
BB8
330
9C6
100
AcDbEntity
  8
TEXT
100
AcDbText
 10
134.262857142857
 20
20.2525
 30
0.0
 40
1.875
  1
V-9767-L
 41
0.75
  7
TXT
 72
     1
 11
139.887857142857
 21
20.2525
 31
0.0
100
AcDbText
  0
TEXT
  5
BB9
330
9C6
100
AcDbEntity
  8
TEXT
100
AcDbText
 10
134.262857142857
 20
23.3775
 30
0.0
 40
1.875
  1
V-9766-L
 41
0.75
  7
TXT
 72
     1
 11
139.887857142857
 21
23.3775
 31
0.0
100
AcDbText
  0
TEXT
  5
BBA
330
9C6
100
AcDbEntity
  8
TEXT
100
AcDbText
 10
134.262857142857
 20
26.50249999999999
 30
0.0
 40
1.875
  1
V-9765-L
 41
0.75
  7
TXT
 72
     1
 11
139.887857142857
 21
26.50249999999999
 31
0.0
100
AcDbText
  0
TEXT
  5
BBB
330
9C6
100
AcDbEntity
  8
TEXT
100
AcDbText
 10
134.262857142857
 20
29.62749999999999
 30
0.0
 40
1.875
  1
V-9764-L
 41
0.75
  7
TXT
 72
     1
 11
139.887857142857
 21
29.62749999999999
 31
0.0
100
AcDbText
  0
TEXT
  5
BBC
330
9C6
100
AcDbEntity
  8
TEXT
100
AcDbText
 10
134.262857142857
 20
32.75249999999999
 30
0.0
 40
1.875
  1
V-9763-L
 41
0.75
  7
TXT
 72
     1
 11
139.887857142857
 21
32.75249999999999
 31
0.0
100
AcDbText
  0
TEXT
  5
BBD
330
9C6
100
AcDbEntity
  8
TEXT
100
AcDbText
 10
112.5329464285714
 20
20.2525
 30
0.0
 40
1.875
  1
PMR-9454
 41
0.75
  7
TXT
 72
     1
 11
117.9235714285714
 21
20.2525
 31
0.0
100
AcDbText
  0
TEXT
  5
BBE
330
9C6
100
AcDbEntity
  8
TEXT
100
AcDbText
 10
112.5329464285714
 20
23.3775
 30
0.0
 40
1.875
  1
PMR-9453
 41
0.75
  7
TXT
 72
     1
 11
117.9235714285714
 21
23.3775
 31
0.0
100
AcDbText
  0
TEXT
  5
BBF
330
9C6
100
AcDbEntity
  8
TEXT
100
AcDbText
 10
112.5329464285714
 20
26.50249999999999
 30
0.0
 40
1.875
  1
PMR-9452
 41
0.75
  7
TXT
 72
     1
 11
117.9235714285714
 21
26.50249999999999
 31
0.0
100
AcDbText
  0
TEXT
  5
BC0
330
9C6
100
AcDbEntity
  8
TEXT
100
AcDbText
 10
112.7673214285714
 20
29.62749999999999
 30
0.0
 40
1.875
  1
PMR-9451
 41
0.75
  7
TXT
 72
     1
 11
117.9235714285714
 21
29.62749999999999
 31
0.0
100
AcDbText
  0
TEXT
  5
BC1
330
9C6
100
AcDbEntity
  8
TEXT
100
AcDbText
 10
112.6501339285714
 20
32.75249999999999
 30
0.0
 40
1.875
  1
PMR-9450
 41
0.75
  7
TXT
 72
     1
 11
117.9235714285714
 21
32.75249999999999
 31
0.0
100
AcDbText
  0
TEXT
  5
BC2
330
9C6
100
AcDbEntity
  8
TEXT
100
AcDbText
 10
95.69142857142859
 20
20.2525
 30
0.0
 40
1.875
  1
75.312
 41
0.75
  7
TXT
 72
     1
 11
98.97267857142859
 21
20.2525
 31
0.0
100
AcDbText
  0
TEXT
  5
BC3
330
9C6
100
AcDbEntity
  8
TEXT
100
AcDbText
 10
95.45705357142859
 20
23.3775
 30
0.0
 40
1.875
  1
66.562
 41
0.75
  7
TXT
 72
     1
 11
98.97267857142859
 21
23.3775
 31
0.0
100
AcDbText
  0
TEXT
  5
BC4
330
9C6
100
AcDbEntity
  8
TEXT
100
AcDbText
 10
95.69142857142859
 20
26.50249999999999
 30
0.0
 40
1.875
  1
57.812
 41
0.75
  7
TXT
 72
     1
 11
98.97267857142859
 21
26.50249999999999
 31
0.0
100
AcDbText
  0
TEXT
  5
BC5
330
9C6
100
AcDbEntity
  8
TEXT
100
AcDbText
 10
95.57424107142859
 20
29.62749999999999
 30
0.0
 40
1.875
  1
49.062
 41
0.75
  7
TXT
 72
     1
 11
98.97267857142859
 21
29.62749999999999
 31
0.0
100
AcDbText
  0
TEXT
  5
BC6
330
9C6
100
AcDbEntity
  8
TEXT
100
AcDbText
 10
95.45705357142859
 20
32.75249999999999
 30
0.0
 40
1.875
  1
38.562
 41
0.75
  7
TXT
 72
     1
 11
98.97267857142859
 21
32.75249999999999
 31
0.0
100
AcDbText
  0
TEXT
  5
BC7
330
9C6
100
AcDbEntity
  8
TEXT
100
AcDbText
 10
81.36107142857145
 20
20.2625
 30
0.0
 40
1.875
  1
36.281
 41
0.75
  7
TXT
 72
     1
 11
84.64232142857145
 21
20.2625
 31
0.0
100
AcDbText
  0
TEXT
  5
BC8
330
9C6
100
AcDbEntity
  8
TEXT
100
AcDbText
 10
81.47825892857145
 20
23.3875
 30
0.0
 40
1.875
  1
31.906
 41
0.75
  7
TXT
 72
     1
 11
84.64232142857145
 21
23.3875
 31
0.0
100
AcDbText
  0
TEXT
  5
BC9
330
9C6
100
AcDbEntity
  8
TEXT
100
AcDbText
 10
81.36107142857145
 20
26.51249999999999
 30
0.0
 40
1.875
  1
27.531
 41
0.75
  7
TXT
 72
     1
 11
84.64232142857145
 21
26.51249999999999
 31
0.0
100
AcDbText
  0
TEXT
  5
BCA
330
9C6
100
AcDbEntity
  8
TEXT
100
AcDbText
 10
24.15683035714291
 20
14.0325
 30
0.0
 40
1.875
  1
42.000
 41
0.75
  7
TXT
 72
     1
 11
27.32089285714291
 21
14.0325
 31
0.0
100
AcDbText
  0
TEXT
  5
BCB
330
9C6
100
AcDbEntity
  8
TEXT
100
AcDbText
 10
24.03964285714291
 20
10.9075
 30
0.0
 40
1.875
  1
52.500
 41
0.75
  7
TXT
 72
     1
 11
27.32089285714291
 21
10.9075
 31
0.0
100
AcDbText
  0
TEXT
  5
BCC
330
9C6
100
AcDbEntity
  8
TEXT
100
AcDbText
 10
24.15683035714291
 20
7.782500000000013
 30
0.0
 40
1.875
  1
61.250
 41
0.75
  7
TXT
 72
     1
 11
27.32089285714291
 21
7.782500000000013
 31
0.0
100
AcDbText
  0
TEXT
  5
BCD
330
9C6
100
AcDbEntity
  8
TEXT
100
AcDbText
 10
24.27401785714291
 20
4.657500000000013
 30
0.0
 40
1.875
  1
70.000
 41
0.75
  7
TXT
 72
     1
 11
27.32089285714291
 21
4.657500000000013
 31
0.0
100
AcDbText
  0
TEXT
  5
BCE
330
9C6
100
AcDbEntity
  8
TEXT
100
AcDbText
 10
23.92245535714291
 20
1.532500000000013
 30
0.0
 40
1.875
  1
78.750
 41
0.75
  7
TXT
 72
     1
 11
27.32089285714291
 21
1.532500000000013
 31
0.0
100
AcDbText
  0
TEXT
  5
BCF
330
9C6
100
AcDbEntity
  8
TEXT
100
AcDbText
 10
38.37000000000005
 20
14.0325
 30
0.0
 40
1.875
  1
47.312
 41
0.75
  7
TXT
 72
     1
 11
41.65125000000005
 21
14.0325
 31
0.0
100
AcDbText
  0
TEXT
  5
BD0
330
9C6
100
AcDbEntity
  8
TEXT
100
AcDbText
 10
38.37000000000005
 20
10.9075
 30
0.0
 40
1.875
  1
57.812
 41
0.75
  7
TXT
 72
     1
 11
41.65125000000005
 21
10.9075
 31
0.0
100
AcDbText
  0
TEXT
  5
BD1
330
9C6
100
AcDbEntity
  8
TEXT
100
AcDbText
 10
38.13562500000005
 20
7.782500000000005
 30
0.0
 40
1.875
  1
66.562
 41
0.75
  7
TXT
 72
     1
 11
41.65125000000005
 21
7.782500000000005
 31
0.0
100
AcDbText
  0
TEXT
  5
BD2
330
9C6
100
AcDbEntity
  8
TEXT
100
AcDbText
 10
38.37000000000005
 20
4.657500000000006
 30
0.0
 40
1.875
  1
75.312
 41
0.75
  7
TXT
 72
     1
 11
41.65125000000005
 21
4.657500000000006
 31
0.0
100
AcDbText
  0
TEXT
  5
BD3
330
9C6
100
AcDbEntity
  8
TEXT
100
AcDbText
 10
38.25281250000005
 20
1.532500000000005
 30
0.0
 40
1.875
  1
84.062
 41
0.75
  7
TXT
 72
     1
 11
41.65125000000005
 21
1.532500000000005
 31
0.0
100
AcDbText
  0
TEXT
  5
BD4
330
9C6
100
AcDbEntity
  8
TEXT
100
AcDbText
 10
81.36107142857145
 20
7.792500000000001
 30
0.0
 40
1.875
  1
27.531
 41
0.75
  7
TXT
 72
     1
 11
84.64232142857145
 21
7.792500000000001
 31
0.0
100
AcDbText
  0
TEXT
  5
BD5
330
9C6
100
AcDbEntity
  8
TEXT
100
AcDbText
 10
81.47825892857145
 20
4.667500000000003
 30
0.0
 40
1.875
  1
31.906
 41
0.75
  7
TXT
 72
     1
 11
84.64232142857145
 21
4.667500000000003
 31
0.0
100
AcDbText
  0
TEXT
  5
BD6
330
9C6
100
AcDbEntity
  8
TEXT
100
AcDbText
 10
81.36107142857145
 20
1.542500000000007
 30
0.0
 40
1.875
  1
36.281
 41
0.75
  7
TXT
 72
     1
 11
84.64232142857145
 21
1.542500000000007
 31
0.0
100
AcDbText
  0
TEXT
  5
BD7
330
9C6
100
AcDbEntity
  8
TEXT
100
AcDbText
 10
95.45705357142859
 20
14.0325
 30
0.0
 40
1.875
  1
38.562
 41
0.75
  7
TXT
 72
     1
 11
98.97267857142859
 21
14.0325
 31
0.0
100
AcDbText
  0
TEXT
  5
BD8
330
9C6
100
AcDbEntity
  8
TEXT
100
AcDbText
 10
95.57424107142859
 20
10.9075
 30
0.0
 40
1.875
  1
49.062
 41
0.75
  7
TXT
 72
     1
 11
98.97267857142859
 21
10.9075
 31
0.0
100
AcDbText
  0
TEXT
  5
BD9
330
9C6
100
AcDbEntity
  8
TEXT
100
AcDbText
 10
95.69142857142859
 20
7.782500000000005
 30
0.0
 40
1.875
  1
57.812
 41
0.75
  7
TXT
 72
     1
 11
98.97267857142859
 21
7.782500000000005
 31
0.0
100
AcDbText
  0
TEXT
  5
BDA
330
9C6
100
AcDbEntity
  8
TEXT
100
AcDbText
 10
95.45705357142859
 20
4.657500000000006
 30
0.0
 40
1.875
  1
66.562
 41
0.75
  7
TXT
 72
     1
 11
98.97267857142859
 21
4.657500000000006
 31
0.0
100
AcDbText
  0
TEXT
  5
BDB
330
9C6
100
AcDbEntity
  8
TEXT
100
AcDbText
 10
95.69142857142859
 20
1.532500000000005
 30
0.0
 40
1.875
  1
75.312
 41
0.75
  7
TXT
 72
     1
 11
98.97267857142859
 21
1.532500000000005
 31
0.0
100
AcDbText
  0
TEXT
  5
BDC
330
9C6
100
AcDbEntity
  8
TEXT
100
AcDbText
 10
112.6501339285714
 20
14.0325
 30
0.0
 40
1.875
  1
PMR-9450
 41
0.75
  7
TXT
 72
     1
 11
117.9235714285714
 21
14.0325
 31
0.0
100
AcDbText
  0
TEXT
  5
BDD
330
9C6
100
AcDbEntity
  8
TEXT
100
AcDbText
 10
112.7673214285714
 20
10.9075
 30
0.0
 40
1.875
  1
PMR-9451
 41
0.75
  7
TXT
 72
     1
 11
117.9235714285714
 21
10.9075
 31
0.0
100
AcDbText
  0
TEXT
  5
BDE
330
9C6
100
AcDbEntity
  8
TEXT
100
AcDbText
 10
112.5329464285714
 20
7.782500000000005
 30
0.0
 40
1.875
  1
PMR-9452
 41
0.75
  7
TXT
 72
     1
 11
117.9235714285714
 21
7.782500000000005
 31
0.0
100
AcDbText
  0
TEXT
  5
BDF
330
9C6
100
AcDbEntity
  8
TEXT
100
AcDbText
 10
112.5329464285714
 20
4.657500000000006
 30
0.0
 40
1.875
  1
PMR-9453
 41
0.75
  7
TXT
 72
     1
 11
117.9235714285714
 21
4.657500000000006
 31
0.0
100
AcDbText
  0
TEXT
  5
BE0
330
9C6
100
AcDbEntity
  8
TEXT
100
AcDbText
 10
112.5329464285714
 20
1.532500000000005
 30
0.0
 40
1.875
  1
PMR-9454
 41
0.75
  7
TXT
 72
     1
 11
117.9235714285714
 21
1.532500000000005
 31
0.0
100
AcDbText
  0
TEXT
  5
BE1
330
9C6
100
AcDbEntity
  8
TEXT
100
AcDbText
 10
134.262857142857
 20
14.0325
 30
0.0
 40
1.875
  1
V-9763-L
 41
0.75
  7
TXT
 72
     1
 11
139.887857142857
 21
14.0325
 31
0.0
100
AcDbText
  0
TEXT
  5
BE2
330
9C6
100
AcDbEntity
  8
TEXT
100
AcDbText
 10
134.262857142857
 20
10.9075
 30
0.0
 40
1.875
  1
V-9764-L
 41
0.75
  7
TXT
 72
     1
 11
139.887857142857
 21
10.9075
 31
0.0
100
AcDbText
  0
TEXT
  5
BE3
330
9C6
100
AcDbEntity
  8
TEXT
100
AcDbText
 10
134.262857142857
 20
7.782500000000005
 30
0.0
 40
1.875
  1
V-9765-L
 41
0.75
  7
TXT
 72
     1
 11
139.887857142857
 21
7.782500000000005
 31
0.0
100
AcDbText
  0
TEXT
  5
BE4
330
9C6
100
AcDbEntity
  8
TEXT
100
AcDbText
 10
134.262857142857
 20
4.657500000000006
 30
0.0
 40
1.875
  1
V-9766-L
 41
0.75
  7
TXT
 72
     1
 11
139.887857142857
 21
4.657500000000006
 31
0.0
100
AcDbText
  0
TEXT
  5
BE5
330
9C6
100
AcDbEntity
  8
TEXT
100
AcDbText
 10
134.262857142857
 20
1.532500000000005
 30
0.0
 40
1.875
  1
V-9767-L
 41
0.75
  7
TXT
 72
     1
 11
139.887857142857
 21
1.532500000000005
 31
0.0
100
AcDbText
  0
TEXT
  5
BE6
330
9C6
100
AcDbEntity
  8
TEXT
100
AcDbText
 10
52.9347321428572
 20
38.9925
 30
0.0
 40
1.875
  1
18.500
 41
0.75
  7
TXT
 72
     1
 11
55.9816071428572
 21
38.9925
 31
0.0
100
AcDbText
  0
TEXT
  5
BE7
330
9C6
100
AcDbEntity
  8
TEXT
100
AcDbText
 10
52.7003571428572
 20
20.26749999999999
 30
0.0
 40
1.875
  1
25.500
 41
0.75
  7
TXT
 72
     1
 11
55.9816071428572
 21
20.26749999999999
 31
0.0
100
AcDbText
  0
TEXT
  5
BE8
330
9C6
100
AcDbEntity
  8
TEXT
100
AcDbText
 10
52.7003571428572
 20
1.542500000000003
 30
0.0
 40
1.875
  1
30.750
 41
0.75
  7
TXT
 72
     1
 11
55.9816071428572
 21
1.542500000000003
 31
0.0
100
AcDbText
  0
LINE
  5
BE9
330
9C6
100
AcDbEntity
  8
TEXT
100
AcDbLine
 10
55.9816071428572
 20
50.47503321429303
 30
0.0
 11
55.9816071428572
 21
41.84627726493592
 31
0.0
  0
LINE
  5
BEA
330
9C6
100
AcDbEntity
  8
TEXT
100
AcDbLine
 10
55.9816071428572
 20
34.87503321429302
 30
0.0
 11
55.9816071428572
 21
23.12627726493591
 31
0.0
  0
LINE
  5
BEB
330
9C6
100
AcDbEntity
  8
TEXT
100
AcDbLine
 10
55.98160714285718
 20
16.15503321429302
 30
0.0
 11
55.9816071428572
 21
4.406277264935918
 31
0.0
  0
TEXT
  5
BEC
330
9C6
100
AcDbEntity
  8
TEXT
100
AcDbText
 10
67.14790178571433
 20
35.8675
 30
0.0
 40
1.875
  1
24.000
 41
0.75
  7
TXT
 72
     1
 11
70.31196428571433
 21
35.8675
 31
0.0
100
AcDbText
  0
TEXT
  5
BED
330
9C6
100
AcDbEntity
  8
TEXT
100
AcDbText
 10
66.91352678571433
 20
17.14249999999999
 30
0.0
 40
1.875
  1
29.250
 41
0.75
  7
TXT
 72
     1
 11
70.31196428571433
 21
17.14249999999999
 31
0.0
100
AcDbText
  0
TEXT
  5
BEE
330
9C6
100
AcDbEntity
  8
TEXT
100
AcDbText
 10
67.38227678571433
 20
38.9925
 30
0.0
 40
1.875
  1
17.000
 41
0.75
  7
TXT
 72
     1
 11
70.31196428571433
 21
38.9925
 31
0.0
100
AcDbText
  0
LINE
  5
BEF
330
9C6
100
AcDbEntity
  8
TEXT
100
AcDbLine
 10
70.31196428571433
 20
50.47503321429302
 30
0.0
 11
70.31196428571433
 21
41.8462772649359
 31
0.0
  0
LINE
  5
BF0
330
9C6
100
AcDbEntity
  8
TEXT
100
AcDbLine
 10
70.31196428571433
 20
34.87503321429302
 30
0.0
 11
70.31196428571433
 21
23.12627726493589
 31
0.0
  0
LINE
  5
BF1
330
9C6
100
AcDbEntity
  8
TEXT
100
AcDbLine
 10
70.31196428571433
 20
16.15503321429302
 30
0.0
 11
70.31196428571433
 21
4.406277264935916
 31
0.0
  0
TEXT
  5
BF2
330
9C6
100
AcDbEntity
  8
TEXT
100
AcDbText
 10
15.24810931187426
 20
227.2649999999999
 30
0.0
 40
2.343214285714284
  1
ECONOMIZER CABINET RACK (19" P.S.)
 41
0.625
  7
TXT
 72
     1
 11
37.45982806187428
 21
227.2649999999999
 31
0.0
100
AcDbText
  0
TEXT
  5
BF3
330
9C6
100
AcDbEntity
  8
TEXT
100
AcDbText
 10
82.1866008619429
 20
227.2649999999999
 30
0.0
 40
2.343214285714284
  1
ER-16502 thru ER-16526
 41
0.75
  7
TXT
 72
     1
 11
100.4929624690857
 21
227.2649999999999
 31
0.0
100
AcDbText
  0
LINE
  5
BF4
330
9C6
100
AcDbEntity
  8
TEXT
100
AcDbLine
 10
81.64702147987956
 20
52.40999999999999
 30
0.0
 11
87.3737755529371
 21
52.40999999999999
 31
0.0
  0
LINE
  5
BF5
330
9C6
100
AcDbEntity
  8
TEXT
100
AcDbLine
 10
81.64702147987956
 20
49.23933956750431
 30
0.0
 11
87.3737755529371
 21
49.23933956750431
 31
0.0
  0
LINE
  5
BF6
330
9C6
100
AcDbEntity
  8
TEXT
100
AcDbLine
 10
81.64702147987956
 20
33.63599649327849
 30
0.0
 11
87.3737755529371
 21
33.63599649327849
 31
0.0
  0
LINE
  5
BF7
330
9C6
100
AcDbEntity
  8
TEXT
100
AcDbLine
 10
81.64702147987956
 20
30.46533606078281
 30
0.0
 11
87.3737755529371
 21
30.46533606078281
 31
0.0
  0
LINE
  5
BF8
330
9C6
100
AcDbEntity
  8
TEXT
100
AcDbLine
 10
81.64702147987956
 20
14.93446522501403
 30
0.0
 11
87.3737755529371
 21
14.93446522501403
 31
0.0
  0
LINE
  5
BF9
330
9C6
100
AcDbEntity
  8
TEXT
100
AcDbLine
 10
81.64702147987956
 20
11.83627703097541
 30
0.0
 11
87.3737755529371
 21
11.83627703097541
 31
0.0
  0
TEXT
  5
BFA
330
9C6
100
AcDbEntity
  8
TEXT
100
AcDbText
 10
3.429805845818207
 20
105.0512947410892
 30
0.0
 40
1.674107142857141
  1
%%uMATERIAL:
 41
0.75
  7
TXT
100
AcDbText
  0
TEXT
  5
BFB
330
9C6
100
AcDbEntity
  8
TEXT
100
AcDbText
 10
3.429805845818207
 20
102.2655804553749
 30
0.0
 40
1.674107142857141
  1
SIDES AND REAR DOOR
 41
0.75
  7
TXT
100
AcDbText
  0
TEXT
  5
BFC
330
9C6
100
AcDbEntity
  8
TEXT
100
AcDbText
 10
3.429805845818207
 20
99.47986616966076
 30
0.0
 40
1.674107142857141
  1
REAR DOOR STIFFENER
 41
0.75
  7
TXT
100
AcDbText
  0
TEXT
  5
BFD
330
9C6
100
AcDbEntity
  8
TEXT
100
AcDbText
 10
3.429805845818207
 20
96.69415188394649
 30
0.0
 40
1.674107142857141
  1
TOP, BOTTOM, RAIL SUPPORTS
 41
0.75
  7
TXT
100
AcDbText
  0
TEXT
  5
BFE
330
9C6
100
AcDbEntity
  8
TEXT
100
AcDbText
 10
3.429805845818207
 20
93.90843759823223
 30
0.0
 40
1.674107142857141
  1
 AND DOOR STOPS
 41
0.75
  7
TXT
100
AcDbText
  0
TEXT
  5
BFF
330
9C6
100
AcDbEntity
  8
TEXT
100
AcDbText
 10
3.429805845818207
 20
91.12272331251794
 30
0.0
 40
1.674107142857141
  1
VERTICAL RAILS
 41
0.75
  7
TXT
100
AcDbText
  0
TEXT
  5
C00
330
9C6
100
AcDbEntity
  8
TEXT
100
AcDbText
 10
3.429805845818207
 20
88.33700902680369
 30
0.0
 40
1.674107142857141
  1
PANEL MOUNTING RAILS
 41
0.75
  7
TXT
100
AcDbText
  0
TEXT
  5
C01
330
9C6
100
AcDbEntity
  8
TEXT
100
AcDbText
 10
3.429805845818207
 20
82.76558045537509
 30
0.0
 40
1.674107142857141
  1
%%uFINISH:
 41
0.75
  7
TXT
100
AcDbText
  0
TEXT
  5
C02
330
9C6
100
AcDbEntity
  8
TEXT
100
AcDbText
 10
3.429805845818207
 20
79.97986616966077
 30
0.0
 40
1.674107142857141
  1
FRAME ASSEMBLY, SIDES
 41
0.75
  7
TXT
100
AcDbText
  0
TEXT
  5
C03
330
9C6
100
AcDbEntity
  8
TEXT
100
AcDbText
 10
3.429805845818207
 20
77.19415188394653
 30
0.0
 40
1.674107142857141
  1
 AND REAR DOOR
 41
0.75
  7
TXT
100
AcDbText
  0
TEXT
  5
C04
330
9C6
100
AcDbEntity
  8
TEXT
100
AcDbText
 10
3.429805845818207
 20
68.83700902680361
 30
0.0
 40
1.674107142857141
  1
PANEL MOUNTING RAILS
 41
0.75
  7
TXT
100
AcDbText
  0
TEXT
  5
C05
330
9C6
100
AcDbEntity
  8
TEXT
100
AcDbText
 10
3.429805845818207
 20
66.05129474108938
 30
0.0
 40
1.674107142857141
  1
 AND DOOR STOPS
 41
0.75
  7
TXT
100
AcDbText
  0
TEXT
  5
C06
330
9C6
100
AcDbEntity
  8
TEXT
100
AcDbText
 10
37.29761967424193
 20
77.19415188394653
 30
0.0
 40
1.674107142857141
  1
SAND TEXTURE
 41
0.75
  7
TXT
100
AcDbText
  0
TEXT
  5
C07
330
9C6
100
AcDbEntity
  8
TEXT
100
AcDbText
 10
37.29761967424193
 20
66.05129474108938
 30
0.0
 40
1.674107142857141
  1
SMOOTH BLACK
 41
0.75
  7
TXT
100
AcDbText
  0
TEXT
  5
C08
330
9C6
100
AcDbEntity
  8
TEXT
100
AcDbText
 10
37.29761967424193
 20
102.2655804553749
 30
0.0
 40
1.674107142857141
  1
20 GA. STEEL
 41
0.75
  7
TXT
100
AcDbText
  0
TEXT
  5
C09
330
9C6
100
AcDbEntity
  8
TEXT
100
AcDbText
 10
37.29761967424193
 20
99.47986616966076
 30
0.0
 40
1.674107142857141
  1
18 GA. STEEL
 41
0.75
  7
TXT
100
AcDbText
  0
TEXT
  5
C0A
330
9C6
100
AcDbEntity
  8
TEXT
100
AcDbText
 10
37.29761967424193
 20
93.90843759823223
 30
0.0
 40
1.674107142857141
  1
16 GA. STEEL
 41
0.75
  7
TXT
100
AcDbText
  0
TEXT
  5
C0B
330
9C6
100
AcDbEntity
  8
TEXT
100
AcDbText
 10
37.29761967424193
 20
91.12272331251794
 30
0.0
 40
1.674107142857141
  1
14 GA. STEEL
 41
0.75
  7
TXT
100
AcDbText
  0
TEXT
  5
C0C
330
9C6
100
AcDbEntity
  8
TEXT
100
AcDbText
 10
37.29761967424193
 20
88.33700902680369
 30
0.0
 40
1.674107142857141
  1
12 GA. STEEL
 41
0.75
  7
TXT
100
AcDbText
  0
TEXT
  5
C0D
330
9C6
100
AcDbEntity
  8
TEXT
100
AcDbText
 10
37.29761967424193
 20
74.4084375982322
 30
0.0
 40
1.674107142857141
  1
ROYAL BLUE TEXTURE
 41
0.75
  7
TXT
100
AcDbText
  0
TEXT
  5
C0E
330
9C6
100
AcDbEntity
  8
TEXT
100
AcDbText
 10
37.29761967424193
 20
71.62272331251796
 30
0.0
 40
1.674107142857141
  1
BLACK TEXTURE
 41
0.75
  7
TXT
100
AcDbText
  0
LINE
  5
C0F
330
9C6
100
AcDbEntity
  8
TEXT
100
AcDbLine
 10
36.10756755922104
 20
66.05129474108935
 30
0.0
 11
22.33821229775676
 21
66.05129474108938
 31
0.0
  0
LINE
  5
C10
330
9C6
100
AcDbEntity
  8
TEXT
100
AcDbLine
 10
36.10756755922104
 20
71.62272331251796
 30
0.0
 11
22.33821229775676
 21
71.62272331251796
 31
0.0
  0
LINE
  5
C11
330
9C6
100
AcDbEntity
  8
TEXT
100
AcDbLine
 10
36.10756755922104
 20
74.4084375982322
 30
0.0
 11
22.33821229775676
 21
74.4084375982322
 31
0.0
  0
LINE
  5
C12
330
9C6
100
AcDbEntity
  8
TEXT
100
AcDbLine
 10
36.10756755922104
 20
77.19415188394653
 30
0.0
 11
22.33821229775676
 21
77.19415188394653
 31
0.0
  0
LINE
  5
C13
330
9C6
100
AcDbEntity
  8
TEXT
100
AcDbLine
 10
36.10756755922104
 20
88.33700902680369
 30
0.0
 11
27.74979044096831
 21
88.33700902680369
 31
0.0
  0
LINE
  5
C14
330
9C6
100
AcDbEntity
  8
TEXT
100
AcDbLine
 10
36.10756755922104
 20
91.12272331251794
 30
0.0
 11
20.65381380284988
 21
91.12272331251794
 31
0.0
  0
LINE
  5
C15
330
9C6
100
AcDbEntity
  8
TEXT
100
AcDbLine
 10
36.10756755922104
 20
93.90843759823223
 30
0.0
 11
22.42780796237949
 21
93.90843759823223
 31
0.0
  0
LINE
  5
C16
330
9C6
100
AcDbEntity
  8
TEXT
100
AcDbLine
 10
36.10756755922104
 20
99.47986616966076
 30
0.0
 11
26.86279336120351
 21
99.47986616966076
 31
0.0
  0
LINE
  5
C17
330
9C6
100
AcDbEntity
  8
TEXT
100
AcDbLine
 10
36.10756755922104
 20
102.2655804553749
 30
0.0
 11
26.86279336120351
 21
102.2655804553749
 31
0.0
  0
LINE
  5
C18
330
9C6
100
AcDbEntity
  8
OBJECT
100
AcDbLine
 10
131.9296313817308
 20
121.0969835608664
 30
0.0
 11
131.9296313817308
 21
187.6589835608664
 31
0.0
  0
LINE
  5
C19
330
9C6
100
AcDbEntity
  8
OBJECT
100
AcDbLine
 10
131.9296313817308
 20
187.6589835608664
 30
0.0
 11
109.9296313817309
 21
187.6589835608664
 31
0.0
  0
LINE
  5
C1A
330
9C6
100
AcDbEntity
  8
OBJECT
100
AcDbLine
 10
109.9296313817309
 20
187.6589835608664
 30
0.0
 11
109.9296313817309
 21
121.0969835608664
 31
0.0
  0
LINE
  5
C1B
330
9C6
100
AcDbEntity
  8
OBJECT
100
AcDbLine
 10
109.9296313817309
 20
121.0969835608664
 30
0.0
 11
131.9296313817308
 21
121.0969835608664
 31
0.0
  0
LINE
  5
C1C
330
9C6
100
AcDbEntity
  8
OBJECT
100
AcDbLine
 10
130.4921313817309
 20
121.0969835608664
 30
0.0
 11
130.4921313817309
 21
187.6589835608664
 31
0.0
  0
LINE
  5
C1D
330
9C6
100
AcDbEntity
  8
OBJECT
100
AcDbLine
 10
111.3671313817309
 20
187.6589835608664
 30
0.0
 11
111.3671313817309
 21
121.0969835608664
 31
0.0
  0
LINE
  5
C1E
330
9C6
100
AcDbEntity
  8
OBJECT
100
AcDbLine
 10
111.3671313817309
 20
123.7219835608664
 30
0.0
 11
130.4921313817309
 21
123.7219835608664
 31
0.0
  0
LINE
  5
C1F
330
9C6
100
AcDbEntity
  8
OBJECT
100
AcDbLine
 10
130.4921313817309
 20
185.0339835608663
 30
0.0
 11
111.3671313817309
 21
185.0339835608663
 31
0.0
  0
LINE
  5
C20
330
9C6
100
AcDbEntity
  8
OBJECT
100
AcDbLine
 10
89.33753973111254
 20
148.3916921773461
 30
0.0
 11
89.33753973111254
 21
187.6589835608664
 31
0.0
  0
LINE
  5
C21
330
9C6
100
AcDbEntity
  8
OBJECT
100
AcDbLine
 10
89.33753973111254
 20
187.6589835608664
 30
0.0
 11
63.83753973111256
 21
187.6589835608664
 31
0.0
  0
LINE
  5
C22
330
9C6
100
AcDbEntity
  8
OBJECT
100
AcDbLine
 10
63.83753973111256
 20
187.6589835608664
 30
0.0
 11
63.83753973111256
 21
182.7434510994881
 31
0.0
  0
LINE
  5
C23
330
9C6
100
AcDbEntity
  8
OBJECT
100
AcDbLine
 10
87.86953973111248
 20
185.0339835608663
 30
0.0
 11
65.30553973111253
 21
185.0339835608663
 31
0.0
  0
ARC
  5
C24
330
9C6
100
AcDbEntity
  8
OBJECT
100
AcDbCircle
 10
34.85222723463016
 20
122.4089835608664
 30
0.0
 40
0.5545
100
AcDbArc
 50
96.41980556739294
 51
263.580194432607
  0
LINE
  5
C25
330
9C6
100
AcDbEntity
  8
OBJECT
100
AcDbLine
 10
34.91422723463017
 20
121.9191987754127
 30
0.0
 11
34.91422723463017
 21
121.7760136302493
 31
0.0
  0
LINE
  5
C26
330
9C6
100
AcDbEntity
  8
OBJECT
100
AcDbLine
 10
34.79022723463015
 20
123.0010420944245
 30
0.0
 11
34.79022723463015
 21
123.0381641690965
 31
0.0
  0
LINE
  5
C27
330
9C6
100
AcDbEntity
  8
OBJECT
100
AcDbLine
 10
34.79022723463015
 20
121.9191987754127
 30
0.0
 11
34.79022723463015
 21
121.7760136302493
 31
0.0
  0
ARC
  5
C28
330
9C6
100
AcDbEntity
  8
OBJECT
100
AcDbCircle
 10
34.85222723463016
 20
122.4089835608664
 30
0.0
 40
0.5545
100
AcDbArc
 50
276.4198055673929
 51
83.58019443260706
  0
LINE
  5
C29
330
9C6
100
AcDbEntity
  8
OBJECT
100
AcDbLine
 10
34.91422723463017
 20
123.0010420944245
 30
0.0
 11
34.91422723463017
 21
123.0381641690965
 31
0.0
  0
LINE
  5
C2A
330
9C6
100
AcDbEntity
  8
OBJECT
100
AcDbLine
 10
34.91422723463017
 20
122.8578569492613
 30
0.0
 11
34.91422723463017
 21
123.0010420944245
 31
0.0
  0
LINE
  5
C2B
330
9C6
100
AcDbEntity
  8
OBJECT
100
AcDbLine
 10
34.79022723463015
 20
123.0010420944245
 30
0.0
 11
34.79022723463015
 21
122.8578569492613
 31
0.0
  0
LINE
  5
C2C
330
9C6
100
AcDbEntity
  8
OBJECT
100
AcDbLine
 10
25.82122723463021
 20
123.0010420944245
 30
0.0
 11
25.82122723463021
 21
122.8578569492613
 31
0.0
  0
LINE
  5
C2D
330
9C6
100
AcDbEntity
  8
OBJECT
100
AcDbLine
 10
25.69722723463019
 20
122.8578569492613
 30
0.0
 11
25.69722723463019
 21
123.0010420944245
 31
0.0
  0
LINE
  5
C2E
330
9C6
100
AcDbEntity
  8
OBJECT
100
AcDbLine
 10
25.69722723463019
 20
123.0010420944245
 30
0.0
 11
25.69722723463019
 21
123.0381641690965
 31
0.0
  0
ARC
  5
C2F
330
9C6
100
AcDbEntity
  8
OBJECT
100
AcDbCircle
 10
25.75922723463019
 20
122.4089835608664
 30
0.0
 40
0.5545
100
AcDbArc
 50
96.41980556739294
 51
263.580194432607
  0
LINE
  5
C30
330
9C6
100
AcDbEntity
  8
OBJECT
100
AcDbLine
 10
25.82122723463021
 20
121.9191987754127
 30
0.0
 11
25.82122723463021
 21
121.7760136302493
 31
0.0
  0
LINE
  5
C31
330
9C6
100
AcDbEntity
  8
OBJECT
100
AcDbLine
 10
25.82122723463021
 20
123.0010420944245
 30
0.0
 11
25.82122723463021
 21
123.0381641690965
 31
0.0
  0
LINE
  5
C32
330
9C6
100
AcDbEntity
  8
OBJECT
100
AcDbLine
 10
25.69722723463019
 20
121.9191987754127
 30
0.0
 11
25.69722723463019
 21
121.7760136302493
 31
0.0
  0
ARC
  5
C33
330
9C6
100
AcDbEntity
  8
OBJECT
100
AcDbCircle
 10
25.75922723463019
 20
122.4089835608664
 30
0.0
 40
0.5545
100
AcDbArc
 50
276.4198055673929
 51
83.58019443260706
  0
LINE
  5
C34
330
9C6
100
AcDbEntity
  8
OBJECT
100
AcDbLine
 10
41.30572723463024
 20
121.0969835608664
 30
0.0
 11
19.30572723463012
 21
121.0969835608664
 31
0.0
  0
LINE
  5
C35
330
9C6
100
AcDbEntity
  8
OBJECT
100
AcDbLine
 10
41.30572723463024
 20
187.6589835608664
 30
0.0
 11
41.30572723463024
 21
121.0969835608664
 31
0.0
  0
LINE
  5
C36
330
9C6
100
AcDbEntity
  8
OBJECT
100
AcDbLine
 10
19.30572723463024
 20
187.6589835608664
 30
0.0
 11
41.30572723463024
 21
187.6589835608664
 31
0.0
  0
LINE
  5
C37
330
9C6
100
AcDbEntity
  8
OBJECT
100
AcDbLine
 10
19.30572723463012
 20
121.0969835608664
 30
0.0
 11
19.30572723463024
 21
187.6589835608664
 31
0.0
  0
LINE
  5
C38
330
9C6
100
AcDbEntity
  8
OBJECT
100
AcDbLine
 10
87.86953973111248
 20
149.7982058322965
 30
0.0
 11
87.86953973111248
 21
187.6589835608664
 31
0.0
  0
LINE
  5
C39
330
9C6
100
AcDbEntity
  8
OBJECT
100
AcDbLine
 10
65.30553973111253
 20
187.6589835608664
 30
0.0
 11
65.30553973111256
 21
183.4248851902372
 31
0.0
  0
LINE
  5
C3A
330
9C6
100
AcDbEntity
  8
OBJECT
100
AcDbLine
 10
110.0076313817307
 20
106.4092519744548
 30
0.0
 11
131.8516313817308
 21
106.4092519744548
 31
0.0
  0
LINE
  5
C3B
330
9C6
100
AcDbEntity
  8
OBJECT
100
AcDbLine
 10
131.8516313817308
 20
106.4092519744548
 30
0.0
 11
131.8516313817308
 21
81.06525197445487
 31
0.0
  0
LINE
  5
C3C
330
9C6
100
AcDbEntity
  8
OBJECT
100
AcDbLine
 10
110.0076313817307
 20
106.4092519744548
 30
0.0
 11
110.0076313817309
 21
81.06525197445487
 31
0.0
  0
LINE
  5
C3D
330
9C6
100
AcDbEntity
  8
OBJECT
100
AcDbLine
 10
110.0856313817309
 20
105.9092519744547
 30
0.0
 11
131.7736313817308
 21
105.9092519744547
 31
0.0
  0
LINE
  5
C3E
330
9C6
100
AcDbEntity
  8
OBJECT
100
AcDbLine
 10
131.7736313817308
 20
105.9092519744547
 30
0.0
 11
131.7736313817308
 21
106.4092519744548
 31
0.0
  0
LINE
  5
C3F
330
9C6
100
AcDbEntity
  8
OBJECT
100
AcDbLine
 10
110.0856313817309
 20
105.9092519744547
 30
0.0
 11
110.0856313817309
 21
106.4092519744548
 31
0.0
  0
CIRCLE
  5
C40
330
9C6
100
AcDbEntity
  8
OBJECT
100
AcDbCircle
 10
129.5236313817308
 20
104.6592519744548
 30
0.0
 40
0.156
  0
CIRCLE
  5
C41
330
9C6
100
AcDbEntity
  8
OBJECT
100
AcDbCircle
 10
127.7736313817308
 20
104.6592519744548
 30
0.0
 40
0.156
  0
CIRCLE
  5
C42
330
9C6
100
AcDbEntity
  8
OBJECT
100
AcDbCircle
 10
129.5236313817308
 20
101.6592519744548
 30
0.0
 40
0.156
  0
CIRCLE
  5
C43
330
9C6
100
AcDbEntity
  8
OBJECT
100
AcDbCircle
 10
127.7736313817308
 20
101.6592519744548
 30
0.0
 40
0.156
  0
CIRCLE
  5
C44
330
9C6
100
AcDbEntity
  8
OBJECT
100
AcDbCircle
 10
114.0856313817309
 20
101.6592519744548
 30
0.0
 40
0.156
  0
CIRCLE
  5
C45
330
9C6
100
AcDbEntity
  8
OBJECT
100
AcDbCircle
 10
112.3356313817309
 20
101.6592519744548
 30
0.0
 40
0.156
  0
CIRCLE
  5
C46
330
9C6
100
AcDbEntity
  8
OBJECT
100
AcDbCircle
 10
114.0856313817309
 20
104.6592519744548
 30
0.0
 40
0.156
  0
CIRCLE
  5
C47
330
9C6
100
AcDbEntity
  8
OBJECT
100
AcDbCircle
 10
112.3356313817309
 20
104.6592519744548
 30
0.0
 40
0.156
  0
CIRCLE
  5
C48
330
9C6
100
AcDbEntity
  8
OBJECT
100
AcDbCircle
 10
112.3356313817309
 20
82.81525197445478
 30
0.0
 40
0.156
  0
CIRCLE
  5
C49
330
9C6
100
AcDbEntity
  8
OBJECT
100
AcDbCircle
 10
114.0856313817309
 20
82.81525197445478
 30
0.0
 40
0.156
  0
CIRCLE
  5
C4A
330
9C6
100
AcDbEntity
  8
OBJECT
100
AcDbCircle
 10
112.3356313817309
 20
85.81525197445484
 30
0.0
 40
0.156
  0
CIRCLE
  5
C4B
330
9C6
100
AcDbEntity
  8
OBJECT
100
AcDbCircle
 10
114.0856313817309
 20
85.81525197445484
 30
0.0
 40
0.156
  0
CIRCLE
  5
C4C
330
9C6
100
AcDbEntity
  8
OBJECT
100
AcDbCircle
 10
127.7736313817308
 20
85.81525197445484
 30
0.0
 40
0.156
  0
CIRCLE
  5
C4D
330
9C6
100
AcDbEntity
  8
OBJECT
100
AcDbCircle
 10
129.5236313817308
 20
85.81525197445484
 30
0.0
 40
0.156
  0
CIRCLE
  5
C4E
330
9C6
100
AcDbEntity
  8
OBJECT
100
AcDbCircle
 10
127.7736313817308
 20
82.81525197445487
 30
0.0
 40
0.156
  0
CIRCLE
  5
C4F
330
9C6
100
AcDbEntity
  8
OBJECT
100
AcDbCircle
 10
129.5236313817308
 20
82.81525197445487
 30
0.0
 40
0.156
  0
LINE
  5
C50
330
9C6
100
AcDbEntity
  8
OBJECT
100
AcDbLine
 10
110.0856313817309
 20
81.56525197445487
 30
0.0
 11
110.0856313817309
 21
81.06525197445487
 31
0.0
  0
LINE
  5
C51
330
9C6
100
AcDbEntity
  8
OBJECT
100
AcDbLine
 10
131.7736313817308
 20
81.56525197445487
 30
0.0
 11
131.7736313817308
 21
81.06525197445487
 31
0.0
  0
LINE
  5
C52
330
9C6
100
AcDbEntity
  8
OBJECT
100
AcDbLine
 10
110.0856313817309
 20
81.56525197445487
 30
0.0
 11
131.7736313817308
 21
81.56525197445487
 31
0.0
  0
LINE
  5
C53
330
9C6
100
AcDbEntity
  8
OBJECT
100
AcDbLine
 10
110.0076313817309
 20
81.06525197445487
 30
0.0
 11
131.8516313817308
 21
81.06525197445487
 31
0.0
  0
ARC
  5
C54
330
9C6
100
AcDbEntity
  8
OBJECT
100
AcDbCircle
 10
125.4761313817308
 20
82.81525197445487
 30
0.0
 40
0.5545
100
AcDbArc
 50
96.41980556739298
 51
263.580194432607
  0
LINE
  5
C55
330
9C6
100
AcDbEntity
  8
OBJECT
100
AcDbLine
 10
125.5381313817309
 20
82.32546718900108
 30
0.0
 11
125.5381313817309
 21
82.18228204383779
 31
0.0
  0
LINE
  5
C56
330
9C6
100
AcDbEntity
  8
OBJECT
100
AcDbLine
 10
125.4141313817308
 20
83.40731050801299
 30
0.0
 11
125.4141313817308
 21
83.44443258268498
 31
0.0
  0
LINE
  5
C57
330
9C6
100
AcDbEntity
  8
OBJECT
100
AcDbLine
 10
125.4141313817308
 20
82.32546718900108
 30
0.0
 11
125.4141313817308
 21
82.18228204383779
 31
0.0
  0
ARC
  5
C58
330
9C6
100
AcDbEntity
  8
OBJECT
100
AcDbCircle
 10
125.4761313817308
 20
82.81525197445487
 30
0.0
 40
0.5545
100
AcDbArc
 50
276.4198055673929
 51
83.58019443260706
  0
LINE
  5
C59
330
9C6
100
AcDbEntity
  8
OBJECT
100
AcDbLine
 10
125.5381313817309
 20
83.40731050801299
 30
0.0
 11
125.5381313817309
 21
83.44443258268498
 31
0.0
  0
LINE
  5
C5A
330
9C6
100
AcDbEntity
  8
OBJECT
100
AcDbLine
 10
125.5381313817309
 20
83.26412536284966
 30
0.0
 11
125.5381313817309
 21
83.40731050801299
 31
0.0
  0
LINE
  5
C5B
330
9C6
100
AcDbEntity
  8
OBJECT
100
AcDbLine
 10
125.4141313817308
 20
83.40731050801299
 30
0.0
 11
125.4141313817308
 21
83.26412536284966
 31
0.0
  0
LINE
  5
C5C
330
9C6
100
AcDbEntity
  8
OBJECT
100
AcDbLine
 10
116.4451313817308
 20
83.40731050801299
 30
0.0
 11
116.4451313817308
 21
83.26412536284966
 31
0.0
  0
LINE
  5
C5D
330
9C6
100
AcDbEntity
  8
OBJECT
100
AcDbLine
 10
116.3211313817308
 20
83.26412536284966
 30
0.0
 11
116.3211313817308
 21
83.40731050801299
 31
0.0
  0
LINE
  5
C5E
330
9C6
100
AcDbEntity
  8
OBJECT
100
AcDbLine
 10
116.3211313817308
 20
83.40731050801299
 30
0.0
 11
116.3211313817308
 21
83.44443258268498
 31
0.0
  0
ARC
  5
C5F
330
9C6
100
AcDbEntity
  8
OBJECT
100
AcDbCircle
 10
116.3831313817307
 20
82.81525197445478
 30
0.0
 40
0.5545
100
AcDbArc
 50
96.41980556739294
 51
263.580194432607
  0
LINE
  5
C60
330
9C6
100
AcDbEntity
  8
OBJECT
100
AcDbLine
 10
116.4451313817308
 20
82.32546718900108
 30
0.0
 11
116.4451313817308
 21
82.18228204383779
 31
0.0
  0
LINE
  5
C61
330
9C6
100
AcDbEntity
  8
OBJECT
100
AcDbLine
 10
116.4451313817308
 20
83.40731050801299
 30
0.0
 11
116.4451313817308
 21
83.44443258268498
 31
0.0
  0
LINE
  5
C62
330
9C6
100
AcDbEntity
  8
OBJECT
100
AcDbLine
 10
116.3211313817308
 20
82.32546718900108
 30
0.0
 11
116.3211313817308
 21
82.18228204383779
 31
0.0
  0
ARC
  5
C63
330
9C6
100
AcDbEntity
  8
OBJECT
100
AcDbCircle
 10
116.3831313817307
 20
82.81525197445478
 30
0.0
 40
0.5545
100
AcDbArc
 50
276.4198055673929
 51
83.58019443260706
  0
LINE
  5
C64
330
9C6
100
AcDbEntity
  8
OBJECT
100
AcDbLine
 10
130.4921313817309
 20
198.3911320733468
 30
0.0
 11
131.9296313817308
 21
198.3911320733468
 31
0.0
  0
LINE
  5
C65
330
9C6
100
AcDbEntity
  8
OBJECT
100
AcDbLine
 10
110.0076313817309
 20
198.4691320733468
 30
0.0
 11
110.0076313817309
 21
223.8131320733468
 31
0.0
  0
LINE
  5
C66
330
9C6
100
AcDbEntity
  8
OBJECT
100
AcDbLine
 10
131.8516313817309
 20
198.4691320733468
 30
0.0
 11
131.8516313817309
 21
223.8131320733468
 31
0.0
  0
LINE
  5
C67
330
9C6
100
AcDbEntity
  8
OBJECT
100
AcDbLine
 10
110.0076313817309
 20
198.4691320733468
 30
0.0
 11
131.8516313817309
 21
198.4691320733468
 31
0.0
  0
LINE
  5
C68
330
9C6
100
AcDbEntity
  8
OBJECT
100
AcDbLine
 10
131.9296313817308
 20
198.3911320733468
 30
0.0
 11
131.9296313817308
 21
199.8591320733469
 31
0.0
  0
LINE
  5
C69
330
9C6
100
AcDbEntity
  8
OBJECT
100
AcDbLine
 10
109.9296313817309
 20
198.3911320733468
 30
0.0
 11
109.9296313817309
 21
199.8591320733468
 31
0.0
  0
LINE
  5
C6A
330
9C6
100
AcDbEntity
  8
OBJECT
100
AcDbLine
 10
109.9296313817309
 20
198.3911320733468
 30
0.0
 11
111.3671313817309
 21
198.3911320733468
 31
0.0
  0
LINE
  5
C6B
330
9C6
100
AcDbEntity
  8
OBJECT
100
AcDbLine
 10
109.9296313817309
 20
223.8911320733468
 30
0.0
 11
111.3671313817309
 21
223.8911320733468
 31
0.0
  0
LINE
  5
C6C
330
9C6
100
AcDbEntity
  8
OBJECT
100
AcDbLine
 10
109.9296313817309
 20
223.8911320733468
 30
0.0
 11
109.9296313817309
 21
222.4231320733468
 31
0.0
  0
LINE
  5
C6D
330
9C6
100
AcDbEntity
  8
OBJECT
100
AcDbLine
 10
131.9296313817308
 20
223.8911320733468
 30
0.0
 11
131.9296313817308
 21
222.4231320733468
 31
0.0
  0
LINE
  5
C6E
330
9C6
100
AcDbEntity
  8
OBJECT
100
AcDbLine
 10
110.0076313817309
 20
223.8131320733468
 30
0.0
 11
131.8516313817309
 21
223.8131320733468
 31
0.0
  0
LINE
  5
C6F
330
9C6
100
AcDbEntity
  8
OBJECT
100
AcDbLine
 10
109.9296313817309
 20
222.4231320733468
 30
0.0
 11
110.0076313817309
 21
222.4231320733468
 31
0.0
  0
LINE
  5
C70
330
9C6
100
AcDbEntity
  8
OBJECT
100
AcDbLine
 10
109.9296313817309
 20
199.8591320733468
 30
0.0
 11
110.0076313817309
 21
199.8591320733468
 31
0.0
  0
LINE
  5
C71
330
9C6
100
AcDbEntity
  8
OBJECT
100
AcDbLine
 10
131.8516313817309
 20
222.4231320733468
 30
0.0
 11
131.9296313817308
 21
222.4231320733468
 31
0.0
  0
LINE
  5
C72
330
9C6
100
AcDbEntity
  8
OBJECT
100
AcDbLine
 10
131.8516313817309
 20
199.8591320733469
 30
0.0
 11
131.9296313817308
 21
199.8591320733469
 31
0.0
  0
LINE
  5
C73
330
9C6
100
AcDbEntity
  8
PMR
100
AcDbLine
 10
129.8986313817309
 20
123.7519835608664
 30
0.0
 11
129.8986313817309
 21
185.0019835608663
 31
0.0
  0
LINE
  5
C74
330
9C6
100
AcDbEntity
  8
PMR
100
AcDbLine
 10
111.9618813817309
 20
185.0019835608663
 30
0.0
 11
111.9618813817309
 21
123.7519835608664
 31
0.0
  0
CIRCLE
  5
C75
330
9C6
100
AcDbEntity
  8
PMR
100
AcDbCircle
 10
130.0861313817309
 20
125.2529835608664
 30
0.0
 40
0.095
  0
CIRCLE
  5
C76
330
9C6
100
AcDbEntity
  8
PMR
100
AcDbCircle
 10
130.0861313817309
 20
124.6279835608664
 30
0.0
 40
0.095
  0
CIRCLE
  5
C77
330
9C6
100
AcDbEntity
  8
PMR
100
AcDbCircle
 10
130.0861313817309
 20
124.0029835608664
 30
0.0
 40
0.095
  0
CIRCLE
  5
C78
330
9C6
100
AcDbEntity
  8
PMR
100
AcDbCircle
 10
111.7741313817308
 20
124.0029835608664
 30
0.0
 40
0.095
  0
CIRCLE
  5
C79
330
9C6
100
AcDbEntity
  8
PMR
100
AcDbCircle
 10
111.7741313817308
 20
124.6279835608664
 30
0.0
 40
0.095
  0
CIRCLE
  5
C7A
330
9C6
100
AcDbEntity
  8
PMR
100
AcDbCircle
 10
111.7741313817308
 20
125.2529835608664
 30
0.0
 40
0.095
  0
LINE
  5
C7B
330
9C6
100
AcDbEntity
  8
HIDDEN
100
AcDbLine
 10
39.86922723463021
 20
124.9719835608664
 30
0.0
 11
39.35422723463023
 21
124.9719835608664
 31
0.0
  0
LINE
  5
C7C
330
9C6
100
AcDbEntity
  8
HIDDEN
100
AcDbLine
 10
39.35422723463023
 20
124.9719835608664
 30
0.0
 11
39.35422723463023
 21
123.7219835608664
 31
0.0
  0
LINE
  5
C7D
330
9C6
100
AcDbEntity
  8
HIDDEN
100
AcDbLine
 10
39.35422723463023
 20
183.7839835608663
 30
0.0
 11
39.35422723463023
 21
185.0339835608663
 31
0.0
  0
LINE
  5
C7E
330
9C6
100
AcDbEntity
  8
HIDDEN
100
AcDbLine
 10
39.86922723463021
 20
183.7839835608663
 30
0.0
 11
39.35422723463023
 21
183.7839835608663
 31
0.0
  0
CIRCLE
  5
C7F
330
9C6
100
AcDbEntity
  8
OBJECT
100
AcDbCircle
 10
86.83753973111254
 20
181.9089835608663
 30
0.0
 40
0.218
  0
TEXT
  5
C80
330
9C6
100
AcDbEntity
  8
TEXT
100
AcDbText
 10
8.145578346061029
 20
220.4990661046539
 30
0.0
 40
1.673999999999999
  1
%%uNOTES:
 41
0.75
  7
TXT
100
AcDbText
  0
TEXT
  5
C81
330
9C6
100
AcDbEntity
  8
TEXT
100
AcDbText
 10
8.145578346061029
 20
217.7135301046539
 30
0.0
 40
1.673999999999999
  1
PANEL MOUNTING RAILS TAPPED #10-32 ON E.I.A. UNIVERSAL
 41
0.75
  7
TXT
100
AcDbText
  0
TEXT
  5
C82
330
9C6
100
AcDbEntity
  8
TEXT
100
AcDbText
 10
8.145578346061029
 20
209.3569221046538
 30
0.0
 40
1.673999999999999
  1
MOUNTING HOLES PIERCED IN BASE FOR #RC-7758 CASTERS.
 41
0.75
  7
TXT
100
AcDbText
  0
TEXT
  5
C83
330
9C6
100
AcDbEntity
  8
TEXT
100
AcDbText
 10
5.552953385063513
 20
217.7135301046539
 30
0.0
 40
1.673999999999999
  1
1
 41
0.75
  7
TXT
 72
     4
 11
5.762203385063513
 21
218.5505301046538
 31
0.0
100
AcDbText
  0
LWPOLYLINE
  5
C84
330
9C6
100
AcDbEntity
  8
TEXT
100
AcDbPolyline
 90
        6
 70
     1
 43
0.0
 10
4.989015904564779
 20
219.8897301046538
 10
4.215828424066046
 20
218.5505301046538
 10
4.989015904564779
 20
217.2113301046538
 10
6.535390865562219
 20
217.2113301046538
 10
7.308578346061011
 20
218.5505301046538
 10
6.535390865562219
 20
219.8897301046538
  0
TEXT
  5
C8C
330
9C6
100
AcDbEntity
  8
TEXT
100
AcDbText
 10
115.7518970067308
 20
195.0118450554014
 30
0.0
 40
1.71875
  1
%%uTOP VIEW
 41
0.75
  7
TXT
 72
     1
 11
120.9296313817308
 21
195.0118450554014
 31
0.0
100
AcDbText
  0
TEXT
  5
C8D
330
9C6
100
AcDbEntity
  8
TEXT
100
AcDbText
 10
114.4628345067308
 20
117.3647170847829
 30
0.0
 40
1.71875
  1
%%uFRONT VIEW
 41
0.75
  7
TXT
 72
     1
 11
120.9296313817308
 21
117.3647170847829
 31
0.0
100
AcDbText
  0
TEXT
  5
C8E
330
9C6
100
AcDbEntity
  8
TEXT
100
AcDbText
 10
70.75313512612821
 20
117.2724720747114
 30
0.0
 40
1.71875
  1
%%uSIDE VIEW
 41
0.75
  7
TXT
 72
     1
 11
76.36055700112821
 21
117.2724720747114
 31
0.0
100
AcDbText
  0
TEXT
  5
C8F
330
9C6
100
AcDbEntity
  8
TEXT
100
AcDbText
 10
24.48346160963012
 20
109.5913605566743
 30
0.0
 40
1.71875
  1
%%uREAR VIEW
 41
0.75
  7
TXT
 72
     1
 11
30.30572723463012
 21
109.5913605566743
 31
0.0
100
AcDbText
  0
TEXT
  5
C90
330
9C6
100
AcDbEntity
  8
TEXT
100
AcDbText
 10
113.8183032567308
 20
69.57916070820309
 30
0.0
 40
1.71875
  1
%%uBOTTOM VIEW
 41
0.75
  7
TXT
 72
     1
 11
120.9296313817308
 21
69.57916070820309
 31
0.0
100
AcDbText
  0
LINE
  5
C91
330
9C6
100
AcDbEntity
  8
OBJECT
100
AcDbLine
 10
111.476131381731
 20
223.8911320733468
 30
0.0
 11
111.476131381731
 21
223.8131320733468
 31
0.0
  0
LINE
  5
C92
330
9C6
100
AcDbEntity
  8
OBJECT
100
AcDbLine
 10
130.4921313817309
 20
223.8911320733468
 30
0.0
 11
131.9296313817308
 21
223.8911320733468
 31
0.0
  0
DIMENSION
  5
C93
330
9C6
100
AcDbEntity
  8
DIM
100
AcDbDimension
  2
*D7
 10
104.5296313817308
 20
101.6592519744548
 30
0.0
 11
98.01869388173079
 21
96.25925197445482
 31
0.0
 70
    32
 71
     5
 42
3.0
  3
23NSTD
100
AcDbAlignedDimension
 13
112.3356313817307
 23
104.6592519744548
 33
0.0
 14
112.3356313817307
 24
101.6592519744548
 34
0.0
 50
270.0
100
AcDbRotatedDimension
  0
DIMENSION
  5
CA1
330
9C6
100
AcDbEntity
  8
DIM
100
AcDbDimension
  2
*D8
 10
100.3146313817308
 20
104.6592519744548
 30
0.0
 11
93.68650638173077
 21
99.25925197445483
 31
0.0
 70
    32
 71
     5
 42
1.828000000000002
  3
23NSTD
100
AcDbAlignedDimension
 13
109.9296313817307
 23
106.4872519744548
 33
0.0
 14
112.3356313817307
 24
104.6592519744548
 34
0.0
 50
270.0
100
AcDbRotatedDimension
  0
LINE
  5
CAF
330
9C6
100
AcDbEntity
  8
OBJECT
100
AcDbLine
 10
131.3516313817308
 20
105.9092519744547
 30
0.0
 11
131.3516313817308
 21
81.56525197445487
 31
0.0
  0
LINE
  5
CB0
330
9C6
100
AcDbEntity
  8
OBJECT
100
AcDbLine
 10
110.5076313817308
 20
105.9092519744547
 30
0.0
 11
110.5076313817308
 21
81.56525197445487
 31
0.0
  0
DIMENSION
  5
CB1
330
9C6
100
AcDbEntity
  8
DIM
100
AcDbDimension
  2
*D9
 10
114.0856313817307
 20
109.1872519744548
 30
0.0
 11
123.2965688817307
 21
109.1872519744548
 31
0.0
 70
    32
 71
     5
 42
1.75
  3
23NSTD
100
AcDbAlignedDimension
 13
112.3356313817307
 23
104.6592519744548
 33
0.0
 14
114.0856313817307
 24
104.6592519744548
 34
0.0
100
AcDbRotatedDimension
  0
DIMENSION
  5
CBF
330
9C6
100
AcDbEntity
  8
DIM
100
AcDbDimension
  2
*D10
 10
112.3356313817307
 20
113.4022519744547
 30
0.0
 11
121.7809438817307
 21
113.4022519744547
 31
0.0
 70
    32
 71
     5
 42
2.40599999999992
  3
23NSTD
100
AcDbAlignedDimension
 13
109.9296313817307
 23
106.4872519744548
 33
0.0
 14
112.3356313817307
 24
104.6592519744548
 34
0.0
100
AcDbRotatedDimension
  0
LWPOLYLINE
  5
CCD
330
9C6
100
AcDbEntity
  8
DIM
100
AcDbPolyline
 90
        4
 70
     0
 10
116.1491313817308
 20
93.73725197445484
 40
0.0
 41
1.0125016874973
 10
113.8047403850844
 20
92.39790319432891
 40
0.0
 41
0.0
 10
106.1814520330409
 20
88.37543005345299
 40
0.0
 41
0.0
 10
104.3064489080459
 20
88.37543005345299
 40
0.0
 41
0.0
  0
TEXT
  5
CD3
330
9C6
100
AcDbEntity
  8
DIM
100
AcDbText
 10
87.32495613369271
 20
87.4379284909555
 30
0.0
 40
1.875003124995
  1
9.561 x 9.561
 41
0.75
  7
TXT
 72
     2
 11
102.3249811336527
 21
87.4379284909555
 31
0.0
100
AcDbText
  0
DIMENSION
  5
CD4
330
9C6
100
AcDbEntity
  8
DIM
100
AcDbDimension
  2
*D11
 10
130.4921313817309
 20
170.8332811864538
 30
0.0
 11
120.9296313817309
 21
170.8332811864538
 31
0.0
 70
    32
  1
<> %%p0.031
 71
     5
 42
19.1249999999999
  3
23NSTD
100
AcDbAlignedDimension
 13
111.3671313817309
 23
170.8332811864538
 33
0.0
 14
130.4921313817309
 24
170.8332811864538
 34
0.0
100
AcDbRotatedDimension
  0
DIMENSION
  5
CE2
330
9C6
100
AcDbEntity
  8
DIM
100
AcDbDimension
  2
*D12
 10
130.0861313817309
 20
175.0210445787488
 30
0.0
 11
120.9301313817308
 21
175.0210445787488
 31
0.0
 70
    32
  1
<> %%p0.062
 71
     5
 42
18.31199999999999
  3
23NSTD
100
AcDbAlignedDimension
 13
111.7741313817308
 23
175.0210445787488
 33
0.0
 14
130.0861313817309
 24
175.0210445787488
 34
0.0
100
AcDbRotatedDimension
  0
DIMENSION
  5
CF0
330
9C6
100
AcDbEntity
  8
DIM
100
AcDbDimension
  2
*D13
 10
129.8986313817308
 20
179.039326301577
 30
0.0
 11
120.9302563817308
 21
179.039326301577
 31
0.0
 70
    32
  1
<> %%p0.093
 71
     5
 42
17.93675
  3
23NSTD
100
AcDbAlignedDimension
 13
111.9618813817307
 23
179.039326301577
 33
0.0
 14
129.8986313817308
 24
179.039326301577
 34
0.0
100
AcDbRotatedDimension
  0
DIMENSION
  5
CFE
330
9C6
100
AcDbEntity
  8
DIM
100
AcDbDimension
  2
*D14
 10
131.9296313817308
 20
191.7539835608664
 30
0.0
 11
120.9296313817308
 21
191.7539835608664
 31
0.0
 70
    32
  1
<> %%p0.062
 71
     5
 42
21.99999999999991
  3
23NSTD
100
AcDbAlignedDimension
 13
109.9296313817309
 23
187.6589835608664
 33
0.0
 14
131.9296313817308
 24
187.6589835608664
 34
0.0
100
AcDbRotatedDimension
  0
DIMENSION
  5
D0C
330
9C6
100
AcDbEntity
  8
DIM
100
AcDbDimension
  2
*D15
 10
100.3146313817308
 20
185.0339835608663
 30
0.0
 11
100.3146313817307
 21
154.3779835608664
 31
0.0
 70
    32
  1
A
 71
     5
 42
61.31199999999998
  3
23NSTD
100
AcDbAlignedDimension
 13
111.3671313817309
 23
123.7219835608664
 33
0.0
 14
111.3671313817309
 24
185.0339835608663
 34
0.0
 50
90.0
100
AcDbRotatedDimension
  0
DIMENSION
  5
D1A
330
9C6
100
AcDbEntity
  8
DIM
100
AcDbDimension
  2
*D16
 10
100.3146313817308
 20
187.6589835608664
 30
0.0
 11
100.3146313817307
 21
186.3464835608664
 31
0.0
 70
   160
 71
     5
 42
2.625
  3
23NSTD
100
AcDbAlignedDimension
 13
111.3671313817309
 23
185.0339835608663
 33
0.0
 14
109.9296313817309
 24
187.6589835608664
 34
0.0
 50
90.0
100
AcDbRotatedDimension
  0
DIMENSION
  5
D28
330
9C6
100
AcDbEntity
  8
DIM
100
AcDbDimension
  2
*D17
 10
137.3296313817307
 20
187.6589835608664
 30
0.0
 11
137.3296313817307
 21
154.3779835608664
 31
0.0
 70
    32
  1
B
 71
     5
 42
66.56199999999998
  3
23NSTD
100
AcDbAlignedDimension
 13
131.9296313817308
 23
121.0969835608664
 33
0.0
 14
131.9296313817308
 24
187.6589835608664
 34
0.0
 50
90.0
100
AcDbRotatedDimension
  0
DIMENSION
  5
D36
330
9C6
100
AcDbEntity
  8
DIM
100
AcDbDimension
  2
*D18
 10
88.58753973111252
 20
140.6124835608664
 30
0.0
 11
76.58753973111256
 21
140.6124835608664
 31
0.0
 70
    32
  1
D
 71
     5
 42
23.99999999999991
  3
23NSTD
100
AcDbAlignedDimension
 13
64.5875397311126
 23
140.6124835608664
 33
0.0
 14
88.58753973111252
 24
140.6124835608664
 34
0.0
100
AcDbRotatedDimension
  0
DIMENSION
  5
D44
330
9C6
100
AcDbEntity
  8
DIM
100
AcDbDimension
  2
*D19
 10
56.78653973111261
 20
183.2839835608664
 30
0.0
 11
56.78653973111257
 21
169.5184835608664
 31
0.0
 70
    32
  1
E
 71
     5
 42
27.53099999999998
  3
23NSTD
100
AcDbAlignedDimension
 13
65.21278973111254
 23
155.7529835608664
 33
0.0
 14
65.21278973111259
 24
183.2839835608664
 34
0.0
 50
90.0
100
AcDbRotatedDimension
  0
DIMENSION
  5
D52
330
9C6
100
AcDbEntity
  8
DIM
100
AcDbDimension
  2
*D20
 10
50.36465191772101
 20
121.0969835608665
 30
0.0
 11
50.364651917721
 21
123.2844835608665
 31
0.0
 70
   160
 71
     5
 42
4.375
  3
23NSTD
100
AcDbAlignedDimension
 13
65.21278973111259
 23
125.4719835608665
 33
0.0
 14
63.83753973111261
 24
121.0969835608665
 34
0.0
 50
90.0
100
AcDbRotatedDimension
  0
DIMENSION
  5
D60
330
9C6
100
AcDbEntity
  8
DIM
100
AcDbDimension
  2
*D21
 10
100.3146313817308
 20
121.0969835608664
 30
0.0
 11
93.45213138173077
 21
115.6969835608664
 31
0.0
 70
    32
 71
     5
 42
2.625
  3
23NSTD
100
AcDbAlignedDimension
 13
111.3671313817309
 23
123.7219835608664
 33
0.0
 14
109.9296313817309
 24
121.0969835608664
 34
0.0
 50
90.0
100
AcDbRotatedDimension
  0
DIMENSION
  5
D6E
330
9C6
100
AcDbEntity
  8
DIM
100
AcDbDimension
  2
*D22
 10
125.4761313817308
 20
78.17175756848843
 30
0.0
 11
121.0654484030759
 21
78.17175756848843
 31
0.0
 70
   160
 71
     5
 42
9.09299999999996
  3
23NSTD
100
AcDbAlignedDimension
 13
116.3831313817309
 23
82.81525197445487
 33
0.0
 14
125.4761313817308
 24
82.81525197445487
 34
0.0
100
AcDbRotatedDimension
  0
DIMENSION
  5
D7B
330
9C6
100
AcDbEntity
  8
DIM
100
AcDbDimension
  2
*D23
 10
131.9296313817309
 20
74.0577563880409
 30
0.0
 11
115.9136313817308
 21
74.0577563880409
 31
0.0
 70
   160
 71
     5
 42
6.453500000000019
  3
23NSTD
100
AcDbAlignedDimension
 13
125.4761313817308
 23
82.81525197445487
 33
0.0
 14
131.9296313817309
 24
81.50325197445491
 34
0.0
100
AcDbRotatedDimension
  0
LWPOLYLINE
  5
D89
330
9C6
100
AcDbEntity
  8
DIM
100
AcDbPolyline
 90
        4
 70
     0
 10
115.8917367807146
 20
82.55834421651014
 40
0.0
 41
1.012499999999999
 10
113.6558697854634
 20
81.04477268547929
 40
0.0
 41
0.0
 10
108.3922226062961
 20
77.48154350561304
 40
0.0
 41
0.0
 10
106.5172194813012
 20
77.48154350561304
 40
0.0
 41
0.0
  0
TEXT
  5
D8F
330
9C6
100
AcDbEntity
  8
DIM
100
AcDbText
 10
94.56407455945809
 20
76.54404194311554
 30
0.0
 40
1.875003124995
  1
1.109 DIA.
 41
0.75
  7
TXT
 72
     2
 11
104.6422163563062
 21
76.54404194311554
 31
0.0
100
AcDbText
  0
TEXT
  5
D90
330
9C6
100
AcDbEntity
  8
DIM
100
AcDbText
 10
93.86094838758495
 20
73.41903673479058
 30
0.0
 40
1.875003124995
  1
KNOCKOUT
 41
0.75
  7
TXT
 72
     2
 11
104.6422163563062
 21
73.41903673479058
 31
0.0
100
AcDbText
  0
TEXT
  5
D91
330
9C6
100
AcDbEntity
  8
DIM
100
AcDbText
 10
91.98594526258997
 20
70.29403152646555
 30
0.0
 40
1.875003124995
  1
(4) PLACES
 41
0.75
  7
TXT
 72
     2
 11
104.6422163563062
 21
70.29403152646555
 31
0.0
100
AcDbText
  0
CIRCLE
  5
D92
330
9C6
100
AcDbEntity
  8
PMR
100
AcDbCircle
 10
111.7741313817308
 20
126.3779835608664
 30
0.0
 40
0.095
  0
CIRCLE
  5
D93
330
9C6
100
AcDbEntity
  8
PMR
100
AcDbCircle
 10
111.7741313817308
 20
127.0029835608664
 30
0.0
 40
0.095
  0
CIRCLE
  5
D94
330
9C6
100
AcDbEntity
  8
PMR
100
AcDbCircle
 10
111.7741313817308
 20
125.7529835608664
 30
0.0
 40
0.095
  0
CIRCLE
  5
D95
330
9C6
100
AcDbEntity
  8
PMR
100
AcDbCircle
 10
130.0861313817309
 20
127.0029835608664
 30
0.0
 40
0.095
  0
CIRCLE
  5
D96
330
9C6
100
AcDbEntity
  8
PMR
100
AcDbCircle
 10
130.0861313817309
 20
126.3779835608664
 30
0.0
 40
0.095
  0
CIRCLE
  5
D97
330
9C6
100
AcDbEntity
  8
PMR
100
AcDbCircle
 10
130.0861313817309
 20
125.7529835608664
 30
0.0
 40
0.095
  0
CIRCLE
  5
D98
330
9C6
100
AcDbEntity
  8
PMR
100
AcDbCircle
 10
111.7741313817308
 20
128.1279835608664
 30
0.0
 40
0.095
  0
CIRCLE
  5
D99
330
9C6
100
AcDbEntity
  8
PMR
100
AcDbCircle
 10
111.7741313817308
 20
128.7529835608664
 30
0.0
 40
0.095
  0
CIRCLE
  5
D9A
330
9C6
100
AcDbEntity
  8
PMR
100
AcDbCircle
 10
111.7741313817308
 20
127.5029835608664
 30
0.0
 40
0.095
  0
CIRCLE
  5
D9B
330
9C6
100
AcDbEntity
  8
PMR
100
AcDbCircle
 10
130.0861313817309
 20
128.7529835608664
 30
0.0
 40
0.095
  0
CIRCLE
  5
D9C
330
9C6
100
AcDbEntity
  8
PMR
100
AcDbCircle
 10
130.0861313817309
 20
128.1279835608664
 30
0.0
 40
0.095
  0
CIRCLE
  5
D9D
330
9C6
100
AcDbEntity
  8
PMR
100
AcDbCircle
 10
130.0861313817309
 20
127.5029835608664
 30
0.0
 40
0.095
  0
CIRCLE
  5
D9E
330
9C6
100
AcDbEntity
  8
PMR
100
AcDbCircle
 10
111.7741313817308
 20
129.8779835608664
 30
0.0
 40
0.095
  0
CIRCLE
  5
D9F
330
9C6
100
AcDbEntity
  8
PMR
100
AcDbCircle
 10
111.7741313817308
 20
130.5029835608664
 30
0.0
 40
0.095
  0
CIRCLE
  5
DA0
330
9C6
100
AcDbEntity
  8
PMR
100
AcDbCircle
 10
111.7741313817308
 20
129.2529835608664
 30
0.0
 40
0.095
  0
CIRCLE
  5
DA1
330
9C6
100
AcDbEntity
  8
PMR
100
AcDbCircle
 10
130.0861313817309
 20
130.5029835608664
 30
0.0
 40
0.095
  0
CIRCLE
  5
DA2
330
9C6
100
AcDbEntity
  8
PMR
100
AcDbCircle
 10
130.0861313817309
 20
129.8779835608664
 30
0.0
 40
0.095
  0
CIRCLE
  5
DA3
330
9C6
100
AcDbEntity
  8
PMR
100
AcDbCircle
 10
130.0861313817309
 20
129.2529835608664
 30
0.0
 40
0.095
  0
CIRCLE
  5
DA4
330
9C6
100
AcDbEntity
  8
PMR
100
AcDbCircle
 10
111.7741313817308
 20
131.6279835608664
 30
0.0
 40
0.095
  0
CIRCLE
  5
DA5
330
9C6
100
AcDbEntity
  8
PMR
100
AcDbCircle
 10
111.7741313817308
 20
132.2529835608664
 30
0.0
 40
0.095
  0
CIRCLE
  5
DA6
330
9C6
100
AcDbEntity
  8
PMR
100
AcDbCircle
 10
111.7741313817308
 20
131.0029835608664
 30
0.0
 40
0.095
  0
CIRCLE
  5
DA7
330
9C6
100
AcDbEntity
  8
PMR
100
AcDbCircle
 10
130.0861313817309
 20
132.2529835608664
 30
0.0
 40
0.095
  0
CIRCLE
  5
DA8
330
9C6
100
AcDbEntity
  8
PMR
100
AcDbCircle
 10
130.0861313817309
 20
131.6279835608664
 30
0.0
 40
0.095
  0
CIRCLE
  5
DA9
330
9C6
100
AcDbEntity
  8
PMR
100
AcDbCircle
 10
130.0861313817309
 20
131.0029835608664
 30
0.0
 40
0.095
  0
CIRCLE
  5
DAA
330
9C6
100
AcDbEntity
  8
PMR
100
AcDbCircle
 10
111.7741313817308
 20
133.3779835608664
 30
0.0
 40
0.095
  0
CIRCLE
  5
DAB
330
9C6
100
AcDbEntity
  8
PMR
100
AcDbCircle
 10
111.7741313817308
 20
134.0029835608664
 30
0.0
 40
0.095
  0
CIRCLE
  5
DAC
330
9C6
100
AcDbEntity
  8
PMR
100
AcDbCircle
 10
111.7741313817308
 20
132.7529835608664
 30
0.0
 40
0.095
  0
CIRCLE
  5
DAD
330
9C6
100
AcDbEntity
  8
PMR
100
AcDbCircle
 10
130.0861313817309
 20
134.0029835608664
 30
0.0
 40
0.095
  0
CIRCLE
  5
DAE
330
9C6
100
AcDbEntity
  8
PMR
100
AcDbCircle
 10
130.0861313817309
 20
133.3779835608664
 30
0.0
 40
0.095
  0
CIRCLE
  5
DAF
330
9C6
100
AcDbEntity
  8
PMR
100
AcDbCircle
 10
130.0861313817309
 20
132.7529835608664
 30
0.0
 40
0.095
  0
CIRCLE
  5
DB0
330
9C6
100
AcDbEntity
  8
PMR
100
AcDbCircle
 10
111.7741313817308
 20
135.1279835608664
 30
0.0
 40
0.095
  0
CIRCLE
  5
DB1
330
9C6
100
AcDbEntity
  8
PMR
100
AcDbCircle
 10
111.7741313817308
 20
135.7529835608664
 30
0.0
 40
0.095
  0
CIRCLE
  5
DB2
330
9C6
100
AcDbEntity
  8
PMR
100
AcDbCircle
 10
111.7741313817308
 20
134.5029835608664
 30
0.0
 40
0.095
  0
CIRCLE
  5
DB3
330
9C6
100
AcDbEntity
  8
PMR
100
AcDbCircle
 10
130.0861313817309
 20
135.7529835608664
 30
0.0
 40
0.095
  0
CIRCLE
  5
DB4
330
9C6
100
AcDbEntity
  8
PMR
100
AcDbCircle
 10
130.0861313817309
 20
135.1279835608664
 30
0.0
 40
0.095
  0
CIRCLE
  5
DB5
330
9C6
100
AcDbEntity
  8
PMR
100
AcDbCircle
 10
130.0861313817309
 20
134.5029835608664
 30
0.0
 40
0.095
  0
CIRCLE
  5
DB6
330
9C6
100
AcDbEntity
  8
PMR
100
AcDbCircle
 10
111.7741313817308
 20
136.8779835608664
 30
0.0
 40
0.095
  0
CIRCLE
  5
DB7
330
9C6
100
AcDbEntity
  8
PMR
100
AcDbCircle
 10
111.7741313817308
 20
137.5029835608664
 30
0.0
 40
0.095
  0
CIRCLE
  5
DB8
330
9C6
100
AcDbEntity
  8
PMR
100
AcDbCircle
 10
111.7741313817308
 20
136.2529835608664
 30
0.0
 40
0.095
  0
CIRCLE
  5
DB9
330
9C6
100
AcDbEntity
  8
PMR
100
AcDbCircle
 10
130.0861313817309
 20
137.5029835608664
 30
0.0
 40
0.095
  0
CIRCLE
  5
DBA
330
9C6
100
AcDbEntity
  8
PMR
100
AcDbCircle
 10
130.0861313817309
 20
136.8779835608664
 30
0.0
 40
0.095
  0
CIRCLE
  5
DBB
330
9C6
100
AcDbEntity
  8
PMR
100
AcDbCircle
 10
130.0861313817309
 20
136.2529835608664
 30
0.0
 40
0.095
  0
CIRCLE
  5
DBC
330
9C6
100
AcDbEntity
  8
PMR
100
AcDbCircle
 10
111.7741313817308
 20
138.6279835608664
 30
0.0
 40
0.095
  0
CIRCLE
  5
DBD
330
9C6
100
AcDbEntity
  8
PMR
100
AcDbCircle
 10
111.7741313817308
 20
139.2529835608664
 30
0.0
 40
0.095
  0
CIRCLE
  5
DBE
330
9C6
100
AcDbEntity
  8
PMR
100
AcDbCircle
 10
111.7741313817308
 20
138.0029835608664
 30
0.0
 40
0.095
  0
CIRCLE
  5
DBF
330
9C6
100
AcDbEntity
  8
PMR
100
AcDbCircle
 10
130.0861313817309
 20
139.2529835608664
 30
0.0
 40
0.095
  0
CIRCLE
  5
DC0
330
9C6
100
AcDbEntity
  8
PMR
100
AcDbCircle
 10
130.0861313817309
 20
138.6279835608664
 30
0.0
 40
0.095
  0
CIRCLE
  5
DC1
330
9C6
100
AcDbEntity
  8
PMR
100
AcDbCircle
 10
130.0861313817309
 20
138.0029835608664
 30
0.0
 40
0.095
  0
CIRCLE
  5
DC2
330
9C6
100
AcDbEntity
  8
PMR
100
AcDbCircle
 10
111.7741313817308
 20
140.3779835608664
 30
0.0
 40
0.095
  0
CIRCLE
  5
DC3
330
9C6
100
AcDbEntity
  8
PMR
100
AcDbCircle
 10
111.7741313817308
 20
141.0029835608664
 30
0.0
 40
0.095
  0
CIRCLE
  5
DC4
330
9C6
100
AcDbEntity
  8
PMR
100
AcDbCircle
 10
111.7741313817308
 20
139.7529835608664
 30
0.0
 40
0.095
  0
CIRCLE
  5
DC5
330
9C6
100
AcDbEntity
  8
PMR
100
AcDbCircle
 10
130.0861313817309
 20
141.0029835608664
 30
0.0
 40
0.095
  0
CIRCLE
  5
DC6
330
9C6
100
AcDbEntity
  8
PMR
100
AcDbCircle
 10
130.0861313817309
 20
140.3779835608664
 30
0.0
 40
0.095
  0
CIRCLE
  5
DC7
330
9C6
100
AcDbEntity
  8
PMR
100
AcDbCircle
 10
130.0861313817309
 20
139.7529835608664
 30
0.0
 40
0.095
  0
CIRCLE
  5
DC8
330
9C6
100
AcDbEntity
  8
PMR
100
AcDbCircle
 10
111.7741313817308
 20
142.1279835608664
 30
0.0
 40
0.095
  0
CIRCLE
  5
DC9
330
9C6
100
AcDbEntity
  8
PMR
100
AcDbCircle
 10
111.7741313817308
 20
142.7529835608664
 30
0.0
 40
0.095
  0
CIRCLE
  5
DCA
330
9C6
100
AcDbEntity
  8
PMR
100
AcDbCircle
 10
111.7741313817308
 20
141.5029835608664
 30
0.0
 40
0.095
  0
CIRCLE
  5
DCB
330
9C6
100
AcDbEntity
  8
PMR
100
AcDbCircle
 10
130.0861313817309
 20
142.7529835608664
 30
0.0
 40
0.095
  0
CIRCLE
  5
DCC
330
9C6
100
AcDbEntity
  8
PMR
100
AcDbCircle
 10
130.0861313817309
 20
142.1279835608664
 30
0.0
 40
0.095
  0
CIRCLE
  5
DCD
330
9C6
100
AcDbEntity
  8
PMR
100
AcDbCircle
 10
130.0861313817309
 20
141.5029835608664
 30
0.0
 40
0.095
  0
CIRCLE
  5
DCE
330
9C6
100
AcDbEntity
  8
PMR
100
AcDbCircle
 10
111.7741313817308
 20
143.8779835608665
 30
0.0
 40
0.095
  0
CIRCLE
  5
DCF
330
9C6
100
AcDbEntity
  8
PMR
100
AcDbCircle
 10
111.7741313817308
 20
144.5029835608664
 30
0.0
 40
0.095
  0
CIRCLE
  5
DD0
330
9C6
100
AcDbEntity
  8
PMR
100
AcDbCircle
 10
111.7741313817308
 20
143.2529835608664
 30
0.0
 40
0.095
  0
CIRCLE
  5
DD1
330
9C6
100
AcDbEntity
  8
PMR
100
AcDbCircle
 10
130.0861313817309
 20
144.5029835608664
 30
0.0
 40
0.095
  0
CIRCLE
  5
DD2
330
9C6
100
AcDbEntity
  8
PMR
100
AcDbCircle
 10
130.0861313817309
 20
143.8779835608665
 30
0.0
 40
0.095
  0
CIRCLE
  5
DD3
330
9C6
100
AcDbEntity
  8
PMR
100
AcDbCircle
 10
130.0861313817309
 20
143.2529835608664
 30
0.0
 40
0.095
  0
CIRCLE
  5
DD4
330
9C6
100
AcDbEntity
  8
PMR
100
AcDbCircle
 10
111.7741313817308
 20
145.6279835608664
 30
0.0
 40
0.095
  0
CIRCLE
  5
DD5
330
9C6
100
AcDbEntity
  8
PMR
100
AcDbCircle
 10
111.7741313817308
 20
146.2529835608664
 30
0.0
 40
0.095
  0
CIRCLE
  5
DD6
330
9C6
100
AcDbEntity
  8
PMR
100
AcDbCircle
 10
111.7741313817308
 20
145.0029835608664
 30
0.0
 40
0.095
  0
CIRCLE
  5
DD7
330
9C6
100
AcDbEntity
  8
PMR
100
AcDbCircle
 10
130.0861313817309
 20
146.2529835608664
 30
0.0
 40
0.095
  0
CIRCLE
  5
DD8
330
9C6
100
AcDbEntity
  8
PMR
100
AcDbCircle
 10
130.0861313817309
 20
145.6279835608664
 30
0.0
 40
0.095
  0
CIRCLE
  5
DD9
330
9C6
100
AcDbEntity
  8
PMR
100
AcDbCircle
 10
130.0861313817309
 20
145.0029835608664
 30
0.0
 40
0.095
  0
CIRCLE
  5
DDA
330
9C6
100
AcDbEntity
  8
PMR
100
AcDbCircle
 10
111.7741313817308
 20
147.3779835608664
 30
0.0
 40
0.095
  0
CIRCLE
  5
DDB
330
9C6
100
AcDbEntity
  8
PMR
100
AcDbCircle
 10
111.7741313817308
 20
148.0029835608664
 30
0.0
 40
0.095
  0
CIRCLE
  5
DDC
330
9C6
100
AcDbEntity
  8
PMR
100
AcDbCircle
 10
111.7741313817308
 20
146.7529835608664
 30
0.0
 40
0.095
  0
CIRCLE
  5
DDD
330
9C6
100
AcDbEntity
  8
PMR
100
AcDbCircle
 10
130.0861313817309
 20
148.0029835608664
 30
0.0
 40
0.095
  0
CIRCLE
  5
DDE
330
9C6
100
AcDbEntity
  8
PMR
100
AcDbCircle
 10
130.0861313817309
 20
147.3779835608664
 30
0.0
 40
0.095
  0
CIRCLE
  5
DDF
330
9C6
100
AcDbEntity
  8
PMR
100
AcDbCircle
 10
130.0861313817309
 20
146.7529835608664
 30
0.0
 40
0.095
  0
CIRCLE
  5
DE0
330
9C6
100
AcDbEntity
  8
PMR
100
AcDbCircle
 10
111.7741313817308
 20
149.1279835608664
 30
0.0
 40
0.095
  0
CIRCLE
  5
DE1
330
9C6
100
AcDbEntity
  8
PMR
100
AcDbCircle
 10
111.7741313817308
 20
149.7529835608664
 30
0.0
 40
0.095
  0
CIRCLE
  5
DE2
330
9C6
100
AcDbEntity
  8
PMR
100
AcDbCircle
 10
111.7741313817308
 20
148.5029835608664
 30
0.0
 40
0.095
  0
CIRCLE
  5
DE3
330
9C6
100
AcDbEntity
  8
PMR
100
AcDbCircle
 10
130.0861313817309
 20
149.7529835608664
 30
0.0
 40
0.095
  0
CIRCLE
  5
DE4
330
9C6
100
AcDbEntity
  8
PMR
100
AcDbCircle
 10
130.0861313817309
 20
149.1279835608664
 30
0.0
 40
0.095
  0
CIRCLE
  5
DE5
330
9C6
100
AcDbEntity
  8
PMR
100
AcDbCircle
 10
130.0861313817309
 20
148.5029835608664
 30
0.0
 40
0.095
  0
CIRCLE
  5
DE6
330
9C6
100
AcDbEntity
  8
PMR
100
AcDbCircle
 10
111.7741313817308
 20
170.1279835608664
 30
0.0
 40
0.095
  0
CIRCLE
  5
DE7
330
9C6
100
AcDbEntity
  8
PMR
100
AcDbCircle
 10
111.7741313817308
 20
170.7529835608664
 30
0.0
 40
0.095
  0
CIRCLE
  5
DE8
330
9C6
100
AcDbEntity
  8
PMR
100
AcDbCircle
 10
111.7741313817308
 20
150.2529835608664
 30
0.0
 40
0.095
  0
CIRCLE
  5
DE9
330
9C6
100
AcDbEntity
  8
PMR
100
AcDbCircle
 10
130.0861313817309
 20
170.7529835608664
 30
0.0
 40
0.095
  0
CIRCLE
  5
DEA
330
9C6
100
AcDbEntity
  8
PMR
100
AcDbCircle
 10
130.0861313817309
 20
170.1279835608664
 30
0.0
 40
0.095
  0
CIRCLE
  5
DEB
330
9C6
100
AcDbEntity
  8
PMR
100
AcDbCircle
 10
130.0861313817309
 20
150.2529835608664
 30
0.0
 40
0.095
  0
CIRCLE
  5
DEC
330
9C6
100
AcDbEntity
  8
PMR
100
AcDbCircle
 10
111.7741313817308
 20
171.8779835608664
 30
0.0
 40
0.095
  0
CIRCLE
  5
DED
330
9C6
100
AcDbEntity
  8
PMR
100
AcDbCircle
 10
111.7741313817308
 20
172.5029835608664
 30
0.0
 40
0.095
  0
CIRCLE
  5
DEE
330
9C6
100
AcDbEntity
  8
PMR
100
AcDbCircle
 10
111.7741313817308
 20
171.2529835608664
 30
0.0
 40
0.095
  0
CIRCLE
  5
DEF
330
9C6
100
AcDbEntity
  8
PMR
100
AcDbCircle
 10
130.0861313817309
 20
172.5029835608664
 30
0.0
 40
0.095
  0
CIRCLE
  5
DF0
330
9C6
100
AcDbEntity
  8
PMR
100
AcDbCircle
 10
130.0861313817309
 20
171.8779835608664
 30
0.0
 40
0.095
  0
CIRCLE
  5
DF1
330
9C6
100
AcDbEntity
  8
PMR
100
AcDbCircle
 10
130.0861313817309
 20
171.2529835608664
 30
0.0
 40
0.095
  0
CIRCLE
  5
DF2
330
9C6
100
AcDbEntity
  8
PMR
100
AcDbCircle
 10
111.7741313817308
 20
173.6279835608663
 30
0.0
 40
0.095
  0
CIRCLE
  5
DF3
330
9C6
100
AcDbEntity
  8
PMR
100
AcDbCircle
 10
111.7741313817308
 20
174.2529835608664
 30
0.0
 40
0.095
  0
CIRCLE
  5
DF4
330
9C6
100
AcDbEntity
  8
PMR
100
AcDbCircle
 10
111.7741313817308
 20
173.0029835608664
 30
0.0
 40
0.095
  0
CIRCLE
  5
DF5
330
9C6
100
AcDbEntity
  8
PMR
100
AcDbCircle
 10
130.0861313817309
 20
174.2529835608664
 30
0.0
 40
0.095
  0
CIRCLE
  5
DF6
330
9C6
100
AcDbEntity
  8
PMR
100
AcDbCircle
 10
130.0861313817309
 20
173.6279835608663
 30
0.0
 40
0.095
  0
CIRCLE
  5
DF7
330
9C6
100
AcDbEntity
  8
PMR
100
AcDbCircle
 10
130.0861313817309
 20
173.0029835608664
 30
0.0
 40
0.095
  0
CIRCLE
  5
DF8
330
9C6
100
AcDbEntity
  8
PMR
100
AcDbCircle
 10
111.7741313817308
 20
175.3779835608663
 30
0.0
 40
0.095
  0
CIRCLE
  5
DF9
330
9C6
100
AcDbEntity
  8
PMR
100
AcDbCircle
 10
111.7741313817308
 20
176.0029835608664
 30
0.0
 40
0.095
  0
CIRCLE
  5
DFA
330
9C6
100
AcDbEntity
  8
PMR
100
AcDbCircle
 10
111.7741313817308
 20
174.7529835608663
 30
0.0
 40
0.095
  0
CIRCLE
  5
DFB
330
9C6
100
AcDbEntity
  8
PMR
100
AcDbCircle
 10
130.0861313817309
 20
176.0029835608664
 30
0.0
 40
0.095
  0
CIRCLE
  5
DFC
330
9C6
100
AcDbEntity
  8
PMR
100
AcDbCircle
 10
130.0861313817309
 20
175.3779835608663
 30
0.0
 40
0.095
  0
CIRCLE
  5
DFD
330
9C6
100
AcDbEntity
  8
PMR
100
AcDbCircle
 10
130.0861313817309
 20
174.7529835608663
 30
0.0
 40
0.095
  0
CIRCLE
  5
DFE
330
9C6
100
AcDbEntity
  8
PMR
100
AcDbCircle
 10
111.7741313817308
 20
177.1279835608664
 30
0.0
 40
0.095
  0
CIRCLE
  5
DFF
330
9C6
100
AcDbEntity
  8
PMR
100
AcDbCircle
 10
111.7741313817308
 20
177.7529835608663
 30
0.0
 40
0.095
  0
CIRCLE
  5
E00
330
9C6
100
AcDbEntity
  8
PMR
100
AcDbCircle
 10
111.7741313817308
 20
176.5029835608664
 30
0.0
 40
0.095
  0
CIRCLE
  5
E01
330
9C6
100
AcDbEntity
  8
PMR
100
AcDbCircle
 10
130.0861313817309
 20
177.7529835608663
 30
0.0
 40
0.095
  0
CIRCLE
  5
E02
330
9C6
100
AcDbEntity
  8
PMR
100
AcDbCircle
 10
130.0861313817309
 20
177.1279835608664
 30
0.0
 40
0.095
  0
CIRCLE
  5
E03
330
9C6
100
AcDbEntity
  8
PMR
100
AcDbCircle
 10
130.0861313817309
 20
176.5029835608664
 30
0.0
 40
0.095
  0
CIRCLE
  5
E04
330
9C6
100
AcDbEntity
  8
PMR
100
AcDbCircle
 10
111.7741313817308
 20
178.8779835608663
 30
0.0
 40
0.095
  0
CIRCLE
  5
E05
330
9C6
100
AcDbEntity
  8
PMR
100
AcDbCircle
 10
111.7741313817308
 20
179.5029835608664
 30
0.0
 40
0.095
  0
CIRCLE
  5
E06
330
9C6
100
AcDbEntity
  8
PMR
100
AcDbCircle
 10
111.7741313817308
 20
178.2529835608665
 30
0.0
 40
0.095
  0
CIRCLE
  5
E07
330
9C6
100
AcDbEntity
  8
PMR
100
AcDbCircle
 10
130.0861313817309
 20
179.5029835608664
 30
0.0
 40
0.095
  0
CIRCLE
  5
E08
330
9C6
100
AcDbEntity
  8
PMR
100
AcDbCircle
 10
130.0861313817309
 20
178.8779835608663
 30
0.0
 40
0.095
  0
CIRCLE
  5
E09
330
9C6
100
AcDbEntity
  8
PMR
100
AcDbCircle
 10
130.0861313817309
 20
178.2529835608665
 30
0.0
 40
0.095
  0
CIRCLE
  5
E0A
330
9C6
100
AcDbEntity
  8
PMR
100
AcDbCircle
 10
111.7741313817308
 20
180.6279835608664
 30
0.0
 40
0.095
  0
CIRCLE
  5
E0B
330
9C6
100
AcDbEntity
  8
PMR
100
AcDbCircle
 10
111.7741313817308
 20
181.2529835608664
 30
0.0
 40
0.095
  0
CIRCLE
  5
E0C
330
9C6
100
AcDbEntity
  8
PMR
100
AcDbCircle
 10
111.7741313817308
 20
180.0029835608663
 30
0.0
 40
0.095
  0
CIRCLE
  5
E0D
330
9C6
100
AcDbEntity
  8
PMR
100
AcDbCircle
 10
130.0861313817309
 20
181.2529835608664
 30
0.0
 40
0.095
  0
CIRCLE
  5
E0E
330
9C6
100
AcDbEntity
  8
PMR
100
AcDbCircle
 10
130.0861313817309
 20
180.6279835608664
 30
0.0
 40
0.095
  0
CIRCLE
  5
E0F
330
9C6
100
AcDbEntity
  8
PMR
100
AcDbCircle
 10
130.0861313817309
 20
180.0029835608663
 30
0.0
 40
0.095
  0
CIRCLE
  5
E10
330
9C6
100
AcDbEntity
  8
PMR
100
AcDbCircle
 10
111.7741313817308
 20
182.3779835608664
 30
0.0
 40
0.095
  0
CIRCLE
  5
E11
330
9C6
100
AcDbEntity
  8
PMR
100
AcDbCircle
 10
111.7741313817308
 20
183.0029835608663
 30
0.0
 40
0.095
  0
CIRCLE
  5
E12
330
9C6
100
AcDbEntity
  8
PMR
100
AcDbCircle
 10
111.7741313817308
 20
181.7529835608663
 30
0.0
 40
0.095
  0
CIRCLE
  5
E13
330
9C6
100
AcDbEntity
  8
PMR
100
AcDbCircle
 10
130.0861313817309
 20
183.0029835608663
 30
0.0
 40
0.095
  0
CIRCLE
  5
E14
330
9C6
100
AcDbEntity
  8
PMR
100
AcDbCircle
 10
130.0861313817309
 20
182.3779835608664
 30
0.0
 40
0.095
  0
CIRCLE
  5
E15
330
9C6
100
AcDbEntity
  8
PMR
100
AcDbCircle
 10
130.0861313817309
 20
181.7529835608663
 30
0.0
 40
0.095
  0
CIRCLE
  5
E16
330
9C6
100
AcDbEntity
  8
PMR
100
AcDbCircle
 10
111.7741313817308
 20
184.1279835608663
 30
0.0
 40
0.095
  0
CIRCLE
  5
E17
330
9C6
100
AcDbEntity
  8
PMR
100
AcDbCircle
 10
111.7741313817308
 20
184.7529835608663
 30
0.0
 40
0.095
  0
CIRCLE
  5
E18
330
9C6
100
AcDbEntity
  8
PMR
100
AcDbCircle
 10
111.7741313817308
 20
183.5029835608665
 30
0.0
 40
0.095
  0
CIRCLE
  5
E19
330
9C6
100
AcDbEntity
  8
PMR
100
AcDbCircle
 10
130.0861313817309
 20
184.7529835608663
 30
0.0
 40
0.095
  0
CIRCLE
  5
E1A
330
9C6
100
AcDbEntity
  8
PMR
100
AcDbCircle
 10
130.0861313817309
 20
184.1279835608663
 30
0.0
 40
0.095
  0
CIRCLE
  5
E1B
330
9C6
100
AcDbEntity
  8
PMR
100
AcDbCircle
 10
130.0861313817309
 20
183.5029835608665
 30
0.0
 40
0.095
  0
TEXT
  5
E1C
330
9C6
100
AcDbEntity
  8
TEXT
100
AcDbText
 10
8.145578346061029
 20
214.9279941046538
 30
0.0
 40
1.673999999999999
  1
 SPACING AND ARE FULLY ADJUSTABLE.
 41
0.75
  7
TXT
100
AcDbText
  0
LWPOLYLINE
  5
E1D
330
9C6
100
AcDbEntity
  8
TEXT
100
AcDbPolyline
 90
        6
 70
     1
 43
0.0
 10
4.989015904564779
 20
211.533122104654
 10
4.215828424066046
 20
210.1939221046539
 10
4.989015904564779
 20
208.8547221046539
 10
6.535390865562219
 20
208.8547221046539
 10
7.308578346061011
 20
210.1939221046539
 10
6.535390865562219
 20
211.533122104654
  0
TEXT
  5
E25
330
9C6
100
AcDbEntity
  8
TEXT
100
AcDbText
 10
5.343703385063514
 20
209.3569221046538
 30
0.0
 40
1.673999999999999
  1
2
 41
0.75
  7
TXT
 72
     4
 11
5.762203385063513
 21
210.1939221046539
 31
0.0
100
AcDbText
  0
ARC
  5
E26
330
9C6
100
AcDbEntity
  8
OBJECT
100
AcDbCircle
 10
85.08778973111246
 20
128.2219835608664
 30
0.0
 40
0.1405
100
AcDbArc
 50
295.3225088635592
 51
61.0976660672653
  0
ARC
  5
E27
330
9C6
100
AcDbEntity
  8
OBJECT
100
AcDbCircle
 10
85.08778973111246
 20
125.4719835608664
 30
0.0
 40
0.1405
100
AcDbArc
 50
295.3225088635513
 51
61.09766606726278
  0
ARC
  5
E28
330
9C6
100
AcDbEntity
  8
OBJECT
100
AcDbCircle
 10
83.83778973111246
 20
125.4719835608664
 30
0.0
 40
0.1405
100
AcDbArc
 50
38.14252241385696
 51
321.857477586143
  0
ARC
  5
E29
330
9C6
100
AcDbEntity
  8
OBJECT
100
AcDbCircle
 10
83.83778973111246
 20
128.2219835608664
 30
0.0
 40
0.1405
100
AcDbArc
 50
38.14252241385696
 51
321.857477586143
  0
CIRCLE
  5
E2A
330
9C6
100
AcDbEntity
  8
OBJECT
100
AcDbCircle
 10
85.58778973111248
 20
125.4719835608664
 30
0.0
 40
0.218
  0
LINE
  5
E2B
330
9C6
100
AcDbEntity
  8
PMR
100
AcDbLine
 10
111.3671313817309
 20
185.0019835608663
 30
0.0
 11
111.9618813817309
 21
185.0019835608663
 31
0.0
  0
LINE
  5
E2C
330
9C6
100
AcDbEntity
  8
PMR
100
AcDbLine
 10
111.3671313817309
 20
123.7519835608664
 30
0.0
 11
111.9618813817309
 21
123.7519835608664
 31
0.0
  0
LINE
  5
E2D
330
9C6
100
AcDbEntity
  8
PMR
100
AcDbLine
 10
129.8986313817309
 20
123.7519835608664
 30
0.0
 11
130.4921313817309
 21
123.7519835608664
 31
0.0
  0
LINE
  5
E2E
330
9C6
100
AcDbEntity
  8
PMR
100
AcDbLine
 10
129.8986313817309
 20
185.0019835608663
 30
0.0
 11
130.4921313817309
 21
185.0019835608663
 31
0.0
  0
ARC
  5
E2F
330
9C6
100
AcDbEntity
  8
OBJECT
100
AcDbCircle
 10
85.08778973111246
 20
125.4719835608664
 30
0.0
 40
0.1405
100
AcDbArc
 50
118.9023339327371
 51
244.6774911364484
  0
ARC
  5
E30
330
9C6
100
AcDbEntity
  8
OBJECT
100
AcDbCircle
 10
85.08778973111246
 20
128.2219835608664
 30
0.0
 40
0.1405
100
AcDbArc
 50
118.9023339327345
 51
244.6774911364407
  0
LINE
  5
E31
330
9C6
100
AcDbEntity
  8
OBJECT
100
AcDbLine
 10
63.4325397311125
 20
126.9567335608664
 30
0.0
 11
63.4325397311125
 21
128.4572335608664
 31
0.0
  0
LINE
  5
E32
330
9C6
100
AcDbEntity
  8
OBJECT
100
AcDbLine
 10
63.77553973111258
 20
128.4572335608664
 30
0.0
 11
63.77553973111258
 21
126.9567335608664
 31
0.0
  0
LINE
  5
E33
330
9C6
100
AcDbEntity
  8
OBJECT
100
AcDbLine
 10
63.83753973111261
 20
126.9567335608664
 30
0.0
 11
63.4325397311125
 21
126.9567335608664
 31
0.0
  0
LINE
  5
E34
330
9C6
100
AcDbEntity
  8
OBJECT
100
AcDbLine
 10
63.4325397311125
 20
128.4572335608664
 30
0.0
 11
63.83753973111261
 21
128.4572335608664
 31
0.0
  0
ARC
  5
E35
330
9C6
100
AcDbEntity
  8
OBJECT
100
AcDbCircle
 10
63.94028820206045
 20
128.4099850899185
 30
0.0
 40
0.5099420827475099
100
AcDbArc
 50
139.9319074171274
 51
174.6836581810345
  0
ARC
  5
E36
330
9C6
100
AcDbEntity
  8
OBJECT
100
AcDbCircle
 10
63.26779126016464
 20
128.4099850899185
 30
0.0
 40
0.5099420827475099
100
AcDbArc
 50
5.316341818965462
 51
40.06809258287239
  0
LINE
  5
E37
330
9C6
100
AcDbEntity
  8
OBJECT
100
AcDbLine
 10
63.55003973111258
 20
128.7382335608663
 30
0.0
 11
63.65803973111253
 21
128.7382335608663
 31
0.0
  0
LINE
  5
E38
330
9C6
100
AcDbEntity
  8
OBJECT
100
AcDbLine
 10
20.74322723463012
 20
121.0969835608664
 30
0.0
 11
20.74322723463024
 21
125.2315412277322
 31
0.0
  0
LINE
  5
E39
330
9C6
100
AcDbEntity
  8
OBJECT
100
AcDbLine
 10
39.86822723463024
 20
187.6589835608664
 30
0.0
 11
39.86822723463024
 21
121.0969835608664
 31
0.0
  0
LINE
  5
E3A
330
9C6
100
AcDbEntity
  8
OBJECT
100
AcDbLine
 10
39.86822723463024
 20
123.7219835608664
 30
0.0
 11
20.74322723463012
 21
123.7219835608664
 31
0.0
  0
LINE
  5
E3B
330
9C6
100
AcDbEntity
  8
OBJECT
100
AcDbLine
 10
20.74222723463026
 20
185.0339835608663
 30
0.0
 11
39.86822723463024
 21
185.0339835608663
 31
0.0
  0
LINE
  5
E3C
330
9C6
100
AcDbEntity
  8
OBJECT
100
AcDbLine
 10
20.59472723463021
 20
179.1439835608663
 30
0.0
 11
20.70272723463016
 21
179.1439835608663
 31
0.0
  0
ARC
  5
E3D
330
9C6
100
AcDbEntity
  8
OBJECT
100
AcDbCircle
 10
20.31247876368229
 20
179.4722320318144
 30
0.0
 40
0.5099420827475099
100
AcDbArc
 50
319.9319074171276
 51
354.6836581810344
  0
ARC
  5
E3E
330
9C6
100
AcDbEntity
  8
OBJECT
100
AcDbCircle
 10
20.9849757055781
 20
179.4722320318144
 30
0.0
 40
0.5099420827475099
100
AcDbArc
 50
185.3163418189654
 51
220.0680925828724
  0
LINE
  5
E3F
330
9C6
100
AcDbEntity
  8
OBJECT
100
AcDbLine
 10
20.47722723463015
 20
179.4249835608663
 30
0.0
 11
20.47722723463015
 21
180.9244835608664
 31
0.0
  0
LINE
  5
E40
330
9C6
100
AcDbEntity
  8
OBJECT
100
AcDbLine
 10
20.82022723463023
 20
179.4249835608663
 30
0.0
 11
20.47722723463015
 21
179.4249835608663
 31
0.0
  0
LINE
  5
E41
330
9C6
100
AcDbEntity
  8
OBJECT
100
AcDbLine
 10
20.47722723463015
 20
125.4572335608664
 30
0.0
 11
20.47722723463015
 21
126.9567335608664
 31
0.0
  0
LINE
  5
E42
330
9C6
100
AcDbEntity
  8
OBJECT
100
AcDbLine
 10
20.59472723463021
 20
125.1762335608664
 30
0.0
 11
20.70272723463016
 21
125.1762335608664
 31
0.0
  0
ARC
  5
E43
330
9C6
100
AcDbEntity
  8
OBJECT
100
AcDbCircle
 10
20.31247876368229
 20
125.5044820318143
 30
0.0
 40
0.5099420827475099
100
AcDbArc
 50
319.9319074171276
 51
354.6836581810344
  0
ARC
  5
E44
330
9C6
100
AcDbEntity
  8
OBJECT
100
AcDbCircle
 10
20.9849757055781
 20
125.5044820318143
 30
0.0
 40
0.5099420827475099
100
AcDbArc
 50
185.3163418189654
 51
220.0680925828724
  0
LINE
  5
E45
330
9C6
100
AcDbEntity
  8
OBJECT
100
AcDbLine
 10
20.82022723463023
 20
125.4572335608664
 30
0.0
 11
20.47722723463015
 21
125.4572335608664
 31
0.0
  0
ARC
  5
E46
330
9C6
100
AcDbEntity
  8
OBJECT
100
AcDbCircle
 10
63.94028820206045
 20
125.5034820318142
 30
0.0
 40
0.5099420827475099
100
AcDbArc
 50
185.3163418189654
 51
220.0680925828724
  0
ARC
  5
E47
330
9C6
100
AcDbEntity
  8
OBJECT
100
AcDbCircle
 10
63.26779126016464
 20
125.5034820318142
 30
0.0
 40
0.5099420827475099
100
AcDbArc
 50
319.9319074171276
 51
354.6836581810344
  0
LINE
  5
E48
330
9C6
100
AcDbEntity
  8
OBJECT
100
AcDbLine
 10
63.4325397311125
 20
125.4562335608664
 30
0.0
 11
63.83753973111261
 21
125.4562335608664
 31
0.0
  0
LINE
  5
E49
330
9C6
100
AcDbEntity
  8
OBJECT
100
AcDbLine
 10
63.4325397311125
 20
126.9567335608664
 30
0.0
 11
63.4325397311125
 21
125.4562335608664
 31
0.0
  0
LINE
  5
E4A
330
9C6
100
AcDbEntity
  8
OBJECT
100
AcDbLine
 10
63.55003973111258
 20
125.1752335608664
 30
0.0
 11
63.65803973111253
 21
125.1752335608664
 31
0.0
  0
LINE
  5
E4B
330
9C6
100
AcDbEntity
  8
OBJECT
100
AcDbLine
 10
63.77553973111258
 20
125.4562335608664
 30
0.0
 11
63.77553973111258
 21
126.9567335608664
 31
0.0
  0
ARC
  5
E4C
330
9C6
100
AcDbEntity
  8
OBJECT
100
AcDbCircle
 10
63.94028820206045
 20
182.3779850899185
 30
0.0
 40
0.5099420827475099
100
AcDbArc
 50
139.9319074171274
 51
174.6836581810345
  0
ARC
  5
E4D
330
9C6
100
AcDbEntity
  8
OBJECT
100
AcDbCircle
 10
63.26779126016464
 20
182.3779850899185
 30
0.0
 40
0.5099420827475099
100
AcDbArc
 50
5.316341818965462
 51
40.06809258287239
  0
LINE
  5
E4E
330
9C6
100
AcDbEntity
  8
OBJECT
100
AcDbLine
 10
63.77553973111258
 20
179.4242335608663
 30
0.0
 11
63.77553973111258
 21
180.9247335608663
 31
0.0
  0
LINE
  5
E4F
330
9C6
100
AcDbEntity
  8
OBJECT
100
AcDbLine
 10
63.4325397311125
 20
180.9247335608663
 30
0.0
 11
63.4325397311125
 21
179.4242335608663
 31
0.0
  0
LINE
  5
E50
330
9C6
100
AcDbEntity
  8
OBJECT
100
AcDbLine
 10
63.55003973111258
 20
179.1432335608664
 30
0.0
 11
63.65803973111253
 21
179.1432335608664
 31
0.0
  0
LINE
  5
E51
330
9C6
100
AcDbEntity
  8
OBJECT
100
AcDbLine
 10
63.4325397311125
 20
179.4242335608663
 30
0.0
 11
63.83753973111261
 21
179.4242335608663
 31
0.0
  0
ARC
  5
E52
330
9C6
100
AcDbEntity
  8
OBJECT
100
AcDbCircle
 10
63.26779126016464
 20
179.4714820318143
 30
0.0
 40
0.5099420827475099
100
AcDbArc
 50
319.9319074171276
 51
354.6836581810344
  0
ARC
  5
E53
330
9C6
100
AcDbEntity
  8
OBJECT
100
AcDbCircle
 10
63.94028820206045
 20
179.4714820318143
 30
0.0
 40
0.5099420827475099
100
AcDbArc
 50
185.3163418189654
 51
220.0680925828724
  0
LINE
  5
E54
330
9C6
100
AcDbEntity
  8
OBJECT
100
AcDbLine
 10
63.83753973111261
 20
180.9247335608663
 30
0.0
 11
63.4325397311125
 21
180.9247335608663
 31
0.0
  0
LINE
  5
E55
330
9C6
100
AcDbEntity
  8
OBJECT
100
AcDbLine
 10
63.4325397311125
 20
182.4252335608663
 30
0.0
 11
63.83753973111261
 21
182.4252335608663
 31
0.0
  0
LINE
  5
E56
330
9C6
100
AcDbEntity
  8
OBJECT
100
AcDbLine
 10
63.4325397311125
 20
180.9247335608663
 30
0.0
 11
63.4325397311125
 21
182.4252335608663
 31
0.0
  0
LINE
  5
E57
330
9C6
100
AcDbEntity
  8
OBJECT
100
AcDbLine
 10
63.77553973111258
 20
182.4252335608663
 30
0.0
 11
63.77553973111258
 21
180.9247335608663
 31
0.0
  0
LINE
  5
E58
330
9C6
100
AcDbEntity
  8
OBJECT
100
AcDbLine
 10
63.55003973111258
 20
182.7062335608663
 30
0.0
 11
63.65803973111253
 21
182.7062335608663
 31
0.0
  0
LINE
  5
E59
330
9C6
100
AcDbEntity
  8
OBJECT
100
AcDbLine
 10
130.5856313817309
 20
223.9531320733468
 30
0.0
 11
130.4921313817309
 21
223.9531320733468
 31
0.0
  0
LINE
  5
E5A
330
9C6
100
AcDbEntity
  8
OBJECT
100
AcDbLine
 10
130.5856313817309
 20
223.9531320733468
 30
0.0
 11
130.5856313817309
 21
223.9531320733468
 31
0.0
  0
CIRCLE
  5
E5B
330
9C6
100
AcDbEntity
  8
OBJECT
100
AcDbCircle
 10
130.5856313817309
 20
224.1246320733468
 30
0.0
 40
0.055
  0
LINE
  5
E5C
330
9C6
100
AcDbEntity
  8
OBJECT
100
AcDbLine
 10
130.4141313817309
 20
223.8131320733468
 30
0.0
 11
130.4141313817309
 21
224.1246320733468
 31
0.0
  0
LINE
  5
E5D
330
9C6
100
AcDbEntity
  8
OBJECT
100
AcDbLine
 10
130.4921313817309
 20
223.8131320733468
 30
0.0
 11
130.4921313817309
 21
223.9808614226561
 31
0.0
  0
LINE
  5
E5E
330
9C6
100
AcDbEntity
  8
OBJECT
100
AcDbLine
 10
111.476131381731
 20
223.8911320733468
 30
0.0
 11
130.4141313817309
 21
223.8911320733468
 31
0.0
  0
LINE
  5
E5F
330
9C6
100
AcDbEntity
  8
OBJECT
100
AcDbLine
 10
111.3671313817309
 20
223.8911320733468
 30
0.0
 11
111.3671313817309
 21
223.8131320733468
 31
0.0
  0
LINE
  5
E60
330
9C6
100
AcDbEntity
  8
OBJECT
100
AcDbLine
 10
111.3671313817309
 20
198.3911320733468
 30
0.0
 11
111.3671313817309
 21
198.4691320733468
 31
0.0
  0
LINE
  5
E61
330
9C6
100
AcDbEntity
  8
OBJECT
100
AcDbLine
 10
130.4921313817309
 20
198.3911320733468
 30
0.0
 11
130.4921313817309
 21
198.4691320733468
 31
0.0
  0
LINE
  5
E62
330
9C6
100
AcDbEntity
  8
OBJECT
100
AcDbLine
 10
131.9296313817308
 20
106.4872519744548
 30
0.0
 11
131.9296313817308
 21
105.0192519744546
 31
0.0
  0
LINE
  5
E63
330
9C6
100
AcDbEntity
  8
OBJECT
100
AcDbLine
 10
109.9296313817307
 20
106.4872519744548
 30
0.0
 11
109.9296313817307
 21
105.0192519744548
 31
0.0
  0
LINE
  5
E64
330
9C6
100
AcDbEntity
  8
OBJECT
100
AcDbLine
 10
109.9296313817307
 20
106.4872519744548
 30
0.0
 11
111.3671313817307
 21
106.4872519744548
 31
0.0
  0
LINE
  5
E65
330
9C6
100
AcDbEntity
  8
OBJECT
100
AcDbLine
 10
111.3671313817307
 20
106.4872519744548
 30
0.0
 11
111.3671313817307
 21
106.4092519744548
 31
0.0
  0
LINE
  5
E66
330
9C6
100
AcDbEntity
  8
OBJECT
100
AcDbLine
 10
130.4921313817308
 20
106.4872519744546
 30
0.0
 11
131.9296313817308
 21
106.4872519744548
 31
0.0
  0
LINE
  5
E67
330
9C6
100
AcDbEntity
  8
OBJECT
100
AcDbLine
 10
130.4921313817308
 20
106.4872519744546
 30
0.0
 11
130.4921313817308
 21
106.4092519744548
 31
0.0
  0
LINE
  5
E68
330
9C6
100
AcDbEntity
  8
OBJECT
100
AcDbLine
 10
111.476131381731
 20
80.98725197445483
 30
0.0
 11
130.4141313817309
 21
80.98725197445483
 31
0.0
  0
LINE
  5
E69
330
9C6
100
AcDbEntity
  8
OBJECT
100
AcDbLine
 10
109.9296313817307
 20
105.0192519744548
 30
0.0
 11
110.0076313817309
 21
105.0192519744548
 31
0.0
  0
LINE
  5
E6A
330
9C6
100
AcDbEntity
  8
OBJECT
100
AcDbLine
 10
109.9296313817307
 20
80.98725197445483
 30
0.0
 11
111.3671313817307
 21
80.98725197445483
 31
0.0
  0
LINE
  5
E6B
330
9C6
100
AcDbEntity
  8
OBJECT
100
AcDbLine
 10
109.9296313817307
 20
82.45525197445484
 30
0.0
 11
110.0076313817309
 21
82.45525197445484
 31
0.0
  0
LINE
  5
E6C
330
9C6
100
AcDbEntity
  8
OBJECT
100
AcDbLine
 10
109.9296313817307
 20
80.98725197445483
 30
0.0
 11
109.9296313817307
 21
82.45525197445484
 31
0.0
  0
LINE
  5
E6D
330
9C6
100
AcDbEntity
  8
OBJECT
100
AcDbLine
 10
111.3671313817307
 20
80.98725197445483
 30
0.0
 11
111.3671313817307
 21
81.06525197445487
 31
0.0
  0
LINE
  5
E6E
330
9C6
100
AcDbEntity
  8
OBJECT
100
AcDbLine
 10
111.476131381731
 20
80.98725197445483
 30
0.0
 11
111.476131381731
 21
81.06525197445487
 31
0.0
  0
LINE
  5
E6F
330
9C6
100
AcDbEntity
  8
OBJECT
100
AcDbLine
 10
131.8516313817308
 20
105.0192519744546
 30
0.0
 11
131.9296313817308
 21
105.0192519744546
 31
0.0
  0
LINE
  5
E70
330
9C6
100
AcDbEntity
  8
OBJECT
100
AcDbLine
 10
130.4921313817308
 20
80.98725197445483
 30
0.0
 11
131.9296313817308
 21
80.98725197445483
 31
0.0
  0
LINE
  5
E71
330
9C6
100
AcDbEntity
  8
OBJECT
100
AcDbLine
 10
130.4141313817309
 20
81.06525197445487
 30
0.0
 11
130.4141313817309
 21
80.75375197445479
 31
0.0
  0
LINE
  5
E72
330
9C6
100
AcDbEntity
  8
OBJECT
100
AcDbLine
 10
130.4921313817308
 20
81.06525197445487
 30
0.0
 11
130.4921313817308
 21
80.89752262514542
 31
0.0
  0
CIRCLE
  5
E73
330
9C6
100
AcDbEntity
  8
OBJECT
100
AcDbCircle
 10
130.5856313817309
 20
80.75375197445479
 30
0.0
 40
0.055
  0
LINE
  5
E74
330
9C6
100
AcDbEntity
  8
OBJECT
100
AcDbLine
 10
130.5856313817309
 20
80.9252519744548
 30
0.0
 11
130.4921313817308
 21
80.9252519744548
 31
0.0
  0
LINE
  5
E75
330
9C6
100
AcDbEntity
  8
OBJECT
100
AcDbLine
 10
130.5856313817309
 20
80.9252519744548
 30
0.0
 11
130.5856313817309
 21
80.9252519744548
 31
0.0
  0
LINE
  5
E76
330
9C6
100
AcDbEntity
  8
OBJECT
100
AcDbLine
 10
131.8516313817308
 20
82.45525197445484
 30
0.0
 11
131.9296313817308
 21
82.45525197445484
 31
0.0
  0
LINE
  5
E77
330
9C6
100
AcDbEntity
  8
OBJECT
100
AcDbLine
 10
131.9296313817308
 20
80.98725197445483
 30
0.0
 11
131.9296313817308
 21
82.45525197445484
 31
0.0
  0
CIRCLE
  5
E78
330
9C6
100
AcDbEntity
  8
OBJECT
100
AcDbCircle
 10
130.5856313817309
 20
80.75375197445479
 30
0.0
 40
0.1715
  0
CIRCLE
  5
E79
330
9C6
100
AcDbEntity
  8
OBJECT
100
AcDbCircle
 10
130.5856313817309
 20
224.1246320733468
 30
0.0
 40
0.1714999999999947
  0
LINE
  5
E7A
330
9C6
100
AcDbEntity
  8
OBJECT
100
AcDbLine
 10
20.74322723463024
 20
182.6509258940004
 30
0.0
 11
20.74322723463024
 21
187.6589835608664
 31
0.0
  0
LINE
  5
E7B
330
9C6
100
AcDbEntity
  8
OBJECT
100
AcDbLine
 10
20.74322723463012
 20
128.6829258940003
 30
0.0
 11
20.74322723463024
 21
179.1992912277324
 31
0.0
  0
LINE
  5
E7C
330
9C6
100
AcDbEntity
  8
OBJECT
100
AcDbLine
 10
20.47722723463015
 20
180.9247335608663
 30
0.0
 11
20.47722723463015
 21
182.4252335608663
 31
0.0
  0
LINE
  5
E7D
330
9C6
100
AcDbEntity
  8
OBJECT
100
AcDbLine
 10
20.82022723463023
 20
184.9722335608664
 30
0.0
 11
20.82022723463023
 21
123.7847335608664
 31
0.0
  0
LINE
  5
E7E
330
9C6
100
AcDbEntity
  8
OBJECT
100
AcDbLine
 10
39.7582272346301
 20
123.7847335608664
 30
0.0
 11
39.7582272346301
 21
184.9722335608664
 31
0.0
  0
LINE
  5
E7F
330
9C6
100
AcDbEntity
  8
OBJECT
100
AcDbLine
 10
20.82022723463023
 20
123.7847335608664
 30
0.0
 11
39.7582272346301
 21
123.7847335608664
 31
0.0
  0
LINE
  5
E80
330
9C6
100
AcDbEntity
  8
OBJECT
100
AcDbLine
 10
20.47722723463015
 20
126.9567335608664
 30
0.0
 11
20.47722723463015
 21
128.4572335608664
 31
0.0
  0
LINE
  5
E81
330
9C6
100
AcDbEntity
  8
OBJECT
100
AcDbLine
 10
20.47722723463015
 20
126.9567335608664
 30
0.0
 11
20.82022723463023
 21
126.9567335608664
 31
0.0
  0
ARC
  5
E82
330
9C6
100
AcDbEntity
  8
OBJECT
100
AcDbCircle
 10
20.9849757055781
 20
128.4099850899185
 30
0.0
 40
0.5099420827475099
100
AcDbArc
 50
139.9319074171274
 51
174.6836581810345
  0
LINE
  5
E83
330
9C6
100
AcDbEntity
  8
OBJECT
100
AcDbLine
 10
20.47722723463015
 20
128.4572335608664
 30
0.0
 11
20.82022723463023
 21
128.4572335608664
 31
0.0
  0
ARC
  5
E84
330
9C6
100
AcDbEntity
  8
OBJECT
100
AcDbCircle
 10
20.31247876368229
 20
128.4099850899185
 30
0.0
 40
0.5099420827475099
100
AcDbArc
 50
5.316341818965462
 51
40.06809258287239
  0
LINE
  5
E85
330
9C6
100
AcDbEntity
  8
OBJECT
100
AcDbLine
 10
20.59472723463021
 20
128.7382335608663
 30
0.0
 11
20.70272723463016
 21
128.7382335608663
 31
0.0
  0
LINE
  5
E86
330
9C6
100
AcDbEntity
  8
OBJECT
100
AcDbLine
 10
20.47722723463015
 20
180.9247335608663
 30
0.0
 11
20.82022723463023
 21
180.9247335608663
 31
0.0
  0
LINE
  5
E87
330
9C6
100
AcDbEntity
  8
OBJECT
100
AcDbLine
 10
39.7582272346301
 20
184.9722335608664
 30
0.0
 11
20.82022723463023
 21
184.9722335608664
 31
0.0
  0
LINE
  5
E88
330
9C6
100
AcDbEntity
  8
OBJECT
100
AcDbLine
 10
20.47722723463015
 20
182.4252335608663
 30
0.0
 11
20.82022723463023
 21
182.4252335608663
 31
0.0
  0
ARC
  5
E89
330
9C6
100
AcDbEntity
  8
OBJECT
100
AcDbCircle
 10
20.9849757055781
 20
182.3779850899185
 30
0.0
 40
0.5099420827475099
100
AcDbArc
 50
139.9319074171274
 51
174.6836581810345
  0
LINE
  5
E8A
330
9C6
100
AcDbEntity
  8
OBJECT
100
AcDbLine
 10
20.59472723463021
 20
182.7062335608663
 30
0.0
 11
20.70272723463016
 21
182.7062335608663
 31
0.0
  0
ARC
  5
E8B
330
9C6
100
AcDbEntity
  8
OBJECT
100
AcDbCircle
 10
20.31247876368229
 20
182.3779850899185
 30
0.0
 40
0.5099420827475099
100
AcDbArc
 50
5.316341818965462
 51
40.06809258287239
  0
CIRCLE
  5
E8C
330
9C6
100
AcDbEntity
  8
PMR
100
AcDbCircle
 10
111.7741313817308
 20
169.5029835608664
 30
0.0
 40
0.095
  0
CIRCLE
  5
E8D
330
9C6
100
AcDbEntity
  8
PMR
100
AcDbCircle
 10
111.7741313817308
 20
156.1279835608664
 30
0.0
 40
0.095
  0
CIRCLE
  5
E8E
330
9C6
100
AcDbEntity
  8
PMR
100
AcDbCircle
 10
111.7741313817308
 20
156.7529835608664
 30
0.0
 40
0.095
  0
CIRCLE
  5
E8F
330
9C6
100
AcDbEntity
  8
PMR
100
AcDbCircle
 10
111.7741313817308
 20
157.2529835608664
 30
0.0
 40
0.095
  0
CIRCLE
  5
E90
330
9C6
100
AcDbEntity
  8
PMR
100
AcDbCircle
 10
111.7741313817308
 20
168.3779835608664
 30
0.0
 40
0.095
  0
CIRCLE
  5
E91
330
9C6
100
AcDbEntity
  8
PMR
100
AcDbCircle
 10
111.7741313817308
 20
169.0029835608664
 30
0.0
 40
0.095
  0
CIRCLE
  5
E92
330
9C6
100
AcDbEntity
  8
PMR
100
AcDbCircle
 10
111.7741313817308
 20
159.0029835608664
 30
0.0
 40
0.095
  0
CIRCLE
  5
E93
330
9C6
100
AcDbEntity
  8
PMR
100
AcDbCircle
 10
111.7741313817308
 20
157.8779835608664
 30
0.0
 40
0.095
  0
CIRCLE
  5
E94
330
9C6
100
AcDbEntity
  8
PMR
100
AcDbCircle
 10
111.7741313817308
 20
158.5029835608664
 30
0.0
 40
0.095
  0
CIRCLE
  5
E95
330
9C6
100
AcDbEntity
  8
PMR
100
AcDbCircle
 10
130.0861313817309
 20
169.5029835608664
 30
0.0
 40
0.095
  0
CIRCLE
  5
E96
330
9C6
100
AcDbEntity
  8
PMR
100
AcDbCircle
 10
130.0861313817309
 20
156.7529835608664
 30
0.0
 40
0.095
  0
CIRCLE
  5
E97
330
9C6
100
AcDbEntity
  8
PMR
100
AcDbCircle
 10
130.0861313817309
 20
156.1279835608664
 30
0.0
 40
0.095
  0
CIRCLE
  5
E98
330
9C6
100
AcDbEntity
  8
PMR
100
AcDbCircle
 10
130.0861313817309
 20
157.2529835608664
 30
0.0
 40
0.095
  0
CIRCLE
  5
E99
330
9C6
100
AcDbEntity
  8
PMR
100
AcDbCircle
 10
130.0861313817309
 20
169.0029835608664
 30
0.0
 40
0.095
  0
CIRCLE
  5
E9A
330
9C6
100
AcDbEntity
  8
PMR
100
AcDbCircle
 10
130.0861313817309
 20
168.3779835608664
 30
0.0
 40
0.095
  0
CIRCLE
  5
E9B
330
9C6
100
AcDbEntity
  8
PMR
100
AcDbCircle
 10
130.0861313817309
 20
159.0029835608664
 30
0.0
 40
0.095
  0
CIRCLE
  5
E9C
330
9C6
100
AcDbEntity
  8
PMR
100
AcDbCircle
 10
130.0861313817309
 20
157.8779835608664
 30
0.0
 40
0.095
  0
CIRCLE
  5
E9D
330
9C6
100
AcDbEntity
  8
PMR
100
AcDbCircle
 10
130.0861313817309
 20
158.5029835608664
 30
0.0
 40
0.095
  0
CIRCLE
  5
E9E
330
9C6
100
AcDbEntity
  8
PMR
100
AcDbCircle
 10
111.7741313817308
 20
155.5029835608664
 30
0.0
 40
0.095
  0
CIRCLE
  5
E9F
330
9C6
100
AcDbEntity
  8
PMR
100
AcDbCircle
 10
111.7741313817308
 20
150.8779835608664
 30
0.0
 40
0.095
  0
CIRCLE
  5
EA0
330
9C6
100
AcDbEntity
  8
PMR
100
AcDbCircle
 10
111.7741313817308
 20
151.5029835608664
 30
0.0
 40
0.095
  0
CIRCLE
  5
EA1
330
9C6
100
AcDbEntity
  8
PMR
100
AcDbCircle
 10
111.7741313817308
 20
152.0029835608664
 30
0.0
 40
0.095
  0
CIRCLE
  5
EA2
330
9C6
100
AcDbEntity
  8
PMR
100
AcDbCircle
 10
111.7741313817308
 20
154.3779835608664
 30
0.0
 40
0.095
  0
CIRCLE
  5
EA3
330
9C6
100
AcDbEntity
  8
PMR
100
AcDbCircle
 10
111.7741313817308
 20
155.0029835608664
 30
0.0
 40
0.095
  0
CIRCLE
  5
EA4
330
9C6
100
AcDbEntity
  8
PMR
100
AcDbCircle
 10
111.7741313817308
 20
153.7529835608664
 30
0.0
 40
0.095
  0
CIRCLE
  5
EA5
330
9C6
100
AcDbEntity
  8
PMR
100
AcDbCircle
 10
111.7741313817308
 20
152.6279835608664
 30
0.0
 40
0.095
  0
CIRCLE
  5
EA6
330
9C6
100
AcDbEntity
  8
PMR
100
AcDbCircle
 10
111.7741313817308
 20
153.2529835608665
 30
0.0
 40
0.095
  0
CIRCLE
  5
EA7
330
9C6
100
AcDbEntity
  8
PMR
100
AcDbCircle
 10
130.0861313817309
 20
155.5029835608664
 30
0.0
 40
0.095
  0
CIRCLE
  5
EA8
330
9C6
100
AcDbEntity
  8
PMR
100
AcDbCircle
 10
130.0861313817309
 20
151.5029835608664
 30
0.0
 40
0.095
  0
CIRCLE
  5
EA9
330
9C6
100
AcDbEntity
  8
PMR
100
AcDbCircle
 10
130.0861313817309
 20
150.8779835608664
 30
0.0
 40
0.095
  0
CIRCLE
  5
EAA
330
9C6
100
AcDbEntity
  8
PMR
100
AcDbCircle
 10
130.0861313817309
 20
152.0029835608664
 30
0.0
 40
0.095
  0
CIRCLE
  5
EAB
330
9C6
100
AcDbEntity
  8
PMR
100
AcDbCircle
 10
130.0861313817309
 20
155.0029835608664
 30
0.0
 40
0.095
  0
CIRCLE
  5
EAC
330
9C6
100
AcDbEntity
  8
PMR
100
AcDbCircle
 10
130.0861313817309
 20
154.3779835608664
 30
0.0
 40
0.095
  0
CIRCLE
  5
EAD
330
9C6
100
AcDbEntity
  8
PMR
100
AcDbCircle
 10
130.0861313817309
 20
153.7529835608664
 30
0.0
 40
0.095
  0
CIRCLE
  5
EAE
330
9C6
100
AcDbEntity
  8
PMR
100
AcDbCircle
 10
130.0861313817309
 20
152.6279835608664
 30
0.0
 40
0.095
  0
CIRCLE
  5
EAF
330
9C6
100
AcDbEntity
  8
PMR
100
AcDbCircle
 10
130.0861313817309
 20
153.2529835608665
 30
0.0
 40
0.095
  0
CIRCLE
  5
EB0
330
9C6
100
AcDbEntity
  8
OBJECT
100
AcDbCircle
 10
38.6332272346301
 20
154.3779835608664
 30
0.0
 40
0.3174999999999999
  0
CIRCLE
  5
EB1
330
9C6
100
AcDbEntity
  8
OBJECT
100
AcDbCircle
 10
38.6332272346301
 20
154.3779835608664
 30
0.0
 40
0.453125
  0
LINE
  5
EB2
330
9C6
100
AcDbEntity
  8
OBJECT
100
AcDbLine
 10
38.58822723463004
 20
154.1254835608663
 30
0.0
 11
38.67822723463007
 21
154.1254835608663
 31
0.0
  0
LINE
  5
EB3
330
9C6
100
AcDbEntity
  8
OBJECT
100
AcDbLine
 10
38.58822723463004
 20
154.5154835608664
 30
0.0
 11
38.67822723463007
 21
154.5154835608664
 31
0.0
  0
LINE
  5
EB4
330
9C6
100
AcDbEntity
  8
OBJECT
100
AcDbLine
 10
38.58822723463004
 20
154.5154835608664
 30
0.0
 11
38.58822723463004
 21
154.1254835608663
 31
0.0
  0
LINE
  5
EB5
330
9C6
100
AcDbEntity
  8
OBJECT
100
AcDbLine
 10
38.67822723463007
 20
154.5154835608664
 30
0.0
 11
38.67822723463007
 21
154.1254835608663
 31
0.0
  0
ARC
  5
EB6
330
9C6
100
AcDbEntity
  8
OBJECT
100
AcDbCircle
 10
38.6332272346301
 20
154.3779835608664
 30
0.0
 40
0.125
100
AcDbArc
 50
291.100196024093
 51
68.89980397590702
  0
ARC
  5
EB7
330
9C6
100
AcDbEntity
  8
OBJECT
100
AcDbCircle
 10
38.6332272346301
 20
154.3779835608664
 30
0.0
 40
0.125
100
AcDbArc
 50
111.1001960240928
 51
248.8998039759068
  0
ARC
  5
EB8
330
9C6
100
AcDbEntity
  8
OBJECT
100
AcDbCircle
 10
85.58778973111248
 20
128.2219835608664
 30
0.0
 40
0.1405
100
AcDbArc
 50
118.9023339327345
 51
244.6774911364407
  0
CIRCLE
  5
EB9
330
9C6
100
AcDbEntity
  8
PMR
100
AcDbCircle
 10
111.7741313817308
 20
159.6279835608664
 30
0.0
 40
0.095
  0
CIRCLE
  5
EBA
330
9C6
100
AcDbEntity
  8
PMR
100
AcDbCircle
 10
130.0861313817309
 20
159.6279835608664
 30
0.0
 40
0.095
  0
CIRCLE
  5
EBB
330
9C6
100
AcDbEntity
  8
PMR
100
AcDbCircle
 10
111.7741313817308
 20
166.0029835608664
 30
0.0
 40
0.095
  0
CIRCLE
  5
EBC
330
9C6
100
AcDbEntity
  8
PMR
100
AcDbCircle
 10
111.7741313817308
 20
162.5029835608664
 30
0.0
 40
0.095
  0
CIRCLE
  5
EBD
330
9C6
100
AcDbEntity
  8
PMR
100
AcDbCircle
 10
111.7741313817308
 20
162.0029835608664
 30
0.0
 40
0.095
  0
CIRCLE
  5
EBE
330
9C6
100
AcDbEntity
  8
PMR
100
AcDbCircle
 10
111.7741313817308
 20
161.3779835608664
 30
0.0
 40
0.095
  0
CIRCLE
  5
EBF
330
9C6
100
AcDbEntity
  8
PMR
100
AcDbCircle
 10
111.7741313817308
 20
160.7529835608664
 30
0.0
 40
0.095
  0
CIRCLE
  5
EC0
330
9C6
100
AcDbEntity
  8
PMR
100
AcDbCircle
 10
111.7741313817308
 20
160.2529835608664
 30
0.0
 40
0.095
  0
CIRCLE
  5
EC1
330
9C6
100
AcDbEntity
  8
PMR
100
AcDbCircle
 10
111.7741313817308
 20
165.5029835608664
 30
0.0
 40
0.095
  0
CIRCLE
  5
EC2
330
9C6
100
AcDbEntity
  8
PMR
100
AcDbCircle
 10
111.7741313817308
 20
163.7529835608664
 30
0.0
 40
0.095
  0
CIRCLE
  5
EC3
330
9C6
100
AcDbEntity
  8
PMR
100
AcDbCircle
 10
111.7741313817308
 20
163.1279835608664
 30
0.0
 40
0.095
  0
CIRCLE
  5
EC4
330
9C6
100
AcDbEntity
  8
PMR
100
AcDbCircle
 10
111.7741313817308
 20
164.2529835608664
 30
0.0
 40
0.095
  0
CIRCLE
  5
EC5
330
9C6
100
AcDbEntity
  8
PMR
100
AcDbCircle
 10
111.7741313817308
 20
164.8779835608664
 30
0.0
 40
0.095
  0
CIRCLE
  5
EC6
330
9C6
100
AcDbEntity
  8
PMR
100
AcDbCircle
 10
111.7741313817308
 20
167.2529835608664
 30
0.0
 40
0.095
  0
CIRCLE
  5
EC7
330
9C6
100
AcDbEntity
  8
PMR
100
AcDbCircle
 10
111.7741313817308
 20
166.6279835608664
 30
0.0
 40
0.095
  0
CIRCLE
  5
EC8
330
9C6
100
AcDbEntity
  8
PMR
100
AcDbCircle
 10
111.7741313817308
 20
167.7529835608664
 30
0.0
 40
0.095
  0
CIRCLE
  5
EC9
330
9C6
100
AcDbEntity
  8
PMR
100
AcDbCircle
 10
130.0861313817309
 20
166.0029835608664
 30
0.0
 40
0.095
  0
CIRCLE
  5
ECA
330
9C6
100
AcDbEntity
  8
PMR
100
AcDbCircle
 10
130.0861313817309
 20
162.5029835608664
 30
0.0
 40
0.095
  0
CIRCLE
  5
ECB
330
9C6
100
AcDbEntity
  8
PMR
100
AcDbCircle
 10
130.0861313817309
 20
162.0029835608664
 30
0.0
 40
0.095
  0
CIRCLE
  5
ECC
330
9C6
100
AcDbEntity
  8
PMR
100
AcDbCircle
 10
130.0861313817309
 20
161.3779835608664
 30
0.0
 40
0.095
  0
CIRCLE
  5
ECD
330
9C6
100
AcDbEntity
  8
PMR
100
AcDbCircle
 10
130.0861313817309
 20
160.7529835608664
 30
0.0
 40
0.095
  0
CIRCLE
  5
ECE
330
9C6
100
AcDbEntity
  8
PMR
100
AcDbCircle
 10
130.0861313817309
 20
160.2529835608664
 30
0.0
 40
0.095
  0
CIRCLE
  5
ECF
330
9C6
100
AcDbEntity
  8
PMR
100
AcDbCircle
 10
130.0861313817309
 20
165.5029835608664
 30
0.0
 40
0.095
  0
CIRCLE
  5
ED0
330
9C6
100
AcDbEntity
  8
PMR
100
AcDbCircle
 10
130.0861313817309
 20
163.1279835608664
 30
0.0
 40
0.095
  0
CIRCLE
  5
ED1
330
9C6
100
AcDbEntity
  8
PMR
100
AcDbCircle
 10
130.0861313817309
 20
163.7529835608664
 30
0.0
 40
0.095
  0
CIRCLE
  5
ED2
330
9C6
100
AcDbEntity
  8
PMR
100
AcDbCircle
 10
130.0861313817309
 20
164.2529835608664
 30
0.0
 40
0.095
  0
CIRCLE
  5
ED3
330
9C6
100
AcDbEntity
  8
PMR
100
AcDbCircle
 10
130.0861313817309
 20
164.8779835608664
 30
0.0
 40
0.095
  0
CIRCLE
  5
ED4
330
9C6
100
AcDbEntity
  8
PMR
100
AcDbCircle
 10
130.0861313817309
 20
167.2529835608664
 30
0.0
 40
0.095
  0
CIRCLE
  5
ED5
330
9C6
100
AcDbEntity
  8
PMR
100
AcDbCircle
 10
130.0861313817309
 20
166.6279835608664
 30
0.0
 40
0.095
  0
CIRCLE
  5
ED6
330
9C6
100
AcDbEntity
  8
PMR
100
AcDbCircle
 10
130.0861313817309
 20
167.7529835608664
 30
0.0
 40
0.095
  0
DIMENSION
  5
ED7
330
9C6
100
AcDbEntity
  8
DIM
100
AcDbDimension
  2
*D24
 10
56.7865397311126
 20
153.0029835608664
 30
0.0
 11
56.78653973111257
 21
154.3779835608664
 31
0.0
 70
   160
 71
     5
 42
2.75
  3
23NSTD
100
AcDbAlignedDimension
 13
65.21278973111254
 23
155.7529835608664
 33
0.0
 14
65.21278973111254
 24
153.0029835608664
 34
0.0
 50
90.0
100
AcDbRotatedDimension
  0
DIMENSION
  5
EE5
330
9C6
100
AcDbEntity
  8
DIM
100
AcDbDimension
  2
*D25
 10
56.78653973111261
 20
125.4719835608664
 30
0.0
 11
56.78653973111259
 21
139.2374835608664
 31
0.0
 70
    32
  1
E
 71
     5
 42
27.53100000000002
  3
23NSTD
100
AcDbAlignedDimension
 13
65.21278973111254
 23
153.0029835608664
 33
0.0
 14
65.21278973111254
 24
125.4719835608664
 34
0.0
 50
90.0
100
AcDbRotatedDimension
  0
CIRCLE
  5
EF3
330
9C6
100
AcDbEntity
  8
OBJECT
100
AcDbCircle
 10
86.83753973111254
 20
154.3779835608664
 30
0.0
 40
0.218
  0
LINE
  5
EF4
330
9C6
100
AcDbEntity
  8
OBJECT
100
AcDbLine
 10
89.33753973111262
 20
121.0969835608664
 30
0.0
 11
63.83753973111261
 21
121.0969835608664
 31
0.0
  0
LINE
  5
EF5
330
9C6
100
AcDbEntity
  8
OBJECT
100
AcDbLine
 10
89.25953973111258
 20
123.7219835608664
 30
0.0
 11
63.91553973111257
 21
123.7219835608664
 31
0.0
  0
CIRCLE
  5
EF6
330
9C6
100
AcDbEntity
  8
OBJECT
100
AcDbCircle
 10
87.52453973111254
 20
124.3469835608663
 30
0.0
 40
0.0735
  0
CIRCLE
  5
EF7
330
9C6
100
AcDbEntity
  8
OBJECT
100
AcDbCircle
 10
65.65053973111256
 20
124.3469835608663
 30
0.0
 40
0.0735
  0
LINE
  5
EF8
330
9C6
100
AcDbEntity
  8
OBJECT
100
AcDbLine
 10
87.86953973111256
 20
123.7219835608664
 30
0.0
 11
87.86953973111256
 21
125.0969835608664
 31
0.0
  0
CIRCLE
  5
EF9
330
9C6
100
AcDbEntity
  8
OBJECT
100
AcDbCircle
 10
66.33753973111254
 20
181.9089835608663
 30
0.0
 40
0.1405
  0
LINE
  5
EFA
330
9C6
100
AcDbEntity
  8
OBJECT
100
AcDbLine
 10
66.02553973111257
 20
182.9089835608663
 30
0.0
 11
66.02553973111257
 21
180.9089835608664
 31
0.0
  0
LINE
  5
EFB
330
9C6
100
AcDbEntity
  8
OBJECT
100
AcDbLine
 10
66.64953973111257
 20
182.9089835608663
 30
0.0
 11
66.64953973111257
 21
180.9089835608664
 31
0.0
  0
LINE
  5
EFC
330
9C6
100
AcDbEntity
  8
OBJECT
100
AcDbLine
 10
66.64953973111257
 20
181.5339835608662
 30
0.0
 11
66.02553973111257
 21
181.5339835608664
 31
0.0
  0
LINE
  5
EFD
330
9C6
100
AcDbEntity
  8
OBJECT
100
AcDbLine
 10
66.64953973111257
 20
182.2839835608663
 30
0.0
 11
66.02553973111257
 21
182.2839835608664
 31
0.0
  0
LINE
  5
EFE
330
9C6
100
AcDbEntity
  8
OBJECT
100
AcDbLine
 10
87.30653973111254
 20
123.7219835608664
 30
0.0
 11
87.30653973111254
 21
125.0969835608664
 31
0.0
  0
LINE
  5
EFF
330
9C6
100
AcDbEntity
  8
OBJECT
100
AcDbLine
 10
63.83753973111256
 20
182.7434510994881
 30
0.0
 11
63.83753973111261
 21
121.0969835608664
 31
0.0
  0
LINE
  5
F00
330
9C6
100
AcDbEntity
  8
OBJECT
100
AcDbLine
 10
89.33753973111254
 20
121.0969835608664
 30
0.0
 11
89.33753973111254
 21
148.3916921773461
 31
0.0
  0
LINE
  5
F01
330
9C6
100
AcDbEntity
  8
OBJECT
100
AcDbLine
 10
64.61878973111254
 20
183.1061012244185
 30
0.0
 11
64.61878973111254
 21
180.1589835608664
 31
0.0
  0
LINE
  5
F02
330
9C6
100
AcDbEntity
  8
OBJECT
100
AcDbLine
 10
89.25953973111258
 20
121.0969835608664
 30
0.0
 11
89.25953973111258
 21
123.7219835608664
 31
0.0
  0
LINE
  5
F03
330
9C6
100
AcDbEntity
  8
OBJECT
100
AcDbLine
 10
89.19753973111253
 20
121.1589835608664
 30
0.0
 11
89.19753973111253
 21
123.6599835608664
 31
0.0
  0
LINE
  5
F04
330
9C6
100
AcDbEntity
  8
OBJECT
100
AcDbLine
 10
89.19753973111253
 20
121.1589835608664
 30
0.0
 11
63.97753973111264
 21
121.1589835608664
 31
0.0
  0
LINE
  5
F05
330
9C6
100
AcDbEntity
  8
OBJECT
100
AcDbLine
 10
89.19753973111253
 20
123.6599835608664
 30
0.0
 11
63.97753973111258
 21
123.6599835608664
 31
0.0
  0
LINE
  5
F06
330
9C6
100
AcDbEntity
  8
OBJECT
100
AcDbLine
 10
63.97753973111258
 20
123.6599835608664
 30
0.0
 11
63.97753973111258
 21
121.1589835608664
 31
0.0
  0
LINE
  5
F07
330
9C6
100
AcDbEntity
  8
OBJECT
100
AcDbLine
 10
63.91553973111257
 20
123.7219835608664
 30
0.0
 11
63.91553973111257
 21
121.0969835608664
 31
0.0
  0
LINE
  5
F08
330
9C6
100
AcDbEntity
  8
OBJECT
100
AcDbLine
 10
88.58753973111252
 20
123.7219835608664
 30
0.0
 11
88.58753973111252
 21
149.0548294651005
 31
0.0
  0
LINE
  5
F09
330
9C6
100
AcDbEntity
  8
OBJECT
100
AcDbLine
 10
64.58753973111251
 20
183.0915952194212
 30
0.0
 11
64.5875397311126
 21
123.7219835608664
 31
0.0
  0
ARC
  5
F0A
330
9C6
100
AcDbEntity
  8
OBJECT
100
AcDbCircle
 10
65.21278973111254
 20
183.2839835608664
 30
0.0
 40
0.1405
100
AcDbArc
 50
165.7256702009888
 51
64.07504768278221
  0
CIRCLE
  5
F0B
330
9C6
100
AcDbEntity
  8
OBJECT
100
AcDbCircle
 10
65.83778973111254
 20
183.2839835608664
 30
0.0
 40
0.1405
  0
CIRCLE
  5
F0C
330
9C6
100
AcDbEntity
  8
OBJECT
100
AcDbCircle
 10
66.33778973111254
 20
183.2839835608664
 30
0.0
 40
0.1405
  0
CIRCLE
  5
F0D
330
9C6
100
AcDbEntity
  8
OBJECT
100
AcDbCircle
 10
66.96278973111254
 20
183.2839835608664
 30
0.0
 40
0.1405
  0
CIRCLE
  5
F0E
330
9C6
100
AcDbEntity
  8
OBJECT
100
AcDbCircle
 10
66.96278973111254
 20
180.5339835608664
 30
0.0
 40
0.1405
  0
CIRCLE
  5
F0F
330
9C6
100
AcDbEntity
  8
OBJECT
100
AcDbCircle
 10
66.33778973111254
 20
180.5339835608664
 30
0.0
 40
0.1405
  0
CIRCLE
  5
F10
330
9C6
100
AcDbEntity
  8
OBJECT
100
AcDbCircle
 10
65.83778973111254
 20
180.5339835608664
 30
0.0
 40
0.1405
  0
CIRCLE
  5
F11
330
9C6
100
AcDbEntity
  8
OBJECT
100
AcDbCircle
 10
65.21278973111254
 20
180.5339835608664
 30
0.0
 40
0.1405
  0
CIRCLE
  5
F12
330
9C6
100
AcDbEntity
  8
OBJECT
100
AcDbCircle
 10
86.21228973111254
 20
128.2219835608664
 30
0.0
 40
0.1405
  0
CIRCLE
  5
F13
330
9C6
100
AcDbEntity
  8
OBJECT
100
AcDbCircle
 10
86.83728973111254
 20
128.2219835608664
 30
0.0
 40
0.1405
  0
CIRCLE
  5
F14
330
9C6
100
AcDbEntity
  8
OBJECT
100
AcDbCircle
 10
87.33728973111253
 20
128.2219835608664
 30
0.0
 40
0.1405
  0
CIRCLE
  5
F15
330
9C6
100
AcDbEntity
  8
OBJECT
100
AcDbCircle
 10
87.96228973111253
 20
128.2219835608664
 30
0.0
 40
0.1405
  0
CIRCLE
  5
F16
330
9C6
100
AcDbEntity
  8
OBJECT
100
AcDbCircle
 10
87.96228973111253
 20
125.4719835608664
 30
0.0
 40
0.1405
  0
CIRCLE
  5
F17
330
9C6
100
AcDbEntity
  8
OBJECT
100
AcDbCircle
 10
87.33728973111253
 20
125.4719835608664
 30
0.0
 40
0.1405
  0
CIRCLE
  5
F18
330
9C6
100
AcDbEntity
  8
OBJECT
100
AcDbCircle
 10
86.83728973111254
 20
125.4719835608664
 30
0.0
 40
0.1405
  0
CIRCLE
  5
F19
330
9C6
100
AcDbEntity
  8
OBJECT
100
AcDbCircle
 10
86.21228973111254
 20
125.4719835608664
 30
0.0
 40
0.1405
  0
CIRCLE
  5
F1A
330
9C6
100
AcDbEntity
  8
OBJECT
100
AcDbCircle
 10
65.21278973111254
 20
128.2219835608664
 30
0.0
 40
0.1405
  0
CIRCLE
  5
F1B
330
9C6
100
AcDbEntity
  8
OBJECT
100
AcDbCircle
 10
65.83778973111254
 20
128.2219835608664
 30
0.0
 40
0.1405
  0
CIRCLE
  5
F1C
330
9C6
100
AcDbEntity
  8
OBJECT
100
AcDbCircle
 10
66.33778973111254
 20
128.2219835608664
 30
0.0
 40
0.1405
  0
CIRCLE
  5
F1D
330
9C6
100
AcDbEntity
  8
OBJECT
100
AcDbCircle
 10
66.96278973111254
 20
128.2219835608664
 30
0.0
 40
0.1405
  0
CIRCLE
  5
F1E
330
9C6
100
AcDbEntity
  8
OBJECT
100
AcDbCircle
 10
66.96278973111254
 20
125.4719835608664
 30
0.0
 40
0.1405
  0
CIRCLE
  5
F1F
330
9C6
100
AcDbEntity
  8
OBJECT
100
AcDbCircle
 10
66.33778973111254
 20
125.4719835608664
 30
0.0
 40
0.1405
  0
CIRCLE
  5
F20
330
9C6
100
AcDbEntity
  8
OBJECT
100
AcDbCircle
 10
65.83778973111254
 20
125.4719835608664
 30
0.0
 40
0.1405
  0
CIRCLE
  5
F21
330
9C6
100
AcDbEntity
  8
OBJECT
100
AcDbCircle
 10
65.21278973111254
 20
125.4719835608664
 30
0.0
 40
0.1405
  0
LINE
  5
F22
330
9C6
100
AcDbEntity
  8
OBJECT
100
AcDbLine
 10
88.55628973111254
 20
125.0969835608664
 30
0.0
 11
88.55628973111254
 21
128.5969835608663
 31
0.0
  0
LINE
  5
F23
330
9C6
100
AcDbEntity
  8
OBJECT
100
AcDbLine
 10
64.61878973111254
 20
125.0969835608664
 30
0.0
 11
64.61878973111254
 21
128.5969835608663
 31
0.0
  0
CIRCLE
  5
F24
330
9C6
100
AcDbEntity
  8
OBJECT
100
AcDbCircle
 10
86.83753973111254
 20
126.8469835608664
 30
0.0
 40
0.1405
  0
LINE
  5
F25
330
9C6
100
AcDbEntity
  8
OBJECT
100
AcDbLine
 10
87.14953973111255
 20
127.8469835608664
 30
0.0
 11
87.14953973111255
 21
125.8469835608664
 31
0.0
  0
LINE
  5
F26
330
9C6
100
AcDbEntity
  8
OBJECT
100
AcDbLine
 10
86.52553973111258
 20
127.8469835608664
 30
0.0
 11
86.52553973111258
 21
125.8469835608664
 31
0.0
  0
LINE
  5
F27
330
9C6
100
AcDbEntity
  8
OBJECT
100
AcDbLine
 10
87.14953973111255
 20
126.4719835608664
 30
0.0
 11
86.52553973111258
 21
126.4719835608664
 31
0.0
  0
LINE
  5
F28
330
9C6
100
AcDbEntity
  8
OBJECT
100
AcDbLine
 10
87.14953973111255
 20
127.2219835608664
 30
0.0
 11
86.52553973111258
 21
127.2219835608664
 31
0.0
  0
LINE
  5
F29
330
9C6
100
AcDbEntity
  8
OBJECT
100
AcDbLine
 10
66.64953973111257
 20
126.4719835608664
 30
0.0
 11
66.02553973111257
 21
126.4719835608664
 31
0.0
  0
LINE
  5
F2A
330
9C6
100
AcDbEntity
  8
OBJECT
100
AcDbLine
 10
66.64953973111257
 20
127.2219835608664
 30
0.0
 11
66.02553973111257
 21
127.2219835608664
 31
0.0
  0
LINE
  5
F2B
330
9C6
100
AcDbEntity
  8
OBJECT
100
AcDbLine
 10
66.64953973111257
 20
127.8469835608664
 30
0.0
 11
66.64953973111257
 21
125.8469835608664
 31
0.0
  0
LINE
  5
F2C
330
9C6
100
AcDbEntity
  8
OBJECT
100
AcDbLine
 10
66.02553973111257
 20
127.8469835608664
 30
0.0
 11
66.02553973111257
 21
125.8469835608664
 31
0.0
  0
CIRCLE
  5
F2D
330
9C6
100
AcDbEntity
  8
OBJECT
100
AcDbCircle
 10
66.33753973111254
 20
126.8469835608664
 30
0.0
 40
0.1405
  0
LINE
  5
F2E
330
9C6
100
AcDbEntity
  8
OBJECT
100
AcDbLine
 10
65.30553973111256
 20
180.1589835608664
 30
0.0
 11
65.30553973111256
 21
156.1279835608664
 31
0.0
  0
LINE
  5
F2F
330
9C6
100
AcDbEntity
  8
OBJECT
100
AcDbLine
 10
65.30553973111256
 20
125.0969835608664
 30
0.0
 11
65.30553973111256
 21
123.7219835608664
 31
0.0
  0
LINE
  5
F30
330
9C6
100
AcDbEntity
  8
OBJECT
100
AcDbLine
 10
65.86853973111262
 20
125.0969835608664
 30
0.0
 11
65.86853973111262
 21
123.7219835608664
 31
0.0
  0
LINE
  5
F31
330
9C6
100
AcDbEntity
  8
OBJECT
100
AcDbLine
 10
87.86953973111256
 20
128.5969835608663
 30
0.0
 11
87.86953973111256
 21
149.7982058322964
 31
0.0
  0
LINE
  5
F32
330
9C6
100
AcDbEntity
  8
OBJECT
100
AcDbLine
 10
65.86853973111262
 20
180.1589835608664
 30
0.0
 11
65.86853973111262
 21
156.1279835608664
 31
0.0
  0
LINE
  5
F33
330
9C6
100
AcDbEntity
  8
OBJECT
100
AcDbLine
 10
87.30653973111254
 20
128.5969835608663
 30
0.0
 11
87.30653973111254
 21
150.405529811576
 31
0.0
  0
LINE
  5
F34
330
9C6
100
AcDbEntity
  8
OBJECT
100
AcDbLine
 10
88.55628973111254
 20
128.5969835608663
 30
0.0
 11
86.02628973111245
 21
128.5969835608663
 31
0.0
  0
LINE
  5
F35
330
9C6
100
AcDbEntity
  8
OBJECT
100
AcDbLine
 10
88.55628973111254
 20
127.9719835608664
 30
0.0
 11
86.02628973111245
 21
127.9719835608664
 31
0.0
  0
LINE
  5
F36
330
9C6
100
AcDbEntity
  8
OBJECT
100
AcDbLine
 10
88.55628973111254
 20
125.7219835608664
 30
0.0
 11
86.02628973111245
 21
125.7219835608664
 31
0.0
  0
LINE
  5
F37
330
9C6
100
AcDbEntity
  8
OBJECT
100
AcDbLine
 10
88.55628973111254
 20
125.0969835608664
 30
0.0
 11
86.02628973111245
 21
125.0969835608664
 31
0.0
  0
CIRCLE
  5
F38
330
9C6
100
AcDbEntity
  8
OBJECT
100
AcDbCircle
 10
71.08778973111255
 20
128.2219835608664
 30
0.0
 40
0.1405
  0
CIRCLE
  5
F39
330
9C6
100
AcDbEntity
  8
OBJECT
100
AcDbCircle
 10
71.08778973111255
 20
125.4719835608664
 30
0.0
 40
0.1405
  0
CIRCLE
  5
F3A
330
9C6
100
AcDbEntity
  8
OBJECT
100
AcDbCircle
 10
71.58778973111255
 20
128.2219835608664
 30
0.0
 40
0.1405
  0
CIRCLE
  5
F3B
330
9C6
100
AcDbEntity
  8
OBJECT
100
AcDbCircle
 10
72.21278973111252
 20
128.2219835608664
 30
0.0
 40
0.1405
  0
CIRCLE
  5
F3C
330
9C6
100
AcDbEntity
  8
OBJECT
100
AcDbCircle
 10
72.83778973111252
 20
128.2219835608664
 30
0.0
 40
0.1405
  0
CIRCLE
  5
F3D
330
9C6
100
AcDbEntity
  8
OBJECT
100
AcDbCircle
 10
71.58778973111255
 20
125.4719835608664
 30
0.0
 40
0.1405
  0
CIRCLE
  5
F3E
330
9C6
100
AcDbEntity
  8
OBJECT
100
AcDbCircle
 10
72.21278973111252
 20
125.4719835608664
 30
0.0
 40
0.1405
  0
CIRCLE
  5
F3F
330
9C6
100
AcDbEntity
  8
OBJECT
100
AcDbCircle
 10
72.83778973111252
 20
125.4719835608664
 30
0.0
 40
0.1405
  0
CIRCLE
  5
F40
330
9C6
100
AcDbEntity
  8
OBJECT
100
AcDbCircle
 10
73.33778973111252
 20
128.2219835608664
 30
0.0
 40
0.1405
  0
CIRCLE
  5
F41
330
9C6
100
AcDbEntity
  8
OBJECT
100
AcDbCircle
 10
73.96278973111252
 20
128.2219835608664
 30
0.0
 40
0.1405
  0
CIRCLE
  5
F42
330
9C6
100
AcDbEntity
  8
OBJECT
100
AcDbCircle
 10
74.58778973111252
 20
128.2219835608664
 30
0.0
 40
0.1405
  0
CIRCLE
  5
F43
330
9C6
100
AcDbEntity
  8
OBJECT
100
AcDbCircle
 10
73.33778973111252
 20
125.4719835608664
 30
0.0
 40
0.1405
  0
CIRCLE
  5
F44
330
9C6
100
AcDbEntity
  8
OBJECT
100
AcDbCircle
 10
73.96278973111252
 20
125.4719835608664
 30
0.0
 40
0.1405
  0
CIRCLE
  5
F45
330
9C6
100
AcDbEntity
  8
OBJECT
100
AcDbCircle
 10
74.58778973111252
 20
125.4719835608664
 30
0.0
 40
0.1405
  0
CIRCLE
  5
F46
330
9C6
100
AcDbEntity
  8
OBJECT
100
AcDbCircle
 10
75.08778973111252
 20
128.2219835608664
 30
0.0
 40
0.1405
  0
CIRCLE
  5
F47
330
9C6
100
AcDbEntity
  8
OBJECT
100
AcDbCircle
 10
75.71278973111252
 20
128.2219835608664
 30
0.0
 40
0.1405
  0
CIRCLE
  5
F48
330
9C6
100
AcDbEntity
  8
OBJECT
100
AcDbCircle
 10
76.33778973111252
 20
128.2219835608664
 30
0.0
 40
0.1405
  0
CIRCLE
  5
F49
330
9C6
100
AcDbEntity
  8
OBJECT
100
AcDbCircle
 10
75.08778973111252
 20
125.4719835608664
 30
0.0
 40
0.1405
  0
CIRCLE
  5
F4A
330
9C6
100
AcDbEntity
  8
OBJECT
100
AcDbCircle
 10
75.71278973111252
 20
125.4719835608664
 30
0.0
 40
0.1405
  0
CIRCLE
  5
F4B
330
9C6
100
AcDbEntity
  8
OBJECT
100
AcDbCircle
 10
76.33778973111252
 20
125.4719835608664
 30
0.0
 40
0.1405
  0
CIRCLE
  5
F4C
330
9C6
100
AcDbEntity
  8
OBJECT
100
AcDbCircle
 10
76.83778973111248
 20
128.2219835608664
 30
0.0
 40
0.1405
  0
CIRCLE
  5
F4D
330
9C6
100
AcDbEntity
  8
OBJECT
100
AcDbCircle
 10
77.46278973111248
 20
128.2219835608664
 30
0.0
 40
0.1405
  0
CIRCLE
  5
F4E
330
9C6
100
AcDbEntity
  8
OBJECT
100
AcDbCircle
 10
78.08778973111248
 20
128.2219835608664
 30
0.0
 40
0.1405
  0
CIRCLE
  5
F4F
330
9C6
100
AcDbEntity
  8
OBJECT
100
AcDbCircle
 10
76.83778973111248
 20
125.4719835608664
 30
0.0
 40
0.1405
  0
CIRCLE
  5
F50
330
9C6
100
AcDbEntity
  8
OBJECT
100
AcDbCircle
 10
77.46278973111248
 20
125.4719835608664
 30
0.0
 40
0.1405
  0
CIRCLE
  5
F51
330
9C6
100
AcDbEntity
  8
OBJECT
100
AcDbCircle
 10
78.08778973111248
 20
125.4719835608664
 30
0.0
 40
0.1405
  0
CIRCLE
  5
F52
330
9C6
100
AcDbEntity
  8
OBJECT
100
AcDbCircle
 10
78.58778973111248
 20
128.2219835608664
 30
0.0
 40
0.1405
  0
CIRCLE
  5
F53
330
9C6
100
AcDbEntity
  8
OBJECT
100
AcDbCircle
 10
79.21278973111248
 20
128.2219835608664
 30
0.0
 40
0.1405
  0
CIRCLE
  5
F54
330
9C6
100
AcDbEntity
  8
OBJECT
100
AcDbCircle
 10
79.83778973111252
 20
128.2219835608664
 30
0.0
 40
0.1405
  0
CIRCLE
  5
F55
330
9C6
100
AcDbEntity
  8
OBJECT
100
AcDbCircle
 10
78.58778973111248
 20
125.4719835608664
 30
0.0
 40
0.1405
  0
CIRCLE
  5
F56
330
9C6
100
AcDbEntity
  8
OBJECT
100
AcDbCircle
 10
79.21278973111248
 20
125.4719835608664
 30
0.0
 40
0.1405
  0
CIRCLE
  5
F57
330
9C6
100
AcDbEntity
  8
OBJECT
100
AcDbCircle
 10
79.83778973111252
 20
125.4719835608664
 30
0.0
 40
0.1405
  0
CIRCLE
  5
F58
330
9C6
100
AcDbEntity
  8
OBJECT
100
AcDbCircle
 10
81.58778973111251
 20
128.2219835608664
 30
0.0
 40
0.1405
  0
CIRCLE
  5
F59
330
9C6
100
AcDbEntity
  8
OBJECT
100
AcDbCircle
 10
81.58778973111251
 20
125.4719835608664
 30
0.0
 40
0.1405
  0
CIRCLE
  5
F5A
330
9C6
100
AcDbEntity
  8
OBJECT
100
AcDbCircle
 10
80.96278973111251
 20
125.4719835608664
 30
0.0
 40
0.1405
  0
CIRCLE
  5
F5B
330
9C6
100
AcDbEntity
  8
OBJECT
100
AcDbCircle
 10
80.33778973111251
 20
125.4719835608664
 30
0.0
 40
0.1405
  0
CIRCLE
  5
F5C
330
9C6
100
AcDbEntity
  8
OBJECT
100
AcDbCircle
 10
80.96278973111251
 20
128.2219835608664
 30
0.0
 40
0.1405
  0
CIRCLE
  5
F5D
330
9C6
100
AcDbEntity
  8
OBJECT
100
AcDbCircle
 10
80.33778973111251
 20
128.2219835608664
 30
0.0
 40
0.1405
  0
CIRCLE
  5
F5E
330
9C6
100
AcDbEntity
  8
OBJECT
100
AcDbCircle
 10
82.08778973111252
 20
125.4719835608664
 30
0.0
 40
0.1405
  0
CIRCLE
  5
F5F
330
9C6
100
AcDbEntity
  8
OBJECT
100
AcDbCircle
 10
82.08778973111252
 20
128.2219835608664
 30
0.0
 40
0.1405
  0
CIRCLE
  5
F60
330
9C6
100
AcDbEntity
  8
OBJECT
100
AcDbCircle
 10
64.19753973111257
 20
125.8629835608664
 30
0.0
 40
0.1405
  0
CIRCLE
  5
F61
330
9C6
100
AcDbEntity
  8
OBJECT
100
AcDbCircle
 10
64.19753973111257
 20
126.5499835608664
 30
0.0
 40
0.1405
  0
CIRCLE
  5
F62
330
9C6
100
AcDbEntity
  8
OBJECT
100
AcDbCircle
 10
64.19753973111257
 20
128.2379835608664
 30
0.0
 40
0.1405
  0
CIRCLE
  5
F63
330
9C6
100
AcDbEntity
  8
OBJECT
100
AcDbCircle
 10
64.19753973111257
 20
128.9249835608664
 30
0.0
 40
0.1405
  0
ARC
  5
F64
330
9C6
100
AcDbEntity
  8
OBJECT
100
AcDbCircle
 10
64.19753973111257
 20
182.8929835608663
 30
0.0
 40
0.1405
100
AcDbArc
 50
198.3848616853954
 51
31.41585619837533
  0
CIRCLE
  5
F65
330
9C6
100
AcDbEntity
  8
OBJECT
100
AcDbCircle
 10
64.19753973111257
 20
180.5179835608663
 30
0.0
 40
0.1405
  0
CIRCLE
  5
F66
330
9C6
100
AcDbEntity
  8
OBJECT
100
AcDbCircle
 10
64.19753973111257
 20
182.2059835608664
 30
0.0
 40
0.1405
  0
CIRCLE
  5
F67
330
9C6
100
AcDbEntity
  8
OBJECT
100
AcDbCircle
 10
64.19753973111257
 20
179.8309835608663
 30
0.0
 40
0.1405
  0
CIRCLE
  5
F68
330
9C6
100
AcDbEntity
  8
OBJECT
100
AcDbCircle
 10
88.97753973111255
 20
125.8629835608664
 30
0.0
 40
0.1405
  0
CIRCLE
  5
F69
330
9C6
100
AcDbEntity
  8
OBJECT
100
AcDbCircle
 10
88.97753973111255
 20
128.2379835608664
 30
0.0
 40
0.1405
  0
CIRCLE
  5
F6A
330
9C6
100
AcDbEntity
  8
OBJECT
100
AcDbCircle
 10
88.97753973111255
 20
126.5499835608664
 30
0.0
 40
0.1405
  0
CIRCLE
  5
F6B
330
9C6
100
AcDbEntity
  8
OBJECT
100
AcDbCircle
 10
88.97753973111255
 20
128.9249835608664
 30
0.0
 40
0.1405
  0
CIRCLE
  5
F6C
330
9C6
100
AcDbEntity
  8
OBJECT
100
AcDbCircle
 10
66.33753973111254
 20
154.3779835608664
 30
0.0
 40
0.1405
  0
LINE
  5
F6D
330
9C6
100
AcDbEntity
  8
OBJECT
100
AcDbLine
 10
66.02553973111257
 20
155.3779835608664
 30
0.0
 11
66.02553973111257
 21
153.3779835608664
 31
0.0
  0
LINE
  5
F6E
330
9C6
100
AcDbEntity
  8
OBJECT
100
AcDbLine
 10
66.64953973111257
 20
155.3779835608664
 30
0.0
 11
66.64953973111257
 21
153.3779835608664
 31
0.0
  0
LINE
  5
F6F
330
9C6
100
AcDbEntity
  8
OBJECT
100
AcDbLine
 10
64.61878973111254
 20
152.6279835608664
 30
0.0
 11
64.61878973111254
 21
156.1279835608664
 31
0.0
  0
CIRCLE
  5
F70
330
9C6
100
AcDbEntity
  8
OBJECT
100
AcDbCircle
 10
65.83778973111254
 20
153.0029835608664
 30
0.0
 40
0.1405
  0
CIRCLE
  5
F71
330
9C6
100
AcDbEntity
  8
OBJECT
100
AcDbCircle
 10
65.21278973111254
 20
153.0029835608664
 30
0.0
 40
0.1405
  0
LINE
  5
F72
330
9C6
100
AcDbEntity
  8
OBJECT
100
AcDbLine
 10
66.64953973111257
 20
154.0029835608664
 30
0.0
 11
66.02553973111257
 21
154.0029835608664
 31
0.0
  0
CIRCLE
  5
F73
330
9C6
100
AcDbEntity
  8
OBJECT
100
AcDbCircle
 10
66.33778973111254
 20
153.0029835608664
 30
0.0
 40
0.1405
  0
CIRCLE
  5
F74
330
9C6
100
AcDbEntity
  8
OBJECT
100
AcDbCircle
 10
66.96278973111254
 20
153.0029835608664
 30
0.0
 40
0.1405
  0
CIRCLE
  5
F75
330
9C6
100
AcDbEntity
  8
OBJECT
100
AcDbCircle
 10
72.21278973111252
 20
153.0029835608664
 30
0.0
 40
0.1405
  0
CIRCLE
  5
F76
330
9C6
100
AcDbEntity
  8
OBJECT
100
AcDbCircle
 10
71.58778973111255
 20
153.0029835608664
 30
0.0
 40
0.1405
  0
CIRCLE
  5
F77
330
9C6
100
AcDbEntity
  8
OBJECT
100
AcDbCircle
 10
71.08778973111255
 20
153.0029835608664
 30
0.0
 40
0.1405
  0
CIRCLE
  5
F78
330
9C6
100
AcDbEntity
  8
OBJECT
100
AcDbCircle
 10
73.96278973111252
 20
153.0029835608664
 30
0.0
 40
0.1405
  0
CIRCLE
  5
F79
330
9C6
100
AcDbEntity
  8
OBJECT
100
AcDbCircle
 10
73.33778973111252
 20
153.0029835608664
 30
0.0
 40
0.1405
  0
CIRCLE
  5
F7A
330
9C6
100
AcDbEntity
  8
OBJECT
100
AcDbCircle
 10
72.83778973111252
 20
153.0029835608664
 30
0.0
 40
0.1405
  0
CIRCLE
  5
F7B
330
9C6
100
AcDbEntity
  8
OBJECT
100
AcDbCircle
 10
77.46278973111248
 20
153.0029835608664
 30
0.0
 40
0.1405
  0
CIRCLE
  5
F7C
330
9C6
100
AcDbEntity
  8
OBJECT
100
AcDbCircle
 10
75.71278973111252
 20
153.0029835608664
 30
0.0
 40
0.1405
  0
CIRCLE
  5
F7D
330
9C6
100
AcDbEntity
  8
OBJECT
100
AcDbCircle
 10
75.08778973111252
 20
153.0029835608664
 30
0.0
 40
0.1405
  0
CIRCLE
  5
F7E
330
9C6
100
AcDbEntity
  8
OBJECT
100
AcDbCircle
 10
74.58778973111252
 20
153.0029835608664
 30
0.0
 40
0.1405
  0
CIRCLE
  5
F7F
330
9C6
100
AcDbEntity
  8
OBJECT
100
AcDbCircle
 10
76.83778973111248
 20
153.0029835608664
 30
0.0
 40
0.1405
  0
CIRCLE
  5
F80
330
9C6
100
AcDbEntity
  8
OBJECT
100
AcDbCircle
 10
76.33778973111252
 20
153.0029835608664
 30
0.0
 40
0.1405
  0
CIRCLE
  5
F81
330
9C6
100
AcDbEntity
  8
OBJECT
100
AcDbCircle
 10
78.58778973111248
 20
153.0029835608664
 30
0.0
 40
0.1405
  0
CIRCLE
  5
F82
330
9C6
100
AcDbEntity
  8
OBJECT
100
AcDbCircle
 10
78.08778973111248
 20
153.0029835608664
 30
0.0
 40
0.1405
  0
CIRCLE
  5
F83
330
9C6
100
AcDbEntity
  8
OBJECT
100
AcDbCircle
 10
80.33778973111248
 20
153.0029835608664
 30
0.0
 40
0.1405
  0
CIRCLE
  5
F84
330
9C6
100
AcDbEntity
  8
OBJECT
100
AcDbCircle
 10
79.83778973111248
 20
153.0029835608664
 30
0.0
 40
0.1405
  0
CIRCLE
  5
F85
330
9C6
100
AcDbEntity
  8
OBJECT
100
AcDbCircle
 10
79.21278973111248
 20
153.0029835608664
 30
0.0
 40
0.1405
  0
CIRCLE
  5
F86
330
9C6
100
AcDbEntity
  8
OBJECT
100
AcDbCircle
 10
65.83778973111254
 20
155.7529835608664
 30
0.0
 40
0.1405
  0
CIRCLE
  5
F87
330
9C6
100
AcDbEntity
  8
OBJECT
100
AcDbCircle
 10
65.21278973111254
 20
155.7529835608664
 30
0.0
 40
0.1405
  0
LINE
  5
F88
330
9C6
100
AcDbEntity
  8
OBJECT
100
AcDbLine
 10
66.64953973111257
 20
154.7529835608664
 30
0.0
 11
66.02553973111257
 21
154.7529835608664
 31
0.0
  0
CIRCLE
  5
F89
330
9C6
100
AcDbEntity
  8
OBJECT
100
AcDbCircle
 10
66.96278973111254
 20
155.7529835608664
 30
0.0
 40
0.1405
  0
CIRCLE
  5
F8A
330
9C6
100
AcDbEntity
  8
OBJECT
100
AcDbCircle
 10
66.33778973111254
 20
155.7529835608664
 30
0.0
 40
0.1405
  0
CIRCLE
  5
F8B
330
9C6
100
AcDbEntity
  8
OBJECT
100
AcDbCircle
 10
72.21278973111252
 20
155.7529835608664
 30
0.0
 40
0.1405
  0
CIRCLE
  5
F8C
330
9C6
100
AcDbEntity
  8
OBJECT
100
AcDbCircle
 10
71.58778973111255
 20
155.7529835608664
 30
0.0
 40
0.1405
  0
CIRCLE
  5
F8D
330
9C6
100
AcDbEntity
  8
OBJECT
100
AcDbCircle
 10
71.08778973111255
 20
155.7529835608664
 30
0.0
 40
0.1405
  0
CIRCLE
  5
F8E
330
9C6
100
AcDbEntity
  8
OBJECT
100
AcDbCircle
 10
73.96278973111252
 20
155.7529835608664
 30
0.0
 40
0.1405
  0
CIRCLE
  5
F8F
330
9C6
100
AcDbEntity
  8
OBJECT
100
AcDbCircle
 10
73.33778973111252
 20
155.7529835608664
 30
0.0
 40
0.1405
  0
CIRCLE
  5
F90
330
9C6
100
AcDbEntity
  8
OBJECT
100
AcDbCircle
 10
72.83778973111252
 20
155.7529835608664
 30
0.0
 40
0.1405
  0
CIRCLE
  5
F91
330
9C6
100
AcDbEntity
  8
OBJECT
100
AcDbCircle
 10
77.46278973111248
 20
155.7529835608664
 30
0.0
 40
0.1405
  0
CIRCLE
  5
F92
330
9C6
100
AcDbEntity
  8
OBJECT
100
AcDbCircle
 10
75.71278973111252
 20
155.7529835608664
 30
0.0
 40
0.1405
  0
CIRCLE
  5
F93
330
9C6
100
AcDbEntity
  8
OBJECT
100
AcDbCircle
 10
75.08778973111252
 20
155.7529835608664
 30
0.0
 40
0.1405
  0
CIRCLE
  5
F94
330
9C6
100
AcDbEntity
  8
OBJECT
100
AcDbCircle
 10
74.58778973111252
 20
155.7529835608664
 30
0.0
 40
0.1405
  0
CIRCLE
  5
F95
330
9C6
100
AcDbEntity
  8
OBJECT
100
AcDbCircle
 10
76.83778973111248
 20
155.7529835608664
 30
0.0
 40
0.1405
  0
CIRCLE
  5
F96
330
9C6
100
AcDbEntity
  8
OBJECT
100
AcDbCircle
 10
76.33778973111252
 20
155.7529835608664
 30
0.0
 40
0.1405
  0
CIRCLE
  5
F97
330
9C6
100
AcDbEntity
  8
OBJECT
100
AcDbCircle
 10
78.58778973111248
 20
155.7529835608664
 30
0.0
 40
0.1405
  0
CIRCLE
  5
F98
330
9C6
100
AcDbEntity
  8
OBJECT
100
AcDbCircle
 10
78.08778973111248
 20
155.7529835608664
 30
0.0
 40
0.1405
  0
CIRCLE
  5
F99
330
9C6
100
AcDbEntity
  8
OBJECT
100
AcDbCircle
 10
80.33778973111248
 20
155.7529835608664
 30
0.0
 40
0.1405
  0
CIRCLE
  5
F9A
330
9C6
100
AcDbEntity
  8
OBJECT
100
AcDbCircle
 10
79.83778973111248
 20
155.7529835608664
 30
0.0
 40
0.1405
  0
CIRCLE
  5
F9B
330
9C6
100
AcDbEntity
  8
OBJECT
100
AcDbCircle
 10
79.21278973111248
 20
155.7529835608664
 30
0.0
 40
0.1405
  0
CIRCLE
  5
F9C
330
9C6
100
AcDbEntity
  8
OBJECT
100
AcDbCircle
 10
82.08778973111249
 20
153.0029835608664
 30
0.0
 40
0.1405
  0
CIRCLE
  5
F9D
330
9C6
100
AcDbEntity
  8
OBJECT
100
AcDbCircle
 10
80.96278973111248
 20
153.0029835608664
 30
0.0
 40
0.1405
  0
CIRCLE
  5
F9E
330
9C6
100
AcDbEntity
  8
OBJECT
100
AcDbCircle
 10
81.58778973111248
 20
153.0029835608664
 30
0.0
 40
0.1405
  0
CIRCLE
  5
F9F
330
9C6
100
AcDbEntity
  8
OBJECT
100
AcDbCircle
 10
80.96278973111248
 20
155.7529835608664
 30
0.0
 40
0.1405
  0
CIRCLE
  5
FA0
330
9C6
100
AcDbEntity
  8
OBJECT
100
AcDbCircle
 10
81.58778973111248
 20
155.7529835608664
 30
0.0
 40
0.1405
  0
LINE
  5
FA1
330
9C6
100
AcDbEntity
  8
OBJECT
100
AcDbLine
 10
65.30553973111256
 20
152.6279835608664
 30
0.0
 11
65.30553973111256
 21
128.5969835608663
 31
0.0
  0
LINE
  5
FA2
330
9C6
100
AcDbEntity
  8
OBJECT
100
AcDbLine
 10
65.86853973111262
 20
152.6279835608664
 30
0.0
 11
65.86853973111262
 21
128.5969835608663
 31
0.0
  0
CIRCLE
  5
FA3
330
9C6
100
AcDbEntity
  8
OBJECT
100
AcDbCircle
 10
70.46278973111255
 20
125.4719835608664
 30
0.0
 40
0.1405
  0
CIRCLE
  5
FA4
330
9C6
100
AcDbEntity
  8
OBJECT
100
AcDbCircle
 10
68.71278973111254
 20
125.4719835608664
 30
0.0
 40
0.1405
  0
CIRCLE
  5
FA5
330
9C6
100
AcDbEntity
  8
OBJECT
100
AcDbCircle
 10
68.08778973111254
 20
125.4719835608664
 30
0.0
 40
0.1405
  0
CIRCLE
  5
FA6
330
9C6
100
AcDbEntity
  8
OBJECT
100
AcDbCircle
 10
67.58778973111254
 20
125.4719835608664
 30
0.0
 40
0.1405
  0
CIRCLE
  5
FA7
330
9C6
100
AcDbEntity
  8
OBJECT
100
AcDbCircle
 10
69.83778973111253
 20
125.4719835608664
 30
0.0
 40
0.1405
  0
CIRCLE
  5
FA8
330
9C6
100
AcDbEntity
  8
OBJECT
100
AcDbCircle
 10
69.33778973111254
 20
125.4719835608664
 30
0.0
 40
0.1405
  0
CIRCLE
  5
FA9
330
9C6
100
AcDbEntity
  8
OBJECT
100
AcDbCircle
 10
70.46278973111255
 20
128.2219835608664
 30
0.0
 40
0.1405
  0
CIRCLE
  5
FAA
330
9C6
100
AcDbEntity
  8
OBJECT
100
AcDbCircle
 10
68.71278973111254
 20
128.2219835608664
 30
0.0
 40
0.1405
  0
CIRCLE
  5
FAB
330
9C6
100
AcDbEntity
  8
OBJECT
100
AcDbCircle
 10
68.08778973111254
 20
128.2219835608664
 30
0.0
 40
0.1405
  0
CIRCLE
  5
FAC
330
9C6
100
AcDbEntity
  8
OBJECT
100
AcDbCircle
 10
67.58778973111254
 20
128.2219835608664
 30
0.0
 40
0.1405
  0
CIRCLE
  5
FAD
330
9C6
100
AcDbEntity
  8
OBJECT
100
AcDbCircle
 10
69.83778973111253
 20
128.2219835608664
 30
0.0
 40
0.1405
  0
CIRCLE
  5
FAE
330
9C6
100
AcDbEntity
  8
OBJECT
100
AcDbCircle
 10
69.33778973111254
 20
128.2219835608664
 30
0.0
 40
0.1405
  0
CIRCLE
  5
FAF
330
9C6
100
AcDbEntity
  8
OBJECT
100
AcDbCircle
 10
70.46278973111255
 20
155.7529835608664
 30
0.0
 40
0.1405
  0
CIRCLE
  5
FB0
330
9C6
100
AcDbEntity
  8
OBJECT
100
AcDbCircle
 10
70.46278973111255
 20
153.0029835608664
 30
0.0
 40
0.1405
  0
CIRCLE
  5
FB1
330
9C6
100
AcDbEntity
  8
OBJECT
100
AcDbCircle
 10
68.71278973111254
 20
153.0029835608664
 30
0.0
 40
0.1405
  0
CIRCLE
  5
FB2
330
9C6
100
AcDbEntity
  8
OBJECT
100
AcDbCircle
 10
67.58778973111254
 20
153.0029835608664
 30
0.0
 40
0.1405
  0
CIRCLE
  5
FB3
330
9C6
100
AcDbEntity
  8
OBJECT
100
AcDbCircle
 10
68.08778973111254
 20
153.0029835608664
 30
0.0
 40
0.1405
  0
CIRCLE
  5
FB4
330
9C6
100
AcDbEntity
  8
OBJECT
100
AcDbCircle
 10
69.33778973111254
 20
153.0029835608664
 30
0.0
 40
0.1405
  0
CIRCLE
  5
FB5
330
9C6
100
AcDbEntity
  8
OBJECT
100
AcDbCircle
 10
69.83778973111253
 20
153.0029835608664
 30
0.0
 40
0.1405
  0
CIRCLE
  5
FB6
330
9C6
100
AcDbEntity
  8
OBJECT
100
AcDbCircle
 10
68.71278973111254
 20
155.7529835608664
 30
0.0
 40
0.1405
  0
CIRCLE
  5
FB7
330
9C6
100
AcDbEntity
  8
OBJECT
100
AcDbCircle
 10
67.58778973111254
 20
155.7529835608664
 30
0.0
 40
0.1405
  0
CIRCLE
  5
FB8
330
9C6
100
AcDbEntity
  8
OBJECT
100
AcDbCircle
 10
68.08778973111254
 20
155.7529835608664
 30
0.0
 40
0.1405
  0
CIRCLE
  5
FB9
330
9C6
100
AcDbEntity
  8
OBJECT
100
AcDbCircle
 10
69.33778973111254
 20
155.7529835608664
 30
0.0
 40
0.1405
  0
CIRCLE
  5
FBA
330
9C6
100
AcDbEntity
  8
OBJECT
100
AcDbCircle
 10
69.83778973111253
 20
155.7529835608664
 30
0.0
 40
0.1405
  0
CIRCLE
  5
FBB
330
9C6
100
AcDbEntity
  8
OBJECT
100
AcDbCircle
 10
68.71278973111254
 20
180.5339835608664
 30
0.0
 40
0.1405
  0
CIRCLE
  5
FBC
330
9C6
100
AcDbEntity
  8
OBJECT
100
AcDbCircle
 10
68.08778973111254
 20
180.5339835608664
 30
0.0
 40
0.1405
  0
CIRCLE
  5
FBD
330
9C6
100
AcDbEntity
  8
OBJECT
100
AcDbCircle
 10
67.58778973111254
 20
180.5339835608664
 30
0.0
 40
0.1405
  0
CIRCLE
  5
FBE
330
9C6
100
AcDbEntity
  8
OBJECT
100
AcDbCircle
 10
69.83778973111253
 20
180.5339835608664
 30
0.0
 40
0.1405
  0
CIRCLE
  5
FBF
330
9C6
100
AcDbEntity
  8
OBJECT
100
AcDbCircle
 10
69.33778973111254
 20
180.5339835608664
 30
0.0
 40
0.1405
  0
ARC
  5
FC0
330
9C6
100
AcDbEntity
  8
OBJECT
100
AcDbCircle
 10
68.08778973111254
 20
183.2839835608664
 30
0.0
 40
0.1405
100
AcDbArc
 50
136.5649843200886
 51
329.5172969457033
  0
CIRCLE
  5
FC1
330
9C6
100
AcDbEntity
  8
OBJECT
100
AcDbCircle
 10
67.58778973111254
 20
183.2839835608664
 30
0.0
 40
0.1405
  0
ARC
  5
FC2
330
9C6
100
AcDbEntity
  8
OBJECT
100
AcDbCircle
 10
82.71228973111261
 20
153.0029835608664
 30
0.0
 40
0.1405
100
AcDbArc
 50
140.9039676302309
 51
261.2553913946376
  0
CIRCLE
  5
FC3
330
9C6
100
AcDbEntity
  8
OBJECT
100
AcDbCircle
 10
82.71228973111254
 20
128.2219835608664
 30
0.0
 40
0.1405
  0
CIRCLE
  5
FC4
330
9C6
100
AcDbEntity
  8
OBJECT
100
AcDbCircle
 10
83.33728973111254
 20
128.2219835608664
 30
0.0
 40
0.1405
  0
CIRCLE
  5
FC5
330
9C6
100
AcDbEntity
  8
OBJECT
100
AcDbCircle
 10
82.71228973111254
 20
125.4719835608664
 30
0.0
 40
0.1405
  0
CIRCLE
  5
FC6
330
9C6
100
AcDbEntity
  8
OBJECT
100
AcDbCircle
 10
83.33728973111254
 20
125.4719835608664
 30
0.0
 40
0.1405
  0
LWPOLYLINE
  5
FC7
330
9C6
100
AcDbEntity
  8
OBJECT
100
AcDbPolyline
 90
        4
 70
     1
 43
0.0
 10
65.61828973111257
 20
126.7219835608664
 10
65.68128973111254
 20
126.7219835608664
 42
1.0
 10
65.68128973111254
 20
126.9719835608664
 10
65.61828973111257
 20
126.9719835608664
 42
1.0
  0
LWPOLYLINE
  5
FCD
330
9C6
100
AcDbEntity
  8
OBJECT
100
AcDbPolyline
 90
        4
 70
     1
 43
0.0
 10
87.55678973111253
 20
126.7219835608664
 10
87.49378973111252
 20
126.7219835608664
 42
-1.0
 10
87.49378973111252
 20
126.9719835608664
 10
87.55678973111253
 20
126.9719835608664
 42
-1.0
  0
LWPOLYLINE
  5
FD3
330
9C6
100
AcDbEntity
  8
OBJECT
100
AcDbPolyline
 90
        4
 70
     1
 43
0.0
 10
65.61828973111257
 20
154.2529835608664
 10
65.68128973111254
 20
154.2529835608664
 42
1.0
 10
65.68128973111254
 20
154.5029835608664
 10
65.61828973111257
 20
154.5029835608664
 42
1.0
  0
LWPOLYLINE
  5
FD9
330
9C6
100
AcDbEntity
  8
OBJECT
100
AcDbPolyline
 90
        4
 70
     1
 43
0.0
 10
65.61828973111257
 20
181.7839835608662
 10
65.68128973111254
 20
181.7839835608662
 42
1.0
 10
65.68128973111254
 20
182.0339835608662
 10
65.61828973111257
 20
182.0339835608662
 42
1.0
  0
LINE
  5
FDF
330
9C6
100
AcDbEntity
  8
OBJECT
100
AcDbLine
 10
67.02645997325129
 20
183.6589835608664
 30
0.0
 11
66.52485613970674
 21
183.6589835608664
 31
0.0
  0
LINE
  5
FE0
330
9C6
100
AcDbEntity
  8
OBJECT
100
AcDbLine
 10
68.44640410592067
 20
183.0339835608663
 30
0.0
 11
64.61878973111254
 21
183.0339835608663
 31
0.0
  0
LINE
  5
FE1
330
9C6
100
AcDbEntity
  8
OBJECT
100
AcDbLine
 10
70.05491484679494
 20
180.7839835608664
 30
0.0
 11
64.61878973111254
 21
180.7839835608664
 31
0.0
  0
LINE
  5
FE2
330
9C6
100
AcDbEntity
  8
OBJECT
100
AcDbLine
 10
70.50524912624502
 20
180.1589835608664
 30
0.0
 11
64.61878973111254
 21
180.1589835608664
 31
0.0
  0
LINE
  5
FE3
330
9C6
100
AcDbEntity
  8
OBJECT
100
AcDbLine
 10
81.97557863465
 20
155.5029835608664
 30
0.0
 11
64.61878973111254
 21
155.5029835608664
 31
0.0
  0
LINE
  5
FE4
330
9C6
100
AcDbEntity
  8
OBJECT
100
AcDbLine
 10
81.76035037297934
 20
156.1279835608664
 30
0.0
 11
64.61878973111254
 21
156.1279835608664
 31
0.0
  0
LINE
  5
FE5
330
9C6
100
AcDbEntity
  8
OBJECT
100
AcDbLine
 10
82.54103667956229
 20
153.2529835608665
 30
0.0
 11
64.61878973111254
 21
153.2529835608665
 31
0.0
  0
LINE
  5
FE6
330
9C6
100
AcDbEntity
  8
OBJECT
100
AcDbLine
 10
82.83611539705381
 20
152.6279835608664
 30
0.0
 11
64.61878973111254
 21
152.6279835608664
 31
0.0
  0
LINE
  5
FE7
330
9C6
100
AcDbEntity
  8
OBJECT
100
AcDbLine
 10
83.94828973111248
 20
128.5969835608663
 30
0.0
 11
64.61878973111254
 21
128.5969835608663
 31
0.0
  0
LINE
  5
FE8
330
9C6
100
AcDbEntity
  8
OBJECT
100
AcDbLine
 10
83.94828973111248
 20
127.9719835608664
 30
0.0
 11
64.61878973111254
 21
127.9719835608664
 31
0.0
  0
LINE
  5
FE9
330
9C6
100
AcDbEntity
  8
OBJECT
100
AcDbLine
 10
83.94828973111248
 20
125.7219835608664
 30
0.0
 11
64.61878973111254
 21
125.7219835608664
 31
0.0
  0
LINE
  5
FEA
330
9C6
100
AcDbEntity
  8
OBJECT
100
AcDbLine
 10
83.94828973111248
 20
125.0969835608664
 30
0.0
 11
64.61878973111254
 21
125.0969835608664
 31
0.0
  0
LINE
  5
FEB
330
9C6
100
AcDbEntity
  8
CENTER
100
AcDbLine
 10
119.9396313817309
 20
93.73725197445484
 30
0.0
 11
121.9196313817308
 21
93.73725197445484
 31
0.0
  0
LINE
  5
FEC
330
9C6
100
AcDbEntity
  8
CENTER
100
AcDbLine
 10
120.9296313817308
 20
92.7472519744548
 30
0.0
 11
120.9296313817308
 21
94.72725197445484
 31
0.0
  0
DIMENSION
  5
FED
330
9C6
100
AcDbEntity
  8
DIM
100
AcDbDimension
  2
*D26
 10
34.85222723463016
 20
118.3969835608664
 30
0.0
 11
30.30572723463018
 21
118.3969835608664
 31
0.0
 70
    32
 71
     5
 42
9.092999999999964
  3
23NSTD
100
AcDbAlignedDimension
 13
25.75922723463019
 23
122.4089835608664
 33
0.0
 14
34.85222723463016
 24
122.4089835608664
 34
0.0
100
AcDbRotatedDimension
  0
DIMENSION
  5
FFA
330
9C6
100
AcDbEntity
  8
DIM
100
AcDbDimension
  2
*D27
 10
41.30572723463017
 20
114.1819835608665
 30
0.0
 11
38.07897723463016
 21
114.1819835608665
 31
0.0
 70
   160
 71
     5
 42
6.453500000000005
  3
23NSTD
100
AcDbAlignedDimension
 13
34.85222723463016
 23
122.4089835608664
 33
0.0
 14
41.30572723463017
 24
121.0969835608664
 34
0.0
100
AcDbRotatedDimension
  0
DIMENSION
  5
1008
330
9C6
100
AcDbEntity
  8
DIM
100
AcDbDimension
  2
*D28
 10
13.90572723463012
 20
121.0969835608664
 30
0.0
 11
7.511977234630101
 21
115.6969835608664
 31
0.0
 70
    32
 71
     5
 42
1.311999999999997
  3
23NSTD
100
AcDbAlignedDimension
 13
25.75922723463019
 23
122.4089835608664
 33
0.0
 14
19.30572723463012
 24
121.0969835608664
 34
0.0
 50
90.0
100
AcDbRotatedDimension
  0
DIMENSION
  5
1016
330
9C6
100
AcDbEntity
  8
DIM
100
AcDbDimension
  2
*D29
 10
50.36465191772103
 20
183.2839835608664
 30
0.0
 11
50.364651917721
 21
154.3779835608664
 31
0.0
 70
    32
  1
F
 71
     5
 42
57.812
  3
23NSTD
100
AcDbAlignedDimension
 13
65.21278973111254
 23
125.4719835608664
 33
0.0
 14
65.21278973111254
 24
183.2839835608664
 34
0.0
 50
90.0
100
AcDbRotatedDimension
  0
DIMENSION
  5
1024
330
9C6
100
AcDbEntity
  8
DIM
100
AcDbDimension
  2
*D30
 10
137.3296313817307
 20
82.81525197445487
 30
0.0
 11
143.9577563817307
 21
88.21525197445488
 31
0.0
 70
    32
 71
     5
 42
1.828000000000031
  3
23NSTD
100
AcDbAlignedDimension
 13
131.9296313817308
 23
80.98725197445483
 33
0.0
 14
125.4761313817308
 24
82.81525197445487
 34
0.0
 50
90.0
100
AcDbRotatedDimension
  0
LWPOLYLINE
  5
1032
330
9C6
100
AcDbEntity
  8
OBJECT
100
AcDbPolyline
 90
       67
 70
     0
 43
0.0
 10
63.83753973111256
 20
182.7434510994881
 10
65.38396168581707
 20
183.461288046776
 10
66.81013461995252
 20
183.708416946767
 10
67.87279407910347
 20
183.4655843137715
 10
68.66487661594516
 20
182.8695985337445
 10
69.27931878315281
 20
182.0572679926421
 10
69.80905713340167
 20
181.1654010764194
 10
70.34702821936696
 20
180.3308061710319
 10
70.96489990725678
 20
179.6598181944398
 10
71.64926531741077
 20
179.1368781926207
 10
72.36544888370132
 20
178.7159537435561
 10
73.07877504000098
 20
178.3510124252284
 10
73.75456822018215
 20
177.9960218156191
 10
74.35815285811736
 20
177.6049494927106
 10
74.85485338767901
 20
177.1317630344846
 10
75.20999424273963
 20
176.530430018923
 10
75.40151929876522
 20
175.7695149375981
 10
75.45785019759626
 20
174.8759699364441
 10
75.42002802266681
 20
173.8913440749853
 10
75.32909385741098
 20
172.8571864127458
 10
75.22608878526276
 20
171.8150460092501
 10
75.15205388965624
 20
170.8064719240226
 10
75.1480302540254
 20
169.8730132165878
 10
75.25505896180445
 20
169.0562189464698
 10
75.50079307755891
 20
168.3857056380861
 10
75.85933359038101
 20
167.8433596754266
 10
76.29139347049442
 20
167.3991349073743
 10
76.75768568812293
 20
167.0229851828123
 10
77.21892321349027
 20
166.6848643506233
 10
77.63581901682012
 20
166.3547262596907
 10
77.96908606833631
 20
166.0025247588971
 10
78.17943733826254
 20
165.5982136971259
 10
78.24101782420562
 20
165.1196349618562
 10
78.18170063330486
 20
164.5761825949543
 10
78.0427909000825
 20
163.9851386768829
 10
77.86559375906091
 20
163.3637852881042
 10
77.69141434476245
 20
162.7294045090811
 10
77.56155779170936
 20
162.0992784202763
 10
77.51732923442403
 20
161.4906891021522
 10
77.60003380742877
 20
160.9209186351712
 10
77.83829590607826
 20
160.4018233303488
 10
78.21001696905651
 20
159.9235564209095
 10
78.68041769587991
 20
159.4708453706306
 10
79.21471878606476
 20
159.0284176432894
 10
79.77814093912745
 20
158.5810007026631
 10
80.33590485458434
 20
158.1133220125289
 10
80.85323123195186
 20
157.6101090366639
 10
81.29534077074621
 20
157.0560892388456
 10
81.63720834342322
 20
156.4428317725506
 10
81.89282551419582
 20
155.7892725500524
 10
82.08593802021637
 20
155.1211891733243
 10
82.24029159863722
 20
154.4643592443391
 10
82.37963198661068
 20
153.8445603650703
 10
82.52770492128908
 20
153.2875701374906
 10
82.70825613982475
 20
152.8191661635732
 10
82.94503137937008
 20
152.4651260452914
 10
83.2564199121438
 20
152.239359524498
 10
83.63938515063095
 20
152.1083049025671
 10
84.08553404238279
 20
152.0265326207525
 10
84.58647353495079
 20
151.9486131203081
 10
85.13381057588635
 20
151.8291168424878
 10
85.71915211274083
 20
151.6226142285453
 10
86.33410509306569
 20
151.2836757197348
 10
86.97027646441226
 20
150.7668717573098
 10
87.63656852061371
 20
150.0508873134027
 10
88.41106494063001
 20
149.2108654836573
 10
89.33753973111254
 20
148.3916921773459
  0
CIRCLE
  5
1077
330
9C6
100
AcDbEntity
  8
PMR
100
AcDbCircle
 10
84.19828973111249
 20
151.5019835608663
 30
0.0
 40
0.1405
  0
LINE
  5
1078
330
9C6
100
AcDbEntity
  8
PMR
100
AcDbLine
 10
86.02628973111245
 20
123.7519835608662
 30
0.0
 11
86.02628973111249
 21
151.4533317472807
 31
0.0
  0
LINE
  5
1079
330
9C6
100
AcDbEntity
  8
PMR
100
AcDbLine
 10
83.94828973111248
 20
152.051687408103
 30
0.0
 11
83.94828973111248
 21
123.7519835608662
 31
0.0
  0
LINE
  5
107A
330
9C6
100
AcDbEntity
  8
PMR
100
AcDbLine
 10
85.91728973111246
 20
123.7519835608662
 30
0.0
 11
85.9172897311125
 21
151.5134083688149
 31
0.0
  0
LINE
  5
107B
330
9C6
100
AcDbEntity
  8
PMR
100
AcDbLine
 10
84.6352897311125
 20
151.9379554207511
 30
0.0
 11
84.6352897311125
 21
123.7519835608662
 31
0.0
  0
CIRCLE
  5
107C
330
9C6
100
AcDbEntity
  8
PMR
100
AcDbCircle
 10
84.19828973111249
 20
136.2519835608663
 30
0.0
 40
0.1405
  0
CIRCLE
  5
107D
330
9C6
100
AcDbEntity
  8
PMR
100
AcDbCircle
 10
84.19828973111249
 20
124.6269835608662
 30
0.0
 40
0.1405
  0
LINE
  5
107E
330
9C6
100
AcDbEntity
  8
PMR
100
AcDbLine
 10
83.94828973111248
 20
123.7519835608662
 30
0.0
 11
86.02628973111245
 21
123.7519835608662
 31
0.0
  0
CIRCLE
  5
107F
330
9C6
100
AcDbEntity
  8
PMR
100
AcDbCircle
 10
84.19828973111249
 20
124.0019835608662
 30
0.0
 40
0.1405
  0
CIRCLE
  5
1080
330
9C6
100
AcDbEntity
  8
PMR
100
AcDbCircle
 10
84.19828973111249
 20
127.0019835608662
 30
0.0
 40
0.1405
  0
CIRCLE
  5
1081
330
9C6
100
AcDbEntity
  8
PMR
100
AcDbCircle
 10
84.19828973111249
 20
126.3769835608662
 30
0.0
 40
0.1405
  0
CIRCLE
  5
1082
330
9C6
100
AcDbEntity
  8
PMR
100
AcDbCircle
 10
84.19828973111249
 20
127.5019835608662
 30
0.0
 40
0.1405
  0
CIRCLE
  5
1083
330
9C6
100
AcDbEntity
  8
PMR
100
AcDbCircle
 10
84.19828973111249
 20
128.1269835608663
 30
0.0
 40
0.1405
  0
CIRCLE
  5
1084
330
9C6
100
AcDbEntity
  8
PMR
100
AcDbCircle
 10
84.19828973111249
 20
125.2519835608662
 30
0.0
 40
0.1405
  0
CIRCLE
  5
1085
330
9C6
100
AcDbEntity
  8
PMR
100
AcDbCircle
 10
84.19828973111249
 20
125.7519835608662
 30
0.0
 40
0.1405
  0
CIRCLE
  5
1086
330
9C6
100
AcDbEntity
  8
PMR
100
AcDbCircle
 10
84.19828973111249
 20
132.2519835608663
 30
0.0
 40
0.1405
  0
CIRCLE
  5
1087
330
9C6
100
AcDbEntity
  8
PMR
100
AcDbCircle
 10
84.19828973111249
 20
131.6269835608663
 30
0.0
 40
0.1405
  0
CIRCLE
  5
1088
330
9C6
100
AcDbEntity
  8
PMR
100
AcDbCircle
 10
84.19828973111249
 20
130.5019835608663
 30
0.0
 40
0.1405
  0
CIRCLE
  5
1089
330
9C6
100
AcDbEntity
  8
PMR
100
AcDbCircle
 10
84.19828973111249
 20
129.8769835608663
 30
0.0
 40
0.1405
  0
CIRCLE
  5
108A
330
9C6
100
AcDbEntity
  8
PMR
100
AcDbCircle
 10
84.19828973111249
 20
131.0019835608663
 30
0.0
 40
0.1405
  0
CIRCLE
  5
108B
330
9C6
100
AcDbEntity
  8
PMR
100
AcDbCircle
 10
84.19828973111249
 20
129.2519835608663
 30
0.0
 40
0.1405
  0
CIRCLE
  5
108C
330
9C6
100
AcDbEntity
  8
PMR
100
AcDbCircle
 10
84.19828973111249
 20
128.7519835608663
 30
0.0
 40
0.1405
  0
CIRCLE
  5
108D
330
9C6
100
AcDbEntity
  8
PMR
100
AcDbCircle
 10
84.19828973111249
 20
134.0019835608663
 30
0.0
 40
0.1405
  0
CIRCLE
  5
108E
330
9C6
100
AcDbEntity
  8
PMR
100
AcDbCircle
 10
84.19828973111249
 20
135.1269835608663
 30
0.0
 40
0.1405
  0
CIRCLE
  5
108F
330
9C6
100
AcDbEntity
  8
PMR
100
AcDbCircle
 10
84.19828973111249
 20
134.5019835608663
 30
0.0
 40
0.1405
  0
CIRCLE
  5
1090
330
9C6
100
AcDbEntity
  8
PMR
100
AcDbCircle
 10
84.19828973111249
 20
135.7519835608663
 30
0.0
 40
0.1405
  0
CIRCLE
  5
1091
330
9C6
100
AcDbEntity
  8
PMR
100
AcDbCircle
 10
84.19828973111249
 20
132.7519835608663
 30
0.0
 40
0.1405
  0
CIRCLE
  5
1092
330
9C6
100
AcDbEntity
  8
PMR
100
AcDbCircle
 10
84.19828973111249
 20
133.3769835608663
 30
0.0
 40
0.1405
  0
CIRCLE
  5
1093
330
9C6
100
AcDbEntity
  8
PMR
100
AcDbCircle
 10
84.19828973111249
 20
143.8769835608663
 30
0.0
 40
0.1405
  0
CIRCLE
  5
1094
330
9C6
100
AcDbEntity
  8
PMR
100
AcDbCircle
 10
84.19828973111249
 20
139.2519835608663
 30
0.0
 40
0.1405
  0
CIRCLE
  5
1095
330
9C6
100
AcDbEntity
  8
PMR
100
AcDbCircle
 10
84.19828973111249
 20
137.5019835608663
 30
0.0
 40
0.1405
  0
CIRCLE
  5
1096
330
9C6
100
AcDbEntity
  8
PMR
100
AcDbCircle
 10
84.19828973111249
 20
138.6269835608663
 30
0.0
 40
0.1405
  0
CIRCLE
  5
1097
330
9C6
100
AcDbEntity
  8
PMR
100
AcDbCircle
 10
84.19828973111249
 20
138.0019835608663
 30
0.0
 40
0.1405
  0
CIRCLE
  5
1098
330
9C6
100
AcDbEntity
  8
PMR
100
AcDbCircle
 10
84.19828973111249
 20
139.7519835608663
 30
0.0
 40
0.1405
  0
CIRCLE
  5
1099
330
9C6
100
AcDbEntity
  8
PMR
100
AcDbCircle
 10
84.19828973111249
 20
136.8769835608663
 30
0.0
 40
0.1405
  0
CIRCLE
  5
109A
330
9C6
100
AcDbEntity
  8
PMR
100
AcDbCircle
 10
84.19828973111249
 20
141.0019835608663
 30
0.0
 40
0.1405
  0
CIRCLE
  5
109B
330
9C6
100
AcDbEntity
  8
PMR
100
AcDbCircle
 10
84.19828973111249
 20
142.7519835608663
 30
0.0
 40
0.1405
  0
CIRCLE
  5
109C
330
9C6
100
AcDbEntity
  8
PMR
100
AcDbCircle
 10
84.19828973111249
 20
142.1269835608663
 30
0.0
 40
0.1405
  0
CIRCLE
  5
109D
330
9C6
100
AcDbEntity
  8
PMR
100
AcDbCircle
 10
84.19828973111249
 20
141.5019835608663
 30
0.0
 40
0.1405
  0
CIRCLE
  5
109E
330
9C6
100
AcDbEntity
  8
PMR
100
AcDbCircle
 10
84.19828973111249
 20
143.2519835608663
 30
0.0
 40
0.1405
  0
CIRCLE
  5
109F
330
9C6
100
AcDbEntity
  8
PMR
100
AcDbCircle
 10
84.19828973111249
 20
140.3769835608663
 30
0.0
 40
0.1405
  0
CIRCLE
  5
10A0
330
9C6
100
AcDbEntity
  8
PMR
100
AcDbCircle
 10
84.19828973111249
 20
146.7519835608663
 30
0.0
 40
0.1405
  0
CIRCLE
  5
10A1
330
9C6
100
AcDbEntity
  8
PMR
100
AcDbCircle
 10
84.19828973111249
 20
146.2519835608663
 30
0.0
 40
0.1405
  0
CIRCLE
  5
10A2
330
9C6
100
AcDbEntity
  8
PMR
100
AcDbCircle
 10
84.19828973111249
 20
145.6269835608663
 30
0.0
 40
0.1405
  0
CIRCLE
  5
10A3
330
9C6
100
AcDbEntity
  8
PMR
100
AcDbCircle
 10
84.19828973111249
 20
145.0019835608663
 30
0.0
 40
0.1405
  0
CIRCLE
  5
10A4
330
9C6
100
AcDbEntity
  8
PMR
100
AcDbCircle
 10
84.19828973111249
 20
147.3769835608663
 30
0.0
 40
0.1405
  0
CIRCLE
  5
10A5
330
9C6
100
AcDbEntity
  8
PMR
100
AcDbCircle
 10
84.19828973111249
 20
144.5019835608663
 30
0.0
 40
0.1405
  0
CIRCLE
  5
10A6
330
9C6
100
AcDbEntity
  8
PMR
100
AcDbCircle
 10
84.19828973111249
 20
150.2519835608663
 30
0.0
 40
0.1405
  0
CIRCLE
  5
10A7
330
9C6
100
AcDbEntity
  8
PMR
100
AcDbCircle
 10
84.19828973111249
 20
149.7519835608663
 30
0.0
 40
0.1405
  0
CIRCLE
  5
10A8
330
9C6
100
AcDbEntity
  8
PMR
100
AcDbCircle
 10
84.19828973111249
 20
149.1269835608663
 30
0.0
 40
0.1405
  0
CIRCLE
  5
10A9
330
9C6
100
AcDbEntity
  8
PMR
100
AcDbCircle
 10
84.19828973111249
 20
150.8769835608663
 30
0.0
 40
0.1405
  0
CIRCLE
  5
10AA
330
9C6
100
AcDbEntity
  8
PMR
100
AcDbCircle
 10
84.19828973111249
 20
148.0019835608663
 30
0.0
 40
0.1405
  0
CIRCLE
  5
10AB
330
9C6
100
AcDbEntity
  8
PMR
100
AcDbCircle
 10
84.19828973111249
 20
148.5019835608663
 30
0.0
 40
0.1405
  0
ARC
  5
10AC
330
9C6
100
AcDbEntity
  8
PMR
100
AcDbCircle
 10
84.19828973111249
 20
152.0019835608663
 30
0.0
 40
0.1405
100
AcDbArc
 50
168.056240580271
 51
353.9846426896994
  0
LWPOLYLINE
  5
10AD
330
9C6
100
AcDbEntity
  8
PMR
100
AcDbPolyline
 90
        4
 70
     1
 43
0.0
 10
84.96278973111248
 20
139.8109835608662
 10
85.58778973111248
 20
139.8109835608662
 42
1.0
 10
85.58778973111248
 20
140.0609835608663
 10
84.96278973111248
 20
140.0609835608663
 42
1.0
  0
LWPOLYLINE
  5
10B3
330
9C6
100
AcDbEntity
  8
PMR
100
AcDbPolyline
 90
        4
 70
     1
 43
0.0
 10
85.58778973111248
 20
137.3109835608663
 10
84.96278973111248
 20
137.3109835608663
 42
1.0
 10
84.96278973111248
 20
137.0609835608663
 10
85.58778973111248
 20
137.0609835608663
 42
1.0
  0
LWPOLYLINE
  5
10B9
330
9C6
100
AcDbEntity
  8
PMR
100
AcDbPolyline
 90
        4
 70
     1
 43
0.0
 10
85.58778973111248
 20
128.3449835608663
 10
84.96278973111248
 20
128.3449835608663
 42
0.9999999999999992
 10
84.96278973111248
 20
128.0949835608663
 10
85.58778973111248
 20
128.0949835608663
 42
1.0
  0
LWPOLYLINE
  5
10BF
330
9C6
100
AcDbEntity
  8
PMR
100
AcDbPolyline
 90
        4
 70
     1
 43
0.0
 10
85.58778973111248
 20
126.9699835608663
 10
84.96278973111248
 20
126.9699835608663
 42
0.9999999999999992
 10
84.96278973111248
 20
126.7199835608662
 10
85.58778973111248
 20
126.7199835608662
 42
1.0
  0
LWPOLYLINE
  5
10C5
330
9C6
100
AcDbEntity
  8
PMR
100
AcDbPolyline
 90
        4
 70
     1
 43
0.0
 10
85.58778973111248
 20
125.5949835608662
 10
84.96278973111248
 20
125.5949835608662
 42
0.9999999999999992
 10
84.96278973111248
 20
125.3449835608662
 10
85.58778973111248
 20
125.3449835608662
 42
1.0
  0
LWPOLYLINE
  5
10CB
330
9C6
100
AcDbEntity
  8
PMR
100
AcDbPolyline
 90
        4
 70
     1
 43
0.0
 10
85.58778973111248
 20
124.2199835608662
 10
84.96278973111248
 20
124.2199835608662
 42
0.9999999999999992
 10
84.96278973111248
 20
123.9699835608663
 10
85.58778973111248
 20
123.9699835608663
 42
1.0
  0
DIMENSION
  5
10D1
330
9C6
100
AcDbEntity
  8
DIM
100
AcDbDimension
  2
*D31
 10
89.33753973111254
 20
191.7539835608664
 30
0.0
 11
76.58753973111254
 21
191.7539835608664
 31
0.0
 70
    32
  1
C
 71
     5
 42
25.49999999999998
  3
23NSTD
100
AcDbAlignedDimension
 13
63.83753973111256
 23
187.6589835608664
 33
0.0
 14
89.33753973111254
 24
187.6589835608664
 34
0.0
100
AcDbRotatedDimension
  0
LINE
  5
10DF
330
9C6
100
AcDbEntity
  8
HIDDEN
100
AcDbLine
 10
87.30653973111236
 20
156.1279835608664
 30
0.0
 11
81.76035037297936
 21
156.1279835608664
 31
0.0
  0
LINE
  5
10E0
330
9C6
100
AcDbEntity
  8
HIDDEN
100
AcDbLine
 10
87.30653973111236
 20
152.6279835608664
 30
0.0
 11
82.83611539705381
 21
152.6279835608664
 31
0.0
  0
LINE
  5
10E1
330
9C6
100
AcDbEntity
  8
HIDDEN
100
AcDbLine
 10
87.30653973111236
 20
180.1589835608664
 30
0.0
 11
70.50524912624499
 21
180.1589835608664
 31
0.0
  0
LINE
  5
10E2
330
9C6
100
AcDbEntity
  8
HIDDEN
100
AcDbLine
 10
87.30653973111236
 20
183.6589835608663
 30
0.0
 11
67.02645997325162
 21
183.6589835608663
 31
0.0
  0
LINE
  5
10E3
330
9C6
100
AcDbEntity
  8
HIDDEN
100
AcDbLine
 10
87.30653973111236
 20
185.0339835608663
 30
0.0
 11
87.30653973111236
 21
150.4055298115761
 31
0.0
  0
LINE
  5
10E4
330
9C6
100
AcDbEntity
  8
OBJECT
100
AcDbLine
 10
87.85353973111247
 20
149.7982058322965
 30
0.0
 11
87.85353973111247
 21
185.0179835608663
 31
0.0
  0
LINE
  5
10E5
330
9C6
100
AcDbEntity
  8
OBJECT
100
AcDbLine
 10
87.85353973111247
 20
185.0179835608663
 30
0.0
 11
65.32153973111255
 21
185.0179835608663
 31
0.0
  0
LINE
  5
10E6
330
9C6
100
AcDbEntity
  8
OBJECT
100
AcDbLine
 10
65.32153973111255
 20
185.0179835608663
 30
0.0
 11
65.32153973111255
 21
183.4248851902372
 31
0.0
  0
LINE
  5
10E7
330
9C6
100
AcDbEntity
  8
HIDDEN
100
AcDbLine
 10
66.52485613970641
 20
183.6589835608663
 30
0.0
 11
65.30553973111256
 21
183.6589835608663
 31
0.0
  0
LINE
  5
10E8
330
9C6
100
AcDbEntity
  8
HIDDEN
100
AcDbLine
 10
86.02628973111245
 20
185.0039835608664
 30
0.0
 11
86.02628973111245
 21
183.6589835608663
 31
0.0
  0
LINE
  5
10E9
330
9C6
100
AcDbEntity
  8
HIDDEN
100
AcDbLine
 10
84.5262897311125
 20
151.957974514248
 30
0.0
 11
84.5262897311125
 21
152.6279835608664
 31
0.0
  0
LINE
  5
10EA
330
9C6
100
AcDbEntity
  8
HIDDEN
100
AcDbLine
 10
83.9482897311125
 20
152.051687408103
 30
0.0
 11
83.9482897311125
 21
152.6279835608664
 31
0.0
  0
LINE
  5
10EB
330
9C6
100
AcDbEntity
  8
HIDDEN
100
AcDbLine
 10
86.02628973111249
 20
152.6279835608664
 30
0.0
 11
86.02628973111249
 21
151.4533317472805
 31
0.0
  0
LINE
  5
10EC
330
9C6
100
AcDbEntity
  8
HIDDEN
100
AcDbLine
 10
83.9482897311125
 20
156.1279835608664
 30
0.0
 11
83.94828973111248
 21
180.1589835608664
 31
0.0
  0
LINE
  5
10ED
330
9C6
100
AcDbEntity
  8
HIDDEN
100
AcDbLine
 10
84.5262897311125
 20
156.1279835608664
 30
0.0
 11
84.5262897311125
 21
180.1589835608664
 31
0.0
  0
LINE
  5
10EE
330
9C6
100
AcDbEntity
  8
HIDDEN
100
AcDbLine
 10
86.02628973111245
 20
180.1589835608664
 30
0.0
 11
86.02628973111249
 21
156.1279835608664
 31
0.0
  0
LINE
  5
10EF
330
9C6
100
AcDbEntity
  8
HIDDEN
100
AcDbLine
 10
84.5262897311125
 20
183.6589835608663
 30
0.0
 11
84.5262897311125
 21
185.0039835608664
 31
0.0
  0
LINE
  5
10F0
330
9C6
100
AcDbEntity
  8
HIDDEN
100
AcDbLine
 10
83.94828973111248
 20
183.6589835608663
 30
0.0
 11
83.94828973111248
 21
185.0039835608664
 31
0.0
  0
LINE
  5
10F1
330
9C6
100
AcDbEntity
  8
HIDDEN
100
AcDbLine
 10
83.94828973111248
 20
185.0039835608664
 30
0.0
 11
86.02628973111245
 21
185.0039835608664
 31
0.0
  0
LWPOLYLINE
  5
10F2
330
9C6
100
AcDbEntity
  8
OBJECT
100
AcDbPolyline
 90
        5
 70
     0
 43
0.0
 10
116.1491313817308
 20
88.95675197445481
 10
125.7101313817308
 20
88.95675197445481
 10
125.7101313817308
 20
98.5177519744548
 10
116.1491313817308
 20
98.5177519744548
 10
116.1491313817308
 20
88.95675197445481
  0
TEXT
  5
10F9
330
9C6
100
AcDbEntity
  8
DIM
100
AcDbText
 10
84.51248113365272
 20
84.3129284909555
 30
0.0
 40
1.875
  1
SQUARE CUTOUT
 41
0.75
  7
TXT
 72
     2
 11
102.3249811336527
 21
84.3129284909555
 31
0.0
100
AcDbText
  0
LINE
  5
10FA
330
9C6
100
AcDbEntity
  8
TITLE
100
AcDbLine
 10
0.9299999999999783
 20
16.52999999999999
 30
0.0
 11
150.87
 21
16.52999999999999
 31
0.0
  0
LINE
  5
10FB
330
9C6
100
AcDbEntity
  8
TITLE
100
AcDbLine
 10
0.9299999999999783
 20
35.25
 30
0.0
 11
150.87
 21
35.25
 31
0.0
  0
LINE
  5
10FC
330
9C6
100
AcDbEntity
  8
TEXT
100
AcDbLine
 10
81.64702147987956
 20
18.05446522501403
 30
0.0
 11
87.3737755529371
 21
18.05446522501403
 31
0.0
  0
LINE
  5
10FD
330
9C6
100
AcDbEntity
  8
TEXT
100
AcDbLine
 10
81.64702147987956
 20
36.75599649327849
 30
0.0
 11
87.3737755529371
 21
36.75599649327849
 31
0.0
  0
TEXT
  5
10FE
330
9C6
100
AcDbEntity
  8
TEXT
100
AcDbText
 10
24.39120535714291
 20
35.8725
 30
0.0
 40
1.875
  1
21.000
 41
0.75
  7
TXT
 72
     1
 11
27.32089285714291
 21
35.8725
 31
0.0
100
AcDbText
  0
TEXT
  5
10FF
330
9C6
100
AcDbEntity
  8
TEXT
100
AcDbText
 10
5.197830642072972
 20
35.737342946409
 30
0.0
 40
1.875
  1
ER-16511
 41
0.75
  7
TXT
100
AcDbText
  0
TEXT
  5
1100
330
9C6
100
AcDbEntity
  8
TEXT
100
AcDbText
 10
38.37000000000005
 20
35.8725
 30
0.0
 40
1.875
  1
26.312
 41
0.75
  7
TXT
 72
     1
 11
41.65125000000005
 21
35.8725
 31
0.0
100
AcDbText
  0
TEXT
  5
1101
330
9C6
100
AcDbEntity
  8
TEXT
100
AcDbText
 10
95.69142857142859
 20
35.8725
 30
0.0
 40
1.875
  1
17.562
 41
0.75
  7
TXT
 72
     1
 11
98.97267857142859
 21
35.8725
 31
0.0
100
AcDbText
  0
TEXT
  5
1102
330
9C6
100
AcDbEntity
  8
TEXT
100
AcDbText
 10
112.5329464285714
 20
35.8725
 30
0.0
 40
1.875
  1
PMR-9448
 41
0.75
  7
TXT
 72
     1
 11
117.9235714285714
 21
35.8725
 31
0.0
100
AcDbText
  0
TEXT
  5
1103
330
9C6
100
AcDbEntity
  8
TEXT
100
AcDbText
 10
134.380044642857
 20
35.8725
 30
0.0
 40
1.875
  1
V-9760-L
 41
0.75
  7
TXT
 72
     1
 11
139.887857142857
 21
35.8725
 31
0.0
100
AcDbText
  0
TEXT
  5
1104
330
9C6
100
AcDbEntity
  8
TEXT
100
AcDbText
 10
24.39120535714291
 20
17.1525
 30
0.0
 40
1.875
  1
21.000
 41
0.75
  7
TXT
 72
     1
 11
27.32089285714291
 21
17.1525
 31
0.0
100
AcDbText
  0
TEXT
  5
1105
330
9C6
100
AcDbEntity
  8
TEXT
100
AcDbText
 10
5.197830642072972
 20
17.017342946409
 30
0.0
 40
1.875
  1
ER-16521
 41
0.75
  7
TXT
100
AcDbText
  0
TEXT
  5
1106
330
9C6
100
AcDbEntity
  8
TEXT
100
AcDbText
 10
38.37000000000005
 20
17.1525
 30
0.0
 40
1.875
  1
26.312
 41
0.75
  7
TXT
 72
     1
 11
41.65125000000005
 21
17.1525
 31
0.0
100
AcDbText
  0
TEXT
  5
1107
330
9C6
100
AcDbEntity
  8
TEXT
100
AcDbText
 10
95.69142857142859
 20
17.1525
 30
0.0
 40
1.875
  1
17.562
 41
0.75
  7
TXT
 72
     1
 11
98.97267857142859
 21
17.1525
 31
0.0
100
AcDbText
  0
TEXT
  5
1108
330
9C6
100
AcDbEntity
  8
TEXT
100
AcDbText
 10
112.5329464285714
 20
17.1525
 30
0.0
 40
1.875
  1
PMR-9448
 41
0.75
  7
TXT
 72
     1
 11
117.9235714285714
 21
17.1525
 31
0.0
100
AcDbText
  0
TEXT
  5
1109
330
9C6
100
AcDbEntity
  8
TEXT
100
AcDbText
 10
134.380044642857
 20
17.1525
 30
0.0
 40
1.875
  1
V-9760-L
 41
0.75
  7
TXT
 72
     1
 11
139.887857142857
 21
17.1525
 31
0.0
100
AcDbText
  0
TEXT
  5
110A
330
9C6
100
AcDbEntity
  8
TEXT
100
AcDbText
 10
5.343703385063514
 20
203.8567161046539
 30
0.0
 40
1.673999999999999
  1
3
 41
0.75
  7
TXT
 72
     4
 11
5.762203385063513
 21
204.6937161046538
 31
0.0
100
AcDbText
  0
LWPOLYLINE
  5
110B
330
9C6
100
AcDbEntity
  8
TEXT
100
AcDbPolyline
 90
        6
 70
     1
 43
0.0
 10
4.989015904564779
 20
206.0329161046538
 10
4.215828424066046
 20
204.6937161046538
 10
4.989015904564779
 20
203.3545161046538
 10
6.535390865562219
 20
203.3545161046538
 10
7.308578346061011
 20
204.6937161046538
 10
6.535390865562219
 20
206.0329161046538
  0
INSERT
  5
1113
330
9C6
100
AcDbEntity
  8
TITLE
100
AcDbBlockReference
  2
HB
 10
0.0
 20
0.0
 30
0.0
 41
15.0
 42
15.0
 43
15.0
  0
TEXT
  5
1114
330
9C6
100
AcDbEntity
  8
TEXT
100
AcDbText
 10
8.145578346061029
 20
203.8567161046538
 30
0.0
 40
1.673999999999999
  1
LOAD RATING:  1200 LBS. MAX.
 41
0.75
  7
TXT
100
AcDbText
  0
LWPOLYLINE
  5
1115
330
9C6
100
AcDbEntity
  8
OBJECT
100
AcDbPolyline
 90
        4
 70
     1
 43
0.0
 10
76.43103973111255
 20
126.3154835608663
 10
76.43103973111255
 20
127.3784835608662
 10
76.74403973111252
 20
127.3784835608662
 10
76.74403973111252
 20
126.3154835608663
  0
LWPOLYLINE
  5
111B
330
9C6
100
AcDbEntity
  8
OBJECT
100
AcDbPolyline
 90
        4
 70
     1
 43
0.0
 10
78.18103973111255
 20
126.3154835608663
 10
78.18103973111255
 20
127.3784835608662
 10
78.49403973111252
 20
127.3784835608662
 10
78.49403973111252
 20
126.3154835608663
  0
LWPOLYLINE
  5
1121
330
9C6
100
AcDbEntity
  8
OBJECT
100
AcDbPolyline
 90
        4
 70
     1
 43
0.0
 10
79.93103973111255
 20
126.3154835608663
 10
79.93103973111255
 20
127.3784835608662
 10
80.24403973111253
 20
127.3784835608662
 10
80.24403973111253
 20
126.3154835608663
  0
LWPOLYLINE
  5
1127
330
9C6
100
AcDbEntity
  8
OBJECT
100
AcDbPolyline
 90
        4
 70
     1
 43
0.0
 10
76.43103973111255
 20
153.8464835608664
 10
76.43103973111255
 20
154.9094835608664
 10
76.74403973111252
 20
154.9094835608664
 10
76.74403973111252
 20
153.8464835608664
  0
LWPOLYLINE
  5
112D
330
9C6
100
AcDbEntity
  8
OBJECT
100
AcDbPolyline
 90
        4
 70
     1
 43
0.0
 10
78.18103973111255
 20
153.8464835608664
 10
78.18103973111255
 20
154.9094835608664
 10
78.49403973111252
 20
154.9094835608664
 10
78.49403973111252
 20
153.8464835608664
  0
LWPOLYLINE
  5
1133
330
9C6
100
AcDbEntity
  8
OBJECT
100
AcDbPolyline
 90
        4
 70
     1
 43
0.0
 10
79.93103973111255
 20
153.8464835608664
 10
79.93103973111255
 20
154.9094835608664
 10
80.24403973111253
 20
154.9094835608664
 10
80.24403973111253
 20
153.8464835608664
  0
TEXT
  5
12FA
330
9C6
100
AcDbEntity
  8
TEXT
100
AcDbText
 10
138.4694229932849
 20
227.2649999999999
 30
0.0
 40
2.343214285714284
  1
1-27-11
 41
0.75
  7
TXT
 72
     1
 11
143.4487533504278
 21
227.2649999999999
 31
0.0
100
AcDbText
  0
ENDSEC
  0
SECTION
  2
OBJECTS
  0
DICTIONARY
  5
9B4
330
0
100
AcDbDictionary
281
     1
  3
ACAD_GROUP
350
9B5
  3
ACAD_LAYOUT
350
9C1
  3
ACAD_MLINESTYLE
350
9BE
  3
ACAD_PLOTSETTINGS
350
9C0
  3
ACAD_PLOTSTYLENAME
350
9B6
  0
DICTIONARY
  5
9B5
102
{ACAD_REACTORS
330
9B4
102
}
330
9B4
100
AcDbDictionary
281
     1
  0
DICTIONARY
  5
9C1
102
{ACAD_REACTORS
330
9B4
102
}
330
9B4
100
AcDbDictionary
281
     1
  3
Layout1
350
9C5
  3
Model
350
9C9
  0
DICTIONARY
  5
9BE
102
{ACAD_REACTORS
330
9B4
102
}
330
9B4
100
AcDbDictionary
281
     1
  3
Standard
350
9BF
  0
DICTIONARY
  5
9C0
102
{ACAD_REACTORS
330
9B4
102
}
330
9B4
100
AcDbDictionary
281
     1
  0
ACDBDICTIONARYWDFLT
  5
9B6
102
{ACAD_REACTORS
330
9B4
102
}
330
9B4
100
AcDbDictionary
281
     1
  3
Normal
350
9B7
100
AcDbDictionaryWithDefault
340
9B7
  0
LAYOUT
  5
9C5
102
{ACAD_REACTORS
330
9C1
102
}
330
9C1
100
AcDbPlotSettings
  1

  2
None
  4

  6

 40
0.0
 41
0.0
 42
0.0
 43
0.0
 44
0.0
 45
0.0
 46
0.0
 47
0.0
 48
0.0
 49
0.0
140
0.0
141
0.0
142
1.0
143
1.0
 70
   688
 72
     0
 73
     0
 74
     5
  7
monochrome.ctb
 75
    16
147
1.0
148
0.0
149
0.0
100
AcDbLayout
  1
Layout1
 70
     0
 71
     1
 10
0.0
 20
0.0
 11
12.0
 21
9.0
 12
0.0
 22
0.0
 32
0.0
 14
1.000000000000000E+20
 24
1.000000000000000E+20
 34
1.000000000000000E+20
 15
-1.000000000000000E+20
 25
-1.000000000000000E+20
 35
-1.000000000000000E+20
146
0.0
 13
0.0
 23
0.0
 33
0.0
 16
1.0
 26
0.0
 36
0.0
 17
0.0
 27
1.0
 37
0.0
 76
     0
330
9C2
  0
LAYOUT
  5
9C9
102
{ACAD_REACTORS
330
9C1
102
}
330
9C1
100
AcDbPlotSettings
  1

  2
RICOH Aficio 1060 PCL 5e.pc3
  4
Letter
  6

 40
7.143749713897705
 41
5.027085304260253
 42
7.14373779296875
 43
5.027069091796875
 44
215.8999938964843
 45
279.3999938964843
 46
12.95399999999999
 47
0.0
 48
0.0
 49
0.0
140
0.0
141
0.0
142
1.0
143
21.92668152613616
 70
 11956
 72
     0
 73
     0
 74
     1
  7
monochrome.ctb
 75
     0
147
0.0456065364386316
148
0.1176582591681722
149
0.1802078080128808
100
AcDbLayout
  1
Model
 70
     1
 71
     0
 10
0.0
 20
0.0
 11
12.0
 21
9.0
 12
0.0
 22
0.0
 32
0.0
 14
0.0
 24
0.0
 34
0.0
 15
0.0
 25
0.0
 35
0.0
146
0.0
 13
0.0
 23
0.0
 33
0.0
 16
1.0
 26
0.0
 36
0.0
 17
0.0
 27
1.0
 37
0.0
 76
     0
330
9C6
  0
MLINESTYLE
  5
9BF
102
{ACAD_REACTORS
330
9BE
102
}
330
9BE
100
AcDbMlineStyle
  2
STANDARD
 70
     0
  3

 62
   256
 51
90.0
 52
90.0
 71
     2
 49
0.5
 62
   256
  6
BYLAYER
 49
-0.5
 62
   256
  6
BYLAYER
  0
ACDBPLACEHOLDER
  5
9B7
102
{ACAD_REACTORS
330
9B6
102
}
330
9B6
  0
ENDSEC
  0
EOF
