  0
SECTION
  2
HEADER
  9
$ACADVER
  1
AC1009
  9
$INSBASE
 10
0.0
 20
0.0
 30
0.0
  9
$EXTMIN
 10
0.0
 20
-0.0000000000000071
 30
0.0
  9
$EXTMAX
 10
40.48012649999999
 20
62.000193750000001
 30
0.0
  9
$LIMMIN
 10
0.0
 20
0.0
  9
$LIMMAX
 10
12.0
 20
9.0
  9
$ORTHOMODE
 70
     1
  9
$REGENMODE
 70
     1
  9
$FILLMODE
 70
     1
  9
$QTEXTMODE
 70
     0
  9
$MIRRTEXT
 70
     0
  9
$DRAGMODE
 70
     2
  9
$LTSCALE
 40
2.0
  9
$OSMODE
 70
   229
  9
$ATTMODE
 70
     1
  9
$TEXTSIZE
 40
0.125
  9
$TRACEWID
 40
0.05
  9
$TEXTSTYLE
  7
TXT
  9
$CLAYER
  8
OBJECT
  9
$CELTYPE
  6
BYLAYER
  9
$CECOLOR
 62
   256
  9
$DIMSCALE
 40
4.0
  9
$DIMASZ
 40
0.18
  9
$DIMEXO
 40
0.063
  9
$DIMDLI
 40
0.281
  9
$DIMRND
 40
0.0
  9
$DIMDLE
 40
0.0
  9
$DIMEXE
 40
0.1
  9
$DIMTP
 40
0.0
  9
$DIMTM
 40
0.0
  9
$DIMTXT
 40
0.125
  9
$DIMCEN
 40
0.09
  9
$DIMTSZ
 40
0.0
  9
$DIMTOL
 70
     0
  9
$DIMLIM
 70
     0
  9
$DIMTIH
 70
     1
  9
$DIMTOH
 70
     1
  9
$DIMSE1
 70
     0
  9
$DIMSE2
 70
     0
  9
$DIMTAD
 70
     0
  9
$DIMZIN
 70
     0
  9
$DIMBLK
  1

  9
$DIMASO
 70
     1
  9
$DIMSHO
 70
     1
  9
$DIMPOST
  1

  9
$DIMAPOST
  1

  9
$DIMALT
 70
     0
  9
$DIMALTD
 70
     2
  9
$DIMALTF
 40
25.399999999999999
  9
$DIMLFAC
 40
1.0
  9
$DIMTOFL
 70
     0
  9
$DIMTVP
 40
0.0
  9
$DIMTIX
 70
     0
  9
$DIMSOXD
 70
     0
  9
$DIMSAH
 70
     0
  9
$DIMBLK1
  1

  9
$DIMBLK2
  1

  9
$DIMSTYLE
  2
23NSTD
  9
$DIMCLRD
 70
     0
  9
$DIMCLRE
 70
     0
  9
$DIMCLRT
 70
     0
  9
$DIMTFAC
 40
1.0
  9
$DIMGAP
 40
0.09
  9
$LUNITS
 70
     2
  9
$LUPREC
 70
     3
  9
$SKETCHINC
 40
0.1
  9
$FILLETRAD
 40
0.0
  9
$AUNITS
 70
     0
  9
$AUPREC
 70
     0
  9
$MENU
  1
acad
  9
$ELEVATION
 40
0.0
  9
$PELEVATION
 40
0.0
  9
$THICKNESS
 40
0.0
  9
$LIMCHECK
 70
     0
  9
$BLIPMODE
 70
     0
  9
$CHAMFERA
 40
0.0
  9
$CHAMFERB
 40
0.0
  9
$SKPOLY
 70
     0
  9
$TDCREATE
 40
2449910.646307291
  9
$TDUPDATE
 40
2456126.4152477551
  9
$TDINDWG
 40
0.5125057870000001
  9
$TDUSRTIMER
 40
0.5125032523000001
  9
$USRTIMER
 70
     1
  9
$ANGBASE
 50
0.0
  9
$ANGDIR
 70
     0
  9
$PDMODE
 70
     0
  9
$PDSIZE
 40
0.0
  9
$PLINEWID
 40
0.0
  9
$COORDS
 70
     2
  9
$SPLFRAME
 70
     0
  9
$SPLINETYPE
 70
     6
  9
$SPLINESEGS
 70
     8
  9
$ATTDIA
 70
     0
  9
$ATTREQ
 70
     1
  9
$HANDLING
 70
  4097
  9
$HANDSEED
  5
1365A
  9
$SURFTAB1
 70
     6
  9
$SURFTAB2
 70
     6
  9
$SURFTYPE
 70
     6
  9
$SURFU
 70
     6
  9
$SURFV
 70
     6
  9
$UCSNAME
  2

  9
$UCSORG
 10
0.0
 20
0.0
 30
0.0
  9
$UCSXDIR
 10
1.0
 20
0.0
 30
0.0
  9
$UCSYDIR
 10
0.0
 20
1.0
 30
0.0
  9
$PUCSNAME
  2

  9
$PUCSORG
 10
0.0
 20
0.0
 30
0.0
  9
$PUCSXDIR
 10
1.0
 20
0.0
 30
0.0
  9
$PUCSYDIR
 10
0.0
 20
1.0
 30
0.0
  9
$USERI1
 70
     0
  9
$USERI2
 70
     0
  9
$USERI3
 70
     0
  9
$USERI4
 70
     0
  9
$USERI5
 70
     0
  9
$USERR1
 40
0.0
  9
$USERR2
 40
0.0
  9
$USERR3
 40
0.0
  9
$USERR4
 40
0.0
  9
$USERR5
 40
0.0
  9
$WORLDVIEW
 70
     1
  9
$SHADEDGE
 70
     3
  9
$SHADEDIF
 70
    70
  9
$TILEMODE
 70
     1
  9
$MAXACTVP
 70
    16
  9
$PLIMCHECK
 70
     0
  9
$PEXTMIN
 10
1.0000000000000000E+020
 20
1.0000000000000000E+020
 30
1.0000000000000000E+020
  9
$PEXTMAX
 10
-1.0000000000000000E+020
 20
-1.0000000000000000E+020
 30
-1.0000000000000000E+020
  9
$PLIMMIN
 10
0.0
 20
0.0
  9
$PLIMMAX
 10
12.0
 20
9.0
  9
$UNITMODE
 70
     0
  9
$VISRETAIN
 70
     0
  9
$PLINEGEN
 70
     0
  9
$PSLTSCALE
 70
     0
  0
ENDSEC
  0
SECTION
  2
TABLES
  0
TABLE
  2
VPORT
 70
     2
  0
VPORT
  2
*ACTIVE
 70
     0
 10
0.0
 20
0.0
 11
1.0
 21
1.0
 12
20.240063438506009
 22
31.000097163719701
 13
0.0
 23
0.0
 14
1.0
 24
1.0
 15
0.0
 25
0.0
 16
0.0
 26
0.0
 36
1.0
 17
0.0
 27
0.0
 37
0.0
 40
62.632001582433197
 41
1.8369747899159661
 42
50.0
 43
0.0
 44
0.0
 50
0.0
 51
0.0
 71
     0
 72
   100
 73
     1
 74
     0
 75
     0
 76
     0
 77
     0
 78
     0
  0
ENDTAB
  0
TABLE
  2
LTYPE
 70
     4
  0
LTYPE
  2
CONTINUOUS
 70
     0
  3
Solid line
 72
    65
 73
     0
 40
0.0
  0
LTYPE
  2
HIDDEN
 70
     0
  3
__ __ __ __ __ __ __ __ __ __ __ __ __ __ __ __
 72
    65
 73
     2
 40
0.375
 49
0.25
 49
-0.125
  0
LTYPE
  2
CENTER
 70
     0
  3
____ _ ____ _ ____ _ ____ _ ____ _ ____ _ ____ 
 72
    65
 73
     4
 40
2.0
 49
1.25
 49
-0.25
 49
0.25
 49
-0.25
  0
LTYPE
  2
PHANTOM
 70
     0
  3
______  __  __  ______  __  __  ______  __  __ 
 72
    65
 73
     6
 40
2.5
 49
1.25
 49
-0.25
 49
0.25
 49
-0.25
 49
0.25
 49
-0.25
  0
ENDTAB
  0
TABLE
  2
LAYER
 70
    13
  0
LAYER
  2
0
 70
     0
 62
     7
  6
CONTINUOUS
  0
LAYER
  2
TEXT
 70
     0
 62
     7
  6
CONTINUOUS
  0
LAYER
  2
TITLE
 70
     0
 62
     7
  6
CONTINUOUS
  0
LAYER
  2
OBJECT
 70
     0
 62
     7
  6
CONTINUOUS
  0
LAYER
  2
CENTER
 70
     0
 62
     7
  6
CENTER
  0
LAYER
  2
HIDDEN
 70
     0
 62
     7
  6
HIDDEN
  0
LAYER
  2
DIM
 70
     0
 62
     7
  6
CONTINUOUS
  0
LAYER
  2
BEND
 70
     0
 62
     7
  6
PHANTOM
  0
LAYER
  2
SHELF
 70
     0
 62
     7
  6
CONTINUOUS
  0
LAYER
  2
COVER
 70
     0
 62
     7
  6
CONTINUOUS
  0
LAYER
  2
RP
 70
     0
 62
     7
  6
CONTINUOUS
  0
LAYER
  2
FP
 70
     0
 62
     7
  6
CONTINUOUS
  0
LAYER
  2
DEFPOINTS
 70
     0
 62
     7
  6
CONTINUOUS
  0
ENDTAB
  0
TABLE
  2
STYLE
 70
     2
  0
STYLE
  2
TXT
 70
     0
 40
0.0
 41
0.75
 50
0.0
 71
     0
 42
0.125
  3
txt.shx
  4

  0
STYLE
  2
STANDARD
 70
     0
 40
0.0
 41
1.0
 50
0.0
 71
     0
 42
0.2
  3
txt
  4

  0
ENDTAB
  0
TABLE
  2
VIEW
 70
     0
  0
ENDTAB
  0
TABLE
  2
UCS
 70
     0
  0
ENDTAB
  0
TABLE
  2
APPID
 70
     2
  0
APPID
  2
ACAD
 70
     0
  0
APPID
  2
DCO15
 70
     0
  0
ENDTAB
  0
TABLE
  2
DIMSTYLE
 70
     3
  0
DIMSTYLE
  2
23NSTD
 70
     0
  3

  4

  5

  6

  7

 40
4.0
 41
0.18
 42
0.063
 43
0.281
 44
0.1
 45
0.0
 46
0.0
 47
0.0
 48
0.0
140
0.125
141
0.09
142
0.0
143
25.399999999999999
144
1.0
145
0.0
146
1.0
147
0.09
 71
     0
 72
     0
 73
     1
 74
     1
 75
     0
 76
     0
 77
     0
 78
     0
170
     0
171
     2
172
     0
173
     0
174
     0
175
     0
176
     0
177
     0
178
     0
  0
DIMSTYLE
  2
23NSTDI
 70
     0
  3

  4

  5

  6

  7

 40
4.0
 41
0.18
 42
0.063
 43
0.281
 44
0.1
 45
0.0
 46
0.0
 47
0.0
 48
0.0
140
0.125
141
0.09
142
0.0
143
25.399999999999999
144
1.0
145
0.0
146
1.0
147
0.09
 71
     0
 72
     0
 73
     1
 74
     1
 75
     0
 76
     0
 77
     0
 78
     0
170
     0
171
     2
172
     0
173
     0
174
     1
175
     0
176
     0
177
     0
178
     0
  0
DIMSTYLE
  2
STANDARD
 70
     0
  3

  4

  5

  6

  7

 40
1.0
 41
0.18
 42
0.0625
 43
0.38
 44
0.18
 45
0.0
 46
0.0
 47
0.0
 48
0.0
140
0.18
141
0.09
142
0.0
143
25.399999999999999
144
24.0
145
0.0
146
1.0
147
0.09
 71
     0
 72
     0
 73
     1
 74
     1
 75
     0
 76
     0
 77
     0
 78
     0
170
     0
171
     2
172
     0
173
     0
174
     0
175
     0
176
     0
177
     0
178
     0
  0
ENDTAB
  0
ENDSEC
  0
SECTION
  2
BLOCKS
  0
BLOCK
  8
0
  2
$MODEL_SPACE
 70
     0
 10
0.0
 20
0.0
 30
0.0
  3
$MODEL_SPACE
  1

  0
ENDBLK
  5
13019
  8
0
  0
BLOCK
 67
     1
  8
0
  2
$PAPER_SPACE
 70
     0
 10
0.0
 20
0.0
 30
0.0
  3
$PAPER_SPACE
  1

  0
ENDBLK
  5
13017
 67
     1
  8
0
  0
BLOCK
  8
0
  2
FP
 70
     0
 10
0.0
 20
0.0
 30
0.0
  3
FP
  1

  0
LINE
  5
76A
  8
FP
 10
-0.34375
 20
-5.7815000000000012
 30
0.0
 11
4.84375
 21
-5.7815000000000012
 31
0.0
  0
LINE
  5
76B
  8
FP
 10
4.84375
 20
0.34375
 30
0.0
 11
-0.34375
 21
0.34375
 31
0.0
  0
LINE
  5
76C
  8
FP
 10
-0.34375
 20
0.34375
 30
0.0
 11
-0.34375
 21
-5.7815000000000012
 31
0.0
  0
CIRCLE
  5
76D
  8
FP
 10
0.0
 20
-5.4377500000000012
 30
0.0
 40
0.094
  0
CIRCLE
  5
76E
  8
FP
 10
0.0
 20
0.0
 30
0.0
 40
0.094
  0
LINE
  5
76F
  8
FP
 10
4.84375
 20
-5.7815000000000012
 30
0.0
 11
4.84375
 21
0.34375
 31
0.0
  0
CIRCLE
  5
770
  8
FP
 10
4.5
 20
-5.4377500000000012
 30
0.0
 40
0.094
  0
CIRCLE
  5
771
  8
FP
 10
4.5
 20
0.0
 30
0.0
 40
0.094
  0
ENDBLK
  5
772
  8
0
  0
BLOCK
  8
0
  2
RP
 70
     0
 10
0.0
 20
0.0
 30
0.0
  3
RP
  1

  0
LINE
  5
10E02
  8
RP
 10
-0.21875
 20
-5.1875000000000018
 30
0.0
 11
4.90625
 21
-5.1875000000000018
 31
0.0
  0
LINE
  5
10E03
  8
RP
 10
4.90625
 20
0.75
 30
0.0
 11
-0.21875
 21
0.75
 31
0.0
  0
LINE
  5
10E04
  8
RP
 10
-0.21875
 20
0.75
 30
0.0
 11
-0.21875
 21
-5.1875000000000018
 31
0.0
  0
CIRCLE
  5
10E05
  8
RP
 10
0.0
 20
-4.84375
 30
0.0
 40
0.094
  0
CIRCLE
  5
10E06
  8
RP
 10
0.0
 20
0.0
 30
0.0
 40
0.094
  0
LINE
  5
10E07
  8
RP
 10
4.90625
 20
-5.1875000000000018
 30
0.0
 11
4.90625
 21
0.75
 31
0.0
  0
CIRCLE
  5
10E08
  8
RP
 10
4.6875
 20
-4.84375
 30
0.0
 40
0.094
  0
CIRCLE
  5
10E09
  8
RP
 10
4.6875
 20
0.0
 30
0.0
 40
0.094
  0
ENDBLK
  5
10E0A
  8
0
  0
BLOCK
  8
0
  2
*D2
 70
     1
 10
0.0
 20
0.0
 30
0.0
  3
*D2
  1

  0
ARC
  5
1344B
  8
DIM
 62
     0
 10
23.889135300067618
 20
17.536344233767419
 30
0.0
 40
1.5571848467315821
 50
206.7338633752633
 51
243.26613662473659
  0
SOLID
  5
1344C
  8
DIM
 62
     0
 10
22.3816555439982
 20
16.80810704441064
 30
0.0
 11
22.615153816726771
 21
16.863591786752789
 31
0.0
 12
22.331950453336042
 22
17.53634423376743
 32
0.0
 13
22.331950453336042
 23
17.53634423376743
 33
0.0
  0
SOLID
  5
1344D
  8
DIM
 62
     0
 10
23.216382853052991
 20
16.262362750426568
 30
0.0
 11
23.160898110710839
 21
16.028864477698001
 31
0.0
 12
23.889135300067618
 22
15.97915938703585
 32
0.0
 13
23.889135300067618
 23
15.97915938703585
 33
0.0
  0
POINT
  5
1344E
  8
DEFPOINTS
 62
     0
 10
23.110542876701832
 20
16.187782598109699
 30
0.0
  0
POINT
  5
1344F
  8
DEFPOINTS
 62
     0
 10
25.241385300067659
 20
17.53634423376743
 30
0.0
  0
POINT
  5
13450
  8
DEFPOINTS
 62
     0
 10
23.889135300067618
 20
15.817344233767431
 30
0.0
  0
POINT
  5
13451
  8
DEFPOINTS
 62
     0
 10
23.889135300067618
 20
17.536344233767419
 30
0.0
  0
POINT
  5
13452
  8
DEFPOINTS
 62
     0
 10
15.241385300067639
 20
17.536344233767419
 30
0.0
  0
ENDBLK
  5
13026
  8
0
  0
BLOCK
  8
0
  2
*D3
 70
     1
 10
0.0
 20
0.0
 30
0.0
  3
*D3
  1

  0
LINE
  5
1329D
  8
DIM
 62
     0
 10
33.728176272471757
 20
17.66134423376743
 30
0.0
 11
32.015176272471763
 21
17.66134423376743
 31
0.0
  0
LINE
  5
1329E
  8
DIM
 62
     0
 10
33.665676272471757
 20
17.53634423376743
 30
0.0
 11
32.015176272471763
 21
17.53634423376743
 31
0.0
  0
LINE
  5
1329F
  8
DIM
 62
     0
 10
32.415176272471761
 20
18.381344233767422
 30
0.0
 11
32.415176272471761
 21
19.101344233767431
 31
0.0
  0
LINE
  5
132A0
  8
DIM
 62
     0
 10
32.415176272471761
 20
16.816344233767431
 30
0.0
 11
32.415176272471761
 21
16.096344233767429
 31
0.0
  0
LINE
  5
132A1
  8
DIM
 62
     0
 10
32.415176272471761
 20
16.096344233767429
 30
0.0
 11
31.695176272471748
 21
16.096344233767429
 31
0.0
  0
SOLID
  5
132A2
  8
DIM
 62
     0
 10
32.295176272471757
 20
18.381344233767422
 30
0.0
 11
32.535176272471752
 21
18.381344233767422
 31
0.0
 12
32.415176272471761
 22
17.66134423376743
 32
0.0
 13
32.415176272471761
 23
17.66134423376743
 33
0.0
  0
SOLID
  5
132A3
  8
DIM
 62
     0
 10
32.295176272471757
 20
16.816344233767431
 30
0.0
 11
32.535176272471752
 21
16.816344233767431
 31
0.0
 12
32.415176272471761
 22
17.53634423376743
 32
0.0
 13
32.415176272471761
 23
17.53634423376743
 33
0.0
  0
TEXT
  5
132A4
  8
OBJECT
 62
     0
 10
30.022676272471749
 20
15.846344233767431
 30
0.0
 40
0.5
  1
0.125
 41
0.75
  0
POINT
  5
132A5
  8
DEFPOINTS
 62
     0
 10
33.980176272471759
 20
17.66134423376743
 30
0.0
  0
POINT
  5
132A6
  8
DEFPOINTS
 62
     0
 10
33.917676272471759
 20
17.53634423376743
 30
0.0
  0
POINT
  5
132A7
  8
DEFPOINTS
 62
     0
 10
32.415176272471761
 20
17.53634423376743
 30
0.0
  0
ENDBLK
  5
13034
  8
0
  0
BLOCK
  8
0
  2
*D4
 70
     1
 10
0.0
 20
0.0
 30
0.0
  3
*D4
  1

  0
LINE
  5
132A8
  8
DIM
 62
     0
 10
33.728176272471757
 20
17.66134423376743
 30
0.0
 11
32.015176272471763
 21
17.66134423376743
 31
0.0
  0
LINE
  5
132A9
  8
DIM
 62
     0
 10
33.728176272471757
 20
23.848844233767419
 30
0.0
 11
32.015176272471763
 21
23.848844233767419
 31
0.0
  0
LINE
  5
132AA
  8
DIM
 62
     0
 10
32.415176272471761
 20
18.381344233767422
 30
0.0
 11
32.415176272471761
 21
20.145094233767409
 31
0.0
  0
LINE
  5
132AB
  8
DIM
 62
     0
 10
32.415176272471761
 20
23.12884423376742
 30
0.0
 11
32.415176272471761
 21
21.365094233767419
 31
0.0
  0
SOLID
  5
132AC
  8
DIM
 62
     0
 10
32.295176272471757
 20
18.381344233767422
 30
0.0
 11
32.535176272471752
 21
18.381344233767422
 31
0.0
 12
32.415176272471761
 22
17.66134423376743
 32
0.0
 13
32.415176272471761
 23
17.66134423376743
 33
0.0
  0
SOLID
  5
132AD
  8
DIM
 62
     0
 10
32.295176272471757
 20
23.12884423376742
 30
0.0
 11
32.535176272471752
 21
23.12884423376742
 31
0.0
 12
32.415176272471761
 22
23.848844233767419
 32
0.0
 13
32.415176272471761
 23
23.848844233767419
 33
0.0
  0
TEXT
  5
132AE
  8
OBJECT
 62
     0
 10
32.290176272471747
 20
20.505094233767419
 30
0.0
 40
0.5
  1
E
 41
0.75
  0
POINT
  5
132AF
  8
DEFPOINTS
 62
     0
 10
33.980176272471759
 20
17.66134423376743
 30
0.0
  0
POINT
  5
132B0
  8
DEFPOINTS
 62
     0
 10
33.980176272471759
 20
23.848844233767419
 30
0.0
  0
POINT
  5
132B1
  8
DEFPOINTS
 62
     0
 10
32.415176272471761
 20
23.848844233767419
 30
0.0
  0
ENDBLK
  5
13041
  8
0
  0
BLOCK
  8
0
  2
*D5
 70
     1
 10
0.0
 20
0.0
 30
0.0
  3
*D5
  1

  0
LINE
  5
132B2
  8
DIM
 62
     0
 10
33.665676272471757
 20
17.53634423376743
 30
0.0
 11
30.89117627247176
 21
17.53634423376743
 31
0.0
  0
LINE
  5
132B3
  8
DIM
 62
     0
 10
33.665676272471757
 20
23.973844233767402
 30
0.0
 11
30.89117627247176
 21
23.973844233767402
 31
0.0
  0
LINE
  5
132B4
  8
DIM
 62
     0
 10
31.291176272471759
 20
18.256344233767422
 30
0.0
 11
31.291176272471759
 21
20.145094233767409
 31
0.0
  0
LINE
  5
132B5
  8
DIM
 62
     0
 10
31.291176272471759
 20
23.25384423376742
 30
0.0
 11
31.291176272471759
 21
21.365094233767419
 31
0.0
  0
SOLID
  5
132B6
  8
DIM
 62
     0
 10
31.171176272471762
 20
18.256344233767422
 30
0.0
 11
31.41117627247176
 21
18.256344233767422
 31
0.0
 12
31.291176272471759
 22
17.53634423376743
 32
0.0
 13
31.291176272471759
 23
17.53634423376743
 33
0.0
  0
SOLID
  5
132B7
  8
DIM
 62
     0
 10
31.171176272471762
 20
23.25384423376742
 30
0.0
 11
31.41117627247176
 21
23.25384423376742
 31
0.0
 12
31.291176272471759
 22
23.973844233767402
 32
0.0
 13
31.291176272471759
 23
23.973844233767402
 33
0.0
  0
TEXT
  5
132B8
  8
OBJECT
 62
     0
 10
31.166176272471759
 20
20.505094233767419
 30
0.0
 40
0.5
  1
A
 41
0.75
  0
POINT
  5
132B9
  8
DEFPOINTS
 62
     0
 10
33.917676272471759
 20
17.53634423376743
 30
0.0
  0
POINT
  5
132BA
  8
DEFPOINTS
 62
     0
 10
33.917676272471759
 20
23.973844233767402
 30
0.0
  0
POINT
  5
132BB
  8
DEFPOINTS
 62
     0
 10
31.291176272471759
 20
23.973844233767402
 30
0.0
  0
ENDBLK
  5
1304E
  8
0
  0
BLOCK
  8
0
  2
*D6
 70
     1
 10
0.0
 20
0.0
 30
0.0
  3
*D6
  1

  0
LINE
  5
132BC
  8
DIM
 62
     0
 10
33.980176272471759
 20
24.100844233767418
 30
0.0
 11
33.980176272471759
 21
26.937844233767422
 31
0.0
  0
LINE
  5
132BD
  8
DIM
 62
     0
 10
33.855176272471759
 20
24.163344233767418
 30
0.0
 11
33.855176272471759
 21
26.937844233767422
 31
0.0
  0
LINE
  5
132BE
  8
DIM
 62
     0
 10
34.700176272471758
 20
26.537844233767419
 30
0.0
 11
35.42017627247175
 21
26.537844233767419
 31
0.0
  0
LINE
  5
132BF
  8
DIM
 62
     0
 10
33.13517627247176
 20
26.537844233767419
 30
0.0
 11
32.415176272471761
 21
26.537844233767419
 31
0.0
  0
SOLID
  5
132C0
  8
DIM
 62
     0
 10
34.700176272471758
 20
26.65784423376742
 30
0.0
 11
34.700176272471758
 21
26.417844233767418
 31
0.0
 12
33.980176272471759
 22
26.537844233767419
 32
0.0
 13
33.980176272471759
 23
26.537844233767419
 33
0.0
  0
SOLID
  5
132C1
  8
DIM
 62
     0
 10
33.13517627247176
 20
26.65784423376742
 30
0.0
 11
33.13517627247176
 21
26.417844233767418
 31
0.0
 12
33.855176272471759
 22
26.537844233767419
 32
0.0
 13
33.855176272471759
 23
26.537844233767419
 33
0.0
  0
TEXT
  5
132C2
  8
OBJECT
 62
     0
 10
30.742676272471758
 20
26.287844233767419
 30
0.0
 40
0.5
  1
0.125
 41
0.75
  0
POINT
  5
132C3
  8
DEFPOINTS
 62
     0
 10
33.980176272471759
 20
23.848844233767419
 30
0.0
  0
POINT
  5
132C4
  8
DEFPOINTS
 62
     0
 10
33.855176272471759
 20
23.911344233767419
 30
0.0
  0
POINT
  5
132C5
  8
DEFPOINTS
 62
     0
 10
33.855176272471759
 20
26.537844233767419
 30
0.0
  0
ENDBLK
  5
1305B
  8
0
  0
BLOCK
  8
0
  2
*D7
 70
     1
 10
0.0
 20
0.0
 30
0.0
  3
*D7
  1

  0
LINE
  5
132C6
  8
DIM
 62
     0
 10
33.980176272471759
 20
24.100844233767418
 30
0.0
 11
33.980176272471759
 21
26.937844233767422
 31
0.0
  0
LINE
  5
132C7
  8
DIM
 62
     0
 10
39.230176272471759
 20
24.100844233767418
 30
0.0
 11
39.230176272471759
 21
26.937844233767422
 31
0.0
  0
LINE
  5
132C8
  8
DIM
 62
     0
 10
34.700176272471758
 20
26.537844233767419
 30
0.0
 11
36.12017627247176
 21
26.537844233767419
 31
0.0
  0
LINE
  5
132C9
  8
DIM
 62
     0
 10
38.510176272471767
 20
26.537844233767419
 30
0.0
 11
37.090176272471759
 21
26.537844233767419
 31
0.0
  0
SOLID
  5
132CA
  8
DIM
 62
     0
 10
34.700176272471758
 20
26.65784423376742
 30
0.0
 11
34.700176272471758
 21
26.417844233767418
 31
0.0
 12
33.980176272471759
 22
26.537844233767419
 32
0.0
 13
33.980176272471759
 23
26.537844233767419
 33
0.0
  0
SOLID
  5
132CB
  8
DIM
 62
     0
 10
38.510176272471767
 20
26.65784423376742
 30
0.0
 11
38.510176272471767
 21
26.417844233767418
 31
0.0
 12
39.230176272471759
 22
26.537844233767419
 32
0.0
 13
39.230176272471759
 23
26.537844233767419
 33
0.0
  0
TEXT
  5
132CC
  8
OBJECT
 62
     0
 10
36.480176272471759
 20
26.287844233767419
 30
0.0
 40
0.5
  1
F
 41
0.75
  0
POINT
  5
132CD
  8
DEFPOINTS
 62
     0
 10
33.980176272471759
 20
23.848844233767419
 30
0.0
  0
POINT
  5
132CE
  8
DEFPOINTS
 62
     0
 10
39.230176272471759
 20
23.848844233767419
 30
0.0
  0
POINT
  5
132CF
  8
DEFPOINTS
 62
     0
 10
39.230176272471759
 20
26.537844233767419
 30
0.0
  0
ENDBLK
  5
13068
  8
0
  0
BLOCK
  8
0
  2
*D8
 70
     1
 10
0.0
 20
0.0
 30
0.0
  3
*D8
  1

  0
LINE
  5
132D0
  8
DIM
 62
     0
 10
33.855176272471759
 20
24.163344233767418
 30
0.0
 11
33.855176272471759
 21
29.185844233767419
 31
0.0
  0
LINE
  5
132D1
  8
DIM
 62
     0
 10
39.355176272471752
 20
24.163344233767418
 30
0.0
 11
39.355176272471752
 21
29.185844233767419
 31
0.0
  0
LINE
  5
132D2
  8
DIM
 62
     0
 10
34.575176272471758
 20
28.78584423376741
 30
0.0
 11
36.12017627247176
 21
28.78584423376741
 31
0.0
  0
LINE
  5
132D3
  8
DIM
 62
     0
 10
38.63517627247176
 20
28.78584423376741
 30
0.0
 11
37.090176272471759
 21
28.78584423376741
 31
0.0
  0
SOLID
  5
132D4
  8
DIM
 62
     0
 10
34.575176272471758
 20
28.905844233767422
 30
0.0
 11
34.575176272471758
 21
28.665844233767409
 31
0.0
 12
33.855176272471759
 22
28.78584423376741
 32
0.0
 13
33.855176272471759
 23
28.78584423376741
 33
0.0
  0
SOLID
  5
132D5
  8
DIM
 62
     0
 10
38.63517627247176
 20
28.905844233767422
 30
0.0
 11
38.63517627247176
 21
28.665844233767409
 31
0.0
 12
39.355176272471752
 22
28.78584423376741
 32
0.0
 13
39.355176272471752
 23
28.78584423376741
 33
0.0
  0
TEXT
  5
132D6
  8
OBJECT
 62
     0
 10
36.480176272471759
 20
28.53584423376741
 30
0.0
 40
0.5
  1
B
 41
0.75
  0
POINT
  5
132D7
  8
DEFPOINTS
 62
     0
 10
33.855176272471759
 20
23.911344233767419
 30
0.0
  0
POINT
  5
132D8
  8
DEFPOINTS
 62
     0
 10
39.355176272471752
 20
23.911344233767419
 30
0.0
  0
POINT
  5
132D9
  8
DEFPOINTS
 62
     0
 10
39.355176272471752
 20
28.78584423376741
 30
0.0
  0
ENDBLK
  5
13075
  8
0
  0
BLOCK
  8
0
  2
*D9
 70
     1
 10
0.0
 20
0.0
 30
0.0
  3
*D9
  1

  0
LINE
  5
132DA
  8
DIM
 62
     0
 10
34.263426272471762
 20
23.817594233767419
 30
0.0
 11
35.779543393780258
 21
23.817594233767419
 31
0.0
  0
LINE
  5
132DB
  8
DIM
 62
     0
 10
34.263426272471762
 20
17.692344233767422
 30
0.0
 11
35.779543393780258
 21
17.692344233767422
 31
0.0
  0
LINE
  5
132DC
  8
DIM
 62
     0
 10
35.379543393780267
 20
23.09759423376742
 30
0.0
 11
35.379543393780267
 21
21.364969233767422
 31
0.0
  0
LINE
  5
132DD
  8
DIM
 62
     0
 10
35.379543393780267
 20
18.412344233767421
 30
0.0
 11
35.379543393780267
 21
20.144969233767419
 31
0.0
  0
SOLID
  5
132DE
  8
DIM
 62
     0
 10
35.25954339378027
 20
23.09759423376742
 30
0.0
 11
35.49954339378025
 21
23.09759423376742
 31
0.0
 12
35.379543393780267
 22
23.817594233767419
 32
0.0
 13
35.379543393780267
 23
23.817594233767419
 33
0.0
  0
SOLID
  5
132DF
  8
DIM
 62
     0
 10
35.25954339378027
 20
18.412344233767421
 30
0.0
 11
35.49954339378025
 21
18.412344233767421
 31
0.0
 12
35.379543393780267
 22
17.692344233767422
 32
0.0
 13
35.379543393780267
 23
17.692344233767422
 33
0.0
  0
TEXT
  5
132E0
  8
OBJECT
 62
     0
 10
35.254543393780253
 20
20.504969233767419
 30
0.0
 40
0.5
  1
J
 41
0.75
  0
POINT
  5
132E1
  8
DEFPOINTS
 62
     0
 10
34.011426272471759
 20
23.817594233767419
 30
0.0
  0
POINT
  5
132E2
  8
DEFPOINTS
 62
     0
 10
34.011426272471759
 20
17.692344233767422
 30
0.0
  0
POINT
  5
132E3
  8
DEFPOINTS
 62
     0
 10
35.379543393780267
 20
17.692344233767422
 30
0.0
  0
ENDBLK
  5
13082
  8
0
  0
BLOCK
  8
0
  2
*D10
 70
     1
 10
0.0
 20
0.0
 30
0.0
  3
*D10
  1

  0
LINE
  5
132E4
  8
DIM
 62
     0
 10
34.011426272471759
 20
17.944344233767421
 30
0.0
 11
34.011426272471759
 21
19.91716943166551
 31
0.0
  0
LINE
  5
132E5
  8
DIM
 62
     0
 10
39.198926272471752
 20
17.944344233767421
 30
0.0
 11
39.198926272471752
 21
19.91716943166551
 31
0.0
  0
LINE
  5
132E6
  8
DIM
 62
     0
 10
34.731426272471758
 20
19.517169431665518
 30
0.0
 11
36.12017627247176
 21
19.517169431665518
 31
0.0
  0
LINE
  5
132E7
  8
DIM
 62
     0
 10
38.47892627247176
 20
19.517169431665518
 30
0.0
 11
37.090176272471759
 21
19.517169431665518
 31
0.0
  0
SOLID
  5
132E8
  8
DIM
 62
     0
 10
34.731426272471758
 20
19.637169431665509
 30
0.0
 11
34.731426272471758
 21
19.39716943166551
 31
0.0
 12
34.011426272471759
 22
19.517169431665518
 32
0.0
 13
34.011426272471759
 23
19.517169431665518
 33
0.0
  0
SOLID
  5
132E9
  8
DIM
 62
     0
 10
38.47892627247176
 20
19.637169431665509
 30
0.0
 11
38.47892627247176
 21
19.39716943166551
 31
0.0
 12
39.198926272471752
 22
19.517169431665518
 32
0.0
 13
39.198926272471752
 23
19.517169431665518
 33
0.0
  0
TEXT
  5
132EA
  8
OBJECT
 62
     0
 10
36.480176272471759
 20
19.267169431665518
 30
0.0
 40
0.5
  1
K
 41
0.75
  0
POINT
  5
132EB
  8
DEFPOINTS
 62
     0
 10
34.011426272471759
 20
17.692344233767422
 30
0.0
  0
POINT
  5
132EC
  8
DEFPOINTS
 62
     0
 10
39.198926272471752
 20
17.692344233767422
 30
0.0
  0
POINT
  5
132ED
  8
DEFPOINTS
 62
     0
 10
39.198926272471752
 20
19.517169431665518
 30
0.0
  0
ENDBLK
  5
1308F
  8
0
  0
BLOCK
  8
0
  2
*D11
 70
     1
 10
0.0
 20
0.0
 30
0.0
  3
*D11
  1

  0
LINE
  5
132EE
  8
DIM
 62
     0
 10
34.103176272471757
 20
23.473844233767419
 30
0.0
 11
29.767176272471762
 21
23.473844233767419
 31
0.0
  0
LINE
  5
132EF
  8
DIM
 62
     0
 10
33.665676272471757
 20
23.973844233767402
 30
0.0
 11
29.767176272471762
 21
23.973844233767402
 31
0.0
  0
LINE
  5
132F0
  8
DIM
 62
     0
 10
30.16717627247176
 20
22.75384423376742
 30
0.0
 11
30.16717627247176
 21
22.033844233767422
 31
0.0
  0
LINE
  5
132F1
  8
DIM
 62
     0
 10
30.16717627247176
 20
24.693844233767411
 30
0.0
 11
30.16717627247176
 21
25.413844233767421
 31
0.0
  0
LINE
  5
132F2
  8
DIM
 62
     0
 10
30.16717627247176
 20
25.413844233767421
 30
0.0
 11
30.887176272471759
 21
25.413844233767421
 31
0.0
  0
SOLID
  5
132F3
  8
DIM
 62
     0
 10
30.047176272471759
 20
22.75384423376742
 30
0.0
 11
30.287176272471761
 21
22.75384423376742
 31
0.0
 12
30.16717627247176
 22
23.473844233767419
 32
0.0
 13
30.16717627247176
 23
23.473844233767419
 33
0.0
  0
SOLID
  5
132F4
  8
DIM
 62
     0
 10
30.047176272471759
 20
24.693844233767411
 30
0.0
 11
30.287176272471768
 21
24.693844233767411
 31
0.0
 12
30.16717627247176
 22
23.973844233767402
 32
0.0
 13
30.16717627247176
 23
23.973844233767402
 33
0.0
  0
TEXT
  5
132F5
  8
OBJECT
 62
     0
 10
31.247176272471759
 20
25.163844233767421
 30
0.0
 40
0.5
  1
0.500
 41
0.75
  0
POINT
  5
132F6
  8
DEFPOINTS
 62
     0
 10
34.355176272471752
 20
23.473844233767419
 30
0.0
  0
POINT
  5
132F7
  8
DEFPOINTS
 62
     0
 10
33.917676272471759
 20
23.973844233767402
 30
0.0
  0
POINT
  5
132F8
  8
DEFPOINTS
 62
     0
 10
30.16717627247176
 20
23.973844233767402
 30
0.0
  0
ENDBLK
  5
1309D
  8
0
  0
BLOCK
  8
0
  2
*D12
 70
     1
 10
0.0
 20
0.0
 30
0.0
  3
*D12
  1

  0
LINE
  5
132F9
  8
DIM
 62
     0
 10
34.355176272471752
 20
23.725844233767418
 30
0.0
 11
34.355176272471752
 21
28.06184423376741
 31
0.0
  0
LINE
  5
132FA
  8
DIM
 62
     0
 10
33.855176272471759
 20
24.163344233767418
 30
0.0
 11
33.855176272471759
 21
28.06184423376741
 31
0.0
  0
LINE
  5
132FB
  8
DIM
 62
     0
 10
35.075176272471758
 20
27.661844233767422
 30
0.0
 11
35.795176272471757
 21
27.661844233767422
 31
0.0
  0
LINE
  5
132FC
  8
DIM
 62
     0
 10
33.13517627247176
 20
27.661844233767422
 30
0.0
 11
32.415176272471761
 21
27.661844233767422
 31
0.0
  0
SOLID
  5
132FD
  8
DIM
 62
     0
 10
35.075176272471758
 20
27.781844233767419
 30
0.0
 11
35.075176272471758
 21
27.541844233767421
 31
0.0
 12
34.355176272471752
 22
27.661844233767422
 32
0.0
 13
34.355176272471752
 23
27.661844233767422
 33
0.0
  0
SOLID
  5
132FE
  8
DIM
 62
     0
 10
33.13517627247176
 20
27.781844233767419
 30
0.0
 11
33.13517627247176
 21
27.541844233767421
 31
0.0
 12
33.855176272471759
 22
27.661844233767422
 32
0.0
 13
33.855176272471759
 23
27.661844233767422
 33
0.0
  0
TEXT
  5
132FF
  8
OBJECT
 62
     0
 10
30.742676272471758
 20
27.411844233767422
 30
0.0
 40
0.5
  1
0.500
 41
0.75
  0
POINT
  5
13300
  8
DEFPOINTS
 62
     0
 10
34.355176272471752
 20
23.473844233767419
 30
0.0
  0
POINT
  5
13301
  8
DEFPOINTS
 62
     0
 10
33.855176272471759
 20
23.911344233767419
 30
0.0
  0
POINT
  5
13302
  8
DEFPOINTS
 62
     0
 10
33.855176272471759
 20
27.661844233767422
 30
0.0
  0
ENDBLK
  5
130AA
  8
0
  0
BLOCK
  8
0
  2
*D13
 70
     1
 10
0.0
 20
0.0
 30
0.0
  3
*D13
  1

  0
LINE
  5
13303
  8
DIM
 62
     0
 10
26.232385300067641
 20
24.225844233767418
 30
0.0
 11
26.232385300067641
 21
25.813844233767419
 31
0.0
  0
LINE
  5
13304
  8
DIM
 62
     0
 10
25.857385300067641
 20
24.100844233767418
 30
0.0
 11
25.857385300067641
 21
25.813844233767419
 31
0.0
  0
LINE
  5
13305
  8
DIM
 62
     0
 10
26.95238530006764
 20
25.413844233767421
 30
0.0
 11
27.672385300067649
 21
25.413844233767421
 31
0.0
  0
LINE
  5
13306
  8
DIM
 62
     0
 10
25.137385300067649
 20
25.413844233767421
 30
0.0
 11
24.41738530006764
 21
25.413844233767421
 31
0.0
  0
SOLID
  5
13307
  8
DIM
 62
     0
 10
26.95238530006764
 20
25.533844233767422
 30
0.0
 11
26.95238530006764
 21
25.293844233767409
 31
0.0
 12
26.232385300067641
 22
25.413844233767421
 32
0.0
 13
26.232385300067641
 23
25.413844233767421
 33
0.0
  0
SOLID
  5
13308
  8
DIM
 62
     0
 10
25.137385300067649
 20
25.533844233767422
 30
0.0
 11
25.137385300067649
 21
25.293844233767409
 31
0.0
 12
25.857385300067641
 22
25.413844233767421
 32
0.0
 13
25.857385300067641
 23
25.413844233767421
 33
0.0
  0
TEXT
  5
13309
  8
OBJECT
 62
     0
 10
22.619885300067629
 20
25.163844233767421
 30
0.0
 40
0.5
  1
0.375
 41
0.75
  0
POINT
  5
1330A
  8
DEFPOINTS
 62
     0
 10
26.232385300067641
 20
23.973844233767419
 30
0.0
  0
POINT
  5
1330B
  8
DEFPOINTS
 62
     0
 10
25.857385300067641
 20
23.848844233767419
 30
0.0
  0
POINT
  5
1330C
  8
DEFPOINTS
 62
     0
 10
25.857385300067641
 20
25.413844233767421
 30
0.0
  0
ENDBLK
  5
130B7
  8
0
  0
BLOCK
  8
0
  2
*D14
 70
     1
 10
0.0
 20
0.0
 30
0.0
  3
*D14
  1

  0
LINE
  5
1330D
  8
DIM
 62
     0
 10
26.232385300067641
 20
24.225844233767418
 30
0.0
 11
26.232385300067641
 21
26.937844233767422
 31
0.0
  0
LINE
  5
1330E
  8
DIM
 62
     0
 10
25.232385300067641
 20
24.225844233767418
 30
0.0
 11
25.232385300067641
 21
26.937844233767422
 31
0.0
  0
LINE
  5
1330F
  8
DIM
 62
     0
 10
26.95238530006764
 20
26.537844233767419
 30
0.0
 11
27.672385300067649
 21
26.537844233767419
 31
0.0
  0
LINE
  5
13310
  8
DIM
 62
     0
 10
24.512385300067649
 20
26.537844233767419
 30
0.0
 11
23.79238530006764
 21
26.537844233767419
 31
0.0
  0
SOLID
  5
13311
  8
DIM
 62
     0
 10
26.95238530006764
 20
26.65784423376742
 30
0.0
 11
26.95238530006764
 21
26.417844233767418
 31
0.0
 12
26.232385300067641
 22
26.537844233767419
 32
0.0
 13
26.232385300067641
 23
26.537844233767419
 33
0.0
  0
SOLID
  5
13312
  8
DIM
 62
     0
 10
24.512385300067649
 20
26.65784423376742
 30
0.0
 11
24.512385300067649
 21
26.417844233767418
 31
0.0
 12
25.232385300067641
 22
26.537844233767419
 32
0.0
 13
25.232385300067641
 23
26.537844233767419
 33
0.0
  0
TEXT
  5
13313
  8
OBJECT
 62
     0
 10
22.24488530006764
 20
26.287844233767419
 30
0.0
 40
0.5
  1
1.000
 41
0.75
  0
POINT
  5
13314
  8
DEFPOINTS
 62
     0
 10
26.232385300067641
 20
23.973844233767419
 30
0.0
  0
POINT
  5
13315
  8
DEFPOINTS
 62
     0
 10
25.232385300067641
 20
23.973844233767419
 30
0.0
  0
POINT
  5
13316
  8
DEFPOINTS
 62
     0
 10
25.232385300067641
 20
26.537844233767419
 30
0.0
  0
ENDBLK
  5
130C4
  8
0
  0
BLOCK
  8
0
  2
*D15
 70
     1
 10
0.0
 20
0.0
 30
0.0
  3
*D15
  1

  0
LINE
  5
13317
  8
DIM
 62
     0
 10
15.795385300067659
 20
22.744576188194269
 30
0.0
 11
15.795385300067659
 21
22.892576188194258
 31
0.0
  0
LINE
  5
13318
  8
DIM
 62
     0
 10
15.232385300067641
 20
22.744576188194269
 30
0.0
 11
15.232385300067641
 21
22.892576188194258
 31
0.0
  0
LINE
  5
13319
  8
DIM
 62
     0
 10
16.515385300067649
 20
22.492576188194271
 30
0.0
 11
17.235385300067659
 21
22.492576188194271
 31
0.0
  0
LINE
  5
1331A
  8
DIM
 62
     0
 10
14.51238530006764
 20
22.492576188194271
 30
0.0
 11
13.792385300067631
 21
22.492576188194271
 31
0.0
  0
SOLID
  5
1331B
  8
DIM
 62
     0
 10
16.515385300067649
 20
22.612576188194272
 30
0.0
 11
16.515385300067649
 21
22.372576188194252
 31
0.0
 12
15.795385300067659
 22
22.492576188194271
 32
0.0
 13
15.795385300067659
 23
22.492576188194271
 33
0.0
  0
SOLID
  5
1331C
  8
DIM
 62
     0
 10
14.51238530006764
 20
22.612576188194272
 30
0.0
 11
14.51238530006764
 21
22.372576188194252
 31
0.0
 12
15.232385300067641
 22
22.492576188194271
 32
0.0
 13
15.232385300067641
 23
22.492576188194271
 33
0.0
  0
TEXT
  5
1331D
  8
OBJECT
 62
     0
 10
11.99488530006764
 20
22.24257618819426
 30
0.0
 40
0.5
  1
0.563
 41
0.75
  0
POINT
  5
1331E
  8
DEFPOINTS
 62
     0
 10
15.795385300067659
 20
22.492576188194271
 30
0.0
  0
POINT
  5
1331F
  8
DEFPOINTS
 62
     0
 10
15.232385300067641
 20
22.492576188194271
 30
0.0
  0
POINT
  5
13320
  8
DEFPOINTS
 62
     0
 10
15.232385300067641
 20
22.492576188194271
 30
0.0
  0
ENDBLK
  5
130D1
  8
0
  0
BLOCK
  8
0
  2
*D16
 70
     1
 10
0.0
 20
0.0
 30
0.0
  3
*D16
  1

  0
LINE
  5
133D8
  8
DIM
 62
     0
 10
14.98038530006764
 20
17.53634423376743
 30
0.0
 11
11.96732230769409
 21
17.53634423376743
 31
0.0
  0
LINE
  5
133D9
  8
DIM
 62
     0
 10
15.729635300067651
 20
17.380344233767431
 30
0.0
 11
11.96732230769409
 21
17.380344233767431
 31
0.0
  0
LINE
  5
133DA
  8
DIM
 62
     0
 10
12.36732230769409
 20
18.256344233767422
 30
0.0
 11
12.36732230769409
 21
18.976344233767431
 31
0.0
  0
LINE
  5
133DB
  8
DIM
 62
     0
 10
12.36732230769409
 20
16.660344233767429
 30
0.0
 11
12.36732230769409
 21
15.94034423376743
 31
0.0
  0
LINE
  5
133DC
  8
DIM
 62
     0
 10
12.36732230769409
 20
15.94034423376743
 30
0.0
 11
11.64732230769409
 21
15.94034423376743
 31
0.0
  0
SOLID
  5
133DD
  8
DIM
 62
     0
 10
12.247322307694089
 20
18.256344233767422
 30
0.0
 11
12.48732230769409
 21
18.256344233767422
 31
0.0
 12
12.36732230769409
 22
17.53634423376743
 32
0.0
 13
12.36732230769409
 23
17.53634423376743
 33
0.0
  0
SOLID
  5
133DE
  8
DIM
 62
     0
 10
12.247322307694089
 20
16.660344233767429
 30
0.0
 11
12.48732230769409
 21
16.660344233767429
 31
0.0
 12
12.36732230769409
 22
17.380344233767431
 32
0.0
 13
12.36732230769409
 23
17.380344233767431
 33
0.0
  0
TEXT
  5
133DF
  8
OBJECT
 62
     0
 10
9.9748223076940956
 20
15.69034423376743
 30
0.0
 40
0.5
  1
0.156
 41
0.75
  0
POINT
  5
133E0
  8
DEFPOINTS
 62
     0
 10
15.232385300067641
 20
17.53634423376743
 30
0.0
  0
POINT
  5
133E1
  8
DEFPOINTS
 62
     0
 10
15.98163530006765
 20
17.380344233767431
 30
0.0
  0
POINT
  5
133E2
  8
DEFPOINTS
 62
     0
 10
12.36732230769409
 20
17.380344233767431
 30
0.0
  0
ENDBLK
  5
130DF
  8
0
  0
BLOCK
  8
0
  2
*D17
 70
     1
 10
0.0
 20
0.0
 30
0.0
  3
*D17
  1

  0
LINE
  5
1332C
  8
DIM
 62
     0
 10
26.232385300067641
 20
24.225844233767418
 30
0.0
 11
26.232385300067641
 21
28.06184423376741
 31
0.0
  0
LINE
  5
1332D
  8
DIM
 62
     0
 10
15.232385300067641
 20
24.166344233767401
 30
0.0
 11
15.232385300067641
 21
28.06184423376741
 31
0.0
  0
LINE
  5
1332E
  8
DIM
 62
     0
 10
25.512385300067649
 20
27.661844233767422
 30
0.0
 11
21.21738530006763
 21
27.661844233767422
 31
0.0
  0
LINE
  5
1332F
  8
DIM
 62
     0
 10
15.95238530006764
 20
27.661844233767422
 30
0.0
 11
20.247385300067641
 21
27.661844233767422
 31
0.0
  0
SOLID
  5
13330
  8
DIM
 62
     0
 10
25.512385300067649
 20
27.781844233767419
 30
0.0
 11
25.512385300067649
 21
27.541844233767421
 31
0.0
 12
26.232385300067641
 22
27.661844233767422
 32
0.0
 13
26.232385300067641
 23
27.661844233767422
 33
0.0
  0
SOLID
  5
13331
  8
DIM
 62
     0
 10
15.95238530006764
 20
27.781844233767419
 30
0.0
 11
15.95238530006764
 21
27.541844233767421
 31
0.0
 12
15.232385300067641
 22
27.661844233767422
 32
0.0
 13
15.232385300067641
 23
27.661844233767422
 33
0.0
  0
TEXT
  5
13332
  8
OBJECT
 62
     0
 10
20.60738530006763
 20
27.411844233767422
 30
0.0
 40
0.5
  1
C
 41
0.75
  0
POINT
  5
13333
  8
DEFPOINTS
 62
     0
 10
26.232385300067641
 20
23.973844233767419
 30
0.0
  0
POINT
  5
13334
  8
DEFPOINTS
 62
     0
 10
15.232385300067641
 20
23.914344233767409
 30
0.0
  0
POINT
  5
13335
  8
DEFPOINTS
 62
     0
 10
15.232385300067641
 20
27.661844233767422
 30
0.0
  0
ENDBLK
  5
130EC
  8
0
  0
BLOCK
  8
0
  2
*D18
 70
     1
 10
0.0
 20
0.0
 30
0.0
  3
*D18
  1

  0
LINE
  5
13336
  8
DIM
 62
     0
 10
8.2641996373336521
 20
17.84921923376741
 30
0.0
 11
10.039387137333669
 21
17.84921923376741
 31
0.0
  0
LINE
  5
13337
  8
DIM
 62
     0
 10
8.0454496373336521
 20
18.19296923376741
 30
0.0
 11
10.039387137333669
 21
18.19296923376741
 31
0.0
  0
LINE
  5
13338
  8
DIM
 62
     0
 10
9.6393871373336726
 20
17.129219233767401
 30
0.0
 11
9.6393871373336726
 21
16.409219233767399
 31
0.0
  0
LINE
  5
13339
  8
DIM
 62
     0
 10
9.6393871373336726
 20
18.912969233767399
 30
0.0
 11
9.6393871373336726
 21
19.632969233767401
 31
0.0
  0
LINE
  5
1333A
  8
DIM
 62
     0
 10
9.6393871373336726
 20
19.632969233767401
 30
0.0
 11
10.35938713733367
 21
19.632969233767401
 31
0.0
  0
SOLID
  5
1333B
  8
DIM
 62
     0
 10
9.5193871373336716
 20
17.129219233767401
 30
0.0
 11
9.7593871373336718
 21
17.129219233767401
 31
0.0
 12
9.6393871373336726
 22
17.84921923376741
 32
0.0
 13
9.6393871373336726
 23
17.84921923376741
 33
0.0
  0
SOLID
  5
1333C
  8
DIM
 62
     0
 10
9.5193871373336716
 20
18.912969233767399
 30
0.0
 11
9.7593871373336718
 21
18.912969233767399
 31
0.0
 12
9.6393871373336726
 22
18.19296923376741
 32
0.0
 13
9.6393871373336726
 23
18.19296923376741
 33
0.0
  0
TEXT
  5
1333D
  8
OBJECT
 62
     0
 10
10.71938713733366
 20
19.382969233767401
 30
0.0
 40
0.5
  1
0.344
 41
0.75
  0
POINT
  5
1333E
  8
DEFPOINTS
 62
     0
 10
8.0121996373336515
 20
17.84921923376741
 30
0.0
  0
POINT
  5
1333F
  8
DEFPOINTS
 62
     0
 10
7.7934496373336506
 20
18.19296923376741
 30
0.0
  0
POINT
  5
13340
  8
DEFPOINTS
 62
     0
 10
9.6393871373336726
 20
18.19296923376741
 30
0.0
  0
ENDBLK
  5
130FA
  8
0
  0
BLOCK
  8
0
  2
*D19
 70
     1
 10
0.0
 20
0.0
 30
0.0
  3
*D19
  1

  0
LINE
  5
13341
  8
DIM
 62
     0
 10
8.0454496373336521
 20
23.03671923376741
 30
0.0
 11
10.039387137333669
 21
23.03671923376741
 31
0.0
  0
LINE
  5
13342
  8
DIM
 62
     0
 10
8.2641996373336521
 20
23.78671923376741
 30
0.0
 11
10.039387137333669
 21
23.78671923376741
 31
0.0
  0
LINE
  5
13343
  8
DIM
 62
     0
 10
9.6393871373336726
 20
22.316719233767401
 30
0.0
 11
9.6393871373336726
 21
21.596719233767409
 31
0.0
  0
LINE
  5
13344
  8
DIM
 62
     0
 10
9.6393871373336726
 20
24.50671923376742
 30
0.0
 11
9.6393871373336726
 21
25.226719233767419
 31
0.0
  0
LINE
  5
13345
  8
DIM
 62
     0
 10
9.6393871373336726
 20
25.226719233767419
 30
0.0
 11
10.35938713733367
 21
25.226719233767419
 31
0.0
  0
SOLID
  5
13346
  8
DIM
 62
     0
 10
9.5193871373336716
 20
22.316719233767401
 30
0.0
 11
9.7593871373336718
 21
22.316719233767401
 31
0.0
 12
9.6393871373336726
 22
23.03671923376741
 32
0.0
 13
9.6393871373336726
 23
23.03671923376741
 33
0.0
  0
SOLID
  5
13347
  8
DIM
 62
     0
 10
9.5193871373336716
 20
24.50671923376742
 30
0.0
 11
9.7593871373336718
 21
24.50671923376742
 31
0.0
 12
9.6393871373336726
 22
23.78671923376741
 32
0.0
 13
9.6393871373336726
 23
23.78671923376741
 33
0.0
  0
TEXT
  5
13348
  8
OBJECT
 62
     0
 10
10.71938713733366
 20
24.976719233767419
 30
0.0
 40
0.5
  1
0.750
 41
0.75
  0
POINT
  5
13349
  8
DEFPOINTS
 62
     0
 10
7.7934496373336506
 20
23.03671923376741
 30
0.0
  0
POINT
  5
1334A
  8
DEFPOINTS
 62
     0
 10
8.0121996373336515
 20
23.78671923376741
 30
0.0
  0
POINT
  5
1334B
  8
DEFPOINTS
 62
     0
 10
9.6393871373336726
 20
23.78671923376741
 30
0.0
  0
ENDBLK
  5
13108
  8
0
  0
BLOCK
  8
0
  2
*D20
 70
     1
 10
0.0
 20
0.0
 30
0.0
  3
*D20
  1

  0
LINE
  5
1334C
  8
DIM
 62
     0
 10
7.7934496373336506
 20
23.288719233767409
 30
0.0
 11
7.7934496373336506
 21
26.937844233767422
 31
0.0
  0
LINE
  5
1334D
  8
DIM
 62
     0
 10
8.0121996373336515
 20
24.038719233767399
 30
0.0
 11
8.0121996373336515
 21
26.937844233767422
 31
0.0
  0
LINE
  5
1334E
  8
DIM
 62
     0
 10
7.0734496373336508
 20
26.537844233767419
 30
0.0
 11
6.3534496373336511
 21
26.537844233767419
 31
0.0
  0
LINE
  5
1334F
  8
DIM
 62
     0
 10
8.7321996373336521
 20
26.537844233767419
 30
0.0
 11
9.4521996373336492
 21
26.537844233767419
 31
0.0
  0
SOLID
  5
13350
  8
DIM
 62
     0
 10
7.0734496373336508
 20
26.65784423376742
 30
0.0
 11
7.0734496373336508
 21
26.417844233767418
 31
0.0
 12
7.7934496373336506
 22
26.537844233767419
 32
0.0
 13
7.7934496373336506
 23
26.537844233767419
 33
0.0
  0
SOLID
  5
13351
  8
DIM
 62
     0
 10
8.7321996373336521
 20
26.65784423376742
 30
0.0
 11
8.7321996373336521
 21
26.417844233767418
 31
0.0
 12
8.0121996373336515
 22
26.537844233767419
 32
0.0
 13
8.0121996373336515
 23
26.537844233767419
 33
0.0
  0
TEXT
  5
13352
  8
OBJECT
 62
     0
 10
9.8121996373336504
 20
26.287844233767419
 30
0.0
 40
0.5
  1
0.219
 41
0.75
  0
POINT
  5
13353
  8
DEFPOINTS
 62
     0
 10
7.7934496373336506
 20
23.03671923376741
 30
0.0
  0
POINT
  5
13354
  8
DEFPOINTS
 62
     0
 10
8.0121996373336515
 20
23.78671923376741
 30
0.0
  0
POINT
  5
13355
  8
DEFPOINTS
 62
     0
 10
8.0121996373336515
 20
26.537844233767419
 30
0.0
  0
ENDBLK
  5
13115
  8
0
  0
BLOCK
  8
0
  2
*D21
 70
     1
 10
0.0
 20
0.0
 30
0.0
  3
*D21
  1

  0
LINE
  5
13356
  8
DIM
 62
     0
 10
2.861887137333611
 20
24.0643442337674
 30
0.0
 11
2.861887137333611
 21
28.06184423376742
 31
0.0
  0
LINE
  5
13357
  8
DIM
 62
     0
 10
8.0368871373337658
 20
24.064344233767422
 30
0.0
 11
8.0368871373337658
 21
28.06184423376742
 31
0.0
  0
LINE
  5
13358
  8
DIM
 62
     0
 10
3.5818871373336112
 20
27.661844233767422
 30
0.0
 11
4.9643871373336879
 21
27.661844233767422
 31
0.0
  0
LINE
  5
13359
  8
DIM
 62
     0
 10
7.3168871373337661
 20
27.661844233767422
 30
0.0
 11
5.9343871373336876
 21
27.661844233767422
 31
0.0
  0
SOLID
  5
1335A
  8
DIM
 62
     0
 10
3.5818871373336112
 20
27.781844233767419
 30
0.0
 11
3.5818871373336112
 21
27.541844233767421
 31
0.0
 12
2.861887137333611
 22
27.661844233767422
 32
0.0
 13
2.861887137333611
 23
27.661844233767422
 33
0.0
  0
SOLID
  5
1335B
  8
DIM
 62
     0
 10
7.3168871373337661
 20
27.781844233767419
 30
0.0
 11
7.3168871373337661
 21
27.541844233767421
 31
0.0
 12
8.0368871373337658
 22
27.661844233767422
 32
0.0
 13
8.0368871373337658
 23
27.661844233767422
 33
0.0
  0
TEXT
  5
1335C
  8
OBJECT
 62
     0
 10
5.3243871373336891
 20
27.411844233767422
 30
0.0
 40
0.5
  1
H
 41
0.75
  0
POINT
  5
1335D
  8
DEFPOINTS
 62
     0
 10
2.861887137333611
 20
23.812344233767401
 30
0.0
  0
POINT
  5
1335E
  8
DEFPOINTS
 62
     0
 10
8.0368871373337658
 20
23.812344233767419
 30
0.0
  0
POINT
  5
1335F
  8
DEFPOINTS
 62
     0
 10
8.0368871373337658
 20
27.661844233767422
 30
0.0
  0
ENDBLK
  5
13122
  8
0
  0
BLOCK
  8
0
  2
*D22
 70
     1
 10
0.0
 20
0.0
 30
0.0
  3
*D22
  1

  0
LINE
  5
13360
  8
DIM
 62
     0
 10
2.8871996373336528
 20
23.534719233767419
 30
0.0
 11
2.8871996373336528
 21
21.975723202013171
 31
0.0
  0
LINE
  5
13361
  8
DIM
 62
     0
 10
8.0121996373336515
 20
23.534719233767419
 30
0.0
 11
8.0121996373336515
 21
21.975723202013171
 31
0.0
  0
LINE
  5
13362
  8
DIM
 62
     0
 10
3.607199637333653
 20
22.37572320201317
 30
0.0
 11
4.964699637333652
 21
22.37572320201317
 31
0.0
  0
LINE
  5
13363
  8
DIM
 62
     0
 10
7.2921996373336508
 20
22.37572320201317
 30
0.0
 11
5.9346996373336509
 21
22.37572320201317
 31
0.0
  0
SOLID
  5
13364
  8
DIM
 62
     0
 10
3.607199637333653
 20
22.495723202013171
 30
0.0
 11
3.607199637333653
 21
22.255723202013169
 31
0.0
 12
2.8871996373336528
 22
22.37572320201317
 32
0.0
 13
2.8871996373336528
 23
22.37572320201317
 33
0.0
  0
SOLID
  5
13365
  8
DIM
 62
     0
 10
7.2921996373336508
 20
22.495723202013171
 30
0.0
 11
7.2921996373336508
 21
22.255723202013169
 31
0.0
 12
8.0121996373336515
 22
22.37572320201317
 32
0.0
 13
8.0121996373336515
 23
22.37572320201317
 33
0.0
  0
TEXT
  5
13366
  8
OBJECT
 62
     0
 10
5.3246996373336533
 20
22.12572320201317
 30
0.0
 40
0.5
  1
M
 41
0.75
  0
POINT
  5
13367
  8
DEFPOINTS
 62
     0
 10
2.8871996373336528
 20
23.78671923376741
 30
0.0
  0
POINT
  5
13368
  8
DEFPOINTS
 62
     0
 10
8.0121996373336515
 20
23.78671923376741
 30
0.0
  0
POINT
  5
13369
  8
DEFPOINTS
 62
     0
 10
8.0121996373336515
 20
22.37572320201317
 30
0.0
  0
ENDBLK
  5
1312F
  8
0
  0
BLOCK
  8
0
  2
*D23
 70
     1
 10
0.0
 20
0.0
 30
0.0
  3
*D23
  1

  0
LINE
  5
1336A
  8
DIM
 62
     0
 10
3.139199637333653
 20
23.78671923376741
 30
0.0
 11
4.8475470913945848
 21
23.78671923376741
 31
0.0
  0
LINE
  5
1336B
  8
DIM
 62
     0
 10
3.139199637333653
 20
17.84921923376741
 30
0.0
 11
4.8475470913945831
 21
17.84921923376741
 31
0.0
  0
LINE
  5
1336C
  8
DIM
 62
     0
 10
4.4475470913945863
 20
23.066719233767401
 30
0.0
 11
4.4475470913945836
 21
21.427969233767399
 31
0.0
  0
LINE
  5
1336D
  8
DIM
 62
     0
 10
4.4475470913945836
 20
18.569219233767409
 30
0.0
 11
4.4475470913945836
 21
20.207969233767411
 31
0.0
  0
SOLID
  5
1336E
  8
DIM
 62
     0
 10
4.3275470913945862
 20
23.066719233767401
 30
0.0
 11
4.5675470913945864
 21
23.066719233767401
 31
0.0
 12
4.4475470913945863
 22
23.78671923376741
 32
0.0
 13
4.4475470913945863
 23
23.78671923376741
 33
0.0
  0
SOLID
  5
1336F
  8
DIM
 62
     0
 10
4.3275470913945844
 20
18.569219233767409
 30
0.0
 11
4.5675470913945837
 21
18.569219233767409
 31
0.0
 12
4.4475470913945836
 22
17.84921923376741
 32
0.0
 13
4.4475470913945836
 23
17.84921923376741
 33
0.0
  0
TEXT
  5
13370
  8
OBJECT
 62
     0
 10
4.32254709139458
 20
20.56796923376741
 30
0.0
 40
0.5
  1
L
 41
0.75
  0
POINT
  5
13371
  8
DEFPOINTS
 62
     0
 10
2.8871996373336528
 20
23.78671923376741
 30
0.0
  0
POINT
  5
13372
  8
DEFPOINTS
 62
     0
 10
2.8871996373336528
 20
17.84921923376741
 30
0.0
  0
POINT
  5
13373
  8
DEFPOINTS
 62
     0
 10
4.4475470913945836
 20
17.84921923376741
 30
0.0
  0
ENDBLK
  5
1313C
  8
0
  0
BLOCK
  8
0
  2
*D24
 70
     1
 10
0.0
 20
0.0
 30
0.0
  3
*D24
  1

  0
LINE
  5
13374
  8
DIM
 62
     0
 10
2.611387137333689
 20
23.814344233767411
 30
0.0
 11
0.8593871373336766
 21
23.814344233767411
 31
0.0
  0
LINE
  5
13375
  8
DIM
 62
     0
 10
2.509824637333661
 20
17.836344233767431
 30
0.0
 11
0.8593871373336753
 21
17.836344233767431
 31
0.0
  0
LINE
  5
13376
  8
DIM
 62
     0
 10
1.259387137333676
 20
23.094344233767419
 30
0.0
 11
1.259387137333676
 21
21.43534423376741
 31
0.0
  0
LINE
  5
13377
  8
DIM
 62
     0
 10
1.2593871373336749
 20
18.556344233767419
 30
0.0
 11
1.2593871373336749
 21
20.215344233767421
 31
0.0
  0
SOLID
  5
13378
  8
DIM
 62
     0
 10
1.1393871373336759
 20
23.094344233767419
 30
0.0
 11
1.379387137333675
 21
23.094344233767419
 31
0.0
 12
1.259387137333676
 22
23.814344233767411
 32
0.0
 13
1.259387137333676
 23
23.814344233767411
 33
0.0
  0
SOLID
  5
13379
  8
DIM
 62
     0
 10
1.139387137333675
 20
18.556344233767419
 30
0.0
 11
1.379387137333675
 21
18.556344233767419
 31
0.0
 12
1.2593871373336749
 22
17.836344233767431
 32
0.0
 13
1.2593871373336749
 23
17.836344233767431
 33
0.0
  0
TEXT
  5
1337A
  8
OBJECT
 62
     0
 10
1.134387137333672
 20
20.575344233767421
 30
0.0
 40
0.5
  1
G
 41
0.75
  0
POINT
  5
1337B
  8
DEFPOINTS
 62
     0
 10
2.8633871373336901
 20
23.814344233767411
 30
0.0
  0
POINT
  5
1337C
  8
DEFPOINTS
 62
     0
 10
2.7618246373336621
 20
17.836344233767431
 30
0.0
  0
POINT
  5
1337D
  8
DEFPOINTS
 62
     0
 10
1.2593871373336749
 20
17.836344233767431
 30
0.0
  0
ENDBLK
  5
13149
  8
0
  0
BLOCK
  8
0
  2
*D25
 70
     1
 10
0.0
 20
0.0
 30
0.0
  3
*D25
  1

  0
LINE
  5
13271
  8
DIM
 62
     0
 10
38.167933234705274
 20
15.690344233767419
 30
0.0
 11
38.167933234705274
 21
13.914844233767431
 31
0.0
  0
LINE
  5
13272
  8
DIM
 62
     0
 10
35.04241931023823
 20
15.690344233767419
 30
0.0
 11
35.04241931023823
 21
13.914844233767431
 31
0.0
  0
LINE
  5
13273
  8
DIM
 62
     0
 10
38.887933234705272
 20
14.314844233767429
 30
0.0
 11
39.607933234705271
 21
14.314844233767429
 31
0.0
  0
LINE
  5
13274
  8
DIM
 62
     0
 10
34.322419310238239
 20
14.314844233767429
 30
0.0
 11
33.60241931023824
 21
14.314844233767429
 31
0.0
  0
SOLID
  5
13275
  8
DIM
 62
     0
 10
38.887933234705272
 20
14.43484423376743
 30
0.0
 11
38.887933234705272
 21
14.19484423376743
 31
0.0
 12
38.167933234705274
 22
14.314844233767429
 32
0.0
 13
38.167933234705274
 23
14.314844233767429
 33
0.0
  0
SOLID
  5
13276
  8
DIM
 62
     0
 10
34.322419310238239
 20
14.43484423376743
 30
0.0
 11
34.322419310238239
 21
14.19484423376743
 31
0.0
 12
35.04241931023823
 22
14.314844233767429
 32
0.0
 13
35.04241931023823
 23
14.314844233767429
 33
0.0
  0
TEXT
  5
13277
  8
OBJECT
 62
     0
 10
36.480176272471752
 20
14.064844233767429
 30
0.0
 40
0.5
  1
D
 41
0.75
  0
POINT
  5
13278
  8
DEFPOINTS
 62
     0
 10
38.167933234705274
 20
15.942344233767431
 30
0.0
  0
POINT
  5
13279
  8
DEFPOINTS
 62
     0
 10
35.04241931023823
 20
15.942344233767431
 30
0.0
  0
POINT
  5
1327A
  8
DEFPOINTS
 62
     0
 10
35.04241931023823
 20
14.314844233767429
 30
0.0
  0
ENDBLK
  5
13156
  8
0
  0
BLOCK
  8
0
  2
*D26
 70
     1
 10
0.0
 20
0.0
 30
0.0
  3
*D26
  1

  0
LINE
  5
133E3
  8
DIM
 62
     0
 10
24.203635300067621
 20
15.754844233767431
 30
0.0
 11
28.664042401305981
 21
15.75484423376742
 31
0.0
  0
LINE
  5
133E4
  8
DIM
 62
     0
 10
26.48438530006764
 20
17.53634423376743
 30
0.0
 11
28.66404240130597
 21
17.53634423376743
 31
0.0
  0
LINE
  5
133E5
  8
DIM
 62
     0
 10
28.264042401305979
 20
15.034844233767419
 30
0.0
 11
28.264042401305979
 21
14.31484423376742
 31
0.0
  0
LINE
  5
133E6
  8
DIM
 62
     0
 10
28.264042401305979
 20
18.256344233767422
 30
0.0
 11
28.264042401305979
 21
18.976344233767431
 31
0.0
  0
SOLID
  5
133E7
  8
DIM
 62
     0
 10
28.14404240130597
 20
15.034844233767419
 30
0.0
 11
28.38404240130598
 21
15.034844233767419
 31
0.0
 12
28.264042401305979
 22
15.75484423376742
 32
0.0
 13
28.264042401305979
 23
15.75484423376742
 33
0.0
  0
SOLID
  5
133E8
  8
DIM
 62
     0
 10
28.14404240130597
 20
18.256344233767422
 30
0.0
 11
28.38404240130598
 21
18.256344233767422
 31
0.0
 12
28.264042401305979
 22
17.53634423376743
 32
0.0
 13
28.264042401305979
 23
17.53634423376743
 33
0.0
  0
TEXT
  5
133E9
  8
OBJECT
 62
     0
 10
27.576542401305971
 20
16.395594233767429
 30
0.0
 40
0.5
  1
1.782
 41
0.75
  0
POINT
  5
133EA
  8
DEFPOINTS
 62
     0
 10
23.951635300067629
 20
15.754844233767431
 30
0.0
  0
POINT
  5
133EB
  8
DEFPOINTS
 62
     0
 10
26.232385300067641
 20
17.53634423376743
 30
0.0
  0
POINT
  5
133EC
  8
DEFPOINTS
 62
     0
 10
28.264042401305979
 20
17.53634423376743
 30
0.0
  0
ENDBLK
  5
13163
  8
0
  0
BLOCK
  8
0
  2
*D27
 70
     1
 10
0.0
 20
0.0
 30
0.0
  3
*D27
  1

  0
LINE
  5
131C2
  8
DIM
 62
     0
 10
14.98038530006764
 20
17.53634423376743
 30
0.0
 11
13.39238530006763
 21
17.53634423376743
 31
0.0
  0
LINE
  5
131C3
  8
DIM
 62
     0
 10
14.98038530006764
 20
19.58334423376742
 30
0.0
 11
13.39238530006763
 21
19.58334423376742
 31
0.0
  0
LINE
  5
131C4
  8
DIM
 62
     0
 10
13.792385300067631
 20
16.816344233767431
 30
0.0
 11
13.792385300067631
 21
16.096344233767429
 31
0.0
  0
LINE
  5
131C5
  8
DIM
 62
     0
 10
13.79238530006764
 20
20.303344233767419
 30
0.0
 11
13.79238530006764
 21
21.023344233767421
 31
0.0
  0
SOLID
  5
131C6
  8
DIM
 62
     0
 10
13.67238530006764
 20
16.816344233767431
 30
0.0
 11
13.912385300067641
 21
16.816344233767431
 31
0.0
 12
13.792385300067631
 22
17.53634423376743
 32
0.0
 13
13.792385300067631
 23
17.53634423376743
 33
0.0
  0
SOLID
  5
131C7
  8
DIM
 62
     0
 10
13.67238530006764
 20
20.303344233767419
 30
0.0
 11
13.912385300067641
 21
20.303344233767419
 31
0.0
 12
13.792385300067631
 22
19.58334423376742
 32
0.0
 13
13.792385300067631
 23
19.58334423376742
 33
0.0
  0
TEXT
  5
131C8
  8
OBJECT
 62
     0
 10
13.073635300067631
 20
18.309844233767429
 30
0.0
 40
0.5
  1
2.047
 41
0.75
  0
POINT
  5
131C9
  8
DEFPOINTS
 62
     0
 10
15.232385300067641
 20
17.53634423376743
 30
0.0
  0
POINT
  5
131CA
  8
DEFPOINTS
 62
     0
 10
15.232385300067641
 20
19.58334423376742
 30
0.0
  0
POINT
  5
131CB
  8
DEFPOINTS
 62
     0
 10
13.792385300067631
 20
19.58334423376742
 30
0.0
  0
ENDBLK
  5
13170
  8
0
  0
BLOCK
  8
0
  2
*D28
 70
     1
 10
0.0
 20
0.0
 30
0.0
  3
*D28
  1

  0
LINE
  5
13235
  8
DIM
 62
     0
 10
23.951635300067629
 20
15.502844233767419
 30
0.0
 11
23.951635300067629
 21
13.914844233767431
 31
0.0
  0
LINE
  5
13236
  8
DIM
 62
     0
 10
26.232385300067641
 20
17.284344233767431
 30
0.0
 11
26.232385300067641
 21
13.914844233767431
 31
0.0
  0
LINE
  5
13237
  8
DIM
 62
     0
 10
23.231635300067641
 20
14.314844233767429
 30
0.0
 11
22.511635300067631
 21
14.314844233767429
 31
0.0
  0
LINE
  5
13238
  8
DIM
 62
     0
 10
26.95238530006764
 20
14.314844233767429
 30
0.0
 11
27.672385300067649
 21
14.314844233767429
 31
0.0
  0
SOLID
  5
13239
  8
DIM
 62
     0
 10
23.231635300067641
 20
14.43484423376743
 30
0.0
 11
23.231635300067641
 21
14.19484423376743
 31
0.0
 12
23.951635300067629
 22
14.314844233767429
 32
0.0
 13
23.951635300067629
 23
14.314844233767429
 33
0.0
  0
SOLID
  5
1323A
  8
DIM
 62
     0
 10
26.95238530006764
 20
14.43484423376743
 30
0.0
 11
26.95238530006764
 21
14.19484423376743
 31
0.0
 12
26.232385300067641
 22
14.314844233767429
 32
0.0
 13
26.232385300067641
 23
14.314844233767429
 33
0.0
  0
TEXT
  5
1323B
  8
OBJECT
 62
     0
 10
24.404510300067638
 20
14.064844233767429
 30
0.0
 40
0.5
  1
2.281
 41
0.75
  0
POINT
  5
1323C
  8
DEFPOINTS
 62
     0
 10
23.951635300067629
 20
15.754844233767431
 30
0.0
  0
POINT
  5
1323D
  8
DEFPOINTS
 62
     0
 10
26.232385300067641
 20
17.53634423376743
 30
0.0
  0
POINT
  5
1323E
  8
DEFPOINTS
 62
     0
 10
26.232385300067641
 20
14.314844233767429
 30
0.0
  0
ENDBLK
  5
1317D
  8
0
  0
BLOCK
  8
0
  2
HB
 70
     0
 10
0.0
 20
0.0
 30
0.0
  3
HB
  1

  0
TEXT
  5
13381
  8
TEXT
 10
0.2078333333333363
 20
15.22007919564008
 30
0.0
 40
0.125
  1
NAME
 72
     1
 11
0.4370000000000031
 21
15.22007919564008
 31
0.0
  0
TEXT
  5
13382
  8
TEXT
 10
0.2078333333333363
 20
15.428412528973411
 30
0.0
 40
0.125
  1
PART
 72
     1
 11
0.4370000000000031
 21
15.428412528973411
 31
0.0
  0
TEXT
  5
13383
  8
TEXT
 10
4.5619999999999976
 20
15.22007919564008
 30
0.0
 40
0.125
  1
No.
 72
     1
 11
4.6869999999999976
 21
15.22007919564008
 31
0.0
  0
TEXT
  5
13384
  8
TEXT
 10
4.4578333333333306
 20
15.428412528973411
 30
0.0
 40
0.125
  1
PART
 72
     1
 11
4.6869999999999976
 21
15.428412528973411
 31
0.0
  0
LINE
  5
13385
  8
TITLE
 10
5.0620000000000021
 20
15.598000000000001
 30
0.0
 11
5.0620000000000021
 21
15.179999999999991
 31
0.0
  0
LINE
  5
13386
  8
TITLE
 10
4.3120000000000021
 20
15.598000000000001
 30
0.0
 11
4.3120000000000021
 21
15.179999999999991
 31
0.0
  0
LINE
  5
13387
  8
TITLE
 10
4.25
 20
15.598000000000001
 30
0.0
 11
4.25
 21
15.179999999999991
 31
0.0
  0
LINE
  5
13388
  8
TITLE
 10
0.8120000000000029
 20
15.179999999999991
 30
0.0
 11
0.8120000000000009
 21
15.598000000000001
 31
0.0
  0
LINE
  5
13389
  8
TITLE
 10
0.0620000000000012
 20
15.179999999999991
 30
0.0
 11
10.538
 21
15.179999999999991
 31
0.0
  0
LINE
  5
1338A
  8
TITLE
 10
10.538
 20
0.0619999999999994
 30
0.0
 11
0.0619999999999976
 21
0.0620000000000012
 31
0.0
  0
LINE
  5
1338B
  8
TITLE
 10
10.538
 20
15.598000000000001
 30
0.0
 11
10.538
 21
0.0619999999999994
 31
0.0
  0
LINE
  5
1338C
  8
TITLE
 10
0.0620000000000012
 20
15.598000000000001
 30
0.0
 11
10.538
 21
15.598000000000001
 31
0.0
  0
LINE
  5
1338D
  8
TITLE
 10
0.0619999999999976
 20
0.0620000000000012
 30
0.0
 11
0.0620000000000012
 21
15.598000000000001
 31
0.0
  0
LINE
  5
1338E
  8
TITLE
 10
0.0
 20
0.0
 30
0.0
 11
0.0
 21
15.66
 31
0.0
  0
LINE
  5
1338F
  8
TITLE
 10
10.6
 20
-0.0000000000000018
 30
0.0
 11
0.0
 21
0.0
 31
0.0
  0
LINE
  5
13390
  8
TITLE
 10
10.6
 20
15.659999999999989
 30
0.0
 11
10.6
 21
-0.0000000000000018
 31
0.0
  0
LINE
  5
13391
  8
TITLE
 10
0.0
 20
15.66
 30
0.0
 11
10.6
 21
15.659999999999989
 31
0.0
  0
LINE
  5
13392
  8
TITLE
 10
8.5000257224440041
 20
15.598000000000001
 30
0.0
 11
8.5000257224440041
 21
15.179999999999991
 31
0.0
  0
TEXT
  5
13393
  8
TEXT
 10
8.7286923891106678
 20
15.428412528973411
 30
0.0
 40
0.125
  1
REV.
 72
     1
 11
8.9370257224440017
 21
15.428412528973411
 31
0.0
  0
TEXT
  5
13394
  8
TEXT
 10
8.7078590557773357
 20
15.22007919564008
 30
0.0
 40
0.125
  1
DATE
 72
     1
 11
8.9370257224440017
 21
15.22007919564008
 31
0.0
  0
LINE
  5
13395
  8
TITLE
 10
8.5620257224440053
 20
15.598000000000001
 30
0.0
 11
8.5620257224440053
 21
15.179999999999991
 31
0.0
  0
LINE
  5
13396
  8
TITLE
 10
9.3120257224440035
 20
15.598000000000001
 30
0.0
 11
9.3120257224440035
 21
15.179999999999991
 31
0.0
  0
ENDBLK
  5
13398
  8
0
  0
ENDSEC
  0
SECTION
  2
ENTITIES
  0
TEXT
  5
1
  8
TEXT
 10
0.8313359312500107
 20
60.240505033550257
 30
0.0
 40
0.5000015625000001
  1
NAME
 72
     1
 11
1.7480054625000101
 21
60.240505033550257
 31
0.0
  0
TEXT
  5
2
  8
TEXT
 10
0.8313359312500109
 20
61.073840971050252
 30
0.0
 40
0.5000015625000001
  1
PART
 72
     1
 11
1.7480054625000101
 21
61.073840971050252
 31
0.0
  0
TEXT
  5
3
  8
TEXT
 10
16.461111515585511
 20
60.240505033550257
 30
0.0
 40
0.5000015625000001
  1
No.
 72
     1
 11
16.961113078085511
 21
60.240505033550257
 31
0.0
  0
TEXT
  5
4
  8
TEXT
 10
16.044443546835499
 20
61.073840971050252
 30
0.0
 40
0.5000015625000001
  1
PART
 72
     1
 11
16.961113078085511
 21
61.073840971050252
 31
0.0
  0
LINE
  5
5
  8
TITLE
 10
18.46111776558552
 20
61.752192974999993
 30
0.0
 11
18.46111776558552
 21
60.08018775
 31
0.0
  0
LINE
  5
6
  8
TITLE
 10
15.461108390585521
 20
61.752192974999993
 30
0.0
 11
15.461108390585521
 21
60.08018775
 31
0.0
  0
LINE
  5
7
  8
TITLE
 10
15.213107615585511
 20
61.752192974999993
 30
0.0
 11
15.213107615585511
 21
60.08018775
 31
0.0
  0
LINE
  5
8
  8
TITLE
 10
3.2480101500000109
 20
60.08018775
 30
0.0
 11
3.2480101500000038
 21
61.752192974999993
 31
0.0
  0
LINE
  5
9
  8
TITLE
 10
0.2480007750000047
 20
60.08018775
 30
0.0
 11
15.213107615585511
 21
60.08018775
 31
0.0
  0
LINE
  5
A
  8
TITLE
 10
40.23212572500001
 20
0.2480007749999975
 30
0.0
 11
0.2480007749999904
 21
0.2480007750000047
 31
0.0
  0
LINE
  5
B
  8
TITLE
 10
40.23212572500001
 20
10.232031974999989
 30
0.0
 11
40.23212572500001
 21
0.2480007749999975
 31
0.0
  0
LINE
  5
C
  8
TITLE
 10
0.2480007750000047
 20
61.752192974999993
 30
0.0
 11
15.213107615585511
 21
61.752192974999993
 31
0.0
  0
LINE
  5
D
  8
TITLE
 10
0.2480007749999911
 20
0.2480007750000047
 30
0.0
 11
0.248000774999993
 21
10.232031975
 31
0.0
  0
LINE
  5
E
  8
TITLE
 10
0.0
 20
0.0
 30
0.0
 11
0.0
 21
62.000193750000001
 31
0.0
  0
LINE
  5
F
  8
TITLE
 10
40.48012649999999
 20
-0.0000000000000071
 30
0.0
 11
0.0
 21
0.0
 31
0.0
  0
LINE
  5
10
  8
TITLE
 10
40.48012649999999
 20
62.000193750000001
 30
0.0
 11
40.48012649999999
 21
-0.0000000000000071
 31
0.0
  0
LINE
  5
11
  8
TITLE
 10
0.0
 20
62.000193750000001
 30
0.0
 11
40.48012649999999
 21
62.000193750000001
 31
0.0
  0
LINE
  5
12
  8
TITLE
 10
40.23212572500001
 20
1.0800033749999971
 30
0.0
 11
0.2480007749999904
 21
1.0800033750000031
 31
0.0
  0
LINE
  5
13
  8
TITLE
 10
40.23212572500001
 20
1.912005974999996
 30
0.0
 11
0.2480007749999904
 21
1.912005975000004
 31
0.0
  0
LINE
  5
14
  8
TITLE
 10
40.23212572500001
 20
2.7440085749999961
 30
0.0
 11
0.2480007749999904
 21
2.7440085750000041
 31
0.0
  0
LINE
  5
16
  8
TITLE
 10
40.23212572500001
 20
3.5760111749999961
 30
0.0
 11
0.2480007749999904
 21
3.5760111750000041
 31
0.0
  0
LINE
  5
17
  8
TITLE
 10
40.23212572500001
 20
4.408013774999997
 30
0.0
 11
0.2480007749999904
 21
4.4080137750000041
 31
0.0
  0
LINE
  5
18
  8
TITLE
 10
40.23212572500001
 20
5.2400163749999971
 30
0.0
 11
0.2480007749999904
 21
5.2400163750000033
 31
0.0
  0
LINE
  5
19
  8
TITLE
 10
40.23212572500001
 20
6.0720189749999971
 30
0.0
 11
0.2480007749999904
 21
6.0720189750000033
 31
0.0
  0
LINE
  5
1A
  8
TITLE
 10
40.23212572500001
 20
6.904021574999998
 30
0.0
 11
0.2480007749999904
 21
6.9040215750000034
 31
0.0
  0
LINE
  5
1B
  8
TITLE
 10
40.23212572500001
 20
7.7360241749999981
 30
0.0
 11
0.2480007749999904
 21
7.7360241750000052
 31
0.0
  0
LINE
  5
1C
  8
TITLE
 10
33.17600077499997
 20
8.5680267749999963
 30
0.0
 11
14.36000077499998
 21
8.5680267750000034
 31
0.0
  0
LINE
  5
1D
  8
TITLE
 10
40.23212572500001
 20
9.4000293749999901
 30
0.0
 11
4.9520007749999913
 21
9.400029374999999
 31
0.0
  0
LINE
  5
1E
  8
TITLE
 10
40.23212572500001
 20
10.232031974999989
 30
0.0
 11
0.248000774999993
 21
10.232031975
 31
0.0
  0
LINE
  5
21
  8
TITLE
 10
7.3040007749999871
 20
0.2480007750000047
 30
0.0
 11
7.3040007749999907
 21
9.400029374999999
 31
0.0
  0
LINE
  5
22
  8
TITLE
 10
9.6560007749999901
 20
0.2480007750000047
 30
0.0
 11
9.6560007749999901
 21
9.400029374999999
 31
0.0
  0
LINE
  5
23
  8
TITLE
 10
12.00800077499998
 20
0.2480007750000047
 30
0.0
 11
12.00800077499999
 21
9.400029374999999
 31
0.0
  0
LINE
  5
24
  8
TITLE
 10
14.36000077499998
 20
0.2480007750000047
 30
0.0
 11
14.360000774999991
 21
10.232031975
 31
0.0
  0
LINE
  5
25
  8
TITLE
 10
16.712000774999979
 20
0.2480007750000047
 30
0.0
 11
16.712000774999989
 21
8.5680267750000034
 31
0.0
  0
LINE
  5
26
  8
TITLE
 10
19.064000774999979
 20
0.2480007750000047
 30
0.0
 11
19.064000774999979
 21
9.400029374999999
 31
0.0
  0
LINE
  5
27
  8
TITLE
 10
21.416000774999969
 20
0.2480007750000047
 30
0.0
 11
21.416000774999969
 21
8.5680267750000034
 31
0.0
  0
LINE
  5
28
  8
TITLE
 10
23.76800077499999
 20
0.2480007750000047
 30
0.0
 11
23.76800077499999
 21
10.232031975
 31
0.0
  0
LINE
  5
29
  8
TITLE
 10
26.12000077499998
 20
0.2480007750000047
 30
0.0
 11
26.120000774999991
 21
8.5680267750000034
 31
0.0
  0
LINE
  5
2A
  8
TITLE
 10
28.47200077499998
 20
0.2480007750000047
 30
0.0
 11
28.47200077499998
 21
9.4000293749999901
 31
0.0
  0
LINE
  5
2B
  8
TITLE
 10
30.824000774999991
 20
0.2480007750000047
 30
0.0
 11
30.824000774999991
 21
8.5680267749999999
 31
0.0
  0
LINE
  5
2C
  8
TITLE
 10
33.176000774999977
 20
0.2480007750000047
 30
0.0
 11
33.176000774999977
 21
10.232031975
 31
0.0
  0
LINE
  5
2D
  8
TITLE
 10
35.528000774999967
 20
0.2480007750000047
 30
0.0
 11
35.528000774999981
 21
9.4000293749999901
 31
0.0
  0
LINE
  5
2E
  8
TITLE
 10
37.880000774999971
 20
0.2480007750000047
 30
0.0
 11
37.880000774999971
 21
9.4000293749999901
 31
0.0
  0
TEXT
  5
34
  8
TEXT
 10
8.3434966734374907
 20
9.5660298937500006
 30
0.0
 40
0.5000015625000001
  1
OVERALL
 41
0.75
 72
     4
 11
9.6560007749999901
 21
9.8160306750000004
 31
0.0
  0
TEXT
  5
35
  8
TEXT
 10
17.06399452499998
 20
9.5660298937500006
 30
0.0
 40
0.5000015625000001
  1
PANEL SPACE
 41
0.75
 72
     4
 11
19.064000774999979
 21
9.8160306750000004
 31
0.0
  0
TEXT
  5
36
  8
TEXT
 10
27.409497454687489
 20
9.5660298937500006
 30
0.0
 40
0.5000015625000001
  1
PANELS
 41
0.75
 72
     4
 11
28.472000774999991
 21
9.8160306750000004
 31
0.0
  0
TEXT
  5
37
  8
TEXT
 10
35.7665603203125
 20
9.5660298937499881
 30
0.0
 40
0.5000015625000001
  1
INSIDE
 41
0.75
 72
     4
 11
36.704063249999997
 21
9.8160306749999897
 31
0.0
  0
TEXT
  5
38
  8
TEXT
 10
0.5999945249999917
 20
8.7340272937500032
 30
0.0
 40
0.5000015625000001
  1
PART NUMBER
 41
0.75
 72
     4
 11
2.60000077499999
 21
8.9840280750000048
 31
0.0
  0
TEXT
  5
45
  8
TEXT
 10
6.0030003843749906
 20
8.3180259937500072
 30
0.0
 40
0.5000015625000001
  1
A
 41
0.75
 72
     4
 11
6.1280007749999914
 21
8.5680267750000052
 31
0.0
  0
TEXT
  5
46
  8
TEXT
 10
8.3550003843749892
 20
8.3180259937500036
 30
0.0
 40
0.5000015625000001
  1
B
 41
0.75
 72
     4
 11
8.4800007749999917
 21
8.5680267750000034
 31
0.0
  0
TEXT
  5
47
  8
TEXT
 10
10.707000384374981
 20
8.3180259937500036
 30
0.0
 40
0.5000015625000001
  1
C
 41
0.75
 72
     4
 11
10.83200077499999
 21
8.5680267750000034
 31
0.0
  0
TEXT
  5
48
  8
TEXT
 10
13.059000384374979
 20
8.3180259937500072
 30
0.0
 40
0.5000015625000001
  1
D
 41
0.75
 72
     4
 11
13.18400077499998
 21
8.5680267750000052
 31
0.0
  0
TEXT
  5
4B
  8
TEXT
 10
15.83699804062498
 20
8.7340272937500032
 30
0.0
 40
0.5000015625000001
  1
FRONT
 41
0.75
 72
     4
 11
16.712000774999979
 21
8.9840280750000048
 31
0.0
  0
TEXT
  5
4C
  8
TEXT
 10
20.72849862656248
 20
8.7340272937500014
 30
0.0
 40
0.5000015625000001
  1
REAR
 41
0.75
 72
     4
 11
21.416000774999979
 21
8.9840280750000012
 31
0.0
  0
TEXT
  5
4D
  8
TEXT
 10
25.244998040624989
 20
8.7340272937500032
 30
0.0
 40
0.5000015625000001
  1
FRONT
 41
0.75
 72
     4
 11
26.120000774999991
 21
8.9840280750000048
 31
0.0
  0
TEXT
  5
4E
  8
TEXT
 10
30.136498626562489
 20
8.7340272937500014
 30
0.0
 40
0.5000015625000001
  1
REAR
 41
0.75
 72
     4
 11
30.824000774999991
 21
8.9840280750000012
 31
0.0
  0
TEXT
  5
4F
  8
TEXT
 10
33.351997649999987
 20
8.3180259937500001
 30
0.0
 40
0.5000015625000001
  1
HEIGHT
 41
0.75
 72
     4
 11
34.352000774999993
 21
8.5680267749999999
 31
0.0
  0
TEXT
  5
50
  8
TEXT
 10
35.828998040624988
 20
8.3180259937500001
 30
0.0
 40
0.5000015625000001
  1
WIDTH
 41
0.75
 72
     4
 11
36.70400077499999
 21
8.5680267749999999
 31
0.0
  0
TEXT
  5
51
  8
TEXT
 10
38.181060515624992
 20
8.3180259937500001
 30
0.0
 40
0.5000015625000001
  1
DEPTH
 41
0.75
 72
     4
 11
39.056063249999987
 21
8.5680267749999999
 31
0.0
  0
TEXT
  5
5F
  8
TEXT
 10
15.41100038437499
 20
7.9020246937500023
 30
0.0
 40
0.5000015625000001
  1
E
 41
0.75
 72
     4
 11
15.536000774999991
 21
8.1520254750000021
 31
0.0
  0
TEXT
  5
60
  8
TEXT
 10
17.76300038437498
 20
7.9020246937500023
 30
0.0
 40
0.5000015625000001
  1
F
 41
0.75
 72
     4
 11
17.888000774999981
 21
8.1520254750000021
 31
0.0
  0
TEXT
  5
61
  8
TEXT
 10
20.115000384374969
 20
7.9020246937500023
 30
0.0
 40
0.5000015625000001
  1
G
 41
0.75
 72
     4
 11
20.24000077499997
 21
8.1520254750000021
 31
0.0
  0
TEXT
  5
62
  8
TEXT
 10
22.46700038437498
 20
7.9020246937500023
 30
0.0
 40
0.5000015625000001
  1
H
 41
0.75
 72
     4
 11
22.592000774999981
 21
8.1520254750000021
 31
0.0
  0
TEXT
  5
63
  8
TEXT
 10
24.819000384374991
 20
7.9020246937500023
 30
0.0
 40
0.5000015625000001
  1
J
 41
0.75
 72
     4
 11
24.944000774999989
 21
8.1520254750000021
 31
0.0
  0
TEXT
  5
64
  8
TEXT
 10
27.171000384374981
 20
7.9020246937500023
 30
0.0
 40
0.5000015625000001
  1
K
 41
0.75
 72
     4
 11
27.296000774999978
 21
8.1520254750000021
 31
0.0
  0
TEXT
  5
65
  8
TEXT
 10
29.523000384374988
 20
7.9020246937500023
 30
0.0
 40
0.5000015625000001
  1
L
 41
0.75
 72
     4
 11
29.648000774999989
 21
8.1520254750000021
 31
0.0
  0
TEXT
  5
66
  8
TEXT
 10
31.875000384374982
 20
7.9020246937500023
 30
0.0
 40
0.5000015625000001
  1
M
 41
0.75
 72
     4
 11
32.00000077499999
 21
8.1520254750000021
 31
0.0
  0
LINE
  5
67
  8
TITLE
 10
40.23212572500001
 20
10.480032749999991
 30
0.0
 11
0.248000774999993
 21
10.48003275000001
 31
0.0
  0
LINE
  5
68
  8
TITLE
 10
40.23212572500001
 20
61.752192974999993
 30
0.0
 11
40.23212572500001
 21
60.08018775
 31
0.0
  0
LINE
  5
69
  8
TITLE
 10
0.248000774999993
 20
10.48003275000001
 30
0.0
 11
0.2480007750000042
 21
59.832186974999992
 31
0.0
  0
TEXT
  5
6A
  8
TEXT
 10
1.4749972593749909
 20
7.0700220937500049
 30
0.0
 40
0.5000015625000001
  1
BB-1800
 41
0.75
 72
     4
 11
2.60000077499999
 21
7.3200228750000047
 31
0.0
  0
TEXT
  5
6B
  8
TEXT
 10
1.506247357031242
 20
6.2366861562500029
 30
0.0
 40
0.5000015625000001
  1
BB-1801
 41
0.75
 72
     4
 11
2.6000007749999909
 21
6.4866869375000027
 31
0.0
  0
TEXT
  5
6C
  8
TEXT
 10
1.443747161718741
 20
5.4033502187500053
 30
0.0
 40
0.5000015625000001
  1
BB-1802
 41
0.75
 72
     4
 11
2.60000077499999
 21
5.6533510000000051
 31
0.0
  0
TEXT
  5
6D
  8
TEXT
 10
1.4437471617187401
 20
4.5700142812500051
 30
0.0
 40
0.5000015625000001
  1
BB-1803
 41
0.75
 72
     4
 11
2.60000077499999
 21
4.820015062500004
 31
0.0
  0
TEXT
  5
6E
  8
TEXT
 10
1.443747161718741
 20
3.736678343750004
 30
0.0
 40
0.5000015625000001
  1
BB-1804
 41
0.75
 72
     4
 11
2.60000077499999
 21
3.9866791250000042
 31
0.0
  0
TEXT
  5
70
  8
TEXT
 10
1.443747161718741
 20
2.902009068750004
 30
0.0
 40
0.5000015625000001
  1
BB-1806
 41
0.75
 72
     4
 11
2.60000077499999
 21
3.1520098500000042
 31
0.0
  0
TEXT
  5
71
  8
TEXT
 10
1.443747161718741
 20
2.0686731312500051
 30
0.0
 40
0.5000015625000001
  1
BB-1807
 41
0.75
 72
     4
 11
2.60000077499999
 21
2.3186739125000049
 31
0.0
  0
TEXT
  5
72
  8
TEXT
 10
1.443747161718741
 20
1.2353371937500051
 30
0.0
 40
0.5000015625000001
  1
BB-1808
 41
0.75
 72
     4
 11
2.60000077499999
 21
1.4853379750000051
 31
0.0
  0
TEXT
  5
73
  8
TEXT
 10
1.4437471617187401
 20
0.402001256250007
 30
0.0
 40
0.5000015625000001
  1
BB-1809
 41
0.75
 72
     4
 11
2.60000077499999
 21
0.6520020375000071
 31
0.0
  0
TEXT
  5
74
  8
TEXT
 10
5.3779984312499911
 20
7.0700220937500022
 30
0.0
 40
0.5000015625000001
  1
6.438
 41
0.75
 72
     4
 11
6.1280007749999914
 21
7.320022875000002
 31
0.0
  0
TEXT
  5
75
  8
TEXT
 10
5.3779984312499911
 20
6.2366861562500038
 30
0.0
 40
0.5000015625000001
  1
6.438
 41
0.75
 72
     4
 11
6.1280007749999914
 21
6.4866869375000036
 31
0.0
  0
TEXT
  5
76
  8
TEXT
 10
5.4404986265624906
 20
5.4033502187500062
 30
0.0
 40
0.5000015625000001
  1
8.188
 41
0.75
 72
     4
 11
6.1280007749999914
 21
5.653351000000006
 31
0.0
  0
TEXT
  5
77
  8
TEXT
 10
5.4404986265624906
 20
4.5700142812500051
 30
0.0
 40
0.5000015625000001
  1
8.188
 41
0.75
 72
     4
 11
6.1280007749999914
 21
4.820015062500004
 31
0.0
  0
TEXT
  5
78
  8
TEXT
 10
5.4404986265624906
 20
3.736678343750004
 30
0.0
 40
0.5000015625000001
  1
8.188
 41
0.75
 72
     4
 11
6.1280007749999914
 21
3.9866791250000042
 31
0.0
  0
TEXT
  5
7A
  8
TEXT
 10
5.3779984312499911
 20
2.9020090687500062
 30
0.0
 40
0.5000015625000001
  1
9.938
 41
0.75
 72
     4
 11
6.1280007749999914
 21
3.152009850000006
 31
0.0
  0
TEXT
  5
7B
  8
TEXT
 10
5.3779984312499911
 20
2.0686731312500051
 30
0.0
 40
0.5000015625000001
  1
9.938
 41
0.75
 72
     4
 11
6.1280007749999914
 21
2.3186739125000049
 31
0.0
  0
TEXT
  5
7C
  8
TEXT
 10
5.3779984312499911
 20
1.2353371937500051
 30
0.0
 40
0.5000015625000001
  1
9.938
 41
0.75
 72
     4
 11
6.1280007749999914
 21
1.4853379750000051
 31
0.0
  0
TEXT
  5
7D
  8
TEXT
 10
5.3779984312499911
 20
0.4020012562500068
 30
0.0
 40
0.5000015625000001
  1
9.938
 41
0.75
 72
     4
 11
6.1280007749999914
 21
0.6520020375000069
 31
0.0
  0
TEXT
  5
7E
  8
TEXT
 10
7.7924986265624856
 20
7.0700220937500022
 30
0.0
 40
0.5000015625000001
  1
5.500
 41
0.75
 72
     4
 11
8.4800007749999864
 21
7.320022875000002
 31
0.0
  0
TEXT
  5
7F
  8
TEXT
 10
7.7924986265624856
 20
6.236686156250002
 30
0.0
 40
0.5000015625000001
  1
8.313
 41
0.75
 72
     4
 11
8.4800007749999864
 21
6.4866869375000018
 31
0.0
  0
TEXT
  5
80
  8
TEXT
 10
7.7924986265624856
 20
5.4033502187500027
 30
0.0
 40
0.5000015625000001
  1
5.500
 41
0.75
 72
     4
 11
8.4800007749999864
 21
5.6533510000000033
 31
0.0
  0
TEXT
  5
81
  8
TEXT
 10
7.7924986265624856
 20
4.5700142812500033
 30
0.0
 40
0.5000015625000001
  1
8.313
 41
0.75
 72
     4
 11
8.4800007749999864
 21
4.8200150625000031
 31
0.0
  0
TEXT
  5
82
  8
TEXT
 10
7.698748333593735
 20
3.7366783437500022
 30
0.0
 40
0.5000015625000001
  1
11.063
 41
0.75
 72
     4
 11
8.4800007749999864
 21
3.986679125000002
 31
0.0
  0
TEXT
  5
84
  8
TEXT
 10
7.7924986265624856
 20
2.902009068750004
 30
0.0
 40
0.5000015625000001
  1
8.313
 41
0.75
 72
     4
 11
8.4800007749999864
 21
3.1520098500000042
 31
0.0
  0
TEXT
  5
85
  8
TEXT
 10
7.7924986265624856
 20
2.0686731312500029
 30
0.0
 40
0.5000015625000001
  1
8.313
 41
0.75
 72
     4
 11
8.4800007749999864
 21
2.3186739125000031
 31
0.0
  0
TEXT
  5
86
  8
TEXT
 10
7.698748333593735
 20
1.2353371937500039
 30
0.0
 40
0.5000015625000001
  1
11.063
 41
0.75
 72
     4
 11
8.4800007749999864
 21
1.485337975000004
 31
0.0
  0
TEXT
  5
87
  8
TEXT
 10
7.698748333593735
 20
0.4020012562500052
 30
0.0
 40
0.5000015625000001
  1
11.063
 41
0.75
 72
     4
 11
8.4800007749999864
 21
0.6520020375000052
 31
0.0
  0
TEXT
  5
88
  8
TEXT
 10
10.11324852890624
 20
7.0700220937500022
 30
0.0
 40
0.5000015625000001
  1
11.000
 41
0.75
 72
     4
 11
10.83200077499999
 21
7.320022875000002
 31
0.0
  0
TEXT
  5
89
  8
TEXT
 10
10.11324852890624
 20
6.236686156250002
 30
0.0
 40
0.5000015625000001
  1
11.000
 41
0.75
 72
     4
 11
10.83200077499999
 21
6.4866869375000018
 31
0.0
  0
TEXT
  5
8A
  8
TEXT
 10
10.11324852890624
 20
5.4033502187500027
 30
0.0
 40
0.5000015625000001
  1
11.000
 41
0.75
 72
     4
 11
10.83200077499999
 21
5.6533510000000033
 31
0.0
  0
TEXT
  5
8B
  8
TEXT
 10
10.11324852890624
 20
4.5700142812500033
 30
0.0
 40
0.5000015625000001
  1
11.000
 41
0.75
 72
     4
 11
10.83200077499999
 21
4.8200150625000031
 31
0.0
  0
TEXT
  5
8C
  8
TEXT
 10
10.11324852890624
 20
3.7366783437500031
 30
0.0
 40
0.5000015625000001
  1
11.000
 41
0.75
 72
     4
 11
10.83200077499999
 21
3.986679125000002
 31
0.0
  0
TEXT
  5
8E
  8
TEXT
 10
10.11324852890624
 20
2.902009068750004
 30
0.0
 40
0.5000015625000001
  1
11.000
 41
0.75
 72
     4
 11
10.83200077499999
 21
3.1520098500000042
 31
0.0
  0
TEXT
  5
8F
  8
TEXT
 10
10.050748333593731
 20
2.0686731312500042
 30
0.0
 40
0.5000015625000001
  1
15.000
 41
0.75
 72
     4
 11
10.83200077499999
 21
2.3186739125000031
 31
0.0
  0
TEXT
  5
90
  8
TEXT
 10
10.11324852890624
 20
1.2353371937500039
 30
0.0
 40
0.5000015625000001
  1
11.000
 41
0.75
 72
     4
 11
10.83200077499999
 21
1.485337975000004
 31
0.0
  0
TEXT
  5
91
  8
TEXT
 10
10.050748333593731
 20
0.4020012562500052
 30
0.0
 40
0.5000015625000001
  1
15.000
 41
0.75
 72
     4
 11
10.83200077499999
 21
0.6520020375000052
 31
0.0
  0
TEXT
  5
92
  8
TEXT
 10
12.496498626562479
 20
7.0700220937499996
 30
0.0
 40
0.5000015625000001
  1
3.125
 41
0.75
 72
     4
 11
13.18400077499998
 21
7.3200228750000003
 31
0.0
  0
TEXT
  5
93
  8
TEXT
 10
12.43399843124998
 20
6.2366861562500011
 30
0.0
 40
0.5000015625000001
  1
5.938
 41
0.75
 72
     4
 11
13.18400077499998
 21
6.4866869375
 31
0.0
  0
TEXT
  5
94
  8
TEXT
 10
12.496498626562479
 20
5.4033502187500009
 30
0.0
 40
0.5000015625000001
  1
3.125
 41
0.75
 72
     4
 11
13.18400077499998
 21
5.6533510000000007
 31
0.0
  0
TEXT
  5
95
  8
TEXT
 10
12.43399843124998
 20
4.5700142812500006
 30
0.0
 40
0.5000015625000001
  1
5.938
 41
0.75
 72
     4
 11
13.18400077499998
 21
4.8200150625000013
 31
0.0
  0
TEXT
  5
96
  8
TEXT
 10
12.43399843124998
 20
3.7366783437500009
 30
0.0
 40
0.5000015625000001
  1
8.688
 41
0.75
 72
     4
 11
13.18400077499998
 21
3.9866791250000011
 31
0.0
  0
TEXT
  5
98
  8
TEXT
 10
12.43399843124998
 20
2.9020090687500009
 30
0.0
 40
0.5000015625000001
  1
5.938
 41
0.75
 72
     4
 11
13.18400077499998
 21
3.152009850000002
 31
0.0
  0
TEXT
  5
99
  8
TEXT
 10
12.43399843124998
 20
2.0686731312500029
 30
0.0
 40
0.5000015625000001
  1
5.938
 41
0.75
 72
     4
 11
13.18400077499998
 21
2.3186739125000031
 31
0.0
  0
TEXT
  5
9A
  8
TEXT
 10
12.43399843124998
 20
1.2353371937500031
 30
0.0
 40
0.5000015625000001
  1
8.688
 41
0.75
 72
     4
 11
13.18400077499998
 21
1.4853379750000031
 31
0.0
  0
TEXT
  5
9B
  8
TEXT
 10
12.43399843124998
 20
0.4020012562500034
 30
0.0
 40
0.5000015625000001
  1
8.688
 41
0.75
 72
     4
 11
13.18400077499998
 21
0.6520020375000035
 31
0.0
  0
TEXT
  5
9C
  8
TEXT
 10
14.84849515781249
 20
7.0686887562500003
 30
0.0
 40
0.5000015625000001
  1
6.188
 41
0.75
 72
     4
 11
15.535997306249991
 21
7.3186895375000001
 31
0.0
  0
TEXT
  5
9D
  8
TEXT
 10
14.84849515781249
 20
6.23535281875
 30
0.0
 40
0.5000015625000001
  1
6.188
 41
0.75
 72
     4
 11
15.535997306249991
 21
6.4853535999999998
 31
0.0
  0
TEXT
  5
9E
  8
TEXT
 10
14.78599496249999
 20
5.4020168812500007
 30
0.0
 40
0.5000015625000001
  1
7.938
 41
0.75
 72
     4
 11
15.535997306249991
 21
5.6520176625000014
 31
0.0
  0
TEXT
  5
9F
  8
TEXT
 10
14.78599496249999
 20
4.5686809437500022
 30
0.0
 40
0.5000015625000001
  1
7.938
 41
0.75
 72
     4
 11
15.535997306249991
 21
4.818681725000002
 31
0.0
  0
TEXT
  5
A0
  8
TEXT
 10
14.78599496249999
 20
3.7353450062500011
 30
0.0
 40
0.5000015625000001
  1
7.938
 41
0.75
 72
     4
 11
15.535997306249991
 21
3.9853457875
 31
0.0
  0
TEXT
  5
A2
  8
TEXT
 10
14.78599496249999
 20
2.900675731250002
 30
0.0
 40
0.5000015625000001
  1
9.688
 41
0.75
 72
     4
 11
15.535997306249991
 21
3.1506765125000031
 31
0.0
  0
TEXT
  5
A3
  8
TEXT
 10
14.78599496249999
 20
2.0673397937500022
 30
0.0
 40
0.5000015625000001
  1
9.688
 41
0.75
 72
     4
 11
15.535997306249991
 21
2.317340575000002
 31
0.0
  0
TEXT
  5
A4
  8
TEXT
 10
14.78599496249999
 20
1.2340038562500031
 30
0.0
 40
0.5000015625000001
  1
9.688
 41
0.75
 72
     4
 11
15.535997306249991
 21
1.4840046375000031
 31
0.0
  0
TEXT
  5
A5
  8
TEXT
 10
14.78599496249999
 20
0.4006679187500035
 30
0.0
 40
0.5000015625000001
  1
9.688
 41
0.75
 72
     4
 11
15.535997306249991
 21
0.6506687000000035
 31
0.0
  0
TEXT
  5
A6
  8
TEXT
 10
17.169245060156229
 20
7.0686887562500003
 30
0.0
 40
0.5000015625000001
  1
5.250
 41
0.75
 72
     4
 11
17.887997306249979
 21
7.3186895375000001
 31
0.0
  0
TEXT
  5
A7
  8
TEXT
 10
17.169245060156229
 20
6.2353528187500018
 30
0.0
 40
0.5000015625000001
  1
8.047
 41
0.75
 72
     4
 11
17.887997306249979
 21
6.4853536000000016
 31
0.0
  0
TEXT
  5
A8
  8
TEXT
 10
17.169245060156229
 20
5.4020168812500007
 30
0.0
 40
0.5000015625000001
  1
5.250
 41
0.75
 72
     4
 11
17.887997306249979
 21
5.6520176625000014
 31
0.0
  0
TEXT
  5
A9
  8
TEXT
 10
17.169245060156229
 20
4.5686809437500022
 30
0.0
 40
0.5000015625000001
  1
8.047
 41
0.75
 72
     4
 11
17.887997306249979
 21
4.818681725000002
 31
0.0
  0
TEXT
  5
AA
  8
TEXT
 10
17.044244669531231
 20
3.7353450062500002
 30
0.0
 40
0.5000015625000001
  1
10.828
 41
0.75
 72
     4
 11
17.887997306249979
 21
3.9853457875
 31
0.0
  0
TEXT
  5
AC
  8
TEXT
 10
17.169245060156229
 20
2.900675731250002
 30
0.0
 40
0.5000015625000001
  1
8.047
 41
0.75
 72
     4
 11
17.887997306249979
 21
3.1506765125000031
 31
0.0
  0
TEXT
  5
AD
  8
TEXT
 10
17.169245060156229
 20
2.0673397937500022
 30
0.0
 40
0.5000015625000001
  1
8.047
 41
0.75
 72
     4
 11
17.887997306249979
 21
2.317340575000002
 31
0.0
  0
TEXT
  5
AE
  8
TEXT
 10
17.044244669531231
 20
1.2340038562500031
 30
0.0
 40
0.5000015625000001
  1
10.828
 41
0.75
 72
     4
 11
17.887997306249979
 21
1.4840046375000031
 31
0.0
  0
TEXT
  5
AF
  8
TEXT
 10
17.044244669531231
 20
0.4006679187500035
 30
0.0
 40
0.5000015625000001
  1
10.828
 41
0.75
 72
     4
 11
17.887997306249979
 21
0.6506687000000035
 31
0.0
  0
TEXT
  5
B0
  8
TEXT
 10
19.489994962499981
 20
7.0686887562500003
 30
0.0
 40
0.5000015625000001
  1
5.978
 41
0.75
 72
     4
 11
20.239997306249979
 21
7.3186895375000001
 31
0.0
  0
TEXT
  5
B1
  8
TEXT
 10
19.489994962499981
 20
6.23535281875
 30
0.0
 40
0.5000015625000001
  1
5.978
 41
0.75
 72
     4
 11
20.239997306249979
 21
6.4853535999999998
 31
0.0
  0
TEXT
  5
B2
  8
TEXT
 10
19.489994962499981
 20
5.4020168812500007
 30
0.0
 40
0.5000015625000001
  1
7.728
 41
0.75
 72
     4
 11
20.239997306249979
 21
5.6520176625000014
 31
0.0
  0
TEXT
  5
B3
  8
TEXT
 10
19.489994962499981
 20
4.5686809437500022
 30
0.0
 40
0.5000015625000001
  1
7.728
 41
0.75
 72
     4
 11
20.239997306249979
 21
4.818681725000002
 31
0.0
  0
TEXT
  5
B4
  8
TEXT
 10
19.489994962499981
 20
3.7353450062500011
 30
0.0
 40
0.5000015625000001
  1
7.728
 41
0.75
 72
     4
 11
20.239997306249979
 21
3.9853457875
 31
0.0
  0
TEXT
  5
B6
  8
TEXT
 10
19.489994962499981
 20
2.9006757312500029
 30
0.0
 40
0.5000015625000001
  1
9.478
 41
0.75
 72
     4
 11
20.239997306249979
 21
3.1506765125000031
 31
0.0
  0
TEXT
  5
B7
  8
TEXT
 10
19.489994962499981
 20
2.0673397937500031
 30
0.0
 40
0.5000015625000001
  1
9.478
 41
0.75
 72
     4
 11
20.239997306249979
 21
2.317340575000002
 31
0.0
  0
TEXT
  5
B8
  8
TEXT
 10
19.489994962499981
 20
1.2340038562500031
 30
0.0
 40
0.5000015625000001
  1
9.478
 41
0.75
 72
     4
 11
20.239997306249979
 21
1.4840046375000031
 31
0.0
  0
TEXT
  5
B9
  8
TEXT
 10
19.489994962499981
 20
0.4006679187500036
 30
0.0
 40
0.5000015625000001
  1
9.478
 41
0.75
 72
     4
 11
20.239997306249979
 21
0.6506687000000035
 31
0.0
  0
TEXT
  5
BA
  8
TEXT
 10
21.904495157812491
 20
7.0686887562500003
 30
0.0
 40
0.5000015625000001
  1
5.175
 41
0.75
 72
     4
 11
22.591997306249979
 21
7.3186895375000001
 31
0.0
  0
TEXT
  5
BB
  8
TEXT
 10
21.841994962499982
 20
6.23535281875
 30
0.0
 40
0.5000015625000001
  1
7.972
 41
0.75
 72
     4
 11
22.591997306249979
 21
6.4853535999999998
 31
0.0
  0
TEXT
  5
BC
  8
TEXT
 10
21.904495157812491
 20
5.4020168812500007
 30
0.0
 40
0.5000015625000001
  1
5.175
 41
0.75
 72
     4
 11
22.591997306249979
 21
5.6520176625000014
 31
0.0
  0
TEXT
  5
BD
  8
TEXT
 10
21.841994962499982
 20
4.5686809437500022
 30
0.0
 40
0.5000015625000001
  1
7.972
 41
0.75
 72
     4
 11
22.591997306249979
 21
4.818681725000002
 31
0.0
  0
TEXT
  5
BE
  8
TEXT
 10
21.748244669531228
 20
3.7353450062500011
 30
0.0
 40
0.5000015625000001
  1
10.753
 41
0.75
 72
     4
 11
22.591997306249979
 21
3.9853457875
 31
0.0
  0
TEXT
  5
C0
  8
TEXT
 10
21.841994962499982
 20
2.9006757312500029
 30
0.0
 40
0.5000015625000001
  1
7.972
 41
0.75
 72
     4
 11
22.591997306249979
 21
3.1506765125000031
 31
0.0
  0
TEXT
  5
C1
  8
TEXT
 10
21.841994962499982
 20
2.0673397937500031
 30
0.0
 40
0.5000015625000001
  1
7.972
 41
0.75
 72
     4
 11
22.591997306249979
 21
2.317340575000002
 31
0.0
  0
TEXT
  5
C2
  8
TEXT
 10
21.748244669531228
 20
1.2340038562500031
 30
0.0
 40
0.5000015625000001
  1
10.753
 41
0.75
 72
     4
 11
22.591997306249979
 21
1.4840046375000031
 31
0.0
  0
TEXT
  5
C3
  8
TEXT
 10
21.748244669531228
 20
0.4006679187500036
 30
0.0
 40
0.5000015625000001
  1
10.753
 41
0.75
 72
     4
 11
22.591997306249979
 21
0.6506687000000035
 31
0.0
  0
TEXT
  5
C4
  8
TEXT
 10
24.256495157812491
 20
7.0686887562500003
 30
0.0
 40
0.5000015625000001
  1
6.125
 41
0.75
 72
     4
 11
24.94399730624999
 21
7.3186895375000001
 31
0.0
  0
TEXT
  5
C5
  8
TEXT
 10
24.256495157812491
 20
6.23535281875
 30
0.0
 40
0.5000015625000001
  1
6.125
 41
0.75
 72
     4
 11
24.94399730624999
 21
6.4853535999999998
 31
0.0
  0
TEXT
  5
C6
  8
TEXT
 10
24.193994962499989
 20
5.4020168812500007
 30
0.0
 40
0.5000015625000001
  1
7.875
 41
0.75
 72
     4
 11
24.94399730624999
 21
5.6520176625000014
 31
0.0
  0
TEXT
  5
C7
  8
TEXT
 10
24.193994962499989
 20
4.5686809437500022
 30
0.0
 40
0.5000015625000001
  1
7.875
 41
0.75
 72
     4
 11
24.94399730624999
 21
4.818681725000002
 31
0.0
  0
TEXT
  5
C8
  8
TEXT
 10
24.193994962499989
 20
3.7353450062500002
 30
0.0
 40
0.5000015625000001
  1
7.875
 41
0.75
 72
     4
 11
24.94399730624999
 21
3.9853457875
 31
0.0
  0
TEXT
  5
CA
  8
TEXT
 10
24.193994962499989
 20
2.900675731250002
 30
0.0
 40
0.5000015625000001
  1
9.625
 41
0.75
 72
     4
 11
24.94399730624999
 21
3.1506765125000031
 31
0.0
  0
TEXT
  5
CB
  8
TEXT
 10
24.193994962499989
 20
2.0673397937500022
 30
0.0
 40
0.5000015625000001
  1
9.625
 41
0.75
 72
     4
 11
24.94399730624999
 21
2.317340575000002
 31
0.0
  0
TEXT
  5
CC
  8
TEXT
 10
24.193994962499989
 20
1.2340038562500031
 30
0.0
 40
0.5000015625000001
  1
9.625
 41
0.75
 72
     4
 11
24.94399730624999
 21
1.4840046375000031
 31
0.0
  0
TEXT
  5
CD
  8
TEXT
 10
24.193994962499989
 20
0.4006679187500034
 30
0.0
 40
0.5000015625000001
  1
9.625
 41
0.75
 72
     4
 11
24.94399730624999
 21
0.6506687000000034
 31
0.0
  0
TEXT
  5
CE
  8
TEXT
 10
26.608495157812481
 20
7.0686887562500003
 30
0.0
 40
0.5000015625000001
  1
5.188
 41
0.75
 72
     4
 11
27.29599730624998
 21
7.3186895375000001
 31
0.0
  0
TEXT
  5
CF
  8
TEXT
 10
26.545994962499979
 20
6.2353528187499991
 30
0.0
 40
0.5000015625000001
  1
7.984
 41
0.75
 72
     4
 11
27.29599730624998
 21
6.4853535999999981
 31
0.0
  0
TEXT
  5
D0
  8
TEXT
 10
26.608495157812481
 20
5.402016881249998
 30
0.0
 40
0.5000015625000001
  1
5.188
 41
0.75
 72
     4
 11
27.29599730624998
 21
5.6520176624999978
 31
0.0
  0
TEXT
  5
D1
  8
TEXT
 10
26.545994962499979
 20
4.5686809437499996
 30
0.0
 40
0.5000015625000001
  1
7.984
 41
0.75
 72
     4
 11
27.29599730624998
 21
4.8186817250000002
 31
0.0
  0
TEXT
  5
D2
  8
TEXT
 10
26.452244669531229
 20
3.7353450062500002
 30
0.0
 40
0.5000015625000001
  1
10.766
 41
0.75
 72
     4
 11
27.29599730624998
 21
3.9853457875
 31
0.0
  0
TEXT
  5
D4
  8
TEXT
 10
26.545994962499979
 20
2.9006757312500011
 30
0.0
 40
0.5000015625000001
  1
7.984
 41
0.75
 72
     4
 11
27.29599730624998
 21
3.1506765125000009
 31
0.0
  0
TEXT
  5
D5
  8
TEXT
 10
26.545994962499979
 20
2.06733979375
 30
0.0
 40
0.5000015625000001
  1
7.984
 41
0.75
 72
     4
 11
27.29599730624998
 21
2.3173405749999998
 31
0.0
  0
TEXT
  5
D6
  8
TEXT
 10
26.452244669531229
 20
1.23400385625
 30
0.0
 40
0.5000015625000001
  1
10.766
 41
0.75
 72
     4
 11
27.29599730624998
 21
1.4840046375
 31
0.0
  0
TEXT
  5
D7
  8
TEXT
 10
26.452244669531229
 20
0.4006679187500017
 30
0.0
 40
0.5000015625000001
  1
10.766
 41
0.75
 72
     4
 11
27.29599730624998
 21
0.6506687000000017
 31
0.0
  0
TEXT
  5
D8
  8
TEXT
 10
28.89799496249999
 20
7.0686887562500003
 30
0.0
 40
0.5000015625000001
  1
5.938
 41
0.75
 72
     4
 11
29.647997306249991
 21
7.3186895375000001
 31
0.0
  0
TEXT
  5
D9
  8
TEXT
 10
28.89799496249999
 20
6.2353528187499991
 30
0.0
 40
0.5000015625000001
  1
5.938
 41
0.75
 72
     4
 11
29.647997306249991
 21
6.4853535999999981
 31
0.0
  0
TEXT
  5
DA
  8
TEXT
 10
28.89799496249999
 20
5.402016881249998
 30
0.0
 40
0.5000015625000001
  1
7.688
 41
0.75
 72
     4
 11
29.647997306249991
 21
5.6520176624999978
 31
0.0
  0
TEXT
  5
DB
  8
TEXT
 10
28.89799496249999
 20
4.5686809437499996
 30
0.0
 40
0.5000015625000001
  1
7.688
 41
0.75
 72
     4
 11
29.647997306249991
 21
4.8186817250000002
 31
0.0
  0
TEXT
  5
DC
  8
TEXT
 10
28.89799496249999
 20
3.7353450062500002
 30
0.0
 40
0.5000015625000001
  1
7.688
 41
0.75
 72
     4
 11
29.647997306249991
 21
3.9853457875
 31
0.0
  0
TEXT
  5
DE
  8
TEXT
 10
28.89799496249999
 20
2.9006757312500011
 30
0.0
 40
0.5000015625000001
  1
9.438
 41
0.75
 72
     4
 11
29.647997306249991
 21
3.1506765125000009
 31
0.0
  0
TEXT
  5
DF
  8
TEXT
 10
28.89799496249999
 20
2.06733979375
 30
0.0
 40
0.5000015625000001
  1
9.438
 41
0.75
 72
     4
 11
29.647997306249991
 21
2.3173405749999998
 31
0.0
  0
TEXT
  5
E0
  8
TEXT
 10
28.89799496249999
 20
1.23400385625
 30
0.0
 40
0.5000015625000001
  1
9.438
 41
0.75
 72
     4
 11
29.647997306249991
 21
1.4840046375
 31
0.0
  0
TEXT
  5
E1
  8
TEXT
 10
28.89799496249999
 20
0.4006679187500017
 30
0.0
 40
0.5000015625000001
  1
9.438
 41
0.75
 72
     4
 11
29.647997306249991
 21
0.6506687000000017
 31
0.0
  0
TEXT
  5
E2
  8
TEXT
 10
31.31249515781246
 20
7.0686887562499976
 30
0.0
 40
0.5000015625000001
  1
5.125
 41
0.75
 72
     4
 11
31.999997306249959
 21
7.3186895374999983
 31
0.0
  0
TEXT
  5
E3
  8
TEXT
 10
31.249994962499962
 20
6.2353528187499974
 30
0.0
 40
0.5000015625000001
  1
7.922
 41
0.75
 72
     4
 11
31.999997306249959
 21
6.4853535999999972
 31
0.0
  0
TEXT
  5
E4
  8
TEXT
 10
31.31249515781246
 20
5.402016881249998
 30
0.0
 40
0.5000015625000001
  1
5.125
 41
0.75
 72
     4
 11
31.999997306249959
 21
5.6520176624999969
 31
0.0
  0
TEXT
  5
E5
  8
TEXT
 10
31.249994962499962
 20
4.5686809437499969
 30
0.0
 40
0.5000015625000001
  1
7.922
 41
0.75
 72
     4
 11
31.999997306249959
 21
4.8186817249999967
 31
0.0
  0
TEXT
  5
E6
  8
TEXT
 10
31.187494767187459
 20
3.7353450062499989
 30
0.0
 40
0.5000015625000001
  1
10.703
 41
0.75
 72
     4
 11
31.999997306249959
 21
3.9853457874999991
 31
0.0
  0
TEXT
  5
E8
  8
TEXT
 10
31.249994962499962
 20
2.900675731249998
 30
0.0
 40
0.5000015625000001
  1
7.922
 41
0.75
 72
     4
 11
31.999997306249959
 21
3.1506765124999978
 31
0.0
  0
TEXT
  5
E9
  8
TEXT
 10
31.249994962499962
 20
2.0673397937499982
 30
0.0
 40
0.5000015625000001
  1
7.922
 41
0.75
 72
     4
 11
31.999997306249959
 21
2.317340574999998
 31
0.0
  0
TEXT
  5
EA
  8
TEXT
 10
31.187494767187459
 20
1.2340038562499991
 30
0.0
 40
0.5000015625000001
  1
10.703
 41
0.75
 72
     4
 11
31.999997306249959
 21
1.4840046374999989
 31
0.0
  0
TEXT
  5
EB
  8
TEXT
 10
31.187494767187459
 20
0.4006679187499999
 30
0.0
 40
0.5000015625000001
  1
10.703
 41
0.75
 72
     4
 11
31.999997306249959
 21
0.6506686999999999
 31
0.0
  0
TEXT
  5
EF
  8
TEXT
 10
33.601994962499987
 20
7.0700220937499996
 30
0.0
 40
0.5000015625000001
  1
5.938
 41
0.75
 72
     4
 11
34.351997306249991
 21
7.3200228750000003
 31
0.0
  0
TEXT
  5
F0
  8
TEXT
 10
33.601994962499987
 20
6.2366861562499993
 30
0.0
 40
0.5000015625000001
  1
5.938
 41
0.75
 72
     4
 11
34.351997306249991
 21
6.4866869374999991
 31
0.0
  0
TEXT
  5
F1
  8
TEXT
 10
33.601994962499987
 20
5.4033502187499991
 30
0.0
 40
0.5000015625000001
  1
7.688
 41
0.75
 72
     4
 11
34.351997306249991
 21
5.653350999999998
 31
0.0
  0
TEXT
  5
F2
  8
TEXT
 10
33.601994962499987
 20
4.5700142812499989
 30
0.0
 40
0.5000015625000001
  1
7.688
 41
0.75
 72
     4
 11
34.351997306249991
 21
4.8200150624999987
 31
0.0
  0
TEXT
  5
F3
  8
TEXT
 10
33.601994962499987
 20
3.73667834375
 30
0.0
 40
0.5000015625000001
  1
7.688
 41
0.75
 72
     4
 11
34.351997306249991
 21
3.9866791250000002
 31
0.0
  0
TEXT
  5
F5
  8
TEXT
 10
33.601994962499987
 20
2.90200906875
 30
0.0
 40
0.5000015625000001
  1
9.438
 41
0.75
 72
     4
 11
34.351997306249991
 21
3.1520098500000011
 31
0.0
  0
TEXT
  5
F6
  8
TEXT
 10
33.601994962499987
 20
2.0686731312500002
 30
0.0
 40
0.5000015625000001
  1
9.438
 41
0.75
 72
     4
 11
34.351997306249991
 21
2.3186739125
 31
0.0
  0
TEXT
  5
F7
  8
TEXT
 10
33.601994962499987
 20
1.23533719375
 30
0.0
 40
0.5000015625000001
  1
9.438
 41
0.75
 72
     4
 11
34.351997306249991
 21
1.485337975
 31
0.0
  0
TEXT
  5
F8
  8
TEXT
 10
33.601994962499987
 20
0.4020012562500014
 30
0.0
 40
0.5000015625000001
  1
9.438
 41
0.75
 72
     4
 11
34.351997306249991
 21
0.6520020375000014
 31
0.0
  0
TEXT
  5
F9
  8
TEXT
 10
36.047745255468719
 20
7.070022093749996
 30
0.0
 40
0.5000015625000001
  1
5.000
 41
0.75
 72
     4
 11
36.703997306249967
 21
7.3200228749999958
 31
0.0
  0
TEXT
  5
FA
  8
TEXT
 10
35.953994962499969
 20
6.2366861562499967
 30
0.0
 40
0.5000015625000001
  1
7.797
 41
0.75
 72
     4
 11
36.703997306249967
 21
6.4866869374999974
 31
0.0
  0
TEXT
  5
FB
  8
TEXT
 10
36.047745255468719
 20
5.4033502187499982
 30
0.0
 40
0.5000015625000001
  1
5.000
 41
0.75
 72
     4
 11
36.703997306249967
 21
5.653350999999998
 31
0.0
  0
TEXT
  5
FC
  8
TEXT
 10
35.953994962499969
 20
4.5700142812499971
 30
0.0
 40
0.5000015625000001
  1
7.797
 41
0.75
 72
     4
 11
36.703997306249967
 21
4.8200150624999969
 31
0.0
  0
TEXT
  5
FD
  8
TEXT
 10
35.86024466953122
 20
3.7366783437499982
 30
0.0
 40
0.5000015625000001
  1
10.578
 41
0.75
 72
     4
 11
36.703997306249967
 21
3.986679124999998
 31
0.0
  0
TEXT
  5
FF
  8
TEXT
 10
35.953994962499969
 20
2.9020090687499982
 30
0.0
 40
0.5000015625000001
  1
7.797
 41
0.75
 72
     4
 11
36.703997306249967
 21
3.152009849999998
 31
0.0
  0
TEXT
  5
100
  8
TEXT
 10
35.953994962499969
 20
2.068673131249998
 30
0.0
 40
0.5000015625000001
  1
7.797
 41
0.75
 72
     4
 11
36.703997306249967
 21
2.3186739124999991
 31
0.0
  0
TEXT
  5
101
  8
TEXT
 10
35.86024466953122
 20
1.2353371937499991
 30
0.0
 40
0.5000015625000001
  1
10.578
 41
0.75
 72
     4
 11
36.703997306249967
 21
1.4853379749999991
 31
0.0
  0
TEXT
  5
102
  8
TEXT
 10
35.86024466953122
 20
0.4020012562499997
 30
0.0
 40
0.5000015625000001
  1
10.578
 41
0.75
 72
     4
 11
36.703997306249967
 21
0.6520020374999996
 31
0.0
  0
TEXT
  5
103
  8
TEXT
 10
38.294119874999993
 20
7.070022093749996
 30
0.0
 40
0.5000015625000001
  1
10.000
 41
0.75
 72
     4
 11
39.04412221874999
 21
7.3200228749999958
 31
0.0
  0
TEXT
  5
104
  8
TEXT
 10
38.294119874999993
 20
6.2366861562499967
 30
0.0
 40
0.5000015625000001
  1
10.000
 41
0.75
 72
     4
 11
39.04412221874999
 21
6.4866869374999974
 31
0.0
  0
TEXT
  5
105
  8
TEXT
 10
38.294119874999993
 20
5.4033502187499982
 30
0.0
 40
0.5000015625000001
  1
10.000
 41
0.75
 72
     4
 11
39.04412221874999
 21
5.653350999999998
 31
0.0
  0
TEXT
  5
106
  8
TEXT
 10
38.294119874999993
 20
4.5700142812499971
 30
0.0
 40
0.5000015625000001
  1
10.000
 41
0.75
 72
     4
 11
39.04412221874999
 21
4.8200150624999969
 31
0.0
  0
TEXT
  5
107
  8
TEXT
 10
38.294119874999993
 20
3.7366783437499982
 30
0.0
 40
0.5000015625000001
  1
10.000
 41
0.75
 72
     4
 11
39.04412221874999
 21
3.986679124999998
 31
0.0
  0
TEXT
  5
109
  8
TEXT
 10
38.294119874999993
 20
2.9020090687499982
 30
0.0
 40
0.5000015625000001
  1
10.000
 41
0.75
 72
     4
 11
39.04412221874999
 21
3.152009849999998
 31
0.0
  0
TEXT
  5
10A
  8
TEXT
 10
38.262869777343731
 20
2.068673131249998
 30
0.0
 40
0.5000015625000001
  1
14.000
 41
0.75
 72
     4
 11
39.04412221874999
 21
2.3186739124999991
 31
0.0
  0
TEXT
  5
10B
  8
TEXT
 10
38.294119874999993
 20
1.2353371937499991
 30
0.0
 40
0.5000015625000001
  1
10.000
 41
0.75
 72
     4
 11
39.04412221874999
 21
1.4853379749999991
 31
0.0
  0
TEXT
  5
10C
  8
TEXT
 10
38.262869777343731
 20
0.4020012562499997
 30
0.0
 40
0.5000015625000001
  1
14.000
 41
0.75
 72
     4
 11
39.04412221874999
 21
0.6520020374999996
 31
0.0
  0
TEXT
  5
10F
  8
TEXT
 10
20.332768028541071
 20
60.541189190624991
 30
0.0
 40
0.75000234375
  1
BB-1800 thru BB-1809
 41
0.75
 72
     4
 11
25.535909288306691
 21
60.916190362499997
 31
0.0
  0
TEXT
  5
110
  8
TEXT
 10
6.8241036469025991
 20
60.541189190624991
 30
0.0
 40
0.75000234375
  1
SHOWCASE
 41
0.75
 72
     4
 11
9.0741106781525982
 21
60.916190362499997
 31
0.0
  0
LINE
  5
111
  8
TITLE
 10
0.2480007750000047
 20
59.832186974999992
 30
0.0
 11
40.23212572500001
 21
59.832186974999992
 31
0.0
  0
LINE
  5
112
  8
TITLE
 10
0.2480007750000043
 20
60.08018775
 30
0.0
 11
0.2480007750000047
 21
61.752192974999993
 31
0.0
  0
LINE
  5
113
  8
TITLE
 10
15.461108390585521
 20
60.08018775
 30
0.0
 11
32.080228614776011
 21
60.08018775
 31
0.0
  0
LINE
  5
114
  8
TITLE
 10
15.461108390585521
 20
61.752192974999993
 30
0.0
 11
32.080228614775997
 21
61.752192974999993
 31
0.0
  0
LINE
  5
115
  8
TITLE
 10
40.23212572500001
 20
59.832186974999992
 30
0.0
 11
40.23212572500001
 21
10.480032749999991
 31
0.0
  0
TEXT
  5
263
  8
TEXT
 10
3.332199637333678
 20
12.335336433767409
 30
0.0
 40
0.625
  1
%%UREAR VIEW
 41
0.75
 72
     1
 11
5.4493871373336784
 21
12.335336433767409
 31
0.0
  0
TEXT
  5
264
  8
TEXT
 10
17.521447800067641
 20
12.335336433767409
 30
0.0
 40
0.625
  1
%%ULEFT SIDE VIEW
 41
0.75
 72
     1
 11
20.732385300067651
 21
12.335336433767409
 31
0.0
  0
LINE
  5
266
  8
SHELF
 10
36.621176272471772
 20
17.53634423376743
 30
0.0
 11
39.292676272471759
 21
17.53634423376743
 31
0.0
  0
LINE
  5
267
  8
SHELF
 10
36.621176272471772
 20
17.78634423376743
 30
0.0
 11
39.105176272471752
 21
17.78634423376743
 31
0.0
  0
LINE
  5
268
  8
SHELF
 10
36.621176272471772
 20
17.66134423376743
 30
0.0
 11
39.230176272471759
 21
17.66134423376743
 31
0.0
  0
LINE
  5
269
  8
SHELF
 10
36.590176272471751
 20
17.78634423376743
 30
0.0
 11
36.590176272471751
 21
17.53634423376743
 31
0.0
  0
LINE
  5
26A
  8
SHELF
 10
36.621176272471772
 20
17.53634423376743
 30
0.0
 11
36.621176272471772
 21
17.78634423376743
 31
0.0
  0
LINE
  5
26B
  8
SHELF
 10
39.105176272471752
 20
17.78634423376743
 30
0.0
 11
39.308586175048461
 21
17.582934331190721
 31
0.0
  0
LINE
  5
26C
  8
SHELF
 10
34.105176272471752
 20
17.78634423376743
 30
0.0
 11
33.901766369895071
 21
17.582934331190721
 31
0.0
  0
LINE
  5
26D
  8
SHELF
 10
34.105176272471752
 20
23.723844233767409
 30
0.0
 11
33.901766369895071
 21
23.927254136344121
 31
0.0
  0
LINE
  5
26E
  8
SHELF
 10
39.105176272471752
 20
23.723844233767409
 30
0.0
 11
39.308586175048461
 21
23.927254136344121
 31
0.0
  0
LINE
  5
26F
  8
SHELF
  6
HIDDEN
 10
39.105176272471752
 20
17.78634423376743
 30
0.0
 11
39.105176272471752
 21
23.723844233767409
 31
0.0
  0
LINE
  5
270
  8
SHELF
  6
HIDDEN
 10
34.105176272471752
 20
17.78634423376743
 30
0.0
 11
36.590176272471751
 21
17.78634423376743
 31
0.0
  0
LINE
  5
271
  8
SHELF
  6
HIDDEN
 10
34.105176272471752
 20
23.723844233767409
 30
0.0
 11
34.105176272471752
 21
17.78634423376743
 31
0.0
  0
LINE
  5
272
  8
SHELF
  6
HIDDEN
 10
39.105176272471752
 20
23.723844233767409
 30
0.0
 11
34.105176272471752
 21
23.723844233767409
 31
0.0
  0
LINE
  5
273
  8
SHELF
 10
39.230176272471759
 20
23.848844233767419
 30
0.0
 11
33.980176272471759
 21
23.848844233767419
 31
0.0
  0
LINE
  5
274
  8
SHELF
 10
33.980176272471759
 20
23.848844233767419
 30
0.0
 11
33.980176272471759
 21
17.66134423376743
 31
0.0
  0
LINE
  5
275
  8
SHELF
 10
33.980176272471759
 20
17.66134423376743
 30
0.0
 11
36.590176272471751
 21
17.66134423376743
 31
0.0
  0
LINE
  5
276
  8
SHELF
 10
39.230176272471759
 20
17.66134423376743
 30
0.0
 11
39.230176272471759
 21
23.848844233767419
 31
0.0
  0
LINE
  5
277
  8
SHELF
 10
39.355176272471752
 20
17.59884423376743
 30
0.0
 11
39.355176272471752
 21
23.911344233767419
 31
0.0
  0
LINE
  5
278
  8
SHELF
 10
33.917676272471759
 20
17.53634423376743
 30
0.0
 11
36.590176272471751
 21
17.53634423376743
 31
0.0
  0
LINE
  5
279
  8
SHELF
 10
33.855176272471759
 20
23.911344233767419
 30
0.0
 11
33.855176272471759
 21
17.59884423376743
 31
0.0
  0
LINE
  5
27A
  8
SHELF
 10
39.292676272471759
 20
23.973844233767419
 30
0.0
 11
33.917676272471759
 21
23.973844233767402
 31
0.0
  0
ARC
  5
27B
  8
SHELF
 10
39.292676272471759
 20
17.59884423376743
 30
0.0
 40
0.0625
 50
270.0
 51
0.0
  0
ARC
  5
27C
  8
SHELF
 10
33.917676272471759
 20
17.59884423376743
 30
0.0
 40
0.0625
 50
180.0
 51
270.0
  0
ARC
  5
27D
  8
SHELF
 10
33.917676272471759
 20
23.911344233767419
 30
0.0
 40
0.0625
 50
90.0
 51
180.0
  0
ARC
  5
27E
  8
SHELF
 10
39.292676272471759
 20
23.911344233767419
 30
0.0
 40
0.0625
 50
0.0000000000000509
 51
90.0
  0
CIRCLE
  5
27F
  8
SHELF
 10
38.855176272471759
 20
23.473844233767419
 30
0.0
 40
0.06
  0
LINE
  5
280
  8
SHELF
  6
HIDDEN
 10
39.105176272471752
 20
23.317594233767419
 30
0.0
 11
38.792676272471752
 21
23.317594233767419
 31
0.0
  0
LINE
  5
281
  8
SHELF
  6
HIDDEN
 10
38.698926272471759
 20
23.411344233767409
 30
0.0
 11
38.698926272471759
 21
23.723844233767409
 31
0.0
  0
LINE
  5
282
  8
SHELF
  6
HIDDEN
 10
38.698926272471759
 20
23.411344233767409
 30
0.0
 11
38.792676272471752
 21
23.317594233767419
 31
0.0
  0
LINE
  5
283
  8
SHELF
  6
HIDDEN
 10
34.511426272471752
 20
23.411344233767409
 30
0.0
 11
34.417676272471752
 21
23.317594233767419
 31
0.0
  0
LINE
  5
284
  8
SHELF
  6
HIDDEN
 10
34.511426272471752
 20
23.411344233767409
 30
0.0
 11
34.511426272471752
 21
23.723844233767409
 31
0.0
  0
LINE
  5
285
  8
SHELF
  6
HIDDEN
 10
34.105176272471752
 20
23.317594233767419
 30
0.0
 11
34.417676272471752
 21
23.317594233767419
 31
0.0
  0
CIRCLE
  5
286
  8
SHELF
 10
34.355176272471752
 20
23.473844233767419
 30
0.0
 40
0.06
  0
LINE
  5
287
  8
SHELF
  6
HIDDEN
 10
38.698926272471759
 20
18.09884423376743
 30
0.0
 11
38.792676272471752
 21
18.19259423376743
 31
0.0
  0
LINE
  5
288
  8
SHELF
  6
HIDDEN
 10
38.698926272471759
 20
18.09884423376743
 30
0.0
 11
38.698926272471759
 21
17.78634423376743
 31
0.0
  0
LINE
  5
289
  8
SHELF
  6
HIDDEN
 10
39.105176272471752
 20
18.19259423376743
 30
0.0
 11
38.792676272471752
 21
18.19259423376743
 31
0.0
  0
CIRCLE
  5
28A
  8
SHELF
 10
38.855176272471759
 20
18.03634423376743
 30
0.0
 40
0.06
  0
CIRCLE
  5
28B
  8
SHELF
 10
34.355176272471752
 20
18.03634423376743
 30
0.0
 40
0.06
  0
LINE
  5
28C
  8
SHELF
  6
HIDDEN
 10
34.105176272471752
 20
18.19259423376743
 30
0.0
 11
34.417676272471752
 21
18.19259423376743
 31
0.0
  0
LINE
  5
28D
  8
SHELF
  6
HIDDEN
 10
34.511426272471752
 20
18.09884423376743
 30
0.0
 11
34.511426272471752
 21
17.78634423376743
 31
0.0
  0
LINE
  5
28E
  8
SHELF
  6
HIDDEN
 10
34.511426272471752
 20
18.09884423376743
 30
0.0
 11
34.417676272471752
 21
18.19259423376743
 31
0.0
  0
LINE
  5
28F
  8
SHELF
 10
26.232385300067641
 20
23.973844233767419
 30
0.0
 11
26.232385300067641
 21
17.53634423376743
 31
0.0
  0
LINE
  5
290
  8
SHELF
 10
25.232385300067641
 20
23.973844233767419
 30
0.0
 11
25.232385300067641
 21
17.53634423376743
 31
0.0
  0
LINE
  5
2A0
  8
SHELF
 10
8.1993871373336731
 20
19.58321923376743
 30
0.0
 11
8.1993871373336731
 21
23.911344233767419
 31
0.0
  0
LINE
  5
2A1
  8
SHELF
 10
8.0743871373336464
 20
17.661344233767441
 30
0.0
 11
8.0743871373336464
 21
17.736344233767419
 31
0.0
  0
LINE
  5
2A2
  8
SHELF
 10
2.6993871373336731
 20
23.911344233767419
 30
0.0
 11
2.6993871373336731
 21
19.58321923376743
 31
0.0
  0
LINE
  5
2A3
  8
SHELF
 10
5.4653871373336651
 20
17.661344233767441
 30
0.0
 11
6.4806371373337166
 21
17.661344233767441
 31
0.0
  0
LINE
  5
2A4
  8
SHELF
 10
5.4653871373336651
 20
17.53634423376743
 30
0.0
 11
6.4806371373337166
 21
17.53634423376743
 31
0.0
  0
LINE
  5
2A5
  8
SHELF
 10
7.9024489922621228
 20
18.19259423376743
 30
0.0
 11
7.6844502824051961
 21
18.19259423376743
 31
0.0
  0
LINE
  5
2A6
  8
SHELF
 10
8.0743871373336518
 20
17.661344233767419
 30
0.0
 11
8.0993871373336521
 21
17.636344233767431
 31
0.0
  0
LINE
  5
2A7
  8
SHELF
 10
2.7618871373336731
 20
17.53634423376743
 30
0.0
 11
2.8243871373336962
 21
17.536344233767419
 31
0.0
  0
LINE
  5
2A8
  8
SHELF
 10
5.4653871373336651
 20
17.53634423376743
 30
0.0
 11
5.4653871373336651
 21
17.736344233767419
 31
0.0
  0
LINE
  5
2A9
  8
SHELF
 10
5.4343871373336601
 20
17.736344233767419
 30
0.0
 11
5.4343871373336601
 21
17.53634423376743
 31
0.0
  0
LINE
  5
2AA
  8
SHELF
 10
2.8243871373336882
 20
17.661344233767441
 30
0.0
 11
2.7993871373336692
 21
17.636344233767421
 31
0.0
  0
LINE
  5
2AB
  8
SHELF
 10
2.9963252824053099
 20
18.19259423376743
 30
0.0
 11
3.214323992262011
 21
18.19259423376743
 31
0.0
  0
LINE
  5
2AC
  8
SHELF
 10
8.1368871373336731
 20
23.973844233767419
 30
0.0
 11
2.7618871373336731
 21
23.973844233767402
 31
0.0
  0
LINE
  5
2AD
  8
SHELF
 10
8.1493871373336351
 20
23.923844233767412
 30
0.0
 11
2.749387137333656
 21
23.923844233767412
 31
0.0
  0
LINE
  5
2AE
  8
SHELF
 10
8.0121996373336515
 20
23.786656733767401
 30
0.0
 11
8.1527970399103271
 21
23.927254136344121
 31
0.0
  0
ARC
  5
2AF
  8
SHELF
 10
8.1368871373336731
 20
23.911344233767419
 30
0.0
 40
0.0625
 50
0.0000000000000509
 51
90.0
  0
ARC
  5
2B0
  8
SHELF
 10
2.7618871373336731
 20
23.911344233767419
 30
0.0
 40
0.0625
 50
90.0
 51
180.0
  0
LINE
  5
2B1
  8
SHELF
 10
2.8871996373336528
 20
23.78603173376742
 30
0.0
 11
2.745977234756964
 21
23.927254136344121
 31
0.0
  0
LINE
  5
2B2
  8
SHELF
  6
HIDDEN
 10
8.0743871373336464
 20
23.848844233767419
 30
0.0
 11
2.824387137333646
 21
23.848844233767419
 31
0.0
  0
LINE
  5
2B3
  8
SHELF
 10
8.1493871373336351
 20
19.58321923376743
 30
0.0
 11
8.1493871373336351
 21
23.923844233767412
 31
0.0
  0
LINE
  5
2B4
  8
SHELF
 10
5.4653871373336651
 20
17.586344233767448
 30
0.0
 11
6.4806371373337166
 21
17.586344233767448
 31
0.0
  0
LINE
  5
2B5
  8
SHELF
 10
5.4333871373336553
 20
17.661344233767441
 30
0.0
 11
4.4181371373337157
 21
17.661344233767441
 31
0.0
  0
LINE
  5
2B6
  8
SHELF
 10
5.4333871373336553
 20
17.586344233767448
 30
0.0
 11
4.4181371373337157
 21
17.586344233767448
 31
0.0
  0
LINE
  5
2B7
  8
SHELF
 10
2.8243871373336731
 20
17.661344233767441
 30
0.0
 11
2.8243871373336731
 21
17.736344233767419
 31
0.0
  0
LINE
  5
2B8
  8
SHELF
 10
2.7493871373336849
 20
19.58321923376743
 30
0.0
 11
2.7493871373336849
 21
23.923844233767412
 31
0.0
  0
TEXT
  5
2BA
  8
TEXT
 10
34.253613772471759
 20
12.335336433767409
 30
0.0
 40
0.625
  1
%%UFRONT VIEW
 41
0.75
 72
     1
 11
36.605176272471752
 21
12.335336433767409
 31
0.0
  0
LINE
  5
2BB
  8
SHELF
  6
HIDDEN
 10
8.0743871373336464
 20
19.21134423376742
 30
0.0
 11
8.0743871373336464
 21
23.848844233767419
 31
0.0
  0
LINE
  5
2BC
  8
SHELF
  6
HIDDEN
 10
2.8243871373336882
 20
19.21134423376742
 30
0.0
 11
2.8243871373336731
 21
23.848844233767419
 31
0.0
  0
LINE
  5
2CA
  8
SHELF
 10
8.1493871373336617
 20
19.58321923376743
 30
0.0
 11
8.1493871373336617
 21
17.586344233767431
 31
0.0
  0
LINE
  5
2CB
  8
SHELF
 10
8.1993871373336731
 20
19.58321923376743
 30
0.0
 11
8.1993871373336731
 21
17.585844233767411
 31
0.0
  0
LINE
  5
2CC
  8
SHELF
 10
8.1498871373336801
 20
17.536344233767419
 30
0.0
 11
8.1488871373336753
 21
17.53634423376743
 31
0.0
  0
LINE
  5
2CD
  8
SHELF
 10
8.0993871373336788
 20
17.585844233767428
 30
0.0
 11
8.0993871373336788
 21
17.721344233767422
 31
0.0
  0
ARC
  5
2CE
  8
SHELF
 10
8.1488871373336753
 20
17.585844233767428
 30
0.0
 40
0.0495
 50
180.0
 51
269.99999999999591
  0
ARC
  5
2CF
  8
SHELF
 10
8.1498871373336801
 20
17.585844233767411
 30
0.0
 40
0.0495
 50
270.0
 51
0.0
  0
ARC
  5
2D0
  8
SHELF
  6
HIDDEN
 10
8.0998871373336687
 20
17.736844233767421
 30
0.0
 40
0.0495
 50
0.0
 51
90.0
  0
LINE
  5
2D1
  8
SHELF
 10
8.1369496373336592
 20
17.736344233767419
 30
0.0
 11
8.1369496373336592
 21
17.836344233767431
 31
0.0
  0
LINE
  5
2D2
  8
SHELF
 10
8.1993871373336731
 20
19.58321923376743
 30
0.0
 11
8.1493871373336617
 21
19.58321923376743
 31
0.0
  0
POLYLINE
  5
2D3
  8
SHELF
  6
HIDDEN
 66
     1
 10
0.0
 20
0.0
 30
0.0
  0
VERTEX
  5
133FA
  8
SHELF
  6
HIDDEN
 10
7.3009496373336731
 20
17.836344233767431
 30
0.0
  0
VERTEX
  5
133FB
  8
SHELF
  6
HIDDEN
 10
7.3009496373336731
 20
18.348844233767419
 30
0.0
  0
VERTEX
  5
133FC
  8
SHELF
  6
HIDDEN
 10
8.0509496373336731
 20
18.348844233767419
 30
0.0
  0
VERTEX
  5
133FD
  8
SHELF
  6
HIDDEN
 10
8.0509496373336731
 20
17.836344233767431
 30
0.0
  0
SEQEND
  5
133FE
  8
SHELF
  6
HIDDEN
  0
LINE
  5
2D9
  8
SHELF
 10
7.5744496373336592
 20
17.721344233767429
 30
0.0
 11
7.8244496373336592
 21
17.721344233767429
 31
0.0
  0
LINE
  5
2DA
  8
SHELF
 10
7.8244496373336592
 20
17.721344233767429
 30
0.0
 11
7.8244496373336592
 21
17.736344233767419
 31
0.0
  0
LINE
  5
2DB
  8
SHELF
 10
7.5744496373336592
 20
17.721344233767429
 30
0.0
 11
7.5744496373336592
 21
17.736344233767419
 31
0.0
  0
CIRCLE
  5
2DC
  8
SHELF
 10
7.7934496373336506
 20
18.192969233767421
 30
0.0
 40
0.109
  0
LINE
  5
2DD
  8
SHELF
 10
2.7618246373336621
 20
17.736344233767419
 30
0.0
 11
8.1369496373336592
 21
17.736344233767419
 31
0.0
  0
LINE
  5
2DE
  8
SHELF
 10
2.7618246373336621
 20
17.836344233767431
 30
0.0
 11
8.1369496373336592
 21
17.836344233767431
 31
0.0
  0
LINE
  5
2DF
  8
SHELF
  6
HIDDEN
 10
2.7988871373336801
 20
17.78634423376743
 30
0.0
 11
8.0998871373336687
 21
17.78634423376743
 31
0.0
  0
LINE
  5
2E0
  8
SHELF
 10
6.6681996373336592
 20
17.721344233767429
 30
0.0
 11
6.6681996373336592
 21
17.736344233767419
 31
0.0
  0
LINE
  5
2E1
  8
SHELF
 10
6.9181996373336592
 20
17.721344233767422
 30
0.0
 11
6.9181996373336592
 21
17.736344233767419
 31
0.0
  0
LINE
  5
2E2
  8
SHELF
 10
6.6681996373336592
 20
17.721344233767429
 30
0.0
 11
6.9181996373336592
 21
17.721344233767422
 31
0.0
  0
LINE
  5
2E3
  8
SHELF
 10
3.9806996373336578
 20
17.721344233767429
 30
0.0
 11
4.2306996373336592
 21
17.721344233767429
 31
0.0
  0
LINE
  5
2E4
  8
SHELF
 10
4.2306996373336592
 20
17.721344233767429
 30
0.0
 11
4.2306996373336592
 21
17.736344233767419
 31
0.0
  0
CIRCLE
  5
2E5
  8
SHELF
 10
3.105324637333668
 20
18.192969233767421
 30
0.0
 40
0.109
  0
LINE
  5
2E6
  8
SHELF
 10
3.0744496373336578
 20
17.721344233767429
 30
0.0
 11
3.3244496373336578
 21
17.721344233767429
 31
0.0
  0
POLYLINE
  5
2E7
  8
SHELF
  6
HIDDEN
 66
     1
 10
0.0
 20
0.0
 30
0.0
  0
VERTEX
  5
133FF
  8
SHELF
  6
HIDDEN
 10
2.8478246373336602
 20
17.836344233767431
 30
0.0
  0
VERTEX
  5
13400
  8
SHELF
  6
HIDDEN
 10
2.8478246373336731
 20
18.348844233767419
 30
0.0
  0
VERTEX
  5
13401
  8
SHELF
  6
HIDDEN
 10
3.5978246373336731
 20
18.348844233767419
 30
0.0
  0
VERTEX
  5
13402
  8
SHELF
  6
HIDDEN
 10
3.5978246373336602
 20
17.836344233767431
 30
0.0
  0
SEQEND
  5
13403
  8
SHELF
  6
HIDDEN
  0
LINE
  5
2ED
  8
SHELF
 10
3.9806996373336578
 20
17.721344233767429
 30
0.0
 11
3.9806996373336578
 21
17.736344233767419
 31
0.0
  0
LINE
  5
2EE
  8
SHELF
 10
3.3244496373336578
 20
17.721344233767429
 30
0.0
 11
3.3244496373336578
 21
17.736344233767419
 31
0.0
  0
ARC
  5
2EF
  8
SHELF
  6
HIDDEN
 10
2.7988871373336801
 20
17.736844233767421
 30
0.0
 40
0.0495
 50
90.0
 51
180.0
  0
LINE
  5
2F0
  8
SHELF
 10
2.7618246373336621
 20
17.836344233767431
 30
0.0
 11
2.7618246373336621
 21
17.736344233767419
 31
0.0
  0
LINE
  5
2F1
  8
SHELF
 10
3.0744496373336578
 20
17.721344233767429
 30
0.0
 11
3.0744496373336578
 21
17.736344233767419
 31
0.0
  0
LINE
  5
2F2
  8
SHELF
 10
2.749387137333656
 20
19.58321923376743
 30
0.0
 11
2.749387137333656
 21
17.586344233767431
 31
0.0
  0
LINE
  5
2F3
  8
SHELF
 10
2.6993871373336731
 20
19.58321923376743
 30
0.0
 11
2.6993871373336731
 21
17.585844233767411
 31
0.0
  0
LINE
  5
2F4
  8
SHELF
 10
2.7488871373336692
 20
17.536344233767419
 30
0.0
 11
2.7498871373336731
 21
17.53634423376743
 31
0.0
  0
LINE
  5
2F5
  8
SHELF
 10
2.7993871373336692
 20
17.585844233767428
 30
0.0
 11
2.7993871373336692
 21
17.721344233767422
 31
0.0
  0
ARC
  5
2F6
  8
SHELF
 10
2.7498871373336731
 20
17.585844233767428
 30
0.0
 40
0.0495
 50
270.00000000000392
 51
0.0
  0
ARC
  5
2F7
  8
SHELF
 10
2.7488871373336692
 20
17.585844233767411
 30
0.0
 40
0.0495
 50
180.0
 51
270.0
  0
LINE
  5
2F8
  8
SHELF
 10
2.749387137333656
 20
19.58321923376743
 30
0.0
 11
2.6993871373336731
 21
19.58321923376743
 31
0.0
  0
ARC
  5
2F9
  8
SHELF
 10
8.0843871373336658
 20
17.721344233767422
 30
0.0
 40
0.015
 50
0.0
 51
90.0
  0
ARC
  5
2FA
  8
SHELF
 10
2.8143871373336542
 20
17.721344233767422
 30
0.0
 40
0.015
 50
90.0
 51
180.0
  0
LINE
  5
2FB
  8
SHELF
 10
25.232385300067659
 20
17.53634423376743
 30
0.0
 11
15.232385300067641
 21
17.53634423376743
 31
0.0
  0
LINE
  5
2FC
  8
SHELF
  6
HIDDEN
 10
25.638635300067651
 20
17.736344233767419
 30
0.0
 11
15.281885300067639
 21
17.736344233767419
 31
0.0
  0
LINE
  5
2FD
  8
SHELF
  6
HIDDEN
 10
25.638635300067651
 20
17.78634423376743
 30
0.0
 11
15.28238530006762
 21
17.78634423376743
 31
0.0
  0
LINE
  5
2FE
  8
SHELF
  6
HIDDEN
 10
15.807385300067651
 20
17.83634423376742
 30
0.0
 11
15.807385300067651
 21
18.34884423376743
 31
0.0
  0
LINE
  5
2FF
  8
SHELF
  6
HIDDEN
 10
15.857385300067641
 20
17.835844233767421
 30
0.0
 11
15.857385300067641
 21
18.34884423376743
 31
0.0
  0
LINE
  5
300
  8
SHELF
  6
HIDDEN
 10
16.356635300067651
 20
17.721344233767411
 30
0.0
 11
16.106635300067651
 21
17.721344233767411
 31
0.0
  0
LINE
  5
301
  8
SHELF
  6
HIDDEN
 10
16.356635300067651
 20
17.721344233767429
 30
0.0
 11
16.356635300067651
 21
17.736344233767419
 31
0.0
  0
LINE
  5
302
  8
SHELF
  6
HIDDEN
 10
16.106635300067651
 20
17.721344233767429
 30
0.0
 11
16.106635300067651
 21
17.736344233767419
 31
0.0
  0
LINE
  5
303
  8
SHELF
  6
HIDDEN
 10
15.281885300067639
 20
17.83634423376742
 30
0.0
 11
15.807385300067651
 21
17.83634423376742
 31
0.0
  0
ARC
  5
304
  8
SHELF
  6
HIDDEN
 10
15.80788530006765
 20
17.835844233767421
 30
0.0
 40
0.0495
 50
270.0
 51
0.0
  0
ARC
  5
305
  8
SHELF
  6
HIDDEN
 10
15.281885300067639
 20
17.785844233767421
 30
0.0
 40
0.0495
 50
180.0
 51
270.0
  0
ARC
  5
306
  8
SHELF
  6
HIDDEN
 10
15.281885300067639
 20
17.786844233767429
 30
0.0
 40
0.0495
 50
90.0
 51
180.0
  0
LINE
  5
307
  8
SHELF
  6
HIDDEN
 10
15.232385300067641
 20
17.785844233767421
 30
0.0
 11
15.232385300067641
 21
17.786844233767429
 31
0.0
  0
LINE
  5
308
  8
SHELF
  6
HIDDEN
 10
15.807385300067651
 20
18.34884423376743
 30
0.0
 11
15.857385300067641
 21
18.34884423376743
 31
0.0
  0
LINE
  5
309
  8
SHELF
  6
HIDDEN
 10
25.638635300067651
 20
17.736344233767419
 30
0.0
 11
25.638635300067651
 21
17.78634423376743
 31
0.0
  0
LINE
  5
30A
  8
SHELF
  6
HIDDEN
 10
25.669885300067641
 20
23.77384423376742
 30
0.0
 11
24.732385300067641
 21
23.77384423376742
 31
0.0
  0
LINE
  5
30B
  8
SHELF
 10
26.232385300067641
 20
23.973844233767419
 30
0.0
 11
25.232385300067641
 21
23.973844233767419
 31
0.0
  0
LINE
  5
30C
  8
SHELF
 10
24.732385300067641
 20
23.848844233767419
 30
0.0
 11
25.232385300067641
 21
23.848844233767419
 31
0.0
  0
LINE
  5
30D
  8
SHELF
  6
HIDDEN
 10
25.232385300067641
 20
23.923844233767412
 30
0.0
 11
25.419885300067651
 21
23.923844233767419
 31
0.0
  0
LINE
  5
30E
  8
SHELF
  6
HIDDEN
 10
25.419885300067651
 20
23.923844233767419
 30
0.0
 11
25.419885300067651
 21
23.848844233767419
 31
0.0
  0
LINE
  5
30F
  8
SHELF
  6
HIDDEN
 10
26.232385300067641
 20
23.848844233767419
 30
0.0
 11
25.857385300067641
 21
23.848844233767419
 31
0.0
  0
LINE
  5
310
  8
SHELF
  6
HIDDEN
 10
25.794885300067651
 20
23.848844233767419
 30
0.0
 11
25.732385300067651
 21
23.848844233767419
 31
0.0
  0
LINE
  5
311
  8
SHELF
  6
HIDDEN
 10
25.857385300067641
 20
23.723844233767419
 30
0.0
 11
25.794885300067651
 21
23.723844233767419
 31
0.0
  0
LINE
  5
312
  8
SHELF
  6
HIDDEN
 10
25.732385300067651
 20
23.723844233767419
 30
0.0
 11
25.669885300067641
 21
23.723844233767419
 31
0.0
  0
LINE
  5
313
  8
SHELF
  6
HIDDEN
 10
25.794885300067651
 20
23.411344233767409
 30
0.0
 11
25.732385300067651
 21
23.411344233767409
 31
0.0
  0
LINE
  5
314
  8
SHELF
  6
HIDDEN
 10
25.794885300067651
 20
23.317594233767419
 30
0.0
 11
25.732385300067651
 21
23.317594233767419
 31
0.0
  0
LINE
  5
315
  8
SHELF
  6
HIDDEN
 10
25.669885300067641
 20
17.736344233767419
 30
0.0
 11
24.732385300067641
 21
17.736344233767419
 31
0.0
  0
LINE
  5
316
  8
SHELF
 10
25.232385300067641
 20
17.53634423376743
 30
0.0
 11
26.232385300067641
 21
17.53634423376743
 31
0.0
  0
LINE
  5
317
  8
SHELF
  6
HIDDEN
 10
24.732385300067641
 20
17.66134423376743
 30
0.0
 11
25.419885300067651
 21
17.66134423376743
 31
0.0
  0
LINE
  5
318
  8
SHELF
  6
HIDDEN
 10
24.732385300067641
 20
23.848844233767419
 30
0.0
 11
24.732385300067641
 21
17.66134423376743
 31
0.0
  0
LINE
  5
319
  8
SHELF
  6
HIDDEN
 10
25.232385300067641
 20
17.586344233767431
 30
0.0
 11
25.419885300067651
 21
17.586344233767431
 31
0.0
  0
LINE
  5
31A
  8
SHELF
  6
HIDDEN
 10
25.419885300067651
 20
17.586344233767431
 30
0.0
 11
25.419885300067651
 21
17.66134423376743
 31
0.0
  0
LINE
  5
31B
  8
SHELF
  6
HIDDEN
 10
26.232385300067641
 20
17.66134423376743
 30
0.0
 11
25.857385300067641
 21
17.66134423376743
 31
0.0
  0
LINE
  5
31C
  8
SHELF
  6
HIDDEN
 10
25.857385300067641
 20
17.78634423376743
 30
0.0
 11
25.794885300067651
 21
17.78634423376743
 31
0.0
  0
LINE
  5
31D
  8
SHELF
  6
HIDDEN
 10
25.794885300067651
 20
17.66134423376743
 30
0.0
 11
25.732385300067651
 21
17.66134423376743
 31
0.0
  0
LINE
  5
31E
  8
SHELF
  6
HIDDEN
 10
25.732385300067651
 20
17.78634423376743
 30
0.0
 11
25.669885300067641
 21
17.78634423376743
 31
0.0
  0
LINE
  5
31F
  8
SHELF
  6
HIDDEN
 10
25.794885300067651
 20
18.09884423376743
 30
0.0
 11
25.732385300067651
 21
18.09884423376743
 31
0.0
  0
LINE
  5
320
  8
SHELF
  6
HIDDEN
 10
25.794885300067651
 20
18.19259423376743
 30
0.0
 11
25.732385300067651
 21
18.19259423376743
 31
0.0
  0
LINE
  5
321
  8
SHELF
  6
HIDDEN
 10
25.669885300067641
 20
23.77384423376742
 30
0.0
 11
25.669885300067641
 21
17.736344233767419
 31
0.0
  0
LINE
  5
322
  8
SHELF
  6
HIDDEN
 10
25.732385300067651
 20
23.848844233767419
 30
0.0
 11
25.732385300067651
 21
17.66134423376743
 31
0.0
  0
LINE
  5
323
  8
SHELF
  6
HIDDEN
 10
25.794885300067651
 20
23.848844233767419
 30
0.0
 11
25.794885300067651
 21
17.66134423376743
 31
0.0
  0
LINE
  5
324
  8
SHELF
  6
HIDDEN
 10
25.85738530006763
 20
23.848844233767419
 30
0.0
 11
25.857385300067641
 21
17.66134423376743
 31
0.0
  0
POLYLINE
  5
325
  8
SHELF
 66
     1
 10
0.0
 20
0.0
 30
0.0
  0
VERTEX
  5
13404
  8
SHELF
 10
15.232385300067641
 20
17.53634423376743
 30
0.0
  0
VERTEX
  5
13405
  8
SHELF
 10
15.232385300067641
 20
19.58334423376742
 30
0.0
  0
VERTEX
  5
13406
  8
SHELF
 10
25.23238530006763
 20
19.58334423376742
 30
0.0
  0
SEQEND
  5
13407
  8
SHELF
  0
LINE
  5
32A
  8
SHELF
  6
HIDDEN
 10
25.232385300067641
 20
23.848844233767419
 30
0.0
 11
25.419885300067651
 21
23.848844233767419
 31
0.0
  0
POLYLINE
  5
32B
  8
SHELF
  6
HIDDEN
 66
     1
 10
0.0
 20
0.0
 30
0.0
 70
     1
  0
VERTEX
  5
13408
  8
SHELF
  6
HIDDEN
 10
2.814387137333668
 20
19.16134423376743
 30
0.0
 42
0.4142135623730886
  0
VERTEX
  5
13409
  8
SHELF
  6
HIDDEN
 10
2.7993871373336692
 20
19.146344233767419
 30
0.0
  0
VERTEX
  5
1340A
  8
SHELF
  6
HIDDEN
 10
2.7993871373336692
 20
17.78634423376743
 30
0.0
  0
VERTEX
  5
1340B
  8
SHELF
  6
HIDDEN
 10
2.749387137333656
 20
17.78634423376743
 30
0.0
  0
VERTEX
  5
1340C
  8
SHELF
  6
HIDDEN
 10
2.749387137333656
 20
19.146344233767419
 30
0.0
 42
-0.4142135623730915
  0
VERTEX
  5
1340D
  8
SHELF
  6
HIDDEN
 10
2.814387137333668
 20
19.21134423376742
 30
0.0
  0
VERTEX
  5
1340E
  8
SHELF
  6
HIDDEN
 10
2.890637137333671
 20
19.21134423376742
 30
0.0
 42
0.4142135623730884
  0
VERTEX
  5
1340F
  8
SHELF
  6
HIDDEN
 10
2.905637137333656
 20
19.226344233767421
 30
0.0
  0
VERTEX
  5
13410
  8
SHELF
  6
HIDDEN
 10
2.905637137333656
 20
21.661344233767419
 30
0.0
  0
VERTEX
  5
13411
  8
SHELF
  6
HIDDEN
 10
2.9556371373336692
 20
21.661344233767419
 30
0.0
  0
VERTEX
  5
13412
  8
SHELF
  6
HIDDEN
 10
2.9556371373336692
 20
19.226344233767431
 30
0.0
 42
-0.4142135623730915
  0
VERTEX
  5
13413
  8
SHELF
  6
HIDDEN
 10
2.890637137333671
 20
19.16134423376743
 30
0.0
  0
SEQEND
  5
13414
  8
SHELF
  6
HIDDEN
  0
LINE
  5
339
  8
SHELF
  6
HIDDEN
 10
24.701135300067651
 20
19.21134423376742
 30
0.0
 11
22.576135300067641
 21
19.21134423376742
 31
0.0
  0
LINE
  5
33A
  8
SHELF
  6
HIDDEN
 10
24.701135300067651
 20
19.16134423376743
 30
0.0
 11
22.576135300067641
 21
19.16134423376743
 31
0.0
  0
POLYLINE
  5
33B
  8
SHELF
  6
HIDDEN
 66
     1
 10
0.0
 20
0.0
 30
0.0
 70
     1
  0
VERTEX
  5
13415
  8
SHELF
  6
HIDDEN
 10
8.0843871373336658
 20
19.16134423376743
 30
0.0
 42
-0.4142135623730886
  0
VERTEX
  5
13416
  8
SHELF
  6
HIDDEN
 10
8.0993871373336663
 20
19.146344233767419
 30
0.0
  0
VERTEX
  5
13417
  8
SHELF
  6
HIDDEN
 10
8.0993871373336663
 20
17.78634423376743
 30
0.0
  0
VERTEX
  5
13418
  8
SHELF
  6
HIDDEN
 10
8.1493871373336617
 20
17.78634423376743
 30
0.0
  0
VERTEX
  5
13419
  8
SHELF
  6
HIDDEN
 10
8.1493871373336617
 20
19.146344233767419
 30
0.0
 42
0.4142135623730915
  0
VERTEX
  5
1341A
  8
SHELF
  6
HIDDEN
 10
8.0843871373336658
 20
19.21134423376742
 30
0.0
  0
VERTEX
  5
1341B
  8
SHELF
  6
HIDDEN
 10
8.0081371373336783
 20
19.21134423376742
 30
0.0
 42
-0.4142135623730884
  0
VERTEX
  5
1341C
  8
SHELF
  6
HIDDEN
 10
7.9931371373336617
 20
19.226344233767421
 30
0.0
  0
VERTEX
  5
1341D
  8
SHELF
  6
HIDDEN
 10
7.9931371373336617
 20
21.661344233767419
 30
0.0
  0
VERTEX
  5
1341E
  8
SHELF
  6
HIDDEN
 10
7.9431371373336663
 20
21.661344233767419
 30
0.0
  0
VERTEX
  5
1341F
  8
SHELF
  6
HIDDEN
 10
7.9431371373336663
 20
19.226344233767431
 30
0.0
 42
0.4142135623730915
  0
VERTEX
  5
13420
  8
SHELF
  6
HIDDEN
 10
8.0081371373336641
 20
19.16134423376743
 30
0.0
  0
SEQEND
  5
13421
  8
SHELF
  6
HIDDEN
  0
LINE
  5
349
  8
SHELF
 10
7.9931371373336617
 20
19.53634423376743
 30
0.0
 11
7.9431371373336663
 21
19.53634423376743
 31
0.0
  0
LINE
  5
34A
  8
SHELF
 10
2.9556371373336692
 20
19.53634423376743
 30
0.0
 11
2.905637137333656
 21
19.53634423376743
 31
0.0
  0
LINE
  5
34B
  8
SHELF
  6
HIDDEN
 10
38.456738772471752
 20
17.836344233767441
 30
0.0
 11
34.753613772471759
 21
17.836344233767431
 31
0.0
  0
LINE
  5
34C
  8
SHELF
 10
36.621176272471772
 20
17.78634423376743
 30
0.0
 11
36.590176272471751
 21
17.78634423376743
 31
0.0
  0
LINE
  5
34D
  8
SHELF
 10
36.621176272471772
 20
17.736344233767419
 30
0.0
 11
36.590176272471751
 21
17.736344233767419
 31
0.0
  0
ARC
  5
34E
  8
SHELF
  6
HIDDEN
 10
38.949238772471759
 20
18.192969233767421
 30
0.0
 40
0.109
 50
359.80288110365012
 51
180.19711889634959
  0
LINE
  5
34F
  8
SHELF
 10
39.355176272471752
 20
17.59884423376743
 30
0.0
 11
39.355176272471752
 21
17.585844233767411
 31
0.0
  0
LINE
  5
350
  8
SHELF
 10
39.30567627247175
 20
17.536344233767419
 30
0.0
 11
39.304676272471767
 21
17.53634423376743
 31
0.0
  0
ARC
  5
351
  8
SHELF
 10
39.30567627247175
 20
17.585844233767411
 30
0.0
 40
0.0495
 50
270.0
 51
0.0
  0
ARC
  5
352
  8
SHELF
 10
39.304676272471767
 20
17.585844233767428
 30
0.0
 40
0.0495
 50
263.44637672291611
 51
269.99999999999591
  0
ARC
  5
353
  8
SHELF
  6
HIDDEN
 10
34.261113772471766
 20
18.192969233767421
 30
0.0
 40
0.109
 50
359.80288110365012
 51
180.19711889634959
  0
LINE
  5
354
  8
SHELF
 10
33.855176272471759
 20
17.59884423376743
 30
0.0
 11
33.855176272471759
 21
17.585844233767411
 31
0.0
  0
LINE
  5
355
  8
SHELF
 10
33.904676272471761
 20
17.536344233767419
 30
0.0
 11
33.905676272471752
 21
17.53634423376743
 31
0.0
  0
ARC
  5
356
  8
SHELF
 10
33.905676272471752
 20
17.585844233767428
 30
0.0
 40
0.0495
 50
270.00000000000409
 51
276.55362327708389
  0
ARC
  5
357
  8
SHELF
 10
33.904676272471761
 20
17.585844233767411
 30
0.0
 40
0.0495
 50
180.0
 51
270.0
  0
LINE
  5
358
  8
SHELF
  6
HIDDEN
 10
34.105176272471752
 20
19.53634423376743
 30
0.0
 11
34.111426272471761
 21
19.53634423376743
 31
0.0
  0
POLYLINE
  5
359
  8
SHELF
  6
HIDDEN
 66
     1
 10
0.0
 20
0.0
 30
0.0
  0
VERTEX
  5
13422
  8
SHELF
  6
HIDDEN
 10
39.105176272471752
 20
21.661344233767419
 30
0.0
  0
VERTEX
  5
13423
  8
SHELF
  6
HIDDEN
 10
39.098926272471758
 20
21.661344233767419
 30
0.0
  0
VERTEX
  5
13424
  8
SHELF
  6
HIDDEN
 10
39.098926272471758
 20
19.226344233767431
 30
0.0
 42
0.110982608139195
  0
VERTEX
  5
13425
  8
SHELF
  6
HIDDEN
 10
39.105176272471752
 20
19.198533489440798
 30
0.0
  0
SEQEND
  5
13426
  8
SHELF
  6
HIDDEN
  0
POLYLINE
  5
35F
  8
SHELF
  6
HIDDEN
 66
     1
 10
0.0
 20
0.0
 30
0.0
  0
VERTEX
  5
13427
  8
SHELF
  6
HIDDEN
 10
34.105176272471752
 20
21.661344233767419
 30
0.0
  0
VERTEX
  5
13428
  8
SHELF
  6
HIDDEN
 10
34.111426272471761
 20
21.661344233767419
 30
0.0
  0
VERTEX
  5
13429
  8
SHELF
  6
HIDDEN
 10
34.111426272471761
 20
19.226344233767431
 30
0.0
 42
-0.1109826081391642
  0
VERTEX
  5
1342A
  8
SHELF
  6
HIDDEN
 10
34.105176272471752
 20
19.19853348944082
 30
0.0
  0
SEQEND
  5
1342B
  8
SHELF
  6
HIDDEN
  0
LINE
  5
365
  8
SHELF
  6
HIDDEN
 10
39.098926272471758
 20
19.53634423376743
 30
0.0
 11
39.105176272471752
 21
19.53634423376743
 31
0.0
  0
POLYLINE
  5
366
  8
SHELF
  6
HIDDEN
 66
     1
 10
0.0
 20
0.0
 30
0.0
  0
VERTEX
  5
1342C
  8
SHELF
  6
HIDDEN
 10
39.105176272471752
 20
18.348844233767419
 30
0.0
  0
VERTEX
  5
1342D
  8
SHELF
  6
HIDDEN
 10
38.456738772471752
 20
18.348844233767419
 30
0.0
  0
VERTEX
  5
1342E
  8
SHELF
  6
HIDDEN
 10
38.456738772471752
 20
17.78634423376743
 30
0.0
  0
SEQEND
  5
1342F
  8
SHELF
  6
HIDDEN
  0
POLYLINE
  5
36B
  8
SHELF
  6
HIDDEN
 66
     1
 10
0.0
 20
0.0
 30
0.0
  0
VERTEX
  5
13430
  8
SHELF
  6
HIDDEN
 10
34.753613772471759
 20
17.78634423376743
 30
0.0
  0
VERTEX
  5
13431
  8
SHELF
  6
HIDDEN
 10
34.753613772471759
 20
18.348844233767419
 30
0.0
  0
VERTEX
  5
13432
  8
SHELF
  6
HIDDEN
 10
34.105176272471752
 20
18.348844233767419
 30
0.0
  0
SEQEND
  5
13433
  8
SHELF
  6
HIDDEN
  0
INSERT
  5
3F2
  8
FP
  2
FP
 10
38.855176272471759
 20
23.473844233767419
 30
0.0
 41
-1.0
  0
POLYLINE
  5
3F9
  8
FP
  6
HIDDEN
 66
     1
 10
0.0
 20
0.0
 30
0.0
 70
     1
  0
VERTEX
  5
13434
  8
FP
  6
HIDDEN
 10
25.857385300067641
 20
23.817594233767419
 30
0.0
  0
VERTEX
  5
13435
  8
FP
  6
HIDDEN
 10
25.947385300067651
 20
23.817594233767419
 30
0.0
  0
VERTEX
  5
13436
  8
FP
  6
HIDDEN
 10
25.947385300067651
 20
17.692344233767422
 30
0.0
  0
VERTEX
  5
13437
  8
FP
  6
HIDDEN
 10
25.857385300067641
 20
17.692344233767422
 30
0.0
  0
SEQEND
  5
13438
  8
FP
  6
HIDDEN
  0
POLYLINE
  5
3FF
  8
SHELF
  6
HIDDEN
 66
     1
 10
0.0
 20
0.0
 30
0.0
 70
     1
  0
VERTEX
  5
13439
  8
SHELF
  6
HIDDEN
 10
22.576135300067641
 20
17.78634423376743
 30
0.0
  0
VERTEX
  5
1343A
  8
SHELF
  6
HIDDEN
 10
24.701135300067651
 20
17.78634423376743
 30
0.0
  0
VERTEX
  5
1343B
  8
SHELF
  6
HIDDEN
 10
24.701135300067651
 20
19.53634423376743
 30
0.0
  0
VERTEX
  5
1343C
  8
SHELF
  6
HIDDEN
 10
25.669885300067641
 20
19.53634423376743
 30
0.0
  0
VERTEX
  5
1343D
  8
SHELF
  6
HIDDEN
 10
25.669885300067641
 20
21.661344233767419
 30
0.0
  0
VERTEX
  5
1343E
  8
SHELF
  6
HIDDEN
 10
24.701135300067651
 20
21.661344233767419
 30
0.0
  0
VERTEX
  5
1343F
  8
SHELF
  6
HIDDEN
 10
22.576135300067641
 20
19.53634423376743
 30
0.0
  0
SEQEND
  5
13440
  8
SHELF
  6
HIDDEN
  0
INSERT
  5
408
  8
RP
  2
RP
 10
3.1059496373336528
 20
23.03671923376741
 30
0.0
  0
POLYLINE
  5
409
  8
RP
  6
HIDDEN
 66
     1
 10
0.0
 20
0.0
 30
0.0
 70
     1
  0
VERTEX
  5
13441
  8
RP
  6
HIDDEN
 10
15.69538530006767
 20
23.78671923376741
 30
0.0
  0
VERTEX
  5
13442
  8
RP
  6
HIDDEN
 10
15.74538530006766
 20
23.78671923376741
 30
0.0
  0
VERTEX
  5
13443
  8
RP
  6
HIDDEN
 10
15.74538530006766
 20
17.849219233767421
 30
0.0
  0
VERTEX
  5
13444
  8
RP
  6
HIDDEN
 10
15.69538530006767
 20
17.849219233767421
 30
0.0
  0
SEQEND
  5
13445
  8
RP
  6
HIDDEN
  0
LINE
  5
417
  8
COVER
  6
HIDDEN
 10
25.38838530006765
 20
23.864344233767401
 30
0.0
 11
15.282385300067659
 21
23.864344233767401
 31
0.0
  0
LINE
  5
418
  8
COVER
 10
25.38838530006765
 20
23.914344233767409
 30
0.0
 11
25.38838530006765
 21
23.864344233767401
 31
0.0
  0
LINE
  5
419
  8
COVER
  6
HIDDEN
 10
23.993621923834539
 20
23.726844233767402
 30
0.0
 11
17.482885300067661
 21
23.726844233767402
 31
0.0
  0
ARC
  5
41A
  8
COVER
  6
HIDDEN
 10
23.987753611951138
 20
24.138486731079912
 30
0.0
 40
0.411684324061564
 50
269.18325553957101
 51
318.24823641786139
  0
ARC
  5
41B
  8
COVER
  6
HIDDEN
 10
17.488753611951051
 20
24.138486731079912
 30
0.0
 40
0.411684324061564
 50
221.75176358213861
 51
270.81674446042888
  0
LINE
  5
41C
  8
COVER
  6
HIDDEN
 10
15.795385300067659
 20
23.864344233767401
 30
0.0
 11
15.795385300067659
 21
17.83634423376742
 31
0.0
  0
LINE
  5
41D
  8
COVER
  6
HIDDEN
 10
15.74538530006766
 20
23.820344233767418
 30
0.0
 11
15.74538530006766
 21
17.83634423376742
 31
0.0
  0
LINE
  5
41E
  8
COVER
  6
HIDDEN
 10
15.74538530006766
 20
23.320344233767401
 30
0.0
 11
15.795385300067659
 21
23.320344233767401
 31
0.0
  0
LINE
  5
41F
  8
COVER
  6
HIDDEN
 10
15.23238530006765
 20
23.820344233767418
 30
0.0
 11
15.74538530006766
 21
23.820344233767418
 31
0.0
  0
LINE
  5
420
  8
COVER
  6
HIDDEN
 10
3.3803871373336851
 20
23.320344233767401
 30
0.0
 11
7.5183871373336784
 21
23.320344233767401
 31
0.0
  0
LINE
  5
421
  8
COVER
 10
8.0718871373336771
 20
23.914344233767409
 30
0.0
 11
2.826887137333685
 21
23.914344233767409
 31
0.0
  0
LINE
  5
422
  8
COVER
  6
HIDDEN
 10
2.8268871373336721
 20
23.864344233767419
 30
0.0
 11
8.0718871373336771
 21
23.864344233767401
 31
0.0
  0
LINE
  5
423
  8
COVER
 10
8.0343871373336828
 20
23.814344233767478
 30
0.0
 11
2.8633871373336901
 21
23.814344233767411
 31
0.0
  0
LINE
  5
424
  8
COVER
 10
8.0368871373336788
 20
17.83634423376742
 30
0.0
 11
8.0368871373337658
 21
23.812344233767419
 31
0.0
  0
LINE
  5
425
  8
COVER
  6
HIDDEN
 10
8.0868871373336901
 20
23.849344233767411
 30
0.0
 11
8.0868871373336901
 21
17.83634423376742
 31
0.0
  0
LINE
  5
426
  8
COVER
 10
8.1368871373336731
 20
17.83634423376742
 30
0.0
 11
8.1368871373336731
 21
23.849344233767411
 31
0.0
  0
LINE
  5
427
  8
COVER
  6
HIDDEN
 10
7.5428871373336781
 20
23.29634423376741
 30
0.0
 11
7.5428871373336781
 21
17.83634423376742
 31
0.0
  0
LINE
  5
428
  8
COVER
 10
7.5428871373336781
 20
17.83634423376742
 30
0.0
 11
8.1368871373336731
 21
17.83634423376742
 31
0.0
  0
LINE
  5
429
  8
COVER
 10
8.0868871373336901
 20
17.83634423376742
 30
0.0
 11
8.1368871373336731
 21
17.83634423376742
 31
0.0
  0
ARC
  5
42A
  8
COVER
 10
7.7458871373336819
 20
18.195344233767429
 30
0.0
 40
0.109
 50
89.999942175152555
 51
270.00005782484732
  0
LINE
  5
42B
  8
COVER
 10
7.7928871373336781
 20
18.304344233767431
 30
0.0
 11
7.7458872473401801
 21
18.304344233767431
 31
0.0
  0
LINE
  5
42C
  8
COVER
 10
7.7928871373336781
 20
18.08634423376742
 30
0.0
 11
7.7458872473401801
 21
18.08634423376742
 31
0.0
  0
LINE
  5
42D
  8
COVER
 10
7.7928871373336781
 20
18.08634423376742
 30
0.0
 11
7.8398870273271806
 21
18.08634423376742
 31
0.0
  0
LINE
  5
42E
  8
COVER
 10
7.7928871373336781
 20
18.304344233767431
 30
0.0
 11
7.8398870273271806
 21
18.304344233767431
 31
0.0
  0
ARC
  5
42F
  8
COVER
 10
7.8398871373336769
 20
18.195344233767429
 30
0.0
 40
0.109
 50
269.99994217515251
 51
90.000057824847389
  0
LINE
  5
430
  8
COVER
  6
HIDDEN
 10
8.0588871373336861
 20
23.812344233767419
 30
0.0
 11
7.5428871373336781
 21
23.29634423376741
 31
0.0
  0
LINE
  5
431
  8
COVER
  6
HIDDEN
 10
7.5183871373336784
 20
23.320344233767401
 30
0.0
 11
8.0343871373336828
 21
23.836344233767409
 31
0.0
  0
CIRCLE
  5
436
  8
COVER
 10
7.7928871373336781
 20
23.039344233767419
 30
0.0
 40
0.109
  0
LINE
  5
437
  8
COVER
 10
8.1368871373336891
 20
23.81234423376743
 30
0.0
 11
8.0368871373337658
 21
23.812344233767419
 31
0.0
  0
LINE
  5
438
  8
COVER
 10
8.0343871373336828
 20
23.814344233767478
 30
0.0
 11
8.0343871373336828
 21
23.914344233767409
 31
0.0
  0
ARC
  5
439
  8
COVER
 10
8.0718871373336771
 20
23.849344233767411
 30
0.0
 40
0.0649999999999977
 50
0.0
 51
90.0
  0
ARC
  5
43A
  8
COVER
 10
8.0718871373336771
 20
23.849344233767411
 30
0.0
 40
0.0150000000000006
 50
0.0
 51
90.0
  0
LINE
  5
43B
  8
COVER
 10
2.8618871373336692
 20
17.83634423376742
 30
0.0
 11
2.861887137333611
 21
23.812344233767401
 31
0.0
  0
LINE
  5
43C
  8
COVER
 10
2.7618871373336731
 20
23.849344233767411
 30
0.0
 11
2.7618871373336731
 21
17.83634423376742
 31
0.0
  0
LINE
  5
43D
  8
COVER
  6
HIDDEN
 10
2.8118871373336849
 20
17.83634423376742
 30
0.0
 11
2.8118871373336849
 21
23.849344233767422
 31
0.0
  0
LINE
  5
43E
  8
COVER
  6
HIDDEN
 10
3.3558871373336832
 20
17.836344233767399
 30
0.0
 11
3.3558871373336969
 21
23.297344233767401
 31
0.0
  0
LINE
  5
43F
  8
COVER
 10
2.7618871373336731
 20
17.836344233767399
 30
0.0
 11
3.3558871373336832
 21
17.836344233767399
 31
0.0
  0
LINE
  5
440
  8
COVER
 10
2.7618871373336731
 20
17.83634423376742
 30
0.0
 11
2.8118871373336849
 21
17.83634423376742
 31
0.0
  0
ARC
  5
441
  8
COVER
 10
3.1528871373336931
 20
18.19534423376739
 30
0.0
 40
0.109
 50
269.99994217515251
 51
90.000057824847389
  0
LINE
  5
442
  8
COVER
 10
3.1058871373336832
 20
18.304344233767409
 30
0.0
 11
3.0588872473401811
 21
18.304344233767409
 31
0.0
  0
LINE
  5
443
  8
COVER
 10
3.1058871373336832
 20
18.086344233767392
 30
0.0
 11
3.0588872473401811
 21
18.086344233767392
 31
0.0
  0
LINE
  5
444
  8
COVER
 10
3.1058871373336832
 20
18.086344233767392
 30
0.0
 11
3.1528870273271821
 21
18.086344233767392
 31
0.0
  0
LINE
  5
445
  8
COVER
 10
3.1058871373336832
 20
18.304344233767409
 30
0.0
 11
3.1528870273271821
 21
18.304344233767409
 31
0.0
  0
ARC
  5
446
  8
COVER
 10
3.0588871373336848
 20
18.19534423376739
 30
0.0
 40
0.109
 50
89.999942175152555
 51
270.00005782484732
  0
LINE
  5
447
  8
COVER
  6
HIDDEN
 10
5.9224632557794337
 20
23.726344233767421
 30
0.0
 11
4.9763110188879267
 21
23.726344233767421
 31
0.0
  0
LINE
  5
448
  8
COVER
  6
HIDDEN
 10
5.9224632557794337
 20
23.676344233767409
 30
0.0
 11
4.9763110188879267
 21
23.676344233767409
 31
0.0
  0
ARC
  5
449
  8
COVER
  6
HIDDEN
 10
5.9224632557794337
 20
23.741344233767421
 30
0.0
 40
0.015
 50
270.0
 51
314.99999999999972
  0
ARC
  5
44A
  8
COVER
  6
HIDDEN
 10
5.9224632557794337
 20
23.741344233767421
 30
0.0
 40
0.065
 50
270.0
 51
314.99999999999932
  0
ARC
  5
44B
  8
COVER
  6
HIDDEN
 10
6.1643110188879291
 20
23.79934423376741
 30
0.0
 40
0.065
 50
89.999999999999915
 51
134.9999999999996
  0
ARC
  5
44C
  8
COVER
  6
HIDDEN
 10
6.0728896626506241
 20
23.849344233767411
 30
0.0
 40
0.015
 50
89.999999999999915
 51
134.9999999999996
  0
LINE
  5
44D
  8
COVER
  6
HIDDEN
 10
5.933069857497232
 20
23.730737632049621
 30
0.0
 11
6.0622830609328293
 21
23.859950835485211
 31
0.0
  0
LINE
  5
44E
  8
COVER
  6
HIDDEN
 10
5.968425196556554
 20
23.695382292990288
 30
0.0
 11
6.1183490781108132
 21
23.84530617454454
 31
0.0
  0
LINE
  5
44F
  8
COVER
  6
HIDDEN
 10
4.9303490781107939
 20
23.695382292990288
 30
0.0
 11
4.7804251965565374
 21
23.84530617454454
 31
0.0
  0
LINE
  5
450
  8
COVER
  6
HIDDEN
 10
4.9657044171701159
 20
23.730737632049621
 30
0.0
 11
4.8364912137345337
 21
23.859950835485211
 31
0.0
  0
ARC
  5
451
  8
COVER
  6
HIDDEN
 10
4.9763110188879267
 20
23.741344233767421
 30
0.0
 40
0.015
 50
224.9999999999998
 51
270.0
  0
ARC
  5
452
  8
COVER
  6
HIDDEN
 10
4.9763110188879267
 20
23.7413442337674
 30
0.0
 40
0.065
 50
225.00000000000031
 51
270.0
  0
ARC
  5
453
  8
COVER
  6
HIDDEN
 10
4.7344632557794171
 20
23.79934423376741
 30
0.0
 40
0.065
 50
45.000000000000149
 51
89.999999999999943
  0
ARC
  5
454
  8
COVER
  6
HIDDEN
 10
4.825884612016722
 20
23.849344233767422
 30
0.0
 40
0.015
 50
44.999999999999808
 51
89.999999999999915
  0
LINE
  5
455
  8
COVER
  6
HIDDEN
 10
2.8633871373336901
 20
23.837344233767389
 30
0.0
 11
3.3803871373336851
 21
23.320344233767401
 31
0.0
  0
LINE
  5
456
  8
COVER
  6
HIDDEN
 10
3.355887137333696
 20
23.297344233767401
 30
0.0
 11
2.8408871373336808
 21
23.812344233767401
 31
0.0
  0
CIRCLE
  5
45B
  8
COVER
 10
3.1058871373336832
 20
23.039344233767391
 30
0.0
 40
0.109
  0
LINE
  5
45C
  8
COVER
 10
2.8633871373336901
 20
23.914344233767409
 30
0.0
 11
2.8633871373336901
 21
23.814344233767411
 31
0.0
  0
LINE
  5
45D
  8
COVER
 10
2.861887137333611
 20
23.812344233767401
 30
0.0
 11
2.7618871373336731
 21
23.812344233767401
 31
0.0
  0
ARC
  5
45E
  8
COVER
 10
2.8268871373336721
 20
23.849344233767411
 30
0.0
 40
0.0649999999999977
 50
89.999999999993733
 51
180.0
  0
ARC
  5
45F
  8
COVER
 10
2.8268871373336721
 20
23.849344233767422
 30
0.0
 40
0.0149999999999935
 50
89.999999999972871
 51
180.0
  0
LINE
  5
513
  8
OBJECT
 10
15.98163530006765
 20
17.380344233767431
 30
0.0
 11
16.481635300067651
 21
17.380344233767431
 31
0.0
  0
LINE
  5
514
  8
OBJECT
 10
15.98163530006765
 20
17.380344233767431
 30
0.0
 11
15.98163530006765
 21
17.53634423376743
 31
0.0
  0
LINE
  5
515
  8
OBJECT
 10
16.481635300067651
 20
17.380344233767431
 30
0.0
 11
16.481635300067651
 21
17.53634423376743
 31
0.0
  0
LINE
  5
516
  8
OBJECT
 10
23.880135300067622
 20
17.470344233767431
 30
0.0
 11
23.450635300067631
 21
17.470344233767431
 31
0.0
  0
ARC
  5
517
  8
OBJECT
 10
23.936208441209331
 20
17.628020733938602
 30
0.0
 40
0.1267084882903723
 50
226.34611359268749
 51
243.73416270164799
  0
LINE
  5
518
  8
OBJECT
 10
23.450635300067631
 20
17.470344233767431
 30
0.0
 11
23.450635300067631
 21
17.53634423376743
 31
0.0
  0
ARC
  5
519
  8
HIDDEN
 10
23.592135300067628
 20
17.53334423376743
 30
0.0
 40
0.015
 50
270.0
 51
0.0
  0
ARC
  5
51A
  8
HIDDEN
 10
23.74713530006764
 20
17.53334423376743
 30
0.0
 40
0.015
 50
180.0
 51
270.0
  0
ARC
  5
51B
  8
HIDDEN
 10
23.55963530006764
 20
17.503344233767429
 30
0.0
 40
0.015
 50
90.0
 51
180.0
  0
ARC
  5
51C
  8
HIDDEN
 10
23.779635300067639
 20
17.503344233767429
 30
0.0
 40
0.015
 50
0.0
 51
90.0
  0
LINE
  5
51D
  8
OBJECT
 10
23.800172313269979
 20
17.470344233767431
 30
0.0
 11
23.800172313269979
 21
17.53634423376743
 31
0.0
  0
LINE
  5
51E
  8
HIDDEN
 10
23.73213530006764
 20
17.53334423376743
 30
0.0
 11
23.73213530006764
 21
17.53634423376743
 31
0.0
  0
LINE
  5
51F
  8
HIDDEN
 10
23.607135300067629
 20
17.53334423376743
 30
0.0
 11
23.607135300067629
 21
17.53634423376743
 31
0.0
  0
LINE
  5
520
  8
HIDDEN
 10
23.79463530006764
 20
17.470344233767431
 30
0.0
 11
23.79463530006764
 21
17.503344233767429
 31
0.0
  0
LINE
  5
521
  8
HIDDEN
 10
23.54463530006764
 20
17.470344233767431
 30
0.0
 11
23.54463530006764
 21
17.503344233767429
 31
0.0
  0
LINE
  5
522
  8
HIDDEN
 10
23.55963530006764
 20
17.518344233767429
 30
0.0
 11
23.779635300067639
 21
17.518344233767429
 31
0.0
  0
LINE
  5
523
  8
OBJECT
 10
24.481635300067641
 20
17.380344233767431
 30
0.0
 11
24.481635300067641
 21
17.53634423376743
 31
0.0
  0
LINE
  5
524
  8
OBJECT
 10
23.981635300067641
 20
17.380344233767431
 30
0.0
 11
23.981635300067641
 21
17.53634423376743
 31
0.0
  0
LINE
  5
525
  8
OBJECT
 10
23.981635300067641
 20
17.380344233767431
 30
0.0
 11
24.481635300067641
 21
17.380344233767431
 31
0.0
  0
LINE
  5
526
  8
OBJECT
 10
23.84401293370356
 20
17.470344233767431
 30
0.0
 11
23.84401293370356
 21
17.53634423376743
 31
0.0
  0
LINE
  5
529
  8
HIDDEN
 10
34.23017627247178
 20
17.380344233767431
 30
0.0
 11
34.23017627247178
 21
17.503344233767429
 31
0.0
  0
LINE
  5
52A
  8
OBJECT
 10
33.98017627247178
 20
17.380344233767431
 30
0.0
 11
33.98017627247178
 21
17.53634423376743
 31
0.0
  0
LINE
  5
52B
  8
HIDDEN
 10
34.48017627247178
 20
17.380344233767431
 30
0.0
 11
34.48017627247178
 21
17.503344233767429
 31
0.0
  0
LINE
  5
52C
  8
OBJECT
 10
34.85517627247178
 20
17.53634423376743
 30
0.0
 11
34.85517627247178
 21
17.380344233767431
 31
0.0
  0
LINE
  5
52D
  8
OBJECT
 10
34.85517627247178
 20
17.380344233767431
 30
0.0
 11
33.98017627247178
 21
17.380344233767431
 31
0.0
  0
ARC
  5
52E
  8
HIDDEN
 10
34.245176272471781
 20
17.503344233767429
 30
0.0
 40
0.015
 50
90.0
 51
180.0
  0
LINE
  5
52F
  8
HIDDEN
 10
34.41767627247178
 20
17.53334423376743
 30
0.0
 11
34.41767627247178
 21
17.53634423376743
 31
0.0
  0
LINE
  5
530
  8
HIDDEN
 10
34.29267627247178
 20
17.53334423376743
 30
0.0
 11
34.29267627247178
 21
17.53634423376743
 31
0.0
  0
ARC
  5
531
  8
HIDDEN
 10
34.46517627247178
 20
17.503344233767429
 30
0.0
 40
0.015
 50
359.99999999999977
 51
90.0
  0
ARC
  5
532
  8
OBJECT
 10
34.824176272471767
 20
17.512637800082921
 30
0.0
 40
0.031
 50
0.0
 51
49.882414492372327
  0
ARC
  5
533
  8
HIDDEN
 10
34.432676272471781
 20
17.53334423376743
 30
0.0
 40
0.015
 50
180.00000000000011
 51
270.00000000000023
  0
ARC
  5
534
  8
HIDDEN
 10
34.277676272471773
 20
17.53334423376743
 30
0.0
 40
0.015
 50
270.0
 51
0.0000000000001527
  0
LINE
  5
535
  8
HIDDEN
 10
34.245176272471781
 20
17.518344233767429
 30
0.0
 11
34.46517627247178
 21
17.518344233767429
 31
0.0
  0
LINE
  5
536
  8
OBJECT
 10
38.355176272471738
 20
17.53634423376743
 30
0.0
 11
38.355176272471738
 21
17.380344233767431
 31
0.0
  0
LINE
  5
537
  8
HIDDEN
 10
38.730176272471738
 20
17.380344233767431
 30
0.0
 11
38.730176272471738
 21
17.503344233767429
 31
0.0
  0
LINE
  5
538
  8
OBJECT
 10
39.230176272471731
 20
17.380344233767431
 30
0.0
 11
39.230176272471731
 21
17.53634423376743
 31
0.0
  0
LINE
  5
539
  8
HIDDEN
 10
38.980176272471738
 20
17.380344233767431
 30
0.0
 11
38.980176272471738
 21
17.503344233767429
 31
0.0
  0
LINE
  5
53A
  8
OBJECT
 10
38.355176272471738
 20
17.380344233767431
 30
0.0
 11
39.230176272471731
 21
17.380344233767431
 31
0.0
  0
ARC
  5
53B
  8
OBJECT
 10
38.386176272471708
 20
17.512637800082921
 30
0.0
 40
0.031
 50
130.11758550762761
 51
180.0
  0
LINE
  5
53C
  8
HIDDEN
 10
38.965176272471737
 20
17.518344233767429
 30
0.0
 11
38.745176272471738
 21
17.518344233767429
 31
0.0
  0
ARC
  5
53D
  8
HIDDEN
 10
38.932676272471738
 20
17.53334423376743
 30
0.0
 40
0.015
 50
179.9999999999998
 51
270.0
  0
ARC
  5
53E
  8
HIDDEN
 10
38.77767627247173
 20
17.53334423376743
 30
0.0
 40
0.015
 50
269.9999999999996
 51
359.99999999999977
  0
ARC
  5
53F
  8
HIDDEN
 10
38.745176272471738
 20
17.503344233767429
 30
0.0
 40
0.015
 50
90.0
 51
180.00000000000011
  0
LINE
  5
540
  8
HIDDEN
 10
38.917676272471731
 20
17.53334423376743
 30
0.0
 11
38.917676272471731
 21
17.53634423376743
 31
0.0
  0
LINE
  5
541
  8
HIDDEN
 10
38.792676272471731
 20
17.53334423376743
 30
0.0
 11
38.792676272471731
 21
17.53634423376743
 31
0.0
  0
ARC
  5
542
  8
HIDDEN
 10
38.965176272471737
 20
17.503344233767429
 30
0.0
 40
0.015
 50
0.0
 51
90.0
  0
LINE
  5
543
  8
OBJECT
 10
38.246426272471702
 20
17.47034423376742
 30
0.0
 11
37.651426272471682
 21
17.47034423376742
 31
0.0
  0
LINE
  5
544
  8
HIDDEN
 10
37.792926272471703
 20
17.47534423376743
 30
0.0
 11
37.792926272471703
 21
17.47034423376742
 31
0.0
  0
ARC
  5
545
  8
HIDDEN
 10
38.153922718598118
 20
17.48534423376741
 30
0.0
 40
0.015
 50
270.0
 51
344.99999999999977
  0
LINE
  5
546
  8
HIDDEN
 10
38.183117270118267
 20
17.53634423376743
 30
0.0
 11
38.168411605992461
 21
17.481461948090889
 31
0.0
  0
ARC
  5
547
  8
OBJECT
 10
38.246426272471702
 20
17.48534423376741
 30
0.0
 40
0.015
 50
270.0
 51
0.0
  0
LINE
  5
548
  8
OBJECT
 10
38.261426272471702
 20
17.48534423376741
 30
0.0
 11
38.261426272471702
 21
17.53634423376743
 31
0.0
  0
ARC
  5
549
  8
HIDDEN
 10
37.871426272471702
 20
17.505344233767431
 30
0.0
 40
0.015
 50
270.0
 51
0.0
  0
ARC
  5
54A
  8
HIDDEN
 10
38.026426272471682
 20
17.505344233767431
 30
0.0
 40
0.015
 50
179.99999999999989
 51
270.0
  0
ARC
  5
54B
  8
HIDDEN
 10
38.089926272471708
 20
17.47534423376743
 30
0.0
 40
0.015
 50
0.0
 51
90.000000000000057
  0
LINE
  5
54C
  8
HIDDEN
 10
38.011426272471709
 20
17.53634423376743
 30
0.0
 11
38.011426272471709
 21
17.505344233767431
 31
0.0
  0
LINE
  5
54D
  8
HIDDEN
 10
37.886426272471702
 20
17.53634423376743
 30
0.0
 11
37.886426272471702
 21
17.505344233767431
 31
0.0
  0
LINE
  5
54E
  8
HIDDEN
 10
38.089926272471708
 20
17.490344233767431
 30
0.0
 11
37.807926272471697
 21
17.490344233767431
 31
0.0
  0
LINE
  5
54F
  8
HIDDEN
 10
38.104926272471701
 20
17.47534423376743
 30
0.0
 11
38.104926272471701
 21
17.47034423376742
 31
0.0
  0
ARC
  5
550
  8
HIDDEN
 10
37.807926272471697
 20
17.47534423376743
 30
0.0
 40
0.015
 50
90.0
 51
180.0
  0
ARC
  5
551
  8
HIDDEN
 10
37.74392982634528
 20
17.48534423376741
 30
0.0
 40
0.015
 50
194.99999999999989
 51
270.0
  0
LINE
  5
552
  8
HIDDEN
 10
37.714735274825131
 20
17.53634423376743
 30
0.0
 11
37.72944093895093
 21
17.481461948090889
 31
0.0
  0
ARC
  5
553
  8
OBJECT
 10
37.651426272471682
 20
17.48534423376741
 30
0.0
 40
0.015
 50
180.0
 51
270.0
  0
LINE
  5
554
  8
OBJECT
 10
37.636426272471709
 20
17.48534423376741
 30
0.0
 11
37.636426272471709
 21
17.53634423376743
 31
0.0
  0
LINE
  5
555
  8
OBJECT
 10
35.558926272471709
 20
17.47034423376742
 30
0.0
 11
34.963926272471689
 21
17.47034423376742
 31
0.0
  0
ARC
  5
556
  8
HIDDEN
 10
35.05642982634528
 20
17.48534423376741
 30
0.0
 40
0.015
 50
194.99999999999989
 51
270.0
  0
LINE
  5
557
  8
HIDDEN
 10
35.027235274825138
 20
17.53634423376743
 30
0.0
 11
35.04194093895093
 21
17.481461948090889
 31
0.0
  0
ARC
  5
558
  8
HIDDEN
 10
35.46642271859811
 20
17.48534423376741
 30
0.0
 40
0.015
 50
270.0
 51
344.99999999999977
  0
LINE
  5
559
  8
HIDDEN
 10
35.495617270118267
 20
17.53634423376743
 30
0.0
 11
35.480911605992461
 21
17.481461948090889
 31
0.0
  0
ARC
  5
55A
  8
HIDDEN
 10
35.12042627247169
 20
17.47534423376743
 30
0.0
 40
0.015
 50
90.0
 51
180.0
  0
LINE
  5
55B
  8
HIDDEN
 10
35.417426272471701
 20
17.47534423376743
 30
0.0
 11
35.417426272471701
 21
17.47034423376742
 31
0.0
  0
LINE
  5
55C
  8
HIDDEN
 10
35.4024262724717
 20
17.490344233767431
 30
0.0
 11
35.12042627247169
 21
17.490344233767431
 31
0.0
  0
LINE
  5
55D
  8
HIDDEN
 10
35.198926272471709
 20
17.53634423376743
 30
0.0
 11
35.198926272471709
 21
17.505344233767431
 31
0.0
  0
LINE
  5
55E
  8
HIDDEN
 10
35.323926272471709
 20
17.53634423376743
 30
0.0
 11
35.323926272471709
 21
17.505344233767431
 31
0.0
  0
ARC
  5
55F
  8
HIDDEN
 10
35.4024262724717
 20
17.47534423376743
 30
0.0
 40
0.015
 50
0.0
 51
90.000000000000057
  0
ARC
  5
560
  8
HIDDEN
 10
35.338926272471689
 20
17.505344233767431
 30
0.0
 40
0.015
 50
179.99999999999989
 51
270.0
  0
ARC
  5
561
  8
HIDDEN
 10
35.183926272471709
 20
17.505344233767431
 30
0.0
 40
0.015
 50
270.0
 51
0.0
  0
LINE
  5
562
  8
OBJECT
 10
35.573926272471709
 20
17.48534423376741
 30
0.0
 11
35.573926272471709
 21
17.53634423376743
 31
0.0
  0
ARC
  5
563
  8
OBJECT
 10
35.558926272471709
 20
17.48534423376741
 30
0.0
 40
0.015
 50
270.0
 51
0.0
  0
LINE
  5
564
  8
HIDDEN
 10
35.105426272471689
 20
17.47534423376743
 30
0.0
 11
35.105426272471689
 21
17.47034423376742
 31
0.0
  0
LINE
  5
565
  8
OBJECT
 10
34.948926272471709
 20
17.48534423376741
 30
0.0
 11
34.948926272471709
 21
17.53634423376743
 31
0.0
  0
ARC
  5
566
  8
OBJECT
 10
34.963926272471689
 20
17.48534423376741
 30
0.0
 40
0.015
 50
180.0
 51
270.0
  0
LINE
  5
567
  8
OBJECT
 10
3.6993871373336962
 20
17.380344233767431
 30
0.0
 11
2.8243871373336962
 21
17.380344233767431
 31
0.0
  0
ARC
  5
568
  8
OBJECT
 10
2.8393871373336959
 20
17.721344233767429
 30
0.0
 40
0.015
 50
90.000000000000057
 51
180.0
  0
LINE
  5
569
  8
OBJECT
 10
2.8243871373336962
 20
17.380344233767431
 30
0.0
 11
2.8243871373336962
 21
17.721344233767429
 31
0.0
  0
LINE
  5
56A
  8
OBJECT
 10
3.8081371373337181
 20
17.47034423376742
 30
0.0
 11
4.403137137333732
 21
17.47034423376742
 31
0.0
  0
LINE
  5
56B
  8
OBJECT
 10
3.668387137333696
 20
17.611344233767419
 30
0.0
 11
3.4803871373336941
 21
17.611344233767419
 31
0.0
  0
LINE
  5
56C
  8
OBJECT
 10
3.668387137333696
 20
17.543637800082919
 30
0.0
 11
3.4803871373336941
 21
17.543637800082919
 31
0.0
  0
LINE
  5
56D
  8
OBJECT
 10
3.4493871373336962
 20
17.574637800082929
 30
0.0
 11
3.4493871373336962
 21
17.721344233767429
 31
0.0
  0
ARC
  5
56E
  8
OBJECT
 10
3.4343871373336938
 20
17.721344233767429
 30
0.0
 40
0.015
 50
0.0
 51
90.0
  0
ARC
  5
56F
  8
OBJECT
 10
3.4803871373336941
 20
17.574637800082929
 30
0.0
 40
0.031
 50
180.0
 51
269.99999999999989
  0
ARC
  5
570
  8
OBJECT
 10
3.4803871373336941
 20
17.642344233767432
 30
0.0
 40
0.031
 50
180.0
 51
270.0
  0
LINE
  5
571
  8
HIDDEN
 10
3.043387137333696
 20
17.73134423376743
 30
0.0
 11
3.043387137333696
 21
17.736344233767419
 31
0.0
  0
ARC
  5
572
  8
HIDDEN
 10
3.0583871373336962
 20
17.73134423376743
 30
0.0
 40
0.015
 50
180.0
 51
270.0
  0
LINE
  5
573
  8
HIDDEN
 10
3.0893871373336959
 20
17.518344233767429
 30
0.0
 11
3.3093871373336938
 21
17.518344233767429
 31
0.0
  0
ARC
  5
574
  8
HIDDEN
 10
3.1218871373336938
 20
17.701344233767429
 30
0.0
 40
0.015
 50
0.0000000000001272
 51
90.000000000000057
  0
ARC
  5
575
  8
HIDDEN
 10
3.1218871373336938
 20
17.53334423376743
 30
0.0
 40
0.015
 50
270.0
 51
0.0000000000001527
  0
ARC
  5
576
  8
HIDDEN
 10
3.2768871373336959
 20
17.53334423376743
 30
0.0
 40
0.015
 50
180.00000000000011
 51
270.00000000000023
  0
ARC
  5
577
  8
HIDDEN
 10
3.3093871373336938
 20
17.503344233767429
 30
0.0
 40
0.015
 50
359.99999999999977
 51
90.0
  0
LINE
  5
578
  8
HIDDEN
 10
3.3553871373336941
 20
17.73134423376743
 30
0.0
 11
3.3553871373336941
 21
17.736344233767419
 31
0.0
  0
LINE
  5
579
  8
HIDDEN
 10
3.1368871373336962
 20
17.53334423376743
 30
0.0
 11
3.1368871373336962
 21
17.701344233767429
 31
0.0
  0
LINE
  5
57A
  8
HIDDEN
 10
3.2618871373336962
 20
17.53334423376743
 30
0.0
 11
3.2618871373336962
 21
17.701344233767429
 31
0.0
  0
ARC
  5
57B
  8
HIDDEN
 10
3.3403871373336931
 20
17.73134423376743
 30
0.0
 40
0.015
 50
270.0
 51
0.0000000000012722
  0
ARC
  5
57C
  8
HIDDEN
 10
3.2768871373336959
 20
17.701344233767429
 30
0.0
 40
0.015
 50
90.000000000000185
 51
180.00000000000011
  0
LINE
  5
57D
  8
HIDDEN
 10
3.0583871373336962
 20
17.71634423376743
 30
0.0
 11
3.3403871373336931
 21
17.71634423376743
 31
0.0
  0
ARC
  5
57E
  8
HIDDEN
 10
3.0893871373336959
 20
17.503344233767429
 30
0.0
 40
0.015
 50
90.0
 51
180.0
  0
LINE
  5
57F
  8
HIDDEN
 10
3.3243871373336962
 20
17.380344233767431
 30
0.0
 11
3.3243871373336962
 21
17.503344233767429
 31
0.0
  0
LINE
  5
580
  8
HIDDEN
 10
3.0743871373336962
 20
17.380344233767431
 30
0.0
 11
3.0743871373336962
 21
17.503344233767429
 31
0.0
  0
ARC
  5
581
  8
OBJECT
 10
4.310633583460147
 20
17.48534423376741
 30
0.0
 40
0.015
 50
270.0
 51
345.0
  0
LINE
  5
582
  8
OBJECT
 10
4.3556371373337157
 20
17.59534423376742
 30
0.0
 11
4.3251224708544811
 21
17.481461948090889
 31
0.0
  0
LINE
  5
583
  8
OBJECT
 10
4.3556371373337157
 20
17.736344233767419
 30
0.0
 11
4.3556371373337157
 21
17.59534423376742
 31
0.0
  0
ARC
  5
584
  8
OBJECT
 10
3.9006406912073008
 20
17.48534423376741
 30
0.0
 40
0.015
 50
195.0
 51
270.0
  0
LINE
  5
585
  8
OBJECT
 10
3.8556371373337162
 20
17.59534423376742
 30
0.0
 11
3.8861518038129659
 21
17.481461948090889
 31
0.0
  0
LINE
  5
586
  8
OBJECT
 10
3.8556371373337162
 20
17.736344233767419
 30
0.0
 11
3.8556371373337162
 21
17.59534423376742
 31
0.0
  0
ARC
  5
587
  8
HIDDEN
 10
4.2466371373337211
 20
17.47534423376743
 30
0.0
 40
0.015
 50
0.0
 51
90.0
  0
LINE
  5
588
  8
HIDDEN
 10
3.949637137333724
 20
17.47534423376743
 30
0.0
 11
3.949637137333724
 21
17.47034423376742
 31
0.0
  0
LINE
  5
589
  8
HIDDEN
 10
3.9646371373337259
 20
17.490344233767431
 30
0.0
 11
4.2466371373337211
 21
17.490344233767431
 31
0.0
  0
LINE
  5
58A
  8
HIDDEN
 10
4.1681371373337157
 20
17.67334423376743
 30
0.0
 11
4.1681371373337157
 21
17.505344233767431
 31
0.0
  0
LINE
  5
58B
  8
HIDDEN
 10
4.0431371373337157
 20
17.67334423376743
 30
0.0
 11
4.0431371373337157
 21
17.505344233767431
 31
0.0
  0
LINE
  5
58C
  8
HIDDEN
 10
4.2306371373337157
 20
17.736344233767419
 30
0.0
 11
4.2306371373337308
 21
17.703344233767432
 31
0.0
  0
LINE
  5
58D
  8
HIDDEN
 10
3.9806371373337162
 20
17.736344233767419
 30
0.0
 11
3.9806371373337162
 21
17.703344233767432
 31
0.0
  0
LINE
  5
58E
  8
HIDDEN
 10
3.9956371373337181
 20
17.688344233767431
 30
0.0
 11
4.215637137333732
 21
17.688344233767431
 31
0.0
  0
ARC
  5
58F
  8
HIDDEN
 10
3.9956371373337181
 20
17.703344233767432
 30
0.0
 40
0.015
 50
180.0
 51
270.0
  0
ARC
  5
590
  8
HIDDEN
 10
4.215637137333732
 20
17.703344233767432
 30
0.0
 40
0.015
 50
270.0
 51
0.0
  0
ARC
  5
591
  8
HIDDEN
 10
3.9646371373337259
 20
17.47534423376743
 30
0.0
 40
0.015
 50
89.999999999999943
 51
180.0
  0
ARC
  5
592
  8
HIDDEN
 10
4.028137137333732
 20
17.505344233767431
 30
0.0
 40
0.015
 50
269.99999999999989
 51
0.0000000000000509
  0
ARC
  5
593
  8
HIDDEN
 10
4.028137137333732
 20
17.67334423376743
 30
0.0
 40
0.015
 50
0.0
 51
90.0
  0
ARC
  5
594
  8
HIDDEN
 10
4.1831371373337181
 20
17.67334423376743
 30
0.0
 40
0.015
 50
90.0
 51
180.0
  0
ARC
  5
595
  8
HIDDEN
 10
4.1831371373337181
 20
17.505344233767431
 30
0.0
 40
0.015
 50
180.0
 51
270.0
  0
LINE
  5
596
  8
OBJECT
 10
3.7931371373337162
 20
17.48534423376741
 30
0.0
 11
3.7931371373337162
 21
17.736344233767419
 31
0.0
  0
ARC
  5
597
  8
OBJECT
 10
3.8081371373337181
 20
17.48534423376741
 30
0.0
 40
0.015
 50
180.0
 51
270.0
  0
LINE
  5
598
  8
HIDDEN
 10
4.2616371373337234
 20
17.47534423376743
 30
0.0
 11
4.2616371373337234
 21
17.47034423376742
 31
0.0
  0
ARC
  5
599
  8
OBJECT
 10
3.668387137333696
 20
17.512637800082921
 30
0.0
 40
0.031
 50
0.0
 51
89.999999999999943
  0
ARC
  5
59A
  8
OBJECT
 10
3.668387137333696
 20
17.580344233767409
 30
0.0
 40
0.031
 50
0.0
 51
90.0
  0
LINE
  5
59B
  8
OBJECT
 10
3.6993871373336962
 20
17.580344233767409
 30
0.0
 11
3.6993871373336962
 21
17.380344233767431
 31
0.0
  0
LINE
  5
59C
  8
OBJECT
 10
4.4181371373337157
 20
17.48534423376741
 30
0.0
 11
4.4181371373337157
 21
17.736344233767419
 31
0.0
  0
ARC
  5
59D
  8
OBJECT
 10
4.403137137333732
 20
17.48534423376741
 30
0.0
 40
0.015
 50
270.0
 51
0.0
  0
LINE
  5
59E
  8
OBJECT
 10
7.1993871373336509
 20
17.380344233767431
 30
0.0
 11
8.0743871373336518
 21
17.380344233767431
 31
0.0
  0
LINE
  5
59F
  8
HIDDEN
 10
6.6831371373337172
 20
17.688344233767431
 30
0.0
 11
6.903137137333732
 21
17.688344233767431
 31
0.0
  0
LINE
  5
5A0
  8
HIDDEN
 10
6.6521371373337272
 20
17.490344233767431
 30
0.0
 11
6.9341371373337211
 21
17.490344233767431
 31
0.0
  0
LINE
  5
5A1
  8
OBJECT
 10
6.4956371373337172
 20
17.47034423376742
 30
0.0
 11
7.090637137333732
 21
17.47034423376742
 31
0.0
  0
ARC
  5
5A2
  8
OBJECT
 10
6.4956371373337172
 20
17.48534423376741
 30
0.0
 40
0.015
 50
180.0
 51
270.0
  0
LINE
  5
5A3
  8
OBJECT
 10
6.4806371373337166
 20
17.48534423376741
 30
0.0
 11
6.4806371373337166
 21
17.736344233767419
 31
0.0
  0
ARC
  5
5A4
  8
HIDDEN
 10
6.715637137333732
 20
17.67334423376743
 30
0.0
 40
0.015
 50
0.0
 51
90.0
  0
ARC
  5
5A5
  8
HIDDEN
 10
6.715637137333732
 20
17.505344233767431
 30
0.0
 40
0.015
 50
269.99999999999989
 51
0.0000000000000509
  0
ARC
  5
5A6
  8
HIDDEN
 10
6.6521371373337272
 20
17.47534423376743
 30
0.0
 40
0.015
 50
89.999999999999943
 51
180.0
  0
ARC
  5
5A7
  8
HIDDEN
 10
6.6831371373337172
 20
17.703344233767432
 30
0.0
 40
0.015
 50
180.0
 51
270.0
  0
LINE
  5
5A8
  8
HIDDEN
 10
6.6681371373337166
 20
17.736344233767419
 30
0.0
 11
6.6681371373337166
 21
17.703344233767432
 31
0.0
  0
LINE
  5
5A9
  8
HIDDEN
 10
6.7306371373337166
 20
17.67334423376743
 30
0.0
 11
6.7306371373337166
 21
17.505344233767431
 31
0.0
  0
LINE
  5
5AA
  8
HIDDEN
 10
6.637137137333724
 20
17.47534423376743
 30
0.0
 11
6.637137137333724
 21
17.47034423376742
 31
0.0
  0
LINE
  5
5AB
  8
OBJECT
 10
6.5431371373337166
 20
17.736344233767419
 30
0.0
 11
6.5431371373337166
 21
17.59534423376742
 31
0.0
  0
LINE
  5
5AC
  8
OBJECT
 10
6.5431371373337166
 20
17.59534423376742
 30
0.0
 11
6.5736518038129663
 21
17.481461948090889
 31
0.0
  0
ARC
  5
5AD
  8
OBJECT
 10
6.5881406912073031
 20
17.48534423376741
 30
0.0
 40
0.015
 50
195.0
 51
270.0
  0
ARC
  5
5AE
  8
OBJECT
 10
7.090637137333732
 20
17.48534423376741
 30
0.0
 40
0.015
 50
270.0
 51
0.0
  0
LINE
  5
5AF
  8
OBJECT
 10
7.1056371373337166
 20
17.48534423376741
 30
0.0
 11
7.1056371373337166
 21
17.736344233767419
 31
0.0
  0
LINE
  5
5B0
  8
HIDDEN
 10
6.9491371373337216
 20
17.47534423376743
 30
0.0
 11
6.9491371373337216
 21
17.47034423376742
 31
0.0
  0
ARC
  5
5B1
  8
HIDDEN
 10
6.8706371373337172
 20
17.505344233767431
 30
0.0
 40
0.015
 50
180.0
 51
270.0
  0
ARC
  5
5B2
  8
HIDDEN
 10
6.8706371373337172
 20
17.67334423376743
 30
0.0
 40
0.015
 50
90.0
 51
180.0
  0
ARC
  5
5B3
  8
HIDDEN
 10
6.903137137333732
 20
17.703344233767432
 30
0.0
 40
0.015
 50
270.0
 51
0.0
  0
LINE
  5
5B4
  8
HIDDEN
 10
6.9181371373337166
 20
17.736344233767419
 30
0.0
 11
6.9181371373337308
 21
17.703344233767432
 31
0.0
  0
LINE
  5
5B5
  8
HIDDEN
 10
6.8556371373337166
 20
17.67334423376743
 30
0.0
 11
6.8556371373337166
 21
17.505344233767431
 31
0.0
  0
ARC
  5
5B6
  8
HIDDEN
 10
6.9341371373337211
 20
17.47534423376743
 30
0.0
 40
0.015
 50
0.0
 51
90.0
  0
LINE
  5
5B7
  8
OBJECT
 10
7.0431371373337166
 20
17.736344233767419
 30
0.0
 11
7.0431371373337166
 21
17.59534423376742
 31
0.0
  0
LINE
  5
5B8
  8
OBJECT
 10
7.0431371373337166
 20
17.59534423376742
 30
0.0
 11
7.012622470854482
 21
17.481461948090889
 31
0.0
  0
ARC
  5
5B9
  8
OBJECT
 10
6.998133583460147
 20
17.48534423376741
 30
0.0
 40
0.015
 50
270.0
 51
345.0
  0
LINE
  5
5BA
  8
OBJECT
 10
7.2303871373336506
 20
17.543637800082919
 30
0.0
 11
7.4183871373336521
 21
17.543637800082919
 31
0.0
  0
LINE
  5
5BB
  8
OBJECT
 10
7.2303871373336506
 20
17.611344233767419
 30
0.0
 11
7.4183871373336521
 21
17.611344233767419
 31
0.0
  0
ARC
  5
5BC
  8
OBJECT
 10
7.2303871373336506
 20
17.580344233767409
 30
0.0
 40
0.031
 50
90.0
 51
180.0
  0
ARC
  5
5BD
  8
OBJECT
 10
7.4183871373336521
 20
17.642344233767432
 30
0.0
 40
0.031
 50
270.0
 51
0.0
  0
ARC
  5
5BE
  8
OBJECT
 10
7.4183871373336521
 20
17.574637800082929
 30
0.0
 40
0.031
 50
270.0
 51
0.0
  0
ARC
  5
5BF
  8
OBJECT
 10
7.4643871373336532
 20
17.721344233767429
 30
0.0
 40
0.015
 50
90.0
 51
180.0
  0
LINE
  5
5C0
  8
OBJECT
 10
7.4493871373336509
 20
17.574637800082929
 30
0.0
 11
7.4493871373336509
 21
17.721344233767429
 31
0.0
  0
ARC
  5
5C1
  8
OBJECT
 10
7.2303871373336506
 20
17.512637800082921
 30
0.0
 40
0.031
 50
90.000000000000057
 51
180.0
  0
LINE
  5
5C2
  8
OBJECT
 10
7.1993871373336509
 20
17.580344233767409
 30
0.0
 11
7.1993871373336509
 21
17.380344233767431
 31
0.0
  0
ARC
  5
5C3
  8
HIDDEN
 10
7.8093871373336521
 20
17.503344233767429
 30
0.0
 40
0.015
 50
0.0
 51
90.0
  0
LINE
  5
5C4
  8
HIDDEN
 10
7.8403871373336509
 20
17.71634423376743
 30
0.0
 11
7.5583871373336553
 21
17.71634423376743
 31
0.0
  0
ARC
  5
5C5
  8
HIDDEN
 10
7.6218871373336521
 20
17.701344233767429
 30
0.0
 40
0.015
 50
359.99999999999977
 51
89.999999999999787
  0
ARC
  5
5C6
  8
HIDDEN
 10
7.5583871373336553
 20
17.73134423376743
 30
0.0
 40
0.015
 50
179.99999999999861
 51
270.0
  0
LINE
  5
5C7
  8
HIDDEN
 10
7.6368871373336509
 20
17.53334423376743
 30
0.0
 11
7.6368871373336509
 21
17.701344233767429
 31
0.0
  0
LINE
  5
5C8
  8
HIDDEN
 10
7.7618871373336509
 20
17.53334423376743
 30
0.0
 11
7.7618871373336509
 21
17.701344233767429
 31
0.0
  0
LINE
  5
5C9
  8
HIDDEN
 10
7.5433871373336521
 20
17.73134423376743
 30
0.0
 11
7.5433871373336521
 21
17.736344233767419
 31
0.0
  0
ARC
  5
5CA
  8
HIDDEN
 10
7.5893871373336532
 20
17.503344233767429
 30
0.0
 40
0.015
 50
90.0
 51
180.00000000000011
  0
ARC
  5
5CB
  8
HIDDEN
 10
7.6218871373336521
 20
17.53334423376743
 30
0.0
 40
0.015
 50
269.9999999999996
 51
359.99999999999977
  0
ARC
  5
5CC
  8
HIDDEN
 10
7.7768871373336532
 20
17.53334423376743
 30
0.0
 40
0.015
 50
179.9999999999998
 51
270.0
  0
ARC
  5
5CD
  8
HIDDEN
 10
7.7768871373336532
 20
17.701344233767429
 30
0.0
 40
0.015
 50
89.999999999999943
 51
179.9999999999998
  0
LINE
  5
5CE
  8
HIDDEN
 10
7.8093871373336521
 20
17.518344233767429
 30
0.0
 11
7.5893871373336532
 21
17.518344233767429
 31
0.0
  0
ARC
  5
5CF
  8
HIDDEN
 10
7.8403871373336509
 20
17.73134423376743
 30
0.0
 40
0.015
 50
270.0
 51
0.0
  0
LINE
  5
5D0
  8
HIDDEN
 10
7.8553871373336506
 20
17.73134423376743
 30
0.0
 11
7.8553871373336506
 21
17.736344233767419
 31
0.0
  0
ARC
  5
5D1
  8
OBJECT
 10
8.0593871373336512
 20
17.721344233767429
 30
0.0
 40
0.015
 50
0.0
 51
89.999999999999986
  0
LINE
  5
5D2
  8
HIDDEN
 10
7.8243871373336509
 20
17.380344233767431
 30
0.0
 11
7.8243871373336509
 21
17.503344233767429
 31
0.0
  0
LINE
  5
5D3
  8
OBJECT
 10
8.0743871373336518
 20
17.380344233767431
 30
0.0
 11
8.0743871373336518
 21
17.721344233767429
 31
0.0
  0
LINE
  5
5D4
  8
HIDDEN
 10
7.5743871373336509
 20
17.380344233767431
 30
0.0
 11
7.5743871373336509
 21
17.503344233767429
 31
0.0
  0
LINE
  5
5D5
  8
SHELF
 10
8.0743871373336518
 20
17.586344233767448
 30
0.0
 11
8.0993871373336521
 21
17.586344233767448
 31
0.0
  0
LINE
  5
5D6
  8
SHELF
 10
8.0743871373336518
 20
17.53634423376743
 30
0.0
 11
8.1368871373336731
 21
17.53634423376743
 31
0.0
  0
LINE
  5
5D7
  8
SHELF
 10
7.1056371373337166
 20
17.53634423376743
 30
0.0
 11
7.1993871373336509
 21
17.53634423376743
 31
0.0
  0
LINE
  5
5D8
  8
SHELF
 10
7.1056371373337166
 20
17.586344233767448
 30
0.0
 11
7.199973324682162
 21
17.586344233767448
 31
0.0
  0
LINE
  5
5D9
  8
SHELF
 10
7.1056371373337166
 20
17.661344233767441
 30
0.0
 11
7.4493871373336509
 21
17.661344233767441
 31
0.0
  0
LINE
  5
5DA
  8
SHELF
 10
2.8243871373336962
 20
17.586344233767448
 30
0.0
 11
2.7993871373336692
 21
17.586344233767448
 31
0.0
  0
LINE
  5
5DB
  8
SHELF
 10
3.6993871373336962
 20
17.536344233767419
 30
0.0
 11
3.7931371373337162
 21
17.536344233767419
 31
0.0
  0
LINE
  5
5DC
  8
SHELF
 10
3.7931371373337162
 20
17.661344233767441
 30
0.0
 11
3.4493871373336962
 21
17.661344233767441
 31
0.0
  0
LINE
  5
5DD
  8
SHELF
 10
3.7931371373337162
 20
17.586344233767448
 30
0.0
 11
3.698800949985185
 21
17.586344233767448
 31
0.0
  0
LINE
  5
5DE
  8
SHELF
 10
4.4181371373337157
 20
17.536344233767419
 30
0.0
 11
5.4343871373336601
 21
17.53634423376743
 31
0.0
  0
POLYLINE
  5
5E6
  8
OBJECT
 66
     1
 10
0.0
 20
0.0
 30
0.0
  0
VERTEX
  5
13446
  8
OBJECT
 10
24.014135300067629
 20
17.380344233767431
 30
0.0
  0
VERTEX
  5
13447
  8
OBJECT
 10
24.01413530006764
 20
15.817344233767431
 30
0.0
 42
-1.0
  0
VERTEX
  5
13448
  8
OBJECT
 10
23.889135300067618
 20
15.817344233767431
 30
0.0
  0
VERTEX
  5
13449
  8
OBJECT
 10
23.889135300067618
 20
17.53634423376743
 30
0.0
 42
-1.0117549391307319
  0
SEQEND
  5
1344A
  8
OBJECT
  0
ARC
  5
5EC
  8
OBJECT
 10
35.229919310238238
 20
15.942344233767431
 30
0.0
 40
0.0624999999999998
 50
176.9999999999992
 51
270.0
  0
ARC
  5
5ED
  8
OBJECT
 10
37.980433234705281
 20
15.942344233767431
 30
0.0
 40
0.0624999999999982
 50
270.0
 51
3.0000000000008811
  0
ARC
  5
5EE
  8
OBJECT
 10
37.980433234705274
 20
15.942344233767431
 30
0.0
 40
0.1874999999999994
 50
270.0
 51
3.0000000000001679
  0
ARC
  5
5EF
  8
OBJECT
 10
35.229919310238238
 20
15.942344233767431
 30
0.0
 40
0.1875
 50
176.99999999999969
 51
270.0
  0
LINE
  5
5F0
  8
OBJECT
 10
35.04241931023823
 20
15.942344233767431
 30
0.0
 11
35.04241931023823
 21
17.47034423376742
 31
0.0
  0
LINE
  5
5F1
  8
OBJECT
 10
35.16741931023823
 20
15.942344233767431
 30
0.0
 11
35.16741931023823
 21
17.47034423376742
 31
0.0
  0
POLYLINE
  5
5F2
  8
OBJECT
 66
     1
 10
0.0
 20
0.0
 30
0.0
 70
     4
 75
     6
  0
VERTEX
  5
5F3
  8
OBJECT
 10
37.980433234705281
 20
15.879844233767431
 30
0.0
 70
    16
  0
VERTEX
  5
5F4
  8
OBJECT
 10
37.980433234705281
 20
15.879844233767431
 30
0.0
 70
     8
  0
VERTEX
  5
5F5
  8
OBJECT
 10
37.52380494646367
 20
15.90346542479705
 30
0.0
 70
     8
  0
VERTEX
  5
5F6
  8
OBJECT
 10
37.163874413379119
 20
15.920337704103931
 30
0.0
 70
     8
  0
VERTEX
  5
5F7
  8
OBJECT
 10
36.868409050399251
 20
15.93046107168805
 30
0.0
 70
     8
  0
VERTEX
  5
5F8
  8
OBJECT
 10
36.605176272471752
 20
15.933835527549419
 30
0.0
 70
     8
  0
VERTEX
  5
5F9
  8
OBJECT
 10
36.341943494544218
 20
15.93046107168805
 30
0.0
 70
     8
  0
VERTEX
  5
5FA
  8
OBJECT
 10
36.046478131564378
 20
15.920337704103931
 30
0.0
 70
     8
  0
VERTEX
  5
5FB
  8
OBJECT
 10
35.686547598479819
 20
15.90346542479705
 30
0.0
 70
     8
  0
VERTEX
  5
5FC
  8
OBJECT
 10
35.229919310238238
 20
15.879844233767431
 30
0.0
 70
     8
  0
VERTEX
  5
5FD
  8
OBJECT
 10
36.605176272471752
 20
15.95183262547676
 30
0.0
 70
    16
  0
VERTEX
  5
5FE
  8
OBJECT
 10
35.229919310238238
 20
15.879844233767431
 30
0.0
 70
    16
  0
SEQEND
  5
5FF
  8
OBJECT
  0
POLYLINE
  5
600
  8
OBJECT
 66
     1
 10
0.0
 20
0.0
 30
0.0
 70
     4
 75
     6
  0
VERTEX
  5
601
  8
OBJECT
 10
37.980433234705281
 20
15.754844233767431
 30
0.0
 70
    16
  0
VERTEX
  5
602
  8
OBJECT
 10
37.980433234705281
 20
15.754844233767431
 30
0.0
 70
     8
  0
VERTEX
  5
603
  8
OBJECT
 10
37.52380494646367
 20
15.77846542479705
 30
0.0
 70
     8
  0
VERTEX
  5
604
  8
OBJECT
 10
37.163874413379119
 20
15.795337704103931
 30
0.0
 70
     8
  0
VERTEX
  5
605
  8
OBJECT
 10
36.868409050399251
 20
15.80546107168805
 30
0.0
 70
     8
  0
VERTEX
  5
606
  8
OBJECT
 10
36.605176272471752
 20
15.80883552754943
 30
0.0
 70
     8
  0
VERTEX
  5
607
  8
OBJECT
 10
36.341943494544218
 20
15.80546107168805
 30
0.0
 70
     8
  0
VERTEX
  5
608
  8
OBJECT
 10
36.046478131564378
 20
15.795337704103931
 30
0.0
 70
     8
  0
VERTEX
  5
609
  8
OBJECT
 10
35.686547598479819
 20
15.77846542479705
 30
0.0
 70
     8
  0
VERTEX
  5
60A
  8
OBJECT
 10
35.229919310238238
 20
15.754844233767431
 30
0.0
 70
     8
  0
VERTEX
  5
60B
  8
OBJECT
 10
36.605176272471752
 20
15.82683262547676
 30
0.0
 70
    16
  0
VERTEX
  5
60C
  8
OBJECT
 10
35.229919310238238
 20
15.754844233767431
 30
0.0
 70
    16
  0
SEQEND
  5
60D
  8
OBJECT
  0
LINE
  5
60E
  8
OBJECT
 10
38.042933234705274
 20
15.942344233767431
 30
0.0
 11
38.042933234705274
 21
17.47034423376742
 31
0.0
  0
LINE
  5
60F
  8
OBJECT
 10
38.167933234705274
 20
15.942344233767431
 30
0.0
 11
38.167933234705274
 21
17.47034423376742
 31
0.0
  0
LINE
  5
610
  8
OBJECT
 10
6.8871440995671822
 20
15.942344233767431
 30
0.0
 11
6.8871440995671822
 21
17.47034423376742
 31
0.0
  0
LINE
  5
611
  8
OBJECT
 10
7.0121440995671822
 20
15.942344233767431
 30
0.0
 11
7.0121440995671822
 21
17.47034423376742
 31
0.0
  0
ARC
  5
612
  8
OBJECT
 10
6.8246440995671822
 20
15.942344233767431
 30
0.0
 40
0.1875
 50
270.0
 51
3.0000000000001679
  0
ARC
  5
613
  8
OBJECT
 10
6.8246440995671822
 20
15.942344233767431
 30
0.0
 40
0.0624999999999998
 50
270.0
 51
3.000000000000703
  0
LINE
  5
614
  8
OBJECT
 10
3.8866301751001529
 20
15.942344233767431
 30
0.0
 11
3.8866301751001529
 21
17.47034423376742
 31
0.0
  0
LINE
  5
615
  8
OBJECT
 10
4.0116301751001533
 20
15.942344233767431
 30
0.0
 11
4.0116301751001533
 21
17.47034423376742
 31
0.0
  0
POLYLINE
  5
616
  8
OBJECT
 66
     1
 10
0.0
 20
0.0
 30
0.0
 70
     4
 75
     6
  0
VERTEX
  5
617
  8
OBJECT
 10
4.0741301751001462
 20
15.754844233767431
 30
0.0
 70
    16
  0
VERTEX
  5
618
  8
OBJECT
 10
4.0741301751001462
 20
15.754844233767431
 30
0.0
 70
     8
  0
VERTEX
  5
619
  8
OBJECT
 10
4.530758463341745
 20
15.77846542479705
 30
0.0
 70
     8
  0
VERTEX
  5
61A
  8
OBJECT
 10
4.8906889964263041
 20
15.795337704103931
 30
0.0
 70
     8
  0
VERTEX
  5
61B
  8
OBJECT
 10
5.1861543594061601
 20
15.80546107168805
 30
0.0
 70
     8
  0
VERTEX
  5
61C
  8
OBJECT
 10
5.4493871373336704
 20
15.80883552754943
 30
0.0
 70
     8
  0
VERTEX
  5
61D
  8
OBJECT
 10
5.7126199152611781
 20
15.80546107168805
 30
0.0
 70
     8
  0
VERTEX
  5
61E
  8
OBJECT
 10
6.0080852782410341
 20
15.795337704103931
 30
0.0
 70
     8
  0
VERTEX
  5
61F
  8
OBJECT
 10
6.368015811325586
 20
15.77846542479705
 30
0.0
 70
     8
  0
VERTEX
  5
620
  8
OBJECT
 10
6.8246440995671822
 20
15.754844233767431
 30
0.0
 70
     8
  0
VERTEX
  5
621
  8
OBJECT
 10
5.4493871373336731
 20
15.82683262547676
 30
0.0
 70
    16
  0
VERTEX
  5
622
  8
OBJECT
 10
6.8246440995671822
 20
15.754844233767431
 30
0.0
 70
    16
  0
SEQEND
  5
623
  8
OBJECT
  0
POLYLINE
  5
624
  8
OBJECT
 66
     1
 10
0.0
 20
0.0
 30
0.0
 70
     4
 75
     6
  0
VERTEX
  5
625
  8
OBJECT
 10
4.0741301751001462
 20
15.879844233767431
 30
0.0
 70
    16
  0
VERTEX
  5
626
  8
OBJECT
 10
4.0741301751001462
 20
15.879844233767431
 30
0.0
 70
     8
  0
VERTEX
  5
627
  8
OBJECT
 10
4.530758463341745
 20
15.90346542479705
 30
0.0
 70
     8
  0
VERTEX
  5
628
  8
OBJECT
 10
4.8906889964263041
 20
15.920337704103931
 30
0.0
 70
     8
  0
VERTEX
  5
629
  8
OBJECT
 10
5.1861543594061601
 20
15.93046107168805
 30
0.0
 70
     8
  0
VERTEX
  5
62A
  8
OBJECT
 10
5.4493871373336704
 20
15.933835527549419
 30
0.0
 70
     8
  0
VERTEX
  5
62B
  8
OBJECT
 10
5.7126199152611781
 20
15.93046107168805
 30
0.0
 70
     8
  0
VERTEX
  5
62C
  8
OBJECT
 10
6.0080852782410341
 20
15.920337704103931
 30
0.0
 70
     8
  0
VERTEX
  5
62D
  8
OBJECT
 10
6.368015811325586
 20
15.90346542479705
 30
0.0
 70
     8
  0
VERTEX
  5
62E
  8
OBJECT
 10
6.8246440995671822
 20
15.879844233767431
 30
0.0
 70
     8
  0
VERTEX
  5
62F
  8
OBJECT
 10
5.4493871373336731
 20
15.95183262547676
 30
0.0
 70
    16
  0
VERTEX
  5
630
  8
OBJECT
 10
6.8246440995671822
 20
15.879844233767431
 30
0.0
 70
    16
  0
SEQEND
  5
631
  8
OBJECT
  0
ARC
  5
632
  8
OBJECT
 10
4.0741301751001533
 20
15.942344233767431
 30
0.0
 40
0.1874999999999994
 50
176.99999999999969
 51
270.0
  0
ARC
  5
633
  8
OBJECT
 10
4.0741301751001462
 20
15.942344233767431
 30
0.0
 40
0.0624999999999982
 50
176.99999999999901
 51
270.0
  0
DIMENSION
  5
63B
  8
DIM
  2
*D2
 10
15.241385300067639
 20
17.53634423376743
 30
0.0
 11
4.8951307375213791
 21
27.788112432515291
 31
0.0
 70
     2
  1
 
 13
23.889135300067618
 23
15.817344233767431
 33
0.0
 14
23.889135300067618
 24
17.53634423376743
 34
0.0
 15
25.241385300067659
 25
17.53634423376743
 35
0.0
 16
23.110542876701832
 26
16.187782598109699
 36
0.0
1001
ACAD
1000
DSTYLE
1002
{
1070
   271
1070
     0
1002
}
  0
LINE
  5
68B
  8
COVER
 10
15.232385300067641
 20
23.914344233767409
 30
0.0
 11
15.232385300067641
 21
19.58334423376742
 31
0.0
  0
LINE
  5
68C
  8
COVER
  6
HIDDEN
 10
15.232385300067641
 20
17.83634423376742
 30
0.0
 11
22.38838530006765
 21
17.83634423376742
 31
0.0
  0
LINE
  5
68D
  8
COVER
  6
HIDDEN
 10
22.38838530006765
 20
17.83634423376742
 30
0.0
 11
22.38838530006765
 21
19.320344233767418
 31
0.0
  0
LINE
  5
68E
  8
COVER
  6
HIDDEN
 10
22.38838530006765
 20
19.320344233767418
 30
0.0
 11
25.38838530006765
 21
19.320344233767418
 31
0.0
  0
LINE
  5
68F
  8
COVER
  6
HIDDEN
 10
25.38838530006765
 20
19.320344233767418
 30
0.0
 11
25.38838530006765
 21
23.914344233767409
 31
0.0
  0
LINE
  5
690
  8
COVER
 10
25.38838530006765
 20
23.914344233767409
 30
0.0
 11
15.232385300067641
 21
23.914344233767409
 31
0.0
  0
DIMENSION
  5
A60
  8
DIM
  2
*D25
 10
35.04241931023823
 20
14.314844233767429
 30
0.0
 11
36.605176272471752
 21
14.314844233767429
 31
0.0
 70
     0
  1
D
 13
38.167933234705274
 23
15.942344233767431
 33
0.0
 14
35.04241931023823
 24
15.942344233767431
 34
0.0
  0
DIMENSION
  5
EA8
  8
DIM
  2
*D3
 10
32.415176272471761
 20
17.53634423376743
 30
0.0
 11
30.678926272471749
 21
16.096344233767429
 31
0.0
 70
     0
 13
33.980176272471759
 23
17.66134423376743
 33
0.0
 14
33.917676272471759
 24
17.53634423376743
 34
0.0
 50
90.0
  0
DIMENSION
  5
124B
  8
DIM
  2
*D4
 10
32.415176272471761
 20
23.848844233767419
 30
0.0
 11
32.415176272471747
 21
20.755094233767419
 31
0.0
 70
     0
  1
E
 13
33.980176272471759
 23
17.66134423376743
 33
0.0
 14
33.980176272471759
 24
23.848844233767419
 34
0.0
 50
90.0
  0
DIMENSION
  5
1720
  8
DIM
  2
*D5
 10
31.291176272471759
 20
23.973844233767402
 30
0.0
 11
31.291176272471759
 21
20.755094233767419
 31
0.0
 70
     0
  1
A
 13
33.917676272471759
 23
17.53634423376743
 33
0.0
 14
33.917676272471759
 24
23.973844233767402
 34
0.0
 50
90.0
  0
DIMENSION
  5
1919
  8
DIM
  2
*D6
 10
33.855176272471759
 20
26.537844233767419
 30
0.0
 11
31.398926272471758
 21
26.537844233767419
 31
0.0
 70
     0
 13
33.980176272471759
 23
23.848844233767419
 33
0.0
 14
33.855176272471759
 24
23.911344233767419
 34
0.0
  0
DIMENSION
  5
1B2A
  8
DIM
  2
*D7
 10
39.230176272471759
 20
26.537844233767419
 30
0.0
 11
36.605176272471752
 21
26.537844233767419
 31
0.0
 70
     0
  1
F
 13
33.980176272471759
 23
23.848844233767419
 33
0.0
 14
39.230176272471759
 24
23.848844233767419
 34
0.0
  0
DIMENSION
  5
1DCB
  8
DIM
  2
*D8
 10
39.355176272471752
 20
28.78584423376741
 30
0.0
 11
36.605176272471752
 21
28.78584423376741
 31
0.0
 70
     0
  1
B
 13
33.855176272471759
 23
23.911344233767419
 33
0.0
 14
39.355176272471752
 24
23.911344233767419
 34
0.0
  0
DIMENSION
  5
2030
  8
DIM
  2
*D9
 10
35.379543393780267
 20
17.692344233767422
 30
0.0
 11
35.37954339378026
 21
20.754969233767419
 31
0.0
 70
     0
  1
J
 13
34.011426272471759
 23
23.817594233767419
 33
0.0
 14
34.011426272471759
 24
17.692344233767422
 34
0.0
 50
90.0
  0
DIMENSION
  5
22D1
  8
DIM
  2
*D10
 10
39.198926272471752
 20
19.517169431665518
 30
0.0
 11
36.605176272471752
 21
19.517169431665518
 31
0.0
 70
     0
  1
K
 13
34.011426272471759
 23
17.692344233767422
 33
0.0
 14
39.198926272471752
 24
17.692344233767422
 34
0.0
  0
DIMENSION
  5
266D
  8
DIM
  2
*D11
 10
30.16717627247176
 20
23.973844233767402
 30
0.0
 11
31.903426272471759
 21
25.413844233767421
 31
0.0
 70
     0
 13
34.355176272471752
 23
23.473844233767419
 33
0.0
 14
33.917676272471759
 24
23.973844233767402
 34
0.0
 50
90.0
  0
DIMENSION
  5
2813
  8
DIM
  2
*D12
 10
33.855176272471759
 20
27.661844233767422
 30
0.0
 11
31.398926272471758
 21
27.661844233767422
 31
0.0
 70
     0
 13
34.355176272471752
 23
23.473844233767419
 33
0.0
 14
33.855176272471759
 24
23.911344233767419
 34
0.0
 50
180.0
  0
DIMENSION
  5
31DF
  8
DIM
  2
*D26
 10
28.264042401305979
 20
17.53634423376743
 30
0.0
 11
28.264042401305971
 21
16.645594233767429
 31
0.0
 70
     0
 13
23.951635300067629
 23
15.754844233767431
 33
0.0
 14
26.232385300067641
 24
17.53634423376743
 34
0.0
 50
90.0
  0
DIMENSION
  5
39A0
  8
DIM
  2
*D13
 10
25.857385300067641
 20
25.413844233767421
 30
0.0
 11
23.33863530006764
 21
25.413844233767421
 31
0.0
 70
     0
 13
26.232385300067641
 23
23.973844233767419
 33
0.0
 14
25.857385300067641
 24
23.848844233767419
 34
0.0
  0
DIMENSION
  5
3E5D
  8
DIM
  2
*D14
 10
25.232385300067641
 20
26.537844233767419
 30
0.0
 11
22.83863530006764
 21
26.537844233767419
 31
0.0
 70
     0
 13
26.232385300067641
 23
23.973844233767419
 33
0.0
 14
25.232385300067641
 24
23.973844233767419
 34
0.0
  0
DIMENSION
  5
4282
  8
DIM
  2
*D15
 10
15.232385300067641
 20
22.492576188194271
 30
0.0
 11
12.71363530006764
 21
22.492576188194271
 31
0.0
 70
     0
 13
15.795385300067659
 23
22.492576188194271
 33
0.0
 14
15.232385300067641
 24
22.492576188194271
 34
0.0
  0
DIMENSION
  5
4E2F
  8
DIM
  2
*D16
 10
12.36732230769409
 20
17.380344233767431
 30
0.0
 11
10.63107230769409
 21
15.94034423376743
 31
0.0
 70
     0
 13
15.232385300067641
 23
17.53634423376743
 33
0.0
 14
15.98163530006765
 24
17.380344233767431
 34
0.0
 50
90.0
  0
DIMENSION
  5
5038
  8
DIM
  2
*D27
 10
13.792385300067631
 20
19.58334423376742
 30
0.0
 11
13.792385300067631
 21
18.559844233767429
 31
0.0
 70
     0
 13
15.232385300067641
 23
17.53634423376743
 33
0.0
 14
15.232385300067641
 24
19.58334423376742
 34
0.0
 50
90.0
  0
DIMENSION
  5
5AB6
  8
DIM
  2
*D17
 10
15.232385300067641
 20
27.661844233767422
 30
0.0
 11
20.732385300067641
 21
27.661844233767422
 31
0.0
 70
     0
  1
C
 13
26.232385300067641
 23
23.973844233767419
 33
0.0
 14
15.232385300067641
 24
23.914344233767409
 34
0.0
  0
DIMENSION
  5
5D6F
  8
DIM
  2
*D28
 10
26.232385300067641
 20
14.314844233767429
 30
0.0
 11
25.092010300067638
 21
14.314844233767429
 31
0.0
 70
     0
 13
23.951635300067629
 23
15.754844233767431
 33
0.0
 14
26.232385300067641
 24
17.53634423376743
 34
0.0
  0
DIMENSION
  5
73CD
  8
DIM
  2
*D18
 10
9.6393871373336726
 20
18.19296923376741
 30
0.0
 11
11.438137137333671
 21
19.632969233767401
 31
0.0
 70
     0
 13
8.0121996373336515
 23
17.84921923376741
 33
0.0
 14
7.7934496373336506
 24
18.19296923376741
 34
0.0
 50
270.0
  0
DIMENSION
  5
7B90
  8
DIM
  2
*D19
 10
9.6393871373336726
 20
23.78671923376741
 30
0.0
 11
11.40688713733366
 21
25.226719233767419
 31
0.0
 70
     0
 13
7.7934496373336506
 23
23.03671923376741
 33
0.0
 14
8.0121996373336515
 24
23.78671923376741
 34
0.0
 50
270.0
  0
DIMENSION
  5
82A5
  8
DIM
  2
*D20
 10
8.0121996373336515
 20
26.537844233767419
 30
0.0
 11
10.46844963733364
 21
26.537844233767419
 31
0.0
 70
     0
 13
7.7934496373336506
 23
23.03671923376741
 33
0.0
 14
8.0121996373336515
 24
23.78671923376741
 34
0.0
  0
DIMENSION
  5
871A
  8
DIM
  2
*D21
 10
8.0368871373337658
 20
27.661844233767422
 30
0.0
 11
5.4493871373336891
 21
27.661844233767422
 31
0.0
 70
     0
  1
H
 13
2.861887137333611
 23
23.812344233767401
 33
0.0
 14
8.0368871373337658
 24
23.812344233767419
 34
0.0
  0
DIMENSION
  5
937B
  8
DIM
  2
*D22
 10
8.0121996373336515
 20
22.37572320201317
 30
0.0
 11
5.4496996373336533
 21
22.37572320201317
 31
0.0
 70
     0
  1
M
 13
2.8871996373336528
 23
23.78671923376741
 33
0.0
 14
8.0121996373336515
 24
23.78671923376741
 34
0.0
  0
DIMENSION
  5
95EC
  8
DIM
  2
*D23
 10
4.4475470913945836
 20
17.84921923376741
 30
0.0
 11
4.44754709139458
 21
20.81796923376741
 31
0.0
 70
     0
  1
L
 13
2.8871996373336528
 23
23.78671923376741
 33
0.0
 14
2.8871996373336528
 24
17.84921923376741
 34
0.0
 50
90.0
  0
LINE
  5
C881
  8
SHELF
 10
13.719427241971919
 20
42.813137725781722
 30
0.0
 11
18.48256696278635
 21
40.063137725781708
 31
0.0
  0
LINE
  5
C882
  8
SHELF
 10
18.48256696278635
 20
33.625137725781713
 30
0.0
 11
18.48256696278635
 21
40.063137725781708
 31
0.0
  0
LINE
  5
C885
  8
SHELF
 10
13.719427241971919
 20
42.813137725781722
 30
0.0
 11
12.853401838187491
 21
42.313137725781708
 31
0.0
  0
LINE
  5
C886
  8
SHELF
 10
18.48256696278635
 20
40.063137725781708
 30
0.0
 11
17.616541559001909
 21
39.563137725781708
 31
0.0
  0
LINE
  5
C895
  8
SHELF
 10
12.853401838187491
 20
42.313137725781708
 30
0.0
 11
12.96165501366055
 21
42.125637725781708
 31
0.0
  0
POLYLINE
  5
C8A7
  8
SHELF
 66
     1
 10
0.0
 20
0.0
 30
0.0
 70
     1
  0
VERTEX
  5
13453
  8
SHELF
 10
12.96165501366055
 20
35.937637725781713
 30
0.0
  0
VERTEX
  5
13454
  8
SHELF
 10
17.50828838352885
 20
33.312637725781713
 30
0.0
  0
VERTEX
  5
13455
  8
SHELF
 10
17.50828838352885
 20
39.500637725781708
 30
0.0
  0
VERTEX
  5
13456
  8
SHELF
 10
12.96165501366055
 20
42.125637725781708
 30
0.0
  0
SEQEND
  5
13457
  8
SHELF
  0
POLYLINE
  5
C8AD
  8
SHELF
 66
     1
 10
0.0
 20
0.0
 30
0.0
 70
     1
  0
VERTEX
  5
13458
  8
SHELF
 10
12.853401838187491
 20
35.875137725781713
 30
0.0
  0
VERTEX
  5
13459
  8
SHELF
 10
17.616541559001909
 20
33.125137725781713
 30
0.0
  0
VERTEX
  5
1345A
  8
SHELF
 10
17.616541559001909
 20
39.563137725781708
 30
0.0
  0
VERTEX
  5
1345B
  8
SHELF
 10
12.853401838187491
 20
42.313137725781708
 30
0.0
  0
SEQEND
  5
1345C
  8
SHELF
  0
LINE
  5
C8F9
  8
SHELF
 10
13.872404702738971
 20
36.099816147627919
 30
0.0
 11
17.444759493349778
 21
34.037316147627912
 31
0.0
  0
LINE
  5
C8FC
  8
SHELF
 10
13.557480491464229
 20
41.707780882089288
 30
0.0
 11
13.557480491464229
 21
36.645780882089312
 31
0.0
  0
LINE
  5
C956
  8
SHELF
 10
17.50828838352885
 20
33.312637725781713
 30
0.0
 11
17.616541559001909
 21
33.125137725781713
 31
0.0
  0
ARC
  5
CA57
  8
COVER
  6
HIDDEN
 10
17.488753611951051
 20
24.138486731079912
 30
0.0
 40
0.4616843240615641
 50
216.42626191400359
 51
270.81674446042888
  0
LINE
  5
CA58
  8
COVER
  6
HIDDEN
 10
23.993621923834539
 20
23.676844233767401
 30
0.0
 11
17.482885300067661
 21
23.676844233767401
 31
0.0
  0
ARC
  5
CA59
  8
COVER
  6
HIDDEN
 10
23.987753611951138
 20
24.138486731079912
 30
0.0
 40
0.4616843240615641
 50
269.18325553957101
 51
323.57373808599431
  0
LINE
  5
CB61
  8
COVER
 10
27.088694412894199
 20
40.690887725781707
 30
0.0
 11
27.088694412894199
 21
44.969387725781708
 31
0.0
  0
LINE
  5
CB62
  8
COVER
 10
27.032402761648189
 20
45.066887725781697
 30
0.0
 11
22.49009951879885
 21
47.689387725781678
 31
0.0
  0
LINE
  5
CB63
  8
COVER
 10
22.450295310478609
 20
47.693330636947387
 30
0.0
 11
13.85849023978707
 21
42.732849666558813
 31
0.0
  0
LINE
  5
CB64
  8
COVER
 10
27.072206969968452
 20
45.024868696170252
 30
0.0
 11
18.480401899276892
 21
40.0643877257817
 31
0.0
  0
LINE
  5
CB69
  8
COVER
 10
16.236530078071411
 20
39.499887725781697
 30
0.0
 11
16.236530078071411
 21
38.065887725781678
 31
0.0
  0
LINE
  5
D83D
  8
COVER
 10
16.279831348260629
 20
38.040887725781701
 30
0.0
 11
16.236530078071411
 21
38.065887725781678
 31
0.0
  0
LINE
  5
D841
  8
COVER
 10
16.279831348260629
 20
38.040887725781701
 30
0.0
 11
17.50828838352885
 21
38.750137725781691
 31
0.0
  0
LINE
  5
D842
  8
COVER
 10
16.279831348260629
 20
39.524887725781703
 30
0.0
 11
16.279831348260629
 21
38.040887725781701
 31
0.0
  0
LINE
  5
D843
  8
COVER
 10
16.279831348260629
 20
39.524887725781703
 30
0.0
 11
16.236530078071411
 21
39.499887725781697
 31
0.0
  0
POLYLINE
  5
D8BD
  8
COVER
 66
     1
 10
0.0
 20
0.0
 30
0.0
  0
VERTEX
  5
1345D
  8
COVER
 10
27.088694412894199
 20
44.969387725781708
 30
0.0
 42
0.0723410840576355
  0
VERTEX
  5
1345E
  8
COVER
 10
27.084925398365801
 20
44.995301702936821
 30
0.0
 42
0.0587518675352985
  0
VERTEX
  5
1345F
  8
COVER
 10
27.072206969968452
 20
45.024868696170252
 30
0.0
 42
0.0587518675353883
  0
VERTEX
  5
13460
  8
COVER
 10
27.052960416913422
 20
45.050666674875337
 30
0.0
 42
0.0723410840575641
  0
VERTEX
  5
13461
  8
COVER
 10
27.032402761648228
 20
45.066887725781697
 30
0.0
 42
0.1066170543910352
  0
SEQEND
  5
13462
  8
COVER
  0
LINE
  5
E123
  8
COVER
 10
16.480316229236742
 20
42.534637725781707
 30
0.0
 11
21.892108977485709
 21
45.659137725781697
 31
0.0
  0
LINE
  5
E124
  8
COVER
 10
18.104113861332561
 20
41.597137725781707
 30
0.0
 11
23.515906609581531
 21
44.721637725781697
 31
0.0
  0
LINE
  5
E366
  8
COVER
 10
23.515906609581531
 20
45.1596377257817
 30
0.0
 11
22.650747231200882
 21
45.659137725781697
 31
0.0
  0
LINE
  5
E367
  8
COVER
 10
17.345475607617409
 20
41.597137725781707
 30
0.0
 11
16.480316229236742
 21
42.096637725781719
 31
0.0
  0
POLYLINE
  5
E3B4
  8
COVER
 66
     1
 10
0.0
 20
0.0
 30
0.0
  0
VERTEX
  5
13463
  8
COVER
 10
23.515906609581531
 20
44.721637725781697
 30
0.0
 42
0.1066170543910153
  0
VERTEX
  5
13464
  8
COVER
 10
23.638228041752932
 20
44.832440954309291
 30
0.0
 42
0.1568512196707834
  0
VERTEX
  5
13465
  8
COVER
 10
23.673025736393459
 20
44.940637725781698
 30
0.0
 42
0.1568512196707681
  0
VERTEX
  5
13466
  8
COVER
 10
23.638228041752932
 20
45.048834497254113
 30
0.0
 42
0.1066170543910095
  0
VERTEX
  5
13467
  8
COVER
 10
23.515906609581531
 20
45.1596377257817
 30
0.0
 42
0.0723410840576436
  0
SEQEND
  5
13468
  8
COVER
  0
POLYLINE
  5
E3BB
  8
COVER
 66
     1
 10
0.0
 20
0.0
 30
0.0
  0
VERTEX
  5
13469
  8
COVER
 10
22.27142810434329
 20
45.749850495941409
 30
0.0
 42
0.0587518675353702
  0
VERTEX
  5
1346A
  8
COVER
 10
22.0560333062488
 20
45.724453136503897
 30
0.0
 42
0.0723410840576589
  0
VERTEX
  5
1346B
  8
COVER
 10
21.892108977485709
 20
45.659137725781697
 30
0.0
 42
0.1066170543910083
  0
SEQEND
  5
1346C
  8
COVER
  0
POLYLINE
  5
E3C0
  8
COVER
 66
     1
 10
0.0
 20
0.0
 30
0.0
  0
VERTEX
  5
1346D
  8
COVER
 10
22.650747231200882
 20
45.659137725781697
 30
0.0
 42
0.0723410840576663
  0
VERTEX
  5
1346E
  8
COVER
 10
22.486822902437801
 20
45.724453136503897
 30
0.0
 42
0.0587518675353836
  0
VERTEX
  5
1346F
  8
COVER
 10
22.27142810434329
 20
45.749850495941409
 30
0.0
 42
0.0587518675353702
  0
SEQEND
  5
13470
  8
COVER
  0
POLYLINE
  5
E3C5
  8
COVER
 66
     1
 10
0.0
 20
0.0
 30
0.0
  0
VERTEX
  5
13471
  8
COVER
 10
17.345475607617409
 20
41.597137725781707
 30
0.0
 42
0.0723410840576704
  0
VERTEX
  5
13472
  8
COVER
 10
17.509399936380511
 20
41.531822315059522
 30
0.0
 42
0.058751867535373
  0
VERTEX
  5
13473
  8
COVER
 10
17.72479473447498
 20
41.506424955622002
 30
0.0
 42
0.0587518675353846
  0
VERTEX
  5
13474
  8
COVER
 10
17.94018953256948
 20
41.531822315059543
 30
0.0
 42
0.0723410840576707
  0
VERTEX
  5
13475
  8
COVER
 10
18.104113861332561
 20
41.597137725781707
 30
0.0
 42
0.1066170543910241
  0
SEQEND
  5
13476
  8
COVER
  0
POLYLINE
  5
E3CC
  8
COVER
 66
     1
 10
0.0
 20
0.0
 30
0.0
  0
VERTEX
  5
13477
  8
COVER
 10
16.480316229236742
 20
42.534637725781707
 30
0.0
 42
0.1066170543910172
  0
VERTEX
  5
13478
  8
COVER
 10
16.357994797065331
 20
42.423834497254113
 30
0.0
 42
0.1568512196707779
  0
VERTEX
  5
13479
  8
COVER
 10
16.323197102424821
 20
42.315637725781713
 30
0.0
 42
0.1568512196707529
  0
VERTEX
  5
1347A
  8
COVER
 10
16.357994797065331
 20
42.207440954309291
 30
0.0
 42
0.1066170543909927
  0
VERTEX
  5
1347B
  8
COVER
 10
16.480316229236742
 20
42.096637725781719
 30
0.0
 42
0.072341084057678
  0
SEQEND
  5
1347C
  8
COVER
  0
LINE
  5
E46F
  8
COVER
 10
17.752074534694209
 20
41.674887725781687
 30
0.0
 11
23.055614107470099
 21
44.736887725781699
 31
0.0
  0
LINE
  5
E562
  8
COVER
 10
17.426448982871239
 20
41.674887725781687
 30
0.0
 11
16.940608731348181
 21
41.955387725781698
 31
0.0
  0
POLYLINE
  5
E5D5
  8
COVER
 66
     1
 10
0.0
 20
0.0
 30
0.0
  0
VERTEX
  5
1347D
  8
COVER
 10
17.426448982871239
 20
41.674887725781687
 30
0.0
 42
0.0723410840576298
  0
VERTEX
  5
1347E
  8
COVER
 10
17.496809197043561
 20
41.646852800631521
 30
0.0
 42
0.0587518675353217
  0
VERTEX
  5
1347F
  8
COVER
 10
17.58926175878273
 20
41.635951650918628
 30
0.0
 42
0.0587518675353553
  0
VERTEX
  5
13480
  8
COVER
 10
17.681714320521898
 20
41.646852800631528
 30
0.0
 42
0.0723410840576535
  0
VERTEX
  5
13481
  8
COVER
 10
17.752074534694209
 20
41.674887725781687
 30
0.0
 42
0.1066170543910185
  0
SEQEND
  5
13482
  8
COVER
  0
TEXT
  5
E659
  8
TEXT
 10
0.8127426046812901
 20
58.819958741242637
 30
0.0
 40
0.5000015625000001
  1
%%UMATERIAL:
 41
0.75
  0
TEXT
  5
E66D
  8
TEXT
 10
0.8127426046812901
 20
57.15462020374261
 30
0.0
 40
0.5000015625000001
  1
FRONT PANEL
 41
0.75
  0
TEXT
  5
E66E
  8
TEXT
 10
0.8127426046812901
 20
57.985289466242648
 30
0.0
 40
0.5000015625000001
  1
CORNER GUSSETS
 41
0.75
  0
TEXT
  5
E66F
  8
TEXT
 10
0.8127426046812901
 20
56.319950928742628
 30
0.0
 40
0.5000015625000001
  1
SHELF, COVER, REAR PANEL
 41
0.75
  0
TEXT
  5
E670
  8
TEXT
 10
0.8127426046812901
 20
55.486614991242611
 30
0.0
 40
0.5000015625000001
  1
 AND SHELF GUSSETS
 41
0.75
  0
TEXT
  5
E671
  8
TEXT
 10
0.8127426046812901
 20
54.653279053742622
 30
0.0
 40
0.5000015625000001
  1
FRAME
 41
0.75
  0
TEXT
  5
E672
  8
TEXT
 10
0.8127426046812901
 20
53.819943116242641
 30
0.0
 40
0.5000015625000001
  1
BAIL
 41
0.75
  0
TEXT
  5
E673
  8
TEXT
 10
0.8127426046812901
 20
52.986607178742616
 30
0.0
 40
0.5000015625000001
  1
FEET
 41
0.75
  0
TEXT
  5
E674
  8
TEXT
 10
0.8127426046812901
 20
52.153271241242621
 30
0.0
 40
0.5000015625000001
  1
HANDLE
 41
0.75
  0
TEXT
  5
E675
  8
TEXT
 10
20.71548394858069
 20
58.806625366242628
 30
0.0
 40
0.5000015625000001
  1
%%UFINISH:
 41
0.75
  0
TEXT
  5
E676
  8
TEXT
 10
20.71548394858069
 20
57.973289428742618
 30
0.0
 40
0.5000015625000001
  1
COVER AND PANELS
 41
0.75
  0
TEXT
  5
E677
  8
TEXT
 10
20.71548394858069
 20
56.306617553742612
 30
0.0
 40
0.5000015625000001
  1
SHELF ASSEMBLY
 41
0.75
  0
TEXT
  5
E678
  8
TEXT
 10
20.71548394858069
 20
55.473281616242602
 30
0.0
 40
0.5000015625000001
  1
HANDLE AND FEET
 41
0.75
  0
TEXT
  5
E679
  8
TEXT
 10
20.71548394858069
 20
54.639945678742599
 30
0.0
 40
0.5000015625000001
  1
HANDLE CAPS
 41
0.75
  0
TEXT
  5
E67A
  8
TEXT
 10
20.71548394858069
 20
53.806609741242603
 30
0.0
 40
0.5000015625000001
  1
BAIL
 41
0.75
  0
TEXT
  5
E67B
  8
TEXT
 10
15.22636456806643
 20
57.15462020374261
 30
0.0
 40
0.5000015625000001
  1
0.090 ALUMINUM
 41
0.75
 72
     2
 11
19.788878825878921
 21
57.15462020374261
 31
0.0
  0
TEXT
  5
E67C
  8
TEXT
 10
15.788866325878921
 20
57.985289466242648
 30
0.0
 40
0.5000015625000001
  1
16 GA. STEEL
 41
0.75
 72
     2
 11
19.788878825878921
 21
57.985289466242648
 31
0.0
  0
TEXT
  5
E67D
  8
TEXT
 10
15.22636456806643
 20
55.486614991242611
 30
0.0
 40
0.5000015625000001
  1
0.050 ALUMINUM
 41
0.75
 72
     2
 11
19.788878825878921
 21
55.486614991242611
 31
0.0
  0
TEXT
  5
E67E
  8
TEXT
 10
10.10134855244142
 20
54.653279053742622
 30
0.0
 40
0.5000015625000001
  1
6063-T42 ALUMINUM EXTRUSION
 41
0.75
 72
     2
 11
19.788878825878921
 21
54.653279053742622
 31
0.0
  0
TEXT
  5
E67F
  8
TEXT
 10
10.85135089619142
 20
53.819943116242641
 30
0.0
 40
0.5000015625000001
  1
0.125 DIAMETER SPRING WIRE
 41
0.75
 72
     2
 11
19.788878825878921
 21
53.819943116242641
 31
0.0
  0
TEXT
  5
E680
  8
TEXT
 10
18.038873357128921
 20
52.986607178742616
 30
0.0
 40
0.5000015625000001
  1
NYLON
 41
0.75
 72
     2
 11
19.788878825878921
 21
52.986607178742616
 31
0.0
  0
TEXT
  5
E681
  8
TEXT
 10
12.663856560253921
 20
52.153271241242621
 30
0.0
 40
0.5000015625000001
  1
VINYL WRAPPED STEEL
 41
0.75
 72
     2
 11
19.788878825878921
 21
52.153271241242621
 31
0.0
  0
TEXT
  5
E682
  8
TEXT
 10
33.066599466653336
 20
57.973289428742618
 30
0.0
 40
0.5000015625000001
  1
ROYAL BLUE TEXTURE
 41
0.75
 72
     2
 11
39.691620169778339
 21
57.973289428742618
 31
0.0
  0
TEXT
  5
E683
  8
TEXT
 10
34.941605326028331
 20
57.139953491242643
 30
0.0
 40
0.5000015625000001
  1
BLACK TEXTURE
 41
0.75
 72
     2
 11
39.691620169778339
 21
57.139953491242643
 31
0.0
  0
TEXT
  5
E684
  8
TEXT
 10
34.941605326028331
 20
56.306617553742612
 30
0.0
 40
0.5000015625000001
  1
WHITE TEXTURE
 41
0.75
 72
     2
 11
39.691620169778339
 21
56.306617553742612
 31
0.0
  0
TEXT
  5
E685
  8
TEXT
 10
37.941614701028342
 20
55.473281616242602
 30
0.0
 40
0.5000015625000001
  1
WHITE
 41
0.75
 72
     2
 11
39.691620169778339
 21
55.473281616242602
 31
0.0
  0
TEXT
  5
E686
  8
TEXT
 10
35.066605716653342
 20
54.639945678742599
 30
0.0
 40
0.5000015625000001
  1
NICKEL PLATED
 41
0.75
 72
     2
 11
39.691620169778339
 21
54.639945678742599
 31
0.0
  0
TEXT
  5
E687
  8
TEXT
 10
34.941605326028331
 20
53.806609741242603
 30
0.0
 40
0.5000015625000001
  1
CHROME PLATED
 41
0.75
 72
     2
 11
39.691620169778339
 21
53.806609741242603
 31
0.0
  0
LINE
  5
E688
  8
TEXT
 10
5.1461509655512572
 20
57.133850544846787
 30
0.0
 11
14.976078305007711
 21
57.133850544846787
 31
0.0
  0
LINE
  5
E689
  8
TEXT
 10
6.1662494601024687
 20
57.96585314484679
 30
0.0
 11
15.528029615090681
 21
57.96585314484679
 31
0.0
  0
LINE
  5
E68A
  8
TEXT
 10
7.7065114929517762
 20
55.469845344846782
 30
0.0
 11
14.976078305007711
 21
55.469845344846782
 31
0.0
  0
LINE
  5
E68B
  8
TEXT
 10
2.8487620047347511
 20
54.637842744846793
 30
0.0
 11
9.8582470476416582
 21
54.637842744846793
 31
0.0
  0
LINE
  5
E68C
  8
TEXT
 10
2.3835046177014818
 20
53.80584014484679
 30
0.0
 11
10.61537397560884
 21
53.80584014484679
 31
0.0
  0
LINE
  5
E68D
  8
TEXT
 10
2.3835046177014818
 20
52.973837544846802
 30
0.0
 11
17.678038906722691
 21
52.973837544846802
 31
0.0
  0
LINE
  5
E68E
  8
TEXT
 10
3.4296112891675872
 20
52.141834944846792
 30
0.0
 11
12.49599671491154
 21
52.141834944846792
 31
0.0
  0
LINE
  5
E68F
  8
TEXT
 10
27.05441172933326
 20
57.965853144846832
 30
0.0
 11
32.738698135941988
 21
57.965853144846832
 31
0.0
  0
LINE
  5
E690
  8
TEXT
 10
27.05441172933326
 20
57.133850544846808
 30
0.0
 11
34.62862565842498
 21
57.133850544846808
 31
0.0
  0
LINE
  5
E691
  8
TEXT
 10
26.06610100656691
 20
56.301847944846791
 30
0.0
 11
34.69690613911385
 21
56.301847944846791
 31
0.0
  0
LINE
  5
E692
  8
TEXT
 10
26.50246041925028
 20
55.469845344846817
 30
0.0
 11
37.612568022406997
 21
55.469845344846817
 31
0.0
  0
LINE
  5
E693
  8
TEXT
 10
24.99109636075087
 20
54.637842744846793
 30
0.0
 11
34.647635854107961
 21
54.637842744846793
 31
0.0
  0
LINE
  5
E694
  8
TEXT
 10
22.404727656435441
 20
53.80584014484679
 30
0.0
 11
34.532043956708407
 21
53.80584014484679
 31
0.0
  0
LINE
  5
F42F
  8
COVER
 10
18.415016981291181
 20
42.214137725781711
 30
0.0
 11
22.28528451080382
 21
44.448637725781708
 31
0.0
  0
LINE
  5
F430
  8
COVER
 10
22.339844111242261
 20
44.354137725781698
 30
0.0
 11
22.230724910365421
 21
44.417137725781707
 31
0.0
  0
LINE
  5
F432
  8
COVER
 10
17.472781341973711
 20
41.694137725781687
 30
0.0
 11
16.973950709393868
 21
41.982137725781712
 31
0.0
  0
LINE
  5
F435
  8
COVER
 10
17.732588963109031
 20
41.694137725781687
 30
0.0
 11
18.415016981291181
 21
42.088137725781699
 31
0.0
  0
LINE
  5
F436
  8
COVER
 10
22.339844111242261
 20
44.354137725781698
 30
0.0
 11
23.022272129424401
 21
44.74813772578171
 31
0.0
  0
POLYLINE
  5
F619
  8
COVER
 66
     1
 10
0.0
 20
0.0
 30
0.0
  0
VERTEX
  5
13483
  8
COVER
 10
17.472781341973711
 20
41.694137725781687
 30
0.0
 42
0.0723410840577053
  0
VERTEX
  5
13484
  8
COVER
 10
17.52891981072819
 20
41.671769434438502
 30
0.0
 42
0.0587518675354083
  0
VERTEX
  5
13485
  8
COVER
 10
17.602685152541369
 20
41.663071708603717
 30
0.0
 42
0.0587518675353438
  0
VERTEX
  5
13486
  8
COVER
 10
17.67645049435459
 20
41.671769434438481
 30
0.0
 42
0.0723410840575883
  0
VERTEX
  5
13487
  8
COVER
 10
17.732588963109041
 20
41.694137725781687
 30
0.0
 42
0.1066170543909916
  0
SEQEND
  5
13488
  8
COVER
  0
LINE
  5
F65E
  8
COVER
 10
18.415016981291181
 20
42.276137725781702
 30
0.0
 11
17.656378727576019
 21
42.714137725781711
 31
0.0
  0
LINE
  5
F65F
  8
COVER
 10
18.415016981291181
 20
42.276137725781702
 30
0.0
 11
22.28528451080383
 21
44.510637725781699
 31
0.0
  0
LINE
  5
F660
  8
COVER
 10
17.765497928452859
 20
42.651137725781702
 30
0.0
 11
21.635765457965508
 21
44.885637725781699
 31
0.0
  0
LINE
  5
F661
  8
COVER
 10
22.339844111242261
 20
44.5421377257817
 30
0.0
 11
21.581205857527081
 21
44.980137725781709
 31
0.0
  0
LINE
  5
F662
  8
COVER
 10
21.581205857527081
 20
44.980137725781709
 30
0.0
 11
22.263633875709228
 21
45.374137725781722
 31
0.0
  0
LINE
  5
F663
  8
COVER
 10
23.022272129424401
 20
45.086137725781711
 30
0.0
 11
22.523441496844569
 21
45.374137725781708
 31
0.0
  0
LINE
  5
F664
  8
COVER
 10
17.472781341973711
 20
41.88213772578171
 30
0.0
 11
16.973950709393868
 21
42.170137725781707
 31
0.0
  0
LINE
  5
F665
  8
COVER
 10
17.732588963109041
 20
41.88213772578171
 30
0.0
 11
18.415016981291181
 21
42.276137725781702
 31
0.0
  0
POLYLINE
  5
F666
  8
COVER
 66
     1
 10
0.0
 20
0.0
 30
0.0
  0
VERTEX
  5
13489
  8
COVER
 10
17.472781341973711
 20
41.88213772578171
 30
0.0
 42
0.0723410840577053
  0
VERTEX
  5
1348A
  8
COVER
 10
17.52891981072819
 20
41.859769434438498
 30
0.0
 42
0.0587518675354083
  0
VERTEX
  5
1348B
  8
COVER
 10
17.60268515254139
 20
41.851071708603719
 30
0.0
 42
0.0587518675353438
  0
VERTEX
  5
1348C
  8
COVER
 10
17.676450494354601
 20
41.859769434438498
 30
0.0
 42
0.0723410840575883
  0
VERTEX
  5
1348D
  8
COVER
 10
17.732588963109041
 20
41.88213772578171
 30
0.0
 42
0.1066170543909916
  0
SEQEND
  5
1348E
  8
COVER
  0
POLYLINE
  5
F66D
  8
COVER
 66
     1
 10
0.0
 20
0.0
 30
0.0
  0
VERTEX
  5
1348F
  8
COVER
 10
16.973950709393868
 20
42.320137725781713
 30
0.0
 42
0.106617054391039
  0
VERTEX
  5
13490
  8
COVER
 10
16.932059807965299
 20
42.282191414642121
 30
0.0
 42
0.1568512196708077
  0
VERTEX
  5
13491
  8
COVER
 10
16.9201427892528
 20
42.24513772578171
 30
0.0
 42
0.1568512196707346
  0
VERTEX
  5
13492
  8
COVER
 10
16.932059807965299
 20
42.208084036921292
 30
0.0
 42
0.1066170543909625
  0
VERTEX
  5
13493
  8
COVER
 10
16.973950709393868
 20
42.170137725781707
 30
0.0
 42
0.0723410840577268
  0
SEQEND
  5
13494
  8
COVER
  0
LINE
  5
F674
  8
COVER
 10
16.973950709393868
 20
42.320137725781713
 30
0.0
 11
17.656378727576019
 21
42.714137725781711
 31
0.0
  0
LINE
  5
F675
  8
COVER
 10
18.415016981291181
 20
42.276137725781702
 30
0.0
 11
18.415016981291181
 21
42.088137725781699
 31
0.0
  0
LINE
  5
F676
  8
COVER
 10
16.9201427892528
 20
42.24513772578171
 30
0.0
 11
16.9201427892528
 21
42.057137725781701
 31
0.0
  0
POLYLINE
  5
F677
  8
COVER
 66
     1
 10
0.0
 20
0.0
 30
0.0
  0
VERTEX
  5
13495
  8
COVER
 10
16.9201427892528
 20
42.057137725781701
 30
0.0
 42
0.1568512196707346
  0
VERTEX
  5
13496
  8
COVER
 10
16.932059807965299
 20
42.020084036921283
 30
0.0
 42
0.1066170543909625
  0
VERTEX
  5
13497
  8
COVER
 10
16.973950709393868
 20
41.982137725781712
 30
0.0
 42
0.0723410840577268
  0
SEQEND
  5
13498
  8
COVER
  0
POLYLINE
  5
F67C
  8
COVER
 66
     1
 10
0.0
 20
0.0
 30
0.0
  0
VERTEX
  5
13499
  8
COVER
 10
16.9201427892528
 20
42.12946622205547
 30
0.0
 42
0.0694603609537168
  0
VERTEX
  5
1349A
  8
COVER
 10
16.88810546822436
 20
42.095828349153422
 30
0.0
 42
0.1568512196707738
  0
VERTEX
  5
1349B
  8
COVER
 10
16.87316947143804
 20
42.049387725781699
 30
0.0
 42
0.1568512196707484
  0
VERTEX
  5
1349C
  8
COVER
 10
16.88810546822436
 20
42.002947102409991
 30
0.0
 42
0.106617054391061
  0
VERTEX
  5
1349D
  8
COVER
 10
16.940608731348181
 20
41.955387725781698
 30
0.0
 42
0.072341084057621
  0
SEQEND
  5
1349E
  8
COVER
  0
POLYLINE
  5
F683
  8
COVER
 66
     1
 10
0.0
 20
0.0
 30
0.0
  0
VERTEX
  5
1349F
  8
COVER
 10
22.523441496844569
 20
45.374137725781722
 30
0.0
 42
0.072341084057617
  0
VERTEX
  5
134A0
  8
COVER
 10
22.4673030280901
 20
45.396506017124942
 30
0.0
 42
0.0587518675353606
  0
VERTEX
  5
134A1
  8
COVER
 10
22.39353768627689
 20
45.405203742959699
 30
0.0
 42
0.0587518675354055
  0
SEQEND
  5
134A2
  8
COVER
  0
POLYLINE
  5
F688
  8
COVER
 66
     1
 10
0.0
 20
0.0
 30
0.0
  0
VERTEX
  5
134A3
  8
COVER
 10
23.022272129424401
 20
44.936137725781713
 30
0.0
 42
0.1066170543910387
  0
VERTEX
  5
134A4
  8
COVER
 10
23.064163030852971
 20
44.97408403692129
 30
0.0
 42
0.1568512196708077
  0
VERTEX
  5
134A5
  8
COVER
 10
23.07608004956548
 20
45.011137725781708
 30
0.0
 42
0.1568512196707919
  0
VERTEX
  5
134A6
  8
COVER
 10
23.064163030852971
 20
45.048191414642112
 30
0.0
 42
0.1066170543910645
  0
VERTEX
  5
134A7
  8
COVER
 10
23.022272129424401
 20
45.086137725781711
 30
0.0
 42
0.07234108405765
  0
SEQEND
  5
134A8
  8
COVER
  0
LINE
  5
F68F
  8
COVER
 10
22.339844111242261
 20
44.5421377257817
 30
0.0
 11
23.022272129424401
 21
44.936137725781713
 31
0.0
  0
LINE
  5
F690
  8
COVER
 10
22.339844111242261
 20
44.5421377257817
 30
0.0
 11
22.339844111242261
 21
44.354137725781698
 31
0.0
  0
LINE
  5
F691
  8
COVER
 10
23.07608004956548
 20
45.011137725781708
 30
0.0
 11
23.07608004956548
 21
44.823137725781699
 31
0.0
  0
POLYLINE
  5
F692
  8
COVER
 66
     1
 10
0.0
 20
0.0
 30
0.0
  0
VERTEX
  5
134A9
  8
COVER
 10
22.39353768627689
 20
45.405203742959699
 30
0.0
 42
0.0587518675354055
  0
VERTEX
  5
134AA
  8
COVER
 10
22.319772344463711
 20
45.396506017124928
 30
0.0
 42
0.0723410840576606
  0
VERTEX
  5
134AB
  8
COVER
 10
22.263633875709228
 20
45.374137725781722
 30
0.0
 42
0.1066170543909662
  0
SEQEND
  5
134AC
  8
COVER
  0
LINE
  5
F697
  8
COVER
 10
21.581205857527081
 20
44.980137725781709
 30
0.0
 11
21.581205857527081
 21
44.854137725781698
 31
0.0
  0
LINE
  5
F698
  8
COVER
 10
22.28528451080382
 20
44.510637725781699
 30
0.0
 11
22.28528451080382
 21
44.448637725781708
 31
0.0
  0
POLYLINE
  5
F699
  8
COVER
 66
     1
 10
0.0
 20
0.0
 30
0.0
  0
VERTEX
  5
134AD
  8
COVER
 10
23.022272129424401
 20
44.74813772578171
 30
0.0
 42
0.1066170543910387
  0
VERTEX
  5
134AE
  8
COVER
 10
23.064163030852971
 20
44.786084036921302
 30
0.0
 42
0.1568512196708109
  0
VERTEX
  5
134AF
  8
COVER
 10
23.07608004956548
 20
44.823137725781699
 30
0.0
 42
0.1568512196707919
  0
SEQEND
  5
134B0
  8
COVER
  0
POLYLINE
  5
F69E
  8
COVER
 66
     1
 10
0.0
 20
0.0
 30
0.0
  0
VERTEX
  5
134B1
  8
COVER
 10
23.055614107470099
 20
44.736887725781699
 30
0.0
 42
0.1066170543909986
  0
VERTEX
  5
134B2
  8
COVER
 10
23.108117370593909
 20
44.78444710240997
 30
0.0
 42
0.1568512196707864
  0
VERTEX
  5
134B3
  8
COVER
 10
23.123053367380251
 20
44.8308877257817
 30
0.0
 42
0.1568512196708118
  0
VERTEX
  5
134B4
  8
COVER
 10
23.108117370593899
 20
44.87732834915343
 30
0.0
 42
0.0694603609536688
  0
VERTEX
  5
134B5
  8
COVER
 10
23.07608004956548
 20
44.910966222055471
 30
0.0
 42
0.0723410840576646
  0
SEQEND
  5
134B6
  8
COVER
  0
LINE
  5
F804
  8
COVER
 10
22.28528451080382
 20
44.510637725781699
 30
0.0
 11
21.635765457965508
 21
44.885637725781699
 31
0.0
  0
LINE
  5
F80C
  8
SHELF
 10
18.48256696278635
 20
33.625137725781713
 30
0.0
 11
27.142821000630729
 21
38.625137725781713
 31
0.0
  0
LINE
  5
F80D
  8
SHELF
 10
18.48256696278635
 20
35.672137725781702
 30
0.0
 11
27.142821000630729
 21
40.672137725781702
 31
0.0
  0
LINE
  5
F80E
  8
SHELF
 10
27.142821000630729
 20
40.672137725781702
 30
0.0
 11
27.142821000630729
 21
38.625137725781713
 31
0.0
  0
LINE
  5
F80F
  8
SHELF
 10
18.48256696278635
 20
35.722137725781693
 30
0.0
 11
27.099519730441521
 21
40.697137725781708
 31
0.0
  0
LINE
  5
F812
  8
SHELF
 10
27.099519730441521
 20
40.697137725781708
 30
0.0
 11
27.142821000630729
 21
40.672137725781702
 31
0.0
  0
LINE
  5
FD74
  8
SHELF
 10
13.872404702738971
 20
36.130816147627911
 30
0.0
 11
17.444759493349778
 21
34.068316147627918
 31
0.0
  0
LINE
  5
FD78
  8
SHELF
 10
13.689763312279879
 20
36.389011247988783
 30
0.0
 11
13.70387279196348
 21
36.397157359882229
 31
0.0
  0
POLYLINE
  5
FD82
  8
SHELF
 66
     1
 10
0.0
 20
0.0
 30
0.0
  0
VERTEX
  5
134B7
  8
SHELF
 10
13.449227315991189
 20
36.219137725781707
 30
0.0
  0
VERTEX
  5
134B8
  8
SHELF
 10
17.50828838352885
 20
33.875637725781701
 30
0.0
  0
SEQEND
  5
134B9
  8
SHELF
  0
POLYLINE
  5
FD86
  8
SHELF
 66
     1
 10
0.0
 20
0.0
 30
0.0
  0
VERTEX
  5
134BA
  8
SHELF
 10
13.44922731599118
 20
41.8441377257817
 30
0.0
  0
VERTEX
  5
134BB
  8
SHELF
 10
13.449227315991189
 20
36.219137725781707
 30
0.0
  0
SEQEND
  5
134BC
  8
SHELF
  0
POLYLINE
  5
FD8A
  8
SHELF
 66
     1
 10
0.0
 20
0.0
 30
0.0
  0
VERTEX
  5
134BD
  8
SHELF
 10
13.394667715552769
 20
36.187637725781713
 30
0.0
  0
VERTEX
  5
134BE
  8
SHELF
 10
17.50828838352885
 20
33.812637725781698
 30
0.0
  0
SEQEND
  5
134BF
  8
SHELF
  0
POLYLINE
  5
FD8E
  8
SHELF
 66
     1
 10
0.0
 20
0.0
 30
0.0
  0
VERTEX
  5
134C0
  8
SHELF
 10
13.394667715552769
 20
41.875637725781722
 30
0.0
  0
VERTEX
  5
134C1
  8
SHELF
 10
13.394667715552769
 20
36.187637725781713
 30
0.0
  0
SEQEND
  5
134C2
  8
SHELF
  0
POLYLINE
  5
1019E
  8
SHELF
 66
     1
 10
0.0
 20
0.0
 30
0.0
  0
VERTEX
  5
134C3
  8
SHELF
 10
13.28641454007971
 20
36.125137725781713
 30
0.0
  0
VERTEX
  5
134C4
  8
SHELF
 10
17.50828838352885
 20
33.687637725781713
 30
0.0
  0
SEQEND
  5
134C5
  8
SHELF
  0
POLYLINE
  5
101A2
  8
SHELF
 66
     1
 10
0.0
 20
0.0
 30
0.0
  0
VERTEX
  5
134C6
  8
SHELF
 10
13.28641454007971
 20
41.938137725781708
 30
0.0
  0
VERTEX
  5
134C7
  8
SHELF
 10
13.28641454007971
 20
36.125137725781713
 30
0.0
  0
SEQEND
  5
134C8
  8
SHELF
  0
LINE
  5
101A6
  8
SHELF
 10
13.28641454007971
 20
36.125137725781698
 30
0.0
 11
12.853401838187491
 21
35.875137725781713
 31
0.0
  0
LINE
  5
101A7
  8
SHELF
 10
13.449227315991189
 20
36.219137725781707
 30
0.0
 11
13.394667715552769
 21
36.187637725781713
 31
0.0
  0
LINE
  5
101AF
  8
SHELF
 10
16.099265051571571
 20
37.949137725781711
 30
0.0
 11
16.26900603071331
 21
38.047137725781702
 31
0.0
  0
LINE
  5
101B0
  8
SHELF
 10
14.325645024621039
 20
36.807137725781708
 30
0.0
 11
14.369812320214031
 21
36.781637725781707
 31
0.0
  0
LINE
  5
10236
  8
SHELF
 10
14.39406103152
 20
38.511637725781711
 30
0.0
 11
13.557480491464229
 21
38.028637725781721
 31
0.0
  0
LINE
  5
1023A
  8
SHELF
 10
14.35335783754214
 20
38.488137725781712
 30
0.0
 11
14.35335783754214
 21
38.222137725781707
 31
0.0
  0
LINE
  5
1023B
  8
SHELF
 10
14.39406103152
 20
38.511637725781711
 30
0.0
 11
14.39406103152
 21
38.198637725781708
 31
0.0
  0
LINE
  5
10240
  8
SHELF
 10
14.325645024621039
 20
38.176137725781707
 30
0.0
 11
14.340367456485369
 21
38.167637725781717
 31
0.0
  0
LINE
  5
10241
  8
SHELF
 10
14.325645024621039
 20
38.223137725781712
 30
0.0
 11
14.34036745648538
 21
38.214637725781706
 31
0.0
  0
LINE
  5
10242
  8
SHELF
 10
14.35335783754214
 20
38.326818966648837
 30
0.0
 11
14.325645024621039
 21
38.310818966648817
 31
0.0
  0
POLYLINE
  5
10253
  8
SHELF
 66
     1
 10
0.0
 20
0.0
 30
0.0
  0
VERTEX
  5
134C9
  8
SHELF
 10
14.34036745648538
 20
38.167637725781717
 30
0.0
 42
0.1066170543909235
  0
VERTEX
  5
134CA
  8
SHELF
 10
14.36260806347701
 20
38.160484815023082
 30
0.0
 42
0.15685121967077
  0
VERTEX
  5
134CB
  8
SHELF
 10
14.378334547498509
 20
38.163876795131358
 30
0.0
 42
0.156851219670838
  0
VERTEX
  5
134CC
  8
SHELF
 10
14.38913533045217
 20
38.175800339752037
 30
0.0
 42
0.1066170543910108
  0
VERTEX
  5
134CD
  8
SHELF
 10
14.39406103152
 20
38.198637725781708
 30
0.0
 42
0.0723410840576881
  0
SEQEND
  5
134CE
  8
SHELF
  0
POLYLINE
  5
1025A
  8
SHELF
 66
     1
 10
0.0
 20
0.0
 30
0.0
  0
VERTEX
  5
134CF
  8
SHELF
 10
14.34036745648538
 20
38.214637725781706
 30
0.0
 42
0.1066170543913531
  0
VERTEX
  5
134D0
  8
SHELF
 10
14.34574824849947
 20
38.212907182856242
 30
0.0
 42
0.1568512196714147
  0
VERTEX
  5
134D1
  8
SHELF
 10
14.34955304302081
 20
38.213727823204998
 30
0.0
 42
0.1568512196710711
  0
VERTEX
  5
134D2
  8
SHELF
 10
14.352166135670901
 20
38.216612551742287
 30
0.0
 42
0.1066170543910644
  0
VERTEX
  5
134D3
  8
SHELF
 10
14.35335783754214
 20
38.222137725781707
 30
0.0
 42
0.0723410840578613
  0
SEQEND
  5
134D4
  8
SHELF
  0
LINE
  5
10261
  8
SHELF
 10
16.218638530540431
 20
39.226376795131351
 30
0.0
 11
14.378334547498509
 21
38.163876795131358
 31
0.0
  0
LINE
  5
10262
  8
SHELF
 10
16.099265051571571
 20
39.15745648491459
 30
0.0
 11
16.099265051571571
 21
37.902137725781721
 31
0.0
  0
LINE
  5
10263
  8
SHELF
 10
16.234365014561931
 20
39.574137725781711
 30
0.0
 11
16.234365014561931
 21
39.261137725781708
 31
0.0
  0
POLYLINE
  5
10264
  8
SHELF
 66
     1
 10
0.0
 20
0.0
 30
0.0
  0
VERTEX
  5
134D5
  8
SHELF
 10
16.218638530540431
 20
39.226376795131358
 30
0.0
 42
0.156851219670838
  0
VERTEX
  5
134D6
  8
SHELF
 10
16.229439313494101
 20
39.238300339752037
 30
0.0
 42
0.1066170543910108
  0
VERTEX
  5
134D7
  8
SHELF
 10
16.234365014561931
 20
39.261137725781708
 30
0.0
 42
0.0723410840576881
  0
SEQEND
  5
134D8
  8
SHELF
  0
LINE
  5
10269
  8
SHELF
 10
16.099265051571571
 20
37.902137725781721
 30
0.0
 11
14.325645024621039
 21
36.87813772578172
 31
0.0
  0
LINE
  5
1026A
  8
SHELF
 10
14.39406103152
 20
40.636637725781718
 30
0.0
 11
13.557480491464229
 21
40.153637725781707
 31
0.0
  0
LINE
  5
1026B
  8
SHELF
 10
14.35335783754214
 20
40.660137725781709
 30
0.0
 11
13.557480491464229
 21
40.200637725781711
 31
0.0
  0
LINE
  5
1026D
  8
SHELF
 10
16.234365014561931
 20
39.574137725781711
 30
0.0
 11
14.35335783754214
 21
40.660137725781709
 31
0.0
  0
LINE
  5
1026E
  8
SHELF
 10
14.325645024621039
 20
38.472137725781707
 30
0.0
 11
14.325645024621039
 21
36.75613772578172
 31
0.0
  0
LINE
  5
104A5
  8
COVER
 10
14.35335783754214
 20
38.412637725781678
 30
0.0
 11
14.325645024621039
 21
38.39663772578168
 31
0.0
  0
LINE
  5
104A8
  8
SHELF
 10
14.325645024621039
 20
41.338137725781714
 30
0.0
 11
14.325645024621039
 21
40.644137725781711
 31
0.0
  0
LINE
  5
104A9
  8
SHELF
 10
17.616541559001909
 20
33.125137725781713
 30
0.0
 11
18.48256696278635
 21
33.625137725781713
 31
0.0
  0
POLYLINE
  5
1089F
  8
FP
 66
     1
 10
0.0
 20
0.0
 30
0.0
 70
     1
  0
VERTEX
  5
134D9
  8
FP
 10
7.0584549057579302
 20
32.529923554403886
 30
0.0
  0
VERTEX
  5
134DA
  8
FP
 10
7.0584549057579302
 20
38.654923554403908
 30
0.0
  0
VERTEX
  5
134DB
  8
FP
 10
11.55139470059159
 20
36.0609235544039
 30
0.0
  0
VERTEX
  5
134DC
  8
FP
 10
11.55139470059159
 20
29.93592355440391
 30
0.0
  0
SEQEND
  5
134DD
  8
FP
  0
LINE
  5
108E0
  8
OBJECT
 10
17.462203978424551
 20
39.527244569474128
 30
0.0
 11
17.50828838352885
 21
39.447424038396882
 31
0.0
  0
LINE
  5
108F5
  8
SHELF
 10
13.44922731599118
 20
41.770280882089288
 30
0.0
 11
13.736438714344811
 21
41.604459303935492
 31
0.0
  0
LINE
  5
108F9
  8
SHELF
 10
13.80040061722579
 20
41.641387725781712
 30
0.0
 11
13.736438714344811
 21
41.604459303935492
 31
0.0
  0
LINE
  5
1091A
  8
SHELF
 10
13.44922731599118
 20
36.708280882089312
 30
0.0
 11
13.790998314783231
 21
36.5109593039355
 31
0.0
  0
LINE
  5
1091C
  8
SHELF
 10
13.44922731599118
 20
36.645280882089288
 30
0.0
 11
13.736438714344811
 21
36.479459303935499
 31
0.0
  0
LINE
  5
10921
  8
SHELF
 10
13.872404702738971
 20
36.369959303935509
 30
0.0
 11
13.81784510230055
 21
36.338459303935508
 31
0.0
  0
LINE
  5
10922
  8
SHELF
 10
13.790998314783231
 20
36.5109593039355
 30
0.0
 11
13.872404702738971
 21
36.369959303935509
 31
0.0
  0
POLYLINE
  5
10923
  8
SHELF
 66
     1
 10
0.0
 20
0.0
 30
0.0
  0
VERTEX
  5
134DE
  8
SHELF
 10
13.685400422031201
 20
36.412860219354251
 30
0.0
 42
0.0630701813048348
  0
VERTEX
  5
134DF
  8
SHELF
 10
13.68882230585543
 20
36.392038709638499
 30
0.0
 42
0.058751867535338
  0
VERTEX
  5
134E0
  8
SHELF
 10
13.700562393606839
 20
36.364746100499922
 30
0.0
 42
0.058751867535456
  0
SEQEND
  5
134E1
  8
SHELF
  0
POLYLINE
  5
10928
  8
SHELF
 66
     1
 10
0.0
 20
0.0
 30
0.0
  0
VERTEX
  5
134E2
  8
SHELF
 10
13.700562393606839
 20
36.364746100499922
 30
0.0
 42
0.058751867535456
  0
VERTEX
  5
134E3
  8
SHELF
 10
13.718328442580701
 20
36.340932581695249
 30
0.0
 42
0.0630701813050313
  0
VERTEX
  5
134E4
  8
SHELF
 10
13.734649457027579
 20
36.327558388516771
 30
0.0
 42
0.1066170543911843
  0
SEQEND
  5
134E5
  8
SHELF
  0
LINE
  5
1092D
  8
SHELF
 10
13.736438714344811
 20
36.479459303935499
 30
0.0
 11
13.790998314783231
 21
36.5109593039355
 31
0.0
  0
LINE
  5
1092E
  8
SHELF
 10
13.81784510230055
 20
36.338459303935508
 30
0.0
 11
13.81784510230055
 21
36.006316147627921
 31
0.0
  0
LINE
  5
1092F
  8
SHELF
 10
13.736438714344811
 20
36.479459303935499
 30
0.0
 11
13.81784510230055
 21
36.338459303935508
 31
0.0
  0
LINE
  5
10930
  8
SHELF
 10
13.872404702738971
 20
36.369959303935509
 30
0.0
 11
13.872404702738971
 21
35.974816147627898
 31
0.0
  0
POLYLINE
  5
10931
  8
SHELF
 66
     1
 10
0.0
 20
0.0
 30
0.0
 70
     1
  0
VERTEX
  5
134E6
  8
SHELF
 10
13.64600279316843
 20
36.33324610049992
 30
0.0
 42
0.058751867535456
  0
VERTEX
  5
134E7
  8
SHELF
 10
13.66376884214227
 20
36.309432581695248
 30
0.0
 42
0.072341084057853
  0
VERTEX
  5
134E8
  8
SHELF
 10
13.682745139310169
 20
36.294459303935511
 30
0.0
 42
0.1066170543911843
  0
VERTEX
  5
134E9
  8
SHELF
 10
13.704268307366601
 20
36.287537132233602
 30
0.0
 42
0.1568512196709511
  0
VERTEX
  5
134EA
  8
SHELF
 10
13.719487485451911
 20
36.290819693628713
 30
0.0
 42
0.1568512196707741
  0
VERTEX
  5
134EB
  8
SHELF
 10
13.729939856052241
 20
36.302358607777762
 30
0.0
 42
0.1066170543910126
  0
VERTEX
  5
134EC
  8
SHELF
 10
13.73470666353724
 20
36.324459303935498
 30
0.0
 42
0.0723410840576482
  0
VERTEX
  5
134ED
  8
SHELF
 10
13.731227573203331
 20
36.34837989823253
 30
0.0
 42
0.0587518675353181
  0
VERTEX
  5
134EE
  8
SHELF
 10
13.719487485451911
 20
36.375672507371092
 30
0.0
 42
0.0587518675353122
  0
VERTEX
  5
134EF
  8
SHELF
 10
13.701721436478079
 20
36.399486026175772
 30
0.0
 42
0.0723410840576684
  0
VERTEX
  5
134F0
  8
SHELF
 10
13.682745139310169
 20
36.414459303935509
 30
0.0
 42
0.1066170543910695
  0
VERTEX
  5
134F1
  8
SHELF
 10
13.66122197125374
 20
36.421381475637418
 30
0.0
 42
0.1568512196706856
  0
VERTEX
  5
134F2
  8
SHELF
 10
13.64600279316843
 20
36.418098914242293
 30
0.0
 42
0.1568512196706604
  0
VERTEX
  5
134F3
  8
SHELF
 10
13.635550422568119
 20
36.406560000093251
 30
0.0
 42
0.106617054391018
  0
VERTEX
  5
134F4
  8
SHELF
 10
13.630783615083111
 20
36.384459303935508
 30
0.0
 42
0.0723410840576329
  0
VERTEX
  5
134F5
  8
SHELF
 10
13.63426270541702
 20
36.36053870963849
 30
0.0
 42
0.058751867535338
  0
SEQEND
  5
134F6
  8
SHELF
  0
LINE
  5
10943
  8
SHELF
 10
17.50828838352885
 20
34.281137725781711
 30
0.0
 11
17.444759493349778
 21
34.2444593039355
 31
0.0
  0
LINE
  5
10958
  8
SHELF
 10
17.444759493349778
 20
34.2444593039355
 30
0.0
 11
17.444759493349778
 21
33.912316147627912
 31
0.0
  0
LINE
  5
10970
  8
SHELF
 10
13.818494621353381
 20
36.463334303935511
 30
0.0
 11
14.369812320214031
 21
36.781637725781707
 31
0.0
  0
POLYLINE
  5
10975
  8
SHELF
 66
     1
 10
0.0
 20
0.0
 30
0.0
  0
VERTEX
  5
134F7
  8
SHELF
 10
13.50292089102582
 20
41.73928088208929
 30
0.0
  0
VERTEX
  5
134F8
  8
SHELF
 10
13.50292089102582
 20
36.677280882089313
 30
0.0
  0
SEQEND
  5
134F9
  8
SHELF
  0
POLYLINE
  5
10979
  8
SHELF
 66
     1
 10
0.0
 20
0.0
 30
0.0
  0
VERTEX
  5
134FA
  8
SHELF
 10
13.872404702738971
 20
36.03681614762791
 30
0.0
  0
VERTEX
  5
134FB
  8
SHELF
 10
17.444759493349778
 20
33.974316147627889
 30
0.0
  0
SEQEND
  5
134FC
  8
SHELF
  0
POLYLINE
  5
10981
  8
FP
 66
     1
 10
0.0
 20
0.0
 30
0.0
 70
     1
  0
VERTEX
  5
134FD
  8
FP
 10
7.2988046357043697
 20
38.105689535688128
 30
0.0
 42
0.0587518675353364
  0
VERTEX
  5
134FE
  8
FP
 10
7.3266381124300821
 20
38.068381689560809
 30
0.0
 42
0.0723410840576202
  0
VERTEX
  5
134FF
  8
FP
 10
7.3563676446597759
 20
38.044923554403887
 30
0.0
 42
0.1066170543910262
  0
VERTEX
  5
13500
  8
FP
 10
7.390087274614852
 20
38.034078818737576
 30
0.0
 42
0.1568512196707118
  0
VERTEX
  5
13501
  8
FP
 10
7.4139306536151821
 20
38.039221498256602
 30
0.0
 42
0.1568512196708177
  0
VERTEX
  5
13502
  8
FP
 10
7.430306034222343
 20
38.057299130423431
 30
0.0
 42
0.1066170543910148
  0
VERTEX
  5
13503
  8
FP
 10
7.4377740326155131
 20
38.091923554403891
 30
0.0
 42
0.0723410840576366
  0
VERTEX
  5
13504
  8
FP
 10
7.432323457759062
 20
38.129399152135889
 30
0.0
 42
0.0587518675353355
  0
VERTEX
  5
13505
  8
FP
 10
7.4139306536151821
 20
38.172157573119648
 30
0.0
 42
0.0587518675353745
  0
VERTEX
  5
13506
  8
FP
 10
7.3860971768894723
 20
38.209465419246982
 30
0.0
 42
0.072341084057687
  0
VERTEX
  5
13507
  8
FP
 10
7.3563676446597759
 20
38.232923554403897
 30
0.0
 42
0.1066170543911072
  0
VERTEX
  5
13508
  8
FP
 10
7.3226480147047042
 20
38.243768290070221
 30
0.0
 42
0.1568512196708734
  0
VERTEX
  5
13509
  8
FP
 10
7.2988046357043697
 20
38.238625610551203
 30
0.0
 42
0.1568512196707314
  0
VERTEX
  5
1350A
  8
FP
 10
7.2824292550972132
 20
38.22054797838436
 30
0.0
 42
0.1066170543910056
  0
VERTEX
  5
1350B
  8
FP
 10
7.274961256704036
 20
38.1859235544039
 30
0.0
 42
0.0723410840576738
  0
VERTEX
  5
1350C
  8
FP
 10
7.2804118315604924
 20
38.148447956671909
 30
0.0
 42
0.0587518675353834
  0
SEQEND
  5
1350D
  8
FP
  0
POLYLINE
  5
10993
  8
FP
 66
     1
 10
0.0
 20
0.0
 30
0.0
 70
     1
  0
VERTEX
  5
1350E
  8
FP
 10
11.19591895273434
 20
35.855689535688143
 30
0.0
 42
0.0587518675353364
  0
VERTEX
  5
1350F
  8
FP
 10
11.223752429460051
 20
35.818381689560809
 30
0.0
 42
0.0723410840576202
  0
VERTEX
  5
13510
  8
FP
 10
11.253481961689751
 20
35.794923554403908
 30
0.0
 42
0.1066170543910262
  0
VERTEX
  5
13511
  8
FP
 10
11.28720159164482
 20
35.784078818737569
 30
0.0
 42
0.1568512196707118
  0
VERTEX
  5
13512
  8
FP
 10
11.311044970645151
 20
35.789221498256609
 30
0.0
 42
0.1568512196708177
  0
VERTEX
  5
13513
  8
FP
 10
11.327420351252311
 20
35.807299130423452
 30
0.0
 42
0.1066170543910148
  0
VERTEX
  5
13514
  8
FP
 10
11.33488834964548
 20
35.841923554403898
 30
0.0
 42
0.0723410840576366
  0
VERTEX
  5
13515
  8
FP
 10
11.329437774789019
 20
35.879399152135903
 30
0.0
 42
0.0587518675353355
  0
VERTEX
  5
13516
  8
FP
 10
11.311044970645151
 20
35.922157573119669
 30
0.0
 42
0.0587518675353745
  0
VERTEX
  5
13517
  8
FP
 10
11.28321149391944
 20
35.959465419246982
 30
0.0
 42
0.072341084057687
  0
VERTEX
  5
13518
  8
FP
 10
11.253481961689751
 20
35.982923554403897
 30
0.0
 42
0.1066170543911072
  0
VERTEX
  5
13519
  8
FP
 10
11.219762331734669
 20
35.993768290070221
 30
0.0
 42
0.1568512196708734
  0
VERTEX
  5
1351A
  8
FP
 10
11.19591895273434
 20
35.98862561055121
 30
0.0
 42
0.1568512196707314
  0
VERTEX
  5
1351B
  8
FP
 10
11.179543572127169
 20
35.970547978384367
 30
0.0
 42
0.1066170543910056
  0
VERTEX
  5
1351C
  8
FP
 10
11.172075573734009
 20
35.935923554403907
 30
0.0
 42
0.0723410840576738
  0
VERTEX
  5
1351D
  8
FP
 10
11.17752614859045
 20
35.898447956671909
 30
0.0
 42
0.0587518675353834
  0
SEQEND
  5
1351E
  8
FP
  0
POLYLINE
  5
109A5
  8
FP
 66
     1
 10
0.0
 20
0.0
 30
0.0
 70
     1
  0
VERTEX
  5
1351F
  8
FP
 10
7.2988046357043697
 20
32.668689535688131
 30
0.0
 42
0.0587518675353364
  0
VERTEX
  5
13520
  8
FP
 10
7.3266381124300821
 20
32.631381689560811
 30
0.0
 42
0.0723410840576202
  0
VERTEX
  5
13521
  8
FP
 10
7.3563676446597759
 20
32.607923554403889
 30
0.0
 42
0.1066170543910262
  0
VERTEX
  5
13522
  8
FP
 10
7.390087274614852
 20
32.597078818737572
 30
0.0
 42
0.1568512196707118
  0
VERTEX
  5
13523
  8
FP
 10
7.4139306536151821
 20
32.602221498256597
 30
0.0
 42
0.1568512196708177
  0
VERTEX
  5
13524
  8
FP
 10
7.430306034222343
 20
32.62029913042344
 30
0.0
 42
0.1066170543910148
  0
VERTEX
  5
13525
  8
FP
 10
7.4377740326155131
 20
32.654923554403886
 30
0.0
 42
0.0723410840576366
  0
VERTEX
  5
13526
  8
FP
 10
7.432323457759062
 20
32.692399152135899
 30
0.0
 42
0.0587518675353355
  0
VERTEX
  5
13527
  8
FP
 10
7.4139306536151821
 20
32.73515757311965
 30
0.0
 42
0.0587518675353745
  0
VERTEX
  5
13528
  8
FP
 10
7.3860971768894723
 20
32.772465419246963
 30
0.0
 42
0.072341084057687
  0
VERTEX
  5
13529
  8
FP
 10
7.3563676446597759
 20
32.795923554403899
 30
0.0
 42
0.1066170543911072
  0
VERTEX
  5
1352A
  8
FP
 10
7.3226480147047042
 20
32.806768290070202
 30
0.0
 42
0.1568512196708734
  0
VERTEX
  5
1352B
  8
FP
 10
7.2988046357043697
 20
32.801625610551191
 30
0.0
 42
0.1568512196707314
  0
VERTEX
  5
1352C
  8
FP
 10
7.2824292550972132
 20
32.783547978384362
 30
0.0
 42
0.1066170543910056
  0
VERTEX
  5
1352D
  8
FP
 10
7.274961256704036
 20
32.748923554403888
 30
0.0
 42
0.0723410840576738
  0
VERTEX
  5
1352E
  8
FP
 10
7.2804118315604924
 20
32.711447956671897
 30
0.0
 42
0.0587518675353834
  0
SEQEND
  5
1352F
  8
FP
  0
POLYLINE
  5
109B7
  8
FP
 66
     1
 10
0.0
 20
0.0
 30
0.0
 70
     1
  0
VERTEX
  5
13530
  8
FP
 10
11.19591895273434
 20
30.418689535688141
 30
0.0
 42
0.0587518675353364
  0
VERTEX
  5
13531
  8
FP
 10
11.223752429460051
 20
30.381381689560818
 30
0.0
 42
0.0723410840576202
  0
VERTEX
  5
13532
  8
FP
 10
11.253481961689751
 20
30.357923554403889
 30
0.0
 42
0.1066170543910262
  0
VERTEX
  5
13533
  8
FP
 10
11.28720159164482
 20
30.347078818737579
 30
0.0
 42
0.1568512196707118
  0
VERTEX
  5
13534
  8
FP
 10
11.311044970645151
 20
30.352221498256601
 30
0.0
 42
0.1568512196708177
  0
VERTEX
  5
13535
  8
FP
 10
11.327420351252311
 20
30.37029913042344
 30
0.0
 42
0.1066170543910148
  0
VERTEX
  5
13536
  8
FP
 10
11.33488834964548
 20
30.40492355440389
 30
0.0
 42
0.0723410840576366
  0
VERTEX
  5
13537
  8
FP
 10
11.329437774789019
 20
30.442399152135891
 30
0.0
 42
0.0587518675353355
  0
VERTEX
  5
13538
  8
FP
 10
11.311044970645151
 20
30.485157573119668
 30
0.0
 42
0.0587518675353745
  0
VERTEX
  5
13539
  8
FP
 10
11.28321149391944
 20
30.52246541924697
 30
0.0
 42
0.072341084057687
  0
VERTEX
  5
1353A
  8
FP
 10
11.253481961689751
 20
30.545923554403888
 30
0.0
 42
0.1066170543911072
  0
VERTEX
  5
1353B
  8
FP
 10
11.219762331734669
 20
30.55676829007022
 30
0.0
 42
0.1568512196708734
  0
VERTEX
  5
1353C
  8
FP
 10
11.19591895273434
 20
30.551625610551191
 30
0.0
 42
0.1568512196707314
  0
VERTEX
  5
1353D
  8
FP
 10
11.179543572127169
 20
30.53354797838437
 30
0.0
 42
0.1066170543910056
  0
VERTEX
  5
1353E
  8
FP
 10
11.172075573734009
 20
30.498923554403891
 30
0.0
 42
0.0723410840576738
  0
VERTEX
  5
1353F
  8
FP
 10
11.17752614859045
 20
30.461447956671911
 30
0.0
 42
0.0587518675353834
  0
SEQEND
  5
13540
  8
FP
  0
LINE
  5
10A17
  8
FP
 10
7.1363971920985261
 20
38.699923554403902
 30
0.0
 11
7.0584549057579302
 21
38.654923554403908
 31
0.0
  0
LINE
  5
10A18
  8
FP
 10
11.62933698693219
 20
29.980923554403908
 30
0.0
 11
11.55139470059159
 21
29.93592355440391
 31
0.0
  0
POLYLINE
  5
10A19
  8
FP
 66
     1
 10
0.0
 20
0.0
 30
0.0
  0
VERTEX
  5
13541
  8
FP
 10
7.1363971920985261
 20
38.699923554403902
 30
0.0
  0
VERTEX
  5
13542
  8
FP
 10
11.62933698693219
 20
36.105923554403887
 30
0.0
  0
VERTEX
  5
13543
  8
FP
 10
11.62933698693219
 20
29.980923554403908
 30
0.0
  0
SEQEND
  5
13544
  8
FP
  0
POLYLINE
  5
10A1E
  8
FP
 66
     1
 10
0.0
 20
0.0
 30
0.0
  0
VERTEX
  5
13545
  8
FP
 10
11.273861239074931
 20
35.900689535688137
 30
0.0
 42
0.0587518675353364
  0
VERTEX
  5
13546
  8
FP
 10
11.30169471580064
 20
35.863381689560818
 30
0.0
 42
0.0723410840576202
  0
VERTEX
  5
13547
  8
FP
 10
11.33142424803034
 20
35.839923554403903
 30
0.0
 42
0.0114548694701243
  0
VERTEX
  5
13548
  8
FP
 10
11.33480019708961
 20
35.83807623910949
 30
0.0
 42
0.1568512196707118
  0
SEQEND
  5
13549
  8
FP
  0
POLYLINE
  5
10A24
  8
FP
 66
     1
 10
0.0
 20
0.0
 30
0.0
  0
VERTEX
  5
1354A
  8
FP
 10
11.25010601263047
 20
35.98477086969833
 30
0.0
 42
0.0114548694701287
  0
VERTEX
  5
1354B
  8
FP
 10
11.2500178600746
 20
35.980923554403908
 30
0.0
 42
0.0723410840576738
  0
VERTEX
  5
1354C
  8
FP
 10
11.255468434931061
 20
35.943447956671918
 30
0.0
 42
0.0587518675353834
  0
VERTEX
  5
1354D
  8
FP
 10
11.273861239074931
 20
35.900689535688137
 30
0.0
 42
0.0587518675353364
  0
SEQEND
  5
1354E
  8
FP
  0
POLYLINE
  5
10A2A
  8
FP
 66
     1
 10
0.0
 20
0.0
 30
0.0
  0
VERTEX
  5
1354F
  8
FP
 10
11.273861239074931
 20
30.46368953568814
 30
0.0
 42
0.0587518675353364
  0
VERTEX
  5
13550
  8
FP
 10
11.30169471580064
 20
30.42638168956082
 30
0.0
 42
0.0723410840576202
  0
VERTEX
  5
13551
  8
FP
 10
11.33142424803034
 20
30.402923554403891
 30
0.0
 42
0.0114548694701243
  0
VERTEX
  5
13552
  8
FP
 10
11.33480019708961
 20
30.401076239109479
 30
0.0
 42
0.1568512196707118
  0
SEQEND
  5
13553
  8
FP
  0
POLYLINE
  5
10A30
  8
FP
 66
     1
 10
0.0
 20
0.0
 30
0.0
  0
VERTEX
  5
13554
  8
FP
 10
11.25010601263047
 20
30.547770869698311
 30
0.0
 42
0.0114548694701287
  0
VERTEX
  5
13555
  8
FP
 10
11.2500178600746
 20
30.5439235544039
 30
0.0
 42
0.0723410840576738
  0
VERTEX
  5
13556
  8
FP
 10
11.255468434931061
 20
30.506447956671899
 30
0.0
 42
0.0587518675353834
  0
VERTEX
  5
13557
  8
FP
 10
11.273861239074931
 20
30.46368953568814
 30
0.0
 42
0.0587518675353364
  0
SEQEND
  5
13558
  8
FP
  0
POLYLINE
  5
10A36
  8
FP
 66
     1
 10
0.0
 20
0.0
 30
0.0
  0
VERTEX
  5
13559
  8
FP
 10
7.3767469220449717
 20
32.713689535688118
 30
0.0
 42
0.0587518675353364
  0
VERTEX
  5
1355A
  8
FP
 10
7.4045803987706824
 20
32.676381689560799
 30
0.0
 42
0.0723410840576202
  0
VERTEX
  5
1355B
  8
FP
 10
7.4343099310003771
 20
32.652923554403898
 30
0.0
 42
0.0114548694701219
  0
VERTEX
  5
1355C
  8
FP
 10
7.4376858800596457
 20
32.651076239109479
 30
0.0
 42
0.1568512196707118
  0
SEQEND
  5
1355D
  8
FP
  0
POLYLINE
  5
10A3C
  8
FP
 66
     1
 10
0.0
 20
0.0
 30
0.0
  0
VERTEX
  5
1355E
  8
FP
 10
7.3529916956005072
 20
32.797770869698311
 30
0.0
 42
0.0114548694701286
  0
VERTEX
  5
1355F
  8
FP
 10
7.352903543044639
 20
32.793923554403889
 30
0.0
 42
0.0723410840576738
  0
VERTEX
  5
13560
  8
FP
 10
7.3583541179010918
 20
32.756447956671899
 30
0.0
 42
0.0587518675353834
  0
VERTEX
  5
13561
  8
FP
 10
7.3767469220449717
 20
32.713689535688118
 30
0.0
 42
0.0587518675353364
  0
SEQEND
  5
13562
  8
FP
  0
POLYLINE
  5
10A42
  8
FP
 66
     1
 10
0.0
 20
0.0
 30
0.0
  0
VERTEX
  5
13563
  8
FP
 10
7.3767469220449717
 20
38.15068953568813
 30
0.0
 42
0.0587518675353364
  0
VERTEX
  5
13564
  8
FP
 10
7.4045803987706824
 20
38.113381689560818
 30
0.0
 42
0.0723410840576202
  0
VERTEX
  5
13565
  8
FP
 10
7.4343099310003771
 20
38.089923554403889
 30
0.0
 42
0.0114548694701219
  0
VERTEX
  5
13566
  8
FP
 10
7.4376858800596457
 20
38.088076239109469
 30
0.0
 42
0.1568512196707118
  0
SEQEND
  5
13567
  8
FP
  0
POLYLINE
  5
10A48
  8
FP
 66
     1
 10
0.0
 20
0.0
 30
0.0
  0
VERTEX
  5
13568
  8
FP
 10
7.3529916956005072
 20
38.234770869698309
 30
0.0
 42
0.0114548694701286
  0
VERTEX
  5
13569
  8
FP
 10
7.352903543044639
 20
38.230923554403887
 30
0.0
 42
0.0723410840576738
  0
VERTEX
  5
1356A
  8
FP
 10
7.3583541179010918
 20
38.193447956671903
 30
0.0
 42
0.0587518675353834
  0
VERTEX
  5
1356B
  8
FP
 10
7.3767469220449717
 20
38.15068953568813
 30
0.0
 42
0.0587518675353364
  0
SEQEND
  5
1356C
  8
FP
  0
LINE
  5
10A4E
  8
CENTER
 10
13.682745139310169
 20
36.354459303935499
 30
0.0
 11
11.62933698693219
 21
35.168923554403911
 31
0.0
  0
LINE
  5
10A4F
  8
CENTER
 10
13.611607079200761
 20
41.750387725781707
 30
0.0
 11
7.7322226699022281
 21
38.355923554403887
 31
0.0
  0
LINE
  5
10A50
  8
CENTER
 10
17.50828838352885
 20
34.063137725781708
 30
0.0
 11
11.62933698693219
 21
30.668923554403889
 31
0.0
  0
LINE
  5
10A51
  8
CENTER
 10
17.50828838352885
 20
39.500137725781698
 30
0.0
 11
11.62933698693219
 21
36.105923554403887
 31
0.0
  0
POLYLINE
  5
112D2
  8
RP
 66
     1
 10
0.0
 20
0.0
 30
0.0
 70
     1
  0
VERTEX
  5
1356D
  8
RP
 10
28.868438537676301
 20
45.248923475313319
 30
0.0
  0
VERTEX
  5
1356E
  8
RP
 10
33.306818732071548
 20
42.686423475313319
 30
0.0
  0
VERTEX
  5
1356F
  8
RP
 10
33.306818732071548
 20
48.624423475313321
 30
0.0
  0
VERTEX
  5
13570
  8
RP
 10
28.868438537676301
 20
51.186923475313321
 30
0.0
  0
SEQEND
  5
13571
  8
RP
  0
POLYLINE
  5
112E6
  8
RP
 66
     1
 10
0.0
 20
0.0
 30
0.0
 70
     1
  0
VERTEX
  5
13572
  8
RP
 10
29.000535092149679
 20
50.294189456597557
 30
0.0
 42
0.058751867535334
  0
VERTEX
  5
13573
  8
RP
 10
29.028368568875369
 20
50.256881610470252
 30
0.0
 42
0.0723410840576734
  0
VERTEX
  5
13574
  8
RP
 10
29.058098101105081
 20
50.23342347531333
 30
0.0
 42
0.1066170543910573
  0
VERTEX
  5
13575
  8
RP
 10
29.091817731060178
 20
50.222578739646998
 30
0.0
 42
0.1568512196706862
  0
VERTEX
  5
13576
  8
RP
 10
29.115661110060501
 20
50.227721419166024
 30
0.0
 42
0.1568512196707709
  0
VERTEX
  5
13577
  8
RP
 10
29.132036490667652
 20
50.245799051332853
 30
0.0
 42
0.106617054391043
  0
VERTEX
  5
13578
  8
RP
 10
29.139504489060819
 20
50.28042347531332
 30
0.0
 42
0.0723410840576385
  0
VERTEX
  5
13579
  8
RP
 10
29.134053914204369
 20
50.317899073045311
 30
0.0
 42
0.0587518675353589
  0
VERTEX
  5
1357A
  8
RP
 10
29.115661110060501
 20
50.360657494029091
 30
0.0
 42
0.0587518675354114
  0
VERTEX
  5
1357B
  8
RP
 10
29.087827633334761
 20
50.397965340156432
 30
0.0
 42
0.0723410840576557
  0
VERTEX
  5
1357C
  8
RP
 10
29.058098101105081
 20
50.421423475313311
 30
0.0
 42
0.1066170543909796
  0
VERTEX
  5
1357D
  8
RP
 10
29.024378471150019
 20
50.43226821097965
 30
0.0
 42
0.1568512196707649
  0
VERTEX
  5
1357E
  8
RP
 10
29.000535092149679
 20
50.427125531460632
 30
0.0
 42
0.1568512196708158
  0
VERTEX
  5
1357F
  8
RP
 10
28.984159711542521
 20
50.409047899293782
 30
0.0
 42
0.1066170543910146
  0
VERTEX
  5
13580
  8
RP
 10
28.97669171314935
 20
50.374423475313321
 30
0.0
 42
0.0723410840575997
  0
VERTEX
  5
13581
  8
RP
 10
28.98214228800579
 20
50.336947877581359
 30
0.0
 42
0.0587518675354096
  0
SEQEND
  5
13582
  8
RP
  0
POLYLINE
  5
11310
  8
RP
 66
     1
 10
0.0
 20
0.0
 30
0.0
  0
VERTEX
  5
13583
  8
RP
 10
29.043836362338912
 20
50.319189456597549
 30
0.0
 42
0.058751867535334
  0
VERTEX
  5
13584
  8
RP
 10
29.071669839064601
 20
50.281881610470251
 30
0.0
 42
0.0723410840576734
  0
VERTEX
  5
13585
  8
RP
 10
29.10139937129432
 20
50.258423475313322
 30
0.0
 42
0.0999650394300577
  0
VERTEX
  5
13586
  8
RP
 10
29.132921424252778
 20
50.24782567803036
 30
0.0
 42
0.1568512196706862
  0
SEQEND
  5
13587
  8
RP
  0
POLYLINE
  5
11316
  8
RP
 66
     1
 10
0.0
 20
0.0
 30
0.0
  0
VERTEX
  5
13588
  8
RP
 10
29.026576048146609
 20
50.432021272596288
 30
0.0
 42
0.0999650394301042
  0
VERTEX
  5
13589
  8
RP
 10
29.019992983338579
 20
50.39942347531332
 30
0.0
 42
0.0723410840575997
  0
VERTEX
  5
1358A
  8
RP
 10
29.025443558195018
 20
50.361947877581358
 30
0.0
 42
0.0587518675354096
  0
VERTEX
  5
1358B
  8
RP
 10
29.043836362338912
 20
50.319189456597549
 30
0.0
 42
0.058751867535334
  0
SEQEND
  5
1358C
  8
RP
  0
LINE
  5
1131C
  8
RP
 10
28.868438537676301
 20
51.186923475313321
 30
0.0
 11
28.911739807865519
 21
51.21192347531332
 31
0.0
  0
LINE
  5
1131D
  8
RP
 10
33.306818732071548
 20
42.686423475313319
 30
0.0
 11
33.35012000226078
 21
42.71142347531331
 31
0.0
  0
LINE
  5
1131E
  8
FP
 10
11.55139470059159
 20
36.0609235544039
 30
0.0
 11
11.62933698693219
 21
36.105923554403887
 31
0.0
  0
POLYLINE
  5
1131F
  8
RP
 66
     1
 10
0.0
 20
0.0
 30
0.0
  0
VERTEX
  5
1358D
  8
RP
 10
33.35012000226078
 20
42.71142347531331
 30
0.0
  0
VERTEX
  5
1358E
  8
RP
 10
33.35012000226078
 20
48.64942347531332
 30
0.0
  0
VERTEX
  5
1358F
  8
RP
 10
28.911739807865519
 20
51.21192347531332
 30
0.0
  0
SEQEND
  5
13590
  8
RP
  0
LINE
  5
11324
  8
RP
 10
33.306818732071548
 20
48.624423475313321
 30
0.0
 11
33.35012000226078
 21
48.64942347531332
 31
0.0
  0
POLYLINE
  5
11325
  8
RP
 66
     1
 10
0.0
 20
0.0
 30
0.0
  0
VERTEX
  5
13591
  8
RP
 10
33.102897429876592
 20
47.975689456597543
 30
0.0
 42
0.058751867535334
  0
VERTEX
  5
13592
  8
RP
 10
33.130730906602281
 20
47.938381610470223
 30
0.0
 42
0.0723410840576734
  0
VERTEX
  5
13593
  8
RP
 10
33.16046043883199
 20
47.914923475313302
 30
0.0
 42
0.0999650394300577
  0
VERTEX
  5
13594
  8
RP
 10
33.191982491790469
 20
47.904325678030339
 30
0.0
 42
0.1568512196706862
  0
SEQEND
  5
13595
  8
RP
  0
POLYLINE
  5
1132B
  8
RP
 66
     1
 10
0.0
 20
0.0
 30
0.0
 70
     1
  0
VERTEX
  5
13596
  8
RP
 10
33.059596159687359
 20
47.95068945659753
 30
0.0
 42
0.058751867535334
  0
VERTEX
  5
13597
  8
RP
 10
33.087429636413049
 20
47.913381610470239
 30
0.0
 42
0.0723410840576734
  0
VERTEX
  5
13598
  8
RP
 10
33.117159168642772
 20
47.88992347531331
 30
0.0
 42
0.1066170543910573
  0
VERTEX
  5
13599
  8
RP
 10
33.150878798597859
 20
47.879078739646971
 30
0.0
 42
0.1568512196706862
  0
VERTEX
  5
1359A
  8
RP
 10
33.17472217759817
 20
47.884221419166003
 30
0.0
 42
0.1568512196707709
  0
VERTEX
  5
1359B
  8
RP
 10
33.191097558205321
 20
47.902299051332839
 30
0.0
 42
0.106617054391043
  0
VERTEX
  5
1359C
  8
RP
 10
33.19856555659851
 20
47.9369234753133
 30
0.0
 42
0.0723410840576385
  0
VERTEX
  5
1359D
  8
RP
 10
33.193114981742049
 20
47.974399073045298
 30
0.0
 42
0.0587518675353589
  0
VERTEX
  5
1359E
  8
RP
 10
33.17472217759817
 20
48.017157494029071
 30
0.0
 42
0.0587518675354114
  0
VERTEX
  5
1359F
  8
RP
 10
33.146888700872452
 20
48.054465340156398
 30
0.0
 42
0.0723410840576557
  0
VERTEX
  5
135A0
  8
RP
 10
33.117159168642772
 20
48.077923475313312
 30
0.0
 42
0.1066170543909796
  0
VERTEX
  5
135A1
  8
RP
 10
33.083439538687699
 20
48.088768210979637
 30
0.0
 42
0.1568512196707649
  0
VERTEX
  5
135A2
  8
RP
 10
33.059596159687359
 20
48.083625531460612
 30
0.0
 42
0.1568512196708158
  0
VERTEX
  5
135A3
  8
RP
 10
33.043220779080201
 20
48.065547899293783
 30
0.0
 42
0.1066170543910146
  0
VERTEX
  5
135A4
  8
RP
 10
33.035752780687027
 20
48.030923475313308
 30
0.0
 42
0.0723410840575997
  0
VERTEX
  5
135A5
  8
RP
 10
33.041203355543473
 20
47.993447877581339
 30
0.0
 42
0.0587518675354096
  0
SEQEND
  5
135A6
  8
RP
  0
POLYLINE
  5
1133D
  8
RP
 66
     1
 10
0.0
 20
0.0
 30
0.0
  0
VERTEX
  5
135A7
  8
RP
 10
33.085637115684293
 20
48.088521272596267
 30
0.0
 42
0.0999650394301042
  0
VERTEX
  5
135A8
  8
RP
 10
33.079054050876252
 20
48.0559234753133
 30
0.0
 42
0.0723410840575997
  0
VERTEX
  5
135A9
  8
RP
 10
33.084504625732691
 20
48.018447877581352
 30
0.0
 42
0.0587518675354096
  0
VERTEX
  5
135AA
  8
RP
 10
33.102897429876592
 20
47.975689456597543
 30
0.0
 42
0.058751867535334
  0
SEQEND
  5
135AB
  8
RP
  0
POLYLINE
  5
11343
  8
RP
 66
     1
 10
0.0
 20
0.0
 30
0.0
  0
VERTEX
  5
135AC
  8
RP
 10
29.043836362338912
 20
45.475189456597562
 30
0.0
 42
0.058751867535334
  0
VERTEX
  5
135AD
  8
RP
 10
29.071669839064601
 20
45.437881610470249
 30
0.0
 42
0.0723410840576734
  0
VERTEX
  5
135AE
  8
RP
 10
29.10139937129432
 20
45.41442347531332
 30
0.0
 42
0.0999650394300577
  0
VERTEX
  5
135AF
  8
RP
 10
29.132921424252778
 20
45.403825678030358
 30
0.0
 42
0.1568512196706862
  0
SEQEND
  5
135B0
  8
RP
  0
POLYLINE
  5
11349
  8
RP
 66
     1
 10
0.0
 20
0.0
 30
0.0
 70
     1
  0
VERTEX
  5
135B1
  8
RP
 10
29.000535092149679
 20
45.450189456597563
 30
0.0
 42
0.058751867535334
  0
VERTEX
  5
135B2
  8
RP
 10
29.028368568875369
 20
45.412881610470272
 30
0.0
 42
0.0723410840576734
  0
VERTEX
  5
135B3
  8
RP
 10
29.058098101105081
 20
45.389423475313329
 30
0.0
 42
0.1066170543910573
  0
VERTEX
  5
135B4
  8
RP
 10
29.091817731060178
 20
45.378578739646997
 30
0.0
 42
0.1568512196706862
  0
VERTEX
  5
135B5
  8
RP
 10
29.115661110060501
 20
45.383721419166022
 30
0.0
 42
0.1568512196707709
  0
VERTEX
  5
135B6
  8
RP
 10
29.132036490667652
 20
45.401799051332858
 30
0.0
 42
0.106617054391043
  0
VERTEX
  5
135B7
  8
RP
 10
29.139504489060819
 20
45.43642347531334
 30
0.0
 42
0.0723410840576385
  0
VERTEX
  5
135B8
  8
RP
 10
29.134053914204369
 20
45.473899073045331
 30
0.0
 42
0.0587518675353589
  0
VERTEX
  5
135B9
  8
RP
 10
29.115661110060501
 20
45.516657494029097
 30
0.0
 42
0.0587518675354114
  0
VERTEX
  5
135BA
  8
RP
 10
29.087827633334761
 20
45.553965340156431
 30
0.0
 42
0.0723410840576557
  0
VERTEX
  5
135BB
  8
RP
 10
29.058098101105081
 20
45.577423475313331
 30
0.0
 42
0.1066170543909796
  0
VERTEX
  5
135BC
  8
RP
 10
29.024378471150019
 20
45.588268210979649
 30
0.0
 42
0.1568512196707649
  0
VERTEX
  5
135BD
  8
RP
 10
29.000535092149679
 20
45.583125531460631
 30
0.0
 42
0.1568512196708158
  0
VERTEX
  5
135BE
  8
RP
 10
28.984159711542521
 20
45.565047899293802
 30
0.0
 42
0.1066170543910146
  0
VERTEX
  5
135BF
  8
RP
 10
28.97669171314935
 20
45.530423475313327
 30
0.0
 42
0.0723410840575997
  0
VERTEX
  5
135C0
  8
RP
 10
28.98214228800579
 20
45.492947877581358
 30
0.0
 42
0.0587518675354096
  0
SEQEND
  5
135C1
  8
RP
  0
POLYLINE
  5
1135B
  8
RP
 66
     1
 10
0.0
 20
0.0
 30
0.0
  0
VERTEX
  5
135C2
  8
RP
 10
29.026576048146609
 20
45.588021272596293
 30
0.0
 42
0.0999650394301042
  0
VERTEX
  5
135C3
  8
RP
 10
29.019992983338579
 20
45.555423475313333
 30
0.0
 42
0.0723410840575997
  0
VERTEX
  5
135C4
  8
RP
 10
29.025443558195018
 20
45.517947877581371
 30
0.0
 42
0.0587518675354096
  0
VERTEX
  5
135C5
  8
RP
 10
29.043836362338912
 20
45.475189456597562
 30
0.0
 42
0.058751867535334
  0
SEQEND
  5
135C6
  8
RP
  0
POLYLINE
  5
11361
  8
RP
 66
     1
 10
0.0
 20
0.0
 30
0.0
 70
     1
  0
VERTEX
  5
135C7
  8
RP
 10
33.059596159687359
 20
43.10668945659755
 30
0.0
 42
0.058751867535334
  0
VERTEX
  5
135C8
  8
RP
 10
33.087429636413049
 20
43.069381610470238
 30
0.0
 42
0.0723410840576734
  0
VERTEX
  5
135C9
  8
RP
 10
33.117159168642772
 20
43.045923475313323
 30
0.0
 42
0.1066170543910573
  0
VERTEX
  5
135CA
  8
RP
 10
33.150878798597859
 20
43.035078739646998
 30
0.0
 42
0.1568512196706862
  0
VERTEX
  5
135CB
  8
RP
 10
33.17472217759817
 20
43.040221419166024
 30
0.0
 42
0.1568512196707709
  0
VERTEX
  5
135CC
  8
RP
 10
33.191097558205321
 20
43.058299051332853
 30
0.0
 42
0.106617054391043
  0
VERTEX
  5
135CD
  8
RP
 10
33.19856555659851
 20
43.092923475313313
 30
0.0
 42
0.0723410840576385
  0
VERTEX
  5
135CE
  8
RP
 10
33.193114981742049
 20
43.130399073045297
 30
0.0
 42
0.0587518675353589
  0
VERTEX
  5
135CF
  8
RP
 10
33.17472217759817
 20
43.173157494029091
 30
0.0
 42
0.0587518675354114
  0
VERTEX
  5
135D0
  8
RP
 10
33.146888700872452
 20
43.210465340156418
 30
0.0
 42
0.0723410840576557
  0
VERTEX
  5
135D1
  8
RP
 10
33.117159168642772
 20
43.233923475313311
 30
0.0
 42
0.1066170543909796
  0
VERTEX
  5
135D2
  8
RP
 10
33.083439538687699
 20
43.24476821097965
 30
0.0
 42
0.1568512196707649
  0
VERTEX
  5
135D3
  8
RP
 10
33.059596159687359
 20
43.239625531460632
 30
0.0
 42
0.1568512196708158
  0
VERTEX
  5
135D4
  8
RP
 10
33.043220779080201
 20
43.221547899293782
 30
0.0
 42
0.1066170543910146
  0
VERTEX
  5
135D5
  8
RP
 10
33.035752780687027
 20
43.186923475313321
 30
0.0
 42
0.0723410840575997
  0
VERTEX
  5
135D6
  8
RP
 10
33.041203355543473
 20
43.149447877581352
 30
0.0
 42
0.0587518675354096
  0
SEQEND
  5
135D7
  8
RP
  0
POLYLINE
  5
11373
  8
RP
 66
     1
 10
0.0
 20
0.0
 30
0.0
  0
VERTEX
  5
135D8
  8
RP
 10
33.085637115684293
 20
43.24452127259628
 30
0.0
 42
0.0999650394301042
  0
VERTEX
  5
135D9
  8
RP
 10
33.079054050876252
 20
43.21192347531332
 30
0.0
 42
0.0723410840575997
  0
VERTEX
  5
135DA
  8
RP
 10
33.084504625732691
 20
43.174447877581358
 30
0.0
 42
0.0587518675354096
  0
VERTEX
  5
135DB
  8
RP
 10
33.102897429876592
 20
43.131689456597549
 30
0.0
 42
0.058751867535334
  0
SEQEND
  5
135DC
  8
RP
  0
POLYLINE
  5
11379
  8
RP
 66
     1
 10
0.0
 20
0.0
 30
0.0
  0
VERTEX
  5
135DD
  8
RP
 10
33.102897429876592
 20
43.131689456597549
 30
0.0
 42
0.058751867535334
  0
VERTEX
  5
135DE
  8
RP
 10
33.130730906602281
 20
43.094381610470251
 30
0.0
 42
0.0723410840576734
  0
VERTEX
  5
135DF
  8
RP
 10
33.16046043883199
 20
43.070923475313322
 30
0.0
 42
0.0999650394300577
  0
VERTEX
  5
135E0
  8
RP
 10
33.191982491790469
 20
43.060325678030338
 30
0.0
 42
0.1568512196706862
  0
SEQEND
  5
135E1
  8
RP
  0
LINE
  5
1137F
  8
CENTER
 10
29.058098101105081
 20
50.327423475313317
 30
0.0
 11
23.48949283476605
 21
47.112387725781709
 31
0.0
  0
LINE
  5
11380
  8
CENTER
 10
33.117159168642772
 20
47.983923475313311
 30
0.0
 11
27.088694412894199
 21
44.5033877257817
 31
0.0
  0
LINE
  5
11381
  8
CENTER
 10
33.117159168642772
 20
43.13992347531331
 30
0.0
 11
27.142821000630729
 21
39.69063772578172
 31
0.0
  0
LINE
  5
11382
  8
CENTER
 10
29.058098101105081
 20
45.483423475313323
 30
0.0
 11
27.088694412894199
 21
44.346387725781717
 31
0.0
  0
LINE
  5
116DB
  8
CENTER
 10
7.4139306536151821
 20
38.172157573119648
 30
0.0
 11
7.3563676446597759
 21
38.138923554403888
 31
0.0
  0
LINE
  5
116DC
  8
CENTER
 10
11.31104497064516
 20
35.922157573119669
 30
0.0
 11
11.253481961689751
 21
35.888923554403888
 31
0.0
  0
LINE
  5
116DD
  8
CENTER
 10
11.311044970645151
 20
30.485157573119668
 30
0.0
 11
11.253481961689751
 21
30.451923554403901
 31
0.0
  0
LINE
  5
116DE
  8
CENTER
 10
7.4139306536151741
 20
32.735157573119672
 30
0.0
 11
7.3563676446597759
 21
32.701923554403912
 31
0.0
  0
POLYLINE
  5
11C6A
  8
SHELF
 66
     1
 10
0.0
 20
0.0
 30
0.0
 70
     1
  0
VERTEX
  5
135E2
  8
SHELF
 10
15.01976438575427
 20
36.904581899605859
 30
0.0
 42
0.058751867535447
  0
VERTEX
  5
135E3
  8
SHELF
 10
14.989028826665439
 20
36.900957847174702
 30
0.0
 42
0.0723410840577267
  0
VERTEX
  5
135E4
  8
SHELF
 10
14.96563779801774
 20
36.891637725781713
 30
0.0
 42
0.1066170543910857
  0
VERTEX
  5
135E5
  8
SHELF
 10
14.948183255755829
 20
36.875826762806881
 30
0.0
 42
0.1568512196708421
  0
VERTEX
  5
135E6
  8
SHELF
 10
14.943217831292291
 20
36.860387725781713
 30
0.0
 42
0.1568512196705903
  0
VERTEX
  5
135E7
  8
SHELF
 10
14.94818325575582
 20
36.844948688756539
 30
0.0
 42
0.1066170543910452
  0
VERTEX
  5
135E8
  8
SHELF
 10
14.96563779801774
 20
36.829137725781713
 30
0.0
 42
0.0723410840575682
  0
VERTEX
  5
135E9
  8
SHELF
 10
14.989028826665461
 20
36.819817604388682
 30
0.0
 42
0.0587518675352452
  0
VERTEX
  5
135EA
  8
SHELF
 10
15.01976438575427
 20
36.816193551957547
 30
0.0
 42
0.0587518675352452
  0
VERTEX
  5
135EB
  8
SHELF
 10
15.050499944843081
 20
36.819817604388682
 30
0.0
 42
0.0723410840575682
  0
VERTEX
  5
135EC
  8
SHELF
 10
15.07389097349078
 20
36.829137725781713
 30
0.0
 42
0.1066170543910857
  0
VERTEX
  5
135ED
  8
SHELF
 10
15.0913455157527
 20
36.844948688756539
 30
0.0
 42
0.1568512196708421
  0
VERTEX
  5
135EE
  8
SHELF
 10
15.09631094021624
 20
36.860387725781713
 30
0.0
 42
0.1568512196708802
  0
VERTEX
  5
135EF
  8
SHELF
 10
15.09134551575268
 20
36.875826762806888
 30
0.0
 42
0.1066170543910238
  0
VERTEX
  5
135F0
  8
SHELF
 10
15.07389097349078
 20
36.891637725781713
 30
0.0
 42
0.0723410840577787
  0
VERTEX
  5
135F1
  8
SHELF
 10
15.050499944843059
 20
36.900957847174723
 30
0.0
 42
0.0587518675353798
  0
SEQEND
  5
135F2
  8
SHELF
  0
POLYLINE
  5
11C7C
  8
SHELF
 66
     1
 10
0.0
 20
0.0
 30
0.0
 70
     1
  0
VERTEX
  5
135F3
  8
SHELF
 10
15.01976438575427
 20
36.963776073430033
 30
0.0
 42
0.0587518675353729
  0
VERTEX
  5
135F4
  8
SHELF
 10
14.95829326757659
 20
36.95652796856772
 30
0.0
 42
0.0723410840576083
  0
VERTEX
  5
135F5
  8
SHELF
 10
14.91151121028121
 20
36.937887725781707
 30
0.0
 42
0.1066170543910292
  0
VERTEX
  5
135F6
  8
SHELF
 10
14.876602125757399
 20
36.906265799832042
 30
0.0
 42
0.1568512196707543
  0
VERTEX
  5
135F7
  8
SHELF
 10
14.866671276830321
 20
36.875387725781707
 30
0.0
 42
0.1568512196707009
  0
VERTEX
  5
135F8
  8
SHELF
 10
14.876602125757399
 20
36.844509651731357
 30
0.0
 42
0.1066170543910036
  0
VERTEX
  5
135F9
  8
SHELF
 10
14.91151121028121
 20
36.812887725781707
 30
0.0
 42
0.0723410840577661
  0
VERTEX
  5
135FA
  8
SHELF
 10
14.95829326757663
 20
36.794247482995701
 30
0.0
 42
0.0587518675354537
  0
VERTEX
  5
135FB
  8
SHELF
 10
15.01976438575427
 20
36.786999378133387
 30
0.0
 42
0.0587518675353864
  0
VERTEX
  5
135FC
  8
SHELF
 10
15.081235503931911
 20
36.794247482995701
 30
0.0
 42
0.0723410840576609
  0
VERTEX
  5
135FD
  8
SHELF
 10
15.12801756122732
 20
36.812887725781707
 30
0.0
 42
0.1066170543910291
  0
VERTEX
  5
135FE
  8
SHELF
 10
15.16292664575113
 20
36.844509651731357
 30
0.0
 42
0.1568512196707543
  0
VERTEX
  5
135FF
  8
SHELF
 10
15.172857494678221
 20
36.875387725781707
 30
0.0
 42
0.1568512196708077
  0
VERTEX
  5
13600
  8
SHELF
 10
15.162926645751121
 20
36.906265799832042
 30
0.0
 42
0.1066170543910548
  0
VERTEX
  5
13601
  8
SHELF
 10
15.12801756122732
 20
36.937887725781707
 30
0.0
 42
0.0723410840576477
  0
VERTEX
  5
13602
  8
SHELF
 10
15.081235503931911
 20
36.95652796856772
 30
0.0
 42
0.0587518675353831
  0
SEQEND
  5
13603
  8
SHELF
  0
POLYLINE
  5
11C8E
  8
SHELF
 66
     1
 10
0.0
 20
0.0
 30
0.0
 70
     1
  0
VERTEX
  5
13604
  8
SHELF
 10
15.804383401582969
 20
36.451581899605877
 30
0.0
 42
0.058751867535447
  0
VERTEX
  5
13605
  8
SHELF
 10
15.773647842494141
 20
36.44795784717472
 30
0.0
 42
0.0723410840577267
  0
VERTEX
  5
13606
  8
SHELF
 10
15.75025681384645
 20
36.43863772578171
 30
0.0
 42
0.1066170543910857
  0
VERTEX
  5
13607
  8
SHELF
 10
15.73280227158455
 20
36.422826762806878
 30
0.0
 42
0.1568512196708421
  0
VERTEX
  5
13608
  8
SHELF
 10
15.727836847121001
 20
36.40738772578171
 30
0.0
 42
0.1568512196705903
  0
VERTEX
  5
13609
  8
SHELF
 10
15.732802271584539
 20
36.39194868875655
 30
0.0
 42
0.1066170543910452
  0
VERTEX
  5
1360A
  8
SHELF
 10
15.75025681384645
 20
36.376137725781717
 30
0.0
 42
0.0723410840575682
  0
VERTEX
  5
1360B
  8
SHELF
 10
15.773647842494171
 20
36.3668176043887
 30
0.0
 42
0.0587518675352452
  0
VERTEX
  5
1360C
  8
SHELF
 10
15.804383401582969
 20
36.363193551957544
 30
0.0
 42
0.0587518675352452
  0
VERTEX
  5
1360D
  8
SHELF
 10
15.835118960671791
 20
36.3668176043887
 30
0.0
 42
0.0723410840575682
  0
VERTEX
  5
1360E
  8
SHELF
 10
15.858509989319501
 20
36.376137725781717
 30
0.0
 42
0.1066170543910857
  0
VERTEX
  5
1360F
  8
SHELF
 10
15.87596453158139
 20
36.39194868875655
 30
0.0
 42
0.1568512196708421
  0
VERTEX
  5
13610
  8
SHELF
 10
15.880929956044939
 20
36.40738772578171
 30
0.0
 42
0.1568512196708802
  0
VERTEX
  5
13611
  8
SHELF
 10
15.87596453158139
 20
36.422826762806892
 30
0.0
 42
0.1066170543910238
  0
VERTEX
  5
13612
  8
SHELF
 10
15.858509989319501
 20
36.43863772578171
 30
0.0
 42
0.0723410840577787
  0
VERTEX
  5
13613
  8
SHELF
 10
15.83511896067178
 20
36.447957847174727
 30
0.0
 42
0.0587518675353798
  0
SEQEND
  5
13614
  8
SHELF
  0
POLYLINE
  5
11CA0
  8
SHELF
 66
     1
 10
0.0
 20
0.0
 30
0.0
 70
     1
  0
VERTEX
  5
13615
  8
SHELF
 10
15.804383401582969
 20
36.51077607343003
 30
0.0
 42
0.0587518675353729
  0
VERTEX
  5
13616
  8
SHELF
 10
15.74291228340531
 20
36.503527968567717
 30
0.0
 42
0.0723410840576083
  0
VERTEX
  5
13617
  8
SHELF
 10
15.69613022610992
 20
36.484887725781718
 30
0.0
 42
0.1066170543910292
  0
VERTEX
  5
13618
  8
SHELF
 10
15.66122114158612
 20
36.45326579983206
 30
0.0
 42
0.1568512196707543
  0
VERTEX
  5
13619
  8
SHELF
 10
15.651290292659031
 20
36.422387725781711
 30
0.0
 42
0.1568512196707009
  0
VERTEX
  5
1361A
  8
SHELF
 10
15.6612211415861
 20
36.391509651731361
 30
0.0
 42
0.1066170543910036
  0
VERTEX
  5
1361B
  8
SHELF
 10
15.69613022610992
 20
36.359887725781711
 30
0.0
 42
0.0723410840577661
  0
VERTEX
  5
1361C
  8
SHELF
 10
15.742912283405319
 20
36.341247482995712
 30
0.0
 42
0.0587518675354537
  0
VERTEX
  5
1361D
  8
SHELF
 10
15.804383401582969
 20
36.333999378133399
 30
0.0
 42
0.0587518675353864
  0
VERTEX
  5
1361E
  8
SHELF
 10
15.86585451976063
 20
36.341247482995691
 30
0.0
 42
0.0723410840576609
  0
VERTEX
  5
1361F
  8
SHELF
 10
15.91263657705602
 20
36.359887725781711
 30
0.0
 42
0.1066170543910291
  0
VERTEX
  5
13620
  8
SHELF
 10
15.94754566157984
 20
36.391509651731361
 30
0.0
 42
0.1568512196707543
  0
VERTEX
  5
13621
  8
SHELF
 10
15.95747651050692
 20
36.422387725781711
 30
0.0
 42
0.1568512196708077
  0
VERTEX
  5
13622
  8
SHELF
 10
15.947545661579831
 20
36.45326579983206
 30
0.0
 42
0.1066170543910548
  0
VERTEX
  5
13623
  8
SHELF
 10
15.91263657705602
 20
36.484887725781718
 30
0.0
 42
0.0723410840576477
  0
VERTEX
  5
13624
  8
SHELF
 10
15.86585451976064
 20
36.503527968567717
 30
0.0
 42
0.0587518675353831
  0
SEQEND
  5
13625
  8
SHELF
  0
POLYLINE
  5
11CB2
  8
SHELF
 66
     1
 10
0.0
 20
0.0
 30
0.0
 70
     1
  0
VERTEX
  5
13626
  8
SHELF
 10
16.291955703913612
 20
36.733081899605857
 30
0.0
 42
0.058751867535447
  0
VERTEX
  5
13627
  8
SHELF
 10
16.26122014482479
 20
36.729457847174707
 30
0.0
 42
0.0723410840577267
  0
VERTEX
  5
13628
  8
SHELF
 10
16.237829116177071
 20
36.720137725781711
 30
0.0
 42
0.1066170543910857
  0
VERTEX
  5
13629
  8
SHELF
 10
16.22037457391518
 20
36.704326762806879
 30
0.0
 42
0.1568512196708421
  0
VERTEX
  5
1362A
  8
SHELF
 10
16.215409149451631
 20
36.688887725781711
 30
0.0
 42
0.1568512196705903
  0
VERTEX
  5
1362B
  8
SHELF
 10
16.220374573915169
 20
36.673448688756537
 30
0.0
 42
0.1066170543910452
  0
VERTEX
  5
1362C
  8
SHELF
 10
16.237829116177071
 20
36.657637725781711
 30
0.0
 42
0.0723410840575682
  0
VERTEX
  5
1362D
  8
SHELF
 10
16.261220144824801
 20
36.64831760438868
 30
0.0
 42
0.0587518675352452
  0
VERTEX
  5
1362E
  8
SHELF
 10
16.291955703913612
 20
36.644693551957538
 30
0.0
 42
0.0587518675352452
  0
VERTEX
  5
1362F
  8
SHELF
 10
16.322691263002419
 20
36.64831760438868
 30
0.0
 42
0.0723410840575682
  0
VERTEX
  5
13630
  8
SHELF
 10
16.346082291650141
 20
36.657637725781711
 30
0.0
 42
0.1066170543910857
  0
VERTEX
  5
13631
  8
SHELF
 10
16.363536833912029
 20
36.673448688756537
 30
0.0
 42
0.1568512196708421
  0
VERTEX
  5
13632
  8
SHELF
 10
16.368502258375589
 20
36.688887725781711
 30
0.0
 42
0.1568512196708802
  0
VERTEX
  5
13633
  8
SHELF
 10
16.363536833912018
 20
36.704326762806879
 30
0.0
 42
0.1066170543910238
  0
VERTEX
  5
13634
  8
SHELF
 10
16.346082291650141
 20
36.720137725781711
 30
0.0
 42
0.0723410840577787
  0
VERTEX
  5
13635
  8
SHELF
 10
16.322691263002412
 20
36.729457847174722
 30
0.0
 42
0.0587518675353798
  0
SEQEND
  5
13636
  8
SHELF
  0
POLYLINE
  5
11CC4
  8
SHELF
 66
     1
 10
0.0
 20
0.0
 30
0.0
 70
     1
  0
VERTEX
  5
13637
  8
SHELF
 10
16.291955703913612
 20
36.792276073430031
 30
0.0
 42
0.0587518675353729
  0
VERTEX
  5
13638
  8
SHELF
 10
16.23048458573593
 20
36.785027968567718
 30
0.0
 42
0.0723410840576083
  0
VERTEX
  5
13639
  8
SHELF
 10
16.183702528440559
 20
36.766387725781712
 30
0.0
 42
0.1066170543910292
  0
VERTEX
  5
1363A
  8
SHELF
 10
16.148793443916741
 20
36.73476579983204
 30
0.0
 42
0.1568512196707543
  0
VERTEX
  5
1363B
  8
SHELF
 10
16.138862594989661
 20
36.703887725781712
 30
0.0
 42
0.1568512196707009
  0
VERTEX
  5
1363C
  8
SHELF
 10
16.148793443916741
 20
36.673009651731348
 30
0.0
 42
0.1066170543910036
  0
VERTEX
  5
1363D
  8
SHELF
 10
16.183702528440559
 20
36.641387725781712
 30
0.0
 42
0.0723410840577661
  0
VERTEX
  5
1363E
  8
SHELF
 10
16.230484585735962
 20
36.622747482995692
 30
0.0
 42
0.0587518675354537
  0
VERTEX
  5
1363F
  8
SHELF
 10
16.291955703913612
 20
36.615499378133393
 30
0.0
 42
0.0587518675353864
  0
VERTEX
  5
13640
  8
SHELF
 10
16.353426822091269
 20
36.622747482995678
 30
0.0
 42
0.0723410840576609
  0
VERTEX
  5
13641
  8
SHELF
 10
16.400208879386671
 20
36.641387725781712
 30
0.0
 42
0.1066170543910291
  0
VERTEX
  5
13642
  8
SHELF
 10
16.435117963910471
 20
36.673009651731348
 30
0.0
 42
0.1568512196707543
  0
VERTEX
  5
13643
  8
SHELF
 10
16.445048812837548
 20
36.703887725781712
 30
0.0
 42
0.1568512196708077
  0
VERTEX
  5
13644
  8
SHELF
 10
16.435117963910471
 20
36.73476579983204
 30
0.0
 42
0.1066170543910548
  0
VERTEX
  5
13645
  8
SHELF
 10
16.400208879386671
 20
36.766387725781712
 30
0.0
 42
0.0723410840576477
  0
VERTEX
  5
13646
  8
SHELF
 10
16.353426822091269
 20
36.785027968567718
 30
0.0
 42
0.0587518675353831
  0
SEQEND
  5
13647
  8
SHELF
  0
LINE
  5
11F9F
  8
SHELF
 10
18.211934024103709
 20
33.468887725781698
 30
0.0
 11
18.347033987094068
 21
33.39088772578171
 31
0.0
  0
LINE
  5
11FA2
  8
SHELF
 10
18.347033987094068
 20
33.26588772578171
 30
0.0
 11
18.347033987094068
 21
33.546887725781708
 31
0.0
  0
LINE
  5
11FA4
  8
SHELF
 10
18.563540338040191
 20
33.20338772578171
 30
0.0
 11
18.563540338040191
 21
33.671887725781708
 31
0.0
  0
LINE
  5
11FA5
  8
SHELF
 10
17.9954276731576
 20
33.343887725781713
 30
0.0
 11
18.401160574830609
 21
33.10963772578171
 31
0.0
  0
POLYLINE
  5
12033
  8
SHELF
 66
     1
 10
0.0
 20
0.0
 30
0.0
  0
VERTEX
  5
13648
  8
SHELF
 10
18.563540338040191
 20
33.20338772578171
 30
0.0
 42
-0.0723410840577293
  0
VERTEX
  5
13649
  8
SHELF
 10
18.559916285609031
 20
33.178470440055641
 30
0.0
 42
-0.0587518675353901
  0
VERTEX
  5
1364A
  8
SHELF
 10
18.54768702753465
 20
33.150040638869619
 30
0.0
 42
-0.0587518675353261
  0
SEQEND
  5
1364B
  8
SHELF
  0
POLYLINE
  5
12049
  8
SHELF
 66
     1
 10
0.0
 20
0.0
 30
0.0
  0
VERTEX
  5
1364C
  8
SHELF
 10
18.401160574830609
 20
33.10963772578171
 30
0.0
 42
0.072341084057543
  0
VERTEX
  5
1364D
  8
SHELF
 10
18.424551603478282
 20
33.1003176043887
 30
0.0
 42
0.0587518675353998
  0
VERTEX
  5
1364E
  8
SHELF
 10
18.455287162567139
 20
33.09669355195755
 30
0.0
 42
0.0587518675353191
  0
VERTEX
  5
1364F
  8
SHELF
 10
18.486022721655971
 20
33.1003176043887
 30
0.0
 42
0.0723410840575441
  0
VERTEX
  5
13650
  8
SHELF
 10
18.509413750303651
 20
33.10963772578171
 30
0.0
 42
0.1066170543910345
  0
SEQEND
  5
13651
  8
SHELF
  0
POLYLINE
  5
12050
  8
SHELF
 66
     1
 10
0.0
 20
0.0
 30
0.0
  0
VERTEX
  5
13652
  8
SHELF
 10
18.54768702753465
 20
33.150040638869619
 30
0.0
 42
-0.0587518675353261
  0
VERTEX
  5
13653
  8
SHELF
 10
18.529180726520231
 20
33.125234890114783
 30
0.0
 42
-0.0723410840577475
  0
VERTEX
  5
13654
  8
SHELF
 10
18.509413750303651
 20
33.10963772578171
 30
0.0
 42
-0.1066170543909933
  0
SEQEND
  5
13655
  8
SHELF
  0
TEXT
  5
12066
  8
TEXT
 10
20.71548394858069
 20
52.97327640790926
 30
0.0
 40
0.5
  1
%%UNOTE:
 41
0.75
  0
TEXT
  5
12067
  8
TEXT
 10
20.71548394858069
 20
52.139943074575932
 30
0.0
 40
0.5
  1
MAXIMUM WEIGHT FOR HANDLE IS 25 LBS.
 41
0.75
  0
LINE
  5
12161
  8
TITLE
 10
4.9520007749999868
 20
0.2480007750000048
 30
0.0
 11
4.952000774999993
 21
10.232031975
 31
0.0
  0
DIMENSION
  5
126D4
  8
DIM
  2
*D24
 10
1.2593871373336749
 20
17.836344233767431
 30
0.0
 11
1.259387137333672
 21
20.82534423376741
 31
0.0
 70
     0
  1
G
 13
2.8633871373336901
 23
23.814344233767411
 33
0.0
 14
2.7618246373336621
 24
17.836344233767431
 34
0.0
 50
90.0
  0
LINE
  5
133C0
  8
TITLE
 10
32.080228614775997
 20
61.752192974999993
 30
0.0
 11
32.080228614776011
 21
60.08018775
 31
0.0
  0
TEXT
  5
133C1
  8
TEXT
 10
32.994895281442659
 20
61.073837865893658
 30
0.0
 40
0.5
  1
REV.
 72
     1
 11
33.828228614776002
 21
61.073837865893658
 31
0.0
  0
TEXT
  5
133C2
  8
TEXT
 10
32.911561948109338
 20
60.240504532560323
 30
0.0
 40
0.5
  1
DATE
 72
     1
 11
33.828228614776002
 21
60.240504532560323
 31
0.0
  0
LINE
  5
133C3
  8
TITLE
 10
32.328228614776002
 20
61.752187749999997
 30
0.0
 11
32.328228614776002
 21
60.08018775
 31
0.0
  0
LINE
  5
133C4
  8
TITLE
 10
35.328228614776009
 20
61.752187749999997
 30
0.0
 11
35.328228614776009
 21
60.08018775
 31
0.0
  0
LINE
  5
133C5
  8
TITLE
 10
32.328228614776002
 20
60.08018775
 30
0.0
 11
40.23212572500001
 21
60.08018775
 31
0.0
  0
LINE
  5
133C6
  8
TITLE
 10
32.328228614776002
 20
61.752187749999997
 30
0.0
 11
40.23212572500001
 21
61.75218774999999
 31
0.0
  0
TEXT
  5
133C7
  8
TEXT
 10
36.082485434134497
 20
60.541189190624991
 30
0.0
 40
0.75000234375
  1
7-17-12
 41
0.75
 72
     4
 11
37.769990707571999
 21
60.916190362499997
 31
0.0
  0
ENDSEC
  0
EOF
