  0
SECTION
  2
HEADER
  9
$ACADVER
  1
AC1009
  9
$INSBASE
 10
0.0
 20
0.0
 30
0.0
  9
$EXTMIN
 10
0.0
 20
0.0
 30
0.0
  9
$EXTMAX
 10
21.3125
 20
13.915
 30
0.0
  9
$LIMMIN
 10
0.0
 20
0.0
  9
$LIMMAX
 10
75.0
 20
50.0
  9
$ORTHOMODE
 70
     1
  9
$REGENMODE
 70
     1
  9
$FILLMODE
 70
     1
  9
$QTEXTMODE
 70
     0
  9
$MIRRTEXT
 70
     0
  9
$DRAGMODE
 70
     2
  9
$LTSCALE
 40
0.5
  9
$OSMODE
 70
     0
  9
$ATTMODE
 70
     1
  9
$TEXTSIZE
 40
0.172
  9
$TRACEWID
 40
0.05
  9
$TEXTSTYLE
  7
TXT
  9
$CLAYER
  8
OBJECT
  9
$CELTYPE
  6
BYLAYER
  9
$CECOLOR
 62
   256
  9
$DIMSCALE
 40
1.375
  9
$DIMASZ
 40
0.18
  9
$DIMEXO
 40
0.063
  9
$DIMDLI
 40
0.481
  9
$DIMRND
 40
0.0
  9
$DIMDLE
 40
0.0
  9
$DIMEXE
 40
0.093
  9
$DIMTP
 40
0.0
  9
$DIMTM
 40
0.0
  9
$DIMTXT
 40
0.125
  9
$DIMCEN
 40
0.09
  9
$DIMTSZ
 40
0.0
  9
$DIMTOL
 70
     0
  9
$DIMLIM
 70
     0
  9
$DIMTIH
 70
     1
  9
$DIMTOH
 70
     1
  9
$DIMSE1
 70
     0
  9
$DIMSE2
 70
     0
  9
$DIMTAD
 70
     0
  9
$DIMZIN
 70
     0
  9
$DIMBLK
  1

  9
$DIMASO
 70
     1
  9
$DIMSHO
 70
     1
  9
$DIMPOST
  1

  9
$DIMAPOST
  1

  9
$DIMALT
 70
     0
  9
$DIMALTD
 70
     2
  9
$DIMALTF
 40
25.4
  9
$DIMLFAC
 40
0.25
  9
$DIMTOFL
 70
     0
  9
$DIMTVP
 40
0.0
  9
$DIMTIX
 70
     0
  9
$DIMSOXD
 70
     0
  9
$DIMSAH
 70
     0
  9
$DIMBLK1
  1

  9
$DIMBLK2
  1

  9
$DIMSTYLE
  2
23NSTD4
  9
$DIMCLRD
 70
     0
  9
$DIMCLRE
 70
     0
  9
$DIMCLRT
 70
     0
  9
$DIMTFAC
 40
1.0
  9
$DIMGAP
 40
0.09
  9
$LUNITS
 70
     2
  9
$LUPREC
 70
     3
  9
$SKETCHINC
 40
0.1
  9
$FILLETRAD
 40
0.0
  9
$AUNITS
 70
     0
  9
$AUPREC
 70
     0
  9
$MENU
  1
acad
  9
$ELEVATION
 40
0.0
  9
$PELEVATION
 40
0.0
  9
$THICKNESS
 40
0.0
  9
$LIMCHECK
 70
     0
  9
$BLIPMODE
 70
     1
  9
$CHAMFERA
 40
0.0
  9
$CHAMFERB
 40
0.0
  9
$SKPOLY
 70
     0
  9
$TDCREATE
 40
2450053.523811805
  9
$TDUPDATE
 40
2450604.461807060
  9
$TDINDWG
 40
0.0933423611
  9
$TDUSRTIMER
 40
0.0933423611
  9
$USRTIMER
 70
     1
  9
$ANGBASE
 50
0.0
  9
$ANGDIR
 70
     0
  9
$PDMODE
 70
     0
  9
$PDSIZE
 40
0.0
  9
$PLINEWID
 40
0.0
  9
$COORDS
 70
     2
  9
$SPLFRAME
 70
     0
  9
$SPLINETYPE
 70
     6
  9
$SPLINESEGS
 70
     8
  9
$ATTDIA
 70
     0
  9
$ATTREQ
 70
     1
  9
$HANDLING
 70
     0
  9
$HANDSEED
  5
0
  9
$SURFTAB1
 70
     6
  9
$SURFTAB2
 70
     6
  9
$SURFTYPE
 70
     6
  9
$SURFU
 70
     6
  9
$SURFV
 70
     6
  9
$UCSNAME
  2

  9
$UCSORG
 10
0.0
 20
0.0
 30
0.0
  9
$UCSXDIR
 10
1.0
 20
0.0
 30
0.0
  9
$UCSYDIR
 10
0.0
 20
1.0
 30
0.0
  9
$PUCSNAME
  2

  9
$PUCSORG
 10
0.0
 20
0.0
 30
0.0
  9
$PUCSXDIR
 10
1.0
 20
0.0
 30
0.0
  9
$PUCSYDIR
 10
0.0
 20
1.0
 30
0.0
  9
$USERI1
 70
     0
  9
$USERI2
 70
     0
  9
$USERI3
 70
     0
  9
$USERI4
 70
     0
  9
$USERI5
 70
     0
  9
$USERR1
 40
0.0
  9
$USERR2
 40
0.0
  9
$USERR3
 40
0.0
  9
$USERR4
 40
0.0
  9
$USERR5
 40
0.0
  9
$WORLDVIEW
 70
     1
  9
$SHADEDGE
 70
     3
  9
$SHADEDIF
 70
    70
  9
$TILEMODE
 70
     1
  9
$MAXACTVP
 70
    16
  9
$PINSBASE
 10
0.0
 20
0.0
 30
0.0
  9
$PLIMCHECK
 70
     0
  9
$PEXTMIN
 10
1.000000E+20
 20
1.000000E+20
 30
1.000000E+20
  9
$PEXTMAX
 10
-1.000000E+20
 20
-1.000000E+20
 30
-1.000000E+20
  9
$PLIMMIN
 10
0.0
 20
0.0
  9
$PLIMMAX
 10
12.0
 20
9.0
  9
$UNITMODE
 70
     0
  9
$VISRETAIN
 70
     0
  9
$PLINEGEN
 70
     0
  9
$PSLTSCALE
 70
     1
  9
$TREEDEPTH
 70
  3020
  9
$DWGCODEPAGE
  3
ascii
  0
ENDSEC
  0
SECTION
  2
TABLES
  0
TABLE
  2
VPORT
 70
     2
  0
VPORT
  2
*ACTIVE
 70
     0
 10
0.0
 20
0.0
 11
1.0
 21
1.0
 12
10.65625
 22
7.822022
 13
0.0
 23
0.0
 14
1.0
 24
1.0
 15
0.0
 25
0.0
 16
0.0
 26
0.0
 36
1.0
 17
0.0
 27
0.0
 37
0.0
 40
15.644045
 41
1.36234
 42
50.0
 43
0.0
 44
0.0
 50
0.0
 51
0.0
 71
     0
 72
   100
 73
     1
 74
     0
 75
     0
 76
     0
 77
     0
 78
     0
  0
ENDTAB
  0
TABLE
  2
LTYPE
 70
     4
  0
LTYPE
  2
CONTINUOUS
 70
    64
  3
Solid line
 72
    65
 73
     0
 40
0.0
  0
LTYPE
  2
HIDDEN
 70
    64
  3
_ _ _ _ _ _ _ _ _ _ _ _ _ _ _ _ _ _ _ _ _ _ _
 72
    65
 73
     2
 40
0.375
 49
0.25
 49
-0.125
  0
LTYPE
  2
PHANTOM
 70
    64
  3
_____ _ _ _____ _ _ _____ _ _ _____ _ _ ____
 72
    65
 73
     6
 40
2.5
 49
1.25
 49
-0.25
 49
0.25
 49
-0.25
 49
0.25
 49
-0.25
  0
LTYPE
  2
CENTER
 70
    64
  3
____ _ ____ _ ____ _ ____ _ ____ _ ____ _ ____
 72
    65
 73
     4
 40
2.0
 49
1.25
 49
-0.25
 49
0.25
 49
-0.25
  0
ENDTAB
  0
TABLE
  2
LAYER
 70
    11
  0
LAYER
  2
0
 70
    64
 62
     7
  6
CONTINUOUS
  0
LAYER
  2
OBJECT
 70
    64
 62
     7
  6
CONTINUOUS
  0
LAYER
  2
DIM
 70
    64
 62
     7
  6
CONTINUOUS
  0
LAYER
  2
HIDDEN
 70
    64
 62
     7
  6
HIDDEN
  0
LAYER
  2
BEND
 70
    64
 62
     7
  6
PHANTOM
  0
LAYER
  2
TEXT
 70
    64
 62
     7
  6
CONTINUOUS
  0
LAYER
  2
TITLE
 70
    64
 62
     7
  6
CONTINUOUS
  0
LAYER
  2
CENTER
 70
    64
 62
     7
  6
CENTER
  0
LAYER
  2
DEFPOINTS
 70
    64
 62
     7
  6
CONTINUOUS
  0
LAYER
  2
HATCH
 70
    64
 62
     7
  6
CONTINUOUS
  0
LAYER
  2
LJHFV
 70
    64
 62
     7
  6
CONTINUOUS
  0
ENDTAB
  0
TABLE
  2
STYLE
 70
     2
  0
STYLE
  2
STANDARD
 70
    64
 40
0.0
 41
1.0
 50
0.0
 71
     0
 42
0.2
  3
txt
  4

  0
STYLE
  2
TXT
 70
    64
 40
0.0
 41
0.75
 50
0.0
 71
     0
 42
0.172
  3
txt
  4

  0
ENDTAB
  0
TABLE
  2
VIEW
 70
     0
  0
ENDTAB
  0
TABLE
  2
UCS
 70
     0
  0
ENDTAB
  0
TABLE
  2
APPID
 70
     1
  0
APPID
  2
ACAD
 70
    64
  0
ENDTAB
  0
TABLE
  2
DIMSTYLE
 70
     4
  0
DIMSTYLE
  2
23NSTD
 70
    64
  3

  4

  5

  6

  7

 40
1.375
 41
0.18
 42
0.063
 43
0.381
 44
0.093
 45
0.0
 46
0.0
 47
0.0
 48
0.0
140
0.125
141
0.09
142
0.0
143
25.4
144
1.0
145
0.0
146
1.0
147
0.09
 71
     0
 72
     0
 73
     1
 74
     1
 75
     0
 76
     0
 77
     0
 78
     0
170
     0
171
     2
172
     0
173
     0
174
     0
175
     0
176
     0
177
     0
178
     0
  0
DIMSTYLE
  2
23NSTDI
 70
    64
  3

  4

  5

  6

  7

 40
1.375
 41
0.18
 42
0.063
 43
0.381
 44
0.093
 45
0.0
 46
0.0
 47
0.0
 48
0.0
140
0.125
141
0.09
142
0.0
143
25.4
144
1.0
145
0.0
146
1.0
147
0.09
 71
     0
 72
     0
 73
     1
 74
     1
 75
     0
 76
     0
 77
     0
 78
     0
170
     0
171
     2
172
     0
173
     0
174
     1
175
     0
176
     0
177
     0
178
     0
  0
DIMSTYLE
  2
23NSTD4
 70
    64
  3

  4

  5

  6

  7

 40
1.375
 41
0.18
 42
0.063
 43
0.481
 44
0.093
 45
0.0
 46
0.0
 47
0.0
 48
0.0
140
0.125
141
0.09
142
0.0
143
25.4
144
0.25
145
0.0
146
1.0
147
0.09
 71
     0
 72
     0
 73
     1
 74
     1
 75
     0
 76
     0
 77
     0
 78
     0
170
     0
171
     2
172
     0
173
     0
174
     0
175
     0
176
     0
177
     0
178
     0
  0
DIMSTYLE
  2
23NSTD4I
 70
    64
  3

  4

  5

  6

  7

 40
1.375
 41
0.18
 42
0.063
 43
0.381
 44
0.093
 45
0.0
 46
0.0
 47
0.0
 48
0.0
140
0.125
141
0.09
142
0.0
143
25.4
144
0.25
145
0.0
146
1.0
147
0.09
 71
     0
 72
     0
 73
     1
 74
     1
 75
     0
 76
     0
 77
     0
 78
     0
170
     0
171
     2
172
     0
173
     0
174
     1
175
     0
176
     0
177
     0
178
     0
  0
ENDTAB
  0
ENDSEC
  0
SECTION
  2
BLOCKS
  0
BLOCK
  8
0
  2
*X0
 70
    65
 10
0.0
 20
0.0
 30
0.0
  3
*X
  0
LINE
  8
0
 62
     0
 10
9.851002
 20
7.066769
 30
0.0
 11
9.951002
 21
7.166769
 31
0.0
  0
LINE
  8
0
 62
     0
 10
9.851002
 20
7.199351
 30
0.0
 11
9.951002
 21
7.299351
 31
0.0
  0
LINE
  8
0
 62
     0
 10
9.851002
 20
7.331934
 30
0.0
 11
9.951002
 21
7.431934
 31
0.0
  0
LINE
  8
0
 62
     0
 10
9.851002
 20
7.464516
 30
0.0
 11
9.951002
 21
7.564516
 31
0.0
  0
LINE
  8
0
 62
     0
 10
9.851002
 20
7.597099
 30
0.0
 11
9.951002
 21
7.697099
 31
0.0
  0
LINE
  8
0
 62
     0
 10
9.851002
 20
7.729682
 30
0.0
 11
9.951002
 21
7.829682
 31
0.0
  0
LINE
  8
0
 62
     0
 10
9.851002
 20
7.862264
 30
0.0
 11
9.951002
 21
7.962264
 31
0.0
  0
LINE
  8
0
 62
     0
 10
9.741503
 20
7.885348
 30
0.0
 11
9.805503
 21
7.949348
 31
0.0
  0
LINE
  8
0
 62
     0
 10
9.851002
 20
7.994847
 30
0.0
 11
9.951002
 21
8.094847
 31
0.0
  0
LINE
  8
0
 62
     0
 10
9.60892
 20
7.885348
 30
0.0
 11
9.67292
 21
7.949348
 31
0.0
  0
LINE
  8
0
 62
     0
 10
9.76192
 20
8.038348
 30
0.0
 11
9.951002
 21
8.227429
 31
0.0
  0
LINE
  8
0
 62
     0
 10
9.476338
 20
7.885348
 30
0.0
 11
9.540338
 21
7.949348
 31
0.0
  0
LINE
  8
0
 62
     0
 10
9.629338
 20
8.038348
 30
0.0
 11
9.932929
 21
8.341938
 31
0.0
  0
LINE
  8
0
 62
     0
 10
9.343755
 20
7.885348
 30
0.0
 11
9.407755
 21
7.949348
 31
0.0
  0
LINE
  8
0
 62
     0
 10
9.496755
 20
8.038348
 30
0.0
 11
9.838603
 21
8.380195
 31
0.0
  0
LINE
  8
0
 62
     0
 10
9.211173
 20
7.885348
 30
0.0
 11
9.275173
 21
7.949348
 31
0.0
  0
LINE
  8
0
 62
     0
 10
9.455002
 20
8.129177
 30
0.0
 11
9.708353
 21
8.382528
 31
0.0
  0
LINE
  8
0
 62
     0
 10
9.364173
 20
8.038348
 30
0.0
 11
9.428173
 21
8.102348
 31
0.0
  0
LINE
  8
0
 62
     0
 10
9.07859
 20
7.885348
 30
0.0
 11
9.14259
 21
7.949348
 31
0.0
  0
LINE
  8
0
 62
     0
 10
9.455002
 20
8.261759
 30
0.0
 11
9.578103
 21
8.384861
 31
0.0
  0
LINE
  8
0
 62
     0
 10
9.23159
 20
8.038348
 30
0.0
 11
9.29559
 21
8.102348
 31
0.0
  0
LINE
  8
0
 62
     0
 10
8.946008
 20
7.885348
 30
0.0
 11
9.010008
 21
7.949348
 31
0.0
  0
LINE
  8
0
 62
     0
 10
9.359059
 20
8.298399
 30
0.0
 11
9.447854
 21
8.387193
 31
0.0
  0
LINE
  8
0
 62
     0
 10
9.099008
 20
8.038348
 30
0.0
 11
9.163008
 21
8.102348
 31
0.0
  0
LINE
  8
0
 62
     0
 10
8.966425
 20
8.038348
 30
0.0
 11
9.030425
 21
8.102348
 31
0.0
  0
LINE
  8
0
 62
     0
 10
9.226477
 20
8.298399
 30
0.0
 11
9.317604
 21
8.389526
 31
0.0
  0
LINE
  8
0
 62
     0
 10
9.093894
 20
8.298399
 30
0.0
 11
9.187354
 21
8.391859
 31
0.0
  0
LINE
  8
0
 62
     0
 10
8.961312
 20
8.298399
 30
0.0
 11
9.057105
 21
8.394192
 31
0.0
  0
LINE
  8
0
 62
     0
 10
8.854189
 20
8.323859
 30
0.0
 11
8.926855
 21
8.396525
 31
0.0
  0
LINE
  8
0
 62
     0
 10
9.851002
 20
6.934186
 30
0.0
 11
9.951002
 21
7.034186
 31
0.0
  0
LINE
  8
0
 62
     0
 10
9.851002
 20
6.801604
 30
0.0
 11
9.951002
 21
6.901604
 31
0.0
  0
LINE
  8
0
 62
     0
 10
9.851002
 20
6.669021
 30
0.0
 11
9.951002
 21
6.769021
 31
0.0
  0
LINE
  8
0
 62
     0
 10
9.851002
 20
6.536439
 30
0.0
 11
9.951002
 21
6.636439
 31
0.0
  0
LINE
  8
0
 62
     0
 10
9.851002
 20
6.403856
 30
0.0
 11
9.951002
 21
6.503856
 31
0.0
  0
LINE
  8
0
 62
     0
 10
9.851002
 20
6.271274
 30
0.0
 11
9.951002
 21
6.371274
 31
0.0
  0
LINE
  8
0
 62
     0
 10
9.851002
 20
6.138691
 30
0.0
 11
9.951002
 21
6.238691
 31
0.0
  0
LINE
  8
0
 62
     0
 10
8.954741
 20
5.109848
 30
0.0
 11
9.018741
 21
5.173848
 31
0.0
  0
LINE
  8
0
 62
     0
 10
9.851002
 20
6.006109
 30
0.0
 11
9.951002
 21
6.106109
 31
0.0
  0
LINE
  8
0
 62
     0
 10
8.936002
 20
4.958526
 30
0.0
 11
8.998323
 21
5.020848
 31
0.0
  0
LINE
  8
0
 62
     0
 10
9.851002
 20
5.873526
 30
0.0
 11
9.951002
 21
5.973526
 31
0.0
  0
LINE
  8
0
 62
     0
 10
9.087323
 20
5.109848
 30
0.0
 11
9.151323
 21
5.173848
 31
0.0
  0
LINE
  8
0
 62
     0
 10
9.066906
 20
4.956848
 30
0.0
 11
9.130906
 21
5.020848
 31
0.0
  0
LINE
  8
0
 62
     0
 10
9.851002
 20
5.740944
 30
0.0
 11
9.951002
 21
5.840944
 31
0.0
  0
LINE
  8
0
 62
     0
 10
9.219906
 20
5.109848
 30
0.0
 11
9.283906
 21
5.173848
 31
0.0
  0
LINE
  8
0
 62
     0
 10
8.905427
 20
4.662786
 30
0.0
 11
9.003937
 21
4.761296
 31
0.0
  0
LINE
  8
0
 62
     0
 10
9.851002
 20
5.608361
 30
0.0
 11
9.951002
 21
5.708361
 31
0.0
  0
LINE
  8
0
 62
     0
 10
9.199488
 20
4.956848
 30
0.0
 11
9.263488
 21
5.020848
 31
0.0
  0
LINE
  8
0
 62
     0
 10
9.352488
 20
5.109848
 30
0.0
 11
9.416488
 21
5.173848
 31
0.0
  0
LINE
  8
0
 62
     0
 10
9.040428
 20
4.665204
 30
0.0
 11
9.136519
 21
4.761296
 31
0.0
  0
LINE
  8
0
 62
     0
 10
9.851002
 20
5.475779
 30
0.0
 11
9.951002
 21
5.575779
 31
0.0
  0
LINE
  8
0
 62
     0
 10
9.332071
 20
4.956848
 30
0.0
 11
9.396071
 21
5.020848
 31
0.0
  0
LINE
  8
0
 62
     0
 10
9.485071
 20
5.109848
 30
0.0
 11
9.549071
 21
5.173848
 31
0.0
  0
LINE
  8
0
 62
     0
 10
9.175428
 20
4.667622
 30
0.0
 11
9.269102
 21
4.761296
 31
0.0
  0
LINE
  8
0
 62
     0
 10
9.851002
 20
5.343196
 30
0.0
 11
9.951002
 21
5.443196
 31
0.0
  0
LINE
  8
0
 62
     0
 10
9.455002
 20
4.947196
 30
0.0
 11
9.528653
 21
5.020848
 31
0.0
  0
LINE
  8
0
 62
     0
 10
9.617653
 20
5.109848
 30
0.0
 11
9.681653
 21
5.173848
 31
0.0
  0
LINE
  8
0
 62
     0
 10
9.310428
 20
4.67004
 30
0.0
 11
9.401684
 21
4.761296
 31
0.0
  0
LINE
  8
0
 62
     0
 10
9.851002
 20
5.210614
 30
0.0
 11
9.951002
 21
5.310614
 31
0.0
  0
LINE
  8
0
 62
     0
 10
9.455002
 20
4.814614
 30
0.0
 11
9.661236
 21
5.020848
 31
0.0
  0
LINE
  8
0
 62
     0
 10
9.750236
 20
5.109848
 30
0.0
 11
9.814236
 21
5.173848
 31
0.0
  0
LINE
  8
0
 62
     0
 10
9.445429
 20
4.672458
 30
0.0
 11
9.793818
 21
5.020848
 31
0.0
  0
LINE
  8
0
 62
     0
 10
9.851002
 20
5.078031
 30
0.0
 11
9.951002
 21
5.178031
 31
0.0
  0
LINE
  8
0
 62
     0
 10
9.580429
 20
4.674876
 30
0.0
 11
9.951002
 21
5.045449
 31
0.0
  0
LINE
  8
0
 62
     0
 10
9.71543
 20
4.677294
 30
0.0
 11
9.951002
 21
4.912866
 31
0.0
  0
LINE
  8
0
 62
     0
 10
9.85043
 20
4.679712
 30
0.0
 11
9.951002
 21
4.780284
 31
0.0
  0
ENDBLK
  8
0
  0
BLOCK
  8
0
  2
*X1
 70
    65
 10
0.0
 20
0.0
 30
0.0
  3
*X
  0
LINE
  8
0
 62
     0
 10
7.221783
 20
5.895958
 30
0.0
 11
7.319783
 21
5.993958
 31
0.0
  0
LINE
  8
0
 62
     0
 10
7.221783
 20
6.028541
 30
0.0
 11
7.319783
 21
6.126541
 31
0.0
  0
LINE
  8
0
 62
     0
 10
7.221783
 20
6.161123
 30
0.0
 11
7.319783
 21
6.259123
 31
0.0
  0
LINE
  8
0
 62
     0
 10
7.221783
 20
6.293706
 30
0.0
 11
7.319783
 21
6.391706
 31
0.0
  0
LINE
  8
0
 62
     0
 10
7.221783
 20
6.426288
 30
0.0
 11
7.319783
 21
6.524288
 31
0.0
  0
LINE
  8
0
 62
     0
 10
7.221783
 20
6.558871
 30
0.0
 11
7.319783
 21
6.656871
 31
0.0
  0
LINE
  8
0
 62
     0
 10
7.221783
 20
6.691453
 30
0.0
 11
7.319783
 21
6.789453
 31
0.0
  0
LINE
  8
0
 62
     0
 10
7.221783
 20
6.824036
 30
0.0
 11
7.319783
 21
6.922036
 31
0.0
  0
LINE
  8
0
 62
     0
 10
7.17093
 20
6.905765
 30
0.0
 11
7.319783
 21
7.054618
 31
0.0
  0
LINE
  8
0
 62
     0
 10
7.038347
 20
6.905765
 30
0.0
 11
7.090347
 21
6.957765
 31
0.0
  0
LINE
  8
0
 62
     0
 10
7.186347
 20
7.053765
 30
0.0
 11
7.254161
 21
7.121579
 31
0.0
  0
LINE
  8
0
 62
     0
 10
7.053765
 20
7.053765
 30
0.0
 11
7.145765
 21
7.145765
 31
0.0
  0
LINE
  8
0
 62
     0
 10
7.317765
 20
7.317765
 30
0.0
 11
7.319783
 21
7.319783
 31
0.0
  0
LINE
  8
0
 62
     0
 10
6.960182
 20
7.092765
 30
0.0
 11
7.013182
 21
7.145765
 31
0.0
  0
LINE
  8
0
 62
     0
 10
7.221783
 20
7.354366
 30
0.0
 11
7.319783
 21
7.452366
 31
0.0
  0
LINE
  8
0
 62
     0
 10
7.123182
 20
7.255765
 30
0.0
 11
7.176182
 21
7.308765
 31
0.0
  0
LINE
  8
0
 62
     0
 10
6.878783
 20
7.143948
 30
0.0
 11
6.880599
 21
7.145765
 31
0.0
  0
LINE
  8
0
 62
     0
 10
7.214599
 20
7.479765
 30
0.0
 11
7.301702
 21
7.566867
 31
0.0
  0
LINE
  8
0
 62
     0
 10
6.990599
 20
7.255765
 30
0.0
 11
7.043599
 21
7.308765
 31
0.0
  0
LINE
  8
0
 62
     0
 10
6.878783
 20
7.276531
 30
0.0
 11
6.911017
 21
7.308765
 31
0.0
  0
LINE
  8
0
 62
     0
 10
7.082017
 20
7.479765
 30
0.0
 11
7.207017
 21
7.604765
 31
0.0
  0
LINE
  8
0
 62
     0
 10
6.949434
 20
7.479765
 30
0.0
 11
7.074434
 21
7.604765
 31
0.0
  0
LINE
  8
0
 62
     0
 10
7.221783
 20
5.763376
 30
0.0
 11
7.319783
 21
5.861376
 31
0.0
  0
LINE
  8
0
 62
     0
 10
7.221783
 20
5.630793
 30
0.0
 11
7.319783
 21
5.728793
 31
0.0
  0
LINE
  8
0
 62
     0
 10
7.221783
 20
5.498211
 30
0.0
 11
7.319783
 21
5.596211
 31
0.0
  0
LINE
  8
0
 62
     0
 10
7.221783
 20
5.365628
 30
0.0
 11
7.319783
 21
5.463628
 31
0.0
  0
LINE
  8
0
 62
     0
 10
7.221783
 20
5.233045
 30
0.0
 11
7.319783
 21
5.331045
 31
0.0
  0
LINE
  8
0
 62
     0
 10
7.221783
 20
5.100463
 30
0.0
 11
7.319783
 21
5.198463
 31
0.0
  0
LINE
  8
0
 62
     0
 10
7.221783
 20
4.96788
 30
0.0
 11
7.319783
 21
5.06588
 31
0.0
  0
LINE
  8
0
 62
     0
 10
7.221783
 20
4.835298
 30
0.0
 11
7.319783
 21
4.933298
 31
0.0
  0
LINE
  8
0
 62
     0
 10
6.878783
 20
4.359715
 30
0.0
 11
6.899832
 21
4.380765
 31
0.0
  0
LINE
  8
0
 62
     0
 10
7.221783
 20
4.702715
 30
0.0
 11
7.319783
 21
4.800715
 31
0.0
  0
LINE
  8
0
 62
     0
 10
7.034832
 20
4.515765
 30
0.0
 11
7.086832
 21
4.567765
 31
0.0
  0
LINE
  8
0
 62
     0
 10
6.979415
 20
4.327765
 30
0.0
 11
7.071415
 21
4.419765
 31
0.0
  0
LINE
  8
0
 62
     0
 10
7.221783
 20
4.570133
 30
0.0
 11
7.319783
 21
4.668133
 31
0.0
  0
LINE
  8
0
 62
     0
 10
7.167415
 20
4.515765
 30
0.0
 11
7.219415
 21
4.567765
 31
0.0
  0
LINE
  8
0
 62
     0
 10
6.948997
 20
4.164765
 30
0.0
 11
7.001997
 21
4.217765
 31
0.0
  0
LINE
  8
0
 62
     0
 10
7.221783
 20
4.43755
 30
0.0
 11
7.319783
 21
4.53555
 31
0.0
  0
LINE
  8
0
 62
     0
 10
7.111997
 20
4.327765
 30
0.0
 11
7.203997
 21
4.419765
 31
0.0
  0
LINE
  8
0
 62
     0
 10
6.869783
 20
3.952968
 30
0.0
 11
6.91058
 21
3.993765
 31
0.0
  0
LINE
  8
0
 62
     0
 10
7.30658
 20
4.389765
 30
0.0
 11
7.319783
 21
4.402968
 31
0.0
  0
LINE
  8
0
 62
     0
 10
7.08158
 20
4.164765
 30
0.0
 11
7.13458
 21
4.217765
 31
0.0
  0
LINE
  8
0
 62
     0
 10
6.963163
 20
3.913765
 30
0.0
 11
7.043163
 21
3.993765
 31
0.0
  0
LINE
  8
0
 62
     0
 10
7.214163
 20
4.164765
 30
0.0
 11
7.247759
 21
4.198361
 31
0.0
  0
LINE
  8
0
 62
     0
 10
7.050745
 20
3.868765
 30
0.0
 11
7.175745
 21
3.993765
 31
0.0
  0
LINE
  8
0
 62
     0
 10
7.221783
 20
4.039803
 30
0.0
 11
7.319783
 21
4.137803
 31
0.0
  0
LINE
  8
0
 62
     0
 10
7.183328
 20
3.868765
 30
0.0
 11
7.319783
 21
4.00522
 31
0.0
  0
ENDBLK
  8
0
  0
BLOCK
  8
0
  2
*X2
 70
    65
 10
0.0
 20
0.0
 30
0.0
  3
*X
  0
LINE
  8
0
 62
     0
 10
11.930352
 20
5.036061
 30
0.0
 11
12.205056
 21
5.310765
 31
0.0
  0
LINE
  8
0
 62
     0
 10
12.645056
 20
5.750765
 30
0.0
 11
13.114352
 21
6.220061
 31
0.0
  0
LINE
  8
0
 62
     0
 10
11.462726
 20
5.098765
 30
0.0
 11
11.674726
 21
5.310765
 31
0.0
  0
LINE
  8
0
 62
     0
 10
12.722352
 20
6.358391
 30
0.0
 11
13.114352
 21
6.750391
 31
0.0
  0
LINE
  8
0
 62
     0
 10
12.114726
 20
5.750765
 30
0.0
 11
12.326726
 21
5.962765
 31
0.0
  0
LINE
  8
0
 62
     0
 10
11.584396
 20
5.750765
 30
0.0
 11
11.796396
 21
5.962765
 31
0.0
  0
LINE
  8
0
 62
     0
 10
12.480396
 20
6.646765
 30
0.0
 11
12.929748
 21
7.096117
 31
0.0
  0
LINE
  8
0
 62
     0
 10
11.950066
 20
6.646765
 30
0.0
 11
12.450066
 21
7.146765
 31
0.0
  0
LINE
  8
0
 62
     0
 10
11.419736
 20
6.646765
 30
0.0
 11
11.919736
 21
7.146765
 31
0.0
  0
LINE
  8
0
 62
     0
 10
11.930352
 20
4.505731
 30
0.0
 11
11.983386
 21
4.558765
 31
0.0
  0
LINE
  8
0
 62
     0
 10
12.367386
 20
4.942765
 30
0.0
 11
12.729813
 21
5.305192
 31
0.0
  0
LINE
  8
0
 62
     0
 10
12.305716
 20
4.350765
 30
0.0
 11
12.513716
 21
4.558765
 31
0.0
  0
LINE
  8
0
 62
     0
 10
12.722352
 20
4.767401
 30
0.0
 11
13.033381
 21
5.07843
 31
0.0
  0
LINE
  8
0
 62
     0
 10
12.722352
 20
4.237071
 30
0.0
 11
13.114352
 21
4.629071
 31
0.0
  0
LINE
  8
0
 62
     0
 10
12.722352
 20
3.706741
 30
0.0
 11
13.114352
 21
4.098741
 31
0.0
  0
LINE
  8
0
 62
     0
 10
13.07728
 20
3.531339
 30
0.0
 11
13.114352
 21
3.568411
 31
0.0
  0
ENDBLK
  8
0
  0
BLOCK
  8
0
  2
*D3
 70
    65
 10
0.0
 20
0.0
 30
0.0
  3
*D
  0
LINE
  8
0
  6
BYBLOCK
 62
     0
 10
19.267455
 20
2.548062
 30
0.0
 11
19.267455
 21
2.068813
 31
0.0
  0
LINE
  8
0
  6
BYBLOCK
 62
     0
 10
18.915455
 20
2.641062
 30
0.0
 11
18.915455
 21
2.068813
 31
0.0
  0
LINE
  8
0
  6
BYBLOCK
 62
     0
 10
19.514955
 20
2.196688
 30
0.0
 11
19.762455
 21
2.196688
 31
0.0
  0
LINE
  8
0
  6
BYBLOCK
 62
     0
 10
18.667955
 20
2.196688
 30
0.0
 11
18.420455
 21
2.196688
 31
0.0
  0
SOLID
  8
0
  6
BYBLOCK
 62
     0
 10
19.514955
 20
2.237938
 30
0.0
 11
19.514955
 21
2.155438
 31
0.0
 12
19.267455
 22
2.196688
 32
0.0
 13
19.267455
 23
2.196688
 33
0.0
  0
SOLID
  8
0
  6
BYBLOCK
 62
     0
 10
18.667955
 20
2.237938
 30
0.0
 11
18.667955
 21
2.155438
 31
0.0
 12
18.915455
 22
2.196688
 32
0.0
 13
18.915455
 23
2.196688
 33
0.0
  0
TEXT
  8
0
  6
BYBLOCK
 62
     0
 10
17.78108
 20
2.110751
 30
0.0
 40
0.171875
  1
 REF.
 41
0.75
  7
TXT
 72
     1
 11
18.038892
 21
2.196688
 31
0.0
 73
     2
  0
TEXT
  8
0
  6
BYBLOCK
 62
     0
 10
17.243971
 20
2.110751
 30
0.0
 40
0.171875
  1
0.352
 41
0.75
  7
TXT
 72
     1
 11
17.491041
 21
2.196688
 31
0.0
 73
     2
  0
POINT
  8
DEFPOINTS
  6
BYBLOCK
 62
     0
 10
19.267455
 20
2.634687
 30
0.0
  0
POINT
  8
DEFPOINTS
  6
BYBLOCK
 62
     0
 10
18.915455
 20
2.727687
 30
0.0
  0
POINT
  8
DEFPOINTS
  6
BYBLOCK
 62
     0
 10
18.915455
 20
2.196688
 30
0.0
  0
ENDBLK
  8
0
  0
BLOCK
  8
0
  2
*D4
 70
    65
 10
0.0
 20
0.0
 30
0.0
  3
*D
  0
LINE
  8
0
  6
BYBLOCK
 62
     0
 10
19.21883
 20
6.370687
 30
0.0
 11
18.198663
 21
6.370687
 31
0.0
  0
LINE
  8
0
  6
BYBLOCK
 62
     0
 10
19.21883
 20
2.634687
 30
0.0
 11
18.198663
 21
2.634687
 31
0.0
  0
LINE
  8
0
  6
BYBLOCK
 62
     0
 10
18.326538
 20
6.123187
 30
0.0
 11
18.326538
 21
4.712374
 31
0.0
  0
LINE
  8
0
  6
BYBLOCK
 62
     0
 10
18.326538
 20
2.882187
 30
0.0
 11
18.326538
 21
4.292999
 31
0.0
  0
SOLID
  8
0
  6
BYBLOCK
 62
     0
 10
18.285288
 20
6.123187
 30
0.0
 11
18.367788
 21
6.123187
 31
0.0
 12
18.326538
 22
6.370687
 32
0.0
 13
18.326538
 23
6.370687
 33
0.0
  0
SOLID
  8
0
  6
BYBLOCK
 62
     0
 10
18.285288
 20
2.882187
 30
0.0
 11
18.367788
 21
2.882187
 31
0.0
 12
18.326538
 22
2.634687
 32
0.0
 13
18.326538
 23
2.634687
 33
0.0
  0
TEXT
  8
0
  6
BYBLOCK
 62
     0
 10
18.068726
 20
4.416749
 30
0.0
 40
0.171875
  1
3.736
 41
0.75
  7
TXT
 72
     1
 11
18.326538
 21
4.502687
 31
0.0
 73
     2
  0
POINT
  8
DEFPOINTS
  6
BYBLOCK
 62
     0
 10
19.305455
 20
6.370687
 30
0.0
  0
POINT
  8
DEFPOINTS
  6
BYBLOCK
 62
     0
 10
19.305455
 20
2.634687
 30
0.0
  0
POINT
  8
DEFPOINTS
  6
BYBLOCK
 62
     0
 10
18.326538
 20
2.634687
 30
0.0
  0
ENDBLK
  8
0
  0
BLOCK
  8
0
  2
*D5
 70
    65
 10
0.0
 20
0.0
 30
0.0
  3
*D
  0
LINE
  8
0
  6
BYBLOCK
 62
     0
 10
20.403455
 20
2.659062
 30
0.0
 11
20.403455
 21
1.682438
 31
0.0
  0
LINE
  8
0
  6
BYBLOCK
 62
     0
 10
18.915455
 20
2.641062
 30
0.0
 11
18.915455
 21
1.682438
 31
0.0
  0
LINE
  8
0
  6
BYBLOCK
 62
     0
 10
20.155955
 20
1.810313
 30
0.0
 11
20.019533
 21
1.810313
 31
0.0
  0
LINE
  8
0
  6
BYBLOCK
 62
     0
 10
19.162955
 20
1.810313
 30
0.0
 11
19.299377
 21
1.810313
 31
0.0
  0
SOLID
  8
0
  6
BYBLOCK
 62
     0
 10
20.155955
 20
1.851563
 30
0.0
 11
20.155955
 21
1.769063
 31
0.0
 12
20.403455
 22
1.810313
 32
0.0
 13
20.403455
 23
1.810313
 33
0.0
  0
SOLID
  8
0
  6
BYBLOCK
 62
     0
 10
19.162955
 20
1.851563
 30
0.0
 11
19.162955
 21
1.769063
 31
0.0
 12
18.915455
 22
1.810313
 32
0.0
 13
18.915455
 23
1.810313
 33
0.0
  0
TEXT
  8
0
  6
BYBLOCK
 62
     0
 10
19.423127
 20
1.724376
 30
0.0
 40
0.171875
  1
1.488
 41
0.75
  7
TXT
 72
     1
 11
19.659455
 21
1.810313
 31
0.0
 73
     2
  0
POINT
  8
DEFPOINTS
  6
BYBLOCK
 62
     0
 10
20.403455
 20
2.745687
 30
0.0
  0
POINT
  8
DEFPOINTS
  6
BYBLOCK
 62
     0
 10
18.915455
 20
2.727687
 30
0.0
  0
POINT
  8
DEFPOINTS
  6
BYBLOCK
 62
     0
 10
18.915455
 20
1.810313
 30
0.0
  0
ENDBLK
  8
0
  0
BLOCK
  8
0
  2
*D6
 70
    65
 10
0.0
 20
0.0
 30
0.0
  3
*D
  0
LINE
  8
0
  6
BYBLOCK
 62
     0
 10
16.745749
 20
2.641062
 30
0.0
 11
16.745749
 21
1.69363
 31
0.0
  0
LINE
  8
0
  6
BYBLOCK
 62
     0
 10
16.295749
 20
2.631062
 30
0.0
 11
16.295749
 21
1.69363
 31
0.0
  0
LINE
  8
0
  6
BYBLOCK
 62
     0
 10
16.993249
 20
1.821505
 30
0.0
 11
17.240749
 21
1.821505
 31
0.0
  0
LINE
  8
0
  6
BYBLOCK
 62
     0
 10
16.048249
 20
1.821505
 30
0.0
 11
15.800749
 21
1.821505
 31
0.0
  0
SOLID
  8
0
  6
BYBLOCK
 62
     0
 10
16.993249
 20
1.862755
 30
0.0
 11
16.993249
 21
1.780255
 31
0.0
 12
16.745749
 22
1.821505
 32
0.0
 13
16.745749
 23
1.821505
 33
0.0
  0
SOLID
  8
0
  6
BYBLOCK
 62
     0
 10
16.048249
 20
1.862755
 30
0.0
 11
16.048249
 21
1.780255
 31
0.0
 12
16.295749
 22
1.821505
 32
0.0
 13
16.295749
 23
1.821505
 33
0.0
  0
TEXT
  8
0
  6
BYBLOCK
 62
     0
 10
15.204343
 20
1.735568
 30
0.0
 40
0.171875
  1
0.450
 41
0.75
  7
TXT
 72
     1
 11
15.440671
 21
1.821505
 31
0.0
 73
     2
  0
POINT
  8
DEFPOINTS
  6
BYBLOCK
 62
     0
 10
16.745749
 20
2.727687
 30
0.0
  0
POINT
  8
DEFPOINTS
  6
BYBLOCK
 62
     0
 10
16.295749
 20
2.717687
 30
0.0
  0
POINT
  8
DEFPOINTS
  6
BYBLOCK
 62
     0
 10
16.295749
 20
1.821505
 30
0.0
  0
ENDBLK
  8
0
  0
BLOCK
  8
0
  2
*D7
 70
    65
 10
0.0
 20
0.0
 30
0.0
  3
*D
  0
LINE
  8
0
  6
BYBLOCK
 62
     0
 10
8.751989
 20
2.659062
 30
0.0
 11
8.751989
 21
1.052983
 31
0.0
  0
LINE
  8
0
  6
BYBLOCK
 62
     0
 10
7.736989
 20
2.843062
 30
0.0
 11
7.736989
 21
1.052983
 31
0.0
  0
LINE
  8
0
  6
BYBLOCK
 62
     0
 10
8.999489
 20
1.180858
 30
0.0
 11
9.246989
 21
1.180858
 31
0.0
  0
LINE
  8
0
  6
BYBLOCK
 62
     0
 10
7.489489
 20
1.180858
 30
0.0
 11
7.241989
 21
1.180858
 31
0.0
  0
SOLID
  8
0
  6
BYBLOCK
 62
     0
 10
8.999489
 20
1.222108
 30
0.0
 11
8.999489
 21
1.139608
 31
0.0
 12
8.751989
 22
1.180858
 32
0.0
 13
8.751989
 23
1.180858
 33
0.0
  0
SOLID
  8
0
  6
BYBLOCK
 62
     0
 10
7.489489
 20
1.222108
 30
0.0
 11
7.489489
 21
1.139608
 31
0.0
 12
7.736989
 22
1.180858
 32
0.0
 13
7.736989
 23
1.180858
 33
0.0
  0
TEXT
  8
0
  6
BYBLOCK
 62
     0
 10
8.040387
 20
1.09492
 30
0.0
 40
0.171875
  1
1.015
 41
0.75
  7
TXT
 72
     1
 11
8.244489
 21
1.180858
 31
0.0
 73
     2
  0
POINT
  8
DEFPOINTS
  6
BYBLOCK
 62
     0
 10
8.751989
 20
2.745687
 30
0.0
  0
POINT
  8
DEFPOINTS
  6
BYBLOCK
 62
     0
 10
7.736989
 20
2.929687
 30
0.0
  0
POINT
  8
DEFPOINTS
  6
BYBLOCK
 62
     0
 10
7.736989
 20
1.180858
 30
0.0
  0
ENDBLK
  8
0
  0
BLOCK
  8
0
  2
*D8
 70
    65
 10
0.0
 20
0.0
 30
0.0
  3
*D
  0
LINE
  8
0
  6
BYBLOCK
 62
     0
 10
8.751989
 20
2.659062
 30
0.0
 11
8.751989
 21
1.439358
 31
0.0
  0
LINE
  8
0
  6
BYBLOCK
 62
     0
 10
7.868989
 20
3.296562
 30
0.0
 11
7.868989
 21
1.439358
 31
0.0
  0
LINE
  8
0
  6
BYBLOCK
 62
     0
 10
8.999489
 20
1.567233
 30
0.0
 11
9.246989
 21
1.567233
 31
0.0
  0
LINE
  8
0
  6
BYBLOCK
 62
     0
 10
7.621489
 20
1.567233
 30
0.0
 11
7.373989
 21
1.567233
 31
0.0
  0
SOLID
  8
0
  6
BYBLOCK
 62
     0
 10
8.999489
 20
1.608483
 30
0.0
 11
8.999489
 21
1.525983
 31
0.0
 12
8.751989
 22
1.567233
 32
0.0
 13
8.751989
 23
1.567233
 33
0.0
  0
SOLID
  8
0
  6
BYBLOCK
 62
     0
 10
7.621489
 20
1.608483
 30
0.0
 11
7.621489
 21
1.525983
 31
0.0
 12
7.868989
 22
1.567233
 32
0.0
 13
7.868989
 23
1.567233
 33
0.0
  0
TEXT
  8
0
  6
BYBLOCK
 62
     0
 10
8.063418
 20
1.481295
 30
0.0
 40
0.171875
  1
0.883
 41
0.75
  7
TXT
 72
     1
 11
8.310489
 21
1.567233
 31
0.0
 73
     2
  0
POINT
  8
DEFPOINTS
  6
BYBLOCK
 62
     0
 10
8.751989
 20
2.745687
 30
0.0
  0
POINT
  8
DEFPOINTS
  6
BYBLOCK
 62
     0
 10
7.868989
 20
3.383187
 30
0.0
  0
POINT
  8
DEFPOINTS
  6
BYBLOCK
 62
     0
 10
7.868989
 20
1.567233
 30
0.0
  0
ENDBLK
  8
0
  0
BLOCK
  8
0
  2
*D9
 70
    65
 10
0.0
 20
0.0
 30
0.0
  3
*D
  0
LINE
  8
0
  6
BYBLOCK
 62
     0
 10
8.255989
 20
2.64751
 30
0.0
 11
8.255989
 21
1.825733
 31
0.0
  0
LINE
  8
0
  6
BYBLOCK
 62
     0
 10
8.751989
 20
2.659062
 30
0.0
 11
8.751989
 21
1.825733
 31
0.0
  0
LINE
  8
0
  6
BYBLOCK
 62
     0
 10
8.008489
 20
1.953608
 30
0.0
 11
7.760989
 21
1.953608
 31
0.0
  0
LINE
  8
0
  6
BYBLOCK
 62
     0
 10
8.999489
 20
1.953608
 30
0.0
 11
9.246989
 21
1.953608
 31
0.0
  0
SOLID
  8
0
  6
BYBLOCK
 62
     0
 10
8.008489
 20
1.994858
 30
0.0
 11
8.008489
 21
1.912358
 31
0.0
 12
8.255989
 22
1.953608
 32
0.0
 13
8.255989
 23
1.953608
 33
0.0
  0
SOLID
  8
0
  6
BYBLOCK
 62
     0
 10
8.999489
 20
1.994858
 30
0.0
 11
8.999489
 21
1.912358
 31
0.0
 12
8.751989
 22
1.953608
 32
0.0
 13
8.751989
 23
1.953608
 33
0.0
  0
TEXT
  8
0
  6
BYBLOCK
 62
     0
 10
9.370739
 20
1.86767
 30
0.0
 40
0.171875
  1
0.496
 41
0.75
  7
TXT
 72
     1
 11
9.617809
 21
1.953608
 31
0.0
 73
     2
  0
POINT
  8
DEFPOINTS
  6
BYBLOCK
 62
     0
 10
8.255989
 20
2.734135
 30
0.0
  0
POINT
  8
DEFPOINTS
  6
BYBLOCK
 62
     0
 10
8.751989
 20
2.745687
 30
0.0
  0
POINT
  8
DEFPOINTS
  6
BYBLOCK
 62
     0
 10
8.751989
 20
1.953608
 30
0.0
  0
ENDBLK
  8
0
  0
BLOCK
  8
0
  2
*D10
 70
    65
 10
0.0
 20
0.0
 30
0.0
  3
*D
  0
LINE
  8
0
  6
BYBLOCK
 62
     0
 10
7.653989
 20
2.548062
 30
0.0
 11
7.653989
 21
0.666608
 31
0.0
  0
LINE
  8
0
  6
BYBLOCK
 62
     0
 10
8.751989
 20
2.79908
 30
0.0
 11
8.751989
 21
0.666608
 31
0.0
  0
LINE
  8
0
  6
BYBLOCK
 62
     0
 10
7.406489
 20
0.794483
 30
0.0
 11
7.158989
 21
0.794483
 31
0.0
  0
LINE
  8
0
  6
BYBLOCK
 62
     0
 10
8.999489
 20
0.794483
 30
0.0
 11
9.246989
 21
0.794483
 31
0.0
  0
SOLID
  8
0
  6
BYBLOCK
 62
     0
 10
7.406489
 20
0.835733
 30
0.0
 11
7.406489
 21
0.753233
 31
0.0
 12
7.653989
 22
0.794483
 32
0.0
 13
7.653989
 23
0.794483
 33
0.0
  0
SOLID
  8
0
  6
BYBLOCK
 62
     0
 10
8.999489
 20
0.835733
 30
0.0
 11
8.999489
 21
0.753233
 31
0.0
 12
8.751989
 22
0.794483
 32
0.0
 13
8.751989
 23
0.794483
 33
0.0
  0
TEXT
  8
0
  6
BYBLOCK
 62
     0
 10
7.977403
 20
0.708545
 30
0.0
 40
0.171875
  1
1.098
 41
0.75
  7
TXT
 72
     1
 11
8.202989
 21
0.794483
 31
0.0
 73
     2
  0
POINT
  8
DEFPOINTS
  6
BYBLOCK
 62
     0
 10
7.653989
 20
2.634687
 30
0.0
  0
POINT
  8
DEFPOINTS
  6
BYBLOCK
 62
     0
 10
8.751989
 20
2.885705
 30
0.0
  0
POINT
  8
DEFPOINTS
  6
BYBLOCK
 62
     0
 10
8.751989
 20
0.794483
 30
0.0
  0
ENDBLK
  8
0
  0
BLOCK
  8
0
  2
*D11
 70
    65
 10
0.0
 20
0.0
 30
0.0
  3
*D
  0
LINE
  8
0
  6
BYBLOCK
 62
     0
 10
18.438161
 20
9.976277
 30
0.0
 11
19.843631
 21
8.926408
 31
0.0
  0
LINE
  8
0
  6
BYBLOCK
 62
     0
 10
18.438161
 20
11.01596
 30
0.0
 11
19.843631
 21
12.065828
 31
0.0
  0
ARC
  8
0
  6
BYBLOCK
 62
     0
 10
17.742245
 20
10.496118
 30
0.0
 40
2.495065
 50
328.926547
 51
355.179124
  0
ARC
  8
0
  6
BYBLOCK
 62
     0
 10
17.742245
 20
10.496118
 30
0.0
 40
2.495065
 50
4.820876
 51
31.073453
  0
SOLID
  8
0
  6
BYBLOCK
 62
     0
 10
19.913515
 20
9.185308
 30
0.0
 11
19.845052
 21
9.231341
 31
0.0
 12
19.741183
 22
9.002936
 32
0.0
 13
19.741183
 23
9.002936
 33
0.0
  0
SOLID
  8
0
  6
BYBLOCK
 62
     0
 10
19.845052
 20
11.760896
 30
0.0
 11
19.913515
 21
11.806929
 31
0.0
 12
19.741183
 22
11.989301
 32
0.0
 13
19.741183
 23
11.989301
 33
0.0
  0
TEXT
  8
0
  6
BYBLOCK
 62
     0
 10
20.086919
 20
10.410181
 30
0.0
 40
0.171875
  1
74%%d
 41
0.75
  7
TXT
 72
     1
 11
20.23731
 21
10.496118
 31
0.0
 73
     2
  0
POINT
  8
DEFPOINTS
  6
BYBLOCK
 62
     0
 10
20.235654
 20
10.405252
 30
0.0
  0
POINT
  8
DEFPOINTS
  6
BYBLOCK
 62
     0
 10
18.036761
 20
10.276118
 30
0.0
  0
POINT
  8
DEFPOINTS
  6
BYBLOCK
 62
     0
 10
18.036761
 20
10.716118
 30
0.0
  0
POINT
  8
DEFPOINTS
  6
BYBLOCK
 62
     0
 10
18.368761
 20
10.964118
 30
0.0
  0
POINT
  8
DEFPOINTS
  6
BYBLOCK
 62
     0
 10
18.368761
 20
10.028118
 30
0.0
  0
ENDBLK
  8
0
  0
BLOCK
  8
0
  2
*D12
 70
    65
 10
0.0
 20
0.0
 30
0.0
  3
*D
  0
LINE
  8
0
  6
BYBLOCK
 62
     0
 10
12.961867
 20
2.641062
 30
0.0
 11
12.961867
 21
0.22973
 31
0.0
  0
LINE
  8
0
  6
BYBLOCK
 62
     0
 10
14.845867
 20
2.641062
 30
0.0
 11
14.845867
 21
0.22973
 31
0.0
  0
LINE
  8
0
  6
BYBLOCK
 62
     0
 10
13.209367
 20
0.357605
 30
0.0
 11
13.543788
 21
0.357605
 31
0.0
  0
LINE
  8
0
  6
BYBLOCK
 62
     0
 10
14.598367
 20
0.357605
 30
0.0
 11
14.263945
 21
0.357605
 31
0.0
  0
SOLID
  8
0
  6
BYBLOCK
 62
     0
 10
13.209367
 20
0.398855
 30
0.0
 11
13.209367
 21
0.316355
 31
0.0
 12
12.961867
 22
0.357605
 32
0.0
 13
12.961867
 23
0.357605
 33
0.0
  0
SOLID
  8
0
  6
BYBLOCK
 62
     0
 10
14.598367
 20
0.398855
 30
0.0
 11
14.598367
 21
0.316355
 31
0.0
 12
14.845867
 22
0.357605
 32
0.0
 13
14.845867
 23
0.357605
 33
0.0
  0
TEXT
  8
0
  6
BYBLOCK
 62
     0
 10
13.667538
 20
0.271668
 30
0.0
 40
0.171875
  1
1.884
 41
0.75
  7
TXT
 72
     1
 11
13.903867
 21
0.357605
 31
0.0
 73
     2
  0
POINT
  8
DEFPOINTS
  6
BYBLOCK
 62
     0
 10
12.961867
 20
2.727687
 30
0.0
  0
POINT
  8
DEFPOINTS
  6
BYBLOCK
 62
     0
 10
14.845867
 20
2.727687
 30
0.0
  0
POINT
  8
DEFPOINTS
  6
BYBLOCK
 62
     0
 10
14.845867
 20
0.357605
 30
0.0
  0
ENDBLK
  8
0
  0
BLOCK
  8
0
  2
*D13
 70
    65
 10
0.0
 20
0.0
 30
0.0
  3
*D
  0
LINE
  8
0
  6
BYBLOCK
 62
     0
 10
13.425242
 20
3.224687
 30
0.0
 11
11.392193
 21
3.224687
 31
0.0
  0
LINE
  8
0
  6
BYBLOCK
 62
     0
 10
13.427242
 20
5.771687
 30
0.0
 11
11.392193
 21
5.771687
 31
0.0
  0
LINE
  8
0
  6
BYBLOCK
 62
     0
 10
11.520068
 20
3.472187
 30
0.0
 11
11.520068
 21
4.288499
 31
0.0
  0
LINE
  8
0
  6
BYBLOCK
 62
     0
 10
11.520068
 20
5.524187
 30
0.0
 11
11.520068
 21
4.707874
 31
0.0
  0
SOLID
  8
0
  6
BYBLOCK
 62
     0
 10
11.478818
 20
3.472187
 30
0.0
 11
11.561318
 21
3.472187
 31
0.0
 12
11.520068
 22
3.224687
 32
0.0
 13
11.520068
 23
3.224687
 33
0.0
  0
SOLID
  8
0
  6
BYBLOCK
 62
     0
 10
11.478818
 20
5.524187
 30
0.0
 11
11.561318
 21
5.524187
 31
0.0
 12
11.520068
 22
5.771687
 32
0.0
 13
11.520068
 23
5.771687
 33
0.0
  0
TEXT
  8
0
  6
BYBLOCK
 62
     0
 10
11.262256
 20
4.412249
 30
0.0
 40
0.171875
  1
2.547
 41
0.75
  7
TXT
 72
     1
 11
11.520068
 21
4.498187
 31
0.0
 73
     2
  0
POINT
  8
DEFPOINTS
  6
BYBLOCK
 62
     0
 10
13.511867
 20
3.224687
 30
0.0
  0
POINT
  8
DEFPOINTS
  6
BYBLOCK
 62
     0
 10
13.513867
 20
5.771687
 30
0.0
  0
POINT
  8
DEFPOINTS
  6
BYBLOCK
 62
     0
 10
11.520068
 20
5.771687
 30
0.0
  0
ENDBLK
  8
0
  0
BLOCK
  8
0
  2
*D14
 70
    65
 10
0.0
 20
0.0
 30
0.0
  3
*D
  0
LINE
  8
0
  6
BYBLOCK
 62
     0
 10
13.179242
 20
3.038687
 30
0.0
 11
12.071615
 21
3.038687
 31
0.0
  0
LINE
  8
0
  6
BYBLOCK
 62
     0
 10
13.179242
 20
5.966687
 30
0.0
 11
12.071615
 21
5.966687
 31
0.0
  0
LINE
  8
0
  6
BYBLOCK
 62
     0
 10
12.19949
 20
3.286187
 30
0.0
 11
12.19949
 21
4.292999
 31
0.0
  0
LINE
  8
0
  6
BYBLOCK
 62
     0
 10
12.19949
 20
5.719187
 30
0.0
 11
12.19949
 21
4.712374
 31
0.0
  0
SOLID
  8
0
  6
BYBLOCK
 62
     0
 10
12.15824
 20
3.286187
 30
0.0
 11
12.24074
 21
3.286187
 31
0.0
 12
12.19949
 22
3.038687
 32
0.0
 13
12.19949
 23
3.038687
 33
0.0
  0
SOLID
  8
0
  6
BYBLOCK
 62
     0
 10
12.15824
 20
5.719187
 30
0.0
 11
12.24074
 21
5.719187
 31
0.0
 12
12.19949
 22
5.966687
 32
0.0
 13
12.19949
 23
5.966687
 33
0.0
  0
TEXT
  8
0
  6
BYBLOCK
 62
     0
 10
11.941677
 20
4.416749
 30
0.0
 40
0.171875
  1
2.928
 41
0.75
  7
TXT
 72
     1
 11
12.19949
 21
4.502687
 31
0.0
 73
     2
  0
POINT
  8
DEFPOINTS
  6
BYBLOCK
 62
     0
 10
13.265867
 20
3.038687
 30
0.0
  0
POINT
  8
DEFPOINTS
  6
BYBLOCK
 62
     0
 10
13.265867
 20
5.966687
 30
0.0
  0
POINT
  8
DEFPOINTS
  6
BYBLOCK
 62
     0
 10
12.19949
 20
5.966687
 30
0.0
  0
ENDBLK
  8
0
  0
BLOCK
  8
0
  2
*D15
 70
    65
 10
0.0
 20
0.0
 30
0.0
  3
*D
  0
LINE
  8
0
  6
BYBLOCK
 62
     0
 10
13.425242
 20
3.224687
 30
0.0
 11
11.392193
 21
3.224687
 31
0.0
  0
LINE
  8
0
  6
BYBLOCK
 62
     0
 10
12.968242
 20
2.634687
 30
0.0
 11
11.392193
 21
2.634687
 31
0.0
  0
LINE
  8
0
  6
BYBLOCK
 62
     0
 10
11.520068
 20
3.472187
 30
0.0
 11
11.520068
 21
3.719687
 31
0.0
  0
LINE
  8
0
  6
BYBLOCK
 62
     0
 10
11.520068
 20
2.387187
 30
0.0
 11
11.520068
 21
2.139687
 31
0.0
  0
SOLID
  8
0
  6
BYBLOCK
 62
     0
 10
11.478818
 20
3.472187
 30
0.0
 11
11.561318
 21
3.472187
 31
0.0
 12
11.520068
 22
3.224687
 32
0.0
 13
11.520068
 23
3.224687
 33
0.0
  0
SOLID
  8
0
  6
BYBLOCK
 62
     0
 10
11.478818
 20
2.387187
 30
0.0
 11
11.561318
 21
2.387187
 31
0.0
 12
11.520068
 22
2.634687
 32
0.0
 13
11.520068
 23
2.634687
 33
0.0
  0
TEXT
  8
0
  6
BYBLOCK
 62
     0
 10
11.28374
 20
2.843749
 30
0.0
 40
0.171875
  1
0.590
 41
0.75
  7
TXT
 72
     1
 11
11.520068
 21
2.929687
 31
0.0
 73
     2
  0
POINT
  8
DEFPOINTS
  6
BYBLOCK
 62
     0
 10
13.511867
 20
3.224687
 30
0.0
  0
POINT
  8
DEFPOINTS
  6
BYBLOCK
 62
     0
 10
13.054867
 20
2.634687
 30
0.0
  0
POINT
  8
DEFPOINTS
  6
BYBLOCK
 62
     0
 10
11.520068
 20
2.634687
 30
0.0
  0
ENDBLK
  8
0
  0
BLOCK
  8
0
  2
*D16
 70
    65
 10
0.0
 20
0.0
 30
0.0
  3
*D
  0
LINE
  8
0
  6
BYBLOCK
 62
     0
 10
13.179242
 20
3.038687
 30
0.0
 11
12.071615
 21
3.038687
 31
0.0
  0
LINE
  8
0
  6
BYBLOCK
 62
     0
 10
12.968242
 20
2.634687
 30
0.0
 11
12.071615
 21
2.634687
 31
0.0
  0
LINE
  8
0
  6
BYBLOCK
 62
     0
 10
12.19949
 20
3.286187
 30
0.0
 11
12.19949
 21
3.533687
 31
0.0
  0
LINE
  8
0
  6
BYBLOCK
 62
     0
 10
12.19949
 20
2.387187
 30
0.0
 11
12.19949
 21
2.139687
 31
0.0
  0
SOLID
  8
0
  6
BYBLOCK
 62
     0
 10
12.15824
 20
3.286187
 30
0.0
 11
12.24074
 21
3.286187
 31
0.0
 12
12.19949
 22
3.038687
 32
0.0
 13
12.19949
 23
3.038687
 33
0.0
  0
SOLID
  8
0
  6
BYBLOCK
 62
     0
 10
12.15824
 20
2.387187
 30
0.0
 11
12.24074
 21
2.387187
 31
0.0
 12
12.19949
 22
2.634687
 32
0.0
 13
12.19949
 23
2.634687
 33
0.0
  0
TEXT
  8
0
  6
BYBLOCK
 62
     0
 10
11.963162
 20
2.750749
 30
0.0
 40
0.171875
  1
0.404
 41
0.75
  7
TXT
 72
     1
 11
12.19949
 21
2.836687
 31
0.0
 73
     2
  0
POINT
  8
DEFPOINTS
  6
BYBLOCK
 62
     0
 10
13.265867
 20
3.038687
 30
0.0
  0
POINT
  8
DEFPOINTS
  6
BYBLOCK
 62
     0
 10
13.054867
 20
2.634687
 30
0.0
  0
POINT
  8
DEFPOINTS
  6
BYBLOCK
 62
     0
 10
12.19949
 20
2.634687
 30
0.0
  0
ENDBLK
  8
0
  0
BLOCK
  8
0
  2
*D17
 70
    65
 10
0.0
 20
0.0
 30
0.0
  3
*D
  0
LINE
  8
0
  6
BYBLOCK
 62
     0
 10
13.256867
 20
2.943062
 30
0.0
 11
13.256867
 21
1.388855
 31
0.0
  0
LINE
  8
0
  6
BYBLOCK
 62
     0
 10
14.541867
 20
2.952062
 30
0.0
 11
14.541867
 21
1.388855
 31
0.0
  0
LINE
  8
0
  6
BYBLOCK
 62
     0
 10
13.009367
 20
1.51673
 30
0.0
 11
12.761867
 21
1.51673
 31
0.0
  0
LINE
  8
0
  6
BYBLOCK
 62
     0
 10
14.789367
 20
1.51673
 30
0.0
 11
15.036867
 21
1.51673
 31
0.0
  0
SOLID
  8
0
  6
BYBLOCK
 62
     0
 10
13.009367
 20
1.55798
 30
0.0
 11
13.009367
 21
1.47548
 31
0.0
 12
13.256867
 22
1.51673
 32
0.0
 13
13.256867
 23
1.51673
 33
0.0
  0
SOLID
  8
0
  6
BYBLOCK
 62
     0
 10
14.789367
 20
1.55798
 30
0.0
 11
14.789367
 21
1.47548
 31
0.0
 12
14.541867
 22
1.51673
 32
0.0
 13
14.541867
 23
1.51673
 33
0.0
  0
TEXT
  8
0
  6
BYBLOCK
 62
     0
 10
13.663038
 20
1.430793
 30
0.0
 40
0.171875
  1
1.285
 41
0.75
  7
TXT
 72
     1
 11
13.899367
 21
1.51673
 31
0.0
 73
     2
  0
POINT
  8
DEFPOINTS
  6
BYBLOCK
 62
     0
 10
13.256867
 20
3.029687
 30
0.0
  0
POINT
  8
DEFPOINTS
  6
BYBLOCK
 62
     0
 10
14.541867
 20
3.038687
 30
0.0
  0
POINT
  8
DEFPOINTS
  6
BYBLOCK
 62
     0
 10
14.541867
 20
1.51673
 30
0.0
  0
ENDBLK
  8
0
  0
BLOCK
  8
0
  2
*D18
 70
    65
 10
0.0
 20
0.0
 30
0.0
  3
*D
  0
LINE
  8
0
  6
BYBLOCK
 62
     0
 10
13.513867
 20
3.147062
 30
0.0
 11
13.513867
 21
0.616105
 31
0.0
  0
LINE
  8
0
  6
BYBLOCK
 62
     0
 10
14.293867
 20
3.147062
 30
0.0
 11
14.293867
 21
0.616105
 31
0.0
  0
LINE
  8
0
  6
BYBLOCK
 62
     0
 10
13.266367
 20
0.74398
 30
0.0
 11
13.018867
 21
0.74398
 31
0.0
  0
LINE
  8
0
  6
BYBLOCK
 62
     0
 10
14.541367
 20
0.74398
 30
0.0
 11
14.788867
 21
0.74398
 31
0.0
  0
SOLID
  8
0
  6
BYBLOCK
 62
     0
 10
13.266367
 20
0.78523
 30
0.0
 11
13.266367
 21
0.70273
 31
0.0
 12
13.513867
 22
0.74398
 32
0.0
 13
13.513867
 23
0.74398
 33
0.0
  0
SOLID
  8
0
  6
BYBLOCK
 62
     0
 10
14.541367
 20
0.78523
 30
0.0
 11
14.541367
 21
0.70273
 31
0.0
 12
14.293867
 22
0.74398
 32
0.0
 13
14.293867
 23
0.74398
 33
0.0
  0
TEXT
  8
0
  6
BYBLOCK
 62
     0
 10
13.667538
 20
0.658043
 30
0.0
 40
0.171875
  1
0.780
 41
0.75
  7
TXT
 72
     1
 11
13.903867
 21
0.74398
 31
0.0
 73
     2
  0
POINT
  8
DEFPOINTS
  6
BYBLOCK
 62
     0
 10
13.513867
 20
3.233687
 30
0.0
  0
POINT
  8
DEFPOINTS
  6
BYBLOCK
 62
     0
 10
14.293867
 20
3.233687
 30
0.0
  0
POINT
  8
DEFPOINTS
  6
BYBLOCK
 62
     0
 10
14.293867
 20
0.74398
 30
0.0
  0
ENDBLK
  8
0
  0
BLOCK
  8
0
  2
*D19
 70
    65
 10
0.0
 20
0.0
 30
0.0
  3
*D
  0
LINE
  8
0
  6
BYBLOCK
 62
     0
 10
13.513867
 20
3.147062
 30
0.0
 11
13.513867
 21
1.00248
 31
0.0
  0
LINE
  8
0
  6
BYBLOCK
 62
     0
 10
12.961867
 20
2.641062
 30
0.0
 11
12.961867
 21
1.00248
 31
0.0
  0
LINE
  8
0
  6
BYBLOCK
 62
     0
 10
13.761367
 20
1.130355
 30
0.0
 11
14.008867
 21
1.130355
 31
0.0
  0
LINE
  8
0
  6
BYBLOCK
 62
     0
 10
12.714367
 20
1.130355
 30
0.0
 11
12.466867
 21
1.130355
 31
0.0
  0
SOLID
  8
0
  6
BYBLOCK
 62
     0
 10
13.761367
 20
1.171605
 30
0.0
 11
13.761367
 21
1.089105
 31
0.0
 12
13.513867
 22
1.130355
 32
0.0
 13
13.513867
 23
1.130355
 33
0.0
  0
SOLID
  8
0
  6
BYBLOCK
 62
     0
 10
12.714367
 20
1.171605
 30
0.0
 11
12.714367
 21
1.089105
 31
0.0
 12
12.961867
 22
1.130355
 32
0.0
 13
12.961867
 23
1.130355
 33
0.0
  0
TEXT
  8
0
  6
BYBLOCK
 62
     0
 10
11.848976
 20
1.044418
 30
0.0
 40
0.171875
  1
0.552
 41
0.75
  7
TXT
 72
     1
 11
12.096046
 21
1.130355
 31
0.0
 73
     2
  0
POINT
  8
DEFPOINTS
  6
BYBLOCK
 62
     0
 10
13.513867
 20
3.233687
 30
0.0
  0
POINT
  8
DEFPOINTS
  6
BYBLOCK
 62
     0
 10
12.961867
 20
2.727687
 30
0.0
  0
POINT
  8
DEFPOINTS
  6
BYBLOCK
 62
     0
 10
12.961867
 20
1.130355
 30
0.0
  0
ENDBLK
  8
0
  0
BLOCK
  8
0
  2
*D20
 70
    65
 10
0.0
 20
0.0
 30
0.0
  3
*D
  0
LINE
  8
0
  6
BYBLOCK
 62
     0
 10
13.256867
 20
2.943062
 30
0.0
 11
13.256867
 21
1.77523
 31
0.0
  0
LINE
  8
0
  6
BYBLOCK
 62
     0
 10
12.961867
 20
2.641062
 30
0.0
 11
12.961867
 21
1.77523
 31
0.0
  0
LINE
  8
0
  6
BYBLOCK
 62
     0
 10
13.504367
 20
1.903105
 30
0.0
 11
13.751867
 21
1.903105
 31
0.0
  0
LINE
  8
0
  6
BYBLOCK
 62
     0
 10
12.714367
 20
1.903105
 30
0.0
 11
12.466867
 21
1.903105
 31
0.0
  0
SOLID
  8
0
  6
BYBLOCK
 62
     0
 10
13.504367
 20
1.944355
 30
0.0
 11
13.504367
 21
1.861855
 31
0.0
 12
13.256867
 22
1.903105
 32
0.0
 13
13.256867
 23
1.903105
 33
0.0
  0
SOLID
  8
0
  6
BYBLOCK
 62
     0
 10
12.714367
 20
1.944355
 30
0.0
 11
12.714367
 21
1.861855
 31
0.0
 12
12.961867
 22
1.903105
 32
0.0
 13
12.961867
 23
1.903105
 33
0.0
  0
TEXT
  8
0
  6
BYBLOCK
 62
     0
 10
11.848976
 20
1.817168
 30
0.0
 40
0.171875
  1
0.295
 41
0.75
  7
TXT
 72
     1
 11
12.096046
 21
1.903105
 31
0.0
 73
     2
  0
POINT
  8
DEFPOINTS
  6
BYBLOCK
 62
     0
 10
13.256867
 20
3.029687
 30
0.0
  0
POINT
  8
DEFPOINTS
  6
BYBLOCK
 62
     0
 10
12.961867
 20
2.727687
 30
0.0
  0
POINT
  8
DEFPOINTS
  6
BYBLOCK
 62
     0
 10
12.961867
 20
1.903105
 30
0.0
  0
ENDBLK
  8
0
  0
BLOCK
  8
0
  2
*D21
 70
    65
 10
0.0
 20
0.0
 30
0.0
  3
*D
  0
LINE
  8
0
  6
BYBLOCK
 62
     0
 10
17.158136
 20
9.716118
 30
0.0
 11
15.728021
 21
9.716118
 31
0.0
  0
LINE
  8
0
  6
BYBLOCK
 62
     0
 10
17.158136
 20
9.316118
 30
0.0
 11
15.728021
 21
9.316118
 31
0.0
  0
LINE
  8
0
  6
BYBLOCK
 62
     0
 10
15.855896
 20
9.963618
 30
0.0
 11
15.855896
 21
10.211118
 31
0.0
  0
LINE
  8
0
  6
BYBLOCK
 62
     0
 10
15.855896
 20
9.068618
 30
0.0
 11
15.855896
 21
8.821118
 31
0.0
  0
LINE
  8
0
  6
BYBLOCK
 62
     0
 10
15.855896
 20
8.821118
 30
0.0
 11
15.608396
 21
8.821118
 31
0.0
  0
SOLID
  8
0
  6
BYBLOCK
 62
     0
 10
15.814646
 20
9.963618
 30
0.0
 11
15.897146
 21
9.963618
 31
0.0
 12
15.855896
 22
9.716118
 32
0.0
 13
15.855896
 23
9.716118
 33
0.0
  0
SOLID
  8
0
  6
BYBLOCK
 62
     0
 10
15.814646
 20
9.068618
 30
0.0
 11
15.897146
 21
9.068618
 31
0.0
 12
15.855896
 22
9.316118
 32
0.0
 13
15.855896
 23
9.316118
 33
0.0
  0
TEXT
  8
0
  6
BYBLOCK
 62
     0
 10
14.947537
 20
8.735181
 30
0.0
 40
0.171875
  1
R
 41
0.75
  7
TXT
 72
     1
 11
14.990505
 21
8.821118
 31
0.0
 73
     2
  0
TEXT
  8
0
  6
BYBLOCK
 62
     0
 10
15.076443
 20
8.735181
 30
0.0
 40
0.171875
  1
0.100
 41
0.75
  7
TXT
 72
     1
 11
15.280545
 21
8.821118
 31
0.0
 73
     2
  0
POINT
  8
DEFPOINTS
  6
BYBLOCK
 62
     0
 10
17.244761
 20
9.716118
 30
0.0
  0
POINT
  8
DEFPOINTS
  6
BYBLOCK
 62
     0
 10
17.244761
 20
9.316118
 30
0.0
  0
POINT
  8
DEFPOINTS
  6
BYBLOCK
 62
     0
 10
15.855896
 20
9.316118
 30
0.0
  0
ENDBLK
  8
0
  0
BLOCK
  8
0
  2
*D22
 70
    65
 10
0.0
 20
0.0
 30
0.0
  3
*D
  0
LINE
  8
0
  6
BYBLOCK
 62
     0
 10
18.515386
 20
10.964118
 30
0.0
 11
19.446035
 21
10.964118
 31
0.0
  0
LINE
  8
0
  6
BYBLOCK
 62
     0
 10
18.515386
 20
10.028118
 30
0.0
 11
19.446035
 21
10.028118
 31
0.0
  0
LINE
  8
0
  6
BYBLOCK
 62
     0
 10
19.31816
 20
11.211618
 30
0.0
 11
19.31816
 21
11.459118
 31
0.0
  0
LINE
  8
0
  6
BYBLOCK
 62
     0
 10
19.31816
 20
9.780618
 30
0.0
 11
19.31816
 21
9.533118
 31
0.0
  0
SOLID
  8
0
  6
BYBLOCK
 62
     0
 10
19.27691
 20
11.211618
 30
0.0
 11
19.35941
 21
11.211618
 31
0.0
 12
19.31816
 22
10.964118
 32
0.0
 13
19.31816
 23
10.964118
 33
0.0
  0
SOLID
  8
0
  6
BYBLOCK
 62
     0
 10
19.27691
 20
9.780618
 30
0.0
 11
19.35941
 21
9.780618
 31
0.0
 12
19.31816
 22
10.028118
 32
0.0
 13
19.31816
 23
10.028118
 33
0.0
  0
TEXT
  8
0
  6
BYBLOCK
 62
     0
 10
19.350386
 20
10.410181
 30
0.0
 40
0.171875
  1
 DIA.
 41
0.75
  7
TXT
 72
     1
 11
19.586714
 21
10.496118
 31
0.0
 73
     2
  0
TEXT
  8
0
  6
BYBLOCK
 62
     0
 10
18.813277
 20
10.410181
 30
0.0
 40
0.171875
  1
0.234
 41
0.75
  7
TXT
 72
     1
 11
19.060347
 21
10.496118
 31
0.0
 73
     2
  0
POINT
  8
DEFPOINTS
  6
BYBLOCK
 62
     0
 10
18.428761
 20
10.964118
 30
0.0
  0
POINT
  8
DEFPOINTS
  6
BYBLOCK
 62
     0
 10
18.428761
 20
10.028118
 30
0.0
  0
POINT
  8
DEFPOINTS
  6
BYBLOCK
 62
     0
 10
19.31816
 20
10.028118
 30
0.0
  0
ENDBLK
  8
0
  0
BLOCK
  8
0
  2
*D23
 70
    65
 10
0.0
 20
0.0
 30
0.0
  3
*D
  0
LINE
  8
0
  6
BYBLOCK
 62
     0
 10
16.782136
 20
11.932118
 30
0.0
 11
15.618036
 21
11.932118
 31
0.0
  0
LINE
  8
0
  6
BYBLOCK
 62
     0
 10
16.542136
 20
11.780118
 30
0.0
 11
15.618036
 21
11.780118
 31
0.0
  0
LINE
  8
0
  6
BYBLOCK
 62
     0
 10
15.745911
 20
12.179618
 30
0.0
 11
15.745911
 21
12.427118
 31
0.0
  0
LINE
  8
0
  6
BYBLOCK
 62
     0
 10
15.745911
 20
11.532618
 30
0.0
 11
15.745911
 21
11.285118
 31
0.0
  0
LINE
  8
0
  6
BYBLOCK
 62
     0
 10
15.745911
 20
11.285118
 30
0.0
 11
15.498411
 21
11.285118
 31
0.0
  0
SOLID
  8
0
  6
BYBLOCK
 62
     0
 10
15.704661
 20
12.179618
 30
0.0
 11
15.787161
 21
12.179618
 31
0.0
 12
15.745911
 22
11.932118
 32
0.0
 13
15.745911
 23
11.932118
 33
0.0
  0
SOLID
  8
0
  6
BYBLOCK
 62
     0
 10
15.704661
 20
11.532618
 30
0.0
 11
15.787161
 21
11.532618
 31
0.0
 12
15.745911
 22
11.780118
 32
0.0
 13
15.745911
 23
11.780118
 33
0.0
  0
TEXT
  8
0
  6
BYBLOCK
 62
     0
 10
14.902005
 20
11.199181
 30
0.0
 40
0.171875
  1
0.038
 41
0.75
  7
TXT
 72
     1
 11
15.138333
 21
11.285118
 31
0.0
 73
     2
  0
POINT
  8
DEFPOINTS
  6
BYBLOCK
 62
     0
 10
16.868761
 20
11.932118
 30
0.0
  0
POINT
  8
DEFPOINTS
  6
BYBLOCK
 62
     0
 10
16.628761
 20
11.780118
 30
0.0
  0
POINT
  8
DEFPOINTS
  6
BYBLOCK
 62
     0
 10
15.745911
 20
11.780118
 30
0.0
  0
ENDBLK
  8
0
  0
BLOCK
  8
0
  2
*D24
 70
    65
 10
0.0
 20
0.0
 30
0.0
  3
*D
  0
LINE
  8
0
  6
BYBLOCK
 62
     0
 10
16.628761
 20
11.866743
 30
0.0
 11
16.628761
 21
12.52179
 31
0.0
  0
LINE
  8
0
  6
BYBLOCK
 62
     0
 10
16.868761
 20
12.018743
 30
0.0
 11
16.868761
 21
12.52179
 31
0.0
  0
LINE
  8
0
  6
BYBLOCK
 62
     0
 10
16.381261
 20
12.393915
 30
0.0
 11
16.133761
 21
12.393915
 31
0.0
  0
LINE
  8
0
  6
BYBLOCK
 62
     0
 10
17.116261
 20
12.393915
 30
0.0
 11
17.363761
 21
12.393915
 31
0.0
  0
SOLID
  8
0
  6
BYBLOCK
 62
     0
 10
16.381261
 20
12.435165
 30
0.0
 11
16.381261
 21
12.352665
 31
0.0
 12
16.628761
 22
12.393915
 32
0.0
 13
16.628761
 23
12.393915
 33
0.0
  0
SOLID
  8
0
  6
BYBLOCK
 62
     0
 10
17.116261
 20
12.435165
 30
0.0
 11
17.116261
 21
12.352665
 31
0.0
 12
16.868761
 22
12.393915
 32
0.0
 13
16.868761
 23
12.393915
 33
0.0
  0
TEXT
  8
0
  6
BYBLOCK
 62
     0
 10
17.487511
 20
12.307977
 30
0.0
 40
0.171875
  1
0.060
 41
0.75
  7
TXT
 72
     1
 11
17.713097
 21
12.393915
 31
0.0
 73
     2
  0
POINT
  8
DEFPOINTS
  6
BYBLOCK
 62
     0
 10
16.628761
 20
11.780118
 30
0.0
  0
POINT
  8
DEFPOINTS
  6
BYBLOCK
 62
     0
 10
16.868761
 20
11.932118
 30
0.0
  0
POINT
  8
DEFPOINTS
  6
BYBLOCK
 62
     0
 10
16.868761
 20
12.393915
 30
0.0
  0
ENDBLK
  8
0
  0
BLOCK
  8
0
  2
*D25
 70
    65
 10
0.0
 20
0.0
 30
0.0
  3
*D
  0
LINE
  8
0
  6
BYBLOCK
 62
     0
 10
16.868761
 20
12.018743
 30
0.0
 11
16.868761
 21
12.908165
 31
0.0
  0
LINE
  8
0
  6
BYBLOCK
 62
     0
 10
17.020761
 20
12.198743
 30
0.0
 11
17.020761
 21
12.908165
 31
0.0
  0
LINE
  8
0
  6
BYBLOCK
 62
     0
 10
16.621261
 20
12.78029
 30
0.0
 11
16.373761
 21
12.78029
 31
0.0
  0
LINE
  8
0
  6
BYBLOCK
 62
     0
 10
17.268261
 20
12.78029
 30
0.0
 11
17.515761
 21
12.78029
 31
0.0
  0
SOLID
  8
0
  6
BYBLOCK
 62
     0
 10
16.621261
 20
12.82154
 30
0.0
 11
16.621261
 21
12.73904
 31
0.0
 12
16.868761
 22
12.78029
 32
0.0
 13
16.868761
 23
12.78029
 33
0.0
  0
SOLID
  8
0
  6
BYBLOCK
 62
     0
 10
17.268261
 20
12.82154
 30
0.0
 11
17.268261
 21
12.73904
 31
0.0
 12
17.020761
 22
12.78029
 32
0.0
 13
17.020761
 23
12.78029
 33
0.0
  0
TEXT
  8
0
  6
BYBLOCK
 62
     0
 10
17.639511
 20
12.694352
 30
0.0
 40
0.171875
  1
0.038
 41
0.75
  7
TXT
 72
     1
 11
17.875839
 21
12.78029
 31
0.0
 73
     2
  0
POINT
  8
DEFPOINTS
  6
BYBLOCK
 62
     0
 10
16.868761
 20
11.932118
 30
0.0
  0
POINT
  8
DEFPOINTS
  6
BYBLOCK
 62
     0
 10
17.020761
 20
12.112118
 30
0.0
  0
POINT
  8
DEFPOINTS
  6
BYBLOCK
 62
     0
 10
17.020761
 20
12.78029
 30
0.0
  0
ENDBLK
  8
0
  0
BLOCK
  8
0
  2
*D26
 70
    65
 10
0.0
 20
0.0
 30
0.0
  3
*D
  0
LINE
  8
0
  6
BYBLOCK
 62
     0
 10
18.036761
 20
8.470877
 30
0.0
 11
18.036761
 21
8.050375
 31
0.0
  0
LINE
  8
0
  6
BYBLOCK
 62
     0
 10
18.428761
 20
8.371735
 30
0.0
 11
18.428761
 21
8.050375
 31
0.0
  0
LINE
  8
0
  6
BYBLOCK
 62
     0
 10
17.789261
 20
8.17825
 30
0.0
 11
17.541761
 21
8.17825
 31
0.0
  0
LINE
  8
0
  6
BYBLOCK
 62
     0
 10
18.676261
 20
8.17825
 30
0.0
 11
18.923761
 21
8.17825
 31
0.0
  0
SOLID
  8
0
  6
BYBLOCK
 62
     0
 10
17.789261
 20
8.2195
 30
0.0
 11
17.789261
 21
8.137
 31
0.0
 12
18.036761
 22
8.17825
 32
0.0
 13
18.036761
 23
8.17825
 33
0.0
  0
SOLID
  8
0
  6
BYBLOCK
 62
     0
 10
18.676261
 20
8.2195
 30
0.0
 11
18.676261
 21
8.137
 31
0.0
 12
18.428761
 22
8.17825
 32
0.0
 13
18.428761
 23
8.17825
 33
0.0
  0
TEXT
  8
0
  6
BYBLOCK
 62
     0
 10
19.047511
 20
8.092313
 30
0.0
 40
0.171875
  1
0.098
 41
0.75
  7
TXT
 72
     1
 11
19.283839
 21
8.17825
 31
0.0
 73
     2
  0
POINT
  8
DEFPOINTS
  6
BYBLOCK
 62
     0
 10
18.036761
 20
8.557502
 30
0.0
  0
POINT
  8
DEFPOINTS
  6
BYBLOCK
 62
     0
 10
18.428761
 20
8.45836
 30
0.0
  0
POINT
  8
DEFPOINTS
  6
BYBLOCK
 62
     0
 10
18.428761
 20
8.17825
 30
0.0
  0
ENDBLK
  8
0
  0
BLOCK
  8
0
  2
*D27
 70
    65
 10
0.0
 20
0.0
 30
0.0
  3
*D
  0
LINE
  8
0
  6
BYBLOCK
 62
     0
 10
16.664761
 20
10.189493
 30
0.0
 11
16.664761
 21
7.277625
 31
0.0
  0
LINE
  8
0
  6
BYBLOCK
 62
     0
 10
18.036761
 20
8.470877
 30
0.0
 11
18.036761
 21
7.277625
 31
0.0
  0
LINE
  8
0
  6
BYBLOCK
 62
     0
 10
16.417261
 20
7.4055
 30
0.0
 11
16.169761
 21
7.4055
 31
0.0
  0
LINE
  8
0
  6
BYBLOCK
 62
     0
 10
18.284261
 20
7.4055
 30
0.0
 11
18.531761
 21
7.4055
 31
0.0
  0
SOLID
  8
0
  6
BYBLOCK
 62
     0
 10
16.417261
 20
7.44675
 30
0.0
 11
16.417261
 21
7.36425
 31
0.0
 12
16.664761
 22
7.4055
 32
0.0
 13
16.664761
 23
7.4055
 33
0.0
  0
SOLID
  8
0
  6
BYBLOCK
 62
     0
 10
18.284261
 20
7.44675
 30
0.0
 11
18.284261
 21
7.36425
 31
0.0
 12
18.036761
 22
7.4055
 32
0.0
 13
18.036761
 23
7.4055
 33
0.0
  0
TEXT
  8
0
  6
BYBLOCK
 62
     0
 10
17.103691
 20
7.319563
 30
0.0
 40
0.171875
  1
0.343
 41
0.75
  7
TXT
 72
     1
 11
17.350761
 21
7.4055
 31
0.0
 73
     2
  0
POINT
  8
DEFPOINTS
  6
BYBLOCK
 62
     0
 10
16.664761
 20
10.276118
 30
0.0
  0
POINT
  8
DEFPOINTS
  6
BYBLOCK
 62
     0
 10
18.036761
 20
8.557502
 30
0.0
  0
POINT
  8
DEFPOINTS
  6
BYBLOCK
 62
     0
 10
18.036761
 20
7.4055
 30
0.0
  0
ENDBLK
  8
0
  0
BLOCK
  8
0
  2
*D28
 70
    65
 10
0.0
 20
0.0
 30
0.0
  3
*D
  0
LINE
  8
0
  6
BYBLOCK
 62
     0
 10
17.244761
 20
9.229493
 30
0.0
 11
17.244761
 21
7.664
 31
0.0
  0
LINE
  8
0
  6
BYBLOCK
 62
     0
 10
18.036761
 20
8.470877
 30
0.0
 11
18.036761
 21
7.664
 31
0.0
  0
LINE
  8
0
  6
BYBLOCK
 62
     0
 10
16.997261
 20
7.791875
 30
0.0
 11
16.749761
 21
7.791875
 31
0.0
  0
LINE
  8
0
  6
BYBLOCK
 62
     0
 10
18.284261
 20
7.791875
 30
0.0
 11
18.531761
 21
7.791875
 31
0.0
  0
SOLID
  8
0
  6
BYBLOCK
 62
     0
 10
16.997261
 20
7.833125
 30
0.0
 11
16.997261
 21
7.750625
 31
0.0
 12
17.244761
 22
7.791875
 32
0.0
 13
17.244761
 23
7.791875
 33
0.0
  0
SOLID
  8
0
  6
BYBLOCK
 62
     0
 10
18.284261
 20
7.833125
 30
0.0
 11
18.284261
 21
7.750625
 31
0.0
 12
18.036761
 22
7.791875
 32
0.0
 13
18.036761
 23
7.791875
 33
0.0
  0
TEXT
  8
0
  6
BYBLOCK
 62
     0
 10
17.415175
 20
7.705938
 30
0.0
 40
0.171875
  1
0.198
 41
0.75
  7
TXT
 72
     1
 11
17.640761
 21
7.791875
 31
0.0
 73
     2
  0
POINT
  8
DEFPOINTS
  6
BYBLOCK
 62
     0
 10
17.244761
 20
9.316118
 30
0.0
  0
POINT
  8
DEFPOINTS
  6
BYBLOCK
 62
     0
 10
18.036761
 20
8.557502
 30
0.0
  0
POINT
  8
DEFPOINTS
  6
BYBLOCK
 62
     0
 10
18.036761
 20
7.791875
 30
0.0
  0
ENDBLK
  8
0
  0
BLOCK
  8
0
  2
*D29
 70
    65
 10
0.0
 20
0.0
 30
0.0
  3
*D
  0
LINE
  8
0
  6
BYBLOCK
 62
     0
 10
8.7456
 20
6.351136
 30
0.0
 11
9.575715
 21
6.336268
 31
0.0
  0
LINE
  8
0
  6
BYBLOCK
 62
     0
 10
8.064851
 20
6.370687
 30
0.0
 11
9.576023
 21
6.370687
 31
0.0
  0
ARC
  8
0
  6
BYBLOCK
 62
     0
 10
7.653989
 20
6.370687
 30
0.0
 40
1.79416
 50
343.153728
 51
351.063822
  0
ARC
  8
0
  6
BYBLOCK
 62
     0
 10
7.653989
 20
6.370687
 30
0.0
 40
1.79416
 50
7.910094
 51
15.820189
  0
SOLID
  8
0
  6
BYBLOCK
 62
     0
 10
9.385277
 20
6.095574
 30
0.0
 11
9.467465
 21
6.088411
 31
0.0
 12
9.447861
 22
6.338558
 32
0.0
 13
9.447861
 23
6.338558
 33
0.0
  0
SOLID
  8
0
  6
BYBLOCK
 62
     0
 10
9.472229
 20
6.620443
 30
0.0
 11
9.389926
 21
6.614752
 31
0.0
 12
9.448148
 22
6.370687
 32
0.0
 13
9.448148
 23
6.370687
 33
0.0
  0
TEXT
  8
0
  6
BYBLOCK
 62
     0
 10
8.782415
 20
6.957738
 30
0.0
 40
0.171875
  1
 DRAFT REF.
 41
0.75
  7
TXT
 72
     1
 11
9.426946
 21
7.043676
 31
0.0
 73
     2
  0
TEXT
  8
0
  6
BYBLOCK
 62
     0
 10
8.61054
 20
6.957738
 30
0.0
 40
0.171875
  1
1%%d
 41
0.75
  7
TXT
 72
     1
 11
8.674993
 21
7.043676
 31
0.0
 73
     2
  0
POINT
  8
DEFPOINTS
  6
BYBLOCK
 62
     0
 10
9.448042
 20
6.351103
 30
0.0
  0
POINT
  8
DEFPOINTS
  6
BYBLOCK
 62
     0
 10
8.658989
 20
6.352687
 30
0.0
  0
POINT
  8
DEFPOINTS
  6
BYBLOCK
 62
     0
 10
7.653989
 20
6.370687
 30
0.0
  0
POINT
  8
DEFPOINTS
  6
BYBLOCK
 62
     0
 10
7.978226
 20
6.370687
 30
0.0
  0
POINT
  8
DEFPOINTS
  6
BYBLOCK
 62
     0
 10
7.653989
 20
6.370687
 30
0.0
  0
ENDBLK
  8
0
  0
BLOCK
  8
0
  2
*D30
 70
    65
 10
0.0
 20
0.0
 30
0.0
  3
*D
  0
LINE
  8
0
  6
BYBLOCK
 62
     0
 10
1.97098
 20
4.051562
 30
0.0
 11
1.97098
 21
3.88919
 31
0.0
  0
LINE
  8
0
  6
BYBLOCK
 62
     0
 10
3.54298
 20
4.051562
 30
0.0
 11
3.54298
 21
3.88919
 31
0.0
  0
LINE
  8
0
  6
BYBLOCK
 62
     0
 10
2.21848
 20
4.017065
 30
0.0
 11
2.448957
 21
4.017065
 31
0.0
  0
LINE
  8
0
  6
BYBLOCK
 62
     0
 10
3.29548
 20
4.017065
 30
0.0
 11
3.169113
 21
4.017065
 31
0.0
  0
SOLID
  8
0
  6
BYBLOCK
 62
     0
 10
2.21848
 20
4.058315
 30
0.0
 11
2.21848
 21
3.975815
 31
0.0
 12
1.97098
 22
4.017065
 32
0.0
 13
1.97098
 23
4.017065
 33
0.0
  0
SOLID
  8
0
  6
BYBLOCK
 62
     0
 10
3.29548
 20
4.058315
 30
0.0
 11
3.29548
 21
3.975815
 31
0.0
 12
3.54298
 22
4.017065
 32
0.0
 13
3.54298
 23
4.017065
 33
0.0
  0
TEXT
  8
0
  6
BYBLOCK
 62
     0
 10
2.572707
 20
3.931127
 30
0.0
 40
0.171875
  1
1.572
 41
0.75
  7
TXT
 72
     1
 11
2.809035
 21
4.017065
 31
0.0
 73
     2
  0
POINT
  8
DEFPOINTS
  6
BYBLOCK
 62
     0
 10
1.97098
 20
4.138187
 30
0.0
  0
POINT
  8
DEFPOINTS
  6
BYBLOCK
 62
     0
 10
3.54298
 20
4.138187
 30
0.0
  0
POINT
  8
DEFPOINTS
  6
BYBLOCK
 62
     0
 10
3.54298
 20
4.017065
 30
0.0
  0
ENDBLK
  8
0
  0
BLOCK
  8
0
  2
*D31
 70
    65
 10
0.0
 20
0.0
 30
0.0
  3
*D
  0
LINE
  8
0
  6
BYBLOCK
 62
     0
 10
2.548105
 20
2.791687
 30
0.0
 11
2.616047
 21
2.791687
 31
0.0
  0
LINE
  8
0
  6
BYBLOCK
 62
     0
 10
2.548105
 20
6.213687
 30
0.0
 11
2.616047
 21
6.213687
 31
0.0
  0
LINE
  8
0
  6
BYBLOCK
 62
     0
 10
2.488172
 20
3.039187
 30
0.0
 11
2.488172
 21
4.292999
 31
0.0
  0
LINE
  8
0
  6
BYBLOCK
 62
     0
 10
2.488172
 20
5.966187
 30
0.0
 11
2.488172
 21
4.712374
 31
0.0
  0
SOLID
  8
0
  6
BYBLOCK
 62
     0
 10
2.446922
 20
3.039187
 30
0.0
 11
2.529422
 21
3.039187
 31
0.0
 12
2.488172
 22
2.791687
 32
0.0
 13
2.488172
 23
2.791687
 33
0.0
  0
SOLID
  8
0
  6
BYBLOCK
 62
     0
 10
2.446922
 20
5.966187
 30
0.0
 11
2.529422
 21
5.966187
 31
0.0
 12
2.488172
 22
6.213687
 32
0.0
 13
2.488172
 23
6.213687
 33
0.0
  0
TEXT
  8
0
  6
BYBLOCK
 62
     0
 10
2.23036
 20
4.416749
 30
0.0
 40
0.171875
  1
3.422
 41
0.75
  7
TXT
 72
     1
 11
2.488172
 21
4.502687
 31
0.0
 73
     2
  0
POINT
  8
DEFPOINTS
  6
BYBLOCK
 62
     0
 10
2.46148
 20
2.791687
 30
0.0
  0
POINT
  8
DEFPOINTS
  6
BYBLOCK
 62
     0
 10
2.46148
 20
6.213687
 30
0.0
  0
POINT
  8
DEFPOINTS
  6
BYBLOCK
 62
     0
 10
2.488172
 20
6.213687
 30
0.0
  0
ENDBLK
  8
0
  0
BLOCK
  8
0
  2
*D32
 70
    65
 10
0.0
 20
0.0
 30
0.0
  3
*D
  0
LINE
  8
0
  6
BYBLOCK
 62
     0
 10
7.650364
 20
5.858187
 30
0.0
 11
6.886184
 21
5.858187
 31
0.0
  0
LINE
  8
0
  6
BYBLOCK
 62
     0
 10
7.567364
 20
6.370687
 30
0.0
 11
6.886184
 21
6.370687
 31
0.0
  0
LINE
  8
0
  6
BYBLOCK
 62
     0
 10
7.014059
 20
5.610687
 30
0.0
 11
7.014059
 21
5.363187
 31
0.0
  0
LINE
  8
0
  6
BYBLOCK
 62
     0
 10
7.014059
 20
6.618187
 30
0.0
 11
7.014059
 21
6.865687
 31
0.0
  0
SOLID
  8
0
  6
BYBLOCK
 62
     0
 10
6.972809
 20
5.610687
 30
0.0
 11
7.055309
 21
5.610687
 31
0.0
 12
7.014059
 22
5.858187
 32
0.0
 13
7.014059
 23
5.858187
 33
0.0
  0
SOLID
  8
0
  6
BYBLOCK
 62
     0
 10
6.972809
 20
6.618187
 30
0.0
 11
7.055309
 21
6.618187
 31
0.0
 12
7.014059
 22
6.370687
 32
0.0
 13
7.014059
 23
6.370687
 33
0.0
  0
TEXT
  8
0
  6
BYBLOCK
 62
     0
 10
6.788473
 20
6.028499
 30
0.0
 40
0.171875
  1
0.512
 41
0.75
  7
TXT
 72
     1
 11
7.014059
 21
6.114437
 31
0.0
 73
     2
  0
POINT
  8
DEFPOINTS
  6
BYBLOCK
 62
     0
 10
7.736989
 20
5.858187
 30
0.0
  0
POINT
  8
DEFPOINTS
  6
BYBLOCK
 62
     0
 10
7.653989
 20
6.370687
 30
0.0
  0
POINT
  8
DEFPOINTS
  6
BYBLOCK
 62
     0
 10
7.014059
 20
6.370687
 30
0.0
  0
ENDBLK
  8
0
  0
BLOCK
  8
0
  2
*D33
 70
    65
 10
0.0
 20
0.0
 30
0.0
  3
*D
  0
LINE
  8
0
  6
BYBLOCK
 62
     0
 10
7.650364
 20
3.146687
 30
0.0
 11
6.886184
 21
3.146687
 31
0.0
  0
LINE
  8
0
  6
BYBLOCK
 62
     0
 10
7.650364
 20
5.858187
 30
0.0
 11
6.886184
 21
5.858187
 31
0.0
  0
LINE
  8
0
  6
BYBLOCK
 62
     0
 10
7.014059
 20
3.394187
 30
0.0
 11
7.014059
 21
4.292749
 31
0.0
  0
LINE
  8
0
  6
BYBLOCK
 62
     0
 10
7.014059
 20
5.610687
 30
0.0
 11
7.014059
 21
4.712124
 31
0.0
  0
SOLID
  8
0
  6
BYBLOCK
 62
     0
 10
6.972809
 20
3.394187
 30
0.0
 11
7.055309
 21
3.394187
 31
0.0
 12
7.014059
 22
3.146687
 32
0.0
 13
7.014059
 23
3.146687
 33
0.0
  0
SOLID
  8
0
  6
BYBLOCK
 62
     0
 10
6.972809
 20
5.610687
 30
0.0
 11
7.055309
 21
5.610687
 31
0.0
 12
7.014059
 22
5.858187
 32
0.0
 13
7.014059
 23
5.858187
 33
0.0
  0
TEXT
  8
0
  6
BYBLOCK
 62
     0
 10
6.77773
 20
4.416499
 30
0.0
 40
0.171875
  1
2.712
 41
0.75
  7
TXT
 72
     1
 11
7.014059
 21
4.502437
 31
0.0
 73
     2
  0
POINT
  8
DEFPOINTS
  6
BYBLOCK
 62
     0
 10
7.736989
 20
3.146687
 30
0.0
  0
POINT
  8
DEFPOINTS
  6
BYBLOCK
 62
     0
 10
7.736989
 20
5.858187
 30
0.0
  0
POINT
  8
DEFPOINTS
  6
BYBLOCK
 62
     0
 10
7.014059
 20
5.858187
 30
0.0
  0
ENDBLK
  8
0
  0
BLOCK
  8
0
  2
*D34
 70
    65
 10
0.0
 20
0.0
 30
0.0
  3
*D
  0
LINE
  8
0
  6
BYBLOCK
 62
     0
 10
10.880552
 20
10.846957
 30
0.0
 11
11.513013
 21
10.846957
 31
0.0
  0
LINE
  8
0
  6
BYBLOCK
 62
     0
 10
10.894013
 20
10.942957
 30
0.0
 11
11.513013
 21
10.942957
 31
0.0
  0
LINE
  8
0
  6
BYBLOCK
 62
     0
 10
11.385138
 20
10.599457
 30
0.0
 11
11.385138
 21
10.351957
 31
0.0
  0
LINE
  8
0
  6
BYBLOCK
 62
     0
 10
11.385138
 20
11.190457
 30
0.0
 11
11.385138
 21
11.437957
 31
0.0
  0
LINE
  8
0
  6
BYBLOCK
 62
     0
 10
11.385138
 20
11.437957
 30
0.0
 11
11.632638
 21
11.437957
 31
0.0
  0
SOLID
  8
0
  6
BYBLOCK
 62
     0
 10
11.343888
 20
10.599457
 30
0.0
 11
11.426388
 21
10.599457
 31
0.0
 12
11.385138
 22
10.846957
 32
0.0
 13
11.385138
 23
10.846957
 33
0.0
  0
SOLID
  8
0
  6
BYBLOCK
 62
     0
 10
11.343888
 20
11.190457
 30
0.0
 11
11.426388
 21
11.190457
 31
0.0
 12
11.385138
 22
10.942957
 32
0.0
 13
11.385138
 23
10.942957
 33
0.0
  0
TEXT
  8
0
  6
BYBLOCK
 62
     0
 10
11.756388
 20
11.352019
 30
0.0
 40
0.171875
  1
0.024
 41
0.75
  7
TXT
 72
     1
 11
11.992717
 21
11.437957
 31
0.0
 73
     2
  0
POINT
  8
DEFPOINTS
  6
BYBLOCK
 62
     0
 10
10.793927
 20
10.846957
 30
0.0
  0
POINT
  8
DEFPOINTS
  6
BYBLOCK
 62
     0
 10
10.807388
 20
10.942957
 30
0.0
  0
POINT
  8
DEFPOINTS
  6
BYBLOCK
 62
     0
 10
11.385138
 20
10.942957
 30
0.0
  0
ENDBLK
  8
0
  0
BLOCK
  8
0
  2
*D35
 70
    65
 10
0.0
 20
0.0
 30
0.0
  3
*D
  0
LINE
  8
0
  6
BYBLOCK
 62
     0
 10
10.822894
 20
11.238957
 30
0.0
 11
12.540382
 21
11.238957
 31
0.0
  0
LINE
  8
0
  6
BYBLOCK
 62
     0
 10
10.894013
 20
10.942957
 30
0.0
 11
12.540382
 21
10.942957
 31
0.0
  0
LINE
  8
0
  6
BYBLOCK
 62
     0
 10
12.412507
 20
11.486457
 30
0.0
 11
12.412507
 21
11.733957
 31
0.0
  0
LINE
  8
0
  6
BYBLOCK
 62
     0
 10
12.412507
 20
10.695457
 30
0.0
 11
12.412507
 21
10.447957
 31
0.0
  0
LINE
  8
0
  6
BYBLOCK
 62
     0
 10
12.412507
 20
10.447957
 30
0.0
 11
12.165007
 21
10.447957
 31
0.0
  0
SOLID
  8
0
  6
BYBLOCK
 62
     0
 10
12.371257
 20
11.486457
 30
0.0
 11
12.453757
 21
11.486457
 31
0.0
 12
12.412507
 22
11.238957
 32
0.0
 13
12.412507
 23
11.238957
 33
0.0
  0
SOLID
  8
0
  6
BYBLOCK
 62
     0
 10
12.371257
 20
10.695457
 30
0.0
 11
12.453757
 21
10.695457
 31
0.0
 12
12.412507
 22
10.942957
 32
0.0
 13
12.412507
 23
10.942957
 33
0.0
  0
TEXT
  8
0
  6
BYBLOCK
 62
     0
 10
11.5686
 20
10.362019
 30
0.0
 40
0.171875
  1
0.074
 41
0.75
  7
TXT
 72
     1
 11
11.804929
 21
10.447957
 31
0.0
 73
     2
  0
POINT
  8
DEFPOINTS
  6
BYBLOCK
 62
     0
 10
10.736269
 20
11.238957
 30
0.0
  0
POINT
  8
DEFPOINTS
  6
BYBLOCK
 62
     0
 10
10.807388
 20
10.942957
 30
0.0
  0
POINT
  8
DEFPOINTS
  6
BYBLOCK
 62
     0
 10
12.412507
 20
10.942957
 30
0.0
  0
ENDBLK
  8
0
  0
BLOCK
  8
0
  2
*D36
 70
    65
 10
0.0
 20
0.0
 30
0.0
  3
*D
  0
LINE
  8
0
  6
BYBLOCK
 62
     0
 10
8.63204
 20
10.846957
 30
0.0
 11
8.291993
 21
10.846957
 31
0.0
  0
LINE
  8
0
  6
BYBLOCK
 62
     0
 10
9.289671
 20
10.610957
 30
0.0
 11
8.291993
 21
10.610957
 31
0.0
  0
LINE
  8
0
  6
BYBLOCK
 62
     0
 10
8.419868
 20
11.094457
 30
0.0
 11
8.419868
 21
11.341957
 31
0.0
  0
LINE
  8
0
  6
BYBLOCK
 62
     0
 10
8.419868
 20
10.363457
 30
0.0
 11
8.419868
 21
10.115957
 31
0.0
  0
LINE
  8
0
  6
BYBLOCK
 62
     0
 10
8.419868
 20
10.115957
 30
0.0
 11
8.172368
 21
10.115957
 31
0.0
  0
SOLID
  8
0
  6
BYBLOCK
 62
     0
 10
8.378618
 20
11.094457
 30
0.0
 11
8.461118
 21
11.094457
 31
0.0
 12
8.419868
 22
10.846957
 32
0.0
 13
8.419868
 23
10.846957
 33
0.0
  0
SOLID
  8
0
  6
BYBLOCK
 62
     0
 10
8.378618
 20
10.363457
 30
0.0
 11
8.461118
 21
10.363457
 31
0.0
 12
8.419868
 22
10.610957
 32
0.0
 13
8.419868
 23
10.610957
 33
0.0
  0
TEXT
  8
0
  6
BYBLOCK
 62
     0
 10
7.575962
 20
10.030019
 30
0.0
 40
0.171875
  1
0.059
 41
0.75
  7
TXT
 72
     1
 11
7.81229
 21
10.115957
 31
0.0
 73
     2
  0
POINT
  8
DEFPOINTS
  6
BYBLOCK
 62
     0
 10
8.718665
 20
10.846957
 30
0.0
  0
POINT
  8
DEFPOINTS
  6
BYBLOCK
 62
     0
 10
9.376296
 20
10.610957
 30
0.0
  0
POINT
  8
DEFPOINTS
  6
BYBLOCK
 62
     0
 10
8.419868
 20
10.610957
 30
0.0
  0
ENDBLK
  8
0
  0
BLOCK
  8
0
  2
*D37
 70
    65
 10
0.0
 20
0.0
 30
0.0
  3
*D
  0
LINE
  8
0
  6
BYBLOCK
 62
     0
 10
9.616296
 20
10.524332
 30
0.0
 11
9.616296
 21
9.108967
 31
0.0
  0
LINE
  8
0
  6
BYBLOCK
 62
     0
 10
9.756296
 20
10.002332
 30
0.0
 11
9.756296
 21
9.108967
 31
0.0
  0
LINE
  8
0
  6
BYBLOCK
 62
     0
 10
9.368796
 20
9.236842
 30
0.0
 11
9.121296
 21
9.236842
 31
0.0
  0
LINE
  8
0
  6
BYBLOCK
 62
     0
 10
10.003796
 20
9.236842
 30
0.0
 11
10.251296
 21
9.236842
 31
0.0
  0
SOLID
  8
0
  6
BYBLOCK
 62
     0
 10
9.368796
 20
9.278092
 30
0.0
 11
9.368796
 21
9.195592
 31
0.0
 12
9.616296
 22
9.236842
 32
0.0
 13
9.616296
 23
9.236842
 33
0.0
  0
SOLID
  8
0
  6
BYBLOCK
 62
     0
 10
10.003796
 20
9.278092
 30
0.0
 11
10.003796
 21
9.195592
 31
0.0
 12
9.756296
 22
9.236842
 32
0.0
 13
9.756296
 23
9.236842
 33
0.0
  0
TEXT
  8
0
  6
BYBLOCK
 62
     0
 10
10.375046
 20
9.150905
 30
0.0
 40
0.171875
  1
0.035
 41
0.75
  7
TXT
 72
     1
 11
10.611374
 21
9.236842
 31
0.0
 73
     2
  0
POINT
  8
DEFPOINTS
  6
BYBLOCK
 62
     0
 10
9.616296
 20
10.610957
 30
0.0
  0
POINT
  8
DEFPOINTS
  6
BYBLOCK
 62
     0
 10
9.756296
 20
10.088957
 30
0.0
  0
POINT
  8
DEFPOINTS
  6
BYBLOCK
 62
     0
 10
9.756296
 20
9.236842
 30
0.0
  0
ENDBLK
  8
0
  0
BLOCK
  8
0
  2
*D38
 70
    65
 10
0.0
 20
0.0
 30
0.0
  3
*D
  0
LINE
  8
0
  6
BYBLOCK
 62
     0
 10
9.376296
 20
10.524332
 30
0.0
 11
9.376296
 21
9.495342
 31
0.0
  0
LINE
  8
0
  6
BYBLOCK
 62
     0
 10
9.756296
 20
10.002332
 30
0.0
 11
9.756296
 21
9.495342
 31
0.0
  0
LINE
  8
0
  6
BYBLOCK
 62
     0
 10
9.128796
 20
9.623217
 30
0.0
 11
8.881296
 21
9.623217
 31
0.0
  0
LINE
  8
0
  6
BYBLOCK
 62
     0
 10
10.003796
 20
9.623217
 30
0.0
 11
10.251296
 21
9.623217
 31
0.0
  0
SOLID
  8
0
  6
BYBLOCK
 62
     0
 10
9.128796
 20
9.664467
 30
0.0
 11
9.128796
 21
9.581967
 31
0.0
 12
9.376296
 22
9.623217
 32
0.0
 13
9.376296
 23
9.623217
 33
0.0
  0
SOLID
  8
0
  6
BYBLOCK
 62
     0
 10
10.003796
 20
9.664467
 30
0.0
 11
10.003796
 21
9.581967
 31
0.0
 12
9.756296
 22
9.623217
 32
0.0
 13
9.756296
 23
9.623217
 33
0.0
  0
TEXT
  8
0
  6
BYBLOCK
 62
     0
 10
10.375046
 20
9.53728
 30
0.0
 40
0.171875
  1
0.095
 41
0.75
  7
TXT
 72
     1
 11
10.611374
 21
9.623217
 31
0.0
 73
     2
  0
POINT
  8
DEFPOINTS
  6
BYBLOCK
 62
     0
 10
9.376296
 20
10.610957
 30
0.0
  0
POINT
  8
DEFPOINTS
  6
BYBLOCK
 62
     0
 10
9.756296
 20
10.088957
 30
0.0
  0
POINT
  8
DEFPOINTS
  6
BYBLOCK
 62
     0
 10
9.756296
 20
9.623217
 30
0.0
  0
ENDBLK
  8
0
  0
BLOCK
  8
0
  2
*D39
 70
    65
 10
0.0
 20
0.0
 30
0.0
  3
*D
  0
LINE
  8
0
  6
BYBLOCK
 62
     0
 10
9.616296
 20
10.524332
 30
0.0
 11
9.616296
 21
9.881717
 31
0.0
  0
LINE
  8
0
  6
BYBLOCK
 62
     0
 10
9.896296
 20
10.524332
 30
0.0
 11
9.896296
 21
9.881717
 31
0.0
  0
LINE
  8
0
  6
BYBLOCK
 62
     0
 10
9.368796
 20
10.009592
 30
0.0
 11
9.121296
 21
10.009592
 31
0.0
  0
LINE
  8
0
  6
BYBLOCK
 62
     0
 10
10.143796
 20
10.009592
 30
0.0
 11
10.391296
 21
10.009592
 31
0.0
  0
SOLID
  8
0
  6
BYBLOCK
 62
     0
 10
9.368796
 20
10.050842
 30
0.0
 11
9.368796
 21
9.968342
 31
0.0
 12
9.616296
 22
10.009592
 32
0.0
 13
9.616296
 23
10.009592
 33
0.0
  0
SOLID
  8
0
  6
BYBLOCK
 62
     0
 10
10.143796
 20
10.050842
 30
0.0
 11
10.143796
 21
9.968342
 31
0.0
 12
9.896296
 22
10.009592
 32
0.0
 13
9.896296
 23
10.009592
 33
0.0
  0
TEXT
  8
0
  6
BYBLOCK
 62
     0
 10
10.515046
 20
9.923655
 30
0.0
 40
0.171875
  1
0.070
 41
0.75
  7
TXT
 72
     1
 11
10.740632
 21
10.009592
 31
0.0
 73
     2
  0
POINT
  8
DEFPOINTS
  6
BYBLOCK
 62
     0
 10
9.616296
 20
10.610957
 30
0.0
  0
POINT
  8
DEFPOINTS
  6
BYBLOCK
 62
     0
 10
9.896296
 20
10.610957
 30
0.0
  0
POINT
  8
DEFPOINTS
  6
BYBLOCK
 62
     0
 10
9.896296
 20
10.009592
 30
0.0
  0
ENDBLK
  8
0
  0
BLOCK
  8
0
  2
*D40
 70
    65
 10
0.0
 20
0.0
 30
0.0
  3
*D
  0
LINE
  8
0
  6
BYBLOCK
 62
     0
 10
8.651989
 20
2.907062
 30
0.0
 11
8.651989
 21
2.212108
 31
0.0
  0
LINE
  8
0
  6
BYBLOCK
 62
     0
 10
8.751989
 20
2.659062
 30
0.0
 11
8.751989
 21
2.212108
 31
0.0
  0
LINE
  8
0
  6
BYBLOCK
 62
     0
 10
8.404489
 20
2.339983
 30
0.0
 11
8.156989
 21
2.339983
 31
0.0
  0
LINE
  8
0
  6
BYBLOCK
 62
     0
 10
8.999489
 20
2.339983
 30
0.0
 11
9.246989
 21
2.339983
 31
0.0
  0
SOLID
  8
0
  6
BYBLOCK
 62
     0
 10
8.404489
 20
2.381233
 30
0.0
 11
8.404489
 21
2.298733
 31
0.0
 12
8.651989
 22
2.339983
 32
0.0
 13
8.651989
 23
2.339983
 33
0.0
  0
SOLID
  8
0
  6
BYBLOCK
 62
     0
 10
8.999489
 20
2.381233
 30
0.0
 11
8.999489
 21
2.298733
 31
0.0
 12
8.751989
 22
2.339983
 32
0.0
 13
8.751989
 23
2.339983
 33
0.0
  0
TEXT
  8
0
  6
BYBLOCK
 62
     0
 10
9.370739
 20
2.254045
 30
0.0
 40
0.171875
  1
0.100
 41
0.75
  7
TXT
 72
     1
 11
9.57484
 21
2.339983
 31
0.0
 73
     2
  0
POINT
  8
DEFPOINTS
  6
BYBLOCK
 62
     0
 10
8.651989
 20
2.993687
 30
0.0
  0
POINT
  8
DEFPOINTS
  6
BYBLOCK
 62
     0
 10
8.751989
 20
2.745687
 30
0.0
  0
POINT
  8
DEFPOINTS
  6
BYBLOCK
 62
     0
 10
8.751989
 20
2.339983
 30
0.0
  0
ENDBLK
  8
0
  0
BLOCK
  8
0
  2
*D41
 70
    65
 10
0.0
 20
0.0
 30
0.0
  3
*D
  0
LINE
  8
0
  6
BYBLOCK
 62
     0
 10
7.653989
 20
2.548062
 30
0.0
 11
7.653989
 21
0.280233
 31
0.0
  0
LINE
  8
0
  6
BYBLOCK
 62
     0
 10
7.733989
 20
2.62205
 30
0.0
 11
7.733989
 21
0.280233
 31
0.0
  0
LINE
  8
0
  6
BYBLOCK
 62
     0
 10
7.406489
 20
0.408108
 30
0.0
 11
7.158989
 21
0.408108
 31
0.0
  0
LINE
  8
0
  6
BYBLOCK
 62
     0
 10
7.981489
 20
0.408108
 30
0.0
 11
8.228989
 21
0.408108
 31
0.0
  0
SOLID
  8
0
  6
BYBLOCK
 62
     0
 10
7.406489
 20
0.449358
 30
0.0
 11
7.406489
 21
0.366858
 31
0.0
 12
7.653989
 22
0.408108
 32
0.0
 13
7.653989
 23
0.408108
 33
0.0
  0
SOLID
  8
0
  6
BYBLOCK
 62
     0
 10
7.981489
 20
0.449358
 30
0.0
 11
7.981489
 21
0.366858
 31
0.0
 12
7.733989
 22
0.408108
 32
0.0
 13
7.733989
 23
0.408108
 33
0.0
  0
TEXT
  8
0
  6
BYBLOCK
 62
     0
 10
8.352739
 20
0.32217
 30
0.0
 40
0.171875
  1
0.080
 41
0.75
  7
TXT
 72
     1
 11
8.578325
 21
0.408108
 31
0.0
 73
     2
  0
POINT
  8
DEFPOINTS
  6
BYBLOCK
 62
     0
 10
7.653989
 20
2.634687
 30
0.0
  0
POINT
  8
DEFPOINTS
  6
BYBLOCK
 62
     0
 10
7.733989
 20
2.708675
 30
0.0
  0
POINT
  8
DEFPOINTS
  6
BYBLOCK
 62
     0
 10
7.733989
 20
0.408108
 30
0.0
  0
ENDBLK
  8
0
  0
BLOCK
  8
0
  2
*D42
 70
    65
 10
0.0
 20
0.0
 30
0.0
  3
*D
  0
LINE
  8
0
  6
BYBLOCK
 62
     0
 10
1.81398
 20
2.641062
 30
0.0
 11
1.81398
 21
0.185345
 31
0.0
  0
LINE
  8
0
  6
BYBLOCK
 62
     0
 10
3.69998
 20
2.641062
 30
0.0
 11
3.69998
 21
0.185345
 31
0.0
  0
LINE
  8
0
  6
BYBLOCK
 62
     0
 10
2.06148
 20
0.31322
 30
0.0
 11
2.396902
 21
0.31322
 31
0.0
  0
LINE
  8
0
  6
BYBLOCK
 62
     0
 10
3.45248
 20
0.31322
 30
0.0
 11
3.117059
 21
0.31322
 31
0.0
  0
SOLID
  8
0
  6
BYBLOCK
 62
     0
 10
2.06148
 20
0.35447
 30
0.0
 11
2.06148
 21
0.27197
 31
0.0
 12
1.81398
 22
0.31322
 32
0.0
 13
1.81398
 23
0.31322
 33
0.0
  0
SOLID
  8
0
  6
BYBLOCK
 62
     0
 10
3.45248
 20
0.35447
 30
0.0
 11
3.45248
 21
0.27197
 31
0.0
 12
3.69998
 22
0.31322
 32
0.0
 13
3.69998
 23
0.31322
 33
0.0
  0
TEXT
  8
0
  6
BYBLOCK
 62
     0
 10
2.520652
 20
0.227283
 30
0.0
 40
0.171875
  1
1.886
 41
0.75
  7
TXT
 72
     1
 11
2.75698
 21
0.31322
 31
0.0
 73
     2
  0
POINT
  8
DEFPOINTS
  6
BYBLOCK
 62
     0
 10
1.81398
 20
2.727687
 30
0.0
  0
POINT
  8
DEFPOINTS
  6
BYBLOCK
 62
     0
 10
3.69998
 20
2.727687
 30
0.0
  0
POINT
  8
DEFPOINTS
  6
BYBLOCK
 62
     0
 10
3.69998
 20
0.31322
 30
0.0
  0
ENDBLK
  8
0
  0
BLOCK
  8
0
  2
*D43
 70
    65
 10
0.0
 20
0.0
 30
0.0
  3
*D
  0
LINE
  8
0
  6
BYBLOCK
 62
     0
 10
2.22748
 20
2.952062
 30
0.0
 11
2.22748
 21
0.57172
 31
0.0
  0
LINE
  8
0
  6
BYBLOCK
 62
     0
 10
3.28648
 20
2.952062
 30
0.0
 11
3.28648
 21
0.57172
 31
0.0
  0
LINE
  8
0
  6
BYBLOCK
 62
     0
 10
1.97998
 20
0.699595
 30
0.0
 11
1.73248
 21
0.699595
 31
0.0
  0
LINE
  8
0
  6
BYBLOCK
 62
     0
 10
3.53398
 20
0.699595
 30
0.0
 11
3.78148
 21
0.699595
 31
0.0
  0
SOLID
  8
0
  6
BYBLOCK
 62
     0
 10
1.97998
 20
0.740845
 30
0.0
 11
1.97998
 21
0.658345
 31
0.0
 12
2.22748
 22
0.699595
 32
0.0
 13
2.22748
 23
0.699595
 33
0.0
  0
SOLID
  8
0
  6
BYBLOCK
 62
     0
 10
3.53398
 20
0.740845
 30
0.0
 11
3.53398
 21
0.658345
 31
0.0
 12
3.28648
 22
0.699595
 32
0.0
 13
3.28648
 23
0.699595
 33
0.0
  0
TEXT
  8
0
  6
BYBLOCK
 62
     0
 10
2.531394
 20
0.613658
 30
0.0
 40
0.171875
  1
1.059
 41
0.75
  7
TXT
 72
     1
 11
2.75698
 21
0.699595
 31
0.0
 73
     2
  0
POINT
  8
DEFPOINTS
  6
BYBLOCK
 62
     0
 10
2.22748
 20
3.038687
 30
0.0
  0
POINT
  8
DEFPOINTS
  6
BYBLOCK
 62
     0
 10
3.28648
 20
3.038687
 30
0.0
  0
POINT
  8
DEFPOINTS
  6
BYBLOCK
 62
     0
 10
3.28648
 20
0.699595
 30
0.0
  0
ENDBLK
  8
0
  0
BLOCK
  8
0
  2
*D44
 70
    65
 10
0.0
 20
0.0
 30
0.0
  3
*D
  0
LINE
  8
0
  6
BYBLOCK
 62
     0
 10
2.22748
 20
2.952062
 30
0.0
 11
2.22748
 21
1.34447
 31
0.0
  0
LINE
  8
0
  6
BYBLOCK
 62
     0
 10
1.81398
 20
2.641062
 30
0.0
 11
1.81398
 21
1.34447
 31
0.0
  0
LINE
  8
0
  6
BYBLOCK
 62
     0
 10
2.47498
 20
1.472345
 30
0.0
 11
2.72248
 21
1.472345
 31
0.0
  0
LINE
  8
0
  6
BYBLOCK
 62
     0
 10
1.56648
 20
1.472345
 30
0.0
 11
1.31898
 21
1.472345
 31
0.0
  0
SOLID
  8
0
  6
BYBLOCK
 62
     0
 10
2.47498
 20
1.513595
 30
0.0
 11
2.47498
 21
1.431095
 31
0.0
 12
2.22748
 22
1.472345
 32
0.0
 13
2.22748
 23
1.472345
 33
0.0
  0
SOLID
  8
0
  6
BYBLOCK
 62
     0
 10
1.56648
 20
1.513595
 30
0.0
 11
1.56648
 21
1.431095
 31
0.0
 12
1.81398
 22
1.472345
 32
0.0
 13
1.81398
 23
1.472345
 33
0.0
  0
TEXT
  8
0
  6
BYBLOCK
 62
     0
 10
0.744059
 20
1.386408
 30
0.0
 40
0.171875
  1
0.414
 41
0.75
  7
TXT
 72
     1
 11
0.969644
 21
1.472345
 31
0.0
 73
     2
  0
POINT
  8
DEFPOINTS
  6
BYBLOCK
 62
     0
 10
2.22748
 20
3.038687
 30
0.0
  0
POINT
  8
DEFPOINTS
  6
BYBLOCK
 62
     0
 10
1.81398
 20
2.727687
 30
0.0
  0
POINT
  8
DEFPOINTS
  6
BYBLOCK
 62
     0
 10
1.81398
 20
1.472345
 30
0.0
  0
ENDBLK
  8
0
  0
BLOCK
  8
0
  2
*D45
 70
    65
 10
0.0
 20
0.0
 30
0.0
  3
*D
  0
LINE
  8
0
  6
BYBLOCK
 62
     0
 10
7.650364
 20
3.146687
 30
0.0
 11
6.886184
 21
3.146687
 31
0.0
  0
LINE
  8
0
  6
BYBLOCK
 62
     0
 10
7.567364
 20
2.634687
 30
0.0
 11
6.886184
 21
2.634687
 31
0.0
  0
LINE
  8
0
  6
BYBLOCK
 62
     0
 10
7.014059
 20
3.394187
 30
0.0
 11
7.014059
 21
3.641687
 31
0.0
  0
LINE
  8
0
  6
BYBLOCK
 62
     0
 10
7.014059
 20
2.387187
 30
0.0
 11
7.014059
 21
2.139687
 31
0.0
  0
SOLID
  8
0
  6
BYBLOCK
 62
     0
 10
6.972809
 20
3.394187
 30
0.0
 11
7.055309
 21
3.394187
 31
0.0
 12
7.014059
 22
3.146687
 32
0.0
 13
7.014059
 23
3.146687
 33
0.0
  0
SOLID
  8
0
  6
BYBLOCK
 62
     0
 10
6.972809
 20
2.387187
 30
0.0
 11
7.055309
 21
2.387187
 31
0.0
 12
7.014059
 22
2.634687
 32
0.0
 13
7.014059
 23
2.634687
 33
0.0
  0
TEXT
  8
0
  6
BYBLOCK
 62
     0
 10
6.788473
 20
2.804749
 30
0.0
 40
0.171875
  1
0.512
 41
0.75
  7
TXT
 72
     1
 11
7.014059
 21
2.890687
 31
0.0
 73
     2
  0
POINT
  8
DEFPOINTS
  6
BYBLOCK
 62
     0
 10
7.736989
 20
3.146687
 30
0.0
  0
POINT
  8
DEFPOINTS
  6
BYBLOCK
 62
     0
 10
7.653989
 20
2.634687
 30
0.0
  0
POINT
  8
DEFPOINTS
  6
BYBLOCK
 62
     0
 10
7.014059
 20
2.634687
 30
0.0
  0
ENDBLK
  8
0
  0
BLOCK
  8
0
  2
*D46
 70
    65
 10
0.0
 20
0.0
 30
0.0
  3
*D
  0
LINE
  8
0
  6
BYBLOCK
 62
     0
 10
8.745614
 20
6.352687
 30
0.0
 11
9.32383
 21
6.352687
 31
0.0
  0
LINE
  8
0
  6
BYBLOCK
 62
     0
 10
8.745614
 20
2.652687
 30
0.0
 11
9.32383
 21
2.652687
 31
0.0
  0
LINE
  8
0
  6
BYBLOCK
 62
     0
 10
9.195955
 20
6.105187
 30
0.0
 11
9.195955
 21
4.712374
 31
0.0
  0
LINE
  8
0
  6
BYBLOCK
 62
     0
 10
9.195955
 20
2.900187
 30
0.0
 11
9.195955
 21
4.292999
 31
0.0
  0
SOLID
  8
0
  6
BYBLOCK
 62
     0
 10
9.154705
 20
6.105187
 30
0.0
 11
9.237205
 21
6.105187
 31
0.0
 12
9.195955
 22
6.352687
 32
0.0
 13
9.195955
 23
6.352687
 33
0.0
  0
SOLID
  8
0
  6
BYBLOCK
 62
     0
 10
9.154705
 20
2.900187
 30
0.0
 11
9.237205
 21
2.900187
 31
0.0
 12
9.195955
 22
2.652687
 32
0.0
 13
9.195955
 23
2.652687
 33
0.0
  0
TEXT
  8
0
  6
BYBLOCK
 62
     0
 10
8.959627
 20
4.416749
 30
0.0
 40
0.171875
  1
3.700
 41
0.75
  7
TXT
 72
     1
 11
9.195955
 21
4.502687
 31
0.0
 73
     2
  0
POINT
  8
DEFPOINTS
  6
BYBLOCK
 62
     0
 10
8.658989
 20
6.352687
 30
0.0
  0
POINT
  8
DEFPOINTS
  6
BYBLOCK
 62
     0
 10
8.658989
 20
2.652687
 30
0.0
  0
POINT
  8
DEFPOINTS
  6
BYBLOCK
 62
     0
 10
9.195955
 20
2.652687
 30
0.0
  0
ENDBLK
  8
0
  0
BLOCK
  8
0
  2
*D47
 70
    65
 10
0.0
 20
0.0
 30
0.0
  3
*D
  0
LINE
  8
0
  6
BYBLOCK
 62
     0
 10
7.567364
 20
6.370687
 30
0.0
 11
6.172858
 21
6.370687
 31
0.0
  0
LINE
  8
0
  6
BYBLOCK
 62
     0
 10
7.567364
 20
2.634687
 30
0.0
 11
6.172858
 21
2.634687
 31
0.0
  0
LINE
  8
0
  6
BYBLOCK
 62
     0
 10
6.300733
 20
6.123187
 30
0.0
 11
6.300733
 21
4.712374
 31
0.0
  0
LINE
  8
0
  6
BYBLOCK
 62
     0
 10
6.300733
 20
2.882187
 30
0.0
 11
6.300733
 21
4.292999
 31
0.0
  0
SOLID
  8
0
  6
BYBLOCK
 62
     0
 10
6.259483
 20
6.123187
 30
0.0
 11
6.341983
 21
6.123187
 31
0.0
 12
6.300733
 22
6.370687
 32
0.0
 13
6.300733
 23
6.370687
 33
0.0
  0
SOLID
  8
0
  6
BYBLOCK
 62
     0
 10
6.259483
 20
2.882187
 30
0.0
 11
6.341983
 21
2.882187
 31
0.0
 12
6.300733
 22
2.634687
 32
0.0
 13
6.300733
 23
2.634687
 33
0.0
  0
TEXT
  8
0
  6
BYBLOCK
 62
     0
 10
6.042921
 20
4.416749
 30
0.0
 40
0.171875
  1
3.736
 41
0.75
  7
TXT
 72
     1
 11
6.300733
 21
4.502687
 31
0.0
 73
     2
  0
POINT
  8
DEFPOINTS
  6
BYBLOCK
 62
     0
 10
7.653989
 20
6.370687
 30
0.0
  0
POINT
  8
DEFPOINTS
  6
BYBLOCK
 62
     0
 10
7.653989
 20
2.634687
 30
0.0
  0
POINT
  8
DEFPOINTS
  6
BYBLOCK
 62
     0
 10
6.300733
 20
2.634687
 30
0.0
  0
ENDBLK
  8
0
  0
BLOCK
  8
0
  2
*D48
 70
    65
 10
0.0
 20
0.0
 30
0.0
  3
*D
  0
LINE
  8
0
  6
BYBLOCK
 62
     0
 10
3.878105
 20
5.803187
 30
0.0
 11
4.769922
 21
5.803187
 31
0.0
  0
LINE
  8
0
  6
BYBLOCK
 62
     0
 10
3.693605
 20
6.370687
 30
0.0
 11
4.769922
 21
6.370687
 31
0.0
  0
LINE
  8
0
  6
BYBLOCK
 62
     0
 10
4.642047
 20
5.555687
 30
0.0
 11
4.642047
 21
5.308187
 31
0.0
  0
LINE
  8
0
  6
BYBLOCK
 62
     0
 10
4.642047
 20
6.618187
 30
0.0
 11
4.642047
 21
6.865687
 31
0.0
  0
SOLID
  8
0
  6
BYBLOCK
 62
     0
 10
4.600797
 20
5.555687
 30
0.0
 11
4.683297
 21
5.555687
 31
0.0
 12
4.642047
 22
5.803187
 32
0.0
 13
4.642047
 23
5.803187
 33
0.0
  0
SOLID
  8
0
  6
BYBLOCK
 62
     0
 10
4.600797
 20
6.618187
 30
0.0
 11
4.683297
 21
6.618187
 31
0.0
 12
4.642047
 22
6.370687
 32
0.0
 13
4.642047
 23
6.370687
 33
0.0
  0
TEXT
  8
0
  6
BYBLOCK
 62
     0
 10
4.394976
 20
6.000999
 30
0.0
 40
0.171875
  1
0.568
 41
0.75
  7
TXT
 72
     1
 11
4.642047
 21
6.086937
 31
0.0
 73
     2
  0
POINT
  8
DEFPOINTS
  6
BYBLOCK
 62
     0
 10
3.79148
 20
5.803187
 30
0.0
  0
POINT
  8
DEFPOINTS
  6
BYBLOCK
 62
     0
 10
3.60698
 20
6.370687
 30
0.0
  0
POINT
  8
DEFPOINTS
  6
BYBLOCK
 62
     0
 10
4.642047
 20
6.370687
 30
0.0
  0
ENDBLK
  8
0
  0
BLOCK
  8
0
  2
*D49
 70
    65
 10
0.0
 20
0.0
 30
0.0
  3
*D
  0
LINE
  8
0
  6
BYBLOCK
 62
     0
 10
3.69998
 20
6.364312
 30
0.0
 11
3.69998
 21
8.003732
 31
0.0
  0
LINE
  8
0
  6
BYBLOCK
 62
     0
 10
3.14748
 20
6.548812
 30
0.0
 11
3.14748
 21
8.003732
 31
0.0
  0
LINE
  8
0
  6
BYBLOCK
 62
     0
 10
3.94748
 20
7.875857
 30
0.0
 11
4.19498
 21
7.875857
 31
0.0
  0
LINE
  8
0
  6
BYBLOCK
 62
     0
 10
2.89998
 20
7.875857
 30
0.0
 11
2.65248
 21
7.875857
 31
0.0
  0
SOLID
  8
0
  6
BYBLOCK
 62
     0
 10
3.94748
 20
7.917107
 30
0.0
 11
3.94748
 21
7.834607
 31
0.0
 12
3.69998
 22
7.875857
 32
0.0
 13
3.69998
 23
7.875857
 33
0.0
  0
SOLID
  8
0
  6
BYBLOCK
 62
     0
 10
2.89998
 20
7.917107
 30
0.0
 11
2.89998
 21
7.834607
 31
0.0
 12
3.14748
 22
7.875857
 32
0.0
 13
3.14748
 23
7.875857
 33
0.0
  0
TEXT
  8
0
  6
BYBLOCK
 62
     0
 10
2.03459
 20
7.789919
 30
0.0
 40
0.171875
  1
0.553
 41
0.75
  7
TXT
 72
     1
 11
2.28166
 21
7.875857
 31
0.0
 73
     2
  0
POINT
  8
DEFPOINTS
  6
BYBLOCK
 62
     0
 10
3.69998
 20
6.277687
 30
0.0
  0
POINT
  8
DEFPOINTS
  6
BYBLOCK
 62
     0
 10
3.14748
 20
6.462187
 30
0.0
  0
POINT
  8
DEFPOINTS
  6
BYBLOCK
 62
     0
 10
3.14748
 20
7.875857
 30
0.0
  0
ENDBLK
  8
0
  0
BLOCK
  8
0
  2
*D50
 70
    65
 10
0.0
 20
0.0
 30
0.0
  3
*D
  0
LINE
  8
0
  6
BYBLOCK
 62
     0
 10
2.36648
 20
6.548812
 30
0.0
 11
2.36648
 21
7.617357
 31
0.0
  0
LINE
  8
0
  6
BYBLOCK
 62
     0
 10
3.14748
 20
6.548812
 30
0.0
 11
3.14748
 21
7.617357
 31
0.0
  0
LINE
  8
0
  6
BYBLOCK
 62
     0
 10
2.11898
 20
7.489482
 30
0.0
 11
1.87148
 21
7.489482
 31
0.0
  0
LINE
  8
0
  6
BYBLOCK
 62
     0
 10
3.39498
 20
7.489482
 30
0.0
 11
3.64248
 21
7.489482
 31
0.0
  0
SOLID
  8
0
  6
BYBLOCK
 62
     0
 10
2.11898
 20
7.530732
 30
0.0
 11
2.11898
 21
7.448232
 31
0.0
 12
2.36648
 22
7.489482
 32
0.0
 13
2.36648
 23
7.489482
 33
0.0
  0
SOLID
  8
0
  6
BYBLOCK
 62
     0
 10
3.39498
 20
7.530732
 30
0.0
 11
3.39498
 21
7.448232
 31
0.0
 12
3.14748
 22
7.489482
 32
0.0
 13
3.14748
 23
7.489482
 33
0.0
  0
TEXT
  8
0
  6
BYBLOCK
 62
     0
 10
2.531394
 20
7.403544
 30
0.0
 40
0.171875
  1
0.781
 41
0.75
  7
TXT
 72
     1
 11
2.75698
 21
7.489482
 31
0.0
 73
     2
  0
POINT
  8
DEFPOINTS
  6
BYBLOCK
 62
     0
 10
2.36648
 20
6.462187
 30
0.0
  0
POINT
  8
DEFPOINTS
  6
BYBLOCK
 62
     0
 10
3.14748
 20
6.462187
 30
0.0
  0
POINT
  8
DEFPOINTS
  6
BYBLOCK
 62
     0
 10
3.14748
 20
7.489482
 30
0.0
  0
ENDBLK
  8
0
  0
BLOCK
  8
0
  2
*D51
 70
    65
 10
0.0
 20
0.0
 30
0.0
  3
*D
  0
LINE
  8
0
  6
BYBLOCK
 62
     0
 10
2.36648
 20
6.548812
 30
0.0
 11
2.36648
 21
7.230982
 31
0.0
  0
LINE
  8
0
  6
BYBLOCK
 62
     0
 10
1.81398
 20
6.364312
 30
0.0
 11
1.81398
 21
7.230982
 31
0.0
  0
LINE
  8
0
  6
BYBLOCK
 62
     0
 10
2.61398
 20
7.103107
 30
0.0
 11
2.86148
 21
7.103107
 31
0.0
  0
LINE
  8
0
  6
BYBLOCK
 62
     0
 10
1.56648
 20
7.103107
 30
0.0
 11
1.31898
 21
7.103107
 31
0.0
  0
SOLID
  8
0
  6
BYBLOCK
 62
     0
 10
2.61398
 20
7.144357
 30
0.0
 11
2.61398
 21
7.061857
 31
0.0
 12
2.36648
 22
7.103107
 32
0.0
 13
2.36648
 23
7.103107
 33
0.0
  0
SOLID
  8
0
  6
BYBLOCK
 62
     0
 10
1.56648
 20
7.144357
 30
0.0
 11
1.56648
 21
7.061857
 31
0.0
 12
1.81398
 22
7.103107
 32
0.0
 13
1.81398
 23
7.103107
 33
0.0
  0
TEXT
  8
0
  6
BYBLOCK
 62
     0
 10
0.70109
 20
7.017169
 30
0.0
 40
0.171875
  1
0.553
 41
0.75
  7
TXT
 72
     1
 11
0.94816
 21
7.103107
 31
0.0
 73
     2
  0
POINT
  8
DEFPOINTS
  6
BYBLOCK
 62
     0
 10
2.36648
 20
6.462187
 30
0.0
  0
POINT
  8
DEFPOINTS
  6
BYBLOCK
 62
     0
 10
1.81398
 20
6.277687
 30
0.0
  0
POINT
  8
DEFPOINTS
  6
BYBLOCK
 62
     0
 10
1.81398
 20
7.103107
 30
0.0
  0
ENDBLK
  8
0
  0
BLOCK
  8
0
  2
*D52
 70
    65
 10
0.0
 20
0.0
 30
0.0
  3
*D
  0
LINE
  8
0
  6
BYBLOCK
 62
     0
 10
3.878105
 20
3.448187
 30
0.0
 11
4.769922
 21
3.448187
 31
0.0
  0
LINE
  8
0
  6
BYBLOCK
 62
     0
 10
3.693605
 20
2.634687
 30
0.0
 11
4.769922
 21
2.634687
 31
0.0
  0
LINE
  8
0
  6
BYBLOCK
 62
     0
 10
4.642047
 20
3.695687
 30
0.0
 11
4.642047
 21
3.943187
 31
0.0
  0
LINE
  8
0
  6
BYBLOCK
 62
     0
 10
4.642047
 20
2.387187
 30
0.0
 11
4.642047
 21
2.139687
 31
0.0
  0
SOLID
  8
0
  6
BYBLOCK
 62
     0
 10
4.600797
 20
3.695687
 30
0.0
 11
4.683297
 21
3.695687
 31
0.0
 12
4.642047
 22
3.448187
 32
0.0
 13
4.642047
 23
3.448187
 33
0.0
  0
SOLID
  8
0
  6
BYBLOCK
 62
     0
 10
4.600797
 20
2.387187
 30
0.0
 11
4.683297
 21
2.387187
 31
0.0
 12
4.642047
 22
2.634687
 32
0.0
 13
4.642047
 23
2.634687
 33
0.0
  0
TEXT
  8
0
  6
BYBLOCK
 62
     0
 10
4.416461
 20
2.955499
 30
0.0
 40
0.171875
  1
0.814
 41
0.75
  7
TXT
 72
     1
 11
4.642047
 21
3.041437
 31
0.0
 73
     2
  0
POINT
  8
DEFPOINTS
  6
BYBLOCK
 62
     0
 10
3.79148
 20
3.448187
 30
0.0
  0
POINT
  8
DEFPOINTS
  6
BYBLOCK
 62
     0
 10
3.60698
 20
2.634687
 30
0.0
  0
POINT
  8
DEFPOINTS
  6
BYBLOCK
 62
     0
 10
4.642047
 20
2.634687
 30
0.0
  0
ENDBLK
  8
0
  0
BLOCK
  8
0
  2
*D53
 70
    65
 10
0.0
 20
0.0
 30
0.0
  3
*D
  0
LINE
  8
0
  6
BYBLOCK
 62
     0
 10
2.11898
 20
2.952062
 30
0.0
 11
2.11898
 21
0.958095
 31
0.0
  0
LINE
  8
0
  6
BYBLOCK
 62
     0
 10
3.39498
 20
2.952062
 30
0.0
 11
3.39498
 21
0.958095
 31
0.0
  0
LINE
  8
0
  6
BYBLOCK
 62
     0
 10
1.87148
 20
1.08597
 30
0.0
 11
1.62398
 21
1.08597
 31
0.0
  0
LINE
  8
0
  6
BYBLOCK
 62
     0
 10
3.64248
 20
1.08597
 30
0.0
 11
3.88998
 21
1.08597
 31
0.0
  0
SOLID
  8
0
  6
BYBLOCK
 62
     0
 10
1.87148
 20
1.12722
 30
0.0
 11
1.87148
 21
1.04472
 31
0.0
 12
2.11898
 22
1.08597
 32
0.0
 13
2.11898
 23
1.08597
 33
0.0
  0
SOLID
  8
0
  6
BYBLOCK
 62
     0
 10
3.64248
 20
1.12722
 30
0.0
 11
3.64248
 21
1.04472
 31
0.0
 12
3.39498
 22
1.08597
 32
0.0
 13
3.39498
 23
1.08597
 33
0.0
  0
TEXT
  8
0
  6
BYBLOCK
 62
     0
 10
2.520652
 20
1.000033
 30
0.0
 40
0.171875
  1
1.276
 41
0.75
  7
TXT
 72
     1
 11
2.75698
 21
1.08597
 31
0.0
 73
     2
  0
POINT
  8
DEFPOINTS
  6
BYBLOCK
 62
     0
 10
2.11898
 20
3.038687
 30
0.0
  0
POINT
  8
DEFPOINTS
  6
BYBLOCK
 62
     0
 10
3.39498
 20
3.038687
 30
0.0
  0
POINT
  8
DEFPOINTS
  6
BYBLOCK
 62
     0
 10
3.39498
 20
1.08597
 30
0.0
  0
ENDBLK
  8
0
  0
BLOCK
  8
0
  2
*D54
 70
    65
 10
0.0
 20
0.0
 30
0.0
  3
*D
  0
LINE
  8
0
  6
BYBLOCK
 62
     0
 10
2.11898
 20
2.952062
 30
0.0
 11
2.11898
 21
1.730845
 31
0.0
  0
LINE
  8
0
  6
BYBLOCK
 62
     0
 10
1.81398
 20
2.641062
 30
0.0
 11
1.81398
 21
1.730845
 31
0.0
  0
LINE
  8
0
  6
BYBLOCK
 62
     0
 10
2.36648
 20
1.85872
 30
0.0
 11
2.61398
 21
1.85872
 31
0.0
  0
LINE
  8
0
  6
BYBLOCK
 62
     0
 10
1.56648
 20
1.85872
 30
0.0
 11
1.31898
 21
1.85872
 31
0.0
  0
SOLID
  8
0
  6
BYBLOCK
 62
     0
 10
2.36648
 20
1.89997
 30
0.0
 11
2.36648
 21
1.81747
 31
0.0
 12
2.11898
 22
1.85872
 32
0.0
 13
2.11898
 23
1.85872
 33
0.0
  0
SOLID
  8
0
  6
BYBLOCK
 62
     0
 10
1.56648
 20
1.89997
 30
0.0
 11
1.56648
 21
1.81747
 31
0.0
 12
1.81398
 22
1.85872
 32
0.0
 13
1.81398
 23
1.85872
 33
0.0
  0
TEXT
  8
0
  6
BYBLOCK
 62
     0
 10
0.722574
 20
1.772783
 30
0.0
 40
0.171875
  1
0.305
 41
0.75
  7
TXT
 72
     1
 11
0.958902
 21
1.85872
 31
0.0
 73
     2
  0
POINT
  8
DEFPOINTS
  6
BYBLOCK
 62
     0
 10
2.11898
 20
3.038687
 30
0.0
  0
POINT
  8
DEFPOINTS
  6
BYBLOCK
 62
     0
 10
1.81398
 20
2.727687
 30
0.0
  0
POINT
  8
DEFPOINTS
  6
BYBLOCK
 62
     0
 10
1.81398
 20
1.85872
 30
0.0
  0
ENDBLK
  8
0
  0
BLOCK
  8
0
  2
*D55
 70
    65
 10
0.0
 20
0.0
 30
0.0
  3
*D
  0
LINE
  8
0
  6
BYBLOCK
 62
     0
 10
3.878105
 20
3.448187
 30
0.0
 11
4.769922
 21
3.448187
 31
0.0
  0
LINE
  8
0
  6
BYBLOCK
 62
     0
 10
3.878105
 20
5.803187
 30
0.0
 11
4.769922
 21
5.803187
 31
0.0
  0
LINE
  8
0
  6
BYBLOCK
 62
     0
 10
4.642047
 20
3.695687
 30
0.0
 11
4.642047
 21
4.293602
 31
0.0
  0
LINE
  8
0
  6
BYBLOCK
 62
     0
 10
4.642047
 20
5.555687
 30
0.0
 11
4.642047
 21
4.712977
 31
0.0
  0
SOLID
  8
0
  6
BYBLOCK
 62
     0
 10
4.600797
 20
3.695687
 30
0.0
 11
4.683297
 21
3.695687
 31
0.0
 12
4.642047
 22
3.448187
 32
0.0
 13
4.642047
 23
3.448187
 33
0.0
  0
SOLID
  8
0
  6
BYBLOCK
 62
     0
 10
4.600797
 20
5.555687
 30
0.0
 11
4.683297
 21
5.555687
 31
0.0
 12
4.642047
 22
5.803187
 32
0.0
 13
4.642047
 23
5.803187
 33
0.0
  0
TEXT
  8
0
  6
BYBLOCK
 62
     0
 10
3.92232
 20
4.417352
 30
0.0
 40
0.171875
  1
@ 0.785=
 41
0.75
  7
TXT
 72
     1
 11
4.36275
 21
4.503289
 31
0.0
 73
     2
  0
TEXT
  8
0
  6
BYBLOCK
 62
     0
 10
4.846148
 20
4.417352
 30
0.0
 40
0.171875
  1
2.355
 41
0.75
  7
TXT
 72
     1
 11
5.103961
 21
4.503289
 31
0.0
 73
     2
  0
POINT
  8
DEFPOINTS
  6
BYBLOCK
 62
     0
 10
3.79148
 20
3.448187
 30
0.0
  0
POINT
  8
DEFPOINTS
  6
BYBLOCK
 62
     0
 10
3.79148
 20
5.803187
 30
0.0
  0
POINT
  8
DEFPOINTS
  6
BYBLOCK
 62
     0
 10
4.642047
 20
5.803187
 30
0.0
  0
ENDBLK
  8
0
  0
BLOCK
  8
0
  2
*D56
 70
    65
 10
0.0
 20
0.0
 30
0.0
  3
*D
  0
LINE
  8
0
  6
BYBLOCK
 62
     0
 10
2.032355
 20
5.966687
 30
0.0
 11
1.023351
 21
5.966687
 31
0.0
  0
LINE
  8
0
  6
BYBLOCK
 62
     0
 10
1.820355
 20
6.370687
 30
0.0
 11
1.023351
 21
6.370687
 31
0.0
  0
LINE
  8
0
  6
BYBLOCK
 62
     0
 10
1.151226
 20
5.719187
 30
0.0
 11
1.151226
 21
5.471687
 31
0.0
  0
LINE
  8
0
  6
BYBLOCK
 62
     0
 10
1.151226
 20
6.618187
 30
0.0
 11
1.151226
 21
6.865687
 31
0.0
  0
SOLID
  8
0
  6
BYBLOCK
 62
     0
 10
1.109976
 20
5.719187
 30
0.0
 11
1.192476
 21
5.719187
 31
0.0
 12
1.151226
 22
5.966687
 32
0.0
 13
1.151226
 23
5.966687
 33
0.0
  0
SOLID
  8
0
  6
BYBLOCK
 62
     0
 10
1.109976
 20
6.618187
 30
0.0
 11
1.192476
 21
6.618187
 31
0.0
 12
1.151226
 22
6.370687
 32
0.0
 13
1.151226
 23
6.370687
 33
0.0
  0
TEXT
  8
0
  6
BYBLOCK
 62
     0
 10
0.914898
 20
6.082749
 30
0.0
 40
0.171875
  1
0.404
 41
0.75
  7
TXT
 72
     1
 11
1.151226
 21
6.168687
 31
0.0
 73
     2
  0
POINT
  8
DEFPOINTS
  6
BYBLOCK
 62
     0
 10
2.11898
 20
5.966687
 30
0.0
  0
POINT
  8
DEFPOINTS
  6
BYBLOCK
 62
     0
 10
1.90698
 20
6.370687
 30
0.0
  0
POINT
  8
DEFPOINTS
  6
BYBLOCK
 62
     0
 10
1.151226
 20
6.370687
 30
0.0
  0
ENDBLK
  8
0
  0
BLOCK
  8
0
  2
*D57
 70
    65
 10
0.0
 20
0.0
 30
0.0
  3
*D
  0
LINE
  8
0
  6
BYBLOCK
 62
     0
 10
2.032355
 20
3.038687
 30
0.0
 11
1.023351
 21
3.038687
 31
0.0
  0
LINE
  8
0
  6
BYBLOCK
 62
     0
 10
2.032355
 20
5.966687
 30
0.0
 11
1.023351
 21
5.966687
 31
0.0
  0
LINE
  8
0
  6
BYBLOCK
 62
     0
 10
1.151226
 20
3.286187
 30
0.0
 11
1.151226
 21
4.292999
 31
0.0
  0
LINE
  8
0
  6
BYBLOCK
 62
     0
 10
1.151226
 20
5.719187
 30
0.0
 11
1.151226
 21
4.712374
 31
0.0
  0
SOLID
  8
0
  6
BYBLOCK
 62
     0
 10
1.109976
 20
3.286187
 30
0.0
 11
1.192476
 21
3.286187
 31
0.0
 12
1.151226
 22
3.038687
 32
0.0
 13
1.151226
 23
3.038687
 33
0.0
  0
SOLID
  8
0
  6
BYBLOCK
 62
     0
 10
1.109976
 20
5.719187
 30
0.0
 11
1.192476
 21
5.719187
 31
0.0
 12
1.151226
 22
5.966687
 32
0.0
 13
1.151226
 23
5.966687
 33
0.0
  0
TEXT
  8
0
  6
BYBLOCK
 62
     0
 10
0.893414
 20
4.416749
 30
0.0
 40
0.171875
  1
2.928
 41
0.75
  7
TXT
 72
     1
 11
1.151226
 21
4.502687
 31
0.0
 73
     2
  0
POINT
  8
DEFPOINTS
  6
BYBLOCK
 62
     0
 10
2.11898
 20
3.038687
 30
0.0
  0
POINT
  8
DEFPOINTS
  6
BYBLOCK
 62
     0
 10
2.11898
 20
5.966687
 30
0.0
  0
POINT
  8
DEFPOINTS
  6
BYBLOCK
 62
     0
 10
1.151226
 20
5.966687
 30
0.0
  0
ENDBLK
  8
0
  0
BLOCK
  8
0
  2
*D58
 70
    65
 10
0.0
 20
0.0
 30
0.0
  3
*D
  0
LINE
  8
0
  6
BYBLOCK
 62
     0
 10
2.032355
 20
3.038687
 30
0.0
 11
1.023351
 21
3.038687
 31
0.0
  0
LINE
  8
0
  6
BYBLOCK
 62
     0
 10
1.820355
 20
2.634687
 30
0.0
 11
1.023351
 21
2.634687
 31
0.0
  0
LINE
  8
0
  6
BYBLOCK
 62
     0
 10
1.151226
 20
3.286187
 30
0.0
 11
1.151226
 21
3.533687
 31
0.0
  0
LINE
  8
0
  6
BYBLOCK
 62
     0
 10
1.151226
 20
2.387187
 30
0.0
 11
1.151226
 21
2.139687
 31
0.0
  0
SOLID
  8
0
  6
BYBLOCK
 62
     0
 10
1.109976
 20
3.286187
 30
0.0
 11
1.192476
 21
3.286187
 31
0.0
 12
1.151226
 22
3.038687
 32
0.0
 13
1.151226
 23
3.038687
 33
0.0
  0
SOLID
  8
0
  6
BYBLOCK
 62
     0
 10
1.109976
 20
2.387187
 30
0.0
 11
1.192476
 21
2.387187
 31
0.0
 12
1.151226
 22
2.634687
 32
0.0
 13
1.151226
 23
2.634687
 33
0.0
  0
TEXT
  8
0
  6
BYBLOCK
 62
     0
 10
0.914898
 20
2.750749
 30
0.0
 40
0.171875
  1
0.404
 41
0.75
  7
TXT
 72
     1
 11
1.151226
 21
2.836687
 31
0.0
 73
     2
  0
POINT
  8
DEFPOINTS
  6
BYBLOCK
 62
     0
 10
2.11898
 20
3.038687
 30
0.0
  0
POINT
  8
DEFPOINTS
  6
BYBLOCK
 62
     0
 10
1.90698
 20
2.634687
 30
0.0
  0
POINT
  8
DEFPOINTS
  6
BYBLOCK
 62
     0
 10
1.151226
 20
2.634687
 30
0.0
  0
ENDBLK
  8
0
  0
BLOCK
  8
0
  2
*D59
 70
    65
 10
0.0
 20
0.0
 30
0.0
  3
*D
  0
LINE
  8
0
  6
BYBLOCK
 62
     0
 10
17.158136
 20
9.716118
 30
0.0
 11
15.066646
 21
9.716118
 31
0.0
  0
LINE
  8
0
  6
BYBLOCK
 62
     0
 10
17.158136
 20
9.524118
 30
0.0
 11
15.066646
 21
9.524118
 31
0.0
  0
LINE
  8
0
  6
BYBLOCK
 62
     0
 10
15.194521
 20
9.963618
 30
0.0
 11
15.194521
 21
10.211118
 31
0.0
  0
LINE
  8
0
  6
BYBLOCK
 62
     0
 10
15.194521
 20
9.276618
 30
0.0
 11
15.194521
 21
9.029118
 31
0.0
  0
LINE
  8
0
  6
BYBLOCK
 62
     0
 10
15.194521
 20
9.029118
 30
0.0
 11
14.947021
 21
9.029118
 31
0.0
  0
SOLID
  8
0
  6
BYBLOCK
 62
     0
 10
15.153271
 20
9.963618
 30
0.0
 11
15.235771
 21
9.963618
 31
0.0
 12
15.194521
 22
9.716118
 32
0.0
 13
15.194521
 23
9.716118
 33
0.0
  0
SOLID
  8
0
  6
BYBLOCK
 62
     0
 10
15.153271
 20
9.276618
 30
0.0
 11
15.235771
 21
9.276618
 31
0.0
 12
15.194521
 22
9.524118
 32
0.0
 13
15.194521
 23
9.524118
 33
0.0
  0
TEXT
  8
0
  6
BYBLOCK
 62
     0
 10
14.221709
 20
8.943181
 30
0.0
 40
0.171875
  1
R
 41
0.75
  7
TXT
 72
     1
 11
14.264677
 21
9.029118
 31
0.0
 73
     2
  0
TEXT
  8
0
  6
BYBLOCK
 62
     0
 10
14.350615
 20
8.943181
 30
0.0
 40
0.171875
  1
0.048
 41
0.75
  7
TXT
 72
     1
 11
14.586943
 21
9.029118
 31
0.0
 73
     2
  0
POINT
  8
DEFPOINTS
  6
BYBLOCK
 62
     0
 10
17.244761
 20
9.716118
 30
0.0
  0
POINT
  8
DEFPOINTS
  6
BYBLOCK
 62
     0
 10
17.244761
 20
9.524118
 30
0.0
  0
POINT
  8
DEFPOINTS
  6
BYBLOCK
 62
     0
 10
15.194521
 20
9.524118
 30
0.0
  0
ENDBLK
  8
0
  0
BLOCK
  8
0
  2
*D60
 70
    65
 10
0.0
 20
0.0
 30
0.0
  3
*D
  0
LINE
  8
0
  6
BYBLOCK
 62
     0
 10
16.578136
 20
10.496118
 30
0.0
 11
14.405271
 21
10.496118
 31
0.0
  0
LINE
  8
0
  6
BYBLOCK
 62
     0
 10
16.578136
 20
10.064118
 30
0.0
 11
14.405271
 21
10.064118
 31
0.0
  0
LINE
  8
0
  6
BYBLOCK
 62
     0
 10
14.533146
 20
10.743618
 30
0.0
 11
14.533146
 21
10.991118
 31
0.0
  0
LINE
  8
0
  6
BYBLOCK
 62
     0
 10
14.533146
 20
9.816618
 30
0.0
 11
14.533146
 21
9.569118
 31
0.0
  0
LINE
  8
0
  6
BYBLOCK
 62
     0
 10
14.533146
 20
9.569118
 30
0.0
 11
14.285646
 21
9.569118
 31
0.0
  0
SOLID
  8
0
  6
BYBLOCK
 62
     0
 10
14.491896
 20
10.743618
 30
0.0
 11
14.574396
 21
10.743618
 31
0.0
 12
14.533146
 22
10.496118
 32
0.0
 13
14.533146
 23
10.496118
 33
0.0
  0
SOLID
  8
0
  6
BYBLOCK
 62
     0
 10
14.491896
 20
9.816618
 30
0.0
 11
14.574396
 21
9.816618
 31
0.0
 12
14.533146
 22
10.064118
 32
0.0
 13
14.533146
 23
10.064118
 33
0.0
  0
TEXT
  8
0
  6
BYBLOCK
 62
     0
 10
13.603302
 20
9.483181
 30
0.0
 40
0.171875
  1
R
 41
0.75
  7
TXT
 72
     1
 11
13.646271
 21
9.569118
 31
0.0
 73
     2
  0
TEXT
  8
0
  6
BYBLOCK
 62
     0
 10
13.732209
 20
9.483181
 30
0.0
 40
0.171875
  1
0.108
 41
0.75
  7
TXT
 72
     1
 11
13.947052
 21
9.569118
 31
0.0
 73
     2
  0
POINT
  8
DEFPOINTS
  6
BYBLOCK
 62
     0
 10
16.664761
 20
10.496118
 30
0.0
  0
POINT
  8
DEFPOINTS
  6
BYBLOCK
 62
     0
 10
16.664761
 20
10.064118
 30
0.0
  0
POINT
  8
DEFPOINTS
  6
BYBLOCK
 62
     0
 10
14.533146
 20
10.064118
 30
0.0
  0
ENDBLK
  8
0
  0
BLOCK
  8
0
  2
*D61
 70
    65
 10
0.0
 20
0.0
 30
0.0
  3
*D
  0
LINE
  8
0
  6
BYBLOCK
 62
     0
 10
16.578136
 20
10.496118
 30
0.0
 11
13.743896
 21
10.496118
 31
0.0
  0
LINE
  8
0
  6
BYBLOCK
 62
     0
 10
16.578136
 20
10.276118
 30
0.0
 11
13.743896
 21
10.276118
 31
0.0
  0
LINE
  8
0
  6
BYBLOCK
 62
     0
 10
13.871771
 20
10.743618
 30
0.0
 11
13.871771
 21
10.991118
 31
0.0
  0
LINE
  8
0
  6
BYBLOCK
 62
     0
 10
13.871771
 20
10.028618
 30
0.0
 11
13.871771
 21
9.781118
 31
0.0
  0
LINE
  8
0
  6
BYBLOCK
 62
     0
 10
13.871771
 20
9.781118
 30
0.0
 11
13.624271
 21
9.781118
 31
0.0
  0
SOLID
  8
0
  6
BYBLOCK
 62
     0
 10
13.830521
 20
10.743618
 30
0.0
 11
13.913021
 21
10.743618
 31
0.0
 12
13.871771
 22
10.496118
 32
0.0
 13
13.871771
 23
10.496118
 33
0.0
  0
SOLID
  8
0
  6
BYBLOCK
 62
     0
 10
13.830521
 20
10.028618
 30
0.0
 11
13.913021
 21
10.028618
 31
0.0
 12
13.871771
 22
10.276118
 32
0.0
 13
13.871771
 23
10.276118
 33
0.0
  0
TEXT
  8
0
  6
BYBLOCK
 62
     0
 10
12.898959
 20
9.695181
 30
0.0
 40
0.171875
  1
R
 41
0.75
  7
TXT
 72
     1
 11
12.941927
 21
9.781118
 31
0.0
 73
     2
  0
TEXT
  8
0
  6
BYBLOCK
 62
     0
 10
13.027865
 20
9.695181
 30
0.0
 40
0.171875
  1
0.055
 41
0.75
  7
TXT
 72
     1
 11
13.264193
 21
9.781118
 31
0.0
 73
     2
  0
POINT
  8
DEFPOINTS
  6
BYBLOCK
 62
     0
 10
16.664761
 20
10.496118
 30
0.0
  0
POINT
  8
DEFPOINTS
  6
BYBLOCK
 62
     0
 10
16.664761
 20
10.276118
 30
0.0
  0
POINT
  8
DEFPOINTS
  6
BYBLOCK
 62
     0
 10
13.871771
 20
10.276118
 30
0.0
  0
ENDBLK
  8
0
  0
BLOCK
  8
0
  2
*D62
 70
    65
 10
0.0
 20
0.0
 30
0.0
  3
*D
  0
LINE
  8
0
  6
BYBLOCK
 62
     0
 10
16.782136
 20
11.932118
 30
0.0
 11
14.295286
 21
11.932118
 31
0.0
  0
LINE
  8
0
  6
BYBLOCK
 62
     0
 10
16.934136
 20
12.112118
 30
0.0
 11
14.295286
 21
12.112118
 31
0.0
  0
LINE
  8
0
  6
BYBLOCK
 62
     0
 10
14.423161
 20
11.684618
 30
0.0
 11
14.423161
 21
11.437118
 31
0.0
  0
LINE
  8
0
  6
BYBLOCK
 62
     0
 10
14.423161
 20
12.359618
 30
0.0
 11
14.423161
 21
12.607118
 31
0.0
  0
LINE
  8
0
  6
BYBLOCK
 62
     0
 10
14.423161
 20
12.607118
 30
0.0
 11
14.670661
 21
12.607118
 31
0.0
  0
SOLID
  8
0
  6
BYBLOCK
 62
     0
 10
14.381911
 20
11.684618
 30
0.0
 11
14.464411
 21
11.684618
 31
0.0
 12
14.423161
 22
11.932118
 32
0.0
 13
14.423161
 23
11.932118
 33
0.0
  0
SOLID
  8
0
  6
BYBLOCK
 62
     0
 10
14.381911
 20
12.359618
 30
0.0
 11
14.464411
 21
12.359618
 31
0.0
 12
14.423161
 22
12.112118
 32
0.0
 13
14.423161
 23
12.112118
 33
0.0
  0
TEXT
  8
0
  6
BYBLOCK
 62
     0
 10
14.794411
 20
12.521181
 30
0.0
 40
0.171875
  1
0.045
 41
0.75
  7
TXT
 72
     1
 11
15.030739
 21
12.607118
 31
0.0
 73
     2
  0
POINT
  8
DEFPOINTS
  6
BYBLOCK
 62
     0
 10
16.868761
 20
11.932118
 30
0.0
  0
POINT
  8
DEFPOINTS
  6
BYBLOCK
 62
     0
 10
17.020761
 20
12.112118
 30
0.0
  0
POINT
  8
DEFPOINTS
  6
BYBLOCK
 62
     0
 10
14.423161
 20
12.112118
 30
0.0
  0
ENDBLK
  8
0
  0
BLOCK
  8
0
  2
*D63
 70
    65
 10
0.0
 20
0.0
 30
0.0
  3
*D
  0
LINE
  8
0
  6
BYBLOCK
 62
     0
 10
12.968242
 20
2.634687
 30
0.0
 11
10.709204
 21
2.634687
 31
0.0
  0
LINE
  8
0
  6
BYBLOCK
 62
     0
 10
12.968242
 20
6.370687
 30
0.0
 11
10.709204
 21
6.370687
 31
0.0
  0
LINE
  8
0
  6
BYBLOCK
 62
     0
 10
10.837079
 20
2.882187
 30
0.0
 11
10.837079
 21
4.292999
 31
0.0
  0
LINE
  8
0
  6
BYBLOCK
 62
     0
 10
10.837079
 20
6.123187
 30
0.0
 11
10.837079
 21
4.712374
 31
0.0
  0
SOLID
  8
0
  6
BYBLOCK
 62
     0
 10
10.795829
 20
2.882187
 30
0.0
 11
10.878329
 21
2.882187
 31
0.0
 12
10.837079
 22
2.634687
 32
0.0
 13
10.837079
 23
2.634687
 33
0.0
  0
SOLID
  8
0
  6
BYBLOCK
 62
     0
 10
10.795829
 20
6.123187
 30
0.0
 11
10.878329
 21
6.123187
 31
0.0
 12
10.837079
 22
6.370687
 32
0.0
 13
10.837079
 23
6.370687
 33
0.0
  0
TEXT
  8
0
  6
BYBLOCK
 62
     0
 10
10.579267
 20
4.416749
 30
0.0
 40
0.171875
  1
3.736
 41
0.75
  7
TXT
 72
     1
 11
10.837079
 21
4.502687
 31
0.0
 73
     2
  0
POINT
  8
DEFPOINTS
  6
BYBLOCK
 62
     0
 10
13.054867
 20
2.634687
 30
0.0
  0
POINT
  8
DEFPOINTS
  6
BYBLOCK
 62
     0
 10
13.054867
 20
6.370687
 30
0.0
  0
POINT
  8
DEFPOINTS
  6
BYBLOCK
 62
     0
 10
10.837079
 20
6.370687
 30
0.0
  0
ENDBLK
  8
0
  0
ENDSEC
  0
SECTION
  2
ENTITIES
  0
LINE
  8
OBJECT
 10
3.60698
 20
2.944247
 30
0.0
 11
1.90698
 21
2.944247
 31
0.0
  0
LINE
  8
OBJECT
 10
1.81398
 20
3.037247
 30
0.0
 11
1.81398
 21
6.587247
 31
0.0
  0
LINE
  8
OBJECT
 10
1.90698
 20
6.680247
 30
0.0
 11
3.60698
 21
6.680247
 31
0.0
  0
LINE
  8
OBJECT
 10
3.69998
 20
6.587247
 30
0.0
 11
3.69998
 21
3.037247
 31
0.0
  0
ARC
  8
OBJECT
 10
1.90698
 20
3.037247
 30
0.0
 40
0.093
 50
180.0
 51
270.0
  0
ARC
  8
OBJECT
 10
3.60698
 20
3.037247
 30
0.0
 40
0.093
 50
270.0
 51
0.0
  0
ARC
  8
OBJECT
 10
1.90698
 20
6.587247
 30
0.0
 40
0.093
 50
90.0
 51
180.0
  0
ARC
  8
OBJECT
 10
3.60698
 20
6.587247
 30
0.0
 40
0.093
 50
0.0
 51
90.0
  0
DIMENSION
  8
DIM
  2
*D58
 10
1.151226
 20
2.944247
 30
0.0
 11
1.151226
 21
3.146247
 31
0.0
 12
0.0
 22
0.309561
 32
0.0
 13
2.11898
 23
3.348247
 33
0.0
 14
1.90698
 24
2.944247
 34
0.0
 50
90.0
  3
23NSTDI
  0
DIMENSION
  8
DIM
  2
*D57
 10
1.151226
 20
6.276247
 30
0.0
 11
1.151226
 21
4.812247
 31
0.0
 12
0.0
 22
0.309561
 32
0.0
 13
2.11898
 23
3.348247
 33
0.0
 14
2.11898
 24
6.276247
 34
0.0
 50
90.0
  3
23NSTD
  0
DIMENSION
  8
DIM
  2
*D56
 10
1.151226
 20
6.680247
 30
0.0
 11
1.151226
 21
6.478247
 31
0.0
 12
0.0
 22
0.309561
 32
0.0
 13
2.11898
 23
6.276247
 33
0.0
 14
1.90698
 24
6.680247
 34
0.0
 50
90.0
  3
23NSTDI
  0
LINE
  8
CENTER
 10
3.14748
 20
6.392747
 30
0.0
 11
3.14748
 21
6.771747
 31
0.0
  0
DIMENSION
  8
DIM
  2
*D55
 10
4.642047
 20
6.112747
 30
0.0
 11
4.642047
 21
4.81285
 31
0.0
 12
0.0
 22
0.309561
 32
0.0
 70
   128
  1
@ 0.785=<>
 13
3.79148
 23
3.757747
 33
0.0
 14
3.79148
 24
6.112747
 34
0.0
 50
90.0
  3
23NSTD
  0
DIMENSION
  8
DIM
  2
*D54
 10
1.81398
 20
2.168281
 30
0.0
 11
0.958902
 21
2.168281
 31
0.0
 12
0.0
 22
0.309561
 32
0.0
 13
2.11898
 23
3.348247
 33
0.0
 14
1.81398
 24
3.037247
 34
0.0
  3
23NSTD
  0
DIMENSION
  8
DIM
  2
*D53
 10
3.39498
 20
1.395531
 30
0.0
 11
2.75698
 21
1.395531
 31
0.0
 12
0.0
 22
0.309561
 32
0.0
 13
2.11898
 23
3.348247
 33
0.0
 14
3.39498
 24
3.348247
 34
0.0
  3
23NSTDI
  0
DIMENSION
  8
DIM
  2
*D52
 10
4.642047
 20
2.944247
 30
0.0
 11
4.642047
 21
3.350997
 31
0.0
 12
0.0
 22
0.309561
 32
0.0
 13
3.79148
 23
3.757747
 33
0.0
 14
3.60698
 24
2.944247
 34
0.0
 50
90.0
  3
23NSTDI
  0
DIMENSION
  8
DIM
  2
*D51
 10
1.81398
 20
7.412667
 30
0.0
 11
0.94816
 21
7.412667
 31
0.0
 12
0.0
 22
0.309561
 32
0.0
 13
2.36648
 23
6.771747
 33
0.0
 14
1.81398
 24
6.587247
 34
0.0
  3
23NSTD
  0
DIMENSION
  8
DIM
  2
*D50
 10
3.14748
 20
7.799042
 30
0.0
 11
2.75698
 21
7.799042
 31
0.0
 12
0.0
 22
0.309561
 32
0.0
 13
2.36648
 23
6.771747
 33
0.0
 14
3.14748
 24
6.771747
 34
0.0
  3
23NSTDI
  0
DIMENSION
  8
DIM
  2
*D49
 10
3.14748
 20
8.185417
 30
0.0
 11
2.28166
 21
8.185417
 31
0.0
 12
0.0
 22
0.309561
 32
0.0
 13
3.69998
 23
6.587247
 33
0.0
 14
3.14748
 24
6.771747
 34
0.0
  3
23NSTD
  0
DIMENSION
  8
DIM
  2
*D48
 10
4.642047
 20
6.680247
 30
0.0
 11
4.642047
 21
6.396497
 31
0.0
 12
0.0
 22
0.309561
 32
0.0
 13
3.79148
 23
6.112747
 33
0.0
 14
3.60698
 24
6.680247
 34
0.0
 50
90.0
  3
23NSTDI
  0
DIMENSION
  8
DIM
  2
*D47
 10
6.300733
 20
2.944247
 30
0.0
 11
6.300733
 21
4.812247
 31
0.0
 12
0.0
 22
0.309561
 32
0.0
 13
7.653989
 23
6.680247
 33
0.0
 14
7.653989
 24
2.944247
 34
0.0
 50
90.0
  3
23NSTD
  0
DIMENSION
  8
DIM
  2
*D46
 10
9.195955
 20
2.962247
 30
0.0
 11
9.195955
 21
4.812247
 31
0.0
 12
0.0
 22
0.309561
 32
0.0
 13
8.658989
 23
6.662247
 33
0.0
 14
8.658989
 24
2.962247
 34
0.0
 50
90.0
  3
23NSTD
  0
SOLID
  8
BEND
 10
1.706702
 20
6.991429
 30
0.0
 11
1.706702
 21
7.051429
 31
0.0
 12
1.526702
 22
7.021429
 32
0.0
 13
1.526702
 23
7.021429
 33
0.0
  0
LINE
  8
BEND
 10
1.706702
 20
7.021429
 30
0.0
 11
2.11898
 21
7.021429
 31
0.0
  0
LINE
  8
BEND
 10
2.11898
 20
7.021429
 30
0.0
 11
2.11898
 21
2.603066
 31
0.0
  0
TEXT
  8
TEXT
 10
1.56037
 20
6.772341
 30
0.0
 40
0.171875
  1
A
 41
0.75
  7
TXT
 72
     4
 11
1.603339
 21
6.858279
 31
0.0
  0
SOLID
  8
BEND
 10
1.706702
 20
2.573066
 30
0.0
 11
1.706702
 21
2.633066
 31
0.0
 12
1.526702
 22
2.603066
 32
0.0
 13
1.526702
 23
2.603066
 33
0.0
  0
TEXT
  8
TEXT
 10
1.56037
 20
2.353978
 30
0.0
 40
0.171875
  1
A
 41
0.75
  7
TXT
 72
     4
 11
1.603339
 21
2.439916
 31
0.0
  0
LINE
  8
BEND
 10
1.706702
 20
2.603066
 30
0.0
 11
2.11898
 21
2.603066
 31
0.0
  0
DIMENSION
  8
DIM
  2
*D45
 10
7.014059
 20
2.944247
 30
0.0
 11
7.014059
 21
3.200247
 31
0.0
 12
0.0
 22
0.309561
 32
0.0
 13
7.736989
 23
3.456247
 33
0.0
 14
7.653989
 24
2.944247
 34
0.0
 50
90.0
  3
23NSTDI
  0
DIMENSION
  8
DIM
  2
*D44
 10
1.81398
 20
1.781906
 30
0.0
 11
0.969644
 21
1.781906
 31
0.0
 12
0.0
 22
0.309561
 32
0.0
 13
2.22748
 23
3.348247
 33
0.0
 14
1.81398
 24
3.037247
 34
0.0
  3
23NSTD
  0
DIMENSION
  8
DIM
  2
*D43
 10
3.28648
 20
1.009156
 30
0.0
 11
2.75698
 21
1.009156
 31
0.0
 12
0.0
 22
0.309561
 32
0.0
 13
2.22748
 23
3.348247
 33
0.0
 14
3.28648
 24
3.348247
 34
0.0
  3
23NSTDI
  0
DIMENSION
  8
DIM
  2
*D42
 10
3.69998
 20
0.622781
 30
0.0
 11
2.75698
 21
0.622781
 31
0.0
 12
0.0
 22
0.309561
 32
0.0
 13
1.81398
 23
3.037247
 33
0.0
 14
3.69998
 24
3.037247
 34
0.0
  3
23NSTD
  0
DIMENSION
  8
DIM
  2
*D41
 10
7.733989
 20
0.717669
 30
0.0
 11
8.578325
 21
0.717669
 31
0.0
 12
0.0
 22
0.309561
 32
0.0
 13
7.653989
 23
2.944247
 33
0.0
 14
7.733989
 24
3.018236
 34
0.0
  3
23NSTD
  0
DIMENSION
  8
DIM
  2
*D40
 10
8.751989
 20
2.649544
 30
0.0
 11
9.57484
 21
2.649544
 31
0.0
 12
0.0
 22
0.309561
 32
0.0
 13
8.651989
 23
3.303247
 33
0.0
 14
8.751989
 24
3.055247
 34
0.0
  3
23NSTD
  0
CIRCLE
  8
BEND
 10
3.14748
 20
6.582247
 30
0.0
 40
0.263867
  0
POLYLINE
  8
DIM
 66
     1
 10
0.0
 20
0.0
 30
0.0
 41
0.092813
  0
VERTEX
  8
DIM
 10
3.348511
 20
6.771333
 30
0.0
 41
0.092813
  0
VERTEX
  8
DIM
 10
3.551704
 20
6.912644
 30
0.0
 41
0.0
  0
VERTEX
  8
DIM
 10
4.802236
 20
7.782328
 30
0.0
 41
0.0
  0
VERTEX
  8
DIM
 10
5.049736
 20
7.782328
 30
0.0
 41
0.0
  0
SEQEND
  8
DIM
  0
TEXT
  8
TEXT
 10
5.173486
 20
7.696391
 30
0.0
 40
0.171875
  1
SEE DETAIL "B"
 41
0.75
  7
TXT
 11
5.173486
 21
7.782328
 31
0.0
 73
     2
  0
LINE
  8
CENTER
 10
9.756296
 20
10.497976
 30
0.0
 11
9.756296
 21
12.013976
 31
0.0
  0
DIMENSION
  8
DIM
  2
*D39
 10
9.896296
 20
10.418611
 30
0.0
 11
10.740632
 21
10.418611
 31
0.0
 12
0.0
 22
0.409019
 32
0.0
 13
9.616296
 23
11.019976
 33
0.0
 14
9.896296
 24
11.019976
 34
0.0
  3
23NSTD4
  0
DIMENSION
  8
DIM
  2
*D38
 10
9.756296
 20
10.032236
 30
0.0
 11
10.611374
 21
10.032236
 31
0.0
 12
0.0
 22
0.409019
 32
0.0
 13
9.376296
 23
11.019976
 33
0.0
 14
9.756296
 24
10.497976
 34
0.0
  3
23NSTD4
  0
DIMENSION
  8
DIM
  2
*D37
 10
9.756296
 20
9.645861
 30
0.0
 11
10.611374
 21
9.645861
 31
0.0
 12
0.0
 22
0.409019
 32
0.0
 13
9.616296
 23
11.019976
 33
0.0
 14
9.756296
 24
10.497976
 34
0.0
  3
23NSTD4
  0
DIMENSION
  8
DIM
  2
*D36
 10
8.419868
 20
11.019976
 30
0.0
 11
7.81229
 21
10.524976
 31
0.0
 12
0.0
 22
0.409019
 32
0.0
 13
8.718665
 23
11.255976
 33
0.0
 14
9.376296
 24
11.019976
 34
0.0
 50
90.0
  3
23NSTD4
  0
DIMENSION
  8
DIM
  2
*D35
 10
12.412507
 20
11.351976
 30
0.0
 11
11.804929
 21
10.856976
 31
0.0
 12
0.0
 22
0.409019
 32
0.0
 13
10.736269
 23
11.647976
 33
0.0
 14
10.807388
 24
11.351976
 34
0.0
 50
90.0
  3
23NSTD4
  0
DIMENSION
  8
DIM
  2
*D34
 10
11.385138
 20
11.351976
 30
0.0
 11
11.992717
 21
11.846976
 31
0.0
 12
0.0
 22
0.409019
 32
0.0
 13
10.793927
 23
11.255976
 33
0.0
 14
10.807388
 24
11.351976
 34
0.0
 50
90.0
  3
23NSTD4
  0
DIMENSION
  8
DIM
  2
*D33
 10
7.014059
 20
6.167747
 30
0.0
 11
7.014059
 21
4.811997
 31
0.0
 12
0.0
 22
0.309561
 32
0.0
 13
7.736989
 23
3.456247
 33
0.0
 14
7.736989
 24
6.167747
 34
0.0
 50
90.0
  3
23NSTDI
  0
DIMENSION
  8
DIM
  2
*D32
 10
7.014059
 20
6.680247
 30
0.0
 11
7.014059
 21
6.423997
 31
0.0
 12
0.0
 22
0.309561
 32
0.0
 13
7.736989
 23
6.167747
 33
0.0
 14
7.653989
 24
6.680247
 34
0.0
 50
90.0
  3
23NSTDI
  0
TEXT
  8
TEXT
 10
5.429548
 20
0.551796
 30
0.0
 40
0.171875
  1
%%USECTION "A-A"
 41
0.75
  7
TXT
 72
     1
 11
6.18365
 21
0.551796
 31
0.0
  0
TEXT
  8
TEXT
 10
9.192011
 20
9.054287
 30
0.0
 40
0.171875
  1
%%UDETAIL "B"
 41
0.75
  7
TXT
 72
     1
 11
9.752754
 21
9.054287
 31
0.0
  0
DIMENSION
  8
DIM
  2
*D31
 10
2.488172
 20
6.523247
 30
0.0
 11
2.488172
 21
4.812247
 31
0.0
 12
0.0
 22
0.309561
 32
0.0
 13
2.46148
 23
3.101247
 33
0.0
 14
2.46148
 24
6.523247
 34
0.0
 50
90.0
  3
23NSTDI
  0
DIMENSION
  8
DIM
  2
*D30
 10
3.54298
 20
4.326625
 30
0.0
 11
2.809035
 21
4.326625
 31
0.0
 12
0.0
 22
0.309561
 32
0.0
 70
   128
 13
1.97098
 23
4.447747
 33
0.0
 14
3.54298
 24
4.447747
 34
0.0
  3
23NSTDI
  0
TEXT
  8
DIM
 10
4.703751
 20
1.931405
 30
0.0
 40
0.172
  1
0.217 DIA. BOSS
 41
0.75
  7
TXT
 72
     2
 11
4.703751
 21
2.017405
 31
0.0
 73
     2
  0
TEXT
  8
DIM
 10
4.703751
 20
1.644738
 30
0.0
 40
0.172
  1
WITH 0.089 DIA. HOLE
 41
0.75
  7
TXT
 72
     2
 11
4.703751
 21
1.730738
 31
0.0
 73
     2
  0
TEXT
  8
DIM
 10
4.703751
 20
1.358071
 30
0.0
 40
0.172
  1
x 0.915 DEEP
 41
0.75
  7
TXT
 72
     2
 11
4.703751
 21
1.444071
 31
0.0
 73
     2
  0
TEXT
  8
DIM
 10
4.703751
 20
1.071405
 30
0.0
 40
0.172
  1
(4) PLACES
 41
0.75
  7
TXT
 72
     2
 11
4.703751
 21
1.157405
 31
0.0
 73
     2
  0
LINE
  8
OBJECT
 10
3.11248
 20
6.523247
 30
0.0
 11
3.11248
 21
6.582247
 31
0.0
  0
LINE
  8
OBJECT
 10
3.05248
 20
6.523247
 30
0.0
 11
3.05248
 21
6.582247
 31
0.0
  0
LINE
  8
OBJECT
 10
3.05248
 20
6.523247
 30
0.0
 11
3.11248
 21
6.523247
 31
0.0
  0
LINE
  8
OBJECT
 10
3.24248
 20
6.523247
 30
0.0
 11
3.18248
 21
6.523247
 31
0.0
  0
LINE
  8
OBJECT
 10
3.18248
 20
6.523247
 30
0.0
 11
3.18248
 21
6.582247
 31
0.0
  0
LINE
  8
OBJECT
 10
3.24248
 20
6.523247
 30
0.0
 11
3.24248
 21
6.582247
 31
0.0
  0
LINE
  8
OBJECT
 10
1.88798
 20
6.606247
 30
0.0
 11
3.62598
 21
6.606247
 31
0.0
  0
LINE
  8
OBJECT
 10
1.91198
 20
6.582247
 30
0.0
 11
3.60198
 21
6.582247
 31
0.0
  0
LINE
  8
OBJECT
 10
3.62598
 20
6.606247
 30
0.0
 11
3.62598
 21
3.018247
 31
0.0
  0
LINE
  8
OBJECT
 10
3.62598
 20
3.018247
 30
0.0
 11
1.88798
 21
3.018247
 31
0.0
  0
LINE
  8
OBJECT
 10
1.88798
 20
3.018247
 30
0.0
 11
1.88798
 21
6.606247
 31
0.0
  0
LINE
  8
OBJECT
 10
3.60198
 20
6.582247
 30
0.0
 11
3.60198
 21
3.042247
 31
0.0
  0
LINE
  8
OBJECT
 10
3.60198
 20
3.042247
 30
0.0
 11
1.91198
 21
3.042247
 31
0.0
  0
LINE
  8
OBJECT
 10
1.91198
 20
3.042247
 30
0.0
 11
1.91198
 21
6.582247
 31
0.0
  0
LINE
  8
CENTER
 10
3.41248
 20
6.112747
 30
0.0
 11
3.79148
 21
6.112747
 31
0.0
  0
LINE
  8
OBJECT
 10
3.54298
 20
6.207747
 30
0.0
 11
3.60198
 21
6.207747
 31
0.0
  0
LINE
  8
OBJECT
 10
3.54298
 20
6.147747
 30
0.0
 11
3.60198
 21
6.147747
 31
0.0
  0
LINE
  8
OBJECT
 10
3.54298
 20
6.207747
 30
0.0
 11
3.54298
 21
6.147747
 31
0.0
  0
LINE
  8
OBJECT
 10
3.54298
 20
6.017747
 30
0.0
 11
3.54298
 21
6.077747
 31
0.0
  0
LINE
  8
OBJECT
 10
3.54298
 20
6.077747
 30
0.0
 11
3.60198
 21
6.077747
 31
0.0
  0
LINE
  8
OBJECT
 10
3.54298
 20
6.017747
 30
0.0
 11
3.60198
 21
6.017747
 31
0.0
  0
LINE
  8
CENTER
 10
3.41248
 20
5.327747
 30
0.0
 11
3.79148
 21
5.327747
 31
0.0
  0
LINE
  8
OBJECT
 10
3.54298
 20
5.232747
 30
0.0
 11
3.54298
 21
5.292747
 31
0.0
  0
LINE
  8
OBJECT
 10
3.54298
 20
5.232747
 30
0.0
 11
3.60198
 21
5.232747
 31
0.0
  0
LINE
  8
OBJECT
 10
3.54298
 20
5.292747
 30
0.0
 11
3.60198
 21
5.292747
 31
0.0
  0
LINE
  8
OBJECT
 10
3.54298
 20
5.422747
 30
0.0
 11
3.54298
 21
5.362747
 31
0.0
  0
LINE
  8
OBJECT
 10
3.54298
 20
5.362747
 30
0.0
 11
3.60198
 21
5.362747
 31
0.0
  0
LINE
  8
OBJECT
 10
3.54298
 20
5.422747
 30
0.0
 11
3.60198
 21
5.422747
 31
0.0
  0
LINE
  8
CENTER
 10
3.41248
 20
4.542747
 30
0.0
 11
3.79148
 21
4.542747
 31
0.0
  0
LINE
  8
OBJECT
 10
3.54298
 20
4.447747
 30
0.0
 11
3.54298
 21
4.507747
 31
0.0
  0
LINE
  8
OBJECT
 10
3.54298
 20
4.447747
 30
0.0
 11
3.60198
 21
4.447747
 31
0.0
  0
LINE
  8
OBJECT
 10
3.54298
 20
4.507747
 30
0.0
 11
3.60198
 21
4.507747
 31
0.0
  0
LINE
  8
OBJECT
 10
3.54298
 20
4.637747
 30
0.0
 11
3.54298
 21
4.577747
 31
0.0
  0
LINE
  8
OBJECT
 10
3.54298
 20
4.577747
 30
0.0
 11
3.60198
 21
4.577747
 31
0.0
  0
LINE
  8
OBJECT
 10
3.54298
 20
4.637747
 30
0.0
 11
3.60198
 21
4.637747
 31
0.0
  0
LINE
  8
CENTER
 10
3.41248
 20
3.757747
 30
0.0
 11
3.79148
 21
3.757747
 31
0.0
  0
LINE
  8
OBJECT
 10
3.54298
 20
3.662747
 30
0.0
 11
3.54298
 21
3.722747
 31
0.0
  0
LINE
  8
OBJECT
 10
3.54298
 20
3.662747
 30
0.0
 11
3.60198
 21
3.662747
 31
0.0
  0
LINE
  8
OBJECT
 10
3.54298
 20
3.722747
 30
0.0
 11
3.60198
 21
3.722747
 31
0.0
  0
LINE
  8
OBJECT
 10
3.54298
 20
3.852747
 30
0.0
 11
3.54298
 21
3.792747
 31
0.0
  0
LINE
  8
OBJECT
 10
3.54298
 20
3.792747
 30
0.0
 11
3.60198
 21
3.792747
 31
0.0
  0
LINE
  8
OBJECT
 10
3.54298
 20
3.852747
 30
0.0
 11
3.60198
 21
3.852747
 31
0.0
  0
LINE
  8
CENTER
 10
2.10148
 20
3.757747
 30
0.0
 11
1.72248
 21
3.757747
 31
0.0
  0
LINE
  8
OBJECT
 10
1.97098
 20
3.722747
 30
0.0
 11
1.91198
 21
3.722747
 31
0.0
  0
LINE
  8
OBJECT
 10
1.97098
 20
3.662747
 30
0.0
 11
1.91198
 21
3.662747
 31
0.0
  0
LINE
  8
OBJECT
 10
1.97098
 20
3.662747
 30
0.0
 11
1.97098
 21
3.722747
 31
0.0
  0
LINE
  8
OBJECT
 10
1.97098
 20
3.852747
 30
0.0
 11
1.91198
 21
3.852747
 31
0.0
  0
LINE
  8
OBJECT
 10
1.97098
 20
3.792747
 30
0.0
 11
1.91198
 21
3.792747
 31
0.0
  0
LINE
  8
OBJECT
 10
1.97098
 20
3.852747
 30
0.0
 11
1.97098
 21
3.792747
 31
0.0
  0
LINE
  8
CENTER
 10
2.10148
 20
4.542747
 30
0.0
 11
1.72248
 21
4.542747
 31
0.0
  0
LINE
  8
OBJECT
 10
1.97098
 20
4.507747
 30
0.0
 11
1.91198
 21
4.507747
 31
0.0
  0
LINE
  8
OBJECT
 10
1.97098
 20
4.447747
 30
0.0
 11
1.91198
 21
4.447747
 31
0.0
  0
LINE
  8
OBJECT
 10
1.97098
 20
4.447747
 30
0.0
 11
1.97098
 21
4.507747
 31
0.0
  0
LINE
  8
OBJECT
 10
1.97098
 20
4.637747
 30
0.0
 11
1.91198
 21
4.637747
 31
0.0
  0
LINE
  8
OBJECT
 10
1.97098
 20
4.577747
 30
0.0
 11
1.91198
 21
4.577747
 31
0.0
  0
LINE
  8
OBJECT
 10
1.97098
 20
4.637747
 30
0.0
 11
1.97098
 21
4.577747
 31
0.0
  0
LINE
  8
CENTER
 10
2.10148
 20
5.327747
 30
0.0
 11
1.72248
 21
5.327747
 31
0.0
  0
LINE
  8
OBJECT
 10
1.97098
 20
5.292747
 30
0.0
 11
1.91198
 21
5.292747
 31
0.0
  0
LINE
  8
OBJECT
 10
1.97098
 20
5.232747
 30
0.0
 11
1.91198
 21
5.232747
 31
0.0
  0
LINE
  8
OBJECT
 10
1.97098
 20
5.232747
 30
0.0
 11
1.97098
 21
5.292747
 31
0.0
  0
LINE
  8
OBJECT
 10
1.97098
 20
5.422747
 30
0.0
 11
1.91198
 21
5.422747
 31
0.0
  0
LINE
  8
OBJECT
 10
1.97098
 20
5.362747
 30
0.0
 11
1.91198
 21
5.362747
 31
0.0
  0
LINE
  8
OBJECT
 10
1.97098
 20
5.422747
 30
0.0
 11
1.97098
 21
5.362747
 31
0.0
  0
LINE
  8
CENTER
 10
2.10148
 20
6.112747
 30
0.0
 11
1.72248
 21
6.112747
 31
0.0
  0
LINE
  8
OBJECT
 10
1.97098
 20
6.017747
 30
0.0
 11
1.97098
 21
6.077747
 31
0.0
  0
LINE
  8
OBJECT
 10
1.97098
 20
6.017747
 30
0.0
 11
1.91198
 21
6.017747
 31
0.0
  0
LINE
  8
OBJECT
 10
1.97098
 20
6.077747
 30
0.0
 11
1.91198
 21
6.077747
 31
0.0
  0
LINE
  8
OBJECT
 10
1.97098
 20
6.207747
 30
0.0
 11
1.97098
 21
6.147747
 31
0.0
  0
LINE
  8
OBJECT
 10
1.97098
 20
6.147747
 30
0.0
 11
1.91198
 21
6.147747
 31
0.0
  0
LINE
  8
OBJECT
 10
1.97098
 20
6.207747
 30
0.0
 11
1.91198
 21
6.207747
 31
0.0
  0
LINE
  8
CENTER
 10
2.36648
 20
6.392747
 30
0.0
 11
2.36648
 21
6.771747
 31
0.0
  0
LINE
  8
OBJECT
 10
2.46148
 20
6.523247
 30
0.0
 11
2.40148
 21
6.523247
 31
0.0
  0
LINE
  8
OBJECT
 10
2.40148
 20
6.523247
 30
0.0
 11
2.40148
 21
6.582247
 31
0.0
  0
LINE
  8
OBJECT
 10
2.46148
 20
6.523247
 30
0.0
 11
2.46148
 21
6.582247
 31
0.0
  0
LINE
  8
OBJECT
 10
2.27148
 20
6.523247
 30
0.0
 11
2.27148
 21
6.582247
 31
0.0
  0
LINE
  8
OBJECT
 10
2.33148
 20
6.523247
 30
0.0
 11
2.33148
 21
6.582247
 31
0.0
  0
LINE
  8
OBJECT
 10
2.27148
 20
6.523247
 30
0.0
 11
2.33148
 21
6.523247
 31
0.0
  0
LINE
  8
CENTER
 10
2.36648
 20
3.231747
 30
0.0
 11
2.36648
 21
2.852747
 31
0.0
  0
LINE
  8
OBJECT
 10
2.46148
 20
3.101247
 30
0.0
 11
2.40148
 21
3.101247
 31
0.0
  0
LINE
  8
OBJECT
 10
2.27148
 20
3.101247
 30
0.0
 11
2.33148
 21
3.101247
 31
0.0
  0
LINE
  8
OBJECT
 10
2.27148
 20
3.101247
 30
0.0
 11
2.27148
 21
3.042247
 31
0.0
  0
LINE
  8
OBJECT
 10
2.33148
 20
3.101247
 30
0.0
 11
2.33148
 21
3.042247
 31
0.0
  0
LINE
  8
OBJECT
 10
2.40148
 20
3.101247
 30
0.0
 11
2.40148
 21
3.042247
 31
0.0
  0
LINE
  8
OBJECT
 10
2.46148
 20
3.101247
 30
0.0
 11
2.46148
 21
3.042247
 31
0.0
  0
LINE
  8
CENTER
 10
3.14748
 20
3.231747
 30
0.0
 11
3.14748
 21
2.852747
 31
0.0
  0
LINE
  8
OBJECT
 10
3.05248
 20
3.101247
 30
0.0
 11
3.11248
 21
3.101247
 31
0.0
  0
LINE
  8
OBJECT
 10
3.11248
 20
3.101247
 30
0.0
 11
3.11248
 21
3.042247
 31
0.0
  0
LINE
  8
OBJECT
 10
3.05248
 20
3.101247
 30
0.0
 11
3.05248
 21
3.042247
 31
0.0
  0
LINE
  8
OBJECT
 10
3.24248
 20
3.101247
 30
0.0
 11
3.24248
 21
3.042247
 31
0.0
  0
LINE
  8
OBJECT
 10
3.18248
 20
3.101247
 30
0.0
 11
3.18248
 21
3.042247
 31
0.0
  0
LINE
  8
OBJECT
 10
3.24248
 20
3.101247
 30
0.0
 11
3.18248
 21
3.101247
 31
0.0
  0
CIRCLE
  8
OBJECT
 10
2.11898
 20
3.348247
 30
0.0
 40
0.1085
  0
CIRCLE
  8
OBJECT
 10
2.11898
 20
3.348247
 30
0.0
 40
0.0445
  0
LINE
  8
OBJECT
 10
2.13698
 20
3.042247
 30
0.0
 11
2.13698
 21
3.241251
 31
0.0
  0
LINE
  8
OBJECT
 10
2.10098
 20
3.042247
 30
0.0
 11
2.10098
 21
3.241251
 31
0.0
  0
LINE
  8
OBJECT
 10
2.011984
 20
3.330247
 30
0.0
 11
1.91198
 21
3.330247
 31
0.0
  0
LINE
  8
OBJECT
 10
2.011984
 20
3.366247
 30
0.0
 11
1.91198
 21
3.366247
 31
0.0
  0
CIRCLE
  8
OBJECT
 10
3.39498
 20
3.348247
 30
0.0
 40
0.0445
  0
CIRCLE
  8
OBJECT
 10
3.39498
 20
3.348247
 30
0.0
 40
0.1085
  0
LINE
  8
OBJECT
 10
3.501977
 20
3.366247
 30
0.0
 11
3.60198
 21
3.366247
 31
0.0
  0
LINE
  8
OBJECT
 10
3.501977
 20
3.330247
 30
0.0
 11
3.60198
 21
3.330247
 31
0.0
  0
LINE
  8
OBJECT
 10
3.37698
 20
3.042247
 30
0.0
 11
3.37698
 21
3.241251
 31
0.0
  0
LINE
  8
OBJECT
 10
3.41298
 20
3.042247
 30
0.0
 11
3.41298
 21
3.241251
 31
0.0
  0
CIRCLE
  8
OBJECT
 10
2.11898
 20
6.276247
 30
0.0
 40
0.0445
  0
CIRCLE
  8
OBJECT
 10
2.11898
 20
6.276247
 30
0.0
 40
0.1085
  0
LINE
  8
OBJECT
 10
2.011984
 20
6.294247
 30
0.0
 11
1.91198
 21
6.294247
 31
0.0
  0
LINE
  8
OBJECT
 10
2.011984
 20
6.258247
 30
0.0
 11
1.91198
 21
6.258247
 31
0.0
  0
LINE
  8
OBJECT
 10
2.10098
 20
6.582247
 30
0.0
 11
2.10098
 21
6.383244
 31
0.0
  0
LINE
  8
OBJECT
 10
2.13698
 20
6.582247
 30
0.0
 11
2.13698
 21
6.383244
 31
0.0
  0
LINE
  8
OBJECT
 10
2.27148
 20
6.523247
 30
0.0
 11
2.27148
 21
6.582247
 31
0.0
  0
CIRCLE
  8
OBJECT
 10
3.39498
 20
6.276247
 30
0.0
 40
0.1085
  0
CIRCLE
  8
OBJECT
 10
3.39498
 20
6.276247
 30
0.0
 40
0.0445
  0
LINE
  8
OBJECT
 10
3.41298
 20
6.582247
 30
0.0
 11
3.41298
 21
6.383244
 31
0.0
  0
LINE
  8
OBJECT
 10
3.37698
 20
6.582247
 30
0.0
 11
3.37698
 21
6.383244
 31
0.0
  0
LINE
  8
OBJECT
 10
3.501977
 20
6.294247
 30
0.0
 11
3.60198
 21
6.294247
 31
0.0
  0
LINE
  8
OBJECT
 10
3.501977
 20
6.258247
 30
0.0
 11
3.60198
 21
6.258247
 31
0.0
  0
LINE
  8
OBJECT
 10
9.376296
 20
11.019976
 30
0.0
 11
9.616296
 21
11.019976
 31
0.0
  0
LINE
  8
OBJECT
 10
9.616296
 20
11.019976
 30
0.0
 11
9.616296
 21
11.255976
 31
0.0
  0
LINE
  8
OBJECT
 10
9.376296
 20
11.019976
 30
0.0
 11
9.376296
 21
11.255976
 31
0.0
  0
LINE
  8
OBJECT
 10
10.136296
 20
11.019976
 30
0.0
 11
10.136296
 21
11.255976
 31
0.0
  0
LINE
  8
OBJECT
 10
9.896296
 20
11.019976
 30
0.0
 11
9.896296
 21
11.255976
 31
0.0
  0
LINE
  8
OBJECT
 10
10.136296
 20
11.019976
 30
0.0
 11
9.896296
 21
11.019976
 31
0.0
  0
LINE
  8
OBJECT
 10
8.718665
 20
11.255976
 30
0.0
 11
10.793927
 21
11.255976
 31
0.0
  0
LINE
  8
OBJECT
 10
8.705203
 20
11.351976
 30
0.0
 11
10.807388
 21
11.351976
 31
0.0
  0
LINE
  8
OBJECT
 10
8.776323
 20
11.647976
 30
0.0
 11
10.736269
 21
11.647976
 31
0.0
  0
POLYLINE
  8
LJHFV
 66
     1
 10
0.0
 20
0.0
 30
0.0
 75
     6
  0
VERTEX
  8
LJHFV
 10
8.776323
 20
11.647976
 30
0.0
  0
VERTEX
  8
LJHFV
 10
8.749431
 20
11.628022
 30
0.0
  0
VERTEX
  8
LJHFV
 10
8.733798
 20
11.609396
 30
0.0
  0
VERTEX
  8
LJHFV
 10
8.727129
 20
11.592093
 30
0.0
  0
VERTEX
  8
LJHFV
 10
8.727126
 20
11.57611
 30
0.0
  0
VERTEX
  8
LJHFV
 10
8.731496
 20
11.561443
 30
0.0
  0
VERTEX
  8
LJHFV
 10
8.737941
 20
11.548088
 30
0.0
  0
VERTEX
  8
LJHFV
 10
8.744165
 20
11.536043
 30
0.0
  0
VERTEX
  8
LJHFV
 10
8.747874
 20
11.525303
 30
0.0
  0
VERTEX
  8
LJHFV
 10
8.747321
 20
11.515818
 30
0.0
  0
VERTEX
  8
LJHFV
 10
8.742965
 20
11.507352
 30
0.0
  0
VERTEX
  8
LJHFV
 10
8.735813
 20
11.499623
 30
0.0
  0
VERTEX
  8
LJHFV
 10
8.726874
 20
11.492348
 30
0.0
  0
VERTEX
  8
LJHFV
 10
8.717156
 20
11.485244
 30
0.0
  0
VERTEX
  8
LJHFV
 10
8.707667
 20
11.47803
 30
0.0
  0
VERTEX
  8
LJHFV
 10
8.699416
 20
11.470423
 30
0.0
  0
VERTEX
  8
LJHFV
 10
8.69341
 20
11.46214
 30
0.0
  0
VERTEX
  8
LJHFV
 10
8.690342
 20
11.452984
 30
0.0
  0
VERTEX
  8
LJHFV
 10
8.689633
 20
11.443102
 30
0.0
  0
VERTEX
  8
LJHFV
 10
8.690389
 20
11.432726
 30
0.0
  0
VERTEX
  8
LJHFV
 10
8.691717
 20
11.422087
 30
0.0
  0
VERTEX
  8
LJHFV
 10
8.692723
 20
11.411417
 30
0.0
  0
VERTEX
  8
LJHFV
 10
8.692511
 20
11.400949
 30
0.0
  0
VERTEX
  8
LJHFV
 10
8.690188
 20
11.390914
 30
0.0
  0
VERTEX
  8
LJHFV
 10
8.68486
 20
11.381544
 30
0.0
  0
VERTEX
  8
LJHFV
 10
8.676221
 20
11.372855
 30
0.0
  0
VERTEX
  8
LJHFV
 10
8.66632
 20
11.364002
 30
0.0
  0
VERTEX
  8
LJHFV
 10
8.657794
 20
11.353923
 30
0.0
  0
VERTEX
  8
LJHFV
 10
8.653281
 20
11.341555
 30
0.0
  0
VERTEX
  8
LJHFV
 10
8.655418
 20
11.325839
 30
0.0
  0
VERTEX
  8
LJHFV
 10
8.666842
 20
11.305711
 30
0.0
  0
VERTEX
  8
LJHFV
 10
8.690191
 20
11.280111
 30
0.0
  0
VERTEX
  8
LJHFV
 10
8.718665
 20
11.255976
 30
0.0
  0
SEQEND
  8
LJHFV
  0
POLYLINE
  8
LJHFV
 66
     1
 10
0.0
 20
0.0
 30
0.0
 75
     6
  0
VERTEX
  8
LJHFV
 10
10.736269
 20
11.647976
 30
0.0
  0
VERTEX
  8
LJHFV
 10
10.76316
 20
11.628022
 30
0.0
  0
VERTEX
  8
LJHFV
 10
10.778793
 20
11.609396
 30
0.0
  0
VERTEX
  8
LJHFV
 10
10.785463
 20
11.592093
 30
0.0
  0
VERTEX
  8
LJHFV
 10
10.785465
 20
11.57611
 30
0.0
  0
VERTEX
  8
LJHFV
 10
10.781096
 20
11.561443
 30
0.0
  0
VERTEX
  8
LJHFV
 10
10.774651
 20
11.548088
 30
0.0
  0
VERTEX
  8
LJHFV
 10
10.768426
 20
11.536043
 30
0.0
  0
VERTEX
  8
LJHFV
 10
10.764717
 20
11.525303
 30
0.0
  0
VERTEX
  8
LJHFV
 10
10.76527
 20
11.515818
 30
0.0
  0
VERTEX
  8
LJHFV
 10
10.769626
 20
11.507352
 30
0.0
  0
VERTEX
  8
LJHFV
 10
10.776778
 20
11.499623
 30
0.0
  0
VERTEX
  8
LJHFV
 10
10.785717
 20
11.492348
 30
0.0
  0
VERTEX
  8
LJHFV
 10
10.795435
 20
11.485244
 30
0.0
  0
VERTEX
  8
LJHFV
 10
10.804924
 20
11.47803
 30
0.0
  0
VERTEX
  8
LJHFV
 10
10.813176
 20
11.470423
 30
0.0
  0
VERTEX
  8
LJHFV
 10
10.819181
 20
11.46214
 30
0.0
  0
VERTEX
  8
LJHFV
 10
10.82225
 20
11.452984
 30
0.0
  0
VERTEX
  8
LJHFV
 10
10.822959
 20
11.443102
 30
0.0
  0
VERTEX
  8
LJHFV
 10
10.822202
 20
11.432726
 30
0.0
  0
VERTEX
  8
LJHFV
 10
10.820874
 20
11.422087
 30
0.0
  0
VERTEX
  8
LJHFV
 10
10.819869
 20
11.411417
 30
0.0
  0
VERTEX
  8
LJHFV
 10
10.82008
 20
11.400949
 30
0.0
  0
VERTEX
  8
LJHFV
 10
10.822403
 20
11.390914
 30
0.0
  0
VERTEX
  8
LJHFV
 10
10.827731
 20
11.381544
 30
0.0
  0
VERTEX
  8
LJHFV
 10
10.83637
 20
11.372855
 30
0.0
  0
VERTEX
  8
LJHFV
 10
10.846271
 20
11.364002
 30
0.0
  0
VERTEX
  8
LJHFV
 10
10.854797
 20
11.353923
 30
0.0
  0
VERTEX
  8
LJHFV
 10
10.859311
 20
11.341555
 30
0.0
  0
VERTEX
  8
LJHFV
 10
10.857174
 20
11.325839
 30
0.0
  0
VERTEX
  8
LJHFV
 10
10.845749
 20
11.305711
 30
0.0
  0
VERTEX
  8
LJHFV
 10
10.8224
 20
11.280111
 30
0.0
  0
VERTEX
  8
LJHFV
 10
10.793927
 20
11.255976
 30
0.0
  0
SEQEND
  8
LJHFV
  0
LINE
  8
OBJECT
 10
7.653989
 20
2.944247
 30
0.0
 11
7.653989
 21
6.680247
 31
0.0
  0
LINE
  8
OBJECT
 10
8.658989
 20
2.962247
 30
0.0
 11
7.653989
 21
2.944247
 31
0.0
  0
ARC
  8
OBJECT
 10
8.658989
 20
3.055247
 30
0.0
 40
0.093
 50
270.0
 51
0.0
  0
LINE
  8
OBJECT
 10
7.733989
 20
3.043696
 30
0.0
 11
8.255989
 21
3.043696
 31
0.0
  0
LINE
  8
OBJECT
 10
8.658989
 20
6.662247
 30
0.0
 11
7.653989
 21
6.680247
 31
0.0
  0
LINE
  8
OBJECT
 10
7.733989
 20
6.580799
 30
0.0
 11
8.255989
 21
6.580799
 31
0.0
  0
LINE
  8
OBJECT
 10
7.898989
 20
3.852747
 30
0.0
 11
8.651989
 21
3.852747
 31
0.0
  0
LINE
  8
OBJECT
 10
7.898989
 20
3.792747
 30
0.0
 11
8.651989
 21
3.792747
 31
0.0
  0
LINE
  8
OBJECT
 10
7.898989
 20
3.662747
 30
0.0
 11
8.651989
 21
3.662747
 31
0.0
  0
LINE
  8
OBJECT
 10
7.898989
 20
3.722747
 30
0.0
 11
8.651989
 21
3.722747
 31
0.0
  0
LINE
  8
OBJECT
 10
8.651989
 20
3.456247
 30
0.0
 11
8.651989
 21
6.167747
 31
0.0
  0
LINE
  8
OBJECT
 10
8.751989
 20
3.055247
 30
0.0
 11
8.751989
 21
6.569247
 31
0.0
  0
LINE
  8
OBJECT
 10
8.651989
 20
3.303247
 30
0.0
 11
8.651989
 21
3.392247
 31
0.0
  0
LINE
  8
OBJECT
 10
8.255989
 20
3.043696
 30
0.0
 11
8.255989
 21
3.239247
 31
0.0
  0
ARC
  8
OBJECT
 10
8.658989
 20
6.569247
 30
0.0
 40
0.093
 50
0.0
 51
90.0
  0
LINE
  8
OBJECT
 10
8.651989
 20
6.231747
 30
0.0
 11
8.651989
 21
6.320747
 31
0.0
  0
LINE
  8
OBJECT
 10
8.255989
 20
6.580799
 30
0.0
 11
8.255989
 21
6.384747
 31
0.0
  0
LINE
  8
OBJECT
 10
7.733989
 20
3.018236
 30
0.0
 11
7.733989
 21
6.606259
 31
0.0
  0
ARC
  8
OBJECT
 10
7.898989
 20
3.822747
 30
0.0
 40
0.03
 50
90.0
 51
270.0
  0
ARC
  8
OBJECT
 10
7.898989
 20
3.692747
 30
0.0
 40
0.03
 50
90.0
 51
270.0
  0
LINE
  8
OBJECT
 10
7.736989
 20
3.239247
 30
0.0
 11
7.736989
 21
3.456247
 31
0.0
  0
LINE
  8
OBJECT
 10
7.652663
 20
3.018236
 30
0.0
 11
7.733989
 21
3.018236
 31
0.0
  0
LINE
  8
OBJECT
 10
7.736989
 20
6.384747
 30
0.0
 11
7.736989
 21
6.167747
 31
0.0
  0
LINE
  8
OBJECT
 10
7.652663
 20
6.606259
 30
0.0
 11
7.733989
 21
6.606259
 31
0.0
  0
LINE
  8
OBJECT
 10
7.736989
 20
6.384747
 30
0.0
 11
8.255989
 21
6.384747
 31
0.0
  0
LINE
  8
OBJECT
 10
7.736989
 20
6.320747
 30
0.0
 11
8.651989
 21
6.320747
 31
0.0
  0
LINE
  8
OBJECT
 10
7.736989
 20
6.231747
 30
0.0
 11
8.651989
 21
6.231747
 31
0.0
  0
LINE
  8
OBJECT
 10
7.736989
 20
6.167747
 30
0.0
 11
8.651989
 21
6.167747
 31
0.0
  0
LINE
  8
OBJECT
 10
7.736989
 20
3.456247
 30
0.0
 11
8.651989
 21
3.456247
 31
0.0
  0
LINE
  8
OBJECT
 10
7.736989
 20
3.392247
 30
0.0
 11
8.651989
 21
3.392247
 31
0.0
  0
LINE
  8
OBJECT
 10
7.736989
 20
3.303247
 30
0.0
 11
8.651989
 21
3.303247
 31
0.0
  0
LINE
  8
OBJECT
 10
7.736989
 20
3.239247
 30
0.0
 11
8.255989
 21
3.239247
 31
0.0
  0
LINE
  8
OBJECT
 10
7.898989
 20
4.507747
 30
0.0
 11
8.651989
 21
4.507747
 31
0.0
  0
LINE
  8
OBJECT
 10
7.898989
 20
4.447747
 30
0.0
 11
8.651989
 21
4.447747
 31
0.0
  0
LINE
  8
OBJECT
 10
7.898989
 20
4.577747
 30
0.0
 11
8.651989
 21
4.577747
 31
0.0
  0
LINE
  8
OBJECT
 10
7.898989
 20
4.637747
 30
0.0
 11
8.651989
 21
4.637747
 31
0.0
  0
ARC
  8
OBJECT
 10
7.898989
 20
4.477747
 30
0.0
 40
0.03
 50
90.0
 51
270.0
  0
ARC
  8
OBJECT
 10
7.898989
 20
4.607747
 30
0.0
 40
0.03
 50
90.0
 51
270.0
  0
LINE
  8
OBJECT
 10
7.898989
 20
5.292747
 30
0.0
 11
8.651989
 21
5.292747
 31
0.0
  0
LINE
  8
OBJECT
 10
7.898989
 20
5.232747
 30
0.0
 11
8.651989
 21
5.232747
 31
0.0
  0
LINE
  8
OBJECT
 10
7.898989
 20
5.362747
 30
0.0
 11
8.651989
 21
5.362747
 31
0.0
  0
LINE
  8
OBJECT
 10
7.898989
 20
5.422747
 30
0.0
 11
8.651989
 21
5.422747
 31
0.0
  0
ARC
  8
OBJECT
 10
7.898989
 20
5.262747
 30
0.0
 40
0.03
 50
90.0
 51
270.0
  0
ARC
  8
OBJECT
 10
7.898989
 20
5.392747
 30
0.0
 40
0.03
 50
90.0
 51
270.0
  0
LINE
  8
OBJECT
 10
7.898989
 20
6.077747
 30
0.0
 11
8.651989
 21
6.077747
 31
0.0
  0
LINE
  8
OBJECT
 10
7.898989
 20
6.017747
 30
0.0
 11
8.651989
 21
6.017747
 31
0.0
  0
LINE
  8
OBJECT
 10
7.898989
 20
6.147747
 30
0.0
 11
8.651989
 21
6.147747
 31
0.0
  0
ARC
  8
OBJECT
 10
7.898989
 20
6.047747
 30
0.0
 40
0.03
 50
90.0
 51
270.0
  0
ARC
  8
OBJECT
 10
7.898989
 20
6.177747
 30
0.0
 40
0.03
 50
199.471221
 51
270.0
  0
INSERT
  8
HATCH
  2
*X0
 10
-1.199013
 20
-1.7176
 30
0.0
1001
ACAD
1000
HATCH
1002
{
1070
    16
1000
ANSI31
1040
0.75
1040
0.0
1002
}
  0
LINE
  8
DIM
 10
7.653989
 20
6.680247
 30
0.0
 11
7.978226
 21
6.680247
 31
0.0
  0
DIMENSION
  8
DIM
  2
*D29
 10
7.653989
 20
6.680247
 30
0.0
 11
9.341009
 21
7.353236
 31
0.0
 12
0.0
 22
0.309561
 32
0.0
 70
   130
  1
<> DRAFT REF.
 13
7.653989
 23
6.680247
 33
0.0
 14
7.978226
 24
6.680247
 34
0.0
 15
8.658989
 25
6.662247
 35
0.0
 16
9.448042
 26
6.660664
 36
0.0
  3
23NSTDI
  0
LINE
  8
OBJECT
 10
13.054867
 20
2.944247
 30
0.0
 11
14.752867
 21
2.944247
 31
0.0
  0
LINE
  8
OBJECT
 10
14.845867
 20
3.037247
 30
0.0
 11
14.845867
 21
6.587247
 31
0.0
  0
LINE
  8
OBJECT
 10
13.054867
 20
6.680247
 30
0.0
 11
14.752867
 21
6.680247
 31
0.0
  0
LINE
  8
OBJECT
 10
12.961867
 20
3.037247
 30
0.0
 11
12.961867
 21
6.587247
 31
0.0
  0
LINE
  8
OBJECT
 10
16.784248
 20
3.004134
 30
0.0
 11
16.784248
 21
6.574134
 31
0.0
  0
LINE
  8
OBJECT
 10
16.882248
 20
6.657134
 30
0.0
 11
17.141248
 21
6.657134
 31
0.0
  0
ARC
  8
OBJECT
 10
17.141248
 20
6.564134
 30
0.0
 40
0.093
 50
0.0
 51
90.0
  0
LINE
  8
OBJECT
 10
17.234248
 20
3.014134
 30
0.0
 11
17.234248
 21
6.564134
 31
0.0
  0
LINE
  8
BEND
 10
13.256867
 20
6.176747
 30
0.0
 11
13.256867
 21
6.831259
 31
0.0
  0
LINE
  8
BEND
 10
13.511867
 20
3.447747
 30
0.0
 11
13.511867
 21
6.176747
 31
0.0
  0
LINE
  8
BEND
 10
13.256867
 20
6.176747
 30
0.0
 11
13.511867
 21
6.176747
 31
0.0
  0
LINE
  8
BEND
 10
13.256867
 20
3.447747
 30
0.0
 11
13.511867
 21
3.447747
 31
0.0
  0
LINE
  8
BEND
 10
13.256867
 20
3.447747
 30
0.0
 11
13.256867
 21
2.793236
 31
0.0
  0
SOLID
  8
BEND
 10
12.936867
 20
6.801259
 30
0.0
 11
12.936867
 21
6.861259
 31
0.0
 12
12.756867
 22
6.831259
 32
0.0
 13
12.756867
 23
6.831259
 33
0.0
  0
LINE
  8
BEND
 10
12.936867
 20
6.831259
 30
0.0
 11
13.256867
 21
6.831259
 31
0.0
  0
LINE
  8
BEND
 10
12.936867
 20
2.793236
 30
0.0
 11
13.256867
 21
2.793236
 31
0.0
  0
SOLID
  8
BEND
 10
12.936867
 20
2.763236
 30
0.0
 11
12.936867
 21
2.823236
 31
0.0
 12
12.756867
 22
2.793236
 32
0.0
 13
12.756867
 23
2.793236
 33
0.0
  0
TEXT
  8
TEXT
 10
13.009459
 20
2.509576
 30
0.0
 40
0.171875
  1
C
 41
0.75
  7
TXT
 72
     4
 11
13.052427
 21
2.595513
 31
0.0
  0
TEXT
  8
TEXT
 10
12.787787
 20
6.938279
 30
0.0
 40
0.171875
  1
C
 41
0.75
  7
TXT
 72
     4
 11
12.830756
 21
7.024216
 31
0.0
  0
CIRCLE
  8
BEND
 10
17.027863
 20
6.277955
 30
0.0
 40
0.572738
  0
POLYLINE
  8
BEND
 66
     1
 10
0.0
 20
0.0
 30
0.0
 41
0.092813
  0
VERTEX
  8
BEND
 10
16.635766
 20
6.705951
 30
0.0
 41
0.092813
  0
VERTEX
  8
BEND
 10
16.464728
 20
6.884843
 30
0.0
 41
0.0
  0
VERTEX
  8
BEND
 10
16.093018
 20
7.273624
 30
0.0
 41
0.0
  0
VERTEX
  8
BEND
 10
15.845518
 20
7.273624
 30
0.0
 41
0.0
  0
SEQEND
  8
BEND
  0
TEXT
  8
TEXT
 10
14.088956
 20
7.17717
 30
0.0
 40
0.171875
  1
SEE DETAIL "D"
 41
0.75
  7
TXT
 11
15.721768
 21
7.263108
 31
0.0
 73
     2
  0
POLYLINE
  8
OBJECT
 66
     1
 10
0.0
 20
0.0
 30
0.0
 70
     4
 75
     6
  0
VERTEX
  8
OBJECT
 10
16.628761
 20
9.038293
 30
0.0
 70
    16
  0
VERTEX
  8
OBJECT
 10
16.628761
 20
9.038293
 30
0.0
 70
     8
  0
VERTEX
  8
OBJECT
 10
16.741969
 20
9.093689
 30
0.0
 70
     8
  0
VERTEX
  8
OBJECT
 10
16.832622
 20
9.120991
 30
0.0
 70
     8
  0
VERTEX
  8
OBJECT
 10
16.904284
 20
9.125759
 30
0.0
 70
     8
  0
VERTEX
  8
OBJECT
 10
16.960519
 20
9.113552
 30
0.0
 70
     8
  0
VERTEX
  8
OBJECT
 10
17.00489
 20
9.089927
 30
0.0
 70
     8
  0
VERTEX
  8
OBJECT
 10
17.040961
 20
9.060445
 30
0.0
 70
     8
  0
VERTEX
  8
OBJECT
 10
17.072296
 20
9.030664
 30
0.0
 70
     8
  0
VERTEX
  8
OBJECT
 10
17.102459
 20
9.006143
 30
0.0
 70
     8
  0
VERTEX
  8
OBJECT
 10
17.134327
 20
8.991068
 30
0.0
 70
     8
  0
VERTEX
  8
OBJECT
 10
17.168036
 20
8.984141
 30
0.0
 70
     8
  0
VERTEX
  8
OBJECT
 10
17.203035
 20
8.982691
 30
0.0
 70
     8
  0
VERTEX
  8
OBJECT
 10
17.238776
 20
8.984044
 30
0.0
 70
     8
  0
VERTEX
  8
OBJECT
 10
17.274706
 20
8.985531
 30
0.0
 70
     8
  0
VERTEX
  8
OBJECT
 10
17.310277
 20
8.98448
 30
0.0
 70
     8
  0
VERTEX
  8
OBJECT
 10
17.344938
 20
8.978219
 30
0.0
 70
     8
  0
VERTEX
  8
OBJECT
 10
17.378138
 20
8.964078
 30
0.0
 70
     8
  0
VERTEX
  8
OBJECT
 10
17.409477
 20
8.940324
 30
0.0
 70
     8
  0
VERTEX
  8
OBJECT
 10
17.439151
 20
8.908985
 30
0.0
 70
     8
  0
VERTEX
  8
OBJECT
 10
17.467506
 20
8.873029
 30
0.0
 70
     8
  0
VERTEX
  8
OBJECT
 10
17.494887
 20
8.835422
 30
0.0
 70
     8
  0
VERTEX
  8
OBJECT
 10
17.521639
 20
8.799132
 30
0.0
 70
     8
  0
VERTEX
  8
OBJECT
 10
17.548109
 20
8.767127
 30
0.0
 70
     8
  0
VERTEX
  8
OBJECT
 10
17.574642
 20
8.742374
 30
0.0
 70
     8
  0
VERTEX
  8
OBJECT
 10
17.601583
 20
8.72784
 30
0.0
 70
     8
  0
VERTEX
  8
OBJECT
 10
17.629188
 20
8.725483
 30
0.0
 70
     8
  0
VERTEX
  8
OBJECT
 10
17.657358
 20
8.733228
 30
0.0
 70
     8
  0
VERTEX
  8
OBJECT
 10
17.6859
 20
8.747991
 30
0.0
 70
     8
  0
VERTEX
  8
OBJECT
 10
17.714626
 20
8.766686
 30
0.0
 70
     8
  0
VERTEX
  8
OBJECT
 10
17.743344
 20
8.786229
 30
0.0
 70
     8
  0
VERTEX
  8
OBJECT
 10
17.771864
 20
8.803535
 30
0.0
 70
     8
  0
VERTEX
  8
OBJECT
 10
17.799996
 20
8.81552
 30
0.0
 70
     8
  0
VERTEX
  8
OBJECT
 10
17.82755
 20
8.8191
 30
0.0
 70
     8
  0
VERTEX
  8
OBJECT
 10
17.854415
 20
8.812202
 30
0.0
 70
     8
  0
VERTEX
  8
OBJECT
 10
17.8808
 20
8.796814
 30
0.0
 70
     8
  0
VERTEX
  8
OBJECT
 10
17.906994
 20
8.775933
 30
0.0
 70
     8
  0
VERTEX
  8
OBJECT
 10
17.933286
 20
8.75256
 30
0.0
 70
     8
  0
VERTEX
  8
OBJECT
 10
17.959963
 20
8.729694
 30
0.0
 70
     8
  0
VERTEX
  8
OBJECT
 10
17.987315
 20
8.710333
 30
0.0
 70
     8
  0
VERTEX
  8
OBJECT
 10
18.015632
 20
8.697478
 30
0.0
 70
     8
  0
VERTEX
  8
OBJECT
 10
18.0452
 20
8.694128
 30
0.0
 70
     8
  0
VERTEX
  8
OBJECT
 10
18.076441
 20
8.701771
 30
0.0
 70
     8
  0
VERTEX
  8
OBJECT
 10
18.110301
 20
8.715854
 30
0.0
 70
     8
  0
VERTEX
  8
OBJECT
 10
18.147855
 20
8.73031
 30
0.0
 70
     8
  0
VERTEX
  8
OBJECT
 10
18.190183
 20
8.739077
 30
0.0
 70
     8
  0
VERTEX
  8
OBJECT
 10
18.23836
 20
8.736088
 30
0.0
 70
     8
  0
VERTEX
  8
OBJECT
 10
18.293464
 20
8.715279
 30
0.0
 70
     8
  0
VERTEX
  8
OBJECT
 10
18.356572
 20
8.670586
 30
0.0
 70
     8
  0
VERTEX
  8
OBJECT
 10
18.428761
 20
8.595942
 30
0.0
 70
     8
  0
VERTEX
  8
OBJECT
 10
16.96389
 20
9.228414
 30
0.0
 70
    16
  0
VERTEX
  8
OBJECT
 10
17.076953
 20
8.890743
 30
0.0
 70
    16
  0
VERTEX
  8
OBJECT
 10
17.399584
 20
9.076635
 30
0.0
 70
    16
  0
VERTEX
  8
OBJECT
 10
17.593541
 20
8.587184
 30
0.0
 70
    16
  0
VERTEX
  8
OBJECT
 10
17.83575
 20
8.941665
 30
0.0
 70
    16
  0
VERTEX
  8
OBJECT
 10
18.028761
 20
8.560752
 30
0.0
 70
    16
  0
VERTEX
  8
OBJECT
 10
18.223191
 20
8.840314
 30
0.0
 70
    16
  0
VERTEX
  8
OBJECT
 10
18.428761
 20
8.595942
 30
0.0
 70
    16
  0
SEQEND
  8
OBJECT
  0
DIMENSION
  8
DIM
  2
*D28
 10
18.036761
 20
7.929458
 30
0.0
 11
17.640761
 21
7.929458
 31
0.0
 12
0.0
 22
0.137582
 32
0.0
 13
17.244761
 23
9.453701
 33
0.0
 14
18.036761
 24
8.695084
 34
0.0
  3
23NSTD4I
  0
DIMENSION
  8
DIM
  2
*D27
 10
18.036761
 20
7.543083
 30
0.0
 11
17.350761
 21
7.543083
 31
0.0
 12
0.0
 22
0.137582
 32
0.0
 13
16.664761
 23
10.413701
 33
0.0
 14
18.036761
 24
8.695084
 34
0.0
  3
23NSTD4I
  0
DIMENSION
  8
DIM
  2
*D26
 10
18.428761
 20
8.315833
 30
0.0
 11
19.283839
 21
8.315833
 31
0.0
 12
0.0
 22
0.137582
 32
0.0
 13
18.036761
 23
8.695084
 33
0.0
 14
18.428761
 24
8.595942
 34
0.0
  3
23NSTD4
  0
DIMENSION
  8
DIM
  2
*D25
 10
17.020761
 20
12.917872
 30
0.0
 11
17.875839
 21
12.917872
 31
0.0
 12
0.0
 22
0.137582
 32
0.0
 13
16.868761
 23
12.069701
 33
0.0
 14
17.020761
 24
12.249701
 34
0.0
  3
23NSTD4
  0
DIMENSION
  8
DIM
  2
*D24
 10
16.868761
 20
12.531497
 30
0.0
 11
17.713097
 21
12.531497
 31
0.0
 12
0.0
 22
0.137582
 32
0.0
 13
16.628761
 23
11.917701
 33
0.0
 14
16.868761
 24
12.069701
 34
0.0
  3
23NSTD4
  0
DIMENSION
  8
DIM
  2
*D23
 10
15.745911
 20
11.917701
 30
0.0
 11
15.138333
 21
11.422701
 31
0.0
 12
0.0
 22
0.137582
 32
0.0
 13
16.868761
 23
12.069701
 33
0.0
 14
16.628761
 24
11.917701
 34
0.0
 50
90.0
  3
23NSTD4
  0
DIMENSION
  8
DIM
  2
*D62
 10
14.423161
 20
12.249701
 30
0.0
 11
15.030739
 21
12.744701
 31
0.0
 12
0.0
 22
0.137582
 32
0.0
 13
16.868761
 23
12.069701
 33
0.0
 14
17.020761
 24
12.249701
 34
0.0
 50
90.0
  3
23NSTD4
  0
DIMENSION
  8
DIM
  2
*D61
 10
13.871771
 20
10.413701
 30
0.0
 11
13.19974
 21
9.918701
 31
0.0
 12
0.0
 22
0.137582
 32
0.0
  1
R<>
 13
16.664761
 23
10.633701
 33
0.0
 14
16.664761
 24
10.413701
 34
0.0
 50
90.0
  3
23NSTD4
  0
DIMENSION
  8
DIM
  2
*D22
 10
19.31816
 20
10.165701
 30
0.0
 11
19.31816
 21
10.633701
 31
0.0
 12
0.0
 22
0.137582
 32
0.0
  1
<> DIA.
 13
18.428761
 23
11.101701
 33
0.0
 14
18.428761
 24
10.165701
 34
0.0
 50
90.0
  3
23NSTD4I
  0
DIMENSION
  8
DIM
  2
*D60
 10
14.533146
 20
10.201701
 30
0.0
 11
13.882599
 21
9.706701
 31
0.0
 12
0.0
 22
0.137582
 32
0.0
  1
R<>
 13
16.664761
 23
10.633701
 33
0.0
 14
16.664761
 24
10.201701
 34
0.0
 50
90.0
  3
23NSTD4
  0
DIMENSION
  8
DIM
  2
*D21
 10
15.855896
 20
9.453701
 30
0.0
 11
15.216091
 21
8.958701
 31
0.0
 12
0.0
 22
0.137582
 32
0.0
  1
R<>
 13
17.244761
 23
9.853701
 33
0.0
 14
17.244761
 24
9.453701
 34
0.0
 50
90.0
  3
23NSTD4
  0
DIMENSION
  8
DIM
  2
*D59
 10
15.194521
 20
9.661701
 30
0.0
 11
14.52249
 21
9.166701
 31
0.0
 12
0.0
 22
0.137582
 32
0.0
  1
R<>
 13
17.244761
 23
9.853701
 33
0.0
 14
17.244761
 24
9.661701
 34
0.0
 50
90.0
  3
23NSTD4
  0
DIMENSION
  8
DIM
  2
*D20
 10
12.961867
 20
2.212666
 30
0.0
 11
12.096046
 21
2.212666
 31
0.0
 12
0.0
 22
0.309561
 32
0.0
 13
13.256867
 23
3.339247
 33
0.0
 14
12.961867
 24
3.037247
 34
0.0
  3
23NSTD
  0
DIMENSION
  8
DIM
  2
*D19
 10
12.961867
 20
1.439916
 30
0.0
 11
12.096046
 21
1.439916
 31
0.0
 12
0.0
 22
0.309561
 32
0.0
 13
13.513867
 23
3.543247
 33
0.0
 14
12.961867
 24
3.037247
 34
0.0
  3
23NSTD
  0
DIMENSION
  8
DIM
  2
*D18
 10
14.293867
 20
1.053541
 30
0.0
 11
13.903867
 21
1.053541
 31
0.0
 12
0.0
 22
0.309561
 32
0.0
 13
13.513867
 23
3.543247
 33
0.0
 14
14.293867
 24
3.543247
 34
0.0
  3
23NSTDI
  0
DIMENSION
  8
DIM
  2
*D17
 10
14.541867
 20
1.826291
 30
0.0
 11
13.899367
 21
1.826291
 31
0.0
 12
0.0
 22
0.309561
 32
0.0
 13
13.256867
 23
3.339247
 33
0.0
 14
14.541867
 24
3.348247
 34
0.0
  3
23NSTDI
  0
DIMENSION
  8
DIM
  2
*D16
 10
12.19949
 20
2.944247
 30
0.0
 11
12.19949
 21
3.146247
 31
0.0
 12
0.0
 22
0.309561
 32
0.0
 13
13.265867
 23
3.348247
 33
0.0
 14
13.054867
 24
2.944247
 34
0.0
 50
90.0
  3
23NSTDI
  0
DIMENSION
  8
DIM
  2
*D15
 10
11.520068
 20
2.944247
 30
0.0
 11
11.520068
 21
3.239247
 31
0.0
 12
0.0
 22
0.309561
 32
0.0
 13
13.511867
 23
3.534247
 33
0.0
 14
13.054867
 24
2.944247
 34
0.0
 50
90.0
  3
23NSTDI
  0
DIMENSION
  8
DIM
  2
*D14
 10
12.19949
 20
6.276247
 30
0.0
 11
12.19949
 21
4.812247
 31
0.0
 12
0.0
 22
0.309561
 32
0.0
 13
13.265867
 23
3.348247
 33
0.0
 14
13.265867
 24
6.276247
 34
0.0
 50
90.0
  3
23NSTD
  0
DIMENSION
  8
DIM
  2
*D13
 10
11.520068
 20
6.081247
 30
0.0
 11
11.520068
 21
4.807747
 31
0.0
 12
0.0
 22
0.309561
 32
0.0
 13
13.511867
 23
3.534247
 33
0.0
 14
13.513867
 24
6.081247
 34
0.0
 50
90.0
  3
23NSTD
  0
DIMENSION
  8
DIM
  2
*D12
 10
14.845867
 20
0.667166
 30
0.0
 11
13.903867
 21
0.667166
 31
0.0
 12
0.0
 22
0.309561
 32
0.0
 13
12.961867
 23
3.037247
 33
0.0
 14
14.845867
 24
3.037247
 34
0.0
  3
23NSTD
  0
DIMENSION
  8
DIM
  2
*D63
 10
10.837079
 20
6.680247
 30
0.0
 11
10.837079
 21
4.812247
 31
0.0
 12
0.0
 22
0.309561
 32
0.0
 13
13.054867
 23
2.944247
 33
0.0
 14
13.054867
 24
6.680247
 34
0.0
 50
90.0
  3
23NSTD
  0
TEXT
  8
TEXT
 10
16.255244
 20
1.481184
 30
0.0
 40
0.171875
  1
%%USECTION "C-C"
 41
0.75
  7
TXT
 72
     1
 11
17.009346
 21
1.481184
 31
0.0
  0
TEXT
  8
TEXT
 10
17.011995
 20
7.08342
 30
0.0
 40
0.171875
  1
%%UDETAIL "D"
 41
0.75
  7
TXT
 72
     1
 11
17.572737
 21
7.08342
 31
0.0
  0
ARC
  8
OBJECT
 10
14.752867
 20
3.037247
 30
0.0
 40
0.093
 50
270.0
 51
0.0
  0
ARC
  8
OBJECT
 10
14.752867
 20
6.587247
 30
0.0
 40
0.093
 50
0.0
 51
90.0
  0
ARC
  8
OBJECT
 10
13.054867
 20
6.587247
 30
0.0
 40
0.093
 50
90.0
 51
180.0
  0
ARC
  8
OBJECT
 10
13.054867
 20
3.037247
 30
0.0
 40
0.093
 50
180.0
 51
270.0
  0
LINE
  8
OBJECT
 10
13.006867
 20
6.635247
 30
0.0
 11
14.800867
 21
6.635247
 31
0.0
  0
LINE
  8
OBJECT
 10
13.006867
 20
2.989247
 30
0.0
 11
13.006867
 21
6.635247
 31
0.0
  0
LINE
  8
OBJECT
 10
13.006867
 20
2.989247
 30
0.0
 11
14.800867
 21
2.989247
 31
0.0
  0
LINE
  8
OBJECT
 10
14.800867
 20
2.989247
 30
0.0
 11
14.800867
 21
6.635247
 31
0.0
  0
LINE
  8
OBJECT
 10
14.762867
 20
3.027247
 30
0.0
 11
14.762867
 21
6.597247
 31
0.0
  0
LINE
  8
OBJECT
 10
13.044867
 20
3.027247
 30
0.0
 11
14.762867
 21
3.027247
 31
0.0
  0
LINE
  8
OBJECT
 10
13.044867
 20
3.027247
 30
0.0
 11
13.044867
 21
6.597247
 31
0.0
  0
LINE
  8
OBJECT
 10
13.044867
 20
6.597247
 30
0.0
 11
14.762867
 21
6.597247
 31
0.0
  0
LINE
  8
OBJECT
 10
14.720867
 20
3.069247
 30
0.0
 11
14.720867
 21
6.555247
 31
0.0
  0
LINE
  8
OBJECT
 10
13.086867
 20
3.069247
 30
0.0
 11
14.720867
 21
3.069247
 31
0.0
  0
LINE
  8
OBJECT
 10
13.086867
 20
3.069247
 30
0.0
 11
13.086867
 21
6.555247
 31
0.0
  0
LINE
  8
OBJECT
 10
13.086867
 20
6.555247
 30
0.0
 11
14.720867
 21
6.555247
 31
0.0
  0
CIRCLE
  8
OBJECT
 10
14.541867
 20
3.348247
 30
0.0
 40
0.055
  0
CIRCLE
  8
OBJECT
 10
14.541867
 20
3.348247
 30
0.0
 40
0.108
  0
CIRCLE
  8
OBJECT
 10
14.293867
 20
3.543247
 30
0.0
 40
0.048
  0
CIRCLE
  8
OBJECT
 10
14.293867
 20
3.543247
 30
0.0
 40
0.1
  0
CIRCLE
  8
OBJECT
 10
14.541867
 20
6.276247
 30
0.0
 40
0.108
  0
CIRCLE
  8
OBJECT
 10
14.541867
 20
6.276247
 30
0.0
 40
0.055
  0
CIRCLE
  8
OBJECT
 10
14.293867
 20
6.081247
 30
0.0
 40
0.1
  0
CIRCLE
  8
OBJECT
 10
14.293867
 20
6.081247
 30
0.0
 40
0.048
  0
CIRCLE
  8
OBJECT
 10
13.265867
 20
3.348247
 30
0.0
 40
0.108
  0
CIRCLE
  8
OBJECT
 10
13.265867
 20
3.348247
 30
0.0
 40
0.055
  0
CIRCLE
  8
OBJECT
 10
13.513867
 20
3.543247
 30
0.0
 40
0.1
  0
CIRCLE
  8
OBJECT
 10
13.513867
 20
3.543247
 30
0.0
 40
0.048
  0
CIRCLE
  8
OBJECT
 10
13.513867
 20
6.081247
 30
0.0
 40
0.048
  0
CIRCLE
  8
OBJECT
 10
13.513867
 20
6.081247
 30
0.0
 40
0.1
  0
CIRCLE
  8
OBJECT
 10
13.265867
 20
6.276247
 30
0.0
 40
0.108
  0
CIRCLE
  8
OBJECT
 10
13.265867
 20
6.276247
 30
0.0
 40
0.055
  0
LINE
  8
OBJECT
 10
16.784248
 20
6.532134
 30
0.0
 11
17.136248
 21
6.532134
 31
0.0
  0
LINE
  8
OBJECT
 10
16.784248
 20
6.574134
 30
0.0
 11
16.844248
 21
6.574134
 31
0.0
  0
LINE
  8
OBJECT
 10
16.844248
 20
6.612134
 30
0.0
 11
16.882248
 21
6.612134
 31
0.0
  0
LINE
  8
OBJECT
 10
17.136248
 20
3.620134
 30
0.0
 11
17.136248
 21
5.958134
 31
0.0
  0
LINE
  8
OBJECT
 10
17.136248
 20
6.361134
 30
0.0
 11
17.136248
 21
6.532134
 31
0.0
  0
LINE
  8
OBJECT
 10
16.844248
 20
6.574134
 30
0.0
 11
16.844248
 21
6.612134
 31
0.0
  0
LINE
  8
OBJECT
 10
16.882248
 20
6.612134
 30
0.0
 11
16.882248
 21
6.657134
 31
0.0
  0
LINE
  8
OBJECT
 10
16.793248
 20
6.361134
 30
0.0
 11
17.136248
 21
6.361134
 31
0.0
  0
LINE
  8
OBJECT
 10
16.793248
 20
6.308134
 30
0.0
 11
17.136248
 21
6.308134
 31
0.0
  0
LINE
  8
OBJECT
 10
16.793248
 20
6.198134
 30
0.0
 11
17.136248
 21
6.198134
 31
0.0
  0
LINE
  8
OBJECT
 10
16.793248
 20
6.145134
 30
0.0
 11
16.938248
 21
6.145134
 31
0.0
  0
LINE
  8
OBJECT
 10
16.938248
 20
6.158134
 30
0.0
 11
17.136248
 21
6.158134
 31
0.0
  0
LINE
  8
OBJECT
 10
16.938248
 20
6.106134
 30
0.0
 11
17.136248
 21
6.106134
 31
0.0
  0
LINE
  8
OBJECT
 10
16.938248
 20
6.010134
 30
0.0
 11
17.136248
 21
6.010134
 31
0.0
  0
LINE
  8
OBJECT
 10
16.938248
 20
5.958134
 30
0.0
 11
17.136248
 21
5.958134
 31
0.0
  0
LINE
  8
OBJECT
 10
16.938248
 20
5.958134
 30
0.0
 11
16.938248
 21
6.158134
 31
0.0
  0
LINE
  8
OBJECT
 10
16.793248
 20
6.145134
 30
0.0
 11
16.793248
 21
6.361134
 31
0.0
  0
LINE
  8
OBJECT
 10
17.136248
 20
6.010134
 30
0.0
 11
17.136248
 21
6.106134
 31
0.0
  0
LINE
  8
OBJECT
 10
17.219248
 20
6.370134
 30
0.0
 11
17.219248
 21
6.136134
 31
0.0
  0
LINE
  8
OBJECT
 10
17.219248
 20
6.370134
 30
0.0
 11
17.234248
 21
6.370134
 31
0.0
  0
LINE
  8
OBJECT
 10
17.219248
 20
6.136134
 30
0.0
 11
17.234248
 21
6.136134
 31
0.0
  0
LINE
  8
OBJECT
 10
17.136248
 20
6.308134
 30
0.0
 11
17.219248
 21
6.370134
 31
0.0
  0
LINE
  8
OBJECT
 10
17.136248
 20
6.198134
 30
0.0
 11
17.219248
 21
6.136134
 31
0.0
  0
LINE
  8
OBJECT
 10
17.136248
 20
3.217134
 30
0.0
 11
17.136248
 21
3.046134
 31
0.0
  0
LINE
  8
OBJECT
 10
16.793248
 20
3.380134
 30
0.0
 11
17.136248
 21
3.380134
 31
0.0
  0
LINE
  8
OBJECT
 10
16.793248
 20
3.270134
 30
0.0
 11
17.136248
 21
3.270134
 31
0.0
  0
LINE
  8
OBJECT
 10
16.938248
 20
3.420134
 30
0.0
 11
17.136248
 21
3.420134
 31
0.0
  0
LINE
  8
OBJECT
 10
16.793248
 20
3.217134
 30
0.0
 11
17.136248
 21
3.217134
 31
0.0
  0
LINE
  8
OBJECT
 10
16.938248
 20
3.620134
 30
0.0
 11
17.136248
 21
3.620134
 31
0.0
  0
LINE
  8
OBJECT
 10
16.938248
 20
3.568134
 30
0.0
 11
17.136248
 21
3.568134
 31
0.0
  0
LINE
  8
OBJECT
 10
16.938248
 20
3.472134
 30
0.0
 11
17.136248
 21
3.472134
 31
0.0
  0
LINE
  8
OBJECT
 10
16.938248
 20
3.620134
 30
0.0
 11
16.938248
 21
3.420134
 31
0.0
  0
LINE
  8
OBJECT
 10
16.793248
 20
3.433134
 30
0.0
 11
16.793248
 21
3.217134
 31
0.0
  0
LINE
  8
OBJECT
 10
16.793248
 20
3.433134
 30
0.0
 11
16.938248
 21
3.433134
 31
0.0
  0
LINE
  8
OBJECT
 10
17.136248
 20
3.568134
 30
0.0
 11
17.136248
 21
3.472134
 31
0.0
  0
LINE
  8
OBJECT
 10
17.219248
 20
3.208134
 30
0.0
 11
17.219248
 21
3.442134
 31
0.0
  0
LINE
  8
OBJECT
 10
17.136248
 20
3.380134
 30
0.0
 11
17.219248
 21
3.442134
 31
0.0
  0
LINE
  8
OBJECT
 10
17.219248
 20
3.442134
 30
0.0
 11
17.234248
 21
3.442134
 31
0.0
  0
LINE
  8
OBJECT
 10
17.136248
 20
3.270134
 30
0.0
 11
17.219248
 21
3.208134
 31
0.0
  0
LINE
  8
OBJECT
 10
17.219248
 20
3.208134
 30
0.0
 11
17.234248
 21
3.208134
 31
0.0
  0
LINE
  8
OBJECT
 10
16.784248
 20
3.046134
 30
0.0
 11
17.136248
 21
3.046134
 31
0.0
  0
LINE
  8
OBJECT
 10
16.882248
 20
2.921134
 30
0.0
 11
17.141248
 21
2.921134
 31
0.0
  0
LINE
  8
OBJECT
 10
16.784248
 20
3.004134
 30
0.0
 11
16.844248
 21
3.004134
 31
0.0
  0
LINE
  8
OBJECT
 10
16.844248
 20
3.004134
 30
0.0
 11
16.844248
 21
2.966134
 31
0.0
  0
LINE
  8
OBJECT
 10
16.844248
 20
2.966134
 30
0.0
 11
16.882248
 21
2.966134
 31
0.0
  0
LINE
  8
OBJECT
 10
16.882248
 20
2.966134
 30
0.0
 11
16.882248
 21
2.921134
 31
0.0
  0
ARC
  8
OBJECT
 10
17.141248
 20
3.014134
 30
0.0
 40
0.093
 50
270.0
 51
0.0
  0
INSERT
  8
HATCH
  2
*X1
 10
9.914465
 20
-0.94763
 30
0.0
1001
ACAD
1000
HATCH
1002
{
1070
    16
1000
ANSI31
1040
0.75
1040
0.0
1002
}
  0
LINE
  8
OBJECT
 10
16.628761
 20
9.038293
 30
0.0
 11
16.628761
 21
11.917701
 31
0.0
  0
LINE
  8
OBJECT
 10
18.428761
 20
8.595942
 30
0.0
 11
18.428761
 21
11.877701
 31
0.0
  0
LINE
  8
OBJECT
 10
18.036761
 20
8.695084
 30
0.0
 11
18.036761
 21
9.453701
 31
0.0
  0
LINE
  8
OBJECT
 10
18.036761
 20
11.065701
 30
0.0
 11
18.036761
 21
11.749701
 31
0.0
  0
LINE
  8
OBJECT
 10
16.664761
 20
11.065701
 30
0.0
 11
18.036761
 21
11.065701
 31
0.0
  0
LINE
  8
OBJECT
 10
16.664761
 20
10.853701
 30
0.0
 11
18.036761
 21
10.853701
 31
0.0
  0
LINE
  8
OBJECT
 10
16.664761
 20
10.413701
 30
0.0
 11
18.036761
 21
10.413701
 31
0.0
  0
LINE
  8
OBJECT
 10
17.244761
 20
10.045701
 30
0.0
 11
18.036761
 21
10.045701
 31
0.0
  0
LINE
  8
OBJECT
 10
17.244761
 20
9.661701
 30
0.0
 11
18.036761
 21
9.661701
 31
0.0
  0
LINE
  8
OBJECT
 10
17.244761
 20
9.453701
 30
0.0
 11
18.036761
 21
9.453701
 31
0.0
  0
LINE
  8
OBJECT
 10
17.244761
 20
10.253701
 30
0.0
 11
18.036761
 21
10.253701
 31
0.0
  0
LINE
  8
OBJECT
 10
17.244761
 20
9.453701
 30
0.0
 11
17.244761
 21
10.253701
 31
0.0
  0
LINE
  8
OBJECT
 10
16.664761
 20
10.201701
 30
0.0
 11
16.664761
 21
11.065701
 31
0.0
  0
LINE
  8
OBJECT
 10
16.664761
 20
10.201701
 30
0.0
 11
17.244761
 21
10.201701
 31
0.0
  0
LINE
  8
OBJECT
 10
18.036761
 20
9.661701
 30
0.0
 11
18.036761
 21
10.045701
 31
0.0
  0
LINE
  8
OBJECT
 10
18.368761
 20
11.101701
 30
0.0
 11
18.368761
 21
10.165701
 31
0.0
  0
LINE
  8
OBJECT
 10
18.036761
 20
10.413701
 30
0.0
 11
18.368761
 21
10.165701
 31
0.0
  0
LINE
  8
OBJECT
 10
18.368761
 20
10.165701
 30
0.0
 11
18.428761
 21
10.165701
 31
0.0
  0
LINE
  8
OBJECT
 10
18.036761
 20
10.853701
 30
0.0
 11
18.368761
 21
11.101701
 31
0.0
  0
LINE
  8
OBJECT
 10
18.368761
 20
11.101701
 30
0.0
 11
18.428761
 21
11.101701
 31
0.0
  0
LINE
  8
OBJECT
 10
17.020761
 20
12.249701
 30
0.0
 11
18.056761
 21
12.249701
 31
0.0
  0
LINE
  8
OBJECT
 10
16.628761
 20
11.749701
 30
0.0
 11
18.036761
 21
11.749701
 31
0.0
  0
LINE
  8
OBJECT
 10
17.020761
 20
12.069701
 30
0.0
 11
17.020761
 21
12.249701
 31
0.0
  0
LINE
  8
OBJECT
 10
16.868761
 20
12.069701
 30
0.0
 11
17.020761
 21
12.069701
 31
0.0
  0
LINE
  8
OBJECT
 10
16.868761
 20
11.917701
 30
0.0
 11
16.868761
 21
12.069701
 31
0.0
  0
LINE
  8
OBJECT
 10
16.628761
 20
11.917701
 30
0.0
 11
16.868761
 21
11.917701
 31
0.0
  0
ARC
  8
OBJECT
 10
18.056761
 20
11.877701
 30
0.0
 40
0.372
 50
0.0
 51
90.0
  0
DIMENSION
  8
DIM
  2
*D11
 10
18.368761
 20
10.165701
 30
0.0
 11
20.23731
 21
10.633701
 31
0.0
 12
0.0
 22
0.137582
 32
0.0
 70
     2
 13
18.036761
 23
10.853701
 33
0.0
 14
18.368761
 24
11.101701
 34
0.0
 15
18.036761
 25
10.413701
 35
0.0
 16
20.235654
 26
10.542835
 36
0.0
  3
23NSTD
  0
INSERT
  8
HATCH
  2
*X2
 10
5.314409
 20
5.102936
 30
0.0
1001
ACAD
1000
HATCH
1002
{
1070
    16
1000
ANSI31
1040
3.0
1040
0.0
1002
}
  0
DIMENSION
  8
DIM
  2
*D10
 10
8.751989
 20
1.104044
 30
0.0
 11
8.202989
 21
1.104044
 31
0.0
 12
0.0
 22
0.309561
 32
0.0
 13
7.653989
 23
2.944247
 33
0.0
 14
8.751989
 24
3.195266
 34
0.0
  3
23NSTDI
  0
DIMENSION
  8
DIM
  2
*D9
 10
8.751989
 20
2.263169
 30
0.0
 11
9.617809
 21
2.263169
 31
0.0
 12
0.0
 22
0.309561
 32
0.0
 13
8.255989
 23
3.043696
 33
0.0
 14
8.751989
 24
3.055247
 34
0.0
  3
23NSTD
  0
DIMENSION
  8
DIM
  2
*D8
 10
7.868989
 20
1.876794
 30
0.0
 11
8.310489
 21
1.876794
 31
0.0
 12
0.0
 22
0.309561
 32
0.0
 13
8.751989
 23
3.055247
 33
0.0
 14
7.868989
 24
3.692747
 34
0.0
  3
23NSTDI
  0
DIMENSION
  8
DIM
  2
*D7
 10
7.736989
 20
1.490419
 30
0.0
 11
8.244489
 21
1.490419
 31
0.0
 12
0.0
 22
0.309561
 32
0.0
 13
8.751989
 23
3.055247
 33
0.0
 14
7.736989
 24
3.239247
 34
0.0
  3
23NSTDI
  0
POLYLINE
  8
DIM
 66
     1
 10
0.0
 20
0.0
 30
0.0
 41
0.09288
  0
VERTEX
  8
DIM
 10
3.454144
 20
3.257297
 30
0.0
  0
VERTEX
  8
DIM
 10
3.597288
 20
3.055171
 30
0.0
 41
0.0
  0
VERTEX
  8
DIM
 10
4.332231
 20
2.017405
 30
0.0
 41
0.0
  0
VERTEX
  8
DIM
 10
4.579911
 20
2.017405
 30
0.0
 41
0.0
  0
SEQEND
  8
DIM
  0
DIMENSION
  8
DIM
  2
*D6
 10
16.784248
 20
2.107953
 30
0.0
 11
15.92917
 21
2.107953
 31
0.0
 12
0.4885
 22
0.286448
 32
0.0
 13
17.234248
 23
3.014134
 33
0.0
 14
16.784248
 24
3.004134
 34
0.0
  3
23NSTD
  0
TEXT
  8
TEXT
 10
0.688521
 20
10.000805
 30
0.0
 40
0.171875
  1
%%UNOTE:%%U ALL DIMENSIONS HAVE %%p0.015 TOLERANCE
 41
0.75
  7
TXT
  0
TEXT
  8
TEXT
 10
0.531002
 20
12.850912
 30
0.0
 40
0.171875
  1
%%UMATERIAL:%%U
 41
0.75
  7
TXT
  0
TEXT
  8
TEXT
 10
0.531002
 20
12.564454
 30
0.0
 40
0.171875
  1
  COVER AND BODY____MOLDED IMPACT RESISTANT ABS
 41
0.75
  7
TXT
  0
TEXT
  8
TEXT
 10
0.531002
 20
11.991537
 30
0.0
 40
0.171875
  1
%%UFINISH:%%U
 41
0.75
  7
TXT
  0
TEXT
  8
TEXT
 10
0.531002
 20
11.705079
 30
0.0
 40
0.171875
  1
  (SUFFIX -B) COVER AND BODY______________BLACK
 41
0.75
  7
TXT
  0
LINE
  8
OBJECT
 10
19.403954
 20
3.014134
 30
0.0
 11
19.403954
 21
6.564134
 31
0.0
  0
LINE
  8
OBJECT
 10
20.891954
 20
6.546134
 30
0.0
 11
20.891954
 21
3.032134
 31
0.0
  0
LINE
  8
OBJECT
 10
20.798954
 20
6.639134
 30
0.0
 11
19.793954
 21
6.657134
 31
0.0
  0
ARC
  8
OBJECT
 10
20.798954
 20
6.546134
 30
0.0
 40
0.093
 50
0.0
 51
90.0
  0
LINE
  8
OBJECT
 10
19.755954
 20
6.657134
 30
0.0
 11
19.496954
 21
6.657134
 31
0.0
  0
LINE
  8
OBJECT
 10
19.793954
 20
2.921134
 30
0.0
 11
19.793954
 21
6.657134
 31
0.0
  0
LINE
  8
OBJECT
 10
19.793954
 20
6.612134
 30
0.0
 11
19.755954
 21
6.612134
 31
0.0
  0
ARC
  8
OBJECT
 10
19.496954
 20
6.564134
 30
0.0
 40
0.093
 50
90.0
 51
180.0
  0
ARC
  8
OBJECT
 10
19.496954
 20
3.014134
 30
0.0
 40
0.093
 50
180.0
 51
270.0
  0
LINE
  8
OBJECT
 10
20.798954
 20
2.939134
 30
0.0
 11
19.793954
 21
2.921134
 31
0.0
  0
ARC
  8
OBJECT
 10
20.798954
 20
3.032134
 30
0.0
 40
0.093
 50
270.0
 51
0.0
  0
LINE
  8
OBJECT
 10
19.755954
 20
2.921134
 30
0.0
 11
19.496954
 21
2.921134
 31
0.0
  0
LINE
  8
OBJECT
 10
19.755954
 20
6.657134
 30
0.0
 11
19.755954
 21
2.921134
 31
0.0
  0
LINE
  8
OBJECT
 10
19.793954
 20
2.966134
 30
0.0
 11
19.755954
 21
2.966134
 31
0.0
  0
LINE
  8
TITLE
 10
0.08525
 20
13.255
 30
0.0
 11
21.22725
 21
13.255
 31
0.0
  0
POLYLINE
  8
TITLE
 66
     1
 10
0.0
 20
0.0
 30
0.0
 70
     1
  0
VERTEX
  8
TITLE
 10
21.3125
 20
13.915
 30
0.0
  0
VERTEX
  8
TITLE
 10
21.3125
 20
0.0
 30
0.0
  0
VERTEX
  8
TITLE
 10
0.0
 20
0.0
 30
0.0
  0
VERTEX
  8
TITLE
 10
0.0
 20
13.915
 30
0.0
  0
SEQEND
  8
TITLE
  0
POLYLINE
  8
TITLE
 66
     1
 10
0.0
 20
0.0
 30
0.0
 70
     1
  0
VERTEX
  8
TITLE
 10
21.22725
 20
13.82975
 30
0.0
  0
VERTEX
  8
TITLE
 10
21.22725
 20
0.08525
 30
0.0
  0
VERTEX
  8
TITLE
 10
0.08525
 20
0.08525
 30
0.0
  0
VERTEX
  8
TITLE
 10
0.08525
 20
13.82975
 30
0.0
  0
SEQEND
  8
TITLE
  0
TEXT
  8
TEXT
 10
0.285771
 20
13.310109
 30
0.0
 40
0.171875
  1
NAME
 72
     1
 11
0.600875
 21
13.310109
 31
0.0
  0
TEXT
  8
TEXT
 10
0.285771
 20
13.596567
 30
0.0
 40
0.171875
  1
PART
 72
     1
 11
0.600875
 21
13.596567
 31
0.0
  0
LINE
  8
TITLE
 10
1.1165
 20
13.255
 30
0.0
 11
1.1165
 21
13.82975
 31
0.0
  0
TEXT
  8
TEXT
 10
10.899396
 20
13.596567
 30
0.0
 40
0.171875
  1
PART
 72
     1
 11
11.2145
 21
13.596567
 31
0.0
  0
TEXT
  8
TEXT
 10
11.042625
 20
13.310109
 30
0.0
 40
0.171875
  1
No.
 72
     1
 11
11.2145
 21
13.310109
 31
0.0
  0
LINE
  8
TITLE
 10
10.698875
 20
13.82975
 30
0.0
 11
10.698875
 21
13.255
 31
0.0
  0
LINE
  8
TITLE
 10
10.613625
 20
13.82975
 30
0.0
 11
10.613625
 21
13.255
 31
0.0
  0
LINE
  8
TITLE
 10
11.730125
 20
13.82975
 30
0.0
 11
11.730125
 21
13.255
 31
0.0
  0
TEXT
  8
TEXT
 10
4.189281
 20
13.413469
 30
0.0
 40
0.257813
  1
UTILIBOX  (STYLE F)
 41
0.75
  7
TXT
 72
     4
 11
5.865063
 21
13.542375
 31
0.0
  0
TEXT
  8
TEXT
 10
14.351734
 20
13.413469
 30
0.0
 40
0.257813
  1
CU-1872-B  &  CU-1872-G
 41
0.75
  7
TXT
 72
     4
 11
16.478688
 21
13.542375
 31
0.0
  0
TEXT
  8
DIM
 10
4.083012
 20
5.003837
 30
0.0
 40
0.172
  1
(3) SPACES
 41
0.75
  7
TXT
 72
     4
 11
4.663512
 21
5.089837
 31
0.0
  0
DIMENSION
  8
DIM
  2
*D5
 10
19.403954
 20
2.096761
 30
0.0
 11
20.147954
 21
2.096761
 31
0.0
 12
0.4885
 22
0.286448
 32
0.0
 13
20.891954
 23
3.032134
 33
0.0
 14
19.403954
 24
3.014134
 34
0.0
  3
23NSTD
  0
DIMENSION
  8
DIM
  2
*D4
 10
18.815038
 20
2.921134
 30
0.0
 11
18.815038
 21
4.789134
 31
0.0
 12
0.4885
 22
0.286448
 32
0.0
 13
19.793954
 23
6.657134
 33
0.0
 14
19.793954
 24
2.921134
 34
0.0
 50
90.0
  3
23NSTD
  0
TEXT
  8
TEXT
 10
0.531002
 20
11.421605
 30
0.0
 40
0.171875
  1
  (SUFFIX -G) COVER AND BODY_______________GRAY
 41
0.75
  7
TXT
  0
TEXT
  8
TEXT
 10
0.68722
 20
10.848272
 30
0.0
 40
0.172
  1
FOUR (4) M2.5 x 17.5mm LG. SCREWS ARE SUPPLIED
 41
0.75
  7
TXT
  0
TEXT
  8
TEXT
 10
0.68722
 20
10.561605
 30
0.0
 40
0.172
  1
  FOR ASSEMBLY.
 41
0.75
  7
TXT
  0
TEXT
  8
TEXT
 10
1.060828
 20
0.551796
 30
0.0
 40
0.171875
  1
%%UBODY
 41
0.75
  7
TXT
 72
     1
 11
1.299305
 21
0.551796
 31
0.0
  0
TEXT
  8
TEXT
 10
12.097199
 20
0.551796
 30
0.0
 40
0.171875
  1
%%UCOVER
 41
0.75
  7
TXT
 72
     1
 11
12.421613
 21
0.551796
 31
0.0
  0
DIMENSION
  8
DIM
  2
*D3
 10
19.403954
 20
2.483136
 30
0.0
 11
18.258837
 21
2.483136
 31
0.0
 12
0.4885
 22
0.286448
 32
0.0
  1
<> REF.
 13
19.755954
 23
2.921134
 33
0.0
 14
19.403954
 24
3.014134
 34
0.0
  3
23NSTD
  0
POLYLINE
  8
DIM
 66
     1
 10
0.0
 20
0.0
 30
0.0
 41
0.092813
  0
VERTEX
  8
DIM
 10
14.203069
 20
6.130042
 30
0.0
  0
VERTEX
  8
DIM
 10
14.029905
 20
6.306877
 30
0.0
 41
0.0
  0
VERTEX
  8
DIM
 10
12.59854
 20
7.76859
 30
0.0
 41
0.0
  0
VERTEX
  8
DIM
 10
12.35104
 20
7.76859
 30
0.0
 41
0.0
  0
SEQEND
  8
DIM
  0
TEXT
  8
DIM
 10
10.615962
 20
7.682652
 30
0.0
 40
0.171875
  1
0.200 DIA. BOSS
 41
0.75
  7
TXT
 72
     2
 11
12.22729
 21
7.76859
 31
0.0
 73
     2
  0
TEXT
  8
DIM
 10
10.594477
 20
7.396194
 30
0.0
 40
0.171875
  1
WITH 0.096 DIA.
 41
0.75
  7
TXT
 72
     2
 11
12.22729
 21
7.482131
 31
0.0
 73
     2
  0
TEXT
  8
DIM
 10
10.358149
 20
7.109736
 30
0.0
 40
0.171875
  1
HOLES 0.198 DEEP
 41
0.75
  7
TXT
 72
     2
 11
12.22729
 21
7.195673
 31
0.0
 73
     2
  0
TEXT
  8
DIM
 10
11.067134
 20
6.823277
 30
0.0
 40
0.171875
  1
(4) PLACES
 41
0.75
  7
TXT
 72
     2
 11
12.22729
 21
6.909215
 31
0.0
 73
     2
  0
POLYLINE
  8
DIM
 66
     1
 10
0.0
 20
0.0
 30
0.0
 41
0.092813
  0
VERTEX
  8
DIM
 10
14.446006
 20
6.325994
 30
0.0
  0
VERTEX
  8
DIM
 10
14.274266
 20
6.504212
 30
0.0
 41
0.0
  0
VERTEX
  8
DIM
 10
12.406002
 20
8.442945
 30
0.0
 41
0.0
  0
VERTEX
  8
DIM
 10
12.754651
 20
8.442945
 30
0.0
 41
0.0
  0
VERTEX
  8
DIM
 10
13.002151
 20
8.442945
 30
0.0
 41
0.0
  0
SEQEND
  8
DIM
  0
TEXT
  8
DIM
 10
13.125901
 20
8.357007
 30
0.0
 40
0.171875
  1
0.216 DIA. BOSS WITH 0.110
 41
0.75
  7
TXT
 11
13.125901
 21
8.442945
 31
0.0
 73
     2
  0
TEXT
  8
DIM
 10
13.125901
 20
8.070549
 30
0.0
 40
0.171875
  1
DIA. THRU HOLES (4) PLACES
 41
0.75
  7
TXT
 11
13.125901
 21
8.156486
 31
0.0
 73
     2
  0
TEXT
  8
TEXT
 10
1.335706
 20
9.72254
 30
0.0
 40
0.171875
  1
UNLESS OTHERWISE SPECIFIED.
 41
0.75
  7
TXT
  0
TEXT
  8
TEXT
 10
0.710837
 20
9.175371
 30
0.0
 40
0.171875
  1
MOUNTING BOSSES USE EITHER M2.5 METRIC OR
 41
0.75
  7
TXT
  0
TEXT
  8
TEXT
 10
0.710837
 20
8.897106
 30
0.0
 40
0.171875
  1
#4 STD. SHEET METAL SCREWS x 0.187" LG.
 41
0.75
  7
TXT
  0
TEXT
  8
TEXT
 10
0.710837
 20
8.610647
 30
0.0
 40
0.171875
  1
(NOT SUPPLIED)
 41
0.75
  7
TXT
  0
ENDSEC
  0
EOF
