  0
SECTION
  2
HEADER
  9
$ACADVER
  1
AC1009
  9
$INSBASE
 10
0.0
 20
0.0
 30
0.0
  9
$EXTMIN
 10
0.0
 20
0.0
 30
0.0
  9
$EXTMAX
 10
27.125
 20
17.71
 30
0.0
  9
$LIMMIN
 10
0.0
 20
0.0
  9
$LIMMAX
 10
75.0
 20
50.0
  9
$ORTHOMODE
 70
     1
  9
$REGENMODE
 70
     1
  9
$FILLMODE
 70
     1
  9
$QTEXTMODE
 70
     0
  9
$MIRRTEXT
 70
     0
  9
$DRAGMODE
 70
     2
  9
$LTSCALE
 40
1.3125
  9
$OSMODE
 70
     0
  9
$ATTMODE
 70
     1
  9
$TEXTSIZE
 40
0.219
  9
$TRACEWID
 40
0.05
  9
$TEXTSTYLE
  7
TXT
  9
$CLAYER
  8
OBJECT
  9
$CELTYPE
  6
BYLAYER
  9
$CECOLOR
 62
   256
  9
$DIMSCALE
 40
1.75
  9
$DIMASZ
 40
0.18
  9
$DIMEXO
 40
0.063
  9
$DIMDLI
 40
0.481
  9
$DIMRND
 40
0.0
  9
$DIMDLE
 40
0.0
  9
$DIMEXE
 40
0.093
  9
$DIMTP
 40
0.0
  9
$DIMTM
 40
0.0
  9
$DIMTXT
 40
0.125
  9
$DIMCEN
 40
0.09
  9
$DIMTSZ
 40
0.0
  9
$DIMTOL
 70
     0
  9
$DIMLIM
 70
     0
  9
$DIMTIH
 70
     1
  9
$DIMTOH
 70
     1
  9
$DIMSE1
 70
     0
  9
$DIMSE2
 70
     0
  9
$DIMTAD
 70
     0
  9
$DIMZIN
 70
     0
  9
$DIMBLK
  1

  9
$DIMASO
 70
     1
  9
$DIMSHO
 70
     1
  9
$DIMPOST
  1

  9
$DIMAPOST
  1

  9
$DIMALT
 70
     0
  9
$DIMALTD
 70
     2
  9
$DIMALTF
 40
25.4
  9
$DIMLFAC
 40
0.25
  9
$DIMTOFL
 70
     0
  9
$DIMTVP
 40
0.0
  9
$DIMTIX
 70
     0
  9
$DIMSOXD
 70
     0
  9
$DIMSAH
 70
     0
  9
$DIMBLK1
  1

  9
$DIMBLK2
  1

  9
$DIMSTYLE
  2
23NSTD4
  9
$DIMCLRD
 70
     0
  9
$DIMCLRE
 70
     0
  9
$DIMCLRT
 70
     0
  9
$DIMTFAC
 40
1.0
  9
$DIMGAP
 40
0.09
  9
$LUNITS
 70
     2
  9
$LUPREC
 70
     3
  9
$SKETCHINC
 40
0.1
  9
$FILLETRAD
 40
0.0
  9
$AUNITS
 70
     0
  9
$AUPREC
 70
     0
  9
$MENU
  1
acad
  9
$ELEVATION
 40
0.0
  9
$PELEVATION
 40
0.0
  9
$THICKNESS
 40
0.0
  9
$LIMCHECK
 70
     0
  9
$BLIPMODE
 70
     1
  9
$CHAMFERA
 40
0.0
  9
$CHAMFERB
 40
0.0
  9
$SKPOLY
 70
     0
  9
$TDCREATE
 40
2450056.319600810
  9
$TDUPDATE
 40
2450604.461936689
  9
$TDINDWG
 40
0.0676452546
  9
$TDUSRTIMER
 40
0.0676452546
  9
$USRTIMER
 70
     1
  9
$ANGBASE
 50
0.0
  9
$ANGDIR
 70
     0
  9
$PDMODE
 70
     0
  9
$PDSIZE
 40
0.0
  9
$PLINEWID
 40
0.0
  9
$COORDS
 70
     2
  9
$SPLFRAME
 70
     0
  9
$SPLINETYPE
 70
     6
  9
$SPLINESEGS
 70
     8
  9
$ATTDIA
 70
     0
  9
$ATTREQ
 70
     1
  9
$HANDLING
 70
     0
  9
$HANDSEED
  5
0
  9
$SURFTAB1
 70
     6
  9
$SURFTAB2
 70
     6
  9
$SURFTYPE
 70
     6
  9
$SURFU
 70
     6
  9
$SURFV
 70
     6
  9
$UCSNAME
  2

  9
$UCSORG
 10
0.0
 20
0.0
 30
0.0
  9
$UCSXDIR
 10
1.0
 20
0.0
 30
0.0
  9
$UCSYDIR
 10
0.0
 20
1.0
 30
0.0
  9
$PUCSNAME
  2

  9
$PUCSORG
 10
0.0
 20
0.0
 30
0.0
  9
$PUCSXDIR
 10
1.0
 20
0.0
 30
0.0
  9
$PUCSYDIR
 10
0.0
 20
1.0
 30
0.0
  9
$USERI1
 70
     0
  9
$USERI2
 70
     0
  9
$USERI3
 70
     0
  9
$USERI4
 70
     0
  9
$USERI5
 70
     0
  9
$USERR1
 40
0.0
  9
$USERR2
 40
0.0
  9
$USERR3
 40
0.0
  9
$USERR4
 40
0.0
  9
$USERR5
 40
0.0
  9
$WORLDVIEW
 70
     1
  9
$SHADEDGE
 70
     3
  9
$SHADEDIF
 70
    70
  9
$TILEMODE
 70
     1
  9
$MAXACTVP
 70
    16
  9
$PINSBASE
 10
0.0
 20
0.0
 30
0.0
  9
$PLIMCHECK
 70
     0
  9
$PEXTMIN
 10
1.000000E+20
 20
1.000000E+20
 30
1.000000E+20
  9
$PEXTMAX
 10
-1.000000E+20
 20
-1.000000E+20
 30
-1.000000E+20
  9
$PLIMMIN
 10
0.0
 20
0.0
  9
$PLIMMAX
 10
12.0
 20
9.0
  9
$UNITMODE
 70
     0
  9
$VISRETAIN
 70
     0
  9
$PLINEGEN
 70
     0
  9
$PSLTSCALE
 70
     1
  9
$TREEDEPTH
 70
  3020
  9
$DWGCODEPAGE
  3
ascii
  0
ENDSEC
  0
SECTION
  2
TABLES
  0
TABLE
  2
VPORT
 70
     2
  0
VPORT
  2
*ACTIVE
 70
     0
 10
0.0
 20
0.0
 11
1.0
 21
1.0
 12
13.5625
 22
9.955301
 13
0.0
 23
0.0
 14
1.0
 24
1.0
 15
0.0
 25
0.0
 16
0.0
 26
0.0
 36
1.0
 17
0.0
 27
0.0
 37
0.0
 40
19.910602
 41
1.36234
 42
50.0
 43
0.0
 44
0.0
 50
0.0
 51
0.0
 71
     0
 72
   100
 73
     1
 74
     0
 75
     0
 76
     0
 77
     0
 78
     0
  0
ENDTAB
  0
TABLE
  2
LTYPE
 70
     5
  0
LTYPE
  2
CONTINUOUS
 70
    64
  3
Solid line
 72
    65
 73
     0
 40
0.0
  0
LTYPE
  2
HIDDEN
 70
    64
  3
_ _ _ _ _ _ _ _ _ _ _ _ _ _ _ _ _ _ _ _ _ _ _
 72
    65
 73
     2
 40
0.375
 49
0.25
 49
-0.125
  0
LTYPE
  2
PHANTOM
 70
    64
  3
_____ _ _ _____ _ _ _____ _ _ _____ _ _ ____
 72
    65
 73
     6
 40
2.5
 49
1.25
 49
-0.25
 49
0.25
 49
-0.25
 49
0.25
 49
-0.25
  0
LTYPE
  2
CENTER
 70
    64
  3
____ _ ____ _ ____ _ ____ _ ____ _ ____ _ ____
 72
    65
 73
     4
 40
2.0
 49
1.25
 49
-0.25
 49
0.25
 49
-0.25
  0
LTYPE
  2
PHANTOM2
 70
    64
  3
___ _ _ ___ _ _ ___ _ _ ___ _ _ ___ _ _ ___ _ _
 72
    65
 73
     6
 40
1.25
 49
0.625
 49
-0.125
 49
0.125
 49
-0.125
 49
0.125
 49
-0.125
  0
ENDTAB
  0
TABLE
  2
LAYER
 70
    11
  0
LAYER
  2
0
 70
    64
 62
     7
  6
CONTINUOUS
  0
LAYER
  2
OBJECT
 70
    64
 62
     7
  6
CONTINUOUS
  0
LAYER
  2
DIM
 70
    64
 62
     7
  6
CONTINUOUS
  0
LAYER
  2
HIDDEN
 70
    64
 62
     7
  6
HIDDEN
  0
LAYER
  2
BEND
 70
    64
 62
     7
  6
PHANTOM
  0
LAYER
  2
TEXT
 70
    64
 62
     7
  6
CONTINUOUS
  0
LAYER
  2
TITLE
 70
    64
 62
     7
  6
CONTINUOUS
  0
LAYER
  2
CENTER
 70
    64
 62
     7
  6
CENTER
  0
LAYER
  2
DEFPOINTS
 70
    64
 62
     7
  6
CONTINUOUS
  0
LAYER
  2
HATCH
 70
    64
 62
     7
  6
CONTINUOUS
  0
LAYER
  2
LJHFV
 70
    64
 62
     7
  6
CONTINUOUS
  0
ENDTAB
  0
TABLE
  2
STYLE
 70
     2
  0
STYLE
  2
STANDARD
 70
    64
 40
0.0
 41
1.0
 50
0.0
 71
     0
 42
0.2
  3
txt
  4

  0
STYLE
  2
TXT
 70
    64
 40
0.0
 41
0.75
 50
0.0
 71
     0
 42
0.219
  3
txt
  4

  0
ENDTAB
  0
TABLE
  2
VIEW
 70
     0
  0
ENDTAB
  0
TABLE
  2
UCS
 70
     0
  0
ENDTAB
  0
TABLE
  2
APPID
 70
     1
  0
APPID
  2
ACAD
 70
    64
  0
ENDTAB
  0
TABLE
  2
DIMSTYLE
 70
     4
  0
DIMSTYLE
  2
23NSTD
 70
    64
  3

  4

  5

  6

  7

 40
1.75
 41
0.18
 42
0.063
 43
0.281
 44
0.093
 45
0.0
 46
0.0
 47
0.0
 48
0.0
140
0.125
141
0.09
142
0.0
143
25.4
144
1.0
145
0.0
146
1.0
147
0.09
 71
     0
 72
     0
 73
     1
 74
     1
 75
     0
 76
     0
 77
     0
 78
     0
170
     0
171
     2
172
     0
173
     0
174
     0
175
     0
176
     0
177
     0
178
     0
  0
DIMSTYLE
  2
23NSTDI
 70
    64
  3

  4

  5

  6

  7

 40
1.75
 41
0.18
 42
0.063
 43
0.281
 44
0.093
 45
0.0
 46
0.0
 47
0.0
 48
0.0
140
0.125
141
0.09
142
0.0
143
25.4
144
1.0
145
0.0
146
1.0
147
0.09
 71
     0
 72
     0
 73
     1
 74
     1
 75
     0
 76
     0
 77
     0
 78
     0
170
     0
171
     2
172
     0
173
     0
174
     1
175
     0
176
     0
177
     0
178
     0
  0
DIMSTYLE
  2
23NSTD4
 70
    64
  3

  4

  5

  6

  7

 40
1.75
 41
0.18
 42
0.063
 43
0.481
 44
0.093
 45
0.0
 46
0.0
 47
0.0
 48
0.0
140
0.125
141
0.09
142
0.0
143
25.4
144
0.25
145
0.0
146
1.0
147
0.09
 71
     0
 72
     0
 73
     1
 74
     1
 75
     0
 76
     0
 77
     0
 78
     0
170
     0
171
     2
172
     0
173
     0
174
     0
175
     0
176
     0
177
     0
178
     0
  0
DIMSTYLE
  2
23NSTD4I
 70
    64
  3

  4

  5

  6

  7

 40
1.75
 41
0.18
 42
0.063
 43
0.281
 44
0.093
 45
0.0
 46
0.0
 47
0.0
 48
0.0
140
0.125
141
0.09
142
0.0
143
25.4
144
0.25
145
0.0
146
1.0
147
0.09
 71
     0
 72
     0
 73
     1
 74
     1
 75
     0
 76
     0
 77
     0
 78
     0
170
     0
171
     2
172
     0
173
     0
174
     1
175
     0
176
     0
177
     0
178
     0
  0
ENDTAB
  0
ENDSEC
  0
SECTION
  2
BLOCKS
  0
BLOCK
  8
0
  2
*X0
 70
    65
 10
0.0
 20
0.0
 30
0.0
  3
*X
  0
LINE
  8
0
 62
     0
 10
12.308522
 20
9.259124
 30
0.0
 11
12.416522
 21
9.367124
 31
0.0
  0
LINE
  8
0
 62
     0
 10
12.308522
 20
9.391707
 30
0.0
 11
12.416522
 21
9.499707
 31
0.0
  0
LINE
  8
0
 62
     0
 10
12.308522
 20
9.524289
 30
0.0
 11
12.416522
 21
9.632289
 31
0.0
  0
LINE
  8
0
 62
     0
 10
12.308522
 20
9.656872
 30
0.0
 11
12.416522
 21
9.764872
 31
0.0
  0
LINE
  8
0
 62
     0
 10
12.308522
 20
9.789454
 30
0.0
 11
12.416522
 21
9.897454
 31
0.0
  0
LINE
  8
0
 62
     0
 10
12.308522
 20
9.922037
 30
0.0
 11
12.416522
 21
10.030037
 31
0.0
  0
LINE
  8
0
 62
     0
 10
12.308522
 20
10.054619
 30
0.0
 11
12.416522
 21
10.162619
 31
0.0
  0
LINE
  8
0
 62
     0
 10
12.308522
 20
10.187202
 30
0.0
 11
12.416522
 21
10.295202
 31
0.0
  0
LINE
  8
0
 62
     0
 10
12.308522
 20
10.319784
 30
0.0
 11
12.416522
 21
10.427784
 31
0.0
  0
LINE
  8
0
 62
     0
 10
12.308522
 20
10.452367
 30
0.0
 11
12.416522
 21
10.560367
 31
0.0
  0
LINE
  8
0
 62
     0
 10
12.308522
 20
10.584949
 30
0.0
 11
12.416522
 21
10.692949
 31
0.0
  0
LINE
  8
0
 62
     0
 10
12.308522
 20
10.717532
 30
0.0
 11
12.416522
 21
10.825532
 31
0.0
  0
LINE
  8
0
 62
     0
 10
12.249291
 20
10.790883
 30
0.0
 11
12.416522
 21
10.958114
 31
0.0
  0
LINE
  8
0
 62
     0
 10
12.116708
 20
10.790883
 30
0.0
 11
12.416139
 21
11.090314
 31
0.0
  0
LINE
  8
0
 62
     0
 10
11.984126
 20
10.790883
 30
0.0
 11
12.360471
 21
11.167228
 31
0.0
  0
LINE
  8
0
 62
     0
 10
11.851543
 20
10.790883
 30
0.0
 11
12.236848
 21
11.176187
 31
0.0
  0
LINE
  8
0
 62
     0
 10
11.718961
 20
10.790883
 30
0.0
 11
12.106215
 21
11.178137
 31
0.0
  0
LINE
  8
0
 62
     0
 10
11.586378
 20
10.790883
 30
0.0
 11
11.658878
 21
10.863383
 31
0.0
  0
LINE
  8
0
 62
     0
 10
11.840522
 20
11.045027
 30
0.0
 11
11.975583
 21
11.180088
 31
0.0
  0
LINE
  8
0
 62
     0
 10
11.690522
 20
10.895027
 30
0.0
 11
11.820378
 21
11.024883
 31
0.0
  0
LINE
  8
0
 62
     0
 10
11.453796
 20
10.790883
 30
0.0
 11
11.526296
 21
10.863383
 31
0.0
  0
LINE
  8
0
 62
     0
 10
11.761796
 20
11.098883
 30
0.0
 11
11.84495
 21
11.182038
 31
0.0
  0
LINE
  8
0
 62
     0
 10
11.615296
 20
10.952383
 30
0.0
 11
11.687796
 21
11.024883
 31
0.0
  0
LINE
  8
0
 62
     0
 10
11.321213
 20
10.790883
 30
0.0
 11
11.393713
 21
10.863383
 31
0.0
  0
LINE
  8
0
 62
     0
 10
11.629213
 20
11.098883
 30
0.0
 11
11.714318
 21
11.183988
 31
0.0
  0
LINE
  8
0
 62
     0
 10
11.482713
 20
10.952383
 30
0.0
 11
11.555213
 21
11.024883
 31
0.0
  0
LINE
  8
0
 62
     0
 10
11.188631
 20
10.790883
 30
0.0
 11
11.261131
 21
10.863383
 31
0.0
  0
LINE
  8
0
 62
     0
 10
11.496631
 20
11.098883
 30
0.0
 11
11.583686
 21
11.185938
 31
0.0
  0
LINE
  8
0
 62
     0
 10
11.350131
 20
10.952383
 30
0.0
 11
11.422631
 21
11.024883
 31
0.0
  0
LINE
  8
0
 62
     0
 10
11.056048
 20
10.790883
 30
0.0
 11
11.128548
 21
10.863383
 31
0.0
  0
LINE
  8
0
 62
     0
 10
11.364048
 20
11.098883
 30
0.0
 11
11.453053
 21
11.187888
 31
0.0
  0
LINE
  8
0
 62
     0
 10
11.217548
 20
10.952383
 30
0.0
 11
11.290048
 21
11.024883
 31
0.0
  0
LINE
  8
0
 62
     0
 10
10.932522
 20
10.79994
 30
0.0
 11
10.995966
 21
10.863383
 31
0.0
  0
LINE
  8
0
 62
     0
 10
11.231466
 20
11.098883
 30
0.0
 11
11.322421
 21
11.189838
 31
0.0
  0
LINE
  8
0
 62
     0
 10
11.084966
 20
10.952383
 30
0.0
 11
11.157466
 21
11.024883
 31
0.0
  0
LINE
  8
0
 62
     0
 10
10.952383
 20
10.952383
 30
0.0
 11
11.024883
 21
11.024883
 31
0.0
  0
LINE
  8
0
 62
     0
 10
11.098883
 20
11.098883
 30
0.0
 11
11.191788
 21
11.191788
 31
0.0
  0
LINE
  8
0
 62
     0
 10
10.966301
 20
11.098883
 30
0.0
 11
11.061156
 21
11.193739
 31
0.0
  0
LINE
  8
0
 62
     0
 10
10.859718
 20
11.124883
 30
0.0
 11
10.930524
 21
11.195689
 31
0.0
  0
LINE
  8
0
 62
     0
 10
12.308522
 20
9.126542
 30
0.0
 11
12.416522
 21
9.234542
 31
0.0
  0
LINE
  8
0
 62
     0
 10
12.308522
 20
8.993959
 30
0.0
 11
12.416522
 21
9.101959
 31
0.0
  0
LINE
  8
0
 62
     0
 10
12.308522
 20
8.861377
 30
0.0
 11
12.416522
 21
8.969377
 31
0.0
  0
LINE
  8
0
 62
     0
 10
12.308522
 20
8.728794
 30
0.0
 11
12.416522
 21
8.836794
 31
0.0
  0
LINE
  8
0
 62
     0
 10
12.308522
 20
8.596211
 30
0.0
 11
12.416522
 21
8.704211
 31
0.0
  0
LINE
  8
0
 62
     0
 10
12.308522
 20
8.463629
 30
0.0
 11
12.416522
 21
8.571629
 31
0.0
  0
LINE
  8
0
 62
     0
 10
12.308522
 20
8.331046
 30
0.0
 11
12.416522
 21
8.439046
 31
0.0
  0
LINE
  8
0
 62
     0
 10
12.308522
 20
8.198464
 30
0.0
 11
12.416522
 21
8.306464
 31
0.0
  0
LINE
  8
0
 62
     0
 10
12.308522
 20
8.065881
 30
0.0
 11
12.416522
 21
8.173881
 31
0.0
  0
LINE
  8
0
 62
     0
 10
12.308522
 20
7.933299
 30
0.0
 11
12.416522
 21
8.041299
 31
0.0
  0
LINE
  8
0
 62
     0
 10
12.308522
 20
7.800716
 30
0.0
 11
12.416522
 21
7.908716
 31
0.0
  0
LINE
  8
0
 62
     0
 10
10.932522
 20
6.292134
 30
0.0
 11
10.935271
 21
6.294883
 31
0.0
  0
LINE
  8
0
 62
     0
 10
12.308522
 20
7.668134
 30
0.0
 11
12.416522
 21
7.776134
 31
0.0
  0
LINE
  8
0
 62
     0
 10
10.995354
 20
6.222383
 30
0.0
 11
11.067854
 21
6.294883
 31
0.0
  0
LINE
  8
0
 62
     0
 10
12.308522
 20
7.535551
 30
0.0
 11
12.416522
 21
7.643551
 31
0.0
  0
LINE
  8
0
 62
     0
 10
10.850522
 20
5.944969
 30
0.0
 11
10.866436
 21
5.960883
 31
0.0
  0
LINE
  8
0
 62
     0
 10
12.308522
 20
7.402969
 30
0.0
 11
12.416522
 21
7.510969
 31
0.0
  0
LINE
  8
0
 62
     0
 10
10.966436
 20
6.060883
 30
0.0
 11
11.038936
 21
6.133383
 31
0.0
  0
LINE
  8
0
 62
     0
 10
11.127936
 20
6.222383
 30
0.0
 11
11.200436
 21
6.294883
 31
0.0
  0
LINE
  8
0
 62
     0
 10
10.928178
 20
5.890042
 30
0.0
 11
11.025019
 21
5.986883
 31
0.0
  0
LINE
  8
0
 62
     0
 10
12.308522
 20
7.270386
 30
0.0
 11
12.416522
 21
7.378386
 31
0.0
  0
LINE
  8
0
 62
     0
 10
11.099019
 20
6.060883
 30
0.0
 11
11.171519
 21
6.133383
 31
0.0
  0
LINE
  8
0
 62
     0
 10
11.260519
 20
6.222383
 30
0.0
 11
11.333019
 21
6.294883
 31
0.0
  0
LINE
  8
0
 62
     0
 10
11.06277
 20
5.892052
 30
0.0
 11
11.157601
 21
5.986883
 31
0.0
  0
LINE
  8
0
 62
     0
 10
12.308522
 20
7.137804
 30
0.0
 11
12.416522
 21
7.245804
 31
0.0
  0
LINE
  8
0
 62
     0
 10
11.231601
 20
6.060883
 30
0.0
 11
11.304101
 21
6.133383
 31
0.0
  0
LINE
  8
0
 62
     0
 10
11.393101
 20
6.222383
 30
0.0
 11
11.465601
 21
6.294883
 31
0.0
  0
LINE
  8
0
 62
     0
 10
11.197362
 20
5.894061
 30
0.0
 11
11.290184
 21
5.986883
 31
0.0
  0
LINE
  8
0
 62
     0
 10
12.308522
 20
7.005221
 30
0.0
 11
12.416522
 21
7.113221
 31
0.0
  0
LINE
  8
0
 62
     0
 10
11.364184
 20
6.060883
 30
0.0
 11
11.436684
 21
6.133383
 31
0.0
  0
LINE
  8
0
 62
     0
 10
11.525684
 20
6.222383
 30
0.0
 11
11.598184
 21
6.294883
 31
0.0
  0
LINE
  8
0
 62
     0
 10
11.331953
 20
5.89607
 30
0.0
 11
11.422766
 21
5.986883
 31
0.0
  0
LINE
  8
0
 62
     0
 10
12.308522
 20
6.872639
 30
0.0
 11
12.416522
 21
6.980639
 31
0.0
  0
LINE
  8
0
 62
     0
 10
11.496766
 20
6.060883
 30
0.0
 11
11.569266
 21
6.133383
 31
0.0
  0
LINE
  8
0
 62
     0
 10
11.658266
 20
6.222383
 30
0.0
 11
11.730766
 21
6.294883
 31
0.0
  0
LINE
  8
0
 62
     0
 10
11.466545
 20
5.898079
 30
0.0
 11
11.555349
 21
5.986883
 31
0.0
  0
LINE
  8
0
 62
     0
 10
12.308522
 20
6.740056
 30
0.0
 11
12.416522
 21
6.848056
 31
0.0
  0
LINE
  8
0
 62
     0
 10
11.629349
 20
6.060883
 30
0.0
 11
11.863349
 21
6.294883
 31
0.0
  0
LINE
  8
0
 62
     0
 10
11.601137
 20
5.900089
 30
0.0
 11
11.687931
 21
5.986883
 31
0.0
  0
LINE
  8
0
 62
     0
 10
12.308522
 20
6.607474
 30
0.0
 11
12.416522
 21
6.715474
 31
0.0
  0
LINE
  8
0
 62
     0
 10
11.761931
 20
6.060883
 30
0.0
 11
11.995931
 21
6.294883
 31
0.0
  0
LINE
  8
0
 62
     0
 10
11.735729
 20
5.902098
 30
0.0
 11
11.820514
 21
5.986883
 31
0.0
  0
LINE
  8
0
 62
     0
 10
12.308522
 20
6.474891
 30
0.0
 11
12.416522
 21
6.582891
 31
0.0
  0
LINE
  8
0
 62
     0
 10
11.840522
 20
6.006891
 30
0.0
 11
12.128514
 21
6.294883
 31
0.0
  0
LINE
  8
0
 62
     0
 10
11.870321
 20
5.904107
 30
0.0
 11
12.261097
 21
6.294883
 31
0.0
  0
LINE
  8
0
 62
     0
 10
12.308522
 20
6.342309
 30
0.0
 11
12.416522
 21
6.450309
 31
0.0
  0
LINE
  8
0
 62
     0
 10
12.004912
 20
5.906116
 30
0.0
 11
12.416522
 21
6.317726
 31
0.0
  0
LINE
  8
0
 62
     0
 10
12.139504
 20
5.908126
 30
0.0
 11
12.416522
 21
6.185144
 31
0.0
  0
LINE
  8
0
 62
     0
 10
12.274096
 20
5.910135
 30
0.0
 11
12.416522
 21
6.052561
 31
0.0
  0
ENDBLK
  8
0
  0
BLOCK
  8
0
  2
*X1
 70
    65
 10
0.0
 20
0.0
 30
0.0
  3
*X
  0
LINE
  8
0
 62
     0
 10
7.3343
 20
6.671388
 30
0.0
 11
7.4323
 21
6.769388
 31
0.0
  0
LINE
  8
0
 62
     0
 10
7.3343
 20
6.80397
 30
0.0
 11
7.4323
 21
6.90197
 31
0.0
  0
LINE
  8
0
 62
     0
 10
7.3343
 20
6.936553
 30
0.0
 11
7.4323
 21
7.034553
 31
0.0
  0
LINE
  8
0
 62
     0
 10
7.3343
 20
7.069135
 30
0.0
 11
7.4323
 21
7.167135
 31
0.0
  0
LINE
  8
0
 62
     0
 10
7.3343
 20
7.201718
 30
0.0
 11
7.4323
 21
7.299718
 31
0.0
  0
LINE
  8
0
 62
     0
 10
7.3343
 20
7.3343
 30
0.0
 11
7.4323
 21
7.4323
 31
0.0
  0
LINE
  8
0
 62
     0
 10
7.3343
 20
7.466883
 30
0.0
 11
7.4323
 21
7.564883
 31
0.0
  0
LINE
  8
0
 62
     0
 10
7.3343
 20
7.599466
 30
0.0
 11
7.4323
 21
7.697466
 31
0.0
  0
LINE
  8
0
 62
     0
 10
7.3343
 20
7.732048
 30
0.0
 11
7.4323
 21
7.830048
 31
0.0
  0
LINE
  8
0
 62
     0
 10
7.3343
 20
7.864631
 30
0.0
 11
7.4323
 21
7.962631
 31
0.0
  0
LINE
  8
0
 62
     0
 10
7.3343
 20
7.997213
 30
0.0
 11
7.4323
 21
8.095213
 31
0.0
  0
LINE
  8
0
 62
     0
 10
7.3343
 20
8.129796
 30
0.0
 11
7.4323
 21
8.227796
 31
0.0
  0
LINE
  8
0
 62
     0
 10
7.3343
 20
8.262378
 30
0.0
 11
7.4323
 21
8.360378
 31
0.0
  0
LINE
  8
0
 62
     0
 10
7.3343
 20
8.394961
 30
0.0
 11
7.4323
 21
8.492961
 31
0.0
  0
LINE
  8
0
 62
     0
 10
7.3343
 20
8.527543
 30
0.0
 11
7.4323
 21
8.625543
 31
0.0
  0
LINE
  8
0
 62
     0
 10
7.250439
 20
8.576265
 30
0.0
 11
7.308439
 21
8.634265
 31
0.0
  0
LINE
  8
0
 62
     0
 10
7.3343
 20
8.660126
 30
0.0
 11
7.4323
 21
8.758126
 31
0.0
  0
LINE
  8
0
 62
     0
 10
7.1383
 20
8.596708
 30
0.0
 11
7.175857
 21
8.634265
 31
0.0
  0
LINE
  8
0
 62
     0
 10
7.272857
 20
8.731265
 30
0.0
 11
7.355724
 21
8.814132
 31
0.0
  0
LINE
  8
0
 62
     0
 10
7.140274
 20
8.731265
 30
0.0
 11
7.239274
 21
8.830265
 31
0.0
  0
LINE
  8
0
 62
     0
 10
7.390877
 20
8.981868
 30
0.0
 11
7.4323
 21
9.023291
 31
0.0
  0
LINE
  8
0
 62
     0
 10
7.053692
 20
8.777265
 30
0.0
 11
7.106692
 21
8.830265
 31
0.0
  0
LINE
  8
0
 62
     0
 10
7.327192
 20
9.050765
 30
0.0
 11
7.412084
 21
9.135657
 31
0.0
  0
LINE
  8
0
 62
     0
 10
7.215692
 20
8.939265
 30
0.0
 11
7.268692
 21
8.992265
 31
0.0
  0
LINE
  8
0
 62
     0
 10
7.083109
 20
8.939265
 30
0.0
 11
7.136109
 21
8.992265
 31
0.0
  0
LINE
  8
0
 62
     0
 10
7.194609
 20
9.050765
 30
0.0
 11
7.314609
 21
9.170765
 31
0.0
  0
LINE
  8
0
 62
     0
 10
7.0023
 20
8.991038
 30
0.0
 11
7.003527
 21
8.992265
 31
0.0
  0
LINE
  8
0
 62
     0
 10
7.062027
 20
9.050765
 30
0.0
 11
7.182027
 21
9.170765
 31
0.0
  0
LINE
  8
0
 62
     0
 10
7.3343
 20
6.538805
 30
0.0
 11
7.4323
 21
6.636805
 31
0.0
  0
LINE
  8
0
 62
     0
 10
7.3343
 20
6.406223
 30
0.0
 11
7.4323
 21
6.504223
 31
0.0
  0
LINE
  8
0
 62
     0
 10
7.3343
 20
6.27364
 30
0.0
 11
7.4323
 21
6.37164
 31
0.0
  0
LINE
  8
0
 62
     0
 10
7.3343
 20
6.141058
 30
0.0
 11
7.4323
 21
6.239058
 31
0.0
  0
LINE
  8
0
 62
     0
 10
7.3343
 20
6.008475
 30
0.0
 11
7.4323
 21
6.106475
 31
0.0
  0
LINE
  8
0
 62
     0
 10
7.3343
 20
5.875893
 30
0.0
 11
7.4323
 21
5.973893
 31
0.0
  0
LINE
  8
0
 62
     0
 10
7.3343
 20
5.74331
 30
0.0
 11
7.4323
 21
5.84131
 31
0.0
  0
LINE
  8
0
 62
     0
 10
7.3343
 20
5.610728
 30
0.0
 11
7.4323
 21
5.708728
 31
0.0
  0
LINE
  8
0
 62
     0
 10
7.3343
 20
5.478145
 30
0.0
 11
7.4323
 21
5.576145
 31
0.0
  0
LINE
  8
0
 62
     0
 10
7.3343
 20
5.345563
 30
0.0
 11
7.4323
 21
5.443563
 31
0.0
  0
LINE
  8
0
 62
     0
 10
7.3343
 20
5.21298
 30
0.0
 11
7.4323
 21
5.31098
 31
0.0
  0
LINE
  8
0
 62
     0
 10
7.3343
 20
5.080398
 30
0.0
 11
7.4323
 21
5.178398
 31
0.0
  0
LINE
  8
0
 62
     0
 10
7.3343
 20
4.947815
 30
0.0
 11
7.4323
 21
5.045815
 31
0.0
  0
LINE
  8
0
 62
     0
 10
7.3343
 20
4.815233
 30
0.0
 11
7.4323
 21
4.913233
 31
0.0
  0
LINE
  8
0
 62
     0
 10
7.3343
 20
4.68265
 30
0.0
 11
7.4323
 21
4.78065
 31
0.0
  0
LINE
  8
0
 62
     0
 10
7.0023
 20
4.218068
 30
0.0
 11
7.046497
 21
4.262265
 31
0.0
  0
LINE
  8
0
 62
     0
 10
7.3343
 20
4.550068
 30
0.0
 11
7.4323
 21
4.648068
 31
0.0
  0
LINE
  8
0
 62
     0
 10
7.189497
 20
4.405265
 30
0.0
 11
7.247497
 21
4.463265
 31
0.0
  0
LINE
  8
0
 62
     0
 10
7.0023
 20
4.085485
 30
0.0
 11
7.01708
 21
4.100265
 31
0.0
  0
LINE
  8
0
 62
     0
 10
7.32208
 20
4.405265
 30
0.0
 11
7.4323
 21
4.515485
 31
0.0
  0
LINE
  8
0
 62
     0
 10
7.12608
 20
4.209265
 30
0.0
 11
7.22508
 21
4.308265
 31
0.0
  0
LINE
  8
0
 62
     0
 10
7.001163
 20
3.951765
 30
0.0
 11
7.038163
 21
3.988765
 31
0.0
  0
LINE
  8
0
 62
     0
 10
7.258663
 20
4.209265
 30
0.0
 11
7.4323
 21
4.382902
 31
0.0
  0
LINE
  8
0
 62
     0
 10
7.096663
 20
4.047265
 30
0.0
 11
7.149663
 21
4.100265
 31
0.0
  0
LINE
  8
0
 62
     0
 10
7.0773
 20
3.89532
 30
0.0
 11
7.170745
 21
3.988765
 31
0.0
  0
LINE
  8
0
 62
     0
 10
7.229245
 20
4.047265
 30
0.0
 11
7.282245
 21
4.100265
 31
0.0
  0
LINE
  8
0
 62
     0
 10
7.183328
 20
3.868765
 30
0.0
 11
7.303328
 21
3.988765
 31
0.0
  0
LINE
  8
0
 62
     0
 10
7.3343
 20
4.019737
 30
0.0
 11
7.380237
 21
4.065674
 31
0.0
  0
LINE
  8
0
 62
     0
 10
7.31591
 20
3.868765
 30
0.0
 11
7.4323
 21
3.985155
 31
0.0
  0
ENDBLK
  8
0
  0
BLOCK
  8
0
  2
*X2
 70
    65
 10
0.0
 20
0.0
 30
0.0
  3
*X
  0
LINE
  8
0
 62
     0
 10
11.624188
 20
5.790557
 30
0.0
 11
12.020188
 21
6.186557
 31
0.0
  0
LINE
  8
0
 62
     0
 10
11.277858
 20
5.974557
 30
0.0
 11
11.489858
 21
6.186557
 31
0.0
  0
LINE
  8
0
 62
     0
 10
12.203216
 20
6.899915
 30
0.0
 11
12.581158
 21
7.277857
 31
0.0
  0
LINE
  8
0
 62
     0
 10
11.925858
 20
6.622557
 30
0.0
 11
12.137858
 21
6.834557
 31
0.0
  0
LINE
  8
0
 62
     0
 10
10.875216
 20
6.102245
 30
0.0
 11
10.959528
 21
6.186557
 31
0.0
  0
LINE
  8
0
 62
     0
 10
11.841528
 20
7.068557
 30
0.0
 11
12.311018
 21
7.538047
 31
0.0
  0
LINE
  8
0
 62
     0
 10
11.395528
 20
6.622557
 30
0.0
 11
11.607528
 21
6.834557
 31
0.0
  0
LINE
  8
0
 62
     0
 10
10.875216
 20
6.632575
 30
0.0
 11
11.077198
 21
6.834557
 31
0.0
  0
LINE
  8
0
 62
     0
 10
11.311198
 20
7.068557
 30
0.0
 11
11.791198
 21
7.548557
 31
0.0
  0
LINE
  8
0
 62
     0
 10
10.783216
 20
7.070905
 30
0.0
 11
10.928868
 21
7.216557
 31
0.0
  0
LINE
  8
0
 62
     0
 10
11.175216
 20
7.462905
 30
0.0
 11
11.260868
 21
7.548557
 31
0.0
  0
LINE
  8
0
 62
     0
 10
11.023216
 20
7.310905
 30
0.0
 11
11.080868
 21
7.368557
 31
0.0
  0
LINE
  8
0
 62
     0
 10
11.534518
 20
5.170557
 30
0.0
 11
11.766518
 21
5.402557
 31
0.0
  0
LINE
  8
0
 62
     0
 10
12.154518
 20
5.790557
 30
0.0
 11
12.401333
 21
6.037372
 31
0.0
  0
LINE
  8
0
 62
     0
 10
12.064848
 20
5.170557
 30
0.0
 11
12.595216
 21
5.700925
 31
0.0
  0
LINE
  8
0
 62
     0
 10
12.203216
 20
4.778595
 30
0.0
 11
12.595216
 21
5.170595
 31
0.0
  0
LINE
  8
0
 62
     0
 10
12.203216
 20
4.248264
 30
0.0
 11
12.595216
 21
4.640264
 31
0.0
  0
LINE
  8
0
 62
     0
 10
12.203216
 20
3.717934
 30
0.0
 11
12.595216
 21
4.109934
 31
0.0
  0
LINE
  8
0
 62
     0
 10
12.415682
 20
3.40007
 30
0.0
 11
12.595216
 21
3.579604
 31
0.0
  0
ENDBLK
  8
0
  0
BLOCK
  8
0
  2
*D3
 70
    65
 10
0.0
 20
0.0
 30
0.0
  3
*D
  0
LINE
  8
0
  6
BYBLOCK
 62
     0
 10
24.649366
 20
2.638801
 30
0.0
 11
23.55827
 21
2.638801
 31
0.0
  0
LINE
  8
0
  6
BYBLOCK
 62
     0
 10
24.649366
 20
7.946801
 30
0.0
 11
23.55827
 21
7.946801
 31
0.0
  0
LINE
  8
0
  6
BYBLOCK
 62
     0
 10
23.72102
 20
2.953801
 30
0.0
 11
23.72102
 21
5.025926
 31
0.0
  0
LINE
  8
0
  6
BYBLOCK
 62
     0
 10
23.72102
 20
7.631801
 30
0.0
 11
23.72102
 21
5.559676
 31
0.0
  0
SOLID
  8
0
  6
BYBLOCK
 62
     0
 10
23.66852
 20
2.953801
 30
0.0
 11
23.77352
 21
2.953801
 31
0.0
 12
23.72102
 22
2.638801
 32
0.0
 13
23.72102
 23
2.638801
 33
0.0
  0
SOLID
  8
0
  6
BYBLOCK
 62
     0
 10
23.66852
 20
7.631801
 30
0.0
 11
23.77352
 21
7.631801
 31
0.0
 12
23.72102
 22
7.946801
 32
0.0
 13
23.72102
 23
7.946801
 33
0.0
  0
TEXT
  8
0
  6
BYBLOCK
 62
     0
 10
23.406567
 20
5.183426
 30
0.0
 40
0.21875
  1
5.308
 41
0.75
  7
TXT
 72
     1
 11
23.72102
 21
5.292801
 31
0.0
 73
     2
  0
POINT
  8
DEFPOINTS
  6
BYBLOCK
 62
     0
 10
24.759616
 20
2.638801
 30
0.0
  0
POINT
  8
DEFPOINTS
  6
BYBLOCK
 62
     0
 10
24.759616
 20
7.946801
 30
0.0
  0
POINT
  8
DEFPOINTS
  6
BYBLOCK
 62
     0
 10
23.72102
 20
7.946801
 30
0.0
  0
ENDBLK
  8
0
  0
BLOCK
  8
0
  2
*D4
 70
    65
 10
0.0
 20
0.0
 30
0.0
  3
*D
  0
LINE
  8
0
  6
BYBLOCK
 62
     0
 10
24.721616
 20
2.531551
 30
0.0
 11
24.721616
 21
1.47568
 31
0.0
  0
LINE
  8
0
  6
BYBLOCK
 62
     0
 10
24.366616
 20
2.624551
 30
0.0
 11
24.366616
 21
1.47568
 31
0.0
  0
LINE
  8
0
  6
BYBLOCK
 62
     0
 10
25.036616
 20
1.63843
 30
0.0
 11
25.351616
 21
1.63843
 31
0.0
  0
LINE
  8
0
  6
BYBLOCK
 62
     0
 10
24.051616
 20
1.63843
 30
0.0
 11
23.736616
 21
1.63843
 31
0.0
  0
SOLID
  8
0
  6
BYBLOCK
 62
     0
 10
25.036616
 20
1.69093
 30
0.0
 11
25.036616
 21
1.58593
 31
0.0
 12
24.721616
 22
1.63843
 32
0.0
 13
24.721616
 23
1.63843
 33
0.0
  0
SOLID
  8
0
  6
BYBLOCK
 62
     0
 10
24.051616
 20
1.69093
 30
0.0
 11
24.051616
 21
1.58593
 31
0.0
 12
24.366616
 22
1.63843
 32
0.0
 13
24.366616
 23
1.63843
 33
0.0
  0
TEXT
  8
0
  6
BYBLOCK
 62
     0
 10
22.922866
 20
1.529055
 30
0.0
 40
0.21875
  1
 REF.
 41
0.75
  7
TXT
 72
     1
 11
23.250991
 21
1.63843
 31
0.0
 73
     2
  0
TEXT
  8
0
  6
BYBLOCK
 62
     0
 10
22.239272
 20
1.529055
 30
0.0
 40
0.21875
  1
0.355
 41
0.75
  7
TXT
 72
     1
 11
22.553725
 21
1.63843
 31
0.0
 73
     2
  0
POINT
  8
DEFPOINTS
  6
BYBLOCK
 62
     0
 10
24.721616
 20
2.641801
 30
0.0
  0
POINT
  8
DEFPOINTS
  6
BYBLOCK
 62
     0
 10
24.366616
 20
2.734801
 30
0.0
  0
POINT
  8
DEFPOINTS
  6
BYBLOCK
 62
     0
 10
24.366616
 20
1.63843
 30
0.0
  0
ENDBLK
  8
0
  0
BLOCK
  8
0
  2
*D5
 70
    65
 10
0.0
 20
0.0
 30
0.0
  3
*D
  0
LINE
  8
0
  6
BYBLOCK
 62
     0
 10
24.366616
 20
2.624551
 30
0.0
 11
24.366616
 21
1.003352
 31
0.0
  0
LINE
  8
0
  6
BYBLOCK
 62
     0
 10
26.325616
 20
2.643551
 30
0.0
 11
26.325616
 21
1.003352
 31
0.0
  0
LINE
  8
0
  6
BYBLOCK
 62
     0
 10
24.681616
 20
1.166102
 30
0.0
 11
24.887834
 21
1.166102
 31
0.0
  0
LINE
  8
0
  6
BYBLOCK
 62
     0
 10
26.010616
 20
1.166102
 30
0.0
 11
25.804397
 21
1.166102
 31
0.0
  0
SOLID
  8
0
  6
BYBLOCK
 62
     0
 10
24.681616
 20
1.218602
 30
0.0
 11
24.681616
 21
1.113602
 31
0.0
 12
24.366616
 22
1.166102
 32
0.0
 13
24.366616
 23
1.166102
 33
0.0
  0
SOLID
  8
0
  6
BYBLOCK
 62
     0
 10
26.010616
 20
1.218602
 30
0.0
 11
26.010616
 21
1.113602
 31
0.0
 12
26.325616
 22
1.166102
 32
0.0
 13
26.325616
 23
1.166102
 33
0.0
  0
TEXT
  8
0
  6
BYBLOCK
 62
     0
 10
25.045334
 20
1.056727
 30
0.0
 40
0.21875
  1
1.959
 41
0.75
  7
TXT
 72
     1
 11
25.346116
 21
1.166102
 31
0.0
 73
     2
  0
POINT
  8
DEFPOINTS
  6
BYBLOCK
 62
     0
 10
24.366616
 20
2.734801
 30
0.0
  0
POINT
  8
DEFPOINTS
  6
BYBLOCK
 62
     0
 10
26.325616
 20
2.753801
 30
0.0
  0
POINT
  8
DEFPOINTS
  6
BYBLOCK
 62
     0
 10
26.325616
 20
1.166102
 30
0.0
  0
ENDBLK
  8
0
  0
BLOCK
  8
0
  2
*D6
 70
    65
 10
0.0
 20
0.0
 30
0.0
  3
*D
  0
LINE
  8
0
  6
BYBLOCK
 62
     0
 10
23.140641
 20
14.409648
 30
0.0
 11
23.140641
 21
15.964996
 31
0.0
  0
LINE
  8
0
  6
BYBLOCK
 62
     0
 10
23.200641
 20
14.713648
 30
0.0
 11
23.200641
 21
15.964996
 31
0.0
  0
LINE
  8
0
  6
BYBLOCK
 62
     0
 10
22.825641
 20
15.802246
 30
0.0
 11
22.510641
 21
15.802246
 31
0.0
  0
LINE
  8
0
  6
BYBLOCK
 62
     0
 10
23.515641
 20
15.802246
 30
0.0
 11
23.830641
 21
15.802246
 31
0.0
  0
SOLID
  8
0
  6
BYBLOCK
 62
     0
 10
22.825641
 20
15.854746
 30
0.0
 11
22.825641
 21
15.749746
 31
0.0
 12
23.140641
 22
15.802246
 32
0.0
 13
23.140641
 23
15.802246
 33
0.0
  0
SOLID
  8
0
  6
BYBLOCK
 62
     0
 10
23.515641
 20
15.854746
 30
0.0
 11
23.515641
 21
15.749746
 31
0.0
 12
23.200641
 22
15.802246
 32
0.0
 13
23.200641
 23
15.802246
 33
0.0
  0
TEXT
  8
0
  6
BYBLOCK
 62
     0
 10
23.988141
 20
15.692871
 30
0.0
 40
0.21875
  1
0.015
 41
0.75
  7
TXT
 72
     1
 11
24.261579
 21
15.802246
 31
0.0
 73
     2
  0
POINT
  8
DEFPOINTS
  6
BYBLOCK
 62
     0
 10
23.140641
 20
14.299398
 30
0.0
  0
POINT
  8
DEFPOINTS
  6
BYBLOCK
 62
     0
 10
23.200641
 20
14.603398
 30
0.0
  0
POINT
  8
DEFPOINTS
  6
BYBLOCK
 62
     0
 10
23.200641
 20
15.802246
 30
0.0
  0
ENDBLK
  8
0
  0
BLOCK
  8
0
  2
*D7
 70
    65
 10
0.0
 20
0.0
 30
0.0
  3
*D
  0
LINE
  8
0
  6
BYBLOCK
 62
     0
 10
17.03468
 20
2.641801
 30
0.0
 11
13.72224
 21
2.641801
 31
0.0
  0
LINE
  8
0
  6
BYBLOCK
 62
     0
 10
17.03468
 20
7.943801
 30
0.0
 11
13.72224
 21
7.943801
 31
0.0
  0
LINE
  8
0
  6
BYBLOCK
 62
     0
 10
13.88499
 20
2.956801
 30
0.0
 11
13.88499
 21
5.025926
 31
0.0
  0
LINE
  8
0
  6
BYBLOCK
 62
     0
 10
13.88499
 20
7.628801
 30
0.0
 11
13.88499
 21
5.559676
 31
0.0
  0
SOLID
  8
0
  6
BYBLOCK
 62
     0
 10
13.83249
 20
2.956801
 30
0.0
 11
13.93749
 21
2.956801
 31
0.0
 12
13.88499
 22
2.641801
 32
0.0
 13
13.88499
 23
2.641801
 33
0.0
  0
SOLID
  8
0
  6
BYBLOCK
 62
     0
 10
13.83249
 20
7.628801
 30
0.0
 11
13.93749
 21
7.628801
 31
0.0
 12
13.88499
 22
7.943801
 32
0.0
 13
13.88499
 23
7.943801
 33
0.0
  0
TEXT
  8
0
  6
BYBLOCK
 62
     0
 10
13.570537
 20
5.183426
 30
0.0
 40
0.21875
  1
5.302
 41
0.75
  7
TXT
 72
     1
 11
13.88499
 21
5.292801
 31
0.0
 73
     2
  0
POINT
  8
DEFPOINTS
  6
BYBLOCK
 62
     0
 10
17.14493
 20
2.641801
 30
0.0
  0
POINT
  8
DEFPOINTS
  6
BYBLOCK
 62
     0
 10
17.14493
 20
7.943801
 30
0.0
  0
POINT
  8
DEFPOINTS
  6
BYBLOCK
 62
     0
 10
13.88499
 20
7.943801
 30
0.0
  0
ENDBLK
  8
0
  0
BLOCK
  8
0
  2
*D8
 70
    65
 10
0.0
 20
0.0
 30
0.0
  3
*D
  0
LINE
  8
0
  6
BYBLOCK
 62
     0
 10
17.05193
 20
2.624551
 30
0.0
 11
17.05193
 21
0.4977
 31
0.0
  0
LINE
  8
0
  6
BYBLOCK
 62
     0
 10
19.99393
 20
2.624551
 30
0.0
 11
19.99393
 21
0.4977
 31
0.0
  0
LINE
  8
0
  6
BYBLOCK
 62
     0
 10
17.36693
 20
0.66045
 30
0.0
 11
18.037305
 21
0.66045
 31
0.0
  0
LINE
  8
0
  6
BYBLOCK
 62
     0
 10
19.67893
 20
0.66045
 30
0.0
 11
19.008555
 21
0.66045
 31
0.0
  0
SOLID
  8
0
  6
BYBLOCK
 62
     0
 10
17.36693
 20
0.71295
 30
0.0
 11
17.36693
 21
0.60795
 31
0.0
 12
17.05193
 22
0.66045
 32
0.0
 13
17.05193
 23
0.66045
 33
0.0
  0
SOLID
  8
0
  6
BYBLOCK
 62
     0
 10
19.67893
 20
0.71295
 30
0.0
 11
19.67893
 21
0.60795
 31
0.0
 12
19.99393
 22
0.66045
 32
0.0
 13
19.99393
 23
0.66045
 33
0.0
  0
TEXT
  8
0
  6
BYBLOCK
 62
     0
 10
18.194805
 20
0.551075
 30
0.0
 40
0.21875
  1
2.942
 41
0.75
  7
TXT
 72
     1
 11
18.52293
 21
0.66045
 31
0.0
 73
     2
  0
POINT
  8
DEFPOINTS
  6
BYBLOCK
 62
     0
 10
17.05193
 20
2.734801
 30
0.0
  0
POINT
  8
DEFPOINTS
  6
BYBLOCK
 62
     0
 10
19.99393
 20
2.734801
 30
0.0
  0
POINT
  8
DEFPOINTS
  6
BYBLOCK
 62
     0
 10
19.99393
 20
0.66045
 30
0.0
  0
ENDBLK
  8
0
  0
BLOCK
  8
0
  2
*D9
 70
    65
 10
0.0
 20
0.0
 30
0.0
  3
*D
  0
LINE
  8
0
  6
BYBLOCK
 62
     0
 10
17.42968
 20
3.129801
 30
0.0
 11
14.646856
 21
3.129801
 31
0.0
  0
LINE
  8
0
  6
BYBLOCK
 62
     0
 10
17.42968
 20
7.455801
 30
0.0
 11
14.646856
 21
7.455801
 31
0.0
  0
LINE
  8
0
  6
BYBLOCK
 62
     0
 10
14.809606
 20
3.444801
 30
0.0
 11
14.809606
 21
5.025926
 31
0.0
  0
LINE
  8
0
  6
BYBLOCK
 62
     0
 10
14.809606
 20
7.140801
 30
0.0
 11
14.809606
 21
5.559676
 31
0.0
  0
SOLID
  8
0
  6
BYBLOCK
 62
     0
 10
14.757106
 20
3.444801
 30
0.0
 11
14.862106
 21
3.444801
 31
0.0
 12
14.809606
 22
3.129801
 32
0.0
 13
14.809606
 23
3.129801
 33
0.0
  0
SOLID
  8
0
  6
BYBLOCK
 62
     0
 10
14.757106
 20
7.140801
 30
0.0
 11
14.862106
 21
7.140801
 31
0.0
 12
14.809606
 22
7.455801
 32
0.0
 13
14.809606
 23
7.455801
 33
0.0
  0
TEXT
  8
0
  6
BYBLOCK
 62
     0
 10
14.481481
 20
5.183426
 30
0.0
 40
0.21875
  1
4.326
 41
0.75
  7
TXT
 72
     1
 11
14.809606
 21
5.292801
 31
0.0
 73
     2
  0
POINT
  8
DEFPOINTS
  6
BYBLOCK
 62
     0
 10
17.53993
 20
3.129801
 30
0.0
  0
POINT
  8
DEFPOINTS
  6
BYBLOCK
 62
     0
 10
17.53993
 20
7.455801
 30
0.0
  0
POINT
  8
DEFPOINTS
  6
BYBLOCK
 62
     0
 10
14.809606
 20
7.455801
 30
0.0
  0
ENDBLK
  8
0
  0
BLOCK
  8
0
  2
*D10
 70
    65
 10
0.0
 20
0.0
 30
0.0
  3
*D
  0
LINE
  8
0
  6
BYBLOCK
 62
     0
 10
17.21768
 20
2.927801
 30
0.0
 11
16.126803
 21
2.927801
 31
0.0
  0
LINE
  8
0
  6
BYBLOCK
 62
     0
 10
17.21768
 20
7.657801
 30
0.0
 11
16.126803
 21
7.657801
 31
0.0
  0
LINE
  8
0
  6
BYBLOCK
 62
     0
 10
16.289553
 20
3.242801
 30
0.0
 11
16.289553
 21
5.025926
 31
0.0
  0
LINE
  8
0
  6
BYBLOCK
 62
     0
 10
16.289553
 20
7.342801
 30
0.0
 11
16.289553
 21
5.559676
 31
0.0
  0
SOLID
  8
0
  6
BYBLOCK
 62
     0
 10
16.237053
 20
3.242801
 30
0.0
 11
16.342053
 21
3.242801
 31
0.0
 12
16.289553
 22
2.927801
 32
0.0
 13
16.289553
 23
2.927801
 33
0.0
  0
SOLID
  8
0
  6
BYBLOCK
 62
     0
 10
16.237053
 20
7.342801
 30
0.0
 11
16.342053
 21
7.342801
 31
0.0
 12
16.289553
 22
7.657801
 32
0.0
 13
16.289553
 23
7.657801
 33
0.0
  0
TEXT
  8
0
  6
BYBLOCK
 62
     0
 10
15.9751
 20
5.183426
 30
0.0
 40
0.21875
  1
4.730
 41
0.75
  7
TXT
 72
     1
 11
16.289553
 21
5.292801
 31
0.0
 73
     2
  0
POINT
  8
DEFPOINTS
  6
BYBLOCK
 62
     0
 10
17.32793
 20
2.927801
 30
0.0
  0
POINT
  8
DEFPOINTS
  6
BYBLOCK
 62
     0
 10
17.32793
 20
7.657801
 30
0.0
  0
POINT
  8
DEFPOINTS
  6
BYBLOCK
 62
     0
 10
16.289553
 20
7.657801
 30
0.0
  0
ENDBLK
  8
0
  0
BLOCK
  8
0
  2
*D11
 70
    65
 10
0.0
 20
0.0
 30
0.0
  3
*D
  0
LINE
  8
0
  6
BYBLOCK
 62
     0
 10
17.42968
 20
3.129801
 30
0.0
 11
14.646856
 21
3.129801
 31
0.0
  0
LINE
  8
0
  6
BYBLOCK
 62
     0
 10
17.03468
 20
2.641801
 30
0.0
 11
14.646856
 21
2.641801
 31
0.0
  0
LINE
  8
0
  6
BYBLOCK
 62
     0
 10
14.809606
 20
3.444801
 30
0.0
 11
14.809606
 21
3.759801
 31
0.0
  0
LINE
  8
0
  6
BYBLOCK
 62
     0
 10
14.809606
 20
2.326801
 30
0.0
 11
14.809606
 21
2.011801
 31
0.0
  0
SOLID
  8
0
  6
BYBLOCK
 62
     0
 10
14.757106
 20
3.444801
 30
0.0
 11
14.862106
 21
3.444801
 31
0.0
 12
14.809606
 22
3.129801
 32
0.0
 13
14.809606
 23
3.129801
 33
0.0
  0
SOLID
  8
0
  6
BYBLOCK
 62
     0
 10
14.757106
 20
2.326801
 30
0.0
 11
14.862106
 21
2.326801
 31
0.0
 12
14.809606
 22
2.641801
 32
0.0
 13
14.809606
 23
2.641801
 33
0.0
  0
TEXT
  8
0
  6
BYBLOCK
 62
     0
 10
14.495153
 20
2.776426
 30
0.0
 40
0.21875
  1
0.488
 41
0.75
  7
TXT
 72
     1
 11
14.809606
 21
2.885801
 31
0.0
 73
     2
  0
POINT
  8
DEFPOINTS
  6
BYBLOCK
 62
     0
 10
17.53993
 20
3.129801
 30
0.0
  0
POINT
  8
DEFPOINTS
  6
BYBLOCK
 62
     0
 10
17.14493
 20
2.641801
 30
0.0
  0
POINT
  8
DEFPOINTS
  6
BYBLOCK
 62
     0
 10
14.809606
 20
2.641801
 30
0.0
  0
ENDBLK
  8
0
  0
BLOCK
  8
0
  2
*D12
 70
    65
 10
0.0
 20
0.0
 30
0.0
  3
*D
  0
LINE
  8
0
  6
BYBLOCK
 62
     0
 10
17.21768
 20
2.927801
 30
0.0
 11
16.126803
 21
2.927801
 31
0.0
  0
LINE
  8
0
  6
BYBLOCK
 62
     0
 10
17.03468
 20
2.641801
 30
0.0
 11
16.126803
 21
2.641801
 31
0.0
  0
LINE
  8
0
  6
BYBLOCK
 62
     0
 10
16.289553
 20
3.242801
 30
0.0
 11
16.289553
 21
3.557801
 31
0.0
  0
LINE
  8
0
  6
BYBLOCK
 62
     0
 10
16.289553
 20
2.326801
 30
0.0
 11
16.289553
 21
2.011801
 31
0.0
  0
LINE
  8
0
  6
BYBLOCK
 62
     0
 10
16.289553
 20
2.011801
 30
0.0
 11
15.974553
 21
2.011801
 31
0.0
  0
SOLID
  8
0
  6
BYBLOCK
 62
     0
 10
16.237053
 20
3.242801
 30
0.0
 11
16.342053
 21
3.242801
 31
0.0
 12
16.289553
 22
2.927801
 32
0.0
 13
16.289553
 23
2.927801
 33
0.0
  0
SOLID
  8
0
  6
BYBLOCK
 62
     0
 10
16.237053
 20
2.326801
 30
0.0
 11
16.342053
 21
2.326801
 31
0.0
 12
16.289553
 22
2.641801
 32
0.0
 13
16.289553
 23
2.641801
 33
0.0
  0
TEXT
  8
0
  6
BYBLOCK
 62
     0
 10
15.188147
 20
1.902426
 30
0.0
 40
0.21875
  1
0.286
 41
0.75
  7
TXT
 72
     1
 11
15.5026
 21
2.011801
 31
0.0
 73
     2
  0
POINT
  8
DEFPOINTS
  6
BYBLOCK
 62
     0
 10
17.32793
 20
2.927801
 30
0.0
  0
POINT
  8
DEFPOINTS
  6
BYBLOCK
 62
     0
 10
17.14493
 20
2.641801
 30
0.0
  0
POINT
  8
DEFPOINTS
  6
BYBLOCK
 62
     0
 10
16.289553
 20
2.641801
 30
0.0
  0
ENDBLK
  8
0
  0
BLOCK
  8
0
  2
*D13
 70
    65
 10
0.0
 20
0.0
 30
0.0
  3
*D
  0
LINE
  8
0
  6
BYBLOCK
 62
     0
 10
17.32793
 20
2.817551
 30
0.0
 11
17.32793
 21
1.4812
 31
0.0
  0
LINE
  8
0
  6
BYBLOCK
 62
     0
 10
19.71793
 20
2.817551
 30
0.0
 11
19.71793
 21
1.4812
 31
0.0
  0
LINE
  8
0
  6
BYBLOCK
 62
     0
 10
17.64293
 20
1.64395
 30
0.0
 11
18.050977
 21
1.64395
 31
0.0
  0
LINE
  8
0
  6
BYBLOCK
 62
     0
 10
19.40293
 20
1.64395
 30
0.0
 11
18.994883
 21
1.64395
 31
0.0
  0
SOLID
  8
0
  6
BYBLOCK
 62
     0
 10
17.64293
 20
1.69645
 30
0.0
 11
17.64293
 21
1.59145
 31
0.0
 12
17.32793
 22
1.64395
 32
0.0
 13
17.32793
 23
1.64395
 33
0.0
  0
SOLID
  8
0
  6
BYBLOCK
 62
     0
 10
19.40293
 20
1.69645
 30
0.0
 11
19.40293
 21
1.59145
 31
0.0
 12
19.71793
 22
1.64395
 32
0.0
 13
19.71793
 23
1.64395
 33
0.0
  0
TEXT
  8
0
  6
BYBLOCK
 62
     0
 10
18.208477
 20
1.534575
 30
0.0
 40
0.21875
  1
2.390
 41
0.75
  7
TXT
 72
     1
 11
18.52293
 21
1.64395
 31
0.0
 73
     2
  0
POINT
  8
DEFPOINTS
  6
BYBLOCK
 62
     0
 10
17.32793
 20
2.927801
 30
0.0
  0
POINT
  8
DEFPOINTS
  6
BYBLOCK
 62
     0
 10
19.71793
 20
2.927801
 30
0.0
  0
POINT
  8
DEFPOINTS
  6
BYBLOCK
 62
     0
 10
19.71793
 20
1.64395
 30
0.0
  0
ENDBLK
  8
0
  0
BLOCK
  8
0
  2
*D14
 70
    65
 10
0.0
 20
0.0
 30
0.0
  3
*D
  0
LINE
  8
0
  6
BYBLOCK
 62
     0
 10
17.53993
 20
3.019551
 30
0.0
 11
17.53993
 21
0.98945
 31
0.0
  0
LINE
  8
0
  6
BYBLOCK
 62
     0
 10
19.50593
 20
3.019551
 30
0.0
 11
19.50593
 21
0.98945
 31
0.0
  0
LINE
  8
0
  6
BYBLOCK
 62
     0
 10
17.85493
 20
1.1522
 30
0.0
 11
18.064649
 21
1.1522
 31
0.0
  0
LINE
  8
0
  6
BYBLOCK
 62
     0
 10
19.19093
 20
1.1522
 30
0.0
 11
18.981211
 21
1.1522
 31
0.0
  0
SOLID
  8
0
  6
BYBLOCK
 62
     0
 10
17.85493
 20
1.2047
 30
0.0
 11
17.85493
 21
1.0997
 31
0.0
 12
17.53993
 22
1.1522
 32
0.0
 13
17.53993
 23
1.1522
 33
0.0
  0
SOLID
  8
0
  6
BYBLOCK
 62
     0
 10
19.19093
 20
1.2047
 30
0.0
 11
19.19093
 21
1.0997
 31
0.0
 12
19.50593
 22
1.1522
 32
0.0
 13
19.50593
 23
1.1522
 33
0.0
  0
TEXT
  8
0
  6
BYBLOCK
 62
     0
 10
18.222149
 20
1.042825
 30
0.0
 40
0.21875
  1
1.966
 41
0.75
  7
TXT
 72
     1
 11
18.52293
 21
1.1522
 31
0.0
 73
     2
  0
POINT
  8
DEFPOINTS
  6
BYBLOCK
 62
     0
 10
17.53993
 20
3.129801
 30
0.0
  0
POINT
  8
DEFPOINTS
  6
BYBLOCK
 62
     0
 10
19.50593
 20
3.129801
 30
0.0
  0
POINT
  8
DEFPOINTS
  6
BYBLOCK
 62
     0
 10
19.50593
 20
1.1522
 30
0.0
  0
ENDBLK
  8
0
  0
BLOCK
  8
0
  2
*D15
 70
    65
 10
0.0
 20
0.0
 30
0.0
  3
*D
  0
LINE
  8
0
  6
BYBLOCK
 62
     0
 10
19.50593
 20
3.019551
 30
0.0
 11
19.50593
 21
0.98945
 31
0.0
  0
LINE
  8
0
  6
BYBLOCK
 62
     0
 10
19.99393
 20
2.624551
 30
0.0
 11
19.99393
 21
0.98945
 31
0.0
  0
LINE
  8
0
  6
BYBLOCK
 62
     0
 10
19.19093
 20
1.1522
 30
0.0
 11
18.87593
 21
1.1522
 31
0.0
  0
LINE
  8
0
  6
BYBLOCK
 62
     0
 10
20.30893
 20
1.1522
 30
0.0
 11
20.62393
 21
1.1522
 31
0.0
  0
SOLID
  8
0
  6
BYBLOCK
 62
     0
 10
19.19093
 20
1.2047
 30
0.0
 11
19.19093
 21
1.0997
 31
0.0
 12
19.50593
 22
1.1522
 32
0.0
 13
19.50593
 23
1.1522
 33
0.0
  0
SOLID
  8
0
  6
BYBLOCK
 62
     0
 10
20.30893
 20
1.2047
 30
0.0
 11
20.30893
 21
1.0997
 31
0.0
 12
19.99393
 22
1.1522
 32
0.0
 13
19.99393
 23
1.1522
 33
0.0
  0
TEXT
  8
0
  6
BYBLOCK
 62
     0
 10
20.78143
 20
1.042825
 30
0.0
 40
0.21875
  1
0.488
 41
0.75
  7
TXT
 72
     1
 11
21.095883
 21
1.1522
 31
0.0
 73
     2
  0
POINT
  8
DEFPOINTS
  6
BYBLOCK
 62
     0
 10
19.50593
 20
3.129801
 30
0.0
  0
POINT
  8
DEFPOINTS
  6
BYBLOCK
 62
     0
 10
19.99393
 20
2.734801
 30
0.0
  0
POINT
  8
DEFPOINTS
  6
BYBLOCK
 62
     0
 10
19.99393
 20
1.1522
 30
0.0
  0
ENDBLK
  8
0
  0
BLOCK
  8
0
  2
*D16
 70
    65
 10
0.0
 20
0.0
 30
0.0
  3
*D
  0
LINE
  8
0
  6
BYBLOCK
 62
     0
 10
19.71793
 20
2.817551
 30
0.0
 11
19.71793
 21
1.4812
 31
0.0
  0
LINE
  8
0
  6
BYBLOCK
 62
     0
 10
19.99393
 20
2.624551
 30
0.0
 11
19.99393
 21
1.4812
 31
0.0
  0
LINE
  8
0
  6
BYBLOCK
 62
     0
 10
19.40293
 20
1.64395
 30
0.0
 11
19.08793
 21
1.64395
 31
0.0
  0
LINE
  8
0
  6
BYBLOCK
 62
     0
 10
20.30893
 20
1.64395
 30
0.0
 11
20.62393
 21
1.64395
 31
0.0
  0
SOLID
  8
0
  6
BYBLOCK
 62
     0
 10
19.40293
 20
1.69645
 30
0.0
 11
19.40293
 21
1.59145
 31
0.0
 12
19.71793
 22
1.64395
 32
0.0
 13
19.71793
 23
1.64395
 33
0.0
  0
SOLID
  8
0
  6
BYBLOCK
 62
     0
 10
20.30893
 20
1.69645
 30
0.0
 11
20.30893
 21
1.59145
 31
0.0
 12
19.99393
 22
1.64395
 32
0.0
 13
19.99393
 23
1.64395
 33
0.0
  0
TEXT
  8
0
  6
BYBLOCK
 62
     0
 10
20.78143
 20
1.534575
 30
0.0
 40
0.21875
  1
0.276
 41
0.75
  7
TXT
 72
     1
 11
21.095883
 21
1.64395
 31
0.0
 73
     2
  0
POINT
  8
DEFPOINTS
  6
BYBLOCK
 62
     0
 10
19.71793
 20
2.927801
 30
0.0
  0
POINT
  8
DEFPOINTS
  6
BYBLOCK
 62
     0
 10
19.99393
 20
2.734801
 30
0.0
  0
POINT
  8
DEFPOINTS
  6
BYBLOCK
 62
     0
 10
19.99393
 20
1.64395
 30
0.0
  0
ENDBLK
  8
0
  0
BLOCK
  8
0
  2
*D17
 70
    65
 10
0.0
 20
0.0
 30
0.0
  3
*D
  0
LINE
  8
0
  6
BYBLOCK
 62
     0
 10
21.914391
 20
13.023398
 30
0.0
 11
20.739674
 21
13.023398
 31
0.0
  0
LINE
  8
0
  6
BYBLOCK
 62
     0
 10
21.914391
 20
12.597398
 30
0.0
 11
20.739674
 21
12.597398
 31
0.0
  0
LINE
  8
0
  6
BYBLOCK
 62
     0
 10
20.902424
 20
13.338398
 30
0.0
 11
20.902424
 21
13.653398
 31
0.0
  0
LINE
  8
0
  6
BYBLOCK
 62
     0
 10
20.902424
 20
12.282398
 30
0.0
 11
20.902424
 21
11.967398
 31
0.0
  0
LINE
  8
0
  6
BYBLOCK
 62
     0
 10
20.902424
 20
11.967398
 30
0.0
 11
20.587424
 21
11.967398
 31
0.0
  0
SOLID
  8
0
  6
BYBLOCK
 62
     0
 10
20.849924
 20
13.338398
 30
0.0
 11
20.954924
 21
13.338398
 31
0.0
 12
20.902424
 22
13.023398
 32
0.0
 13
20.902424
 23
13.023398
 33
0.0
  0
SOLID
  8
0
  6
BYBLOCK
 62
     0
 10
20.849924
 20
12.282398
 30
0.0
 11
20.954924
 21
12.282398
 31
0.0
 12
20.902424
 22
12.597398
 32
0.0
 13
20.902424
 23
12.597398
 33
0.0
  0
TEXT
  8
0
  6
BYBLOCK
 62
     0
 10
19.718987
 20
11.858023
 30
0.0
 40
0.21875
  1
R
 41
0.75
  7
TXT
 72
     1
 11
19.773674
 21
11.967398
 31
0.0
 73
     2
  0
TEXT
  8
0
  6
BYBLOCK
 62
     0
 10
19.883049
 20
11.858023
 30
0.0
 40
0.21875
  1
0.106
 41
0.75
  7
TXT
 72
     1
 11
20.156487
 21
11.967398
 31
0.0
 73
     2
  0
POINT
  8
DEFPOINTS
  6
BYBLOCK
 62
     0
 10
22.024641
 20
13.023398
 30
0.0
  0
POINT
  8
DEFPOINTS
  6
BYBLOCK
 62
     0
 10
22.024641
 20
12.597398
 30
0.0
  0
POINT
  8
DEFPOINTS
  6
BYBLOCK
 62
     0
 10
20.902424
 20
12.597398
 30
0.0
  0
ENDBLK
  8
0
  0
BLOCK
  8
0
  2
*D18
 70
    65
 10
0.0
 20
0.0
 30
0.0
  3
*D
  0
LINE
  8
0
  6
BYBLOCK
 62
     0
 10
23.310891
 20
14.299398
 30
0.0
 11
24.399736
 21
14.299398
 31
0.0
  0
LINE
  8
0
  6
BYBLOCK
 62
     0
 10
23.310891
 20
13.363398
 30
0.0
 11
24.399736
 21
13.363398
 31
0.0
  0
LINE
  8
0
  6
BYBLOCK
 62
     0
 10
24.236986
 20
14.614398
 30
0.0
 11
24.236986
 21
14.929398
 31
0.0
  0
LINE
  8
0
  6
BYBLOCK
 62
     0
 10
24.236986
 20
13.048398
 30
0.0
 11
24.236986
 21
12.733398
 31
0.0
  0
SOLID
  8
0
  6
BYBLOCK
 62
     0
 10
24.184486
 20
14.614398
 30
0.0
 11
24.289486
 21
14.614398
 31
0.0
 12
24.236986
 22
14.299398
 32
0.0
 13
24.236986
 23
14.299398
 33
0.0
  0
SOLID
  8
0
  6
BYBLOCK
 62
     0
 10
24.184486
 20
13.048398
 30
0.0
 11
24.289486
 21
13.048398
 31
0.0
 12
24.236986
 22
13.363398
 32
0.0
 13
24.236986
 23
13.363398
 33
0.0
  0
TEXT
  8
0
  6
BYBLOCK
 62
     0
 10
24.278002
 20
13.722023
 30
0.0
 40
0.21875
  1
 DIA.
 41
0.75
  7
TXT
 72
     1
 11
24.578783
 21
13.831398
 31
0.0
 73
     2
  0
TEXT
  8
0
  6
BYBLOCK
 62
     0
 10
23.594408
 20
13.722023
 30
0.0
 40
0.21875
  1
0.234
 41
0.75
  7
TXT
 72
     1
 11
23.908861
 21
13.831398
 31
0.0
 73
     2
  0
POINT
  8
DEFPOINTS
  6
BYBLOCK
 62
     0
 10
23.200641
 20
14.299398
 30
0.0
  0
POINT
  8
DEFPOINTS
  6
BYBLOCK
 62
     0
 10
23.200641
 20
13.363398
 30
0.0
  0
POINT
  8
DEFPOINTS
  6
BYBLOCK
 62
     0
 10
24.236986
 20
13.363398
 30
0.0
  0
ENDBLK
  8
0
  0
BLOCK
  8
0
  2
*D19
 70
    65
 10
0.0
 20
0.0
 30
0.0
  3
*D
  0
LINE
  8
0
  6
BYBLOCK
 62
     0
 10
21.628641
 20
14.905648
 30
0.0
 11
21.628641
 21
15.963008
 31
0.0
  0
LINE
  8
0
  6
BYBLOCK
 62
     0
 10
21.388641
 20
14.753648
 30
0.0
 11
21.388641
 21
15.963008
 31
0.0
  0
LINE
  8
0
  6
BYBLOCK
 62
     0
 10
21.943641
 20
15.800258
 30
0.0
 11
22.258641
 21
15.800258
 31
0.0
  0
LINE
  8
0
  6
BYBLOCK
 62
     0
 10
21.073641
 20
15.800258
 30
0.0
 11
20.758641
 21
15.800258
 31
0.0
  0
SOLID
  8
0
  6
BYBLOCK
 62
     0
 10
21.943641
 20
15.852758
 30
0.0
 11
21.943641
 21
15.747758
 31
0.0
 12
21.628641
 22
15.800258
 32
0.0
 13
21.628641
 23
15.800258
 33
0.0
  0
SOLID
  8
0
  6
BYBLOCK
 62
     0
 10
21.073641
 20
15.852758
 30
0.0
 11
21.073641
 21
15.747758
 31
0.0
 12
21.388641
 22
15.800258
 32
0.0
 13
21.388641
 23
15.800258
 33
0.0
  0
TEXT
  8
0
  6
BYBLOCK
 62
     0
 10
20.026923
 20
15.690883
 30
0.0
 40
0.21875
  1
0.060
 41
0.75
  7
TXT
 72
     1
 11
20.314032
 21
15.800258
 31
0.0
 73
     2
  0
POINT
  8
DEFPOINTS
  6
BYBLOCK
 62
     0
 10
21.628641
 20
14.795398
 30
0.0
  0
POINT
  8
DEFPOINTS
  6
BYBLOCK
 62
     0
 10
21.388641
 20
14.643398
 30
0.0
  0
POINT
  8
DEFPOINTS
  6
BYBLOCK
 62
     0
 10
21.388641
 20
15.800258
 30
0.0
  0
ENDBLK
  8
0
  0
BLOCK
  8
0
  2
*D20
 70
    65
 10
0.0
 20
0.0
 30
0.0
  3
*D
  0
LINE
  8
0
  6
BYBLOCK
 62
     0
 10
21.780641
 20
15.085648
 30
0.0
 11
21.780641
 21
16.454758
 31
0.0
  0
LINE
  8
0
  6
BYBLOCK
 62
     0
 10
21.628641
 20
14.905648
 30
0.0
 11
21.628641
 21
16.454758
 31
0.0
  0
LINE
  8
0
  6
BYBLOCK
 62
     0
 10
22.095641
 20
16.292008
 30
0.0
 11
22.410641
 21
16.292008
 31
0.0
  0
LINE
  8
0
  6
BYBLOCK
 62
     0
 10
21.313641
 20
16.292008
 30
0.0
 11
20.998641
 21
16.292008
 31
0.0
  0
SOLID
  8
0
  6
BYBLOCK
 62
     0
 10
22.095641
 20
16.344508
 30
0.0
 11
22.095641
 21
16.239508
 31
0.0
 12
21.780641
 22
16.292008
 32
0.0
 13
21.780641
 23
16.292008
 33
0.0
  0
SOLID
  8
0
  6
BYBLOCK
 62
     0
 10
21.313641
 20
16.344508
 30
0.0
 11
21.313641
 21
16.239508
 31
0.0
 12
21.628641
 22
16.292008
 32
0.0
 13
21.628641
 23
16.292008
 33
0.0
  0
TEXT
  8
0
  6
BYBLOCK
 62
     0
 10
20.239579
 20
16.182633
 30
0.0
 40
0.21875
  1
0.038
 41
0.75
  7
TXT
 72
     1
 11
20.54036
 21
16.292008
 31
0.0
 73
     2
  0
POINT
  8
DEFPOINTS
  6
BYBLOCK
 62
     0
 10
21.780641
 20
14.975398
 30
0.0
  0
POINT
  8
DEFPOINTS
  6
BYBLOCK
 62
     0
 10
21.628641
 20
14.795398
 30
0.0
  0
POINT
  8
DEFPOINTS
  6
BYBLOCK
 62
     0
 10
21.628641
 20
16.292008
 30
0.0
  0
ENDBLK
  8
0
  0
BLOCK
  8
0
  2
*D21
 70
    65
 10
0.0
 20
0.0
 30
0.0
  3
*D
  0
LINE
  8
0
  6
BYBLOCK
 62
     0
 10
22.808641
 20
10.687309
 30
0.0
 11
22.808641
 21
9.686237
 31
0.0
  0
LINE
  8
0
  6
BYBLOCK
 62
     0
 10
23.200641
 20
10.573588
 30
0.0
 11
23.200641
 21
9.686237
 31
0.0
  0
LINE
  8
0
  6
BYBLOCK
 62
     0
 10
22.493641
 20
9.848987
 30
0.0
 11
22.178641
 21
9.848987
 31
0.0
  0
LINE
  8
0
  6
BYBLOCK
 62
     0
 10
23.515641
 20
9.848987
 30
0.0
 11
23.830641
 21
9.848987
 31
0.0
  0
SOLID
  8
0
  6
BYBLOCK
 62
     0
 10
22.493641
 20
9.901487
 30
0.0
 11
22.493641
 21
9.796487
 31
0.0
 12
22.808641
 22
9.848987
 32
0.0
 13
22.808641
 23
9.848987
 33
0.0
  0
SOLID
  8
0
  6
BYBLOCK
 62
     0
 10
23.515641
 20
9.901487
 30
0.0
 11
23.515641
 21
9.796487
 31
0.0
 12
23.200641
 22
9.848987
 32
0.0
 13
23.200641
 23
9.848987
 33
0.0
  0
TEXT
  8
0
  6
BYBLOCK
 62
     0
 10
23.988141
 20
9.739612
 30
0.0
 40
0.21875
  1
0.098
 41
0.75
  7
TXT
 72
     1
 11
24.288923
 21
9.848987
 31
0.0
 73
     2
  0
POINT
  8
DEFPOINTS
  6
BYBLOCK
 62
     0
 10
22.808641
 20
10.797559
 30
0.0
  0
POINT
  8
DEFPOINTS
  6
BYBLOCK
 62
     0
 10
23.200641
 20
10.683838
 30
0.0
  0
POINT
  8
DEFPOINTS
  6
BYBLOCK
 62
     0
 10
23.200641
 20
9.848987
 30
0.0
  0
ENDBLK
  8
0
  0
BLOCK
  8
0
  2
*D22
 70
    65
 10
0.0
 20
0.0
 30
0.0
  3
*D
  0
LINE
  8
0
  6
BYBLOCK
 62
     0
 10
21.480641
 20
13.291148
 30
0.0
 11
21.480641
 21
9.194487
 31
0.0
  0
LINE
  8
0
  6
BYBLOCK
 62
     0
 10
22.808641
 20
10.687309
 30
0.0
 11
22.808641
 21
9.194487
 31
0.0
  0
LINE
  8
0
  6
BYBLOCK
 62
     0
 10
21.165641
 20
9.357237
 30
0.0
 11
20.850641
 21
9.357237
 31
0.0
  0
LINE
  8
0
  6
BYBLOCK
 62
     0
 10
23.123641
 20
9.357237
 30
0.0
 11
23.438641
 21
9.357237
 31
0.0
  0
SOLID
  8
0
  6
BYBLOCK
 62
     0
 10
21.165641
 20
9.409737
 30
0.0
 11
21.165641
 21
9.304737
 31
0.0
 12
21.480641
 22
9.357237
 32
0.0
 13
21.480641
 23
9.357237
 33
0.0
  0
SOLID
  8
0
  6
BYBLOCK
 62
     0
 10
23.123641
 20
9.409737
 30
0.0
 11
23.123641
 21
9.304737
 31
0.0
 12
22.808641
 22
9.357237
 32
0.0
 13
22.808641
 23
9.357237
 33
0.0
  0
TEXT
  8
0
  6
BYBLOCK
 62
     0
 10
21.830188
 20
9.247862
 30
0.0
 40
0.21875
  1
0.332
 41
0.75
  7
TXT
 72
     1
 11
22.144641
 21
9.357237
 31
0.0
 73
     2
  0
POINT
  8
DEFPOINTS
  6
BYBLOCK
 62
     0
 10
21.480641
 20
13.401398
 30
0.0
  0
POINT
  8
DEFPOINTS
  6
BYBLOCK
 62
     0
 10
22.808641
 20
10.797559
 30
0.0
  0
POINT
  8
DEFPOINTS
  6
BYBLOCK
 62
     0
 10
22.808641
 20
9.357237
 30
0.0
  0
ENDBLK
  8
0
  0
BLOCK
  8
0
  2
*D23
 70
    65
 10
0.0
 20
0.0
 30
0.0
  3
*D
  0
LINE
  8
0
  6
BYBLOCK
 62
     0
 10
22.024641
 20
12.487148
 30
0.0
 11
22.024641
 21
10.177987
 31
0.0
  0
LINE
  8
0
  6
BYBLOCK
 62
     0
 10
22.808641
 20
10.687309
 30
0.0
 11
22.808641
 21
10.177987
 31
0.0
  0
LINE
  8
0
  6
BYBLOCK
 62
     0
 10
21.709641
 20
10.340737
 30
0.0
 11
21.394641
 21
10.340737
 31
0.0
  0
LINE
  8
0
  6
BYBLOCK
 62
     0
 10
23.123641
 20
10.340737
 30
0.0
 11
23.438641
 21
10.340737
 31
0.0
  0
SOLID
  8
0
  6
BYBLOCK
 62
     0
 10
21.709641
 20
10.393237
 30
0.0
 11
21.709641
 21
10.288237
 31
0.0
 12
22.024641
 22
10.340737
 32
0.0
 13
22.024641
 23
10.340737
 33
0.0
  0
SOLID
  8
0
  6
BYBLOCK
 62
     0
 10
23.123641
 20
10.393237
 30
0.0
 11
23.123641
 21
10.288237
 31
0.0
 12
22.808641
 22
10.340737
 32
0.0
 13
22.808641
 23
10.340737
 33
0.0
  0
TEXT
  8
0
  6
BYBLOCK
 62
     0
 10
22.129532
 20
10.231362
 30
0.0
 40
0.21875
  1
0.196
 41
0.75
  7
TXT
 72
     1
 11
22.416641
 21
10.340737
 31
0.0
 73
     2
  0
POINT
  8
DEFPOINTS
  6
BYBLOCK
 62
     0
 10
22.024641
 20
12.597398
 30
0.0
  0
POINT
  8
DEFPOINTS
  6
BYBLOCK
 62
     0
 10
22.808641
 20
10.797559
 30
0.0
  0
POINT
  8
DEFPOINTS
  6
BYBLOCK
 62
     0
 10
22.808641
 20
10.340737
 30
0.0
  0
ENDBLK
  8
0
  0
BLOCK
  8
0
  2
*D24
 70
    65
 10
0.0
 20
0.0
 30
0.0
  3
*D
  0
LINE
  8
0
  6
BYBLOCK
 62
     0
 10
23.228219
 20
13.296426
 30
0.0
 11
24.959733
 21
11.972328
 31
0.0
  0
LINE
  8
0
  6
BYBLOCK
 62
     0
 10
23.228714
 20
14.365717
 30
0.0
 11
24.973488
 21
15.679553
 31
0.0
  0
ARC
  8
0
  6
BYBLOCK
 62
     0
 10
22.523926
 20
13.835004
 30
0.0
 40
2.903635
 50
328.813412
 51
354.512939
  0
ARC
  8
0
  6
BYBLOCK
 62
     0
 10
22.523926
 20
13.835004
 30
0.0
 40
2.903635
 50
5.060084
 51
30.761419
  0
SOLID
  8
0
  6
BYBLOCK
 62
     0
 10
25.051316
 20
12.301842
 30
0.0
 11
24.964571
 21
12.361006
 31
0.0
 12
24.830451
 22
12.07119
 32
0.0
 13
24.830451
 23
12.07119
 33
0.0
  0
SOLID
  8
0
  6
BYBLOCK
 62
     0
 10
24.975442
 20
15.29085
 30
0.0
 11
25.062623
 21
15.349369
 31
0.0
 12
24.843476
 22
15.581653
 32
0.0
 13
24.843476
 23
15.581653
 33
0.0
  0
TEXT
  8
0
  6
BYBLOCK
 62
     0
 10
25.236135
 20
13.714855
 30
0.0
 40
0.21875
  1
74%%d
 41
0.75
  7
TXT
 72
     1
 11
25.427541
 21
13.82423
 31
0.0
 73
     2
  0
POINT
  8
DEFPOINTS
  6
BYBLOCK
 62
     0
 10
25.22923
 20
12.780287
 30
0.0
  0
POINT
  8
DEFPOINTS
  6
BYBLOCK
 62
     0
 10
22.808641
 20
14.049398
 30
0.0
  0
POINT
  8
DEFPOINTS
  6
BYBLOCK
 62
     0
 10
22.800641
 20
13.623398
 30
0.0
  0
POINT
  8
DEFPOINTS
  6
BYBLOCK
 62
     0
 10
23.140641
 20
13.363398
 30
0.0
  0
POINT
  8
DEFPOINTS
  6
BYBLOCK
 62
     0
 10
23.140641
 20
14.299398
 30
0.0
  0
ENDBLK
  8
0
  0
BLOCK
  8
0
  2
*D25
 70
    65
 10
0.0
 20
0.0
 30
0.0
  3
*D
  0
LINE
  8
0
  6
BYBLOCK
 62
     0
 10
11.83518
 20
7.923145
 30
0.0
 11
12.82894
 21
7.90831
 31
0.0
  0
LINE
  8
0
  6
BYBLOCK
 62
     0
 10
11.236695
 20
7.946801
 30
0.0
 11
12.829227
 21
7.946801
 31
0.0
  0
ARC
  8
0
  6
BYBLOCK
 62
     0
 10
10.250554
 20
7.946801
 30
0.0
 40
2.415923
 50
344.193107
 51
351.668916
  0
ARC
  8
0
  6
BYBLOCK
 62
     0
 10
10.250554
 20
7.946801
 30
0.0
 40
2.415923
 50
7.475809
 51
14.951618
  0
SOLID
  8
0
  6
BYBLOCK
 62
     0
 10
12.588651
 20
7.600955
 30
0.0
 11
12.693314
 21
7.592547
 31
0.0
 12
12.666208
 22
7.910739
 32
0.0
 13
12.666208
 23
7.910739
 33
0.0
  0
SOLID
  8
0
  6
BYBLOCK
 62
     0
 10
12.69833
 20
8.264554
 30
0.0
 11
12.593553
 21
8.257709
 31
0.0
 12
12.666477
 22
7.946801
 32
0.0
 13
12.666477
 23
7.946801
 33
0.0
  0
TEXT
  8
0
  6
BYBLOCK
 62
     0
 10
11.765083
 20
8.723695
 30
0.0
 40
0.21875
  1
 DRAFT REF.
 41
0.75
  7
TXT
 72
     1
 11
12.585396
 21
8.83307
 31
0.0
 73
     2
  0
TEXT
  8
0
  6
BYBLOCK
 62
     0
 10
11.546333
 20
8.723695
 30
0.0
 40
0.21875
  1
1%%d
 41
0.75
  7
TXT
 72
     1
 11
11.628365
 21
8.83307
 31
0.0
 73
     2
  0
POINT
  8
DEFPOINTS
  6
BYBLOCK
 62
     0
 10
12.666274
 20
7.915519
 30
0.0
  0
POINT
  8
DEFPOINTS
  6
BYBLOCK
 62
     0
 10
10.250554
 20
7.946801
 30
0.0
  0
POINT
  8
DEFPOINTS
  6
BYBLOCK
 62
     0
 10
10.250554
 20
7.946801
 30
0.0
  0
POINT
  8
DEFPOINTS
  6
BYBLOCK
 62
     0
 10
11.126445
 20
7.946801
 30
0.0
  0
POINT
  8
DEFPOINTS
  6
BYBLOCK
 62
     0
 10
11.724942
 20
7.924791
 30
0.0
  0
ENDBLK
  8
0
  0
BLOCK
  8
0
  2
*D26
 70
    65
 10
0.0
 20
0.0
 30
0.0
  3
*D
  0
LINE
  8
0
  6
BYBLOCK
 62
     0
 10
11.240554
 20
2.626551
 30
0.0
 11
11.240554
 21
1.463241
 31
0.0
  0
LINE
  8
0
  6
BYBLOCK
 62
     0
 10
11.708554
 20
2.934551
 30
0.0
 11
11.708554
 21
1.463241
 31
0.0
  0
LINE
  8
0
  6
BYBLOCK
 62
     0
 10
10.925554
 20
1.625991
 30
0.0
 11
10.610554
 21
1.625991
 31
0.0
  0
LINE
  8
0
  6
BYBLOCK
 62
     0
 10
12.023554
 20
1.625991
 30
0.0
 11
12.338554
 21
1.625991
 31
0.0
  0
SOLID
  8
0
  6
BYBLOCK
 62
     0
 10
10.925554
 20
1.678491
 30
0.0
 11
10.925554
 21
1.573491
 31
0.0
 12
11.240554
 22
1.625991
 32
0.0
 13
11.240554
 23
1.625991
 33
0.0
  0
SOLID
  8
0
  6
BYBLOCK
 62
     0
 10
12.023554
 20
1.678491
 30
0.0
 11
12.023554
 21
1.573491
 31
0.0
 12
11.708554
 22
1.625991
 32
0.0
 13
11.708554
 23
1.625991
 33
0.0
  0
TEXT
  8
0
  6
BYBLOCK
 62
     0
 10
12.496054
 20
1.516616
 30
0.0
 40
0.21875
  1
0.468
 41
0.75
  7
TXT
 72
     1
 11
12.810507
 21
1.625991
 31
0.0
 73
     2
  0
POINT
  8
DEFPOINTS
  6
BYBLOCK
 62
     0
 10
11.240554
 20
2.736801
 30
0.0
  0
POINT
  8
DEFPOINTS
  6
BYBLOCK
 62
     0
 10
11.708554
 20
3.044801
 30
0.0
  0
POINT
  8
DEFPOINTS
  6
BYBLOCK
 62
     0
 10
11.708554
 20
1.625991
 30
0.0
  0
ENDBLK
  8
0
  0
BLOCK
  8
0
  2
*D27
 70
    65
 10
0.0
 20
0.0
 30
0.0
  3
*D
  0
LINE
  8
0
  6
BYBLOCK
 62
     0
 10
2.579004
 20
3.870051
 30
0.0
 11
2.579004
 21
3.985551
 31
0.0
  0
LINE
  8
0
  6
BYBLOCK
 62
     0
 10
5.229004
 20
3.870051
 30
0.0
 11
5.229004
 21
3.985551
 31
0.0
  0
LINE
  8
0
  6
BYBLOCK
 62
     0
 10
2.894004
 20
3.822801
 30
0.0
 11
3.432051
 21
3.822801
 31
0.0
  0
LINE
  8
0
  6
BYBLOCK
 62
     0
 10
4.914004
 20
3.822801
 30
0.0
 11
4.375957
 21
3.822801
 31
0.0
  0
SOLID
  8
0
  6
BYBLOCK
 62
     0
 10
2.894004
 20
3.875301
 30
0.0
 11
2.894004
 21
3.770301
 31
0.0
 12
2.579004
 22
3.822801
 32
0.0
 13
2.579004
 23
3.822801
 33
0.0
  0
SOLID
  8
0
  6
BYBLOCK
 62
     0
 10
4.914004
 20
3.875301
 30
0.0
 11
4.914004
 21
3.770301
 31
0.0
 12
5.229004
 22
3.822801
 32
0.0
 13
5.229004
 23
3.822801
 33
0.0
  0
TEXT
  8
0
  6
BYBLOCK
 62
     0
 10
3.589551
 20
3.713426
 30
0.0
 40
0.21875
  1
2.650
 41
0.75
  7
TXT
 72
     1
 11
3.904004
 21
3.822801
 31
0.0
 73
     2
  0
POINT
  8
DEFPOINTS
  6
BYBLOCK
 62
     0
 10
2.579004
 20
3.759801
 30
0.0
  0
POINT
  8
DEFPOINTS
  6
BYBLOCK
 62
     0
 10
5.229004
 20
3.759801
 30
0.0
  0
POINT
  8
DEFPOINTS
  6
BYBLOCK
 62
     0
 10
5.229004
 20
3.822801
 30
0.0
  0
ENDBLK
  8
0
  0
BLOCK
  8
0
  2
*D28
 70
    65
 10
0.0
 20
0.0
 30
0.0
  3
*D
  0
LINE
  8
0
  6
BYBLOCK
 62
     0
 10
3.266254
 20
2.787801
 30
0.0
 11
3.381754
 21
2.787801
 31
0.0
  0
LINE
  8
0
  6
BYBLOCK
 62
     0
 10
3.266254
 20
7.797801
 30
0.0
 11
3.381754
 21
7.797801
 31
0.0
  0
LINE
  8
0
  6
BYBLOCK
 62
     0
 10
3.219004
 20
3.102801
 30
0.0
 11
3.219004
 21
5.025926
 31
0.0
  0
LINE
  8
0
  6
BYBLOCK
 62
     0
 10
3.219004
 20
7.482801
 30
0.0
 11
3.219004
 21
5.559676
 31
0.0
  0
SOLID
  8
0
  6
BYBLOCK
 62
     0
 10
3.166504
 20
3.102801
 30
0.0
 11
3.271504
 21
3.102801
 31
0.0
 12
3.219004
 22
2.787801
 32
0.0
 13
3.219004
 23
2.787801
 33
0.0
  0
SOLID
  8
0
  6
BYBLOCK
 62
     0
 10
3.166504
 20
7.482801
 30
0.0
 11
3.271504
 21
7.482801
 31
0.0
 12
3.219004
 22
7.797801
 32
0.0
 13
3.219004
 23
7.797801
 33
0.0
  0
TEXT
  8
0
  6
BYBLOCK
 62
     0
 10
2.945566
 20
5.183426
 30
0.0
 40
0.21875
  1
5.010
 41
0.75
  7
TXT
 72
     1
 11
3.219004
 21
5.292801
 31
0.0
 73
     2
  0
POINT
  8
DEFPOINTS
  6
BYBLOCK
 62
     0
 10
3.156004
 20
2.787801
 30
0.0
  0
POINT
  8
DEFPOINTS
  6
BYBLOCK
 62
     0
 10
3.156004
 20
7.797801
 30
0.0
  0
POINT
  8
DEFPOINTS
  6
BYBLOCK
 62
     0
 10
3.219004
 20
7.797801
 30
0.0
  0
ENDBLK
  8
0
  0
BLOCK
  8
0
  2
*D29
 70
    65
 10
0.0
 20
0.0
 30
0.0
  3
*D
  0
LINE
  8
0
  6
BYBLOCK
 62
     0
 10
14.297899
 20
13.993641
 30
0.0
 11
14.716624
 21
13.993641
 31
0.0
  0
LINE
  8
0
  6
BYBLOCK
 62
     0
 10
14.299477
 20
14.097641
 30
0.0
 11
14.716624
 21
14.097641
 31
0.0
  0
LINE
  8
0
  6
BYBLOCK
 62
     0
 10
14.553874
 20
13.678641
 30
0.0
 11
14.553874
 21
13.363641
 31
0.0
  0
LINE
  8
0
  6
BYBLOCK
 62
     0
 10
14.553874
 20
14.412641
 30
0.0
 11
14.553874
 21
14.727641
 31
0.0
  0
LINE
  8
0
  6
BYBLOCK
 62
     0
 10
14.553874
 20
14.727641
 30
0.0
 11
14.868874
 21
14.727641
 31
0.0
  0
SOLID
  8
0
  6
BYBLOCK
 62
     0
 10
14.501374
 20
13.678641
 30
0.0
 11
14.606374
 21
13.678641
 31
0.0
 12
14.553874
 22
13.993641
 32
0.0
 13
14.553874
 23
13.993641
 33
0.0
  0
SOLID
  8
0
  6
BYBLOCK
 62
     0
 10
14.501374
 20
14.412641
 30
0.0
 11
14.606374
 21
14.412641
 31
0.0
 12
14.553874
 22
14.097641
 32
0.0
 13
14.553874
 23
14.097641
 33
0.0
  0
TEXT
  8
0
  6
BYBLOCK
 62
     0
 10
15.026374
 20
14.618266
 30
0.0
 40
0.21875
  1
0.026
 41
0.75
  7
TXT
 72
     1
 11
15.327155
 21
14.727641
 31
0.0
 73
     2
  0
POINT
  8
DEFPOINTS
  6
BYBLOCK
 62
     0
 10
14.187649
 20
13.993641
 30
0.0
  0
POINT
  8
DEFPOINTS
  6
BYBLOCK
 62
     0
 10
14.189227
 20
14.097641
 30
0.0
  0
POINT
  8
DEFPOINTS
  6
BYBLOCK
 62
     0
 10
14.553874
 20
14.097641
 30
0.0
  0
ENDBLK
  8
0
  0
BLOCK
  8
0
  2
*D30
 70
    65
 10
0.0
 20
0.0
 30
0.0
  3
*D
  0
LINE
  8
0
  6
BYBLOCK
 62
     0
 10
14.249132
 20
14.385641
 30
0.0
 11
16.191874
 21
14.385641
 31
0.0
  0
LINE
  8
0
  6
BYBLOCK
 62
     0
 10
14.299477
 20
14.097641
 30
0.0
 11
16.191874
 21
14.097641
 31
0.0
  0
LINE
  8
0
  6
BYBLOCK
 62
     0
 10
16.029124
 20
14.700641
 30
0.0
 11
16.029124
 21
15.015641
 31
0.0
  0
LINE
  8
0
  6
BYBLOCK
 62
     0
 10
16.029124
 20
13.782641
 30
0.0
 11
16.029124
 21
13.467641
 31
0.0
  0
LINE
  8
0
  6
BYBLOCK
 62
     0
 10
16.029124
 20
13.467641
 30
0.0
 11
15.714124
 21
13.467641
 31
0.0
  0
SOLID
  8
0
  6
BYBLOCK
 62
     0
 10
15.976624
 20
14.700641
 30
0.0
 11
16.081624
 21
14.700641
 31
0.0
 12
16.029124
 22
14.385641
 32
0.0
 13
16.029124
 23
14.385641
 33
0.0
  0
SOLID
  8
0
  6
BYBLOCK
 62
     0
 10
15.976624
 20
13.782641
 30
0.0
 11
16.081624
 21
13.782641
 31
0.0
 12
16.029124
 22
14.097641
 32
0.0
 13
16.029124
 23
14.097641
 33
0.0
  0
TEXT
  8
0
  6
BYBLOCK
 62
     0
 10
14.955061
 20
13.358266
 30
0.0
 40
0.21875
  1
0.072
 41
0.75
  7
TXT
 72
     1
 11
15.255843
 21
13.467641
 31
0.0
 73
     2
  0
POINT
  8
DEFPOINTS
  6
BYBLOCK
 62
     0
 10
14.138882
 20
14.385641
 30
0.0
  0
POINT
  8
DEFPOINTS
  6
BYBLOCK
 62
     0
 10
14.189227
 20
14.097641
 30
0.0
  0
POINT
  8
DEFPOINTS
  6
BYBLOCK
 62
     0
 10
16.029124
 20
14.097641
 30
0.0
  0
ENDBLK
  8
0
  0
BLOCK
  8
0
  2
*D31
 70
    65
 10
0.0
 20
0.0
 30
0.0
  3
*D
  0
LINE
  8
0
  6
BYBLOCK
 62
     0
 10
12.628124
 20
13.789641
 30
0.0
 11
10.841419
 21
13.789641
 31
0.0
  0
LINE
  8
0
  6
BYBLOCK
 62
     0
 10
11.97085
 20
13.993641
 30
0.0
 11
10.841419
 21
13.993641
 31
0.0
  0
LINE
  8
0
  6
BYBLOCK
 62
     0
 10
11.004169
 20
13.474641
 30
0.0
 11
11.004169
 21
13.159641
 31
0.0
  0
LINE
  8
0
  6
BYBLOCK
 62
     0
 10
11.004169
 20
14.308641
 30
0.0
 11
11.004169
 21
14.623641
 31
0.0
  0
LINE
  8
0
  6
BYBLOCK
 62
     0
 10
11.004169
 20
14.623641
 30
0.0
 11
11.319169
 21
14.623641
 31
0.0
  0
SOLID
  8
0
  6
BYBLOCK
 62
     0
 10
10.951669
 20
13.474641
 30
0.0
 11
11.056669
 21
13.474641
 31
0.0
 12
11.004169
 22
13.789641
 32
0.0
 13
11.004169
 23
13.789641
 33
0.0
  0
SOLID
  8
0
  6
BYBLOCK
 62
     0
 10
10.951669
 20
14.308641
 30
0.0
 11
11.056669
 21
14.308641
 31
0.0
 12
11.004169
 22
13.993641
 32
0.0
 13
11.004169
 23
13.993641
 33
0.0
  0
TEXT
  8
0
  6
BYBLOCK
 62
     0
 10
11.476669
 20
14.514266
 30
0.0
 40
0.21875
  1
0.051
 41
0.75
  7
TXT
 72
     1
 11
11.750106
 21
14.623641
 31
0.0
 73
     2
  0
POINT
  8
DEFPOINTS
  6
BYBLOCK
 62
     0
 10
12.738374
 20
13.789641
 30
0.0
  0
POINT
  8
DEFPOINTS
  6
BYBLOCK
 62
     0
 10
12.0811
 20
13.993641
 30
0.0
  0
POINT
  8
DEFPOINTS
  6
BYBLOCK
 62
     0
 10
11.004169
 20
13.993641
 30
0.0
  0
ENDBLK
  8
0
  0
BLOCK
  8
0
  2
*D32
 70
    65
 10
0.0
 20
0.0
 30
0.0
  3
*D
  0
LINE
  8
0
  6
BYBLOCK
 62
     0
 10
12.990374
 20
13.679391
 30
0.0
 11
12.990374
 21
11.518276
 31
0.0
  0
LINE
  8
0
  6
BYBLOCK
 62
     0
 10
13.138374
 20
13.125391
 30
0.0
 11
13.138374
 21
11.518276
 31
0.0
  0
LINE
  8
0
  6
BYBLOCK
 62
     0
 10
12.675374
 20
11.681026
 30
0.0
 11
12.360374
 21
11.681026
 31
0.0
  0
LINE
  8
0
  6
BYBLOCK
 62
     0
 10
13.453374
 20
11.681026
 30
0.0
 11
13.768374
 21
11.681026
 31
0.0
  0
SOLID
  8
0
  6
BYBLOCK
 62
     0
 10
12.675374
 20
11.733526
 30
0.0
 11
12.675374
 21
11.628526
 31
0.0
 12
12.990374
 22
11.681026
 32
0.0
 13
12.990374
 23
11.681026
 33
0.0
  0
SOLID
  8
0
  6
BYBLOCK
 62
     0
 10
13.453374
 20
11.733526
 30
0.0
 11
13.453374
 21
11.628526
 31
0.0
 12
13.138374
 22
11.681026
 32
0.0
 13
13.138374
 23
11.681026
 33
0.0
  0
TEXT
  8
0
  6
BYBLOCK
 62
     0
 10
13.925874
 20
11.571651
 30
0.0
 40
0.21875
  1
0.037
 41
0.75
  7
TXT
 72
     1
 11
14.226656
 21
11.681026
 31
0.0
 73
     2
  0
POINT
  8
DEFPOINTS
  6
BYBLOCK
 62
     0
 10
12.990374
 20
13.789641
 30
0.0
  0
POINT
  8
DEFPOINTS
  6
BYBLOCK
 62
     0
 10
13.138374
 20
13.235641
 30
0.0
  0
POINT
  8
DEFPOINTS
  6
BYBLOCK
 62
     0
 10
13.138374
 20
11.681026
 30
0.0
  0
ENDBLK
  8
0
  0
BLOCK
  8
0
  2
*D33
 70
    65
 10
0.0
 20
0.0
 30
0.0
  3
*D
  0
LINE
  8
0
  6
BYBLOCK
 62
     0
 10
12.738374
 20
13.679391
 30
0.0
 11
12.738374
 21
12.501776
 31
0.0
  0
LINE
  8
0
  6
BYBLOCK
 62
     0
 10
13.138374
 20
13.125391
 30
0.0
 11
13.138374
 21
12.501776
 31
0.0
  0
LINE
  8
0
  6
BYBLOCK
 62
     0
 10
12.423374
 20
12.664526
 30
0.0
 11
12.108374
 21
12.664526
 31
0.0
  0
LINE
  8
0
  6
BYBLOCK
 62
     0
 10
13.453374
 20
12.664526
 30
0.0
 11
13.768374
 21
12.664526
 31
0.0
  0
SOLID
  8
0
  6
BYBLOCK
 62
     0
 10
12.423374
 20
12.717026
 30
0.0
 11
12.423374
 21
12.612026
 31
0.0
 12
12.738374
 22
12.664526
 32
0.0
 13
12.738374
 23
12.664526
 33
0.0
  0
SOLID
  8
0
  6
BYBLOCK
 62
     0
 10
13.453374
 20
12.717026
 30
0.0
 11
13.453374
 21
12.612026
 31
0.0
 12
13.138374
 22
12.664526
 32
0.0
 13
13.138374
 23
12.664526
 33
0.0
  0
TEXT
  8
0
  6
BYBLOCK
 62
     0
 10
13.925874
 20
12.555151
 30
0.0
 40
0.21875
  1
0.100
 41
0.75
  7
TXT
 72
     1
 11
14.18564
 21
12.664526
 31
0.0
 73
     2
  0
POINT
  8
DEFPOINTS
  6
BYBLOCK
 62
     0
 10
12.738374
 20
13.789641
 30
0.0
  0
POINT
  8
DEFPOINTS
  6
BYBLOCK
 62
     0
 10
13.138374
 20
13.235641
 30
0.0
  0
POINT
  8
DEFPOINTS
  6
BYBLOCK
 62
     0
 10
13.138374
 20
12.664526
 30
0.0
  0
ENDBLK
  8
0
  0
BLOCK
  8
0
  2
*D34
 70
    65
 10
0.0
 20
0.0
 30
0.0
  3
*D
  0
LINE
  8
0
  6
BYBLOCK
 62
     0
 10
12.990374
 20
13.679391
 30
0.0
 11
12.990374
 21
12.010026
 31
0.0
  0
LINE
  8
0
  6
BYBLOCK
 62
     0
 10
13.286374
 20
13.679391
 30
0.0
 11
13.286374
 21
12.010026
 31
0.0
  0
LINE
  8
0
  6
BYBLOCK
 62
     0
 10
12.675374
 20
12.172776
 30
0.0
 11
12.360374
 21
12.172776
 31
0.0
  0
LINE
  8
0
  6
BYBLOCK
 62
     0
 10
13.601374
 20
12.172776
 30
0.0
 11
13.916374
 21
12.172776
 31
0.0
  0
SOLID
  8
0
  6
BYBLOCK
 62
     0
 10
12.675374
 20
12.225276
 30
0.0
 11
12.675374
 21
12.120276
 31
0.0
 12
12.990374
 22
12.172776
 32
0.0
 13
12.990374
 23
12.172776
 33
0.0
  0
SOLID
  8
0
  6
BYBLOCK
 62
     0
 10
13.601374
 20
12.225276
 30
0.0
 11
13.601374
 21
12.120276
 31
0.0
 12
13.286374
 22
12.172776
 32
0.0
 13
13.286374
 23
12.172776
 33
0.0
  0
TEXT
  8
0
  6
BYBLOCK
 62
     0
 10
14.073874
 20
12.063401
 30
0.0
 40
0.21875
  1
0.074
 41
0.75
  7
TXT
 72
     1
 11
14.374656
 21
12.172776
 31
0.0
 73
     2
  0
POINT
  8
DEFPOINTS
  6
BYBLOCK
 62
     0
 10
12.990374
 20
13.789641
 30
0.0
  0
POINT
  8
DEFPOINTS
  6
BYBLOCK
 62
     0
 10
13.286374
 20
13.789641
 30
0.0
  0
POINT
  8
DEFPOINTS
  6
BYBLOCK
 62
     0
 10
13.286374
 20
12.172776
 30
0.0
  0
ENDBLK
  8
0
  0
BLOCK
  8
0
  2
*D35
 70
    65
 10
0.0
 20
0.0
 30
0.0
  3
*D
  0
LINE
  8
0
  6
BYBLOCK
 62
     0
 10
11.708554
 20
2.934551
 30
0.0
 11
11.708554
 21
1.954991
 31
0.0
  0
LINE
  8
0
  6
BYBLOCK
 62
     0
 10
11.816554
 20
2.643551
 30
0.0
 11
11.816554
 21
1.954991
 31
0.0
  0
LINE
  8
0
  6
BYBLOCK
 62
     0
 10
11.393554
 20
2.117741
 30
0.0
 11
11.078554
 21
2.117741
 31
0.0
  0
LINE
  8
0
  6
BYBLOCK
 62
     0
 10
12.131554
 20
2.117741
 30
0.0
 11
12.446554
 21
2.117741
 31
0.0
  0
SOLID
  8
0
  6
BYBLOCK
 62
     0
 10
11.393554
 20
2.170241
 30
0.0
 11
11.393554
 21
2.065241
 31
0.0
 12
11.708554
 22
2.117741
 32
0.0
 13
11.708554
 23
2.117741
 33
0.0
  0
SOLID
  8
0
  6
BYBLOCK
 62
     0
 10
12.131554
 20
2.170241
 30
0.0
 11
12.131554
 21
2.065241
 31
0.0
 12
11.816554
 22
2.117741
 32
0.0
 13
11.816554
 23
2.117741
 33
0.0
  0
TEXT
  8
0
  6
BYBLOCK
 62
     0
 10
12.604054
 20
2.008366
 30
0.0
 40
0.21875
  1
0.108
 41
0.75
  7
TXT
 72
     1
 11
12.877492
 21
2.117741
 31
0.0
 73
     2
  0
POINT
  8
DEFPOINTS
  6
BYBLOCK
 62
     0
 10
11.708554
 20
3.044801
 30
0.0
  0
POINT
  8
DEFPOINTS
  6
BYBLOCK
 62
     0
 10
11.816554
 20
2.753801
 30
0.0
  0
POINT
  8
DEFPOINTS
  6
BYBLOCK
 62
     0
 10
11.816554
 20
2.117741
 30
0.0
  0
ENDBLK
  8
0
  0
BLOCK
  8
0
  2
*D36
 70
    65
 10
0.0
 20
0.0
 30
0.0
  3
*D
  0
LINE
  8
0
  6
BYBLOCK
 62
     0
 10
10.250554
 20
2.528551
 30
0.0
 11
10.250554
 21
0.971491
 31
0.0
  0
LINE
  8
0
  6
BYBLOCK
 62
     0
 10
10.324554
 20
2.600551
 30
0.0
 11
10.324554
 21
0.971491
 31
0.0
  0
LINE
  8
0
  6
BYBLOCK
 62
     0
 10
9.935554
 20
1.134241
 30
0.0
 11
9.620554
 21
1.134241
 31
0.0
  0
LINE
  8
0
  6
BYBLOCK
 62
     0
 10
10.639554
 20
1.134241
 30
0.0
 11
10.954554
 21
1.134241
 31
0.0
  0
SOLID
  8
0
  6
BYBLOCK
 62
     0
 10
9.935554
 20
1.186741
 30
0.0
 11
9.935554
 21
1.081741
 31
0.0
 12
10.250554
 22
1.134241
 32
0.0
 13
10.250554
 23
1.134241
 33
0.0
  0
SOLID
  8
0
  6
BYBLOCK
 62
     0
 10
10.639554
 20
1.186741
 30
0.0
 11
10.639554
 21
1.081741
 31
0.0
 12
10.324554
 22
1.134241
 32
0.0
 13
10.324554
 23
1.134241
 33
0.0
  0
TEXT
  8
0
  6
BYBLOCK
 62
     0
 10
11.112054
 20
1.024866
 30
0.0
 40
0.21875
  1
0.074
 41
0.75
  7
TXT
 72
     1
 11
11.412835
 21
1.134241
 31
0.0
 73
     2
  0
POINT
  8
DEFPOINTS
  6
BYBLOCK
 62
     0
 10
10.250554
 20
2.638801
 30
0.0
  0
POINT
  8
DEFPOINTS
  6
BYBLOCK
 62
     0
 10
10.324554
 20
2.710801
 30
0.0
  0
POINT
  8
DEFPOINTS
  6
BYBLOCK
 62
     0
 10
10.324554
 20
1.134241
 30
0.0
  0
ENDBLK
  8
0
  0
BLOCK
  8
0
  2
*D37
 70
    65
 10
0.0
 20
0.0
 30
0.0
  3
*D
  0
LINE
  8
0
  6
BYBLOCK
 62
     0
 10
11.835192
 20
7.924791
 30
0.0
 11
12.469176
 21
7.924791
 31
0.0
  0
LINE
  8
0
  6
BYBLOCK
 62
     0
 10
11.835192
 20
2.660812
 30
0.0
 11
12.469176
 21
2.660812
 31
0.0
  0
LINE
  8
0
  6
BYBLOCK
 62
     0
 10
12.306426
 20
7.609791
 30
0.0
 11
12.306426
 21
5.559676
 31
0.0
  0
LINE
  8
0
  6
BYBLOCK
 62
     0
 10
12.306426
 20
2.975812
 30
0.0
 11
12.306426
 21
5.025926
 31
0.0
  0
SOLID
  8
0
  6
BYBLOCK
 62
     0
 10
12.253926
 20
7.609791
 30
0.0
 11
12.358926
 21
7.609791
 31
0.0
 12
12.306426
 22
7.924791
 32
0.0
 13
12.306426
 23
7.924791
 33
0.0
  0
SOLID
  8
0
  6
BYBLOCK
 62
     0
 10
12.253926
 20
2.975812
 30
0.0
 11
12.358926
 21
2.975812
 31
0.0
 12
12.306426
 22
2.660812
 32
0.0
 13
12.306426
 23
2.660812
 33
0.0
  0
TEXT
  8
0
  6
BYBLOCK
 62
     0
 10
11.978301
 20
5.183426
 30
0.0
 40
0.21875
  1
5.264
 41
0.75
  7
TXT
 72
     1
 11
12.306426
 21
5.292801
 31
0.0
 73
     2
  0
POINT
  8
DEFPOINTS
  6
BYBLOCK
 62
     0
 10
11.724942
 20
7.924791
 30
0.0
  0
POINT
  8
DEFPOINTS
  6
BYBLOCK
 62
     0
 10
11.724942
 20
2.660812
 30
0.0
  0
POINT
  8
DEFPOINTS
  6
BYBLOCK
 62
     0
 10
12.306426
 20
2.660812
 30
0.0
  0
ENDBLK
  8
0
  0
BLOCK
  8
0
  2
*D38
 70
    65
 10
0.0
 20
0.0
 30
0.0
  3
*D
  0
LINE
  8
0
  6
BYBLOCK
 62
     0
 10
10.140304
 20
7.946801
 30
0.0
 11
8.514579
 21
7.946801
 31
0.0
  0
LINE
  8
0
  6
BYBLOCK
 62
     0
 10
10.140304
 20
2.638801
 30
0.0
 11
8.514579
 21
2.638801
 31
0.0
  0
LINE
  8
0
  6
BYBLOCK
 62
     0
 10
8.677329
 20
7.631801
 30
0.0
 11
8.677329
 21
5.559676
 31
0.0
  0
LINE
  8
0
  6
BYBLOCK
 62
     0
 10
8.677329
 20
2.953801
 30
0.0
 11
8.677329
 21
5.025926
 31
0.0
  0
SOLID
  8
0
  6
BYBLOCK
 62
     0
 10
8.624829
 20
7.631801
 30
0.0
 11
8.729829
 21
7.631801
 31
0.0
 12
8.677329
 22
7.946801
 32
0.0
 13
8.677329
 23
7.946801
 33
0.0
  0
SOLID
  8
0
  6
BYBLOCK
 62
     0
 10
8.624829
 20
2.953801
 30
0.0
 11
8.729829
 21
2.953801
 31
0.0
 12
8.677329
 22
2.638801
 32
0.0
 13
8.677329
 23
2.638801
 33
0.0
  0
TEXT
  8
0
  6
BYBLOCK
 62
     0
 10
8.362876
 20
5.183426
 30
0.0
 40
0.21875
  1
5.308
 41
0.75
  7
TXT
 72
     1
 11
8.677329
 21
5.292801
 31
0.0
 73
     2
  0
POINT
  8
DEFPOINTS
  6
BYBLOCK
 62
     0
 10
10.250554
 20
7.946801
 30
0.0
  0
POINT
  8
DEFPOINTS
  6
BYBLOCK
 62
     0
 10
10.250554
 20
2.638801
 30
0.0
  0
POINT
  8
DEFPOINTS
  6
BYBLOCK
 62
     0
 10
8.677329
 20
2.638801
 30
0.0
  0
ENDBLK
  8
0
  0
BLOCK
  8
0
  2
*D39
 70
    65
 10
0.0
 20
0.0
 30
0.0
  3
*D
  0
LINE
  8
0
  6
BYBLOCK
 62
     0
 10
5.579754
 20
3.722801
 30
0.0
 11
6.796698
 21
3.722801
 31
0.0
  0
LINE
  8
0
  6
BYBLOCK
 62
     0
 10
5.395254
 20
2.638801
 30
0.0
 11
6.796698
 21
2.638801
 31
0.0
  0
LINE
  8
0
  6
BYBLOCK
 62
     0
 10
6.633948
 20
4.037801
 30
0.0
 11
6.633948
 21
4.352801
 31
0.0
  0
LINE
  8
0
  6
BYBLOCK
 62
     0
 10
6.633948
 20
2.323801
 30
0.0
 11
6.633948
 21
2.008801
 31
0.0
  0
SOLID
  8
0
  6
BYBLOCK
 62
     0
 10
6.581448
 20
4.037801
 30
0.0
 11
6.686448
 21
4.037801
 31
0.0
 12
6.633948
 22
3.722801
 32
0.0
 13
6.633948
 23
3.722801
 33
0.0
  0
SOLID
  8
0
  6
BYBLOCK
 62
     0
 10
6.581448
 20
2.323801
 30
0.0
 11
6.686448
 21
2.323801
 31
0.0
 12
6.633948
 22
2.638801
 32
0.0
 13
6.633948
 23
2.638801
 33
0.0
  0
TEXT
  8
0
  6
BYBLOCK
 62
     0
 10
6.346838
 20
3.071426
 30
0.0
 40
0.21875
  1
1.084
 41
0.75
  7
TXT
 72
     1
 11
6.633948
 21
3.180801
 31
0.0
 73
     2
  0
POINT
  8
DEFPOINTS
  6
BYBLOCK
 62
     0
 10
5.469504
 20
3.722801
 30
0.0
  0
POINT
  8
DEFPOINTS
  6
BYBLOCK
 62
     0
 10
5.285004
 20
2.638801
 30
0.0
  0
POINT
  8
DEFPOINTS
  6
BYBLOCK
 62
     0
 10
6.633948
 20
2.638801
 30
0.0
  0
ENDBLK
  8
0
  0
BLOCK
  8
0
  2
*D40
 70
    65
 10
0.0
 20
0.0
 30
0.0
  3
*D
  0
LINE
  8
0
  6
BYBLOCK
 62
     0
 10
2.709004
 20
2.817551
 30
0.0
 11
2.709004
 21
0.983281
 31
0.0
  0
LINE
  8
0
  6
BYBLOCK
 62
     0
 10
2.430004
 20
2.621551
 30
0.0
 11
2.430004
 21
0.983281
 31
0.0
  0
LINE
  8
0
  6
BYBLOCK
 62
     0
 10
3.024004
 20
1.146031
 30
0.0
 11
3.339004
 21
1.146031
 31
0.0
  0
LINE
  8
0
  6
BYBLOCK
 62
     0
 10
2.115004
 20
1.146031
 30
0.0
 11
1.800004
 21
1.146031
 31
0.0
  0
SOLID
  8
0
  6
BYBLOCK
 62
     0
 10
3.024004
 20
1.198531
 30
0.0
 11
3.024004
 21
1.093531
 31
0.0
 12
2.709004
 22
1.146031
 32
0.0
 13
2.709004
 23
1.146031
 33
0.0
  0
SOLID
  8
0
  6
BYBLOCK
 62
     0
 10
2.115004
 20
1.198531
 30
0.0
 11
2.115004
 21
1.093531
 31
0.0
 12
2.430004
 22
1.146031
 32
0.0
 13
2.430004
 23
1.146031
 33
0.0
  0
TEXT
  8
0
  6
BYBLOCK
 62
     0
 10
1.013598
 20
1.036656
 30
0.0
 40
0.21875
  1
0.279
 41
0.75
  7
TXT
 72
     1
 11
1.328051
 21
1.146031
 31
0.0
 73
     2
  0
POINT
  8
DEFPOINTS
  6
BYBLOCK
 62
     0
 10
2.709004
 20
2.927801
 30
0.0
  0
POINT
  8
DEFPOINTS
  6
BYBLOCK
 62
     0
 10
2.430004
 20
2.731801
 30
0.0
  0
POINT
  8
DEFPOINTS
  6
BYBLOCK
 62
     0
 10
2.430004
 20
1.146031
 30
0.0
  0
ENDBLK
  8
0
  0
BLOCK
  8
0
  2
*D41
 70
    65
 10
0.0
 20
0.0
 30
0.0
  3
*D
  0
LINE
  8
0
  6
BYBLOCK
 62
     0
 10
2.709004
 20
2.817551
 30
0.0
 11
2.709004
 21
0.983281
 31
0.0
  0
LINE
  8
0
  6
BYBLOCK
 62
     0
 10
5.099004
 20
2.817551
 30
0.0
 11
5.099004
 21
0.983281
 31
0.0
  0
LINE
  8
0
  6
BYBLOCK
 62
     0
 10
3.024004
 20
1.146031
 30
0.0
 11
3.432051
 21
1.146031
 31
0.0
  0
LINE
  8
0
  6
BYBLOCK
 62
     0
 10
4.784004
 20
1.146031
 30
0.0
 11
4.375957
 21
1.146031
 31
0.0
  0
SOLID
  8
0
  6
BYBLOCK
 62
     0
 10
3.024004
 20
1.198531
 30
0.0
 11
3.024004
 21
1.093531
 31
0.0
 12
2.709004
 22
1.146031
 32
0.0
 13
2.709004
 23
1.146031
 33
0.0
  0
SOLID
  8
0
  6
BYBLOCK
 62
     0
 10
4.784004
 20
1.198531
 30
0.0
 11
4.784004
 21
1.093531
 31
0.0
 12
5.099004
 22
1.146031
 32
0.0
 13
5.099004
 23
1.146031
 33
0.0
  0
TEXT
  8
0
  6
BYBLOCK
 62
     0
 10
3.589551
 20
1.036656
 30
0.0
 40
0.21875
  1
2.390
 41
0.75
  7
TXT
 72
     1
 11
3.904004
 21
1.146031
 31
0.0
 73
     2
  0
POINT
  8
DEFPOINTS
  6
BYBLOCK
 62
     0
 10
2.709004
 20
2.927801
 30
0.0
  0
POINT
  8
DEFPOINTS
  6
BYBLOCK
 62
     0
 10
5.099004
 20
2.927801
 30
0.0
  0
POINT
  8
DEFPOINTS
  6
BYBLOCK
 62
     0
 10
5.099004
 20
1.146031
 30
0.0
  0
ENDBLK
  8
0
  0
BLOCK
  8
0
  2
*D42
 70
    65
 10
0.0
 20
0.0
 30
0.0
  3
*D
  0
LINE
  8
0
  6
BYBLOCK
 62
     0
 10
5.579754
 20
3.722801
 30
0.0
 11
6.796698
 21
3.722801
 31
0.0
  0
LINE
  8
0
  6
BYBLOCK
 62
     0
 10
5.579754
 20
6.862801
 30
0.0
 11
6.796698
 21
6.862801
 31
0.0
  0
LINE
  8
0
  6
BYBLOCK
 62
     0
 10
6.633948
 20
4.037801
 30
0.0
 11
6.633948
 21
4.738483
 31
0.0
  0
LINE
  8
0
  6
BYBLOCK
 62
     0
 10
6.633948
 20
6.547801
 30
0.0
 11
6.633948
 21
5.272233
 31
0.0
  0
SOLID
  8
0
  6
BYBLOCK
 62
     0
 10
6.581448
 20
4.037801
 30
0.0
 11
6.686448
 21
4.037801
 31
0.0
 12
6.633948
 22
3.722801
 32
0.0
 13
6.633948
 23
3.722801
 33
0.0
  0
SOLID
  8
0
  6
BYBLOCK
 62
     0
 10
6.581448
 20
6.547801
 30
0.0
 11
6.686448
 21
6.547801
 31
0.0
 12
6.633948
 22
6.862801
 32
0.0
 13
6.633948
 23
6.862801
 33
0.0
  0
TEXT
  8
0
  6
BYBLOCK
 62
     0
 10
5.758948
 20
4.895983
 30
0.0
 40
0.21875
  1
@ 0.785=
 41
0.75
  7
TXT
 72
     1
 11
6.319494
 21
5.005358
 31
0.0
 73
     2
  0
TEXT
  8
0
  6
BYBLOCK
 62
     0
 10
6.934729
 20
4.895983
 30
0.0
 40
0.21875
  1
3.140
 41
0.75
  7
TXT
 72
     1
 11
7.221838
 21
5.005358
 31
0.0
 73
     2
  0
POINT
  8
DEFPOINTS
  6
BYBLOCK
 62
     0
 10
5.469504
 20
3.722801
 30
0.0
  0
POINT
  8
DEFPOINTS
  6
BYBLOCK
 62
     0
 10
5.469504
 20
6.862801
 30
0.0
  0
POINT
  8
DEFPOINTS
  6
BYBLOCK
 62
     0
 10
6.633948
 20
6.862801
 30
0.0
  0
ENDBLK
  8
0
  0
BLOCK
  8
0
  2
*D43
 70
    65
 10
0.0
 20
0.0
 30
0.0
  3
*D
  0
LINE
  8
0
  6
BYBLOCK
 62
     0
 10
2.598754
 20
2.927801
 30
0.0
 11
1.38451
 21
2.927801
 31
0.0
  0
LINE
  8
0
  6
BYBLOCK
 62
     0
 10
2.598754
 20
7.657801
 30
0.0
 11
1.38451
 21
7.657801
 31
0.0
  0
LINE
  8
0
  6
BYBLOCK
 62
     0
 10
1.54726
 20
3.242801
 30
0.0
 11
1.54726
 21
5.025926
 31
0.0
  0
LINE
  8
0
  6
BYBLOCK
 62
     0
 10
1.54726
 20
7.342801
 30
0.0
 11
1.54726
 21
5.559676
 31
0.0
  0
SOLID
  8
0
  6
BYBLOCK
 62
     0
 10
1.49476
 20
3.242801
 30
0.0
 11
1.59976
 21
3.242801
 31
0.0
 12
1.54726
 22
2.927801
 32
0.0
 13
1.54726
 23
2.927801
 33
0.0
  0
SOLID
  8
0
  6
BYBLOCK
 62
     0
 10
1.49476
 20
7.342801
 30
0.0
 11
1.59976
 21
7.342801
 31
0.0
 12
1.54726
 22
7.657801
 32
0.0
 13
1.54726
 23
7.657801
 33
0.0
  0
TEXT
  8
0
  6
BYBLOCK
 62
     0
 10
1.232806
 20
5.183426
 30
0.0
 40
0.21875
  1
4.730
 41
0.75
  7
TXT
 72
     1
 11
1.54726
 21
5.292801
 31
0.0
 73
     2
  0
POINT
  8
DEFPOINTS
  6
BYBLOCK
 62
     0
 10
2.709004
 20
2.927801
 30
0.0
  0
POINT
  8
DEFPOINTS
  6
BYBLOCK
 62
     0
 10
2.709004
 20
7.657801
 30
0.0
  0
POINT
  8
DEFPOINTS
  6
BYBLOCK
 62
     0
 10
1.54726
 20
7.657801
 30
0.0
  0
ENDBLK
  8
0
  0
BLOCK
  8
0
  2
*D44
 70
    65
 10
0.0
 20
0.0
 30
0.0
  3
*D
  0
LINE
  8
0
  6
BYBLOCK
 62
     0
 10
2.598754
 20
2.927801
 30
0.0
 11
1.38451
 21
2.927801
 31
0.0
  0
LINE
  8
0
  6
BYBLOCK
 62
     0
 10
2.412754
 20
2.638801
 30
0.0
 11
1.38451
 21
2.638801
 31
0.0
  0
LINE
  8
0
  6
BYBLOCK
 62
     0
 10
1.54726
 20
3.242801
 30
0.0
 11
1.54726
 21
3.557801
 31
0.0
  0
LINE
  8
0
  6
BYBLOCK
 62
     0
 10
1.54726
 20
2.323801
 30
0.0
 11
1.54726
 21
2.008801
 31
0.0
  0
LINE
  8
0
  6
BYBLOCK
 62
     0
 10
1.54726
 20
2.008801
 30
0.0
 11
1.23226
 21
2.008801
 31
0.0
  0
SOLID
  8
0
  6
BYBLOCK
 62
     0
 10
1.49476
 20
3.242801
 30
0.0
 11
1.59976
 21
3.242801
 31
0.0
 12
1.54726
 22
2.927801
 32
0.0
 13
1.54726
 23
2.927801
 33
0.0
  0
SOLID
  8
0
  6
BYBLOCK
 62
     0
 10
1.49476
 20
2.323801
 30
0.0
 11
1.59976
 21
2.323801
 31
0.0
 12
1.54726
 22
2.638801
 32
0.0
 13
1.54726
 23
2.638801
 33
0.0
  0
TEXT
  8
0
  6
BYBLOCK
 62
     0
 10
0.445853
 20
1.899426
 30
0.0
 40
0.21875
  1
0.289
 41
0.75
  7
TXT
 72
     1
 11
0.760306
 21
2.008801
 31
0.0
 73
     2
  0
POINT
  8
DEFPOINTS
  6
BYBLOCK
 62
     0
 10
2.709004
 20
2.927801
 30
0.0
  0
POINT
  8
DEFPOINTS
  6
BYBLOCK
 62
     0
 10
2.523004
 20
2.638801
 30
0.0
  0
POINT
  8
DEFPOINTS
  6
BYBLOCK
 62
     0
 10
1.54726
 20
2.638801
 30
0.0
  0
ENDBLK
  8
0
  0
BLOCK
  8
0
  2
*D45
 70
    65
 10
0.0
 20
0.0
 30
0.0
  3
*D
  0
LINE
  8
0
  6
BYBLOCK
 62
     0
 10
21.914391
 20
13.023398
 30
0.0
 11
19.897924
 21
13.023398
 31
0.0
  0
LINE
  8
0
  6
BYBLOCK
 62
     0
 10
21.914391
 20
12.829398
 30
0.0
 11
19.897924
 21
12.829398
 31
0.0
  0
LINE
  8
0
  6
BYBLOCK
 62
     0
 10
20.060674
 20
13.338398
 30
0.0
 11
20.060674
 21
13.653398
 31
0.0
  0
LINE
  8
0
  6
BYBLOCK
 62
     0
 10
20.060674
 20
12.514398
 30
0.0
 11
20.060674
 21
12.199398
 31
0.0
  0
LINE
  8
0
  6
BYBLOCK
 62
     0
 10
20.060674
 20
12.199398
 30
0.0
 11
19.745674
 21
12.199398
 31
0.0
  0
SOLID
  8
0
  6
BYBLOCK
 62
     0
 10
20.008174
 20
13.338398
 30
0.0
 11
20.113174
 21
13.338398
 31
0.0
 12
20.060674
 22
13.023398
 32
0.0
 13
20.060674
 23
13.023398
 33
0.0
  0
SOLID
  8
0
  6
BYBLOCK
 62
     0
 10
20.008174
 20
12.514398
 30
0.0
 11
20.113174
 21
12.514398
 31
0.0
 12
20.060674
 22
12.829398
 32
0.0
 13
20.060674
 23
12.829398
 33
0.0
  0
TEXT
  8
0
  6
BYBLOCK
 62
     0
 10
18.822549
 20
12.090023
 30
0.0
 40
0.21875
  1
R
 41
0.75
  7
TXT
 72
     1
 11
18.877237
 21
12.199398
 31
0.0
 73
     2
  0
TEXT
  8
0
  6
BYBLOCK
 62
     0
 10
18.986612
 20
12.090023
 30
0.0
 40
0.21875
  1
0.048
 41
0.75
  7
TXT
 72
     1
 11
19.287393
 21
12.199398
 31
0.0
 73
     2
  0
POINT
  8
DEFPOINTS
  6
BYBLOCK
 62
     0
 10
22.024641
 20
13.023398
 30
0.0
  0
POINT
  8
DEFPOINTS
  6
BYBLOCK
 62
     0
 10
22.024641
 20
12.829398
 30
0.0
  0
POINT
  8
DEFPOINTS
  6
BYBLOCK
 62
     0
 10
20.060674
 20
12.829398
 30
0.0
  0
ENDBLK
  8
0
  0
BLOCK
  8
0
  2
*D46
 70
    65
 10
0.0
 20
0.0
 30
0.0
  3
*D
  0
LINE
  8
0
  6
BYBLOCK
 62
     0
 10
21.370391
 20
13.831398
 30
0.0
 11
19.056174
 21
13.831398
 31
0.0
  0
LINE
  8
0
  6
BYBLOCK
 62
     0
 10
21.370391
 20
13.401398
 30
0.0
 11
19.056174
 21
13.401398
 31
0.0
  0
LINE
  8
0
  6
BYBLOCK
 62
     0
 10
19.218924
 20
14.146398
 30
0.0
 11
19.218924
 21
14.461398
 31
0.0
  0
LINE
  8
0
  6
BYBLOCK
 62
     0
 10
19.218924
 20
13.086398
 30
0.0
 11
19.218924
 21
12.771398
 31
0.0
  0
LINE
  8
0
  6
BYBLOCK
 62
     0
 10
19.218924
 20
12.771398
 30
0.0
 11
18.903924
 21
12.771398
 31
0.0
  0
SOLID
  8
0
  6
BYBLOCK
 62
     0
 10
19.166424
 20
14.146398
 30
0.0
 11
19.271424
 21
14.146398
 31
0.0
 12
19.218924
 22
13.831398
 32
0.0
 13
19.218924
 23
13.831398
 33
0.0
  0
SOLID
  8
0
  6
BYBLOCK
 62
     0
 10
19.166424
 20
13.086398
 30
0.0
 11
19.271424
 21
13.086398
 31
0.0
 12
19.218924
 22
13.401398
 32
0.0
 13
19.218924
 23
13.401398
 33
0.0
  0
TEXT
  8
0
  6
BYBLOCK
 62
     0
 10
18.035487
 20
12.662023
 30
0.0
 40
0.21875
  1
R
 41
0.75
  7
TXT
 72
     1
 11
18.090174
 21
12.771398
 31
0.0
 73
     2
  0
TEXT
  8
0
  6
BYBLOCK
 62
     0
 10
18.199549
 20
12.662023
 30
0.0
 40
0.21875
  1
0.108
 41
0.75
  7
TXT
 72
     1
 11
18.472987
 21
12.771398
 31
0.0
 73
     2
  0
POINT
  8
DEFPOINTS
  6
BYBLOCK
 62
     0
 10
21.480641
 20
13.831398
 30
0.0
  0
POINT
  8
DEFPOINTS
  6
BYBLOCK
 62
     0
 10
21.480641
 20
13.401398
 30
0.0
  0
POINT
  8
DEFPOINTS
  6
BYBLOCK
 62
     0
 10
19.218924
 20
13.401398
 30
0.0
  0
ENDBLK
  8
0
  0
BLOCK
  8
0
  2
*D47
 70
    65
 10
0.0
 20
0.0
 30
0.0
  3
*D
  0
LINE
  8
0
  6
BYBLOCK
 62
     0
 10
3.119004
 20
8.148551
 30
0.0
 11
3.119004
 21
10.54838
 31
0.0
  0
LINE
  8
0
  6
BYBLOCK
 62
     0
 10
4.689004
 20
8.148551
 30
0.0
 11
4.689004
 21
10.54838
 31
0.0
  0
LINE
  8
0
  6
BYBLOCK
 62
     0
 10
2.804004
 20
10.38563
 30
0.0
 11
2.489004
 21
10.38563
 31
0.0
  0
LINE
  8
0
  6
BYBLOCK
 62
     0
 10
5.004004
 20
10.38563
 30
0.0
 11
5.319004
 21
10.38563
 31
0.0
  0
SOLID
  8
0
  6
BYBLOCK
 62
     0
 10
2.804004
 20
10.43813
 30
0.0
 11
2.804004
 21
10.33313
 31
0.0
 12
3.119004
 22
10.38563
 32
0.0
 13
3.119004
 23
10.38563
 33
0.0
  0
SOLID
  8
0
  6
BYBLOCK
 62
     0
 10
5.004004
 20
10.43813
 30
0.0
 11
5.004004
 21
10.33313
 31
0.0
 12
4.689004
 22
10.38563
 32
0.0
 13
4.689004
 23
10.38563
 33
0.0
  0
TEXT
  8
0
  6
BYBLOCK
 62
     0
 10
3.616895
 20
10.276255
 30
0.0
 40
0.21875
  1
1.570
 41
0.75
  7
TXT
 72
     1
 11
3.904004
 21
10.38563
 31
0.0
 73
     2
  0
POINT
  8
DEFPOINTS
  6
BYBLOCK
 62
     0
 10
3.119004
 20
8.038301
 30
0.0
  0
POINT
  8
DEFPOINTS
  6
BYBLOCK
 62
     0
 10
4.689004
 20
8.038301
 30
0.0
  0
POINT
  8
DEFPOINTS
  6
BYBLOCK
 62
     0
 10
4.689004
 20
10.38563
 30
0.0
  0
ENDBLK
  8
0
  0
BLOCK
  8
0
  2
*D48
 70
    65
 10
0.0
 20
0.0
 30
0.0
  3
*D
  0
LINE
  8
0
  6
BYBLOCK
 62
     0
 10
4.689004
 20
8.148551
 30
0.0
 11
4.689004
 21
10.05663
 31
0.0
  0
LINE
  8
0
  6
BYBLOCK
 62
     0
 10
5.378004
 20
7.964051
 30
0.0
 11
5.378004
 21
10.05663
 31
0.0
  0
LINE
  8
0
  6
BYBLOCK
 62
     0
 10
4.374004
 20
9.89388
 30
0.0
 11
4.059004
 21
9.89388
 31
0.0
  0
LINE
  8
0
  6
BYBLOCK
 62
     0
 10
5.693004
 20
9.89388
 30
0.0
 11
6.008004
 21
9.89388
 31
0.0
  0
SOLID
  8
0
  6
BYBLOCK
 62
     0
 10
4.374004
 20
9.94638
 30
0.0
 11
4.374004
 21
9.84138
 31
0.0
 12
4.689004
 22
9.89388
 32
0.0
 13
4.689004
 23
9.89388
 33
0.0
  0
SOLID
  8
0
  6
BYBLOCK
 62
     0
 10
5.693004
 20
9.94638
 30
0.0
 11
5.693004
 21
9.84138
 31
0.0
 12
5.378004
 22
9.89388
 32
0.0
 13
5.378004
 23
9.89388
 33
0.0
  0
TEXT
  8
0
  6
BYBLOCK
 62
     0
 10
6.165504
 20
9.784505
 30
0.0
 40
0.21875
  1
0.689
 41
0.75
  7
TXT
 72
     1
 11
6.479957
 21
9.89388
 31
0.0
 73
     2
  0
POINT
  8
DEFPOINTS
  6
BYBLOCK
 62
     0
 10
4.689004
 20
8.038301
 30
0.0
  0
POINT
  8
DEFPOINTS
  6
BYBLOCK
 62
     0
 10
5.378004
 20
7.853801
 30
0.0
  0
POINT
  8
DEFPOINTS
  6
BYBLOCK
 62
     0
 10
5.378004
 20
9.89388
 30
0.0
  0
ENDBLK
  8
0
  0
BLOCK
  8
0
  2
*D49
 70
    65
 10
0.0
 20
0.0
 30
0.0
  3
*D
  0
LINE
  8
0
  6
BYBLOCK
 62
     0
 10
3.904004
 20
8.148551
 30
0.0
 11
3.904004
 21
9.56488
 31
0.0
  0
LINE
  8
0
  6
BYBLOCK
 62
     0
 10
4.689004
 20
8.148551
 30
0.0
 11
4.689004
 21
9.56488
 31
0.0
  0
LINE
  8
0
  6
BYBLOCK
 62
     0
 10
3.589004
 20
9.40213
 30
0.0
 11
3.274004
 21
9.40213
 31
0.0
  0
LINE
  8
0
  6
BYBLOCK
 62
     0
 10
5.004004
 20
9.40213
 30
0.0
 11
5.319004
 21
9.40213
 31
0.0
  0
SOLID
  8
0
  6
BYBLOCK
 62
     0
 10
3.589004
 20
9.45463
 30
0.0
 11
3.589004
 21
9.34963
 31
0.0
 12
3.904004
 22
9.40213
 32
0.0
 13
3.904004
 23
9.40213
 33
0.0
  0
SOLID
  8
0
  6
BYBLOCK
 62
     0
 10
5.004004
 20
9.45463
 30
0.0
 11
5.004004
 21
9.34963
 31
0.0
 12
4.689004
 22
9.40213
 32
0.0
 13
4.689004
 23
9.40213
 33
0.0
  0
TEXT
  8
0
  6
BYBLOCK
 62
     0
 10
5.476504
 20
9.292755
 30
0.0
 40
0.21875
  1
0.785
 41
0.75
  7
TXT
 72
     1
 11
5.790957
 21
9.40213
 31
0.0
 73
     2
  0
POINT
  8
DEFPOINTS
  6
BYBLOCK
 62
     0
 10
3.904004
 20
8.038301
 30
0.0
  0
POINT
  8
DEFPOINTS
  6
BYBLOCK
 62
     0
 10
4.689004
 20
8.038301
 30
0.0
  0
POINT
  8
DEFPOINTS
  6
BYBLOCK
 62
     0
 10
4.689004
 20
9.40213
 30
0.0
  0
ENDBLK
  8
0
  0
BLOCK
  8
0
  2
*D50
 70
    65
 10
0.0
 20
0.0
 30
0.0
  3
*D
  0
LINE
  8
0
  6
BYBLOCK
 62
     0
 10
22.506862
 20
14.884512
 30
0.0
 11
18.361145
 21
14.884512
 31
0.0
  0
LINE
  8
0
  6
BYBLOCK
 62
     0
 10
22.266862
 20
14.732512
 30
0.0
 11
18.361145
 21
14.732512
 31
0.0
  0
LINE
  8
0
  6
BYBLOCK
 62
     0
 10
18.523895
 20
15.199512
 30
0.0
 11
18.523895
 21
15.514512
 31
0.0
  0
LINE
  8
0
  6
BYBLOCK
 62
     0
 10
18.523895
 20
14.417512
 30
0.0
 11
18.523895
 21
14.102512
 31
0.0
  0
LINE
  8
0
  6
BYBLOCK
 62
     0
 10
18.523895
 20
14.102512
 30
0.0
 11
18.208895
 21
14.102512
 31
0.0
  0
SOLID
  8
0
  6
BYBLOCK
 62
     0
 10
18.471395
 20
15.199512
 30
0.0
 11
18.576395
 21
15.199512
 31
0.0
 12
18.523895
 22
14.884512
 32
0.0
 13
18.523895
 23
14.884512
 33
0.0
  0
SOLID
  8
0
  6
BYBLOCK
 62
     0
 10
18.471395
 20
14.417512
 30
0.0
 11
18.576395
 21
14.417512
 31
0.0
 12
18.523895
 22
14.732512
 32
0.0
 13
18.523895
 23
14.732512
 33
0.0
  0
TEXT
  8
0
  6
BYBLOCK
 62
     0
 10
17.449833
 20
13.993137
 30
0.0
 40
0.21875
  1
0.038
 41
0.75
  7
TXT
 72
     1
 11
17.750614
 21
14.102512
 31
0.0
 73
     2
  0
POINT
  8
DEFPOINTS
  6
BYBLOCK
 62
     0
 10
22.617112
 20
14.884512
 30
0.0
  0
POINT
  8
DEFPOINTS
  6
BYBLOCK
 62
     0
 10
22.377112
 20
14.732512
 30
0.0
  0
POINT
  8
DEFPOINTS
  6
BYBLOCK
 62
     0
 10
18.523895
 20
14.732512
 30
0.0
  0
ENDBLK
  8
0
  0
BLOCK
  8
0
  2
*D51
 70
    65
 10
0.0
 20
0.0
 30
0.0
  3
*D
  0
LINE
  8
0
  6
BYBLOCK
 62
     0
 10
22.506862
 20
14.884512
 30
0.0
 11
16.677645
 21
14.884512
 31
0.0
  0
LINE
  8
0
  6
BYBLOCK
 62
     0
 10
22.658862
 20
15.064512
 30
0.0
 11
16.677645
 21
15.064512
 31
0.0
  0
LINE
  8
0
  6
BYBLOCK
 62
     0
 10
16.840395
 20
14.569512
 30
0.0
 11
16.840395
 21
14.254512
 31
0.0
  0
LINE
  8
0
  6
BYBLOCK
 62
     0
 10
16.840395
 20
15.379512
 30
0.0
 11
16.840395
 21
15.694512
 31
0.0
  0
LINE
  8
0
  6
BYBLOCK
 62
     0
 10
16.840395
 20
15.694512
 30
0.0
 11
17.155395
 21
15.694512
 31
0.0
  0
SOLID
  8
0
  6
BYBLOCK
 62
     0
 10
16.787895
 20
14.569512
 30
0.0
 11
16.892895
 21
14.569512
 31
0.0
 12
16.840395
 22
14.884512
 32
0.0
 13
16.840395
 23
14.884512
 33
0.0
  0
SOLID
  8
0
  6
BYBLOCK
 62
     0
 10
16.787895
 20
15.379512
 30
0.0
 11
16.892895
 21
15.379512
 31
0.0
 12
16.840395
 22
15.064512
 32
0.0
 13
16.840395
 23
15.064512
 33
0.0
  0
TEXT
  8
0
  6
BYBLOCK
 62
     0
 10
17.312895
 20
15.585137
 30
0.0
 40
0.21875
  1
0.045
 41
0.75
  7
TXT
 72
     1
 11
17.613676
 21
15.694512
 31
0.0
 73
     2
  0
POINT
  8
DEFPOINTS
  6
BYBLOCK
 62
     0
 10
22.617112
 20
14.884512
 30
0.0
  0
POINT
  8
DEFPOINTS
  6
BYBLOCK
 62
     0
 10
22.769112
 20
15.064512
 30
0.0
  0
POINT
  8
DEFPOINTS
  6
BYBLOCK
 62
     0
 10
16.840395
 20
15.064512
 30
0.0
  0
ENDBLK
  8
0
  0
BLOCK
  8
0
  2
*D52
 70
    65
 10
0.0
 20
0.0
 30
0.0
  3
*D
  0
LINE
  8
0
  6
BYBLOCK
 62
     0
 10
10.212304
 20
3.044801
 30
0.0
 11
9.447874
 21
3.044801
 31
0.0
  0
LINE
  8
0
  6
BYBLOCK
 62
     0
 10
10.212304
 20
7.540801
 30
0.0
 11
9.447874
 21
7.540801
 31
0.0
  0
LINE
  8
0
  6
BYBLOCK
 62
     0
 10
9.610624
 20
3.359801
 30
0.0
 11
9.610624
 21
5.025926
 31
0.0
  0
LINE
  8
0
  6
BYBLOCK
 62
     0
 10
9.610624
 20
7.225801
 30
0.0
 11
9.610624
 21
5.559676
 31
0.0
  0
SOLID
  8
0
  6
BYBLOCK
 62
     0
 10
9.558124
 20
3.359801
 30
0.0
 11
9.663124
 21
3.359801
 31
0.0
 12
9.610624
 22
3.044801
 32
0.0
 13
9.610624
 23
3.044801
 33
0.0
  0
SOLID
  8
0
  6
BYBLOCK
 62
     0
 10
9.558124
 20
7.225801
 30
0.0
 11
9.663124
 21
7.225801
 31
0.0
 12
9.610624
 22
7.540801
 32
0.0
 13
9.610624
 23
7.540801
 33
0.0
  0
TEXT
  8
0
  6
BYBLOCK
 62
     0
 10
9.282499
 20
5.183426
 30
0.0
 40
0.21875
  1
4.496
 41
0.75
  7
TXT
 72
     1
 11
9.610624
 21
5.292801
 31
0.0
 73
     2
  0
POINT
  8
DEFPOINTS
  6
BYBLOCK
 62
     0
 10
10.322554
 20
3.044801
 30
0.0
  0
POINT
  8
DEFPOINTS
  6
BYBLOCK
 62
     0
 10
10.322554
 20
7.540801
 30
0.0
  0
POINT
  8
DEFPOINTS
  6
BYBLOCK
 62
     0
 10
9.610624
 20
7.540801
 30
0.0
  0
ENDBLK
  8
0
  0
BLOCK
  8
0
  2
*D53
 70
    65
 10
0.0
 20
0.0
 30
0.0
  3
*D
  0
LINE
  8
0
  6
BYBLOCK
 62
     0
 10
10.212304
 20
3.044801
 30
0.0
 11
9.447874
 21
3.044801
 31
0.0
  0
LINE
  8
0
  6
BYBLOCK
 62
     0
 10
10.140304
 20
2.638801
 30
0.0
 11
9.447874
 21
2.638801
 31
0.0
  0
LINE
  8
0
  6
BYBLOCK
 62
     0
 10
9.610624
 20
3.359801
 30
0.0
 11
9.610624
 21
3.674801
 31
0.0
  0
LINE
  8
0
  6
BYBLOCK
 62
     0
 10
9.610624
 20
2.323801
 30
0.0
 11
9.610624
 21
2.008801
 31
0.0
  0
SOLID
  8
0
  6
BYBLOCK
 62
     0
 10
9.558124
 20
3.359801
 30
0.0
 11
9.663124
 21
3.359801
 31
0.0
 12
9.610624
 22
3.044801
 32
0.0
 13
9.610624
 23
3.044801
 33
0.0
  0
SOLID
  8
0
  6
BYBLOCK
 62
     0
 10
9.558124
 20
2.323801
 30
0.0
 11
9.663124
 21
2.323801
 31
0.0
 12
9.610624
 22
2.638801
 32
0.0
 13
9.610624
 23
2.638801
 33
0.0
  0
TEXT
  8
0
  6
BYBLOCK
 62
     0
 10
9.309843
 20
2.732426
 30
0.0
 40
0.21875
  1
0.406
 41
0.75
  7
TXT
 72
     1
 11
9.610624
 21
2.841801
 31
0.0
 73
     2
  0
POINT
  8
DEFPOINTS
  6
BYBLOCK
 62
     0
 10
10.322554
 20
3.044801
 30
0.0
  0
POINT
  8
DEFPOINTS
  6
BYBLOCK
 62
     0
 10
10.250554
 20
2.638801
 30
0.0
  0
POINT
  8
DEFPOINTS
  6
BYBLOCK
 62
     0
 10
9.610624
 20
2.638801
 30
0.0
  0
ENDBLK
  8
0
  0
BLOCK
  8
0
  2
*D54
 70
    65
 10
0.0
 20
0.0
 30
0.0
  3
*D
  0
LINE
  8
0
  6
BYBLOCK
 62
     0
 10
22.358862
 20
13.920512
 30
0.0
 11
19.202895
 21
13.920512
 31
0.0
  0
LINE
  8
0
  6
BYBLOCK
 62
     0
 10
22.358862
 20
13.702512
 30
0.0
 11
19.202895
 21
13.702512
 31
0.0
  0
LINE
  8
0
  6
BYBLOCK
 62
     0
 10
19.365645
 20
14.235512
 30
0.0
 11
19.365645
 21
14.550512
 31
0.0
  0
LINE
  8
0
  6
BYBLOCK
 62
     0
 10
19.365645
 20
13.387512
 30
0.0
 11
19.365645
 21
13.072512
 31
0.0
  0
LINE
  8
0
  6
BYBLOCK
 62
     0
 10
19.365645
 20
13.072512
 30
0.0
 11
19.050645
 21
13.072512
 31
0.0
  0
SOLID
  8
0
  6
BYBLOCK
 62
     0
 10
19.313145
 20
14.235512
 30
0.0
 11
19.418145
 21
14.235512
 31
0.0
 12
19.365645
 22
13.920512
 32
0.0
 13
19.365645
 23
13.920512
 33
0.0
  0
SOLID
  8
0
  6
BYBLOCK
 62
     0
 10
19.313145
 20
13.387512
 30
0.0
 11
19.418145
 21
13.387512
 31
0.0
 12
19.365645
 22
13.702512
 32
0.0
 13
19.365645
 23
13.702512
 33
0.0
  0
TEXT
  8
0
  6
BYBLOCK
 62
     0
 10
18.12752
 20
12.963137
 30
0.0
 40
0.21875
  1
R0.055
 41
0.75
  7
TXT
 72
     1
 11
18.510333
 21
13.072512
 31
0.0
 73
     2
  0
POINT
  8
DEFPOINTS
  6
BYBLOCK
 62
     0
 10
22.469112
 20
13.920512
 30
0.0
  0
POINT
  8
DEFPOINTS
  6
BYBLOCK
 62
     0
 10
22.469112
 20
13.702512
 30
0.0
  0
POINT
  8
DEFPOINTS
  6
BYBLOCK
 62
     0
 10
19.365645
 20
13.702512
 30
0.0
  0
ENDBLK
  8
0
  0
ENDSEC
  0
SECTION
  2
ENTITIES
  0
LINE
  8
OBJECT
 10
5.285004
 20
2.638801
 30
0.0
 11
2.523004
 21
2.638801
 31
0.0
  0
LINE
  8
OBJECT
 10
2.430004
 20
2.731801
 30
0.0
 11
2.430004
 21
7.853801
 31
0.0
  0
LINE
  8
OBJECT
 10
2.523004
 20
7.946801
 30
0.0
 11
5.285004
 21
7.946801
 31
0.0
  0
LINE
  8
OBJECT
 10
5.378004
 20
7.853801
 30
0.0
 11
5.378004
 21
2.731801
 31
0.0
  0
ARC
  8
OBJECT
 10
2.523004
 20
2.731801
 30
0.0
 40
0.093
 50
180.0
 51
270.0
  0
ARC
  8
OBJECT
 10
5.285004
 20
2.731801
 30
0.0
 40
0.093
 50
270.0
 51
0.0
  0
ARC
  8
OBJECT
 10
2.523004
 20
7.853801
 30
0.0
 40
0.093
 50
90.0
 51
180.0
  0
ARC
  8
OBJECT
 10
5.285004
 20
7.853801
 30
0.0
 40
0.093
 50
0.0
 51
90.0
  0
LINE
  8
OBJECT
 10
2.592969
 20
2.942801
 30
0.0
 11
2.528004
 21
2.942801
 31
0.0
  0
LINE
  8
OBJECT
 10
2.592969
 20
2.912801
 30
0.0
 11
2.528004
 21
2.912801
 31
0.0
  0
LINE
  8
OBJECT
 10
2.724004
 20
2.811767
 30
0.0
 11
2.724004
 21
2.736801
 31
0.0
  0
LINE
  8
OBJECT
 10
2.694004
 20
2.811767
 30
0.0
 11
2.694004
 21
2.736801
 31
0.0
  0
DIMENSION
  8
DIM
  2
*D44
 10
1.54726
 20
2.638801
 30
0.0
 11
0.760306
 21
2.008801
 31
0.0
 13
2.709004
 23
2.927801
 33
0.0
 14
2.523004
 24
2.638801
 34
0.0
 50
90.0
  3
23NSTD
  0
DIMENSION
  8
DIM
  2
*D43
 10
1.54726
 20
7.657801
 30
0.0
 11
1.54726
 21
5.292801
 31
0.0
 13
2.709004
 23
2.927801
 33
0.0
 14
2.709004
 24
7.657801
 34
0.0
 50
90.0
  3
23NSTD
  0
DIMENSION
  8
DIM
  2
*D42
 10
6.633948
 20
6.862801
 30
0.0
 11
6.633948
 21
5.005358
 31
0.0
 70
   128
  1
@ 0.785=<>
 13
5.469504
 23
3.722801
 33
0.0
 14
5.469504
 24
6.862801
 34
0.0
 50
90.0
  3
23NSTD
  0
DIMENSION
  8
DIM
  2
*D41
 10
5.099004
 20
1.146031
 30
0.0
 11
3.904004
 21
1.146031
 31
0.0
 13
2.709004
 23
2.927801
 33
0.0
 14
5.099004
 24
2.927801
 34
0.0
  3
23NSTD
  0
DIMENSION
  8
DIM
  2
*D40
 10
2.430004
 20
1.146031
 30
0.0
 11
1.328051
 21
1.146031
 31
0.0
 13
2.709004
 23
2.927801
 33
0.0
 14
2.430004
 24
2.731801
 34
0.0
  3
23NSTD
  0
DIMENSION
  8
DIM
  2
*D39
 10
6.633948
 20
2.638801
 30
0.0
 11
6.633948
 21
3.180801
 31
0.0
 13
5.469504
 23
3.722801
 33
0.0
 14
5.285004
 24
2.638801
 34
0.0
 50
90.0
  3
23NSTDI
  0
DIMENSION
  8
DIM
  2
*D47
 10
4.689004
 20
10.38563
 30
0.0
 11
3.904004
 21
10.38563
 31
0.0
 13
3.119004
 23
8.038301
 33
0.0
 14
4.689004
 24
8.038301
 34
0.0
  3
23NSTDI
  0
DIMENSION
  8
DIM
  2
*D48
 10
5.378004
 20
9.89388
 30
0.0
 11
6.479957
 21
9.89388
 31
0.0
 13
4.689004
 23
8.038301
 33
0.0
 14
5.378004
 24
7.853801
 34
0.0
  3
23NSTD
  0
LINE
  8
OBJECT
 10
10.250554
 20
2.638801
 30
0.0
 11
10.250554
 21
7.946801
 31
0.0
  0
DIMENSION
  8
DIM
  2
*D38
 10
8.677329
 20
2.638801
 30
0.0
 11
8.677329
 21
5.292801
 31
0.0
 13
10.250554
 23
7.946801
 33
0.0
 14
10.250554
 24
2.638801
 34
0.0
 50
90.0
  3
23NSTD
  0
DIMENSION
  8
DIM
  2
*D37
 10
12.306426
 20
2.660812
 30
0.0
 11
12.306426
 21
5.292801
 31
0.0
 13
11.724942
 23
7.924791
 33
0.0
 14
11.724942
 24
2.660812
 34
0.0
 50
90.0
  3
23NSTD
  0
SOLID
  8
BEND
 10
2.296726
 20
8.235483
 30
0.0
 11
2.296726
 21
8.340483
 31
0.0
 12
1.981726
 22
8.287983
 32
0.0
 13
1.981726
 23
8.287983
 33
0.0
  0
LINE
  8
BEND
 10
2.296726
 20
8.287983
 30
0.0
 11
2.709004
 21
8.287983
 31
0.0
  0
LINE
  8
BEND
 10
2.709004
 20
8.287983
 30
0.0
 11
2.709004
 21
2.29762
 31
0.0
  0
TEXT
  8
TEXT
 10
2.128459
 20
7.91682
 30
0.0
 40
0.21875
  1
A
 41
0.75
  7
TXT
 72
     4
 11
2.183146
 21
8.026195
 31
0.0
  0
SOLID
  8
BEND
 10
2.296726
 20
2.24512
 30
0.0
 11
2.296726
 21
2.35012
 31
0.0
 12
1.981726
 22
2.29762
 32
0.0
 13
1.981726
 23
2.29762
 33
0.0
  0
TEXT
  8
TEXT
 10
2.128459
 20
1.926458
 30
0.0
 40
0.21875
  1
A
 41
0.75
  7
TXT
 72
     4
 11
2.183146
 21
2.035833
 31
0.0
  0
LINE
  8
BEND
 10
2.296726
 20
2.29762
 30
0.0
 11
2.709004
 21
2.29762
 31
0.0
  0
DIMENSION
  8
DIM
  2
*D53
 10
9.610624
 20
2.638801
 30
0.0
 11
9.610624
 21
2.841801
 31
0.0
 13
10.322554
 23
3.044801
 33
0.0
 14
10.250554
 24
2.638801
 34
0.0
 50
90.0
  3
23NSTDI
  0
DIMENSION
  8
DIM
  2
*D36
 10
10.324554
 20
1.134241
 30
0.0
 11
11.412835
 21
1.134241
 31
0.0
 13
10.250554
 23
2.638801
 33
0.0
 14
10.324554
 24
2.710801
 34
0.0
  3
23NSTD
  0
DIMENSION
  8
DIM
  2
*D35
 10
11.816554
 20
2.117741
 30
0.0
 11
12.877492
 21
2.117741
 31
0.0
 13
11.708554
 23
3.044801
 33
0.0
 14
11.816554
 24
2.753801
 34
0.0
  3
23NSTD
  0
CIRCLE
  8
BEND
  6
PHANTOM2
 10
4.688004
 20
7.865801
 30
0.0
 40
0.393822
  0
POLYLINE
  8
BEND
 66
     1
 10
0.0
 20
0.0
 30
0.0
 41
0.084375
  0
VERTEX
  8
BEND
 10
4.988542
 20
8.117246
 30
0.0
 41
0.118125
  0
VERTEX
  8
BEND
 10
5.247151
 20
8.297097
 30
0.0
 41
0.0
  0
VERTEX
  8
BEND
 10
5.741686
 20
8.641022
 30
0.0
 41
0.0
  0
VERTEX
  8
BEND
 10
5.966686
 20
8.641022
 30
0.0
 41
0.0
  0
SEQEND
  8
BEND
  0
TEXT
  8
TEXT
 10
6.124186
 20
8.531647
 30
0.0
 40
0.21875
  1
SEE DETAIL "B"
 41
0.75
  7
TXT
 11
6.124186
 21
8.641022
 31
0.0
 73
     2
  0
LINE
  8
CENTER
 10
12.375083
 20
12.645581
 30
0.0
 11
12.375083
 21
14.161581
 31
0.0
  0
DIMENSION
  8
DIM
  2
*D34
 10
12.523083
 20
11.582716
 30
0.0
 11
13.611364
 21
11.582716
 31
0.0
 12
-0.763292
 22
-0.59006
 32
0.0
 13
12.227083
 23
13.199581
 33
0.0
 14
12.523083
 24
13.199581
 34
0.0
  3
23NSTD4
  0
DIMENSION
  8
DIM
  2
*D33
 10
12.375083
 20
12.074466
 30
0.0
 11
13.422348
 21
12.074466
 31
0.0
 12
-0.763292
 22
-0.59006
 32
0.0
 13
11.975083
 23
13.199581
 33
0.0
 14
12.375083
 24
12.645581
 34
0.0
  3
23NSTD4
  0
DIMENSION
  8
DIM
  2
*D32
 10
12.375083
 20
11.090966
 30
0.0
 11
13.463364
 21
11.090966
 31
0.0
 12
-0.763292
 22
-0.59006
 32
0.0
 13
12.227083
 23
13.199581
 33
0.0
 14
12.375083
 24
12.645581
 34
0.0
  3
23NSTD4
  0
DIMENSION
  8
DIM
  2
*D31
 10
10.240877
 20
13.403581
 30
0.0
 11
10.986815
 21
14.033581
 31
0.0
 12
-0.763292
 22
-0.59006
 32
0.0
 13
11.975083
 23
13.199581
 33
0.0
 14
11.317808
 24
13.403581
 34
0.0
 50
90.0
  3
23NSTD4
  0
DIMENSION
  8
DIM
  2
*D30
 10
15.265832
 20
13.507581
 30
0.0
 11
14.492551
 21
12.877581
 31
0.0
 12
-0.763292
 22
-0.59006
 32
0.0
 13
13.37559
 23
13.795581
 33
0.0
 14
13.425936
 24
13.507581
 34
0.0
 50
90.0
  3
23NSTD4
  0
DIMENSION
  8
DIM
  2
*D29
 10
13.790582
 20
13.507581
 30
0.0
 11
14.563863
 21
14.137581
 31
0.0
 12
-0.763292
 22
-0.59006
 32
0.0
 13
13.424357
 23
13.403581
 33
0.0
 14
13.425936
 24
13.507581
 34
0.0
 50
90.0
  3
23NSTD4
  0
DIMENSION
  8
DIM
  2
*D52
 10
9.610624
 20
7.540801
 30
0.0
 11
9.610624
 21
5.292801
 31
0.0
 13
10.322554
 23
3.044801
 33
0.0
 14
10.322554
 24
7.540801
 34
0.0
 50
90.0
  3
23NSTD
  0
TEXT
  8
TEXT
 10
10.060538
 20
0.501096
 30
0.0
 40
0.21875
  1
%%USECTION "A-A"
 41
0.75
  7
TXT
 72
     1
 11
11.020304
 21
0.501096
 31
0.0
  0
TEXT
  8
TEXT
 10
11.656945
 20
10.009291
 30
0.0
 40
0.21875
  1
%%UDETAIL "B"
 41
0.75
  7
TXT
 72
     1
 11
12.370617
 21
10.009291
 31
0.0
  0
DIMENSION
  8
DIM
  2
*D28
 10
3.219004
 20
7.797801
 30
0.0
 11
3.219004
 21
5.292801
 31
0.0
 13
3.156004
 23
2.787801
 33
0.0
 14
3.156004
 24
7.797801
 34
0.0
 50
90.0
  3
23NSTDI
  0
DIMENSION
  8
DIM
  2
*D27
 10
5.229004
 20
3.822801
 30
0.0
 11
3.904004
 21
3.822801
 31
0.0
 13
2.579004
 23
3.759801
 33
0.0
 14
5.229004
 24
3.759801
 34
0.0
  3
23NSTDI
  0
TEXT
  8
DIM
 10
6.188361
 20
1.606598
 30
0.0
 40
0.21875
  1
0.234 DIA. BOSS
 41
0.75
  7
TXT
 72
     2
 11
6.188361
 21
1.715973
 31
0.0
 73
     2
  0
TEXT
  8
DIM
 10
6.188361
 20
1.242014
 30
0.0
 40
0.21875
  1
WITH 0.089 DIA. HOLE
 41
0.75
  7
TXT
 72
     2
 11
6.188361
 21
1.351389
 31
0.0
 73
     2
  0
TEXT
  8
DIM
 10
6.188361
 20
0.877431
 30
0.0
 40
0.21875
  1
x 0.758 DEEP
 41
0.75
  7
TXT
 72
     2
 11
6.188361
 21
0.986806
 31
0.0
 73
     2
  0
TEXT
  8
DIM
 10
6.188361
 20
0.512848
 30
0.0
 40
0.21875
  1
(4) PLACES
 41
0.75
  7
TXT
 72
     2
 11
6.188361
 21
0.622223
 31
0.0
 73
     2
  0
POLYLINE
  8
LJHFV
 66
     1
 10
0.0
 20
0.0
 30
0.0
 70
     4
 75
     6
  0
VERTEX
  8
LJHFV
 10
11.366575
 20
13.795581
 30
0.0
 70
    16
  0
VERTEX
  8
LJHFV
 10
11.366575
 20
13.795581
 30
0.0
 70
     8
  0
VERTEX
  8
LJHFV
 10
11.339503
 20
13.778268
 30
0.0
 70
     8
  0
VERTEX
  8
LJHFV
 10
11.323734
 20
13.761626
 30
0.0
 70
     8
  0
VERTEX
  8
LJHFV
 10
11.316968
 20
13.745745
 30
0.0
 70
     8
  0
VERTEX
  8
LJHFV
 10
11.3169
 20
13.730714
 30
0.0
 70
     8
  0
VERTEX
  8
LJHFV
 10
11.32123
 20
13.716626
 30
0.0
 70
     8
  0
VERTEX
  8
LJHFV
 10
11.327655
 20
13.703568
 30
0.0
 70
     8
  0
VERTEX
  8
LJHFV
 10
11.333872
 20
13.691632
 30
0.0
 70
     8
  0
VERTEX
  8
LJHFV
 10
11.33758
 20
13.680907
 30
0.0
 70
     8
  0
VERTEX
  8
LJHFV
 10
11.337027
 20
13.671422
 30
0.0
 70
     8
  0
VERTEX
  8
LJHFV
 10
11.332671
 20
13.662957
 30
0.0
 70
     8
  0
VERTEX
  8
LJHFV
 10
11.325519
 20
13.655227
 30
0.0
 70
     8
  0
VERTEX
  8
LJHFV
 10
11.31658
 20
13.647952
 30
0.0
 70
     8
  0
VERTEX
  8
LJHFV
 10
11.306862
 20
13.640849
 30
0.0
 70
     8
  0
VERTEX
  8
LJHFV
 10
11.297373
 20
13.633635
 30
0.0
 70
     8
  0
VERTEX
  8
LJHFV
 10
11.289121
 20
13.626028
 30
0.0
 70
     8
  0
VERTEX
  8
LJHFV
 10
11.283116
 20
13.617745
 30
0.0
 70
     8
  0
VERTEX
  8
LJHFV
 10
11.280047
 20
13.608589
 30
0.0
 70
     8
  0
VERTEX
  8
LJHFV
 10
11.279338
 20
13.598707
 30
0.0
 70
     8
  0
VERTEX
  8
LJHFV
 10
11.280095
 20
13.588331
 30
0.0
 70
     8
  0
VERTEX
  8
LJHFV
 10
11.281423
 20
13.577692
 30
0.0
 70
     8
  0
VERTEX
  8
LJHFV
 10
11.282428
 20
13.567022
 30
0.0
 70
     8
  0
VERTEX
  8
LJHFV
 10
11.282217
 20
13.556554
 30
0.0
 70
     8
  0
VERTEX
  8
LJHFV
 10
11.279894
 20
13.546519
 30
0.0
 70
     8
  0
VERTEX
  8
LJHFV
 10
11.274566
 20
13.537149
 30
0.0
 70
     8
  0
VERTEX
  8
LJHFV
 10
11.265927
 20
13.52846
 30
0.0
 70
     8
  0
VERTEX
  8
LJHFV
 10
11.256026
 20
13.519607
 30
0.0
 70
     8
  0
VERTEX
  8
LJHFV
 10
11.2475
 20
13.509527
 30
0.0
 70
     8
  0
VERTEX
  8
LJHFV
 10
11.242986
 20
13.49716
 30
0.0
 70
     8
  0
VERTEX
  8
LJHFV
 10
11.245123
 20
13.481443
 30
0.0
 70
     8
  0
VERTEX
  8
LJHFV
 10
11.256548
 20
13.461316
 30
0.0
 70
     8
  0
VERTEX
  8
LJHFV
 10
11.279897
 20
13.435715
 30
0.0
 70
     8
  0
VERTEX
  8
LJHFV
 10
11.317808
 20
13.403581
 30
0.0
 70
     8
  0
VERTEX
  8
LJHFV
 10
11.277264
 20
13.748598
 30
0.0
 70
    16
  0
VERTEX
  8
LJHFV
 10
11.388907
 20
13.667023
 30
0.0
 70
    16
  0
VERTEX
  8
LJHFV
 10
11.248407
 20
13.627966
 30
0.0
 70
    16
  0
VERTEX
  8
LJHFV
 10
11.316161
 20
13.527581
 30
0.0
 70
    16
  0
VERTEX
  8
LJHFV
 10
11.19495
 20
13.498929
 30
0.0
 70
    16
  0
VERTEX
  8
LJHFV
 10
11.317808
 20
13.403581
 30
0.0
 70
    16
  0
SEQEND
  8
LJHFV
  0
POLYLINE
  8
LJHFV
 66
     1
 10
0.0
 20
0.0
 30
0.0
 70
     4
 75
     6
  0
VERTEX
  8
LJHFV
 10
13.37559
 20
13.795581
 30
0.0
 70
    16
  0
VERTEX
  8
LJHFV
 10
13.37559
 20
13.795581
 30
0.0
 70
     8
  0
VERTEX
  8
LJHFV
 10
13.402662
 20
13.778268
 30
0.0
 70
     8
  0
VERTEX
  8
LJHFV
 10
13.418431
 20
13.761626
 30
0.0
 70
     8
  0
VERTEX
  8
LJHFV
 10
13.425198
 20
13.745745
 30
0.0
 70
     8
  0
VERTEX
  8
LJHFV
 10
13.425265
 20
13.730714
 30
0.0
 70
     8
  0
VERTEX
  8
LJHFV
 10
13.420935
 20
13.716626
 30
0.0
 70
     8
  0
VERTEX
  8
LJHFV
 10
13.41451
 20
13.703568
 30
0.0
 70
     8
  0
VERTEX
  8
LJHFV
 10
13.408293
 20
13.691632
 30
0.0
 70
     8
  0
VERTEX
  8
LJHFV
 10
13.404586
 20
13.680907
 30
0.0
 70
     8
  0
VERTEX
  8
LJHFV
 10
13.405138
 20
13.671422
 30
0.0
 70
     8
  0
VERTEX
  8
LJHFV
 10
13.409495
 20
13.662957
 30
0.0
 70
     8
  0
VERTEX
  8
LJHFV
 10
13.416647
 20
13.655227
 30
0.0
 70
     8
  0
VERTEX
  8
LJHFV
 10
13.425586
 20
13.647952
 30
0.0
 70
     8
  0
VERTEX
  8
LJHFV
 10
13.435304
 20
13.640849
 30
0.0
 70
     8
  0
VERTEX
  8
LJHFV
 10
13.444793
 20
13.633635
 30
0.0
 70
     8
  0
VERTEX
  8
LJHFV
 10
13.453044
 20
13.626028
 30
0.0
 70
     8
  0
VERTEX
  8
LJHFV
 10
13.459049
 20
13.617745
 30
0.0
 70
     8
  0
VERTEX
  8
LJHFV
 10
13.462118
 20
13.608589
 30
0.0
 70
     8
  0
VERTEX
  8
LJHFV
 10
13.462827
 20
13.598707
 30
0.0
 70
     8
  0
VERTEX
  8
LJHFV
 10
13.46207
 20
13.588331
 30
0.0
 70
     8
  0
VERTEX
  8
LJHFV
 10
13.460742
 20
13.577692
 30
0.0
 70
     8
  0
VERTEX
  8
LJHFV
 10
13.459737
 20
13.567022
 30
0.0
 70
     8
  0
VERTEX
  8
LJHFV
 10
13.459949
 20
13.556554
 30
0.0
 70
     8
  0
VERTEX
  8
LJHFV
 10
13.462272
 20
13.546519
 30
0.0
 70
     8
  0
VERTEX
  8
LJHFV
 10
13.4676
 20
13.537149
 30
0.0
 70
     8
  0
VERTEX
  8
LJHFV
 10
13.476239
 20
13.52846
 30
0.0
 70
     8
  0
VERTEX
  8
LJHFV
 10
13.48614
 20
13.519607
 30
0.0
 70
     8
  0
VERTEX
  8
LJHFV
 10
13.494666
 20
13.509527
 30
0.0
 70
     8
  0
VERTEX
  8
LJHFV
 10
13.499179
 20
13.49716
 30
0.0
 70
     8
  0
VERTEX
  8
LJHFV
 10
13.497042
 20
13.481443
 30
0.0
 70
     8
  0
VERTEX
  8
LJHFV
 10
13.485618
 20
13.461316
 30
0.0
 70
     8
  0
VERTEX
  8
LJHFV
 10
13.462268
 20
13.435715
 30
0.0
 70
     8
  0
VERTEX
  8
LJHFV
 10
13.424357
 20
13.403581
 30
0.0
 70
     8
  0
VERTEX
  8
LJHFV
 10
13.464902
 20
13.748598
 30
0.0
 70
    16
  0
VERTEX
  8
LJHFV
 10
13.353258
 20
13.667023
 30
0.0
 70
    16
  0
VERTEX
  8
LJHFV
 10
13.493759
 20
13.627966
 30
0.0
 70
    16
  0
VERTEX
  8
LJHFV
 10
13.426005
 20
13.527581
 30
0.0
 70
    16
  0
VERTEX
  8
LJHFV
 10
13.547215
 20
13.498929
 30
0.0
 70
    16
  0
VERTEX
  8
LJHFV
 10
13.424357
 20
13.403581
 30
0.0
 70
    16
  0
SEQEND
  8
LJHFV
  0
LINE
  8
OBJECT
 10
5.306004
 20
7.874801
 30
0.0
 11
5.306004
 21
2.710801
 31
0.0
  0
LINE
  8
OBJECT
 10
5.306004
 20
2.710801
 30
0.0
 11
2.502004
 21
2.710801
 31
0.0
  0
LINE
  8
OBJECT
 10
2.502004
 20
2.710801
 30
0.0
 11
2.502004
 21
7.874801
 31
0.0
  0
LINE
  8
OBJECT
 10
2.528004
 20
2.736801
 30
0.0
 11
2.528004
 21
7.848801
 31
0.0
  0
LINE
  8
OBJECT
 10
5.280004
 20
2.736801
 30
0.0
 11
2.528004
 21
2.736801
 31
0.0
  0
LINE
  8
OBJECT
 10
5.280004
 20
7.848801
 30
0.0
 11
5.280004
 21
2.736801
 31
0.0
  0
LINE
  8
CENTER
 10
3.904004
 20
2.926301
 30
0.0
 11
3.904004
 21
2.547301
 31
0.0
  0
LINE
  8
OBJECT
 10
3.941004
 20
2.787801
 30
0.0
 11
3.941004
 21
2.736801
 31
0.0
  0
LINE
  8
OBJECT
 10
4.004004
 20
2.787801
 30
0.0
 11
4.004004
 21
2.736801
 31
0.0
  0
LINE
  8
OBJECT
 10
4.004004
 20
2.787801
 30
0.0
 11
3.941004
 21
2.787801
 31
0.0
  0
LINE
  8
OBJECT
 10
3.804004
 20
2.787801
 30
0.0
 11
3.867004
 21
2.787801
 31
0.0
  0
LINE
  8
OBJECT
 10
3.804004
 20
2.787801
 30
0.0
 11
3.804004
 21
2.736801
 31
0.0
  0
LINE
  8
OBJECT
 10
3.867004
 20
2.787801
 30
0.0
 11
3.867004
 21
2.736801
 31
0.0
  0
LINE
  8
CENTER
 10
4.689004
 20
2.926301
 30
0.0
 11
4.689004
 21
2.547301
 31
0.0
  0
LINE
  8
OBJECT
 10
4.789004
 20
2.787801
 30
0.0
 11
4.726004
 21
2.787801
 31
0.0
  0
LINE
  8
OBJECT
 10
4.726004
 20
2.787801
 30
0.0
 11
4.726004
 21
2.736801
 31
0.0
  0
LINE
  8
OBJECT
 10
4.589004
 20
2.787801
 30
0.0
 11
4.652004
 21
2.787801
 31
0.0
  0
LINE
  8
OBJECT
 10
4.589004
 20
2.787801
 30
0.0
 11
4.589004
 21
2.736801
 31
0.0
  0
LINE
  8
OBJECT
 10
4.652004
 20
2.787801
 30
0.0
 11
4.652004
 21
2.736801
 31
0.0
  0
LINE
  8
OBJECT
 10
4.789004
 20
2.787801
 30
0.0
 11
4.789004
 21
2.736801
 31
0.0
  0
LINE
  8
CENTER
 10
3.119004
 20
2.926301
 30
0.0
 11
3.119004
 21
2.547301
 31
0.0
  0
LINE
  8
OBJECT
 10
3.219004
 20
2.787801
 30
0.0
 11
3.156004
 21
2.787801
 31
0.0
  0
LINE
  8
OBJECT
 10
3.156004
 20
2.787801
 30
0.0
 11
3.156004
 21
2.736801
 31
0.0
  0
LINE
  8
OBJECT
 10
3.019004
 20
2.787801
 30
0.0
 11
3.082004
 21
2.787801
 31
0.0
  0
LINE
  8
OBJECT
 10
3.019004
 20
2.787801
 30
0.0
 11
3.019004
 21
2.736801
 31
0.0
  0
LINE
  8
OBJECT
 10
3.082004
 20
2.787801
 30
0.0
 11
3.082004
 21
2.736801
 31
0.0
  0
LINE
  8
OBJECT
 10
3.219004
 20
2.787801
 30
0.0
 11
3.219004
 21
2.736801
 31
0.0
  0
LINE
  8
OBJECT
 10
2.502004
 20
7.874801
 30
0.0
 11
5.306004
 21
7.874801
 31
0.0
  0
LINE
  8
OBJECT
 10
2.528004
 20
7.848801
 30
0.0
 11
5.280004
 21
7.848801
 31
0.0
  0
LINE
  8
CENTER
 10
3.119004
 20
7.659301
 30
0.0
 11
3.119004
 21
8.038301
 31
0.0
  0
LINE
  8
OBJECT
 10
3.019004
 20
7.797801
 30
0.0
 11
3.082004
 21
7.797801
 31
0.0
  0
LINE
  8
OBJECT
 10
3.019004
 20
7.797801
 30
0.0
 11
3.019004
 21
7.848801
 31
0.0
  0
LINE
  8
OBJECT
 10
3.219004
 20
7.797801
 30
0.0
 11
3.156004
 21
7.797801
 31
0.0
  0
LINE
  8
OBJECT
 10
3.082004
 20
7.797801
 30
0.0
 11
3.082004
 21
7.848801
 31
0.0
  0
LINE
  8
OBJECT
 10
3.156004
 20
7.797801
 30
0.0
 11
3.156004
 21
7.848801
 31
0.0
  0
LINE
  8
OBJECT
 10
3.219004
 20
7.797801
 30
0.0
 11
3.219004
 21
7.848801
 31
0.0
  0
LINE
  8
CENTER
 10
4.689004
 20
7.659301
 30
0.0
 11
4.689004
 21
8.038301
 31
0.0
  0
LINE
  8
CENTER
 10
3.904004
 20
7.659301
 30
0.0
 11
3.904004
 21
8.038301
 31
0.0
  0
LINE
  8
OBJECT
 10
4.004004
 20
7.797801
 30
0.0
 11
3.941004
 21
7.797801
 31
0.0
  0
LINE
  8
OBJECT
 10
3.941004
 20
7.797801
 30
0.0
 11
3.941004
 21
7.848801
 31
0.0
  0
LINE
  8
OBJECT
 10
3.804004
 20
7.797801
 30
0.0
 11
3.867004
 21
7.797801
 31
0.0
  0
LINE
  8
OBJECT
 10
3.804004
 20
7.797801
 30
0.0
 11
3.804004
 21
7.848801
 31
0.0
  0
LINE
  8
OBJECT
 10
3.867004
 20
7.797801
 30
0.0
 11
3.867004
 21
7.848801
 31
0.0
  0
LINE
  8
OBJECT
 10
4.004004
 20
7.797801
 30
0.0
 11
4.004004
 21
7.848801
 31
0.0
  0
LINE
  8
OBJECT
 10
4.652004
 20
7.797801
 30
0.0
 11
4.652004
 21
7.848801
 31
0.0
  0
LINE
  8
OBJECT
 10
4.589004
 20
7.797801
 30
0.0
 11
4.589004
 21
7.848801
 31
0.0
  0
LINE
  8
OBJECT
 10
4.589004
 20
7.797801
 30
0.0
 11
4.652004
 21
7.797801
 31
0.0
  0
LINE
  8
OBJECT
 10
4.789004
 20
7.797801
 30
0.0
 11
4.789004
 21
7.848801
 31
0.0
  0
LINE
  8
OBJECT
 10
4.726004
 20
7.797801
 30
0.0
 11
4.726004
 21
7.848801
 31
0.0
  0
LINE
  8
OBJECT
 10
4.789004
 20
7.797801
 30
0.0
 11
4.726004
 21
7.797801
 31
0.0
  0
LINE
  8
CENTER
 10
5.090504
 20
5.292801
 30
0.0
 11
5.469504
 21
5.292801
 31
0.0
  0
LINE
  8
OBJECT
 10
5.229004
 20
5.192801
 30
0.0
 11
5.229004
 21
5.255801
 31
0.0
  0
LINE
  8
OBJECT
 10
5.229004
 20
5.329801
 30
0.0
 11
5.280004
 21
5.329801
 31
0.0
  0
LINE
  8
OBJECT
 10
5.229004
 20
5.392801
 30
0.0
 11
5.280004
 21
5.392801
 31
0.0
  0
LINE
  8
OBJECT
 10
5.229004
 20
5.392801
 30
0.0
 11
5.229004
 21
5.329801
 31
0.0
  0
LINE
  8
OBJECT
 10
5.229004
 20
5.255801
 30
0.0
 11
5.280004
 21
5.255801
 31
0.0
  0
LINE
  8
OBJECT
 10
5.229004
 20
5.192801
 30
0.0
 11
5.280004
 21
5.192801
 31
0.0
  0
LINE
  8
OBJECT
 10
5.229004
 20
5.977801
 30
0.0
 11
5.229004
 21
6.040801
 31
0.0
  0
LINE
  8
OBJECT
 10
5.229004
 20
6.040801
 30
0.0
 11
5.280004
 21
6.040801
 31
0.0
  0
LINE
  8
OBJECT
 10
5.229004
 20
5.977801
 30
0.0
 11
5.280004
 21
5.977801
 31
0.0
  0
LINE
  8
CENTER
 10
5.090504
 20
6.077801
 30
0.0
 11
5.469504
 21
6.077801
 31
0.0
  0
LINE
  8
OBJECT
 10
5.229004
 20
6.177801
 30
0.0
 11
5.229004
 21
6.114801
 31
0.0
  0
LINE
  8
OBJECT
 10
5.229004
 20
6.177801
 30
0.0
 11
5.280004
 21
6.177801
 31
0.0
  0
LINE
  8
OBJECT
 10
5.229004
 20
6.114801
 30
0.0
 11
5.280004
 21
6.114801
 31
0.0
  0
LINE
  8
OBJECT
 10
5.229004
 20
6.962801
 30
0.0
 11
5.229004
 21
6.899801
 31
0.0
  0
LINE
  8
CENTER
 10
5.090504
 20
6.862801
 30
0.0
 11
5.469504
 21
6.862801
 31
0.0
  0
LINE
  8
OBJECT
 10
5.229004
 20
6.899801
 30
0.0
 11
5.280004
 21
6.899801
 31
0.0
  0
LINE
  8
OBJECT
 10
5.229004
 20
6.762801
 30
0.0
 11
5.280004
 21
6.762801
 31
0.0
  0
LINE
  8
OBJECT
 10
5.229004
 20
6.825801
 30
0.0
 11
5.280004
 21
6.825801
 31
0.0
  0
LINE
  8
OBJECT
 10
5.229004
 20
6.762801
 30
0.0
 11
5.229004
 21
6.825801
 31
0.0
  0
LINE
  8
OBJECT
 10
5.229004
 20
6.962801
 30
0.0
 11
5.280004
 21
6.962801
 31
0.0
  0
LINE
  8
OBJECT
 10
5.229004
 20
4.407801
 30
0.0
 11
5.229004
 21
4.470801
 31
0.0
  0
LINE
  8
OBJECT
 10
5.229004
 20
4.470801
 30
0.0
 11
5.280004
 21
4.470801
 31
0.0
  0
LINE
  8
OBJECT
 10
5.229004
 20
4.407801
 30
0.0
 11
5.280004
 21
4.407801
 31
0.0
  0
LINE
  8
CENTER
 10
5.090504
 20
4.507801
 30
0.0
 11
5.469504
 21
4.507801
 31
0.0
  0
LINE
  8
OBJECT
 10
5.229004
 20
4.607801
 30
0.0
 11
5.229004
 21
4.544801
 31
0.0
  0
LINE
  8
OBJECT
 10
5.229004
 20
4.607801
 30
0.0
 11
5.280004
 21
4.607801
 31
0.0
  0
LINE
  8
OBJECT
 10
5.229004
 20
4.544801
 30
0.0
 11
5.280004
 21
4.544801
 31
0.0
  0
LINE
  8
OBJECT
 10
5.229004
 20
3.622801
 30
0.0
 11
5.229004
 21
3.685801
 31
0.0
  0
LINE
  8
OBJECT
 10
5.229004
 20
3.685801
 30
0.0
 11
5.280004
 21
3.685801
 31
0.0
  0
LINE
  8
OBJECT
 10
5.229004
 20
3.622801
 30
0.0
 11
5.280004
 21
3.622801
 31
0.0
  0
LINE
  8
CENTER
 10
5.090504
 20
3.722801
 30
0.0
 11
5.469504
 21
3.722801
 31
0.0
  0
LINE
  8
OBJECT
 10
5.229004
 20
3.822801
 30
0.0
 11
5.229004
 21
3.759801
 31
0.0
  0
LINE
  8
OBJECT
 10
5.229004
 20
3.822801
 30
0.0
 11
5.280004
 21
3.822801
 31
0.0
  0
LINE
  8
OBJECT
 10
5.229004
 20
3.759801
 30
0.0
 11
5.280004
 21
3.759801
 31
0.0
  0
LINE
  8
OBJECT
 10
2.579004
 20
4.407801
 30
0.0
 11
2.579004
 21
4.470801
 31
0.0
  0
LINE
  8
CENTER
 10
2.717504
 20
3.722801
 30
0.0
 11
2.338504
 21
3.722801
 31
0.0
  0
LINE
  8
OBJECT
 10
2.579004
 20
3.822801
 30
0.0
 11
2.579004
 21
3.759801
 31
0.0
  0
LINE
  8
OBJECT
 10
2.579004
 20
3.759801
 30
0.0
 11
2.528004
 21
3.759801
 31
0.0
  0
LINE
  8
OBJECT
 10
2.579004
 20
3.622801
 30
0.0
 11
2.528004
 21
3.622801
 31
0.0
  0
LINE
  8
OBJECT
 10
2.579004
 20
3.685801
 30
0.0
 11
2.528004
 21
3.685801
 31
0.0
  0
LINE
  8
OBJECT
 10
2.579004
 20
3.622801
 30
0.0
 11
2.579004
 21
3.685801
 31
0.0
  0
LINE
  8
OBJECT
 10
2.579004
 20
3.822801
 30
0.0
 11
2.528004
 21
3.822801
 31
0.0
  0
LINE
  8
OBJECT
 10
2.579004
 20
4.407801
 30
0.0
 11
2.528004
 21
4.407801
 31
0.0
  0
LINE
  8
CENTER
 10
2.717504
 20
4.507801
 30
0.0
 11
2.338504
 21
4.507801
 31
0.0
  0
LINE
  8
OBJECT
 10
2.579004
 20
4.544801
 30
0.0
 11
2.528004
 21
4.544801
 31
0.0
  0
LINE
  8
OBJECT
 10
2.579004
 20
4.607801
 30
0.0
 11
2.528004
 21
4.607801
 31
0.0
  0
LINE
  8
OBJECT
 10
2.579004
 20
4.607801
 30
0.0
 11
2.579004
 21
4.544801
 31
0.0
  0
LINE
  8
OBJECT
 10
2.579004
 20
4.470801
 30
0.0
 11
2.528004
 21
4.470801
 31
0.0
  0
LINE
  8
OBJECT
 10
2.579004
 20
5.192801
 30
0.0
 11
2.579004
 21
5.255801
 31
0.0
  0
LINE
  8
OBJECT
 10
2.579004
 20
5.255801
 30
0.0
 11
2.528004
 21
5.255801
 31
0.0
  0
LINE
  8
OBJECT
 10
2.579004
 20
5.192801
 30
0.0
 11
2.528004
 21
5.192801
 31
0.0
  0
LINE
  8
OBJECT
 10
2.579004
 20
6.177801
 30
0.0
 11
2.579004
 21
6.114801
 31
0.0
  0
LINE
  8
CENTER
 10
2.717504
 20
6.077801
 30
0.0
 11
2.338504
 21
6.077801
 31
0.0
  0
LINE
  8
CENTER
 10
2.717504
 20
5.292801
 30
0.0
 11
2.338504
 21
5.292801
 31
0.0
  0
LINE
  8
OBJECT
 10
2.579004
 20
5.392801
 30
0.0
 11
2.579004
 21
5.329801
 31
0.0
  0
LINE
  8
OBJECT
 10
2.579004
 20
5.392801
 30
0.0
 11
2.528004
 21
5.392801
 31
0.0
  0
LINE
  8
OBJECT
 10
2.579004
 20
5.329801
 30
0.0
 11
2.528004
 21
5.329801
 31
0.0
  0
LINE
  8
OBJECT
 10
2.579004
 20
6.114801
 30
0.0
 11
2.528004
 21
6.114801
 31
0.0
  0
LINE
  8
OBJECT
 10
2.579004
 20
5.977801
 30
0.0
 11
2.528004
 21
5.977801
 31
0.0
  0
LINE
  8
OBJECT
 10
2.579004
 20
6.040801
 30
0.0
 11
2.528004
 21
6.040801
 31
0.0
  0
LINE
  8
OBJECT
 10
2.579004
 20
5.977801
 30
0.0
 11
2.579004
 21
6.040801
 31
0.0
  0
LINE
  8
CENTER
 10
2.717504
 20
6.862801
 30
0.0
 11
2.338504
 21
6.862801
 31
0.0
  0
LINE
  8
OBJECT
 10
2.579004
 20
6.177801
 30
0.0
 11
2.528004
 21
6.177801
 31
0.0
  0
LINE
  8
OBJECT
 10
2.579004
 20
6.762801
 30
0.0
 11
2.579004
 21
6.825801
 31
0.0
  0
LINE
  8
OBJECT
 10
2.579004
 20
6.762801
 30
0.0
 11
2.528004
 21
6.762801
 31
0.0
  0
LINE
  8
OBJECT
 10
2.579004
 20
6.962801
 30
0.0
 11
2.528004
 21
6.962801
 31
0.0
  0
LINE
  8
OBJECT
 10
2.579004
 20
6.825801
 30
0.0
 11
2.528004
 21
6.825801
 31
0.0
  0
LINE
  8
OBJECT
 10
2.579004
 20
6.899801
 30
0.0
 11
2.528004
 21
6.899801
 31
0.0
  0
LINE
  8
OBJECT
 10
2.579004
 20
6.962801
 30
0.0
 11
2.579004
 21
6.899801
 31
0.0
  0
CIRCLE
  8
OBJECT
 10
2.709004
 20
2.927801
 30
0.0
 40
0.0445
  0
CIRCLE
  8
OBJECT
 10
2.709004
 20
2.927801
 30
0.0
 40
0.117
  0
CIRCLE
  8
OBJECT
 10
5.099004
 20
2.927801
 30
0.0
 40
0.117
  0
CIRCLE
  8
OBJECT
 10
5.099004
 20
2.927801
 30
0.0
 40
0.0445
  0
LINE
  8
OBJECT
 10
5.084004
 20
2.811767
 30
0.0
 11
5.084004
 21
2.736801
 31
0.0
  0
LINE
  8
OBJECT
 10
5.114004
 20
2.811767
 30
0.0
 11
5.114004
 21
2.736801
 31
0.0
  0
LINE
  8
OBJECT
 10
5.215038
 20
2.912801
 30
0.0
 11
5.280004
 21
2.912801
 31
0.0
  0
LINE
  8
OBJECT
 10
5.215038
 20
2.942801
 30
0.0
 11
5.280004
 21
2.942801
 31
0.0
  0
CIRCLE
  8
OBJECT
 10
2.709004
 20
7.657801
 30
0.0
 40
0.117
  0
CIRCLE
  8
OBJECT
 10
2.709004
 20
7.657801
 30
0.0
 40
0.0445
  0
LINE
  8
OBJECT
 10
2.724004
 20
7.773836
 30
0.0
 11
2.724004
 21
7.848801
 31
0.0
  0
LINE
  8
OBJECT
 10
2.694004
 20
7.773836
 30
0.0
 11
2.694004
 21
7.848801
 31
0.0
  0
LINE
  8
OBJECT
 10
2.592969
 20
7.672801
 30
0.0
 11
2.528004
 21
7.672801
 31
0.0
  0
LINE
  8
OBJECT
 10
2.592969
 20
7.642801
 30
0.0
 11
2.528004
 21
7.642801
 31
0.0
  0
CIRCLE
  8
OBJECT
 10
5.099004
 20
7.657801
 30
0.0
 40
0.117
  0
CIRCLE
  8
OBJECT
 10
5.099004
 20
7.657801
 30
0.0
 40
0.0445
  0
LINE
  8
OBJECT
 10
5.114004
 20
7.773836
 30
0.0
 11
5.114004
 21
7.848801
 31
0.0
  0
LINE
  8
OBJECT
 10
5.084004
 20
7.773836
 30
0.0
 11
5.084004
 21
7.848801
 31
0.0
  0
LINE
  8
OBJECT
 10
5.215038
 20
7.642801
 30
0.0
 11
5.280004
 21
7.642801
 31
0.0
  0
LINE
  8
OBJECT
 10
5.215038
 20
7.672801
 30
0.0
 11
5.280004
 21
7.672801
 31
0.0
  0
DIMENSION
  8
DIM
  2
*D49
 10
4.689004
 20
9.40213
 30
0.0
 11
5.790957
 21
9.40213
 31
0.0
 13
3.904004
 23
8.038301
 33
0.0
 14
4.689004
 24
8.038301
 34
0.0
  3
23NSTD
  0
ARC
  8
OBJECT
 10
11.723554
 20
2.753801
 30
0.0
 40
0.093
 50
270.855275
 51
0.0
  0
LINE
  8
OBJECT
 10
10.250554
 20
2.638801
 30
0.0
 11
11.724942
 21
2.660812
 31
0.0
  0
LINE
  8
OBJECT
 10
11.240554
 20
7.848801
 30
0.0
 11
10.324554
 21
7.848801
 31
0.0
  0
LINE
  8
OBJECT
 10
10.409054
 20
5.329801
 30
0.0
 11
11.708554
 21
5.329801
 31
0.0
  0
LINE
  8
OBJECT
 10
10.409054
 20
5.392801
 30
0.0
 11
11.708554
 21
5.392801
 31
0.0
  0
LINE
  8
OBJECT
 10
10.409054
 20
5.192801
 30
0.0
 11
11.708554
 21
5.192801
 31
0.0
  0
LINE
  8
OBJECT
 10
10.409054
 20
5.255801
 30
0.0
 11
11.708554
 21
5.255801
 31
0.0
  0
LINE
  8
OBJECT
 10
10.250554
 20
7.946801
 30
0.0
 11
11.724942
 21
7.924791
 31
0.0
  0
LINE
  8
OBJECT
 10
10.322554
 20
2.883301
 30
0.0
 11
11.090554
 21
2.883301
 31
0.0
  0
LINE
  8
OBJECT
 10
10.322554
 20
2.972301
 30
0.0
 11
11.090554
 21
2.972301
 31
0.0
  0
LINE
  8
OBJECT
 10
10.322554
 20
3.044801
 30
0.0
 11
11.708554
 21
3.044801
 31
0.0
  0
LINE
  8
OBJECT
 10
10.322554
 20
2.810801
 30
0.0
 11
11.240554
 21
2.810801
 31
0.0
  0
LINE
  8
OBJECT
 10
10.409054
 20
3.759801
 30
0.0
 11
11.708554
 21
3.759801
 31
0.0
  0
LINE
  8
OBJECT
 10
10.409054
 20
3.822801
 30
0.0
 11
11.708554
 21
3.822801
 31
0.0
  0
LINE
  8
OBJECT
 10
10.409054
 20
4.407801
 30
0.0
 11
11.708554
 21
4.407801
 31
0.0
  0
LINE
  8
OBJECT
 10
10.409054
 20
4.470801
 30
0.0
 11
11.708554
 21
4.470801
 31
0.0
  0
LINE
  8
OBJECT
 10
10.409054
 20
4.544801
 30
0.0
 11
11.708554
 21
4.544801
 31
0.0
  0
LINE
  8
OBJECT
 10
10.409054
 20
4.607801
 30
0.0
 11
11.708554
 21
4.607801
 31
0.0
  0
LINE
  8
OBJECT
 10
10.409054
 20
3.622801
 30
0.0
 11
11.708554
 21
3.622801
 31
0.0
  0
LINE
  8
OBJECT
 10
10.409054
 20
3.685801
 30
0.0
 11
11.708554
 21
3.685801
 31
0.0
  0
LINE
  8
OBJECT
 10
11.240554
 20
2.736801
 30
0.0
 11
10.324554
 21
2.736801
 31
0.0
  0
LINE
  8
OBJECT
 10
11.816554
 20
2.753801
 30
0.0
 11
11.816554
 21
7.831801
 31
0.0
  0
LINE
  8
OBJECT
 10
11.708554
 20
3.044801
 30
0.0
 11
11.708554
 21
7.540801
 31
0.0
  0
ARC
  8
OBJECT
 10
11.723554
 20
7.831801
 30
0.0
 40
0.093
 50
0.0
 51
89.144725
  0
LINE
  8
OBJECT
 10
10.324554
 20
2.710801
 30
0.0
 11
10.324554
 21
2.810801
 31
0.0
  0
ARC
  8
OBJECT
 10
10.409054
 20
3.654301
 30
0.0
 40
0.0315
 50
90.0
 51
270.0
  0
LINE
  8
OBJECT
 10
10.322554
 20
2.810801
 30
0.0
 11
10.322554
 21
3.044801
 31
0.0
  0
LINE
  8
OBJECT
 10
10.250554
 20
2.710801
 30
0.0
 11
10.324554
 21
2.710801
 31
0.0
  0
ARC
  8
OBJECT
 10
10.409054
 20
3.791301
 30
0.0
 40
0.0315
 50
90.0
 51
270.0
  0
ARC
  8
OBJECT
 10
10.409054
 20
4.576301
 30
0.0
 40
0.0315
 50
90.0
 51
270.0
  0
ARC
  8
OBJECT
 10
10.409054
 20
4.439301
 30
0.0
 40
0.0315
 50
90.0
 51
270.0
  0
ARC
  8
OBJECT
 10
10.409054
 20
5.224301
 30
0.0
 40
0.0315
 50
90.0
 51
270.0
  0
ARC
  8
OBJECT
 10
10.409054
 20
5.361301
 30
0.0
 40
0.0315
 50
90.0
 51
270.0
  0
LINE
  8
OBJECT
 10
10.250554
 20
7.874801
 30
0.0
 11
10.324554
 21
7.874801
 31
0.0
  0
LINE
  8
OBJECT
 10
11.240554
 20
2.736801
 30
0.0
 11
11.240554
 21
2.810801
 31
0.0
  0
DIMENSION
  8
DIM
  2
*D26
 10
11.708554
 20
1.625991
 30
0.0
 11
12.810507
 21
1.625991
 31
0.0
 13
11.240554
 23
2.736801
 33
0.0
 14
11.708554
 24
3.044801
 34
0.0
  3
23NSTD
  0
ARC
  8
OBJECT
 10
10.409054
 20
6.794301
 30
0.0
 40
0.0315
 50
90.0
 51
270.0
  0
LINE
  8
OBJECT
 10
10.409054
 20
6.899801
 30
0.0
 11
11.708554
 21
6.899801
 31
0.0
  0
LINE
  8
OBJECT
 10
10.409054
 20
6.962801
 30
0.0
 11
11.708554
 21
6.962801
 31
0.0
  0
LINE
  8
OBJECT
 10
10.409054
 20
6.825801
 30
0.0
 11
11.708554
 21
6.825801
 31
0.0
  0
ARC
  8
OBJECT
 10
10.409054
 20
6.931301
 30
0.0
 40
0.0315
 50
90.0
 51
270.0
  0
LINE
  8
OBJECT
 10
10.409054
 20
5.977801
 30
0.0
 11
11.708554
 21
5.977801
 31
0.0
  0
LINE
  8
OBJECT
 10
10.409054
 20
6.040801
 30
0.0
 11
11.708554
 21
6.040801
 31
0.0
  0
LINE
  8
OBJECT
 10
10.409054
 20
6.114801
 30
0.0
 11
11.708554
 21
6.114801
 31
0.0
  0
LINE
  8
OBJECT
 10
10.409054
 20
6.177801
 30
0.0
 11
11.708554
 21
6.177801
 31
0.0
  0
LINE
  8
OBJECT
 10
10.409054
 20
6.762801
 30
0.0
 11
11.708554
 21
6.762801
 31
0.0
  0
ARC
  8
OBJECT
 10
10.409054
 20
6.146301
 30
0.0
 40
0.0315
 50
90.0
 51
270.0
  0
ARC
  8
OBJECT
 10
10.409054
 20
6.009301
 30
0.0
 40
0.0315
 50
90.0
 51
270.0
  0
LINE
  8
OBJECT
 10
10.322554
 20
7.774801
 30
0.0
 11
11.240554
 21
7.774801
 31
0.0
  0
LINE
  8
OBJECT
 10
10.322554
 20
7.540801
 30
0.0
 11
11.708554
 21
7.540801
 31
0.0
  0
LINE
  8
OBJECT
 10
10.322554
 20
7.613301
 30
0.0
 11
11.090554
 21
7.613301
 31
0.0
  0
LINE
  8
OBJECT
 10
10.322554
 20
7.702301
 30
0.0
 11
11.090554
 21
7.702301
 31
0.0
  0
LINE
  8
OBJECT
 10
10.322554
 20
7.774801
 30
0.0
 11
10.322554
 21
7.540801
 31
0.0
  0
LINE
  8
OBJECT
 10
11.240554
 20
7.848801
 30
0.0
 11
11.240554
 21
7.774801
 31
0.0
  0
LINE
  8
OBJECT
 10
11.090554
 20
2.883301
 30
0.0
 11
11.090554
 21
2.972301
 31
0.0
  0
LINE
  8
OBJECT
 10
11.090554
 20
7.702301
 30
0.0
 11
11.090554
 21
7.613301
 31
0.0
  0
LINE
  8
OBJECT
 10
11.317808
 20
13.403581
 30
0.0
 11
13.424357
 21
13.403581
 31
0.0
  0
LINE
  8
OBJECT
 10
11.31623
 20
13.507581
 30
0.0
 11
13.425936
 21
13.507581
 31
0.0
  0
LINE
  8
OBJECT
 10
11.366575
 20
13.795581
 30
0.0
 11
13.37559
 21
13.795581
 31
0.0
  0
LINE
  8
OBJECT
 10
11.975083
 20
13.199581
 30
0.0
 11
12.227083
 21
13.199581
 31
0.0
  0
LINE
  8
OBJECT
 10
11.975083
 20
13.199581
 30
0.0
 11
11.975083
 21
13.403581
 31
0.0
  0
LINE
  8
OBJECT
 10
12.227083
 20
13.199581
 30
0.0
 11
12.227083
 21
13.403581
 31
0.0
  0
LINE
  8
OBJECT
 10
12.775083
 20
13.199581
 30
0.0
 11
12.523083
 21
13.199581
 31
0.0
  0
LINE
  8
OBJECT
 10
12.523083
 20
13.199581
 30
0.0
 11
12.523083
 21
13.403581
 31
0.0
  0
LINE
  8
OBJECT
 10
12.775083
 20
13.199581
 30
0.0
 11
12.775083
 21
13.403581
 31
0.0
  0
INSERT
  8
HATCH
  2
*X0
 10
-0.599968
 20
-3.250082
 30
0.0
1001
ACAD
1000
HATCH
1002
{
1070
    16
1000
ANSI31
1040
0.75
1040
0.0
1002
}
  0
DIMENSION
  8
DIM
  2
*D25
 10
11.724942
 20
7.924791
 30
0.0
 11
12.476021
 21
8.83307
 31
0.0
 70
   130
  1
<> DRAFT REF.
 13
10.250554
 23
7.946801
 33
0.0
 14
11.126445
 24
7.946801
 34
0.0
 15
10.250554
 25
7.946801
 35
0.0
 16
12.666274
 26
7.915519
 36
0.0
  3
23NSTD
  0
LINE
  8
OBJECT
 10
17.14493
 20
2.641801
 30
0.0
 11
19.90093
 21
2.641801
 31
0.0
  0
LINE
  8
OBJECT
 10
19.99393
 20
2.734801
 30
0.0
 11
19.99393
 21
7.850801
 31
0.0
  0
LINE
  8
OBJECT
 10
17.14493
 20
7.943801
 30
0.0
 11
19.90093
 21
7.943801
 31
0.0
  0
LINE
  8
OBJECT
 10
17.05193
 20
2.734801
 30
0.0
 11
17.05193
 21
7.850801
 31
0.0
  0
ARC
  8
OBJECT
 10
19.90093
 20
2.734801
 30
0.0
 40
0.093
 50
270.0
 51
0.0
  0
ARC
  8
OBJECT
 10
17.14493
 20
2.734801
 30
0.0
 40
0.093
 50
180.0
 51
270.0
  0
ARC
  8
OBJECT
 10
17.14493
 20
7.850801
 30
0.0
 40
0.093
 50
90.0
 51
180.0
  0
ARC
  8
OBJECT
 10
19.90093
 20
7.850801
 30
0.0
 40
0.093
 50
0.0
 51
90.0
  0
LINE
  8
OBJECT
 10
19.87393
 20
7.823801
 30
0.0
 11
19.87393
 21
2.761801
 31
0.0
  0
LINE
  8
OBJECT
 10
17.17193
 20
7.823801
 30
0.0
 11
17.17193
 21
2.761801
 31
0.0
  0
LINE
  8
OBJECT
 10
17.17193
 20
2.761801
 30
0.0
 11
19.87393
 21
2.761801
 31
0.0
  0
LINE
  8
OBJECT
 10
17.17193
 20
7.823801
 30
0.0
 11
19.87393
 21
7.823801
 31
0.0
  0
LINE
  8
OBJECT
 10
22.683041
 20
2.734801
 30
0.0
 11
22.683041
 21
7.850801
 31
0.0
  0
LINE
  8
BEND
 10
17.53993
 20
3.023301
 30
0.0
 11
17.53993
 21
7.562301
 31
0.0
  0
SOLID
  8
BEND
 10
17.02693
 20
8.042313
 30
0.0
 11
17.02693
 21
8.147313
 31
0.0
 12
16.71193
 22
8.094813
 32
0.0
 13
16.71193
 23
8.094813
 33
0.0
  0
LINE
  8
BEND
 10
17.02693
 20
8.094813
 30
0.0
 11
17.32793
 21
8.094813
 31
0.0
  0
LINE
  8
BEND
 10
17.02693
 20
2.49079
 30
0.0
 11
17.32793
 21
2.49079
 31
0.0
  0
SOLID
  8
BEND
 10
17.02693
 20
2.43829
 30
0.0
 11
17.02693
 21
2.54329
 31
0.0
 12
16.71193
 22
2.49079
 32
0.0
 13
16.71193
 23
2.49079
 33
0.0
  0
TEXT
  8
TEXT
 10
16.703773
 20
2.107854
 30
0.0
 40
0.21875
  1
C
 41
0.75
  7
TXT
 72
     4
 11
16.75846
 21
2.217229
 31
0.0
  0
TEXT
  8
TEXT
 10
16.722523
 20
8.312799
 30
0.0
 40
0.21875
  1
C
 41
0.75
  7
TXT
 72
     4
 11
16.77721
 21
8.422174
 31
0.0
  0
CIRCLE
  8
BEND
 10
22.484297
 20
7.498373
 30
0.0
 40
0.801833
  0
POLYLINE
  8
BEND
 66
     1
 10
0.0
 20
0.0
 30
0.0
 41
0.0945
  0
VERTEX
  8
BEND
 10
21.935361
 20
8.082843
 30
0.0
 41
0.118125
  0
VERTEX
  8
BEND
 10
21.717677
 20
8.310524
 30
0.0
 41
0.0
  0
VERTEX
  8
BEND
 10
21.004277
 20
9.056688
 30
0.0
 41
0.0
  0
VERTEX
  8
BEND
 10
20.752277
 20
9.056688
 30
0.0
 41
0.0
  0
SEQEND
  8
BEND
  0
TEXT
  8
TEXT
 10
18.548152
 20
8.969188
 30
0.0
 40
0.21875
  1
SEE DETAIL "D"
 41
0.75
  7
TXT
 11
20.626277
 21
9.078563
 31
0.0
 73
     2
  0
POLYLINE
  8
OBJECT
 66
     1
 10
0.0
 20
0.0
 30
0.0
 70
     4
 75
     6
  0
VERTEX
  8
OBJECT
 10
22.377112
 20
11.229966
 30
0.0
 70
    16
  0
VERTEX
  8
OBJECT
 10
22.377112
 20
11.229966
 30
0.0
 70
     8
  0
VERTEX
  8
OBJECT
 10
22.49032
 20
11.285362
 30
0.0
 70
     8
  0
VERTEX
  8
OBJECT
 10
22.580974
 20
11.312665
 30
0.0
 70
     8
  0
VERTEX
  8
OBJECT
 10
22.652636
 20
11.317433
 30
0.0
 70
     8
  0
VERTEX
  8
OBJECT
 10
22.708871
 20
11.305226
 30
0.0
 70
     8
  0
VERTEX
  8
OBJECT
 10
22.753242
 20
11.281601
 30
0.0
 70
     8
  0
VERTEX
  8
OBJECT
 10
22.789313
 20
11.252119
 30
0.0
 70
     8
  0
VERTEX
  8
OBJECT
 10
22.820648
 20
11.222338
 30
0.0
 70
     8
  0
VERTEX
  8
OBJECT
 10
22.85081
 20
11.197817
 30
0.0
 70
     8
  0
VERTEX
  8
OBJECT
 10
22.882678
 20
11.182742
 30
0.0
 70
     8
  0
VERTEX
  8
OBJECT
 10
22.916387
 20
11.175815
 30
0.0
 70
     8
  0
VERTEX
  8
OBJECT
 10
22.951387
 20
11.174364
 30
0.0
 70
     8
  0
VERTEX
  8
OBJECT
 10
22.987127
 20
11.175718
 30
0.0
 70
     8
  0
VERTEX
  8
OBJECT
 10
23.023058
 20
11.177205
 30
0.0
 70
     8
  0
VERTEX
  8
OBJECT
 10
23.058628
 20
11.176154
 30
0.0
 70
     8
  0
VERTEX
  8
OBJECT
 10
23.093289
 20
11.169893
 30
0.0
 70
     8
  0
VERTEX
  8
OBJECT
 10
23.126489
 20
11.155752
 30
0.0
 70
     8
  0
VERTEX
  8
OBJECT
 10
23.157828
 20
11.131998
 30
0.0
 70
     8
  0
VERTEX
  8
OBJECT
 10
23.187502
 20
11.100659
 30
0.0
 70
     8
  0
VERTEX
  8
OBJECT
 10
23.215857
 20
11.064702
 30
0.0
 70
     8
  0
VERTEX
  8
OBJECT
 10
23.243238
 20
11.027096
 30
0.0
 70
     8
  0
VERTEX
  8
OBJECT
 10
23.269991
 20
10.990806
 30
0.0
 70
     8
  0
VERTEX
  8
OBJECT
 10
23.29646
 20
10.958801
 30
0.0
 70
     8
  0
VERTEX
  8
OBJECT
 10
23.322993
 20
10.934048
 30
0.0
 70
     8
  0
VERTEX
  8
OBJECT
 10
23.349934
 20
10.919513
 30
0.0
 70
     8
  0
VERTEX
  8
OBJECT
 10
23.37754
 20
10.917157
 30
0.0
 70
     8
  0
VERTEX
  8
OBJECT
 10
23.405709
 20
10.924902
 30
0.0
 70
     8
  0
VERTEX
  8
OBJECT
 10
23.434252
 20
10.939665
 30
0.0
 70
     8
  0
VERTEX
  8
OBJECT
 10
23.462977
 20
10.95836
 30
0.0
 70
     8
  0
VERTEX
  8
OBJECT
 10
23.491695
 20
10.977903
 30
0.0
 70
     8
  0
VERTEX
  8
OBJECT
 10
23.520216
 20
10.995209
 30
0.0
 70
     8
  0
VERTEX
  8
OBJECT
 10
23.548348
 20
11.007194
 30
0.0
 70
     8
  0
VERTEX
  8
OBJECT
 10
23.575902
 20
11.010773
 30
0.0
 70
     8
  0
VERTEX
  8
OBJECT
 10
23.602767
 20
11.003876
 30
0.0
 70
     8
  0
VERTEX
  8
OBJECT
 10
23.629152
 20
10.988487
 30
0.0
 70
     8
  0
VERTEX
  8
OBJECT
 10
23.655346
 20
10.967607
 30
0.0
 70
     8
  0
VERTEX
  8
OBJECT
 10
23.681637
 20
10.944234
 30
0.0
 70
     8
  0
VERTEX
  8
OBJECT
 10
23.708314
 20
10.921368
 30
0.0
 70
     8
  0
VERTEX
  8
OBJECT
 10
23.735667
 20
10.902007
 30
0.0
 70
     8
  0
VERTEX
  8
OBJECT
 10
23.763983
 20
10.889152
 30
0.0
 70
     8
  0
VERTEX
  8
OBJECT
 10
23.793551
 20
10.885802
 30
0.0
 70
     8
  0
VERTEX
  8
OBJECT
 10
23.824816
 20
10.893417
 30
0.0
 70
     8
  0
VERTEX
  8
OBJECT
 10
23.858839
 20
10.907298
 30
0.0
 70
     8
  0
VERTEX
  8
OBJECT
 10
23.89684
 20
10.921211
 30
0.0
 70
     8
  0
VERTEX
  8
OBJECT
 10
23.940034
 20
10.928918
 30
0.0
 70
     8
  0
VERTEX
  8
OBJECT
 10
23.989641
 20
10.924182
 30
0.0
 70
     8
  0
VERTEX
  8
OBJECT
 10
24.046878
 20
10.900767
 30
0.0
 70
     8
  0
VERTEX
  8
OBJECT
 10
24.112962
 20
10.852436
 30
0.0
 70
     8
  0
VERTEX
  8
OBJECT
 10
24.189112
 20
10.772953
 30
0.0
 70
     8
  0
VERTEX
  8
OBJECT
 10
22.712241
 20
11.420088
 30
0.0
 70
    16
  0
VERTEX
  8
OBJECT
 10
22.825304
 20
11.082416
 30
0.0
 70
    16
  0
VERTEX
  8
OBJECT
 10
23.147935
 20
11.268309
 30
0.0
 70
    16
  0
VERTEX
  8
OBJECT
 10
23.341892
 20
10.778858
 30
0.0
 70
    16
  0
VERTEX
  8
OBJECT
 10
23.584102
 20
11.133339
 30
0.0
 70
    16
  0
VERTEX
  8
OBJECT
 10
23.777112
 20
10.752426
 30
0.0
 70
    16
  0
VERTEX
  8
OBJECT
 10
23.971542
 20
11.031988
 30
0.0
 70
    16
  0
VERTEX
  8
OBJECT
 10
24.189112
 20
10.772953
 30
0.0
 70
    16
  0
SEQEND
  8
OBJECT
  0
DIMENSION
  8
DIM
  2
*D24
 10
24.129112
 20
14.388512
 30
0.0
 11
26.416012
 21
13.913345
 31
0.0
 12
0.988471
 22
0.089115
 32
0.0
 70
     2
 13
23.789112
 23
13.712512
 33
0.0
 14
24.129112
 24
13.452512
 34
0.0
 15
23.797112
 25
14.138512
 35
0.0
 16
26.217701
 26
12.869402
 36
0.0
  3
23NSTD4
  0
DIMENSION
  8
DIM
  2
*D23
 10
23.797112
 20
10.429852
 30
0.0
 11
23.405112
 21
10.429852
 31
0.0
 12
0.988471
 22
0.089115
 32
0.0
 13
23.013112
 23
12.686512
 33
0.0
 14
23.797112
 24
10.886673
 34
0.0
  3
23NSTD4I
  0
DIMENSION
  8
DIM
  2
*D22
 10
23.797112
 20
9.446352
 30
0.0
 11
23.133112
 21
9.446352
 31
0.0
 12
0.988471
 22
0.089115
 32
0.0
 13
22.469112
 23
13.490512
 33
0.0
 14
23.797112
 24
10.886673
 34
0.0
  3
23NSTD4I
  0
DIMENSION
  8
DIM
  2
*D21
 10
24.189112
 20
9.938102
 30
0.0
 11
25.277394
 21
9.938102
 31
0.0
 12
0.988471
 22
0.089115
 32
0.0
 13
23.797112
 23
10.886673
 33
0.0
 14
24.189112
 24
10.772953
 34
0.0
  3
23NSTD4
  0
DIMENSION
  8
DIM
  2
*D20
 10
22.617112
 20
16.381123
 30
0.0
 11
21.528831
 21
16.381123
 31
0.0
 12
0.988471
 22
0.089115
 32
0.0
 13
22.769112
 23
15.064512
 33
0.0
 14
22.617112
 24
14.884512
 34
0.0
  3
23NSTD4
  0
DIMENSION
  8
DIM
  2
*D19
 10
22.377112
 20
15.889373
 30
0.0
 11
21.302503
 21
15.889373
 31
0.0
 12
0.988471
 22
0.089115
 32
0.0
 13
22.617112
 23
14.884512
 33
0.0
 14
22.377112
 24
14.732512
 34
0.0
  3
23NSTD4
  0
DIMENSION
  8
DIM
  2
*D50
 10
18.523895
 20
14.732512
 30
0.0
 11
17.750614
 21
14.102512
 31
0.0
 13
22.617112
 23
14.884512
 33
0.0
 14
22.377112
 24
14.732512
 34
0.0
 50
90.0
  3
23NSTD4
  0
DIMENSION
  8
DIM
  2
*D51
 10
16.840395
 20
15.064512
 30
0.0
 11
17.613676
 21
15.694512
 31
0.0
 13
22.617112
 23
14.884512
 33
0.0
 14
22.769112
 24
15.064512
 34
0.0
 50
90.0
  3
23NSTD4
  0
DIMENSION
  8
DIM
  2
*D54
 10
19.365645
 20
13.702512
 30
0.0
 11
18.510333
 21
13.072512
 31
0.0
  1
R0.055
 13
22.469112
 23
13.920512
 33
0.0
 14
22.469112
 24
13.702512
 34
0.0
 50
90.0
  3
23NSTD4
  0
DIMENSION
  8
DIM
  2
*D18
 10
25.225457
 20
13.452512
 30
0.0
 11
25.225457
 21
13.920512
 31
0.0
 12
0.988471
 22
0.089115
 32
0.0
  1
<> DIA.
 13
24.189112
 23
14.388512
 33
0.0
 14
24.189112
 24
13.452512
 34
0.0
 50
90.0
  3
23NSTD4I
  0
DIMENSION
  8
DIM
  2
*D46
 10
20.207395
 20
13.490512
 30
0.0
 11
19.379426
 21
12.860512
 31
0.0
 12
0.988471
 22
0.089115
 32
0.0
  1
R<>
 13
22.469112
 23
13.920512
 33
0.0
 14
22.469112
 24
13.490512
 34
0.0
 50
90.0
  3
23NSTD4
  0
DIMENSION
  8
DIM
  2
*D17
 10
21.890895
 20
12.686512
 30
0.0
 11
21.062926
 21
12.056512
 31
0.0
 12
0.988471
 22
0.089115
 32
0.0
  1
R<>
 13
23.013112
 23
13.112512
 33
0.0
 14
23.013112
 24
12.686512
 34
0.0
 50
90.0
  3
23NSTD4
  0
DIMENSION
  8
DIM
  2
*D45
 10
21.049145
 20
12.918512
 30
0.0
 11
20.193833
 21
12.288512
 31
0.0
 12
0.988471
 22
0.089115
 32
0.0
  1
R<>
 13
23.013112
 23
13.112512
 33
0.0
 14
23.013112
 24
12.918512
 34
0.0
 50
90.0
  3
23NSTD4
  0
DIMENSION
  8
DIM
  2
*D16
 10
19.99393
 20
1.64395
 30
0.0
 11
21.095883
 21
1.64395
 31
0.0
 13
19.71793
 23
2.927801
 33
0.0
 14
19.99393
 24
2.734801
 34
0.0
  3
23NSTD
  0
DIMENSION
  8
DIM
  2
*D15
 10
19.99393
 20
1.1522
 30
0.0
 11
21.095883
 21
1.1522
 31
0.0
 13
19.50593
 23
3.129801
 33
0.0
 14
19.99393
 24
2.734801
 34
0.0
  3
23NSTD
  0
DIMENSION
  8
DIM
  2
*D14
 10
19.50593
 20
1.1522
 30
0.0
 11
18.52293
 21
1.1522
 31
0.0
 13
17.53993
 23
3.129801
 33
0.0
 14
19.50593
 24
3.129801
 34
0.0
  3
23NSTD
  0
DIMENSION
  8
DIM
  2
*D13
 10
19.71793
 20
1.64395
 30
0.0
 11
18.52293
 21
1.64395
 31
0.0
 13
17.32793
 23
2.927801
 33
0.0
 14
19.71793
 24
2.927801
 34
0.0
  3
23NSTD
  0
DIMENSION
  8
DIM
  2
*D12
 10
16.289553
 20
2.641801
 30
0.0
 11
15.5026
 21
2.011801
 31
0.0
 13
17.32793
 23
2.927801
 33
0.0
 14
17.14493
 24
2.641801
 34
0.0
 50
90.0
  3
23NSTD
  0
DIMENSION
  8
DIM
  2
*D11
 10
14.809606
 20
2.641801
 30
0.0
 11
14.809606
 21
2.885801
 31
0.0
 13
17.53993
 23
3.129801
 33
0.0
 14
17.14493
 24
2.641801
 34
0.0
 50
90.0
  3
23NSTDI
  0
DIMENSION
  8
DIM
  2
*D10
 10
16.289553
 20
7.657801
 30
0.0
 11
16.289553
 21
5.292801
 31
0.0
 13
17.32793
 23
2.927801
 33
0.0
 14
17.32793
 24
7.657801
 34
0.0
 50
90.0
  3
23NSTD
  0
DIMENSION
  8
DIM
  2
*D9
 10
14.809606
 20
7.455801
 30
0.0
 11
14.809606
 21
5.292801
 31
0.0
 13
17.53993
 23
3.129801
 33
0.0
 14
17.53993
 24
7.455801
 34
0.0
 50
90.0
  3
23NSTD
  0
DIMENSION
  8
DIM
  2
*D8
 10
19.99393
 20
0.66045
 30
0.0
 11
18.52293
 21
0.66045
 31
0.0
 13
17.05193
 23
2.734801
 33
0.0
 14
19.99393
 24
2.734801
 34
0.0
  3
23NSTD
  0
DIMENSION
  8
DIM
  2
*D7
 10
13.88499
 20
7.943801
 30
0.0
 11
13.88499
 21
5.292801
 31
0.0
 13
17.14493
 23
2.641801
 33
0.0
 14
17.14493
 24
7.943801
 34
0.0
 50
90.0
  3
23NSTD
  0
TEXT
  8
TEXT
 10
21.517363
 20
2.141533
 30
0.0
 40
0.21875
  1
%%USECTION "C-C"
 41
0.75
  7
TXT
 72
     1
 11
22.477129
 21
2.141533
 31
0.0
  0
TEXT
  8
TEXT
 10
22.611013
 20
8.814135
 30
0.0
 40
0.21875
  1
%%UDETAIL "D"
 41
0.75
  7
TXT
 72
     1
 11
23.324685
 21
8.814135
 31
0.0
  0
LINE
  8
OBJECT
 10
17.09693
 20
2.686801
 30
0.0
 11
17.09693
 21
7.898801
 31
0.0
  0
LINE
  8
OBJECT
 10
17.09693
 20
2.686801
 30
0.0
 11
19.94893
 21
2.686801
 31
0.0
  0
LINE
  8
OBJECT
 10
19.94893
 20
2.686801
 30
0.0
 11
19.94893
 21
7.898801
 31
0.0
  0
LINE
  8
OBJECT
 10
17.13493
 20
2.724801
 30
0.0
 11
17.13493
 21
7.860801
 31
0.0
  0
LINE
  8
OBJECT
 10
17.13493
 20
2.724801
 30
0.0
 11
19.91093
 21
2.724801
 31
0.0
  0
LINE
  8
OBJECT
 10
19.91093
 20
2.724801
 30
0.0
 11
19.91093
 21
7.860801
 31
0.0
  0
LINE
  8
OBJECT
 10
17.09693
 20
7.898801
 30
0.0
 11
19.94893
 21
7.898801
 31
0.0
  0
LINE
  8
OBJECT
 10
17.13493
 20
7.860801
 30
0.0
 11
19.91093
 21
7.860801
 31
0.0
  0
CIRCLE
  8
OBJECT
 10
17.32793
 20
2.927801
 30
0.0
 40
0.0545
  0
CIRCLE
  8
OBJECT
 10
17.32793
 20
2.927801
 30
0.0
 40
0.1075
  0
CIRCLE
  8
OBJECT
 10
17.53993
 20
3.129801
 30
0.0
 40
0.0485
  0
CIRCLE
  8
OBJECT
 10
17.53993
 20
3.129801
 30
0.0
 40
0.1065
  0
LINE
  8
BEND
 10
17.53993
 20
3.023301
 30
0.0
 11
17.32793
 21
3.023301
 31
0.0
  0
LINE
  8
BEND
 10
17.32793
 20
3.023301
 30
0.0
 11
17.32793
 21
2.49079
 31
0.0
  0
CIRCLE
  8
OBJECT
 10
19.50593
 20
3.129801
 30
0.0
 40
0.1065
  0
CIRCLE
  8
OBJECT
 10
19.50593
 20
3.129801
 30
0.0
 40
0.0485
  0
CIRCLE
  8
OBJECT
 10
19.71793
 20
2.927801
 30
0.0
 40
0.0545
  0
CIRCLE
  8
OBJECT
 10
19.71793
 20
2.927801
 30
0.0
 40
0.1075
  0
CIRCLE
  8
OBJECT
 10
17.53993
 20
7.455801
 30
0.0
 40
0.0485
  0
CIRCLE
  8
OBJECT
 10
17.53993
 20
7.455801
 30
0.0
 40
0.1065
  0
CIRCLE
  8
OBJECT
 10
17.32793
 20
7.657801
 30
0.0
 40
0.1075
  0
CIRCLE
  8
OBJECT
 10
17.32793
 20
7.657801
 30
0.0
 40
0.0545
  0
CIRCLE
  8
OBJECT
 10
19.50593
 20
7.455801
 30
0.0
 40
0.1065
  0
CIRCLE
  8
OBJECT
 10
19.71793
 20
7.657801
 30
0.0
 40
0.1075
  0
CIRCLE
  8
OBJECT
 10
19.71793
 20
7.657801
 30
0.0
 40
0.0545
  0
CIRCLE
  8
OBJECT
 10
19.50593
 20
7.455801
 30
0.0
 40
0.0485
  0
LINE
  8
BEND
 10
17.53993
 20
7.562301
 30
0.0
 11
17.32793
 21
7.562301
 31
0.0
  0
LINE
  8
BEND
 10
17.32793
 20
7.562301
 30
0.0
 11
17.32793
 21
8.094813
 31
0.0
  0
LINE
  8
OBJECT
 10
22.230041
 20
2.724801
 30
0.0
 11
22.230041
 21
7.860801
 31
0.0
  0
LINE
  8
OBJECT
 10
22.230041
 20
2.761801
 30
0.0
 11
22.585041
 21
2.761801
 31
0.0
  0
LINE
  8
OBJECT
 10
22.328041
 20
2.641801
 30
0.0
 11
22.590041
 21
2.641801
 31
0.0
  0
ARC
  8
OBJECT
 10
22.590041
 20
2.734801
 30
0.0
 40
0.093
 50
270.0
 51
0.0
  0
LINE
  8
OBJECT
 10
22.290041
 20
2.724801
 30
0.0
 11
22.290041
 21
2.686801
 31
0.0
  0
LINE
  8
OBJECT
 10
22.328041
 20
2.686801
 30
0.0
 11
22.290041
 21
2.686801
 31
0.0
  0
LINE
  8
OBJECT
 10
22.328041
 20
2.686801
 30
0.0
 11
22.328041
 21
2.641801
 31
0.0
  0
LINE
  8
OBJECT
 10
22.290041
 20
2.724801
 30
0.0
 11
22.230041
 21
2.724801
 31
0.0
  0
ARC
  8
OBJECT
 10
22.590041
 20
7.850801
 30
0.0
 40
0.093
 50
0.0
 51
90.0
  0
LINE
  8
OBJECT
 10
22.328041
 20
7.898801
 30
0.0
 11
22.328041
 21
7.943801
 31
0.0
  0
LINE
  8
OBJECT
 10
22.585041
 20
3.236301
 30
0.0
 11
22.585041
 21
7.349301
 31
0.0
  0
LINE
  8
OBJECT
 10
22.253041
 20
7.603301
 30
0.0
 11
22.585041
 21
7.603301
 31
0.0
  0
LINE
  8
OBJECT
 10
22.389041
 20
7.504301
 30
0.0
 11
22.585041
 21
7.504301
 31
0.0
  0
LINE
  8
OBJECT
 10
22.389041
 20
7.407301
 30
0.0
 11
22.585041
 21
7.407301
 31
0.0
  0
LINE
  8
OBJECT
 10
22.389041
 20
7.349301
 30
0.0
 11
22.585041
 21
7.349301
 31
0.0
  0
LINE
  8
OBJECT
 10
22.253041
 20
7.765301
 30
0.0
 11
22.585041
 21
7.765301
 31
0.0
  0
LINE
  8
OBJECT
 10
22.253041
 20
7.712301
 30
0.0
 11
22.585041
 21
7.712301
 31
0.0
  0
LINE
  8
OBJECT
 10
22.230041
 20
7.823801
 30
0.0
 11
22.585041
 21
7.823801
 31
0.0
  0
LINE
  8
OBJECT
 10
22.389041
 20
7.562301
 30
0.0
 11
22.585041
 21
7.562301
 31
0.0
  0
LINE
  8
OBJECT
 10
22.585041
 20
7.603301
 30
0.0
 11
22.668041
 21
7.540801
 31
0.0
  0
LINE
  8
OBJECT
 10
22.668041
 20
7.540801
 30
0.0
 11
22.683041
 21
7.540801
 31
0.0
  0
LINE
  8
OBJECT
 10
22.585041
 20
7.407301
 30
0.0
 11
22.585041
 21
7.504301
 31
0.0
  0
LINE
  8
OBJECT
 10
22.585041
 20
7.712301
 30
0.0
 11
22.668041
 21
7.774801
 31
0.0
  0
LINE
  8
OBJECT
 10
22.668041
 20
7.774801
 30
0.0
 11
22.683041
 21
7.774801
 31
0.0
  0
LINE
  8
OBJECT
 10
22.585041
 20
7.765301
 30
0.0
 11
22.585041
 21
7.823801
 31
0.0
  0
LINE
  8
OBJECT
 10
22.253041
 20
7.550301
 30
0.0
 11
22.253041
 21
7.765301
 31
0.0
  0
LINE
  8
OBJECT
 10
22.389041
 20
7.349301
 30
0.0
 11
22.389041
 21
7.562301
 31
0.0
  0
LINE
  8
OBJECT
 10
22.253041
 20
7.550301
 30
0.0
 11
22.389041
 21
7.550301
 31
0.0
  0
LINE
  8
OBJECT
 10
22.328041
 20
7.898801
 30
0.0
 11
22.290041
 21
7.898801
 31
0.0
  0
LINE
  8
OBJECT
 10
22.290041
 20
7.860801
 30
0.0
 11
22.290041
 21
7.898801
 31
0.0
  0
LINE
  8
OBJECT
 10
22.290041
 20
7.860801
 30
0.0
 11
22.230041
 21
7.860801
 31
0.0
  0
LINE
  8
OBJECT
 10
22.328041
 20
7.943801
 30
0.0
 11
22.590041
 21
7.943801
 31
0.0
  0
LINE
  8
OBJECT
 10
22.253041
 20
2.820301
 30
0.0
 11
22.585041
 21
2.820301
 31
0.0
  0
LINE
  8
OBJECT
 10
22.253041
 20
2.873301
 30
0.0
 11
22.585041
 21
2.873301
 31
0.0
  0
LINE
  8
OBJECT
 10
22.253041
 20
2.982301
 30
0.0
 11
22.585041
 21
2.982301
 31
0.0
  0
LINE
  8
OBJECT
 10
22.389041
 20
3.023301
 30
0.0
 11
22.585041
 21
3.023301
 31
0.0
  0
LINE
  8
OBJECT
 10
22.389041
 20
3.081301
 30
0.0
 11
22.585041
 21
3.081301
 31
0.0
  0
LINE
  8
OBJECT
 10
22.389041
 20
3.178301
 30
0.0
 11
22.585041
 21
3.178301
 31
0.0
  0
LINE
  8
OBJECT
 10
22.389041
 20
3.236301
 30
0.0
 11
22.585041
 21
3.236301
 31
0.0
  0
LINE
  8
OBJECT
 10
22.389041
 20
3.236301
 30
0.0
 11
22.389041
 21
3.023301
 31
0.0
  0
LINE
  8
OBJECT
 10
22.253041
 20
3.035301
 30
0.0
 11
22.253041
 21
2.820301
 31
0.0
  0
LINE
  8
OBJECT
 10
22.253041
 20
3.035301
 30
0.0
 11
22.389041
 21
3.035301
 31
0.0
  0
LINE
  8
OBJECT
 10
22.585041
 20
2.982301
 30
0.0
 11
22.668041
 21
3.044801
 31
0.0
  0
LINE
  8
OBJECT
 10
22.668041
 20
3.044801
 30
0.0
 11
22.683041
 21
3.044801
 31
0.0
  0
LINE
  8
OBJECT
 10
22.585041
 20
3.178301
 30
0.0
 11
22.585041
 21
3.081301
 31
0.0
  0
LINE
  8
OBJECT
 10
22.585041
 20
2.873301
 30
0.0
 11
22.668041
 21
2.810801
 31
0.0
  0
LINE
  8
OBJECT
 10
22.668041
 20
2.810801
 30
0.0
 11
22.683041
 21
2.810801
 31
0.0
  0
LINE
  8
OBJECT
 10
22.585041
 20
2.820301
 30
0.0
 11
22.585041
 21
2.761801
 31
0.0
  0
INSERT
  8
HATCH
  2
*X1
 10
15.250741
 20
-1.226963
 30
0.0
1001
ACAD
1000
HATCH
1002
{
1070
    16
1000
ANSI31
1040
0.75
1040
0.0
1002
}
  0
LINE
  8
OBJECT
 10
23.797112
 20
10.886673
 30
0.0
 11
23.797112
 21
12.686512
 31
0.0
  0
LINE
  8
OBJECT
 10
22.377112
 20
11.229966
 30
0.0
 11
22.377112
 21
14.732512
 31
0.0
  0
LINE
  8
OBJECT
 10
24.189112
 20
10.772953
 30
0.0
 11
24.189112
 21
14.692512
 31
0.0
  0
LINE
  8
OBJECT
 10
23.797112
 20
14.350512
 30
0.0
 11
23.797112
 21
14.584512
 31
0.0
  0
LINE
  8
OBJECT
 10
23.013112
 20
13.538512
 30
0.0
 11
23.797112
 21
13.538512
 31
0.0
  0
LINE
  8
OBJECT
 10
22.469112
 20
14.138512
 30
0.0
 11
23.797112
 21
14.138512
 31
0.0
  0
LINE
  8
OBJECT
 10
22.469112
 20
14.350512
 30
0.0
 11
23.797112
 21
14.350512
 31
0.0
  0
LINE
  8
OBJECT
 10
23.013112
 20
12.686512
 30
0.0
 11
23.797112
 21
12.686512
 31
0.0
  0
LINE
  8
OBJECT
 10
23.013112
 20
12.918512
 30
0.0
 11
23.797112
 21
12.918512
 31
0.0
  0
LINE
  8
OBJECT
 10
23.013112
 20
13.306512
 30
0.0
 11
23.797112
 21
13.306512
 31
0.0
  0
LINE
  8
OBJECT
 10
22.469112
 20
13.702512
 30
0.0
 11
23.797112
 21
13.702512
 31
0.0
  0
LINE
  8
OBJECT
 10
23.013112
 20
12.686512
 30
0.0
 11
23.013112
 21
13.538512
 31
0.0
  0
LINE
  8
OBJECT
 10
22.469112
 20
13.490512
 30
0.0
 11
22.469112
 21
14.350512
 31
0.0
  0
LINE
  8
OBJECT
 10
22.469112
 20
13.490512
 30
0.0
 11
23.013112
 21
13.490512
 31
0.0
  0
LINE
  8
OBJECT
 10
23.797112
 20
13.702512
 30
0.0
 11
24.129112
 21
13.452512
 31
0.0
  0
LINE
  8
OBJECT
 10
23.797112
 20
12.918512
 30
0.0
 11
23.797112
 21
13.306512
 31
0.0
  0
LINE
  8
OBJECT
 10
24.129112
 20
13.452512
 30
0.0
 11
24.189112
 21
13.452512
 31
0.0
  0
LINE
  8
OBJECT
 10
24.129112
 20
14.388512
 30
0.0
 11
24.189112
 21
14.388512
 31
0.0
  0
LINE
  8
OBJECT
 10
23.797112
 20
14.138512
 30
0.0
 11
24.129112
 21
14.388512
 31
0.0
  0
LINE
  8
OBJECT
 10
22.769112
 20
15.064512
 30
0.0
 11
23.817112
 21
15.064512
 31
0.0
  0
LINE
  8
OBJECT
 10
22.377112
 20
14.584512
 30
0.0
 11
23.797112
 21
14.584512
 31
0.0
  0
LINE
  8
OBJECT
 10
22.617112
 20
14.732512
 30
0.0
 11
22.377112
 21
14.732512
 31
0.0
  0
LINE
  8
OBJECT
 10
22.617112
 20
14.732512
 30
0.0
 11
22.617112
 21
14.884512
 31
0.0
  0
LINE
  8
OBJECT
 10
22.769112
 20
14.884512
 30
0.0
 11
22.617112
 21
14.884512
 31
0.0
  0
LINE
  8
OBJECT
 10
22.769112
 20
14.884512
 30
0.0
 11
22.769112
 21
15.064512
 31
0.0
  0
ARC
  8
OBJECT
 10
23.817112
 20
14.692512
 30
0.0
 40
0.372
 50
0.0
 51
90.0
  0
INSERT
  8
HATCH
  2
*X2
 10
11.593897
 20
7.515955
 30
0.0
1001
ACAD
1000
HATCH
1002
{
1070
    16
1000
ANSI31
1040
3.0
1040
0.0
1002
}
  0
DIMENSION
  8
DIM
  2
*D6
 10
24.189112
 20
15.89136
 30
0.0
 11
25.25005
 21
15.89136
 31
0.0
 12
0.988471
 22
0.089115
 32
0.0
 13
24.129112
 23
14.388512
 33
0.0
 14
24.189112
 24
14.692512
 34
0.0
  3
23NSTD4
  0
LINE
  8
OBJECT
 10
24.129112
 20
14.388512
 30
0.0
 11
24.129112
 21
13.452512
 31
0.0
  0
LINE
  8
OBJECT
 10
22.668041
 20
7.540801
 30
0.0
 11
22.668041
 21
7.774801
 31
0.0
  0
LINE
  8
OBJECT
 10
22.668041
 20
3.044801
 30
0.0
 11
22.668041
 21
2.810801
 31
0.0
  0
LINE
  8
OBJECT
 10
24.73336
 20
2.734801
 30
0.0
 11
24.73336
 21
7.850801
 31
0.0
  0
LINE
  8
OBJECT
 10
26.69236
 20
7.831801
 30
0.0
 11
26.69236
 21
2.753801
 31
0.0
  0
LINE
  8
OBJECT
 10
25.12636
 20
7.946801
 30
0.0
 11
26.600748
 21
7.924791
 31
0.0
  0
LINE
  8
OBJECT
 10
25.08836
 20
7.943801
 30
0.0
 11
24.82636
 21
7.943801
 31
0.0
  0
ARC
  8
OBJECT
 10
24.82636
 20
7.850801
 30
0.0
 40
0.093
 50
90.0
 51
180.0
  0
LINE
  8
OBJECT
 10
25.08836
 20
7.898801
 30
0.0
 11
25.12636
 21
7.898801
 31
0.0
  0
ARC
  8
OBJECT
 10
26.59936
 20
7.831801
 30
0.0
 40
0.093
 50
0.0
 51
89.144725
  0
LINE
  8
OBJECT
 10
25.12636
 20
2.638801
 30
0.0
 11
26.600748
 21
2.660812
 31
0.0
  0
LINE
  8
OBJECT
 10
25.12636
 20
7.946801
 30
0.0
 11
25.12636
 21
2.638801
 31
0.0
  0
LINE
  8
OBJECT
 10
25.08836
 20
2.641801
 30
0.0
 11
24.82636
 21
2.641801
 31
0.0
  0
ARC
  8
OBJECT
 10
24.82636
 20
2.734801
 30
0.0
 40
0.093
 50
180.0
 51
270.0
  0
LINE
  8
OBJECT
 10
25.08836
 20
7.943801
 30
0.0
 11
25.08836
 21
2.641801
 31
0.0
  0
LINE
  8
OBJECT
 10
25.08836
 20
2.686801
 30
0.0
 11
25.12636
 21
2.686801
 31
0.0
  0
ARC
  8
OBJECT
 10
26.59936
 20
2.753801
 30
0.0
 40
0.093
 50
270.855275
 51
0.0
  0
LINE
  8
TITLE
 10
0.1085
 20
16.87
 30
0.0
 11
27.0165
 21
16.87
 31
0.0
  0
POLYLINE
  8
TITLE
 66
     1
 10
0.0
 20
0.0
 30
0.0
 70
     1
  0
VERTEX
  8
TITLE
 10
27.125
 20
17.71
 30
0.0
  0
VERTEX
  8
TITLE
 10
27.125
 20
0.0
 30
0.0
  0
VERTEX
  8
TITLE
 10
0.0
 20
0.0
 30
0.0
  0
VERTEX
  8
TITLE
 10
0.0
 20
17.71
 30
0.0
  0
SEQEND
  8
TITLE
  0
POLYLINE
  8
TITLE
 66
     1
 10
0.0
 20
0.0
 30
0.0
 70
     1
  0
VERTEX
  8
TITLE
 10
27.0165
 20
17.6015
 30
0.0
  0
VERTEX
  8
TITLE
 10
27.0165
 20
0.1085
 30
0.0
  0
VERTEX
  8
TITLE
 10
0.1085
 20
0.1085
 30
0.0
  0
VERTEX
  8
TITLE
 10
0.1085
 20
17.6015
 30
0.0
  0
SEQEND
  8
TITLE
  0
TEXT
  8
TEXT
 10
0.363708
 20
16.940139
 30
0.0
 40
0.21875
  1
NAME
 72
     1
 11
0.76475
 21
16.940139
 31
0.0
  0
TEXT
  8
TEXT
 10
0.363708
 20
17.304722
 30
0.0
 40
0.21875
  1
PART
 72
     1
 11
0.76475
 21
17.304722
 31
0.0
  0
LINE
  8
TITLE
 10
1.421
 20
16.87
 30
0.0
 11
1.421
 21
17.6015
 31
0.0
  0
TEXT
  8
TEXT
 10
13.871958
 20
17.304722
 30
0.0
 40
0.21875
  1
PART
 72
     1
 11
14.273
 21
17.304722
 31
0.0
  0
TEXT
  8
TEXT
 10
14.05425
 20
16.940139
 30
0.0
 40
0.21875
  1
No.
 72
     1
 11
14.273
 21
16.940139
 31
0.0
  0
LINE
  8
TITLE
 10
13.61675
 20
17.6015
 30
0.0
 11
13.61675
 21
16.87
 31
0.0
  0
LINE
  8
TITLE
 10
13.50825
 20
17.6015
 30
0.0
 11
13.50825
 21
16.87
 31
0.0
  0
LINE
  8
TITLE
 10
14.92925
 20
17.6015
 30
0.0
 11
14.92925
 21
16.87
 31
0.0
  0
TEXT
  8
TEXT
 10
5.331813
 20
17.071688
 30
0.0
 40
0.328125
  1
UTILIBOX  (STYLE F)
 41
0.75
  7
TXT
 72
     4
 11
7.464625
 21
17.23575
 31
0.0
  0
TEXT
  8
TEXT
 10
18.265844
 20
17.071688
 30
0.0
 40
0.328125
  1
CU-1874-B  &  CU-1874-G
 41
0.75
  7
TXT
 72
     4
 11
20.972875
 21
17.23575
 31
0.0
  0
TEXT
  8
TEXT
 10
0.711922
 20
12.598053
 30
0.0
 40
0.218591
  1
%%UNOTE:%%U ALL DIMENSIONS HAVE %%p0.015 TOLERANCE
 41
0.75
  7
TXT
  0
TEXT
  8
TEXT
 10
0.710267
 20
16.222819
 30
0.0
 40
0.218591
  1
%%UMATERIAL:%%U
 41
0.75
  7
TXT
  0
TEXT
  8
TEXT
 10
0.710267
 20
15.858501
 30
0.0
 40
0.218591
  1
  COVER AND BODY____MOLDED IMPACT RESISTANT ABS
 41
0.75
  7
TXT
  0
TEXT
  8
TEXT
 10
0.710267
 20
15.129866
 30
0.0
 40
0.218591
  1
%%UFINISH:%%U
 41
0.75
  7
TXT
  0
TEXT
  8
TEXT
 10
0.710267
 20
14.765548
 30
0.0
 40
0.218591
  1
  (SUFFIX -B) COVER AND BODY______________BLACK
 41
0.75
  7
TXT
  0
TEXT
  8
TEXT
 10
0.710267
 20
14.405026
 30
0.0
 40
0.218591
  1
  (SUFFIX -G) COVER AND BODY_______________GRAY
 41
0.75
  7
TXT
  0
TEXT
  8
TEXT
 10
0.710267
 20
13.675861
 30
0.0
 40
0.21875
  1
FOUR (4) M2.5 x 17.5mm LG. SCREWS ARE SUPPLIED
 41
0.75
  7
TXT
  0
TEXT
  8
TEXT
 10
0.710267
 20
13.311278
 30
0.0
 40
0.21875
  1
  FOR ASSEMBLY.
 41
0.75
  7
TXT
  0
POLYLINE
  8
DIM
 66
     1
 10
0.0
 20
0.0
 30
0.0
 41
0.118125
  0
VERTEX
  8
DIM
 10
5.14845
 20
2.821763
 30
0.0
  0
VERTEX
  8
DIM
 10
5.293212
 20
2.541998
 30
0.0
 41
0.0
  0
VERTEX
  8
DIM
 10
5.718523
 20
1.72005
 30
0.0
 41
0.0
  0
VERTEX
  8
DIM
 10
6.033523
 20
1.72005
 30
0.0
 41
0.0
  0
SEQEND
  8
DIM
  0
TEXT
  8
DIM
 10
5.92299
 20
5.335653
 30
0.0
 40
0.219
  1
(4) SPACES
 41
0.75
  7
TXT
 72
     4
 11
6.662115
 21
5.445153
 31
0.0
  0
TEXT
  8
TEXT
 10
15.779882
 20
0.502434
 30
0.0
 40
0.21875
  1
%%UCOVER
 41
0.75
  7
TXT
 72
     1
 11
16.192773
 21
0.502434
 31
0.0
  0
TEXT
  8
TEXT
 10
3.623848
 20
0.501096
 30
0.0
 40
0.21875
  1
%%UBODY
 41
0.75
  7
TXT
 72
     1
 11
3.927364
 21
0.501096
 31
0.0
  0
DIMENSION
  8
DIM
  2
*D5
 10
26.69236
 20
1.166102
 30
0.0
 11
25.71286
 21
1.166102
 31
0.0
 12
0.366744
 22
0.0
 32
0.0
 13
24.73336
 23
2.734801
 33
0.0
 14
26.69236
 24
2.753801
 34
0.0
  3
23NSTD
  0
DIMENSION
  8
DIM
  2
*D4
 10
24.73336
 20
1.63843
 30
0.0
 11
23.275938
 21
1.63843
 31
0.0
 12
0.366744
 22
0.0
 32
0.0
  1
<> REF.
 13
25.08836
 23
2.641801
 33
0.0
 14
24.73336
 24
2.734801
 34
0.0
  3
23NSTD
  0
DIMENSION
  8
DIM
  2
*D3
 10
24.087764
 20
7.946801
 30
0.0
 11
24.087764
 21
5.292801
 31
0.0
 12
0.366744
 22
0.0
 32
0.0
 13
25.12636
 23
2.638801
 33
0.0
 14
25.12636
 24
7.946801
 34
0.0
 50
90.0
  3
23NSTD
  0
LINE
  8
OBJECT
 10
10.324554
 20
7.774801
 30
0.0
 11
10.324554
 21
7.874801
 31
0.0
  0
LINE
  8
OBJECT
 10
10.324554
 20
3.044801
 30
0.0
 11
10.324554
 21
7.540801
 31
0.0
  0
TEXT
  8
DIM
 10
14.270376
 20
9.680696
 30
0.0
 40
0.21875
  1
0.212 DIA. BOSS
 41
0.75
  7
TXT
 72
     2
 11
16.321157
 21
9.790071
 31
0.0
 73
     2
  0
TEXT
  8
DIM
 10
14.243032
 20
9.316112
 30
0.0
 40
0.21875
  1
WITH 0.097 DIA.
 41
0.75
  7
TXT
 72
     2
 11
16.321157
 21
9.425487
 31
0.0
 73
     2
  0
TEXT
  8
DIM
 10
13.942251
 20
8.951529
 30
0.0
 40
0.21875
  1
HOLES 0.196 DEEP
 41
0.75
  7
TXT
 72
     2
 11
16.321157
 21
9.060904
 31
0.0
 73
     2
  0
TEXT
  8
DIM
 10
14.844595
 20
8.586946
 30
0.0
 40
0.21875
  1
(4) PLACES
 41
0.75
  7
TXT
 72
     2
 11
16.321157
 21
8.696321
 31
0.0
 73
     2
  0
POLYLINE
  8
DIM
 66
     1
 10
0.0
 20
0.0
 30
0.0
 41
0.118125
  0
VERTEX
  8
DIM
 10
19.623864
 20
7.709839
 30
0.0
  0
VERTEX
  8
DIM
 10
19.402345
 20
7.93379
 30
0.0
 41
0.0
  0
VERTEX
  8
DIM
 10
16.597453
 20
10.769467
 30
0.0
 41
0.0
  0
VERTEX
  8
DIM
 10
17.099968
 20
10.769467
 30
0.0
 41
0.0
  0
VERTEX
  8
DIM
 10
17.414968
 20
10.769467
 30
0.0
 41
0.0
  0
SEQEND
  8
DIM
  0
TEXT
  8
DIM
 10
17.572468
 20
10.660092
 30
0.0
 40
0.21875
  1
0.216 DIA. BOSS
 41
0.75
  7
TXT
 11
17.572468
 21
10.769467
 31
0.0
 73
     2
  0
TEXT
  8
DIM
 10
17.572468
 20
10.295509
 30
0.0
 40
0.21875
  1
WITH 0.110 THRU HOLES
 41
0.75
  7
TXT
 11
17.572468
 21
10.404884
 31
0.0
 73
     2
  0
TEXT
  8
DIM
 10
17.572468
 20
9.930925
 30
0.0
 40
0.21875
  1
(4) PLACES
 41
0.75
  7
TXT
 11
17.572468
 21
10.0403
 31
0.0
 73
     2
  0
POLYLINE
  8
DIM
 66
     1
 10
0.0
 20
0.0
 30
0.0
 41
0.118125
  0
VERTEX
  8
DIM
 10
19.42546
 20
7.521763
 30
0.0
  0
VERTEX
  8
DIM
 10
19.186854
 20
7.727413
 30
0.0
 41
0.0
  0
VERTEX
  8
DIM
 10
16.793657
 20
9.790071
 30
0.0
 41
0.0
  0
VERTEX
  8
DIM
 10
16.478657
 20
9.790071
 30
0.0
 41
0.0
  0
SEQEND
  8
DIM
  0
TEXT
  8
TEXT
 10
1.522874
 20
12.244155
 30
0.0
 40
0.218591
  1
UNLESS OTHERWISE SPECIFIED.
 41
0.75
  7
TXT
  0
TEXT
  8
TEXT
 10
0.711922
 20
11.55576
 30
0.0
 40
0.218591
  1
MOUNTING BOSSES USE EITHER M2.5 METRIC OR
 41
0.75
  7
TXT
  0
TEXT
  8
TEXT
 10
0.711922
 20
11.201862
 30
0.0
 40
0.218591
  1
#4 STD. SHEET METAL SCREWS x 0.187" LG.
 41
0.75
  7
TXT
  0
TEXT
  8
TEXT
 10
0.711922
 20
10.837544
 30
0.0
 40
0.218591
  1
(NOT SUPPLIED)
 41
0.75
  7
TXT
  0
ENDSEC
  0
EOF
