  0
SECTION
  2
HEADER
  9
$ACADVER
  1
AC1009
  9
$INSBASE
 10
0.0
 20
0.0
 30
0.0
  9
$EXTMIN
 10
0.0
 20
0.0
 30
0.0
  9
$EXTMAX
 10
50.599999999999987
 20
77.5
 30
0.0
  9
$LIMMIN
 10
0.0
 20
0.0
  9
$LIMMAX
 10
50.600000000000001
 20
77.5
  9
$ORTHOMODE
 70
     1
  9
$REGENMODE
 70
     1
  9
$FILLMODE
 70
     1
  9
$QTEXTMODE
 70
     0
  9
$MIRRTEXT
 70
     0
  9
$DRAGMODE
 70
     2
  9
$LTSCALE
 40
1.5
  9
$OSMODE
 70
    37
  9
$ATTMODE
 70
     1
  9
$TEXTSIZE
 40
0.625
  9
$TRACEWID
 40
0.05
  9
$TEXTSTYLE
  7
TXT
  9
$CLAYER
  8
DIM
  9
$CELTYPE
  6
BYLAYER
  9
$CECOLOR
 62
   256
  9
$DIMSCALE
 40
5.0
  9
$DIMASZ
 40
0.18
  9
$DIMEXO
 40
0.063
  9
$DIMDLI
 40
0.281
  9
$DIMRND
 40
0.0
  9
$DIMDLE
 40
0.0
  9
$DIMEXE
 40
0.093
  9
$DIMTP
 40
0.0
  9
$DIMTM
 40
0.0
  9
$DIMTXT
 40
0.125
  9
$DIMCEN
 40
0.09
  9
$DIMTSZ
 40
0.0
  9
$DIMTOL
 70
     0
  9
$DIMLIM
 70
     0
  9
$DIMTIH
 70
     1
  9
$DIMTOH
 70
     1
  9
$DIMSE1
 70
     0
  9
$DIMSE2
 70
     0
  9
$DIMTAD
 70
     0
  9
$DIMZIN
 70
     0
  9
$DIMBLK
  1

  9
$DIMASO
 70
     1
  9
$DIMSHO
 70
     1
  9
$DIMPOST
  1

  9
$DIMAPOST
  1

  9
$DIMALT
 70
     0
  9
$DIMALTD
 70
     2
  9
$DIMALTF
 40
25.399999999999999
  9
$DIMLFAC
 40
1.0
  9
$DIMTOFL
 70
     0
  9
$DIMTVP
 40
0.0
  9
$DIMTIX
 70
     0
  9
$DIMSOXD
 70
     0
  9
$DIMSAH
 70
     0
  9
$DIMBLK1
  1

  9
$DIMBLK2
  1

  9
$DIMSTYLE
  2
23NSTD
  9
$DIMCLRD
 70
     0
  9
$DIMCLRE
 70
     0
  9
$DIMCLRT
 70
     0
  9
$DIMTFAC
 40
1.0
  9
$DIMGAP
 40
0.09
  9
$LUNITS
 70
     2
  9
$LUPREC
 70
     3
  9
$SKETCHINC
 40
0.1
  9
$FILLETRAD
 40
0.0
  9
$AUNITS
 70
     0
  9
$AUPREC
 70
     0
  9
$MENU
  1
acad
  9
$ELEVATION
 40
0.0
  9
$PELEVATION
 40
0.0
  9
$THICKNESS
 40
0.0
  9
$LIMCHECK
 70
     0
  9
$BLIPMODE
 70
     0
  9
$CHAMFERA
 40
0.0
  9
$CHAMFERB
 40
0.0
  9
$SKPOLY
 70
     0
  9
$TDCREATE
 40
2450336.5800061342
  9
$TDUPDATE
 40
2451802.3811606481
  9
$TDINDWG
 40
0.1218922801
  9
$TDUSRTIMER
 40
0.1218919213
  9
$USRTIMER
 70
     1
  9
$ANGBASE
 50
0.0
  9
$ANGDIR
 70
     0
  9
$PDMODE
 70
     0
  9
$PDSIZE
 40
0.0
  9
$PLINEWID
 40
0.0
  9
$COORDS
 70
     0
  9
$SPLFRAME
 70
     0
  9
$SPLINETYPE
 70
     6
  9
$SPLINESEGS
 70
     8
  9
$ATTDIA
 70
     0
  9
$ATTREQ
 70
     1
  9
$HANDLING
 70
  4097
  9
$HANDSEED
  5
1ADC
  9
$SURFTAB1
 70
     6
  9
$SURFTAB2
 70
     6
  9
$SURFTYPE
 70
     6
  9
$SURFU
 70
     6
  9
$SURFV
 70
     6
  9
$UCSNAME
  2

  9
$UCSORG
 10
0.0
 20
0.0
 30
0.0
  9
$UCSXDIR
 10
1.0
 20
0.0
 30
0.0
  9
$UCSYDIR
 10
0.0
 20
1.0
 30
0.0
  9
$PUCSNAME
  2

  9
$PUCSORG
 10
0.0
 20
0.0
 30
0.0
  9
$PUCSXDIR
 10
1.0
 20
0.0
 30
0.0
  9
$PUCSYDIR
 10
0.0
 20
1.0
 30
0.0
  9
$USERI1
 70
     0
  9
$USERI2
 70
     0
  9
$USERI3
 70
     0
  9
$USERI4
 70
     0
  9
$USERI5
 70
     0
  9
$USERR1
 40
0.0
  9
$USERR2
 40
0.0
  9
$USERR3
 40
0.0
  9
$USERR4
 40
0.0
  9
$USERR5
 40
0.0
  9
$WORLDVIEW
 70
     1
  9
$SHADEDGE
 70
     3
  9
$SHADEDIF
 70
    70
  9
$TILEMODE
 70
     1
  9
$MAXACTVP
 70
    16
  9
$PLIMCHECK
 70
     0
  9
$PEXTMIN
 10
1.0000000000000000E+020
 20
1.0000000000000000E+020
 30
1.0000000000000000E+020
  9
$PEXTMAX
 10
-1.0000000000000000E+020
 20
-1.0000000000000000E+020
 30
-1.0000000000000000E+020
  9
$PLIMMIN
 10
0.0
 20
0.0
  9
$PLIMMAX
 10
12.0
 20
9.0
  9
$UNITMODE
 70
     0
  9
$VISRETAIN
 70
     0
  9
$PLINEGEN
 70
     0
  9
$PSLTSCALE
 70
     1
  0
ENDSEC
  0
SECTION
  2
TABLES
  0
TABLE
  2
VPORT
 70
     2
  0
VPORT
  2
*ACTIVE
 70
     0
 10
0.0
 20
0.0
 11
1.0
 21
1.0
 12
25.300000117812321
 22
38.750000180443742
 13
0.0
 23
0.0
 14
1.0
 24
1.0
 15
0.0
 25
0.0
 16
0.0
 26
0.0
 36
1.0
 17
0.0
 27
0.0
 37
0.0
 40
78.37720373558615
 41
1.8139097744360899
 42
50.0
 43
0.0
 44
0.0
 50
0.0
 51
0.0
 71
     0
 72
   500
 73
     1
 74
     0
 75
     0
 76
     0
 77
     0
 78
     0
  0
ENDTAB
  0
TABLE
  2
LTYPE
 70
     4
  0
LTYPE
  2
CONTINUOUS
 70
     0
  3
Solid line
 72
    65
 73
     0
 40
0.0
  0
LTYPE
  2
HIDDEN
 70
     0
  3
_ _ _ _ _ _ _ _ _ _ _ _ _ _ _ _ _ _ _ _ _ _ _
 72
    65
 73
     2
 40
0.375
 49
0.25
 49
-0.125
  0
LTYPE
  2
PHANTOM
 70
     0
  3
_____ _ _ _____ _ _ _____ _ _ _____ _ _ ____
 72
    65
 73
     6
 40
2.5
 49
1.25
 49
-0.25
 49
0.25
 49
-0.25
 49
0.25
 49
-0.25
  0
LTYPE
  2
CENTER
 70
     0
  3
____ _ ____ _ ____ _ ____ _ ____ _ ____ _ ____
 72
    65
 73
     4
 40
2.0
 49
1.25
 49
-0.25
 49
0.25
 49
-0.25
  0
ENDTAB
  0
TABLE
  2
LAYER
 70
     9
  0
LAYER
  2
0
 70
     0
 62
     7
  6
CONTINUOUS
  0
LAYER
  2
DIM
 70
     0
 62
     7
  6
CONTINUOUS
  0
LAYER
  2
OBJECT
 70
     0
 62
     7
  6
CONTINUOUS
  0
LAYER
  2
HIDDEN
 70
     0
 62
     7
  6
HIDDEN
  0
LAYER
  2
BEND
 70
     0
 62
     7
  6
PHANTOM
  0
LAYER
  2
TEXT
 70
     0
 62
     7
  6
CONTINUOUS
  0
LAYER
  2
TITLE
 70
     0
 62
     7
  6
CONTINUOUS
  0
LAYER
  2
CENTER
 70
     0
 62
     7
  6
CENTER
  0
LAYER
  2
DEFPOINTS
 70
     0
 62
     7
  6
CONTINUOUS
  0
ENDTAB
  0
TABLE
  2
STYLE
 70
     3
  0
STYLE
  2
STANDARD
 70
     0
 40
0.0
 41
1.0
 50
0.0
 71
     0
 42
0.2
  3
txt
  4

  0
STYLE
  2
TXT
 70
     0
 40
0.0
 41
0.75
 50
0.0
 71
     0
 42
0.625
  3
txt
  4

  0
STYLE
  2
SECTION
 70
     0
 40
0.0
 41
0.8
 50
0.0
 71
     0
 42
0.2
  3
ROMANT.SHX
  4

  0
ENDTAB
  0
TABLE
  2
VIEW
 70
     0
  0
ENDTAB
  0
TABLE
  2
UCS
 70
     0
  0
ENDTAB
  0
TABLE
  2
APPID
 70
     1
  0
APPID
  2
ACAD
 70
     0
  0
ENDTAB
  0
TABLE
  2
DIMSTYLE
 70
     2
  0
DIMSTYLE
  2
23NSTD
 70
     0
  3

  4

  5

  6

  7

 40
5.0
 41
0.18
 42
0.063
 43
0.281
 44
0.093
 45
0.0
 46
0.0
 47
0.0
 48
0.0
140
0.125
141
0.09
142
0.0
143
25.399999999999999
144
1.0
145
0.0
146
1.0
147
0.09
 71
     0
 72
     0
 73
     1
 74
     1
 75
     0
 76
     0
 77
     0
 78
     0
170
     0
171
     2
172
     0
173
     0
174
     0
175
     0
176
     0
177
     0
178
     0
  0
DIMSTYLE
  2
23NSTDI
 70
     0
  3

  4

  5

  6

  7

 40
5.0
 41
0.18
 42
0.063
 43
0.281
 44
0.093
 45
0.0
 46
0.0
 47
0.0
 48
0.0
140
0.125
141
0.09
142
0.0
143
25.399999999999999
144
1.0
145
0.0
146
1.0
147
0.09
 71
     0
 72
     0
 73
     1
 74
     1
 75
     0
 76
     0
 77
     0
 78
     0
170
     0
171
     2
172
     0
173
     0
174
     1
175
     0
176
     0
177
     0
178
     0
  0
ENDTAB
  0
ENDSEC
  0
SECTION
  2
BLOCKS
  0
BLOCK
  8
0
  2
$MODEL_SPACE
 70
     0
 10
0.0
 20
0.0
 30
0.0
  3
$MODEL_SPACE
  1

  0
ENDBLK
  5
1343
  8
0
  0
BLOCK
 67
     1
  8
0
  2
$PAPER_SPACE
 70
     0
 10
0.0
 20
0.0
 30
0.0
  3
$PAPER_SPACE
  1

  0
ENDBLK
  5
133F
 67
     1
  8
0
  0
BLOCK
  8
0
  2
HB
 70
     0
 10
0.0
 20
0.0
 30
0.0
  3
HB
  1

  0
TEXT
  5
135F
  8
TEXT
 10
0.2078333333333334
 20
15.060079
 30
0.0
 40
0.125
  1
NAME
 72
     1
 11
0.4370000000000001
 21
15.060079
 31
0.0
  0
TEXT
  5
1360
  8
TEXT
 10
0.2078333333333334
 20
15.268413000000001
 30
0.0
 40
0.125
  1
PART
 72
     1
 11
0.4370000000000001
 21
15.268413000000001
 31
0.0
  0
TEXT
  5
1361
  8
TEXT
 10
5.3719999999999981
 20
15.060079
 30
0.0
 40
0.125
  1
No.
 72
     1
 11
5.4969999999999981
 21
15.060079
 31
0.0
  0
TEXT
  5
1362
  8
TEXT
 10
5.2678333333333311
 20
15.268413000000001
 30
0.0
 40
0.125
  1
PART
 72
     1
 11
5.4969999999999981
 21
15.268413000000001
 31
0.0
  0
LINE
  5
1363
  8
TITLE
 10
5.8719999999999981
 20
15.438000000000001
 30
0.0
 11
5.8719999999999981
 21
15.019999999999991
 31
0.0
  0
LINE
  5
1364
  8
TITLE
 10
5.1219999999999981
 20
15.438000000000001
 30
0.0
 11
5.1219999999999981
 21
15.019999999999991
 31
0.0
  0
LINE
  5
1365
  8
TITLE
 10
5.0599999999999987
 20
15.438000000000001
 30
0.0
 11
5.0599999999999987
 21
15.019999999999991
 31
0.0
  0
LINE
  5
1366
  8
TITLE
 10
0.8120000000000001
 20
15.019999999999991
 30
0.0
 11
0.8120000000000001
 21
15.438000000000001
 31
0.0
  0
LINE
  5
1367
  8
TITLE
 10
0.062
 20
15.019999999999991
 30
0.0
 11
10.058
 21
15.019999999999991
 31
0.0
  0
LINE
  5
1368
  8
TITLE
 10
10.058
 20
0.062
 30
0.0
 11
0.062
 21
0.062
 31
0.0
  0
LINE
  5
1369
  8
TITLE
 10
10.058
 20
15.438000000000001
 30
0.0
 11
10.058
 21
0.062
 31
0.0
  0
LINE
  5
136A
  8
TITLE
 10
0.062
 20
15.438000000000001
 30
0.0
 11
10.058
 21
15.438000000000001
 31
0.0
  0
LINE
  5
136B
  8
TITLE
 10
0.062
 20
0.062
 30
0.0
 11
0.062
 21
15.438000000000001
 31
0.0
  0
LINE
  5
136C
  8
TITLE
 10
0.0
 20
0.0
 30
0.0
 11
0.0
 21
15.5
 31
0.0
  0
LINE
  5
136D
  8
TITLE
 10
10.119999999999999
 20
0.0
 30
0.0
 11
0.0
 21
0.0
 31
0.0
  0
LINE
  5
136E
  8
TITLE
 10
10.119999999999999
 20
15.5
 30
0.0
 11
10.119999999999999
 21
0.0
 31
0.0
  0
LINE
  5
136F
  8
TITLE
 10
0.0
 20
15.5
 30
0.0
 11
10.119999999999999
 21
15.5
 31
0.0
  0
ENDBLK
  5
1370
  8
0
  0
BLOCK
  8
0
  2
SECTION
 70
     2
 10
0.0
 20
0.0
 30
0.0
  3
SECTION
  1

  0
ATTDEF
  5
1373
  8
0
 10
0.0
 20
0.0
 30
0.0
 40
0.25
  1

 50
270.0
 41
0.8
  7
SECTION
 72
     4
 11
0.0
 21
0.0
 31
0.0
  3
Enter section
  2
SECTION
 70
     0
  0
ENDBLK
  5
1374
  8
0
  0
BLOCK
  8
0
  2
*D4
 70
     1
 10
0.0
 20
0.0
 30
0.0
  3
*D4
  1

  0
LINE
  5
1377
  8
DIM
 62
     0
 10
2.1598599999999961
 20
56.606622999999999
 30
0.0
 11
2.1598599999999961
 21
58.239799000000012
 31
0.0
  0
LINE
  5
1378
  8
DIM
 62
     0
 10
15.15986
 20
56.606622999999999
 30
0.0
 11
15.15986
 21
58.239799000000012
 31
0.0
  0
LINE
  5
1379
  8
DIM
 62
     0
 10
3.059859999999996
 20
57.774799000000002
 30
0.0
 11
8.053609999999999
 21
57.774799000000002
 31
0.0
  0
LINE
  5
137A
  8
DIM
 62
     0
 10
14.259859999999991
 20
57.774799000000002
 30
0.0
 11
9.2661099999999976
 21
57.774799000000002
 31
0.0
  0
SOLID
  5
137B
  8
DIM
 62
     0
 10
3.059859999999996
 20
57.924799
 30
0.0
 11
3.059859999999996
 21
57.624799000000003
 31
0.0
 12
2.1598599999999961
 22
57.774799000000002
 32
0.0
 13
2.1598599999999961
 23
57.774799000000002
 33
0.0
  0
SOLID
  5
137C
  8
DIM
 62
     0
 10
14.259859999999991
 20
57.924799
 30
0.0
 11
14.259859999999991
 21
57.624799000000003
 31
0.0
 12
15.15986
 22
57.774799000000002
 32
0.0
 13
15.15986
 23
57.774799000000002
 33
0.0
  0
TEXT
  5
137D
  8
DIM
 62
     0
 10
8.5036099999999983
 20
57.462299000000002
 30
0.0
 40
0.625
  1
B
 41
0.75
  7
TXT
  0
POINT
  5
137E
  8
DEFPOINTS
 62
     0
 10
2.1598599999999961
 20
56.291623000000001
 30
0.0
  0
POINT
  5
137F
  8
DEFPOINTS
 62
     0
 10
15.15986
 20
56.291623000000001
 30
0.0
  0
POINT
  5
1380
  8
DEFPOINTS
 62
     0
 10
15.15986
 20
57.774799000000002
 30
0.0
  0
ENDBLK
  5
1381
  8
0
  0
BLOCK
  8
0
  2
*D5
 70
     1
 10
0.0
 20
0.0
 30
0.0
  3
*D5
  1

  0
LINE
  5
1384
  8
DIM
 62
     0
 10
14.597860000000001
 20
37.998678999999981
 30
0.0
 11
14.597860000000001
 21
41.519018999999957
 31
0.0
  0
LINE
  5
1385
  8
DIM
 62
     0
 10
15.15986
 20
38.560678999999958
 30
0.0
 11
15.15986
 21
41.519018999999957
 31
0.0
  0
LINE
  5
1386
  8
DIM
 62
     0
 10
13.69786
 20
41.05401899999999
 30
0.0
 11
12.79786
 21
41.05401899999999
 31
0.0
  0
LINE
  5
1387
  8
DIM
 62
     0
 10
16.05986
 20
41.05401899999999
 30
0.0
 11
16.959859999999981
 21
41.05401899999999
 31
0.0
  0
TEXT
  5
1388
  8
DIM
 62
     0
 10
13.9804225
 20
42.056518999999959
 30
0.0
 40
0.625
  1
0.562
 41
0.75
  7
TXT
  0
SOLID
  5
1389
  8
DIM
 62
     0
 10
13.69786
 20
41.204018999999988
 30
0.0
 11
13.69786
 21
40.904018999999977
 31
0.0
 12
14.597860000000001
 22
41.05401899999999
 32
0.0
 13
14.597860000000001
 23
41.05401899999999
 33
0.0
  0
SOLID
  5
138A
  8
DIM
 62
     0
 10
16.05986
 20
41.204018999999988
 30
0.0
 11
16.05986
 21
40.904018999999977
 31
0.0
 12
15.15986
 22
41.05401899999999
 32
0.0
 13
15.15986
 23
41.05401899999999
 33
0.0
  0
POINT
  5
138B
  8
DEFPOINTS
 62
     0
 10
14.597860000000001
 20
37.683678999999991
 30
0.0
  0
POINT
  5
138C
  8
DEFPOINTS
 62
     0
 10
15.15986
 20
38.245678999999988
 30
0.0
  0
POINT
  5
138D
  8
DEFPOINTS
 62
     0
 10
15.15986
 20
41.05401899999999
 30
0.0
  0
ENDBLK
  5
138E
  8
0
  0
BLOCK
  8
0
  2
*D6
 70
     1
 10
0.0
 20
0.0
 30
0.0
  3
*D6
  1

  0
LINE
  5
1391
  8
DIM
 62
     0
 10
2.7218599999999991
 20
37.998678999999981
 30
0.0
 11
2.7218599999999991
 21
41.519018999999957
 31
0.0
  0
LINE
  5
1392
  8
DIM
 62
     0
 10
14.597860000000001
 20
37.998678999999981
 30
0.0
 11
14.597860000000001
 21
41.519018999999957
 31
0.0
  0
LINE
  5
1393
  8
DIM
 62
     0
 10
3.6218599999999981
 20
41.05401899999999
 30
0.0
 11
8.0536100000000008
 21
41.05401899999999
 31
0.0
  0
LINE
  5
1394
  8
DIM
 62
     0
 10
13.69786
 20
41.05401899999999
 30
0.0
 11
9.2661099999999994
 21
41.05401899999999
 31
0.0
  0
SOLID
  5
1395
  8
DIM
 62
     0
 10
3.6218599999999981
 20
41.204018999999988
 30
0.0
 11
3.6218599999999981
 21
40.904018999999977
 31
0.0
 12
2.7218599999999991
 22
41.05401899999999
 32
0.0
 13
2.7218599999999991
 23
41.05401899999999
 33
0.0
  0
SOLID
  5
1396
  8
DIM
 62
     0
 10
13.69786
 20
41.204018999999988
 30
0.0
 11
13.69786
 21
40.904018999999977
 31
0.0
 12
14.597860000000001
 22
41.05401899999999
 32
0.0
 13
14.597860000000001
 23
41.05401899999999
 33
0.0
  0
TEXT
  5
1397
  8
DIM
 62
     0
 10
8.5036100000000001
 20
40.74151899999999
 30
0.0
 40
0.625
  1
E
 41
0.75
  7
TXT
  0
POINT
  5
1398
  8
DEFPOINTS
 62
     0
 10
2.7218599999999991
 20
37.683678999999991
 30
0.0
  0
POINT
  5
1399
  8
DEFPOINTS
 62
     0
 10
14.597860000000001
 20
37.683678999999991
 30
0.0
  0
POINT
  5
139A
  8
DEFPOINTS
 62
     0
 10
14.597860000000001
 20
41.05401899999999
 30
0.0
  0
ENDBLK
  5
139B
  8
0
  0
BLOCK
  8
0
  2
*D7
 70
     1
 10
0.0
 20
0.0
 30
0.0
  3
*D7
  1

  0
LINE
  5
139E
  8
DIM
 62
     0
 10
14.91286
 20
31.80767899999999
 30
0.0
 11
17.186059
 21
31.80767899999999
 31
0.0
  0
LINE
  5
139F
  8
DIM
 62
     0
 10
15.47486
 20
31.245678999999999
 30
0.0
 11
17.186059
 21
31.245678999999999
 31
0.0
  0
LINE
  5
13A0
  8
DIM
 62
     0
 10
16.721059
 20
32.707678999999963
 30
0.0
 11
16.721059
 21
33.607678999999983
 31
0.0
  0
LINE
  5
13A1
  8
DIM
 62
     0
 10
16.721059
 20
30.345679000000001
 30
0.0
 11
16.721059
 21
29.445678999999998
 31
0.0
  0
TEXT
  5
13A2
  8
DIM
 62
     0
 10
17.762621499999991
 20
31.214178999999991
 30
0.0
 40
0.625
  1
0.562
 41
0.75
  7
TXT
  0
SOLID
  5
13A3
  8
DIM
 62
     0
 10
16.571059000000002
 20
32.707678999999963
 30
0.0
 11
16.871058999999981
 21
32.707678999999963
 31
0.0
 12
16.721059
 22
31.80767899999999
 32
0.0
 13
16.721059
 23
31.80767899999999
 33
0.0
  0
SOLID
  5
13A4
  8
DIM
 62
     0
 10
16.571059000000002
 20
30.345679000000001
 30
0.0
 11
16.871058999999981
 21
30.345679000000001
 31
0.0
 12
16.721059
 22
31.245678999999999
 32
0.0
 13
16.721059
 23
31.245678999999999
 33
0.0
  0
POINT
  5
13A5
  8
DEFPOINTS
 62
     0
 10
14.597860000000001
 20
31.80767899999999
 30
0.0
  0
POINT
  5
13A6
  8
DEFPOINTS
 62
     0
 10
15.15986
 20
31.245678999999999
 30
0.0
  0
POINT
  5
13A7
  8
DEFPOINTS
 62
     0
 10
16.721059
 20
31.245678999999999
 30
0.0
  0
ENDBLK
  5
13A8
  8
0
  0
BLOCK
  8
0
  2
*D8
 70
     1
 10
0.0
 20
0.0
 30
0.0
  3
*D8
  1

  0
LINE
  5
13AB
  8
DIM
 62
     0
 10
14.91286
 20
31.80767899999999
 30
0.0
 11
17.186059
 21
31.80767899999999
 31
0.0
  0
LINE
  5
13AC
  8
DIM
 62
     0
 10
14.91286
 20
37.683678999999991
 30
0.0
 11
17.186059
 21
37.68367899999997
 31
0.0
  0
LINE
  5
13AD
  8
DIM
 62
     0
 10
16.721059
 20
32.707678999999963
 30
0.0
 11
16.721059
 21
33.983178999999978
 31
0.0
  0
LINE
  5
13AE
  8
DIM
 62
     0
 10
16.721059
 20
36.783678999999957
 30
0.0
 11
16.721059
 21
35.508178999999991
 31
0.0
  0
SOLID
  5
13AF
  8
DIM
 62
     0
 10
16.571059000000002
 20
32.707678999999963
 30
0.0
 11
16.871058999999981
 21
32.707678999999963
 31
0.0
 12
16.721059
 22
31.80767899999999
 32
0.0
 13
16.721059
 23
31.80767899999999
 33
0.0
  0
SOLID
  5
13B0
  8
DIM
 62
     0
 10
16.571059000000002
 20
36.783678999999957
 30
0.0
 11
16.871058999999981
 21
36.783678999999957
 31
0.0
 12
16.721059
 22
37.68367899999997
 32
0.0
 13
16.721059
 23
37.68367899999997
 33
0.0
  0
TEXT
  5
13B1
  8
DIM
 62
     0
 10
16.56480899999999
 20
34.433178999999981
 30
0.0
 40
0.625
  1
D
 41
0.75
  7
TXT
  0
POINT
  5
13B2
  8
DEFPOINTS
 62
     0
 10
14.597860000000001
 20
31.80767899999999
 30
0.0
  0
POINT
  5
13B3
  8
DEFPOINTS
 62
     0
 10
14.597860000000001
 20
37.683678999999991
 30
0.0
  0
POINT
  5
13B4
  8
DEFPOINTS
 62
     0
 10
16.721059
 20
37.68367899999997
 30
0.0
  0
ENDBLK
  5
13B5
  8
0
  0
BLOCK
  8
0
  2
*D9
 70
     1
 10
0.0
 20
0.0
 30
0.0
  3
*D9
  1

  0
LINE
  5
13B8
  8
DIM
 62
     0
 10
32.34913199999999
 20
38.498678999999989
 30
0.0
 11
32.34913199999999
 21
41.519018999999957
 31
0.0
  0
LINE
  5
13B9
  8
DIM
 62
     0
 10
32.287132
 20
38.560678999999958
 30
0.0
 11
32.287132
 21
41.519018999999957
 31
0.0
  0
LINE
  5
13BA
  8
DIM
 62
     0
 10
33.249131999999989
 20
41.05401899999999
 30
0.0
 11
34.149131999999987
 21
41.05401899999999
 31
0.0
  0
LINE
  5
13BB
  8
DIM
 62
     0
 10
31.387132000000001
 20
41.05401899999999
 30
0.0
 11
30.487131999999988
 21
41.05401899999999
 31
0.0
  0
TEXT
  5
13BC
  8
DIM
 62
     0
 10
31.458756999999991
 20
42.056518999999959
 30
0.0
 40
0.625
  1
0.062
 41
0.75
  7
TXT
  0
SOLID
  5
13BD
  8
DIM
 62
     0
 10
33.249131999999989
 20
41.204018999999988
 30
0.0
 11
33.249131999999989
 21
40.904018999999977
 31
0.0
 12
32.34913199999999
 22
41.05401899999999
 32
0.0
 13
32.34913199999999
 23
41.05401899999999
 33
0.0
  0
SOLID
  5
13BE
  8
DIM
 62
     0
 10
31.387132000000001
 20
41.204018999999988
 30
0.0
 11
31.387132000000001
 21
40.904018999999977
 31
0.0
 12
32.287132
 22
41.05401899999999
 32
0.0
 13
32.287132
 23
41.05401899999999
 33
0.0
  0
POINT
  5
13BF
  8
DEFPOINTS
 62
     0
 10
32.34913199999999
 20
38.183678999999998
 30
0.0
  0
POINT
  5
13C0
  8
DEFPOINTS
 62
     0
 10
32.287132
 20
38.245678999999988
 30
0.0
  0
POINT
  5
13C1
  8
DEFPOINTS
 62
     0
 10
32.287132
 20
41.05401899999999
 30
0.0
  0
ENDBLK
  5
13C2
  8
0
  0
BLOCK
  8
0
  2
*D10
 70
     1
 10
0.0
 20
0.0
 30
0.0
  3
*D10
  1

  0
LINE
  5
13C5
  8
DIM
 62
     0
 10
32.34913199999999
 20
38.498678999999989
 30
0.0
 11
32.34913199999999
 21
41.519018999999957
 31
0.0
  0
LINE
  5
13C6
  8
DIM
 62
     0
 10
45.225132000000002
 20
38.498678999999989
 30
0.0
 11
45.225132000000002
 21
41.519018999999957
 31
0.0
  0
LINE
  5
13C7
  8
DIM
 62
     0
 10
33.249131999999989
 20
41.05401899999999
 30
0.0
 11
38.180881999999997
 21
41.05401899999999
 31
0.0
  0
LINE
  5
13C8
  8
DIM
 62
     0
 10
44.325132000000004
 20
41.05401899999999
 30
0.0
 11
39.393382000000003
 21
41.05401899999999
 31
0.0
  0
SOLID
  5
13C9
  8
DIM
 62
     0
 10
33.249131999999989
 20
41.204018999999988
 30
0.0
 11
33.249131999999989
 21
40.904018999999977
 31
0.0
 12
32.34913199999999
 22
41.05401899999999
 32
0.0
 13
32.34913199999999
 23
41.05401899999999
 33
0.0
  0
SOLID
  5
13CA
  8
DIM
 62
     0
 10
44.325132000000004
 20
41.204018999999988
 30
0.0
 11
44.325132000000004
 21
40.904018999999977
 31
0.0
 12
45.225132000000002
 22
41.05401899999999
 32
0.0
 13
45.225132000000002
 23
41.05401899999999
 33
0.0
  0
TEXT
  5
13CB
  8
DIM
 62
     0
 10
38.630881999999993
 20
40.74151899999999
 30
0.0
 40
0.625
  1
G
 41
0.75
  7
TXT
  0
POINT
  5
13CC
  8
DEFPOINTS
 62
     0
 10
32.34913199999999
 20
38.183678999999998
 30
0.0
  0
POINT
  5
13CD
  8
DEFPOINTS
 62
     0
 10
45.225132000000002
 20
38.183678999999998
 30
0.0
  0
POINT
  5
13CE
  8
DEFPOINTS
 62
     0
 10
45.225132000000002
 20
41.05401899999999
 30
0.0
  0
ENDBLK
  5
13CF
  8
0
  0
BLOCK
  8
0
  2
*D11
 70
     1
 10
0.0
 20
0.0
 30
0.0
  3
*D11
  1

  0
LINE
  5
13D2
  8
DIM
 62
     0
 10
32.034131999999993
 20
31.308679000000001
 30
0.0
 11
30.074884000000001
 21
31.308679000000001
 31
0.0
  0
LINE
  5
13D3
  8
DIM
 62
     0
 10
32.003131999999987
 20
31.245678999999999
 30
0.0
 11
30.074884000000001
 21
31.245678999999999
 31
0.0
  0
LINE
  5
13D4
  8
DIM
 62
     0
 10
30.539884000000001
 20
32.208678999999997
 30
0.0
 11
30.539884000000001
 21
33.108679000000002
 31
0.0
  0
LINE
  5
13D5
  8
DIM
 62
     0
 10
30.539884000000001
 20
30.345679000000001
 30
0.0
 11
30.539884000000001
 21
29.445678999999998
 31
0.0
  0
TEXT
  5
13D6
  8
DIM
 62
     0
 10
28.365508999999982
 20
30.96467899999999
 30
0.0
 40
0.625
  1
0.063
 41
0.75
  7
TXT
  0
SOLID
  5
13D7
  8
DIM
 62
     0
 10
30.389883999999999
 20
32.208678999999997
 30
0.0
 11
30.689883999999999
 21
32.208678999999997
 31
0.0
 12
30.539884000000001
 22
31.308679000000001
 32
0.0
 13
30.539884000000001
 23
31.308679000000001
 33
0.0
  0
SOLID
  5
13D8
  8
DIM
 62
     0
 10
30.389883999999999
 20
30.345679000000001
 30
0.0
 11
30.689883999999999
 21
30.345679000000001
 31
0.0
 12
30.539884000000001
 22
31.245678999999999
 32
0.0
 13
30.539884000000001
 23
31.245678999999999
 33
0.0
  0
POINT
  5
13D9
  8
DEFPOINTS
 62
     0
 10
32.34913199999999
 20
31.308679000000001
 30
0.0
  0
POINT
  5
13DA
  8
DEFPOINTS
 62
     0
 10
32.318131999999991
 20
31.245678999999999
 30
0.0
  0
POINT
  5
13DB
  8
DEFPOINTS
 62
     0
 10
30.539884000000001
 20
31.245678999999999
 30
0.0
  0
ENDBLK
  5
13DC
  8
0
  0
BLOCK
  8
0
  2
*D12
 70
     1
 10
0.0
 20
0.0
 30
0.0
  3
*D12
  1

  0
LINE
  5
13DF
  8
DIM
 62
     0
 10
32.034131999999993
 20
31.308679000000001
 30
0.0
 11
30.074884000000001
 21
31.308679000000001
 31
0.0
  0
LINE
  5
13E0
  8
DIM
 62
     0
 10
32.034131999999993
 20
38.183678999999998
 30
0.0
 11
30.074884000000001
 21
38.183678999999998
 31
0.0
  0
LINE
  5
13E1
  8
DIM
 62
     0
 10
30.539884000000001
 20
32.208678999999997
 30
0.0
 11
30.539884000000001
 21
33.983679000000002
 31
0.0
  0
LINE
  5
13E2
  8
DIM
 62
     0
 10
30.539884000000001
 20
37.283678999999999
 30
0.0
 11
30.539884000000001
 21
35.508679000000001
 31
0.0
  0
SOLID
  5
13E3
  8
DIM
 62
     0
 10
30.389883999999999
 20
32.208678999999997
 30
0.0
 11
30.689883999999999
 21
32.208678999999997
 31
0.0
 12
30.539884000000001
 22
31.308679000000001
 32
0.0
 13
30.539884000000001
 23
31.308679000000001
 33
0.0
  0
SOLID
  5
13E4
  8
DIM
 62
     0
 10
30.389883999999999
 20
37.283678999999999
 30
0.0
 11
30.689883999999999
 21
37.283678999999999
 31
0.0
 12
30.539884000000001
 22
38.183678999999998
 32
0.0
 13
30.539884000000001
 23
38.183678999999998
 33
0.0
  0
TEXT
  5
13E5
  8
DIM
 62
     0
 10
30.38363399999999
 20
34.433679000000012
 30
0.0
 40
0.625
  1
F
 41
0.75
  7
TXT
  0
POINT
  5
13E6
  8
DEFPOINTS
 62
     0
 10
32.34913199999999
 20
31.308679000000001
 30
0.0
  0
POINT
  5
13E7
  8
DEFPOINTS
 62
     0
 10
32.34913199999999
 20
38.183678999999998
 30
0.0
  0
POINT
  5
13E8
  8
DEFPOINTS
 62
     0
 10
30.539884000000001
 20
38.183678999999998
 30
0.0
  0
ENDBLK
  5
13E9
  8
0
  0
BLOCK
  8
0
  2
*D13
 70
     1
 10
0.0
 20
0.0
 30
0.0
  3
*D13
  1

  0
LINE
  5
13EC
  8
DIM
 62
     0
 10
32.849131999999997
 20
37.942678999999991
 30
0.0
 11
32.849131999999997
 21
40.114018999999999
 31
0.0
  0
LINE
  5
13ED
  8
DIM
 62
     0
 10
32.287132
 20
38.52867899999999
 30
0.0
 11
32.287132
 21
40.114018999999999
 31
0.0
  0
LINE
  5
13EE
  8
DIM
 62
     0
 10
33.749131999999989
 20
39.649019000000003
 30
0.0
 11
34.64913199999998
 21
39.649019000000003
 31
0.0
  0
LINE
  5
13EF
  8
DIM
 62
     0
 10
31.387132000000001
 20
39.649019000000003
 30
0.0
 11
30.487131999999988
 21
39.649019000000003
 31
0.0
  0
TEXT
  5
13F0
  8
DIM
 62
     0
 10
31.669694499999991
 20
40.651519
 30
0.0
 40
0.625
  1
0.562
 41
0.75
  7
TXT
  0
SOLID
  5
13F1
  8
DIM
 62
     0
 10
33.749131999999989
 20
39.799019000000001
 30
0.0
 11
33.749131999999989
 21
39.499018999999997
 31
0.0
 12
32.849131999999997
 22
39.649019000000003
 32
0.0
 13
32.849131999999997
 23
39.649019000000003
 33
0.0
  0
SOLID
  5
13F2
  8
DIM
 62
     0
 10
31.387132000000001
 20
39.799019000000001
 30
0.0
 11
31.387132000000001
 21
39.499018999999997
 31
0.0
 12
32.287132
 22
39.649019000000003
 32
0.0
 13
32.287132
 23
39.649019000000003
 33
0.0
  0
POINT
  5
13F3
  8
DEFPOINTS
 62
     0
 10
32.849131999999997
 20
37.627679000000001
 30
0.0
  0
POINT
  5
13F4
  8
DEFPOINTS
 62
     0
 10
32.287132
 20
38.213678999999999
 30
0.0
  0
POINT
  5
13F5
  8
DEFPOINTS
 62
     0
 10
32.287132
 20
39.649019000000003
 30
0.0
  0
ENDBLK
  5
13F6
  8
0
  0
BLOCK
  8
0
  2
*D14
 70
     1
 10
0.0
 20
0.0
 30
0.0
  3
*D14
  1

  0
LINE
  5
13F9
  8
DIM
 62
     0
 10
44.977131999999983
 20
37.683678999999991
 30
0.0
 11
46.940396999999997
 21
37.683678999999991
 31
0.0
  0
LINE
  5
13FA
  8
DIM
 62
     0
 10
45.540131999999993
 20
38.183678999999998
 30
0.0
 11
46.940396999999997
 21
38.183678999999998
 31
0.0
  0
LINE
  5
13FB
  8
DIM
 62
     0
 10
46.475396999999987
 20
36.783678999999992
 30
0.0
 11
46.475396999999987
 21
35.883678999999987
 31
0.0
  0
LINE
  5
13FC
  8
DIM
 62
     0
 10
46.475396999999987
 20
39.083678999999997
 30
0.0
 11
46.475396999999987
 21
39.983678999999981
 31
0.0
  0
TEXT
  5
13FD
  8
DIM
 62
     0
 10
47.595084499999977
 20
37.621178999999991
 30
0.0
 40
0.625
  1
0.500
 41
0.75
  7
TXT
  0
SOLID
  5
13FE
  8
DIM
 62
     0
 10
46.325396999999967
 20
36.783678999999992
 30
0.0
 11
46.625396999999992
 21
36.783678999999992
 31
0.0
 12
46.475396999999987
 22
37.683678999999991
 32
0.0
 13
46.475396999999987
 23
37.683678999999991
 33
0.0
  0
SOLID
  5
13FF
  8
DIM
 62
     0
 10
46.325396999999967
 20
39.083678999999997
 30
0.0
 11
46.625396999999992
 21
39.083678999999997
 31
0.0
 12
46.475396999999987
 22
38.183678999999998
 32
0.0
 13
46.475396999999987
 23
38.183678999999998
 33
0.0
  0
POINT
  5
1400
  8
DEFPOINTS
 62
     0
 10
44.662132
 20
37.683678999999991
 30
0.0
  0
POINT
  5
1401
  8
DEFPOINTS
 62
     0
 10
45.225132000000002
 20
38.183678999999998
 30
0.0
  0
POINT
  5
1402
  8
DEFPOINTS
 62
     0
 10
46.475396999999987
 20
38.183678999999998
 30
0.0
  0
ENDBLK
  5
1403
  8
0
  0
BLOCK
  8
0
  2
*D15
 70
     1
 10
0.0
 20
0.0
 30
0.0
  3
*D15
  1

  0
LINE
  5
1406
  8
DIM
 62
     0
 10
15.47486
 20
56.291623000000001
 30
0.0
 11
17.186059
 21
56.291622999999987
 31
0.0
  0
LINE
  5
1407
  8
DIM
 62
     0
 10
15.47486
 20
49.291623000000001
 30
0.0
 11
17.186059
 21
49.291622999999973
 31
0.0
  0
LINE
  5
1408
  8
DIM
 62
     0
 10
16.721059
 20
55.391623000000003
 30
0.0
 11
16.721059
 21
53.554122999999997
 31
0.0
  0
LINE
  5
1409
  8
DIM
 62
     0
 10
16.721059
 20
50.191622999999993
 30
0.0
 11
16.721059
 21
52.029122999999991
 31
0.0
  0
SOLID
  5
140A
  8
DIM
 62
     0
 10
16.571059000000002
 20
55.391623000000003
 30
0.0
 11
16.871058999999981
 21
55.391623000000003
 31
0.0
 12
16.721059
 22
56.291622999999987
 32
0.0
 13
16.721059
 23
56.291622999999987
 33
0.0
  0
SOLID
  5
140B
  8
DIM
 62
     0
 10
16.571059000000002
 20
50.191622999999993
 30
0.0
 11
16.871058999999981
 21
50.191622999999993
 31
0.0
 12
16.721059
 22
49.291622999999973
 32
0.0
 13
16.721059
 23
49.291622999999973
 33
0.0
  0
TEXT
  5
140C
  8
DIM
 62
     0
 10
16.56480899999999
 20
52.479123000000001
 30
0.0
 40
0.625
  1
A
 41
0.75
  7
TXT
  0
POINT
  5
140D
  8
DEFPOINTS
 62
     0
 10
15.15986
 20
56.291623000000001
 30
0.0
  0
POINT
  5
140E
  8
DEFPOINTS
 62
     0
 10
15.15986
 20
49.291623000000001
 30
0.0
  0
POINT
  5
140F
  8
DEFPOINTS
 62
     0
 10
16.721059
 20
49.291622999999973
 30
0.0
  0
ENDBLK
  5
1410
  8
0
  0
BLOCK
  8
0
  2
*D16
 70
     1
 10
0.0
 20
0.0
 30
0.0
  3
*D16
  1

  0
LINE
  5
1413
  8
DIM
 62
     0
 10
20.714786
 20
49.031623000000003
 30
0.0
 11
20.714786
 21
47.519684999999988
 31
0.0
  0
LINE
  5
1414
  8
DIM
 62
     0
 10
20.182785999999989
 20
48.976622999999996
 30
0.0
 11
20.182785999999989
 21
47.519684999999988
 31
0.0
  0
LINE
  5
1415
  8
DIM
 62
     0
 10
21.614785999999999
 20
47.984684999999999
 30
0.0
 11
22.51478599999999
 21
47.984684999999999
 31
0.0
  0
LINE
  5
1416
  8
DIM
 62
     0
 10
19.282785999999991
 20
47.984684999999999
 30
0.0
 11
18.382785999999982
 21
47.984684999999999
 31
0.0
  0
TEXT
  5
1417
  8
DIM
 62
     0
 10
19.550348499999991
 20
45.732185000000001
 30
0.0
 40
0.625
  1
0.532
 41
0.75
  7
TXT
  0
SOLID
  5
1418
  8
DIM
 62
     0
 10
21.614785999999999
 20
48.13468499999999
 30
0.0
 11
21.614785999999999
 21
47.834685
 31
0.0
 12
20.714786
 22
47.984684999999999
 32
0.0
 13
20.714786
 23
47.984684999999999
 33
0.0
  0
SOLID
  5
1419
  8
DIM
 62
     0
 10
19.282785999999991
 20
48.13468499999999
 30
0.0
 11
19.282785999999991
 21
47.834685
 31
0.0
 12
20.182785999999989
 22
47.984684999999999
 32
0.0
 13
20.182785999999989
 23
47.984684999999999
 33
0.0
  0
POINT
  5
141A
  8
DEFPOINTS
 62
     0
 10
20.714786
 20
49.346623000000001
 30
0.0
  0
POINT
  5
141B
  8
DEFPOINTS
 62
     0
 10
20.182785999999989
 20
49.291623000000001
 30
0.0
  0
POINT
  5
141C
  8
DEFPOINTS
 62
     0
 10
20.182785999999989
 20
47.984684999999999
 30
0.0
  0
ENDBLK
  5
141D
  8
0
  0
BLOCK
  8
0
  2
*D17
 70
     1
 10
0.0
 20
0.0
 30
0.0
  3
*D17
  1

  0
LINE
  5
1420
  8
DIM
 62
     0
 10
27.932786
 20
49.038623000000001
 30
0.0
 11
27.932786
 21
47.519684999999988
 31
0.0
  0
LINE
  5
1421
  8
DIM
 62
     0
 10
28.182786
 20
48.976622999999996
 30
0.0
 11
28.182786
 21
47.519684999999988
 31
0.0
  0
LINE
  5
1422
  8
DIM
 62
     0
 10
27.032786000000002
 20
47.984684999999999
 30
0.0
 11
26.132785999999999
 21
47.984684999999999
 31
0.0
  0
LINE
  5
1423
  8
DIM
 62
     0
 10
29.082785999999999
 20
47.984684999999999
 30
0.0
 11
29.982786000000001
 21
47.984684999999999
 31
0.0
  0
TEXT
  5
1424
  8
DIM
 62
     0
 10
27.198411
 20
45.732185000000001
 30
0.0
 40
0.625
  1
0.250
 41
0.75
  7
TXT
  0
SOLID
  5
1425
  8
DIM
 62
     0
 10
27.032786000000002
 20
48.13468499999999
 30
0.0
 11
27.032786000000002
 21
47.834685
 31
0.0
 12
27.932786
 22
47.984684999999999
 32
0.0
 13
27.932786
 23
47.984684999999999
 33
0.0
  0
SOLID
  5
1426
  8
DIM
 62
     0
 10
29.082785999999999
 20
48.13468499999999
 30
0.0
 11
29.082785999999999
 21
47.834685
 31
0.0
 12
28.182786
 22
47.984684999999999
 32
0.0
 13
28.182786
 23
47.984684999999999
 33
0.0
  0
POINT
  5
1427
  8
DEFPOINTS
 62
     0
 10
27.932786
 20
49.353622999999999
 30
0.0
  0
POINT
  5
1428
  8
DEFPOINTS
 62
     0
 10
28.182786
 20
49.291623000000001
 30
0.0
  0
POINT
  5
1429
  8
DEFPOINTS
 62
     0
 10
28.182786
 20
47.984684999999999
 30
0.0
  0
ENDBLK
  5
142A
  8
0
  0
BLOCK
  8
0
  2
*D18
 70
     1
 10
0.0
 20
0.0
 30
0.0
  3
*D18
  1

  0
LINE
  5
142D
  8
DIM
 62
     0
 10
20.182785999999989
 20
56.606622999999999
 30
0.0
 11
20.182785999999989
 21
58.251775000000002
 31
0.0
  0
LINE
  5
142E
  8
DIM
 62
     0
 10
28.182786
 20
56.606622999999999
 30
0.0
 11
28.182786
 21
58.251775000000002
 31
0.0
  0
LINE
  5
142F
  8
DIM
 62
     0
 10
21.082785999999981
 20
57.786774999999999
 30
0.0
 11
23.57653599999999
 21
57.786774999999999
 31
0.0
  0
LINE
  5
1430
  8
DIM
 62
     0
 10
27.282786000000002
 20
57.786774999999999
 30
0.0
 11
24.789035999999982
 21
57.786774999999999
 31
0.0
  0
SOLID
  5
1431
  8
DIM
 62
     0
 10
21.082785999999981
 20
57.936774999999997
 30
0.0
 11
21.082785999999981
 21
57.636775
 31
0.0
 12
20.182785999999989
 22
57.786774999999999
 32
0.0
 13
20.182785999999989
 23
57.786774999999999
 33
0.0
  0
SOLID
  5
1432
  8
DIM
 62
     0
 10
27.282786000000002
 20
57.936774999999997
 30
0.0
 11
27.282786000000002
 21
57.636775
 31
0.0
 12
28.182786
 22
57.786774999999999
 32
0.0
 13
28.182786
 23
57.786774999999999
 33
0.0
  0
TEXT
  5
1433
  8
DIM
 62
     0
 10
24.026535999999972
 20
57.474274999999999
 30
0.0
 40
0.625
  1
C
 41
0.75
  7
TXT
  0
POINT
  5
1434
  8
DEFPOINTS
 62
     0
 10
20.182785999999989
 20
56.291623000000001
 30
0.0
  0
POINT
  5
1435
  8
DEFPOINTS
 62
     0
 10
28.182786
 20
56.291623000000001
 30
0.0
  0
POINT
  5
1436
  8
DEFPOINTS
 62
     0
 10
28.182786
 20
57.786774999999999
 30
0.0
  0
ENDBLK
  5
1437
  8
0
  0
BLOCK
  8
0
  2
*D19
 70
     1
 10
0.0
 20
0.0
 30
0.0
  3
*D19
  1

  0
LINE
  5
143A
  8
DIM
 62
     0
 10
2.7538599999999991
 20
22.765686999999989
 30
0.0
 11
2.7538599999999991
 21
24.355687
 31
0.0
  0
LINE
  5
143B
  8
DIM
 62
     0
 10
3.0038599999999991
 20
22.515686999999989
 30
0.0
 11
3.0038599999999991
 21
24.355687
 31
0.0
  0
LINE
  5
143C
  8
DIM
 62
     0
 10
1.853859999999999
 20
23.890687
 30
0.0
 11
0.9538599999999992
 21
23.890687
 31
0.0
  0
LINE
  5
143D
  8
DIM
 62
     0
 10
3.9038599999999981
 20
23.890687
 30
0.0
 11
4.8038599999999958
 21
23.890687
 31
0.0
  0
TEXT
  5
143E
  8
DIM
 62
     0
 10
2.0194849999999991
 20
24.893187000000001
 30
0.0
 40
0.625
  1
0.250
 41
0.75
  7
TXT
  0
SOLID
  5
143F
  8
DIM
 62
     0
 10
1.853859999999999
 20
24.040686999999991
 30
0.0
 11
1.853859999999999
 21
23.740687000000001
 31
0.0
 12
2.7538599999999991
 22
23.890687
 32
0.0
 13
2.7538599999999991
 23
23.890687
 33
0.0
  0
SOLID
  5
1440
  8
DIM
 62
     0
 10
3.9038599999999981
 20
24.040686999999991
 30
0.0
 11
3.9038599999999981
 21
23.740687000000001
 31
0.0
 12
3.0038599999999991
 22
23.890687
 32
0.0
 13
3.0038599999999991
 23
23.890687
 33
0.0
  0
POINT
  5
1441
  8
DEFPOINTS
 62
     0
 10
2.7538599999999991
 20
22.450686999999999
 30
0.0
  0
POINT
  5
1442
  8
DEFPOINTS
 62
     0
 10
3.0038599999999991
 20
22.200686999999999
 30
0.0
  0
POINT
  5
1443
  8
DEFPOINTS
 62
     0
 10
3.0038599999999991
 20
23.890687
 30
0.0
  0
ENDBLK
  5
1444
  8
0
  0
BLOCK
  8
0
  2
*D20
 70
     1
 10
0.0
 20
0.0
 30
0.0
  3
*D20
  1

  0
LINE
  5
1447
  8
DIM
 62
     0
 10
14.565860000000001
 20
22.765686999999989
 30
0.0
 11
14.565860000000001
 21
24.355687
 31
0.0
  0
LINE
  5
1448
  8
DIM
 62
     0
 10
14.315860000000001
 20
22.515686999999989
 30
0.0
 11
14.315860000000001
 21
24.355687
 31
0.0
  0
LINE
  5
1449
  8
DIM
 62
     0
 10
15.465859999999999
 20
23.890687
 30
0.0
 11
16.365860000000001
 21
23.890687
 31
0.0
  0
LINE
  5
144A
  8
DIM
 62
     0
 10
13.41586
 20
23.890687
 30
0.0
 11
12.51586
 21
23.890687
 31
0.0
  0
TEXT
  5
144B
  8
DIM
 62
     0
 10
13.581485000000001
 20
24.893187000000001
 30
0.0
 40
0.625
  1
0.250
 41
0.75
  7
TXT
  0
SOLID
  5
144C
  8
DIM
 62
     0
 10
15.465859999999999
 20
24.040686999999991
 30
0.0
 11
15.465859999999999
 21
23.740687000000001
 31
0.0
 12
14.565860000000001
 22
23.890687
 32
0.0
 13
14.565860000000001
 23
23.890687
 33
0.0
  0
SOLID
  5
144D
  8
DIM
 62
     0
 10
13.41586
 20
24.040686999999991
 30
0.0
 11
13.41586
 21
23.740687000000001
 31
0.0
 12
14.315860000000001
 22
23.890687
 32
0.0
 13
14.315860000000001
 23
23.890687
 33
0.0
  0
POINT
  5
144E
  8
DEFPOINTS
 62
     0
 10
14.565860000000001
 20
22.450686999999999
 30
0.0
  0
POINT
  5
144F
  8
DEFPOINTS
 62
     0
 10
14.315860000000001
 20
22.200686999999999
 30
0.0
  0
POINT
  5
1450
  8
DEFPOINTS
 62
     0
 10
14.315860000000001
 20
23.890687
 30
0.0
  0
ENDBLK
  5
1451
  8
0
  0
BLOCK
  8
0
  2
*D21
 70
     1
 10
0.0
 20
0.0
 30
0.0
  3
*D21
  1

  0
LINE
  5
1454
  8
DIM
 62
     0
 10
14.565860000000001
 20
22.765686999999989
 30
0.0
 11
14.565860000000001
 21
25.760687000000001
 31
0.0
  0
LINE
  5
1455
  8
DIM
 62
     0
 10
2.7538599999999991
 20
22.765686999999989
 30
0.0
 11
2.7538599999999991
 21
25.760687000000001
 31
0.0
  0
LINE
  5
1456
  8
DIM
 62
     0
 10
13.66586
 20
25.295687000000001
 30
0.0
 11
9.2661099999999994
 21
25.295687000000001
 31
0.0
  0
LINE
  5
1457
  8
DIM
 62
     0
 10
3.6538599999999981
 20
25.295687000000001
 30
0.0
 11
8.0536100000000008
 21
25.295687000000001
 31
0.0
  0
SOLID
  5
1458
  8
DIM
 62
     0
 10
13.66586
 20
25.445687
 30
0.0
 11
13.66586
 21
25.145686999999992
 31
0.0
 12
14.565860000000001
 22
25.295687000000001
 32
0.0
 13
14.565860000000001
 23
25.295687000000001
 33
0.0
  0
SOLID
  5
1459
  8
DIM
 62
     0
 10
3.6538599999999981
 20
25.445687
 30
0.0
 11
3.6538599999999981
 21
25.145686999999992
 31
0.0
 12
2.7538599999999991
 22
25.295687000000001
 32
0.0
 13
2.7538599999999991
 23
25.295687000000001
 33
0.0
  0
TEXT
  5
145A
  8
DIM
 62
     0
 10
8.5036100000000001
 20
24.983187000000001
 30
0.0
 40
0.625
  1
J
 41
0.75
  7
TXT
  0
POINT
  5
145B
  8
DEFPOINTS
 62
     0
 10
14.565860000000001
 20
22.450686999999999
 30
0.0
  0
POINT
  5
145C
  8
DEFPOINTS
 62
     0
 10
2.7538599999999991
 20
22.450686999999999
 30
0.0
  0
POINT
  5
145D
  8
DEFPOINTS
 62
     0
 10
2.7538599999999991
 20
25.295687000000001
 30
0.0
  0
ENDBLK
  5
145E
  8
0
  0
BLOCK
  8
0
  2
*D22
 70
     1
 10
0.0
 20
0.0
 30
0.0
  3
*D22
  1

  0
LINE
  5
1461
  8
DIM
 62
     0
 10
14.63086
 20
22.200686999999999
 30
0.0
 11
17.258175000000001
 21
22.200686999999999
 31
0.0
  0
LINE
  5
1462
  8
DIM
 62
     0
 10
14.88086
 20
22.450686999999999
 30
0.0
 11
17.258175000000001
 21
22.450686999999999
 31
0.0
  0
LINE
  5
1463
  8
DIM
 62
     0
 10
16.793175000000002
 20
21.300687
 30
0.0
 11
16.793175000000002
 21
20.400686999999991
 31
0.0
  0
LINE
  5
1464
  8
DIM
 62
     0
 10
16.793175000000002
 20
23.350686999999969
 30
0.0
 11
16.793175000000002
 21
24.250686999999999
 31
0.0
  0
TEXT
  5
1465
  8
DIM
 62
     0
 10
17.873799999999981
 20
22.013186999999991
 30
0.0
 40
0.625
  1
0.250
 41
0.75
  7
TXT
  0
SOLID
  5
1466
  8
DIM
 62
     0
 10
16.643174999999999
 20
21.300687
 30
0.0
 11
16.943175
 21
21.300687
 31
0.0
 12
16.793175000000002
 22
22.200686999999999
 32
0.0
 13
16.793175000000002
 23
22.200686999999999
 33
0.0
  0
SOLID
  5
1467
  8
DIM
 62
     0
 10
16.643174999999999
 20
23.350686999999969
 30
0.0
 11
16.943175
 21
23.350686999999969
 31
0.0
 12
16.793175000000002
 22
22.450686999999999
 32
0.0
 13
16.793175000000002
 23
22.450686999999999
 33
0.0
  0
POINT
  5
1468
  8
DEFPOINTS
 62
     0
 10
14.315860000000001
 20
22.200686999999999
 30
0.0
  0
POINT
  5
1469
  8
DEFPOINTS
 62
     0
 10
14.565860000000001
 20
22.450686999999999
 30
0.0
  0
POINT
  5
146A
  8
DEFPOINTS
 62
     0
 10
16.793175000000002
 20
22.450686999999999
 30
0.0
  0
ENDBLK
  5
146B
  8
0
  0
BLOCK
  8
0
  2
*D23
 70
     1
 10
0.0
 20
0.0
 30
0.0
  3
*D23
  1

  0
LINE
  5
146E
  8
DIM
 62
     0
 10
14.63086
 20
15.810687
 30
0.0
 11
17.258175000000001
 21
15.810687
 31
0.0
  0
LINE
  5
146F
  8
DIM
 62
     0
 10
14.88086
 20
15.560686999999991
 30
0.0
 11
17.258175000000001
 21
15.560686999999991
 31
0.0
  0
LINE
  5
1470
  8
DIM
 62
     0
 10
16.793175000000002
 20
16.710687
 30
0.0
 11
16.793175000000002
 21
17.610686999999999
 31
0.0
  0
LINE
  5
1471
  8
DIM
 62
     0
 10
16.793175000000002
 20
14.66068699999999
 30
0.0
 11
16.793175000000002
 21
13.76068699999999
 31
0.0
  0
TEXT
  5
1472
  8
DIM
 62
     0
 10
17.873799999999981
 20
15.373186999999991
 30
0.0
 40
0.625
  1
0.250
 41
0.75
  7
TXT
  0
SOLID
  5
1473
  8
DIM
 62
     0
 10
16.643174999999999
 20
16.710687
 30
0.0
 11
16.943175
 21
16.710687
 31
0.0
 12
16.793175000000002
 22
15.810687
 32
0.0
 13
16.793175000000002
 23
15.810687
 33
0.0
  0
SOLID
  5
1474
  8
DIM
 62
     0
 10
16.643174999999999
 20
14.66068699999999
 30
0.0
 11
16.943175
 21
14.66068699999999
 31
0.0
 12
16.793175000000002
 22
15.560686999999991
 32
0.0
 13
16.793175000000002
 23
15.560686999999991
 33
0.0
  0
POINT
  5
1475
  8
DEFPOINTS
 62
     0
 10
14.315860000000001
 20
15.810687
 30
0.0
  0
POINT
  5
1476
  8
DEFPOINTS
 62
     0
 10
14.565860000000001
 20
15.560686999999991
 30
0.0
  0
POINT
  5
1477
  8
DEFPOINTS
 62
     0
 10
16.793175000000002
 20
15.560686999999991
 30
0.0
  0
ENDBLK
  5
1478
  8
0
  0
BLOCK
  8
0
  2
*D24
 70
     1
 10
0.0
 20
0.0
 30
0.0
  3
*D24
  1

  0
LINE
  5
147B
  8
DIM
 62
     0
 10
14.88086
 20
22.450686999999999
 30
0.0
 11
18.663174999999999
 21
22.450686999999999
 31
0.0
  0
LINE
  5
147C
  8
DIM
 62
     0
 10
14.88086
 20
15.560686999999991
 30
0.0
 11
18.663174999999999
 21
15.560686999999991
 31
0.0
  0
LINE
  5
147D
  8
DIM
 62
     0
 10
18.198174999999999
 20
21.550687
 30
0.0
 11
18.198174999999999
 21
19.76818699999998
 31
0.0
  0
LINE
  5
147E
  8
DIM
 62
     0
 10
18.198174999999999
 20
16.460686999999979
 30
0.0
 11
18.198174999999999
 21
18.243186999999999
 31
0.0
  0
SOLID
  5
147F
  8
DIM
 62
     0
 10
18.048175000000001
 20
21.550687
 30
0.0
 11
18.348174999999991
 21
21.550687
 31
0.0
 12
18.198174999999999
 22
22.450686999999999
 32
0.0
 13
18.198174999999999
 23
22.450686999999999
 33
0.0
  0
SOLID
  5
1480
  8
DIM
 62
     0
 10
18.048175000000001
 20
16.460686999999979
 30
0.0
 11
18.348174999999991
 21
16.460686999999979
 31
0.0
 12
18.198174999999999
 22
15.560686999999991
 32
0.0
 13
18.198174999999999
 23
15.560686999999991
 33
0.0
  0
TEXT
  5
1481
  8
DIM
 62
     0
 10
18.041924999999988
 20
18.693187000000002
 30
0.0
 40
0.625
  1
H
 41
0.75
  7
TXT
  0
POINT
  5
1482
  8
DEFPOINTS
 62
     0
 10
14.565860000000001
 20
22.450686999999999
 30
0.0
  0
POINT
  5
1483
  8
DEFPOINTS
 62
     0
 10
14.565860000000001
 20
15.560686999999991
 30
0.0
  0
POINT
  5
1484
  8
DEFPOINTS
 62
     0
 10
18.198174999999999
 20
15.560686999999991
 30
0.0
  0
ENDBLK
  5
1485
  8
0
  0
BLOCK
  8
0
  2
*D25
 70
     1
 10
0.0
 20
0.0
 30
0.0
  3
*D25
  1

  0
LINE
  5
1488
  8
DIM
 62
     0
 10
32.677632000000003
 20
21.453686999999999
 30
0.0
 11
32.677632000000003
 21
24.355687
 31
0.0
  0
LINE
  5
1489
  8
DIM
 62
     0
 10
32.443632000000001
 20
22.765686999999989
 30
0.0
 11
32.443632000000001
 21
24.355687
 31
0.0
  0
LINE
  5
148A
  8
DIM
 62
     0
 10
33.577632000000001
 20
23.890687
 30
0.0
 11
34.477632
 21
23.890687
 31
0.0
  0
LINE
  5
148B
  8
DIM
 62
     0
 10
31.543631999999999
 20
23.890687
 30
0.0
 11
30.643632
 21
23.890687
 31
0.0
  0
TEXT
  5
148C
  8
DIM
 62
     0
 10
31.662194499999991
 20
24.893187000000001
 30
0.0
 40
0.625
  1
0.234
 41
0.75
  7
TXT
  0
SOLID
  5
148D
  8
DIM
 62
     0
 10
33.577632000000001
 20
24.040686999999991
 30
0.0
 11
33.577632000000001
 21
23.740687000000001
 31
0.0
 12
32.677632000000003
 22
23.890687
 32
0.0
 13
32.677632000000003
 23
23.890687
 33
0.0
  0
SOLID
  5
148E
  8
DIM
 62
     0
 10
31.543631999999999
 20
24.040686999999991
 30
0.0
 11
31.543631999999999
 21
23.740687000000001
 31
0.0
 12
32.443632000000001
 22
23.890687
 32
0.0
 13
32.443632000000001
 23
23.890687
 33
0.0
  0
POINT
  5
148F
  8
DEFPOINTS
 62
     0
 10
32.677632000000003
 20
21.138687000000001
 30
0.0
  0
POINT
  5
1490
  8
DEFPOINTS
 62
     0
 10
32.443632000000001
 20
22.450686999999999
 30
0.0
  0
POINT
  5
1491
  8
DEFPOINTS
 62
     0
 10
32.443632000000001
 20
23.890687
 30
0.0
  0
ENDBLK
  5
1492
  8
0
  0
BLOCK
  8
0
  2
*D26
 70
     1
 10
0.0
 20
0.0
 30
0.0
  3
*D26
  1

  0
LINE
  5
1495
  8
DIM
 62
     0
 10
45.224631999999993
 20
22.765686999999989
 30
0.0
 11
45.224631999999993
 21
24.355687
 31
0.0
  0
LINE
  5
1496
  8
DIM
 62
     0
 10
44.990631999999998
 20
21.453686999999999
 30
0.0
 11
44.990631999999998
 21
24.355687
 31
0.0
  0
LINE
  5
1497
  8
DIM
 62
     0
 10
46.124631999999991
 20
23.890687
 30
0.0
 11
47.02463199999999
 21
23.890687
 31
0.0
  0
LINE
  5
1498
  8
DIM
 62
     0
 10
44.090631999999999
 20
23.890687
 30
0.0
 11
43.190632000000001
 21
23.890687
 31
0.0
  0
TEXT
  5
1499
  8
DIM
 62
     0
 10
44.209194499999981
 20
24.893187000000001
 30
0.0
 40
0.625
  1
0.234
 41
0.75
  7
TXT
  0
SOLID
  5
149A
  8
DIM
 62
     0
 10
46.124631999999991
 20
24.040686999999991
 30
0.0
 11
46.124631999999991
 21
23.740687000000001
 31
0.0
 12
45.224631999999993
 22
23.890687
 32
0.0
 13
45.224631999999993
 23
23.890687
 33
0.0
  0
SOLID
  5
149B
  8
DIM
 62
     0
 10
44.090631999999999
 20
24.040686999999991
 30
0.0
 11
44.090631999999999
 21
23.740687000000001
 31
0.0
 12
44.990631999999998
 22
23.890687
 32
0.0
 13
44.990631999999998
 23
23.890687
 33
0.0
  0
POINT
  5
149C
  8
DEFPOINTS
 62
     0
 10
45.224631999999993
 20
22.450686999999999
 30
0.0
  0
POINT
  5
149D
  8
DEFPOINTS
 62
     0
 10
44.990631999999998
 20
21.138687000000001
 30
0.0
  0
POINT
  5
149E
  8
DEFPOINTS
 62
     0
 10
44.990631999999998
 20
23.890687
 30
0.0
  0
ENDBLK
  5
149F
  8
0
  0
BLOCK
  8
0
  2
*D27
 70
     1
 10
0.0
 20
0.0
 30
0.0
  3
*D27
  1

  0
LINE
  5
14A2
  8
DIM
 62
     0
 10
32.443632000000001
 20
22.765686999999989
 30
0.0
 11
32.443632000000001
 21
25.760687000000001
 31
0.0
  0
LINE
  5
14A3
  8
DIM
 62
     0
 10
45.224631999999993
 20
22.765686999999989
 30
0.0
 11
45.224631999999993
 21
25.760687000000001
 31
0.0
  0
LINE
  5
14A4
  8
DIM
 62
     0
 10
33.343631999999999
 20
25.295687000000001
 30
0.0
 11
38.227881999999987
 21
25.295687000000001
 31
0.0
  0
LINE
  5
14A5
  8
DIM
 62
     0
 10
44.324631999999987
 20
25.295687000000001
 30
0.0
 11
39.440381999999993
 21
25.295687000000001
 31
0.0
  0
SOLID
  5
14A6
  8
DIM
 62
     0
 10
33.343631999999999
 20
25.445687
 30
0.0
 11
33.343631999999999
 21
25.145686999999992
 31
0.0
 12
32.443632000000001
 22
25.295687000000001
 32
0.0
 13
32.443632000000001
 23
25.295687000000001
 33
0.0
  0
SOLID
  5
14A7
  8
DIM
 62
     0
 10
44.324631999999987
 20
25.445687
 30
0.0
 11
44.324631999999987
 21
25.145686999999992
 31
0.0
 12
45.224631999999993
 22
25.295687000000001
 32
0.0
 13
45.224631999999993
 23
25.295687000000001
 33
0.0
  0
TEXT
  5
14A8
  8
DIM
 62
     0
 10
38.67788199999999
 20
24.983187000000001
 30
0.0
 40
0.625
  1
L
 41
0.75
  7
TXT
  0
POINT
  5
14A9
  8
DEFPOINTS
 62
     0
 10
32.443632000000001
 20
22.450686999999999
 30
0.0
  0
POINT
  5
14AA
  8
DEFPOINTS
 62
     0
 10
45.224631999999993
 20
22.450686999999999
 30
0.0
  0
POINT
  5
14AB
  8
DEFPOINTS
 62
     0
 10
45.224631999999993
 20
25.295687000000001
 30
0.0
  0
ENDBLK
  5
14AC
  8
0
  0
BLOCK
  8
0
  2
*D28
 70
     1
 10
0.0
 20
0.0
 30
0.0
  3
*D28
  1

  0
LINE
  5
14AF
  8
DIM
 62
     0
 10
45.430631999999967
 20
21.029686999999988
 30
0.0
 11
47.839302999999987
 21
21.029686999999988
 31
0.0
  0
LINE
  5
14B0
  8
DIM
 62
     0
 10
45.53963199999999
 20
22.450686999999999
 30
0.0
 11
47.839302999999987
 21
22.450686999999999
 31
0.0
  0
LINE
  5
14B1
  8
DIM
 62
     0
 10
47.374302999999983
 20
20.129686999999969
 30
0.0
 11
47.374302999999983
 21
19.229686999999981
 31
0.0
  0
LINE
  5
14B2
  8
DIM
 62
     0
 10
47.374302999999983
 20
23.350686999999969
 30
0.0
 11
47.374302999999983
 21
24.250686999999999
 31
0.0
  0
TEXT
  5
14B3
  8
DIM
 62
     0
 10
48.533052999999981
 20
21.427686999999992
 30
0.0
 40
0.625
  1
1.421
 41
0.75
  7
TXT
  0
SOLID
  5
14B4
  8
DIM
 62
     0
 10
47.224302999999999
 20
20.129686999999969
 30
0.0
 11
47.524302999999989
 21
20.129686999999969
 31
0.0
 12
47.374302999999983
 22
21.029686999999988
 32
0.0
 13
47.374302999999983
 23
21.029686999999988
 33
0.0
  0
SOLID
  5
14B5
  8
DIM
 62
     0
 10
47.224302999999999
 20
23.350686999999969
 30
0.0
 11
47.524302999999989
 21
23.350686999999969
 31
0.0
 12
47.374302999999983
 22
22.450686999999999
 32
0.0
 13
47.374302999999983
 23
22.450686999999999
 33
0.0
  0
POINT
  5
14B6
  8
DEFPOINTS
 62
     0
 10
45.115631999999998
 20
21.029686999999988
 30
0.0
  0
POINT
  5
14B7
  8
DEFPOINTS
 62
     0
 10
45.224631999999993
 20
22.450686999999999
 30
0.0
  0
POINT
  5
14B8
  8
DEFPOINTS
 62
     0
 10
47.374302999999983
 20
22.450686999999999
 30
0.0
  0
ENDBLK
  5
14B9
  8
0
  0
BLOCK
  8
0
  2
*D29
 70
     1
 10
0.0
 20
0.0
 30
0.0
  3
*D29
  1

  0
LINE
  5
14BC
  8
DIM
 62
     0
 10
45.53963199999999
 20
15.638686999999999
 30
0.0
 11
47.839302999999973
 21
15.638686999999999
 31
0.0
  0
LINE
  5
14BD
  8
DIM
 62
     0
 10
45.430631999999967
 20
17.059687
 30
0.0
 11
47.839302999999987
 21
17.059687
 31
0.0
  0
LINE
  5
14BE
  8
DIM
 62
     0
 10
47.374302999999983
 20
14.738686999999979
 30
0.0
 11
47.374302999999983
 21
13.838687
 31
0.0
  0
LINE
  5
14BF
  8
DIM
 62
     0
 10
47.374302999999983
 20
17.959686999999992
 30
0.0
 11
47.374302999999983
 21
18.859687000000001
 31
0.0
  0
TEXT
  5
14C0
  8
DIM
 62
     0
 10
48.533052999999981
 20
16.036687000000001
 30
0.0
 40
0.625
  1
1.421
 41
0.75
  7
TXT
  0
SOLID
  5
14C1
  8
DIM
 62
     0
 10
47.224302999999992
 20
14.738686999999979
 30
0.0
 11
47.524302999999989
 21
14.738686999999979
 31
0.0
 12
47.374302999999983
 22
15.638686999999999
 32
0.0
 13
47.374302999999983
 23
15.638686999999999
 33
0.0
  0
SOLID
  5
14C2
  8
DIM
 62
     0
 10
47.224302999999999
 20
17.959686999999992
 30
0.0
 11
47.524302999999989
 21
17.959686999999992
 31
0.0
 12
47.374302999999983
 22
17.059687
 32
0.0
 13
47.374302999999983
 23
17.059687
 33
0.0
  0
POINT
  5
14C3
  8
DEFPOINTS
 62
     0
 10
45.224631999999993
 20
15.638686999999999
 30
0.0
  0
POINT
  5
14C4
  8
DEFPOINTS
 62
     0
 10
45.115631999999998
 20
17.059687
 30
0.0
  0
POINT
  5
14C5
  8
DEFPOINTS
 62
     0
 10
47.374302999999983
 20
17.059687
 30
0.0
  0
ENDBLK
  5
14C6
  8
0
  0
BLOCK
  8
0
  2
*D30
 70
     1
 10
0.0
 20
0.0
 30
0.0
  3
*D30
  1

  0
LINE
  5
14C9
  8
DIM
 62
     0
 10
45.53963199999999
 20
22.450686999999999
 30
0.0
 11
49.244303000000002
 21
22.450686999999999
 31
0.0
  0
LINE
  5
14CA
  8
DIM
 62
     0
 10
45.53963199999999
 20
15.638686999999999
 30
0.0
 11
49.244303000000002
 21
15.638686999999999
 31
0.0
  0
LINE
  5
14CB
  8
DIM
 62
     0
 10
48.779302999999999
 20
21.550687
 30
0.0
 11
48.779302999999999
 21
19.807186999999981
 31
0.0
  0
LINE
  5
14CC
  8
DIM
 62
     0
 10
48.779302999999999
 20
16.538686999999999
 30
0.0
 11
48.779302999999999
 21
18.282187
 31
0.0
  0
SOLID
  5
14CD
  8
DIM
 62
     0
 10
48.629303000000007
 20
21.550687
 30
0.0
 11
48.92930299999999
 21
21.550687
 31
0.0
 12
48.779302999999999
 22
22.450686999999999
 32
0.0
 13
48.779302999999999
 23
22.450686999999999
 33
0.0
  0
SOLID
  5
14CE
  8
DIM
 62
     0
 10
48.629303000000007
 20
16.538686999999999
 30
0.0
 11
48.92930299999999
 21
16.538686999999999
 31
0.0
 12
48.779302999999999
 22
15.638686999999999
 32
0.0
 13
48.779302999999999
 23
15.638686999999999
 33
0.0
  0
TEXT
  5
14CF
  8
DIM
 62
     0
 10
48.623052999999999
 20
18.732186999999978
 30
0.0
 40
0.625
  1
K
 41
0.75
  7
TXT
  0
POINT
  5
14D0
  8
DEFPOINTS
 62
     0
 10
45.224631999999993
 20
22.450686999999999
 30
0.0
  0
POINT
  5
14D1
  8
DEFPOINTS
 62
     0
 10
45.224631999999993
 20
15.638686999999999
 30
0.0
  0
POINT
  5
14D2
  8
DEFPOINTS
 62
     0
 10
48.779302999999999
 20
15.638686999999999
 30
0.0
  0
ENDBLK
  5
14D3
  8
0
  0
BLOCK
  8
0
  2
*D31
 70
     1
 10
0.0
 20
0.0
 30
0.0
  3
*D31
  1

  0
LINE
  5
14D6
  8
DIM
 62
     0
 10
14.597860000000001
 20
37.998678999999981
 30
0.0
 11
14.597860000000001
 21
40.114018999999999
 31
0.0
  0
LINE
  5
14D7
  8
DIM
 62
     0
 10
14.097860000000001
 20
37.98267899999999
 30
0.0
 11
14.097860000000001
 21
40.114018999999999
 31
0.0
  0
LINE
  5
14D8
  8
DIM
 62
     0
 10
15.497859999999999
 20
39.649019000000003
 30
0.0
 11
16.397860000000001
 21
39.649019000000003
 31
0.0
  0
LINE
  5
14D9
  8
DIM
 62
     0
 10
13.19786
 20
39.649019000000003
 30
0.0
 11
12.29786
 21
39.649019000000003
 31
0.0
  0
TEXT
  5
14DA
  8
DIM
 62
     0
 10
13.527547500000001
 20
40.651519
 30
0.0
 40
0.625
  1
0.500
 41
0.75
  7
TXT
  0
SOLID
  5
14DB
  8
DIM
 62
     0
 10
15.497859999999999
 20
39.799019000000001
 30
0.0
 11
15.497859999999999
 21
39.499018999999997
 31
0.0
 12
14.597860000000001
 22
39.649019000000003
 32
0.0
 13
14.597860000000001
 23
39.649019000000003
 33
0.0
  0
SOLID
  5
14DC
  8
DIM
 62
     0
 10
13.19786
 20
39.799019000000001
 30
0.0
 11
13.19786
 21
39.499018999999997
 31
0.0
 12
14.097860000000001
 22
39.649019000000003
 32
0.0
 13
14.097860000000001
 23
39.649019000000003
 33
0.0
  0
POINT
  5
14DD
  8
DEFPOINTS
 62
     0
 10
14.597860000000001
 20
37.683678999999991
 30
0.0
  0
POINT
  5
14DE
  8
DEFPOINTS
 62
     0
 10
14.097860000000001
 20
37.667679
 30
0.0
  0
POINT
  5
14DF
  8
DEFPOINTS
 62
     0
 10
14.097860000000001
 20
39.649019000000003
 30
0.0
  0
ENDBLK
  5
14E0
  8
0
  0
BLOCK
  8
0
  2
*D32
 70
     1
 10
0.0
 20
0.0
 30
0.0
  3
*D32
  1

  0
LINE
  5
14E3
  8
DIM
 62
     0
 10
2.1598599999999961
 20
56.606622999999999
 30
0.0
 11
2.1598599999999961
 21
58.239799000000012
 31
0.0
  0
LINE
  5
14E4
  8
DIM
 62
     0
 10
15.15986
 20
56.606622999999999
 30
0.0
 11
15.15986
 21
58.239799000000012
 31
0.0
  0
LINE
  5
14E5
  8
DIM
 62
     0
 10
3.059859999999996
 20
57.774799000000002
 30
0.0
 11
8.053609999999999
 21
57.774799000000002
 31
0.0
  0
LINE
  5
14E6
  8
DIM
 62
     0
 10
14.259859999999991
 20
57.774799000000002
 30
0.0
 11
9.2661099999999976
 21
57.774799000000002
 31
0.0
  0
SOLID
  5
14E7
  8
DIM
 62
     0
 10
3.059859999999996
 20
57.924799
 30
0.0
 11
3.059859999999996
 21
57.624799000000003
 31
0.0
 12
2.1598599999999961
 22
57.774799000000002
 32
0.0
 13
2.1598599999999961
 23
57.774799000000002
 33
0.0
  0
SOLID
  5
14E8
  8
DIM
 62
     0
 10
14.259859999999991
 20
57.924799
 30
0.0
 11
14.259859999999991
 21
57.624799000000003
 31
0.0
 12
15.15986
 22
57.774799000000002
 32
0.0
 13
15.15986
 23
57.774799000000002
 33
0.0
  0
TEXT
  5
14E9
  8
DIM
 62
     0
 10
8.5036099999999983
 20
57.462299000000002
 30
0.0
 40
0.625
  1
B
 41
0.75
  7
TXT
  0
POINT
  5
14EA
  8
DEFPOINTS
 62
     0
 10
2.1598599999999961
 20
56.291623000000001
 30
0.0
  0
POINT
  5
14EB
  8
DEFPOINTS
 62
     0
 10
15.15986
 20
56.291623000000001
 30
0.0
  0
POINT
  5
14EC
  8
DEFPOINTS
 62
     0
 10
15.15986
 20
57.774799000000002
 30
0.0
  0
ENDBLK
  5
14ED
  8
0
  0
BLOCK
  8
0
  2
*D33
 70
     1
 10
0.0
 20
0.0
 30
0.0
  3
*D33
  1

  0
LINE
  5
14F0
  8
DIM
 62
     0
 10
14.597860000000001
 20
37.998678999999981
 30
0.0
 11
14.597860000000001
 21
41.519018999999972
 31
0.0
  0
LINE
  5
14F1
  8
DIM
 62
     0
 10
15.15986
 20
38.560678999999972
 30
0.0
 11
15.15986
 21
41.519018999999972
 31
0.0
  0
LINE
  5
14F2
  8
DIM
 62
     0
 10
13.69786
 20
41.05401899999999
 30
0.0
 11
12.79786
 21
41.05401899999999
 31
0.0
  0
LINE
  5
14F3
  8
DIM
 62
     0
 10
16.05986
 20
41.05401899999999
 30
0.0
 11
16.959859999999981
 21
41.05401899999999
 31
0.0
  0
SOLID
  5
14F4
  8
DIM
 62
     0
 10
13.69786
 20
41.204018999999988
 30
0.0
 11
13.69786
 21
40.904018999999977
 31
0.0
 12
14.597860000000001
 22
41.05401899999999
 32
0.0
 13
14.597860000000001
 23
41.05401899999999
 33
0.0
  0
SOLID
  5
14F5
  8
DIM
 62
     0
 10
16.05986
 20
41.204018999999988
 30
0.0
 11
16.05986
 21
40.904018999999977
 31
0.0
 12
15.15986
 22
41.05401899999999
 32
0.0
 13
15.15986
 23
41.05401899999999
 33
0.0
  0
TEXT
  5
14F6
  8
DIM
 62
     0
 10
17.409859999999991
 20
40.74151899999999
 30
0.0
 40
0.625
  1
0.562
 41
0.75
  7
TXT
  0
POINT
  5
14F7
  8
DEFPOINTS
 62
     0
 10
14.597860000000001
 20
37.683678999999991
 30
0.0
  0
POINT
  5
14F8
  8
DEFPOINTS
 62
     0
 10
15.15986
 20
38.245678999999988
 30
0.0
  0
POINT
  5
14F9
  8
DEFPOINTS
 62
     0
 10
15.15986
 20
41.05401899999999
 30
0.0
  0
ENDBLK
  5
14FA
  8
0
  0
BLOCK
  8
0
  2
*D34
 70
     1
 10
0.0
 20
0.0
 30
0.0
  3
*D34
  1

  0
LINE
  5
14FD
  8
DIM
 62
     0
 10
2.7218599999999991
 20
37.998678999999981
 30
0.0
 11
2.7218599999999991
 21
41.519018999999972
 31
0.0
  0
LINE
  5
14FE
  8
DIM
 62
     0
 10
14.597860000000001
 20
37.998678999999981
 30
0.0
 11
14.597860000000001
 21
41.519018999999972
 31
0.0
  0
LINE
  5
14FF
  8
DIM
 62
     0
 10
3.6218599999999981
 20
41.05401899999999
 30
0.0
 11
8.0536100000000008
 21
41.05401899999999
 31
0.0
  0
LINE
  5
1500
  8
DIM
 62
     0
 10
13.69786
 20
41.05401899999999
 30
0.0
 11
9.2661099999999994
 21
41.05401899999999
 31
0.0
  0
SOLID
  5
1501
  8
DIM
 62
     0
 10
3.6218599999999981
 20
41.204018999999988
 30
0.0
 11
3.6218599999999981
 21
40.904018999999977
 31
0.0
 12
2.7218599999999991
 22
41.05401899999999
 32
0.0
 13
2.7218599999999991
 23
41.05401899999999
 33
0.0
  0
SOLID
  5
1502
  8
DIM
 62
     0
 10
13.69786
 20
41.204018999999988
 30
0.0
 11
13.69786
 21
40.904018999999977
 31
0.0
 12
14.597860000000001
 22
41.05401899999999
 32
0.0
 13
14.597860000000001
 23
41.05401899999999
 33
0.0
  0
TEXT
  5
1503
  8
DIM
 62
     0
 10
8.5036100000000001
 20
40.74151899999999
 30
0.0
 40
0.625
  1
E
 41
0.75
  7
TXT
  0
POINT
  5
1504
  8
DEFPOINTS
 62
     0
 10
2.7218599999999991
 20
37.683678999999991
 30
0.0
  0
POINT
  5
1505
  8
DEFPOINTS
 62
     0
 10
14.597860000000001
 20
37.683678999999991
 30
0.0
  0
POINT
  5
1506
  8
DEFPOINTS
 62
     0
 10
14.597860000000001
 20
41.05401899999999
 30
0.0
  0
ENDBLK
  5
1507
  8
0
  0
BLOCK
  8
0
  2
*D35
 70
     1
 10
0.0
 20
0.0
 30
0.0
  3
*D35
  1

  0
LINE
  5
150A
  8
DIM
 62
     0
 10
14.91286
 20
31.80767899999999
 30
0.0
 11
17.186059
 21
31.80767899999999
 31
0.0
  0
LINE
  5
150B
  8
DIM
 62
     0
 10
15.47486
 20
31.245678999999999
 30
0.0
 11
17.186059
 21
31.245678999999999
 31
0.0
  0
LINE
  5
150C
  8
DIM
 62
     0
 10
16.721059
 20
32.70767899999997
 30
0.0
 11
16.721059
 21
33.607678999999983
 31
0.0
  0
LINE
  5
150D
  8
DIM
 62
     0
 10
16.721059
 20
30.345679000000001
 30
0.0
 11
16.721059
 21
29.445678999999998
 31
0.0
  0
LINE
  5
150E
  8
DIM
 62
     0
 10
16.721059
 20
29.445678999999998
 30
0.0
 11
15.821059
 21
29.445678999999998
 31
0.0
  0
SOLID
  5
150F
  8
DIM
 62
     0
 10
16.571059000000002
 20
32.70767899999997
 30
0.0
 11
16.871058999999981
 21
32.70767899999997
 31
0.0
 12
16.721059
 22
31.80767899999999
 32
0.0
 13
16.721059
 23
31.80767899999999
 33
0.0
  0
SOLID
  5
1510
  8
DIM
 62
     0
 10
16.571059000000002
 20
30.345679000000001
 30
0.0
 11
16.871058999999981
 21
30.345679000000001
 31
0.0
 12
16.721059
 22
31.245678999999999
 32
0.0
 13
16.721059
 23
31.245678999999999
 33
0.0
  0
TEXT
  5
1511
  8
DIM
 62
     0
 10
13.57418399999999
 20
29.133178999999998
 30
0.0
 40
0.625
  1
0.562
 41
0.75
  7
TXT
  0
POINT
  5
1512
  8
DEFPOINTS
 62
     0
 10
14.597860000000001
 20
31.80767899999999
 30
0.0
  0
POINT
  5
1513
  8
DEFPOINTS
 62
     0
 10
15.15986
 20
31.245678999999999
 30
0.0
  0
POINT
  5
1514
  8
DEFPOINTS
 62
     0
 10
16.721059
 20
31.245678999999999
 30
0.0
  0
ENDBLK
  5
1515
  8
0
  0
BLOCK
  8
0
  2
*D36
 70
     1
 10
0.0
 20
0.0
 30
0.0
  3
*D36
  1

  0
LINE
  5
1518
  8
DIM
 62
     0
 10
14.91286
 20
31.80767899999999
 30
0.0
 11
17.186059
 21
31.80767899999999
 31
0.0
  0
LINE
  5
1519
  8
DIM
 62
     0
 10
14.91286
 20
37.683678999999991
 30
0.0
 11
17.186059
 21
37.68367899999997
 31
0.0
  0
LINE
  5
151A
  8
DIM
 62
     0
 10
16.721059
 20
32.70767899999997
 30
0.0
 11
16.721059
 21
33.983178999999978
 31
0.0
  0
LINE
  5
151B
  8
DIM
 62
     0
 10
16.721059
 20
36.783678999999971
 30
0.0
 11
16.721059
 21
35.508178999999991
 31
0.0
  0
SOLID
  5
151C
  8
DIM
 62
     0
 10
16.571059000000002
 20
32.70767899999997
 30
0.0
 11
16.871058999999981
 21
32.70767899999997
 31
0.0
 12
16.721059
 22
31.80767899999999
 32
0.0
 13
16.721059
 23
31.80767899999999
 33
0.0
  0
SOLID
  5
151D
  8
DIM
 62
     0
 10
16.571059000000002
 20
36.783678999999971
 30
0.0
 11
16.871058999999981
 21
36.783678999999971
 31
0.0
 12
16.721059
 22
37.68367899999997
 32
0.0
 13
16.721059
 23
37.68367899999997
 33
0.0
  0
TEXT
  5
151E
  8
DIM
 62
     0
 10
16.56480899999999
 20
34.433178999999981
 30
0.0
 40
0.625
  1
D
 41
0.75
  7
TXT
  0
POINT
  5
151F
  8
DEFPOINTS
 62
     0
 10
14.597860000000001
 20
31.80767899999999
 30
0.0
  0
POINT
  5
1520
  8
DEFPOINTS
 62
     0
 10
14.597860000000001
 20
37.683678999999991
 30
0.0
  0
POINT
  5
1521
  8
DEFPOINTS
 62
     0
 10
16.721059
 20
37.68367899999997
 30
0.0
  0
ENDBLK
  5
1522
  8
0
  0
BLOCK
  8
0
  2
*D37
 70
     1
 10
0.0
 20
0.0
 30
0.0
  3
*D37
  1

  0
LINE
  5
1525
  8
DIM
 62
     0
 10
32.34913199999999
 20
38.498678999999989
 30
0.0
 11
32.34913199999999
 21
41.519018999999972
 31
0.0
  0
LINE
  5
1526
  8
DIM
 62
     0
 10
32.287132
 20
38.560678999999972
 30
0.0
 11
32.287132
 21
41.519018999999972
 31
0.0
  0
LINE
  5
1527
  8
DIM
 62
     0
 10
33.249131999999989
 20
41.05401899999999
 30
0.0
 11
34.149131999999987
 21
41.05401899999999
 31
0.0
  0
LINE
  5
1528
  8
DIM
 62
     0
 10
31.387132000000001
 20
41.05401899999999
 30
0.0
 11
30.487131999999988
 21
41.05401899999999
 31
0.0
  0
SOLID
  5
1529
  8
DIM
 62
     0
 10
33.249131999999989
 20
41.204018999999988
 30
0.0
 11
33.249131999999989
 21
40.904018999999977
 31
0.0
 12
32.34913199999999
 22
41.05401899999999
 32
0.0
 13
32.34913199999999
 23
41.05401899999999
 33
0.0
  0
SOLID
  5
152A
  8
DIM
 62
     0
 10
31.387132000000001
 20
41.204018999999988
 30
0.0
 11
31.387132000000001
 21
40.904018999999977
 31
0.0
 12
32.287132
 22
41.05401899999999
 32
0.0
 13
32.287132
 23
41.05401899999999
 33
0.0
  0
TEXT
  5
152B
  8
DIM
 62
     0
 10
28.318381999999989
 20
40.74151899999999
 30
0.0
 40
0.625
  1
0.062
 41
0.75
  7
TXT
  0
POINT
  5
152C
  8
DEFPOINTS
 62
     0
 10
32.34913199999999
 20
38.183678999999998
 30
0.0
  0
POINT
  5
152D
  8
DEFPOINTS
 62
     0
 10
32.287132
 20
38.245678999999988
 30
0.0
  0
POINT
  5
152E
  8
DEFPOINTS
 62
     0
 10
32.287132
 20
41.05401899999999
 30
0.0
  0
ENDBLK
  5
152F
  8
0
  0
BLOCK
  8
0
  2
*D38
 70
     1
 10
0.0
 20
0.0
 30
0.0
  3
*D38
  1

  0
LINE
  5
1532
  8
DIM
 62
     0
 10
32.34913199999999
 20
38.498678999999989
 30
0.0
 11
32.34913199999999
 21
41.519018999999972
 31
0.0
  0
LINE
  5
1533
  8
DIM
 62
     0
 10
45.225132000000002
 20
38.498678999999989
 30
0.0
 11
45.225132000000002
 21
41.519018999999972
 31
0.0
  0
LINE
  5
1534
  8
DIM
 62
     0
 10
33.249131999999989
 20
41.05401899999999
 30
0.0
 11
38.180881999999997
 21
41.05401899999999
 31
0.0
  0
LINE
  5
1535
  8
DIM
 62
     0
 10
44.325132000000004
 20
41.05401899999999
 30
0.0
 11
39.393382000000003
 21
41.05401899999999
 31
0.0
  0
SOLID
  5
1536
  8
DIM
 62
     0
 10
33.249131999999989
 20
41.204018999999988
 30
0.0
 11
33.249131999999989
 21
40.904018999999977
 31
0.0
 12
32.34913199999999
 22
41.05401899999999
 32
0.0
 13
32.34913199999999
 23
41.05401899999999
 33
0.0
  0
SOLID
  5
1537
  8
DIM
 62
     0
 10
44.325132000000004
 20
41.204018999999988
 30
0.0
 11
44.325132000000004
 21
40.904018999999977
 31
0.0
 12
45.225132000000002
 22
41.05401899999999
 32
0.0
 13
45.225132000000002
 23
41.05401899999999
 33
0.0
  0
TEXT
  5
1538
  8
DIM
 62
     0
 10
38.630881999999993
 20
40.74151899999999
 30
0.0
 40
0.625
  1
G
 41
0.75
  7
TXT
  0
POINT
  5
1539
  8
DEFPOINTS
 62
     0
 10
32.34913199999999
 20
38.183678999999998
 30
0.0
  0
POINT
  5
153A
  8
DEFPOINTS
 62
     0
 10
45.225132000000002
 20
38.183678999999998
 30
0.0
  0
POINT
  5
153B
  8
DEFPOINTS
 62
     0
 10
45.225132000000002
 20
41.05401899999999
 30
0.0
  0
ENDBLK
  5
153C
  8
0
  0
BLOCK
  8
0
  2
*D39
 70
     1
 10
0.0
 20
0.0
 30
0.0
  3
*D39
  1

  0
LINE
  5
153F
  8
DIM
 62
     0
 10
32.034131999999993
 20
31.308679000000001
 30
0.0
 11
30.074884000000001
 21
31.308679000000001
 31
0.0
  0
LINE
  5
1540
  8
DIM
 62
     0
 10
32.003131999999987
 20
31.245678999999999
 30
0.0
 11
30.074884000000001
 21
31.245678999999999
 31
0.0
  0
LINE
  5
1541
  8
DIM
 62
     0
 10
30.539884000000001
 20
32.208678999999997
 30
0.0
 11
30.539884000000001
 21
33.108679000000002
 31
0.0
  0
LINE
  5
1542
  8
DIM
 62
     0
 10
30.539884000000001
 20
30.345679000000001
 30
0.0
 11
30.539884000000001
 21
29.445678999999998
 31
0.0
  0
LINE
  5
1543
  8
DIM
 62
     0
 10
30.539884000000001
 20
29.445678999999998
 30
0.0
 11
29.639883999999991
 21
29.445678999999998
 31
0.0
  0
SOLID
  5
1544
  8
DIM
 62
     0
 10
30.389883999999999
 20
32.208678999999997
 30
0.0
 11
30.689883999999999
 21
32.208678999999997
 31
0.0
 12
30.539884000000001
 22
31.308679000000001
 32
0.0
 13
30.539884000000001
 23
31.308679000000001
 33
0.0
  0
SOLID
  5
1545
  8
DIM
 62
     0
 10
30.389883999999999
 20
30.345679000000001
 30
0.0
 11
30.689883999999999
 21
30.345679000000001
 31
0.0
 12
30.539884000000001
 22
31.245678999999999
 32
0.0
 13
30.539884000000001
 23
31.245678999999999
 33
0.0
  0
TEXT
  5
1546
  8
DIM
 62
     0
 10
27.471133999999989
 20
29.133178999999998
 30
0.0
 40
0.625
  1
0.063
 41
0.75
  7
TXT
  0
POINT
  5
1547
  8
DEFPOINTS
 62
     0
 10
32.34913199999999
 20
31.308679000000001
 30
0.0
  0
POINT
  5
1548
  8
DEFPOINTS
 62
     0
 10
32.318131999999991
 20
31.245678999999999
 30
0.0
  0
POINT
  5
1549
  8
DEFPOINTS
 62
     0
 10
30.539884000000001
 20
31.245678999999999
 30
0.0
  0
ENDBLK
  5
154A
  8
0
  0
BLOCK
  8
0
  2
*D40
 70
     1
 10
0.0
 20
0.0
 30
0.0
  3
*D40
  1

  0
LINE
  5
154D
  8
DIM
 62
     0
 10
32.034131999999993
 20
31.308679000000001
 30
0.0
 11
30.074884000000001
 21
31.308679000000001
 31
0.0
  0
LINE
  5
154E
  8
DIM
 62
     0
 10
32.034131999999993
 20
38.183678999999998
 30
0.0
 11
30.074884000000001
 21
38.183678999999998
 31
0.0
  0
LINE
  5
154F
  8
DIM
 62
     0
 10
30.539884000000001
 20
32.208678999999997
 30
0.0
 11
30.539884000000001
 21
33.983679000000002
 31
0.0
  0
LINE
  5
1550
  8
DIM
 62
     0
 10
30.539884000000001
 20
37.283678999999999
 30
0.0
 11
30.539884000000001
 21
35.508679000000001
 31
0.0
  0
SOLID
  5
1551
  8
DIM
 62
     0
 10
30.389883999999999
 20
32.208678999999997
 30
0.0
 11
30.689883999999999
 21
32.208678999999997
 31
0.0
 12
30.539884000000001
 22
31.308679000000001
 32
0.0
 13
30.539884000000001
 23
31.308679000000001
 33
0.0
  0
SOLID
  5
1552
  8
DIM
 62
     0
 10
30.389883999999999
 20
37.283678999999999
 30
0.0
 11
30.689883999999999
 21
37.283678999999999
 31
0.0
 12
30.539884000000001
 22
38.183678999999998
 32
0.0
 13
30.539884000000001
 23
38.183678999999998
 33
0.0
  0
TEXT
  5
1553
  8
DIM
 62
     0
 10
30.38363399999999
 20
34.433679000000012
 30
0.0
 40
0.625
  1
F
 41
0.75
  7
TXT
  0
POINT
  5
1554
  8
DEFPOINTS
 62
     0
 10
32.34913199999999
 20
31.308679000000001
 30
0.0
  0
POINT
  5
1555
  8
DEFPOINTS
 62
     0
 10
32.34913199999999
 20
38.183678999999998
 30
0.0
  0
POINT
  5
1556
  8
DEFPOINTS
 62
     0
 10
30.539884000000001
 20
38.183678999999998
 30
0.0
  0
ENDBLK
  5
1557
  8
0
  0
BLOCK
  8
0
  2
*D41
 70
     1
 10
0.0
 20
0.0
 30
0.0
  3
*D41
  1

  0
LINE
  5
155A
  8
DIM
 62
     0
 10
32.849131999999997
 20
37.942678999999991
 30
0.0
 11
32.849131999999997
 21
40.114018999999999
 31
0.0
  0
LINE
  5
155B
  8
DIM
 62
     0
 10
32.287132
 20
38.52867899999999
 30
0.0
 11
32.287132
 21
40.114018999999999
 31
0.0
  0
LINE
  5
155C
  8
DIM
 62
     0
 10
33.749131999999989
 20
39.649019000000003
 30
0.0
 11
34.64913199999998
 21
39.649019000000003
 31
0.0
  0
LINE
  5
155D
  8
DIM
 62
     0
 10
31.387132000000001
 20
39.649019000000003
 30
0.0
 11
30.487131999999988
 21
39.649019000000003
 31
0.0
  0
SOLID
  5
155E
  8
DIM
 62
     0
 10
33.749131999999989
 20
39.799019000000001
 30
0.0
 11
33.749131999999989
 21
39.499018999999997
 31
0.0
 12
32.849131999999997
 22
39.649019000000003
 32
0.0
 13
32.849131999999997
 23
39.649019000000003
 33
0.0
  0
SOLID
  5
155F
  8
DIM
 62
     0
 10
31.387132000000001
 20
39.799019000000001
 30
0.0
 11
31.387132000000001
 21
39.499018999999997
 31
0.0
 12
32.287132
 22
39.649019000000003
 32
0.0
 13
32.287132
 23
39.649019000000003
 33
0.0
  0
TEXT
  5
1560
  8
DIM
 62
     0
 10
28.240256999999989
 20
39.336519000000003
 30
0.0
 40
0.625
  1
0.562
 41
0.75
  7
TXT
  0
POINT
  5
1561
  8
DEFPOINTS
 62
     0
 10
32.849131999999997
 20
37.627679000000001
 30
0.0
  0
POINT
  5
1562
  8
DEFPOINTS
 62
     0
 10
32.287132
 20
38.213678999999999
 30
0.0
  0
POINT
  5
1563
  8
DEFPOINTS
 62
     0
 10
32.287132
 20
39.649019000000003
 30
0.0
  0
ENDBLK
  5
1564
  8
0
  0
BLOCK
  8
0
  2
*D42
 70
     1
 10
0.0
 20
0.0
 30
0.0
  3
*D42
  1

  0
LINE
  5
1567
  8
DIM
 62
     0
 10
44.977131999999983
 20
37.683678999999991
 30
0.0
 11
46.940396999999997
 21
37.683678999999991
 31
0.0
  0
LINE
  5
1568
  8
DIM
 62
     0
 10
45.540131999999993
 20
38.183678999999998
 30
0.0
 11
46.940396999999997
 21
38.183678999999998
 31
0.0
  0
LINE
  5
1569
  8
DIM
 62
     0
 10
46.475396999999987
 20
36.783678999999992
 30
0.0
 11
46.475396999999987
 21
35.883678999999987
 31
0.0
  0
LINE
  5
156A
  8
DIM
 62
     0
 10
46.475396999999987
 20
39.083678999999997
 30
0.0
 11
46.475396999999987
 21
39.983678999999981
 31
0.0
  0
LINE
  5
156B
  8
DIM
 62
     0
 10
46.475396999999987
 20
39.983678999999981
 30
0.0
 11
47.375396999999992
 21
39.983678999999981
 31
0.0
  0
SOLID
  5
156C
  8
DIM
 62
     0
 10
46.325396999999981
 20
36.783678999999992
 30
0.0
 11
46.625396999999992
 21
36.783678999999992
 31
0.0
 12
46.475396999999987
 22
37.683678999999991
 32
0.0
 13
46.475396999999987
 23
37.683678999999991
 33
0.0
  0
SOLID
  5
156D
  8
DIM
 62
     0
 10
46.325396999999981
 20
39.083678999999997
 30
0.0
 11
46.625396999999992
 21
39.083678999999997
 31
0.0
 12
46.475396999999987
 22
38.183678999999998
 32
0.0
 13
46.475396999999987
 23
38.183678999999998
 33
0.0
  0
TEXT
  5
156E
  8
DIM
 62
     0
 10
47.825396999999988
 20
39.671179000000002
 30
0.0
 40
0.625
  1
0.500
 41
0.75
  7
TXT
  0
POINT
  5
156F
  8
DEFPOINTS
 62
     0
 10
44.662132
 20
37.683678999999991
 30
0.0
  0
POINT
  5
1570
  8
DEFPOINTS
 62
     0
 10
45.225132000000002
 20
38.183678999999998
 30
0.0
  0
POINT
  5
1571
  8
DEFPOINTS
 62
     0
 10
46.475396999999987
 20
38.183678999999998
 30
0.0
  0
ENDBLK
  5
1572
  8
0
  0
BLOCK
  8
0
  2
*D43
 70
     1
 10
0.0
 20
0.0
 30
0.0
  3
*D43
  1

  0
LINE
  5
1575
  8
DIM
 62
     0
 10
15.47486
 20
56.291623000000001
 30
0.0
 11
17.186059
 21
56.291622999999987
 31
0.0
  0
LINE
  5
1576
  8
DIM
 62
     0
 10
15.47486
 20
49.291623000000001
 30
0.0
 11
17.186059
 21
49.29162299999998
 31
0.0
  0
LINE
  5
1577
  8
DIM
 62
     0
 10
16.721059
 20
55.391623000000003
 30
0.0
 11
16.721059
 21
53.554122999999997
 31
0.0
  0
LINE
  5
1578
  8
DIM
 62
     0
 10
16.721059
 20
50.191622999999993
 30
0.0
 11
16.721059
 21
52.029122999999991
 31
0.0
  0
SOLID
  5
1579
  8
DIM
 62
     0
 10
16.571059000000002
 20
55.391623000000003
 30
0.0
 11
16.871058999999981
 21
55.391623000000003
 31
0.0
 12
16.721059
 22
56.291622999999987
 32
0.0
 13
16.721059
 23
56.291622999999987
 33
0.0
  0
SOLID
  5
157A
  8
DIM
 62
     0
 10
16.571059000000002
 20
50.191622999999993
 30
0.0
 11
16.871058999999981
 21
50.191622999999993
 31
0.0
 12
16.721059
 22
49.29162299999998
 32
0.0
 13
16.721059
 23
49.29162299999998
 33
0.0
  0
TEXT
  5
157B
  8
DIM
 62
     0
 10
16.56480899999999
 20
52.479123000000001
 30
0.0
 40
0.625
  1
A
 41
0.75
  7
TXT
  0
POINT
  5
157C
  8
DEFPOINTS
 62
     0
 10
15.15986
 20
56.291623000000001
 30
0.0
  0
POINT
  5
157D
  8
DEFPOINTS
 62
     0
 10
15.15986
 20
49.291623000000001
 30
0.0
  0
POINT
  5
157E
  8
DEFPOINTS
 62
     0
 10
16.721059
 20
49.29162299999998
 30
0.0
  0
ENDBLK
  5
157F
  8
0
  0
BLOCK
  8
0
  2
*D44
 70
     1
 10
0.0
 20
0.0
 30
0.0
  3
*D44
  1

  0
LINE
  5
1582
  8
DIM
 62
     0
 10
20.714786
 20
49.031623000000003
 30
0.0
 11
20.714786
 21
47.519684999999988
 31
0.0
  0
LINE
  5
1583
  8
DIM
 62
     0
 10
20.182785999999989
 20
48.976622999999996
 30
0.0
 11
20.182785999999989
 21
47.519684999999988
 31
0.0
  0
LINE
  5
1584
  8
DIM
 62
     0
 10
21.614785999999999
 20
47.984684999999999
 30
0.0
 11
22.51478599999999
 21
47.984684999999999
 31
0.0
  0
LINE
  5
1585
  8
DIM
 62
     0
 10
19.282785999999991
 20
47.984684999999999
 30
0.0
 11
18.382785999999982
 21
47.984684999999999
 31
0.0
  0
SOLID
  5
1586
  8
DIM
 62
     0
 10
21.614785999999999
 20
48.13468499999999
 30
0.0
 11
21.614785999999999
 21
47.834685
 31
0.0
 12
20.714786
 22
47.984684999999999
 32
0.0
 13
20.714786
 23
47.984684999999999
 33
0.0
  0
SOLID
  5
1587
  8
DIM
 62
     0
 10
19.282785999999991
 20
48.13468499999999
 30
0.0
 11
19.282785999999991
 21
47.834685
 31
0.0
 12
20.182785999999989
 22
47.984684999999999
 32
0.0
 13
20.182785999999989
 23
47.984684999999999
 33
0.0
  0
TEXT
  5
1588
  8
DIM
 62
     0
 10
16.135910999999979
 20
47.672184999999999
 30
0.0
 40
0.625
  1
0.532
 41
0.75
  7
TXT
  0
POINT
  5
1589
  8
DEFPOINTS
 62
     0
 10
20.714786
 20
49.346623000000001
 30
0.0
  0
POINT
  5
158A
  8
DEFPOINTS
 62
     0
 10
20.182785999999989
 20
49.291623000000001
 30
0.0
  0
POINT
  5
158B
  8
DEFPOINTS
 62
     0
 10
20.182785999999989
 20
47.984684999999999
 30
0.0
  0
ENDBLK
  5
158C
  8
0
  0
BLOCK
  8
0
  2
*D45
 70
     1
 10
0.0
 20
0.0
 30
0.0
  3
*D45
  1

  0
LINE
  5
158F
  8
DIM
 62
     0
 10
27.932786
 20
49.038623000000001
 30
0.0
 11
27.932786
 21
47.519684999999988
 31
0.0
  0
LINE
  5
1590
  8
DIM
 62
     0
 10
28.182786
 20
48.976622999999996
 30
0.0
 11
28.182786
 21
47.519684999999988
 31
0.0
  0
LINE
  5
1591
  8
DIM
 62
     0
 10
27.032786000000002
 20
47.984684999999999
 30
0.0
 11
26.132785999999999
 21
47.984684999999999
 31
0.0
  0
LINE
  5
1592
  8
DIM
 62
     0
 10
29.082785999999999
 20
47.984684999999999
 30
0.0
 11
29.982786000000001
 21
47.984684999999999
 31
0.0
  0
SOLID
  5
1593
  8
DIM
 62
     0
 10
27.032786000000002
 20
48.13468499999999
 30
0.0
 11
27.032786000000002
 21
47.834685
 31
0.0
 12
27.932786
 22
47.984684999999999
 32
0.0
 13
27.932786
 23
47.984684999999999
 33
0.0
  0
SOLID
  5
1594
  8
DIM
 62
     0
 10
29.082785999999999
 20
48.13468499999999
 30
0.0
 11
29.082785999999999
 21
47.834685
 31
0.0
 12
28.182786
 22
47.984684999999999
 32
0.0
 13
28.182786
 23
47.984684999999999
 33
0.0
  0
TEXT
  5
1595
  8
DIM
 62
     0
 10
30.432786
 20
47.672184999999999
 30
0.0
 40
0.625
  1
0.250
 41
0.75
  7
TXT
  0
POINT
  5
1596
  8
DEFPOINTS
 62
     0
 10
27.932786
 20
49.353622999999999
 30
0.0
  0
POINT
  5
1597
  8
DEFPOINTS
 62
     0
 10
28.182786
 20
49.291623000000001
 30
0.0
  0
POINT
  5
1598
  8
DEFPOINTS
 62
     0
 10
28.182786
 20
47.984684999999999
 30
0.0
  0
ENDBLK
  5
1599
  8
0
  0
BLOCK
  8
0
  2
*D46
 70
     1
 10
0.0
 20
0.0
 30
0.0
  3
*D46
  1

  0
LINE
  5
159C
  8
DIM
 62
     0
 10
20.182785999999989
 20
56.606622999999999
 30
0.0
 11
20.182785999999989
 21
58.251775000000002
 31
0.0
  0
LINE
  5
159D
  8
DIM
 62
     0
 10
28.182786
 20
56.606622999999999
 30
0.0
 11
28.182786
 21
58.251775000000002
 31
0.0
  0
LINE
  5
159E
  8
DIM
 62
     0
 10
21.082785999999981
 20
57.786774999999999
 30
0.0
 11
23.57653599999999
 21
57.786774999999999
 31
0.0
  0
LINE
  5
159F
  8
DIM
 62
     0
 10
27.282786000000002
 20
57.786774999999999
 30
0.0
 11
24.789035999999982
 21
57.786774999999999
 31
0.0
  0
SOLID
  5
15A0
  8
DIM
 62
     0
 10
21.082785999999981
 20
57.936774999999997
 30
0.0
 11
21.082785999999981
 21
57.636775
 31
0.0
 12
20.182785999999989
 22
57.786774999999999
 32
0.0
 13
20.182785999999989
 23
57.786774999999999
 33
0.0
  0
SOLID
  5
15A1
  8
DIM
 62
     0
 10
27.282786000000002
 20
57.936774999999997
 30
0.0
 11
27.282786000000002
 21
57.636775
 31
0.0
 12
28.182786
 22
57.786774999999999
 32
0.0
 13
28.182786
 23
57.786774999999999
 33
0.0
  0
TEXT
  5
15A2
  8
DIM
 62
     0
 10
24.026535999999979
 20
57.474274999999999
 30
0.0
 40
0.625
  1
C
 41
0.75
  7
TXT
  0
POINT
  5
15A3
  8
DEFPOINTS
 62
     0
 10
20.182785999999989
 20
56.291623000000001
 30
0.0
  0
POINT
  5
15A4
  8
DEFPOINTS
 62
     0
 10
28.182786
 20
56.291623000000001
 30
0.0
  0
POINT
  5
15A5
  8
DEFPOINTS
 62
     0
 10
28.182786
 20
57.786774999999999
 30
0.0
  0
ENDBLK
  5
15A6
  8
0
  0
BLOCK
  8
0
  2
*D47
 70
     1
 10
0.0
 20
0.0
 30
0.0
  3
*D47
  1

  0
LINE
  5
15A9
  8
DIM
 62
     0
 10
2.7538599999999991
 20
22.765686999999989
 30
0.0
 11
2.7538599999999991
 21
24.355687
 31
0.0
  0
LINE
  5
15AA
  8
DIM
 62
     0
 10
3.0038599999999991
 20
22.515686999999989
 30
0.0
 11
3.0038599999999991
 21
24.355687
 31
0.0
  0
LINE
  5
15AB
  8
DIM
 62
     0
 10
1.853859999999999
 20
23.890687
 30
0.0
 11
0.9538599999999992
 21
23.890687
 31
0.0
  0
LINE
  5
15AC
  8
DIM
 62
     0
 10
3.9038599999999981
 20
23.890687
 30
0.0
 11
4.8038599999999967
 21
23.890687
 31
0.0
  0
SOLID
  5
15AD
  8
DIM
 62
     0
 10
1.853859999999999
 20
24.040686999999991
 30
0.0
 11
1.853859999999999
 21
23.740687000000001
 31
0.0
 12
2.7538599999999991
 22
23.890687
 32
0.0
 13
2.7538599999999991
 23
23.890687
 33
0.0
  0
SOLID
  5
15AE
  8
DIM
 62
     0
 10
3.9038599999999981
 20
24.040686999999991
 30
0.0
 11
3.9038599999999981
 21
23.740687000000001
 31
0.0
 12
3.0038599999999991
 22
23.890687
 32
0.0
 13
3.0038599999999991
 23
23.890687
 33
0.0
  0
TEXT
  5
15AF
  8
DIM
 62
     0
 10
5.2538599999999969
 20
23.578187
 30
0.0
 40
0.625
  1
0.250
 41
0.75
  7
TXT
  0
POINT
  5
15B0
  8
DEFPOINTS
 62
     0
 10
2.7538599999999991
 20
22.450686999999999
 30
0.0
  0
POINT
  5
15B1
  8
DEFPOINTS
 62
     0
 10
3.0038599999999991
 20
22.200686999999999
 30
0.0
  0
POINT
  5
15B2
  8
DEFPOINTS
 62
     0
 10
3.0038599999999991
 20
23.890687
 30
0.0
  0
ENDBLK
  5
15B3
  8
0
  0
BLOCK
  8
0
  2
*D48
 70
     1
 10
0.0
 20
0.0
 30
0.0
  3
*D48
  1

  0
LINE
  5
15B6
  8
DIM
 62
     0
 10
14.565860000000001
 20
22.765686999999989
 30
0.0
 11
14.565860000000001
 21
24.355687
 31
0.0
  0
LINE
  5
15B7
  8
DIM
 62
     0
 10
14.315860000000001
 20
22.515686999999989
 30
0.0
 11
14.315860000000001
 21
24.355687
 31
0.0
  0
LINE
  5
15B8
  8
DIM
 62
     0
 10
15.465859999999999
 20
23.890687
 30
0.0
 11
16.365860000000001
 21
23.890687
 31
0.0
  0
LINE
  5
15B9
  8
DIM
 62
     0
 10
13.41586
 20
23.890687
 30
0.0
 11
12.51586
 21
23.890687
 31
0.0
  0
SOLID
  5
15BA
  8
DIM
 62
     0
 10
15.465859999999999
 20
24.040686999999991
 30
0.0
 11
15.465859999999999
 21
23.740687000000001
 31
0.0
 12
14.565860000000001
 22
23.890687
 32
0.0
 13
14.565860000000001
 23
23.890687
 33
0.0
  0
SOLID
  5
15BB
  8
DIM
 62
     0
 10
13.41586
 20
24.040686999999991
 30
0.0
 11
13.41586
 21
23.740687000000001
 31
0.0
 12
14.315860000000001
 22
23.890687
 32
0.0
 13
14.315860000000001
 23
23.890687
 33
0.0
  0
TEXT
  5
15BC
  8
DIM
 62
     0
 10
10.347110000000001
 20
23.578187
 30
0.0
 40
0.625
  1
0.250
 41
0.75
  7
TXT
  0
POINT
  5
15BD
  8
DEFPOINTS
 62
     0
 10
14.565860000000001
 20
22.450686999999999
 30
0.0
  0
POINT
  5
15BE
  8
DEFPOINTS
 62
     0
 10
14.315860000000001
 20
22.200686999999999
 30
0.0
  0
POINT
  5
15BF
  8
DEFPOINTS
 62
     0
 10
14.315860000000001
 20
23.890687
 30
0.0
  0
ENDBLK
  5
15C0
  8
0
  0
BLOCK
  8
0
  2
*D49
 70
     1
 10
0.0
 20
0.0
 30
0.0
  3
*D49
  1

  0
LINE
  5
15C3
  8
DIM
 62
     0
 10
14.565860000000001
 20
22.765686999999989
 30
0.0
 11
14.565860000000001
 21
25.760687000000001
 31
0.0
  0
LINE
  5
15C4
  8
DIM
 62
     0
 10
2.7538599999999991
 20
22.765686999999989
 30
0.0
 11
2.7538599999999991
 21
25.760687000000001
 31
0.0
  0
LINE
  5
15C5
  8
DIM
 62
     0
 10
13.66586
 20
25.295687000000001
 30
0.0
 11
9.2661099999999994
 21
25.295687000000001
 31
0.0
  0
LINE
  5
15C6
  8
DIM
 62
     0
 10
3.6538599999999981
 20
25.295687000000001
 30
0.0
 11
8.0536100000000008
 21
25.295687000000001
 31
0.0
  0
SOLID
  5
15C7
  8
DIM
 62
     0
 10
13.66586
 20
25.445687
 30
0.0
 11
13.66586
 21
25.145686999999992
 31
0.0
 12
14.565860000000001
 22
25.295687000000001
 32
0.0
 13
14.565860000000001
 23
25.295687000000001
 33
0.0
  0
SOLID
  5
15C8
  8
DIM
 62
     0
 10
3.6538599999999981
 20
25.445687
 30
0.0
 11
3.6538599999999981
 21
25.145686999999992
 31
0.0
 12
2.7538599999999991
 22
25.295687000000001
 32
0.0
 13
2.7538599999999991
 23
25.295687000000001
 33
0.0
  0
TEXT
  5
15C9
  8
DIM
 62
     0
 10
8.5036100000000001
 20
24.983187000000001
 30
0.0
 40
0.625
  1
J
 41
0.75
  7
TXT
  0
POINT
  5
15CA
  8
DEFPOINTS
 62
     0
 10
14.565860000000001
 20
22.450686999999999
 30
0.0
  0
POINT
  5
15CB
  8
DEFPOINTS
 62
     0
 10
2.7538599999999991
 20
22.450686999999999
 30
0.0
  0
POINT
  5
15CC
  8
DEFPOINTS
 62
     0
 10
2.7538599999999991
 20
25.295687000000001
 30
0.0
  0
ENDBLK
  5
15CD
  8
0
  0
BLOCK
  8
0
  2
*D50
 70
     1
 10
0.0
 20
0.0
 30
0.0
  3
*D50
  1

  0
LINE
  5
15D0
  8
DIM
 62
     0
 10
14.63086
 20
22.200686999999999
 30
0.0
 11
17.258175000000001
 21
22.200686999999999
 31
0.0
  0
LINE
  5
15D1
  8
DIM
 62
     0
 10
14.88086
 20
22.450686999999999
 30
0.0
 11
17.258175000000001
 21
22.450686999999999
 31
0.0
  0
LINE
  5
15D2
  8
DIM
 62
     0
 10
16.793175000000002
 20
21.300687
 30
0.0
 11
16.793175000000002
 21
20.400686999999991
 31
0.0
  0
LINE
  5
15D3
  8
DIM
 62
     0
 10
16.793175000000002
 20
23.350686999999979
 30
0.0
 11
16.793175000000002
 21
24.250686999999999
 31
0.0
  0
LINE
  5
15D4
  8
DIM
 62
     0
 10
16.793175000000002
 20
24.250686999999999
 30
0.0
 11
17.693175
 21
24.250686999999999
 31
0.0
  0
SOLID
  5
15D5
  8
DIM
 62
     0
 10
16.643174999999999
 20
21.300687
 30
0.0
 11
16.943175
 21
21.300687
 31
0.0
 12
16.793175000000002
 22
22.200686999999999
 32
0.0
 13
16.793175000000002
 23
22.200686999999999
 33
0.0
  0
SOLID
  5
15D6
  8
DIM
 62
     0
 10
16.643174999999999
 20
23.350686999999979
 30
0.0
 11
16.943175
 21
23.350686999999979
 31
0.0
 12
16.793175000000002
 22
22.450686999999999
 32
0.0
 13
16.793175000000002
 23
22.450686999999999
 33
0.0
  0
TEXT
  5
15D7
  8
DIM
 62
     0
 10
18.143174999999982
 20
23.938186999999999
 30
0.0
 40
0.625
  1
0.250
 41
0.75
  7
TXT
  0
POINT
  5
15D8
  8
DEFPOINTS
 62
     0
 10
14.315860000000001
 20
22.200686999999999
 30
0.0
  0
POINT
  5
15D9
  8
DEFPOINTS
 62
     0
 10
14.565860000000001
 20
22.450686999999999
 30
0.0
  0
POINT
  5
15DA
  8
DEFPOINTS
 62
     0
 10
16.793175000000002
 20
22.450686999999999
 30
0.0
  0
ENDBLK
  5
15DB
  8
0
  0
BLOCK
  8
0
  2
*D51
 70
     1
 10
0.0
 20
0.0
 30
0.0
  3
*D51
  1

  0
LINE
  5
15DE
  8
DIM
 62
     0
 10
14.63086
 20
15.810687
 30
0.0
 11
17.258175000000001
 21
15.810687
 31
0.0
  0
LINE
  5
15DF
  8
DIM
 62
     0
 10
14.88086
 20
15.560686999999991
 30
0.0
 11
17.258175000000001
 21
15.560686999999991
 31
0.0
  0
LINE
  5
15E0
  8
DIM
 62
     0
 10
16.793175000000002
 20
16.710687
 30
0.0
 11
16.793175000000002
 21
17.610686999999999
 31
0.0
  0
LINE
  5
15E1
  8
DIM
 62
     0
 10
16.793175000000002
 20
14.66068699999999
 30
0.0
 11
16.793175000000002
 21
13.76068699999999
 31
0.0
  0
LINE
  5
15E2
  8
DIM
 62
     0
 10
16.793175000000002
 20
13.76068699999999
 30
0.0
 11
15.893174999999991
 21
13.76068699999999
 31
0.0
  0
SOLID
  5
15E3
  8
DIM
 62
     0
 10
16.643174999999999
 20
16.710687
 30
0.0
 11
16.943175
 21
16.710687
 31
0.0
 12
16.793175000000002
 22
15.810687
 32
0.0
 13
16.793175000000002
 23
15.810687
 33
0.0
  0
SOLID
  5
15E4
  8
DIM
 62
     0
 10
16.643174999999999
 20
14.66068699999999
 30
0.0
 11
16.943175
 21
14.66068699999999
 31
0.0
 12
16.793175000000002
 22
15.560686999999991
 32
0.0
 13
16.793175000000002
 23
15.560686999999991
 33
0.0
  0
TEXT
  5
15E5
  8
DIM
 62
     0
 10
13.724425
 20
13.44818699999999
 30
0.0
 40
0.625
  1
0.250
 41
0.75
  7
TXT
  0
POINT
  5
15E6
  8
DEFPOINTS
 62
     0
 10
14.315860000000001
 20
15.810687
 30
0.0
  0
POINT
  5
15E7
  8
DEFPOINTS
 62
     0
 10
14.565860000000001
 20
15.560686999999991
 30
0.0
  0
POINT
  5
15E8
  8
DEFPOINTS
 62
     0
 10
16.793175000000002
 20
15.560686999999991
 30
0.0
  0
ENDBLK
  5
15E9
  8
0
  0
BLOCK
  8
0
  2
*D52
 70
     1
 10
0.0
 20
0.0
 30
0.0
  3
*D52
  1

  0
LINE
  5
15EC
  8
DIM
 62
     0
 10
14.88086
 20
22.450686999999999
 30
0.0
 11
18.663174999999999
 21
22.450686999999999
 31
0.0
  0
LINE
  5
15ED
  8
DIM
 62
     0
 10
14.88086
 20
15.560686999999991
 30
0.0
 11
18.663174999999999
 21
15.560686999999991
 31
0.0
  0
LINE
  5
15EE
  8
DIM
 62
     0
 10
18.198174999999999
 20
21.550687
 30
0.0
 11
18.198174999999999
 21
19.76818699999998
 31
0.0
  0
LINE
  5
15EF
  8
DIM
 62
     0
 10
18.198174999999999
 20
16.460686999999979
 30
0.0
 11
18.198174999999999
 21
18.243186999999999
 31
0.0
  0
SOLID
  5
15F0
  8
DIM
 62
     0
 10
18.048175000000001
 20
21.550687
 30
0.0
 11
18.348174999999991
 21
21.550687
 31
0.0
 12
18.198174999999999
 22
22.450686999999999
 32
0.0
 13
18.198174999999999
 23
22.450686999999999
 33
0.0
  0
SOLID
  5
15F1
  8
DIM
 62
     0
 10
18.048175000000001
 20
16.460686999999979
 30
0.0
 11
18.348174999999991
 21
16.460686999999979
 31
0.0
 12
18.198174999999999
 22
15.560686999999991
 32
0.0
 13
18.198174999999999
 23
15.560686999999991
 33
0.0
  0
TEXT
  5
15F2
  8
DIM
 62
     0
 10
18.041924999999988
 20
18.693187000000002
 30
0.0
 40
0.625
  1
H
 41
0.75
  7
TXT
  0
POINT
  5
15F3
  8
DEFPOINTS
 62
     0
 10
14.565860000000001
 20
22.450686999999999
 30
0.0
  0
POINT
  5
15F4
  8
DEFPOINTS
 62
     0
 10
14.565860000000001
 20
15.560686999999991
 30
0.0
  0
POINT
  5
15F5
  8
DEFPOINTS
 62
     0
 10
18.198174999999999
 20
15.560686999999991
 30
0.0
  0
ENDBLK
  5
15F6
  8
0
  0
BLOCK
  8
0
  2
*D53
 70
     1
 10
0.0
 20
0.0
 30
0.0
  3
*D53
  1

  0
LINE
  5
15F9
  8
DIM
 62
     0
 10
32.677632000000003
 20
21.453686999999999
 30
0.0
 11
32.677632000000003
 21
24.355687
 31
0.0
  0
LINE
  5
15FA
  8
DIM
 62
     0
 10
32.443632000000001
 20
22.765686999999989
 30
0.0
 11
32.443632000000001
 21
24.355687
 31
0.0
  0
LINE
  5
15FB
  8
DIM
 62
     0
 10
33.577632000000001
 20
23.890687
 30
0.0
 11
34.477632
 21
23.890687
 31
0.0
  0
LINE
  5
15FC
  8
DIM
 62
     0
 10
31.543631999999999
 20
23.890687
 30
0.0
 11
30.643632
 21
23.890687
 31
0.0
  0
SOLID
  5
15FD
  8
DIM
 62
     0
 10
33.577632000000001
 20
24.040686999999991
 30
0.0
 11
33.577632000000001
 21
23.740687000000001
 31
0.0
 12
32.677632000000003
 22
23.890687
 32
0.0
 13
32.677632000000003
 23
23.890687
 33
0.0
  0
SOLID
  5
15FE
  8
DIM
 62
     0
 10
31.543631999999999
 20
24.040686999999991
 30
0.0
 11
31.543631999999999
 21
23.740687000000001
 31
0.0
 12
32.443632000000001
 22
23.890687
 32
0.0
 13
32.443632000000001
 23
23.890687
 33
0.0
  0
TEXT
  5
15FF
  8
DIM
 62
     0
 10
28.396757000000001
 20
23.578187
 30
0.0
 40
0.625
  1
0.234
 41
0.75
  7
TXT
  0
POINT
  5
1600
  8
DEFPOINTS
 62
     0
 10
32.677632000000003
 20
21.138687000000001
 30
0.0
  0
POINT
  5
1601
  8
DEFPOINTS
 62
     0
 10
32.443632000000001
 20
22.450686999999999
 30
0.0
  0
POINT
  5
1602
  8
DEFPOINTS
 62
     0
 10
32.443632000000001
 20
23.890687
 30
0.0
  0
ENDBLK
  5
1603
  8
0
  0
BLOCK
  8
0
  2
*D54
 70
     1
 10
0.0
 20
0.0
 30
0.0
  3
*D54
  1

  0
LINE
  5
1606
  8
DIM
 62
     0
 10
45.224631999999993
 20
22.765686999999989
 30
0.0
 11
45.224631999999993
 21
24.355687
 31
0.0
  0
LINE
  5
1607
  8
DIM
 62
     0
 10
44.990631999999998
 20
21.453686999999999
 30
0.0
 11
44.990631999999998
 21
24.355687
 31
0.0
  0
LINE
  5
1608
  8
DIM
 62
     0
 10
46.124631999999991
 20
23.890687
 30
0.0
 11
47.02463199999999
 21
23.890687
 31
0.0
  0
LINE
  5
1609
  8
DIM
 62
     0
 10
44.090631999999999
 20
23.890687
 30
0.0
 11
43.190632000000001
 21
23.890687
 31
0.0
  0
SOLID
  5
160A
  8
DIM
 62
     0
 10
46.124631999999991
 20
24.040686999999991
 30
0.0
 11
46.124631999999991
 21
23.740687000000001
 31
0.0
 12
45.224631999999993
 22
23.890687
 32
0.0
 13
45.224631999999993
 23
23.890687
 33
0.0
  0
SOLID
  5
160B
  8
DIM
 62
     0
 10
44.090631999999999
 20
24.040686999999991
 30
0.0
 11
44.090631999999999
 21
23.740687000000001
 31
0.0
 12
44.990631999999998
 22
23.890687
 32
0.0
 13
44.990631999999998
 23
23.890687
 33
0.0
  0
TEXT
  5
160C
  8
DIM
 62
     0
 10
40.943756999999991
 20
23.578187
 30
0.0
 40
0.625
  1
0.234
 41
0.75
  7
TXT
  0
POINT
  5
160D
  8
DEFPOINTS
 62
     0
 10
45.224631999999993
 20
22.450686999999999
 30
0.0
  0
POINT
  5
160E
  8
DEFPOINTS
 62
     0
 10
44.990631999999998
 20
21.138687000000001
 30
0.0
  0
POINT
  5
160F
  8
DEFPOINTS
 62
     0
 10
44.990631999999998
 20
23.890687
 30
0.0
  0
ENDBLK
  5
1610
  8
0
  0
BLOCK
  8
0
  2
*D55
 70
     1
 10
0.0
 20
0.0
 30
0.0
  3
*D55
  1

  0
LINE
  5
1613
  8
DIM
 62
     0
 10
32.443632000000001
 20
22.765686999999989
 30
0.0
 11
32.443632000000001
 21
25.760687000000001
 31
0.0
  0
LINE
  5
1614
  8
DIM
 62
     0
 10
45.224631999999993
 20
22.765686999999989
 30
0.0
 11
45.224631999999993
 21
25.760687000000001
 31
0.0
  0
LINE
  5
1615
  8
DIM
 62
     0
 10
33.343631999999999
 20
25.295687000000001
 30
0.0
 11
38.227881999999987
 21
25.295687000000001
 31
0.0
  0
LINE
  5
1616
  8
DIM
 62
     0
 10
44.324631999999987
 20
25.295687000000001
 30
0.0
 11
39.440381999999993
 21
25.295687000000001
 31
0.0
  0
SOLID
  5
1617
  8
DIM
 62
     0
 10
33.343631999999999
 20
25.445687
 30
0.0
 11
33.343631999999999
 21
25.145686999999992
 31
0.0
 12
32.443632000000001
 22
25.295687000000001
 32
0.0
 13
32.443632000000001
 23
25.295687000000001
 33
0.0
  0
SOLID
  5
1618
  8
DIM
 62
     0
 10
44.324631999999987
 20
25.445687
 30
0.0
 11
44.324631999999987
 21
25.145686999999992
 31
0.0
 12
45.224631999999993
 22
25.295687000000001
 32
0.0
 13
45.224631999999993
 23
25.295687000000001
 33
0.0
  0
TEXT
  5
1619
  8
DIM
 62
     0
 10
38.67788199999999
 20
24.983187000000001
 30
0.0
 40
0.625
  1
L
 41
0.75
  7
TXT
  0
POINT
  5
161A
  8
DEFPOINTS
 62
     0
 10
32.443632000000001
 20
22.450686999999999
 30
0.0
  0
POINT
  5
161B
  8
DEFPOINTS
 62
     0
 10
45.224631999999993
 20
22.450686999999999
 30
0.0
  0
POINT
  5
161C
  8
DEFPOINTS
 62
     0
 10
45.224631999999993
 20
25.295687000000001
 30
0.0
  0
ENDBLK
  5
161D
  8
0
  0
BLOCK
  8
0
  2
*D56
 70
     1
 10
0.0
 20
0.0
 30
0.0
  3
*D56
  1

  0
LINE
  5
1620
  8
DIM
 62
     0
 10
45.430631999999981
 20
21.029686999999988
 30
0.0
 11
47.839302999999987
 21
21.029686999999988
 31
0.0
  0
LINE
  5
1621
  8
DIM
 62
     0
 10
45.53963199999999
 20
22.450686999999999
 30
0.0
 11
47.839302999999987
 21
22.450686999999999
 31
0.0
  0
LINE
  5
1622
  8
DIM
 62
     0
 10
47.374302999999983
 20
20.129686999999979
 30
0.0
 11
47.374302999999983
 21
19.229686999999981
 31
0.0
  0
LINE
  5
1623
  8
DIM
 62
     0
 10
47.374302999999983
 20
23.350686999999979
 30
0.0
 11
47.374302999999983
 21
24.250686999999999
 31
0.0
  0
LINE
  5
1624
  8
DIM
 62
     0
 10
47.374302999999983
 20
24.250686999999999
 30
0.0
 11
48.274302999999989
 21
24.250686999999999
 31
0.0
  0
SOLID
  5
1625
  8
DIM
 62
     0
 10
47.224302999999992
 20
20.129686999999979
 30
0.0
 11
47.524302999999989
 21
20.129686999999979
 31
0.0
 12
47.374302999999983
 22
21.029686999999988
 32
0.0
 13
47.374302999999983
 23
21.029686999999988
 33
0.0
  0
SOLID
  5
1626
  8
DIM
 62
     0
 10
47.224302999999992
 20
23.350686999999979
 30
0.0
 11
47.524302999999989
 21
23.350686999999979
 31
0.0
 12
47.374302999999983
 22
22.450686999999999
 32
0.0
 13
47.374302999999983
 23
22.450686999999999
 33
0.0
  0
TEXT
  5
1627
  8
DIM
 62
     0
 10
48.724302999999971
 20
23.938186999999999
 30
0.0
 40
0.625
  1
1.421
 41
0.75
  7
TXT
  0
POINT
  5
1628
  8
DEFPOINTS
 62
     0
 10
45.115631999999998
 20
21.029686999999988
 30
0.0
  0
POINT
  5
1629
  8
DEFPOINTS
 62
     0
 10
45.224631999999993
 20
22.450686999999999
 30
0.0
  0
POINT
  5
162A
  8
DEFPOINTS
 62
     0
 10
47.374302999999983
 20
22.450686999999999
 30
0.0
  0
ENDBLK
  5
162B
  8
0
  0
BLOCK
  8
0
  2
*D57
 70
     1
 10
0.0
 20
0.0
 30
0.0
  3
*D57
  1

  0
LINE
  5
162E
  8
DIM
 62
     0
 10
45.53963199999999
 20
15.638686999999999
 30
0.0
 11
47.839302999999973
 21
15.638686999999999
 31
0.0
  0
LINE
  5
162F
  8
DIM
 62
     0
 10
45.430631999999981
 20
17.059687
 30
0.0
 11
47.839302999999987
 21
17.059687
 31
0.0
  0
LINE
  5
1630
  8
DIM
 62
     0
 10
47.374302999999983
 20
14.738686999999979
 30
0.0
 11
47.374302999999983
 21
13.838687
 31
0.0
  0
LINE
  5
1631
  8
DIM
 62
     0
 10
47.374302999999983
 20
17.959686999999992
 30
0.0
 11
47.374302999999983
 21
18.859687000000001
 31
0.0
  0
LINE
  5
1632
  8
DIM
 62
     0
 10
47.374302999999983
 20
18.859687000000001
 30
0.0
 11
48.274302999999989
 21
18.859687000000001
 31
0.0
  0
SOLID
  5
1633
  8
DIM
 62
     0
 10
47.224302999999978
 20
14.738686999999979
 30
0.0
 11
47.524302999999982
 21
14.738686999999979
 31
0.0
 12
47.374302999999983
 22
15.638686999999999
 32
0.0
 13
47.374302999999983
 23
15.638686999999999
 33
0.0
  0
SOLID
  5
1634
  8
DIM
 62
     0
 10
47.224302999999992
 20
17.959686999999992
 30
0.0
 11
47.524302999999989
 21
17.959686999999992
 31
0.0
 12
47.374302999999983
 22
17.059687
 32
0.0
 13
47.374302999999983
 23
17.059687
 33
0.0
  0
TEXT
  5
1635
  8
DIM
 62
     0
 10
48.724302999999971
 20
18.547187000000001
 30
0.0
 40
0.625
  1
1.421
 41
0.75
  7
TXT
  0
POINT
  5
1636
  8
DEFPOINTS
 62
     0
 10
45.224631999999993
 20
15.638686999999999
 30
0.0
  0
POINT
  5
1637
  8
DEFPOINTS
 62
     0
 10
45.115631999999998
 20
17.059687
 30
0.0
  0
POINT
  5
1638
  8
DEFPOINTS
 62
     0
 10
47.374302999999983
 20
17.059687
 30
0.0
  0
ENDBLK
  5
1639
  8
0
  0
BLOCK
  8
0
  2
*D58
 70
     1
 10
0.0
 20
0.0
 30
0.0
  3
*D58
  1

  0
LINE
  5
163C
  8
DIM
 62
     0
 10
45.53963199999999
 20
22.450686999999999
 30
0.0
 11
49.244303000000002
 21
22.450686999999999
 31
0.0
  0
LINE
  5
163D
  8
DIM
 62
     0
 10
45.53963199999999
 20
15.638686999999999
 30
0.0
 11
49.244303000000002
 21
15.638686999999999
 31
0.0
  0
LINE
  5
163E
  8
DIM
 62
     0
 10
48.779302999999999
 20
21.550687
 30
0.0
 11
48.779302999999999
 21
19.807186999999981
 31
0.0
  0
LINE
  5
163F
  8
DIM
 62
     0
 10
48.779302999999999
 20
16.538686999999999
 30
0.0
 11
48.779302999999999
 21
18.282187
 31
0.0
  0
SOLID
  5
1640
  8
DIM
 62
     0
 10
48.629303000000007
 20
21.550687
 30
0.0
 11
48.92930299999999
 21
21.550687
 31
0.0
 12
48.779302999999999
 22
22.450686999999999
 32
0.0
 13
48.779302999999999
 23
22.450686999999999
 33
0.0
  0
SOLID
  5
1641
  8
DIM
 62
     0
 10
48.629303000000007
 20
16.538686999999999
 30
0.0
 11
48.92930299999999
 21
16.538686999999999
 31
0.0
 12
48.779302999999999
 22
15.638686999999999
 32
0.0
 13
48.779302999999999
 23
15.638686999999999
 33
0.0
  0
TEXT
  5
1642
  8
DIM
 62
     0
 10
48.623052999999999
 20
18.732186999999989
 30
0.0
 40
0.625
  1
K
 41
0.75
  7
TXT
  0
POINT
  5
1643
  8
DEFPOINTS
 62
     0
 10
45.224631999999993
 20
22.450686999999999
 30
0.0
  0
POINT
  5
1644
  8
DEFPOINTS
 62
     0
 10
45.224631999999993
 20
15.638686999999999
 30
0.0
  0
POINT
  5
1645
  8
DEFPOINTS
 62
     0
 10
48.779302999999999
 20
15.638686999999999
 30
0.0
  0
ENDBLK
  5
1646
  8
0
  0
BLOCK
  8
0
  2
*D59
 70
     1
 10
0.0
 20
0.0
 30
0.0
  3
*D59
  1

  0
LINE
  5
1649
  8
DIM
 62
     0
 10
14.597860000000001
 20
37.998678999999981
 30
0.0
 11
14.597860000000001
 21
40.114018999999999
 31
0.0
  0
LINE
  5
164A
  8
DIM
 62
     0
 10
14.097860000000001
 20
37.98267899999999
 30
0.0
 11
14.097860000000001
 21
40.114018999999999
 31
0.0
  0
LINE
  5
164B
  8
DIM
 62
     0
 10
15.497859999999999
 20
39.649019000000003
 30
0.0
 11
16.397860000000001
 21
39.649019000000003
 31
0.0
  0
LINE
  5
164C
  8
DIM
 62
     0
 10
13.19786
 20
39.649019000000003
 30
0.0
 11
12.29786
 21
39.649019000000003
 31
0.0
  0
SOLID
  5
164D
  8
DIM
 62
     0
 10
15.497859999999999
 20
39.799019000000001
 30
0.0
 11
15.497859999999999
 21
39.499018999999997
 31
0.0
 12
14.597860000000001
 22
39.649019000000003
 32
0.0
 13
14.597860000000001
 23
39.649019000000003
 33
0.0
  0
SOLID
  5
164E
  8
DIM
 62
     0
 10
13.19786
 20
39.799019000000001
 30
0.0
 11
13.19786
 21
39.499018999999997
 31
0.0
 12
14.097860000000001
 22
39.649019000000003
 32
0.0
 13
14.097860000000001
 23
39.649019000000003
 33
0.0
  0
TEXT
  5
164F
  8
DIM
 62
     0
 10
10.207235000000001
 20
39.336519000000003
 30
0.0
 40
0.625
  1
0.500
 41
0.75
  7
TXT
  0
POINT
  5
1650
  8
DEFPOINTS
 62
     0
 10
14.597860000000001
 20
37.683678999999991
 30
0.0
  0
POINT
  5
1651
  8
DEFPOINTS
 62
     0
 10
14.097860000000001
 20
37.667679
 30
0.0
  0
POINT
  5
1652
  8
DEFPOINTS
 62
     0
 10
14.097860000000001
 20
39.649019000000003
 30
0.0
  0
ENDBLK
  5
1653
  8
0
  0
BLOCK
  8
0
  2
*D60
 70
     1
 10
0.0
 20
0.0
 30
0.0
  3
*D60
  1

  0
LINE
  5
1977
  8
DIM
 62
     0
 10
2.1598599999999961
 20
56.606622999999999
 30
0.0
 11
2.1598599999999961
 21
58.239799000000012
 31
0.0
  0
LINE
  5
1978
  8
DIM
 62
     0
 10
15.15986
 20
56.606622999999999
 30
0.0
 11
15.15986
 21
58.239799000000012
 31
0.0
  0
LINE
  5
1979
  8
DIM
 62
     0
 10
3.059859999999996
 20
57.774799000000002
 30
0.0
 11
8.053609999999999
 21
57.774799000000002
 31
0.0
  0
LINE
  5
197A
  8
DIM
 62
     0
 10
14.259859999999991
 20
57.774799000000002
 30
0.0
 11
9.2661099999999976
 21
57.774799000000002
 31
0.0
  0
SOLID
  5
197B
  8
DIM
 62
     0
 10
3.059859999999996
 20
57.924799
 30
0.0
 11
3.059859999999996
 21
57.624799000000003
 31
0.0
 12
2.1598599999999961
 22
57.774799000000002
 32
0.0
 13
2.1598599999999961
 23
57.774799000000002
 33
0.0
  0
SOLID
  5
197C
  8
DIM
 62
     0
 10
14.259859999999991
 20
57.924799
 30
0.0
 11
14.259859999999991
 21
57.624799000000003
 31
0.0
 12
15.15986
 22
57.774799000000002
 32
0.0
 13
15.15986
 23
57.774799000000002
 33
0.0
  0
TEXT
  5
197D
  8
DIM
 62
     0
 10
8.5036099999999983
 20
57.462299000000002
 30
0.0
 40
0.625
  1
B
 41
0.75
  7
TXT
  0
POINT
  5
197E
  8
DEFPOINTS
 62
     0
 10
2.1598599999999961
 20
56.291623000000001
 30
0.0
  0
POINT
  5
197F
  8
DEFPOINTS
 62
     0
 10
15.15986
 20
56.291623000000001
 30
0.0
  0
POINT
  5
1980
  8
DEFPOINTS
 62
     0
 10
15.15986
 20
57.774799000000002
 30
0.0
  0
ENDBLK
  5
173A
  8
0
  0
BLOCK
  8
0
  2
*D61
 70
     1
 10
0.0
 20
0.0
 30
0.0
  3
*D61
  1

  0
LINE
  5
1981
  8
DIM
 62
     0
 10
14.597860000000001
 20
37.998678999999981
 30
0.0
 11
14.597860000000001
 21
41.519018999999979
 31
0.0
  0
LINE
  5
1982
  8
DIM
 62
     0
 10
15.15986
 20
38.560678999999979
 30
0.0
 11
15.15986
 21
41.519018999999979
 31
0.0
  0
LINE
  5
1983
  8
DIM
 62
     0
 10
13.69786
 20
41.05401899999999
 30
0.0
 11
12.79786
 21
41.05401899999999
 31
0.0
  0
LINE
  5
1984
  8
DIM
 62
     0
 10
16.05986
 20
41.05401899999999
 30
0.0
 11
16.959859999999988
 21
41.05401899999999
 31
0.0
  0
SOLID
  5
1985
  8
DIM
 62
     0
 10
13.69786
 20
41.204018999999988
 30
0.0
 11
13.69786
 21
40.904018999999977
 31
0.0
 12
14.597860000000001
 22
41.05401899999999
 32
0.0
 13
14.597860000000001
 23
41.05401899999999
 33
0.0
  0
SOLID
  5
1986
  8
DIM
 62
     0
 10
16.05986
 20
41.204018999999988
 30
0.0
 11
16.05986
 21
40.904018999999977
 31
0.0
 12
15.15986
 22
41.05401899999999
 32
0.0
 13
15.15986
 23
41.05401899999999
 33
0.0
  0
TEXT
  5
1987
  8
DIM
 62
     0
 10
17.409859999999991
 20
40.74151899999999
 30
0.0
 40
0.625
  1
0.562
 41
0.75
  7
TXT
  0
POINT
  5
1988
  8
DEFPOINTS
 62
     0
 10
14.597860000000001
 20
37.683678999999991
 30
0.0
  0
POINT
  5
1989
  8
DEFPOINTS
 62
     0
 10
15.15986
 20
38.245678999999988
 30
0.0
  0
POINT
  5
198A
  8
DEFPOINTS
 62
     0
 10
15.15986
 20
41.05401899999999
 30
0.0
  0
ENDBLK
  5
1748
  8
0
  0
BLOCK
  8
0
  2
*D62
 70
     1
 10
0.0
 20
0.0
 30
0.0
  3
*D62
  1

  0
LINE
  5
198B
  8
DIM
 62
     0
 10
2.7218599999999991
 20
37.998678999999981
 30
0.0
 11
2.7218599999999991
 21
41.519018999999979
 31
0.0
  0
LINE
  5
198C
  8
DIM
 62
     0
 10
14.597860000000001
 20
37.998678999999981
 30
0.0
 11
14.597860000000001
 21
41.519018999999979
 31
0.0
  0
LINE
  5
198D
  8
DIM
 62
     0
 10
3.6218599999999981
 20
41.05401899999999
 30
0.0
 11
8.0536100000000008
 21
41.05401899999999
 31
0.0
  0
LINE
  5
198E
  8
DIM
 62
     0
 10
13.69786
 20
41.05401899999999
 30
0.0
 11
9.2661099999999994
 21
41.05401899999999
 31
0.0
  0
SOLID
  5
198F
  8
DIM
 62
     0
 10
3.6218599999999981
 20
41.204018999999988
 30
0.0
 11
3.6218599999999981
 21
40.904018999999977
 31
0.0
 12
2.7218599999999991
 22
41.05401899999999
 32
0.0
 13
2.7218599999999991
 23
41.05401899999999
 33
0.0
  0
SOLID
  5
1990
  8
DIM
 62
     0
 10
13.69786
 20
41.204018999999988
 30
0.0
 11
13.69786
 21
40.904018999999977
 31
0.0
 12
14.597860000000001
 22
41.05401899999999
 32
0.0
 13
14.597860000000001
 23
41.05401899999999
 33
0.0
  0
TEXT
  5
1991
  8
DIM
 62
     0
 10
8.5036100000000001
 20
40.74151899999999
 30
0.0
 40
0.625
  1
E
 41
0.75
  7
TXT
  0
POINT
  5
1992
  8
DEFPOINTS
 62
     0
 10
2.7218599999999991
 20
37.683678999999991
 30
0.0
  0
POINT
  5
1993
  8
DEFPOINTS
 62
     0
 10
14.597860000000001
 20
37.683678999999991
 30
0.0
  0
POINT
  5
1994
  8
DEFPOINTS
 62
     0
 10
14.597860000000001
 20
41.05401899999999
 30
0.0
  0
ENDBLK
  5
1756
  8
0
  0
BLOCK
  8
0
  2
*D63
 70
     1
 10
0.0
 20
0.0
 30
0.0
  3
*D63
  1

  0
LINE
  5
1995
  8
DIM
 62
     0
 10
14.91286
 20
31.80767899999999
 30
0.0
 11
17.186059
 21
31.80767899999999
 31
0.0
  0
LINE
  5
1996
  8
DIM
 62
     0
 10
15.47486
 20
31.245678999999999
 30
0.0
 11
17.186059
 21
31.245678999999999
 31
0.0
  0
LINE
  5
1997
  8
DIM
 62
     0
 10
16.721059
 20
32.707678999999978
 30
0.0
 11
16.721059
 21
33.607678999999983
 31
0.0
  0
LINE
  5
1998
  8
DIM
 62
     0
 10
16.721059
 20
30.345679000000001
 30
0.0
 11
16.721059
 21
29.445678999999998
 31
0.0
  0
LINE
  5
1999
  8
DIM
 62
     0
 10
16.721059
 20
29.445678999999998
 30
0.0
 11
15.821059
 21
29.445678999999998
 31
0.0
  0
SOLID
  5
199A
  8
DIM
 62
     0
 10
16.571059000000002
 20
32.707678999999978
 30
0.0
 11
16.871058999999988
 21
32.707678999999978
 31
0.0
 12
16.721059
 22
31.80767899999999
 32
0.0
 13
16.721059
 23
31.80767899999999
 33
0.0
  0
SOLID
  5
199B
  8
DIM
 62
     0
 10
16.571059000000002
 20
30.345679000000001
 30
0.0
 11
16.871058999999988
 21
30.345679000000001
 31
0.0
 12
16.721059
 22
31.245678999999999
 32
0.0
 13
16.721059
 23
31.245678999999999
 33
0.0
  0
TEXT
  5
199C
  8
DIM
 62
     0
 10
13.57418399999999
 20
29.133178999999998
 30
0.0
 40
0.625
  1
0.562
 41
0.75
  7
TXT
  0
POINT
  5
199D
  8
DEFPOINTS
 62
     0
 10
14.597860000000001
 20
31.80767899999999
 30
0.0
  0
POINT
  5
199E
  8
DEFPOINTS
 62
     0
 10
15.15986
 20
31.245678999999999
 30
0.0
  0
POINT
  5
199F
  8
DEFPOINTS
 62
     0
 10
16.721059
 20
31.245678999999999
 30
0.0
  0
ENDBLK
  5
1764
  8
0
  0
BLOCK
  8
0
  2
*D64
 70
     1
 10
0.0
 20
0.0
 30
0.0
  3
*D64
  1

  0
LINE
  5
19A0
  8
DIM
 62
     0
 10
14.91286
 20
31.80767899999999
 30
0.0
 11
17.186059
 21
31.80767899999999
 31
0.0
  0
LINE
  5
19A1
  8
DIM
 62
     0
 10
14.91286
 20
37.683678999999991
 30
0.0
 11
17.186059
 21
37.683678999999977
 31
0.0
  0
LINE
  5
19A2
  8
DIM
 62
     0
 10
16.721059
 20
32.707678999999978
 30
0.0
 11
16.721059
 21
33.983178999999978
 31
0.0
  0
LINE
  5
19A3
  8
DIM
 62
     0
 10
16.721059
 20
36.783678999999978
 30
0.0
 11
16.721059
 21
35.508178999999991
 31
0.0
  0
SOLID
  5
19A4
  8
DIM
 62
     0
 10
16.571059000000002
 20
32.707678999999978
 30
0.0
 11
16.871058999999988
 21
32.707678999999978
 31
0.0
 12
16.721059
 22
31.80767899999999
 32
0.0
 13
16.721059
 23
31.80767899999999
 33
0.0
  0
SOLID
  5
19A5
  8
DIM
 62
     0
 10
16.571059000000002
 20
36.783678999999978
 30
0.0
 11
16.871058999999988
 21
36.783678999999978
 31
0.0
 12
16.721059
 22
37.683678999999977
 32
0.0
 13
16.721059
 23
37.683678999999977
 33
0.0
  0
TEXT
  5
19A6
  8
DIM
 62
     0
 10
16.56480899999999
 20
34.433178999999988
 30
0.0
 40
0.625
  1
D
 41
0.75
  7
TXT
  0
POINT
  5
19A7
  8
DEFPOINTS
 62
     0
 10
14.597860000000001
 20
31.80767899999999
 30
0.0
  0
POINT
  5
19A8
  8
DEFPOINTS
 62
     0
 10
14.597860000000001
 20
37.683678999999991
 30
0.0
  0
POINT
  5
19A9
  8
DEFPOINTS
 62
     0
 10
16.721059
 20
37.683678999999977
 30
0.0
  0
ENDBLK
  5
1772
  8
0
  0
BLOCK
  8
0
  2
*D65
 70
     1
 10
0.0
 20
0.0
 30
0.0
  3
*D65
  1

  0
LINE
  5
19AA
  8
DIM
 62
     0
 10
32.34913199999999
 20
38.498678999999989
 30
0.0
 11
32.34913199999999
 21
41.519018999999979
 31
0.0
  0
LINE
  5
19AB
  8
DIM
 62
     0
 10
32.287132
 20
38.560678999999979
 30
0.0
 11
32.287132
 21
41.519018999999979
 31
0.0
  0
LINE
  5
19AC
  8
DIM
 62
     0
 10
33.249131999999989
 20
41.05401899999999
 30
0.0
 11
34.149131999999987
 21
41.05401899999999
 31
0.0
  0
LINE
  5
19AD
  8
DIM
 62
     0
 10
31.387132000000001
 20
41.05401899999999
 30
0.0
 11
30.487131999999988
 21
41.05401899999999
 31
0.0
  0
SOLID
  5
19AE
  8
DIM
 62
     0
 10
33.249131999999989
 20
41.204018999999988
 30
0.0
 11
33.249131999999989
 21
40.904018999999977
 31
0.0
 12
32.34913199999999
 22
41.05401899999999
 32
0.0
 13
32.34913199999999
 23
41.05401899999999
 33
0.0
  0
SOLID
  5
19AF
  8
DIM
 62
     0
 10
31.387132000000001
 20
41.204018999999988
 30
0.0
 11
31.387132000000001
 21
40.904018999999977
 31
0.0
 12
32.287132
 22
41.05401899999999
 32
0.0
 13
32.287132
 23
41.05401899999999
 33
0.0
  0
TEXT
  5
19B0
  8
DIM
 62
     0
 10
28.318381999999989
 20
40.74151899999999
 30
0.0
 40
0.625
  1
0.062
 41
0.75
  7
TXT
  0
POINT
  5
19B1
  8
DEFPOINTS
 62
     0
 10
32.34913199999999
 20
38.183678999999998
 30
0.0
  0
POINT
  5
19B2
  8
DEFPOINTS
 62
     0
 10
32.287132
 20
38.245678999999988
 30
0.0
  0
POINT
  5
19B3
  8
DEFPOINTS
 62
     0
 10
32.287132
 20
41.05401899999999
 30
0.0
  0
ENDBLK
  5
1780
  8
0
  0
BLOCK
  8
0
  2
*D66
 70
     1
 10
0.0
 20
0.0
 30
0.0
  3
*D66
  1

  0
LINE
  5
19B4
  8
DIM
 62
     0
 10
32.34913199999999
 20
38.498678999999989
 30
0.0
 11
32.34913199999999
 21
41.519018999999979
 31
0.0
  0
LINE
  5
19B5
  8
DIM
 62
     0
 10
45.225132000000002
 20
38.498678999999989
 30
0.0
 11
45.225132000000002
 21
41.519018999999979
 31
0.0
  0
LINE
  5
19B6
  8
DIM
 62
     0
 10
33.249131999999989
 20
41.05401899999999
 30
0.0
 11
38.180881999999997
 21
41.05401899999999
 31
0.0
  0
LINE
  5
19B7
  8
DIM
 62
     0
 10
44.325132000000004
 20
41.05401899999999
 30
0.0
 11
39.393382000000003
 21
41.05401899999999
 31
0.0
  0
SOLID
  5
19B8
  8
DIM
 62
     0
 10
33.249131999999989
 20
41.204018999999988
 30
0.0
 11
33.249131999999989
 21
40.904018999999977
 31
0.0
 12
32.34913199999999
 22
41.05401899999999
 32
0.0
 13
32.34913199999999
 23
41.05401899999999
 33
0.0
  0
SOLID
  5
19B9
  8
DIM
 62
     0
 10
44.325132000000004
 20
41.204018999999988
 30
0.0
 11
44.325132000000004
 21
40.904018999999977
 31
0.0
 12
45.225132000000002
 22
41.05401899999999
 32
0.0
 13
45.225132000000002
 23
41.05401899999999
 33
0.0
  0
TEXT
  5
19BA
  8
DIM
 62
     0
 10
38.630881999999993
 20
40.74151899999999
 30
0.0
 40
0.625
  1
G
 41
0.75
  7
TXT
  0
POINT
  5
19BB
  8
DEFPOINTS
 62
     0
 10
32.34913199999999
 20
38.183678999999998
 30
0.0
  0
POINT
  5
19BC
  8
DEFPOINTS
 62
     0
 10
45.225132000000002
 20
38.183678999999998
 30
0.0
  0
POINT
  5
19BD
  8
DEFPOINTS
 62
     0
 10
45.225132000000002
 20
41.05401899999999
 30
0.0
  0
ENDBLK
  5
178E
  8
0
  0
BLOCK
  8
0
  2
*D67
 70
     1
 10
0.0
 20
0.0
 30
0.0
  3
*D67
  1

  0
LINE
  5
19BE
  8
DIM
 62
     0
 10
32.034131999999993
 20
31.308679000000001
 30
0.0
 11
30.074884000000001
 21
31.308679000000001
 31
0.0
  0
LINE
  5
19BF
  8
DIM
 62
     0
 10
32.003131999999987
 20
31.245678999999999
 30
0.0
 11
30.074884000000001
 21
31.245678999999999
 31
0.0
  0
LINE
  5
19C0
  8
DIM
 62
     0
 10
30.539884000000001
 20
32.208678999999997
 30
0.0
 11
30.539884000000001
 21
33.108679000000002
 31
0.0
  0
LINE
  5
19C1
  8
DIM
 62
     0
 10
30.539884000000001
 20
30.345679000000001
 30
0.0
 11
30.539884000000001
 21
29.445678999999998
 31
0.0
  0
LINE
  5
19C2
  8
DIM
 62
     0
 10
30.539884000000001
 20
29.445678999999998
 30
0.0
 11
29.639883999999999
 21
29.445678999999998
 31
0.0
  0
SOLID
  5
19C3
  8
DIM
 62
     0
 10
30.389883999999999
 20
32.208678999999997
 30
0.0
 11
30.689883999999999
 21
32.208678999999997
 31
0.0
 12
30.539884000000001
 22
31.308679000000001
 32
0.0
 13
30.539884000000001
 23
31.308679000000001
 33
0.0
  0
SOLID
  5
19C4
  8
DIM
 62
     0
 10
30.389883999999999
 20
30.345679000000001
 30
0.0
 11
30.689883999999999
 21
30.345679000000001
 31
0.0
 12
30.539884000000001
 22
31.245678999999999
 32
0.0
 13
30.539884000000001
 23
31.245678999999999
 33
0.0
  0
TEXT
  5
19C5
  8
DIM
 62
     0
 10
27.471133999999989
 20
29.133178999999998
 30
0.0
 40
0.625
  1
0.063
 41
0.75
  7
TXT
  0
POINT
  5
19C6
  8
DEFPOINTS
 62
     0
 10
32.34913199999999
 20
31.308679000000001
 30
0.0
  0
POINT
  5
19C7
  8
DEFPOINTS
 62
     0
 10
32.318131999999991
 20
31.245678999999999
 30
0.0
  0
POINT
  5
19C8
  8
DEFPOINTS
 62
     0
 10
30.539884000000001
 20
31.245678999999999
 30
0.0
  0
ENDBLK
  5
179C
  8
0
  0
BLOCK
  8
0
  2
*D68
 70
     1
 10
0.0
 20
0.0
 30
0.0
  3
*D68
  1

  0
LINE
  5
19C9
  8
DIM
 62
     0
 10
32.034131999999993
 20
31.308679000000001
 30
0.0
 11
30.074884000000001
 21
31.308679000000001
 31
0.0
  0
LINE
  5
19CA
  8
DIM
 62
     0
 10
32.034131999999993
 20
38.183678999999998
 30
0.0
 11
30.074884000000001
 21
38.183678999999998
 31
0.0
  0
LINE
  5
19CB
  8
DIM
 62
     0
 10
30.539884000000001
 20
32.208678999999997
 30
0.0
 11
30.539884000000001
 21
33.983679000000002
 31
0.0
  0
LINE
  5
19CC
  8
DIM
 62
     0
 10
30.539884000000001
 20
37.283678999999999
 30
0.0
 11
30.539884000000001
 21
35.508679000000001
 31
0.0
  0
SOLID
  5
19CD
  8
DIM
 62
     0
 10
30.389883999999999
 20
32.208678999999997
 30
0.0
 11
30.689883999999999
 21
32.208678999999997
 31
0.0
 12
30.539884000000001
 22
31.308679000000001
 32
0.0
 13
30.539884000000001
 23
31.308679000000001
 33
0.0
  0
SOLID
  5
19CE
  8
DIM
 62
     0
 10
30.389883999999999
 20
37.283678999999999
 30
0.0
 11
30.689883999999999
 21
37.283678999999999
 31
0.0
 12
30.539884000000001
 22
38.183678999999998
 32
0.0
 13
30.539884000000001
 23
38.183678999999998
 33
0.0
  0
TEXT
  5
19CF
  8
DIM
 62
     0
 10
30.38363399999999
 20
34.433679000000012
 30
0.0
 40
0.625
  1
F
 41
0.75
  7
TXT
  0
POINT
  5
19D0
  8
DEFPOINTS
 62
     0
 10
32.34913199999999
 20
31.308679000000001
 30
0.0
  0
POINT
  5
19D1
  8
DEFPOINTS
 62
     0
 10
32.34913199999999
 20
38.183678999999998
 30
0.0
  0
POINT
  5
19D2
  8
DEFPOINTS
 62
     0
 10
30.539884000000001
 20
38.183678999999998
 30
0.0
  0
ENDBLK
  5
17AA
  8
0
  0
BLOCK
  8
0
  2
*D69
 70
     1
 10
0.0
 20
0.0
 30
0.0
  3
*D69
  1

  0
LINE
  5
19D3
  8
DIM
 62
     0
 10
32.849131999999997
 20
37.942678999999991
 30
0.0
 11
32.849131999999997
 21
40.114018999999999
 31
0.0
  0
LINE
  5
19D4
  8
DIM
 62
     0
 10
32.287132
 20
38.52867899999999
 30
0.0
 11
32.287132
 21
40.114018999999999
 31
0.0
  0
LINE
  5
19D5
  8
DIM
 62
     0
 10
33.749131999999989
 20
39.649019000000003
 30
0.0
 11
34.649131999999987
 21
39.649019000000003
 31
0.0
  0
LINE
  5
19D6
  8
DIM
 62
     0
 10
31.387132000000001
 20
39.649019000000003
 30
0.0
 11
30.487131999999988
 21
39.649019000000003
 31
0.0
  0
SOLID
  5
19D7
  8
DIM
 62
     0
 10
33.749131999999989
 20
39.799019000000001
 30
0.0
 11
33.749131999999989
 21
39.499018999999997
 31
0.0
 12
32.849131999999997
 22
39.649019000000003
 32
0.0
 13
32.849131999999997
 23
39.649019000000003
 33
0.0
  0
SOLID
  5
19D8
  8
DIM
 62
     0
 10
31.387132000000001
 20
39.799019000000001
 30
0.0
 11
31.387132000000001
 21
39.499018999999997
 31
0.0
 12
32.287132
 22
39.649019000000003
 32
0.0
 13
32.287132
 23
39.649019000000003
 33
0.0
  0
TEXT
  5
19D9
  8
DIM
 62
     0
 10
28.240256999999989
 20
39.336519000000003
 30
0.0
 40
0.625
  1
0.562
 41
0.75
  7
TXT
  0
POINT
  5
19DA
  8
DEFPOINTS
 62
     0
 10
32.849131999999997
 20
37.627679000000001
 30
0.0
  0
POINT
  5
19DB
  8
DEFPOINTS
 62
     0
 10
32.287132
 20
38.213678999999999
 30
0.0
  0
POINT
  5
19DC
  8
DEFPOINTS
 62
     0
 10
32.287132
 20
39.649019000000003
 30
0.0
  0
ENDBLK
  5
17B8
  8
0
  0
BLOCK
  8
0
  2
*D70
 70
     1
 10
0.0
 20
0.0
 30
0.0
  3
*D70
  1

  0
LINE
  5
19DD
  8
DIM
 62
     0
 10
44.97713199999999
 20
37.683678999999991
 30
0.0
 11
46.940396999999997
 21
37.683678999999991
 31
0.0
  0
LINE
  5
19DE
  8
DIM
 62
     0
 10
45.540131999999993
 20
38.183678999999998
 30
0.0
 11
46.940396999999997
 21
38.183678999999998
 31
0.0
  0
LINE
  5
19DF
  8
DIM
 62
     0
 10
46.475396999999987
 20
36.783678999999992
 30
0.0
 11
46.475396999999987
 21
35.883678999999987
 31
0.0
  0
LINE
  5
19E0
  8
DIM
 62
     0
 10
46.475396999999987
 20
39.083678999999997
 30
0.0
 11
46.475396999999987
 21
39.983678999999988
 31
0.0
  0
LINE
  5
19E1
  8
DIM
 62
     0
 10
46.475396999999987
 20
39.983678999999988
 30
0.0
 11
47.375396999999992
 21
39.983678999999988
 31
0.0
  0
SOLID
  5
19E2
  8
DIM
 62
     0
 10
46.325396999999988
 20
36.783678999999992
 30
0.0
 11
46.625396999999992
 21
36.783678999999992
 31
0.0
 12
46.475396999999987
 22
37.683678999999991
 32
0.0
 13
46.475396999999987
 23
37.683678999999991
 33
0.0
  0
SOLID
  5
19E3
  8
DIM
 62
     0
 10
46.325396999999988
 20
39.083678999999997
 30
0.0
 11
46.625396999999992
 21
39.083678999999997
 31
0.0
 12
46.475396999999987
 22
38.183678999999998
 32
0.0
 13
46.475396999999987
 23
38.183678999999998
 33
0.0
  0
TEXT
  5
19E4
  8
DIM
 62
     0
 10
47.825396999999988
 20
39.671179000000002
 30
0.0
 40
0.625
  1
0.500
 41
0.75
  7
TXT
  0
POINT
  5
19E5
  8
DEFPOINTS
 62
     0
 10
44.662132
 20
37.683678999999991
 30
0.0
  0
POINT
  5
19E6
  8
DEFPOINTS
 62
     0
 10
45.225132000000002
 20
38.183678999999998
 30
0.0
  0
POINT
  5
19E7
  8
DEFPOINTS
 62
     0
 10
46.475396999999987
 20
38.183678999999998
 30
0.0
  0
ENDBLK
  5
17C6
  8
0
  0
BLOCK
  8
0
  2
*D71
 70
     1
 10
0.0
 20
0.0
 30
0.0
  3
*D71
  1

  0
LINE
  5
19E8
  8
DIM
 62
     0
 10
15.47486
 20
56.291623000000001
 30
0.0
 11
17.186059
 21
56.291622999999987
 31
0.0
  0
LINE
  5
19E9
  8
DIM
 62
     0
 10
15.47486
 20
49.291623000000001
 30
0.0
 11
17.186059
 21
49.291622999999987
 31
0.0
  0
LINE
  5
19EA
  8
DIM
 62
     0
 10
16.721059
 20
55.391623000000003
 30
0.0
 11
16.721059
 21
53.554122999999997
 31
0.0
  0
LINE
  5
19EB
  8
DIM
 62
     0
 10
16.721059
 20
50.191622999999993
 30
0.0
 11
16.721059
 21
52.029122999999991
 31
0.0
  0
SOLID
  5
19EC
  8
DIM
 62
     0
 10
16.571059000000002
 20
55.391623000000003
 30
0.0
 11
16.871058999999988
 21
55.391623000000003
 31
0.0
 12
16.721059
 22
56.291622999999987
 32
0.0
 13
16.721059
 23
56.291622999999987
 33
0.0
  0
SOLID
  5
19ED
  8
DIM
 62
     0
 10
16.571059000000002
 20
50.191622999999993
 30
0.0
 11
16.871058999999988
 21
50.191622999999993
 31
0.0
 12
16.721059
 22
49.291622999999987
 32
0.0
 13
16.721059
 23
49.291622999999987
 33
0.0
  0
TEXT
  5
19EE
  8
DIM
 62
     0
 10
16.56480899999999
 20
52.479123000000001
 30
0.0
 40
0.625
  1
A
 41
0.75
  7
TXT
  0
POINT
  5
19EF
  8
DEFPOINTS
 62
     0
 10
15.15986
 20
56.291623000000001
 30
0.0
  0
POINT
  5
19F0
  8
DEFPOINTS
 62
     0
 10
15.15986
 20
49.291623000000001
 30
0.0
  0
POINT
  5
19F1
  8
DEFPOINTS
 62
     0
 10
16.721059
 20
49.291622999999987
 30
0.0
  0
ENDBLK
  5
17D4
  8
0
  0
BLOCK
  8
0
  2
*D72
 70
     1
 10
0.0
 20
0.0
 30
0.0
  3
*D72
  1

  0
LINE
  5
19F2
  8
DIM
 62
     0
 10
20.714786
 20
49.031623000000003
 30
0.0
 11
20.714786
 21
47.519684999999988
 31
0.0
  0
LINE
  5
19F3
  8
DIM
 62
     0
 10
20.182785999999989
 20
48.976622999999996
 30
0.0
 11
20.182785999999989
 21
47.519684999999988
 31
0.0
  0
LINE
  5
19F4
  8
DIM
 62
     0
 10
21.614785999999999
 20
47.984684999999999
 30
0.0
 11
22.51478599999999
 21
47.984684999999999
 31
0.0
  0
LINE
  5
19F5
  8
DIM
 62
     0
 10
19.282785999999991
 20
47.984684999999999
 30
0.0
 11
18.382785999999982
 21
47.984684999999999
 31
0.0
  0
SOLID
  5
19F6
  8
DIM
 62
     0
 10
21.614785999999999
 20
48.13468499999999
 30
0.0
 11
21.614785999999999
 21
47.834685
 31
0.0
 12
20.714786
 22
47.984684999999999
 32
0.0
 13
20.714786
 23
47.984684999999999
 33
0.0
  0
SOLID
  5
19F7
  8
DIM
 62
     0
 10
19.282785999999991
 20
48.13468499999999
 30
0.0
 11
19.282785999999991
 21
47.834685
 31
0.0
 12
20.182785999999989
 22
47.984684999999999
 32
0.0
 13
20.182785999999989
 23
47.984684999999999
 33
0.0
  0
TEXT
  5
19F8
  8
DIM
 62
     0
 10
16.135910999999979
 20
47.672184999999999
 30
0.0
 40
0.625
  1
0.532
 41
0.75
  7
TXT
  0
POINT
  5
19F9
  8
DEFPOINTS
 62
     0
 10
20.714786
 20
49.346623000000001
 30
0.0
  0
POINT
  5
19FA
  8
DEFPOINTS
 62
     0
 10
20.182785999999989
 20
49.291623000000001
 30
0.0
  0
POINT
  5
19FB
  8
DEFPOINTS
 62
     0
 10
20.182785999999989
 20
47.984684999999999
 30
0.0
  0
ENDBLK
  5
17E2
  8
0
  0
BLOCK
  8
0
  2
*D73
 70
     1
 10
0.0
 20
0.0
 30
0.0
  3
*D73
  1

  0
LINE
  5
19FC
  8
DIM
 62
     0
 10
27.932786
 20
49.038623000000001
 30
0.0
 11
27.932786
 21
47.519684999999988
 31
0.0
  0
LINE
  5
19FD
  8
DIM
 62
     0
 10
28.182786
 20
48.976622999999996
 30
0.0
 11
28.182786
 21
47.519684999999988
 31
0.0
  0
LINE
  5
19FE
  8
DIM
 62
     0
 10
27.032786000000002
 20
47.984684999999999
 30
0.0
 11
26.132785999999999
 21
47.984684999999999
 31
0.0
  0
LINE
  5
19FF
  8
DIM
 62
     0
 10
29.082785999999999
 20
47.984684999999999
 30
0.0
 11
29.982786000000001
 21
47.984684999999999
 31
0.0
  0
SOLID
  5
1A00
  8
DIM
 62
     0
 10
27.032786000000002
 20
48.13468499999999
 30
0.0
 11
27.032786000000002
 21
47.834685
 31
0.0
 12
27.932786
 22
47.984684999999999
 32
0.0
 13
27.932786
 23
47.984684999999999
 33
0.0
  0
SOLID
  5
1A01
  8
DIM
 62
     0
 10
29.082785999999999
 20
48.13468499999999
 30
0.0
 11
29.082785999999999
 21
47.834685
 31
0.0
 12
28.182786
 22
47.984684999999999
 32
0.0
 13
28.182786
 23
47.984684999999999
 33
0.0
  0
TEXT
  5
1A02
  8
DIM
 62
     0
 10
30.432786
 20
47.672184999999999
 30
0.0
 40
0.625
  1
0.250
 41
0.75
  7
TXT
  0
POINT
  5
1A03
  8
DEFPOINTS
 62
     0
 10
27.932786
 20
49.353622999999999
 30
0.0
  0
POINT
  5
1A04
  8
DEFPOINTS
 62
     0
 10
28.182786
 20
49.291623000000001
 30
0.0
  0
POINT
  5
1A05
  8
DEFPOINTS
 62
     0
 10
28.182786
 20
47.984684999999999
 30
0.0
  0
ENDBLK
  5
17F0
  8
0
  0
BLOCK
  8
0
  2
*D74
 70
     1
 10
0.0
 20
0.0
 30
0.0
  3
*D74
  1

  0
LINE
  5
1A06
  8
DIM
 62
     0
 10
20.182785999999989
 20
56.606622999999999
 30
0.0
 11
20.182785999999989
 21
58.251775000000002
 31
0.0
  0
LINE
  5
1A07
  8
DIM
 62
     0
 10
28.182786
 20
56.606622999999999
 30
0.0
 11
28.182786
 21
58.251775000000002
 31
0.0
  0
LINE
  5
1A08
  8
DIM
 62
     0
 10
21.082785999999981
 20
57.786774999999999
 30
0.0
 11
23.57653599999999
 21
57.786774999999999
 31
0.0
  0
LINE
  5
1A09
  8
DIM
 62
     0
 10
27.282786000000002
 20
57.786774999999999
 30
0.0
 11
24.789035999999989
 21
57.786774999999999
 31
0.0
  0
SOLID
  5
1A0A
  8
DIM
 62
     0
 10
21.082785999999981
 20
57.936774999999997
 30
0.0
 11
21.082785999999981
 21
57.636775
 31
0.0
 12
20.182785999999989
 22
57.786774999999999
 32
0.0
 13
20.182785999999989
 23
57.786774999999999
 33
0.0
  0
SOLID
  5
1A0B
  8
DIM
 62
     0
 10
27.282786000000002
 20
57.936774999999997
 30
0.0
 11
27.282786000000002
 21
57.636775
 31
0.0
 12
28.182786
 22
57.786774999999999
 32
0.0
 13
28.182786
 23
57.786774999999999
 33
0.0
  0
TEXT
  5
1A0C
  8
DIM
 62
     0
 10
24.026535999999989
 20
57.474274999999999
 30
0.0
 40
0.625
  1
C
 41
0.75
  7
TXT
  0
POINT
  5
1A0D
  8
DEFPOINTS
 62
     0
 10
20.182785999999989
 20
56.291623000000001
 30
0.0
  0
POINT
  5
1A0E
  8
DEFPOINTS
 62
     0
 10
28.182786
 20
56.291623000000001
 30
0.0
  0
POINT
  5
1A0F
  8
DEFPOINTS
 62
     0
 10
28.182786
 20
57.786774999999999
 30
0.0
  0
ENDBLK
  5
17FE
  8
0
  0
BLOCK
  8
0
  2
*D75
 70
     1
 10
0.0
 20
0.0
 30
0.0
  3
*D75
  1

  0
LINE
  5
1A10
  8
DIM
 62
     0
 10
2.7538599999999991
 20
22.765686999999989
 30
0.0
 11
2.7538599999999991
 21
24.355687
 31
0.0
  0
LINE
  5
1A11
  8
DIM
 62
     0
 10
3.0038599999999991
 20
22.515686999999989
 30
0.0
 11
3.0038599999999991
 21
24.355687
 31
0.0
  0
LINE
  5
1A12
  8
DIM
 62
     0
 10
1.853859999999999
 20
23.890687
 30
0.0
 11
0.9538599999999992
 21
23.890687
 31
0.0
  0
LINE
  5
1A13
  8
DIM
 62
     0
 10
3.9038599999999981
 20
23.890687
 30
0.0
 11
4.8038599999999976
 21
23.890687
 31
0.0
  0
SOLID
  5
1A14
  8
DIM
 62
     0
 10
1.853859999999999
 20
24.040686999999991
 30
0.0
 11
1.853859999999999
 21
23.740687000000001
 31
0.0
 12
2.7538599999999991
 22
23.890687
 32
0.0
 13
2.7538599999999991
 23
23.890687
 33
0.0
  0
SOLID
  5
1A15
  8
DIM
 62
     0
 10
3.9038599999999981
 20
24.040686999999991
 30
0.0
 11
3.9038599999999981
 21
23.740687000000001
 31
0.0
 12
3.0038599999999991
 22
23.890687
 32
0.0
 13
3.0038599999999991
 23
23.890687
 33
0.0
  0
TEXT
  5
1A16
  8
DIM
 62
     0
 10
5.2538599999999978
 20
23.578187
 30
0.0
 40
0.625
  1
0.250
 41
0.75
  7
TXT
  0
POINT
  5
1A17
  8
DEFPOINTS
 62
     0
 10
2.7538599999999991
 20
22.450686999999999
 30
0.0
  0
POINT
  5
1A18
  8
DEFPOINTS
 62
     0
 10
3.0038599999999991
 20
22.200686999999999
 30
0.0
  0
POINT
  5
1A19
  8
DEFPOINTS
 62
     0
 10
3.0038599999999991
 20
23.890687
 30
0.0
  0
ENDBLK
  5
182A
  8
0
  0
BLOCK
  8
0
  2
*D76
 70
     1
 10
0.0
 20
0.0
 30
0.0
  3
*D76
  1

  0
LINE
  5
1A1A
  8
DIM
 62
     0
 10
14.565860000000001
 20
22.765686999999989
 30
0.0
 11
14.565860000000001
 21
24.355687
 31
0.0
  0
LINE
  5
1A1B
  8
DIM
 62
     0
 10
14.315860000000001
 20
22.515686999999989
 30
0.0
 11
14.315860000000001
 21
24.355687
 31
0.0
  0
LINE
  5
1A1C
  8
DIM
 62
     0
 10
15.465859999999999
 20
23.890687
 30
0.0
 11
16.365860000000001
 21
23.890687
 31
0.0
  0
LINE
  5
1A1D
  8
DIM
 62
     0
 10
13.41586
 20
23.890687
 30
0.0
 11
12.51586
 21
23.890687
 31
0.0
  0
SOLID
  5
1A1E
  8
DIM
 62
     0
 10
15.465859999999999
 20
24.040686999999991
 30
0.0
 11
15.465859999999999
 21
23.740687000000001
 31
0.0
 12
14.565860000000001
 22
23.890687
 32
0.0
 13
14.565860000000001
 23
23.890687
 33
0.0
  0
SOLID
  5
1A1F
  8
DIM
 62
     0
 10
13.41586
 20
24.040686999999991
 30
0.0
 11
13.41586
 21
23.740687000000001
 31
0.0
 12
14.315860000000001
 22
23.890687
 32
0.0
 13
14.315860000000001
 23
23.890687
 33
0.0
  0
TEXT
  5
1A20
  8
DIM
 62
     0
 10
10.347110000000001
 20
23.578187
 30
0.0
 40
0.625
  1
0.250
 41
0.75
  7
TXT
  0
POINT
  5
1A21
  8
DEFPOINTS
 62
     0
 10
14.565860000000001
 20
22.450686999999999
 30
0.0
  0
POINT
  5
1A22
  8
DEFPOINTS
 62
     0
 10
14.315860000000001
 20
22.200686999999999
 30
0.0
  0
POINT
  5
1A23
  8
DEFPOINTS
 62
     0
 10
14.315860000000001
 20
23.890687
 30
0.0
  0
ENDBLK
  5
1838
  8
0
  0
BLOCK
  8
0
  2
*D77
 70
     1
 10
0.0
 20
0.0
 30
0.0
  3
*D77
  1

  0
LINE
  5
1A24
  8
DIM
 62
     0
 10
14.565860000000001
 20
22.765686999999989
 30
0.0
 11
14.565860000000001
 21
25.760687000000001
 31
0.0
  0
LINE
  5
1A25
  8
DIM
 62
     0
 10
2.7538599999999991
 20
22.765686999999989
 30
0.0
 11
2.7538599999999991
 21
25.760687000000001
 31
0.0
  0
LINE
  5
1A26
  8
DIM
 62
     0
 10
13.66586
 20
25.295687000000001
 30
0.0
 11
9.2661099999999994
 21
25.295687000000001
 31
0.0
  0
LINE
  5
1A27
  8
DIM
 62
     0
 10
3.6538599999999981
 20
25.295687000000001
 30
0.0
 11
8.0536100000000008
 21
25.295687000000001
 31
0.0
  0
SOLID
  5
1A28
  8
DIM
 62
     0
 10
13.66586
 20
25.445687
 30
0.0
 11
13.66586
 21
25.145686999999999
 31
0.0
 12
14.565860000000001
 22
25.295687000000001
 32
0.0
 13
14.565860000000001
 23
25.295687000000001
 33
0.0
  0
SOLID
  5
1A29
  8
DIM
 62
     0
 10
3.6538599999999981
 20
25.445687
 30
0.0
 11
3.6538599999999981
 21
25.145686999999999
 31
0.0
 12
2.7538599999999991
 22
25.295687000000001
 32
0.0
 13
2.7538599999999991
 23
25.295687000000001
 33
0.0
  0
TEXT
  5
1A2A
  8
DIM
 62
     0
 10
8.5036100000000001
 20
24.983187000000001
 30
0.0
 40
0.625
  1
J
 41
0.75
  7
TXT
  0
POINT
  5
1A2B
  8
DEFPOINTS
 62
     0
 10
14.565860000000001
 20
22.450686999999999
 30
0.0
  0
POINT
  5
1A2C
  8
DEFPOINTS
 62
     0
 10
2.7538599999999991
 20
22.450686999999999
 30
0.0
  0
POINT
  5
1A2D
  8
DEFPOINTS
 62
     0
 10
2.7538599999999991
 20
25.295687000000001
 30
0.0
  0
ENDBLK
  5
1846
  8
0
  0
BLOCK
  8
0
  2
*D78
 70
     1
 10
0.0
 20
0.0
 30
0.0
  3
*D78
  1

  0
LINE
  5
1A2E
  8
DIM
 62
     0
 10
14.63086
 20
22.200686999999999
 30
0.0
 11
17.258175000000001
 21
22.200686999999999
 31
0.0
  0
LINE
  5
1A2F
  8
DIM
 62
     0
 10
14.88086
 20
22.450686999999999
 30
0.0
 11
17.258175000000001
 21
22.450686999999999
 31
0.0
  0
LINE
  5
1A30
  8
DIM
 62
     0
 10
16.793175000000002
 20
21.300687
 30
0.0
 11
16.793175000000002
 21
20.400686999999991
 31
0.0
  0
LINE
  5
1A31
  8
DIM
 62
     0
 10
16.793175000000002
 20
23.35068699999999
 30
0.0
 11
16.793175000000002
 21
24.250686999999999
 31
0.0
  0
LINE
  5
1A32
  8
DIM
 62
     0
 10
16.793175000000002
 20
24.250686999999999
 30
0.0
 11
17.693175
 21
24.250686999999999
 31
0.0
  0
SOLID
  5
1A33
  8
DIM
 62
     0
 10
16.643174999999999
 20
21.300687
 30
0.0
 11
16.943175
 21
21.300687
 31
0.0
 12
16.793175000000002
 22
22.200686999999999
 32
0.0
 13
16.793175000000002
 23
22.200686999999999
 33
0.0
  0
SOLID
  5
1A34
  8
DIM
 62
     0
 10
16.643174999999999
 20
23.35068699999999
 30
0.0
 11
16.943175
 21
23.35068699999999
 31
0.0
 12
16.793175000000002
 22
22.450686999999999
 32
0.0
 13
16.793175000000002
 23
22.450686999999999
 33
0.0
  0
TEXT
  5
1A35
  8
DIM
 62
     0
 10
18.143174999999989
 20
23.938186999999999
 30
0.0
 40
0.625
  1
0.250
 41
0.75
  7
TXT
  0
POINT
  5
1A36
  8
DEFPOINTS
 62
     0
 10
14.315860000000001
 20
22.200686999999999
 30
0.0
  0
POINT
  5
1A37
  8
DEFPOINTS
 62
     0
 10
14.565860000000001
 20
22.450686999999999
 30
0.0
  0
POINT
  5
1A38
  8
DEFPOINTS
 62
     0
 10
16.793175000000002
 20
22.450686999999999
 30
0.0
  0
ENDBLK
  5
1854
  8
0
  0
BLOCK
  8
0
  2
*D79
 70
     1
 10
0.0
 20
0.0
 30
0.0
  3
*D79
  1

  0
LINE
  5
1A39
  8
DIM
 62
     0
 10
14.63086
 20
15.810687
 30
0.0
 11
17.258175000000001
 21
15.810687
 31
0.0
  0
LINE
  5
1A3A
  8
DIM
 62
     0
 10
14.88086
 20
15.560686999999991
 30
0.0
 11
17.258175000000001
 21
15.560686999999991
 31
0.0
  0
LINE
  5
1A3B
  8
DIM
 62
     0
 10
16.793175000000002
 20
16.710687
 30
0.0
 11
16.793175000000002
 21
17.610686999999999
 31
0.0
  0
LINE
  5
1A3C
  8
DIM
 62
     0
 10
16.793175000000002
 20
14.66068699999999
 30
0.0
 11
16.793175000000002
 21
13.76068699999999
 31
0.0
  0
LINE
  5
1A3D
  8
DIM
 62
     0
 10
16.793175000000002
 20
13.76068699999999
 30
0.0
 11
15.893174999999999
 21
13.76068699999999
 31
0.0
  0
SOLID
  5
1A3E
  8
DIM
 62
     0
 10
16.643174999999999
 20
16.710687
 30
0.0
 11
16.943175
 21
16.710687
 31
0.0
 12
16.793175000000002
 22
15.810687
 32
0.0
 13
16.793175000000002
 23
15.810687
 33
0.0
  0
SOLID
  5
1A3F
  8
DIM
 62
     0
 10
16.643174999999999
 20
14.66068699999999
 30
0.0
 11
16.943175
 21
14.66068699999999
 31
0.0
 12
16.793175000000002
 22
15.560686999999991
 32
0.0
 13
16.793175000000002
 23
15.560686999999991
 33
0.0
  0
TEXT
  5
1A40
  8
DIM
 62
     0
 10
13.724425
 20
13.44818699999999
 30
0.0
 40
0.625
  1
0.250
 41
0.75
  7
TXT
  0
POINT
  5
1A41
  8
DEFPOINTS
 62
     0
 10
14.315860000000001
 20
15.810687
 30
0.0
  0
POINT
  5
1A42
  8
DEFPOINTS
 62
     0
 10
14.565860000000001
 20
15.560686999999991
 30
0.0
  0
POINT
  5
1A43
  8
DEFPOINTS
 62
     0
 10
16.793175000000002
 20
15.560686999999991
 30
0.0
  0
ENDBLK
  5
1862
  8
0
  0
BLOCK
  8
0
  2
*D80
 70
     1
 10
0.0
 20
0.0
 30
0.0
  3
*D80
  1

  0
LINE
  5
1A44
  8
DIM
 62
     0
 10
14.88086
 20
22.450686999999999
 30
0.0
 11
18.663174999999999
 21
22.450686999999999
 31
0.0
  0
LINE
  5
1A45
  8
DIM
 62
     0
 10
14.88086
 20
15.560686999999991
 30
0.0
 11
18.663174999999999
 21
15.560686999999991
 31
0.0
  0
LINE
  5
1A46
  8
DIM
 62
     0
 10
18.198174999999999
 20
21.550687
 30
0.0
 11
18.198174999999999
 21
19.76818699999999
 31
0.0
  0
LINE
  5
1A47
  8
DIM
 62
     0
 10
18.198174999999999
 20
16.460686999999989
 30
0.0
 11
18.198174999999999
 21
18.243186999999999
 31
0.0
  0
SOLID
  5
1A48
  8
DIM
 62
     0
 10
18.048175000000001
 20
21.550687
 30
0.0
 11
18.348174999999991
 21
21.550687
 31
0.0
 12
18.198174999999999
 22
22.450686999999999
 32
0.0
 13
18.198174999999999
 23
22.450686999999999
 33
0.0
  0
SOLID
  5
1A49
  8
DIM
 62
     0
 10
18.048175000000001
 20
16.460686999999989
 30
0.0
 11
18.348174999999991
 21
16.460686999999989
 31
0.0
 12
18.198174999999999
 22
15.560686999999991
 32
0.0
 13
18.198174999999999
 23
15.560686999999991
 33
0.0
  0
TEXT
  5
1A4A
  8
DIM
 62
     0
 10
18.041924999999988
 20
18.693187000000002
 30
0.0
 40
0.625
  1
H
 41
0.75
  7
TXT
  0
POINT
  5
1A4B
  8
DEFPOINTS
 62
     0
 10
14.565860000000001
 20
22.450686999999999
 30
0.0
  0
POINT
  5
1A4C
  8
DEFPOINTS
 62
     0
 10
14.565860000000001
 20
15.560686999999991
 30
0.0
  0
POINT
  5
1A4D
  8
DEFPOINTS
 62
     0
 10
18.198174999999999
 20
15.560686999999991
 30
0.0
  0
ENDBLK
  5
1870
  8
0
  0
BLOCK
  8
0
  2
*D81
 70
     1
 10
0.0
 20
0.0
 30
0.0
  3
*D81
  1

  0
LINE
  5
1A4E
  8
DIM
 62
     0
 10
32.677632000000003
 20
21.453686999999999
 30
0.0
 11
32.677632000000003
 21
24.355687
 31
0.0
  0
LINE
  5
1A4F
  8
DIM
 62
     0
 10
32.443632000000001
 20
22.765686999999989
 30
0.0
 11
32.443632000000001
 21
24.355687
 31
0.0
  0
LINE
  5
1A50
  8
DIM
 62
     0
 10
33.577632000000001
 20
23.890687
 30
0.0
 11
34.477632
 21
23.890687
 31
0.0
  0
LINE
  5
1A51
  8
DIM
 62
     0
 10
31.543631999999999
 20
23.890687
 30
0.0
 11
30.643632
 21
23.890687
 31
0.0
  0
SOLID
  5
1A52
  8
DIM
 62
     0
 10
33.577632000000001
 20
24.040686999999991
 30
0.0
 11
33.577632000000001
 21
23.740687000000001
 31
0.0
 12
32.677632000000003
 22
23.890687
 32
0.0
 13
32.677632000000003
 23
23.890687
 33
0.0
  0
SOLID
  5
1A53
  8
DIM
 62
     0
 10
31.543631999999999
 20
24.040686999999991
 30
0.0
 11
31.543631999999999
 21
23.740687000000001
 31
0.0
 12
32.443632000000001
 22
23.890687
 32
0.0
 13
32.443632000000001
 23
23.890687
 33
0.0
  0
TEXT
  5
1A54
  8
DIM
 62
     0
 10
28.396757000000001
 20
23.578187
 30
0.0
 40
0.625
  1
0.234
 41
0.75
  7
TXT
  0
POINT
  5
1A55
  8
DEFPOINTS
 62
     0
 10
32.677632000000003
 20
21.138687000000001
 30
0.0
  0
POINT
  5
1A56
  8
DEFPOINTS
 62
     0
 10
32.443632000000001
 20
22.450686999999999
 30
0.0
  0
POINT
  5
1A57
  8
DEFPOINTS
 62
     0
 10
32.443632000000001
 20
23.890687
 30
0.0
  0
ENDBLK
  5
189A
  8
0
  0
BLOCK
  8
0
  2
*D82
 70
     1
 10
0.0
 20
0.0
 30
0.0
  3
*D82
  1

  0
LINE
  5
1A58
  8
DIM
 62
     0
 10
45.224631999999993
 20
22.765686999999989
 30
0.0
 11
45.224631999999993
 21
24.355687
 31
0.0
  0
LINE
  5
1A59
  8
DIM
 62
     0
 10
44.990631999999998
 20
21.453686999999999
 30
0.0
 11
44.990631999999998
 21
24.355687
 31
0.0
  0
LINE
  5
1A5A
  8
DIM
 62
     0
 10
46.124631999999991
 20
23.890687
 30
0.0
 11
47.02463199999999
 21
23.890687
 31
0.0
  0
LINE
  5
1A5B
  8
DIM
 62
     0
 10
44.090631999999999
 20
23.890687
 30
0.0
 11
43.190632000000001
 21
23.890687
 31
0.0
  0
SOLID
  5
1A5C
  8
DIM
 62
     0
 10
46.124631999999991
 20
24.040686999999991
 30
0.0
 11
46.124631999999991
 21
23.740687000000001
 31
0.0
 12
45.224631999999993
 22
23.890687
 32
0.0
 13
45.224631999999993
 23
23.890687
 33
0.0
  0
SOLID
  5
1A5D
  8
DIM
 62
     0
 10
44.090631999999999
 20
24.040686999999991
 30
0.0
 11
44.090631999999999
 21
23.740687000000001
 31
0.0
 12
44.990631999999998
 22
23.890687
 32
0.0
 13
44.990631999999998
 23
23.890687
 33
0.0
  0
TEXT
  5
1A5E
  8
DIM
 62
     0
 10
40.943756999999991
 20
23.578187
 30
0.0
 40
0.625
  1
0.234
 41
0.75
  7
TXT
  0
POINT
  5
1A5F
  8
DEFPOINTS
 62
     0
 10
45.224631999999993
 20
22.450686999999999
 30
0.0
  0
POINT
  5
1A60
  8
DEFPOINTS
 62
     0
 10
44.990631999999998
 20
21.138687000000001
 30
0.0
  0
POINT
  5
1A61
  8
DEFPOINTS
 62
     0
 10
44.990631999999998
 20
23.890687
 30
0.0
  0
ENDBLK
  5
18A8
  8
0
  0
BLOCK
  8
0
  2
*D83
 70
     1
 10
0.0
 20
0.0
 30
0.0
  3
*D83
  1

  0
LINE
  5
1A62
  8
DIM
 62
     0
 10
32.443632000000001
 20
22.765686999999989
 30
0.0
 11
32.443632000000001
 21
25.760687000000001
 31
0.0
  0
LINE
  5
1A63
  8
DIM
 62
     0
 10
45.224631999999993
 20
22.765686999999989
 30
0.0
 11
45.224631999999993
 21
25.760687000000001
 31
0.0
  0
LINE
  5
1A64
  8
DIM
 62
     0
 10
33.343631999999999
 20
25.295687000000001
 30
0.0
 11
38.227881999999987
 21
25.295687000000001
 31
0.0
  0
LINE
  5
1A65
  8
DIM
 62
     0
 10
44.324631999999987
 20
25.295687000000001
 30
0.0
 11
39.440381999999993
 21
25.295687000000001
 31
0.0
  0
SOLID
  5
1A66
  8
DIM
 62
     0
 10
33.343631999999999
 20
25.445687
 30
0.0
 11
33.343631999999999
 21
25.145686999999999
 31
0.0
 12
32.443632000000001
 22
25.295687000000001
 32
0.0
 13
32.443632000000001
 23
25.295687000000001
 33
0.0
  0
SOLID
  5
1A67
  8
DIM
 62
     0
 10
44.324631999999987
 20
25.445687
 30
0.0
 11
44.324631999999987
 21
25.145686999999999
 31
0.0
 12
45.224631999999993
 22
25.295687000000001
 32
0.0
 13
45.224631999999993
 23
25.295687000000001
 33
0.0
  0
TEXT
  5
1A68
  8
DIM
 62
     0
 10
38.67788199999999
 20
24.983187000000001
 30
0.0
 40
0.625
  1
L
 41
0.75
  7
TXT
  0
POINT
  5
1A69
  8
DEFPOINTS
 62
     0
 10
32.443632000000001
 20
22.450686999999999
 30
0.0
  0
POINT
  5
1A6A
  8
DEFPOINTS
 62
     0
 10
45.224631999999993
 20
22.450686999999999
 30
0.0
  0
POINT
  5
1A6B
  8
DEFPOINTS
 62
     0
 10
45.224631999999993
 20
25.295687000000001
 30
0.0
  0
ENDBLK
  5
18B6
  8
0
  0
BLOCK
  8
0
  2
*D84
 70
     1
 10
0.0
 20
0.0
 30
0.0
  3
*D84
  1

  0
LINE
  5
1A6C
  8
DIM
 62
     0
 10
45.430631999999989
 20
21.029686999999988
 30
0.0
 11
47.839302999999973
 21
21.029686999999988
 31
0.0
  0
LINE
  5
1A6D
  8
DIM
 62
     0
 10
45.53963199999999
 20
22.450686999999999
 30
0.0
 11
47.839302999999973
 21
22.450686999999999
 31
0.0
  0
LINE
  5
1A6E
  8
DIM
 62
     0
 10
47.374302999999983
 20
20.12968699999999
 30
0.0
 11
47.374302999999983
 21
19.229686999999981
 31
0.0
  0
LINE
  5
1A6F
  8
DIM
 62
     0
 10
47.374302999999983
 20
23.35068699999999
 30
0.0
 11
47.374302999999983
 21
24.250686999999999
 31
0.0
  0
LINE
  5
1A70
  8
DIM
 62
     0
 10
47.374302999999983
 20
24.250686999999999
 30
0.0
 11
48.274302999999982
 21
24.250686999999999
 31
0.0
  0
SOLID
  5
1A71
  8
DIM
 62
     0
 10
47.224302999999978
 20
20.12968699999999
 30
0.0
 11
47.524302999999982
 21
20.12968699999999
 31
0.0
 12
47.374302999999983
 22
21.029686999999988
 32
0.0
 13
47.374302999999983
 23
21.029686999999988
 33
0.0
  0
SOLID
  5
1A72
  8
DIM
 62
     0
 10
47.224302999999978
 20
23.35068699999999
 30
0.0
 11
47.524302999999982
 21
23.35068699999999
 31
0.0
 12
47.374302999999983
 22
22.450686999999999
 32
0.0
 13
47.374302999999983
 23
22.450686999999999
 33
0.0
  0
TEXT
  5
1A73
  8
DIM
 62
     0
 10
48.724302999999971
 20
23.938186999999999
 30
0.0
 40
0.625
  1
1.421
 41
0.75
  7
TXT
  0
POINT
  5
1A74
  8
DEFPOINTS
 62
     0
 10
45.115631999999998
 20
21.029686999999988
 30
0.0
  0
POINT
  5
1A75
  8
DEFPOINTS
 62
     0
 10
45.224631999999993
 20
22.450686999999999
 30
0.0
  0
POINT
  5
1A76
  8
DEFPOINTS
 62
     0
 10
47.374302999999983
 20
22.450686999999999
 30
0.0
  0
ENDBLK
  5
18C4
  8
0
  0
BLOCK
  8
0
  2
*D85
 70
     1
 10
0.0
 20
0.0
 30
0.0
  3
*D85
  1

  0
LINE
  5
1A77
  8
DIM
 62
     0
 10
45.53963199999999
 20
15.638686999999999
 30
0.0
 11
47.839302999999973
 21
15.638686999999999
 31
0.0
  0
LINE
  5
1A78
  8
DIM
 62
     0
 10
45.430631999999989
 20
17.059687
 30
0.0
 11
47.839302999999973
 21
17.059687
 31
0.0
  0
LINE
  5
1A79
  8
DIM
 62
     0
 10
47.374302999999969
 20
14.73868699999999
 30
0.0
 11
47.374302999999969
 21
13.838687
 31
0.0
  0
LINE
  5
1A7A
  8
DIM
 62
     0
 10
47.374302999999983
 20
17.959686999999992
 30
0.0
 11
47.374302999999983
 21
18.859687000000001
 31
0.0
  0
LINE
  5
1A7B
  8
DIM
 62
     0
 10
47.374302999999983
 20
18.859687000000001
 30
0.0
 11
48.274302999999982
 21
18.859687000000001
 31
0.0
  0
SOLID
  5
1A7C
  8
DIM
 62
     0
 10
47.224302999999978
 20
14.73868699999999
 30
0.0
 11
47.524302999999968
 21
14.73868699999999
 31
0.0
 12
47.374302999999969
 22
15.638686999999999
 32
0.0
 13
47.374302999999969
 23
15.638686999999999
 33
0.0
  0
SOLID
  5
1A7D
  8
DIM
 62
     0
 10
47.224302999999978
 20
17.959686999999992
 30
0.0
 11
47.524302999999982
 21
17.959686999999992
 31
0.0
 12
47.374302999999983
 22
17.059687
 32
0.0
 13
47.374302999999983
 23
17.059687
 33
0.0
  0
TEXT
  5
1A7E
  8
DIM
 62
     0
 10
48.724302999999971
 20
18.547187000000001
 30
0.0
 40
0.625
  1
1.421
 41
0.75
  7
TXT
  0
POINT
  5
1A7F
  8
DEFPOINTS
 62
     0
 10
45.224631999999993
 20
15.638686999999999
 30
0.0
  0
POINT
  5
1A80
  8
DEFPOINTS
 62
     0
 10
45.115631999999998
 20
17.059687
 30
0.0
  0
POINT
  5
1A81
  8
DEFPOINTS
 62
     0
 10
47.374302999999983
 20
17.059687
 30
0.0
  0
ENDBLK
  5
18D2
  8
0
  0
BLOCK
  8
0
  2
*D86
 70
     1
 10
0.0
 20
0.0
 30
0.0
  3
*D86
  1

  0
LINE
  5
1A82
  8
DIM
 62
     0
 10
45.53963199999999
 20
22.450686999999999
 30
0.0
 11
49.244303000000002
 21
22.450686999999999
 31
0.0
  0
LINE
  5
1A83
  8
DIM
 62
     0
 10
45.53963199999999
 20
15.638686999999999
 30
0.0
 11
49.244303000000002
 21
15.638686999999999
 31
0.0
  0
LINE
  5
1A84
  8
DIM
 62
     0
 10
48.779302999999999
 20
21.550687
 30
0.0
 11
48.779302999999999
 21
19.807186999999988
 31
0.0
  0
LINE
  5
1A85
  8
DIM
 62
     0
 10
48.779302999999999
 20
16.538686999999999
 30
0.0
 11
48.779302999999999
 21
18.282187
 31
0.0
  0
SOLID
  5
1A86
  8
DIM
 62
     0
 10
48.629303000000007
 20
21.550687
 30
0.0
 11
48.929302999999997
 21
21.550687
 31
0.0
 12
48.779302999999999
 22
22.450686999999999
 32
0.0
 13
48.779302999999999
 23
22.450686999999999
 33
0.0
  0
SOLID
  5
1A87
  8
DIM
 62
     0
 10
48.629303000000007
 20
16.538686999999999
 30
0.0
 11
48.929302999999997
 21
16.538686999999999
 31
0.0
 12
48.779302999999999
 22
15.638686999999999
 32
0.0
 13
48.779302999999999
 23
15.638686999999999
 33
0.0
  0
TEXT
  5
1A88
  8
DIM
 62
     0
 10
48.623052999999999
 20
18.732187
 30
0.0
 40
0.625
  1
K
 41
0.75
  7
TXT
  0
POINT
  5
1A89
  8
DEFPOINTS
 62
     0
 10
45.224631999999993
 20
22.450686999999999
 30
0.0
  0
POINT
  5
1A8A
  8
DEFPOINTS
 62
     0
 10
45.224631999999993
 20
15.638686999999999
 30
0.0
  0
POINT
  5
1A8B
  8
DEFPOINTS
 62
     0
 10
48.779302999999999
 20
15.638686999999999
 30
0.0
  0
ENDBLK
  5
18E0
  8
0
  0
BLOCK
  8
0
  2
*D87
 70
     1
 10
0.0
 20
0.0
 30
0.0
  3
*D87
  1

  0
LINE
  5
1A8C
  8
DIM
 62
     0
 10
14.597860000000001
 20
37.998678999999981
 30
0.0
 11
14.597860000000001
 21
40.114018999999999
 31
0.0
  0
LINE
  5
1A8D
  8
DIM
 62
     0
 10
14.097860000000001
 20
37.98267899999999
 30
0.0
 11
14.097860000000001
 21
40.114018999999999
 31
0.0
  0
LINE
  5
1A8E
  8
DIM
 62
     0
 10
15.497859999999999
 20
39.649019000000003
 30
0.0
 11
16.397860000000001
 21
39.649019000000003
 31
0.0
  0
LINE
  5
1A8F
  8
DIM
 62
     0
 10
13.19786
 20
39.649019000000003
 30
0.0
 11
12.29786
 21
39.649019000000003
 31
0.0
  0
SOLID
  5
1A90
  8
DIM
 62
     0
 10
15.497859999999999
 20
39.799019000000001
 30
0.0
 11
15.497859999999999
 21
39.499018999999997
 31
0.0
 12
14.597860000000001
 22
39.649019000000003
 32
0.0
 13
14.597860000000001
 23
39.649019000000003
 33
0.0
  0
SOLID
  5
1A91
  8
DIM
 62
     0
 10
13.19786
 20
39.799019000000001
 30
0.0
 11
13.19786
 21
39.499018999999997
 31
0.0
 12
14.097860000000001
 22
39.649019000000003
 32
0.0
 13
14.097860000000001
 23
39.649019000000003
 33
0.0
  0
TEXT
  5
1A92
  8
DIM
 62
     0
 10
10.207235000000001
 20
39.336519000000003
 30
0.0
 40
0.625
  1
0.500
 41
0.75
  7
TXT
  0
POINT
  5
1A93
  8
DEFPOINTS
 62
     0
 10
14.597860000000001
 20
37.683678999999991
 30
0.0
  0
POINT
  5
1A94
  8
DEFPOINTS
 62
     0
 10
14.097860000000001
 20
37.667679
 30
0.0
  0
POINT
  5
1A95
  8
DEFPOINTS
 62
     0
 10
14.097860000000001
 20
39.649019000000003
 30
0.0
  0
ENDBLK
  5
1904
  8
0
  0
ENDSEC
  0
SECTION
  2
ENTITIES
  0
LINE
  5
1654
  8
OBJECT
 62
     7
 10
2.1598599999999961
 20
31.245678999999999
 30
0.0
 11
15.15986
 21
31.245678999999999
 31
0.0
  0
LINE
  5
1655
  8
OBJECT
 62
     7
 10
15.15986
 20
31.245678999999999
 30
0.0
 11
15.15986
 21
38.245678999999988
 31
0.0
  0
LINE
  5
1656
  8
OBJECT
 62
     7
 10
15.15986
 20
38.245678999999988
 30
0.0
 11
2.1598599999999961
 21
38.245678999999988
 31
0.0
  0
LINE
  5
1657
  8
OBJECT
 62
     7
 10
2.1598599999999961
 20
38.245678999999988
 30
0.0
 11
2.1598599999999961
 21
31.245678999999999
 31
0.0
  0
LINE
  5
1658
  8
OBJECT
 62
     7
 10
2.7218599999999991
 20
37.683678999999991
 30
0.0
 11
2.7218599999999991
 21
31.80767899999999
 31
0.0
  0
LINE
  5
1659
  8
OBJECT
 62
     7
 10
14.597860000000001
 20
37.683678999999991
 30
0.0
 11
2.7218599999999991
 21
37.683678999999991
 31
0.0
  0
LINE
  5
165A
  8
OBJECT
 62
     7
 10
14.597860000000001
 20
31.80767899999999
 30
0.0
 11
14.597860000000001
 21
37.683678999999991
 31
0.0
  0
LINE
  5
165B
  8
OBJECT
 62
     7
 10
2.7218599999999991
 20
31.80767899999999
 30
0.0
 11
14.597860000000001
 21
31.80767899999999
 31
0.0
  0
LINE
  5
165C
  8
OBJECT
 62
     7
 10
2.7218599999999991
 20
37.683678999999991
 30
0.0
 11
2.1598599999999961
 21
38.245678999999988
 31
0.0
  0
LINE
  5
165D
  8
OBJECT
 62
     7
 10
2.7218599999999991
 20
31.80767899999999
 30
0.0
 11
2.1598599999999961
 21
31.245678999999999
 31
0.0
  0
LINE
  5
165E
  8
OBJECT
 62
     7
 10
14.597860000000001
 20
31.80767899999999
 30
0.0
 11
15.15986
 21
31.245678999999999
 31
0.0
  0
LINE
  5
165F
  8
OBJECT
 62
     7
 10
14.597860000000001
 20
37.683678999999991
 30
0.0
 11
15.15986
 21
38.245678999999988
 31
0.0
  0
LINE
  5
1660
  8
OBJECT
 62
     7
 10
32.287132
 20
38.245678999999988
 30
0.0
 11
32.287132
 21
31.277678999999999
 31
0.0
  0
LINE
  5
1661
  8
OBJECT
 62
     7
 10
45.287132
 20
38.245678999999988
 30
0.0
 11
32.287132
 21
38.245678999999988
 31
0.0
  0
LINE
  5
1662
  8
OBJECT
 62
     7
 10
45.287132
 20
31.277678999999999
 30
0.0
 11
45.287132
 21
38.245678999999988
 31
0.0
  0
LINE
  5
1663
  8
OBJECT
 62
     7
 10
32.318131999999991
 20
31.245678999999999
 30
0.0
 11
45.256132000000001
 21
31.245678999999999
 31
0.0
  0
LINE
  5
1664
  8
OBJECT
 62
     7
 10
32.34913199999999
 20
38.183678999999998
 30
0.0
 11
32.34913199999999
 21
31.292678999999961
 31
0.0
  0
LINE
  5
1665
  8
OBJECT
 62
     7
 10
45.225132000000002
 20
38.183678999999998
 30
0.0
 11
32.34913199999999
 21
38.183678999999998
 31
0.0
  0
LINE
  5
1666
  8
OBJECT
 62
     7
 10
32.849131999999997
 20
37.627679000000001
 30
0.0
 11
32.849131999999997
 21
31.863679000000001
 31
0.0
  0
LINE
  5
1667
  8
OBJECT
 62
     7
 10
44.662132
 20
37.683678999999991
 30
0.0
 11
32.912132
 21
37.683678999999991
 31
0.0
  0
CIRCLE
  5
1668
  8
OBJECT
 62
     7
 10
32.59913199999999
 20
32.761679000000001
 30
0.0
 40
0.0545
  0
CIRCLE
  5
1669
  8
OBJECT
 62
     7
 10
32.59913199999999
 20
36.72967899999999
 30
0.0
 40
0.0545
  0
CIRCLE
  5
166A
  8
OBJECT
 62
     7
 10
44.975132000000002
 20
36.72967899999999
 30
0.0
 40
0.0545
  0
CIRCLE
  5
166B
  8
OBJECT
 62
     7
 10
44.975132000000002
 20
32.761679000000001
 30
0.0
 40
0.0545
  0
LINE
  5
166C
  8
OBJECT
 62
     7
 10
14.097860000000001
 20
31.823678999999998
 30
0.0
 11
14.097860000000001
 21
37.667679
 31
0.0
  0
LINE
  5
166D
  8
OBJECT
 62
     7
 10
20.182785999999989
 20
56.291623000000001
 30
0.0
 11
20.182785999999989
 21
49.291623000000001
 31
0.0
  0
LINE
  5
166E
  8
OBJECT
 62
     7
 10
20.182785999999989
 20
49.291623000000001
 30
0.0
 11
28.182786
 21
49.291623000000001
 31
0.0
  0
LINE
  5
166F
  8
OBJECT
 62
     7
 10
28.182786
 20
49.291623000000001
 30
0.0
 11
28.182786
 21
56.291623000000001
 31
0.0
  0
LINE
  5
1670
  8
OBJECT
 62
     7
 10
28.182786
 20
56.291623000000001
 30
0.0
 11
20.182785999999989
 21
56.291623000000001
 31
0.0
  0
LINE
  5
1671
  8
OBJECT
 62
     7
 10
20.682786
 20
55.729622999999997
 30
0.0
 11
20.182785999999989
 21
55.729622999999997
 31
0.0
  0
LINE
  5
1672
  8
OBJECT
 62
     7
 10
20.791785999999998
 20
55.713622999999998
 30
0.0
 11
20.791785999999998
 21
49.869622999999997
 31
0.0
  0
LINE
  5
1673
  8
OBJECT
 62
     7
 10
20.682786
 20
55.760623000000002
 30
0.0
 11
20.682786
 21
55.729622999999997
 31
0.0
  0
LINE
  5
1674
  8
OBJECT
 62
     7
 10
20.682786
 20
55.760623000000002
 30
0.0
 11
20.213785999999981
 21
55.760623000000002
 31
0.0
  0
LINE
  5
1675
  8
OBJECT
 62
     7
 10
20.213785999999981
 20
56.260623000000002
 30
0.0
 11
20.213785999999981
 21
55.760623000000002
 31
0.0
  0
LINE
  5
1676
  8
OBJECT
 62
     7
 10
28.151785999999991
 20
56.260623000000002
 30
0.0
 11
20.213785999999981
 21
56.260623000000002
 31
0.0
  0
LINE
  5
1677
  8
OBJECT
 62
     7
 10
20.791785999999998
 20
55.713622999999998
 30
0.0
 11
20.760786
 21
55.713622999999998
 31
0.0
  0
LINE
  5
1678
  8
OBJECT
 62
     7
 10
20.791785999999998
 20
49.869622999999997
 30
0.0
 11
20.760786
 21
49.869622999999997
 31
0.0
  0
LINE
  5
1679
  8
OBJECT
 62
     7
 10
20.213785999999981
 20
49.322623
 30
0.0
 11
20.213785999999981
 21
49.822623
 31
0.0
  0
LINE
  5
167A
  8
OBJECT
 62
     7
 10
20.682786
 20
49.822623
 30
0.0
 11
20.213785999999981
 21
49.822623
 31
0.0
  0
LINE
  5
167B
  8
OBJECT
 62
     7
 10
20.682786
 20
49.822623
 30
0.0
 11
20.682786
 21
49.853622999999999
 31
0.0
  0
LINE
  5
167C
  8
OBJECT
 62
     7
 10
20.682786
 20
49.853622999999999
 30
0.0
 11
20.182785999999989
 21
49.853622999999999
 31
0.0
  0
LINE
  5
167D
  8
OBJECT
 62
     7
 10
28.151785999999991
 20
49.322623
 30
0.0
 11
20.213785999999981
 21
49.322623
 31
0.0
  0
LINE
  5
167E
  8
OBJECT
 62
     7
 10
14.597860000000001
 20
31.823678999999998
 30
0.0
 11
14.097860000000001
 21
31.823678999999998
 31
0.0
  0
LINE
  5
167F
  8
OBJECT
 62
     7
 10
14.597860000000001
 20
37.667679
 30
0.0
 11
14.097860000000001
 21
37.667679
 31
0.0
  0
LINE
  5
1680
  8
OBJECT
 62
     7
 10
2.7218599999999991
 20
37.667679
 30
0.0
 11
3.2218599999999991
 21
37.667679
 31
0.0
  0
LINE
  5
1681
  8
OBJECT
 62
     7
 10
2.7218599999999991
 20
31.823678999999998
 30
0.0
 11
3.2218599999999991
 21
31.823678999999998
 31
0.0
  0
LINE
  5
1682
  8
OBJECT
 62
     7
 10
3.2218599999999991
 20
31.823678999999998
 30
0.0
 11
3.2218599999999991
 21
37.667679
 31
0.0
  0
LINE
  5
1683
  8
OBJECT
 62
     7
 10
27.932786
 20
49.353622999999999
 30
0.0
 11
27.932786
 21
56.229622999999997
 31
0.0
  0
LINE
  5
1684
  8
OBJECT
 62
     7
 10
27.901785999999991
 20
49.322623
 30
0.0
 11
27.901785999999991
 21
56.260623000000002
 31
0.0
  0
LINE
  5
1685
  8
OBJECT
 62
     7
 10
28.151785999999991
 20
49.353622999999999
 30
0.0
 11
27.932786
 21
49.353622999999999
 31
0.0
  0
ARC
  5
1686
  8
OBJECT
 62
     7
 10
28.151785999999991
 20
49.322623
 30
0.0
 40
0.031
 50
270.0
 51
90.0
  0
LINE
  5
1687
  8
OBJECT
 62
     7
 10
27.932786
 20
49.853622999999999
 30
0.0
 11
27.901785999999991
 21
49.853622999999999
 31
0.0
  0
LINE
  5
1688
  8
OBJECT
 62
     7
 10
27.932786
 20
55.729622999999997
 30
0.0
 11
27.901785999999991
 21
55.729622999999997
 31
0.0
  0
ARC
  5
1689
  8
OBJECT
 62
     7
 10
28.151785999999991
 20
56.260623000000002
 30
0.0
 40
0.031
 50
270.0
 51
90.0
  0
LINE
  5
168A
  8
OBJECT
 62
     7
 10
28.151785999999991
 20
56.229622999999997
 30
0.0
 11
27.932786
 21
56.229622999999997
 31
0.0
  0
LINE
  5
168B
  8
OBJECT
 62
     7
 10
32.849131999999997
 20
31.863679000000001
 30
0.0
 11
32.34913199999999
 21
31.363678999999991
 31
0.0
  0
LINE
  5
168C
  8
OBJECT
 62
     7
 10
32.849131999999997
 20
37.627679000000001
 30
0.0
 11
32.34913199999999
 21
38.127679000000001
 31
0.0
  0
LINE
  5
168D
  8
OBJECT
 62
     7
 10
32.912132
 20
37.683678999999991
 30
0.0
 11
32.412132
 21
38.183678999999998
 31
0.0
  0
LINE
  5
168E
  8
OBJECT
 62
     7
 10
44.662132
 20
37.683678999999991
 30
0.0
 11
45.162132
 21
38.183678999999998
 31
0.0
  0
LINE
  5
168F
  8
OBJECT
 62
     7
 10
44.725132000000002
 20
37.627679000000001
 30
0.0
 11
45.225132000000002
 21
38.127679000000001
 31
0.0
  0
LINE
  5
1690
  8
OBJECT
 62
     7
 10
44.725132000000002
 20
37.627679000000001
 30
0.0
 11
44.725132000000002
 21
31.863679000000001
 31
0.0
  0
LINE
  5
1691
  8
OBJECT
 62
     7
 10
44.662132
 20
31.80767899999999
 30
0.0
 11
32.912132
 21
31.80767899999999
 31
0.0
  0
LINE
  5
1692
  8
OBJECT
 62
     7
 10
32.443131999999999
 20
31.277678999999999
 30
0.0
 11
32.287132
 21
31.277678999999999
 31
0.0
  0
LINE
  5
1693
  8
OBJECT
 62
     7
 10
32.34913199999999
 20
31.292678999999961
 30
0.0
 11
32.287132
 21
31.292678999999961
 31
0.0
  0
LINE
  5
1694
  8
OBJECT
 62
     7
 10
32.912132
 20
31.80767899999999
 30
0.0
 11
32.443131999999999
 21
31.338678999999999
 31
0.0
  0
LINE
  5
1695
  8
OBJECT
 62
     7
 10
32.318131999999991
 20
31.277678999999999
 30
0.0
 11
32.318131999999991
 21
31.245678999999999
 31
0.0
  0
LINE
  5
1696
  8
OBJECT
 62
     7
 10
32.443131999999999
 20
31.338678999999999
 30
0.0
 11
32.443131999999999
 21
31.245678999999999
 31
0.0
  0
LINE
  5
1697
  8
OBJECT
 62
     7
 10
32.443131999999999
 20
31.308679000000001
 30
0.0
 11
32.34913199999999
 21
31.308679000000001
 31
0.0
  0
LINE
  5
1698
  8
OBJECT
 62
     7
 10
45.225132000000002
 20
31.308679000000001
 30
0.0
 11
32.443131999999999
 21
31.308679000000001
 31
0.0
  0
LINE
  5
1699
  8
OBJECT
 62
     7
 10
45.131132000000001
 20
31.308679000000001
 30
0.0
 11
45.225132000000002
 21
31.308679000000001
 31
0.0
  0
LINE
  5
169A
  8
OBJECT
 62
     7
 10
45.131132000000001
 20
31.338678999999999
 30
0.0
 11
45.131132000000001
 21
31.245678999999999
 31
0.0
  0
LINE
  5
169B
  8
OBJECT
 62
     7
 10
45.256132000000001
 20
31.277678999999999
 30
0.0
 11
45.256132000000001
 21
31.245678999999999
 31
0.0
  0
LINE
  5
169C
  8
OBJECT
 62
     7
 10
44.662132
 20
31.80767899999999
 30
0.0
 11
45.131132000000001
 21
31.338678999999999
 31
0.0
  0
LINE
  5
169D
  8
OBJECT
 62
     7
 10
45.225132000000002
 20
31.292678999999961
 30
0.0
 11
45.287132
 21
31.292678999999961
 31
0.0
  0
LINE
  5
169E
  8
OBJECT
 62
     7
 10
45.131132000000001
 20
31.277678999999999
 30
0.0
 11
45.287132
 21
31.277678999999999
 31
0.0
  0
LINE
  5
169F
  8
OBJECT
 62
     7
 10
44.725132000000002
 20
31.863679000000001
 30
0.0
 11
45.225132000000002
 21
31.363678999999991
 31
0.0
  0
LINE
  5
16A0
  8
OBJECT
 62
     7
 10
45.225132000000002
 20
38.183678999999998
 30
0.0
 11
45.225132000000002
 21
31.292678999999961
 31
0.0
  0
LINE
  5
16A1
  8
OBJECT
 62
     7
 10
45.225132000000002
 20
56.229622999999997
 30
0.0
 11
45.225132000000002
 21
49.338622999999998
 31
0.0
  0
LINE
  5
16A2
  8
OBJECT
 62
     7
 10
45.177632000000003
 20
49.457123000000003
 30
0.0
 11
45.225132000000002
 21
49.409622999999982
 31
0.0
  0
LINE
  5
16A3
  8
OBJECT
 62
     7
 10
45.131132000000001
 20
49.323622999999998
 30
0.0
 11
45.287132
 21
49.323622999999998
 31
0.0
  0
LINE
  5
16A4
  8
OBJECT
 62
     7
 10
45.225132000000002
 20
49.338622999999998
 30
0.0
 11
45.287132
 21
49.338622999999998
 31
0.0
  0
LINE
  5
16A5
  8
OBJECT
 62
     7
 10
45.130132000000003
 20
49.385623000000002
 30
0.0
 11
45.131132000000001
 21
49.384622999999998
 31
0.0
  0
LINE
  5
16A6
  8
OBJECT
 62
     7
 10
45.256132000000001
 20
49.323622999999998
 30
0.0
 11
45.256132000000001
 21
49.291623000000001
 31
0.0
  0
LINE
  5
16A7
  8
OBJECT
 62
     7
 10
45.131132000000001
 20
49.384622999999998
 30
0.0
 11
45.131132000000001
 21
49.291623000000001
 31
0.0
  0
LINE
  5
16A8
  8
OBJECT
 62
     7
 10
45.131132000000001
 20
49.354622999999997
 30
0.0
 11
45.225132000000002
 21
49.354622999999997
 31
0.0
  0
LINE
  5
16A9
  8
OBJECT
 62
     7
 10
45.225132000000002
 20
49.354622999999997
 30
0.0
 11
32.443131999999999
 21
49.354622999999997
 31
0.0
  0
LINE
  5
16AA
  8
OBJECT
 62
     7
 10
32.443131999999999
 20
49.354622999999997
 30
0.0
 11
32.34913199999999
 21
49.354622999999997
 31
0.0
  0
LINE
  5
16AB
  8
OBJECT
 62
     7
 10
32.443131999999999
 20
49.384622999999998
 30
0.0
 11
32.443131999999999
 21
49.291623000000001
 31
0.0
  0
LINE
  5
16AC
  8
OBJECT
 62
     7
 10
32.318131999999991
 20
49.323622999999998
 30
0.0
 11
32.318131999999991
 21
49.291623000000001
 31
0.0
  0
LINE
  5
16AD
  8
OBJECT
 62
     7
 10
32.444132000000003
 20
49.385623000000002
 30
0.0
 11
32.443131999999999
 21
49.384622999999998
 31
0.0
  0
LINE
  5
16AE
  8
OBJECT
 62
     7
 10
32.34913199999999
 20
49.338622999999998
 30
0.0
 11
32.287132
 21
49.338622999999998
 31
0.0
  0
LINE
  5
16AF
  8
OBJECT
 62
     7
 10
32.443131999999999
 20
49.323622999999998
 30
0.0
 11
32.287132
 21
49.323622999999998
 31
0.0
  0
LINE
  5
16B0
  8
OBJECT
 62
     7
 10
45.177632000000003
 20
56.126123
 30
0.0
 11
45.225132000000002
 21
56.173622999999992
 31
0.0
  0
LINE
  5
16B1
  8
OBJECT
 62
     7
 10
45.130132000000003
 20
56.197623
 30
0.0
 11
45.162132
 21
56.229622999999997
 31
0.0
  0
LINE
  5
16B2
  8
OBJECT
 62
     7
 10
32.444132000000003
 20
56.197623
 30
0.0
 11
32.412132
 21
56.229622999999997
 31
0.0
  0
LINE
  5
16B3
  8
OBJECT
 62
     7
 10
32.396631999999983
 20
56.126123
 30
0.0
 11
32.34913199999999
 21
56.173622999999992
 31
0.0
  0
LINE
  5
16B4
  8
OBJECT
 62
     7
 10
32.396631999999983
 20
49.457123000000003
 30
0.0
 11
32.34913199999999
 21
49.409622999999982
 31
0.0
  0
LINE
  5
16B5
  8
OBJECT
 62
     7
 10
28.182786
 20
38.245678999999988
 30
0.0
 11
20.182785999999989
 21
38.245678999999988
 31
0.0
  0
LINE
  5
16B6
  8
OBJECT
 62
     7
 10
28.182786
 20
31.245678999999999
 30
0.0
 11
28.182786
 21
38.245678999999988
 31
0.0
  0
LINE
  5
16B7
  8
OBJECT
 62
     7
 10
20.182785999999989
 20
31.245678999999999
 30
0.0
 11
28.182786
 21
31.245678999999999
 31
0.0
  0
LINE
  5
16B8
  8
OBJECT
 62
     7
 10
20.182785999999989
 20
38.245678999999988
 30
0.0
 11
20.182785999999989
 21
31.245678999999999
 31
0.0
  0
LINE
  5
16B9
  8
OBJECT
 62
     7
 10
45.225132000000002
 20
56.229622999999997
 30
0.0
 11
32.34913199999999
 21
56.229622999999997
 31
0.0
  0
LINE
  5
16BA
  8
OBJECT
 62
     7
 10
32.34913199999999
 20
56.229622999999997
 30
0.0
 11
32.34913199999999
 21
49.338622999999998
 31
0.0
  0
LINE
  5
16BB
  8
OBJECT
 62
     7
 10
32.318131999999991
 20
49.291623000000001
 30
0.0
 11
45.256132000000001
 21
49.291623000000001
 31
0.0
  0
LINE
  5
16BC
  8
OBJECT
 62
     7
 10
45.287132
 20
49.323622999999998
 30
0.0
 11
45.287132
 21
56.291623000000001
 31
0.0
  0
LINE
  5
16BD
  8
OBJECT
 62
     7
 10
45.287132
 20
56.291623000000001
 30
0.0
 11
32.287132
 21
56.291623000000001
 31
0.0
  0
LINE
  5
16BE
  8
OBJECT
 62
     7
 10
32.287132
 20
56.291623000000001
 30
0.0
 11
32.287132
 21
49.323622999999998
 31
0.0
  0
LINE
  5
16BF
  8
OBJECT
 62
     7
 10
14.597860000000001
 20
55.729622999999997
 30
0.0
 11
15.15986
 21
56.291623000000001
 31
0.0
  0
LINE
  5
16C0
  8
OBJECT
 62
     7
 10
14.597860000000001
 20
49.853622999999999
 30
0.0
 11
15.15986
 21
49.291623000000001
 31
0.0
  0
LINE
  5
16C1
  8
OBJECT
 62
     7
 10
2.7218599999999991
 20
49.853622999999999
 30
0.0
 11
2.1598599999999961
 21
49.291623000000001
 31
0.0
  0
LINE
  5
16C2
  8
OBJECT
 62
     7
 10
2.7218599999999991
 20
55.729622999999997
 30
0.0
 11
2.1598599999999961
 21
56.291623000000001
 31
0.0
  0
LINE
  5
16C3
  8
OBJECT
 62
     7
 10
2.7218599999999991
 20
49.853622999999999
 30
0.0
 11
14.597860000000001
 21
49.853622999999999
 31
0.0
  0
LINE
  5
16C4
  8
OBJECT
 62
     7
 10
14.597860000000001
 20
49.853622999999999
 30
0.0
 11
14.597860000000001
 21
55.729622999999997
 31
0.0
  0
LINE
  5
16C5
  8
OBJECT
 62
     7
 10
14.597860000000001
 20
55.729622999999997
 30
0.0
 11
2.7218599999999991
 21
55.729622999999997
 31
0.0
  0
LINE
  5
16C6
  8
OBJECT
 62
     7
 10
2.7218599999999991
 20
55.729622999999997
 30
0.0
 11
2.7218599999999991
 21
49.853622999999999
 31
0.0
  0
LINE
  5
16C7
  8
OBJECT
 62
     7
 10
2.1598599999999961
 20
56.291623000000001
 30
0.0
 11
2.1598599999999961
 21
49.291623000000001
 31
0.0
  0
LINE
  5
16C8
  8
OBJECT
 62
     7
 10
15.15986
 20
56.291623000000001
 30
0.0
 11
2.1598599999999961
 21
56.291623000000001
 31
0.0
  0
LINE
  5
16C9
  8
OBJECT
 62
     7
 10
15.15986
 20
49.291623000000001
 30
0.0
 11
15.15986
 21
56.291623000000001
 31
0.0
  0
LINE
  5
16CA
  8
OBJECT
 62
     7
 10
2.1598599999999961
 20
49.291623000000001
 30
0.0
 11
15.15986
 21
49.291623000000001
 31
0.0
  0
LINE
  5
16CB
  8
OBJECT
 62
     7
 10
32.396631999999983
 20
49.385623000000002
 30
0.0
 11
45.177632000000003
 21
49.385623000000002
 31
0.0
  0
LINE
  5
16CC
  8
OBJECT
 62
     7
 10
45.177632000000003
 20
49.385623000000002
 30
0.0
 11
45.177632000000003
 21
56.197623
 31
0.0
  0
LINE
  5
16CD
  8
OBJECT
 62
     7
 10
45.177632000000003
 20
56.197623
 30
0.0
 11
32.396631999999983
 21
56.197623
 31
0.0
  0
LINE
  5
16CE
  8
OBJECT
 62
     7
 10
32.396631999999983
 20
56.197623
 30
0.0
 11
32.396631999999983
 21
49.385623000000002
 31
0.0
  0
LINE
  5
16CF
  8
HIDDEN
 62
     7
 10
2.7538599999999991
 20
56.236623000000002
 30
0.0
 11
2.7538599999999991
 21
55.794330000000002
 31
0.0
  0
LINE
  5
16D0
  8
HIDDEN
 62
     7
 10
2.7538599999999991
 20
49.346623000000001
 30
0.0
 11
3.299859999999998
 21
49.346623000000001
 31
0.0
  0
LINE
  5
16D1
  8
HIDDEN
 62
     7
 10
3.299859999999998
 20
56.236623000000002
 30
0.0
 11
2.7538599999999991
 21
56.236623000000002
 31
0.0
  0
LINE
  5
16D2
  8
HIDDEN
 62
     7
 10
14.01986
 20
56.236623000000002
 30
0.0
 11
14.565860000000001
 21
56.236623000000002
 31
0.0
  0
LINE
  5
16D3
  8
HIDDEN
 62
     7
 10
14.565860000000001
 20
49.346623000000001
 30
0.0
 11
14.01986
 21
49.346623000000001
 31
0.0
  0
LINE
  5
16D4
  8
HIDDEN
 62
     7
 10
14.565860000000001
 20
56.236623000000002
 30
0.0
 11
14.565860000000001
 21
55.784855999999998
 31
0.0
  0
LINE
  5
16D5
  8
HIDDEN
 62
     7
 10
3.299859999999998
 20
49.346623000000001
 30
0.0
 11
14.01986
 21
49.346623000000001
 31
0.0
  0
LINE
  5
16D6
  8
HIDDEN
 62
     7
 10
3.299859999999998
 20
56.236623000000002
 30
0.0
 11
14.01986
 21
56.236623000000002
 31
0.0
  0
LINE
  5
16D7
  8
OBJECT
 62
     7
 10
2.7538599999999991
 20
55.729622999999997
 30
0.0
 11
2.7538599999999991
 21
49.853622999999999
 31
0.0
  0
LINE
  5
16D8
  8
OBJECT
 62
     7
 10
14.565860000000001
 20
55.729622999999997
 30
0.0
 11
14.565860000000001
 21
49.853622999999999
 31
0.0
  0
LINE
  5
16D9
  8
HIDDEN
 62
     7
 10
2.7538599999999991
 20
49.796595000000003
 30
0.0
 11
2.7538599999999991
 21
49.346623000000001
 31
0.0
  0
LINE
  5
16DA
  8
HIDDEN
 62
     7
 10
14.565860000000001
 20
49.802210000000002
 30
0.0
 11
14.565860000000001
 21
49.346623000000001
 31
0.0
  0
LINE
  5
16DB
  8
OBJECT
 62
     7
 10
20.714786
 20
49.869622999999997
 30
0.0
 11
20.182785999999989
 21
49.869622999999997
 31
0.0
  0
LINE
  5
16DC
  8
OBJECT
 62
     7
 10
20.714786
 20
55.713622999999998
 30
0.0
 11
20.182785999999989
 21
55.713622999999998
 31
0.0
  0
ARC
  5
16DD
  8
OBJECT
 62
     7
 10
2.9718599999999991
 20
49.291623000000001
 30
0.0
 40
0.343
 50
180.0
 51
0.0
  0
ARC
  5
16DE
  8
OBJECT
 62
     7
 10
14.347860000000001
 20
49.291623000000001
 30
0.0
 40
0.343
 50
180.0
 51
0.0
  0
ARC
  5
16DF
  8
OBJECT
 62
     7
 10
21.182786
 20
49.291623000000001
 30
0.0
 40
0.343
 50
180.0
 51
0.0
  0
ARC
  5
16E0
  8
OBJECT
 62
     7
 10
27.182786
 20
49.291623000000001
 30
0.0
 40
0.343
 50
180.0
 51
0.0
  0
ARC
  5
16E1
  8
OBJECT
 62
     7
 10
33.09913199999999
 20
49.291623000000001
 30
0.0
 40
0.343
 50
180.0
 51
0.0
  0
ARC
  5
16E2
  8
OBJECT
 62
     7
 10
44.475132000000002
 20
49.291623000000001
 30
0.0
 40
0.343
 50
180.0
 51
0.0
  0
CIRCLE
  5
16E3
  8
OBJECT
 62
     7
 10
32.59913199999999
 20
50.807622999999992
 30
0.0
 40
0.1405
  0
POLYLINE
  5
16E4
  8
OBJECT
 62
     7
 66
     1
 10
0.0
 20
0.0
 30
0.0
 70
     1
  0
VERTEX
  5
1A9B
  8
OBJECT
 62
     7
 10
32.529131999999997
 20
50.928866999999997
 30
0.0
  0
VERTEX
  5
1A9C
  8
OBJECT
 62
     7
 10
32.45913199999999
 20
50.807622999999992
 30
0.0
  0
VERTEX
  5
1A9D
  8
OBJECT
 62
     7
 10
32.529131999999997
 20
50.686378999999981
 30
0.0
  0
VERTEX
  5
1A9E
  8
OBJECT
 62
     7
 10
32.669131999999991
 20
50.686378999999981
 30
0.0
  0
VERTEX
  5
1A9F
  8
OBJECT
 62
     7
 10
32.739131999999991
 20
50.807622999999992
 30
0.0
  0
VERTEX
  5
1AA0
  8
OBJECT
 62
     7
 10
32.669131999999991
 20
50.928866999999997
 30
0.0
  0
SEQEND
  5
1AA1
  8
OBJECT
 62
     7
  0
LINE
  5
16EC
  8
OBJECT
 62
     7
 10
32.477029999999999
 20
50.838622999999991
 30
0.0
 11
32.721234000000003
 21
50.838622999999991
 31
0.0
  0
LINE
  5
16ED
  8
OBJECT
 62
     7
 10
32.477029999999999
 20
50.776623000000001
 30
0.0
 11
32.721234000000003
 21
50.776623000000001
 31
0.0
  0
LINE
  5
16EE
  8
OBJECT
 62
     7
 10
32.477029999999999
 20
54.74462299999999
 30
0.0
 11
32.721234000000003
 21
54.74462299999999
 31
0.0
  0
LINE
  5
16EF
  8
OBJECT
 62
     7
 10
32.477029999999999
 20
54.806622999999981
 30
0.0
 11
32.721234000000003
 21
54.806622999999981
 31
0.0
  0
POLYLINE
  5
16F0
  8
OBJECT
 62
     7
 66
     1
 10
0.0
 20
0.0
 30
0.0
 70
     1
  0
VERTEX
  5
1AA2
  8
OBJECT
 62
     7
 10
32.529131999999997
 20
54.896867
 30
0.0
  0
VERTEX
  5
1AA3
  8
OBJECT
 62
     7
 10
32.45913199999999
 20
54.775622999999982
 30
0.0
  0
VERTEX
  5
1AA4
  8
OBJECT
 62
     7
 10
32.529131999999997
 20
54.654379000000013
 30
0.0
  0
VERTEX
  5
1AA5
  8
OBJECT
 62
     7
 10
32.669131999999991
 20
54.654379000000013
 30
0.0
  0
VERTEX
  5
1AA6
  8
OBJECT
 62
     7
 10
32.739131999999991
 20
54.775622999999982
 30
0.0
  0
VERTEX
  5
1AA7
  8
OBJECT
 62
     7
 10
32.669131999999991
 20
54.896867
 30
0.0
  0
SEQEND
  5
1AA8
  8
OBJECT
 62
     7
  0
CIRCLE
  5
16F8
  8
OBJECT
 62
     7
 10
32.59913199999999
 20
54.775622999999982
 30
0.0
 40
0.1405
  0
CIRCLE
  5
16F9
  8
OBJECT
 62
     7
 10
44.975132000000002
 20
54.775622999999982
 30
0.0
 40
0.1405
  0
POLYLINE
  5
16FA
  8
OBJECT
 62
     7
 66
     1
 10
0.0
 20
0.0
 30
0.0
 70
     1
  0
VERTEX
  5
1AA9
  8
OBJECT
 62
     7
 10
45.045132000000002
 20
54.896867
 30
0.0
  0
VERTEX
  5
1AAA
  8
OBJECT
 62
     7
 10
45.115132000000003
 20
54.775622999999982
 30
0.0
  0
VERTEX
  5
1AAB
  8
OBJECT
 62
     7
 10
45.045132000000002
 20
54.654379000000013
 30
0.0
  0
VERTEX
  5
1AAC
  8
OBJECT
 62
     7
 10
44.905132000000002
 20
54.654379000000013
 30
0.0
  0
VERTEX
  5
1AAD
  8
OBJECT
 62
     7
 10
44.835131999999987
 20
54.775622999999982
 30
0.0
  0
VERTEX
  5
1AAE
  8
OBJECT
 62
     7
 10
44.905132000000002
 20
54.896867
 30
0.0
  0
SEQEND
  5
1AAF
  8
OBJECT
 62
     7
  0
LINE
  5
1702
  8
OBJECT
 62
     7
 10
45.097234
 20
54.806622999999981
 30
0.0
 11
44.853029999999997
 21
54.806622999999981
 31
0.0
  0
LINE
  5
1703
  8
OBJECT
 62
     7
 10
45.097234
 20
54.74462299999999
 30
0.0
 11
44.853029999999997
 21
54.74462299999999
 31
0.0
  0
LINE
  5
1704
  8
OBJECT
 62
     7
 10
45.097234
 20
50.776623000000001
 30
0.0
 11
44.853029999999997
 21
50.776623000000001
 31
0.0
  0
LINE
  5
1705
  8
OBJECT
 62
     7
 10
45.097234
 20
50.838622999999991
 30
0.0
 11
44.853029999999997
 21
50.838622999999991
 31
0.0
  0
POLYLINE
  5
1706
  8
OBJECT
 62
     7
 66
     1
 10
0.0
 20
0.0
 30
0.0
 70
     1
  0
VERTEX
  5
1AB0
  8
OBJECT
 62
     7
 10
45.045132000000002
 20
50.928866999999997
 30
0.0
  0
VERTEX
  5
1AB1
  8
OBJECT
 62
     7
 10
45.115132000000003
 20
50.807622999999992
 30
0.0
  0
VERTEX
  5
1AB2
  8
OBJECT
 62
     7
 10
45.045132000000002
 20
50.686378999999981
 30
0.0
  0
VERTEX
  5
1AB3
  8
OBJECT
 62
     7
 10
44.905132000000002
 20
50.686378999999981
 30
0.0
  0
VERTEX
  5
1AB4
  8
OBJECT
 62
     7
 10
44.835131999999987
 20
50.807622999999992
 30
0.0
  0
VERTEX
  5
1AB5
  8
OBJECT
 62
     7
 10
44.905132000000002
 20
50.928866999999997
 30
0.0
  0
SEQEND
  5
1AB6
  8
OBJECT
 62
     7
  0
CIRCLE
  5
170E
  8
OBJECT
 62
     7
 10
44.975132000000002
 20
50.807622999999992
 30
0.0
 40
0.1405
  0
LINE
  5
170F
  8
OBJECT
 62
     7
 10
32.395631999999999
 20
49.291623000000001
 30
0.0
 11
32.395631999999999
 21
49.166623000000001
 31
0.0
  0
LINE
  5
1710
  8
OBJECT
 62
     7
 10
32.676631999999991
 20
49.291623000000001
 30
0.0
 11
32.676631999999991
 21
49.166623000000001
 31
0.0
  0
LINE
  5
1711
  8
OBJECT
 62
     7
 10
32.676631999999991
 20
49.275622999999989
 30
0.0
 11
32.395631999999999
 21
49.275622999999989
 31
0.0
  0
LINE
  5
1712
  8
OBJECT
 62
     7
 10
32.676631999999991
 20
49.166623000000001
 30
0.0
 11
32.395631999999999
 21
49.166623000000001
 31
0.0
  0
LINE
  5
1713
  8
OBJECT
 62
     7
 10
32.466132000000002
 20
49.275622999999989
 30
0.0
 11
32.466132000000002
 21
49.166623000000001
 31
0.0
  0
LINE
  5
1714
  8
OBJECT
 62
     7
 10
32.606132000000002
 20
49.275622999999989
 30
0.0
 11
32.606132000000002
 21
49.166623000000001
 31
0.0
  0
LINE
  5
1715
  8
OBJECT
 62
     7
 10
44.968131999999997
 20
49.275622999999989
 30
0.0
 11
44.968131999999997
 21
49.166623000000001
 31
0.0
  0
LINE
  5
1716
  8
OBJECT
 62
     7
 10
45.108131999999998
 20
49.275622999999989
 30
0.0
 11
45.108131999999998
 21
49.166623000000001
 31
0.0
  0
LINE
  5
1717
  8
OBJECT
 62
     7
 10
44.897632000000002
 20
49.166623000000001
 30
0.0
 11
45.178631999999993
 21
49.166623000000001
 31
0.0
  0
LINE
  5
1718
  8
OBJECT
 62
     7
 10
44.897632000000002
 20
49.275622999999989
 30
0.0
 11
45.178631999999993
 21
49.275622999999989
 31
0.0
  0
LINE
  5
1719
  8
OBJECT
 62
     7
 10
44.897632000000002
 20
49.291623000000001
 30
0.0
 11
44.897632000000002
 21
49.166623000000001
 31
0.0
  0
LINE
  5
171A
  8
OBJECT
 62
     7
 10
45.178631999999993
 20
49.291623000000001
 30
0.0
 11
45.178631999999993
 21
49.166623000000001
 31
0.0
  0
LINE
  5
171B
  8
OBJECT
 62
     7
 10
24.25278599999999
 20
49.275622999999989
 30
0.0
 11
24.25278599999999
 21
49.166623000000001
 31
0.0
  0
LINE
  5
171C
  8
OBJECT
 62
     7
 10
24.112786
 20
49.275622999999989
 30
0.0
 11
24.112786
 21
49.166623000000001
 31
0.0
  0
LINE
  5
171D
  8
OBJECT
 62
     7
 10
24.323285999999989
 20
49.166623000000001
 30
0.0
 11
24.04228599999999
 21
49.166623000000001
 31
0.0
  0
LINE
  5
171E
  8
OBJECT
 62
     7
 10
24.323285999999989
 20
49.275622999999989
 30
0.0
 11
24.04228599999999
 21
49.275622999999989
 31
0.0
  0
LINE
  5
171F
  8
OBJECT
 62
     7
 10
24.323285999999989
 20
49.291623000000001
 30
0.0
 11
24.323285999999989
 21
49.166623000000001
 31
0.0
  0
LINE
  5
1720
  8
OBJECT
 62
     7
 10
24.04228599999999
 20
49.291623000000001
 30
0.0
 11
24.04228599999999
 21
49.166623000000001
 31
0.0
  0
LINE
  5
1721
  8
OBJECT
 62
     7
 10
14.840859999999999
 20
49.275622999999989
 30
0.0
 11
14.840859999999999
 21
49.166623000000001
 31
0.0
  0
LINE
  5
1722
  8
OBJECT
 62
     7
 10
14.98085999999998
 20
49.275622999999989
 30
0.0
 11
14.98085999999998
 21
49.166623000000001
 31
0.0
  0
LINE
  5
1723
  8
OBJECT
 62
     7
 10
14.77036
 20
49.166623000000001
 30
0.0
 11
15.051360000000001
 21
49.166623000000001
 31
0.0
  0
LINE
  5
1724
  8
OBJECT
 62
     7
 10
14.77036
 20
49.275622999999989
 30
0.0
 11
15.051360000000001
 21
49.275622999999989
 31
0.0
  0
LINE
  5
1725
  8
OBJECT
 62
     7
 10
14.77036
 20
49.291623000000001
 30
0.0
 11
14.77036
 21
49.166623000000001
 31
0.0
  0
LINE
  5
1726
  8
OBJECT
 62
     7
 10
15.051360000000001
 20
49.291623000000001
 30
0.0
 11
15.051360000000001
 21
49.166623000000001
 31
0.0
  0
LINE
  5
1727
  8
OBJECT
 62
     7
 10
2.268359999999999
 20
49.291623000000001
 30
0.0
 11
2.268359999999999
 21
49.166623000000001
 31
0.0
  0
LINE
  5
1728
  8
OBJECT
 62
     7
 10
2.5493600000000001
 20
49.291623000000001
 30
0.0
 11
2.5493600000000001
 21
49.166623000000001
 31
0.0
  0
LINE
  5
1729
  8
OBJECT
 62
     7
 10
2.5493600000000001
 20
49.275622999999989
 30
0.0
 11
2.268359999999999
 21
49.275622999999989
 31
0.0
  0
LINE
  5
172A
  8
OBJECT
 62
     7
 10
2.5493600000000001
 20
49.166623000000001
 30
0.0
 11
2.268359999999999
 21
49.166623000000001
 31
0.0
  0
LINE
  5
172B
  8
OBJECT
 62
     7
 10
2.3388599999999991
 20
49.275622999999989
 30
0.0
 11
2.3388599999999991
 21
49.166623000000001
 31
0.0
  0
LINE
  5
172C
  8
OBJECT
 62
     7
 10
2.4788600000000001
 20
49.275622999999989
 30
0.0
 11
2.4788600000000001
 21
49.166623000000001
 31
0.0
  0
DIMENSION
  5
172D
  8
DIM
 62
     7
  2
*D60
 10
15.15986
 20
57.774799000000002
 30
0.0
 11
8.6598599999999983
 21
57.774799000000002
 31
0.0
 70
     0
  1
B
 13
2.1598599999999961
 23
56.291623000000001
 33
0.0
 14
15.15986
 24
56.291623000000001
 34
0.0
  0
DIMENSION
  5
173B
  8
DIM
 62
     7
  2
*D61
 10
15.15986
 20
41.05401899999999
 30
0.0
 11
18.308297499999991
 21
41.05401899999999
 31
0.0
 70
     0
 13
14.597860000000001
 23
37.683678999999991
 33
0.0
 14
15.15986
 24
38.245678999999988
 34
0.0
  0
DIMENSION
  5
1749
  8
DIM
 62
     7
  2
*D62
 10
14.597860000000001
 20
41.05401899999999
 30
0.0
 11
8.6598600000000001
 21
41.05401899999999
 31
0.0
 70
     0
  1
E
 13
2.7218599999999991
 23
37.683678999999991
 33
0.0
 14
14.597860000000001
 24
37.683678999999991
 34
0.0
  0
DIMENSION
  5
1757
  8
DIM
 62
     7
  2
*D63
 10
16.721059
 20
31.245678999999999
 30
0.0
 11
14.47262149999999
 21
29.445678999999998
 31
0.0
 70
     0
 13
14.597860000000001
 23
31.80767899999999
 33
0.0
 14
15.15986
 24
31.245678999999999
 34
0.0
 50
270.0
  0
DIMENSION
  5
1765
  8
DIM
 62
     7
  2
*D64
 10
16.721059
 20
37.683678999999977
 30
0.0
 11
16.72105899999999
 21
34.745678999999988
 31
0.0
 70
     0
  1
D
 13
14.597860000000001
 23
31.80767899999999
 33
0.0
 14
14.597860000000001
 24
37.683678999999991
 34
0.0
 50
270.0
  0
DIMENSION
  5
1773
  8
DIM
 62
     7
  2
*D65
 10
32.287132
 20
41.05401899999999
 30
0.0
 11
29.177756999999989
 21
41.05401899999999
 31
0.0
 70
     0
 13
32.34913199999999
 23
38.183678999999998
 33
0.0
 14
32.287132
 24
38.245678999999988
 34
0.0
  0
DIMENSION
  5
1781
  8
DIM
 62
     7
  2
*D66
 10
45.225132000000002
 20
41.05401899999999
 30
0.0
 11
38.787131999999993
 21
41.05401899999999
 31
0.0
 70
     0
  1
G
 13
32.34913199999999
 23
38.183678999999998
 33
0.0
 14
45.225132000000002
 24
38.183678999999998
 34
0.0
  0
DIMENSION
  5
178F
  8
DIM
 62
     7
  2
*D67
 10
30.539884000000001
 20
31.245678999999999
 30
0.0
 11
28.330508999999989
 21
29.445678999999998
 31
0.0
 70
     0
 13
32.34913199999999
 23
31.308679000000001
 33
0.0
 14
32.318131999999991
 24
31.245678999999999
 34
0.0
 50
90.0
  0
DIMENSION
  5
179D
  8
DIM
 62
     7
  2
*D68
 10
30.539884000000001
 20
38.183678999999998
 30
0.0
 11
30.53988399999999
 21
34.746179000000012
 31
0.0
 70
     0
  1
F
 13
32.34913199999999
 23
31.308679000000001
 33
0.0
 14
32.34913199999999
 24
38.183678999999998
 34
0.0
 50
90.0
  0
DIMENSION
  5
17AB
  8
DIM
 62
     7
  2
*D69
 10
32.287132
 20
39.649019000000003
 30
0.0
 11
29.138694499999989
 21
39.649019000000003
 31
0.0
 70
     0
 13
32.849131999999997
 23
37.627679000000001
 33
0.0
 14
32.287132
 24
38.213678999999999
 34
0.0
 50
180.0
  0
DIMENSION
  5
17B9
  8
DIM
 62
     7
  2
*D70
 10
46.475396999999987
 20
38.183678999999998
 30
0.0
 11
48.645709499999988
 21
39.983679000000002
 31
0.0
 70
     0
 13
44.662132
 23
37.683678999999991
 33
0.0
 14
45.225132000000002
 24
38.183678999999998
 34
0.0
 50
90.0
  0
DIMENSION
  5
17C7
  8
DIM
 62
     7
  2
*D71
 10
16.721059
 20
49.291622999999987
 30
0.0
 11
16.72105899999999
 21
52.791623000000001
 31
0.0
 70
     0
  1
A
 13
15.15986
 23
56.291623000000001
 33
0.0
 14
15.15986
 24
49.291623000000001
 34
0.0
 50
270.0
  0
DIMENSION
  5
17D5
  8
DIM
 62
     7
  2
*D72
 10
20.182785999999989
 20
47.984684999999999
 30
0.0
 11
17.034348499999979
 21
47.984684999999999
 31
0.0
 70
     0
 13
20.714786
 23
49.346623000000001
 33
0.0
 14
20.182785999999989
 24
49.291623000000001
 34
0.0
  0
DIMENSION
  5
17E3
  8
DIM
 62
     7
  2
*D73
 10
28.182786
 20
47.984684999999999
 30
0.0
 11
31.292161
 21
47.984684999999999
 31
0.0
 70
     0
 13
27.932786
 23
49.353622999999999
 33
0.0
 14
28.182786
 24
49.291623000000001
 34
0.0
  0
DIMENSION
  5
17F1
  8
DIM
 62
     7
  2
*D74
 10
28.182786
 20
57.786774999999999
 30
0.0
 11
24.182785999999989
 21
57.786774999999999
 31
0.0
 70
     0
  1
C
 13
20.182785999999989
 23
56.291623000000001
 33
0.0
 14
28.182786
 24
56.291623000000001
 34
0.0
  0
TEXT
  5
17FF
  8
TEXT
 62
     7
 10
6.1700315000000003
 20
45.007066000000002
 30
0.0
 40
0.625
  1
%%UFRONT VIEW
 41
0.75
  7
TXT
 72
     1
 11
8.5215940000000003
 21
45.007066000000002
 31
0.0
  0
TEXT
  5
1800
  8
TEXT
 62
     7
 10
21.166981380952372
 20
45.023454000000001
 30
0.0
 40
0.625
  1
%%USECTION "A-A"
 41
0.8
  7
SECTION
 72
     1
 11
24.211029
 21
45.023454000000001
 31
0.0
  0
TEXT
  5
1801
  8
TEXT
 62
     7
 10
36.84345549999999
 20
45.023454000000001
 30
0.0
 40
0.625
  1
%%UREAR VIEW
 41
0.75
  7
TXT
 72
     1
 11
38.96064299999999
 21
45.023454000000001
 31
0.0
  0
TEXT
  5
1802
  8
TEXT
 62
     7
 10
6.4051875000000003
 20
29.301121999999989
 30
0.0
 40
0.625
  1
%%UFRONT VIEW
 41
0.75
  7
TXT
 72
     1
 11
8.7567500000000003
 21
29.301121999999989
 31
0.0
  0
TEXT
  5
1803
  8
TEXT
 62
     7
 10
4.7723750000000003
 20
28.259454999999988
 30
0.0
 40
0.625
  1
(LESS FRONT PANEL)
 41
0.75
  7
TXT
 72
     1
 11
8.7567500000000003
 21
28.259454999999988
 31
0.0
  0
TEXT
  5
1804
  8
TEXT
 62
     7
 10
37.055173499999988
 20
29.301121999999989
 30
0.0
 40
0.625
  1
%%UREAR VIEW
 41
0.75
  7
TXT
 72
     1
 11
39.172360999999981
 21
29.301121999999989
 31
0.0
  0
TEXT
  5
1805
  8
TEXT
 62
     7
 10
35.422360999999981
 20
28.259454999999988
 30
0.0
 40
0.625
  1
(LESS REAR PANEL)
 41
0.75
  7
TXT
 72
     1
 11
39.172360999999981
 21
28.259454999999988
 31
0.0
  0
TEXT
  5
1806
  8
TEXT
 62
     7
 10
22.236095500000001
 20
29.301121999999989
 30
0.0
 40
0.625
  1
%%USIDE VIEW
 41
0.75
  7
TXT
 72
     1
 11
24.275158000000001
 21
29.301121999999989
 31
0.0
  0
TEXT
  5
1807
  8
TEXT
 10
3.811275999999999
 20
73.527116000000007
 30
0.0
 40
0.625
  1
%%uMATERIAL:
 41
0.75
  7
TXT
  0
TEXT
  5
1808
  8
TEXT
 10
4.1613610000000003
 20
72.48545
 30
0.0
 40
0.625
  1
BODY, BOTTOM & REAR PANEL
 41
0.75
  7
TXT
  0
TEXT
  5
1809
  8
TEXT
 10
3.811275999999999
 20
69.36045
 30
0.0
 40
0.625
  1
%%uFINISH:
 41
0.75
  7
TXT
  0
TEXT
  5
180A
  8
TEXT
 10
4.1613610000000003
 20
68.318782999999996
 30
0.0
 40
0.625
  1
BODY, BOTTOM & REAR PANEL
 41
0.75
  7
TXT
  0
TEXT
  5
180B
  8
TEXT
 10
4.1613610000000003
 20
67.277116000000007
 30
0.0
 40
0.625
  1
FRONT PANEL
 41
0.75
  7
TXT
  0
TEXT
  5
180C
  8
TEXT
 10
18.095537
 20
72.517668999999984
 30
0.0
 40
0.625
  1
20 GA. STEEL
 41
0.75
  7
TXT
  0
TEXT
  5
180D
  8
TEXT
 10
18.095537
 20
71.476002000000022
 30
0.0
 40
0.625
  1
18 GA. STEEL
 41
0.75
  7
TXT
  0
TEXT
  5
180E
  8
TEXT
 10
18.095537
 20
68.351002000000008
 30
0.0
 40
0.625
  1
ROYAL BLUE TEXTURED
 41
0.75
  7
TXT
  0
TEXT
  5
180F
  8
TEXT
 10
18.095537
 20
67.309335000000004
 30
0.0
 40
0.625
  1
WHITE TEXTURED
 41
0.75
  7
TXT
  0
LINE
  5
1810
  8
TEXT
 10
15.941919
 20
72.470298999999983
 30
0.0
 11
17.481801000000001
 21
72.470298999999983
 31
0.0
  0
LINE
  5
1811
  8
TEXT
 10
9.6502719999999993
 20
71.428170999999978
 30
0.0
 11
17.481801000000001
 21
71.428170999999978
 31
0.0
  0
LINE
  5
1812
  8
TEXT
 10
15.908200000000001
 20
68.301787000000004
 30
0.0
 11
17.481801000000001
 21
68.301787000000004
 31
0.0
  0
LINE
  5
1813
  8
TEXT
 10
9.5555319999999995
 20
67.307028000000003
 30
0.0
 11
17.481801000000001
 21
67.307028000000003
 31
0.0
  0
TEXT
  5
1814
  8
TEXT
 10
4.1613610000000003
 20
71.430385999999999
 30
0.0
 40
0.625
  1
FRONT PANEL
 41
0.75
  7
TXT
  0
LINE
  5
1815
  8
OBJECT
 62
     7
 10
2.7538599999999991
 20
15.560686999999991
 30
0.0
 11
14.565860000000001
 21
15.560686999999991
 31
0.0
  0
LINE
  5
1816
  8
OBJECT
 62
     7
 10
14.565860000000001
 20
15.560686999999991
 30
0.0
 11
14.565860000000001
 21
22.450686999999999
 31
0.0
  0
LINE
  5
1817
  8
OBJECT
 62
     7
 10
14.565860000000001
 20
22.450686999999999
 30
0.0
 11
2.7538599999999991
 21
22.450686999999999
 31
0.0
  0
LINE
  5
1818
  8
OBJECT
 62
     7
 10
2.7538599999999991
 20
22.450686999999999
 30
0.0
 11
2.7538599999999991
 21
15.560686999999991
 31
0.0
  0
CIRCLE
  5
1819
  8
OBJECT
 62
     7
 10
3.0038599999999991
 20
22.200686999999999
 30
0.0
 40
0.125
  0
CIRCLE
  5
181A
  8
OBJECT
 62
     7
 10
14.315860000000001
 20
22.200686999999999
 30
0.0
 40
0.125
  0
CIRCLE
  5
181B
  8
OBJECT
 62
     7
 10
3.0038599999999991
 20
15.810687
 30
0.0
 40
0.125
  0
CIRCLE
  5
181C
  8
OBJECT
 62
     7
 10
14.315860000000001
 20
15.810687
 30
0.0
 40
0.125
  0
DIMENSION
  5
181D
  8
DIM
  2
*D75
 10
3.0038599999999991
 20
23.890687
 30
0.0
 11
6.1132349999999978
 21
23.890687
 31
0.0
 70
     0
 13
2.7538599999999991
 23
22.450686999999999
 33
0.0
 14
3.0038599999999991
 24
22.200686999999999
 34
0.0
  0
DIMENSION
  5
182B
  8
DIM
 62
     7
  2
*D76
 10
14.315860000000001
 20
23.890687
 30
0.0
 11
11.206485000000001
 21
23.890687
 31
0.0
 70
     0
 13
14.565860000000001
 23
22.450686999999999
 33
0.0
 14
14.315860000000001
 24
22.200686999999999
 34
0.0
  0
DIMENSION
  5
1839
  8
DIM
 62
     7
  2
*D77
 10
2.7538599999999991
 20
25.295687000000001
 30
0.0
 11
8.6598600000000001
 21
25.295687000000001
 31
0.0
 70
     0
  1
J
 13
14.565860000000001
 23
22.450686999999999
 33
0.0
 14
2.7538599999999991
 24
22.450686999999999
 34
0.0
  0
DIMENSION
  5
1847
  8
DIM
 62
     7
  2
*D78
 10
16.793175000000002
 20
22.450686999999999
 30
0.0
 11
19.002549999999989
 21
24.250686999999999
 31
0.0
 70
     0
 13
14.315860000000001
 23
22.200686999999999
 33
0.0
 14
14.565860000000001
 24
22.450686999999999
 34
0.0
 50
90.0
  0
DIMENSION
  5
1855
  8
DIM
 62
     7
  2
*D79
 10
16.793175000000002
 20
15.560686999999991
 30
0.0
 11
14.5838
 21
13.76068699999999
 31
0.0
 70
     0
 13
14.315860000000001
 23
15.810687
 33
0.0
 14
14.565860000000001
 24
15.560686999999991
 34
0.0
 50
90.0
  0
DIMENSION
  5
1863
  8
DIM
 62
     7
  2
*D80
 10
18.198174999999999
 20
15.560686999999991
 30
0.0
 11
18.198174999999988
 21
19.005687000000002
 31
0.0
 70
     0
  1
H
 13
14.565860000000001
 23
22.450686999999999
 33
0.0
 14
14.565860000000001
 24
15.560686999999991
 34
0.0
 50
90.0
  0
POLYLINE
  5
1871
  8
DIM
 62
     7
 66
     1
 10
0.0
 20
0.0
 30
0.0
 41
0.3375
  0
VERTEX
  5
1AB7
  8
DIM
 62
     7
 10
3.11036
 20
15.745244
 30
0.0
  0
VERTEX
  5
1AB8
  8
DIM
 62
     7
 10
3.754084999999999
 20
15.116262000000001
 30
0.0
 41
0.0
  0
VERTEX
  5
1AB9
  8
DIM
 62
     7
 10
4.4117420000000003
 20
14.473667000000001
 30
0.0
 41
0.0
  0
VERTEX
  5
1ABA
  8
DIM
 62
     7
 10
5.0367420000000003
 20
14.473667000000001
 30
0.0
 41
0.0
  0
SEQEND
  5
1ABB
  8
DIM
 62
     7
  0
TEXT
  5
1877
  8
DIM
 62
     7
 10
5.6617420000000003
 20
14.161167000000001
 30
0.0
 40
0.625
  1
0.250 DIA.
 41
0.75
  7
TXT
  0
TEXT
  5
1878
  8
DIM
 62
     7
 10
5.6617420000000003
 20
13.1195
 30
0.0
 40
0.625
  1
(4) HOLES
 41
0.75
  7
TXT
  0
LINE
  5
1879
  8
OBJECT
 62
     7
 10
32.443632000000001
 20
15.638686999999999
 30
0.0
 11
45.224631999999993
 21
15.638686999999999
 31
0.0
  0
LINE
  5
187A
  8
OBJECT
 62
     7
 10
45.224631999999993
 20
15.638686999999999
 30
0.0
 11
45.224631999999993
 21
22.450686999999999
 31
0.0
  0
LINE
  5
187B
  8
OBJECT
 62
     7
 10
45.224631999999993
 20
22.450686999999999
 30
0.0
 11
32.443632000000001
 21
22.450686999999999
 31
0.0
  0
LINE
  5
187C
  8
OBJECT
 62
     7
 10
32.443632000000001
 20
22.450686999999999
 30
0.0
 11
32.443632000000001
 21
15.638686999999999
 31
0.0
  0
LINE
  5
187D
  8
OBJECT
 62
     7
 10
32.66163199999999
 20
17.168686999999998
 30
0.0
 11
32.693632000000001
 21
17.168686999999998
 31
0.0
  0
LINE
  5
187E
  8
OBJECT
 62
     7
 10
32.66163199999999
 20
16.950686999999999
 30
0.0
 11
32.693632000000001
 21
16.950686999999999
 31
0.0
  0
ARC
  5
187F
  8
OBJECT
 62
     7
 10
32.66163199999999
 20
17.059687
 30
0.0
 40
0.109
 50
89.999981000000005
 51
269.99998099999999
  0
ARC
  5
1880
  8
OBJECT
 62
     7
 10
32.693632000000001
 20
17.059687
 30
0.0
 40
0.109
 50
269.99998099999999
 51
89.999981000000005
  0
ARC
  5
1881
  8
OBJECT
 62
     7
 10
44.974632
 20
17.059687
 30
0.0
 40
0.109
 50
90.000018999999995
 51
270.00001900000001
  0
ARC
  5
1882
  8
OBJECT
 62
     7
 10
45.006632000000003
 20
17.059687
 30
0.0
 40
0.109
 50
270.00001900000001
 51
90.000018999999995
  0
LINE
  5
1883
  8
OBJECT
 62
     7
 10
45.006632000000003
 20
16.950686999999999
 30
0.0
 11
44.974632
 21
16.950686999999999
 31
0.0
  0
LINE
  5
1884
  8
OBJECT
 62
     7
 10
45.006632000000003
 20
17.168686999999998
 30
0.0
 11
44.974632
 21
17.168686999999998
 31
0.0
  0
LINE
  5
1885
  8
OBJECT
 62
     7
 10
45.006632000000003
 20
20.920687000000001
 30
0.0
 11
44.974632
 21
20.920687000000001
 31
0.0
  0
LINE
  5
1886
  8
OBJECT
 62
     7
 10
45.006632000000003
 20
21.138687000000001
 30
0.0
 11
44.974632
 21
21.138687000000001
 31
0.0
  0
ARC
  5
1887
  8
OBJECT
 62
     7
 10
45.006632000000003
 20
21.029686999999988
 30
0.0
 40
0.109
 50
269.99998099999999
 51
89.999981000000005
  0
ARC
  5
1888
  8
OBJECT
 62
     7
 10
44.974632
 20
21.029686999999988
 30
0.0
 40
0.109
 50
89.999981000000005
 51
269.99998099999999
  0
ARC
  5
1889
  8
OBJECT
 62
     7
 10
32.693632000000001
 20
21.029686999999988
 30
0.0
 40
0.109
 50
270.00001900000001
 51
90.000018999999995
  0
ARC
  5
188A
  8
OBJECT
 62
     7
 10
32.66163199999999
 20
21.029686999999988
 30
0.0
 40
0.109
 50
90.000018999999995
 51
270.00001900000001
  0
LINE
  5
188B
  8
OBJECT
 62
     7
 10
32.66163199999999
 20
21.138687000000001
 30
0.0
 11
32.693632000000001
 21
21.138687000000001
 31
0.0
  0
LINE
  5
188C
  8
OBJECT
 62
     7
 10
32.66163199999999
 20
20.920687000000001
 30
0.0
 11
32.693632000000001
 21
20.920687000000001
 31
0.0
  0
DIMENSION
  5
188D
  8
DIM
 62
     7
  2
*D81
 10
32.443632000000001
 20
23.890687
 30
0.0
 11
29.295194500000001
 21
23.890687
 31
0.0
 70
     0
 13
32.677632000000003
 23
21.138687000000001
 33
0.0
 14
32.443632000000001
 24
22.450686999999999
 34
0.0
  0
DIMENSION
  5
189B
  8
DIM
 62
     7
  2
*D82
 10
44.990631999999998
 20
23.890687
 30
0.0
 11
41.842194499999991
 21
23.890687
 31
0.0
 70
     0
 13
45.224631999999993
 23
22.450686999999999
 33
0.0
 14
44.990631999999998
 24
21.138687000000001
 34
0.0
  0
DIMENSION
  5
18A9
  8
DIM
 62
     7
  2
*D83
 10
45.224631999999993
 20
25.295687000000001
 30
0.0
 11
38.83413199999999
 21
25.295687000000001
 31
0.0
 70
     0
  1
L
 13
32.443632000000001
 23
22.450686999999999
 33
0.0
 14
45.224631999999993
 24
22.450686999999999
 34
0.0
  0
DIMENSION
  5
18B7
  8
DIM
 62
     7
  2
*D84
 10
47.374302999999983
 20
22.450686999999999
 30
0.0
 11
49.505552999999971
 21
24.250686999999999
 31
0.0
 70
     0
 13
45.115631999999998
 23
21.029686999999988
 33
0.0
 14
45.224631999999993
 24
22.450686999999999
 34
0.0
 50
90.0
  0
DIMENSION
  5
18C5
  8
DIM
 62
     7
  2
*D85
 10
47.374302999999983
 20
17.059687
 30
0.0
 11
49.505552999999971
 21
18.859687000000001
 31
0.0
 70
     0
 13
45.224631999999993
 23
15.638686999999999
 33
0.0
 14
45.115631999999998
 24
17.059687
 34
0.0
 50
90.0
  0
DIMENSION
  5
18D3
  8
DIM
 62
     7
  2
*D86
 10
48.779302999999999
 20
15.638686999999999
 30
0.0
 11
48.779302999999999
 21
19.044687
 31
0.0
 70
     0
  1
K
 13
45.224631999999993
 23
22.450686999999999
 33
0.0
 14
45.224631999999993
 24
15.638686999999999
 34
0.0
 50
90.0
  0
POLYLINE
  5
18E1
  8
DIM
 62
     7
 66
     1
 10
0.0
 20
0.0
 30
0.0
 41
0.3375
  0
VERTEX
  5
1ABC
  8
DIM
 62
     7
 10
32.727201000000001
 20
16.955984999999998
 30
0.0
  0
VERTEX
  5
1ABD
  8
DIM
 62
     7
 10
33.246813000000003
 20
16.221135999999991
 30
0.0
 41
0.0
  0
VERTEX
  5
1ABE
  8
DIM
 62
     7
 10
34.48245
 20
14.473667000000001
 30
0.0
 41
0.0
  0
VERTEX
  5
1ABF
  8
DIM
 62
     7
 10
35.10745
 20
14.473667000000001
 30
0.0
 41
0.0
  0
SEQEND
  5
1AC0
  8
DIM
 62
     7
  0
TEXT
  5
18E7
  8
DIM
 62
     7
 10
35.73245
 20
14.161167000000001
 30
0.0
 40
0.625
  1
0.218 x 0.250 OBLONG
 41
0.75
  7
TXT
  0
TEXT
  5
18E8
  8
DIM
 62
     7
 10
35.73245
 20
13.1195
 30
0.0
 40
0.625
  1
(4) HOLES
 41
0.75
  7
TXT
  0
TEXT
  5
18E9
  8
TEXT
 62
     7
 10
36.68720549999999
 20
11.696774
 30
0.0
 40
0.625
  1
%%UREAR PANEL
 41
0.75
  7
TXT
 72
     1
 11
38.96064299999999
 21
11.696774
 31
0.0
  0
TEXT
  5
18EA
  8
TEXT
 62
     7
 10
5.9496524999999991
 20
11.696774
 30
0.0
 40
0.625
  1
%%UFRONT PANEL
 41
0.75
  7
TXT
 72
     1
 11
8.4574649999999991
 21
11.696774
 31
0.0
  0
POLYLINE
  5
18EB
  8
OBJECT
 62
     7
 66
     1
 10
0.0
 20
0.0
 30
0.0
 70
     1
  0
VERTEX
  5
1AC1
  8
OBJECT
 62
     7
 10
20.760786
 20
56.236623000000002
 30
0.0
  0
VERTEX
  5
1AC2
  8
OBJECT
 62
     7
 10
20.760786
 20
49.346623000000001
 30
0.0
  0
VERTEX
  5
1AC3
  8
OBJECT
 62
     7
 10
20.714786
 20
49.346623000000001
 30
0.0
  0
VERTEX
  5
1AC4
  8
OBJECT
 62
     7
 10
20.714786
 20
56.236623000000002
 30
0.0
  0
SEQEND
  5
1AC5
  8
OBJECT
 62
     7
  0
POLYLINE
  5
18F1
  8
OBJECT
 62
     7
 66
     1
 10
0.0
 20
0.0
 30
0.0
  0
VERTEX
  5
1AC6
  8
OBJECT
 62
     7
 10
27.932786
 20
49.385623000000002
 30
0.0
  0
VERTEX
  5
1AC7
  8
OBJECT
 62
     7
 10
27.978785999999999
 20
49.385623000000002
 30
0.0
  0
VERTEX
  5
1AC8
  8
OBJECT
 62
     7
 10
27.978785999999999
 20
56.197623
 30
0.0
  0
VERTEX
  5
1AC9
  8
OBJECT
 62
     7
 10
27.932786
 20
56.197623
 30
0.0
  0
SEQEND
  5
1ACA
  8
OBJECT
 62
     7
  0
DIMENSION
  5
18F7
  8
DIM
 62
     7
  2
*D87
 10
14.097860000000001
 20
39.649019000000003
 30
0.0
 11
11.027547500000001
 21
39.649019000000003
 31
0.0
 70
     0
 13
14.597860000000001
 23
37.683678999999991
 33
0.0
 14
14.097860000000001
 24
37.667679
 34
0.0
  0
INSERT
  5
1905
  8
TITLE
  2
HB
 10
0.0
 20
0.0
 30
0.0
 41
5.0
 42
5.0
 43
5.0
  0
LINE
  5
1906
  8
TITLE
 10
0.31
 20
1.3516669999999991
 30
0.0
 11
50.289999999999992
 21
1.3516669999999991
 31
0.0
  0
LINE
  5
1907
  8
TITLE
 10
0.31
 20
2.3933330000000002
 30
0.0
 11
50.289999999999992
 21
2.3933330000000002
 31
0.0
  0
LINE
  5
1908
  8
TITLE
 10
0.31
 20
3.4350000000000001
 30
0.0
 11
50.289999999999992
 21
3.4350000000000001
 31
0.0
  0
LINE
  5
1909
  8
TITLE
 10
4.5739999999999981
 20
5.4120929999999987
 30
0.0
 11
50.289999999999992
 21
5.4120929999999987
 31
0.0
  0
LINE
  5
190A
  8
TITLE
 10
17.042000000000002
 20
6.5599999999999987
 30
0.0
 11
50.289999999999992
 21
6.5599999999999987
 31
0.0
  0
LINE
  5
190B
  8
TITLE
 10
0.31
 20
7.6016669999999982
 30
0.0
 11
50.289999999999992
 21
7.6016669999999982
 31
0.0
  0
LINE
  5
190C
  8
TITLE
 10
46.133999999999993
 20
5.4120929999999987
 30
0.0
 11
46.133999999999993
 21
0.31
 31
0.0
  0
LINE
  5
190D
  8
TITLE
 10
41.977999999999987
 20
6.5599999999999987
 30
0.0
 11
41.977999999999987
 21
0.31
 31
0.0
  0
LINE
  5
190E
  8
TITLE
 10
37.821999999999989
 20
5.4120929999999987
 30
0.0
 11
37.821999999999989
 21
0.31
 31
0.0
  0
LINE
  5
190F
  8
TITLE
 10
33.665999999999997
 20
7.6016669999999982
 30
0.0
 11
33.665999999999997
 21
0.31
 31
0.0
  0
LINE
  5
1910
  8
TITLE
 10
29.510000000000002
 20
5.4120929999999987
 30
0.0
 11
29.510000000000002
 21
0.31
 31
0.0
  0
LINE
  5
1911
  8
TITLE
 10
25.353999999999999
 20
6.5599999999999987
 30
0.0
 11
25.353999999999999
 21
0.31
 31
0.0
  0
LINE
  5
1912
  8
TITLE
 10
21.198
 20
5.4120929999999987
 30
0.0
 11
21.198
 21
0.31
 31
0.0
  0
LINE
  5
1913
  8
TITLE
 10
17.042000000000002
 20
7.6016669999999982
 30
0.0
 11
17.042000000000002
 21
0.31
 31
0.0
  0
LINE
  5
1914
  8
TITLE
 10
12.88599999999999
 20
5.4120929999999987
 30
0.0
 11
12.88599999999999
 21
0.31
 31
0.0
  0
LINE
  5
1915
  8
TITLE
 10
8.7300000000000004
 20
5.4120929999999987
 30
0.0
 11
8.7300000000000004
 21
0.31
 31
0.0
  0
LINE
  5
1916
  8
TITLE
 10
4.5739999999999981
 20
7.6016669999999982
 30
0.0
 11
4.5739999999999981
 21
0.31
 31
0.0
  0
TEXT
  5
1917
  8
TEXT
 10
0.8013749999999966
 20
5.0995929999999987
 30
0.0
 40
0.625
  1
PART No.
 41
0.75
  7
TXT
 72
     4
 11
2.4419999999999962
 21
5.4120929999999987
 31
0.0
  0
TEXT
  5
1918
  8
TEXT
 10
0.9966874999999966
 20
2.6016669999999991
 30
0.0
 40
0.625
  1
MD-1960
 41
0.75
  7
TXT
 72
     4
 11
2.4419999999999962
 21
2.9141669999999991
 31
0.0
  0
TEXT
  5
1919
  8
TEXT
 10
1.035749999999996
 20
1.5600000000000001
 30
0.0
 40
0.625
  1
MD-1961
 41
0.75
  7
TXT
 72
     4
 11
2.4419999999999962
 21
1.8725000000000001
 31
0.0
  0
TEXT
  5
191A
  8
TEXT
 10
0.9576249999999966
 20
0.5183330000000002
 30
0.0
 40
0.625
  1
MD-1962
 41
0.75
  7
TXT
 72
     4
 11
2.4419999999999962
 21
0.8308329999999999
 31
0.0
  0
TEXT
  5
191B
  8
TEXT
 10
9.1673749999999714
 20
6.2474999999999987
 30
0.0
 40
0.625
  1
OVERALL
 41
0.75
  7
TXT
 72
     4
 11
10.80799999999997
 21
6.5599999999999987
 31
0.0
  0
TEXT
  5
191C
  8
TEXT
 10
6.4957500000000001
 20
4.1641669999999991
 30
0.0
 40
0.625
  1
A
 41
0.75
  7
TXT
 72
     4
 11
6.6520000000000001
 21
4.4766669999999991
 31
0.0
  0
TEXT
  5
191D
  8
TEXT
 10
5.8316875000000001
 20
2.6016669999999991
 30
0.0
 40
0.625
  1
7.000
 41
0.75
  7
TXT
 72
     4
 11
6.6520000000000001
 21
2.9141669999999991
 31
0.0
  0
TEXT
  5
191E
  8
TEXT
 10
5.8316875000000001
 20
1.5600000000000001
 30
0.0
 40
0.625
  1
8.000
 41
0.75
  7
TXT
 72
     4
 11
6.6520000000000001
 21
1.8725000000000001
 31
0.0
  0
TEXT
  5
191F
  8
TEXT
 10
5.8316875000000001
 20
0.518333
 30
0.0
 40
0.625
  1
8.000
 41
0.75
  7
TXT
 72
     4
 11
6.6520000000000001
 21
0.8308329999999999
 31
0.0
  0
TEXT
  5
1920
  8
TEXT
 10
10.65174999999997
 20
4.1641669999999991
 30
0.0
 40
0.625
  1
B
 41
0.75
  7
TXT
 72
     4
 11
10.80799999999997
 21
4.4766669999999991
 31
0.0
  0
TEXT
  5
1921
  8
TEXT
 10
14.80775
 20
4.1641669999999991
 30
0.0
 40
0.625
  1
C
 41
0.75
  7
TXT
 72
     4
 11
14.964
 21
4.4766669999999991
 31
0.0
  0
TEXT
  5
1922
  8
TEXT
 10
18.963750000000001
 20
4.1641669999999991
 30
0.0
 40
0.625
  1
D
 41
0.75
  7
TXT
 72
     4
 11
19.120000000000001
 21
4.4766669999999991
 31
0.0
  0
TEXT
  5
1923
  8
TEXT
 10
23.119749999999989
 20
4.1641669999999991
 30
0.0
 40
0.625
  1
E
 41
0.75
  7
TXT
 72
     4
 11
23.275999999999989
 21
4.4766669999999991
 31
0.0
  0
TEXT
  5
1924
  8
TEXT
 10
27.275749999999992
 20
4.1641669999999991
 30
0.0
 40
0.625
  1
F
 41
0.75
  7
TXT
 72
     4
 11
27.431999999999992
 21
4.4766669999999991
 31
0.0
  0
TEXT
  5
1925
  8
TEXT
 10
31.431750000000001
 20
4.1641669999999991
 30
0.0
 40
0.625
  1
G
 41
0.75
  7
TXT
 72
     4
 11
31.588000000000001
 21
4.4766669999999991
 31
0.0
  0
TEXT
  5
1926
  8
TEXT
 10
35.58775
 20
4.1641669999999991
 30
0.0
 40
0.625
  1
H
 41
0.75
  7
TXT
 72
     4
 11
35.744
 21
4.4766669999999991
 31
0.0
  0
TEXT
  5
1927
  8
TEXT
 10
39.743749999999999
 20
4.1641669999999991
 30
0.0
 40
0.625
  1
J
 41
0.75
  7
TXT
 72
     4
 11
39.899999999999999
 21
4.4766669999999991
 31
0.0
  0
TEXT
  5
1928
  8
TEXT
 10
43.899749999999983
 20
4.1641669999999991
 30
0.0
 40
0.625
  1
K
 41
0.75
  7
TXT
 72
     4
 11
44.055999999999983
 21
4.4766669999999991
 31
0.0
  0
TEXT
  5
1929
  8
TEXT
 10
48.05575000000001
 20
4.1641669999999991
 30
0.0
 40
0.625
  1
L
 41
0.75
  7
TXT
 72
     4
 11
48.21200000000001
 21
4.4766669999999991
 31
0.0
  0
TEXT
  5
192A
  8
TEXT
 10
9.8314374999999714
 20
2.6016669999999991
 30
0.0
 40
0.625
  1
13.000
 41
0.75
  7
TXT
 72
     4
 11
10.80799999999997
 21
2.9141669999999991
 31
0.0
  0
TEXT
  5
192B
  8
TEXT
 10
9.8314374999999714
 20
1.5600000000000001
 30
0.0
 40
0.625
  1
14.000
 41
0.75
  7
TXT
 72
     4
 11
10.80799999999997
 21
1.8725000000000001
 31
0.0
  0
TEXT
  5
192C
  8
TEXT
 10
9.8314374999999714
 20
0.5183330000000002
 30
0.0
 40
0.625
  1
16.000
 41
0.75
  7
TXT
 72
     4
 11
10.80799999999997
 21
0.8308329999999999
 31
0.0
  0
TEXT
  5
192D
  8
TEXT
 10
14.1436875
 20
2.6016669999999991
 30
0.0
 40
0.625
  1
8.000
 41
0.75
  7
TXT
 72
     4
 11
14.964
 21
2.9141669999999991
 31
0.0
  0
TEXT
  5
192E
  8
TEXT
 10
14.1436875
 20
1.5600000000000001
 30
0.0
 40
0.625
  1
9.000
 41
0.75
  7
TXT
 72
     4
 11
14.964
 21
1.8725000000000001
 31
0.0
  0
TEXT
  5
192F
  8
TEXT
 10
14.1436875
 20
0.518333
 30
0.0
 40
0.625
  1
9.000
 41
0.75
  7
TXT
 72
     4
 11
14.964
 21
0.8308329999999999
 31
0.0
  0
TEXT
  5
1930
  8
TEXT
 10
18.182500000000001
 20
2.6016669999999991
 30
0.0
 40
0.625
  1
5.875
 41
0.75
  7
TXT
 72
     4
 11
19.120000000000001
 21
2.9141669999999991
 31
0.0
  0
TEXT
  5
1931
  8
TEXT
 10
18.182500000000001
 20
1.5600000000000001
 30
0.0
 40
0.625
  1
6.875
 41
0.75
  7
TXT
 72
     4
 11
19.120000000000001
 21
1.8725000000000001
 31
0.0
  0
TEXT
  5
1932
  8
TEXT
 10
18.182500000000001
 20
0.518333
 30
0.0
 40
0.625
  1
6.875
 41
0.75
  7
TXT
 72
     4
 11
19.120000000000001
 21
0.8308329999999999
 31
0.0
  0
TEXT
  5
1933
  8
TEXT
 10
22.260374999999989
 20
2.6016669999999991
 30
0.0
 40
0.625
  1
11.875
 41
0.75
  7
TXT
 72
     4
 11
23.275999999999989
 21
2.9141669999999991
 31
0.0
  0
TEXT
  5
1934
  8
TEXT
 10
22.182249999999989
 20
1.5600000000000001
 30
0.0
 40
0.625
  1
12.875
 41
0.75
  7
TXT
 72
     4
 11
23.275999999999989
 21
1.8725000000000001
 31
0.0
  0
TEXT
  5
1935
  8
TEXT
 10
22.182249999999989
 20
0.5183330000000002
 30
0.0
 40
0.625
  1
14.875
 41
0.75
  7
TXT
 72
     4
 11
23.275999999999989
 21
0.8308329999999999
 31
0.0
  0
TEXT
  5
1936
  8
TEXT
 10
26.494499999999992
 20
2.6016669999999991
 30
0.0
 40
0.625
  1
6.875
 41
0.75
  7
TXT
 72
     4
 11
27.431999999999992
 21
2.9141669999999991
 31
0.0
  0
TEXT
  5
1937
  8
TEXT
 10
26.494499999999992
 20
1.5600000000000001
 30
0.0
 40
0.625
  1
7.875
 41
0.75
  7
TXT
 72
     4
 11
27.431999999999992
 21
1.8725000000000001
 31
0.0
  0
TEXT
  5
1938
  8
TEXT
 10
26.494499999999992
 20
0.518333
 30
0.0
 40
0.625
  1
7.875
 41
0.75
  7
TXT
 72
     4
 11
27.431999999999992
 21
0.8308329999999999
 31
0.0
  0
TEXT
  5
1939
  8
TEXT
 10
30.494250000000001
 20
2.6016669999999991
 30
0.0
 40
0.625
  1
12.875
 41
0.75
  7
TXT
 72
     4
 11
31.588000000000001
 21
2.9141669999999991
 31
0.0
  0
TEXT
  5
193A
  8
TEXT
 10
30.494250000000001
 20
1.5600000000000001
 30
0.0
 40
0.625
  1
13.875
 41
0.75
  7
TXT
 72
     4
 11
31.588000000000001
 21
1.8725000000000001
 31
0.0
  0
TEXT
  5
193B
  8
TEXT
 10
30.494250000000001
 20
0.5183330000000002
 30
0.0
 40
0.625
  1
15.875
 41
0.75
  7
TXT
 72
     4
 11
31.588000000000001
 21
0.8308329999999999
 31
0.0
  0
TEXT
  5
193C
  8
TEXT
 10
34.8455625
 20
2.6016669999999991
 30
0.0
 40
0.625
  1
6.890
 41
0.75
  7
TXT
 72
     4
 11
35.744
 21
2.9141669999999991
 31
0.0
  0
TEXT
  5
193D
  8
TEXT
 10
34.8455625
 20
1.5600000000000001
 30
0.0
 40
0.625
  1
7.890
 41
0.75
  7
TXT
 72
     4
 11
35.744
 21
1.8725000000000001
 31
0.0
  0
TEXT
  5
193E
  8
TEXT
 10
34.8455625
 20
0.518333
 30
0.0
 40
0.625
  1
7.890
 41
0.75
  7
TXT
 72
     4
 11
35.744
 21
0.8308329999999999
 31
0.0
  0
TEXT
  5
193F
  8
TEXT
 10
38.962499999999999
 20
2.6016669999999991
 30
0.0
 40
0.625
  1
11.812
 41
0.75
  7
TXT
 72
     4
 11
39.899999999999999
 21
2.9141669999999991
 31
0.0
  0
TEXT
  5
1940
  8
TEXT
 10
38.884374999999999
 20
1.5600000000000001
 30
0.0
 40
0.625
  1
12.812
 41
0.75
  7
TXT
 72
     4
 11
39.899999999999999
 21
1.8725000000000001
 31
0.0
  0
TEXT
  5
1941
  8
TEXT
 10
38.884374999999999
 20
0.5183330000000002
 30
0.0
 40
0.625
  1
14.812
 41
0.75
  7
TXT
 72
     4
 11
39.899999999999999
 21
0.8308329999999999
 31
0.0
  0
TEXT
  5
1942
  8
TEXT
 10
43.196624999999983
 20
2.6016669999999991
 30
0.0
 40
0.625
  1
6.812
 41
0.75
  7
TXT
 72
     4
 11
44.055999999999983
 21
2.9141669999999991
 31
0.0
  0
TEXT
  5
1943
  8
TEXT
 10
43.196624999999983
 20
1.5600000000000001
 30
0.0
 40
0.625
  1
7.812
 41
0.75
  7
TXT
 72
     4
 11
44.055999999999983
 21
1.8725000000000001
 31
0.0
  0
TEXT
  5
1944
  8
TEXT
 10
43.196624999999983
 20
0.518333
 30
0.0
 40
0.625
  1
7.812
 41
0.75
  7
TXT
 72
     4
 11
44.055999999999983
 21
0.8308329999999999
 31
0.0
  0
TEXT
  5
1945
  8
TEXT
 10
47.19637500000001
 20
2.6016669999999991
 30
0.0
 40
0.625
  1
12.781
 41
0.75
  7
TXT
 72
     4
 11
48.21200000000001
 21
2.9141669999999991
 31
0.0
  0
TEXT
  5
1946
  8
TEXT
 10
47.19637500000001
 20
1.5600000000000001
 30
0.0
 40
0.625
  1
13.781
 41
0.75
  7
TXT
 72
     4
 11
48.21200000000001
 21
1.8725000000000001
 31
0.0
  0
TEXT
  5
1947
  8
TEXT
 10
47.19637500000001
 20
0.5183330000000002
 30
0.0
 40
0.625
  1
15.781
 41
0.75
  7
TXT
 72
     4
 11
48.21200000000001
 21
0.8308329999999999
 31
0.0
  0
TEXT
  5
1948
  8
TEXT
 10
22.853999999999999
 20
6.7683330000000002
 30
0.0
 40
0.625
  1
PANEL SPACE
 41
0.75
  7
TXT
 72
     4
 11
25.353999999999999
 21
7.0808330000000002
 31
0.0
  0
TEXT
  5
1949
  8
TEXT
 10
40.649874999999987
 20
6.7683330000000002
 30
0.0
 40
0.625
  1
PANELS
 41
0.75
  7
TXT
 72
     4
 11
41.977999999999987
 21
7.0808330000000002
 31
0.0
  0
TEXT
  5
194A
  8
TEXT
 10
20.10425
 20
5.6735459999999991
 30
0.0
 40
0.625
  1
FRONT
 41
0.75
  7
TXT
 72
     4
 11
21.198
 21
5.9860459999999991
 31
0.0
  0
TEXT
  5
194B
  8
TEXT
 10
28.650625000000002
 20
5.6735459999999991
 30
0.0
 40
0.625
  1
REAR
 41
0.75
  7
TXT
 72
     4
 11
29.510000000000002
 21
5.9860459999999991
 31
0.0
  0
TEXT
  5
194C
  8
TEXT
 10
36.728249999999989
 20
5.6735459999999991
 30
0.0
 40
0.625
  1
FRONT
 41
0.75
  7
TXT
 72
     4
 11
37.821999999999989
 21
5.9860459999999991
 31
0.0
  0
TEXT
  5
194D
  8
TEXT
 10
45.274624999999993
 20
5.6735459999999991
 30
0.0
 40
0.625
  1
REAR
 41
0.75
  7
TXT
 72
     4
 11
46.133999999999993
 21
5.9860459999999991
 31
0.0
  0
TEXT
  5
194E
  8
TEXT
 10
10.77999999999999
 20
75.754999999999981
 30
0.0
 40
0.7800000000000003
  1
FUTURA CABINET
 41
0.75
  7
TXT
 72
     4
 11
14.679999999999991
 21
76.144999999999982
 31
0.0
  0
TEXT
  5
194F
  8
TEXT
 10
33.731249999999989
 20
75.754999999999981
 30
0.0
 40
0.7800000000000003
  1
MD-1960  THRU  MD-1962
 41
0.75
  7
TXT
 72
     4
 11
39.825000000000003
 21
76.144999999999982
 31
0.0
  0
POLYLINE
  5
1950
  8
BEND
 62
     7
 66
     1
 10
0.0
 20
0.0
 30
0.0
 41
0.391875
  0
VERTEX
  5
1ACB
  8
BEND
 62
     7
 10
11.60219499999998
 20
48.436458000000002
 30
0.0
  0
VERTEX
  5
1ACC
  8
BEND
 62
     7
 10
12.385945
 20
48.436458000000002
 30
0.0
 40
0.0418
 41
0.0418
  0
VERTEX
  5
1ACD
  8
BEND
 62
     7
 10
12.93549
 20
48.436458000000002
 30
0.0
 40
0.0418
 41
0.0418
  0
VERTEX
  5
1ACE
  8
BEND
 62
     7
 10
12.93549
 20
57.146788000000001
 30
0.0
 40
0.0418
 41
0.0418
  0
VERTEX
  5
1ACF
  8
BEND
 62
     7
 10
12.385945
 20
57.146788000000001
 30
0.0
 40
0.391875
 41
0.0
  0
VERTEX
  5
1AD0
  8
BEND
 62
     7
 10
11.60219499999998
 20
57.146788000000001
 30
0.0
 41
0.0
  0
SEQEND
  5
1AD1
  8
BEND
 62
     7
  0
INSERT
  5
1958
  8
TEXT
 62
     7
 66
     1
  2
SECTION
 10
13.503178
 20
48.436458000000002
 30
0.0
 41
2.0899999999999981
 42
2.0899999999999981
 43
2.0899999999999981
 50
90.0
  0
ATTRIB
  5
1959
  8
0
 10
13.206035142857139
 20
48.046458000000001
 30
0.0
 40
0.7800000000000003
  1
A
 41
0.8
  7
SECTION
 72
     4
 11
13.503178
 21
48.436458000000002
 31
0.0
  2
SECTION
 70
     0
  0
SEQEND
  5
195A
  8
TEXT
 62
     7
  0
INSERT
  5
195B
  8
TEXT
 62
     7
 66
     1
  2
SECTION
 10
13.503178
 20
57.146788000000001
 30
0.0
 41
2.0899999999999981
 42
2.0899999999999981
 43
2.0899999999999981
 50
90.0
  0
ATTRIB
  5
195C
  8
0
 10
13.206035142857139
 20
56.756788
 30
0.0
 40
0.7800000000000003
  1
A
 41
0.8
  7
SECTION
 72
     4
 11
13.503178
 21
57.146788000000001
 31
0.0
  2
SECTION
 70
     0
  0
SEQEND
  5
195D
  8
TEXT
 62
     7
  0
TEXT
  5
195E
  8
TEXT
 62
     7
 10
1.5043399999999989
 20
10.65510699999999
 30
0.0
 40
0.625
  1
(HOLES IN PANEL ARE FOR HANGING
 41
0.75
  7
TXT
 72
     1
 11
8.4574649999999991
 21
10.65510699999999
 31
0.0
  0
TEXT
  5
195F
  8
TEXT
 62
     7
 10
1.7387149999999989
 20
9.6134400000000007
 30
0.0
 40
0.625
  1
DURING THE FINISHING OPERATION)
 41
0.75
  7
TXT
 72
     1
 11
8.4574649999999991
 21
9.6134400000000007
 31
0.0
  0
TEXT
  5
1960
  8
DIM
 62
     7
 10
35.924253999999991
 20
47.500867999999997
 30
0.0
 40
0.625
  1
RUBBER FEET
 41
0.75
  7
TXT
  0
POLYLINE
  5
1961
  8
DIM
 62
     7
 66
     1
 10
0.0
 20
0.0
 30
0.0
 41
0.3375
  0
VERTEX
  5
1AD2
  8
DIM
 62
     7
 10
33.372871999999987
 20
49.084946000000002
 30
0.0
  0
VERTEX
  5
1AD3
  8
DIM
 62
     7
 10
34.016596
 20
48.455964000000002
 30
0.0
 41
0.0
  0
VERTEX
  5
1AD4
  8
DIM
 62
     7
 10
34.674253999999991
 20
47.813367999999997
 30
0.0
 41
0.0
  0
VERTEX
  5
1AD5
  8
DIM
 62
     7
 10
35.299253999999991
 20
47.813367999999997
 30
0.0
 41
0.0
  0
SEQEND
  5
1AD6
  8
DIM
 62
     7
  0
TEXT
  5
1967
  8
DIM
 62
     7
 10
7.0441279999999971
 20
47.386247999999988
 30
0.0
 40
0.625
  1
REMOVABLE
 41
0.75
  7
TXT
  0
POLYLINE
  5
1968
  8
DIM
 62
     7
 66
     1
 10
0.0
 20
0.0
 30
0.0
 41
0.3375
  0
VERTEX
  5
1AD7
  8
DIM
 62
     7
 10
4.1639169999999961
 20
49.291623000000001
 30
0.0
  0
VERTEX
  5
1AD8
  8
DIM
 62
     7
 10
4.8076419999999986
 20
48.662641000000001
 30
0.0
 41
0.0
  0
VERTEX
  5
1AD9
  8
DIM
 62
     7
 10
5.7941279999999971
 20
47.698747999999988
 30
0.0
 41
0.0
  0
VERTEX
  5
1ADA
  8
DIM
 62
     7
 10
6.4191279999999971
 20
47.698747999999988
 30
0.0
 41
0.0
  0
SEQEND
  5
1ADB
  8
DIM
 62
     7
  0
TEXT
  5
196E
  8
DIM
 62
     7
 10
7.0441279999999971
 20
46.344580999999977
 30
0.0
 40
0.625
  1
BOTTOM
 41
0.75
  7
TXT
  0
LINE
  5
196F
  8
TEXT
 10
15.908200000000001
 20
67.307028000000003
 30
0.0
 11
17.481801000000001
 21
67.307028000000003
 31
0.0
  0
TEXT
  5
1970
  8
TEXT
 10
4.1613610000000003
 20
66.282358000000002
 30
0.0
 40
0.625
  1
RUBBER FEET
 41
0.75
  7
TXT
  0
LINE
  5
1971
  8
TEXT
 10
15.908200000000001
 20
66.312269999999984
 30
0.0
 11
17.481801000000001
 21
66.312269999999984
 31
0.0
  0
LINE
  5
1972
  8
TEXT
 10
15.908200000000001
 20
67.307028000000003
 30
0.0
 11
17.481801000000001
 21
67.307028000000003
 31
0.0
  0
LINE
  5
1973
  8
TEXT
 10
9.5555319999999995
 20
66.312269999999984
 30
0.0
 11
17.481801000000001
 21
66.312269999999984
 31
0.0
  0
TEXT
  5
1974
  8
TEXT
 10
18.095537
 20
66.314577
 30
0.0
 40
0.625
  1
GRAY
 41
0.75
  7
TXT
  0
TEXT
  5
1975
  8
TEXT
 10
3.811275999999999
 20
64.152116000000007
 30
0.0
 40
0.625
  1
BOTTOM AND REAR PANEL ASSEMBLED WITH #6 x 1/4 LG. SELF TAPPING SCREWS.
 41
0.75
  7
TXT
  0
ENDSEC
  0
EOF
