  0
SECTION
  2
HEADER
  9
$ACADVER
  1
AC1009
  9
$INSBASE
 10
0.0
 20
0.0
 30
0.0
  9
$EXTMIN
 10
0.0
 20
-0.0000000000000027
 30
0.0
  9
$EXTMAX
 10
15.179999999999991
 20
23.25
 30
0.0
  9
$LIMMIN
 10
0.0
 20
0.0
  9
$LIMMAX
 10
15.179999999999991
 20
23.249999999999979
  9
$ORTHOMODE
 70
     1
  9
$REGENMODE
 70
     0
  9
$FILLMODE
 70
     1
  9
$QTEXTMODE
 70
     0
  9
$MIRRTEXT
 70
     0
  9
$DRAGMODE
 70
     2
  9
$LTSCALE
 40
0.5
  9
$OSMODE
 70
   229
  9
$ATTMODE
 70
     1
  9
$TEXTSIZE
 40
0.25
  9
$TRACEWID
 40
0.05
  9
$TEXTSTYLE
  7
TXT
  9
$CLAYER
  8
OBJECT
  9
$CELTYPE
  6
BYLAYER
  9
$CECOLOR
 62
   256
  9
$DIMSCALE
 40
1.5
  9
$DIMASZ
 40
0.18
  9
$DIMEXO
 40
0.063
  9
$DIMDLI
 40
0.281
  9
$DIMRND
 40
0.0
  9
$DIMDLE
 40
0.0
  9
$DIMEXE
 40
0.093
  9
$DIMTP
 40
0.0
  9
$DIMTM
 40
0.0
  9
$DIMTXT
 40
0.125
  9
$DIMCEN
 40
0.09
  9
$DIMTSZ
 40
0.0
  9
$DIMTOL
 70
     0
  9
$DIMLIM
 70
     0
  9
$DIMTIH
 70
     1
  9
$DIMTOH
 70
     1
  9
$DIMSE1
 70
     0
  9
$DIMSE2
 70
     0
  9
$DIMTAD
 70
     0
  9
$DIMZIN
 70
     0
  9
$DIMBLK
  1

  9
$DIMASO
 70
     1
  9
$DIMSHO
 70
     1
  9
$DIMPOST
  1

  9
$DIMAPOST
  1

  9
$DIMALT
 70
     0
  9
$DIMALTD
 70
     2
  9
$DIMALTF
 40
25.399999999999999
  9
$DIMLFAC
 40
1.0
  9
$DIMTOFL
 70
     0
  9
$DIMTVP
 40
0.0
  9
$DIMTIX
 70
     0
  9
$DIMSOXD
 70
     0
  9
$DIMSAH
 70
     0
  9
$DIMBLK1
  1

  9
$DIMBLK2
  1

  9
$DIMSTYLE
  2
23NSTD
  9
$DIMCLRD
 70
     0
  9
$DIMCLRE
 70
     0
  9
$DIMCLRT
 70
     0
  9
$DIMTFAC
 40
1.0
  9
$DIMGAP
 40
0.09
  9
$LUNITS
 70
     2
  9
$LUPREC
 70
     3
  9
$SKETCHINC
 40
0.1
  9
$FILLETRAD
 40
0.0
  9
$AUNITS
 70
     0
  9
$AUPREC
 70
     0
  9
$MENU
  1
acad
  9
$ELEVATION
 40
0.0
  9
$PELEVATION
 40
0.0
  9
$THICKNESS
 40
0.0
  9
$LIMCHECK
 70
     0
  9
$BLIPMODE
 70
     0
  9
$CHAMFERA
 40
0.0
  9
$CHAMFERB
 40
0.0
  9
$SKPOLY
 70
     0
  9
$TDCREATE
 40
2450287.6180967591
  9
$TDUPDATE
 40
2456120.6088264929
  9
$TDINDWG
 40
0.1930599653
  9
$TDUSRTIMER
 40
0.1930594213
  9
$USRTIMER
 70
     1
  9
$ANGBASE
 50
0.0
  9
$ANGDIR
 70
     0
  9
$PDMODE
 70
     0
  9
$PDSIZE
 40
0.0
  9
$PLINEWID
 40
0.0
  9
$COORDS
 70
     2
  9
$SPLFRAME
 70
     0
  9
$SPLINETYPE
 70
     6
  9
$SPLINESEGS
 70
     8
  9
$ATTDIA
 70
     0
  9
$ATTREQ
 70
     1
  9
$HANDLING
 70
  4097
  9
$HANDSEED
  5
5C1
  9
$SURFTAB1
 70
     6
  9
$SURFTAB2
 70
     6
  9
$SURFTYPE
 70
     6
  9
$SURFU
 70
     6
  9
$SURFV
 70
     6
  9
$UCSNAME
  2

  9
$UCSORG
 10
0.0
 20
0.0
 30
0.0
  9
$UCSXDIR
 10
1.0
 20
0.0
 30
0.0
  9
$UCSYDIR
 10
0.0
 20
1.0
 30
0.0
  9
$PUCSNAME
  2

  9
$PUCSORG
 10
0.0
 20
0.0
 30
0.0
  9
$PUCSXDIR
 10
1.0
 20
0.0
 30
0.0
  9
$PUCSYDIR
 10
0.0
 20
1.0
 30
0.0
  9
$USERI1
 70
     0
  9
$USERI2
 70
     0
  9
$USERI3
 70
     0
  9
$USERI4
 70
     0
  9
$USERI5
 70
     0
  9
$USERR1
 40
0.0
  9
$USERR2
 40
0.0
  9
$USERR3
 40
0.0
  9
$USERR4
 40
0.0
  9
$USERR5
 40
0.0
  9
$WORLDVIEW
 70
     1
  9
$SHADEDGE
 70
     3
  9
$SHADEDIF
 70
    70
  9
$TILEMODE
 70
     1
  9
$MAXACTVP
 70
    16
  9
$PLIMCHECK
 70
     0
  9
$PEXTMIN
 10
1.0000000000000000E+020
 20
1.0000000000000000E+020
 30
1.0000000000000000E+020
  9
$PEXTMAX
 10
-1.0000000000000000E+020
 20
-1.0000000000000000E+020
 30
-1.0000000000000000E+020
  9
$PLIMMIN
 10
0.0
 20
0.0
  9
$PLIMMAX
 10
12.0
 20
9.0
  9
$UNITMODE
 70
     0
  9
$VISRETAIN
 70
     0
  9
$PLINEGEN
 70
     0
  9
$PSLTSCALE
 70
     1
  0
ENDSEC
  0
SECTION
  2
TABLES
  0
TABLE
  2
VPORT
 70
     2
  0
VPORT
  2
*ACTIVE
 70
     0
 10
0.0
 20
0.0
 11
1.0
 21
1.0
 12
7.5900000353436878
 22
11.625000054133119
 13
0.0
 23
0.0
 14
0.5
 24
0.5
 15
0.0
 25
0.0
 16
0.0
 26
0.0
 36
1.0
 17
0.0
 27
0.0
 37
0.0
 40
23.485493755982301
 41
1.8369747899159661
 42
50.0
 43
0.0
 44
0.0
 50
0.0
 51
0.0
 71
     0
 72
   500
 73
     1
 74
     0
 75
     0
 76
     0
 77
     0
 78
     2
  0
ENDTAB
  0
TABLE
  2
LTYPE
 70
     6
  0
LTYPE
  2
CONTINUOUS
 70
     0
  3
Solid line
 72
    65
 73
     0
 40
0.0
  0
LTYPE
  2
HIDDEN
 70
     0
  3
_ _ _ _ _ _ _ _ _ _ _ _ _ _ _ _ _ _ _ _ _ _ _
 72
    65
 73
     2
 40
0.375
 49
0.25
 49
-0.125
  0
LTYPE
  2
PHANTOM
 70
     0
  3
_____ _ _ _____ _ _ _____ _ _ _____ _ _ ____
 72
    65
 73
     6
 40
2.5
 49
1.25
 49
-0.25
 49
0.25
 49
-0.25
 49
0.25
 49
-0.25
  0
LTYPE
  2
CENTER
 70
     0
  3
____ _ ____ _ ____ _ ____ _ ____ _ ____ _ ____
 72
    65
 73
     4
 40
2.0
 49
1.25
 49
-0.25
 49
0.25
 49
-0.25
  0
LTYPE
  2
HIDDEN2
 70
     0
  3
_ _ _ _ _ _ _ _ _ _ _ _ _ _ _ _ _ _ _ _ _ _ _ _
 72
    65
 73
     2
 40
0.1875
 49
0.125
 49
-0.0625
  0
LTYPE
  2
PHANTOM2
 70
     0
  3
___ _ _ ___ _ _ ___ _ _ ___ _ _ ___ _ _ ___ _ _
 72
    65
 73
     6
 40
1.25
 49
0.625
 49
-0.125
 49
0.125
 49
-0.125
 49
0.125
 49
-0.125
  0
ENDTAB
  0
TABLE
  2
LAYER
 70
     9
  0
LAYER
  2
0
 70
     0
 62
     7
  6
CONTINUOUS
  0
LAYER
  2
OBJECT
 70
     0
 62
     7
  6
CONTINUOUS
  0
LAYER
  2
DIM
 70
     0
 62
     7
  6
CONTINUOUS
  0
LAYER
  2
HIDDEN
 70
     0
 62
     7
  6
HIDDEN
  0
LAYER
  2
BEND
 70
     0
 62
     7
  6
PHANTOM
  0
LAYER
  2
TEXT
 70
     0
 62
     7
  6
CONTINUOUS
  0
LAYER
  2
TITLE
 70
     0
 62
     7
  6
CONTINUOUS
  0
LAYER
  2
CENTER
 70
     0
 62
     7
  6
CENTER
  0
LAYER
  2
DEFPOINTS
 70
     0
 62
     7
  6
CONTINUOUS
  0
ENDTAB
  0
TABLE
  2
STYLE
 70
     2
  0
STYLE
  2
STANDARD
 70
     0
 40
0.0
 41
1.0
 50
0.0
 71
     0
 42
0.2
  3
txt
  4

  0
STYLE
  2
TXT
 70
     0
 40
0.0
 41
0.75
 50
0.0
 71
     0
 42
0.25
  3
TXT.shx
  4

  0
ENDTAB
  0
TABLE
  2
VIEW
 70
     0
  0
ENDTAB
  0
TABLE
  2
UCS
 70
     0
  0
ENDTAB
  0
TABLE
  2
APPID
 70
     1
  0
APPID
  2
ACAD
 70
     0
  0
ENDTAB
  0
TABLE
  2
DIMSTYLE
 70
     2
  0
DIMSTYLE
  2
23NSTD
 70
     0
  3

  4

  5

  6

  7

 40
1.5
 41
0.18
 42
0.063
 43
0.281
 44
0.093
 45
0.0
 46
0.0
 47
0.0
 48
0.0
140
0.125
141
0.09
142
0.0
143
25.399999999999999
144
1.0
145
0.0
146
1.0
147
0.09
 71
     0
 72
     0
 73
     1
 74
     1
 75
     0
 76
     0
 77
     0
 78
     0
170
     0
171
     2
172
     0
173
     0
174
     0
175
     0
176
     0
177
     0
178
     0
  0
DIMSTYLE
  2
23NSTDI
 70
     0
  3

  4

  5

  6

  7

 40
1.5
 41
0.18
 42
0.063
 43
0.281
 44
0.093
 45
0.0
 46
0.0
 47
0.0
 48
0.0
140
0.125
141
0.09
142
0.0
143
25.399999999999999
144
1.0
145
0.0
146
1.0
147
0.09
 71
     0
 72
     0
 73
     1
 74
     1
 75
     0
 76
     0
 77
     0
 78
     0
170
     0
171
     2
172
     0
173
     0
174
     1
175
     0
176
     0
177
     0
178
     0
  0
ENDTAB
  0
ENDSEC
  0
SECTION
  2
BLOCKS
  0
BLOCK
  8
0
  2
$MODEL_SPACE
 70
     0
 10
0.0
 20
0.0
 30
0.0
  3
$MODEL_SPACE
  1

  0
ENDBLK
  5
41
  8
0
  0
BLOCK
 67
     1
  8
0
  2
$PAPER_SPACE
 70
     0
 10
0.0
 20
0.0
 30
0.0
  3
$PAPER_SPACE
  1

  0
ENDBLK
  5
3F
 67
     1
  8
0
  0
BLOCK
  8
0
  2
HB
 70
     0
 10
0.0
 20
0.0
 30
0.0
  3
HB
  1

  0
LINE
  5
2D6
  8
TITLE
 10
0.0
 20
15.5
 30
0.0
 11
10.11999999999999
 21
15.499999999999989
 31
0.0
  0
LINE
  5
2D7
  8
TITLE
 10
10.11999999999999
 20
-0.0000000000000018
 30
0.0
 11
0.0
 21
0.0
 31
0.0
  0
LINE
  5
2D8
  8
TITLE
 10
0.0620000000000012
 20
15.438000000000001
 30
0.0
 11
10.058
 21
15.438000000000001
 31
0.0
  0
LINE
  5
2D9
  8
TITLE
 10
10.058
 20
0.0619999999999994
 30
0.0
 11
0.0619999999999976
 21
0.0620000000000012
 31
0.0
  0
LINE
  5
2DA
  8
TITLE
 10
0.0620000000000012
 20
15.019999999999991
 30
0.0
 11
10.058
 21
15.019999999999991
 31
0.0
  0
LINE
  5
2DB
  8
TITLE
 10
0.0
 20
0.0
 30
0.0
 11
0.0
 21
15.5
 31
0.0
  0
LINE
  5
2DC
  8
TITLE
 10
0.0619999999999976
 20
0.0620000000000012
 30
0.0
 11
0.0620000000000012
 21
15.438000000000001
 31
0.0
  0
TEXT
  5
2DD
  8
TEXT
 10
0.2078333333333381
 20
15.268412528973411
 30
0.0
 40
0.125
  1
PART
  7
TXT
 72
     1
 11
0.4370000000000048
 21
15.268412528973411
 31
0.0
  0
TEXT
  5
2DE
  8
TEXT
 10
0.2078333333333381
 20
15.06007919564008
 30
0.0
 40
0.125
  1
NAME
  7
TXT
 72
     1
 11
0.4370000000000048
 21
15.06007919564008
 31
0.0
  0
LINE
  5
2DF
  8
TITLE
 10
0.8120000000000047
 20
15.019999999999991
 30
0.0
 11
0.8120000000000011
 21
15.438000000000001
 31
0.0
  0
LINE
  5
2E0
  8
TITLE
 10
10.11999999999999
 20
15.499999999999989
 30
0.0
 11
10.11999999999999
 21
-0.0000000000000018
 31
0.0
  0
LINE
  5
2E1
  8
TITLE
 10
10.058
 20
15.438000000000001
 30
0.0
 11
10.058
 21
0.0619999999999994
 31
0.0
  0
TEXT
  5
2E2
  8
TEXT
 10
4.3618333333333297
 20
15.268412528973411
 30
0.0
 40
0.125
  1
PART
  7
TXT
 72
     1
 11
4.5909999999999966
 21
15.268412528973411
 31
0.0
  0
LINE
  5
2E3
  8
TITLE
 10
4.153999999999999
 20
15.438000000000001
 30
0.0
 11
4.153999999999999
 21
15.019999999999991
 31
0.0
  0
LINE
  5
2E4
  8
TITLE
 10
4.2159999999999966
 20
15.438000000000001
 30
0.0
 11
4.2159999999999966
 21
15.019999999999991
 31
0.0
  0
TEXT
  5
2E5
  8
TEXT
 10
4.4659999999999966
 20
15.06007919564008
 30
0.0
 40
0.125
  1
No.
  7
TXT
 72
     1
 11
4.5909999999999966
 21
15.06007919564008
 31
0.0
  0
LINE
  5
2E6
  8
TITLE
 10
4.9659999999999966
 20
15.438000000000001
 30
0.0
 11
4.9659999999999966
 21
15.019999999999991
 31
0.0
  0
LINE
  5
2E7
  8
TITLE
 10
8.3079999999999998
 20
15.438000000000001
 30
0.0
 11
8.3079999999999998
 21
15.02
 31
0.0
  0
LINE
  5
2E8
  8
TITLE
 10
8.245999999999988
 20
15.438000000000001
 30
0.0
 11
8.245999999999988
 21
15.02
 31
0.0
  0
TEXT
  5
2E9
  8
TEXT
 10
8.4538333333333338
 20
15.06007919564008
 30
0.0
 40
0.125
  1
DATE
  7
TXT
 72
     1
 11
8.6829999999999998
 21
15.06007919564008
 31
0.0
  0
TEXT
  5
2EA
  8
TEXT
 10
8.4746666666666641
 20
15.268412528973411
 30
0.0
 40
0.125
  1
REV.
  7
TXT
 72
     1
 11
8.6829999999999998
 21
15.268412528973411
 31
0.0
  0
LINE
  5
2EB
  8
TITLE
 10
9.0579999999999998
 20
15.438000000000001
 30
0.0
 11
9.0579999999999998
 21
15.02
 31
0.0
  0
ENDBLK
  5
55
  8
0
  0
BLOCK
  8
0
  2
*D1
 70
     1
 10
0.0
 20
0.0
 30
0.0
  3
*D1
  1

  0
LINE
  5
4D8
  8
DIM
 62
     0
 10
5.7853477539116849
 20
17.145951814694509
 30
0.0
 11
5.7853477539116849
 21
17.705474454537651
 31
0.0
  0
LINE
  5
4D9
  8
DIM
 62
     0
 10
7.8163477539116837
 20
17.145951814694509
 30
0.0
 11
7.8163477539116837
 21
17.705474454537651
 31
0.0
  0
LINE
  5
4DA
  8
DIM
 62
     0
 10
6.0553477539116862
 20
17.565974454537638
 30
0.0
 11
6.6189727539116854
 21
17.565974454537638
 31
0.0
  0
LINE
  5
4DB
  8
DIM
 62
     0
 10
7.5463477539116841
 20
17.565974454537638
 30
0.0
 11
6.9827227539116841
 21
17.565974454537638
 31
0.0
  0
SOLID
  5
4DC
  8
DIM
 62
     0
 10
6.0553477539116862
 20
17.610974454537651
 30
0.0
 11
6.0553477539116862
 21
17.52097445453764
 31
0.0
 12
5.7853477539116849
 22
17.565974454537638
 32
0.0
 13
5.7853477539116849
 23
17.565974454537638
 33
0.0
  0
SOLID
  5
4DD
  8
DIM
 62
     0
 10
7.5463477539116841
 20
17.610974454537651
 30
0.0
 11
7.5463477539116841
 21
17.52097445453764
 31
0.0
 12
7.8163477539116837
 22
17.565974454537638
 32
0.0
 13
7.8163477539116837
 23
17.565974454537638
 33
0.0
  0
TEXT
  5
4DE
  8
OBJECT
 62
     0
 10
6.7539727539116852
 20
17.472224454537649
 30
0.0
 40
0.1875
  1
G
 41
0.75
  7
TXT
  0
POINT
  5
4DF
  8
DEFPOINTS
 62
     0
 10
5.7853477539116849
 20
17.051451814694499
 30
0.0
  0
POINT
  5
4E0
  8
DEFPOINTS
 62
     0
 10
7.8163477539116837
 20
17.051451814694499
 30
0.0
  0
POINT
  5
4E1
  8
DEFPOINTS
 62
     0
 10
7.8163477539116837
 20
17.565974454537638
 30
0.0
  0
ENDBLK
  5
305
  8
0
  0
BLOCK
  8
0
  2
*D2
 70
     1
 10
0.0
 20
0.0
 30
0.0
  3
*D2
  1

  0
LINE
  5
3F7
  8
DIM
 62
     0
 10
5.7853477539116831
 20
7.9941235352462678
 30
0.0
 11
5.7853477539116831
 21
7.5276604051168494
 31
0.0
  0
LINE
  5
3F8
  8
DIM
 62
     0
 10
7.9103477539116849
 20
7.9941235352462678
 30
0.0
 11
7.9103477539116849
 21
7.5276604051168494
 31
0.0
  0
LINE
  5
3F9
  8
DIM
 62
     0
 10
6.0553477539116836
 20
7.6671604051168494
 30
0.0
 11
6.6659727539116851
 21
7.6671604051168494
 31
0.0
  0
LINE
  5
3FA
  8
DIM
 62
     0
 10
7.6403477539116853
 20
7.6671604051168494
 30
0.0
 11
7.0297227539116838
 21
7.6671604051168494
 31
0.0
  0
SOLID
  5
3FB
  8
DIM
 62
     0
 10
6.0553477539116836
 20
7.7121604051168493
 30
0.0
 11
6.0553477539116836
 21
7.6221604051168486
 31
0.0
 12
5.7853477539116831
 22
7.6671604051168494
 32
0.0
 13
5.7853477539116831
 23
7.6671604051168494
 33
0.0
  0
SOLID
  5
3FC
  8
DIM
 62
     0
 10
7.6403477539116853
 20
7.7121604051168493
 30
0.0
 11
7.6403477539116853
 21
7.6221604051168486
 31
0.0
 12
7.9103477539116849
 22
7.6671604051168494
 32
0.0
 13
7.9103477539116849
 23
7.6671604051168494
 33
0.0
  0
TEXT
  5
3FD
  8
OBJECT
 62
     0
 10
6.800972753911684
 20
7.5734104051168494
 30
0.0
 40
0.1875
  1
B
 41
0.75
  7
TXT
  0
POINT
  5
3FE
  8
DEFPOINTS
 62
     0
 10
5.7853477539116831
 20
8.0886235352462688
 30
0.0
  0
POINT
  5
3FF
  8
DEFPOINTS
 62
     0
 10
7.9103477539116849
 20
8.0886235352462688
 30
0.0
  0
POINT
  5
400
  8
DEFPOINTS
 62
     0
 10
7.9103477539116849
 20
7.6671604051168494
 30
0.0
  0
ENDBLK
  5
312
  8
0
  0
BLOCK
  8
0
  2
*D3
 70
     1
 10
0.0
 20
0.0
 30
0.0
  3
*D3
  1

  0
LINE
  5
4F6
  8
DIM
 62
     0
 10
1.772666230828535
 20
9.8081235352462581
 30
0.0
 11
1.772666230828535
 21
10.6779564161587
 31
0.0
  0
LINE
  5
4F7
  8
DIM
 62
     0
 10
2.147666230828535
 20
9.8081235352462581
 30
0.0
 11
2.147666230828535
 21
10.6779564161587
 31
0.0
  0
LINE
  5
4F8
  8
DIM
 62
     0
 10
1.502666230828535
 20
10.5384564161587
 30
0.0
 11
1.232666230828535
 21
10.5384564161587
 31
0.0
  0
LINE
  5
4F9
  8
DIM
 62
     0
 10
2.417666230828535
 20
10.5384564161587
 30
0.0
 11
2.6876662308285351
 21
10.5384564161587
 31
0.0
  0
SOLID
  5
4FA
  8
DIM
 62
     0
 10
1.502666230828535
 20
10.5834564161587
 30
0.0
 11
1.502666230828535
 21
10.493456416158701
 31
0.0
 12
1.772666230828535
 22
10.5384564161587
 32
0.0
 13
1.772666230828535
 23
10.5384564161587
 33
0.0
  0
SOLID
  5
4FB
  8
DIM
 62
     0
 10
2.417666230828535
 20
10.5834564161587
 30
0.0
 11
2.417666230828535
 21
10.493456416158701
 31
0.0
 12
2.147666230828535
 22
10.5384564161587
 32
0.0
 13
2.147666230828535
 23
10.5384564161587
 33
0.0
  0
TEXT
  5
4FC
  8
OBJECT
 62
     0
 10
2.822666230828534
 20
10.4447064161587
 30
0.0
 40
0.1875
  1
0.375
 41
0.75
  7
TXT
  0
POINT
  5
4FD
  8
DEFPOINTS
 62
     0
 10
1.772666230828535
 20
9.7136235352462581
 30
0.0
  0
POINT
  5
4FE
  8
DEFPOINTS
 62
     0
 10
2.147666230828535
 20
9.7136235352462581
 30
0.0
  0
POINT
  5
4FF
  8
DEFPOINTS
 62
     0
 10
2.147666230828535
 20
10.5384564161587
 30
0.0
  0
ENDBLK
  5
31F
  8
0
  0
BLOCK
  8
0
  2
*D4
 70
     1
 10
0.0
 20
0.0
 30
0.0
  3
*D4
  1

  0
LINE
  5
40B
  8
DIM
 62
     0
 10
1.7726662308285359
 20
7.9941235352462661
 30
0.0
 11
1.7726662308285359
 21
7.5276604051168494
 31
0.0
  0
LINE
  5
40C
  8
DIM
 62
     0
 10
4.5226662308285368
 20
7.9941235352462661
 30
0.0
 11
4.5226662308285368
 21
7.5276604051168494
 31
0.0
  0
LINE
  5
40D
  8
DIM
 62
     0
 10
2.0426662308285359
 20
7.6671604051168494
 30
0.0
 11
2.965791230828537
 21
7.6671604051168494
 31
0.0
  0
LINE
  5
40E
  8
DIM
 62
     0
 10
4.2526662308285381
 20
7.6671604051168494
 30
0.0
 11
3.329541230828537
 21
7.6671604051168494
 31
0.0
  0
SOLID
  5
40F
  8
DIM
 62
     0
 10
2.0426662308285359
 20
7.7121604051168493
 30
0.0
 11
2.0426662308285359
 21
7.6221604051168486
 31
0.0
 12
1.7726662308285359
 22
7.6671604051168494
 32
0.0
 13
1.7726662308285359
 23
7.6671604051168494
 33
0.0
  0
SOLID
  5
410
  8
DIM
 62
     0
 10
4.2526662308285381
 20
7.7121604051168493
 30
0.0
 11
4.2526662308285381
 21
7.6221604051168486
 31
0.0
 12
4.5226662308285368
 22
7.6671604051168494
 32
0.0
 13
4.5226662308285368
 23
7.6671604051168494
 33
0.0
  0
TEXT
  5
411
  8
OBJECT
 62
     0
 10
3.1007912308285368
 20
7.5734104051168494
 30
0.0
 40
0.1875
  1
A
 41
0.75
  7
TXT
  0
POINT
  5
412
  8
DEFPOINTS
 62
     0
 10
1.7726662308285359
 20
8.0886235352462652
 30
0.0
  0
POINT
  5
413
  8
DEFPOINTS
 62
     0
 10
4.5226662308285368
 20
8.0886235352462652
 30
0.0
  0
POINT
  5
414
  8
DEFPOINTS
 62
     0
 10
4.5226662308285368
 20
7.6671604051168494
 30
0.0
  0
ENDBLK
  5
32C
  8
0
  0
BLOCK
  8
0
  2
*D5
 70
     1
 10
0.0
 20
0.0
 30
0.0
  3
*D5
  1

  0
LINE
  5
401
  8
DIM
 62
     0
 10
1.6781662308285339
 20
9.7136235352462581
 30
0.0
 11
1.141334258482513
 21
9.7136235352462581
 31
0.0
  0
LINE
  5
402
  8
DIM
 62
     0
 10
1.6781662308285339
 20
8.0886235352462652
 30
0.0
 11
1.141334258482513
 21
8.0886235352462652
 31
0.0
  0
LINE
  5
403
  8
DIM
 62
     0
 10
1.280834258482513
 20
9.4436235352462585
 30
0.0
 11
1.280834258482513
 21
9.1298735352462632
 31
0.0
  0
LINE
  5
404
  8
DIM
 62
     0
 10
1.2808342584825121
 20
8.3586235352462666
 30
0.0
 11
1.280834258482513
 21
8.6723735352462636
 31
0.0
  0
SOLID
  5
405
  8
DIM
 62
     0
 10
1.235834258482513
 20
9.4436235352462585
 30
0.0
 11
1.3258342584825129
 21
9.4436235352462585
 31
0.0
 12
1.280834258482513
 22
9.7136235352462581
 32
0.0
 13
1.280834258482513
 23
9.7136235352462581
 33
0.0
  0
SOLID
  5
406
  8
DIM
 62
     0
 10
1.235834258482513
 20
8.3586235352462666
 30
0.0
 11
1.325834258482512
 21
8.3586235352462666
 31
0.0
 12
1.2808342584825121
 22
8.0886235352462652
 32
0.0
 13
1.2808342584825121
 23
8.0886235352462652
 33
0.0
  0
TEXT
  5
407
  8
OBJECT
 62
     0
 10
1.233959258482511
 20
8.8073735352462634
 30
0.0
 40
0.1875
  1
C
 41
0.75
  7
TXT
  0
POINT
  5
408
  8
DEFPOINTS
 62
     0
 10
1.772666230828535
 20
9.7136235352462581
 30
0.0
  0
POINT
  5
409
  8
DEFPOINTS
 62
     0
 10
1.772666230828535
 20
8.0886235352462652
 30
0.0
  0
POINT
  5
40A
  8
DEFPOINTS
 62
     0
 10
1.2808342584825121
 20
8.0886235352462652
 30
0.0
  0
ENDBLK
  5
339
  8
0
  0
BLOCK
  8
0
  2
*D6
 70
     1
 10
0.0
 20
0.0
 30
0.0
  3
*D6
  1

  0
LINE
  5
3EC
  8
DIM
 62
     0
 10
4.6171662308285351
 20
9.7136235352462581
 30
0.0
 11
5.2599474943933426
 21
9.7136235352462581
 31
0.0
  0
LINE
  5
3ED
  8
DIM
 62
     0
 10
4.4140412308285351
 20
9.1198735352462599
 30
0.0
 11
5.2599474943933426
 21
9.1198735352462599
 31
0.0
  0
LINE
  5
3EE
  8
DIM
 62
     0
 10
5.1204474943933427
 20
9.9836235352462577
 30
0.0
 11
5.1204474943933436
 21
10.25362353524625
 31
0.0
  0
LINE
  5
3EF
  8
DIM
 62
     0
 10
5.1204474943933427
 20
8.8498735352462603
 30
0.0
 11
5.1204474943933427
 21
8.5798735352462572
 31
0.0
  0
SOLID
  5
3F0
  8
DIM
 62
     0
 10
5.0754474943933428
 20
9.9836235352462577
 30
0.0
 11
5.1654474943933426
 21
9.9836235352462577
 31
0.0
 12
5.1204474943933427
 22
9.7136235352462581
 32
0.0
 13
5.1204474943933427
 23
9.7136235352462581
 33
0.0
  0
SOLID
  5
3F1
  8
DIM
 62
     0
 10
5.0754474943933428
 20
8.8498735352462603
 30
0.0
 11
5.1654474943933426
 21
8.8498735352462603
 31
0.0
 12
5.1204474943933427
 22
9.1198735352462599
 32
0.0
 13
5.1204474943933427
 23
9.1198735352462599
 33
0.0
  0
TEXT
  5
3F2
  8
OBJECT
 62
     0
 10
5.0735724943933418
 20
9.3229985352462599
 30
0.0
 40
0.1875
  1
D
 41
0.75
  7
TXT
  0
POINT
  5
3F3
  8
DEFPOINTS
 62
     0
 10
4.522666230828535
 20
9.7136235352462581
 30
0.0
  0
POINT
  5
3F4
  8
DEFPOINTS
 62
     0
 10
4.319541230828535
 20
9.1198735352462599
 30
0.0
  0
POINT
  5
3F5
  8
DEFPOINTS
 62
     0
 10
5.1204474943933427
 20
9.1198735352462599
 30
0.0
  0
ENDBLK
  5
346
  8
0
  0
BLOCK
  8
0
  2
*D7
 70
     1
 10
0.0
 20
0.0
 30
0.0
  3
*D7
  1

  0
LINE
  5
50A
  8
DIM
 62
     0
 10
4.319541230828535
 20
9.2143735352462581
 30
0.0
 11
4.319541230828535
 21
10.2564564161587
 31
0.0
  0
LINE
  5
50B
  8
DIM
 62
     0
 10
4.147666230828535
 20
9.8081235352462581
 30
0.0
 11
4.147666230828535
 21
10.2564564161587
 31
0.0
  0
LINE
  5
50C
  8
DIM
 62
     0
 10
4.5895412308285346
 20
10.1169564161587
 30
0.0
 11
4.8595412308285351
 21
10.1169564161587
 31
0.0
  0
LINE
  5
50D
  8
DIM
 62
     0
 10
3.8776662308285341
 20
10.1169564161587
 30
0.0
 11
3.6076662308285341
 21
10.1169564161587
 31
0.0
  0
SOLID
  5
50E
  8
DIM
 62
     0
 10
4.5895412308285346
 20
10.1619564161587
 30
0.0
 11
4.5895412308285346
 21
10.071956416158701
 31
0.0
 12
4.319541230828535
 22
10.1169564161587
 32
0.0
 13
4.319541230828535
 23
10.1169564161587
 33
0.0
  0
SOLID
  5
50F
  8
DIM
 62
     0
 10
3.8776662308285341
 20
10.1619564161587
 30
0.0
 11
3.8776662308285341
 21
10.071956416158701
 31
0.0
 12
4.147666230828535
 22
10.1169564161587
 32
0.0
 13
4.147666230828535
 23
10.1169564161587
 33
0.0
  0
TEXT
  5
510
  8
OBJECT
 62
     0
 10
3.3789162308285352
 20
10.0232064161587
 30
0.0
 40
0.1875
  1
E
 41
0.75
  7
TXT
  0
POINT
  5
511
  8
DEFPOINTS
 62
     0
 10
4.319541230828535
 20
9.1198735352462599
 30
0.0
  0
POINT
  5
512
  8
DEFPOINTS
 62
     0
 10
4.147666230828535
 20
9.7136235352462581
 30
0.0
  0
POINT
  5
513
  8
DEFPOINTS
 62
     0
 10
4.147666230828535
 20
10.1169564161587
 30
0.0
  0
ENDBLK
  5
353
  8
0
  0
BLOCK
  8
0
  2
*D8
 70
     1
 10
0.0
 20
0.0
 30
0.0
  3
*D8
  1

  0
LINE
  5
4CE
  8
DIM
 62
     0
 10
4.4756662308285353
 20
17.145951814694509
 30
0.0
 11
4.4756662308285353
 21
17.705474454537651
 31
0.0
  0
LINE
  5
4CF
  8
DIM
 62
     0
 10
1.8196662308285341
 20
17.145951814694509
 30
0.0
 11
1.8196662308285341
 21
17.705474454537651
 31
0.0
  0
LINE
  5
4D0
  8
DIM
 62
     0
 10
4.2056662308285349
 20
17.565974454537638
 30
0.0
 11
3.3295412308285348
 21
17.565974454537638
 31
0.0
  0
LINE
  5
4D1
  8
DIM
 62
     0
 10
2.0896662308285352
 20
17.565974454537638
 30
0.0
 11
2.9657912308285348
 21
17.565974454537638
 31
0.0
  0
SOLID
  5
4D2
  8
DIM
 62
     0
 10
4.2056662308285349
 20
17.610974454537651
 30
0.0
 11
4.2056662308285349
 21
17.52097445453764
 31
0.0
 12
4.4756662308285353
 22
17.565974454537638
 32
0.0
 13
4.4756662308285353
 23
17.565974454537638
 33
0.0
  0
SOLID
  5
4D3
  8
DIM
 62
     0
 10
2.0896662308285352
 20
17.610974454537651
 30
0.0
 11
2.0896662308285352
 21
17.52097445453764
 31
0.0
 12
1.8196662308285341
 22
17.565974454537638
 32
0.0
 13
1.8196662308285341
 23
17.565974454537638
 33
0.0
  0
TEXT
  5
4D4
  8
OBJECT
 62
     0
 10
3.100791230828535
 20
17.472224454537649
 30
0.0
 40
0.1875
  1
F
 41
0.75
  7
TXT
  0
POINT
  5
4D5
  8
DEFPOINTS
 62
     0
 10
4.4756662308285353
 20
17.051451814694509
 30
0.0
  0
POINT
  5
4D6
  8
DEFPOINTS
 62
     0
 10
1.8196662308285341
 20
17.051451814694499
 30
0.0
  0
POINT
  5
4D7
  8
DEFPOINTS
 62
     0
 10
1.8196662308285341
 20
17.565974454537638
 30
0.0
  0
ENDBLK
  5
360
  8
0
  0
BLOCK
  8
0
  2
*D9
 70
     1
 10
0.0
 20
0.0
 30
0.0
  3
*D9
  1

  0
LINE
  5
4C4
  8
DIM
 62
     0
 10
1.725166230828534
 20
15.48945181469451
 30
0.0
 11
1.084017996826329
 21
15.48945181469451
 31
0.0
  0
LINE
  5
4C5
  8
DIM
 62
     0
 10
1.7251662308285349
 20
17.051451814694499
 30
0.0
 11
1.084017996826329
 21
17.051451814694499
 31
0.0
  0
LINE
  5
4C6
  8
DIM
 62
     0
 10
1.223517996826329
 20
15.75945181469451
 30
0.0
 11
1.223517996826329
 21
16.041701814694498
 31
0.0
  0
LINE
  5
4C7
  8
DIM
 62
     0
 10
1.223517996826329
 20
16.781451814694499
 30
0.0
 11
1.223517996826329
 21
16.499201814694509
 31
0.0
  0
SOLID
  5
4C8
  8
DIM
 62
     0
 10
1.1785179968263291
 20
15.75945181469451
 30
0.0
 11
1.2685179968263289
 21
15.75945181469451
 31
0.0
 12
1.223517996826329
 22
15.48945181469451
 32
0.0
 13
1.223517996826329
 23
15.48945181469451
 33
0.0
  0
SOLID
  5
4C9
  8
DIM
 62
     0
 10
1.1785179968263291
 20
16.781451814694499
 30
0.0
 11
1.2685179968263289
 21
16.781451814694499
 31
0.0
 12
1.223517996826329
 22
17.051451814694499
 32
0.0
 13
1.223517996826329
 23
17.051451814694499
 33
0.0
  0
TEXT
  5
4CA
  8
OBJECT
 62
     0
 10
1.176642996826327
 20
16.176701814694511
 30
0.0
 40
0.1875
  1
H
 41
0.75
  7
TXT
  0
POINT
  5
4CB
  8
DEFPOINTS
 62
     0
 10
1.8196662308285341
 20
15.48945181469451
 30
0.0
  0
POINT
  5
4CC
  8
DEFPOINTS
 62
     0
 10
1.819666230828535
 20
17.051451814694499
 30
0.0
  0
POINT
  5
4CD
  8
DEFPOINTS
 62
     0
 10
1.223517996826329
 20
17.051451814694499
 30
0.0
  0
ENDBLK
  5
36D
  8
0
  0
BLOCK
  8
0
  2
*D10
 70
     1
 10
0.0
 20
0.0
 30
0.0
  3
*D10
  1

  0
LINE
  5
4E2
  8
DIM
 62
     0
 10
4.4140412308285368
 20
16.457451814694512
 30
0.0
 11
5.2599474943933426
 21
16.457451814694512
 31
0.0
  0
LINE
  5
4E3
  8
DIM
 62
     0
 10
4.5701662308285362
 20
15.48945181469451
 30
0.0
 11
5.2599474943933426
 21
15.48945181469451
 31
0.0
  0
LINE
  5
4E4
  8
DIM
 62
     0
 10
5.1204474943933427
 20
16.727451814694511
 30
0.0
 11
5.1204474943933427
 21
16.997451814694511
 31
0.0
  0
LINE
  5
4E5
  8
DIM
 62
     0
 10
5.1204474943933427
 20
15.21945181469451
 30
0.0
 11
5.1204474943933427
 21
14.949451814694511
 31
0.0
  0
SOLID
  5
4E6
  8
DIM
 62
     0
 10
5.0754474943933428
 20
16.727451814694511
 30
0.0
 11
5.1654474943933426
 21
16.727451814694511
 31
0.0
 12
5.1204474943933427
 22
16.457451814694512
 32
0.0
 13
5.1204474943933427
 23
16.457451814694512
 33
0.0
  0
SOLID
  5
4E7
  8
DIM
 62
     0
 10
5.0754474943933428
 20
15.21945181469451
 30
0.0
 11
5.1654474943933426
 21
15.21945181469451
 31
0.0
 12
5.1204474943933427
 22
15.48945181469451
 32
0.0
 13
5.1204474943933427
 23
15.48945181469451
 33
0.0
  0
TEXT
  5
4E8
  8
OBJECT
 62
     0
 10
5.07357249439334
 20
15.87970181469451
 30
0.0
 40
0.1875
  1
J
 41
0.75
  7
TXT
  0
POINT
  5
4E9
  8
DEFPOINTS
 62
     0
 10
4.3195412308285368
 20
16.457451814694512
 30
0.0
  0
POINT
  5
4EA
  8
DEFPOINTS
 62
     0
 10
4.4756662308285362
 20
15.48945181469451
 30
0.0
  0
POINT
  5
4EB
  8
DEFPOINTS
 62
     0
 10
5.1204474943933427
 20
15.48945181469451
 30
0.0
  0
ENDBLK
  5
37A
  8
0
  0
BLOCK
  8
0
  2
*D11
 70
     1
 10
0.0
 20
0.0
 30
0.0
  3
*D11
  1

  0
LINE
  5
4EC
  8
DIM
 62
     0
 10
4.4756662308285362
 20
15.39495181469451
 30
0.0
 11
4.4756662308285362
 21
14.81258237852035
 31
0.0
  0
LINE
  5
4ED
  8
DIM
 62
     0
 10
4.3195412308285368
 20
16.362951814694512
 30
0.0
 11
4.3195412308285368
 21
14.81258237852035
 31
0.0
  0
LINE
  5
4EE
  8
DIM
 62
     0
 10
4.7456662308285358
 20
14.95208237852035
 30
0.0
 11
5.0156662308285362
 21
14.95208237852035
 31
0.0
  0
LINE
  5
4EF
  8
DIM
 62
     0
 10
4.0495412308285381
 20
14.95208237852035
 30
0.0
 11
3.7795412308285372
 21
14.95208237852035
 31
0.0
  0
SOLID
  5
4F0
  8
DIM
 62
     0
 10
4.7456662308285358
 20
14.99708237852035
 30
0.0
 11
4.7456662308285358
 21
14.90708237852035
 31
0.0
 12
4.4756662308285362
 22
14.95208237852035
 32
0.0
 13
4.4756662308285362
 23
14.95208237852035
 33
0.0
  0
SOLID
  5
4F1
  8
DIM
 62
     0
 10
4.0495412308285381
 20
14.99708237852035
 30
0.0
 11
4.0495412308285381
 21
14.90708237852035
 31
0.0
 12
4.3195412308285368
 22
14.95208237852035
 32
0.0
 13
4.3195412308285368
 23
14.95208237852035
 33
0.0
  0
TEXT
  5
4F2
  8
OBJECT
 62
     0
 10
3.550791230828537
 20
14.85833237852035
 30
0.0
 40
0.1875
  1
K
 41
0.75
  7
TXT
  0
POINT
  5
4F3
  8
DEFPOINTS
 62
     0
 10
4.4756662308285362
 20
15.48945181469451
 30
0.0
  0
POINT
  5
4F4
  8
DEFPOINTS
 62
     0
 10
4.3195412308285368
 20
16.457451814694512
 30
0.0
  0
POINT
  5
4F5
  8
DEFPOINTS
 62
     0
 10
4.3195412308285368
 20
14.95208237852035
 30
0.0
  0
ENDBLK
  5
387
  8
0
  0
ENDSEC
  0
SECTION
  2
ENTITIES
  0
LINE
  5
DA
  8
OBJECT
 10
1.772666230828537
 20
8.0886235352462652
 30
0.0
 11
4.5226662308285368
 21
8.0886235352462652
 31
0.0
  0
LINE
  5
DB
  8
OBJECT
 10
4.5226662308285368
 20
8.0886235352462652
 30
0.0
 11
4.5226662308285368
 21
9.7136235352462581
 31
0.0
  0
LINE
  5
DC
  8
OBJECT
 10
4.5226662308285368
 20
9.7136235352462581
 30
0.0
 11
4.1476662308285368
 21
9.7136235352462581
 31
0.0
  0
LINE
  5
DD
  8
OBJECT
 10
1.772666230828537
 20
9.7136235352462581
 30
0.0
 11
1.772666230828537
 21
8.0886235352462652
 31
0.0
  0
LINE
  5
DE
  8
OBJECT
 10
7.9103477539116858
 20
9.7136235352462581
 30
0.0
 11
5.7853477539116831
 21
9.7136235352462581
 31
0.0
  0
LINE
  5
DF
  8
OBJECT
 10
5.7853477539116831
 20
9.7136235352462581
 30
0.0
 11
5.7853477539116831
 21
8.0886235352462652
 31
0.0
  0
LINE
  5
E0
  8
OBJECT
 10
5.7853477539116831
 20
8.0886235352462652
 30
0.0
 11
7.9103477539116858
 21
8.0886235352462652
 31
0.0
  0
LINE
  5
E1
  8
OBJECT
 10
7.9103477539116858
 20
9.7136235352462581
 30
0.0
 11
7.9103477539116858
 21
8.0886235352462652
 31
0.0
  0
LINE
  5
E2
  8
OBJECT
 10
4.5226662308285368
 20
11.105178120067681
 30
0.0
 11
4.5226662308285368
 21
13.23017812006767
 31
0.0
  0
LINE
  5
E3
  8
OBJECT
 10
1.7726662308285339
 20
11.105178120067681
 30
0.0
 11
4.5226662308285368
 21
11.105178120067681
 31
0.0
  0
LINE
  5
E4
  8
OBJECT
 10
1.7726662308285339
 20
13.23017812006767
 30
0.0
 11
1.7726662308285339
 21
11.105178120067681
 31
0.0
  0
LINE
  5
E5
  8
OBJECT
 10
1.7726662308285339
 20
13.23017812006767
 30
0.0
 11
4.5226662308285368
 21
13.23017812006767
 31
0.0
  0
LINE
  5
E6
  8
OBJECT
 10
1.8126662308285331
 20
11.145178120067669
 30
0.0
 11
4.4826662308285341
 21
11.145178120067669
 31
0.0
  0
LINE
  5
E7
  8
OBJECT
 10
1.8126662308285331
 20
13.190178120067671
 30
0.0
 11
1.8126662308285331
 21
11.145178120067669
 31
0.0
  0
LINE
  5
E8
  8
OBJECT
 10
1.8126662308285331
 20
13.190178120067671
 30
0.0
 11
4.4826662308285341
 21
13.190178120067671
 31
0.0
  0
LINE
  5
E9
  8
OBJECT
 10
4.4826662308285341
 20
11.145178120067669
 30
0.0
 11
4.4826662308285341
 21
13.190178120067671
 31
0.0
  0
LINE
  5
EA
  8
OBJECT
 10
4.1476662308285368
 20
11.105178120067681
 30
0.0
 11
4.1476662308285368
 21
11.145178120067669
 31
0.0
  0
LINE
  5
EB
  8
OBJECT
 10
2.1476662308285368
 20
13.23017812006767
 30
0.0
 11
2.1476662308285368
 21
13.190178120067671
 31
0.0
  0
LINE
  5
EC
  8
OBJECT
 10
2.1476662308285341
 20
11.145178120067669
 30
0.0
 11
2.1476662308285341
 21
11.105178120067681
 31
0.0
  0
LINE
  5
ED
  8
OBJECT
 10
4.1476662308285368
 20
13.190178120067671
 30
0.0
 11
4.1476662308285368
 21
13.23017812006767
 31
0.0
  0
LINE
  5
EE
  8
HIDDEN
 10
5.8253477539116867
 20
9.7136235352462581
 30
0.0
 11
5.8253477539116867
 21
8.1286235352462697
 31
0.0
  0
LINE
  5
EF
  8
HIDDEN
 10
7.8703477539116866
 20
9.7136235352462581
 30
0.0
 11
7.8703477539116866
 21
8.1286235352462697
 31
0.0
  0
LINE
  5
F0
  8
HIDDEN
 10
5.8253477539116867
 20
8.1286235352462697
 30
0.0
 11
7.8703477539116866
 21
8.1286235352462697
 31
0.0
  0
LINE
  5
F1
  8
HIDDEN
 10
1.812666230828536
 20
9.7136235352462581
 30
0.0
 11
1.812666230828536
 21
8.1286235352462661
 31
0.0
  0
LINE
  5
F2
  8
HIDDEN
 10
1.812666230828536
 20
8.1286235352462661
 30
0.0
 11
4.4826662308285341
 21
8.1286235352462661
 31
0.0
  0
LINE
  5
F3
  8
HIDDEN
 10
4.4826662308285341
 20
8.1286235352462661
 30
0.0
 11
4.4826662308285341
 21
9.7136235352462581
 31
0.0
  0
LINE
  5
F4
  8
OBJECT
 10
2.1476662308285368
 20
9.7136235352462581
 30
0.0
 11
2.1476662308285368
 21
8.4796235352462688
 31
0.0
  0
LINE
  5
F5
  8
OBJECT
 10
4.1476662308285368
 20
8.4796235352462652
 30
0.0
 11
4.1476662308285368
 21
9.7136235352462581
 31
0.0
  0
LINE
  5
F6
  8
OBJECT
 10
2.1631662308285371
 20
8.4636235352462652
 30
0.0
 11
4.1321662308285356
 21
8.4636235352462652
 31
0.0
  0
LINE
  5
F7
  8
OBJECT
 10
2.1631662308285371
 20
8.4636235352462652
 30
0.0
 11
1.7881662308285371
 21
8.0886235352462652
 31
0.0
  0
LINE
  5
F8
  8
OBJECT
 10
2.1476662308285341
 20
8.4796235352462688
 30
0.0
 11
1.772666230828537
 21
8.1046235352462688
 31
0.0
  0
LINE
  5
F9
  8
OBJECT
 10
4.1476662308285368
 20
8.4796235352462688
 30
0.0
 11
4.5226662308285368
 21
8.1046235352462688
 31
0.0
  0
LINE
  5
FA
  8
OBJECT
 10
4.1321662308285383
 20
8.4636235352462652
 30
0.0
 11
4.5071662308285383
 21
8.0886235352462652
 31
0.0
  0
CIRCLE
  5
FB
  8
OBJECT
 10
1.975791230828537
 20
9.1198735352462599
 30
0.0
 40
0.109
  0
CIRCLE
  5
FC
  8
OBJECT
 10
4.3195412308285368
 20
9.1198735352462599
 30
0.0
 40
0.109
  0
TEXT
  5
FD
  8
TEXT
 10
9.0291803116124907
 20
21.229984506686641
 30
0.0
 40
0.1875
  1
%%UMATERIAL:
 41
0.75
  0
TEXT
  5
FE
  8
TEXT
 10
9.3013053542333495
 20
20.917484506686641
 30
0.0
 40
0.1875
  1
COVER & BASE - 0.040 ALUMINUM
 41
0.75
  0
TEXT
  5
FF
  8
TEXT
 10
9.0291803116124907
 20
20.292484506686641
 30
0.0
 40
0.1875
  1
%%UFINISH:
 41
0.75
  0
TEXT
  5
100
  8
TEXT
 10
9.3013053542333495
 20
19.979984506686641
 30
0.0
 40
0.1875
  1
COVER & BASE - SUFFIX "A" NATURAL
 41
0.75
  0
DIMENSION
  5
101
  8
DIM
  2
*D2
 10
7.9103477539116849
 20
7.6671604051168494
 30
0.0
 11
6.847847753911684
 21
7.6671604051168494
 31
0.0
 70
     0
  1
B
 13
5.7853477539116831
 23
8.0886235352462688
 33
0.0
 14
7.9103477539116849
 24
8.0886235352462688
 34
0.0
 50
180.0
  0
DIMENSION
  5
102
  8
DIM
  2
*D5
 10
1.2808342584825121
 20
8.0886235352462652
 30
0.0
 11
1.280834258482511
 21
8.9011235352462634
 31
0.0
 70
     0
  1
C
 13
1.772666230828535
 23
9.7136235352462581
 33
0.0
 14
1.772666230828535
 24
8.0886235352462652
 34
0.0
 50
270.0
  0
DIMENSION
  5
103
  8
DIM
  2
*D4
 10
4.5226662308285368
 20
7.6671604051168494
 30
0.0
 11
3.1476662308285368
 21
7.6671604051168494
 31
0.0
 70
     0
  1
A
 13
1.7726662308285359
 23
8.0886235352462652
 33
0.0
 14
4.5226662308285368
 24
8.0886235352462652
 34
0.0
 50
180.0
  0
LINE
  5
104
  8
HIDDEN
 10
1.8196662308285341
 20
20.062962658763041
 30
0.0
 11
4.4756662308285371
 21
20.062962658763041
 31
0.0
  0
LINE
  5
105
  8
OBJECT
 10
1.8196662308285341
 20
20.10296265876303
 30
0.0
 11
4.4756662308285371
 21
20.10296265876303
 31
0.0
  0
LINE
  5
106
  8
HIDDEN
 10
1.8196662308285341
 20
18.111962658763041
 30
0.0
 11
4.4756662308285371
 21
18.111962658763041
 31
0.0
  0
LINE
  5
107
  8
OBJECT
 10
1.8196662308285341
 20
18.071962658763031
 30
0.0
 11
4.4756662308285371
 21
18.071962658763031
 31
0.0
  0
LINE
  5
108
  8
OBJECT
 10
7.7763477539116792
 20
17.01145181469451
 30
0.0
 11
7.7763477539116721
 21
15.48945181469451
 31
0.0
  0
LINE
  5
109
  8
OBJECT
 10
7.8163477539116784
 20
17.051451814694499
 30
0.0
 11
7.8163477539116784
 21
15.48945181469451
 31
0.0
  0
LINE
  5
10A
  8
OBJECT
 10
5.8253477539116849
 20
17.01145181469451
 30
0.0
 11
5.8253477539116778
 21
15.48945181469451
 31
0.0
  0
LINE
  5
10B
  8
OBJECT
 10
5.7853477539116858
 20
17.051451814694499
 30
0.0
 11
5.7853477539116787
 21
15.48945181469451
 31
0.0
  0
LINE
  5
10C
  8
OBJECT
 10
5.8253477539116778
 20
15.48945181469451
 30
0.0
 11
5.7853477539116724
 21
15.48945181469451
 31
0.0
  0
LINE
  5
10D
  8
OBJECT
 10
7.8163477539116712
 20
15.48945181469451
 30
0.0
 11
7.7763477539116721
 21
15.48945181469451
 31
0.0
  0
LINE
  5
10E
  8
OBJECT
 10
7.7763477539116792
 20
17.01145181469451
 30
0.0
 11
5.8253477539116849
 21
17.01145181469451
 31
0.0
  0
LINE
  5
10F
  8
OBJECT
 10
7.8163477539116784
 20
17.051451814694499
 30
0.0
 11
5.7853477539116858
 21
17.051451814694499
 31
0.0
  0
CIRCLE
  5
110
  8
OBJECT
 10
1.975791230828537
 20
16.457451814694512
 30
0.0
 40
0.0680362709313571
  0
CIRCLE
  5
111
  8
OBJECT
 10
4.3195412308285368
 20
16.457451814694512
 30
0.0
 40
0.0680362709313571
  0
LINE
  5
112
  8
OBJECT
 10
1.8196662308285341
 20
17.051451814694499
 30
0.0
 11
4.4756662308285353
 21
17.051451814694509
 31
0.0
  0
LINE
  5
113
  8
OBJECT
 10
1.8196662308285341
 20
15.48945181469451
 30
0.0
 11
4.4756662308285371
 21
15.48945181469451
 31
0.0
  0
LINE
  5
114
  8
HIDDEN
 10
1.8196662308285341
 20
17.01145181469451
 30
0.0
 11
4.4756662308285371
 21
17.01145181469451
 31
0.0
  0
LINE
  5
115
  8
OBJECT
 10
2.1476662308285341
 20
9.7136235352462581
 30
0.0
 11
1.772666230828537
 21
9.7136235352462581
 31
0.0
  0
INSERT
  5
116
  8
TITLE
  2
HB
 10
0.0
 20
0.0
 30
0.0
 41
1.5
 42
1.5
 43
1.5
  0
LINE
  5
11D
  8
TITLE
 10
15.087
 20
0.4063333333333348
 30
0.0
 11
0.093
 21
0.4063333333333348
 31
0.0
  0
LINE
  5
11E
  8
TITLE
 10
15.087
 20
0.7196666666666687
 30
0.0
 11
0.093
 21
0.7196666666666687
 31
0.0
  0
LINE
  5
11F
  8
TITLE
 10
15.087
 20
1.033000000000001
 30
0.0
 11
0.093
 21
1.033000000000001
 31
0.0
  0
LINE
  5
120
  8
TITLE
 10
15.087
 20
1.346333333333334
 30
0.0
 11
0.093
 21
1.346333333333334
 31
0.0
  0
LINE
  5
121
  8
TITLE
 10
15.087
 20
1.659666666666668
 30
0.0
 11
0.093
 21
1.659666666666668
 31
0.0
  0
LINE
  5
122
  8
TITLE
 10
15.087
 20
1.973000000000001
 30
0.0
 11
0.093
 21
1.973000000000001
 31
0.0
  0
LINE
  5
123
  8
TITLE
 10
15.087
 20
2.2863333333333342
 30
0.0
 11
0.093
 21
2.2863333333333342
 31
0.0
  0
LINE
  5
124
  8
TITLE
 10
15.087
 20
2.5996666666666681
 30
0.0
 11
0.093
 21
2.5996666666666681
 31
0.0
  0
LINE
  5
125
  8
TITLE
 10
15.087
 20
2.9130000000000011
 30
0.0
 11
0.093
 21
2.9130000000000011
 31
0.0
  0
LINE
  5
126
  8
TITLE
 10
15.087
 20
3.2263333333333351
 30
0.0
 11
0.093
 21
3.2263333333333351
 31
0.0
  0
LINE
  5
127
  8
TITLE
 10
15.087
 20
3.5396666666666681
 30
0.0
 11
0.093
 21
3.5396666666666681
 31
0.0
  0
LINE
  5
128
  8
TITLE
 10
15.087
 20
3.8530000000000011
 30
0.0
 11
0.093
 21
3.8530000000000011
 31
0.0
  0
LINE
  5
129
  8
TITLE
 10
15.087
 20
4.4796666666666702
 30
0.0
 11
0.093
 21
4.4796666666666702
 31
0.0
  0
DIMENSION
  5
12A
  8
DIM
  2
*D11
 10
4.3195412308285368
 20
14.95208237852035
 30
0.0
 11
3.597666230828537
 21
14.95208237852035
 31
0.0
 70
     0
  1
K
 13
4.4756662308285362
 23
15.48945181469451
 33
0.0
 14
4.3195412308285368
 24
16.457451814694512
 34
0.0
 50
180.0
  0
DIMENSION
  5
12B
  8
DIM
  2
*D8
 10
1.8196662308285341
 20
17.565974454537638
 30
0.0
 11
3.147666230828535
 21
17.565974454537638
 31
0.0
 70
     0
  1
F
 13
4.4756662308285353
 23
17.051451814694509
 33
0.0
 14
1.8196662308285341
 24
17.051451814694499
 34
0.0
 50
180.0
  0
LINE
  5
12C
  8
OBJECT
 10
1.8196662308285341
 20
15.48945181469451
 30
0.0
 11
1.8196662308285341
 21
17.051451814694499
 31
0.0
  0
LINE
  5
12D
  8
OBJECT
 10
4.4756662308285371
 20
15.48945181469451
 30
0.0
 11
4.4756662308285353
 21
17.051451814694509
 31
0.0
  0
LINE
  5
12E
  8
OBJECT
 10
1.8196662308285341
 20
20.10296265876303
 30
0.0
 11
1.8196662308285341
 21
18.071962658763031
 31
0.0
  0
LINE
  5
12F
  8
OBJECT
 10
4.4756662308285371
 20
20.10296265876303
 30
0.0
 11
4.4756662308285371
 21
18.071962658763031
 31
0.0
  0
DIMENSION
  5
130
  8
DIM
  2
*D10
 10
5.1204474943933427
 20
15.48945181469451
 30
0.0
 11
5.12044749439334
 21
15.97345181469451
 31
0.0
 70
   128
  1
J
 13
4.3195412308285368
 23
16.457451814694512
 33
0.0
 14
4.4756662308285362
 24
15.48945181469451
 34
0.0
 50
90.0
  0
DIMENSION
  5
131
  8
DIM
  2
*D9
 10
1.223517996826329
 20
17.051451814694499
 30
0.0
 11
1.223517996826327
 21
16.270451814694511
 31
0.0
 70
     0
  1
H
 13
1.8196662308285341
 23
15.48945181469451
 33
0.0
 14
1.819666230828535
 24
17.051451814694499
 34
0.0
 50
90.0
  0
DIMENSION
  5
132
  8
DIM
  2
*D6
 10
5.1204474943933427
 20
9.1198735352462599
 30
0.0
 11
5.1204474943933418
 21
9.4167485352462599
 31
0.0
 70
     0
  1
D
 13
4.522666230828535
 23
9.7136235352462581
 33
0.0
 14
4.319541230828535
 24
9.1198735352462599
 34
0.0
 50
90.0
  0
DIMENSION
  5
133
  8
DIM
  2
*D3
 10
2.147666230828535
 20
10.5384564161587
 30
0.0
 11
3.092197480828534
 21
10.5384564161587
 31
0.0
 70
     0
  1
<>
 13
1.772666230828535
 23
9.7136235352462581
 33
0.0
 14
2.147666230828535
 24
9.7136235352462581
 34
0.0
 50
180.0
  0
DIMENSION
  5
134
  8
DIM
  2
*D7
 10
4.147666230828535
 20
10.1169564161587
 30
0.0
 11
3.4257912308285352
 21
10.1169564161587
 31
0.0
 70
     0
  1
E
 13
4.319541230828535
 23
9.1198735352462599
 33
0.0
 14
4.147666230828535
 24
9.7136235352462581
 34
0.0
 50
180.0
  0
DIMENSION
  5
135
  8
DIM
  2
*D1
 10
7.8163477539116837
 20
17.565974454537638
 30
0.0
 11
6.8008477539116852
 21
17.565974454537638
 31
0.0
 70
     0
  1
G
 13
5.7853477539116849
 23
17.051451814694499
 33
0.0
 14
7.8163477539116837
 24
17.051451814694499
 34
0.0
 50
180.0
  0
LINE
  5
136
  8
OBJECT
 10
11.727988129228709
 20
10.564358980366491
 30
0.0
 11
12.05274765564786
 21
10.751858980366499
 31
0.0
  0
LINE
  5
137
  8
OBJECT
 10
14.10955798963591
 20
11.939358980366491
 30
0.0
 11
12.269254006593981
 21
13.001858980366491
 31
0.0
  0
LINE
  5
138
  8
OBJECT
 10
12.269254006593981
 20
13.001858980366491
 30
0.0
 11
11.94449448017482
 21
12.814358980366499
 31
0.0
  0
LINE
  5
139
  8
OBJECT
 10
9.8876841461867802
 20
11.626858980366491
 30
0.0
 11
11.727988129228709
 21
10.564358980366491
 31
0.0
  0
LINE
  5
13A
  8
OBJECT
 10
11.727988129228709
 20
10.564358980366491
 30
0.0
 11
11.727988129228709
 21
8.9393589803665012
 31
0.0
  0
LINE
  5
13B
  8
OBJECT
 10
11.727988129228709
 20
8.9393589803665012
 30
0.0
 11
14.10955798963591
 21
10.314358980366491
 31
0.0
  0
LINE
  5
13C
  8
OBJECT
 10
14.10955798963591
 20
10.314358980366491
 30
0.0
 11
14.10955798963591
 21
11.939358980366491
 31
0.0
  0
LINE
  5
13D
  8
OBJECT
 10
9.8876841461867802
 20
11.626858980366491
 30
0.0
 11
9.8876841461867802
 21
10.001858980366491
 31
0.0
  0
LINE
  5
13E
  8
OBJECT
 10
9.8876841461867802
 20
10.001858980366491
 30
0.0
 11
11.727988129228709
 21
8.9393589803665012
 31
0.0
  0
LINE
  5
13F
  8
OBJECT
 10
12.269254006593989
 20
12.9618589803665
 30
0.0
 11
12.269254006593981
 21
11.376858980366499
 31
0.0
  0
LINE
  5
140
  8
OBJECT
 10
12.269254006593981
 20
11.376858980366499
 30
0.0
 11
11.329616443487851
 21
10.83435898036649
 31
0.0
  0
LINE
  5
141
  8
OBJECT
 10
11.94449448017482
 20
11.564358980366499
 30
0.0
 11
14.10955798963591
 21
10.314358980366491
 31
0.0
  0
LINE
  5
142
  8
OBJECT
 10
10.21244367260593
 20
11.814358980366499
 30
0.0
 11
9.8876841461867802
 21
11.626858980366491
 31
0.0
  0
LINE
  5
143
  8
OBJECT
 10
13.784798463216751
 20
11.751858980366499
 30
0.0
 11
14.10955798963591
 21
11.939358980366491
 31
0.0
  0
LINE
  5
144
  8
OBJECT
 10
13.784798463216751
 20
10.501858980366499
 30
0.0
 11
13.784798463216751
 21
11.751858980366499
 31
0.0
  0
LINE
  5
145
  8
OBJECT
 10
12.05274765564786
 20
10.751858980366499
 30
0.0
 11
12.05274765564786
 21
9.5018589803665012
 31
0.0
  0
LINE
  5
146
  8
OBJECT
 10
11.94449448017482
 20
12.814358980366499
 30
0.0
 11
11.94449448017482
 21
11.564358980366499
 31
0.0
  0
LINE
  5
147
  8
OBJECT
 10
11.94449448017482
 20
11.564358980366499
 30
0.0
 11
11.00485691706869
 21
11.02185898036649
 31
0.0
  0
LINE
  5
148
  8
OBJECT
 10
12.05274765564786
 20
9.5018589803665012
 30
0.0
 11
13.784798463216751
 21
10.501858980366499
 31
0.0
  0
LINE
  5
149
  8
OBJECT
 10
10.21244367260593
 20
11.814358980366499
 30
0.0
 11
10.247084688757321
 21
11.7943589803665
 31
0.0
  0
LINE
  5
14A
  8
OBJECT
 10
11.94449448017482
 20
12.814358980366499
 30
0.0
 11
11.97913549632618
 21
12.7943589803665
 31
0.0
  0
LINE
  5
14B
  8
OBJECT
 10
12.05274765564786
 20
9.5018589803665012
 30
0.0
 11
11.727988129228709
 21
8.9393589803665012
 31
0.0
  0
LINE
  5
14C
  8
OBJECT
 10
12.05274765564786
 20
9.5418589803664986
 30
0.0
 11
13.75015744706536
 21
10.521858980366501
 31
0.0
  0
LINE
  5
14D
  8
OBJECT
 10
13.75015744706536
 20
11.771858980366501
 30
0.0
 11
14.04027595733316
 21
11.939358980366491
 31
0.0
  0
LINE
  5
14E
  8
OBJECT
 10
12.269254006593989
 20
12.96185898036649
 30
0.0
 11
11.97913549632618
 21
12.7943589803665
 31
0.0
  0
LINE
  5
14F
  8
OBJECT
 10
11.97913549632618
 20
12.7943589803665
 30
0.0
 11
11.97913549632619
 21
11.5443589803665
 31
0.0
  0
LINE
  5
150
  8
OBJECT
 10
11.97913549632619
 20
11.5443589803665
 30
0.0
 11
11.039497933220069
 21
11.001858980366491
 31
0.0
  0
LINE
  5
151
  8
OBJECT
 10
10.247084688757321
 20
11.7943589803665
 30
0.0
 11
9.9569661784895338
 21
11.626858980366491
 31
0.0
  0
LINE
  5
152
  8
OBJECT
 10
11.727988129228709
 20
10.60435898036649
 30
0.0
 11
12.018106639496491
 21
10.771858980366501
 31
0.0
  0
LINE
  5
153
  8
OBJECT
 10
13.75015744706536
 20
10.521858980366501
 30
0.0
 11
13.75015744706536
 21
11.771858980366501
 31
0.0
  0
LINE
  5
154
  8
OBJECT
 10
9.9569661784895338
 20
11.626858980366491
 30
0.0
 11
11.727988129228709
 21
10.60435898036649
 31
0.0
  0
LINE
  5
155
  8
OBJECT
 10
14.04027595733316
 20
11.939358980366491
 30
0.0
 11
12.269254006593989
 21
12.9618589803665
 31
0.0
  0
LINE
  5
156
  8
OBJECT
 10
12.018106639496491
 20
10.771858980366501
 30
0.0
 11
12.05274765564786
 21
10.751858980366499
 31
0.0
  0
LINE
  5
157
  8
OBJECT
 10
10.247084688757321
 20
11.7943589803665
 30
0.0
 11
10.247084688757321
 21
11.45935898036649
 31
0.0
  0
LINE
  5
158
  8
OBJECT
 10
13.75015744706538
 20
11.771858980366501
 30
0.0
 11
13.784798463216751
 21
11.751858980366499
 31
0.0
  0
POLYLINE
  5
159
  8
OBJECT
 66
     1
 10
0.0
 20
0.0
 30
0.0
 70
     1
  0
VERTEX
  5
525
  8
OBJECT
 10
11.84132929775598
 20
10.10792142620701
 30
0.0
 42
0.0587518675353772
  0
VERTEX
  5
526
  8
OBJECT
 10
11.82137114857856
 20
10.06152399067143
 30
0.0
 42
0.0723410840576519
  0
VERTEX
  5
527
  8
OBJECT
 10
11.81545669501093
 20
10.020858980366491
 30
0.0
 42
0.1066170543909791
  0
VERTEX
  5
528
  8
OBJECT
 10
11.823560267735431
 20
9.9832877968983311
 30
0.0
 42
0.1568512196707945
  0
VERTEX
  5
529
  8
OBJECT
 10
11.84132929775598
 20
9.9636716428449521
 30
0.0
 42
0.1568512196707587
  0
VERTEX
  5
52A
  8
OBJECT
 10
11.86720190050101
 20
9.9580912884732502
 30
0.0
 42
0.1066170543909932
  0
VERTEX
  5
52B
  8
OBJECT
 10
11.90379128619694
 20
9.9698589803664923
 30
0.0
 42
0.0723410840576467
  0
VERTEX
  5
52C
  8
OBJECT
 10
11.93605099138234
 20
9.9953135525580414
 30
0.0
 42
0.0587518675353722
  0
VERTEX
  5
52D
  8
OBJECT
 10
11.96625327463792
 20
10.03579653452598
 30
0.0
 42
0.0587518675353655
  0
VERTEX
  5
52E
  8
OBJECT
 10
11.98621142381532
 20
10.082193970061549
 30
0.0
 42
0.0723410840576609
  0
VERTEX
  5
52F
  8
OBJECT
 10
11.992125877382961
 20
10.122858980366489
 30
0.0
 42
0.106617054391015
  0
VERTEX
  5
530
  8
OBJECT
 10
11.984022304658451
 20
10.160430163834659
 30
0.0
 42
0.1568512196707993
  0
VERTEX
  5
531
  8
OBJECT
 10
11.96625327463792
 20
10.18004631788803
 30
0.0
 42
0.1568512196708404
  0
VERTEX
  5
532
  8
OBJECT
 10
11.940380671892861
 20
10.18562667225974
 30
0.0
 42
0.1066170543910234
  0
VERTEX
  5
533
  8
OBJECT
 10
11.90379128619694
 20
10.173858980366489
 30
0.0
 42
0.0723410840576673
  0
VERTEX
  5
534
  8
OBJECT
 10
11.87153158101153
 20
10.148404408174949
 30
0.0
 42
0.0587518675353791
  0
SEQEND
  5
535
  8
OBJECT
  0
POLYLINE
  5
16B
  8
OBJECT
 66
     1
 10
0.0
 20
0.0
 30
0.0
  0
VERTEX
  5
536
  8
OBJECT
 10
11.826461518366591
 20
9.9779198935468312
 30
0.0
 42
0.0353359386047165
  0
VERTEX
  5
537
  8
OBJECT
 10
11.83256088434964
 20
9.9780912884732516
 30
0.0
 42
0.1066170543910003
  0
VERTEX
  5
538
  8
OBJECT
 10
11.869150270045569
 20
9.9898589803664901
 30
0.0
 42
0.0723410840576467
  0
VERTEX
  5
539
  8
OBJECT
 10
11.90140997523098
 20
10.015313552558039
 30
0.0
 42
0.0587518675353722
  0
VERTEX
  5
53A
  8
OBJECT
 10
11.931612258486529
 20
10.05579653452598
 30
0.0
 42
0.0587518675353795
  0
VERTEX
  5
53B
  8
OBJECT
 10
11.95157040766393
 20
10.10219397006156
 30
0.0
 42
0.0723410840576671
  0
VERTEX
  5
53C
  8
OBJECT
 10
11.957484861231571
 20
10.142858980366491
 30
0.0
 42
0.1066170543909921
  0
VERTEX
  5
53D
  8
OBJECT
 10
11.94938128850708
 20
10.180430163834661
 30
0.0
 42
0.0353359386047371
  0
VERTEX
  5
53E
  8
OBJECT
 10
11.94648003787591
 20
10.18579806718615
 30
0.0
 42
0.1568512196707659
  0
SEQEND
  5
53F
  8
OBJECT
  0
POLYLINE
  5
176
  8
OBJECT
 66
     1
 10
0.0
 20
0.0
 30
0.0
  0
VERTEX
  5
540
  8
OBJECT
 10
13.856425064837319
 20
11.14991989354683
 30
0.0
 42
0.0353359386047165
  0
VERTEX
  5
541
  8
OBJECT
 10
13.862524430820351
 20
11.15009128847325
 30
0.0
 42
0.1066170543910003
  0
VERTEX
  5
542
  8
OBJECT
 10
13.899113816516291
 20
11.161858980366491
 30
0.0
 42
0.0723410840576467
  0
VERTEX
  5
543
  8
OBJECT
 10
13.931373521701691
 20
11.18731355255804
 30
0.0
 42
0.0587518675353722
  0
VERTEX
  5
544
  8
OBJECT
 10
13.96157580495727
 20
11.22779653452598
 30
0.0
 42
0.0587518675353795
  0
VERTEX
  5
545
  8
OBJECT
 10
13.981533954134671
 20
11.27419397006156
 30
0.0
 42
0.0723410840576671
  0
VERTEX
  5
546
  8
OBJECT
 10
13.987448407702299
 20
11.314858980366489
 30
0.0
 42
0.1066170543909921
  0
VERTEX
  5
547
  8
OBJECT
 10
13.9793448349778
 20
11.35243016383466
 30
0.0
 42
0.0353359386047371
  0
VERTEX
  5
548
  8
OBJECT
 10
13.97644358434664
 20
11.357798067186151
 30
0.0
 42
0.1568512196707659
  0
SEQEND
  5
549
  8
OBJECT
  0
POLYLINE
  5
181
  8
OBJECT
 66
     1
 10
0.0
 20
0.0
 30
0.0
 70
     1
  0
VERTEX
  5
54A
  8
OBJECT
 10
13.8712928442267
 20
11.279921426207011
 30
0.0
 42
0.0587518675353772
  0
VERTEX
  5
54B
  8
OBJECT
 10
13.851334695049291
 20
11.233523990671429
 30
0.0
 42
0.0723410840576519
  0
VERTEX
  5
54C
  8
OBJECT
 10
13.84542024148166
 20
11.1928589803665
 30
0.0
 42
0.1066170543909791
  0
VERTEX
  5
54D
  8
OBJECT
 10
13.85352381420617
 20
11.15528779689833
 30
0.0
 42
0.1568512196707945
  0
VERTEX
  5
54E
  8
OBJECT
 10
13.8712928442267
 20
11.135671642844949
 30
0.0
 42
0.1568512196707587
  0
VERTEX
  5
54F
  8
OBJECT
 10
13.897165446971741
 20
11.130091288473251
 30
0.0
 42
0.1066170543909932
  0
VERTEX
  5
550
  8
OBJECT
 10
13.93375483266767
 20
11.141858980366489
 30
0.0
 42
0.0723410840576467
  0
VERTEX
  5
551
  8
OBJECT
 10
13.966014537853081
 20
11.16731355255804
 30
0.0
 42
0.0587518675353722
  0
VERTEX
  5
552
  8
OBJECT
 10
13.996216821108639
 20
11.207796534525979
 30
0.0
 42
0.0587518675353655
  0
VERTEX
  5
553
  8
OBJECT
 10
14.016174970286031
 20
11.254193970061561
 30
0.0
 42
0.0723410840576609
  0
VERTEX
  5
554
  8
OBJECT
 10
14.02208942385367
 20
11.29485898036649
 30
0.0
 42
0.106617054391015
  0
VERTEX
  5
555
  8
OBJECT
 10
14.013985851129179
 20
11.33243016383466
 30
0.0
 42
0.1568512196707993
  0
VERTEX
  5
556
  8
OBJECT
 10
13.996216821108639
 20
11.352046317888041
 30
0.0
 42
0.1568512196708404
  0
VERTEX
  5
557
  8
OBJECT
 10
13.9703442183636
 20
11.357626672259739
 30
0.0
 42
0.1066170543910234
  0
VERTEX
  5
558
  8
OBJECT
 10
13.93375483266767
 20
11.34585898036649
 30
0.0
 42
0.0723410840576673
  0
VERTEX
  5
559
  8
OBJECT
 10
13.90149512748226
 20
11.320404408174941
 30
0.0
 42
0.0587518675353791
  0
SEQEND
  5
55A
  8
OBJECT
  0
POLYLINE
  5
193
  8
OBJECT
 66
     1
 10
0.0
 20
0.0
 30
0.0
 70
     1
  0
VERTEX
  5
55B
  8
OBJECT
 10
12.06562987733615
 20
12.32242142620701
 30
0.0
 42
0.0587518675353772
  0
VERTEX
  5
55C
  8
OBJECT
 10
12.04567172815875
 20
12.27602399067143
 30
0.0
 42
0.0723410840576519
  0
VERTEX
  5
55D
  8
OBJECT
 10
12.039757274591111
 20
12.235358980366501
 30
0.0
 42
0.1066170543909791
  0
VERTEX
  5
55E
  8
OBJECT
 10
12.04786084731561
 20
12.19778779689833
 30
0.0
 42
0.1568512196707945
  0
VERTEX
  5
55F
  8
OBJECT
 10
12.06562987733615
 20
12.17817164284495
 30
0.0
 42
0.1568512196707587
  0
VERTEX
  5
560
  8
OBJECT
 10
12.091502480081189
 20
12.172591288473249
 30
0.0
 42
0.1066170543909932
  0
VERTEX
  5
561
  8
OBJECT
 10
12.12809186577711
 20
12.18435898036649
 30
0.0
 42
0.0723410840576467
  0
VERTEX
  5
562
  8
OBJECT
 10
12.160351570962529
 20
12.209813552558041
 30
0.0
 42
0.0587518675353722
  0
VERTEX
  5
563
  8
OBJECT
 10
12.19055385421809
 20
12.25029653452598
 30
0.0
 42
0.0587518675353655
  0
VERTEX
  5
564
  8
OBJECT
 10
12.21051200339549
 20
12.296693970061551
 30
0.0
 42
0.0723410840576609
  0
VERTEX
  5
565
  8
OBJECT
 10
12.216426456963131
 20
12.33735898036649
 30
0.0
 42
0.106617054391015
  0
VERTEX
  5
566
  8
OBJECT
 10
12.208322884238621
 20
12.37493016383466
 30
0.0
 42
0.1568512196707993
  0
VERTEX
  5
567
  8
OBJECT
 10
12.19055385421809
 20
12.39454631788804
 30
0.0
 42
0.1568512196708404
  0
VERTEX
  5
568
  8
OBJECT
 10
12.164681251473031
 20
12.40012667225974
 30
0.0
 42
0.1066170543910234
  0
VERTEX
  5
569
  8
OBJECT
 10
12.12809186577711
 20
12.38835898036649
 30
0.0
 42
0.0723410840576673
  0
VERTEX
  5
56A
  8
OBJECT
 10
12.09583216059171
 20
12.36290440817495
 30
0.0
 42
0.0587518675353791
  0
SEQEND
  5
56B
  8
OBJECT
  0
POLYLINE
  5
1A5
  8
OBJECT
 66
     1
 10
0.0
 20
0.0
 30
0.0
  0
VERTEX
  5
56C
  8
OBJECT
 10
12.05076209794678
 20
12.192419893546839
 30
0.0
 42
0.0353359386047165
  0
VERTEX
  5
56D
  8
OBJECT
 10
12.05686146392981
 20
12.192591288473251
 30
0.0
 42
0.1066170543910003
  0
VERTEX
  5
56E
  8
OBJECT
 10
12.09345084962573
 20
12.204358980366489
 30
0.0
 42
0.0723410840576467
  0
VERTEX
  5
56F
  8
OBJECT
 10
12.12571055481115
 20
12.22981355255804
 30
0.0
 42
0.0587518675353722
  0
VERTEX
  5
570
  8
OBJECT
 10
12.15591283806671
 20
12.270296534525979
 30
0.0
 42
0.0587518675353795
  0
VERTEX
  5
571
  8
OBJECT
 10
12.17587098724411
 20
12.316693970061561
 30
0.0
 42
0.0723410840576671
  0
VERTEX
  5
572
  8
OBJECT
 10
12.181785440811749
 20
12.35735898036649
 30
0.0
 42
0.1066170543909921
  0
VERTEX
  5
573
  8
OBJECT
 10
12.17368186808725
 20
12.39493016383466
 30
0.0
 42
0.0353359386047371
  0
VERTEX
  5
574
  8
OBJECT
 10
12.17078061745608
 20
12.400298067186149
 30
0.0
 42
0.1568512196707659
  0
SEQEND
  5
575
  8
OBJECT
  0
LINE
  5
1B0
  8
OBJECT
 10
11.727988129228709
 20
14.52548756452271
 30
0.0
 11
14.02815160168017
 21
15.853487564522711
 31
0.0
  0
LINE
  5
1B1
  8
OBJECT
 10
14.02815160168017
 20
15.853487564522711
 30
0.0
 11
12.269254006593981
 21
16.868987564522708
 31
0.0
  0
LINE
  5
1B2
  8
OBJECT
 10
12.269254006593981
 20
16.868987564522708
 30
0.0
 11
9.9690905341425164
 21
15.540987564522711
 31
0.0
  0
LINE
  5
1B3
  8
OBJECT
 10
9.9690905341425164
 20
15.540987564522711
 30
0.0
 11
11.727988129228709
 21
14.52548756452271
 31
0.0
  0
LINE
  5
1B4
  8
OBJECT
 10
11.727988129228709
 20
14.52548756452271
 30
0.0
 11
11.727988129228709
 21
12.96348756452271
 31
0.0
  0
LINE
  5
1B5
  8
OBJECT
 10
11.727988129228709
 20
12.96348756452271
 30
0.0
 11
14.02815160168017
 21
14.29148756452272
 31
0.0
  0
LINE
  5
1B6
  8
OBJECT
 10
14.02815160168017
 20
14.29148756452272
 30
0.0
 11
14.02815160168017
 21
15.853487564522711
 31
0.0
  0
LINE
  5
1B7
  8
OBJECT
 10
9.9690905341425164
 20
15.540987564522711
 30
0.0
 11
9.9690905341425164
 21
13.97898756452271
 31
0.0
  0
LINE
  5
1B8
  8
OBJECT
 10
9.9690905341425164
 20
13.97898756452271
 30
0.0
 11
10.003731550293891
 21
13.95898756452271
 31
0.0
  0
LINE
  5
1B9
  8
OBJECT
 10
11.69334711307733
 20
14.505487564522721
 30
0.0
 11
11.69334711307733
 21
12.98348756452271
 31
0.0
  0
LINE
  5
1BA
  8
OBJECT
 10
10.003731550293891
 20
15.48098756452271
 30
0.0
 11
10.003731550293891
 21
13.95898756452271
 31
0.0
  0
LINE
  5
1BB
  8
OBJECT
 10
10.003731550293891
 20
15.48098756452271
 30
0.0
 11
11.69334711307733
 21
14.505487564522721
 31
0.0
  0
LINE
  5
1BC
  8
OBJECT
 10
10.003731550293891
 20
13.95898756452271
 30
0.0
 11
11.32182221485381
 21
14.719987564522709
 31
0.0
  0
LINE
  5
1BD
  8
OBJECT
 10
11.69334711307733
 20
12.98348756452271
 30
0.0
 11
11.727988129228709
 21
12.96348756452271
 31
0.0
  0
POLYLINE
  5
1BE
  8
OBJECT
 66
     1
 10
0.0
 20
0.0
 30
0.0
 70
     1
  0
VERTEX
  5
576
  8
OBJECT
 10
10.10545721553884
 20
15.02425622431004
 30
0.0
 42
0.0587518675353557
  0
VERTEX
  5
577
  8
OBJECT
 10
10.094793302497971
 20
14.999465437675839
 30
0.0
 42
0.0723410840576493
  0
VERTEX
  5
578
  8
OBJECT
 10
10.091633128778
 20
14.977737564522711
 30
0.0
 42
0.1066170543909668
  0
VERTEX
  5
579
  8
OBJECT
 10
10.095962978910221
 20
14.95766276551276
 30
0.0
 42
0.156851219670723
  0
VERTEX
  5
57A
  8
OBJECT
 10
10.10545721553884
 20
14.94718158516071
 30
0.0
 42
0.1568512196707213
  0
VERTEX
  5
57B
  8
OBJECT
 10
10.11928130229966
 20
14.94419992522681
 30
0.0
 42
0.1066170543910352
  0
VERTEX
  5
57C
  8
OBJECT
 10
10.13883151328425
 20
14.95048756452271
 30
0.0
 42
0.0723410840576608
  0
VERTEX
  5
57D
  8
OBJECT
 10
10.15606831654509
 20
14.96408829182114
 30
0.0
 42
0.0587518675353803
  0
VERTEX
  5
57E
  8
OBJECT
 10
10.17220581102967
 20
14.98571890473538
 30
0.0
 42
0.0587518675353557
  0
VERTEX
  5
57F
  8
OBJECT
 10
10.182869724070541
 20
15.010509691369579
 30
0.0
 42
0.0723410840576493
  0
VERTEX
  5
580
  8
OBJECT
 10
10.186029897790499
 20
15.03223756452271
 30
0.0
 42
0.1066170543909483
  0
VERTEX
  5
581
  8
OBJECT
 10
10.181700047658291
 20
15.052312363532669
 30
0.0
 42
0.1568512196706365
  0
VERTEX
  5
582
  8
OBJECT
 10
10.17220581102967
 20
15.062793543884711
 30
0.0
 42
0.1568512196707755
  0
VERTEX
  5
583
  8
OBJECT
 10
10.15838172426885
 20
15.06577520381861
 30
0.0
 42
0.1066170543909817
  0
VERTEX
  5
584
  8
OBJECT
 10
10.13883151328425
 20
15.05948756452271
 30
0.0
 42
0.0723410840576608
  0
VERTEX
  5
585
  8
OBJECT
 10
10.12159471002343
 20
15.045886837224289
 30
0.0
 42
0.0587518675353803
  0
SEQEND
  5
586
  8
OBJECT
  0
POLYLINE
  5
1D0
  8
OBJECT
 66
     1
 10
0.0
 20
0.0
 30
0.0
  0
VERTEX
  5
587
  8
OBJECT
 10
10.09311691369858
 20
14.965807555392651
 30
0.0
 42
0.0619484326923879
  0
VERTEX
  5
588
  8
OBJECT
 10
10.10419049713288
 20
14.97048756452271
 30
0.0
 42
0.0723410840576608
  0
VERTEX
  5
589
  8
OBJECT
 10
10.121427300393711
 20
14.984088291821131
 30
0.0
 42
0.0587518675353803
  0
VERTEX
  5
58A
  8
OBJECT
 10
10.137564794878299
 20
15.00571890473538
 30
0.0
 42
0.058751867535386
  0
VERTEX
  5
58B
  8
OBJECT
 10
10.14822870791917
 20
15.030509691369589
 30
0.0
 42
0.0723410840576895
  0
VERTEX
  5
58C
  8
OBJECT
 10
10.151388881639139
 20
15.052237564522709
 30
0.0
 42
0.0619484326923724
  0
VERTEX
  5
58D
  8
OBJECT
 10
10.149905096718561
 20
15.06416757365278
 30
0.0
 42
0.1568512196708094
  0
SEQEND
  5
58E
  8
OBJECT
  0
POLYLINE
  5
1D9
  8
OBJECT
 66
     1
 10
0.0
 20
0.0
 30
0.0
  0
VERTEX
  5
58F
  8
OBJECT
 10
11.817373492633401
 20
13.970307555392649
 30
0.0
 42
0.0619484326923879
  0
VERTEX
  5
590
  8
OBJECT
 10
11.8284470760677
 20
13.97498756452271
 30
0.0
 42
0.0723410840576608
  0
VERTEX
  5
591
  8
OBJECT
 10
11.845683879328529
 20
13.98858829182114
 30
0.0
 42
0.0587518675353803
  0
VERTEX
  5
592
  8
OBJECT
 10
11.861821373813109
 20
14.01021890473538
 30
0.0
 42
0.058751867535386
  0
VERTEX
  5
593
  8
OBJECT
 10
11.872485286853991
 20
14.03500969136959
 30
0.0
 42
0.0723410840576895
  0
VERTEX
  5
594
  8
OBJECT
 10
11.87564546057396
 20
14.05673756452271
 30
0.0
 42
0.0619484326923724
  0
VERTEX
  5
595
  8
OBJECT
 10
11.874161675653379
 20
14.06866757365278
 30
0.0
 42
0.1568512196708094
  0
SEQEND
  5
596
  8
OBJECT
  0
POLYLINE
  5
1E2
  8
OBJECT
 66
     1
 10
0.0
 20
0.0
 30
0.0
 70
     1
  0
VERTEX
  5
597
  8
OBJECT
 10
11.829713794473649
 20
14.028756224310049
 30
0.0
 42
0.0587518675353557
  0
VERTEX
  5
598
  8
OBJECT
 10
11.819049881432781
 20
14.00396543767584
 30
0.0
 42
0.0723410840576493
  0
VERTEX
  5
599
  8
OBJECT
 10
11.81588970771282
 20
13.98223756452272
 30
0.0
 42
0.1066170543909668
  0
VERTEX
  5
59A
  8
OBJECT
 10
11.82021955784503
 20
13.96216276551276
 30
0.0
 42
0.156851219670723
  0
VERTEX
  5
59B
  8
OBJECT
 10
11.829713794473649
 20
13.95168158516071
 30
0.0
 42
0.1568512196707213
  0
VERTEX
  5
59C
  8
OBJECT
 10
11.84353788123448
 20
13.94869992522681
 30
0.0
 42
0.1066170543910352
  0
VERTEX
  5
59D
  8
OBJECT
 10
11.86308809221908
 20
13.95498756452271
 30
0.0
 42
0.0723410840576608
  0
VERTEX
  5
59E
  8
OBJECT
 10
11.880324895479911
 20
13.96858829182114
 30
0.0
 42
0.0587518675353803
  0
VERTEX
  5
59F
  8
OBJECT
 10
11.896462389964491
 20
13.99021890473538
 30
0.0
 42
0.0587518675353557
  0
VERTEX
  5
5A0
  8
OBJECT
 10
11.907126303005359
 20
14.01500969136959
 30
0.0
 42
0.0723410840576493
  0
VERTEX
  5
5A1
  8
OBJECT
 10
11.91028647672533
 20
14.036737564522721
 30
0.0
 42
0.1066170543909483
  0
VERTEX
  5
5A2
  8
OBJECT
 10
11.90595662659312
 20
14.05681236353267
 30
0.0
 42
0.1568512196706365
  0
VERTEX
  5
5A3
  8
OBJECT
 10
11.896462389964491
 20
14.067293543884711
 30
0.0
 42
0.1568512196707755
  0
VERTEX
  5
5A4
  8
OBJECT
 10
11.88263830320366
 20
14.070275203818619
 30
0.0
 42
0.1066170543909817
  0
VERTEX
  5
5A5
  8
OBJECT
 10
11.86308809221908
 20
14.063987564522719
 30
0.0
 42
0.0723410840576608
  0
VERTEX
  5
5A6
  8
OBJECT
 10
11.84585128895824
 20
14.050386837224289
 30
0.0
 42
0.0587518675353803
  0
SEQEND
  5
5A7
  8
OBJECT
  0
POLYLINE
  5
1F4
  8
OBJECT
 66
     1
 10
0.0
 20
0.0
 30
0.0
  0
VERTEX
  5
5A8
  8
OBJECT
 10
13.847337039104129
 20
15.14230755539265
 30
0.0
 42
0.0619484326923879
  0
VERTEX
  5
5A9
  8
OBJECT
 10
13.858410622538431
 20
15.146987564522711
 30
0.0
 42
0.0723410840576608
  0
VERTEX
  5
5AA
  8
OBJECT
 10
13.87564742579926
 20
15.16058829182114
 30
0.0
 42
0.0587518675353803
  0
VERTEX
  5
5AB
  8
OBJECT
 10
13.89178492028384
 20
15.182218904735381
 30
0.0
 42
0.058751867535386
  0
VERTEX
  5
5AC
  8
OBJECT
 10
13.902448833324719
 20
15.20700969136959
 30
0.0
 42
0.0723410840576895
  0
VERTEX
  5
5AD
  8
OBJECT
 10
13.90560900704468
 20
15.22873756452271
 30
0.0
 42
0.0619484326923724
  0
VERTEX
  5
5AE
  8
OBJECT
 10
13.90412522212411
 20
15.240667573652781
 30
0.0
 42
0.1568512196708094
  0
SEQEND
  5
5AF
  8
OBJECT
  0
POLYLINE
  5
1FD
  8
OBJECT
 66
     1
 10
0.0
 20
0.0
 30
0.0
 70
     1
  0
VERTEX
  5
5B0
  8
OBJECT
 10
13.85967734094438
 20
15.20075622431005
 30
0.0
 42
0.0587518675353557
  0
VERTEX
  5
5B1
  8
OBJECT
 10
13.849013427903509
 20
15.17596543767584
 30
0.0
 42
0.0723410840576493
  0
VERTEX
  5
5B2
  8
OBJECT
 10
13.845853254183551
 20
15.15423756452272
 30
0.0
 42
0.1066170543909668
  0
VERTEX
  5
5B3
  8
OBJECT
 10
13.850183104315761
 20
15.134162765512761
 30
0.0
 42
0.156851219670723
  0
VERTEX
  5
5B4
  8
OBJECT
 10
13.85967734094438
 20
15.123681585160719
 30
0.0
 42
0.1568512196707213
  0
VERTEX
  5
5B5
  8
OBJECT
 10
13.873501427705211
 20
15.120699925226811
 30
0.0
 42
0.1066170543910352
  0
VERTEX
  5
5B6
  8
OBJECT
 10
13.89305163868981
 20
15.12698756452272
 30
0.0
 42
0.0723410840576608
  0
VERTEX
  5
5B7
  8
OBJECT
 10
13.910288441950639
 20
15.140588291821141
 30
0.0
 42
0.0587518675353803
  0
VERTEX
  5
5B8
  8
OBJECT
 10
13.92642593643523
 20
15.162218904735379
 30
0.0
 42
0.0587518675353557
  0
VERTEX
  5
5B9
  8
OBJECT
 10
13.937089849476081
 20
15.187009691369591
 30
0.0
 42
0.0723410840576493
  0
VERTEX
  5
5BA
  8
OBJECT
 10
13.940250023196061
 20
15.208737564522711
 30
0.0
 42
0.1066170543909483
  0
VERTEX
  5
5BB
  8
OBJECT
 10
13.935920173063851
 20
15.22881236353267
 30
0.0
 42
0.1568512196706365
  0
VERTEX
  5
5BC
  8
OBJECT
 10
13.92642593643523
 20
15.23929354388472
 30
0.0
 42
0.1568512196707755
  0
VERTEX
  5
5BD
  8
OBJECT
 10
13.91260184967439
 20
15.242275203818609
 30
0.0
 42
0.1066170543909817
  0
VERTEX
  5
5BE
  8
OBJECT
 10
13.89305163868981
 20
15.23598756452272
 30
0.0
 42
0.0723410840576608
  0
VERTEX
  5
5BF
  8
OBJECT
 10
13.875814835428979
 20
15.22238683722429
 30
0.0
 42
0.0587518675353803
  0
SEQEND
  5
5C0
  8
OBJECT
  0
TEXT
  5
20F
  8
TEXT
 10
11.16227930007933
 20
19.667484506686641
 30
0.0
 40
0.1875
  1
- SUFFIX "B" SMOOTH GRAY
 41
0.75
  0
TEXT
  5
210
  8
TEXT
 10
9.0291803116124907
 20
19.039151173353311
 30
0.0
 40
0.188
  1
EACH UNIT SLIPS TOGETHER AND MAY BE
 41
0.75
  7
TXT
  0
TEXT
  5
211
  8
TEXT
 10
9.0291803116124907
 20
18.725817840019971
 30
0.0
 40
0.188
  1
JOINED BY EITHER BUILT-IN SNAP LOCK
 41
0.75
  7
TXT
  0
TEXT
  5
212
  8
TEXT
 10
9.0291803116124907
 20
18.412484506686649
 30
0.0
 40
0.188
  1
OR #6 SHEET METAL SCREWS (PROVIDED).
 41
0.75
  7
TXT
  0
TEXT
  5
213
  8
TEXT
 10
3.5813096970456799
 20
6.7688418157875061
 30
0.0
 40
0.25
  1
%%uBASE
 41
0.75
  7
TXT
  0
TEXT
  5
214
  8
TEXT
 10
3.5813096970456799
 20
14.23222941087697
 30
0.0
 40
0.25
  1
%%uCOVER
 41
0.75
  7
TXT
  0
LINE
  5
215
  8
TITLE
 10
1.5929999999999971
 20
4.4796666666666702
 30
0.0
 11
1.592999999999996
 21
0.0930000000000016
 31
0.0
  0
LINE
  5
216
  8
TITLE
 10
3.0929999999999969
 20
5.1063333333333372
 30
0.0
 11
3.092999999999996
 21
0.0930000000000016
 31
0.0
  0
LINE
  5
21A
  8
TITLE
 10
9.0929999999999982
 20
5.1063333333333372
 30
0.0
 11
9.0929999999999964
 21
0.0930000000000016
 31
0.0
  0
LINE
  5
21E
  8
TITLE
 10
15.087
 20
5.1063333333333372
 30
0.0
 11
0.093
 21
5.1063333333333372
 31
0.0
  0
TEXT
  5
21F
  8
TEXT
 10
0.2789999999999991
 20
3.6023333333333349
 30
0.0
 40
0.188
  1
CU-2100-B
 41
0.75
  7
TXT
 72
     4
 11
0.8429999999999992
 21
3.6963333333333348
 31
0.0
  0
TEXT
  5
220
  8
TEXT
 10
1.767249999999998
 20
3.6023333333333349
 30
0.0
 40
0.188
  1
CU-3000-A
 41
0.75
  7
TXT
 72
     4
 11
2.3429999999999982
 21
3.6963333333333348
 31
0.0
  0
TEXT
  5
221
  8
TEXT
 10
1.7789999999999979
 20
3.289000000000001
 30
0.0
 40
0.188
  1
CU-3001-A
 41
0.75
  7
TXT
 72
     4
 11
2.3429999999999982
 21
3.3830000000000009
 31
0.0
  0
TEXT
  5
222
  8
TEXT
 10
0.2907499999999991
 20
3.289000000000001
 30
0.0
 40
0.188
  1
CU-2101-B
 41
0.75
  7
TXT
 72
     4
 11
0.8429999999999992
 21
3.3830000000000009
 31
0.0
  0
TEXT
  5
223
  8
TEXT
 10
1.7554999999999981
 20
2.975666666666668
 30
0.0
 40
0.188
  1
CU-3002-A
 41
0.75
  7
TXT
 72
     4
 11
2.3429999999999982
 21
3.069666666666667
 31
0.0
  0
TEXT
  5
224
  8
TEXT
 10
0.2672499999999991
 20
2.975666666666668
 30
0.0
 40
0.188
  1
CU-2102-B
 41
0.75
  7
TXT
 72
     4
 11
0.8429999999999992
 21
3.069666666666667
 31
0.0
  0
TEXT
  5
225
  8
TEXT
 10
1.7554999999999981
 20
2.6623333333333341
 30
0.0
 40
0.188
  1
CU-3003-A
 41
0.75
  7
TXT
 72
     4
 11
2.3429999999999982
 21
2.756333333333334
 31
0.0
  0
TEXT
  5
226
  8
TEXT
 10
0.2672499999999991
 20
2.6623333333333341
 30
0.0
 40
0.188
  1
CU-2103-B
 41
0.75
  7
TXT
 72
     4
 11
0.8429999999999992
 21
2.756333333333334
 31
0.0
  0
TEXT
  5
227
  8
TEXT
 10
1.7554999999999981
 20
2.3490000000000011
 30
0.0
 40
0.188
  1
CU-3004-A
 41
0.75
  7
TXT
 72
     4
 11
2.3429999999999982
 21
2.4430000000000009
 31
0.0
  0
TEXT
  5
228
  8
TEXT
 10
0.2672499999999991
 20
2.3490000000000011
 30
0.0
 40
0.188
  1
CU-2104-B
 41
0.75
  7
TXT
 72
     4
 11
0.8429999999999992
 21
2.4430000000000009
 31
0.0
  0
TEXT
  5
229
  8
TEXT
 10
1.7554999999999981
 20
2.0356666666666672
 30
0.0
 40
0.188
  1
CU-3005-A
 41
0.75
  7
TXT
 72
     4
 11
2.3429999999999982
 21
2.129666666666667
 31
0.0
  0
TEXT
  5
22A
  8
TEXT
 10
0.2672499999999991
 20
2.0356666666666672
 30
0.0
 40
0.188
  1
CU-2105-B
 41
0.75
  7
TXT
 72
     4
 11
0.8429999999999992
 21
2.129666666666667
 31
0.0
  0
TEXT
  5
22B
  8
TEXT
 10
1.7554999999999981
 20
1.7223333333333339
 30
0.0
 40
0.188
  1
CU-3006-A
 41
0.75
  7
TXT
 72
     4
 11
2.3429999999999982
 21
1.816333333333334
 31
0.0
  0
TEXT
  5
22C
  8
TEXT
 10
0.2672499999999991
 20
1.7223333333333339
 30
0.0
 40
0.188
  1
CU-2106-B
 41
0.75
  7
TXT
 72
     4
 11
0.8429999999999992
 21
1.816333333333334
 31
0.0
  0
TEXT
  5
22D
  8
TEXT
 10
1.7554999999999981
 20
1.4090000000000009
 30
0.0
 40
0.188
  1
CU-3007-A
 41
0.75
  7
TXT
 72
     4
 11
2.3429999999999982
 21
1.503000000000001
 31
0.0
  0
TEXT
  5
22E
  8
TEXT
 10
0.2672499999999991
 20
1.4090000000000009
 30
0.0
 40
0.188
  1
CU-2107-B
 41
0.75
  7
TXT
 72
     4
 11
0.8429999999999992
 21
1.503000000000001
 31
0.0
  0
TEXT
  5
22F
  8
TEXT
 10
1.7554999999999981
 20
1.095666666666667
 30
0.0
 40
0.188
  1
CU-3008-A
 41
0.75
  7
TXT
 72
     4
 11
2.3429999999999982
 21
1.1896666666666671
 31
0.0
  0
TEXT
  5
230
  8
TEXT
 10
0.2672499999999991
 20
1.095666666666667
 30
0.0
 40
0.188
  1
CU-2108-B
 41
0.75
  7
TXT
 72
     4
 11
0.8429999999999992
 21
1.1896666666666671
 31
0.0
  0
TEXT
  5
231
  8
TEXT
 10
1.7554999999999981
 20
0.7823333333333346
 30
0.0
 40
0.188
  1
CU-3009-A
 41
0.75
  7
TXT
 72
     4
 11
2.3429999999999982
 21
0.8763333333333346
 31
0.0
  0
TEXT
  5
232
  8
TEXT
 10
0.2672499999999991
 20
0.7823333333333346
 30
0.0
 40
0.188
  1
CU-2109-B
 41
0.75
  7
TXT
 72
     4
 11
0.8429999999999992
 21
0.8763333333333346
 31
0.0
  0
TEXT
  5
233
  8
TEXT
 10
1.7789999999999979
 20
0.4690000000000007
 30
0.0
 40
0.188
  1
CU-3010-A
 41
0.75
  7
TXT
 72
     4
 11
2.3429999999999982
 21
0.5630000000000006
 31
0.0
  0
TEXT
  5
234
  8
TEXT
 10
0.2907499999999991
 20
0.4690000000000007
 30
0.0
 40
0.188
  1
CU-2110-B
 41
0.75
  7
TXT
 72
     4
 11
0.8429999999999992
 21
0.5630000000000006
 31
0.0
  0
TEXT
  5
235
  8
TEXT
 10
1.7907499999999981
 20
0.1556666666666681
 30
0.0
 40
0.188
  1
CU-3011-A
 41
0.75
  7
TXT
 72
     4
 11
2.3429999999999982
 21
0.249666666666668
 31
0.0
  0
TEXT
  5
236
  8
TEXT
 10
0.302499999999999
 20
0.1556666666666681
 30
0.0
 40
0.188
  1
CU-2111-B
 41
0.75
  7
TXT
 72
     4
 11
0.8429999999999992
 21
0.249666666666668
 31
0.0
  0
TEXT
  5
23D
  8
TEXT
 10
0.3964999999999993
 20
4.0723333333333347
 30
0.0
 40
0.188
  1
PAINTED
 41
0.75
  7
TXT
 72
     4
 11
0.8429999999999992
 21
4.166333333333335
 31
0.0
  0
TEXT
  5
23E
  8
TEXT
 10
1.872999999999998
 20
4.0723333333333347
 30
0.0
 40
0.188
  1
NATURAL
 41
0.75
  7
TXT
 72
     4
 11
2.3429999999999982
 21
4.166333333333335
 31
0.0
  0
TEXT
  5
23F
  8
TEXT
 10
1.099499999999997
 20
4.6990000000000016
 30
0.0
 40
0.188
  1
PART No.
 41
0.75
  7
TXT
 72
     4
 11
1.5929999999999971
 21
4.7930000000000019
 31
0.0
  0
TEXT
  5
240
  8
TEXT
 10
3.4083710976672839
 20
3.6023333333333349
 30
0.0
 40
0.188
  1
2.750
 41
0.75
  7
TXT
 72
     4
 11
3.6786210976672842
 21
3.6963333333333348
 31
0.0
  0
TEXT
  5
241
  8
TEXT
 10
4.6221842995199509
 20
3.6023333333333349
 30
0.0
 40
0.188
  1
2.125
 41
0.75
  7
TXT
 72
     4
 11
4.8806842995199506
 21
3.6963333333333348
 31
0.0
  0
TEXT
  5
242
  8
TEXT
 10
5.8037000632424807
 20
3.6023333333333349
 30
0.0
 40
0.188
  1
1.625
 41
0.75
  7
TXT
 72
     4
 11
6.0622000632424813
 21
3.6963333333333348
 31
0.0
  0
TEXT
  5
243
  8
TEXT
 10
7.0145606027738818
 20
3.6023333333333349
 30
0.0
 40
0.188
  1
0.594
 41
0.75
  7
TXT
 72
     4
 11
7.2848106027738817
 21
3.6963333333333348
 31
0.0
  0
TEXT
  5
244
  8
TEXT
 10
10.643062946546729
 20
3.6023333333333349
 30
0.0
 40
0.188
  1
2.031
 41
0.75
  7
TXT
 72
     4
 11
10.889812946546741
 21
3.6963333333333348
 31
0.0
  0
TEXT
  5
245
  8
TEXT
 10
9.3771164696220968
 20
3.6023333333333349
 30
0.0
 40
0.188
  1
2.656
 41
0.75
  7
TXT
 72
     4
 11
9.6591164696220968
 21
3.6963333333333348
 31
0.0
  0
TEXT
  5
246
  8
TEXT
 10
11.78966220230142
 20
3.6023333333333349
 30
0.0
 40
0.188
  1
1.562
 41
0.75
  7
TXT
 72
     4
 11
12.04816220230142
 21
3.6963333333333348
 31
0.0
  0
TEXT
  5
247
  8
TEXT
 10
12.946614483516189
 20
3.6023333333333349
 30
0.0
 40
0.188
  1
0.968
 41
0.75
  7
TXT
 72
     4
 11
13.21686448351619
 21
3.6963333333333348
 31
0.0
  0
TEXT
  5
248
  8
TEXT
 10
3.631621097667284
 20
4.0723333333333347
 30
0.0
 40
0.188
  1
A
 41
0.75
  7
TXT
 72
     4
 11
3.6786210976672842
 21
4.166333333333335
 31
0.0
  0
TEXT
  5
249
  8
TEXT
 10
4.8336842995199509
 20
4.0723333333333347
 30
0.0
 40
0.188
  1
B
 41
0.75
  7
TXT
 72
     4
 11
4.8806842995199506
 21
4.166333333333335
 31
0.0
  0
TEXT
  5
24A
  8
TEXT
 10
6.0152000632424807
 20
4.0723333333333347
 30
0.0
 40
0.188
  1
C
 41
0.75
  7
TXT
 72
     4
 11
6.0622000632424813
 21
4.166333333333335
 31
0.0
  0
TEXT
  5
24B
  8
TEXT
 10
7.237810602773882
 20
4.0723333333333347
 30
0.0
 40
0.188
  1
D
 41
0.75
  7
TXT
 72
     4
 11
7.2848106027738817
 21
4.166333333333335
 31
0.0
  0
TEXT
  5
24C
  8
TEXT
 10
8.4398739050779792
 20
4.0723333333333347
 30
0.0
 40
0.188
  1
E
 41
0.75
  7
TXT
 72
     4
 11
8.4868739050779798
 21
4.166333333333335
 31
0.0
  0
TEXT
  5
24D
  8
TEXT
 10
9.6464129465467394
 20
4.0723333333333347
 30
0.0
 40
0.188
  1
F
 41
0.75
  7
TXT
 72
     4
 11
9.69341294654674
 21
4.166333333333335
 31
0.0
  0
TEXT
  5
24E
  8
TEXT
 10
10.798762202301431
 20
4.0723333333333347
 30
0.0
 40
0.188
  1
G
 41
0.75
  7
TXT
 72
     4
 11
10.84576220230143
 21
4.166333333333335
 31
0.0
  0
TEXT
  5
24F
  8
TEXT
 10
11.96746448351619
 20
4.0723333333333347
 30
0.0
 40
0.188
  1
H
 41
0.75
  7
TXT
 72
     4
 11
12.014464483516189
 21
4.166333333333335
 31
0.0
  0
TEXT
  5
250
  8
TEXT
 10
3.4083710976672839
 20
3.289000000000001
 30
0.0
 40
0.188
  1
3.250
 41
0.75
  7
TXT
 72
     4
 11
3.6786210976672842
 21
3.3830000000000009
 31
0.0
  0
TEXT
  5
251
  8
TEXT
 10
3.4318710976672842
 20
2.975666666666668
 30
0.0
 40
0.188
  1
4.000
 41
0.75
  7
TXT
 72
     4
 11
3.6786210976672842
 21
3.069666666666667
 31
0.0
  0
TEXT
  5
252
  8
TEXT
 10
3.4318710976672842
 20
2.6623333333333341
 30
0.0
 40
0.188
  1
4.000
 41
0.75
  7
TXT
 72
     4
 11
3.6786210976672842
 21
2.756333333333334
 31
0.0
  0
TEXT
  5
253
  8
TEXT
 10
3.4318710976672842
 20
2.3490000000000011
 30
0.0
 40
0.188
  1
5.000
 41
0.75
  7
TXT
 72
     4
 11
3.6786210976672842
 21
2.4430000000000009
 31
0.0
  0
TEXT
  5
254
  8
TEXT
 10
3.4318710976672842
 20
2.0356666666666672
 30
0.0
 40
0.188
  1
5.000
 41
0.75
  7
TXT
 72
     4
 11
3.6786210976672842
 21
2.129666666666667
 31
0.0
  0
TEXT
  5
255
  8
TEXT
 10
3.4083710976672839
 20
1.7223333333333339
 30
0.0
 40
0.188
  1
5.250
 41
0.75
  7
TXT
 72
     4
 11
3.6786210976672842
 21
1.816333333333334
 31
0.0
  0
TEXT
  5
256
  8
TEXT
 10
3.4318710976672842
 20
1.409
 30
0.0
 40
0.188
  1
6.000
 41
0.75
  7
TXT
 72
     4
 11
3.6786210976672842
 21
1.503000000000001
 31
0.0
  0
TEXT
  5
257
  8
TEXT
 10
3.4318710976672842
 20
1.095666666666667
 30
0.0
 40
0.188
  1
7.000
 41
0.75
  7
TXT
 72
     4
 11
3.6786210976672842
 21
1.1896666666666671
 31
0.0
  0
TEXT
  5
258
  8
TEXT
 10
3.4318710976672842
 20
0.7823333333333333
 30
0.0
 40
0.188
  1
8.000
 41
0.75
  7
TXT
 72
     4
 11
3.6786210976672842
 21
0.8763333333333331
 31
0.0
  0
TEXT
  5
259
  8
TEXT
 10
3.3966210976672842
 20
0.4690000000000007
 30
0.0
 40
0.188
  1
10.000
 41
0.75
  7
TXT
 72
     4
 11
3.6786210976672842
 21
0.5630000000000006
 31
0.0
  0
TEXT
  5
25A
  8
TEXT
 10
3.384871097667284
 20
0.1556666666666663
 30
0.0
 40
0.188
  1
12.000
 41
0.75
  7
TXT
 72
     4
 11
3.6786210976672842
 21
0.2496666666666663
 31
0.0
  0
TEXT
  5
25E
  8
TEXT
 10
4.62218429951995
 20
3.289000000000001
 30
0.0
 40
0.188
  1
2.125
 41
0.75
  7
TXT
 72
     4
 11
4.8806842995199489
 21
3.3830000000000009
 31
0.0
  0
TEXT
  5
25F
  8
TEXT
 10
5.8037000632424798
 20
3.289000000000001
 30
0.0
 40
0.188
  1
1.625
 41
0.75
  7
TXT
 72
     4
 11
6.0622000632424804
 21
3.3830000000000009
 31
0.0
  0
TEXT
  5
260
  8
TEXT
 10
7.0145606027738818
 20
3.289000000000001
 30
0.0
 40
0.188
  1
0.594
 41
0.75
  7
TXT
 72
     4
 11
7.2848106027738817
 21
3.3830000000000009
 31
0.0
  0
TEXT
  5
261
  8
TEXT
 10
10.643062946546729
 20
3.289000000000001
 30
0.0
 40
0.188
  1
2.031
 41
0.75
  7
TXT
 72
     4
 11
10.889812946546741
 21
3.3830000000000009
 31
0.0
  0
TEXT
  5
262
  8
TEXT
 10
11.78966220230142
 20
3.289000000000001
 30
0.0
 40
0.188
  1
1.562
 41
0.75
  7
TXT
 72
     4
 11
12.04816220230142
 21
3.3830000000000009
 31
0.0
  0
TEXT
  5
263
  8
TEXT
 10
12.946614483516189
 20
3.289000000000001
 30
0.0
 40
0.188
  1
0.968
 41
0.75
  7
TXT
 72
     4
 11
13.21686448351619
 21
3.3830000000000009
 31
0.0
  0
TEXT
  5
264
  8
TEXT
 10
4.62218429951995
 20
2.975666666666668
 30
0.0
 40
0.188
  1
2.125
 41
0.75
  7
TXT
 72
     4
 11
4.8806842995199489
 21
3.069666666666667
 31
0.0
  0
TEXT
  5
265
  8
TEXT
 10
5.8037000632424798
 20
2.975666666666668
 30
0.0
 40
0.188
  1
1.625
 41
0.75
  7
TXT
 72
     4
 11
6.0622000632424804
 21
3.069666666666667
 31
0.0
  0
TEXT
  5
266
  8
TEXT
 10
7.0145606027738818
 20
2.975666666666668
 30
0.0
 40
0.188
  1
0.594
 41
0.75
  7
TXT
 72
     4
 11
7.2848106027738817
 21
3.069666666666667
 31
0.0
  0
TEXT
  5
267
  8
TEXT
 10
10.643062946546729
 20
2.975666666666668
 30
0.0
 40
0.188
  1
2.031
 41
0.75
  7
TXT
 72
     4
 11
10.889812946546741
 21
3.0696666666666679
 31
0.0
  0
TEXT
  5
268
  8
TEXT
 10
11.78966220230142
 20
2.975666666666668
 30
0.0
 40
0.188
  1
1.562
 41
0.75
  7
TXT
 72
     4
 11
12.04816220230142
 21
3.0696666666666679
 31
0.0
  0
TEXT
  5
269
  8
TEXT
 10
12.946614483516189
 20
2.975666666666668
 30
0.0
 40
0.188
  1
0.968
 41
0.75
  7
TXT
 72
     4
 11
13.21686448351619
 21
3.0696666666666679
 31
0.0
  0
TEXT
  5
26A
  8
TEXT
 10
12.946614483516189
 20
2.6623333333333341
 30
0.0
 40
0.188
  1
0.968
 41
0.75
  7
TXT
 72
     4
 11
13.21686448351619
 21
2.756333333333334
 31
0.0
  0
TEXT
  5
26B
  8
TEXT
 10
12.946614483516189
 20
2.349000000000002
 30
0.0
 40
0.188
  1
0.968
 41
0.75
  7
TXT
 72
     4
 11
13.21686448351619
 21
2.4430000000000018
 31
0.0
  0
TEXT
  5
26C
  8
TEXT
 10
12.946614483516189
 20
1.7223333333333339
 30
0.0
 40
0.188
  1
0.968
 41
0.75
  7
TXT
 72
     4
 11
13.21686448351619
 21
1.816333333333334
 31
0.0
  0
TEXT
  5
26F
  8
TEXT
 10
12.946614483516189
 20
2.0356666666666681
 30
0.0
 40
0.188
  1
2.094
 41
0.75
  7
TXT
 72
     4
 11
13.21686448351619
 21
2.1296666666666679
 31
0.0
  0
TEXT
  5
270
  8
TEXT
 10
12.946614483516189
 20
1.4090000000000009
 30
0.0
 40
0.188
  1
2.094
 41
0.75
  7
TXT
 72
     4
 11
13.21686448351619
 21
1.503000000000001
 31
0.0
  0
TEXT
  5
271
  8
TEXT
 10
12.946614483516189
 20
1.0956666666666679
 30
0.0
 40
0.188
  1
2.094
 41
0.75
  7
TXT
 72
     4
 11
13.21686448351619
 21
1.189666666666668
 31
0.0
  0
TEXT
  5
272
  8
TEXT
 10
12.946614483516189
 20
0.7823333333333351
 30
0.0
 40
0.188
  1
2.094
 41
0.75
  7
TXT
 72
     4
 11
13.21686448351619
 21
0.8763333333333349
 31
0.0
  0
TEXT
  5
273
  8
TEXT
 10
12.946614483516189
 20
0.4690000000000025
 30
0.0
 40
0.188
  1
2.094
 41
0.75
  7
TXT
 72
     4
 11
13.21686448351619
 21
0.5630000000000024
 31
0.0
  0
TEXT
  5
274
  8
TEXT
 10
12.946614483516189
 20
0.1556666666666689
 30
0.0
 40
0.188
  1
2.094
 41
0.75
  7
TXT
 72
     4
 11
13.21686448351619
 21
0.2496666666666689
 31
0.0
  0
TEXT
  5
276
  8
TEXT
 10
4.610434299519949
 20
2.6623333333333341
 30
0.0
 40
0.188
  1
2.250
 41
0.75
  7
TXT
 72
     4
 11
4.8806842995199489
 21
2.756333333333334
 31
0.0
  0
TEXT
  5
277
  8
TEXT
 10
4.610434299519949
 20
2.3490000000000011
 30
0.0
 40
0.188
  1
2.250
 41
0.75
  7
TXT
 72
     4
 11
4.8806842995199489
 21
2.4430000000000009
 31
0.0
  0
TEXT
  5
278
  8
TEXT
 10
4.6339342995199493
 20
2.0356666666666672
 30
0.0
 40
0.188
  1
4.000
 41
0.75
  7
TXT
 72
     4
 11
4.8806842995199489
 21
2.129666666666667
 31
0.0
  0
TEXT
  5
279
  8
TEXT
 10
4.6339342995199493
 20
1.7223333333333339
 30
0.0
 40
0.188
  1
3.000
 41
0.75
  7
TXT
 72
     4
 11
4.8806842995199489
 21
1.816333333333334
 31
0.0
  0
TEXT
  5
27A
  8
TEXT
 10
4.6339342995199493
 20
1.409
 30
0.0
 40
0.188
  1
5.000
 41
0.75
  7
TXT
 72
     4
 11
4.8806842995199489
 21
1.503000000000001
 31
0.0
  0
TEXT
  5
27B
  8
TEXT
 10
4.6339342995199493
 20
1.095666666666667
 30
0.0
 40
0.188
  1
5.000
 41
0.75
  7
TXT
 72
     4
 11
4.8806842995199489
 21
1.1896666666666671
 31
0.0
  0
TEXT
  5
27C
  8
TEXT
 10
4.6339342995199493
 20
0.7823333333333333
 30
0.0
 40
0.188
  1
6.000
 41
0.75
  7
TXT
 72
     4
 11
4.8806842995199489
 21
0.8763333333333331
 31
0.0
  0
TEXT
  5
27D
  8
TEXT
 10
4.6339342995199493
 20
0.4690000000000007
 30
0.0
 40
0.188
  1
6.000
 41
0.75
  7
TXT
 72
     4
 11
4.8806842995199489
 21
0.5630000000000006
 31
0.0
  0
TEXT
  5
27E
  8
TEXT
 10
4.6339342995199493
 20
0.1556666666666663
 30
0.0
 40
0.188
  1
7.000
 41
0.75
  7
TXT
 72
     4
 11
4.8806842995199489
 21
0.2496666666666663
 31
0.0
  0
TEXT
  5
282
  8
TEXT
 10
5.7919500632424796
 20
2.6623333333333341
 30
0.0
 40
0.188
  1
2.250
 41
0.75
  7
TXT
 72
     4
 11
6.0622000632424804
 21
2.756333333333334
 31
0.0
  0
TEXT
  5
283
  8
TEXT
 10
5.7919500632424796
 20
2.3490000000000011
 30
0.0
 40
0.188
  1
2.250
 41
0.75
  7
TXT
 72
     4
 11
6.0622000632424804
 21
2.4430000000000009
 31
0.0
  0
TEXT
  5
284
  8
TEXT
 10
5.815450063242479
 20
2.0356666666666672
 30
0.0
 40
0.188
  1
3.000
 41
0.75
  7
TXT
 72
     4
 11
6.0622000632424804
 21
2.129666666666667
 31
0.0
  0
TEXT
  5
285
  8
TEXT
 10
5.8037000632424798
 20
1.7223333333333339
 30
0.0
 40
0.188
  1
2.125
 41
0.75
  7
TXT
 72
     4
 11
6.0622000632424804
 21
1.816333333333334
 31
0.0
  0
TEXT
  5
286
  8
TEXT
 10
5.815450063242479
 20
1.409
 30
0.0
 40
0.188
  1
4.000
 41
0.75
  7
TXT
 72
     4
 11
6.0622000632424804
 21
1.503000000000001
 31
0.0
  0
TEXT
  5
287
  8
TEXT
 10
5.815450063242479
 20
1.095666666666667
 30
0.0
 40
0.188
  1
3.000
 41
0.75
  7
TXT
 72
     4
 11
6.0622000632424804
 21
1.1896666666666671
 31
0.0
  0
TEXT
  5
288
  8
TEXT
 10
5.8037000632424798
 20
0.7823333333333333
 30
0.0
 40
0.188
  1
3.500
 41
0.75
  7
TXT
 72
     4
 11
6.0622000632424804
 21
0.8763333333333331
 31
0.0
  0
TEXT
  5
289
  8
TEXT
 10
5.8037000632424798
 20
0.4690000000000007
 30
0.0
 40
0.188
  1
3.500
 41
0.75
  7
TXT
 72
     4
 11
6.0622000632424804
 21
0.5630000000000006
 31
0.0
  0
TEXT
  5
28A
  8
TEXT
 10
5.815450063242479
 20
0.1556666666666663
 30
0.0
 40
0.188
  1
4.000
 41
0.75
  7
TXT
 72
     4
 11
6.0622000632424804
 21
0.2496666666666663
 31
0.0
  0
TEXT
  5
28E
  8
TEXT
 10
7.0498106027738823
 20
2.6623333333333341
 30
0.0
 40
0.188
  1
1.218
 41
0.75
  7
TXT
 72
     4
 11
7.2848106027738817
 21
2.756333333333334
 31
0.0
  0
TEXT
  5
28F
  8
TEXT
 10
7.0498106027738823
 20
2.3490000000000011
 30
0.0
 40
0.188
  1
1.218
 41
0.75
  7
TXT
 72
     4
 11
7.2848106027738817
 21
2.4430000000000009
 31
0.0
  0
TEXT
  5
290
  8
TEXT
 10
7.0145606027738818
 20
2.0356666666666672
 30
0.0
 40
0.188
  1
0.844
 41
0.75
  7
TXT
 72
     4
 11
7.2848106027738817
 21
2.129666666666667
 31
0.0
  0
TEXT
  5
291
  8
TEXT
 10
7.0380606027738821
 20
1.7223333333333339
 30
0.0
 40
0.188
  1
1.094
 41
0.75
  7
TXT
 72
     4
 11
7.2848106027738817
 21
1.816333333333334
 31
0.0
  0
TEXT
  5
292
  8
TEXT
 10
7.026310602773882
 20
1.4090000000000009
 30
0.0
 40
0.188
  1
1.844
 41
0.75
  7
TXT
 72
     4
 11
7.2848106027738817
 21
1.503000000000001
 31
0.0
  0
TEXT
  5
293
  8
TEXT
 10
7.0145606027738818
 20
1.095666666666667
 30
0.0
 40
0.188
  1
0.836
 41
0.75
  7
TXT
 72
     4
 11
7.2848106027738817
 21
1.1896666666666671
 31
0.0
  0
TEXT
  5
294
  8
TEXT
 10
7.026310602773882
 20
0.7823333333333333
 30
0.0
 40
0.188
  1
1.336
 41
0.75
  7
TXT
 72
     4
 11
7.2848106027738817
 21
0.8763333333333331
 31
0.0
  0
TEXT
  5
295
  8
TEXT
 10
7.026310602773882
 20
0.4690000000000007
 30
0.0
 40
0.188
  1
1.336
 41
0.75
  7
TXT
 72
     4
 11
7.2848106027738817
 21
0.5630000000000006
 31
0.0
  0
TEXT
  5
296
  8
TEXT
 10
7.026310602773882
 20
0.1556666666666663
 30
0.0
 40
0.188
  1
1.836
 41
0.75
  7
TXT
 72
     4
 11
7.2848106027738817
 21
0.2496666666666663
 31
0.0
  0
TEXT
  5
29A
  8
TEXT
 10
9.4006164696220971
 20
3.289000000000001
 30
0.0
 40
0.188
  1
3.156
 41
0.75
  7
TXT
 72
     4
 11
9.6591164696220968
 21
3.3830000000000009
 31
0.0
  0
TEXT
  5
29B
  8
TEXT
 10
9.388866469622096
 20
2.975666666666668
 30
0.0
 40
0.188
  1
3.906
 41
0.75
  7
TXT
 72
     4
 11
9.6591164696220968
 21
3.0696666666666679
 31
0.0
  0
TEXT
  5
29C
  8
TEXT
 10
9.388866469622096
 20
2.6623333333333341
 30
0.0
 40
0.188
  1
3.906
 41
0.75
  7
TXT
 72
     4
 11
9.6591164696220968
 21
2.756333333333334
 31
0.0
  0
TEXT
  5
29D
  8
TEXT
 10
9.388866469622096
 20
2.349000000000002
 30
0.0
 40
0.188
  1
4.906
 41
0.75
  7
TXT
 72
     4
 11
9.6591164696220968
 21
2.4430000000000018
 31
0.0
  0
TEXT
  5
29E
  8
TEXT
 10
9.388866469622096
 20
2.0356666666666681
 30
0.0
 40
0.188
  1
4.906
 41
0.75
  7
TXT
 72
     4
 11
9.6591164696220968
 21
2.129666666666667
 31
0.0
  0
TEXT
  5
29F
  8
TEXT
 10
9.4006164696220971
 20
1.722333333333335
 30
0.0
 40
0.188
  1
5.156
 41
0.75
  7
TXT
 72
     4
 11
9.6591164696220968
 21
1.816333333333334
 31
0.0
  0
TEXT
  5
2A0
  8
TEXT
 10
9.388866469622096
 20
1.4090000000000009
 30
0.0
 40
0.188
  1
5.906
 41
0.75
  7
TXT
 72
     4
 11
9.6591164696220968
 21
1.503000000000001
 31
0.0
  0
TEXT
  5
2A1
  8
TEXT
 10
9.3771164696220968
 20
1.095666666666667
 30
0.0
 40
0.188
  1
6.875
 41
0.75
  7
TXT
 72
     4
 11
9.6591164696220968
 21
1.1896666666666671
 31
0.0
  0
TEXT
  5
2A2
  8
TEXT
 10
9.3771164696220968
 20
0.7823333333333337
 30
0.0
 40
0.188
  1
7.875
 41
0.75
  7
TXT
 72
     4
 11
9.6591164696220968
 21
0.8763333333333335
 31
0.0
  0
TEXT
  5
2A3
  8
TEXT
 10
9.3771164696220968
 20
0.4690000000000011
 30
0.0
 40
0.188
  1
9.875
 41
0.75
  7
TXT
 72
     4
 11
9.6591164696220968
 21
0.5630000000000011
 31
0.0
  0
TEXT
  5
2A4
  8
TEXT
 10
9.3536164696220965
 20
0.1556666666666667
 30
0.0
 40
0.188
  1
11.875
 41
0.75
  7
TXT
 72
     4
 11
9.6591164696220968
 21
0.2496666666666667
 31
0.0
  0
TEXT
  5
2A8
  8
TEXT
 10
11.78966220230142
 20
2.6623333333333341
 30
0.0
 40
0.188
  1
2.188
 41
0.75
  7
TXT
 72
     4
 11
12.04816220230142
 21
2.756333333333334
 31
0.0
  0
TEXT
  5
2A9
  8
TEXT
 10
11.78966220230142
 20
2.349000000000002
 30
0.0
 40
0.188
  1
2.188
 41
0.75
  7
TXT
 72
     4
 11
12.04816220230142
 21
2.4430000000000018
 31
0.0
  0
TEXT
  5
2AA
  8
TEXT
 10
11.76616220230142
 20
2.0356666666666681
 30
0.0
 40
0.188
  1
2.938
 41
0.75
  7
TXT
 72
     4
 11
12.04816220230142
 21
2.129666666666667
 31
0.0
  0
TEXT
  5
2AB
  8
TEXT
 10
11.777912202301421
 20
1.7223333333333339
 30
0.0
 40
0.188
  1
2.062
 41
0.75
  7
TXT
 72
     4
 11
12.04816220230142
 21
1.816333333333334
 31
0.0
  0
TEXT
  5
2AC
  8
TEXT
 10
11.76616220230142
 20
1.4090000000000009
 30
0.0
 40
0.188
  1
3.938
 41
0.75
  7
TXT
 72
     4
 11
12.04816220230142
 21
1.503000000000001
 31
0.0
  0
TEXT
  5
2AD
  8
TEXT
 10
11.76616220230142
 20
1.095666666666667
 30
0.0
 40
0.188
  1
2.929
 41
0.75
  7
TXT
 72
     4
 11
12.04816220230142
 21
1.1896666666666671
 31
0.0
  0
TEXT
  5
2AE
  8
TEXT
 10
11.76616220230142
 20
0.7823333333333337
 30
0.0
 40
0.188
  1
3.429
 41
0.75
  7
TXT
 72
     4
 11
12.04816220230142
 21
0.8763333333333335
 31
0.0
  0
TEXT
  5
2AF
  8
TEXT
 10
11.76616220230142
 20
0.4690000000000011
 30
0.0
 40
0.188
  1
3.429
 41
0.75
  7
TXT
 72
     4
 11
12.04816220230142
 21
0.5630000000000011
 31
0.0
  0
TEXT
  5
2B0
  8
TEXT
 10
11.76616220230142
 20
0.1556666666666671
 30
0.0
 40
0.188
  1
3.929
 41
0.75
  7
TXT
 72
     4
 11
12.04816220230142
 21
0.2496666666666671
 31
0.0
  0
TEXT
  5
2B4
  8
TEXT
 10
10.631312946546741
 20
2.6623333333333341
 30
0.0
 40
0.188
  1
2.156
 41
0.75
  7
TXT
 72
     4
 11
10.889812946546741
 21
2.756333333333334
 31
0.0
  0
TEXT
  5
2B5
  8
TEXT
 10
10.631312946546741
 20
2.349000000000002
 30
0.0
 40
0.188
  1
2.156
 41
0.75
  7
TXT
 72
     4
 11
10.889812946546741
 21
2.4430000000000018
 31
0.0
  0
TEXT
  5
2B6
  8
TEXT
 10
10.61956294654674
 20
2.0356666666666681
 30
0.0
 40
0.188
  1
3.906
 41
0.75
  7
TXT
 72
     4
 11
10.889812946546741
 21
2.129666666666667
 31
0.0
  0
TEXT
  5
2B7
  8
TEXT
 10
10.61956294654674
 20
1.7223333333333339
 30
0.0
 40
0.188
  1
2.906
 41
0.75
  7
TXT
 72
     4
 11
10.889812946546741
 21
1.816333333333334
 31
0.0
  0
TEXT
  5
2B8
  8
TEXT
 10
10.61956294654674
 20
1.4090000000000009
 30
0.0
 40
0.188
  1
4.906
 41
0.75
  7
TXT
 72
     4
 11
10.889812946546741
 21
1.503000000000001
 31
0.0
  0
TEXT
  5
2B9
  8
TEXT
 10
10.607812946546741
 20
1.095666666666667
 30
0.0
 40
0.188
  1
4.875
 41
0.75
  7
TXT
 72
     4
 11
10.889812946546741
 21
1.1896666666666671
 31
0.0
  0
TEXT
  5
2BA
  8
TEXT
 10
10.607812946546741
 20
0.7823333333333337
 30
0.0
 40
0.188
  1
5.875
 41
0.75
  7
TXT
 72
     4
 11
10.889812946546741
 21
0.8763333333333335
 31
0.0
  0
TEXT
  5
2BB
  8
TEXT
 10
10.607812946546741
 20
0.4690000000000011
 30
0.0
 40
0.188
  1
5.875
 41
0.75
  7
TXT
 72
     4
 11
10.889812946546741
 21
0.5630000000000011
 31
0.0
  0
TEXT
  5
2BC
  8
TEXT
 10
10.607812946546741
 20
0.1556666666666671
 30
0.0
 40
0.188
  1
6.875
 41
0.75
  7
TXT
 72
     4
 11
10.889812946546741
 21
0.2496666666666671
 31
0.0
  0
TEXT
  5
2C0
  8
TEXT
 10
5.8344999999999976
 20
4.6990000000000016
 30
0.0
 40
0.188
  1
BASE
 41
0.75
  7
TXT
 72
     4
 11
6.0929999999999982
 21
4.7930000000000019
 31
0.0
  0
TEXT
  5
2C1
  8
TEXT
 10
11.74049999999999
 20
4.6990000000000016
 30
0.0
 40
0.188
  1
COVER
 41
0.75
  7
TXT
 72
     4
 11
12.092999999999989
 21
4.7930000000000019
 31
0.0
  0
TEXT
  5
2C2
  8
TEXT
 10
2.926787580540041
 20
22.718499999999992
 30
0.0
 40
0.25
  1
MINIBOX
 41
0.75
  7
TXT
 72
     4
 11
3.489287580540041
 21
22.843499999999992
 31
0.0
  0
TEXT
  5
2C3
  8
TEXT
 10
7.7850302362617843
 20
22.718499999999992
 30
0.0
 40
0.25
  1
CU-2100-B  TO  CU-3011-A
 41
0.75
  7
TXT
 72
     4
 11
9.8631552362617843
 21
22.843499999999992
 31
0.0
  0
TEXT
  5
2ED
  8
TEXT
 10
13.814624416472739
 20
22.718499999999992
 30
0.0
 40
0.25
  1
7-11-12
 41
0.75
  7
TXT
 72
     4
 11
14.345874416472739
 21
22.843499999999992
 31
0.0
  0
LINE
  5
499
  8
TITLE
 10
4.292399999999998
 20
4.4796666666666702
 30
0.0
 11
4.2923999999999971
 21
0.0930000000000018
 31
0.0
  0
LINE
  5
49A
  8
TITLE
 10
5.4917999999999969
 20
4.4796666666666702
 30
0.0
 11
5.4917999999999969
 21
0.0930000000000018
 31
0.0
  0
LINE
  5
49B
  8
TITLE
 10
6.6911999999999967
 20
4.4796666666666702
 30
0.0
 11
6.6911999999999958
 21
0.0930000000000018
 31
0.0
  0
LINE
  5
49C
  8
TITLE
 10
7.8905999999999974
 20
4.4796666666666702
 30
0.0
 11
7.8905999999999947
 21
0.0930000000000018
 31
0.0
  0
LINE
  5
49E
  8
TITLE
 10
10.28939999999999
 20
4.4796666666666702
 30
0.0
 11
10.28939999999999
 21
0.0930000000000018
 31
0.0
  0
LINE
  5
49F
  8
TITLE
 10
11.488799999999991
 20
4.4796666666666702
 30
0.0
 11
11.488799999999999
 21
0.0930000000000018
 31
0.0
  0
LINE
  5
4A0
  8
TITLE
 10
12.6882
 20
4.4796666666666702
 30
0.0
 11
12.688199999999989
 21
0.0930000000000018
 31
0.0
  0
LINE
  5
4A1
  8
TITLE
 10
13.887600000000001
 20
4.4796666666666702
 30
0.0
 11
13.88759999999999
 21
0.0930000000000018
 31
0.0
  0
TEXT
  5
4A6
  8
TEXT
 10
14.366264483516201
 20
4.0723333333333347
 30
0.0
 40
0.188
  1
K
 41
0.75
  7
TXT
 72
     4
 11
14.41326448351619
 21
4.166333333333335
 31
0.0
  0
TEXT
  5
4A7
  8
TEXT
 10
13.19756220230143
 20
4.0723333333333347
 30
0.0
 40
0.188
  1
J
 41
0.75
  7
TXT
 72
     4
 11
13.244562202301431
 21
4.166333333333335
 31
0.0
  0
TEXT
  5
4A8
  8
TEXT
 10
8.2404606027738811
 20
0.4690000000000007
 30
0.0
 40
0.188
  1
0.172
 41
0.75
  7
TXT
 72
     4
 11
8.4872106027738816
 21
0.5630000000000006
 31
0.0
  0
TEXT
  5
4A9
  8
TEXT
 10
8.2404606027738811
 20
0.1556666666666663
 30
0.0
 40
0.188
  1
0.172
 41
0.75
  7
TXT
 72
     4
 11
8.4872106027738816
 21
0.2496666666666663
 31
0.0
  0
TEXT
  5
4AA
  8
TEXT
 10
8.2404606027738811
 20
1.4090000000000009
 30
0.0
 40
0.188
  1
0.172
 41
0.75
  7
TXT
 72
     4
 11
8.4872106027738816
 21
1.503000000000001
 31
0.0
  0
TEXT
  5
4AB
  8
TEXT
 10
8.2404606027738811
 20
1.095666666666667
 30
0.0
 40
0.188
  1
0.172
 41
0.75
  7
TXT
 72
     4
 11
8.4872106027738816
 21
1.1896666666666671
 31
0.0
  0
TEXT
  5
4AC
  8
TEXT
 10
8.2404606027738811
 20
0.7823333333333333
 30
0.0
 40
0.188
  1
0.156
 41
0.75
  7
TXT
 72
     4
 11
8.4872106027738816
 21
0.8763333333333331
 31
0.0
  0
TEXT
  5
4AD
  8
TEXT
 10
8.2404606027738811
 20
2.3490000000000011
 30
0.0
 40
0.188
  1
0.172
 41
0.75
  7
TXT
 72
     4
 11
8.4872106027738816
 21
2.4430000000000009
 31
0.0
  0
TEXT
  5
4AE
  8
TEXT
 10
8.2404606027738811
 20
2.0356666666666672
 30
0.0
 40
0.188
  1
0.172
 41
0.75
  7
TXT
 72
     4
 11
8.4872106027738816
 21
2.129666666666667
 31
0.0
  0
TEXT
  5
4AF
  8
TEXT
 10
8.2404606027738811
 20
1.7223333333333339
 30
0.0
 40
0.188
  1
0.172
 41
0.75
  7
TXT
 72
     4
 11
8.4872106027738816
 21
1.816333333333334
 31
0.0
  0
TEXT
  5
4B0
  8
TEXT
 10
8.2404606027738811
 20
3.289000000000001
 30
0.0
 40
0.188
  1
0.172
 41
0.75
  7
TXT
 72
     4
 11
8.4872106027738816
 21
3.3830000000000009
 31
0.0
  0
TEXT
  5
4B1
  8
TEXT
 10
8.2404606027738811
 20
2.975666666666668
 30
0.0
 40
0.188
  1
0.172
 41
0.75
  7
TXT
 72
     4
 11
8.4872106027738816
 21
3.069666666666667
 31
0.0
  0
TEXT
  5
4B2
  8
TEXT
 10
8.2404606027738811
 20
2.6623333333333341
 30
0.0
 40
0.188
  1
0.172
 41
0.75
  7
TXT
 72
     4
 11
8.4872106027738816
 21
2.756333333333334
 31
0.0
  0
TEXT
  5
4B3
  8
TEXT
 10
8.2404606027738811
 20
3.6023333333333349
 30
0.0
 40
0.188
  1
0.172
 41
0.75
  7
TXT
 72
     4
 11
8.4872106027738816
 21
3.6963333333333348
 31
0.0
  0
TEXT
  5
4B6
  8
TEXT
 10
14.19301448351619
 20
0.4690000000000025
 30
0.0
 40
0.188
  1
0.141
 41
0.75
  7
TXT
 72
     4
 11
14.416264483516191
 21
0.5630000000000024
 31
0.0
  0
TEXT
  5
4B7
  8
TEXT
 10
14.19301448351619
 20
0.155666666666669
 30
0.0
 40
0.188
  1
0.141
 41
0.75
  7
TXT
 72
     4
 11
14.416264483516191
 21
0.2496666666666689
 31
0.0
  0
TEXT
  5
4B8
  8
TEXT
 10
14.16951448351619
 20
1.409000000000002
 30
0.0
 40
0.188
  1
0.156
 41
0.75
  7
TXT
 72
     4
 11
14.416264483516191
 21
1.503000000000001
 31
0.0
  0
TEXT
  5
4B9
  8
TEXT
 10
14.19301448351619
 20
1.095666666666669
 30
0.0
 40
0.188
  1
0.141
 41
0.75
  7
TXT
 72
     4
 11
14.416264483516191
 21
1.189666666666668
 31
0.0
  0
TEXT
  5
4BA
  8
TEXT
 10
14.16951448351619
 20
0.7823333333333351
 30
0.0
 40
0.188
  1
0.156
 41
0.75
  7
TXT
 72
     4
 11
14.416264483516191
 21
0.8763333333333349
 31
0.0
  0
TEXT
  5
4BB
  8
TEXT
 10
14.16951448351619
 20
2.349000000000002
 30
0.0
 40
0.188
  1
0.156
 41
0.75
  7
TXT
 72
     4
 11
14.416264483516191
 21
2.4430000000000018
 31
0.0
  0
TEXT
  5
4BC
  8
TEXT
 10
14.16951448351619
 20
1.722333333333335
 30
0.0
 40
0.188
  1
0.156
 41
0.75
  7
TXT
 72
     4
 11
14.416264483516191
 21
1.816333333333334
 31
0.0
  0
TEXT
  5
4BD
  8
TEXT
 10
14.16951448351619
 20
2.0356666666666681
 30
0.0
 40
0.188
  1
0.156
 41
0.75
  7
TXT
 72
     4
 11
14.416264483516191
 21
2.1296666666666679
 31
0.0
  0
TEXT
  5
4BE
  8
TEXT
 10
14.16951448351619
 20
3.289000000000001
 30
0.0
 40
0.188
  1
0.156
 41
0.75
  7
TXT
 72
     4
 11
14.416264483516191
 21
3.3830000000000009
 31
0.0
  0
TEXT
  5
4BF
  8
TEXT
 10
14.16951448351619
 20
2.975666666666668
 30
0.0
 40
0.188
  1
0.156
 41
0.75
  7
TXT
 72
     4
 11
14.416264483516191
 21
3.0696666666666679
 31
0.0
  0
TEXT
  5
4C0
  8
TEXT
 10
14.16951448351619
 20
2.6623333333333341
 30
0.0
 40
0.188
  1
0.156
 41
0.75
  7
TXT
 72
     4
 11
14.416264483516191
 21
2.756333333333334
 31
0.0
  0
TEXT
  5
4C1
  8
TEXT
 10
14.16951448351619
 20
3.6023333333333349
 30
0.0
 40
0.188
  1
0.156
 41
0.75
  7
TXT
 72
     4
 11
14.416264483516191
 21
3.6963333333333348
 31
0.0
  0
ENDSEC
  0
EOF
