  0
SECTION
  2
HEADER
  9
$ACADVER
  1
AC1015
  9
$ACADMAINTVER
 70
     6
  9
$DWGCODEPAGE
  3
ANSI_1252
  9
$INSBASE
 10
0.0
 20
0.0
 30
0.0
  9
$EXTMIN
 10
-0.0037840064570958
 20
-0.0024705900223125
 30
-0.0000000349181948
  9
$EXTMAX
 10
62.0037845838947
 20
40.48247096703316
 30
0.0000000814935747
  9
$LIMMIN
 10
0.0
 20
0.0
  9
$LIMMAX
 10
62.0
 20
40.48
  9
$ORTHOMODE
 70
     1
  9
$REGENMODE
 70
     1
  9
$FILLMODE
 70
     1
  9
$QTEXTMODE
 70
     0
  9
$MIRRTEXT
 70
     0
  9
$LTSCALE
 40
1.0
  9
$ATTMODE
 70
     1
  9
$TEXTSIZE
 40
0.5
  9
$TRACEWID
 40
0.05
  9
$TEXTSTYLE
  7
TXT
  9
$CLAYER
  8
0
  9
$CELTYPE
  6
ByLayer
  9
$CECOLOR
 62
   256
  9
$CELTSCALE
 40
1.0
  9
$DISPSILH
 70
     0
  9
$DIMSCALE
 40
4.0
  9
$DIMASZ
 40
0.18
  9
$DIMEXO
 40
0.063
  9
$DIMDLI
 40
0.25
  9
$DIMRND
 40
0.0
  9
$DIMDLE
 40
0.0
  9
$DIMEXE
 40
0.093
  9
$DIMTP
 40
0.0
  9
$DIMTM
 40
0.0
  9
$DIMTXT
 40
0.125
  9
$DIMCEN
 40
0.09
  9
$DIMTSZ
 40
0.0
  9
$DIMTOL
 70
     0
  9
$DIMLIM
 70
     0
  9
$DIMTIH
 70
     1
  9
$DIMTOH
 70
     1
  9
$DIMSE1
 70
     0
  9
$DIMSE2
 70
     0
  9
$DIMTAD
 70
     0
  9
$DIMZIN
 70
     0
  9
$DIMBLK
  1

  9
$DIMASO
 70
     1
  9
$DIMSHO
 70
     1
  9
$DIMPOST
  1

  9
$DIMAPOST
  1

  9
$DIMALT
 70
     0
  9
$DIMALTD
 70
     2
  9
$DIMALTF
 40
25.4
  9
$DIMLFAC
 40
1.0
  9
$DIMTOFL
 70
     0
  9
$DIMTVP
 40
0.0
  9
$DIMTIX
 70
     0
  9
$DIMSOXD
 70
     0
  9
$DIMSAH
 70
     0
  9
$DIMBLK1
  1

  9
$DIMBLK2
  1

  9
$DIMSTYLE
  2
23NSTD
  9
$DIMCLRD
 70
     0
  9
$DIMCLRE
 70
     0
  9
$DIMCLRT
 70
     0
  9
$DIMTFAC
 40
1.0
  9
$DIMGAP
 40
0.09
  9
$DIMJUST
 70
     0
  9
$DIMSD1
 70
     0
  9
$DIMSD2
 70
     0
  9
$DIMTOLJ
 70
     1
  9
$DIMTZIN
 70
     0
  9
$DIMALTZ
 70
     0
  9
$DIMALTTZ
 70
     0
  9
$DIMUPT
 70
     0
  9
$DIMDEC
 70
     4
  9
$DIMTDEC
 70
     4
  9
$DIMALTU
 70
     2
  9
$DIMALTTD
 70
     2
  9
$DIMTXSTY
  7
STANDARD
  9
$DIMAUNIT
 70
     0
  9
$DIMADEC
 70
     0
  9
$DIMALTRND
 40
0.0
  9
$DIMAZIN
 70
     0
  9
$DIMDSEP
 70
    46
  9
$DIMATFIT
 70
     3
  9
$DIMFRAC
 70
     0
  9
$DIMLDRBLK
  1

  9
$DIMLUNIT
 70
     2
  9
$DIMLWD
 70
    -2
  9
$DIMLWE
 70
    -2
  9
$DIMTMOVE
 70
     0
  9
$LUNITS
 70
     2
  9
$LUPREC
 70
     3
  9
$SKETCHINC
 40
0.1
  9
$FILLETRAD
 40
0.0
  9
$AUNITS
 70
     0
  9
$AUPREC
 70
     0
  9
$MENU
  1
acad
  9
$ELEVATION
 40
0.0
  9
$PELEVATION
 40
0.0
  9
$THICKNESS
 40
0.0
  9
$LIMCHECK
 70
     0
  9
$CHAMFERA
 40
0.0
  9
$CHAMFERB
 40
0.0
  9
$CHAMFERC
 40
0.0
  9
$CHAMFERD
 40
0.0
  9
$SKPOLY
 70
     0
  9
$TDCREATE
 40
2450402.388466204
  9
$TDUCREATE
 40
2450402.555132870
  9
$TDUPDATE
 40
2455015.339535220
  9
$TDUUPDATE
 40
2455015.506201887
  9
$TDINDWG
 40
0.0550097917
  9
$TDUSRTIMER
 40
0.0550092593
  9
$USRTIMER
 70
     1
  9
$ANGBASE
 50
0.0
  9
$ANGDIR
 70
     0
  9
$PDMODE
 70
     0
  9
$PDSIZE
 40
0.0
  9
$PLINEWID
 40
0.0
  9
$SPLFRAME
 70
     0
  9
$SPLINETYPE
 70
     6
  9
$SPLINESEGS
 70
     8
  9
$HANDSEED
  5
D7E
  9
$SURFTAB1
 70
     6
  9
$SURFTAB2
 70
     6
  9
$SURFTYPE
 70
     6
  9
$SURFU
 70
     6
  9
$SURFV
 70
     6
  9
$UCSBASE
  2

  9
$UCSNAME
  2

  9
$UCSORG
 10
0.0
 20
0.0
 30
0.0
  9
$UCSXDIR
 10
1.0
 20
0.0
 30
0.0
  9
$UCSYDIR
 10
0.0
 20
1.0
 30
0.0
  9
$UCSORTHOREF
  2

  9
$UCSORTHOVIEW
 70
     0
  9
$UCSORGTOP
 10
0.0
 20
0.0
 30
0.0
  9
$UCSORGBOTTOM
 10
0.0
 20
0.0
 30
0.0
  9
$UCSORGLEFT
 10
0.0
 20
0.0
 30
0.0
  9
$UCSORGRIGHT
 10
0.0
 20
0.0
 30
0.0
  9
$UCSORGFRONT
 10
0.0
 20
0.0
 30
0.0
  9
$UCSORGBACK
 10
0.0
 20
0.0
 30
0.0
  9
$PUCSBASE
  2

  9
$PUCSNAME
  2

  9
$PUCSORG
 10
0.0
 20
0.0
 30
0.0
  9
$PUCSXDIR
 10
1.0
 20
0.0
 30
0.0
  9
$PUCSYDIR
 10
0.0
 20
1.0
 30
0.0
  9
$PUCSORTHOREF
  2

  9
$PUCSORTHOVIEW
 70
     0
  9
$PUCSORGTOP
 10
0.0
 20
0.0
 30
0.0
  9
$PUCSORGBOTTOM
 10
0.0
 20
0.0
 30
0.0
  9
$PUCSORGLEFT
 10
0.0
 20
0.0
 30
0.0
  9
$PUCSORGRIGHT
 10
0.0
 20
0.0
 30
0.0
  9
$PUCSORGFRONT
 10
0.0
 20
0.0
 30
0.0
  9
$PUCSORGBACK
 10
0.0
 20
0.0
 30
0.0
  9
$USERI1
 70
     0
  9
$USERI2
 70
     0
  9
$USERI3
 70
     0
  9
$USERI4
 70
     0
  9
$USERI5
 70
     0
  9
$USERR1
 40
0.0
  9
$USERR2
 40
0.0
  9
$USERR3
 40
0.0
  9
$USERR4
 40
0.0
  9
$USERR5
 40
0.0
  9
$WORLDVIEW
 70
     1
  9
$SHADEDGE
 70
     3
  9
$SHADEDIF
 70
    70
  9
$TILEMODE
 70
     1
  9
$MAXACTVP
 70
    16
  9
$PINSBASE
 10
0.0
 20
0.0
 30
0.0
  9
$PLIMCHECK
 70
     0
  9
$PEXTMIN
 10
1.000000000000000E+20
 20
1.000000000000000E+20
 30
1.000000000000000E+20
  9
$PEXTMAX
 10
-1.000000000000000E+20
 20
-1.000000000000000E+20
 30
-1.000000000000000E+20
  9
$PLIMMIN
 10
0.0
 20
0.0
  9
$PLIMMAX
 10
12.0
 20
9.0
  9
$UNITMODE
 70
     0
  9
$VISRETAIN
 70
     0
  9
$PLINEGEN
 70
     0
  9
$PSLTSCALE
 70
     1
  9
$TREEDEPTH
 70
  3020
  9
$CMLSTYLE
  2
Standard
  9
$CMLJUST
 70
     0
  9
$CMLSCALE
 40
1.0
  9
$PROXYGRAPHICS
 70
     1
  9
$MEASUREMENT
 70
     0
  9
$CELWEIGHT
370
    -1
  9
$ENDCAPS
280
     0
  9
$JOINSTYLE
280
     0
  9
$LWDISPLAY
290
     0
  9
$INSUNITS
 70
     0
  9
$HYPERLINKBASE
  1

  9
$STYLESHEET
  1

  9
$XEDIT
290
     1
  9
$CEPSNTYPE
380
     0
  9
$PSTYLEMODE
290
     1
  9
$FINGERPRINTGUID
  2
{86A8CE4F-CF0B-48F7-8AF5-F7D782B96531}
  9
$VERSIONGUID
  2
{E2D75B6E-1009-4731-9639-EF37E75D1847}
  9
$EXTNAMES
290
     1
  9
$PSVPSCALE
 40
0.0
  9
$OLESTARTUP
290
     0
  0
ENDSEC
  0
SECTION
  2
CLASSES
  0
CLASS
  1
ACDBDICTIONARYWDFLT
  2
AcDbDictionaryWithDefault
  3
AutoCAD 2000
 90
        0
280
     0
281
     0
  0
CLASS
  1
ACDBPLACEHOLDER
  2
AcDbPlaceHolder
  3
AutoCAD 2000
 90
        0
280
     0
281
     0
  0
CLASS
  1
LAYOUT
  2
AcDbLayout
  3
AutoCAD 2000
 90
        0
280
     0
281
     0
  0
ENDSEC
  0
SECTION
  2
TABLES
  0
TABLE
  2
VPORT
  5
62F
330
0
100
AcDbSymbolTable
 70
     4
  0
VPORT
  5
D7D
330
62F
100
AcDbSymbolTableRecord
100
AcDbViewportTableRecord
  2
*Active
 70
     0
 10
0.0
 20
0.0
 11
1.0
 21
1.0
 12
31.0000002887188
 22
20.24000018850542
 13
0.0
 23
0.0
 14
1.0
 24
1.0
 15
0.0
 25
0.0
 16
0.0
 26
0.0
 36
1.0
 17
0.0
 27
0.0
 37
0.0
 40
40.88979097262603
 41
1.796327212020033
 42
50.0
 43
0.0
 44
0.0
 50
0.0
 51
0.0
 71
     0
 72
   500
 73
     1
 74
     0
 75
     0
 76
     0
 77
     0
 78
     0
281
     0
 65
     0
110
0.0
120
0.0
130
0.0
111
1.0
121
0.0
131
0.0
112
0.0
122
1.0
132
0.0
 79
     0
146
0.0
  0
ENDTAB
  0
TABLE
  2
LTYPE
  5
62C
330
0
100
AcDbSymbolTable
 70
     6
  0
LTYPE
  5
63A
330
62C
100
AcDbSymbolTableRecord
100
AcDbLinetypeTableRecord
  2
ByBlock
 70
     0
  3

 72
    65
 73
     0
 40
0.0
  0
LTYPE
  5
63B
330
62C
100
AcDbSymbolTableRecord
100
AcDbLinetypeTableRecord
  2
ByLayer
 70
     0
  3

 72
    65
 73
     0
 40
0.0
  0
LTYPE
  5
63C
330
62C
100
AcDbSymbolTableRecord
100
AcDbLinetypeTableRecord
  2
CONTINUOUS
 70
     0
  3
Solid line
 72
    65
 73
     0
 40
0.0
  0
LTYPE
  5
64C
330
62C
100
AcDbSymbolTableRecord
100
AcDbLinetypeTableRecord
  2
HIDDEN
 70
     0
  3
_ _ _ _ _ _ _ _ _ _ _ _ _ _ _ _ _ _ _ _ _ _ _
 72
    65
 73
     2
 40
0.375
 49
0.25
 74
     0
 49
-0.125
 74
     0
  0
LTYPE
  5
64D
330
62C
100
AcDbSymbolTableRecord
100
AcDbLinetypeTableRecord
  2
PHANTOM
 70
     0
  3
_____ _ _ _____ _ _ _____ _ _ _____ _ _ ____
 72
    65
 73
     6
 40
2.5
 49
1.25
 74
     0
 49
-0.25
 74
     0
 49
0.25
 74
     0
 49
-0.25
 74
     0
 49
0.25
 74
     0
 49
-0.25
 74
     0
  0
LTYPE
  5
64F
330
62C
100
AcDbSymbolTableRecord
100
AcDbLinetypeTableRecord
  2
HIDDEN2
 70
     0
  3
_ _ _ _ _ _ _ _ _ _ _ _ _ _ _ _ _ _ _ _ _ _ _ _
 72
    65
 73
     2
 40
0.1875
 49
0.125
 74
     0
 49
-0.0625
 74
     0
  0
ENDTAB
  0
TABLE
  2
LAYER
  5
629
330
0
100
AcDbSymbolTable
 70
     9
  0
LAYER
  5
637
330
629
100
AcDbSymbolTableRecord
100
AcDbLayerTableRecord
  2
0
 70
     0
 62
     7
  6
CONTINUOUS
370
    -3
390
636
  0
LAYER
  5
649
330
629
100
AcDbSymbolTableRecord
100
AcDbLayerTableRecord
  2
TEXT
 70
     0
 62
     7
  6
CONTINUOUS
370
    -3
390
636
  0
LAYER
  5
651
330
629
100
AcDbSymbolTableRecord
100
AcDbLayerTableRecord
  2
OBJECT
 70
     0
 62
     7
  6
CONTINUOUS
370
    -3
390
636
  0
LAYER
  5
652
330
629
100
AcDbSymbolTableRecord
100
AcDbLayerTableRecord
  2
DIM
 70
     0
 62
     7
  6
CONTINUOUS
370
    -3
390
636
  0
LAYER
  5
653
330
629
100
AcDbSymbolTableRecord
100
AcDbLayerTableRecord
  2
HIDDEN
 70
     0
 62
     7
  6
HIDDEN
370
    -3
390
636
  0
LAYER
  5
654
330
629
100
AcDbSymbolTableRecord
100
AcDbLayerTableRecord
  2
BEND
 70
     0
 62
     7
  6
PHANTOM
370
    -3
390
636
  0
LAYER
  5
655
330
629
100
AcDbSymbolTableRecord
100
AcDbLayerTableRecord
  2
TITLE
 70
     0
 62
     7
  6
CONTINUOUS
370
    -3
390
636
  0
LAYER
  5
657
330
629
100
AcDbSymbolTableRecord
100
AcDbLayerTableRecord
  2
DEFPOINTS
 70
     0
 62
     7
  6
CONTINUOUS
290
     0
370
    -3
390
636
  0
ENDTAB
  0
TABLE
  2
STYLE
  5
62A
330
0
100
AcDbSymbolTable
 70
     3
  0
STYLE
  5
638
330
62A
100
AcDbSymbolTableRecord
100
AcDbTextStyleTableRecord
  2
STANDARD
 70
     0
 40
0.0
 41
1.0
 50
0.0
 71
     0
 42
0.2
  3
txt
  4

  0
STYLE
  5
64A
330
62A
100
AcDbSymbolTableRecord
100
AcDbTextStyleTableRecord
  2
TXT
 70
     0
 40
0.0
 41
0.75
 50
0.0
 71
     0
 42
0.5
  3
TXT.shx
  4

  0
STYLE
  5
658
330
62A
100
AcDbSymbolTableRecord
100
AcDbTextStyleTableRecord
  2
SECTION
 70
     0
 40
0.0
 41
0.8
 50
0.0
 71
     0
 42
0.2
  3
ROMANT.SHX
  4

  0
ENDTAB
  0
TABLE
  2
VIEW
  5
62D
330
0
100
AcDbSymbolTable
 70
     0
  0
ENDTAB
  0
TABLE
  2
UCS
  5
62E
330
0
100
AcDbSymbolTable
 70
     0
  0
ENDTAB
  0
TABLE
  2
APPID
  5
630
330
0
100
AcDbSymbolTable
 70
     1
  0
APPID
  5
639
330
630
100
AcDbSymbolTableRecord
100
AcDbRegAppTableRecord
  2
ACAD
 70
     0
  0
ENDTAB
  0
TABLE
  2
DIMSTYLE
  5
631
330
0
100
AcDbSymbolTable
 70
     2
100
AcDbDimStyleTable
 71
     0
  0
DIMSTYLE
105
659
102
{ACAD_REACTORS
330
A36
330
A44
330
A52
330
A60
330
A6E
330
A7C
330
A8A
330
A98
330
AA6
330
AB4
330
AC2
330
AD0
330
ADE
330
AEC
330
AFA
330
B08
330
B16
330
B24
330
B32
330
B40
330
B4E
330
B5C
330
B6A
330
B7F
330
B96
330
BA4
330
BC4
330
BD2
330
BE0
330
BEE
330
BFC
330
C0A
102
}
330
631
100
AcDbSymbolTableRecord
100
AcDbDimStyleTableRecord
  2
23NSTD
 70
     0
 40
4.0
 42
0.063
 43
0.25
 44
0.093
140
0.125
271
     3
272
     3
279
     2
340
64A
  0
ENDTAB
  0
TABLE
  2
BLOCK_RECORD
  5
628
330
0
100
AcDbSymbolTable
 70
    99
  0
BLOCK_RECORD
  5
645
330
628
100
AcDbSymbolTableRecord
100
AcDbBlockTableRecord
  2
*Model_Space
340
648
  0
BLOCK_RECORD
  5
641
330
628
100
AcDbSymbolTableRecord
100
AcDbBlockTableRecord
  2
*Paper_Space
340
644
  0
BLOCK_RECORD
  5
663
330
628
100
AcDbSymbolTableRecord
100
AcDbBlockTableRecord
  2
HBS
340
0
102
{BLKREFS
331
BB2
102
}
  0
BLOCK_RECORD
  5
A37
330
628
100
AcDbSymbolTableRecord
100
AcDbBlockTableRecord
  2
*D67
340
0
  0
BLOCK_RECORD
  5
A45
330
628
100
AcDbSymbolTableRecord
100
AcDbBlockTableRecord
  2
*D68
340
0
  0
BLOCK_RECORD
  5
A53
330
628
100
AcDbSymbolTableRecord
100
AcDbBlockTableRecord
  2
*D69
340
0
  0
BLOCK_RECORD
  5
A61
330
628
100
AcDbSymbolTableRecord
100
AcDbBlockTableRecord
  2
*D70
340
0
  0
BLOCK_RECORD
  5
A6F
330
628
100
AcDbSymbolTableRecord
100
AcDbBlockTableRecord
  2
*D71
340
0
  0
BLOCK_RECORD
  5
A7D
330
628
100
AcDbSymbolTableRecord
100
AcDbBlockTableRecord
  2
*D72
340
0
  0
BLOCK_RECORD
  5
A8B
330
628
100
AcDbSymbolTableRecord
100
AcDbBlockTableRecord
  2
*D73
340
0
  0
BLOCK_RECORD
  5
A99
330
628
100
AcDbSymbolTableRecord
100
AcDbBlockTableRecord
  2
*D74
340
0
  0
BLOCK_RECORD
  5
AA7
330
628
100
AcDbSymbolTableRecord
100
AcDbBlockTableRecord
  2
*D75
340
0
  0
BLOCK_RECORD
  5
AB5
330
628
100
AcDbSymbolTableRecord
100
AcDbBlockTableRecord
  2
*D76
340
0
  0
BLOCK_RECORD
  5
AC3
330
628
100
AcDbSymbolTableRecord
100
AcDbBlockTableRecord
  2
*D77
340
0
  0
BLOCK_RECORD
  5
AD1
330
628
100
AcDbSymbolTableRecord
100
AcDbBlockTableRecord
  2
*D78
340
0
  0
BLOCK_RECORD
  5
ADF
330
628
100
AcDbSymbolTableRecord
100
AcDbBlockTableRecord
  2
*D79
340
0
  0
BLOCK_RECORD
  5
AED
330
628
100
AcDbSymbolTableRecord
100
AcDbBlockTableRecord
  2
*D80
340
0
  0
BLOCK_RECORD
  5
AFB
330
628
100
AcDbSymbolTableRecord
100
AcDbBlockTableRecord
  2
*D81
340
0
  0
BLOCK_RECORD
  5
B09
330
628
100
AcDbSymbolTableRecord
100
AcDbBlockTableRecord
  2
*D82
340
0
  0
BLOCK_RECORD
  5
B17
330
628
100
AcDbSymbolTableRecord
100
AcDbBlockTableRecord
  2
*D83
340
0
  0
BLOCK_RECORD
  5
B25
330
628
100
AcDbSymbolTableRecord
100
AcDbBlockTableRecord
  2
*D84
340
0
  0
BLOCK_RECORD
  5
B33
330
628
100
AcDbSymbolTableRecord
100
AcDbBlockTableRecord
  2
*D85
340
0
  0
BLOCK_RECORD
  5
B41
330
628
100
AcDbSymbolTableRecord
100
AcDbBlockTableRecord
  2
*D86
340
0
  0
BLOCK_RECORD
  5
B4F
330
628
100
AcDbSymbolTableRecord
100
AcDbBlockTableRecord
  2
*D87
340
0
  0
BLOCK_RECORD
  5
B5D
330
628
100
AcDbSymbolTableRecord
100
AcDbBlockTableRecord
  2
*D88
340
0
  0
BLOCK_RECORD
  5
B6B
330
628
100
AcDbSymbolTableRecord
100
AcDbBlockTableRecord
  2
*D89
340
0
  0
BLOCK_RECORD
  5
B80
330
628
100
AcDbSymbolTableRecord
100
AcDbBlockTableRecord
  2
*D90
340
0
  0
BLOCK_RECORD
  5
B97
330
628
100
AcDbSymbolTableRecord
100
AcDbBlockTableRecord
  2
*D91
340
0
  0
BLOCK_RECORD
  5
BA5
330
628
100
AcDbSymbolTableRecord
100
AcDbBlockTableRecord
  2
*D92
340
0
  0
BLOCK_RECORD
  5
BC5
330
628
100
AcDbSymbolTableRecord
100
AcDbBlockTableRecord
  2
*D93
340
0
  0
BLOCK_RECORD
  5
BD3
330
628
100
AcDbSymbolTableRecord
100
AcDbBlockTableRecord
  2
*D94
340
0
  0
BLOCK_RECORD
  5
BE1
330
628
100
AcDbSymbolTableRecord
100
AcDbBlockTableRecord
  2
*D95
340
0
  0
BLOCK_RECORD
  5
BEF
330
628
100
AcDbSymbolTableRecord
100
AcDbBlockTableRecord
  2
*D96
340
0
  0
BLOCK_RECORD
  5
BFD
330
628
100
AcDbSymbolTableRecord
100
AcDbBlockTableRecord
  2
*D97
340
0
  0
BLOCK_RECORD
  5
C0B
330
628
100
AcDbSymbolTableRecord
100
AcDbBlockTableRecord
  2
*D98
340
0
  0
ENDTAB
  0
ENDSEC
  0
SECTION
  2
BLOCKS
  0
BLOCK
  5
646
330
645
100
AcDbEntity
  8
0
100
AcDbBlockBegin
  2
*Model_Space
 70
     0
 10
0.0
 20
0.0
 30
0.0
  3
*Model_Space
  1

  0
ENDBLK
  5
647
330
645
100
AcDbEntity
  8
0
100
AcDbBlockEnd
  0
BLOCK
  5
642
330
641
100
AcDbEntity
 67
     1
  8
0
100
AcDbBlockBegin
  2
*Paper_Space
 70
     0
 10
0.0
 20
0.0
 30
0.0
  3
*Paper_Space
  1

  0
ENDBLK
  5
643
330
641
100
AcDbEntity
 67
     1
  8
0
100
AcDbBlockEnd
  0
BLOCK
  5
664
330
663
100
AcDbEntity
  8
0
100
AcDbBlockBegin
  2
HBS
 70
     0
 10
0.0
 20
0.0
 30
0.0
  3
HBS
  1

  0
LINE
  5
665
330
663
100
AcDbEntity
  8
TITLE
100
AcDbLine
 10
0.062
 20
9.64
 30
0.0
 11
15.438
 21
9.64
 31
0.0
  0
LWPOLYLINE
  5
666
330
663
100
AcDbEntity
  8
TITLE
100
AcDbPolyline
 90
        4
 70
     1
 43
0.0
 10
15.5
 20
10.12
 10
15.5
 20
0.0
 10
0.0
 20
0.0
 10
0.0
 20
10.12
  0
LWPOLYLINE
  5
66C
330
663
100
AcDbEntity
  8
TITLE
100
AcDbPolyline
 90
        4
 70
     1
 43
0.0
 10
15.438
 20
10.058
 10
15.438
 20
0.062
 10
0.062
 20
0.062
 10
0.062
 20
10.058
  0
TEXT
  5
672
330
663
100
AcDbEntity
  8
TEXT
100
AcDbText
 10
0.2078333333333334
 20
9.680078999999999
 30
0.0
 40
0.125
  1
NAME
 72
     1
 11
0.4370000000000001
 21
9.680078999999999
 31
0.0
100
AcDbText
  0
TEXT
  5
673
330
663
100
AcDbEntity
  8
TEXT
100
AcDbText
 10
0.2078333333333334
 20
9.888412999999998
 30
0.0
 40
0.125
  1
PART
 72
     1
 11
0.4370000000000001
 21
9.888412999999998
 31
0.0
100
AcDbText
  0
LINE
  5
674
330
663
100
AcDbEntity
  8
TITLE
100
AcDbLine
 10
0.812
 20
9.64
 30
0.0
 11
0.812
 21
10.058
 31
0.0
  0
TEXT
  5
675
330
663
100
AcDbEntity
  8
TEXT
100
AcDbText
 10
7.926833333333333
 20
9.888412999999998
 30
0.0
 40
0.125
  1
PART
 72
     1
 11
8.156
 21
9.888412999999998
 31
0.0
100
AcDbText
  0
TEXT
  5
676
330
663
100
AcDbEntity
  8
TEXT
100
AcDbText
 10
8.031
 20
9.680078999999999
 30
0.0
 40
0.125
  1
No.
 72
     1
 11
8.156
 21
9.680078999999999
 31
0.0
100
AcDbText
  0
LINE
  5
677
330
663
100
AcDbEntity
  8
TITLE
100
AcDbLine
 10
7.780999999999998
 20
10.058
 30
0.0
 11
7.780999999999998
 21
9.64
 31
0.0
  0
LINE
  5
678
330
663
100
AcDbEntity
  8
TITLE
100
AcDbLine
 10
7.718999999999998
 20
10.058
 30
0.0
 11
7.718999999999998
 21
9.64
 31
0.0
  0
LINE
  5
679
330
663
100
AcDbEntity
  8
TITLE
100
AcDbLine
 10
8.531
 20
10.058
 30
0.0
 11
8.531
 21
9.64
 31
0.0
  0
ENDBLK
  5
67A
330
663
100
AcDbEntity
  8
0
100
AcDbBlockEnd
  0
BLOCK
  5
A42
330
A37
100
AcDbEntity
  8
0
100
AcDbBlockBegin
  2
*D67
 70
     1
 10
0.0
 20
0.0
 30
0.0
  3
*D67
  1

  0
LINE
  5
A38
330
A37
100
AcDbEntity
  8
DIM
 62
     0
370
    -2
100
AcDbLine
 10
5.655405
 20
29.06388399999999
 30
0.0
 11
5.655405
 21
31.543253
 31
0.0
  0
LINE
  5
A39
330
A37
100
AcDbEntity
  8
DIM
 62
     0
370
    -2
100
AcDbLine
 10
18.905405
 20
29.06388399999999
 30
0.0
 11
18.905405
 21
31.543253
 31
0.0
  0
LINE
  5
A3A
330
A37
100
AcDbEntity
  8
DIM
 62
     0
370
    -2
100
AcDbLine
 10
6.375404999999999
 20
31.171253
 30
0.0
 11
11.795405
 21
31.171253
 31
0.0
  0
LINE
  5
A3B
330
A37
100
AcDbEntity
  8
DIM
 62
     0
370
    -2
100
AcDbLine
 10
18.185405
 20
31.171253
 30
0.0
 11
12.765405
 21
31.171253
 31
0.0
  0
SOLID
  5
A3C
330
A37
100
AcDbEntity
  8
DIM
 62
     0
100
AcDbTrace
 10
6.375404999999999
 20
31.291253
 30
0.0
 11
6.375404999999999
 21
31.051253
 31
0.0
 12
5.655405
 22
31.171253
 32
0.0
 13
5.655405
 23
31.171253
 33
0.0
  0
SOLID
  5
A3D
330
A37
100
AcDbEntity
  8
DIM
 62
     0
100
AcDbTrace
 10
18.185405
 20
31.291253
 30
0.0
 11
18.185405
 21
31.051253
 31
0.0
 12
18.905405
 22
31.171253
 32
0.0
 13
18.905405
 23
31.171253
 33
0.0
  0
MTEXT
  5
A3E
330
A37
100
AcDbEntity
  8
DIM
 62
     0
100
AcDbMText
 10
12.280405
 20
31.171253
 30
0.0
 40
0.5
 41
0.0
 71
     5
 72
     1
  1
\A1;A
  7
TXT
 73
     1
 44
1.0
  0
POINT
  5
A3F
330
A37
100
AcDbEntity
  8
DEFPOINTS
 62
     0
100
AcDbPoint
 10
5.655405
 20
28.811884
 30
0.0
  0
POINT
  5
A40
330
A37
100
AcDbEntity
  8
DEFPOINTS
 62
     0
100
AcDbPoint
 10
18.905405
 20
28.811884
 30
0.0
  0
POINT
  5
A41
330
A37
100
AcDbEntity
  8
DEFPOINTS
 62
     0
100
AcDbPoint
 10
18.905405
 20
31.171253
 30
0.0
  0
ENDBLK
  5
A43
330
A37
100
AcDbEntity
  8
0
100
AcDbBlockEnd
  0
BLOCK
  5
A50
330
A45
100
AcDbEntity
  8
0
100
AcDbBlockBegin
  2
*D68
 70
     1
 10
0.0
 20
0.0
 30
0.0
  3
*D68
  1

  0
LINE
  5
CE6
330
A45
100
AcDbEntity
  8
DIM
 62
     0
370
    -2
100
AcDbLine
 10
18.45740499999998
 20
22.03088399999999
 30
0.0
 11
22.011405
 21
22.03088399999999
 31
0.0
  0
LINE
  5
CE7
330
A45
100
AcDbEntity
  8
DIM
 62
     0
370
    -2
100
AcDbLine
 10
19.126405
 20
21.311884
 30
0.0
 11
22.011405
 21
21.311884
 31
0.0
  0
LINE
  5
CE8
330
A45
100
AcDbEntity
  8
DIM
 62
     0
370
    -2
100
AcDbLine
 10
21.639405
 20
22.75088399999999
 30
0.0
 11
21.639405
 21
23.47088399999999
 31
0.0
  0
LINE
  5
CE9
330
A45
100
AcDbEntity
  8
DIM
 62
     0
370
    -2
100
AcDbLine
 10
21.639405
 20
20.591884
 30
0.0
 11
21.639405
 21
19.87188399999999
 31
0.0
  0
MTEXT
  5
CEA
330
A45
100
AcDbEntity
  8
DIM
 62
     0
100
AcDbMText
 10
21.73947054200926
 20
21.67138399999999
 30
0.0
 40
0.5
 41
0.0
 71
     5
 72
     1
  1
\A1;0.719
  7
TXT
 73
     1
 44
1.0
  0
SOLID
  5
CEB
330
A45
100
AcDbEntity
  8
DIM
 62
     0
100
AcDbTrace
 10
21.51940499999999
 20
22.75088399999999
 30
0.0
 11
21.759405
 21
22.75088399999999
 31
0.0
 12
21.639405
 22
22.03088399999999
 32
0.0
 13
21.639405
 23
22.03088399999999
 33
0.0
  0
SOLID
  5
CEC
330
A45
100
AcDbEntity
  8
DIM
 62
     0
100
AcDbTrace
 10
21.51940499999999
 20
20.591884
 30
0.0
 11
21.759405
 21
20.591884
 31
0.0
 12
21.639405
 22
21.311884
 32
0.0
 13
21.639405
 23
21.311884
 33
0.0
  0
POINT
  5
CED
330
A45
100
AcDbEntity
  8
DEFPOINTS
 62
     0
100
AcDbPoint
 10
18.20540499999999
 20
22.03088399999999
 30
0.0
  0
POINT
  5
CEE
330
A45
100
AcDbEntity
  8
DEFPOINTS
 62
     0
100
AcDbPoint
 10
18.874405
 20
21.311884
 30
0.0
  0
POINT
  5
CEF
330
A45
100
AcDbEntity
  8
DEFPOINTS
 62
     0
100
AcDbPoint
 10
21.639405
 20
21.311884
 30
0.0
  0
ENDBLK
  5
A51
330
A45
100
AcDbEntity
  8
0
100
AcDbBlockEnd
  0
BLOCK
  5
A5E
330
A53
100
AcDbEntity
  8
0
100
AcDbBlockBegin
  2
*D69
 70
     1
 10
0.0
 20
0.0
 30
0.0
  3
*D69
  1

  0
LINE
  5
A54
330
A53
100
AcDbEntity
  8
DIM
 62
     0
370
    -2
100
AcDbLine
 10
18.45740499999998
 20
22.03088399999999
 30
0.0
 11
22.01140499999999
 21
22.03088399999999
 31
0.0
  0
LINE
  5
A55
330
A53
100
AcDbEntity
  8
DIM
 62
     0
370
    -2
100
AcDbLine
 10
18.43090499999999
 20
28.092884
 30
0.0
 11
22.011405
 21
28.092884
 31
0.0
  0
LINE
  5
A56
330
A53
100
AcDbEntity
  8
DIM
 62
     0
370
    -2
100
AcDbLine
 10
21.63940499999999
 20
22.75088399999999
 30
0.0
 11
21.639405
 21
24.45188399999999
 31
0.0
  0
LINE
  5
A57
330
A53
100
AcDbEntity
  8
DIM
 62
     0
370
    -2
100
AcDbLine
 10
21.639405
 20
27.372884
 30
0.0
 11
21.639405
 21
25.67188399999999
 31
0.0
  0
SOLID
  5
A58
330
A53
100
AcDbEntity
  8
DIM
 62
     0
100
AcDbTrace
 10
21.51940499999999
 20
22.75088399999999
 30
0.0
 11
21.75940499999999
 21
22.75088399999999
 31
0.0
 12
21.63940499999999
 22
22.03088399999999
 32
0.0
 13
21.63940499999999
 23
22.03088399999999
 33
0.0
  0
SOLID
  5
A59
330
A53
100
AcDbEntity
  8
DIM
 62
     0
100
AcDbTrace
 10
21.51940499999999
 20
27.372884
 30
0.0
 11
21.759405
 21
27.372884
 31
0.0
 12
21.639405
 22
28.092884
 32
0.0
 13
21.639405
 23
28.092884
 33
0.0
  0
MTEXT
  5
A5A
330
A53
100
AcDbEntity
  8
DIM
 62
     0
100
AcDbMText
 10
21.63940499999999
 20
25.061884
 30
0.0
 40
0.5
 41
0.0
 71
     5
 72
     1
  1
\A1;E
  7
TXT
 73
     1
 44
1.0
  0
POINT
  5
A5B
330
A53
100
AcDbEntity
  8
DEFPOINTS
 62
     0
100
AcDbPoint
 10
18.20540499999999
 20
22.03088399999999
 30
0.0
  0
POINT
  5
A5C
330
A53
100
AcDbEntity
  8
DEFPOINTS
 62
     0
100
AcDbPoint
 10
18.178905
 20
28.092884
 30
0.0
  0
POINT
  5
A5D
330
A53
100
AcDbEntity
  8
DEFPOINTS
 62
     0
100
AcDbPoint
 10
21.639405
 20
28.092884
 30
0.0
  0
ENDBLK
  5
A5F
330
A53
100
AcDbEntity
  8
0
100
AcDbBlockEnd
  0
BLOCK
  5
A6C
330
A61
100
AcDbEntity
  8
0
100
AcDbBlockBegin
  2
*D70
 70
     1
 10
0.0
 20
0.0
 30
0.0
  3
*D70
  1

  0
LINE
  5
A62
330
A61
100
AcDbEntity
  8
DIM
 62
     0
370
    -2
100
AcDbLine
 10
25.036748
 20
29.000884
 30
0.0
 11
25.036748
 21
31.543253
 31
0.0
  0
LINE
  5
A63
330
A61
100
AcDbEntity
  8
DIM
 62
     0
370
    -2
100
AcDbLine
 10
34.03674799999999
 20
29.01688399999999
 30
0.0
 11
34.03674799999999
 21
31.543253
 31
0.0
  0
LINE
  5
A64
330
A61
100
AcDbEntity
  8
DIM
 62
     0
370
    -2
100
AcDbLine
 10
25.75674799999999
 20
31.171253
 30
0.0
 11
29.05174799999999
 21
31.171253
 31
0.0
  0
LINE
  5
A65
330
A61
100
AcDbEntity
  8
DIM
 62
     0
370
    -2
100
AcDbLine
 10
33.31674799999999
 20
31.171253
 30
0.0
 11
30.02174799999999
 21
31.171253
 31
0.0
  0
SOLID
  5
A66
330
A61
100
AcDbEntity
  8
DIM
 62
     0
100
AcDbTrace
 10
25.75674799999999
 20
31.291253
 30
0.0
 11
25.75674799999999
 21
31.051253
 31
0.0
 12
25.036748
 22
31.171253
 32
0.0
 13
25.036748
 23
31.171253
 33
0.0
  0
SOLID
  5
A67
330
A61
100
AcDbEntity
  8
DIM
 62
     0
100
AcDbTrace
 10
33.31674799999999
 20
31.291253
 30
0.0
 11
33.31674799999999
 21
31.051253
 31
0.0
 12
34.03674799999999
 22
31.171253
 32
0.0
 13
34.03674799999999
 23
31.171253
 33
0.0
  0
MTEXT
  5
A68
330
A61
100
AcDbEntity
  8
DIM
 62
     0
100
AcDbMText
 10
29.53674799999999
 20
31.171253
 30
0.0
 40
0.5
 41
0.0
 71
     5
 72
     1
  1
\A1;C
  7
TXT
 73
     1
 44
1.0
  0
POINT
  5
A69
330
A61
100
AcDbEntity
  8
DEFPOINTS
 62
     0
100
AcDbPoint
 10
25.036748
 20
28.748884
 30
0.0
  0
POINT
  5
A6A
330
A61
100
AcDbEntity
  8
DEFPOINTS
 62
     0
100
AcDbPoint
 10
34.03674799999999
 20
28.76488399999999
 30
0.0
  0
POINT
  5
A6B
330
A61
100
AcDbEntity
  8
DEFPOINTS
 62
     0
100
AcDbPoint
 10
34.03674799999999
 20
31.171253
 30
0.0
  0
ENDBLK
  5
A6D
330
A61
100
AcDbEntity
  8
0
100
AcDbBlockEnd
  0
BLOCK
  5
A7A
330
A6F
100
AcDbEntity
  8
0
100
AcDbBlockBegin
  2
*D71
 70
     1
 10
0.0
 20
0.0
 30
0.0
  3
*D71
  1

  0
LINE
  5
CAA
330
A6F
100
AcDbEntity
  8
DIM
 62
     0
370
    -2
100
AcDbLine
 10
34.03674799999999
 20
24.460862
 30
0.0
 11
34.03674799999999
 21
24.152721
 31
0.0
  0
LINE
  5
CAB
330
A6F
100
AcDbEntity
  8
DIM
 62
     0
370
    -2
100
AcDbLine
 10
33.78674799999998
 20
24.460862
 30
0.0
 11
33.78674799999998
 21
24.152721
 31
0.0
  0
LINE
  5
CAC
330
A6F
100
AcDbEntity
  8
DIM
 62
     0
370
    -2
100
AcDbLine
 10
34.75674799999998
 20
24.524721
 30
0.0
 11
35.47674799999998
 21
24.524721
 31
0.0
  0
LINE
  5
CAD
330
A6F
100
AcDbEntity
  8
DIM
 62
     0
370
    -2
100
AcDbLine
 10
33.06674799999999
 20
24.524721
 30
0.0
 11
32.34674799999999
 21
24.524721
 31
0.0
  0
MTEXT
  5
CAE
330
A6F
100
AcDbEntity
  8
DIM
 62
     0
100
AcDbMText
 10
30.04519972541519
 20
24.43120379612166
 30
0.0
 40
0.5
 41
0.0
 71
     5
 72
     1
  1
\A1;0.250 RECESS
  7
TXT
 73
     1
 44
1.0
  0
SOLID
  5
CAF
330
A6F
100
AcDbEntity
  8
DIM
 62
     0
100
AcDbTrace
 10
34.75674799999998
 20
24.644721
 30
0.0
 11
34.75674799999998
 21
24.404721
 31
0.0
 12
34.03674799999999
 22
24.524721
 32
0.0
 13
34.03674799999999
 23
24.524721
 33
0.0
  0
SOLID
  5
CB0
330
A6F
100
AcDbEntity
  8
DIM
 62
     0
100
AcDbTrace
 10
33.06674799999999
 20
24.644721
 30
0.0
 11
33.06674799999999
 21
24.404721
 31
0.0
 12
33.78674799999998
 22
24.524721
 32
0.0
 13
33.78674799999998
 23
24.524721
 33
0.0
  0
POINT
  5
CB1
330
A6F
100
AcDbEntity
  8
DEFPOINTS
 62
     0
100
AcDbPoint
 10
34.03674799999999
 20
24.712862
 30
0.0
  0
POINT
  5
CB2
330
A6F
100
AcDbEntity
  8
DEFPOINTS
 62
     0
100
AcDbPoint
 10
33.78674799999998
 20
24.712862
 30
0.0
  0
POINT
  5
CB3
330
A6F
100
AcDbEntity
  8
DEFPOINTS
 62
     0
100
AcDbPoint
 10
33.78674799999998
 20
24.524721
 30
0.0
  0
ENDBLK
  5
A7B
330
A6F
100
AcDbEntity
  8
0
100
AcDbBlockEnd
  0
BLOCK
  5
A88
330
A7D
100
AcDbEntity
  8
0
100
AcDbBlockBegin
  2
*D72
 70
     1
 10
0.0
 20
0.0
 30
0.0
  3
*D72
  1

  0
LINE
  5
A7E
330
A7D
100
AcDbEntity
  8
DIM
 62
     0
370
    -2
100
AcDbLine
 10
40.11499099999999
 20
28.930884
 30
0.0
 11
40.11499099999999
 21
31.543253
 31
0.0
  0
LINE
  5
A7F
330
A7D
100
AcDbEntity
  8
DIM
 62
     0
370
    -2
100
AcDbLine
 10
40.02099099999998
 20
29.06388399999999
 30
0.0
 11
40.02099099999998
 21
31.543253
 31
0.0
  0
LINE
  5
A80
330
A7D
100
AcDbEntity
  8
DIM
 62
     0
370
    -2
100
AcDbLine
 10
40.83499099999999
 20
31.171253
 30
0.0
 11
41.55499099999999
 21
31.171253
 31
0.0
  0
LINE
  5
A81
330
A7D
100
AcDbEntity
  8
DIM
 62
     0
370
    -2
100
AcDbLine
 10
39.30099099999999
 20
31.171253
 30
0.0
 11
38.58099099999999
 21
31.171253
 31
0.0
  0
MTEXT
  5
A82
330
A7D
100
AcDbEntity
  8
DIM
 62
     0
100
AcDbMText
 10
40.06799099999999
 20
32.223253
 30
0.0
 40
0.5
 41
0.0
 71
     5
 72
     1
  1
\A1;0.094
  7
TXT
 73
     1
 44
1.0
  0
SOLID
  5
A83
330
A7D
100
AcDbEntity
  8
DIM
 62
     0
100
AcDbTrace
 10
40.83499099999999
 20
31.291253
 30
0.0
 11
40.83499099999999
 21
31.051253
 31
0.0
 12
40.11499099999999
 22
31.171253
 32
0.0
 13
40.11499099999999
 23
31.171253
 33
0.0
  0
SOLID
  5
A84
330
A7D
100
AcDbEntity
  8
DIM
 62
     0
100
AcDbTrace
 10
39.30099099999999
 20
31.291253
 30
0.0
 11
39.30099099999999
 21
31.051253
 31
0.0
 12
40.02099099999998
 22
31.171253
 32
0.0
 13
40.02099099999998
 23
31.171253
 33
0.0
  0
POINT
  5
A85
330
A7D
100
AcDbEntity
  8
DEFPOINTS
 62
     0
100
AcDbPoint
 10
40.11499099999999
 20
28.678884
 30
0.0
  0
POINT
  5
A86
330
A7D
100
AcDbEntity
  8
DEFPOINTS
 62
     0
100
AcDbPoint
 10
40.02099099999998
 20
28.811884
 30
0.0
  0
POINT
  5
A87
330
A7D
100
AcDbEntity
  8
DEFPOINTS
 62
     0
100
AcDbPoint
 10
40.02099099999998
 20
31.171253
 30
0.0
  0
ENDBLK
  5
A89
330
A7D
100
AcDbEntity
  8
0
100
AcDbBlockEnd
  0
BLOCK
  5
A96
330
A8B
100
AcDbEntity
  8
0
100
AcDbBlockBegin
  2
*D73
 70
     1
 10
0.0
 20
0.0
 30
0.0
  3
*D73
  1

  0
LINE
  5
A8C
330
A8B
100
AcDbEntity
  8
DIM
 62
     0
370
    -2
100
AcDbLine
 10
40.11499099999999
 20
28.930884
 30
0.0
 11
40.11499099999999
 21
31.543253
 31
0.0
  0
LINE
  5
A8D
330
A8B
100
AcDbEntity
  8
DIM
 62
     0
370
    -2
100
AcDbLine
 10
53.176991
 20
28.930884
 30
0.0
 11
53.176991
 21
31.543253
 31
0.0
  0
LINE
  5
A8E
330
A8B
100
AcDbEntity
  8
DIM
 62
     0
370
    -2
100
AcDbLine
 10
40.83499099999999
 20
31.171253
 30
0.0
 11
46.16099099999999
 21
31.171253
 31
0.0
  0
LINE
  5
A8F
330
A8B
100
AcDbEntity
  8
DIM
 62
     0
370
    -2
100
AcDbLine
 10
52.456991
 20
31.171253
 30
0.0
 11
47.13099099999999
 21
31.171253
 31
0.0
  0
SOLID
  5
A90
330
A8B
100
AcDbEntity
  8
DIM
 62
     0
100
AcDbTrace
 10
40.83499099999999
 20
31.291253
 30
0.0
 11
40.83499099999999
 21
31.051253
 31
0.0
 12
40.11499099999999
 22
31.171253
 32
0.0
 13
40.11499099999999
 23
31.171253
 33
0.0
  0
SOLID
  5
A91
330
A8B
100
AcDbEntity
  8
DIM
 62
     0
100
AcDbTrace
 10
52.456991
 20
31.291253
 30
0.0
 11
52.456991
 21
31.051253
 31
0.0
 12
53.176991
 22
31.171253
 32
0.0
 13
53.176991
 23
31.171253
 33
0.0
  0
MTEXT
  5
A92
330
A8B
100
AcDbEntity
  8
DIM
 62
     0
100
AcDbMText
 10
46.64599099999999
 20
31.171253
 30
0.0
 40
0.5
 41
0.0
 71
     5
 72
     1
  1
\A1;F
  7
TXT
 73
     1
 44
1.0
  0
POINT
  5
A93
330
A8B
100
AcDbEntity
  8
DEFPOINTS
 62
     0
100
AcDbPoint
 10
40.11499099999999
 20
28.678884
 30
0.0
  0
POINT
  5
A94
330
A8B
100
AcDbEntity
  8
DEFPOINTS
 62
     0
100
AcDbPoint
 10
53.176991
 20
28.678884
 30
0.0
  0
POINT
  5
A95
330
A8B
100
AcDbEntity
  8
DEFPOINTS
 62
     0
100
AcDbPoint
 10
53.176991
 20
31.171253
 30
0.0
  0
ENDBLK
  5
A97
330
A8B
100
AcDbEntity
  8
0
100
AcDbBlockEnd
  0
BLOCK
  5
AA4
330
A99
100
AcDbEntity
  8
0
100
AcDbBlockBegin
  2
*D74
 70
     1
 10
0.0
 20
0.0
 30
0.0
  3
*D74
  1

  0
LINE
  5
CFA
330
A99
100
AcDbEntity
  8
DIM
 62
     0
370
    -2
100
AcDbLine
 10
8.691346999999998
 20
22.03088399999999
 30
0.0
 11
8.398096999999999
 21
22.03088399999999
 31
0.0
  0
LINE
  5
CFB
330
A99
100
AcDbEntity
  8
DIM
 62
     0
370
    -2
100
AcDbLine
 10
8.691346999999998
 20
22.405884
 30
0.0
 11
8.398096999999999
 21
22.405884
 31
0.0
  0
LINE
  5
CFC
330
A99
100
AcDbEntity
  8
DIM
 62
     0
370
    -2
100
AcDbLine
 10
8.770096999999999
 20
21.31088399999998
 30
0.0
 11
8.770096999999999
 21
20.59088399999998
 31
0.0
  0
LINE
  5
CFD
330
A99
100
AcDbEntity
  8
DIM
 62
     0
370
    -2
100
AcDbLine
 10
8.770096999999999
 20
23.125884
 30
0.0
 11
8.770096999999999
 21
23.845884
 31
0.0
  0
MTEXT
  5
CFE
330
A99
100
AcDbEntity
  8
DIM
 62
     0
100
AcDbMText
 10
9.171897619200308
 20
24.37826632309067
 30
0.0
 40
0.5
 41
0.0
 71
     5
 72
     1
  1
\A1;0.375 TYP.
  7
TXT
 73
     1
 44
1.0
  0
SOLID
  5
CFF
330
A99
100
AcDbEntity
  8
DIM
 62
     0
100
AcDbTrace
 10
8.650097
 20
21.31088399999998
 30
0.0
 11
8.890096999999999
 21
21.31088399999998
 31
0.0
 12
8.770096999999999
 22
22.03088399999999
 32
0.0
 13
8.770096999999999
 23
22.03088399999999
 33
0.0
  0
SOLID
  5
D00
330
A99
100
AcDbEntity
  8
DIM
 62
     0
100
AcDbTrace
 10
8.650097
 20
23.125884
 30
0.0
 11
8.890096999999999
 21
23.125884
 31
0.0
 12
8.770096999999999
 22
22.405884
 32
0.0
 13
8.770096999999999
 23
22.405884
 33
0.0
  0
POINT
  5
D01
330
A99
100
AcDbEntity
  8
DEFPOINTS
 62
     0
100
AcDbPoint
 10
8.943346999999999
 20
22.03088399999999
 30
0.0
  0
POINT
  5
D02
330
A99
100
AcDbEntity
  8
DEFPOINTS
 62
     0
100
AcDbPoint
 10
8.943346999999999
 20
22.405884
 30
0.0
  0
POINT
  5
D03
330
A99
100
AcDbEntity
  8
DEFPOINTS
 62
     0
100
AcDbPoint
 10
8.770096999999999
 20
22.405884
 30
0.0
  0
ENDBLK
  5
AA5
330
A99
100
AcDbEntity
  8
0
100
AcDbBlockEnd
  0
BLOCK
  5
AB2
330
AA7
100
AcDbEntity
  8
0
100
AcDbBlockBegin
  2
*D75
 70
     1
 10
0.0
 20
0.0
 30
0.0
  3
*D75
  1

  0
LINE
  5
AA8
330
AA7
100
AcDbEntity
  8
DIM
 62
     0
370
    -2
100
AcDbLine
 10
53.38999100000001
 20
28.717884
 30
0.0
 11
54.632991
 21
28.717884
 31
0.0
  0
LINE
  5
AA9
330
AA7
100
AcDbEntity
  8
DIM
 62
     0
370
    -2
100
AcDbLine
 10
53.47599100000001
 20
21.40588399999999
 30
0.0
 11
54.632991
 21
21.40588399999999
 31
0.0
  0
LINE
  5
AAA
330
AA7
100
AcDbEntity
  8
DIM
 62
     0
370
    -2
100
AcDbLine
 10
54.260991
 20
27.997884
 30
0.0
 11
54.260991
 21
25.67188399999999
 31
0.0
  0
LINE
  5
AAB
330
AA7
100
AcDbEntity
  8
DIM
 62
     0
370
    -2
100
AcDbLine
 10
54.260991
 20
22.12588399999999
 30
0.0
 11
54.260991
 21
24.45188399999999
 31
0.0
  0
SOLID
  5
AAC
330
AA7
100
AcDbEntity
  8
DIM
 62
     0
100
AcDbTrace
 10
54.140991
 20
27.997884
 30
0.0
 11
54.38099099999999
 21
27.997884
 31
0.0
 12
54.260991
 22
28.717884
 32
0.0
 13
54.260991
 23
28.717884
 33
0.0
  0
SOLID
  5
AAD
330
AA7
100
AcDbEntity
  8
DIM
 62
     0
100
AcDbTrace
 10
54.140991
 20
22.12588399999999
 30
0.0
 11
54.38099099999999
 21
22.12588399999999
 31
0.0
 12
54.260991
 22
21.40588399999999
 32
0.0
 13
54.260991
 23
21.40588399999999
 33
0.0
  0
MTEXT
  5
AAE
330
AA7
100
AcDbEntity
  8
DIM
 62
     0
100
AcDbMText
 10
54.26099099999999
 20
25.061884
 30
0.0
 40
0.5
 41
0.0
 71
     5
 72
     1
  1
\A1;G
  7
TXT
 73
     1
 44
1.0
  0
POINT
  5
AAF
330
AA7
100
AcDbEntity
  8
DEFPOINTS
 62
     0
100
AcDbPoint
 10
53.137991
 20
28.717884
 30
0.0
  0
POINT
  5
AB0
330
AA7
100
AcDbEntity
  8
DEFPOINTS
 62
     0
100
AcDbPoint
 10
53.22399100000001
 20
21.40588399999999
 30
0.0
  0
POINT
  5
AB1
330
AA7
100
AcDbEntity
  8
DEFPOINTS
 62
     0
100
AcDbPoint
 10
54.260991
 20
21.40588399999999
 30
0.0
  0
ENDBLK
  5
AB3
330
AA7
100
AcDbEntity
  8
0
100
AcDbBlockEnd
  0
BLOCK
  5
AC0
330
AB5
100
AcDbEntity
  8
0
100
AcDbBlockBegin
  2
*D76
 70
     1
 10
0.0
 20
0.0
 30
0.0
  3
*D76
  1

  0
LINE
  5
AB6
330
AB5
100
AcDbEntity
  8
DIM
 62
     0
370
    -2
100
AcDbLine
 10
53.47599100000001
 20
21.40588399999999
 30
0.0
 11
54.632991
 21
21.40588399999999
 31
0.0
  0
LINE
  5
AB7
330
AB5
100
AcDbEntity
  8
DIM
 62
     0
370
    -2
100
AcDbLine
 10
53.491991
 20
21.311884
 30
0.0
 11
54.632991
 21
21.311884
 31
0.0
  0
LINE
  5
AB8
330
AB5
100
AcDbEntity
  8
DIM
 62
     0
370
    -2
100
AcDbLine
 10
54.260991
 20
22.12588399999999
 30
0.0
 11
54.260991
 21
22.84588399999999
 31
0.0
  0
LINE
  5
AB9
330
AB5
100
AcDbEntity
  8
DIM
 62
     0
370
    -2
100
AcDbLine
 10
54.260991
 20
20.591884
 30
0.0
 11
54.260991
 21
19.87188399999999
 31
0.0
  0
MTEXT
  5
ABA
330
AB5
100
AcDbEntity
  8
DIM
 62
     0
100
AcDbMText
 10
55.81299099999998
 20
21.358884
 30
0.0
 40
0.5
 41
0.0
 71
     5
 72
     1
  1
\A1;0.094
  7
TXT
 73
     1
 44
1.0
  0
SOLID
  5
ABB
330
AB5
100
AcDbEntity
  8
DIM
 62
     0
100
AcDbTrace
 10
54.140991
 20
22.12588399999999
 30
0.0
 11
54.38099099999999
 21
22.12588399999999
 31
0.0
 12
54.260991
 22
21.40588399999999
 32
0.0
 13
54.260991
 23
21.40588399999999
 33
0.0
  0
SOLID
  5
ABC
330
AB5
100
AcDbEntity
  8
DIM
 62
     0
100
AcDbTrace
 10
54.140991
 20
20.591884
 30
0.0
 11
54.38099099999999
 21
20.591884
 31
0.0
 12
54.260991
 22
21.311884
 32
0.0
 13
54.260991
 23
21.311884
 33
0.0
  0
POINT
  5
ABD
330
AB5
100
AcDbEntity
  8
DEFPOINTS
 62
     0
100
AcDbPoint
 10
53.22399100000001
 20
21.40588399999999
 30
0.0
  0
POINT
  5
ABE
330
AB5
100
AcDbEntity
  8
DEFPOINTS
 62
     0
100
AcDbPoint
 10
53.239991
 20
21.311884
 30
0.0
  0
POINT
  5
ABF
330
AB5
100
AcDbEntity
  8
DEFPOINTS
 62
     0
100
AcDbPoint
 10
54.260991
 20
21.311884
 30
0.0
  0
ENDBLK
  5
AC1
330
AB5
100
AcDbEntity
  8
0
100
AcDbBlockEnd
  0
BLOCK
  5
ACE
330
AC3
100
AcDbEntity
  8
0
100
AcDbBlockBegin
  2
*D77
 70
     1
 10
0.0
 20
0.0
 30
0.0
  3
*D77
  1

  0
LINE
  5
AC4
330
AC3
100
AcDbEntity
  8
DIM
 62
     0
370
    -2
100
AcDbLine
 10
6.122405
 20
15.788717
 30
0.0
 11
4.640405000000002
 21
15.788717
 31
0.0
  0
LINE
  5
AC5
330
AC3
100
AcDbEntity
  8
DIM
 62
     0
370
    -2
100
AcDbLine
 10
6.122405
 20
9.726716999999997
 30
0.0
 11
4.640405
 21
9.726716999999997
 31
0.0
  0
LINE
  5
AC6
330
AC3
100
AcDbEntity
  8
DIM
 62
     0
370
    -2
100
AcDbLine
 10
5.012405000000001
 20
15.068717
 30
0.0
 11
5.012405000000001
 21
13.36771699999999
 31
0.0
  0
LINE
  5
AC7
330
AC3
100
AcDbEntity
  8
DIM
 62
     0
370
    -2
100
AcDbLine
 10
5.012405000000001
 20
10.44671699999999
 30
0.0
 11
5.012405000000001
 21
12.147717
 31
0.0
  0
SOLID
  5
AC8
330
AC3
100
AcDbEntity
  8
DIM
 62
     0
100
AcDbTrace
 10
4.892405000000001
 20
15.068717
 30
0.0
 11
5.132405000000002
 21
15.068717
 31
0.0
 12
5.012405000000001
 22
15.788717
 32
0.0
 13
5.012405000000001
 23
15.788717
 33
0.0
  0
SOLID
  5
AC9
330
AC3
100
AcDbEntity
  8
DIM
 62
     0
100
AcDbTrace
 10
4.892405000000001
 20
10.44671699999999
 30
0.0
 11
5.132405000000001
 21
10.44671699999999
 31
0.0
 12
5.012405
 22
9.726716999999997
 32
0.0
 13
5.012405
 23
9.726716999999997
 33
0.0
  0
MTEXT
  5
ACA
330
AC3
100
AcDbEntity
  8
DIM
 62
     0
100
AcDbMText
 10
5.012404999999999
 20
12.757717
 30
0.0
 40
0.5
 41
0.0
 71
     5
 72
     1
  1
\A1;J
  7
TXT
 73
     1
 44
1.0
  0
POINT
  5
ACB
330
AC3
100
AcDbEntity
  8
DEFPOINTS
 62
     0
100
AcDbPoint
 10
6.374405
 20
15.788717
 30
0.0
  0
POINT
  5
ACC
330
AC3
100
AcDbEntity
  8
DEFPOINTS
 62
     0
100
AcDbPoint
 10
6.374405
 20
9.726716999999997
 30
0.0
  0
POINT
  5
ACD
330
AC3
100
AcDbEntity
  8
DEFPOINTS
 62
     0
100
AcDbPoint
 10
5.012405
 20
9.726716999999997
 30
0.0
  0
ENDBLK
  5
ACF
330
AC3
100
AcDbEntity
  8
0
100
AcDbBlockEnd
  0
BLOCK
  5
ADC
330
AD1
100
AcDbEntity
  8
0
100
AcDbBlockBegin
  2
*D78
 70
     1
 10
0.0
 20
0.0
 30
0.0
  3
*D78
  1

  0
LINE
  5
AD2
330
AD1
100
AcDbEntity
  8
DIM
 62
     0
370
    -2
100
AcDbLine
 10
6.374405
 20
16.040717
 30
0.0
 11
6.374405
 21
17.150717
 31
0.0
  0
LINE
  5
AD3
330
AD1
100
AcDbEntity
  8
DIM
 62
     0
370
    -2
100
AcDbLine
 10
18.186405
 20
16.040717
 30
0.0
 11
18.186405
 21
17.150717
 31
0.0
  0
LINE
  5
AD4
330
AD1
100
AcDbEntity
  8
DIM
 62
     0
370
    -2
100
AcDbLine
 10
7.094405
 20
16.778717
 30
0.0
 11
11.795405
 21
16.778717
 31
0.0
  0
LINE
  5
AD5
330
AD1
100
AcDbEntity
  8
DIM
 62
     0
370
    -2
100
AcDbLine
 10
17.466405
 20
16.778717
 30
0.0
 11
12.765405
 21
16.778717
 31
0.0
  0
SOLID
  5
AD6
330
AD1
100
AcDbEntity
  8
DIM
 62
     0
100
AcDbTrace
 10
7.094405
 20
16.898717
 30
0.0
 11
7.094405
 21
16.658717
 31
0.0
 12
6.374405
 22
16.778717
 32
0.0
 13
6.374405
 23
16.778717
 33
0.0
  0
SOLID
  5
AD7
330
AD1
100
AcDbEntity
  8
DIM
 62
     0
100
AcDbTrace
 10
17.466405
 20
16.898717
 30
0.0
 11
17.466405
 21
16.658717
 31
0.0
 12
18.186405
 22
16.778717
 32
0.0
 13
18.186405
 23
16.778717
 33
0.0
  0
MTEXT
  5
AD8
330
AD1
100
AcDbEntity
  8
DIM
 62
     0
100
AcDbMText
 10
12.280405
 20
16.778717
 30
0.0
 40
0.5
 41
0.0
 71
     5
 72
     1
  1
\A1;H
  7
TXT
 73
     1
 44
1.0
  0
POINT
  5
AD9
330
AD1
100
AcDbEntity
  8
DEFPOINTS
 62
     0
100
AcDbPoint
 10
6.374405
 20
15.788717
 30
0.0
  0
POINT
  5
ADA
330
AD1
100
AcDbEntity
  8
DEFPOINTS
 62
     0
100
AcDbPoint
 10
18.186405
 20
15.788717
 30
0.0
  0
POINT
  5
ADB
330
AD1
100
AcDbEntity
  8
DEFPOINTS
 62
     0
100
AcDbPoint
 10
18.186405
 20
16.778717
 30
0.0
  0
ENDBLK
  5
ADD
330
AD1
100
AcDbEntity
  8
0
100
AcDbBlockEnd
  0
BLOCK
  5
AEA
330
ADF
100
AcDbEntity
  8
0
100
AcDbBlockBegin
  2
*D79
 70
     1
 10
0.0
 20
0.0
 30
0.0
  3
*D79
  1

  0
LINE
  5
AE0
330
ADF
100
AcDbEntity
  8
DIM
 62
     0
370
    -2
100
AcDbLine
 10
39.89399099999998
 20
16.38271699999999
 30
0.0
 11
38.411991
 21
16.38271699999999
 31
0.0
  0
LINE
  5
AE1
330
ADF
100
AcDbEntity
  8
DIM
 62
     0
370
    -2
100
AcDbLine
 10
39.89399099999998
 20
9.132716999999999
 30
0.0
 11
38.411991
 21
9.132716999999999
 31
0.0
  0
LINE
  5
AE2
330
ADF
100
AcDbEntity
  8
DIM
 62
     0
370
    -2
100
AcDbLine
 10
38.783991
 20
15.66271699999999
 30
0.0
 11
38.783991
 21
13.36771699999999
 31
0.0
  0
LINE
  5
AE3
330
ADF
100
AcDbEntity
  8
DIM
 62
     0
370
    -2
100
AcDbLine
 10
38.783991
 20
9.852717
 30
0.0
 11
38.783991
 21
12.14771699999999
 31
0.0
  0
SOLID
  5
AE4
330
ADF
100
AcDbEntity
  8
DIM
 62
     0
100
AcDbTrace
 10
38.663991
 20
15.66271699999999
 30
0.0
 11
38.90399099999999
 21
15.66271699999999
 31
0.0
 12
38.78399100000001
 22
16.38271699999999
 32
0.0
 13
38.78399100000001
 23
16.38271699999999
 33
0.0
  0
SOLID
  5
AE5
330
ADF
100
AcDbEntity
  8
DIM
 62
     0
100
AcDbTrace
 10
38.663991
 20
9.852717
 30
0.0
 11
38.90399099999999
 21
9.852717
 31
0.0
 12
38.783991
 22
9.132716999999999
 32
0.0
 13
38.783991
 23
9.132716999999999
 33
0.0
  0
MTEXT
  5
AE6
330
ADF
100
AcDbEntity
  8
DIM
 62
     0
100
AcDbMText
 10
38.783991
 20
12.757717
 30
0.0
 40
0.5
 41
0.0
 71
     5
 72
     1
  1
\A1;L
  7
TXT
 73
     1
 44
1.0
  0
POINT
  5
AE7
330
ADF
100
AcDbEntity
  8
DEFPOINTS
 62
     0
100
AcDbPoint
 10
40.14599099999998
 20
16.38271699999998
 30
0.0
  0
POINT
  5
AE8
330
ADF
100
AcDbEntity
  8
DEFPOINTS
 62
     0
100
AcDbPoint
 10
40.14599099999998
 20
9.132716999999999
 30
0.0
  0
POINT
  5
AE9
330
ADF
100
AcDbEntity
  8
DEFPOINTS
 62
     0
100
AcDbPoint
 10
38.783991
 20
9.132716999999999
 30
0.0
  0
ENDBLK
  5
AEB
330
ADF
100
AcDbEntity
  8
0
100
AcDbBlockEnd
  0
BLOCK
  5
AF8
330
AED
100
AcDbEntity
  8
0
100
AcDbBlockBegin
  2
*D80
 70
     1
 10
0.0
 20
0.0
 30
0.0
  3
*D80
  1

  0
LINE
  5
AEE
330
AED
100
AcDbEntity
  8
DIM
 62
     0
370
    -2
100
AcDbLine
 10
40.14599099999998
 20
16.63471699999998
 30
0.0
 11
40.14599099999998
 21
17.744717
 31
0.0
  0
LINE
  5
AEF
330
AED
100
AcDbEntity
  8
DIM
 62
     0
370
    -2
100
AcDbLine
 10
53.145991
 20
16.63471699999998
 30
0.0
 11
53.145991
 21
17.744717
 31
0.0
  0
LINE
  5
AF0
330
AED
100
AcDbEntity
  8
DIM
 62
     0
370
    -2
100
AcDbLine
 10
40.86599099999999
 20
17.372717
 30
0.0
 11
46.16099099999999
 21
17.372717
 31
0.0
  0
LINE
  5
AF1
330
AED
100
AcDbEntity
  8
DIM
 62
     0
370
    -2
100
AcDbLine
 10
52.425991
 20
17.372717
 30
0.0
 11
47.13099099999999
 21
17.372717
 31
0.0
  0
SOLID
  5
AF2
330
AED
100
AcDbEntity
  8
DIM
 62
     0
100
AcDbTrace
 10
40.86599099999999
 20
17.492717
 30
0.0
 11
40.86599099999999
 21
17.252717
 31
0.0
 12
40.14599099999998
 22
17.372717
 32
0.0
 13
40.14599099999998
 23
17.372717
 33
0.0
  0
SOLID
  5
AF3
330
AED
100
AcDbEntity
  8
DIM
 62
     0
100
AcDbTrace
 10
52.425991
 20
17.492717
 30
0.0
 11
52.425991
 21
17.252717
 31
0.0
 12
53.145991
 22
17.372717
 32
0.0
 13
53.145991
 23
17.372717
 33
0.0
  0
MTEXT
  5
AF4
330
AED
100
AcDbEntity
  8
DIM
 62
     0
100
AcDbMText
 10
46.64599099999999
 20
17.372717
 30
0.0
 40
0.5
 41
0.0
 71
     5
 72
     1
  1
\A1;K
  7
TXT
 73
     1
 44
1.0
  0
POINT
  5
AF5
330
AED
100
AcDbEntity
  8
DEFPOINTS
 62
     0
100
AcDbPoint
 10
40.14599099999998
 20
16.38271699999998
 30
0.0
  0
POINT
  5
AF6
330
AED
100
AcDbEntity
  8
DEFPOINTS
 62
     0
100
AcDbPoint
 10
53.145991
 20
16.38271699999998
 30
0.0
  0
POINT
  5
AF7
330
AED
100
AcDbEntity
  8
DEFPOINTS
 62
     0
100
AcDbPoint
 10
53.145991
 20
17.372717
 30
0.0
  0
ENDBLK
  5
AF9
330
AED
100
AcDbEntity
  8
0
100
AcDbBlockEnd
  0
BLOCK
  5
B06
330
AFB
100
AcDbEntity
  8
0
100
AcDbBlockBegin
  2
*D81
 70
     1
 10
0.0
 20
0.0
 30
0.0
  3
*D81
  1

  0
LINE
  5
AFC
330
AFB
100
AcDbEntity
  8
DIM
 62
     0
370
    -2
100
AcDbLine
 10
53.178991
 20
14.960717
 30
0.0
 11
55.25199099999999
 21
14.960717
 31
0.0
  0
LINE
  5
AFD
330
AFB
100
AcDbEntity
  8
DIM
 62
     0
370
    -2
100
AcDbLine
 10
53.397991
 20
16.38271699999998
 30
0.0
 11
55.251991
 21
16.38271699999998
 31
0.0
  0
LINE
  5
AFE
330
AFB
100
AcDbEntity
  8
DIM
 62
     0
370
    -2
100
AcDbLine
 10
54.87999099999999
 20
14.240717
 30
0.0
 11
54.87999099999999
 21
13.520717
 31
0.0
  0
LINE
  5
AFF
330
AFB
100
AcDbEntity
  8
DIM
 62
     0
370
    -2
100
AcDbLine
 10
54.87999099999999
 20
17.10271699999998
 30
0.0
 11
54.87999099999999
 21
17.82271699999999
 31
0.0
  0
SOLID
  5
B00
330
AFB
100
AcDbEntity
  8
DIM
 62
     0
100
AcDbTrace
 10
54.75999099999999
 20
14.240717
 30
0.0
 11
54.99999099999999
 21
14.240717
 31
0.0
 12
54.87999099999999
 22
14.960717
 32
0.0
 13
54.87999099999999
 23
14.960717
 33
0.0
  0
SOLID
  5
B01
330
AFB
100
AcDbEntity
  8
DIM
 62
     0
100
AcDbTrace
 10
54.759991
 20
17.10271699999998
 30
0.0
 11
54.999991
 21
17.10271699999998
 31
0.0
 12
54.87999099999999
 22
16.38271699999998
 32
0.0
 13
54.87999099999999
 23
16.38271699999998
 33
0.0
  0
MTEXT
  5
B02
330
AFB
100
AcDbEntity
  8
DIM
 62
     0
100
AcDbMText
 10
54.87999099999999
 20
15.671717
 30
0.0
 40
0.5
 41
0.0
 71
     5
 72
     1
  1
\A1;1.422
  7
TXT
 73
     1
 44
1.0
  0
POINT
  5
B03
330
AFB
100
AcDbEntity
  8
DEFPOINTS
 62
     0
100
AcDbPoint
 10
52.926991
 20
14.960717
 30
0.0
  0
POINT
  5
B04
330
AFB
100
AcDbEntity
  8
DEFPOINTS
 62
     0
100
AcDbPoint
 10
53.145991
 20
16.38271699999998
 30
0.0
  0
POINT
  5
B05
330
AFB
100
AcDbEntity
  8
DEFPOINTS
 62
     0
100
AcDbPoint
 10
54.87999099999999
 20
16.38271699999998
 30
0.0
  0
ENDBLK
  5
B07
330
AFB
100
AcDbEntity
  8
0
100
AcDbBlockEnd
  0
BLOCK
  5
B14
330
B09
100
AcDbEntity
  8
0
100
AcDbBlockBegin
  2
*D82
 70
     1
 10
0.0
 20
0.0
 30
0.0
  3
*D82
  1

  0
LINE
  5
B0A
330
B09
100
AcDbEntity
  8
DIM
 62
     0
370
    -2
100
AcDbLine
 10
40.36499099999999
 20
10.333717
 30
0.0
 11
40.36499099999999
 21
7.770716999999997
 31
0.0
  0
LINE
  5
B0B
330
B09
100
AcDbEntity
  8
DIM
 62
     0
370
    -2
100
AcDbLine
 10
40.14599099999998
 20
8.880716999999998
 30
0.0
 11
40.14599099999998
 21
7.770716999999997
 31
0.0
  0
LINE
  5
B0C
330
B09
100
AcDbEntity
  8
DIM
 62
     0
370
    -2
100
AcDbLine
 10
41.08499099999998
 20
8.142716999999997
 30
0.0
 11
41.80499099999998
 21
8.142716999999997
 31
0.0
  0
LINE
  5
B0D
330
B09
100
AcDbEntity
  8
DIM
 62
     0
370
    -2
100
AcDbLine
 10
39.42599099999998
 20
8.142716999999997
 30
0.0
 11
38.70599099999999
 21
8.142716999999997
 31
0.0
  0
MTEXT
  5
B0E
330
B09
100
AcDbEntity
  8
DIM
 62
     0
100
AcDbMText
 10
40.25549099999999
 20
6.590716999999997
 30
0.0
 40
0.5
 41
0.0
 71
     5
 72
     1
  1
\A1;0.219
  7
TXT
 73
     1
 44
1.0
  0
SOLID
  5
B0F
330
B09
100
AcDbEntity
  8
DIM
 62
     0
100
AcDbTrace
 10
41.08499099999998
 20
8.262716999999996
 30
0.0
 11
41.08499099999998
 21
8.022716999999998
 31
0.0
 12
40.36499099999999
 22
8.142716999999997
 32
0.0
 13
40.36499099999999
 23
8.142716999999997
 33
0.0
  0
SOLID
  5
B10
330
B09
100
AcDbEntity
  8
DIM
 62
     0
100
AcDbTrace
 10
39.42599099999998
 20
8.262716999999996
 30
0.0
 11
39.42599099999998
 21
8.022716999999998
 31
0.0
 12
40.14599099999998
 22
8.142716999999997
 32
0.0
 13
40.14599099999998
 23
8.142716999999997
 33
0.0
  0
POINT
  5
B11
330
B09
100
AcDbEntity
  8
DEFPOINTS
 62
     0
100
AcDbPoint
 10
40.36499099999999
 20
10.585717
 30
0.0
  0
POINT
  5
B12
330
B09
100
AcDbEntity
  8
DEFPOINTS
 62
     0
100
AcDbPoint
 10
40.14599099999998
 20
9.132716999999999
 30
0.0
  0
POINT
  5
B13
330
B09
100
AcDbEntity
  8
DEFPOINTS
 62
     0
100
AcDbPoint
 10
40.14599099999998
 20
8.142716999999997
 30
0.0
  0
ENDBLK
  5
B15
330
B09
100
AcDbEntity
  8
0
100
AcDbBlockEnd
  0
BLOCK
  5
B22
330
B17
100
AcDbEntity
  8
0
100
AcDbBlockBegin
  2
*D83
 70
     1
 10
0.0
 20
0.0
 30
0.0
  3
*D83
  1

  0
LINE
  5
D2C
330
B17
100
AcDbEntity
  8
DIM
 62
     0
370
    -2
100
AcDbLine
 10
6.561404999999999
 20
10.333717
 30
0.0
 11
6.561404999999999
 21
8.364717
 31
0.0
  0
LINE
  5
D2D
330
B17
100
AcDbEntity
  8
DIM
 62
     0
370
    -2
100
AcDbLine
 10
6.374405
 20
9.474716999999996
 30
0.0
 11
6.374405
 21
8.364717
 31
0.0
  0
LINE
  5
D2E
330
B17
100
AcDbEntity
  8
DIM
 62
     0
370
    -2
100
AcDbLine
 10
7.281404999999999
 20
8.736717
 30
0.0
 11
8.001405
 21
8.736717
 31
0.0
  0
LINE
  5
D2F
330
B17
100
AcDbEntity
  8
DIM
 62
     0
370
    -2
100
AcDbLine
 10
5.654405
 20
8.736717
 30
0.0
 11
4.934404999999999
 21
8.736717
 31
0.0
  0
MTEXT
  5
D30
330
B17
100
AcDbEntity
  8
DIM
 62
     0
100
AcDbMText
 10
4.006306039549315
 20
8.665363040893041
 30
0.0
 40
0.5
 41
0.0
 71
     5
 72
     1
  1
\A1;0.187
  7
TXT
 73
     1
 44
1.0
  0
SOLID
  5
D31
330
B17
100
AcDbEntity
  8
DIM
 62
     0
100
AcDbTrace
 10
7.281404999999999
 20
8.856716999999999
 30
0.0
 11
7.281404999999999
 21
8.616717000000001
 31
0.0
 12
6.561404999999999
 22
8.736717
 32
0.0
 13
6.561404999999999
 23
8.736717
 33
0.0
  0
SOLID
  5
D32
330
B17
100
AcDbEntity
  8
DIM
 62
     0
100
AcDbTrace
 10
5.654405
 20
8.856716999999999
 30
0.0
 11
5.654405
 21
8.616717000000001
 31
0.0
 12
6.374405
 22
8.736717
 32
0.0
 13
6.374405
 23
8.736717
 33
0.0
  0
POINT
  5
D33
330
B17
100
AcDbEntity
  8
DEFPOINTS
 62
     0
100
AcDbPoint
 10
6.561404999999999
 20
10.585717
 30
0.0
  0
POINT
  5
D34
330
B17
100
AcDbEntity
  8
DEFPOINTS
 62
     0
100
AcDbPoint
 10
6.374405
 20
9.726716999999997
 30
0.0
  0
POINT
  5
D35
330
B17
100
AcDbEntity
  8
DEFPOINTS
 62
     0
100
AcDbPoint
 10
6.374405
 20
8.736717
 30
0.0
  0
ENDBLK
  5
B23
330
B17
100
AcDbEntity
  8
0
100
AcDbBlockEnd
  0
BLOCK
  5
B30
330
B25
100
AcDbEntity
  8
0
100
AcDbBlockBegin
  2
*D84
 70
     1
 10
0.0
 20
0.0
 30
0.0
  3
*D84
  1

  0
LINE
  5
B26
330
B25
100
AcDbEntity
  8
DIM
 62
     0
370
    -2
100
AcDbLine
 10
18.25140499999998
 20
14.960717
 30
0.0
 11
20.29240499999999
 21
14.96071699999999
 31
0.0
  0
LINE
  5
B27
330
B25
100
AcDbEntity
  8
DIM
 62
     0
370
    -2
100
AcDbLine
 10
18.43840499999999
 20
15.788717
 30
0.0
 11
20.29240499999999
 21
15.788717
 31
0.0
  0
LINE
  5
B28
330
B25
100
AcDbEntity
  8
DIM
 62
     0
370
    -2
100
AcDbLine
 10
19.92040499999999
 20
14.240717
 30
0.0
 11
19.92040499999999
 21
13.520717
 31
0.0
  0
LINE
  5
B29
330
B25
100
AcDbEntity
  8
DIM
 62
     0
370
    -2
100
AcDbLine
 10
19.92040499999999
 20
16.508717
 30
0.0
 11
19.92040499999999
 21
17.228717
 31
0.0
  0
MTEXT
  5
B2A
330
B25
100
AcDbEntity
  8
DIM
 62
     0
100
AcDbMText
 10
21.47240499999998
 20
15.374717
 30
0.0
 40
0.5
 41
0.0
 71
     5
 72
     1
  1
\A1;0.828
  7
TXT
 73
     1
 44
1.0
  0
SOLID
  5
B2B
330
B25
100
AcDbEntity
  8
DIM
 62
     0
100
AcDbTrace
 10
19.80040499999999
 20
14.240717
 30
0.0
 11
20.04040499999999
 21
14.24071699999999
 31
0.0
 12
19.92040499999999
 22
14.960717
 32
0.0
 13
19.92040499999999
 23
14.960717
 33
0.0
  0
SOLID
  5
B2C
330
B25
100
AcDbEntity
  8
DIM
 62
     0
100
AcDbTrace
 10
19.80040499999999
 20
16.508717
 30
0.0
 11
20.04040499999999
 21
16.508717
 31
0.0
 12
19.92040499999999
 22
15.788717
 32
0.0
 13
19.92040499999999
 23
15.788717
 33
0.0
  0
POINT
  5
B2D
330
B25
100
AcDbEntity
  8
DEFPOINTS
 62
     0
100
AcDbPoint
 10
17.99940499999999
 20
14.960717
 30
0.0
  0
POINT
  5
B2E
330
B25
100
AcDbEntity
  8
DEFPOINTS
 62
     0
100
AcDbPoint
 10
18.186405
 20
15.788717
 30
0.0
  0
POINT
  5
B2F
330
B25
100
AcDbEntity
  8
DEFPOINTS
 62
     0
100
AcDbPoint
 10
19.92040499999999
 20
15.788717
 30
0.0
  0
ENDBLK
  5
B31
330
B25
100
AcDbEntity
  8
0
100
AcDbBlockEnd
  0
BLOCK
  5
B3E
330
B33
100
AcDbEntity
  8
0
100
AcDbBlockBegin
  2
*D85
 70
     1
 10
0.0
 20
0.0
 30
0.0
  3
*D85
  1

  0
LINE
  5
CDC
330
B33
100
AcDbEntity
  8
DIM
 62
     0
370
    -2
100
AcDbLine
 10
18.25140499999998
 20
27.264884
 30
0.0
 11
20.639405
 21
27.264884
 31
0.0
  0
LINE
  5
CDD
330
B33
100
AcDbEntity
  8
DIM
 62
     0
370
    -2
100
AcDbLine
 10
18.43090499999999
 20
28.092884
 30
0.0
 11
20.639405
 21
28.092884
 31
0.0
  0
LINE
  5
CDE
330
B33
100
AcDbEntity
  8
DIM
 62
     0
370
    -2
100
AcDbLine
 10
20.267405
 20
26.54488399999999
 30
0.0
 11
20.267405
 21
25.82488399999999
 31
0.0
  0
LINE
  5
CDF
330
B33
100
AcDbEntity
  8
DIM
 62
     0
370
    -2
100
AcDbLine
 10
20.267405
 20
28.812884
 30
0.0
 11
20.267405
 21
29.532884
 31
0.0
  0
MTEXT
  5
CE0
330
B33
100
AcDbEntity
  8
DIM
 62
     0
100
AcDbMText
 10
20.21586142894582
 20
27.678884
 30
0.0
 40
0.5
 41
0.0
 71
     5
 72
     1
  1
\A1;0.828
  7
TXT
 73
     1
 44
1.0
  0
SOLID
  5
CE1
330
B33
100
AcDbEntity
  8
DIM
 62
     0
100
AcDbTrace
 10
20.14740499999999
 20
26.54488399999999
 30
0.0
 11
20.387405
 21
26.54488399999999
 31
0.0
 12
20.267405
 22
27.264884
 32
0.0
 13
20.267405
 23
27.264884
 33
0.0
  0
SOLID
  5
CE2
330
B33
100
AcDbEntity
  8
DIM
 62
     0
100
AcDbTrace
 10
20.14740499999999
 20
28.812884
 30
0.0
 11
20.387405
 21
28.812884
 31
0.0
 12
20.267405
 22
28.092884
 32
0.0
 13
20.267405
 23
28.092884
 33
0.0
  0
POINT
  5
CE3
330
B33
100
AcDbEntity
  8
DEFPOINTS
 62
     0
100
AcDbPoint
 10
17.99940499999999
 20
27.264884
 30
0.0
  0
POINT
  5
CE4
330
B33
100
AcDbEntity
  8
DEFPOINTS
 62
     0
100
AcDbPoint
 10
18.178905
 20
28.092884
 30
0.0
  0
POINT
  5
CE5
330
B33
100
AcDbEntity
  8
DEFPOINTS
 62
     0
100
AcDbPoint
 10
20.267405
 20
28.092884
 30
0.0
  0
ENDBLK
  5
B3F
330
B33
100
AcDbEntity
  8
0
100
AcDbBlockEnd
  0
BLOCK
  5
B4C
330
B41
100
AcDbEntity
  8
0
100
AcDbBlockBegin
  2
*D86
 70
     1
 10
0.0
 20
0.0
 30
0.0
  3
*D86
  1

  0
LINE
  5
CD2
330
B41
100
AcDbEntity
  8
DIM
 62
     0
370
    -2
100
AcDbLine
 10
18.25140499999998
 20
22.889884
 30
0.0
 11
20.639405
 21
22.889884
 31
0.0
  0
LINE
  5
CD3
330
B41
100
AcDbEntity
  8
DIM
 62
     0
370
    -2
100
AcDbLine
 10
18.45740499999998
 20
22.03088399999999
 30
0.0
 11
20.639405
 21
22.03088399999999
 31
0.0
  0
LINE
  5
CD4
330
B41
100
AcDbEntity
  8
DIM
 62
     0
370
    -2
100
AcDbLine
 10
20.267405
 20
23.60988399999999
 30
0.0
 11
20.267405
 21
24.329884
 31
0.0
  0
LINE
  5
CD5
330
B41
100
AcDbEntity
  8
DIM
 62
     0
370
    -2
100
AcDbLine
 10
20.267405
 20
21.31088399999998
 30
0.0
 11
20.267405
 21
20.59088399999998
 31
0.0
  0
MTEXT
  5
CD6
330
B41
100
AcDbEntity
  8
DIM
 62
     0
100
AcDbMText
 10
20.46979622349116
 20
22.46038399999999
 30
0.0
 40
0.5
 41
0.0
 71
     5
 72
     1
  1
\A1;0.859
  7
TXT
 73
     1
 44
1.0
  0
SOLID
  5
CD7
330
B41
100
AcDbEntity
  8
DIM
 62
     0
100
AcDbTrace
 10
20.14740499999999
 20
23.60988399999999
 30
0.0
 11
20.387405
 21
23.60988399999999
 31
0.0
 12
20.267405
 22
22.889884
 32
0.0
 13
20.267405
 23
22.889884
 33
0.0
  0
SOLID
  5
CD8
330
B41
100
AcDbEntity
  8
DIM
 62
     0
100
AcDbTrace
 10
20.14740499999999
 20
21.31088399999998
 30
0.0
 11
20.387405
 21
21.31088399999998
 31
0.0
 12
20.267405
 22
22.03088399999999
 32
0.0
 13
20.267405
 23
22.03088399999999
 33
0.0
  0
POINT
  5
CD9
330
B41
100
AcDbEntity
  8
DEFPOINTS
 62
     0
100
AcDbPoint
 10
17.99940499999999
 20
22.889884
 30
0.0
  0
POINT
  5
CDA
330
B41
100
AcDbEntity
  8
DEFPOINTS
 62
     0
100
AcDbPoint
 10
18.20540499999999
 20
22.03088399999999
 30
0.0
  0
POINT
  5
CDB
330
B41
100
AcDbEntity
  8
DEFPOINTS
 62
     0
100
AcDbPoint
 10
20.267405
 20
22.03088399999999
 30
0.0
  0
ENDBLK
  5
B4D
330
B41
100
AcDbEntity
  8
0
100
AcDbBlockEnd
  0
BLOCK
  5
B5A
330
B4F
100
AcDbEntity
  8
0
100
AcDbBlockBegin
  2
*D87
 70
     1
 10
0.0
 20
0.0
 30
0.0
  3
*D87
  1

  0
LINE
  5
B50
330
B4F
100
AcDbEntity
  8
DIM
 62
     0
370
    -2
100
AcDbLine
 10
40.11299099999998
 20
27.264884
 30
0.0
 11
38.174045
 21
27.264884
 31
0.0
  0
LINE
  5
B51
330
B4F
100
AcDbEntity
  8
DIM
 62
     0
370
    -2
100
AcDbLine
 10
39.90199099999998
 20
28.717884
 30
0.0
 11
38.174045
 21
28.717884
 31
0.0
  0
LINE
  5
B52
330
B4F
100
AcDbEntity
  8
DIM
 62
     0
370
    -2
100
AcDbLine
 10
38.546045
 20
26.544884
 30
0.0
 11
38.546045
 21
25.824884
 31
0.0
  0
LINE
  5
B53
330
B4F
100
AcDbEntity
  8
DIM
 62
     0
370
    -2
100
AcDbLine
 10
38.546045
 20
29.437884
 30
0.0
 11
38.546045
 21
30.157884
 31
0.0
  0
SOLID
  5
B54
330
B4F
100
AcDbEntity
  8
DIM
 62
     0
100
AcDbTrace
 10
38.426045
 20
26.544884
 30
0.0
 11
38.66604499999999
 21
26.544884
 31
0.0
 12
38.546045
 22
27.264884
 32
0.0
 13
38.546045
 23
27.264884
 33
0.0
  0
SOLID
  5
B55
330
B4F
100
AcDbEntity
  8
DIM
 62
     0
100
AcDbTrace
 10
38.426045
 20
29.437884
 30
0.0
 11
38.66604499999999
 21
29.437884
 31
0.0
 12
38.546045
 22
28.717884
 32
0.0
 13
38.546045
 23
28.717884
 33
0.0
  0
MTEXT
  5
B56
330
B4F
100
AcDbEntity
  8
DIM
 62
     0
100
AcDbMText
 10
38.54604499999999
 20
27.991384
 30
0.0
 40
0.5
 41
0.0
 71
     5
 72
     1
  1
\A1;1.453
  7
TXT
 73
     1
 44
1.0
  0
POINT
  5
B57
330
B4F
100
AcDbEntity
  8
DEFPOINTS
 62
     0
100
AcDbPoint
 10
40.36499099999999
 20
27.264884
 30
0.0
  0
POINT
  5
B58
330
B4F
100
AcDbEntity
  8
DEFPOINTS
 62
     0
100
AcDbPoint
 10
40.15399099999998
 20
28.717884
 30
0.0
  0
POINT
  5
B59
330
B4F
100
AcDbEntity
  8
DEFPOINTS
 62
     0
100
AcDbPoint
 10
38.546045
 20
28.717884
 30
0.0
  0
ENDBLK
  5
B5B
330
B4F
100
AcDbEntity
  8
0
100
AcDbBlockEnd
  0
BLOCK
  5
B68
330
B5D
100
AcDbEntity
  8
0
100
AcDbBlockBegin
  2
*D88
 70
     1
 10
0.0
 20
0.0
 30
0.0
  3
*D88
  1

  0
LINE
  5
B5E
330
B5D
100
AcDbEntity
  8
DIM
 62
     0
370
    -2
100
AcDbLine
 10
40.11299099999998
 20
22.889884
 30
0.0
 11
38.174045
 21
22.889884
 31
0.0
  0
LINE
  5
B5F
330
B5D
100
AcDbEntity
  8
DIM
 62
     0
370
    -2
100
AcDbLine
 10
39.815991
 20
21.40588399999999
 30
0.0
 11
38.174045
 21
21.40588399999999
 31
0.0
  0
LINE
  5
B60
330
B5D
100
AcDbEntity
  8
DIM
 62
     0
370
    -2
100
AcDbLine
 10
38.546045
 20
23.609884
 30
0.0
 11
38.546045
 21
24.329884
 31
0.0
  0
LINE
  5
B61
330
B5D
100
AcDbEntity
  8
DIM
 62
     0
370
    -2
100
AcDbLine
 10
38.546045
 20
20.68588399999999
 30
0.0
 11
38.546045
 21
19.96588399999999
 31
0.0
  0
SOLID
  5
B62
330
B5D
100
AcDbEntity
  8
DIM
 62
     0
100
AcDbTrace
 10
38.426045
 20
23.609884
 30
0.0
 11
38.66604499999999
 21
23.609884
 31
0.0
 12
38.546045
 22
22.889884
 32
0.0
 13
38.546045
 23
22.889884
 33
0.0
  0
SOLID
  5
B63
330
B5D
100
AcDbEntity
  8
DIM
 62
     0
100
AcDbTrace
 10
38.426045
 20
20.68588399999999
 30
0.0
 11
38.66604499999999
 21
20.68588399999999
 31
0.0
 12
38.546045
 22
21.40588399999999
 32
0.0
 13
38.546045
 23
21.40588399999999
 33
0.0
  0
MTEXT
  5
B64
330
B5D
100
AcDbEntity
  8
DIM
 62
     0
100
AcDbMText
 10
38.54604499999999
 20
22.147884
 30
0.0
 40
0.5
 41
0.0
 71
     5
 72
     1
  1
\A1;1.484
  7
TXT
 73
     1
 44
1.0
  0
POINT
  5
B65
330
B5D
100
AcDbEntity
  8
DEFPOINTS
 62
     0
100
AcDbPoint
 10
40.36499099999999
 20
22.889884
 30
0.0
  0
POINT
  5
B66
330
B5D
100
AcDbEntity
  8
DEFPOINTS
 62
     0
100
AcDbPoint
 10
40.067991
 20
21.40588399999999
 30
0.0
  0
POINT
  5
B67
330
B5D
100
AcDbEntity
  8
DEFPOINTS
 62
     0
100
AcDbPoint
 10
38.546045
 20
21.40588399999999
 30
0.0
  0
ENDBLK
  5
B69
330
B5D
100
AcDbEntity
  8
0
100
AcDbBlockEnd
  0
BLOCK
  5
B76
330
B6B
100
AcDbEntity
  8
0
100
AcDbBlockBegin
  2
*D89
 70
     1
 10
0.0
 20
0.0
 30
0.0
  3
*D89
  1

  0
LINE
  5
CC8
330
B6B
100
AcDbEntity
  8
DIM
 62
     0
370
    -2
100
AcDbLine
 10
25.036748
 20
26.10877699999999
 30
0.0
 11
25.036748
 21
27.47643126216306
 31
0.0
  0
LINE
  5
CC9
330
B6B
100
AcDbEntity
  8
DIM
 62
     0
370
    -2
100
AcDbLine
 10
26.020748
 20
26.10877699999999
 30
0.0
 11
26.020748
 21
27.47643126216306
 31
0.0
  0
LINE
  5
CCA
330
B6B
100
AcDbEntity
  8
DIM
 62
     0
370
    -2
100
AcDbLine
 10
24.316748
 20
27.10443126216306
 30
0.0
 11
23.596748
 21
27.10443126216306
 31
0.0
  0
LINE
  5
CCB
330
B6B
100
AcDbEntity
  8
DIM
 62
     0
370
    -2
100
AcDbLine
 10
26.740748
 20
27.10443126216306
 30
0.0
 11
27.460748
 21
27.10443126216306
 31
0.0
  0
MTEXT
  5
CCC
330
B6B
100
AcDbEntity
  8
DIM
 62
     0
100
AcDbMText
 10
29.85035310015831
 20
27.148962
 30
0.0
 40
0.5
 41
0.0
 71
     5
 72
     1
  1
\A1;0.984 RECESS
  7
TXT
 73
     1
 44
1.0
  0
SOLID
  5
CCD
330
B6B
100
AcDbEntity
  8
DIM
 62
     0
100
AcDbTrace
 10
24.316748
 20
27.22443126216306
 30
0.0
 11
24.316748
 21
26.98443126216305
 31
0.0
 12
25.036748
 22
27.10443126216306
 32
0.0
 13
25.036748
 23
27.10443126216306
 33
0.0
  0
SOLID
  5
CCE
330
B6B
100
AcDbEntity
  8
DIM
 62
     0
100
AcDbTrace
 10
26.740748
 20
27.22443126216306
 30
0.0
 11
26.740748
 21
26.98443126216305
 31
0.0
 12
26.020748
 22
27.10443126216306
 32
0.0
 13
26.020748
 23
27.10443126216306
 33
0.0
  0
POINT
  5
CCF
330
B6B
100
AcDbEntity
  8
DEFPOINTS
 62
     0
100
AcDbPoint
 10
25.036748
 20
25.85677699999999
 30
0.0
  0
POINT
  5
CD0
330
B6B
100
AcDbEntity
  8
DEFPOINTS
 62
     0
100
AcDbPoint
 10
26.020748
 20
25.85677699999999
 30
0.0
  0
POINT
  5
CD1
330
B6B
100
AcDbEntity
  8
DEFPOINTS
 62
     0
100
AcDbPoint
 10
26.020748
 20
27.10443126216306
 30
0.0
  0
ENDBLK
  5
B77
330
B6B
100
AcDbEntity
  8
0
100
AcDbBlockEnd
  0
BLOCK
  5
B8B
330
B80
100
AcDbEntity
  8
0
100
AcDbBlockBegin
  2
*D90
 70
     1
 10
0.0
 20
0.0
 30
0.0
  3
*D90
  1

  0
LINE
  5
B81
330
B80
100
AcDbEntity
  8
DIM
 62
     0
370
    -2
100
AcDbLine
 10
5.434404999999999
 20
21.311884
 30
0.0
 11
4.219163999999998
 21
21.311884
 31
0.0
  0
LINE
  5
B82
330
B80
100
AcDbEntity
  8
DIM
 62
     0
370
    -2
100
AcDbLine
 10
5.403405
 20
28.811884
 30
0.0
 11
4.219164
 21
28.811884
 31
0.0
  0
LINE
  5
B83
330
B80
100
AcDbEntity
  8
DIM
 62
     0
370
    -2
100
AcDbLine
 10
4.591163999999999
 20
22.03188399999999
 30
0.0
 11
4.591163999999999
 21
24.451884
 31
0.0
  0
LINE
  5
B84
330
B80
100
AcDbEntity
  8
DIM
 62
     0
370
    -2
100
AcDbLine
 10
4.591164
 20
28.091884
 30
0.0
 11
4.591163999999999
 21
25.671884
 31
0.0
  0
SOLID
  5
B85
330
B80
100
AcDbEntity
  8
DIM
 62
     0
100
AcDbTrace
 10
4.471163999999999
 20
22.03188399999999
 30
0.0
 11
4.711163999999999
 21
22.03188399999999
 31
0.0
 12
4.591163999999998
 22
21.311884
 32
0.0
 13
4.591163999999998
 23
21.311884
 33
0.0
  0
SOLID
  5
B86
330
B80
100
AcDbEntity
  8
DIM
 62
     0
100
AcDbTrace
 10
4.471163999999999
 20
28.091884
 30
0.0
 11
4.711164
 21
28.091884
 31
0.0
 12
4.591164
 22
28.811884
 32
0.0
 13
4.591164
 23
28.811884
 33
0.0
  0
MTEXT
  5
B87
330
B80
100
AcDbEntity
  8
DIM
 62
     0
100
AcDbMText
 10
4.591163999999995
 20
25.061884
 30
0.0
 40
0.5
 41
0.0
 71
     5
 72
     1
  1
\A1;B
  7
TXT
 73
     1
 44
1.0
  0
POINT
  5
B88
330
B80
100
AcDbEntity
  8
DEFPOINTS
 62
     0
100
AcDbPoint
 10
5.686404999999999
 20
21.311884
 30
0.0
  0
POINT
  5
B89
330
B80
100
AcDbEntity
  8
DEFPOINTS
 62
     0
100
AcDbPoint
 10
5.655405
 20
28.811884
 30
0.0
  0
POINT
  5
B8A
330
B80
100
AcDbEntity
  8
DEFPOINTS
 62
     0
100
AcDbPoint
 10
4.591164
 20
28.811884
 30
0.0
  0
ENDBLK
  5
B8C
330
B80
100
AcDbEntity
  8
0
100
AcDbBlockEnd
  0
BLOCK
  5
BA2
330
B97
100
AcDbEntity
  8
0
100
AcDbBlockBegin
  2
*D91
 70
     1
 10
0.0
 20
0.0
 30
0.0
  3
*D91
  1

  0
LINE
  5
D5E
330
B97
100
AcDbEntity
  8
DIM
 62
     0
370
    -2
100
AcDbLine
 10
26.067748
 20
28.371817
 30
0.0
 11
26.067748
 21
30.543253
 31
0.0
  0
LINE
  5
D5F
330
B97
100
AcDbEntity
  8
DIM
 62
     0
370
    -2
100
AcDbLine
 10
25.036748
 20
29.000884
 30
0.0
 11
25.036748
 21
30.543253
 31
0.0
  0
LINE
  5
D60
330
B97
100
AcDbEntity
  8
DIM
 62
     0
370
    -2
100
AcDbLine
 10
26.787748
 20
30.171253
 30
0.0
 11
27.507748
 21
30.171253
 31
0.0
  0
LINE
  5
D61
330
B97
100
AcDbEntity
  8
DIM
 62
     0
370
    -2
100
AcDbLine
 10
24.316748
 20
30.171253
 30
0.0
 11
23.596748
 21
30.171253
 31
0.0
  0
MTEXT
  5
D62
330
B97
100
AcDbEntity
  8
DIM
 62
     0
100
AcDbMText
 10
22.65974341486602
 20
30.159931728371
 30
0.0
 40
0.5
 41
0.0
 71
     5
 72
     1
  1
\A1;1.031
  7
TXT
 73
     1
 44
1.0
  0
SOLID
  5
D63
330
B97
100
AcDbEntity
  8
DIM
 62
     0
100
AcDbTrace
 10
26.787748
 20
30.291253
 30
0.0
 11
26.787748
 21
30.051253
 31
0.0
 12
26.067748
 22
30.171253
 32
0.0
 13
26.067748
 23
30.171253
 33
0.0
  0
SOLID
  5
D64
330
B97
100
AcDbEntity
  8
DIM
 62
     0
100
AcDbTrace
 10
24.316748
 20
30.291253
 30
0.0
 11
24.316748
 21
30.051253
 31
0.0
 12
25.036748
 22
30.171253
 32
0.0
 13
25.036748
 23
30.171253
 33
0.0
  0
POINT
  5
D65
330
B97
100
AcDbEntity
  8
DEFPOINTS
 62
     0
100
AcDbPoint
 10
26.067748
 20
28.119817
 30
0.0
  0
POINT
  5
D66
330
B97
100
AcDbEntity
  8
DEFPOINTS
 62
     0
100
AcDbPoint
 10
25.036748
 20
28.748884
 30
0.0
  0
POINT
  5
D67
330
B97
100
AcDbEntity
  8
DEFPOINTS
 62
     0
100
AcDbPoint
 10
25.036748
 20
30.171253
 30
0.0
  0
ENDBLK
  5
BA3
330
B97
100
AcDbEntity
  8
0
100
AcDbBlockEnd
  0
BLOCK
  5
BB0
330
BA5
100
AcDbEntity
  8
0
100
AcDbBlockBegin
  2
*D92
 70
     1
 10
0.0
 20
0.0
 30
0.0
  3
*D92
  1

  0
LINE
  5
D72
330
BA5
100
AcDbEntity
  8
DIM
 62
     0
370
    -2
100
AcDbLine
 10
33.739748
 20
29.01688399999999
 30
0.0
 11
33.739748
 21
30.543253
 31
0.0
  0
LINE
  5
D73
330
BA5
100
AcDbEntity
  8
DIM
 62
     0
370
    -2
100
AcDbLine
 10
34.03674799999999
 20
29.01688399999999
 30
0.0
 11
34.03674799999999
 21
30.543253
 31
0.0
  0
LINE
  5
D74
330
BA5
100
AcDbEntity
  8
DIM
 62
     0
370
    -2
100
AcDbLine
 10
33.01974799999999
 20
30.171253
 30
0.0
 11
32.299748
 21
30.171253
 31
0.0
  0
LINE
  5
D75
330
BA5
100
AcDbEntity
  8
DIM
 62
     0
370
    -2
100
AcDbLine
 10
34.75674799999998
 20
30.171253
 30
0.0
 11
35.47674799999998
 21
30.171253
 31
0.0
  0
MTEXT
  5
D76
330
BA5
100
AcDbEntity
  8
DIM
 62
     0
100
AcDbMText
 10
36.49291394665863
 20
30.159931728371
 30
0.0
 40
0.5
 41
0.0
 71
     5
 72
     1
  1
\A1;0.297
  7
TXT
 73
     1
 44
1.0
  0
SOLID
  5
D77
330
BA5
100
AcDbEntity
  8
DIM
 62
     0
100
AcDbTrace
 10
33.01974799999999
 20
30.291253
 30
0.0
 11
33.01974799999999
 21
30.051253
 31
0.0
 12
33.739748
 22
30.171253
 32
0.0
 13
33.739748
 23
30.171253
 33
0.0
  0
SOLID
  5
D78
330
BA5
100
AcDbEntity
  8
DIM
 62
     0
100
AcDbTrace
 10
34.75674799999998
 20
30.291253
 30
0.0
 11
34.75674799999998
 21
30.051253
 31
0.0
 12
34.03674799999999
 22
30.171253
 32
0.0
 13
34.03674799999999
 23
30.171253
 33
0.0
  0
POINT
  5
D79
330
BA5
100
AcDbEntity
  8
DEFPOINTS
 62
     0
100
AcDbPoint
 10
33.739748
 20
28.76488399999999
 30
0.0
  0
POINT
  5
D7A
330
BA5
100
AcDbEntity
  8
DEFPOINTS
 62
     0
100
AcDbPoint
 10
34.03674799999999
 20
28.76488399999999
 30
0.0
  0
POINT
  5
D7B
330
BA5
100
AcDbEntity
  8
DEFPOINTS
 62
     0
100
AcDbPoint
 10
34.03674799999999
 20
30.171253
 30
0.0
  0
ENDBLK
  5
BB1
330
BA5
100
AcDbEntity
  8
0
100
AcDbBlockEnd
  0
BLOCK
  5
BD0
330
BC5
100
AcDbEntity
  8
0
100
AcDbBlockBegin
  2
*D93
 70
     1
 10
0.0
 20
0.0
 30
0.0
  3
*D93
  1

  0
LINE
  5
BC6
330
BC5
100
AcDbEntity
  8
DIM
 62
     0
370
    -2
100
AcDbLine
 10
18.186405
 20
28.337384
 30
0.0
 11
18.186405
 21
30.543253
 31
0.0
  0
LINE
  5
BC7
330
BC5
100
AcDbEntity
  8
DIM
 62
     0
370
    -2
100
AcDbLine
 10
6.374405
 20
28.337384
 30
0.0
 11
6.374405
 21
30.543253
 31
0.0
  0
LINE
  5
BC8
330
BC5
100
AcDbEntity
  8
DIM
 62
     0
370
    -2
100
AcDbLine
 10
17.466405
 20
30.171253
 30
0.0
 11
12.765405
 21
30.171253
 31
0.0
  0
LINE
  5
BC9
330
BC5
100
AcDbEntity
  8
DIM
 62
     0
370
    -2
100
AcDbLine
 10
7.094405
 20
30.171253
 30
0.0
 11
11.795405
 21
30.171253
 31
0.0
  0
SOLID
  5
BCA
330
BC5
100
AcDbEntity
  8
DIM
 62
     0
100
AcDbTrace
 10
17.466405
 20
30.291253
 30
0.0
 11
17.466405
 21
30.051253
 31
0.0
 12
18.186405
 22
30.171253
 32
0.0
 13
18.186405
 23
30.171253
 33
0.0
  0
SOLID
  5
BCB
330
BC5
100
AcDbEntity
  8
DIM
 62
     0
100
AcDbTrace
 10
7.094405
 20
30.291253
 30
0.0
 11
7.094405
 21
30.051253
 31
0.0
 12
6.374405
 22
30.171253
 32
0.0
 13
6.374405
 23
30.171253
 33
0.0
  0
MTEXT
  5
BCC
330
BC5
100
AcDbEntity
  8
DIM
 62
     0
100
AcDbMText
 10
12.280405
 20
30.171253
 30
0.0
 40
0.5
 41
0.0
 71
     5
 72
     1
  1
\A1;D
  7
TXT
 73
     1
 44
1.0
  0
POINT
  5
BCD
330
BC5
100
AcDbEntity
  8
DEFPOINTS
 62
     0
100
AcDbPoint
 10
18.186405
 20
28.085384
 30
0.0
  0
POINT
  5
BCE
330
BC5
100
AcDbEntity
  8
DEFPOINTS
 62
     0
100
AcDbPoint
 10
6.374405
 20
28.085384
 30
0.0
  0
POINT
  5
BCF
330
BC5
100
AcDbEntity
  8
DEFPOINTS
 62
     0
100
AcDbPoint
 10
6.374405
 20
30.171253
 30
0.0
  0
ENDBLK
  5
BD1
330
BC5
100
AcDbEntity
  8
0
100
AcDbBlockEnd
  0
BLOCK
  5
BDE
330
BD3
100
AcDbEntity
  8
0
100
AcDbBlockBegin
  2
*D94
 70
     1
 10
0.0
 20
0.0
 30
0.0
  3
*D94
  1

  0
LINE
  5
D0E
330
BD3
100
AcDbEntity
  8
DIM
 62
     0
370
    -2
100
AcDbLine
 10
6.374405
 20
28.337384
 30
0.0
 11
6.374405
 21
30.543253
 31
0.0
  0
LINE
  5
D0F
330
BD3
100
AcDbEntity
  8
DIM
 62
     0
370
    -2
100
AcDbLine
 10
5.655405
 20
29.06388399999999
 30
0.0
 11
5.655405
 21
30.543253
 31
0.0
  0
LINE
  5
D10
330
BD3
100
AcDbEntity
  8
DIM
 62
     0
370
    -2
100
AcDbLine
 10
7.094405
 20
30.171253
 30
0.0
 11
7.814405
 21
30.171253
 31
0.0
  0
LINE
  5
D11
330
BD3
100
AcDbEntity
  8
DIM
 62
     0
370
    -2
100
AcDbLine
 10
4.935405
 20
30.171253
 30
0.0
 11
4.215405
 21
30.171253
 31
0.0
  0
MTEXT
  5
D12
330
BD3
100
AcDbEntity
  8
DIM
 62
     0
100
AcDbMText
 10
3.174605425790446
 20
30.15241001455464
 30
0.0
 40
0.5
 41
0.0
 71
     5
 72
     1
  1
\A1;0.719
  7
TXT
 73
     1
 44
1.0
  0
SOLID
  5
D13
330
BD3
100
AcDbEntity
  8
DIM
 62
     0
100
AcDbTrace
 10
7.094405
 20
30.291253
 30
0.0
 11
7.094405
 21
30.051253
 31
0.0
 12
6.374405
 22
30.171253
 32
0.0
 13
6.374405
 23
30.171253
 33
0.0
  0
SOLID
  5
D14
330
BD3
100
AcDbEntity
  8
DIM
 62
     0
100
AcDbTrace
 10
4.935405
 20
30.291253
 30
0.0
 11
4.935405
 21
30.051253
 31
0.0
 12
5.655405
 22
30.171253
 32
0.0
 13
5.655405
 23
30.171253
 33
0.0
  0
POINT
  5
D15
330
BD3
100
AcDbEntity
  8
DEFPOINTS
 62
     0
100
AcDbPoint
 10
6.374405
 20
28.085384
 30
0.0
  0
POINT
  5
D16
330
BD3
100
AcDbEntity
  8
DEFPOINTS
 62
     0
100
AcDbPoint
 10
5.655405
 20
28.811884
 30
0.0
  0
POINT
  5
D17
330
BD3
100
AcDbEntity
  8
DEFPOINTS
 62
     0
100
AcDbPoint
 10
5.655405
 20
30.171253
 30
0.0
  0
ENDBLK
  5
BDF
330
BD3
100
AcDbEntity
  8
0
100
AcDbBlockEnd
  0
BLOCK
  5
BEC
330
BE1
100
AcDbEntity
  8
0
100
AcDbBlockBegin
  2
*D95
 70
     1
 10
0.0
 20
0.0
 30
0.0
  3
*D95
  1

  0
LINE
  5
D4A
330
BE1
100
AcDbEntity
  8
DIM
 62
     0
370
    -2
100
AcDbLine
 10
18.186405
 20
9.474716999999996
 30
0.0
 11
18.186405
 21
8.364717
 31
0.0
  0
LINE
  5
D4B
330
BE1
100
AcDbEntity
  8
DIM
 62
     0
370
    -2
100
AcDbLine
 10
17.99940499999999
 20
10.333717
 30
0.0
 11
17.99940499999999
 21
8.364717
 31
0.0
  0
LINE
  5
D4C
330
BE1
100
AcDbEntity
  8
DIM
 62
     0
370
    -2
100
AcDbLine
 10
18.90640499999999
 20
8.736717
 30
0.0
 11
19.626405
 21
8.736717
 31
0.0
  0
LINE
  5
D4D
330
BE1
100
AcDbEntity
  8
DIM
 62
     0
370
    -2
100
AcDbLine
 10
17.27940499999998
 20
8.736717
 30
0.0
 11
16.55940499999998
 21
8.736717
 31
0.0
  0
MTEXT
  5
D4E
330
BE1
100
AcDbEntity
  8
DIM
 62
     0
100
AcDbMText
 10
15.56313197685258
 20
8.709106559540472
 30
0.0
 40
0.5
 41
0.0
 71
     5
 72
     1
  1
\A1;0.187
  7
TXT
 73
     1
 44
1.0
  0
SOLID
  5
D4F
330
BE1
100
AcDbEntity
  8
DIM
 62
     0
100
AcDbTrace
 10
18.90640499999999
 20
8.856716999999999
 30
0.0
 11
18.90640499999999
 21
8.616717000000001
 31
0.0
 12
18.186405
 22
8.736717
 32
0.0
 13
18.186405
 23
8.736717
 33
0.0
  0
SOLID
  5
D50
330
BE1
100
AcDbEntity
  8
DIM
 62
     0
100
AcDbTrace
 10
17.27940499999998
 20
8.856716999999999
 30
0.0
 11
17.27940499999998
 21
8.616717000000001
 31
0.0
 12
17.99940499999999
 22
8.736717
 32
0.0
 13
17.99940499999999
 23
8.736717
 33
0.0
  0
POINT
  5
D51
330
BE1
100
AcDbEntity
  8
DEFPOINTS
 62
     0
100
AcDbPoint
 10
18.186405
 20
9.726716999999997
 30
0.0
  0
POINT
  5
D52
330
BE1
100
AcDbEntity
  8
DEFPOINTS
 62
     0
100
AcDbPoint
 10
17.99940499999999
 20
10.585717
 30
0.0
  0
POINT
  5
D53
330
BE1
100
AcDbEntity
  8
DEFPOINTS
 62
     0
100
AcDbPoint
 10
17.99940499999999
 20
8.736717
 30
0.0
  0
ENDBLK
  5
BED
330
BE1
100
AcDbEntity
  8
0
100
AcDbBlockEnd
  0
BLOCK
  5
BFA
330
BEF
100
AcDbEntity
  8
0
100
AcDbBlockBegin
  2
*D96
 70
     1
 10
0.0
 20
0.0
 30
0.0
  3
*D96
  1

  0
LINE
  5
BF0
330
BEF
100
AcDbEntity
  8
DIM
 62
     0
370
    -2
100
AcDbLine
 10
53.145991
 20
8.880716999999998
 30
0.0
 11
53.145991
 21
7.770716999999997
 31
0.0
  0
LINE
  5
BF1
330
BEF
100
AcDbEntity
  8
DIM
 62
     0
370
    -2
100
AcDbLine
 10
52.926991
 20
10.333717
 30
0.0
 11
52.926991
 21
7.770716999999997
 31
0.0
  0
LINE
  5
BF2
330
BEF
100
AcDbEntity
  8
DIM
 62
     0
370
    -2
100
AcDbLine
 10
53.865991
 20
8.142716999999997
 30
0.0
 11
54.585991
 21
8.142716999999997
 31
0.0
  0
LINE
  5
BF3
330
BEF
100
AcDbEntity
  8
DIM
 62
     0
370
    -2
100
AcDbLine
 10
52.206991
 20
8.142716999999997
 30
0.0
 11
51.486991
 21
8.142716999999997
 31
0.0
  0
MTEXT
  5
BF4
330
BEF
100
AcDbEntity
  8
DIM
 62
     0
100
AcDbMText
 10
53.036491
 20
6.590716999999997
 30
0.0
 40
0.5
 41
0.0
 71
     5
 72
     1
  1
\A1;0.219
  7
TXT
 73
     1
 44
1.0
  0
SOLID
  5
BF5
330
BEF
100
AcDbEntity
  8
DIM
 62
     0
100
AcDbTrace
 10
53.865991
 20
8.262716999999996
 30
0.0
 11
53.865991
 21
8.022716999999998
 31
0.0
 12
53.145991
 22
8.142716999999997
 32
0.0
 13
53.145991
 23
8.142716999999997
 33
0.0
  0
SOLID
  5
BF6
330
BEF
100
AcDbEntity
  8
DIM
 62
     0
100
AcDbTrace
 10
52.206991
 20
8.262716999999996
 30
0.0
 11
52.206991
 21
8.022716999999998
 31
0.0
 12
52.926991
 22
8.142716999999997
 32
0.0
 13
52.926991
 23
8.142716999999997
 33
0.0
  0
POINT
  5
BF7
330
BEF
100
AcDbEntity
  8
DEFPOINTS
 62
     0
100
AcDbPoint
 10
53.145991
 20
9.132716999999999
 30
0.0
  0
POINT
  5
BF8
330
BEF
100
AcDbEntity
  8
DEFPOINTS
 62
     0
100
AcDbPoint
 10
52.926991
 20
10.585717
 30
0.0
  0
POINT
  5
BF9
330
BEF
100
AcDbEntity
  8
DEFPOINTS
 62
     0
100
AcDbPoint
 10
52.926991
 20
8.142716999999997
 30
0.0
  0
ENDBLK
  5
BFB
330
BEF
100
AcDbEntity
  8
0
100
AcDbBlockEnd
  0
BLOCK
  5
C08
330
BFD
100
AcDbEntity
  8
0
100
AcDbBlockBegin
  2
*D97
 70
     1
 10
0.0
 20
0.0
 30
0.0
  3
*D97
  1

  0
LINE
  5
BFE
330
BFD
100
AcDbEntity
  8
DIM
 62
     0
370
    -2
100
AcDbLine
 10
18.25140499999998
 20
10.585717
 30
0.0
 11
20.29240499999999
 21
10.58571699999999
 31
0.0
  0
LINE
  5
BFF
330
BFD
100
AcDbEntity
  8
DIM
 62
     0
370
    -2
100
AcDbLine
 10
18.43840499999999
 20
9.726716999999997
 30
0.0
 11
20.29240499999999
 21
9.726716999999995
 31
0.0
  0
LINE
  5
C00
330
BFD
100
AcDbEntity
  8
DIM
 62
     0
370
    -2
100
AcDbLine
 10
19.92040499999999
 20
11.305717
 30
0.0
 11
19.92040499999999
 21
12.025717
 31
0.0
  0
LINE
  5
C01
330
BFD
100
AcDbEntity
  8
DIM
 62
     0
370
    -2
100
AcDbLine
 10
19.92040499999999
 20
9.006716999999996
 30
0.0
 11
19.92040499999999
 21
8.286716999999997
 31
0.0
  0
MTEXT
  5
C02
330
BFD
100
AcDbEntity
  8
DIM
 62
     0
100
AcDbMText
 10
21.47240499999998
 20
10.156217
 30
0.0
 40
0.5
 41
0.0
 71
     5
 72
     1
  1
\A1;0.859
  7
TXT
 73
     1
 44
1.0
  0
SOLID
  5
C03
330
BFD
100
AcDbEntity
  8
DIM
 62
     0
100
AcDbTrace
 10
19.80040499999999
 20
11.305717
 30
0.0
 11
20.04040499999999
 21
11.30571699999999
 31
0.0
 12
19.92040499999999
 22
10.585717
 32
0.0
 13
19.92040499999999
 23
10.585717
 33
0.0
  0
SOLID
  5
C04
330
BFD
100
AcDbEntity
  8
DIM
 62
     0
100
AcDbTrace
 10
19.80040499999999
 20
9.006716999999996
 30
0.0
 11
20.04040499999999
 21
9.006716999999994
 31
0.0
 12
19.92040499999999
 22
9.726716999999997
 32
0.0
 13
19.92040499999999
 23
9.726716999999997
 33
0.0
  0
POINT
  5
C05
330
BFD
100
AcDbEntity
  8
DEFPOINTS
 62
     0
100
AcDbPoint
 10
17.99940499999999
 20
10.585717
 30
0.0
  0
POINT
  5
C06
330
BFD
100
AcDbEntity
  8
DEFPOINTS
 62
     0
100
AcDbPoint
 10
18.186405
 20
9.726716999999997
 30
0.0
  0
POINT
  5
C07
330
BFD
100
AcDbEntity
  8
DEFPOINTS
 62
     0
100
AcDbPoint
 10
19.92040499999999
 20
9.726716999999997
 30
0.0
  0
ENDBLK
  5
C09
330
BFD
100
AcDbEntity
  8
0
100
AcDbBlockEnd
  0
BLOCK
  5
C16
330
C0B
100
AcDbEntity
  8
0
100
AcDbBlockBegin
  2
*D98
 70
     1
 10
0.0
 20
0.0
 30
0.0
  3
*D98
  1

  0
LINE
  5
C0C
330
C0B
100
AcDbEntity
  8
DIM
 62
     0
370
    -2
100
AcDbLine
 10
53.178991
 20
10.585717
 30
0.0
 11
55.251991
 21
10.585717
 31
0.0
  0
LINE
  5
C0D
330
C0B
100
AcDbEntity
  8
DIM
 62
     0
370
    -2
100
AcDbLine
 10
53.397991
 20
9.132716999999999
 30
0.0
 11
55.251991
 21
9.132716999999999
 31
0.0
  0
LINE
  5
C0E
330
C0B
100
AcDbEntity
  8
DIM
 62
     0
370
    -2
100
AcDbLine
 10
54.87999099999999
 20
11.305717
 30
0.0
 11
54.87999099999999
 21
12.025717
 31
0.0
  0
LINE
  5
C0F
330
C0B
100
AcDbEntity
  8
DIM
 62
     0
370
    -2
100
AcDbLine
 10
54.87999099999999
 20
8.412716999999998
 30
0.0
 11
54.87999099999999
 21
7.692717
 31
0.0
  0
SOLID
  5
C10
330
C0B
100
AcDbEntity
  8
DIM
 62
     0
100
AcDbTrace
 10
54.759991
 20
11.305717
 30
0.0
 11
54.999991
 21
11.305717
 31
0.0
 12
54.87999099999999
 22
10.585717
 32
0.0
 13
54.87999099999999
 23
10.585717
 33
0.0
  0
SOLID
  5
C11
330
C0B
100
AcDbEntity
  8
DIM
 62
     0
100
AcDbTrace
 10
54.759991
 20
8.412716999999998
 30
0.0
 11
54.999991
 21
8.412716999999998
 31
0.0
 12
54.87999099999999
 22
9.132716999999999
 32
0.0
 13
54.87999099999999
 23
9.132716999999999
 33
0.0
  0
MTEXT
  5
C12
330
C0B
100
AcDbEntity
  8
DIM
 62
     0
100
AcDbMText
 10
54.87999099999999
 20
9.859217000000008
 30
0.0
 40
0.5
 41
0.0
 71
     5
 72
     1
  1
\A1;1.453
  7
TXT
 73
     1
 44
1.0
  0
POINT
  5
C13
330
C0B
100
AcDbEntity
  8
DEFPOINTS
 62
     0
100
AcDbPoint
 10
52.926991
 20
10.585717
 30
0.0
  0
POINT
  5
C14
330
C0B
100
AcDbEntity
  8
DEFPOINTS
 62
     0
100
AcDbPoint
 10
53.145991
 20
9.132716999999999
 30
0.0
  0
POINT
  5
C15
330
C0B
100
AcDbEntity
  8
DEFPOINTS
 62
     0
100
AcDbPoint
 10
54.87999099999999
 20
9.132716999999999
 30
0.0
  0
ENDBLK
  5
C17
330
C0B
100
AcDbEntity
  8
0
100
AcDbBlockEnd
  0
ENDSEC
  0
SECTION
  2
ENTITIES
  0
LINE
  5
9C2
330
645
100
AcDbEntity
  8
OBJECT
100
AcDbLine
 10
5.655405
 20
28.811884
 30
0.0
 11
18.905405
 21
28.811884
 31
0.0
  0
LINE
  5
9C3
330
645
100
AcDbEntity
  8
OBJECT
100
AcDbLine
 10
18.874405
 20
21.311884
 30
0.0
 11
5.686404999999999
 21
21.311884
 31
0.0
  0
LINE
  5
9C4
330
645
100
AcDbEntity
  8
OBJECT
100
AcDbLine
 10
5.655405
 20
21.358884
 30
0.0
 11
5.655405
 21
28.811884
 31
0.0
  0
LINE
  5
9C5
330
645
100
AcDbEntity
  8
OBJECT
100
AcDbLine
 10
6.756904999999999
 20
27.717884
 30
0.0
 11
17.803905
 21
27.717884
 31
0.0
  0
LINE
  5
9C6
330
645
100
AcDbEntity
  8
OBJECT
100
AcDbLine
 10
6.749405
 20
22.44338399999999
 30
0.0
 11
6.749405
 21
27.710384
 31
0.0
  0
LINE
  5
9C7
330
645
100
AcDbEntity
  8
OBJECT
100
AcDbLine
 10
17.830405
 20
22.405884
 30
0.0
 11
6.730405
 21
22.405884
 31
0.0
  0
LINE
  5
9C8
330
645
100
AcDbEntity
  8
OBJECT
100
AcDbLine
 10
18.20540499999999
 20
22.03088399999999
 30
0.0
 11
6.355405
 21
22.03088399999999
 31
0.0
  0
LINE
  5
9C9
330
645
100
AcDbEntity
  8
OBJECT
100
AcDbLine
 10
6.374405
 20
22.068384
 30
0.0
 11
6.374405
 21
28.085384
 31
0.0
  0
LINE
  5
9CA
330
645
100
AcDbEntity
  8
OBJECT
100
AcDbLine
 10
6.381904999999999
 20
28.092884
 30
0.0
 11
18.178905
 21
28.092884
 31
0.0
  0
LINE
  5
9CB
330
645
100
AcDbEntity
  8
OBJECT
100
AcDbLine
 10
34.03674799999999
 20
28.76488399999999
 30
0.0
 11
34.03674799999999
 21
21.358884
 31
0.0
  0
LINE
  5
9CC
330
645
100
AcDbEntity
  8
OBJECT
100
AcDbLine
 10
25.036748
 20
21.374884
 30
0.0
 11
25.036748
 21
28.748884
 31
0.0
  0
LINE
  5
9CD
330
645
100
AcDbEntity
  8
OBJECT
100
AcDbLine
 10
40.05199099999999
 20
21.311884
 30
0.0
 11
53.239991
 21
21.311884
 31
0.0
  0
LINE
  5
9CE
330
645
100
AcDbEntity
  8
OBJECT
100
AcDbLine
 10
40.02099099999998
 20
28.811884
 30
0.0
 11
40.02099099999998
 21
21.358884
 31
0.0
  0
LINE
  5
9CF
330
645
100
AcDbEntity
  8
OBJECT
100
AcDbLine
 10
53.270991
 20
28.811884
 30
0.0
 11
40.02099099999998
 21
28.811884
 31
0.0
  0
LINE
  5
9D0
330
645
100
AcDbEntity
  8
OBJECT
100
AcDbLine
 10
40.11499099999999
 20
28.678884
 30
0.0
 11
40.11499099999999
 21
21.48388399999999
 31
0.0
  0
LINE
  5
9D1
330
645
100
AcDbEntity
  8
OBJECT
100
AcDbLine
 10
53.137991
 20
28.717884
 30
0.0
 11
40.15399099999998
 21
28.717884
 31
0.0
  0
LINE
  5
9D2
330
645
100
AcDbEntity
  8
OBJECT
100
AcDbLine
 10
40.067991
 20
21.40588399999999
 30
0.0
 11
53.22399100000001
 21
21.40588399999999
 31
0.0
  0
LINE
  5
9D3
330
645
100
AcDbEntity
  8
OBJECT
100
AcDbLine
 10
6.756904999999999
 20
27.717884
 30
0.0
 11
5.662905
 21
28.811884
 31
0.0
  0
LINE
  5
9D4
330
645
100
AcDbEntity
  8
OBJECT
100
AcDbLine
 10
6.749405
 20
27.710384
 30
0.0
 11
5.655405
 21
28.804384
 31
0.0
  0
LINE
  5
9D5
330
645
100
AcDbEntity
  8
OBJECT
100
AcDbLine
 10
6.749405
 20
22.44338399999999
 30
0.0
 11
5.664905
 21
21.358884
 31
0.0
  0
CIRCLE
  5
9D6
330
645
100
AcDbEntity
  8
OBJECT
100
AcDbCircle
 10
6.561404999999999
 20
27.264884
 30
0.0
 40
0.0545
  0
CIRCLE
  5
9D7
330
645
100
AcDbEntity
  8
OBJECT
100
AcDbCircle
 10
6.561404999999999
 20
22.889884
 30
0.0
 40
0.0545
  0
LINE
  5
9D8
330
645
100
AcDbEntity
  8
OBJECT
100
AcDbLine
 10
6.730405
 20
22.405884
 30
0.0
 11
5.683404999999999
 21
21.358884
 31
0.0
  0
LINE
  5
9D9
330
645
100
AcDbEntity
  8
HIDDEN
100
AcDbLine
 10
18.905405
 20
21.358884
 30
0.0
 11
5.655405
 21
21.358884
 31
0.0
  0
LINE
  5
9DA
330
645
100
AcDbEntity
  8
HIDDEN
100
AcDbLine
 10
5.702404999999999
 20
21.40588399999999
 30
0.0
 11
5.702404999999999
 21
28.76488399999999
 31
0.0
  0
LINE
  5
9DB
330
645
100
AcDbEntity
  8
HIDDEN
100
AcDbLine
 10
6.155405
 20
21.40588399999999
 30
0.0
 11
5.702404999999999
 21
21.40588399999999
 31
0.0
  0
LINE
  5
9DC
330
645
100
AcDbEntity
  8
HIDDEN
100
AcDbLine
 10
6.155405
 20
21.358884
 30
0.0
 11
6.155405
 21
21.40588399999999
 31
0.0
  0
LINE
  5
9DD
330
645
100
AcDbEntity
  8
HIDDEN
100
AcDbLine
 10
5.702404999999999
 20
28.76488399999999
 30
0.0
 11
18.85840499999999
 21
28.76488399999999
 31
0.0
  0
LINE
  5
9DE
330
645
100
AcDbEntity
  8
HIDDEN
100
AcDbLine
 10
18.40540499999999
 20
21.358884
 30
0.0
 11
18.40540499999999
 21
21.40588399999999
 31
0.0
  0
LINE
  5
9DF
330
645
100
AcDbEntity
  8
HIDDEN
100
AcDbLine
 10
18.40540499999999
 20
21.40588399999999
 30
0.0
 11
18.85840499999999
 21
21.40588399999999
 31
0.0
  0
LINE
  5
9E0
330
645
100
AcDbEntity
  8
HIDDEN
100
AcDbLine
 10
18.85840499999999
 20
21.40588399999999
 30
0.0
 11
18.85840499999999
 21
28.76488399999999
 31
0.0
  0
LINE
  5
9E1
330
645
100
AcDbEntity
  8
OBJECT
100
AcDbLine
 10
17.830405
 20
22.405884
 30
0.0
 11
18.87740499999998
 21
21.358884
 31
0.0
  0
CIRCLE
  5
9E2
330
645
100
AcDbEntity
  8
OBJECT
100
AcDbCircle
 10
17.99940499999999
 20
22.889884
 30
0.0
 40
0.0545
  0
CIRCLE
  5
9E3
330
645
100
AcDbEntity
  8
OBJECT
100
AcDbCircle
 10
17.99940499999999
 20
27.264884
 30
0.0
 40
0.0545
  0
LINE
  5
9E4
330
645
100
AcDbEntity
  8
OBJECT
100
AcDbLine
 10
17.811405
 20
22.44338399999999
 30
0.0
 11
18.89590499999998
 21
21.358884
 31
0.0
  0
LINE
  5
9E5
330
645
100
AcDbEntity
  8
OBJECT
100
AcDbLine
 10
17.811405
 20
27.710384
 30
0.0
 11
18.905405
 21
28.804384
 31
0.0
  0
LINE
  5
9E6
330
645
100
AcDbEntity
  8
OBJECT
100
AcDbLine
 10
17.803905
 20
27.717884
 30
0.0
 11
18.89790499999999
 21
28.811884
 31
0.0
  0
LINE
  5
9E7
330
645
100
AcDbEntity
  8
OBJECT
100
AcDbLine
 10
18.186405
 20
22.068384
 30
0.0
 11
18.186405
 21
28.085384
 31
0.0
  0
LINE
  5
9E8
330
645
100
AcDbEntity
  8
OBJECT
100
AcDbLine
 10
17.811405
 20
22.44338399999999
 30
0.0
 11
17.811405
 21
27.710384
 31
0.0
  0
LINE
  5
9E9
330
645
100
AcDbEntity
  8
OBJECT
100
AcDbLine
 10
18.905405
 20
21.358884
 30
0.0
 11
18.905405
 21
28.811884
 31
0.0
  0
LINE
  5
9EA
330
645
100
AcDbEntity
  8
OBJECT
100
AcDbLine
 10
18.874405
 20
21.358884
 30
0.0
 11
18.874405
 21
21.311884
 31
0.0
  0
LINE
  5
9EB
330
645
100
AcDbEntity
  8
OBJECT
100
AcDbLine
 10
5.686404999999999
 20
21.311884
 30
0.0
 11
5.686404999999999
 21
21.358884
 31
0.0
  0
LINE
  5
9EC
330
645
100
AcDbEntity
  8
OBJECT
100
AcDbLine
 10
52.637991
 20
28.217884
 30
0.0
 11
40.65399099999999
 21
28.217884
 31
0.0
  0
LINE
  5
9ED
330
645
100
AcDbEntity
  8
OBJECT
100
AcDbLine
 10
40.61499099999998
 20
28.178884
 30
0.0
 11
40.61499099999998
 21
21.983884
 31
0.0
  0
LINE
  5
9EE
330
645
100
AcDbEntity
  8
OBJECT
100
AcDbLine
 10
40.65399099999999
 20
28.217884
 30
0.0
 11
40.05999099999999
 21
28.811884
 31
0.0
  0
LINE
  5
9EF
330
645
100
AcDbEntity
  8
OBJECT
100
AcDbLine
 10
40.61499099999998
 20
28.178884
 30
0.0
 11
40.02099099999998
 21
28.772884
 31
0.0
  0
LINE
  5
9F0
330
645
100
AcDbEntity
  8
OBJECT
100
AcDbLine
 10
40.61499099999998
 20
21.983884
 30
0.0
 11
40.02099099999998
 21
21.389884
 31
0.0
  0
LINE
  5
9F1
330
645
100
AcDbEntity
  8
HIDDEN
100
AcDbLine
 10
40.067991
 20
28.76488399999999
 30
0.0
 11
40.067991
 21
21.40588399999999
 31
0.0
  0
LINE
  5
9F2
330
645
100
AcDbEntity
  8
HIDDEN
100
AcDbLine
 10
53.22399100000001
 20
28.76488399999999
 30
0.0
 11
40.067991
 21
28.76488399999999
 31
0.0
  0
CIRCLE
  5
9F3
330
645
100
AcDbEntity
  8
OBJECT
100
AcDbCircle
 10
40.36499099999999
 20
27.264884
 30
0.0
 40
0.0545
  0
CIRCLE
  5
9F4
330
645
100
AcDbEntity
  8
OBJECT
100
AcDbCircle
 10
40.36499099999999
 20
22.889884
 30
0.0
 40
0.0545
  0
CIRCLE
  5
9F5
330
645
100
AcDbEntity
  8
OBJECT
100
AcDbCircle
 10
52.926991
 20
22.889884
 30
0.0
 40
0.0545
  0
CIRCLE
  5
9F6
330
645
100
AcDbEntity
  8
OBJECT
100
AcDbCircle
 10
52.926991
 20
27.264884
 30
0.0
 40
0.0545
  0
LINE
  5
9F7
330
645
100
AcDbEntity
  8
HIDDEN
100
AcDbLine
 10
53.22399100000001
 20
28.76488399999999
 30
0.0
 11
53.22399100000001
 21
21.40588399999999
 31
0.0
  0
LINE
  5
9F8
330
645
100
AcDbEntity
  8
OBJECT
100
AcDbLine
 10
52.676991
 20
28.178884
 30
0.0
 11
53.270991
 21
28.772884
 31
0.0
  0
LINE
  5
9F9
330
645
100
AcDbEntity
  8
OBJECT
100
AcDbLine
 10
52.637991
 20
28.217884
 30
0.0
 11
53.231991
 21
28.811884
 31
0.0
  0
LINE
  5
9FA
330
645
100
AcDbEntity
  8
OBJECT
100
AcDbLine
 10
52.676991
 20
28.178884
 30
0.0
 11
52.676991
 21
21.983884
 31
0.0
  0
LINE
  5
9FB
330
645
100
AcDbEntity
  8
OBJECT
100
AcDbLine
 10
53.176991
 20
28.678884
 30
0.0
 11
53.176991
 21
21.48388399999999
 31
0.0
  0
LINE
  5
9FC
330
645
100
AcDbEntity
  8
OBJECT
100
AcDbLine
 10
53.270991
 20
28.811884
 30
0.0
 11
53.270991
 21
21.358884
 31
0.0
  0
LINE
  5
9FD
330
645
100
AcDbEntity
  8
OBJECT
100
AcDbLine
 10
40.05199099999999
 20
21.358884
 30
0.0
 11
40.05199099999999
 21
21.311884
 31
0.0
  0
LINE
  5
9FE
330
645
100
AcDbEntity
  8
OBJECT
100
AcDbLine
 10
40.64599099999998
 20
21.905884
 30
0.0
 11
52.645991
 21
21.905884
 31
0.0
  0
LINE
  5
9FF
330
645
100
AcDbEntity
  8
OBJECT
100
AcDbLine
 10
40.64599099999998
 20
21.905884
 30
0.0
 11
40.05199099999999
 21
21.311884
 31
0.0
  0
LINE
  5
A00
330
645
100
AcDbEntity
  8
HIDDEN
100
AcDbLine
 10
40.52099099999998
 20
21.40588399999999
 30
0.0
 11
40.52099099999998
 21
21.358884
 31
0.0
  0
LINE
  5
A01
330
645
100
AcDbEntity
  8
HIDDEN
100
AcDbLine
 10
40.02099099999998
 20
21.358884
 30
0.0
 11
53.270991
 21
21.358884
 31
0.0
  0
LINE
  5
A02
330
645
100
AcDbEntity
  8
HIDDEN
100
AcDbLine
 10
52.770991
 20
21.40588399999999
 30
0.0
 11
52.770991
 21
21.358884
 31
0.0
  0
LINE
  5
A03
330
645
100
AcDbEntity
  8
OBJECT
100
AcDbLine
 10
52.645991
 20
21.905884
 30
0.0
 11
53.239991
 21
21.311884
 31
0.0
  0
LINE
  5
A04
330
645
100
AcDbEntity
  8
OBJECT
100
AcDbLine
 10
53.239991
 20
21.358884
 30
0.0
 11
53.239991
 21
21.311884
 31
0.0
  0
LINE
  5
A05
330
645
100
AcDbEntity
  8
OBJECT
100
AcDbLine
 10
52.676991
 20
21.983884
 30
0.0
 11
53.270991
 21
21.389884
 31
0.0
  0
ARC
  5
A06
330
645
100
AcDbEntity
  8
OBJECT
100
AcDbCircle
 10
25.099748
 20
28.748884
 30
0.0
 40
0.063
100
AcDbArc
 50
90.0
 51
237.775756
  0
LINE
  5
A07
330
645
100
AcDbEntity
  8
OBJECT
100
AcDbLine
 10
26.067748
 20
28.119817
 30
0.0
 11
25.091216
 21
28.735349
 31
0.0
  0
LINE
  5
A08
330
645
100
AcDbEntity
  8
OBJECT
100
AcDbLine
 10
26.020748
 20
28.09388399999999
 30
0.0
 11
25.066154
 21
28.695588
 31
0.0
  0
ARC
  5
A09
330
645
100
AcDbEntity
  8
OBJECT
100
AcDbCircle
 10
25.099748
 20
28.748884
 30
0.0
 40
0.016
100
AcDbArc
 50
90.0
 51
237.775756
  0
LINE
  5
A0A
330
645
100
AcDbEntity
  8
OBJECT
100
AcDbLine
 10
26.020748
 20
28.09388399999999
 30
0.0
 11
26.020748
 21
26.718884
 31
0.0
  0
LINE
  5
A0B
330
645
100
AcDbEntity
  8
OBJECT
100
AcDbLine
 10
26.067748
 20
26.718884
 30
0.0
 11
26.020748
 21
26.718884
 31
0.0
  0
LINE
  5
A0C
330
645
100
AcDbEntity
  8
OBJECT
100
AcDbLine
 10
26.067748
 20
28.119817
 30
0.0
 11
26.067748
 21
26.718884
 31
0.0
  0
ARC
  5
A0D
330
645
100
AcDbEntity
  8
OBJECT
100
AcDbCircle
 10
33.98974799999999
 20
28.76488399999999
 30
0.0
 40
0.047
100
AcDbArc
 50
270.0
 51
90.0
  0
LINE
  5
A0E
330
645
100
AcDbEntity
  8
OBJECT
100
AcDbLine
 10
33.78674799999998
 20
28.217884
 30
0.0
 11
33.739748
 21
28.217884
 31
0.0
  0
LINE
  5
A0F
330
645
100
AcDbEntity
  8
OBJECT
100
AcDbLine
 10
33.739748
 20
28.217884
 30
0.0
 11
33.739748
 21
28.76488399999999
 31
0.0
  0
LINE
  5
A10
330
645
100
AcDbEntity
  8
OBJECT
100
AcDbLine
 10
33.98974799999999
 20
28.76488399999999
 30
0.0
 11
25.099748
 21
28.76488399999999
 31
0.0
  0
LINE
  5
A11
330
645
100
AcDbEntity
  8
OBJECT
100
AcDbLine
 10
33.98974799999999
 20
28.811884
 30
0.0
 11
25.099748
 21
28.811884
 31
0.0
  0
LINE
  5
A12
330
645
100
AcDbEntity
  8
OBJECT
100
AcDbLine
 10
33.78674799999998
 20
28.717884
 30
0.0
 11
33.98974799999999
 21
28.717884
 31
0.0
  0
LINE
  5
A13
330
645
100
AcDbEntity
  8
OBJECT
100
AcDbLine
 10
33.78674799999998
 20
28.217884
 30
0.0
 11
33.78674799999998
 21
28.717884
 31
0.0
  0
LINE
  5
A14
330
645
100
AcDbEntity
  8
OBJECT
100
AcDbLine
 10
33.78674799999998
 20
21.905884
 30
0.0
 11
33.78674799999998
 21
21.40588399999999
 31
0.0
  0
LINE
  5
A15
330
645
100
AcDbEntity
  8
OBJECT
100
AcDbLine
 10
33.78674799999998
 20
21.40588399999999
 30
0.0
 11
33.98974799999999
 21
21.40588399999999
 31
0.0
  0
LINE
  5
A16
330
645
100
AcDbEntity
  8
OBJECT
100
AcDbLine
 10
33.98974799999999
 20
21.311884
 30
0.0
 11
25.099748
 21
21.311884
 31
0.0
  0
LINE
  5
A17
330
645
100
AcDbEntity
  8
OBJECT
100
AcDbLine
 10
33.98974799999999
 20
21.358884
 30
0.0
 11
25.099748
 21
21.358884
 31
0.0
  0
LINE
  5
A18
330
645
100
AcDbEntity
  8
OBJECT
100
AcDbLine
 10
33.739748
 20
21.905884
 30
0.0
 11
33.739748
 21
21.358884
 31
0.0
  0
LINE
  5
A19
330
645
100
AcDbEntity
  8
OBJECT
100
AcDbLine
 10
33.78674799999998
 20
21.905884
 30
0.0
 11
33.739748
 21
21.905884
 31
0.0
  0
ARC
  5
A1A
330
645
100
AcDbEntity
  8
OBJECT
100
AcDbCircle
 10
33.98974799999999
 20
21.358884
 30
0.0
 40
0.047
100
AcDbArc
 50
270.0
 51
90.0
  0
LINE
  5
A1B
330
645
100
AcDbEntity
  8
OBJECT
100
AcDbLine
 10
26.067748
 20
22.00395199999999
 30
0.0
 11
26.067748
 21
22.40488399999999
 31
0.0
  0
LINE
  5
A1C
330
645
100
AcDbEntity
  8
OBJECT
100
AcDbLine
 10
26.067748
 20
22.40488399999999
 30
0.0
 11
26.020748
 21
22.40488399999999
 31
0.0
  0
LINE
  5
A1D
330
645
100
AcDbEntity
  8
OBJECT
100
AcDbLine
 10
26.020748
 20
22.029884
 30
0.0
 11
26.020748
 21
22.40488399999999
 31
0.0
  0
ARC
  5
A1E
330
645
100
AcDbEntity
  8
OBJECT
100
AcDbCircle
 10
25.099748
 20
21.374884
 30
0.0
 40
0.016
100
AcDbArc
 50
122.224244
 51
270.0
  0
LINE
  5
A1F
330
645
100
AcDbEntity
  8
OBJECT
100
AcDbLine
 10
26.020748
 20
22.029884
 30
0.0
 11
25.066154
 21
21.42817999999998
 31
0.0
  0
LINE
  5
A20
330
645
100
AcDbEntity
  8
OBJECT
100
AcDbLine
 10
26.067748
 20
22.00395199999999
 30
0.0
 11
25.091216
 21
21.38841999999999
 31
0.0
  0
ARC
  5
A21
330
645
100
AcDbEntity
  8
OBJECT
100
AcDbCircle
 10
25.099748
 20
21.374884
 30
0.0
 40
0.063
100
AcDbArc
 50
122.224244
 51
270.0
  0
LINE
  5
A22
330
645
100
AcDbEntity
  8
OBJECT
100
AcDbLine
 10
26.067748
 20
26.718884
 30
0.0
 11
26.067748
 21
22.40488399999999
 31
0.0
  0
LINE
  5
A23
330
645
100
AcDbEntity
  8
OBJECT
100
AcDbLine
 10
26.020748
 20
26.718884
 30
0.0
 11
26.020748
 21
22.40488399999999
 31
0.0
  0
LINE
  5
A24
330
645
100
AcDbEntity
  8
OBJECT
100
AcDbLine
 10
33.78674799999998
 20
28.217884
 30
0.0
 11
33.78674799999998
 21
21.905884
 31
0.0
  0
LINE
  5
A25
330
645
100
AcDbEntity
  8
OBJECT
100
AcDbLine
 10
33.739748
 20
28.217884
 30
0.0
 11
33.739748
 21
21.905884
 31
0.0
  0
LINE
  5
A26
330
645
100
AcDbEntity
  8
OBJECT
100
AcDbLine
 10
6.374405
 20
9.726716999999997
 30
0.0
 11
18.186405
 21
9.726716999999997
 31
0.0
  0
LINE
  5
A27
330
645
100
AcDbEntity
  8
OBJECT
100
AcDbLine
 10
18.186405
 20
9.726716999999997
 30
0.0
 11
18.186405
 21
15.788717
 31
0.0
  0
LINE
  5
A28
330
645
100
AcDbEntity
  8
OBJECT
100
AcDbLine
 10
18.186405
 20
15.788717
 30
0.0
 11
6.374405
 21
15.788717
 31
0.0
  0
LINE
  5
A29
330
645
100
AcDbEntity
  8
OBJECT
100
AcDbLine
 10
6.374405
 20
15.788717
 30
0.0
 11
6.374405
 21
9.726716999999997
 31
0.0
  0
CIRCLE
  5
A2A
330
645
100
AcDbEntity
  8
OBJECT
100
AcDbCircle
 10
6.561404999999999
 20
14.960717
 30
0.0
 40
0.109
  0
CIRCLE
  5
A2B
330
645
100
AcDbEntity
  8
OBJECT
100
AcDbCircle
 10
6.561404999999999
 20
10.585717
 30
0.0
 40
0.109
  0
CIRCLE
  5
A2C
330
645
100
AcDbEntity
  8
OBJECT
100
AcDbCircle
 10
17.99940499999999
 20
10.585717
 30
0.0
 40
0.109
  0
CIRCLE
  5
A2D
330
645
100
AcDbEntity
  8
OBJECT
100
AcDbCircle
 10
17.99940499999999
 20
14.960717
 30
0.0
 40
0.109
  0
LINE
  5
A2E
330
645
100
AcDbEntity
  8
OBJECT
100
AcDbLine
 10
40.14599099999998
 20
9.132716999999999
 30
0.0
 11
53.145991
 21
9.132716999999999
 31
0.0
  0
LINE
  5
A2F
330
645
100
AcDbEntity
  8
OBJECT
100
AcDbLine
 10
53.145991
 20
9.132716999999999
 30
0.0
 11
53.145991
 21
16.38271699999998
 31
0.0
  0
LINE
  5
A30
330
645
100
AcDbEntity
  8
OBJECT
100
AcDbLine
 10
53.145991
 20
16.38271699999998
 30
0.0
 11
40.14599099999998
 21
16.38271699999998
 31
0.0
  0
LINE
  5
A31
330
645
100
AcDbEntity
  8
OBJECT
100
AcDbLine
 10
40.14599099999998
 20
16.38271699999998
 30
0.0
 11
40.14599099999998
 21
9.132716999999999
 31
0.0
  0
CIRCLE
  5
A32
330
645
100
AcDbEntity
  8
OBJECT
100
AcDbCircle
 10
40.36499099999999
 20
14.960717
 30
0.0
 40
0.109
  0
CIRCLE
  5
A33
330
645
100
AcDbEntity
  8
OBJECT
100
AcDbCircle
 10
40.36499099999999
 20
10.585717
 30
0.0
 40
0.109
  0
CIRCLE
  5
A34
330
645
100
AcDbEntity
  8
OBJECT
100
AcDbCircle
 10
52.926991
 20
10.585717
 30
0.0
 40
0.109
  0
CIRCLE
  5
A35
330
645
100
AcDbEntity
  8
OBJECT
100
AcDbCircle
 10
52.926991
 20
14.960717
 30
0.0
 40
0.109
  0
DIMENSION
  5
A36
330
645
100
AcDbEntity
  8
DIM
100
AcDbDimension
  2
*D67
 10
18.905405
 20
31.171253
 30
0.0
 11
12.280405
 21
31.171253
 31
0.0
 70
    32
  1
A
 71
     5
 42
13.24999999999999
  3
23NSTD
100
AcDbAlignedDimension
 13
5.655405
 23
28.811884
 33
0.0
 14
18.905405
 24
28.811884
 34
0.0
100
AcDbRotatedDimension
  0
DIMENSION
  5
A44
330
645
100
AcDbEntity
  8
DIM
100
AcDbDimension
  2
*D68
 10
21.639405
 20
21.311884
 30
0.0
 11
21.73947054200926
 21
21.67138399999999
 31
0.0
 70
   160
 71
     5
 42
0.7189999999999906
  3
23NSTD
100
AcDbAlignedDimension
 13
18.20540499999999
 23
22.03088399999999
 33
0.0
 14
18.874405
 24
21.311884
 34
0.0
 50
90.0
100
AcDbRotatedDimension
  0
DIMENSION
  5
A52
330
645
100
AcDbEntity
  8
DIM
100
AcDbDimension
  2
*D69
 10
21.639405
 20
28.092884
 30
0.0
 11
21.63940499999999
 21
25.061884
 31
0.0
 70
    32
  1
E
 71
     5
 42
6.062000000000011
  3
23NSTD
100
AcDbAlignedDimension
 13
18.20540499999999
 23
22.03088399999999
 33
0.0
 14
18.178905
 24
28.092884
 34
0.0
 50
90.0
100
AcDbRotatedDimension
  0
DIMENSION
  5
A60
330
645
100
AcDbEntity
  8
DIM
100
AcDbDimension
  2
*D70
 10
34.03674799999999
 20
31.171253
 30
0.0
 11
29.53674799999999
 21
31.171253
 31
0.0
 70
    32
  1
C
 71
     5
 42
8.999999999999989
  3
23NSTD
100
AcDbAlignedDimension
 13
25.036748
 23
28.748884
 33
0.0
 14
34.03674799999999
 24
28.76488399999999
 34
0.0
100
AcDbRotatedDimension
  0
DIMENSION
  5
A6E
330
645
100
AcDbEntity
  8
DIM
100
AcDbDimension
  2
*D71
 10
33.78674799999998
 20
24.524721
 30
0.0
 11
30.04519972541519
 21
24.43120379612166
 31
0.0
 70
   160
  1
<> RECESS
 71
     5
 42
0.25
  3
23NSTD
100
AcDbAlignedDimension
 13
34.03674799999999
 23
24.712862
 33
0.0
 14
33.78674799999998
 24
24.712862
 34
0.0
100
AcDbRotatedDimension
  0
DIMENSION
  5
A7C
330
645
100
AcDbEntity
  8
DIM
100
AcDbDimension
  2
*D72
 10
40.02099099999998
 20
31.171253
 30
0.0
 11
40.06799099999999
 21
32.223253
 31
0.0
 70
    32
 71
     5
 42
0.0940000000000012
  3
23NSTD
100
AcDbAlignedDimension
 13
40.11499099999999
 23
28.678884
 33
0.0
 14
40.02099099999998
 24
28.811884
 34
0.0
100
AcDbRotatedDimension
  0
DIMENSION
  5
A8A
330
645
100
AcDbEntity
  8
DIM
100
AcDbDimension
  2
*D73
 10
53.176991
 20
31.171253
 30
0.0
 11
46.64599099999999
 21
31.171253
 31
0.0
 70
    32
  1
F
 71
     5
 42
13.06200000000001
  3
23NSTD
100
AcDbAlignedDimension
 13
40.11499099999999
 23
28.678884
 33
0.0
 14
53.176991
 24
28.678884
 34
0.0
100
AcDbRotatedDimension
  0
DIMENSION
  5
A98
330
645
100
AcDbEntity
  8
DIM
100
AcDbDimension
  2
*D74
 10
8.770096999999999
 20
22.405884
 30
0.0
 11
9.171897619200308
 21
24.37826632309067
 31
0.0
 70
   160
  1
<> TYP.
 71
     5
 42
0.3750000000000107
  3
23NSTD
100
AcDbAlignedDimension
 13
8.943346999999999
 23
22.03088399999999
 33
0.0
 14
8.943346999999999
 24
22.405884
 34
0.0
 50
90.0
100
AcDbRotatedDimension
  0
DIMENSION
  5
AA6
330
645
100
AcDbEntity
  8
DIM
100
AcDbDimension
  2
*D75
 10
54.260991
 20
21.40588399999999
 30
0.0
 11
54.26099099999999
 21
25.061884
 31
0.0
 70
    32
  1
G
 71
     5
 42
7.312000000000011
  3
23NSTD
100
AcDbAlignedDimension
 13
53.137991
 23
28.717884
 33
0.0
 14
53.22399100000001
 24
21.40588399999999
 34
0.0
 50
90.0
100
AcDbRotatedDimension
  0
DIMENSION
  5
AB4
330
645
100
AcDbEntity
  8
DIM
100
AcDbDimension
  2
*D76
 10
54.260991
 20
21.311884
 30
0.0
 11
55.81299099999998
 21
21.358884
 31
0.0
 70
    32
 71
     5
 42
0.0939999999999906
  3
23NSTD
100
AcDbAlignedDimension
 13
53.22399100000001
 23
21.40588399999999
 33
0.0
 14
53.239991
 24
21.311884
 34
0.0
 50
90.0
100
AcDbRotatedDimension
  0
DIMENSION
  5
AC2
330
645
100
AcDbEntity
  8
DIM
100
AcDbDimension
  2
*D77
 10
5.012405
 20
9.726716999999997
 30
0.0
 11
5.012404999999999
 21
12.757717
 31
0.0
 70
    32
  1
J
 71
     5
 42
6.062000000000004
  3
23NSTD
100
AcDbAlignedDimension
 13
6.374405
 23
15.788717
 33
0.0
 14
6.374405
 24
9.726716999999997
 34
0.0
 50
90.0
100
AcDbRotatedDimension
  0
DIMENSION
  5
AD0
330
645
100
AcDbEntity
  8
DIM
100
AcDbDimension
  2
*D78
 10
18.186405
 20
16.778717
 30
0.0
 11
12.280405
 21
16.778717
 31
0.0
 70
    32
  1
H
 71
     5
 42
11.812
  3
23NSTD
100
AcDbAlignedDimension
 13
6.374405
 23
15.788717
 33
0.0
 14
18.186405
 24
15.788717
 34
0.0
100
AcDbRotatedDimension
  0
DIMENSION
  5
ADE
330
645
100
AcDbEntity
  8
DIM
100
AcDbDimension
  2
*D79
 10
38.783991
 20
9.132716999999999
 30
0.0
 11
38.783991
 21
12.757717
 31
0.0
 70
    32
  1
L
 71
     5
 42
7.249999999999991
  3
23NSTD
100
AcDbAlignedDimension
 13
40.14599099999998
 23
16.38271699999998
 33
0.0
 14
40.14599099999998
 24
9.132716999999999
 34
0.0
 50
90.0
100
AcDbRotatedDimension
  0
DIMENSION
  5
AEC
330
645
100
AcDbEntity
  8
DIM
100
AcDbDimension
  2
*D80
 10
53.145991
 20
17.372717
 30
0.0
 11
46.64599099999999
 21
17.372717
 31
0.0
 70
    32
  1
K
 71
     5
 42
13.00000000000001
  3
23NSTD
100
AcDbAlignedDimension
 13
40.14599099999998
 23
16.38271699999998
 33
0.0
 14
53.145991
 24
16.38271699999998
 34
0.0
100
AcDbRotatedDimension
  0
DIMENSION
  5
AFA
330
645
100
AcDbEntity
  8
DIM
100
AcDbDimension
  2
*D81
 10
54.87999099999999
 20
16.38271699999998
 30
0.0
 11
54.87999099999999
 21
15.671717
 31
0.0
 70
    32
 71
     5
 42
1.421999999999986
  3
23NSTD
100
AcDbAlignedDimension
 13
52.926991
 23
14.960717
 33
0.0
 14
53.145991
 24
16.38271699999998
 34
0.0
 50
90.0
100
AcDbRotatedDimension
  0
DIMENSION
  5
B08
330
645
100
AcDbEntity
  8
DIM
100
AcDbDimension
  2
*D82
 10
40.14599099999998
 20
8.142716999999997
 30
0.0
 11
40.25549099999999
 21
6.590716999999997
 31
0.0
 70
    32
 71
     5
 42
0.2190000000000012
  3
23NSTD
100
AcDbAlignedDimension
 13
40.36499099999999
 23
10.585717
 33
0.0
 14
40.14599099999998
 24
9.132716999999999
 34
0.0
100
AcDbRotatedDimension
  0
DIMENSION
  5
B16
330
645
100
AcDbEntity
  8
DIM
100
AcDbDimension
  2
*D83
 10
6.374405
 20
8.736717
 30
0.0
 11
4.006306039549315
 21
8.665363040893041
 31
0.0
 70
   160
 71
     5
 42
0.1869999999999994
  3
23NSTD
100
AcDbAlignedDimension
 13
6.561404999999999
 23
10.585717
 33
0.0
 14
6.374405
 24
9.726716999999997
 34
0.0
100
AcDbRotatedDimension
  0
DIMENSION
  5
B24
330
645
100
AcDbEntity
  8
DIM
100
AcDbDimension
  2
*D84
 10
19.92040499999999
 20
15.788717
 30
0.0
 11
21.47240499999998
 21
15.374717
 31
0.0
 70
    32
 71
     5
 42
0.8280000000000011
  3
23NSTD
100
AcDbAlignedDimension
 13
17.99940499999999
 23
14.960717
 33
0.0
 14
18.186405
 24
15.788717
 34
0.0
 50
90.0
100
AcDbRotatedDimension
  0
DIMENSION
  5
B32
330
645
100
AcDbEntity
  8
DIM
100
AcDbDimension
  2
*D85
 10
20.267405
 20
28.092884
 30
0.0
 11
20.21586142894582
 21
27.678884
 31
0.0
 70
   160
 71
     5
 42
0.8280000000000029
  3
23NSTD
100
AcDbAlignedDimension
 13
17.99940499999999
 23
27.264884
 33
0.0
 14
18.178905
 24
28.092884
 34
0.0
 50
90.0
100
AcDbRotatedDimension
  0
DIMENSION
  5
B40
330
645
100
AcDbEntity
  8
DIM
100
AcDbDimension
  2
*D86
 10
20.267405
 20
22.03088399999999
 30
0.0
 11
20.46979622349116
 21
22.46038399999999
 31
0.0
 70
   160
 71
     5
 42
0.8590000000000088
  3
23NSTD
100
AcDbAlignedDimension
 13
17.99940499999999
 23
22.889884
 33
0.0
 14
18.20540499999999
 24
22.03088399999999
 34
0.0
 50
90.0
100
AcDbRotatedDimension
  0
DIMENSION
  5
B4E
330
645
100
AcDbEntity
  8
DIM
100
AcDbDimension
  2
*D87
 10
38.546045
 20
28.717884
 30
0.0
 11
38.54604499999999
 21
27.991384
 31
0.0
 70
    32
 71
     5
 42
1.453000000000002
  3
23NSTD
100
AcDbAlignedDimension
 13
40.36499099999999
 23
27.264884
 33
0.0
 14
40.15399099999998
 24
28.717884
 34
0.0
 50
90.0
100
AcDbRotatedDimension
  0
DIMENSION
  5
B5C
330
645
100
AcDbEntity
  8
DIM
100
AcDbDimension
  2
*D88
 10
38.546045
 20
21.40588399999999
 30
0.0
 11
38.54604499999999
 21
22.147884
 31
0.0
 70
    32
 71
     5
 42
1.484000000000008
  3
23NSTD
100
AcDbAlignedDimension
 13
40.36499099999999
 23
22.889884
 33
0.0
 14
40.067991
 24
21.40588399999999
 34
0.0
 50
90.0
100
AcDbRotatedDimension
  0
DIMENSION
  5
B6A
330
645
100
AcDbEntity
  8
DIM
100
AcDbDimension
  2
*D89
 10
26.020748
 20
27.10443126216306
 30
0.0
 11
29.85035310015831
 21
27.148962
 31
0.0
 70
   160
  1
<> RECESS
 71
     5
 42
0.9840000000000017
  3
23NSTD
100
AcDbAlignedDimension
 13
25.036748
 23
25.85677699999999
 33
0.0
 14
26.020748
 24
25.85677699999999
 34
0.0
100
AcDbRotatedDimension
  0
TEXT
  5
B78
330
645
100
AcDbEntity
  8
TEXT
100
AcDbText
 10
10.39915499999999
 20
19.308726
 30
0.0
 40
0.5
  1
%%UFRONT VIEW
 41
0.75
 72
     1
 11
12.280405
 21
19.308726
 31
0.0
100
AcDbText
  0
TEXT
  5
B79
330
645
100
AcDbEntity
  8
TEXT
100
AcDbText
 10
9.092905
 20
18.499226
 30
0.0
 40
0.5
  1
(LESS FRONT PANEL)
 41
0.75
 72
     1
 11
12.280405
 21
18.499226
 31
0.0
100
AcDbText
  0
TEXT
  5
B7A
330
645
100
AcDbEntity
  8
TEXT
100
AcDbText
 10
43.64599099999998
 20
18.499226
 30
0.0
 40
0.5
  1
(LESS REAR PANEL)
 41
0.75
 72
     1
 11
46.64599099999999
 21
18.499226
 31
0.0
100
AcDbText
  0
TEXT
  5
B7B
330
645
100
AcDbEntity
  8
TEXT
100
AcDbText
 10
44.95224099999998
 20
19.308726
 30
0.0
 40
0.5
  1
%%UREAR VIEW
 41
0.75
 72
     1
 11
46.64599099999999
 21
19.308726
 31
0.0
100
AcDbText
  0
TEXT
  5
B7C
330
645
100
AcDbEntity
  8
TEXT
100
AcDbText
 10
27.430795
 20
19.308726
 30
0.0
 40
0.5
  1
%%USECTION "A-A"
 41
0.75
 72
     1
 11
29.624545
 21
19.308726
 31
0.0
100
AcDbText
  0
TEXT
  5
B7D
330
645
100
AcDbEntity
  8
TEXT
100
AcDbText
 10
10.24192999999999
 20
7.039140999999999
 30
0.0
 40
0.5
  1
%%UFRONT PANEL
 41
0.75
 72
     1
 11
12.24817999999999
 21
7.039140999999999
 31
0.0
100
AcDbText
  0
TEXT
  5
B7E
330
645
100
AcDbEntity
  8
TEXT
100
AcDbText
 10
44.784852
 20
7.039140999999999
 30
0.0
 40
0.5
  1
%%UREAR PANEL
 41
0.75
 72
     1
 11
46.603602
 21
7.039140999999999
 31
0.0
100
AcDbText
  0
DIMENSION
  5
B7F
330
645
100
AcDbEntity
  8
DIM
100
AcDbDimension
  2
*D90
 10
4.591164
 20
28.811884
 30
0.0
 11
4.591163999999995
 21
25.061884
 31
0.0
 70
    32
  1
B
 71
     5
 42
7.5
  3
23NSTD
100
AcDbAlignedDimension
 13
5.686404999999999
 23
21.311884
 33
0.0
 14
5.655405
 24
28.811884
 34
0.0
 50
90.0
100
AcDbRotatedDimension
  0
TEXT
  5
B8D
330
645
100
AcDbEntity
  8
TEXT
100
AcDbText
 10
1.350537
 20
37.36983499999999
 30
0.0
 40
0.5
  1
%%UMATERIAL:
 41
0.75
100
AcDbText
  0
TEXT
  5
B8E
330
645
100
AcDbEntity
  8
TEXT
100
AcDbText
 10
1.926553
 20
36.536501
 30
0.0
 40
0.5
  1
BOTTOM & BODY
 41
0.75
100
AcDbText
  0
TEXT
  5
B8F
330
645
100
AcDbEntity
  8
TEXT
100
AcDbText
 10
1.926553
 20
35.703168
 30
0.0
 40
0.5
  1
FRONT & REAR PANELS
 41
0.75
100
AcDbText
  0
TEXT
  5
B90
330
645
100
AcDbEntity
  8
TEXT
100
AcDbText
 10
1.350537
 20
34.046461
 30
0.0
 40
0.5
  1
%%UFINISH:
 41
0.75
100
AcDbText
  0
TEXT
  5
B91
330
645
100
AcDbEntity
  8
TEXT
100
AcDbText
 10
1.926553
 20
33.21312799999999
 30
0.0
 40
0.5
  1
METALLIC GRAY
 41
0.75
100
AcDbText
  0
TEXT
  5
B92
330
645
100
AcDbEntity
  8
TEXT
100
AcDbText
 10
10.87330499999999
 20
36.548431
 30
0.0
 40
0.5
  1
18 GA. STEEL
 41
0.75
 72
     2
 11
14.87330499999999
 21
36.548431
 31
0.0
100
AcDbText
  0
TEXT
  5
B93
330
645
100
AcDbEntity
  8
TEXT
100
AcDbText
 10
10.87330499999999
 20
35.71509799999999
 30
0.0
 40
0.5
  1
16 GA. STEEL
 41
0.75
 72
     2
 11
14.87330499999999
 21
35.71509799999999
 31
0.0
100
AcDbText
  0
LINE
  5
B94
330
645
100
AcDbEntity
  8
TEXT
100
AcDbLine
 10
6.962292999999998
 20
36.548431
 30
0.0
 11
10.72297
 21
36.548431
 31
0.0
  0
LINE
  5
B95
330
645
100
AcDbEntity
  8
TEXT
100
AcDbLine
 10
9.183351
 20
35.685662
 30
0.0
 11
10.680209
 21
35.685662
 31
0.0
  0
DIMENSION
  5
B96
330
645
100
AcDbEntity
  8
DIM
100
AcDbDimension
  2
*D91
 10
25.036748
 20
30.171253
 30
0.0
 11
22.65974341486602
 21
30.159931728371
 31
0.0
 70
   160
 71
     5
 42
1.031000000000002
  3
23NSTD
100
AcDbAlignedDimension
 13
26.067748
 23
28.119817
 33
0.0
 14
25.036748
 24
28.748884
 34
0.0
100
AcDbRotatedDimension
  0
DIMENSION
  5
BA4
330
645
100
AcDbEntity
  8
DIM
100
AcDbDimension
  2
*D92
 10
34.03674799999999
 20
30.171253
 30
0.0
 11
36.49291394665863
 21
30.159931728371
 31
0.0
 70
   160
 71
     5
 42
0.2969999999999899
  3
23NSTD
100
AcDbAlignedDimension
 13
33.739748
 23
28.76488399999999
 33
0.0
 14
34.03674799999999
 24
28.76488399999999
 34
0.0
100
AcDbRotatedDimension
  0
INSERT
  5
BB2
330
645
100
AcDbEntity
  8
TITLE
100
AcDbBlockReference
  2
HBS
 10
0.0
 20
0.0
 30
0.0
 41
4.0
 42
4.0
 43
4.0
  0
LINE
  5
BB3
330
645
100
AcDbEntity
  8
TITLE
100
AcDbLine
 10
61.752
 20
1.081333
 30
0.0
 11
0.248
 21
1.081333
 31
0.0
  0
LINE
  5
BB4
330
645
100
AcDbEntity
  8
TITLE
100
AcDbLine
 10
61.752
 20
1.914666999999998
 30
0.0
 11
0.248
 21
1.914666999999998
 31
0.0
  0
LINE
  5
BB5
330
645
100
AcDbEntity
  8
TITLE
100
AcDbLine
 10
61.752
 20
2.748
 30
0.0
 11
0.248
 21
2.748
 31
0.0
  0
LINE
  5
BB6
330
645
100
AcDbEntity
  8
TITLE
100
AcDbLine
 10
61.752
 20
3.581332999999999
 30
0.0
 11
0.248
 21
3.581332999999999
 31
0.0
  0
LINE
  5
BB7
330
645
100
AcDbEntity
  8
TITLE
100
AcDbLine
 10
57.008
 20
4.35775
 30
0.0
 11
19.168
 21
4.35775
 31
0.0
  0
LINE
  5
BB8
330
645
100
AcDbEntity
  8
TITLE
100
AcDbLine
 10
61.752
 20
5.191082999999999
 30
0.0
 11
4.977999999999998
 21
5.191082999999999
 31
0.0
  0
LINE
  5
BB9
330
645
100
AcDbEntity
  8
TITLE
100
AcDbLine
 10
61.752
 20
6.024416
 30
0.0
 11
0.248
 21
6.024416
 31
0.0
  0
LINE
  5
BBA
330
645
100
AcDbEntity
  8
TITLE
100
AcDbLine
 10
4.977999999999998
 20
6.024416
 30
0.0
 11
4.977999999999998
 21
0.248
 31
0.0
  0
LINE
  5
BBB
330
645
100
AcDbEntity
  8
TITLE
100
AcDbLine
 10
9.708
 20
5.191082999999999
 30
0.0
 11
9.708
 21
0.248
 31
0.0
  0
LINE
  5
BBC
330
645
100
AcDbEntity
  8
TITLE
100
AcDbLine
 10
14.43799999999999
 20
5.191082999999999
 30
0.0
 11
14.43799999999999
 21
0.248
 31
0.0
  0
LINE
  5
BBD
330
645
100
AcDbEntity
  8
TITLE
100
AcDbLine
 10
19.168
 20
6.024416
 30
0.0
 11
19.168
 21
0.248
 31
0.0
  0
LINE
  5
BBE
330
645
100
AcDbEntity
  8
TITLE
100
AcDbLine
 10
28.628
 20
5.191082999999999
 30
0.0
 11
28.628
 21
0.248
 31
0.0
  0
LINE
  5
BBF
330
645
100
AcDbEntity
  8
TITLE
100
AcDbLine
 10
38.088
 20
6.024416
 30
0.0
 11
38.088
 21
0.248
 31
0.0
  0
LINE
  5
BC0
330
645
100
AcDbEntity
  8
TITLE
100
AcDbLine
 10
42.81799999999999
 20
4.35775
 30
0.0
 11
42.81799999999999
 21
0.248
 31
0.0
  0
LINE
  5
BC1
330
645
100
AcDbEntity
  8
TITLE
100
AcDbLine
 10
47.548
 20
5.191082999999999
 30
0.0
 11
47.548
 21
0.248
 31
0.0
  0
LINE
  5
BC2
330
645
100
AcDbEntity
  8
TITLE
100
AcDbLine
 10
52.278
 20
4.35775
 30
0.0
 11
52.278
 21
0.248
 31
0.0
  0
LINE
  5
BC3
330
645
100
AcDbEntity
  8
TITLE
100
AcDbLine
 10
57.008
 20
6.024416
 30
0.0
 11
57.008
 21
0.248
 31
0.0
  0
DIMENSION
  5
BC4
330
645
100
AcDbEntity
  8
DIM
100
AcDbDimension
  2
*D93
 10
6.374405
 20
30.171253
 30
0.0
 11
12.280405
 21
30.171253
 31
0.0
 70
    32
  1
D
 71
     5
 42
11.812
  3
23NSTD
100
AcDbAlignedDimension
 13
18.186405
 23
28.085384
 33
0.0
 14
6.374405
 24
28.085384
 34
0.0
100
AcDbRotatedDimension
  0
DIMENSION
  5
BD2
330
645
100
AcDbEntity
  8
DIM
100
AcDbDimension
  2
*D94
 10
5.655405
 20
30.171253
 30
0.0
 11
3.174605425790446
 21
30.15241001455464
 31
0.0
 70
   160
 71
     5
 42
0.7190000000000003
  3
23NSTD
100
AcDbAlignedDimension
 13
6.374405
 23
28.085384
 33
0.0
 14
5.655405
 24
28.811884
 34
0.0
100
AcDbRotatedDimension
  0
DIMENSION
  5
BE0
330
645
100
AcDbEntity
  8
DIM
100
AcDbDimension
  2
*D95
 10
17.99940499999999
 20
8.736717
 30
0.0
 11
15.56313197685258
 21
8.709106559540472
 31
0.0
 70
   160
 71
     5
 42
0.1870000000000118
  3
23NSTD
100
AcDbAlignedDimension
 13
18.186405
 23
9.726716999999997
 33
0.0
 14
17.99940499999999
 24
10.585717
 34
0.0
100
AcDbRotatedDimension
  0
DIMENSION
  5
BEE
330
645
100
AcDbEntity
  8
DIM
100
AcDbDimension
  2
*D96
 10
52.926991
 20
8.142716999999997
 30
0.0
 11
53.036491
 21
6.590716999999997
 31
0.0
 70
    32
 71
     5
 42
0.2190000000000012
  3
23NSTD
100
AcDbAlignedDimension
 13
53.145991
 23
9.132716999999999
 33
0.0
 14
52.926991
 24
10.585717
 34
0.0
100
AcDbRotatedDimension
  0
DIMENSION
  5
BFC
330
645
100
AcDbEntity
  8
DIM
100
AcDbDimension
  2
*D97
 10
19.92040499999999
 20
9.726716999999997
 30
0.0
 11
21.47240499999998
 21
10.156217
 31
0.0
 70
    32
 71
     5
 42
0.8590000000000035
  3
23NSTD
100
AcDbAlignedDimension
 13
17.99940499999999
 23
10.585717
 33
0.0
 14
18.186405
 24
9.726716999999997
 34
0.0
 50
90.0
100
AcDbRotatedDimension
  0
DIMENSION
  5
C0A
330
645
100
AcDbEntity
  8
DIM
100
AcDbDimension
  2
*D98
 10
54.87999099999999
 20
9.132716999999999
 30
0.0
 11
54.87999099999999
 21
9.859217000000008
 31
0.0
 70
    32
 71
     5
 42
1.453000000000001
  3
23NSTD
100
AcDbAlignedDimension
 13
52.926991
 23
10.585717
 33
0.0
 14
53.145991
 24
9.132716999999999
 34
0.0
 50
90.0
100
AcDbRotatedDimension
  0
TEXT
  5
C18
330
645
100
AcDbEntity
  8
TEXT
100
AcDbText
 10
13.858875
 20
39.0835
 30
0.0
 40
0.625
  1
SHADOW CABINET
 41
0.75
  7
TXT
 72
     4
 11
17.062
 21
39.396
 31
0.0
100
AcDbText
  0
TEXT
  5
C19
330
645
100
AcDbEntity
  8
TEXT
100
AcDbText
 10
43.5239375
 20
39.0835
 30
0.0
 40
0.625
  1
SB-2140  TO  SB-2143
 41
0.75
  7
TXT
 72
     4
 11
47.938
 21
39.396
 31
0.0
100
AcDbText
  0
LWPOLYLINE
  5
C1A
330
645
100
AcDbEntity
  8
BEND
100
AcDbPolyline
 90
        6
 70
     0
 10
14.022456
 20
20.60634599999999
 40
0.0
 41
0.375
 10
14.772456
 20
20.60634599999999
 40
0.0625
 41
0.0625
 10
15.220573
 20
20.60634599999999
 40
0.0625
 41
0.0625
 10
15.220573
 20
29.51199499999999
 40
0.0625
 41
0.0625
 10
14.772456
 20
29.51199499999999
 40
0.375
 41
0.0
 10
14.022456
 20
29.51199499999999
 40
0.0
 41
0.0
  0
TEXT
  5
C22
330
645
100
AcDbEntity
  8
TEXT
100
AcDbText
 10
15.42481395238095
 20
29.19949499999999
 30
0.0
 40
0.625
  1
A
  7
SECTION
 72
     4
 11
15.722433
 21
29.51199499999999
 31
0.0
100
AcDbText
  0
TEXT
  5
C23
330
645
100
AcDbEntity
  8
TEXT
100
AcDbText
 10
15.42481395238095
 20
20.29384599999999
 30
0.0
 40
0.625
  1
A
  7
SECTION
 72
     4
 11
15.722433
 21
20.60634599999999
 31
0.0
100
AcDbText
  0
TEXT
  5
C24
330
645
100
AcDbEntity
  8
TEXT
100
AcDbText
 10
1.300499999999999
 20
4.524416
 30
0.0
 40
0.5
  1
PART No.
 41
0.75
  7
TXT
 72
     4
 11
2.612999999999999
 21
4.774416
 31
0.0
100
AcDbText
  0
TEXT
  5
C25
330
645
100
AcDbEntity
  8
TEXT
100
AcDbText
 10
1.456749999999999
 20
2.857749999999998
 30
0.0
 40
0.5
  1
SB-2140
 41
0.75
  7
TXT
 72
     4
 11
2.612999999999999
 21
3.107749999999998
 31
0.0
100
AcDbText
  0
TEXT
  5
C26
330
645
100
AcDbEntity
  8
TEXT
100
AcDbText
 10
1.487999999999999
 20
2.024415999999999
 30
0.0
 40
0.5
  1
SB-2141
 41
0.75
  7
TXT
 72
     4
 11
2.612999999999999
 21
2.274415999999999
 31
0.0
100
AcDbText
  0
TEXT
  5
C27
330
645
100
AcDbEntity
  8
TEXT
100
AcDbText
 10
1.425499999999999
 20
1.191082999999999
 30
0.0
 40
0.5
  1
SB-2142
 41
0.75
  7
TXT
 72
     4
 11
2.612999999999999
 21
1.441082999999999
 31
0.0
100
AcDbText
  0
TEXT
  5
C28
330
645
100
AcDbEntity
  8
TEXT
100
AcDbText
 10
1.425499999999999
 20
0.3577500000000002
 30
0.0
 40
0.5
  1
SB-2143
 41
0.75
  7
TXT
 72
     4
 11
2.612999999999999
 21
0.6077500000000002
 31
0.0
100
AcDbText
  0
TEXT
  5
C29
330
645
100
AcDbEntity
  8
TEXT
100
AcDbText
 10
7.217999999999998
 20
4.10775
 30
0.0
 40
0.5
  1
A
 41
0.75
  7
TXT
 72
     4
 11
7.342999999999998
 21
4.35775
 31
0.0
100
AcDbText
  0
TEXT
  5
C2A
330
645
100
AcDbEntity
  8
TEXT
100
AcDbText
 10
6.499249999999998
 20
2.857749999999998
 30
0.0
 40
0.5
  1
14.250
 41
0.75
  7
TXT
 72
     4
 11
7.342999999999998
 21
3.107749999999998
 31
0.0
100
AcDbText
  0
TEXT
  5
C2B
330
645
100
AcDbEntity
  8
TEXT
100
AcDbText
 10
6.499249999999998
 20
2.024415999999999
 30
0.0
 40
0.5
  1
13.250
 41
0.75
  7
TXT
 72
     4
 11
7.342999999999998
 21
2.274415999999999
 31
0.0
100
AcDbText
  0
TEXT
  5
C2C
330
645
100
AcDbEntity
  8
TEXT
100
AcDbText
 10
6.561749999999998
 20
1.191082999999999
 30
0.0
 40
0.5
  1
17.000
 41
0.75
  7
TXT
 72
     4
 11
7.342999999999998
 21
1.441082999999999
 31
0.0
100
AcDbText
  0
TEXT
  5
C2D
330
645
100
AcDbEntity
  8
TEXT
100
AcDbText
 10
6.530499999999998
 20
0.3577500000000002
 30
0.0
 40
0.5
  1
15.500
 41
0.75
  7
TXT
 72
     4
 11
7.342999999999998
 21
0.6077500000000002
 31
0.0
100
AcDbText
  0
TEXT
  5
C2E
330
645
100
AcDbEntity
  8
TEXT
100
AcDbText
 10
11.948
 20
4.10775
 30
0.0
 40
0.5
  1
B
 41
0.75
  7
TXT
 72
     4
 11
12.073
 21
4.35775
 31
0.0
100
AcDbText
  0
TEXT
  5
C2F
330
645
100
AcDbEntity
  8
TEXT
100
AcDbText
 10
11.41674999999999
 20
2.857749999999998
 30
0.0
 40
0.5
  1
8.000
 41
0.75
  7
TXT
 72
     4
 11
12.073
 21
3.107749999999998
 31
0.0
100
AcDbText
  0
TEXT
  5
C30
330
645
100
AcDbEntity
  8
TEXT
100
AcDbText
 10
11.3855
 20
2.024415999999999
 30
0.0
 40
0.5
  1
7.500
 41
0.75
  7
TXT
 72
     4
 11
12.073
 21
2.274415999999999
 31
0.0
100
AcDbText
  0
TEXT
  5
C31
330
645
100
AcDbEntity
  8
TEXT
100
AcDbText
 10
11.3855
 20
1.191082999999999
 30
0.0
 40
0.5
  1
9.500
 41
0.75
  7
TXT
 72
     4
 11
12.073
 21
1.441082999999999
 31
0.0
100
AcDbText
  0
TEXT
  5
C32
330
645
100
AcDbEntity
  8
TEXT
100
AcDbText
 10
11.41674999999999
 20
0.3577500000000001
 30
0.0
 40
0.5
  1
6.000
 41
0.75
  7
TXT
 72
     4
 11
12.073
 21
0.6077500000000002
 31
0.0
100
AcDbText
  0
TEXT
  5
C33
330
645
100
AcDbEntity
  8
TEXT
100
AcDbText
 10
16.678
 20
4.10775
 30
0.0
 40
0.5
  1
C
 41
0.75
  7
TXT
 72
     4
 11
16.803
 21
4.35775
 31
0.0
100
AcDbText
  0
TEXT
  5
C34
330
645
100
AcDbEntity
  8
TEXT
100
AcDbText
 10
16.053
 20
2.857749999999998
 30
0.0
 40
0.5
  1
10.000
 41
0.75
  7
TXT
 72
     4
 11
16.803
 21
3.107749999999998
 31
0.0
100
AcDbText
  0
TEXT
  5
C35
330
645
100
AcDbEntity
  8
TEXT
100
AcDbText
 10
16.14675
 20
2.024415999999999
 30
0.0
 40
0.5
  1
9.000
 41
0.75
  7
TXT
 72
     4
 11
16.803
 21
2.274415999999999
 31
0.0
100
AcDbText
  0
TEXT
  5
C36
330
645
100
AcDbEntity
  8
TEXT
100
AcDbText
 10
16.08425
 20
1.191082999999999
 30
0.0
 40
0.5
  1
11.000
 41
0.75
  7
TXT
 72
     4
 11
16.803
 21
1.441082999999999
 31
0.0
100
AcDbText
  0
TEXT
  5
C37
330
645
100
AcDbEntity
  8
TEXT
100
AcDbText
 10
16.14675
 20
0.3577500000000001
 30
0.0
 40
0.5
  1
9.000
 41
0.75
  7
TXT
 72
     4
 11
16.803
 21
0.6077500000000002
 31
0.0
100
AcDbText
  0
TEXT
  5
C38
330
645
100
AcDbEntity
  8
TEXT
100
AcDbText
 10
21.408
 20
3.691082999999999
 30
0.0
 40
0.5
  1
D
 41
0.75
  7
TXT
 72
     4
 11
21.533
 21
3.941082999999999
 31
0.0
100
AcDbText
  0
TEXT
  5
C39
330
645
100
AcDbEntity
  8
TEXT
100
AcDbText
 10
20.7205
 20
2.857749999999998
 30
0.0
 40
0.5
  1
12.812
 41
0.75
  7
TXT
 72
     4
 11
21.533
 21
3.107749999999998
 31
0.0
100
AcDbText
  0
TEXT
  5
C3A
330
645
100
AcDbEntity
  8
TEXT
100
AcDbText
 10
20.783
 20
2.024415999999999
 30
0.0
 40
0.5
  1
11.812
 41
0.75
  7
TXT
 72
     4
 11
21.533
 21
2.274415999999999
 31
0.0
100
AcDbText
  0
TEXT
  5
C3B
330
645
100
AcDbEntity
  8
TEXT
100
AcDbText
 10
20.658
 20
1.191082999999999
 30
0.0
 40
0.5
  1
15.562
 41
0.75
  7
TXT
 72
     4
 11
21.533
 21
1.441082999999999
 31
0.0
100
AcDbText
  0
TEXT
  5
C3C
330
645
100
AcDbEntity
  8
TEXT
100
AcDbText
 10
20.68925
 20
0.3577500000000002
 30
0.0
 40
0.5
  1
14.062
 41
0.75
  7
TXT
 72
     4
 11
21.533
 21
0.6077500000000002
 31
0.0
100
AcDbText
  0
TEXT
  5
C3D
330
645
100
AcDbEntity
  8
TEXT
100
AcDbText
 10
26.138
 20
3.691082999999999
 30
0.0
 40
0.5
  1
E
 41
0.75
  7
TXT
 72
     4
 11
26.263
 21
3.941082999999999
 31
0.0
100
AcDbText
  0
TEXT
  5
C3E
330
645
100
AcDbEntity
  8
TEXT
100
AcDbText
 10
25.513
 20
2.857749999999998
 30
0.0
 40
0.5
  1
6.562
 41
0.75
  7
TXT
 72
     4
 11
26.263
 21
3.107749999999998
 31
0.0
100
AcDbText
  0
TEXT
  5
C3F
330
645
100
AcDbEntity
  8
TEXT
100
AcDbText
 10
25.54425
 20
2.024415999999999
 30
0.0
 40
0.5
  1
6.062
 41
0.75
  7
TXT
 72
     4
 11
26.263
 21
2.274415999999999
 31
0.0
100
AcDbText
  0
TEXT
  5
C40
330
645
100
AcDbEntity
  8
TEXT
100
AcDbText
 10
25.54425
 20
1.191082999999999
 30
0.0
 40
0.5
  1
8.062
 41
0.75
  7
TXT
 72
     4
 11
26.263
 21
1.441082999999999
 31
0.0
100
AcDbText
  0
TEXT
  5
C41
330
645
100
AcDbEntity
  8
TEXT
100
AcDbText
 10
25.513
 20
0.3577500000000001
 30
0.0
 40
0.5
  1
4.562
 41
0.75
  7
TXT
 72
     4
 11
26.263
 21
0.6077500000000002
 31
0.0
100
AcDbText
  0
TEXT
  5
C42
330
645
100
AcDbEntity
  8
TEXT
100
AcDbText
 10
30.868
 20
3.691082999999999
 30
0.0
 40
0.5
  1
F
 41
0.75
  7
TXT
 72
     4
 11
30.99299999999999
 21
3.941082999999999
 31
0.0
100
AcDbText
  0
TEXT
  5
C43
330
645
100
AcDbEntity
  8
TEXT
100
AcDbText
 10
30.14924999999999
 20
2.857749999999998
 30
0.0
 40
0.5
  1
14.062
 41
0.75
  7
TXT
 72
     4
 11
30.99299999999999
 21
3.107749999999998
 31
0.0
100
AcDbText
  0
TEXT
  5
C44
330
645
100
AcDbEntity
  8
TEXT
100
AcDbText
 10
30.14924999999999
 20
2.024415999999999
 30
0.0
 40
0.5
  1
13.062
 41
0.75
  7
TXT
 72
     4
 11
30.99299999999999
 21
2.274415999999999
 31
0.0
100
AcDbText
  0
TEXT
  5
C45
330
645
100
AcDbEntity
  8
TEXT
100
AcDbText
 10
30.1805
 20
1.191082999999999
 30
0.0
 40
0.5
  1
16.812
 41
0.75
  7
TXT
 72
     4
 11
30.99299999999999
 21
1.441082999999999
 31
0.0
100
AcDbText
  0
TEXT
  5
C46
330
645
100
AcDbEntity
  8
TEXT
100
AcDbText
 10
30.1805
 20
0.3577500000000002
 30
0.0
 40
0.5
  1
15.312
 41
0.75
  7
TXT
 72
     4
 11
30.99299999999999
 21
0.6077500000000002
 31
0.0
100
AcDbText
  0
TEXT
  5
C47
330
645
100
AcDbEntity
  8
TEXT
100
AcDbText
 10
35.598
 20
3.691082999999999
 30
0.0
 40
0.5
  1
G
 41
0.75
  7
TXT
 72
     4
 11
35.723
 21
3.941082999999999
 31
0.0
100
AcDbText
  0
TEXT
  5
C48
330
645
100
AcDbEntity
  8
TEXT
100
AcDbText
 10
35.0355
 20
2.857749999999998
 30
0.0
 40
0.5
  1
7.812
 41
0.75
  7
TXT
 72
     4
 11
35.723
 21
3.107749999999998
 31
0.0
100
AcDbText
  0
TEXT
  5
C49
330
645
100
AcDbEntity
  8
TEXT
100
AcDbText
 10
35.0355
 20
2.024415999999999
 30
0.0
 40
0.5
  1
7.312
 41
0.75
  7
TXT
 72
     4
 11
35.723
 21
2.274415999999999
 31
0.0
100
AcDbText
  0
TEXT
  5
C4A
330
645
100
AcDbEntity
  8
TEXT
100
AcDbText
 10
35.0355
 20
1.191082999999999
 30
0.0
 40
0.5
  1
9.312
 41
0.75
  7
TXT
 72
     4
 11
35.723
 21
1.441082999999999
 31
0.0
100
AcDbText
  0
TEXT
  5
C4B
330
645
100
AcDbEntity
  8
TEXT
100
AcDbText
 10
35.0355
 20
0.3577500000000001
 30
0.0
 40
0.5
  1
5.812
 41
0.75
  7
TXT
 72
     4
 11
35.723
 21
0.6077500000000002
 31
0.0
100
AcDbText
  0
TEXT
  5
C4C
330
645
100
AcDbEntity
  8
TEXT
100
AcDbText
 10
40.328
 20
3.691082999999999
 30
0.0
 40
0.5
  1
H
 41
0.75
  7
TXT
 72
     4
 11
40.453
 21
3.941082999999999
 31
0.0
100
AcDbText
  0
TEXT
  5
C4D
330
645
100
AcDbEntity
  8
TEXT
100
AcDbText
 10
39.6405
 20
2.857749999999998
 30
0.0
 40
0.5
  1
12.812
 41
0.75
  7
TXT
 72
     4
 11
40.453
 21
3.107749999999998
 31
0.0
100
AcDbText
  0
TEXT
  5
C4E
330
645
100
AcDbEntity
  8
TEXT
100
AcDbText
 10
39.703
 20
2.024415999999999
 30
0.0
 40
0.5
  1
11.812
 41
0.75
  7
TXT
 72
     4
 11
40.453
 21
2.274415999999999
 31
0.0
100
AcDbText
  0
TEXT
  5
C4F
330
645
100
AcDbEntity
  8
TEXT
100
AcDbText
 10
39.578
 20
1.191082999999999
 30
0.0
 40
0.5
  1
15.562
 41
0.75
  7
TXT
 72
     4
 11
40.453
 21
1.441082999999999
 31
0.0
100
AcDbText
  0
TEXT
  5
C50
330
645
100
AcDbEntity
  8
TEXT
100
AcDbText
 10
39.60925
 20
0.3577500000000002
 30
0.0
 40
0.5
  1
14.062
 41
0.75
  7
TXT
 72
     4
 11
40.453
 21
0.6077500000000002
 31
0.0
100
AcDbText
  0
TEXT
  5
C51
330
645
100
AcDbEntity
  8
TEXT
100
AcDbText
 10
45.05799999999999
 20
3.691082999999999
 30
0.0
 40
0.5
  1
J
 41
0.75
  7
TXT
 72
     4
 11
45.18299999999999
 21
3.941082999999999
 31
0.0
100
AcDbText
  0
TEXT
  5
C52
330
645
100
AcDbEntity
  8
TEXT
100
AcDbText
 10
44.43299999999999
 20
2.857749999999998
 30
0.0
 40
0.5
  1
6.562
 41
0.75
  7
TXT
 72
     4
 11
45.18299999999999
 21
3.107749999999998
 31
0.0
100
AcDbText
  0
TEXT
  5
C53
330
645
100
AcDbEntity
  8
TEXT
100
AcDbText
 10
44.46424999999999
 20
2.024415999999999
 30
0.0
 40
0.5
  1
6.062
 41
0.75
  7
TXT
 72
     4
 11
45.18299999999999
 21
2.274415999999999
 31
0.0
100
AcDbText
  0
TEXT
  5
C54
330
645
100
AcDbEntity
  8
TEXT
100
AcDbText
 10
44.46424999999999
 20
1.191082999999999
 30
0.0
 40
0.5
  1
8.062
 41
0.75
  7
TXT
 72
     4
 11
45.18299999999999
 21
1.441082999999999
 31
0.0
100
AcDbText
  0
TEXT
  5
C55
330
645
100
AcDbEntity
  8
TEXT
100
AcDbText
 10
44.43299999999999
 20
0.3577500000000001
 30
0.0
 40
0.5
  1
4.562
 41
0.75
  7
TXT
 72
     4
 11
45.18299999999999
 21
0.6077500000000002
 31
0.0
100
AcDbText
  0
TEXT
  5
C56
330
645
100
AcDbEntity
  8
TEXT
100
AcDbText
 10
49.78799999999999
 20
3.691082999999999
 30
0.0
 40
0.5
  1
K
 41
0.75
  7
TXT
 72
     4
 11
49.91299999999999
 21
3.941082999999999
 31
0.0
100
AcDbText
  0
TEXT
  5
C57
330
645
100
AcDbEntity
  8
TEXT
100
AcDbText
 10
49.13174999999999
 20
2.857749999999998
 30
0.0
 40
0.5
  1
14.000
 41
0.75
  7
TXT
 72
     4
 11
49.91299999999999
 21
3.107749999999998
 31
0.0
100
AcDbText
  0
TEXT
  5
C58
330
645
100
AcDbEntity
  8
TEXT
100
AcDbText
 10
49.13174999999999
 20
2.024415999999999
 30
0.0
 40
0.5
  1
13.000
 41
0.75
  7
TXT
 72
     4
 11
49.91299999999999
 21
2.274415999999999
 31
0.0
100
AcDbText
  0
TEXT
  5
C59
330
645
100
AcDbEntity
  8
TEXT
100
AcDbText
 10
49.06925
 20
1.191082999999999
 30
0.0
 40
0.5
  1
16.750
 41
0.75
  7
TXT
 72
     4
 11
49.91299999999999
 21
1.441082999999999
 31
0.0
100
AcDbText
  0
TEXT
  5
C5A
330
645
100
AcDbEntity
  8
TEXT
100
AcDbText
 10
49.06925
 20
0.3577500000000002
 30
0.0
 40
0.5
  1
15.250
 41
0.75
  7
TXT
 72
     4
 11
49.91299999999999
 21
0.6077500000000002
 31
0.0
100
AcDbText
  0
TEXT
  5
C5B
330
645
100
AcDbEntity
  8
TEXT
100
AcDbText
 10
54.518
 20
3.691082999999999
 30
0.0
 40
0.5
  1
L
 41
0.75
  7
TXT
 72
     4
 11
54.643
 21
3.941082999999999
 31
0.0
100
AcDbText
  0
TEXT
  5
C5C
330
645
100
AcDbEntity
  8
TEXT
100
AcDbText
 10
53.92425
 20
2.857749999999998
 30
0.0
 40
0.5
  1
7.750
 41
0.75
  7
TXT
 72
     4
 11
54.643
 21
3.107749999999998
 31
0.0
100
AcDbText
  0
TEXT
  5
C5D
330
645
100
AcDbEntity
  8
TEXT
100
AcDbText
 10
53.92425
 20
2.024415999999999
 30
0.0
 40
0.5
  1
7.250
 41
0.75
  7
TXT
 72
     4
 11
54.643
 21
2.274415999999999
 31
0.0
100
AcDbText
  0
TEXT
  5
C5E
330
645
100
AcDbEntity
  8
TEXT
100
AcDbText
 10
53.92425
 20
1.191082999999999
 30
0.0
 40
0.5
  1
9.250
 41
0.75
  7
TXT
 72
     4
 11
54.643
 21
1.441082999999999
 31
0.0
100
AcDbText
  0
TEXT
  5
C5F
330
645
100
AcDbEntity
  8
TEXT
100
AcDbText
 10
53.92425
 20
0.3577500000000001
 30
0.0
 40
0.5
  1
5.750
 41
0.75
  7
TXT
 72
     4
 11
54.643
 21
0.6077500000000002
 31
0.0
100
AcDbText
  0
TEXT
  5
C60
330
645
100
AcDbEntity
  8
TEXT
100
AcDbText
 10
58.1925
 20
5.35775
 30
0.0
 40
0.5
  1
CHASSIS
 41
0.75
  7
TXT
 72
     4
 11
59.38
 21
5.60775
 31
0.0
100
AcDbText
  0
TEXT
  5
C61
330
645
100
AcDbEntity
  8
TEXT
100
AcDbText
 10
58.0675
 20
4.10775
 30
0.0
 40
0.5
  1
PART No.
 41
0.75
  7
TXT
 72
     4
 11
59.38
 21
4.35775
 31
0.0
100
AcDbText
  0
TEXT
  5
C62
330
645
100
AcDbEntity
  8
TEXT
100
AcDbText
 10
58.3175
 20
2.857749999999998
 30
0.0
 40
0.5
  1
AC-424
 41
0.75
  7
TXT
 72
     4
 11
59.38
 21
3.107749999999998
 31
0.0
100
AcDbText
  0
TEXT
  5
C63
330
645
100
AcDbEntity
  8
TEXT
100
AcDbText
 10
58.34875
 20
2.024415999999999
 30
0.0
 40
0.5
  1
AC-407
 41
0.75
  7
TXT
 72
     4
 11
59.38
 21
2.274415999999999
 31
0.0
100
AcDbText
  0
TEXT
  5
C64
330
645
100
AcDbEntity
  8
TEXT
100
AcDbText
 10
58.4425
 20
1.191082999999999
 30
0.0
 40
0.5
  1
AC-411
 41
0.75
  7
TXT
 72
     4
 11
59.38
 21
1.441082999999999
 31
0.0
100
AcDbText
  0
TEXT
  5
C65
330
645
100
AcDbEntity
  8
TEXT
100
AcDbText
 10
58.34875
 20
0.3577500000000001
 30
0.0
 40
0.5
  1
AC-409
 41
0.75
  7
TXT
 72
     4
 11
59.38
 21
0.6077500000000002
 31
0.0
100
AcDbText
  0
TEXT
  5
C66
330
645
100
AcDbEntity
  8
TEXT
100
AcDbText
 10
10.7605
 20
5.300832999999999
 30
0.0
 40
0.5
  1
OVERALL
 41
0.75
  7
TXT
 72
     4
 11
12.073
 21
5.550832999999999
 31
0.0
100
AcDbText
  0
TEXT
  5
C67
330
645
100
AcDbEntity
  8
TEXT
100
AcDbText
 10
26.628
 20
5.35775
 30
0.0
 40
0.5
  1
PANEL SPACE
 41
0.75
  7
TXT
 72
     4
 11
28.628
 21
5.60775
 31
0.0
100
AcDbText
  0
TEXT
  5
C68
330
645
100
AcDbEntity
  8
TEXT
100
AcDbText
 10
23.023
 20
4.524416
 30
0.0
 40
0.5
  1
FRONT
 41
0.75
  7
TXT
 72
     4
 11
23.898
 21
4.774416
 31
0.0
100
AcDbText
  0
TEXT
  5
C69
330
645
100
AcDbEntity
  8
TEXT
100
AcDbText
 10
32.67049999999999
 20
4.524416
 30
0.0
 40
0.5
  1
REAR
 41
0.75
  7
TXT
 72
     4
 11
33.35799999999999
 21
4.774416
 31
0.0
100
AcDbText
  0
LINE
  5
C6A
330
645
100
AcDbEntity
  8
TITLE
100
AcDbLine
 10
23.898
 20
4.35775
 30
0.0
 11
23.898
 21
0.248
 31
0.0
  0
LINE
  5
C6B
330
645
100
AcDbEntity
  8
TITLE
100
AcDbLine
 10
33.35799999999999
 20
4.35775
 30
0.0
 11
33.35799999999999
 21
0.248
 31
0.0
  0
TEXT
  5
C6C
330
645
100
AcDbEntity
  8
TEXT
100
AcDbText
 10
41.943
 20
4.524416
 30
0.0
 40
0.5
  1
FRONT
 41
0.75
  7
TXT
 72
     4
 11
42.81799999999999
 21
4.774416
 31
0.0
100
AcDbText
  0
TEXT
  5
C6D
330
645
100
AcDbEntity
  8
TEXT
100
AcDbText
 10
51.5905
 20
4.524416
 30
0.0
 40
0.5
  1
REAR
 41
0.75
  7
TXT
 72
     4
 11
52.278
 21
4.774416
 31
0.0
100
AcDbText
  0
TEXT
  5
C6E
330
645
100
AcDbEntity
  8
TEXT
100
AcDbText
 10
46.4855
 20
5.35775
 30
0.0
 40
0.5
  1
PANELS
 41
0.75
  7
TXT
 72
     4
 11
47.548
 21
5.60775
 31
0.0
100
AcDbText
  0
TEXT
  5
C6F
330
645
100
AcDbEntity
  8
TEXT
100
AcDbText
 10
24.493697
 20
37.36983499999999
 30
0.0
 40
0.5
  1
BOTTOM IS REMOVEABLE, ATTACHED WITH SIX (6) #6 x 1/4 LG. SHEET METAL SCREWS. (SUPPLIED)
 41
0.75
100
AcDbText
  0
TEXT
  5
C70
330
645
100
AcDbEntity
  8
TEXT
100
AcDbText
 10
24.493697
 20
35.703168
 30
0.0
 40
0.5
  1
PANELS ARE ATTACHED WITH EIGHT (8) #6 x 1/4 LG. SHEET METAL SCREWS. (SUPPLIED)
 41
0.75
  7
TXT
100
AcDbText
  0
TEXT
  5
C71
330
645
100
AcDbEntity
  8
TEXT
100
AcDbText
 10
24.493697
 20
34.036501
 30
0.0
 40
0.5
  1
FOUR (4) RUBBER FEET. (SUPPLIED)
 41
0.75
  7
TXT
100
AcDbText
  0
LINE
  5
C72
330
645
100
AcDbEntity
  8
OBJECT
100
AcDbLine
 10
17.99940499999999
 20
21.358884
 30
0.0
 11
17.99940499999999
 21
28.811884
 31
0.0
  0
LINE
  5
C73
330
645
100
AcDbEntity
  8
HIDDEN
  6
HIDDEN2
100
AcDbLine
 10
6.842405
 20
21.373884
 30
0.0
 11
6.280405
 21
21.373884
 31
0.0
  0
LINE
  5
C74
330
645
100
AcDbEntity
  8
HIDDEN
  6
HIDDEN2
100
AcDbLine
 10
6.780405
 20
21.53188399999999
 30
0.0
 11
6.342405
 21
21.53188399999999
 31
0.0
  0
LINE
  5
C75
330
645
100
AcDbEntity
  8
HIDDEN
  6
HIDDEN2
100
AcDbLine
 10
6.342405
 20
21.311884
 30
0.0
 11
6.342405
 21
21.373884
 31
0.0
  0
LINE
  5
C76
330
645
100
AcDbEntity
  8
HIDDEN
  6
HIDDEN2
100
AcDbLine
 10
6.780405
 20
21.311884
 30
0.0
 11
6.780405
 21
21.373884
 31
0.0
  0
ARC
  5
C77
330
645
100
AcDbEntity
  8
OBJECT
100
AcDbCircle
 10
6.561404999999999
 20
21.426867
 30
0.0
 40
0.332982
100
AcDbArc
 50
200.2007449999999
 51
339.7992549999999
  0
LINE
  5
C78
330
645
100
AcDbEntity
  8
HIDDEN
  6
HIDDEN2
100
AcDbLine
 10
6.342405
 20
21.53188399999999
 30
0.0
 11
6.280405
 21
21.373884
 31
0.0
  0
LINE
  5
C79
330
645
100
AcDbEntity
  8
HIDDEN
  6
HIDDEN2
100
AcDbLine
 10
6.780405
 20
21.53188399999999
 30
0.0
 11
6.842405
 21
21.373884
 31
0.0
  0
ARC
  5
C7A
330
645
100
AcDbEntity
  8
OBJECT
100
AcDbCircle
 10
17.99940499999999
 20
21.426867
 30
0.0
 40
0.332982
100
AcDbArc
 50
200.2007449999999
 51
339.7992549999999
  0
LINE
  5
C7B
330
645
100
AcDbEntity
  8
HIDDEN
  6
HIDDEN2
100
AcDbLine
 10
17.78040499999999
 20
21.53188399999999
 30
0.0
 11
17.71840499999998
 21
21.373884
 31
0.0
  0
LINE
  5
C7C
330
645
100
AcDbEntity
  8
HIDDEN
  6
HIDDEN2
100
AcDbLine
 10
17.71840499999998
 20
21.373884
 30
0.0
 11
18.280405
 21
21.373884
 31
0.0
  0
LINE
  5
C7D
330
645
100
AcDbEntity
  8
HIDDEN
100
AcDbLine
 10
18.40540499999999
 20
21.358884
 30
0.0
 11
18.40540499999999
 21
21.40588399999999
 31
0.0
  0
LINE
  5
C7E
330
645
100
AcDbEntity
  8
HIDDEN
  6
HIDDEN2
100
AcDbLine
 10
17.78040499999999
 20
21.53188399999999
 30
0.0
 11
18.21840499999998
 21
21.53188399999999
 31
0.0
  0
LINE
  5
C7F
330
645
100
AcDbEntity
  8
HIDDEN
  6
HIDDEN2
100
AcDbLine
 10
18.21840499999998
 20
21.53188399999999
 30
0.0
 11
18.280405
 21
21.373884
 31
0.0
  0
LINE
  5
C80
330
645
100
AcDbEntity
  8
HIDDEN
  6
HIDDEN2
100
AcDbLine
 10
17.78040499999999
 20
21.311884
 30
0.0
 11
17.78040499999999
 21
21.373884
 31
0.0
  0
LINE
  5
C81
330
645
100
AcDbEntity
  8
HIDDEN
  6
HIDDEN2
100
AcDbLine
 10
18.21840499999998
 20
21.311884
 30
0.0
 11
18.21840499999998
 21
21.373884
 31
0.0
  0
ARC
  5
C82
330
645
100
AcDbEntity
  8
OBJECT
100
AcDbCircle
 10
26.044748
 20
21.426867
 30
0.0
 40
0.332982
100
AcDbArc
 50
200.2007449999999
 51
339.7992549999999
  0
LINE
  5
C83
330
645
100
AcDbEntity
  8
OBJECT
100
AcDbLine
 10
26.263748
 20
21.311884
 30
0.0
 11
26.263748
 21
21.373884
 31
0.0
  0
LINE
  5
C84
330
645
100
AcDbEntity
  8
OBJECT
100
AcDbLine
 10
25.825748
 20
21.311884
 30
0.0
 11
25.825748
 21
21.373884
 31
0.0
  0
LINE
  5
C85
330
645
100
AcDbEntity
  8
OBJECT
100
AcDbLine
 10
26.263748
 20
21.53188399999999
 30
0.0
 11
26.32574799999999
 21
21.373884
 31
0.0
  0
LINE
  5
C86
330
645
100
AcDbEntity
  8
OBJECT
100
AcDbLine
 10
25.825748
 20
21.53188399999999
 30
0.0
 11
26.263748
 21
21.53188399999999
 31
0.0
  0
LINE
  5
C87
330
645
100
AcDbEntity
  8
OBJECT
100
AcDbLine
 10
25.76374799999999
 20
21.373884
 30
0.0
 11
26.32574799999999
 21
21.373884
 31
0.0
  0
LINE
  5
C88
330
645
100
AcDbEntity
  8
OBJECT
100
AcDbLine
 10
25.825748
 20
21.53188399999999
 30
0.0
 11
25.76374799999999
 21
21.373884
 31
0.0
  0
LINE
  5
C89
330
645
100
AcDbEntity
  8
OBJECT
100
AcDbLine
 10
33.32574799999999
 20
21.373884
 30
0.0
 11
32.763748
 21
21.373884
 31
0.0
  0
LINE
  5
C8A
330
645
100
AcDbEntity
  8
OBJECT
100
AcDbLine
 10
33.26374799999999
 20
21.53188399999999
 30
0.0
 11
32.82574799999999
 21
21.53188399999999
 31
0.0
  0
ARC
  5
C8B
330
645
100
AcDbEntity
  8
OBJECT
100
AcDbCircle
 10
33.04474799999999
 20
21.426867
 30
0.0
 40
0.332982
100
AcDbArc
 50
200.2007449999999
 51
339.7992549999999
  0
LINE
  5
C8C
330
645
100
AcDbEntity
  8
OBJECT
100
AcDbLine
 10
33.26374799999999
 20
21.53188399999999
 30
0.0
 11
33.32574799999999
 21
21.373884
 31
0.0
  0
LINE
  5
C8D
330
645
100
AcDbEntity
  8
OBJECT
100
AcDbLine
 10
33.26374799999999
 20
21.311884
 30
0.0
 11
33.26374799999999
 21
21.373884
 31
0.0
  0
LINE
  5
C8E
330
645
100
AcDbEntity
  8
OBJECT
100
AcDbLine
 10
32.82574799999999
 20
21.53188399999999
 30
0.0
 11
32.763748
 21
21.373884
 31
0.0
  0
LINE
  5
C8F
330
645
100
AcDbEntity
  8
OBJECT
100
AcDbLine
 10
32.82574799999999
 20
21.311884
 30
0.0
 11
32.82574799999999
 21
21.373884
 31
0.0
  0
ARC
  5
C90
330
645
100
AcDbEntity
  8
OBJECT
100
AcDbCircle
 10
40.92699099999999
 20
21.426867
 30
0.0
 40
0.332982
100
AcDbArc
 50
200.2007449999999
 51
339.7992549999999
  0
LINE
  5
C91
330
645
100
AcDbEntity
  8
HIDDEN
  6
HIDDEN2
100
AcDbLine
 10
41.14599099999998
 20
21.53188399999999
 30
0.0
 11
41.207991
 21
21.373884
 31
0.0
  0
LINE
  5
C92
330
645
100
AcDbEntity
  8
HIDDEN
  6
HIDDEN2
100
AcDbLine
 10
41.207991
 20
21.373884
 30
0.0
 11
40.64599099999998
 21
21.373884
 31
0.0
  0
LINE
  5
C93
330
645
100
AcDbEntity
  8
HIDDEN
  6
HIDDEN2
100
AcDbLine
 10
41.14599099999998
 20
21.53188399999999
 30
0.0
 11
40.707991
 21
21.53188399999999
 31
0.0
  0
LINE
  5
C94
330
645
100
AcDbEntity
  8
HIDDEN
  6
HIDDEN2
100
AcDbLine
 10
40.707991
 20
21.53188399999999
 30
0.0
 11
40.64599099999998
 21
21.373884
 31
0.0
  0
LINE
  5
C95
330
645
100
AcDbEntity
  8
HIDDEN
  6
HIDDEN2
100
AcDbLine
 10
41.14599099999998
 20
21.311884
 30
0.0
 11
41.14599099999998
 21
21.373884
 31
0.0
  0
LINE
  5
C96
330
645
100
AcDbEntity
  8
HIDDEN
  6
HIDDEN2
100
AcDbLine
 10
40.707991
 20
21.311884
 30
0.0
 11
40.707991
 21
21.373884
 31
0.0
  0
ARC
  5
C97
330
645
100
AcDbEntity
  8
OBJECT
100
AcDbCircle
 10
52.36499099999999
 20
21.426867
 30
0.0
 40
0.332982
100
AcDbArc
 50
200.2007449999999
 51
339.7992549999999
  0
LINE
  5
C98
330
645
100
AcDbEntity
  8
HIDDEN
  6
HIDDEN2
100
AcDbLine
 10
52.583991
 20
21.311884
 30
0.0
 11
52.583991
 21
21.373884
 31
0.0
  0
LINE
  5
C99
330
645
100
AcDbEntity
  8
HIDDEN
  6
HIDDEN2
100
AcDbLine
 10
52.145991
 20
21.311884
 30
0.0
 11
52.145991
 21
21.373884
 31
0.0
  0
LINE
  5
C9A
330
645
100
AcDbEntity
  8
HIDDEN
  6
HIDDEN2
100
AcDbLine
 10
52.583991
 20
21.53188399999999
 30
0.0
 11
52.645991
 21
21.373884
 31
0.0
  0
LINE
  5
C9B
330
645
100
AcDbEntity
  8
HIDDEN
  6
HIDDEN2
100
AcDbLine
 10
52.145991
 20
21.53188399999999
 30
0.0
 11
52.583991
 21
21.53188399999999
 31
0.0
  0
LINE
  5
C9C
330
645
100
AcDbEntity
  8
HIDDEN
  6
HIDDEN2
100
AcDbLine
 10
52.083991
 20
21.373884
 30
0.0
 11
52.645991
 21
21.373884
 31
0.0
  0
LINE
  5
C9D
330
645
100
AcDbEntity
  8
HIDDEN
  6
HIDDEN2
100
AcDbLine
 10
52.145991
 20
21.53188399999999
 30
0.0
 11
52.083991
 21
21.373884
 31
0.0
  0
ENDSEC
  0
SECTION
  2
OBJECTS
  0
DICTIONARY
  5
633
330
0
100
AcDbDictionary
281
     1
  3
ACAD_GROUP
350
634
  3
ACAD_PLOTSTYLENAME
350
635
  3
ACAD_MLINESTYLE
350
63D
  3
ACAD_PLOTSETTINGS
350
63F
  3
ACAD_LAYOUT
350
640
  0
DICTIONARY
  5
634
102
{ACAD_REACTORS
330
633
102
}
330
633
100
AcDbDictionary
281
     1
  0
ACDBDICTIONARYWDFLT
  5
635
102
{ACAD_REACTORS
330
633
102
}
330
633
100
AcDbDictionary
281
     1
  3
Normal
350
636
100
AcDbDictionaryWithDefault
340
636
  0
DICTIONARY
  5
63D
102
{ACAD_REACTORS
330
633
102
}
330
633
100
AcDbDictionary
281
     1
  3
Standard
350
63E
  0
DICTIONARY
  5
63F
102
{ACAD_REACTORS
330
633
102
}
330
633
100
AcDbDictionary
281
     1
  0
DICTIONARY
  5
640
102
{ACAD_REACTORS
330
633
102
}
330
633
100
AcDbDictionary
281
     1
  3
Layout1
350
644
  3
Model
350
648
  0
ACDBPLACEHOLDER
  5
636
102
{ACAD_REACTORS
330
635
102
}
330
635
  0
MLINESTYLE
  5
63E
102
{ACAD_REACTORS
330
63D
102
}
330
63D
100
AcDbMlineStyle
  2
STANDARD
 70
     0
  3

 62
   256
 51
90.0
 52
90.0
 71
     2
 49
0.5
 62
   256
  6
BYLAYER
 49
-0.5
 62
   256
  6
BYLAYER
  0
LAYOUT
  5
644
102
{ACAD_REACTORS
330
640
102
}
330
640
100
AcDbPlotSettings
  1

  2
Auto RICOH Aficio 1060 RPCS on RICOH
  4

  6

 40
0.0
 41
0.0
 42
0.0
 43
0.0
 44
0.0
 45
0.0
 46
0.0
 47
0.0
 48
0.0
 49
0.0
140
0.0
141
0.0
142
1.0
143
1.0
 70
   688
 72
     0
 73
     0
 74
     5
  7

 75
    16
147
1.0
148
0.0
149
0.0
100
AcDbLayout
  1
Layout1
 70
     1
 71
     1
 10
0.0
 20
0.0
 11
12.0
 21
9.0
 12
0.0
 22
0.0
 32
0.0
 14
1.000000000000000E+20
 24
1.000000000000000E+20
 34
1.000000000000000E+20
 15
-1.000000000000000E+20
 25
-1.000000000000000E+20
 35
-1.000000000000000E+20
146
0.0
 13
0.0
 23
0.0
 33
0.0
 16
1.0
 26
0.0
 36
0.0
 17
0.0
 27
1.0
 37
0.0
 76
     0
330
641
  0
LAYOUT
  5
648
102
{ACAD_REACTORS
330
640
102
}
330
640
100
AcDbPlotSettings
  1

  2
Auto RICOH Aficio 1060 RPCS on RICOH
  4

  6

 40
0.0
 41
0.0
 42
0.0
 43
0.0
 44
0.0
 45
0.0
 46
0.0
 47
0.0
 48
0.0
 49
0.0
140
0.0
141
0.0
142
1.0
143
1.0
 70
  1712
 72
     0
 73
     0
 74
     0
  7

 75
     0
147
1.0
148
0.0
149
0.0
100
AcDbLayout
  1
Model
 70
     1
 71
     0
 10
0.0
 20
0.0
 11
12.0
 21
9.0
 12
0.0
 22
0.0
 32
0.0
 14
0.0
 24
0.0
 34
0.0
 15
0.0
 25
0.0
 35
0.0
146
0.0
 13
0.0
 23
0.0
 33
0.0
 16
1.0
 26
0.0
 36
0.0
 17
0.0
 27
1.0
 37
0.0
 76
     0
330
645
  0
ENDSEC
  0
EOF
